999
DXF file: 212924_1.dxf
999
Pro/ENGINEER 2018300 by Parametric Technology Corporation
  0
SECTION
  2
HEADER
  9
$ACADVER
  1
AC1027
  9
$DWGCODEPAGE
  3
ANSI_1252
  9
$EXTMAX
 10
34.0
 20
22.0
 30
0.0
  9
$EXTMIN
 10
0.0
 20
0.0
 30
0.0
  9
$LIMMIN
 10
0.0
 20
0.0
  9
$LIMMAX
 10
34.0
 20
22.0
  9
$VIEWCTR
 10
17.0
 20
11.0
  9
$VIEWSIZE
 40
22.0
  9
$CLAYER
  8
0
  9
$LTSCALE
 40
1.87
  9
$CELTYPE
  6
BYLAYER
  9
$DIMSCALE
 40
1.0
  9
$DIMASZ
 40
0.1875
  9
$DIMEXO
 40
0.0625
  9
$DIMDLI
 40
1.292
  9
$DIMEXE
 40
0.125
  9
$DIMCEN
 40
0.306
  9
$DIMLFAC
 40
1.0
  9
$DIMBLK
  1
_FILLED
  9
$DIMALT
 70
1
  9
$DIMALTD
 70
2
  9
$DIMALTTD
 70
2
  9
$DIMALTF
 40
25.4
  9
$DIMTXT
 40
0.1
  9
$DIMTOL
 70
1
  9
$DIMLIM
 70
0
  9
$DIMTFAC
 40
1.0
  9
$DIMTP
 40
0.005
  9
$DIMTM
 40
0.005
  9
$DIMGAP
 40
0.09
  9
$DIMDSEP
 70
46
  9
$AUNITS
 70
0
  9
$PDMODE
 70
3
  9
$PDSIZE
 40
0.3125
  9
$HANDSEED
  5
701
  9
$TILEMODE
 70
1
  9
$MEASUREMENT
 70
0
  9
$INSUNITS
 70
1
  0
ENDSEC
  0
SECTION
  2
CLASSES
  0
CLASS
  1
ACDBDICTIONARYWDFLT
  2
AcDbDictionaryWithDefault
  3
AutoCAD 2000
 90
0
 91
1
280
0
281
0
  0
CLASS
  1
ACDBPLACEHOLDER
  2
AcDbPlaceHolder
  3
AutoCAD 2000
 90
0
 91
1
280
0
281
0
  0
CLASS
  1
LAYOUT
  2
AcDbLayout
  3
AutoCAD 2000
 90
0
 91
0
280
0
281
0
  0
CLASS
  1
TABLESTYLE
  2
AcDbTableStyle
  3
ObjectDBX Classes
 90
2047
 91
1
280
0
281
0
  0
CLASS
  1
ACAD_TABLE
  2
AcDbTable
  3
ObjectDBX Classes
 90
1025
 91
1
280
0
281
1
  0
ENDSEC
  0
SECTION
  2
TABLES
  0
TABLE
  2
VPORT
  5
8
100
AcDbSymbolTable
 70
2
  0
VPORT
  5
1F4
100
AcDbSymbolTableRecord
100
AcDbViewportTableRecord
  2
*ACTIVE
 70
0
 10
0.0
 20
0.0
 11
1.0
 21
1.0
 12
17.0
 22
11.0
 13
0.0
 23
0.0
 14
1.0
 24
1.0
 15
0.0
 25
0.0
 16
0.0
 26
0.0
 36
1.0
 17
0.0
 27
0.0
 37
0.0
 40
22.0
 41
1.5454545455
 42
50.0
 43
0.0
 44
0.0
 50
0.0
 51
0.0
 71
0
 72
100
 73
1
 74
1
 75
0
 76
0
 77
0
 78
0
  0
ENDTAB
  0
TABLE
  2
LTYPE
  5
5
100
AcDbSymbolTable
 70
6
  0
LTYPE
  5
14
100
AcDbSymbolTableRecord
100
AcDbLinetypeTableRecord
  2
BYBLOCK
 70
0
  3

 72
65
 73
0
 40
0.0
  0
LTYPE
  5
15
100
AcDbSymbolTableRecord
100
AcDbLinetypeTableRecord
  2
BYLAYER
 70
0
  3

 72
65
 73
0
 40
0.0
  0
LTYPE
  5
16
100
AcDbSymbolTableRecord
100
AcDbLinetypeTableRecord
  2
CONTINUOUS
 70
64
  3
Solid line
 72
65
 73
0
 40
0.0
  0
LTYPE
  5
1F5
100
AcDbSymbolTableRecord
100
AcDbLinetypeTableRecord
  2
CENTER
 70
64
  3
____ _ ____ _ ____ _ ____ _ ____ _ ____ _ ____
 72
65
 73
4
 40
0.6
 49
0.375
 74
0
 49
-0.075
 74
0
 49
0.075
 74
0
 49
-0.075
 74
0
  0
LTYPE
  5
1F6
100
AcDbSymbolTableRecord
100
AcDbLinetypeTableRecord
  2
HIDDEN
 70
64
  3
- - - - - - - - - - - - - - - - - - - -
 72
65
 73
2
 40
0.2
 49
0.1
 74
0
 49
-0.1
 74
0
  0
LTYPE
  5
1F7
100
AcDbSymbolTableRecord
100
AcDbLinetypeTableRecord
  2
PHANTOM
 70
64
  3
_____ _ _ _____ _ _ _____ _ _ _____
 72
65
 73
6
 40
0.8
 49
0.45
 74
0
 49
-0.05
 74
0
 49
0.1
 74
0
 49
-0.05
 74
0
 49
0.1
 74
0
 49
-0.05
 74
0
  0
LTYPE
  5
1F8
100
AcDbSymbolTableRecord
100
AcDbLinetypeTableRecord
  2
DOT
 70
64
  3
. . . . . . . . . . . . . . . . . . . .
 72
65
 73
2
 40
0.2
 49
0.1
 74
0
 49
-0.1
 74
0
  0
LTYPE
  5
1F9
100
AcDbSymbolTableRecord
100
AcDbLinetypeTableRecord
  2
DASHED
 70
64
  3
- - - - - - - - - - - - - - - - - - - -
 72
65
 73
2
 40
0.2
 49
0.1
 74
0
 49
-0.1
 74
0
  0
ENDTAB
  0
TABLE
  2
LAYER
  5
2
100
AcDbSymbolTable
 70
36
  0
LAYER
  5
10
100
AcDbSymbolTableRecord
100
AcDbLayerTableRecord
  2
0
 70
0
 62
7
  6
CONTINUOUS
370
-3
390
F
  0
LAYER
  5
1FA
100
AcDbSymbolTableRecord
100
AcDbLayerTableRecord
  2
DEFAULT_1
 70
0
 62
7
  6
CENTER
370
-3
390
F
  0
LAYER
  5
1FB
100
AcDbSymbolTableRecord
100
AcDbLayerTableRecord
  2
DEFAULT_2
 70
0
 62
7
  6
HIDDEN
370
-3
390
F
  0
LAYER
  5
1FC
100
AcDbSymbolTableRecord
100
AcDbLayerTableRecord
  2
DEFAULT_3
 70
0
 62
7
  6
PHANTOM
370
-3
390
F
  0
LAYER
  5
1FD
100
AcDbSymbolTableRecord
100
AcDbLayerTableRecord
  2
01___PRT_ALL_DTM_PLN
 70
0
 62
7
  6
CONTINUOUS
370
-3
390
F
  0
LAYER
  5
1FE
100
AcDbSymbolTableRecord
100
AcDbLayerTableRecord
  2
01___PRT_DEF_DTM_PLN
 70
0
 62
7
  6
CONTINUOUS
370
-3
390
F
  0
LAYER
  5
1FF
100
AcDbSymbolTableRecord
100
AcDbLayerTableRecord
  2
02___PRT_ALL_AXES
 70
0
 62
7
  6
CONTINUOUS
370
-3
390
F
  0
LAYER
  5
200
100
AcDbSymbolTableRecord
100
AcDbLayerTableRecord
  2
03___PRT_ALL_CURVES
 70
0
 62
7
  6
CONTINUOUS
370
-3
390
F
  0
LAYER
  5
201
100
AcDbSymbolTableRecord
100
AcDbLayerTableRecord
  2
04___PRT_ALL_DTM_PNT
 70
0
 62
7
  6
CONTINUOUS
370
-3
390
F
  0
LAYER
  5
202
100
AcDbSymbolTableRecord
100
AcDbLayerTableRecord
  2
05___PRT_ALL_DTM_CSYS
 70
0
 62
7
  6
CONTINUOUS
370
-3
390
F
  0
LAYER
  5
203
100
AcDbSymbolTableRecord
100
AcDbLayerTableRecord
  2
05___PRT_DEF_DTM_CSYS
 70
0
 62
7
  6
CONTINUOUS
370
-3
390
F
  0
LAYER
  5
204
100
AcDbSymbolTableRecord
100
AcDbLayerTableRecord
  2
06___PRT_ALL_SURFS
 70
0
 62
7
  6
CONTINUOUS
370
-3
390
F
  0
LAYER
  5
205
100
AcDbSymbolTableRecord
100
AcDbLayerTableRecord
  2
AXIS
 70
0
 62
7
  6
CONTINUOUS
370
-3
390
F
  0
LAYER
  5
206
100
AcDbSymbolTableRecord
100
AcDbLayerTableRecord
  2
AXIS_COSMETIC_THREADS
 70
0
 62
7
  6
CONTINUOUS
370
-3
390
F
  0
LAYER
  5
207
100
AcDbSymbolTableRecord
100
AcDbLayerTableRecord
  2
DATUM_CURVES
 70
0
 62
7
  6
CONTINUOUS
370
-3
390
F
  0
LAYER
  5
208
100
AcDbSymbolTableRecord
100
AcDbLayerTableRecord
  2
DATUM_PLANES
 70
0
 62
7
  6
CONTINUOUS
370
-3
390
F
  0
LAYER
  5
209
100
AcDbSymbolTableRecord
100
AcDbLayerTableRecord
  2
GEOMETRIC_TOLERANCES
 70
0
 62
7
  6
CONTINUOUS
370
-3
390
F
  0
LAYER
  5
20A
100
AcDbSymbolTableRecord
100
AcDbLayerTableRecord
  2
NOTES
 70
0
 62
7
  6
CONTINUOUS
370
-3
390
F
  0
LAYER
  5
20B
100
AcDbSymbolTableRecord
100
AcDbLayerTableRecord
  2
QUILTS
 70
0
 62
7
  6
CONTINUOUS
370
-3
390
F
  0
LAYER
  5
20C
100
AcDbSymbolTableRecord
100
AcDbLayerTableRecord
  2
SCHEME_DIMS
 70
0
 62
7
  6
CONTINUOUS
370
-3
390
F
  0
LAYER
  5
20D
100
AcDbSymbolTableRecord
100
AcDbLayerTableRecord
  2
SYMBOLS
 70
0
 62
7
  6
CONTINUOUS
370
-3
390
F
  0
ENDTAB
  0
TABLE
  2
STYLE
  5
3
100
AcDbSymbolTable
 70
1
  0
STYLE
  5
11
100
AcDbSymbolTableRecord
100
AcDbTextStyleTableRecord
  2
STANDARD
 70
0
 40
0.0
 41
1.0
 50
0.0
 71
0
 42
0.2
  3
txt
  4

  0
STYLE
  5
20E
100
AcDbSymbolTableRecord
100
AcDbTextStyleTableRecord
  2
TEXTSTYLE_1
 70
0
 40
0.0
 41
0.8
 50
0.0
 71
0
 42
0.2
  3
gdt
  4

  0
STYLE
  5
20F
100
AcDbSymbolTableRecord
100
AcDbTextStyleTableRecord
  2
TEXTSTYLE_2
 70
0
 40
0.0
 41
0.8
 50
0.0
 71
0
 42
0.2
  3
txt
  4

  0
STYLE
  5
210
100
AcDbSymbolTableRecord
100
AcDbTextStyleTableRecord
  2
TEXTSTYLE_3
 70
0
 40
0.0
 41
0.9
 50
0.0
 71
0
 42
0.2
  3
txt
  4

  0
STYLE
  5
211
100
AcDbSymbolTableRecord
100
AcDbTextStyleTableRecord
  2
TEXTSTYLE_4
 70
0
 40
0.0
 41
0.85
 50
0.0
 71
0
 42
0.2
  3
txt
  4

  0
STYLE
  5
212
100
AcDbSymbolTableRecord
100
AcDbTextStyleTableRecord
  2
TEXTSTYLE_5
 70
0
 40
0.0
 41
0.75
 50
0.0
 71
0
 42
0.2
  3
txt
  4

  0
STYLE
  5
213
100
AcDbSymbolTableRecord
100
AcDbTextStyleTableRecord
  2
TEXTSTYLE_6
 70
0
 40
0.0
 41
1.0
 50
0.0
 71
0
 42
0.2
  3
gdt
  4

  0
ENDTAB
  0
TABLE
  2
VIEW
  5
6
100
AcDbSymbolTable
 70
0
  0
ENDTAB
  0
TABLE
  2
UCS
  5
7
100
AcDbSymbolTable
 70
0
  0
ENDTAB
  0
TABLE
  2
APPID
  5
9
100
AcDbSymbolTable
 70
1
  0
APPID
  5
214
100
AcDbSymbolTableRecord
100
AcDbRegAppTableRecord
  2
ACAD
 70
0
  0
ENDTAB
  0
TABLE
  2
BLOCK_RECORD
  5
1
100
AcDbSymbolTable
 70
0
  0
BLOCK_RECORD
  5
215
100
AcDbSymbolTableRecord
100
AcDbBlockTableRecord
  2
*Model_Space
  0
BLOCK_RECORD
  5
216
100
AcDbSymbolTableRecord
100
AcDbBlockTableRecord
  2
*Paper_Space
  0
BLOCK_RECORD
  5
217
100
AcDbSymbolTableRecord
100
AcDbBlockTableRecord
  2
_FILLED
  0
BLOCK_RECORD
  5
218
100
AcDbSymbolTableRecord
100
AcDbBlockTableRecord
  2
*D0
  0
BLOCK_RECORD
  5
219
100
AcDbSymbolTableRecord
100
AcDbBlockTableRecord
  2
*D1
  0
BLOCK_RECORD
  5
21A
100
AcDbSymbolTableRecord
100
AcDbBlockTableRecord
  2
*D2
  0
BLOCK_RECORD
  5
21B
100
AcDbSymbolTableRecord
100
AcDbBlockTableRecord
  2
*D3
  0
BLOCK_RECORD
  5
21C
100
AcDbSymbolTableRecord
100
AcDbBlockTableRecord
  2
*D4
  0
BLOCK_RECORD
  5
21D
100
AcDbSymbolTableRecord
100
AcDbBlockTableRecord
  2
*T1
  0
ENDTAB
  0
TABLE
  2
DIMSTYLE
  5
A
100
AcDbSymbolTable
 70
1
100
AcDbDimStyleTable
 71
0
  0
DIMSTYLE
105
21E
100
AcDbSymbolTableRecord
100
AcDbDimStyleTableRecord
  2
STANDARD
 70
0
  3

  4

 40
1.0
 41
0.1875
 42
0.0625
 43
0.38
 44
0.125
 45
0.0
 46
0.0
 47
0.005
 48
0.005
140
0.1
141
0.09
142
0.0
143
1.0
144
1.0
145
0.0
146
1.0
147
0.09
 71
1.0
 72
0.0
 73
1
 74
1
 75
0
 76
0
 77
0
 78
0
 79
0
170
1
171
2
172
0
173
0
174
0
175
0
176
0
177
0
178
0
270
2
179
3
271
3
272
3
273
2
274
2
275
0
280
0
281
0
282
0
283
1
284
0
285
0
286
0
287
3
288
0
340
11
278
46
341
217
342
217
343
217
344
217
  0
DIMSTYLE
105
21F
100
AcDbSymbolTableRecord
100
AcDbDimStyleTableRecord
  2
DIMSTYLE_1
 70
0
  3
<>
  4

 40
1.0
 41
0.1875
 42
0.0625
 43
0.38
 44
0.125
 45
0.0
 46
0.0
 47
0.1
 48
0.1
140
0.1
141
0.09
142
0.0
143
1.0
144
1.0
145
0.0
146
1.0
147
0.09
 71
0.0
 72
0.0
 73
1
 74
1
 75
0
 76
0
 77
0
 78
0
 79
0
170
1
171
2
172
1
173
0
174
0
175
0
176
0
177
0
178
0
270
2
179
3
271
1
272
3
273
2
274
4
275
0
280
0
281
0
282
0
283
1
284
0
285
0
286
0
287
3
288
1
340
11
278
46
289
2
341
217
342
217
343
217
344
217
  0
DIMSTYLE
105
220
100
AcDbSymbolTableRecord
100
AcDbDimStyleTableRecord
  2
DIMSTYLE_2
 70
0
  3

  4

 40
1.0
 41
0.1875
 42
0.0625
 43
0.38
 44
0.125
 45
0.0
 46
0.0
 47
0.1
 48
0.1
140
0.1
141
0.09
142
0.0
143
1.0
144
1.0
145
0.0
146
1.0
147
0.1
 71
0.0
 72
0.0
 73
1
 74
1
 75
0
 76
0
 77
0
 78
0
 79
0
170
1
171
2
172
0
173
0
174
0
175
0
176
0
177
0
178
0
270
2
179
3
271
1
272
3
273
2
274
4
275
0
280
0
281
0
282
0
283
1
284
0
285
0
286
0
287
3
288
0
340
11
278
46
341
217
342
217
343
217
344
217
  0
ENDTAB
  0
ENDSEC
  0
SECTION
  2
BLOCKS
  0
BLOCK
  5
20
100
AcDbEntity
  8
0
100
AcDbBlockBegin
  2
*Model_Space
 70
0
 10
0.0
 20
0.0
 30
0.0
  3
*Model_Space
  1

  0
ENDBLK
  5
21
100
AcDbEntity
  8
0
100
AcDbBlockEnd
  0
BLOCK
  5
1C
100
AcDbEntity
  8
0
100
AcDbBlockBegin
  2
*Paper_Space
 70
0
 10
0.0
 20
0.0
 30
0.0
  3
*Paper_Space
  1

  0
ENDBLK
  5
1D
100
AcDbEntity
  8
0
100
AcDbBlockEnd
  0
BLOCK
  5
221
100
AcDbEntity
  8
0
100
AcDbBlockBegin
  2
_FILLED
 70
64
 10
0.0
 20
0.0
  3
_FILLED
  1

  0
SOLID
  5
222
100
AcDbEntity
  8
0
  6
BYBLOCK
 62
0
100
AcDbTrace
 10
0.0
 20
0.0
 11
-1.0
 21
0.1666666667
 12
-1.0
 22
-0.1666666667
 13
-1.0
 23
-0.1666666667
  0
ENDBLK
  5
223
100
AcDbEntity
  8
0
  6
BYBLOCK
 62
0
100
AcDbBlockEnd
  0
BLOCK
  5
224
100
AcDbEntity
  8
SCHEME_DIMS
100
AcDbBlockBegin
 62
7
  6
CONTINUOUS
  2
*D0
 70
65
 10
0.0
 20
0.0
  3
*D0
  1

  0
MTEXT
  5
225
100
AcDbEntity
  8
SCHEME_DIMS
100
AcDbMText
 62
7
  6
CONTINUOUS
  7
TEXTSTYLE_6
 71
1
 72
1
 10
18.0067464943
 20
4.5120222421
 30
0.0
 11
1.0
 21
0.0
 31
0.0
 73
2
 44
0.9
  1
{\fgdt;n}\ftxt;50.5\P[1.99]
 40
0.1
 41
0.6
  0
LINE
  5
226
100
AcDbEntity
  8
SCHEME_DIMS
100
AcDbLine
 62
7
  6
CONTINUOUS
 10
17.6585998727
 20
4.3596719881
 11
16.9705578282
 21
3.6421610151
  0
LINE
  5
227
100
AcDbEntity
  8
SCHEME_DIMS
100
AcDbLine
 62
7
  6
CONTINUOUS
 10
16.9705578282
 20
3.6421610151
 11
17.7567464943
 21
4.4620222421
  0
LINE
  5
228
100
AcDbEntity
  8
SCHEME_DIMS
100
AcDbLine
 62
7
  6
CONTINUOUS
 10
17.7567464943
 20
4.4620222421
 11
17.9067464943
 21
4.4620222421
  0
LINE
  5
229
100
AcDbEntity
  8
SCHEME_DIMS
100
AcDbLine
 62
7
  6
CONTINUOUS
 10
16.2825157837
 20
2.9246500421
 11
16.9705578282
 21
3.6421610151
  0
INSERT
  5
22A
100
AcDbEntity
  8
SCHEME_DIMS
100
AcDbBlockReference
 62
7
  6
CONTINUOUS
  2
_FILLED
 10
17.6585998727
 20
4.3596719881
 41
0.1875
 42
0.1875
 43
0.1875
 50
46.2010915808
  0
INSERT
  5
22B
100
AcDbEntity
  8
SCHEME_DIMS
100
AcDbBlockReference
 62
7
  6
CONTINUOUS
  2
_FILLED
 10
16.2825157837
 20
2.9246500421
 41
0.1875
 42
0.1875
 43
0.1875
 50
226.2010915808
  0
ENDBLK
  5
22C
100
AcDbEntity
  8
0
  6
BYBLOCK
 62
0
100
AcDbBlockEnd
  0
BLOCK
  5
22D
100
AcDbEntity
  8
SCHEME_DIMS
100
AcDbBlockBegin
 62
7
  6
CONTINUOUS
  2
*D1
 70
65
 10
0.0
 20
0.0
  3
*D1
  1

  0
MTEXT
  5
22E
100
AcDbEntity
  8
SCHEME_DIMS
100
AcDbMText
 62
7
  6
CONTINUOUS
  7
TEXTSTYLE_6
 71
2
 72
1
 10
16.8705578282
 20
7.3215415725
 30
0.0
 11
1.0
 21
0.0
 31
0.0
 73
2
 44
0.9
  1
{\fgdt;n}\ftxt;45.0\P[1.77]
 40
0.1
 41
0.6
  0
LINE
  5
22F
100
AcDbEntity
  8
SCHEME_DIMS
100
AcDbLine
 62
7
  6
CONTINUOUS
 10
16.0847310565
 20
9.9896372757
 11
16.0847310565
 21
9.3498816424
  0
LINE
  5
230
100
AcDbEntity
  8
SCHEME_DIMS
100
AcDbLine
 62
7
  6
CONTINUOUS
 10
16.0847310565
 20
9.1461387602
 11
16.0847310565
 21
7.1465415725
  0
LINE
  5
231
100
AcDbEntity
  8
SCHEME_DIMS
100
AcDbLine
 62
7
  6
CONTINUOUS
 10
17.8563845998
 20
9.9883541851
 11
17.8563845998
 21
7.1465415725
  0
LINE
  5
232
100
AcDbEntity
  8
SCHEME_DIMS
100
AcDbLine
 62
7
  6
CONTINUOUS
 10
16.0847310565
 20
7.2715415725
 11
16.5038911615
 21
7.2715415725
  0
LINE
  5
233
100
AcDbEntity
  8
SCHEME_DIMS
100
AcDbLine
 62
7
  6
CONTINUOUS
 10
17.8563845998
 20
7.2715415725
 11
17.4372244949
 21
7.2715415725
  0
INSERT
  5
234
100
AcDbEntity
  8
SCHEME_DIMS
100
AcDbBlockReference
 62
7
  6
CONTINUOUS
  2
_FILLED
 10
16.0847310565
 20
7.2715415725
 41
0.1875
 42
0.1875
 43
0.1875
 50
180.0
  0
INSERT
  5
235
100
AcDbEntity
  8
SCHEME_DIMS
100
AcDbBlockReference
 62
7
  6
CONTINUOUS
  2
_FILLED
 10
17.8563845998
 20
7.2715415725
 41
0.1875
 42
0.1875
 43
0.1875
  0
ENDBLK
  5
236
100
AcDbEntity
  8
0
  6
BYBLOCK
 62
0
100
AcDbBlockEnd
  0
BLOCK
  5
237
100
AcDbEntity
  8
SCHEME_DIMS
100
AcDbBlockBegin
 62
7
  6
CONTINUOUS
  2
*D2
 70
65
 10
0.0
 20
0.0
  3
*D2
  1

  0
MTEXT
  5
238
100
AcDbEntity
  8
SCHEME_DIMS
100
AcDbMText
 62
7
  6
CONTINUOUS
  7
STANDARD
 71
2
 72
1
 10
18.4831169333
 20
9.6316122841
 30
0.0
 11
1.0
 21
0.0
 31
0.0
 73
2
 44
0.9
  1
19.0\P[.75]
 40
0.1
 41
0.5
  0
LINE
  5
239
100
AcDbEntity
  8
SCHEME_DIMS
100
AcDbLine
 62
7
  6
CONTINUOUS
 10
17.5527428676
 20
9.207596536
 11
18.6581169333
 21
9.207596536
  0
LINE
  5
23A
100
AcDbEntity
  8
SCHEME_DIMS
100
AcDbLine
 62
7
  6
CONTINUOUS
 10
17.78896334
 20
9.9556280321
 11
18.6581169333
 21
9.9556280321
  0
LINE
  5
23B
100
AcDbEntity
  8
SCHEME_DIMS
100
AcDbLine
 62
7
  6
CONTINUOUS
 10
18.5331169333
 20
9.207596536
 11
18.5331169333
 21
8.807596536
  0
LINE
  5
23C
100
AcDbEntity
  8
SCHEME_DIMS
100
AcDbLine
 62
7
  6
CONTINUOUS
 10
18.5331169333
 20
9.9556280321
 11
18.5331169333
 21
10.3556280321
  0
INSERT
  5
23D
100
AcDbEntity
  8
SCHEME_DIMS
100
AcDbBlockReference
 62
7
  6
CONTINUOUS
  2
_FILLED
 10
18.5331169333
 20
9.207596536
 41
0.1875
 42
0.1875
 43
0.1875
 50
90.0
  0
INSERT
  5
23E
100
AcDbEntity
  8
SCHEME_DIMS
100
AcDbBlockReference
 62
7
  6
CONTINUOUS
  2
_FILLED
 10
18.5331169333
 20
9.9556280321
 41
0.1875
 42
0.1875
 43
0.1875
 50
270.0
  0
ENDBLK
  5
23F
100
AcDbEntity
  8
0
  6
BYBLOCK
 62
0
100
AcDbBlockEnd
  0
BLOCK
  5
240
100
AcDbEntity
  8
SCHEME_DIMS
100
AcDbBlockBegin
 62
7
  6
CONTINUOUS
  2
*D3
 70
65
 10
0.0
 20
0.0
  3
*D3
  1

  0
MTEXT
  5
241
100
AcDbEntity
  8
SCHEME_DIMS
100
AcDbMText
 62
7
  6
CONTINUOUS
  7
STANDARD
 71
2
 72
1
 10
19.2171172839
 20
14.1286595282
 30
0.0
 11
1.0
 21
0.0
 31
0.0
 73
2
 44
0.9
  1
247.5\P[9.74]
 40
0.1
 41
0.6
  0
LINE
  5
242
100
AcDbEntity
  8
SCHEME_DIMS
100
AcDbLine
 62
7
  6
CONTINUOUS
 10
17.5527428676
 20
9.207596536
 11
19.3921172839
 21
9.207596536
  0
LINE
  5
243
100
AcDbEntity
  8
SCHEME_DIMS
100
AcDbLine
 62
7
  6
CONTINUOUS
 10
17.9188845998
 20
18.9497225203
 11
19.3921172839
 21
18.9497225203
  0
LINE
  5
244
100
AcDbEntity
  8
SCHEME_DIMS
100
AcDbLine
 62
7
  6
CONTINUOUS
 10
19.2671172839
 20
9.207596536
 11
19.2671172839
 21
13.7786595282
  0
LINE
  5
245
100
AcDbEntity
  8
SCHEME_DIMS
100
AcDbLine
 62
7
  6
CONTINUOUS
 10
19.2671172839
 20
18.9497225203
 11
19.2671172839
 21
14.2286595282
  0
INSERT
  5
246
100
AcDbEntity
  8
SCHEME_DIMS
100
AcDbBlockReference
 62
7
  6
CONTINUOUS
  2
_FILLED
 10
19.2671172839
 20
9.207596536
 41
0.1875
 42
0.1875
 43
0.1875
 50
270.0
  0
INSERT
  5
247
100
AcDbEntity
  8
SCHEME_DIMS
100
AcDbBlockReference
 62
7
  6
CONTINUOUS
  2
_FILLED
 10
19.2671172839
 20
18.9497225203
 41
0.1875
 42
0.1875
 43
0.1875
 50
90.0
  0
ENDBLK
  5
248
100
AcDbEntity
  8
0
  6
BYBLOCK
 62
0
100
AcDbBlockEnd
  0
BLOCK
  5
249
100
AcDbEntity
  8
SCHEME_DIMS
100
AcDbBlockBegin
 62
7
  6
CONTINUOUS
  2
*D4
 70
65
 10
0.0
 20
0.0
  3
*D4
  1

  0
MTEXT
  5
24A
100
AcDbEntity
  8
SCHEME_DIMS
100
AcDbMText
 62
7
  6
CONTINUOUS
  7
STANDARD
 71
2
 72
1
 10
15.2098186366
 20
11.541061103
 30
0.0
 11
1.0
 21
0.0
 31
0.0
 73
2
 44
0.9
  1
5X 27.2\P[1.07]
 40
0.1
 41
0.7
  0
LINE
  5
24B
100
AcDbEntity
  8
SCHEME_DIMS
100
AcDbLine
 62
7
  6
CONTINUOUS
 10
15.9218373558
 20
12.0264941738
 11
15.1848186366
 21
12.0264941738
  0
LINE
  5
24C
100
AcDbEntity
  8
SCHEME_DIMS
100
AcDbLine
 62
7
  6
CONTINUOUS
 10
15.9218373558
 20
10.9556280321
 11
15.1848186366
 21
10.9556280321
  0
LINE
  5
24D
100
AcDbEntity
  8
SCHEME_DIMS
100
AcDbLine
 62
7
  6
CONTINUOUS
 10
15.3098186366
 20
12.0264941738
 11
15.3098186366
 21
11.641061103
  0
LINE
  5
24E
100
AcDbEntity
  8
SCHEME_DIMS
100
AcDbLine
 62
7
  6
CONTINUOUS
 10
15.3098186366
 20
10.9556280321
 11
15.3098186366
 21
11.191061103
  0
INSERT
  5
24F
100
AcDbEntity
  8
SCHEME_DIMS
100
AcDbBlockReference
 62
7
  6
CONTINUOUS
  2
_FILLED
 10
15.3098186366
 20
12.0264941738
 41
0.1875
 42
0.1875
 43
0.1875
 50
90.0
  0
INSERT
  5
250
100
AcDbEntity
  8
SCHEME_DIMS
100
AcDbBlockReference
 62
7
  6
CONTINUOUS
  2
_FILLED
 10
15.3098186366
 20
10.9556280321
 41
0.1875
 42
0.1875
 43
0.1875
 50
270.0
  0
ENDBLK
  5
251
100
AcDbEntity
  8
0
  6
BYBLOCK
 62
0
100
AcDbBlockEnd
  0
BLOCK
  5
252
100
AcDbEntity
  8
0
100
AcDbBlockBegin
  2
*T1
 70
1
 10
0.0
 20
0.0
  3
*T1
  1

  0
LINE
  5
253
100
AcDbEntity
  8
0
100
AcDbLine
 62
7
  6
CONTINUOUS
 10
4.35
 20
0.0
 11
-0.0
 21
0.0
  0
LINE
  5
254
100
AcDbEntity
  8
0
100
AcDbLine
 62
7
  6
CONTINUOUS
 10
4.35
 20
0.0
 11
4.35
 21
1.92
  0
LINE
  5
255
100
AcDbEntity
  8
0
100
AcDbLine
 62
7
  6
CONTINUOUS
 10
4.35
 20
1.92
 11
-0.0
 21
1.92
  0
LINE
  5
256
100
AcDbEntity
  8
0
100
AcDbLine
 62
7
  6
CONTINUOUS
 10
-0.0
 20
0.0
 11
-0.0
 21
1.92
  0
MTEXT
  5
257
100
AcDbEntity
  8
NOTES
100
AcDbMText
 62
7
  6
CONTINUOUS
  7
STANDARD
 71
2
 72
1
 10
4.125
 20
0.48
 30
0.0
 11
1.0
 21
0.0
 31
0.0
 73
2
 44
0.9
  1
A
 40
0.1
 41
0.2
  0
MTEXT
  5
258
100
AcDbEntity
  8
NOTES
100
AcDbMText
 62
7
  6
CONTINUOUS
  7
STANDARD
 71
2
 72
1
 10
2.175
 20
1.08
 30
0.0
 11
1.0
 21
0.0
 31
0.0
 73
2
 44
0.9
  1
TL50 BASIC 5 STACK CABLE \P 
 40
0.1
 41
5.0
  0
ENDBLK
  5
259
100
AcDbEntity
  8
0
  6
BYBLOCK
 62
0
100
AcDbBlockEnd
  0
ENDSEC
  0
SECTION
  2
ENTITIES
  0
MTEXT
  5
25A
100
AcDbEntity
  8
0
100
AcDbMText
 62
7
  6
CONTINUOUS
  7
TEXTSTYLE_2
 71
2
 72
1
 10
28.0199216922
 20
1.6190619563
 30
0.0
 11
1.0
 21
0.0
 31
0.0
 73
2
 44
0.9
  1
THIRD ANGLE PROJECTION
 40
0.1
 41
1.76
  0
MTEXT
  5
25B
100
AcDbEntity
  8
0
100
AcDbMText
 62
7
  6
CONTINUOUS
  7
STANDARD
 71
1
 72
1
 10
29.8524539446
 20
1.273495704
 30
0.0
 11
1.0
 21
0.0
 31
0.0
 73
2
 44
0.9
  1
DRAWING NO.
 40
0.08
 41
0.88
  0
MTEXT
  5
25C
100
AcDbEntity
  8
0
100
AcDbMText
 62
7
  6
CONTINUOUS
  7
TEXTSTYLE_2
 71
1
 72
1
 10
29.0524539446
 20
2.033495704
 30
0.0
 11
1.0
 21
0.0
 31
0.0
 73
2
 44
0.9
  1
TITLE
 40
0.1
 41
0.4
  0
MTEXT
  5
25D
100
AcDbEntity
  8
0
100
AcDbMText
 62
7
  6
CONTINUOUS
  7
STANDARD
 71
1
 72
1
 10
29.0524539446
 20
1.273495704
 30
0.0
 11
1.0
 21
0.0
 31
0.0
 73
2
 44
0.9
  1
SIZE
 40
0.08
 41
0.32
  0
MTEXT
  5
25E
100
AcDbEntity
  8
0
100
AcDbMText
 62
7
  6
CONTINUOUS
  7
STANDARD
 71
1
 72
1
 10
29.0524539446
 20
0.903495704
 30
0.0
 11
1.0
 21
0.0
 31
0.0
 73
2
 44
0.9
  1
SCALE
 40
0.08
 41
0.4
  0
MTEXT
  5
25F
100
AcDbEntity
  8
0
100
AcDbMText
 62
7
  6
CONTINUOUS
  7
TEXTSTYLE_2
 71
2
 72
1
 10
29.4724539446
 20
1.153495704
 30
0.0
 11
1.0
 21
0.0
 31
0.0
 73
2
 44
0.9
  1
D
 40
0.1
 41
0.08
  0
MTEXT
  5
260
100
AcDbEntity
  8
0
100
AcDbMText
 62
7
  6
CONTINUOUS
  7
STANDARD
 71
1
 72
1
 10
31.2274539446
 20
0.903495704
 30
0.0
 11
1.0
 21
0.0
 31
0.0
 73
2
 44
0.9
  1
SHEET
 40
0.08
 41
0.4
  0
MTEXT
  5
261
100
AcDbEntity
  8
0
100
AcDbMText
 62
7
  6
CONTINUOUS
  7
STANDARD
 71
1
 72
1
 10
32.6024539446
 20
1.273495704
 30
0.0
 11
1.0
 21
0.0
 31
0.0
 73
2
 44
0.9
  1
REV.
 40
0.08
 41
0.32
  0
MTEXT
  5
262
100
AcDbEntity
  8
0
100
AcDbMText
 62
7
  6
CONTINUOUS
  7
STANDARD
 71
3
 72
1
 10
33.3524539446
 20
0.651938704
 30
0.0
 11
1.0
 21
0.0
 31
0.0
 73
2
 44
0.9
  1
CREO
 40
0.07
 41
0.28
  0
MTEXT
  5
263
100
AcDbEntity
  8
0
100
AcDbMText
 62
7
  6
CONTINUOUS
  7
TEXTSTYLE_2
 71
2
 72
1
 10
19.0799181027
 20
21.5283228612
 30
0.0
 11
1.0
 21
0.0
 31
0.0
 73
2
 44
0.9
  1
4
 40
0.1
 41
0.08
  0
MTEXT
  5
264
100
AcDbEntity
  8
0
100
AcDbMText
 62
7
  6
CONTINUOUS
  7
TEXTSTYLE_2
 71
2
 72
1
 10
19.0880840042
 20
0.6094254072
 30
0.0
 11
1.0
 21
0.0
 31
0.0
 73
2
 44
0.9
  1
4
 40
0.1
 41
0.08
  0
MTEXT
  5
265
100
AcDbEntity
  8
0
100
AcDbMText
 62
7
  6
CONTINUOUS
  7
TEXTSTYLE_2
 71
3
 72
1
 10
0.6480386617
 20
8.5035017283
 30
0.0
 11
1.0
 21
0.0
 31
0.0
 73
2
 44
0.9
  1
B
 40
0.1
 41
0.08
  0
MTEXT
  5
266
100
AcDbEntity
  8
0
100
AcDbMText
 62
7
  6
CONTINUOUS
  7
TEXTSTYLE_2
 71
1
 72
1
 10
33.4429590822
 20
8.5003665936
 30
0.0
 11
1.0
 21
0.0
 31
0.0
 73
2
 44
0.9
  1
B
 40
0.1
 41
0.08
  0
MTEXT
  5
267
100
AcDbEntity
  8
0
100
AcDbMText
 62
7
  6
CONTINUOUS
  7
TEXTSTYLE_2
 71
3
 72
1
 10
0.6595840023
 20
3.3488782467
 30
0.0
 11
1.0
 21
0.0
 31
0.0
 73
2
 44
0.9
  1
A
 40
0.1
 41
0.08
  0
MTEXT
  5
268
100
AcDbEntity
  8
0
100
AcDbMText
 62
7
  6
CONTINUOUS
  7
TEXTSTYLE_2
 71
1
 72
1
 10
33.4700184742
 20
3.315436593
 30
0.0
 11
1.0
 21
0.0
 31
0.0
 73
2
 44
0.9
  1
A
 40
0.1
 41
0.08
  0
MTEXT
  5
269
100
AcDbEntity
  8
0
100
AcDbMText
 62
7
  6
CONTINUOUS
  7
TEXTSTYLE_2
 71
3
 72
1
 10
0.6364933212
 20
18.8127486917
 30
0.0
 11
1.0
 21
0.0
 31
0.0
 73
2
 44
0.9
  1
D
 40
0.1
 41
0.08
  0
MTEXT
  5
26A
100
AcDbEntity
  8
0
100
AcDbMText
 62
7
  6
CONTINUOUS
  7
TEXTSTYLE_2
 71
1
 72
1
 10
33.4736263931
 20
18.8106959326
 30
0.0
 11
1.0
 21
0.0
 31
0.0
 73
2
 44
0.9
  1
D
 40
0.1
 41
0.08
  0
MTEXT
  5
26B
100
AcDbEntity
  8
0
100
AcDbMText
 62
7
  6
CONTINUOUS
  7
TEXTSTYLE_2
 71
3
 72
1
 10
0.6191753104
 20
13.6638978803
 30
0.0
 11
1.0
 21
0.0
 31
0.0
 73
2
 44
0.9
  1
C
 40
0.1
 41
0.08
  0
MTEXT
  5
26C
100
AcDbEntity
  8
0
100
AcDbMText
 62
7
  6
CONTINUOUS
  7
TEXTSTYLE_2
 71
1
 72
1
 10
33.453782839
 20
13.6528253239
 30
0.0
 11
1.0
 21
0.0
 31
0.0
 73
2
 44
0.9
  1
C
 40
0.1
 41
0.08
  0
MTEXT
  5
26D
100
AcDbEntity
  8
0
100
AcDbMText
 62
7
  6
CONTINUOUS
  7
TEXTSTYLE_2
 71
2
 72
1
 10
23.1665713531
 20
0.6088852669
 30
0.0
 11
1.0
 21
0.0
 31
0.0
 73
2
 44
0.9
  1
3
 40
0.1
 41
0.08
  0
MTEXT
  5
26E
100
AcDbEntity
  8
0
100
AcDbMText
 62
7
  6
CONTINUOUS
  7
TEXTSTYLE_2
 71
2
 72
1
 10
23.1589893446
 20
21.5290464197
 30
0.0
 11
1.0
 21
0.0
 31
0.0
 73
2
 44
0.9
  1
3
 40
0.1
 41
0.08
  0
MTEXT
  5
26F
100
AcDbEntity
  8
0
100
AcDbMText
 62
7
  6
CONTINUOUS
  7
TEXTSTYLE_2
 71
2
 72
1
 10
27.2361235997
 20
21.5290464197
 30
0.0
 11
1.0
 21
0.0
 31
0.0
 73
2
 44
0.9
  1
2
 40
0.1
 41
0.08
  0
MTEXT
  5
270
100
AcDbEntity
  8
0
100
AcDbMText
 62
7
  6
CONTINUOUS
  7
TEXTSTYLE_2
 71
2
 72
1
 10
27.2374923476
 20
0.6094254072
 30
0.0
 11
1.0
 21
0.0
 31
0.0
 73
2
 44
0.9
  1
2
 40
0.1
 41
0.08
  0
MTEXT
  5
271
100
AcDbEntity
  8
0
100
AcDbMText
 62
7
  6
CONTINUOUS
  7
TEXTSTYLE_2
 71
2
 72
1
 10
31.3205521496
 20
0.6089620551
 30
0.0
 11
1.0
 21
0.0
 31
0.0
 73
2
 44
0.9
  1
1
 40
0.1
 41
0.08
  0
MTEXT
  5
272
100
AcDbEntity
  8
0
100
AcDbMText
 62
7
  6
CONTINUOUS
  7
TEXTSTYLE_2
 71
2
 72
1
 10
31.3123769947
 20
21.5290464197
 30
0.0
 11
1.0
 21
0.0
 31
0.0
 73
2
 44
0.9
  1
1
 40
0.1
 41
0.08
  0
MTEXT
  5
273
100
AcDbEntity
  8
0
100
AcDbMText
 62
7
  6
CONTINUOUS
  7
TEXTSTYLE_2
 71
2
 72
1
 10
2.7773437197
 20
0.6087916636
 30
0.0
 11
1.0
 21
0.0
 31
0.0
 73
2
 44
0.9
  1
8
 40
0.1
 41
0.08
  0
MTEXT
  5
274
100
AcDbEntity
  8
0
100
AcDbMText
 62
7
  6
CONTINUOUS
  7
TEXTSTYLE_2
 71
2
 72
1
 10
6.8552201462
 20
0.60942077
 30
0.0
 11
1.0
 21
0.0
 31
0.0
 73
2
 44
0.9
  1
7
 40
0.1
 41
0.08
  0
MTEXT
  5
275
100
AcDbEntity
  8
0
100
AcDbMText
 62
7
  6
CONTINUOUS
  7
TEXTSTYLE_2
 71
2
 72
1
 10
10.9328507889
 20
0.6085710197
 30
0.0
 11
1.0
 21
0.0
 31
0.0
 73
2
 44
0.9
  1
6
 40
0.1
 41
0.08
  0
MTEXT
  5
276
100
AcDbEntity
  8
0
100
AcDbMText
 62
7
  6
CONTINUOUS
  7
TEXTSTYLE_2
 71
2
 72
1
 10
15.0081998089
 20
0.6094254072
 30
0.0
 11
1.0
 21
0.0
 31
0.0
 73
2
 44
0.9
  1
5
 40
0.1
 41
0.08
  0
MTEXT
  5
277
100
AcDbEntity
  8
0
100
AcDbMText
 62
7
  6
CONTINUOUS
  7
TEXTSTYLE_2
 71
2
 72
1
 10
15.0005223841
 20
21.5287831767
 30
0.0
 11
1.0
 21
0.0
 31
0.0
 73
2
 44
0.9
  1
5
 40
0.1
 41
0.08
  0
MTEXT
  5
278
100
AcDbEntity
  8
0
100
AcDbMText
 62
7
  6
CONTINUOUS
  7
TEXTSTYLE_2
 71
2
 72
1
 10
10.9235957613
 20
21.5293152857
 30
0.0
 11
1.0
 21
0.0
 31
0.0
 73
2
 44
0.9
  1
6
 40
0.1
 41
0.08
  0
MTEXT
  5
279
100
AcDbEntity
  8
0
100
AcDbMText
 62
7
  6
CONTINUOUS
  7
TEXTSTYLE_2
 71
2
 72
1
 10
6.8472012476
 20
21.5293152857
 30
0.0
 11
1.0
 21
0.0
 31
0.0
 73
2
 44
0.9
  1
7
 40
0.1
 41
0.08
  0
MTEXT
  5
27A
100
AcDbEntity
  8
0
100
AcDbMText
 62
7
  6
CONTINUOUS
  7
TEXTSTYLE_2
 71
2
 72
1
 10
2.7707198944
 20
21.5289567604
 30
0.0
 11
1.0
 21
0.0
 31
0.0
 73
2
 44
0.9
  1
8
 40
0.1
 41
0.08
  0
MTEXT
  5
27B
100
AcDbEntity
  8
0
100
AcDbMText
 62
7
  6
CONTINUOUS
  7
STANDARD
 71
1
 72
1
 10
29.5773663078
 20
0.8719064971
 30
0.0
 11
1.0
 21
0.0
 31
0.0
 73
2
 44
0.9
  1
1:1
 40
0.1
 41
0.3
  0
MTEXT
  5
27C
100
AcDbEntity
  8
0
100
AcDbMText
 62
7
  6
CONTINUOUS
  7
STANDARD
 71
1
 72
1
 10
31.7523663078
 20
0.8719064971
 30
0.0
 11
1.0
 21
0.0
 31
0.0
 73
2
 44
0.9
  1
1 OF 1
 40
0.1
 41
0.6
  0
MTEXT
  5
27D
100
AcDbEntity
  8
0
100
AcDbMText
 62
7
  6
CONTINUOUS
  7
STANDARD
 71
1
 72
1
 10
30.7305616821
 20
1.1832781328
 30
0.0
 11
1.0
 21
0.0
 31
0.0
 73
2
 44
0.9
  1
212924
 40
0.12
 41
0.72
  0
MTEXT
  5
27E
100
AcDbEntity
  8
0
100
AcDbMText
 62
7
  6
CONTINUOUS
  7
STANDARD
 71
1
 72
1
 10
1.0462021158
 20
1.4062672766
 30
0.0
 11
1.0
 21
0.0
 31
0.0
 73
2
 44
0.9
  1
NOTES:\P1. ALL DIMENSIONS ARE MILLIMETERS [INCHES] UNLESS OTHERWISE NOTED.\P2. REFER TO "www.bannerengineering.com" FOR ADDITIONAL DATA AND SPECIFICATIONS.
 40
0.1
 41
7.9
  0
MTEXT
  5
27F
100
AcDbEntity
  8
0
100
AcDbMText
 62
7
  6
CONTINUOUS
  7
TEXTSTYLE_3
 71
2
 72
1
 10
32.082830104
 20
2.4898011248
 30
0.0
 11
1.0
 21
0.0
 31
0.0
 73
2
 44
0.9
  1
BANNER ENGINEERING CORP.
 40
0.12
 41
2.592
  0
MTEXT
  5
280
100
AcDbEntity
  8
0
100
AcDbMText
 62
7
  6
CONTINUOUS
  7
TEXTSTYLE_2
 71
2
 72
1
 10
32.0561063372
 20
2.2733590015
 30
0.0
 11
1.0
 21
0.0
 31
0.0
 73
2
 44
0.9
  1
www.bannerengineering.com
 40
0.1
 41
2.0
  0
MTEXT
  5
281
100
AcDbEntity
  8
0
100
AcDbMText
 62
7
  6
CONTINUOUS
  7
TEXTSTYLE_4
 71
2
 72
1
 10
28.0052134113
 20
2.5785938067
 30
0.0
 11
1.0
 21
0.0
 31
0.0
 73
2
 44
0.9
  1
This drawing is the property\Pof BANNER ENGINEERING CORP.\PAny use or reproduction,\Pin any form, without prior\Pwritten permission of\PBanner is prohibited.
 40
0.08
 41
1.904
  0
MTEXT
  5
282
100
AcDbEntity
  8
0
100
AcDbMText
 62
7
  6
CONTINUOUS
  7
TEXTSTYLE_5
 71
2
 72
1
 10
28.023149892
 20
1.8440536882
 30
0.0
 11
1.0
 21
0.0
 31
0.0
 73
2
 44
0.9
  1
C  2015 Banner Engineering Corp.
 40
0.08
 41
1.92
  0
DIMENSION
  5
283
100
AcDbEntity
  8
SCHEME_DIMS
100
AcDbDimension
 62
7
  6
CONTINUOUS
  2
*D0
 10
17.6585998727
 20
4.3596719881
 11
18.373413161
 21
4.3870222421
 70
163
 71
1
 72
2
 41
0.9
 42
50.5
  1
%%c<>\P[]
  3
DIMSTYLE_1
100
AcDbDiametricDimension
 15
16.2825157837
 25
2.9246500421
  0
DIMENSION
  5
284
100
AcDbEntity
  8
SCHEME_DIMS
100
AcDbDimension
 62
7
  6
CONTINUOUS
  2
*D1
 10
17.8563845998
 20
7.2715415725
 11
16.9705578282
 21
7.1965415725
 70
160
 71
2
 72
2
 41
0.9
 42
45.0
  1
%%c<>\P[]
  3
DIMSTYLE_2
100
AcDbAlignedDimension
 13
16.0847310565
 23
10.0521372757
 14
17.8563845998
 24
10.0508541851
100
AcDbRotatedDimension
  0
DIMENSION
  5
285
100
AcDbEntity
  8
SCHEME_DIMS
100
AcDbDimension
 62
7
  6
CONTINUOUS
  2
*D2
 10
18.5331169333
 20
9.9556280321
 11
18.5331169333
 21
9.5066122841
 70
160
 71
2
 72
2
 41
0.9
 42
19.0
  1
<>\P[]
  3
DIMSTYLE_2
100
AcDbAlignedDimension
 13
17.4902428676
 23
9.207596536
 14
17.72646334
 24
9.9556280321
 50
90.0
100
AcDbRotatedDimension
  0
DIMENSION
  5
286
100
AcDbEntity
  8
SCHEME_DIMS
100
AcDbDimension
 62
7
  6
CONTINUOUS
  2
*D3
 10
19.2671172839
 20
18.9497225203
 11
19.2671172839
 21
14.0036595282
 70
160
 71
2
 72
2
 41
0.9
 42
247.45
  1
<>\P[]
  3
DIMSTYLE_2
100
AcDbAlignedDimension
 13
17.4902428676
 23
9.207596536
 14
17.8563845998
 24
18.9497225203
 50
90.0
100
AcDbRotatedDimension
  0
DIMENSION
  5
287
100
AcDbEntity
  8
SCHEME_DIMS
100
AcDbDimension
 62
7
  6
CONTINUOUS
  2
*D4
 10
15.3098186366
 20
10.9556280321
 11
15.3098186366
 21
11.416061103
 70
160
 71
2
 72
2
 41
0.9
 42
27.2
  1
5X <>\P[]
  3
DIMSTYLE_2
100
AcDbAlignedDimension
 13
15.9843373558
 23
12.0264941738
 14
15.9843373558
 24
10.9556280321
 50
270.0
100
AcDbRotatedDimension
  0
ACAD_TABLE
  5
288
100
AcDbEntity
  8
0
 62
7
  6
CONTINUOUS
100
AcDbBlockReference
  2
*T1
 10
29.0019788236
 20
0.7034944495
 30
0.0
100
AcDbTable
342
       700
343
21D
 11
1.0
 21
0.0
 31
0.0
 90
6
 91
3
 92
5
 93
4
 94
0
 95
0
 96
0
 70
1
141
0.33
141
0.45
141
1.14
142
0.65
142
1.15
142
1.025
142
1.075
142
0.45
171
1
172
0
173
0
174
0
175
1
176
1
 91
33
178
0
145
0.0
301
CELL_VALUE
 90
4
  1
 
304
ACVALUE_END
170
1
140
0.1
171
1
172
0
173
0
174
0
175
1
176
1
 91
33
178
0
145
0.0
301
CELL_VALUE
 90
4
  1
 
304
ACVALUE_END
170
1
140
0.1
171
1
172
0
173
0
174
0
175
1
176
1
 91
33
178
0
145
0.0
301
CELL_VALUE
 90
4
  1
 
304
ACVALUE_END
170
1
140
0.1
171
1
172
0
173
0
174
0
175
1
176
1
 91
33
178
0
145
0.0
301
CELL_VALUE
 90
4
  1
 
304
ACVALUE_END
170
1
140
0.1
171
1
172
0
173
0
174
0
175
1
176
1
 91
33
178
0
145
0.0
301
CELL_VALUE
 90
4
  1
 
304
ACVALUE_END
170
1
140
0.1
171
1
172
0
173
0
174
0
175
1
176
1
 91
33
178
0
145
0.0
301
CELL_VALUE
 90
4
  1
 
304
ACVALUE_END
170
1
140
0.1
171
1
172
0
173
0
174
0
175
1
176
1
 91
33
178
0
145
0.0
301
CELL_VALUE
 90
4
  1
 
304
ACVALUE_END
170
1
140
0.1
171
1
172
0
173
0
174
0
175
1
176
1
 91
33
178
0
145
0.0
301
CELL_VALUE
 90
4
  1
 
304
ACVALUE_END
170
1
140
0.1
171
1
172
0
173
0
174
0
175
1
176
1
 91
33
178
0
145
0.0
301
CELL_VALUE
 90
4
  1
 
304
ACVALUE_END
170
1
140
0.1
171
1
172
0
173
0
174
0
175
1
176
1
 91
41
178
0
145
0.0
301
CELL_VALUE
 90
4
  1
A
304
ACVALUE_END
170
8
140
0.1
 64
7
171
1
172
0
173
0
174
0
175
5
176
1
 91
33
178
0
145
0.0
301
CELL_VALUE
 90
4
  1
TL50 BASIC 5 STACK CABLE \P 
304
ACVALUE_END
170
8
140
0.1
171
1
172
0
173
1
174
0
175
1
176
1
 91
1
178
0
145
0.0
170
1
171
1
172
0
173
1
174
0
175
1
176
1
 91
1
178
0
145
0.0
170
1
171
1
172
0
173
1
174
0
175
1
176
1
 91
1
178
0
145
0.0
170
1
171
1
172
0
173
1
174
0
175
1
176
1
 91
1
178
0
145
0.0
170
8
  0
LEADER
  5
289
100
AcDbEntity
  8
NOTES
100
AcDbLeader
 62
7
  6
CONTINUOUS
  3
STANDARD
 71
1
 72
0
 73
0
 75
0
 40
0.1
 41
1.4
 76
3
 10
16.3889387445
 20
9.3990704936
 30
0.0
 10
16.0690347798
 20
9.2403046416
 30
0.0
 10
15.9434620594
 20
9.2403046416
 30
0.0
340
28A
1001
ACAD
1000
DSTYLE
1002
{
1070
77
1070
0
1002
}
  0
MTEXT
  5
28A
102
{ACAD_REACTORS
330
289
102
}
100
AcDbEntity
  8
NOTES
100
AcDbMText
 62
7
  6
CONTINUOUS
  7
STANDARD
 71
3
 72
1
 10
15.9434620594
 20
9.2903046416
 30
0.0
 11
1.0
 21
0.0
 31
0.0
 73
2
 44
0.9
  1
 M30 X 1.5-5g 
 40
0.1
 41
1.4
  0
LEADER
  5
28B
100
AcDbEntity
  8
NOTES
100
AcDbLeader
 62
7
  6
CONTINUOUS
  3
STANDARD
 71
1
 72
0
 73
0
 75
0
 40
0.1
 41
1.2
 76
3
 10
17.2802307131
 20
3.4280233156
 30
0.0
 10
17.8960116638
 20
3.0022129763
 30
0.0
 10
18.0096294442
 20
3.0022129763
 30
0.0
340
28C
1001
ACAD
1000
DSTYLE
1002
{
1070
77
1070
0
1002
}
  0
MTEXT
  5
28C
102
{ACAD_REACTORS
330
28B
102
}
100
AcDbEntity
  8
NOTES
100
AcDbMText
 62
7
  6
CONTINUOUS
  7
STANDARD
 71
1
 72
1
 10
18.0096294442
 20
3.0522129763
 30
0.0
 11
1.0
 21
0.0
 31
0.0
 73
2
 44
0.9
  1
 1/2-14 NPSM
 40
0.1
 41
1.2
  0
MTEXT
  5
28D
100
AcDbEntity
  8
NOTES
100
AcDbMText
 62
7
  6
CONTINUOUS
  7
STANDARD
 71
2
 72
1
 10
29.9778929544
 20
6.4091530121
 30
0.0
 11
1.0
 21
0.0
 31
0.0
 73
2
 44
0.9
  1
ISOMETRIC VIEW\P\H0.1;SCALE  1:1
 40
0.125
 41
1.75
  0
LINE
  5
28E
100
AcDbEntity
  8
0
100
AcDbLine
 62
7
  6
CONTINUOUS
 10
0.5864933212
 20
11.1116437989
 11
0.5864933212
 21
10.9384377989
  0
LINE
  5
28F
100
AcDbEntity
  8
0
100
AcDbLine
 62
7
  6
CONTINUOUS
 10
0.7364933212
 20
21.3366775222
 11
0.7364933212
 21
0.703495704
  0
LINE
  5
290
100
AcDbEntity
  8
0
100
AcDbLine
 62
7
  6
CONTINUOUS
 10
4.8131450808
 20
21.3363920353
 11
4.8131450808
 21
21.5863920353
  0
LINE
  5
291
100
AcDbEntity
  8
0
100
AcDbLine
 62
7
  6
CONTINUOUS
 10
4.8132098641
 20
0.7041934146
 11
4.8132098641
 21
0.4541934146
  0
LINE
  5
292
100
AcDbEntity
  8
0
100
AcDbLine
 62
7
  6
CONTINUOUS
 10
28.1301066922
 20
1.2501869563
 11
28.7364976922
 21
1.3195799563
  0
LINE
  5
293
100
AcDbEntity
  8
0
100
AcDbLine
 62
7
  6
CONTINUOUS
 10
16.957916919
 20
0.5535279135
 11
17.131122919
 21
0.5535279135
  0
LINE
  5
294
100
AcDbEntity
  8
0
100
AcDbLine
 62
7
  6
CONTINUOUS
 10
0.7364933212
 20
0.703495704
 11
33.3519788796
 21
0.703495704
  0
LINE
  5
295
100
AcDbEntity
  8
0
100
AcDbLine
 62
7
  6
CONTINUOUS
 10
29.0024539446
 20
0.953495704
 11
33.3524539446
 21
0.953495704
  0
LINE
  5
296
100
AcDbEntity
  8
0
100
AcDbLine
 62
7
  6
CONTINUOUS
 10
27.2033456922
 20
1.0674889563
 11
27.4254366922
 21
1.0674889563
  0
LINE
  5
297
100
AcDbEntity
  8
0
100
AcDbLine
 62
7
  6
CONTINUOUS
 10
27.4754366922
 20
1.0674889563
 11
27.5754366922
 21
1.0674889563
  0
LINE
  5
298
100
AcDbEntity
  8
0
100
AcDbLine
 62
7
  6
CONTINUOUS
 10
27.6254366922
 20
1.0674889563
 11
27.8475276922
 21
1.0674889563
  0
LINE
  5
299
100
AcDbEntity
  8
0
100
AcDbLine
 62
7
  6
CONTINUOUS
 10
28.0301066922
 20
1.0674889563
 11
28.3082586922
 21
1.0674889563
  0
LINE
  5
29A
100
AcDbEntity
  8
0
100
AcDbLine
 62
7
  6
CONTINUOUS
 10
28.3582586922
 20
1.0674889563
 11
28.5083446922
 21
1.0674889563
  0
LINE
  5
29B
100
AcDbEntity
  8
0
100
AcDbLine
 62
7
  6
CONTINUOUS
 10
28.5583446922
 20
1.0674889563
 11
28.8364976922
 21
1.0674889563
  0
LINE
  5
29C
100
AcDbEntity
  8
0
100
AcDbLine
 62
7
  6
CONTINUOUS
 10
29.0024539446
 20
1.323495704
 11
33.3524539446
 21
1.323495704
  0
LINE
  5
29D
100
AcDbEntity
  8
0
100
AcDbLine
 62
7
  6
CONTINUOUS
 10
0.5864933212
 20
10.9384377989
 11
0.7364933212
 21
11.0250407989
  0
LINE
  5
29E
100
AcDbEntity
  8
0
100
AcDbLine
 62
7
  6
CONTINUOUS
 10
27.0024539446
 20
1.723495704
 11
29.0024539446
 21
1.723495704
  0
LINE
  5
29F
100
AcDbEntity
  8
0
100
AcDbLine
 62
7
  6
CONTINUOUS
 10
29.0024539446
 20
2.083495704
 11
33.3524539446
 21
2.083495704
  0
LINE
  5
2A0
100
AcDbEntity
  8
0
100
AcDbLine
 62
7
  6
CONTINUOUS
 10
30.5661261778
 20
2.3081272989
 11
30.5187621516
 21
2.3081272989
  0
LINE
  5
2A1
100
AcDbEntity
  8
0
100
AcDbLine
 62
7
  6
CONTINUOUS
 10
30.4748711272
 20
2.3081272989
 11
30.3613000642
 21
2.3081272989
  0
LINE
  5
2A2
100
AcDbEntity
  8
0
100
AcDbLine
 62
7
  6
CONTINUOUS
 10
30.3323960482
 20
2.3081272989
 11
30.1291839355
 21
2.3081272989
  0
LINE
  5
2A3
100
AcDbEntity
  8
0
100
AcDbLine
 62
7
  6
CONTINUOUS
 10
30.0787109075
 20
2.3081272989
 11
30.0045048664
 21
2.3081272989
  0
LINE
  5
2A4
100
AcDbEntity
  8
0
100
AcDbLine
 62
7
  6
CONTINUOUS
 10
29.9581248406
 20
2.3081272989
 11
29.8824607987
 21
2.3081272989
  0
LINE
  5
2A5
100
AcDbEntity
  8
0
100
AcDbLine
 62
7
  6
CONTINUOUS
 10
29.8304577698
 20
2.3081272989
 11
29.7562527287
 21
2.3081272989
  0
LINE
  5
2A6
100
AcDbEntity
  8
0
100
AcDbLine
 62
7
  6
CONTINUOUS
 10
29.709871703
 20
2.3081272989
 11
29.634207661
 21
2.3081272989
  0
LINE
  5
2A7
100
AcDbEntity
  8
0
100
AcDbLine
 62
7
  6
CONTINUOUS
 10
29.1673724021
 20
2.3081272989
 11
29.3438185
 21
2.3081272989
  0
LINE
  5
2A8
100
AcDbEntity
  8
0
100
AcDbLine
 62
7
  6
CONTINUOUS
 10
29.4013555319
 20
2.3081272989
 11
29.4787315748
 21
2.3081272989
  0
LINE
  5
2A9
100
AcDbEntity
  8
0
100
AcDbLine
 62
7
  6
CONTINUOUS
 10
29.499017586
 20
2.3081272989
 11
29.6042986444
 21
2.3081272989
  0
LINE
  5
2AA
100
AcDbEntity
  8
0
100
AcDbLine
 62
7
  6
CONTINUOUS
 10
30.4502121135
 20
2.3328553126
 11
30.4748711272
 21
2.3328553126
  0
LINE
  5
2AB
100
AcDbEntity
  8
0
100
AcDbLine
 62
7
  6
CONTINUOUS
 10
29.6042986444
 20
2.3328773126
 11
29.5842826333
 21
2.3328773126
  0
LINE
  5
2AC
100
AcDbEntity
  8
0
100
AcDbLine
 62
7
  6
CONTINUOUS
 10
29.5134685941
 20
2.3328773126
 11
29.499017586
 21
2.3328773126
  0
LINE
  5
2AD
100
AcDbEntity
  8
0
100
AcDbLine
 62
7
  6
CONTINUOUS
 10
29.4787315748
 20
2.3328773126
 11
29.4674485685
 21
2.3328773126
  0
LINE
  5
2AE
100
AcDbEntity
  8
0
100
AcDbLine
 62
7
  6
CONTINUOUS
 10
29.4242165446
 20
2.3328773126
 11
29.4013555319
 21
2.3328773126
  0
LINE
  5
2AF
100
AcDbEntity
  8
0
100
AcDbLine
 62
7
  6
CONTINUOUS
 10
29.2981404746
 20
2.3328773126
 11
29.2567774517
 21
2.3328773126
  0
LINE
  5
2B0
100
AcDbEntity
  8
0
100
AcDbLine
 62
7
  6
CONTINUOUS
 10
29.1913144154
 20
2.3328773126
 11
29.1673724021
 21
2.3328773126
  0
LINE
  5
2B1
100
AcDbEntity
  8
0
100
AcDbLine
 62
7
  6
CONTINUOUS
 10
29.634207661
 20
2.3328773126
 11
29.6528546714
 21
2.3328773126
  0
LINE
  5
2B2
100
AcDbEntity
  8
0
100
AcDbLine
 62
7
  6
CONTINUOUS
 10
29.6895546917
 20
2.3328773126
 11
29.709871703
 21
2.3328773126
  0
LINE
  5
2B3
100
AcDbEntity
  8
0
100
AcDbLine
 62
7
  6
CONTINUOUS
 10
29.8824607987
 20
2.3328773126
 11
29.901106809
 21
2.3328773126
  0
LINE
  5
2B4
100
AcDbEntity
  8
0
100
AcDbLine
 62
7
  6
CONTINUOUS
 10
29.9378078294
 20
2.3328773126
 11
29.9581248406
 21
2.3328773126
  0
LINE
  5
2B5
100
AcDbEntity
  8
0
100
AcDbLine
 62
7
  6
CONTINUOUS
 10
30.1291839355
 20
2.3328773126
 11
30.1531069488
 21
2.3328773126
  0
LINE
  5
2B6
100
AcDbEntity
  8
0
100
AcDbLine
 62
7
  6
CONTINUOUS
 10
30.2201229859
 20
2.3328773126
 11
30.285127022
 21
2.3328773126
  0
LINE
  5
2B7
100
AcDbEntity
  8
0
100
AcDbLine
 62
7
  6
CONTINUOUS
 10
30.3613000642
 20
2.3328773126
 11
30.3840460768
 21
2.3328773126
  0
LINE
  5
2B8
100
AcDbEntity
  8
0
100
AcDbLine
 62
7
  6
CONTINUOUS
 10
30.5671491784
 20
2.3332643128
 11
30.568258179
 21
2.3332643128
  0
LINE
  5
2B9
100
AcDbEntity
  8
0
100
AcDbLine
 62
7
  6
CONTINUOUS
 10
30.2900770247
 20
2.3460773199
 11
30.3323960482
 21
2.3460773199
  0
LINE
  5
2BA
100
AcDbEntity
  8
0
100
AcDbLine
 62
7
  6
CONTINUOUS
 10
29.4729645716
 20
2.3465213202
 11
29.5078425909
 21
2.3465213202
  0
LINE
  5
2BB
100
AcDbEntity
  8
0
100
AcDbLine
 62
7
  6
CONTINUOUS
 10
30.579013185
 20
2.3470143205
 11
30.5911231917
 21
2.3470143205
  0
LINE
  5
2BC
100
AcDbEntity
  8
0
100
AcDbLine
 62
7
  6
CONTINUOUS
 10
30.4778191288
 20
2.3475043207
 11
30.4502121135
 21
2.3475043207
  0
LINE
  5
2BD
100
AcDbEntity
  8
0
100
AcDbLine
 62
7
  6
CONTINUOUS
 10
30.2552900054
 20
2.3493773218
 11
30.2201229859
 21
2.3493773218
  0
LINE
  5
2BE
100
AcDbEntity
  8
0
100
AcDbLine
 62
7
  6
CONTINUOUS
 10
29.2567774517
 20
2.3502023222
 11
29.2981404746
 21
2.3502023222
  0
LINE
  5
2BF
100
AcDbEntity
  8
0
100
AcDbLine
 62
7
  6
CONTINUOUS
 10
30.4841491324
 20
2.3665073313
 11
30.4502121135
 21
2.3665073313
  0
LINE
  5
2C0
100
AcDbEntity
  8
0
100
AcDbLine
 62
7
  6
CONTINUOUS
 10
29.2567774517
 20
2.3668573315
 11
29.2981404746
 21
2.3668573315
  0
LINE
  5
2C1
100
AcDbEntity
  8
0
100
AcDbLine
 62
7
  6
CONTINUOUS
 10
29.4814805763
 20
2.3674713318
 11
29.5020375877
 21
2.3674713318
  0
LINE
  5
2C2
100
AcDbEntity
  8
0
100
AcDbLine
 62
7
  6
CONTINUOUS
 10
30.2201229859
 20
2.3676823319
 11
30.2552900054
 21
2.3676823319
  0
LINE
  5
2C3
100
AcDbEntity
  8
0
100
AcDbLine
 62
7
  6
CONTINUOUS
 10
30.3309770474
 20
2.3709823337
 11
30.2891130242
 21
2.3709823337
  0
LINE
  5
2C4
100
AcDbEntity
  8
0
100
AcDbLine
 62
7
  6
CONTINUOUS
 10
29.4947785837
 20
2.3836383408
 11
29.4885975803
 21
2.3836383408
  0
LINE
  5
2C5
100
AcDbEntity
  8
0
100
AcDbLine
 62
7
  6
CONTINUOUS
 10
30.3840460768
 20
2.3841823411
 11
30.3613000642
 21
2.3841823411
  0
LINE
  5
2C6
100
AcDbEntity
  8
0
100
AcDbLine
 62
7
  6
CONTINUOUS
 10
30.2841630215
 20
2.3841823411
 11
30.2201229859
 21
2.3841823411
  0
LINE
  5
2C7
100
AcDbEntity
  8
0
100
AcDbLine
 62
7
  6
CONTINUOUS
 10
30.1531069488
 20
2.3841823411
 11
30.1291839355
 21
2.3841823411
  0
LINE
  5
2C8
100
AcDbEntity
  8
0
100
AcDbLine
 62
7
  6
CONTINUOUS
 10
30.1015939202
 20
2.3841823411
 11
30.0836609103
 21
2.3841823411
  0
LINE
  5
2C9
100
AcDbEntity
  8
0
100
AcDbLine
 62
7
  6
CONTINUOUS
 10
30.0463688896
 20
2.3841823411
 11
30.0275928792
 21
2.3841823411
  0
LINE
  5
2CA
100
AcDbEntity
  8
0
100
AcDbLine
 62
7
  6
CONTINUOUS
 10
29.901106809
 20
2.3841823411
 11
29.8824607987
 21
2.3841823411
  0
LINE
  5
2CB
100
AcDbEntity
  8
0
100
AcDbLine
 62
7
  6
CONTINUOUS
 10
29.8533407825
 20
2.3841823411
 11
29.8354077726
 21
2.3841823411
  0
LINE
  5
2CC
100
AcDbEntity
  8
0
100
AcDbLine
 62
7
  6
CONTINUOUS
 10
29.7981157519
 20
2.3841823411
 11
29.7793397415
 21
2.3841823411
  0
LINE
  5
2CD
100
AcDbEntity
  8
0
100
AcDbLine
 62
7
  6
CONTINUOUS
 10
29.6528546714
 20
2.3841823411
 11
29.634207661
 21
2.3841823411
  0
LINE
  5
2CE
100
AcDbEntity
  8
0
100
AcDbLine
 62
7
  6
CONTINUOUS
 10
29.2981404746
 20
2.3841823411
 11
29.2567774517
 21
2.3841823411
  0
LINE
  5
2CF
100
AcDbEntity
  8
0
100
AcDbLine
 62
7
  6
CONTINUOUS
 10
29.1673724021
 20
2.3841823411
 11
29.1913144154
 21
2.3841823411
  0
LINE
  5
2D0
100
AcDbEntity
  8
0
100
AcDbLine
 62
7
  6
CONTINUOUS
 10
30.4502121135
 20
2.3841823411
 11
30.4870131339
 21
2.3841823411
  0
LINE
  5
2D1
100
AcDbEntity
  8
0
100
AcDbLine
 62
7
  6
CONTINUOUS
 10
29.5323716045
 20
2.4089323548
 11
29.4751965728
 21
2.4089323548
  0
LINE
  5
2D2
100
AcDbEntity
  8
0
100
AcDbLine
 62
7
  6
CONTINUOUS
 10
29.3334354942
 20
2.4089323548
 11
29.1673724021
 21
2.4089323548
  0
LINE
  5
2D3
100
AcDbEntity
  8
0
100
AcDbLine
 62
7
  6
CONTINUOUS
 10
29.634207661
 20
2.4089323548
 11
29.7346657167
 21
2.4089323548
  0
LINE
  5
2D4
100
AcDbEntity
  8
0
100
AcDbLine
 62
7
  6
CONTINUOUS
 10
29.7793397415
 20
2.4089323548
 11
29.8533407825
 21
2.4089323548
  0
LINE
  5
2D5
100
AcDbEntity
  8
0
100
AcDbLine
 62
7
  6
CONTINUOUS
 10
29.8824607987
 20
2.4089323548
 11
29.9829188544
 21
2.4089323548
  0
LINE
  5
2D6
100
AcDbEntity
  8
0
100
AcDbLine
 62
7
  6
CONTINUOUS
 10
30.0275928792
 20
2.4089323548
 11
30.1015939202
 21
2.4089323548
  0
LINE
  5
2D7
100
AcDbEntity
  8
0
100
AcDbLine
 62
7
  6
CONTINUOUS
 10
30.1291839355
 20
2.4089323548
 11
30.3309770474
 21
2.4089323548
  0
LINE
  5
2D8
100
AcDbEntity
  8
0
100
AcDbLine
 62
7
  6
CONTINUOUS
 10
30.3613000642
 20
2.4089323548
 11
30.5108811472
 21
2.4089323548
  0
LINE
  5
2D9
100
AcDbEntity
  8
0
100
AcDbLine
 62
7
  6
CONTINUOUS
 10
29.3627025104
 20
2.3544433246
 11
29.3526515049
 21
2.3579923265
  0
LINE
  5
2DA
100
AcDbEntity
  8
0
100
AcDbLine
 62
7
  6
CONTINUOUS
 10
29.7545437277
 20
2.3088112993
 11
29.6912636927
 21
2.3691893327
  0
LINE
  5
2DB
100
AcDbEntity
  8
0
100
AcDbLine
 62
7
  6
CONTINUOUS
 10
29.7363737177
 20
2.4082483544
 11
29.796406751
 21
2.3509683226
  0
LINE
  5
2DC
100
AcDbEntity
  8
0
100
AcDbLine
 62
7
  6
CONTINUOUS
 10
30.0027968654
 20
2.3088112993
 11
29.9395168303
 21
2.3691893327
  0
LINE
  5
2DD
100
AcDbEntity
  8
0
100
AcDbLine
 62
7
  6
CONTINUOUS
 10
29.9846268553
 20
2.4082483544
 11
30.0446598886
 21
2.3509683226
  0
LINE
  5
2DE
100
AcDbEntity
  8
0
100
AcDbLine
 62
7
  6
CONTINUOUS
 10
29.5099205921
 20
2.3453903196
 11
29.5155465952
 21
2.3366973147
  0
LINE
  5
2DF
100
AcDbEntity
  8
0
100
AcDbLine
 62
7
  6
CONTINUOUS
 10
29.5041155889
 20
2.3712913339
 11
29.4968565848
 21
2.3825073401
  0
LINE
  5
2E0
100
AcDbEntity
  8
0
100
AcDbLine
 62
7
  6
CONTINUOUS
 10
29.5822056322
 20
2.3340073132
 11
29.5344496057
 21
2.4078023542
  0
LINE
  5
2E1
100
AcDbEntity
  8
0
100
AcDbLine
 62
7
  6
CONTINUOUS
 10
30.4994581408
 20
2.3261733089
 11
30.4976541398
 21
2.3322423123
  0
LINE
  5
2E2
100
AcDbEntity
  8
0
100
AcDbLine
 62
7
  6
CONTINUOUS
 10
29.1648974007
 20
2.4064573534
 11
29.1648974007
 21
2.3866573424
  0
LINE
  5
2E3
100
AcDbEntity
  8
0
100
AcDbLine
 62
7
  6
CONTINUOUS
 10
29.1648974007
 20
2.3304023112
 11
29.1648974007
 21
2.3106023003
  0
LINE
  5
2E4
100
AcDbEntity
  8
0
100
AcDbLine
 62
7
  6
CONTINUOUS
 10
29.1937894168
 20
2.3817073397
 11
29.1937894168
 21
2.335352314
  0
LINE
  5
2E5
100
AcDbEntity
  8
0
100
AcDbLine
 62
7
  6
CONTINUOUS
 10
29.2543024503
 20
2.3817073397
 11
29.2543024503
 21
2.3693323328
  0
LINE
  5
2E6
100
AcDbEntity
  8
0
100
AcDbLine
 62
7
  6
CONTINUOUS
 10
29.2543024503
 20
2.335352314
 11
29.2543024503
 21
2.3477273208
  0
LINE
  5
2E7
100
AcDbEntity
  8
0
100
AcDbLine
 62
7
  6
CONTINUOUS
 10
29.3988805305
 20
2.3304023112
 11
29.3988805305
 21
2.3106023003
  0
LINE
  5
2E8
100
AcDbEntity
  8
0
100
AcDbLine
 62
7
  6
CONTINUOUS
 10
29.4812065762
 20
2.3106023003
 11
29.4812065762
 21
2.3304023112
  0
LINE
  5
2E9
100
AcDbEntity
  8
0
100
AcDbLine
 62
7
  6
CONTINUOUS
 10
29.4965425847
 20
2.3304023112
 11
29.4965425847
 21
2.3106023003
  0
LINE
  5
2EA
100
AcDbEntity
  8
0
100
AcDbLine
 62
7
  6
CONTINUOUS
 10
29.6067736458
 20
2.3106023003
 11
29.6067736458
 21
2.3304023112
  0
LINE
  5
2EB
100
AcDbEntity
  8
0
100
AcDbLine
 62
7
  6
CONTINUOUS
 10
29.6317326596
 20
2.3106023003
 11
29.6317326596
 21
2.3304023112
  0
LINE
  5
2EC
100
AcDbEntity
  8
0
100
AcDbLine
 62
7
  6
CONTINUOUS
 10
29.6317326596
 20
2.3866573424
 11
29.6317326596
 21
2.4064573534
  0
LINE
  5
2ED
100
AcDbEntity
  8
0
100
AcDbLine
 62
7
  6
CONTINUOUS
 10
29.6553296727
 20
2.335352314
 11
29.6553296727
 21
2.3817073397
  0
LINE
  5
2EE
100
AcDbEntity
  8
0
100
AcDbLine
 62
7
  6
CONTINUOUS
 10
29.6870796903
 20
2.3673983318
 11
29.6870796903
 21
2.335352314
  0
LINE
  5
2EF
100
AcDbEntity
  8
0
100
AcDbLine
 62
7
  6
CONTINUOUS
 10
29.7123467043
 20
2.3304023112
 11
29.7123467043
 21
2.3106023003
  0
LINE
  5
2F0
100
AcDbEntity
  8
0
100
AcDbLine
 62
7
  6
CONTINUOUS
 10
29.7768647401
 20
2.3866573424
 11
29.7768647401
 21
2.4064573534
  0
LINE
  5
2F1
100
AcDbEntity
  8
0
100
AcDbLine
 62
7
  6
CONTINUOUS
 10
29.8005907533
 20
2.3527593236
 11
29.8005907533
 21
2.3817073397
  0
LINE
  5
2F2
100
AcDbEntity
  8
0
100
AcDbLine
 62
7
  6
CONTINUOUS
 10
29.8329327712
 20
2.3817073397
 11
29.8329327712
 21
2.3106023003
  0
LINE
  5
2F3
100
AcDbEntity
  8
0
100
AcDbLine
 62
7
  6
CONTINUOUS
 10
29.8558157839
 20
2.4064573534
 11
29.8558157839
 21
2.3866573424
  0
LINE
  5
2F4
100
AcDbEntity
  8
0
100
AcDbLine
 62
7
  6
CONTINUOUS
 10
29.8799857973
 20
2.3106023003
 11
29.8799857973
 21
2.3304023112
  0
LINE
  5
2F5
100
AcDbEntity
  8
0
100
AcDbLine
 62
7
  6
CONTINUOUS
 10
29.8799857973
 20
2.3866573424
 11
29.8799857973
 21
2.4064573534
  0
LINE
  5
2F6
100
AcDbEntity
  8
0
100
AcDbLine
 62
7
  6
CONTINUOUS
 10
29.9035818104
 20
2.335352314
 11
29.9035818104
 21
2.3817073397
  0
LINE
  5
2F7
100
AcDbEntity
  8
0
100
AcDbLine
 62
7
  6
CONTINUOUS
 10
29.935332828
 20
2.3673983318
 11
29.935332828
 21
2.335352314
  0
LINE
  5
2F8
100
AcDbEntity
  8
0
100
AcDbLine
 62
7
  6
CONTINUOUS
 10
29.960599842
 20
2.3304023112
 11
29.960599842
 21
2.3106023003
  0
LINE
  5
2F9
100
AcDbEntity
  8
0
100
AcDbLine
 62
7
  6
CONTINUOUS
 10
30.0251178778
 20
2.3866573424
 11
30.0251178778
 21
2.4064573534
  0
LINE
  5
2FA
100
AcDbEntity
  8
0
100
AcDbLine
 62
7
  6
CONTINUOUS
 10
30.048843891
 20
2.3527593236
 11
30.048843891
 21
2.3817073397
  0
LINE
  5
2FB
100
AcDbEntity
  8
0
100
AcDbLine
 62
7
  6
CONTINUOUS
 10
30.0811859089
 20
2.3817073397
 11
30.0811859089
 21
2.3106023003
  0
LINE
  5
2FC
100
AcDbEntity
  8
0
100
AcDbLine
 62
7
  6
CONTINUOUS
 10
30.1040689216
 20
2.4064573534
 11
30.1040689216
 21
2.3866573424
  0
LINE
  5
2FD
100
AcDbEntity
  8
0
100
AcDbLine
 62
7
  6
CONTINUOUS
 10
30.1267089341
 20
2.3106023003
 11
30.1267089341
 21
2.3304023112
  0
LINE
  5
2FE
100
AcDbEntity
  8
0
100
AcDbLine
 62
7
  6
CONTINUOUS
 10
30.1267089341
 20
2.3866573424
 11
30.1267089341
 21
2.4064573534
  0
LINE
  5
2FF
100
AcDbEntity
  8
0
100
AcDbLine
 62
7
  6
CONTINUOUS
 10
30.1555819501
 20
2.335352314
 11
30.1555819501
 21
2.3817073397
  0
LINE
  5
300
100
AcDbEntity
  8
0
100
AcDbLine
 62
7
  6
CONTINUOUS
 10
30.2176479846
 20
2.3817073397
 11
30.2176479846
 21
2.3701573333
  0
LINE
  5
301
100
AcDbEntity
  8
0
100
AcDbLine
 62
7
  6
CONTINUOUS
 10
30.2176479846
 20
2.3469023204
 11
30.2176479846
 21
2.335352314
  0
LINE
  5
302
100
AcDbEntity
  8
0
100
AcDbLine
 62
7
  6
CONTINUOUS
 10
30.2577650068
 20
2.3652073305
 11
30.2577650068
 21
2.3518523231
  0
LINE
  5
303
100
AcDbEntity
  8
0
100
AcDbLine
 62
7
  6
CONTINUOUS
 10
30.2866380228
 20
2.3734573351
 11
30.2866380228
 21
2.3817073397
  0
LINE
  5
304
100
AcDbEntity
  8
0
100
AcDbLine
 62
7
  6
CONTINUOUS
 10
30.2876020234
 20
2.335352314
 11
30.2876020234
 21
2.3436023186
  0
LINE
  5
305
100
AcDbEntity
  8
0
100
AcDbLine
 62
7
  6
CONTINUOUS
 10
30.3334520488
 20
2.4064573534
 11
30.3334520488
 21
2.3734573351
  0
LINE
  5
306
100
AcDbEntity
  8
0
100
AcDbLine
 62
7
  6
CONTINUOUS
 10
30.3348710496
 20
2.3436023186
 11
30.3348710496
 21
2.3106023003
  0
LINE
  5
307
100
AcDbEntity
  8
0
100
AcDbLine
 62
7
  6
CONTINUOUS
 10
30.3588250629
 20
2.3106023003
 11
30.3588250629
 21
2.3304023112
  0
LINE
  5
308
100
AcDbEntity
  8
0
100
AcDbLine
 62
7
  6
CONTINUOUS
 10
30.3588250629
 20
2.3866573424
 11
30.3588250629
 21
2.4064573534
  0
LINE
  5
309
100
AcDbEntity
  8
0
100
AcDbLine
 62
7
  6
CONTINUOUS
 10
30.3865210782
 20
2.335352314
 11
30.3865210782
 21
2.3817073397
  0
LINE
  5
30A
100
AcDbEntity
  8
0
100
AcDbLine
 62
7
  6
CONTINUOUS
 10
30.4477371122
 20
2.3450293194
 11
30.4477371122
 21
2.335330314
  0
LINE
  5
30B
100
AcDbEntity
  8
0
100
AcDbLine
 62
7
  6
CONTINUOUS
 10
30.4477371122
 20
2.3689823326
 11
30.4477371122
 21
2.3817073397
  0
LINE
  5
30C
100
AcDbEntity
  8
0
100
AcDbLine
 62
7
  6
CONTINUOUS
 10
30.4773461286
 20
2.3303803112
 11
30.4773461286
 21
2.3106023003
  0
LINE
  5
30D
100
AcDbEntity
  8
0
100
AcDbLine
 62
7
  6
CONTINUOUS
 10
30.5765381836
 20
2.3419133176
 11
30.5765381836
 21
2.3445393191
  0
LINE
  5
30E
100
AcDbEntity
  8
0
100
AcDbLine
 62
7
  6
CONTINUOUS
 10
30.5935981931
 20
2.3445393191
 11
30.5935981931
 21
2.3329873127
  0
LINE
  5
30F
100
AcDbEntity
  8
0
100
AcDbLine
 62
7
  6
CONTINUOUS
 10
30.690554488
 20
2.3519697229
 11
30.690554488
 21
2.3625869294
  0
LINE
  5
310
100
AcDbEntity
  8
0
100
AcDbLine
 62
7
  6
CONTINUOUS
 10
29.3526515049
 20
2.3579923265
 11
29.3608915094
 21
2.3627683292
  0
LINE
  5
311
100
AcDbEntity
  8
0
100
AcDbLine
 62
7
  6
CONTINUOUS
 10
29.4731065717
 20
2.4077833542
 11
29.4263065457
 21
2.3340263132
  0
LINE
  5
312
100
AcDbEntity
  8
0
100
AcDbLine
 62
7
  6
CONTINUOUS
 10
29.4865075791
 20
2.3824893401
 11
29.4793905752
 21
2.3712723339
  0
LINE
  5
313
100
AcDbEntity
  8
0
100
AcDbLine
 62
7
  6
CONTINUOUS
 10
29.4653585674
 20
2.3366783147
 11
29.4708745704
 21
2.3453723195
  0
ARC
  5
314
100
AcDbEntity
  8
0
100
AcDbCircle
 62
7
  6
CONTINUOUS
 10
29.7562520939
 20
2.310602715
 40
0.0024754162
100
AcDbArc
 50
226.3593695813
 51
270.0146919953
  0
ARC
  5
315
100
AcDbEntity
  8
0
100
AcDbCircle
 62
7
  6
CONTINUOUS
 10
29.1673724003
 20
2.3106022984
 40
0.0024749995
100
AcDbArc
 50
179.9999571957
 51
270.0000428043
  0
ARC
  5
316
100
AcDbEntity
  8
0
100
AcDbCircle
 62
7
  6
CONTINUOUS
 10
29.8304577717
 20
2.3106022984
 40
0.0024749995
100
AcDbArc
 50
269.9999571957
 51
0.0000428042
  0
ARC
  5
317
100
AcDbEntity
  8
0
100
AcDbCircle
 62
7
  6
CONTINUOUS
 10
29.7098717048
 20
2.3106022984
 40
0.0024749995
100
AcDbArc
 50
269.9999571957
 51
0.0000428042
  0
ARC
  5
318
100
AcDbEntity
  8
0
100
AcDbCircle
 62
7
  6
CONTINUOUS
 10
29.6342076592
 20
2.3106022984
 40
0.0024749995
100
AcDbArc
 50
179.9999571957
 51
270.0000428043
  0
ARC
  5
319
100
AcDbEntity
  8
0
100
AcDbCircle
 62
7
  6
CONTINUOUS
 10
29.4990175842
 20
2.3106022984
 40
0.0024749995
100
AcDbArc
 50
179.9999571957
 51
270.0000428043
  0
ARC
  5
31A
100
AcDbEntity
  8
0
100
AcDbCircle
 62
7
  6
CONTINUOUS
 10
29.6042986463
 20
2.3106022984
 40
0.0024749995
100
AcDbArc
 50
269.9999571957
 51
0.0000428043
  0
ARC
  5
31B
100
AcDbEntity
  8
0
100
AcDbCircle
 62
7
  6
CONTINUOUS
 10
29.40135553
 20
2.3106022984
 40
0.0024749995
100
AcDbArc
 50
179.9999571957
 51
270.0000428043
  0
ARC
  5
31C
100
AcDbEntity
  8
0
100
AcDbCircle
 62
7
  6
CONTINUOUS
 10
29.4787315766
 20
2.3106022984
 40
0.0024749995
100
AcDbArc
 50
269.9999571958
 51
0.0000428044
  0
ARC
  5
31D
100
AcDbEntity
  8
0
100
AcDbCircle
 62
7
  6
CONTINUOUS
 10
29.3334409881
 20
2.347184638
 40
0.061747717
100
AcDbArc
 50
59.5385584989
 51
90.0050977555
  0
ARC
  5
31E
100
AcDbEntity
  8
0
100
AcDbCircle
 62
7
  6
CONTINUOUS
 10
29.3410971553
 20
2.3565347507
 40
0.048483885
100
AcDbArc
 50
273.21763719
 51
303.0749121182
  0
ARC
  5
31F
100
AcDbEntity
  8
0
100
AcDbCircle
 62
7
  6
CONTINUOUS
 10
29.3550433609
 20
2.3335878142
 40
0.0222174455
100
AcDbArc
 50
4.0793399388
 51
69.834329283
  0
ARC
  5
320
100
AcDbEntity
  8
0
100
AcDbCircle
 62
7
  6
CONTINUOUS
 10
29.3559365494
 20
2.3337671418
 40
0.0213072145
100
AcDbArc
 50
303.0488228549
 51
355.7263138674
  0
ARC
  5
321
100
AcDbEntity
  8
0
100
AcDbCircle
 62
7
  6
CONTINUOUS
 10
29.36187305
 20
2.3337763321
 40
0.0153945295
100
AcDbArc
 50
354.0454548824
 51
5.1878013979
  0
ARC
  5
322
100
AcDbEntity
  8
0
100
AcDbCircle
 62
7
  6
CONTINUOUS
 10
29.2981404746
 20
2.3415398174
 40
0.0086625048
100
AcDbArc
 50
270.0
 51
90.0
  0
ARC
  5
323
100
AcDbEntity
  8
0
100
AcDbCircle
 62
7
  6
CONTINUOUS
 10
29.5078420513
 20
2.34404586
 40
0.0024754602
100
AcDbArc
 50
32.8959418574
 51
89.9875097203
  0
ARC
  5
324
100
AcDbEntity
  8
0
100
AcDbCircle
 62
7
  6
CONTINUOUS
 10
29.4242166149
 20
2.3353525129
 40
0.0024752003
100
AcDbArc
 50
269.9983726451
 51
327.6021653071
  0
ARC
  5
325
100
AcDbEntity
  8
0
100
AcDbCircle
 62
7
  6
CONTINUOUS
 10
29.4729645013
 20
2.3440461199
 40
0.0024752003
100
AcDbArc
 50
89.998372645
 51
147.602165307
  0
ARC
  5
326
100
AcDbEntity
  8
0
100
AcDbCircle
 62
7
  6
CONTINUOUS
 10
29.4674484592
 20
2.3353523527
 40
0.0024750401
100
AcDbArc
 50
147.6063258011
 51
270.0025305753
  0
ARC
  5
327
100
AcDbEntity
  8
0
100
AcDbCircle
 62
7
  6
CONTINUOUS
 10
29.1913144172
 20
2.3353523121
 40
0.0024749995
100
AcDbArc
 50
269.9999571957
 51
0.0000428042
  0
ARC
  5
328
100
AcDbEntity
  8
0
100
AcDbCircle
 62
7
  6
CONTINUOUS
 10
29.1673724003
 20
2.3304023131
 40
0.0024749995
100
AcDbArc
 50
89.9999571958
 51
180.0000428044
  0
ARC
  5
329
100
AcDbEntity
  8
0
100
AcDbCircle
 62
7
  6
CONTINUOUS
 10
29.2567774499
 20
2.3477273227
 40
0.0024749995
100
AcDbArc
 50
89.9999571957
 51
180.0000428042
  0
ARC
  5
32A
100
AcDbEntity
  8
0
100
AcDbCircle
 62
7
  6
CONTINUOUS
 10
29.2567774499
 20
2.3353523121
 40
0.0024749995
100
AcDbArc
 50
179.9999571957
 51
270.0000428043
  0
ARC
  5
32B
100
AcDbEntity
  8
0
100
AcDbCircle
 62
7
  6
CONTINUOUS
 10
29.4990175842
 20
2.3304023131
 40
0.0024749995
100
AcDbArc
 50
89.9999571957
 51
180.0000428043
  0
ARC
  5
32C
100
AcDbEntity
  8
0
100
AcDbCircle
 62
7
  6
CONTINUOUS
 10
29.40135553
 20
2.3304023131
 40
0.0024749995
100
AcDbArc
 50
89.9999571957
 51
180.0000428042
  0
ARC
  5
32D
100
AcDbEntity
  8
0
100
AcDbCircle
 62
7
  6
CONTINUOUS
 10
29.4787315766
 20
2.3304023131
 40
0.0024749995
100
AcDbArc
 50
359.9999571957
 51
90.0000428043
  0
ARC
  5
32E
100
AcDbEntity
  8
0
100
AcDbCircle
 62
7
  6
CONTINUOUS
 10
29.339026127
 20
2.3995952208
 40
0.0428289026
100
AcDbArc
 50
300.6990502959
 51
319.0591802498
  0
ARC
  5
32F
100
AcDbEntity
  8
0
100
AcDbCircle
 62
7
  6
CONTINUOUS
 10
29.3541031117
 20
2.3801132029
 40
0.0229166529
100
AcDbArc
 50
20.6563876465
 51
62.3316896973
  0
ARC
  5
330
100
AcDbEntity
  8
0
100
AcDbCircle
 62
7
  6
CONTINUOUS
 10
29.3590547239
 20
2.3834668674
 40
0.0171568255
100
AcDbArc
 50
315.9145124245
 51
16.0049121282
  0
ARC
  5
331
100
AcDbEntity
  8
0
100
AcDbCircle
 62
7
  6
CONTINUOUS
 10
29.2981404746
 20
2.3755198363
 40
0.0086625048
100
AcDbArc
 50
270.0
 51
90.0
  0
ARC
  5
332
100
AcDbEntity
  8
0
100
AcDbCircle
 62
7
  6
CONTINUOUS
 10
29.494778044
 20
2.3811628806
 40
0.0024754602
100
AcDbArc
 50
32.8959418574
 51
89.9875097203
  0
ARC
  5
333
100
AcDbEntity
  8
0
100
AcDbCircle
 62
7
  6
CONTINUOUS
 10
29.5020375666
 20
2.3699465389
 40
0.0024752071
100
AcDbArc
 50
270.0004896792
 51
32.9089806817
  0
ARC
  5
334
100
AcDbEntity
  8
0
100
AcDbCircle
 62
7
  6
CONTINUOUS
 10
29.48859751
 20
2.3811631405
 40
0.0024752003
100
AcDbArc
 50
89.9983726451
 51
147.6021653071
  0
ARC
  5
335
100
AcDbEntity
  8
0
100
AcDbCircle
 62
7
  6
CONTINUOUS
 10
29.4751965025
 20
2.4064571545
 40
0.0024752003
100
AcDbArc
 50
89.998372645
 51
147.602165307
  0
ARC
  5
336
100
AcDbEntity
  8
0
100
AcDbCircle
 62
7
  6
CONTINUOUS
 10
29.481480467
 20
2.3699463719
 40
0.0024750401
100
AcDbArc
 50
147.6063258012
 51
270.0025305754
  0
ARC
  5
337
100
AcDbEntity
  8
0
100
AcDbCircle
 62
7
  6
CONTINUOUS
 10
29.1673724003
 20
2.4064573553
 40
0.0024749995
100
AcDbArc
 50
89.9999571958
 51
180.0000428044
  0
ARC
  5
338
100
AcDbEntity
  8
0
100
AcDbCircle
 62
7
  6
CONTINUOUS
 10
29.1673724003
 20
2.3866573406
 40
0.0024749995
100
AcDbArc
 50
179.9999571957
 51
270.0000428043
  0
ARC
  5
339
100
AcDbEntity
  8
0
100
AcDbCircle
 62
7
  6
CONTINUOUS
 10
29.1913144172
 20
2.3817073415
 40
0.0024749995
100
AcDbArc
 50
359.9999571957
 51
90.0000428043
  0
ARC
  5
33A
100
AcDbEntity
  8
0
100
AcDbCircle
 62
7
  6
CONTINUOUS
 10
29.2567774499
 20
2.3817073415
 40
0.0024749995
100
AcDbArc
 50
89.9999571957
 51
180.0000428042
  0
ARC
  5
33B
100
AcDbEntity
  8
0
100
AcDbCircle
 62
7
  6
CONTINUOUS
 10
29.2567774499
 20
2.369332331
 40
0.0024749995
100
AcDbArc
 50
179.9999571957
 51
270.0000428043
  0
ARC
  5
33C
100
AcDbEntity
  8
0
100
AcDbCircle
 62
7
  6
CONTINUOUS
 10
29.7981154519
 20
2.3527592604
 40
0.0024753014
100
AcDbArc
 50
226.3461263059
 51
0.0014637321
  0
ARC
  5
33D
100
AcDbEntity
  8
0
100
AcDbCircle
 62
7
  6
CONTINUOUS
 10
29.6895549917
 20
2.367398395
 40
0.0024753014
100
AcDbArc
 50
46.3461263059
 51
180.0014637321
  0
ARC
  5
33E
100
AcDbEntity
  8
0
100
AcDbCircle
 62
7
  6
CONTINUOUS
 10
29.5134685729
 20
2.3353525197
 40
0.0024752071
100
AcDbArc
 50
270.0004896794
 51
32.9089806819
  0
ARC
  5
33F
100
AcDbEntity
  8
0
100
AcDbCircle
 62
7
  6
CONTINUOUS
 10
29.6895546899
 20
2.3353523121
 40
0.0024749995
100
AcDbArc
 50
179.9999571957
 51
270.0000428043
  0
ARC
  5
340
100
AcDbEntity
  8
0
100
AcDbCircle
 62
7
  6
CONTINUOUS
 10
29.7098717048
 20
2.3304023131
 40
0.0024749995
100
AcDbArc
 50
359.9999571957
 51
90.0000428043
  0
ARC
  5
341
100
AcDbEntity
  8
0
100
AcDbCircle
 62
7
  6
CONTINUOUS
 10
29.6342076592
 20
2.3304023131
 40
0.0024749995
100
AcDbArc
 50
89.9999571957
 51
180.0000428043
  0
ARC
  5
342
100
AcDbEntity
  8
0
100
AcDbCircle
 62
7
  6
CONTINUOUS
 10
29.6528546732
 20
2.3353523121
 40
0.0024749995
100
AcDbArc
 50
269.9999571957
 51
0.0000428042
  0
ARC
  5
343
100
AcDbEntity
  8
0
100
AcDbCircle
 62
7
  6
CONTINUOUS
 10
29.6042986463
 20
2.3304023131
 40
0.0024749995
100
AcDbArc
 50
359.9999571957
 51
90.0000428043
  0
ARC
  5
344
100
AcDbEntity
  8
0
100
AcDbCircle
 62
7
  6
CONTINUOUS
 10
29.5842827538
 20
2.3353513536
 40
0.002474041
100
AcDbArc
 50
212.9056413127
 51
269.9972091756
  0
ARC
  5
345
100
AcDbEntity
  8
0
100
AcDbCircle
 62
7
  6
CONTINUOUS
 10
29.7981157538
 20
2.3817073415
 40
0.0024749995
100
AcDbArc
 50
359.9999571957
 51
90.0000428043
  0
ARC
  5
346
100
AcDbEntity
  8
0
100
AcDbCircle
 62
7
  6
CONTINUOUS
 10
29.7793397396
 20
2.3866573406
 40
0.0024749995
100
AcDbArc
 50
179.9999571957
 51
270.0000428043
  0
ARC
  5
347
100
AcDbEntity
  8
0
100
AcDbCircle
 62
7
  6
CONTINUOUS
 10
29.7793397396
 20
2.4064573553
 40
0.0024749995
100
AcDbArc
 50
89.9999571957
 51
180.0000428042
  0
ARC
  5
348
100
AcDbEntity
  8
0
100
AcDbCircle
 62
7
  6
CONTINUOUS
 10
29.8533407844
 20
2.4064573553
 40
0.0024749995
100
AcDbArc
 50
359.9999571957
 51
90.0000428043
  0
ARC
  5
349
100
AcDbEntity
  8
0
100
AcDbCircle
 62
7
  6
CONTINUOUS
 10
29.8533407844
 20
2.3866573406
 40
0.0024749995
100
AcDbArc
 50
269.9999571958
 51
0.0000428044
  0
ARC
  5
34A
100
AcDbEntity
  8
0
100
AcDbCircle
 62
7
  6
CONTINUOUS
 10
29.8354077707
 20
2.3817073415
 40
0.0024749995
100
AcDbArc
 50
89.9999571957
 51
180.0000428042
  0
ARC
  5
34B
100
AcDbEntity
  8
0
100
AcDbCircle
 62
7
  6
CONTINUOUS
 10
29.6528546732
 20
2.3817073415
 40
0.0024749995
100
AcDbArc
 50
359.9999571957
 51
90.0000428043
  0
ARC
  5
34C
100
AcDbEntity
  8
0
100
AcDbCircle
 62
7
  6
CONTINUOUS
 10
29.6342076592
 20
2.3866573406
 40
0.0024749995
100
AcDbArc
 50
179.9999571957
 51
270.0000428043
  0
ARC
  5
34D
100
AcDbEntity
  8
0
100
AcDbCircle
 62
7
  6
CONTINUOUS
 10
29.6342076592
 20
2.4064573553
 40
0.0024749995
100
AcDbArc
 50
89.9999571957
 51
180.0000428043
  0
ARC
  5
34E
100
AcDbEntity
  8
0
100
AcDbCircle
 62
7
  6
CONTINUOUS
 10
29.532371984
 20
2.4064573946
 40
0.0024749602
100
AcDbArc
 50
32.9172174468
 51
90.0087853097
  0
ARC
  5
34F
100
AcDbEntity
  8
0
100
AcDbCircle
 62
7
  6
CONTINUOUS
 10
29.7346658515
 20
2.406458187
 40
0.0024741678
100
AcDbArc
 50
46.3477981899
 51
90.0031206039
  0
ARC
  5
350
100
AcDbEntity
  8
0
100
AcDbCircle
 62
7
  6
CONTINUOUS
 10
30.5082178439
 20
2.2263934443
 40
0.1825583387
100
AcDbArc
 50
79.8618509324
 51
89.1640948679
  0
ARC
  5
351
100
AcDbEntity
  8
0
100
AcDbCircle
 62
7
  6
CONTINUOUS
 10
30.4901231168
 20
2.2555010151
 40
0.117346916
100
AcDbArc
 50
58.614769177
 51
62.3737227606
  0
ARC
  5
352
100
AcDbEntity
  8
0
100
AcDbCircle
 62
7
  6
CONTINUOUS
 10
30.5189851722
 20
2.3263737837
 40
0.0459185159
100
AcDbArc
 50
15.6740290068
 51
20.9917271228
  0
ARC
  5
353
100
AcDbEntity
  8
0
100
AcDbCircle
 62
7
  6
CONTINUOUS
 10
30.4592749426
 20
2.3224452318
 40
0.0396099176
100
AcDbArc
 50
14.3201081283
 51
22.4984722084
  0
ARC
  5
354
100
AcDbEntity
  8
0
100
AcDbCircle
 62
7
  6
CONTINUOUS
 10
30.4779865962
 20
2.323137238
 40
0.0243676582
100
AcDbArc
 50
63.3666028271
 51
90.3937697637
  0
ARC
  5
355
100
AcDbEntity
  8
0
100
AcDbCircle
 62
7
  6
CONTINUOUS
 10
30.5654812677
 20
2.3280006042
 40
0.0198837666
100
AcDbArc
 50
271.8586572978
 51
289.4131338543
  0
ARC
  5
356
100
AcDbEntity
  8
0
100
AcDbCircle
 62
7
  6
CONTINUOUS
 10
30.5195674723
 20
2.3254494505
 40
0.0173408616
100
AcDbArc
 50
232.4713476722
 51
267.338189944
  0
ARC
  5
357
100
AcDbEntity
  8
0
100
AcDbCircle
 62
7
  6
CONTINUOUS
 10
30.4748711291
 20
2.3106022984
 40
0.0024749995
100
AcDbArc
 50
269.9999571958
 51
0.0000428044
  0
ARC
  5
358
100
AcDbEntity
  8
0
100
AcDbCircle
 62
7
  6
CONTINUOUS
 10
30.3613000624
 20
2.3106022984
 40
0.0024749995
100
AcDbArc
 50
179.9999571957
 51
270.0000428043
  0
ARC
  5
359
100
AcDbEntity
  8
0
100
AcDbCircle
 62
7
  6
CONTINUOUS
 10
30.0787109094
 20
2.3106022984
 40
0.0024749995
100
AcDbArc
 50
269.9999571957
 51
0.0000428043
  0
ARC
  5
35A
100
AcDbEntity
  8
0
100
AcDbCircle
 62
7
  6
CONTINUOUS
 10
29.9581248425
 20
2.3106022984
 40
0.0024749995
100
AcDbArc
 50
269.9999571957
 51
0.0000428043
  0
ARC
  5
35B
100
AcDbEntity
  8
0
100
AcDbCircle
 62
7
  6
CONTINUOUS
 10
29.8824607968
 20
2.3106022984
 40
0.0024749995
100
AcDbArc
 50
179.9999571957
 51
270.0000428043
  0
ARC
  5
35C
100
AcDbEntity
  8
0
100
AcDbCircle
 62
7
  6
CONTINUOUS
 10
30.33239605
 20
2.3106022984
 40
0.0024749995
100
AcDbArc
 50
269.9999571957
 51
0.0000428042
  0
ARC
  5
35D
100
AcDbEntity
  8
0
100
AcDbCircle
 62
7
  6
CONTINUOUS
 10
30.1291839337
 20
2.3106022984
 40
0.0024749995
100
AcDbArc
 50
179.9999571957
 51
270.0000428043
  0
ARC
  5
35E
100
AcDbEntity
  8
0
100
AcDbCircle
 62
7
  6
CONTINUOUS
 10
30.0045047316
 20
2.3106014667
 40
0.0024741678
100
AcDbArc
 50
226.3477981898
 51
270.0031206038
  0
ARC
  5
35F
100
AcDbEntity
  8
0
100
AcDbCircle
 62
7
  6
CONTINUOUS
 10
30.0463685896
 20
2.3527592604
 40
0.0024753014
100
AcDbArc
 50
226.3461263059
 51
0.0014637321
  0
ARC
  5
360
100
AcDbEntity
  8
0
100
AcDbCircle
 62
7
  6
CONTINUOUS
 10
29.9378081294
 20
2.367398395
 40
0.0024753014
100
AcDbArc
 50
46.3461263058
 51
180.0014637321
  0
ARC
  5
361
100
AcDbEntity
  8
0
100
AcDbCircle
 62
7
  6
CONTINUOUS
 10
29.9378078275
 20
2.3353523121
 40
0.0024749995
100
AcDbArc
 50
179.9999571957
 51
270.0000428043
  0
ARC
  5
362
100
AcDbEntity
  8
0
100
AcDbCircle
 62
7
  6
CONTINUOUS
 10
29.9581248425
 20
2.3304023131
 40
0.0024749995
100
AcDbArc
 50
359.9999571957
 51
90.0000428043
  0
ARC
  5
363
100
AcDbEntity
  8
0
100
AcDbCircle
 62
7
  6
CONTINUOUS
 10
29.8824607968
 20
2.3304023131
 40
0.0024749995
100
AcDbArc
 50
89.9999571957
 51
180.0000428042
  0
ARC
  5
364
100
AcDbEntity
  8
0
100
AcDbCircle
 62
7
  6
CONTINUOUS
 10
29.9011068109
 20
2.3353523121
 40
0.0024749995
100
AcDbArc
 50
269.9999571957
 51
0.0000428043
  0
ARC
  5
365
100
AcDbEntity
  8
0
100
AcDbCircle
 62
7
  6
CONTINUOUS
 10
30.2201229841
 20
2.3469023222
 40
0.0024749995
100
AcDbArc
 50
89.9999571957
 51
180.0000428042
  0
ARC
  5
366
100
AcDbEntity
  8
0
100
AcDbCircle
 62
7
  6
CONTINUOUS
 10
30.2201229841
 20
2.3353523121
 40
0.0024749995
100
AcDbArc
 50
179.9999571957
 51
270.0000428043
  0
ARC
  5
367
100
AcDbEntity
  8
0
100
AcDbCircle
 62
7
  6
CONTINUOUS
 10
30.1291839337
 20
2.3304023131
 40
0.0024749995
100
AcDbArc
 50
89.9999571958
 51
180.0000428044
  0
ARC
  5
368
100
AcDbEntity
  8
0
100
AcDbCircle
 62
7
  6
CONTINUOUS
 10
30.1531069506
 20
2.3353523121
 40
0.0024749995
100
AcDbArc
 50
269.9999571957
 51
0.0000428042
  0
ARC
  5
369
100
AcDbEntity
  8
0
100
AcDbCircle
 62
7
  6
CONTINUOUS
 10
30.2201229841
 20
2.3701573314
 40
0.0024749995
100
AcDbArc
 50
179.9999571957
 51
270.0000428043
  0
ARC
  5
36A
100
AcDbEntity
  8
0
100
AcDbCircle
 62
7
  6
CONTINUOUS
 10
30.0463688914
 20
2.3817073415
 40
0.0024749995
100
AcDbArc
 50
359.9999571957
 51
90.0000428043
  0
ARC
  5
36B
100
AcDbEntity
  8
0
100
AcDbCircle
 62
7
  6
CONTINUOUS
 10
30.0275928773
 20
2.3866573406
 40
0.0024749995
100
AcDbArc
 50
179.9999571957
 51
270.0000428043
  0
ARC
  5
36C
100
AcDbEntity
  8
0
100
AcDbCircle
 62
7
  6
CONTINUOUS
 10
30.0275928773
 20
2.4064573553
 40
0.0024749995
100
AcDbArc
 50
89.9999571958
 51
180.0000428044
  0
ARC
  5
36D
100
AcDbEntity
  8
0
100
AcDbCircle
 62
7
  6
CONTINUOUS
 10
30.1015939221
 20
2.4064573553
 40
0.0024749995
100
AcDbArc
 50
359.9999571957
 51
90.0000428043
  0
ARC
  5
36E
100
AcDbEntity
  8
0
100
AcDbCircle
 62
7
  6
CONTINUOUS
 10
30.1015939221
 20
2.3866573406
 40
0.0024749995
100
AcDbArc
 50
269.9999571957
 51
0.0000428042
  0
ARC
  5
36F
100
AcDbEntity
  8
0
100
AcDbCircle
 62
7
  6
CONTINUOUS
 10
30.0836609084
 20
2.3817073415
 40
0.0024749995
100
AcDbArc
 50
89.9999571957
 51
180.0000428042
  0
ARC
  5
370
100
AcDbEntity
  8
0
100
AcDbCircle
 62
7
  6
CONTINUOUS
 10
29.9011068109
 20
2.3817073415
 40
0.0024749995
100
AcDbArc
 50
359.9999571957
 51
90.0000428043
  0
ARC
  5
371
100
AcDbEntity
  8
0
100
AcDbCircle
 62
7
  6
CONTINUOUS
 10
29.8824607968
 20
2.3866573406
 40
0.0024749995
100
AcDbArc
 50
179.9999571957
 51
270.0000428043
  0
ARC
  5
372
100
AcDbEntity
  8
0
100
AcDbCircle
 62
7
  6
CONTINUOUS
 10
29.8824607968
 20
2.4064573553
 40
0.0024749995
100
AcDbArc
 50
89.9999571957
 51
180.0000428042
  0
ARC
  5
373
100
AcDbEntity
  8
0
100
AcDbCircle
 62
7
  6
CONTINUOUS
 10
30.1531069506
 20
2.3817073415
 40
0.0024749995
100
AcDbArc
 50
359.9999571957
 51
90.0000428043
  0
ARC
  5
374
100
AcDbEntity
  8
0
100
AcDbCircle
 62
7
  6
CONTINUOUS
 10
30.1291839337
 20
2.3866573406
 40
0.0024749995
100
AcDbArc
 50
179.9999571957
 51
270.0000428043
  0
ARC
  5
375
100
AcDbEntity
  8
0
100
AcDbCircle
 62
7
  6
CONTINUOUS
 10
30.1291839337
 20
2.4064573553
 40
0.0024749995
100
AcDbArc
 50
89.9999571958
 51
180.0000428044
  0
ARC
  5
376
100
AcDbEntity
  8
0
100
AcDbCircle
 62
7
  6
CONTINUOUS
 10
30.2201229841
 20
2.3817073415
 40
0.0024749995
100
AcDbArc
 50
89.9999571957
 51
180.0000428042
  0
ARC
  5
377
100
AcDbEntity
  8
0
100
AcDbCircle
 62
7
  6
CONTINUOUS
 10
29.9829189891
 20
2.406458187
 40
0.0024741678
100
AcDbArc
 50
46.3477981898
 51
90.0031206038
  0
ARC
  5
378
100
AcDbEntity
  8
0
100
AcDbCircle
 62
7
  6
CONTINUOUS
 10
30.5425475033
 20
2.3381486337
 40
0.044722495
100
AcDbArc
 50
195.531588407
 51
204.7624440448
  0
ARC
  5
379
100
AcDbEntity
  8
0
100
AcDbCircle
 62
7
  6
CONTINUOUS
 10
30.5345221342
 20
2.3672169603
 40
0.039319019
100
AcDbArc
 50
59.1202086415
 51
81.4730239328
  0
ARC
  5
37A
100
AcDbEntity
  8
0
100
AcDbCircle
 62
7
  6
CONTINUOUS
 10
30.5597433003
 20
2.3455873536
 40
0.0383802683
100
AcDbArc
 50
288.7656836787
 51
309.6104317088
  0
ARC
  5
37B
100
AcDbEntity
  8
0
100
AcDbCircle
 62
7
  6
CONTINUOUS
 10
30.5401815304
 20
2.3735516295
 40
0.0310192946
100
AcDbArc
 50
34.7540871
 51
62.0879016178
  0
ARC
  5
37C
100
AcDbEntity
  8
0
100
AcDbCircle
 62
7
  6
CONTINUOUS
 10
30.4854682464
 20
2.3557278621
 40
0.0284963867
100
AcDbArc
 50
70.3834917948
 51
86.8922743861
  0
ARC
  5
37D
100
AcDbEntity
  8
0
100
AcDbCircle
 62
7
  6
CONTINUOUS
 10
30.5667354857
 20
2.3379861357
 40
0.0280715479
100
AcDbArc
 50
308.5071794988
 51
332.2400656899
  0
ARC
  5
37E
100
AcDbEntity
  8
0
100
AcDbCircle
 62
7
  6
CONTINUOUS
 10
30.5368857139
 20
2.3335551921
 40
0.0266349791
100
AcDbArc
 50
20.3630922153
 51
37.9727053099
  0
ARC
  5
37F
100
AcDbEntity
  8
0
100
AcDbCircle
 62
7
  6
CONTINUOUS
 10
30.5380060695
 20
2.3336282752
 40
0.0257145923
100
AcDbArc
 50
39.3804255939
 51
59.0361096173
  0
ARC
  5
380
100
AcDbEntity
  8
0
100
AcDbCircle
 62
7
  6
CONTINUOUS
 10
30.5226660372
 20
2.3312997545
 40
0.0238935861
100
AcDbArc
 50
209.8247607259
 51
235.1255079367
  0
ARC
  5
381
100
AcDbEntity
  8
0
100
AcDbCircle
 62
7
  6
CONTINUOUS
 10
30.5760424965
 20
2.3330916303
 40
0.0175560065
100
AcDbArc
 50
332.2279060967
 51
359.6595469939
  0
ARC
  5
382
100
AcDbEntity
  8
0
100
AcDbCircle
 62
7
  6
CONTINUOUS
 10
30.4820412509
 20
2.3314168585
 40
0.0151491919
100
AcDbArc
 50
24.098260853
 51
63.0369451818
  0
ARC
  5
383
100
AcDbEntity
  8
0
100
AcDbCircle
 62
7
  6
CONTINUOUS
 10
30.5775555073
 20
2.3420167666
 40
0.0147197649
100
AcDbArc
 50
192.7054516565
 51
206.0594861022
  0
ARC
  5
384
100
AcDbEntity
  8
0
100
AcDbCircle
 62
7
  6
CONTINUOUS
 10
30.4903278565
 20
2.368769595
 40
0.0145814632
100
AcDbArc
 50
54.6746025112
 51
71.1660573124
  0
ARC
  5
385
100
AcDbEntity
  8
0
100
AcDbCircle
 62
7
  6
CONTINUOUS
 10
30.5681966244
 20
2.3465129721
 40
0.0132488022
100
AcDbArc
 50
270.266200055
 51
281.2404888597
  0
ARC
  5
386
100
AcDbEntity
  8
0
100
AcDbCircle
 62
7
  6
CONTINUOUS
 10
30.5645908704
 20
2.3416694937
 40
0.0119498009
100
AcDbArc
 50
340.7883861657
 51
1.1691452593
  0
ARC
  5
387
100
AcDbEntity
  8
0
100
AcDbCircle
 62
7
  6
CONTINUOUS
 10
30.4913804799
 20
2.3798114865
 40
0.0110815393
100
AcDbArc
 50
306.758405961
 51
320.4502234234
  0
ARC
  5
388
100
AcDbEntity
  8
0
100
AcDbCircle
 62
7
  6
CONTINUOUS
 10
30.5693908654
 20
2.3407762785
 40
0.0073895522
100
AcDbArc
 50
280.8288201977
 51
305.0837508495
  0
ARC
  5
389
100
AcDbEntity
  8
0
100
AcDbCircle
 62
7
  6
CONTINUOUS
 10
30.5697920471
 20
2.3399254321
 40
0.0064647042
100
AcDbArc
 50
306.5086174083
 51
340.2162360092
  0
ARC
  5
38A
100
AcDbEntity
  8
0
100
AcDbCircle
 62
7
  6
CONTINUOUS
 10
30.4954573475
 20
2.3756235202
 40
0.0060275915
100
AcDbArc
 50
20.9055592135
 51
56.7851676243
  0
ARC
  5
38B
100
AcDbEntity
  8
0
100
AcDbCircle
 62
7
  6
CONTINUOUS
 10
30.495551096
 20
2.3765775787
 40
0.0058087709
100
AcDbArc
 50
318.8515287446
 51
353.6422345323
  0
ARC
  5
38C
100
AcDbEntity
  8
0
100
AcDbCircle
 62
7
  6
CONTINUOUS
 10
30.5690611702
 20
2.3378082802
 40
0.0052403997
100
AcDbArc
 50
205.5232099488
 51
227.5054868079
  0
ARC
  5
38D
100
AcDbEntity
  8
0
100
AcDbCircle
 62
7
  6
CONTINUOUS
 10
30.4967579063
 20
2.3762838024
 40
0.0045795888
100
AcDbArc
 50
355.6235353944
 51
18.9942678268
  0
ARC
  5
38E
100
AcDbEntity
  8
0
100
AcDbCircle
 62
7
  6
CONTINUOUS
 10
30.5673328709
 20
2.3359929075
 40
0.0027347709
100
AcDbArc
 50
228.5117626738
 51
266.1485845755
  0
ARC
  5
38F
100
AcDbEntity
  8
0
100
AcDbCircle
 62
7
  6
CONTINUOUS
 10
30.4502121117
 20
2.3450293212
 40
0.0024749995
100
AcDbArc
 50
89.9999571958
 51
180.0000428044
  0
ARC
  5
390
100
AcDbEntity
  8
0
100
AcDbCircle
 62
7
  6
CONTINUOUS
 10
30.4502121117
 20
2.3353303121
 40
0.0024749995
100
AcDbArc
 50
179.9999571957
 51
270.0000428043
  0
ARC
  5
391
100
AcDbEntity
  8
0
100
AcDbCircle
 62
7
  6
CONTINUOUS
 10
30.4748711291
 20
2.3303803131
 40
0.0024749995
100
AcDbArc
 50
359.9999571957
 51
90.0000428043
  0
ARC
  5
392
100
AcDbEntity
  8
0
100
AcDbCircle
 62
7
  6
CONTINUOUS
 10
30.3613000624
 20
2.3304023131
 40
0.0024749995
100
AcDbArc
 50
89.9999571957
 51
180.0000428042
  0
ARC
  5
393
100
AcDbEntity
  8
0
100
AcDbCircle
 62
7
  6
CONTINUOUS
 10
30.3840460787
 20
2.3353523121
 40
0.0024749995
100
AcDbArc
 50
269.9999571957
 51
0.0000428042
  0
ARC
  5
394
100
AcDbEntity
  8
0
100
AcDbCircle
 62
7
  6
CONTINUOUS
 10
30.5790131831
 20
2.3445393209
 40
0.0024749995
100
AcDbArc
 50
89.9999571957
 51
180.0000428043
  0
ARC
  5
395
100
AcDbEntity
  8
0
100
AcDbCircle
 62
7
  6
CONTINUOUS
 10
30.5911231935
 20
2.3445393209
 40
0.0024749995
100
AcDbArc
 50
359.9999571957
 51
90.0000428043
  0
ARC
  5
396
100
AcDbEntity
  8
0
100
AcDbCircle
 62
7
  6
CONTINUOUS
 10
30.4502121117
 20
2.3689823308
 40
0.0024749995
100
AcDbArc
 50
179.9999571957
 51
270.0000428043
  0
ARC
  5
397
100
AcDbEntity
  8
0
100
AcDbCircle
 62
7
  6
CONTINUOUS
 10
30.2851270238
 20
2.3353523121
 40
0.0024749995
100
AcDbArc
 50
269.9999571957
 51
0.0000428043
  0
ARC
  5
398
100
AcDbEntity
  8
0
100
AcDbCircle
 62
7
  6
CONTINUOUS
 10
30.2900770229
 20
2.3436023204
 40
0.0024749995
100
AcDbArc
 50
89.9999571957
 51
180.0000428042
  0
ARC
  5
399
100
AcDbEntity
  8
0
100
AcDbCircle
 62
7
  6
CONTINUOUS
 10
30.33239605
 20
2.3436023204
 40
0.0024749995
100
AcDbArc
 50
359.9999571957
 51
90.0000428043
  0
ARC
  5
39A
100
AcDbEntity
  8
0
100
AcDbCircle
 62
7
  6
CONTINUOUS
 10
30.3309770493
 20
2.3734573333
 40
0.0024749995
100
AcDbArc
 50
269.9999571957
 51
0.0000428042
  0
ARC
  5
39B
100
AcDbEntity
  8
0
100
AcDbCircle
 62
7
  6
CONTINUOUS
 10
30.2891130223
 20
2.3734573333
 40
0.0024749995
100
AcDbArc
 50
179.9999571957
 51
270.0000428043
  0
ARC
  5
39C
100
AcDbEntity
  8
0
100
AcDbCircle
 62
7
  6
CONTINUOUS
 10
30.2552900073
 20
2.3652073324
 40
0.0024749995
100
AcDbArc
 50
359.9999571957
 51
90.0000428043
  0
ARC
  5
39D
100
AcDbEntity
  8
0
100
AcDbCircle
 62
7
  6
CONTINUOUS
 10
30.2552900073
 20
2.3518523213
 40
0.0024749995
100
AcDbArc
 50
269.9999571957
 51
0.0000428042
  0
ARC
  5
39E
100
AcDbEntity
  8
0
100
AcDbCircle
 62
7
  6
CONTINUOUS
 10
30.5138242828
 20
2.4321551202
 40
0.0789082104
100
AcDbArc
 50
292.906155071
 51
305.2574666259
  0
ARC
  5
39F
100
AcDbEntity
  8
0
100
AcDbCircle
 62
7
  6
CONTINUOUS
 10
30.5441562204
 20
2.3889482705
 40
0.0261183659
100
AcDbArc
 50
305.6373831893
 51
329.9727629745
  0
ARC
  5
3A0
100
AcDbEntity
  8
0
100
AcDbCircle
 62
7
  6
CONTINUOUS
 10
30.4838237832
 20
2.3919459623
 40
0.0254407115
100
AcDbArc
 50
270.7327484175
 51
290.441894219
  0
ARC
  5
3A1
100
AcDbEntity
  8
0
100
AcDbCircle
 62
7
  6
CONTINUOUS
 10
30.4857512889
 20
2.387552315
 40
0.0206523367
100
AcDbArc
 50
289.6883413472
 51
306.4184925496
  0
ARC
  5
3A2
100
AcDbEntity
  8
0
100
AcDbCircle
 62
7
  6
CONTINUOUS
 10
30.5518702816
 20
2.3821012306
 40
0.0165459396
100
AcDbArc
 50
1.548452892
 51
33.5033152417
  0
ARC
  5
3A3
100
AcDbEntity
  8
0
100
AcDbCircle
 62
7
  6
CONTINUOUS
 10
30.5551668767
 20
2.3822696828
 40
0.0132462337
100
AcDbArc
 50
331.1510006998
 51
1.205404301
  0
ARC
  5
3A4
100
AcDbEntity
  8
0
100
AcDbCircle
 62
7
  6
CONTINUOUS
 10
30.3840460787
 20
2.3817073415
 40
0.0024749995
100
AcDbArc
 50
359.9999571957
 51
90.0000428043
  0
ARC
  5
3A5
100
AcDbEntity
  8
0
100
AcDbCircle
 62
7
  6
CONTINUOUS
 10
30.3613000624
 20
2.3866573406
 40
0.0024749995
100
AcDbArc
 50
179.9999571957
 51
270.0000428043
  0
ARC
  5
3A6
100
AcDbEntity
  8
0
100
AcDbCircle
 62
7
  6
CONTINUOUS
 10
30.3613000624
 20
2.4064573553
 40
0.0024749995
100
AcDbArc
 50
89.9999571957
 51
180.0000428042
  0
ARC
  5
3A7
100
AcDbEntity
  8
0
100
AcDbCircle
 62
7
  6
CONTINUOUS
 10
30.4502121117
 20
2.3817073415
 40
0.0024749995
100
AcDbArc
 50
89.9999571958
 51
180.0000428044
  0
ARC
  5
3A8
100
AcDbEntity
  8
0
100
AcDbCircle
 62
7
  6
CONTINUOUS
 10
30.3309770493
 20
2.4064573553
 40
0.0024749995
100
AcDbArc
 50
359.9999571957
 51
90.0000428043
  0
ARC
  5
3A9
100
AcDbEntity
  8
0
100
AcDbCircle
 62
7
  6
CONTINUOUS
 10
30.2841630233
 20
2.3817073415
 40
0.0024749995
100
AcDbArc
 50
359.9999571957
 51
90.0000428043
  0
ELLIPSE
  5
3AA
100
AcDbEntity
  8
0
100
AcDbEllipse
 62
7
  6
CONTINUOUS
 10
29.8665327899
 20
2.3572783261
 30
0.0
 11
-0.8250004575
 21
0.0
 31
0.0
 40
0.218572
 41
0.0
 42
6.2831853072
  0
HATCH
  5
3AB
100
AcDbEntity
  8
0
100
AcDbHatch
 62
7
  6
CONTINUOUS
 10
0.0
 20
0.0
 30
0.0
210
0.0
220
0.0
230
1.0
  2
XSEC0003
 70
1
 71
1
 91
11
 92
1
 93
57
 72
2
 10
30.5195674723
 20
2.3254494505
 40
0.0173408616
 50
232.4713476722
 51
267.338189944
 73
1
 72
2
 10
30.5226660372
 20
2.3312997545
 40
0.0238935861
 50
209.8247607259
 51
235.1255079367
 73
1
 72
2
 10
30.5425475033
 20
2.3381486337
 40
0.044722495
 50
195.531588407
 51
204.7624440448
 73
1
 72
1
 10
30.4994581408
 20
2.3261733089
 11
30.4976541398
 21
2.3322423123
 72
2
 10
30.4592749426
 20
2.3224452318
 40
0.0396099176
 50
14.3201081283
 51
22.4984722084
 73
1
 72
2
 10
30.4820412509
 20
2.3314168585
 40
0.0151491919
 50
24.098260853
 51
63.0369451818
 73
1
 72
2
 10
30.4779865962
 20
2.323137238
 40
0.0243676582
 50
63.3666028271
 51
90.3937697637
 73
1
 72
1
 10
30.4778191288
 20
2.3475043207
 11
30.4502121135
 21
2.3475043207
 72
2
 10
30.4502121117
 20
2.3450293212
 40
0.0024749995
 50
89.9999571958
 51
180.0000428044
 73
1
 72
1
 10
30.4477371122
 20
2.3450293194
 11
30.4477371122
 21
2.335330314
 72
2
 10
30.4502121117
 20
2.3353303121
 40
0.0024749995
 50
179.9999571957
 51
270.0000428043
 73
1
 72
1
 10
30.4502121135
 20
2.3328553126
 11
30.4748711272
 21
2.3328553126
 72
2
 10
30.4748711291
 20
2.3303803131
 40
0.0024749995
 50
359.9999571957
 51
90.0000428042
 73
1
 72
1
 10
30.4773461286
 20
2.3303803112
 11
30.4773461286
 21
2.3106023003
 72
2
 10
30.4748711291
 20
2.3106022984
 40
0.0024749995
 50
269.9999571958
 51
0.0000428044
 73
1
 72
1
 10
30.4748711272
 20
2.3081272989
 11
30.3613000642
 21
2.3081272989
 72
2
 10
30.3613000624
 20
2.3106022984
 40
0.0024749995
 50
179.9999571957
 51
270.0000428043
 73
1
 72
1
 10
30.3588250629
 20
2.3106023003
 11
30.3588250629
 21
2.3304023112
 72
2
 10
30.3613000624
 20
2.3304023131
 40
0.0024749995
 50
89.9999571956
 51
180.0000428042
 73
1
 72
1
 10
30.3613000642
 20
2.3328773126
 11
30.3840460768
 21
2.3328773126
 72
2
 10
30.3840460787
 20
2.3353523121
 40
0.0024749995
 50
269.9999571956
 51
0.0000428042
 73
1
 72
1
 10
30.3865210782
 20
2.335352314
 11
30.3865210782
 21
2.3817073397
 72
2
 10
30.3840460787
 20
2.3817073415
 40
0.0024749995
 50
359.9999571957
 51
90.0000428042
 73
1
 72
1
 10
30.3840460768
 20
2.3841823411
 11
30.3613000642
 21
2.3841823411
 72
2
 10
30.3613000624
 20
2.3866573406
 40
0.0024749995
 50
179.9999571957
 51
270.0000428043
 73
1
 72
1
 10
30.3588250629
 20
2.3866573424
 11
30.3588250629
 21
2.4064573534
 72
2
 10
30.3613000624
 20
2.4064573553
 40
0.0024749995
 50
89.9999571956
 51
180.0000428042
 73
1
 72
1
 10
30.3613000642
 20
2.4089323548
 11
30.5108811472
 21
2.4089323548
 72
2
 10
30.5082178439
 20
2.2263934443
 40
0.1825583387
 50
79.8618509324
 51
89.1640948679
 73
1
 72
2
 10
30.5345221342
 20
2.3672169603
 40
0.039319019
 50
59.1202086415
 51
81.4730239328
 73
1
 72
2
 10
30.5401815304
 20
2.3735516295
 40
0.0310192946
 50
34.7540871
 51
62.0879016178
 73
1
 72
2
 10
30.5518702816
 20
2.3821012306
 40
0.0165459396
 50
1.548452892
 51
33.5033152417
 73
1
 72
2
 10
30.5551668767
 20
2.3822696828
 40
0.0132462337
 50
331.1510006998
 51
1.205404301
 73
1
 72
2
 10
30.5441562204
 20
2.3889482705
 40
0.0261183659
 50
305.6373831893
 51
329.9727629745
 73
1
 72
2
 10
30.5138242828
 20
2.4321551202
 40
0.0789082104
 50
292.9061550709
 51
305.2574666259
 73
1
 72
2
 10
30.4901231168
 20
2.2555010151
 40
0.117346916
 50
58.614769177
 51
62.3737227606
 73
1
 72
2
 10
30.5380060695
 20
2.3336282752
 40
0.0257145923
 50
39.3804255939
 51
59.0361096173
 73
1
 72
2
 10
30.5368857139
 20
2.3335551921
 40
0.0266349791
 50
20.3630922153
 51
37.9727053099
 73
1
 72
2
 10
30.5189851722
 20
2.3263737837
 40
0.0459185159
 50
15.6740290068
 51
20.9917271228
 73
1
 72
2
 10
30.5775555073
 20
2.3420167666
 40
0.0147197649
 50
192.7054516565
 51
206.0594861022
 73
1
 72
2
 10
30.5690611702
 20
2.3378082802
 40
0.0052403997
 50
205.5232099488
 51
227.5054868079
 73
1
 72
2
 10
30.5673328709
 20
2.3359929075
 40
0.0027347709
 50
228.5117626738
 51
266.1485845755
 73
1
 72
1
 10
30.5671491784
 20
2.3332643128
 11
30.568258179
 21
2.3332643128
 72
2
 10
30.5681966244
 20
2.3465129721
 40
0.0132488022
 50
270.266200055
 51
281.2404888597
 73
1
 72
2
 10
30.5693908654
 20
2.3407762785
 40
0.0073895522
 50
280.8288201977
 51
305.0837508495
 73
1
 72
2
 10
30.5697920471
 20
2.3399254321
 40
0.0064647042
 50
306.5086174083
 51
340.2162360092
 73
1
 72
2
 10
30.5645908704
 20
2.3416694937
 40
0.0119498009
 50
340.7883861657
 51
1.1691452593
 73
1
 72
1
 10
30.5765381836
 20
2.3419133176
 11
30.5765381836
 21
2.3445393191
 72
2
 10
30.5790131831
 20
2.3445393209
 40
0.0024749995
 50
89.9999571958
 51
180.0000428043
 73
1
 72
1
 10
30.579013185
 20
2.3470143205
 11
30.5911231917
 21
2.3470143205
 72
2
 10
30.5911231935
 20
2.3445393209
 40
0.0024749995
 50
359.9999571957
 51
90.0000428042
 73
1
 72
1
 10
30.5935981931
 20
2.3445393191
 11
30.5935981931
 21
2.3329873127
 72
2
 10
30.5760424965
 20
2.3330916303
 40
0.0175560065
 50
332.2279060967
 51
359.6595469939
 73
1
 72
2
 10
30.5667354857
 20
2.3379861357
 40
0.0280715479
 50
308.5071794988
 51
332.2400656899
 73
1
 72
2
 10
30.5597433003
 20
2.3455873536
 40
0.0383802683
 50
288.7656836787
 51
309.6104317088
 73
1
 72
2
 10
30.5654812677
 20
2.3280006042
 40
0.0198837666
 50
271.8586572978
 51
289.4131338543
 73
1
 72
1
 10
30.5661261778
 20
2.3081272989
 11
30.5187621516
 21
2.3081272989
 97
267
330
2A0
330
2A1
330
2A2
330
2A3
330
2A4
330
2A5
330
2A6
330
2A7
330
2A8
330
2A9
330
2AA
330
2AB
330
2AC
330
2AD
330
2AE
330
2AF
330
2B0
330
2B1
330
2B2
330
2B3
330
2B4
330
2B5
330
2B6
330
2B7
330
2B8
330
2B9
330
2BA
330
2BB
330
2BC
330
2BD
330
2BE
330
2BF
330
2C0
330
2C1
330
2C2
330
2C3
330
2C4
330
2C5
330
2C6
330
2C7
330
2C8
330
2C9
330
2CA
330
2CB
330
2CC
330
2CD
330
2CE
330
2CF
330
2D0
330
2D1
330
2D2
330
2D3
330
2D4
330
2D5
330
2D6
330
2D7
330
2D8
330
2D9
330
2DA
330
2DB
330
2DC
330
2DD
330
2DE
330
2DF
330
2E0
330
2E1
330
2E2
330
2E3
330
2E4
330
2E5
330
2E6
330
2E7
330
2E8
330
2E9
330
2EA
330
2EB
330
2EC
330
2ED
330
2EE
330
2EF
330
2F0
330
2F1
330
2F2
330
2F3
330
2F4
330
2F5
330
2F6
330
2F7
330
2F8
330
2F9
330
2FA
330
2FB
330
2FC
330
2FD
330
2FE
330
2FF
330
300
330
301
330
302
330
303
330
304
330
305
330
306
330
307
330
308
330
309
330
30A
330
30B
330
30C
330
30D
330
30E
330
30F
330
310
330
311
330
312
330
313
330
314
330
315
330
316
330
317
330
318
330
319
330
31A
330
31B
330
31C
330
31D
330
31E
330
31F
330
320
330
321
330
322
330
323
330
324
330
325
330
326
330
327
330
328
330
329
330
32A
330
32B
330
32C
330
32D
330
32E
330
32F
330
330
330
331
330
332
330
333
330
334
330
335
330
336
330
337
330
338
330
339
330
33A
330
33B
330
33C
330
33D
330
33E
330
33F
330
340
330
341
330
342
330
343
330
344
330
345
330
346
330
347
330
348
330
349
330
34A
330
34B
330
34C
330
34D
330
34E
330
34F
330
350
330
351
330
352
330
353
330
354
330
355
330
356
330
357
330
358
330
359
330
35A
330
35B
330
35C
330
35D
330
35E
330
35F
330
360
330
361
330
362
330
363
330
364
330
365
330
366
330
367
330
368
330
369
330
36A
330
36B
330
36C
330
36D
330
36E
330
36F
330
370
330
371
330
372
330
373
330
374
330
375
330
376
330
377
330
378
330
379
330
37A
330
37B
330
37C
330
37D
330
37E
330
37F
330
380
330
381
330
382
330
383
330
384
330
385
330
386
330
387
330
388
330
389
330
38A
330
38B
330
38C
330
38D
330
38E
330
38F
330
390
330
391
330
392
330
393
330
394
330
395
330
396
330
397
330
398
330
399
330
39A
330
39B
330
39C
330
39D
330
39E
330
39F
330
3A0
330
3A1
330
3A2
330
3A3
330
3A4
330
3A5
330
3A6
330
3A7
330
3A8
330
3A9
330
3AA
 92
1
 93
40
 72
2
 10
30.1291839337
 20
2.3106022984
 40
0.0024749995
 50
179.9999571957
 51
270.0000428043
 73
1
 72
1
 10
30.1267089341
 20
2.3106023003
 11
30.1267089341
 21
2.3304023112
 72
2
 10
30.1291839337
 20
2.3304023131
 40
0.0024749995
 50
89.9999571958
 51
180.0000428044
 73
1
 72
1
 10
30.1291839355
 20
2.3328773126
 11
30.1531069488
 21
2.3328773126
 72
2
 10
30.1531069506
 20
2.3353523121
 40
0.0024749995
 50
269.9999571956
 51
0.0000428042
 73
1
 72
1
 10
30.1555819501
 20
2.335352314
 11
30.1555819501
 21
2.3817073397
 72
2
 10
30.1531069506
 20
2.3817073415
 40
0.0024749995
 50
359.9999571957
 51
90.0000428043
 73
1
 72
1
 10
30.1531069488
 20
2.3841823411
 11
30.1291839355
 21
2.3841823411
 72
2
 10
30.1291839337
 20
2.3866573406
 40
0.0024749995
 50
179.9999571957
 51
270.0000428043
 73
1
 72
1
 10
30.1267089341
 20
2.3866573424
 11
30.1267089341
 21
2.4064573534
 72
2
 10
30.1291839337
 20
2.4064573553
 40
0.0024749995
 50
89.9999571958
 51
180.0000428044
 73
1
 72
1
 10
30.1291839355
 20
2.4089323548
 11
30.3309770474
 21
2.4089323548
 72
2
 10
30.3309770493
 20
2.4064573553
 40
0.0024749995
 50
359.9999571957
 51
90.0000428042
 73
1
 72
1
 10
30.3334520488
 20
2.4064573534
 11
30.3334520488
 21
2.3734573351
 72
2
 10
30.3309770493
 20
2.3734573333
 40
0.0024749995
 50
269.9999571957
 51
0.0000428042
 73
1
 72
1
 10
30.3309770474
 20
2.3709823337
 11
30.2891130242
 21
2.3709823337
 72
2
 10
30.2891130223
 20
2.3734573333
 40
0.0024749995
 50
179.9999571957
 51
270.0000428042
 73
1
 72
1
 10
30.2866380228
 20
2.3734573351
 11
30.2866380228
 21
2.3817073397
 72
2
 10
30.2841630233
 20
2.3817073415
 40
0.0024749995
 50
359.9999571957
 51
90.0000428042
 73
1
 72
1
 10
30.2841630215
 20
2.3841823411
 11
30.2201229859
 21
2.3841823411
 72
2
 10
30.2201229841
 20
2.3817073415
 40
0.0024749995
 50
89.9999571957
 51
180.0000428042
 73
1
 72
1
 10
30.2176479846
 20
2.3817073397
 11
30.2176479846
 21
2.3701573333
 72
2
 10
30.2201229841
 20
2.3701573314
 40
0.0024749995
 50
179.9999571957
 51
270.0000428042
 73
1
 72
1
 10
30.2201229859
 20
2.3676823319
 11
30.2552900054
 21
2.3676823319
 72
2
 10
30.2552900073
 20
2.3652073324
 40
0.0024749995
 50
359.9999571957
 51
90.0000428042
 73
1
 72
1
 10
30.2577650068
 20
2.3652073305
 11
30.2577650068
 21
2.3518523231
 72
2
 10
30.2552900073
 20
2.3518523213
 40
0.0024749995
 50
269.9999571956
 51
0.0000428042
 73
1
 72
1
 10
30.2552900054
 20
2.3493773218
 11
30.2201229859
 21
2.3493773218
 72
2
 10
30.2201229841
 20
2.3469023222
 40
0.0024749995
 50
89.9999571957
 51
180.0000428042
 73
1
 72
1
 10
30.2176479846
 20
2.3469023204
 11
30.2176479846
 21
2.335352314
 72
2
 10
30.2201229841
 20
2.3353523121
 40
0.0024749995
 50
179.9999571957
 51
270.0000428042
 73
1
 72
1
 10
30.2201229859
 20
2.3328773126
 11
30.285127022
 21
2.3328773126
 72
2
 10
30.2851270238
 20
2.3353523121
 40
0.0024749995
 50
269.9999571957
 51
0.0000428043
 73
1
 72
1
 10
30.2876020234
 20
2.335352314
 11
30.2876020234
 21
2.3436023186
 72
2
 10
30.2900770229
 20
2.3436023204
 40
0.0024749995
 50
89.9999571956
 51
180.0000428042
 73
1
 72
1
 10
30.2900770247
 20
2.3460773199
 11
30.3323960482
 21
2.3460773199
 72
2
 10
30.33239605
 20
2.3436023204
 40
0.0024749995
 50
359.9999571957
 51
90.0000428043
 73
1
 72
1
 10
30.3348710496
 20
2.3436023186
 11
30.3348710496
 21
2.3106023003
 72
2
 10
30.33239605
 20
2.3106022984
 40
0.0024749995
 50
269.9999571956
 51
0.0000428042
 73
1
 72
1
 10
30.3323960482
 20
2.3081272989
 11
30.1291839355
 21
2.3081272989
 97
267
330
2A0
330
2A1
330
2A2
330
2A3
330
2A4
330
2A5
330
2A6
330
2A7
330
2A8
330
2A9
330
2AA
330
2AB
330
2AC
330
2AD
330
2AE
330
2AF
330
2B0
330
2B1
330
2B2
330
2B3
330
2B4
330
2B5
330
2B6
330
2B7
330
2B8
330
2B9
330
2BA
330
2BB
330
2BC
330
2BD
330
2BE
330
2BF
330
2C0
330
2C1
330
2C2
330
2C3
330
2C4
330
2C5
330
2C6
330
2C7
330
2C8
330
2C9
330
2CA
330
2CB
330
2CC
330
2CD
330
2CE
330
2CF
330
2D0
330
2D1
330
2D2
330
2D3
330
2D4
330
2D5
330
2D6
330
2D7
330
2D8
330
2D9
330
2DA
330
2DB
330
2DC
330
2DD
330
2DE
330
2DF
330
2E0
330
2E1
330
2E2
330
2E3
330
2E4
330
2E5
330
2E6
330
2E7
330
2E8
330
2E9
330
2EA
330
2EB
330
2EC
330
2ED
330
2EE
330
2EF
330
2F0
330
2F1
330
2F2
330
2F3
330
2F4
330
2F5
330
2F6
330
2F7
330
2F8
330
2F9
330
2FA
330
2FB
330
2FC
330
2FD
330
2FE
330
2FF
330
300
330
301
330
302
330
303
330
304
330
305
330
306
330
307
330
308
330
309
330
30A
330
30B
330
30C
330
30D
330
30E
330
30F
330
310
330
311
330
312
330
313
330
314
330
315
330
316
330
317
330
318
330
319
330
31A
330
31B
330
31C
330
31D
330
31E
330
31F
330
320
330
321
330
322
330
323
330
324
330
325
330
326
330
327
330
328
330
329
330
32A
330
32B
330
32C
330
32D
330
32E
330
32F
330
330
330
331
330
332
330
333
330
334
330
335
330
336
330
337
330
338
330
339
330
33A
330
33B
330
33C
330
33D
330
33E
330
33F
330
340
330
341
330
342
330
343
330
344
330
345
330
346
330
347
330
348
330
349
330
34A
330
34B
330
34C
330
34D
330
34E
330
34F
330
350
330
351
330
352
330
353
330
354
330
355
330
356
330
357
330
358
330
359
330
35A
330
35B
330
35C
330
35D
330
35E
330
35F
330
360
330
361
330
362
330
363
330
364
330
365
330
366
330
367
330
368
330
369
330
36A
330
36B
330
36C
330
36D
330
36E
330
36F
330
370
330
371
330
372
330
373
330
374
330
375
330
376
330
377
330
378
330
379
330
37A
330
37B
330
37C
330
37D
330
37E
330
37F
330
380
330
381
330
382
330
383
330
384
330
385
330
386
330
387
330
388
330
389
330
38A
330
38B
330
38C
330
38D
330
38E
330
38F
330
390
330
391
330
392
330
393
330
394
330
395
330
396
330
397
330
398
330
399
330
39A
330
39B
330
39C
330
39D
330
39E
330
39F
330
3A0
330
3A1
330
3A2
330
3A3
330
3A4
330
3A5
330
3A6
330
3A7
330
3A8
330
3A9
330
3AA
 92
1
 93
40
 72
2
 10
30.0045047316
 20
2.3106014667
 40
0.0024741678
 50
226.3477981898
 51
270.0031206038
 73
1
 72
1
 10
30.0027968654
 20
2.3088112993
 11
29.9395168303
 21
2.3691893327
 72
2
 10
29.9378081294
 20
2.367398395
 40
0.0024753014
 50
46.3461263058
 51
180.0014637321
 73
1
 72
1
 10
29.935332828
 20
2.3673983318
 11
29.935332828
 21
2.335352314
 72
2
 10
29.9378078275
 20
2.3353523121
 40
0.0024749995
 50
179.9999571957
 51
270.0000428043
 73
1
 72
1
 10
29.9378078294
 20
2.3328773126
 11
29.9581248406
 21
2.3328773126
 72
2
 10
29.9581248425
 20
2.3304023131
 40
0.0024749995
 50
359.9999571957
 51
90.0000428043
 73
1
 72
1
 10
29.960599842
 20
2.3304023112
 11
29.960599842
 21
2.3106023003
 72
2
 10
29.9581248425
 20
2.3106022984
 40
0.0024749995
 50
269.9999571957
 51
0.0000428043
 73
1
 72
1
 10
29.9581248406
 20
2.3081272989
 11
29.8824607987
 21
2.3081272989
 72
2
 10
29.8824607968
 20
2.3106022984
 40
0.0024749995
 50
179.9999571957
 51
270.0000428042
 73
1
 72
1
 10
29.8799857973
 20
2.3106023003
 11
29.8799857973
 21
2.3304023112
 72
2
 10
29.8824607968
 20
2.3304023131
 40
0.0024749995
 50
89.9999571957
 51
180.0000428042
 73
1
 72
1
 10
29.8824607987
 20
2.3328773126
 11
29.901106809
 21
2.3328773126
 72
2
 10
29.9011068109
 20
2.3353523121
 40
0.0024749995
 50
269.9999571958
 51
0.0000428043
 73
1
 72
1
 10
29.9035818104
 20
2.335352314
 11
29.9035818104
 21
2.3817073397
 72
2
 10
29.9011068109
 20
2.3817073415
 40
0.0024749995
 50
359.9999571957
 51
90.0000428042
 73
1
 72
1
 10
29.901106809
 20
2.3841823411
 11
29.8824607987
 21
2.3841823411
 72
2
 10
29.8824607968
 20
2.3866573406
 40
0.0024749995
 50
179.9999571957
 51
270.0000428042
 73
1
 72
1
 10
29.8799857973
 20
2.3866573424
 11
29.8799857973
 21
2.4064573534
 72
2
 10
29.8824607968
 20
2.4064573553
 40
0.0024749995
 50
89.9999571957
 51
180.0000428042
 73
1
 72
1
 10
29.8824607987
 20
2.4089323548
 11
29.9829188544
 21
2.4089323548
 72
2
 10
29.9829189891
 20
2.406458187
 40
0.0024741678
 50
46.3477981898
 51
90.0031206038
 73
1
 72
1
 10
29.9846268553
 20
2.4082483544
 11
30.0446598886
 21
2.3509683226
 72
2
 10
30.0463685896
 20
2.3527592604
 40
0.0024753014
 50
226.3461263059
 51
0.0014637321
 73
1
 72
1
 10
30.048843891
 20
2.3527593236
 11
30.048843891
 21
2.3817073397
 72
2
 10
30.0463688914
 20
2.3817073415
 40
0.0024749995
 50
359.9999571957
 51
90.0000428042
 73
1
 72
1
 10
30.0463688896
 20
2.3841823411
 11
30.0275928792
 21
2.3841823411
 72
2
 10
30.0275928773
 20
2.3866573406
 40
0.0024749995
 50
179.9999571957
 51
270.0000428043
 73
1
 72
1
 10
30.0251178778
 20
2.3866573424
 11
30.0251178778
 21
2.4064573534
 72
2
 10
30.0275928773
 20
2.4064573553
 40
0.0024749995
 50
89.9999571958
 51
180.0000428044
 73
1
 72
1
 10
30.0275928792
 20
2.4089323548
 11
30.1015939202
 21
2.4089323548
 72
2
 10
30.1015939221
 20
2.4064573553
 40
0.0024749995
 50
359.9999571957
 51
90.0000428043
 73
1
 72
1
 10
30.1040689216
 20
2.4064573534
 11
30.1040689216
 21
2.3866573424
 72
2
 10
30.1015939221
 20
2.3866573406
 40
0.0024749995
 50
269.9999571956
 51
0.0000428042
 73
1
 72
1
 10
30.1015939202
 20
2.3841823411
 11
30.0836609103
 21
2.3841823411
 72
2
 10
30.0836609084
 20
2.3817073415
 40
0.0024749995
 50
89.9999571957
 51
180.0000428042
 73
1
 72
1
 10
30.0811859089
 20
2.3817073397
 11
30.0811859089
 21
2.3106023003
 72
2
 10
30.0787109094
 20
2.3106022984
 40
0.0024749995
 50
269.9999571958
 51
0.0000428043
 73
1
 72
1
 10
30.0787109075
 20
2.3081272989
 11
30.0045048664
 21
2.3081272989
 97
267
330
2A0
330
2A1
330
2A2
330
2A3
330
2A4
330
2A5
330
2A6
330
2A7
330
2A8
330
2A9
330
2AA
330
2AB
330
2AC
330
2AD
330
2AE
330
2AF
330
2B0
330
2B1
330
2B2
330
2B3
330
2B4
330
2B5
330
2B6
330
2B7
330
2B8
330
2B9
330
2BA
330
2BB
330
2BC
330
2BD
330
2BE
330
2BF
330
2C0
330
2C1
330
2C2
330
2C3
330
2C4
330
2C5
330
2C6
330
2C7
330
2C8
330
2C9
330
2CA
330
2CB
330
2CC
330
2CD
330
2CE
330
2CF
330
2D0
330
2D1
330
2D2
330
2D3
330
2D4
330
2D5
330
2D6
330
2D7
330
2D8
330
2D9
330
2DA
330
2DB
330
2DC
330
2DD
330
2DE
330
2DF
330
2E0
330
2E1
330
2E2
330
2E3
330
2E4
330
2E5
330
2E6
330
2E7
330
2E8
330
2E9
330
2EA
330
2EB
330
2EC
330
2ED
330
2EE
330
2EF
330
2F0
330
2F1
330
2F2
330
2F3
330
2F4
330
2F5
330
2F6
330
2F7
330
2F8
330
2F9
330
2FA
330
2FB
330
2FC
330
2FD
330
2FE
330
2FF
330
300
330
301
330
302
330
303
330
304
330
305
330
306
330
307
330
308
330
309
330
30A
330
30B
330
30C
330
30D
330
30E
330
30F
330
310
330
311
330
312
330
313
330
314
330
315
330
316
330
317
330
318
330
319
330
31A
330
31B
330
31C
330
31D
330
31E
330
31F
330
320
330
321
330
322
330
323
330
324
330
325
330
326
330
327
330
328
330
329
330
32A
330
32B
330
32C
330
32D
330
32E
330
32F
330
330
330
331
330
332
330
333
330
334
330
335
330
336
330
337
330
338
330
339
330
33A
330
33B
330
33C
330
33D
330
33E
330
33F
330
340
330
341
330
342
330
343
330
344
330
345
330
346
330
347
330
348
330
349
330
34A
330
34B
330
34C
330
34D
330
34E
330
34F
330
350
330
351
330
352
330
353
330
354
330
355
330
356
330
357
330
358
330
359
330
35A
330
35B
330
35C
330
35D
330
35E
330
35F
330
360
330
361
330
362
330
363
330
364
330
365
330
366
330
367
330
368
330
369
330
36A
330
36B
330
36C
330
36D
330
36E
330
36F
330
370
330
371
330
372
330
373
330
374
330
375
330
376
330
377
330
378
330
379
330
37A
330
37B
330
37C
330
37D
330
37E
330
37F
330
380
330
381
330
382
330
383
330
384
330
385
330
386
330
387
330
388
330
389
330
38A
330
38B
330
38C
330
38D
330
38E
330
38F
330
390
330
391
330
392
330
393
330
394
330
395
330
396
330
397
330
398
330
399
330
39A
330
39B
330
39C
330
39D
330
39E
330
39F
330
3A0
330
3A1
330
3A2
330
3A3
330
3A4
330
3A5
330
3A6
330
3A7
330
3A8
330
3A9
330
3AA
 92
1
 93
40
 72
2
 10
29.7562520939
 20
2.310602715
 40
0.0024754162
 50
226.3593695814
 51
270.0146919953
 73
1
 72
1
 10
29.7545437277
 20
2.3088112993
 11
29.6912636927
 21
2.3691893327
 72
2
 10
29.6895549917
 20
2.367398395
 40
0.0024753014
 50
46.3461263059
 51
180.0014637321
 73
1
 72
1
 10
29.6870796903
 20
2.3673983318
 11
29.6870796903
 21
2.335352314
 72
2
 10
29.6895546899
 20
2.3353523121
 40
0.0024749995
 50
179.9999571957
 51
270.0000428042
 73
1
 72
1
 10
29.6895546917
 20
2.3328773126
 11
29.709871703
 21
2.3328773126
 72
2
 10
29.7098717048
 20
2.3304023131
 40
0.0024749995
 50
359.9999571957
 51
90.0000428042
 73
1
 72
1
 10
29.7123467043
 20
2.3304023112
 11
29.7123467043
 21
2.3106023003
 72
2
 10
29.7098717048
 20
2.3106022984
 40
0.0024749995
 50
269.9999571957
 51
0.0000428042
 73
1
 72
1
 10
29.709871703
 20
2.3081272989
 11
29.634207661
 21
2.3081272989
 72
2
 10
29.6342076592
 20
2.3106022984
 40
0.0024749995
 50
179.9999571957
 51
270.0000428042
 73
1
 72
1
 10
29.6317326596
 20
2.3106023003
 11
29.6317326596
 21
2.3304023112
 72
2
 10
29.6342076592
 20
2.3304023131
 40
0.0024749995
 50
89.9999571958
 51
180.0000428043
 73
1
 72
1
 10
29.634207661
 20
2.3328773126
 11
29.6528546714
 21
2.3328773126
 72
2
 10
29.6528546732
 20
2.3353523121
 40
0.0024749995
 50
269.9999571957
 51
0.0000428042
 73
1
 72
1
 10
29.6553296727
 20
2.335352314
 11
29.6553296727
 21
2.3817073397
 72
2
 10
29.6528546732
 20
2.3817073415
 40
0.0024749995
 50
359.9999571957
 51
90.0000428042
 73
1
 72
1
 10
29.6528546714
 20
2.3841823411
 11
29.634207661
 21
2.3841823411
 72
2
 10
29.6342076592
 20
2.3866573406
 40
0.0024749995
 50
179.9999571957
 51
270.0000428042
 73
1
 72
1
 10
29.6317326596
 20
2.3866573424
 11
29.6317326596
 21
2.4064573534
 72
2
 10
29.6342076592
 20
2.4064573553
 40
0.0024749995
 50
89.9999571958
 51
180.0000428043
 73
1
 72
1
 10
29.634207661
 20
2.4089323548
 11
29.7346657167
 21
2.4089323548
 72
2
 10
29.7346658515
 20
2.406458187
 40
0.0024741678
 50
46.3477981899
 51
90.0031206039
 73
1
 72
1
 10
29.7363737177
 20
2.4082483544
 11
29.796406751
 21
2.3509683226
 72
2
 10
29.7981154519
 20
2.3527592604
 40
0.0024753014
 50
226.3461263059
 51
0.0014637321
 73
1
 72
1
 10
29.8005907533
 20
2.3527593236
 11
29.8005907533
 21
2.3817073397
 72
2
 10
29.7981157538
 20
2.3817073415
 40
0.0024749995
 50
359.9999571957
 51
90.0000428042
 73
1
 72
1
 10
29.7981157519
 20
2.3841823411
 11
29.7793397415
 21
2.3841823411
 72
2
 10
29.7793397396
 20
2.3866573406
 40
0.0024749995
 50
179.9999571957
 51
270.0000428042
 73
1
 72
1
 10
29.7768647401
 20
2.3866573424
 11
29.7768647401
 21
2.4064573534
 72
2
 10
29.7793397396
 20
2.4064573553
 40
0.0024749995
 50
89.9999571957
 51
180.0000428042
 73
1
 72
1
 10
29.7793397415
 20
2.4089323548
 11
29.8533407825
 21
2.4089323548
 72
2
 10
29.8533407844
 20
2.4064573553
 40
0.0024749995
 50
359.9999571957
 51
90.0000428042
 73
1
 72
1
 10
29.8558157839
 20
2.4064573534
 11
29.8558157839
 21
2.3866573424
 72
2
 10
29.8533407844
 20
2.3866573406
 40
0.0024749995
 50
269.9999571958
 51
0.0000428044
 73
1
 72
1
 10
29.8533407825
 20
2.3841823411
 11
29.8354077726
 21
2.3841823411
 72
2
 10
29.8354077707
 20
2.3817073415
 40
0.0024749995
 50
89.9999571956
 51
180.0000428042
 73
1
 72
1
 10
29.8329327712
 20
2.3817073397
 11
29.8329327712
 21
2.3106023003
 72
2
 10
29.8304577717
 20
2.3106022984
 40
0.0024749995
 50
269.9999571956
 51
0.0000428042
 73
1
 72
1
 10
29.8304577698
 20
2.3081272989
 11
29.7562527287
 21
2.3081272989
 97
267
330
2A0
330
2A1
330
2A2
330
2A3
330
2A4
330
2A5
330
2A6
330
2A7
330
2A8
330
2A9
330
2AA
330
2AB
330
2AC
330
2AD
330
2AE
330
2AF
330
2B0
330
2B1
330
2B2
330
2B3
330
2B4
330
2B5
330
2B6
330
2B7
330
2B8
330
2B9
330
2BA
330
2BB
330
2BC
330
2BD
330
2BE
330
2BF
330
2C0
330
2C1
330
2C2
330
2C3
330
2C4
330
2C5
330
2C6
330
2C7
330
2C8
330
2C9
330
2CA
330
2CB
330
2CC
330
2CD
330
2CE
330
2CF
330
2D0
330
2D1
330
2D2
330
2D3
330
2D4
330
2D5
330
2D6
330
2D7
330
2D8
330
2D9
330
2DA
330
2DB
330
2DC
330
2DD
330
2DE
330
2DF
330
2E0
330
2E1
330
2E2
330
2E3
330
2E4
330
2E5
330
2E6
330
2E7
330
2E8
330
2E9
330
2EA
330
2EB
330
2EC
330
2ED
330
2EE
330
2EF
330
2F0
330
2F1
330
2F2
330
2F3
330
2F4
330
2F5
330
2F6
330
2F7
330
2F8
330
2F9
330
2FA
330
2FB
330
2FC
330
2FD
330
2FE
330
2FF
330
300
330
301
330
302
330
303
330
304
330
305
330
306
330
307
330
308
330
309
330
30A
330
30B
330
30C
330
30D
330
30E
330
30F
330
310
330
311
330
312
330
313
330
314
330
315
330
316
330
317
330
318
330
319
330
31A
330
31B
330
31C
330
31D
330
31E
330
31F
330
320
330
321
330
322
330
323
330
324
330
325
330
326
330
327
330
328
330
329
330
32A
330
32B
330
32C
330
32D
330
32E
330
32F
330
330
330
331
330
332
330
333
330
334
330
335
330
336
330
337
330
338
330
339
330
33A
330
33B
330
33C
330
33D
330
33E
330
33F
330
340
330
341
330
342
330
343
330
344
330
345
330
346
330
347
330
348
330
349
330
34A
330
34B
330
34C
330
34D
330
34E
330
34F
330
350
330
351
330
352
330
353
330
354
330
355
330
356
330
357
330
358
330
359
330
35A
330
35B
330
35C
330
35D
330
35E
330
35F
330
360
330
361
330
362
330
363
330
364
330
365
330
366
330
367
330
368
330
369
330
36A
330
36B
330
36C
330
36D
330
36E
330
36F
330
370
330
371
330
372
330
373
330
374
330
375
330
376
330
377
330
378
330
379
330
37A
330
37B
330
37C
330
37D
330
37E
330
37F
330
380
330
381
330
382
330
383
330
384
330
385
330
386
330
387
330
388
330
389
330
38A
330
38B
330
38C
330
38D
330
38E
330
38F
330
390
330
391
330
392
330
393
330
394
330
395
330
396
330
397
330
398
330
399
330
39A
330
39B
330
39C
330
39D
330
39E
330
39F
330
3A0
330
3A1
330
3A2
330
3A3
330
3A4
330
3A5
330
3A6
330
3A7
330
3A8
330
3A9
330
3AA
 92
1
 93
23
 72
2
 10
29.3410971553
 20
2.3565347507
 40
0.048483885
 50
273.21763719
 51
303.0749121182
 73
1
 72
2
 10
29.3559365494
 20
2.3337671418
 40
0.0213072145
 50
303.0488228549
 51
355.7263138674
 73
1
 72
2
 10
29.36187305
 20
2.3337763321
 40
0.0153945295
 50
354.0454548824
 51
5.1878013979
 73
1
 72
2
 10
29.3550433609
 20
2.3335878142
 40
0.0222174455
 50
4.0793399388
 51
69.834329283
 73
1
 72
1
 10
29.3627025104
 20
2.3544433246
 11
29.3526515049
 21
2.3579923265
 72
1
 10
29.3526515049
 20
2.3579923265
 11
29.3608915094
 21
2.3627683292
 72
2
 10
29.339026127
 20
2.3995952208
 40
0.0428289026
 50
300.6990502959
 51
319.0591802498
 73
1
 72
2
 10
29.3590547239
 20
2.3834668674
 40
0.0171568255
 50
315.9145124245
 51
16.0049121282
 73
1
 72
2
 10
29.3541031117
 20
2.3801132029
 40
0.0229166529
 50
20.6563876465
 51
62.3316896973
 73
1
 72
2
 10
29.3334409881
 20
2.347184638
 40
0.061747717
 50
59.5385584989
 51
90.0050977555
 73
1
 72
1
 10
29.3334354942
 20
2.4089323548
 11
29.1673724021
 21
2.4089323548
 72
2
 10
29.1673724003
 20
2.4064573553
 40
0.0024749995
 50
89.9999571958
 51
180.0000428044
 73
1
 72
1
 10
29.1648974007
 20
2.4064573534
 11
29.1648974007
 21
2.3866573424
 72
2
 10
29.1673724003
 20
2.3866573406
 40
0.0024749995
 50
179.9999571957
 51
270.0000428042
 73
1
 72
1
 10
29.1673724021
 20
2.3841823411
 11
29.1913144154
 21
2.3841823411
 72
2
 10
29.1913144172
 20
2.3817073415
 40
0.0024749995
 50
359.9999571957
 51
90.0000428042
 73
1
 72
1
 10
29.1937894168
 20
2.3817073397
 11
29.1937894168
 21
2.335352314
 72
2
 10
29.1913144172
 20
2.3353523121
 40
0.0024749995
 50
269.9999571957
 51
0.0000428042
 73
1
 72
1
 10
29.1913144154
 20
2.3328773126
 11
29.1673724021
 21
2.3328773126
 72
2
 10
29.1673724003
 20
2.3304023131
 40
0.0024749995
 50
89.9999571958
 51
180.0000428044
 73
1
 72
1
 10
29.1648974007
 20
2.3304023112
 11
29.1648974007
 21
2.3106023003
 72
2
 10
29.1673724003
 20
2.3106022984
 40
0.0024749995
 50
179.9999571957
 51
270.0000428042
 73
1
 72
1
 10
29.1673724021
 20
2.3081272989
 11
29.3438185
 21
2.3081272989
 97
267
330
2A0
330
2A1
330
2A2
330
2A3
330
2A4
330
2A5
330
2A6
330
2A7
330
2A8
330
2A9
330
2AA
330
2AB
330
2AC
330
2AD
330
2AE
330
2AF
330
2B0
330
2B1
330
2B2
330
2B3
330
2B4
330
2B5
330
2B6
330
2B7
330
2B8
330
2B9
330
2BA
330
2BB
330
2BC
330
2BD
330
2BE
330
2BF
330
2C0
330
2C1
330
2C2
330
2C3
330
2C4
330
2C5
330
2C6
330
2C7
330
2C8
330
2C9
330
2CA
330
2CB
330
2CC
330
2CD
330
2CE
330
2CF
330
2D0
330
2D1
330
2D2
330
2D3
330
2D4
330
2D5
330
2D6
330
2D7
330
2D8
330
2D9
330
2DA
330
2DB
330
2DC
330
2DD
330
2DE
330
2DF
330
2E0
330
2E1
330
2E2
330
2E3
330
2E4
330
2E5
330
2E6
330
2E7
330
2E8
330
2E9
330
2EA
330
2EB
330
2EC
330
2ED
330
2EE
330
2EF
330
2F0
330
2F1
330
2F2
330
2F3
330
2F4
330
2F5
330
2F6
330
2F7
330
2F8
330
2F9
330
2FA
330
2FB
330
2FC
330
2FD
330
2FE
330
2FF
330
300
330
301
330
302
330
303
330
304
330
305
330
306
330
307
330
308
330
309
330
30A
330
30B
330
30C
330
30D
330
30E
330
30F
330
310
330
311
330
312
330
313
330
314
330
315
330
316
330
317
330
318
330
319
330
31A
330
31B
330
31C
330
31D
330
31E
330
31F
330
320
330
321
330
322
330
323
330
324
330
325
330
326
330
327
330
328
330
329
330
32A
330
32B
330
32C
330
32D
330
32E
330
32F
330
330
330
331
330
332
330
333
330
334
330
335
330
336
330
337
330
338
330
339
330
33A
330
33B
330
33C
330
33D
330
33E
330
33F
330
340
330
341
330
342
330
343
330
344
330
345
330
346
330
347
330
348
330
349
330
34A
330
34B
330
34C
330
34D
330
34E
330
34F
330
350
330
351
330
352
330
353
330
354
330
355
330
356
330
357
330
358
330
359
330
35A
330
35B
330
35C
330
35D
330
35E
330
35F
330
360
330
361
330
362
330
363
330
364
330
365
330
366
330
367
330
368
330
369
330
36A
330
36B
330
36C
330
36D
330
36E
330
36F
330
370
330
371
330
372
330
373
330
374
330
375
330
376
330
377
330
378
330
379
330
37A
330
37B
330
37C
330
37D
330
37E
330
37F
330
380
330
381
330
382
330
383
330
384
330
385
330
386
330
387
330
388
330
389
330
38A
330
38B
330
38C
330
38D
330
38E
330
38F
330
390
330
391
330
392
330
393
330
394
330
395
330
396
330
397
330
398
330
399
330
39A
330
39B
330
39C
330
39D
330
39E
330
39F
330
3A0
330
3A1
330
3A2
330
3A3
330
3A4
330
3A5
330
3A6
330
3A7
330
3A8
330
3A9
330
3AA
 92
1
 93
32
 72
2
 10
29.4787315766
 20
2.3106022984
 40
0.0024749995
 50
269.9999571958
 51
0.0000428044
 73
1
 72
1
 10
29.4812065762
 20
2.3106023003
 11
29.4812065762
 21
2.3304023112
 72
2
 10
29.4787315766
 20
2.3304023131
 40
0.0024749995
 50
359.9999571957
 51
90.0000428042
 73
1
 72
1
 10
29.4787315748
 20
2.3328773126
 11
29.4674485685
 21
2.3328773126
 72
2
 10
29.4674484592
 20
2.3353523527
 40
0.0024750401
 50
147.606325801
 51
270.0025305754
 73
1
 72
1
 10
29.4653585674
 20
2.3366783147
 11
29.4708745704
 21
2.3453723195
 72
2
 10
29.4729645013
 20
2.3440461199
 40
0.0024752003
 50
89.998372645
 51
147.602165307
 73
1
 72
1
 10
29.4729645716
 20
2.3465213202
 11
29.5078425909
 21
2.3465213202
 72
2
 10
29.5078420513
 20
2.34404586
 40
0.0024754602
 50
32.8959418574
 51
89.9875097203
 73
1
 72
1
 10
29.5099205921
 20
2.3453903196
 11
29.5155465952
 21
2.3366973147
 72
2
 10
29.5134685729
 20
2.3353525197
 40
0.0024752071
 50
270.0004896793
 51
32.9089806819
 73
1
 72
1
 10
29.5134685941
 20
2.3328773126
 11
29.499017586
 21
2.3328773126
 72
2
 10
29.4990175842
 20
2.3304023131
 40
0.0024749995
 50
89.9999571958
 51
180.0000428043
 73
1
 72
1
 10
29.4965425847
 20
2.3304023112
 11
29.4965425847
 21
2.3106023003
 72
2
 10
29.4990175842
 20
2.3106022984
 40
0.0024749995
 50
179.9999571957
 51
270.0000428042
 73
1
 72
1
 10
29.499017586
 20
2.3081272989
 11
29.6042986444
 21
2.3081272989
 72
2
 10
29.6042986463
 20
2.3106022984
 40
0.0024749995
 50
269.9999571958
 51
0.0000428043
 73
1
 72
1
 10
29.6067736458
 20
2.3106023003
 11
29.6067736458
 21
2.3304023112
 72
2
 10
29.6042986463
 20
2.3304023131
 40
0.0024749995
 50
359.9999571957
 51
90.0000428042
 73
1
 72
1
 10
29.6042986444
 20
2.3328773126
 11
29.5842826333
 21
2.3328773126
 72
2
 10
29.5842827538
 20
2.3353513536
 40
0.002474041
 50
212.9056413127
 51
269.9972091756
 73
1
 72
1
 10
29.5822056322
 20
2.3340073132
 11
29.5344496057
 21
2.4078023542
 72
2
 10
29.532371984
 20
2.4064573946
 40
0.0024749602
 50
32.9172174468
 51
90.0087853097
 73
1
 72
1
 10
29.5323716045
 20
2.4089323548
 11
29.4751965728
 21
2.4089323548
 72
2
 10
29.4751965025
 20
2.4064571545
 40
0.0024752003
 50
89.998372645
 51
147.602165307
 73
1
 72
1
 10
29.4731065717
 20
2.4077833542
 11
29.4263065457
 21
2.3340263132
 72
2
 10
29.4242166149
 20
2.3353525129
 40
0.0024752003
 50
269.9983726451
 51
327.6021653071
 73
1
 72
1
 10
29.4242165446
 20
2.3328773126
 11
29.4013555319
 21
2.3328773126
 72
2
 10
29.40135553
 20
2.3304023131
 40
0.0024749995
 50
89.9999571957
 51
180.0000428042
 73
1
 72
1
 10
29.3988805305
 20
2.3304023112
 11
29.3988805305
 21
2.3106023003
 72
2
 10
29.40135553
 20
2.3106022984
 40
0.0024749995
 50
179.9999571957
 51
270.0000428042
 73
1
 72
1
 10
29.4013555319
 20
2.3081272989
 11
29.4787315748
 21
2.3081272989
 97
267
330
2A0
330
2A1
330
2A2
330
2A3
330
2A4
330
2A5
330
2A6
330
2A7
330
2A8
330
2A9
330
2AA
330
2AB
330
2AC
330
2AD
330
2AE
330
2AF
330
2B0
330
2B1
330
2B2
330
2B3
330
2B4
330
2B5
330
2B6
330
2B7
330
2B8
330
2B9
330
2BA
330
2BB
330
2BC
330
2BD
330
2BE
330
2BF
330
2C0
330
2C1
330
2C2
330
2C3
330
2C4
330
2C5
330
2C6
330
2C7
330
2C8
330
2C9
330
2CA
330
2CB
330
2CC
330
2CD
330
2CE
330
2CF
330
2D0
330
2D1
330
2D2
330
2D3
330
2D4
330
2D5
330
2D6
330
2D7
330
2D8
330
2D9
330
2DA
330
2DB
330
2DC
330
2DD
330
2DE
330
2DF
330
2E0
330
2E1
330
2E2
330
2E3
330
2E4
330
2E5
330
2E6
330
2E7
330
2E8
330
2E9
330
2EA
330
2EB
330
2EC
330
2ED
330
2EE
330
2EF
330
2F0
330
2F1
330
2F2
330
2F3
330
2F4
330
2F5
330
2F6
330
2F7
330
2F8
330
2F9
330
2FA
330
2FB
330
2FC
330
2FD
330
2FE
330
2FF
330
300
330
301
330
302
330
303
330
304
330
305
330
306
330
307
330
308
330
309
330
30A
330
30B
330
30C
330
30D
330
30E
330
30F
330
310
330
311
330
312
330
313
330
314
330
315
330
316
330
317
330
318
330
319
330
31A
330
31B
330
31C
330
31D
330
31E
330
31F
330
320
330
321
330
322
330
323
330
324
330
325
330
326
330
327
330
328
330
329
330
32A
330
32B
330
32C
330
32D
330
32E
330
32F
330
330
330
331
330
332
330
333
330
334
330
335
330
336
330
337
330
338
330
339
330
33A
330
33B
330
33C
330
33D
330
33E
330
33F
330
340
330
341
330
342
330
343
330
344
330
345
330
346
330
347
330
348
330
349
330
34A
330
34B
330
34C
330
34D
330
34E
330
34F
330
350
330
351
330
352
330
353
330
354
330
355
330
356
330
357
330
358
330
359
330
35A
330
35B
330
35C
330
35D
330
35E
330
35F
330
360
330
361
330
362
330
363
330
364
330
365
330
366
330
367
330
368
330
369
330
36A
330
36B
330
36C
330
36D
330
36E
330
36F
330
370
330
371
330
372
330
373
330
374
330
375
330
376
330
377
330
378
330
379
330
37A
330
37B
330
37C
330
37D
330
37E
330
37F
330
380
330
381
330
382
330
383
330
384
330
385
330
386
330
387
330
388
330
389
330
38A
330
38B
330
38C
330
38D
330
38E
330
38F
330
390
330
391
330
392
330
393
330
394
330
395
330
396
330
397
330
398
330
399
330
39A
330
39B
330
39C
330
39D
330
39E
330
39F
330
3A0
330
3A1
330
3A2
330
3A3
330
3A4
330
3A5
330
3A6
330
3A7
330
3A8
330
3A9
330
3AA
 92
1
 93
6
 72
2
 10
29.2567774499
 20
2.3353523121
 40
0.0024749995
 50
179.9999571957
 51
270.0000428043
 73
1
 72
1
 10
29.2543024503
 20
2.335352314
 11
29.2543024503
 21
2.3477273208
 72
2
 10
29.2567774499
 20
2.3477273227
 40
0.0024749995
 50
89.9999571956
 51
180.0000428042
 73
1
 72
1
 10
29.2567774517
 20
2.3502023222
 11
29.2981404746
 21
2.3502023222
 72
2
 10
29.2981404746
 20
2.3415398174
 40
0.0086625048
 50
270.0
 51
90.0
 73
1
 72
1
 10
29.2981404746
 20
2.3328773126
 11
29.2567774517
 21
2.3328773126
 97
267
330
2A0
330
2A1
330
2A2
330
2A3
330
2A4
330
2A5
330
2A6
330
2A7
330
2A8
330
2A9
330
2AA
330
2AB
330
2AC
330
2AD
330
2AE
330
2AF
330
2B0
330
2B1
330
2B2
330
2B3
330
2B4
330
2B5
330
2B6
330
2B7
330
2B8
330
2B9
330
2BA
330
2BB
330
2BC
330
2BD
330
2BE
330
2BF
330
2C0
330
2C1
330
2C2
330
2C3
330
2C4
330
2C5
330
2C6
330
2C7
330
2C8
330
2C9
330
2CA
330
2CB
330
2CC
330
2CD
330
2CE
330
2CF
330
2D0
330
2D1
330
2D2
330
2D3
330
2D4
330
2D5
330
2D6
330
2D7
330
2D8
330
2D9
330
2DA
330
2DB
330
2DC
330
2DD
330
2DE
330
2DF
330
2E0
330
2E1
330
2E2
330
2E3
330
2E4
330
2E5
330
2E6
330
2E7
330
2E8
330
2E9
330
2EA
330
2EB
330
2EC
330
2ED
330
2EE
330
2EF
330
2F0
330
2F1
330
2F2
330
2F3
330
2F4
330
2F5
330
2F6
330
2F7
330
2F8
330
2F9
330
2FA
330
2FB
330
2FC
330
2FD
330
2FE
330
2FF
330
300
330
301
330
302
330
303
330
304
330
305
330
306
330
307
330
308
330
309
330
30A
330
30B
330
30C
330
30D
330
30E
330
30F
330
310
330
311
330
312
330
313
330
314
330
315
330
316
330
317
330
318
330
319
330
31A
330
31B
330
31C
330
31D
330
31E
330
31F
330
320
330
321
330
322
330
323
330
324
330
325
330
326
330
327
330
328
330
329
330
32A
330
32B
330
32C
330
32D
330
32E
330
32F
330
330
330
331
330
332
330
333
330
334
330
335
330
336
330
337
330
338
330
339
330
33A
330
33B
330
33C
330
33D
330
33E
330
33F
330
340
330
341
330
342
330
343
330
344
330
345
330
346
330
347
330
348
330
349
330
34A
330
34B
330
34C
330
34D
330
34E
330
34F
330
350
330
351
330
352
330
353
330
354
330
355
330
356
330
357
330
358
330
359
330
35A
330
35B
330
35C
330
35D
330
35E
330
35F
330
360
330
361
330
362
330
363
330
364
330
365
330
366
330
367
330
368
330
369
330
36A
330
36B
330
36C
330
36D
330
36E
330
36F
330
370
330
371
330
372
330
373
330
374
330
375
330
376
330
377
330
378
330
379
330
37A
330
37B
330
37C
330
37D
330
37E
330
37F
330
380
330
381
330
382
330
383
330
384
330
385
330
386
330
387
330
388
330
389
330
38A
330
38B
330
38C
330
38D
330
38E
330
38F
330
390
330
391
330
392
330
393
330
394
330
395
330
396
330
397
330
398
330
399
330
39A
330
39B
330
39C
330
39D
330
39E
330
39F
330
3A0
330
3A1
330
3A2
330
3A3
330
3A4
330
3A5
330
3A6
330
3A7
330
3A8
330
3A9
330
3AA
 92
1
 93
13
 72
2
 10
30.4502121117
 20
2.3689823308
 40
0.0024749995
 50
179.9999571957
 51
270.0000428043
 73
1
 72
1
 10
30.4477371122
 20
2.3689823326
 11
30.4477371122
 21
2.3817073397
 72
2
 10
30.4502121117
 20
2.3817073415
 40
0.0024749995
 50
89.9999571958
 51
180.0000428044
 73
1
 72
1
 10
30.4502121135
 20
2.3841823411
 11
30.4870131339
 21
2.3841823411
 72
2
 10
30.4854682464
 20
2.3557278621
 40
0.0284963867
 50
70.3834917948
 51
86.8922743861
 73
1
 72
2
 10
30.4903278565
 20
2.368769595
 40
0.0145814632
 50
54.6746025112
 51
71.1660573124
 73
1
 72
2
 10
30.4954573475
 20
2.3756235202
 40
0.0060275915
 50
20.9055592135
 51
56.7851676243
 73
1
 72
2
 10
30.4967579063
 20
2.3762838024
 40
0.0045795888
 50
355.6235353944
 51
18.9942678268
 73
1
 72
2
 10
30.495551096
 20
2.3765775787
 40
0.0058087709
 50
318.8515287446
 51
353.6422345323
 73
1
 72
2
 10
30.4913804799
 20
2.3798114865
 40
0.0110815393
 50
306.758405961
 51
320.4502234234
 73
1
 72
2
 10
30.4857512889
 20
2.387552315
 40
0.0206523367
 50
289.6883413472
 51
306.4184925496
 73
1
 72
2
 10
30.4838237832
 20
2.3919459623
 40
0.0254407115
 50
270.7327484175
 51
290.441894219
 73
1
 72
1
 10
30.4841491324
 20
2.3665073313
 11
30.4502121135
 21
2.3665073313
 97
267
330
2A0
330
2A1
330
2A2
330
2A3
330
2A4
330
2A5
330
2A6
330
2A7
330
2A8
330
2A9
330
2AA
330
2AB
330
2AC
330
2AD
330
2AE
330
2AF
330
2B0
330
2B1
330
2B2
330
2B3
330
2B4
330
2B5
330
2B6
330
2B7
330
2B8
330
2B9
330
2BA
330
2BB
330
2BC
330
2BD
330
2BE
330
2BF
330
2C0
330
2C1
330
2C2
330
2C3
330
2C4
330
2C5
330
2C6
330
2C7
330
2C8
330
2C9
330
2CA
330
2CB
330
2CC
330
2CD
330
2CE
330
2CF
330
2D0
330
2D1
330
2D2
330
2D3
330
2D4
330
2D5
330
2D6
330
2D7
330
2D8
330
2D9
330
2DA
330
2DB
330
2DC
330
2DD
330
2DE
330
2DF
330
2E0
330
2E1
330
2E2
330
2E3
330
2E4
330
2E5
330
2E6
330
2E7
330
2E8
330
2E9
330
2EA
330
2EB
330
2EC
330
2ED
330
2EE
330
2EF
330
2F0
330
2F1
330
2F2
330
2F3
330
2F4
330
2F5
330
2F6
330
2F7
330
2F8
330
2F9
330
2FA
330
2FB
330
2FC
330
2FD
330
2FE
330
2FF
330
300
330
301
330
302
330
303
330
304
330
305
330
306
330
307
330
308
330
309
330
30A
330
30B
330
30C
330
30D
330
30E
330
30F
330
310
330
311
330
312
330
313
330
314
330
315
330
316
330
317
330
318
330
319
330
31A
330
31B
330
31C
330
31D
330
31E
330
31F
330
320
330
321
330
322
330
323
330
324
330
325
330
326
330
327
330
328
330
329
330
32A
330
32B
330
32C
330
32D
330
32E
330
32F
330
330
330
331
330
332
330
333
330
334
330
335
330
336
330
337
330
338
330
339
330
33A
330
33B
330
33C
330
33D
330
33E
330
33F
330
340
330
341
330
342
330
343
330
344
330
345
330
346
330
347
330
348
330
349
330
34A
330
34B
330
34C
330
34D
330
34E
330
34F
330
350
330
351
330
352
330
353
330
354
330
355
330
356
330
357
330
358
330
359
330
35A
330
35B
330
35C
330
35D
330
35E
330
35F
330
360
330
361
330
362
330
363
330
364
330
365
330
366
330
367
330
368
330
369
330
36A
330
36B
330
36C
330
36D
330
36E
330
36F
330
370
330
371
330
372
330
373
330
374
330
375
330
376
330
377
330
378
330
379
330
37A
330
37B
330
37C
330
37D
330
37E
330
37F
330
380
330
381
330
382
330
383
330
384
330
385
330
386
330
387
330
388
330
389
330
38A
330
38B
330
38C
330
38D
330
38E
330
38F
330
390
330
391
330
392
330
393
330
394
330
395
330
396
330
397
330
398
330
399
330
39A
330
39B
330
39C
330
39D
330
39E
330
39F
330
3A0
330
3A1
330
3A2
330
3A3
330
3A4
330
3A5
330
3A6
330
3A7
330
3A8
330
3A9
330
3AA
 92
1
 93
6
 72
2
 10
29.2981404746
 20
2.3755198363
 40
0.0086625048
 50
270.0
 51
90.0
 73
1
 72
1
 10
29.2981404746
 20
2.3841823411
 11
29.2567774517
 21
2.3841823411
 72
2
 10
29.2567774499
 20
2.3817073415
 40
0.0024749995
 50
89.9999571956
 51
180.0000428042
 73
1
 72
1
 10
29.2543024503
 20
2.3817073397
 11
29.2543024503
 21
2.3693323328
 72
2
 10
29.2567774499
 20
2.369332331
 40
0.0024749995
 50
179.9999571957
 51
270.0000428043
 73
1
 72
1
 10
29.2567774517
 20
2.3668573315
 11
29.2981404746
 21
2.3668573315
 97
267
330
2A0
330
2A1
330
2A2
330
2A3
330
2A4
330
2A5
330
2A6
330
2A7
330
2A8
330
2A9
330
2AA
330
2AB
330
2AC
330
2AD
330
2AE
330
2AF
330
2B0
330
2B1
330
2B2
330
2B3
330
2B4
330
2B5
330
2B6
330
2B7
330
2B8
330
2B9
330
2BA
330
2BB
330
2BC
330
2BD
330
2BE
330
2BF
330
2C0
330
2C1
330
2C2
330
2C3
330
2C4
330
2C5
330
2C6
330
2C7
330
2C8
330
2C9
330
2CA
330
2CB
330
2CC
330
2CD
330
2CE
330
2CF
330
2D0
330
2D1
330
2D2
330
2D3
330
2D4
330
2D5
330
2D6
330
2D7
330
2D8
330
2D9
330
2DA
330
2DB
330
2DC
330
2DD
330
2DE
330
2DF
330
2E0
330
2E1
330
2E2
330
2E3
330
2E4
330
2E5
330
2E6
330
2E7
330
2E8
330
2E9
330
2EA
330
2EB
330
2EC
330
2ED
330
2EE
330
2EF
330
2F0
330
2F1
330
2F2
330
2F3
330
2F4
330
2F5
330
2F6
330
2F7
330
2F8
330
2F9
330
2FA
330
2FB
330
2FC
330
2FD
330
2FE
330
2FF
330
300
330
301
330
302
330
303
330
304
330
305
330
306
330
307
330
308
330
309
330
30A
330
30B
330
30C
330
30D
330
30E
330
30F
330
310
330
311
330
312
330
313
330
314
330
315
330
316
330
317
330
318
330
319
330
31A
330
31B
330
31C
330
31D
330
31E
330
31F
330
320
330
321
330
322
330
323
330
324
330
325
330
326
330
327
330
328
330
329
330
32A
330
32B
330
32C
330
32D
330
32E
330
32F
330
330
330
331
330
332
330
333
330
334
330
335
330
336
330
337
330
338
330
339
330
33A
330
33B
330
33C
330
33D
330
33E
330
33F
330
340
330
341
330
342
330
343
330
344
330
345
330
346
330
347
330
348
330
349
330
34A
330
34B
330
34C
330
34D
330
34E
330
34F
330
350
330
351
330
352
330
353
330
354
330
355
330
356
330
357
330
358
330
359
330
35A
330
35B
330
35C
330
35D
330
35E
330
35F
330
360
330
361
330
362
330
363
330
364
330
365
330
366
330
367
330
368
330
369
330
36A
330
36B
330
36C
330
36D
330
36E
330
36F
330
370
330
371
330
372
330
373
330
374
330
375
330
376
330
377
330
378
330
379
330
37A
330
37B
330
37C
330
37D
330
37E
330
37F
330
380
330
381
330
382
330
383
330
384
330
385
330
386
330
387
330
388
330
389
330
38A
330
38B
330
38C
330
38D
330
38E
330
38F
330
390
330
391
330
392
330
393
330
394
330
395
330
396
330
397
330
398
330
399
330
39A
330
39B
330
39C
330
39D
330
39E
330
39F
330
3A0
330
3A1
330
3A2
330
3A3
330
3A4
330
3A5
330
3A6
330
3A7
330
3A8
330
3A9
330
3AA
 92
1
 93
8
 72
2
 10
29.5020375666
 20
2.3699465389
 40
0.0024752071
 50
270.0004896793
 51
32.9089806817
 73
1
 72
1
 10
29.5041155889
 20
2.3712913339
 11
29.4968565848
 21
2.3825073401
 72
2
 10
29.494778044
 20
2.3811628806
 40
0.0024754602
 50
32.8959418574
 51
89.9875097203
 73
1
 72
1
 10
29.4947785837
 20
2.3836383408
 11
29.4885975803
 21
2.3836383408
 72
2
 10
29.48859751
 20
2.3811631405
 40
0.0024752003
 50
89.9983726451
 51
147.6021653071
 73
1
 72
1
 10
29.4865075791
 20
2.3824893401
 11
29.4793905752
 21
2.3712723339
 72
2
 10
29.481480467
 20
2.3699463719
 40
0.0024750401
 50
147.6063258012
 51
270.0025305754
 73
1
 72
1
 10
29.4814805763
 20
2.3674713318
 11
29.5020375877
 21
2.3674713318
 97
267
330
2A0
330
2A1
330
2A2
330
2A3
330
2A4
330
2A5
330
2A6
330
2A7
330
2A8
330
2A9
330
2AA
330
2AB
330
2AC
330
2AD
330
2AE
330
2AF
330
2B0
330
2B1
330
2B2
330
2B3
330
2B4
330
2B5
330
2B6
330
2B7
330
2B8
330
2B9
330
2BA
330
2BB
330
2BC
330
2BD
330
2BE
330
2BF
330
2C0
330
2C1
330
2C2
330
2C3
330
2C4
330
2C5
330
2C6
330
2C7
330
2C8
330
2C9
330
2CA
330
2CB
330
2CC
330
2CD
330
2CE
330
2CF
330
2D0
330
2D1
330
2D2
330
2D3
330
2D4
330
2D5
330
2D6
330
2D7
330
2D8
330
2D9
330
2DA
330
2DB
330
2DC
330
2DD
330
2DE
330
2DF
330
2E0
330
2E1
330
2E2
330
2E3
330
2E4
330
2E5
330
2E6
330
2E7
330
2E8
330
2E9
330
2EA
330
2EB
330
2EC
330
2ED
330
2EE
330
2EF
330
2F0
330
2F1
330
2F2
330
2F3
330
2F4
330
2F5
330
2F6
330
2F7
330
2F8
330
2F9
330
2FA
330
2FB
330
2FC
330
2FD
330
2FE
330
2FF
330
300
330
301
330
302
330
303
330
304
330
305
330
306
330
307
330
308
330
309
330
30A
330
30B
330
30C
330
30D
330
30E
330
30F
330
310
330
311
330
312
330
313
330
314
330
315
330
316
330
317
330
318
330
319
330
31A
330
31B
330
31C
330
31D
330
31E
330
31F
330
320
330
321
330
322
330
323
330
324
330
325
330
326
330
327
330
328
330
329
330
32A
330
32B
330
32C
330
32D
330
32E
330
32F
330
330
330
331
330
332
330
333
330
334
330
335
330
336
330
337
330
338
330
339
330
33A
330
33B
330
33C
330
33D
330
33E
330
33F
330
340
330
341
330
342
330
343
330
344
330
345
330
346
330
347
330
348
330
349
330
34A
330
34B
330
34C
330
34D
330
34E
330
34F
330
350
330
351
330
352
330
353
330
354
330
355
330
356
330
357
330
358
330
359
330
35A
330
35B
330
35C
330
35D
330
35E
330
35F
330
360
330
361
330
362
330
363
330
364
330
365
330
366
330
367
330
368
330
369
330
36A
330
36B
330
36C
330
36D
330
36E
330
36F
330
370
330
371
330
372
330
373
330
374
330
375
330
376
330
377
330
378
330
379
330
37A
330
37B
330
37C
330
37D
330
37E
330
37F
330
380
330
381
330
382
330
383
330
384
330
385
330
386
330
387
330
388
330
389
330
38A
330
38B
330
38C
330
38D
330
38E
330
38F
330
390
330
391
330
392
330
393
330
394
330
395
330
396
330
397
330
398
330
399
330
39A
330
39B
330
39C
330
39D
330
39E
330
39F
330
3A0
330
3A1
330
3A2
330
3A3
330
3A4
330
3A5
330
3A6
330
3A7
330
3A8
330
3A9
330
3AA
 92
1
 93
1
 72
3
 10
29.8665327899
 20
2.3572783261
 11
-0.8250004575
 21
0.0
 40
0.218572
 50
0.0
 51
-0.0
 73
1
 97
267
330
2A0
330
2A1
330
2A2
330
2A3
330
2A4
330
2A5
330
2A6
330
2A7
330
2A8
330
2A9
330
2AA
330
2AB
330
2AC
330
2AD
330
2AE
330
2AF
330
2B0
330
2B1
330
2B2
330
2B3
330
2B4
330
2B5
330
2B6
330
2B7
330
2B8
330
2B9
330
2BA
330
2BB
330
2BC
330
2BD
330
2BE
330
2BF
330
2C0
330
2C1
330
2C2
330
2C3
330
2C4
330
2C5
330
2C6
330
2C7
330
2C8
330
2C9
330
2CA
330
2CB
330
2CC
330
2CD
330
2CE
330
2CF
330
2D0
330
2D1
330
2D2
330
2D3
330
2D4
330
2D5
330
2D6
330
2D7
330
2D8
330
2D9
330
2DA
330
2DB
330
2DC
330
2DD
330
2DE
330
2DF
330
2E0
330
2E1
330
2E2
330
2E3
330
2E4
330
2E5
330
2E6
330
2E7
330
2E8
330
2E9
330
2EA
330
2EB
330
2EC
330
2ED
330
2EE
330
2EF
330
2F0
330
2F1
330
2F2
330
2F3
330
2F4
330
2F5
330
2F6
330
2F7
330
2F8
330
2F9
330
2FA
330
2FB
330
2FC
330
2FD
330
2FE
330
2FF
330
300
330
301
330
302
330
303
330
304
330
305
330
306
330
307
330
308
330
309
330
30A
330
30B
330
30C
330
30D
330
30E
330
30F
330
310
330
311
330
312
330
313
330
314
330
315
330
316
330
317
330
318
330
319
330
31A
330
31B
330
31C
330
31D
330
31E
330
31F
330
320
330
321
330
322
330
323
330
324
330
325
330
326
330
327
330
328
330
329
330
32A
330
32B
330
32C
330
32D
330
32E
330
32F
330
330
330
331
330
332
330
333
330
334
330
335
330
336
330
337
330
338
330
339
330
33A
330
33B
330
33C
330
33D
330
33E
330
33F
330
340
330
341
330
342
330
343
330
344
330
345
330
346
330
347
330
348
330
349
330
34A
330
34B
330
34C
330
34D
330
34E
330
34F
330
350
330
351
330
352
330
353
330
354
330
355
330
356
330
357
330
358
330
359
330
35A
330
35B
330
35C
330
35D
330
35E
330
35F
330
360
330
361
330
362
330
363
330
364
330
365
330
366
330
367
330
368
330
369
330
36A
330
36B
330
36C
330
36D
330
36E
330
36F
330
370
330
371
330
372
330
373
330
374
330
375
330
376
330
377
330
378
330
379
330
37A
330
37B
330
37C
330
37D
330
37E
330
37F
330
380
330
381
330
382
330
383
330
384
330
385
330
386
330
387
330
388
330
389
330
38A
330
38B
330
38C
330
38D
330
38E
330
38F
330
390
330
391
330
392
330
393
330
394
330
395
330
396
330
397
330
398
330
399
330
39A
330
39B
330
39C
330
39D
330
39E
330
39F
330
3A0
330
3A1
330
3A2
330
3A3
330
3A4
330
3A5
330
3A6
330
3A7
330
3A8
330
3A9
330
3AA
 75
0
 76
1
 98
1
 10
0.0
 20
0.0
  0
LINE
  5
3AC
100
AcDbEntity
  8
0
100
AcDbLine
 62
7
  6
CONTINUOUS
 10
33.3524539446
 20
2.623495704
 11
27.0024539446
 21
2.623495704
  0
LINE
  5
3AD
100
AcDbEntity
  8
0
100
AcDbLine
 62
7
  6
CONTINUOUS
 10
28.7364976922
 20
0.8153979563
 11
28.1301066922
 21
0.8847909563
  0
LINE
  5
3AE
100
AcDbEntity
  8
0
100
AcDbLine
 62
7
  6
CONTINUOUS
 10
8.889879192
 20
21.3371139065
 11
8.889879192
 21
21.5871139065
  0
LINE
  5
3AF
100
AcDbEntity
  8
0
100
AcDbLine
 62
7
  6
CONTINUOUS
 10
8.8920367907
 20
0.701125727
 11
8.8920367907
 21
0.451125727
  0
LINE
  5
3B0
100
AcDbEntity
  8
0
100
AcDbLine
 62
7
  6
CONTINUOUS
 10
0.7364933212
 20
11.0250407989
 11
0.5864933212
 21
11.1116437989
  0
LINE
  5
3B1
100
AcDbEntity
  8
0
100
AcDbLine
 62
7
  6
CONTINUOUS
 10
17.0432003286
 20
21.3366775222
 11
17.1298033286
 21
21.4866775222
  0
LINE
  5
3B2
100
AcDbEntity
  8
0
100
AcDbLine
 62
7
  6
CONTINUOUS
 10
0.7364933212
 20
5.8588719767
 11
0.4864933212
 21
5.8588719767
  0
LINE
  5
3B3
100
AcDbEntity
  8
0
100
AcDbLine
 62
7
  6
CONTINUOUS
 10
33.3609986769
 20
5.8669213906
 11
33.6109986769
 21
5.8669213906
  0
LINE
  5
3B4
100
AcDbEntity
  8
0
100
AcDbLine
 62
7
  6
CONTINUOUS
 10
17.1311228366
 20
0.5535279561
 11
17.044519919
 21
0.7035279135
  0
LINE
  5
3B5
100
AcDbEntity
  8
0
100
AcDbLine
 62
7
  6
CONTINUOUS
 10
12.9686470768
 20
21.3361454131
 11
12.9686470768
 21
21.5861454131
  0
LINE
  5
3B6
100
AcDbEntity
  8
0
100
AcDbLine
 62
7
  6
CONTINUOUS
 10
12.9686929482
 20
0.7036996999
 11
12.9686929482
 21
0.4536996999
  0
LINE
  5
3B7
100
AcDbEntity
  8
0
100
AcDbLine
 62
7
  6
CONTINUOUS
 10
17.0434505532
 20
21.3371998727
 11
17.0434505532
 21
21.5871998727
  0
LINE
  5
3B8
100
AcDbEntity
  8
0
100
AcDbLine
 62
7
  6
CONTINUOUS
 10
17.044519919
 20
0.7035279135
 11
17.044519919
 21
0.4535279135
  0
LINE
  5
3B9
100
AcDbEntity
  8
0
100
AcDbLine
 62
7
  6
CONTINUOUS
 10
33.3505254366
 20
11.0229004107
 11
33.6005254366
 21
11.0229004107
  0
LINE
  5
3BA
100
AcDbEntity
  8
0
100
AcDbLine
 62
7
  6
CONTINUOUS
 10
0.7364933212
 20
11.0250407989
 11
0.4864933212
 21
11.0250407989
  0
LINE
  5
3BB
100
AcDbEntity
  8
0
100
AcDbLine
 62
7
  6
CONTINUOUS
 10
21.1216648563
 20
21.3366775222
 11
21.1216648563
 21
21.5866775222
  0
LINE
  5
3BC
100
AcDbEntity
  8
0
100
AcDbLine
 62
7
  6
CONTINUOUS
 10
21.123273272
 20
0.7029532451
 11
21.123273272
 21
0.4529532451
  0
LINE
  5
3BD
100
AcDbEntity
  8
0
100
AcDbLine
 62
7
  6
CONTINUOUS
 10
17.044519919
 20
0.7035279135
 11
16.957916919
 21
0.5535279135
  0
LINE
  5
3BE
100
AcDbEntity
  8
0
100
AcDbLine
 62
7
  6
CONTINUOUS
 10
33.3591947174
 20
16.1718388512
 11
33.6091947174
 21
16.1718388512
  0
LINE
  5
3BF
100
AcDbEntity
  8
0
100
AcDbLine
 62
7
  6
CONTINUOUS
 10
0.7307206509
 20
16.1796642805
 11
0.4807206509
 21
16.1796642805
  0
LINE
  5
3C0
100
AcDbEntity
  8
0
100
AcDbLine
 62
7
  6
CONTINUOUS
 10
16.9565973286
 20
21.4866775222
 11
17.0432003286
 21
21.3366775222
  0
LINE
  5
3C1
100
AcDbEntity
  8
0
100
AcDbLine
 62
7
  6
CONTINUOUS
 10
25.1978890403
 20
21.3360123859
 11
25.1978890403
 21
21.5860123859
  0
LINE
  5
3C2
100
AcDbEntity
  8
0
100
AcDbLine
 62
7
  6
CONTINUOUS
 10
25.1987539847
 20
0.7030140686
 11
25.1987539847
 21
0.4530140686
  0
LINE
  5
3C3
100
AcDbEntity
  8
0
100
AcDbLine
 62
7
  6
CONTINUOUS
 10
33.5005254366
 20
11.1095034107
 11
33.3505254366
 21
11.0229004107
  0
LINE
  5
3C4
100
AcDbEntity
  8
0
100
AcDbLine
 62
7
  6
CONTINUOUS
 10
33.3505254366
 20
11.0229004107
 11
33.5005254366
 21
10.9362974107
  0
LINE
  5
3C5
100
AcDbEntity
  8
0
100
AcDbLine
 62
7
  6
CONTINUOUS
 10
27.0024539446
 20
2.623495704
 11
27.0024539446
 21
0.703495704
  0
LINE
  5
3C6
100
AcDbEntity
  8
0
100
AcDbLine
 62
7
  6
CONTINUOUS
 10
27.5254366922
 20
0.9674889563
 11
27.5254366922
 21
0.7453979563
  0
LINE
  5
3C7
100
AcDbEntity
  8
0
100
AcDbLine
 62
7
  6
CONTINUOUS
 10
27.5254366922
 20
1.0174889563
 11
27.5254366922
 21
1.1174889563
  0
LINE
  5
3C8
100
AcDbEntity
  8
0
100
AcDbLine
 62
7
  6
CONTINUOUS
 10
27.5254366922
 20
1.1674889563
 11
27.5254366922
 21
1.3895799563
  0
LINE
  5
3C9
100
AcDbEntity
  8
0
100
AcDbLine
 62
7
  6
CONTINUOUS
 10
33.3519788796
 20
21.3366775222
 11
0.7364933212
 21
21.3366775222
  0
LINE
  5
3CA
100
AcDbEntity
  8
0
100
AcDbLine
 62
7
  6
CONTINUOUS
 10
17.1298033286
 20
21.4866775222
 11
16.9565973286
 21
21.4866775222
  0
LINE
  5
3CB
100
AcDbEntity
  8
0
100
AcDbLine
 62
7
  6
CONTINUOUS
 10
28.1301066922
 20
0.8847909563
 11
28.1301066922
 21
1.2501869563
  0
LINE
  5
3CC
100
AcDbEntity
  8
0
100
AcDbLine
 62
7
  6
CONTINUOUS
 10
28.7364976922
 20
1.3195799563
 11
28.7364976922
 21
0.8153979563
  0
LINE
  5
3CD
100
AcDbEntity
  8
0
100
AcDbLine
 62
7
  6
CONTINUOUS
 10
29.0024539446
 20
2.623495704
 11
29.0024539446
 21
0.703495704
  0
LINE
  5
3CE
100
AcDbEntity
  8
0
100
AcDbLine
 62
7
  6
CONTINUOUS
 10
29.2763246158
 20
0.7031465965
 11
29.2763246158
 21
0.4531465965
  0
LINE
  5
3CF
100
AcDbEntity
  8
0
100
AcDbLine
 62
7
  6
CONTINUOUS
 10
29.2763389625
 20
21.3354056718
 11
29.2763389625
 21
21.5854056718
  0
LINE
  5
3D0
100
AcDbEntity
  8
0
100
AcDbLine
 62
7
  6
CONTINUOUS
 10
29.8024539446
 20
1.323495704
 11
29.8024539446
 21
0.953495704
  0
LINE
  5
3D1
100
AcDbEntity
  8
0
100
AcDbLine
 62
7
  6
CONTINUOUS
 10
31.1774539446
 20
0.953495704
 11
31.1774539446
 21
0.703495704
  0
LINE
  5
3D2
100
AcDbEntity
  8
0
100
AcDbLine
 62
7
  6
CONTINUOUS
 10
32.5524539446
 20
1.323495704
 11
32.5524539446
 21
0.953495704
  0
LINE
  5
3D3
100
AcDbEntity
  8
0
100
AcDbLine
 62
7
  6
CONTINUOUS
 10
33.3519788796
 20
0.703495704
 11
33.3519788796
 21
21.3366775222
  0
LINE
  5
3D4
100
AcDbEntity
  8
0
100
AcDbLine
 62
7
  6
CONTINUOUS
 10
33.5005254366
 20
10.9362974107
 11
33.5005254366
 21
11.1095034107
  0
LINE
  5
3D5
100
AcDbEntity
  8
02___PRT_ALL_AXES
100
AcDbLine
 62
7
  6
CONTINUOUS
 10
17.0780578282
 20
7.7296437801
 11
16.8630578282
 21
7.7296437801
  0
LINE
  5
3D6
100
AcDbEntity
  8
0
100
AcDbLine
 62
7
  6
CONTINUOUS
 10
17.4902428676
 20
9.207596536
 11
16.4508727888
 21
9.207596536
  0
LINE
  5
3D7
100
AcDbEntity
  8
0
100
AcDbLine
 62
7
  6
CONTINUOUS
 10
17.5217389306
 20
9.239092599
 11
16.4193767258
 21
9.239092599
  0
LWPOLYLINE
  5
3D8
100
AcDbEntity
  8
0
100
AcDbPolyline
 62
7
  6
CONTINUOUS
 90
4
 70
0
 10
17.1965417372
 20
9.3597234956
 10
17.1555656809
 20
9.3507104012
 10
17.1147851691
 20
9.3432164883
 10
17.0742552077
 20
9.3373281736
  0
LWPOLYLINE
  5
3D9
100
AcDbEntity
  8
0
100
AcDbPolyline
 62
7
  6
CONTINUOUS
 90
4
 70
0
 10
16.7445739192
 20
9.3007148711
 10
16.7855434499
 20
9.3097266456
 10
16.8263234155
 20
9.3172207126
 10
16.8668604487
 20
9.3231101931
  0
LWPOLYLINE
  5
3DA
100
AcDbEntity
  8
0
100
AcDbPolyline
 62
7
  6
CONTINUOUS
 90
4
 70
0
 10
17.1965417372
 20
9.4187786137
 10
17.1555656809
 20
9.4097655193
 10
17.1147851691
 20
9.4022716064
 10
17.0742552077
 20
9.3963832917
  0
LWPOLYLINE
  5
3DB
100
AcDbEntity
  8
0
100
AcDbPolyline
 62
7
  6
CONTINUOUS
 90
4
 70
0
 10
16.7445739192
 20
9.3597699892
 10
16.7855434499
 20
9.3687817638
 10
16.8263234155
 20
9.3762758307
 10
16.8668604487
 20
9.3821653112
  0
LWPOLYLINE
  5
3DC
100
AcDbEntity
  8
0
100
AcDbPolyline
 62
7
  6
CONTINUOUS
 90
4
 70
0
 10
17.1965417372
 20
9.4778337318
 10
17.1555656809
 20
9.4688206374
 10
17.1147851691
 20
9.4613267246
 10
17.0742552077
 20
9.4554384098
  0
LWPOLYLINE
  5
3DD
100
AcDbEntity
  8
0
100
AcDbPolyline
 62
7
  6
CONTINUOUS
 90
4
 70
0
 10
16.7445739192
 20
9.4188251073
 10
16.7855434499
 20
9.4278368819
 10
16.8263234155
 20
9.4353309488
 10
16.8668604487
 20
9.4412204294
  0
LWPOLYLINE
  5
3DE
100
AcDbEntity
  8
0
100
AcDbPolyline
 62
7
  6
CONTINUOUS
 90
4
 70
0
 10
17.1965417372
 20
9.53688885
 10
17.1555656809
 20
9.5278757555
 10
17.1147851691
 20
9.5203818427
 10
17.0742552077
 20
9.5144935279
  0
LWPOLYLINE
  5
3DF
100
AcDbEntity
  8
0
100
AcDbPolyline
 62
7
  6
CONTINUOUS
 90
4
 70
0
 10
16.7445739192
 20
9.4778802254
 10
16.7855434499
 20
9.486892
 10
16.8263234155
 20
9.4943860669
 10
16.8668604487
 20
9.5002755475
  0
LWPOLYLINE
  5
3E0
100
AcDbEntity
  8
0
100
AcDbPolyline
 62
7
  6
CONTINUOUS
 90
4
 70
0
 10
17.0534923732
 20
9.2758869969
 10
17.1008805027
 20
9.2819614083
 10
17.1484552845
 20
9.2902396369
 10
17.1965417372
 20
9.3006683775
  0
LWPOLYLINE
  5
3E1
100
AcDbEntity
  8
0
100
AcDbPolyline
 62
7
  6
CONTINUOUS
 90
4
 70
0
 10
17.0534923732
 20
9.2758869969
 10
17.0689869166
 20
9.2772814123
 10
17.0844011492
 20
9.2782253996
 10
17.0995671204
 20
9.2787146795
  0
LWPOLYLINE
  5
3E2
100
AcDbEntity
  8
0
100
AcDbPolyline
 62
7
  6
CONTINUOUS
 90
6
 70
0
 10
17.3807625054
 20
9.6387141335
 10
17.4349291932
 20
9.6402417642
 10
17.4768565043
 20
9.6417694328
 10
17.5054381805
 20
9.6432971323
 10
17.5199197647
 20
9.6448248241
 10
17.5214986779
 20
9.6453111413
  0
LWPOLYLINE
  5
3E3
100
AcDbEntity
  8
0
100
AcDbPolyline
 62
7
  6
CONTINUOUS
 90
7
 70
0
 10
17.328686487
 20
9.2831415792
 10
17.3897930934
 20
9.2846172429
 10
17.4405870752
 20
9.2860929188
 10
17.4798191648
 20
9.2875686307
 10
17.5065231952
 20
9.2890443685
 10
17.5200413522
 20
9.2905200968
 10
17.5214986779
 20
9.2909804327
  0
LWPOLYLINE
  5
3E4
100
AcDbEntity
  8
0
100
AcDbPolyline
 62
7
  6
CONTINUOUS
 90
7
 70
0
 10
16.6253318076
 20
9.318527443
 10
16.5603525618
 20
9.3169998087
 10
16.5061859644
 20
9.3154721773
 10
16.4642589131
 20
9.3139445141
 10
16.4356773891
 20
9.3124168188
 10
16.4211958813
 20
9.3108891309
 10
16.4196169785
 20
9.310402816
  0
LWPOLYLINE
  5
3E5
100
AcDbEntity
  8
0
100
AcDbPolyline
 62
7
  6
CONTINUOUS
 90
4
 70
0
 10
16.5603530757
 20
9.3867151571
 10
16.6253318405
 20
9.388242779
 10
16.699410167
 20
9.3897703996
 10
16.7806336935
 20
9.391297987
  0
LINE
  5
3E6
100
AcDbEntity
  8
0
100
AcDbLine
 62
7
  6
CONTINUOUS
 10
16.5603530938
 20
9.5638805119
 11
16.6253318662
 21
9.5654081339
  0
LWPOLYLINE
  5
3E7
100
AcDbEntity
  8
0
100
AcDbPolyline
 62
7
  6
CONTINUOUS
 90
3
 70
0
 10
17.3157844217
 20
9.4493609553
 10
17.2417048583
 20
9.4478333091
 10
17.1604810909
 20
9.4463057182
  0
LWPOLYLINE
  5
3E8
100
AcDbEntity
  8
0
100
AcDbPolyline
 62
7
  6
CONTINUOUS
 90
3
 70
0
 10
16.6253317302
 20
9.4472978947
 10
16.6994101178
 20
9.4488255167
 10
16.7806334404
 20
9.4503531005
  0
LWPOLYLINE
  5
3E9
100
AcDbEntity
  8
0
100
AcDbPolyline
 62
7
  6
CONTINUOUS
 90
3
 70
0
 10
17.315784401
 20
9.508416073
 10
17.2417060506
 20
9.5068884506
 10
17.1604825376
 20
9.5053608626
  0
LWPOLYLINE
  5
3EA
100
AcDbEntity
  8
0
100
AcDbPolyline
 62
7
  6
CONTINUOUS
 90
3
 70
0
 10
16.6253319203
 20
9.5063530169
 10
16.6994102989
 20
9.5078806384
 10
16.7806338151
 20
9.5094082255
  0
LINE
  5
3EB
100
AcDbEntity
  8
0
100
AcDbLine
 62
7
  6
CONTINUOUS
 10
17.3157845828
 20
9.5674711951
 11
17.2417066673
 21
9.5659435808
  0
LWPOLYLINE
  5
3EC
100
AcDbEntity
  8
0
100
AcDbPolyline
 62
7
  6
CONTINUOUS
 90
3
 70
0
 10
16.6253318662
 20
9.5654081339
 10
16.6994102103
 20
9.5669357547
 10
16.7806337336
 20
9.5684633421
  0
LWPOLYLINE
  5
3ED
100
AcDbEntity
  8
0
100
AcDbPolyline
 62
7
  6
CONTINUOUS
 90
8
 70
0
 10
17.2782595647
 20
9.4202515296
 10
17.3524361744
 20
9.4217244454
 10
17.4172536306
 20
9.4231973613
 10
17.4711233735
 20
9.4246702771
 10
17.5127251525
 20
9.426143193
 10
17.5410393825
 20
9.4276161088
 10
17.5553721325
 20
9.4290890247
 10
17.5569462434
 20
9.429564716
  0
LINE
  5
3EE
100
AcDbEntity
  8
0
100
AcDbLine
 62
7
  6
CONTINUOUS
 10
16.588679482
 20
9.5265091969
 11
16.6628560917
 21
9.5279821127
  0
LINE
  5
3EF
100
AcDbEntity
  8
0
100
AcDbLine
 62
7
  6
CONTINUOUS
 10
17.2417066673
 20
9.5659435808
 11
17.1604837244
 21
9.5644160022
  0
LWPOLYLINE
  5
3F0
100
AcDbEntity
  8
0
100
AcDbPolyline
 62
7
  6
CONTINUOUS
 90
4
 70
0
 10
17.0995671204
 20
9.2787146795
 10
17.1817651207
 20
9.2801902766
 10
17.2587700634
 20
9.2816659152
 10
17.328686487
 20
9.2831415792
  0
LWPOLYLINE
  5
3F1
100
AcDbEntity
  8
0
100
AcDbPolyline
 62
7
  6
CONTINUOUS
 90
9
 70
0
 10
17.1965417372
 20
9.3006683775
 10
17.2782595647
 20
9.3021412934
 10
17.3524361744
 20
9.3036142092
 10
17.4172536306
 20
9.3050871251
 10
17.4711233735
 20
9.3065600409
 10
17.5127251525
 20
9.3080329567
 10
17.5410393825
 20
9.3095058726
 10
17.5553721325
 20
9.3109787884
 10
17.5569462434
 20
9.3114544798
  0
LWPOLYLINE
  5
3F2
100
AcDbEntity
  8
0
100
AcDbPolyline
 62
7
  6
CONTINUOUS
 90
9
 70
0
 10
17.1965417372
 20
9.3081486925
 10
17.2782595647
 20
9.3096216083
 10
17.3524361744
 20
9.3110945242
 10
17.4172536306
 20
9.31256744
 10
17.4711233735
 20
9.3140403559
 10
17.5127251525
 20
9.3155132717
 10
17.5410393825
 20
9.3169861875
 10
17.5553721325
 20
9.3184591034
 10
17.5571720014
 20
9.3191955613
  0
LWPOLYLINE
  5
3F3
100
AcDbEntity
  8
0
100
AcDbPolyline
 62
7
  6
CONTINUOUS
 90
9
 70
0
 10
17.1965417372
 20
9.3597234956
 10
17.2782595647
 20
9.3611964115
 10
17.3524361744
 20
9.3626693273
 10
17.4172536306
 20
9.3641422432
 10
17.4711233735
 20
9.365615159
 10
17.5127251525
 20
9.3670880749
 10
17.5410393825
 20
9.3685609907
 10
17.5553721325
 20
9.3700339065
 10
17.5569462434
 20
9.3705095979
  0
LWPOLYLINE
  5
3F4
100
AcDbEntity
  8
0
100
AcDbPolyline
 62
7
  6
CONTINUOUS
 90
9
 70
0
 10
17.1965417372
 20
9.3672038106
 10
17.2782595647
 20
9.3686767264
 10
17.3524361744
 20
9.3701496423
 10
17.4172536306
 20
9.3716225581
 10
17.4711233735
 20
9.373095474
 10
17.5127251525
 20
9.3745683898
 10
17.5410393825
 20
9.3760413057
 10
17.5553721325
 20
9.3775142215
 10
17.5571720014
 20
9.3782506794
  0
LINE
  5
3F5
100
AcDbEntity
  8
0
100
AcDbLine
 62
7
  6
CONTINUOUS
 10
17.1965417372
 20
9.4187786137
 11
17.2782595647
 21
9.4202515296
  0
LINE
  5
3F6
100
AcDbEntity
  8
0
100
AcDbLine
 62
7
  6
CONTINUOUS
 10
16.6628560917
 20
9.4098718765
 11
16.7445739192
 21
9.4113447924
  0
LWPOLYLINE
  5
3F7
100
AcDbEntity
  8
0
100
AcDbPolyline
 62
7
  6
CONTINUOUS
 90
9
 70
0
 10
17.1965417372
 20
9.4262589287
 10
17.2782595647
 20
9.4277318445
 10
17.3524361744
 20
9.4292047604
 10
17.4172536306
 20
9.4306776762
 10
17.4711233735
 20
9.4321505921
 10
17.5127251525
 20
9.4336235079
 10
17.5410393825
 20
9.4350964238
 10
17.5553721325
 20
9.4365693396
 10
17.5571720014
 20
9.4373057975
  0
LWPOLYLINE
  5
3F8
100
AcDbEntity
  8
0
100
AcDbPolyline
 62
7
  6
CONTINUOUS
 90
9
 70
0
 10
17.1965417372
 20
9.4778337318
 10
17.2782595647
 20
9.4793066477
 10
17.3524361744
 20
9.4807795635
 10
17.4172536306
 20
9.4822524794
 10
17.4711233735
 20
9.4837253952
 10
17.5127251525
 20
9.4851983111
 10
17.5410393825
 20
9.4866712269
 10
17.5553721325
 20
9.4881441428
 10
17.5569462434
 20
9.4886198341
  0
LINE
  5
3F9
100
AcDbEntity
  8
0
100
AcDbLine
 62
7
  6
CONTINUOUS
 10
16.6628560917
 20
9.4689269946
 11
16.7445739192
 21
9.4703999105
  0
LWPOLYLINE
  5
3FA
100
AcDbEntity
  8
0
100
AcDbPolyline
 62
7
  6
CONTINUOUS
 90
9
 70
0
 10
17.1965417372
 20
9.4853140468
 10
17.2782595647
 20
9.4867869627
 10
17.3524361744
 20
9.4882598785
 10
17.4172536306
 20
9.4897327943
 10
17.4711233735
 20
9.4912057102
 10
17.5127251525
 20
9.492678626
 10
17.5410393825
 20
9.4941515419
 10
17.5553721325
 20
9.4956244577
 10
17.5571720014
 20
9.4963609156
  0
LWPOLYLINE
  5
3FB
100
AcDbEntity
  8
0
100
AcDbPolyline
 62
7
  6
CONTINUOUS
 90
9
 70
0
 10
17.1965417372
 20
9.53688885
 10
17.2782595647
 20
9.5383617658
 10
17.3524361744
 20
9.5398346816
 10
17.4172536306
 20
9.5413075975
 10
17.4711233735
 20
9.5427805133
 10
17.5127251525
 20
9.5442534292
 10
17.5410393825
 20
9.545726345
 10
17.5553721325
 20
9.5471992609
 10
17.5569462434
 20
9.5476749522
  0
LINE
  5
3FC
100
AcDbEntity
  8
0
100
AcDbLine
 62
7
  6
CONTINUOUS
 10
16.6628560917
 20
9.5279821127
 11
16.7445739192
 21
9.5294550286
  0
LWPOLYLINE
  5
3FD
100
AcDbEntity
  8
0
100
AcDbPolyline
 62
7
  6
CONTINUOUS
 90
9
 70
0
 10
17.1965417372
 20
9.5443691649
 10
17.2782595647
 20
9.5458420808
 10
17.3524361744
 20
9.5473149966
 10
17.4172536306
 20
9.5487879125
 10
17.4711233735
 20
9.5502608283
 10
17.5127251525
 20
9.5517337441
 10
17.5410393825
 20
9.55320666
 10
17.5553721325
 20
9.5546795758
 10
17.5571720014
 20
9.5554160338
  0
LWPOLYLINE
  5
3FE
100
AcDbEntity
  8
0
100
AcDbPolyline
 62
7
  6
CONTINUOUS
 90
9
 70
0
 10
17.1965417372
 20
9.5959439681
 10
17.2782595647
 20
9.5974168839
 10
17.3524361744
 20
9.5988897998
 10
17.4172536306
 20
9.6003627156
 10
17.4711233735
 20
9.6018356314
 10
17.5127251525
 20
9.6033085473
 10
17.5410393825
 20
9.6047814631
 10
17.5553721325
 20
9.606254379
 10
17.5569462434
 20
9.6067300703
  0
LWPOLYLINE
  5
3FF
100
AcDbEntity
  8
0
100
AcDbPolyline
 62
7
  6
CONTINUOUS
 90
9
 70
0
 10
17.1965417372
 20
9.603424283
 10
17.2782595647
 20
9.6048971989
 10
17.3524361744
 20
9.6063701147
 10
17.4172536306
 20
9.6078430306
 10
17.4711233735
 20
9.6093159464
 10
17.5127251525
 20
9.6107888623
 10
17.5410393825
 20
9.6122617781
 10
17.5553721325
 20
9.6137346939
 10
17.5571720014
 20
9.6144711519
  0
LINE
  5
400
100
AcDbEntity
  8
0
100
AcDbLine
 62
7
  6
CONTINUOUS
 10
17.1604833437
 20
9.3281955229
 11
17.0742552077
 21
9.3266679564
  0
LWPOLYLINE
  5
401
100
AcDbEntity
  8
0
100
AcDbPolyline
 62
7
  6
CONTINUOUS
 90
4
 70
0
 10
16.8668604487
 20
9.3231101931
 10
16.7806345767
 20
9.3215826678
 10
16.6994108477
 20
9.3200550776
 10
16.6253318076
 20
9.318527443
  0
LWPOLYLINE
  5
402
100
AcDbEntity
  8
0
100
AcDbPolyline
 62
7
  6
CONTINUOUS
 90
10
 70
0
 10
17.0742552077
 20
9.3373281736
 10
17.1604818555
 20
9.338855713
 10
17.2417053703
 20
9.3403833001
 10
17.3157837436
 20
9.3419109214
 10
17.3807625324
 20
9.3434385437
 10
17.4349292373
 20
9.344966175
 10
17.4768565451
 20
9.3464938441
 10
17.5054382011
 20
9.3480215432
 10
17.5199197673
 20
9.3495492341
 10
17.5214986779
 20
9.3500355508
  0
LINE
  5
403
100
AcDbEntity
  8
0
100
AcDbLine
 62
7
  6
CONTINUOUS
 10
16.7806337741
 20
9.3322428704
 11
16.8668604487
 21
9.3337704103
  0
LINE
  5
404
100
AcDbEntity
  8
0
100
AcDbLine
 62
7
  6
CONTINUOUS
 10
17.1604833801
 20
9.3872506417
 11
17.0742552077
 21
9.3857230746
  0
LWPOLYLINE
  5
405
100
AcDbEntity
  8
0
100
AcDbPolyline
 62
7
  6
CONTINUOUS
 90
10
 70
0
 10
16.8668604487
 20
9.3821653112
 10
16.7806330559
 20
9.3806377583
 10
16.6994092457
 20
9.3791101644
 10
16.6253297487
 20
9.3775825161
 10
16.5603499641
 20
9.3760548605
 10
16.5061837133
 20
9.3745272241
 10
16.4642578921
 20
9.3729995882
 10
16.4356771763
 20
9.3714719219
 10
16.4211958689
 20
9.3699442464
 10
16.4196169785
 20
9.3694579341
  0
LWPOLYLINE
  5
406
100
AcDbEntity
  8
0
100
AcDbPolyline
 62
7
  6
CONTINUOUS
 90
10
 70
0
 10
17.0742552077
 20
9.3963832917
 10
17.1604817728
 20
9.3979108296
 10
17.2417052795
 20
9.3994384164
 10
17.3157836867
 20
9.4009660383
 10
17.3807624931
 20
9.4024936608
 10
17.4349291885
 20
9.4040212916
 10
17.4768565044
 20
9.4055489604
 10
17.5054381813
 20
9.40707666
 10
17.5199197648
 20
9.4086043517
 10
17.5214986779
 20
9.4090906689
  0
LINE
  5
407
100
AcDbEntity
  8
0
100
AcDbLine
 62
7
  6
CONTINUOUS
 10
16.7806336935
 20
9.391297987
 11
16.8668604487
 21
9.3928255284
  0
LINE
  5
408
100
AcDbEntity
  8
0
100
AcDbLine
 62
7
  6
CONTINUOUS
 10
17.1604810909
 20
9.4463057182
 11
17.0742552077
 21
9.4447781927
  0
LWPOLYLINE
  5
409
100
AcDbEntity
  8
0
100
AcDbPolyline
 62
7
  6
CONTINUOUS
 90
10
 70
0
 10
16.8668604487
 20
9.4412204294
 10
16.7806319379
 20
9.4396928561
 10
16.6994090086
 20
9.4381652778
 10
16.6253310698
 20
9.4366376631
 10
16.5603515186
 20
9.4351100183
 10
16.506184478
 20
9.4335823665
 10
16.4642579231
 20
9.4320547076
 10
16.4356771515
 20
9.4305270382
 10
16.4211958881
 20
9.4289993686
 10
16.4196169785
 20
9.4285130522
  0
LWPOLYLINE
  5
40A
100
AcDbEntity
  8
0
100
AcDbPolyline
 62
7
  6
CONTINUOUS
 90
10
 70
0
 10
17.0742552077
 20
9.4554384098
 10
17.1604821286
 20
9.4569659542
 10
17.2417054702
 20
9.4584935383
 10
17.3157838811
 20
9.4600211607
 10
17.3807625916
 20
9.4615487814
 10
17.4349292931
 20
9.463076413
 10
17.476856612
 20
9.4646040832
 10
17.5054382346
 20
9.4661317818
 10
17.5199197716
 20
9.4676594713
 10
17.5214986779
 20
9.468145787
  0
LINE
  5
40B
100
AcDbEntity
  8
0
100
AcDbLine
 62
7
  6
CONTINUOUS
 10
16.7806334404
 20
9.4503531005
 11
16.8668604487
 21
9.4518806465
  0
LINE
  5
40C
100
AcDbEntity
  8
0
100
AcDbLine
 62
7
  6
CONTINUOUS
 10
17.1604825376
 20
9.5053608626
 11
17.0742552077
 21
9.5038333108
  0
LWPOLYLINE
  5
40D
100
AcDbEntity
  8
0
100
AcDbPolyline
 62
7
  6
CONTINUOUS
 90
10
 70
0
 10
16.8668604487
 20
9.5002755475
 10
16.7806330394
 20
9.4987479942
 10
16.6994095508
 20
9.4972204066
 10
16.6253312244
 20
9.4956927846
 10
16.5603526019
 20
9.494165164
 10
16.5061858084
 20
9.4926375267
 10
16.464258637
 20
9.4911098565
 10
16.4356772486
 20
9.4895821632
 10
16.4211958671
 20
9.4880544823
 10
16.4196169785
 20
9.4875681703
  0
LWPOLYLINE
  5
40E
100
AcDbEntity
  8
0
100
AcDbPolyline
 62
7
  6
CONTINUOUS
 90
10
 70
0
 10
17.0742552077
 20
9.5144935279
 10
17.1604818963
 20
9.5160210681
 10
17.2417054148
 20
9.5175486553
 10
17.3157837708
 20
9.5190762764
 10
17.3807625513
 20
9.5206038985
 10
17.4349292615
 20
9.5221315301
 10
17.4768565652
 20
9.5236591992
 10
17.5054382107
 20
9.5251868983
 10
17.5199197685
 20
9.5267145887
 10
17.5214986779
 20
9.5272009051
  0
LINE
  5
40F
100
AcDbEntity
  8
0
100
AcDbLine
 62
7
  6
CONTINUOUS
 10
16.7806338151
 20
9.5094082255
 11
16.8668604487
 21
9.5109357646
  0
LINE
  5
410
100
AcDbEntity
  8
0
100
AcDbLine
 62
7
  6
CONTINUOUS
 10
17.1604837244
 20
9.5644160022
 11
17.0742552077
 21
9.5628884289
  0
LWPOLYLINE
  5
411
100
AcDbEntity
  8
0
100
AcDbPolyline
 62
7
  6
CONTINUOUS
 90
10
 70
0
 10
16.8668604487
 20
9.5593306656
 10
16.7806346215
 20
9.5578031411
 10
16.6994108542
 20
9.5562755502
 10
16.6253312982
 20
9.5547479043
 10
16.5603514256
 20
9.5532202521
 10
16.5061848694
 20
9.5516926151
 10
16.4642584348
 20
9.5501649659
 10
16.4356772506
 20
9.5486372815
 10
16.4211958674
 20
9.5471096005
 10
16.4196169785
 20
9.5466232884
  0
LWPOLYLINE
  5
412
100
AcDbEntity
  8
0
100
AcDbPolyline
 62
7
  6
CONTINUOUS
 90
10
 70
0
 10
17.0742552077
 20
9.573548646
 10
17.1604818143
 20
9.5750761847
 10
17.2417053252
 20
9.5766037716
 10
17.3157837156
 20
9.5781313933
 10
17.380762513
 20
9.5796590156
 10
17.4349292129
 20
9.5811866467
 10
17.4768565249
 20
9.5827143156
 10
17.5054381913
 20
9.584242015
 10
17.5199197661
 20
9.5857697063
 10
17.5214986779
 20
9.5862560232
  0
LINE
  5
413
100
AcDbEntity
  8
0
100
AcDbLine
 62
7
  6
CONTINUOUS
 10
16.7806337336
 20
9.5684633421
 11
16.8668604487
 21
9.5699908827
  0
LINE
  5
414
100
AcDbEntity
  8
0
100
AcDbLine
 62
7
  6
CONTINUOUS
 10
17.1604826162
 20
9.6234711002
 11
17.0742552077
 21
9.621943547
  0
LWPOLYLINE
  5
415
100
AcDbEntity
  8
0
100
AcDbPolyline
 62
7
  6
CONTINUOUS
 90
10
 70
0
 10
16.8668604487
 20
9.6183857837
 10
16.7806323292
 20
9.6168582175
 10
16.6994093254
 20
9.6153306384
 10
16.6253306555
 20
9.6138030083
 10
16.5603507726
 20
9.6122753536
 10
16.5061840105
 20
9.610747706
 10
16.4642578771
 20
9.60922006
 10
16.4356772196
 20
9.6076923974
 10
16.4211958854
 20
9.6061647224
 10
16.4196169785
 20
9.6056784065
  0
LWPOLYLINE
  5
416
100
AcDbEntity
  8
0
100
AcDbPolyline
 62
7
  6
CONTINUOUS
 90
4
 70
0
 10
16.841548536
 20
9.2742736681
 10
16.8567167752
 20
9.2743118234
 10
16.8721349793
 20
9.2738964307
 10
16.8876232832
 20
9.2730293377
  0
LWPOLYLINE
  5
417
100
AcDbEntity
  8
0
100
AcDbPolyline
 62
7
  6
CONTINUOUS
 90
4
 70
0
 10
16.8668604487
 20
9.3337704103
 10
16.8263313064
 20
9.3383218232
 10
16.7855475998
 20
9.3445203964
 10
16.7445739192
 20
9.3522896742
  0
LWPOLYLINE
  5
418
100
AcDbEntity
  8
0
100
AcDbPolyline
 62
7
  6
CONTINUOUS
 90
4
 70
0
 10
17.0742552077
 20
9.3266679564
 10
17.1147917471
 20
9.3221155639
 10
17.1555748416
 20
9.3159168089
 10
17.1965417372
 20
9.3081486925
  0
LWPOLYLINE
  5
419
100
AcDbEntity
  8
0
100
AcDbPolyline
 62
7
  6
CONTINUOUS
 90
4
 70
0
 10
16.8668604487
 20
9.3928255284
 10
16.8263313064
 20
9.3973769413
 10
16.7855475998
 20
9.4035755145
 10
16.7445739192
 20
9.4113447924
  0
LWPOLYLINE
  5
41A
100
AcDbEntity
  8
0
100
AcDbPolyline
 62
7
  6
CONTINUOUS
 90
4
 70
0
 10
17.0742552077
 20
9.3857230746
 10
17.1147917471
 20
9.381170682
 10
17.1555748416
 20
9.374971927
 10
17.1965417372
 20
9.3672038106
  0
LWPOLYLINE
  5
41B
100
AcDbEntity
  8
0
100
AcDbPolyline
 62
7
  6
CONTINUOUS
 90
4
 70
0
 10
16.8668604487
 20
9.4518806465
 10
16.8263313064
 20
9.4564320594
 10
16.7855475998
 20
9.4626306326
 10
16.7445739192
 20
9.4703999105
  0
LWPOLYLINE
  5
41C
100
AcDbEntity
  8
0
100
AcDbPolyline
 62
7
  6
CONTINUOUS
 90
4
 70
0
 10
17.0742552077
 20
9.4447781927
 10
17.1147917471
 20
9.4402258002
 10
17.1555748416
 20
9.4340270451
 10
17.1965417372
 20
9.4262589287
  0
LWPOLYLINE
  5
41D
100
AcDbEntity
  8
0
100
AcDbPolyline
 62
7
  6
CONTINUOUS
 90
4
 70
0
 10
16.8668604487
 20
9.5109357646
 10
16.8263313064
 20
9.5154871775
 10
16.7855475998
 20
9.5216857508
 10
16.7445739192
 20
9.5294550286
  0
LWPOLYLINE
  5
41E
100
AcDbEntity
  8
0
100
AcDbPolyline
 62
7
  6
CONTINUOUS
 90
4
 70
0
 10
17.0742552077
 20
9.5038333108
 10
17.1147917471
 20
9.4992809183
 10
17.1555748416
 20
9.4930821632
 10
17.1965417372
 20
9.4853140468
  0
LWPOLYLINE
  5
41F
100
AcDbEntity
  8
0
100
AcDbPolyline
 62
7
  6
CONTINUOUS
 90
4
 70
0
 10
16.8668604487
 20
9.5699908827
 10
16.8263313064
 20
9.5745422957
 10
16.7855475998
 20
9.5807408689
 10
16.7445739192
 20
9.5885101467
  0
LWPOLYLINE
  5
420
100
AcDbEntity
  8
0
100
AcDbPolyline
 62
7
  6
CONTINUOUS
 90
4
 70
0
 10
17.0742552077
 20
9.5628884289
 10
17.1147917471
 20
9.5583360364
 10
17.1555748416
 20
9.5521372813
 10
17.1965417372
 20
9.5443691649
  0
LWPOLYLINE
  5
421
100
AcDbEntity
  8
0
100
AcDbPolyline
 62
7
  6
CONTINUOUS
 90
4
 70
0
 10
16.7445739192
 20
9.2932345561
 10
16.7926605887
 20
9.2842711556
 10
16.8402356724
 20
9.2775204351
 10
16.8876232832
 20
9.2730293377
  0
LINE
  5
422
100
AcDbEntity
  8
0
100
AcDbLine
 62
7
  6
CONTINUOUS
 10
16.384169413
 20
9.2819269207
 11
16.4196169785
 21
9.2614528736
  0
LINE
  5
423
100
AcDbEntity
  8
0
100
AcDbLine
 62
7
  6
CONTINUOUS
 10
16.384169413
 20
9.3409820388
 11
16.4196169785
 21
9.3205079917
  0
LWPOLYLINE
  5
424
100
AcDbEntity
  8
0
100
AcDbPolyline
 62
7
  6
CONTINUOUS
 90
4
 70
0
 10
17.1965417372
 20
9.5959439681
 10
17.1555656809
 20
9.5869308737
 10
17.1147851691
 20
9.5794369608
 10
17.0742552077
 20
9.573548646
  0
LWPOLYLINE
  5
425
100
AcDbEntity
  8
0
100
AcDbPolyline
 62
7
  6
CONTINUOUS
 90
4
 70
0
 10
16.7445739192
 20
9.5369353435
 10
16.7855434499
 20
9.5459471181
 10
16.8263234155
 20
9.553441185
 10
16.8668604487
 20
9.5593306656
  0
LWPOLYLINE
  5
426
100
AcDbEntity
  8
0
100
AcDbPolyline
 62
7
  6
CONTINUOUS
 90
4
 70
0
 10
17.1965417372
 20
9.6549990862
 10
17.1555656809
 20
9.6459859918
 10
17.1147851691
 20
9.6384920789
 10
17.0742552077
 20
9.6326037641
  0
LWPOLYLINE
  5
427
100
AcDbEntity
  8
0
100
AcDbPolyline
 62
7
  6
CONTINUOUS
 90
4
 70
0
 10
16.7445739192
 20
9.5959904616
 10
16.7855434499
 20
9.6050022362
 10
16.8263234155
 20
9.6124963031
 10
16.8668604487
 20
9.6183857837
  0
LWPOLYLINE
  5
428
100
AcDbEntity
  8
0
100
AcDbPolyline
 62
7
  6
CONTINUOUS
 90
4
 70
0
 10
17.1965417372
 20
9.7140542043
 10
17.1555656809
 20
9.7050411099
 10
17.1147851691
 20
9.697547197
 10
17.0742552077
 20
9.6916588822
  0
LWPOLYLINE
  5
429
100
AcDbEntity
  8
0
100
AcDbPolyline
 62
7
  6
CONTINUOUS
 90
4
 70
0
 10
16.7445739192
 20
9.6550455798
 10
16.7855434499
 20
9.6640573543
 10
16.8263234155
 20
9.6715514212
 10
16.8668604487
 20
9.6774409018
  0
LWPOLYLINE
  5
42A
100
AcDbEntity
  8
0
100
AcDbPolyline
 62
7
  6
CONTINUOUS
 90
4
 70
0
 10
17.1965417372
 20
9.7731093224
 10
17.1555656809
 20
9.764096228
 10
17.1147851691
 20
9.7566023151
 10
17.0742552077
 20
9.7507140004
  0
LWPOLYLINE
  5
42B
100
AcDbEntity
  8
0
100
AcDbPolyline
 62
7
  6
CONTINUOUS
 90
4
 70
0
 10
16.7445739192
 20
9.7141006979
 10
16.7855434499
 20
9.7231124724
 10
16.8263234155
 20
9.7306065394
 10
16.8668604487
 20
9.7364960199
  0
LWPOLYLINE
  5
42C
100
AcDbEntity
  8
0
100
AcDbPolyline
 62
7
  6
CONTINUOUS
 90
4
 70
0
 10
17.1965417372
 20
9.8321644405
 10
17.1555656809
 20
9.8231513461
 10
17.1147851691
 20
9.8156574332
 10
17.0742552077
 20
9.8097691185
  0
LWPOLYLINE
  5
42D
100
AcDbEntity
  8
0
100
AcDbPolyline
 62
7
  6
CONTINUOUS
 90
4
 70
0
 10
16.7445739192
 20
9.773155816
 10
16.7855434499
 20
9.7821675905
 10
16.8263234155
 20
9.7896616575
 10
16.8668604487
 20
9.795551138
  0
LWPOLYLINE
  5
42E
100
AcDbEntity
  8
0
100
AcDbPolyline
 62
7
  6
CONTINUOUS
 90
4
 70
0
 10
16.7445739192
 20
9.8322109341
 10
16.7855434499
 20
9.8412227086
 10
16.8263234155
 20
9.8487167756
 10
16.8668604487
 20
9.8546062561
  0
LWPOLYLINE
  5
42F
100
AcDbEntity
  8
0
100
AcDbPolyline
 62
7
  6
CONTINUOUS
 90
4
 70
0
 10
16.8876232832
 20
9.9160474328
 10
16.8402351497
 20
9.9099730208
 10
16.7926603637
 20
9.9016947912
 10
16.7445739192
 20
9.8912660522
  0
LWPOLYLINE
  5
430
100
AcDbEntity
  8
0
100
AcDbPolyline
 62
7
  6
CONTINUOUS
 90
4
 70
0
 10
16.8876232832
 20
9.9160474328
 10
16.8721381071
 20
9.9146537258
 10
16.8567197413
 20
9.913709275
 10
16.841548536
 20
9.9132197502
  0
LWPOLYLINE
  5
431
100
AcDbEntity
  8
0
100
AcDbPolyline
 62
7
  6
CONTINUOUS
 90
3
 70
0
 10
16.5238620258
 20
9.6431465173
 10
16.588679482
 20
9.6446194331
 10
16.6628560917
 20
9.646092349
  0
LWPOLYLINE
  5
432
100
AcDbEntity
  8
0
100
AcDbPolyline
 62
7
  6
CONTINUOUS
 90
3
 70
0
 10
17.241705259
 20
9.6356588885
 10
17.3157836886
 20
9.6371865108
 10
17.3807625054
 20
9.6387141335
  0
LWPOLYLINE
  5
433
100
AcDbEntity
  8
0
100
AcDbPolyline
 62
7
  6
CONTINUOUS
 90
3
 70
0
 10
17.3157838464
 20
9.6855814152
 10
17.241704773
 20
9.6840537799
 10
17.1604810456
 20
9.6825261898
  0
LWPOLYLINE
  5
434
100
AcDbEntity
  8
0
100
AcDbPolyline
 62
7
  6
CONTINUOUS
 90
3
 70
0
 10
16.6253319489
 20
9.6835183719
 10
16.6994103444
 20
9.6850459936
 10
16.7806338565
 20
9.6865735805
  0
LWPOLYLINE
  5
435
100
AcDbEntity
  8
0
100
AcDbPolyline
 62
7
  6
CONTINUOUS
 90
3
 70
0
 10
17.3157846115
 20
9.74463655
 10
17.2417068191
 20
9.7431089381
 10
17.1604833437
 20
9.7415813497
  0
LWPOLYLINE
  5
436
100
AcDbEntity
  8
0
100
AcDbPolyline
 62
7
  6
CONTINUOUS
 90
3
 70
0
 10
16.6253318928
 20
9.7425734888
 10
16.6994102542
 20
9.7441011099
 10
16.7806337741
 20
9.7456286972
  0
LINE
  5
437
100
AcDbEntity
  8
0
100
AcDbLine
 62
7
  6
CONTINUOUS
 10
17.1604817467
 20
9.6341313016
 11
17.241705259
 21
9.6356588885
  0
LWPOLYLINE
  5
438
100
AcDbEntity
  8
0
100
AcDbPolyline
 62
7
  6
CONTINUOUS
 90
9
 70
0
 10
16.7806322848
 20
9.6759133348
 10
16.6994088288
 20
9.6743857468
 10
16.6253310413
 20
9.6728581349
 10
16.5603521506
 20
9.6713305069
 10
16.5061850825
 20
9.669802858
 10
16.4642581744
 20
9.6682751909
 10
16.4356771366
 20
9.6667475096
 10
16.4211958748
 20
9.6652198382
 10
16.4196169785
 20
9.6647335246
  0
LINE
  5
439
100
AcDbEntity
  8
0
100
AcDbLine
 62
7
  6
CONTINUOUS
 10
17.2417063563
 20
9.8021640471
 11
17.1604833801
 21
9.8006364684
  0
LWPOLYLINE
  5
43A
100
AcDbEntity
  8
0
100
AcDbPolyline
 62
7
  6
CONTINUOUS
 90
9
 70
0
 10
17.1965417372
 20
9.6549990862
 10
17.2782595647
 20
9.656472002
 10
17.3524361744
 20
9.6579449179
 10
17.4172536306
 20
9.6594178337
 10
17.4711233735
 20
9.6608907496
 10
17.5127251525
 20
9.6623636654
 10
17.5410393825
 20
9.6638365812
 10
17.5553721325
 20
9.6653094971
 10
17.5569462434
 20
9.6657851884
  0
LINE
  5
43B
100
AcDbEntity
  8
0
100
AcDbLine
 62
7
  6
CONTINUOUS
 10
16.6628560917
 20
9.646092349
 11
16.7445739192
 21
9.6475652648
  0
LWPOLYLINE
  5
43C
100
AcDbEntity
  8
0
100
AcDbPolyline
 62
7
  6
CONTINUOUS
 90
9
 70
0
 10
17.1965417372
 20
9.6624794011
 10
17.2782595647
 20
9.663952317
 10
17.3524361744
 20
9.6654252328
 10
17.4172536306
 20
9.6668981487
 10
17.4711233735
 20
9.6683710645
 10
17.5127251525
 20
9.6698439804
 10
17.5410393825
 20
9.6713168962
 10
17.5553721325
 20
9.6727898121
 10
17.5571720014
 20
9.67352627
  0
LWPOLYLINE
  5
43D
100
AcDbEntity
  8
0
100
AcDbPolyline
 62
7
  6
CONTINUOUS
 90
9
 70
0
 10
17.1965417372
 20
9.7140542043
 10
17.2782595647
 20
9.7155271201
 10
17.3524361744
 20
9.717000036
 10
17.4172536306
 20
9.7184729518
 10
17.4711233735
 20
9.7199458677
 10
17.5127251525
 20
9.7214187835
 10
17.5410393825
 20
9.7228916994
 10
17.5553721325
 20
9.7243646152
 10
17.5569462434
 20
9.7248403066
  0
LINE
  5
43E
100
AcDbEntity
  8
0
100
AcDbLine
 62
7
  6
CONTINUOUS
 10
16.6628560917
 20
9.7051474671
 11
16.7445739192
 21
9.7066203829
  0
LWPOLYLINE
  5
43F
100
AcDbEntity
  8
0
100
AcDbPolyline
 62
7
  6
CONTINUOUS
 90
9
 70
0
 10
17.1965417372
 20
9.7215345193
 10
17.2782595647
 20
9.7230074351
 10
17.3524361744
 20
9.7244803509
 10
17.4172536306
 20
9.7259532668
 10
17.4711233735
 20
9.7274261826
 10
17.5127251525
 20
9.7288990985
 10
17.5410393825
 20
9.7303720143
 10
17.5553721325
 20
9.7318449302
 10
17.5571720014
 20
9.7325813881
  0
LWPOLYLINE
  5
440
100
AcDbEntity
  8
0
100
AcDbPolyline
 62
7
  6
CONTINUOUS
 90
9
 70
0
 10
17.1965417372
 20
9.7731093224
 10
17.2782595647
 20
9.7745822382
 10
17.3524361744
 20
9.7760551541
 10
17.4172536306
 20
9.7775280699
 10
17.4711233735
 20
9.7790009858
 10
17.5127251525
 20
9.7804739016
 10
17.5410393825
 20
9.7819468175
 10
17.5553721325
 20
9.7834197333
 10
17.5569462434
 20
9.7838954247
  0
LINE
  5
441
100
AcDbEntity
  8
0
100
AcDbLine
 62
7
  6
CONTINUOUS
 10
16.6628560917
 20
9.7642025852
 11
16.7445739192
 21
9.765675501
  0
LWPOLYLINE
  5
442
100
AcDbEntity
  8
0
100
AcDbPolyline
 62
7
  6
CONTINUOUS
 90
9
 70
0
 10
17.1965417372
 20
9.7805896374
 10
17.2782595647
 20
9.7820625532
 10
17.3524361744
 20
9.7835354691
 10
17.4172536306
 20
9.7850083849
 10
17.4711233735
 20
9.7864813007
 10
17.5127251525
 20
9.7879542166
 10
17.5410393825
 20
9.7894271324
 10
17.5553721325
 20
9.7909000483
 10
17.5571720014
 20
9.7916365062
  0
LWPOLYLINE
  5
443
100
AcDbEntity
  8
0
100
AcDbPolyline
 62
7
  6
CONTINUOUS
 90
9
 70
0
 10
17.1965417372
 20
9.8321644405
 10
17.2782595647
 20
9.8336373564
 10
17.3524361744
 20
9.8351102722
 10
17.4172536306
 20
9.836583188
 10
17.4711233735
 20
9.8380561039
 10
17.5127251525
 20
9.8395290197
 10
17.5410393825
 20
9.8410019356
 10
17.5553721325
 20
9.8424748514
 10
17.5569462434
 20
9.8429505428
  0
LWPOLYLINE
  5
444
100
AcDbEntity
  8
0
100
AcDbPolyline
 62
7
  6
CONTINUOUS
 90
9
 70
0
 10
17.1965417372
 20
9.8396447555
 10
17.2782595647
 20
9.8411176713
 10
17.3524361744
 20
9.8425905872
 10
17.4172536306
 20
9.844063503
 10
17.4711233735
 20
9.8455364189
 10
17.5127251525
 20
9.8470093347
 10
17.5410393825
 20
9.8484822505
 10
17.5553721325
 20
9.8499551664
 10
17.5571720014
 20
9.8506916243
  0
LWPOLYLINE
  5
445
100
AcDbEntity
  8
0
100
AcDbPolyline
 62
7
  6
CONTINUOUS
 90
10
 70
0
 10
16.841548536
 20
9.9132197502
 10
16.7593500812
 20
9.9117441448
 10
16.6823451938
 20
9.9102685066
 10
16.6124287834
 20
9.9087928419
 10
16.5513222665
 20
9.907317179
 10
16.5005281829
 20
9.9058414979
 10
16.4612961935
 20
9.9043657858
 10
16.4345923576
 20
9.9028900536
 10
16.4210743104
 20
9.9014143343
 10
16.4196169785
 20
9.9009539971
  0
LINE
  5
446
100
AcDbEntity
  8
0
100
AcDbLine
 62
7
  6
CONTINUOUS
 10
17.0742552077
 20
9.6326037641
 11
17.1604817467
 21
9.6341313016
  0
LINE
  5
447
100
AcDbEntity
  8
0
100
AcDbLine
 62
7
  6
CONTINUOUS
 10
16.7806336541
 20
9.6275184588
 11
16.8668604487
 21
9.6290460008
  0
LINE
  5
448
100
AcDbEntity
  8
0
100
AcDbLine
 62
7
  6
CONTINUOUS
 10
17.1604810456
 20
9.6825261898
 11
17.0742552077
 21
9.6809986651
  0
LINE
  5
449
100
AcDbEntity
  8
0
100
AcDbLine
 62
7
  6
CONTINUOUS
 10
16.8668604487
 20
9.6774409018
 11
16.7806322848
 21
9.6759133348
  0
LWPOLYLINE
  5
44A
100
AcDbEntity
  8
0
100
AcDbPolyline
 62
7
  6
CONTINUOUS
 90
10
 70
0
 10
17.0742552077
 20
9.6916588822
 10
17.1604819367
 20
9.6931864231
 10
17.2417054586
 20
9.6947140105
 10
17.3157837971
 20
9.6962416313
 10
17.3807625697
 20
9.6977692533
 10
17.4349292858
 20
9.6992968852
 10
17.4768565852
 20
9.7008245544
 10
17.5054382202
 20
9.7023522533
 10
17.5199197696
 20
9.7038799433
 10
17.5214986779
 20
9.7043662594
  0
LINE
  5
44B
100
AcDbEntity
  8
0
100
AcDbLine
 62
7
  6
CONTINUOUS
 10
16.7806338565
 20
9.6865735805
 11
16.8668604487
 21
9.6881011189
  0
LINE
  5
44C
100
AcDbEntity
  8
0
100
AcDbLine
 62
7
  6
CONTINUOUS
 10
17.1604833437
 20
9.7415813497
 11
17.0742552077
 21
9.7400537832
  0
LWPOLYLINE
  5
44D
100
AcDbEntity
  8
0
100
AcDbPolyline
 62
7
  6
CONTINUOUS
 90
10
 70
0
 10
16.8668604487
 20
9.7364960199
 10
16.7806345767
 20
9.7349684946
 10
16.6994108477
 20
9.7334409044
 10
16.6253318076
 20
9.7319132698
 10
16.5603525618
 20
9.7303856355
 10
16.5061859644
 20
9.7288580041
 10
16.4642589131
 20
9.7273303409
 10
16.4356773891
 20
9.7258026456
 10
16.4211958813
 20
9.7242749577
 10
16.4196169785
 20
9.7237886427
  0
LWPOLYLINE
  5
44E
100
AcDbEntity
  8
0
100
AcDbPolyline
 62
7
  6
CONTINUOUS
 90
10
 70
0
 10
17.0742552077
 20
9.7507140004
 10
17.1604818555
 20
9.7522415398
 10
17.2417053703
 20
9.7537691269
 10
17.3157837436
 20
9.7552967482
 10
17.3807625324
 20
9.7568243705
 10
17.4349292373
 20
9.7583520018
 10
17.4768565451
 20
9.7598796708
 10
17.5054382011
 20
9.76140737
 10
17.5199197673
 20
9.7629350609
 10
17.5214986779
 20
9.7634213775
  0
LINE
  5
44F
100
AcDbEntity
  8
0
100
AcDbLine
 62
7
  6
CONTINUOUS
 10
16.7806337741
 20
9.7456286972
 11
16.8668604487
 21
9.7471562371
  0
LINE
  5
450
100
AcDbEntity
  8
0
100
AcDbLine
 62
7
  6
CONTINUOUS
 10
17.1604833801
 20
9.8006364684
 11
17.0742552077
 21
9.7991089013
  0
LWPOLYLINE
  5
451
100
AcDbEntity
  8
0
100
AcDbPolyline
 62
7
  6
CONTINUOUS
 90
10
 70
0
 10
16.8668604487
 20
9.795551138
 10
16.7806330559
 20
9.7940235851
 10
16.6994092457
 20
9.7924959911
 10
16.6253297487
 20
9.7909683428
 10
16.5603499641
 20
9.7894406873
 10
16.5061837133
 20
9.7879130509
 10
16.4642578921
 20
9.786385415
 10
16.4356771763
 20
9.7848577486
 10
16.4211958689
 20
9.7833300732
 10
16.4196169785
 20
9.7828437608
  0
LWPOLYLINE
  5
452
100
AcDbEntity
  8
0
100
AcDbPolyline
 62
7
  6
CONTINUOUS
 90
10
 70
0
 10
17.0742552077
 20
9.8097691185
 10
17.1604817728
 20
9.8112966564
 10
17.2417052795
 20
9.8128242432
 10
17.3157836867
 20
9.8143518651
 10
17.3807624931
 20
9.8158794876
 10
17.4349291885
 20
9.8174071184
 10
17.4768565044
 20
9.8189347872
 10
17.5054381813
 20
9.8204624867
 10
17.5199197648
 20
9.8219901785
 10
17.5214986779
 20
9.8224764956
  0
LINE
  5
453
100
AcDbEntity
  8
0
100
AcDbLine
 62
7
  6
CONTINUOUS
 10
16.7806336935
 20
9.8046838138
 11
16.8668604487
 21
9.8062113552
  0
LWPOLYLINE
  5
454
100
AcDbEntity
  8
0
100
AcDbPolyline
 62
7
  6
CONTINUOUS
 90
10
 70
0
 10
16.8668604487
 20
9.8546062561
 10
16.7806319379
 20
9.8530786829
 10
16.6994090086
 20
9.8515511046
 10
16.6253310698
 20
9.8500234898
 10
16.5603515186
 20
9.8484958451
 10
16.506184478
 20
9.8469681932
 10
16.4642579231
 20
9.8454405344
 10
16.4356771515
 20
9.843912865
 10
16.4211958881
 20
9.8423851954
 10
16.4196169785
 20
9.8418988789
  0
LINE
  5
455
100
AcDbEntity
  8
0
100
AcDbLine
 62
7
  6
CONTINUOUS
 10
16.7806334404
 20
9.8637389273
 11
16.8668604487
 21
9.8652664733
  0
LWPOLYLINE
  5
456
100
AcDbEntity
  8
0
100
AcDbPolyline
 62
7
  6
CONTINUOUS
 90
4
 70
0
 10
17.0995671204
 20
9.8586056435
 10
17.0843988812
 20
9.8585674882
 10
17.0689806771
 20
9.8589828809
 10
17.0534923732
 20
9.859849974
  0
LINE
  5
457
100
AcDbEntity
  8
0
100
AcDbLine
 62
7
  6
CONTINUOUS
 10
16.4193767258
 20
9.9241319691
 11
17.5217389306
 21
9.9241319691
  0
LINE
  5
458
100
AcDbEntity
  8
AXIS
100
AcDbLine
 62
7
  6
CONTINUOUS
 10
17.72646334
 20
9.9556280321
 11
16.2146523164
 21
9.9556280321
  0
LWPOLYLINE
  5
459
100
AcDbEntity
  8
0
100
AcDbPolyline
 62
7
  6
CONTINUOUS
 90
4
 70
0
 10
16.8668604487
 20
9.6290460008
 10
16.8263313064
 20
9.6335974138
 10
16.7855475998
 20
9.639795987
 10
16.7445739192
 20
9.6475652648
  0
LWPOLYLINE
  5
45A
100
AcDbEntity
  8
0
100
AcDbPolyline
 62
7
  6
CONTINUOUS
 90
4
 70
0
 10
17.0742552077
 20
9.621943547
 10
17.1147917471
 20
9.6173911545
 10
17.1555748416
 20
9.6111923994
 10
17.1965417372
 20
9.603424283
  0
LWPOLYLINE
  5
45B
100
AcDbEntity
  8
0
100
AcDbPolyline
 62
7
  6
CONTINUOUS
 90
4
 70
0
 10
16.8668604487
 20
9.6881011189
 10
16.8263313064
 20
9.6926525319
 10
16.7855475998
 20
9.6988511051
 10
16.7445739192
 20
9.7066203829
  0
LWPOLYLINE
  5
45C
100
AcDbEntity
  8
0
100
AcDbPolyline
 62
7
  6
CONTINUOUS
 90
4
 70
0
 10
17.0742552077
 20
9.6809986651
 10
17.1147917471
 20
9.6764462726
 10
17.1555748416
 20
9.6702475176
 10
17.1965417372
 20
9.6624794011
  0
LWPOLYLINE
  5
45D
100
AcDbEntity
  8
0
100
AcDbPolyline
 62
7
  6
CONTINUOUS
 90
4
 70
0
 10
16.8668604487
 20
9.7471562371
 10
16.8263313064
 20
9.75170765
 10
16.7855475998
 20
9.7579062232
 10
16.7445739192
 20
9.765675501
  0
LWPOLYLINE
  5
45E
100
AcDbEntity
  8
0
100
AcDbPolyline
 62
7
  6
CONTINUOUS
 90
4
 70
0
 10
17.0742552077
 20
9.7400537832
 10
17.1147917471
 20
9.7355013907
 10
17.1555748416
 20
9.7293026357
 10
17.1965417372
 20
9.7215345193
  0
LWPOLYLINE
  5
45F
100
AcDbEntity
  8
0
100
AcDbPolyline
 62
7
  6
CONTINUOUS
 90
4
 70
0
 10
16.8668604487
 20
9.8062113552
 10
16.8263313064
 20
9.8107627681
 10
16.7855475998
 20
9.8169613413
 10
16.7445739192
 20
9.8247306191
  0
LWPOLYLINE
  5
460
100
AcDbEntity
  8
0
100
AcDbPolyline
 62
7
  6
CONTINUOUS
 90
4
 70
0
 10
17.0742552077
 20
9.7991089013
 10
17.1147917471
 20
9.7945565088
 10
17.1555748416
 20
9.7883577538
 10
17.1965417372
 20
9.7805896374
  0
LWPOLYLINE
  5
461
100
AcDbEntity
  8
0
100
AcDbPolyline
 62
7
  6
CONTINUOUS
 90
4
 70
0
 10
16.8668604487
 20
9.8652664733
 10
16.8263313064
 20
9.8698178862
 10
16.7855475998
 20
9.8760164594
 10
16.7445739192
 20
9.8837857372
  0
LWPOLYLINE
  5
462
100
AcDbEntity
  8
0
100
AcDbPolyline
 62
7
  6
CONTINUOUS
 90
4
 70
0
 10
17.1965417372
 20
9.8396447555
 10
17.1484550767
 20
9.8486081545
 10
17.1008799883
 20
9.855358876
 10
17.0534923732
 20
9.859849974
  0
LINE
  5
463
100
AcDbEntity
  8
0
100
AcDbLine
 62
7
  6
CONTINUOUS
 10
16.384169413
 20
9.400037157
 11
16.4196169785
 21
9.3795631098
  0
LINE
  5
464
100
AcDbEntity
  8
0
100
AcDbLine
 62
7
  6
CONTINUOUS
 10
16.384169413
 20
9.4590922751
 11
16.4196169785
 21
9.4386182279
  0
LINE
  5
465
100
AcDbEntity
  8
0
100
AcDbLine
 62
7
  6
CONTINUOUS
 10
16.384169413
 20
9.5181473932
 11
16.4196169785
 21
9.497673346
  0
LINE
  5
466
100
AcDbEntity
  8
0
100
AcDbLine
 62
7
  6
CONTINUOUS
 10
16.384169413
 20
9.5772025113
 11
16.4196169785
 21
9.5567284642
  0
LINE
  5
467
100
AcDbEntity
  8
0
100
AcDbLine
 62
7
  6
CONTINUOUS
 10
16.384169413
 20
9.6362576294
 11
16.4196169785
 21
9.6157835823
  0
LINE
  5
468
100
AcDbEntity
  8
0
100
AcDbLine
 62
7
  6
CONTINUOUS
 10
16.384169413
 20
9.6953127475
 11
16.4196169785
 21
9.6748387004
  0
LINE
  5
469
100
AcDbEntity
  8
0
100
AcDbLine
 62
7
  6
CONTINUOUS
 10
16.384169413
 20
9.7543678656
 11
16.4196169785
 21
9.7338938185
  0
LINE
  5
46A
100
AcDbEntity
  8
0
100
AcDbLine
 62
7
  6
CONTINUOUS
 10
16.384169413
 20
9.8134229837
 11
16.4196169785
 21
9.7929489366
  0
LWPOLYLINE
  5
46B
100
AcDbEntity
  8
0
100
AcDbPolyline
 62
7
  6
CONTINUOUS
 90
6
 70
0
 10
16.8489204955
 20
9.207596536
 10
16.8466424347
 20
9.2091380631
 10
16.8445873664
 20
9.2136117488
 10
16.8429564549
 20
9.2205796777
 10
16.8419093453
 20
9.2293597803
 10
16.841548536
 20
9.239092599
  0
LINE
  5
46C
100
AcDbEntity
  8
AXIS
100
AcDbLine
 62
7
  6
CONTINUOUS
 10
17.8563845998
 20
10.0855492919
 11
16.0847310565
 21
10.0855492919
  0
LINE
  5
46D
100
AcDbEntity
  8
0
100
AcDbLine
 62
7
  6
CONTINUOUS
 10
17.8563845998
 20
10.3591713392
 11
16.0847310565
 21
10.3591713392
  0
LINE
  5
46E
100
AcDbEntity
  8
AXIS
100
AcDbLine
 62
7
  6
CONTINUOUS
 10
17.9646523164
 20
10.3788563785
 11
15.97646334
 21
10.3788563785
  0
LINE
  5
46F
100
AcDbEntity
  8
0
100
AcDbLine
 62
7
  6
CONTINUOUS
 10
16.384169413
 20
9.8724781018
 11
16.4196169785
 21
9.8520040547
  0
LINE
  5
470
100
AcDbEntity
  8
0
100
AcDbLine
 62
7
  6
CONTINUOUS
 10
17.5569462434
 20
9.3194563279
 11
17.5214986779
 21
9.339930375
  0
LINE
  5
471
100
AcDbEntity
  8
0
100
AcDbLine
 62
7
  6
CONTINUOUS
 10
17.5569462434
 20
9.378511446
 11
17.5214986779
 21
9.3989854931
  0
LINE
  5
472
100
AcDbEntity
  8
0
100
AcDbLine
 62
7
  6
CONTINUOUS
 10
17.5569462434
 20
9.4375665641
 11
17.5214986779
 21
9.4580406112
  0
LINE
  5
473
100
AcDbEntity
  8
0
100
AcDbLine
 62
7
  6
CONTINUOUS
 10
17.5569462434
 20
9.4966216822
 11
17.5214986779
 21
9.5170957293
  0
LINE
  5
474
100
AcDbEntity
  8
0
100
AcDbLine
 62
7
  6
CONTINUOUS
 10
17.5569462434
 20
9.5556768003
 11
17.5214986779
 21
9.5761508475
  0
LINE
  5
475
100
AcDbEntity
  8
0
100
AcDbLine
 62
7
  6
CONTINUOUS
 10
16.384169413
 20
9.2819269207
 11
16.383943655
 21
9.2821876873
  0
LINE
  5
476
100
AcDbEntity
  8
0
100
AcDbLine
 62
7
  6
CONTINUOUS
 10
16.384169413
 20
9.3409820388
 11
16.383943655
 21
9.3412428054
  0
LINE
  5
477
100
AcDbEntity
  8
0
100
AcDbLine
 62
7
  6
CONTINUOUS
 10
16.384169413
 20
9.400037157
 11
16.383943655
 21
9.4002979235
  0
LINE
  5
478
100
AcDbEntity
  8
0
100
AcDbLine
 62
7
  6
CONTINUOUS
 10
16.384169413
 20
9.4590922751
 11
16.383943655
 21
9.4593530416
  0
LINE
  5
479
100
AcDbEntity
  8
0
100
AcDbLine
 62
7
  6
CONTINUOUS
 10
15.9843373558
 20
10.4241463864
 11
15.97646334
 21
10.422757985
  0
LINE
  5
47A
100
AcDbEntity
  8
0
100
AcDbLine
 62
7
  6
CONTINUOUS
 10
15.97646334
 20
10.422757985
 11
17.9646523164
 21
10.422757985
  0
LINE
  5
47B
100
AcDbEntity
  8
0
100
AcDbLine
 62
7
  6
CONTINUOUS
 10
15.9863058597
 20
10.4241319691
 11
16.2806132308
 21
10.4241319691
  0
LINE
  5
47C
100
AcDbEntity
  8
0
100
AcDbLine
 62
7
  6
CONTINUOUS
 10
16.2806132308
 20
10.4241319691
 11
17.8954573133
 21
10.4241319691
  0
LINE
  5
47D
100
AcDbEntity
  8
0
100
AcDbLine
 62
7
  6
CONTINUOUS
 10
17.8954573133
 20
10.4241319691
 11
17.9548097967
 21
10.4241319691
  0
LINE
  5
47E
100
AcDbEntity
  8
0
100
AcDbLine
 62
7
  6
CONTINUOUS
 10
17.9567783006
 20
10.4241463864
 11
17.9646555361
 21
10.4227574172
  0
LINE
  5
47F
100
AcDbEntity
  8
0
100
AcDbLine
 62
7
  6
CONTINUOUS
 10
17.5569462434
 20
9.6147319184
 11
17.5214986779
 21
9.6352059656
  0
LINE
  5
480
100
AcDbEntity
  8
0
100
AcDbLine
 62
7
  6
CONTINUOUS
 10
17.5569462434
 20
9.6737870366
 11
17.5214986779
 21
9.6942610837
  0
LINE
  5
481
100
AcDbEntity
  8
0
100
AcDbLine
 62
7
  6
CONTINUOUS
 10
17.5569462434
 20
9.7328421547
 11
17.5214986779
 21
9.7533162018
  0
LINE
  5
482
100
AcDbEntity
  8
0
100
AcDbLine
 62
7
  6
CONTINUOUS
 10
17.5569462434
 20
9.7918972728
 11
17.5214986779
 21
9.8123713199
  0
LINE
  5
483
100
AcDbEntity
  8
0
100
AcDbLine
 62
7
  6
CONTINUOUS
 10
17.5569462434
 20
9.8509523909
 11
17.5214986779
 21
9.871426438
  0
LINE
  5
484
100
AcDbEntity
  8
0
100
AcDbLine
 62
7
  6
CONTINUOUS
 10
16.384169413
 20
9.5181473932
 11
16.383943655
 21
9.5184081597
  0
LINE
  5
485
100
AcDbEntity
  8
0
100
AcDbLine
 62
7
  6
CONTINUOUS
 10
16.384169413
 20
9.5772025113
 11
16.383943655
 21
9.5774632779
  0
LINE
  5
486
100
AcDbEntity
  8
0
100
AcDbLine
 62
7
  6
CONTINUOUS
 10
16.384169413
 20
9.6362576294
 11
16.383943655
 21
9.636518396
  0
LINE
  5
487
100
AcDbEntity
  8
0
100
AcDbLine
 62
7
  6
CONTINUOUS
 10
16.384169413
 20
9.6953127475
 11
16.383943655
 21
9.6955735141
  0
LINE
  5
488
100
AcDbEntity
  8
0
100
AcDbLine
 62
7
  6
CONTINUOUS
 10
16.384169413
 20
9.7543678656
 11
16.383943655
 21
9.7546286322
  0
LINE
  5
489
100
AcDbEntity
  8
0
100
AcDbLine
 62
7
  6
CONTINUOUS
 10
16.384169413
 20
9.8134229837
 11
16.383943655
 21
9.8136837503
  0
LINE
  5
48A
100
AcDbEntity
  8
0
100
AcDbLine
 62
7
  6
CONTINUOUS
 10
16.384169413
 20
9.8724781018
 11
16.383943655
 21
9.8727388684
  0
LINE
  5
48B
100
AcDbEntity
  8
0
100
AcDbLine
 62
7
  6
CONTINUOUS
 10
15.9843373558
 20
10.9556280321
 11
17.9567783006
 21
10.9556280321
  0
LINE
  5
48C
100
AcDbEntity
  8
0
100
AcDbLine
 62
7
  6
CONTINUOUS
 10
17.5571720014
 20
9.3191955613
 11
17.5569462434
 21
9.3194563279
  0
LINE
  5
48D
100
AcDbEntity
  8
0
100
AcDbLine
 62
7
  6
CONTINUOUS
 10
17.5571720014
 20
9.3782506794
 11
17.5569462434
 21
9.378511446
  0
LINE
  5
48E
100
AcDbEntity
  8
0
100
AcDbLine
 62
7
  6
CONTINUOUS
 10
17.5571720014
 20
9.4373057975
 11
17.5569462434
 21
9.4375665641
  0
LINE
  5
48F
100
AcDbEntity
  8
0
100
AcDbLine
 62
7
  6
CONTINUOUS
 10
17.5571720014
 20
9.4963609156
 11
17.5569462434
 21
9.4966216822
  0
LINE
  5
490
100
AcDbEntity
  8
0
100
AcDbLine
 62
7
  6
CONTINUOUS
 10
17.5571720014
 20
9.5554160338
 11
17.5569462434
 21
9.5556768003
  0
LINE
  5
491
100
AcDbEntity
  8
0
100
AcDbLine
 62
7
  6
CONTINUOUS
 10
17.5571720014
 20
9.6144711519
 11
17.5569462434
 21
9.6147319184
  0
LINE
  5
492
100
AcDbEntity
  8
0
100
AcDbLine
 62
7
  6
CONTINUOUS
 10
17.5571720014
 20
9.67352627
 11
17.5569462434
 21
9.6737870366
  0
LINE
  5
493
100
AcDbEntity
  8
0
100
AcDbLine
 62
7
  6
CONTINUOUS
 10
17.5571720014
 20
9.7325813881
 11
17.5569462434
 21
9.7328421547
  0
LINE
  5
494
100
AcDbEntity
  8
0
100
AcDbLine
 62
7
  6
CONTINUOUS
 10
17.5571720014
 20
9.7916365062
 11
17.5569462434
 21
9.7918972728
  0
LINE
  5
495
100
AcDbEntity
  8
0
100
AcDbLine
 62
7
  6
CONTINUOUS
 10
17.5571720014
 20
9.8506916243
 11
17.5569462434
 21
9.8509523909
  0
LINE
  5
496
100
AcDbEntity
  8
AXIS
100
AcDbLine
 62
7
  6
CONTINUOUS
 10
15.9863058597
 20
18.5298658632
 11
15.9666845656
 21
18.4185879749
  0
LINE
  5
497
100
AcDbEntity
  8
AXIS
100
AcDbLine
 62
7
  6
CONTINUOUS
 10
15.966652693
 20
18.4184072161
 11
15.9666208203
 21
18.4182264573
  0
LINE
  5
498
100
AcDbEntity
  8
AXIS
100
AcDbLine
 62
7
  6
CONTINUOUS
 10
15.9843373558
 20
12.0264941738
 11
17.9567783006
 21
12.0264941738
  0
LWPOLYLINE
  5
499
100
AcDbEntity
  8
0
100
AcDbPolyline
 62
7
  6
CONTINUOUS
 90
4
 70
0
 10
15.9865027101
 20
18.4182264573
 10
15.9863933508
 20
18.4554387244
 10
15.9863277329
 20
18.4926519194
 10
15.9863058597
 20
18.5298658632
  0
LINE
  5
49A
100
AcDbEntity
  8
0
100
AcDbLine
 62
7
  6
CONTINUOUS
 10
15.97646334
 20
10.3788563785
 11
15.97646334
 21
10.422757985
  0
LINE
  5
49B
100
AcDbEntity
  8
0
100
AcDbLine
 62
7
  6
CONTINUOUS
 10
15.9843373558
 20
10.4241319691
 11
15.9843373558
 21
10.9556280321
  0
LINE
  5
49C
100
AcDbEntity
  8
AXIS
100
AcDbLine
 62
7
  6
CONTINUOUS
 10
15.9843373558
 20
12.0264941738
 11
15.9843373558
 21
12.5579902368
  0
LINE
  5
49D
100
AcDbEntity
  8
AXIS
100
AcDbLine
 62
7
  6
CONTINUOUS
 10
15.9843373558
 20
13.6288563785
 11
15.9843373558
 21
14.1603524415
  0
LINE
  5
49E
100
AcDbEntity
  8
AXIS
100
AcDbLine
 62
7
  6
CONTINUOUS
 10
15.9843373558
 20
15.2312185833
 11
15.9843373558
 21
15.7627146463
  0
LINE
  5
49F
100
AcDbEntity
  8
AXIS
100
AcDbLine
 62
7
  6
CONTINUOUS
 10
15.9843373558
 20
16.833580788
 11
15.9843373558
 21
17.365076851
  0
LINE
  5
4A0
100
AcDbEntity
  8
AXIS
100
AcDbLine
 62
7
  6
CONTINUOUS
 10
15.9863058597
 20
10.9556280321
 11
15.9863058597
 21
12.0264941738
  0
LINE
  5
4A1
100
AcDbEntity
  8
AXIS
100
AcDbLine
 62
7
  6
CONTINUOUS
 10
15.9863058597
 20
12.5579902368
 11
15.9863058597
 21
13.6288563785
  0
LINE
  5
4A2
100
AcDbEntity
  8
AXIS
100
AcDbLine
 62
7
  6
CONTINUOUS
 10
15.9863058597
 20
14.1603524415
 11
15.9863058597
 21
15.2312185833
  0
LINE
  5
4A3
100
AcDbEntity
  8
AXIS
100
AcDbLine
 62
7
  6
CONTINUOUS
 10
15.9863058597
 20
15.7627146463
 11
15.9863058597
 21
16.833580788
  0
LINE
  5
4A4
100
AcDbEntity
  8
AXIS
100
AcDbLine
 62
7
  6
CONTINUOUS
 10
15.9863058597
 20
17.365076851
 11
15.9863058597
 21
18.306948569
  0
LINE
  5
4A5
100
AcDbEntity
  8
0
100
AcDbLine
 62
7
  6
CONTINUOUS
 10
15.9863058597
 20
18.5298658632
 11
15.9863058597
 21
18.8512973234
  0
LINE
  5
4A6
100
AcDbEntity
  8
0
100
AcDbLine
 62
7
  6
CONTINUOUS
 10
16.0847310565
 20
10.0855492919
 11
16.0847310565
 21
10.3591713392
  0
LWPOLYLINE
  5
4A7
100
AcDbEntity
  8
AXIS
100
AcDbPolyline
 62
7
  6
CONTINUOUS
 90
4
 70
0
 10
15.9863058597
 20
18.306948569
 10
15.9863277327
 20
18.3441623207
 10
15.9863933506
 20
18.3813756105
 10
15.9865027101
 20
18.4185879749
  0
LINE
  5
4A8
100
AcDbEntity
  8
AXIS
100
AcDbLine
 62
7
  6
CONTINUOUS
 10
15.9843373558
 20
12.5579902368
 11
17.9567783006
 21
12.5579902368
  0
LINE
  5
4A9
100
AcDbEntity
  8
0
100
AcDbLine
 62
7
  6
CONTINUOUS
 10
16.383943655
 20
9.8802191834
 11
16.383943655
 21
9.8727388684
  0
LINE
  5
4AA
100
AcDbEntity
  8
0
100
AcDbLine
 62
7
  6
CONTINUOUS
 10
16.383943655
 20
9.8211640653
 11
16.383943655
 21
9.8136837503
  0
LINE
  5
4AB
100
AcDbEntity
  8
0
100
AcDbLine
 62
7
  6
CONTINUOUS
 10
16.383943655
 20
9.7621089471
 11
16.383943655
 21
9.7546286322
  0
LINE
  5
4AC
100
AcDbEntity
  8
0
100
AcDbLine
 62
7
  6
CONTINUOUS
 10
16.383943655
 20
9.703053829
 11
16.383943655
 21
9.6955735141
  0
LINE
  5
4AD
100
AcDbEntity
  8
0
100
AcDbLine
 62
7
  6
CONTINUOUS
 10
16.383943655
 20
9.6439987109
 11
16.383943655
 21
9.636518396
  0
LINE
  5
4AE
100
AcDbEntity
  8
0
100
AcDbLine
 62
7
  6
CONTINUOUS
 10
16.383943655
 20
9.5849435928
 11
16.383943655
 21
9.5774632779
  0
LINE
  5
4AF
100
AcDbEntity
  8
0
100
AcDbLine
 62
7
  6
CONTINUOUS
 10
16.383943655
 20
9.5258884747
 11
16.383943655
 21
9.5184081597
  0
LINE
  5
4B0
100
AcDbEntity
  8
0
100
AcDbLine
 62
7
  6
CONTINUOUS
 10
16.383943655
 20
9.4668333566
 11
16.383943655
 21
9.4593530416
  0
LINE
  5
4B1
100
AcDbEntity
  8
0
100
AcDbLine
 62
7
  6
CONTINUOUS
 10
16.383943655
 20
9.4077782385
 11
16.383943655
 21
9.4002979235
  0
LINE
  5
4B2
100
AcDbEntity
  8
0
100
AcDbLine
 62
7
  6
CONTINUOUS
 10
16.383943655
 20
9.3487231204
 11
16.383943655
 21
9.3412428054
  0
LINE
  5
4B3
100
AcDbEntity
  8
0
100
AcDbLine
 62
7
  6
CONTINUOUS
 10
16.383943655
 20
9.2896680023
 11
16.383943655
 21
9.2821876873
  0
LINE
  5
4B4
100
AcDbEntity
  8
AXIS
100
AcDbLine
 62
7
  6
CONTINUOUS
 10
16.4193767258
 20
9.9241319691
 11
16.4193767258
 21
9.9006764764
  0
LINE
  5
4B5
100
AcDbEntity
  8
AXIS
100
AcDbLine
 62
7
  6
CONTINUOUS
 10
16.4193767258
 20
9.8522815754
 11
16.4193767258
 21
9.8416213583
  0
LINE
  5
4B6
100
AcDbEntity
  8
AXIS
100
AcDbLine
 62
7
  6
CONTINUOUS
 10
16.4193767258
 20
9.7932264573
 11
16.4193767258
 21
9.7825662401
  0
LINE
  5
4B7
100
AcDbEntity
  8
AXIS
100
AcDbLine
 62
7
  6
CONTINUOUS
 10
16.4193767258
 20
9.7341713392
 11
16.4193767258
 21
9.723511122
  0
LINE
  5
4B8
100
AcDbEntity
  8
AXIS
100
AcDbLine
 62
7
  6
CONTINUOUS
 10
16.4193767258
 20
9.6751162211
 11
16.4193767258
 21
9.6644560039
  0
LINE
  5
4B9
100
AcDbEntity
  8
AXIS
100
AcDbLine
 62
7
  6
CONTINUOUS
 10
16.4193767258
 20
9.616061103
 11
16.4193767258
 21
9.6054008858
  0
LINE
  5
4BA
100
AcDbEntity
  8
AXIS
100
AcDbLine
 62
7
  6
CONTINUOUS
 10
16.4193767258
 20
9.5570059848
 11
16.4193767258
 21
9.5463457677
  0
LINE
  5
4BB
100
AcDbEntity
  8
AXIS
100
AcDbLine
 62
7
  6
CONTINUOUS
 10
16.4193767258
 20
9.4979508667
 11
16.4193767258
 21
9.4872906496
  0
LINE
  5
4BC
100
AcDbEntity
  8
AXIS
100
AcDbLine
 62
7
  6
CONTINUOUS
 10
16.4193767258
 20
9.4388957486
 11
16.4193767258
 21
9.4282355315
  0
LINE
  5
4BD
100
AcDbEntity
  8
AXIS
100
AcDbLine
 62
7
  6
CONTINUOUS
 10
16.4193767258
 20
9.3798406305
 11
16.4193767258
 21
9.3691804134
  0
LINE
  5
4BE
100
AcDbEntity
  8
AXIS
100
AcDbLine
 62
7
  6
CONTINUOUS
 10
16.4193767258
 20
9.3207855124
 11
16.4193767258
 21
9.3101252953
  0
LINE
  5
4BF
100
AcDbEntity
  8
AXIS
100
AcDbLine
 62
7
  6
CONTINUOUS
 10
16.4193767258
 20
9.2617303943
 11
16.4193767258
 21
9.239092599
  0
LWPOLYLINE
  5
4C0
100
AcDbEntity
  8
0
100
AcDbPolyline
 62
7
  6
CONTINUOUS
 90
6
 70
0
 10
16.841548536
 20
9.9241319691
 10
16.8411877266
 20
9.9338647878
 10
16.840140617
 20
9.9426448904
 10
16.8385097055
 20
9.9496128193
 10
16.8364546372
 20
9.954086505
 10
16.8341765764
 20
9.9556280321
  0
LINE
  5
4C1
100
AcDbEntity
  8
0
100
AcDbLine
 62
7
  6
CONTINUOUS
 10
16.7445739192
 20
9.2932345561
 11
16.7445739192
 21
9.3007148711
  0
LINE
  5
4C2
100
AcDbEntity
  8
0
100
AcDbLine
 62
7
  6
CONTINUOUS
 10
16.7445739192
 20
9.3522896742
 11
16.7445739192
 21
9.3597699892
  0
LINE
  5
4C3
100
AcDbEntity
  8
0
100
AcDbLine
 62
7
  6
CONTINUOUS
 10
16.7445739192
 20
9.4113447924
 11
16.7445739192
 21
9.4188251073
  0
LINE
  5
4C4
100
AcDbEntity
  8
0
100
AcDbLine
 62
7
  6
CONTINUOUS
 10
16.7445739192
 20
9.4703999105
 11
16.7445739192
 21
9.4778802254
  0
LINE
  5
4C5
100
AcDbEntity
  8
0
100
AcDbLine
 62
7
  6
CONTINUOUS
 10
16.7445739192
 20
9.5294550286
 11
16.7445739192
 21
9.5369353435
  0
LINE
  5
4C6
100
AcDbEntity
  8
0
100
AcDbLine
 62
7
  6
CONTINUOUS
 10
16.7445739192
 20
9.5885101467
 11
16.7445739192
 21
9.5959904616
  0
LINE
  5
4C7
100
AcDbEntity
  8
0
100
AcDbLine
 62
7
  6
CONTINUOUS
 10
16.7445739192
 20
9.6475652648
 11
16.7445739192
 21
9.6550455798
  0
LINE
  5
4C8
100
AcDbEntity
  8
0
100
AcDbLine
 62
7
  6
CONTINUOUS
 10
16.7445739192
 20
9.7066203829
 11
16.7445739192
 21
9.7141006979
  0
LINE
  5
4C9
100
AcDbEntity
  8
0
100
AcDbLine
 62
7
  6
CONTINUOUS
 10
16.7445739192
 20
9.765675501
 11
16.7445739192
 21
9.773155816
  0
LINE
  5
4CA
100
AcDbEntity
  8
0
100
AcDbLine
 62
7
  6
CONTINUOUS
 10
16.7445739192
 20
9.8247306191
 11
16.7445739192
 21
9.8322109341
  0
LINE
  5
4CB
100
AcDbEntity
  8
0
100
AcDbLine
 62
7
  6
CONTINUOUS
 10
16.7445739192
 20
9.8837857372
 11
16.7445739192
 21
9.8912660522
  0
LINE
  5
4CC
100
AcDbEntity
  8
0
100
AcDbLine
 62
7
  6
CONTINUOUS
 10
16.841548536
 20
9.239092599
 11
16.841548536
 21
9.2742736681
  0
LINE
  5
4CD
100
AcDbEntity
  8
0
100
AcDbLine
 62
7
  6
CONTINUOUS
 10
16.841548536
 20
9.9132197502
 11
16.841548536
 21
9.9241319691
  0
LINE
  5
4CE
100
AcDbEntity
  8
02___PRT_ALL_AXES
100
AcDbLine
 62
7
  6
CONTINUOUS
 10
16.8630578282
 20
9.207596536
 11
16.8630578282
 21
7.7296437801
  0
LINE
  5
4CF
100
AcDbEntity
  8
0
100
AcDbLine
 62
7
  6
CONTINUOUS
 10
16.8668604487
 20
9.8652664733
 11
16.8668604487
 21
9.8546062561
  0
LINE
  5
4D0
100
AcDbEntity
  8
0
100
AcDbLine
 62
7
  6
CONTINUOUS
 10
16.8668604487
 20
9.8062113552
 11
16.8668604487
 21
9.795551138
  0
LINE
  5
4D1
100
AcDbEntity
  8
0
100
AcDbLine
 62
7
  6
CONTINUOUS
 10
16.8668604487
 20
9.7471562371
 11
16.8668604487
 21
9.7364960199
  0
LINE
  5
4D2
100
AcDbEntity
  8
0
100
AcDbLine
 62
7
  6
CONTINUOUS
 10
16.8668604487
 20
9.6881011189
 11
16.8668604487
 21
9.6774409018
  0
LINE
  5
4D3
100
AcDbEntity
  8
0
100
AcDbLine
 62
7
  6
CONTINUOUS
 10
16.8668604487
 20
9.6290460008
 11
16.8668604487
 21
9.6183857837
  0
LINE
  5
4D4
100
AcDbEntity
  8
0
100
AcDbLine
 62
7
  6
CONTINUOUS
 10
16.8668604487
 20
9.5699908827
 11
16.8668604487
 21
9.5593306656
  0
LINE
  5
4D5
100
AcDbEntity
  8
0
100
AcDbLine
 62
7
  6
CONTINUOUS
 10
16.8668604487
 20
9.5109357646
 11
16.8668604487
 21
9.5002755475
  0
LINE
  5
4D6
100
AcDbEntity
  8
0
100
AcDbLine
 62
7
  6
CONTINUOUS
 10
16.8668604487
 20
9.4518806465
 11
16.8668604487
 21
9.4412204294
  0
LINE
  5
4D7
100
AcDbEntity
  8
0
100
AcDbLine
 62
7
  6
CONTINUOUS
 10
16.8668604487
 20
9.3928255284
 11
16.8668604487
 21
9.3821653112
  0
LINE
  5
4D8
100
AcDbEntity
  8
0
100
AcDbLine
 62
7
  6
CONTINUOUS
 10
16.8668604487
 20
9.3337704103
 11
16.8668604487
 21
9.3231101931
  0
LINE
  5
4D9
100
AcDbEntity
  8
0
100
AcDbLine
 62
7
  6
CONTINUOUS
 10
16.8876232832
 20
9.207596536
 11
16.8876232832
 21
9.2730293377
  0
LINE
  5
4DA
100
AcDbEntity
  8
0
100
AcDbLine
 62
7
  6
CONTINUOUS
 10
16.8876232832
 20
9.9160474328
 11
16.8876232832
 21
9.9556280321
  0
LINE
  5
4DB
100
AcDbEntity
  8
AXIS
100
AcDbLine
 62
7
  6
CONTINUOUS
 10
15.9863058597
 20
18.306948569
 11
15.9666208203
 21
18.4185879749
  0
LINE
  5
4DC
100
AcDbEntity
  8
0
100
AcDbLine
 62
7
  6
CONTINUOUS
 10
17.0534923732
 20
9.207596536
 11
17.0534923732
 21
9.2758869969
  0
LINE
  5
4DD
100
AcDbEntity
  8
0
100
AcDbLine
 62
7
  6
CONTINUOUS
 10
17.0534923732
 20
9.859849974
 11
17.0534923732
 21
9.9556280321
  0
LINE
  5
4DE
100
AcDbEntity
  8
0
100
AcDbLine
 62
7
  6
CONTINUOUS
 10
17.0742552077
 20
9.3266679564
 11
17.0742552077
 21
9.3373281736
  0
LINE
  5
4DF
100
AcDbEntity
  8
0
100
AcDbLine
 62
7
  6
CONTINUOUS
 10
17.0742552077
 20
9.3857230746
 11
17.0742552077
 21
9.3963832917
  0
LINE
  5
4E0
100
AcDbEntity
  8
0
100
AcDbLine
 62
7
  6
CONTINUOUS
 10
17.0742552077
 20
9.4447781927
 11
17.0742552077
 21
9.4554384098
  0
LINE
  5
4E1
100
AcDbEntity
  8
0
100
AcDbLine
 62
7
  6
CONTINUOUS
 10
17.0742552077
 20
9.5038333108
 11
17.0742552077
 21
9.5144935279
  0
LINE
  5
4E2
100
AcDbEntity
  8
0
100
AcDbLine
 62
7
  6
CONTINUOUS
 10
17.0742552077
 20
9.5628884289
 11
17.0742552077
 21
9.573548646
  0
LINE
  5
4E3
100
AcDbEntity
  8
0
100
AcDbLine
 62
7
  6
CONTINUOUS
 10
17.0742552077
 20
9.621943547
 11
17.0742552077
 21
9.6326037641
  0
LINE
  5
4E4
100
AcDbEntity
  8
0
100
AcDbLine
 62
7
  6
CONTINUOUS
 10
17.0742552077
 20
9.6809986651
 11
17.0742552077
 21
9.6916588822
  0
LINE
  5
4E5
100
AcDbEntity
  8
0
100
AcDbLine
 62
7
  6
CONTINUOUS
 10
17.0742552077
 20
9.7400537832
 11
17.0742552077
 21
9.7507140004
  0
LINE
  5
4E6
100
AcDbEntity
  8
0
100
AcDbLine
 62
7
  6
CONTINUOUS
 10
17.0742552077
 20
9.7991089013
 11
17.0742552077
 21
9.8097691185
  0
LINE
  5
4E7
100
AcDbEntity
  8
02___PRT_ALL_AXES
100
AcDbLine
 62
7
  6
CONTINUOUS
 10
17.0780578282
 20
9.207596536
 11
17.0780578282
 21
7.7296437801
  0
LINE
  5
4E8
100
AcDbEntity
  8
0
100
AcDbLine
 62
7
  6
CONTINUOUS
 10
17.0995671204
 20
9.9241319691
 11
17.0995671204
 21
9.8586056435
  0
LINE
  5
4E9
100
AcDbEntity
  8
0
100
AcDbLine
 62
7
  6
CONTINUOUS
 10
17.0995671204
 20
9.2787146795
 11
17.0995671204
 21
9.239092599
  0
LINE
  5
4EA
100
AcDbEntity
  8
0
100
AcDbLine
 62
7
  6
CONTINUOUS
 10
17.1965417372
 20
9.8396447555
 11
17.1965417372
 21
9.8321644405
  0
LINE
  5
4EB
100
AcDbEntity
  8
0
100
AcDbLine
 62
7
  6
CONTINUOUS
 10
17.1965417372
 20
9.7805896374
 11
17.1965417372
 21
9.7731093224
  0
LINE
  5
4EC
100
AcDbEntity
  8
0
100
AcDbLine
 62
7
  6
CONTINUOUS
 10
17.1965417372
 20
9.7215345193
 11
17.1965417372
 21
9.7140542043
  0
LINE
  5
4ED
100
AcDbEntity
  8
0
100
AcDbLine
 62
7
  6
CONTINUOUS
 10
17.1965417372
 20
9.6624794011
 11
17.1965417372
 21
9.6549990862
  0
LINE
  5
4EE
100
AcDbEntity
  8
0
100
AcDbLine
 62
7
  6
CONTINUOUS
 10
17.1965417372
 20
9.603424283
 11
17.1965417372
 21
9.5959439681
  0
LINE
  5
4EF
100
AcDbEntity
  8
0
100
AcDbLine
 62
7
  6
CONTINUOUS
 10
17.1965417372
 20
9.5443691649
 11
17.1965417372
 21
9.53688885
  0
LINE
  5
4F0
100
AcDbEntity
  8
0
100
AcDbLine
 62
7
  6
CONTINUOUS
 10
17.1965417372
 20
9.4853140468
 11
17.1965417372
 21
9.4778337318
  0
LINE
  5
4F1
100
AcDbEntity
  8
0
100
AcDbLine
 62
7
  6
CONTINUOUS
 10
17.1965417372
 20
9.4262589287
 11
17.1965417372
 21
9.4187786137
  0
LINE
  5
4F2
100
AcDbEntity
  8
0
100
AcDbLine
 62
7
  6
CONTINUOUS
 10
17.1965417372
 20
9.3672038106
 11
17.1965417372
 21
9.3597234956
  0
LINE
  5
4F3
100
AcDbEntity
  8
0
100
AcDbLine
 62
7
  6
CONTINUOUS
 10
17.1965417372
 20
9.3081486925
 11
17.1965417372
 21
9.3006683775
  0
LWPOLYLINE
  5
4F4
100
AcDbEntity
  8
0
100
AcDbPolyline
 62
7
  6
CONTINUOUS
 90
6
 70
0
 10
17.0995671204
 20
9.9241319691
 10
17.0999279298
 20
9.9338647878
 10
17.1009750394
 20
9.9426448904
 10
17.1026059509
 20
9.9496128193
 10
17.1046610192
 20
9.954086505
 10
17.10693908
 20
9.9556280321
  0
LINE
  5
4F5
100
AcDbEntity
  8
AXIS
100
AcDbLine
 62
7
  6
CONTINUOUS
 10
15.9843373558
 20
13.6288563785
 11
17.9567783006
 21
13.6288563785
  0
LINE
  5
4F6
100
AcDbEntity
  8
AXIS
100
AcDbLine
 62
7
  6
CONTINUOUS
 10
17.5217389306
 20
9.9241319691
 11
17.5217389306
 21
9.8711489173
  0
LINE
  5
4F7
100
AcDbEntity
  8
AXIS
100
AcDbLine
 62
7
  6
CONTINUOUS
 10
17.5217389306
 20
9.8227540163
 11
17.5217389306
 21
9.8120937992
  0
LINE
  5
4F8
100
AcDbEntity
  8
AXIS
100
AcDbLine
 62
7
  6
CONTINUOUS
 10
17.5217389306
 20
9.7636988982
 11
17.5217389306
 21
9.7530386811
  0
LINE
  5
4F9
100
AcDbEntity
  8
AXIS
100
AcDbLine
 62
7
  6
CONTINUOUS
 10
17.5217389306
 20
9.7046437801
 11
17.5217389306
 21
9.693983563
  0
LINE
  5
4FA
100
AcDbEntity
  8
AXIS
100
AcDbLine
 62
7
  6
CONTINUOUS
 10
17.5217389306
 20
9.645588662
 11
17.5217389306
 21
9.6349284449
  0
LINE
  5
4FB
100
AcDbEntity
  8
AXIS
100
AcDbLine
 62
7
  6
CONTINUOUS
 10
17.5217389306
 20
9.5865335439
 11
17.5217389306
 21
9.5758733268
  0
LINE
  5
4FC
100
AcDbEntity
  8
AXIS
100
AcDbLine
 62
7
  6
CONTINUOUS
 10
17.5217389306
 20
9.5274784258
 11
17.5217389306
 21
9.5168182086
  0
LINE
  5
4FD
100
AcDbEntity
  8
AXIS
100
AcDbLine
 62
7
  6
CONTINUOUS
 10
17.5217389306
 20
9.4684233077
 11
17.5217389306
 21
9.4577630905
  0
LINE
  5
4FE
100
AcDbEntity
  8
AXIS
100
AcDbLine
 62
7
  6
CONTINUOUS
 10
17.5217389306
 20
9.4093681896
 11
17.5217389306
 21
9.3987079724
  0
LINE
  5
4FF
100
AcDbEntity
  8
AXIS
100
AcDbLine
 62
7
  6
CONTINUOUS
 10
17.5217389306
 20
9.3503130715
 11
17.5217389306
 21
9.3396528543
  0
LINE
  5
500
100
AcDbEntity
  8
AXIS
100
AcDbLine
 62
7
  6
CONTINUOUS
 10
17.5217389306
 20
9.2912579534
 11
17.5217389306
 21
9.239092599
  0
LINE
  5
501
100
AcDbEntity
  8
0
100
AcDbLine
 62
7
  6
CONTINUOUS
 10
17.5571720014
 20
9.3117152464
 11
17.5571720014
 21
9.3191955613
  0
LINE
  5
502
100
AcDbEntity
  8
0
100
AcDbLine
 62
7
  6
CONTINUOUS
 10
17.5571720014
 20
9.3707703645
 11
17.5571720014
 21
9.3782506794
  0
LINE
  5
503
100
AcDbEntity
  8
0
100
AcDbLine
 62
7
  6
CONTINUOUS
 10
17.5571720014
 20
9.4298254826
 11
17.5571720014
 21
9.4373057975
  0
LINE
  5
504
100
AcDbEntity
  8
0
100
AcDbLine
 62
7
  6
CONTINUOUS
 10
17.5571720014
 20
9.4888806007
 11
17.5571720014
 21
9.4963609156
  0
LINE
  5
505
100
AcDbEntity
  8
0
100
AcDbLine
 62
7
  6
CONTINUOUS
 10
17.5571720014
 20
9.5479357188
 11
17.5571720014
 21
9.5554160338
  0
LINE
  5
506
100
AcDbEntity
  8
0
100
AcDbLine
 62
7
  6
CONTINUOUS
 10
17.5571720014
 20
9.6069908369
 11
17.5571720014
 21
9.6144711519
  0
LINE
  5
507
100
AcDbEntity
  8
0
100
AcDbLine
 62
7
  6
CONTINUOUS
 10
17.5571720014
 20
9.666045955
 11
17.5571720014
 21
9.67352627
  0
LINE
  5
508
100
AcDbEntity
  8
0
100
AcDbLine
 62
7
  6
CONTINUOUS
 10
17.5571720014
 20
9.7251010731
 11
17.5571720014
 21
9.7325813881
  0
LINE
  5
509
100
AcDbEntity
  8
0
100
AcDbLine
 62
7
  6
CONTINUOUS
 10
17.5571720014
 20
9.7841561912
 11
17.5571720014
 21
9.7916365062
  0
LINE
  5
50A
100
AcDbEntity
  8
0
100
AcDbLine
 62
7
  6
CONTINUOUS
 10
17.5571720014
 20
9.8432113093
 11
17.5571720014
 21
9.8506916243
  0
LINE
  5
50B
100
AcDbEntity
  8
AXIS
100
AcDbLine
 62
7
  6
CONTINUOUS
 10
15.9843373558
 20
14.1603524415
 11
17.9567783006
 21
14.1603524415
  0
LINE
  5
50C
100
AcDbEntity
  8
0
100
AcDbLine
 62
7
  6
CONTINUOUS
 10
17.8563845998
 20
10.0855492919
 11
17.8563845998
 21
10.3591713392
  0
LINE
  5
50D
100
AcDbEntity
  8
AXIS
100
AcDbLine
 62
7
  6
CONTINUOUS
 10
17.9548097967
 20
10.9556280321
 11
17.9548097967
 21
12.0264941738
  0
LINE
  5
50E
100
AcDbEntity
  8
AXIS
100
AcDbLine
 62
7
  6
CONTINUOUS
 10
17.9548097967
 20
12.5579902368
 11
17.9548097967
 21
13.6288563785
  0
LINE
  5
50F
100
AcDbEntity
  8
AXIS
100
AcDbLine
 62
7
  6
CONTINUOUS
 10
17.9548097967
 20
14.1603524415
 11
17.9548097967
 21
15.2312185833
  0
LINE
  5
510
100
AcDbEntity
  8
AXIS
100
AcDbLine
 62
7
  6
CONTINUOUS
 10
17.9548097967
 20
15.7627146463
 11
17.9548097967
 21
16.833580788
  0
LINE
  5
511
100
AcDbEntity
  8
AXIS
100
AcDbLine
 62
7
  6
CONTINUOUS
 10
17.9548097967
 20
17.365076851
 11
17.9548097967
 21
18.4185879749
  0
LINE
  5
512
100
AcDbEntity
  8
0
100
AcDbLine
 62
7
  6
CONTINUOUS
 10
17.9548097967
 20
18.4182264573
 11
17.9548097967
 21
18.8512973234
  0
LINE
  5
513
100
AcDbEntity
  8
0
100
AcDbLine
 62
7
  6
CONTINUOUS
 10
17.9567783006
 20
10.4241319691
 11
17.9567783006
 21
10.9556280321
  0
LINE
  5
514
100
AcDbEntity
  8
AXIS
100
AcDbLine
 62
7
  6
CONTINUOUS
 10
17.9567783006
 20
12.0264941738
 11
17.9567783006
 21
12.5579902368
  0
LINE
  5
515
100
AcDbEntity
  8
AXIS
100
AcDbLine
 62
7
  6
CONTINUOUS
 10
17.9567783006
 20
13.6288563785
 11
17.9567783006
 21
14.1603524415
  0
LINE
  5
516
100
AcDbEntity
  8
AXIS
100
AcDbLine
 62
7
  6
CONTINUOUS
 10
17.9567783006
 20
15.2312185833
 11
17.9567783006
 21
15.7627146463
  0
LINE
  5
517
100
AcDbEntity
  8
AXIS
100
AcDbLine
 62
7
  6
CONTINUOUS
 10
17.9567783006
 20
16.833580788
 11
17.9567783006
 21
17.365076851
  0
LINE
  5
518
100
AcDbEntity
  8
0
100
AcDbLine
 62
7
  6
CONTINUOUS
 10
17.9646523164
 20
10.3788563785
 11
17.9646523164
 21
10.422757985
  0
LINE
  5
519
100
AcDbEntity
  8
0
100
AcDbLine
 62
7
  6
CONTINUOUS
 10
16.383943655
 20
9.8802191834
 11
16.384169413
 21
9.8804799499
  0
LINE
  5
51A
100
AcDbEntity
  8
0
100
AcDbLine
 62
7
  6
CONTINUOUS
 10
16.383943655
 20
9.8211640653
 11
16.384169413
 21
9.8214248318
  0
LINE
  5
51B
100
AcDbEntity
  8
0
100
AcDbLine
 62
7
  6
CONTINUOUS
 10
16.383943655
 20
9.7621089471
 11
16.384169413
 21
9.7623697137
  0
LINE
  5
51C
100
AcDbEntity
  8
AXIS
100
AcDbLine
 62
7
  6
CONTINUOUS
 10
15.9843373558
 20
15.2312185833
 11
17.9567783006
 21
15.2312185833
  0
LINE
  5
51D
100
AcDbEntity
  8
0
100
AcDbLine
 62
7
  6
CONTINUOUS
 10
16.383943655
 20
9.703053829
 11
16.384169413
 21
9.7033145956
  0
LINE
  5
51E
100
AcDbEntity
  8
0
100
AcDbLine
 62
7
  6
CONTINUOUS
 10
16.383943655
 20
9.6439987109
 11
16.384169413
 21
9.6442594775
  0
LINE
  5
51F
100
AcDbEntity
  8
0
100
AcDbLine
 62
7
  6
CONTINUOUS
 10
16.383943655
 20
9.5849435928
 11
16.384169413
 21
9.5852043594
  0
LINE
  5
520
100
AcDbEntity
  8
0
100
AcDbLine
 62
7
  6
CONTINUOUS
 10
16.383943655
 20
9.5258884747
 11
16.384169413
 21
9.5261492413
  0
LINE
  5
521
100
AcDbEntity
  8
0
100
AcDbLine
 62
7
  6
CONTINUOUS
 10
16.383943655
 20
9.4668333566
 11
16.384169413
 21
9.4670941232
  0
LINE
  5
522
100
AcDbEntity
  8
0
100
AcDbLine
 62
7
  6
CONTINUOUS
 10
16.383943655
 20
9.4077782385
 11
16.384169413
 21
9.4080390051
  0
LINE
  5
523
100
AcDbEntity
  8
0
100
AcDbLine
 62
7
  6
CONTINUOUS
 10
16.383943655
 20
9.3487231204
 11
16.384169413
 21
9.3489838869
  0
LINE
  5
524
100
AcDbEntity
  8
0
100
AcDbLine
 62
7
  6
CONTINUOUS
 10
16.383943655
 20
9.2896680023
 11
16.384169413
 21
9.2899287688
  0
LINE
  5
525
100
AcDbEntity
  8
AXIS
100
AcDbLine
 62
7
  6
CONTINUOUS
 10
15.9843373558
 20
15.7627146463
 11
17.9567783006
 21
15.7627146463
  0
LINE
  5
526
100
AcDbEntity
  8
0
100
AcDbLine
 62
7
  6
CONTINUOUS
 10
17.5569462434
 20
9.8429505428
 11
17.5571720014
 21
9.8432113093
  0
LINE
  5
527
100
AcDbEntity
  8
0
100
AcDbLine
 62
7
  6
CONTINUOUS
 10
17.5569462434
 20
9.7838954247
 11
17.5571720014
 21
9.7841561912
  0
LINE
  5
528
100
AcDbEntity
  8
0
100
AcDbLine
 62
7
  6
CONTINUOUS
 10
17.5569462434
 20
9.7248403066
 11
17.5571720014
 21
9.7251010731
  0
LINE
  5
529
100
AcDbEntity
  8
0
100
AcDbLine
 62
7
  6
CONTINUOUS
 10
17.5569462434
 20
9.6657851884
 11
17.5571720014
 21
9.666045955
  0
LINE
  5
52A
100
AcDbEntity
  8
0
100
AcDbLine
 62
7
  6
CONTINUOUS
 10
17.5569462434
 20
9.6067300703
 11
17.5571720014
 21
9.6069908369
  0
LINE
  5
52B
100
AcDbEntity
  8
0
100
AcDbLine
 62
7
  6
CONTINUOUS
 10
17.5569462434
 20
9.5476749522
 11
17.5571720014
 21
9.5479357188
  0
LINE
  5
52C
100
AcDbEntity
  8
0
100
AcDbLine
 62
7
  6
CONTINUOUS
 10
17.5569462434
 20
9.4886198341
 11
17.5571720014
 21
9.4888806007
  0
LINE
  5
52D
100
AcDbEntity
  8
0
100
AcDbLine
 62
7
  6
CONTINUOUS
 10
17.5569462434
 20
9.429564716
 11
17.5571720014
 21
9.4298254826
  0
LINE
  5
52E
100
AcDbEntity
  8
0
100
AcDbLine
 62
7
  6
CONTINUOUS
 10
17.5569462434
 20
9.3705095979
 11
17.5571720014
 21
9.3707703645
  0
LINE
  5
52F
100
AcDbEntity
  8
0
100
AcDbLine
 62
7
  6
CONTINUOUS
 10
16.4196169785
 20
9.9009539971
 11
16.384169413
 21
9.8804799499
  0
LINE
  5
530
100
AcDbEntity
  8
0
100
AcDbLine
 62
7
  6
CONTINUOUS
 10
16.4196169785
 20
9.8418988789
 11
16.384169413
 21
9.8214248318
  0
LINE
  5
531
100
AcDbEntity
  8
0
100
AcDbLine
 62
7
  6
CONTINUOUS
 10
16.4196169785
 20
9.7828437608
 11
16.384169413
 21
9.7623697137
  0
LINE
  5
532
100
AcDbEntity
  8
0
100
AcDbLine
 62
7
  6
CONTINUOUS
 10
16.4196169785
 20
9.7237886427
 11
16.384169413
 21
9.7033145956
  0
LINE
  5
533
100
AcDbEntity
  8
0
100
AcDbLine
 62
7
  6
CONTINUOUS
 10
16.4196169785
 20
9.6647335246
 11
16.384169413
 21
9.6442594775
  0
LINE
  5
534
100
AcDbEntity
  8
0
100
AcDbLine
 62
7
  6
CONTINUOUS
 10
16.4196169785
 20
9.6056784065
 11
16.384169413
 21
9.5852043594
  0
LINE
  5
535
100
AcDbEntity
  8
0
100
AcDbLine
 62
7
  6
CONTINUOUS
 10
16.4196169785
 20
9.5466232884
 11
16.384169413
 21
9.5261492413
  0
LWPOLYLINE
  5
536
100
AcDbEntity
  8
0
100
AcDbPolyline
 62
7
  6
CONTINUOUS
 90
9
 70
0
 10
16.4193767258
 20
9.8522815754
 10
16.4211958827
 20
9.8530454114
 10
16.4356774044
 20
9.8545731
 10
16.4642590096
 20
9.8561007984
 10
16.5061863183
 20
9.8576284686
 10
16.5603530368
 20
9.859156101
 10
16.6253317302
 20
9.8606837214
 10
16.6994101178
 20
9.8622113435
 10
16.7806334404
 20
9.8637389273
  0
LWPOLYLINE
  5
537
100
AcDbEntity
  8
0
100
AcDbPolyline
 62
7
  6
CONTINUOUS
 90
9
 70
0
 10
16.383943655
 20
9.8727388684
 10
16.3857435239
 20
9.8734753263
 10
16.4000762739
 20
9.8749482422
 10
16.4283905039
 20
9.876421158
 10
16.4699922829
 20
9.8778940739
 10
16.5238620258
 20
9.8793669897
 10
16.588679482
 20
9.8808399055
 10
16.6628560917
 20
9.8823128214
 10
16.7445739192
 20
9.8837857372
  0
LWPOLYLINE
  5
538
100
AcDbEntity
  8
0
100
AcDbPolyline
 62
7
  6
CONTINUOUS
 90
9
 70
0
 10
16.383943655
 20
9.8136837503
 10
16.3857435239
 20
9.8144202082
 10
16.4000762739
 20
9.8158931241
 10
16.4283905039
 20
9.8173660399
 10
16.4699922829
 20
9.8188389557
 10
16.5238620258
 20
9.8203118716
 10
16.588679482
 20
9.8217847874
 10
16.6628560917
 20
9.8232577033
 10
16.7445739192
 20
9.8247306191
  0
LINE
  5
539
100
AcDbEntity
  8
0
100
AcDbLine
 62
7
  6
CONTINUOUS
 10
17.5569462434
 20
9.3114544798
 11
17.5571720014
 21
9.3117152464
  0
LINE
  5
53A
100
AcDbEntity
  8
0
100
AcDbLine
 62
7
  6
CONTINUOUS
 10
16.4196169785
 20
9.4875681703
 11
16.384169413
 21
9.4670941232
  0
LINE
  5
53B
100
AcDbEntity
  8
0
100
AcDbLine
 62
7
  6
CONTINUOUS
 10
16.4196169785
 20
9.4285130522
 11
16.384169413
 21
9.4080390051
  0
LINE
  5
53C
100
AcDbEntity
  8
0
100
AcDbLine
 62
7
  6
CONTINUOUS
 10
16.4196169785
 20
9.3694579341
 11
16.384169413
 21
9.3489838869
  0
LINE
  5
53D
100
AcDbEntity
  8
0
100
AcDbLine
 62
7
  6
CONTINUOUS
 10
16.4196169785
 20
9.310402816
 11
16.384169413
 21
9.2899287688
  0
LINE
  5
53E
100
AcDbEntity
  8
0
100
AcDbLine
 62
7
  6
CONTINUOUS
 10
17.5214986779
 20
9.8224764956
 11
17.5569462434
 21
9.8429505428
  0
LINE
  5
53F
100
AcDbEntity
  8
0
100
AcDbLine
 62
7
  6
CONTINUOUS
 10
17.5214986779
 20
9.7634213775
 11
17.5569462434
 21
9.7838954247
  0
LINE
  5
540
100
AcDbEntity
  8
0
100
AcDbLine
 62
7
  6
CONTINUOUS
 10
17.5214986779
 20
9.7043662594
 11
17.5569462434
 21
9.7248403066
  0
LWPOLYLINE
  5
541
100
AcDbEntity
  8
0
100
AcDbPolyline
 62
7
  6
CONTINUOUS
 90
10
 70
0
 10
17.5217389306
 20
9.8711489173
 10
17.5200414087
 20
9.870411073
 10
17.5065234783
 20
9.8689353532
 10
17.4798199419
 20
9.8674596293
 10
17.440588777
 20
9.8659839383
 10
17.3897951516
 20
9.8645082609
 10
17.3286876723
 20
9.8630325697
 10
17.258770024
 20
9.8615568783
 10
17.1817645972
 20
9.8600812309
 10
17.0995671204
 20
9.8586056435
  0
LWPOLYLINE
  5
542
100
AcDbEntity
  8
0
100
AcDbPolyline
 62
7
  6
CONTINUOUS
 90
9
 70
0
 10
16.4193767258
 20
9.7932264573
 10
16.4211958858
 20
9.7939902939
 10
16.4356774279
 20
9.7955179836
 10
16.4642590557
 20
9.7970456823
 10
16.5061863547
 20
9.7985733517
 10
16.5603530757
 20
9.8001009838
 10
16.6253318405
 20
9.8016286057
 10
16.699410167
 20
9.8031562263
 10
16.7806336935
 20
9.8046838138
  0
LWPOLYLINE
  5
543
100
AcDbEntity
  8
0
100
AcDbPolyline
 62
7
  6
CONTINUOUS
 90
7
 70
0
 10
16.4193767258
 20
9.7341713392
 10
16.421195888
 20
9.7349351763
 10
16.4356774469
 20
9.7364628668
 10
16.4642590957
 20
9.7379905659
 10
16.5061864034
 20
9.7395182351
 10
16.5603531124
 20
9.7410458667
 10
16.6253318928
 20
9.7425734888
  0
LWPOLYLINE
  5
544
100
AcDbEntity
  8
0
100
AcDbPolyline
 62
7
  6
CONTINUOUS
 90
7
 70
0
 10
16.4193767258
 20
9.6751162211
 10
16.4211958905
 20
9.6758800587
 10
16.4356774668
 20
9.6774077501
 10
16.4642591366
 20
9.6789354496
 10
16.5061864525
 20
9.6804631185
 10
16.5603531515
 20
9.6819907496
 10
16.6253319489
 20
9.6835183719
  0
LWPOLYLINE
  5
545
100
AcDbEntity
  8
0
100
AcDbPolyline
 62
7
  6
CONTINUOUS
 90
9
 70
0
 10
16.4193767258
 20
9.616061103
 10
16.4211958847
 20
9.6168249393
 10
16.4356774187
 20
9.6183526286
 10
16.464259036
 20
9.6198803271
 10
16.5061863305
 20
9.6214079966
 10
16.5603530581
 20
9.6229356291
 10
16.6253318156
 20
9.6244632509
 10
16.6994101243
 20
9.6259908712
 10
16.7806336541
 20
9.6275184588
  0
LWPOLYLINE
  5
546
100
AcDbEntity
  8
0
100
AcDbPolyline
 62
7
  6
CONTINUOUS
 90
6
 70
0
 10
16.4193767258
 20
9.5570059848
 10
16.4211958869
 20
9.5577698217
 10
16.4356774374
 20
9.5592975118
 10
16.4642590756
 20
9.5608252107
 10
16.506186379
 20
9.56235288
 10
16.5603530938
 20
9.5638805119
  0
LWPOLYLINE
  5
547
100
AcDbEntity
  8
0
100
AcDbPolyline
 62
7
  6
CONTINUOUS
 90
7
 70
0
 10
16.4193767258
 20
9.4979508667
 10
16.4211958892
 20
9.4987147041
 10
16.4356774567
 20
9.500242395
 10
16.4642591159
 20
9.5017700943
 10
16.5061864277
 20
9.5032977634
 10
16.5603531316
 20
9.5048253947
 10
16.6253319203
 20
9.5063530169
  0
LWPOLYLINE
  5
548
100
AcDbEntity
  8
0
100
AcDbPolyline
 62
7
  6
CONTINUOUS
 90
7
 70
0
 10
16.4193767258
 20
9.4388957486
 10
16.4211958827
 20
9.4396595846
 10
16.4356774044
 20
9.4411872732
 10
16.4642590096
 20
9.4427149716
 10
16.5061863183
 20
9.4442426419
 10
16.5603530368
 20
9.4457702742
 10
16.6253317302
 20
9.4472978947
  0
LWPOLYLINE
  5
549
100
AcDbEntity
  8
0
100
AcDbPolyline
 62
7
  6
CONTINUOUS
 90
8
 70
0
 10
16.383943655
 20
9.7546286322
 10
16.3857435239
 20
9.7553650901
 10
16.4000762739
 20
9.7568380059
 10
16.4283905039
 20
9.7583109218
 10
16.4699922829
 20
9.7597838376
 10
16.5238620258
 20
9.7612567535
 10
16.588679482
 20
9.7627296693
 10
16.6628560917
 20
9.7642025852
  0
LWPOLYLINE
  5
54A
100
AcDbEntity
  8
0
100
AcDbPolyline
 62
7
  6
CONTINUOUS
 90
8
 70
0
 10
16.383943655
 20
9.6955735141
 10
16.3857435239
 20
9.696309972
 10
16.4000762739
 20
9.6977828878
 10
16.4283905039
 20
9.6992558037
 10
16.4699922829
 20
9.7007287195
 10
16.5238620258
 20
9.7022016354
 10
16.588679482
 20
9.7036745512
 10
16.6628560917
 20
9.7051474671
  0
LWPOLYLINE
  5
54B
100
AcDbEntity
  8
0
100
AcDbPolyline
 62
7
  6
CONTINUOUS
 90
6
 70
0
 10
16.383943655
 20
9.636518396
 10
16.3857435239
 20
9.6372548539
 10
16.4000762739
 20
9.6387277697
 10
16.4283905039
 20
9.6402006856
 10
16.4699922829
 20
9.6416736014
 10
16.5238620258
 20
9.6431465173
  0
LWPOLYLINE
  5
54C
100
AcDbEntity
  8
0
100
AcDbPolyline
 62
7
  6
CONTINUOUS
 90
9
 70
0
 10
16.383943655
 20
9.5774632779
 10
16.3857435239
 20
9.5781997358
 10
16.4000762739
 20
9.5796726516
 10
16.4283905039
 20
9.5811455675
 10
16.4699922829
 20
9.5826184833
 10
16.5238620258
 20
9.5840913992
 10
16.588679482
 20
9.585564315
 10
16.6628560917
 20
9.5870372308
 10
16.7445739192
 20
9.5885101467
  0
LWPOLYLINE
  5
54D
100
AcDbEntity
  8
0
100
AcDbPolyline
 62
7
  6
CONTINUOUS
 90
7
 70
0
 10
16.383943655
 20
9.5184081597
 10
16.3857435239
 20
9.5191446177
 10
16.4000762739
 20
9.5206175335
 10
16.4283905039
 20
9.5220904494
 10
16.4699922829
 20
9.5235633652
 10
16.5238620258
 20
9.525036281
 10
16.588679482
 20
9.5265091969
  0
LWPOLYLINE
  5
54E
100
AcDbEntity
  8
0
100
AcDbPolyline
 62
7
  6
CONTINUOUS
 90
8
 70
0
 10
16.383943655
 20
9.4593530416
 10
16.3857435239
 20
9.4600894996
 10
16.4000762739
 20
9.4615624154
 10
16.4283905039
 20
9.4630353312
 10
16.4699922829
 20
9.4645082471
 10
16.5238620258
 20
9.4659811629
 10
16.588679482
 20
9.4674540788
 10
16.6628560917
 20
9.4689269946
  0
LWPOLYLINE
  5
54F
100
AcDbEntity
  8
0
100
AcDbPolyline
 62
7
  6
CONTINUOUS
 90
8
 70
0
 10
16.383943655
 20
9.4002979235
 10
16.3857435239
 20
9.4010343814
 10
16.4000762739
 20
9.4025072973
 10
16.4283905039
 20
9.4039802131
 10
16.4699922829
 20
9.405453129
 10
16.5238620258
 20
9.4069260448
 10
16.588679482
 20
9.4083989607
 10
16.6628560917
 20
9.4098718765
  0
LWPOLYLINE
  5
550
100
AcDbEntity
  8
0
100
AcDbPolyline
 62
7
  6
CONTINUOUS
 90
9
 70
0
 10
16.384169413
 20
9.8804799499
 10
16.3857435239
 20
9.8809556413
 10
16.4000762739
 20
9.8824285571
 10
16.4283905039
 20
9.883901473
 10
16.4699922829
 20
9.8853743888
 10
16.5238620258
 20
9.8868473047
 10
16.588679482
 20
9.8883202205
 10
16.6628560917
 20
9.8897931364
 10
16.7445739192
 20
9.8912660522
  0
LWPOLYLINE
  5
551
100
AcDbEntity
  8
0
100
AcDbPolyline
 62
7
  6
CONTINUOUS
 90
9
 70
0
 10
16.384169413
 20
9.8214248318
 10
16.3857435239
 20
9.8219005232
 10
16.4000762739
 20
9.823373439
 10
16.4283905039
 20
9.8248463549
 10
16.4699922829
 20
9.8263192707
 10
16.5238620258
 20
9.8277921866
 10
16.588679482
 20
9.8292651024
 10
16.6628560917
 20
9.8307380182
 10
16.7445739192
 20
9.8322109341
  0
LWPOLYLINE
  5
552
100
AcDbEntity
  8
0
100
AcDbPolyline
 62
7
  6
CONTINUOUS
 90
9
 70
0
 10
16.384169413
 20
9.7623697137
 10
16.3857435239
 20
9.7628454051
 10
16.4000762739
 20
9.7643183209
 10
16.4283905039
 20
9.7657912368
 10
16.4699922829
 20
9.7672641526
 10
16.5238620258
 20
9.7687370684
 10
16.588679482
 20
9.7702099843
 10
16.6628560917
 20
9.7716829001
 10
16.7445739192
 20
9.773155816
  0
LWPOLYLINE
  5
553
100
AcDbEntity
  8
0
100
AcDbPolyline
 62
7
  6
CONTINUOUS
 90
9
 70
0
 10
16.384169413
 20
9.7033145956
 10
16.3857435239
 20
9.703790287
 10
16.4000762739
 20
9.7052632028
 10
16.4283905039
 20
9.7067361186
 10
16.4699922829
 20
9.7082090345
 10
16.5238620258
 20
9.7096819503
 10
16.588679482
 20
9.7111548662
 10
16.6628560917
 20
9.712627782
 10
16.7445739192
 20
9.7141006979
  0
LWPOLYLINE
  5
554
100
AcDbEntity
  8
0
100
AcDbPolyline
 62
7
  6
CONTINUOUS
 90
9
 70
0
 10
16.384169413
 20
9.6442594775
 10
16.3857435239
 20
9.6447351688
 10
16.4000762739
 20
9.6462080847
 10
16.4283905039
 20
9.6476810005
 10
16.4699922829
 20
9.6491539164
 10
16.5238620258
 20
9.6506268322
 10
16.588679482
 20
9.6520997481
 10
16.6628560917
 20
9.6535726639
 10
16.7445739192
 20
9.6550455798
  0
LWPOLYLINE
  5
555
100
AcDbEntity
  8
0
100
AcDbPolyline
 62
7
  6
CONTINUOUS
 90
9
 70
0
 10
16.384169413
 20
9.5852043594
 10
16.3857435239
 20
9.5856800507
 10
16.4000762739
 20
9.5871529666
 10
16.4283905039
 20
9.5886258824
 10
16.4699922829
 20
9.5900987983
 10
16.5238620258
 20
9.5915717141
 10
16.588679482
 20
9.59304463
 10
16.6628560917
 20
9.5945175458
 10
16.7445739192
 20
9.5959904616
  0
LINE
  5
556
100
AcDbEntity
  8
AXIS
100
AcDbLine
 62
7
  6
CONTINUOUS
 10
15.9843373558
 20
16.833580788
 11
17.9567783006
 21
16.833580788
  0
LWPOLYLINE
  5
557
100
AcDbEntity
  8
0
100
AcDbPolyline
 62
7
  6
CONTINUOUS
 90
6
 70
0
 10
17.0921951609
 20
9.207596536
 10
17.0944732217
 20
9.2091380631
 10
17.09652829
 20
9.2136117488
 10
17.0981592014
 20
9.2205796777
 10
17.0992063111
 20
9.2293597803
 10
17.0995671204
 20
9.239092599
  0
LINE
  5
558
100
AcDbEntity
  8
0
100
AcDbLine
 62
7
  6
CONTINUOUS
 10
17.5214986779
 20
9.6453111413
 11
17.5569462434
 21
9.6657851884
  0
LINE
  5
559
100
AcDbEntity
  8
0
100
AcDbLine
 62
7
  6
CONTINUOUS
 10
17.5214986779
 20
9.5862560232
 11
17.5569462434
 21
9.6067300703
  0
LINE
  5
55A
100
AcDbEntity
  8
0
100
AcDbLine
 62
7
  6
CONTINUOUS
 10
17.5214986779
 20
9.5272009051
 11
17.5569462434
 21
9.5476749522
  0
LINE
  5
55B
100
AcDbEntity
  8
0
100
AcDbLine
 62
7
  6
CONTINUOUS
 10
17.5214986779
 20
9.468145787
 11
17.5569462434
 21
9.4886198341
  0
LINE
  5
55C
100
AcDbEntity
  8
0
100
AcDbLine
 62
7
  6
CONTINUOUS
 10
17.5214986779
 20
9.4090906689
 11
17.5569462434
 21
9.429564716
  0
LINE
  5
55D
100
AcDbEntity
  8
0
100
AcDbLine
 62
7
  6
CONTINUOUS
 10
17.5214986779
 20
9.3500355508
 11
17.5569462434
 21
9.3705095979
  0
LINE
  5
55E
100
AcDbEntity
  8
0
100
AcDbLine
 62
7
  6
CONTINUOUS
 10
17.5214986779
 20
9.2909804327
 11
17.5569462434
 21
9.3114544798
  0
LWPOLYLINE
  5
55F
100
AcDbEntity
  8
0
100
AcDbPolyline
 62
7
  6
CONTINUOUS
 90
10
 70
0
 10
16.4193767258
 20
9.2617303943
 10
16.4210743004
 20
9.26246825
 10
16.4345924693
 20
9.2639439797
 10
16.4612965221
 20
9.2654197183
 10
16.5005286212
 20
9.2668954301
 10
16.5513225808
 20
9.2683711052
 10
16.6124291989
 20
9.2698467691
 10
16.6823456751
 20
9.2713224341
 10
16.7593506302
 20
9.2727980728
 10
16.841548536
 20
9.2742736681
  0
LWPOLYLINE
  5
560
100
AcDbEntity
  8
0
100
AcDbPolyline
 62
7
  6
CONTINUOUS
 90
6
 70
0
 10
16.4193767258
 20
9.3798406305
 10
16.4211958858
 20
9.3806044671
 10
16.4356774279
 20
9.3821321568
 10
16.4642590557
 20
9.3836598555
 10
16.5061863547
 20
9.3851875249
 10
16.5603530757
 20
9.3867151571
  0
LWPOLYLINE
  5
561
100
AcDbEntity
  8
0
100
AcDbPolyline
 62
7
  6
CONTINUOUS
 90
8
 70
0
 10
17.5217389306
 20
9.8120937992
 10
17.5199197705
 20
9.8113299626
 10
17.5054384383
 20
9.8098022877
 10
17.4768577811
 20
9.8082746251
 10
17.4349316314
 20
9.8067469786
 10
17.3807648504
 20
9.8052193306
 10
17.3157849732
 20
9.8036916761
 10
17.2417063563
 20
9.8021640471
  0
LWPOLYLINE
  5
562
100
AcDbEntity
  8
0
100
AcDbPolyline
 62
7
  6
CONTINUOUS
 90
9
 70
0
 10
16.4193767258
 20
9.3207855124
 10
16.421195888
 20
9.3215493495
 10
16.4356774469
 20
9.32307704
 10
16.4642590957
 20
9.3246047391
 10
16.5061864034
 20
9.3261324083
 10
16.5603531124
 20
9.3276600399
 10
16.6253318928
 20
9.329187662
 10
16.6994102542
 20
9.3307152832
 10
16.7806337741
 20
9.3322428704
  0
LWPOLYLINE
  5
563
100
AcDbEntity
  8
0
100
AcDbPolyline
 62
7
  6
CONTINUOUS
 90
7
 70
0
 10
17.5217389306
 20
9.7530386811
 10
17.5199197824
 20
9.752274847
 10
17.5054385171
 20
9.7507471752
 10
17.4768574632
 20
9.7492194933
 10
17.4349305423
 20
9.747691826
 10
17.3807634812
 20
9.7461641775
 10
17.3157846115
 20
9.74463655
  0
LWPOLYLINE
  5
564
100
AcDbEntity
  8
0
100
AcDbPolyline
 62
7
  6
CONTINUOUS
 90
7
 70
0
 10
17.5217389306
 20
9.693983563
 10
17.5199197755
 20
9.6932197274
 10
17.5054382716
 20
9.6916920397
 10
17.476856759
 20
9.6901643448
 10
17.4349297311
 20
9.6886366822
 10
17.3807631317
 20
9.6871090505
 10
17.3157838464
 20
9.6855814152
  0
LWPOLYLINE
  5
565
100
AcDbEntity
  8
0
100
AcDbPolyline
 62
7
  6
CONTINUOUS
 90
9
 70
0
 10
17.5217389306
 20
9.6349284449
 10
17.5199197863
 20
9.6341646115
 10
17.5054384744
 20
9.632636936
 10
17.4768577655
 20
9.6311092701
 10
17.4349319336
 20
9.6295816338
 10
17.3807656497
 20
9.6280539967
 10
17.3157858468
 20
9.6265263408
 10
17.2417063758
 20
9.6249986932
 10
17.1604826162
 20
9.6234711002
  0
LWPOLYLINE
  5
566
100
AcDbEntity
  8
0
100
AcDbPolyline
 62
7
  6
CONTINUOUS
 90
7
 70
0
 10
17.5217389306
 20
9.5758733268
 10
17.5199197686
 20
9.5751094897
 10
17.5054385076
 20
9.5735818202
 10
17.4768577272
 20
9.5720541503
 10
17.4349311544
 20
9.570526491
 10
17.3807641065
 20
9.5689988392
 10
17.3157845828
 20
9.5674711951
  0
LWPOLYLINE
  5
567
100
AcDbEntity
  8
0
100
AcDbPolyline
 62
7
  6
CONTINUOUS
 90
7
 70
0
 10
17.5217389306
 20
9.5168182086
 10
17.5199197882
 20
9.5160543757
 10
17.5054383954
 20
9.5145266942
 10
17.4768569903
 20
9.5129990004
 10
17.4349298075
 20
9.5114713303
 10
17.380763031
 20
9.5099436936
 10
17.315784401
 20
9.508416073
  0
LWPOLYLINE
  5
568
100
AcDbEntity
  8
0
100
AcDbPolyline
 62
7
  6
CONTINUOUS
 90
7
 70
0
 10
17.5217389306
 20
9.4577630905
 10
17.5199197885
 20
9.4569992577
 10
17.5054384056
 20
9.4554715768
 10
17.4768572391
 20
9.4539438931
 10
17.4349308405
 20
9.4524162449
 10
17.3807643012
 20
9.4508886079
 10
17.3157844217
 20
9.4493609553
  0
LWPOLYLINE
  5
569
100
AcDbEntity
  8
0
100
AcDbPolyline
 62
7
  6
CONTINUOUS
 90
9
 70
0
 10
16.383943655
 20
9.3412428054
 10
16.3857435239
 20
9.3419792633
 10
16.4000762739
 20
9.3434521792
 10
16.4283905039
 20
9.344925095
 10
16.4699922829
 20
9.3463980109
 10
16.5238620258
 20
9.3478709267
 10
16.588679482
 20
9.3493438426
 10
16.6628560917
 20
9.3508167584
 10
16.7445739192
 20
9.3522896742
  0
LWPOLYLINE
  5
56A
100
AcDbEntity
  8
0
100
AcDbPolyline
 62
7
  6
CONTINUOUS
 90
9
 70
0
 10
16.383943655
 20
9.2821876873
 10
16.3857435239
 20
9.2829241452
 10
16.4000762739
 20
9.2843970611
 10
16.4283905039
 20
9.2858699769
 10
16.4699922829
 20
9.2873428928
 10
16.5238620258
 20
9.2888158086
 10
16.588679482
 20
9.2902887244
 10
16.6628560917
 20
9.2917616403
 10
16.7445739192
 20
9.2932345561
  0
LWPOLYLINE
  5
56B
100
AcDbEntity
  8
0
100
AcDbPolyline
 62
7
  6
CONTINUOUS
 90
9
 70
0
 10
16.384169413
 20
9.5261492413
 10
16.3857435239
 20
9.5266249326
 10
16.4000762739
 20
9.5280978485
 10
16.4283905039
 20
9.5295707643
 10
16.4699922829
 20
9.5310436802
 10
16.5238620258
 20
9.532516596
 10
16.588679482
 20
9.5339895118
 10
16.6628560917
 20
9.5354624277
 10
16.7445739192
 20
9.5369353435
  0
LWPOLYLINE
  5
56C
100
AcDbEntity
  8
0
100
AcDbPolyline
 62
7
  6
CONTINUOUS
 90
9
 70
0
 10
16.384169413
 20
9.4670941232
 10
16.3857435239
 20
9.4675698145
 10
16.4000762739
 20
9.4690427304
 10
16.4283905039
 20
9.4705156462
 10
16.4699922829
 20
9.471988562
 10
16.5238620258
 20
9.4734614779
 10
16.588679482
 20
9.4749343937
 10
16.6628560917
 20
9.4764073096
 10
16.7445739192
 20
9.4778802254
  0
LWPOLYLINE
  5
56D
100
AcDbEntity
  8
0
100
AcDbPolyline
 62
7
  6
CONTINUOUS
 90
9
 70
0
 10
16.384169413
 20
9.4080390051
 10
16.3857435239
 20
9.4085146964
 10
16.4000762739
 20
9.4099876122
 10
16.4283905039
 20
9.4114605281
 10
16.4699922829
 20
9.4129334439
 10
16.5238620258
 20
9.4144063598
 10
16.588679482
 20
9.4158792756
 10
16.6628560917
 20
9.4173521915
 10
16.7445739192
 20
9.4188251073
  0
LWPOLYLINE
  5
56E
100
AcDbEntity
  8
0
100
AcDbPolyline
 62
7
  6
CONTINUOUS
 90
9
 70
0
 10
16.384169413
 20
9.3489838869
 10
16.3857435239
 20
9.3494595783
 10
16.4000762739
 20
9.3509324941
 10
16.4283905039
 20
9.35240541
 10
16.4699922829
 20
9.3538783258
 10
16.5238620258
 20
9.3553512417
 10
16.588679482
 20
9.3568241575
 10
16.6628560917
 20
9.3582970734
 10
16.7445739192
 20
9.3597699892
  0
LWPOLYLINE
  5
56F
100
AcDbEntity
  8
0
100
AcDbPolyline
 62
7
  6
CONTINUOUS
 90
9
 70
0
 10
16.384169413
 20
9.2899287688
 10
16.3857435239
 20
9.2904044602
 10
16.4000762739
 20
9.291877376
 10
16.4283905039
 20
9.2933502919
 10
16.4699922829
 20
9.2948232077
 10
16.5238620258
 20
9.2962961236
 10
16.588679482
 20
9.2977690394
 10
16.6628560917
 20
9.2992419553
 10
16.7445739192
 20
9.3007148711
  0
LINE
  5
570
100
AcDbEntity
  8
AXIS
100
AcDbLine
 62
7
  6
CONTINUOUS
 10
15.9843373558
 20
17.365076851
 11
17.9567783006
 21
17.365076851
  0
LWPOLYLINE
  5
571
100
AcDbEntity
  8
0
100
AcDbPolyline
 62
7
  6
CONTINUOUS
 90
9
 70
0
 10
17.5217389306
 20
9.3987079724
 10
17.5199197705
 20
9.3979441358
 10
17.5054384383
 20
9.396416461
 10
17.4768577811
 20
9.3948887983
 10
17.4349316314
 20
9.3933611518
 10
17.3807648504
 20
9.3918335038
 10
17.3157849732
 20
9.3903058493
 10
17.2417063563
 20
9.3887782204
 10
17.1604833801
 20
9.3872506417
  0
LWPOLYLINE
  5
572
100
AcDbEntity
  8
0
100
AcDbPolyline
 62
7
  6
CONTINUOUS
 90
9
 70
0
 10
17.5217389306
 20
9.3396528543
 10
17.5199197824
 20
9.3388890202
 10
17.5054385171
 20
9.3373613484
 10
17.4768574632
 20
9.3358336665
 10
17.4349305423
 20
9.3343059992
 10
17.3807634812
 20
9.3327783508
 10
17.3157846115
 20
9.3312507233
 10
17.2417068191
 20
9.3297231113
 10
17.1604833437
 20
9.3281955229
  0
LINE
  5
573
100
AcDbEntity
  8
0
100
AcDbLine
 62
7
  6
CONTINUOUS
 10
17.9548097967
 20
18.4182264573
 11
15.9666208203
 21
18.4182264573
  0
LINE
  5
574
100
AcDbEntity
  8
AXIS
100
AcDbLine
 62
7
  6
CONTINUOUS
 10
15.9666398322
 20
18.4185879749
 11
16.9705578282
 21
18.4185879749
  0
LINE
  5
575
100
AcDbEntity
  8
0
100
AcDbLine
 62
7
  6
CONTINUOUS
 10
16.9705578282
 20
18.4185879749
 11
17.9548097967
 21
18.4185879749
  0
LINE
  5
576
100
AcDbEntity
  8
0
100
AcDbLine
 62
7
  6
CONTINUOUS
 10
15.9863058597
 20
18.8512973234
 11
17.9548097967
 21
18.8512973234
  0
LINE
  5
577
100
AcDbEntity
  8
0
100
AcDbLine
 62
7
  6
CONTINUOUS
 10
16.0847310565
 20
18.9497225203
 11
17.8563845998
 21
18.9497225203
  0
LINE
  5
578
100
AcDbEntity
  8
0
100
AcDbLine
 62
7
  6
CONTINUOUS
 10
17.0534923732
 20
3.0693263694
 11
16.8876232832
 21
3.0693263694
  0
LWPOLYLINE
  5
579
100
AcDbEntity
  8
0
100
AcDbPolyline
 62
7
  6
CONTINUOUS
 90
16
 70
0
 10
16.7445739192
 20
3.1008224324
 10
16.6628560917
 20
3.1427255042
 10
16.588679482
 20
3.1968688448
 10
16.5238620258
 20
3.2619254981
 10
16.4699922829
 20
3.3363010422
 10
16.4283905039
 20
3.4181726657
 10
16.4000762739
 20
3.5055338421
 10
16.3857435239
 20
3.5962435055
 10
16.3857435239
 20
3.6880785247
 10
16.4000762739
 20
3.7787881881
 10
16.4283905039
 20
3.8661493645
 10
16.4699922829
 20
3.9480209881
 10
16.5238620258
 20
4.0223965321
 10
16.588679482
 20
4.0874531854
 10
16.6628560917
 20
4.141596526
 10
16.7445739192
 20
4.1834995978
  0
LINE
  5
57A
100
AcDbEntity
  8
0
100
AcDbLine
 62
7
  6
CONTINUOUS
 10
16.7445739192
 20
3.1008224324
 11
17.1965417372
 21
3.1008224324
  0
LINE
  5
57B
100
AcDbEntity
  8
0
100
AcDbLine
 62
7
  6
CONTINUOUS
 10
16.8876232832
 20
3.1323184954
 11
17.0534923732
 21
3.1323184954
  0
LWPOLYLINE
  5
57C
100
AcDbEntity
  8
0
100
AcDbPolyline
 62
7
  6
CONTINUOUS
 90
4
 70
0
 10
16.62419735
 20
3.8406087142
 10
16.5939540934
 20
3.7782374223
 10
16.5748907018
 20
3.7114224714
 10
16.5676255803
 20
3.6421610152
  0
LINE
  5
57D
100
AcDbEntity
  8
0
100
AcDbLine
 62
7
  6
CONTINUOUS
 10
16.8876232832
 20
3.1323184954
 11
16.8876232832
 21
3.0693263694
  0
LINE
  5
57E
100
AcDbEntity
  8
0
100
AcDbLine
 62
7
  6
CONTINUOUS
 10
16.8876232832
 20
4.1520035348
 11
16.8876232832
 21
4.2149956608
  0
LINE
  5
57F
100
AcDbEntity
  8
0
100
AcDbLine
 62
7
  6
CONTINUOUS
 10
16.8489204955
 20
3.1369116713
 11
16.841548536
 21
3.1062904989
  0
LINE
  5
580
100
AcDbEntity
  8
0
100
AcDbLine
 62
7
  6
CONTINUOUS
 10
16.8402321146
 20
3.1008224324
 11
16.8341765764
 21
3.0756693266
  0
LINE
  5
581
100
AcDbEntity
  8
0
100
AcDbLine
 62
7
  6
CONTINUOUS
 10
17.0921951609
 20
4.1474103589
 11
17.0995671204
 21
4.1780315313
  0
LINE
  5
582
100
AcDbEntity
  8
0
100
AcDbLine
 62
7
  6
CONTINUOUS
 10
17.1008835418
 20
4.1834995978
 11
17.10693908
 21
4.2086527037
  0
LINE
  5
583
100
AcDbEntity
  8
0
100
AcDbLine
 62
7
  6
CONTINUOUS
 10
17.3254481469
 20
3.6051505062
 11
17.3450270062
 21
3.6031086823
  0
LINE
  5
584
100
AcDbEntity
  8
0
100
AcDbLine
 62
7
  6
CONTINUOUS
 10
17.0921951609
 20
3.1369116713
 11
17.0995671204
 21
3.1062904989
  0
LINE
  5
585
100
AcDbEntity
  8
0
100
AcDbLine
 62
7
  6
CONTINUOUS
 10
17.1008835418
 20
3.1008224324
 11
17.10693908
 21
3.0756693266
  0
LINE
  5
586
100
AcDbEntity
  8
0
100
AcDbLine
 62
7
  6
CONTINUOUS
 10
16.8489204955
 20
4.1474103589
 11
16.841548536
 21
4.1780315313
  0
LINE
  5
587
100
AcDbEntity
  8
0
100
AcDbLine
 62
7
  6
CONTINUOUS
 10
16.8402321146
 20
4.1834995978
 11
16.8341765764
 21
4.2086527037
  0
LINE
  5
588
100
AcDbEntity
  8
0
100
AcDbLine
 62
7
  6
CONTINUOUS
 10
17.0534923732
 20
3.1323184954
 11
17.0534923732
 21
3.0693263694
  0
LINE
  5
589
100
AcDbEntity
  8
0
100
AcDbLine
 62
7
  6
CONTINUOUS
 10
17.0534923732
 20
4.1520035348
 11
17.0534923732
 21
4.2149956608
  0
LINE
  5
58A
100
AcDbEntity
  8
0
100
AcDbLine
 62
7
  6
CONTINUOUS
 10
17.3430818307
 20
3.6652218354
 11
17.3450270062
 21
3.6031086823
  0
LWPOLYLINE
  5
58B
100
AcDbEntity
  8
0
100
AcDbPolyline
 62
7
  6
CONTINUOUS
 90
19
 70
0
 10
17.2960716644
 20
3.4529706547
 10
17.3253616619
 20
3.512456895
 10
17.3438315597
 20
3.5763214998
 10
17.3508595673
 20
3.6425893726
 10
17.3461777637
 20
3.7092706892
 10
17.3298734453
 20
3.7742716462
 10
17.3024008003
 20
3.8355788645
 10
17.2645610073
 20
3.8912874902
 10
17.2174729759
 20
3.9396653385
 10
17.1625441852
 20
3.9791974658
 10
17.1014239238
 20
4.0086377579
 10
17.0359560526
 20
4.0270446339
 10
16.9681194431
 20
4.033811344
 10
16.8999757121
 20
4.0286840297
 10
16.8335983073
 20
4.0117719553
 10
16.771005399
 20
3.9835400981
 10
16.7141121932
 20
3.9447987083
 10
16.664667719
 20
3.8966813458
 10
16.62419735
 20
3.8406087142
  0
LINE
  5
58C
100
AcDbEntity
  8
0
100
AcDbLine
 62
7
  6
CONTINUOUS
 10
17.3108633877
 20
3.4702823713
 11
17.2715881994
 21
3.4160350201
  0
LINE
  5
58D
100
AcDbEntity
  8
0
100
AcDbLine
 62
7
  6
CONTINUOUS
 10
17.0425483728
 20
4.0113191644
 11
17.0572142643
 21
4.0082360849
  0
LINE
  5
58E
100
AcDbEntity
  8
0
100
AcDbLine
 62
7
  6
CONTINUOUS
 10
17.0572142643
 20
4.0082360849
 11
17.0773002919
 21
4.0027444835
  0
LWPOLYLINE
  5
58F
100
AcDbEntity
  8
0
100
AcDbPolyline
 62
7
  6
CONTINUOUS
 90
17
 70
0
 10
17.2668319149
 20
3.8575218925
 10
17.2663042272
 20
3.8576850748
 10
17.2657556114
 20
3.8579748376
 10
17.2652257885
 20
3.8583172608
 10
17.2647141105
 20
3.858685584
 10
17.264203595
 20
3.8590793049
 10
17.2636823654
 20
3.8595016343
 10
17.2631395706
 20
3.8599583984
 10
17.2625649448
 20
3.8604568432
 10
17.261948543
 20
3.8610050916
 10
17.2612806109
 20
3.8616118233
 10
17.2605515715
 20
3.8622860042
 10
17.2597521364
 20
3.8630365718
 10
17.2588735532
 20
3.8638720204
 10
17.2579079696
 20
3.8647998876
 10
17.2568487952
 20
3.86582625
 10
17.255690556
 20
3.8669557387
  0
LINE
  5
590
100
AcDbEntity
  8
0
100
AcDbLine
 62
7
  6
CONTINUOUS
 10
17.0773002919
 20
4.0027444835
 11
17.0954142144
 21
3.9967126917
  0
LWPOLYLINE
  5
591
100
AcDbEntity
  8
0
100
AcDbPolyline
 62
7
  6
CONTINUOUS
 90
3
 70
0
 10
17.0954142144
 20
3.9967126917
 10
17.1117195216
 20
3.9903579869
 10
17.1263743995
 20
3.9838525678
  0
LINE
  5
592
100
AcDbEntity
  8
0
100
AcDbLine
 62
7
  6
CONTINUOUS
 10
17.1263743995
 20
3.9838525678
 11
17.1395510206
 21
3.9773200479
  0
LWPOLYLINE
  5
593
100
AcDbEntity
  8
0
100
AcDbPolyline
 62
7
  6
CONTINUOUS
 90
50
 70
0
 10
17.1395510206
 20
3.9773200479
 10
17.1514248773
 20
3.970841955
 10
17.1621695436
 20
3.9644634351
 10
17.1719531181
 20
3.9581987026
 10
17.1809174713
 20
3.9520490351
 10
17.1891120432
 20
3.9460599546
 10
17.1965624027
 20
3.9402877343
 10
17.203298234
 20
3.9347811259
 10
17.2093575584
 20
3.9295766316
 10
17.2147973944
 20
3.9246868901
 10
17.2196705466
 20
3.9201192236
 10
17.224027403
 20
3.9158748744
 10
17.2279161336
 20
3.9119494694
 10
17.2313825367
 20
3.9083338235
 10
17.2344700159
 20
3.9050146383
 10
17.2372196334
 20
3.901975117
 10
17.2396702182
 20
3.8991954991
 10
17.2418585105
 20
3.8966535199
 10
17.2438193246
 20
3.8943248025
 10
17.245585718
 20
3.8921831884
 10
17.2471891559
 20
3.890201014
 10
17.2486596612
 20
3.8883493375
 10
17.2500259406
 20
3.8865981197
 10
17.2513154799
 20
3.8849163616
 10
17.252554597
 20
3.883272198
 10
17.2537685209
 20
3.8816328381
 10
17.2549800265
 20
3.8799663497
 10
17.2561947329
 20
3.8782623718
 10
17.2573932347
 20
3.8765454972
 10
17.258555462
 20
3.8748430269
 10
17.2596624555
 20
3.8731827116
 10
17.2606963322
 20
3.8715929941
 10
17.2616407103
 20
3.8701025732
 10
17.2624863528
 20
3.8687313311
 10
17.2632406351
 20
3.8674732096
 10
17.2639062926
 20
3.8663295068
 10
17.2644883533
 20
3.8652976676
 10
17.2649943229
 20
3.8643704167
 10
17.2654330699
 20
3.8635371532
 10
17.2658138143
 20
3.8627853571
 10
17.2661453986
 20
3.8621016278
 10
17.2664358052
 20
3.8614722943
 10
17.2666917884
 20
3.8608836764
 10
17.266918422
 20
3.8603221137
 10
17.267118223
 20
3.8597738909
 10
17.2672890417
 20
3.859225228
 10
17.2674180463
 20
3.8586625782
 10
17.2674581482
 20
3.858083221
 10
17.2672807948
 20
3.8576280433
 10
17.2668319149
 20
3.8575218925
  0
LWPOLYLINE
  5
594
100
AcDbEntity
  8
0
100
AcDbPolyline
 62
7
  6
CONTINUOUS
 90
6
 70
0
 10
17.1934799712
 20
3.9207694038
 10
17.2392887035
 20
3.8818813455
 10
17.278226934
 20
3.8355614848
 10
17.3091000338
 20
3.7830540765
 10
17.3309592783
 20
3.725748135
 10
17.3430818307
 20
3.6652218354
  0
LWPOLYLINE
  5
595
100
AcDbEntity
  8
0
100
AcDbPolyline
 62
7
  6
CONTINUOUS
 90
19
 70
0
 10
17.2485053957
 20
3.8740024972
 10
17.2468577671
 20
3.8756086414
 10
17.2451638221
 20
3.8772513523
 10
17.24343369
 20
3.8789187184
 10
17.2416617984
 20
3.8806141761
 10
17.2398185398
 20
3.8823638179
 10
17.2378719963
 20
3.8841949424
 10
17.2357896214
 20
3.8861341474
 10
17.2335380835
 20
3.8882071669
 10
17.2310831093
 20
3.8904386599
 10
17.2283893114
 20
3.8928519574
 10
17.2254200013
 20
3.8954687615
 10
17.2221369938
 20
3.8983087889
 10
17.2185004129
 20
3.9013893506
 10
17.2144685092
 20
3.9047248632
 10
17.2099975046
 20
3.9083262826
 10
17.2050414848
 20
3.9122004567
 10
17.1995523592
 20
3.9163493932
 10
17.1934799712
 20
3.9207694038
  0
LWPOLYLINE
  5
596
100
AcDbEntity
  8
0
100
AcDbPolyline
 62
7
  6
CONTINUOUS
 90
3
 70
0
 10
17.255690556
 20
3.8669557387
 10
17.251620509
 20
3.8709496519
 10
17.2485053957
 20
3.8740024972
  0
LWPOLYLINE
  5
597
100
AcDbEntity
  8
0
100
AcDbPolyline
 62
7
  6
CONTINUOUS
 90
19
 70
0
 10
17.3961284603
 20
3.642161015
 10
17.3885653644
 20
3.5692097554
 10
17.3685929381
 20
3.4987603884
 10
17.3369734797
 20
3.4331526834
 10
17.2946163802
 20
3.3740530139
 10
17.2421696842
 20
3.3226869919
 10
17.1815055505
 20
3.2812212924
 10
17.1154644293
 20
3.2513506741
 10
17.045401152
 20
3.2333999688
 10
16.9723493245
 20
3.2278822873
 10
16.8996141142
 20
3.2352922922
 10
16.8304718935
 20
3.2549738834
 10
16.7662929475
 20
3.2860925918
 10
16.7079994193
 20
3.3282599457
 10
16.6581048501
 20
3.3798474052
 10
16.6184314242
 20
3.4386446689
 10
16.5895871723
 20
3.5034156952
 10
16.5725239014
 20
3.5718764268
 10
16.5676255803
 20
3.6421610152
  0
LWPOLYLINE
  5
598
100
AcDbEntity
  8
0
100
AcDbPolyline
 62
7
  6
CONTINUOUS
 90
11
 70
0
 10
16.9523532686
 20
4.0789718016
 10
17.0228147256
 20
4.0750423411
 10
17.0909379158
 20
4.0600358606
 10
17.1554741538
 20
4.0344815647
 10
17.2158452796
 20
3.9984322115
 10
17.2696043314
 20
3.9530490364
 10
17.3147789359
 20
3.9002097647
 10
17.3503961164
 20
3.8416904075
 10
17.3763214993
 20
3.778002902
 10
17.3917651863
 20
3.7106008686
 10
17.3961284603
 20
3.642161015
  0
LWPOLYLINE
  5
599
100
AcDbEntity
  8
0
100
AcDbPolyline
 62
7
  6
CONTINUOUS
 90
13
 70
0
 10
16.9523532686
 20
4.0789718016
 10
17.0262548407
 20
4.0711581989
 10
17.0971678795
 20
4.0509986195
 10
17.1630468702
 20
4.0192496025
 10
17.222011962
 20
3.9770046547
 10
17.2724008634
 20
3.9256644978
 10
17.3128237789
 20
3.8668922355
 10
17.3422050363
 20
3.802560312
 10
17.3598132029
 20
3.7346934498
 10
17.3652819246
 20
3.665409982
 10
17.3586262015
 20
3.5968748646
 10
17.3402396869
 20
3.5311756959
 10
17.3108633877
 20
3.4702823713
  0
LINE
  5
59A
100
AcDbEntity
  8
0
100
AcDbLine
 62
7
  6
CONTINUOUS
 10
17.0534923732
 20
4.1520035348
 11
16.8876232832
 21
4.1520035348
  0
LINE
  5
59B
100
AcDbEntity
  8
0
100
AcDbLine
 62
7
  6
CONTINUOUS
 10
16.7445739192
 20
4.1834995978
 11
17.1965417372
 21
4.1834995978
  0
LINE
  5
59C
100
AcDbEntity
  8
0
100
AcDbLine
 62
7
  6
CONTINUOUS
 10
16.8876232832
 20
4.2149956608
 11
17.0534923732
 21
4.2149956608
  0
LWPOLYLINE
  5
59D
100
AcDbEntity
  8
0
100
AcDbPolyline
 62
7
  6
CONTINUOUS
 90
16
 70
0
 10
17.1965417372
 20
4.1834995978
 10
17.2782595647
 20
4.141596526
 10
17.3524361744
 20
4.0874531854
 10
17.4172536306
 20
4.0223965321
 10
17.4711233735
 20
3.9480209881
 10
17.5127251525
 20
3.8661493645
 10
17.5410393825
 20
3.7787881881
 10
17.5553721325
 20
3.6880785247
 10
17.5553721325
 20
3.5962435055
 10
17.5410393825
 20
3.5055338421
 10
17.5127251525
 20
3.4181726657
 10
17.4711233735
 20
3.3363010422
 10
17.4172536306
 20
3.2619254981
 10
17.3524361744
 20
3.1968688448
 10
17.2782595647
 20
3.1427255042
 10
17.1965417372
 20
3.1008224324
  0
LWPOLYLINE
  5
59E
100
AcDbEntity
  8
02___PRT_ALL_AXES
100
AcDbPolyline
 62
7
  6
CONTINUOUS
 90
9
 70
0
 10
29.9469961577
 20
6.9042654691
 10
29.9342940667
 20
6.9103444825
 10
29.9229447486
 20
6.9176398545
 10
29.9131792429
 20
6.9260030722
 10
29.905196347
 20
6.9352638848
 10
29.8991585697
 20
6.9452337687
 10
29.8951888228
 20
6.9557097658
 10
29.8933679188
 20
6.9664786152
 10
29.8932469846
 20
6.9700955058
  0
LWPOLYLINE
  5
59F
100
AcDbEntity
  8
0
100
AcDbPolyline
 62
7
  6
CONTINUOUS
 90
4
 70
0
 10
30.1066918737
 20
7.789893691
 10
30.1954413162
 20
7.8076266229
 10
30.2794191295
 20
7.8349492812
 10
30.3565671679
 20
7.8712175619
  0
LWPOLYLINE
  5
5A0
100
AcDbEntity
  8
0
100
AcDbPolyline
 62
7
  6
CONTINUOUS
 90
4
 70
0
 10
30.1066918737
 20
7.7951830724
 10
30.1954413162
 20
7.8129160043
 10
30.2794191295
 20
7.8402386626
 10
30.3565671679
 20
7.8765069434
  0
LWPOLYLINE
  5
5A1
100
AcDbEntity
  8
0
100
AcDbPolyline
 62
7
  6
CONTINUOUS
 90
3
 70
0
 10
30.0153458916
 20
7.9544820416
 10
30.1066918737
 20
7.9622161703
 10
30.1954413162
 20
7.9799491023
  0
LWPOLYLINE
  5
5A2
100
AcDbEntity
  8
0
100
AcDbPolyline
 62
7
  6
CONTINUOUS
 90
5
 70
0
 10
29.9236420963
 20
7.8316359168
 10
30.0153458916
 20
7.8292072182
 10
30.1066918737
 20
7.8369413469
 10
30.1954413162
 20
7.8546742788
 10
30.2794191295
 20
7.8819969371
  0
LINE
  5
5A3
100
AcDbEntity
  8
0
100
AcDbLine
 62
7
  6
CONTINUOUS
 10
29.9236420963
 20
7.9569107402
 11
30.0153458916
 21
7.9544820416
  0
LWPOLYLINE
  5
5A4
100
AcDbEntity
  8
0
100
AcDbPolyline
 62
7
  6
CONTINUOUS
 90
5
 70
0
 10
29.7481047354
 20
7.8193469574
 10
29.8338279833
 20
7.7970947382
 10
29.9236420963
 20
7.7845882609
 10
30.0153458916
 20
7.7821595623
 10
30.1066918737
 20
7.789893691
  0
LWPOLYLINE
  5
5A5
100
AcDbEntity
  8
0
100
AcDbPolyline
 62
7
  6
CONTINUOUS
 90
5
 70
0
 10
29.7481047354
 20
7.8246363389
 10
29.8338279833
 20
7.8023841196
 10
29.9236420963
 20
7.7898776423
 10
30.0153458916
 20
7.7874489437
 10
30.1066918737
 20
7.7951830724
  0
LWPOLYLINE
  5
5A6
100
AcDbEntity
  8
0
100
AcDbPolyline
 62
7
  6
CONTINUOUS
 90
6
 70
0
 10
29.7481047354
 20
7.9863800554
 10
29.8338279833
 20
7.9641278361
 10
29.9236420963
 20
7.9516213588
 10
30.0153458916
 20
7.9491926602
 10
30.1066918737
 20
7.9569267889
 10
30.1954413162
 20
7.9746597208
  0
LWPOLYLINE
  5
5A7
100
AcDbEntity
  8
0
100
AcDbPolyline
 62
7
  6
CONTINUOUS
 90
10
 70
0
 10
29.5971827779
 20
7.765305389
 10
29.6685732758
 20
7.7254992077
 10
29.7481047354
 20
7.694072134
 10
29.8338279833
 20
7.6718199148
 10
29.9236420963
 20
7.6593134374
 10
30.0153458916
 20
7.6568847388
 10
30.1066918737
 20
7.6646188676
 10
30.1954413162
 20
7.6823517995
 10
30.2794191295
 20
7.7096744577
 10
30.3565671679
 20
7.7459427385
  0
LWPOLYLINE
  5
5A8
100
AcDbEntity
  8
AXIS
100
AcDbPolyline
 62
7
  6
CONTINUOUS
 90
6
 70
0
 10
30.3351092479
 20
8.0200190861
 10
30.2097793955
 20
7.9900370497
 10
30.0801129618
 20
7.9741775183
 10
29.9490902561
 20
7.972658869
 10
29.8192095955
 20
7.9854410236
 10
29.6933399189
 20
8.0122599752
  0
LWPOLYLINE
  5
5A9
100
AcDbEntity
  8
AXIS
100
AcDbPolyline
 62
7
  6
CONTINUOUS
 90
7
 70
0
 10
30.2987015743
 20
8.0460944687
 10
30.2067606361
 20
8.0267731621
 10
30.1124043665
 20
8.0145941581
 10
30.0167390065
 20
8.0097002444
 10
29.9208861449
 20
8.0121487975
 10
29.825969569
 20
8.0219111104
 10
29.7331020888
 20
8.038872729
  0
LWPOLYLINE
  5
5AA
100
AcDbEntity
  8
AXIS
100
AcDbPolyline
 62
7
  6
CONTINUOUS
 90
4
 70
0
 10
30.1843813118
 20
8.1525381513
 10
30.0845990876
 20
8.1429459223
 10
29.9839564187
 20
8.1405410096
 10
29.8834860354
 20
8.1453480909
  0
LWPOLYLINE
  5
5AB
100
AcDbEntity
  8
0
100
AcDbPolyline
 62
7
  6
CONTINUOUS
 90
7
 70
0
 10
29.8494681674
 20
8.1862761565
 10
30.0311168749
 20
8.178353938
 10
30.2117313441
 20
8.1941683232
 10
30.3851609658
 20
8.2331807722
 10
30.5454998023
 20
8.2940627628
 10
30.6872877068
 20
8.3747410318
 10
30.8056962622
 20
8.4724681776
  0
LWPOLYLINE
  5
5AC
100
AcDbEntity
  8
AXIS
100
AcDbPolyline
 62
7
  6
CONTINUOUS
 90
5
 70
0
 10
29.8834860354
 20
8.1453480909
 10
29.7842188995
 20
8.157317839
 10
29.6871736264
 20
8.1763274281
 10
29.5933460317
 20
8.202181794
 10
29.5036989136
 20
8.2346156361
  0
LINE
  5
5AD
100
AcDbEntity
  8
0
100
AcDbLine
 62
7
  6
CONTINUOUS
 10
29.6729710504
 20
8.217665197
 11
29.8494681674
 21
8.1862761565
  0
LWPOLYLINE
  5
5AE
100
AcDbEntity
  8
0
100
AcDbPolyline
 62
7
  6
CONTINUOUS
 90
3
 70
0
 10
29.7481047354
 20
7.9916694368
 10
29.8338279833
 20
7.9694172176
 10
29.9236420963
 20
7.9569107402
  0
LWPOLYLINE
  5
5AF
100
AcDbEntity
  8
AXIS
100
AcDbPolyline
 62
7
  6
CONTINUOUS
 90
3
 70
0
 10
29.7331020888
 20
8.038872729
 10
29.6433724906
 20
8.0628347938
 10
29.5578327719
 20
8.0935163714
  0
LINE
  5
5B0
100
AcDbEntity
  8
0
100
AcDbLine
 62
7
  6
CONTINUOUS
 10
29.5076359215
 20
8.2714521434
 11
29.6729710504
 21
8.217665197
  0
LINE
  5
5B1
100
AcDbEntity
  8
AXIS
100
AcDbLine
 62
7
  6
CONTINUOUS
 10
29.6933399189
 20
8.0122599752
 11
29.5736877813
 21
8.052792856
  0
LWPOLYLINE
  5
5B2
100
AcDbEntity
  8
0
100
AcDbPolyline
 62
7
  6
CONTINUOUS
 90
11
 70
0
 10
29.5036989136
 20
8.2656587597
 10
29.6312728883
 20
8.2218378715
 10
29.7663701984
 20
8.1912999857
 10
29.9062403432
 20
8.174667546
 10
30.0480354661
 20
8.1722796602
 10
30.1888686099
 20
8.1841852252
 10
30.3258726835
 20
8.2101420648
 10
30.4562585426
 20
8.2496219296
 10
30.5773716724
 20
8.3018212202
 10
30.6867462967
 20
8.365677336
 10
30.7821556374
 20
8.4398903259
  0
LWPOLYLINE
  5
5B3
100
AcDbEntity
  8
0
100
AcDbPolyline
 62
7
  6
CONTINUOUS
 90
7
 70
0
 10
29.6685732758
 20
7.93429058
 10
29.7481047354
 20
7.9028635064
 10
29.8338279833
 20
7.8806112872
 10
29.9236420963
 20
7.8681048098
 10
30.0153458916
 20
7.8656761112
 10
30.1066918737
 20
7.8734102399
 10
30.1954413162
 20
7.8911431719
  0
LWPOLYLINE
  5
5B4
100
AcDbEntity
  8
0
100
AcDbPolyline
 62
7
  6
CONTINUOUS
 90
7
 70
0
 10
29.6685732758
 20
7.9395799615
 10
29.7481047354
 20
7.9081528878
 10
29.8338279833
 20
7.8859006686
 10
29.9236420963
 20
7.8733941912
 10
30.0153458916
 20
7.8709654927
 10
30.1066918737
 20
7.8786996214
 10
30.1954413162
 20
7.8964325533
  0
LWPOLYLINE
  5
5B5
100
AcDbEntity
  8
0
100
AcDbPolyline
 62
7
  6
CONTINUOUS
 90
7
 70
0
 10
29.6685732758
 20
7.9760488545
 10
29.7481047354
 20
7.9446217809
 10
29.8338279833
 20
7.9223695616
 10
29.9236420963
 20
7.9098630843
 10
30.0153458916
 20
7.9074343857
 10
30.1066918737
 20
7.9151685144
 10
30.1954413162
 20
7.9329014463
  0
LWPOLYLINE
  5
5B6
100
AcDbEntity
  8
0
100
AcDbPolyline
 62
7
  6
CONTINUOUS
 90
7
 70
0
 10
29.6685732758
 20
7.981338236
 10
29.7481047354
 20
7.9499111623
 10
29.8338279833
 20
7.9276589431
 10
29.9236420963
 20
7.9151524657
 10
30.0153458916
 20
7.9127237671
 10
30.1066918737
 20
7.9204578959
 10
30.1954413162
 20
7.9381908278
  0
LINE
  5
5B7
100
AcDbEntity
  8
0
100
AcDbLine
 62
7
  6
CONTINUOUS
 10
29.6991061104
 20
8.0110313774
 11
29.7481047354
 21
7.9916694368
  0
LINE
  5
5B8
100
AcDbEntity
  8
AXIS
100
AcDbLine
 62
7
  6
CONTINUOUS
 10
29.4774858077
 20
8.1305577485
 11
29.5578327719
 21
8.0935163714
  0
LINE
  5
5B9
100
AcDbEntity
  8
AXIS
100
AcDbLine
 62
7
  6
CONTINUOUS
 10
29.5736877813
 20
8.052792856
 11
29.4724938346
 21
8.1010795721
  0
LWPOLYLINE
  5
5BA
100
AcDbEntity
  8
0
100
AcDbPolyline
 62
7
  6
CONTINUOUS
 90
9
 70
0
 10
29.5971827779
 20
7.9323384869
 10
29.6685732758
 20
7.8925323056
 10
29.7481047354
 20
7.8611052319
 10
29.8338279833
 20
7.8388530127
 10
29.9236420963
 20
7.8263465353
 10
30.0153458916
 20
7.8239178367
 10
30.1066918737
 20
7.8316519655
 10
30.1954413162
 20
7.8493848974
 10
30.2794191295
 20
7.8767075557
  0
LWPOLYLINE
  5
5BB
100
AcDbEntity
  8
0
100
AcDbPolyline
 62
7
  6
CONTINUOUS
 90
5
 70
0
 10
29.5971827779
 20
7.9376278683
 10
29.6685732758
 20
7.897821687
 10
29.7481047354
 20
7.8663946134
 10
29.8338279833
 20
7.8441423941
 10
29.9236420963
 20
7.8316359168
  0
LINE
  5
5BC
100
AcDbEntity
  8
0
100
AcDbLine
 62
7
  6
CONTINUOUS
 10
29.5971827779
 20
7.9740967614
 11
29.6685732758
 21
7.93429058
  0
LINE
  5
5BD
100
AcDbEntity
  8
0
100
AcDbLine
 62
7
  6
CONTINUOUS
 10
29.5971827779
 20
7.9793861428
 11
29.6685732758
 21
7.9395799615
  0
LINE
  5
5BE
100
AcDbEntity
  8
0
100
AcDbLine
 62
7
  6
CONTINUOUS
 10
29.5971827779
 20
8.0158550358
 11
29.6685732758
 21
7.9760488545
  0
LINE
  5
5BF
100
AcDbEntity
  8
0
100
AcDbLine
 62
7
  6
CONTINUOUS
 10
29.5971827779
 20
8.0211444173
 11
29.6685732758
 21
7.981338236
  0
LWPOLYLINE
  5
5C0
100
AcDbEntity
  8
0
100
AcDbPolyline
 62
7
  6
CONTINUOUS
 90
3
 70
0
 10
29.6555827131
 20
8.0250504556
 10
29.6685732758
 20
8.017807129
 10
29.7481047354
 20
7.9863800554
  0
LINE
  5
5C1
100
AcDbEntity
  8
AXIS
100
AcDbLine
 62
7
  6
CONTINUOUS
 10
29.4032735927
 20
8.1735246487
 11
29.4774858077
 21
8.1305577485
  0
LWPOLYLINE
  5
5C2
100
AcDbEntity
  8
AXIS
100
AcDbPolyline
 62
7
  6
CONTINUOUS
 90
7
 70
0
 10
29.4724938346
 20
8.1010795721
 10
29.3811205487
 20
8.1592034865
 10
29.3012734135
 20
8.2260956285
 10
29.234609312
 20
8.3002280588
 10
29.182270792
 20
8.3798654676
 10
29.144823081
 20
8.4633004289
 10
29.1355892087
 20
8.4986026701
  0
LWPOLYLINE
  5
5C3
100
AcDbEntity
  8
0
100
AcDbPolyline
 62
7
  6
CONTINUOUS
 90
11
 70
0
 10
29.5356828948
 20
7.8177789557
 10
29.5971827779
 20
7.7705947704
 10
29.6685732758
 20
7.7307885891
 10
29.7481047354
 20
7.6993615154
 10
29.8338279833
 20
7.6771092962
 10
29.9236420963
 20
7.6646028189
 10
30.0153458916
 20
7.6621741203
 10
30.1066918737
 20
7.669908249
 10
30.1954413162
 20
7.6876411809
 10
30.2794191295
 20
7.7149638392
 10
30.3565671679
 20
7.7512321199
  0
LWPOLYLINE
  5
5C4
100
AcDbEntity
  8
0
100
AcDbPolyline
 62
7
  6
CONTINUOUS
 90
21
 70
0
 10
30.3243692248
 20
14.3208124383
 10
30.3610390586
 20
14.3316663684
 10
30.3969832954
 20
14.3436727032
 10
30.4321295466
 20
14.3568072632
 10
30.466407031
 20
14.3710435965
 10
30.4997467169
 20
14.3863530324
 10
30.532081461
 20
14.4027047392
 10
30.5633461443
 20
14.420065786
 10
30.5934778024
 20
14.4384012092
 10
30.6224157529
 20
14.4576740829
 10
30.6501017176
 20
14.4778455934
 10
30.6764799393
 20
14.498875117
 10
30.7014972947
 20
14.5207203023
 10
30.7251034011
 20
14.5433371549
 10
30.7472507181
 20
14.5666801266
 10
30.7678946428
 20
14.5907022069
 10
30.7869936004
 20
14.6153550173
 10
30.8045091273
 20
14.6405889095
 10
30.8204059487
 20
14.6663530646
 10
30.83465205
 20
14.6925955959
 10
30.8472187408
 20
14.7192636535
  0
LWPOLYLINE
  5
5C5
100
AcDbEntity
  8
0
100
AcDbPolyline
 62
7
  6
CONTINUOUS
 90
11
 70
0
 10
29.5076359215
 20
8.6472766137
 10
29.6729710504
 20
8.5934896673
 10
29.8494681674
 20
8.5621006268
 10
30.0311168749
 20
8.5541784083
 10
30.2117313441
 20
8.5699927935
 10
30.3851609658
 20
8.6090052425
 10
30.5454998023
 20
8.6698872331
 10
30.6872877068
 20
8.7505655022
 10
30.8056962622
 20
8.8482926479
 10
30.8966932073
 20
8.9597406897
 10
30.9571797502
 20
9.0811143981
  0
LWPOLYLINE
  5
5C6
100
AcDbEntity
  8
0
100
AcDbPolyline
 62
7
  6
CONTINUOUS
 90
4
 70
0
 10
29.5036989136
 20
8.2656587597
 10
29.3862609153
 20
8.3218608713
 10
29.2813211719
 20
8.3893109466
 10
29.1910200054
 20
8.4666358325
  0
LWPOLYLINE
  5
5C7
100
AcDbEntity
  8
0
100
AcDbPolyline
 62
7
  6
CONTINUOUS
 90
3
 70
0
 10
29.5076359215
 20
8.2714521434
 10
29.3590930703
 20
8.3458053457
 10
29.2324009455
 20
8.4381927949
  0
LINE
  5
5C8
100
AcDbEntity
  8
0
100
AcDbLine
 62
7
  6
CONTINUOUS
 10
29.5356828948
 20
8.0630392212
 11
29.5971827779
 21
8.0158550358
  0
LINE
  5
5C9
100
AcDbEntity
  8
0
100
AcDbLine
 62
7
  6
CONTINUOUS
 10
29.5356828948
 20
8.0683286026
 11
29.5971827779
 21
8.0211444173
  0
LWPOLYLINE
  5
5CA
100
AcDbEntity
  8
0
100
AcDbPolyline
 62
7
  6
CONTINUOUS
 90
6
 70
0
 10
29.5076359215
 20
8.6472766137
 10
29.3590930703
 20
8.721629816
 10
29.2324009455
 20
8.8140172652
 10
29.1318738953
 20
8.9212928175
 10
29.0609352479
 20
9.0398033325
 10
29.0220007338
 20
9.1655130769
  0
LINE
  5
5CB
100
AcDbEntity
  8
0
100
AcDbLine
 62
7
  6
CONTINUOUS
 10
29.5222731656
 20
8.0773263685
 11
29.5356828948
 21
8.0630392212
  0
LINE
  5
5CC
100
AcDbEntity
  8
0
100
AcDbLine
 62
7
  6
CONTINUOUS
 10
29.5312647142
 20
8.0730358712
 11
29.5356828948
 21
8.0683286026
  0
LINE
  5
5CD
100
AcDbEntity
  8
0
100
AcDbLine
 62
7
  6
CONTINUOUS
 10
29.2324009455
 20
8.4381927949
 11
29.1318738953
 21
8.5454683472
  0
LWPOLYLINE
  5
5CE
100
AcDbEntity
  8
0
100
AcDbPolyline
 62
7
  6
CONTINUOUS
 90
5
 70
0
 10
29.1910200054
 20
8.4666358325
 10
29.1171984794
 20
8.5522600838
 10
29.0613604303
 20
8.6444384037
 10
29.0246351113
 20
8.7413150922
 10
29.0077820723
 20
8.8409023136
  0
LWPOLYLINE
  5
5CF
100
AcDbEntity
  8
AXIS
100
AcDbPolyline
 62
7
  6
CONTINUOUS
 90
7
 70
0
 10
29.1009768149
 20
8.5445080336
 10
29.1483527449
 20
8.481674781
 10
29.2044753847
 20
8.4225530283
 10
29.2687688402
 20
8.3677494445
 10
29.3405733735
 20
8.3178263888
 10
29.4191521729
 20
8.2732961391
 10
29.5036989136
 20
8.2346156361
  0
LWPOLYLINE
  5
5D0
100
AcDbEntity
  8
0
100
AcDbPolyline
 62
7
  6
CONTINUOUS
 90
13
 70
0
 10
29.4481046394
 20
7.9658706755
 10
29.4855808785
 20
7.9076281128
 10
29.5356828948
 20
7.8542478488
 10
29.5971827779
 20
7.8070636634
 10
29.6685732758
 20
7.7672574821
 10
29.7481047354
 20
7.7358304085
 10
29.8338279833
 20
7.7135781892
 10
29.9236420963
 20
7.7010717119
 10
30.0153458916
 20
7.6986430133
 10
30.1066918737
 20
7.706377142
 10
30.1954413162
 20
7.724110074
 10
30.2794191295
 20
7.7514327322
 10
30.3565671679
 20
7.787701013
  0
LWPOLYLINE
  5
5D1
100
AcDbEntity
  8
0
100
AcDbPolyline
 62
7
  6
CONTINUOUS
 90
13
 70
0
 10
29.4481046394
 20
7.9711600569
 10
29.4855808785
 20
7.9129174942
 10
29.5356828948
 20
7.8595372302
 10
29.5971827779
 20
7.8123530449
 10
29.6685732758
 20
7.7725468636
 10
29.7481047354
 20
7.7411197899
 10
29.8338279833
 20
7.7188675707
 10
29.9236420963
 20
7.7063610933
 10
30.0153458916
 20
7.7039323947
 10
30.1066918737
 20
7.7116665235
 10
30.1954413162
 20
7.7293994554
 10
30.2794191295
 20
7.7567221137
 10
30.3565671679
 20
7.7929903944
  0
LWPOLYLINE
  5
5D2
100
AcDbEntity
  8
0
100
AcDbPolyline
 62
7
  6
CONTINUOUS
 90
13
 70
0
 10
29.4481046394
 20
8.00762895
 10
29.4855808785
 20
7.9493863873
 10
29.5356828948
 20
7.8960061232
 10
29.5971827779
 20
7.8488219379
 10
29.6685732758
 20
7.8090157566
 10
29.7481047354
 20
7.777588683
 10
29.8338279833
 20
7.7553364637
 10
29.9236420963
 20
7.7428299864
 10
30.0153458916
 20
7.7404012878
 10
30.1066918737
 20
7.7481354165
 10
30.1954413162
 20
7.7658683484
 10
30.2794191295
 20
7.7931910067
 10
30.3565671679
 20
7.8294592875
  0
LWPOLYLINE
  5
5D3
100
AcDbEntity
  8
0
100
AcDbPolyline
 62
7
  6
CONTINUOUS
 90
13
 70
0
 10
29.4481046394
 20
8.0129183314
 10
29.4855808785
 20
7.9546757687
 10
29.5356828948
 20
7.9012955047
 10
29.5971827779
 20
7.8541113193
 10
29.6685732758
 20
7.814305138
 10
29.7481047354
 20
7.7828780644
 10
29.8338279833
 20
7.7606258452
 10
29.9236420963
 20
7.7481193678
 10
30.0153458916
 20
7.7456906692
 10
30.1066918737
 20
7.7534247979
 10
30.1954413162
 20
7.7711577299
 10
30.2794191295
 20
7.7984803881
 10
30.3565671679
 20
7.8347486689
  0
LWPOLYLINE
  5
5D4
100
AcDbEntity
  8
0
100
AcDbPolyline
 62
7
  6
CONTINUOUS
 90
6
 70
0
 10
29.4481046394
 20
8.0493872245
 10
29.4855808785
 20
7.9911446618
 10
29.5356828948
 20
7.9377643977
 10
29.5971827779
 20
7.8905802124
 10
29.6685732758
 20
7.8507740311
 10
29.7481047354
 20
7.8193469574
  0
LWPOLYLINE
  5
5D5
100
AcDbEntity
  8
0
100
AcDbPolyline
 62
7
  6
CONTINUOUS
 90
6
 70
0
 10
29.4481046394
 20
8.0546766059
 10
29.4855808785
 20
7.9964340432
 10
29.5356828948
 20
7.9430537791
 10
29.5971827779
 20
7.8958695938
 10
29.6685732758
 20
7.8560634125
 10
29.7481047354
 20
7.8246363389
  0
LWPOLYLINE
  5
5D6
100
AcDbEntity
  8
0
100
AcDbPolyline
 62
7
  6
CONTINUOUS
 90
4
 70
0
 10
29.4481046394
 20
8.0911454989
 10
29.4855808785
 20
8.0329029362
 10
29.5356828948
 20
7.9795226722
 10
29.5971827779
 20
7.9323384869
  0
LWPOLYLINE
  5
5D7
100
AcDbEntity
  8
0
100
AcDbPolyline
 62
7
  6
CONTINUOUS
 90
4
 70
0
 10
29.4658712892
 20
8.1052922723
 10
29.4855808785
 20
8.0746612107
 10
29.5356828948
 20
8.0212809467
 10
29.5971827779
 20
7.9740967614
  0
LWPOLYLINE
  5
5D8
100
AcDbEntity
  8
0
100
AcDbPolyline
 62
7
  6
CONTINUOUS
 90
4
 70
0
 10
29.4716331127
 20
8.1016270902
 10
29.4855808785
 20
8.0799505922
 10
29.5356828948
 20
8.0265703281
 10
29.5971827779
 20
7.9793861428
  0
LINE
  5
5D9
100
AcDbEntity
  8
0
100
AcDbLine
 62
7
  6
CONTINUOUS
 10
29.1318738953
 20
8.5454683472
 11
29.0609352479
 21
8.6639788622
  0
LWPOLYLINE
  5
5DA
100
AcDbEntity
  8
AXIS
100
AcDbPolyline
 62
7
  6
CONTINUOUS
 90
11
 70
0
 10
29.5076359215
 20
9.4044933242
 10
29.6729710504
 20
9.3507063778
 10
29.8494681674
 20
9.3193173373
 10
30.0311168749
 20
9.3113951189
 10
30.2117313441
 20
9.3272095041
 10
30.3851609658
 20
9.3662219531
 10
30.5454998023
 20
9.4271039437
 10
30.6872877068
 20
9.5077822127
 10
30.8056962622
 20
9.6055093585
 10
30.8966932073
 20
9.7169574003
 10
30.9571797502
 20
9.8383311086
  0
LWPOLYLINE
  5
5DB
100
AcDbEntity
  8
AXIS
100
AcDbPolyline
 62
7
  6
CONTINUOUS
 90
6
 70
0
 10
29.5076359215
 20
9.4044933242
 10
29.3590930703
 20
9.4788465266
 10
29.2324009455
 20
9.5712339758
 10
29.1318738953
 20
9.678509528
 10
29.0609352479
 20
9.7970200431
 10
29.0220007338
 20
9.9227297874
  0
LWPOLYLINE
  5
5DC
100
AcDbEntity
  8
AXIS
100
AcDbPolyline
 62
7
  6
CONTINUOUS
 90
3
 70
0
 10
29.4890818257
 20
13.9269128
 10
29.4890015809
 20
13.9267343707
 10
29.4892613923
 20
13.9231395103
  0
LWPOLYLINE
  5
5DD
100
AcDbEntity
  8
AXIS
100
AcDbPolyline
 62
7
  6
CONTINUOUS
 90
11
 70
0
 10
29.5076359215
 20
9.7803177945
 10
29.6729710504
 20
9.7265308481
 10
29.8494681674
 20
9.6951418076
 10
30.0311168749
 20
9.6872195892
 10
30.2117313441
 20
9.7030339744
 10
30.3851609658
 20
9.7420464234
 10
30.5454998023
 20
9.802928414
 10
30.6872877068
 20
9.883606683
 10
30.8056962622
 20
9.9813338288
 10
30.8966932073
 20
10.0927818706
 10
30.9571797502
 20
10.214155579
  0
LWPOLYLINE
  5
5DE
100
AcDbEntity
  8
AXIS
100
AcDbPolyline
 62
7
  6
CONTINUOUS
 90
6
 70
0
 10
29.5076359215
 20
9.7803177945
 10
29.3590930703
 20
9.8546709969
 10
29.2324009455
 20
9.9470584461
 10
29.1318738953
 20
10.0543339984
 10
29.0609352479
 20
10.1728445134
 10
29.0220007338
 20
10.2985542578
  0
LINE
  5
5DF
100
AcDbEntity
  8
0
100
AcDbLine
 62
7
  6
CONTINUOUS
 10
29.4349870085
 20
8.1249382254
 11
29.4481046394
 21
8.0911454989
  0
LWPOLYLINE
  5
5E0
100
AcDbEntity
  8
0
100
AcDbPolyline
 62
7
  6
CONTINUOUS
 90
5
 70
0
 10
29.4377134722
 20
8.1232038811
 10
29.4481046394
 20
8.0964348804
 10
29.4855808785
 20
8.0381923177
 10
29.5356828948
 20
7.9848120536
 10
29.5971827779
 20
7.9376278683
  0
LWPOLYLINE
  5
5E1
100
AcDbEntity
  8
AXIS
100
AcDbPolyline
 62
7
  6
CONTINUOUS
 90
7
 70
0
 10
29.1394816985
 20
8.4934401795
 10
29.1516254365
 20
8.4575303036
 10
29.1838873986
 20
8.3936596229
 10
29.2257262829
 20
8.3326298365
 10
29.2766515665
 20
8.2751564628
 10
29.3360661972
 20
8.2219133245
 10
29.4032735927
 20
8.1735246487
  0
LINE
  5
5E2
100
AcDbEntity
  8
0
100
AcDbLine
 62
7
  6
CONTINUOUS
 10
29.0609352479
 20
8.6639788622
 11
29.0220007338
 21
8.7896886066
  0
LINE
  5
5E3
100
AcDbEntity
  8
0
100
AcDbLine
 62
7
  6
CONTINUOUS
 10
29.0220007338
 20
8.7896886066
 11
29.0145256853
 21
8.8753863762
  0
LWPOLYLINE
  5
5E4
100
AcDbEntity
  8
0
100
AcDbPolyline
 62
7
  6
CONTINUOUS
 90
14
 70
0
 10
30.8308558485
 20
14.460347069
 10
30.8531333662
 20
14.4863065238
 10
30.8737883164
 20
14.5129283889
 10
30.8927813812
 20
14.5401619882
 10
30.9100764063
 20
14.567955481
 10
30.9256404695
 20
14.5962559607
 10
30.9394439439
 20
14.6250095559
 10
30.9514605537
 20
14.6541615323
 10
30.9616674246
 20
14.6836563976
 10
30.9700451272
 20
14.7134380067
 10
30.9765777142
 20
14.7434496684
 10
30.9812527503
 20
14.773634254
 10
30.9840613365
 20
14.8039343053
 10
30.9849981262
 20
14.8342921444
  0
LINE
  5
5E5
100
AcDbEntity
  8
0
100
AcDbLine
 62
7
  6
CONTINUOUS
 10
29.0220007338
 20
9.1655130769
 11
29.0145256853
 21
9.2512108465
  0
LINE
  5
5E6
100
AcDbEntity
  8
AXIS
100
AcDbLine
 62
7
  6
CONTINUOUS
 10
29.0220007338
 20
9.9227297874
 11
29.0145256853
 21
10.0084275571
  0
LINE
  5
5E7
100
AcDbEntity
  8
AXIS
100
AcDbLine
 62
7
  6
CONTINUOUS
 10
29.0220007338
 20
10.2985542578
 11
29.0145256853
 21
10.3842520274
  0
LINE
  5
5E8
100
AcDbEntity
  8
AXIS
100
AcDbLine
 62
7
  6
CONTINUOUS
 10
29.0220007338
 20
11.0557709683
 11
29.0145256853
 21
11.141468738
  0
LINE
  5
5E9
100
AcDbEntity
  8
AXIS
100
AcDbLine
 62
7
  6
CONTINUOUS
 10
29.0220007338
 20
11.4315954386
 11
29.0145256853
 21
11.5172932083
  0
LINE
  5
5EA
100
AcDbEntity
  8
AXIS
100
AcDbLine
 62
7
  6
CONTINUOUS
 10
29.0220007338
 20
12.1888121492
 11
29.0145256853
 21
12.2745099188
  0
LINE
  5
5EB
100
AcDbEntity
  8
AXIS
100
AcDbLine
 62
7
  6
CONTINUOUS
 10
29.0220007338
 20
12.5646366195
 11
29.0145256853
 21
12.6503343891
  0
LINE
  5
5EC
100
AcDbEntity
  8
0
100
AcDbLine
 62
7
  6
CONTINUOUS
 10
29.0077820723
 20
8.8409023136
 11
29.0066516695
 21
8.8744148227
  0
LWPOLYLINE
  5
5ED
100
AcDbEntity
  8
0
100
AcDbPolyline
 62
7
  6
CONTINUOUS
 90
25
 70
0
 10
29.0164941892
 20
14.8342921444
 10
29.017430979
 20
14.8039343053
 10
29.0202395651
 20
14.773634254
 10
29.0249146013
 20
14.7434496684
 10
29.0314471882
 20
14.7134380067
 10
29.0398248909
 20
14.6836563976
 10
29.0500317618
 20
14.6541615323
 10
29.0620483716
 20
14.6250095559
 10
29.0758518459
 20
14.5962559607
 10
29.0914159092
 20
14.567955481
 10
29.1087109343
 20
14.5401619882
 10
29.1277039991
 20
14.5129283889
 10
29.1483589493
 20
14.4863065238
 10
29.170636467
 20
14.460347069
 10
29.1944941456
 20
14.43509944
 10
29.2198865708
 20
14.410611697
 10
29.2467654066
 20
14.3869304538
 10
29.2750794877
 20
14.364100789
 10
29.3047749164
 20
14.3421661602
 10
29.335795166
 20
14.3211683211
 10
29.3680811876
 20
14.3011472424
 10
29.4015715229
 20
14.2821410354
 10
29.4362024212
 20
14.2641858793
 10
29.4719079605
 20
14.247315953
 10
29.5086201735
 20
14.2315633691
  0
LWPOLYLINE
  5
5EE
100
AcDbEntity
  8
AXIS
100
AcDbPolyline
 62
7
  6
CONTINUOUS
 90
6
 70
0
 10
29.0066536102
 20
8.843371699
 10
29.0072188095
 20
8.8196308093
 10
29.0157129719
 20
8.7486788425
 10
29.0343149077
 20
8.6786985525
 10
29.062833736
 20
8.6104080318
 10
29.1009768149
 20
8.5445080336
  0
LINE
  5
5EF
100
AcDbEntity
  8
AXIS
100
AcDbLine
 62
7
  6
CONTINUOUS
 10
29.0066516695
 20
8.8744148227
 11
29.0066516695
 21
8.8433716991
  0
LINE
  5
5F0
100
AcDbEntity
  8
0
100
AcDbLine
 62
7
  6
CONTINUOUS
 10
29.0145256853
 20
8.8753863762
 11
29.0145256853
 21
9.2512108465
  0
LINE
  5
5F1
100
AcDbEntity
  8
AXIS
100
AcDbLine
 62
7
  6
CONTINUOUS
 10
29.0145256853
 20
10.0084275571
 11
29.0145256853
 21
10.3842520274
  0
LINE
  5
5F2
100
AcDbEntity
  8
AXIS
100
AcDbLine
 62
7
  6
CONTINUOUS
 10
29.0145256853
 20
11.141468738
 11
29.0145256853
 21
11.5172932083
  0
LINE
  5
5F3
100
AcDbEntity
  8
AXIS
100
AcDbLine
 62
7
  6
CONTINUOUS
 10
29.0145256853
 20
12.2745099188
 11
29.0145256853
 21
12.6503343891
  0
LINE
  5
5F4
100
AcDbEntity
  8
AXIS
100
AcDbLine
 62
7
  6
CONTINUOUS
 10
29.0145256853
 20
13.4075510997
 11
29.0145256853
 21
13.78337557
  0
LINE
  5
5F5
100
AcDbEntity
  8
AXIS
100
AcDbLine
 62
7
  6
CONTINUOUS
 10
29.0164941892
 20
9.2286429132
 11
29.0164941892
 21
9.9858596237
  0
LINE
  5
5F6
100
AcDbEntity
  8
AXIS
100
AcDbLine
 62
7
  6
CONTINUOUS
 10
29.0164941892
 20
10.3616840941
 11
29.0164941892
 21
11.1189008046
  0
LINE
  5
5F7
100
AcDbEntity
  8
AXIS
100
AcDbLine
 62
7
  6
CONTINUOUS
 10
29.0164941892
 20
11.4947252749
 11
29.0164941892
 21
12.2519419855
  0
LINE
  5
5F8
100
AcDbEntity
  8
AXIS
100
AcDbLine
 62
7
  6
CONTINUOUS
 10
29.0164941892
 20
12.6277664558
 11
29.0164941892
 21
13.3849831664
  0
LINE
  5
5F9
100
AcDbEntity
  8
AXIS
100
AcDbLine
 62
7
  6
CONTINUOUS
 10
29.0164941892
 20
13.7608076367
 11
29.0164941892
 21
14.8342921444
  0
LWPOLYLINE
  5
5FA
100
AcDbEntity
  8
0
100
AcDbPolyline
 62
7
  6
CONTINUOUS
 90
48
 70
0
 10
29.0164941892
 20
14.8342921444
 10
29.0174099903
 20
14.8657726371
 10
29.020159828
 20
14.897226767
 10
29.0247453984
 20
14.9285959273
 10
29.0311783671
 20
14.9598748807
 10
29.0394529644
 20
14.9909646783
 10
29.0495627815
 20
15.02179904
 10
29.0615342115
 20
15.0524001152
 10
29.0753483263
 20
15.0826597178
 10
29.0909740433
 20
15.1124757344
 10
29.1084403922
 20
15.1418653763
 10
29.1277098598
 20
15.1707244095
 10
29.1487147693
 20
15.1989313381
 10
29.1714806878
 20
15.226500156
 10
29.1959438168
 20
15.2533303876
 10
29.2220043538
 20
15.2793059966
 10
29.2496848479
 20
15.3044424005
 10
29.2788876137
 20
15.3286416562
 10
29.3094986336
 20
15.3518129048
 10
29.341542359
 20
15.3739755162
 10
29.3748867177
 20
15.3950373952
 10
29.4094213852
 20
15.4149379294
 10
29.4451738302
 20
15.4336971736
 10
29.4819840183
 20
15.4512342944
 10
29.5197554388
 20
15.4675139686
 10
29.5585137274
 20
15.4825519832
 10
29.598082542
 20
15.496284029
 10
29.6383897401
 20
15.5086943937
 10
29.6794236968
 20
15.5197839011
 10
29.7210333899
 20
15.5295158171
 10
29.763154358
 20
15.5378816251
 10
29.8057395633
 20
15.544875333
 10
29.848668236
 20
15.5504802147
 10
29.8918734303
 20
15.5546913654
 10
29.9352855462
 20
15.5575039686
 10
29.9788089133
 20
15.5589133526
 10
30.022366182
 20
15.5589184669
 10
30.0658799736
 20
15.5575197971
 10
30.1092729562
 20
15.55471937
 10
30.1524498477
 20
15.5505228052
 10
30.1953409456
 20
15.5449359291
 10
30.2378801038
 20
15.5379645589
 10
30.2799478514
 20
15.5296261608
 10
30.3214960177
 20
15.5199280014
 10
30.3624607685
 20
15.5088796236
 10
30.4026930846
 20
15.4965183151
 10
30.4421813958
 20
15.4828444309
 10
30.4808607712
 20
15.4678720678
  0
LWPOLYLINE
  5
5FB
100
AcDbEntity
  8
AXIS
100
AcDbPolyline
 62
7
  6
CONTINUOUS
 90
3
 70
0
 10
29.0145256853
 20
13.78337557
 10
29.0163962213
 20
13.8263058795
 10
29.0164941892
 20
13.8267521486
  0
LWPOLYLINE
  5
5FC
100
AcDbEntity
  8
AXIS
100
AcDbPolyline
 62
7
  6
CONTINUOUS
 90
3
 70
0
 10
29.0145256853
 20
12.6503343891
 10
29.0163962213
 20
12.6932646986
 10
29.0164941892
 20
12.6937109677
  0
LWPOLYLINE
  5
5FD
100
AcDbEntity
  8
AXIS
100
AcDbPolyline
 62
7
  6
CONTINUOUS
 90
3
 70
0
 10
29.0145256853
 20
11.5172932083
 10
29.0163962213
 20
11.5602235178
 10
29.0164941892
 20
11.5606697868
  0
LWPOLYLINE
  5
5FE
100
AcDbEntity
  8
AXIS
100
AcDbPolyline
 62
7
  6
CONTINUOUS
 90
3
 70
0
 10
29.0145256853
 20
10.3842520274
 10
29.0163962213
 20
10.4271823369
 10
29.0164941892
 20
10.4276286059
  0
LWPOLYLINE
  5
5FF
100
AcDbEntity
  8
0
100
AcDbPolyline
 62
7
  6
CONTINUOUS
 90
3
 70
0
 10
29.0145256853
 20
9.2512108465
 10
29.0163962213
 20
9.294141156
 10
29.0164941892
 20
9.2945874251
  0
LWPOLYLINE
  5
600
100
AcDbEntity
  8
AXIS
100
AcDbPolyline
 62
7
  6
CONTINUOUS
 90
4
 70
0
 10
29.5086201735
 20
13.8466506736
 10
29.5143137539
 20
13.8706582345
 10
29.5200289469
 20
13.8946923631
 10
29.5257654904
 20
13.9187528359
  0
LINE
  5
601
100
AcDbEntity
  8
AXIS
100
AcDbLine
 62
7
  6
CONTINUOUS
 10
29.5086201735
 20
14.0042770039
 11
29.4892435662
 21
13.9277903931
  0
LINE
  5
602
100
AcDbEntity
  8
0
100
AcDbLine
 62
7
  6
CONTINUOUS
 10
30.8531333662
 20
14.1803348092
 11
30.9256365249
 21
14.2902765827
  0
LWPOLYLINE
  5
603
100
AcDbEntity
  8
AXIS
100
AcDbPolyline
 62
7
  6
CONTINUOUS
 90
11
 70
0
 10
29.5076359215
 20
10.5375345051
 10
29.6729710504
 20
10.4837475587
 10
29.8494681674
 20
10.4523585182
 10
30.0311168749
 20
10.4444362998
 10
30.2117313441
 20
10.460250685
 10
30.3851609658
 20
10.499263134
 10
30.5454998023
 20
10.5601451246
 10
30.6872877068
 20
10.6408233936
 10
30.8056962622
 20
10.7385505394
 10
30.8966932073
 20
10.8499985811
 10
30.9571797502
 20
10.9713722895
  0
LWPOLYLINE
  5
604
100
AcDbEntity
  8
AXIS
100
AcDbPolyline
 62
7
  6
CONTINUOUS
 90
6
 70
0
 10
29.5076359215
 20
10.5375345051
 10
29.3590930703
 20
10.6118877075
 10
29.2324009455
 20
10.7042751567
 10
29.1318738953
 20
10.8115507089
 10
29.0609352479
 20
10.930061224
 10
29.0220007338
 20
11.0557709683
  0
LWPOLYLINE
  5
605
100
AcDbEntity
  8
0
100
AcDbPolyline
 62
7
  6
CONTINUOUS
 90
3
 70
0
 10
29.4156534035
 20
8.0827385965
 10
29.4241726531
 20
8.0275225906
 10
29.4481046394
 20
7.9658706755
  0
LWPOLYLINE
  5
606
100
AcDbEntity
  8
0
100
AcDbPolyline
 62
7
  6
CONTINUOUS
 90
3
 70
0
 10
29.4143714495
 20
8.096336736
 10
29.4241726531
 20
8.032811972
 10
29.4481046394
 20
7.9711600569
  0
LWPOLYLINE
  5
607
100
AcDbEntity
  8
0
100
AcDbPolyline
 62
7
  6
CONTINUOUS
 90
3
 70
0
 10
29.4156534035
 20
8.124496871
 10
29.4241726531
 20
8.069280865
 10
29.4481046394
 20
8.00762895
  0
LWPOLYLINE
  5
608
100
AcDbEntity
  8
0
100
AcDbPolyline
 62
7
  6
CONTINUOUS
 90
3
 70
0
 10
29.4143787921
 20
8.1380474202
 10
29.4241726531
 20
8.0745702465
 10
29.4481046394
 20
8.0129183314
  0
LWPOLYLINE
  5
609
100
AcDbEntity
  8
0
100
AcDbPolyline
 62
7
  6
CONTINUOUS
 90
3
 70
0
 10
29.4206179019
 20
8.1340786291
 10
29.4241726531
 20
8.1110391395
 10
29.4481046394
 20
8.0493872245
  0
LWPOLYLINE
  5
60A
100
AcDbEntity
  8
0
100
AcDbPolyline
 62
7
  6
CONTINUOUS
 90
3
 70
0
 10
29.4215228109
 20
8.1335030029
 10
29.4241726531
 20
8.116328521
 10
29.4481046394
 20
8.0546766059
  0
LINE
  5
60B
100
AcDbEntity
  8
AXIS
100
AcDbLine
 62
7
  6
CONTINUOUS
 10
29.0220007338
 20
13.3218533301
 11
29.0145256853
 21
13.4075510997
  0
LINE
  5
60C
100
AcDbEntity
  8
AXIS
100
AcDbLine
 62
7
  6
CONTINUOUS
 10
29.0220007338
 20
13.6976778004
 11
29.0145256853
 21
13.78337557
  0
LINE
  5
60D
100
AcDbEntity
  8
0
100
AcDbLine
 62
7
  6
CONTINUOUS
 10
29.1150185829
 20
14.8945155696
 11
29.1165052231
 21
14.8664256941
  0
LWPOLYLINE
  5
60E
100
AcDbEntity
  8
0
100
AcDbPolyline
 62
7
  6
CONTINUOUS
 90
7
 70
0
 10
29.4141319845
 20
8.0609501184
 10
29.4143714495
 20
8.0492890801
 10
29.4241726531
 20
7.9857643161
 10
29.4481046394
 20
7.924112401
 10
29.4855808785
 20
7.8658698383
 10
29.5356828948
 20
7.8124895743
 10
29.5971827779
 20
7.765305389
  0
LWPOLYLINE
  5
60F
100
AcDbEntity
  8
0
100
AcDbPolyline
 62
7
  6
CONTINUOUS
 90
6
 70
0
 10
29.4141319845
 20
8.0662394998
 10
29.4143714495
 20
8.0545784615
 10
29.4241726531
 20
7.9910536975
 10
29.4481046394
 20
7.9294017825
 10
29.4855808785
 20
7.8711592198
 10
29.5356828948
 20
7.8177789557
  0
LINE
  5
610
100
AcDbEntity
  8
0
100
AcDbLine
 62
7
  6
CONTINUOUS
 10
29.4141319845
 20
8.1079977743
 11
29.4143714495
 21
8.096336736
  0
LWPOLYLINE
  5
611
100
AcDbEntity
  8
0
100
AcDbPolyline
 62
7
  6
CONTINUOUS
 90
3
 70
0
 10
29.0066516695
 20
8.8744148227
 10
29.0111447899
 20
8.9411717855
 10
29.0145256853
 20
8.955395758
  0
LWPOLYLINE
  5
612
100
AcDbEntity
  8
AXIS
100
AcDbPolyline
 62
7
  6
CONTINUOUS
 90
6
 70
0
 10
29.5076359215
 20
10.9133589754
 10
29.3590930703
 20
10.9877121778
 10
29.2324009455
 20
11.080099627
 10
29.1318738953
 20
11.1873751792
 10
29.0609352479
 20
11.3058856943
 10
29.0220007338
 20
11.4315954386
  0
LWPOLYLINE
  5
613
100
AcDbEntity
  8
AXIS
100
AcDbPolyline
 62
7
  6
CONTINUOUS
 90
7
 70
0
 10
29.0164941892
 20
14.5283204298
 10
29.0299644639
 20
14.41357105
 10
29.0721657817
 20
14.2975711906
 10
29.14186995
 20
14.1884060308
 10
29.2370126273
 20
14.0893084528
 10
29.3547758939
 20
14.0032136046
 10
29.4906177193
 20
13.9332146817
  0
LINE
  5
614
100
AcDbEntity
  8
0
100
AcDbLine
 62
7
  6
CONTINUOUS
 10
29.4156534035
 20
8.124496871
 11
29.4141319845
 21
8.1079977743
  0
LINE
  5
615
100
AcDbEntity
  8
0
100
AcDbLine
 62
7
  6
CONTINUOUS
 10
29.4156534035
 20
8.0827385965
 11
29.4141319845
 21
8.0662394998
  0
LWPOLYLINE
  5
616
100
AcDbEntity
  8
0
100
AcDbPolyline
 62
7
  6
CONTINUOUS
 90
3
 70
0
 10
30.8472187408
 20
14.7192636535
 10
30.8580807129
 20
14.7463035303
 10
30.8672160914
 20
14.7736607703
  0
LWPOLYLINE
  5
617
100
AcDbEntity
  8
AXIS
100
AcDbPolyline
 62
7
  6
CONTINUOUS
 90
11
 70
0
 10
29.5076359215
 20
10.9133589754
 10
29.6729710504
 20
10.859572029
 10
29.8494681674
 20
10.8281829885
 10
30.0311168749
 20
10.8202607701
 10
30.2117313441
 20
10.8360751553
 10
30.3851609658
 20
10.8750876043
 10
30.5454998023
 20
10.9359695949
 10
30.6872877068
 20
11.0166478639
 10
30.8056962622
 20
11.1143750097
 10
30.8966932073
 20
11.2258230515
 10
30.9571797502
 20
11.3471967598
  0
LINE
  5
618
100
AcDbEntity
  8
0
100
AcDbLine
 62
7
  6
CONTINUOUS
 10
29.1165052231
 20
14.8664256941
 11
29.119772644
 21
14.8384112668
  0
LINE
  5
619
100
AcDbEntity
  8
02___PRT_ALL_AXES
100
AcDbLine
 62
7
  6
CONTINUOUS
 10
29.8932461577
 20
7.6471231847
 11
29.8932461577
 21
6.9700955059
  0
LINE
  5
61A
100
AcDbEntity
  8
0
100
AcDbLine
 62
7
  6
CONTINUOUS
 10
30.8672160914
 20
14.7736607703
 11
30.8746064783
 21
14.8012802787
  0
LINE
  5
61B
100
AcDbEntity
  8
0
100
AcDbLine
 62
7
  6
CONTINUOUS
 10
30.9256365249
 20
14.2902765827
 11
30.9700424894
 21
14.4074557143
  0
LWPOLYLINE
  5
61C
100
AcDbEntity
  8
0
100
AcDbPolyline
 62
7
  6
CONTINUOUS
 90
4
 70
0
 10
29.1248142653
 20
14.8105287063
 10
29.1316199336
 20
14.7828341654
 10
29.1401759431
 20
14.7553834185
 10
29.1504650625
 20
14.7282317489
  0
LINE
  5
61D
100
AcDbEntity
  8
0
100
AcDbLine
 62
7
  6
CONTINUOUS
 10
29.119772644
 20
14.8384112668
 11
29.1248142653
 21
14.8105287063
  0
LINE
  5
61E
100
AcDbEntity
  8
02___PRT_ALL_AXES
100
AcDbLine
 62
7
  6
CONTINUOUS
 10
30.1082461577
 20
7.6468847051
 11
30.1082461577
 21
6.9700955059
  0
LINE
  5
61F
100
AcDbEntity
  8
0
100
AcDbLine
 62
7
  6
CONTINUOUS
 10
30.8746064783
 20
14.8012802787
 11
30.8802369901
 21
14.8291064323
  0
LWPOLYLINE
  5
620
100
AcDbEntity
  8
AXIS
100
AcDbPolyline
 62
7
  6
CONTINUOUS
 90
11
 70
0
 10
29.5076359215
 20
11.670575686
 10
29.6729710504
 20
11.6167887396
 10
29.8494681674
 20
11.5853996991
 10
30.0311168749
 20
11.5774774806
 10
30.2117313441
 20
11.5932918659
 10
30.3851609658
 20
11.6323043148
 10
30.5454998023
 20
11.6931863054
 10
30.6872877068
 20
11.7738645745
 10
30.8056962622
 20
11.8715917202
 10
30.8966932073
 20
11.983039762
 10
30.9571797502
 20
12.1044134704
  0
LWPOLYLINE
  5
621
100
AcDbEntity
  8
AXIS
100
AcDbPolyline
 62
7
  6
CONTINUOUS
 90
6
 70
0
 10
29.5076359215
 20
11.670575686
 10
29.3590930703
 20
11.7449288884
 10
29.2324009455
 20
11.8373163375
 10
29.1318738953
 20
11.9445918898
 10
29.0609352479
 20
12.0631024048
 10
29.0220007338
 20
12.1888121492
  0
LINE
  5
622
100
AcDbEntity
  8
AXIS
100
AcDbLine
 62
7
  6
CONTINUOUS
 10
29.5086201735
 20
13.8466506736
 11
29.4892435662
 21
13.9231372844
  0
LWPOLYLINE
  5
623
100
AcDbEntity
  8
0
100
AcDbPolyline
 62
7
  6
CONTINUOUS
 90
4
 70
0
 10
29.5257654904
 20
13.9184972043
 10
29.5200289618
 20
13.9470628873
 10
29.5143137834
 20
13.9756562248
 10
29.5086201735
 20
14.0042770039
  0
LWPOLYLINE
  5
624
100
AcDbEntity
  8
0
100
AcDbPolyline
 62
7
  6
CONTINUOUS
 90
3
 70
0
 10
30.587360331
 20
8.0871186371
 10
30.587120866
 20
8.099159486
 10
30.5859054801
 20
8.1072950964
  0
LINE
  5
625
100
AcDbEntity
  8
0
100
AcDbLine
 62
7
  6
CONTINUOUS
 10
30.587360331
 20
8.1288769115
 11
30.5871766699
 21
8.1381118131
  0
LINE
  5
626
100
AcDbEntity
  8
0
100
AcDbLine
 62
7
  6
CONTINUOUS
 10
30.3565671679
 20
7.7459427385
 11
30.3565671679
 21
7.7512321199
  0
LINE
  5
627
100
AcDbEntity
  8
0
100
AcDbLine
 62
7
  6
CONTINUOUS
 10
30.3565671679
 20
7.787701013
 11
30.3565671679
 21
7.7929903944
  0
LINE
  5
628
100
AcDbEntity
  8
0
100
AcDbLine
 62
7
  6
CONTINUOUS
 10
30.3565671679
 20
7.8294592875
 11
30.3565671679
 21
7.8347486689
  0
LINE
  5
629
100
AcDbEntity
  8
0
100
AcDbLine
 62
7
  6
CONTINUOUS
 10
30.3565671679
 20
7.8712175619
 11
30.3565671679
 21
7.8765069434
  0
LINE
  5
62A
100
AcDbEntity
  8
0
100
AcDbLine
 62
7
  6
CONTINUOUS
 10
30.3565671679
 20
7.9129758364
 11
30.3565671679
 21
7.9182652179
  0
LINE
  5
62B
100
AcDbEntity
  8
0
100
AcDbLine
 62
7
  6
CONTINUOUS
 10
30.3565671679
 20
7.9547341109
 11
30.3565671679
 21
7.9600234923
  0
LINE
  5
62C
100
AcDbEntity
  8
0
100
AcDbLine
 62
7
  6
CONTINUOUS
 10
30.3565671679
 20
7.9964923854
 11
30.3565671679
 21
8.0017817668
  0
LINE
  5
62D
100
AcDbEntity
  8
0
100
AcDbLine
 62
7
  6
CONTINUOUS
 10
30.4003189918
 20
7.7689764292
 11
30.4003189918
 21
7.7892345483
  0
LINE
  5
62E
100
AcDbEntity
  8
0
100
AcDbLine
 62
7
  6
CONTINUOUS
 10
30.4177104327
 20
8.0165239137
 11
30.4177104327
 21
8.0089860019
  0
LINE
  5
62F
100
AcDbEntity
  8
0
100
AcDbLine
 62
7
  6
CONTINUOUS
 10
30.4177104327
 20
7.9747656393
 11
30.4177104327
 21
7.9672277274
  0
LINE
  5
630
100
AcDbEntity
  8
0
100
AcDbLine
 62
7
  6
CONTINUOUS
 10
30.4177104327
 20
7.9330073648
 11
30.4177104327
 21
7.9254694529
  0
LINE
  5
631
100
AcDbEntity
  8
0
100
AcDbLine
 62
7
  6
CONTINUOUS
 10
30.4177104327
 20
7.8912490903
 11
30.4177104327
 21
7.8837111785
  0
LINE
  5
632
100
AcDbEntity
  8
0
100
AcDbLine
 62
7
  6
CONTINUOUS
 10
30.4177104327
 20
7.8494908158
 11
30.4177104327
 21
7.841952904
  0
LINE
  5
633
100
AcDbEntity
  8
0
100
AcDbLine
 62
7
  6
CONTINUOUS
 10
30.4280918499
 20
7.7952580809
 11
30.4280918499
 21
7.819254979
  0
LINE
  5
634
100
AcDbEntity
  8
0
100
AcDbLine
 62
7
  6
CONTINUOUS
 10
30.5110263949
 20
7.9228493078
 11
30.5110263949
 21
7.8968317396
  0
LINE
  5
635
100
AcDbEntity
  8
0
100
AcDbLine
 62
7
  6
CONTINUOUS
 10
30.5214078121
 20
7.9714714562
 11
30.5214078121
 21
7.979009368
  0
LINE
  5
636
100
AcDbEntity
  8
0
100
AcDbLine
 62
7
  6
CONTINUOUS
 10
30.5214078121
 20
8.0132297307
 11
30.5214078121
 21
8.0207676425
  0
LINE
  5
637
100
AcDbEntity
  8
0
100
AcDbLine
 62
7
  6
CONTINUOUS
 10
30.5214078121
 20
8.0549880052
 11
30.5214078121
 21
8.062525917
  0
LINE
  5
638
100
AcDbEntity
  8
0
100
AcDbLine
 62
7
  6
CONTINUOUS
 10
30.529328284
 20
7.9485822172
 11
30.529328284
 21
7.9269798982
  0
LINE
  5
639
100
AcDbEntity
  8
0
100
AcDbLine
 62
7
  6
CONTINUOUS
 10
30.5825510769
 20
8.116777808
 11
30.5825510769
 21
8.1114884266
  0
LINE
  5
63A
100
AcDbEntity
  8
0
100
AcDbLine
 62
7
  6
CONTINUOUS
 10
30.5825510769
 20
8.0750195335
 11
30.5825510769
 21
8.0697301521
  0
LINE
  5
63B
100
AcDbEntity
  8
0
100
AcDbLine
 62
7
  6
CONTINUOUS
 10
30.5825510769
 20
8.033261259
 11
30.5825510769
 21
8.0279718776
  0
LWPOLYLINE
  5
63C
100
AcDbEntity
  8
02___PRT_ALL_AXES
100
AcDbPolyline
 62
7
  6
CONTINUOUS
 90
16
 70
0
 10
30.1082453309
 20
6.970095506
 10
30.1077593894
 20
6.9628699179
 10
30.1052159013
 20
6.9521745312
 10
30.1005457105
 20
6.9418439639
 10
30.0938438886
 20
6.9320885165
 10
30.0852468654
 20
6.9231067818
 10
30.0749296515
 20
6.915081602
 10
30.0631022755
 20
6.9081763466
 10
30.0500055088
 20
6.9025315868
 10
30.0359059638
 20
6.8982622336
 10
30.0210906665
 20
6.8954551986
 10
30.0058612137
 20
6.894167625
 10
29.9905276331
 20
6.8944257241
 10
29.9754020722
 20
6.8962242418
 10
29.9607924438
 20
6.8995265654
 10
29.9469961577
 20
6.9042654691
  0
LINE
  5
63D
100
AcDbEntity
  8
0
100
AcDbLine
 62
7
  6
CONTINUOUS
 10
30.8840962875
 20
14.8570831917
 11
30.8861765982
 21
14.8851542143
  0
LINE
  5
63E
100
AcDbEntity
  8
0
100
AcDbLine
 62
7
  6
CONTINUOUS
 10
30.9700424894
 20
14.4074557143
 11
30.9849981262
 21
14.5283204298
  0
LINE
  5
63F
100
AcDbEntity
  8
0
100
AcDbLine
 62
7
  6
CONTINUOUS
 10
30.8802369901
 20
14.8291064323
 11
30.8840962875
 21
14.8570831917
  0
LWPOLYLINE
  5
640
100
AcDbEntity
  8
AXIS
100
AcDbPolyline
 62
7
  6
CONTINUOUS
 90
3
 70
0
 10
30.9571797502
 20
13.6132791216
 10
30.9850960941
 20
13.7404452605
 10
30.9869666302
 20
13.78337557
  0
LWPOLYLINE
  5
641
100
AcDbEntity
  8
AXIS
100
AcDbPolyline
 62
7
  6
CONTINUOUS
 90
3
 70
0
 10
30.9571797502
 20
13.2374546513
 10
30.9850960941
 20
13.3646207902
 10
30.9869666302
 20
13.4075510997
  0
LWPOLYLINE
  5
642
100
AcDbEntity
  8
AXIS
100
AcDbPolyline
 62
7
  6
CONTINUOUS
 90
11
 70
0
 10
29.5076359215
 20
12.0464001563
 10
29.6729710504
 20
11.9926132099
 10
29.8494681674
 20
11.9612241694
 10
30.0311168749
 20
11.9533019509
 10
30.2117313441
 20
11.9691163362
 10
30.3851609658
 20
12.0081287852
 10
30.5454998023
 20
12.0690107758
 10
30.6872877068
 20
12.1496890448
 10
30.8056962622
 20
12.2474161906
 10
30.8966932073
 20
12.3588642323
 10
30.9571797502
 20
12.4802379407
  0
LWPOLYLINE
  5
643
100
AcDbEntity
  8
AXIS
100
AcDbPolyline
 62
7
  6
CONTINUOUS
 90
6
 70
0
 10
29.5076359215
 20
12.0464001563
 10
29.3590930703
 20
12.1207533587
 10
29.2324009455
 20
12.2131408079
 10
29.1318738953
 20
12.3204163601
 10
29.0609352479
 20
12.4389268751
 10
29.0220007338
 20
12.5646366195
  0
LWPOLYLINE
  5
644
100
AcDbEntity
  8
0
100
AcDbPolyline
 62
7
  6
CONTINUOUS
 90
18
 70
0
 10
29.1504650625
 20
14.7282317489
 10
29.1624665706
 20
14.7014338375
 10
29.1761562974
 20
14.6750436529
 10
29.1915066731
 20
14.6491143425
 10
29.2084867834
 20
14.6236981256
 10
29.227062432
 20
14.5988461881
 10
29.2471962091
 20
14.5746085796
 10
29.268847567
 20
14.5510341125
 10
29.2919729024
 20
14.5281702633
 10
29.3165256415
 20
14.5060630788
 10
29.3424563417
 20
14.4847570773
 10
29.3697127668
 20
14.464295178
 10
29.3982400707
 20
14.4447185571
 10
29.4279806567
 20
14.4260667334
 10
29.4588750822
 20
14.4083770049
 10
29.4908597133
 20
14.3916857528
 10
29.5238730139
 20
14.3760251411
 10
29.5578327719
 20
14.3614333708
  0
LWPOLYLINE
  5
645
100
AcDbEntity
  8
AXIS
100
AcDbPolyline
 62
7
  6
CONTINUOUS
 90
7
 70
0
 10
29.4892613923
 20
13.9231395103
 10
29.4902634516
 20
13.920565148
 10
29.4952088256
 20
13.9154025299
 10
29.5028467693
 20
13.9122843524
 10
29.5116423463
 20
13.9118372508
 10
29.5198290055
 20
13.9141491273
 10
29.5257654904
 20
13.9187528359
  0
LINE
  5
646
100
AcDbEntity
  8
0
100
AcDbLine
 62
7
  6
CONTINUOUS
 10
30.9937142404
 20
8.90786806
 11
30.9849981262
 21
8.9594109477
  0
LINE
  5
647
100
AcDbEntity
  8
0
100
AcDbLine
 62
7
  6
CONTINUOUS
 10
30.9869666302
 20
9.2512108465
 11
30.9849981262
 21
9.2737787798
  0
LINE
  5
648
100
AcDbEntity
  8
AXIS
100
AcDbLine
 62
7
  6
CONTINUOUS
 10
30.9869666302
 20
10.3842520274
 11
30.9849981262
 21
10.4068199607
  0
LINE
  5
649
100
AcDbEntity
  8
0
100
AcDbLine
 62
7
  6
CONTINUOUS
 10
30.9948406459
 20
8.8744148227
 11
30.9937142404
 21
8.90786806
  0
LWPOLYLINE
  5
64A
100
AcDbEntity
  8
0
100
AcDbPolyline
 62
7
  6
CONTINUOUS
 90
25
 70
0
 10
30.8861765982
 20
14.8851542143
 10
30.8864737326
 20
14.9132629675
 10
30.8849870924
 20
14.941352843
 10
30.8817196715
 20
14.9693672703
 10
30.8766780502
 20
14.9972498308
 10
30.8698723818
 20
15.0249443717
 10
30.8613163724
 20
15.0523951186
 10
30.851027253
 20
15.0795467882
 10
30.8390257449
 20
15.1063446996
 10
30.825336018
 20
15.1327348843
 10
30.8099856423
 20
15.1586641946
 10
30.793005532
 20
15.1840804115
 10
30.7744298835
 20
15.208932349
 10
30.7542961064
 20
15.2331699575
 10
30.7326447485
 20
15.2567444246
 10
30.7095194131
 20
15.2796082738
 10
30.684966674
 20
15.3017154583
 10
30.6590359738
 20
15.3230214598
 10
30.6317795487
 20
15.3434833591
 10
30.6032522448
 20
15.36305998
 10
30.5735116588
 20
15.3817118037
 10
30.5426172332
 20
15.3994015322
 10
30.5106326022
 20
15.4160927843
 10
30.4776193015
 20
15.431753396
 10
30.4436595436
 20
15.4463451663
  0
LINE
  5
64B
100
AcDbEntity
  8
0
100
AcDbLine
 62
7
  6
CONTINUOUS
 10
30.5825510769
 20
8.116777808
 11
30.5842714776
 21
8.1360440542
  0
LINE
  5
64C
100
AcDbEntity
  8
0
100
AcDbLine
 62
7
  6
CONTINUOUS
 10
30.5825510769
 20
8.1114884266
 11
30.5847758551
 21
8.1364030428
  0
LINE
  5
64D
100
AcDbEntity
  8
0
100
AcDbLine
 62
7
  6
CONTINUOUS
 10
30.5825510769
 20
8.0750195335
 11
30.587360331
 21
8.1288769115
  0
LINE
  5
64E
100
AcDbEntity
  8
0
100
AcDbLine
 62
7
  6
CONTINUOUS
 10
30.5825510769
 20
8.0697301521
 11
30.5862504303
 21
8.1111580887
  0
LINE
  5
64F
100
AcDbEntity
  8
0
100
AcDbLine
 62
7
  6
CONTINUOUS
 10
30.5825510769
 20
8.033261259
 11
30.587360331
 21
8.0871186371
  0
LINE
  5
650
100
AcDbEntity
  8
0
100
AcDbLine
 62
7
  6
CONTINUOUS
 10
30.5825510769
 20
8.0279718776
 11
30.5862504303
 21
8.0693998142
  0
LWPOLYLINE
  5
651
100
AcDbEntity
  8
AXIS
100
AcDbPolyline
 62
7
  6
CONTINUOUS
 90
3
 70
0
 10
30.9571797502
 20
12.4802379407
 10
30.9850960941
 20
12.6074040796
 10
30.9869666302
 20
12.6503343891
  0
LWPOLYLINE
  5
652
100
AcDbEntity
  8
AXIS
100
AcDbPolyline
 62
7
  6
CONTINUOUS
 90
3
 70
0
 10
30.9571797502
 20
12.1044134704
 10
30.9850960941
 20
12.2315796093
 10
30.9869666302
 20
12.2745099188
  0
LWPOLYLINE
  5
653
100
AcDbEntity
  8
AXIS
100
AcDbPolyline
 62
7
  6
CONTINUOUS
 90
3
 70
0
 10
30.9571797502
 20
11.3471967598
 10
30.9850960941
 20
11.4743628988
 10
30.9869666302
 20
11.5172932083
  0
LINE
  5
654
100
AcDbEntity
  8
AXIS
100
AcDbLine
 62
7
  6
CONTINUOUS
 10
30.9869666302
 20
11.5172932083
 11
30.9849981262
 21
11.5398611416
  0
LINE
  5
655
100
AcDbEntity
  8
AXIS
100
AcDbLine
 62
7
  6
CONTINUOUS
 10
30.9869666302
 20
12.6503343891
 11
30.9849981262
 21
12.6729023225
  0
LINE
  5
656
100
AcDbEntity
  8
AXIS
100
AcDbLine
 62
7
  6
CONTINUOUS
 10
30.9869666302
 20
13.78337557
 11
30.9849981262
 21
13.8059435034
  0
LINE
  5
657
100
AcDbEntity
  8
AXIS
100
AcDbLine
 62
7
  6
CONTINUOUS
 10
30.9849981262
 20
9.207834268
 11
30.9849981262
 21
9.9650509785
  0
LINE
  5
658
100
AcDbEntity
  8
AXIS
100
AcDbLine
 62
7
  6
CONTINUOUS
 10
30.9849981262
 20
10.3408754488
 11
30.9849981262
 21
11.0980921594
  0
LINE
  5
659
100
AcDbEntity
  8
AXIS
100
AcDbLine
 62
7
  6
CONTINUOUS
 10
30.9849981262
 20
11.4739166297
 11
30.9849981262
 21
12.2311333403
  0
LINE
  5
65A
100
AcDbEntity
  8
AXIS
100
AcDbLine
 62
7
  6
CONTINUOUS
 10
30.9849981262
 20
12.6069578106
 11
30.9849981262
 21
13.3641745211
  0
LINE
  5
65B
100
AcDbEntity
  8
AXIS
100
AcDbLine
 62
7
  6
CONTINUOUS
 10
30.9849981262
 20
13.7399989915
 11
30.9849981262
 21
14.8342921444
  0
LINE
  5
65C
100
AcDbEntity
  8
0
100
AcDbLine
 62
7
  6
CONTINUOUS
 10
30.9869666302
 20
8.8753863762
 11
30.9869666302
 21
9.2512108465
  0
LINE
  5
65D
100
AcDbEntity
  8
AXIS
100
AcDbLine
 62
7
  6
CONTINUOUS
 10
30.9869666302
 20
10.0084275571
 11
30.9869666302
 21
10.3842520274
  0
LINE
  5
65E
100
AcDbEntity
  8
AXIS
100
AcDbLine
 62
7
  6
CONTINUOUS
 10
30.9869666302
 20
11.141468738
 11
30.9869666302
 21
11.5172932083
  0
LINE
  5
65F
100
AcDbEntity
  8
AXIS
100
AcDbLine
 62
7
  6
CONTINUOUS
 10
30.9869666302
 20
12.2745099188
 11
30.9869666302
 21
12.6503343891
  0
LINE
  5
660
100
AcDbEntity
  8
AXIS
100
AcDbLine
 62
7
  6
CONTINUOUS
 10
30.9869666302
 20
13.4075510997
 11
30.9869666302
 21
13.78337557
  0
LINE
  5
661
100
AcDbEntity
  8
AXIS
100
AcDbLine
 62
7
  6
CONTINUOUS
 10
30.9948406459
 20
8.8744148227
 11
30.9948406459
 21
8.8433716991
  0
LINE
  5
662
100
AcDbEntity
  8
0
100
AcDbLine
 62
7
  6
CONTINUOUS
 10
30.9850960941
 20
8.8324560667
 11
30.9869666302
 21
8.8753863762
  0
LWPOLYLINE
  5
663
100
AcDbEntity
  8
AXIS
100
AcDbPolyline
 62
7
  6
CONTINUOUS
 90
6
 70
0
 10
30.9948387053
 20
8.8433716992
 10
30.9925727334
 20
8.7959170083
 10
30.9806944779
 20
8.7252083772
 10
30.9587606266
 20
8.6557122616
 10
30.9269962504
 20
8.5881417858
 10
30.8857272949
 20
8.5231903143
  0
LINE
  5
664
100
AcDbEntity
  8
0
100
AcDbLine
 62
7
  6
CONTINUOUS
 10
30.9903399956
 20
8.8076020714
 11
30.9948406459
 21
8.8744148227
  0
LINE
  5
665
100
AcDbEntity
  8
0
100
AcDbLine
 62
7
  6
CONTINUOUS
 10
30.5281837532
 20
7.9211464059
 11
30.529328284
 21
7.9269798982
  0
LWPOLYLINE
  5
666
100
AcDbEntity
  8
0
100
AcDbPolyline
 62
7
  6
CONTINUOUS
 90
3
 70
0
 10
30.5432728781
 20
7.968742856
 10
30.5413679684
 20
7.9593922892
 10
30.5281837532
 20
7.9211464059
  0
LWPOLYLINE
  5
667
100
AcDbEntity
  8
AXIS
100
AcDbPolyline
 62
7
  6
CONTINUOUS
 90
3
 70
0
 10
30.9571797502
 20
10.9713722895
 10
30.9850960941
 20
11.0985384285
 10
30.9869666302
 20
11.141468738
  0
LWPOLYLINE
  5
668
100
AcDbEntity
  8
AXIS
100
AcDbPolyline
 62
7
  6
CONTINUOUS
 90
3
 70
0
 10
30.9571797502
 20
10.214155579
 10
30.9850960941
 20
10.3413217179
 10
30.9869666302
 20
10.3842520274
  0
LWPOLYLINE
  5
669
100
AcDbEntity
  8
AXIS
100
AcDbPolyline
 62
7
  6
CONTINUOUS
 90
6
 70
0
 10
29.5076359215
 20
12.8036168669
 10
29.3590930703
 20
12.8779700692
 10
29.2324009455
 20
12.9703575184
 10
29.1318738953
 20
13.0776330707
 10
29.0609352479
 20
13.1961435857
 10
29.0220007338
 20
13.3218533301
  0
LWPOLYLINE
  5
66A
100
AcDbEntity
  8
AXIS
100
AcDbPolyline
 62
7
  6
CONTINUOUS
 90
3
 70
0
 10
30.9571797502
 20
9.8383311086
 10
30.9850960941
 20
9.9654972476
 10
30.9869666302
 20
10.0084275571
  0
LWPOLYLINE
  5
66B
100
AcDbEntity
  8
0
100
AcDbPolyline
 62
7
  6
CONTINUOUS
 90
3
 70
0
 10
30.9571797502
 20
9.0811143981
 10
30.9850960941
 20
9.208280537
 10
30.9869666302
 20
9.2512108465
  0
LINE
  5
66C
100
AcDbEntity
  8
0
100
AcDbLine
 62
7
  6
CONTINUOUS
 10
30.9571797502
 20
8.7052899278
 11
30.9850960941
 21
8.8324560667
  0
LINE
  5
66D
100
AcDbEntity
  8
0
100
AcDbLine
 62
7
  6
CONTINUOUS
 10
30.5407202407
 20
7.9649883744
 11
30.529328284
 21
7.9269798982
  0
LWPOLYLINE
  5
66E
100
AcDbEntity
  8
AXIS
100
AcDbPolyline
 62
7
  6
CONTINUOUS
 90
11
 70
0
 10
29.5076359215
 20
12.8036168669
 10
29.6729710504
 20
12.7498299205
 10
29.8494681674
 20
12.71844088
 10
30.0311168749
 20
12.7105186615
 10
30.2117313441
 20
12.7263330467
 10
30.3851609658
 20
12.7653454957
 10
30.5454998023
 20
12.8262274863
 10
30.6872877068
 20
12.9069057553
 10
30.8056962622
 20
13.0046329011
 10
30.8966932073
 20
13.1160809429
 10
30.9571797502
 20
13.2374546513
  0
LWPOLYLINE
  5
66F
100
AcDbEntity
  8
AXIS
100
AcDbPolyline
 62
7
  6
CONTINUOUS
 90
6
 70
0
 10
29.5076359215
 20
13.1794413372
 10
29.3590930703
 20
13.2537945395
 10
29.2324009455
 20
13.3461819887
 10
29.1318738953
 20
13.453457541
 10
29.0609352479
 20
13.571968056
 10
29.0220007338
 20
13.6976778004
  0
LWPOLYLINE
  5
670
100
AcDbEntity
  8
AXIS
100
AcDbPolyline
 62
7
  6
CONTINUOUS
 90
9
 70
0
 10
30.862980111
 20
8.4953308174
 10
30.8584239595
 20
8.4793232063
 10
30.8294440439
 20
8.4146705714
 10
30.7907484033
 20
8.3526124966
 10
30.7427907087
 20
8.2938765561
 10
30.6861332202
 20
8.2391513751
 10
30.621440195
 20
8.1890785562
 10
30.5494700998
 20
8.1442451574
 10
30.471066718
 20
8.1051768095
  0
LWPOLYLINE
  5
671
100
AcDbEntity
  8
AXIS
100
AcDbPolyline
 62
7
  6
CONTINUOUS
 90
7
 70
0
 10
30.8653095621
 20
8.4981838008
 10
30.8500221015
 20
8.44546768
 10
30.8039273606
 20
8.3536472311
 10
30.7399903805
 20
8.2676531181
 10
30.658709042
 20
8.189024692
 10
30.5624637971
 20
8.120522525
 10
30.4537174709
 20
8.0638010159
  0
LINE
  5
672
100
AcDbEntity
  8
0
100
AcDbLine
 62
7
  6
CONTINUOUS
 10
30.5269824645
 20
8.0704988187
 11
30.5214078121
 21
8.0549880052
  0
LINE
  5
673
100
AcDbEntity
  8
0
100
AcDbLine
 62
7
  6
CONTINUOUS
 10
30.5269823599
 20
8.0287403947
 11
30.5214078121
 21
8.0132297307
  0
LINE
  5
674
100
AcDbEntity
  8
0
100
AcDbLine
 62
7
  6
CONTINUOUS
 10
30.5269823616
 20
7.9869821226
 11
30.5214078121
 21
7.9714714562
  0
LWPOLYLINE
  5
675
100
AcDbEntity
  8
AXIS
100
AcDbPolyline
 62
7
  6
CONTINUOUS
 90
11
 70
0
 10
29.5076359215
 20
13.1794413372
 10
29.6729710504
 20
13.1256543908
 10
29.8494681674
 20
13.0942653503
 10
30.0311168749
 20
13.0863431318
 10
30.2117313441
 20
13.1021575171
 10
30.3851609658
 20
13.141169966
 10
30.5454998023
 20
13.2020519566
 10
30.6872877068
 20
13.2827302257
 10
30.8056962622
 20
13.3804573714
 10
30.8966932073
 20
13.4919054132
 10
30.9571797502
 20
13.6132791216
  0
LWPOLYLINE
  5
676
100
AcDbEntity
  8
0
100
AcDbPolyline
 62
7
  6
CONTINUOUS
 90
3
 70
0
 10
30.5281837532
 20
7.9211464059
 10
30.5227533306
 20
7.9097823658
 10
30.5160672452
 20
7.8987182236
  0
LWPOLYLINE
  5
677
100
AcDbEntity
  8
0
100
AcDbPolyline
 62
7
  6
CONTINUOUS
 90
4
 70
0
 10
30.529328284
 20
7.9269798982
 10
30.5243543276
 20
7.9166008503
 10
30.518241067
 20
7.9065306577
 10
30.5110263949
 20
7.8968317396
  0
LINE
  5
678
100
AcDbEntity
  8
0
100
AcDbLine
 62
7
  6
CONTINUOUS
 10
30.8966932073
 20
8.5839162194
 11
30.9571797502
 21
8.7052899278
  0
LWPOLYLINE
  5
679
100
AcDbEntity
  8
0
100
AcDbPolyline
 62
7
  6
CONTINUOUS
 90
3
 70
0
 10
30.3565671679
 20
8.0017817668
 10
30.3770519333
 20
8.033242665
 10
30.3790768079
 20
8.0362488599
  0
LWPOLYLINE
  5
67A
100
AcDbEntity
  8
0
100
AcDbPolyline
 62
7
  6
CONTINUOUS
 90
4
 70
0
 10
30.3565671679
 20
7.9600234923
 10
30.3770519333
 20
7.9914843906
 10
30.397441916
 20
8.0217560229
 10
30.4174893733
 20
8.0504281149
  0
LWPOLYLINE
  5
67B
100
AcDbEntity
  8
0
100
AcDbPolyline
 62
7
  6
CONTINUOUS
 90
4
 70
0
 10
30.3565671679
 20
7.9182652179
 10
30.3770519333
 20
7.9497261161
 10
30.397441916
 20
7.9799977485
 10
30.4177104327
 20
8.0089860019
  0
LWPOLYLINE
  5
67C
100
AcDbEntity
  8
0
100
AcDbPolyline
 62
7
  6
CONTINUOUS
 90
3
 70
0
 10
30.4252122047
 20
7.7864737615
 10
30.4267568483
 20
7.7889209509
 10
30.4280918499
 20
7.7952580809
  0
LWPOLYLINE
  5
67D
100
AcDbEntity
  8
0
100
AcDbPolyline
 62
7
  6
CONTINUOUS
 90
3
 70
0
 10
30.5081467497
 20
7.8880474202
 10
30.5096913933
 20
7.8904946096
 10
30.5110263949
 20
7.8968317396
  0
LWPOLYLINE
  5
67E
100
AcDbEntity
  8
0
100
AcDbPolyline
 62
7
  6
CONTINUOUS
 90
4
 70
0
 10
30.3565671679
 20
7.8765069434
 10
30.3770519333
 20
7.9079678416
 10
30.397441916
 20
7.938239474
 10
30.4177104327
 20
7.9672277274
  0
LWPOLYLINE
  5
67F
100
AcDbEntity
  8
0
100
AcDbPolyline
 62
7
  6
CONTINUOUS
 90
4
 70
0
 10
30.3565671679
 20
7.8347486689
 10
30.3770519333
 20
7.8662095671
 10
30.397441916
 20
7.8964811995
 10
30.4177104327
 20
7.9254694529
  0
LWPOLYLINE
  5
680
100
AcDbEntity
  8
0
100
AcDbPolyline
 62
7
  6
CONTINUOUS
 90
4
 70
0
 10
30.3565671679
 20
7.7929903944
 10
30.3770519333
 20
7.8244512926
 10
30.397441916
 20
7.854722925
 10
30.4177104327
 20
7.8837111785
  0
LINE
  5
681
100
AcDbEntity
  8
0
100
AcDbLine
 62
7
  6
CONTINUOUS
 10
30.5825510769
 20
8.1114884266
 11
30.5620630487
 21
8.080022599
  0
LWPOLYLINE
  5
682
100
AcDbEntity
  8
0
100
AcDbPolyline
 62
7
  6
CONTINUOUS
 90
4
 70
0
 10
30.3565671679
 20
7.7512321199
 10
30.3770519333
 20
7.7826930182
 10
30.397441916
 20
7.8129646505
 10
30.4177104327
 20
7.841952904
  0
LINE
  5
683
100
AcDbEntity
  8
0
100
AcDbLine
 62
7
  6
CONTINUOUS
 10
30.5825510769
 20
8.0697301521
 11
30.5620630487
 21
8.0382643245
  0
LWPOLYLINE
  5
684
100
AcDbEntity
  8
0
100
AcDbPolyline
 62
7
  6
CONTINUOUS
 90
3
 70
0
 10
30.5605393391
 20
8.1195187379
 10
30.5416727928
 20
8.0915090155
 10
30.5214078121
 20
8.062525917
  0
LWPOLYLINE
  5
685
100
AcDbEntity
  8
0
100
AcDbPolyline
 62
7
  6
CONTINUOUS
 90
3
 70
0
 10
30.5620630487
 20
8.080022599
 10
30.5416727928
 20
8.049750741
 10
30.5214078121
 20
8.0207676425
  0
LWPOLYLINE
  5
686
100
AcDbEntity
  8
0
100
AcDbPolyline
 62
7
  6
CONTINUOUS
 90
3
 70
0
 10
30.5620630487
 20
8.0382643245
 10
30.5416727928
 20
8.0079924665
 10
30.5214078121
 20
7.979009368
  0
LWPOLYLINE
  5
687
100
AcDbEntity
  8
0
100
AcDbPolyline
 62
7
  6
CONTINUOUS
 90
3
 70
0
 10
30.5347204596
 20
7.9561637497
 10
30.5585078505
 20
7.9911508262
 10
30.5825510769
 20
8.0279718776
  0
LWPOLYLINE
  5
688
100
AcDbEntity
  8
0
100
AcDbPolyline
 62
7
  6
CONTINUOUS
 90
4
 70
0
 10
30.8616572443
 20
8.5229493533
 10
30.9236325556
 20
8.6131634609
 10
30.9668198609
 20
8.7086960073
 10
30.9903399956
 20
8.8076020714
  0
LINE
  5
689
100
AcDbEntity
  8
0
100
AcDbLine
 62
7
  6
CONTINUOUS
 10
30.5110263949
 20
7.9228493078
 11
30.5347204596
 21
7.9561637497
  0
LINE
  5
68A
100
AcDbEntity
  8
0
100
AcDbLine
 62
7
  6
CONTINUOUS
 10
30.5160672452
 20
7.8987182236
 11
30.5081467497
 21
7.8880474202
  0
LINE
  5
68B
100
AcDbEntity
  8
0
100
AcDbLine
 62
7
  6
CONTINUOUS
 10
30.8056962622
 20
8.4724681776
 11
30.8966932073
 21
8.5839162194
  0
LWPOLYLINE
  5
68C
100
AcDbEntity
  8
AXIS
100
AcDbPolyline
 62
7
  6
CONTINUOUS
 90
7
 70
0
 10
30.8857272949
 20
8.5231903143
 10
30.8353772353
 20
8.461524337
 10
30.7764627314
 20
8.4037766304
 10
30.7095883258
 20
8.3505397641
 10
30.6354402403
 20
8.3023600204
 10
30.5547793347
 20
8.2597317886
 10
30.4684332989
 20
8.223092492
  0
LWPOLYLINE
  5
68D
100
AcDbEntity
  8
AXIS
100
AcDbPolyline
 62
7
  6
CONTINUOUS
 90
10
 70
0
 10
29.5257654904
 20
13.9187528359
 10
29.6806093383
 20
13.870192648
 10
29.8449351316
 20
13.8411250931
 10
30.0138756602
 20
13.8324111133
 10
30.1824271509
 20
13.8443087507
 10
30.3455979786
 20
13.8764657071
 10
30.4985554112
 20
13.9279297717
 10
30.6367671686
 20
13.9971758115
 10
30.7561381577
 20
14.0821506953
 10
30.8531333662
 20
14.1803348092
  0
LWPOLYLINE
  5
68E
100
AcDbEntity
  8
0
100
AcDbPolyline
 62
7
  6
CONTINUOUS
 90
3
 70
0
 10
30.3962898565
 20
7.7590499266
 10
30.3992014783
 20
7.7628451097
 10
30.4003189918
 20
7.7689764292
  0
LINE
  5
68F
100
AcDbEntity
  8
0
100
AcDbLine
 62
7
  6
CONTINUOUS
 10
30.5110263949
 20
7.8968317396
 11
30.4280918499
 21
7.7952580809
  0
LINE
  5
690
100
AcDbEntity
  8
0
100
AcDbLine
 62
7
  6
CONTINUOUS
 10
30.5081467497
 20
7.8880474202
 11
30.4252122047
 21
7.7864737615
  0
LINE
  5
691
100
AcDbEntity
  8
0
100
AcDbLine
 62
7
  6
CONTINUOUS
 10
30.4280918499
 20
7.7952580809
 11
30.4198204858
 21
7.7859905556
  0
LINE
  5
692
100
AcDbEntity
  8
0
100
AcDbLine
 62
7
  6
CONTINUOUS
 10
30.4065558811
 20
8.0463922279
 11
30.3974458615
 21
8.0366815935
  0
LWPOLYLINE
  5
693
100
AcDbEntity
  8
0
100
AcDbPolyline
 62
7
  6
CONTINUOUS
 90
3
 70
0
 10
30.4177104327
 20
8.0165239137
 10
30.3974458615
 20
7.9949233191
 10
30.3770540082
 20
7.9743315545
  0
LWPOLYLINE
  5
694
100
AcDbEntity
  8
0
100
AcDbPolyline
 62
7
  6
CONTINUOUS
 90
4
 70
0
 10
30.4177104327
 20
7.9747656393
 10
30.3974458615
 20
7.9531650446
 10
30.3770540082
 20
7.93257328
 10
30.3565671679
 20
7.9129758364
  0
LWPOLYLINE
  5
695
100
AcDbEntity
  8
0
100
AcDbPolyline
 62
7
  6
CONTINUOUS
 90
4
 70
0
 10
30.5214078121
 20
8.0549880052
 10
30.5416760818
 20
8.0765924369
 10
30.5620676291
 20
8.0971836981
 10
30.5825510769
 20
8.116777808
  0
LWPOLYLINE
  5
696
100
AcDbEntity
  8
0
100
AcDbPolyline
 62
7
  6
CONTINUOUS
 90
4
 70
0
 10
30.4177104327
 20
7.9330073648
 10
30.3974458615
 20
7.9114067701
 10
30.3770540082
 20
7.8908150055
 10
30.3565671679
 20
7.8712175619
  0
LWPOLYLINE
  5
697
100
AcDbEntity
  8
0
100
AcDbPolyline
 62
7
  6
CONTINUOUS
 90
4
 70
0
 10
30.5214078121
 20
8.0132297307
 10
30.5416760818
 20
8.0348341624
 10
30.5620676291
 20
8.0554254237
 10
30.5825510769
 20
8.0750195335
  0
LWPOLYLINE
  5
698
100
AcDbEntity
  8
0
100
AcDbPolyline
 62
7
  6
CONTINUOUS
 90
4
 70
0
 10
30.4177104327
 20
7.8912490903
 10
30.3974458615
 20
7.8696484956
 10
30.3770540082
 20
7.8490567311
 10
30.3565671679
 20
7.8294592875
  0
LINE
  5
699
100
AcDbEntity
  8
0
100
AcDbLine
 62
7
  6
CONTINUOUS
 10
30.5214078121
 20
7.9714714562
 11
30.5416760818
 21
7.993075888
  0
LWPOLYLINE
  5
69A
100
AcDbEntity
  8
0
100
AcDbPolyline
 62
7
  6
CONTINUOUS
 90
4
 70
0
 10
30.4177104327
 20
7.8494908158
 10
30.3974458615
 20
7.8278902211
 10
30.3770540082
 20
7.8072984566
 10
30.3565671679
 20
7.787701013
  0
LINE
  5
69B
100
AcDbEntity
  8
0
100
AcDbLine
 62
7
  6
CONTINUOUS
 10
30.7821556374
 20
8.4398903259
 11
30.8616572443
 21
8.5229493533
  0
LWPOLYLINE
  5
69C
100
AcDbEntity
  8
0
100
AcDbPolyline
 62
7
  6
CONTINUOUS
 90
3
 70
0
 10
30.3806105026
 20
7.7690516081
 10
30.4043980445
 20
7.7934117978
 10
30.4280918499
 20
7.819254979
  0
LWPOLYLINE
  5
69D
100
AcDbEntity
  8
0
100
AcDbPolyline
 62
7
  6
CONTINUOUS
 90
3
 70
0
 10
30.3974458615
 20
8.0366815935
 10
30.3770540082
 20
8.016089829
 10
30.3565671679
 20
7.9964923854
  0
LWPOLYLINE
  5
69E
100
AcDbEntity
  8
0
100
AcDbPolyline
 62
7
  6
CONTINUOUS
 90
3
 70
0
 10
30.5416760818
 20
7.993075888
 10
30.5620676291
 20
8.0136671492
 10
30.5825510769
 20
8.033261259
  0
LINE
  5
69F
100
AcDbEntity
  8
0
100
AcDbLine
 62
7
  6
CONTINUOUS
 10
30.3770540082
 20
7.9743315545
 11
30.3565671679
 21
7.9547341109
  0
LWPOLYLINE
  5
6A0
100
AcDbEntity
  8
0
100
AcDbPolyline
 62
7
  6
CONTINUOUS
 90
4
 70
0
 10
29.6240892361
 20
14.1912985593
 10
29.6641121584
 20
14.1802931047
 10
29.7047758826
 20
14.1705325743
 10
29.7460030031
 20
14.1620355481
  0
LINE
  5
6A1
100
AcDbEntity
  8
0
100
AcDbLine
 62
7
  6
CONTINUOUS
 10
29.5926838348
 20
14.3479332406
 11
29.6283707412
 21
14.3355471099
  0
LINE
  5
6A2
100
AcDbEntity
  8
0
100
AcDbLine
 62
7
  6
CONTINUOUS
 10
29.5578327719
 20
14.3614333708
 11
29.5926838348
 21
14.3479332406
  0
LWPOLYLINE
  5
6A3
100
AcDbEntity
  8
0
100
AcDbPolyline
 62
7
  6
CONTINUOUS
 90
4
 70
0
 10
29.5086201735
 20
14.2315633691
 10
29.5462691762
 20
14.2169581138
 10
29.5847833017
 20
14.2035279889
 10
29.6240892361
 20
14.1912985593
  0
LINE
  5
6A4
100
AcDbEntity
  8
0
100
AcDbLine
 62
7
  6
CONTINUOUS
 10
30.3565671679
 20
7.7459427385
 11
30.3806105026
 21
7.7690516081
  0
LWPOLYLINE
  5
6A5
100
AcDbEntity
  8
0
100
AcDbPolyline
 62
7
  6
CONTINUOUS
 90
3
 70
0
 10
30.4069157628
 20
7.7676193166
 10
30.4165776192
 20
7.7767850424
 10
30.4252122047
 20
7.7864737615
  0
LWPOLYLINE
  5
6A6
100
AcDbEntity
  8
0
100
AcDbPolyline
 62
7
  6
CONTINUOUS
 90
3
 70
0
 10
30.4198204858
 20
7.7859905556
 10
30.4105436993
 20
7.777211867
 10
30.4003189918
 20
7.7689764292
  0
LINE
  5
6A7
100
AcDbEntity
  8
0
100
AcDbLine
 62
7
  6
CONTINUOUS
 10
30.3962898565
 20
7.7590499266
 11
30.4069157628
 21
7.7676193166
  0
LINE
  5
6A8
100
AcDbEntity
  8
0
100
AcDbLine
 62
7
  6
CONTINUOUS
 10
30.4170259073
 20
8.0502570354
 11
30.3851240711
 21
8.0275495035
  0
LINE
  5
6A9
100
AcDbEntity
  8
0
100
AcDbLine
 62
7
  6
CONTINUOUS
 10
30.4177104327
 20
8.0089860019
 11
30.3962325384
 21
7.9936981012
  0
LINE
  5
6AA
100
AcDbEntity
  8
0
100
AcDbLine
 62
7
  6
CONTINUOUS
 10
30.4177104327
 20
7.9672277274
 11
30.3962326933
 21
7.9519399832
  0
LINE
  5
6AB
100
AcDbEntity
  8
0
100
AcDbLine
 62
7
  6
CONTINUOUS
 10
30.4177104327
 20
7.9254694529
 11
30.3962328012
 21
7.9101818176
  0
LINE
  5
6AC
100
AcDbEntity
  8
0
100
AcDbLine
 62
7
  6
CONTINUOUS
 10
30.4177104327
 20
7.8837111785
 11
30.3962326917
 21
7.8684234326
  0
LWPOLYLINE
  5
6AD
100
AcDbEntity
  8
0
100
AcDbPolyline
 62
7
  6
CONTINUOUS
 90
30
 70
0
 10
29.7460030031
 20
14.1620355481
 10
29.7877150417
 20
14.1548182004
 10
29.829832597
 20
14.1488942701
 10
29.8722754961
 20
14.1442750335
 10
29.9149629464
 20
14.1409692838
 10
29.9578136899
 20
14.1389833135
 10
30.0007461577
 20
14.1383209031
 10
30.0436786256
 20
14.1389833135
 10
30.0865293691
 20
14.1409692838
 10
30.1292168194
 20
14.1442750335
 10
30.1716597184
 20
14.1488942701
 10
30.2137772738
 20
14.1548182004
 10
30.2554893124
 20
14.1620355481
 10
30.2967164328
 20
14.1705325743
 10
30.3373801571
 20
14.1802931047
 10
30.3774030794
 20
14.1912985593
 10
30.4167090138
 20
14.2035279889
 10
30.4552231393
 20
14.2169581138
 10
30.492872142
 20
14.2315633691
 10
30.5295843549
 20
14.247315953
 10
30.5652898943
 20
14.2641858793
 10
30.5999207926
 20
14.2821410354
 10
30.6334111279
 20
14.3011472424
 10
30.6656971495
 20
14.3211683211
 10
30.6967173991
 20
14.3421661602
 10
30.7264128278
 20
14.364100789
 10
30.7547269088
 20
14.3869304538
 10
30.7816057446
 20
14.410611697
 10
30.8069981698
 20
14.43509944
 10
30.8308558485
 20
14.460347069
  0
LWPOLYLINE
  5
6AE
100
AcDbEntity
  8
0
100
AcDbPolyline
 62
7
  6
CONTINUOUS
 90
18
 70
0
 10
29.6648055835
 20
14.3243062288
 10
29.7019181988
 20
14.3142321986
 10
29.7396322181
 20
14.3053457948
 10
29.7778722354
 20
14.2976647705
 10
29.8165610543
 20
14.2912046364
 10
29.8556208203
 20
14.2859783908
 10
29.8949728507
 20
14.281996562
 10
29.9345379004
 20
14.2792671684
 10
29.974236287
 20
14.2777957068
 10
30.0139880622
 20
14.2775851406
 10
30.0537131694
 20
14.2786358939
 10
30.0933316059
 20
14.2809458505
 10
30.1327635838
 20
14.2845103584
 10
30.1719296905
 20
14.2893222391
 10
30.2107510492
 20
14.2953718017
 10
30.2491494772
 20
14.3026468631
 10
30.2870476436
 20
14.3111327719
 10
30.3243692248
 20
14.3208124383
  0
LINE
  5
6AF
100
AcDbEntity
  8
0
100
AcDbLine
 62
7
  6
CONTINUOUS
 10
29.6283707412
 20
14.3355471099
 11
29.6648055835
 21
14.3243062288
  0
LINE
  5
6B0
100
AcDbEntity
  8
0
100
AcDbLine
 62
7
  6
CONTINUOUS
 10
30.4177104327
 20
7.841952904
 11
30.3962325428
 21
7.8266650077
  0
LWPOLYLINE
  5
6B1
100
AcDbEntity
  8
0
100
AcDbPolyline
 62
7
  6
CONTINUOUS
 90
11
 70
0
 10
30.4003189918
 20
7.7689764292
 10
30.3360401358
 20
7.7281001659
 10
30.2635130136
 20
7.694833596
 10
30.1845215906
 20
7.6699950349
 10
30.1010095362
 20
7.6541956531
 10
30.0150309327
 20
7.6478240188
 10
29.9287009357
 20
7.6510368893
 10
29.8441432543
 20
7.6637552264
 10
29.7634380136
 20
7.6856661584
 10
29.6885705683
 20
7.7162306747
 10
29.6808658091
 20
7.7206417795
  0
LWPOLYLINE
  5
6B2
100
AcDbEntity
  8
0
100
AcDbPolyline
 62
7
  6
CONTINUOUS
 90
12
 70
0
 10
30.3962898565
 20
7.7590499266
 10
30.3305503095
 20
7.7173631552
 10
30.2566228909
 20
7.6838036562
 10
30.1762048916
 20
7.6590951125
 10
30.0915456332
 20
7.6438840576
 10
30.0047139259
 20
7.6384783937
 10
29.917856689
 20
7.642976275
 10
29.8330324485
 20
7.6572692808
 10
29.7523729772
 20
7.6810236464
 10
29.6778152799
 20
7.713721335
 10
29.6113691622
 20
7.7545336494
 10
29.6014414335
 20
7.7629308318
  0
LINE
  5
6B3
100
AcDbEntity
  8
0
100
AcDbLine
 62
7
  6
CONTINUOUS
 10
30.2794191295
 20
7.9655134861
 11
30.3565671679
 21
8.0017817668
  0
LINE
  5
6B4
100
AcDbEntity
  8
0
100
AcDbLine
 62
7
  6
CONTINUOUS
 10
30.2794191295
 20
7.9602241046
 11
30.3565671679
 21
7.9964923854
  0
LINE
  5
6B5
100
AcDbEntity
  8
0
100
AcDbLine
 62
7
  6
CONTINUOUS
 10
30.2794191295
 20
7.8819969371
 11
30.3565671679
 21
7.9182652179
  0
LINE
  5
6B6
100
AcDbEntity
  8
0
100
AcDbLine
 62
7
  6
CONTINUOUS
 10
30.2794191295
 20
7.8767075557
 11
30.3565671679
 21
7.9129758364
  0
LWPOLYLINE
  5
6B7
100
AcDbEntity
  8
AXIS
100
AcDbPolyline
 62
7
  6
CONTINUOUS
 90
3
 70
0
 10
30.471066718
 20
8.1051768095
 10
30.3871492577
 20
8.0723315531
 10
30.2987015743
 20
8.0460944687
  0
LINE
  5
6B8
100
AcDbEntity
  8
AXIS
100
AcDbLine
 62
7
  6
CONTINUOUS
 10
30.4537174709
 20
8.0638010159
 11
30.3351092479
 21
8.0200190861
  0
LWPOLYLINE
  5
6B9
100
AcDbEntity
  8
AXIS
100
AcDbPolyline
 62
7
  6
CONTINUOUS
 90
4
 70
0
 10
30.4684332989
 20
8.223092492
 10
30.3772881602
 20
8.1928180995
 10
30.282279191
 20
8.1692192673
 10
30.1843813118
 20
8.1525381513
  0
LINE
  5
6BA
100
AcDbEntity
  8
0
100
AcDbLine
 62
7
  6
CONTINUOUS
 10
30.1954413162
 20
7.9799491023
 11
30.2727415525
 21
8.0050991729
  0
LWPOLYLINE
  5
6BB
100
AcDbEntity
  8
0
100
AcDbPolyline
 62
7
  6
CONTINUOUS
 90
3
 70
0
 10
30.1954413162
 20
7.9746597208
 10
30.2794191295
 20
8.0019823791
 10
30.2998370018
 20
8.0115810823
  0
LINE
  5
6BC
100
AcDbEntity
  8
0
100
AcDbLine
 62
7
  6
CONTINUOUS
 10
30.1954413162
 20
7.9381908278
 11
30.2794191295
 21
7.9655134861
  0
LINE
  5
6BD
100
AcDbEntity
  8
0
100
AcDbLine
 62
7
  6
CONTINUOUS
 10
30.1954413162
 20
7.9329014463
 11
30.2794191295
 21
7.9602241046
  0
LWPOLYLINE
  5
6BE
100
AcDbEntity
  8
0
100
AcDbPolyline
 62
7
  6
CONTINUOUS
 90
3
 70
0
 10
30.1954413162
 20
7.8964325533
 10
30.2794191295
 20
7.9237552116
 10
30.3565671679
 20
7.9600234923
  0
LWPOLYLINE
  5
6BF
100
AcDbEntity
  8
0
100
AcDbPolyline
 62
7
  6
CONTINUOUS
 90
3
 70
0
 10
30.1954413162
 20
7.8911431719
 10
30.2794191295
 20
7.9184658301
 10
30.3565671679
 20
7.9547341109
  0
LWPOLYLINE
  5
6C0
100
AcDbEntity
  8
0
100
AcDbPolyline
 62
7
  6
CONTINUOUS
 90
48
 70
0
 10
30.4436595436
 20
15.4463451663
 10
30.4088084807
 20
15.4598452965
 10
30.3731215743
 20
15.4722314272
 10
30.336686732
 20
15.4834723083
 10
30.2995741166
 20
15.4935463385
 10
30.2618600974
 20
15.5024327423
 10
30.22362008
 20
15.5101137666
 10
30.1849312612
 20
15.5165739007
 10
30.1458714952
 20
15.5218001464
 10
30.1065194648
 20
15.5257819751
 10
30.0669544151
 20
15.5285113687
 10
30.0272560285
 20
15.5299828303
 10
29.9875042532
 20
15.5301933965
 10
29.947779146
 20
15.5291426432
 10
29.9081607095
 20
15.5268326866
 10
29.8687287317
 20
15.5232681787
 10
29.829562625
 20
15.5184562981
 10
29.7907412662
 20
15.5124067354
 10
29.7523428382
 20
15.505131674
 10
29.7144446719
 20
15.4966457652
 10
29.6771230907
 20
15.4869660988
 10
29.6404532568
 20
15.4761121687
 10
29.6045090201
 20
15.4641058339
 10
29.5693627688
 20
15.4509712739
 10
29.5350852844
 20
15.4367349406
 10
29.5017455986
 20
15.4214255047
 10
29.4694108545
 20
15.4050737979
 10
29.4381461712
 20
15.3877127511
 10
29.4080145131
 20
15.3693773279
 10
29.3790765625
 20
15.3501044542
 10
29.3513905979
 20
15.3299329437
 10
29.3250123762
 20
15.3089034201
 10
29.2999950208
 20
15.2870582348
 10
29.2763889143
 20
15.2644413822
 10
29.2542415974
 20
15.2410984105
 10
29.2335976726
 20
15.2170763302
 10
29.2144987151
 20
15.1924235198
 10
29.1969831882
 20
15.1671896276
 10
29.1810863667
 20
15.1414254725
 10
29.1668402654
 20
15.1151829412
 10
29.1542735746
 20
15.0885148836
 10
29.1434116025
 20
15.0614750068
 10
29.1342762241
 20
15.0341177668
 10
29.1268858372
 20
15.0064982584
 10
29.1212553254
 20
14.9786721048
 10
29.117396028
 20
14.9506953454
 10
29.1153157173
 20
14.9226243228
 10
29.1150185829
 20
14.8945155696
  0
LWPOLYLINE
  5
6C1
100
AcDbEntity
  8
0
100
AcDbPolyline
 62
7
  6
CONTINUOUS
 90
26
 70
0
 10
30.4808607712
 20
15.4678720678
 10
30.5172851501
 20
15.4522391951
 10
30.5527896293
 20
15.4354539244
 10
30.5873078121
 20
15.4175412997
 10
30.6206650432
 20
15.3985933464
 10
30.6529191617
 20
15.3785780675
 10
30.6840097832
 20
15.3575243242
 10
30.7137569288
 20
15.3355558973
 10
30.7422235343
 20
15.3126289654
 10
30.7693445174
 20
15.2887883151
 10
30.7949474688
 20
15.264193663
 10
30.8190961024
 20
15.2387952901
 10
30.8417424301
 20
15.2126427671
 10
30.8627517435
 20
15.1859089119
 10
30.8821734983
 20
15.1585541978
 10
30.8999831862
 20
15.130622665
 10
30.9160961747
 20
15.1022739488
 10
30.9305373586
 20
15.0735019378
 10
30.9433064842
 20
15.0443308359
 10
30.9543666661
 20
15.0148785663
 10
30.9637212192
 20
14.9851866793
 10
30.9713826972
 20
14.9552538844
 10
30.9773420791
 20
14.9251459934
 10
30.9815947735
 20
14.8949377593
 10
30.984147286
 20
14.8646361312
 10
30.9849981262
 20
14.8342921444
  0
CIRCLE
  5
6C2
100
AcDbEntity
  8
0
100
AcDbCircle
 62
7
  6
CONTINUOUS
 10
27.5254366922
 20
1.0674889563
 40
0.252091
  0
CIRCLE
  5
6C3
100
AcDbEntity
  8
0
100
AcDbCircle
 62
7
  6
CONTINUOUS
 10
27.5254366922
 20
1.0674889563
 40
0.182698
  0
CIRCLE
  5
6C4
100
AcDbEntity
  8
0
100
AcDbCircle
 62
7
  6
CONTINUOUS
 10
27.0942092
 20
1.8024187226
 40
0.0638444824
  0
ARC
  5
6C5
100
AcDbEntity
  8
AXIS
100
AcDbCircle
 62
7
  6
CONTINUOUS
 10
17.72646334
 20
10.0855492919
 40
0.1299212598
100
AcDbArc
 50
270.0
 51
360.0
  0
ARC
  5
6C6
100
AcDbEntity
  8
AXIS
100
AcDbCircle
 62
7
  6
CONTINUOUS
 10
16.2146523164
 20
10.0855492919
 40
0.1299212598
100
AcDbArc
 50
180.0
 51
270.0
  0
ARC
  5
6C7
100
AcDbEntity
  8
0
100
AcDbCircle
 62
7
  6
CONTINUOUS
 10
16.0847310565
 20
18.8512973234
 40
0.0984251969
100
AcDbArc
 50
90.0
 51
180.0
  0
ARC
  5
6C8
100
AcDbEntity
  8
0
100
AcDbCircle
 62
7
  6
CONTINUOUS
 10
17.8563845998
 20
18.8512973234
 40
0.0984251969
100
AcDbArc
 50
0.0
 51
90.0
  0
ARC
  5
6C9
100
AcDbEntity
  8
0
100
AcDbCircle
 62
7
  6
CONTINUOUS
 10
16.3878806628
 20
9.9241319691
 40
0.031496063
100
AcDbArc
 50
0.0
 51
90.0
  0
ARC
  5
6CA
100
AcDbEntity
  8
0
100
AcDbCircle
 62
7
  6
CONTINUOUS
 10
17.5532349935
 20
9.9241319691
 40
0.031496063
100
AcDbArc
 50
90.0
 51
180.0
  0
ARC
  5
6CB
100
AcDbEntity
  8
0
100
AcDbCircle
 62
7
  6
CONTINUOUS
 10
17.4902428676
 20
9.239092599
 40
0.031496063
100
AcDbArc
 50
270.0
 51
360.0
  0
ARC
  5
6CC
100
AcDbEntity
  8
0
100
AcDbCircle
 62
7
  6
CONTINUOUS
 10
16.4508727888
 20
9.239092599
 40
0.031496063
100
AcDbArc
 50
180.0
 51
270.0
  0
ARC
  5
6CD
100
AcDbEntity
  8
0
100
AcDbCircle
 62
7
  6
CONTINUOUS
 10
17.8760696392
 20
10.3591713392
 40
0.0196850394
100
AcDbArc
 50
90.0
 51
180.0
  0
ARC
  5
6CE
100
AcDbEntity
  8
0
100
AcDbCircle
 62
7
  6
CONTINUOUS
 10
16.0650460172
 20
10.3591713392
 40
0.0196850394
100
AcDbArc
 50
0.0
 51
90.0
  0
ARC
  5
6CF
100
AcDbEntity
  8
0
100
AcDbCircle
 62
7
  6
CONTINUOUS
 10
15.9863058597
 20
3.6421610151
 40
0.0196850394
100
AcDbArc
 50
117.0965409678
 51
242.9034623614
  0
ARC
  5
6D0
100
AcDbEntity
  8
AXIS
100
AcDbCircle
 62
7
  6
CONTINUOUS
 10
15.9863058597
 20
3.6421610151
 40
0.0196850394
100
AcDbArc
 50
117.2999146796
 51
242.7000853204
  0
ARC
  5
6D1
100
AcDbEntity
  8
0
100
AcDbCircle
 62
7
  6
CONTINUOUS
 10
17.0534923732
 20
3.2976728261
 40
0.2283464567
100
AcDbArc
 50
270.0
 51
283.5362027374
  0
ARC
  5
6D2
100
AcDbEntity
  8
0
100
AcDbCircle
 62
7
  6
CONTINUOUS
 10
16.8876232832
 20
3.2976728261
 40
0.2283464567
100
AcDbArc
 50
256.4637972626
 51
270.0
  0
ARC
  5
6D3
100
AcDbEntity
  8
0
100
AcDbCircle
 62
7
  6
CONTINUOUS
 10
16.8876232832
 20
3.2976728261
 40
0.1968503937
100
AcDbArc
 50
256.4637972626
 51
270.0
  0
ARC
  5
6D4
100
AcDbEntity
  8
0
100
AcDbCircle
 62
7
  6
CONTINUOUS
 10
17.0534923732
 20
3.2976728261
 40
0.1968503937
100
AcDbArc
 50
270.0
 51
283.5362027374
  0
ARC
  5
6D5
100
AcDbEntity
  8
0
100
AcDbCircle
 62
7
  6
CONTINUOUS
 10
17.0534923732
 20
3.2976728261
 40
0.1653543307
100
AcDbArc
 50
270.0
 51
283.5362027374
  0
ARC
  5
6D6
100
AcDbEntity
  8
0
100
AcDbCircle
 62
7
  6
CONTINUOUS
 10
16.8876232832
 20
3.2976728261
 40
0.1653543307
100
AcDbArc
 50
256.4637972626
 51
270.0
  0
ARC
  5
6D7
100
AcDbEntity
  8
0
100
AcDbCircle
 62
7
  6
CONTINUOUS
 10
16.8876232832
 20
3.9866492041
 40
0.2283464567
100
AcDbArc
 50
90.0
 51
103.5362027374
  0
ARC
  5
6D8
100
AcDbEntity
  8
0
100
AcDbCircle
 62
7
  6
CONTINUOUS
 10
16.8876232832
 20
3.9866492041
 40
0.1968503937
100
AcDbArc
 50
90.0
 51
103.5362027374
  0
ARC
  5
6D9
100
AcDbEntity
  8
0
100
AcDbCircle
 62
7
  6
CONTINUOUS
 10
16.8876232832
 20
3.9866492041
 40
0.1653543307
100
AcDbArc
 50
90.0
 51
103.5362027374
  0
CIRCLE
  5
6DA
100
AcDbEntity
  8
AXIS
100
AcDbCircle
 62
7
  6
CONTINUOUS
 10
16.9705578282
 20
3.6421610151
 40
0.9940944882
  0
ARC
  5
6DB
100
AcDbEntity
  8
SCHEME_DIMS
100
AcDbCircle
 62
7
  6
CONTINUOUS
 10
16.9705578282
 20
3.6421610151
 40
0.9940944882
100
AcDbArc
 50
180.0
 51
229.7986158755
  0
CIRCLE
  5
6DC
100
AcDbEntity
  8
QUILTS
100
AcDbCircle
 62
7
  6
CONTINUOUS
 10
16.9705578282
 20
3.6421610151
 40
0.9862204724
  0
CIRCLE
  5
6DD
100
AcDbEntity
  8
0
100
AcDbCircle
 62
7
  6
CONTINUOUS
 10
16.9705578282
 20
3.6421610151
 40
0.905511811
  0
ARC
  5
6DE
100
AcDbEntity
  8
0
100
AcDbCircle
 62
7
  6
CONTINUOUS
 10
16.9705578282
 20
3.6421610151
 40
0.8858267717
100
AcDbArc
 50
7.3796037165
 51
8.1773050316
  0
ARC
  5
6DF
100
AcDbEntity
  8
0
100
AcDbCircle
 62
7
  6
CONTINUOUS
 10
16.9705578282
 20
3.6421610151
 40
0.8858267717
100
AcDbArc
 50
89.0493367989
 51
90.6116499963
  0
ARC
  5
6E0
100
AcDbEntity
  8
0
100
AcDbCircle
 62
7
  6
CONTINUOUS
 10
16.9705578282
 20
3.6421610151
 40
0.8858267717
100
AcDbArc
 50
180.0
 51
194.9455704768
  0
ARC
  5
6E1
100
AcDbEntity
  8
0
100
AcDbCircle
 62
7
  6
CONTINUOUS
 10
16.9705578282
 20
3.6421610151
 40
0.8858267717
100
AcDbArc
 50
196.8301972679
 51
226.9640422575
  0
ARC
  5
6E2
100
AcDbEntity
  8
0
100
AcDbCircle
 62
7
  6
CONTINUOUS
 10
16.9705578282
 20
3.6421610151
 40
0.8858267717
100
AcDbArc
 50
261.6004237812
 51
278.4159358577
  0
ARC
  5
6E3
100
AcDbEntity
  8
0
100
AcDbCircle
 62
7
  6
CONTINUOUS
 10
16.9705578282
 20
3.6421610151
 40
0.8858267717
100
AcDbArc
 50
352.0276416266
 51
360.0
  0
CIRCLE
  5
6E4
100
AcDbEntity
  8
AXIS
100
AcDbCircle
 62
7
  6
CONTINUOUS
 10
16.9705578282
 20
3.6421610151
 40
0.8858267717
  0
CIRCLE
  5
6E5
100
AcDbEntity
  8
QUILTS
100
AcDbCircle
 62
7
  6
CONTINUOUS
 10
16.9705578282
 20
3.6421610151
 40
0.8858267717
  0
CIRCLE
  5
6E6
100
AcDbEntity
  8
AXIS
100
AcDbCircle
 62
7
  6
CONTINUOUS
 10
16.9705578282
 20
3.6421610151
 40
0.7559055118
  0
ARC
  5
6E7
100
AcDbEntity
  8
0
100
AcDbCircle
 62
7
  6
CONTINUOUS
 10
16.9705578282
 20
3.6421610151
 40
0.5826771654
100
AcDbArc
 50
68.46218756
 51
76.4637972626
  0
ARC
  5
6E8
100
AcDbEntity
  8
0
100
AcDbCircle
 62
7
  6
CONTINUOUS
 10
16.9705578282
 20
3.6421610151
 40
0.5826771654
100
AcDbArc
 50
283.5362027374
 51
291.5391316457
  0
ARC
  5
6E9
100
AcDbEntity
  8
0
100
AcDbCircle
 62
7
  6
CONTINUOUS
 10
16.9705578282
 20
3.6421610151
 40
0.5826771654
100
AcDbArc
 50
248.4608858433
 51
256.4637972626
  0
ARC
  5
6EA
100
AcDbEntity
  8
0
100
AcDbCircle
 62
7
  6
CONTINUOUS
 10
16.9705578282
 20
3.6421610151
 40
0.5826771654
100
AcDbArc
 50
103.5362027374
 51
111.5378680334
  0
ARC
  5
6EB
100
AcDbEntity
  8
0
100
AcDbCircle
 62
7
  6
CONTINUOUS
 10
16.9705578282
 20
3.6421610151
 40
0.5511811024
100
AcDbArc
 50
103.5362027374
 51
256.4637972626
  0
ARC
  5
6EC
100
AcDbEntity
  8
0
100
AcDbCircle
 62
7
  6
CONTINUOUS
 10
16.9705578282
 20
3.6421610151
 40
0.5511811024
100
AcDbArc
 50
283.5362027374
 51
76.4637972626
  0
ARC
  5
6ED
100
AcDbEntity
  8
0
100
AcDbCircle
 62
7
  6
CONTINUOUS
 10
16.9705578282
 20
3.6421610151
 40
0.5196850394
100
AcDbArc
 50
283.5362027374
 51
76.4637972626
  0
ARC
  5
6EE
100
AcDbEntity
  8
0
100
AcDbCircle
 62
7
  6
CONTINUOUS
 10
16.9705578282
 20
3.6421610151
 40
0.5196850394
100
AcDbArc
 50
103.5362027374
 51
256.4637972626
  0
CIRCLE
  5
6EF
100
AcDbEntity
  8
0
100
AcDbCircle
 62
7
  6
CONTINUOUS
 10
16.9705578282
 20
3.6421610151
 40
0.4682862539
  0
CIRCLE
  5
6F0
100
AcDbEntity
  8
0
100
AcDbCircle
 62
7
  6
CONTINUOUS
 10
16.9705578282
 20
3.6421610151
 40
0.4460151742
  0
CIRCLE
  5
6F1
100
AcDbEntity
  8
0
100
AcDbCircle
 62
7
  6
CONTINUOUS
 10
16.9705578282
 20
3.6421610151
 40
0.3765
  0
ARC
  5
6F2
100
AcDbEntity
  8
0
100
AcDbCircle
 62
7
  6
CONTINUOUS
 10
16.9705578282
 20
3.6421610151
 40
0.3568149606
100
AcDbArc
 50
51.3357489792
 51
354.046306505
  0
CIRCLE
  5
6F3
100
AcDbEntity
  8
0
100
AcDbCircle
 62
7
  6
CONTINUOUS
 10
16.9705578282
 20
3.6421610151
 40
0.3051181102
  0
CIRCLE
  5
6F4
100
AcDbEntity
  8
0
100
AcDbCircle
 62
7
  6
CONTINUOUS
 10
16.9705578282
 20
3.6421610151
 40
0.29
  0
CIRCLE
  5
6F5
100
AcDbEntity
  8
0
100
AcDbCircle
 62
7
  6
CONTINUOUS
 10
16.9705578282
 20
3.6421610151
 40
0.2611324865
  0
CIRCLE
  5
6F6
100
AcDbEntity
  8
0
100
AcDbCircle
 62
7
  6
CONTINUOUS
 10
16.9705578282
 20
3.6421610151
 40
0.17
  0
CIRCLE
  5
6F7
100
AcDbEntity
  8
0
100
AcDbCircle
 62
7
  6
CONTINUOUS
 10
16.9705578282
 20
3.6421610151
 40
0.11
  0
CIRCLE
  5
6F8
100
AcDbEntity
  8
02___PRT_ALL_AXES
100
AcDbCircle
 62
7
  6
CONTINUOUS
 10
16.9705578282
 20
3.6421610151
 40
0.1075
  0
ARC
  5
6F9
100
AcDbEntity
  8
0
100
AcDbCircle
 62
7
  6
CONTINUOUS
 10
17.0534923732
 20
3.9866492041
 40
0.2283464567
100
AcDbArc
 50
76.4637972626
 51
90.0
  0
ARC
  5
6FA
100
AcDbEntity
  8
0
100
AcDbCircle
 62
7
  6
CONTINUOUS
 10
17.0534923732
 20
3.9866492041
 40
0.1968503937
100
AcDbArc
 50
76.4637972626
 51
90.0
  0
ARC
  5
6FB
100
AcDbEntity
  8
0
100
AcDbCircle
 62
7
  6
CONTINUOUS
 10
17.0534923732
 20
3.9866492041
 40
0.1653543307
100
AcDbArc
 50
76.4637972626
 51
90.0
  0
ENDSEC
  0
SECTION
  2
OBJECTS
  0
DICTIONARY
  5
C
100
AcDbDictionary
280
0
281
1
  3
ACAD_GROUP
350
D
  3
ACAD_MLINESTYLE
350
17
  3
ACAD_LAYOUT
350
1A
  3
ACAD_PLOTSETTINGS
350
19
  3
ACAD_PLOTSTYLENAME
350
E
  3
ACAD_TABLESTYLE
350
       6FC
  0
DICTIONARY
  5
D
102
{ACAD_REACTORS
330
C
102
}
100
AcDbDictionary
280
0
281
1
  0
ACDBDICTIONARYWDFLT
  5
E
102
{ACAD_REACTORS
330
C
102
}
100
AcDbDictionary
281
1
  3
Normal
350
F
100
AcDbDictionaryWithDefault
340
F
  0
DICTIONARY
  5
17
102
{ACAD_REACTORS
330
C
102
}
100
AcDbDictionary
280
0
281
1
  3
Standard
350
18
  0
DICTIONARY
  5
6FC
330
C
100
AcDbDictionary
281
1
  3
Standard
350
       6FF
  3
Standard1
350
       700
  0
DICTIONARY
  5
19
102
{ACAD_REACTORS
330
C
102
}
100
AcDbDictionary
281
1
  0
DICTIONARY
  5
1A
102
{ACAD_REACTORS
330
C
102
}
100
AcDbDictionary
281
1
  3
Model
350
6FD
  3
Layout1
350
6FE
  0
ACDBPLACEHOLDER
  5
F
102
{ACAD_REACTORS
330
E
102
}
  0
MLINESTYLE
  5
18
102
{ACAD_REACTORS
330
17
102
}
100
AcDbMlineStyle
  2
STANDARD
 70
0
  3

 62
256
 51
90.0
 52
90.0
 71
2
 49
0.5
 62
256
  6
BYLAYER
 49
-0.5
 62
256
  6
BYLAYER
  0
LAYOUT
  5
6FD
102
{ACAD_REACTORS
330
1A
102
}
100
AcDbPlotSettings
  1

  2
none_device
  4
ANSI_D_(34.00_x_22.00_Inches)
  6

 40
0.0
 41
0.0
 42
0.0
 43
0.0
 44
863.6
 45
558.8
 46
0.0
 47
0.0
 48
0.0
 49
0.0
140
0.0
141
0.0
142
1.0
143
1.0
 70
1024
 72
0
 73
0
 74
0
  7

 75
0
147
1.0
148
0.0
149
0.0
100
AcDbLayout
  1
Model
 70
0
 71
0
 10
0.0
 20
0.0
 11
34.0
 21
22.0
 12
0.0
 22
0.0
 32
0.0
 14
0.0
 24
0.0
 34
0.0
 15
0.0
 25
0.0
 35
0.0
146
0.0
 13
0.0
 23
0.0
 33
0.0
 16
1.0
 26
0.0
 36
0.0
 17
0.0
 27
1.0
 37
0.0
 76
0
330
215
345
0
346
0
  0
LAYOUT
  5
6FE
102
{ACAD_REACTORS
330
1A
102
}
100
AcDbPlotSettings
  1

  2
none_device
  4
ANSI_D_(34.00_x_22.00_Inches)
  6

 40
0.0
 41
0.0
 42
0.0
 43
0.0
 44
863.6
 45
558.8
 46
0.0
 47
0.0
 48
0.0
 49
0.0
140
0.0
141
0.0
142
1.0
143
1.0
 70
0
 72
0
 73
0
 74
0
  7

 75
0
147
1.0
148
0.0
149
0.0
100
AcDbLayout
  1
Layout1
 70
0
 71
1
 10
0.0
 20
0.0
 11
34.0
 21
22.0
 12
0.0
 22
0.0
 32
0.0
 14
0.0
 24
0.0
 34
0.0
 15
0.0
 25
0.0
 35
0.0
146
0.0
 13
0.0
 23
0.0
 33
0.0
 16
1.0
 26
0.0
 36
0.0
 17
0.0
 27
1.0
 37
0.0
 76
0
330
216
345
0
346
0
  0
TABLESTYLE
  5
6FF
102
{ACAD_REACTORS
330
6FC
102
}
330
6FC
100
AcDbTableStyle
  3
Standard
 70
0
 71
0
 40
0.06
 41
0.06
280
1
281
1
  7
Standard
140
0.18
170
1
 62
0
 63
7
283
0
  7
Standard
140
0.18
170
1
 62
0
 63
7
283
0
  7
Standard
140
0.18
170
1
 62
0
 63
7
283
0
  0
TABLESTYLE
  5
700
102
{ACAD_REACTORS
330
6FC
330
288
102
}
330
6FC
100
AcDbTableStyle
  3
Standard1
 70
1
 71
0
 40
0.06
 41
0.06
280
1
281
1
  7
Standard
140
0.18
170
1
 62
0
 63
7
283
0
  7
Standard
140
0.18
170
1
 62
0
 63
7
283
0
  7
Standard
140
0.18
170
1
 62
0
 63
7
283
0
  0
ENDSEC
  0
EOF
