999
DXF file: 212920_1.dxf
999
Pro/ENGINEER 2018300 by Parametric Technology Corporation
  0
SECTION
  2
HEADER
  9
$ACADVER
  1
AC1027
  9
$DWGCODEPAGE
  3
ANSI_1252
  9
$EXTMAX
 10
22.0
 20
17.0
 30
0.0
  9
$EXTMIN
 10
0.0
 20
0.0
 30
0.0
  9
$LIMMIN
 10
0.0
 20
0.0
  9
$LIMMAX
 10
22.0
 20
17.0
  9
$VIEWCTR
 10
11.0
 20
8.5
  9
$VIEWSIZE
 40
17.0
  9
$CLAYER
  8
0
  9
$LTSCALE
 40
1.21
  9
$CELTYPE
  6
BYLAYER
  9
$DIMSCALE
 40
1.0
  9
$DIMASZ
 40
0.1875
  9
$DIMEXO
 40
0.0625
  9
$DIMDLI
 40
0.836
  9
$DIMEXE
 40
0.125
  9
$DIMCEN
 40
0.198
  9
$DIMLFAC
 40
1.0
  9
$DIMBLK
  1
_FILLED
  9
$DIMALT
 70
1
  9
$DIMALTD
 70
2
  9
$DIMALTTD
 70
2
  9
$DIMALTF
 40
25.4
  9
$DIMTXT
 40
0.1
  9
$DIMTOL
 70
1
  9
$DIMLIM
 70
0
  9
$DIMTFAC
 40
1.0
  9
$DIMTP
 40
0.005
  9
$DIMTM
 40
0.005
  9
$DIMGAP
 40
0.09
  9
$DIMDSEP
 70
46
  9
$AUNITS
 70
0
  9
$PDMODE
 70
3
  9
$PDSIZE
 40
0.3125
  9
$HANDSEED
  5
6E2
  9
$TILEMODE
 70
1
  9
$MEASUREMENT
 70
0
  9
$INSUNITS
 70
1
  0
ENDSEC
  0
SECTION
  2
CLASSES
  0
CLASS
  1
ACDBDICTIONARYWDFLT
  2
AcDbDictionaryWithDefault
  3
AutoCAD 2000
 90
0
 91
1
280
0
281
0
  0
CLASS
  1
ACDBPLACEHOLDER
  2
AcDbPlaceHolder
  3
AutoCAD 2000
 90
0
 91
1
280
0
281
0
  0
CLASS
  1
LAYOUT
  2
AcDbLayout
  3
AutoCAD 2000
 90
0
 91
0
280
0
281
0
  0
CLASS
  1
TABLESTYLE
  2
AcDbTableStyle
  3
ObjectDBX Classes
 90
2047
 91
1
280
0
281
0
  0
CLASS
  1
ACAD_TABLE
  2
AcDbTable
  3
ObjectDBX Classes
 90
1025
 91
1
280
0
281
1
  0
ENDSEC
  0
SECTION
  2
TABLES
  0
TABLE
  2
VPORT
  5
8
100
AcDbSymbolTable
 70
2
  0
VPORT
  5
1F4
100
AcDbSymbolTableRecord
100
AcDbViewportTableRecord
  2
*ACTIVE
 70
0
 10
0.0
 20
0.0
 11
1.0
 21
1.0
 12
11.0
 22
8.5
 13
0.0
 23
0.0
 14
1.0
 24
1.0
 15
0.0
 25
0.0
 16
0.0
 26
0.0
 36
1.0
 17
0.0
 27
0.0
 37
0.0
 40
17.0
 41
1.2941176471
 42
50.0
 43
0.0
 44
0.0
 50
0.0
 51
0.0
 71
0
 72
100
 73
1
 74
1
 75
0
 76
0
 77
0
 78
0
  0
ENDTAB
  0
TABLE
  2
LTYPE
  5
5
100
AcDbSymbolTable
 70
6
  0
LTYPE
  5
14
100
AcDbSymbolTableRecord
100
AcDbLinetypeTableRecord
  2
BYBLOCK
 70
0
  3

 72
65
 73
0
 40
0.0
  0
LTYPE
  5
15
100
AcDbSymbolTableRecord
100
AcDbLinetypeTableRecord
  2
BYLAYER
 70
0
  3

 72
65
 73
0
 40
0.0
  0
LTYPE
  5
16
100
AcDbSymbolTableRecord
100
AcDbLinetypeTableRecord
  2
CONTINUOUS
 70
64
  3
Solid line
 72
65
 73
0
 40
0.0
  0
LTYPE
  5
1F5
100
AcDbSymbolTableRecord
100
AcDbLinetypeTableRecord
  2
CENTER
 70
64
  3
____ _ ____ _ ____ _ ____ _ ____ _ ____ _ ____
 72
65
 73
4
 40
0.6
 49
0.375
 74
0
 49
-0.075
 74
0
 49
0.075
 74
0
 49
-0.075
 74
0
  0
LTYPE
  5
1F6
100
AcDbSymbolTableRecord
100
AcDbLinetypeTableRecord
  2
HIDDEN
 70
64
  3
- - - - - - - - - - - - - - - - - - - -
 72
65
 73
2
 40
0.2
 49
0.1
 74
0
 49
-0.1
 74
0
  0
LTYPE
  5
1F7
100
AcDbSymbolTableRecord
100
AcDbLinetypeTableRecord
  2
PHANTOM
 70
64
  3
_____ _ _ _____ _ _ _____ _ _ _____
 72
65
 73
6
 40
0.8
 49
0.45
 74
0
 49
-0.05
 74
0
 49
0.1
 74
0
 49
-0.05
 74
0
 49
0.1
 74
0
 49
-0.05
 74
0
  0
LTYPE
  5
1F8
100
AcDbSymbolTableRecord
100
AcDbLinetypeTableRecord
  2
DOT
 70
64
  3
. . . . . . . . . . . . . . . . . . . .
 72
65
 73
2
 40
0.2
 49
0.1
 74
0
 49
-0.1
 74
0
  0
LTYPE
  5
1F9
100
AcDbSymbolTableRecord
100
AcDbLinetypeTableRecord
  2
DASHED
 70
64
  3
- - - - - - - - - - - - - - - - - - - -
 72
65
 73
2
 40
0.2
 49
0.1
 74
0
 49
-0.1
 74
0
  0
ENDTAB
  0
TABLE
  2
LAYER
  5
2
100
AcDbSymbolTable
 70
36
  0
LAYER
  5
10
100
AcDbSymbolTableRecord
100
AcDbLayerTableRecord
  2
0
 70
0
 62
7
  6
CONTINUOUS
370
-3
390
F
  0
LAYER
  5
1FA
100
AcDbSymbolTableRecord
100
AcDbLayerTableRecord
  2
DEFAULT_1
 70
0
 62
7
  6
CENTER
370
-3
390
F
  0
LAYER
  5
1FB
100
AcDbSymbolTableRecord
100
AcDbLayerTableRecord
  2
DEFAULT_2
 70
0
 62
7
  6
HIDDEN
370
-3
390
F
  0
LAYER
  5
1FC
100
AcDbSymbolTableRecord
100
AcDbLayerTableRecord
  2
DEFAULT_3
 70
0
 62
7
  6
PHANTOM
370
-3
390
F
  0
LAYER
  5
1FD
100
AcDbSymbolTableRecord
100
AcDbLayerTableRecord
  2
01___PRT_ALL_DTM_PLN
 70
0
 62
7
  6
CONTINUOUS
370
-3
390
F
  0
LAYER
  5
1FE
100
AcDbSymbolTableRecord
100
AcDbLayerTableRecord
  2
01___PRT_DEF_DTM_PLN
 70
0
 62
7
  6
CONTINUOUS
370
-3
390
F
  0
LAYER
  5
1FF
100
AcDbSymbolTableRecord
100
AcDbLayerTableRecord
  2
02___PRT_ALL_AXES
 70
0
 62
7
  6
CONTINUOUS
370
-3
390
F
  0
LAYER
  5
200
100
AcDbSymbolTableRecord
100
AcDbLayerTableRecord
  2
03___PRT_ALL_CURVES
 70
0
 62
7
  6
CONTINUOUS
370
-3
390
F
  0
LAYER
  5
201
100
AcDbSymbolTableRecord
100
AcDbLayerTableRecord
  2
04___PRT_ALL_DTM_PNT
 70
0
 62
7
  6
CONTINUOUS
370
-3
390
F
  0
LAYER
  5
202
100
AcDbSymbolTableRecord
100
AcDbLayerTableRecord
  2
05___PRT_ALL_DTM_CSYS
 70
0
 62
7
  6
CONTINUOUS
370
-3
390
F
  0
LAYER
  5
203
100
AcDbSymbolTableRecord
100
AcDbLayerTableRecord
  2
05___PRT_DEF_DTM_CSYS
 70
0
 62
7
  6
CONTINUOUS
370
-3
390
F
  0
LAYER
  5
204
100
AcDbSymbolTableRecord
100
AcDbLayerTableRecord
  2
06___PRT_ALL_SURFS
 70
0
 62
7
  6
CONTINUOUS
370
-3
390
F
  0
LAYER
  5
205
100
AcDbSymbolTableRecord
100
AcDbLayerTableRecord
  2
AXIS
 70
0
 62
7
  6
CONTINUOUS
370
-3
390
F
  0
LAYER
  5
206
100
AcDbSymbolTableRecord
100
AcDbLayerTableRecord
  2
AXIS_COSMETIC_THREADS
 70
0
 62
7
  6
CONTINUOUS
370
-3
390
F
  0
LAYER
  5
207
100
AcDbSymbolTableRecord
100
AcDbLayerTableRecord
  2
DATUM_CURVES
 70
0
 62
7
  6
CONTINUOUS
370
-3
390
F
  0
LAYER
  5
208
100
AcDbSymbolTableRecord
100
AcDbLayerTableRecord
  2
DATUM_PLANES
 70
0
 62
7
  6
CONTINUOUS
370
-3
390
F
  0
LAYER
  5
209
100
AcDbSymbolTableRecord
100
AcDbLayerTableRecord
  2
GEOMETRIC_TOLERANCES
 70
0
 62
7
  6
CONTINUOUS
370
-3
390
F
  0
LAYER
  5
20A
100
AcDbSymbolTableRecord
100
AcDbLayerTableRecord
  2
NOTES
 70
0
 62
7
  6
CONTINUOUS
370
-3
390
F
  0
LAYER
  5
20B
100
AcDbSymbolTableRecord
100
AcDbLayerTableRecord
  2
QUILTS
 70
0
 62
7
  6
CONTINUOUS
370
-3
390
F
  0
LAYER
  5
20C
100
AcDbSymbolTableRecord
100
AcDbLayerTableRecord
  2
SCHEME_DIMS
 70
0
 62
7
  6
CONTINUOUS
370
-3
390
F
  0
LAYER
  5
20D
100
AcDbSymbolTableRecord
100
AcDbLayerTableRecord
  2
SYMBOLS
 70
0
 62
7
  6
CONTINUOUS
370
-3
390
F
  0
ENDTAB
  0
TABLE
  2
STYLE
  5
3
100
AcDbSymbolTable
 70
1
  0
STYLE
  5
11
100
AcDbSymbolTableRecord
100
AcDbTextStyleTableRecord
  2
STANDARD
 70
0
 40
0.0
 41
1.0
 50
0.0
 71
0
 42
0.2
  3
txt
  4

  0
STYLE
  5
20E
100
AcDbSymbolTableRecord
100
AcDbTextStyleTableRecord
  2
TEXTSTYLE_1
 70
0
 40
0.0
 41
0.8
 50
0.0
 71
0
 42
0.2
  3
gdt
  4

  0
STYLE
  5
20F
100
AcDbSymbolTableRecord
100
AcDbTextStyleTableRecord
  2
TEXTSTYLE_2
 70
0
 40
0.0
 41
0.8
 50
0.0
 71
0
 42
0.2
  3
txt
  4

  0
STYLE
  5
210
100
AcDbSymbolTableRecord
100
AcDbTextStyleTableRecord
  2
TEXTSTYLE_3
 70
0
 40
0.0
 41
0.9
 50
0.0
 71
0
 42
0.2
  3
txt
  4

  0
STYLE
  5
211
100
AcDbSymbolTableRecord
100
AcDbTextStyleTableRecord
  2
TEXTSTYLE_4
 70
0
 40
0.0
 41
0.85
 50
0.0
 71
0
 42
0.2
  3
txt
  4

  0
STYLE
  5
212
100
AcDbSymbolTableRecord
100
AcDbTextStyleTableRecord
  2
TEXTSTYLE_5
 70
0
 40
0.0
 41
0.75
 50
0.0
 71
0
 42
0.2
  3
txt
  4

  0
STYLE
  5
213
100
AcDbSymbolTableRecord
100
AcDbTextStyleTableRecord
  2
TEXTSTYLE_6
 70
0
 40
0.0
 41
1.0
 50
0.0
 71
0
 42
0.2
  3
gdt
  4

  0
ENDTAB
  0
TABLE
  2
VIEW
  5
6
100
AcDbSymbolTable
 70
0
  0
ENDTAB
  0
TABLE
  2
UCS
  5
7
100
AcDbSymbolTable
 70
0
  0
ENDTAB
  0
TABLE
  2
APPID
  5
9
100
AcDbSymbolTable
 70
1
  0
APPID
  5
214
100
AcDbSymbolTableRecord
100
AcDbRegAppTableRecord
  2
ACAD
 70
0
  0
ENDTAB
  0
TABLE
  2
BLOCK_RECORD
  5
1
100
AcDbSymbolTable
 70
0
  0
BLOCK_RECORD
  5
215
100
AcDbSymbolTableRecord
100
AcDbBlockTableRecord
  2
*Model_Space
  0
BLOCK_RECORD
  5
216
100
AcDbSymbolTableRecord
100
AcDbBlockTableRecord
  2
*Paper_Space
  0
BLOCK_RECORD
  5
217
100
AcDbSymbolTableRecord
100
AcDbBlockTableRecord
  2
_FILLED
  0
BLOCK_RECORD
  5
218
100
AcDbSymbolTableRecord
100
AcDbBlockTableRecord
  2
*D0
  0
BLOCK_RECORD
  5
219
100
AcDbSymbolTableRecord
100
AcDbBlockTableRecord
  2
*D1
  0
BLOCK_RECORD
  5
21A
100
AcDbSymbolTableRecord
100
AcDbBlockTableRecord
  2
*D2
  0
BLOCK_RECORD
  5
21B
100
AcDbSymbolTableRecord
100
AcDbBlockTableRecord
  2
*D3
  0
BLOCK_RECORD
  5
21C
100
AcDbSymbolTableRecord
100
AcDbBlockTableRecord
  2
*D4
  0
BLOCK_RECORD
  5
21D
100
AcDbSymbolTableRecord
100
AcDbBlockTableRecord
  2
*T1
  0
ENDTAB
  0
TABLE
  2
DIMSTYLE
  5
A
100
AcDbSymbolTable
 70
1
100
AcDbDimStyleTable
 71
0
  0
DIMSTYLE
105
21E
100
AcDbSymbolTableRecord
100
AcDbDimStyleTableRecord
  2
STANDARD
 70
0
  3

  4

 40
1.0
 41
0.1875
 42
0.0625
 43
0.38
 44
0.125
 45
0.0
 46
0.0
 47
0.005
 48
0.005
140
0.1
141
0.09
142
0.0
143
1.0
144
1.0
145
0.0
146
1.0
147
0.09
 71
1.0
 72
0.0
 73
1
 74
1
 75
0
 76
0
 77
0
 78
0
 79
0
170
1
171
2
172
0
173
0
174
0
175
0
176
0
177
0
178
0
270
2
179
3
271
3
272
3
273
2
274
2
275
0
280
0
281
0
282
0
283
1
284
0
285
0
286
0
287
3
288
0
340
11
278
46
341
217
342
217
343
217
344
217
  0
DIMSTYLE
105
21F
100
AcDbSymbolTableRecord
100
AcDbDimStyleTableRecord
  2
DIMSTYLE_1
 70
0
  3
<>
  4

 40
1.0
 41
0.1875
 42
0.0625
 43
0.38
 44
0.125
 45
0.0
 46
0.0
 47
0.1
 48
0.1
140
0.1
141
0.09
142
0.0
143
1.0
144
1.0
145
0.0
146
1.0
147
0.09
 71
0.0
 72
0.0
 73
1
 74
1
 75
0
 76
0
 77
0
 78
0
 79
0
170
1
171
2
172
1
173
0
174
0
175
0
176
0
177
0
178
0
270
2
179
3
271
1
272
3
273
2
274
4
275
0
280
0
281
0
282
0
283
1
284
0
285
0
286
0
287
3
288
1
340
11
278
46
289
2
341
217
342
217
343
217
344
217
  0
DIMSTYLE
105
220
100
AcDbSymbolTableRecord
100
AcDbDimStyleTableRecord
  2
DIMSTYLE_2
 70
0
  3

  4

 40
1.0
 41
0.1875
 42
0.0625
 43
0.38
 44
0.125
 45
0.0
 46
0.0
 47
0.1
 48
0.1
140
0.1
141
0.09
142
0.0
143
1.0
144
1.0
145
0.0
146
1.0
147
0.1
 71
0.0
 72
0.0
 73
1
 74
1
 75
0
 76
0
 77
0
 78
0
 79
0
170
1
171
2
172
0
173
0
174
0
175
0
176
0
177
0
178
0
270
2
179
3
271
1
272
3
273
2
274
4
275
0
280
0
281
0
282
0
283
1
284
0
285
0
286
0
287
3
288
0
340
11
278
46
341
217
342
217
343
217
344
217
  0
ENDTAB
  0
ENDSEC
  0
SECTION
  2
BLOCKS
  0
BLOCK
  5
20
100
AcDbEntity
  8
0
100
AcDbBlockBegin
  2
*Model_Space
 70
0
 10
0.0
 20
0.0
 30
0.0
  3
*Model_Space
  1

  0
ENDBLK
  5
21
100
AcDbEntity
  8
0
100
AcDbBlockEnd
  0
BLOCK
  5
1C
100
AcDbEntity
  8
0
100
AcDbBlockBegin
  2
*Paper_Space
 70
0
 10
0.0
 20
0.0
 30
0.0
  3
*Paper_Space
  1

  0
ENDBLK
  5
1D
100
AcDbEntity
  8
0
100
AcDbBlockEnd
  0
BLOCK
  5
221
100
AcDbEntity
  8
0
100
AcDbBlockBegin
  2
_FILLED
 70
64
 10
0.0
 20
0.0
  3
_FILLED
  1

  0
SOLID
  5
222
100
AcDbEntity
  8
0
  6
BYBLOCK
 62
0
100
AcDbTrace
 10
0.0
 20
0.0
 11
-1.0
 21
0.1666666667
 12
-1.0
 22
-0.1666666667
 13
-1.0
 23
-0.1666666667
  0
ENDBLK
  5
223
100
AcDbEntity
  8
0
  6
BYBLOCK
 62
0
100
AcDbBlockEnd
  0
BLOCK
  5
224
100
AcDbEntity
  8
SCHEME_DIMS
100
AcDbBlockBegin
 62
7
  6
CONTINUOUS
  2
*D0
 70
65
 10
0.0
 20
0.0
  3
*D0
  1

  0
MTEXT
  5
225
100
AcDbEntity
  8
SCHEME_DIMS
100
AcDbMText
 62
7
  6
CONTINUOUS
  7
TEXTSTYLE_6
 71
1
 72
1
 10
8.6980475829
 20
3.8322756353
 30
0.0
 11
1.0
 21
0.0
 31
0.0
 73
2
 44
0.9
  1
{\fgdt;n}\ftxt;50.5\P[1.99]
 40
0.1
 41
0.6
  0
LINE
  5
226
100
AcDbEntity
  8
SCHEME_DIMS
100
AcDbLine
 62
7
  6
CONTINUOUS
 10
8.3499009613
 20
3.6799253814
 11
7.6618589168
 21
2.9624144083
  0
LINE
  5
227
100
AcDbEntity
  8
SCHEME_DIMS
100
AcDbLine
 62
7
  6
CONTINUOUS
 10
7.6618589168
 20
2.9624144083
 11
8.4480475829
 21
3.7822756353
  0
LINE
  5
228
100
AcDbEntity
  8
SCHEME_DIMS
100
AcDbLine
 62
7
  6
CONTINUOUS
 10
8.4480475829
 20
3.7822756353
 11
8.5980475829
 21
3.7822756353
  0
LINE
  5
229
100
AcDbEntity
  8
SCHEME_DIMS
100
AcDbLine
 62
7
  6
CONTINUOUS
 10
6.9738168723
 20
2.2449034353
 11
7.6618589168
 21
2.9624144083
  0
INSERT
  5
22A
100
AcDbEntity
  8
SCHEME_DIMS
100
AcDbBlockReference
 62
7
  6
CONTINUOUS
  2
_FILLED
 10
8.3499009613
 20
3.6799253814
 41
0.1875
 42
0.1875
 43
0.1875
 50
46.2010915808
  0
INSERT
  5
22B
100
AcDbEntity
  8
SCHEME_DIMS
100
AcDbBlockReference
 62
7
  6
CONTINUOUS
  2
_FILLED
 10
6.9738168723
 20
2.2449034353
 41
0.1875
 42
0.1875
 43
0.1875
 50
226.2010915808
  0
ENDBLK
  5
22C
100
AcDbEntity
  8
0
  6
BYBLOCK
 62
0
100
AcDbBlockEnd
  0
BLOCK
  5
22D
100
AcDbEntity
  8
SCHEME_DIMS
100
AcDbBlockBegin
 62
7
  6
CONTINUOUS
  2
*D1
 70
65
 10
0.0
 20
0.0
  3
*D1
  1

  0
MTEXT
  5
22E
100
AcDbEntity
  8
SCHEME_DIMS
100
AcDbMText
 62
7
  6
CONTINUOUS
  7
TEXTSTYLE_6
 71
2
 72
1
 10
7.5618589168
 20
5.2421381606
 30
0.0
 11
1.0
 21
0.0
 31
0.0
 73
2
 44
0.9
  1
{\fgdt;n}\ftxt;45.0\P[1.77]
 40
0.1
 41
0.6
  0
LINE
  5
22F
100
AcDbEntity
  8
SCHEME_DIMS
100
AcDbLine
 62
7
  6
CONTINUOUS
 10
6.7760321451
 20
7.9102338638
 11
6.7760321451
 21
7.2704782305
  0
LINE
  5
230
100
AcDbEntity
  8
SCHEME_DIMS
100
AcDbLine
 62
7
  6
CONTINUOUS
 10
6.7760321451
 20
7.0667353483
 11
6.7760321451
 21
5.0671381606
  0
LINE
  5
231
100
AcDbEntity
  8
SCHEME_DIMS
100
AcDbLine
 62
7
  6
CONTINUOUS
 10
8.5476856884
 20
7.9089507732
 11
8.5476856884
 21
5.0671381606
  0
LINE
  5
232
100
AcDbEntity
  8
SCHEME_DIMS
100
AcDbLine
 62
7
  6
CONTINUOUS
 10
6.7760321451
 20
5.1921381606
 11
7.1951922501
 21
5.1921381606
  0
LINE
  5
233
100
AcDbEntity
  8
SCHEME_DIMS
100
AcDbLine
 62
7
  6
CONTINUOUS
 10
8.5476856884
 20
5.1921381606
 11
8.1285255834
 21
5.1921381606
  0
INSERT
  5
234
100
AcDbEntity
  8
SCHEME_DIMS
100
AcDbBlockReference
 62
7
  6
CONTINUOUS
  2
_FILLED
 10
6.7760321451
 20
5.1921381606
 41
0.1875
 42
0.1875
 43
0.1875
 50
180.0
  0
INSERT
  5
235
100
AcDbEntity
  8
SCHEME_DIMS
100
AcDbBlockReference
 62
7
  6
CONTINUOUS
  2
_FILLED
 10
8.5476856884
 20
5.1921381606
 41
0.1875
 42
0.1875
 43
0.1875
  0
ENDBLK
  5
236
100
AcDbEntity
  8
0
  6
BYBLOCK
 62
0
100
AcDbBlockEnd
  0
BLOCK
  5
237
100
AcDbEntity
  8
SCHEME_DIMS
100
AcDbBlockBegin
 62
7
  6
CONTINUOUS
  2
*D2
 70
65
 10
0.0
 20
0.0
  3
*D2
  1

  0
MTEXT
  5
238
100
AcDbEntity
  8
SCHEME_DIMS
100
AcDbMText
 62
7
  6
CONTINUOUS
  7
STANDARD
 71
2
 72
1
 10
9.1744180218
 20
7.5522088722
 30
0.0
 11
1.0
 21
0.0
 31
0.0
 73
2
 44
0.9
  1
19.0\P[.75]
 40
0.1
 41
0.5
  0
LINE
  5
239
100
AcDbEntity
  8
SCHEME_DIMS
100
AcDbLine
 62
7
  6
CONTINUOUS
 10
8.2440439561
 20
7.1281931241
 11
9.3494180218
 21
7.1281931241
  0
LINE
  5
23A
100
AcDbEntity
  8
SCHEME_DIMS
100
AcDbLine
 62
7
  6
CONTINUOUS
 10
8.4802644286
 20
7.8762246202
 11
9.3494180218
 21
7.8762246202
  0
LINE
  5
23B
100
AcDbEntity
  8
SCHEME_DIMS
100
AcDbLine
 62
7
  6
CONTINUOUS
 10
9.2244180218
 20
7.1281931241
 11
9.2244180218
 21
6.7281931241
  0
LINE
  5
23C
100
AcDbEntity
  8
SCHEME_DIMS
100
AcDbLine
 62
7
  6
CONTINUOUS
 10
9.2244180218
 20
7.8762246202
 11
9.2244180218
 21
8.2762246202
  0
INSERT
  5
23D
100
AcDbEntity
  8
SCHEME_DIMS
100
AcDbBlockReference
 62
7
  6
CONTINUOUS
  2
_FILLED
 10
9.2244180218
 20
7.1281931241
 41
0.1875
 42
0.1875
 43
0.1875
 50
90.0
  0
INSERT
  5
23E
100
AcDbEntity
  8
SCHEME_DIMS
100
AcDbBlockReference
 62
7
  6
CONTINUOUS
  2
_FILLED
 10
9.2244180218
 20
7.8762246202
 41
0.1875
 42
0.1875
 43
0.1875
 50
270.0
  0
ENDBLK
  5
23F
100
AcDbEntity
  8
0
  6
BYBLOCK
 62
0
100
AcDbBlockEnd
  0
BLOCK
  5
240
100
AcDbEntity
  8
SCHEME_DIMS
100
AcDbBlockBegin
 62
7
  6
CONTINUOUS
  2
*D3
 70
65
 10
0.0
 20
0.0
  3
*D3
  1

  0
MTEXT
  5
241
100
AcDbEntity
  8
SCHEME_DIMS
100
AcDbMText
 62
7
  6
CONTINUOUS
  7
STANDARD
 71
2
 72
1
 10
9.9084183725
 20
11.2480750139
 30
0.0
 11
1.0
 21
0.0
 31
0.0
 73
2
 44
0.9
  1
206.8\P[8.14]
 40
0.1
 41
0.6
  0
LINE
  5
242
100
AcDbEntity
  8
SCHEME_DIMS
100
AcDbLine
 62
7
  6
CONTINUOUS
 10
8.2440439561
 20
7.1281931241
 11
10.0834183725
 21
7.1281931241
  0
LINE
  5
243
100
AcDbEntity
  8
SCHEME_DIMS
100
AcDbLine
 62
7
  6
CONTINUOUS
 10
8.6101856884
 20
15.2679569037
 11
10.0834183725
 21
15.2679569037
  0
LINE
  5
244
100
AcDbEntity
  8
SCHEME_DIMS
100
AcDbLine
 62
7
  6
CONTINUOUS
 10
9.9584183725
 20
7.1281931241
 11
9.9584183725
 21
10.8980750139
  0
LINE
  5
245
100
AcDbEntity
  8
SCHEME_DIMS
100
AcDbLine
 62
7
  6
CONTINUOUS
 10
9.9584183725
 20
15.2679569037
 11
9.9584183725
 21
11.3480750139
  0
INSERT
  5
246
100
AcDbEntity
  8
SCHEME_DIMS
100
AcDbBlockReference
 62
7
  6
CONTINUOUS
  2
_FILLED
 10
9.9584183725
 20
7.1281931241
 41
0.1875
 42
0.1875
 43
0.1875
 50
270.0
  0
INSERT
  5
247
100
AcDbEntity
  8
SCHEME_DIMS
100
AcDbBlockReference
 62
7
  6
CONTINUOUS
  2
_FILLED
 10
9.9584183725
 20
15.2679569037
 41
0.1875
 42
0.1875
 43
0.1875
 50
90.0
  0
ENDBLK
  5
248
100
AcDbEntity
  8
0
  6
BYBLOCK
 62
0
100
AcDbBlockEnd
  0
BLOCK
  5
249
100
AcDbEntity
  8
SCHEME_DIMS
100
AcDbBlockBegin
 62
7
  6
CONTINUOUS
  2
*D4
 70
65
 10
0.0
 20
0.0
  3
*D4
  1

  0
MTEXT
  5
24A
100
AcDbEntity
  8
SCHEME_DIMS
100
AcDbMText
 62
7
  6
CONTINUOUS
  7
STANDARD
 71
2
 72
1
 10
5.8770940732
 20
9.4616576911
 30
0.0
 11
1.0
 21
0.0
 31
0.0
 73
2
 44
0.9
  1
4X 27.2\P[1.07]
 40
0.1
 41
0.7
  0
LINE
  5
24B
100
AcDbEntity
  8
SCHEME_DIMS
100
AcDbLine
 62
7
  6
CONTINUOUS
 10
6.6131384443
 20
9.9470907619
 11
5.8520940732
 21
9.9470907619
  0
LINE
  5
24C
100
AcDbEntity
  8
SCHEME_DIMS
100
AcDbLine
 62
7
  6
CONTINUOUS
 10
6.6131384443
 20
8.8762246202
 11
5.8520940732
 21
8.8762246202
  0
LINE
  5
24D
100
AcDbEntity
  8
SCHEME_DIMS
100
AcDbLine
 62
7
  6
CONTINUOUS
 10
5.9770940732
 20
9.9470907619
 11
5.9770940732
 21
9.5616576911
  0
LINE
  5
24E
100
AcDbEntity
  8
SCHEME_DIMS
100
AcDbLine
 62
7
  6
CONTINUOUS
 10
5.9770940732
 20
8.8762246202
 11
5.9770940732
 21
9.1116576911
  0
INSERT
  5
24F
100
AcDbEntity
  8
SCHEME_DIMS
100
AcDbBlockReference
 62
7
  6
CONTINUOUS
  2
_FILLED
 10
5.9770940732
 20
9.9470907619
 41
0.1875
 42
0.1875
 43
0.1875
 50
90.0
  0
INSERT
  5
250
100
AcDbEntity
  8
SCHEME_DIMS
100
AcDbBlockReference
 62
7
  6
CONTINUOUS
  2
_FILLED
 10
5.9770940732
 20
8.8762246202
 41
0.1875
 42
0.1875
 43
0.1875
 50
270.0
  0
ENDBLK
  5
251
100
AcDbEntity
  8
0
  6
BYBLOCK
 62
0
100
AcDbBlockEnd
  0
BLOCK
  5
252
100
AcDbEntity
  8
0
100
AcDbBlockBegin
  2
*T1
 70
1
 10
0.0
 20
0.0
  3
*T1
  1

  0
LINE
  5
253
100
AcDbEntity
  8
0
100
AcDbLine
 62
7
  6
CONTINUOUS
 10
4.35
 20
0.0
 11
0.0
 21
0.0
  0
LINE
  5
254
100
AcDbEntity
  8
0
100
AcDbLine
 62
7
  6
CONTINUOUS
 10
4.35
 20
0.0
 11
4.35
 21
1.92
  0
LINE
  5
255
100
AcDbEntity
  8
0
100
AcDbLine
 62
7
  6
CONTINUOUS
 10
4.35
 20
1.92
 11
0.0
 21
1.92
  0
LINE
  5
256
100
AcDbEntity
  8
0
100
AcDbLine
 62
7
  6
CONTINUOUS
 10
0.0
 20
0.0
 11
0.0
 21
1.92
  0
MTEXT
  5
257
100
AcDbEntity
  8
NOTES
100
AcDbMText
 62
7
  6
CONTINUOUS
  7
STANDARD
 71
2
 72
1
 10
4.125
 20
0.48
 30
0.0
 11
1.0
 21
0.0
 31
0.0
 73
2
 44
0.9
  1
A
 40
0.1
 41
0.2
  0
MTEXT
  5
258
100
AcDbEntity
  8
NOTES
100
AcDbMText
 62
7
  6
CONTINUOUS
  7
STANDARD
 71
2
 72
1
 10
2.175
 20
1.08
 30
0.0
 11
1.0
 21
0.0
 31
0.0
 73
2
 44
0.9
  1
TL50 BASIC 4 STACK CABLE \P 
 40
0.1
 41
5.0
  0
ENDBLK
  5
259
100
AcDbEntity
  8
0
  6
BYBLOCK
 62
0
100
AcDbBlockEnd
  0
ENDSEC
  0
SECTION
  2
ENTITIES
  0
MTEXT
  5
25A
100
AcDbEntity
  8
0
100
AcDbMText
 62
7
  6
CONTINUOUS
  7
TEXTSTYLE_2
 71
2
 72
1
 10
15.7174677477
 20
1.6655662523
 30
0.0
 11
1.0
 21
0.0
 31
0.0
 73
2
 44
0.9
  1
THIRD ANGLE PROJECTION
 40
0.1
 41
1.76
  0
MTEXT
  5
25B
100
AcDbEntity
  8
0
100
AcDbMText
 62
7
  6
CONTINUOUS
  7
STANDARD
 71
1
 72
1
 10
17.55
 20
1.32
 30
0.0
 11
1.0
 21
0.0
 31
0.0
 73
2
 44
0.9
  1
DRAWING NO.
 40
0.08
 41
0.88
  0
MTEXT
  5
25C
100
AcDbEntity
  8
0
100
AcDbMText
 62
7
  6
CONTINUOUS
  7
TEXTSTYLE_2
 71
1
 72
1
 10
16.75
 20
2.08
 30
0.0
 11
1.0
 21
0.0
 31
0.0
 73
2
 44
0.9
  1
TITLE
 40
0.1
 41
0.4
  0
MTEXT
  5
25D
100
AcDbEntity
  8
0
100
AcDbMText
 62
7
  6
CONTINUOUS
  7
STANDARD
 71
1
 72
1
 10
16.75
 20
1.32
 30
0.0
 11
1.0
 21
0.0
 31
0.0
 73
2
 44
0.9
  1
SIZE
 40
0.08
 41
0.32
  0
MTEXT
  5
25E
100
AcDbEntity
  8
0
100
AcDbMText
 62
7
  6
CONTINUOUS
  7
STANDARD
 71
1
 72
1
 10
16.75
 20
0.95
 30
0.0
 11
1.0
 21
0.0
 31
0.0
 73
2
 44
0.9
  1
SCALE
 40
0.08
 41
0.4
  0
MTEXT
  5
25F
100
AcDbEntity
  8
0
100
AcDbMText
 62
7
  6
CONTINUOUS
  7
TEXTSTYLE_2
 71
2
 72
1
 10
17.17
 20
1.2
 30
0.0
 11
1.0
 21
0.0
 31
0.0
 73
2
 44
0.9
  1
C
 40
0.1
 41
0.08
  0
MTEXT
  5
260
100
AcDbEntity
  8
0
100
AcDbMText
 62
7
  6
CONTINUOUS
  7
STANDARD
 71
1
 72
1
 10
18.925
 20
0.95
 30
0.0
 11
1.0
 21
0.0
 31
0.0
 73
2
 44
0.9
  1
SHEET
 40
0.08
 41
0.4
  0
MTEXT
  5
261
100
AcDbEntity
  8
0
100
AcDbMText
 62
7
  6
CONTINUOUS
  7
STANDARD
 71
1
 72
1
 10
20.3
 20
1.32
 30
0.0
 11
1.0
 21
0.0
 31
0.0
 73
2
 44
0.9
  1
REV.
 40
0.08
 41
0.32
  0
MTEXT
  5
262
100
AcDbEntity
  8
0
100
AcDbMText
 62
7
  6
CONTINUOUS
  7
STANDARD
 71
3
 72
1
 10
21.05
 20
0.698443
 30
0.0
 11
1.0
 21
0.0
 31
0.0
 73
2
 44
0.9
  1
CREO
 40
0.07
 41
0.28
  0
MTEXT
  5
263
100
AcDbEntity
  8
0
100
AcDbMText
 62
7
  6
CONTINUOUS
  7
TEXTSTYLE_2
 71
2
 72
1
 10
12.257
 20
15.95
 30
0.0
 11
1.0
 21
0.0
 31
0.0
 73
2
 44
0.9
  1
4
 40
0.1
 41
0.08
  0
MTEXT
  5
264
100
AcDbEntity
  8
0
100
AcDbMText
 62
7
  6
CONTINUOUS
  7
TEXTSTYLE_2
 71
2
 72
1
 10
12.257
 20
0.65
 30
0.0
 11
1.0
 21
0.0
 31
0.0
 73
2
 44
0.9
  1
4
 40
0.1
 41
0.08
  0
MTEXT
  5
265
100
AcDbEntity
  8
0
100
AcDbMText
 62
7
  6
CONTINUOUS
  7
TEXTSTYLE_2
 71
3
 72
1
 10
0.864
 20
6.375
 30
0.0
 11
1.0
 21
0.0
 31
0.0
 73
2
 44
0.9
  1
B
 40
0.1
 41
0.08
  0
MTEXT
  5
266
100
AcDbEntity
  8
0
100
AcDbMText
 62
7
  6
CONTINUOUS
  7
TEXTSTYLE_2
 71
1
 72
1
 10
21.15
 20
6.375
 30
0.0
 11
1.0
 21
0.0
 31
0.0
 73
2
 44
0.9
  1
B
 40
0.1
 41
0.08
  0
MTEXT
  5
267
100
AcDbEntity
  8
0
100
AcDbMText
 62
7
  6
CONTINUOUS
  7
TEXTSTYLE_2
 71
3
 72
1
 10
0.864
 20
2.525
 30
0.0
 11
1.0
 21
0.0
 31
0.0
 73
2
 44
0.9
  1
A
 40
0.1
 41
0.08
  0
MTEXT
  5
268
100
AcDbEntity
  8
0
100
AcDbMText
 62
7
  6
CONTINUOUS
  7
TEXTSTYLE_2
 71
1
 72
1
 10
21.15
 20
2.525
 30
0.0
 11
1.0
 21
0.0
 31
0.0
 73
2
 44
0.9
  1
A
 40
0.1
 41
0.08
  0
MTEXT
  5
269
100
AcDbEntity
  8
0
100
AcDbMText
 62
7
  6
CONTINUOUS
  7
TEXTSTYLE_2
 71
3
 72
1
 10
0.864
 20
14.075
 30
0.0
 11
1.0
 21
0.0
 31
0.0
 73
2
 44
0.9
  1
D
 40
0.1
 41
0.08
  0
MTEXT
  5
26A
100
AcDbEntity
  8
0
100
AcDbMText
 62
7
  6
CONTINUOUS
  7
TEXTSTYLE_2
 71
1
 72
1
 10
21.15
 20
14.075
 30
0.0
 11
1.0
 21
0.0
 31
0.0
 73
2
 44
0.9
  1
D
 40
0.1
 41
0.08
  0
MTEXT
  5
26B
100
AcDbEntity
  8
0
100
AcDbMText
 62
7
  6
CONTINUOUS
  7
TEXTSTYLE_2
 71
3
 72
1
 10
0.864
 20
10.225
 30
0.0
 11
1.0
 21
0.0
 31
0.0
 73
2
 44
0.9
  1
C
 40
0.1
 41
0.08
  0
MTEXT
  5
26C
100
AcDbEntity
  8
0
100
AcDbMText
 62
7
  6
CONTINUOUS
  7
TEXTSTYLE_2
 71
1
 72
1
 10
21.15
 20
10.225
 30
0.0
 11
1.0
 21
0.0
 31
0.0
 73
2
 44
0.9
  1
C
 40
0.1
 41
0.08
  0
MTEXT
  5
26D
100
AcDbEntity
  8
0
100
AcDbMText
 62
7
  6
CONTINUOUS
  7
TEXTSTYLE_2
 71
2
 72
1
 10
14.757
 20
0.65
 30
0.0
 11
1.0
 21
0.0
 31
0.0
 73
2
 44
0.9
  1
3
 40
0.1
 41
0.08
  0
MTEXT
  5
26E
100
AcDbEntity
  8
0
100
AcDbMText
 62
7
  6
CONTINUOUS
  7
TEXTSTYLE_2
 71
2
 72
1
 10
14.757
 20
15.95
 30
0.0
 11
1.0
 21
0.0
 31
0.0
 73
2
 44
0.9
  1
3
 40
0.1
 41
0.08
  0
MTEXT
  5
26F
100
AcDbEntity
  8
0
100
AcDbMText
 62
7
  6
CONTINUOUS
  7
TEXTSTYLE_2
 71
2
 72
1
 10
17.257
 20
15.95
 30
0.0
 11
1.0
 21
0.0
 31
0.0
 73
2
 44
0.9
  1
2
 40
0.1
 41
0.08
  0
MTEXT
  5
270
100
AcDbEntity
  8
0
100
AcDbMText
 62
7
  6
CONTINUOUS
  7
TEXTSTYLE_2
 71
2
 72
1
 10
17.257
 20
0.65
 30
0.0
 11
1.0
 21
0.0
 31
0.0
 73
2
 44
0.9
  1
2
 40
0.1
 41
0.08
  0
MTEXT
  5
271
100
AcDbEntity
  8
0
100
AcDbMText
 62
7
  6
CONTINUOUS
  7
TEXTSTYLE_2
 71
2
 72
1
 10
19.757
 20
0.65
 30
0.0
 11
1.0
 21
0.0
 31
0.0
 73
2
 44
0.9
  1
1
 40
0.1
 41
0.08
  0
MTEXT
  5
272
100
AcDbEntity
  8
0
100
AcDbMText
 62
7
  6
CONTINUOUS
  7
TEXTSTYLE_2
 71
2
 72
1
 10
19.757
 20
15.95
 30
0.0
 11
1.0
 21
0.0
 31
0.0
 73
2
 44
0.9
  1
1
 40
0.1
 41
0.08
  0
MTEXT
  5
273
100
AcDbEntity
  8
0
100
AcDbMText
 62
7
  6
CONTINUOUS
  7
TEXTSTYLE_2
 71
2
 72
1
 10
2.257
 20
0.65
 30
0.0
 11
1.0
 21
0.0
 31
0.0
 73
2
 44
0.9
  1
8
 40
0.1
 41
0.08
  0
MTEXT
  5
274
100
AcDbEntity
  8
0
100
AcDbMText
 62
7
  6
CONTINUOUS
  7
TEXTSTYLE_2
 71
2
 72
1
 10
4.757
 20
0.65
 30
0.0
 11
1.0
 21
0.0
 31
0.0
 73
2
 44
0.9
  1
7
 40
0.1
 41
0.08
  0
MTEXT
  5
275
100
AcDbEntity
  8
0
100
AcDbMText
 62
7
  6
CONTINUOUS
  7
TEXTSTYLE_2
 71
2
 72
1
 10
7.257
 20
0.65
 30
0.0
 11
1.0
 21
0.0
 31
0.0
 73
2
 44
0.9
  1
6
 40
0.1
 41
0.08
  0
MTEXT
  5
276
100
AcDbEntity
  8
0
100
AcDbMText
 62
7
  6
CONTINUOUS
  7
TEXTSTYLE_2
 71
2
 72
1
 10
9.757
 20
0.65
 30
0.0
 11
1.0
 21
0.0
 31
0.0
 73
2
 44
0.9
  1
5
 40
0.1
 41
0.08
  0
MTEXT
  5
277
100
AcDbEntity
  8
0
100
AcDbMText
 62
7
  6
CONTINUOUS
  7
TEXTSTYLE_2
 71
2
 72
1
 10
9.757
 20
15.95
 30
0.0
 11
1.0
 21
0.0
 31
0.0
 73
2
 44
0.9
  1
5
 40
0.1
 41
0.08
  0
MTEXT
  5
278
100
AcDbEntity
  8
0
100
AcDbMText
 62
7
  6
CONTINUOUS
  7
TEXTSTYLE_2
 71
2
 72
1
 10
7.257
 20
15.95
 30
0.0
 11
1.0
 21
0.0
 31
0.0
 73
2
 44
0.9
  1
6
 40
0.1
 41
0.08
  0
MTEXT
  5
279
100
AcDbEntity
  8
0
100
AcDbMText
 62
7
  6
CONTINUOUS
  7
TEXTSTYLE_2
 71
2
 72
1
 10
4.757
 20
15.95
 30
0.0
 11
1.0
 21
0.0
 31
0.0
 73
2
 44
0.9
  1
7
 40
0.1
 41
0.08
  0
MTEXT
  5
27A
100
AcDbEntity
  8
0
100
AcDbMText
 62
7
  6
CONTINUOUS
  7
TEXTSTYLE_2
 71
2
 72
1
 10
2.257
 20
15.95
 30
0.0
 11
1.0
 21
0.0
 31
0.0
 73
2
 44
0.9
  1
8
 40
0.1
 41
0.08
  0
MTEXT
  5
27B
100
AcDbEntity
  8
0
100
AcDbMText
 62
7
  6
CONTINUOUS
  7
STANDARD
 71
1
 72
1
 10
17.2749123633
 20
0.9184107931
 30
0.0
 11
1.0
 21
0.0
 31
0.0
 73
2
 44
0.9
  1
1:1
 40
0.1
 41
0.3
  0
MTEXT
  5
27C
100
AcDbEntity
  8
0
100
AcDbMText
 62
7
  6
CONTINUOUS
  7
STANDARD
 71
1
 72
1
 10
19.4499123633
 20
0.9184107931
 30
0.0
 11
1.0
 21
0.0
 31
0.0
 73
2
 44
0.9
  1
1 OF 1
 40
0.1
 41
0.6
  0
MTEXT
  5
27D
100
AcDbEntity
  8
0
100
AcDbMText
 62
7
  6
CONTINUOUS
  7
STANDARD
 71
1
 72
1
 10
18.5204017884
 20
1.2400373234
 30
0.0
 11
1.0
 21
0.0
 31
0.0
 73
2
 44
0.9
  1
212920
 40
0.12
 41
0.72
  0
MTEXT
  5
27E
100
AcDbEntity
  8
0
100
AcDbMText
 62
7
  6
CONTINUOUS
  7
STANDARD
 71
1
 72
1
 10
1.2857894151
 20
1.4458068967
 30
0.0
 11
1.0
 21
0.0
 31
0.0
 73
2
 44
0.9
  1
NOTES:\P1. ALL DIMENSIONS ARE MILLIMETERS [INCHES] UNLESS OTHERWISE NOTED.\P2. REFER TO "www.bannerengineering.com" FOR ADDITIONAL DATA AND SPECIFICATIONS.
 40
0.1
 41
7.9
  0
MTEXT
  5
27F
100
AcDbEntity
  8
0
100
AcDbMText
 62
7
  6
CONTINUOUS
  7
TEXTSTYLE_3
 71
2
 72
1
 10
19.7555637832
 20
2.555409194
 30
0.0
 11
1.0
 21
0.0
 31
0.0
 73
2
 44
0.9
  1
BANNER ENGINEERING CORP.
 40
0.12
 41
2.592
  0
MTEXT
  5
280
100
AcDbEntity
  8
0
100
AcDbMText
 62
7
  6
CONTINUOUS
  7
TEXTSTYLE_2
 71
2
 72
1
 10
19.6690932526
 20
2.3442032634
 30
0.0
 11
1.0
 21
0.0
 31
0.0
 73
2
 44
0.9
  1
www.bannerengineering.com
 40
0.1
 41
2.0
  0
MTEXT
  5
281
100
AcDbEntity
  8
0
100
AcDbMText
 62
7
  6
CONTINUOUS
  7
TEXTSTYLE_4
 71
2
 72
1
 10
15.7104628329
 20
2.6377571551
 30
0.0
 11
1.0
 21
0.0
 31
0.0
 73
2
 44
0.9
  1
This drawing is the property\Pof BANNER ENGINEERING CORP.\PAny use or reproduction,\Pin any form, without prior\Pwritten permission of\PBanner is prohibited.
 40
0.08
 41
1.904
  0
MTEXT
  5
282
100
AcDbEntity
  8
0
100
AcDbMText
 62
7
  6
CONTINUOUS
  7
TEXTSTYLE_5
 71
2
 72
1
 10
15.7283993136
 20
1.9032170366
 30
0.0
 11
1.0
 21
0.0
 31
0.0
 73
2
 44
0.9
  1
C  2015 Banner Engineering Corp.
 40
0.08
 41
1.92
  0
DIMENSION
  5
283
100
AcDbEntity
  8
SCHEME_DIMS
100
AcDbDimension
 62
7
  6
CONTINUOUS
  2
*D0
 10
8.3499009613
 20
3.6799253814
 11
9.0647142496
 21
3.7072756353
 70
163
 71
1
 72
2
 41
0.9
 42
50.5
  1
%%c<>\P[]
  3
DIMSTYLE_1
100
AcDbDiametricDimension
 15
6.9738168723
 25
2.2449034353
  0
DIMENSION
  5
284
100
AcDbEntity
  8
SCHEME_DIMS
100
AcDbDimension
 62
7
  6
CONTINUOUS
  2
*D1
 10
8.5476856884
 20
5.1921381606
 11
7.6618589168
 21
5.1171381606
 70
160
 71
2
 72
2
 41
0.9
 42
45.0
  1
%%c<>\P[]
  3
DIMSTYLE_2
100
AcDbAlignedDimension
 13
6.7760321451
 23
7.9727338638
 14
8.5476856884
 24
7.9714507732
100
AcDbRotatedDimension
  0
DIMENSION
  5
285
100
AcDbEntity
  8
SCHEME_DIMS
100
AcDbDimension
 62
7
  6
CONTINUOUS
  2
*D2
 10
9.2244180218
 20
7.8762246202
 11
9.2244180218
 21
7.4272088722
 70
160
 71
2
 72
2
 41
0.9
 42
19.0
  1
<>\P[]
  3
DIMSTYLE_2
100
AcDbAlignedDimension
 13
8.1815439561
 23
7.1281931241
 14
8.4177644286
 24
7.8762246202
 50
90.0
100
AcDbRotatedDimension
  0
DIMENSION
  5
286
100
AcDbEntity
  8
SCHEME_DIMS
100
AcDbDimension
 62
7
  6
CONTINUOUS
  2
*D3
 10
9.9584183725
 20
15.2679569037
 11
9.9584183725
 21
11.1230750139
 70
160
 71
2
 72
2
 41
0.9
 42
206.75
  1
<>\P[]
  3
DIMSTYLE_2
100
AcDbAlignedDimension
 13
8.1815439561
 23
7.1281931241
 14
8.5476856884
 24
15.2679569037
 50
90.0
100
AcDbRotatedDimension
  0
DIMENSION
  5
287
100
AcDbEntity
  8
SCHEME_DIMS
100
AcDbDimension
 62
7
  6
CONTINUOUS
  2
*D4
 10
5.9770940732
 20
8.8762246202
 11
5.9770940732
 21
9.3366576911
 70
160
 71
2
 72
2
 41
0.9
 42
27.2
  1
4X <>\P[]
  3
DIMSTYLE_2
100
AcDbAlignedDimension
 13
6.6756384443
 23
9.9470907619
 14
6.6756384443
 24
8.8762246202
 50
270.0
100
AcDbRotatedDimension
  0
ACAD_TABLE
  5
288
100
AcDbEntity
  8
0
 62
7
  6
CONTINUOUS
100
AcDbBlockReference
  2
*T1
 10
16.7
 20
0.75
 30
0.0
100
AcDbTable
342
       6E1
343
21D
 11
1.0
 21
0.0
 31
0.0
 90
6
 91
3
 92
5
 93
4
 94
0
 95
0
 96
0
 70
1
141
0.33
141
0.45
141
1.14
142
0.65
142
1.15
142
1.025
142
1.075
142
0.45
171
1
172
0
173
0
174
0
175
1
176
1
 91
33
178
0
145
0.0
301
CELL_VALUE
 90
4
  1
 
304
ACVALUE_END
170
1
140
0.1
171
1
172
0
173
0
174
0
175
1
176
1
 91
33
178
0
145
0.0
301
CELL_VALUE
 90
4
  1
 
304
ACVALUE_END
170
1
140
0.1
171
1
172
0
173
0
174
0
175
1
176
1
 91
33
178
0
145
0.0
301
CELL_VALUE
 90
4
  1
 
304
ACVALUE_END
170
1
140
0.1
171
1
172
0
173
0
174
0
175
1
176
1
 91
33
178
0
145
0.0
301
CELL_VALUE
 90
4
  1
 
304
ACVALUE_END
170
1
140
0.1
171
1
172
0
173
0
174
0
175
1
176
1
 91
33
178
0
145
0.0
301
CELL_VALUE
 90
4
  1
 
304
ACVALUE_END
170
1
140
0.1
171
1
172
0
173
0
174
0
175
1
176
1
 91
33
178
0
145
0.0
301
CELL_VALUE
 90
4
  1
 
304
ACVALUE_END
170
1
140
0.1
171
1
172
0
173
0
174
0
175
1
176
1
 91
33
178
0
145
0.0
301
CELL_VALUE
 90
4
  1
 
304
ACVALUE_END
170
1
140
0.1
171
1
172
0
173
0
174
0
175
1
176
1
 91
33
178
0
145
0.0
301
CELL_VALUE
 90
4
  1
 
304
ACVALUE_END
170
1
140
0.1
171
1
172
0
173
0
174
0
175
1
176
1
 91
33
178
0
145
0.0
301
CELL_VALUE
 90
4
  1
 
304
ACVALUE_END
170
1
140
0.1
171
1
172
0
173
0
174
0
175
1
176
1
 91
41
178
0
145
0.0
301
CELL_VALUE
 90
4
  1
A
304
ACVALUE_END
170
8
140
0.1
 64
7
171
1
172
0
173
0
174
0
175
5
176
1
 91
33
178
0
145
0.0
301
CELL_VALUE
 90
4
  1
TL50 BASIC 4 STACK CABLE \P 
304
ACVALUE_END
170
8
140
0.1
171
1
172
0
173
1
174
0
175
1
176
1
 91
1
178
0
145
0.0
170
1
171
1
172
0
173
1
174
0
175
1
176
1
 91
1
178
0
145
0.0
170
1
171
1
172
0
173
1
174
0
175
1
176
1
 91
1
178
0
145
0.0
170
1
171
1
172
0
173
1
174
0
175
1
176
1
 91
1
178
0
145
0.0
170
8
  0
LEADER
  5
289
100
AcDbEntity
  8
NOTES
100
AcDbLeader
 62
7
  6
CONTINUOUS
  3
STANDARD
 71
1
 72
0
 73
0
 75
0
 40
0.1
 41
1.4
 76
3
 10
7.0802398331
 20
7.3196670818
 30
0.0
 10
6.7570912099
 20
7.1512673523
 30
0.0
 10
6.6315184895
 20
7.1512673523
 30
0.0
340
28A
1001
ACAD
1000
DSTYLE
1002
{
1070
77
1070
0
1002
}
  0
MTEXT
  5
28A
102
{ACAD_REACTORS
330
289
102
}
100
AcDbEntity
  8
NOTES
100
AcDbMText
 62
7
  6
CONTINUOUS
  7
STANDARD
 71
3
 72
1
 10
6.6315184895
 20
7.2012673523
 30
0.0
 11
1.0
 21
0.0
 31
0.0
 73
2
 44
0.9
  1
 M30 X 1.5-5g 
 40
0.1
 41
1.4
  0
LEADER
  5
28B
100
AcDbEntity
  8
NOTES
100
AcDbLeader
 62
7
  6
CONTINUOUS
  3
STANDARD
 71
1
 72
0
 73
0
 75
0
 40
0.1
 41
1.2
 76
3
 10
7.9715318017
 20
2.7482767088
 30
0.0
 10
8.5873127524
 20
2.3224663695
 30
0.0
 10
8.7009305328
 20
2.3224663695
 30
0.0
340
28C
1001
ACAD
1000
DSTYLE
1002
{
1070
77
1070
0
1002
}
  0
MTEXT
  5
28C
102
{ACAD_REACTORS
330
28B
102
}
100
AcDbEntity
  8
NOTES
100
AcDbMText
 62
7
  6
CONTINUOUS
  7
STANDARD
 71
1
 72
1
 10
8.7009305328
 20
2.3724663695
 30
0.0
 11
1.0
 21
0.0
 31
0.0
 73
2
 44
0.9
  1
 1/2-14 NPSM
 40
0.1
 41
1.2
  0
MTEXT
  5
28D
100
AcDbEntity
  8
NOTES
100
AcDbMText
 62
7
  6
CONTINUOUS
  7
STANDARD
 71
2
 72
1
 10
17.5706005114
 20
4.9164816604
 30
0.0
 11
1.0
 21
0.0
 31
0.0
 73
2
 44
0.9
  1
ISOMETRIC VIEW\P\H0.1;SCALE  1:1
 40
0.125
 41
1.75
  0
LINE
  5
28E
100
AcDbEntity
  8
0
100
AcDbLine
 62
7
  6
CONTINUOUS
 10
0.814
 20
8.336603
 11
0.814
 21
8.163397
  0
LINE
  5
28F
100
AcDbEntity
  8
0
100
AcDbLine
 62
7
  6
CONTINUOUS
 10
0.964
 20
15.75
 11
0.964
 21
0.75
  0
LINE
  5
290
100
AcDbEntity
  8
0
100
AcDbLine
 62
7
  6
CONTINUOUS
 10
15.8276527477
 20
1.2966912523
 11
16.4340437477
 21
1.3660842523
  0
LINE
  5
291
100
AcDbEntity
  8
0
100
AcDbLine
 62
7
  6
CONTINUOUS
 10
10.920397
 20
0.6
 11
11.093603
 21
0.6
  0
LINE
  5
292
100
AcDbEntity
  8
0
100
AcDbLine
 62
7
  6
CONTINUOUS
 10
0.964
 20
0.75
 11
21.05
 21
0.75
  0
LINE
  5
293
100
AcDbEntity
  8
0
100
AcDbLine
 62
7
  6
CONTINUOUS
 10
3.507
 20
0.75
 11
3.507
 21
0.5
  0
LINE
  5
294
100
AcDbEntity
  8
0
100
AcDbLine
 62
7
  6
CONTINUOUS
 10
3.507
 20
15.75
 11
3.507
 21
16.0
  0
LINE
  5
295
100
AcDbEntity
  8
0
100
AcDbLine
 62
7
  6
CONTINUOUS
 10
16.7
 20
1.0
 11
21.05
 21
1.0
  0
LINE
  5
296
100
AcDbEntity
  8
0
100
AcDbLine
 62
7
  6
CONTINUOUS
 10
14.9008917477
 20
1.1139932523
 11
15.1229827477
 21
1.1139932523
  0
LINE
  5
297
100
AcDbEntity
  8
0
100
AcDbLine
 62
7
  6
CONTINUOUS
 10
15.1729827477
 20
1.1139932523
 11
15.2729827477
 21
1.1139932523
  0
LINE
  5
298
100
AcDbEntity
  8
0
100
AcDbLine
 62
7
  6
CONTINUOUS
 10
15.3229827477
 20
1.1139932523
 11
15.5450737477
 21
1.1139932523
  0
LINE
  5
299
100
AcDbEntity
  8
0
100
AcDbLine
 62
7
  6
CONTINUOUS
 10
15.7276527477
 20
1.1139932523
 11
16.0058047477
 21
1.1139932523
  0
LINE
  5
29A
100
AcDbEntity
  8
0
100
AcDbLine
 62
7
  6
CONTINUOUS
 10
16.0558047477
 20
1.1139932523
 11
16.2058907477
 21
1.1139932523
  0
LINE
  5
29B
100
AcDbEntity
  8
0
100
AcDbLine
 62
7
  6
CONTINUOUS
 10
16.2558907477
 20
1.1139932523
 11
16.5340437477
 21
1.1139932523
  0
LINE
  5
29C
100
AcDbEntity
  8
0
100
AcDbLine
 62
7
  6
CONTINUOUS
 10
16.7
 20
1.37
 11
21.05
 21
1.37
  0
LINE
  5
29D
100
AcDbEntity
  8
0
100
AcDbLine
 62
7
  6
CONTINUOUS
 10
16.4340437477
 20
0.8619022523
 11
15.8276527477
 21
0.9312952523
  0
LINE
  5
29E
100
AcDbEntity
  8
0
100
AcDbLine
 62
7
  6
CONTINUOUS
 10
14.7
 20
1.77
 11
16.7
 21
1.77
  0
LINE
  5
29F
100
AcDbEntity
  8
0
100
AcDbLine
 62
7
  6
CONTINUOUS
 10
16.7
 20
2.13
 11
21.05
 21
2.13
  0
LINE
  5
2A0
100
AcDbEntity
  8
0
100
AcDbLine
 62
7
  6
CONTINUOUS
 10
18.273144232
 20
2.3543254011
 11
18.2257802057
 21
2.3543254011
  0
LINE
  5
2A1
100
AcDbEntity
  8
0
100
AcDbLine
 62
7
  6
CONTINUOUS
 10
18.1818891814
 20
2.3543254011
 11
18.0683181184
 21
2.3543254011
  0
LINE
  5
2A2
100
AcDbEntity
  8
0
100
AcDbLine
 62
7
  6
CONTINUOUS
 10
18.0394141024
 20
2.3543254011
 11
17.8362019897
 21
2.3543254011
  0
LINE
  5
2A3
100
AcDbEntity
  8
0
100
AcDbLine
 62
7
  6
CONTINUOUS
 10
17.7857289617
 20
2.3543254011
 11
17.7115229205
 21
2.3543254011
  0
LINE
  5
2A4
100
AcDbEntity
  8
0
100
AcDbLine
 62
7
  6
CONTINUOUS
 10
17.6651428948
 20
2.3543254011
 11
17.5894788529
 21
2.3543254011
  0
LINE
  5
2A5
100
AcDbEntity
  8
0
100
AcDbLine
 62
7
  6
CONTINUOUS
 10
17.537475824
 20
2.3543254011
 11
17.4632707829
 21
2.3543254011
  0
LINE
  5
2A6
100
AcDbEntity
  8
0
100
AcDbLine
 62
7
  6
CONTINUOUS
 10
17.4168897572
 20
2.3543254011
 11
17.3412257152
 21
2.3543254011
  0
LINE
  5
2A7
100
AcDbEntity
  8
0
100
AcDbLine
 62
7
  6
CONTINUOUS
 10
16.8743904563
 20
2.3543254011
 11
17.0508365542
 21
2.3543254011
  0
LINE
  5
2A8
100
AcDbEntity
  8
0
100
AcDbLine
 62
7
  6
CONTINUOUS
 10
17.1083735861
 20
2.3543254011
 11
17.185749629
 21
2.3543254011
  0
LINE
  5
2A9
100
AcDbEntity
  8
0
100
AcDbLine
 62
7
  6
CONTINUOUS
 10
17.2060356402
 20
2.3543254011
 11
17.3113166986
 21
2.3543254011
  0
LINE
  5
2AA
100
AcDbEntity
  8
0
100
AcDbLine
 62
7
  6
CONTINUOUS
 10
18.1572301677
 20
2.3790534148
 11
18.1818891814
 21
2.3790534148
  0
LINE
  5
2AB
100
AcDbEntity
  8
0
100
AcDbLine
 62
7
  6
CONTINUOUS
 10
17.3113166986
 20
2.3790754148
 11
17.2913006875
 21
2.3790754148
  0
LINE
  5
2AC
100
AcDbEntity
  8
0
100
AcDbLine
 62
7
  6
CONTINUOUS
 10
17.2204866482
 20
2.3790754148
 11
17.2060356402
 21
2.3790754148
  0
LINE
  5
2AD
100
AcDbEntity
  8
0
100
AcDbLine
 62
7
  6
CONTINUOUS
 10
17.185749629
 20
2.3790754148
 11
17.1744666227
 21
2.3790754148
  0
LINE
  5
2AE
100
AcDbEntity
  8
0
100
AcDbLine
 62
7
  6
CONTINUOUS
 10
17.1312345987
 20
2.3790754148
 11
17.1083735861
 21
2.3790754148
  0
LINE
  5
2AF
100
AcDbEntity
  8
0
100
AcDbLine
 62
7
  6
CONTINUOUS
 10
17.0051585288
 20
2.3790754148
 11
16.9637955059
 21
2.3790754148
  0
LINE
  5
2B0
100
AcDbEntity
  8
0
100
AcDbLine
 62
7
  6
CONTINUOUS
 10
16.8983324696
 20
2.3790754148
 11
16.8743904563
 21
2.3790754148
  0
LINE
  5
2B1
100
AcDbEntity
  8
0
100
AcDbLine
 62
7
  6
CONTINUOUS
 10
17.3412257152
 20
2.3790754148
 11
17.3598727255
 21
2.3790754148
  0
LINE
  5
2B2
100
AcDbEntity
  8
0
100
AcDbLine
 62
7
  6
CONTINUOUS
 10
17.3965727459
 20
2.3790754148
 11
17.4168897572
 21
2.3790754148
  0
LINE
  5
2B3
100
AcDbEntity
  8
0
100
AcDbLine
 62
7
  6
CONTINUOUS
 10
17.5894788529
 20
2.3790754148
 11
17.6081248632
 21
2.3790754148
  0
LINE
  5
2B4
100
AcDbEntity
  8
0
100
AcDbLine
 62
7
  6
CONTINUOUS
 10
17.6448258836
 20
2.3790754148
 11
17.6651428948
 21
2.3790754148
  0
LINE
  5
2B5
100
AcDbEntity
  8
0
100
AcDbLine
 62
7
  6
CONTINUOUS
 10
17.8362019897
 20
2.3790754148
 11
17.860125003
 21
2.3790754148
  0
LINE
  5
2B6
100
AcDbEntity
  8
0
100
AcDbLine
 62
7
  6
CONTINUOUS
 10
17.9271410401
 20
2.3790754148
 11
17.9921450762
 21
2.3790754148
  0
LINE
  5
2B7
100
AcDbEntity
  8
0
100
AcDbLine
 62
7
  6
CONTINUOUS
 10
18.0683181184
 20
2.3790754148
 11
18.091064131
 21
2.3790754148
  0
LINE
  5
2B8
100
AcDbEntity
  8
0
100
AcDbLine
 62
7
  6
CONTINUOUS
 10
18.2741672326
 20
2.379462415
 11
18.2752762332
 21
2.379462415
  0
LINE
  5
2B9
100
AcDbEntity
  8
0
100
AcDbLine
 62
7
  6
CONTINUOUS
 10
17.9970950789
 20
2.3922754221
 11
18.0394141024
 21
2.3922754221
  0
LINE
  5
2BA
100
AcDbEntity
  8
0
100
AcDbLine
 62
7
  6
CONTINUOUS
 10
17.1799826258
 20
2.3927194224
 11
17.2148606451
 21
2.3927194224
  0
LINE
  5
2BB
100
AcDbEntity
  8
0
100
AcDbLine
 62
7
  6
CONTINUOUS
 10
18.2860312391
 20
2.3932124227
 11
18.2981412459
 21
2.3932124227
  0
LINE
  5
2BC
100
AcDbEntity
  8
0
100
AcDbLine
 62
7
  6
CONTINUOUS
 10
18.184837183
 20
2.3937024229
 11
18.1572301677
 21
2.3937024229
  0
LINE
  5
2BD
100
AcDbEntity
  8
0
100
AcDbLine
 62
7
  6
CONTINUOUS
 10
17.9623080596
 20
2.395575424
 11
17.9271410401
 21
2.395575424
  0
LINE
  5
2BE
100
AcDbEntity
  8
0
100
AcDbLine
 62
7
  6
CONTINUOUS
 10
16.9637955059
 20
2.3964004244
 11
17.0051585288
 21
2.3964004244
  0
LINE
  5
2BF
100
AcDbEntity
  8
0
100
AcDbLine
 62
7
  6
CONTINUOUS
 10
18.1911671865
 20
2.4127054335
 11
18.1572301677
 21
2.4127054335
  0
LINE
  5
2C0
100
AcDbEntity
  8
0
100
AcDbLine
 62
7
  6
CONTINUOUS
 10
16.9637955059
 20
2.4130554337
 11
17.0051585288
 21
2.4130554337
  0
LINE
  5
2C1
100
AcDbEntity
  8
0
100
AcDbLine
 62
7
  6
CONTINUOUS
 10
17.1884986305
 20
2.413669434
 11
17.2090556419
 21
2.413669434
  0
LINE
  5
2C2
100
AcDbEntity
  8
0
100
AcDbLine
 62
7
  6
CONTINUOUS
 10
17.9271410401
 20
2.4138804341
 11
17.9623080596
 21
2.4138804341
  0
LINE
  5
2C3
100
AcDbEntity
  8
0
100
AcDbLine
 62
7
  6
CONTINUOUS
 10
18.0379951016
 20
2.4171804359
 11
17.9961310784
 21
2.4171804359
  0
LINE
  5
2C4
100
AcDbEntity
  8
0
100
AcDbLine
 62
7
  6
CONTINUOUS
 10
17.2017966379
 20
2.429836443
 11
17.1956156344
 21
2.429836443
  0
LINE
  5
2C5
100
AcDbEntity
  8
0
100
AcDbLine
 62
7
  6
CONTINUOUS
 10
18.091064131
 20
2.4303804433
 11
18.0683181184
 21
2.4303804433
  0
LINE
  5
2C6
100
AcDbEntity
  8
0
100
AcDbLine
 62
7
  6
CONTINUOUS
 10
17.9911810756
 20
2.4303804433
 11
17.9271410401
 21
2.4303804433
  0
LINE
  5
2C7
100
AcDbEntity
  8
0
100
AcDbLine
 62
7
  6
CONTINUOUS
 10
17.860125003
 20
2.4303804433
 11
17.8362019897
 21
2.4303804433
  0
LINE
  5
2C8
100
AcDbEntity
  8
0
100
AcDbLine
 62
7
  6
CONTINUOUS
 10
17.8086119744
 20
2.4303804433
 11
17.7906789644
 21
2.4303804433
  0
LINE
  5
2C9
100
AcDbEntity
  8
0
100
AcDbLine
 62
7
  6
CONTINUOUS
 10
17.7533869438
 20
2.4303804433
 11
17.7346109333
 21
2.4303804433
  0
LINE
  5
2CA
100
AcDbEntity
  8
0
100
AcDbLine
 62
7
  6
CONTINUOUS
 10
17.6081248632
 20
2.4303804433
 11
17.5894788529
 21
2.4303804433
  0
LINE
  5
2CB
100
AcDbEntity
  8
0
100
AcDbLine
 62
7
  6
CONTINUOUS
 10
17.5603588367
 20
2.4303804433
 11
17.5424258268
 21
2.4303804433
  0
LINE
  5
2CC
100
AcDbEntity
  8
0
100
AcDbLine
 62
7
  6
CONTINUOUS
 10
17.5051338061
 20
2.4303804433
 11
17.4863577957
 21
2.4303804433
  0
LINE
  5
2CD
100
AcDbEntity
  8
0
100
AcDbLine
 62
7
  6
CONTINUOUS
 10
17.3598727255
 20
2.4303804433
 11
17.3412257152
 21
2.4303804433
  0
LINE
  5
2CE
100
AcDbEntity
  8
0
100
AcDbLine
 62
7
  6
CONTINUOUS
 10
17.0051585288
 20
2.4303804433
 11
16.9637955059
 21
2.4303804433
  0
LINE
  5
2CF
100
AcDbEntity
  8
0
100
AcDbLine
 62
7
  6
CONTINUOUS
 10
16.8743904563
 20
2.4303804433
 11
16.8983324696
 21
2.4303804433
  0
LINE
  5
2D0
100
AcDbEntity
  8
0
100
AcDbLine
 62
7
  6
CONTINUOUS
 10
18.1572301677
 20
2.4303804433
 11
18.1940311881
 21
2.4303804433
  0
LINE
  5
2D1
100
AcDbEntity
  8
0
100
AcDbLine
 62
7
  6
CONTINUOUS
 10
17.2393896587
 20
2.455130457
 11
17.182214627
 21
2.455130457
  0
LINE
  5
2D2
100
AcDbEntity
  8
0
100
AcDbLine
 62
7
  6
CONTINUOUS
 10
17.0404535484
 20
2.455130457
 11
16.8743904563
 21
2.455130457
  0
LINE
  5
2D3
100
AcDbEntity
  8
0
100
AcDbLine
 62
7
  6
CONTINUOUS
 10
17.3412257152
 20
2.455130457
 11
17.4416837709
 21
2.455130457
  0
LINE
  5
2D4
100
AcDbEntity
  8
0
100
AcDbLine
 62
7
  6
CONTINUOUS
 10
17.4863577957
 20
2.455130457
 11
17.5603588367
 21
2.455130457
  0
LINE
  5
2D5
100
AcDbEntity
  8
0
100
AcDbLine
 62
7
  6
CONTINUOUS
 10
17.5894788529
 20
2.455130457
 11
17.6899369086
 21
2.455130457
  0
LINE
  5
2D6
100
AcDbEntity
  8
0
100
AcDbLine
 62
7
  6
CONTINUOUS
 10
17.7346109333
 20
2.455130457
 11
17.8086119744
 21
2.455130457
  0
LINE
  5
2D7
100
AcDbEntity
  8
0
100
AcDbLine
 62
7
  6
CONTINUOUS
 10
17.8362019897
 20
2.455130457
 11
18.0379951016
 21
2.455130457
  0
LINE
  5
2D8
100
AcDbEntity
  8
0
100
AcDbLine
 62
7
  6
CONTINUOUS
 10
18.0683181184
 20
2.455130457
 11
18.2178992014
 21
2.455130457
  0
LINE
  5
2D9
100
AcDbEntity
  8
0
100
AcDbLine
 62
7
  6
CONTINUOUS
 10
17.0697205646
 20
2.4006414268
 11
17.059669559
 21
2.4041904287
  0
LINE
  5
2DA
100
AcDbEntity
  8
0
100
AcDbLine
 62
7
  6
CONTINUOUS
 10
17.4615617819
 20
2.3550094015
 11
17.3982817468
 21
2.415387435
  0
LINE
  5
2DB
100
AcDbEntity
  8
0
100
AcDbLine
 62
7
  6
CONTINUOUS
 10
17.4433917718
 20
2.4544464566
 11
17.5034248051
 21
2.3971664249
  0
LINE
  5
2DC
100
AcDbEntity
  8
0
100
AcDbLine
 62
7
  6
CONTINUOUS
 10
17.7098149196
 20
2.3550094015
 11
17.6465348845
 21
2.415387435
  0
LINE
  5
2DD
100
AcDbEntity
  8
0
100
AcDbLine
 62
7
  6
CONTINUOUS
 10
17.6916449095
 20
2.4544464566
 11
17.7516779428
 21
2.3971664249
  0
LINE
  5
2DE
100
AcDbEntity
  8
0
100
AcDbLine
 62
7
  6
CONTINUOUS
 10
17.2169386463
 20
2.3915884218
 11
17.2225646494
 21
2.3828954169
  0
LINE
  5
2DF
100
AcDbEntity
  8
0
100
AcDbLine
 62
7
  6
CONTINUOUS
 10
17.211133643
 20
2.4174894361
 11
17.203874639
 21
2.4287054423
  0
LINE
  5
2E0
100
AcDbEntity
  8
0
100
AcDbLine
 62
7
  6
CONTINUOUS
 10
17.2892236864
 20
2.3802054154
 11
17.2414676599
 21
2.4540004564
  0
LINE
  5
2E1
100
AcDbEntity
  8
0
100
AcDbLine
 62
7
  6
CONTINUOUS
 10
18.206476195
 20
2.3723714111
 11
18.204672194
 21
2.3784404145
  0
LINE
  5
2E2
100
AcDbEntity
  8
0
100
AcDbLine
 62
7
  6
CONTINUOUS
 10
16.8719154549
 20
2.4526554556
 11
16.8719154549
 21
2.4328554446
  0
LINE
  5
2E3
100
AcDbEntity
  8
0
100
AcDbLine
 62
7
  6
CONTINUOUS
 10
16.8719154549
 20
2.3766004134
 11
16.8719154549
 21
2.3568004025
  0
LINE
  5
2E4
100
AcDbEntity
  8
0
100
AcDbLine
 62
7
  6
CONTINUOUS
 10
16.9008074709
 20
2.4279054419
 11
16.9008074709
 21
2.3815504162
  0
LINE
  5
2E5
100
AcDbEntity
  8
0
100
AcDbLine
 62
7
  6
CONTINUOUS
 10
16.9613205045
 20
2.4279054419
 11
16.9613205045
 21
2.415530435
  0
LINE
  5
2E6
100
AcDbEntity
  8
0
100
AcDbLine
 62
7
  6
CONTINUOUS
 10
16.9613205045
 20
2.3815504162
 11
16.9613205045
 21
2.3939254231
  0
LINE
  5
2E7
100
AcDbEntity
  8
0
100
AcDbLine
 62
7
  6
CONTINUOUS
 10
17.1058985847
 20
2.3766004134
 11
17.1058985847
 21
2.3568004025
  0
LINE
  5
2E8
100
AcDbEntity
  8
0
100
AcDbLine
 62
7
  6
CONTINUOUS
 10
17.1882246303
 20
2.3568004025
 11
17.1882246303
 21
2.3766004134
  0
LINE
  5
2E9
100
AcDbEntity
  8
0
100
AcDbLine
 62
7
  6
CONTINUOUS
 10
17.2035606388
 20
2.3766004134
 11
17.2035606388
 21
2.3568004025
  0
LINE
  5
2EA
100
AcDbEntity
  8
0
100
AcDbLine
 62
7
  6
CONTINUOUS
 10
17.3137917
 20
2.3568004025
 11
17.3137917
 21
2.3766004134
  0
LINE
  5
2EB
100
AcDbEntity
  8
0
100
AcDbLine
 62
7
  6
CONTINUOUS
 10
17.3387507138
 20
2.3568004025
 11
17.3387507138
 21
2.3766004134
  0
LINE
  5
2EC
100
AcDbEntity
  8
0
100
AcDbLine
 62
7
  6
CONTINUOUS
 10
17.3387507138
 20
2.4328554446
 11
17.3387507138
 21
2.4526554556
  0
LINE
  5
2ED
100
AcDbEntity
  8
0
100
AcDbLine
 62
7
  6
CONTINUOUS
 10
17.3623477269
 20
2.3815504162
 11
17.3623477269
 21
2.4279054419
  0
LINE
  5
2EE
100
AcDbEntity
  8
0
100
AcDbLine
 62
7
  6
CONTINUOUS
 10
17.3940977445
 20
2.413596434
 11
17.3940977445
 21
2.3815504162
  0
LINE
  5
2EF
100
AcDbEntity
  8
0
100
AcDbLine
 62
7
  6
CONTINUOUS
 10
17.4193647585
 20
2.3766004134
 11
17.4193647585
 21
2.3568004025
  0
LINE
  5
2F0
100
AcDbEntity
  8
0
100
AcDbLine
 62
7
  6
CONTINUOUS
 10
17.4838827943
 20
2.4328554446
 11
17.4838827943
 21
2.4526554556
  0
LINE
  5
2F1
100
AcDbEntity
  8
0
100
AcDbLine
 62
7
  6
CONTINUOUS
 10
17.5076088075
 20
2.3989574258
 11
17.5076088075
 21
2.4279054419
  0
LINE
  5
2F2
100
AcDbEntity
  8
0
100
AcDbLine
 62
7
  6
CONTINUOUS
 10
17.5399508254
 20
2.4279054419
 11
17.5399508254
 21
2.3568004025
  0
LINE
  5
2F3
100
AcDbEntity
  8
0
100
AcDbLine
 62
7
  6
CONTINUOUS
 10
17.5628338381
 20
2.4526554556
 11
17.5628338381
 21
2.4328554446
  0
LINE
  5
2F4
100
AcDbEntity
  8
0
100
AcDbLine
 62
7
  6
CONTINUOUS
 10
17.5870038515
 20
2.3568004025
 11
17.5870038515
 21
2.3766004134
  0
LINE
  5
2F5
100
AcDbEntity
  8
0
100
AcDbLine
 62
7
  6
CONTINUOUS
 10
17.5870038515
 20
2.4328554446
 11
17.5870038515
 21
2.4526554556
  0
LINE
  5
2F6
100
AcDbEntity
  8
0
100
AcDbLine
 62
7
  6
CONTINUOUS
 10
17.6105998646
 20
2.3815504162
 11
17.6105998646
 21
2.4279054419
  0
LINE
  5
2F7
100
AcDbEntity
  8
0
100
AcDbLine
 62
7
  6
CONTINUOUS
 10
17.6423508822
 20
2.413596434
 11
17.6423508822
 21
2.3815504162
  0
LINE
  5
2F8
100
AcDbEntity
  8
0
100
AcDbLine
 62
7
  6
CONTINUOUS
 10
17.6676178962
 20
2.3766004134
 11
17.6676178962
 21
2.3568004025
  0
LINE
  5
2F9
100
AcDbEntity
  8
0
100
AcDbLine
 62
7
  6
CONTINUOUS
 10
17.732135932
 20
2.4328554446
 11
17.732135932
 21
2.4526554556
  0
LINE
  5
2FA
100
AcDbEntity
  8
0
100
AcDbLine
 62
7
  6
CONTINUOUS
 10
17.7558619451
 20
2.3989574258
 11
17.7558619451
 21
2.4279054419
  0
LINE
  5
2FB
100
AcDbEntity
  8
0
100
AcDbLine
 62
7
  6
CONTINUOUS
 10
17.7882039631
 20
2.4279054419
 11
17.7882039631
 21
2.3568004025
  0
LINE
  5
2FC
100
AcDbEntity
  8
0
100
AcDbLine
 62
7
  6
CONTINUOUS
 10
17.8110869758
 20
2.4526554556
 11
17.8110869758
 21
2.4328554446
  0
LINE
  5
2FD
100
AcDbEntity
  8
0
100
AcDbLine
 62
7
  6
CONTINUOUS
 10
17.8337269883
 20
2.3568004025
 11
17.8337269883
 21
2.3766004134
  0
LINE
  5
2FE
100
AcDbEntity
  8
0
100
AcDbLine
 62
7
  6
CONTINUOUS
 10
17.8337269883
 20
2.4328554446
 11
17.8337269883
 21
2.4526554556
  0
LINE
  5
2FF
100
AcDbEntity
  8
0
100
AcDbLine
 62
7
  6
CONTINUOUS
 10
17.8626000043
 20
2.3815504162
 11
17.8626000043
 21
2.4279054419
  0
LINE
  5
300
100
AcDbEntity
  8
0
100
AcDbLine
 62
7
  6
CONTINUOUS
 10
17.9246660387
 20
2.4279054419
 11
17.9246660387
 21
2.4163554355
  0
LINE
  5
301
100
AcDbEntity
  8
0
100
AcDbLine
 62
7
  6
CONTINUOUS
 10
17.9246660387
 20
2.3931004226
 11
17.9246660387
 21
2.3815504162
  0
LINE
  5
302
100
AcDbEntity
  8
0
100
AcDbLine
 62
7
  6
CONTINUOUS
 10
17.964783061
 20
2.4114054327
 11
17.964783061
 21
2.3980504253
  0
LINE
  5
303
100
AcDbEntity
  8
0
100
AcDbLine
 62
7
  6
CONTINUOUS
 10
17.993656077
 20
2.4196554373
 11
17.993656077
 21
2.4279054419
  0
LINE
  5
304
100
AcDbEntity
  8
0
100
AcDbLine
 62
7
  6
CONTINUOUS
 10
17.9946200775
 20
2.3815504162
 11
17.9946200775
 21
2.3898004208
  0
LINE
  5
305
100
AcDbEntity
  8
0
100
AcDbLine
 62
7
  6
CONTINUOUS
 10
18.040470103
 20
2.4526554556
 11
18.040470103
 21
2.4196554373
  0
LINE
  5
306
100
AcDbEntity
  8
0
100
AcDbLine
 62
7
  6
CONTINUOUS
 10
18.0418891038
 20
2.3898004208
 11
18.0418891038
 21
2.3568004025
  0
LINE
  5
307
100
AcDbEntity
  8
0
100
AcDbLine
 62
7
  6
CONTINUOUS
 10
18.065843117
 20
2.3568004025
 11
18.065843117
 21
2.3766004134
  0
LINE
  5
308
100
AcDbEntity
  8
0
100
AcDbLine
 62
7
  6
CONTINUOUS
 10
18.065843117
 20
2.4328554446
 11
18.065843117
 21
2.4526554556
  0
LINE
  5
309
100
AcDbEntity
  8
0
100
AcDbLine
 62
7
  6
CONTINUOUS
 10
18.0935391324
 20
2.3815504162
 11
18.0935391324
 21
2.4279054419
  0
LINE
  5
30A
100
AcDbEntity
  8
0
100
AcDbLine
 62
7
  6
CONTINUOUS
 10
18.1547551663
 20
2.3912274216
 11
18.1547551663
 21
2.3815284162
  0
LINE
  5
30B
100
AcDbEntity
  8
0
100
AcDbLine
 62
7
  6
CONTINUOUS
 10
18.1547551663
 20
2.4151804348
 11
18.1547551663
 21
2.4279054419
  0
LINE
  5
30C
100
AcDbEntity
  8
0
100
AcDbLine
 62
7
  6
CONTINUOUS
 10
18.1843641828
 20
2.3765784134
 11
18.1843641828
 21
2.3568004025
  0
LINE
  5
30D
100
AcDbEntity
  8
0
100
AcDbLine
 62
7
  6
CONTINUOUS
 10
18.2835562378
 20
2.3881114198
 11
18.2835562378
 21
2.3907374213
  0
LINE
  5
30E
100
AcDbEntity
  8
0
100
AcDbLine
 62
7
  6
CONTINUOUS
 10
18.3006162472
 20
2.3907374213
 11
18.3006162472
 21
2.3791854149
  0
LINE
  5
30F
100
AcDbEntity
  8
0
100
AcDbLine
 62
7
  6
CONTINUOUS
 10
18.3975725422
 20
2.3981678251
 11
18.3975725422
 21
2.4087850316
  0
LINE
  5
310
100
AcDbEntity
  8
0
100
AcDbLine
 62
7
  6
CONTINUOUS
 10
17.1801246258
 20
2.4539814564
 11
17.1333245999
 21
2.3802244155
  0
LINE
  5
311
100
AcDbEntity
  8
0
100
AcDbLine
 62
7
  6
CONTINUOUS
 10
17.1935256333
 20
2.4286874423
 11
17.1864086293
 21
2.4174704361
  0
LINE
  5
312
100
AcDbEntity
  8
0
100
AcDbLine
 62
7
  6
CONTINUOUS
 10
17.1723766216
 20
2.3828764169
 11
17.1778926246
 21
2.3915704217
  0
LINE
  5
313
100
AcDbEntity
  8
0
100
AcDbLine
 62
7
  6
CONTINUOUS
 10
17.059669559
 20
2.4041904287
 11
17.0679095636
 21
2.4089664314
  0
ARC
  5
314
100
AcDbEntity
  8
0
100
AcDbCircle
 62
7
  6
CONTINUOUS
 10
17.4632701481
 20
2.3568008172
 40
0.0024754162
100
AcDbArc
 50
226.3593695814
 51
270.0146919953
  0
ARC
  5
315
100
AcDbEntity
  8
0
100
AcDbCircle
 62
7
  6
CONTINUOUS
 10
16.8743904545
 20
2.3568004006
 40
0.0024749995
100
AcDbArc
 50
179.9999571957
 51
270.0000428043
  0
ARC
  5
316
100
AcDbEntity
  8
0
100
AcDbCircle
 62
7
  6
CONTINUOUS
 10
17.5374758259
 20
2.3568004006
 40
0.0024749995
100
AcDbArc
 50
269.9999571957
 51
0.0000428043
  0
ARC
  5
317
100
AcDbEntity
  8
0
100
AcDbCircle
 62
7
  6
CONTINUOUS
 10
17.416889759
 20
2.3568004006
 40
0.0024749995
100
AcDbArc
 50
269.9999571957
 51
0.0000428043
  0
ARC
  5
318
100
AcDbEntity
  8
0
100
AcDbCircle
 62
7
  6
CONTINUOUS
 10
17.3412257133
 20
2.3568004006
 40
0.0024749995
100
AcDbArc
 50
179.9999571957
 51
270.0000428043
  0
ARC
  5
319
100
AcDbEntity
  8
0
100
AcDbCircle
 62
7
  6
CONTINUOUS
 10
17.2060356384
 20
2.3568004006
 40
0.0024749995
100
AcDbArc
 50
179.9999571957
 51
270.0000428043
  0
ARC
  5
31A
100
AcDbEntity
  8
0
100
AcDbCircle
 62
7
  6
CONTINUOUS
 10
17.3113167005
 20
2.3568004006
 40
0.0024749995
100
AcDbArc
 50
269.9999571957
 51
0.0000428043
  0
ARC
  5
31B
100
AcDbEntity
  8
0
100
AcDbCircle
 62
7
  6
CONTINUOUS
 10
17.1083735842
 20
2.3568004006
 40
0.0024749995
100
AcDbArc
 50
179.9999571957
 51
270.0000428043
  0
ARC
  5
31C
100
AcDbEntity
  8
0
100
AcDbCircle
 62
7
  6
CONTINUOUS
 10
17.1857496308
 20
2.3568004006
 40
0.0024749995
100
AcDbArc
 50
269.9999571958
 51
0.0000428044
  0
ARC
  5
31D
100
AcDbEntity
  8
0
100
AcDbCircle
 62
7
  6
CONTINUOUS
 10
17.0404590422
 20
2.3933827403
 40
0.061747717
100
AcDbArc
 50
59.5385584989
 51
90.0050977555
  0
ARC
  5
31E
100
AcDbEntity
  8
0
100
AcDbCircle
 62
7
  6
CONTINUOUS
 10
17.0481152095
 20
2.4027328529
 40
0.048483885
100
AcDbArc
 50
273.21763719
 51
303.0749121182
  0
ARC
  5
31F
100
AcDbEntity
  8
0
100
AcDbCircle
 62
7
  6
CONTINUOUS
 10
17.0620614151
 20
2.3797859164
 40
0.0222174455
100
AcDbArc
 50
4.0793399388
 51
69.834329283
  0
ARC
  5
320
100
AcDbEntity
  8
0
100
AcDbCircle
 62
7
  6
CONTINUOUS
 10
17.0629546036
 20
2.379965244
 40
0.0213072145
100
AcDbArc
 50
303.0488228549
 51
355.7263138674
  0
ARC
  5
321
100
AcDbEntity
  8
0
100
AcDbCircle
 62
7
  6
CONTINUOUS
 10
17.0688911042
 20
2.3799744343
 40
0.0153945295
100
AcDbArc
 50
354.0454548824
 51
5.1878013979
  0
ARC
  5
322
100
AcDbEntity
  8
0
100
AcDbCircle
 62
7
  6
CONTINUOUS
 10
17.0051585288
 20
2.3877379196
 40
0.0086625048
100
AcDbArc
 50
270.0
 51
90.0
  0
ARC
  5
323
100
AcDbEntity
  8
0
100
AcDbCircle
 62
7
  6
CONTINUOUS
 10
17.2148601055
 20
2.3902439622
 40
0.0024754602
100
AcDbArc
 50
32.8959418573
 51
89.9875097202
  0
ARC
  5
324
100
AcDbEntity
  8
0
100
AcDbCircle
 62
7
  6
CONTINUOUS
 10
17.131234669
 20
2.3815506151
 40
0.0024752003
100
AcDbArc
 50
269.9983726451
 51
327.602165307
  0
ARC
  5
325
100
AcDbEntity
  8
0
100
AcDbCircle
 62
7
  6
CONTINUOUS
 10
17.1799825555
 20
2.3902442221
 40
0.0024752003
100
AcDbArc
 50
89.998372645
 51
147.602165307
  0
ARC
  5
326
100
AcDbEntity
  8
0
100
AcDbCircle
 62
7
  6
CONTINUOUS
 10
17.1744665134
 20
2.3815504549
 40
0.0024750401
100
AcDbArc
 50
147.6063258011
 51
270.0025305754
  0
ARC
  5
327
100
AcDbEntity
  8
0
100
AcDbCircle
 62
7
  6
CONTINUOUS
 10
16.8983324714
 20
2.3815504143
 40
0.0024749995
100
AcDbArc
 50
269.9999571957
 51
0.0000428043
  0
ARC
  5
328
100
AcDbEntity
  8
0
100
AcDbCircle
 62
7
  6
CONTINUOUS
 10
16.8743904545
 20
2.3766004153
 40
0.0024749995
100
AcDbArc
 50
89.9999571957
 51
180.0000428043
  0
ARC
  5
329
100
AcDbEntity
  8
0
100
AcDbCircle
 62
7
  6
CONTINUOUS
 10
16.963795504
 20
2.3939254249
 40
0.0024749995
100
AcDbArc
 50
89.9999571957
 51
180.0000428043
  0
ARC
  5
32A
100
AcDbEntity
  8
0
100
AcDbCircle
 62
7
  6
CONTINUOUS
 10
16.963795504
 20
2.3815504143
 40
0.0024749995
100
AcDbArc
 50
179.9999571957
 51
270.0000428043
  0
ARC
  5
32B
100
AcDbEntity
  8
0
100
AcDbCircle
 62
7
  6
CONTINUOUS
 10
17.2060356384
 20
2.3766004153
 40
0.0024749995
100
AcDbArc
 50
89.9999571957
 51
180.0000428043
  0
ARC
  5
32C
100
AcDbEntity
  8
0
100
AcDbCircle
 62
7
  6
CONTINUOUS
 10
17.1083735842
 20
2.3766004153
 40
0.0024749995
100
AcDbArc
 50
89.9999571957
 51
180.0000428043
  0
ARC
  5
32D
100
AcDbEntity
  8
0
100
AcDbCircle
 62
7
  6
CONTINUOUS
 10
17.1857496308
 20
2.3766004153
 40
0.0024749995
100
AcDbArc
 50
359.9999571957
 51
90.0000428043
  0
ARC
  5
32E
100
AcDbEntity
  8
0
100
AcDbCircle
 62
7
  6
CONTINUOUS
 10
17.0460441811
 20
2.445793323
 40
0.0428289026
100
AcDbArc
 50
300.6990502959
 51
319.0591802498
  0
ARC
  5
32F
100
AcDbEntity
  8
0
100
AcDbCircle
 62
7
  6
CONTINUOUS
 10
17.0611211659
 20
2.4263113051
 40
0.0229166529
100
AcDbArc
 50
20.6563876465
 51
62.3316896973
  0
ARC
  5
330
100
AcDbEntity
  8
0
100
AcDbCircle
 62
7
  6
CONTINUOUS
 10
17.0660727781
 20
2.4296649696
 40
0.0171568255
100
AcDbArc
 50
315.9145124245
 51
16.0049121283
  0
ARC
  5
331
100
AcDbEntity
  8
0
100
AcDbCircle
 62
7
  6
CONTINUOUS
 10
17.0051585288
 20
2.4217179385
 40
0.0086625048
100
AcDbArc
 50
270.0
 51
90.0
  0
ARC
  5
332
100
AcDbEntity
  8
0
100
AcDbCircle
 62
7
  6
CONTINUOUS
 10
17.2017960982
 20
2.4273609828
 40
0.0024754602
100
AcDbArc
 50
32.8959418573
 51
89.9875097202
  0
ARC
  5
333
100
AcDbEntity
  8
0
100
AcDbCircle
 62
7
  6
CONTINUOUS
 10
17.2090556207
 20
2.4161446411
 40
0.0024752071
100
AcDbArc
 50
270.0004896793
 51
32.9089806818
  0
ARC
  5
334
100
AcDbEntity
  8
0
100
AcDbCircle
 62
7
  6
CONTINUOUS
 10
17.1956155641
 20
2.4273612427
 40
0.0024752003
100
AcDbArc
 50
89.998372645
 51
147.602165307
  0
ARC
  5
335
100
AcDbEntity
  8
0
100
AcDbCircle
 62
7
  6
CONTINUOUS
 10
17.1822145567
 20
2.4526552567
 40
0.0024752003
100
AcDbArc
 50
89.998372645
 51
147.602165307
  0
ARC
  5
336
100
AcDbEntity
  8
0
100
AcDbCircle
 62
7
  6
CONTINUOUS
 10
17.1884985212
 20
2.4161444741
 40
0.0024750401
100
AcDbArc
 50
147.6063258012
 51
270.0025305754
  0
ARC
  5
337
100
AcDbEntity
  8
0
100
AcDbCircle
 62
7
  6
CONTINUOUS
 10
16.8743904545
 20
2.4526554575
 40
0.0024749995
100
AcDbArc
 50
89.9999571957
 51
180.0000428043
  0
ARC
  5
338
100
AcDbEntity
  8
0
100
AcDbCircle
 62
7
  6
CONTINUOUS
 10
16.8743904545
 20
2.4328554428
 40
0.0024749995
100
AcDbArc
 50
179.9999571957
 51
270.0000428043
  0
ARC
  5
339
100
AcDbEntity
  8
0
100
AcDbCircle
 62
7
  6
CONTINUOUS
 10
16.8983324714
 20
2.4279054437
 40
0.0024749995
100
AcDbArc
 50
359.9999571957
 51
90.0000428043
  0
ARC
  5
33A
100
AcDbEntity
  8
0
100
AcDbCircle
 62
7
  6
CONTINUOUS
 10
16.963795504
 20
2.4279054437
 40
0.0024749995
100
AcDbArc
 50
89.9999571957
 51
180.0000428043
  0
ARC
  5
33B
100
AcDbEntity
  8
0
100
AcDbCircle
 62
7
  6
CONTINUOUS
 10
16.963795504
 20
2.4155304332
 40
0.0024749995
100
AcDbArc
 50
179.9999571957
 51
270.0000428043
  0
ARC
  5
33C
100
AcDbEntity
  8
0
100
AcDbCircle
 62
7
  6
CONTINUOUS
 10
17.5051335061
 20
2.3989573626
 40
0.0024753014
100
AcDbArc
 50
226.3461263059
 51
0.0014637321
  0
ARC
  5
33D
100
AcDbEntity
  8
0
100
AcDbCircle
 62
7
  6
CONTINUOUS
 10
17.3965730459
 20
2.4135964972
 40
0.0024753014
100
AcDbArc
 50
46.3461263059
 51
180.0014637321
  0
ARC
  5
33E
100
AcDbEntity
  8
0
100
AcDbCircle
 62
7
  6
CONTINUOUS
 10
17.2204866271
 20
2.3815506219
 40
0.0024752071
100
AcDbArc
 50
270.0004896793
 51
32.9089806818
  0
ARC
  5
33F
100
AcDbEntity
  8
0
100
AcDbCircle
 62
7
  6
CONTINUOUS
 10
17.396572744
 20
2.3815504143
 40
0.0024749995
100
AcDbArc
 50
179.9999571957
 51
270.0000428043
  0
ARC
  5
340
100
AcDbEntity
  8
0
100
AcDbCircle
 62
7
  6
CONTINUOUS
 10
17.416889759
 20
2.3766004153
 40
0.0024749995
100
AcDbArc
 50
359.9999571957
 51
90.0000428043
  0
ARC
  5
341
100
AcDbEntity
  8
0
100
AcDbCircle
 62
7
  6
CONTINUOUS
 10
17.3412257133
 20
2.3766004153
 40
0.0024749995
100
AcDbArc
 50
89.9999571957
 51
180.0000428043
  0
ARC
  5
342
100
AcDbEntity
  8
0
100
AcDbCircle
 62
7
  6
CONTINUOUS
 10
17.3598727274
 20
2.3815504143
 40
0.0024749995
100
AcDbArc
 50
269.9999571957
 51
0.0000428043
  0
ARC
  5
343
100
AcDbEntity
  8
0
100
AcDbCircle
 62
7
  6
CONTINUOUS
 10
17.3113167005
 20
2.3766004153
 40
0.0024749995
100
AcDbArc
 50
359.9999571957
 51
90.0000428043
  0
ARC
  5
344
100
AcDbEntity
  8
0
100
AcDbCircle
 62
7
  6
CONTINUOUS
 10
17.291300808
 20
2.3815494558
 40
0.002474041
100
AcDbArc
 50
212.9056413127
 51
269.9972091755
  0
ARC
  5
345
100
AcDbEntity
  8
0
100
AcDbCircle
 62
7
  6
CONTINUOUS
 10
17.5051338079
 20
2.4279054437
 40
0.0024749995
100
AcDbArc
 50
359.9999571957
 51
90.0000428043
  0
ARC
  5
346
100
AcDbEntity
  8
0
100
AcDbCircle
 62
7
  6
CONTINUOUS
 10
17.4863577938
 20
2.4328554428
 40
0.0024749995
100
AcDbArc
 50
179.9999571957
 51
270.0000428043
  0
ARC
  5
347
100
AcDbEntity
  8
0
100
AcDbCircle
 62
7
  6
CONTINUOUS
 10
17.4863577938
 20
2.4526554575
 40
0.0024749995
100
AcDbArc
 50
89.9999571957
 51
180.0000428043
  0
ARC
  5
348
100
AcDbEntity
  8
0
100
AcDbCircle
 62
7
  6
CONTINUOUS
 10
17.5603588386
 20
2.4526554575
 40
0.0024749995
100
AcDbArc
 50
359.9999571957
 51
90.0000428043
  0
ARC
  5
349
100
AcDbEntity
  8
0
100
AcDbCircle
 62
7
  6
CONTINUOUS
 10
17.5603588386
 20
2.4328554428
 40
0.0024749995
100
AcDbArc
 50
269.9999571957
 51
0.0000428043
  0
ARC
  5
34A
100
AcDbEntity
  8
0
100
AcDbCircle
 62
7
  6
CONTINUOUS
 10
17.5424258249
 20
2.4279054437
 40
0.0024749995
100
AcDbArc
 50
89.9999571957
 51
180.0000428043
  0
ARC
  5
34B
100
AcDbEntity
  8
0
100
AcDbCircle
 62
7
  6
CONTINUOUS
 10
17.3598727274
 20
2.4279054437
 40
0.0024749995
100
AcDbArc
 50
359.9999571957
 51
90.0000428043
  0
ARC
  5
34C
100
AcDbEntity
  8
0
100
AcDbCircle
 62
7
  6
CONTINUOUS
 10
17.3412257133
 20
2.4328554428
 40
0.0024749995
100
AcDbArc
 50
179.9999571957
 51
270.0000428043
  0
ARC
  5
34D
100
AcDbEntity
  8
0
100
AcDbCircle
 62
7
  6
CONTINUOUS
 10
17.3412257133
 20
2.4526554575
 40
0.0024749995
100
AcDbArc
 50
89.9999571957
 51
180.0000428043
  0
ARC
  5
34E
100
AcDbEntity
  8
0
100
AcDbCircle
 62
7
  6
CONTINUOUS
 10
17.2393900382
 20
2.4526554968
 40
0.0024749602
100
AcDbArc
 50
32.9172174468
 51
90.0087853097
  0
ARC
  5
34F
100
AcDbEntity
  8
0
100
AcDbCircle
 62
7
  6
CONTINUOUS
 10
17.4416839057
 20
2.4526562892
 40
0.0024741678
100
AcDbArc
 50
46.3477981899
 51
90.0031206038
  0
ARC
  5
350
100
AcDbEntity
  8
0
100
AcDbCircle
 62
7
  6
CONTINUOUS
 10
18.2152358981
 20
2.2725915465
 40
0.1825583387
100
AcDbArc
 50
79.8618509324
 51
89.1640948679
  0
ARC
  5
351
100
AcDbEntity
  8
0
100
AcDbCircle
 62
7
  6
CONTINUOUS
 10
18.197141171
 20
2.3016991173
 40
0.117346916
100
AcDbArc
 50
58.614769177
 51
62.3737227606
  0
ARC
  5
352
100
AcDbEntity
  8
0
100
AcDbCircle
 62
7
  6
CONTINUOUS
 10
18.2260032264
 20
2.3725718859
 40
0.0459185159
100
AcDbArc
 50
15.6740290068
 51
20.9917271228
  0
ARC
  5
353
100
AcDbEntity
  8
0
100
AcDbCircle
 62
7
  6
CONTINUOUS
 10
18.1662929967
 20
2.368643334
 40
0.0396099176
100
AcDbArc
 50
14.3201081283
 51
22.4984722084
  0
ARC
  5
354
100
AcDbEntity
  8
0
100
AcDbCircle
 62
7
  6
CONTINUOUS
 10
18.1850046504
 20
2.3693353402
 40
0.0243676582
100
AcDbArc
 50
63.3666028271
 51
90.3937697637
  0
ARC
  5
355
100
AcDbEntity
  8
0
100
AcDbCircle
 62
7
  6
CONTINUOUS
 10
18.2724993219
 20
2.3741987064
 40
0.0198837666
100
AcDbArc
 50
271.8586572978
 51
289.4131338543
  0
ARC
  5
356
100
AcDbEntity
  8
0
100
AcDbCircle
 62
7
  6
CONTINUOUS
 10
18.2265855264
 20
2.3716475527
 40
0.0173408616
100
AcDbArc
 50
232.4713476722
 51
267.338189944
  0
ARC
  5
357
100
AcDbEntity
  8
0
100
AcDbCircle
 62
7
  6
CONTINUOUS
 10
18.1818891832
 20
2.3568004006
 40
0.0024749995
100
AcDbArc
 50
269.9999571957
 51
0.0000428043
  0
ARC
  5
358
100
AcDbEntity
  8
0
100
AcDbCircle
 62
7
  6
CONTINUOUS
 10
18.0683181166
 20
2.3568004006
 40
0.0024749995
100
AcDbArc
 50
179.9999571957
 51
270.0000428043
  0
ARC
  5
359
100
AcDbEntity
  8
0
100
AcDbCircle
 62
7
  6
CONTINUOUS
 10
17.7857289635
 20
2.3568004006
 40
0.0024749995
100
AcDbArc
 50
269.9999571957
 51
0.0000428043
  0
ARC
  5
35A
100
AcDbEntity
  8
0
100
AcDbCircle
 62
7
  6
CONTINUOUS
 10
17.6651428967
 20
2.3568004006
 40
0.0024749995
100
AcDbArc
 50
269.9999571957
 51
0.0000428043
  0
ARC
  5
35B
100
AcDbEntity
  8
0
100
AcDbCircle
 62
7
  6
CONTINUOUS
 10
17.589478851
 20
2.3568004006
 40
0.0024749995
100
AcDbArc
 50
179.9999571957
 51
270.0000428043
  0
ARC
  5
35C
100
AcDbEntity
  8
0
100
AcDbCircle
 62
7
  6
CONTINUOUS
 10
18.0394141042
 20
2.3568004006
 40
0.0024749995
100
AcDbArc
 50
269.9999571957
 51
0.0000428043
  0
ARC
  5
35D
100
AcDbEntity
  8
0
100
AcDbCircle
 62
7
  6
CONTINUOUS
 10
17.8362019878
 20
2.3568004006
 40
0.0024749995
100
AcDbArc
 50
179.9999571957
 51
270.0000428043
  0
ARC
  5
35E
100
AcDbEntity
  8
0
100
AcDbCircle
 62
7
  6
CONTINUOUS
 10
17.7115227858
 20
2.3567995689
 40
0.0024741678
100
AcDbArc
 50
226.3477981898
 51
270.0031206038
  0
ARC
  5
35F
100
AcDbEntity
  8
0
100
AcDbCircle
 62
7
  6
CONTINUOUS
 10
17.7533866437
 20
2.3989573626
 40
0.0024753014
100
AcDbArc
 50
226.3461263059
 51
0.0014637321
  0
ARC
  5
360
100
AcDbEntity
  8
0
100
AcDbCircle
 62
7
  6
CONTINUOUS
 10
17.6448261836
 20
2.4135964972
 40
0.0024753014
100
AcDbArc
 50
46.3461263058
 51
180.0014637321
  0
ARC
  5
361
100
AcDbEntity
  8
0
100
AcDbCircle
 62
7
  6
CONTINUOUS
 10
17.6448258817
 20
2.3815504143
 40
0.0024749995
100
AcDbArc
 50
179.9999571957
 51
270.0000428043
  0
ARC
  5
362
100
AcDbEntity
  8
0
100
AcDbCircle
 62
7
  6
CONTINUOUS
 10
17.6651428967
 20
2.3766004153
 40
0.0024749995
100
AcDbArc
 50
359.9999571957
 51
90.0000428043
  0
ARC
  5
363
100
AcDbEntity
  8
0
100
AcDbCircle
 62
7
  6
CONTINUOUS
 10
17.589478851
 20
2.3766004153
 40
0.0024749995
100
AcDbArc
 50
89.9999571957
 51
180.0000428043
  0
ARC
  5
364
100
AcDbEntity
  8
0
100
AcDbCircle
 62
7
  6
CONTINUOUS
 10
17.6081248651
 20
2.3815504143
 40
0.0024749995
100
AcDbArc
 50
269.9999571957
 51
0.0000428043
  0
ARC
  5
365
100
AcDbEntity
  8
0
100
AcDbCircle
 62
7
  6
CONTINUOUS
 10
17.9271410383
 20
2.3931004244
 40
0.0024749995
100
AcDbArc
 50
89.9999571957
 51
180.0000428043
  0
ARC
  5
366
100
AcDbEntity
  8
0
100
AcDbCircle
 62
7
  6
CONTINUOUS
 10
17.9271410383
 20
2.3815504143
 40
0.0024749995
100
AcDbArc
 50
179.9999571957
 51
270.0000428043
  0
ARC
  5
367
100
AcDbEntity
  8
0
100
AcDbCircle
 62
7
  6
CONTINUOUS
 10
17.8362019878
 20
2.3766004153
 40
0.0024749995
100
AcDbArc
 50
89.9999571957
 51
180.0000428043
  0
ARC
  5
368
100
AcDbEntity
  8
0
100
AcDbCircle
 62
7
  6
CONTINUOUS
 10
17.8601250048
 20
2.3815504143
 40
0.0024749995
100
AcDbArc
 50
269.9999571956
 51
0.0000428042
  0
ARC
  5
369
100
AcDbEntity
  8
0
100
AcDbCircle
 62
7
  6
CONTINUOUS
 10
17.9271410383
 20
2.4163554336
 40
0.0024749995
100
AcDbArc
 50
179.9999571957
 51
270.0000428043
  0
ARC
  5
36A
100
AcDbEntity
  8
0
100
AcDbCircle
 62
7
  6
CONTINUOUS
 10
17.7533869456
 20
2.4279054437
 40
0.0024749995
100
AcDbArc
 50
359.9999571957
 51
90.0000428043
  0
ARC
  5
36B
100
AcDbEntity
  8
0
100
AcDbCircle
 62
7
  6
CONTINUOUS
 10
17.7346109315
 20
2.4328554428
 40
0.0024749995
100
AcDbArc
 50
179.9999571957
 51
270.0000428043
  0
ARC
  5
36C
100
AcDbEntity
  8
0
100
AcDbCircle
 62
7
  6
CONTINUOUS
 10
17.7346109315
 20
2.4526554575
 40
0.0024749995
100
AcDbArc
 50
89.9999571957
 51
180.0000428043
  0
ARC
  5
36D
100
AcDbEntity
  8
0
100
AcDbCircle
 62
7
  6
CONTINUOUS
 10
17.8086119762
 20
2.4526554575
 40
0.0024749995
100
AcDbArc
 50
359.9999571957
 51
90.0000428043
  0
ARC
  5
36E
100
AcDbEntity
  8
0
100
AcDbCircle
 62
7
  6
CONTINUOUS
 10
17.8086119762
 20
2.4328554428
 40
0.0024749995
100
AcDbArc
 50
269.9999571956
 51
0.0000428042
  0
ARC
  5
36F
100
AcDbEntity
  8
0
100
AcDbCircle
 62
7
  6
CONTINUOUS
 10
17.7906789626
 20
2.4279054437
 40
0.0024749995
100
AcDbArc
 50
89.9999571957
 51
180.0000428043
  0
ARC
  5
370
100
AcDbEntity
  8
0
100
AcDbCircle
 62
7
  6
CONTINUOUS
 10
17.6081248651
 20
2.4279054437
 40
0.0024749995
100
AcDbArc
 50
359.9999571957
 51
90.0000428043
  0
ARC
  5
371
100
AcDbEntity
  8
0
100
AcDbCircle
 62
7
  6
CONTINUOUS
 10
17.589478851
 20
2.4328554428
 40
0.0024749995
100
AcDbArc
 50
179.9999571957
 51
270.0000428043
  0
ARC
  5
372
100
AcDbEntity
  8
0
100
AcDbCircle
 62
7
  6
CONTINUOUS
 10
17.589478851
 20
2.4526554575
 40
0.0024749995
100
AcDbArc
 50
89.9999571957
 51
180.0000428043
  0
ARC
  5
373
100
AcDbEntity
  8
0
100
AcDbCircle
 62
7
  6
CONTINUOUS
 10
17.8601250048
 20
2.4279054437
 40
0.0024749995
100
AcDbArc
 50
359.9999571957
 51
90.0000428043
  0
ARC
  5
374
100
AcDbEntity
  8
0
100
AcDbCircle
 62
7
  6
CONTINUOUS
 10
17.8362019878
 20
2.4328554428
 40
0.0024749995
100
AcDbArc
 50
179.9999571957
 51
270.0000428043
  0
ARC
  5
375
100
AcDbEntity
  8
0
100
AcDbCircle
 62
7
  6
CONTINUOUS
 10
17.8362019878
 20
2.4526554575
 40
0.0024749995
100
AcDbArc
 50
89.9999571957
 51
180.0000428043
  0
ARC
  5
376
100
AcDbEntity
  8
0
100
AcDbCircle
 62
7
  6
CONTINUOUS
 10
17.9271410383
 20
2.4279054437
 40
0.0024749995
100
AcDbArc
 50
89.9999571957
 51
180.0000428043
  0
ARC
  5
377
100
AcDbEntity
  8
0
100
AcDbCircle
 62
7
  6
CONTINUOUS
 10
17.6899370433
 20
2.4526562892
 40
0.0024741678
100
AcDbArc
 50
46.3477981899
 51
90.0031206038
  0
ARC
  5
378
100
AcDbEntity
  8
0
100
AcDbCircle
 62
7
  6
CONTINUOUS
 10
18.2495655574
 20
2.384346736
 40
0.044722495
100
AcDbArc
 50
195.531588407
 51
204.7624440448
  0
ARC
  5
379
100
AcDbEntity
  8
0
100
AcDbCircle
 62
7
  6
CONTINUOUS
 10
18.2415401884
 20
2.4134150625
 40
0.039319019
100
AcDbArc
 50
59.1202086415
 51
81.4730239328
  0
ARC
  5
37A
100
AcDbEntity
  8
0
100
AcDbCircle
 62
7
  6
CONTINUOUS
 10
18.2667613545
 20
2.3917854558
 40
0.0383802683
100
AcDbArc
 50
288.7656836787
 51
309.6104317088
  0
ARC
  5
37B
100
AcDbEntity
  8
0
100
AcDbCircle
 62
7
  6
CONTINUOUS
 10
18.2471995846
 20
2.4197497317
 40
0.0310192946
100
AcDbArc
 50
34.7540871
 51
62.0879016178
  0
ARC
  5
37C
100
AcDbEntity
  8
0
100
AcDbCircle
 62
7
  6
CONTINUOUS
 10
18.1924863006
 20
2.4019259643
 40
0.0284963867
100
AcDbArc
 50
70.3834917948
 51
86.8922743861
  0
ARC
  5
37D
100
AcDbEntity
  8
0
100
AcDbCircle
 62
7
  6
CONTINUOUS
 10
18.2737535399
 20
2.384184238
 40
0.0280715479
100
AcDbArc
 50
308.5071794988
 51
332.2400656899
  0
ARC
  5
37E
100
AcDbEntity
  8
0
100
AcDbCircle
 62
7
  6
CONTINUOUS
 10
18.2439037681
 20
2.3797532943
 40
0.0266349791
100
AcDbArc
 50
20.3630922153
 51
37.9727053099
  0
ARC
  5
37F
100
AcDbEntity
  8
0
100
AcDbCircle
 62
7
  6
CONTINUOUS
 10
18.2450241237
 20
2.3798263774
 40
0.0257145923
100
AcDbArc
 50
39.3804255939
 51
59.0361096173
  0
ARC
  5
380
100
AcDbEntity
  8
0
100
AcDbCircle
 62
7
  6
CONTINUOUS
 10
18.2296840914
 20
2.3774978567
 40
0.0238935861
100
AcDbArc
 50
209.8247607259
 51
235.1255079367
  0
ARC
  5
381
100
AcDbEntity
  8
0
100
AcDbCircle
 62
7
  6
CONTINUOUS
 10
18.2830605507
 20
2.3792897325
 40
0.0175560065
100
AcDbArc
 50
332.2279060967
 51
359.6595469939
  0
ARC
  5
382
100
AcDbEntity
  8
0
100
AcDbCircle
 62
7
  6
CONTINUOUS
 10
18.1890593051
 20
2.3776149607
 40
0.0151491919
100
AcDbArc
 50
24.098260853
 51
63.0369451818
  0
ARC
  5
383
100
AcDbEntity
  8
0
100
AcDbCircle
 62
7
  6
CONTINUOUS
 10
18.2845735615
 20
2.3882148688
 40
0.0147197649
100
AcDbArc
 50
192.7054516565
 51
206.0594861022
  0
ARC
  5
384
100
AcDbEntity
  8
0
100
AcDbCircle
 62
7
  6
CONTINUOUS
 10
18.1973459106
 20
2.4149676972
 40
0.0145814632
100
AcDbArc
 50
54.6746025112
 51
71.1660573124
  0
ARC
  5
385
100
AcDbEntity
  8
0
100
AcDbCircle
 62
7
  6
CONTINUOUS
 10
18.2752146786
 20
2.3927110743
 40
0.0132488022
100
AcDbArc
 50
270.266200055
 51
281.2404888597
  0
ARC
  5
386
100
AcDbEntity
  8
0
100
AcDbCircle
 62
7
  6
CONTINUOUS
 10
18.2716089246
 20
2.3878675959
 40
0.0119498009
100
AcDbArc
 50
340.7883861657
 51
1.1691452593
  0
ARC
  5
387
100
AcDbEntity
  8
0
100
AcDbCircle
 62
7
  6
CONTINUOUS
 10
18.198398534
 20
2.4260095887
 40
0.0110815393
100
AcDbArc
 50
306.758405961
 51
320.4502234234
  0
ARC
  5
388
100
AcDbEntity
  8
0
100
AcDbCircle
 62
7
  6
CONTINUOUS
 10
18.2764089196
 20
2.3869743807
 40
0.0073895522
100
AcDbArc
 50
280.8288201977
 51
305.0837508495
  0
ARC
  5
389
100
AcDbEntity
  8
0
100
AcDbCircle
 62
7
  6
CONTINUOUS
 10
18.2768101012
 20
2.3861235343
 40
0.0064647042
100
AcDbArc
 50
306.5086174083
 51
340.2162360092
  0
ARC
  5
38A
100
AcDbEntity
  8
0
100
AcDbCircle
 62
7
  6
CONTINUOUS
 10
18.2024754016
 20
2.4218216224
 40
0.0060275915
100
AcDbArc
 50
20.9055592135
 51
56.7851676243
  0
ARC
  5
38B
100
AcDbEntity
  8
0
100
AcDbCircle
 62
7
  6
CONTINUOUS
 10
18.2025691502
 20
2.4227756809
 40
0.0058087709
100
AcDbArc
 50
318.8515287446
 51
353.6422345323
  0
ARC
  5
38C
100
AcDbEntity
  8
0
100
AcDbCircle
 62
7
  6
CONTINUOUS
 10
18.2760792244
 20
2.3840063824
 40
0.0052403997
100
AcDbArc
 50
205.5232099488
 51
227.5054868079
  0
ARC
  5
38D
100
AcDbEntity
  8
0
100
AcDbCircle
 62
7
  6
CONTINUOUS
 10
18.2037759605
 20
2.4224819047
 40
0.0045795888
100
AcDbArc
 50
355.6235353944
 51
18.9942678268
  0
ARC
  5
38E
100
AcDbEntity
  8
0
100
AcDbCircle
 62
7
  6
CONTINUOUS
 10
18.2743509251
 20
2.3821910097
 40
0.0027347709
100
AcDbArc
 50
228.5117626738
 51
266.1485845754
  0
ARC
  5
38F
100
AcDbEntity
  8
0
100
AcDbCircle
 62
7
  6
CONTINUOUS
 10
18.1572301659
 20
2.3912274234
 40
0.0024749995
100
AcDbArc
 50
89.9999571957
 51
180.0000428043
  0
ARC
  5
390
100
AcDbEntity
  8
0
100
AcDbCircle
 62
7
  6
CONTINUOUS
 10
18.1572301659
 20
2.3815284143
 40
0.0024749995
100
AcDbArc
 50
179.9999571957
 51
270.0000428043
  0
ARC
  5
391
100
AcDbEntity
  8
0
100
AcDbCircle
 62
7
  6
CONTINUOUS
 10
18.1818891832
 20
2.3765784153
 40
0.0024749995
100
AcDbArc
 50
359.9999571957
 51
90.0000428043
  0
ARC
  5
392
100
AcDbEntity
  8
0
100
AcDbCircle
 62
7
  6
CONTINUOUS
 10
18.0683181166
 20
2.3766004153
 40
0.0024749995
100
AcDbArc
 50
89.9999571957
 51
180.0000428043
  0
ARC
  5
393
100
AcDbEntity
  8
0
100
AcDbCircle
 62
7
  6
CONTINUOUS
 10
18.0910641329
 20
2.3815504143
 40
0.0024749995
100
AcDbArc
 50
269.9999571957
 51
0.0000428043
  0
ARC
  5
394
100
AcDbEntity
  8
0
100
AcDbCircle
 62
7
  6
CONTINUOUS
 10
18.2860312373
 20
2.3907374231
 40
0.0024749995
100
AcDbArc
 50
89.9999571957
 51
180.0000428043
  0
ARC
  5
395
100
AcDbEntity
  8
0
100
AcDbCircle
 62
7
  6
CONTINUOUS
 10
18.2981412477
 20
2.3907374231
 40
0.0024749995
100
AcDbArc
 50
359.9999571957
 51
90.0000428043
  0
ARC
  5
396
100
AcDbEntity
  8
0
100
AcDbCircle
 62
7
  6
CONTINUOUS
 10
18.1572301659
 20
2.415180433
 40
0.0024749995
100
AcDbArc
 50
179.9999571957
 51
270.0000428043
  0
ARC
  5
397
100
AcDbEntity
  8
0
100
AcDbCircle
 62
7
  6
CONTINUOUS
 10
17.992145078
 20
2.3815504143
 40
0.0024749995
100
AcDbArc
 50
269.9999571957
 51
0.0000428043
  0
ARC
  5
398
100
AcDbEntity
  8
0
100
AcDbCircle
 62
7
  6
CONTINUOUS
 10
17.9970950771
 20
2.3898004226
 40
0.0024749995
100
AcDbArc
 50
89.9999571957
 51
180.0000428043
  0
ARC
  5
399
100
AcDbEntity
  8
0
100
AcDbCircle
 62
7
  6
CONTINUOUS
 10
18.0394141042
 20
2.3898004226
 40
0.0024749995
100
AcDbArc
 50
359.9999571957
 51
90.0000428043
  0
ARC
  5
39A
100
AcDbEntity
  8
0
100
AcDbCircle
 62
7
  6
CONTINUOUS
 10
18.0379951034
 20
2.4196554355
 40
0.0024749995
100
AcDbArc
 50
269.9999571956
 51
0.0000428042
  0
ARC
  5
39B
100
AcDbEntity
  8
0
100
AcDbCircle
 62
7
  6
CONTINUOUS
 10
17.9961310765
 20
2.4196554355
 40
0.0024749995
100
AcDbArc
 50
179.9999571957
 51
270.0000428043
  0
ARC
  5
39C
100
AcDbEntity
  8
0
100
AcDbCircle
 62
7
  6
CONTINUOUS
 10
17.9623080615
 20
2.4114054346
 40
0.0024749995
100
AcDbArc
 50
359.9999571957
 51
90.0000428043
  0
ARC
  5
39D
100
AcDbEntity
  8
0
100
AcDbCircle
 62
7
  6
CONTINUOUS
 10
17.9623080615
 20
2.3980504235
 40
0.0024749995
100
AcDbArc
 50
269.9999571956
 51
0.0000428042
  0
ARC
  5
39E
100
AcDbEntity
  8
0
100
AcDbCircle
 62
7
  6
CONTINUOUS
 10
18.220842337
 20
2.4783532224
 40
0.0789082104
100
AcDbArc
 50
292.906155071
 51
305.2574666259
  0
ARC
  5
39F
100
AcDbEntity
  8
0
100
AcDbCircle
 62
7
  6
CONTINUOUS
 10
18.2511742746
 20
2.4351463727
 40
0.0261183659
100
AcDbArc
 50
305.6373831893
 51
329.9727629745
  0
ARC
  5
3A0
100
AcDbEntity
  8
0
100
AcDbCircle
 62
7
  6
CONTINUOUS
 10
18.1908418374
 20
2.4381440645
 40
0.0254407115
100
AcDbArc
 50
270.7327484175
 51
290.441894219
  0
ARC
  5
3A1
100
AcDbEntity
  8
0
100
AcDbCircle
 62
7
  6
CONTINUOUS
 10
18.1927693431
 20
2.4337504172
 40
0.0206523367
100
AcDbArc
 50
289.6883413472
 51
306.4184925496
  0
ARC
  5
3A2
100
AcDbEntity
  8
0
100
AcDbCircle
 62
7
  6
CONTINUOUS
 10
18.2588883357
 20
2.4282993328
 40
0.0165459396
100
AcDbArc
 50
1.548452892
 51
33.5033152417
  0
ARC
  5
3A3
100
AcDbEntity
  8
0
100
AcDbCircle
 62
7
  6
CONTINUOUS
 10
18.2621849309
 20
2.428467785
 40
0.0132462337
100
AcDbArc
 50
331.1510006998
 51
1.205404301
  0
ARC
  5
3A4
100
AcDbEntity
  8
0
100
AcDbCircle
 62
7
  6
CONTINUOUS
 10
18.0910641329
 20
2.4279054437
 40
0.0024749995
100
AcDbArc
 50
359.9999571957
 51
90.0000428043
  0
ARC
  5
3A5
100
AcDbEntity
  8
0
100
AcDbCircle
 62
7
  6
CONTINUOUS
 10
18.0683181166
 20
2.4328554428
 40
0.0024749995
100
AcDbArc
 50
179.9999571957
 51
270.0000428043
  0
ARC
  5
3A6
100
AcDbEntity
  8
0
100
AcDbCircle
 62
7
  6
CONTINUOUS
 10
18.0683181166
 20
2.4526554575
 40
0.0024749995
100
AcDbArc
 50
89.9999571957
 51
180.0000428043
  0
ARC
  5
3A7
100
AcDbEntity
  8
0
100
AcDbCircle
 62
7
  6
CONTINUOUS
 10
18.1572301659
 20
2.4279054437
 40
0.0024749995
100
AcDbArc
 50
89.9999571957
 51
180.0000428043
  0
ARC
  5
3A8
100
AcDbEntity
  8
0
100
AcDbCircle
 62
7
  6
CONTINUOUS
 10
18.0379951034
 20
2.4526554575
 40
0.0024749995
100
AcDbArc
 50
359.9999571957
 51
90.0000428043
  0
ARC
  5
3A9
100
AcDbEntity
  8
0
100
AcDbCircle
 62
7
  6
CONTINUOUS
 10
17.9911810775
 20
2.4279054437
 40
0.0024749995
100
AcDbArc
 50
359.9999571957
 51
90.0000428043
  0
ELLIPSE
  5
3AA
100
AcDbEntity
  8
0
100
AcDbEllipse
 62
7
  6
CONTINUOUS
 10
17.573550844
 20
2.4034764283
 30
0.0
 11
-0.8250004575
 21
0.0
 31
0.0
 40
0.218572
 41
0.0
 42
6.2831853072
  0
HATCH
  5
3AB
100
AcDbEntity
  8
0
100
AcDbHatch
 62
7
  6
CONTINUOUS
 10
0.0
 20
0.0
 30
0.0
210
0.0
220
0.0
230
1.0
  2
XSEC0002
 70
1
 71
1
 91
11
 92
1
 93
57
 72
2
 10
18.2265855264
 20
2.3716475527
 40
0.0173408616
 50
232.4713476722
 51
267.338189944
 73
1
 72
2
 10
18.2296840914
 20
2.3774978567
 40
0.0238935861
 50
209.8247607259
 51
235.1255079367
 73
1
 72
2
 10
18.2495655574
 20
2.384346736
 40
0.044722495
 50
195.531588407
 51
204.7624440448
 73
1
 72
1
 10
18.206476195
 20
2.3723714111
 11
18.204672194
 21
2.3784404145
 72
2
 10
18.1662929967
 20
2.368643334
 40
0.0396099176
 50
14.3201081283
 51
22.4984722084
 73
1
 72
2
 10
18.1890593051
 20
2.3776149607
 40
0.0151491919
 50
24.098260853
 51
63.0369451818
 73
1
 72
2
 10
18.1850046504
 20
2.3693353402
 40
0.0243676582
 50
63.3666028271
 51
90.3937697637
 73
1
 72
1
 10
18.184837183
 20
2.3937024229
 11
18.1572301677
 21
2.3937024229
 72
2
 10
18.1572301659
 20
2.3912274234
 40
0.0024749995
 50
89.9999571957
 51
180.0000428043
 73
1
 72
1
 10
18.1547551663
 20
2.3912274216
 11
18.1547551663
 21
2.3815284162
 72
2
 10
18.1572301659
 20
2.3815284143
 40
0.0024749995
 50
179.9999571957
 51
270.0000428043
 73
1
 72
1
 10
18.1572301677
 20
2.3790534148
 11
18.1818891814
 21
2.3790534148
 72
2
 10
18.1818891832
 20
2.3765784153
 40
0.0024749995
 50
359.9999571957
 51
90.0000428042
 73
1
 72
1
 10
18.1843641828
 20
2.3765784134
 11
18.1843641828
 21
2.3568004025
 72
2
 10
18.1818891832
 20
2.3568004006
 40
0.0024749995
 50
269.9999571958
 51
0.0000428043
 73
1
 72
1
 10
18.1818891814
 20
2.3543254011
 11
18.0683181184
 21
2.3543254011
 72
2
 10
18.0683181166
 20
2.3568004006
 40
0.0024749995
 50
179.9999571957
 51
270.0000428042
 73
1
 72
1
 10
18.065843117
 20
2.3568004025
 11
18.065843117
 21
2.3766004134
 72
2
 10
18.0683181166
 20
2.3766004153
 40
0.0024749995
 50
89.9999571958
 51
180.0000428043
 73
1
 72
1
 10
18.0683181184
 20
2.3790754148
 11
18.091064131
 21
2.3790754148
 72
2
 10
18.0910641329
 20
2.3815504143
 40
0.0024749995
 50
269.9999571957
 51
0.0000428043
 73
1
 72
1
 10
18.0935391324
 20
2.3815504162
 11
18.0935391324
 21
2.4279054419
 72
2
 10
18.0910641329
 20
2.4279054437
 40
0.0024749995
 50
359.9999571957
 51
90.0000428043
 73
1
 72
1
 10
18.091064131
 20
2.4303804433
 11
18.0683181184
 21
2.4303804433
 72
2
 10
18.0683181166
 20
2.4328554428
 40
0.0024749995
 50
179.9999571957
 51
270.0000428043
 73
1
 72
1
 10
18.065843117
 20
2.4328554446
 11
18.065843117
 21
2.4526554556
 72
2
 10
18.0683181166
 20
2.4526554575
 40
0.0024749995
 50
89.9999571958
 51
180.0000428043
 73
1
 72
1
 10
18.0683181184
 20
2.455130457
 11
18.2178992014
 21
2.455130457
 72
2
 10
18.2152358981
 20
2.2725915465
 40
0.1825583387
 50
79.8618509324
 51
89.1640948679
 73
1
 72
2
 10
18.2415401884
 20
2.4134150625
 40
0.039319019
 50
59.1202086415
 51
81.4730239328
 73
1
 72
2
 10
18.2471995846
 20
2.4197497317
 40
0.0310192946
 50
34.7540871
 51
62.0879016178
 73
1
 72
2
 10
18.2588883357
 20
2.4282993328
 40
0.0165459396
 50
1.548452892
 51
33.5033152417
 73
1
 72
2
 10
18.2621849309
 20
2.428467785
 40
0.0132462337
 50
331.1510006998
 51
1.205404301
 73
1
 72
2
 10
18.2511742746
 20
2.4351463727
 40
0.0261183659
 50
305.6373831893
 51
329.9727629745
 73
1
 72
2
 10
18.220842337
 20
2.4783532224
 40
0.0789082104
 50
292.906155071
 51
305.2574666259
 73
1
 72
2
 10
18.197141171
 20
2.3016991173
 40
0.117346916
 50
58.614769177
 51
62.3737227606
 73
1
 72
2
 10
18.2450241237
 20
2.3798263774
 40
0.0257145923
 50
39.3804255939
 51
59.0361096173
 73
1
 72
2
 10
18.2439037681
 20
2.3797532943
 40
0.0266349791
 50
20.3630922153
 51
37.9727053099
 73
1
 72
2
 10
18.2260032264
 20
2.3725718859
 40
0.0459185159
 50
15.6740290068
 51
20.9917271228
 73
1
 72
2
 10
18.2845735615
 20
2.3882148688
 40
0.0147197649
 50
192.7054516565
 51
206.0594861022
 73
1
 72
2
 10
18.2760792244
 20
2.3840063824
 40
0.0052403997
 50
205.5232099488
 51
227.5054868079
 73
1
 72
2
 10
18.2743509251
 20
2.3821910097
 40
0.0027347709
 50
228.5117626738
 51
266.1485845755
 73
1
 72
1
 10
18.2741672326
 20
2.379462415
 11
18.2752762332
 21
2.379462415
 72
2
 10
18.2752146786
 20
2.3927110743
 40
0.0132488022
 50
270.266200055
 51
281.2404888597
 73
1
 72
2
 10
18.2764089196
 20
2.3869743807
 40
0.0073895522
 50
280.8288201977
 51
305.0837508495
 73
1
 72
2
 10
18.2768101012
 20
2.3861235343
 40
0.0064647042
 50
306.5086174083
 51
340.2162360092
 73
1
 72
2
 10
18.2716089246
 20
2.3878675959
 40
0.0119498009
 50
340.7883861657
 51
1.1691452593
 73
1
 72
1
 10
18.2835562378
 20
2.3881114198
 11
18.2835562378
 21
2.3907374213
 72
2
 10
18.2860312373
 20
2.3907374231
 40
0.0024749995
 50
89.9999571957
 51
180.0000428043
 73
1
 72
1
 10
18.2860312391
 20
2.3932124227
 11
18.2981412459
 21
2.3932124227
 72
2
 10
18.2981412477
 20
2.3907374231
 40
0.0024749995
 50
359.9999571957
 51
90.0000428043
 73
1
 72
1
 10
18.3006162472
 20
2.3907374213
 11
18.3006162472
 21
2.3791854149
 72
2
 10
18.2830605507
 20
2.3792897325
 40
0.0175560065
 50
332.2279060967
 51
359.6595469939
 73
1
 72
2
 10
18.2737535399
 20
2.384184238
 40
0.0280715479
 50
308.5071794988
 51
332.2400656899
 73
1
 72
2
 10
18.2667613545
 20
2.3917854558
 40
0.0383802683
 50
288.7656836787
 51
309.6104317088
 73
1
 72
2
 10
18.2724993219
 20
2.3741987064
 40
0.0198837666
 50
271.8586572978
 51
289.4131338543
 73
1
 72
1
 10
18.273144232
 20
2.3543254011
 11
18.2257802057
 21
2.3543254011
 97
267
330
2A0
330
2A1
330
2A2
330
2A3
330
2A4
330
2A5
330
2A6
330
2A7
330
2A8
330
2A9
330
2AA
330
2AB
330
2AC
330
2AD
330
2AE
330
2AF
330
2B0
330
2B1
330
2B2
330
2B3
330
2B4
330
2B5
330
2B6
330
2B7
330
2B8
330
2B9
330
2BA
330
2BB
330
2BC
330
2BD
330
2BE
330
2BF
330
2C0
330
2C1
330
2C2
330
2C3
330
2C4
330
2C5
330
2C6
330
2C7
330
2C8
330
2C9
330
2CA
330
2CB
330
2CC
330
2CD
330
2CE
330
2CF
330
2D0
330
2D1
330
2D2
330
2D3
330
2D4
330
2D5
330
2D6
330
2D7
330
2D8
330
2D9
330
2DA
330
2DB
330
2DC
330
2DD
330
2DE
330
2DF
330
2E0
330
2E1
330
2E2
330
2E3
330
2E4
330
2E5
330
2E6
330
2E7
330
2E8
330
2E9
330
2EA
330
2EB
330
2EC
330
2ED
330
2EE
330
2EF
330
2F0
330
2F1
330
2F2
330
2F3
330
2F4
330
2F5
330
2F6
330
2F7
330
2F8
330
2F9
330
2FA
330
2FB
330
2FC
330
2FD
330
2FE
330
2FF
330
300
330
301
330
302
330
303
330
304
330
305
330
306
330
307
330
308
330
309
330
30A
330
30B
330
30C
330
30D
330
30E
330
30F
330
310
330
311
330
312
330
313
330
314
330
315
330
316
330
317
330
318
330
319
330
31A
330
31B
330
31C
330
31D
330
31E
330
31F
330
320
330
321
330
322
330
323
330
324
330
325
330
326
330
327
330
328
330
329
330
32A
330
32B
330
32C
330
32D
330
32E
330
32F
330
330
330
331
330
332
330
333
330
334
330
335
330
336
330
337
330
338
330
339
330
33A
330
33B
330
33C
330
33D
330
33E
330
33F
330
340
330
341
330
342
330
343
330
344
330
345
330
346
330
347
330
348
330
349
330
34A
330
34B
330
34C
330
34D
330
34E
330
34F
330
350
330
351
330
352
330
353
330
354
330
355
330
356
330
357
330
358
330
359
330
35A
330
35B
330
35C
330
35D
330
35E
330
35F
330
360
330
361
330
362
330
363
330
364
330
365
330
366
330
367
330
368
330
369
330
36A
330
36B
330
36C
330
36D
330
36E
330
36F
330
370
330
371
330
372
330
373
330
374
330
375
330
376
330
377
330
378
330
379
330
37A
330
37B
330
37C
330
37D
330
37E
330
37F
330
380
330
381
330
382
330
383
330
384
330
385
330
386
330
387
330
388
330
389
330
38A
330
38B
330
38C
330
38D
330
38E
330
38F
330
390
330
391
330
392
330
393
330
394
330
395
330
396
330
397
330
398
330
399
330
39A
330
39B
330
39C
330
39D
330
39E
330
39F
330
3A0
330
3A1
330
3A2
330
3A3
330
3A4
330
3A5
330
3A6
330
3A7
330
3A8
330
3A9
330
3AA
 92
1
 93
40
 72
2
 10
17.8362019878
 20
2.3568004006
 40
0.0024749995
 50
179.9999571957
 51
270.0000428042
 73
1
 72
1
 10
17.8337269883
 20
2.3568004025
 11
17.8337269883
 21
2.3766004134
 72
2
 10
17.8362019878
 20
2.3766004153
 40
0.0024749995
 50
89.9999571958
 51
180.0000428043
 73
1
 72
1
 10
17.8362019897
 20
2.3790754148
 11
17.860125003
 21
2.3790754148
 72
2
 10
17.8601250048
 20
2.3815504143
 40
0.0024749995
 50
269.9999571956
 51
0.0000428042
 73
1
 72
1
 10
17.8626000043
 20
2.3815504162
 11
17.8626000043
 21
2.4279054419
 72
2
 10
17.8601250048
 20
2.4279054437
 40
0.0024749995
 50
359.9999571957
 51
90.0000428043
 73
1
 72
1
 10
17.860125003
 20
2.4303804433
 11
17.8362019897
 21
2.4303804433
 72
2
 10
17.8362019878
 20
2.4328554428
 40
0.0024749995
 50
179.9999571957
 51
270.0000428043
 73
1
 72
1
 10
17.8337269883
 20
2.4328554446
 11
17.8337269883
 21
2.4526554556
 72
2
 10
17.8362019878
 20
2.4526554575
 40
0.0024749995
 50
89.9999571958
 51
180.0000428043
 73
1
 72
1
 10
17.8362019897
 20
2.455130457
 11
18.0379951016
 21
2.455130457
 72
2
 10
18.0379951034
 20
2.4526554575
 40
0.0024749995
 50
359.9999571957
 51
90.0000428042
 73
1
 72
1
 10
18.040470103
 20
2.4526554556
 11
18.040470103
 21
2.4196554373
 72
2
 10
18.0379951034
 20
2.4196554355
 40
0.0024749995
 50
269.9999571956
 51
0.0000428042
 73
1
 72
1
 10
18.0379951016
 20
2.4171804359
 11
17.9961310784
 21
2.4171804359
 72
2
 10
17.9961310765
 20
2.4196554355
 40
0.0024749995
 50
179.9999571957
 51
270.0000428043
 73
1
 72
1
 10
17.993656077
 20
2.4196554373
 11
17.993656077
 21
2.4279054419
 72
2
 10
17.9911810775
 20
2.4279054437
 40
0.0024749995
 50
359.9999571957
 51
90.0000428043
 73
1
 72
1
 10
17.9911810756
 20
2.4303804433
 11
17.9271410401
 21
2.4303804433
 72
2
 10
17.9271410383
 20
2.4279054437
 40
0.0024749995
 50
89.9999571958
 51
180.0000428043
 73
1
 72
1
 10
17.9246660387
 20
2.4279054419
 11
17.9246660387
 21
2.4163554355
 72
2
 10
17.9271410383
 20
2.4163554336
 40
0.0024749995
 50
179.9999571957
 51
270.0000428042
 73
1
 72
1
 10
17.9271410401
 20
2.4138804341
 11
17.9623080596
 21
2.4138804341
 72
2
 10
17.9623080615
 20
2.4114054346
 40
0.0024749995
 50
359.9999571957
 51
90.0000428042
 73
1
 72
1
 10
17.964783061
 20
2.4114054327
 11
17.964783061
 21
2.3980504253
 72
2
 10
17.9623080615
 20
2.3980504235
 40
0.0024749995
 50
269.9999571956
 51
0.0000428042
 73
1
 72
1
 10
17.9623080596
 20
2.395575424
 11
17.9271410401
 21
2.395575424
 72
2
 10
17.9271410383
 20
2.3931004244
 40
0.0024749995
 50
89.9999571958
 51
180.0000428043
 73
1
 72
1
 10
17.9246660387
 20
2.3931004226
 11
17.9246660387
 21
2.3815504162
 72
2
 10
17.9271410383
 20
2.3815504143
 40
0.0024749995
 50
179.9999571957
 51
270.0000428043
 73
1
 72
1
 10
17.9271410401
 20
2.3790754148
 11
17.9921450762
 21
2.3790754148
 72
2
 10
17.992145078
 20
2.3815504143
 40
0.0024749995
 50
269.9999571958
 51
0.0000428043
 73
1
 72
1
 10
17.9946200775
 20
2.3815504162
 11
17.9946200775
 21
2.3898004208
 72
2
 10
17.9970950771
 20
2.3898004226
 40
0.0024749995
 50
89.9999571958
 51
180.0000428043
 73
1
 72
1
 10
17.9970950789
 20
2.3922754221
 11
18.0394141024
 21
2.3922754221
 72
2
 10
18.0394141042
 20
2.3898004226
 40
0.0024749995
 50
359.9999571957
 51
90.0000428043
 73
1
 72
1
 10
18.0418891038
 20
2.3898004208
 11
18.0418891038
 21
2.3568004025
 72
2
 10
18.0394141042
 20
2.3568004006
 40
0.0024749995
 50
269.9999571958
 51
0.0000428043
 73
1
 72
1
 10
18.0394141024
 20
2.3543254011
 11
17.8362019897
 21
2.3543254011
 97
267
330
2A0
330
2A1
330
2A2
330
2A3
330
2A4
330
2A5
330
2A6
330
2A7
330
2A8
330
2A9
330
2AA
330
2AB
330
2AC
330
2AD
330
2AE
330
2AF
330
2B0
330
2B1
330
2B2
330
2B3
330
2B4
330
2B5
330
2B6
330
2B7
330
2B8
330
2B9
330
2BA
330
2BB
330
2BC
330
2BD
330
2BE
330
2BF
330
2C0
330
2C1
330
2C2
330
2C3
330
2C4
330
2C5
330
2C6
330
2C7
330
2C8
330
2C9
330
2CA
330
2CB
330
2CC
330
2CD
330
2CE
330
2CF
330
2D0
330
2D1
330
2D2
330
2D3
330
2D4
330
2D5
330
2D6
330
2D7
330
2D8
330
2D9
330
2DA
330
2DB
330
2DC
330
2DD
330
2DE
330
2DF
330
2E0
330
2E1
330
2E2
330
2E3
330
2E4
330
2E5
330
2E6
330
2E7
330
2E8
330
2E9
330
2EA
330
2EB
330
2EC
330
2ED
330
2EE
330
2EF
330
2F0
330
2F1
330
2F2
330
2F3
330
2F4
330
2F5
330
2F6
330
2F7
330
2F8
330
2F9
330
2FA
330
2FB
330
2FC
330
2FD
330
2FE
330
2FF
330
300
330
301
330
302
330
303
330
304
330
305
330
306
330
307
330
308
330
309
330
30A
330
30B
330
30C
330
30D
330
30E
330
30F
330
310
330
311
330
312
330
313
330
314
330
315
330
316
330
317
330
318
330
319
330
31A
330
31B
330
31C
330
31D
330
31E
330
31F
330
320
330
321
330
322
330
323
330
324
330
325
330
326
330
327
330
328
330
329
330
32A
330
32B
330
32C
330
32D
330
32E
330
32F
330
330
330
331
330
332
330
333
330
334
330
335
330
336
330
337
330
338
330
339
330
33A
330
33B
330
33C
330
33D
330
33E
330
33F
330
340
330
341
330
342
330
343
330
344
330
345
330
346
330
347
330
348
330
349
330
34A
330
34B
330
34C
330
34D
330
34E
330
34F
330
350
330
351
330
352
330
353
330
354
330
355
330
356
330
357
330
358
330
359
330
35A
330
35B
330
35C
330
35D
330
35E
330
35F
330
360
330
361
330
362
330
363
330
364
330
365
330
366
330
367
330
368
330
369
330
36A
330
36B
330
36C
330
36D
330
36E
330
36F
330
370
330
371
330
372
330
373
330
374
330
375
330
376
330
377
330
378
330
379
330
37A
330
37B
330
37C
330
37D
330
37E
330
37F
330
380
330
381
330
382
330
383
330
384
330
385
330
386
330
387
330
388
330
389
330
38A
330
38B
330
38C
330
38D
330
38E
330
38F
330
390
330
391
330
392
330
393
330
394
330
395
330
396
330
397
330
398
330
399
330
39A
330
39B
330
39C
330
39D
330
39E
330
39F
330
3A0
330
3A1
330
3A2
330
3A3
330
3A4
330
3A5
330
3A6
330
3A7
330
3A8
330
3A9
330
3AA
 92
1
 93
40
 72
2
 10
17.7115227858
 20
2.3567995689
 40
0.0024741678
 50
226.3477981898
 51
270.0031206038
 73
1
 72
1
 10
17.7098149196
 20
2.3550094015
 11
17.6465348845
 21
2.415387435
 72
2
 10
17.6448261836
 20
2.4135964972
 40
0.0024753014
 50
46.3461263058
 51
180.0014637321
 73
1
 72
1
 10
17.6423508822
 20
2.413596434
 11
17.6423508822
 21
2.3815504162
 72
2
 10
17.6448258817
 20
2.3815504143
 40
0.0024749995
 50
179.9999571957
 51
270.0000428043
 73
1
 72
1
 10
17.6448258836
 20
2.3790754148
 11
17.6651428948
 21
2.3790754148
 72
2
 10
17.6651428967
 20
2.3766004153
 40
0.0024749995
 50
359.9999571957
 51
90.0000428043
 73
1
 72
1
 10
17.6676178962
 20
2.3766004134
 11
17.6676178962
 21
2.3568004025
 72
2
 10
17.6651428967
 20
2.3568004006
 40
0.0024749995
 50
269.9999571958
 51
0.0000428043
 73
1
 72
1
 10
17.6651428948
 20
2.3543254011
 11
17.5894788529
 21
2.3543254011
 72
2
 10
17.589478851
 20
2.3568004006
 40
0.0024749995
 50
179.9999571957
 51
270.0000428042
 73
1
 72
1
 10
17.5870038515
 20
2.3568004025
 11
17.5870038515
 21
2.3766004134
 72
2
 10
17.589478851
 20
2.3766004153
 40
0.0024749995
 50
89.9999571957
 51
180.0000428043
 73
1
 72
1
 10
17.5894788529
 20
2.3790754148
 11
17.6081248632
 21
2.3790754148
 72
2
 10
17.6081248651
 20
2.3815504143
 40
0.0024749995
 50
269.9999571957
 51
0.0000428043
 73
1
 72
1
 10
17.6105998646
 20
2.3815504162
 11
17.6105998646
 21
2.4279054419
 72
2
 10
17.6081248651
 20
2.4279054437
 40
0.0024749995
 50
359.9999571957
 51
90.0000428043
 73
1
 72
1
 10
17.6081248632
 20
2.4303804433
 11
17.5894788529
 21
2.4303804433
 72
2
 10
17.589478851
 20
2.4328554428
 40
0.0024749995
 50
179.9999571957
 51
270.0000428043
 73
1
 72
1
 10
17.5870038515
 20
2.4328554446
 11
17.5870038515
 21
2.4526554556
 72
2
 10
17.589478851
 20
2.4526554575
 40
0.0024749995
 50
89.9999571957
 51
180.0000428043
 73
1
 72
1
 10
17.5894788529
 20
2.455130457
 11
17.6899369086
 21
2.455130457
 72
2
 10
17.6899370433
 20
2.4526562892
 40
0.0024741678
 50
46.3477981899
 51
90.0031206038
 73
1
 72
1
 10
17.6916449095
 20
2.4544464566
 11
17.7516779428
 21
2.3971664249
 72
2
 10
17.7533866437
 20
2.3989573626
 40
0.0024753014
 50
226.3461263059
 51
0.0014637321
 73
1
 72
1
 10
17.7558619451
 20
2.3989574258
 11
17.7558619451
 21
2.4279054419
 72
2
 10
17.7533869456
 20
2.4279054437
 40
0.0024749995
 50
359.9999571957
 51
90.0000428043
 73
1
 72
1
 10
17.7533869438
 20
2.4303804433
 11
17.7346109333
 21
2.4303804433
 72
2
 10
17.7346109315
 20
2.4328554428
 40
0.0024749995
 50
179.9999571957
 51
270.0000428043
 73
1
 72
1
 10
17.732135932
 20
2.4328554446
 11
17.732135932
 21
2.4526554556
 72
2
 10
17.7346109315
 20
2.4526554575
 40
0.0024749995
 50
89.9999571958
 51
180.0000428043
 73
1
 72
1
 10
17.7346109333
 20
2.455130457
 11
17.8086119744
 21
2.455130457
 72
2
 10
17.8086119762
 20
2.4526554575
 40
0.0024749995
 50
359.9999571957
 51
90.0000428043
 73
1
 72
1
 10
17.8110869758
 20
2.4526554556
 11
17.8110869758
 21
2.4328554446
 72
2
 10
17.8086119762
 20
2.4328554428
 40
0.0024749995
 50
269.9999571956
 51
0.0000428042
 73
1
 72
1
 10
17.8086119744
 20
2.4303804433
 11
17.7906789644
 21
2.4303804433
 72
2
 10
17.7906789626
 20
2.4279054437
 40
0.0024749995
 50
89.9999571957
 51
180.0000428043
 73
1
 72
1
 10
17.7882039631
 20
2.4279054419
 11
17.7882039631
 21
2.3568004025
 72
2
 10
17.7857289635
 20
2.3568004006
 40
0.0024749995
 50
269.9999571957
 51
0.0000428043
 73
1
 72
1
 10
17.7857289617
 20
2.3543254011
 11
17.7115229205
 21
2.3543254011
 97
267
330
2A0
330
2A1
330
2A2
330
2A3
330
2A4
330
2A5
330
2A6
330
2A7
330
2A8
330
2A9
330
2AA
330
2AB
330
2AC
330
2AD
330
2AE
330
2AF
330
2B0
330
2B1
330
2B2
330
2B3
330
2B4
330
2B5
330
2B6
330
2B7
330
2B8
330
2B9
330
2BA
330
2BB
330
2BC
330
2BD
330
2BE
330
2BF
330
2C0
330
2C1
330
2C2
330
2C3
330
2C4
330
2C5
330
2C6
330
2C7
330
2C8
330
2C9
330
2CA
330
2CB
330
2CC
330
2CD
330
2CE
330
2CF
330
2D0
330
2D1
330
2D2
330
2D3
330
2D4
330
2D5
330
2D6
330
2D7
330
2D8
330
2D9
330
2DA
330
2DB
330
2DC
330
2DD
330
2DE
330
2DF
330
2E0
330
2E1
330
2E2
330
2E3
330
2E4
330
2E5
330
2E6
330
2E7
330
2E8
330
2E9
330
2EA
330
2EB
330
2EC
330
2ED
330
2EE
330
2EF
330
2F0
330
2F1
330
2F2
330
2F3
330
2F4
330
2F5
330
2F6
330
2F7
330
2F8
330
2F9
330
2FA
330
2FB
330
2FC
330
2FD
330
2FE
330
2FF
330
300
330
301
330
302
330
303
330
304
330
305
330
306
330
307
330
308
330
309
330
30A
330
30B
330
30C
330
30D
330
30E
330
30F
330
310
330
311
330
312
330
313
330
314
330
315
330
316
330
317
330
318
330
319
330
31A
330
31B
330
31C
330
31D
330
31E
330
31F
330
320
330
321
330
322
330
323
330
324
330
325
330
326
330
327
330
328
330
329
330
32A
330
32B
330
32C
330
32D
330
32E
330
32F
330
330
330
331
330
332
330
333
330
334
330
335
330
336
330
337
330
338
330
339
330
33A
330
33B
330
33C
330
33D
330
33E
330
33F
330
340
330
341
330
342
330
343
330
344
330
345
330
346
330
347
330
348
330
349
330
34A
330
34B
330
34C
330
34D
330
34E
330
34F
330
350
330
351
330
352
330
353
330
354
330
355
330
356
330
357
330
358
330
359
330
35A
330
35B
330
35C
330
35D
330
35E
330
35F
330
360
330
361
330
362
330
363
330
364
330
365
330
366
330
367
330
368
330
369
330
36A
330
36B
330
36C
330
36D
330
36E
330
36F
330
370
330
371
330
372
330
373
330
374
330
375
330
376
330
377
330
378
330
379
330
37A
330
37B
330
37C
330
37D
330
37E
330
37F
330
380
330
381
330
382
330
383
330
384
330
385
330
386
330
387
330
388
330
389
330
38A
330
38B
330
38C
330
38D
330
38E
330
38F
330
390
330
391
330
392
330
393
330
394
330
395
330
396
330
397
330
398
330
399
330
39A
330
39B
330
39C
330
39D
330
39E
330
39F
330
3A0
330
3A1
330
3A2
330
3A3
330
3A4
330
3A5
330
3A6
330
3A7
330
3A8
330
3A9
330
3AA
 92
1
 93
40
 72
2
 10
17.4632701481
 20
2.3568008172
 40
0.0024754162
 50
226.3593695814
 51
270.0146919954
 73
1
 72
1
 10
17.4615617819
 20
2.3550094015
 11
17.3982817468
 21
2.415387435
 72
2
 10
17.3965730459
 20
2.4135964972
 40
0.0024753014
 50
46.3461263058
 51
180.0014637321
 73
1
 72
1
 10
17.3940977445
 20
2.413596434
 11
17.3940977445
 21
2.3815504162
 72
2
 10
17.396572744
 20
2.3815504143
 40
0.0024749995
 50
179.9999571957
 51
270.0000428043
 73
1
 72
1
 10
17.3965727459
 20
2.3790754148
 11
17.4168897572
 21
2.3790754148
 72
2
 10
17.416889759
 20
2.3766004153
 40
0.0024749995
 50
359.9999571957
 51
90.0000428043
 73
1
 72
1
 10
17.4193647585
 20
2.3766004134
 11
17.4193647585
 21
2.3568004025
 72
2
 10
17.416889759
 20
2.3568004006
 40
0.0024749995
 50
269.9999571957
 51
0.0000428043
 73
1
 72
1
 10
17.4168897572
 20
2.3543254011
 11
17.3412257152
 21
2.3543254011
 72
2
 10
17.3412257133
 20
2.3568004006
 40
0.0024749995
 50
179.9999571957
 51
270.0000428043
 73
1
 72
1
 10
17.3387507138
 20
2.3568004025
 11
17.3387507138
 21
2.3766004134
 72
2
 10
17.3412257133
 20
2.3766004153
 40
0.0024749995
 50
89.9999571957
 51
180.0000428043
 73
1
 72
1
 10
17.3412257152
 20
2.3790754148
 11
17.3598727255
 21
2.3790754148
 72
2
 10
17.3598727274
 20
2.3815504143
 40
0.0024749995
 50
269.9999571957
 51
0.0000428043
 73
1
 72
1
 10
17.3623477269
 20
2.3815504162
 11
17.3623477269
 21
2.4279054419
 72
2
 10
17.3598727274
 20
2.4279054437
 40
0.0024749995
 50
359.9999571957
 51
90.0000428044
 73
1
 72
1
 10
17.3598727255
 20
2.4303804433
 11
17.3412257152
 21
2.4303804433
 72
2
 10
17.3412257133
 20
2.4328554428
 40
0.0024749995
 50
179.9999571957
 51
270.0000428043
 73
1
 72
1
 10
17.3387507138
 20
2.4328554446
 11
17.3387507138
 21
2.4526554556
 72
2
 10
17.3412257133
 20
2.4526554575
 40
0.0024749995
 50
89.9999571957
 51
180.0000428043
 73
1
 72
1
 10
17.3412257152
 20
2.455130457
 11
17.4416837709
 21
2.455130457
 72
2
 10
17.4416839057
 20
2.4526562892
 40
0.0024741678
 50
46.3477981899
 51
90.0031206038
 73
1
 72
1
 10
17.4433917718
 20
2.4544464566
 11
17.5034248051
 21
2.3971664249
 72
2
 10
17.5051335061
 20
2.3989573626
 40
0.0024753014
 50
226.3461263059
 51
0.0014637321
 73
1
 72
1
 10
17.5076088075
 20
2.3989574258
 11
17.5076088075
 21
2.4279054419
 72
2
 10
17.5051338079
 20
2.4279054437
 40
0.0024749995
 50
359.9999571957
 51
90.0000428043
 73
1
 72
1
 10
17.5051338061
 20
2.4303804433
 11
17.4863577957
 21
2.4303804433
 72
2
 10
17.4863577938
 20
2.4328554428
 40
0.0024749995
 50
179.9999571957
 51
270.0000428043
 73
1
 72
1
 10
17.4838827943
 20
2.4328554446
 11
17.4838827943
 21
2.4526554556
 72
2
 10
17.4863577938
 20
2.4526554575
 40
0.0024749995
 50
89.9999571957
 51
180.0000428043
 73
1
 72
1
 10
17.4863577957
 20
2.455130457
 11
17.5603588367
 21
2.455130457
 72
2
 10
17.5603588386
 20
2.4526554575
 40
0.0024749995
 50
359.9999571957
 51
90.0000428042
 73
1
 72
1
 10
17.5628338381
 20
2.4526554556
 11
17.5628338381
 21
2.4328554446
 72
2
 10
17.5603588386
 20
2.4328554428
 40
0.0024749995
 50
269.9999571958
 51
0.0000428043
 73
1
 72
1
 10
17.5603588367
 20
2.4303804433
 11
17.5424258268
 21
2.4303804433
 72
2
 10
17.5424258249
 20
2.4279054437
 40
0.0024749995
 50
89.9999571958
 51
180.0000428043
 73
1
 72
1
 10
17.5399508254
 20
2.4279054419
 11
17.5399508254
 21
2.3568004025
 72
2
 10
17.5374758259
 20
2.3568004006
 40
0.0024749995
 50
269.9999571958
 51
0.0000428043
 73
1
 72
1
 10
17.537475824
 20
2.3543254011
 11
17.4632707829
 21
2.3543254011
 97
267
330
2A0
330
2A1
330
2A2
330
2A3
330
2A4
330
2A5
330
2A6
330
2A7
330
2A8
330
2A9
330
2AA
330
2AB
330
2AC
330
2AD
330
2AE
330
2AF
330
2B0
330
2B1
330
2B2
330
2B3
330
2B4
330
2B5
330
2B6
330
2B7
330
2B8
330
2B9
330
2BA
330
2BB
330
2BC
330
2BD
330
2BE
330
2BF
330
2C0
330
2C1
330
2C2
330
2C3
330
2C4
330
2C5
330
2C6
330
2C7
330
2C8
330
2C9
330
2CA
330
2CB
330
2CC
330
2CD
330
2CE
330
2CF
330
2D0
330
2D1
330
2D2
330
2D3
330
2D4
330
2D5
330
2D6
330
2D7
330
2D8
330
2D9
330
2DA
330
2DB
330
2DC
330
2DD
330
2DE
330
2DF
330
2E0
330
2E1
330
2E2
330
2E3
330
2E4
330
2E5
330
2E6
330
2E7
330
2E8
330
2E9
330
2EA
330
2EB
330
2EC
330
2ED
330
2EE
330
2EF
330
2F0
330
2F1
330
2F2
330
2F3
330
2F4
330
2F5
330
2F6
330
2F7
330
2F8
330
2F9
330
2FA
330
2FB
330
2FC
330
2FD
330
2FE
330
2FF
330
300
330
301
330
302
330
303
330
304
330
305
330
306
330
307
330
308
330
309
330
30A
330
30B
330
30C
330
30D
330
30E
330
30F
330
310
330
311
330
312
330
313
330
314
330
315
330
316
330
317
330
318
330
319
330
31A
330
31B
330
31C
330
31D
330
31E
330
31F
330
320
330
321
330
322
330
323
330
324
330
325
330
326
330
327
330
328
330
329
330
32A
330
32B
330
32C
330
32D
330
32E
330
32F
330
330
330
331
330
332
330
333
330
334
330
335
330
336
330
337
330
338
330
339
330
33A
330
33B
330
33C
330
33D
330
33E
330
33F
330
340
330
341
330
342
330
343
330
344
330
345
330
346
330
347
330
348
330
349
330
34A
330
34B
330
34C
330
34D
330
34E
330
34F
330
350
330
351
330
352
330
353
330
354
330
355
330
356
330
357
330
358
330
359
330
35A
330
35B
330
35C
330
35D
330
35E
330
35F
330
360
330
361
330
362
330
363
330
364
330
365
330
366
330
367
330
368
330
369
330
36A
330
36B
330
36C
330
36D
330
36E
330
36F
330
370
330
371
330
372
330
373
330
374
330
375
330
376
330
377
330
378
330
379
330
37A
330
37B
330
37C
330
37D
330
37E
330
37F
330
380
330
381
330
382
330
383
330
384
330
385
330
386
330
387
330
388
330
389
330
38A
330
38B
330
38C
330
38D
330
38E
330
38F
330
390
330
391
330
392
330
393
330
394
330
395
330
396
330
397
330
398
330
399
330
39A
330
39B
330
39C
330
39D
330
39E
330
39F
330
3A0
330
3A1
330
3A2
330
3A3
330
3A4
330
3A5
330
3A6
330
3A7
330
3A8
330
3A9
330
3AA
 92
1
 93
23
 72
2
 10
17.0481152095
 20
2.4027328529
 40
0.048483885
 50
273.21763719
 51
303.0749121182
 73
1
 72
2
 10
17.0629546036
 20
2.379965244
 40
0.0213072145
 50
303.0488228549
 51
355.7263138674
 73
1
 72
2
 10
17.0688911042
 20
2.3799744343
 40
0.0153945295
 50
354.0454548824
 51
5.1878013979
 73
1
 72
2
 10
17.0620614151
 20
2.3797859164
 40
0.0222174455
 50
4.0793399388
 51
69.834329283
 73
1
 72
1
 10
17.0697205646
 20
2.4006414268
 11
17.059669559
 21
2.4041904287
 72
1
 10
17.059669559
 20
2.4041904287
 11
17.0679095636
 21
2.4089664314
 72
2
 10
17.0460441811
 20
2.445793323
 40
0.0428289026
 50
300.6990502959
 51
319.0591802498
 73
1
 72
2
 10
17.0660727781
 20
2.4296649696
 40
0.0171568255
 50
315.9145124245
 51
16.0049121283
 73
1
 72
2
 10
17.0611211659
 20
2.4263113051
 40
0.0229166529
 50
20.6563876465
 51
62.3316896973
 73
1
 72
2
 10
17.0404590422
 20
2.3933827403
 40
0.061747717
 50
59.5385584989
 51
90.0050977555
 73
1
 72
1
 10
17.0404535484
 20
2.455130457
 11
16.8743904563
 21
2.455130457
 72
2
 10
16.8743904545
 20
2.4526554575
 40
0.0024749995
 50
89.9999571958
 51
180.0000428043
 73
1
 72
1
 10
16.8719154549
 20
2.4526554556
 11
16.8719154549
 21
2.4328554446
 72
2
 10
16.8743904545
 20
2.4328554428
 40
0.0024749995
 50
179.9999571957
 51
270.0000428043
 73
1
 72
1
 10
16.8743904563
 20
2.4303804433
 11
16.8983324696
 21
2.4303804433
 72
2
 10
16.8983324714
 20
2.4279054437
 40
0.0024749995
 50
359.9999571957
 51
90.0000428043
 73
1
 72
1
 10
16.9008074709
 20
2.4279054419
 11
16.9008074709
 21
2.3815504162
 72
2
 10
16.8983324714
 20
2.3815504143
 40
0.0024749995
 50
269.9999571958
 51
0.0000428043
 73
1
 72
1
 10
16.8983324696
 20
2.3790754148
 11
16.8743904563
 21
2.3790754148
 72
2
 10
16.8743904545
 20
2.3766004153
 40
0.0024749995
 50
89.9999571958
 51
180.0000428043
 73
1
 72
1
 10
16.8719154549
 20
2.3766004134
 11
16.8719154549
 21
2.3568004025
 72
2
 10
16.8743904545
 20
2.3568004006
 40
0.0024749995
 50
179.9999571957
 51
270.0000428042
 73
1
 72
1
 10
16.8743904563
 20
2.3543254011
 11
17.0508365542
 21
2.3543254011
 97
267
330
2A0
330
2A1
330
2A2
330
2A3
330
2A4
330
2A5
330
2A6
330
2A7
330
2A8
330
2A9
330
2AA
330
2AB
330
2AC
330
2AD
330
2AE
330
2AF
330
2B0
330
2B1
330
2B2
330
2B3
330
2B4
330
2B5
330
2B6
330
2B7
330
2B8
330
2B9
330
2BA
330
2BB
330
2BC
330
2BD
330
2BE
330
2BF
330
2C0
330
2C1
330
2C2
330
2C3
330
2C4
330
2C5
330
2C6
330
2C7
330
2C8
330
2C9
330
2CA
330
2CB
330
2CC
330
2CD
330
2CE
330
2CF
330
2D0
330
2D1
330
2D2
330
2D3
330
2D4
330
2D5
330
2D6
330
2D7
330
2D8
330
2D9
330
2DA
330
2DB
330
2DC
330
2DD
330
2DE
330
2DF
330
2E0
330
2E1
330
2E2
330
2E3
330
2E4
330
2E5
330
2E6
330
2E7
330
2E8
330
2E9
330
2EA
330
2EB
330
2EC
330
2ED
330
2EE
330
2EF
330
2F0
330
2F1
330
2F2
330
2F3
330
2F4
330
2F5
330
2F6
330
2F7
330
2F8
330
2F9
330
2FA
330
2FB
330
2FC
330
2FD
330
2FE
330
2FF
330
300
330
301
330
302
330
303
330
304
330
305
330
306
330
307
330
308
330
309
330
30A
330
30B
330
30C
330
30D
330
30E
330
30F
330
310
330
311
330
312
330
313
330
314
330
315
330
316
330
317
330
318
330
319
330
31A
330
31B
330
31C
330
31D
330
31E
330
31F
330
320
330
321
330
322
330
323
330
324
330
325
330
326
330
327
330
328
330
329
330
32A
330
32B
330
32C
330
32D
330
32E
330
32F
330
330
330
331
330
332
330
333
330
334
330
335
330
336
330
337
330
338
330
339
330
33A
330
33B
330
33C
330
33D
330
33E
330
33F
330
340
330
341
330
342
330
343
330
344
330
345
330
346
330
347
330
348
330
349
330
34A
330
34B
330
34C
330
34D
330
34E
330
34F
330
350
330
351
330
352
330
353
330
354
330
355
330
356
330
357
330
358
330
359
330
35A
330
35B
330
35C
330
35D
330
35E
330
35F
330
360
330
361
330
362
330
363
330
364
330
365
330
366
330
367
330
368
330
369
330
36A
330
36B
330
36C
330
36D
330
36E
330
36F
330
370
330
371
330
372
330
373
330
374
330
375
330
376
330
377
330
378
330
379
330
37A
330
37B
330
37C
330
37D
330
37E
330
37F
330
380
330
381
330
382
330
383
330
384
330
385
330
386
330
387
330
388
330
389
330
38A
330
38B
330
38C
330
38D
330
38E
330
38F
330
390
330
391
330
392
330
393
330
394
330
395
330
396
330
397
330
398
330
399
330
39A
330
39B
330
39C
330
39D
330
39E
330
39F
330
3A0
330
3A1
330
3A2
330
3A3
330
3A4
330
3A5
330
3A6
330
3A7
330
3A8
330
3A9
330
3AA
 92
1
 93
32
 72
2
 10
17.1857496308
 20
2.3568004006
 40
0.0024749995
 50
269.9999571958
 51
0.0000428044
 73
1
 72
1
 10
17.1882246303
 20
2.3568004025
 11
17.1882246303
 21
2.3766004134
 72
2
 10
17.1857496308
 20
2.3766004153
 40
0.0024749995
 50
359.9999571957
 51
90.0000428043
 73
1
 72
1
 10
17.185749629
 20
2.3790754148
 11
17.1744666227
 21
2.3790754148
 72
2
 10
17.1744665134
 20
2.3815504549
 40
0.0024750401
 50
147.6063258011
 51
270.0025305754
 73
1
 72
1
 10
17.1723766216
 20
2.3828764169
 11
17.1778926246
 21
2.3915704217
 72
2
 10
17.1799825555
 20
2.3902442221
 40
0.0024752003
 50
89.998372645
 51
147.602165307
 73
1
 72
1
 10
17.1799826258
 20
2.3927194224
 11
17.2148606451
 21
2.3927194224
 72
2
 10
17.2148601055
 20
2.3902439622
 40
0.0024754602
 50
32.8959418574
 51
89.9875097202
 73
1
 72
1
 10
17.2169386463
 20
2.3915884218
 11
17.2225646494
 21
2.3828954169
 72
2
 10
17.2204866271
 20
2.3815506219
 40
0.0024752071
 50
270.0004896793
 51
32.9089806818
 73
1
 72
1
 10
17.2204866482
 20
2.3790754148
 11
17.2060356402
 21
2.3790754148
 72
2
 10
17.2060356384
 20
2.3766004153
 40
0.0024749995
 50
89.9999571958
 51
180.0000428043
 73
1
 72
1
 10
17.2035606388
 20
2.3766004134
 11
17.2035606388
 21
2.3568004025
 72
2
 10
17.2060356384
 20
2.3568004006
 40
0.0024749995
 50
179.9999571957
 51
270.0000428042
 73
1
 72
1
 10
17.2060356402
 20
2.3543254011
 11
17.3113166986
 21
2.3543254011
 72
2
 10
17.3113167005
 20
2.3568004006
 40
0.0024749995
 50
269.9999571957
 51
0.0000428043
 73
1
 72
1
 10
17.3137917
 20
2.3568004025
 11
17.3137917
 21
2.3766004134
 72
2
 10
17.3113167005
 20
2.3766004153
 40
0.0024749995
 50
359.9999571957
 51
90.0000428043
 73
1
 72
1
 10
17.3113166986
 20
2.3790754148
 11
17.2913006875
 21
2.3790754148
 72
2
 10
17.291300808
 20
2.3815494558
 40
0.002474041
 50
212.9056413127
 51
269.9972091756
 73
1
 72
1
 10
17.2892236864
 20
2.3802054154
 11
17.2414676599
 21
2.4540004564
 72
2
 10
17.2393900382
 20
2.4526554968
 40
0.0024749602
 50
32.9172174468
 51
90.0087853096
 73
1
 72
1
 10
17.2393896587
 20
2.455130457
 11
17.182214627
 21
2.455130457
 72
2
 10
17.1822145567
 20
2.4526552567
 40
0.0024752003
 50
89.998372645
 51
147.602165307
 73
1
 72
1
 10
17.1801246258
 20
2.4539814564
 11
17.1333245999
 21
2.3802244155
 72
2
 10
17.131234669
 20
2.3815506151
 40
0.0024752003
 50
269.998372645
 51
327.602165307
 73
1
 72
1
 10
17.1312345987
 20
2.3790754148
 11
17.1083735861
 21
2.3790754148
 72
2
 10
17.1083735842
 20
2.3766004153
 40
0.0024749995
 50
89.9999571957
 51
180.0000428043
 73
1
 72
1
 10
17.1058985847
 20
2.3766004134
 11
17.1058985847
 21
2.3568004025
 72
2
 10
17.1083735842
 20
2.3568004006
 40
0.0024749995
 50
179.9999571957
 51
270.0000428043
 73
1
 72
1
 10
17.1083735861
 20
2.3543254011
 11
17.185749629
 21
2.3543254011
 97
267
330
2A0
330
2A1
330
2A2
330
2A3
330
2A4
330
2A5
330
2A6
330
2A7
330
2A8
330
2A9
330
2AA
330
2AB
330
2AC
330
2AD
330
2AE
330
2AF
330
2B0
330
2B1
330
2B2
330
2B3
330
2B4
330
2B5
330
2B6
330
2B7
330
2B8
330
2B9
330
2BA
330
2BB
330
2BC
330
2BD
330
2BE
330
2BF
330
2C0
330
2C1
330
2C2
330
2C3
330
2C4
330
2C5
330
2C6
330
2C7
330
2C8
330
2C9
330
2CA
330
2CB
330
2CC
330
2CD
330
2CE
330
2CF
330
2D0
330
2D1
330
2D2
330
2D3
330
2D4
330
2D5
330
2D6
330
2D7
330
2D8
330
2D9
330
2DA
330
2DB
330
2DC
330
2DD
330
2DE
330
2DF
330
2E0
330
2E1
330
2E2
330
2E3
330
2E4
330
2E5
330
2E6
330
2E7
330
2E8
330
2E9
330
2EA
330
2EB
330
2EC
330
2ED
330
2EE
330
2EF
330
2F0
330
2F1
330
2F2
330
2F3
330
2F4
330
2F5
330
2F6
330
2F7
330
2F8
330
2F9
330
2FA
330
2FB
330
2FC
330
2FD
330
2FE
330
2FF
330
300
330
301
330
302
330
303
330
304
330
305
330
306
330
307
330
308
330
309
330
30A
330
30B
330
30C
330
30D
330
30E
330
30F
330
310
330
311
330
312
330
313
330
314
330
315
330
316
330
317
330
318
330
319
330
31A
330
31B
330
31C
330
31D
330
31E
330
31F
330
320
330
321
330
322
330
323
330
324
330
325
330
326
330
327
330
328
330
329
330
32A
330
32B
330
32C
330
32D
330
32E
330
32F
330
330
330
331
330
332
330
333
330
334
330
335
330
336
330
337
330
338
330
339
330
33A
330
33B
330
33C
330
33D
330
33E
330
33F
330
340
330
341
330
342
330
343
330
344
330
345
330
346
330
347
330
348
330
349
330
34A
330
34B
330
34C
330
34D
330
34E
330
34F
330
350
330
351
330
352
330
353
330
354
330
355
330
356
330
357
330
358
330
359
330
35A
330
35B
330
35C
330
35D
330
35E
330
35F
330
360
330
361
330
362
330
363
330
364
330
365
330
366
330
367
330
368
330
369
330
36A
330
36B
330
36C
330
36D
330
36E
330
36F
330
370
330
371
330
372
330
373
330
374
330
375
330
376
330
377
330
378
330
379
330
37A
330
37B
330
37C
330
37D
330
37E
330
37F
330
380
330
381
330
382
330
383
330
384
330
385
330
386
330
387
330
388
330
389
330
38A
330
38B
330
38C
330
38D
330
38E
330
38F
330
390
330
391
330
392
330
393
330
394
330
395
330
396
330
397
330
398
330
399
330
39A
330
39B
330
39C
330
39D
330
39E
330
39F
330
3A0
330
3A1
330
3A2
330
3A3
330
3A4
330
3A5
330
3A6
330
3A7
330
3A8
330
3A9
330
3AA
 92
1
 93
6
 72
2
 10
16.963795504
 20
2.3815504143
 40
0.0024749995
 50
179.9999571957
 51
270.0000428043
 73
1
 72
1
 10
16.9613205045
 20
2.3815504162
 11
16.9613205045
 21
2.3939254231
 72
2
 10
16.963795504
 20
2.3939254249
 40
0.0024749995
 50
89.9999571957
 51
180.0000428043
 73
1
 72
1
 10
16.9637955059
 20
2.3964004244
 11
17.0051585288
 21
2.3964004244
 72
2
 10
17.0051585288
 20
2.3877379196
 40
0.0086625048
 50
270.0
 51
90.0
 73
1
 72
1
 10
17.0051585288
 20
2.3790754148
 11
16.9637955059
 21
2.3790754148
 97
267
330
2A0
330
2A1
330
2A2
330
2A3
330
2A4
330
2A5
330
2A6
330
2A7
330
2A8
330
2A9
330
2AA
330
2AB
330
2AC
330
2AD
330
2AE
330
2AF
330
2B0
330
2B1
330
2B2
330
2B3
330
2B4
330
2B5
330
2B6
330
2B7
330
2B8
330
2B9
330
2BA
330
2BB
330
2BC
330
2BD
330
2BE
330
2BF
330
2C0
330
2C1
330
2C2
330
2C3
330
2C4
330
2C5
330
2C6
330
2C7
330
2C8
330
2C9
330
2CA
330
2CB
330
2CC
330
2CD
330
2CE
330
2CF
330
2D0
330
2D1
330
2D2
330
2D3
330
2D4
330
2D5
330
2D6
330
2D7
330
2D8
330
2D9
330
2DA
330
2DB
330
2DC
330
2DD
330
2DE
330
2DF
330
2E0
330
2E1
330
2E2
330
2E3
330
2E4
330
2E5
330
2E6
330
2E7
330
2E8
330
2E9
330
2EA
330
2EB
330
2EC
330
2ED
330
2EE
330
2EF
330
2F0
330
2F1
330
2F2
330
2F3
330
2F4
330
2F5
330
2F6
330
2F7
330
2F8
330
2F9
330
2FA
330
2FB
330
2FC
330
2FD
330
2FE
330
2FF
330
300
330
301
330
302
330
303
330
304
330
305
330
306
330
307
330
308
330
309
330
30A
330
30B
330
30C
330
30D
330
30E
330
30F
330
310
330
311
330
312
330
313
330
314
330
315
330
316
330
317
330
318
330
319
330
31A
330
31B
330
31C
330
31D
330
31E
330
31F
330
320
330
321
330
322
330
323
330
324
330
325
330
326
330
327
330
328
330
329
330
32A
330
32B
330
32C
330
32D
330
32E
330
32F
330
330
330
331
330
332
330
333
330
334
330
335
330
336
330
337
330
338
330
339
330
33A
330
33B
330
33C
330
33D
330
33E
330
33F
330
340
330
341
330
342
330
343
330
344
330
345
330
346
330
347
330
348
330
349
330
34A
330
34B
330
34C
330
34D
330
34E
330
34F
330
350
330
351
330
352
330
353
330
354
330
355
330
356
330
357
330
358
330
359
330
35A
330
35B
330
35C
330
35D
330
35E
330
35F
330
360
330
361
330
362
330
363
330
364
330
365
330
366
330
367
330
368
330
369
330
36A
330
36B
330
36C
330
36D
330
36E
330
36F
330
370
330
371
330
372
330
373
330
374
330
375
330
376
330
377
330
378
330
379
330
37A
330
37B
330
37C
330
37D
330
37E
330
37F
330
380
330
381
330
382
330
383
330
384
330
385
330
386
330
387
330
388
330
389
330
38A
330
38B
330
38C
330
38D
330
38E
330
38F
330
390
330
391
330
392
330
393
330
394
330
395
330
396
330
397
330
398
330
399
330
39A
330
39B
330
39C
330
39D
330
39E
330
39F
330
3A0
330
3A1
330
3A2
330
3A3
330
3A4
330
3A5
330
3A6
330
3A7
330
3A8
330
3A9
330
3AA
 92
1
 93
13
 72
2
 10
18.1572301659
 20
2.415180433
 40
0.0024749995
 50
179.9999571957
 51
270.0000428043
 73
1
 72
1
 10
18.1547551663
 20
2.4151804348
 11
18.1547551663
 21
2.4279054419
 72
2
 10
18.1572301659
 20
2.4279054437
 40
0.0024749995
 50
89.9999571957
 51
180.0000428043
 73
1
 72
1
 10
18.1572301677
 20
2.4303804433
 11
18.1940311881
 21
2.4303804433
 72
2
 10
18.1924863006
 20
2.4019259643
 40
0.0284963867
 50
70.3834917948
 51
86.8922743861
 73
1
 72
2
 10
18.1973459106
 20
2.4149676972
 40
0.0145814632
 50
54.6746025112
 51
71.1660573124
 73
1
 72
2
 10
18.2024754016
 20
2.4218216224
 40
0.0060275915
 50
20.9055592135
 51
56.7851676243
 73
1
 72
2
 10
18.2037759605
 20
2.4224819047
 40
0.0045795888
 50
355.6235353944
 51
18.9942678268
 73
1
 72
2
 10
18.2025691502
 20
2.4227756809
 40
0.0058087709
 50
318.8515287446
 51
353.6422345323
 73
1
 72
2
 10
18.198398534
 20
2.4260095887
 40
0.0110815393
 50
306.758405961
 51
320.4502234234
 73
1
 72
2
 10
18.1927693431
 20
2.4337504172
 40
0.0206523367
 50
289.6883413472
 51
306.4184925496
 73
1
 72
2
 10
18.1908418374
 20
2.4381440645
 40
0.0254407115
 50
270.7327484175
 51
290.441894219
 73
1
 72
1
 10
18.1911671865
 20
2.4127054335
 11
18.1572301677
 21
2.4127054335
 97
267
330
2A0
330
2A1
330
2A2
330
2A3
330
2A4
330
2A5
330
2A6
330
2A7
330
2A8
330
2A9
330
2AA
330
2AB
330
2AC
330
2AD
330
2AE
330
2AF
330
2B0
330
2B1
330
2B2
330
2B3
330
2B4
330
2B5
330
2B6
330
2B7
330
2B8
330
2B9
330
2BA
330
2BB
330
2BC
330
2BD
330
2BE
330
2BF
330
2C0
330
2C1
330
2C2
330
2C3
330
2C4
330
2C5
330
2C6
330
2C7
330
2C8
330
2C9
330
2CA
330
2CB
330
2CC
330
2CD
330
2CE
330
2CF
330
2D0
330
2D1
330
2D2
330
2D3
330
2D4
330
2D5
330
2D6
330
2D7
330
2D8
330
2D9
330
2DA
330
2DB
330
2DC
330
2DD
330
2DE
330
2DF
330
2E0
330
2E1
330
2E2
330
2E3
330
2E4
330
2E5
330
2E6
330
2E7
330
2E8
330
2E9
330
2EA
330
2EB
330
2EC
330
2ED
330
2EE
330
2EF
330
2F0
330
2F1
330
2F2
330
2F3
330
2F4
330
2F5
330
2F6
330
2F7
330
2F8
330
2F9
330
2FA
330
2FB
330
2FC
330
2FD
330
2FE
330
2FF
330
300
330
301
330
302
330
303
330
304
330
305
330
306
330
307
330
308
330
309
330
30A
330
30B
330
30C
330
30D
330
30E
330
30F
330
310
330
311
330
312
330
313
330
314
330
315
330
316
330
317
330
318
330
319
330
31A
330
31B
330
31C
330
31D
330
31E
330
31F
330
320
330
321
330
322
330
323
330
324
330
325
330
326
330
327
330
328
330
329
330
32A
330
32B
330
32C
330
32D
330
32E
330
32F
330
330
330
331
330
332
330
333
330
334
330
335
330
336
330
337
330
338
330
339
330
33A
330
33B
330
33C
330
33D
330
33E
330
33F
330
340
330
341
330
342
330
343
330
344
330
345
330
346
330
347
330
348
330
349
330
34A
330
34B
330
34C
330
34D
330
34E
330
34F
330
350
330
351
330
352
330
353
330
354
330
355
330
356
330
357
330
358
330
359
330
35A
330
35B
330
35C
330
35D
330
35E
330
35F
330
360
330
361
330
362
330
363
330
364
330
365
330
366
330
367
330
368
330
369
330
36A
330
36B
330
36C
330
36D
330
36E
330
36F
330
370
330
371
330
372
330
373
330
374
330
375
330
376
330
377
330
378
330
379
330
37A
330
37B
330
37C
330
37D
330
37E
330
37F
330
380
330
381
330
382
330
383
330
384
330
385
330
386
330
387
330
388
330
389
330
38A
330
38B
330
38C
330
38D
330
38E
330
38F
330
390
330
391
330
392
330
393
330
394
330
395
330
396
330
397
330
398
330
399
330
39A
330
39B
330
39C
330
39D
330
39E
330
39F
330
3A0
330
3A1
330
3A2
330
3A3
330
3A4
330
3A5
330
3A6
330
3A7
330
3A8
330
3A9
330
3AA
 92
1
 93
6
 72
2
 10
17.0051585288
 20
2.4217179385
 40
0.0086625048
 50
270.0
 51
90.0
 73
1
 72
1
 10
17.0051585288
 20
2.4303804433
 11
16.9637955059
 21
2.4303804433
 72
2
 10
16.963795504
 20
2.4279054437
 40
0.0024749995
 50
89.9999571957
 51
180.0000428043
 73
1
 72
1
 10
16.9613205045
 20
2.4279054419
 11
16.9613205045
 21
2.415530435
 72
2
 10
16.963795504
 20
2.4155304332
 40
0.0024749995
 50
179.9999571957
 51
270.0000428043
 73
1
 72
1
 10
16.9637955059
 20
2.4130554337
 11
17.0051585288
 21
2.4130554337
 97
267
330
2A0
330
2A1
330
2A2
330
2A3
330
2A4
330
2A5
330
2A6
330
2A7
330
2A8
330
2A9
330
2AA
330
2AB
330
2AC
330
2AD
330
2AE
330
2AF
330
2B0
330
2B1
330
2B2
330
2B3
330
2B4
330
2B5
330
2B6
330
2B7
330
2B8
330
2B9
330
2BA
330
2BB
330
2BC
330
2BD
330
2BE
330
2BF
330
2C0
330
2C1
330
2C2
330
2C3
330
2C4
330
2C5
330
2C6
330
2C7
330
2C8
330
2C9
330
2CA
330
2CB
330
2CC
330
2CD
330
2CE
330
2CF
330
2D0
330
2D1
330
2D2
330
2D3
330
2D4
330
2D5
330
2D6
330
2D7
330
2D8
330
2D9
330
2DA
330
2DB
330
2DC
330
2DD
330
2DE
330
2DF
330
2E0
330
2E1
330
2E2
330
2E3
330
2E4
330
2E5
330
2E6
330
2E7
330
2E8
330
2E9
330
2EA
330
2EB
330
2EC
330
2ED
330
2EE
330
2EF
330
2F0
330
2F1
330
2F2
330
2F3
330
2F4
330
2F5
330
2F6
330
2F7
330
2F8
330
2F9
330
2FA
330
2FB
330
2FC
330
2FD
330
2FE
330
2FF
330
300
330
301
330
302
330
303
330
304
330
305
330
306
330
307
330
308
330
309
330
30A
330
30B
330
30C
330
30D
330
30E
330
30F
330
310
330
311
330
312
330
313
330
314
330
315
330
316
330
317
330
318
330
319
330
31A
330
31B
330
31C
330
31D
330
31E
330
31F
330
320
330
321
330
322
330
323
330
324
330
325
330
326
330
327
330
328
330
329
330
32A
330
32B
330
32C
330
32D
330
32E
330
32F
330
330
330
331
330
332
330
333
330
334
330
335
330
336
330
337
330
338
330
339
330
33A
330
33B
330
33C
330
33D
330
33E
330
33F
330
340
330
341
330
342
330
343
330
344
330
345
330
346
330
347
330
348
330
349
330
34A
330
34B
330
34C
330
34D
330
34E
330
34F
330
350
330
351
330
352
330
353
330
354
330
355
330
356
330
357
330
358
330
359
330
35A
330
35B
330
35C
330
35D
330
35E
330
35F
330
360
330
361
330
362
330
363
330
364
330
365
330
366
330
367
330
368
330
369
330
36A
330
36B
330
36C
330
36D
330
36E
330
36F
330
370
330
371
330
372
330
373
330
374
330
375
330
376
330
377
330
378
330
379
330
37A
330
37B
330
37C
330
37D
330
37E
330
37F
330
380
330
381
330
382
330
383
330
384
330
385
330
386
330
387
330
388
330
389
330
38A
330
38B
330
38C
330
38D
330
38E
330
38F
330
390
330
391
330
392
330
393
330
394
330
395
330
396
330
397
330
398
330
399
330
39A
330
39B
330
39C
330
39D
330
39E
330
39F
330
3A0
330
3A1
330
3A2
330
3A3
330
3A4
330
3A5
330
3A6
330
3A7
330
3A8
330
3A9
330
3AA
 92
1
 93
8
 72
2
 10
17.2090556207
 20
2.4161446411
 40
0.0024752071
 50
270.0004896793
 51
32.9089806818
 73
1
 72
1
 10
17.211133643
 20
2.4174894361
 11
17.203874639
 21
2.4287054423
 72
2
 10
17.2017960982
 20
2.4273609828
 40
0.0024754602
 50
32.8959418573
 51
89.9875097202
 73
1
 72
1
 10
17.2017966379
 20
2.429836443
 11
17.1956156344
 21
2.429836443
 72
2
 10
17.1956155641
 20
2.4273612427
 40
0.0024752003
 50
89.998372645
 51
147.6021653069
 73
1
 72
1
 10
17.1935256333
 20
2.4286874423
 11
17.1864086293
 21
2.4174704361
 72
2
 10
17.1884985212
 20
2.4161444741
 40
0.0024750401
 50
147.6063258012
 51
270.0025305753
 73
1
 72
1
 10
17.1884986305
 20
2.413669434
 11
17.2090556419
 21
2.413669434
 97
267
330
2A0
330
2A1
330
2A2
330
2A3
330
2A4
330
2A5
330
2A6
330
2A7
330
2A8
330
2A9
330
2AA
330
2AB
330
2AC
330
2AD
330
2AE
330
2AF
330
2B0
330
2B1
330
2B2
330
2B3
330
2B4
330
2B5
330
2B6
330
2B7
330
2B8
330
2B9
330
2BA
330
2BB
330
2BC
330
2BD
330
2BE
330
2BF
330
2C0
330
2C1
330
2C2
330
2C3
330
2C4
330
2C5
330
2C6
330
2C7
330
2C8
330
2C9
330
2CA
330
2CB
330
2CC
330
2CD
330
2CE
330
2CF
330
2D0
330
2D1
330
2D2
330
2D3
330
2D4
330
2D5
330
2D6
330
2D7
330
2D8
330
2D9
330
2DA
330
2DB
330
2DC
330
2DD
330
2DE
330
2DF
330
2E0
330
2E1
330
2E2
330
2E3
330
2E4
330
2E5
330
2E6
330
2E7
330
2E8
330
2E9
330
2EA
330
2EB
330
2EC
330
2ED
330
2EE
330
2EF
330
2F0
330
2F1
330
2F2
330
2F3
330
2F4
330
2F5
330
2F6
330
2F7
330
2F8
330
2F9
330
2FA
330
2FB
330
2FC
330
2FD
330
2FE
330
2FF
330
300
330
301
330
302
330
303
330
304
330
305
330
306
330
307
330
308
330
309
330
30A
330
30B
330
30C
330
30D
330
30E
330
30F
330
310
330
311
330
312
330
313
330
314
330
315
330
316
330
317
330
318
330
319
330
31A
330
31B
330
31C
330
31D
330
31E
330
31F
330
320
330
321
330
322
330
323
330
324
330
325
330
326
330
327
330
328
330
329
330
32A
330
32B
330
32C
330
32D
330
32E
330
32F
330
330
330
331
330
332
330
333
330
334
330
335
330
336
330
337
330
338
330
339
330
33A
330
33B
330
33C
330
33D
330
33E
330
33F
330
340
330
341
330
342
330
343
330
344
330
345
330
346
330
347
330
348
330
349
330
34A
330
34B
330
34C
330
34D
330
34E
330
34F
330
350
330
351
330
352
330
353
330
354
330
355
330
356
330
357
330
358
330
359
330
35A
330
35B
330
35C
330
35D
330
35E
330
35F
330
360
330
361
330
362
330
363
330
364
330
365
330
366
330
367
330
368
330
369
330
36A
330
36B
330
36C
330
36D
330
36E
330
36F
330
370
330
371
330
372
330
373
330
374
330
375
330
376
330
377
330
378
330
379
330
37A
330
37B
330
37C
330
37D
330
37E
330
37F
330
380
330
381
330
382
330
383
330
384
330
385
330
386
330
387
330
388
330
389
330
38A
330
38B
330
38C
330
38D
330
38E
330
38F
330
390
330
391
330
392
330
393
330
394
330
395
330
396
330
397
330
398
330
399
330
39A
330
39B
330
39C
330
39D
330
39E
330
39F
330
3A0
330
3A1
330
3A2
330
3A3
330
3A4
330
3A5
330
3A6
330
3A7
330
3A8
330
3A9
330
3AA
 92
1
 93
1
 72
3
 10
17.573550844
 20
2.4034764283
 11
-0.8250004575
 21
0.0
 40
0.218572
 50
0.0
 51
-0.0
 73
1
 97
267
330
2A0
330
2A1
330
2A2
330
2A3
330
2A4
330
2A5
330
2A6
330
2A7
330
2A8
330
2A9
330
2AA
330
2AB
330
2AC
330
2AD
330
2AE
330
2AF
330
2B0
330
2B1
330
2B2
330
2B3
330
2B4
330
2B5
330
2B6
330
2B7
330
2B8
330
2B9
330
2BA
330
2BB
330
2BC
330
2BD
330
2BE
330
2BF
330
2C0
330
2C1
330
2C2
330
2C3
330
2C4
330
2C5
330
2C6
330
2C7
330
2C8
330
2C9
330
2CA
330
2CB
330
2CC
330
2CD
330
2CE
330
2CF
330
2D0
330
2D1
330
2D2
330
2D3
330
2D4
330
2D5
330
2D6
330
2D7
330
2D8
330
2D9
330
2DA
330
2DB
330
2DC
330
2DD
330
2DE
330
2DF
330
2E0
330
2E1
330
2E2
330
2E3
330
2E4
330
2E5
330
2E6
330
2E7
330
2E8
330
2E9
330
2EA
330
2EB
330
2EC
330
2ED
330
2EE
330
2EF
330
2F0
330
2F1
330
2F2
330
2F3
330
2F4
330
2F5
330
2F6
330
2F7
330
2F8
330
2F9
330
2FA
330
2FB
330
2FC
330
2FD
330
2FE
330
2FF
330
300
330
301
330
302
330
303
330
304
330
305
330
306
330
307
330
308
330
309
330
30A
330
30B
330
30C
330
30D
330
30E
330
30F
330
310
330
311
330
312
330
313
330
314
330
315
330
316
330
317
330
318
330
319
330
31A
330
31B
330
31C
330
31D
330
31E
330
31F
330
320
330
321
330
322
330
323
330
324
330
325
330
326
330
327
330
328
330
329
330
32A
330
32B
330
32C
330
32D
330
32E
330
32F
330
330
330
331
330
332
330
333
330
334
330
335
330
336
330
337
330
338
330
339
330
33A
330
33B
330
33C
330
33D
330
33E
330
33F
330
340
330
341
330
342
330
343
330
344
330
345
330
346
330
347
330
348
330
349
330
34A
330
34B
330
34C
330
34D
330
34E
330
34F
330
350
330
351
330
352
330
353
330
354
330
355
330
356
330
357
330
358
330
359
330
35A
330
35B
330
35C
330
35D
330
35E
330
35F
330
360
330
361
330
362
330
363
330
364
330
365
330
366
330
367
330
368
330
369
330
36A
330
36B
330
36C
330
36D
330
36E
330
36F
330
370
330
371
330
372
330
373
330
374
330
375
330
376
330
377
330
378
330
379
330
37A
330
37B
330
37C
330
37D
330
37E
330
37F
330
380
330
381
330
382
330
383
330
384
330
385
330
386
330
387
330
388
330
389
330
38A
330
38B
330
38C
330
38D
330
38E
330
38F
330
390
330
391
330
392
330
393
330
394
330
395
330
396
330
397
330
398
330
399
330
39A
330
39B
330
39C
330
39D
330
39E
330
39F
330
3A0
330
3A1
330
3A2
330
3A3
330
3A4
330
3A5
330
3A6
330
3A7
330
3A8
330
3A9
330
3AA
 75
0
 76
1
 98
1
 10
0.0
 20
0.0
  0
LINE
  5
3AC
100
AcDbEntity
  8
0
100
AcDbLine
 62
7
  6
CONTINUOUS
 10
21.05
 20
2.67
 11
14.7
 21
2.67
  0
LINE
  5
3AD
100
AcDbEntity
  8
0
100
AcDbLine
 62
7
  6
CONTINUOUS
 10
6.007
 20
0.75
 11
6.007
 21
0.5
  0
LINE
  5
3AE
100
AcDbEntity
  8
0
100
AcDbLine
 62
7
  6
CONTINUOUS
 10
6.007
 20
15.75
 11
6.007
 21
16.0
  0
LINE
  5
3AF
100
AcDbEntity
  8
0
100
AcDbLine
 62
7
  6
CONTINUOUS
 10
0.814
 20
8.163397
 11
0.964
 21
8.25
  0
LINE
  5
3B0
100
AcDbEntity
  8
0
100
AcDbLine
 62
7
  6
CONTINUOUS
 10
0.964
 20
8.25
 11
0.814
 21
8.336603
  0
LINE
  5
3B1
100
AcDbEntity
  8
0
100
AcDbLine
 62
7
  6
CONTINUOUS
 10
0.964
 20
4.4
 11
0.714
 21
4.4
  0
LINE
  5
3B2
100
AcDbEntity
  8
0
100
AcDbLine
 62
7
  6
CONTINUOUS
 10
21.05
 20
4.4
 11
21.3
 21
4.4
  0
LINE
  5
3B3
100
AcDbEntity
  8
0
100
AcDbLine
 62
7
  6
CONTINUOUS
 10
11.093603
 20
0.6
 11
11.007
 21
0.75
  0
LINE
  5
3B4
100
AcDbEntity
  8
0
100
AcDbLine
 62
7
  6
CONTINUOUS
 10
11.007
 20
15.75
 11
11.093603
 21
15.9
  0
LINE
  5
3B5
100
AcDbEntity
  8
0
100
AcDbLine
 62
7
  6
CONTINUOUS
 10
8.507
 20
0.75
 11
8.507
 21
0.5
  0
LINE
  5
3B6
100
AcDbEntity
  8
0
100
AcDbLine
 62
7
  6
CONTINUOUS
 10
8.507
 20
15.75
 11
8.507
 21
16.0
  0
LINE
  5
3B7
100
AcDbEntity
  8
0
100
AcDbLine
 62
7
  6
CONTINUOUS
 10
11.007
 20
0.75
 11
11.007
 21
0.5
  0
LINE
  5
3B8
100
AcDbEntity
  8
0
100
AcDbLine
 62
7
  6
CONTINUOUS
 10
11.007
 20
15.75
 11
11.007
 21
16.0
  0
LINE
  5
3B9
100
AcDbEntity
  8
0
100
AcDbLine
 62
7
  6
CONTINUOUS
 10
0.964
 20
8.25
 11
0.714
 21
8.25
  0
LINE
  5
3BA
100
AcDbEntity
  8
0
100
AcDbLine
 62
7
  6
CONTINUOUS
 10
21.05
 20
8.25
 11
21.3
 21
8.25
  0
LINE
  5
3BB
100
AcDbEntity
  8
0
100
AcDbLine
 62
7
  6
CONTINUOUS
 10
13.507
 20
0.75
 11
13.507
 21
0.5
  0
LINE
  5
3BC
100
AcDbEntity
  8
0
100
AcDbLine
 62
7
  6
CONTINUOUS
 10
13.507
 20
15.75
 11
13.507
 21
16.0
  0
LINE
  5
3BD
100
AcDbEntity
  8
0
100
AcDbLine
 62
7
  6
CONTINUOUS
 10
14.7
 20
2.67
 11
14.7
 21
0.75
  0
LINE
  5
3BE
100
AcDbEntity
  8
0
100
AcDbLine
 62
7
  6
CONTINUOUS
 10
11.007
 20
0.75
 11
10.920397
 21
0.6
  0
LINE
  5
3BF
100
AcDbEntity
  8
0
100
AcDbLine
 62
7
  6
CONTINUOUS
 10
0.964
 20
12.1
 11
0.714
 21
12.1
  0
LINE
  5
3C0
100
AcDbEntity
  8
0
100
AcDbLine
 62
7
  6
CONTINUOUS
 10
21.05
 20
12.1
 11
21.3
 21
12.1
  0
LINE
  5
3C1
100
AcDbEntity
  8
0
100
AcDbLine
 62
7
  6
CONTINUOUS
 10
10.920397
 20
15.9
 11
11.007
 21
15.75
  0
LINE
  5
3C2
100
AcDbEntity
  8
0
100
AcDbLine
 62
7
  6
CONTINUOUS
 10
15.2229827477
 20
1.0139932523
 11
15.2229827477
 21
0.7919022523
  0
LINE
  5
3C3
100
AcDbEntity
  8
0
100
AcDbLine
 62
7
  6
CONTINUOUS
 10
15.2229827477
 20
1.0639932523
 11
15.2229827477
 21
1.1639932523
  0
LINE
  5
3C4
100
AcDbEntity
  8
0
100
AcDbLine
 62
7
  6
CONTINUOUS
 10
15.2229827477
 20
1.2139932523
 11
15.2229827477
 21
1.4360842523
  0
LINE
  5
3C5
100
AcDbEntity
  8
0
100
AcDbLine
 62
7
  6
CONTINUOUS
 10
15.8276527477
 20
0.9312952523
 11
15.8276527477
 21
1.2966912523
  0
LINE
  5
3C6
100
AcDbEntity
  8
0
100
AcDbLine
 62
7
  6
CONTINUOUS
 10
16.007
 20
0.75
 11
16.007
 21
0.5
  0
LINE
  5
3C7
100
AcDbEntity
  8
0
100
AcDbLine
 62
7
  6
CONTINUOUS
 10
16.007
 20
15.75
 11
16.007
 21
16.0
  0
LINE
  5
3C8
100
AcDbEntity
  8
0
100
AcDbLine
 62
7
  6
CONTINUOUS
 10
16.4340437477
 20
1.3660842523
 11
16.4340437477
 21
0.8619022523
  0
LINE
  5
3C9
100
AcDbEntity
  8
0
100
AcDbLine
 62
7
  6
CONTINUOUS
 10
21.2
 20
8.336603
 11
21.05
 21
8.25
  0
LINE
  5
3CA
100
AcDbEntity
  8
0
100
AcDbLine
 62
7
  6
CONTINUOUS
 10
21.05
 20
8.25
 11
21.2
 21
8.163397
  0
LINE
  5
3CB
100
AcDbEntity
  8
0
100
AcDbLine
 62
7
  6
CONTINUOUS
 10
16.7
 20
2.67
 11
16.7
 21
0.75
  0
LINE
  5
3CC
100
AcDbEntity
  8
0
100
AcDbLine
 62
7
  6
CONTINUOUS
 10
17.5
 20
1.37
 11
17.5
 21
1.0
  0
LINE
  5
3CD
100
AcDbEntity
  8
0
100
AcDbLine
 62
7
  6
CONTINUOUS
 10
18.507
 20
0.75
 11
18.507
 21
0.5
  0
LINE
  5
3CE
100
AcDbEntity
  8
0
100
AcDbLine
 62
7
  6
CONTINUOUS
 10
18.507
 20
15.75
 11
18.507
 21
16.0
  0
LINE
  5
3CF
100
AcDbEntity
  8
0
100
AcDbLine
 62
7
  6
CONTINUOUS
 10
21.05
 20
15.75
 11
0.964
 21
15.75
  0
LINE
  5
3D0
100
AcDbEntity
  8
0
100
AcDbLine
 62
7
  6
CONTINUOUS
 10
11.093603
 20
15.9
 11
10.920397
 21
15.9
  0
LINE
  5
3D1
100
AcDbEntity
  8
0
100
AcDbLine
 62
7
  6
CONTINUOUS
 10
18.875
 20
1.0
 11
18.875
 21
0.75
  0
LINE
  5
3D2
100
AcDbEntity
  8
0
100
AcDbLine
 62
7
  6
CONTINUOUS
 10
20.25
 20
1.37
 11
20.25
 21
1.0
  0
LINE
  5
3D3
100
AcDbEntity
  8
0
100
AcDbLine
 62
7
  6
CONTINUOUS
 10
21.05
 20
0.75
 11
21.05
 21
15.75
  0
LINE
  5
3D4
100
AcDbEntity
  8
0
100
AcDbLine
 62
7
  6
CONTINUOUS
 10
21.2
 20
8.163397
 11
21.2
 21
8.336603
  0
LINE
  5
3D5
100
AcDbEntity
  8
02___PRT_ALL_AXES
100
AcDbLine
 62
7
  6
CONTINUOUS
 10
7.7693589168
 20
5.6502403682
 11
7.5543589168
 21
5.6502403682
  0
LWPOLYLINE
  5
3D6
100
AcDbEntity
  8
0
100
AcDbPolyline
 62
7
  6
CONTINUOUS
 90
4
 70
0
 10
7.7447934618
 20
7.196483585
 10
7.7921815913
 20
7.2025579964
 10
7.839756373
 20
7.210836225
 10
7.8878428258
 20
7.2212649656
  0
LWPOLYLINE
  5
3D7
100
AcDbEntity
  8
0
100
AcDbPolyline
 62
7
  6
CONTINUOUS
 90
4
 70
0
 10
7.7447934618
 20
7.196483585
 10
7.7602880052
 20
7.1978780004
 10
7.7757022378
 20
7.1988219877
 10
7.790868209
 20
7.1993112676
  0
LWPOLYLINE
  5
3D8
100
AcDbEntity
  8
0
100
AcDbPolyline
 62
7
  6
CONTINUOUS
 90
7
 70
0
 10
8.0199875756
 20
7.2037381673
 10
8.081094182
 20
7.205213831
 10
8.1318881638
 20
7.2066895069
 10
8.1711202534
 20
7.2081652188
 10
8.1978242838
 20
7.2096409567
 10
8.2113424408
 20
7.2111166849
 10
8.2127997665
 20
7.2115770208
  0
LWPOLYLINE
  5
3D9
100
AcDbEntity
  8
0
100
AcDbPolyline
 62
7
  6
CONTINUOUS
 90
7
 70
0
 10
7.3166328962
 20
7.2391240311
 10
7.2516536504
 20
7.2375963968
 10
7.197487053
 20
7.2360687654
 10
7.1555600017
 20
7.2345411022
 10
7.1269784777
 20
7.2330134069
 10
7.1124969699
 20
7.2314857191
 10
7.1109180671
 20
7.2309994041
  0
LWPOLYLINE
  5
3DA
100
AcDbEntity
  8
0
100
AcDbPolyline
 62
7
  6
CONTINUOUS
 90
4
 70
0
 10
7.790868209
 20
7.1993112676
 10
7.8730662093
 20
7.2007868647
 10
7.950071152
 20
7.2022625033
 10
8.0199875756
 20
7.2037381673
  0
LWPOLYLINE
  5
3DB
100
AcDbEntity
  8
0
100
AcDbPolyline
 62
7
  6
CONTINUOUS
 90
9
 70
0
 10
7.8878428258
 20
7.2212649656
 10
7.9695606533
 20
7.2227378815
 10
8.043737263
 20
7.2242107973
 10
8.1085547191
 20
7.2256837132
 10
8.1624244621
 20
7.227156629
 10
8.2040262411
 20
7.2286295448
 10
8.2323404711
 20
7.2301024607
 10
8.2466732211
 20
7.2315753765
 10
8.248247332
 20
7.2320510679
  0
LWPOLYLINE
  5
3DC
100
AcDbEntity
  8
0
100
AcDbPolyline
 62
7
  6
CONTINUOUS
 90
9
 70
0
 10
7.8878428258
 20
7.2287452806
 10
7.9695606533
 20
7.2302181964
 10
8.043737263
 20
7.2316911123
 10
8.1085547191
 20
7.2331640281
 10
8.1624244621
 20
7.234636944
 10
8.2040262411
 20
7.2361098598
 10
8.2323404711
 20
7.2375827757
 10
8.2466732211
 20
7.2390556915
 10
8.24847309
 20
7.2397921494
  0
LINE
  5
3DD
100
AcDbEntity
  8
0
100
AcDbLine
 62
7
  6
CONTINUOUS
 10
7.8517844323
 20
7.248792111
 11
7.7655562962
 21
7.2472645446
  0
LWPOLYLINE
  5
3DE
100
AcDbEntity
  8
0
100
AcDbPolyline
 62
7
  6
CONTINUOUS
 90
4
 70
0
 10
7.5581615373
 20
7.2437067812
 10
7.4719356653
 20
7.2421792559
 10
7.3907119363
 20
7.2406516658
 10
7.3166328962
 20
7.2391240311
  0
LWPOLYLINE
  5
3DF
100
AcDbEntity
  8
0
100
AcDbPolyline
 62
7
  6
CONTINUOUS
 90
10
 70
0
 10
7.7655562962
 20
7.2579247617
 10
7.8517829441
 20
7.2594523011
 10
7.9330064589
 20
7.2609798882
 10
8.0070848322
 20
7.2625075095
 10
8.072063621
 20
7.2640351318
 10
8.1262303258
 20
7.2655627631
 10
8.1681576337
 20
7.2670904322
 10
8.1967392897
 20
7.2686181314
 10
8.2112208559
 20
7.2701458223
 10
8.2127997665
 20
7.2706321389
  0
LINE
  5
3E0
100
AcDbEntity
  8
0
100
AcDbLine
 62
7
  6
CONTINUOUS
 10
7.4719348627
 20
7.2528394585
 11
7.5581615373
 21
7.2543669984
  0
LWPOLYLINE
  5
3E1
100
AcDbEntity
  8
0
100
AcDbPolyline
 62
7
  6
CONTINUOUS
 90
4
 70
0
 10
7.5328496245
 20
7.1948702562
 10
7.5480178638
 20
7.1949084116
 10
7.5634360679
 20
7.1944930188
 10
7.5789243718
 20
7.1936259258
  0
LINE
  5
3E2
100
AcDbEntity
  8
0
100
AcDbLine
 62
7
  6
CONTINUOUS
 10
8.1815439561
 20
7.1281931241
 11
7.1421738774
 21
7.1281931241
  0
LINE
  5
3E3
100
AcDbEntity
  8
0
100
AcDbLine
 62
7
  6
CONTINUOUS
 10
8.2130400191
 20
7.1596891871
 11
7.1106778144
 21
7.1596891871
  0
LWPOLYLINE
  5
3E4
100
AcDbEntity
  8
0
100
AcDbPolyline
 62
7
  6
CONTINUOUS
 90
4
 70
0
 10
7.5581615373
 20
7.2543669984
 10
7.517632395
 20
7.2589184113
 10
7.4768486884
 20
7.2651169845
 10
7.4358750078
 20
7.2728862624
  0
LWPOLYLINE
  5
3E5
100
AcDbEntity
  8
0
100
AcDbPolyline
 62
7
  6
CONTINUOUS
 90
4
 70
0
 10
7.4358750078
 20
7.2138311442
 10
7.4839616773
 20
7.2048677437
 10
7.531536761
 20
7.1981170232
 10
7.5789243718
 20
7.1936259258
  0
LWPOLYLINE
  5
3E6
100
AcDbEntity
  8
0
100
AcDbPolyline
 62
7
  6
CONTINUOUS
 90
4
 70
0
 10
7.8878428258
 20
7.2803200837
 10
7.8468667695
 20
7.2713069893
 10
7.8060862577
 20
7.2638130764
 10
7.7655562962
 20
7.2579247617
  0
LWPOLYLINE
  5
3E7
100
AcDbEntity
  8
0
100
AcDbPolyline
 62
7
  6
CONTINUOUS
 90
4
 70
0
 10
7.4358750078
 20
7.2213114592
 10
7.4768445385
 20
7.2303232337
 10
7.517624504
 20
7.2378173007
 10
7.5581615373
 20
7.2437067812
  0
LWPOLYLINE
  5
3E8
100
AcDbEntity
  8
0
100
AcDbPolyline
 62
7
  6
CONTINUOUS
 90
4
 70
0
 10
7.8878428258
 20
7.3393752018
 10
7.8468667695
 20
7.3303621074
 10
7.8060862577
 20
7.3228681945
 10
7.7655562962
 20
7.3169798798
  0
LWPOLYLINE
  5
3E9
100
AcDbEntity
  8
0
100
AcDbPolyline
 62
7
  6
CONTINUOUS
 90
4
 70
0
 10
7.4358750078
 20
7.2803665773
 10
7.4768445385
 20
7.2893783519
 10
7.517624504
 20
7.2968724188
 10
7.5581615373
 20
7.3027618994
  0
LWPOLYLINE
  5
3EA
100
AcDbEntity
  8
0
100
AcDbPolyline
 62
7
  6
CONTINUOUS
 90
4
 70
0
 10
7.8878428258
 20
7.39843032
 10
7.8468667695
 20
7.3894172255
 10
7.8060862577
 20
7.3819233127
 10
7.7655562962
 20
7.3760349979
  0
LWPOLYLINE
  5
3EB
100
AcDbEntity
  8
0
100
AcDbPolyline
 62
7
  6
CONTINUOUS
 90
4
 70
0
 10
7.4358750078
 20
7.3394216954
 10
7.4768445385
 20
7.34843347
 10
7.517624504
 20
7.3559275369
 10
7.5581615373
 20
7.3618170175
  0
LWPOLYLINE
  5
3EC
100
AcDbEntity
  8
0
100
AcDbPolyline
 62
7
  6
CONTINUOUS
 90
4
 70
0
 10
7.8878428258
 20
7.4574854381
 10
7.8468667695
 20
7.4484723436
 10
7.8060862577
 20
7.4409784308
 10
7.7655562962
 20
7.435090116
  0
LWPOLYLINE
  5
3ED
100
AcDbEntity
  8
0
100
AcDbPolyline
 62
7
  6
CONTINUOUS
 90
4
 70
0
 10
7.4358750078
 20
7.3984768135
 10
7.4768445385
 20
7.4074885881
 10
7.517624504
 20
7.414982655
 10
7.5581615373
 20
7.4208721356
  0
LWPOLYLINE
  5
3EE
100
AcDbEntity
  8
0
100
AcDbPolyline
 62
7
  6
CONTINUOUS
 90
4
 70
0
 10
7.8878428258
 20
7.5165405562
 10
7.8468667695
 20
7.5075274618
 10
7.8060862577
 20
7.5000335489
 10
7.7655562962
 20
7.4941452341
  0
LWPOLYLINE
  5
3EF
100
AcDbEntity
  8
0
100
AcDbPolyline
 62
7
  6
CONTINUOUS
 90
4
 70
0
 10
7.4358750078
 20
7.4575319316
 10
7.4768445385
 20
7.4665437062
 10
7.517624504
 20
7.4740377731
 10
7.5581615373
 20
7.4799272537
  0
LWPOLYLINE
  5
3F0
100
AcDbEntity
  8
0
100
AcDbPolyline
 62
7
  6
CONTINUOUS
 90
4
 70
0
 10
7.8878428258
 20
7.5755956743
 10
7.8468667695
 20
7.5665825799
 10
7.8060862577
 20
7.559088667
 10
7.7655562962
 20
7.5532003522
  0
LWPOLYLINE
  5
3F1
100
AcDbEntity
  8
0
100
AcDbPolyline
 62
7
  6
CONTINUOUS
 90
6
 70
0
 10
8.072063594
 20
7.5593107216
 10
8.1262302818
 20
7.5608383523
 10
8.1681575929
 20
7.5623660209
 10
8.1967392691
 20
7.5638937205
 10
8.2112208533
 20
7.5654214123
 10
8.2127997665
 20
7.5659077294
  0
LWPOLYLINE
  5
3F2
100
AcDbEntity
  8
0
100
AcDbPolyline
 62
7
  6
CONTINUOUS
 90
4
 70
0
 10
7.2516541643
 20
7.3073117452
 10
7.3166329291
 20
7.3088393671
 10
7.3907112555
 20
7.3103669877
 10
7.4719347821
 20
7.3118945751
  0
LINE
  5
3F3
100
AcDbEntity
  8
0
100
AcDbLine
 62
7
  6
CONTINUOUS
 10
7.2516541824
 20
7.4844771
 11
7.3166329548
 21
7.486004722
  0
LWPOLYLINE
  5
3F4
100
AcDbEntity
  8
0
100
AcDbPolyline
 62
7
  6
CONTINUOUS
 90
3
 70
0
 10
7.2151631144
 20
7.5637431054
 10
7.2799805706
 20
7.5652160212
 10
7.3541571802
 20
7.5666889371
  0
LWPOLYLINE
  5
3F5
100
AcDbEntity
  8
0
100
AcDbPolyline
 62
7
  6
CONTINUOUS
 90
3
 70
0
 10
8.0070855102
 20
7.3699575435
 10
7.9330059469
 20
7.3684298972
 10
7.8517821795
 20
7.3669023063
  0
LWPOLYLINE
  5
3F6
100
AcDbEntity
  8
0
100
AcDbPolyline
 62
7
  6
CONTINUOUS
 90
3
 70
0
 10
7.3166328188
 20
7.3678944828
 10
7.3907112064
 20
7.3694221048
 10
7.4719345289
 20
7.3709496886
  0
LWPOLYLINE
  5
3F7
100
AcDbEntity
  8
0
100
AcDbPolyline
 62
7
  6
CONTINUOUS
 90
3
 70
0
 10
8.0070854896
 20
7.4290126611
 10
7.9330071392
 20
7.4274850387
 10
7.8517836261
 20
7.4259574507
  0
LWPOLYLINE
  5
3F8
100
AcDbEntity
  8
0
100
AcDbPolyline
 62
7
  6
CONTINUOUS
 90
3
 70
0
 10
7.3166330089
 20
7.426949605
 10
7.3907113875
 20
7.4284772265
 10
7.4719349036
 20
7.4300048136
  0
LINE
  5
3F9
100
AcDbEntity
  8
0
100
AcDbLine
 62
7
  6
CONTINUOUS
 10
8.0070856714
 20
7.4880677832
 11
7.9330077558
 21
7.4865401689
  0
LWPOLYLINE
  5
3FA
100
AcDbEntity
  8
0
100
AcDbPolyline
 62
7
  6
CONTINUOUS
 90
3
 70
0
 10
7.3166329548
 20
7.486004722
 10
7.3907112988
 20
7.4875323429
 10
7.4719348222
 20
7.4890599302
  0
LWPOLYLINE
  5
3FB
100
AcDbEntity
  8
0
100
AcDbPolyline
 62
7
  6
CONTINUOUS
 90
3
 70
0
 10
7.9330063475
 20
7.5562554766
 10
8.0070847772
 20
7.5577830989
 10
8.072063594
 20
7.5593107216
  0
LWPOLYLINE
  5
3FC
100
AcDbEntity
  8
0
100
AcDbPolyline
 62
7
  6
CONTINUOUS
 90
3
 70
0
 10
8.007084935
 20
7.6061780033
 10
7.9330058616
 20
7.604650368
 10
7.8517821342
 20
7.6031227779
  0
LWPOLYLINE
  5
3FD
100
AcDbEntity
  8
0
100
AcDbPolyline
 62
7
  6
CONTINUOUS
 90
8
 70
0
 10
7.9695606533
 20
7.3408481177
 10
8.043737263
 20
7.3423210335
 10
8.1085547191
 20
7.3437939494
 10
8.1624244621
 20
7.3452668652
 10
8.2040262411
 20
7.3467397811
 10
8.2323404711
 20
7.3482126969
 10
8.2466732211
 20
7.3496856128
 10
8.248247332
 20
7.3501613041
  0
LINE
  5
3FE
100
AcDbEntity
  8
0
100
AcDbLine
 62
7
  6
CONTINUOUS
 10
7.2799805706
 20
7.447105785
 11
7.3541571802
 21
7.4485787008
  0
LINE
  5
3FF
100
AcDbEntity
  8
0
100
AcDbLine
 62
7
  6
CONTINUOUS
 10
7.9330077558
 20
7.4865401689
 11
7.851784813
 21
7.4850125904
  0
LINE
  5
400
100
AcDbEntity
  8
0
100
AcDbLine
 62
7
  6
CONTINUOUS
 10
7.8517828352
 20
7.5547278897
 11
7.9330063475
 21
7.5562554766
  0
LWPOLYLINE
  5
401
100
AcDbEntity
  8
0
100
AcDbPolyline
 62
7
  6
CONTINUOUS
 90
9
 70
0
 10
7.4719333734
 20
7.596509923
 10
7.3907099174
 20
7.5949823349
 10
7.3166321299
 20
7.593454723
 10
7.2516532392
 20
7.591927095
 10
7.1974861711
 20
7.5903994461
 10
7.155559263
 20
7.588871779
 10
7.1269782252
 20
7.5873440977
 10
7.1124969634
 20
7.5858164263
 10
7.1109180671
 20
7.5853301127
  0
LWPOLYLINE
  5
402
100
AcDbEntity
  8
0
100
AcDbPolyline
 62
7
  6
CONTINUOUS
 90
9
 70
0
 10
7.8878428258
 20
7.2803200837
 10
7.9695606533
 20
7.2817929996
 10
8.043737263
 20
7.2832659154
 10
8.1085547191
 20
7.2847388313
 10
8.1624244621
 20
7.2862117471
 10
8.2040262411
 20
7.287684663
 10
8.2323404711
 20
7.2891575788
 10
8.2466732211
 20
7.2906304946
 10
8.248247332
 20
7.291106186
  0
LWPOLYLINE
  5
403
100
AcDbEntity
  8
0
100
AcDbPolyline
 62
7
  6
CONTINUOUS
 90
9
 70
0
 10
7.8878428258
 20
7.2878003987
 10
7.9695606533
 20
7.2892733145
 10
8.043737263
 20
7.2907462304
 10
8.1085547191
 20
7.2922191462
 10
8.1624244621
 20
7.2936920621
 10
8.2040262411
 20
7.2951649779
 10
8.2323404711
 20
7.2966378938
 10
8.2466732211
 20
7.2981108096
 10
8.24847309
 20
7.2988472675
  0
LINE
  5
404
100
AcDbEntity
  8
0
100
AcDbLine
 62
7
  6
CONTINUOUS
 10
7.8878428258
 20
7.3393752018
 11
7.9695606533
 21
7.3408481177
  0
LINE
  5
405
100
AcDbEntity
  8
0
100
AcDbLine
 62
7
  6
CONTINUOUS
 10
7.3541571802
 20
7.3304684646
 11
7.4358750078
 21
7.3319413805
  0
LWPOLYLINE
  5
406
100
AcDbEntity
  8
0
100
AcDbPolyline
 62
7
  6
CONTINUOUS
 90
9
 70
0
 10
7.8878428258
 20
7.3468555168
 10
7.9695606533
 20
7.3483284327
 10
8.043737263
 20
7.3498013485
 10
8.1085547191
 20
7.3512742643
 10
8.1624244621
 20
7.3527471802
 10
8.2040262411
 20
7.354220096
 10
8.2323404711
 20
7.3556930119
 10
8.2466732211
 20
7.3571659277
 10
8.24847309
 20
7.3579023856
  0
LWPOLYLINE
  5
407
100
AcDbEntity
  8
0
100
AcDbPolyline
 62
7
  6
CONTINUOUS
 90
9
 70
0
 10
7.8878428258
 20
7.39843032
 10
7.9695606533
 20
7.3999032358
 10
8.043737263
 20
7.4013761516
 10
8.1085547191
 20
7.4028490675
 10
8.1624244621
 20
7.4043219833
 10
8.2040262411
 20
7.4057948992
 10
8.2323404711
 20
7.407267815
 10
8.2466732211
 20
7.4087407309
 10
8.248247332
 20
7.4092164222
  0
LINE
  5
408
100
AcDbEntity
  8
0
100
AcDbLine
 62
7
  6
CONTINUOUS
 10
7.3541571802
 20
7.3895235827
 11
7.4358750078
 21
7.3909964986
  0
LWPOLYLINE
  5
409
100
AcDbEntity
  8
0
100
AcDbPolyline
 62
7
  6
CONTINUOUS
 90
9
 70
0
 10
7.8878428258
 20
7.4059106349
 10
7.9695606533
 20
7.4073835508
 10
8.043737263
 20
7.4088564666
 10
8.1085547191
 20
7.4103293825
 10
8.1624244621
 20
7.4118022983
 10
8.2040262411
 20
7.4132752141
 10
8.2323404711
 20
7.41474813
 10
8.2466732211
 20
7.4162210458
 10
8.24847309
 20
7.4169575038
  0
LWPOLYLINE
  5
40A
100
AcDbEntity
  8
0
100
AcDbPolyline
 62
7
  6
CONTINUOUS
 90
9
 70
0
 10
7.8878428258
 20
7.4574854381
 10
7.9695606533
 20
7.4589583539
 10
8.043737263
 20
7.4604312698
 10
8.1085547191
 20
7.4619041856
 10
8.1624244621
 20
7.4633771014
 10
8.2040262411
 20
7.4648500173
 10
8.2323404711
 20
7.4663229331
 10
8.2466732211
 20
7.467795849
 10
8.248247332
 20
7.4682715403
  0
LINE
  5
40B
100
AcDbEntity
  8
0
100
AcDbLine
 62
7
  6
CONTINUOUS
 10
7.3541571802
 20
7.4485787008
 11
7.4358750078
 21
7.4500516167
  0
LWPOLYLINE
  5
40C
100
AcDbEntity
  8
0
100
AcDbPolyline
 62
7
  6
CONTINUOUS
 90
9
 70
0
 10
7.8878428258
 20
7.464965753
 10
7.9695606533
 20
7.4664386689
 10
8.043737263
 20
7.4679115847
 10
8.1085547191
 20
7.4693845006
 10
8.1624244621
 20
7.4708574164
 10
8.2040262411
 20
7.4723303323
 10
8.2323404711
 20
7.4738032481
 10
8.2466732211
 20
7.4752761639
 10
8.24847309
 20
7.4760126219
  0
LWPOLYLINE
  5
40D
100
AcDbEntity
  8
0
100
AcDbPolyline
 62
7
  6
CONTINUOUS
 90
9
 70
0
 10
7.8878428258
 20
7.5165405562
 10
7.9695606533
 20
7.518013472
 10
8.043737263
 20
7.5194863879
 10
8.1085547191
 20
7.5209593037
 10
8.1624244621
 20
7.5224322196
 10
8.2040262411
 20
7.5239051354
 10
8.2323404711
 20
7.5253780512
 10
8.2466732211
 20
7.5268509671
 10
8.248247332
 20
7.5273266584
  0
LWPOLYLINE
  5
40E
100
AcDbEntity
  8
0
100
AcDbPolyline
 62
7
  6
CONTINUOUS
 90
9
 70
0
 10
7.8878428258
 20
7.5240208711
 10
7.9695606533
 20
7.525493787
 10
8.043737263
 20
7.5269667028
 10
8.1085547191
 20
7.5284396187
 10
8.1624244621
 20
7.5299125345
 10
8.2040262411
 20
7.5313854504
 10
8.2323404711
 20
7.5328583662
 10
8.2466732211
 20
7.5343312821
 10
8.24847309
 20
7.53506774
  0
LWPOLYLINE
  5
40F
100
AcDbEntity
  8
0
100
AcDbPolyline
 62
7
  6
CONTINUOUS
 90
9
 70
0
 10
7.8878428258
 20
7.5755956743
 10
7.9695606533
 20
7.5770685901
 10
8.043737263
 20
7.578541506
 10
8.1085547191
 20
7.5800144218
 10
8.1624244621
 20
7.5814873377
 10
8.2040262411
 20
7.5829602535
 10
8.2323404711
 20
7.5844331694
 10
8.2466732211
 20
7.5859060852
 10
8.248247332
 20
7.5863817765
  0
LINE
  5
410
100
AcDbEntity
  8
0
100
AcDbLine
 62
7
  6
CONTINUOUS
 10
7.3541571802
 20
7.5666889371
 11
7.4358750078
 21
7.5681618529
  0
LWPOLYLINE
  5
411
100
AcDbEntity
  8
0
100
AcDbPolyline
 62
7
  6
CONTINUOUS
 90
9
 70
0
 10
7.8878428258
 20
7.5830759892
 10
7.9695606533
 20
7.5845489051
 10
8.043737263
 20
7.5860218209
 10
8.1085547191
 20
7.5874947368
 10
8.1624244621
 20
7.5889676526
 10
8.2040262411
 20
7.5904405685
 10
8.2323404711
 20
7.5919134843
 10
8.2466732211
 20
7.5933864002
 10
8.24847309
 20
7.5941228581
  0
LINE
  5
412
100
AcDbEntity
  8
0
100
AcDbLine
 62
7
  6
CONTINUOUS
 10
7.8517844687
 20
7.3078472298
 11
7.7655562962
 21
7.3063196627
  0
LWPOLYLINE
  5
413
100
AcDbEntity
  8
0
100
AcDbPolyline
 62
7
  6
CONTINUOUS
 90
10
 70
0
 10
7.5581615373
 20
7.3027618994
 10
7.4719341445
 20
7.3012343464
 10
7.3907103343
 20
7.2997067525
 10
7.3166308373
 20
7.2981791042
 10
7.2516510527
 20
7.2966514486
 10
7.1974848018
 20
7.2951238122
 10
7.1555589807
 20
7.2935961763
 10
7.1269782649
 20
7.29206851
 10
7.1124969575
 20
7.2905408346
 10
7.1109180671
 20
7.2900545222
  0
LWPOLYLINE
  5
414
100
AcDbEntity
  8
0
100
AcDbPolyline
 62
7
  6
CONTINUOUS
 90
10
 70
0
 10
7.7655562962
 20
7.3169798798
 10
7.8517828613
 20
7.3185074177
 10
7.933006368
 20
7.3200350045
 10
8.0070847753
 20
7.3215626264
 10
8.0720635816
 20
7.3230902489
 10
8.1262302771
 20
7.3246178797
 10
8.168157593
 20
7.3261455485
 10
8.1967392699
 20
7.3276732481
 10
8.2112208534
 20
7.3292009398
 10
8.2127997665
 20
7.329687257
  0
LINE
  5
415
100
AcDbEntity
  8
0
100
AcDbLine
 62
7
  6
CONTINUOUS
 10
7.4719347821
 20
7.3118945751
 11
7.5581615373
 21
7.3134221165
  0
LINE
  5
416
100
AcDbEntity
  8
0
100
AcDbLine
 62
7
  6
CONTINUOUS
 10
7.8517821795
 20
7.3669023063
 11
7.7655562962
 21
7.3653747808
  0
LWPOLYLINE
  5
417
100
AcDbEntity
  8
0
100
AcDbPolyline
 62
7
  6
CONTINUOUS
 90
10
 70
0
 10
7.5581615373
 20
7.3618170175
 10
7.4719330264
 20
7.3602894442
 10
7.3907100972
 20
7.358761866
 10
7.3166321584
 20
7.3572342512
 10
7.2516526072
 20
7.3557066064
 10
7.1974855666
 20
7.3541789546
 10
7.1555590117
 20
7.3526512957
 10
7.1269782401
 20
7.3511236263
 10
7.1124969766
 20
7.3495959567
 10
7.1109180671
 20
7.3491096403
  0
LWPOLYLINE
  5
418
100
AcDbEntity
  8
0
100
AcDbPolyline
 62
7
  6
CONTINUOUS
 90
10
 70
0
 10
7.7655562962
 20
7.3760349979
 10
7.8517832171
 20
7.3775625423
 10
7.9330065588
 20
7.3790901264
 10
8.0070849696
 20
7.3806177488
 10
8.0720636802
 20
7.3821453695
 10
8.1262303817
 20
7.3836730011
 10
8.1681577006
 20
7.3852006713
 10
8.1967393232
 20
7.3867283699
 10
8.2112208601
 20
7.3882560594
 10
8.2127997665
 20
7.3887423751
  0
LINE
  5
419
100
AcDbEntity
  8
0
100
AcDbLine
 62
7
  6
CONTINUOUS
 10
7.4719345289
 20
7.3709496886
 11
7.5581615373
 21
7.3724772346
  0
LINE
  5
41A
100
AcDbEntity
  8
0
100
AcDbLine
 62
7
  6
CONTINUOUS
 10
7.8517836261
 20
7.4259574507
 11
7.7655562962
 21
7.4244298989
  0
LWPOLYLINE
  5
41B
100
AcDbEntity
  8
0
100
AcDbPolyline
 62
7
  6
CONTINUOUS
 90
10
 70
0
 10
7.5581615373
 20
7.4208721356
 10
7.471934128
 20
7.4193445823
 10
7.3907106394
 20
7.4178169947
 10
7.316632313
 20
7.4162893727
 10
7.2516536905
 20
7.4147617522
 10
7.197486897
 20
7.4132341148
 10
7.1555597256
 20
7.4117064446
 10
7.1269783372
 20
7.4101787513
 10
7.1124969557
 20
7.4086510704
 10
7.1109180671
 20
7.4081647584
  0
LWPOLYLINE
  5
41C
100
AcDbEntity
  8
0
100
AcDbPolyline
 62
7
  6
CONTINUOUS
 90
10
 70
0
 10
7.7655562962
 20
7.435090116
 10
7.8517829849
 20
7.4366176562
 10
7.9330065034
 20
7.4381452434
 10
8.0070848594
 20
7.4396728645
 10
8.0720636399
 20
7.4412004866
 10
8.1262303501
 20
7.4427281182
 10
8.1681576538
 20
7.4442557874
 10
8.1967392993
 20
7.4457834864
 10
8.211220857
 20
7.4473111768
 10
8.2127997665
 20
7.4477974932
  0
LINE
  5
41D
100
AcDbEntity
  8
0
100
AcDbLine
 62
7
  6
CONTINUOUS
 10
7.4719349036
 20
7.4300048136
 11
7.5581615373
 21
7.4315323527
  0
LINE
  5
41E
100
AcDbEntity
  8
0
100
AcDbLine
 62
7
  6
CONTINUOUS
 10
7.851784813
 20
7.4850125904
 11
7.7655562962
 21
7.483485017
  0
LWPOLYLINE
  5
41F
100
AcDbEntity
  8
0
100
AcDbPolyline
 62
7
  6
CONTINUOUS
 90
10
 70
0
 10
7.5581615373
 20
7.4799272537
 10
7.47193571
 20
7.4783997292
 10
7.3907119428
 20
7.4768721383
 10
7.3166323867
 20
7.4753444924
 10
7.2516525142
 20
7.4738168402
 10
7.197485958
 20
7.4722892032
 10
7.1555595234
 20
7.470761554
 10
7.1269783392
 20
7.4692338696
 10
7.112496956
 20
7.4677061886
 10
7.1109180671
 20
7.4672198765
  0
LWPOLYLINE
  5
420
100
AcDbEntity
  8
0
100
AcDbPolyline
 62
7
  6
CONTINUOUS
 90
10
 70
0
 10
7.7655562962
 20
7.4941452341
 10
7.8517829029
 20
7.4956727728
 10
7.9330064138
 20
7.4972003597
 10
8.0070848042
 20
7.4987279814
 10
8.0720636015
 20
7.5002556037
 10
8.1262303015
 20
7.5017832348
 10
8.1681576134
 20
7.5033109037
 10
8.1967392798
 20
7.5048386031
 10
8.2112208547
 20
7.5063662944
 10
8.2127997665
 20
7.5068526113
  0
LINE
  5
421
100
AcDbEntity
  8
0
100
AcDbLine
 62
7
  6
CONTINUOUS
 10
7.4719348222
 20
7.4890599302
 11
7.5581615373
 21
7.4905874708
  0
LINE
  5
422
100
AcDbEntity
  8
0
100
AcDbLine
 62
7
  6
CONTINUOUS
 10
7.8517837048
 20
7.5440676883
 11
7.7655562962
 21
7.5425401351
  0
LWPOLYLINE
  5
423
100
AcDbEntity
  8
0
100
AcDbPolyline
 62
7
  6
CONTINUOUS
 90
10
 70
0
 10
7.5581615373
 20
7.5389823718
 10
7.4719334178
 20
7.5374548056
 10
7.390710414
 20
7.5359272265
 10
7.3166317441
 20
7.5343995964
 10
7.2516518612
 20
7.5328719417
 10
7.1974850991
 20
7.5313442941
 10
7.1555589657
 20
7.5298166481
 10
7.1269783082
 20
7.5282889855
 10
7.112496974
 20
7.5267613105
 10
7.1109180671
 20
7.5262749946
  0
LINE
  5
424
100
AcDbEntity
  8
0
100
AcDbLine
 62
7
  6
CONTINUOUS
 10
7.7655562962
 20
7.5532003522
 11
7.8517828352
 21
7.5547278897
  0
LINE
  5
425
100
AcDbEntity
  8
0
100
AcDbLine
 62
7
  6
CONTINUOUS
 10
7.4719347427
 20
7.5481150469
 11
7.5581615373
 21
7.5496425889
  0
LINE
  5
426
100
AcDbEntity
  8
0
100
AcDbLine
 62
7
  6
CONTINUOUS
 10
7.8517821342
 20
7.6031227779
 11
7.7655562962
 21
7.6015952532
  0
LINE
  5
427
100
AcDbEntity
  8
0
100
AcDbLine
 62
7
  6
CONTINUOUS
 10
7.5581615373
 20
7.5980374899
 11
7.4719333734
 21
7.596509923
  0
LWPOLYLINE
  5
428
100
AcDbEntity
  8
0
100
AcDbPolyline
 62
7
  6
CONTINUOUS
 90
4
 70
0
 10
7.7655562962
 20
7.2472645446
 10
7.8060928356
 20
7.242712152
 10
7.8468759302
 20
7.236513397
 10
7.8878428258
 20
7.2287452806
  0
LWPOLYLINE
  5
429
100
AcDbEntity
  8
0
100
AcDbPolyline
 62
7
  6
CONTINUOUS
 90
4
 70
0
 10
7.5581615373
 20
7.3134221165
 10
7.517632395
 20
7.3179735294
 10
7.4768486884
 20
7.3241721026
 10
7.4358750078
 20
7.3319413805
  0
LWPOLYLINE
  5
42A
100
AcDbEntity
  8
0
100
AcDbPolyline
 62
7
  6
CONTINUOUS
 90
4
 70
0
 10
7.7655562962
 20
7.3063196627
 10
7.8060928356
 20
7.3017672702
 10
7.8468759302
 20
7.2955685151
 10
7.8878428258
 20
7.2878003987
  0
LWPOLYLINE
  5
42B
100
AcDbEntity
  8
0
100
AcDbPolyline
 62
7
  6
CONTINUOUS
 90
4
 70
0
 10
7.5581615373
 20
7.3724772346
 10
7.517632395
 20
7.3770286475
 10
7.4768486884
 20
7.3832272208
 10
7.4358750078
 20
7.3909964986
  0
LWPOLYLINE
  5
42C
100
AcDbEntity
  8
0
100
AcDbPolyline
 62
7
  6
CONTINUOUS
 90
4
 70
0
 10
7.7655562962
 20
7.3653747808
 10
7.8060928356
 20
7.3608223883
 10
7.8468759302
 20
7.3546236332
 10
7.8878428258
 20
7.3468555168
  0
LWPOLYLINE
  5
42D
100
AcDbEntity
  8
0
100
AcDbPolyline
 62
7
  6
CONTINUOUS
 90
4
 70
0
 10
7.5581615373
 20
7.4315323527
 10
7.517632395
 20
7.4360837657
 10
7.4768486884
 20
7.4422823389
 10
7.4358750078
 20
7.4500516167
  0
LWPOLYLINE
  5
42E
100
AcDbEntity
  8
0
100
AcDbPolyline
 62
7
  6
CONTINUOUS
 90
4
 70
0
 10
7.7655562962
 20
7.4244298989
 10
7.8060928356
 20
7.4198775064
 10
7.8468759302
 20
7.4136787513
 10
7.8878428258
 20
7.4059106349
  0
LWPOLYLINE
  5
42F
100
AcDbEntity
  8
0
100
AcDbPolyline
 62
7
  6
CONTINUOUS
 90
4
 70
0
 10
7.5581615373
 20
7.4905874708
 10
7.517632395
 20
7.4951388838
 10
7.4768486884
 20
7.501337457
 10
7.4358750078
 20
7.5091067348
  0
LWPOLYLINE
  5
430
100
AcDbEntity
  8
0
100
AcDbPolyline
 62
7
  6
CONTINUOUS
 90
4
 70
0
 10
7.7655562962
 20
7.483485017
 10
7.8060928356
 20
7.4789326245
 10
7.8468759302
 20
7.4727338694
 10
7.8878428258
 20
7.464965753
  0
LWPOLYLINE
  5
431
100
AcDbEntity
  8
0
100
AcDbPolyline
 62
7
  6
CONTINUOUS
 90
4
 70
0
 10
7.5581615373
 20
7.5496425889
 10
7.517632395
 20
7.5541940019
 10
7.4768486884
 20
7.5603925751
 10
7.4358750078
 20
7.5681618529
  0
LWPOLYLINE
  5
432
100
AcDbEntity
  8
0
100
AcDbPolyline
 62
7
  6
CONTINUOUS
 90
4
 70
0
 10
7.7655562962
 20
7.5425401351
 10
7.8060928356
 20
7.5379877426
 10
7.8468759302
 20
7.5317889876
 10
7.8878428258
 20
7.5240208711
  0
LINE
  5
433
100
AcDbEntity
  8
0
100
AcDbLine
 62
7
  6
CONTINUOUS
 10
7.0754705016
 20
7.2025235088
 11
7.110918067
 21
7.1820494617
  0
LINE
  5
434
100
AcDbEntity
  8
0
100
AcDbLine
 62
7
  6
CONTINUOUS
 10
7.0754705016
 20
7.261578627
 11
7.110918067
 21
7.2411045798
  0
LINE
  5
435
100
AcDbEntity
  8
0
100
AcDbLine
 62
7
  6
CONTINUOUS
 10
7.0754705016
 20
7.3206337451
 11
7.110918067
 21
7.3001596979
  0
LINE
  5
436
100
AcDbEntity
  8
0
100
AcDbLine
 62
7
  6
CONTINUOUS
 10
7.0754705016
 20
7.3796888632
 11
7.110918067
 21
7.359214816
  0
LINE
  5
437
100
AcDbEntity
  8
0
100
AcDbLine
 62
7
  6
CONTINUOUS
 10
7.0754705016
 20
7.4387439813
 11
7.1109180671
 21
7.4182699341
  0
LWPOLYLINE
  5
438
100
AcDbEntity
  8
0
100
AcDbPolyline
 62
7
  6
CONTINUOUS
 90
4
 70
0
 10
7.4358750078
 20
7.5165870498
 10
7.4768445385
 20
7.5255988243
 10
7.517624504
 20
7.5330928912
 10
7.5581615373
 20
7.5389823718
  0
LWPOLYLINE
  5
439
100
AcDbEntity
  8
0
100
AcDbPolyline
 62
7
  6
CONTINUOUS
 90
4
 70
0
 10
7.8878428258
 20
7.6346507924
 10
7.8468667695
 20
7.625637698
 10
7.8060862577
 20
7.6181437851
 10
7.7655562962
 20
7.6122554704
  0
LWPOLYLINE
  5
43A
100
AcDbEntity
  8
0
100
AcDbPolyline
 62
7
  6
CONTINUOUS
 90
4
 70
0
 10
7.4358750078
 20
7.5756421679
 10
7.4768445385
 20
7.5846539424
 10
7.517624504
 20
7.5921480094
 10
7.5581615373
 20
7.5980374899
  0
LWPOLYLINE
  5
43B
100
AcDbEntity
  8
0
100
AcDbPolyline
 62
7
  6
CONTINUOUS
 90
4
 70
0
 10
7.8878428258
 20
7.6937059105
 10
7.8468667695
 20
7.6846928161
 10
7.8060862577
 20
7.6771989032
 10
7.7655562962
 20
7.6713105885
  0
LWPOLYLINE
  5
43C
100
AcDbEntity
  8
0
100
AcDbPolyline
 62
7
  6
CONTINUOUS
 90
4
 70
0
 10
7.4358750078
 20
7.634697286
 10
7.4768445385
 20
7.6437090605
 10
7.517624504
 20
7.6512031275
 10
7.5581615373
 20
7.657092608
  0
LWPOLYLINE
  5
43D
100
AcDbEntity
  8
0
100
AcDbPolyline
 62
7
  6
CONTINUOUS
 90
4
 70
0
 10
7.8878428258
 20
7.7527610286
 10
7.8468667695
 20
7.7437479342
 10
7.8060862577
 20
7.7362540213
 10
7.7655562962
 20
7.7303657066
  0
LWPOLYLINE
  5
43E
100
AcDbEntity
  8
0
100
AcDbPolyline
 62
7
  6
CONTINUOUS
 90
4
 70
0
 10
7.4358750078
 20
7.6937524041
 10
7.4768445385
 20
7.7027641786
 10
7.517624504
 20
7.7102582456
 10
7.5581615373
 20
7.7161477261
  0
LWPOLYLINE
  5
43F
100
AcDbEntity
  8
0
100
AcDbPolyline
 62
7
  6
CONTINUOUS
 90
4
 70
0
 10
7.4358750078
 20
7.7528075222
 10
7.4768445385
 20
7.7618192967
 10
7.517624504
 20
7.7693133637
 10
7.5581615373
 20
7.7752028442
  0
LWPOLYLINE
  5
440
100
AcDbEntity
  8
0
100
AcDbPolyline
 62
7
  6
CONTINUOUS
 90
4
 70
0
 10
7.5789243718
 20
7.8366440209
 10
7.5315362383
 20
7.8305696089
 10
7.4839614523
 20
7.8222913793
 10
7.4358750078
 20
7.8118626403
  0
LWPOLYLINE
  5
441
100
AcDbEntity
  8
0
100
AcDbPolyline
 62
7
  6
CONTINUOUS
 90
4
 70
0
 10
7.5789243718
 20
7.8366440209
 10
7.5634391957
 20
7.8352503139
 10
7.5480208299
 20
7.8343058631
 10
7.5328496245
 20
7.8338163383
  0
LWPOLYLINE
  5
442
100
AcDbEntity
  8
0
100
AcDbPolyline
 62
7
  6
CONTINUOUS
 90
3
 70
0
 10
7.3166330375
 20
7.60411496
 10
7.390711433
 20
7.6056425817
 10
7.4719349451
 20
7.6071701686
  0
LWPOLYLINE
  5
443
100
AcDbEntity
  8
0
100
AcDbPolyline
 62
7
  6
CONTINUOUS
 90
3
 70
0
 10
8.0070857
 20
7.6652331382
 10
7.9330079076
 20
7.6637055262
 10
7.8517844323
 20
7.6621779378
  0
LWPOLYLINE
  5
444
100
AcDbEntity
  8
0
100
AcDbPolyline
 62
7
  6
CONTINUOUS
 90
3
 70
0
 10
7.3166329814
 20
7.6631700769
 10
7.3907113428
 20
7.664697698
 10
7.4719348627
 20
7.6662252853
  0
LINE
  5
445
100
AcDbEntity
  8
0
100
AcDbLine
 62
7
  6
CONTINUOUS
 10
7.9330074449
 20
7.7227606352
 11
7.8517844687
 21
7.7212330565
  0
LWPOLYLINE
  5
446
100
AcDbEntity
  8
0
100
AcDbPolyline
 62
7
  6
CONTINUOUS
 90
9
 70
0
 10
7.8878428258
 20
7.6346507924
 10
7.9695606533
 20
7.6361237082
 10
8.043737263
 20
7.6375966241
 10
8.1085547191
 20
7.6390695399
 10
8.1624244621
 20
7.6405424558
 10
8.2040262411
 20
7.6420153716
 10
8.2323404711
 20
7.6434882875
 10
8.2466732211
 20
7.6449612033
 10
8.248247332
 20
7.6454368947
  0
LINE
  5
447
100
AcDbEntity
  8
0
100
AcDbLine
 62
7
  6
CONTINUOUS
 10
7.3541571802
 20
7.6257440552
 11
7.4358750078
 21
7.627216971
  0
LWPOLYLINE
  5
448
100
AcDbEntity
  8
0
100
AcDbPolyline
 62
7
  6
CONTINUOUS
 90
9
 70
0
 10
7.8878428258
 20
7.6421311074
 10
7.9695606533
 20
7.6436040232
 10
8.043737263
 20
7.645076939
 10
8.1085547191
 20
7.6465498549
 10
8.1624244621
 20
7.6480227707
 10
8.2040262411
 20
7.6494956866
 10
8.2323404711
 20
7.6509686024
 10
8.2466732211
 20
7.6524415183
 10
8.24847309
 20
7.6531779762
  0
LWPOLYLINE
  5
449
100
AcDbEntity
  8
0
100
AcDbPolyline
 62
7
  6
CONTINUOUS
 90
9
 70
0
 10
7.8878428258
 20
7.6937059105
 10
7.9695606533
 20
7.6951788264
 10
8.043737263
 20
7.6966517422
 10
8.1085547191
 20
7.698124658
 10
8.1624244621
 20
7.6995975739
 10
8.2040262411
 20
7.7010704897
 10
8.2323404711
 20
7.7025434056
 10
8.2466732211
 20
7.7040163214
 10
8.248247332
 20
7.7044920128
  0
LINE
  5
44A
100
AcDbEntity
  8
0
100
AcDbLine
 62
7
  6
CONTINUOUS
 10
7.3541571802
 20
7.6847991733
 11
7.4358750078
 21
7.6862720891
  0
LWPOLYLINE
  5
44B
100
AcDbEntity
  8
0
100
AcDbPolyline
 62
7
  6
CONTINUOUS
 90
9
 70
0
 10
7.8878428258
 20
7.7011862255
 10
7.9695606533
 20
7.7026591413
 10
8.043737263
 20
7.7041320572
 10
8.1085547191
 20
7.705604973
 10
8.1624244621
 20
7.7070778888
 10
8.2040262411
 20
7.7085508047
 10
8.2323404711
 20
7.7100237205
 10
8.2466732211
 20
7.7114966364
 10
8.24847309
 20
7.7122330943
  0
LWPOLYLINE
  5
44C
100
AcDbEntity
  8
0
100
AcDbPolyline
 62
7
  6
CONTINUOUS
 90
9
 70
0
 10
7.8878428258
 20
7.7527610286
 10
7.9695606533
 20
7.7542339445
 10
8.043737263
 20
7.7557068603
 10
8.1085547191
 20
7.7571797762
 10
8.1624244621
 20
7.758652692
 10
8.2040262411
 20
7.7601256078
 10
8.2323404711
 20
7.7615985237
 10
8.2466732211
 20
7.7630714395
 10
8.248247332
 20
7.7635471309
  0
LWPOLYLINE
  5
44D
100
AcDbEntity
  8
0
100
AcDbPolyline
 62
7
  6
CONTINUOUS
 90
9
 70
0
 10
7.8878428258
 20
7.7602413436
 10
7.9695606533
 20
7.7617142594
 10
8.043737263
 20
7.7631871753
 10
8.1085547191
 20
7.7646600911
 10
8.1624244621
 20
7.766133007
 10
8.2040262411
 20
7.7676059228
 10
8.2323404711
 20
7.7690788386
 10
8.2466732211
 20
7.7705517545
 10
8.24847309
 20
7.7712882124
  0
LWPOLYLINE
  5
44E
100
AcDbEntity
  8
0
100
AcDbPolyline
 62
7
  6
CONTINUOUS
 90
10
 70
0
 10
7.5328496245
 20
7.8338163383
 10
7.4506511698
 20
7.8323407329
 10
7.3736462824
 20
7.8308650947
 10
7.3037298719
 20
7.82938943
 10
7.2426233551
 20
7.8279137672
 10
7.1918292715
 20
7.826438086
 10
7.1525972821
 20
7.8249623739
 10
7.1258934462
 20
7.8234866417
 10
7.112375399
 20
7.8220109224
 10
7.110918067
 20
7.8215505852
  0
LWPOLYLINE
  5
44F
100
AcDbEntity
  8
0
100
AcDbPolyline
 62
7
  6
CONTINUOUS
 90
10
 70
0
 10
7.7655562962
 20
7.6122554704
 10
7.8517830253
 20
7.6137830112
 10
7.9330065472
 20
7.6153105986
 10
8.0070848857
 20
7.6168382194
 10
8.0720636583
 20
7.6183658414
 10
8.1262303744
 20
7.6198934733
 10
8.1681576738
 20
7.6214211425
 10
8.1967393088
 20
7.6229488414
 10
8.2112208582
 20
7.6244765314
 10
8.2127997665
 20
7.6249628475
  0
LINE
  5
450
100
AcDbEntity
  8
0
100
AcDbLine
 62
7
  6
CONTINUOUS
 10
7.4719349451
 20
7.6071701686
 11
7.5581615373
 21
7.608697707
  0
LINE
  5
451
100
AcDbEntity
  8
0
100
AcDbLine
 62
7
  6
CONTINUOUS
 10
7.8517844323
 20
7.6621779378
 11
7.7655562962
 21
7.6606503713
  0
LWPOLYLINE
  5
452
100
AcDbEntity
  8
0
100
AcDbPolyline
 62
7
  6
CONTINUOUS
 90
10
 70
0
 10
7.5581615373
 20
7.657092608
 10
7.4719356653
 20
7.6555650827
 10
7.3907119363
 20
7.6540374925
 10
7.3166328962
 20
7.6525098579
 10
7.2516536504
 20
7.6509822236
 10
7.197487053
 20
7.6494545922
 10
7.1555600017
 20
7.647926929
 10
7.1269784777
 20
7.6463992337
 10
7.1124969699
 20
7.6448715458
 10
7.110918067
 20
7.6443852308
  0
LWPOLYLINE
  5
453
100
AcDbEntity
  8
0
100
AcDbPolyline
 62
7
  6
CONTINUOUS
 90
10
 70
0
 10
7.7655562962
 20
7.6713105885
 10
7.8517829441
 20
7.6728381279
 10
7.9330064589
 20
7.674365715
 10
8.0070848322
 20
7.6758933363
 10
8.072063621
 20
7.6774209586
 10
8.1262303258
 20
7.6789485899
 10
8.1681576337
 20
7.6804762589
 10
8.1967392897
 20
7.6820039581
 10
8.2112208559
 20
7.683531649
 10
8.2127997665
 20
7.6840179656
  0
LINE
  5
454
100
AcDbEntity
  8
0
100
AcDbLine
 62
7
  6
CONTINUOUS
 10
7.4719348627
 20
7.6662252853
 11
7.5581615373
 21
7.6677528252
  0
LINE
  5
455
100
AcDbEntity
  8
0
100
AcDbLine
 62
7
  6
CONTINUOUS
 10
7.8517844687
 20
7.7212330565
 11
7.7655562962
 21
7.7197054894
  0
LWPOLYLINE
  5
456
100
AcDbEntity
  8
0
100
AcDbPolyline
 62
7
  6
CONTINUOUS
 90
10
 70
0
 10
7.5581615373
 20
7.7161477261
 10
7.4719341445
 20
7.7146201732
 10
7.3907103343
 20
7.7130925793
 10
7.3166308373
 20
7.7115649309
 10
7.2516510527
 20
7.7100372754
 10
7.1974848018
 20
7.708509639
 10
7.1555589807
 20
7.7069820031
 10
7.1269782649
 20
7.7054543368
 10
7.1124969575
 20
7.7039266613
 10
7.110918067
 20
7.7034403489
  0
LWPOLYLINE
  5
457
100
AcDbEntity
  8
0
100
AcDbPolyline
 62
7
  6
CONTINUOUS
 90
10
 70
0
 10
7.7655562962
 20
7.7303657066
 10
7.8517828613
 20
7.7318932445
 10
7.933006368
 20
7.7334208313
 10
8.0070847753
 20
7.7349484532
 10
8.0720635816
 20
7.7364760757
 10
8.1262302771
 20
7.7380037065
 10
8.168157593
 20
7.7395313753
 10
8.1967392699
 20
7.7410590748
 10
8.2112208534
 20
7.7425867666
 10
8.2127997665
 20
7.7430730838
  0
LINE
  5
458
100
AcDbEntity
  8
0
100
AcDbLine
 62
7
  6
CONTINUOUS
 10
7.4719347821
 20
7.7252804019
 11
7.5581615373
 21
7.7268079433
  0
LWPOLYLINE
  5
459
100
AcDbEntity
  8
0
100
AcDbPolyline
 62
7
  6
CONTINUOUS
 90
10
 70
0
 10
7.5581615373
 20
7.7752028442
 10
7.4719330264
 20
7.773675271
 10
7.3907100972
 20
7.7721476927
 10
7.3166321584
 20
7.7706200779
 10
7.2516526072
 20
7.7690924332
 10
7.1974855666
 20
7.7675647813
 10
7.1555590117
 20
7.7660371225
 10
7.1269782401
 20
7.7645094531
 10
7.1124969766
 20
7.7629817835
 10
7.110918067
 20
7.7624954671
  0
LINE
  5
45A
100
AcDbEntity
  8
0
100
AcDbLine
 62
7
  6
CONTINUOUS
 10
7.4719345289
 20
7.7843355154
 11
7.5581615373
 21
7.7858630614
  0
LWPOLYLINE
  5
45B
100
AcDbEntity
  8
0
100
AcDbPolyline
 62
7
  6
CONTINUOUS
 90
4
 70
0
 10
7.790868209
 20
7.7792022316
 10
7.7756999697
 20
7.7791640763
 10
7.7602817657
 20
7.779579469
 10
7.7447934618
 20
7.7804465621
  0
LINE
  5
45C
100
AcDbEntity
  8
0
100
AcDbLine
 62
7
  6
CONTINUOUS
 10
7.1106778144
 20
7.8447285572
 11
8.2130400191
 21
7.8447285572
  0
LINE
  5
45D
100
AcDbEntity
  8
AXIS
100
AcDbLine
 62
7
  6
CONTINUOUS
 10
8.4177644286
 20
7.8762246202
 11
6.905953405
 21
7.8762246202
  0
LWPOLYLINE
  5
45E
100
AcDbEntity
  8
0
100
AcDbPolyline
 62
7
  6
CONTINUOUS
 90
4
 70
0
 10
7.5581615373
 20
7.608697707
 10
7.517632395
 20
7.61324912
 10
7.4768486884
 20
7.6194476932
 10
7.4358750078
 20
7.627216971
  0
LWPOLYLINE
  5
45F
100
AcDbEntity
  8
0
100
AcDbPolyline
 62
7
  6
CONTINUOUS
 90
4
 70
0
 10
7.7655562962
 20
7.6015952532
 10
7.8060928356
 20
7.5970428607
 10
7.8468759302
 20
7.5908441057
 10
7.8878428258
 20
7.5830759892
  0
LWPOLYLINE
  5
460
100
AcDbEntity
  8
0
100
AcDbPolyline
 62
7
  6
CONTINUOUS
 90
4
 70
0
 10
7.5581615373
 20
7.6677528252
 10
7.517632395
 20
7.6723042381
 10
7.4768486884
 20
7.6785028113
 10
7.4358750078
 20
7.6862720891
  0
LWPOLYLINE
  5
461
100
AcDbEntity
  8
0
100
AcDbPolyline
 62
7
  6
CONTINUOUS
 90
4
 70
0
 10
7.7655562962
 20
7.6606503713
 10
7.8060928356
 20
7.6560979788
 10
7.8468759302
 20
7.6498992238
 10
7.8878428258
 20
7.6421311074
  0
LWPOLYLINE
  5
462
100
AcDbEntity
  8
0
100
AcDbPolyline
 62
7
  6
CONTINUOUS
 90
4
 70
0
 10
7.5581615373
 20
7.7268079433
 10
7.517632395
 20
7.7313593562
 10
7.4768486884
 20
7.7375579294
 10
7.4358750078
 20
7.7453272072
  0
LWPOLYLINE
  5
463
100
AcDbEntity
  8
0
100
AcDbPolyline
 62
7
  6
CONTINUOUS
 90
4
 70
0
 10
7.7655562962
 20
7.7197054894
 10
7.8060928356
 20
7.7151530969
 10
7.8468759302
 20
7.7089543419
 10
7.8878428258
 20
7.7011862255
  0
LWPOLYLINE
  5
464
100
AcDbEntity
  8
0
100
AcDbPolyline
 62
7
  6
CONTINUOUS
 90
4
 70
0
 10
7.5581615373
 20
7.7858630614
 10
7.517632395
 20
7.7904144743
 10
7.4768486884
 20
7.7966130475
 10
7.4358750078
 20
7.8043823253
  0
LWPOLYLINE
  5
465
100
AcDbEntity
  8
0
100
AcDbPolyline
 62
7
  6
CONTINUOUS
 90
4
 70
0
 10
7.8878428258
 20
7.7602413436
 10
7.8397561653
 20
7.7692047426
 10
7.7921810769
 20
7.7759554641
 10
7.7447934618
 20
7.7804465621
  0
LINE
  5
466
100
AcDbEntity
  8
0
100
AcDbLine
 62
7
  6
CONTINUOUS
 10
7.0754705016
 20
7.4977990994
 11
7.1109180671
 21
7.4773250523
  0
LINE
  5
467
100
AcDbEntity
  8
0
100
AcDbLine
 62
7
  6
CONTINUOUS
 10
7.0754705016
 20
7.5568542175
 11
7.1109180671
 21
7.5363801704
  0
LINE
  5
468
100
AcDbEntity
  8
0
100
AcDbLine
 62
7
  6
CONTINUOUS
 10
7.0754705016
 20
7.6159093356
 11
7.1109180671
 21
7.5954352885
  0
LINE
  5
469
100
AcDbEntity
  8
0
100
AcDbLine
 62
7
  6
CONTINUOUS
 10
7.0754705016
 20
7.6749644537
 11
7.1109180671
 21
7.6544904066
  0
LINE
  5
46A
100
AcDbEntity
  8
0
100
AcDbLine
 62
7
  6
CONTINUOUS
 10
7.0754705016
 20
7.7340195718
 11
7.1109180671
 21
7.7135455247
  0
LINE
  5
46B
100
AcDbEntity
  8
0
100
AcDbLine
 62
7
  6
CONTINUOUS
 10
7.0754705016
 20
7.7930746899
 11
7.1109180671
 21
7.7726006428
  0
LWPOLYLINE
  5
46C
100
AcDbEntity
  8
0
100
AcDbPolyline
 62
7
  6
CONTINUOUS
 90
6
 70
0
 10
7.5402215841
 20
7.1281931241
 10
7.5379435233
 20
7.1297346512
 10
7.535888455
 20
7.1342083369
 10
7.5342575435
 20
7.1411762658
 10
7.5332104339
 20
7.1499563684
 10
7.5328496245
 20
7.1596891871
  0
LINE
  5
46D
100
AcDbEntity
  8
0
100
AcDbLine
 62
7
  6
CONTINUOUS
 10
7.0754705016
 20
7.2025235088
 11
7.0752447436
 21
7.2027842754
  0
LINE
  5
46E
100
AcDbEntity
  8
AXIS
100
AcDbLine
 62
7
  6
CONTINUOUS
 10
8.5476856884
 20
8.00614588
 11
6.7760321451
 21
8.00614588
  0
LINE
  5
46F
100
AcDbEntity
  8
0
100
AcDbLine
 62
7
  6
CONTINUOUS
 10
8.248247332
 20
7.240052916
 11
8.2127997665
 21
7.2605269631
  0
LINE
  5
470
100
AcDbEntity
  8
0
100
AcDbLine
 62
7
  6
CONTINUOUS
 10
8.248247332
 20
7.2991080341
 11
8.2127997665
 21
7.3195820812
  0
LINE
  5
471
100
AcDbEntity
  8
0
100
AcDbLine
 62
7
  6
CONTINUOUS
 10
8.248247332
 20
7.3581631522
 11
8.2127997665
 21
7.3786371993
  0
LINE
  5
472
100
AcDbEntity
  8
0
100
AcDbLine
 62
7
  6
CONTINUOUS
 10
8.248247332
 20
7.4172182703
 11
8.2127997665
 21
7.4376923175
  0
LINE
  5
473
100
AcDbEntity
  8
0
100
AcDbLine
 62
7
  6
CONTINUOUS
 10
8.248247332
 20
7.4762733884
 11
8.2127997665
 21
7.4967474356
  0
LINE
  5
474
100
AcDbEntity
  8
0
100
AcDbLine
 62
7
  6
CONTINUOUS
 10
8.248247332
 20
7.5353285065
 11
8.2127997665
 21
7.5558025537
  0
LINE
  5
475
100
AcDbEntity
  8
0
100
AcDbLine
 62
7
  6
CONTINUOUS
 10
7.0754705016
 20
7.261578627
 11
7.0752447436
 21
7.2618393935
  0
LINE
  5
476
100
AcDbEntity
  8
0
100
AcDbLine
 62
7
  6
CONTINUOUS
 10
7.0754705016
 20
7.3206337451
 11
7.0752447436
 21
7.3208945116
  0
LINE
  5
477
100
AcDbEntity
  8
0
100
AcDbLine
 62
7
  6
CONTINUOUS
 10
7.0754705016
 20
7.3796888632
 11
7.0752447436
 21
7.3799496297
  0
LINE
  5
478
100
AcDbEntity
  8
0
100
AcDbLine
 62
7
  6
CONTINUOUS
 10
7.0754705016
 20
7.4387439813
 11
7.0752447436
 21
7.4390047478
  0
LINE
  5
479
100
AcDbEntity
  8
0
100
AcDbLine
 62
7
  6
CONTINUOUS
 10
7.0754705016
 20
7.4977990994
 11
7.0752447436
 21
7.498059866
  0
LINE
  5
47A
100
AcDbEntity
  8
0
100
AcDbLine
 62
7
  6
CONTINUOUS
 10
7.0754705016
 20
7.5568542175
 11
7.0752447436
 21
7.5571149841
  0
LINE
  5
47B
100
AcDbEntity
  8
0
100
AcDbLine
 62
7
  6
CONTINUOUS
 10
7.0754705016
 20
7.6159093356
 11
7.0752447436
 21
7.6161701022
  0
LINE
  5
47C
100
AcDbEntity
  8
0
100
AcDbLine
 62
7
  6
CONTINUOUS
 10
7.0754705016
 20
7.6749644537
 11
7.0752447436
 21
7.6752252203
  0
LINE
  5
47D
100
AcDbEntity
  8
0
100
AcDbLine
 62
7
  6
CONTINUOUS
 10
6.6756384443
 20
8.3447429745
 11
6.6677644286
 21
8.3433545731
  0
LINE
  5
47E
100
AcDbEntity
  8
0
100
AcDbLine
 62
7
  6
CONTINUOUS
 10
8.5476856884
 20
8.2797679273
 11
6.7760321451
 21
8.2797679273
  0
LINE
  5
47F
100
AcDbEntity
  8
AXIS
100
AcDbLine
 62
7
  6
CONTINUOUS
 10
8.655953405
 20
8.2994529667
 11
6.6677644286
 21
8.2994529667
  0
LINE
  5
480
100
AcDbEntity
  8
0
100
AcDbLine
 62
7
  6
CONTINUOUS
 10
6.6677644286
 20
8.3433545731
 11
8.655953405
 21
8.3433545731
  0
LINE
  5
481
100
AcDbEntity
  8
0
100
AcDbLine
 62
7
  6
CONTINUOUS
 10
6.6776069483
 20
8.3447285572
 11
8.6461108853
 21
8.3447285572
  0
LINE
  5
482
100
AcDbEntity
  8
0
100
AcDbLine
 62
7
  6
CONTINUOUS
 10
8.6480793892
 20
8.3447429745
 11
8.6559566247
 21
8.3433540053
  0
LINE
  5
483
100
AcDbEntity
  8
0
100
AcDbLine
 62
7
  6
CONTINUOUS
 10
8.248247332
 20
7.5943836247
 11
8.2127997665
 21
7.6148576718
  0
LINE
  5
484
100
AcDbEntity
  8
0
100
AcDbLine
 62
7
  6
CONTINUOUS
 10
8.248247332
 20
7.6534387428
 11
8.2127997665
 21
7.6739127899
  0
LINE
  5
485
100
AcDbEntity
  8
0
100
AcDbLine
 62
7
  6
CONTINUOUS
 10
8.248247332
 20
7.7124938609
 11
8.2127997665
 21
7.732967908
  0
LINE
  5
486
100
AcDbEntity
  8
0
100
AcDbLine
 62
7
  6
CONTINUOUS
 10
8.248247332
 20
7.771548979
 11
8.2127997665
 21
7.7920230261
  0
LINE
  5
487
100
AcDbEntity
  8
0
100
AcDbLine
 62
7
  6
CONTINUOUS
 10
7.0754705016
 20
7.7340195718
 11
7.0752447436
 21
7.7342803384
  0
LINE
  5
488
100
AcDbEntity
  8
0
100
AcDbLine
 62
7
  6
CONTINUOUS
 10
7.0754705016
 20
7.7930746899
 11
7.0752447436
 21
7.7933354565
  0
LINE
  5
489
100
AcDbEntity
  8
AXIS
100
AcDbLine
 62
7
  6
CONTINUOUS
 10
6.6776069483
 20
14.8481002466
 11
6.6579856542
 21
14.7368223583
  0
LINE
  5
48A
100
AcDbEntity
  8
AXIS
100
AcDbLine
 62
7
  6
CONTINUOUS
 10
6.6579537816
 20
14.7366415995
 11
6.6579219089
 21
14.7364608407
  0
LINE
  5
48B
100
AcDbEntity
  8
0
100
AcDbLine
 62
7
  6
CONTINUOUS
 10
6.6756384443
 20
8.8762246202
 11
8.6480793892
 21
8.8762246202
  0
LINE
  5
48C
100
AcDbEntity
  8
0
100
AcDbLine
 62
7
  6
CONTINUOUS
 10
8.24847309
 20
7.2397921494
 11
8.248247332
 21
7.240052916
  0
LINE
  5
48D
100
AcDbEntity
  8
0
100
AcDbLine
 62
7
  6
CONTINUOUS
 10
8.24847309
 20
7.2988472675
 11
8.248247332
 21
7.2991080341
  0
LINE
  5
48E
100
AcDbEntity
  8
0
100
AcDbLine
 62
7
  6
CONTINUOUS
 10
8.24847309
 20
7.3579023856
 11
8.248247332
 21
7.3581631522
  0
LINE
  5
48F
100
AcDbEntity
  8
0
100
AcDbLine
 62
7
  6
CONTINUOUS
 10
8.24847309
 20
7.4169575038
 11
8.248247332
 21
7.4172182703
  0
LINE
  5
490
100
AcDbEntity
  8
0
100
AcDbLine
 62
7
  6
CONTINUOUS
 10
8.24847309
 20
7.4760126219
 11
8.248247332
 21
7.4762733884
  0
LINE
  5
491
100
AcDbEntity
  8
0
100
AcDbLine
 62
7
  6
CONTINUOUS
 10
8.24847309
 20
7.53506774
 11
8.248247332
 21
7.5353285065
  0
LINE
  5
492
100
AcDbEntity
  8
0
100
AcDbLine
 62
7
  6
CONTINUOUS
 10
8.24847309
 20
7.5941228581
 11
8.248247332
 21
7.5943836247
  0
LINE
  5
493
100
AcDbEntity
  8
0
100
AcDbLine
 62
7
  6
CONTINUOUS
 10
8.24847309
 20
7.6531779762
 11
8.248247332
 21
7.6534387428
  0
LINE
  5
494
100
AcDbEntity
  8
0
100
AcDbLine
 62
7
  6
CONTINUOUS
 10
8.24847309
 20
7.7122330943
 11
8.248247332
 21
7.7124938609
  0
LINE
  5
495
100
AcDbEntity
  8
0
100
AcDbLine
 62
7
  6
CONTINUOUS
 10
8.24847309
 20
7.7712882124
 11
8.248247332
 21
7.771548979
  0
LWPOLYLINE
  5
496
100
AcDbEntity
  8
0
100
AcDbPolyline
 62
7
  6
CONTINUOUS
 90
4
 70
0
 10
6.6778037987
 20
14.7364608407
 10
6.6776944394
 20
14.7736731078
 10
6.6776288215
 20
14.8108863028
 10
6.6776069483
 20
14.8481002466
  0
LINE
  5
497
100
AcDbEntity
  8
0
100
AcDbLine
 62
7
  6
CONTINUOUS
 10
6.6677644286
 20
8.2994529667
 11
6.6677644286
 21
8.3433545731
  0
LINE
  5
498
100
AcDbEntity
  8
0
100
AcDbLine
 62
7
  6
CONTINUOUS
 10
6.6756384443
 20
8.3447285572
 11
6.6756384443
 21
8.8762246202
  0
LINE
  5
499
100
AcDbEntity
  8
AXIS
100
AcDbLine
 62
7
  6
CONTINUOUS
 10
6.6756384443
 20
9.9470907619
 11
6.6756384443
 21
10.4785868249
  0
LINE
  5
49A
100
AcDbEntity
  8
AXIS
100
AcDbLine
 62
7
  6
CONTINUOUS
 10
6.6756384443
 20
11.5494529667
 11
6.6756384443
 21
12.0809490296
  0
LINE
  5
49B
100
AcDbEntity
  8
AXIS
100
AcDbLine
 62
7
  6
CONTINUOUS
 10
6.6756384443
 20
13.1518151714
 11
6.6756384443
 21
13.6833112344
  0
LINE
  5
49C
100
AcDbEntity
  8
AXIS
100
AcDbLine
 62
7
  6
CONTINUOUS
 10
6.6776069483
 20
8.8762246202
 11
6.6776069483
 21
9.9470907619
  0
LINE
  5
49D
100
AcDbEntity
  8
AXIS
100
AcDbLine
 62
7
  6
CONTINUOUS
 10
6.6776069483
 20
10.4785868249
 11
6.6776069483
 21
11.5494529667
  0
LINE
  5
49E
100
AcDbEntity
  8
AXIS
100
AcDbLine
 62
7
  6
CONTINUOUS
 10
6.6776069483
 20
12.0809490296
 11
6.6776069483
 21
13.1518151714
  0
LINE
  5
49F
100
AcDbEntity
  8
AXIS
100
AcDbLine
 62
7
  6
CONTINUOUS
 10
6.6776069483
 20
13.6833112344
 11
6.6776069483
 21
14.6251829524
  0
LINE
  5
4A0
100
AcDbEntity
  8
0
100
AcDbLine
 62
7
  6
CONTINUOUS
 10
6.6776069483
 20
14.8481002466
 11
6.6776069483
 21
15.1695317068
  0
LWPOLYLINE
  5
4A1
100
AcDbEntity
  8
AXIS
100
AcDbPolyline
 62
7
  6
CONTINUOUS
 90
4
 70
0
 10
6.6776069483
 20
14.6251829524
 10
6.6776288213
 20
14.6623967042
 10
6.6776944392
 20
14.6996099941
 10
6.6778037987
 20
14.7368223583
  0
LINE
  5
4A2
100
AcDbEntity
  8
0
100
AcDbLine
 62
7
  6
CONTINUOUS
 10
6.7760321451
 20
8.00614588
 11
6.7760321451
 21
8.2797679273
  0
LINE
  5
4A3
100
AcDbEntity
  8
0
100
AcDbLine
 62
7
  6
CONTINUOUS
 10
7.0752447436
 20
7.8008157715
 11
7.0752447436
 21
7.7933354565
  0
LINE
  5
4A4
100
AcDbEntity
  8
0
100
AcDbLine
 62
7
  6
CONTINUOUS
 10
7.0752447436
 20
7.7417606534
 11
7.0752447436
 21
7.7342803384
  0
LINE
  5
4A5
100
AcDbEntity
  8
0
100
AcDbLine
 62
7
  6
CONTINUOUS
 10
7.0752447436
 20
7.6827055352
 11
7.0752447436
 21
7.6752252203
  0
LINE
  5
4A6
100
AcDbEntity
  8
0
100
AcDbLine
 62
7
  6
CONTINUOUS
 10
7.0752447436
 20
7.6236504171
 11
7.0752447436
 21
7.6161701022
  0
LINE
  5
4A7
100
AcDbEntity
  8
0
100
AcDbLine
 62
7
  6
CONTINUOUS
 10
7.0752447436
 20
7.564595299
 11
7.0752447436
 21
7.5571149841
  0
LINE
  5
4A8
100
AcDbEntity
  8
0
100
AcDbLine
 62
7
  6
CONTINUOUS
 10
7.0752447436
 20
7.5055401809
 11
7.0752447436
 21
7.498059866
  0
LINE
  5
4A9
100
AcDbEntity
  8
0
100
AcDbLine
 62
7
  6
CONTINUOUS
 10
7.0752447436
 20
7.4464850628
 11
7.0752447436
 21
7.4390047478
  0
LINE
  5
4AA
100
AcDbEntity
  8
0
100
AcDbLine
 62
7
  6
CONTINUOUS
 10
7.0752447436
 20
7.3874299447
 11
7.0752447436
 21
7.3799496297
  0
LINE
  5
4AB
100
AcDbEntity
  8
0
100
AcDbLine
 62
7
  6
CONTINUOUS
 10
7.0752447436
 20
7.3283748266
 11
7.0752447436
 21
7.3208945116
  0
LINE
  5
4AC
100
AcDbEntity
  8
0
100
AcDbLine
 62
7
  6
CONTINUOUS
 10
7.0752447436
 20
7.2693197085
 11
7.0752447436
 21
7.2618393935
  0
LINE
  5
4AD
100
AcDbEntity
  8
0
100
AcDbLine
 62
7
  6
CONTINUOUS
 10
7.0752447436
 20
7.2102645904
 11
7.0752447436
 21
7.2027842754
  0
LINE
  5
4AE
100
AcDbEntity
  8
AXIS
100
AcDbLine
 62
7
  6
CONTINUOUS
 10
7.1106778144
 20
7.8447285572
 11
7.1106778144
 21
7.8212730645
  0
LINE
  5
4AF
100
AcDbEntity
  8
AXIS
100
AcDbLine
 62
7
  6
CONTINUOUS
 10
7.1106778144
 20
7.7728781635
 11
7.1106778144
 21
7.7622179464
  0
LINE
  5
4B0
100
AcDbEntity
  8
AXIS
100
AcDbLine
 62
7
  6
CONTINUOUS
 10
7.1106778144
 20
7.7138230454
 11
7.1106778144
 21
7.7031628283
  0
LINE
  5
4B1
100
AcDbEntity
  8
AXIS
100
AcDbLine
 62
7
  6
CONTINUOUS
 10
7.1106778144
 20
7.6547679273
 11
7.1106778144
 21
7.6441077101
  0
LINE
  5
4B2
100
AcDbEntity
  8
AXIS
100
AcDbLine
 62
7
  6
CONTINUOUS
 10
7.1106778144
 20
7.5957128092
 11
7.1106778144
 21
7.585052592
  0
LINE
  5
4B3
100
AcDbEntity
  8
AXIS
100
AcDbLine
 62
7
  6
CONTINUOUS
 10
7.1106778144
 20
7.5366576911
 11
7.1106778144
 21
7.5259974739
  0
LINE
  5
4B4
100
AcDbEntity
  8
AXIS
100
AcDbLine
 62
7
  6
CONTINUOUS
 10
7.1106778144
 20
7.477602573
 11
7.1106778144
 21
7.4669423558
  0
LINE
  5
4B5
100
AcDbEntity
  8
AXIS
100
AcDbLine
 62
7
  6
CONTINUOUS
 10
7.1106778144
 20
7.4185474548
 11
7.1106778144
 21
7.4078872377
  0
LINE
  5
4B6
100
AcDbEntity
  8
AXIS
100
AcDbLine
 62
7
  6
CONTINUOUS
 10
7.1106778144
 20
7.3594923367
 11
7.1106778144
 21
7.3488321196
  0
LINE
  5
4B7
100
AcDbEntity
  8
AXIS
100
AcDbLine
 62
7
  6
CONTINUOUS
 10
7.1106778144
 20
7.3004372186
 11
7.1106778144
 21
7.2897770015
  0
LINE
  5
4B8
100
AcDbEntity
  8
AXIS
100
AcDbLine
 62
7
  6
CONTINUOUS
 10
7.1106778144
 20
7.2413821005
 11
7.1106778144
 21
7.2307218834
  0
LINE
  5
4B9
100
AcDbEntity
  8
AXIS
100
AcDbLine
 62
7
  6
CONTINUOUS
 10
7.1106778144
 20
7.1823269824
 11
7.1106778144
 21
7.1596891871
  0
LINE
  5
4BA
100
AcDbEntity
  8
AXIS
100
AcDbLine
 62
7
  6
CONTINUOUS
 10
6.6756384443
 20
9.9470907619
 11
8.6480793892
 21
9.9470907619
  0
LWPOLYLINE
  5
4BB
100
AcDbEntity
  8
0
100
AcDbPolyline
 62
7
  6
CONTINUOUS
 90
6
 70
0
 10
7.5328496245
 20
7.8447285572
 10
7.5324888152
 20
7.8544613759
 10
7.5314417055
 20
7.8632414785
 10
7.5298107941
 20
7.8702094074
 10
7.5277557258
 20
7.8746830932
 10
7.525477665
 20
7.8762246202
  0
LINE
  5
4BC
100
AcDbEntity
  8
0
100
AcDbLine
 62
7
  6
CONTINUOUS
 10
7.4358750078
 20
7.2138311442
 11
7.4358750078
 21
7.2213114592
  0
LINE
  5
4BD
100
AcDbEntity
  8
0
100
AcDbLine
 62
7
  6
CONTINUOUS
 10
7.4358750078
 20
7.2728862624
 11
7.4358750078
 21
7.2803665773
  0
LINE
  5
4BE
100
AcDbEntity
  8
0
100
AcDbLine
 62
7
  6
CONTINUOUS
 10
7.4358750078
 20
7.3319413805
 11
7.4358750078
 21
7.3394216954
  0
LINE
  5
4BF
100
AcDbEntity
  8
0
100
AcDbLine
 62
7
  6
CONTINUOUS
 10
7.4358750078
 20
7.3909964986
 11
7.4358750078
 21
7.3984768135
  0
LINE
  5
4C0
100
AcDbEntity
  8
0
100
AcDbLine
 62
7
  6
CONTINUOUS
 10
7.4358750078
 20
7.4500516167
 11
7.4358750078
 21
7.4575319316
  0
LINE
  5
4C1
100
AcDbEntity
  8
0
100
AcDbLine
 62
7
  6
CONTINUOUS
 10
7.4358750078
 20
7.5091067348
 11
7.4358750078
 21
7.5165870498
  0
LINE
  5
4C2
100
AcDbEntity
  8
0
100
AcDbLine
 62
7
  6
CONTINUOUS
 10
7.4358750078
 20
7.5681618529
 11
7.4358750078
 21
7.5756421679
  0
LINE
  5
4C3
100
AcDbEntity
  8
0
100
AcDbLine
 62
7
  6
CONTINUOUS
 10
7.4358750078
 20
7.627216971
 11
7.4358750078
 21
7.634697286
  0
LINE
  5
4C4
100
AcDbEntity
  8
0
100
AcDbLine
 62
7
  6
CONTINUOUS
 10
7.4358750078
 20
7.6862720891
 11
7.4358750078
 21
7.6937524041
  0
LINE
  5
4C5
100
AcDbEntity
  8
0
100
AcDbLine
 62
7
  6
CONTINUOUS
 10
7.4358750078
 20
7.7453272072
 11
7.4358750078
 21
7.7528075222
  0
LINE
  5
4C6
100
AcDbEntity
  8
0
100
AcDbLine
 62
7
  6
CONTINUOUS
 10
7.4358750078
 20
7.8043823253
 11
7.4358750078
 21
7.8118626403
  0
LINE
  5
4C7
100
AcDbEntity
  8
0
100
AcDbLine
 62
7
  6
CONTINUOUS
 10
7.5328496245
 20
7.1596891871
 11
7.5328496245
 21
7.1948702562
  0
LINE
  5
4C8
100
AcDbEntity
  8
0
100
AcDbLine
 62
7
  6
CONTINUOUS
 10
7.5328496245
 20
7.8338163383
 11
7.5328496245
 21
7.8447285572
  0
LINE
  5
4C9
100
AcDbEntity
  8
02___PRT_ALL_AXES
100
AcDbLine
 62
7
  6
CONTINUOUS
 10
7.5543589168
 20
7.1281931241
 11
7.5543589168
 21
5.6502403682
  0
LINE
  5
4CA
100
AcDbEntity
  8
0
100
AcDbLine
 62
7
  6
CONTINUOUS
 10
7.5581615373
 20
7.7858630614
 11
7.5581615373
 21
7.7752028442
  0
LINE
  5
4CB
100
AcDbEntity
  8
0
100
AcDbLine
 62
7
  6
CONTINUOUS
 10
7.5581615373
 20
7.7268079433
 11
7.5581615373
 21
7.7161477261
  0
LINE
  5
4CC
100
AcDbEntity
  8
0
100
AcDbLine
 62
7
  6
CONTINUOUS
 10
7.5581615373
 20
7.6677528252
 11
7.5581615373
 21
7.657092608
  0
LINE
  5
4CD
100
AcDbEntity
  8
0
100
AcDbLine
 62
7
  6
CONTINUOUS
 10
7.5581615373
 20
7.608697707
 11
7.5581615373
 21
7.5980374899
  0
LINE
  5
4CE
100
AcDbEntity
  8
0
100
AcDbLine
 62
7
  6
CONTINUOUS
 10
7.5581615373
 20
7.5496425889
 11
7.5581615373
 21
7.5389823718
  0
LINE
  5
4CF
100
AcDbEntity
  8
0
100
AcDbLine
 62
7
  6
CONTINUOUS
 10
7.5581615373
 20
7.4905874708
 11
7.5581615373
 21
7.4799272537
  0
LINE
  5
4D0
100
AcDbEntity
  8
0
100
AcDbLine
 62
7
  6
CONTINUOUS
 10
7.5581615373
 20
7.4315323527
 11
7.5581615373
 21
7.4208721356
  0
LINE
  5
4D1
100
AcDbEntity
  8
0
100
AcDbLine
 62
7
  6
CONTINUOUS
 10
7.5581615373
 20
7.3724772346
 11
7.5581615373
 21
7.3618170175
  0
LINE
  5
4D2
100
AcDbEntity
  8
0
100
AcDbLine
 62
7
  6
CONTINUOUS
 10
7.5581615373
 20
7.3134221165
 11
7.5581615373
 21
7.3027618994
  0
LINE
  5
4D3
100
AcDbEntity
  8
0
100
AcDbLine
 62
7
  6
CONTINUOUS
 10
7.5581615373
 20
7.2543669984
 11
7.5581615373
 21
7.2437067812
  0
LINE
  5
4D4
100
AcDbEntity
  8
0
100
AcDbLine
 62
7
  6
CONTINUOUS
 10
7.5789243718
 20
7.1281931241
 11
7.5789243718
 21
7.1936259258
  0
LINE
  5
4D5
100
AcDbEntity
  8
0
100
AcDbLine
 62
7
  6
CONTINUOUS
 10
7.5789243718
 20
7.8366440209
 11
7.5789243718
 21
7.8762246202
  0
LINE
  5
4D6
100
AcDbEntity
  8
AXIS
100
AcDbLine
 62
7
  6
CONTINUOUS
 10
6.6756384443
 20
10.4785868249
 11
8.6480793892
 21
10.4785868249
  0
LINE
  5
4D7
100
AcDbEntity
  8
AXIS
100
AcDbLine
 62
7
  6
CONTINUOUS
 10
6.6776069483
 20
14.6251829524
 11
6.6579219089
 21
14.7368223583
  0
LINE
  5
4D8
100
AcDbEntity
  8
0
100
AcDbLine
 62
7
  6
CONTINUOUS
 10
7.7447934618
 20
7.1281931241
 11
7.7447934618
 21
7.196483585
  0
LINE
  5
4D9
100
AcDbEntity
  8
0
100
AcDbLine
 62
7
  6
CONTINUOUS
 10
7.7447934618
 20
7.7804465621
 11
7.7447934618
 21
7.8762246202
  0
LINE
  5
4DA
100
AcDbEntity
  8
0
100
AcDbLine
 62
7
  6
CONTINUOUS
 10
7.7655562962
 20
7.2472645446
 11
7.7655562962
 21
7.2579247617
  0
LINE
  5
4DB
100
AcDbEntity
  8
0
100
AcDbLine
 62
7
  6
CONTINUOUS
 10
7.7655562962
 20
7.3063196627
 11
7.7655562962
 21
7.3169798798
  0
LINE
  5
4DC
100
AcDbEntity
  8
0
100
AcDbLine
 62
7
  6
CONTINUOUS
 10
7.7655562962
 20
7.3653747808
 11
7.7655562962
 21
7.3760349979
  0
LINE
  5
4DD
100
AcDbEntity
  8
0
100
AcDbLine
 62
7
  6
CONTINUOUS
 10
7.7655562962
 20
7.4244298989
 11
7.7655562962
 21
7.435090116
  0
LINE
  5
4DE
100
AcDbEntity
  8
0
100
AcDbLine
 62
7
  6
CONTINUOUS
 10
7.7655562962
 20
7.483485017
 11
7.7655562962
 21
7.4941452341
  0
LINE
  5
4DF
100
AcDbEntity
  8
0
100
AcDbLine
 62
7
  6
CONTINUOUS
 10
7.7655562962
 20
7.5425401351
 11
7.7655562962
 21
7.5532003522
  0
LINE
  5
4E0
100
AcDbEntity
  8
0
100
AcDbLine
 62
7
  6
CONTINUOUS
 10
7.7655562962
 20
7.6015952532
 11
7.7655562962
 21
7.6122554704
  0
LINE
  5
4E1
100
AcDbEntity
  8
0
100
AcDbLine
 62
7
  6
CONTINUOUS
 10
7.7655562962
 20
7.6606503713
 11
7.7655562962
 21
7.6713105885
  0
LINE
  5
4E2
100
AcDbEntity
  8
0
100
AcDbLine
 62
7
  6
CONTINUOUS
 10
7.7655562962
 20
7.7197054894
 11
7.7655562962
 21
7.7303657066
  0
LINE
  5
4E3
100
AcDbEntity
  8
02___PRT_ALL_AXES
100
AcDbLine
 62
7
  6
CONTINUOUS
 10
7.7693589168
 20
7.1281931241
 11
7.7693589168
 21
5.6502403682
  0
LINE
  5
4E4
100
AcDbEntity
  8
0
100
AcDbLine
 62
7
  6
CONTINUOUS
 10
7.790868209
 20
7.8447285572
 11
7.790868209
 21
7.7792022316
  0
LINE
  5
4E5
100
AcDbEntity
  8
0
100
AcDbLine
 62
7
  6
CONTINUOUS
 10
7.790868209
 20
7.1993112676
 11
7.790868209
 21
7.1596891871
  0
LINE
  5
4E6
100
AcDbEntity
  8
0
100
AcDbLine
 62
7
  6
CONTINUOUS
 10
7.8878428258
 20
7.7602413436
 11
7.8878428258
 21
7.7527610286
  0
LINE
  5
4E7
100
AcDbEntity
  8
0
100
AcDbLine
 62
7
  6
CONTINUOUS
 10
7.8878428258
 20
7.7011862255
 11
7.8878428258
 21
7.6937059105
  0
LINE
  5
4E8
100
AcDbEntity
  8
0
100
AcDbLine
 62
7
  6
CONTINUOUS
 10
7.8878428258
 20
7.6421311074
 11
7.8878428258
 21
7.6346507924
  0
LINE
  5
4E9
100
AcDbEntity
  8
0
100
AcDbLine
 62
7
  6
CONTINUOUS
 10
7.8878428258
 20
7.5830759892
 11
7.8878428258
 21
7.5755956743
  0
LINE
  5
4EA
100
AcDbEntity
  8
0
100
AcDbLine
 62
7
  6
CONTINUOUS
 10
7.8878428258
 20
7.5240208711
 11
7.8878428258
 21
7.5165405562
  0
LINE
  5
4EB
100
AcDbEntity
  8
0
100
AcDbLine
 62
7
  6
CONTINUOUS
 10
7.8878428258
 20
7.464965753
 11
7.8878428258
 21
7.4574854381
  0
LINE
  5
4EC
100
AcDbEntity
  8
0
100
AcDbLine
 62
7
  6
CONTINUOUS
 10
7.8878428258
 20
7.4059106349
 11
7.8878428258
 21
7.39843032
  0
LINE
  5
4ED
100
AcDbEntity
  8
0
100
AcDbLine
 62
7
  6
CONTINUOUS
 10
7.8878428258
 20
7.3468555168
 11
7.8878428258
 21
7.3393752018
  0
LINE
  5
4EE
100
AcDbEntity
  8
0
100
AcDbLine
 62
7
  6
CONTINUOUS
 10
7.8878428258
 20
7.2878003987
 11
7.8878428258
 21
7.2803200837
  0
LINE
  5
4EF
100
AcDbEntity
  8
0
100
AcDbLine
 62
7
  6
CONTINUOUS
 10
7.8878428258
 20
7.2287452806
 11
7.8878428258
 21
7.2212649656
  0
LWPOLYLINE
  5
4F0
100
AcDbEntity
  8
0
100
AcDbPolyline
 62
7
  6
CONTINUOUS
 90
6
 70
0
 10
7.790868209
 20
7.8447285572
 10
7.7912290184
 20
7.8544613759
 10
7.792276128
 20
7.8632414785
 10
7.7939070395
 20
7.8702094074
 10
7.7959621078
 20
7.8746830932
 10
7.7982401686
 20
7.8762246202
  0
LINE
  5
4F1
100
AcDbEntity
  8
AXIS
100
AcDbLine
 62
7
  6
CONTINUOUS
 10
8.2130400191
 20
7.8447285572
 11
8.2130400191
 21
7.7917455054
  0
LINE
  5
4F2
100
AcDbEntity
  8
AXIS
100
AcDbLine
 62
7
  6
CONTINUOUS
 10
8.2130400191
 20
7.7433506045
 11
8.2130400191
 21
7.7326903873
  0
LINE
  5
4F3
100
AcDbEntity
  8
AXIS
100
AcDbLine
 62
7
  6
CONTINUOUS
 10
8.2130400191
 20
7.6842954863
 11
8.2130400191
 21
7.6736352692
  0
LINE
  5
4F4
100
AcDbEntity
  8
AXIS
100
AcDbLine
 62
7
  6
CONTINUOUS
 10
8.2130400191
 20
7.6252403682
 11
8.2130400191
 21
7.6145801511
  0
LINE
  5
4F5
100
AcDbEntity
  8
AXIS
100
AcDbLine
 62
7
  6
CONTINUOUS
 10
8.2130400191
 20
7.5661852501
 11
8.2130400191
 21
7.555525033
  0
LINE
  5
4F6
100
AcDbEntity
  8
AXIS
100
AcDbLine
 62
7
  6
CONTINUOUS
 10
8.2130400191
 20
7.507130132
 11
8.2130400191
 21
7.4964699149
  0
LINE
  5
4F7
100
AcDbEntity
  8
AXIS
100
AcDbLine
 62
7
  6
CONTINUOUS
 10
8.2130400191
 20
7.4480750139
 11
8.2130400191
 21
7.4374147968
  0
LINE
  5
4F8
100
AcDbEntity
  8
AXIS
100
AcDbLine
 62
7
  6
CONTINUOUS
 10
8.2130400191
 20
7.3890198958
 11
8.2130400191
 21
7.3783596786
  0
LINE
  5
4F9
100
AcDbEntity
  8
AXIS
100
AcDbLine
 62
7
  6
CONTINUOUS
 10
8.2130400191
 20
7.3299647777
 11
8.2130400191
 21
7.3193045605
  0
LINE
  5
4FA
100
AcDbEntity
  8
AXIS
100
AcDbLine
 62
7
  6
CONTINUOUS
 10
8.2130400191
 20
7.2709096596
 11
8.2130400191
 21
7.2602494424
  0
LINE
  5
4FB
100
AcDbEntity
  8
AXIS
100
AcDbLine
 62
7
  6
CONTINUOUS
 10
8.2130400191
 20
7.2118545415
 11
8.2130400191
 21
7.1596891871
  0
LINE
  5
4FC
100
AcDbEntity
  8
0
100
AcDbLine
 62
7
  6
CONTINUOUS
 10
8.24847309
 20
7.2323118345
 11
8.24847309
 21
7.2397921494
  0
LINE
  5
4FD
100
AcDbEntity
  8
0
100
AcDbLine
 62
7
  6
CONTINUOUS
 10
8.24847309
 20
7.2913669526
 11
8.24847309
 21
7.2988472675
  0
LINE
  5
4FE
100
AcDbEntity
  8
0
100
AcDbLine
 62
7
  6
CONTINUOUS
 10
8.24847309
 20
7.3504220707
 11
8.24847309
 21
7.3579023856
  0
LINE
  5
4FF
100
AcDbEntity
  8
0
100
AcDbLine
 62
7
  6
CONTINUOUS
 10
8.24847309
 20
7.4094771888
 11
8.24847309
 21
7.4169575038
  0
LINE
  5
500
100
AcDbEntity
  8
0
100
AcDbLine
 62
7
  6
CONTINUOUS
 10
8.24847309
 20
7.4685323069
 11
8.24847309
 21
7.4760126219
  0
LINE
  5
501
100
AcDbEntity
  8
0
100
AcDbLine
 62
7
  6
CONTINUOUS
 10
8.24847309
 20
7.527587425
 11
8.24847309
 21
7.53506774
  0
LINE
  5
502
100
AcDbEntity
  8
0
100
AcDbLine
 62
7
  6
CONTINUOUS
 10
8.24847309
 20
7.5866425431
 11
8.24847309
 21
7.5941228581
  0
LINE
  5
503
100
AcDbEntity
  8
0
100
AcDbLine
 62
7
  6
CONTINUOUS
 10
8.24847309
 20
7.6456976612
 11
8.24847309
 21
7.6531779762
  0
LINE
  5
504
100
AcDbEntity
  8
0
100
AcDbLine
 62
7
  6
CONTINUOUS
 10
8.24847309
 20
7.7047527793
 11
8.24847309
 21
7.7122330943
  0
LINE
  5
505
100
AcDbEntity
  8
0
100
AcDbLine
 62
7
  6
CONTINUOUS
 10
8.24847309
 20
7.7638078975
 11
8.24847309
 21
7.7712882124
  0
LINE
  5
506
100
AcDbEntity
  8
0
100
AcDbLine
 62
7
  6
CONTINUOUS
 10
8.5476856884
 20
8.00614588
 11
8.5476856884
 21
8.2797679273
  0
LINE
  5
507
100
AcDbEntity
  8
AXIS
100
AcDbLine
 62
7
  6
CONTINUOUS
 10
8.6461108853
 20
8.8762246202
 11
8.6461108853
 21
9.9470907619
  0
LINE
  5
508
100
AcDbEntity
  8
AXIS
100
AcDbLine
 62
7
  6
CONTINUOUS
 10
8.6461108853
 20
10.4785868249
 11
8.6461108853
 21
11.5494529667
  0
LINE
  5
509
100
AcDbEntity
  8
AXIS
100
AcDbLine
 62
7
  6
CONTINUOUS
 10
8.6461108853
 20
12.0809490296
 11
8.6461108853
 21
13.1518151714
  0
LINE
  5
50A
100
AcDbEntity
  8
AXIS
100
AcDbLine
 62
7
  6
CONTINUOUS
 10
8.6461108853
 20
13.6833112344
 11
8.6461108853
 21
14.7368223583
  0
LINE
  5
50B
100
AcDbEntity
  8
0
100
AcDbLine
 62
7
  6
CONTINUOUS
 10
8.6461108853
 20
14.7364608407
 11
8.6461108853
 21
15.1695317068
  0
LINE
  5
50C
100
AcDbEntity
  8
0
100
AcDbLine
 62
7
  6
CONTINUOUS
 10
8.6480793892
 20
8.3447285572
 11
8.6480793892
 21
8.8762246202
  0
LINE
  5
50D
100
AcDbEntity
  8
AXIS
100
AcDbLine
 62
7
  6
CONTINUOUS
 10
8.6480793892
 20
9.9470907619
 11
8.6480793892
 21
10.4785868249
  0
LINE
  5
50E
100
AcDbEntity
  8
AXIS
100
AcDbLine
 62
7
  6
CONTINUOUS
 10
8.6480793892
 20
11.5494529667
 11
8.6480793892
 21
12.0809490296
  0
LINE
  5
50F
100
AcDbEntity
  8
AXIS
100
AcDbLine
 62
7
  6
CONTINUOUS
 10
8.6480793892
 20
13.1518151714
 11
8.6480793892
 21
13.6833112344
  0
LINE
  5
510
100
AcDbEntity
  8
0
100
AcDbLine
 62
7
  6
CONTINUOUS
 10
8.655953405
 20
8.2994529667
 11
8.655953405
 21
8.3433545731
  0
LINE
  5
511
100
AcDbEntity
  8
AXIS
100
AcDbLine
 62
7
  6
CONTINUOUS
 10
6.6756384443
 20
11.5494529667
 11
8.6480793892
 21
11.5494529667
  0
LINE
  5
512
100
AcDbEntity
  8
0
100
AcDbLine
 62
7
  6
CONTINUOUS
 10
7.0752447436
 20
7.8008157715
 11
7.0754705016
 21
7.801076538
  0
LINE
  5
513
100
AcDbEntity
  8
0
100
AcDbLine
 62
7
  6
CONTINUOUS
 10
7.0752447436
 20
7.7417606534
 11
7.0754705016
 21
7.7420214199
  0
LINE
  5
514
100
AcDbEntity
  8
0
100
AcDbLine
 62
7
  6
CONTINUOUS
 10
7.0752447436
 20
7.6827055352
 11
7.0754705016
 21
7.6829663018
  0
LINE
  5
515
100
AcDbEntity
  8
0
100
AcDbLine
 62
7
  6
CONTINUOUS
 10
7.0752447436
 20
7.6236504171
 11
7.0754705016
 21
7.6239111837
  0
LINE
  5
516
100
AcDbEntity
  8
0
100
AcDbLine
 62
7
  6
CONTINUOUS
 10
7.0752447436
 20
7.564595299
 11
7.0754705016
 21
7.5648560656
  0
LINE
  5
517
100
AcDbEntity
  8
0
100
AcDbLine
 62
7
  6
CONTINUOUS
 10
7.0752447436
 20
7.5055401809
 11
7.0754705016
 21
7.5058009475
  0
LINE
  5
518
100
AcDbEntity
  8
0
100
AcDbLine
 62
7
  6
CONTINUOUS
 10
7.0752447436
 20
7.4464850628
 11
7.0754705016
 21
7.4467458294
  0
LINE
  5
519
100
AcDbEntity
  8
0
100
AcDbLine
 62
7
  6
CONTINUOUS
 10
7.0752447436
 20
7.3874299447
 11
7.0754705016
 21
7.3876907113
  0
LINE
  5
51A
100
AcDbEntity
  8
0
100
AcDbLine
 62
7
  6
CONTINUOUS
 10
7.0752447436
 20
7.3283748266
 11
7.0754705016
 21
7.3286355932
  0
LINE
  5
51B
100
AcDbEntity
  8
AXIS
100
AcDbLine
 62
7
  6
CONTINUOUS
 10
6.6756384443
 20
12.0809490296
 11
8.6480793892
 21
12.0809490296
  0
LINE
  5
51C
100
AcDbEntity
  8
0
100
AcDbLine
 62
7
  6
CONTINUOUS
 10
7.0752447436
 20
7.2693197085
 11
7.0754705016
 21
7.2695804751
  0
LINE
  5
51D
100
AcDbEntity
  8
0
100
AcDbLine
 62
7
  6
CONTINUOUS
 10
7.0752447436
 20
7.2102645904
 11
7.0754705016
 21
7.2105253569
  0
LINE
  5
51E
100
AcDbEntity
  8
0
100
AcDbLine
 62
7
  6
CONTINUOUS
 10
8.248247332
 20
7.7635471309
 11
8.24847309
 21
7.7638078975
  0
LINE
  5
51F
100
AcDbEntity
  8
0
100
AcDbLine
 62
7
  6
CONTINUOUS
 10
8.248247332
 20
7.7044920128
 11
8.24847309
 21
7.7047527793
  0
LINE
  5
520
100
AcDbEntity
  8
0
100
AcDbLine
 62
7
  6
CONTINUOUS
 10
8.248247332
 20
7.6454368947
 11
8.24847309
 21
7.6456976612
  0
LINE
  5
521
100
AcDbEntity
  8
0
100
AcDbLine
 62
7
  6
CONTINUOUS
 10
7.110918067
 20
7.8215505852
 11
7.0754705016
 21
7.801076538
  0
LINE
  5
522
100
AcDbEntity
  8
0
100
AcDbLine
 62
7
  6
CONTINUOUS
 10
7.110918067
 20
7.7624954671
 11
7.0754705016
 21
7.7420214199
  0
LINE
  5
523
100
AcDbEntity
  8
0
100
AcDbLine
 62
7
  6
CONTINUOUS
 10
7.110918067
 20
7.7034403489
 11
7.0754705016
 21
7.6829663018
  0
LINE
  5
524
100
AcDbEntity
  8
0
100
AcDbLine
 62
7
  6
CONTINUOUS
 10
7.110918067
 20
7.6443852308
 11
7.0754705016
 21
7.6239111837
  0
LINE
  5
525
100
AcDbEntity
  8
0
100
AcDbLine
 62
7
  6
CONTINUOUS
 10
7.1109180671
 20
7.5853301127
 11
7.0754705016
 21
7.5648560656
  0
LINE
  5
526
100
AcDbEntity
  8
0
100
AcDbLine
 62
7
  6
CONTINUOUS
 10
7.1109180671
 20
7.5262749946
 11
7.0754705016
 21
7.5058009475
  0
LWPOLYLINE
  5
527
100
AcDbEntity
  8
0
100
AcDbPolyline
 62
7
  6
CONTINUOUS
 90
9
 70
0
 10
7.1106778144
 20
7.7728781635
 10
7.1124969713
 20
7.7736419995
 10
7.126978493
 20
7.7751696881
 10
7.1555600981
 20
7.7766973865
 10
7.1974874069
 20
7.7782250567
 10
7.2516541254
 20
7.7797526891
 10
7.3166328188
 20
7.7812803095
 10
7.3907112064
 20
7.7828079316
 10
7.4719345289
 20
7.7843355154
  0
LWPOLYLINE
  5
528
100
AcDbEntity
  8
0
100
AcDbPolyline
 62
7
  6
CONTINUOUS
 90
9
 70
0
 10
7.0752447436
 20
7.7933354565
 10
7.0770446125
 20
7.7940719144
 10
7.0913773625
 20
7.7955448303
 10
7.1196915925
 20
7.7970177461
 10
7.1612933714
 20
7.798490662
 10
7.2151631144
 20
7.7999635778
 10
7.2799805706
 20
7.8014364937
 10
7.3541571802
 20
7.8029094095
 10
7.4358750078
 20
7.8043823253
  0
LINE
  5
529
100
AcDbEntity
  8
0
100
AcDbLine
 62
7
  6
CONTINUOUS
 10
8.248247332
 20
7.5863817765
 11
8.24847309
 21
7.5866425431
  0
LINE
  5
52A
100
AcDbEntity
  8
0
100
AcDbLine
 62
7
  6
CONTINUOUS
 10
8.248247332
 20
7.5273266584
 11
8.24847309
 21
7.527587425
  0
LINE
  5
52B
100
AcDbEntity
  8
0
100
AcDbLine
 62
7
  6
CONTINUOUS
 10
8.248247332
 20
7.4682715403
 11
8.24847309
 21
7.4685323069
  0
LINE
  5
52C
100
AcDbEntity
  8
0
100
AcDbLine
 62
7
  6
CONTINUOUS
 10
8.248247332
 20
7.4092164222
 11
8.24847309
 21
7.4094771888
  0
LINE
  5
52D
100
AcDbEntity
  8
0
100
AcDbLine
 62
7
  6
CONTINUOUS
 10
8.248247332
 20
7.3501613041
 11
8.24847309
 21
7.3504220707
  0
LINE
  5
52E
100
AcDbEntity
  8
0
100
AcDbLine
 62
7
  6
CONTINUOUS
 10
8.248247332
 20
7.291106186
 11
8.24847309
 21
7.2913669526
  0
LINE
  5
52F
100
AcDbEntity
  8
0
100
AcDbLine
 62
7
  6
CONTINUOUS
 10
8.248247332
 20
7.2320510679
 11
8.24847309
 21
7.2323118345
  0
LINE
  5
530
100
AcDbEntity
  8
0
100
AcDbLine
 62
7
  6
CONTINUOUS
 10
7.1109180671
 20
7.4672198765
 11
7.0754705016
 21
7.4467458294
  0
LINE
  5
531
100
AcDbEntity
  8
0
100
AcDbLine
 62
7
  6
CONTINUOUS
 10
7.1109180671
 20
7.4081647584
 11
7.0754705016
 21
7.3876907113
  0
LINE
  5
532
100
AcDbEntity
  8
0
100
AcDbLine
 62
7
  6
CONTINUOUS
 10
7.1109180671
 20
7.3491096403
 11
7.0754705016
 21
7.3286355932
  0
LINE
  5
533
100
AcDbEntity
  8
0
100
AcDbLine
 62
7
  6
CONTINUOUS
 10
7.1109180671
 20
7.2900545222
 11
7.0754705016
 21
7.2695804751
  0
LINE
  5
534
100
AcDbEntity
  8
0
100
AcDbLine
 62
7
  6
CONTINUOUS
 10
7.1109180671
 20
7.2309994041
 11
7.0754705016
 21
7.2105253569
  0
LWPOLYLINE
  5
535
100
AcDbEntity
  8
0
100
AcDbPolyline
 62
7
  6
CONTINUOUS
 90
9
 70
0
 10
7.1106778144
 20
7.7138230454
 10
7.1124969743
 20
7.714586882
 10
7.1269785165
 20
7.7161145717
 10
7.1555601443
 20
7.7176422704
 10
7.1974874433
 20
7.7191699398
 10
7.2516541643
 20
7.7206975719
 10
7.3166329291
 20
7.7222251938
 10
7.3907112555
 20
7.7237528144
 10
7.4719347821
 20
7.7252804019
  0
LWPOLYLINE
  5
536
100
AcDbEntity
  8
0
100
AcDbPolyline
 62
7
  6
CONTINUOUS
 90
7
 70
0
 10
7.1106778144
 20
7.6547679273
 10
7.1124969766
 20
7.6555317644
 10
7.1269785355
 20
7.6570594549
 10
7.1555601843
 20
7.658587154
 10
7.1974874919
 20
7.6601148232
 10
7.251654201
 20
7.6616424548
 10
7.3166329814
 20
7.6631700769
  0
LWPOLYLINE
  5
537
100
AcDbEntity
  8
0
100
AcDbPolyline
 62
7
  6
CONTINUOUS
 90
7
 70
0
 10
7.1106778144
 20
7.5957128092
 10
7.1124969791
 20
7.5964766468
 10
7.1269785553
 20
7.5980043382
 10
7.1555602251
 20
7.5995320377
 10
7.1974875411
 20
7.6010597067
 10
7.2516542401
 20
7.6025873377
 10
7.3166330375
 20
7.60411496
  0
LWPOLYLINE
  5
538
100
AcDbEntity
  8
0
100
AcDbPolyline
 62
7
  6
CONTINUOUS
 90
9
 70
0
 10
7.1106778144
 20
7.5366576911
 10
7.1124969733
 20
7.5374215275
 10
7.1269785073
 20
7.5389492167
 10
7.1555601246
 20
7.5404769152
 10
7.197487419
 20
7.5420045847
 10
7.2516541467
 20
7.5435322172
 10
7.3166329042
 20
7.545059839
 10
7.3907112129
 20
7.5465874593
 10
7.4719347427
 20
7.5481150469
  0
LWPOLYLINE
  5
539
100
AcDbEntity
  8
0
100
AcDbPolyline
 62
7
  6
CONTINUOUS
 90
6
 70
0
 10
7.1106778144
 20
7.477602573
 10
7.1124969755
 20
7.4783664098
 10
7.1269785259
 20
7.4798940999
 10
7.1555601642
 20
7.4814217988
 10
7.1974874676
 20
7.4829494681
 10
7.2516541824
 20
7.4844771
  0
LWPOLYLINE
  5
53A
100
AcDbEntity
  8
0
100
AcDbPolyline
 62
7
  6
CONTINUOUS
 90
7
 70
0
 10
7.1106778144
 20
7.4185474548
 10
7.1124969778
 20
7.4193112922
 10
7.1269785452
 20
7.4208389832
 10
7.1555602045
 20
7.4223666825
 10
7.1974875163
 20
7.4238943515
 10
7.2516542201
 20
7.4254219828
 10
7.3166330089
 20
7.426949605
  0
LWPOLYLINE
  5
53B
100
AcDbEntity
  8
0
100
AcDbPolyline
 62
7
  6
CONTINUOUS
 90
9
 70
0
 10
7.0752447436
 20
7.7342803384
 10
7.0770446125
 20
7.7350167963
 10
7.0913773625
 20
7.7364897122
 10
7.1196915925
 20
7.737962628
 10
7.1612933714
 20
7.7394355439
 10
7.2151631144
 20
7.7409084597
 10
7.2799805706
 20
7.7423813755
 10
7.3541571802
 20
7.7438542914
 10
7.4358750078
 20
7.7453272072
  0
LWPOLYLINE
  5
53C
100
AcDbEntity
  8
0
100
AcDbPolyline
 62
7
  6
CONTINUOUS
 90
8
 70
0
 10
7.0752447436
 20
7.6752252203
 10
7.0770446125
 20
7.6759616782
 10
7.0913773625
 20
7.6774345941
 10
7.1196915925
 20
7.6789075099
 10
7.1612933714
 20
7.6803804257
 10
7.2151631144
 20
7.6818533416
 10
7.2799805706
 20
7.6833262574
 10
7.3541571802
 20
7.6847991733
  0
LWPOLYLINE
  5
53D
100
AcDbEntity
  8
0
100
AcDbPolyline
 62
7
  6
CONTINUOUS
 90
8
 70
0
 10
7.0752447436
 20
7.6161701022
 10
7.0770446125
 20
7.6169065601
 10
7.0913773625
 20
7.6183794759
 10
7.1196915925
 20
7.6198523918
 10
7.1612933714
 20
7.6213253076
 10
7.2151631144
 20
7.6227982235
 10
7.2799805706
 20
7.6242711393
 10
7.3541571802
 20
7.6257440552
  0
LWPOLYLINE
  5
53E
100
AcDbEntity
  8
0
100
AcDbPolyline
 62
7
  6
CONTINUOUS
 90
6
 70
0
 10
7.0752447436
 20
7.5571149841
 10
7.0770446125
 20
7.557851442
 10
7.0913773625
 20
7.5593243578
 10
7.1196915925
 20
7.5607972737
 10
7.1612933714
 20
7.5622701895
 10
7.2151631144
 20
7.5637431054
  0
LWPOLYLINE
  5
53F
100
AcDbEntity
  8
0
100
AcDbPolyline
 62
7
  6
CONTINUOUS
 90
9
 70
0
 10
7.0752447436
 20
7.498059866
 10
7.0770446125
 20
7.4987963239
 10
7.0913773625
 20
7.5002692397
 10
7.1196915925
 20
7.5017421556
 10
7.1612933714
 20
7.5032150714
 10
7.2151631144
 20
7.5046879873
 10
7.2799805706
 20
7.5061609031
 10
7.3541571802
 20
7.5076338189
 10
7.4358750078
 20
7.5091067348
  0
LWPOLYLINE
  5
540
100
AcDbEntity
  8
0
100
AcDbPolyline
 62
7
  6
CONTINUOUS
 90
7
 70
0
 10
7.0752447436
 20
7.4390047478
 10
7.0770446125
 20
7.4397412058
 10
7.0913773625
 20
7.4412141216
 10
7.1196915925
 20
7.4426870375
 10
7.1612933714
 20
7.4441599533
 10
7.2151631144
 20
7.4456328691
 10
7.2799805706
 20
7.447105785
  0
LWPOLYLINE
  5
541
100
AcDbEntity
  8
0
100
AcDbPolyline
 62
7
  6
CONTINUOUS
 90
9
 70
0
 10
7.0754705016
 20
7.801076538
 10
7.0770446125
 20
7.8015522294
 10
7.0913773625
 20
7.8030251452
 10
7.1196915925
 20
7.8044980611
 10
7.1612933714
 20
7.8059709769
 10
7.2151631144
 20
7.8074438928
 10
7.2799805706
 20
7.8089168086
 10
7.3541571802
 20
7.8103897245
 10
7.4358750078
 20
7.8118626403
  0
LWPOLYLINE
  5
542
100
AcDbEntity
  8
0
100
AcDbPolyline
 62
7
  6
CONTINUOUS
 90
9
 70
0
 10
7.0754705016
 20
7.7420214199
 10
7.0770446125
 20
7.7424971113
 10
7.0913773625
 20
7.7439700271
 10
7.1196915925
 20
7.745442943
 10
7.1612933714
 20
7.7469158588
 10
7.2151631144
 20
7.7483887747
 10
7.2799805706
 20
7.7498616905
 10
7.3541571802
 20
7.7513346064
 10
7.4358750078
 20
7.7528075222
  0
LWPOLYLINE
  5
543
100
AcDbEntity
  8
0
100
AcDbPolyline
 62
7
  6
CONTINUOUS
 90
9
 70
0
 10
7.0754705016
 20
7.6829663018
 10
7.0770446125
 20
7.6834419932
 10
7.0913773625
 20
7.684914909
 10
7.1196915925
 20
7.6863878249
 10
7.1612933714
 20
7.6878607407
 10
7.2151631144
 20
7.6893336566
 10
7.2799805706
 20
7.6908065724
 10
7.3541571802
 20
7.6922794882
 10
7.4358750078
 20
7.6937524041
  0
LWPOLYLINE
  5
544
100
AcDbEntity
  8
0
100
AcDbPolyline
 62
7
  6
CONTINUOUS
 90
9
 70
0
 10
7.0754705016
 20
7.6239111837
 10
7.0770446125
 20
7.6243868751
 10
7.0913773625
 20
7.6258597909
 10
7.1196915925
 20
7.6273327068
 10
7.1612933714
 20
7.6288056226
 10
7.2151631144
 20
7.6302785384
 10
7.2799805706
 20
7.6317514543
 10
7.3541571802
 20
7.6332243701
 10
7.4358750078
 20
7.634697286
  0
LWPOLYLINE
  5
545
100
AcDbEntity
  8
0
100
AcDbPolyline
 62
7
  6
CONTINUOUS
 90
9
 70
0
 10
7.0754705016
 20
7.5648560656
 10
7.0770446125
 20
7.565331757
 10
7.0913773625
 20
7.5668046728
 10
7.1196915925
 20
7.5682775886
 10
7.1612933714
 20
7.5697505045
 10
7.2151631144
 20
7.5712234203
 10
7.2799805706
 20
7.5726963362
 10
7.3541571802
 20
7.574169252
 10
7.4358750078
 20
7.5756421679
  0
LINE
  5
546
100
AcDbEntity
  8
AXIS
100
AcDbLine
 62
7
  6
CONTINUOUS
 10
6.6756384443
 20
13.1518151714
 11
8.6480793892
 21
13.1518151714
  0
LWPOLYLINE
  5
547
100
AcDbEntity
  8
0
100
AcDbPolyline
 62
7
  6
CONTINUOUS
 90
6
 70
0
 10
7.7834962495
 20
7.1281931241
 10
7.7857743102
 20
7.1297346512
 10
7.7878293786
 20
7.1342083369
 10
7.78946029
 20
7.1411762658
 10
7.7905073996
 20
7.1499563684
 10
7.790868209
 20
7.1596891871
  0
LINE
  5
548
100
AcDbEntity
  8
0
100
AcDbLine
 62
7
  6
CONTINUOUS
 10
8.2127997665
 20
7.7430730838
 11
8.248247332
 21
7.7635471309
  0
LINE
  5
549
100
AcDbEntity
  8
0
100
AcDbLine
 62
7
  6
CONTINUOUS
 10
8.2127997665
 20
7.6840179656
 11
8.248247332
 21
7.7044920128
  0
LINE
  5
54A
100
AcDbEntity
  8
0
100
AcDbLine
 62
7
  6
CONTINUOUS
 10
8.2127997665
 20
7.6249628475
 11
8.248247332
 21
7.6454368947
  0
LINE
  5
54B
100
AcDbEntity
  8
0
100
AcDbLine
 62
7
  6
CONTINUOUS
 10
8.2127997665
 20
7.5659077294
 11
8.248247332
 21
7.5863817765
  0
LINE
  5
54C
100
AcDbEntity
  8
0
100
AcDbLine
 62
7
  6
CONTINUOUS
 10
8.2127997665
 20
7.5068526113
 11
8.248247332
 21
7.5273266584
  0
LINE
  5
54D
100
AcDbEntity
  8
0
100
AcDbLine
 62
7
  6
CONTINUOUS
 10
8.2127997665
 20
7.4477974932
 11
8.248247332
 21
7.4682715403
  0
LINE
  5
54E
100
AcDbEntity
  8
0
100
AcDbLine
 62
7
  6
CONTINUOUS
 10
8.2127997665
 20
7.3887423751
 11
8.248247332
 21
7.4092164222
  0
LWPOLYLINE
  5
54F
100
AcDbEntity
  8
0
100
AcDbPolyline
 62
7
  6
CONTINUOUS
 90
10
 70
0
 10
8.2130400191
 20
7.7917455054
 10
8.2113424973
 20
7.7910076611
 10
8.1978245669
 20
7.7895319413
 10
8.1711210305
 20
7.7880562174
 10
8.1318898656
 20
7.7865805264
 10
8.0810962402
 20
7.785104849
 10
8.0199887609
 20
7.7836291578
 10
7.9500711126
 20
7.7821534665
 10
7.8730656858
 20
7.780677819
 10
7.790868209
 20
7.7792022316
  0
LWPOLYLINE
  5
550
100
AcDbEntity
  8
0
100
AcDbPolyline
 62
7
  6
CONTINUOUS
 90
10
 70
0
 10
7.1106778144
 20
7.1823269824
 10
7.112375389
 20
7.1830648382
 10
7.1258935578
 20
7.1845405678
 10
7.1525976107
 20
7.1860163064
 10
7.1918297098
 20
7.1874920183
 10
7.2426236694
 20
7.1889676933
 10
7.3037302875
 20
7.1904433573
 10
7.3736467637
 20
7.1919190222
 10
7.4506517188
 20
7.1933946609
 10
7.5328496245
 20
7.1948702562
  0
LWPOLYLINE
  5
551
100
AcDbEntity
  8
0
100
AcDbPolyline
 62
7
  6
CONTINUOUS
 90
7
 70
0
 10
7.1106778144
 20
7.3594923367
 10
7.1124969713
 20
7.3602561727
 10
7.126978493
 20
7.3617838614
 10
7.1555600981
 20
7.3633115598
 10
7.1974874069
 20
7.36483923
 10
7.2516541254
 20
7.3663668623
 10
7.3166328188
 20
7.3678944828
  0
LWPOLYLINE
  5
552
100
AcDbEntity
  8
0
100
AcDbPolyline
 62
7
  6
CONTINUOUS
 90
6
 70
0
 10
7.1106778144
 20
7.3004372186
 10
7.1124969743
 20
7.3012010552
 10
7.1269785165
 20
7.3027287449
 10
7.1555601443
 20
7.3042564436
 10
7.1974874433
 20
7.305784113
 10
7.2516541643
 20
7.3073117452
  0
LWPOLYLINE
  5
553
100
AcDbEntity
  8
0
100
AcDbPolyline
 62
7
  6
CONTINUOUS
 90
8
 70
0
 10
8.2130400191
 20
7.7326903873
 10
8.2112208591
 20
7.7319265507
 10
8.1967395268
 20
7.7303988758
 10
8.1681588697
 20
7.7288712132
 10
8.12623272
 20
7.7273435667
 10
8.072065939
 20
7.7258159187
 10
8.0070860618
 20
7.7242882642
 10
7.9330074449
 20
7.7227606352
  0
LWPOLYLINE
  5
554
100
AcDbEntity
  8
0
100
AcDbPolyline
 62
7
  6
CONTINUOUS
 90
9
 70
0
 10
7.1106778144
 20
7.2413821005
 10
7.1124969766
 20
7.2421459376
 10
7.1269785355
 20
7.2436736281
 10
7.1555601843
 20
7.2452013273
 10
7.1974874919
 20
7.2467289964
 10
7.251654201
 20
7.248256628
 10
7.3166329814
 20
7.2497842501
 10
7.3907113428
 20
7.2513118713
 10
7.4719348627
 20
7.2528394585
  0
LWPOLYLINE
  5
555
100
AcDbEntity
  8
0
100
AcDbPolyline
 62
7
  6
CONTINUOUS
 90
7
 70
0
 10
8.2130400191
 20
7.6736352692
 10
8.211220871
 20
7.6728714351
 10
8.1967396057
 20
7.6713437633
 10
8.1681585518
 20
7.6698160814
 10
8.1262316309
 20
7.6682884141
 10
8.0720645698
 20
7.6667607656
 10
8.0070857
 20
7.6652331382
  0
LWPOLYLINE
  5
556
100
AcDbEntity
  8
0
100
AcDbPolyline
 62
7
  6
CONTINUOUS
 90
7
 70
0
 10
8.2130400191
 20
7.6145801511
 10
8.2112208641
 20
7.6138163155
 10
8.1967393602
 20
7.6122886279
 10
8.1681578476
 20
7.6107609329
 10
8.1262308197
 20
7.6092332703
 10
8.0720642202
 20
7.6077056386
 10
8.007084935
 20
7.6061780033
  0
LWPOLYLINE
  5
557
100
AcDbEntity
  8
0
100
AcDbPolyline
 62
7
  6
CONTINUOUS
 90
9
 70
0
 10
8.2130400191
 20
7.555525033
 10
8.2112208748
 20
7.5547611996
 10
8.196739563
 20
7.5532335241
 10
8.1681588541
 20
7.5517058582
 10
8.1262330222
 20
7.5501782219
 10
8.0720667383
 20
7.5486505848
 10
8.0070869354
 20
7.547122929
 10
7.9330074643
 20
7.5455952813
 10
7.8517837048
 20
7.5440676883
  0
LWPOLYLINE
  5
558
100
AcDbEntity
  8
0
100
AcDbPolyline
 62
7
  6
CONTINUOUS
 90
7
 70
0
 10
8.2130400191
 20
7.4964699149
 10
8.2112208572
 20
7.4957060778
 10
8.1967395961
 20
7.4941784083
 10
8.1681588158
 20
7.4926507385
 10
8.126232243
 20
7.4911230791
 10
8.0720651951
 20
7.4895954273
 10
8.0070856714
 20
7.4880677832
  0
LWPOLYLINE
  5
559
100
AcDbEntity
  8
0
100
AcDbPolyline
 62
7
  6
CONTINUOUS
 90
8
 70
0
 10
7.0752447436
 20
7.3799496297
 10
7.0770446125
 20
7.3806860877
 10
7.0913773625
 20
7.3821590035
 10
7.1196915925
 20
7.3836319193
 10
7.1612933714
 20
7.3851048352
 10
7.2151631144
 20
7.386577751
 10
7.2799805706
 20
7.3880506669
 10
7.3541571802
 20
7.3895235827
  0
LWPOLYLINE
  5
55A
100
AcDbEntity
  8
0
100
AcDbPolyline
 62
7
  6
CONTINUOUS
 90
8
 70
0
 10
7.0752447436
 20
7.3208945116
 10
7.0770446125
 20
7.3216309695
 10
7.0913773625
 20
7.3231038854
 10
7.1196915925
 20
7.3245768012
 10
7.1612933714
 20
7.3260497171
 10
7.2151631144
 20
7.3275226329
 10
7.2799805706
 20
7.3289955488
 10
7.3541571802
 20
7.3304684646
  0
LWPOLYLINE
  5
55B
100
AcDbEntity
  8
0
100
AcDbPolyline
 62
7
  6
CONTINUOUS
 90
9
 70
0
 10
7.0752447436
 20
7.2618393935
 10
7.0770446125
 20
7.2625758514
 10
7.0913773625
 20
7.2640487673
 10
7.1196915925
 20
7.2655216831
 10
7.1612933714
 20
7.266994599
 10
7.2151631144
 20
7.2684675148
 10
7.2799805706
 20
7.2699404307
 10
7.3541571802
 20
7.2714133465
 10
7.4358750078
 20
7.2728862624
  0
LWPOLYLINE
  5
55C
100
AcDbEntity
  8
0
100
AcDbPolyline
 62
7
  6
CONTINUOUS
 90
9
 70
0
 10
7.0752447436
 20
7.2027842754
 10
7.0770446125
 20
7.2035207333
 10
7.0913773625
 20
7.2049936492
 10
7.1196915925
 20
7.206466565
 10
7.1612933714
 20
7.2079394809
 10
7.2151631144
 20
7.2094123967
 10
7.2799805706
 20
7.2108853126
 10
7.3541571802
 20
7.2123582284
 10
7.4358750078
 20
7.2138311442
  0
LWPOLYLINE
  5
55D
100
AcDbEntity
  8
0
100
AcDbPolyline
 62
7
  6
CONTINUOUS
 90
9
 70
0
 10
7.0754705016
 20
7.5058009475
 10
7.0770446125
 20
7.5062766388
 10
7.0913773625
 20
7.5077495547
 10
7.1196915925
 20
7.5092224705
 10
7.1612933714
 20
7.5106953864
 10
7.2151631144
 20
7.5121683022
 10
7.2799805706
 20
7.5136412181
 10
7.3541571802
 20
7.5151141339
 10
7.4358750078
 20
7.5165870498
  0
LWPOLYLINE
  5
55E
100
AcDbEntity
  8
0
100
AcDbPolyline
 62
7
  6
CONTINUOUS
 90
9
 70
0
 10
7.0754705016
 20
7.4467458294
 10
7.0770446125
 20
7.4472215207
 10
7.0913773625
 20
7.4486944366
 10
7.1196915925
 20
7.4501673524
 10
7.1612933714
 20
7.4516402683
 10
7.2151631144
 20
7.4531131841
 10
7.2799805706
 20
7.4545861
 10
7.3541571802
 20
7.4560590158
 10
7.4358750078
 20
7.4575319316
  0
LWPOLYLINE
  5
55F
100
AcDbEntity
  8
0
100
AcDbPolyline
 62
7
  6
CONTINUOUS
 90
9
 70
0
 10
7.0754705016
 20
7.3876907113
 10
7.0770446125
 20
7.3881664026
 10
7.0913773625
 20
7.3896393185
 10
7.1196915925
 20
7.3911122343
 10
7.1612933714
 20
7.3925851502
 10
7.2151631144
 20
7.394058066
 10
7.2799805706
 20
7.3955309818
 10
7.3541571802
 20
7.3970038977
 10
7.4358750078
 20
7.3984768135
  0
LWPOLYLINE
  5
560
100
AcDbEntity
  8
0
100
AcDbPolyline
 62
7
  6
CONTINUOUS
 90
9
 70
0
 10
7.0754705016
 20
7.3286355932
 10
7.0770446125
 20
7.3291112845
 10
7.0913773625
 20
7.3305842004
 10
7.1196915925
 20
7.3320571162
 10
7.1612933714
 20
7.333530032
 10
7.2151631144
 20
7.3350029479
 10
7.2799805706
 20
7.3364758637
 10
7.3541571802
 20
7.3379487796
 10
7.4358750078
 20
7.3394216954
  0
LWPOLYLINE
  5
561
100
AcDbEntity
  8
0
100
AcDbPolyline
 62
7
  6
CONTINUOUS
 90
9
 70
0
 10
7.0754705016
 20
7.2695804751
 10
7.0770446125
 20
7.2700561664
 10
7.0913773625
 20
7.2715290822
 10
7.1196915925
 20
7.2730019981
 10
7.1612933714
 20
7.2744749139
 10
7.2151631144
 20
7.2759478298
 10
7.2799805706
 20
7.2774207456
 10
7.3541571802
 20
7.2788936615
 10
7.4358750078
 20
7.2803665773
  0
LWPOLYLINE
  5
562
100
AcDbEntity
  8
0
100
AcDbPolyline
 62
7
  6
CONTINUOUS
 90
9
 70
0
 10
7.0754705016
 20
7.2105253569
 10
7.0770446125
 20
7.2110010483
 10
7.0913773625
 20
7.2124739641
 10
7.1196915925
 20
7.21394688
 10
7.1612933714
 20
7.2154197958
 10
7.2151631144
 20
7.2168927117
 10
7.2799805706
 20
7.2183656275
 10
7.3541571802
 20
7.2198385434
 10
7.4358750078
 20
7.2213114592
  0
LINE
  5
563
100
AcDbEntity
  8
0
100
AcDbLine
 62
7
  6
CONTINUOUS
 10
8.2127997665
 20
7.329687257
 11
8.248247332
 21
7.3501613041
  0
LINE
  5
564
100
AcDbEntity
  8
0
100
AcDbLine
 62
7
  6
CONTINUOUS
 10
8.2127997665
 20
7.2706321389
 11
8.248247332
 21
7.291106186
  0
LINE
  5
565
100
AcDbEntity
  8
0
100
AcDbLine
 62
7
  6
CONTINUOUS
 10
8.2127997665
 20
7.2115770208
 11
8.248247332
 21
7.2320510679
  0
LWPOLYLINE
  5
566
100
AcDbEntity
  8
0
100
AcDbPolyline
 62
7
  6
CONTINUOUS
 90
7
 70
0
 10
8.2130400191
 20
7.4374147968
 10
8.2112208768
 20
7.4366509638
 10
8.196739484
 20
7.4351232823
 10
8.1681580789
 20
7.4335955886
 10
8.1262308961
 20
7.4320679184
 10
8.0720641196
 20
7.4305402817
 10
8.0070854896
 20
7.4290126611
  0
LWPOLYLINE
  5
567
100
AcDbEntity
  8
0
100
AcDbPolyline
 62
7
  6
CONTINUOUS
 90
7
 70
0
 10
8.2130400191
 20
7.3783596786
 10
8.211220877
 20
7.3775958458
 10
8.1967394942
 20
7.3760681649
 10
8.1681583277
 20
7.3745404812
 10
8.1262319291
 20
7.373012833
 10
8.0720653898
 20
7.371485196
 10
8.0070855102
 20
7.3699575435
  0
LWPOLYLINE
  5
568
100
AcDbEntity
  8
0
100
AcDbPolyline
 62
7
  6
CONTINUOUS
 90
9
 70
0
 10
8.2130400191
 20
7.3193045605
 10
8.2112208591
 20
7.3185407239
 10
8.1967395268
 20
7.3170130491
 10
8.1681588697
 20
7.3154853864
 10
8.12623272
 20
7.3139577399
 10
8.072065939
 20
7.3124300919
 10
8.0070860618
 20
7.3109024374
 10
7.9330074449
 20
7.3093748085
 10
7.8517844687
 20
7.3078472298
  0
LWPOLYLINE
  5
569
100
AcDbEntity
  8
0
100
AcDbPolyline
 62
7
  6
CONTINUOUS
 90
9
 70
0
 10
8.2130400191
 20
7.2602494424
 10
8.211220871
 20
7.2594856083
 10
8.1967396057
 20
7.2579579365
 10
8.1681585518
 20
7.2564302546
 10
8.1262316309
 20
7.2549025873
 10
8.0720645698
 20
7.2533749389
 10
8.0070857
 20
7.2518473114
 10
7.9330079076
 20
7.2503196994
 10
7.8517844323
 20
7.248792111
  0
LINE
  5
56A
100
AcDbEntity
  8
AXIS
100
AcDbLine
 62
7
  6
CONTINUOUS
 10
6.6756384443
 20
13.6833112344
 11
8.6480793892
 21
13.6833112344
  0
LINE
  5
56B
100
AcDbEntity
  8
0
100
AcDbLine
 62
7
  6
CONTINUOUS
 10
8.6461108853
 20
14.7364608407
 11
6.6579219089
 21
14.7364608407
  0
LINE
  5
56C
100
AcDbEntity
  8
AXIS
100
AcDbLine
 62
7
  6
CONTINUOUS
 10
6.6579409208
 20
14.7368223583
 11
7.6618589168
 21
14.7368223583
  0
LINE
  5
56D
100
AcDbEntity
  8
0
100
AcDbLine
 62
7
  6
CONTINUOUS
 10
7.6618589168
 20
14.7368223583
 11
8.6461108853
 21
14.7368223583
  0
LINE
  5
56E
100
AcDbEntity
  8
0
100
AcDbLine
 62
7
  6
CONTINUOUS
 10
6.6776069483
 20
15.1695317068
 11
8.6461108853
 21
15.1695317068
  0
LINE
  5
56F
100
AcDbEntity
  8
0
100
AcDbLine
 62
7
  6
CONTINUOUS
 10
6.7760321451
 20
15.2679569037
 11
8.5476856884
 21
15.2679569037
  0
LINE
  5
570
100
AcDbEntity
  8
0
100
AcDbLine
 62
7
  6
CONTINUOUS
 10
7.7447934618
 20
2.3895797627
 11
7.5789243718
 21
2.3895797627
  0
LWPOLYLINE
  5
571
100
AcDbEntity
  8
0
100
AcDbPolyline
 62
7
  6
CONTINUOUS
 90
16
 70
0
 10
7.4358750078
 20
2.4210758256
 10
7.3541571802
 20
2.4629788974
 10
7.2799805706
 20
2.517122238
 10
7.2151631144
 20
2.5821788913
 10
7.1612933714
 20
2.6565544354
 10
7.1196915925
 20
2.7384260589
 10
7.0913773625
 20
2.8257872353
 10
7.0770446125
 20
2.9164968987
 10
7.0770446125
 20
3.0083319179
 10
7.0913773625
 20
3.0990415813
 10
7.1196915925
 20
3.1864027577
 10
7.1612933714
 20
3.2682743813
 10
7.2151631144
 20
3.3426499253
 10
7.2799805706
 20
3.4077065786
 10
7.3541571802
 20
3.4618499192
 10
7.4358750078
 20
3.503752991
  0
LINE
  5
572
100
AcDbEntity
  8
0
100
AcDbLine
 62
7
  6
CONTINUOUS
 10
7.4358750078
 20
2.4210758256
 11
7.8878428258
 21
2.4210758256
  0
LINE
  5
573
100
AcDbEntity
  8
0
100
AcDbLine
 62
7
  6
CONTINUOUS
 10
7.5789243718
 20
2.4525718886
 11
7.7447934618
 21
2.4525718886
  0
LWPOLYLINE
  5
574
100
AcDbEntity
  8
0
100
AcDbPolyline
 62
7
  6
CONTINUOUS
 90
4
 70
0
 10
7.3154984386
 20
3.1608621074
 10
7.285255182
 20
3.0984908155
 10
7.2661917904
 20
3.0316758646
 10
7.2589266689
 20
2.9624144084
  0
LINE
  5
575
100
AcDbEntity
  8
0
100
AcDbLine
 62
7
  6
CONTINUOUS
 10
7.5789243718
 20
2.4525718886
 11
7.5789243718
 21
2.3895797627
  0
LINE
  5
576
100
AcDbEntity
  8
0
100
AcDbLine
 62
7
  6
CONTINUOUS
 10
7.5789243718
 20
3.472256928
 11
7.5789243718
 21
3.535249054
  0
LINE
  5
577
100
AcDbEntity
  8
0
100
AcDbLine
 62
7
  6
CONTINUOUS
 10
7.5402215841
 20
2.4571650645
 11
7.5328496245
 21
2.4265438921
  0
LINE
  5
578
100
AcDbEntity
  8
0
100
AcDbLine
 62
7
  6
CONTINUOUS
 10
7.5315332032
 20
2.4210758256
 11
7.525477665
 21
2.3959227198
  0
LINE
  5
579
100
AcDbEntity
  8
0
100
AcDbLine
 62
7
  6
CONTINUOUS
 10
7.7834962495
 20
3.4676637522
 11
7.790868209
 21
3.4982849245
  0
LINE
  5
57A
100
AcDbEntity
  8
0
100
AcDbLine
 62
7
  6
CONTINUOUS
 10
7.7921846304
 20
3.503752991
 11
7.7982401686
 21
3.5289060969
  0
LINE
  5
57B
100
AcDbEntity
  8
0
100
AcDbLine
 62
7
  6
CONTINUOUS
 10
8.0167492355
 20
2.9254038994
 11
8.0363280948
 21
2.9233620755
  0
LINE
  5
57C
100
AcDbEntity
  8
0
100
AcDbLine
 62
7
  6
CONTINUOUS
 10
7.7834962495
 20
2.4571650645
 11
7.790868209
 21
2.4265438921
  0
LINE
  5
57D
100
AcDbEntity
  8
0
100
AcDbLine
 62
7
  6
CONTINUOUS
 10
7.7921846304
 20
2.4210758256
 11
7.7982401686
 21
2.3959227198
  0
LINE
  5
57E
100
AcDbEntity
  8
0
100
AcDbLine
 62
7
  6
CONTINUOUS
 10
7.5402215841
 20
3.4676637522
 11
7.5328496245
 21
3.4982849245
  0
LINE
  5
57F
100
AcDbEntity
  8
0
100
AcDbLine
 62
7
  6
CONTINUOUS
 10
7.5315332032
 20
3.503752991
 11
7.525477665
 21
3.5289060969
  0
LINE
  5
580
100
AcDbEntity
  8
0
100
AcDbLine
 62
7
  6
CONTINUOUS
 10
7.7447934618
 20
2.4525718886
 11
7.7447934618
 21
2.3895797627
  0
LINE
  5
581
100
AcDbEntity
  8
0
100
AcDbLine
 62
7
  6
CONTINUOUS
 10
7.7447934618
 20
3.472256928
 11
7.7447934618
 21
3.535249054
  0
LINE
  5
582
100
AcDbEntity
  8
0
100
AcDbLine
 62
7
  6
CONTINUOUS
 10
8.0343829193
 20
2.9854752286
 11
8.0363280948
 21
2.9233620755
  0
LWPOLYLINE
  5
583
100
AcDbEntity
  8
0
100
AcDbPolyline
 62
7
  6
CONTINUOUS
 90
19
 70
0
 10
7.9873727529
 20
2.7732240479
 10
8.0166627505
 20
2.8327102882
 10
8.0351326483
 20
2.896574893
 10
8.0421606558
 20
2.9628427658
 10
8.0374788523
 20
3.0295240824
 10
8.0211745339
 20
3.0945250395
 10
7.9937018888
 20
3.1558322577
 10
7.9558620958
 20
3.2115408834
 10
7.9087740645
 20
3.2599187317
 10
7.8538452738
 20
3.299450859
 10
7.7927250124
 20
3.3288911511
 10
7.7272571412
 20
3.3472980271
 10
7.6594205317
 20
3.3540647372
 10
7.5912768007
 20
3.3489374229
 10
7.5248993959
 20
3.3320253485
 10
7.4623064876
 20
3.3037934913
 10
7.4054132818
 20
3.2650521015
 10
7.3559688076
 20
3.216934739
 10
7.3154984386
 20
3.1608621074
  0
LINE
  5
584
100
AcDbEntity
  8
0
100
AcDbLine
 62
7
  6
CONTINUOUS
 10
8.0021644763
 20
2.7905357645
 11
7.9628892879
 21
2.7362884133
  0
LINE
  5
585
100
AcDbEntity
  8
0
100
AcDbLine
 62
7
  6
CONTINUOUS
 10
7.7338494614
 20
3.3315725576
 11
7.7485153529
 21
3.3284894781
  0
LINE
  5
586
100
AcDbEntity
  8
0
100
AcDbLine
 62
7
  6
CONTINUOUS
 10
7.7485153529
 20
3.3284894781
 11
7.7686013805
 21
3.3229978767
  0
LWPOLYLINE
  5
587
100
AcDbEntity
  8
0
100
AcDbPolyline
 62
7
  6
CONTINUOUS
 90
17
 70
0
 10
7.9581330035
 20
3.1777752857
 10
7.9576053157
 20
3.177938468
 10
7.9570567
 20
3.1782282308
 10
7.9565268771
 20
3.178570654
 10
7.9560151991
 20
3.1789389772
 10
7.9555046836
 20
3.1793326981
 10
7.954983454
 20
3.1797550275
 10
7.9544406592
 20
3.1802117916
 10
7.9538660334
 20
3.1807102364
 10
7.9532496316
 20
3.1812584848
 10
7.9525816995
 20
3.1818652165
 10
7.9518526601
 20
3.1825393974
 10
7.9510532249
 20
3.183289965
 10
7.9501746418
 20
3.1841254136
 10
7.9492090582
 20
3.1850532808
 10
7.9481498838
 20
3.1860796432
 10
7.9469916446
 20
3.1872091319
  0
LINE
  5
588
100
AcDbEntity
  8
0
100
AcDbLine
 62
7
  6
CONTINUOUS
 10
7.7686013805
 20
3.3229978767
 11
7.786715303
 21
3.3169660849
  0
LWPOLYLINE
  5
589
100
AcDbEntity
  8
0
100
AcDbPolyline
 62
7
  6
CONTINUOUS
 90
3
 70
0
 10
7.786715303
 20
3.3169660849
 10
7.8030206102
 20
3.3106113801
 10
7.8176754881
 20
3.304105961
  0
LINE
  5
58A
100
AcDbEntity
  8
0
100
AcDbLine
 62
7
  6
CONTINUOUS
 10
7.8176754881
 20
3.304105961
 11
7.8308521092
 21
3.2975734411
  0
LWPOLYLINE
  5
58B
100
AcDbEntity
  8
0
100
AcDbPolyline
 62
7
  6
CONTINUOUS
 90
50
 70
0
 10
7.8308521092
 20
3.2975734411
 10
7.8427259659
 20
3.2910953482
 10
7.8534706322
 20
3.2847168283
 10
7.8632542067
 20
3.2784520958
 10
7.8722185599
 20
3.2723024283
 10
7.8804131318
 20
3.2663133478
 10
7.8878634913
 20
3.2605411275
 10
7.8945993226
 20
3.2550345191
 10
7.900658647
 20
3.2498300249
 10
7.9060984829
 20
3.2449402833
 10
7.9109716352
 20
3.2403726168
 10
7.9153284916
 20
3.2361282677
 10
7.9192172221
 20
3.2322028626
 10
7.9226836253
 20
3.2285872167
 10
7.9257711045
 20
3.2252680315
 10
7.928520722
 20
3.2222285102
 10
7.9309713068
 20
3.2194488923
 10
7.9331595991
 20
3.2169069131
 10
7.9351204132
 20
3.2145781957
 10
7.9368868066
 20
3.2124365816
 10
7.9384902445
 20
3.2104544072
 10
7.9399607498
 20
3.2086027307
 10
7.9413270292
 20
3.2068515129
 10
7.9426165685
 20
3.2051697548
 10
7.9438556856
 20
3.2035255912
 10
7.9450696095
 20
3.2018862313
 10
7.9462811151
 20
3.2002197429
 10
7.9474958215
 20
3.198515765
 10
7.9486943233
 20
3.1967988905
 10
7.9498565505
 20
3.1950964202
 10
7.950963544
 20
3.1934361048
 10
7.9519974208
 20
3.1918463873
 10
7.9529417989
 20
3.1903559664
 10
7.9537874414
 20
3.1889847243
 10
7.9545417237
 20
3.1877266028
 10
7.9552073812
 20
3.1865829
 10
7.9557894419
 20
3.1855510608
 10
7.9562954115
 20
3.1846238099
 10
7.9567341585
 20
3.1837905464
 10
7.9571149029
 20
3.1830387503
 10
7.9574464872
 20
3.182355021
 10
7.9577368938
 20
3.1817256875
 10
7.957992877
 20
3.1811370697
 10
7.9582195106
 20
3.1805755069
 10
7.9584193116
 20
3.1800272841
 10
7.9585901303
 20
3.1794786213
 10
7.9587191349
 20
3.1789159714
 10
7.9587592368
 20
3.1783366142
 10
7.9585818834
 20
3.1778814365
 10
7.9581330035
 20
3.1777752857
  0
LWPOLYLINE
  5
58C
100
AcDbEntity
  8
0
100
AcDbPolyline
 62
7
  6
CONTINUOUS
 90
6
 70
0
 10
7.8847810598
 20
3.241022797
 10
7.9305897921
 20
3.2021347387
 10
7.9695280226
 20
3.155814878
 10
8.0004011224
 20
3.1033074698
 10
8.0222603668
 20
3.0460015282
 10
8.0343829193
 20
2.9854752286
  0
LWPOLYLINE
  5
58D
100
AcDbEntity
  8
0
100
AcDbPolyline
 62
7
  6
CONTINUOUS
 90
20
 70
0
 10
7.9413974599
 20
3.1926987341
 10
7.9398064843
 20
3.1942558904
 10
7.9381588557
 20
3.1958620346
 10
7.9364649107
 20
3.1975047455
 10
7.9347347786
 20
3.1991721116
 10
7.932962887
 20
3.2008675693
 10
7.9311196284
 20
3.2026172111
 10
7.9291730849
 20
3.2044483356
 10
7.92709071
 20
3.2063875406
 10
7.924839172
 20
3.2084605601
 10
7.9223841979
 20
3.2106920531
 10
7.9196904
 20
3.2131053506
 10
7.9167210898
 20
3.2157221547
 10
7.9134380823
 20
3.2185621821
 10
7.9098015015
 20
3.2216427438
 10
7.9057695978
 20
3.2249782564
 10
7.9012985932
 20
3.2285796758
 10
7.8963425733
 20
3.2324538499
 10
7.8908534478
 20
3.2366027864
 10
7.8847810598
 20
3.241022797
  0
LINE
  5
58E
100
AcDbEntity
  8
0
100
AcDbLine
 62
7
  6
CONTINUOUS
 10
7.9469916446
 20
3.1872091319
 11
7.9413974599
 21
3.1926987341
  0
LWPOLYLINE
  5
58F
100
AcDbEntity
  8
0
100
AcDbPolyline
 62
7
  6
CONTINUOUS
 90
19
 70
0
 10
8.0874295489
 20
2.9624144082
 10
8.0798664529
 20
2.8894631486
 10
8.0598940267
 20
2.8190137816
 10
8.0282745683
 20
2.7534060766
 10
7.9859174688
 20
2.6943064071
 10
7.9334707728
 20
2.6429403851
 10
7.8728066391
 20
2.6014746856
 10
7.8067655179
 20
2.5716040673
 10
7.7367022406
 20
2.553653362
 10
7.6636504131
 20
2.5481356805
 10
7.5909152027
 20
2.5555456854
 10
7.5217729821
 20
2.5752272766
 10
7.457594036
 20
2.606345985
 10
7.3993005078
 20
2.6485133389
 10
7.3494059387
 20
2.7001007984
 10
7.3097325128
 20
2.7588980621
 10
7.2808882609
 20
2.8236690884
 10
7.2638249899
 20
2.89212982
 10
7.2589266689
 20
2.9624144084
  0
LWPOLYLINE
  5
590
100
AcDbEntity
  8
0
100
AcDbPolyline
 62
7
  6
CONTINUOUS
 90
11
 70
0
 10
7.6436543572
 20
3.3992251948
 10
7.7141158142
 20
3.3952957343
 10
7.7822390044
 20
3.3802892538
 10
7.8467752424
 20
3.3547349579
 10
7.9071463682
 20
3.3186856047
 10
7.96090542
 20
3.2733024296
 10
8.0060800244
 20
3.2204631579
 10
8.041697205
 20
3.1619438007
 10
8.0676225878
 20
3.0982562952
 10
8.0830662748
 20
3.0308542618
 10
8.0874295489
 20
2.9624144082
  0
LWPOLYLINE
  5
591
100
AcDbEntity
  8
0
100
AcDbPolyline
 62
7
  6
CONTINUOUS
 90
13
 70
0
 10
7.6436543572
 20
3.3992251948
 10
7.7175559293
 20
3.3914115921
 10
7.7884689681
 20
3.3712520127
 10
7.8543479588
 20
3.3395029957
 10
7.9133130506
 20
3.2972580479
 10
7.9637019519
 20
3.245917891
 10
8.0041248675
 20
3.1871456287
 10
8.0335061248
 20
3.1228137052
 10
8.0511142915
 20
3.054946843
 10
8.0565830132
 20
2.9856633752
 10
8.0499272901
 20
2.9171282578
 10
8.0315407755
 20
2.8514290891
 10
8.0021644763
 20
2.7905357645
  0
LINE
  5
592
100
AcDbEntity
  8
0
100
AcDbLine
 62
7
  6
CONTINUOUS
 10
7.7447934618
 20
3.472256928
 11
7.5789243718
 21
3.472256928
  0
LINE
  5
593
100
AcDbEntity
  8
0
100
AcDbLine
 62
7
  6
CONTINUOUS
 10
7.4358750078
 20
3.503752991
 11
7.8878428258
 21
3.503752991
  0
LINE
  5
594
100
AcDbEntity
  8
0
100
AcDbLine
 62
7
  6
CONTINUOUS
 10
7.5789243718
 20
3.535249054
 11
7.7447934618
 21
3.535249054
  0
LWPOLYLINE
  5
595
100
AcDbEntity
  8
0
100
AcDbPolyline
 62
7
  6
CONTINUOUS
 90
16
 70
0
 10
7.8878428258
 20
3.503752991
 10
7.9695606533
 20
3.4618499192
 10
8.043737263
 20
3.4077065786
 10
8.1085547191
 20
3.3426499253
 10
8.1624244621
 20
3.2682743813
 10
8.2040262411
 20
3.1864027577
 10
8.2323404711
 20
3.0990415813
 10
8.2466732211
 20
3.0083319179
 10
8.2466732211
 20
2.9164968987
 10
8.2323404711
 20
2.8257872353
 10
8.2040262411
 20
2.7384260589
 10
8.1624244621
 20
2.6565544354
 10
8.1085547191
 20
2.5821788913
 10
8.043737263
 20
2.517122238
 10
7.9695606533
 20
2.4629788974
 10
7.8878428258
 20
2.4210758256
  0
LWPOLYLINE
  5
596
100
AcDbEntity
  8
02___PRT_ALL_AXES
100
AcDbPolyline
 62
7
  6
CONTINUOUS
 90
9
 70
0
 10
17.5397037147
 20
5.4115941174
 10
17.5270016237
 20
5.4176731309
 10
17.5156523056
 20
5.4249685028
 10
17.5058867998
 20
5.4333317206
 10
17.497903904
 20
5.4425925331
 10
17.4918661267
 20
5.452562417
 10
17.4878963797
 20
5.4630384142
 10
17.4860754757
 20
5.4738072635
 10
17.4859545415
 20
5.4774241542
  0
LWPOLYLINE
  5
597
100
AcDbEntity
  8
0
100
AcDbPolyline
 62
7
  6
CONTINUOUS
 90
4
 70
0
 10
17.6993994306
 20
6.2972223393
 10
17.7881488731
 20
6.3149552712
 10
17.8721266864
 20
6.3422779295
 10
17.9492747248
 20
6.3785462103
  0
LWPOLYLINE
  5
598
100
AcDbEntity
  8
0
100
AcDbPolyline
 62
7
  6
CONTINUOUS
 90
4
 70
0
 10
17.6993994306
 20
6.3025117208
 10
17.7881488731
 20
6.3202446527
 10
17.8721266864
 20
6.3475673109
 10
17.9492747248
 20
6.3838355917
  0
LWPOLYLINE
  5
599
100
AcDbEntity
  8
0
100
AcDbPolyline
 62
7
  6
CONTINUOUS
 90
5
 70
0
 10
17.5163496533
 20
6.3389645651
 10
17.6080534486
 20
6.3365358665
 10
17.6993994306
 20
6.3442699952
 10
17.7881488731
 20
6.3620029272
 10
17.8721266864
 20
6.3893255854
  0
LWPOLYLINE
  5
59A
100
AcDbEntity
  8
0
100
AcDbPolyline
 62
7
  6
CONTINUOUS
 90
5
 70
0
 10
17.3408122923
 20
6.3266756058
 10
17.4265355402
 20
6.3044233865
 10
17.5163496533
 20
6.2919169092
 10
17.6080534486
 20
6.2894882106
 10
17.6993994306
 20
6.2972223393
  0
LWPOLYLINE
  5
59B
100
AcDbEntity
  8
0
100
AcDbPolyline
 62
7
  6
CONTINUOUS
 90
5
 70
0
 10
17.3408122923
 20
6.3319649872
 10
17.4265355402
 20
6.309712768
 10
17.5163496533
 20
6.2972062906
 10
17.6080534486
 20
6.294777592
 10
17.6993994306
 20
6.3025117208
  0
LWPOLYLINE
  5
59C
100
AcDbEntity
  8
AXIS
100
AcDbPolyline
 62
7
  6
CONTINUOUS
 90
6
 70
0
 10
17.9278168049
 20
6.5273477344
 10
17.8024869525
 20
6.4973656981
 10
17.6728205187
 20
6.4815061667
 10
17.541797813
 20
6.4799875173
 10
17.4119171525
 20
6.492769672
 10
17.2860474758
 20
6.5195886236
  0
LWPOLYLINE
  5
59D
100
AcDbEntity
  8
AXIS
100
AcDbPolyline
 62
7
  6
CONTINUOUS
 90
7
 70
0
 10
17.8914091313
 20
6.553423117
 10
17.799468193
 20
6.5341018105
 10
17.7051119234
 20
6.5219228065
 10
17.6094465634
 20
6.5170288927
 10
17.5135937019
 20
6.5194774458
 10
17.418677126
 20
6.5292397587
 10
17.3258096458
 20
6.5462013773
  0
LWPOLYLINE
  5
59E
100
AcDbEntity
  8
0
100
AcDbPolyline
 62
7
  6
CONTINUOUS
 90
3
 70
0
 10
17.6080534486
 20
6.46181069
 10
17.6993994306
 20
6.4695448187
 10
17.7881488731
 20
6.4872777506
  0
LINE
  5
59F
100
AcDbEntity
  8
0
100
AcDbLine
 62
7
  6
CONTINUOUS
 10
17.5163496533
 20
6.4642393885
 11
17.6080534486
 21
6.46181069
  0
LWPOLYLINE
  5
5A0
100
AcDbEntity
  8
0
100
AcDbPolyline
 62
7
  6
CONTINUOUS
 90
6
 70
0
 10
17.3408122923
 20
6.4937087037
 10
17.4265355402
 20
6.4714564845
 10
17.5163496533
 20
6.4589500071
 10
17.6080534486
 20
6.4565213085
 10
17.6993994306
 20
6.4642554372
 10
17.7881488731
 20
6.4819883692
  0
LWPOLYLINE
  5
5A1
100
AcDbEntity
  8
0
100
AcDbPolyline
 62
7
  6
CONTINUOUS
 90
3
 70
0
 10
17.3408122923
 20
6.4989980851
 10
17.4265355402
 20
6.4767458659
 10
17.5163496533
 20
6.4642393885
  0
LWPOLYLINE
  5
5A2
100
AcDbEntity
  8
AXIS
100
AcDbPolyline
 62
7
  6
CONTINUOUS
 90
3
 70
0
 10
17.3258096458
 20
6.5462013773
 10
17.2360800476
 20
6.5701634421
 10
17.1505403289
 20
6.6008450198
  0
LINE
  5
5A3
100
AcDbEntity
  8
AXIS
100
AcDbLine
 62
7
  6
CONTINUOUS
 10
17.2860474758
 20
6.5195886236
 11
17.1663953383
 21
6.5601215043
  0
LWPOLYLINE
  5
5A4
100
AcDbEntity
  8
0
100
AcDbPolyline
 62
7
  6
CONTINUOUS
 90
7
 70
0
 10
17.2612808327
 20
6.4416192284
 10
17.3408122923
 20
6.4101921547
 10
17.4265355402
 20
6.3879399355
 10
17.5163496533
 20
6.3754334582
 10
17.6080534486
 20
6.3730047596
 10
17.6993994306
 20
6.3807388883
 10
17.7881488731
 20
6.3984718202
  0
LWPOLYLINE
  5
5A5
100
AcDbEntity
  8
0
100
AcDbPolyline
 62
7
  6
CONTINUOUS
 90
7
 70
0
 10
17.2612808327
 20
6.4469086098
 10
17.3408122923
 20
6.4154815362
 10
17.4265355402
 20
6.3932293169
 10
17.5163496533
 20
6.3807228396
 10
17.6080534486
 20
6.378294141
 10
17.6993994306
 20
6.3860282697
 10
17.7881488731
 20
6.4037612016
  0
LWPOLYLINE
  5
5A6
100
AcDbEntity
  8
0
100
AcDbPolyline
 62
7
  6
CONTINUOUS
 90
7
 70
0
 10
17.2612808327
 20
6.4833775029
 10
17.3408122923
 20
6.4519504292
 10
17.4265355402
 20
6.42969821
 10
17.5163496533
 20
6.4171917326
 10
17.6080534486
 20
6.414763034
 10
17.6993994306
 20
6.4224971628
 10
17.7881488731
 20
6.4402300947
  0
LWPOLYLINE
  5
5A7
100
AcDbEntity
  8
0
100
AcDbPolyline
 62
7
  6
CONTINUOUS
 90
7
 70
0
 10
17.2612808327
 20
6.4886668843
 10
17.3408122923
 20
6.4572398107
 10
17.4265355402
 20
6.4349875914
 10
17.5163496533
 20
6.4224811141
 10
17.6080534486
 20
6.4200524155
 10
17.6993994306
 20
6.4277865442
 10
17.7881488731
 20
6.4455194761
  0
LINE
  5
5A8
100
AcDbEntity
  8
0
100
AcDbLine
 62
7
  6
CONTINUOUS
 10
17.2918136673
 20
6.5183600257
 11
17.3408122923
 21
6.4989980851
  0
LWPOLYLINE
  5
5A9
100
AcDbEntity
  8
0
100
AcDbPolyline
 62
7
  6
CONTINUOUS
 90
10
 70
0
 10
17.1898903348
 20
6.2726340373
 10
17.2612808327
 20
6.232827856
 10
17.3408122923
 20
6.2014007823
 10
17.4265355402
 20
6.1791485631
 10
17.5163496533
 20
6.1666420858
 10
17.6080534486
 20
6.1642133872
 10
17.6993994306
 20
6.1719475159
 10
17.7881488731
 20
6.1896804478
 10
17.8721266864
 20
6.2170031061
 10
17.9492747248
 20
6.2532713868
  0
LWPOLYLINE
  5
5AA
100
AcDbEntity
  8
0
100
AcDbPolyline
 62
7
  6
CONTINUOUS
 90
9
 70
0
 10
17.1898903348
 20
6.4396671352
 10
17.2612808327
 20
6.3998609539
 10
17.3408122923
 20
6.3684338803
 10
17.4265355402
 20
6.346181661
 10
17.5163496533
 20
6.3336751837
 10
17.6080534486
 20
6.3312464851
 10
17.6993994306
 20
6.3389806138
 10
17.7881488731
 20
6.3567135457
 10
17.8721266864
 20
6.384036204
  0
LWPOLYLINE
  5
5AB
100
AcDbEntity
  8
0
100
AcDbPolyline
 62
7
  6
CONTINUOUS
 90
5
 70
0
 10
17.1898903348
 20
6.4449565166
 10
17.2612808327
 20
6.4051503353
 10
17.3408122923
 20
6.3737232617
 10
17.4265355402
 20
6.3514710424
 10
17.5163496533
 20
6.3389645651
  0
LWPOLYLINE
  5
5AC
100
AcDbEntity
  8
AXIS
100
AcDbPolyline
 62
7
  6
CONTINUOUS
 90
4
 70
0
 10
17.7770888688
 20
6.6598667996
 10
17.6773066445
 20
6.6502745706
 10
17.5766639757
 20
6.647869658
 10
17.4761935923
 20
6.6526767393
  0
LWPOLYLINE
  5
5AD
100
AcDbEntity
  8
AXIS
100
AcDbPolyline
 62
7
  6
CONTINUOUS
 90
5
 70
0
 10
17.4761935923
 20
6.6526767393
 10
17.3769264565
 20
6.6646464873
 10
17.2798811833
 20
6.6836560764
 10
17.1860535887
 20
6.7095104423
 10
17.0964064706
 20
6.7419442844
  0
LWPOLYLINE
  5
5AE
100
AcDbEntity
  8
0
100
AcDbPolyline
 62
7
  6
CONTINUOUS
 90
8
 70
0
 10
17.2656786073
 20
6.7249938453
 10
17.4421757243
 20
6.6936048048
 10
17.6238244319
 20
6.6856825863
 10
17.8044389011
 20
6.7014969716
 10
17.9778685228
 20
6.7405094206
 10
18.1382073593
 20
6.8013914111
 10
18.2799952638
 20
6.8820696802
 10
18.3984038192
 20
6.9797968259
  0
LINE
  5
5AF
100
AcDbEntity
  8
0
100
AcDbLine
 62
7
  6
CONTINUOUS
 10
17.1003434785
 20
6.7787807917
 11
17.2656786073
 21
6.7249938453
  0
LWPOLYLINE
  5
5B0
100
AcDbEntity
  8
0
100
AcDbPolyline
 62
7
  6
CONTINUOUS
 90
11
 70
0
 10
17.0964064706
 20
6.772987408
 10
17.2239804452
 20
6.7291665198
 10
17.3590777553
 20
6.698628634
 10
17.4989479002
 20
6.6819961943
 10
17.640743023
 20
6.6796083086
 10
17.7815761669
 20
6.6915138736
 10
17.9185802404
 20
6.7174707132
 10
18.0489660996
 20
6.7569505779
 10
18.1700792293
 20
6.8091498685
 10
18.2794538537
 20
6.8730059843
 10
18.3748631943
 20
6.9472189742
  0
LINE
  5
5B1
100
AcDbEntity
  8
AXIS
100
AcDbLine
 62
7
  6
CONTINUOUS
 10
17.0701933646
 20
6.6378863968
 11
17.1505403289
 21
6.6008450198
  0
LWPOLYLINE
  5
5B2
100
AcDbEntity
  8
AXIS
100
AcDbPolyline
 62
7
  6
CONTINUOUS
 90
8
 70
0
 10
17.1663953383
 20
6.5601215043
 10
17.0652013916
 20
6.6084082205
 10
16.9738281057
 20
6.6665321348
 10
16.8939809704
 20
6.7334242769
 10
16.827316869
 20
6.8075567071
 10
16.7749783489
 20
6.8871941159
 10
16.7375306379
 20
6.9706290772
 10
16.7282967657
 20
7.0059313184
  0
LWPOLYLINE
  5
5B3
100
AcDbEntity
  8
0
100
AcDbPolyline
 62
7
  6
CONTINUOUS
 90
4
 70
0
 10
17.0964064706
 20
6.772987408
 10
16.9789684723
 20
6.8291895197
 10
16.8740287288
 20
6.896639595
 10
16.7837275624
 20
6.9739644808
  0
LINE
  5
5B4
100
AcDbEntity
  8
0
100
AcDbLine
 62
7
  6
CONTINUOUS
 10
17.1003434785
 20
6.7787807917
 11
16.9518006273
 21
6.8531339941
  0
LINE
  5
5B5
100
AcDbEntity
  8
0
100
AcDbLine
 62
7
  6
CONTINUOUS
 10
17.1898903348
 20
6.4814254097
 11
17.2612808327
 21
6.4416192284
  0
LINE
  5
5B6
100
AcDbEntity
  8
0
100
AcDbLine
 62
7
  6
CONTINUOUS
 10
17.1898903348
 20
6.4867147911
 11
17.2612808327
 21
6.4469086098
  0
LINE
  5
5B7
100
AcDbEntity
  8
0
100
AcDbLine
 62
7
  6
CONTINUOUS
 10
17.1898903348
 20
6.5231836842
 11
17.2612808327
 21
6.4833775029
  0
LINE
  5
5B8
100
AcDbEntity
  8
0
100
AcDbLine
 62
7
  6
CONTINUOUS
 10
17.1898903348
 20
6.5284730656
 11
17.2612808327
 21
6.4886668843
  0
LWPOLYLINE
  5
5B9
100
AcDbEntity
  8
0
100
AcDbPolyline
 62
7
  6
CONTINUOUS
 90
3
 70
0
 10
17.24829027
 20
6.532379104
 10
17.2612808327
 20
6.5251357773
 10
17.3408122923
 20
6.4937087037
  0
LWPOLYLINE
  5
5BA
100
AcDbEntity
  8
0
100
AcDbPolyline
 62
7
  6
CONTINUOUS
 90
11
 70
0
 10
17.1283904518
 20
6.325107604
 10
17.1898903348
 20
6.2779234187
 10
17.2612808327
 20
6.2381172374
 10
17.3408122923
 20
6.2066901638
 10
17.4265355402
 20
6.1844379445
 10
17.5163496533
 20
6.1719314672
 10
17.6080534486
 20
6.1695027686
 10
17.6993994306
 20
6.1772368973
 10
17.7881488731
 20
6.1949698292
 10
17.8721266864
 20
6.2222924875
 10
17.9492747248
 20
6.2585607683
  0
LINE
  5
5BB
100
AcDbEntity
  8
0
100
AcDbLine
 62
7
  6
CONTINUOUS
 10
17.1283904518
 20
6.5703678695
 11
17.1898903348
 21
6.5231836842
  0
LINE
  5
5BC
100
AcDbEntity
  8
0
100
AcDbLine
 62
7
  6
CONTINUOUS
 10
17.1283904518
 20
6.5756572509
 11
17.1898903348
 21
6.5284730656
  0
LWPOLYLINE
  5
5BD
100
AcDbEntity
  8
0
100
AcDbPolyline
 62
7
  6
CONTINUOUS
 90
23
 70
0
 10
17.9170767817
 20
11.6950999058
 10
17.9537466156
 20
11.7059538359
 10
17.9896908523
 20
11.7179601707
 10
18.0248371036
 20
11.7310947307
 10
18.059114588
 20
11.745331064
 10
18.0924542738
 20
11.7606404999
 10
18.124789018
 20
11.7769922067
 10
18.1560537012
 20
11.7943532535
 10
18.1861853593
 20
11.8126886766
 10
18.2151233099
 20
11.8319615504
 10
18.2428092745
 20
11.8521330609
 10
18.2691874962
 20
11.8731625845
 10
18.2942048516
 20
11.8950077697
 10
18.3178109581
 20
11.9176246224
 10
18.339958275
 20
11.9409675941
 10
18.3606021998
 20
11.9649896743
 10
18.3797011574
 20
11.9896424848
 10
18.3972166842
 20
12.0148763769
 10
18.4131135057
 20
12.040640532
 10
18.427359607
 20
12.0668830634
 10
18.4399262978
 20
12.093551121
 10
18.4507882699
 20
12.1205909977
 10
18.4599236483
 20
12.1479482378
  0
LWPOLYLINE
  5
5BE
100
AcDbEntity
  8
0
100
AcDbPolyline
 62
7
  6
CONTINUOUS
 90
11
 70
0
 10
17.1003434785
 20
7.154605262
 10
17.2656786073
 20
7.1008183156
 10
17.4421757243
 20
7.0694292751
 10
17.6238244319
 20
7.0615070567
 10
17.8044389011
 20
7.0773214419
 10
17.9778685228
 20
7.1163338909
 10
18.1382073593
 20
7.1772158815
 10
18.2799952638
 20
7.2578941505
 10
18.3984038192
 20
7.3556212963
 10
18.4894007643
 20
7.467069338
 10
18.5498873071
 20
7.5884430464
  0
LWPOLYLINE
  5
5BF
100
AcDbEntity
  8
0
100
AcDbPolyline
 62
7
  6
CONTINUOUS
 90
6
 70
0
 10
17.1003434785
 20
7.154605262
 10
16.9518006273
 20
7.2289584644
 10
16.8251085024
 20
7.3213459136
 10
16.7245814522
 20
7.4286214658
 10
16.6536428048
 20
7.5471319808
 10
16.6147082908
 20
7.6728417252
  0
LINE
  5
5C0
100
AcDbEntity
  8
0
100
AcDbLine
 62
7
  6
CONTINUOUS
 10
16.9518006273
 20
6.8531339941
 11
16.8251085024
 21
6.9455214432
  0
LINE
  5
5C1
100
AcDbEntity
  8
0
100
AcDbLine
 62
7
  6
CONTINUOUS
 10
17.1149807225
 20
6.5846550168
 11
17.1283904518
 21
6.5703678695
  0
LINE
  5
5C2
100
AcDbEntity
  8
0
100
AcDbLine
 62
7
  6
CONTINUOUS
 10
17.1239722712
 20
6.5803645195
 11
17.1283904518
 21
6.5756572509
  0
LINE
  5
5C3
100
AcDbEntity
  8
0
100
AcDbLine
 62
7
  6
CONTINUOUS
 10
16.8251085024
 20
6.9455214432
 11
16.7245814522
 21
7.0527969955
  0
LWPOLYLINE
  5
5C4
100
AcDbEntity
  8
0
100
AcDbPolyline
 62
7
  6
CONTINUOUS
 90
5
 70
0
 10
16.7837275624
 20
6.9739644808
 10
16.7099060363
 20
7.0595887322
 10
16.6540679873
 20
7.151767052
 10
16.6173426683
 20
7.2486437405
 10
16.6004896293
 20
7.348230962
  0
LWPOLYLINE
  5
5C5
100
AcDbEntity
  8
AXIS
100
AcDbPolyline
 62
7
  6
CONTINUOUS
 90
7
 70
0
 10
16.6936843718
 20
7.0518366819
 10
16.7410603018
 20
6.9890034293
 10
16.7971829416
 20
6.9298816766
 10
16.8614763971
 20
6.8750780929
 10
16.9332809304
 20
6.8251550371
 10
17.0118597299
 20
6.7806247874
 10
17.0964064706
 20
6.7419442844
  0
LWPOLYLINE
  5
5C6
100
AcDbEntity
  8
0
100
AcDbPolyline
 62
7
  6
CONTINUOUS
 90
13
 70
0
 10
17.0408121964
 20
6.4731993238
 10
17.0782884354
 20
6.4149567611
 10
17.1283904518
 20
6.3615764971
 10
17.1898903348
 20
6.3143923118
 10
17.2612808327
 20
6.2745861305
 10
17.3408122923
 20
6.2431590568
 10
17.4265355402
 20
6.2209068376
 10
17.5163496533
 20
6.2084003602
 10
17.6080534486
 20
6.2059716616
 10
17.6993994306
 20
6.2137057904
 10
17.7881488731
 20
6.2314387223
 10
17.8721266864
 20
6.2587613806
 10
17.9492747248
 20
6.2950296613
  0
LWPOLYLINE
  5
5C7
100
AcDbEntity
  8
0
100
AcDbPolyline
 62
7
  6
CONTINUOUS
 90
13
 70
0
 10
17.0408121964
 20
6.4784887053
 10
17.0782884354
 20
6.4202461426
 10
17.1283904518
 20
6.3668658785
 10
17.1898903348
 20
6.3196816932
 10
17.2612808327
 20
6.2798755119
 10
17.3408122923
 20
6.2484484383
 10
17.4265355402
 20
6.226196219
 10
17.5163496533
 20
6.2136897417
 10
17.6080534486
 20
6.2112610431
 10
17.6993994306
 20
6.2189951718
 10
17.7881488731
 20
6.2367281037
 10
17.8721266864
 20
6.264050762
 10
17.9492747248
 20
6.3003190428
  0
LWPOLYLINE
  5
5C8
100
AcDbEntity
  8
0
100
AcDbPolyline
 62
7
  6
CONTINUOUS
 90
13
 70
0
 10
17.0408121964
 20
6.5149575983
 10
17.0782884354
 20
6.4567150356
 10
17.1283904518
 20
6.4033347716
 10
17.1898903348
 20
6.3561505863
 10
17.2612808327
 20
6.3163444049
 10
17.3408122923
 20
6.2849173313
 10
17.4265355402
 20
6.2626651121
 10
17.5163496533
 20
6.2501586347
 10
17.6080534486
 20
6.2477299361
 10
17.6993994306
 20
6.2554640648
 10
17.7881488731
 20
6.2731969968
 10
17.8721266864
 20
6.300519655
 10
17.9492747248
 20
6.3367879358
  0
LWPOLYLINE
  5
5C9
100
AcDbEntity
  8
0
100
AcDbPolyline
 62
7
  6
CONTINUOUS
 90
13
 70
0
 10
17.0408121964
 20
6.5202469798
 10
17.0782884354
 20
6.4620044171
 10
17.1283904518
 20
6.408624153
 10
17.1898903348
 20
6.3614399677
 10
17.2612808327
 20
6.3216337864
 10
17.3408122923
 20
6.2902067127
 10
17.4265355402
 20
6.2679544935
 10
17.5163496533
 20
6.2554480161
 10
17.6080534486
 20
6.2530193176
 10
17.6993994306
 20
6.2607534463
 10
17.7881488731
 20
6.2784863782
 10
17.8721266864
 20
6.3058090365
 10
17.9492747248
 20
6.3420773172
  0
LWPOLYLINE
  5
5CA
100
AcDbEntity
  8
0
100
AcDbPolyline
 62
7
  6
CONTINUOUS
 90
6
 70
0
 10
17.0408121964
 20
6.5567158728
 10
17.0782884354
 20
6.4984733101
 10
17.1283904518
 20
6.4450930461
 10
17.1898903348
 20
6.3979088607
 10
17.2612808327
 20
6.3581026794
 10
17.3408122923
 20
6.3266756058
  0
LWPOLYLINE
  5
5CB
100
AcDbEntity
  8
0
100
AcDbPolyline
 62
7
  6
CONTINUOUS
 90
6
 70
0
 10
17.0408121964
 20
6.5620052542
 10
17.0782884354
 20
6.5037626915
 10
17.1283904518
 20
6.4503824275
 10
17.1898903348
 20
6.4031982422
 10
17.2612808327
 20
6.3633920609
 10
17.3408122923
 20
6.3319649872
  0
LWPOLYLINE
  5
5CC
100
AcDbEntity
  8
0
100
AcDbPolyline
 62
7
  6
CONTINUOUS
 90
4
 70
0
 10
17.0408121964
 20
6.5984741473
 10
17.0782884354
 20
6.5402315846
 10
17.1283904518
 20
6.4868513205
 10
17.1898903348
 20
6.4396671352
  0
LWPOLYLINE
  5
5CD
100
AcDbEntity
  8
0
100
AcDbPolyline
 62
7
  6
CONTINUOUS
 90
4
 70
0
 10
17.0585788462
 20
6.6126209207
 10
17.0782884354
 20
6.5819898591
 10
17.1283904518
 20
6.528609595
 10
17.1898903348
 20
6.4814254097
  0
LWPOLYLINE
  5
5CE
100
AcDbEntity
  8
0
100
AcDbPolyline
 62
7
  6
CONTINUOUS
 90
4
 70
0
 10
17.0643406696
 20
6.6089557385
 10
17.0782884354
 20
6.5872792405
 10
17.1283904518
 20
6.5338989764
 10
17.1898903348
 20
6.4867147911
  0
LINE
  5
5CF
100
AcDbEntity
  8
0
100
AcDbLine
 62
7
  6
CONTINUOUS
 10
16.7245814522
 20
7.0527969955
 11
16.6536428048
 21
7.1713075105
  0
LWPOLYLINE
  5
5D0
100
AcDbEntity
  8
AXIS
100
AcDbPolyline
 62
7
  6
CONTINUOUS
 90
3
 70
0
 10
17.0817893826
 20
11.3012002675
 10
17.0817091379
 20
11.3010218382
 10
17.0819689492
 20
11.2974269778
  0
LWPOLYLINE
  5
5D1
100
AcDbEntity
  8
AXIS
100
AcDbPolyline
 62
7
  6
CONTINUOUS
 90
11
 70
0
 10
17.1003434785
 20
7.9118219726
 10
17.2656786073
 20
7.8580350262
 10
17.4421757243
 20
7.8266459857
 10
17.6238244319
 20
7.8187237672
 10
17.8044389011
 20
7.8345381524
 10
17.9778685228
 20
7.8735506014
 10
18.1382073593
 20
7.934432592
 10
18.2799952638
 20
8.015110861
 10
18.3984038192
 20
8.1128380068
 10
18.4894007643
 20
8.2242860486
 10
18.5498873071
 20
8.345659757
  0
LWPOLYLINE
  5
5D2
100
AcDbEntity
  8
AXIS
100
AcDbPolyline
 62
7
  6
CONTINUOUS
 90
6
 70
0
 10
17.1003434785
 20
7.9118219726
 10
16.9518006273
 20
7.9861751749
 10
16.8251085024
 20
8.0785626241
 10
16.7245814522
 20
8.1858381764
 10
16.6536428048
 20
8.3043486914
 10
16.6147082908
 20
8.4300584358
  0
LINE
  5
5D3
100
AcDbEntity
  8
0
100
AcDbLine
 62
7
  6
CONTINUOUS
 10
17.0276945654
 20
6.6322668738
 11
17.0408121964
 21
6.5984741473
  0
LWPOLYLINE
  5
5D4
100
AcDbEntity
  8
0
100
AcDbPolyline
 62
7
  6
CONTINUOUS
 90
5
 70
0
 10
17.0304210291
 20
6.6305325294
 10
17.0408121964
 20
6.6037635287
 10
17.0782884354
 20
6.545520966
 10
17.1283904518
 20
6.492140702
 10
17.1898903348
 20
6.4449565166
  0
LWPOLYLINE
  5
5D5
100
AcDbEntity
  8
AXIS
100
AcDbPolyline
 62
7
  6
CONTINUOUS
 90
8
 70
0
 10
16.7321892554
 20
7.0007688279
 10
16.7443329935
 20
6.9648589519
 10
16.7765949556
 20
6.9009882713
 10
16.8184338398
 20
6.8399584848
 10
16.8693591234
 20
6.7824851111
 10
16.9287737541
 20
6.7292419728
 10
16.9959811496
 20
6.6808532971
 10
17.0701933646
 20
6.6378863968
  0
LWPOLYLINE
  5
5D6
100
AcDbEntity
  8
0
100
AcDbPolyline
 62
7
  6
CONTINUOUS
 90
3
 70
0
 10
16.6536428048
 20
7.1713075105
 10
16.6147082908
 20
7.2970172549
 10
16.6072332422
 20
7.3827150245
  0
LINE
  5
5D7
100
AcDbEntity
  8
0
100
AcDbLine
 62
7
  6
CONTINUOUS
 10
16.6147082908
 20
7.6728417252
 11
16.6072332422
 21
7.7585394948
  0
LINE
  5
5D8
100
AcDbEntity
  8
AXIS
100
AcDbLine
 62
7
  6
CONTINUOUS
 10
16.6147082908
 20
8.4300584358
 11
16.6072332422
 21
8.5157562054
  0
LINE
  5
5D9
100
AcDbEntity
  8
0
100
AcDbLine
 62
7
  6
CONTINUOUS
 10
16.6004896293
 20
7.348230962
 11
16.5993592265
 21
7.381743471
  0
LWPOLYLINE
  5
5DA
100
AcDbEntity
  8
AXIS
100
AcDbPolyline
 62
7
  6
CONTINUOUS
 90
6
 70
0
 10
16.5993611671
 20
7.3507003474
 10
16.5999263664
 20
7.3269594577
 10
16.6084205288
 20
7.2560074908
 10
16.6270224647
 20
7.1860272008
 10
16.6555412929
 20
7.1177366801
 10
16.6936843718
 20
7.0518366819
  0
LWPOLYLINE
  5
5DB
100
AcDbEntity
  8
0
100
AcDbPolyline
 62
7
  6
CONTINUOUS
 90
48
 70
0
 10
16.6092017462
 20
12.2085796119
 10
16.6101175473
 20
12.2400601045
 10
16.6128673849
 20
12.2715142345
 10
16.6174529553
 20
12.3028833947
 10
16.6238859241
 20
12.3341623482
 10
16.6321605214
 20
12.3652521458
 10
16.6422703385
 20
12.3960865074
 10
16.6542417685
 20
12.4266875827
 10
16.6680558832
 20
12.4569471852
 10
16.6836816003
 20
12.4867632018
 10
16.7011479492
 20
12.5161528438
 10
16.7204174167
 20
12.5450118769
 10
16.7414223263
 20
12.5732188055
 10
16.7641882448
 20
12.6007876234
 10
16.7886513737
 20
12.627617855
 10
16.8147119108
 20
12.6535934641
 10
16.8423924048
 20
12.6787298679
 10
16.8715951706
 20
12.7029291237
 10
16.9022061905
 20
12.7261003722
 10
16.9342499159
 20
12.7482629836
 10
16.9675942747
 20
12.7693248626
 10
17.0021289421
 20
12.7892253969
 10
17.0378813871
 20
12.8079846411
 10
17.0746915753
 20
12.8255217619
 10
17.1124629957
 20
12.8418014361
 10
17.1512212844
 20
12.8568394506
 10
17.1907900989
 20
12.8705714964
 10
17.231097297
 20
12.8829818612
 10
17.2721312537
 20
12.8940713686
 10
17.3137409469
 20
12.9038032845
 10
17.3558619149
 20
12.9121690926
 10
17.3984471203
 20
12.9191628004
 10
17.441375793
 20
12.9247676821
 10
17.4845809872
 20
12.9289788328
 10
17.5279931031
 20
12.9317914361
 10
17.5715164703
 20
12.9332008201
 10
17.6150737389
 20
12.9332059344
 10
17.6585875306
 20
12.9318072646
 10
17.7019805131
 20
12.9290068374
 10
17.7451574046
 20
12.9248102727
 10
17.7880485025
 20
12.9192233966
 10
17.8305876608
 20
12.9122520264
 10
17.8726554083
 20
12.9039136283
 10
17.9142035746
 20
12.8942154689
 10
17.9551683255
 20
12.8831670911
 10
17.9954006415
 20
12.8708057826
 10
18.0348889527
 20
12.8571318984
 10
18.0735683282
 20
12.8421595352
  0
LWPOLYLINE
  5
5DC
100
AcDbEntity
  8
AXIS
100
AcDbPolyline
 62
7
  6
CONTINUOUS
 90
3
 70
0
 10
16.6072332422
 20
11.1576630375
 10
16.6091037783
 20
11.200593347
 10
16.6092017462
 20
11.201039616
  0
LWPOLYLINE
  5
5DD
100
AcDbEntity
  8
0
100
AcDbPolyline
 62
7
  6
CONTINUOUS
 90
14
 70
0
 10
18.4235634054
 20
11.8346345365
 10
18.4458409231
 20
11.8605939912
 10
18.4664958733
 20
11.8872158563
 10
18.4854889381
 20
11.9144494557
 10
18.5027839632
 20
11.9422429484
 10
18.5183480265
 20
11.9705434282
 10
18.5321515009
 20
11.9992970233
 10
18.5441681106
 20
12.0284489998
 10
18.5543749815
 20
12.0579438651
 10
18.5627526842
 20
12.0877254741
 10
18.5692852712
 20
12.1177371359
 10
18.5739603073
 20
12.1479217214
 10
18.5767688934
 20
12.1782217727
 10
18.5777056832
 20
12.2085796119
  0
LWPOLYLINE
  5
5DE
100
AcDbEntity
  8
AXIS
100
AcDbPolyline
 62
7
  6
CONTINUOUS
 90
11
 70
0
 10
17.1003434785
 20
8.2876464429
 10
17.2656786073
 20
8.2338594965
 10
17.4421757243
 20
8.202470456
 10
17.6238244319
 20
8.1945482375
 10
17.8044389011
 20
8.2103626228
 10
17.9778685228
 20
8.2493750717
 10
18.1382073593
 20
8.3102570623
 10
18.2799952638
 20
8.3909353314
 10
18.3984038192
 20
8.4886624771
 10
18.4894007643
 20
8.6001105189
 10
18.5498873071
 20
8.7214842273
  0
LWPOLYLINE
  5
5DF
100
AcDbEntity
  8
AXIS
100
AcDbPolyline
 62
7
  6
CONTINUOUS
 90
6
 70
0
 10
17.1003434785
 20
8.2876464429
 10
16.9518006273
 20
8.3619996452
 10
16.8251085024
 20
8.4543870944
 10
16.7245814522
 20
8.5616626467
 10
16.6536428048
 20
8.6801731617
 10
16.6147082908
 20
8.8058829061
  0
LINE
  5
5E0
100
AcDbEntity
  8
AXIS
100
AcDbLine
 62
7
  6
CONTINUOUS
 10
16.6147082908
 20
8.8058829061
 11
16.6072332422
 21
8.8915806757
  0
LINE
  5
5E1
100
AcDbEntity
  8
AXIS
100
AcDbLine
 62
7
  6
CONTINUOUS
 10
16.6147082908
 20
9.5630996167
 11
16.6072332422
 21
9.6487973863
  0
LINE
  5
5E2
100
AcDbEntity
  8
AXIS
100
AcDbLine
 62
7
  6
CONTINUOUS
 10
16.6147082908
 20
9.938924087
 11
16.6072332422
 21
10.0246218566
  0
LINE
  5
5E3
100
AcDbEntity
  8
AXIS
100
AcDbLine
 62
7
  6
CONTINUOUS
 10
16.6147082908
 20
10.6961407975
 11
16.6072332422
 21
10.7818385672
  0
LINE
  5
5E4
100
AcDbEntity
  8
AXIS
100
AcDbLine
 62
7
  6
CONTINUOUS
 10
16.6147082908
 20
11.0719652679
 11
16.6072332422
 21
11.1576630375
  0
LWPOLYLINE
  5
5E5
100
AcDbEntity
  8
0
100
AcDbPolyline
 62
7
  6
CONTINUOUS
 90
25
 70
0
 10
16.6092017462
 20
12.2085796119
 10
16.610138536
 20
12.1782217727
 10
16.6129471221
 20
12.1479217214
 10
16.6176221582
 20
12.1177371359
 10
16.6241547452
 20
12.0877254741
 10
16.6325324478
 20
12.0579438651
 10
16.6427393187
 20
12.0284489998
 10
16.6547559285
 20
11.9992970233
 10
16.6685594029
 20
11.9705434282
 10
16.6841234661
 20
11.9422429484
 10
16.7014184912
 20
11.9144494557
 10
16.720411556
 20
11.8872158563
 10
16.7410665062
 20
11.8605939912
 10
16.7633440239
 20
11.8346345365
 10
16.7872017026
 20
11.8093869075
 10
16.8125941278
 20
11.7848991645
 10
16.8394729636
 20
11.7612179213
 10
16.8677870446
 20
11.7383882565
 10
16.8974824734
 20
11.7164536276
 10
16.9285027229
 20
11.6954557886
 10
16.9607887445
 20
11.6754347099
 10
16.9942790798
 20
11.6564285028
 10
17.0289099781
 20
11.6384733468
 10
17.0646155175
 20
11.6216034204
 10
17.1013277304
 20
11.6058508366
  0
LINE
  5
5E6
100
AcDbEntity
  8
AXIS
100
AcDbLine
 62
7
  6
CONTINUOUS
 10
16.5993592265
 20
7.381743471
 11
16.5993592265
 21
7.3507003474
  0
LINE
  5
5E7
100
AcDbEntity
  8
0
100
AcDbLine
 62
7
  6
CONTINUOUS
 10
16.6072332422
 20
7.3827150245
 11
16.6072332422
 21
7.7585394948
  0
LINE
  5
5E8
100
AcDbEntity
  8
AXIS
100
AcDbLine
 62
7
  6
CONTINUOUS
 10
16.6072332422
 20
8.5157562054
 11
16.6072332422
 21
8.8915806757
  0
LINE
  5
5E9
100
AcDbEntity
  8
AXIS
100
AcDbLine
 62
7
  6
CONTINUOUS
 10
16.6072332422
 20
9.6487973863
 11
16.6072332422
 21
10.0246218566
  0
LINE
  5
5EA
100
AcDbEntity
  8
AXIS
100
AcDbLine
 62
7
  6
CONTINUOUS
 10
16.6072332422
 20
10.7818385672
 11
16.6072332422
 21
11.1576630375
  0
LINE
  5
5EB
100
AcDbEntity
  8
AXIS
100
AcDbLine
 62
7
  6
CONTINUOUS
 10
16.6092017462
 20
7.7359715615
 11
16.6092017462
 21
8.4931882721
  0
LINE
  5
5EC
100
AcDbEntity
  8
AXIS
100
AcDbLine
 62
7
  6
CONTINUOUS
 10
16.6092017462
 20
8.8690127424
 11
16.6092017462
 21
9.626229453
  0
LINE
  5
5ED
100
AcDbEntity
  8
AXIS
100
AcDbLine
 62
7
  6
CONTINUOUS
 10
16.6092017462
 20
10.0020539233
 11
16.6092017462
 21
10.7592706338
  0
LINE
  5
5EE
100
AcDbEntity
  8
AXIS
100
AcDbLine
 62
7
  6
CONTINUOUS
 10
16.6092017462
 20
11.1350951042
 11
16.6092017462
 21
12.2085796119
  0
LWPOLYLINE
  5
5EF
100
AcDbEntity
  8
AXIS
100
AcDbPolyline
 62
7
  6
CONTINUOUS
 90
3
 70
0
 10
16.6072332422
 20
10.0246218566
 10
16.6091037783
 20
10.0675521661
 10
16.6092017462
 20
10.0679984352
  0
LWPOLYLINE
  5
5F0
100
AcDbEntity
  8
AXIS
100
AcDbPolyline
 62
7
  6
CONTINUOUS
 90
3
 70
0
 10
16.6072332422
 20
8.8915806757
 10
16.6091037783
 20
8.9345109852
 10
16.6092017462
 20
8.9349572543
  0
LWPOLYLINE
  5
5F1
100
AcDbEntity
  8
0
100
AcDbPolyline
 62
7
  6
CONTINUOUS
 90
3
 70
0
 10
16.6072332422
 20
7.7585394948
 10
16.6091037783
 20
7.8014698043
 10
16.6092017462
 20
7.8019160734
  0
LWPOLYLINE
  5
5F2
100
AcDbEntity
  8
0
100
AcDbPolyline
 62
7
  6
CONTINUOUS
 90
3
 70
0
 10
16.5993592265
 20
7.381743471
 10
16.6038523468
 20
7.4485004338
 10
16.6072332422
 20
7.4627244064
  0
LWPOLYLINE
  5
5F3
100
AcDbEntity
  8
AXIS
100
AcDbPolyline
 62
7
  6
CONTINUOUS
 90
4
 70
0
 10
17.1013277304
 20
11.220938141
 10
17.1070213109
 20
11.244945702
 10
17.1127365038
 20
11.2689798307
 10
17.1184730474
 20
11.2930403033
  0
LINE
  5
5F4
100
AcDbEntity
  8
AXIS
100
AcDbLine
 62
7
  6
CONTINUOUS
 10
17.1013277304
 20
11.3785644714
 11
17.0819511232
 21
11.3020778606
  0
LWPOLYLINE
  5
5F5
100
AcDbEntity
  8
0
100
AcDbPolyline
 62
7
  6
CONTINUOUS
 90
3
 70
0
 10
17.0083609605
 20
6.5900672448
 10
17.01688021
 20
6.5348512389
 10
17.0408121964
 20
6.4731993238
  0
LWPOLYLINE
  5
5F6
100
AcDbEntity
  8
0
100
AcDbPolyline
 62
7
  6
CONTINUOUS
 90
3
 70
0
 10
17.0070790064
 20
6.6036653844
 10
17.01688021
 20
6.5401406203
 10
17.0408121964
 20
6.4784887053
  0
LWPOLYLINE
  5
5F7
100
AcDbEntity
  8
0
100
AcDbPolyline
 62
7
  6
CONTINUOUS
 90
3
 70
0
 10
17.0083609605
 20
6.6318255193
 10
17.01688021
 20
6.5766095134
 10
17.0408121964
 20
6.5149575983
  0
LWPOLYLINE
  5
5F8
100
AcDbEntity
  8
0
100
AcDbPolyline
 62
7
  6
CONTINUOUS
 90
3
 70
0
 10
17.0070863491
 20
6.6453760685
 10
17.01688021
 20
6.5818988948
 10
17.0408121964
 20
6.5202469798
  0
LWPOLYLINE
  5
5F9
100
AcDbEntity
  8
0
100
AcDbPolyline
 62
7
  6
CONTINUOUS
 90
3
 70
0
 10
17.0133254588
 20
6.6414072775
 10
17.01688021
 20
6.6183677879
 10
17.0408121964
 20
6.5567158728
  0
LWPOLYLINE
  5
5FA
100
AcDbEntity
  8
0
100
AcDbPolyline
 62
7
  6
CONTINUOUS
 90
3
 70
0
 10
17.0142303679
 20
6.6408316513
 10
17.01688021
 20
6.6236571693
 10
17.0408121964
 20
6.5620052542
  0
LWPOLYLINE
  5
5FB
100
AcDbEntity
  8
0
100
AcDbPolyline
 62
7
  6
CONTINUOUS
 90
3
 70
0
 10
16.7077261398
 20
12.268803037
 10
16.70921278
 20
12.2407131616
 10
16.7124802009
 20
12.2126987343
  0
LWPOLYLINE
  5
5FC
100
AcDbEntity
  8
0
100
AcDbPolyline
 62
7
  6
CONTINUOUS
 90
7
 70
0
 10
17.0068395415
 20
6.5682787667
 10
17.0070790064
 20
6.5566177284
 10
17.01688021
 20
6.4930929644
 10
17.0408121964
 20
6.4314410494
 10
17.0782884354
 20
6.3731984867
 10
17.1283904518
 20
6.3198182226
 10
17.1898903348
 20
6.2726340373
  0
LWPOLYLINE
  5
5FD
100
AcDbEntity
  8
0
100
AcDbPolyline
 62
7
  6
CONTINUOUS
 90
6
 70
0
 10
17.0068395415
 20
6.5735681482
 10
17.0070790064
 20
6.5619071099
 10
17.01688021
 20
6.4983823459
 10
17.0408121964
 20
6.4367304308
 10
17.0782884354
 20
6.3784878681
 10
17.1283904518
 20
6.325107604
  0
LINE
  5
5FE
100
AcDbEntity
  8
0
100
AcDbLine
 62
7
  6
CONTINUOUS
 10
17.0068395415
 20
6.6153264226
 11
17.0070790064
 21
6.6036653844
  0
LINE
  5
5FF
100
AcDbEntity
  8
0
100
AcDbLine
 62
7
  6
CONTINUOUS
 10
18.4458409231
 20
11.5546222766
 11
18.5183420077
 21
11.6645600209
  0
LINE
  5
600
100
AcDbEntity
  8
AXIS
100
AcDbLine
 62
7
  6
CONTINUOUS
 10
16.6092017462
 20
11.9026078973
 11
16.6226698116
 21
11.7878678628
  0
LINE
  5
601
100
AcDbEntity
  8
0
100
AcDbLine
 62
7
  6
CONTINUOUS
 10
17.0083609605
 20
6.6318255193
 11
17.0068395415
 21
6.6153264226
  0
LINE
  5
602
100
AcDbEntity
  8
0
100
AcDbLine
 62
7
  6
CONTINUOUS
 10
17.0083609605
 20
6.5900672448
 11
17.0068395415
 21
6.5735681482
  0
LWPOLYLINE
  5
603
100
AcDbEntity
  8
AXIS
100
AcDbPolyline
 62
7
  6
CONTINUOUS
 90
11
 70
0
 10
17.1003434785
 20
9.0448631534
 10
17.2656786073
 20
8.991076207
 10
17.4421757243
 20
8.9596871665
 10
17.6238244319
 20
8.9517649481
 10
17.8044389011
 20
8.9675793333
 10
17.9778685228
 20
9.0065917823
 10
18.1382073593
 20
9.0674737729
 10
18.2799952638
 20
9.1481520419
 10
18.3984038192
 20
9.2458791877
 10
18.4894007643
 20
9.3573272295
 10
18.5498873071
 20
9.4787009379
  0
LWPOLYLINE
  5
604
100
AcDbEntity
  8
AXIS
100
AcDbPolyline
 62
7
  6
CONTINUOUS
 90
6
 70
0
 10
17.1003434785
 20
9.0448631534
 10
16.9518006273
 20
9.1192163558
 10
16.8251085024
 20
9.211603805
 10
16.7245814522
 20
9.3188793573
 10
16.6536428048
 20
9.4373898723
 10
16.6147082908
 20
9.5630996167
  0
LINE
  5
605
100
AcDbEntity
  8
0
100
AcDbLine
 62
7
  6
CONTINUOUS
 10
16.7124802009
 20
12.2126987343
 11
16.7175218222
 21
12.1848161738
  0
LINE
  5
606
100
AcDbEntity
  8
02___PRT_ALL_AXES
100
AcDbLine
 62
7
  6
CONTINUOUS
 10
17.4859537147
 20
6.1544518331
 11
17.4859537147
 21
5.4774241543
  0
LINE
  5
607
100
AcDbEntity
  8
0
100
AcDbLine
 62
7
  6
CONTINUOUS
 10
18.5183420077
 20
11.6645600209
 11
18.5627483288
 21
11.7817362947
  0
LWPOLYLINE
  5
608
100
AcDbEntity
  8
AXIS
100
AcDbPolyline
 62
7
  6
CONTINUOUS
 90
11
 70
0
 10
17.1003434785
 20
9.4206876238
 10
17.2656786073
 20
9.3669006774
 10
17.4421757243
 20
9.3355116369
 10
17.6238244319
 20
9.3275894184
 10
17.8044389011
 20
9.3434038036
 10
17.9778685228
 20
9.3824162526
 10
18.1382073593
 20
9.4432982432
 10
18.2799952638
 20
9.5239765122
 10
18.3984038192
 20
9.621703658
 10
18.4894007643
 20
9.7331516998
 10
18.5498873071
 20
9.8545254082
  0
LWPOLYLINE
  5
609
100
AcDbEntity
  8
AXIS
100
AcDbPolyline
 62
7
  6
CONTINUOUS
 90
6
 70
0
 10
17.1003434785
 20
9.4206876238
 10
16.9518006273
 20
9.4950408261
 10
16.8251085024
 20
9.5874282753
 10
16.7245814522
 20
9.6947038276
 10
16.6536428048
 20
9.8132143426
 10
16.6147082908
 20
9.938924087
  0
LWPOLYLINE
  5
60A
100
AcDbEntity
  8
AXIS
100
AcDbPolyline
 62
7
  6
CONTINUOUS
 90
6
 70
0
 10
16.6226698116
 20
11.7878678628
 10
16.6648691491
 20
11.671867088
 10
16.7345723936
 20
11.5626999584
 10
16.8297154628
 20
11.4636000271
 10
16.9474804925
 20
11.3775028917
 10
17.0833252767
 20
11.3075021511
  0
LINE
  5
60B
100
AcDbEntity
  8
AXIS
100
AcDbLine
 62
7
  6
CONTINUOUS
 10
17.1013277304
 20
11.220938141
 11
17.0819511232
 21
11.2974247518
  0
LWPOLYLINE
  5
60C
100
AcDbEntity
  8
0
100
AcDbPolyline
 62
7
  6
CONTINUOUS
 90
21
 70
0
 10
16.7175218222
 20
12.1848161738
 10
16.7243274906
 20
12.1571216329
 10
16.7328835
 20
12.129670886
 10
16.7431726194
 20
12.1025192163
 10
16.7551741275
 20
12.0757213049
 10
16.7688638544
 20
12.0493311203
 10
16.7842142301
 20
12.0234018099
 10
16.8011943404
 20
11.997985593
 10
16.8197699889
 20
11.9731336556
 10
16.839903766
 20
11.9488960471
 10
16.861555124
 20
11.92532158
 10
16.8846804593
 20
11.9024577308
 10
16.9092331984
 20
11.8803505462
 10
16.9351638987
 20
11.8590445448
 10
16.9624203237
 20
11.8385826455
 10
16.9909476276
 20
11.8190060246
 10
17.0206882136
 20
11.8003542009
 10
17.0515826392
 20
11.7826644723
 10
17.0835672702
 20
11.7659732202
 10
17.1165805709
 20
11.7503126086
 10
17.1505403289
 20
11.7357208383
  0
LWPOLYLINE
  5
60D
100
AcDbEntity
  8
0
100
AcDbPolyline
 62
7
  6
CONTINUOUS
 90
4
 70
0
 10
17.1184730474
 20
11.2927846717
 10
17.1127365188
 20
11.3213503547
 10
17.1070213403
 20
11.3499436923
 10
17.1013277304
 20
11.3785644714
  0
LINE
  5
60E
100
AcDbEntity
  8
02___PRT_ALL_AXES
100
AcDbLine
 62
7
  6
CONTINUOUS
 10
17.7009537147
 20
6.1542133535
 11
17.7009537147
 21
5.4774241543
  0
LWPOLYLINE
  5
60F
100
AcDbEntity
  8
0
100
AcDbPolyline
 62
7
  6
CONTINUOUS
 90
3
 70
0
 10
18.4673140352
 20
12.1755677462
 10
18.472944547
 20
12.2033938998
 10
18.4768038444
 20
12.2313706592
  0
LINE
  5
610
100
AcDbEntity
  8
0
100
AcDbLine
 62
7
  6
CONTINUOUS
 10
18.4599236483
 20
12.1479482378
 11
18.4673140352
 21
12.1755677462
  0
LWPOLYLINE
  5
611
100
AcDbEntity
  8
AXIS
100
AcDbPolyline
 62
7
  6
CONTINUOUS
 90
7
 70
0
 10
17.0819689492
 20
11.2974269778
 10
17.0829710085
 20
11.2948526154
 10
17.0879163825
 20
11.2896899973
 10
17.0955543262
 20
11.2865718199
 10
17.1043499032
 20
11.2861247182
 10
17.1125365625
 20
11.2884365948
 10
17.1184730474
 20
11.2930403033
  0
LWPOLYLINE
  5
612
100
AcDbEntity
  8
0
100
AcDbPolyline
 62
7
  6
CONTINUOUS
 90
3
 70
0
 10
18.1800678879
 20
6.5944472854
 10
18.179828423
 20
6.6064881343
 10
18.178613037
 20
6.6146237447
  0
LINE
  5
613
100
AcDbEntity
  8
0
100
AcDbLine
 62
7
  6
CONTINUOUS
 10
18.1800678879
 20
6.6362055599
 11
18.1798842268
 21
6.6454404615
  0
LINE
  5
614
100
AcDbEntity
  8
0
100
AcDbLine
 62
7
  6
CONTINUOUS
 10
17.9492747248
 20
6.2532713868
 11
17.9492747248
 21
6.2585607683
  0
LINE
  5
615
100
AcDbEntity
  8
0
100
AcDbLine
 62
7
  6
CONTINUOUS
 10
17.9492747248
 20
6.2950296613
 11
17.9492747248
 21
6.3003190428
  0
LINE
  5
616
100
AcDbEntity
  8
0
100
AcDbLine
 62
7
  6
CONTINUOUS
 10
17.9492747248
 20
6.3367879358
 11
17.9492747248
 21
6.3420773172
  0
LINE
  5
617
100
AcDbEntity
  8
0
100
AcDbLine
 62
7
  6
CONTINUOUS
 10
17.9492747248
 20
6.3785462103
 11
17.9492747248
 21
6.3838355917
  0
LINE
  5
618
100
AcDbEntity
  8
0
100
AcDbLine
 62
7
  6
CONTINUOUS
 10
17.9492747248
 20
6.4203044848
 11
17.9492747248
 21
6.4255938662
  0
LINE
  5
619
100
AcDbEntity
  8
0
100
AcDbLine
 62
7
  6
CONTINUOUS
 10
17.9492747248
 20
6.4620627592
 11
17.9492747248
 21
6.4673521407
  0
LINE
  5
61A
100
AcDbEntity
  8
0
100
AcDbLine
 62
7
  6
CONTINUOUS
 10
17.9492747248
 20
6.5038210337
 11
17.9492747248
 21
6.5091104151
  0
LINE
  5
61B
100
AcDbEntity
  8
0
100
AcDbLine
 62
7
  6
CONTINUOUS
 10
17.9930265487
 20
6.2763050775
 11
17.9930265487
 21
6.2965631966
  0
LINE
  5
61C
100
AcDbEntity
  8
0
100
AcDbLine
 62
7
  6
CONTINUOUS
 10
18.0104179896
 20
6.5238525621
 11
18.0104179896
 21
6.5163146502
  0
LINE
  5
61D
100
AcDbEntity
  8
0
100
AcDbLine
 62
7
  6
CONTINUOUS
 10
18.0104179896
 20
6.4820942876
 11
18.0104179896
 21
6.4745563758
  0
LINE
  5
61E
100
AcDbEntity
  8
0
100
AcDbLine
 62
7
  6
CONTINUOUS
 10
18.0104179896
 20
6.4403360131
 11
18.0104179896
 21
6.4327981013
  0
LINE
  5
61F
100
AcDbEntity
  8
0
100
AcDbLine
 62
7
  6
CONTINUOUS
 10
18.0104179896
 20
6.3985777386
 11
18.0104179896
 21
6.3910398268
  0
LINE
  5
620
100
AcDbEntity
  8
0
100
AcDbLine
 62
7
  6
CONTINUOUS
 10
18.0104179896
 20
6.3568194641
 11
18.0104179896
 21
6.3492815523
  0
LINE
  5
621
100
AcDbEntity
  8
0
100
AcDbLine
 62
7
  6
CONTINUOUS
 10
18.0207994068
 20
6.3025867293
 11
18.0207994068
 21
6.3265836273
  0
LINE
  5
622
100
AcDbEntity
  8
0
100
AcDbLine
 62
7
  6
CONTINUOUS
 10
18.1037339518
 20
6.4301779562
 11
18.1037339518
 21
6.4041603879
  0
LINE
  5
623
100
AcDbEntity
  8
0
100
AcDbLine
 62
7
  6
CONTINUOUS
 10
18.1141153691
 20
6.4788001045
 11
18.1141153691
 21
6.4863380164
  0
LINE
  5
624
100
AcDbEntity
  8
0
100
AcDbLine
 62
7
  6
CONTINUOUS
 10
18.1141153691
 20
6.520558379
 11
18.1141153691
 21
6.5280962909
  0
LINE
  5
625
100
AcDbEntity
  8
0
100
AcDbLine
 62
7
  6
CONTINUOUS
 10
18.1141153691
 20
6.5623166535
 11
18.1141153691
 21
6.5698545653
  0
LINE
  5
626
100
AcDbEntity
  8
0
100
AcDbLine
 62
7
  6
CONTINUOUS
 10
18.122035841
 20
6.4559108655
 11
18.122035841
 21
6.4343085466
  0
LWPOLYLINE
  5
627
100
AcDbEntity
  8
02___PRT_ALL_AXES
100
AcDbPolyline
 62
7
  6
CONTINUOUS
 90
16
 70
0
 10
17.7009528878
 20
5.4774241544
 10
17.7004669464
 20
5.4701985662
 10
17.6979234583
 20
5.4595031795
 10
17.6932532675
 20
5.4491726122
 10
17.6865514456
 20
5.4394171648
 10
17.6779544224
 20
5.4304354301
 10
17.6676372084
 20
5.4224102503
 10
17.6558098325
 20
5.415504995
 10
17.6427130658
 20
5.4098602352
 10
17.6286135207
 20
5.4055908819
 10
17.6137982235
 20
5.4027838469
 10
17.5985687706
 20
5.4014962734
 10
17.58323519
 20
5.4017543725
 10
17.5681096291
 20
5.4035528902
 10
17.5535000007
 20
5.4068552137
 10
17.5397037147
 20
5.4115941174
  0
LWPOLYLINE
  5
628
100
AcDbEntity
  8
AXIS
100
AcDbPolyline
 62
7
  6
CONTINUOUS
 90
3
 70
0
 10
18.5498873071
 20
10.9875665891
 10
18.5778036511
 20
11.114732728
 10
18.5796741871
 20
11.1576630375
  0
LINE
  5
629
100
AcDbEntity
  8
0
100
AcDbLine
 62
7
  6
CONTINUOUS
 10
18.1752586338
 20
6.6241064563
 11
18.1752586338
 21
6.6188170749
  0
LINE
  5
62A
100
AcDbEntity
  8
0
100
AcDbLine
 62
7
  6
CONTINUOUS
 10
18.1752586338
 20
6.5823481819
 11
18.1752586338
 21
6.5770588004
  0
LINE
  5
62B
100
AcDbEntity
  8
0
100
AcDbLine
 62
7
  6
CONTINUOUS
 10
18.1752586338
 20
6.5405899074
 11
18.1752586338
 21
6.5353005259
  0
LINE
  5
62C
100
AcDbEntity
  8
0
100
AcDbLine
 62
7
  6
CONTINUOUS
 10
18.4768038444
 20
12.2313706592
 11
18.4788841551
 21
12.2594416817
  0
LINE
  5
62D
100
AcDbEntity
  8
0
100
AcDbLine
 62
7
  6
CONTINUOUS
 10
18.1752586338
 20
6.6241064563
 11
18.1769790346
 21
6.6433727025
  0
LINE
  5
62E
100
AcDbEntity
  8
0
100
AcDbLine
 62
7
  6
CONTINUOUS
 10
18.1752586338
 20
6.6188170749
 11
18.177483412
 21
6.6437316912
  0
LINE
  5
62F
100
AcDbEntity
  8
0
100
AcDbLine
 62
7
  6
CONTINUOUS
 10
18.1752586338
 20
6.5823481819
 11
18.1800678879
 21
6.6362055599
  0
LINE
  5
630
100
AcDbEntity
  8
0
100
AcDbLine
 62
7
  6
CONTINUOUS
 10
18.1752586338
 20
6.5770588004
 11
18.1789579872
 21
6.6184867371
  0
LINE
  5
631
100
AcDbEntity
  8
0
100
AcDbLine
 62
7
  6
CONTINUOUS
 10
18.1752586338
 20
6.5405899074
 11
18.1800678879
 21
6.5944472854
  0
LINE
  5
632
100
AcDbEntity
  8
0
100
AcDbLine
 62
7
  6
CONTINUOUS
 10
18.1752586338
 20
6.5353005259
 11
18.1789579872
 21
6.5767284626
  0
LINE
  5
633
100
AcDbEntity
  8
0
100
AcDbLine
 62
7
  6
CONTINUOUS
 10
18.5627483288
 20
11.7817362947
 11
18.5777056832
 21
11.9026078973
  0
LWPOLYLINE
  5
634
100
AcDbEntity
  8
AXIS
100
AcDbPolyline
 62
7
  6
CONTINUOUS
 90
3
 70
0
 10
18.5498873071
 20
10.6117421187
 10
18.5778036511
 20
10.7389082577
 10
18.5796741871
 20
10.7818385672
  0
LWPOLYLINE
  5
635
100
AcDbEntity
  8
AXIS
100
AcDbPolyline
 62
7
  6
CONTINUOUS
 90
3
 70
0
 10
18.5498873071
 20
9.8545254082
 10
18.5778036511
 20
9.9816915471
 10
18.5796741871
 20
10.0246218566
  0
LWPOLYLINE
  5
636
100
AcDbEntity
  8
AXIS
100
AcDbPolyline
 62
7
  6
CONTINUOUS
 90
11
 70
0
 10
17.1003434785
 20
10.1779043343
 10
17.2656786073
 20
10.1241173879
 10
17.4421757243
 20
10.0927283474
 10
17.6238244319
 20
10.084806129
 10
17.8044389011
 20
10.1006205142
 10
17.9778685228
 20
10.1396329632
 10
18.1382073593
 20
10.2005149538
 10
18.2799952638
 20
10.2811932228
 10
18.3984038192
 20
10.3789203686
 10
18.4894007643
 20
10.4903684103
 10
18.5498873071
 20
10.6117421187
  0
LWPOLYLINE
  5
637
100
AcDbEntity
  8
AXIS
100
AcDbPolyline
 62
7
  6
CONTINUOUS
 90
6
 70
0
 10
17.1003434785
 20
10.1779043343
 10
16.9518006273
 20
10.2522575367
 10
16.8251085024
 20
10.3446449859
 10
16.7245814522
 20
10.4519205381
 10
16.6536428048
 20
10.5704310532
 10
16.6147082908
 20
10.6961407975
  0
LINE
  5
638
100
AcDbEntity
  8
0
100
AcDbLine
 62
7
  6
CONTINUOUS
 10
18.5864217974
 20
7.4151967083
 11
18.5777056832
 21
7.466739596
  0
LINE
  5
639
100
AcDbEntity
  8
0
100
AcDbLine
 62
7
  6
CONTINUOUS
 10
18.5796741871
 20
7.7585394948
 11
18.5777056832
 21
7.7811074282
  0
LINE
  5
63A
100
AcDbEntity
  8
AXIS
100
AcDbLine
 62
7
  6
CONTINUOUS
 10
18.5796741871
 20
8.8915806757
 11
18.5777056832
 21
8.9141486091
  0
LINE
  5
63B
100
AcDbEntity
  8
AXIS
100
AcDbLine
 62
7
  6
CONTINUOUS
 10
18.5796741871
 20
10.0246218566
 11
18.5777056832
 21
10.0471897899
  0
LINE
  5
63C
100
AcDbEntity
  8
0
100
AcDbLine
 62
7
  6
CONTINUOUS
 10
18.5875482029
 20
7.381743471
 11
18.5864217974
 21
7.4151967083
  0
LINE
  5
63D
100
AcDbEntity
  8
AXIS
100
AcDbLine
 62
7
  6
CONTINUOUS
 10
18.5777056832
 20
7.7151629163
 11
18.5777056832
 21
8.4723796269
  0
LINE
  5
63E
100
AcDbEntity
  8
AXIS
100
AcDbLine
 62
7
  6
CONTINUOUS
 10
18.5777056832
 20
8.8482040972
 11
18.5777056832
 21
9.6054208077
  0
LINE
  5
63F
100
AcDbEntity
  8
AXIS
100
AcDbLine
 62
7
  6
CONTINUOUS
 10
18.5777056832
 20
9.981245278
 11
18.5777056832
 21
10.7384619886
  0
LINE
  5
640
100
AcDbEntity
  8
AXIS
100
AcDbLine
 62
7
  6
CONTINUOUS
 10
18.5777056832
 20
11.1142864589
 11
18.5777056832
 21
12.2085796119
  0
LINE
  5
641
100
AcDbEntity
  8
0
100
AcDbLine
 62
7
  6
CONTINUOUS
 10
18.5796741871
 20
7.3827150245
 11
18.5796741871
 21
7.7585394948
  0
LINE
  5
642
100
AcDbEntity
  8
AXIS
100
AcDbLine
 62
7
  6
CONTINUOUS
 10
18.5796741871
 20
8.5157562054
 11
18.5796741871
 21
8.8915806757
  0
LINE
  5
643
100
AcDbEntity
  8
AXIS
100
AcDbLine
 62
7
  6
CONTINUOUS
 10
18.5796741871
 20
9.6487973863
 11
18.5796741871
 21
10.0246218566
  0
LINE
  5
644
100
AcDbEntity
  8
AXIS
100
AcDbLine
 62
7
  6
CONTINUOUS
 10
18.5796741871
 20
10.7818385672
 11
18.5796741871
 21
11.1576630375
  0
LINE
  5
645
100
AcDbEntity
  8
AXIS
100
AcDbLine
 62
7
  6
CONTINUOUS
 10
18.5875482029
 20
7.381743471
 11
18.5875482029
 21
7.3507003474
  0
LWPOLYLINE
  5
646
100
AcDbEntity
  8
0
100
AcDbPolyline
 62
7
  6
CONTINUOUS
 90
25
 70
0
 10
18.4788841551
 20
12.2594416817
 10
18.4791812896
 20
12.287550435
 10
18.4776946494
 20
12.3156403105
 10
18.4744272284
 20
12.3436547377
 10
18.4693856071
 20
12.3715372983
 10
18.4625799388
 20
12.3992318391
 10
18.4540239294
 20
12.426682586
 10
18.4437348099
 20
12.4538342557
 10
18.4317333018
 20
12.4806321671
 10
18.418043575
 20
12.5070223517
 10
18.4026931993
 20
12.5329516621
 10
18.385713089
 20
12.558367879
 10
18.3671374405
 20
12.5832198165
 10
18.3470036634
 20
12.607457425
 10
18.3253523054
 20
12.6310318921
 10
18.3022269701
 20
12.6538957413
 10
18.2776742309
 20
12.6760029258
 10
18.2517435307
 20
12.6973089273
 10
18.2244871056
 20
12.7177708266
 10
18.1959598017
 20
12.7373474474
 10
18.1662192158
 20
12.7559992711
 10
18.1353247902
 20
12.7736889997
 10
18.1033401591
 20
12.7903802518
 10
18.0703268585
 20
12.8060408635
 10
18.0363671005
 20
12.8206326338
  0
LWPOLYLINE
  5
647
100
AcDbEntity
  8
AXIS
100
AcDbPolyline
 62
7
  6
CONTINUOUS
 90
6
 70
0
 10
18.5875462623
 20
7.3507003475
 10
18.5852802903
 20
7.3032456567
 10
18.5734020348
 20
7.2325370255
 10
18.5514681835
 20
7.1630409099
 10
18.5197038073
 20
7.0954704341
 10
18.4784348518
 20
7.0305189626
  0
LINE
  5
648
100
AcDbEntity
  8
0
100
AcDbLine
 62
7
  6
CONTINUOUS
 10
18.1208913101
 20
6.4284750543
 11
18.122035841
 21
6.4343085466
  0
LWPOLYLINE
  5
649
100
AcDbEntity
  8
0
100
AcDbPolyline
 62
7
  6
CONTINUOUS
 90
3
 70
0
 10
18.1359804351
 20
6.4760715044
 10
18.1340755253
 20
6.4667209375
 10
18.1208913101
 20
6.4284750543
  0
LWPOLYLINE
  5
64A
100
AcDbEntity
  8
AXIS
100
AcDbPolyline
 62
7
  6
CONTINUOUS
 90
3
 70
0
 10
18.5498873071
 20
9.4787009379
 10
18.5778036511
 20
9.6058670768
 10
18.5796741871
 20
9.6487973863
  0
LWPOLYLINE
  5
64B
100
AcDbEntity
  8
AXIS
100
AcDbPolyline
 62
7
  6
CONTINUOUS
 90
3
 70
0
 10
18.5498873071
 20
8.7214842273
 10
18.5778036511
 20
8.8486503662
 10
18.5796741871
 20
8.8915806757
  0
LWPOLYLINE
  5
64C
100
AcDbEntity
  8
AXIS
100
AcDbPolyline
 62
7
  6
CONTINUOUS
 90
11
 70
0
 10
17.1003434785
 20
10.5537288046
 10
17.2656786073
 20
10.4999418582
 10
17.4421757243
 20
10.4685528177
 10
17.6238244319
 20
10.4606305993
 10
17.8044389011
 20
10.4764449845
 10
17.9778685228
 20
10.5154574335
 10
18.1382073593
 20
10.5763394241
 10
18.2799952638
 20
10.6570176931
 10
18.3984038192
 20
10.7547448389
 10
18.4894007643
 20
10.8661928807
 10
18.5498873071
 20
10.9875665891
  0
LWPOLYLINE
  5
64D
100
AcDbEntity
  8
AXIS
100
AcDbPolyline
 62
7
  6
CONTINUOUS
 90
6
 70
0
 10
17.1003434785
 20
10.5537288046
 10
16.9518006273
 20
10.628082007
 10
16.8251085024
 20
10.7204694562
 10
16.7245814522
 20
10.8277450084
 10
16.6536428048
 20
10.9462555235
 10
16.6147082908
 20
11.0719652679
  0
LINE
  5
64E
100
AcDbEntity
  8
AXIS
100
AcDbLine
 62
7
  6
CONTINUOUS
 10
18.5796741871
 20
11.1576630375
 11
18.5777056832
 21
11.1802309708
  0
LINE
  5
64F
100
AcDbEntity
  8
0
100
AcDbLine
 62
7
  6
CONTINUOUS
 10
18.5830475526
 20
7.3149307198
 11
18.5875482029
 21
7.381743471
  0
LWPOLYLINE
  5
650
100
AcDbEntity
  8
AXIS
100
AcDbPolyline
 62
7
  6
CONTINUOUS
 90
3
 70
0
 10
18.5498873071
 20
8.345659757
 10
18.5778036511
 20
8.4728258959
 10
18.5796741871
 20
8.5157562054
  0
LWPOLYLINE
  5
651
100
AcDbEntity
  8
0
100
AcDbPolyline
 62
7
  6
CONTINUOUS
 90
3
 70
0
 10
18.5498873071
 20
7.5884430464
 10
18.5778036511
 20
7.7156091853
 10
18.5796741871
 20
7.7585394948
  0
LINE
  5
652
100
AcDbEntity
  8
0
100
AcDbLine
 62
7
  6
CONTINUOUS
 10
18.1334277976
 20
6.4723170228
 11
18.122035841
 21
6.4343085466
  0
LWPOLYLINE
  5
653
100
AcDbEntity
  8
0
100
AcDbPolyline
 62
7
  6
CONTINUOUS
 90
3
 70
0
 10
18.5498873071
 20
7.2126185761
 10
18.5778036511
 20
7.339784715
 10
18.5796741871
 20
7.3827150245
  0
LWPOLYLINE
  5
654
100
AcDbEntity
  8
AXIS
100
AcDbPolyline
 62
7
  6
CONTINUOUS
 90
9
 70
0
 10
18.4556876679
 20
7.0026594658
 10
18.4511315164
 20
6.9866518546
 10
18.4221516008
 20
6.9219992198
 10
18.3834559602
 20
6.859941145
 10
18.3354982656
 20
6.8012052045
 10
18.2788407771
 20
6.7464800234
 10
18.214147752
 20
6.6964072045
 10
18.1421776567
 20
6.6515738058
 10
18.0637742749
 20
6.6125054579
  0
LWPOLYLINE
  5
655
100
AcDbEntity
  8
AXIS
100
AcDbPolyline
 62
7
  6
CONTINUOUS
 90
7
 70
0
 10
18.4580171191
 20
7.0055124491
 10
18.4427296584
 20
6.9527963283
 10
18.3966349176
 20
6.8609758795
 10
18.3326979375
 20
6.7749817664
 10
18.2514165989
 20
6.6963533404
 10
18.155171354
 20
6.6278511734
 10
18.0464250278
 20
6.5711296642
  0
LINE
  5
656
100
AcDbEntity
  8
0
100
AcDbLine
 62
7
  6
CONTINUOUS
 10
18.1196900215
 20
6.577827467
 11
18.1141153691
 21
6.5623166535
  0
LINE
  5
657
100
AcDbEntity
  8
0
100
AcDbLine
 62
7
  6
CONTINUOUS
 10
18.1196899169
 20
6.536069043
 11
18.1141153691
 21
6.520558379
  0
LINE
  5
658
100
AcDbEntity
  8
0
100
AcDbLine
 62
7
  6
CONTINUOUS
 10
18.1196899185
 20
6.4943107709
 11
18.1141153691
 21
6.4788001045
  0
LWPOLYLINE
  5
659
100
AcDbEntity
  8
0
100
AcDbPolyline
 62
7
  6
CONTINUOUS
 90
3
 70
0
 10
18.1208913101
 20
6.4284750543
 10
18.1154608875
 20
6.4171110141
 10
18.1087748022
 20
6.4060468719
  0
LWPOLYLINE
  5
65A
100
AcDbEntity
  8
0
100
AcDbPolyline
 62
7
  6
CONTINUOUS
 90
4
 70
0
 10
18.122035841
 20
6.4343085466
 10
18.1170618846
 20
6.4239294987
 10
18.110948624
 20
6.413859306
 10
18.1037339518
 20
6.4041603879
  0
LINE
  5
65B
100
AcDbEntity
  8
0
100
AcDbLine
 62
7
  6
CONTINUOUS
 10
18.4894007643
 20
7.0912448677
 11
18.5498873071
 21
7.2126185761
  0
LWPOLYLINE
  5
65C
100
AcDbEntity
  8
0
100
AcDbPolyline
 62
7
  6
CONTINUOUS
 90
3
 70
0
 10
17.9492747248
 20
6.5091104151
 10
17.9697594902
 20
6.5405713134
 10
17.9717843648
 20
6.5435775082
  0
LWPOLYLINE
  5
65D
100
AcDbEntity
  8
0
100
AcDbPolyline
 62
7
  6
CONTINUOUS
 90
4
 70
0
 10
17.9492747248
 20
6.4673521407
 10
17.9697594902
 20
6.4988130389
 10
17.990149473
 20
6.5290846713
 10
18.0101969303
 20
6.5577567633
  0
LWPOLYLINE
  5
65E
100
AcDbEntity
  8
0
100
AcDbPolyline
 62
7
  6
CONTINUOUS
 90
4
 70
0
 10
17.9492747248
 20
6.4255938662
 10
17.9697594902
 20
6.4570547644
 10
17.990149473
 20
6.4873263968
 10
18.0104179896
 20
6.5163146502
  0
LWPOLYLINE
  5
65F
100
AcDbEntity
  8
0
100
AcDbPolyline
 62
7
  6
CONTINUOUS
 90
4
 70
0
 10
17.9492747248
 20
6.3838355917
 10
17.9697594902
 20
6.4152964899
 10
17.990149473
 20
6.4455681223
 10
18.0104179896
 20
6.4745563758
  0
LWPOLYLINE
  5
660
100
AcDbEntity
  8
0
100
AcDbPolyline
 62
7
  6
CONTINUOUS
 90
4
 70
0
 10
17.9492747248
 20
6.3420773172
 10
17.9697594902
 20
6.3735382155
 10
17.990149473
 20
6.4038098478
 10
18.0104179896
 20
6.4327981013
  0
LWPOLYLINE
  5
661
100
AcDbEntity
  8
AXIS
100
AcDbPolyline
 62
7
  6
CONTINUOUS
 90
10
 70
0
 10
17.1184730474
 20
11.2930403033
 10
17.2733206371
 20
11.2444792054
 10
17.4376501445
 20
11.2154117153
 10
17.6065937749
 20
11.2066986804
 10
17.7751472364
 20
11.2185978821
 10
17.9383182143
 20
11.2507565283
 10
18.0912736896
 20
11.302221684
 10
18.2294822532
 20
11.371467786
 10
18.348849577
 20
11.4564414324
 10
18.4458409231
 20
11.5546222766
  0
LWPOLYLINE
  5
662
100
AcDbEntity
  8
0
100
AcDbPolyline
 62
7
  6
CONTINUOUS
 90
3
 70
0
 10
18.0179197616
 20
6.2938024099
 10
18.0194644052
 20
6.2962495993
 10
18.0207994068
 20
6.3025867293
  0
LWPOLYLINE
  5
663
100
AcDbEntity
  8
0
100
AcDbPolyline
 62
7
  6
CONTINUOUS
 90
3
 70
0
 10
18.1008543067
 20
6.3953760685
 10
18.1023989503
 20
6.3978232579
 10
18.1037339518
 20
6.4041603879
  0
LWPOLYLINE
  5
664
100
AcDbEntity
  8
0
100
AcDbPolyline
 62
7
  6
CONTINUOUS
 90
4
 70
0
 10
17.9492747248
 20
6.3003190428
 10
17.9697594902
 20
6.331779941
 10
17.990149473
 20
6.3620515734
 10
18.0104179896
 20
6.3910398268
  0
LINE
  5
665
100
AcDbEntity
  8
0
100
AcDbLine
 62
7
  6
CONTINUOUS
 10
18.1752586338
 20
6.6188170749
 11
18.1547706057
 21
6.5873512473
  0
LWPOLYLINE
  5
666
100
AcDbEntity
  8
0
100
AcDbPolyline
 62
7
  6
CONTINUOUS
 90
4
 70
0
 10
17.9492747248
 20
6.2585607683
 10
17.9697594902
 20
6.2900216665
 10
17.990149473
 20
6.3202932989
 10
18.0104179896
 20
6.3492815523
  0
LINE
  5
667
100
AcDbEntity
  8
0
100
AcDbLine
 62
7
  6
CONTINUOUS
 10
18.1752586338
 20
6.5770588004
 11
18.1547706057
 21
6.5455929728
  0
LWPOLYLINE
  5
668
100
AcDbEntity
  8
0
100
AcDbPolyline
 62
7
  6
CONTINUOUS
 90
3
 70
0
 10
18.153246896
 20
6.6268473863
 10
18.1343803498
 20
6.5988376638
 10
18.1141153691
 20
6.5698545653
  0
LWPOLYLINE
  5
669
100
AcDbEntity
  8
0
100
AcDbPolyline
 62
7
  6
CONTINUOUS
 90
3
 70
0
 10
18.1547706057
 20
6.5873512473
 10
18.1343803498
 20
6.5570793893
 10
18.1141153691
 20
6.5280962909
  0
LWPOLYLINE
  5
66A
100
AcDbEntity
  8
0
100
AcDbPolyline
 62
7
  6
CONTINUOUS
 90
3
 70
0
 10
18.1547706057
 20
6.5455929728
 10
18.1343803498
 20
6.5153211149
 10
18.1141153691
 20
6.4863380164
  0
LWPOLYLINE
  5
66B
100
AcDbEntity
  8
0
100
AcDbPolyline
 62
7
  6
CONTINUOUS
 90
3
 70
0
 10
18.1274280166
 20
6.463492398
 10
18.1512154075
 20
6.4984794745
 10
18.1752586338
 20
6.5353005259
  0
LWPOLYLINE
  5
66C
100
AcDbEntity
  8
0
100
AcDbPolyline
 62
7
  6
CONTINUOUS
 90
4
 70
0
 10
18.4543648013
 20
7.0302780016
 10
18.5163401125
 20
7.1204921092
 10
18.5595274178
 20
7.2160246556
 10
18.5830475526
 20
7.3149307198
  0
LINE
  5
66D
100
AcDbEntity
  8
0
100
AcDbLine
 62
7
  6
CONTINUOUS
 10
18.1037339518
 20
6.4301779562
 11
18.1274280166
 21
6.463492398
  0
LINE
  5
66E
100
AcDbEntity
  8
0
100
AcDbLine
 62
7
  6
CONTINUOUS
 10
18.1087748022
 20
6.4060468719
 11
18.1008543067
 21
6.3953760685
  0
LWPOLYLINE
  5
66F
100
AcDbEntity
  8
0
100
AcDbPolyline
 62
7
  6
CONTINUOUS
 90
3
 70
0
 10
17.9889974135
 20
6.266378575
 10
17.9919090352
 20
6.270173758
 10
17.9930265487
 20
6.2763050775
  0
LINE
  5
670
100
AcDbEntity
  8
0
100
AcDbLine
 62
7
  6
CONTINUOUS
 10
18.3984038192
 20
6.9797968259
 11
18.4894007643
 21
7.0912448677
  0
LWPOLYLINE
  5
671
100
AcDbEntity
  8
AXIS
100
AcDbPolyline
 62
7
  6
CONTINUOUS
 90
7
 70
0
 10
18.4784348518
 20
7.0305189626
 10
18.4280847922
 20
6.9688529854
 10
18.3691702884
 20
6.9111052788
 10
18.3022958827
 20
6.8578684125
 10
18.2281477973
 20
6.8096886687
 10
18.1474868916
 20
6.7670604369
 10
18.0611408558
 20
6.7304211404
  0
LINE
  5
672
100
AcDbEntity
  8
0
100
AcDbLine
 62
7
  6
CONTINUOUS
 10
17.999263438
 20
6.5537208762
 11
17.9901534184
 21
6.5440102419
  0
LWPOLYLINE
  5
673
100
AcDbEntity
  8
0
100
AcDbPolyline
 62
7
  6
CONTINUOUS
 90
36
 70
0
 10
17.1013277304
 20
11.6058508366
 10
17.1389767331
 20
11.5912455812
 10
17.1774908586
 20
11.5778154563
 10
17.2167967931
 20
11.5655860268
 10
17.2568197153
 20
11.5545805721
 10
17.2974834396
 20
11.5448200418
 10
17.33871056
 20
11.5363230155
 10
17.3804225986
 20
11.5291056679
 10
17.422540154
 20
11.5231817376
 10
17.464983053
 20
11.518562501
 10
17.5076705033
 20
11.5152567512
 10
17.5505212468
 20
11.513270781
 10
17.5934537147
 20
11.5126083706
 10
17.6363861826
 20
11.513270781
 10
17.679236926
 20
11.5152567512
 10
17.7219243763
 20
11.518562501
 10
17.7643672754
 20
11.5231817376
 10
17.8064848308
 20
11.5291056679
 10
17.8481968693
 20
11.5363230155
 10
17.8894239898
 20
11.5448200418
 10
17.930087714
 20
11.5545805721
 10
17.9701106363
 20
11.5655860268
 10
18.0094165707
 20
11.5778154563
 10
18.0479306962
 20
11.5912455812
 10
18.0855796989
 20
11.6058508366
 10
18.1222919119
 20
11.6216034204
 10
18.1579974512
 20
11.6384733468
 10
18.1926283495
 20
11.6564285028
 10
18.2261186848
 20
11.6754347099
 10
18.2584047064
 20
11.6954557886
 10
18.289424956
 20
11.7164536276
 10
18.3191203848
 20
11.7383882565
 10
18.3474344658
 20
11.7612179213
 10
18.3743133016
 20
11.7848991645
 10
18.3997057268
 20
11.8093869075
 10
18.4235634054
 20
11.8346345365
  0
LINE
  5
674
100
AcDbEntity
  8
0
100
AcDbLine
 62
7
  6
CONTINUOUS
 10
18.1037339518
 20
6.4041603879
 11
18.0207994068
 21
6.3025867293
  0
LINE
  5
675
100
AcDbEntity
  8
0
100
AcDbLine
 62
7
  6
CONTINUOUS
 10
18.1008543067
 20
6.3953760685
 11
18.0179197616
 21
6.2938024099
  0
LINE
  5
676
100
AcDbEntity
  8
0
100
AcDbLine
 62
7
  6
CONTINUOUS
 10
18.0207994068
 20
6.3025867293
 11
18.0125280427
 21
6.2933192039
  0
LWPOLYLINE
  5
677
100
AcDbEntity
  8
0
100
AcDbPolyline
 62
7
  6
CONTINUOUS
 90
3
 70
0
 10
18.0104179896
 20
6.5238525621
 10
17.9901534184
 20
6.5022519674
 10
17.9697615652
 20
6.4816602028
  0
LWPOLYLINE
  5
678
100
AcDbEntity
  8
0
100
AcDbPolyline
 62
7
  6
CONTINUOUS
 90
4
 70
0
 10
18.0104179896
 20
6.4820942876
 10
17.9901534184
 20
6.4604936929
 10
17.9697615652
 20
6.4399019284
 10
17.9492747248
 20
6.4203044848
  0
LWPOLYLINE
  5
679
100
AcDbEntity
  8
0
100
AcDbPolyline
 62
7
  6
CONTINUOUS
 90
4
 70
0
 10
18.1141153691
 20
6.5623166535
 10
18.1343836388
 20
6.5839210853
 10
18.154775186
 20
6.6045123465
 10
18.1752586338
 20
6.6241064563
  0
LWPOLYLINE
  5
67A
100
AcDbEntity
  8
0
100
AcDbPolyline
 62
7
  6
CONTINUOUS
 90
4
 70
0
 10
18.0104179896
 20
6.4403360131
 10
17.9901534184
 20
6.4187354184
 10
17.9697615652
 20
6.3981436539
 10
17.9492747248
 20
6.3785462103
  0
LWPOLYLINE
  5
67B
100
AcDbEntity
  8
0
100
AcDbPolyline
 62
7
  6
CONTINUOUS
 90
4
 70
0
 10
18.1141153691
 20
6.520558379
 10
18.1343836388
 20
6.5421628108
 10
18.154775186
 20
6.562754072
 10
18.1752586338
 20
6.5823481819
  0
LWPOLYLINE
  5
67C
100
AcDbEntity
  8
0
100
AcDbPolyline
 62
7
  6
CONTINUOUS
 90
4
 70
0
 10
18.0104179896
 20
6.3985777386
 10
17.9901534184
 20
6.376977144
 10
17.9697615652
 20
6.3563853794
 10
17.9492747248
 20
6.3367879358
  0
LINE
  5
67D
100
AcDbEntity
  8
0
100
AcDbLine
 62
7
  6
CONTINUOUS
 10
18.1141153691
 20
6.4788001045
 11
18.1343836388
 21
6.5004045363
  0
LWPOLYLINE
  5
67E
100
AcDbEntity
  8
0
100
AcDbPolyline
 62
7
  6
CONTINUOUS
 90
4
 70
0
 10
18.0104179896
 20
6.3568194641
 10
17.9901534184
 20
6.3352188695
 10
17.9697615652
 20
6.3146271049
 10
17.9492747248
 20
6.2950296613
  0
LINE
  5
67F
100
AcDbEntity
  8
0
100
AcDbLine
 62
7
  6
CONTINUOUS
 10
18.3748631943
 20
6.9472189742
 11
18.4543648013
 21
7.0302780016
  0
LWPOLYLINE
  5
680
100
AcDbEntity
  8
0
100
AcDbPolyline
 62
7
  6
CONTINUOUS
 90
3
 70
0
 10
17.9733180596
 20
6.2763802565
 10
17.9971056014
 20
6.3007404461
 10
18.0207994068
 20
6.3265836273
  0
LWPOLYLINE
  5
681
100
AcDbEntity
  8
0
100
AcDbPolyline
 62
7
  6
CONTINUOUS
 90
3
 70
0
 10
17.9901534184
 20
6.5440102419
 10
17.9697615652
 20
6.5234184773
 10
17.9492747248
 20
6.5038210337
  0
LWPOLYLINE
  5
682
100
AcDbEntity
  8
0
100
AcDbPolyline
 62
7
  6
CONTINUOUS
 90
3
 70
0
 10
18.1343836388
 20
6.5004045363
 10
18.154775186
 20
6.5209957975
 10
18.1752586338
 20
6.5405899074
  0
LINE
  5
683
100
AcDbEntity
  8
0
100
AcDbLine
 62
7
  6
CONTINUOUS
 10
17.9492747248
 20
6.2532713868
 11
17.9733180596
 21
6.2763802565
  0
LINE
  5
684
100
AcDbEntity
  8
0
100
AcDbLine
 62
7
  6
CONTINUOUS
 10
17.9697615652
 20
6.4816602028
 11
17.9492747248
 21
6.4620627592
  0
LWPOLYLINE
  5
685
100
AcDbEntity
  8
0
100
AcDbPolyline
 62
7
  6
CONTINUOUS
 90
18
 70
0
 10
17.2575131404
 20
11.6985936963
 10
17.2946257558
 20
11.688519666
 10
17.332339775
 20
11.6796332623
 10
17.3705797924
 20
11.6719522379
 10
17.4092686112
 20
11.6654921038
 10
17.4483283772
 20
11.6602658582
 10
17.4876804076
 20
11.6562840295
 10
17.5272454573
 20
11.6535546358
 10
17.5669438439
 20
11.6520831743
 10
17.6066956192
 20
11.6518726081
 10
17.6464207264
 20
11.6529233614
 10
17.6860391629
 20
11.655233318
 10
17.7254711407
 20
11.6587978259
 10
17.7646372475
 20
11.6636097065
 10
17.8034586062
 20
11.6696592692
 10
17.8418570342
 20
11.6769343306
 10
17.8797552005
 20
11.6854202394
 10
17.9170767817
 20
11.6950999058
  0
LINE
  5
686
100
AcDbEntity
  8
0
100
AcDbLine
 62
7
  6
CONTINUOUS
 10
17.2210782982
 20
11.7098345774
 11
17.2575131404
 21
11.6985936963
  0
LINE
  5
687
100
AcDbEntity
  8
0
100
AcDbLine
 62
7
  6
CONTINUOUS
 10
17.1853913917
 20
11.7222207081
 11
17.2210782982
 21
11.7098345774
  0
LINE
  5
688
100
AcDbEntity
  8
0
100
AcDbLine
 62
7
  6
CONTINUOUS
 10
17.1505403289
 20
11.7357208383
 11
17.1853913917
 21
11.7222207081
  0
LWPOLYLINE
  5
689
100
AcDbEntity
  8
0
100
AcDbPolyline
 62
7
  6
CONTINUOUS
 90
3
 70
0
 10
17.9996233198
 20
6.2749479649
 10
18.0092851761
 20
6.2841136907
 10
18.0179197616
 20
6.2938024099
  0
LWPOLYLINE
  5
68A
100
AcDbEntity
  8
0
100
AcDbPolyline
 62
7
  6
CONTINUOUS
 90
3
 70
0
 10
18.0125280427
 20
6.2933192039
 10
18.0032512562
 20
6.2845405153
 10
17.9930265487
 20
6.2763050775
  0
LINE
  5
68B
100
AcDbEntity
  8
0
100
AcDbLine
 62
7
  6
CONTINUOUS
 10
17.9889974135
 20
6.266378575
 11
17.9996233198
 21
6.2749479649
  0
LINE
  5
68C
100
AcDbEntity
  8
0
100
AcDbLine
 62
7
  6
CONTINUOUS
 10
18.0097334642
 20
6.5575856837
 11
17.9778316281
 21
6.5348781518
  0
LINE
  5
68D
100
AcDbEntity
  8
0
100
AcDbLine
 62
7
  6
CONTINUOUS
 10
18.0104179896
 20
6.5163146502
 11
17.9889400954
 21
6.5010267495
  0
LINE
  5
68E
100
AcDbEntity
  8
0
100
AcDbLine
 62
7
  6
CONTINUOUS
 10
18.0104179896
 20
6.4745563758
 11
17.9889402503
 21
6.4592686315
  0
LINE
  5
68F
100
AcDbEntity
  8
0
100
AcDbLine
 62
7
  6
CONTINUOUS
 10
18.0104179896
 20
6.4327981013
 11
17.9889403582
 21
6.417510466
  0
LINE
  5
690
100
AcDbEntity
  8
0
100
AcDbLine
 62
7
  6
CONTINUOUS
 10
18.0104179896
 20
6.3910398268
 11
17.9889402487
 21
6.3757520809
  0
LINE
  5
691
100
AcDbEntity
  8
0
100
AcDbLine
 62
7
  6
CONTINUOUS
 10
18.0104179896
 20
6.3492815523
 11
17.9889400997
 21
6.333993656
  0
LINE
  5
692
100
AcDbEntity
  8
0
100
AcDbLine
 62
7
  6
CONTINUOUS
 10
17.8721266864
 20
6.4728421344
 11
17.9492747248
 21
6.5091104151
  0
LINE
  5
693
100
AcDbEntity
  8
0
100
AcDbLine
 62
7
  6
CONTINUOUS
 10
17.8721266864
 20
6.467552753
 11
17.9492747248
 21
6.5038210337
  0
LWPOLYLINE
  5
694
100
AcDbEntity
  8
AXIS
100
AcDbPolyline
 62
7
  6
CONTINUOUS
 90
3
 70
0
 10
18.0637742749
 20
6.6125054579
 10
17.9798568146
 20
6.5796602014
 10
17.8914091313
 20
6.553423117
  0
LINE
  5
695
100
AcDbEntity
  8
AXIS
100
AcDbLine
 62
7
  6
CONTINUOUS
 10
18.0464250278
 20
6.5711296642
 11
17.9278168049
 21
6.5273477344
  0
LWPOLYLINE
  5
696
100
AcDbEntity
  8
AXIS
100
AcDbPolyline
 62
7
  6
CONTINUOUS
 90
4
 70
0
 10
18.0611408558
 20
6.7304211404
 10
17.9699957171
 20
6.7001467479
 10
17.8749867479
 20
6.6765479156
 10
17.7770888688
 20
6.6598667996
  0
LWPOLYLINE
  5
697
100
AcDbEntity
  8
0
100
AcDbPolyline
 62
7
  6
CONTINUOUS
 90
11
 70
0
 10
17.9930265487
 20
6.2763050775
 10
17.9287476927
 20
6.2354288142
 10
17.8562205705
 20
6.2021622444
 10
17.7772291476
 20
6.1773236832
 10
17.6937170932
 20
6.1615243014
 10
17.6077384896
 20
6.1551526671
 10
17.5214084926
 20
6.1583655377
 10
17.4368508112
 20
6.1710838748
 10
17.3561455705
 20
6.1929948067
 10
17.2812781252
 20
6.223559323
 10
17.273573366
 20
6.2279704278
  0
LWPOLYLINE
  5
698
100
AcDbEntity
  8
0
100
AcDbPolyline
 62
7
  6
CONTINUOUS
 90
12
 70
0
 10
17.9889974135
 20
6.266378575
 10
17.9232578665
 20
6.2246918036
 10
17.8493304478
 20
6.1911323045
 10
17.7689124486
 20
6.1664237608
 10
17.6842531902
 20
6.151212706
 10
17.5974214829
 20
6.145807042
 10
17.5105642459
 20
6.1503049234
 10
17.4257400055
 20
6.1645979291
 10
17.3450805341
 20
6.1883522948
 10
17.2705228369
 20
6.2210499833
 10
17.2040767191
 20
6.2618622978
 10
17.1941489905
 20
6.2702594801
  0
LINE
  5
699
100
AcDbEntity
  8
0
100
AcDbLine
 62
7
  6
CONTINUOUS
 10
17.8721266864
 20
6.3893255854
 11
17.9492747248
 21
6.4255938662
  0
LINE
  5
69A
100
AcDbEntity
  8
0
100
AcDbLine
 62
7
  6
CONTINUOUS
 10
17.8721266864
 20
6.384036204
 11
17.9492747248
 21
6.4203044848
  0
LINE
  5
69B
100
AcDbEntity
  8
0
100
AcDbLine
 62
7
  6
CONTINUOUS
 10
17.7881488731
 20
6.4872777506
 11
17.8654491094
 21
6.5124278213
  0
LWPOLYLINE
  5
69C
100
AcDbEntity
  8
0
100
AcDbPolyline
 62
7
  6
CONTINUOUS
 90
3
 70
0
 10
17.7881488731
 20
6.4819883692
 10
17.8721266864
 20
6.5093110274
 10
17.8925445588
 20
6.5189097307
  0
LINE
  5
69D
100
AcDbEntity
  8
0
100
AcDbLine
 62
7
  6
CONTINUOUS
 10
17.7881488731
 20
6.4455194761
 11
17.8721266864
 21
6.4728421344
  0
LINE
  5
69E
100
AcDbEntity
  8
0
100
AcDbLine
 62
7
  6
CONTINUOUS
 10
17.7881488731
 20
6.4402300947
 11
17.8721266864
 21
6.467552753
  0
LWPOLYLINE
  5
69F
100
AcDbEntity
  8
0
100
AcDbPolyline
 62
7
  6
CONTINUOUS
 90
3
 70
0
 10
17.7881488731
 20
6.4037612016
 10
17.8721266864
 20
6.4310838599
 10
17.9492747248
 20
6.4673521407
  0
LWPOLYLINE
  5
6A0
100
AcDbEntity
  8
0
100
AcDbPolyline
 62
7
  6
CONTINUOUS
 90
3
 70
0
 10
17.7881488731
 20
6.3984718202
 10
17.8721266864
 20
6.4257944785
 10
17.9492747248
 20
6.4620627592
  0
LWPOLYLINE
  5
6A1
100
AcDbEntity
  8
0
100
AcDbPolyline
 62
7
  6
CONTINUOUS
 90
48
 70
0
 10
18.0363671005
 20
12.8206326338
 10
18.0015160377
 20
12.8341327639
 10
17.9658291312
 20
12.8465188946
 10
17.929394289
 20
12.8577597758
 10
17.8922816736
 20
12.867833806
 10
17.8545676543
 20
12.8767202097
 10
17.816327637
 20
12.8844012341
 10
17.7776388181
 20
12.8908613682
 10
17.7385790521
 20
12.8960876138
 10
17.6992270218
 20
12.9000694426
 10
17.6596619721
 20
12.9027988362
 10
17.6199635854
 20
12.9042702978
 10
17.5802118102
 20
12.904480864
 10
17.540486703
 20
12.9034301107
 10
17.5008682665
 20
12.9011201541
 10
17.4614362887
 20
12.8975556461
 10
17.4222701819
 20
12.8927437655
 10
17.3834488232
 20
12.8866942029
 10
17.3450503952
 20
12.8794191415
 10
17.3071522289
 20
12.8709332326
 10
17.2698306476
 20
12.8612535662
 10
17.2331608138
 20
12.8503996362
 10
17.197216577
 20
12.8383933013
 10
17.1620703258
 20
12.8252587414
 10
17.1277928414
 20
12.8110224081
 10
17.0944531556
 20
12.7957129721
 10
17.0621184114
 20
12.7793612653
 10
17.0308537282
 20
12.7620002186
 10
17.00072207
 20
12.7436647954
 10
16.9717841195
 20
12.7243919216
 10
16.9440981548
 20
12.7042204112
 10
16.9177199331
 20
12.6831908875
 10
16.8927025777
 20
12.6613457023
 10
16.8690964713
 20
12.6387288497
 10
16.8469491544
 20
12.6153858779
 10
16.8263052296
 20
12.5913637977
 10
16.807206272
 20
12.5667109872
 10
16.7896907451
 20
12.5414770951
 10
16.7737939237
 20
12.51571294
 10
16.7595478224
 20
12.4894704086
 10
16.7469811316
 20
12.4628023511
 10
16.7361191595
 20
12.4357624743
 10
16.7269837811
 20
12.4084052342
 10
16.7195933942
 20
12.3807857258
 10
16.7139628823
 20
12.3529595723
 10
16.7101035849
 20
12.3249828129
 10
16.7080232742
 20
12.2969117903
 10
16.7077261398
 20
12.268803037
  0
LWPOLYLINE
  5
6A2
100
AcDbEntity
  8
0
100
AcDbPolyline
 62
7
  6
CONTINUOUS
 90
26
 70
0
 10
18.0735683282
 20
12.8421595352
 10
18.109992707
 20
12.8265266626
 10
18.1454971862
 20
12.8097413918
 10
18.180015369
 20
12.7918287672
 10
18.2133726001
 20
12.7728808139
 10
18.2456267187
 20
12.7528655349
 10
18.2767173401
 20
12.7318117916
 10
18.3064644857
 20
12.7098433647
 10
18.3349310913
 20
12.6869164328
 10
18.3620520743
 20
12.6630757826
 10
18.3876550257
 20
12.6384811305
 10
18.4118036593
 20
12.6130827576
 10
18.434449987
 20
12.5869302346
 10
18.4554593005
 20
12.5601963793
 10
18.4748810553
 20
12.5328416653
 10
18.4926907432
 20
12.5049101325
 10
18.5088037316
 20
12.4765614163
 10
18.5232449155
 20
12.4477894053
 10
18.5360140412
 20
12.4186183034
 10
18.547074223
 20
12.3891660338
 10
18.5564287762
 20
12.3594741468
 10
18.5640902541
 20
12.3295413518
 10
18.570049636
 20
12.2994334609
 10
18.5743023304
 20
12.2692252268
 10
18.576854843
 20
12.2389235987
 10
18.5777056832
 20
12.2085796119
  0
CIRCLE
  5
6A3
100
AcDbEntity
  8
0
100
AcDbCircle
 62
7
  6
CONTINUOUS
 10
15.2229827477
 20
1.1139932523
 40
0.252091
  0
CIRCLE
  5
6A4
100
AcDbEntity
  8
0
100
AcDbCircle
 62
7
  6
CONTINUOUS
 10
15.2229827477
 20
1.1139932523
 40
0.182698
  0
CIRCLE
  5
6A5
100
AcDbEntity
  8
0
100
AcDbCircle
 62
7
  6
CONTINUOUS
 10
14.8013422688
 20
1.8652439144
 40
0.0638444824
  0
ARC
  5
6A6
100
AcDbEntity
  8
AXIS
100
AcDbCircle
 62
7
  6
CONTINUOUS
 10
8.4177644286
 20
8.00614588
 40
0.1299212598
100
AcDbArc
 50
270.0
 51
360.0
  0
ARC
  5
6A7
100
AcDbEntity
  8
AXIS
100
AcDbCircle
 62
7
  6
CONTINUOUS
 10
6.905953405
 20
8.00614588
 40
0.1299212598
100
AcDbArc
 50
180.0
 51
270.0
  0
ARC
  5
6A8
100
AcDbEntity
  8
0
100
AcDbCircle
 62
7
  6
CONTINUOUS
 10
6.7760321451
 20
15.1695317068
 40
0.0984251969
100
AcDbArc
 50
90.0
 51
180.0
  0
ARC
  5
6A9
100
AcDbEntity
  8
0
100
AcDbCircle
 62
7
  6
CONTINUOUS
 10
8.5476856884
 20
15.1695317068
 40
0.0984251969
100
AcDbArc
 50
0.0
 51
90.0
  0
ARC
  5
6AA
100
AcDbEntity
  8
0
100
AcDbCircle
 62
7
  6
CONTINUOUS
 10
7.0791817514
 20
7.8447285572
 40
0.031496063
100
AcDbArc
 50
0.0
 51
90.0
  0
ARC
  5
6AB
100
AcDbEntity
  8
0
100
AcDbCircle
 62
7
  6
CONTINUOUS
 10
8.2445360821
 20
7.8447285572
 40
0.031496063
100
AcDbArc
 50
90.0
 51
180.0
  0
ARC
  5
6AC
100
AcDbEntity
  8
0
100
AcDbCircle
 62
7
  6
CONTINUOUS
 10
8.1815439561
 20
7.1596891871
 40
0.031496063
100
AcDbArc
 50
270.0
 51
360.0
  0
ARC
  5
6AD
100
AcDbEntity
  8
0
100
AcDbCircle
 62
7
  6
CONTINUOUS
 10
7.1421738774
 20
7.1596891871
 40
0.031496063
100
AcDbArc
 50
180.0
 51
270.0
  0
ARC
  5
6AE
100
AcDbEntity
  8
0
100
AcDbCircle
 62
7
  6
CONTINUOUS
 10
8.5673707278
 20
8.2797679273
 40
0.0196850394
100
AcDbArc
 50
90.0
 51
180.0
  0
ARC
  5
6AF
100
AcDbEntity
  8
0
100
AcDbCircle
 62
7
  6
CONTINUOUS
 10
6.7563471058
 20
8.2797679273
 40
0.0196850394
100
AcDbArc
 50
0.0
 51
90.0
  0
ARC
  5
6B0
100
AcDbEntity
  8
0
100
AcDbCircle
 62
7
  6
CONTINUOUS
 10
6.6776069483
 20
2.9624144083
 40
0.0196850394
100
AcDbArc
 50
117.0965409678
 51
242.9034623614
  0
ARC
  5
6B1
100
AcDbEntity
  8
AXIS
100
AcDbCircle
 62
7
  6
CONTINUOUS
 10
6.6776069483
 20
2.9624144083
 40
0.0196850394
100
AcDbArc
 50
117.2999146796
 51
242.7000853204
  0
ARC
  5
6B2
100
AcDbEntity
  8
0
100
AcDbCircle
 62
7
  6
CONTINUOUS
 10
7.7447934618
 20
2.6179262193
 40
0.2283464567
100
AcDbArc
 50
270.0
 51
283.5362027374
  0
ARC
  5
6B3
100
AcDbEntity
  8
0
100
AcDbCircle
 62
7
  6
CONTINUOUS
 10
7.5789243718
 20
2.6179262193
 40
0.2283464567
100
AcDbArc
 50
256.4637972626
 51
270.0
  0
ARC
  5
6B4
100
AcDbEntity
  8
0
100
AcDbCircle
 62
7
  6
CONTINUOUS
 10
7.5789243718
 20
2.6179262193
 40
0.1968503937
100
AcDbArc
 50
256.4637972626
 51
270.0
  0
ARC
  5
6B5
100
AcDbEntity
  8
0
100
AcDbCircle
 62
7
  6
CONTINUOUS
 10
7.7447934618
 20
2.6179262193
 40
0.1968503937
100
AcDbArc
 50
270.0
 51
283.5362027374
  0
ARC
  5
6B6
100
AcDbEntity
  8
0
100
AcDbCircle
 62
7
  6
CONTINUOUS
 10
7.7447934618
 20
2.6179262193
 40
0.1653543307
100
AcDbArc
 50
270.0
 51
283.5362027374
  0
ARC
  5
6B7
100
AcDbEntity
  8
0
100
AcDbCircle
 62
7
  6
CONTINUOUS
 10
7.5789243718
 20
2.6179262193
 40
0.1653543307
100
AcDbArc
 50
256.4637972626
 51
270.0
  0
ARC
  5
6B8
100
AcDbEntity
  8
0
100
AcDbCircle
 62
7
  6
CONTINUOUS
 10
7.5789243718
 20
3.3069025973
 40
0.2283464567
100
AcDbArc
 50
90.0
 51
103.5362027374
  0
ARC
  5
6B9
100
AcDbEntity
  8
0
100
AcDbCircle
 62
7
  6
CONTINUOUS
 10
7.5789243718
 20
3.3069025973
 40
0.1968503937
100
AcDbArc
 50
90.0
 51
103.5362027374
  0
ARC
  5
6BA
100
AcDbEntity
  8
0
100
AcDbCircle
 62
7
  6
CONTINUOUS
 10
7.5789243718
 20
3.3069025973
 40
0.1653543307
100
AcDbArc
 50
90.0
 51
103.5362027374
  0
CIRCLE
  5
6BB
100
AcDbEntity
  8
AXIS
100
AcDbCircle
 62
7
  6
CONTINUOUS
 10
7.6618589168
 20
2.9624144083
 40
0.9940944882
  0
ARC
  5
6BC
100
AcDbEntity
  8
SCHEME_DIMS
100
AcDbCircle
 62
7
  6
CONTINUOUS
 10
7.6618589168
 20
2.9624144083
 40
0.9940944882
100
AcDbArc
 50
180.0
 51
229.7986158755
  0
CIRCLE
  5
6BD
100
AcDbEntity
  8
QUILTS
100
AcDbCircle
 62
7
  6
CONTINUOUS
 10
7.6618589168
 20
2.9624144083
 40
0.9862204724
  0
CIRCLE
  5
6BE
100
AcDbEntity
  8
0
100
AcDbCircle
 62
7
  6
CONTINUOUS
 10
7.6618589168
 20
2.9624144083
 40
0.905511811
  0
ARC
  5
6BF
100
AcDbEntity
  8
0
100
AcDbCircle
 62
7
  6
CONTINUOUS
 10
7.6618589168
 20
2.9624144083
 40
0.8858267717
100
AcDbArc
 50
81.6004237812
 51
82.6804894435
  0
ARC
  5
6C0
100
AcDbEntity
  8
0
100
AcDbCircle
 62
7
  6
CONTINUOUS
 10
7.6618589168
 20
2.9624144083
 40
0.8858267717
100
AcDbArc
 50
91.0419780194
 51
97.3195074743
  0
ARC
  5
6C1
100
AcDbEntity
  8
0
100
AcDbCircle
 62
7
  6
CONTINUOUS
 10
7.6618589168
 20
2.9624144083
 40
0.8858267717
100
AcDbArc
 50
98.4159358577
 51
194.9455704768
  0
ARC
  5
6C2
100
AcDbEntity
  8
0
100
AcDbCircle
 62
7
  6
CONTINUOUS
 10
7.6618589168
 20
2.9624144083
 40
0.8858267717
100
AcDbArc
 50
196.8301972679
 51
261.6004237812
  0
ARC
  5
6C3
100
AcDbEntity
  8
0
100
AcDbCircle
 62
7
  6
CONTINUOUS
 10
7.6618589168
 20
2.9624144083
 40
0.8858267717
100
AcDbArc
 50
262.6804894435
 51
268.9580207619
  0
ARC
  5
6C4
100
AcDbEntity
  8
0
100
AcDbCircle
 62
7
  6
CONTINUOUS
 10
7.6618589168
 20
2.9624144083
 40
0.8858267717
100
AcDbArc
 50
271.0419780194
 51
278.4159358577
  0
CIRCLE
  5
6C5
100
AcDbEntity
  8
AXIS
100
AcDbCircle
 62
7
  6
CONTINUOUS
 10
7.6618589168
 20
2.9624144083
 40
0.8858267717
  0
CIRCLE
  5
6C6
100
AcDbEntity
  8
QUILTS
100
AcDbCircle
 62
7
  6
CONTINUOUS
 10
7.6618589168
 20
2.9624144083
 40
0.8858267717
  0
CIRCLE
  5
6C7
100
AcDbEntity
  8
AXIS
100
AcDbCircle
 62
7
  6
CONTINUOUS
 10
7.6618589168
 20
2.9624144083
 40
0.7559055118
  0
ARC
  5
6C8
100
AcDbEntity
  8
0
100
AcDbCircle
 62
7
  6
CONTINUOUS
 10
7.6618589168
 20
2.9624144083
 40
0.5826771654
100
AcDbArc
 50
68.46218756
 51
76.4637972626
  0
ARC
  5
6C9
100
AcDbEntity
  8
0
100
AcDbCircle
 62
7
  6
CONTINUOUS
 10
7.6618589168
 20
2.9624144083
 40
0.5826771654
100
AcDbArc
 50
283.5362027374
 51
291.5391316457
  0
ARC
  5
6CA
100
AcDbEntity
  8
0
100
AcDbCircle
 62
7
  6
CONTINUOUS
 10
7.6618589168
 20
2.9624144083
 40
0.5826771654
100
AcDbArc
 50
248.4608858433
 51
256.4637972626
  0
ARC
  5
6CB
100
AcDbEntity
  8
0
100
AcDbCircle
 62
7
  6
CONTINUOUS
 10
7.6618589168
 20
2.9624144083
 40
0.5826771654
100
AcDbArc
 50
103.5362027374
 51
111.5378680334
  0
ARC
  5
6CC
100
AcDbEntity
  8
0
100
AcDbCircle
 62
7
  6
CONTINUOUS
 10
7.6618589168
 20
2.9624144083
 40
0.5511811024
100
AcDbArc
 50
103.5362027374
 51
256.4637972626
  0
ARC
  5
6CD
100
AcDbEntity
  8
0
100
AcDbCircle
 62
7
  6
CONTINUOUS
 10
7.6618589168
 20
2.9624144083
 40
0.5511811024
100
AcDbArc
 50
283.5362027374
 51
76.4637972626
  0
ARC
  5
6CE
100
AcDbEntity
  8
0
100
AcDbCircle
 62
7
  6
CONTINUOUS
 10
7.6618589168
 20
2.9624144083
 40
0.5196850394
100
AcDbArc
 50
283.5362027374
 51
76.4637972626
  0
ARC
  5
6CF
100
AcDbEntity
  8
0
100
AcDbCircle
 62
7
  6
CONTINUOUS
 10
7.6618589168
 20
2.9624144083
 40
0.5196850394
100
AcDbArc
 50
103.5362027374
 51
256.4637972626
  0
CIRCLE
  5
6D0
100
AcDbEntity
  8
0
100
AcDbCircle
 62
7
  6
CONTINUOUS
 10
7.6618589168
 20
2.9624144083
 40
0.4682862539
  0
CIRCLE
  5
6D1
100
AcDbEntity
  8
0
100
AcDbCircle
 62
7
  6
CONTINUOUS
 10
7.6618589168
 20
2.9624144083
 40
0.4460151742
  0
CIRCLE
  5
6D2
100
AcDbEntity
  8
0
100
AcDbCircle
 62
7
  6
CONTINUOUS
 10
7.6618589168
 20
2.9624144083
 40
0.3765
  0
ARC
  5
6D3
100
AcDbEntity
  8
0
100
AcDbCircle
 62
7
  6
CONTINUOUS
 10
7.6618589168
 20
2.9624144083
 40
0.3568149606
100
AcDbArc
 50
51.3357489792
 51
354.046306505
  0
CIRCLE
  5
6D4
100
AcDbEntity
  8
0
100
AcDbCircle
 62
7
  6
CONTINUOUS
 10
7.6618589168
 20
2.9624144083
 40
0.3051181102
  0
CIRCLE
  5
6D5
100
AcDbEntity
  8
0
100
AcDbCircle
 62
7
  6
CONTINUOUS
 10
7.6618589168
 20
2.9624144083
 40
0.29
  0
CIRCLE
  5
6D6
100
AcDbEntity
  8
0
100
AcDbCircle
 62
7
  6
CONTINUOUS
 10
7.6618589168
 20
2.9624144083
 40
0.2611324865
  0
CIRCLE
  5
6D7
100
AcDbEntity
  8
0
100
AcDbCircle
 62
7
  6
CONTINUOUS
 10
7.6618589168
 20
2.9624144083
 40
0.17
  0
CIRCLE
  5
6D8
100
AcDbEntity
  8
0
100
AcDbCircle
 62
7
  6
CONTINUOUS
 10
7.6618589168
 20
2.9624144083
 40
0.11
  0
CIRCLE
  5
6D9
100
AcDbEntity
  8
02___PRT_ALL_AXES
100
AcDbCircle
 62
7
  6
CONTINUOUS
 10
7.6618589168
 20
2.9624144083
 40
0.1075
  0
ARC
  5
6DA
100
AcDbEntity
  8
0
100
AcDbCircle
 62
7
  6
CONTINUOUS
 10
7.7447934618
 20
3.3069025973
 40
0.2283464567
100
AcDbArc
 50
76.4637972626
 51
90.0
  0
ARC
  5
6DB
100
AcDbEntity
  8
0
100
AcDbCircle
 62
7
  6
CONTINUOUS
 10
7.7447934618
 20
3.3069025973
 40
0.1968503937
100
AcDbArc
 50
76.4637972626
 51
90.0
  0
ARC
  5
6DC
100
AcDbEntity
  8
0
100
AcDbCircle
 62
7
  6
CONTINUOUS
 10
7.7447934618
 20
3.3069025973
 40
0.1653543307
100
AcDbArc
 50
76.4637972626
 51
90.0
  0
ENDSEC
  0
SECTION
  2
OBJECTS
  0
DICTIONARY
  5
C
100
AcDbDictionary
280
0
281
1
  3
ACAD_GROUP
350
D
  3
ACAD_MLINESTYLE
350
17
  3
ACAD_LAYOUT
350
1A
  3
ACAD_PLOTSETTINGS
350
19
  3
ACAD_PLOTSTYLENAME
350
E
  3
ACAD_TABLESTYLE
350
       6DD
  0
DICTIONARY
  5
D
102
{ACAD_REACTORS
330
C
102
}
100
AcDbDictionary
280
0
281
1
  0
ACDBDICTIONARYWDFLT
  5
E
102
{ACAD_REACTORS
330
C
102
}
100
AcDbDictionary
281
1
  3
Normal
350
F
100
AcDbDictionaryWithDefault
340
F
  0
DICTIONARY
  5
17
102
{ACAD_REACTORS
330
C
102
}
100
AcDbDictionary
280
0
281
1
  3
Standard
350
18
  0
DICTIONARY
  5
6DD
330
C
100
AcDbDictionary
281
1
  3
Standard
350
       6E0
  3
Standard1
350
       6E1
  0
DICTIONARY
  5
19
102
{ACAD_REACTORS
330
C
102
}
100
AcDbDictionary
281
1
  0
DICTIONARY
  5
1A
102
{ACAD_REACTORS
330
C
102
}
100
AcDbDictionary
281
1
  3
Model
350
6DE
  3
Layout1
350
6DF
  0
ACDBPLACEHOLDER
  5
F
102
{ACAD_REACTORS
330
E
102
}
  0
MLINESTYLE
  5
18
102
{ACAD_REACTORS
330
17
102
}
100
AcDbMlineStyle
  2
STANDARD
 70
0
  3

 62
256
 51
90.0
 52
90.0
 71
2
 49
0.5
 62
256
  6
BYLAYER
 49
-0.5
 62
256
  6
BYLAYER
  0
LAYOUT
  5
6DE
102
{ACAD_REACTORS
330
1A
102
}
100
AcDbPlotSettings
  1

  2
none_device
  4
ANSI_C_(22.00_x_17.00_Inches)
  6

 40
0.0
 41
0.0
 42
0.0
 43
0.0
 44
558.8
 45
431.8
 46
0.0
 47
0.0
 48
0.0
 49
0.0
140
0.0
141
0.0
142
1.0
143
1.0
 70
1024
 72
0
 73
0
 74
0
  7

 75
0
147
1.0
148
0.0
149
0.0
100
AcDbLayout
  1
Model
 70
0
 71
0
 10
0.0
 20
0.0
 11
22.0
 21
17.0
 12
0.0
 22
0.0
 32
0.0
 14
0.0
 24
0.0
 34
0.0
 15
0.0
 25
0.0
 35
0.0
146
0.0
 13
0.0
 23
0.0
 33
0.0
 16
1.0
 26
0.0
 36
0.0
 17
0.0
 27
1.0
 37
0.0
 76
0
330
215
345
0
346
0
  0
LAYOUT
  5
6DF
102
{ACAD_REACTORS
330
1A
102
}
100
AcDbPlotSettings
  1

  2
none_device
  4
ANSI_C_(22.00_x_17.00_Inches)
  6

 40
0.0
 41
0.0
 42
0.0
 43
0.0
 44
558.8
 45
431.8
 46
0.0
 47
0.0
 48
0.0
 49
0.0
140
0.0
141
0.0
142
1.0
143
1.0
 70
0
 72
0
 73
0
 74
0
  7

 75
0
147
1.0
148
0.0
149
0.0
100
AcDbLayout
  1
Layout1
 70
0
 71
1
 10
0.0
 20
0.0
 11
22.0
 21
17.0
 12
0.0
 22
0.0
 32
0.0
 14
0.0
 24
0.0
 34
0.0
 15
0.0
 25
0.0
 35
0.0
146
0.0
 13
0.0
 23
0.0
 33
0.0
 16
1.0
 26
0.0
 36
0.0
 17
0.0
 27
1.0
 37
0.0
 76
0
330
216
345
0
346
0
  0
TABLESTYLE
  5
6E0
102
{ACAD_REACTORS
330
6DD
102
}
330
6DD
100
AcDbTableStyle
  3
Standard
 70
0
 71
0
 40
0.06
 41
0.06
280
1
281
1
  7
Standard
140
0.18
170
1
 62
0
 63
7
283
0
  7
Standard
140
0.18
170
1
 62
0
 63
7
283
0
  7
Standard
140
0.18
170
1
 62
0
 63
7
283
0
  0
TABLESTYLE
  5
6E1
102
{ACAD_REACTORS
330
6DD
330
288
102
}
330
6DD
100
AcDbTableStyle
  3
Standard1
 70
1
 71
0
 40
0.06
 41
0.06
280
1
281
1
  7
Standard
140
0.18
170
1
 62
0
 63
7
283
0
  7
Standard
140
0.18
170
1
 62
0
 63
7
283
0
  7
Standard
140
0.18
170
1
 62
0
 63
7
283
0
  0
ENDSEC
  0
EOF
