999
DXF file: 212917_1.dxf
999
Pro/ENGINEER 2019292 by Parametric Technology Corporation
  0
SECTION
  2
HEADER
  9
$ACADVER
  1
AC1027
  9
$DWGCODEPAGE
  3
ANSI_1252
  9
$EXTMAX
 10
22.0
 20
17.0
 30
0.0
  9
$EXTMIN
 10
0.0
 20
0.0
 30
0.0
  9
$LIMMIN
 10
0.0
 20
0.0
  9
$LIMMAX
 10
22.0
 20
17.0
  9
$VIEWCTR
 10
11.0
 20
8.5
  9
$VIEWSIZE
 40
17.0
  9
$CLAYER
  8
0
  9
$LTSCALE
 40
1.21
  9
$CELTYPE
  6
BYLAYER
  9
$DIMSCALE
 40
1.0
  9
$DIMASZ
 40
0.1875
  9
$DIMEXO
 40
0.0625
  9
$DIMDLI
 40
0.836
  9
$DIMEXE
 40
0.125
  9
$DIMCEN
 40
0.198
  9
$DIMLFAC
 40
1.0
  9
$DIMBLK
  1
_FILLED
  9
$DIMALT
 70
1
  9
$DIMALTD
 70
2
  9
$DIMALTTD
 70
2
  9
$DIMALTF
 40
25.4
  9
$DIMTXT
 40
0.1
  9
$DIMTOL
 70
1
  9
$DIMLIM
 70
0
  9
$DIMTFAC
 40
1.0
  9
$DIMTP
 40
0.005
  9
$DIMTM
 40
0.005
  9
$DIMGAP
 40
0.09
  9
$DIMDSEP
 70
46
  9
$AUNITS
 70
0
  9
$PDMODE
 70
3
  9
$PDSIZE
 40
0.3125
  9
$HANDSEED
  5
626
  9
$TILEMODE
 70
1
  9
$MEASUREMENT
 70
0
  9
$INSUNITS
 70
1
  0
ENDSEC
  0
SECTION
  2
CLASSES
  0
CLASS
  1
ACDBDICTIONARYWDFLT
  2
AcDbDictionaryWithDefault
  3
AutoCAD 2000
 90
0
 91
1
280
0
281
0
  0
CLASS
  1
ACDBPLACEHOLDER
  2
AcDbPlaceHolder
  3
AutoCAD 2000
 90
0
 91
1
280
0
281
0
  0
CLASS
  1
LAYOUT
  2
AcDbLayout
  3
AutoCAD 2000
 90
0
 91
0
280
0
281
0
  0
CLASS
  1
TABLESTYLE
  2
AcDbTableStyle
  3
ObjectDBX Classes
 90
2047
 91
1
280
0
281
0
  0
CLASS
  1
ACAD_TABLE
  2
AcDbTable
  3
ObjectDBX Classes
 90
1025
 91
1
280
0
281
1
  0
ENDSEC
  0
SECTION
  2
TABLES
  0
TABLE
  2
VPORT
  5
8
100
AcDbSymbolTable
 70
2
  0
VPORT
  5
1F4
100
AcDbSymbolTableRecord
100
AcDbViewportTableRecord
  2
*ACTIVE
 70
0
 10
0.0
 20
0.0
 11
1.0
 21
1.0
 12
11.0
 22
8.5
 13
0.0
 23
0.0
 14
1.0
 24
1.0
 15
0.0
 25
0.0
 16
0.0
 26
0.0
 36
1.0
 17
0.0
 27
0.0
 37
0.0
 40
17.0
 41
1.2941176471
 42
50.0
 43
0.0
 44
0.0
 50
0.0
 51
0.0
 71
0
 72
100
 73
1
 74
1
 75
0
 76
0
 77
0
 78
0
  0
ENDTAB
  0
TABLE
  2
LTYPE
  5
5
100
AcDbSymbolTable
 70
6
  0
LTYPE
  5
14
100
AcDbSymbolTableRecord
100
AcDbLinetypeTableRecord
  2
BYBLOCK
 70
0
  3

 72
65
 73
0
 40
0.0
  0
LTYPE
  5
15
100
AcDbSymbolTableRecord
100
AcDbLinetypeTableRecord
  2
BYLAYER
 70
0
  3

 72
65
 73
0
 40
0.0
  0
LTYPE
  5
16
100
AcDbSymbolTableRecord
100
AcDbLinetypeTableRecord
  2
CONTINUOUS
 70
64
  3
Solid line
 72
65
 73
0
 40
0.0
  0
LTYPE
  5
1F5
100
AcDbSymbolTableRecord
100
AcDbLinetypeTableRecord
  2
CENTER
 70
64
  3
____ _ ____ _ ____ _ ____ _ ____ _ ____ _ ____
 72
65
 73
4
 40
0.6
 49
0.375
 74
0
 49
-0.075
 74
0
 49
0.075
 74
0
 49
-0.075
 74
0
  0
LTYPE
  5
1F6
100
AcDbSymbolTableRecord
100
AcDbLinetypeTableRecord
  2
HIDDEN
 70
64
  3
- - - - - - - - - - - - - - - - - - - -
 72
65
 73
2
 40
0.2
 49
0.1
 74
0
 49
-0.1
 74
0
  0
LTYPE
  5
1F7
100
AcDbSymbolTableRecord
100
AcDbLinetypeTableRecord
  2
PHANTOM
 70
64
  3
_____ _ _ _____ _ _ _____ _ _ _____
 72
65
 73
6
 40
0.8
 49
0.45
 74
0
 49
-0.05
 74
0
 49
0.1
 74
0
 49
-0.05
 74
0
 49
0.1
 74
0
 49
-0.05
 74
0
  0
LTYPE
  5
1F8
100
AcDbSymbolTableRecord
100
AcDbLinetypeTableRecord
  2
DOT
 70
64
  3
. . . . . . . . . . . . . . . . . . . .
 72
65
 73
2
 40
0.2
 49
0.1
 74
0
 49
-0.1
 74
0
  0
LTYPE
  5
1F9
100
AcDbSymbolTableRecord
100
AcDbLinetypeTableRecord
  2
DASHED
 70
64
  3
- - - - - - - - - - - - - - - - - - - -
 72
65
 73
2
 40
0.2
 49
0.1
 74
0
 49
-0.1
 74
0
  0
ENDTAB
  0
TABLE
  2
LAYER
  5
2
100
AcDbSymbolTable
 70
36
  0
LAYER
  5
10
100
AcDbSymbolTableRecord
100
AcDbLayerTableRecord
  2
0
 70
0
 62
7
  6
CONTINUOUS
370
-3
390
F
  0
LAYER
  5
1FA
100
AcDbSymbolTableRecord
100
AcDbLayerTableRecord
  2
DEFAULT_1
 70
0
 62
7
  6
CENTER
370
-3
390
F
  0
LAYER
  5
1FB
100
AcDbSymbolTableRecord
100
AcDbLayerTableRecord
  2
DEFAULT_2
 70
0
 62
7
  6
HIDDEN
370
-3
390
F
  0
LAYER
  5
1FC
100
AcDbSymbolTableRecord
100
AcDbLayerTableRecord
  2
DEFAULT_3
 70
0
 62
7
  6
PHANTOM
370
-3
390
F
  0
LAYER
  5
1FD
100
AcDbSymbolTableRecord
100
AcDbLayerTableRecord
  2
01___PRT_ALL_DTM_PLN
 70
0
 62
7
  6
CONTINUOUS
370
-3
390
F
  0
LAYER
  5
1FE
100
AcDbSymbolTableRecord
100
AcDbLayerTableRecord
  2
01___PRT_DEF_DTM_PLN
 70
0
 62
7
  6
CONTINUOUS
370
-3
390
F
  0
LAYER
  5
1FF
100
AcDbSymbolTableRecord
100
AcDbLayerTableRecord
  2
02___PRT_ALL_AXES
 70
0
 62
7
  6
CONTINUOUS
370
-3
390
F
  0
LAYER
  5
200
100
AcDbSymbolTableRecord
100
AcDbLayerTableRecord
  2
03___PRT_ALL_CURVES
 70
0
 62
7
  6
CONTINUOUS
370
-3
390
F
  0
LAYER
  5
201
100
AcDbSymbolTableRecord
100
AcDbLayerTableRecord
  2
04___PRT_ALL_DTM_PNT
 70
0
 62
7
  6
CONTINUOUS
370
-3
390
F
  0
LAYER
  5
202
100
AcDbSymbolTableRecord
100
AcDbLayerTableRecord
  2
05___PRT_ALL_DTM_CSYS
 70
0
 62
7
  6
CONTINUOUS
370
-3
390
F
  0
LAYER
  5
203
100
AcDbSymbolTableRecord
100
AcDbLayerTableRecord
  2
05___PRT_DEF_DTM_CSYS
 70
0
 62
7
  6
CONTINUOUS
370
-3
390
F
  0
LAYER
  5
204
100
AcDbSymbolTableRecord
100
AcDbLayerTableRecord
  2
06___PRT_ALL_SURFS
 70
0
 62
7
  6
CONTINUOUS
370
-3
390
F
  0
LAYER
  5
205
100
AcDbSymbolTableRecord
100
AcDbLayerTableRecord
  2
AXIS
 70
0
 62
7
  6
CONTINUOUS
370
-3
390
F
  0
LAYER
  5
206
100
AcDbSymbolTableRecord
100
AcDbLayerTableRecord
  2
AXIS_COSMETIC_THREADS
 70
0
 62
7
  6
CONTINUOUS
370
-3
390
F
  0
LAYER
  5
207
100
AcDbSymbolTableRecord
100
AcDbLayerTableRecord
  2
DATUM_CURVES
 70
0
 62
7
  6
CONTINUOUS
370
-3
390
F
  0
LAYER
  5
208
100
AcDbSymbolTableRecord
100
AcDbLayerTableRecord
  2
DATUM_PLANES
 70
0
 62
7
  6
CONTINUOUS
370
-3
390
F
  0
LAYER
  5
209
100
AcDbSymbolTableRecord
100
AcDbLayerTableRecord
  2
GEOMETRIC_TOLERANCES
 70
0
 62
7
  6
CONTINUOUS
370
-3
390
F
  0
LAYER
  5
20A
100
AcDbSymbolTableRecord
100
AcDbLayerTableRecord
  2
NOTES
 70
0
 62
7
  6
CONTINUOUS
370
-3
390
F
  0
LAYER
  5
20B
100
AcDbSymbolTableRecord
100
AcDbLayerTableRecord
  2
QUILTS
 70
0
 62
7
  6
CONTINUOUS
370
-3
390
F
  0
LAYER
  5
20C
100
AcDbSymbolTableRecord
100
AcDbLayerTableRecord
  2
SCHEME_DIMS
 70
0
 62
7
  6
CONTINUOUS
370
-3
390
F
  0
LAYER
  5
20D
100
AcDbSymbolTableRecord
100
AcDbLayerTableRecord
  2
SYMBOLS
 70
0
 62
7
  6
CONTINUOUS
370
-3
390
F
  0
ENDTAB
  0
TABLE
  2
STYLE
  5
3
100
AcDbSymbolTable
 70
1
  0
STYLE
  5
11
100
AcDbSymbolTableRecord
100
AcDbTextStyleTableRecord
  2
STANDARD
 70
0
 40
0.0
 41
1.0
 50
0.0
 71
0
 42
0.2
  3
txt
  4

  0
STYLE
  5
20E
100
AcDbSymbolTableRecord
100
AcDbTextStyleTableRecord
  2
TEXTSTYLE_1
 70
0
 40
0.0
 41
0.8
 50
0.0
 71
0
 42
0.2
  3
gdt
  4

  0
STYLE
  5
20F
100
AcDbSymbolTableRecord
100
AcDbTextStyleTableRecord
  2
TEXTSTYLE_2
 70
0
 40
0.0
 41
0.8
 50
0.0
 71
0
 42
0.2
  3
txt
  4

  0
STYLE
  5
210
100
AcDbSymbolTableRecord
100
AcDbTextStyleTableRecord
  2
TEXTSTYLE_3
 70
0
 40
0.0
 41
0.9
 50
0.0
 71
0
 42
0.2
  3
txt
  4

  0
STYLE
  5
211
100
AcDbSymbolTableRecord
100
AcDbTextStyleTableRecord
  2
TEXTSTYLE_4
 70
0
 40
0.0
 41
0.85
 50
0.0
 71
0
 42
0.2
  3
txt
  4

  0
STYLE
  5
212
100
AcDbSymbolTableRecord
100
AcDbTextStyleTableRecord
  2
TEXTSTYLE_5
 70
0
 40
0.0
 41
0.75
 50
0.0
 71
0
 42
0.2
  3
txt
  4

  0
STYLE
  5
213
100
AcDbSymbolTableRecord
100
AcDbTextStyleTableRecord
  2
TEXTSTYLE_6
 70
0
 40
0.0
 41
1.0
 50
0.0
 71
0
 42
0.2
  3
gdt
  4

  0
ENDTAB
  0
TABLE
  2
VIEW
  5
6
100
AcDbSymbolTable
 70
0
  0
ENDTAB
  0
TABLE
  2
UCS
  5
7
100
AcDbSymbolTable
 70
0
  0
ENDTAB
  0
TABLE
  2
APPID
  5
9
100
AcDbSymbolTable
 70
1
  0
APPID
  5
214
100
AcDbSymbolTableRecord
100
AcDbRegAppTableRecord
  2
ACAD
 70
0
  0
ENDTAB
  0
TABLE
  2
BLOCK_RECORD
  5
1
100
AcDbSymbolTable
 70
0
  0
BLOCK_RECORD
  5
215
100
AcDbSymbolTableRecord
100
AcDbBlockTableRecord
  2
*Model_Space
  0
BLOCK_RECORD
  5
216
100
AcDbSymbolTableRecord
100
AcDbBlockTableRecord
  2
*Paper_Space
  0
BLOCK_RECORD
  5
217
100
AcDbSymbolTableRecord
100
AcDbBlockTableRecord
  2
_FILLED
  0
BLOCK_RECORD
  5
218
100
AcDbSymbolTableRecord
100
AcDbBlockTableRecord
  2
*D0
  0
BLOCK_RECORD
  5
219
100
AcDbSymbolTableRecord
100
AcDbBlockTableRecord
  2
*D1
  0
BLOCK_RECORD
  5
21A
100
AcDbSymbolTableRecord
100
AcDbBlockTableRecord
  2
*D2
  0
BLOCK_RECORD
  5
21B
100
AcDbSymbolTableRecord
100
AcDbBlockTableRecord
  2
*D3
  0
BLOCK_RECORD
  5
21C
100
AcDbSymbolTableRecord
100
AcDbBlockTableRecord
  2
*D4
  0
BLOCK_RECORD
  5
21D
100
AcDbSymbolTableRecord
100
AcDbBlockTableRecord
  2
*T1
  0
ENDTAB
  0
TABLE
  2
DIMSTYLE
  5
A
100
AcDbSymbolTable
 70
1
100
AcDbDimStyleTable
 71
0
  0
DIMSTYLE
105
21E
100
AcDbSymbolTableRecord
100
AcDbDimStyleTableRecord
  2
STANDARD
 70
0
  3

  4

 40
1.0
 41
0.1875
 42
0.0625
 43
0.38
 44
0.125
 45
0.0
 46
0.0
 47
0.005
 48
0.005
140
0.1
141
0.09
142
0.0
143
1.0
144
1.0
145
0.0
146
1.0
147
0.09
 71
1.0
 72
0.0
 73
1
 74
1
 75
0
 76
0
 77
0
 78
0
 79
0
170
1
171
2
172
0
173
0
174
0
175
0
176
0
177
0
178
0
270
2
179
3
271
3
272
3
273
2
274
2
275
0
280
0
281
0
282
0
283
1
284
0
285
0
286
0
287
3
288
0
340
11
278
46
341
217
342
217
343
217
344
217
  0
DIMSTYLE
105
21F
100
AcDbSymbolTableRecord
100
AcDbDimStyleTableRecord
  2
DIMSTYLE_1
 70
0
  3
<>
  4

 40
1.0
 41
0.1875
 42
0.0625
 43
0.38
 44
0.125
 45
0.0
 46
0.0
 47
0.1
 48
0.1
140
0.1
141
0.09
142
0.0
143
1.0
144
1.0
145
0.0
146
1.0
147
0.09
 71
0.0
 72
0.0
 73
1
 74
1
 75
0
 76
0
 77
0
 78
0
 79
0
170
1
171
2
172
1
173
0
174
0
175
0
176
0
177
0
178
0
270
2
179
3
271
1
272
3
273
2
274
4
275
0
280
0
281
0
282
0
283
1
284
0
285
0
286
0
287
3
288
1
340
11
278
46
289
2
341
217
342
217
343
217
344
217
  0
DIMSTYLE
105
220
100
AcDbSymbolTableRecord
100
AcDbDimStyleTableRecord
  2
DIMSTYLE_2
 70
0
  3

  4

 40
1.0
 41
0.1875
 42
0.0625
 43
0.38
 44
0.125
 45
0.0
 46
0.0
 47
0.1
 48
0.1
140
0.1
141
0.09
142
0.0
143
1.0
144
1.0
145
0.0
146
1.0
147
0.1
 71
0.0
 72
0.0
 73
1
 74
1
 75
0
 76
0
 77
0
 78
0
 79
0
170
1
171
2
172
0
173
0
174
0
175
0
176
0
177
0
178
0
270
2
179
3
271
1
272
3
273
2
274
4
275
0
280
0
281
0
282
0
283
1
284
0
285
0
286
0
287
3
288
0
340
11
278
46
341
217
342
217
343
217
344
217
  0
ENDTAB
  0
ENDSEC
  0
SECTION
  2
BLOCKS
  0
BLOCK
  5
20
100
AcDbEntity
  8
0
100
AcDbBlockBegin
  2
*Model_Space
 70
0
 10
0.0
 20
0.0
 30
0.0
  3
*Model_Space
  1

  0
ENDBLK
  5
21
100
AcDbEntity
  8
0
100
AcDbBlockEnd
  0
BLOCK
  5
1C
100
AcDbEntity
  8
0
100
AcDbBlockBegin
  2
*Paper_Space
 70
0
 10
0.0
 20
0.0
 30
0.0
  3
*Paper_Space
  1

  0
ENDBLK
  5
1D
100
AcDbEntity
  8
0
100
AcDbBlockEnd
  0
BLOCK
  5
221
100
AcDbEntity
  8
0
100
AcDbBlockBegin
  2
_FILLED
 70
64
 10
0.0
 20
0.0
  3
_FILLED
  1

  0
SOLID
  5
222
100
AcDbEntity
  8
0
  6
BYBLOCK
 62
0
100
AcDbTrace
 10
0.0
 20
0.0
 11
-1.0
 21
0.1666666667
 12
-1.0
 22
-0.1666666667
 13
-1.0
 23
-0.1666666667
  0
ENDBLK
  5
223
100
AcDbEntity
  8
0
  6
BYBLOCK
 62
0
100
AcDbBlockEnd
  0
BLOCK
  5
224
100
AcDbEntity
  8
SCHEME_DIMS
100
AcDbBlockBegin
 62
7
  6
CONTINUOUS
  2
*D0
 70
65
 10
0.0
 20
0.0
  3
*D0
  1

  0
MTEXT
  5
225
100
AcDbEntity
  8
SCHEME_DIMS
100
AcDbMText
 62
7
  6
CONTINUOUS
  7
TEXTSTYLE_6
 71
1
 72
1
 10
8.6665227165
 20
3.8266265326
 30
0.0
 11
1.0
 21
0.0
 31
0.0
 73
2
 44
0.9
  1
{\fgdt;n}\ftxt;50.5\P[1.99]
 40
0.1
 41
0.6
  0
LINE
  5
226
100
AcDbEntity
  8
SCHEME_DIMS
100
AcDbLine
 62
7
  6
CONTINUOUS
 10
8.3183760949
 20
3.6742762786
 11
7.6303340503
 21
2.9567653056
  0
LINE
  5
227
100
AcDbEntity
  8
SCHEME_DIMS
100
AcDbLine
 62
7
  6
CONTINUOUS
 10
7.6303340503
 20
2.9567653056
 11
8.4165227165
 21
3.7766265326
  0
LINE
  5
228
100
AcDbEntity
  8
SCHEME_DIMS
100
AcDbLine
 62
7
  6
CONTINUOUS
 10
8.4165227165
 20
3.7766265326
 11
8.5665227165
 21
3.7766265326
  0
LINE
  5
229
100
AcDbEntity
  8
SCHEME_DIMS
100
AcDbLine
 62
7
  6
CONTINUOUS
 10
6.9422920058
 20
2.2392543326
 11
7.6303340503
 21
2.9567653056
  0
INSERT
  5
22A
100
AcDbEntity
  8
SCHEME_DIMS
100
AcDbBlockReference
 62
7
  6
CONTINUOUS
  2
_FILLED
 10
8.3183760949
 20
3.6742762786
 41
0.1875
 42
0.1875
 43
0.1875
 50
46.2010915808
  0
INSERT
  5
22B
100
AcDbEntity
  8
SCHEME_DIMS
100
AcDbBlockReference
 62
7
  6
CONTINUOUS
  2
_FILLED
 10
6.9422920058
 20
2.2392543326
 41
0.1875
 42
0.1875
 43
0.1875
 50
226.2010915808
  0
ENDBLK
  5
22C
100
AcDbEntity
  8
0
  6
BYBLOCK
 62
0
100
AcDbBlockEnd
  0
BLOCK
  5
22D
100
AcDbEntity
  8
SCHEME_DIMS
100
AcDbBlockBegin
 62
7
  6
CONTINUOUS
  2
*D1
 70
65
 10
0.0
 20
0.0
  3
*D1
  1

  0
MTEXT
  5
22E
100
AcDbEntity
  8
SCHEME_DIMS
100
AcDbMText
 62
7
  6
CONTINUOUS
  7
TEXTSTYLE_6
 71
2
 72
1
 10
7.5303340503
 20
5.0785556488
 30
0.0
 11
1.0
 21
0.0
 31
0.0
 73
2
 44
0.9
  1
{\fgdt;n}\ftxt;45.0\P[1.77]
 40
0.1
 41
0.6
  0
LINE
  5
22F
100
AcDbEntity
  8
SCHEME_DIMS
100
AcDbLine
 62
7
  6
CONTINUOUS
 10
6.7445072787
 20
7.6171822376
 11
6.7445072787
 21
6.9774266044
  0
LINE
  5
230
100
AcDbEntity
  8
SCHEME_DIMS
100
AcDbLine
 62
7
  6
CONTINUOUS
 10
6.7445072787
 20
6.7736837221
 11
6.7445072787
 21
4.9035556488
  0
LINE
  5
231
100
AcDbEntity
  8
SCHEME_DIMS
100
AcDbLine
 62
7
  6
CONTINUOUS
 10
8.516160822
 20
7.615899147
 11
8.516160822
 21
4.9035556488
  0
LINE
  5
232
100
AcDbEntity
  8
SCHEME_DIMS
100
AcDbLine
 62
7
  6
CONTINUOUS
 10
6.7445072787
 20
5.0285556488
 11
7.1636673837
 21
5.0285556488
  0
LINE
  5
233
100
AcDbEntity
  8
SCHEME_DIMS
100
AcDbLine
 62
7
  6
CONTINUOUS
 10
8.516160822
 20
5.0285556488
 11
8.097000717
 21
5.0285556488
  0
INSERT
  5
234
100
AcDbEntity
  8
SCHEME_DIMS
100
AcDbBlockReference
 62
7
  6
CONTINUOUS
  2
_FILLED
 10
6.7445072787
 20
5.0285556488
 41
0.1875
 42
0.1875
 43
0.1875
 50
180.0
  0
INSERT
  5
235
100
AcDbEntity
  8
SCHEME_DIMS
100
AcDbBlockReference
 62
7
  6
CONTINUOUS
  2
_FILLED
 10
8.516160822
 20
5.0285556488
 41
0.1875
 42
0.1875
 43
0.1875
  0
ENDBLK
  5
236
100
AcDbEntity
  8
0
  6
BYBLOCK
 62
0
100
AcDbBlockEnd
  0
BLOCK
  5
237
100
AcDbEntity
  8
SCHEME_DIMS
100
AcDbBlockBegin
 62
7
  6
CONTINUOUS
  2
*D2
 70
65
 10
0.0
 20
0.0
  3
*D2
  1

  0
MTEXT
  5
238
100
AcDbEntity
  8
SCHEME_DIMS
100
AcDbMText
 62
7
  6
CONTINUOUS
  7
STANDARD
 71
2
 72
1
 10
9.5232734967
 20
10.9240445115
 30
0.0
 11
1.0
 21
0.0
 31
0.0
 73
2
 44
0.9
  1
205.5\P[8.09]
 40
0.1
 41
0.6
  0
LINE
  5
239
100
AcDbEntity
  8
SCHEME_DIMS
100
AcDbLine
 62
7
  6
CONTINUOUS
 10
8.2174403496
 20
6.828432493
 11
9.6982734967
 21
6.828432493
  0
LINE
  5
23A
100
AcDbEntity
  8
SCHEME_DIMS
100
AcDbLine
 62
7
  6
CONTINUOUS
 10
7.6977553102
 20
14.91965653
 11
9.6982734967
 21
14.91965653
  0
LINE
  5
23B
100
AcDbEntity
  8
SCHEME_DIMS
100
AcDbLine
 62
7
  6
CONTINUOUS
 10
9.5732734967
 20
6.828432493
 11
9.5732734967
 21
10.5740445115
  0
LINE
  5
23C
100
AcDbEntity
  8
SCHEME_DIMS
100
AcDbLine
 62
7
  6
CONTINUOUS
 10
9.5732734967
 20
14.91965653
 11
9.5732734967
 21
11.0240445115
  0
INSERT
  5
23D
100
AcDbEntity
  8
SCHEME_DIMS
100
AcDbBlockReference
 62
7
  6
CONTINUOUS
  2
_FILLED
 10
9.5732734967
 20
6.828432493
 41
0.1875
 42
0.1875
 43
0.1875
 50
270.0
  0
INSERT
  5
23E
100
AcDbEntity
  8
SCHEME_DIMS
100
AcDbBlockReference
 62
7
  6
CONTINUOUS
  2
_FILLED
 10
9.5732734967
 20
14.91965653
 41
0.1875
 42
0.1875
 43
0.1875
 50
90.0
  0
ENDBLK
  5
23F
100
AcDbEntity
  8
0
  6
BYBLOCK
 62
0
100
AcDbBlockEnd
  0
BLOCK
  5
240
100
AcDbEntity
  8
SCHEME_DIMS
100
AcDbBlockBegin
 62
7
  6
CONTINUOUS
  2
*D3
 70
65
 10
0.0
 20
0.0
  3
*D3
  1

  0
MTEXT
  5
241
100
AcDbEntity
  8
SCHEME_DIMS
100
AcDbMText
 62
7
  6
CONTINUOUS
  7
STANDARD
 71
2
 72
1
 10
8.9948577074
 20
7.252448241
 30
0.0
 11
1.0
 21
0.0
 31
0.0
 73
2
 44
0.9
  1
19.0\P[.75]
 40
0.1
 41
0.5
  0
LINE
  5
242
100
AcDbEntity
  8
SCHEME_DIMS
100
AcDbLine
 62
7
  6
CONTINUOUS
 10
8.480546423
 20
7.5764639891
 11
9.1698577074
 21
7.5764639891
  0
LINE
  5
243
100
AcDbEntity
  8
SCHEME_DIMS
100
AcDbLine
 62
7
  6
CONTINUOUS
 10
8.2174403496
 20
6.828432493
 11
9.1698577074
 21
6.828432493
  0
LINE
  5
244
100
AcDbEntity
  8
SCHEME_DIMS
100
AcDbLine
 62
7
  6
CONTINUOUS
 10
9.0448577074
 20
7.5764639891
 11
9.0448577074
 21
7.9764639891
  0
LINE
  5
245
100
AcDbEntity
  8
SCHEME_DIMS
100
AcDbLine
 62
7
  6
CONTINUOUS
 10
9.0448577074
 20
6.828432493
 11
9.0448577074
 21
6.428432493
  0
INSERT
  5
246
100
AcDbEntity
  8
SCHEME_DIMS
100
AcDbBlockReference
 62
7
  6
CONTINUOUS
  2
_FILLED
 10
9.0448577074
 20
7.5764639891
 41
0.1875
 42
0.1875
 43
0.1875
 50
270.0
  0
INSERT
  5
247
100
AcDbEntity
  8
SCHEME_DIMS
100
AcDbBlockReference
 62
7
  6
CONTINUOUS
  2
_FILLED
 10
9.0448577074
 20
6.828432493
 41
0.1875
 42
0.1875
 43
0.1875
 50
90.0
  0
ENDBLK
  5
248
100
AcDbEntity
  8
0
  6
BYBLOCK
 62
0
100
AcDbBlockEnd
  0
BLOCK
  5
249
100
AcDbEntity
  8
SCHEME_DIMS
100
AcDbBlockBegin
 62
7
  6
CONTINUOUS
  2
*D4
 70
65
 10
0.0
 20
0.0
  3
*D4
  1

  0
MTEXT
  5
24A
100
AcDbEntity
  8
SCHEME_DIMS
100
AcDbMText
 62
7
  6
CONTINUOUS
  7
STANDARD
 71
2
 72
1
 10
5.8657585203
 20
9.1686060649
 30
0.0
 11
1.0
 21
0.0
 31
0.0
 73
2
 44
0.9
  1
3X 27.2\P[1.07]
 40
0.1
 41
0.7
  0
LINE
  5
24B
100
AcDbEntity
  8
SCHEME_DIMS
100
AcDbLine
 62
7
  6
CONTINUOUS
 10
6.57767657
 20
8.583172994
 11
5.8407585203
 21
8.583172994
  0
LINE
  5
24C
100
AcDbEntity
  8
SCHEME_DIMS
100
AcDbLine
 62
7
  6
CONTINUOUS
 10
6.57767657
 20
9.6540391357
 11
5.8407585203
 21
9.6540391357
  0
LINE
  5
24D
100
AcDbEntity
  8
SCHEME_DIMS
100
AcDbLine
 62
7
  6
CONTINUOUS
 10
5.9657585203
 20
8.583172994
 11
5.9657585203
 21
8.8186060649
  0
LINE
  5
24E
100
AcDbEntity
  8
SCHEME_DIMS
100
AcDbLine
 62
7
  6
CONTINUOUS
 10
5.9657585203
 20
9.6540391357
 11
5.9657585203
 21
9.2686060649
  0
INSERT
  5
24F
100
AcDbEntity
  8
SCHEME_DIMS
100
AcDbBlockReference
 62
7
  6
CONTINUOUS
  2
_FILLED
 10
5.9657585203
 20
8.583172994
 41
0.1875
 42
0.1875
 43
0.1875
 50
270.0
  0
INSERT
  5
250
100
AcDbEntity
  8
SCHEME_DIMS
100
AcDbBlockReference
 62
7
  6
CONTINUOUS
  2
_FILLED
 10
5.9657585203
 20
9.6540391357
 41
0.1875
 42
0.1875
 43
0.1875
 50
90.0
  0
ENDBLK
  5
251
100
AcDbEntity
  8
0
  6
BYBLOCK
 62
0
100
AcDbBlockEnd
  0
BLOCK
  5
252
100
AcDbEntity
  8
0
100
AcDbBlockBegin
  2
*T1
 70
1
 10
0.0
 20
0.0
  3
*T1
  1

  0
LINE
  5
253
100
AcDbEntity
  8
0
100
AcDbLine
 62
7
  6
CONTINUOUS
 10
4.35
 20
0.0
 11
0.0
 21
0.0
  0
LINE
  5
254
100
AcDbEntity
  8
0
100
AcDbLine
 62
7
  6
CONTINUOUS
 10
4.35
 20
0.0
 11
4.35
 21
1.92
  0
LINE
  5
255
100
AcDbEntity
  8
0
100
AcDbLine
 62
7
  6
CONTINUOUS
 10
4.35
 20
1.92
 11
0.0
 21
1.92
  0
LINE
  5
256
100
AcDbEntity
  8
0
100
AcDbLine
 62
7
  6
CONTINUOUS
 10
0.0
 20
0.0
 11
0.0
 21
1.92
  0
MTEXT
  5
257
100
AcDbEntity
  8
NOTES
100
AcDbMText
 62
7
  6
CONTINUOUS
  7
STANDARD
 71
2
 72
1
 10
4.125
 20
0.48
 30
0.0
 11
1.0
 21
0.0
 31
0.0
 73
2
 44
0.9
  1
A
 40
0.1
 41
0.2
  0
MTEXT
  5
258
100
AcDbEntity
  8
NOTES
100
AcDbMText
 62
7
  6
CONTINUOUS
  7
STANDARD
 71
2
 72
1
 10
2.175
 20
1.08
 30
0.0
 11
1.0
 21
0.0
 31
0.0
 73
2
 44
0.9
  1
TL50 BASIC 3 STACK CABLE AUDIBLE \P 
 40
0.1
 41
6.6
  0
ENDBLK
  5
259
100
AcDbEntity
  8
0
  6
BYBLOCK
 62
0
100
AcDbBlockEnd
  0
ENDSEC
  0
SECTION
  2
ENTITIES
  0
MTEXT
  5
25A
100
AcDbEntity
  8
0
100
AcDbMText
 62
7
  6
CONTINUOUS
  7
TEXTSTYLE_2
 71
2
 72
1
 10
15.7174677477
 20
1.6655662523
 30
0.0
 11
1.0
 21
0.0
 31
0.0
 73
2
 44
0.9
  1
\LTHIRD ANGLE PROJECTION\l
 40
0.1
 41
1.76
  0
MTEXT
  5
25B
100
AcDbEntity
  8
0
100
AcDbMText
 62
7
  6
CONTINUOUS
  7
STANDARD
 71
1
 72
1
 10
17.55
 20
1.32
 30
0.0
 11
1.0
 21
0.0
 31
0.0
 73
2
 44
0.9
  1
DRAWING NO.
 40
0.08
 41
0.88
  0
MTEXT
  5
25C
100
AcDbEntity
  8
0
100
AcDbMText
 62
7
  6
CONTINUOUS
  7
TEXTSTYLE_2
 71
1
 72
1
 10
16.75
 20
2.08
 30
0.0
 11
1.0
 21
0.0
 31
0.0
 73
2
 44
0.9
  1
TITLE
 40
0.1
 41
0.4
  0
MTEXT
  5
25D
100
AcDbEntity
  8
0
100
AcDbMText
 62
7
  6
CONTINUOUS
  7
STANDARD
 71
1
 72
1
 10
16.75
 20
1.32
 30
0.0
 11
1.0
 21
0.0
 31
0.0
 73
2
 44
0.9
  1
SIZE
 40
0.08
 41
0.32
  0
MTEXT
  5
25E
100
AcDbEntity
  8
0
100
AcDbMText
 62
7
  6
CONTINUOUS
  7
STANDARD
 71
1
 72
1
 10
16.75
 20
0.95
 30
0.0
 11
1.0
 21
0.0
 31
0.0
 73
2
 44
0.9
  1
SCALE
 40
0.08
 41
0.4
  0
MTEXT
  5
25F
100
AcDbEntity
  8
0
100
AcDbMText
 62
7
  6
CONTINUOUS
  7
TEXTSTYLE_2
 71
2
 72
1
 10
17.17
 20
1.2
 30
0.0
 11
1.0
 21
0.0
 31
0.0
 73
2
 44
0.9
  1
C
 40
0.1
 41
0.08
  0
MTEXT
  5
260
100
AcDbEntity
  8
0
100
AcDbMText
 62
7
  6
CONTINUOUS
  7
STANDARD
 71
1
 72
1
 10
18.925
 20
0.95
 30
0.0
 11
1.0
 21
0.0
 31
0.0
 73
2
 44
0.9
  1
SHEET
 40
0.08
 41
0.4
  0
MTEXT
  5
261
100
AcDbEntity
  8
0
100
AcDbMText
 62
7
  6
CONTINUOUS
  7
STANDARD
 71
1
 72
1
 10
20.3
 20
1.32
 30
0.0
 11
1.0
 21
0.0
 31
0.0
 73
2
 44
0.9
  1
REV.
 40
0.08
 41
0.32
  0
MTEXT
  5
262
100
AcDbEntity
  8
0
100
AcDbMText
 62
7
  6
CONTINUOUS
  7
STANDARD
 71
3
 72
1
 10
21.05
 20
0.698443
 30
0.0
 11
1.0
 21
0.0
 31
0.0
 73
2
 44
0.9
  1
CREO
 40
0.07
 41
0.28
  0
MTEXT
  5
263
100
AcDbEntity
  8
0
100
AcDbMText
 62
7
  6
CONTINUOUS
  7
TEXTSTYLE_2
 71
2
 72
1
 10
12.257
 20
15.95
 30
0.0
 11
1.0
 21
0.0
 31
0.0
 73
2
 44
0.9
  1
4
 40
0.1
 41
0.08
  0
MTEXT
  5
264
100
AcDbEntity
  8
0
100
AcDbMText
 62
7
  6
CONTINUOUS
  7
TEXTSTYLE_2
 71
2
 72
1
 10
12.257
 20
0.65
 30
0.0
 11
1.0
 21
0.0
 31
0.0
 73
2
 44
0.9
  1
4
 40
0.1
 41
0.08
  0
MTEXT
  5
265
100
AcDbEntity
  8
0
100
AcDbMText
 62
7
  6
CONTINUOUS
  7
TEXTSTYLE_2
 71
3
 72
1
 10
0.864
 20
6.375
 30
0.0
 11
1.0
 21
0.0
 31
0.0
 73
2
 44
0.9
  1
B
 40
0.1
 41
0.08
  0
MTEXT
  5
266
100
AcDbEntity
  8
0
100
AcDbMText
 62
7
  6
CONTINUOUS
  7
TEXTSTYLE_2
 71
1
 72
1
 10
21.15
 20
6.375
 30
0.0
 11
1.0
 21
0.0
 31
0.0
 73
2
 44
0.9
  1
B
 40
0.1
 41
0.08
  0
MTEXT
  5
267
100
AcDbEntity
  8
0
100
AcDbMText
 62
7
  6
CONTINUOUS
  7
TEXTSTYLE_2
 71
3
 72
1
 10
0.864
 20
2.525
 30
0.0
 11
1.0
 21
0.0
 31
0.0
 73
2
 44
0.9
  1
A
 40
0.1
 41
0.08
  0
MTEXT
  5
268
100
AcDbEntity
  8
0
100
AcDbMText
 62
7
  6
CONTINUOUS
  7
TEXTSTYLE_2
 71
1
 72
1
 10
21.15
 20
2.525
 30
0.0
 11
1.0
 21
0.0
 31
0.0
 73
2
 44
0.9
  1
A
 40
0.1
 41
0.08
  0
MTEXT
  5
269
100
AcDbEntity
  8
0
100
AcDbMText
 62
7
  6
CONTINUOUS
  7
TEXTSTYLE_2
 71
3
 72
1
 10
0.864
 20
14.075
 30
0.0
 11
1.0
 21
0.0
 31
0.0
 73
2
 44
0.9
  1
D
 40
0.1
 41
0.08
  0
MTEXT
  5
26A
100
AcDbEntity
  8
0
100
AcDbMText
 62
7
  6
CONTINUOUS
  7
TEXTSTYLE_2
 71
1
 72
1
 10
21.15
 20
14.075
 30
0.0
 11
1.0
 21
0.0
 31
0.0
 73
2
 44
0.9
  1
D
 40
0.1
 41
0.08
  0
MTEXT
  5
26B
100
AcDbEntity
  8
0
100
AcDbMText
 62
7
  6
CONTINUOUS
  7
TEXTSTYLE_2
 71
3
 72
1
 10
0.864
 20
10.225
 30
0.0
 11
1.0
 21
0.0
 31
0.0
 73
2
 44
0.9
  1
C
 40
0.1
 41
0.08
  0
MTEXT
  5
26C
100
AcDbEntity
  8
0
100
AcDbMText
 62
7
  6
CONTINUOUS
  7
TEXTSTYLE_2
 71
1
 72
1
 10
21.15
 20
10.225
 30
0.0
 11
1.0
 21
0.0
 31
0.0
 73
2
 44
0.9
  1
C
 40
0.1
 41
0.08
  0
MTEXT
  5
26D
100
AcDbEntity
  8
0
100
AcDbMText
 62
7
  6
CONTINUOUS
  7
TEXTSTYLE_2
 71
2
 72
1
 10
14.757
 20
0.65
 30
0.0
 11
1.0
 21
0.0
 31
0.0
 73
2
 44
0.9
  1
3
 40
0.1
 41
0.08
  0
MTEXT
  5
26E
100
AcDbEntity
  8
0
100
AcDbMText
 62
7
  6
CONTINUOUS
  7
TEXTSTYLE_2
 71
2
 72
1
 10
14.757
 20
15.95
 30
0.0
 11
1.0
 21
0.0
 31
0.0
 73
2
 44
0.9
  1
3
 40
0.1
 41
0.08
  0
MTEXT
  5
26F
100
AcDbEntity
  8
0
100
AcDbMText
 62
7
  6
CONTINUOUS
  7
TEXTSTYLE_2
 71
2
 72
1
 10
17.257
 20
15.95
 30
0.0
 11
1.0
 21
0.0
 31
0.0
 73
2
 44
0.9
  1
2
 40
0.1
 41
0.08
  0
MTEXT
  5
270
100
AcDbEntity
  8
0
100
AcDbMText
 62
7
  6
CONTINUOUS
  7
TEXTSTYLE_2
 71
2
 72
1
 10
17.257
 20
0.65
 30
0.0
 11
1.0
 21
0.0
 31
0.0
 73
2
 44
0.9
  1
2
 40
0.1
 41
0.08
  0
MTEXT
  5
271
100
AcDbEntity
  8
0
100
AcDbMText
 62
7
  6
CONTINUOUS
  7
TEXTSTYLE_2
 71
2
 72
1
 10
19.757
 20
0.65
 30
0.0
 11
1.0
 21
0.0
 31
0.0
 73
2
 44
0.9
  1
1
 40
0.1
 41
0.08
  0
MTEXT
  5
272
100
AcDbEntity
  8
0
100
AcDbMText
 62
7
  6
CONTINUOUS
  7
TEXTSTYLE_2
 71
2
 72
1
 10
19.757
 20
15.95
 30
0.0
 11
1.0
 21
0.0
 31
0.0
 73
2
 44
0.9
  1
1
 40
0.1
 41
0.08
  0
MTEXT
  5
273
100
AcDbEntity
  8
0
100
AcDbMText
 62
7
  6
CONTINUOUS
  7
TEXTSTYLE_2
 71
2
 72
1
 10
2.257
 20
0.65
 30
0.0
 11
1.0
 21
0.0
 31
0.0
 73
2
 44
0.9
  1
8
 40
0.1
 41
0.08
  0
MTEXT
  5
274
100
AcDbEntity
  8
0
100
AcDbMText
 62
7
  6
CONTINUOUS
  7
TEXTSTYLE_2
 71
2
 72
1
 10
4.757
 20
0.65
 30
0.0
 11
1.0
 21
0.0
 31
0.0
 73
2
 44
0.9
  1
7
 40
0.1
 41
0.08
  0
MTEXT
  5
275
100
AcDbEntity
  8
0
100
AcDbMText
 62
7
  6
CONTINUOUS
  7
TEXTSTYLE_2
 71
2
 72
1
 10
7.257
 20
0.65
 30
0.0
 11
1.0
 21
0.0
 31
0.0
 73
2
 44
0.9
  1
6
 40
0.1
 41
0.08
  0
MTEXT
  5
276
100
AcDbEntity
  8
0
100
AcDbMText
 62
7
  6
CONTINUOUS
  7
TEXTSTYLE_2
 71
2
 72
1
 10
9.757
 20
0.65
 30
0.0
 11
1.0
 21
0.0
 31
0.0
 73
2
 44
0.9
  1
5
 40
0.1
 41
0.08
  0
MTEXT
  5
277
100
AcDbEntity
  8
0
100
AcDbMText
 62
7
  6
CONTINUOUS
  7
TEXTSTYLE_2
 71
2
 72
1
 10
9.757
 20
15.95
 30
0.0
 11
1.0
 21
0.0
 31
0.0
 73
2
 44
0.9
  1
5
 40
0.1
 41
0.08
  0
MTEXT
  5
278
100
AcDbEntity
  8
0
100
AcDbMText
 62
7
  6
CONTINUOUS
  7
TEXTSTYLE_2
 71
2
 72
1
 10
7.257
 20
15.95
 30
0.0
 11
1.0
 21
0.0
 31
0.0
 73
2
 44
0.9
  1
6
 40
0.1
 41
0.08
  0
MTEXT
  5
279
100
AcDbEntity
  8
0
100
AcDbMText
 62
7
  6
CONTINUOUS
  7
TEXTSTYLE_2
 71
2
 72
1
 10
4.757
 20
15.95
 30
0.0
 11
1.0
 21
0.0
 31
0.0
 73
2
 44
0.9
  1
7
 40
0.1
 41
0.08
  0
MTEXT
  5
27A
100
AcDbEntity
  8
0
100
AcDbMText
 62
7
  6
CONTINUOUS
  7
TEXTSTYLE_2
 71
2
 72
1
 10
2.257
 20
15.95
 30
0.0
 11
1.0
 21
0.0
 31
0.0
 73
2
 44
0.9
  1
8
 40
0.1
 41
0.08
  0
MTEXT
  5
27B
100
AcDbEntity
  8
0
100
AcDbMText
 62
7
  6
CONTINUOUS
  7
STANDARD
 71
1
 72
1
 10
17.2749123633
 20
0.9184107931
 30
0.0
 11
1.0
 21
0.0
 31
0.0
 73
2
 44
0.9
  1
1:1
 40
0.1
 41
0.3
  0
MTEXT
  5
27C
100
AcDbEntity
  8
0
100
AcDbMText
 62
7
  6
CONTINUOUS
  7
STANDARD
 71
1
 72
1
 10
19.4499123633
 20
0.9184107931
 30
0.0
 11
1.0
 21
0.0
 31
0.0
 73
2
 44
0.9
  1
1 OF 1
 40
0.1
 41
0.6
  0
MTEXT
  5
27D
100
AcDbEntity
  8
0
100
AcDbMText
 62
7
  6
CONTINUOUS
  7
STANDARD
 71
1
 72
1
 10
18.5204017884
 20
1.2400373234
 30
0.0
 11
1.0
 21
0.0
 31
0.0
 73
2
 44
0.9
  1
212917
 40
0.12
 41
0.72
  0
MTEXT
  5
27E
100
AcDbEntity
  8
0
100
AcDbMText
 62
7
  6
CONTINUOUS
  7
STANDARD
 71
1
 72
1
 10
1.2857894151
 20
1.4458068967
 30
0.0
 11
1.0
 21
0.0
 31
0.0
 73
2
 44
0.9
  1
NOTES:\P1. ALL DIMENSIONS ARE MILLIMETERS [INCHES] UNLESS OTHERWISE NOTED.\P2. REFER TO "www.bannerengineering.com" FOR ADDITIONAL DATA AND SPECIFICATIONS.
 40
0.1
 41
7.9
  0
MTEXT
  5
27F
100
AcDbEntity
  8
0
100
AcDbMText
 62
7
  6
CONTINUOUS
  7
TEXTSTYLE_3
 71
2
 72
1
 10
19.7555637832
 20
2.555409194
 30
0.0
 11
1.0
 21
0.0
 31
0.0
 73
2
 44
0.9
  1
BANNER ENGINEERING CORP.
 40
0.12
 41
2.592
  0
MTEXT
  5
280
100
AcDbEntity
  8
0
100
AcDbMText
 62
7
  6
CONTINUOUS
  7
TEXTSTYLE_2
 71
2
 72
1
 10
19.6690932526
 20
2.3442032634
 30
0.0
 11
1.0
 21
0.0
 31
0.0
 73
2
 44
0.9
  1
www.bannerengineering.com
 40
0.1
 41
2.0
  0
MTEXT
  5
281
100
AcDbEntity
  8
0
100
AcDbMText
 62
7
  6
CONTINUOUS
  7
TEXTSTYLE_4
 71
2
 72
1
 10
15.7104628329
 20
2.6377571551
 30
0.0
 11
1.0
 21
0.0
 31
0.0
 73
2
 44
0.9
  1
This drawing is the property\Pof BANNER ENGINEERING CORP.\PAny use or reproduction,\Pin any form, without prior\Pwritten permission of\PBanner is prohibited.
 40
0.08
 41
1.904
  0
MTEXT
  5
282
100
AcDbEntity
  8
0
100
AcDbMText
 62
7
  6
CONTINUOUS
  7
TEXTSTYLE_5
 71
2
 72
1
 10
15.7283993136
 20
1.9032170366
 30
0.0
 11
1.0
 21
0.0
 31
0.0
 73
2
 44
0.9
  1
C  2015 Banner Engineering Corp.
 40
0.08
 41
1.92
  0
DIMENSION
  5
283
100
AcDbEntity
  8
SCHEME_DIMS
100
AcDbDimension
 62
7
  6
CONTINUOUS
  2
*D0
 10
8.3183760949
 20
3.6742762786
 11
9.0331893832
 21
3.7016265326
 70
163
 71
1
 72
2
 41
0.9
 42
50.5
  1
%%c<>\P[]
  3
DIMSTYLE_1
100
AcDbDiametricDimension
 15
6.9422920058
 25
2.2392543326
  0
DIMENSION
  5
284
100
AcDbEntity
  8
SCHEME_DIMS
100
AcDbDimension
 62
7
  6
CONTINUOUS
  2
*D1
 10
8.516160822
 20
5.0285556488
 11
7.6303340503
 21
4.9535556488
 70
160
 71
2
 72
2
 41
0.9
 42
45.0
  1
%%c<>\P[]
  3
DIMSTYLE_2
100
AcDbAlignedDimension
 13
6.7445072787
 23
7.6796822376
 14
8.516160822
 24
7.678399147
100
AcDbRotatedDimension
  0
DIMENSION
  5
285
100
AcDbEntity
  8
SCHEME_DIMS
100
AcDbDimension
 62
7
  6
CONTINUOUS
  2
*D2
 10
9.5732734967
 20
14.91965653
 11
9.5732734967
 21
10.7990445115
 70
160
 71
2
 72
2
 41
0.9
 42
205.5170905401
  1
<>\P[]
  3
DIMSTYLE_2
100
AcDbAlignedDimension
 13
8.1549403496
 23
6.828432493
 14
7.6352553102
 24
14.91965653
 50
90.0
100
AcDbRotatedDimension
  0
DIMENSION
  5
286
100
AcDbEntity
  8
SCHEME_DIMS
100
AcDbDimension
 62
7
  6
CONTINUOUS
  2
*D3
 10
9.0448577074
 20
6.828432493
 11
9.0448577074
 21
7.127448241
 70
160
 71
2
 72
2
 41
0.9
 42
19.0
  1
<>\P[]
  3
DIMSTYLE_2
100
AcDbAlignedDimension
 13
8.418046423
 23
7.5764639891
 14
8.1549403496
 24
6.828432493
 50
270.0
100
AcDbRotatedDimension
  0
DIMENSION
  5
287
100
AcDbEntity
  8
SCHEME_DIMS
100
AcDbDimension
 62
7
  6
CONTINUOUS
  2
*D4
 10
5.9657585203
 20
9.6540391357
 11
5.9657585203
 21
9.0436060649
 70
160
 71
2
 72
2
 41
0.9
 42
27.2
  1
3X <>\P[]
  3
DIMSTYLE_2
100
AcDbAlignedDimension
 13
6.64017657
 23
8.583172994
 14
6.64017657
 24
9.6540391357
 50
90.0
100
AcDbRotatedDimension
  0
ACAD_TABLE
  5
288
100
AcDbEntity
  8
0
 62
7
  6
CONTINUOUS
100
AcDbBlockReference
  2
*T1
 10
16.7
 20
0.75
 30
0.0
100
AcDbTable
342
       625
343
21D
 11
1.0
 21
0.0
 31
0.0
 90
6
 91
3
 92
5
 93
4
 94
0
 95
0
 96
0
 70
1
141
0.33
141
0.45
141
1.14
142
0.65
142
1.15
142
1.025
142
1.075
142
0.45
171
1
172
0
173
0
174
0
175
1
176
1
 91
33
178
0
145
0.0
301
CELL_VALUE
 90
4
  1
 
304
ACVALUE_END
170
1
140
0.1
171
1
172
0
173
0
174
0
175
1
176
1
 91
33
178
0
145
0.0
301
CELL_VALUE
 90
4
  1
 
304
ACVALUE_END
170
1
140
0.1
171
1
172
0
173
0
174
0
175
1
176
1
 91
33
178
0
145
0.0
301
CELL_VALUE
 90
4
  1
 
304
ACVALUE_END
170
1
140
0.1
171
1
172
0
173
0
174
0
175
1
176
1
 91
33
178
0
145
0.0
301
CELL_VALUE
 90
4
  1
 
304
ACVALUE_END
170
1
140
0.1
171
1
172
0
173
0
174
0
175
1
176
1
 91
33
178
0
145
0.0
301
CELL_VALUE
 90
4
  1
 
304
ACVALUE_END
170
1
140
0.1
171
1
172
0
173
0
174
0
175
1
176
1
 91
33
178
0
145
0.0
301
CELL_VALUE
 90
4
  1
 
304
ACVALUE_END
170
1
140
0.1
171
1
172
0
173
0
174
0
175
1
176
1
 91
33
178
0
145
0.0
301
CELL_VALUE
 90
4
  1
 
304
ACVALUE_END
170
1
140
0.1
171
1
172
0
173
0
174
0
175
1
176
1
 91
33
178
0
145
0.0
301
CELL_VALUE
 90
4
  1
 
304
ACVALUE_END
170
1
140
0.1
171
1
172
0
173
0
174
0
175
1
176
1
 91
33
178
0
145
0.0
301
CELL_VALUE
 90
4
  1
 
304
ACVALUE_END
170
1
140
0.1
171
1
172
0
173
0
174
0
175
1
176
1
 91
41
178
0
145
0.0
301
CELL_VALUE
 90
4
  1
A
304
ACVALUE_END
170
8
140
0.1
 64
7
171
1
172
0
173
0
174
0
175
5
176
1
 91
33
178
0
145
0.0
301
CELL_VALUE
 90
4
  1
TL50 BASIC 3 STACK CABLE AUDIBLE \P 
304
ACVALUE_END
170
8
140
0.1
171
1
172
0
173
1
174
0
175
1
176
1
 91
1
178
0
145
0.0
170
1
171
1
172
0
173
1
174
0
175
1
176
1
 91
1
178
0
145
0.0
170
1
171
1
172
0
173
1
174
0
175
1
176
1
 91
1
178
0
145
0.0
170
1
171
1
172
0
173
1
174
0
175
1
176
1
 91
1
178
0
145
0.0
170
8
  0
LEADER
  5
289
100
AcDbEntity
  8
NOTES
100
AcDbLeader
 62
7
  6
CONTINUOUS
  3
STANDARD
 71
1
 72
0
 73
0
 75
0
 40
0.1
 41
1.4
 76
3
 10
7.5539440662
 20
7.0266154556
 30
0.0
 10
6.780081942
 20
6.8564571722
 30
0.0
 10
6.6545092216
 20
6.8564571722
 30
0.0
340
28A
1001
ACAD
1000
DSTYLE
1002
{
1070
77
1070
0
1002
}
  0
MTEXT
  5
28A
102
{ACAD_REACTORS
330
289
102
}
100
AcDbEntity
  8
NOTES
100
AcDbMText
 62
7
  6
CONTINUOUS
  7
STANDARD
 71
3
 72
1
 10
6.6545092216
 20
6.9064571722
 30
0.0
 11
1.0
 21
0.0
 31
0.0
 73
2
 44
0.9
  1
 M30 X 1.5-5g 
 40
0.1
 41
1.4
  0
LEADER
  5
28B
100
AcDbEntity
  8
NOTES
100
AcDbLeader
 62
7
  6
CONTINUOUS
  3
STANDARD
 71
1
 72
0
 73
0
 75
0
 40
0.1
 41
1.2
 76
3
 10
7.9400069353
 20
2.7426276061
 30
0.0
 10
8.5557878859
 20
2.3168172668
 30
0.0
 10
8.6694056664
 20
2.3168172668
 30
0.0
340
28C
1001
ACAD
1000
DSTYLE
1002
{
1070
77
1070
0
1002
}
  0
MTEXT
  5
28C
102
{ACAD_REACTORS
330
28B
102
}
100
AcDbEntity
  8
NOTES
100
AcDbMText
 62
7
  6
CONTINUOUS
  7
STANDARD
 71
1
 72
1
 10
8.6694056664
 20
2.3668172668
 30
0.0
 11
1.0
 21
0.0
 31
0.0
 73
2
 44
0.9
  1
 1/2-14 NPSM
 40
0.1
 41
1.2
  0
MTEXT
  5
28D
100
AcDbEntity
  8
NOTES
100
AcDbMText
 62
7
  6
CONTINUOUS
  7
STANDARD
 71
2
 72
1
 10
17.0201938077
 20
4.6070582644
 30
0.0
 11
1.0
 21
0.0
 31
0.0
 73
2
 44
0.9
  1
\LISOMETRIC VIEW\P\H0.1;\lSCALE  1:1
 40
0.125
 41
1.75
  0
LINE
  5
28E
100
AcDbEntity
  8
0
100
AcDbLine
 62
7
  6
CONTINUOUS
 10
0.814
 20
8.336603
 11
0.814
 21
8.163397
  0
LINE
  5
28F
100
AcDbEntity
  8
0
100
AcDbLine
 62
7
  6
CONTINUOUS
 10
0.964
 20
15.75
 11
0.964
 21
0.75
  0
LINE
  5
290
100
AcDbEntity
  8
0
100
AcDbLine
 62
7
  6
CONTINUOUS
 10
15.8276527477
 20
1.2966912523
 11
16.4340437477
 21
1.3660842523
  0
LINE
  5
291
100
AcDbEntity
  8
0
100
AcDbLine
 62
7
  6
CONTINUOUS
 10
10.920397
 20
0.6
 11
11.093603
 21
0.6
  0
LINE
  5
292
100
AcDbEntity
  8
0
100
AcDbLine
 62
7
  6
CONTINUOUS
 10
0.964
 20
0.75
 11
21.05
 21
0.75
  0
LINE
  5
293
100
AcDbEntity
  8
0
100
AcDbLine
 62
7
  6
CONTINUOUS
 10
3.507
 20
0.75
 11
3.507
 21
0.5
  0
LINE
  5
294
100
AcDbEntity
  8
0
100
AcDbLine
 62
7
  6
CONTINUOUS
 10
3.507
 20
15.75
 11
3.507
 21
16.0
  0
LINE
  5
295
100
AcDbEntity
  8
0
100
AcDbLine
 62
7
  6
CONTINUOUS
 10
16.7
 20
1.0
 11
21.05
 21
1.0
  0
LINE
  5
296
100
AcDbEntity
  8
0
100
AcDbLine
 62
7
  6
CONTINUOUS
 10
14.9008917477
 20
1.1139932523
 11
15.1229827477
 21
1.1139932523
  0
LINE
  5
297
100
AcDbEntity
  8
0
100
AcDbLine
 62
7
  6
CONTINUOUS
 10
15.1729827477
 20
1.1139932523
 11
15.2729827477
 21
1.1139932523
  0
LINE
  5
298
100
AcDbEntity
  8
0
100
AcDbLine
 62
7
  6
CONTINUOUS
 10
15.3229827477
 20
1.1139932523
 11
15.5450737477
 21
1.1139932523
  0
LINE
  5
299
100
AcDbEntity
  8
0
100
AcDbLine
 62
7
  6
CONTINUOUS
 10
15.7276527477
 20
1.1139932523
 11
16.0058047477
 21
1.1139932523
  0
LINE
  5
29A
100
AcDbEntity
  8
0
100
AcDbLine
 62
7
  6
CONTINUOUS
 10
16.0558047477
 20
1.1139932523
 11
16.2058907477
 21
1.1139932523
  0
LINE
  5
29B
100
AcDbEntity
  8
0
100
AcDbLine
 62
7
  6
CONTINUOUS
 10
16.2558907477
 20
1.1139932523
 11
16.5340437477
 21
1.1139932523
  0
LINE
  5
29C
100
AcDbEntity
  8
0
100
AcDbLine
 62
7
  6
CONTINUOUS
 10
16.7
 20
1.37
 11
21.05
 21
1.37
  0
LINE
  5
29D
100
AcDbEntity
  8
0
100
AcDbLine
 62
7
  6
CONTINUOUS
 10
16.4340437477
 20
0.8619022523
 11
15.8276527477
 21
0.9312952523
  0
LINE
  5
29E
100
AcDbEntity
  8
0
100
AcDbLine
 62
7
  6
CONTINUOUS
 10
14.7
 20
1.77
 11
16.7
 21
1.77
  0
LINE
  5
29F
100
AcDbEntity
  8
0
100
AcDbLine
 62
7
  6
CONTINUOUS
 10
16.7
 20
2.13
 11
21.05
 21
2.13
  0
LINE
  5
2A0
100
AcDbEntity
  8
0
100
AcDbLine
 62
7
  6
CONTINUOUS
 10
18.273144232
 20
2.3543254011
 11
18.2257802057
 21
2.3543254011
  0
LINE
  5
2A1
100
AcDbEntity
  8
0
100
AcDbLine
 62
7
  6
CONTINUOUS
 10
18.1818891814
 20
2.3543254011
 11
18.0683181184
 21
2.3543254011
  0
LINE
  5
2A2
100
AcDbEntity
  8
0
100
AcDbLine
 62
7
  6
CONTINUOUS
 10
18.0394141024
 20
2.3543254011
 11
17.8362019897
 21
2.3543254011
  0
LINE
  5
2A3
100
AcDbEntity
  8
0
100
AcDbLine
 62
7
  6
CONTINUOUS
 10
17.7857289617
 20
2.3543254011
 11
17.7115229205
 21
2.3543254011
  0
LINE
  5
2A4
100
AcDbEntity
  8
0
100
AcDbLine
 62
7
  6
CONTINUOUS
 10
17.6651428948
 20
2.3543254011
 11
17.5894788529
 21
2.3543254011
  0
LINE
  5
2A5
100
AcDbEntity
  8
0
100
AcDbLine
 62
7
  6
CONTINUOUS
 10
17.537475824
 20
2.3543254011
 11
17.4632707829
 21
2.3543254011
  0
LINE
  5
2A6
100
AcDbEntity
  8
0
100
AcDbLine
 62
7
  6
CONTINUOUS
 10
17.4168897572
 20
2.3543254011
 11
17.3412257152
 21
2.3543254011
  0
LINE
  5
2A7
100
AcDbEntity
  8
0
100
AcDbLine
 62
7
  6
CONTINUOUS
 10
16.8743904563
 20
2.3543254011
 11
17.0508365542
 21
2.3543254011
  0
LINE
  5
2A8
100
AcDbEntity
  8
0
100
AcDbLine
 62
7
  6
CONTINUOUS
 10
17.1083735861
 20
2.3543254011
 11
17.185749629
 21
2.3543254011
  0
LINE
  5
2A9
100
AcDbEntity
  8
0
100
AcDbLine
 62
7
  6
CONTINUOUS
 10
17.2060356402
 20
2.3543254011
 11
17.3113166986
 21
2.3543254011
  0
LINE
  5
2AA
100
AcDbEntity
  8
0
100
AcDbLine
 62
7
  6
CONTINUOUS
 10
18.1572301677
 20
2.3790534148
 11
18.1818891814
 21
2.3790534148
  0
LINE
  5
2AB
100
AcDbEntity
  8
0
100
AcDbLine
 62
7
  6
CONTINUOUS
 10
17.3113166986
 20
2.3790754148
 11
17.2913006875
 21
2.3790754148
  0
LINE
  5
2AC
100
AcDbEntity
  8
0
100
AcDbLine
 62
7
  6
CONTINUOUS
 10
17.2204866482
 20
2.3790754148
 11
17.2060356402
 21
2.3790754148
  0
LINE
  5
2AD
100
AcDbEntity
  8
0
100
AcDbLine
 62
7
  6
CONTINUOUS
 10
17.185749629
 20
2.3790754148
 11
17.1744666227
 21
2.3790754148
  0
LINE
  5
2AE
100
AcDbEntity
  8
0
100
AcDbLine
 62
7
  6
CONTINUOUS
 10
17.1312345987
 20
2.3790754148
 11
17.1083735861
 21
2.3790754148
  0
LINE
  5
2AF
100
AcDbEntity
  8
0
100
AcDbLine
 62
7
  6
CONTINUOUS
 10
17.0051585288
 20
2.3790754148
 11
16.9637955059
 21
2.3790754148
  0
LINE
  5
2B0
100
AcDbEntity
  8
0
100
AcDbLine
 62
7
  6
CONTINUOUS
 10
16.8983324696
 20
2.3790754148
 11
16.8743904563
 21
2.3790754148
  0
LINE
  5
2B1
100
AcDbEntity
  8
0
100
AcDbLine
 62
7
  6
CONTINUOUS
 10
17.3412257152
 20
2.3790754148
 11
17.3598727255
 21
2.3790754148
  0
LINE
  5
2B2
100
AcDbEntity
  8
0
100
AcDbLine
 62
7
  6
CONTINUOUS
 10
17.3965727459
 20
2.3790754148
 11
17.4168897572
 21
2.3790754148
  0
LINE
  5
2B3
100
AcDbEntity
  8
0
100
AcDbLine
 62
7
  6
CONTINUOUS
 10
17.5894788529
 20
2.3790754148
 11
17.6081248632
 21
2.3790754148
  0
LINE
  5
2B4
100
AcDbEntity
  8
0
100
AcDbLine
 62
7
  6
CONTINUOUS
 10
17.6448258836
 20
2.3790754148
 11
17.6651428948
 21
2.3790754148
  0
LINE
  5
2B5
100
AcDbEntity
  8
0
100
AcDbLine
 62
7
  6
CONTINUOUS
 10
17.8362019897
 20
2.3790754148
 11
17.860125003
 21
2.3790754148
  0
LINE
  5
2B6
100
AcDbEntity
  8
0
100
AcDbLine
 62
7
  6
CONTINUOUS
 10
17.9271410401
 20
2.3790754148
 11
17.9921450762
 21
2.3790754148
  0
LINE
  5
2B7
100
AcDbEntity
  8
0
100
AcDbLine
 62
7
  6
CONTINUOUS
 10
18.0683181184
 20
2.3790754148
 11
18.091064131
 21
2.3790754148
  0
LINE
  5
2B8
100
AcDbEntity
  8
0
100
AcDbLine
 62
7
  6
CONTINUOUS
 10
18.2741672326
 20
2.379462415
 11
18.2752762332
 21
2.379462415
  0
LINE
  5
2B9
100
AcDbEntity
  8
0
100
AcDbLine
 62
7
  6
CONTINUOUS
 10
17.9970950789
 20
2.3922754221
 11
18.0394141024
 21
2.3922754221
  0
LINE
  5
2BA
100
AcDbEntity
  8
0
100
AcDbLine
 62
7
  6
CONTINUOUS
 10
17.1799826258
 20
2.3927194224
 11
17.2148606451
 21
2.3927194224
  0
LINE
  5
2BB
100
AcDbEntity
  8
0
100
AcDbLine
 62
7
  6
CONTINUOUS
 10
18.2860312391
 20
2.3932124227
 11
18.2981412459
 21
2.3932124227
  0
LINE
  5
2BC
100
AcDbEntity
  8
0
100
AcDbLine
 62
7
  6
CONTINUOUS
 10
18.184837183
 20
2.3937024229
 11
18.1572301677
 21
2.3937024229
  0
LINE
  5
2BD
100
AcDbEntity
  8
0
100
AcDbLine
 62
7
  6
CONTINUOUS
 10
17.9623080596
 20
2.395575424
 11
17.9271410401
 21
2.395575424
  0
LINE
  5
2BE
100
AcDbEntity
  8
0
100
AcDbLine
 62
7
  6
CONTINUOUS
 10
16.9637955059
 20
2.3964004244
 11
17.0051585288
 21
2.3964004244
  0
LINE
  5
2BF
100
AcDbEntity
  8
0
100
AcDbLine
 62
7
  6
CONTINUOUS
 10
18.1911671865
 20
2.4127054335
 11
18.1572301677
 21
2.4127054335
  0
LINE
  5
2C0
100
AcDbEntity
  8
0
100
AcDbLine
 62
7
  6
CONTINUOUS
 10
16.9637955059
 20
2.4130554337
 11
17.0051585288
 21
2.4130554337
  0
LINE
  5
2C1
100
AcDbEntity
  8
0
100
AcDbLine
 62
7
  6
CONTINUOUS
 10
17.1884986305
 20
2.413669434
 11
17.2090556419
 21
2.413669434
  0
LINE
  5
2C2
100
AcDbEntity
  8
0
100
AcDbLine
 62
7
  6
CONTINUOUS
 10
17.9271410401
 20
2.4138804341
 11
17.9623080596
 21
2.4138804341
  0
LINE
  5
2C3
100
AcDbEntity
  8
0
100
AcDbLine
 62
7
  6
CONTINUOUS
 10
18.0379951016
 20
2.4171804359
 11
17.9961310784
 21
2.4171804359
  0
LINE
  5
2C4
100
AcDbEntity
  8
0
100
AcDbLine
 62
7
  6
CONTINUOUS
 10
17.2017966379
 20
2.429836443
 11
17.1956156344
 21
2.429836443
  0
LINE
  5
2C5
100
AcDbEntity
  8
0
100
AcDbLine
 62
7
  6
CONTINUOUS
 10
18.091064131
 20
2.4303804433
 11
18.0683181184
 21
2.4303804433
  0
LINE
  5
2C6
100
AcDbEntity
  8
0
100
AcDbLine
 62
7
  6
CONTINUOUS
 10
17.9911810756
 20
2.4303804433
 11
17.9271410401
 21
2.4303804433
  0
LINE
  5
2C7
100
AcDbEntity
  8
0
100
AcDbLine
 62
7
  6
CONTINUOUS
 10
17.860125003
 20
2.4303804433
 11
17.8362019897
 21
2.4303804433
  0
LINE
  5
2C8
100
AcDbEntity
  8
0
100
AcDbLine
 62
7
  6
CONTINUOUS
 10
17.8086119744
 20
2.4303804433
 11
17.7906789644
 21
2.4303804433
  0
LINE
  5
2C9
100
AcDbEntity
  8
0
100
AcDbLine
 62
7
  6
CONTINUOUS
 10
17.7533869438
 20
2.4303804433
 11
17.7346109333
 21
2.4303804433
  0
LINE
  5
2CA
100
AcDbEntity
  8
0
100
AcDbLine
 62
7
  6
CONTINUOUS
 10
17.6081248632
 20
2.4303804433
 11
17.5894788529
 21
2.4303804433
  0
LINE
  5
2CB
100
AcDbEntity
  8
0
100
AcDbLine
 62
7
  6
CONTINUOUS
 10
17.5603588367
 20
2.4303804433
 11
17.5424258268
 21
2.4303804433
  0
LINE
  5
2CC
100
AcDbEntity
  8
0
100
AcDbLine
 62
7
  6
CONTINUOUS
 10
17.5051338061
 20
2.4303804433
 11
17.4863577957
 21
2.4303804433
  0
LINE
  5
2CD
100
AcDbEntity
  8
0
100
AcDbLine
 62
7
  6
CONTINUOUS
 10
17.3598727255
 20
2.4303804433
 11
17.3412257152
 21
2.4303804433
  0
LINE
  5
2CE
100
AcDbEntity
  8
0
100
AcDbLine
 62
7
  6
CONTINUOUS
 10
17.0051585288
 20
2.4303804433
 11
16.9637955059
 21
2.4303804433
  0
LINE
  5
2CF
100
AcDbEntity
  8
0
100
AcDbLine
 62
7
  6
CONTINUOUS
 10
16.8743904563
 20
2.4303804433
 11
16.8983324696
 21
2.4303804433
  0
LINE
  5
2D0
100
AcDbEntity
  8
0
100
AcDbLine
 62
7
  6
CONTINUOUS
 10
18.1572301677
 20
2.4303804433
 11
18.1940311881
 21
2.4303804433
  0
LINE
  5
2D1
100
AcDbEntity
  8
0
100
AcDbLine
 62
7
  6
CONTINUOUS
 10
17.2393896587
 20
2.455130457
 11
17.182214627
 21
2.455130457
  0
LINE
  5
2D2
100
AcDbEntity
  8
0
100
AcDbLine
 62
7
  6
CONTINUOUS
 10
17.0404535484
 20
2.455130457
 11
16.8743904563
 21
2.455130457
  0
LINE
  5
2D3
100
AcDbEntity
  8
0
100
AcDbLine
 62
7
  6
CONTINUOUS
 10
17.3412257152
 20
2.455130457
 11
17.4416837709
 21
2.455130457
  0
LINE
  5
2D4
100
AcDbEntity
  8
0
100
AcDbLine
 62
7
  6
CONTINUOUS
 10
17.4863577957
 20
2.455130457
 11
17.5603588367
 21
2.455130457
  0
LINE
  5
2D5
100
AcDbEntity
  8
0
100
AcDbLine
 62
7
  6
CONTINUOUS
 10
17.5894788529
 20
2.455130457
 11
17.6899369086
 21
2.455130457
  0
LINE
  5
2D6
100
AcDbEntity
  8
0
100
AcDbLine
 62
7
  6
CONTINUOUS
 10
17.7346109333
 20
2.455130457
 11
17.8086119744
 21
2.455130457
  0
LINE
  5
2D7
100
AcDbEntity
  8
0
100
AcDbLine
 62
7
  6
CONTINUOUS
 10
17.8362019897
 20
2.455130457
 11
18.0379951016
 21
2.455130457
  0
LINE
  5
2D8
100
AcDbEntity
  8
0
100
AcDbLine
 62
7
  6
CONTINUOUS
 10
18.0683181184
 20
2.455130457
 11
18.2178992014
 21
2.455130457
  0
LINE
  5
2D9
100
AcDbEntity
  8
0
100
AcDbLine
 62
7
  6
CONTINUOUS
 10
17.0697205646
 20
2.4006414268
 11
17.059669559
 21
2.4041904287
  0
LINE
  5
2DA
100
AcDbEntity
  8
0
100
AcDbLine
 62
7
  6
CONTINUOUS
 10
17.4615617819
 20
2.3550094015
 11
17.3982817468
 21
2.415387435
  0
LINE
  5
2DB
100
AcDbEntity
  8
0
100
AcDbLine
 62
7
  6
CONTINUOUS
 10
17.4433917718
 20
2.4544464566
 11
17.5034248051
 21
2.3971664249
  0
LINE
  5
2DC
100
AcDbEntity
  8
0
100
AcDbLine
 62
7
  6
CONTINUOUS
 10
17.7098149196
 20
2.3550094015
 11
17.6465348845
 21
2.415387435
  0
LINE
  5
2DD
100
AcDbEntity
  8
0
100
AcDbLine
 62
7
  6
CONTINUOUS
 10
17.6916449095
 20
2.4544464566
 11
17.7516779428
 21
2.3971664249
  0
LINE
  5
2DE
100
AcDbEntity
  8
0
100
AcDbLine
 62
7
  6
CONTINUOUS
 10
17.2169386463
 20
2.3915884218
 11
17.2225646494
 21
2.3828954169
  0
LINE
  5
2DF
100
AcDbEntity
  8
0
100
AcDbLine
 62
7
  6
CONTINUOUS
 10
17.211133643
 20
2.4174894361
 11
17.203874639
 21
2.4287054423
  0
LINE
  5
2E0
100
AcDbEntity
  8
0
100
AcDbLine
 62
7
  6
CONTINUOUS
 10
17.2892236864
 20
2.3802054154
 11
17.2414676599
 21
2.4540004564
  0
LINE
  5
2E1
100
AcDbEntity
  8
0
100
AcDbLine
 62
7
  6
CONTINUOUS
 10
18.206476195
 20
2.3723714111
 11
18.204672194
 21
2.3784404145
  0
LINE
  5
2E2
100
AcDbEntity
  8
0
100
AcDbLine
 62
7
  6
CONTINUOUS
 10
16.8719154549
 20
2.4526554556
 11
16.8719154549
 21
2.4328554446
  0
LINE
  5
2E3
100
AcDbEntity
  8
0
100
AcDbLine
 62
7
  6
CONTINUOUS
 10
16.8719154549
 20
2.3766004134
 11
16.8719154549
 21
2.3568004025
  0
LINE
  5
2E4
100
AcDbEntity
  8
0
100
AcDbLine
 62
7
  6
CONTINUOUS
 10
16.9008074709
 20
2.4279054419
 11
16.9008074709
 21
2.3815504162
  0
LINE
  5
2E5
100
AcDbEntity
  8
0
100
AcDbLine
 62
7
  6
CONTINUOUS
 10
16.9613205045
 20
2.4279054419
 11
16.9613205045
 21
2.415530435
  0
LINE
  5
2E6
100
AcDbEntity
  8
0
100
AcDbLine
 62
7
  6
CONTINUOUS
 10
16.9613205045
 20
2.3815504162
 11
16.9613205045
 21
2.3939254231
  0
LINE
  5
2E7
100
AcDbEntity
  8
0
100
AcDbLine
 62
7
  6
CONTINUOUS
 10
17.1058985847
 20
2.3766004134
 11
17.1058985847
 21
2.3568004025
  0
LINE
  5
2E8
100
AcDbEntity
  8
0
100
AcDbLine
 62
7
  6
CONTINUOUS
 10
17.1882246303
 20
2.3568004025
 11
17.1882246303
 21
2.3766004134
  0
LINE
  5
2E9
100
AcDbEntity
  8
0
100
AcDbLine
 62
7
  6
CONTINUOUS
 10
17.2035606388
 20
2.3766004134
 11
17.2035606388
 21
2.3568004025
  0
LINE
  5
2EA
100
AcDbEntity
  8
0
100
AcDbLine
 62
7
  6
CONTINUOUS
 10
17.3137917
 20
2.3568004025
 11
17.3137917
 21
2.3766004134
  0
LINE
  5
2EB
100
AcDbEntity
  8
0
100
AcDbLine
 62
7
  6
CONTINUOUS
 10
17.3387507138
 20
2.3568004025
 11
17.3387507138
 21
2.3766004134
  0
LINE
  5
2EC
100
AcDbEntity
  8
0
100
AcDbLine
 62
7
  6
CONTINUOUS
 10
17.3387507138
 20
2.4328554446
 11
17.3387507138
 21
2.4526554556
  0
LINE
  5
2ED
100
AcDbEntity
  8
0
100
AcDbLine
 62
7
  6
CONTINUOUS
 10
17.3623477269
 20
2.3815504162
 11
17.3623477269
 21
2.4279054419
  0
LINE
  5
2EE
100
AcDbEntity
  8
0
100
AcDbLine
 62
7
  6
CONTINUOUS
 10
17.3940977445
 20
2.413596434
 11
17.3940977445
 21
2.3815504162
  0
LINE
  5
2EF
100
AcDbEntity
  8
0
100
AcDbLine
 62
7
  6
CONTINUOUS
 10
17.4193647585
 20
2.3766004134
 11
17.4193647585
 21
2.3568004025
  0
LINE
  5
2F0
100
AcDbEntity
  8
0
100
AcDbLine
 62
7
  6
CONTINUOUS
 10
17.4838827943
 20
2.4328554446
 11
17.4838827943
 21
2.4526554556
  0
LINE
  5
2F1
100
AcDbEntity
  8
0
100
AcDbLine
 62
7
  6
CONTINUOUS
 10
17.5076088075
 20
2.3989574258
 11
17.5076088075
 21
2.4279054419
  0
LINE
  5
2F2
100
AcDbEntity
  8
0
100
AcDbLine
 62
7
  6
CONTINUOUS
 10
17.5399508254
 20
2.4279054419
 11
17.5399508254
 21
2.3568004025
  0
LINE
  5
2F3
100
AcDbEntity
  8
0
100
AcDbLine
 62
7
  6
CONTINUOUS
 10
17.5628338381
 20
2.4526554556
 11
17.5628338381
 21
2.4328554446
  0
LINE
  5
2F4
100
AcDbEntity
  8
0
100
AcDbLine
 62
7
  6
CONTINUOUS
 10
17.5870038515
 20
2.3568004025
 11
17.5870038515
 21
2.3766004134
  0
LINE
  5
2F5
100
AcDbEntity
  8
0
100
AcDbLine
 62
7
  6
CONTINUOUS
 10
17.5870038515
 20
2.4328554446
 11
17.5870038515
 21
2.4526554556
  0
LINE
  5
2F6
100
AcDbEntity
  8
0
100
AcDbLine
 62
7
  6
CONTINUOUS
 10
17.6105998646
 20
2.3815504162
 11
17.6105998646
 21
2.4279054419
  0
LINE
  5
2F7
100
AcDbEntity
  8
0
100
AcDbLine
 62
7
  6
CONTINUOUS
 10
17.6423508822
 20
2.413596434
 11
17.6423508822
 21
2.3815504162
  0
LINE
  5
2F8
100
AcDbEntity
  8
0
100
AcDbLine
 62
7
  6
CONTINUOUS
 10
17.6676178962
 20
2.3766004134
 11
17.6676178962
 21
2.3568004025
  0
LINE
  5
2F9
100
AcDbEntity
  8
0
100
AcDbLine
 62
7
  6
CONTINUOUS
 10
17.732135932
 20
2.4328554446
 11
17.732135932
 21
2.4526554556
  0
LINE
  5
2FA
100
AcDbEntity
  8
0
100
AcDbLine
 62
7
  6
CONTINUOUS
 10
17.7558619451
 20
2.3989574258
 11
17.7558619451
 21
2.4279054419
  0
LINE
  5
2FB
100
AcDbEntity
  8
0
100
AcDbLine
 62
7
  6
CONTINUOUS
 10
17.7882039631
 20
2.4279054419
 11
17.7882039631
 21
2.3568004025
  0
LINE
  5
2FC
100
AcDbEntity
  8
0
100
AcDbLine
 62
7
  6
CONTINUOUS
 10
17.8110869758
 20
2.4526554556
 11
17.8110869758
 21
2.4328554446
  0
LINE
  5
2FD
100
AcDbEntity
  8
0
100
AcDbLine
 62
7
  6
CONTINUOUS
 10
17.8337269883
 20
2.3568004025
 11
17.8337269883
 21
2.3766004134
  0
LINE
  5
2FE
100
AcDbEntity
  8
0
100
AcDbLine
 62
7
  6
CONTINUOUS
 10
17.8337269883
 20
2.4328554446
 11
17.8337269883
 21
2.4526554556
  0
LINE
  5
2FF
100
AcDbEntity
  8
0
100
AcDbLine
 62
7
  6
CONTINUOUS
 10
17.8626000043
 20
2.3815504162
 11
17.8626000043
 21
2.4279054419
  0
LINE
  5
300
100
AcDbEntity
  8
0
100
AcDbLine
 62
7
  6
CONTINUOUS
 10
17.9246660387
 20
2.4279054419
 11
17.9246660387
 21
2.4163554355
  0
LINE
  5
301
100
AcDbEntity
  8
0
100
AcDbLine
 62
7
  6
CONTINUOUS
 10
17.9246660387
 20
2.3931004226
 11
17.9246660387
 21
2.3815504162
  0
LINE
  5
302
100
AcDbEntity
  8
0
100
AcDbLine
 62
7
  6
CONTINUOUS
 10
17.964783061
 20
2.4114054327
 11
17.964783061
 21
2.3980504253
  0
LINE
  5
303
100
AcDbEntity
  8
0
100
AcDbLine
 62
7
  6
CONTINUOUS
 10
17.993656077
 20
2.4196554373
 11
17.993656077
 21
2.4279054419
  0
LINE
  5
304
100
AcDbEntity
  8
0
100
AcDbLine
 62
7
  6
CONTINUOUS
 10
17.9946200775
 20
2.3815504162
 11
17.9946200775
 21
2.3898004208
  0
LINE
  5
305
100
AcDbEntity
  8
0
100
AcDbLine
 62
7
  6
CONTINUOUS
 10
18.040470103
 20
2.4526554556
 11
18.040470103
 21
2.4196554373
  0
LINE
  5
306
100
AcDbEntity
  8
0
100
AcDbLine
 62
7
  6
CONTINUOUS
 10
18.0418891038
 20
2.3898004208
 11
18.0418891038
 21
2.3568004025
  0
LINE
  5
307
100
AcDbEntity
  8
0
100
AcDbLine
 62
7
  6
CONTINUOUS
 10
18.065843117
 20
2.3568004025
 11
18.065843117
 21
2.3766004134
  0
LINE
  5
308
100
AcDbEntity
  8
0
100
AcDbLine
 62
7
  6
CONTINUOUS
 10
18.065843117
 20
2.4328554446
 11
18.065843117
 21
2.4526554556
  0
LINE
  5
309
100
AcDbEntity
  8
0
100
AcDbLine
 62
7
  6
CONTINUOUS
 10
18.0935391324
 20
2.3815504162
 11
18.0935391324
 21
2.4279054419
  0
LINE
  5
30A
100
AcDbEntity
  8
0
100
AcDbLine
 62
7
  6
CONTINUOUS
 10
18.1547551663
 20
2.3912274216
 11
18.1547551663
 21
2.3815284162
  0
LINE
  5
30B
100
AcDbEntity
  8
0
100
AcDbLine
 62
7
  6
CONTINUOUS
 10
18.1547551663
 20
2.4151804348
 11
18.1547551663
 21
2.4279054419
  0
LINE
  5
30C
100
AcDbEntity
  8
0
100
AcDbLine
 62
7
  6
CONTINUOUS
 10
18.1843641828
 20
2.3765784134
 11
18.1843641828
 21
2.3568004025
  0
LINE
  5
30D
100
AcDbEntity
  8
0
100
AcDbLine
 62
7
  6
CONTINUOUS
 10
18.2835562378
 20
2.3881114198
 11
18.2835562378
 21
2.3907374213
  0
LINE
  5
30E
100
AcDbEntity
  8
0
100
AcDbLine
 62
7
  6
CONTINUOUS
 10
18.3006162472
 20
2.3907374213
 11
18.3006162472
 21
2.3791854149
  0
LINE
  5
30F
100
AcDbEntity
  8
0
100
AcDbLine
 62
7
  6
CONTINUOUS
 10
18.3975725422
 20
2.3981678251
 11
18.3975725422
 21
2.4087850316
  0
LINE
  5
310
100
AcDbEntity
  8
0
100
AcDbLine
 62
7
  6
CONTINUOUS
 10
17.1801246258
 20
2.4539814564
 11
17.1333245999
 21
2.3802244155
  0
LINE
  5
311
100
AcDbEntity
  8
0
100
AcDbLine
 62
7
  6
CONTINUOUS
 10
17.1935256333
 20
2.4286874423
 11
17.1864086293
 21
2.4174704361
  0
LINE
  5
312
100
AcDbEntity
  8
0
100
AcDbLine
 62
7
  6
CONTINUOUS
 10
17.1723766216
 20
2.3828764169
 11
17.1778926246
 21
2.3915704217
  0
LINE
  5
313
100
AcDbEntity
  8
0
100
AcDbLine
 62
7
  6
CONTINUOUS
 10
17.059669559
 20
2.4041904287
 11
17.0679095636
 21
2.4089664314
  0
ARC
  5
314
100
AcDbEntity
  8
0
100
AcDbCircle
 62
7
  6
CONTINUOUS
 10
17.4632701481
 20
2.3568008172
 40
0.0024754162
100
AcDbArc
 50
226.3593695814
 51
270.0146919953
  0
ARC
  5
315
100
AcDbEntity
  8
0
100
AcDbCircle
 62
7
  6
CONTINUOUS
 10
16.8743904545
 20
2.3568004006
 40
0.0024749995
100
AcDbArc
 50
179.9999571957
 51
270.0000428043
  0
ARC
  5
316
100
AcDbEntity
  8
0
100
AcDbCircle
 62
7
  6
CONTINUOUS
 10
17.5374758259
 20
2.3568004006
 40
0.0024749995
100
AcDbArc
 50
269.9999571957
 51
0.0000428043
  0
ARC
  5
317
100
AcDbEntity
  8
0
100
AcDbCircle
 62
7
  6
CONTINUOUS
 10
17.416889759
 20
2.3568004006
 40
0.0024749995
100
AcDbArc
 50
269.9999571957
 51
0.0000428043
  0
ARC
  5
318
100
AcDbEntity
  8
0
100
AcDbCircle
 62
7
  6
CONTINUOUS
 10
17.3412257133
 20
2.3568004006
 40
0.0024749995
100
AcDbArc
 50
179.9999571957
 51
270.0000428043
  0
ARC
  5
319
100
AcDbEntity
  8
0
100
AcDbCircle
 62
7
  6
CONTINUOUS
 10
17.2060356384
 20
2.3568004006
 40
0.0024749995
100
AcDbArc
 50
179.9999571957
 51
270.0000428043
  0
ARC
  5
31A
100
AcDbEntity
  8
0
100
AcDbCircle
 62
7
  6
CONTINUOUS
 10
17.3113167005
 20
2.3568004006
 40
0.0024749995
100
AcDbArc
 50
269.9999571957
 51
0.0000428043
  0
ARC
  5
31B
100
AcDbEntity
  8
0
100
AcDbCircle
 62
7
  6
CONTINUOUS
 10
17.1083735842
 20
2.3568004006
 40
0.0024749995
100
AcDbArc
 50
179.9999571957
 51
270.0000428043
  0
ARC
  5
31C
100
AcDbEntity
  8
0
100
AcDbCircle
 62
7
  6
CONTINUOUS
 10
17.1857496308
 20
2.3568004006
 40
0.0024749995
100
AcDbArc
 50
269.9999571958
 51
0.0000428044
  0
ARC
  5
31D
100
AcDbEntity
  8
0
100
AcDbCircle
 62
7
  6
CONTINUOUS
 10
17.0404590422
 20
2.3933827403
 40
0.061747717
100
AcDbArc
 50
59.5385584989
 51
90.0050977555
  0
ARC
  5
31E
100
AcDbEntity
  8
0
100
AcDbCircle
 62
7
  6
CONTINUOUS
 10
17.0481152095
 20
2.4027328529
 40
0.048483885
100
AcDbArc
 50
273.21763719
 51
303.0749121182
  0
ARC
  5
31F
100
AcDbEntity
  8
0
100
AcDbCircle
 62
7
  6
CONTINUOUS
 10
17.0620614151
 20
2.3797859164
 40
0.0222174455
100
AcDbArc
 50
4.0793399388
 51
69.834329283
  0
ARC
  5
320
100
AcDbEntity
  8
0
100
AcDbCircle
 62
7
  6
CONTINUOUS
 10
17.0629546036
 20
2.379965244
 40
0.0213072145
100
AcDbArc
 50
303.0488228549
 51
355.7263138674
  0
ARC
  5
321
100
AcDbEntity
  8
0
100
AcDbCircle
 62
7
  6
CONTINUOUS
 10
17.0688911042
 20
2.3799744343
 40
0.0153945295
100
AcDbArc
 50
354.0454548824
 51
5.1878013979
  0
ARC
  5
322
100
AcDbEntity
  8
0
100
AcDbCircle
 62
7
  6
CONTINUOUS
 10
17.0051585288
 20
2.3877379196
 40
0.0086625048
100
AcDbArc
 50
270.0
 51
90.0
  0
ARC
  5
323
100
AcDbEntity
  8
0
100
AcDbCircle
 62
7
  6
CONTINUOUS
 10
17.2148601055
 20
2.3902439622
 40
0.0024754602
100
AcDbArc
 50
32.8959418573
 51
89.9875097202
  0
ARC
  5
324
100
AcDbEntity
  8
0
100
AcDbCircle
 62
7
  6
CONTINUOUS
 10
17.131234669
 20
2.3815506151
 40
0.0024752003
100
AcDbArc
 50
269.9983726451
 51
327.602165307
  0
ARC
  5
325
100
AcDbEntity
  8
0
100
AcDbCircle
 62
7
  6
CONTINUOUS
 10
17.1799825555
 20
2.3902442221
 40
0.0024752003
100
AcDbArc
 50
89.998372645
 51
147.602165307
  0
ARC
  5
326
100
AcDbEntity
  8
0
100
AcDbCircle
 62
7
  6
CONTINUOUS
 10
17.1744665134
 20
2.3815504549
 40
0.0024750401
100
AcDbArc
 50
147.6063258011
 51
270.0025305754
  0
ARC
  5
327
100
AcDbEntity
  8
0
100
AcDbCircle
 62
7
  6
CONTINUOUS
 10
16.8983324714
 20
2.3815504143
 40
0.0024749995
100
AcDbArc
 50
269.9999571957
 51
0.0000428043
  0
ARC
  5
328
100
AcDbEntity
  8
0
100
AcDbCircle
 62
7
  6
CONTINUOUS
 10
16.8743904545
 20
2.3766004153
 40
0.0024749995
100
AcDbArc
 50
89.9999571957
 51
180.0000428043
  0
ARC
  5
329
100
AcDbEntity
  8
0
100
AcDbCircle
 62
7
  6
CONTINUOUS
 10
16.963795504
 20
2.3939254249
 40
0.0024749995
100
AcDbArc
 50
89.9999571957
 51
180.0000428043
  0
ARC
  5
32A
100
AcDbEntity
  8
0
100
AcDbCircle
 62
7
  6
CONTINUOUS
 10
16.963795504
 20
2.3815504143
 40
0.0024749995
100
AcDbArc
 50
179.9999571957
 51
270.0000428043
  0
ARC
  5
32B
100
AcDbEntity
  8
0
100
AcDbCircle
 62
7
  6
CONTINUOUS
 10
17.2060356384
 20
2.3766004153
 40
0.0024749995
100
AcDbArc
 50
89.9999571957
 51
180.0000428043
  0
ARC
  5
32C
100
AcDbEntity
  8
0
100
AcDbCircle
 62
7
  6
CONTINUOUS
 10
17.1083735842
 20
2.3766004153
 40
0.0024749995
100
AcDbArc
 50
89.9999571957
 51
180.0000428043
  0
ARC
  5
32D
100
AcDbEntity
  8
0
100
AcDbCircle
 62
7
  6
CONTINUOUS
 10
17.1857496308
 20
2.3766004153
 40
0.0024749995
100
AcDbArc
 50
359.9999571957
 51
90.0000428043
  0
ARC
  5
32E
100
AcDbEntity
  8
0
100
AcDbCircle
 62
7
  6
CONTINUOUS
 10
17.0460441811
 20
2.445793323
 40
0.0428289026
100
AcDbArc
 50
300.6990502959
 51
319.0591802498
  0
ARC
  5
32F
100
AcDbEntity
  8
0
100
AcDbCircle
 62
7
  6
CONTINUOUS
 10
17.0611211659
 20
2.4263113051
 40
0.0229166529
100
AcDbArc
 50
20.6563876465
 51
62.3316896973
  0
ARC
  5
330
100
AcDbEntity
  8
0
100
AcDbCircle
 62
7
  6
CONTINUOUS
 10
17.0660727781
 20
2.4296649696
 40
0.0171568255
100
AcDbArc
 50
315.9145124245
 51
16.0049121283
  0
ARC
  5
331
100
AcDbEntity
  8
0
100
AcDbCircle
 62
7
  6
CONTINUOUS
 10
17.0051585288
 20
2.4217179385
 40
0.0086625048
100
AcDbArc
 50
270.0
 51
90.0
  0
ARC
  5
332
100
AcDbEntity
  8
0
100
AcDbCircle
 62
7
  6
CONTINUOUS
 10
17.2017960982
 20
2.4273609828
 40
0.0024754602
100
AcDbArc
 50
32.8959418573
 51
89.9875097202
  0
ARC
  5
333
100
AcDbEntity
  8
0
100
AcDbCircle
 62
7
  6
CONTINUOUS
 10
17.2090556207
 20
2.4161446411
 40
0.0024752071
100
AcDbArc
 50
270.0004896793
 51
32.9089806818
  0
ARC
  5
334
100
AcDbEntity
  8
0
100
AcDbCircle
 62
7
  6
CONTINUOUS
 10
17.1956155641
 20
2.4273612427
 40
0.0024752003
100
AcDbArc
 50
89.998372645
 51
147.602165307
  0
ARC
  5
335
100
AcDbEntity
  8
0
100
AcDbCircle
 62
7
  6
CONTINUOUS
 10
17.1822145567
 20
2.4526552567
 40
0.0024752003
100
AcDbArc
 50
89.998372645
 51
147.602165307
  0
ARC
  5
336
100
AcDbEntity
  8
0
100
AcDbCircle
 62
7
  6
CONTINUOUS
 10
17.1884985212
 20
2.4161444741
 40
0.0024750401
100
AcDbArc
 50
147.6063258012
 51
270.0025305754
  0
ARC
  5
337
100
AcDbEntity
  8
0
100
AcDbCircle
 62
7
  6
CONTINUOUS
 10
16.8743904545
 20
2.4526554575
 40
0.0024749995
100
AcDbArc
 50
89.9999571957
 51
180.0000428043
  0
ARC
  5
338
100
AcDbEntity
  8
0
100
AcDbCircle
 62
7
  6
CONTINUOUS
 10
16.8743904545
 20
2.4328554428
 40
0.0024749995
100
AcDbArc
 50
179.9999571957
 51
270.0000428043
  0
ARC
  5
339
100
AcDbEntity
  8
0
100
AcDbCircle
 62
7
  6
CONTINUOUS
 10
16.8983324714
 20
2.4279054437
 40
0.0024749995
100
AcDbArc
 50
359.9999571957
 51
90.0000428043
  0
ARC
  5
33A
100
AcDbEntity
  8
0
100
AcDbCircle
 62
7
  6
CONTINUOUS
 10
16.963795504
 20
2.4279054437
 40
0.0024749995
100
AcDbArc
 50
89.9999571957
 51
180.0000428043
  0
ARC
  5
33B
100
AcDbEntity
  8
0
100
AcDbCircle
 62
7
  6
CONTINUOUS
 10
16.963795504
 20
2.4155304332
 40
0.0024749995
100
AcDbArc
 50
179.9999571957
 51
270.0000428043
  0
ARC
  5
33C
100
AcDbEntity
  8
0
100
AcDbCircle
 62
7
  6
CONTINUOUS
 10
17.5051335061
 20
2.3989573626
 40
0.0024753014
100
AcDbArc
 50
226.3461263059
 51
0.0014637321
  0
ARC
  5
33D
100
AcDbEntity
  8
0
100
AcDbCircle
 62
7
  6
CONTINUOUS
 10
17.3965730459
 20
2.4135964972
 40
0.0024753014
100
AcDbArc
 50
46.3461263059
 51
180.0014637321
  0
ARC
  5
33E
100
AcDbEntity
  8
0
100
AcDbCircle
 62
7
  6
CONTINUOUS
 10
17.2204866271
 20
2.3815506219
 40
0.0024752071
100
AcDbArc
 50
270.0004896793
 51
32.9089806818
  0
ARC
  5
33F
100
AcDbEntity
  8
0
100
AcDbCircle
 62
7
  6
CONTINUOUS
 10
17.396572744
 20
2.3815504143
 40
0.0024749995
100
AcDbArc
 50
179.9999571957
 51
270.0000428043
  0
ARC
  5
340
100
AcDbEntity
  8
0
100
AcDbCircle
 62
7
  6
CONTINUOUS
 10
17.416889759
 20
2.3766004153
 40
0.0024749995
100
AcDbArc
 50
359.9999571957
 51
90.0000428043
  0
ARC
  5
341
100
AcDbEntity
  8
0
100
AcDbCircle
 62
7
  6
CONTINUOUS
 10
17.3412257133
 20
2.3766004153
 40
0.0024749995
100
AcDbArc
 50
89.9999571957
 51
180.0000428043
  0
ARC
  5
342
100
AcDbEntity
  8
0
100
AcDbCircle
 62
7
  6
CONTINUOUS
 10
17.3598727274
 20
2.3815504143
 40
0.0024749995
100
AcDbArc
 50
269.9999571957
 51
0.0000428043
  0
ARC
  5
343
100
AcDbEntity
  8
0
100
AcDbCircle
 62
7
  6
CONTINUOUS
 10
17.3113167005
 20
2.3766004153
 40
0.0024749995
100
AcDbArc
 50
359.9999571957
 51
90.0000428043
  0
ARC
  5
344
100
AcDbEntity
  8
0
100
AcDbCircle
 62
7
  6
CONTINUOUS
 10
17.291300808
 20
2.3815494558
 40
0.002474041
100
AcDbArc
 50
212.9056413127
 51
269.9972091755
  0
ARC
  5
345
100
AcDbEntity
  8
0
100
AcDbCircle
 62
7
  6
CONTINUOUS
 10
17.5051338079
 20
2.4279054437
 40
0.0024749995
100
AcDbArc
 50
359.9999571957
 51
90.0000428043
  0
ARC
  5
346
100
AcDbEntity
  8
0
100
AcDbCircle
 62
7
  6
CONTINUOUS
 10
17.4863577938
 20
2.4328554428
 40
0.0024749995
100
AcDbArc
 50
179.9999571957
 51
270.0000428043
  0
ARC
  5
347
100
AcDbEntity
  8
0
100
AcDbCircle
 62
7
  6
CONTINUOUS
 10
17.4863577938
 20
2.4526554575
 40
0.0024749995
100
AcDbArc
 50
89.9999571957
 51
180.0000428043
  0
ARC
  5
348
100
AcDbEntity
  8
0
100
AcDbCircle
 62
7
  6
CONTINUOUS
 10
17.5603588386
 20
2.4526554575
 40
0.0024749995
100
AcDbArc
 50
359.9999571957
 51
90.0000428043
  0
ARC
  5
349
100
AcDbEntity
  8
0
100
AcDbCircle
 62
7
  6
CONTINUOUS
 10
17.5603588386
 20
2.4328554428
 40
0.0024749995
100
AcDbArc
 50
269.9999571957
 51
0.0000428043
  0
ARC
  5
34A
100
AcDbEntity
  8
0
100
AcDbCircle
 62
7
  6
CONTINUOUS
 10
17.5424258249
 20
2.4279054437
 40
0.0024749995
100
AcDbArc
 50
89.9999571957
 51
180.0000428043
  0
ARC
  5
34B
100
AcDbEntity
  8
0
100
AcDbCircle
 62
7
  6
CONTINUOUS
 10
17.3598727274
 20
2.4279054437
 40
0.0024749995
100
AcDbArc
 50
359.9999571957
 51
90.0000428043
  0
ARC
  5
34C
100
AcDbEntity
  8
0
100
AcDbCircle
 62
7
  6
CONTINUOUS
 10
17.3412257133
 20
2.4328554428
 40
0.0024749995
100
AcDbArc
 50
179.9999571957
 51
270.0000428043
  0
ARC
  5
34D
100
AcDbEntity
  8
0
100
AcDbCircle
 62
7
  6
CONTINUOUS
 10
17.3412257133
 20
2.4526554575
 40
0.0024749995
100
AcDbArc
 50
89.9999571957
 51
180.0000428043
  0
ARC
  5
34E
100
AcDbEntity
  8
0
100
AcDbCircle
 62
7
  6
CONTINUOUS
 10
17.2393900382
 20
2.4526554968
 40
0.0024749602
100
AcDbArc
 50
32.9172174468
 51
90.0087853097
  0
ARC
  5
34F
100
AcDbEntity
  8
0
100
AcDbCircle
 62
7
  6
CONTINUOUS
 10
17.4416839057
 20
2.4526562892
 40
0.0024741678
100
AcDbArc
 50
46.3477981899
 51
90.0031206038
  0
ARC
  5
350
100
AcDbEntity
  8
0
100
AcDbCircle
 62
7
  6
CONTINUOUS
 10
18.2152358981
 20
2.2725915465
 40
0.1825583387
100
AcDbArc
 50
79.8618509324
 51
89.1640948679
  0
ARC
  5
351
100
AcDbEntity
  8
0
100
AcDbCircle
 62
7
  6
CONTINUOUS
 10
18.197141171
 20
2.3016991173
 40
0.117346916
100
AcDbArc
 50
58.614769177
 51
62.3737227606
  0
ARC
  5
352
100
AcDbEntity
  8
0
100
AcDbCircle
 62
7
  6
CONTINUOUS
 10
18.2260032264
 20
2.3725718859
 40
0.0459185159
100
AcDbArc
 50
15.6740290068
 51
20.9917271228
  0
ARC
  5
353
100
AcDbEntity
  8
0
100
AcDbCircle
 62
7
  6
CONTINUOUS
 10
18.1662929967
 20
2.368643334
 40
0.0396099176
100
AcDbArc
 50
14.3201081283
 51
22.4984722084
  0
ARC
  5
354
100
AcDbEntity
  8
0
100
AcDbCircle
 62
7
  6
CONTINUOUS
 10
18.1850046504
 20
2.3693353402
 40
0.0243676582
100
AcDbArc
 50
63.3666028271
 51
90.3937697637
  0
ARC
  5
355
100
AcDbEntity
  8
0
100
AcDbCircle
 62
7
  6
CONTINUOUS
 10
18.2724993219
 20
2.3741987064
 40
0.0198837666
100
AcDbArc
 50
271.8586572978
 51
289.4131338543
  0
ARC
  5
356
100
AcDbEntity
  8
0
100
AcDbCircle
 62
7
  6
CONTINUOUS
 10
18.2265855264
 20
2.3716475527
 40
0.0173408616
100
AcDbArc
 50
232.4713476722
 51
267.338189944
  0
ARC
  5
357
100
AcDbEntity
  8
0
100
AcDbCircle
 62
7
  6
CONTINUOUS
 10
18.1818891832
 20
2.3568004006
 40
0.0024749995
100
AcDbArc
 50
269.9999571957
 51
0.0000428043
  0
ARC
  5
358
100
AcDbEntity
  8
0
100
AcDbCircle
 62
7
  6
CONTINUOUS
 10
18.0683181166
 20
2.3568004006
 40
0.0024749995
100
AcDbArc
 50
179.9999571957
 51
270.0000428043
  0
ARC
  5
359
100
AcDbEntity
  8
0
100
AcDbCircle
 62
7
  6
CONTINUOUS
 10
17.7857289635
 20
2.3568004006
 40
0.0024749995
100
AcDbArc
 50
269.9999571957
 51
0.0000428043
  0
ARC
  5
35A
100
AcDbEntity
  8
0
100
AcDbCircle
 62
7
  6
CONTINUOUS
 10
17.6651428967
 20
2.3568004006
 40
0.0024749995
100
AcDbArc
 50
269.9999571957
 51
0.0000428043
  0
ARC
  5
35B
100
AcDbEntity
  8
0
100
AcDbCircle
 62
7
  6
CONTINUOUS
 10
17.589478851
 20
2.3568004006
 40
0.0024749995
100
AcDbArc
 50
179.9999571957
 51
270.0000428043
  0
ARC
  5
35C
100
AcDbEntity
  8
0
100
AcDbCircle
 62
7
  6
CONTINUOUS
 10
18.0394141042
 20
2.3568004006
 40
0.0024749995
100
AcDbArc
 50
269.9999571957
 51
0.0000428043
  0
ARC
  5
35D
100
AcDbEntity
  8
0
100
AcDbCircle
 62
7
  6
CONTINUOUS
 10
17.8362019878
 20
2.3568004006
 40
0.0024749995
100
AcDbArc
 50
179.9999571957
 51
270.0000428043
  0
ARC
  5
35E
100
AcDbEntity
  8
0
100
AcDbCircle
 62
7
  6
CONTINUOUS
 10
17.7115227858
 20
2.3567995689
 40
0.0024741678
100
AcDbArc
 50
226.3477981898
 51
270.0031206038
  0
ARC
  5
35F
100
AcDbEntity
  8
0
100
AcDbCircle
 62
7
  6
CONTINUOUS
 10
17.7533866437
 20
2.3989573626
 40
0.0024753014
100
AcDbArc
 50
226.3461263059
 51
0.0014637321
  0
ARC
  5
360
100
AcDbEntity
  8
0
100
AcDbCircle
 62
7
  6
CONTINUOUS
 10
17.6448261836
 20
2.4135964972
 40
0.0024753014
100
AcDbArc
 50
46.3461263058
 51
180.0014637321
  0
ARC
  5
361
100
AcDbEntity
  8
0
100
AcDbCircle
 62
7
  6
CONTINUOUS
 10
17.6448258817
 20
2.3815504143
 40
0.0024749995
100
AcDbArc
 50
179.9999571957
 51
270.0000428043
  0
ARC
  5
362
100
AcDbEntity
  8
0
100
AcDbCircle
 62
7
  6
CONTINUOUS
 10
17.6651428967
 20
2.3766004153
 40
0.0024749995
100
AcDbArc
 50
359.9999571957
 51
90.0000428043
  0
ARC
  5
363
100
AcDbEntity
  8
0
100
AcDbCircle
 62
7
  6
CONTINUOUS
 10
17.589478851
 20
2.3766004153
 40
0.0024749995
100
AcDbArc
 50
89.9999571957
 51
180.0000428043
  0
ARC
  5
364
100
AcDbEntity
  8
0
100
AcDbCircle
 62
7
  6
CONTINUOUS
 10
17.6081248651
 20
2.3815504143
 40
0.0024749995
100
AcDbArc
 50
269.9999571957
 51
0.0000428043
  0
ARC
  5
365
100
AcDbEntity
  8
0
100
AcDbCircle
 62
7
  6
CONTINUOUS
 10
17.9271410383
 20
2.3931004244
 40
0.0024749995
100
AcDbArc
 50
89.9999571957
 51
180.0000428043
  0
ARC
  5
366
100
AcDbEntity
  8
0
100
AcDbCircle
 62
7
  6
CONTINUOUS
 10
17.9271410383
 20
2.3815504143
 40
0.0024749995
100
AcDbArc
 50
179.9999571957
 51
270.0000428043
  0
ARC
  5
367
100
AcDbEntity
  8
0
100
AcDbCircle
 62
7
  6
CONTINUOUS
 10
17.8362019878
 20
2.3766004153
 40
0.0024749995
100
AcDbArc
 50
89.9999571957
 51
180.0000428043
  0
ARC
  5
368
100
AcDbEntity
  8
0
100
AcDbCircle
 62
7
  6
CONTINUOUS
 10
17.8601250048
 20
2.3815504143
 40
0.0024749995
100
AcDbArc
 50
269.9999571956
 51
0.0000428042
  0
ARC
  5
369
100
AcDbEntity
  8
0
100
AcDbCircle
 62
7
  6
CONTINUOUS
 10
17.9271410383
 20
2.4163554336
 40
0.0024749995
100
AcDbArc
 50
179.9999571957
 51
270.0000428043
  0
ARC
  5
36A
100
AcDbEntity
  8
0
100
AcDbCircle
 62
7
  6
CONTINUOUS
 10
17.7533869456
 20
2.4279054437
 40
0.0024749995
100
AcDbArc
 50
359.9999571957
 51
90.0000428043
  0
ARC
  5
36B
100
AcDbEntity
  8
0
100
AcDbCircle
 62
7
  6
CONTINUOUS
 10
17.7346109315
 20
2.4328554428
 40
0.0024749995
100
AcDbArc
 50
179.9999571957
 51
270.0000428043
  0
ARC
  5
36C
100
AcDbEntity
  8
0
100
AcDbCircle
 62
7
  6
CONTINUOUS
 10
17.7346109315
 20
2.4526554575
 40
0.0024749995
100
AcDbArc
 50
89.9999571957
 51
180.0000428043
  0
ARC
  5
36D
100
AcDbEntity
  8
0
100
AcDbCircle
 62
7
  6
CONTINUOUS
 10
17.8086119762
 20
2.4526554575
 40
0.0024749995
100
AcDbArc
 50
359.9999571957
 51
90.0000428043
  0
ARC
  5
36E
100
AcDbEntity
  8
0
100
AcDbCircle
 62
7
  6
CONTINUOUS
 10
17.8086119762
 20
2.4328554428
 40
0.0024749995
100
AcDbArc
 50
269.9999571956
 51
0.0000428042
  0
ARC
  5
36F
100
AcDbEntity
  8
0
100
AcDbCircle
 62
7
  6
CONTINUOUS
 10
17.7906789626
 20
2.4279054437
 40
0.0024749995
100
AcDbArc
 50
89.9999571957
 51
180.0000428043
  0
ARC
  5
370
100
AcDbEntity
  8
0
100
AcDbCircle
 62
7
  6
CONTINUOUS
 10
17.6081248651
 20
2.4279054437
 40
0.0024749995
100
AcDbArc
 50
359.9999571957
 51
90.0000428043
  0
ARC
  5
371
100
AcDbEntity
  8
0
100
AcDbCircle
 62
7
  6
CONTINUOUS
 10
17.589478851
 20
2.4328554428
 40
0.0024749995
100
AcDbArc
 50
179.9999571957
 51
270.0000428043
  0
ARC
  5
372
100
AcDbEntity
  8
0
100
AcDbCircle
 62
7
  6
CONTINUOUS
 10
17.589478851
 20
2.4526554575
 40
0.0024749995
100
AcDbArc
 50
89.9999571957
 51
180.0000428043
  0
ARC
  5
373
100
AcDbEntity
  8
0
100
AcDbCircle
 62
7
  6
CONTINUOUS
 10
17.8601250048
 20
2.4279054437
 40
0.0024749995
100
AcDbArc
 50
359.9999571957
 51
90.0000428043
  0
ARC
  5
374
100
AcDbEntity
  8
0
100
AcDbCircle
 62
7
  6
CONTINUOUS
 10
17.8362019878
 20
2.4328554428
 40
0.0024749995
100
AcDbArc
 50
179.9999571957
 51
270.0000428043
  0
ARC
  5
375
100
AcDbEntity
  8
0
100
AcDbCircle
 62
7
  6
CONTINUOUS
 10
17.8362019878
 20
2.4526554575
 40
0.0024749995
100
AcDbArc
 50
89.9999571957
 51
180.0000428043
  0
ARC
  5
376
100
AcDbEntity
  8
0
100
AcDbCircle
 62
7
  6
CONTINUOUS
 10
17.9271410383
 20
2.4279054437
 40
0.0024749995
100
AcDbArc
 50
89.9999571957
 51
180.0000428043
  0
ARC
  5
377
100
AcDbEntity
  8
0
100
AcDbCircle
 62
7
  6
CONTINUOUS
 10
17.6899370433
 20
2.4526562892
 40
0.0024741678
100
AcDbArc
 50
46.3477981899
 51
90.0031206038
  0
ARC
  5
378
100
AcDbEntity
  8
0
100
AcDbCircle
 62
7
  6
CONTINUOUS
 10
18.2495655574
 20
2.384346736
 40
0.044722495
100
AcDbArc
 50
195.531588407
 51
204.7624440448
  0
ARC
  5
379
100
AcDbEntity
  8
0
100
AcDbCircle
 62
7
  6
CONTINUOUS
 10
18.2415401884
 20
2.4134150625
 40
0.039319019
100
AcDbArc
 50
59.1202086415
 51
81.4730239328
  0
ARC
  5
37A
100
AcDbEntity
  8
0
100
AcDbCircle
 62
7
  6
CONTINUOUS
 10
18.2667613545
 20
2.3917854558
 40
0.0383802683
100
AcDbArc
 50
288.7656836787
 51
309.6104317088
  0
ARC
  5
37B
100
AcDbEntity
  8
0
100
AcDbCircle
 62
7
  6
CONTINUOUS
 10
18.2471995846
 20
2.4197497317
 40
0.0310192946
100
AcDbArc
 50
34.7540871
 51
62.0879016178
  0
ARC
  5
37C
100
AcDbEntity
  8
0
100
AcDbCircle
 62
7
  6
CONTINUOUS
 10
18.1924863006
 20
2.4019259643
 40
0.0284963867
100
AcDbArc
 50
70.3834917948
 51
86.8922743861
  0
ARC
  5
37D
100
AcDbEntity
  8
0
100
AcDbCircle
 62
7
  6
CONTINUOUS
 10
18.2737535399
 20
2.384184238
 40
0.0280715479
100
AcDbArc
 50
308.5071794988
 51
332.2400656899
  0
ARC
  5
37E
100
AcDbEntity
  8
0
100
AcDbCircle
 62
7
  6
CONTINUOUS
 10
18.2439037681
 20
2.3797532943
 40
0.0266349791
100
AcDbArc
 50
20.3630922153
 51
37.9727053099
  0
ARC
  5
37F
100
AcDbEntity
  8
0
100
AcDbCircle
 62
7
  6
CONTINUOUS
 10
18.2450241237
 20
2.3798263774
 40
0.0257145923
100
AcDbArc
 50
39.3804255939
 51
59.0361096173
  0
ARC
  5
380
100
AcDbEntity
  8
0
100
AcDbCircle
 62
7
  6
CONTINUOUS
 10
18.2296840914
 20
2.3774978567
 40
0.0238935861
100
AcDbArc
 50
209.8247607259
 51
235.1255079367
  0
ARC
  5
381
100
AcDbEntity
  8
0
100
AcDbCircle
 62
7
  6
CONTINUOUS
 10
18.2830605507
 20
2.3792897325
 40
0.0175560065
100
AcDbArc
 50
332.2279060967
 51
359.6595469939
  0
ARC
  5
382
100
AcDbEntity
  8
0
100
AcDbCircle
 62
7
  6
CONTINUOUS
 10
18.1890593051
 20
2.3776149607
 40
0.0151491919
100
AcDbArc
 50
24.098260853
 51
63.0369451818
  0
ARC
  5
383
100
AcDbEntity
  8
0
100
AcDbCircle
 62
7
  6
CONTINUOUS
 10
18.2845735615
 20
2.3882148688
 40
0.0147197649
100
AcDbArc
 50
192.7054516565
 51
206.0594861022
  0
ARC
  5
384
100
AcDbEntity
  8
0
100
AcDbCircle
 62
7
  6
CONTINUOUS
 10
18.1973459106
 20
2.4149676972
 40
0.0145814632
100
AcDbArc
 50
54.6746025112
 51
71.1660573124
  0
ARC
  5
385
100
AcDbEntity
  8
0
100
AcDbCircle
 62
7
  6
CONTINUOUS
 10
18.2752146786
 20
2.3927110743
 40
0.0132488022
100
AcDbArc
 50
270.266200055
 51
281.2404888597
  0
ARC
  5
386
100
AcDbEntity
  8
0
100
AcDbCircle
 62
7
  6
CONTINUOUS
 10
18.2716089246
 20
2.3878675959
 40
0.0119498009
100
AcDbArc
 50
340.7883861657
 51
1.1691452593
  0
ARC
  5
387
100
AcDbEntity
  8
0
100
AcDbCircle
 62
7
  6
CONTINUOUS
 10
18.198398534
 20
2.4260095887
 40
0.0110815393
100
AcDbArc
 50
306.758405961
 51
320.4502234234
  0
ARC
  5
388
100
AcDbEntity
  8
0
100
AcDbCircle
 62
7
  6
CONTINUOUS
 10
18.2764089196
 20
2.3869743807
 40
0.0073895522
100
AcDbArc
 50
280.8288201977
 51
305.0837508495
  0
ARC
  5
389
100
AcDbEntity
  8
0
100
AcDbCircle
 62
7
  6
CONTINUOUS
 10
18.2768101012
 20
2.3861235343
 40
0.0064647042
100
AcDbArc
 50
306.5086174083
 51
340.2162360092
  0
ARC
  5
38A
100
AcDbEntity
  8
0
100
AcDbCircle
 62
7
  6
CONTINUOUS
 10
18.2024754016
 20
2.4218216224
 40
0.0060275915
100
AcDbArc
 50
20.9055592135
 51
56.7851676243
  0
ARC
  5
38B
100
AcDbEntity
  8
0
100
AcDbCircle
 62
7
  6
CONTINUOUS
 10
18.2025691502
 20
2.4227756809
 40
0.0058087709
100
AcDbArc
 50
318.8515287446
 51
353.6422345323
  0
ARC
  5
38C
100
AcDbEntity
  8
0
100
AcDbCircle
 62
7
  6
CONTINUOUS
 10
18.2760792244
 20
2.3840063824
 40
0.0052403997
100
AcDbArc
 50
205.5232099488
 51
227.5054868079
  0
ARC
  5
38D
100
AcDbEntity
  8
0
100
AcDbCircle
 62
7
  6
CONTINUOUS
 10
18.2037759605
 20
2.4224819047
 40
0.0045795888
100
AcDbArc
 50
355.6235353944
 51
18.9942678268
  0
ARC
  5
38E
100
AcDbEntity
  8
0
100
AcDbCircle
 62
7
  6
CONTINUOUS
 10
18.2743509251
 20
2.3821910097
 40
0.0027347709
100
AcDbArc
 50
228.5117626738
 51
266.1485845754
  0
ARC
  5
38F
100
AcDbEntity
  8
0
100
AcDbCircle
 62
7
  6
CONTINUOUS
 10
18.1572301659
 20
2.3912274234
 40
0.0024749995
100
AcDbArc
 50
89.9999571957
 51
180.0000428043
  0
ARC
  5
390
100
AcDbEntity
  8
0
100
AcDbCircle
 62
7
  6
CONTINUOUS
 10
18.1572301659
 20
2.3815284143
 40
0.0024749995
100
AcDbArc
 50
179.9999571957
 51
270.0000428043
  0
ARC
  5
391
100
AcDbEntity
  8
0
100
AcDbCircle
 62
7
  6
CONTINUOUS
 10
18.1818891832
 20
2.3765784153
 40
0.0024749995
100
AcDbArc
 50
359.9999571957
 51
90.0000428043
  0
ARC
  5
392
100
AcDbEntity
  8
0
100
AcDbCircle
 62
7
  6
CONTINUOUS
 10
18.0683181166
 20
2.3766004153
 40
0.0024749995
100
AcDbArc
 50
89.9999571957
 51
180.0000428043
  0
ARC
  5
393
100
AcDbEntity
  8
0
100
AcDbCircle
 62
7
  6
CONTINUOUS
 10
18.0910641329
 20
2.3815504143
 40
0.0024749995
100
AcDbArc
 50
269.9999571957
 51
0.0000428043
  0
ARC
  5
394
100
AcDbEntity
  8
0
100
AcDbCircle
 62
7
  6
CONTINUOUS
 10
18.2860312373
 20
2.3907374231
 40
0.0024749995
100
AcDbArc
 50
89.9999571957
 51
180.0000428043
  0
ARC
  5
395
100
AcDbEntity
  8
0
100
AcDbCircle
 62
7
  6
CONTINUOUS
 10
18.2981412477
 20
2.3907374231
 40
0.0024749995
100
AcDbArc
 50
359.9999571957
 51
90.0000428043
  0
ARC
  5
396
100
AcDbEntity
  8
0
100
AcDbCircle
 62
7
  6
CONTINUOUS
 10
18.1572301659
 20
2.415180433
 40
0.0024749995
100
AcDbArc
 50
179.9999571957
 51
270.0000428043
  0
ARC
  5
397
100
AcDbEntity
  8
0
100
AcDbCircle
 62
7
  6
CONTINUOUS
 10
17.992145078
 20
2.3815504143
 40
0.0024749995
100
AcDbArc
 50
269.9999571957
 51
0.0000428043
  0
ARC
  5
398
100
AcDbEntity
  8
0
100
AcDbCircle
 62
7
  6
CONTINUOUS
 10
17.9970950771
 20
2.3898004226
 40
0.0024749995
100
AcDbArc
 50
89.9999571957
 51
180.0000428043
  0
ARC
  5
399
100
AcDbEntity
  8
0
100
AcDbCircle
 62
7
  6
CONTINUOUS
 10
18.0394141042
 20
2.3898004226
 40
0.0024749995
100
AcDbArc
 50
359.9999571957
 51
90.0000428043
  0
ARC
  5
39A
100
AcDbEntity
  8
0
100
AcDbCircle
 62
7
  6
CONTINUOUS
 10
18.0379951034
 20
2.4196554355
 40
0.0024749995
100
AcDbArc
 50
269.9999571956
 51
0.0000428042
  0
ARC
  5
39B
100
AcDbEntity
  8
0
100
AcDbCircle
 62
7
  6
CONTINUOUS
 10
17.9961310765
 20
2.4196554355
 40
0.0024749995
100
AcDbArc
 50
179.9999571957
 51
270.0000428043
  0
ARC
  5
39C
100
AcDbEntity
  8
0
100
AcDbCircle
 62
7
  6
CONTINUOUS
 10
17.9623080615
 20
2.4114054346
 40
0.0024749995
100
AcDbArc
 50
359.9999571957
 51
90.0000428043
  0
ARC
  5
39D
100
AcDbEntity
  8
0
100
AcDbCircle
 62
7
  6
CONTINUOUS
 10
17.9623080615
 20
2.3980504235
 40
0.0024749995
100
AcDbArc
 50
269.9999571956
 51
0.0000428042
  0
ARC
  5
39E
100
AcDbEntity
  8
0
100
AcDbCircle
 62
7
  6
CONTINUOUS
 10
18.220842337
 20
2.4783532224
 40
0.0789082104
100
AcDbArc
 50
292.906155071
 51
305.2574666259
  0
ARC
  5
39F
100
AcDbEntity
  8
0
100
AcDbCircle
 62
7
  6
CONTINUOUS
 10
18.2511742746
 20
2.4351463727
 40
0.0261183659
100
AcDbArc
 50
305.6373831893
 51
329.9727629745
  0
ARC
  5
3A0
100
AcDbEntity
  8
0
100
AcDbCircle
 62
7
  6
CONTINUOUS
 10
18.1908418374
 20
2.4381440645
 40
0.0254407115
100
AcDbArc
 50
270.7327484175
 51
290.441894219
  0
ARC
  5
3A1
100
AcDbEntity
  8
0
100
AcDbCircle
 62
7
  6
CONTINUOUS
 10
18.1927693431
 20
2.4337504172
 40
0.0206523367
100
AcDbArc
 50
289.6883413472
 51
306.4184925496
  0
ARC
  5
3A2
100
AcDbEntity
  8
0
100
AcDbCircle
 62
7
  6
CONTINUOUS
 10
18.2588883357
 20
2.4282993328
 40
0.0165459396
100
AcDbArc
 50
1.548452892
 51
33.5033152417
  0
ARC
  5
3A3
100
AcDbEntity
  8
0
100
AcDbCircle
 62
7
  6
CONTINUOUS
 10
18.2621849309
 20
2.428467785
 40
0.0132462337
100
AcDbArc
 50
331.1510006998
 51
1.205404301
  0
ARC
  5
3A4
100
AcDbEntity
  8
0
100
AcDbCircle
 62
7
  6
CONTINUOUS
 10
18.0910641329
 20
2.4279054437
 40
0.0024749995
100
AcDbArc
 50
359.9999571957
 51
90.0000428043
  0
ARC
  5
3A5
100
AcDbEntity
  8
0
100
AcDbCircle
 62
7
  6
CONTINUOUS
 10
18.0683181166
 20
2.4328554428
 40
0.0024749995
100
AcDbArc
 50
179.9999571957
 51
270.0000428043
  0
ARC
  5
3A6
100
AcDbEntity
  8
0
100
AcDbCircle
 62
7
  6
CONTINUOUS
 10
18.0683181166
 20
2.4526554575
 40
0.0024749995
100
AcDbArc
 50
89.9999571957
 51
180.0000428043
  0
ARC
  5
3A7
100
AcDbEntity
  8
0
100
AcDbCircle
 62
7
  6
CONTINUOUS
 10
18.1572301659
 20
2.4279054437
 40
0.0024749995
100
AcDbArc
 50
89.9999571957
 51
180.0000428043
  0
ARC
  5
3A8
100
AcDbEntity
  8
0
100
AcDbCircle
 62
7
  6
CONTINUOUS
 10
18.0379951034
 20
2.4526554575
 40
0.0024749995
100
AcDbArc
 50
359.9999571957
 51
90.0000428043
  0
ARC
  5
3A9
100
AcDbEntity
  8
0
100
AcDbCircle
 62
7
  6
CONTINUOUS
 10
17.9911810775
 20
2.4279054437
 40
0.0024749995
100
AcDbArc
 50
359.9999571957
 51
90.0000428043
  0
ELLIPSE
  5
3AA
100
AcDbEntity
  8
0
100
AcDbEllipse
 62
7
  6
CONTINUOUS
 10
17.573550844
 20
2.4034764283
 30
0.0
 11
-0.8250004575
 21
0.0
 31
0.0
 40
0.218572
 41
0.0
 42
6.2831853072
  0
HATCH
  5
3AB
100
AcDbEntity
  8
0
100
AcDbHatch
 62
7
  6
CONTINUOUS
 10
0.0
 20
0.0
 30
0.0
210
0.0
220
0.0
230
1.0
  2
XSEC0002
 70
1
 71
1
 91
11
 92
1
 93
57
 72
2
 10
18.2265855264
 20
2.3716475527
 40
0.0173408616
 50
232.4713476722
 51
267.338189944
 73
1
 72
2
 10
18.2296840914
 20
2.3774978567
 40
0.0238935861
 50
209.8247607259
 51
235.1255079367
 73
1
 72
2
 10
18.2495655574
 20
2.384346736
 40
0.044722495
 50
195.531588407
 51
204.7624440448
 73
1
 72
1
 10
18.206476195
 20
2.3723714111
 11
18.204672194
 21
2.3784404145
 72
2
 10
18.1662929967
 20
2.368643334
 40
0.0396099176
 50
14.3201081283
 51
22.4984722084
 73
1
 72
2
 10
18.1890593051
 20
2.3776149607
 40
0.0151491919
 50
24.098260853
 51
63.0369451818
 73
1
 72
2
 10
18.1850046504
 20
2.3693353402
 40
0.0243676582
 50
63.3666028271
 51
90.3937697637
 73
1
 72
1
 10
18.184837183
 20
2.3937024229
 11
18.1572301677
 21
2.3937024229
 72
2
 10
18.1572301659
 20
2.3912274234
 40
0.0024749995
 50
89.9999571957
 51
180.0000428043
 73
1
 72
1
 10
18.1547551663
 20
2.3912274216
 11
18.1547551663
 21
2.3815284162
 72
2
 10
18.1572301659
 20
2.3815284143
 40
0.0024749995
 50
179.9999571957
 51
270.0000428043
 73
1
 72
1
 10
18.1572301677
 20
2.3790534148
 11
18.1818891814
 21
2.3790534148
 72
2
 10
18.1818891832
 20
2.3765784153
 40
0.0024749995
 50
359.9999571957
 51
90.0000428042
 73
1
 72
1
 10
18.1843641828
 20
2.3765784134
 11
18.1843641828
 21
2.3568004025
 72
2
 10
18.1818891832
 20
2.3568004006
 40
0.0024749995
 50
269.9999571958
 51
0.0000428043
 73
1
 72
1
 10
18.1818891814
 20
2.3543254011
 11
18.0683181184
 21
2.3543254011
 72
2
 10
18.0683181166
 20
2.3568004006
 40
0.0024749995
 50
179.9999571957
 51
270.0000428042
 73
1
 72
1
 10
18.065843117
 20
2.3568004025
 11
18.065843117
 21
2.3766004134
 72
2
 10
18.0683181166
 20
2.3766004153
 40
0.0024749995
 50
89.9999571958
 51
180.0000428043
 73
1
 72
1
 10
18.0683181184
 20
2.3790754148
 11
18.091064131
 21
2.3790754148
 72
2
 10
18.0910641329
 20
2.3815504143
 40
0.0024749995
 50
269.9999571957
 51
0.0000428043
 73
1
 72
1
 10
18.0935391324
 20
2.3815504162
 11
18.0935391324
 21
2.4279054419
 72
2
 10
18.0910641329
 20
2.4279054437
 40
0.0024749995
 50
359.9999571957
 51
90.0000428043
 73
1
 72
1
 10
18.091064131
 20
2.4303804433
 11
18.0683181184
 21
2.4303804433
 72
2
 10
18.0683181166
 20
2.4328554428
 40
0.0024749995
 50
179.9999571957
 51
270.0000428043
 73
1
 72
1
 10
18.065843117
 20
2.4328554446
 11
18.065843117
 21
2.4526554556
 72
2
 10
18.0683181166
 20
2.4526554575
 40
0.0024749995
 50
89.9999571958
 51
180.0000428043
 73
1
 72
1
 10
18.0683181184
 20
2.455130457
 11
18.2178992014
 21
2.455130457
 72
2
 10
18.2152358981
 20
2.2725915465
 40
0.1825583387
 50
79.8618509324
 51
89.1640948679
 73
1
 72
2
 10
18.2415401884
 20
2.4134150625
 40
0.039319019
 50
59.1202086415
 51
81.4730239328
 73
1
 72
2
 10
18.2471995846
 20
2.4197497317
 40
0.0310192946
 50
34.7540871
 51
62.0879016178
 73
1
 72
2
 10
18.2588883357
 20
2.4282993328
 40
0.0165459396
 50
1.548452892
 51
33.5033152417
 73
1
 72
2
 10
18.2621849309
 20
2.428467785
 40
0.0132462337
 50
331.1510006998
 51
1.205404301
 73
1
 72
2
 10
18.2511742746
 20
2.4351463727
 40
0.0261183659
 50
305.6373831893
 51
329.9727629745
 73
1
 72
2
 10
18.220842337
 20
2.4783532224
 40
0.0789082104
 50
292.906155071
 51
305.2574666259
 73
1
 72
2
 10
18.197141171
 20
2.3016991173
 40
0.117346916
 50
58.614769177
 51
62.3737227606
 73
1
 72
2
 10
18.2450241237
 20
2.3798263774
 40
0.0257145923
 50
39.3804255939
 51
59.0361096173
 73
1
 72
2
 10
18.2439037681
 20
2.3797532943
 40
0.0266349791
 50
20.3630922153
 51
37.9727053099
 73
1
 72
2
 10
18.2260032264
 20
2.3725718859
 40
0.0459185159
 50
15.6740290068
 51
20.9917271228
 73
1
 72
2
 10
18.2845735615
 20
2.3882148688
 40
0.0147197649
 50
192.7054516565
 51
206.0594861022
 73
1
 72
2
 10
18.2760792244
 20
2.3840063824
 40
0.0052403997
 50
205.5232099488
 51
227.5054868079
 73
1
 72
2
 10
18.2743509251
 20
2.3821910097
 40
0.0027347709
 50
228.5117626738
 51
266.1485845755
 73
1
 72
1
 10
18.2741672326
 20
2.379462415
 11
18.2752762332
 21
2.379462415
 72
2
 10
18.2752146786
 20
2.3927110743
 40
0.0132488022
 50
270.266200055
 51
281.2404888597
 73
1
 72
2
 10
18.2764089196
 20
2.3869743807
 40
0.0073895522
 50
280.8288201977
 51
305.0837508495
 73
1
 72
2
 10
18.2768101012
 20
2.3861235343
 40
0.0064647042
 50
306.5086174083
 51
340.2162360092
 73
1
 72
2
 10
18.2716089246
 20
2.3878675959
 40
0.0119498009
 50
340.7883861657
 51
1.1691452593
 73
1
 72
1
 10
18.2835562378
 20
2.3881114198
 11
18.2835562378
 21
2.3907374213
 72
2
 10
18.2860312373
 20
2.3907374231
 40
0.0024749995
 50
89.9999571957
 51
180.0000428043
 73
1
 72
1
 10
18.2860312391
 20
2.3932124227
 11
18.2981412459
 21
2.3932124227
 72
2
 10
18.2981412477
 20
2.3907374231
 40
0.0024749995
 50
359.9999571957
 51
90.0000428043
 73
1
 72
1
 10
18.3006162472
 20
2.3907374213
 11
18.3006162472
 21
2.3791854149
 72
2
 10
18.2830605507
 20
2.3792897325
 40
0.0175560065
 50
332.2279060967
 51
359.6595469939
 73
1
 72
2
 10
18.2737535399
 20
2.384184238
 40
0.0280715479
 50
308.5071794988
 51
332.2400656899
 73
1
 72
2
 10
18.2667613545
 20
2.3917854558
 40
0.0383802683
 50
288.7656836787
 51
309.6104317088
 73
1
 72
2
 10
18.2724993219
 20
2.3741987064
 40
0.0198837666
 50
271.8586572978
 51
289.4131338543
 73
1
 72
1
 10
18.273144232
 20
2.3543254011
 11
18.2257802057
 21
2.3543254011
 97
267
330
2A0
330
2A1
330
2A2
330
2A3
330
2A4
330
2A5
330
2A6
330
2A7
330
2A8
330
2A9
330
2AA
330
2AB
330
2AC
330
2AD
330
2AE
330
2AF
330
2B0
330
2B1
330
2B2
330
2B3
330
2B4
330
2B5
330
2B6
330
2B7
330
2B8
330
2B9
330
2BA
330
2BB
330
2BC
330
2BD
330
2BE
330
2BF
330
2C0
330
2C1
330
2C2
330
2C3
330
2C4
330
2C5
330
2C6
330
2C7
330
2C8
330
2C9
330
2CA
330
2CB
330
2CC
330
2CD
330
2CE
330
2CF
330
2D0
330
2D1
330
2D2
330
2D3
330
2D4
330
2D5
330
2D6
330
2D7
330
2D8
330
2D9
330
2DA
330
2DB
330
2DC
330
2DD
330
2DE
330
2DF
330
2E0
330
2E1
330
2E2
330
2E3
330
2E4
330
2E5
330
2E6
330
2E7
330
2E8
330
2E9
330
2EA
330
2EB
330
2EC
330
2ED
330
2EE
330
2EF
330
2F0
330
2F1
330
2F2
330
2F3
330
2F4
330
2F5
330
2F6
330
2F7
330
2F8
330
2F9
330
2FA
330
2FB
330
2FC
330
2FD
330
2FE
330
2FF
330
300
330
301
330
302
330
303
330
304
330
305
330
306
330
307
330
308
330
309
330
30A
330
30B
330
30C
330
30D
330
30E
330
30F
330
310
330
311
330
312
330
313
330
314
330
315
330
316
330
317
330
318
330
319
330
31A
330
31B
330
31C
330
31D
330
31E
330
31F
330
320
330
321
330
322
330
323
330
324
330
325
330
326
330
327
330
328
330
329
330
32A
330
32B
330
32C
330
32D
330
32E
330
32F
330
330
330
331
330
332
330
333
330
334
330
335
330
336
330
337
330
338
330
339
330
33A
330
33B
330
33C
330
33D
330
33E
330
33F
330
340
330
341
330
342
330
343
330
344
330
345
330
346
330
347
330
348
330
349
330
34A
330
34B
330
34C
330
34D
330
34E
330
34F
330
350
330
351
330
352
330
353
330
354
330
355
330
356
330
357
330
358
330
359
330
35A
330
35B
330
35C
330
35D
330
35E
330
35F
330
360
330
361
330
362
330
363
330
364
330
365
330
366
330
367
330
368
330
369
330
36A
330
36B
330
36C
330
36D
330
36E
330
36F
330
370
330
371
330
372
330
373
330
374
330
375
330
376
330
377
330
378
330
379
330
37A
330
37B
330
37C
330
37D
330
37E
330
37F
330
380
330
381
330
382
330
383
330
384
330
385
330
386
330
387
330
388
330
389
330
38A
330
38B
330
38C
330
38D
330
38E
330
38F
330
390
330
391
330
392
330
393
330
394
330
395
330
396
330
397
330
398
330
399
330
39A
330
39B
330
39C
330
39D
330
39E
330
39F
330
3A0
330
3A1
330
3A2
330
3A3
330
3A4
330
3A5
330
3A6
330
3A7
330
3A8
330
3A9
330
3AA
 92
1
 93
40
 72
2
 10
17.8362019878
 20
2.3568004006
 40
0.0024749995
 50
179.9999571957
 51
270.0000428042
 73
1
 72
1
 10
17.8337269883
 20
2.3568004025
 11
17.8337269883
 21
2.3766004134
 72
2
 10
17.8362019878
 20
2.3766004153
 40
0.0024749995
 50
89.9999571958
 51
180.0000428043
 73
1
 72
1
 10
17.8362019897
 20
2.3790754148
 11
17.860125003
 21
2.3790754148
 72
2
 10
17.8601250048
 20
2.3815504143
 40
0.0024749995
 50
269.9999571956
 51
0.0000428042
 73
1
 72
1
 10
17.8626000043
 20
2.3815504162
 11
17.8626000043
 21
2.4279054419
 72
2
 10
17.8601250048
 20
2.4279054437
 40
0.0024749995
 50
359.9999571957
 51
90.0000428043
 73
1
 72
1
 10
17.860125003
 20
2.4303804433
 11
17.8362019897
 21
2.4303804433
 72
2
 10
17.8362019878
 20
2.4328554428
 40
0.0024749995
 50
179.9999571957
 51
270.0000428043
 73
1
 72
1
 10
17.8337269883
 20
2.4328554446
 11
17.8337269883
 21
2.4526554556
 72
2
 10
17.8362019878
 20
2.4526554575
 40
0.0024749995
 50
89.9999571958
 51
180.0000428043
 73
1
 72
1
 10
17.8362019897
 20
2.455130457
 11
18.0379951016
 21
2.455130457
 72
2
 10
18.0379951034
 20
2.4526554575
 40
0.0024749995
 50
359.9999571957
 51
90.0000428042
 73
1
 72
1
 10
18.040470103
 20
2.4526554556
 11
18.040470103
 21
2.4196554373
 72
2
 10
18.0379951034
 20
2.4196554355
 40
0.0024749995
 50
269.9999571956
 51
0.0000428042
 73
1
 72
1
 10
18.0379951016
 20
2.4171804359
 11
17.9961310784
 21
2.4171804359
 72
2
 10
17.9961310765
 20
2.4196554355
 40
0.0024749995
 50
179.9999571957
 51
270.0000428043
 73
1
 72
1
 10
17.993656077
 20
2.4196554373
 11
17.993656077
 21
2.4279054419
 72
2
 10
17.9911810775
 20
2.4279054437
 40
0.0024749995
 50
359.9999571957
 51
90.0000428043
 73
1
 72
1
 10
17.9911810756
 20
2.4303804433
 11
17.9271410401
 21
2.4303804433
 72
2
 10
17.9271410383
 20
2.4279054437
 40
0.0024749995
 50
89.9999571958
 51
180.0000428043
 73
1
 72
1
 10
17.9246660387
 20
2.4279054419
 11
17.9246660387
 21
2.4163554355
 72
2
 10
17.9271410383
 20
2.4163554336
 40
0.0024749995
 50
179.9999571957
 51
270.0000428042
 73
1
 72
1
 10
17.9271410401
 20
2.4138804341
 11
17.9623080596
 21
2.4138804341
 72
2
 10
17.9623080615
 20
2.4114054346
 40
0.0024749995
 50
359.9999571957
 51
90.0000428042
 73
1
 72
1
 10
17.964783061
 20
2.4114054327
 11
17.964783061
 21
2.3980504253
 72
2
 10
17.9623080615
 20
2.3980504235
 40
0.0024749995
 50
269.9999571956
 51
0.0000428042
 73
1
 72
1
 10
17.9623080596
 20
2.395575424
 11
17.9271410401
 21
2.395575424
 72
2
 10
17.9271410383
 20
2.3931004244
 40
0.0024749995
 50
89.9999571958
 51
180.0000428043
 73
1
 72
1
 10
17.9246660387
 20
2.3931004226
 11
17.9246660387
 21
2.3815504162
 72
2
 10
17.9271410383
 20
2.3815504143
 40
0.0024749995
 50
179.9999571957
 51
270.0000428043
 73
1
 72
1
 10
17.9271410401
 20
2.3790754148
 11
17.9921450762
 21
2.3790754148
 72
2
 10
17.992145078
 20
2.3815504143
 40
0.0024749995
 50
269.9999571958
 51
0.0000428043
 73
1
 72
1
 10
17.9946200775
 20
2.3815504162
 11
17.9946200775
 21
2.3898004208
 72
2
 10
17.9970950771
 20
2.3898004226
 40
0.0024749995
 50
89.9999571958
 51
180.0000428043
 73
1
 72
1
 10
17.9970950789
 20
2.3922754221
 11
18.0394141024
 21
2.3922754221
 72
2
 10
18.0394141042
 20
2.3898004226
 40
0.0024749995
 50
359.9999571957
 51
90.0000428043
 73
1
 72
1
 10
18.0418891038
 20
2.3898004208
 11
18.0418891038
 21
2.3568004025
 72
2
 10
18.0394141042
 20
2.3568004006
 40
0.0024749995
 50
269.9999571958
 51
0.0000428043
 73
1
 72
1
 10
18.0394141024
 20
2.3543254011
 11
17.8362019897
 21
2.3543254011
 97
267
330
2A0
330
2A1
330
2A2
330
2A3
330
2A4
330
2A5
330
2A6
330
2A7
330
2A8
330
2A9
330
2AA
330
2AB
330
2AC
330
2AD
330
2AE
330
2AF
330
2B0
330
2B1
330
2B2
330
2B3
330
2B4
330
2B5
330
2B6
330
2B7
330
2B8
330
2B9
330
2BA
330
2BB
330
2BC
330
2BD
330
2BE
330
2BF
330
2C0
330
2C1
330
2C2
330
2C3
330
2C4
330
2C5
330
2C6
330
2C7
330
2C8
330
2C9
330
2CA
330
2CB
330
2CC
330
2CD
330
2CE
330
2CF
330
2D0
330
2D1
330
2D2
330
2D3
330
2D4
330
2D5
330
2D6
330
2D7
330
2D8
330
2D9
330
2DA
330
2DB
330
2DC
330
2DD
330
2DE
330
2DF
330
2E0
330
2E1
330
2E2
330
2E3
330
2E4
330
2E5
330
2E6
330
2E7
330
2E8
330
2E9
330
2EA
330
2EB
330
2EC
330
2ED
330
2EE
330
2EF
330
2F0
330
2F1
330
2F2
330
2F3
330
2F4
330
2F5
330
2F6
330
2F7
330
2F8
330
2F9
330
2FA
330
2FB
330
2FC
330
2FD
330
2FE
330
2FF
330
300
330
301
330
302
330
303
330
304
330
305
330
306
330
307
330
308
330
309
330
30A
330
30B
330
30C
330
30D
330
30E
330
30F
330
310
330
311
330
312
330
313
330
314
330
315
330
316
330
317
330
318
330
319
330
31A
330
31B
330
31C
330
31D
330
31E
330
31F
330
320
330
321
330
322
330
323
330
324
330
325
330
326
330
327
330
328
330
329
330
32A
330
32B
330
32C
330
32D
330
32E
330
32F
330
330
330
331
330
332
330
333
330
334
330
335
330
336
330
337
330
338
330
339
330
33A
330
33B
330
33C
330
33D
330
33E
330
33F
330
340
330
341
330
342
330
343
330
344
330
345
330
346
330
347
330
348
330
349
330
34A
330
34B
330
34C
330
34D
330
34E
330
34F
330
350
330
351
330
352
330
353
330
354
330
355
330
356
330
357
330
358
330
359
330
35A
330
35B
330
35C
330
35D
330
35E
330
35F
330
360
330
361
330
362
330
363
330
364
330
365
330
366
330
367
330
368
330
369
330
36A
330
36B
330
36C
330
36D
330
36E
330
36F
330
370
330
371
330
372
330
373
330
374
330
375
330
376
330
377
330
378
330
379
330
37A
330
37B
330
37C
330
37D
330
37E
330
37F
330
380
330
381
330
382
330
383
330
384
330
385
330
386
330
387
330
388
330
389
330
38A
330
38B
330
38C
330
38D
330
38E
330
38F
330
390
330
391
330
392
330
393
330
394
330
395
330
396
330
397
330
398
330
399
330
39A
330
39B
330
39C
330
39D
330
39E
330
39F
330
3A0
330
3A1
330
3A2
330
3A3
330
3A4
330
3A5
330
3A6
330
3A7
330
3A8
330
3A9
330
3AA
 92
1
 93
40
 72
2
 10
17.7115227858
 20
2.3567995689
 40
0.0024741678
 50
226.3477981898
 51
270.0031206038
 73
1
 72
1
 10
17.7098149196
 20
2.3550094015
 11
17.6465348845
 21
2.415387435
 72
2
 10
17.6448261836
 20
2.4135964972
 40
0.0024753014
 50
46.3461263058
 51
180.0014637321
 73
1
 72
1
 10
17.6423508822
 20
2.413596434
 11
17.6423508822
 21
2.3815504162
 72
2
 10
17.6448258817
 20
2.3815504143
 40
0.0024749995
 50
179.9999571957
 51
270.0000428043
 73
1
 72
1
 10
17.6448258836
 20
2.3790754148
 11
17.6651428948
 21
2.3790754148
 72
2
 10
17.6651428967
 20
2.3766004153
 40
0.0024749995
 50
359.9999571957
 51
90.0000428043
 73
1
 72
1
 10
17.6676178962
 20
2.3766004134
 11
17.6676178962
 21
2.3568004025
 72
2
 10
17.6651428967
 20
2.3568004006
 40
0.0024749995
 50
269.9999571958
 51
0.0000428043
 73
1
 72
1
 10
17.6651428948
 20
2.3543254011
 11
17.5894788529
 21
2.3543254011
 72
2
 10
17.589478851
 20
2.3568004006
 40
0.0024749995
 50
179.9999571957
 51
270.0000428042
 73
1
 72
1
 10
17.5870038515
 20
2.3568004025
 11
17.5870038515
 21
2.3766004134
 72
2
 10
17.589478851
 20
2.3766004153
 40
0.0024749995
 50
89.9999571957
 51
180.0000428043
 73
1
 72
1
 10
17.5894788529
 20
2.3790754148
 11
17.6081248632
 21
2.3790754148
 72
2
 10
17.6081248651
 20
2.3815504143
 40
0.0024749995
 50
269.9999571957
 51
0.0000428043
 73
1
 72
1
 10
17.6105998646
 20
2.3815504162
 11
17.6105998646
 21
2.4279054419
 72
2
 10
17.6081248651
 20
2.4279054437
 40
0.0024749995
 50
359.9999571957
 51
90.0000428043
 73
1
 72
1
 10
17.6081248632
 20
2.4303804433
 11
17.5894788529
 21
2.4303804433
 72
2
 10
17.589478851
 20
2.4328554428
 40
0.0024749995
 50
179.9999571957
 51
270.0000428043
 73
1
 72
1
 10
17.5870038515
 20
2.4328554446
 11
17.5870038515
 21
2.4526554556
 72
2
 10
17.589478851
 20
2.4526554575
 40
0.0024749995
 50
89.9999571957
 51
180.0000428043
 73
1
 72
1
 10
17.5894788529
 20
2.455130457
 11
17.6899369086
 21
2.455130457
 72
2
 10
17.6899370433
 20
2.4526562892
 40
0.0024741678
 50
46.3477981899
 51
90.0031206038
 73
1
 72
1
 10
17.6916449095
 20
2.4544464566
 11
17.7516779428
 21
2.3971664249
 72
2
 10
17.7533866437
 20
2.3989573626
 40
0.0024753014
 50
226.3461263059
 51
0.0014637321
 73
1
 72
1
 10
17.7558619451
 20
2.3989574258
 11
17.7558619451
 21
2.4279054419
 72
2
 10
17.7533869456
 20
2.4279054437
 40
0.0024749995
 50
359.9999571957
 51
90.0000428043
 73
1
 72
1
 10
17.7533869438
 20
2.4303804433
 11
17.7346109333
 21
2.4303804433
 72
2
 10
17.7346109315
 20
2.4328554428
 40
0.0024749995
 50
179.9999571957
 51
270.0000428043
 73
1
 72
1
 10
17.732135932
 20
2.4328554446
 11
17.732135932
 21
2.4526554556
 72
2
 10
17.7346109315
 20
2.4526554575
 40
0.0024749995
 50
89.9999571958
 51
180.0000428043
 73
1
 72
1
 10
17.7346109333
 20
2.455130457
 11
17.8086119744
 21
2.455130457
 72
2
 10
17.8086119762
 20
2.4526554575
 40
0.0024749995
 50
359.9999571957
 51
90.0000428043
 73
1
 72
1
 10
17.8110869758
 20
2.4526554556
 11
17.8110869758
 21
2.4328554446
 72
2
 10
17.8086119762
 20
2.4328554428
 40
0.0024749995
 50
269.9999571956
 51
0.0000428042
 73
1
 72
1
 10
17.8086119744
 20
2.4303804433
 11
17.7906789644
 21
2.4303804433
 72
2
 10
17.7906789626
 20
2.4279054437
 40
0.0024749995
 50
89.9999571957
 51
180.0000428043
 73
1
 72
1
 10
17.7882039631
 20
2.4279054419
 11
17.7882039631
 21
2.3568004025
 72
2
 10
17.7857289635
 20
2.3568004006
 40
0.0024749995
 50
269.9999571957
 51
0.0000428043
 73
1
 72
1
 10
17.7857289617
 20
2.3543254011
 11
17.7115229205
 21
2.3543254011
 97
267
330
2A0
330
2A1
330
2A2
330
2A3
330
2A4
330
2A5
330
2A6
330
2A7
330
2A8
330
2A9
330
2AA
330
2AB
330
2AC
330
2AD
330
2AE
330
2AF
330
2B0
330
2B1
330
2B2
330
2B3
330
2B4
330
2B5
330
2B6
330
2B7
330
2B8
330
2B9
330
2BA
330
2BB
330
2BC
330
2BD
330
2BE
330
2BF
330
2C0
330
2C1
330
2C2
330
2C3
330
2C4
330
2C5
330
2C6
330
2C7
330
2C8
330
2C9
330
2CA
330
2CB
330
2CC
330
2CD
330
2CE
330
2CF
330
2D0
330
2D1
330
2D2
330
2D3
330
2D4
330
2D5
330
2D6
330
2D7
330
2D8
330
2D9
330
2DA
330
2DB
330
2DC
330
2DD
330
2DE
330
2DF
330
2E0
330
2E1
330
2E2
330
2E3
330
2E4
330
2E5
330
2E6
330
2E7
330
2E8
330
2E9
330
2EA
330
2EB
330
2EC
330
2ED
330
2EE
330
2EF
330
2F0
330
2F1
330
2F2
330
2F3
330
2F4
330
2F5
330
2F6
330
2F7
330
2F8
330
2F9
330
2FA
330
2FB
330
2FC
330
2FD
330
2FE
330
2FF
330
300
330
301
330
302
330
303
330
304
330
305
330
306
330
307
330
308
330
309
330
30A
330
30B
330
30C
330
30D
330
30E
330
30F
330
310
330
311
330
312
330
313
330
314
330
315
330
316
330
317
330
318
330
319
330
31A
330
31B
330
31C
330
31D
330
31E
330
31F
330
320
330
321
330
322
330
323
330
324
330
325
330
326
330
327
330
328
330
329
330
32A
330
32B
330
32C
330
32D
330
32E
330
32F
330
330
330
331
330
332
330
333
330
334
330
335
330
336
330
337
330
338
330
339
330
33A
330
33B
330
33C
330
33D
330
33E
330
33F
330
340
330
341
330
342
330
343
330
344
330
345
330
346
330
347
330
348
330
349
330
34A
330
34B
330
34C
330
34D
330
34E
330
34F
330
350
330
351
330
352
330
353
330
354
330
355
330
356
330
357
330
358
330
359
330
35A
330
35B
330
35C
330
35D
330
35E
330
35F
330
360
330
361
330
362
330
363
330
364
330
365
330
366
330
367
330
368
330
369
330
36A
330
36B
330
36C
330
36D
330
36E
330
36F
330
370
330
371
330
372
330
373
330
374
330
375
330
376
330
377
330
378
330
379
330
37A
330
37B
330
37C
330
37D
330
37E
330
37F
330
380
330
381
330
382
330
383
330
384
330
385
330
386
330
387
330
388
330
389
330
38A
330
38B
330
38C
330
38D
330
38E
330
38F
330
390
330
391
330
392
330
393
330
394
330
395
330
396
330
397
330
398
330
399
330
39A
330
39B
330
39C
330
39D
330
39E
330
39F
330
3A0
330
3A1
330
3A2
330
3A3
330
3A4
330
3A5
330
3A6
330
3A7
330
3A8
330
3A9
330
3AA
 92
1
 93
40
 72
2
 10
17.4632701481
 20
2.3568008172
 40
0.0024754162
 50
226.3593695814
 51
270.0146919954
 73
1
 72
1
 10
17.4615617819
 20
2.3550094015
 11
17.3982817468
 21
2.415387435
 72
2
 10
17.3965730459
 20
2.4135964972
 40
0.0024753014
 50
46.3461263058
 51
180.0014637321
 73
1
 72
1
 10
17.3940977445
 20
2.413596434
 11
17.3940977445
 21
2.3815504162
 72
2
 10
17.396572744
 20
2.3815504143
 40
0.0024749995
 50
179.9999571957
 51
270.0000428043
 73
1
 72
1
 10
17.3965727459
 20
2.3790754148
 11
17.4168897572
 21
2.3790754148
 72
2
 10
17.416889759
 20
2.3766004153
 40
0.0024749995
 50
359.9999571957
 51
90.0000428043
 73
1
 72
1
 10
17.4193647585
 20
2.3766004134
 11
17.4193647585
 21
2.3568004025
 72
2
 10
17.416889759
 20
2.3568004006
 40
0.0024749995
 50
269.9999571957
 51
0.0000428043
 73
1
 72
1
 10
17.4168897572
 20
2.3543254011
 11
17.3412257152
 21
2.3543254011
 72
2
 10
17.3412257133
 20
2.3568004006
 40
0.0024749995
 50
179.9999571957
 51
270.0000428043
 73
1
 72
1
 10
17.3387507138
 20
2.3568004025
 11
17.3387507138
 21
2.3766004134
 72
2
 10
17.3412257133
 20
2.3766004153
 40
0.0024749995
 50
89.9999571957
 51
180.0000428043
 73
1
 72
1
 10
17.3412257152
 20
2.3790754148
 11
17.3598727255
 21
2.3790754148
 72
2
 10
17.3598727274
 20
2.3815504143
 40
0.0024749995
 50
269.9999571957
 51
0.0000428043
 73
1
 72
1
 10
17.3623477269
 20
2.3815504162
 11
17.3623477269
 21
2.4279054419
 72
2
 10
17.3598727274
 20
2.4279054437
 40
0.0024749995
 50
359.9999571957
 51
90.0000428044
 73
1
 72
1
 10
17.3598727255
 20
2.4303804433
 11
17.3412257152
 21
2.4303804433
 72
2
 10
17.3412257133
 20
2.4328554428
 40
0.0024749995
 50
179.9999571957
 51
270.0000428043
 73
1
 72
1
 10
17.3387507138
 20
2.4328554446
 11
17.3387507138
 21
2.4526554556
 72
2
 10
17.3412257133
 20
2.4526554575
 40
0.0024749995
 50
89.9999571957
 51
180.0000428043
 73
1
 72
1
 10
17.3412257152
 20
2.455130457
 11
17.4416837709
 21
2.455130457
 72
2
 10
17.4416839057
 20
2.4526562892
 40
0.0024741678
 50
46.3477981899
 51
90.0031206038
 73
1
 72
1
 10
17.4433917718
 20
2.4544464566
 11
17.5034248051
 21
2.3971664249
 72
2
 10
17.5051335061
 20
2.3989573626
 40
0.0024753014
 50
226.3461263059
 51
0.0014637321
 73
1
 72
1
 10
17.5076088075
 20
2.3989574258
 11
17.5076088075
 21
2.4279054419
 72
2
 10
17.5051338079
 20
2.4279054437
 40
0.0024749995
 50
359.9999571957
 51
90.0000428043
 73
1
 72
1
 10
17.5051338061
 20
2.4303804433
 11
17.4863577957
 21
2.4303804433
 72
2
 10
17.4863577938
 20
2.4328554428
 40
0.0024749995
 50
179.9999571957
 51
270.0000428043
 73
1
 72
1
 10
17.4838827943
 20
2.4328554446
 11
17.4838827943
 21
2.4526554556
 72
2
 10
17.4863577938
 20
2.4526554575
 40
0.0024749995
 50
89.9999571957
 51
180.0000428043
 73
1
 72
1
 10
17.4863577957
 20
2.455130457
 11
17.5603588367
 21
2.455130457
 72
2
 10
17.5603588386
 20
2.4526554575
 40
0.0024749995
 50
359.9999571957
 51
90.0000428042
 73
1
 72
1
 10
17.5628338381
 20
2.4526554556
 11
17.5628338381
 21
2.4328554446
 72
2
 10
17.5603588386
 20
2.4328554428
 40
0.0024749995
 50
269.9999571958
 51
0.0000428043
 73
1
 72
1
 10
17.5603588367
 20
2.4303804433
 11
17.5424258268
 21
2.4303804433
 72
2
 10
17.5424258249
 20
2.4279054437
 40
0.0024749995
 50
89.9999571958
 51
180.0000428043
 73
1
 72
1
 10
17.5399508254
 20
2.4279054419
 11
17.5399508254
 21
2.3568004025
 72
2
 10
17.5374758259
 20
2.3568004006
 40
0.0024749995
 50
269.9999571958
 51
0.0000428043
 73
1
 72
1
 10
17.537475824
 20
2.3543254011
 11
17.4632707829
 21
2.3543254011
 97
267
330
2A0
330
2A1
330
2A2
330
2A3
330
2A4
330
2A5
330
2A6
330
2A7
330
2A8
330
2A9
330
2AA
330
2AB
330
2AC
330
2AD
330
2AE
330
2AF
330
2B0
330
2B1
330
2B2
330
2B3
330
2B4
330
2B5
330
2B6
330
2B7
330
2B8
330
2B9
330
2BA
330
2BB
330
2BC
330
2BD
330
2BE
330
2BF
330
2C0
330
2C1
330
2C2
330
2C3
330
2C4
330
2C5
330
2C6
330
2C7
330
2C8
330
2C9
330
2CA
330
2CB
330
2CC
330
2CD
330
2CE
330
2CF
330
2D0
330
2D1
330
2D2
330
2D3
330
2D4
330
2D5
330
2D6
330
2D7
330
2D8
330
2D9
330
2DA
330
2DB
330
2DC
330
2DD
330
2DE
330
2DF
330
2E0
330
2E1
330
2E2
330
2E3
330
2E4
330
2E5
330
2E6
330
2E7
330
2E8
330
2E9
330
2EA
330
2EB
330
2EC
330
2ED
330
2EE
330
2EF
330
2F0
330
2F1
330
2F2
330
2F3
330
2F4
330
2F5
330
2F6
330
2F7
330
2F8
330
2F9
330
2FA
330
2FB
330
2FC
330
2FD
330
2FE
330
2FF
330
300
330
301
330
302
330
303
330
304
330
305
330
306
330
307
330
308
330
309
330
30A
330
30B
330
30C
330
30D
330
30E
330
30F
330
310
330
311
330
312
330
313
330
314
330
315
330
316
330
317
330
318
330
319
330
31A
330
31B
330
31C
330
31D
330
31E
330
31F
330
320
330
321
330
322
330
323
330
324
330
325
330
326
330
327
330
328
330
329
330
32A
330
32B
330
32C
330
32D
330
32E
330
32F
330
330
330
331
330
332
330
333
330
334
330
335
330
336
330
337
330
338
330
339
330
33A
330
33B
330
33C
330
33D
330
33E
330
33F
330
340
330
341
330
342
330
343
330
344
330
345
330
346
330
347
330
348
330
349
330
34A
330
34B
330
34C
330
34D
330
34E
330
34F
330
350
330
351
330
352
330
353
330
354
330
355
330
356
330
357
330
358
330
359
330
35A
330
35B
330
35C
330
35D
330
35E
330
35F
330
360
330
361
330
362
330
363
330
364
330
365
330
366
330
367
330
368
330
369
330
36A
330
36B
330
36C
330
36D
330
36E
330
36F
330
370
330
371
330
372
330
373
330
374
330
375
330
376
330
377
330
378
330
379
330
37A
330
37B
330
37C
330
37D
330
37E
330
37F
330
380
330
381
330
382
330
383
330
384
330
385
330
386
330
387
330
388
330
389
330
38A
330
38B
330
38C
330
38D
330
38E
330
38F
330
390
330
391
330
392
330
393
330
394
330
395
330
396
330
397
330
398
330
399
330
39A
330
39B
330
39C
330
39D
330
39E
330
39F
330
3A0
330
3A1
330
3A2
330
3A3
330
3A4
330
3A5
330
3A6
330
3A7
330
3A8
330
3A9
330
3AA
 92
1
 93
23
 72
2
 10
17.0481152095
 20
2.4027328529
 40
0.048483885
 50
273.21763719
 51
303.0749121182
 73
1
 72
2
 10
17.0629546036
 20
2.379965244
 40
0.0213072145
 50
303.0488228549
 51
355.7263138674
 73
1
 72
2
 10
17.0688911042
 20
2.3799744343
 40
0.0153945295
 50
354.0454548824
 51
5.1878013979
 73
1
 72
2
 10
17.0620614151
 20
2.3797859164
 40
0.0222174455
 50
4.0793399388
 51
69.834329283
 73
1
 72
1
 10
17.0697205646
 20
2.4006414268
 11
17.059669559
 21
2.4041904287
 72
1
 10
17.059669559
 20
2.4041904287
 11
17.0679095636
 21
2.4089664314
 72
2
 10
17.0460441811
 20
2.445793323
 40
0.0428289026
 50
300.6990502959
 51
319.0591802498
 73
1
 72
2
 10
17.0660727781
 20
2.4296649696
 40
0.0171568255
 50
315.9145124245
 51
16.0049121283
 73
1
 72
2
 10
17.0611211659
 20
2.4263113051
 40
0.0229166529
 50
20.6563876465
 51
62.3316896973
 73
1
 72
2
 10
17.0404590422
 20
2.3933827403
 40
0.061747717
 50
59.5385584989
 51
90.0050977555
 73
1
 72
1
 10
17.0404535484
 20
2.455130457
 11
16.8743904563
 21
2.455130457
 72
2
 10
16.8743904545
 20
2.4526554575
 40
0.0024749995
 50
89.9999571958
 51
180.0000428043
 73
1
 72
1
 10
16.8719154549
 20
2.4526554556
 11
16.8719154549
 21
2.4328554446
 72
2
 10
16.8743904545
 20
2.4328554428
 40
0.0024749995
 50
179.9999571957
 51
270.0000428043
 73
1
 72
1
 10
16.8743904563
 20
2.4303804433
 11
16.8983324696
 21
2.4303804433
 72
2
 10
16.8983324714
 20
2.4279054437
 40
0.0024749995
 50
359.9999571957
 51
90.0000428043
 73
1
 72
1
 10
16.9008074709
 20
2.4279054419
 11
16.9008074709
 21
2.3815504162
 72
2
 10
16.8983324714
 20
2.3815504143
 40
0.0024749995
 50
269.9999571958
 51
0.0000428043
 73
1
 72
1
 10
16.8983324696
 20
2.3790754148
 11
16.8743904563
 21
2.3790754148
 72
2
 10
16.8743904545
 20
2.3766004153
 40
0.0024749995
 50
89.9999571958
 51
180.0000428043
 73
1
 72
1
 10
16.8719154549
 20
2.3766004134
 11
16.8719154549
 21
2.3568004025
 72
2
 10
16.8743904545
 20
2.3568004006
 40
0.0024749995
 50
179.9999571957
 51
270.0000428042
 73
1
 72
1
 10
16.8743904563
 20
2.3543254011
 11
17.0508365542
 21
2.3543254011
 97
267
330
2A0
330
2A1
330
2A2
330
2A3
330
2A4
330
2A5
330
2A6
330
2A7
330
2A8
330
2A9
330
2AA
330
2AB
330
2AC
330
2AD
330
2AE
330
2AF
330
2B0
330
2B1
330
2B2
330
2B3
330
2B4
330
2B5
330
2B6
330
2B7
330
2B8
330
2B9
330
2BA
330
2BB
330
2BC
330
2BD
330
2BE
330
2BF
330
2C0
330
2C1
330
2C2
330
2C3
330
2C4
330
2C5
330
2C6
330
2C7
330
2C8
330
2C9
330
2CA
330
2CB
330
2CC
330
2CD
330
2CE
330
2CF
330
2D0
330
2D1
330
2D2
330
2D3
330
2D4
330
2D5
330
2D6
330
2D7
330
2D8
330
2D9
330
2DA
330
2DB
330
2DC
330
2DD
330
2DE
330
2DF
330
2E0
330
2E1
330
2E2
330
2E3
330
2E4
330
2E5
330
2E6
330
2E7
330
2E8
330
2E9
330
2EA
330
2EB
330
2EC
330
2ED
330
2EE
330
2EF
330
2F0
330
2F1
330
2F2
330
2F3
330
2F4
330
2F5
330
2F6
330
2F7
330
2F8
330
2F9
330
2FA
330
2FB
330
2FC
330
2FD
330
2FE
330
2FF
330
300
330
301
330
302
330
303
330
304
330
305
330
306
330
307
330
308
330
309
330
30A
330
30B
330
30C
330
30D
330
30E
330
30F
330
310
330
311
330
312
330
313
330
314
330
315
330
316
330
317
330
318
330
319
330
31A
330
31B
330
31C
330
31D
330
31E
330
31F
330
320
330
321
330
322
330
323
330
324
330
325
330
326
330
327
330
328
330
329
330
32A
330
32B
330
32C
330
32D
330
32E
330
32F
330
330
330
331
330
332
330
333
330
334
330
335
330
336
330
337
330
338
330
339
330
33A
330
33B
330
33C
330
33D
330
33E
330
33F
330
340
330
341
330
342
330
343
330
344
330
345
330
346
330
347
330
348
330
349
330
34A
330
34B
330
34C
330
34D
330
34E
330
34F
330
350
330
351
330
352
330
353
330
354
330
355
330
356
330
357
330
358
330
359
330
35A
330
35B
330
35C
330
35D
330
35E
330
35F
330
360
330
361
330
362
330
363
330
364
330
365
330
366
330
367
330
368
330
369
330
36A
330
36B
330
36C
330
36D
330
36E
330
36F
330
370
330
371
330
372
330
373
330
374
330
375
330
376
330
377
330
378
330
379
330
37A
330
37B
330
37C
330
37D
330
37E
330
37F
330
380
330
381
330
382
330
383
330
384
330
385
330
386
330
387
330
388
330
389
330
38A
330
38B
330
38C
330
38D
330
38E
330
38F
330
390
330
391
330
392
330
393
330
394
330
395
330
396
330
397
330
398
330
399
330
39A
330
39B
330
39C
330
39D
330
39E
330
39F
330
3A0
330
3A1
330
3A2
330
3A3
330
3A4
330
3A5
330
3A6
330
3A7
330
3A8
330
3A9
330
3AA
 92
1
 93
32
 72
2
 10
17.1857496308
 20
2.3568004006
 40
0.0024749995
 50
269.9999571958
 51
0.0000428044
 73
1
 72
1
 10
17.1882246303
 20
2.3568004025
 11
17.1882246303
 21
2.3766004134
 72
2
 10
17.1857496308
 20
2.3766004153
 40
0.0024749995
 50
359.9999571957
 51
90.0000428043
 73
1
 72
1
 10
17.185749629
 20
2.3790754148
 11
17.1744666227
 21
2.3790754148
 72
2
 10
17.1744665134
 20
2.3815504549
 40
0.0024750401
 50
147.6063258011
 51
270.0025305754
 73
1
 72
1
 10
17.1723766216
 20
2.3828764169
 11
17.1778926246
 21
2.3915704217
 72
2
 10
17.1799825555
 20
2.3902442221
 40
0.0024752003
 50
89.998372645
 51
147.602165307
 73
1
 72
1
 10
17.1799826258
 20
2.3927194224
 11
17.2148606451
 21
2.3927194224
 72
2
 10
17.2148601055
 20
2.3902439622
 40
0.0024754602
 50
32.8959418574
 51
89.9875097202
 73
1
 72
1
 10
17.2169386463
 20
2.3915884218
 11
17.2225646494
 21
2.3828954169
 72
2
 10
17.2204866271
 20
2.3815506219
 40
0.0024752071
 50
270.0004896793
 51
32.9089806818
 73
1
 72
1
 10
17.2204866482
 20
2.3790754148
 11
17.2060356402
 21
2.3790754148
 72
2
 10
17.2060356384
 20
2.3766004153
 40
0.0024749995
 50
89.9999571958
 51
180.0000428043
 73
1
 72
1
 10
17.2035606388
 20
2.3766004134
 11
17.2035606388
 21
2.3568004025
 72
2
 10
17.2060356384
 20
2.3568004006
 40
0.0024749995
 50
179.9999571957
 51
270.0000428042
 73
1
 72
1
 10
17.2060356402
 20
2.3543254011
 11
17.3113166986
 21
2.3543254011
 72
2
 10
17.3113167005
 20
2.3568004006
 40
0.0024749995
 50
269.9999571957
 51
0.0000428043
 73
1
 72
1
 10
17.3137917
 20
2.3568004025
 11
17.3137917
 21
2.3766004134
 72
2
 10
17.3113167005
 20
2.3766004153
 40
0.0024749995
 50
359.9999571957
 51
90.0000428043
 73
1
 72
1
 10
17.3113166986
 20
2.3790754148
 11
17.2913006875
 21
2.3790754148
 72
2
 10
17.291300808
 20
2.3815494558
 40
0.002474041
 50
212.9056413127
 51
269.9972091756
 73
1
 72
1
 10
17.2892236864
 20
2.3802054154
 11
17.2414676599
 21
2.4540004564
 72
2
 10
17.2393900382
 20
2.4526554968
 40
0.0024749602
 50
32.9172174468
 51
90.0087853096
 73
1
 72
1
 10
17.2393896587
 20
2.455130457
 11
17.182214627
 21
2.455130457
 72
2
 10
17.1822145567
 20
2.4526552567
 40
0.0024752003
 50
89.998372645
 51
147.602165307
 73
1
 72
1
 10
17.1801246258
 20
2.4539814564
 11
17.1333245999
 21
2.3802244155
 72
2
 10
17.131234669
 20
2.3815506151
 40
0.0024752003
 50
269.998372645
 51
327.602165307
 73
1
 72
1
 10
17.1312345987
 20
2.3790754148
 11
17.1083735861
 21
2.3790754148
 72
2
 10
17.1083735842
 20
2.3766004153
 40
0.0024749995
 50
89.9999571957
 51
180.0000428043
 73
1
 72
1
 10
17.1058985847
 20
2.3766004134
 11
17.1058985847
 21
2.3568004025
 72
2
 10
17.1083735842
 20
2.3568004006
 40
0.0024749995
 50
179.9999571957
 51
270.0000428043
 73
1
 72
1
 10
17.1083735861
 20
2.3543254011
 11
17.185749629
 21
2.3543254011
 97
267
330
2A0
330
2A1
330
2A2
330
2A3
330
2A4
330
2A5
330
2A6
330
2A7
330
2A8
330
2A9
330
2AA
330
2AB
330
2AC
330
2AD
330
2AE
330
2AF
330
2B0
330
2B1
330
2B2
330
2B3
330
2B4
330
2B5
330
2B6
330
2B7
330
2B8
330
2B9
330
2BA
330
2BB
330
2BC
330
2BD
330
2BE
330
2BF
330
2C0
330
2C1
330
2C2
330
2C3
330
2C4
330
2C5
330
2C6
330
2C7
330
2C8
330
2C9
330
2CA
330
2CB
330
2CC
330
2CD
330
2CE
330
2CF
330
2D0
330
2D1
330
2D2
330
2D3
330
2D4
330
2D5
330
2D6
330
2D7
330
2D8
330
2D9
330
2DA
330
2DB
330
2DC
330
2DD
330
2DE
330
2DF
330
2E0
330
2E1
330
2E2
330
2E3
330
2E4
330
2E5
330
2E6
330
2E7
330
2E8
330
2E9
330
2EA
330
2EB
330
2EC
330
2ED
330
2EE
330
2EF
330
2F0
330
2F1
330
2F2
330
2F3
330
2F4
330
2F5
330
2F6
330
2F7
330
2F8
330
2F9
330
2FA
330
2FB
330
2FC
330
2FD
330
2FE
330
2FF
330
300
330
301
330
302
330
303
330
304
330
305
330
306
330
307
330
308
330
309
330
30A
330
30B
330
30C
330
30D
330
30E
330
30F
330
310
330
311
330
312
330
313
330
314
330
315
330
316
330
317
330
318
330
319
330
31A
330
31B
330
31C
330
31D
330
31E
330
31F
330
320
330
321
330
322
330
323
330
324
330
325
330
326
330
327
330
328
330
329
330
32A
330
32B
330
32C
330
32D
330
32E
330
32F
330
330
330
331
330
332
330
333
330
334
330
335
330
336
330
337
330
338
330
339
330
33A
330
33B
330
33C
330
33D
330
33E
330
33F
330
340
330
341
330
342
330
343
330
344
330
345
330
346
330
347
330
348
330
349
330
34A
330
34B
330
34C
330
34D
330
34E
330
34F
330
350
330
351
330
352
330
353
330
354
330
355
330
356
330
357
330
358
330
359
330
35A
330
35B
330
35C
330
35D
330
35E
330
35F
330
360
330
361
330
362
330
363
330
364
330
365
330
366
330
367
330
368
330
369
330
36A
330
36B
330
36C
330
36D
330
36E
330
36F
330
370
330
371
330
372
330
373
330
374
330
375
330
376
330
377
330
378
330
379
330
37A
330
37B
330
37C
330
37D
330
37E
330
37F
330
380
330
381
330
382
330
383
330
384
330
385
330
386
330
387
330
388
330
389
330
38A
330
38B
330
38C
330
38D
330
38E
330
38F
330
390
330
391
330
392
330
393
330
394
330
395
330
396
330
397
330
398
330
399
330
39A
330
39B
330
39C
330
39D
330
39E
330
39F
330
3A0
330
3A1
330
3A2
330
3A3
330
3A4
330
3A5
330
3A6
330
3A7
330
3A8
330
3A9
330
3AA
 92
1
 93
6
 72
2
 10
16.963795504
 20
2.3815504143
 40
0.0024749995
 50
179.9999571957
 51
270.0000428043
 73
1
 72
1
 10
16.9613205045
 20
2.3815504162
 11
16.9613205045
 21
2.3939254231
 72
2
 10
16.963795504
 20
2.3939254249
 40
0.0024749995
 50
89.9999571957
 51
180.0000428043
 73
1
 72
1
 10
16.9637955059
 20
2.3964004244
 11
17.0051585288
 21
2.3964004244
 72
2
 10
17.0051585288
 20
2.3877379196
 40
0.0086625048
 50
270.0
 51
90.0
 73
1
 72
1
 10
17.0051585288
 20
2.3790754148
 11
16.9637955059
 21
2.3790754148
 97
267
330
2A0
330
2A1
330
2A2
330
2A3
330
2A4
330
2A5
330
2A6
330
2A7
330
2A8
330
2A9
330
2AA
330
2AB
330
2AC
330
2AD
330
2AE
330
2AF
330
2B0
330
2B1
330
2B2
330
2B3
330
2B4
330
2B5
330
2B6
330
2B7
330
2B8
330
2B9
330
2BA
330
2BB
330
2BC
330
2BD
330
2BE
330
2BF
330
2C0
330
2C1
330
2C2
330
2C3
330
2C4
330
2C5
330
2C6
330
2C7
330
2C8
330
2C9
330
2CA
330
2CB
330
2CC
330
2CD
330
2CE
330
2CF
330
2D0
330
2D1
330
2D2
330
2D3
330
2D4
330
2D5
330
2D6
330
2D7
330
2D8
330
2D9
330
2DA
330
2DB
330
2DC
330
2DD
330
2DE
330
2DF
330
2E0
330
2E1
330
2E2
330
2E3
330
2E4
330
2E5
330
2E6
330
2E7
330
2E8
330
2E9
330
2EA
330
2EB
330
2EC
330
2ED
330
2EE
330
2EF
330
2F0
330
2F1
330
2F2
330
2F3
330
2F4
330
2F5
330
2F6
330
2F7
330
2F8
330
2F9
330
2FA
330
2FB
330
2FC
330
2FD
330
2FE
330
2FF
330
300
330
301
330
302
330
303
330
304
330
305
330
306
330
307
330
308
330
309
330
30A
330
30B
330
30C
330
30D
330
30E
330
30F
330
310
330
311
330
312
330
313
330
314
330
315
330
316
330
317
330
318
330
319
330
31A
330
31B
330
31C
330
31D
330
31E
330
31F
330
320
330
321
330
322
330
323
330
324
330
325
330
326
330
327
330
328
330
329
330
32A
330
32B
330
32C
330
32D
330
32E
330
32F
330
330
330
331
330
332
330
333
330
334
330
335
330
336
330
337
330
338
330
339
330
33A
330
33B
330
33C
330
33D
330
33E
330
33F
330
340
330
341
330
342
330
343
330
344
330
345
330
346
330
347
330
348
330
349
330
34A
330
34B
330
34C
330
34D
330
34E
330
34F
330
350
330
351
330
352
330
353
330
354
330
355
330
356
330
357
330
358
330
359
330
35A
330
35B
330
35C
330
35D
330
35E
330
35F
330
360
330
361
330
362
330
363
330
364
330
365
330
366
330
367
330
368
330
369
330
36A
330
36B
330
36C
330
36D
330
36E
330
36F
330
370
330
371
330
372
330
373
330
374
330
375
330
376
330
377
330
378
330
379
330
37A
330
37B
330
37C
330
37D
330
37E
330
37F
330
380
330
381
330
382
330
383
330
384
330
385
330
386
330
387
330
388
330
389
330
38A
330
38B
330
38C
330
38D
330
38E
330
38F
330
390
330
391
330
392
330
393
330
394
330
395
330
396
330
397
330
398
330
399
330
39A
330
39B
330
39C
330
39D
330
39E
330
39F
330
3A0
330
3A1
330
3A2
330
3A3
330
3A4
330
3A5
330
3A6
330
3A7
330
3A8
330
3A9
330
3AA
 92
1
 93
13
 72
2
 10
18.1572301659
 20
2.415180433
 40
0.0024749995
 50
179.9999571957
 51
270.0000428043
 73
1
 72
1
 10
18.1547551663
 20
2.4151804348
 11
18.1547551663
 21
2.4279054419
 72
2
 10
18.1572301659
 20
2.4279054437
 40
0.0024749995
 50
89.9999571957
 51
180.0000428043
 73
1
 72
1
 10
18.1572301677
 20
2.4303804433
 11
18.1940311881
 21
2.4303804433
 72
2
 10
18.1924863006
 20
2.4019259643
 40
0.0284963867
 50
70.3834917948
 51
86.8922743861
 73
1
 72
2
 10
18.1973459106
 20
2.4149676972
 40
0.0145814632
 50
54.6746025112
 51
71.1660573124
 73
1
 72
2
 10
18.2024754016
 20
2.4218216224
 40
0.0060275915
 50
20.9055592135
 51
56.7851676243
 73
1
 72
2
 10
18.2037759605
 20
2.4224819047
 40
0.0045795888
 50
355.6235353944
 51
18.9942678268
 73
1
 72
2
 10
18.2025691502
 20
2.4227756809
 40
0.0058087709
 50
318.8515287446
 51
353.6422345323
 73
1
 72
2
 10
18.198398534
 20
2.4260095887
 40
0.0110815393
 50
306.758405961
 51
320.4502234234
 73
1
 72
2
 10
18.1927693431
 20
2.4337504172
 40
0.0206523367
 50
289.6883413472
 51
306.4184925496
 73
1
 72
2
 10
18.1908418374
 20
2.4381440645
 40
0.0254407115
 50
270.7327484175
 51
290.441894219
 73
1
 72
1
 10
18.1911671865
 20
2.4127054335
 11
18.1572301677
 21
2.4127054335
 97
267
330
2A0
330
2A1
330
2A2
330
2A3
330
2A4
330
2A5
330
2A6
330
2A7
330
2A8
330
2A9
330
2AA
330
2AB
330
2AC
330
2AD
330
2AE
330
2AF
330
2B0
330
2B1
330
2B2
330
2B3
330
2B4
330
2B5
330
2B6
330
2B7
330
2B8
330
2B9
330
2BA
330
2BB
330
2BC
330
2BD
330
2BE
330
2BF
330
2C0
330
2C1
330
2C2
330
2C3
330
2C4
330
2C5
330
2C6
330
2C7
330
2C8
330
2C9
330
2CA
330
2CB
330
2CC
330
2CD
330
2CE
330
2CF
330
2D0
330
2D1
330
2D2
330
2D3
330
2D4
330
2D5
330
2D6
330
2D7
330
2D8
330
2D9
330
2DA
330
2DB
330
2DC
330
2DD
330
2DE
330
2DF
330
2E0
330
2E1
330
2E2
330
2E3
330
2E4
330
2E5
330
2E6
330
2E7
330
2E8
330
2E9
330
2EA
330
2EB
330
2EC
330
2ED
330
2EE
330
2EF
330
2F0
330
2F1
330
2F2
330
2F3
330
2F4
330
2F5
330
2F6
330
2F7
330
2F8
330
2F9
330
2FA
330
2FB
330
2FC
330
2FD
330
2FE
330
2FF
330
300
330
301
330
302
330
303
330
304
330
305
330
306
330
307
330
308
330
309
330
30A
330
30B
330
30C
330
30D
330
30E
330
30F
330
310
330
311
330
312
330
313
330
314
330
315
330
316
330
317
330
318
330
319
330
31A
330
31B
330
31C
330
31D
330
31E
330
31F
330
320
330
321
330
322
330
323
330
324
330
325
330
326
330
327
330
328
330
329
330
32A
330
32B
330
32C
330
32D
330
32E
330
32F
330
330
330
331
330
332
330
333
330
334
330
335
330
336
330
337
330
338
330
339
330
33A
330
33B
330
33C
330
33D
330
33E
330
33F
330
340
330
341
330
342
330
343
330
344
330
345
330
346
330
347
330
348
330
349
330
34A
330
34B
330
34C
330
34D
330
34E
330
34F
330
350
330
351
330
352
330
353
330
354
330
355
330
356
330
357
330
358
330
359
330
35A
330
35B
330
35C
330
35D
330
35E
330
35F
330
360
330
361
330
362
330
363
330
364
330
365
330
366
330
367
330
368
330
369
330
36A
330
36B
330
36C
330
36D
330
36E
330
36F
330
370
330
371
330
372
330
373
330
374
330
375
330
376
330
377
330
378
330
379
330
37A
330
37B
330
37C
330
37D
330
37E
330
37F
330
380
330
381
330
382
330
383
330
384
330
385
330
386
330
387
330
388
330
389
330
38A
330
38B
330
38C
330
38D
330
38E
330
38F
330
390
330
391
330
392
330
393
330
394
330
395
330
396
330
397
330
398
330
399
330
39A
330
39B
330
39C
330
39D
330
39E
330
39F
330
3A0
330
3A1
330
3A2
330
3A3
330
3A4
330
3A5
330
3A6
330
3A7
330
3A8
330
3A9
330
3AA
 92
1
 93
6
 72
2
 10
17.0051585288
 20
2.4217179385
 40
0.0086625048
 50
270.0
 51
90.0
 73
1
 72
1
 10
17.0051585288
 20
2.4303804433
 11
16.9637955059
 21
2.4303804433
 72
2
 10
16.963795504
 20
2.4279054437
 40
0.0024749995
 50
89.9999571957
 51
180.0000428043
 73
1
 72
1
 10
16.9613205045
 20
2.4279054419
 11
16.9613205045
 21
2.415530435
 72
2
 10
16.963795504
 20
2.4155304332
 40
0.0024749995
 50
179.9999571957
 51
270.0000428043
 73
1
 72
1
 10
16.9637955059
 20
2.4130554337
 11
17.0051585288
 21
2.4130554337
 97
267
330
2A0
330
2A1
330
2A2
330
2A3
330
2A4
330
2A5
330
2A6
330
2A7
330
2A8
330
2A9
330
2AA
330
2AB
330
2AC
330
2AD
330
2AE
330
2AF
330
2B0
330
2B1
330
2B2
330
2B3
330
2B4
330
2B5
330
2B6
330
2B7
330
2B8
330
2B9
330
2BA
330
2BB
330
2BC
330
2BD
330
2BE
330
2BF
330
2C0
330
2C1
330
2C2
330
2C3
330
2C4
330
2C5
330
2C6
330
2C7
330
2C8
330
2C9
330
2CA
330
2CB
330
2CC
330
2CD
330
2CE
330
2CF
330
2D0
330
2D1
330
2D2
330
2D3
330
2D4
330
2D5
330
2D6
330
2D7
330
2D8
330
2D9
330
2DA
330
2DB
330
2DC
330
2DD
330
2DE
330
2DF
330
2E0
330
2E1
330
2E2
330
2E3
330
2E4
330
2E5
330
2E6
330
2E7
330
2E8
330
2E9
330
2EA
330
2EB
330
2EC
330
2ED
330
2EE
330
2EF
330
2F0
330
2F1
330
2F2
330
2F3
330
2F4
330
2F5
330
2F6
330
2F7
330
2F8
330
2F9
330
2FA
330
2FB
330
2FC
330
2FD
330
2FE
330
2FF
330
300
330
301
330
302
330
303
330
304
330
305
330
306
330
307
330
308
330
309
330
30A
330
30B
330
30C
330
30D
330
30E
330
30F
330
310
330
311
330
312
330
313
330
314
330
315
330
316
330
317
330
318
330
319
330
31A
330
31B
330
31C
330
31D
330
31E
330
31F
330
320
330
321
330
322
330
323
330
324
330
325
330
326
330
327
330
328
330
329
330
32A
330
32B
330
32C
330
32D
330
32E
330
32F
330
330
330
331
330
332
330
333
330
334
330
335
330
336
330
337
330
338
330
339
330
33A
330
33B
330
33C
330
33D
330
33E
330
33F
330
340
330
341
330
342
330
343
330
344
330
345
330
346
330
347
330
348
330
349
330
34A
330
34B
330
34C
330
34D
330
34E
330
34F
330
350
330
351
330
352
330
353
330
354
330
355
330
356
330
357
330
358
330
359
330
35A
330
35B
330
35C
330
35D
330
35E
330
35F
330
360
330
361
330
362
330
363
330
364
330
365
330
366
330
367
330
368
330
369
330
36A
330
36B
330
36C
330
36D
330
36E
330
36F
330
370
330
371
330
372
330
373
330
374
330
375
330
376
330
377
330
378
330
379
330
37A
330
37B
330
37C
330
37D
330
37E
330
37F
330
380
330
381
330
382
330
383
330
384
330
385
330
386
330
387
330
388
330
389
330
38A
330
38B
330
38C
330
38D
330
38E
330
38F
330
390
330
391
330
392
330
393
330
394
330
395
330
396
330
397
330
398
330
399
330
39A
330
39B
330
39C
330
39D
330
39E
330
39F
330
3A0
330
3A1
330
3A2
330
3A3
330
3A4
330
3A5
330
3A6
330
3A7
330
3A8
330
3A9
330
3AA
 92
1
 93
8
 72
2
 10
17.2090556207
 20
2.4161446411
 40
0.0024752071
 50
270.0004896793
 51
32.9089806818
 73
1
 72
1
 10
17.211133643
 20
2.4174894361
 11
17.203874639
 21
2.4287054423
 72
2
 10
17.2017960982
 20
2.4273609828
 40
0.0024754602
 50
32.8959418573
 51
89.9875097202
 73
1
 72
1
 10
17.2017966379
 20
2.429836443
 11
17.1956156344
 21
2.429836443
 72
2
 10
17.1956155641
 20
2.4273612427
 40
0.0024752003
 50
89.998372645
 51
147.6021653069
 73
1
 72
1
 10
17.1935256333
 20
2.4286874423
 11
17.1864086293
 21
2.4174704361
 72
2
 10
17.1884985212
 20
2.4161444741
 40
0.0024750401
 50
147.6063258012
 51
270.0025305753
 73
1
 72
1
 10
17.1884986305
 20
2.413669434
 11
17.2090556419
 21
2.413669434
 97
267
330
2A0
330
2A1
330
2A2
330
2A3
330
2A4
330
2A5
330
2A6
330
2A7
330
2A8
330
2A9
330
2AA
330
2AB
330
2AC
330
2AD
330
2AE
330
2AF
330
2B0
330
2B1
330
2B2
330
2B3
330
2B4
330
2B5
330
2B6
330
2B7
330
2B8
330
2B9
330
2BA
330
2BB
330
2BC
330
2BD
330
2BE
330
2BF
330
2C0
330
2C1
330
2C2
330
2C3
330
2C4
330
2C5
330
2C6
330
2C7
330
2C8
330
2C9
330
2CA
330
2CB
330
2CC
330
2CD
330
2CE
330
2CF
330
2D0
330
2D1
330
2D2
330
2D3
330
2D4
330
2D5
330
2D6
330
2D7
330
2D8
330
2D9
330
2DA
330
2DB
330
2DC
330
2DD
330
2DE
330
2DF
330
2E0
330
2E1
330
2E2
330
2E3
330
2E4
330
2E5
330
2E6
330
2E7
330
2E8
330
2E9
330
2EA
330
2EB
330
2EC
330
2ED
330
2EE
330
2EF
330
2F0
330
2F1
330
2F2
330
2F3
330
2F4
330
2F5
330
2F6
330
2F7
330
2F8
330
2F9
330
2FA
330
2FB
330
2FC
330
2FD
330
2FE
330
2FF
330
300
330
301
330
302
330
303
330
304
330
305
330
306
330
307
330
308
330
309
330
30A
330
30B
330
30C
330
30D
330
30E
330
30F
330
310
330
311
330
312
330
313
330
314
330
315
330
316
330
317
330
318
330
319
330
31A
330
31B
330
31C
330
31D
330
31E
330
31F
330
320
330
321
330
322
330
323
330
324
330
325
330
326
330
327
330
328
330
329
330
32A
330
32B
330
32C
330
32D
330
32E
330
32F
330
330
330
331
330
332
330
333
330
334
330
335
330
336
330
337
330
338
330
339
330
33A
330
33B
330
33C
330
33D
330
33E
330
33F
330
340
330
341
330
342
330
343
330
344
330
345
330
346
330
347
330
348
330
349
330
34A
330
34B
330
34C
330
34D
330
34E
330
34F
330
350
330
351
330
352
330
353
330
354
330
355
330
356
330
357
330
358
330
359
330
35A
330
35B
330
35C
330
35D
330
35E
330
35F
330
360
330
361
330
362
330
363
330
364
330
365
330
366
330
367
330
368
330
369
330
36A
330
36B
330
36C
330
36D
330
36E
330
36F
330
370
330
371
330
372
330
373
330
374
330
375
330
376
330
377
330
378
330
379
330
37A
330
37B
330
37C
330
37D
330
37E
330
37F
330
380
330
381
330
382
330
383
330
384
330
385
330
386
330
387
330
388
330
389
330
38A
330
38B
330
38C
330
38D
330
38E
330
38F
330
390
330
391
330
392
330
393
330
394
330
395
330
396
330
397
330
398
330
399
330
39A
330
39B
330
39C
330
39D
330
39E
330
39F
330
3A0
330
3A1
330
3A2
330
3A3
330
3A4
330
3A5
330
3A6
330
3A7
330
3A8
330
3A9
330
3AA
 92
1
 93
1
 72
3
 10
17.573550844
 20
2.4034764283
 11
-0.8250004575
 21
0.0
 40
0.218572
 50
0.0
 51
-0.0
 73
1
 97
267
330
2A0
330
2A1
330
2A2
330
2A3
330
2A4
330
2A5
330
2A6
330
2A7
330
2A8
330
2A9
330
2AA
330
2AB
330
2AC
330
2AD
330
2AE
330
2AF
330
2B0
330
2B1
330
2B2
330
2B3
330
2B4
330
2B5
330
2B6
330
2B7
330
2B8
330
2B9
330
2BA
330
2BB
330
2BC
330
2BD
330
2BE
330
2BF
330
2C0
330
2C1
330
2C2
330
2C3
330
2C4
330
2C5
330
2C6
330
2C7
330
2C8
330
2C9
330
2CA
330
2CB
330
2CC
330
2CD
330
2CE
330
2CF
330
2D0
330
2D1
330
2D2
330
2D3
330
2D4
330
2D5
330
2D6
330
2D7
330
2D8
330
2D9
330
2DA
330
2DB
330
2DC
330
2DD
330
2DE
330
2DF
330
2E0
330
2E1
330
2E2
330
2E3
330
2E4
330
2E5
330
2E6
330
2E7
330
2E8
330
2E9
330
2EA
330
2EB
330
2EC
330
2ED
330
2EE
330
2EF
330
2F0
330
2F1
330
2F2
330
2F3
330
2F4
330
2F5
330
2F6
330
2F7
330
2F8
330
2F9
330
2FA
330
2FB
330
2FC
330
2FD
330
2FE
330
2FF
330
300
330
301
330
302
330
303
330
304
330
305
330
306
330
307
330
308
330
309
330
30A
330
30B
330
30C
330
30D
330
30E
330
30F
330
310
330
311
330
312
330
313
330
314
330
315
330
316
330
317
330
318
330
319
330
31A
330
31B
330
31C
330
31D
330
31E
330
31F
330
320
330
321
330
322
330
323
330
324
330
325
330
326
330
327
330
328
330
329
330
32A
330
32B
330
32C
330
32D
330
32E
330
32F
330
330
330
331
330
332
330
333
330
334
330
335
330
336
330
337
330
338
330
339
330
33A
330
33B
330
33C
330
33D
330
33E
330
33F
330
340
330
341
330
342
330
343
330
344
330
345
330
346
330
347
330
348
330
349
330
34A
330
34B
330
34C
330
34D
330
34E
330
34F
330
350
330
351
330
352
330
353
330
354
330
355
330
356
330
357
330
358
330
359
330
35A
330
35B
330
35C
330
35D
330
35E
330
35F
330
360
330
361
330
362
330
363
330
364
330
365
330
366
330
367
330
368
330
369
330
36A
330
36B
330
36C
330
36D
330
36E
330
36F
330
370
330
371
330
372
330
373
330
374
330
375
330
376
330
377
330
378
330
379
330
37A
330
37B
330
37C
330
37D
330
37E
330
37F
330
380
330
381
330
382
330
383
330
384
330
385
330
386
330
387
330
388
330
389
330
38A
330
38B
330
38C
330
38D
330
38E
330
38F
330
390
330
391
330
392
330
393
330
394
330
395
330
396
330
397
330
398
330
399
330
39A
330
39B
330
39C
330
39D
330
39E
330
39F
330
3A0
330
3A1
330
3A2
330
3A3
330
3A4
330
3A5
330
3A6
330
3A7
330
3A8
330
3A9
330
3AA
 75
0
 76
1
 98
1
 10
0.0
 20
0.0
  0
LINE
  5
3AC
100
AcDbEntity
  8
0
100
AcDbLine
 62
7
  6
CONTINUOUS
 10
21.05
 20
2.67
 11
14.7
 21
2.67
  0
LINE
  5
3AD
100
AcDbEntity
  8
0
100
AcDbLine
 62
7
  6
CONTINUOUS
 10
6.007
 20
0.75
 11
6.007
 21
0.5
  0
LINE
  5
3AE
100
AcDbEntity
  8
0
100
AcDbLine
 62
7
  6
CONTINUOUS
 10
6.007
 20
15.75
 11
6.007
 21
16.0
  0
LINE
  5
3AF
100
AcDbEntity
  8
0
100
AcDbLine
 62
7
  6
CONTINUOUS
 10
0.814
 20
8.163397
 11
0.964
 21
8.25
  0
LINE
  5
3B0
100
AcDbEntity
  8
0
100
AcDbLine
 62
7
  6
CONTINUOUS
 10
0.964
 20
8.25
 11
0.814
 21
8.336603
  0
LINE
  5
3B1
100
AcDbEntity
  8
0
100
AcDbLine
 62
7
  6
CONTINUOUS
 10
0.964
 20
4.4
 11
0.714
 21
4.4
  0
LINE
  5
3B2
100
AcDbEntity
  8
0
100
AcDbLine
 62
7
  6
CONTINUOUS
 10
21.05
 20
4.4
 11
21.3
 21
4.4
  0
LINE
  5
3B3
100
AcDbEntity
  8
0
100
AcDbLine
 62
7
  6
CONTINUOUS
 10
11.093603
 20
0.6
 11
11.007
 21
0.75
  0
LINE
  5
3B4
100
AcDbEntity
  8
0
100
AcDbLine
 62
7
  6
CONTINUOUS
 10
11.007
 20
15.75
 11
11.093603
 21
15.9
  0
LINE
  5
3B5
100
AcDbEntity
  8
0
100
AcDbLine
 62
7
  6
CONTINUOUS
 10
8.507
 20
0.75
 11
8.507
 21
0.5
  0
LINE
  5
3B6
100
AcDbEntity
  8
0
100
AcDbLine
 62
7
  6
CONTINUOUS
 10
8.507
 20
15.75
 11
8.507
 21
16.0
  0
LINE
  5
3B7
100
AcDbEntity
  8
0
100
AcDbLine
 62
7
  6
CONTINUOUS
 10
11.007
 20
0.75
 11
11.007
 21
0.5
  0
LINE
  5
3B8
100
AcDbEntity
  8
0
100
AcDbLine
 62
7
  6
CONTINUOUS
 10
11.007
 20
15.75
 11
11.007
 21
16.0
  0
LINE
  5
3B9
100
AcDbEntity
  8
0
100
AcDbLine
 62
7
  6
CONTINUOUS
 10
0.964
 20
8.25
 11
0.714
 21
8.25
  0
LINE
  5
3BA
100
AcDbEntity
  8
0
100
AcDbLine
 62
7
  6
CONTINUOUS
 10
21.05
 20
8.25
 11
21.3
 21
8.25
  0
LINE
  5
3BB
100
AcDbEntity
  8
0
100
AcDbLine
 62
7
  6
CONTINUOUS
 10
13.507
 20
0.75
 11
13.507
 21
0.5
  0
LINE
  5
3BC
100
AcDbEntity
  8
0
100
AcDbLine
 62
7
  6
CONTINUOUS
 10
13.507
 20
15.75
 11
13.507
 21
16.0
  0
LINE
  5
3BD
100
AcDbEntity
  8
0
100
AcDbLine
 62
7
  6
CONTINUOUS
 10
14.7
 20
2.67
 11
14.7
 21
0.75
  0
LINE
  5
3BE
100
AcDbEntity
  8
0
100
AcDbLine
 62
7
  6
CONTINUOUS
 10
11.007
 20
0.75
 11
10.920397
 21
0.6
  0
LINE
  5
3BF
100
AcDbEntity
  8
0
100
AcDbLine
 62
7
  6
CONTINUOUS
 10
0.964
 20
12.1
 11
0.714
 21
12.1
  0
LINE
  5
3C0
100
AcDbEntity
  8
0
100
AcDbLine
 62
7
  6
CONTINUOUS
 10
21.05
 20
12.1
 11
21.3
 21
12.1
  0
LINE
  5
3C1
100
AcDbEntity
  8
0
100
AcDbLine
 62
7
  6
CONTINUOUS
 10
10.920397
 20
15.9
 11
11.007
 21
15.75
  0
LINE
  5
3C2
100
AcDbEntity
  8
0
100
AcDbLine
 62
7
  6
CONTINUOUS
 10
15.2229827477
 20
1.0139932523
 11
15.2229827477
 21
0.7919022523
  0
LINE
  5
3C3
100
AcDbEntity
  8
0
100
AcDbLine
 62
7
  6
CONTINUOUS
 10
15.2229827477
 20
1.0639932523
 11
15.2229827477
 21
1.1639932523
  0
LINE
  5
3C4
100
AcDbEntity
  8
0
100
AcDbLine
 62
7
  6
CONTINUOUS
 10
15.2229827477
 20
1.2139932523
 11
15.2229827477
 21
1.4360842523
  0
LINE
  5
3C5
100
AcDbEntity
  8
0
100
AcDbLine
 62
7
  6
CONTINUOUS
 10
15.8276527477
 20
0.9312952523
 11
15.8276527477
 21
1.2966912523
  0
LINE
  5
3C6
100
AcDbEntity
  8
0
100
AcDbLine
 62
7
  6
CONTINUOUS
 10
16.007
 20
0.75
 11
16.007
 21
0.5
  0
LINE
  5
3C7
100
AcDbEntity
  8
0
100
AcDbLine
 62
7
  6
CONTINUOUS
 10
16.007
 20
15.75
 11
16.007
 21
16.0
  0
LINE
  5
3C8
100
AcDbEntity
  8
0
100
AcDbLine
 62
7
  6
CONTINUOUS
 10
16.4340437477
 20
1.3660842523
 11
16.4340437477
 21
0.8619022523
  0
LINE
  5
3C9
100
AcDbEntity
  8
0
100
AcDbLine
 62
7
  6
CONTINUOUS
 10
21.2
 20
8.336603
 11
21.05
 21
8.25
  0
LINE
  5
3CA
100
AcDbEntity
  8
0
100
AcDbLine
 62
7
  6
CONTINUOUS
 10
21.05
 20
8.25
 11
21.2
 21
8.163397
  0
LINE
  5
3CB
100
AcDbEntity
  8
0
100
AcDbLine
 62
7
  6
CONTINUOUS
 10
16.7
 20
2.67
 11
16.7
 21
0.75
  0
LINE
  5
3CC
100
AcDbEntity
  8
0
100
AcDbLine
 62
7
  6
CONTINUOUS
 10
17.5
 20
1.37
 11
17.5
 21
1.0
  0
LINE
  5
3CD
100
AcDbEntity
  8
0
100
AcDbLine
 62
7
  6
CONTINUOUS
 10
18.507
 20
0.75
 11
18.507
 21
0.5
  0
LINE
  5
3CE
100
AcDbEntity
  8
0
100
AcDbLine
 62
7
  6
CONTINUOUS
 10
18.507
 20
15.75
 11
18.507
 21
16.0
  0
LINE
  5
3CF
100
AcDbEntity
  8
0
100
AcDbLine
 62
7
  6
CONTINUOUS
 10
21.05
 20
15.75
 11
0.964
 21
15.75
  0
LINE
  5
3D0
100
AcDbEntity
  8
0
100
AcDbLine
 62
7
  6
CONTINUOUS
 10
11.093603
 20
15.9
 11
10.920397
 21
15.9
  0
LINE
  5
3D1
100
AcDbEntity
  8
0
100
AcDbLine
 62
7
  6
CONTINUOUS
 10
18.875
 20
1.0
 11
18.875
 21
0.75
  0
LINE
  5
3D2
100
AcDbEntity
  8
0
100
AcDbLine
 62
7
  6
CONTINUOUS
 10
20.25
 20
1.37
 11
20.25
 21
1.0
  0
LINE
  5
3D3
100
AcDbEntity
  8
0
100
AcDbLine
 62
7
  6
CONTINUOUS
 10
21.05
 20
0.75
 11
21.05
 21
15.75
  0
LINE
  5
3D4
100
AcDbEntity
  8
0
100
AcDbLine
 62
7
  6
CONTINUOUS
 10
21.2
 20
8.163397
 11
21.2
 21
8.336603
  0
LINE
  5
3D5
100
AcDbEntity
  8
02___PRT_ALL_AXES
100
AcDbLine
 62
7
  6
CONTINUOUS
 10
7.7378340503
 20
5.357188742
 11
7.5228340503
 21
5.357188742
  0
LINE
  5
3D6
100
AcDbEntity
  8
0
100
AcDbLine
 62
7
  6
CONTINUOUS
 10
8.0091077167
 20
13.9426680121
 11
8.0100441873
 21
13.9429380055
  0
LINE
  5
3D7
100
AcDbEntity
  8
0
100
AcDbLine
 62
7
  6
CONTINUOUS
 10
6.7142767753
 20
13.3788109339
 11
7.266160822
 21
13.6361586913
  0
LWPOLYLINE
  5
3D8
100
AcDbEntity
  8
0
100
AcDbPolyline
 62
7
  6
CONTINUOUS
 90
3
 70
0
 10
8.017416009
 20
13.9438343324
 10
8.0080296553
 20
13.9407109262
 10
8.0052410605
 20
13.939808571
  0
LWPOLYLINE
  5
3D9
100
AcDbEntity
  8
0
100
AcDbPolyline
 62
7
  6
CONTINUOUS
 90
6
 70
0
 10
8.1355833942
 20
6.8351414979
 10
8.1450458568
 20
6.836683025
 10
8.1535820677
 20
6.8411567107
 10
8.160356443
 20
6.8481246396
 10
8.1647058597
 20
6.8569047422
 10
8.1662045665
 20
6.8666375609
  0
LWPOLYLINE
  5
3DA
100
AcDbEntity
  8
0
100
AcDbPolyline
 62
7
  6
CONTINUOUS
 90
18
 70
0
 10
8.171672633
 20
6.9506551551
 10
8.1476357506
 20
6.9491214791
 10
8.1097791962
 20
6.9475851635
 10
8.0596792395
 20
6.9460634628
 10
7.9984710107
 20
6.9445445395
 10
7.9276252987
 20
6.9430247271
 10
7.8486290447
 20
6.9414975938
 10
7.7643243372
 20
6.9399782264
 10
7.6761293321
 20
6.938452074
 10
7.5870250765
 20
6.9369309768
 10
7.4991628331
 20
6.9354118138
 10
7.4147018275
 20
6.9338923148
 10
7.3350982611
 20
6.9323573527
 10
7.2633534771
 20
6.9308224368
 10
7.2019841852
 20
6.9293040695
 10
7.151642771
 20
6.9277813462
 10
7.1133822951
 20
6.9262362795
 10
7.0889954677
 20
6.9246853593
  0
LWPOLYLINE
  5
3DB
100
AcDbEntity
  8
0
100
AcDbPolyline
 62
7
  6
CONTINUOUS
 90
18
 70
0
 10
7.0944635342
 20
6.8767320824
 10
7.1216895905
 20
6.8782283023
 10
7.1615097304
 20
6.8797158176
 10
7.2122878393
 20
6.8811834588
 10
7.2731519349
 20
6.8826491641
 10
7.3433670969
 20
6.8841285068
 10
7.4206941081
 20
6.8856081707
 10
7.5024731247
 20
6.8870749871
 10
7.587533733
 20
6.8885447762
 10
7.6733986555
 20
6.8900104566
 10
7.7584934994
 20
6.8914809589
 10
7.8402601184
 20
6.8929478179
 10
7.9175288292
 20
6.8944267566
 10
7.987641352
 20
6.8959043516
 10
8.0484703212
 20
6.8973696103
 10
8.0992285152
 20
6.89883717
 10
8.1390124405
 20
6.9003239124
 10
8.1662045665
 20
6.90181863
  0
LWPOLYLINE
  5
3DC
100
AcDbEntity
  8
0
100
AcDbPolyline
 62
7
  6
CONTINUOUS
 90
16
 70
0
 10
7.0889954677
 20
6.8986857804
 10
7.1308985394
 20
6.9001586962
 10
7.1850418801
 20
6.9016316121
 10
7.2500985334
 20
6.9031045279
 10
7.3244740774
 20
6.9045774438
 10
7.4063457009
 20
6.9060503596
 10
7.4937068773
 20
6.9075232754
 10
7.5844165407
 20
6.9089961913
 10
7.67625156
 20
6.9104691071
 10
7.7669612234
 20
6.911942023
 10
7.8543223997
 20
6.9134149388
 10
7.9361940233
 20
6.9148878547
 10
8.0105695673
 20
6.9163607705
 10
8.0756262206
 20
6.9178336864
 10
8.1297695613
 20
6.9193066022
 10
8.171672633
 20
6.9207795181
  0
LWPOLYLINE
  5
3DD
100
AcDbEntity
  8
0
100
AcDbPolyline
 62
7
  6
CONTINUOUS
 90
4
 70
0
 10
8.1662045665
 20
6.90181863
 10
8.1692312547
 20
6.9018567854
 10
8.1710623727
 20
6.9014413926
 10
8.171672633
 20
6.9005742996
  0
LINE
  5
3DE
100
AcDbEntity
  8
0
100
AcDbLine
 62
7
  6
CONTINUOUS
 10
8.14017657
 20
6.8351414979
 11
7.1204915307
 21
6.8351414979
  0
LINE
  5
3DF
100
AcDbEntity
  8
0
100
AcDbLine
 62
7
  6
CONTINUOUS
 10
8.171672633
 20
6.8666375609
 11
7.0889954677
 21
6.8666375609
  0
LWPOLYLINE
  5
3E0
100
AcDbEntity
  8
0
100
AcDbPolyline
 62
7
  6
CONTINUOUS
 90
6
 70
0
 10
7.1250847065
 20
6.8351414979
 10
7.1156222439
 20
6.836683025
 10
7.107086033
 20
6.8411567107
 10
7.1003116577
 20
6.8481246396
 10
7.095962241
 20
6.8569047422
 10
7.0944635342
 20
6.8666375609
  0
LINE
  5
3E1
100
AcDbEntity
  8
0
100
AcDbLine
 62
7
  6
CONTINUOUS
 10
8.0092163291
 20
13.9427414034
 11
8.0092219582
 21
13.9427448021
  0
LWPOLYLINE
  5
3E2
100
AcDbEntity
  8
0
100
AcDbPolyline
 62
7
  6
CONTINUOUS
 90
3
 70
0
 10
8.0092219582
 20
13.9427448021
 10
8.0096814625
 20
13.9430107349
 10
8.0099033899
 20
13.9431289643
  0
LWPOLYLINE
  5
3E3
100
AcDbEntity
  8
0
100
AcDbPolyline
 62
7
  6
CONTINUOUS
 90
6
 70
0
 10
8.0092219582
 20
13.9427448021
 10
8.0120104279
 20
13.9442667523
 10
8.0155883531
 20
13.9457919547
 10
8.0193131364
 20
13.9469310837
 10
8.0231456495
 20
13.9476721731
 10
8.0270456327
 20
13.9480074378
  0
LWPOLYLINE
  5
3E4
100
AcDbEntity
  8
0
100
AcDbPolyline
 62
7
  6
CONTINUOUS
 90
4
 70
0
 10
8.0270456327
 20
13.9480074378
 10
8.024506113
 20
13.9466480827
 10
8.0213105006
 20
13.945256561
 10
8.017416009
 20
13.9438343324
  0
LWPOLYLINE
  5
3E5
100
AcDbEntity
  8
0
100
AcDbPolyline
 62
7
  6
CONTINUOUS
 90
5
 70
0
 10
7.2590128931
 20
13.4151674333
 10
7.2588855438
 20
13.4151124101
 10
7.255513899
 20
13.4141000909
 10
7.2519848929
 20
13.413459482
 10
7.2483362428
 20
13.4131974303
  0
LWPOLYLINE
  5
3E6
100
AcDbEntity
  8
0
100
AcDbPolyline
 62
7
  6
CONTINUOUS
 90
18
 70
0
 10
8.171672633
 20
7.0097102732
 10
8.1479487231
 20
7.0081920927
 10
8.1107921973
 20
7.0066754136
 10
8.0611503306
 20
7.005158691
 10
7.9999098909
 20
7.0036326777
 10
7.9287973103
 20
7.0021035983
 10
7.8505247786
 20
7.0005879459
 10
7.7665671576
 20
6.9990727934
 10
7.6779099632
 20
6.9975376656
 10
7.5875135055
 20
6.9959944493
 10
7.4989925627
 20
6.9944639424
 10
7.4146618652
 20
6.9929466924
 10
7.3347936939
 20
6.9914063192
 10
7.2624941998
 20
6.9898578982
 10
7.2006361003
 20
6.9883225709
 10
7.150832744
 20
6.9868085273
 10
7.1131407129
 20
6.9852795024
 10
7.0889954677
 20
6.9837404774
  0
LWPOLYLINE
  5
3E7
100
AcDbEntity
  8
0
100
AcDbPolyline
 62
7
  6
CONTINUOUS
 90
18
 70
0
 10
8.171672633
 20
7.1868756275
 10
8.1479415555
 20
7.1853570914
 10
8.110493812
 20
7.1838303954
 10
8.0606871955
 20
7.1823113946
 10
7.999541843
 20
7.1807895759
 10
7.9288598626
 20
7.1792702214
 10
7.8504854503
 20
7.1777525687
 10
7.7664169894
 20
7.1762355051
 10
7.6780429783
 20
7.1747052966
 10
7.5883138242
 20
7.1731734916
 10
7.5005507749
 20
7.1716566463
 10
7.4161114072
 20
7.1701388901
 10
7.3361542455
 20
7.1685991339
 10
7.2637683998
 20
7.1670523879
 10
7.2018317635
 20
7.1655204107
 10
7.1515401289
 20
7.1639982867
 10
7.1133474264
 20
7.1624550376
 10
7.0889954677
 20
7.1609058317
  0
LWPOLYLINE
  5
3E8
100
AcDbEntity
  8
0
100
AcDbPolyline
 62
7
  6
CONTINUOUS
 90
18
 70
0
 10
8.171672633
 20
7.0687653913
 10
8.147539573
 20
7.0672269674
 10
8.1098777194
 20
7.0656988064
 10
8.0600944249
 20
7.0641849976
 10
7.9982489349
 20
7.0626496887
 10
7.9259632233
 20
7.0611013438
 10
7.8461103026
 20
7.0595611047
 10
7.7617794029
 20
7.05804375
 10
7.673212391
 20
7.0565124079
 10
7.5827870559
 20
7.0549686981
 10
7.4941216402
 20
7.0534334395
 10
7.4101721509
 20
7.051918459
 10
7.3318829821
 20
7.0504025177
 10
7.2607491021
 20
7.0488729817
 10
7.1995054841
 20
7.0473468418
 10
7.1498709635
 20
7.0458302832
 10
7.1127252505
 20
7.0443140674
 10
7.0889954677
 20
7.0427955955
  0
LWPOLYLINE
  5
3E9
100
AcDbEntity
  8
0
100
AcDbPolyline
 62
7
  6
CONTINUOUS
 90
18
 70
0
 10
8.171672633
 20
7.2459307456
 10
8.1477712895
 20
7.2444037717
 10
8.1105868513
 20
7.2428887456
 10
8.0609657707
 20
7.2413741195
 10
7.9994674919
 20
7.2398429866
 10
7.9277364772
 20
7.2383025692
 10
7.8486414744
 20
7.2367734152
 10
7.7646139682
 20
7.2352589089
 10
7.6757463687
 20
7.2337211117
 10
7.5850615479
 20
7.232172976
 10
7.4961929059
 20
7.2306352264
 10
7.4121487514
 20
7.2291205481
 10
7.3330019503
 20
7.2275905506
 10
7.2612388599
 20
7.2260495871
 10
7.1997273777
 20
7.2245182602
 10
7.1501049511
 20
7.2230037734
 10
7.1129066951
 20
7.2214884129
 10
7.0889954677
 20
7.2199609499
  0
LWPOLYLINE
  5
3EA
100
AcDbEntity
  8
0
100
AcDbPolyline
 62
7
  6
CONTINUOUS
 90
18
 70
0
 10
7.0889954677
 20
6.9353455765
 10
7.1133322196
 20
6.9368940344
 10
7.151511717
 20
6.9384370533
 10
7.2017583395
 20
6.9399581645
 10
7.2629437758
 20
6.9414732862
 10
7.3343289865
 20
6.9430020273
 10
7.4136651608
 20
6.944533315
 10
7.497988503
 20
6.946051408
 10
7.585931206
 20
6.9475724816
 10
7.6747696548
 20
6.9490890275
 10
7.7627151008
 20
6.9506101643
 10
7.8470353664
 20
6.952128235
 10
7.9263638088
 20
6.9536594205
 10
7.9977406041
 20
6.9551880348
 10
8.0589233884
 20
6.9567031537
 10
8.1091649113
 20
6.9582241889
 10
8.1473386801
 20
6.959767052
 10
8.171672633
 20
6.9613153722
  0
LWPOLYLINE
  5
3EB
100
AcDbEntity
  8
0
100
AcDbPolyline
 62
7
  6
CONTINUOUS
 90
18
 70
0
 10
7.0889954677
 20
6.9944006946
 10
7.1133156999
 20
6.9959483398
 10
7.1514756861
 20
6.9974909308
 10
7.2017103936
 20
6.9990119823
 10
7.2628822014
 20
7.0005269958
 10
7.3342185426
 20
7.0020549127
 10
7.4135244179
 20
7.0035858229
 10
7.4978395449
 20
7.0051039094
 10
7.5857978412
 20
7.0066253181
 10
7.6746374564
 20
7.008141884
 10
7.7625668371
 20
7.009662678
 10
7.8468947936
 20
7.0111807462
 10
7.926253066
 20
7.0127123001
 10
7.9976783687
 20
7.0142417293
 10
8.0588762987
 20
7.0157569949
 10
8.1091294399
 20
7.0172780859
 10
8.1473223828
 20
7.0188213685
 10
8.171672633
 20
7.0203704903
  0
LWPOLYLINE
  5
3EC
100
AcDbEntity
  8
0
100
AcDbPolyline
 62
7
  6
CONTINUOUS
 90
18
 70
0
 10
7.0889954677
 20
7.0534558127
 10
7.1132999036
 20
7.0550026806
 10
7.1514418076
 20
7.0565448822
 10
7.2016666495
 20
7.0580659138
 10
7.2628296142
 20
7.0595809107
 10
7.3341201362
 20
7.0611080411
 10
7.4133987537
 20
7.0626386101
 10
7.497708498
 20
7.0641567253
 10
7.5856850754
 20
7.065678507
 10
7.6745313059
 20
7.0671951861
 10
7.7624459891
 20
7.0687156735
 10
7.8467823932
 20
7.0702337801
 10
7.9261701812
 20
7.071765743
 10
7.9976419694
 20
7.0732960149
 10
8.058854362
 20
7.0748115182
 10
8.1091138311
 20
7.0763326667
 10
8.1473154324
 20
7.0778761448
 10
8.171672633
 20
7.0794256084
  0
LWPOLYLINE
  5
3ED
100
AcDbEntity
  8
0
100
AcDbPolyline
 62
7
  6
CONTINUOUS
 90
18
 70
0
 10
8.171672633
 20
7.1278205094
 10
8.1472828365
 20
7.1262694432
 10
8.1090217135
 20
7.1247243981
 10
8.0586798069
 20
7.1232016879
 10
7.997294888
 20
7.1216829808
 10
7.9255162032
 20
7.1201474329
 10
7.8458946601
 20
7.118612227
 10
7.7614325956
 20
7.117092779
 10
7.6735852362
 20
7.1155739034
 10
7.5844557006
 20
7.1140523732
 10
7.4962484894
 20
7.1125259674
 10
7.4119514249
 20
7.1110066474
 10
7.3329794421
 20
7.1094798585
 10
7.2621557361
 20
7.1079603816
 10
7.2009475259
 20
7.1064412818
 10
7.1508571981
 20
7.1049196091
 10
7.1130168059
 20
7.1033836217
 10
7.0889954677
 20
7.1018507136
  0
LWPOLYLINE
  5
3EE
100
AcDbEntity
  8
0
100
AcDbPolyline
 62
7
  6
CONTINUOUS
 90
18
 70
0
 10
7.0889954677
 20
7.1125109308
 10
7.1133403864
 20
7.1140597904
 10
7.1515295037
 20
7.11560302
 10
7.2017819552
 20
7.1171241592
 10
7.2629748724
 20
7.1186393519
 10
7.3343843285
 20
7.1201685003
 10
7.4137354647
 20
7.1216999731
 10
7.4980627009
 20
7.1232180657
 10
7.58599737
 20
7.1247389679
 10
7.6748362711
 20
7.1262555215
 10
7.7627895155
 20
7.1277768259
 10
7.8471057218
 20
7.1292948942
 10
7.9264190616
 20
7.1308258919
 10
7.9977714119
 20
7.1323540939
 10
8.0589472895
 20
7.1338691563
 10
8.1091828764
 20
7.1353901618
 10
8.1473469224
 20
7.1369328118
 10
8.171672633
 20
7.1384807265
  0
LWPOLYLINE
  5
3EF
100
AcDbEntity
  8
0
100
AcDbPolyline
 62
7
  6
CONTINUOUS
 90
18
 70
0
 10
7.0889954677
 20
7.1715660489
 10
7.1133239908
 20
7.173114102
 10
7.1514937778
 20
7.1746569081
 10
7.2017344855
 20
7.17617799
 10
7.2629128856
 20
7.177693052
 10
7.3342737246
 20
7.1792213826
 10
7.413594812
 20
7.1807524828
 10
7.4979141178
 20
7.1822705738
 10
7.5858646963
 20
7.1837918162
 10
7.6747033832
 20
7.1853083661
 10
7.7626408748
 20
7.1868293329
 10
7.8469650571
 20
7.1883474035
 10
7.926308477
 20
7.1898787745
 10
7.9977095897
 20
7.1914077978
 10
8.0588997246
 20
7.1929229844
 10
8.1091470992
 20
7.1944440481
 10
8.1473305002
 20
7.195987122
 10
8.171672633
 20
7.1975358446
  0
LWPOLYLINE
  5
3F0
100
AcDbEntity
  8
0
100
AcDbPolyline
 62
7
  6
CONTINUOUS
 90
16
 70
0
 10
7.0889954677
 20
6.9061660953
 10
7.1308985394
 20
6.9076390112
 10
7.1850418801
 20
6.909111927
 10
7.2500985334
 20
6.9105848429
 10
7.3244740774
 20
6.9120577587
 10
7.4063457009
 20
6.9135306746
 10
7.4937068773
 20
6.9150035904
 10
7.5844165407
 20
6.9164765063
 10
7.67625156
 20
6.9179494221
 10
7.7669612234
 20
6.9194223379
 10
7.8543223997
 20
6.9208952538
 10
7.9361940233
 20
6.9223681696
 10
8.0105695673
 20
6.9238410855
 10
8.0756262206
 20
6.9253140013
 10
8.1297695613
 20
6.9267869172
 10
8.171672633
 20
6.928259833
  0
LWPOLYLINE
  5
3F1
100
AcDbEntity
  8
0
100
AcDbPolyline
 62
7
  6
CONTINUOUS
 90
16
 70
0
 10
7.0889954677
 20
6.9577408985
 10
7.1308985394
 20
6.9592138143
 10
7.1850418801
 20
6.9606867302
 10
7.2500985334
 20
6.962159646
 10
7.3244740774
 20
6.9636325619
 10
7.4063457009
 20
6.9651054777
 10
7.4937068773
 20
6.9665783936
 10
7.5844165407
 20
6.9680513094
 10
7.67625156
 20
6.9695242252
 10
7.7669612234
 20
6.9709971411
 10
7.8543223997
 20
6.9724700569
 10
7.9361940233
 20
6.9739429728
 10
8.0105695673
 20
6.9754158886
 10
8.0756262206
 20
6.9768888045
 10
8.1297695613
 20
6.9783617203
 10
8.171672633
 20
6.9798346362
  0
LWPOLYLINE
  5
3F2
100
AcDbEntity
  8
0
100
AcDbPolyline
 62
7
  6
CONTINUOUS
 90
16
 70
0
 10
7.0889954677
 20
6.9652212135
 10
7.1308985394
 20
6.9666941293
 10
7.1850418801
 20
6.9681670451
 10
7.2500985334
 20
6.969639961
 10
7.3244740774
 20
6.9711128768
 10
7.4063457009
 20
6.9725857927
 10
7.4937068773
 20
6.9740587085
 10
7.5844165407
 20
6.9755316244
 10
7.67625156
 20
6.9770045402
 10
7.7669612234
 20
6.9784774561
 10
7.8543223997
 20
6.9799503719
 10
7.9361940233
 20
6.9814232877
 10
8.0105695673
 20
6.9828962036
 10
8.0756262206
 20
6.9843691194
 10
8.1297695613
 20
6.9858420353
 10
8.171672633
 20
6.9873149511
  0
LWPOLYLINE
  5
3F3
100
AcDbEntity
  8
0
100
AcDbPolyline
 62
7
  6
CONTINUOUS
 90
11
 70
0
 10
7.0889954677
 20
7.0167960166
 10
7.1308985394
 20
7.0182689324
 10
7.1850418801
 20
7.0197418483
 10
7.2500985334
 20
7.0212147641
 10
7.3244740774
 20
7.02268768
 10
7.4063457009
 20
7.0241605958
 10
7.4937068773
 20
7.0256335117
 10
7.5844165407
 20
7.0271064275
 10
7.67625156
 20
7.0285793434
 10
7.7669612234
 20
7.0300522592
 10
7.8543223997
 20
7.031525175
  0
LWPOLYLINE
  5
3F4
100
AcDbEntity
  8
0
100
AcDbPolyline
 62
7
  6
CONTINUOUS
 90
5
 70
0
 10
7.0889954677
 20
7.0242763316
 10
7.1308985394
 20
7.0257492474
 10
7.1850418801
 20
7.0272221633
 10
7.2500985334
 20
7.0286950791
 10
7.3244740774
 20
7.0301679949
  0
LWPOLYLINE
  5
3F5
100
AcDbEntity
  8
0
100
AcDbPolyline
 62
7
  6
CONTINUOUS
 90
16
 70
0
 10
7.0889954677
 20
7.0758511347
 10
7.1308985394
 20
7.0773240506
 10
7.1850418801
 20
7.0787969664
 10
7.2500985334
 20
7.0802698822
 10
7.3244740774
 20
7.0817427981
 10
7.4063457009
 20
7.0832157139
 10
7.4937068773
 20
7.0846886298
 10
7.5844165407
 20
7.0861615456
 10
7.67625156
 20
7.0876344615
 10
7.7669612234
 20
7.0891073773
 10
7.8543223997
 20
7.0905802932
 10
7.9361940233
 20
7.092053209
 10
8.0105695673
 20
7.0935261248
 10
8.0756262206
 20
7.0949990407
 10
8.1297695613
 20
7.0964719565
 10
8.171672633
 20
7.0979448724
  0
LWPOLYLINE
  5
3F6
100
AcDbEntity
  8
0
100
AcDbPolyline
 62
7
  6
CONTINUOUS
 90
16
 70
0
 10
7.0889954677
 20
7.0833314497
 10
7.1308985394
 20
7.0848043655
 10
7.1850418801
 20
7.0862772814
 10
7.2500985334
 20
7.0877501972
 10
7.3244740774
 20
7.0892231131
 10
7.4063457009
 20
7.0906960289
 10
7.4937068773
 20
7.0921689447
 10
7.5844165407
 20
7.0936418606
 10
7.67625156
 20
7.0951147764
 10
7.7669612234
 20
7.0965876923
 10
7.8543223997
 20
7.0980606081
 10
7.9361940233
 20
7.099533524
 10
8.0105695673
 20
7.1010064398
 10
8.0756262206
 20
7.1024793557
 10
8.1297695613
 20
7.1039522715
 10
8.171672633
 20
7.1054251873
  0
LWPOLYLINE
  5
3F7
100
AcDbEntity
  8
0
100
AcDbPolyline
 62
7
  6
CONTINUOUS
 90
16
 70
0
 10
7.0889954677
 20
7.1349062528
 10
7.1308985394
 20
7.1363791687
 10
7.1850418801
 20
7.1378520845
 10
7.2500985334
 20
7.1393250004
 10
7.3244740774
 20
7.1407979162
 10
7.4063457009
 20
7.142270832
 10
7.4937068773
 20
7.1437437479
 10
7.5844165407
 20
7.1452166637
 10
7.67625156
 20
7.1466895796
 10
7.7669612234
 20
7.1481624954
 10
7.8543223997
 20
7.1496354113
 10
7.9361940233
 20
7.1511083271
 10
8.0105695673
 20
7.152581243
 10
8.0756262206
 20
7.1540541588
 10
8.1297695613
 20
7.1555270746
 10
8.171672633
 20
7.1569999905
  0
LWPOLYLINE
  5
3F8
100
AcDbEntity
  8
0
100
AcDbPolyline
 62
7
  6
CONTINUOUS
 90
16
 70
0
 10
7.0889954677
 20
7.1423865678
 10
7.1308985394
 20
7.1438594836
 10
7.1850418801
 20
7.1453323995
 10
7.2500985334
 20
7.1468053153
 10
7.3244740774
 20
7.1482782312
 10
7.4063457009
 20
7.149751147
 10
7.4937068773
 20
7.1512240629
 10
7.5844165407
 20
7.1526969787
 10
7.67625156
 20
7.1541698945
 10
7.7669612234
 20
7.1556428104
 10
7.8543223997
 20
7.1571157262
 10
7.9361940233
 20
7.1585886421
 10
8.0105695673
 20
7.1600615579
 10
8.0756262206
 20
7.1615344738
 10
8.1297695613
 20
7.1630073896
 10
8.171672633
 20
7.1644803055
  0
LWPOLYLINE
  5
3F9
100
AcDbEntity
  8
0
100
AcDbPolyline
 62
7
  6
CONTINUOUS
 90
16
 70
0
 10
7.0889954677
 20
7.1939613709
 10
7.1308985394
 20
7.1954342868
 10
7.1850418801
 20
7.1969072026
 10
7.2500985334
 20
7.1983801185
 10
7.3244740774
 20
7.1998530343
 10
7.4063457009
 20
7.2013259502
 10
7.4937068773
 20
7.202798866
 10
7.5844165407
 20
7.2042717818
 10
7.67625156
 20
7.2057446977
 10
7.7669612234
 20
7.2072176135
 10
7.8543223997
 20
7.2086905294
 10
7.9361940233
 20
7.2101634452
 10
8.0105695673
 20
7.2116363611
 10
8.0756262206
 20
7.2131092769
 10
8.1297695613
 20
7.2145821928
 10
8.171672633
 20
7.2160551086
  0
LWPOLYLINE
  5
3FA
100
AcDbEntity
  8
0
100
AcDbPolyline
 62
7
  6
CONTINUOUS
 90
16
 70
0
 10
7.0889954677
 20
7.2014416859
 10
7.1308985394
 20
7.2029146017
 10
7.1850418801
 20
7.2043875176
 10
7.2500985334
 20
7.2058604334
 10
7.3244740774
 20
7.2073333493
 10
7.4063457009
 20
7.2088062651
 10
7.4937068773
 20
7.210279181
 10
7.5844165407
 20
7.2117520968
 10
7.67625156
 20
7.2132250127
 10
7.7669612234
 20
7.2146979285
 10
7.8543223997
 20
7.2161708443
 10
7.9361940233
 20
7.2176437602
 10
8.0105695673
 20
7.219116676
 10
8.0756262206
 20
7.2205895919
 10
8.1297695613
 20
7.2220625077
 10
8.171672633
 20
7.2235354236
  0
LWPOLYLINE
  5
3FB
100
AcDbEntity
  8
0
100
AcDbPolyline
 62
7
  6
CONTINUOUS
 90
6
 70
0
 10
7.8543223997
 20
7.031525175
 10
7.9361940233
 20
7.0329980909
 10
8.0105695673
 20
7.0344710067
 10
8.0756262206
 20
7.0359439226
 10
8.1297695613
 20
7.0374168384
 10
8.171672633
 20
7.0388897543
  0
LWPOLYLINE
  5
3FC
100
AcDbEntity
  8
0
100
AcDbPolyline
 62
7
  6
CONTINUOUS
 90
12
 70
0
 10
7.3244740774
 20
7.0301679949
 10
7.4063457009
 20
7.0316409108
 10
7.4937068773
 20
7.0331138266
 10
7.5844165407
 20
7.0345867425
 10
7.67625156
 20
7.0360596583
 10
7.7669612234
 20
7.0375325742
 10
7.8543223997
 20
7.03900549
 10
7.9361940233
 20
7.0404784059
 10
8.0105695673
 20
7.0419513217
 10
8.0756262206
 20
7.0434242375
 10
8.1297695613
 20
7.0448971534
 10
8.171672633
 20
7.0463700692
  0
LWPOLYLINE
  5
3FD
100
AcDbEntity
  8
0
100
AcDbPolyline
 62
7
  6
CONTINUOUS
 90
6
 70
0
 10
8.1968257389
 20
7.583172994
 10
8.1873632762
 20
7.581631467
 10
8.1788270654
 20
7.5771577812
 10
8.1720526901
 20
7.5701898523
 10
8.1677032734
 20
7.5614097497
 10
8.1662045665
 20
7.551676931
  0
LWPOLYLINE
  5
3FE
100
AcDbEntity
  8
0
100
AcDbPolyline
 62
7
  6
CONTINUOUS
 90
18
 70
0
 10
8.171672633
 20
7.4230960999
 10
8.1479487231
 20
7.4215779195
 10
8.1107921973
 20
7.4200612404
 10
8.0611503306
 20
7.4185445178
 10
7.9999098909
 20
7.4170185045
 10
7.9287973103
 20
7.415489425
 10
7.8505247786
 20
7.4139737727
 10
7.7665671576
 20
7.4124586202
 10
7.6779099632
 20
7.4109234923
 10
7.5875135055
 20
7.4093802761
 10
7.4989925627
 20
7.4078497692
 10
7.4146618652
 20
7.4063325192
 10
7.3347936939
 20
7.404792146
 10
7.2624941998
 20
7.4032437249
 10
7.2006361003
 20
7.4017083977
 10
7.150832744
 20
7.4001943541
 10
7.1131407129
 20
7.3986653292
 10
7.0889954677
 20
7.3971263042
  0
LWPOLYLINE
  5
3FF
100
AcDbEntity
  8
0
100
AcDbPolyline
 62
7
  6
CONTINUOUS
 90
18
 70
0
 10
8.171672633
 20
7.3640409818
 10
8.1476357506
 20
7.3625073058
 10
8.1097791962
 20
7.3609709903
 10
8.0596792395
 20
7.3594492895
 10
7.9984710107
 20
7.3579303663
 10
7.9276252987
 20
7.3564105538
 10
7.8486290447
 20
7.3548834206
 10
7.7643243372
 20
7.3533640532
 10
7.6761293321
 20
7.3518379008
 10
7.5870250765
 20
7.3503168036
 10
7.4991628331
 20
7.3487976406
 10
7.4147018275
 20
7.3472781415
 10
7.3350982611
 20
7.3457431795
 10
7.2633534771
 20
7.3442082636
 10
7.2019841852
 20
7.3426898962
 10
7.151642771
 20
7.341167173
 10
7.1133822951
 20
7.3396221063
 10
7.0889954677
 20
7.3380711861
  0
LWPOLYLINE
  5
400
100
AcDbEntity
  8
0
100
AcDbPolyline
 62
7
  6
CONTINUOUS
 90
18
 70
0
 10
8.171672633
 20
7.482151218
 10
8.147539573
 20
7.4806127941
 10
8.1098777194
 20
7.4790846332
 10
8.0600944249
 20
7.4775708244
 10
7.9982489349
 20
7.4760355155
 10
7.9259632233
 20
7.4744871706
 10
7.8461103026
 20
7.4729469315
 10
7.7617794029
 20
7.4714295768
 10
7.673212391
 20
7.4698982347
 10
7.5827870559
 20
7.4683545249
 10
7.4941216402
 20
7.4668192663
 10
7.4101721509
 20
7.4653042858
 10
7.3318829821
 20
7.4637883445
 10
7.2607491021
 20
7.4622588084
 10
7.1995054841
 20
7.4607326686
 10
7.1498709635
 20
7.45921611
 10
7.1127252505
 20
7.4576998942
 10
7.0889954677
 20
7.4561814223
  0
LWPOLYLINE
  5
401
100
AcDbEntity
  8
0
100
AcDbPolyline
 62
7
  6
CONTINUOUS
 90
18
 70
0
 10
7.0889954677
 20
7.230621167
 10
7.1133075334
 20
7.2321684104
 10
7.1514579718
 20
7.2337107932
 10
7.2016870524
 20
7.2352318216
 10
7.2628532901
 20
7.2367468067
 10
7.3341656886
 20
7.2382743165
 10
7.4134569058
 20
7.2398050431
 10
7.4977683639
 20
7.2413231313
 10
7.5857348555
 20
7.242844713
 10
7.6745766078
 20
7.2443613154
 10
7.7624981017
 20
7.2458819431
 10
7.8468299439
 20
7.2474000161
 10
7.9262029784
 20
7.2489317602
 10
7.9976520525
 20
7.2504615999
 10
8.0588577528
 20
7.2519769645
 10
8.1091156256
 20
7.2534980828
 10
8.1473160733
 20
7.2550415306
 10
8.171672633
 20
7.2565909627
  0
LWPOLYLINE
  5
402
100
AcDbEntity
  8
0
100
AcDbPolyline
 62
7
  6
CONTINUOUS
 90
8
 70
0
 10
8.171672633
 20
7.3049858637
 10
8.1473235551
 20
7.3034367995
 10
8.1091386228
 20
7.3018937754
 10
8.0588494078
 20
7.3003716392
 10
7.9968776382
 20
7.2988388038
 10
7.9244662891
 20
7.2972916025
 10
7.8445015056
 20
7.295751784
 10
7.760070759
 20
7.2942342322
  0
LWPOLYLINE
  5
403
100
AcDbEntity
  8
0
100
AcDbPolyline
 62
7
  6
CONTINUOUS
 90
18
 70
0
 10
7.0889954677
 20
7.2896762851
 10
7.1133484624
 20
7.2912255419
 10
7.1515471142
 20
7.2927689805
 10
7.20180387
 20
7.2942901078
 10
7.2630051647
 20
7.2958053991
 10
7.3344398001
 20
7.2973349759
 10
7.4138053581
 20
7.2988666235
 10
7.4981358511
 20
7.3003847049
 10
7.5860626653
 20
7.3019054393
 10
7.6749029422
 20
7.3034220164
 10
7.7628634626
 20
7.3049434793
 10
7.847175951
 20
7.3064615511
 10
7.926474252
 20
7.307992362
 10
7.9978015621
 20
7.309520138
 10
8.0589710633
 20
7.3110351554
 10
8.1092009984
 20
7.3125561402
 10
8.1473552284
 20
7.3140985748
 10
8.171672633
 20
7.3156460809
  0
LWPOLYLINE
  5
404
100
AcDbEntity
  8
0
100
AcDbPolyline
 62
7
  6
CONTINUOUS
 90
18
 70
0
 10
7.0889954677
 20
7.3487314032
 10
7.1133322196
 20
7.3502798611
 10
7.151511717
 20
7.3518228801
 10
7.2017583395
 20
7.3533439913
 10
7.2629437758
 20
7.354859113
 10
7.3343289865
 20
7.3563878541
 10
7.4136651608
 20
7.3579191418
 10
7.497988503
 20
7.3594372348
 10
7.585931206
 20
7.3609583084
 10
7.6747696548
 20
7.3624748542
 10
7.7627151008
 20
7.3639959911
 10
7.8470353664
 20
7.3655140618
 10
7.9263638088
 20
7.3670452473
 10
7.9977406041
 20
7.3685738616
 10
8.0589233884
 20
7.3700889805
 10
8.1091649113
 20
7.3716100157
 10
8.1473386801
 20
7.3731528787
 10
8.171672633
 20
7.374701199
  0
LWPOLYLINE
  5
405
100
AcDbEntity
  8
0
100
AcDbPolyline
 62
7
  6
CONTINUOUS
 90
12
 70
0
 10
7.0889954677
 20
7.4077865213
 10
7.1133156999
 20
7.4093341666
 10
7.1514756861
 20
7.4108767576
 10
7.2017103936
 20
7.412397809
 10
7.2628822014
 20
7.4139128225
 10
7.3342185426
 20
7.4154407394
 10
7.4135244179
 20
7.4169716496
 10
7.4978395449
 20
7.4184897362
 10
7.5857978412
 20
7.4200111449
 10
7.6746374564
 20
7.4215277107
 10
7.7625668371
 20
7.4230485048
 10
7.8468947936
 20
7.424566573
  0
LWPOLYLINE
  5
406
100
AcDbEntity
  8
0
100
AcDbPolyline
 62
7
  6
CONTINUOUS
 90
18
 70
0
 10
7.0889954677
 20
7.4668416394
 10
7.1132999036
 20
7.4683885074
 10
7.1514418076
 20
7.4699307089
 10
7.2016666495
 20
7.4714517406
 10
7.2628296142
 20
7.4729667375
 10
7.3341201362
 20
7.4744938678
 10
7.4133987537
 20
7.4760244369
 10
7.497708498
 20
7.477542552
 10
7.5856850754
 20
7.4790643338
 10
7.6745313059
 20
7.4805810129
 10
7.7624459891
 20
7.4821015002
 10
7.8467823932
 20
7.4836196069
 10
7.9261701812
 20
7.4851515698
 10
7.9976419694
 20
7.4866818417
 10
8.058854362
 20
7.488197345
 10
8.1091138311
 20
7.4897184935
 10
8.1473154324
 20
7.4912619716
 10
8.171672633
 20
7.4928114352
  0
LWPOLYLINE
  5
407
100
AcDbEntity
  8
0
100
AcDbPolyline
 62
7
  6
CONTINUOUS
 90
18
 70
0
 10
8.1662045665
 20
7.5407647121
 10
8.1389462522
 20
7.5392670645
 10
8.0990757613
 20
7.5377782986
 10
8.0482205906
 20
7.536309159
 10
7.9871757088
 20
7.5348400103
 10
7.916645891
 20
7.5333552088
 10
7.8391031184
 20
7.5318725722
 10
7.7572286667
 20
7.5304048711
 10
7.6722648641
 20
7.5289371472
 10
7.5861327429
 20
7.5274668934
 10
7.5008035444
 20
7.5259917897
 10
7.4190370822
 20
7.5245236799
 10
7.3420583034
 20
7.5230484263
 10
7.2724470899
 20
7.5215794536
 10
7.2116072186
 20
7.5201117129
 10
7.1609165894
 20
7.518642633
 10
7.1213802287
 20
7.5171606659
 10
7.0944635342
 20
7.5156781645
  0
LWPOLYLINE
  5
408
100
AcDbEntity
  8
0
100
AcDbPolyline
 62
7
  6
CONTINUOUS
 90
16
 70
0
 10
7.0889954677
 20
7.253016489
 10
7.1308985394
 20
7.2544894049
 10
7.1850418801
 20
7.2559623207
 10
7.2500985334
 20
7.2574352366
 10
7.3244740774
 20
7.2589081524
 10
7.4063457009
 20
7.2603810683
 10
7.4937068773
 20
7.2618539841
 10
7.5844165407
 20
7.2633269
 10
7.67625156
 20
7.2647998158
 10
7.7669612234
 20
7.2662727316
 10
7.8543223997
 20
7.2677456475
 10
7.9361940233
 20
7.2692185633
 10
8.0105695673
 20
7.2706914792
 10
8.0756262206
 20
7.272164395
 10
8.1297695613
 20
7.2736373109
 10
8.171672633
 20
7.2751102267
  0
LWPOLYLINE
  5
409
100
AcDbEntity
  8
0
100
AcDbPolyline
 62
7
  6
CONTINUOUS
 90
3
 70
0
 10
7.0889954677
 20
7.260496804
 10
7.1308985394
 20
7.2619697198
 10
7.1850418801
 20
7.2634426357
  0
LWPOLYLINE
  5
40A
100
AcDbEntity
  8
0
100
AcDbPolyline
 62
7
  6
CONTINUOUS
 90
16
 70
0
 10
7.0889954677
 20
7.3120716072
 10
7.1308985394
 20
7.313544523
 10
7.1850418801
 20
7.3150174388
 10
7.2500985334
 20
7.3164903547
 10
7.3244740774
 20
7.3179632705
 10
7.4063457009
 20
7.3194361864
 10
7.4937068773
 20
7.3209091022
 10
7.5844165407
 20
7.3223820181
 10
7.67625156
 20
7.3238549339
 10
7.7669612234
 20
7.3253278498
 10
7.8543223997
 20
7.3268007656
 10
7.9361940233
 20
7.3282736814
 10
8.0105695673
 20
7.3297465973
 10
8.0756262206
 20
7.3312195131
 10
8.1297695613
 20
7.332692429
 10
8.171672633
 20
7.3341653448
  0
LWPOLYLINE
  5
40B
100
AcDbEntity
  8
0
100
AcDbPolyline
 62
7
  6
CONTINUOUS
 90
16
 70
0
 10
7.0889954677
 20
7.3195519221
 10
7.1308985394
 20
7.321024838
 10
7.1850418801
 20
7.3224977538
 10
7.2500985334
 20
7.3239706696
 10
7.3244740774
 20
7.3254435855
 10
7.4063457009
 20
7.3269165013
 10
7.4937068773
 20
7.3283894172
 10
7.5844165407
 20
7.329862333
 10
7.67625156
 20
7.3313352489
 10
7.7669612234
 20
7.3328081647
 10
7.8543223997
 20
7.3342810806
 10
7.9361940233
 20
7.3357539964
 10
8.0105695673
 20
7.3372269123
 10
8.0756262206
 20
7.3386998281
 10
8.1297695613
 20
7.3401727439
 10
8.171672633
 20
7.3416456598
  0
LWPOLYLINE
  5
40C
100
AcDbEntity
  8
0
100
AcDbPolyline
 62
7
  6
CONTINUOUS
 90
16
 70
0
 10
7.0889954677
 20
7.3711267253
 10
7.1308985394
 20
7.3725996411
 10
7.1850418801
 20
7.374072557
 10
7.2500985334
 20
7.3755454728
 10
7.3244740774
 20
7.3770183886
 10
7.4063457009
 20
7.3784913045
 10
7.4937068773
 20
7.3799642203
 10
7.5844165407
 20
7.3814371362
 10
7.67625156
 20
7.382910052
 10
7.7669612234
 20
7.3843829679
 10
7.8543223997
 20
7.3858558837
 10
7.9361940233
 20
7.3873287996
 10
8.0105695673
 20
7.3888017154
 10
8.0756262206
 20
7.3902746312
 10
8.1297695613
 20
7.3917475471
 10
8.171672633
 20
7.3932204629
  0
LWPOLYLINE
  5
40D
100
AcDbEntity
  8
0
100
AcDbPolyline
 62
7
  6
CONTINUOUS
 90
16
 70
0
 10
7.0889954677
 20
7.3786070402
 10
7.1308985394
 20
7.3800799561
 10
7.1850418801
 20
7.3815528719
 10
7.2500985334
 20
7.3830257878
 10
7.3244740774
 20
7.3844987036
 10
7.4063457009
 20
7.3859716194
 10
7.4937068773
 20
7.3874445353
 10
7.5844165407
 20
7.3889174511
 10
7.67625156
 20
7.390390367
 10
7.7669612234
 20
7.3918632828
 10
7.8543223997
 20
7.3933361987
 10
7.9361940233
 20
7.3948091145
 10
8.0105695673
 20
7.3962820304
 10
8.0756262206
 20
7.3977549462
 10
8.1297695613
 20
7.3992278621
 10
8.171672633
 20
7.4007007779
  0
LWPOLYLINE
  5
40E
100
AcDbEntity
  8
0
100
AcDbPolyline
 62
7
  6
CONTINUOUS
 90
16
 70
0
 10
7.0889954677
 20
7.4301818434
 10
7.1308985394
 20
7.4316547592
 10
7.1850418801
 20
7.4331276751
 10
7.2500985334
 20
7.4346005909
 10
7.3244740774
 20
7.4360735068
 10
7.4063457009
 20
7.4375464226
 10
7.4937068773
 20
7.4390193384
 10
7.5844165407
 20
7.4404922543
 10
7.67625156
 20
7.4419651701
 10
7.7669612234
 20
7.443438086
 10
7.8543223997
 20
7.4449110018
 10
7.9361940233
 20
7.4463839177
 10
8.0105695673
 20
7.4478568335
 10
8.0756262206
 20
7.4493297494
 10
8.1297695613
 20
7.4508026652
 10
8.171672633
 20
7.452275581
  0
LWPOLYLINE
  5
40F
100
AcDbEntity
  8
0
100
AcDbPolyline
 62
7
  6
CONTINUOUS
 90
16
 70
0
 10
7.0889954677
 20
7.4376621583
 10
7.1308985394
 20
7.4391350742
 10
7.1850418801
 20
7.44060799
 10
7.2500985334
 20
7.4420809059
 10
7.3244740774
 20
7.4435538217
 10
7.4063457009
 20
7.4450267376
 10
7.4937068773
 20
7.4464996534
 10
7.5844165407
 20
7.4479725692
 10
7.67625156
 20
7.4494454851
 10
7.7669612234
 20
7.4509184009
 10
7.8543223997
 20
7.4523913168
 10
7.9361940233
 20
7.4538642326
 10
8.0105695673
 20
7.4553371485
 10
8.0756262206
 20
7.4568100643
 10
8.1297695613
 20
7.4582829802
 10
8.171672633
 20
7.459755896
  0
LWPOLYLINE
  5
410
100
AcDbEntity
  8
0
100
AcDbPolyline
 62
7
  6
CONTINUOUS
 90
16
 70
0
 10
7.0889954677
 20
7.4892369615
 10
7.1308985394
 20
7.4907098773
 10
7.1850418801
 20
7.4921827932
 10
7.2500985334
 20
7.493655709
 10
7.3244740774
 20
7.4951286249
 10
7.4063457009
 20
7.4966015407
 10
7.4937068773
 20
7.4980744566
 10
7.5844165407
 20
7.4995473724
 10
7.67625156
 20
7.5010202882
 10
7.7669612234
 20
7.5024932041
 10
7.8543223997
 20
7.5039661199
 10
7.9361940233
 20
7.5054390358
 10
8.0105695673
 20
7.5069119516
 10
8.0756262206
 20
7.5083848675
 10
8.1297695613
 20
7.5098577833
 10
8.171672633
 20
7.5113306992
  0
LWPOLYLINE
  5
411
100
AcDbEntity
  8
0
100
AcDbPolyline
 62
7
  6
CONTINUOUS
 90
16
 70
0
 10
7.0889954677
 20
7.4967172764
 10
7.1308985394
 20
7.4981901923
 10
7.1850418801
 20
7.4996631081
 10
7.2500985334
 20
7.501136024
 10
7.3244740774
 20
7.5026089398
 10
7.4063457009
 20
7.5040818557
 10
7.4937068773
 20
7.5055547715
 10
7.5844165407
 20
7.5070276874
 10
7.67625156
 20
7.5085006032
 10
7.7669612234
 20
7.509973519
 10
7.8543223997
 20
7.5114464349
 10
7.9361940233
 20
7.5129193507
 10
8.0105695673
 20
7.5143922666
 10
8.0756262206
 20
7.5158651824
 10
8.1297695613
 20
7.5173380983
 10
8.171672633
 20
7.5188110141
  0
LINE
  5
412
100
AcDbEntity
  8
0
100
AcDbLine
 62
7
  6
CONTINUOUS
 10
7.1850418801
 20
7.2634426357
 11
7.2500985334
 21
7.2649155515
  0
LWPOLYLINE
  5
413
100
AcDbEntity
  8
0
100
AcDbPolyline
 62
7
  6
CONTINUOUS
 90
7
 70
0
 10
7.8468947936
 20
7.424566573
 10
7.926253066
 20
7.4260981269
 10
7.9976783687
 20
7.4276275561
 10
8.0588762987
 20
7.4291428216
 10
8.1091294399
 20
7.4306639126
 10
8.1473223828
 20
7.4322071953
 10
8.171672633
 20
7.4337563171
  0
LINE
  5
414
100
AcDbEntity
  8
0
100
AcDbLine
 62
7
  6
CONTINUOUS
 10
7.2500985334
 20
7.2649155515
 11
7.3251776963
 21
7.2664011259
  0
LWPOLYLINE
  5
415
100
AcDbEntity
  8
0
100
AcDbPolyline
 62
7
  6
CONTINUOUS
 90
12
 70
0
 10
7.3251776963
 20
7.2664011259
 10
7.4063457009
 20
7.2678613832
 10
7.4937068773
 20
7.2693342991
 10
7.5844165407
 20
7.2708072149
 10
7.67625156
 20
7.2722801308
 10
7.7669612234
 20
7.2737530466
 10
7.8543223997
 20
7.2752259625
 10
7.9361940233
 20
7.2766988783
 10
8.0105695673
 20
7.2781717941
 10
8.0756262206
 20
7.27964471
 10
8.1297695613
 20
7.2811176258
 10
8.171672633
 20
7.2825905417
  0
LWPOLYLINE
  5
416
100
AcDbEntity
  8
0
100
AcDbPolyline
 62
7
  6
CONTINUOUS
 90
3
 70
0
 10
7.760070759
 20
7.2942342322
 10
7.6722925098
 20
7.2927171476
 10
7.58253759
 20
7.2911849006
  0
LWPOLYLINE
  5
417
100
AcDbEntity
  8
0
100
AcDbPolyline
 62
7
  6
CONTINUOUS
 90
9
 70
0
 10
7.58253759
 20
7.2911849006
 10
7.494162372
 20
7.2896546288
 10
7.4101104751
 20
7.2881377842
 10
7.3317674421
 20
7.2866206465
 10
7.2610769682
 20
7.2851009875
 10
7.1999366093
 20
7.2835790918
 10
7.1501451723
 20
7.2820602888
 10
7.1127168222
 20
7.2805341216
 10
7.0889954677
 20
7.279016068
  0
LWPOLYLINE
  5
418
100
AcDbEntity
  8
0
100
AcDbPolyline
 62
7
  6
CONTINUOUS
 90
4
 70
0
 10
7.0944635342
 20
7.5156781645
 10
7.091436846
 20
7.5156400091
 10
7.089605728
 20
7.5160554019
 10
7.0889954677
 20
7.5169224949
  0
LINE
  5
419
100
AcDbEntity
  8
0
100
AcDbLine
 62
7
  6
CONTINUOUS
 10
8.171672633
 20
7.551676931
 11
7.0889954677
 21
7.551676931
  0
LWPOLYLINE
  5
41A
100
AcDbEntity
  8
0
100
AcDbPolyline
 62
7
  6
CONTINUOUS
 90
6
 70
0
 10
7.0638423618
 20
7.583172994
 10
7.0733048245
 20
7.581631467
 10
7.0818410353
 20
7.5771577812
 10
7.0886154106
 20
7.5701898523
 10
7.0929648273
 20
7.5614097497
 10
7.0944635342
 20
7.551676931
  0
LWPOLYLINE
  5
41B
100
AcDbEntity
  8
0
100
AcDbPolyline
 62
7
  6
CONTINUOUS
 90
16
 70
0
 10
7.2178577788
 20
13.3788109339
 10
7.2142801547
 20
13.3747333701
 10
7.2108514852
 20
13.3700671137
 10
7.2075913732
 20
13.3648388434
 10
7.2045184574
 20
13.3590784499
 10
7.2016503075
 20
13.352818869
 10
7.1990033208
 20
13.346095887
 10
7.1965926311
 20
13.338947942
 10
7.1944320213
 20
13.3314159009
 10
7.192533844
 20
13.3235428267
 10
7.1909089519
 20
13.3153737324
 10
7.1895666348
 20
13.306955322
 10
7.1885145675
 20
13.2983357294
 10
7.1877587646
 20
13.289564232
 10
7.1873035475
 20
13.280690981
 10
7.1871515187
 20
13.2717667071
  0
LINE
  5
41C
100
AcDbEntity
  8
0
100
AcDbLine
 62
7
  6
CONTINUOUS
 10
7.2483362395
 20
13.4131974265
 11
7.2178577788
 21
13.3788109339
  0
LINE
  5
41D
100
AcDbEntity
  8
0
100
AcDbLine
 62
7
  6
CONTINUOUS
 10
7.2642055546
 20
13.4310947067
 11
7.2483362395
 21
13.4131974265
  0
LWPOLYLINE
  5
41E
100
AcDbEntity
  8
0
100
AcDbPolyline
 62
7
  6
CONTINUOUS
 90
15
 70
0
 10
7.2480082548
 20
13.3976234364
 10
7.247079703
 20
13.3965871316
 10
7.2439795631
 20
13.3933165308
 10
7.2409842989
 20
13.3904312886
 10
7.2381774498
 20
13.3879744768
 10
7.2356222534
 20
13.3859510319
 10
7.2333617988
 20
13.3843370039
 10
7.2311938592
 20
13.382952087
 10
7.2289828489
 20
13.3817141897
 10
7.2267996565
 20
13.3806777438
 10
7.2246984015
 20
13.3798701638
 10
7.2227213543
 20
13.3792977885
 10
7.2209052702
 20
13.3789501322
 10
7.2192757446
 20
13.3788006779
 10
7.2178577788
 20
13.3788109339
  0
LINE
  5
41F
100
AcDbEntity
  8
AXIS
100
AcDbLine
 62
7
  6
CONTINUOUS
 10
8.3862395622
 20
7.583172994
 11
6.8744285385
 21
7.583172994
  0
LINE
  5
420
100
AcDbEntity
  8
AXIS
100
AcDbLine
 62
7
  6
CONTINUOUS
 10
8.516160822
 20
7.7130942539
 11
6.7445072787
 21
7.7130942539
  0
LINE
  5
421
100
AcDbEntity
  8
0
100
AcDbLine
 62
7
  6
CONTINUOUS
 10
8.516160822
 20
7.9867163011
 11
6.7445072787
 21
7.9867163011
  0
LINE
  5
422
100
AcDbEntity
  8
AXIS
100
AcDbLine
 62
7
  6
CONTINUOUS
 10
8.6244285385
 20
8.0064013405
 11
6.6362395622
 21
8.0064013405
  0
LINE
  5
423
100
AcDbEntity
  8
0
100
AcDbLine
 62
7
  6
CONTINUOUS
 10
6.6362395622
 20
8.0503029469
 11
8.6244285385
 21
8.0503029469
  0
LINE
  5
424
100
AcDbEntity
  8
0
100
AcDbLine
 62
7
  6
CONTINUOUS
 10
6.64017657
 20
8.051676931
 11
8.6204915307
 21
8.051676931
  0
LINE
  5
425
100
AcDbEntity
  8
0
100
AcDbLine
 62
7
  6
CONTINUOUS
 10
6.6402928198
 20
8.0510176456
 11
6.6362395622
 21
8.0503029469
  0
LINE
  5
426
100
AcDbEntity
  8
0
100
AcDbLine
 62
7
  6
CONTINUOUS
 10
8.6203752809
 20
8.0510176456
 11
8.6244317583
 21
8.0503023792
  0
LINE
  5
427
100
AcDbEntity
  8
0
100
AcDbLine
 62
7
  6
CONTINUOUS
 10
6.64017657
 20
8.583172994
 11
8.6204915307
 21
8.583172994
  0
LINE
  5
428
100
AcDbEntity
  8
0
100
AcDbLine
 62
7
  6
CONTINUOUS
 10
6.6362395622
 20
8.0064013405
 11
6.6362395622
 21
8.0503029469
  0
LINE
  5
429
100
AcDbEntity
  8
0
100
AcDbLine
 62
7
  6
CONTINUOUS
 10
6.64017657
 20
8.051676931
 11
6.64017657
 21
8.583172994
  0
LINE
  5
42A
100
AcDbEntity
  8
AXIS
100
AcDbLine
 62
7
  6
CONTINUOUS
 10
6.64017657
 20
9.6540391357
 11
6.64017657
 21
10.1855351987
  0
LINE
  5
42B
100
AcDbEntity
  8
AXIS
100
AcDbLine
 62
7
  6
CONTINUOUS
 10
6.64017657
 20
11.2564013405
 11
6.64017657
 21
11.7878974035
  0
LINE
  5
42C
100
AcDbEntity
  8
AXIS
100
AcDbLine
 62
7
  6
CONTINUOUS
 10
6.6460820818
 20
14.8099124644
 11
6.6460820818
 21
14.0649101989
  0
LINE
  5
42D
100
AcDbEntity
  8
AXIS
100
AcDbLine
 62
7
  6
CONTINUOUS
 10
6.6460820818
 20
8.583172994
 11
6.6460820818
 21
9.6540391357
  0
LINE
  5
42E
100
AcDbEntity
  8
AXIS
100
AcDbLine
 62
7
  6
CONTINUOUS
 10
6.6460820818
 20
10.1855351987
 11
6.6460820818
 21
11.2564013405
  0
LINE
  5
42F
100
AcDbEntity
  8
AXIS
100
AcDbLine
 62
7
  6
CONTINUOUS
 10
6.6460820818
 20
11.7878974035
 11
6.6460820818
 21
12.8414085274
  0
LINE
  5
430
100
AcDbEntity
  8
0
100
AcDbLine
 62
7
  6
CONTINUOUS
 10
6.6460820818
 20
12.8414085274
 11
6.6460820818
 21
13.2717667071
  0
LINE
  5
431
100
AcDbEntity
  8
0
100
AcDbLine
 62
7
  6
CONTINUOUS
 10
6.7445072787
 20
7.7130942539
 11
6.7445072787
 21
7.9867163011
  0
LINE
  5
432
100
AcDbEntity
  8
0
100
AcDbLine
 62
7
  6
CONTINUOUS
 10
7.0889954677
 20
6.8666375609
 11
7.0889954677
 21
7.551676931
  0
LINE
  5
433
100
AcDbEntity
  8
0
100
AcDbLine
 62
7
  6
CONTINUOUS
 10
7.0944635342
 20
7.551676931
 11
7.0944635342
 21
7.5156781645
  0
LINE
  5
434
100
AcDbEntity
  8
0
100
AcDbLine
 62
7
  6
CONTINUOUS
 10
7.0944635342
 20
6.8767320824
 11
7.0944635342
 21
6.8666375609
  0
LINE
  5
435
100
AcDbEntity
  8
AXIS
100
AcDbLine
 62
7
  6
CONTINUOUS
 10
7.266160822
 20
13.9048402074
 11
7.266160822
 21
13.4488788392
  0
LWPOLYLINE
  5
436
100
AcDbEntity
  8
0
100
AcDbPolyline
 62
7
  6
CONTINUOUS
 90
12
 70
0
 10
7.266160822
 20
13.4488788392
 10
7.2659739949
 20
13.4433888284
 10
7.2653467493
 20
13.4373844613
 10
7.2642714531
 20
13.4313547883
 10
7.2627916752
 20
13.4255145548
 10
7.2609965466
 20
13.4200600061
 10
7.2589801626
 20
13.4150867053
 10
7.2568013941
 20
13.4105795156
 10
7.2545132371
 20
13.4065280442
 10
7.252186374
 20
13.4029548432
 10
7.2499015104
 20
13.3998835551
 10
7.2480082641
 20
13.3976234468
  0
LWPOLYLINE
  5
437
100
AcDbEntity
  8
0
100
AcDbPolyline
 62
7
  6
CONTINUOUS
 90
26
 70
0
 10
7.3507170138
 20
13.4488788392
 10
7.3503096002
 20
13.4369455472
 10
7.3490816365
 20
13.4249622928
 10
7.3470276998
 20
13.4129852299
 10
7.344146341
 20
13.4010720007
 10
7.3404414113
 20
13.3892856772
 10
7.335926078
 20
13.377700994
 10
7.3306275663
 20
13.366405295
 10
7.3245877753
 20
13.3554901188
 10
7.3178560386
 20
13.3450357778
 10
7.3104616859
 20
13.3350805513
 10
7.3024180443
 20
13.3256480541
 10
7.2937678427
 20
13.3168011077
 10
7.2847137803
 20
13.3087291645
 10
7.2755398377
 20
13.3016052942
 10
7.2665521188
 20
13.2955285483
 10
7.2580269625
 20
13.2905076304
 10
7.2501975861
 20
13.2864838556
 10
7.2424189927
 20
13.2830087694
 10
7.2341942645
 20
13.2798727679
 10
7.2257597796
 20
13.2772081582
 10
7.2173193466
 20
13.2750826483
 10
7.2090577255
 20
13.2735142375
 10
7.201163271
 20
13.2724821652
 10
7.193800301
 20
13.2719280801
 10
7.187151518
 20
13.2717667071
  0
LINE
  5
438
100
AcDbEntity
  8
AXIS
100
AcDbLine
 62
7
  6
CONTINUOUS
 10
6.64017657
 20
9.6540391357
 11
8.6204915307
 21
9.6540391357
  0
LINE
  5
439
100
AcDbEntity
  8
0
100
AcDbLine
 62
7
  6
CONTINUOUS
 10
7.3507170138
 20
13.9048402074
 11
7.3507170138
 21
13.4488788392
  0
LINE
  5
43A
100
AcDbEntity
  8
02___PRT_ALL_AXES
100
AcDbLine
 62
7
  6
CONTINUOUS
 10
7.5228340503
 20
6.8351414979
 11
7.5228340503
 21
5.357188742
  0
LINE
  5
43B
100
AcDbEntity
  8
02___PRT_ALL_AXES
100
AcDbLine
 62
7
  6
CONTINUOUS
 10
7.7378340503
 20
6.8351414979
 11
7.7378340503
 21
5.357188742
  0
LINE
  5
43C
100
AcDbEntity
  8
0
100
AcDbLine
 62
7
  6
CONTINUOUS
 10
7.9099510869
 20
13.4488788392
 11
7.9099510869
 21
14.0649101989
  0
LINE
  5
43D
100
AcDbEntity
  8
AXIS
100
AcDbLine
 62
7
  6
CONTINUOUS
 10
7.9945072787
 20
13.9181729788
 11
7.9945072787
 21
13.4488788392
  0
LWPOLYLINE
  5
43E
100
AcDbEntity
  8
0
100
AcDbPolyline
 62
7
  6
CONTINUOUS
 90
11
 70
0
 10
7.9945072778
 20
13.9181722547
 10
7.9945459075
 20
13.91944469
 10
7.994743482
 20
13.9213924088
 10
7.995187755
 20
13.9237392551
 10
7.9959680582
 20
13.9264320209
 10
7.9971694636
 20
13.9293905344
 10
7.9988608221
 20
13.932503272
 10
8.0010558395
 20
13.9355993307
 10
8.003685345
 20
13.9384798001
 10
8.0066237299
 20
13.9409895395
 10
8.0092163291
 20
13.9427414034
  0
LINE
  5
43F
100
AcDbEntity
  8
AXIS
100
AcDbLine
 62
7
  6
CONTINUOUS
 10
6.64017657
 20
10.1855351987
 11
8.6204915307
 21
10.1855351987
  0
LINE
  5
440
100
AcDbEntity
  8
0
100
AcDbLine
 62
7
  6
CONTINUOUS
 10
8.1662045665
 20
6.8666375609
 11
8.1662045665
 21
6.90181863
  0
LINE
  5
441
100
AcDbEntity
  8
0
100
AcDbLine
 62
7
  6
CONTINUOUS
 10
8.1662045665
 20
7.5407647121
 11
8.1662045665
 21
7.551676931
  0
LINE
  5
442
100
AcDbEntity
  8
0
100
AcDbLine
 62
7
  6
CONTINUOUS
 10
8.171672633
 20
6.8666375609
 11
8.171672633
 21
7.551676931
  0
LINE
  5
443
100
AcDbEntity
  8
0
100
AcDbLine
 62
7
  6
CONTINUOUS
 10
8.516160822
 20
7.7130942539
 11
8.516160822
 21
7.9867163011
  0
LINE
  5
444
100
AcDbEntity
  8
AXIS
100
AcDbLine
 62
7
  6
CONTINUOUS
 10
8.6145860189
 20
14.8099124644
 11
8.6145860189
 21
14.0649101989
  0
LINE
  5
445
100
AcDbEntity
  8
AXIS
100
AcDbLine
 62
7
  6
CONTINUOUS
 10
8.6145860189
 20
8.583172994
 11
8.6145860189
 21
9.6540391357
  0
LINE
  5
446
100
AcDbEntity
  8
AXIS
100
AcDbLine
 62
7
  6
CONTINUOUS
 10
8.6145860189
 20
10.1855351987
 11
8.6145860189
 21
11.2564013405
  0
LINE
  5
447
100
AcDbEntity
  8
AXIS
100
AcDbLine
 62
7
  6
CONTINUOUS
 10
8.6145860189
 20
11.7878974035
 11
8.6145860189
 21
12.8414085274
  0
LINE
  5
448
100
AcDbEntity
  8
0
100
AcDbLine
 62
7
  6
CONTINUOUS
 10
8.6145860189
 20
12.8414085274
 11
8.6145860189
 21
13.2717667071
  0
LINE
  5
449
100
AcDbEntity
  8
0
100
AcDbLine
 62
7
  6
CONTINUOUS
 10
8.6204915307
 20
8.051676931
 11
8.6204915307
 21
8.583172994
  0
LINE
  5
44A
100
AcDbEntity
  8
AXIS
100
AcDbLine
 62
7
  6
CONTINUOUS
 10
8.6204915307
 20
9.6540391357
 11
8.6204915307
 21
10.1855351987
  0
LINE
  5
44B
100
AcDbEntity
  8
AXIS
100
AcDbLine
 62
7
  6
CONTINUOUS
 10
8.6204915307
 20
11.2564013405
 11
8.6204915307
 21
11.7878974035
  0
LINE
  5
44C
100
AcDbEntity
  8
0
100
AcDbLine
 62
7
  6
CONTINUOUS
 10
8.6244285385
 20
8.0064013405
 11
8.6244285385
 21
8.0503029469
  0
LWPOLYLINE
  5
44D
100
AcDbEntity
  8
0
100
AcDbPolyline
 62
7
  6
CONTINUOUS
 90
4
 70
0
 10
7.0889954677
 20
6.8739043997
 10
7.0896054812
 20
6.8752981068
 10
7.0914363745
 20
6.8762425576
 10
7.0944635342
 20
6.8767320824
  0
LINE
  5
44E
100
AcDbEntity
  8
AXIS
100
AcDbLine
 62
7
  6
CONTINUOUS
 10
6.64017657
 20
11.2564013405
 11
8.6204915307
 21
11.2564013405
  0
LWPOLYLINE
  5
44F
100
AcDbEntity
  8
0
100
AcDbPolyline
 62
7
  6
CONTINUOUS
 90
4
 70
0
 10
8.171672633
 20
7.5435923948
 10
8.1710626195
 20
7.5421986877
 10
8.1692317262
 20
7.5412542369
 10
8.1662045665
 20
7.5407647121
  0
LINE
  5
450
100
AcDbEntity
  8
AXIS
100
AcDbLine
 62
7
  6
CONTINUOUS
 10
6.64017657
 20
11.7878974035
 11
8.6204915307
 21
11.7878974035
  0
LINE
  5
451
100
AcDbEntity
  8
0
100
AcDbLine
 62
7
  6
CONTINUOUS
 10
8.0123318611
 20
13.4131974267
 11
7.9964633847
 21
13.4310937609
  0
LINE
  5
452
100
AcDbEntity
  8
0
100
AcDbLine
 62
7
  6
CONTINUOUS
 10
8.0428103219
 20
13.3788109339
 11
8.0123318611
 21
13.4131974267
  0
LWPOLYLINE
  5
453
100
AcDbEntity
  8
0
100
AcDbPolyline
 62
7
  6
CONTINUOUS
 90
16
 70
0
 10
8.0428103219
 20
13.3788109339
 10
8.046387946
 20
13.3747333701
 10
8.0498166155
 20
13.3700671137
 10
8.0530767275
 20
13.3648388434
 10
8.0561496433
 20
13.3590784499
 10
8.0590177932
 20
13.352818869
 10
8.0616647799
 20
13.346095887
 10
8.0640754696
 20
13.338947942
 10
8.0662360794
 20
13.3314159009
 10
8.0681342567
 20
13.3235428267
 10
8.0697591488
 20
13.3153737324
 10
8.0711014659
 20
13.306955322
 10
8.0721535332
 20
13.2983357294
 10
8.0729093361
 20
13.289564232
 10
8.0733645532
 20
13.280690981
 10
8.0735165819
 20
13.2717667071
  0
LWPOLYLINE
  5
454
100
AcDbEntity
  8
0
100
AcDbPolyline
 62
7
  6
CONTINUOUS
 90
12
 70
0
 10
8.0126598363
 20
13.3976234472
 10
8.0107656547
 20
13.3998847333
 10
8.008480001
 20
13.402957317
 10
8.0061524054
 20
13.406532088
 10
8.0038634871
 20
13.4105856594
 10
8.0016839968
 20
13.4150955705
 10
7.9996671978
 20
13.4200718552
 10
7.9978721338
 20
13.4255292774
 10
7.9963928754
 20
13.4313722692
 10
7.9953185275
 20
13.4374044864
 10
7.9946926008
 20
13.443411068
 10
7.9945072787
 20
13.4488788392
  0
LWPOLYLINE
  5
455
100
AcDbEntity
  8
0
100
AcDbPolyline
 62
7
  6
CONTINUOUS
 90
18
 70
0
 10
7.9099510869
 20
14.0649101989
 10
7.9200392992
 20
14.0518262956
 10
7.9296137944
 20
14.0390398308
 10
7.9386752418
 20
14.0265446033
 10
7.9471479135
 20
14.0144400459
 10
7.9549632223
 20
14.0028262827
 10
7.9620732268
 20
13.9917848208
 10
7.9684448645
 20
13.9813861469
 10
7.9740629422
 20
13.9716838536
 10
7.9789279311
 20
13.962716159
 10
7.983052264
 20
13.9545107223
 10
7.9864599685
 20
13.9470842511
 10
7.9891911406
 20
13.9404292358
 10
7.9912969207
 20
13.934515779
 10
7.9928298643
 20
13.9293077946
 10
7.9938420911
 20
13.9247642351
 10
7.9943832696
 20
13.9208399906
 10
7.9945072787
 20
13.9181733021
  0
LINE
  5
456
100
AcDbEntity
  8
0
100
AcDbLine
 62
7
  6
CONTINUOUS
 10
8.6145860189
 20
12.8414085274
 11
6.6460820818
 21
12.8414085274
  0
LWPOLYLINE
  5
457
100
AcDbEntity
  8
0
100
AcDbPolyline
 62
7
  6
CONTINUOUS
 90
15
 70
0
 10
8.0428103219
 20
13.3788109339
 10
8.0414501076
 20
13.3787984347
 10
8.0398940082
 20
13.3789321685
 10
8.0381639514
 20
13.3792468571
 10
8.0362818822
 20
13.3797672291
 10
8.0342792312
 20
13.38050469
 10
8.0321920438
 20
13.3814566145
 10
8.0300659153
 20
13.3826030844
 10
8.0279779562
 20
13.38389047
 10
8.0258529383
 20
13.385355386
 10
8.0235050382
 20
13.3871464823
 10
8.0208989332
 20
13.3893380912
 10
8.0180911542
 20
13.3919318197
 10
8.0151482177
 20
13.394905304
 10
8.0126598399
 20
13.3976234431
  0
LINE
  5
458
100
AcDbEntity
  8
0
100
AcDbLine
 62
7
  6
CONTINUOUS
 10
6.6460820818
 20
13.2717667071
 11
7.187151518
 21
13.2717667071
  0
LINE
  5
459
100
AcDbEntity
  8
0
100
AcDbLine
 62
7
  6
CONTINUOUS
 10
8.0735165819
 20
13.2717667071
 11
8.6145860189
 21
13.2717667071
  0
LINE
  5
45A
100
AcDbEntity
  8
0
100
AcDbLine
 62
7
  6
CONTINUOUS
 10
6.7142767753
 20
13.3788109339
 11
7.2178577788
 21
13.3788109339
  0
LINE
  5
45B
100
AcDbEntity
  8
0
100
AcDbLine
 62
7
  6
CONTINUOUS
 10
8.0428103219
 20
13.3788109339
 11
8.5463913254
 21
13.3788109339
  0
LWPOLYLINE
  5
45C
100
AcDbEntity
  8
0
100
AcDbPolyline
 62
7
  6
CONTINUOUS
 90
26
 70
0
 10
8.0735165819
 20
13.2717667071
 10
8.0668649
 20
13.2719282207
 10
8.0595013113
 20
13.2724825242
 10
8.0516075005
 20
13.2735146961
 10
8.0433467414
 20
13.2750830917
 10
8.0349063768
 20
13.2772087095
 10
8.0264702325
 20
13.2798740242
 10
8.0182435364
 20
13.2830110787
 10
8.0104685399
 20
13.2864848026
 10
8.0026380778
 20
13.2905093106
 10
7.9941163768
 20
13.2955282995
 10
7.9851338193
 20
13.3016012725
 10
7.9759614726
 20
13.308723217
 10
7.9669060385
 20
13.316795589
 10
7.9582537888
 20
13.3256439663
 10
7.9502089142
 20
13.3350774118
 10
7.94281399
 20
13.3450329925
 10
7.9360818829
 20
13.3554875133
 10
7.9300416704
 20
13.3664030699
 10
7.9247427095
 20
13.3776993926
 10
7.9202269593
 20
13.3892849094
 10
7.9165217395
 20
13.4010720734
 10
7.9136402333
 20
13.4129860414
 10
7.9115862651
 20
13.4249637477
 10
7.9103584061
 20
13.4369469306
 10
7.9099510869
 20
13.4488788392
  0
LWPOLYLINE
  5
45D
100
AcDbEntity
  8
0
100
AcDbPolyline
 62
7
  6
CONTINUOUS
 90
5
 70
0
 10
8.0123318579
 20
13.4131974303
 10
8.0086832079
 20
13.413459482
 10
8.0051542018
 20
13.4141000908
 10
8.0017825571
 20
13.41511241
 10
8.001654801
 20
13.415167609
  0
LINE
  5
45E
100
AcDbEntity
  8
0
100
AcDbLine
 62
7
  6
CONTINUOUS
 10
7.9945072787
 20
13.4488788392
 11
7.9099510869
 21
13.4488788392
  0
LINE
  5
45F
100
AcDbEntity
  8
0
100
AcDbLine
 62
7
  6
CONTINUOUS
 10
7.266160822
 20
13.4488788392
 11
7.3507170138
 21
13.4488788392
  0
LWPOLYLINE
  5
460
100
AcDbEntity
  8
0
100
AcDbPolyline
 62
7
  6
CONTINUOUS
 90
3
 70
0
 10
7.2489490292
 20
13.9419478308
 10
7.2445294798
 20
13.9434042037
 10
7.2310962785
 20
13.9480074378
  0
LWPOLYLINE
  5
461
100
AcDbEntity
  8
0
100
AcDbPolyline
 62
7
  6
CONTINUOUS
 90
18
 70
0
 10
7.2416288775
 20
13.9461767458
 10
7.2428867457
 20
13.9456831646
 10
7.2445271759
 20
13.9448891576
 10
7.2463364935
 20
13.9438311447
 10
7.2482666398
 20
13.9424974389
 10
7.2502758163
 20
13.9408792137
 10
7.2523287995
 20
13.9389662624
 10
7.2543928429
 20
13.93674657
 10
7.2564200899
 20
13.9342259463
 10
7.2583529869
 20
13.9314327308
 10
7.2601389945
 20
13.9284064228
 10
7.2617351204
 20
13.9251917893
 10
7.2631095019
 20
13.9218336569
 10
7.2642391632
 20
13.9183787276
 10
7.2651101664
 20
13.9148737113
 10
7.2657165526
 20
13.9113695309
 10
7.2660618964
 20
13.9079191967
 10
7.266160822
 20
13.9048402074
  0
LWPOLYLINE
  5
462
100
AcDbEntity
  8
0
100
AcDbPolyline
 62
7
  6
CONTINUOUS
 90
20
 70
0
 10
7.2310962785
 20
13.9480074378
 10
7.2271497744
 20
13.9496019142
 10
7.2232685272
 20
13.9518471378
 10
7.2194744412
 20
13.9547304376
 10
7.2157889278
 20
13.958235542
 10
7.2122327873
 20
13.9623426688
 10
7.2088260882
 20
13.9670286402
 10
7.2055880567
 20
13.9722670103
 10
7.2025369666
 20
13.9780282162
 10
7.1996900368
 20
13.9842797444
 10
7.1970633343
 20
13.990986314
 10
7.1946716829
 20
13.9981100762
 10
7.19252858
 20
14.0056108277
 10
7.1906461203
 20
14.0134462378
 10
7.1890349275
 20
14.0215720868
 10
7.1877040943
 20
14.0299425174
 10
7.1866611317
 20
14.0385102875
 10
7.1859119254
 20
14.0472270481
 10
7.1854607036
 20
14.056043604
 10
7.1853100129
 20
14.0649101989
  0
LINE
  5
463
100
AcDbEntity
  8
0
100
AcDbLine
 62
7
  6
CONTINUOUS
 10
8.5463913254
 20
13.3788109339
 11
7.9945072787
 21
13.6361586913
  0
LWPOLYLINE
  5
464
100
AcDbEntity
  8
0
100
AcDbPolyline
 62
7
  6
CONTINUOUS
 90
22
 70
0
 10
7.9099510869
 20
14.0649101989
 10
7.9229189354
 20
14.0550972641
 10
7.9353001603
 20
14.0455074345
 10
7.947101123
 20
14.0361359972
 10
7.9582284373
 20
14.0270575866
 10
7.9685952874
 20
14.0183472613
 10
7.9781391385
 20
14.0100661654
 10
7.9868141209
 20
14.0022671594
 10
7.9945952564
 20
13.994990439
 10
8.0014758824
 20
13.9882646675
 10
8.0074628662
 20
13.9821105896
 10
8.0125763221
 20
13.9765407358
 10
8.0168572145
 20
13.9715494741
 10
8.0203622027
 20
13.9671143815
 10
8.0231504898
 20
13.9632083932
 10
8.0252818409
 20
13.9598007237
 10
8.0268145383
 20
13.95685754
 10
8.0278007312
 20
13.9543487109
 10
8.028288368
 20
13.9522436837
 10
8.0283151783
 20
13.9504836984
 10
8.0278930209
 20
13.9490692695
 10
8.0270456327
 20
13.9480074378
  0
LWPOLYLINE
  5
465
100
AcDbEntity
  8
0
100
AcDbPolyline
 62
7
  6
CONTINUOUS
 90
3
 70
0
 10
8.0100441873
 20
13.9429380055
 10
8.0136965092
 20
13.9435967783
 10
8.017416009
 20
13.9438343324
  0
LINE
  5
466
100
AcDbEntity
  8
0
100
AcDbLine
 62
7
  6
CONTINUOUS
 10
7.266160822
 20
13.9048402074
 11
7.3507170138
 21
13.9048402074
  0
LINE
  5
467
100
AcDbEntity
  8
0
100
AcDbLine
 62
7
  6
CONTINUOUS
 10
8.5133213269
 20
13.9480074378
 11
8.0270456327
 21
13.9480074378
  0
LINE
  5
468
100
AcDbEntity
  8
0
100
AcDbLine
 62
7
  6
CONTINUOUS
 10
7.2310962785
 20
13.9480074378
 11
6.7473467738
 21
13.9480074378
  0
LINE
  5
469
100
AcDbEntity
  8
0
100
AcDbLine
 62
7
  6
CONTINUOUS
 10
6.6460820818
 20
14.0649101989
 11
7.1853100129
 21
14.0649101989
  0
LINE
  5
46A
100
AcDbEntity
  8
0
100
AcDbLine
 62
7
  6
CONTINUOUS
 10
7.9099510869
 20
14.0649101989
 11
8.6145860189
 21
14.0649101989
  0
LWPOLYLINE
  5
46B
100
AcDbEntity
  8
0
100
AcDbPolyline
 62
7
  6
CONTINUOUS
 90
6
 70
0
 10
7.2310962785
 20
13.9480074378
 10
7.2333717667
 20
13.9479521871
 10
7.2357431569
 20
13.9476811062
 10
7.2382073874
 20
13.9471887551
 10
7.2407601345
 20
13.9464684857
 10
7.2416289596
 20
13.9461767195
  0
LWPOLYLINE
  5
46C
100
AcDbEntity
  8
0
100
AcDbPolyline
 62
7
  6
CONTINUOUS
 90
24
 70
0
 10
7.1853100129
 20
14.0649101989
 10
7.196151794
 20
14.0645359282
 10
7.2070904732
 20
14.0634025357
 10
7.2181065259
 20
14.0614900034
 10
7.2291750618
 20
14.0587733226
 10
7.240231172
 20
14.0552349297
 10
7.2511045144
 20
14.0509070271
 10
7.2616609838
 20
14.0458408533
 10
7.2718318097
 20
14.0400773815
 10
7.2815575407
 20
14.0336605681
 10
7.2907829027
 20
14.0266388869
 10
7.299457035
 20
14.0190651098
 10
7.3075347868
 20
14.0109951891
 10
7.3149781545
 20
14.0024863224
 10
7.321755533
 20
13.9935968824
 10
7.3278420981
 20
13.9843852598
 10
7.3332216011
 20
13.974905405
 10
7.3378834474
 20
13.965208681
 10
7.3418222842
 20
13.9553426087
 10
7.3450389043
 20
13.9453436173
 10
7.3475344059
 20
13.9352475534
 10
7.3493090039
 20
13.9251008237
 10
7.3503669774
 20
13.9149502422
 10
7.3507170138
 20
13.9048402074
  0
LINE
  5
46D
100
AcDbEntity
  8
0
100
AcDbLine
 62
7
  6
CONTINUOUS
 10
6.6460820818
 20
14.8099124644
 11
8.6145860189
 21
14.8099124644
  0
LINE
  5
46E
100
AcDbEntity
  8
0
100
AcDbLine
 62
7
  6
CONTINUOUS
 10
6.7149515924
 20
14.8768415983
 11
8.5457165083
 21
14.8768415983
  0
LINE
  5
46F
100
AcDbEntity
  8
0
100
AcDbLine
 62
7
  6
CONTINUOUS
 10
7.0574994047
 20
3.0396998506
 11
7.0574994047
 21
2.8738307606
  0
LWPOLYLINE
  5
470
100
AcDbEntity
  8
0
100
AcDbPolyline
 62
7
  6
CONTINUOUS
 90
16
 70
0
 10
7.0889954677
 20
3.1827492146
 10
7.1308985394
 20
3.2644670422
 10
7.1850418801
 20
3.3386436518
 10
7.2500985334
 20
3.403461108
 10
7.3244740774
 20
3.457330851
 10
7.4063457009
 20
3.4989326299
 10
7.4937068773
 20
3.5272468599
 10
7.5844165407
 20
3.5415796099
 10
7.67625156
 20
3.5415796099
 10
7.7669612234
 20
3.5272468599
 10
7.8543223997
 20
3.4989326299
 10
7.9361940233
 20
3.457330851
 10
8.0105695673
 20
3.403461108
 10
8.0756262206
 20
3.3386436518
 10
8.1297695613
 20
3.2644670422
 10
8.171672633
 20
3.1827492146
  0
LINE
  5
471
100
AcDbEntity
  8
0
100
AcDbLine
 62
7
  6
CONTINUOUS
 10
7.0889954677
 20
2.7307813966
 11
7.0889954677
 21
3.1827492146
  0
LINE
  5
472
100
AcDbEntity
  8
0
100
AcDbLine
 62
7
  6
CONTINUOUS
 10
7.1204915307
 20
3.0396998506
 11
7.1204915307
 21
2.8738307606
  0
LWPOLYLINE
  5
473
100
AcDbEntity
  8
0
100
AcDbPolyline
 62
7
  6
CONTINUOUS
 90
4
 70
0
 10
7.2839735722
 20
3.1552130047
 10
7.2537303155
 20
3.0928417128
 10
7.2346669239
 20
3.0260267619
 10
7.2274018024
 20
2.9567653057
  0
LINE
  5
474
100
AcDbEntity
  8
0
100
AcDbLine
 62
7
  6
CONTINUOUS
 10
7.0574994047
 20
2.8738307606
 11
7.1204915307
 21
2.8738307606
  0
LINE
  5
475
100
AcDbEntity
  8
0
100
AcDbLine
 62
7
  6
CONTINUOUS
 10
8.14017657
 20
2.8738307606
 11
8.203168696
 21
2.8738307606
  0
LINE
  5
476
100
AcDbEntity
  8
0
100
AcDbLine
 62
7
  6
CONTINUOUS
 10
8.1355833942
 20
3.0784026383
 11
8.1662045665
 21
3.0857745979
  0
LINE
  5
477
100
AcDbEntity
  8
0
100
AcDbLine
 62
7
  6
CONTINUOUS
 10
8.1968257389
 20
3.0931465574
 11
8.171672633
 21
3.0870910192
  0
LINE
  5
478
100
AcDbEntity
  8
0
100
AcDbLine
 62
7
  6
CONTINUOUS
 10
7.0638423618
 20
2.8203840538
 11
7.0889954677
 21
2.826439592
  0
LINE
  5
479
100
AcDbEntity
  8
0
100
AcDbLine
 62
7
  6
CONTINUOUS
 10
7.1250847065
 20
2.8351279729
 11
7.0944635342
 21
2.8277560134
  0
LINE
  5
47A
100
AcDbEntity
  8
0
100
AcDbLine
 62
7
  6
CONTINUOUS
 10
7.9852243691
 20
2.9197547967
 11
8.0048032284
 21
2.9177129728
  0
LINE
  5
47B
100
AcDbEntity
  8
0
100
AcDbLine
 62
7
  6
CONTINUOUS
 10
8.1968257389
 20
2.8203840538
 11
8.171672633
 21
2.826439592
  0
LINE
  5
47C
100
AcDbEntity
  8
0
100
AcDbLine
 62
7
  6
CONTINUOUS
 10
7.1250847065
 20
3.0784026383
 11
7.0944635342
 21
3.0857745979
  0
LINE
  5
47D
100
AcDbEntity
  8
0
100
AcDbLine
 62
7
  6
CONTINUOUS
 10
7.0638423618
 20
3.0931465574
 11
7.0889954677
 21
3.0870910192
  0
LINE
  5
47E
100
AcDbEntity
  8
0
100
AcDbLine
 62
7
  6
CONTINUOUS
 10
8.1355833942
 20
2.8351279729
 11
8.1662045665
 21
2.8277560134
  0
LINE
  5
47F
100
AcDbEntity
  8
0
100
AcDbLine
 62
7
  6
CONTINUOUS
 10
7.0574994047
 20
3.0396998506
 11
7.1204915307
 21
3.0396998506
  0
LINE
  5
480
100
AcDbEntity
  8
0
100
AcDbLine
 62
7
  6
CONTINUOUS
 10
8.14017657
 20
3.0396998506
 11
8.203168696
 21
3.0396998506
  0
LWPOLYLINE
  5
481
100
AcDbEntity
  8
0
100
AcDbPolyline
 62
7
  6
CONTINUOUS
 90
17
 70
0
 10
7.9266081371
 20
3.1721261829
 10
7.9260804493
 20
3.1722893653
 10
7.9255318336
 20
3.1725791281
 10
7.9250020107
 20
3.1729215513
 10
7.9244903327
 20
3.1732898745
 10
7.9239798171
 20
3.1736835954
 10
7.9234585876
 20
3.1741059248
 10
7.9229157927
 20
3.1745626889
 10
7.922341167
 20
3.1750611337
 10
7.9217247652
 20
3.1756093821
 10
7.9210568331
 20
3.1762161138
 10
7.9203277937
 20
3.1768902947
 10
7.9195283585
 20
3.1776408623
 10
7.9186497754
 20
3.1784763109
 10
7.9176841918
 20
3.1794041781
 10
7.9166250174
 20
3.1804305405
 10
7.9154667781
 20
3.1815600292
  0
LINE
  5
482
100
AcDbEntity
  8
0
100
AcDbLine
 62
7
  6
CONTINUOUS
 10
8.0028580529
 20
2.9798261259
 11
8.0048032284
 21
2.9177129728
  0
LWPOLYLINE
  5
483
100
AcDbEntity
  8
0
100
AcDbPolyline
 62
7
  6
CONTINUOUS
 90
19
 70
0
 10
7.9558478865
 20
2.7675749452
 10
7.9851378841
 20
2.8270611855
 10
8.0036077818
 20
2.8909257903
 10
8.0106357894
 20
2.9571936631
 10
8.0059539858
 20
3.0238749797
 10
7.9896496674
 20
3.0888759367
 10
7.9621770224
 20
3.150183155
 10
7.9243372294
 20
3.2058917807
 10
7.877249198
 20
3.254269629
 10
7.8223204074
 20
3.2938017563
 10
7.761200146
 20
3.3232420484
 10
7.6957322748
 20
3.3416489244
 10
7.6278956652
 20
3.3484156345
 10
7.5597519343
 20
3.3432883202
 10
7.4933745295
 20
3.3263762458
 10
7.4307816212
 20
3.2981443886
 10
7.3738884153
 20
3.2594029988
 10
7.3244439411
 20
3.2112856363
 10
7.2839735722
 20
3.1552130047
  0
LINE
  5
484
100
AcDbEntity
  8
0
100
AcDbLine
 62
7
  6
CONTINUOUS
 10
7.9706396098
 20
2.7848866618
 11
7.9313644215
 21
2.7306393106
  0
LINE
  5
485
100
AcDbEntity
  8
0
100
AcDbLine
 62
7
  6
CONTINUOUS
 10
7.702324595
 20
3.3259234549
 11
7.7169904865
 21
3.3228403754
  0
LINE
  5
486
100
AcDbEntity
  8
0
100
AcDbLine
 62
7
  6
CONTINUOUS
 10
7.7169904865
 20
3.3228403754
 11
7.7370765141
 21
3.317348774
  0
LINE
  5
487
100
AcDbEntity
  8
0
100
AcDbLine
 62
7
  6
CONTINUOUS
 10
7.7370765141
 20
3.317348774
 11
7.7551904366
 21
3.3113169822
  0
LWPOLYLINE
  5
488
100
AcDbEntity
  8
0
100
AcDbPolyline
 62
7
  6
CONTINUOUS
 90
3
 70
0
 10
7.7551904366
 20
3.3113169822
 10
7.7714957438
 20
3.3049622774
 10
7.7861506217
 20
3.2984568583
  0
LINE
  5
489
100
AcDbEntity
  8
0
100
AcDbLine
 62
7
  6
CONTINUOUS
 10
7.7861506217
 20
3.2984568583
 11
7.7993272428
 21
3.2919243384
  0
LWPOLYLINE
  5
48A
100
AcDbEntity
  8
0
100
AcDbPolyline
 62
7
  6
CONTINUOUS
 90
50
 70
0
 10
7.7993272428
 20
3.2919243384
 10
7.8112010995
 20
3.2854462455
 10
7.8219457657
 20
3.2790677256
 10
7.8317293402
 20
3.2728029931
 10
7.8406936934
 20
3.2666533256
 10
7.8488882653
 20
3.2606642451
 10
7.8563386249
 20
3.2548920248
 10
7.8630744562
 20
3.2493854164
 10
7.8691337806
 20
3.2441809221
 10
7.8745736165
 20
3.2392911806
 10
7.8794467688
 20
3.2347235141
 10
7.8838036252
 20
3.2304791649
 10
7.8876923557
 20
3.2265537599
 10
7.8911587588
 20
3.222938114
 10
7.8942462381
 20
3.2196189288
 10
7.8969958555
 20
3.2165794075
 10
7.8994464403
 20
3.2137997896
 10
7.9016347327
 20
3.2112578104
 10
7.9035955467
 20
3.208929093
 10
7.9053619401
 20
3.2067874789
 10
7.9069653781
 20
3.2048053045
 10
7.9084358834
 20
3.202953628
 10
7.9098021628
 20
3.2012024102
 10
7.9110917021
 20
3.1995206521
 10
7.9123308192
 20
3.1978764885
 10
7.9135447431
 20
3.1962371286
 10
7.9147562486
 20
3.1945706402
 10
7.9159709551
 20
3.1928666623
 10
7.9171694569
 20
3.1911497877
 10
7.9183316841
 20
3.1894473174
 10
7.9194386776
 20
3.1877870021
 10
7.9204725543
 20
3.1861972846
 10
7.9214169324
 20
3.1847068637
 10
7.922262575
 20
3.1833356216
 10
7.9230168572
 20
3.1820775001
 10
7.9236825147
 20
3.1809337973
 10
7.9242645755
 20
3.1799019581
 10
7.9247705451
 20
3.1789747072
 10
7.9252092921
 20
3.1781414437
 10
7.9255900365
 20
3.1773896476
 10
7.9259216208
 20
3.1767059182
 10
7.9262120274
 20
3.1760765848
 10
7.9264680106
 20
3.1754879669
 10
7.9266946442
 20
3.1749264042
 10
7.9268944451
 20
3.1743781814
 10
7.9270652638
 20
3.1738295185
 10
7.9271942685
 20
3.1732668687
 10
7.9272343704
 20
3.1726875115
 10
7.927057017
 20
3.1722323338
 10
7.9266081371
 20
3.1721261829
  0
LWPOLYLINE
  5
48B
100
AcDbEntity
  8
0
100
AcDbPolyline
 62
7
  6
CONTINUOUS
 90
6
 70
0
 10
7.8532561933
 20
3.2353736943
 10
7.8990649256
 20
3.196485636
 10
7.9380031561
 20
3.1501657753
 10
7.9688762559
 20
3.097658367
 10
7.9907355004
 20
3.0403524255
 10
8.0028580529
 20
2.9798261259
  0
LWPOLYLINE
  5
48C
100
AcDbEntity
  8
0
100
AcDbPolyline
 62
7
  6
CONTINUOUS
 90
20
 70
0
 10
7.9098725935
 20
3.1870496314
 10
7.9082816179
 20
3.1886067877
 10
7.9066339893
 20
3.1902129319
 10
7.9049400442
 20
3.1918556428
 10
7.9032099122
 20
3.1935230089
 10
7.9014380205
 20
3.1952184666
 10
7.899594762
 20
3.1969681084
 10
7.8976482184
 20
3.1987992329
 10
7.8955658435
 20
3.2007384379
 10
7.8933143056
 20
3.2028114574
 10
7.8908593315
 20
3.2050429504
 10
7.8881655336
 20
3.2074562479
 10
7.8851962234
 20
3.210073052
 10
7.8819132159
 20
3.2129130794
 10
7.8782766351
 20
3.2159936411
 10
7.8742447314
 20
3.2193291537
 10
7.8697737268
 20
3.2229305731
 10
7.8648177069
 20
3.2268047472
 10
7.8593285814
 20
3.2309536837
 10
7.8532561933
 20
3.2353736943
  0
LINE
  5
48D
100
AcDbEntity
  8
0
100
AcDbLine
 62
7
  6
CONTINUOUS
 10
7.9154667781
 20
3.1815600292
 11
7.9098725935
 21
3.1870496314
  0
LWPOLYLINE
  5
48E
100
AcDbEntity
  8
0
100
AcDbPolyline
 62
7
  6
CONTINUOUS
 90
19
 70
0
 10
8.0559046825
 20
2.9567653055
 10
8.0483415865
 20
2.8838140459
 10
8.0283691603
 20
2.8133646789
 10
7.9967497019
 20
2.7477569739
 10
7.9543926024
 20
2.6886573044
 10
7.9019459063
 20
2.6372912824
 10
7.8412817727
 20
2.5958255829
 10
7.7752406514
 20
2.5659549646
 10
7.7051773742
 20
2.5480042593
 10
7.6321255467
 20
2.5424865778
 10
7.5593903363
 20
2.5498965827
 10
7.4902481157
 20
2.5695781739
 10
7.4260691696
 20
2.6006968823
 10
7.3677756414
 20
2.6428642362
 10
7.3178810722
 20
2.6944516957
 10
7.2782076463
 20
2.7532489594
 10
7.2493633945
 20
2.8180199857
 10
7.2323001235
 20
2.8864807173
 10
7.2274018024
 20
2.9567653057
  0
LWPOLYLINE
  5
48F
100
AcDbEntity
  8
0
100
AcDbPolyline
 62
7
  6
CONTINUOUS
 90
11
 70
0
 10
7.6121294907
 20
3.3935760921
 10
7.6825909478
 20
3.3896466316
 10
7.750714138
 20
3.3746401511
 10
7.815250376
 20
3.3490858552
 10
7.8756215018
 20
3.313036502
 10
7.9293805536
 20
3.2676533269
 10
7.974555158
 20
3.2148140552
 10
8.0101723386
 20
3.156294698
 10
8.0360977214
 20
3.0926071925
 10
8.0515414084
 20
3.0252051591
 10
8.0559046825
 20
2.9567653055
  0
LWPOLYLINE
  5
490
100
AcDbEntity
  8
0
100
AcDbPolyline
 62
7
  6
CONTINUOUS
 90
13
 70
0
 10
7.6121294907
 20
3.3935760921
 10
7.6860310628
 20
3.3857624894
 10
7.7569441017
 20
3.36560291
 10
7.8228230923
 20
3.333853893
 10
7.8817881841
 20
3.2916089452
 10
7.9321770855
 20
3.2402687883
 10
7.9726000011
 20
3.181496526
 10
8.0019812584
 20
3.1171646025
 10
8.019589425
 20
3.0492977403
 10
8.0250581468
 20
2.9800142725
 10
8.0184024237
 20
2.9114791551
 10
8.0000159091
 20
2.8457799864
 10
7.9706396098
 20
2.7848866618
  0
LINE
  5
491
100
AcDbEntity
  8
0
100
AcDbLine
 62
7
  6
CONTINUOUS
 10
8.14017657
 20
2.8738307606
 11
8.14017657
 21
3.0396998506
  0
LINE
  5
492
100
AcDbEntity
  8
0
100
AcDbLine
 62
7
  6
CONTINUOUS
 10
8.171672633
 20
2.7307813966
 11
8.171672633
 21
3.1827492146
  0
LINE
  5
493
100
AcDbEntity
  8
0
100
AcDbLine
 62
7
  6
CONTINUOUS
 10
8.203168696
 20
2.8738307606
 11
8.203168696
 21
3.0396998506
  0
LWPOLYLINE
  5
494
100
AcDbEntity
  8
0
100
AcDbPolyline
 62
7
  6
CONTINUOUS
 90
16
 70
0
 10
8.171672633
 20
2.7307813966
 10
8.1297695613
 20
2.6490635691
 10
8.0756262206
 20
2.5748869594
 10
8.0105695673
 20
2.5100695032
 10
7.9361940233
 20
2.4561997603
 10
7.8543223997
 20
2.4145979813
 10
7.7669612234
 20
2.3862837513
 10
7.67625156
 20
2.3719510013
 10
7.5844165407
 20
2.3719510013
 10
7.4937068773
 20
2.3862837513
 10
7.4063457009
 20
2.4145979813
 10
7.3244740774
 20
2.4561997603
 10
7.2500985334
 20
2.5100695032
 10
7.1850418801
 20
2.5748869594
 10
7.1308985394
 20
2.6490635691
 10
7.0889954677
 20
2.7307813966
  0
LWPOLYLINE
  5
495
100
AcDbEntity
  8
02___PRT_ALL_AXES
100
AcDbPolyline
 62
7
  6
CONTINUOUS
 90
9
 70
0
 10
16.989297011
 20
5.1021707214
 10
16.97659492
 20
5.1082497348
 10
16.9652456019
 20
5.1155451068
 10
16.9554800962
 20
5.1239083245
 10
16.9474972003
 20
5.1331691371
 10
16.941459423
 20
5.143139021
 10
16.937489676
 20
5.1536150182
 10
16.935668772
 20
5.1643838675
 10
16.9355478379
 20
5.1680007582
  0
LWPOLYLINE
  5
496
100
AcDbEntity
  8
0
100
AcDbPolyline
 62
7
  6
CONTINUOUS
 90
10
 70
0
 10
17.0598067762
 20
5.9749799484
 10
17.1511172748
 20
5.9829519547
 10
17.2397791651
 20
6.0009159333
 10
17.323619503
 20
6.0284571449
 10
17.4005835123
 20
6.0649261292
 10
17.4687849429
 20
6.1094546223
 10
17.5265523002
 20
6.1609768362
 10
17.5724698098
 20
6.2182555794
 10
17.6054121159
 20
6.2799125781
 10
17.6200797586
 20
6.3293282442
  0
LWPOLYLINE
  5
497
100
AcDbEntity
  8
0
100
AcDbPolyline
 62
7
  6
CONTINUOUS
 90
6
 70
0
 10
16.9680855257
 20
5.8466055636
 10
17.0598067762
 20
5.8444157435
 10
17.1511172748
 20
5.8523877498
 10
17.2397791651
 20
5.8703517284
 10
17.323619503
 20
5.89789294
 10
17.4005835123
 20
5.9343619243
  0
LWPOLYLINE
  5
498
100
AcDbEntity
  8
0
100
AcDbPolyline
 62
7
  6
CONTINUOUS
 90
7
 70
0
 10
16.9680855257
 20
5.851894945
 10
17.0598067762
 20
5.8497051249
 10
17.1511172748
 20
5.8576771312
 10
17.2397791651
 20
5.8756411099
 10
17.323619503
 20
5.9031823214
 10
17.4005835123
 20
5.9396513057
 10
17.4687849429
 20
5.9841797988
  0
LWPOLYLINE
  5
499
100
AcDbEntity
  8
0
100
AcDbPolyline
 62
7
  6
CONTINUOUS
 90
9
 70
0
 10
16.9680855257
 20
5.8883638381
 10
17.0598067762
 20
5.886174018
 10
17.1511172748
 20
5.8941460243
 10
17.2397791651
 20
5.9121100029
 10
17.323619503
 20
5.9396512145
 10
17.4005835123
 20
5.9761201988
 10
17.4687849429
 20
6.0206486919
 10
17.5265523002
 20
6.0721709058
 10
17.5724698098
 20
6.129449649
  0
LWPOLYLINE
  5
49A
100
AcDbEntity
  8
0
100
AcDbPolyline
 62
7
  6
CONTINUOUS
 90
9
 70
0
 10
16.9680855257
 20
5.8936532195
 10
17.0598067762
 20
5.8914633994
 10
17.1511172748
 20
5.8994354057
 10
17.2397791651
 20
5.9173993843
 10
17.323619503
 20
5.9449405959
 10
17.4005835123
 20
5.9814095802
 10
17.4687849429
 20
6.0259380733
 10
17.5265523002
 20
6.0774602873
 10
17.5724698098
 20
6.1347390305
  0
LWPOLYLINE
  5
49B
100
AcDbEntity
  8
0
100
AcDbPolyline
 62
7
  6
CONTINUOUS
 90
9
 70
0
 10
16.9680855257
 20
5.9301221125
 10
17.0598067762
 20
5.9279322925
 10
17.1511172748
 20
5.9359042988
 10
17.2397791651
 20
5.9538682774
 10
17.323619503
 20
5.981409489
 10
17.4005835123
 20
6.0178784732
 10
17.4687849429
 20
6.0624069664
 10
17.5265523002
 20
6.1139291803
 10
17.5724698098
 20
6.1712079235
  0
LWPOLYLINE
  5
49C
100
AcDbEntity
  8
0
100
AcDbPolyline
 62
7
  6
CONTINUOUS
 90
9
 70
0
 10
16.9680855257
 20
5.935411494
 10
17.0598067762
 20
5.9332216739
 10
17.1511172748
 20
5.9411936802
 10
17.2397791651
 20
5.9591576588
 10
17.323619503
 20
5.9866988704
 10
17.4005835123
 20
6.0231678547
 10
17.4687849429
 20
6.0676963478
 10
17.5265523002
 20
6.1192185618
 10
17.5724698098
 20
6.1764973049
  0
LWPOLYLINE
  5
49D
100
AcDbEntity
  8
0
100
AcDbPolyline
 62
7
  6
CONTINUOUS
 90
6
 70
0
 10
16.9680855257
 20
5.971880387
 10
17.0598067762
 20
5.9696905669
 10
17.1511172748
 20
5.9776625732
 10
17.2397791651
 20
5.9956265519
 10
17.323619503
 20
6.0231677634
 10
17.4005835123
 20
6.0596367477
  0
LINE
  5
49E
100
AcDbEntity
  8
0
100
AcDbLine
 62
7
  6
CONTINUOUS
 10
16.9680855257
 20
5.9771697685
 11
17.0598067762
 21
5.9749799484
  0
LWPOLYLINE
  5
49F
100
AcDbEntity
  8
0
100
AcDbPolyline
 62
7
  6
CONTINUOUS
 90
5
 70
0
 10
16.9680855257
 20
6.0136386615
 10
17.0598067762
 20
6.0114488414
 10
17.1511172748
 20
6.0194208477
 10
17.2397791651
 20
6.0373848263
 10
17.323619503
 20
6.0649260379
  0
LWPOLYLINE
  5
4A0
100
AcDbEntity
  8
0
100
AcDbPolyline
 62
7
  6
CONTINUOUS
 90
5
 70
0
 10
16.9680855257
 20
6.0189280429
 10
17.0598067762
 20
6.0167382228
 10
17.1511172748
 20
6.0247102292
 10
17.2397791651
 20
6.0426742078
 10
17.323619503
 20
6.0702154193
  0
LINE
  5
4A1
100
AcDbEntity
  8
0
100
AcDbLine
 62
7
  6
CONTINUOUS
 10
16.9725759941
 20
5.8396266531
 11
16.8893208317
 21
5.852106079
  0
LINE
  5
4A2
100
AcDbEntity
  8
0
100
AcDbLine
 62
7
  6
CONTINUOUS
 10
16.9336896649
 20
5.8545568803
 11
16.8868370773
 21
5.8615782481
  0
LINE
  5
4A3
100
AcDbEntity
  8
0
100
AcDbLine
 62
7
  6
CONTINUOUS
 10
16.9357481461
 20
5.8957578343
 11
16.8621822846
 21
5.9082248593
  0
LINE
  5
4A4
100
AcDbEntity
  8
0
100
AcDbLine
 62
7
  6
CONTINUOUS
 10
16.9363437776
 20
5.9373799166
 11
16.8621822846
 21
5.9499831338
  0
LINE
  5
4A5
100
AcDbEntity
  8
0
100
AcDbLine
 62
7
  6
CONTINUOUS
 10
16.9413584066
 20
5.9782209347
 11
16.8621822846
 21
5.9917414083
  0
LWPOLYLINE
  5
4A6
100
AcDbEntity
  8
0
100
AcDbPolyline
 62
7
  6
CONTINUOUS
 90
4
 70
0
 10
16.9680855257
 20
5.8883638381
 10
16.93259922
 20
5.8964778415
 10
16.8972822608
 20
5.9055969331
 10
16.8621822846
 20
5.9157627711
  0
LWPOLYLINE
  5
4A7
100
AcDbEntity
  8
0
100
AcDbPolyline
 62
7
  6
CONTINUOUS
 90
4
 70
0
 10
16.9680855257
 20
5.9301221125
 10
16.93259922
 20
5.938236116
 10
16.8972822608
 20
5.9473552076
 10
16.8621822846
 20
5.9575210456
  0
LWPOLYLINE
  5
4A8
100
AcDbEntity
  8
0
100
AcDbPolyline
 62
7
  6
CONTINUOUS
 90
4
 70
0
 10
16.5766699136
 20
6.0481914685
 10
16.612150568
 20
6.0400788389
 10
16.6474670541
 20
6.0309600494
 10
16.6825731547
 20
6.0207925354
  0
LWPOLYLINE
  5
4A9
100
AcDbEntity
  8
0
100
AcDbPolyline
 62
7
  6
CONTINUOUS
 90
4
 70
0
 10
16.9680855257
 20
5.971880387
 10
16.93259922
 20
5.9799943905
 10
16.8972822608
 20
5.9891134821
 10
16.8621822846
 20
5.9992793201
  0
LWPOLYLINE
  5
4AA
100
AcDbEntity
  8
0
100
AcDbPolyline
 62
7
  6
CONTINUOUS
 90
4
 70
0
 10
16.8893208317
 20
5.852106079
 10
16.8751747037
 20
5.8554966302
 10
16.8613901599
 20
5.859682409
 10
16.8480447811
 20
5.8646472706
  0
LWPOLYLINE
  5
4AB
100
AcDbEntity
  8
0
100
AcDbPolyline
 62
7
  6
CONTINUOUS
 90
4
 70
0
 10
16.8868370773
 20
5.8615782481
 10
16.872158887
 20
5.8650953664
 10
16.857917484
 20
5.8694180944
 10
16.8442011425
 20
5.874519638
  0
LWPOLYLINE
  5
4AC
100
AcDbEntity
  8
0
100
AcDbPolyline
 62
7
  6
CONTINUOUS
 90
3
 70
0
 10
16.8852404665
 20
5.8671990926
 10
16.9264414361
 20
5.8562324588
 10
16.9680855257
 20
5.8466055636
  0
LINE
  5
4AD
100
AcDbEntity
  8
0
100
AcDbLine
 62
7
  6
CONTINUOUS
 10
16.8442011425
 20
5.879658069
 11
16.8852404665
 21
5.8671990926
  0
LINE
  5
4AE
100
AcDbEntity
  8
0
100
AcDbLine
 62
7
  6
CONTINUOUS
 10
16.8480447811
 20
5.8646472706
 11
16.7043979355
 21
5.9232908498
  0
LINE
  5
4AF
100
AcDbEntity
  8
0
100
AcDbLine
 62
7
  6
CONTINUOUS
 10
16.8442011425
 20
5.874519638
 11
16.7005542968
 21
5.9331632171
  0
LWPOLYLINE
  5
4B0
100
AcDbEntity
  8
0
100
AcDbPolyline
 62
7
  6
CONTINUOUS
 90
13
 70
0
 10
16.1510691171
 20
12.1547198843
 10
16.2163002045
 20
12.2406393671
 10
16.2976215749
 20
12.3196032431
 10
16.3930845728
 20
12.3895431497
 10
16.500936111
 20
12.4492194744
 10
16.6187770506
 20
12.4974092108
 10
16.7444332859
 20
12.5333623845
 10
16.8754505586
 20
12.5564870689
 10
17.0094591114
 20
12.566450807
 10
17.1439934791
 20
12.5631176752
 10
17.276682262
 20
12.5465523044
 10
17.4049785427
 20
12.5170544837
 10
17.5267790993
 20
12.4750356638
  0
LWPOLYLINE
  5
4B1
100
AcDbEntity
  8
AXIS
100
AcDbPolyline
 62
7
  6
CONTINUOUS
 90
17
 70
0
 10
16.4106776191
 20
12.1887236052
 10
16.3725292235
 20
12.1420015533
 10
16.3412612477
 20
12.0927902028
 10
16.3171945435
 20
12.0415945286
 10
16.3005760679
 20
11.9889398677
 10
16.2915763489
 20
11.9353665282
 10
16.2902877358
 20
11.881424245
 10
16.2967234514
 20
11.8276665389
 10
16.3108174568
 20
11.7746450368
 10
16.3324251282
 20
11.722903811
 10
16.3613247418
 20
11.6729737966
 10
16.3972197483
 20
11.6253673429
 10
16.4397418166
 20
11.5805729567
 10
16.4884546125
 20
11.539050289
 10
16.5428582769
 20
11.5012254185
 10
16.6023945546
 20
11.4674864796
 10
16.6664525228
 20
11.4381796794
  0
LWPOLYLINE
  5
4B2
100
AcDbEntity
  8
0
100
AcDbPolyline
 62
7
  6
CONTINUOUS
 90
3
 70
0
 10
17.1511172748
 20
6.1029373967
 10
17.2397791651
 20
6.1209013753
 10
17.323619503
 20
6.1484425869
  0
LWPOLYLINE
  5
4B3
100
AcDbEntity
  8
0
100
AcDbPolyline
 62
7
  6
CONTINUOUS
 90
3
 70
0
 10
17.1511172748
 20
6.1446956712
 10
17.2397791651
 20
6.1626596498
 10
17.323619503
 20
6.1902008613
  0
LWPOLYLINE
  5
4B4
100
AcDbEntity
  8
0
100
AcDbPolyline
 62
7
  6
CONTINUOUS
 90
4
 70
0
 10
17.1511172748
 20
6.1499850526
 10
17.2397791651
 20
6.1679490312
 10
17.323619503
 20
6.1954902428
 10
17.36414775
 20
6.2146943359
  0
LWPOLYLINE
  5
4B5
100
AcDbEntity
  8
0
100
AcDbPolyline
 62
7
  6
CONTINUOUS
 90
4
 70
0
 10
16.9680855257
 20
6.055396936
 10
17.0598067762
 20
6.0532071159
 10
17.1511172748
 20
6.0611791222
 10
17.2397791651
 20
6.0791431008
  0
LWPOLYLINE
  5
4B6
100
AcDbEntity
  8
0
100
AcDbPolyline
 62
7
  6
CONTINUOUS
 90
4
 70
0
 10
16.9680855257
 20
6.0606863174
 10
17.0598067762
 20
6.0584964973
 10
17.1511172748
 20
6.0664685036
 10
17.2397791651
 20
6.0844324823
  0
LWPOLYLINE
  5
4B7
100
AcDbEntity
  8
0
100
AcDbPolyline
 62
7
  6
CONTINUOUS
 90
3
 70
0
 10
16.9680855257
 20
6.0971552105
 10
17.0598067762
 20
6.0949653904
 10
17.1511172748
 20
6.1029373967
  0
LWPOLYLINE
  5
4B8
100
AcDbEntity
  8
0
100
AcDbPolyline
 62
7
  6
CONTINUOUS
 90
4
 70
0
 10
16.9680855257
 20
6.1024445919
 10
17.0598067762
 20
6.1002547718
 10
17.1511172748
 20
6.1082267781
 10
17.2397791651
 20
6.1261907567
  0
LWPOLYLINE
  5
4B9
100
AcDbEntity
  8
0
100
AcDbPolyline
 62
7
  6
CONTINUOUS
 90
3
 70
0
 10
16.9680855257
 20
6.1389134849
 10
17.0598067762
 20
6.1367236649
 10
17.1511172748
 20
6.1446956712
  0
LWPOLYLINE
  5
4BA
100
AcDbEntity
  8
0
100
AcDbPolyline
 62
7
  6
CONTINUOUS
 90
3
 70
0
 10
16.9680855257
 20
6.1442028664
 10
17.0598067762
 20
6.1420130463
 10
17.1511172748
 20
6.1499850526
  0
LWPOLYLINE
  5
4BB
100
AcDbEntity
  8
AXIS
100
AcDbPolyline
 62
7
  6
CONTINUOUS
 90
4
 70
0
 10
16.9913911094
 20
6.1705641213
 10
16.8615104488
 20
6.1833462759
 10
16.7356407721
 20
6.2101652275
 10
16.6159886346
 20
6.2506981083
  0
LINE
  5
4BC
100
AcDbEntity
  8
0
100
AcDbLine
 62
7
  6
CONTINUOUS
 10
16.9358333883
 20
6.0627714414
 11
16.8621822846
 21
6.0752579572
  0
LINE
  5
4BD
100
AcDbEntity
  8
0
100
AcDbLine
 62
7
  6
CONTINUOUS
 10
16.9366539153
 20
6.0208255521
 11
16.8621822846
 21
6.0334996827
  0
LINE
  5
4BE
100
AcDbEntity
  8
0
100
AcDbLine
 62
7
  6
CONTINUOUS
 10
16.9369322155
 20
6.1042784672
 11
16.8621822846
 21
6.1170162317
  0
LINE
  5
4BF
100
AcDbEntity
  8
0
100
AcDbLine
 62
7
  6
CONTINUOUS
 10
16.9374181762
 20
6.145925626
 11
16.8621822846
 21
6.1587745062
  0
LWPOLYLINE
  5
4C0
100
AcDbEntity
  8
0
100
AcDbPolyline
 62
7
  6
CONTINUOUS
 90
4
 70
0
 10
16.5766699136
 20
6.089949743
 10
16.612150568
 20
6.0818371134
 10
16.6474670541
 20
6.0727183238
 10
16.6825731547
 20
6.0625508099
  0
LWPOLYLINE
  5
4C1
100
AcDbEntity
  8
0
100
AcDbPolyline
 62
7
  6
CONTINUOUS
 90
4
 70
0
 10
16.9680855257
 20
6.0136386615
 10
16.93259922
 20
6.021752665
 10
16.8972822608
 20
6.0308717566
 10
16.8621822846
 20
6.0410375946
  0
LWPOLYLINE
  5
4C2
100
AcDbEntity
  8
0
100
AcDbPolyline
 62
7
  6
CONTINUOUS
 90
4
 70
0
 10
16.5766699136
 20
6.1317080175
 10
16.612150568
 20
6.1235953878
 10
16.6474670541
 20
6.1144765983
 10
16.6825731547
 20
6.1043090844
  0
LWPOLYLINE
  5
4C3
100
AcDbEntity
  8
0
100
AcDbPolyline
 62
7
  6
CONTINUOUS
 90
4
 70
0
 10
16.9680855257
 20
6.055396936
 10
16.93259922
 20
6.0635109395
 10
16.8972822608
 20
6.0726300311
 10
16.8621822846
 20
6.0827958691
  0
LWPOLYLINE
  5
4C4
100
AcDbEntity
  8
0
100
AcDbPolyline
 62
7
  6
CONTINUOUS
 90
4
 70
0
 10
16.5766699136
 20
6.1734662919
 10
16.612150568
 20
6.1653536623
 10
16.6474670541
 20
6.1562348728
 10
16.6825731547
 20
6.1460673589
  0
LWPOLYLINE
  5
4C5
100
AcDbEntity
  8
0
100
AcDbPolyline
 62
7
  6
CONTINUOUS
 90
4
 70
0
 10
16.9680855257
 20
6.0971552105
 10
16.93259922
 20
6.1052692139
 10
16.8972822608
 20
6.1143883055
 10
16.8621822846
 20
6.1245541435
  0
LWPOLYLINE
  5
4C6
100
AcDbEntity
  8
0
100
AcDbPolyline
 62
7
  6
CONTINUOUS
 90
4
 70
0
 10
16.5766699136
 20
6.2152245664
 10
16.612150568
 20
6.2071119368
 10
16.6474670541
 20
6.1979931473
 10
16.6825731547
 20
6.1878256333
  0
LWPOLYLINE
  5
4C7
100
AcDbEntity
  8
0
100
AcDbPolyline
 62
7
  6
CONTINUOUS
 90
4
 70
0
 10
16.9680855257
 20
6.1389134849
 10
16.93259922
 20
6.1470274884
 10
16.8972822608
 20
6.15614658
 10
16.8621822846
 20
6.166312418
  0
LINE
  5
4C8
100
AcDbEntity
  8
0
100
AcDbLine
 62
7
  6
CONTINUOUS
 10
16.5766699136
 20
6.2569828409
 11
16.612150568
 21
6.2488702113
  0
LINE
  5
4C9
100
AcDbEntity
  8
0
100
AcDbLine
 62
7
  6
CONTINUOUS
 10
16.612150568
 20
6.2488702113
 11
16.6153062817
 21
6.2480553995
  0
LWPOLYLINE
  5
4CA
100
AcDbEntity
  8
0
100
AcDbPolyline
 62
7
  6
CONTINUOUS
 90
3
 70
0
 10
16.7005542968
 20
5.9331632171
 10
16.6874480367
 20
5.9390119548
 10
16.6750330963
 20
5.9455716334
  0
LINE
  5
4CB
100
AcDbEntity
  8
0
100
AcDbLine
 62
7
  6
CONTINUOUS
 10
16.6914656363
 20
5.9290649385
 11
16.7043979355
 21
5.9232908498
  0
LINE
  5
4CC
100
AcDbEntity
  8
0
100
AcDbLine
 62
7
  6
CONTINUOUS
 10
16.6595154221
 20
5.9979689883
 11
16.7005542968
 21
5.9780392524
  0
LWPOLYLINE
  5
4CD
100
AcDbEntity
  8
0
100
AcDbPolyline
 62
7
  6
CONTINUOUS
 90
4
 70
0
 10
16.8621822846
 20
5.9082248593
 10
16.8972879575
 20
5.8906740007
 10
16.9326071534
 20
5.8718718177
 10
16.9680855257
 20
5.851894945
  0
LWPOLYLINE
  5
4CE
100
AcDbEntity
  8
0
100
AcDbPolyline
 62
7
  6
CONTINUOUS
 90
4
 70
0
 10
16.6825731547
 20
6.0283304473
 10
16.6474738879
 20
6.0458779979
 10
16.6121541619
 20
6.0646802688
 10
16.5766699136
 20
6.0846603615
  0
LWPOLYLINE
  5
4CF
100
AcDbEntity
  8
0
100
AcDbPolyline
 62
7
  6
CONTINUOUS
 90
4
 70
0
 10
16.8621822846
 20
5.9499831338
 10
16.8972879575
 20
5.9324322752
 10
16.9326071534
 20
5.9136300921
 10
16.9680855257
 20
5.8936532195
  0
LWPOLYLINE
  5
4D0
100
AcDbEntity
  8
0
100
AcDbPolyline
 62
7
  6
CONTINUOUS
 90
4
 70
0
 10
16.6825731547
 20
6.0700887217
 10
16.6474738879
 20
6.0876362724
 10
16.6121541619
 20
6.1064385433
 10
16.5766699136
 20
6.126418636
  0
LWPOLYLINE
  5
4D1
100
AcDbEntity
  8
0
100
AcDbPolyline
 62
7
  6
CONTINUOUS
 90
4
 70
0
 10
16.8621822846
 20
5.9917414083
 10
16.8972879575
 20
5.9741905497
 10
16.9326071534
 20
5.9553883666
 10
16.9680855257
 20
5.935411494
  0
LWPOLYLINE
  5
4D2
100
AcDbEntity
  8
0
100
AcDbPolyline
 62
7
  6
CONTINUOUS
 90
4
 70
0
 10
16.6825731547
 20
6.1118469962
 10
16.6474738879
 20
6.1293945469
 10
16.6121541619
 20
6.1481968178
 10
16.5766699136
 20
6.1681769105
  0
LWPOLYLINE
  5
4D3
100
AcDbEntity
  8
0
100
AcDbPolyline
 62
7
  6
CONTINUOUS
 90
4
 70
0
 10
16.8621822846
 20
6.0334996827
 10
16.8972879575
 20
6.0159488242
 10
16.9326071534
 20
5.9971466411
 10
16.9680855257
 20
5.9771697685
  0
LWPOLYLINE
  5
4D4
100
AcDbEntity
  8
0
100
AcDbPolyline
 62
7
  6
CONTINUOUS
 90
4
 70
0
 10
16.6825731547
 20
6.1536052707
 10
16.6474738879
 20
6.1711528213
 10
16.6121541619
 20
6.1899550922
 10
16.5766699136
 20
6.209935185
  0
LWPOLYLINE
  5
4D5
100
AcDbEntity
  8
0
100
AcDbPolyline
 62
7
  6
CONTINUOUS
 90
4
 70
0
 10
16.8621822846
 20
6.0752579572
 10
16.8972879575
 20
6.0577070987
 10
16.9326071534
 20
6.0389049156
 10
16.9680855257
 20
6.0189280429
  0
LWPOLYLINE
  5
4D6
100
AcDbEntity
  8
0
100
AcDbPolyline
 62
7
  6
CONTINUOUS
 90
4
 70
0
 10
16.7043979355
 20
5.9232908498
 10
16.7035619032
 20
5.9237561554
 10
16.7013250603
 20
5.9272250637
 10
16.7005542968
 20
5.9331632171
  0
LWPOLYLINE
  5
4D7
100
AcDbEntity
  8
0
100
AcDbPolyline
 62
7
  6
CONTINUOUS
 90
4
 70
0
 10
16.8480447811
 20
5.8646472706
 10
16.8472087489
 20
5.8651125762
 10
16.844971906
 20
5.8685814845
 10
16.8442011425
 20
5.874519638
  0
LWPOLYLINE
  5
4D8
100
AcDbEntity
  8
0
100
AcDbPolyline
 62
7
  6
CONTINUOUS
 90
3
 70
0
 10
16.5766699136
 20
6.0429020871
 10
16.618314191
 20
6.0195628007
 10
16.6595154221
 20
5.9979689883
  0
LWPOLYLINE
  5
4D9
100
AcDbEntity
  8
0
100
AcDbPolyline
 62
7
  6
CONTINUOUS
 90
4
 70
0
 10
16.8893208317
 20
5.852106079
 10
16.8885418455
 20
5.85256664
 10
16.8872739606
 20
5.8557414381
 10
16.8868370773
 20
5.8615782481
  0
LINE
  5
4DA
100
AcDbEntity
  8
0
100
AcDbLine
 62
7
  6
CONTINUOUS
 10
16.6750330963
 20
5.9455716334
 11
16.6633864285
 21
5.9528015934
  0
LWPOLYLINE
  5
4DB
100
AcDbEntity
  8
0
100
AcDbPolyline
 62
7
  6
CONTINUOUS
 90
3
 70
0
 10
16.6675164023
 20
5.9428034061
 10
16.6791430164
 20
5.9355818426
 10
16.6914656363
 20
5.9290649385
  0
LWPOLYLINE
  5
4DC
100
AcDbEntity
  8
AXIS
100
AcDbPolyline
 62
7
  6
CONTINUOUS
 90
4
 70
0
 10
17.2266821651
 20
6.3504434036
 10
17.1268999408
 20
6.3408511746
 10
17.026257272
 20
6.3384462619
 10
16.9257868886
 20
6.3432533432
  0
LWPOLYLINE
  5
4DD
100
AcDbEntity
  8
AXIS
100
AcDbPolyline
 62
7
  6
CONTINUOUS
 90
5
 70
0
 10
16.9257868886
 20
6.3432533432
 10
16.8265197528
 20
6.3552230913
 10
16.7294744796
 20
6.3742326804
 10
16.635646885
 20
6.4000870463
 10
16.5459997669
 20
6.4325208884
  0
LWPOLYLINE
  5
4DE
100
AcDbEntity
  8
0
100
AcDbPolyline
 62
7
  6
CONTINUOUS
 90
8
 70
0
 10
16.7043932077
 20
6.4153685945
 10
16.8711079689
 20
6.3837813669
 10
17.043047011
 20
6.3731445597
 10
17.2149860531
 20
6.3837813669
 10
17.3817008143
 20
6.4153685945
 10
17.5381257512
 20
6.4669464806
 10
17.679507971
 20
6.5369478571
 10
17.8015516466
 20
6.6232457677
  0
LINE
  5
4DF
100
AcDbEntity
  8
0
100
AcDbLine
 62
7
  6
CONTINUOUS
 10
16.5479682708
 20
6.4669464806
 11
16.7043932077
 21
6.4153685945
  0
LWPOLYLINE
  5
4E0
100
AcDbEntity
  8
0
100
AcDbPolyline
 62
7
  6
CONTINUOUS
 90
11
 70
0
 10
16.5459997669
 20
6.463564012
 10
16.6735737415
 20
6.4197431238
 10
16.8086710516
 20
6.389205238
 10
16.9485411965
 20
6.3725727983
 10
17.0903363193
 20
6.3701849125
 10
17.2311694632
 20
6.3820904776
 10
17.3681735368
 20
6.4080473171
 10
17.4985593959
 20
6.4475271819
 10
17.6196725257
 20
6.4997264725
 10
17.72904715
 20
6.5635825883
 10
17.8244564906
 20
6.6377955782
  0
LWPOLYLINE
  5
4E1
100
AcDbEntity
  8
AXIS
100
AcDbPolyline
 62
7
  6
CONTINUOUS
 90
8
 70
0
 10
16.6159886346
 20
6.2506981083
 10
16.5147946879
 20
6.2989848244
 10
16.423421402
 20
6.3571087388
 10
16.3435742668
 20
6.4240008809
 10
16.2769101653
 20
6.4981333111
 10
16.2245716452
 20
6.5777707199
 10
16.1871239342
 20
6.6612056812
 10
16.177890062
 20
6.6965079224
  0
LWPOLYLINE
  5
4E2
100
AcDbEntity
  8
0
100
AcDbPolyline
 62
7
  6
CONTINUOUS
 90
8
 70
0
 10
16.5459997669
 20
6.463564012
 10
16.4285617686
 20
6.5197661237
 10
16.3236220251
 20
6.587216199
 10
16.2333208587
 20
6.6645410848
 10
16.1594993326
 20
6.7501653362
 10
16.1036612836
 20
6.842343656
 10
16.0669359646
 20
6.9392203445
 10
16.0500829256
 20
7.038807566
  0
LWPOLYLINE
  5
4E3
100
AcDbEntity
  8
0
100
AcDbPolyline
 62
7
  6
CONTINUOUS
 90
6
 70
0
 10
16.5479682708
 20
6.4669464806
 10
16.406586051
 20
6.5369478571
 10
16.2845423754
 20
6.6232457677
 10
16.1855454793
 20
6.7232180941
 10
16.1126033333
 20
6.8338272277
 10
16.0679322477
 20
6.9517123659
  0
LWPOLYLINE
  5
4E4
100
AcDbEntity
  8
0
100
AcDbPolyline
 62
7
  6
CONTINUOUS
 90
4
 70
0
 10
16.6825731547
 20
6.1953635452
 10
16.6474738879
 20
6.2129110958
 10
16.6121541619
 20
6.2317133667
 10
16.5766699136
 20
6.2516934595
  0
LWPOLYLINE
  5
4E5
100
AcDbEntity
  8
0
100
AcDbPolyline
 62
7
  6
CONTINUOUS
 90
4
 70
0
 10
16.8621822846
 20
6.1170162317
 10
16.8972879575
 20
6.0994653731
 10
16.9326071534
 20
6.0806631901
 10
16.9680855257
 20
6.0606863174
  0
LWPOLYLINE
  5
4E6
100
AcDbEntity
  8
0
100
AcDbPolyline
 62
7
  6
CONTINUOUS
 90
4
 70
0
 10
16.8621822846
 20
6.1587745062
 10
16.8972879575
 20
6.1412236476
 10
16.9326071534
 20
6.1224214645
 10
16.9680855257
 20
6.1024445919
  0
LWPOLYLINE
  5
4E7
100
AcDbEntity
  8
0
100
AcDbPolyline
 62
7
  6
CONTINUOUS
 90
3
 70
0
 10
16.9045624825
 20
6.1791093268
 10
16.9326071534
 20
6.164179739
 10
16.9680855257
 20
6.1442028664
  0
LINE
  5
4E8
100
AcDbEntity
  8
0
100
AcDbLine
 62
7
  6
CONTINUOUS
 10
16.6825731547
 20
6.0207925354
 11
16.6447693951
 21
6.0473177204
  0
LINE
  5
4E9
100
AcDbEntity
  8
0
100
AcDbLine
 62
7
  6
CONTINUOUS
 10
16.6825731547
 20
6.1878256333
 11
16.6447633956
 21
6.2143540122
  0
LINE
  5
4EA
100
AcDbEntity
  8
0
100
AcDbLine
 62
7
  6
CONTINUOUS
 10
16.6825731547
 20
6.0625508099
 11
16.6449112408
 21
6.0890004841
  0
LINE
  5
4EB
100
AcDbEntity
  8
0
100
AcDbLine
 62
7
  6
CONTINUOUS
 10
16.6825731547
 20
6.1460673589
 11
16.6450232428
 21
6.1724574094
  0
LINE
  5
4EC
100
AcDbEntity
  8
0
100
AcDbLine
 62
7
  6
CONTINUOUS
 10
16.6825731547
 20
6.1043090844
 11
16.6452781989
 21
6.1305634104
  0
LINE
  5
4ED
100
AcDbEntity
  8
0
100
AcDbLine
 62
7
  6
CONTINUOUS
 10
16.6633864285
 20
5.9528015934
 11
16.6055787294
 21
5.9982535467
  0
LWPOLYLINE
  5
4EE
100
AcDbEntity
  8
0
100
AcDbPolyline
 62
7
  6
CONTINUOUS
 90
4
 70
0
 10
16.6675164023
 20
5.9428034061
 10
16.6061047177
 20
5.9915540037
 10
16.55677597
 20
6.0469090804
 10
16.5280089375
 20
6.0951695121
  0
LWPOLYLINE
  5
4EF
100
AcDbEntity
  8
0
100
AcDbPolyline
 62
7
  6
CONTINUOUS
 90
16
 70
0
 10
16.1284528966
 20
10.8767402245
 10
16.1205201398
 20
10.874174368
 10
16.1129176638
 20
10.8711790274
 10
16.1056889348
 20
10.867771328
 10
16.0988752805
 20
10.8639707522
 10
16.0925156589
 20
10.8597990301
 10
16.0866464279
 20
10.8552800119
 10
16.0813011445
 20
10.8504395344
 10
16.0765103694
 20
10.8453052722
 10
16.0723014928
 20
10.8399065795
 10
16.0686985783
 20
10.8342743224
 10
16.0657222244
 20
10.8284407014
 10
16.0633894489
 20
10.8224390713
 10
16.061713588
 20
10.8163037429
 10
16.0607042235
 20
10.810069795
 10
16.0605548752
 20
10.8084762872
  0
LWPOLYLINE
  5
4F0
100
AcDbEntity
  8
0
100
AcDbPolyline
 62
7
  6
CONTINUOUS
 90
12
 70
0
 10
16.5479682708
 20
6.8427709509
 10
16.7043932077
 20
6.7911930648
 10
16.8711079689
 20
6.7596058373
 10
17.043047011
 20
6.7489690301
 10
17.2149860531
 20
6.7596058373
 10
17.3817008143
 20
6.7911930648
 10
17.5381257512
 20
6.8427709509
 10
17.679507971
 20
6.9127723274
 10
17.8015516466
 20
6.9990702381
 10
17.9005485427
 20
7.0990425644
 10
17.9734906887
 20
7.209651698
 10
18.0181617743
 20
7.3275368362
  0
LINE
  5
4F1
100
AcDbEntity
  8
0
100
AcDbLine
 62
7
  6
CONTINUOUS
 10
16.5268517349
 20
6.0964124794
 11
16.5766699136
 21
6.0429020871
  0
LINE
  5
4F2
100
AcDbEntity
  8
0
100
AcDbLine
 62
7
  6
CONTINUOUS
 10
16.5469077084
 20
6.2836614543
 11
16.5766699136
 21
6.2516934595
  0
LINE
  5
4F3
100
AcDbEntity
  8
0
100
AcDbLine
 62
7
  6
CONTINUOUS
 10
16.5557684783
 20
6.2794333607
 11
16.5766699136
 21
6.2569828409
  0
LWPOLYLINE
  5
4F4
100
AcDbEntity
  8
0
100
AcDbPolyline
 62
7
  6
CONTINUOUS
 90
3
 70
0
 10
16.6055787294
 20
5.9982535467
 10
16.5585327384
 20
6.0495378847
 10
16.5336372093
 20
6.0891241079
  0
LWPOLYLINE
  5
4F5
100
AcDbEntity
  8
0
100
AcDbPolyline
 62
7
  6
CONTINUOUS
 90
3
 70
0
 10
16.6675164023
 20
5.9428034061
 10
16.664448252
 20
5.9467096527
 10
16.6633864285
 20
5.9528015934
  0
LWPOLYLINE
  5
4F6
100
AcDbEntity
  8
0
100
AcDbPolyline
 62
7
  6
CONTINUOUS
 90
3
 70
0
 10
16.0720125226
 20
11.9683837148
 10
16.1026820769
 20
12.0632130132
 10
16.1510691171
 20
12.1547198843
  0
LWPOLYLINE
  5
4F7
100
AcDbEntity
  8
0
100
AcDbPolyline
 62
7
  6
CONTINUOUS
 90
8
 70
0
 10
17.5734562863
 20
11.2658188254
 10
17.6814155199
 20
11.3223511598
 10
17.7774814596
 20
11.3887511625
 10
17.859861447
 20
11.4637778617
 10
17.9270323907
 20
11.546045131
 10
17.9777309622
 20
11.6340057158
 10
18.0110210536
 20
11.7260338488
 10
18.0262791231
 20
11.8204112765
  0
LWPOLYLINE
  5
4F8
100
AcDbEntity
  8
0
100
AcDbPolyline
 62
7
  6
CONTINUOUS
 90
6
 70
0
 10
16.5479682708
 20
6.8427709509
 10
16.406586051
 20
6.9127723274
 10
16.2845423754
 20
6.9990702381
 10
16.1855454793
 20
7.0990425644
 10
16.1126033333
 20
7.209651698
 10
16.0679322477
 20
7.3275368362
  0
LWPOLYLINE
  5
4F9
100
AcDbEntity
  8
0
100
AcDbPolyline
 62
7
  6
CONTINUOUS
 90
3
 70
0
 10
16.4896845769
 20
6.1600416333
 10
16.5268517349
 20
6.1017018608
 10
16.5766699136
 20
6.0481914685
  0
LWPOLYLINE
  5
4FA
100
AcDbEntity
  8
0
100
AcDbPolyline
 62
7
  6
CONTINUOUS
 90
3
 70
0
 10
16.4896845769
 20
6.1965105263
 10
16.5268517349
 20
6.1381707539
 10
16.5766699136
 20
6.0846603615
  0
LWPOLYLINE
  5
4FB
100
AcDbEntity
  8
0
100
AcDbPolyline
 62
7
  6
CONTINUOUS
 90
3
 70
0
 10
16.4896845769
 20
6.2017999078
 10
16.5268517349
 20
6.1434601353
 10
16.5766699136
 20
6.089949743
  0
LWPOLYLINE
  5
4FC
100
AcDbEntity
  8
0
100
AcDbPolyline
 62
7
  6
CONTINUOUS
 90
3
 70
0
 10
16.4896845769
 20
6.2382688008
 10
16.5268517349
 20
6.1799290284
 10
16.5766699136
 20
6.126418636
  0
LWPOLYLINE
  5
4FD
100
AcDbEntity
  8
0
100
AcDbPolyline
 62
7
  6
CONTINUOUS
 90
3
 70
0
 10
16.4896845769
 20
6.2435581822
 10
16.5268517349
 20
6.1852184098
 10
16.5766699136
 20
6.1317080175
  0
LWPOLYLINE
  5
4FE
100
AcDbEntity
  8
0
100
AcDbPolyline
 62
7
  6
CONTINUOUS
 90
3
 70
0
 10
16.4969982183
 20
6.310305425
 10
16.5268517349
 20
6.2634455773
 10
16.5766699136
 20
6.209935185
  0
LWPOLYLINE
  5
4FF
100
AcDbEntity
  8
0
100
AcDbPolyline
 62
7
  6
CONTINUOUS
 90
3
 70
0
 10
16.5026641322
 20
6.3067012524
 10
16.5268517349
 20
6.2687349587
 10
16.5766699136
 20
6.2152245664
  0
LWPOLYLINE
  5
500
100
AcDbEntity
  8
0
100
AcDbPolyline
 62
7
  6
CONTINUOUS
 90
24
 70
0
 10
17.5808172804
 20
10.7423852509
 10
17.5909253458
 20
10.7468462784
 10
17.6009787351
 20
10.750871964
 10
17.6109586386
 20
10.7544398902
 10
17.6208424601
 20
10.7575212753
 10
17.6305738499
 20
10.7600737067
 10
17.6400087952
 20
10.762039664
 10
17.6490421048
 20
10.7633888262
 10
17.6576290348
 20
10.7641122812
 10
17.6657347644
 20
10.7642067848
 10
17.673329383
 20
10.7636736928
 10
17.6803875848
 20
10.7625191243
 10
17.6868892247
 20
10.760754002
 10
17.6928199578
 20
10.7583935972
 10
17.6981701485
 20
10.7554573141
 10
17.7029347583
 20
10.7519682291
 10
17.7071143754
 20
10.7479509837
 10
17.7107126338
 20
10.7434317631
 10
17.7137357112
 20
10.7384372772
 10
17.716192894
 20
10.7329901412
 10
17.7180920577
 20
10.7271133841
 10
17.719438794
 20
10.7208377131
 10
17.7202401884
 20
10.714196832
 10
17.720505088
 20
10.7072256165
  0
LWPOLYLINE
  5
501
100
AcDbEntity
  8
0
100
AcDbPolyline
 62
7
  6
CONTINUOUS
 90
4
 70
0
 10
17.465006471
 20
10.6965201557
 10
17.5045700612
 20
10.7105749137
 10
17.5431997211
 20
10.7258735982
 10
17.5808172804
 20
10.7423852509
  0
LWPOLYLINE
  5
502
100
AcDbEntity
  8
0
100
AcDbPolyline
 62
7
  6
CONTINUOUS
 90
46
 70
0
 10
17.4873730161
 20
10.6725230902
 10
17.4468060285
 20
10.6582869398
 10
17.4053514445
 20
10.6454204238
 10
17.3632064001
 20
10.6339814104
 10
17.3204435228
 20
10.6239811486
 10
17.2771165812
 20
10.6154271425
 10
17.2333668145
 20
10.6083418033
 10
17.189251394
 20
10.6027283916
 10
17.1448444204
 20
10.598593363
 10
17.1002567173
 20
10.5959442836
 10
17.0555643797
 20
10.5947830558
 10
17.0108515929
 20
10.5951107274
 10
16.9662046434
 20
10.5969264821
 10
16.9217245552
 20
10.6002261284
 10
16.8774804179
 20
10.6050054048
 10
16.8335470269
 20
10.61125937
 10
16.7900625422
 20
10.6189701853
 10
16.7470595876
 20
10.6281347271
 10
16.7046154354
 20
10.6387432927
 10
16.6629056483
 20
10.6507549496
 10
16.6219154211
 20
10.6641781259
 10
16.5817497732
 20
10.6789879526
 10
16.5425764457
 20
10.6951261912
 10
16.5043699215
 20
10.7126090065
 10
16.4672601897
 20
10.7313870611
 10
16.4313887856
 20
10.7513911023
 10
16.3967307438
 20
10.7726406633
 10
16.3634377663
 20
10.7950503945
 10
16.3316132934
 20
10.8185481698
 10
16.3012379709
 20
10.843150557
 10
16.272469822
 20
10.8687300443
 10
16.2453715206
 20
10.8952180457
 10
16.2199258927
 20
10.9226251842
 10
16.196270968
 20
10.9507909904
 10
16.1744374124
 20
10.9796497677
 10
16.1544018636
 20
11.0092122478
 10
16.1362571472
 20
11.0393153233
 10
16.1200195929
 20
11.0698833654
 10
16.1056579737
 20
11.1009370506
 10
16.0932147957
 20
11.1323472773
 10
16.0827031673
 20
11.1640153727
 10
16.0740930532
 20
11.1959755766
 10
16.0673952309
 20
11.2281522998
 10
16.0626183891
 20
11.2604371872
 10
16.059750932
 20
11.2928368876
 10
16.0587950425
 20
11.3252896491
  0
LINE
  5
503
100
AcDbEntity
  8
0
100
AcDbLine
 62
7
  6
CONTINUOUS
 10
16.0591971884
 20
11.8719788169
 11
16.0720125226
 21
11.9683837148
  0
LWPOLYLINE
  5
504
100
AcDbEntity
  8
0
100
AcDbPolyline
 62
7
  6
CONTINUOUS
 90
11
 70
0
 10
17.5657575094
 20
10.7050841461
 10
17.5666144816
 20
10.7055079857
 10
17.5695045705
 20
10.7074125972
 10
17.5720943116
 20
10.7099093359
 10
17.5743690896
 20
10.7129841114
 10
17.5763160666
 20
10.7166195708
 10
17.5779242551
 20
10.7207951981
 10
17.5791845786
 20
10.7254874262
 10
17.580089925
 20
10.7306697762
 10
17.5806351846
 20
10.7363130003
 10
17.5808172804
 20
10.7423852509
  0
LWPOLYLINE
  5
505
100
AcDbEntity
  8
0
100
AcDbPolyline
 62
7
  6
CONTINUOUS
 90
11
 70
0
 10
17.5657574411
 20
10.7050841146
 10
17.568854322
 20
10.7064648953
 10
17.5719639894
 20
10.7077498445
 10
17.574717475
 20
10.7087938915
 10
17.5771121694
 20
10.7096207909
 10
17.5791444491
 20
10.7102535527
 10
17.5808072786
 20
10.7107144123
 10
17.5820973522
 20
10.711027336
 10
17.583010019
 20
10.711216616
 10
17.5835366685
 20
10.7113071416
 10
17.5836619778
 20
10.7113249002
  0
LWPOLYLINE
  5
506
100
AcDbEntity
  8
0
100
AcDbPolyline
 62
7
  6
CONTINUOUS
 90
3
 70
0
 10
17.5657575094
 20
10.7050841461
 10
17.5270482297
 20
10.688129249
 10
17.4873730161
 20
10.6725230902
  0
LWPOLYLINE
  5
507
100
AcDbEntity
  8
AXIS
100
AcDbPolyline
 62
7
  6
CONTINUOUS
 90
12
 70
0
 10
16.5479682708
 20
7.5999876615
 10
16.7043932077
 20
7.5484097754
 10
16.8711079689
 20
7.5168225478
 10
17.043047011
 20
7.5061857406
 10
17.2149860531
 20
7.5168225478
 10
17.3817008143
 20
7.5484097754
 10
17.5381257512
 20
7.5999876615
 10
17.679507971
 20
7.669989038
 10
17.8015516466
 20
7.7562869486
 10
17.9005485427
 20
7.856259275
 10
17.9734906887
 20
7.9668684086
 10
18.0181617743
 20
8.0847535468
  0
LWPOLYLINE
  5
508
100
AcDbEntity
  8
AXIS
100
AcDbPolyline
 62
7
  6
CONTINUOUS
 90
6
 70
0
 10
16.5479682708
 20
7.5999876615
 10
16.406586051
 20
7.669989038
 10
16.2845423754
 20
7.7562869486
 10
16.1855454793
 20
7.856259275
 10
16.1126033333
 20
7.9668684086
 10
16.0679322477
 20
8.0847535468
  0
LWPOLYLINE
  5
509
100
AcDbEntity
  8
0
100
AcDbPolyline
 62
7
  6
CONTINUOUS
 90
4
 70
0
 10
16.4720276431
 20
6.3261895815
 10
16.4896845769
 20
6.2800270753
 10
16.5268517349
 20
6.2216873028
 10
16.5766699136
 20
6.1681769105
  0
LWPOLYLINE
  5
50A
100
AcDbEntity
  8
0
100
AcDbPolyline
 62
7
  6
CONTINUOUS
 90
4
 70
0
 10
16.474701347
 20
6.3244887985
 10
16.4896845769
 20
6.2853164567
 10
16.5268517349
 20
6.2269766843
 10
16.5766699136
 20
6.1734662919
  0
LWPOLYLINE
  5
50B
100
AcDbEntity
  8
AXIS
100
AcDbPolyline
 62
7
  6
CONTINUOUS
 90
9
 70
0
 10
16.1817825518
 20
6.6913454318
 10
16.1939262898
 20
6.6554355559
 10
16.2261882519
 20
6.5915648752
 10
16.2680271361
 20
6.5305350888
 10
16.3189524198
 20
6.4730617151
 10
16.3783670504
 20
6.4198185768
 10
16.4455744459
 20
6.371429901
 10
16.5197866609
 20
6.3284630008
 10
16.6001336252
 20
6.2914216237
  0
LINE
  5
50C
100
AcDbEntity
  8
0
100
AcDbLine
 62
7
  6
CONTINUOUS
 10
16.0500829256
 20
7.038807566
 11
16.0489525228
 21
7.072320075
  0
LWPOLYLINE
  5
50D
100
AcDbEntity
  8
AXIS
100
AcDbPolyline
 62
7
  6
CONTINUOUS
 90
12
 70
0
 10
16.0489544634
 20
7.0412769513
 10
16.0495196627
 20
7.0175360616
 10
16.0580138251
 20
6.9465840948
 10
16.076615761
 20
6.8766038048
 10
16.1051345892
 20
6.8083132841
 10
16.1432776682
 20
6.7424132859
 10
16.1906535981
 20
6.6795800333
 10
16.246776238
 20
6.6204582806
 10
16.3110696934
 20
6.5656546969
 10
16.3828742267
 20
6.5157316411
 10
16.4614530262
 20
6.4712013914
 10
16.5459997669
 20
6.4325208884
  0
LWPOLYLINE
  5
50E
100
AcDbEntity
  8
0
100
AcDbPolyline
 62
7
  6
CONTINUOUS
 90
4
 70
0
 10
16.0587950425
 20
10.7644525076
 10
16.0589905472
 20
10.7791322126
 10
16.0595771125
 20
10.7938081397
 10
16.0605548752
 20
10.8084762872
  0
LINE
  5
50F
100
AcDbEntity
  8
0
100
AcDbLine
 62
7
  6
CONTINUOUS
 10
16.0587951164
 20
11.852085803
 11
16.0592194953
 21
11.8721466237
  0
LWPOLYLINE
  5
510
100
AcDbEntity
  8
0
100
AcDbPolyline
 62
7
  6
CONTINUOUS
 90
9
 70
0
 10
16.1284528966
 20
10.8767402245
 10
16.1270601144
 20
10.848173417
 10
16.1274510013
 20
10.8195908836
 10
16.1296247869
 20
10.7910485257
 10
16.1335772542
 20
10.7626016614
 10
16.1393006823
 20
10.7343058754
 10
16.1467839514
 20
10.7062161301
 10
16.1560125026
 20
10.6783871166
 10
16.1669683177
 20
10.6508731647
  0
LWPOLYLINE
  5
511
100
AcDbEntity
  8
0
100
AcDbPolyline
 62
7
  6
CONTINUOUS
 90
16
 70
0
 10
16.2019101043
 20
10.8959519314
 10
16.2021888961
 20
10.8990025239
 10
16.2022871269
 20
10.9022968216
 10
16.2022037467
 20
10.9057996156
 10
16.2019396468
 20
10.9094734684
 10
16.2014976499
 20
10.9132791144
 10
16.2008824798
 20
10.9171758794
 10
16.2001007115
 20
10.9211221154
 10
16.1991607004
 20
10.9250756456
 10
16.1980724933
 20
10.9289942151
 10
16.1968477206
 20
10.9328359428
 10
16.1954994727
 20
10.9365597689
 10
16.1940421593
 20
10.9401258937
 10
16.1924913561
 20
10.943496203
 10
16.1908636378
 20
10.9466346753
 10
16.1891764013
 20
10.949507767
  0
LINE
  5
512
100
AcDbEntity
  8
AXIS
100
AcDbLine
 62
7
  6
CONTINUOUS
 10
16.0528895307
 20
9.7151984606
 11
16.0587950425
 21
9.7629283867
  0
LINE
  5
513
100
AcDbEntity
  8
0
100
AcDbLine
 62
7
  6
CONTINUOUS
 10
17.8954342194
 20
11.5041001824
 11
17.8724967735
 21
11.4774092565
  0
LWPOLYLINE
  5
514
100
AcDbEntity
  8
0
100
AcDbPolyline
 62
7
  6
CONTINUOUS
 90
35
 70
0
 10
17.8724967735
 20
11.4774092565
 10
17.847888926
 20
11.4514728793
 10
17.8216602341
 20
11.4263432832
 10
17.7938635187
 20
11.4020710759
 10
17.7645547589
 20
11.3787051384
 10
17.7337929784
 20
11.3562925265
 10
17.7016401275
 20
11.3348783764
 10
17.6681609577
 20
11.3145058131
 10
17.6334228916
 20
11.2952158644
 10
17.597495887
 20
11.2770473776
 10
17.5604522962
 20
11.2600369417
 10
17.5223667201
 20
11.2442188135
 10
17.4833158578
 20
11.2296248484
 10
17.4433783526
 20
11.2162844369
 10
17.4026346334
 20
11.2042244447
 10
17.3611667526
 20
11.193469159
 10
17.3190582209
 20
11.1840402397
 10
17.2763938395
 20
11.1759566751
 10
17.2332595285
 20
11.1692347447
 10
17.1897421549
 20
11.1638879854
 10
17.1459293567
 20
11.159927165
 10
17.1019093672
 20
11.1573602599
 10
17.0577708368
 20
11.1561924396
 10
17.0136026545
 20
11.156426056
 10
16.9694937693
 20
11.1580606385
 10
16.9255330105
 20
11.1610928953
 10
16.8818089092
 20
11.1655167198
 10
16.83840952
 20
11.1713232032
 10
16.7954222435
 20
11.1785006518
 10
16.7529336504
 20
11.1870346112
 10
16.7110293069
 20
11.1969078953
 10
16.6697936029
 20
11.2081006204
 10
16.6293095816
 20
11.220590246
 10
16.5896587724
 20
11.2343516197
 10
16.5509210267
 20
11.2493570277
  0
LWPOLYLINE
  5
515
100
AcDbEntity
  8
0
100
AcDbPolyline
 62
7
  6
CONTINUOUS
 90
4
 70
0
 10
18.0001221246
 20
11.1628717244
 10
18.0028237891
 20
11.1654181857
 10
18.0045069663
 20
11.1680592258
 10
18.004913837
 20
11.1691706616
  0
LWPOLYLINE
  5
516
100
AcDbEntity
  8
0
100
AcDbPolyline
 62
7
  6
CONTINUOUS
 90
16
 70
0
 10
17.4621435214
 20
10.4273162856
 10
17.4655109548
 20
10.4291054692
 10
17.4689386049
 20
10.4310391831
 10
17.4723899169
 20
10.4330968047
 10
17.4758280835
 20
10.4352563901
 10
17.4792164378
 20
10.4374949081
 10
17.4825188439
 20
10.4397884854
 10
17.4857000826
 20
10.4421126617
 10
17.4887262271
 20
10.4444426504
 10
17.4915650043
 20
10.4467536029
 10
17.4941861395
 20
10.4490208735
 10
17.4965616792
 20
10.4512202825
 10
17.4986662888
 20
10.4533283738
 10
17.5004775234
 20
10.4553226652
 10
17.5019760666
 20
10.4571818883
 10
17.503145937
 20
10.4588862149
  0
LINE
  5
517
100
AcDbEntity
  8
0
100
AcDbLine
 62
7
  6
CONTINUOUS
 10
16.0679322477
 20
6.9517123659
 11
16.0528895307
 21
7.0732916285
  0
LINE
  5
518
100
AcDbEntity
  8
0
100
AcDbLine
 62
7
  6
CONTINUOUS
 10
16.0679322477
 20
7.3275368362
 11
16.0528895307
 21
7.4491160988
  0
LINE
  5
519
100
AcDbEntity
  8
AXIS
100
AcDbLine
 62
7
  6
CONTINUOUS
 10
16.0679322477
 20
8.0847535468
 11
16.0528895307
 21
8.2063328094
  0
LINE
  5
51A
100
AcDbEntity
  8
AXIS
100
AcDbLine
 62
7
  6
CONTINUOUS
 10
16.0679322477
 20
8.4605780171
 11
16.0528895307
 21
8.5821572797
  0
LINE
  5
51B
100
AcDbEntity
  8
0
100
AcDbLine
 62
7
  6
CONTINUOUS
 10
16.0587950425
 20
10.4601433204
 11
16.0681210652
 21
10.3645626274
  0
LWPOLYLINE
  5
51C
100
AcDbEntity
  8
0
100
AcDbPolyline
 62
7
  6
CONTINUOUS
 90
45
 70
0
 10
16.0593769246
 20
11.3013616458
 10
16.0618940446
 20
11.2701045328
 10
16.0663966093
 20
11.2389590915
 10
16.0728755073
 20
11.2079883472
 10
16.081317628
 20
11.1772549719
 10
16.091705888
 20
11.1468211571
 10
16.104019266
 20
11.1167484881
 10
16.1182328447
 20
11.0870978194
 10
16.1343178618
 20
11.0579291518
 10
16.152241768
 20
11.0293015104
 10
16.1719682926
 20
11.0012728256
 10
16.1934575174
 20
10.9738998157
 10
16.2166659573
 20
10.9472378725
 10
16.2415466479
 20
10.9213409484
 10
16.2680492412
 20
10.8962614482
 10
16.296120107
 20
10.8720501221
 10
16.3257024414
 20
10.848755964
 10
16.3567363823
 20
10.8264261114
 10
16.3891591298
 20
10.8051057507
 10
16.4229050738
 20
10.7848380253
 10
16.4579059266
 20
10.7656639488
 10
16.4940908611
 20
10.7476223214
 10
16.531386654
 20
10.7307496519
 10
16.5697178341
 20
10.7150800835
 10
16.6090068352
 20
10.700645325
 10
16.6491741527
 20
10.6874745861
 10
16.6901385046
 20
10.6755945192
 10
16.7318169963
 20
10.6650291643
 10
16.774125288
 20
10.6557999014
 10
16.816977765
 20
10.6479254068
 10
16.8602877119
 20
10.641421615
 10
16.9039674875
 20
10.636301687
 10
16.947928702
 20
10.6325759836
 10
16.9920823964
 20
10.6302520438
 10
17.0363392219
 20
10.6293345704
 10
17.0806096212
 20
10.62982542
 10
17.1248040094
 20
10.6317235993
 10
17.1688329555
 20
10.6350252672
 10
17.2126073633
 20
10.6397237425
 10
17.2560386516
 20
10.6458095175
 10
17.2990389336
 20
10.6532702769
 10
17.3415211947
 20
10.6620909235
 10
17.3833994684
 20
10.6722536079
 10
17.4245890107
 20
10.683737765
 10
17.465006471
 20
10.6965201557
  0
LWPOLYLINE
  5
51D
100
AcDbEntity
  8
0
100
AcDbPolyline
 62
7
  6
CONTINUOUS
 90
7
 70
0
 10
16.0591986063
 20
11.8719787884
 10
16.0628726306
 20
11.7888002539
 10
16.0841902594
 20
11.6950099179
 10
16.1233675374
 20
11.6041527442
 10
16.1796777316
 20
11.5179111294
 10
16.2520737118
 20
11.4378919007
 10
16.3391965196
 20
11.3655950923
  0
LINE
  5
51E
100
AcDbEntity
  8
0
100
AcDbLine
 62
7
  6
CONTINUOUS
 10
16.0587950425
 20
11.3252896491
 11
16.0593769246
 21
11.3013616458
  0
LWPOLYLINE
  5
51F
100
AcDbEntity
  8
0
100
AcDbPolyline
 62
7
  6
CONTINUOUS
 90
25
 70
0
 10
16.0587950425
 20
10.7644525076
 10
16.059290649
 20
10.7423690549
 10
16.061626266
 20
10.7117018737
 10
16.0658729793
 20
10.6811372948
 10
16.0720224683
 20
10.6507351497
 10
16.0800628563
 20
10.6205541836
 10
16.0899783667
 20
10.5906536343
 10
16.1017498474
 20
10.5610912683
 10
16.1153542664
 20
10.5319249724
 10
16.1307651889
 20
10.5032114172
 10
16.1479527194
 20
10.4750063584
 10
16.1668829544
 20
10.4473653876
 10
16.1875196038
 20
10.4203414841
 10
16.2098217779
 20
10.3939881717
 10
16.2337467709
 20
10.3683558913
 10
16.2592473239
 20
10.3434952722
 10
16.2862743432
 20
10.3194541554
 10
16.3147748492
 20
10.2962796785
 10
16.3446934424
 20
10.2740168692
 10
16.3759721416
 20
10.252708892
 10
16.4085493227
 20
10.2323977073
 10
16.4423611755
 20
10.2131229942
 10
16.4773273429
 20
10.194929376
 10
16.5135290576
 20
10.1777828072
 10
16.5509210267
 20
10.1617237323
  0
LWPOLYLINE
  5
520
100
AcDbEntity
  8
0
100
AcDbPolyline
 62
7
  6
CONTINUOUS
 90
27
 70
0
 10
16.1284528967
 20
10.8767402245
 10
16.1284411492
 20
10.8778467923
 10
16.1285721459
 20
10.8791584271
 10
16.1288793837
 20
10.8806681018
 10
16.1293862321
 20
10.8823658434
 10
16.1301026893
 20
10.8842299722
 10
16.1310247371
 20
10.8862308414
 10
16.132131408
 20
10.8883256983
 10
16.1333693415
 20
10.8904354446
 10
16.1347720507
 20
10.8926337128
 10
16.1364786218
 20
10.8951205568
 10
16.1385542212
 20
10.8979507743
 10
16.1409928327
 20
10.9010818002
 10
16.1437646483
 20
10.9044556798
 10
16.1468095472
 20
10.9079933395
 10
16.1500507013
 20
10.9116110071
 10
16.1534305235
 20
10.9152560407
 10
16.1569265111
 20
10.9189163101
 10
16.160520853
 20
10.9225835199
 10
16.1641874213
 20
10.9262400051
 10
16.1678899896
 20
10.9298579593
 10
16.1715926396
 20
10.9334100868
 10
16.1752635844
 20
10.9368728926
 10
16.1788769049
 20
10.9402279258
 10
16.1824117639
 20
10.9434604906
 10
16.1858501102
 20
10.9465577948
 10
16.1891764408
 20
10.9495078018
  0
LINE
  5
521
100
AcDbEntity
  8
AXIS
100
AcDbLine
 62
7
  6
CONTINUOUS
 10
16.0489525228
 20
7.072320075
 11
16.0489525228
 21
7.0412769514
  0
LINE
  5
522
100
AcDbEntity
  8
0
100
AcDbLine
 62
7
  6
CONTINUOUS
 10
16.0528895307
 20
7.0732916285
 11
16.0528895307
 21
7.4491160988
  0
LINE
  5
523
100
AcDbEntity
  8
AXIS
100
AcDbLine
 62
7
  6
CONTINUOUS
 10
16.0528895307
 20
8.2063328094
 11
16.0528895307
 21
8.5821572797
  0
LINE
  5
524
100
AcDbEntity
  8
AXIS
100
AcDbLine
 62
7
  6
CONTINUOUS
 10
16.0528895307
 20
9.3393739903
 11
16.0528895307
 21
9.7151984606
  0
LINE
  5
525
100
AcDbEntity
  8
AXIS
100
AcDbLine
 62
7
  6
CONTINUOUS
 10
16.0587950425
 20
11.852085803
 11
16.0587950425
 21
11.3252896491
  0
LINE
  5
526
100
AcDbEntity
  8
AXIS
100
AcDbLine
 62
7
  6
CONTINUOUS
 10
16.0587950425
 20
7.4013861727
 11
16.0587950425
 21
8.1586028833
  0
LINE
  5
527
100
AcDbEntity
  8
AXIS
100
AcDbLine
 62
7
  6
CONTINUOUS
 10
16.0587950425
 20
8.5344273536
 11
16.0587950425
 21
9.2916440641
  0
LINE
  5
528
100
AcDbEntity
  8
AXIS
100
AcDbLine
 62
7
  6
CONTINUOUS
 10
16.0587950425
 20
9.6674685344
 11
16.0587950425
 21
10.7644525076
  0
LINE
  5
529
100
AcDbEntity
  8
AXIS
100
AcDbLine
 62
7
  6
CONTINUOUS
 10
16.0827106748
 20
11.1639927548
 11
16.0827106748
 21
11.0326174709
  0
LINE
  5
52A
100
AcDbEntity
  8
0
100
AcDbLine
 62
7
  6
CONTINUOUS
 10
16.1891763767
 20
10.9495078063
 11
16.1891763767
 21
10.9601683559
  0
LWPOLYLINE
  5
52B
100
AcDbEntity
  8
0
100
AcDbPolyline
 62
7
  6
CONTINUOUS
 90
24
 70
0
 10
16.0827106748
 20
11.0326172149
 10
16.0826718111
 20
11.0277121572
 10
16.0825303767
 20
11.0216506604
 10
16.0822691452
 20
11.0148115223
 10
16.081875304
 20
11.0072253105
 10
16.0813406233
 20
10.9989311639
 10
16.0806614928
 20
10.9899762174
 10
16.0798393371
 20
10.9804191361
 10
16.0788814442
 20
10.9703374837
 10
16.0778003472
 20
10.9598197738
 10
16.0766126189
 20
10.9489576018
 10
16.0753373669
 20
10.9378385008
 10
16.0739960953
 20
10.9265516197
 10
16.0726108306
 20
10.9151778224
 10
16.0712028942
 20
10.9037856392
 10
16.0697938366
 20
10.8924433474
 10
16.0684042367
 20
10.8812125782
 10
16.0670528512
 20
10.8701442184
 10
16.0657570644
 20
10.8592834735
 10
16.0645285178
 20
10.8486318931
 10
16.0633771986
 20
10.8381758915
 10
16.0623145445
 20
10.8279079304
 10
16.0613542564
 20
10.8178284184
 10
16.0605547463
 20
10.8084746765
  0
LINE
  5
52C
100
AcDbEntity
  8
0
100
AcDbLine
 62
7
  6
CONTINUOUS
 10
16.0489525228
 20
7.072320075
 11
16.0528895307
 21
7.1308145442
  0
LINE
  5
52D
100
AcDbEntity
  8
AXIS
100
AcDbLine
 62
7
  6
CONTINUOUS
 10
16.0528895307
 20
8.5821572797
 11
16.0587950425
 21
8.6298872058
  0
LINE
  5
52E
100
AcDbEntity
  8
0
100
AcDbLine
 62
7
  6
CONTINUOUS
 10
16.0528895307
 20
7.4491160988
 11
16.0587950425
 21
7.496846025
  0
LWPOLYLINE
  5
52F
100
AcDbEntity
  8
0
100
AcDbPolyline
 62
7
  6
CONTINUOUS
 90
4
 70
0
 10
17.916655071
 20
11.531491905
 10
17.9361165923
 20
11.559529261
 10
17.9537795902
 20
11.5881557871
 10
17.9696084939
 20
11.617313833
  0
LINE
  5
530
100
AcDbEntity
  8
0
100
AcDbLine
 62
7
  6
CONTINUOUS
 10
17.8954342194
 20
11.5041001824
 11
17.916655071
 21
11.531491905
  0
LWPOLYLINE
  5
531
100
AcDbEntity
  8
AXIS
100
AcDbPolyline
 62
7
  6
CONTINUOUS
 90
12
 70
0
 10
16.5479682708
 20
7.9758121318
 10
16.7043932077
 20
7.9242342457
 10
16.8711079689
 20
7.8926470181
 10
17.043047011
 20
7.8820102109
 10
17.2149860531
 20
7.8926470181
 10
17.3817008143
 20
7.9242342457
 10
17.5381257512
 20
7.9758121318
 10
17.679507971
 20
8.0458135083
 10
17.8015516466
 20
8.1321114189
 10
17.9005485427
 20
8.2320837453
 10
17.9734906887
 20
8.3426928789
 10
18.0181617743
 20
8.4605780171
  0
LWPOLYLINE
  5
532
100
AcDbEntity
  8
AXIS
100
AcDbPolyline
 62
7
  6
CONTINUOUS
 90
6
 70
0
 10
16.5479682708
 20
7.9758121318
 10
16.406586051
 20
8.0458135083
 10
16.2845423754
 20
8.1321114189
 10
16.1855454793
 20
8.2320837453
 10
16.1126033333
 20
8.3426928789
 10
16.0679322477
 20
8.4605780171
  0
LWPOLYLINE
  5
533
100
AcDbEntity
  8
0
100
AcDbPolyline
 62
7
  6
CONTINUOUS
 90
3
 70
0
 10
16.4580283653
 20
6.31228134
 10
16.4660793399
 20
6.2582243502
 10
16.4896845769
 20
6.1965105263
  0
LWPOLYLINE
  5
534
100
AcDbEntity
  8
0
100
AcDbPolyline
 62
7
  6
CONTINUOUS
 90
3
 70
0
 10
16.456614546
 20
6.3270635862
 10
16.4660793399
 20
6.2635137316
 10
16.4896845769
 20
6.2017999078
  0
LWPOLYLINE
  5
535
100
AcDbEntity
  8
0
100
AcDbPolyline
 62
7
  6
CONTINUOUS
 90
3
 70
0
 10
16.4612148368
 20
6.3326445578
 10
16.4660793399
 20
6.2999826246
 10
16.4896845769
 20
6.2382688008
  0
LWPOLYLINE
  5
536
100
AcDbEntity
  8
0
100
AcDbPolyline
 62
7
  6
CONTINUOUS
 90
3
 70
0
 10
16.4619855156
 20
6.3327593388
 10
16.4660793399
 20
6.3052720061
 10
16.4896845769
 20
6.2435581822
  0
LINE
  5
537
100
AcDbEntity
  8
AXIS
100
AcDbLine
 62
7
  6
CONTINUOUS
 10
16.0679322477
 20
9.2177947277
 11
16.0528895307
 21
9.3393739903
  0
LINE
  5
538
100
AcDbEntity
  8
AXIS
100
AcDbLine
 62
7
  6
CONTINUOUS
 10
16.0679322477
 20
9.593619198
 11
16.0528895307
 21
9.7151984606
  0
LWPOLYLINE
  5
539
100
AcDbEntity
  8
0
100
AcDbPolyline
 62
7
  6
CONTINUOUS
 90
5
 70
0
 10
16.4564328378
 20
6.2901740766
 10
16.456614546
 20
6.2800159302
 10
16.4660793399
 20
6.2164660757
 10
16.4896845769
 20
6.1547522518
 10
16.5268517349
 20
6.0964124794
  0
LWPOLYLINE
  5
53A
100
AcDbEntity
  8
0
100
AcDbPolyline
 62
7
  6
CONTINUOUS
 90
4
 70
0
 10
16.4564328378
 20
6.295463458
 10
16.456614546
 20
6.2853053117
 10
16.4660793399
 20
6.2217554571
 10
16.4896845769
 20
6.1600416333
  0
LINE
  5
53B
100
AcDbEntity
  8
0
100
AcDbLine
 62
7
  6
CONTINUOUS
 10
16.4564529592
 20
6.336096871
 11
16.456614546
 21
6.3270635862
  0
LWPOLYLINE
  5
53C
100
AcDbEntity
  8
0
100
AcDbPolyline
 62
7
  6
CONTINUOUS
 90
4
 70
0
 10
16.0641868778
 20
11.7793369987
 10
16.0605567258
 20
11.8104638318
 10
16.0589051785
 20
11.841674486
 10
16.0587951164
 20
11.852085803
  0
LINE
  5
53D
100
AcDbEntity
  8
0
100
AcDbLine
 62
7
  6
CONTINUOUS
 10
16.5766699136
 20
6.0429020871
 11
16.5766699136
 21
6.0481914685
  0
LINE
  5
53E
100
AcDbEntity
  8
0
100
AcDbLine
 62
7
  6
CONTINUOUS
 10
16.5766699136
 20
6.0846603615
 11
16.5766699136
 21
6.089949743
  0
LINE
  5
53F
100
AcDbEntity
  8
0
100
AcDbLine
 62
7
  6
CONTINUOUS
 10
16.5766699136
 20
6.126418636
 11
16.5766699136
 21
6.1317080175
  0
LINE
  5
540
100
AcDbEntity
  8
0
100
AcDbLine
 62
7
  6
CONTINUOUS
 10
16.5766699136
 20
6.1681769105
 11
16.5766699136
 21
6.1734662919
  0
LINE
  5
541
100
AcDbEntity
  8
0
100
AcDbLine
 62
7
  6
CONTINUOUS
 10
16.5766699136
 20
6.209935185
 11
16.5766699136
 21
6.2152245664
  0
LINE
  5
542
100
AcDbEntity
  8
0
100
AcDbLine
 62
7
  6
CONTINUOUS
 10
16.5766699136
 20
6.2516934595
 11
16.5766699136
 21
6.2569828409
  0
LINE
  5
543
100
AcDbEntity
  8
0
100
AcDbLine
 62
7
  6
CONTINUOUS
 10
16.6633864285
 20
5.9528015934
 11
16.6633864285
 21
5.9960891089
  0
LINE
  5
544
100
AcDbEntity
  8
0
100
AcDbLine
 62
7
  6
CONTINUOUS
 10
16.6825731547
 20
6.1953635452
 11
16.6825731547
 21
6.1878256333
  0
LINE
  5
545
100
AcDbEntity
  8
0
100
AcDbLine
 62
7
  6
CONTINUOUS
 10
16.6825731547
 20
6.1536052707
 11
16.6825731547
 21
6.1460673589
  0
LINE
  5
546
100
AcDbEntity
  8
0
100
AcDbLine
 62
7
  6
CONTINUOUS
 10
16.6825731547
 20
6.1118469962
 11
16.6825731547
 21
6.1043090844
  0
LINE
  5
547
100
AcDbEntity
  8
0
100
AcDbLine
 62
7
  6
CONTINUOUS
 10
16.6825731547
 20
6.0700887217
 11
16.6825731547
 21
6.0625508099
  0
LINE
  5
548
100
AcDbEntity
  8
0
100
AcDbLine
 62
7
  6
CONTINUOUS
 10
16.6825731547
 20
6.0283304473
 11
16.6825731547
 21
6.0207925354
  0
LINE
  5
549
100
AcDbEntity
  8
0
100
AcDbLine
 62
7
  6
CONTINUOUS
 10
16.7005542968
 20
5.9331632171
 11
16.7005542968
 21
5.9780392524
  0
LINE
  5
54A
100
AcDbEntity
  8
0
100
AcDbLine
 62
7
  6
CONTINUOUS
 10
16.4580283653
 20
6.31228134
 11
16.4564328378
 21
6.295463458
  0
LWPOLYLINE
  5
54B
100
AcDbEntity
  8
0
100
AcDbPolyline
 62
7
  6
CONTINUOUS
 90
4
 70
0
 10
17.9696084939
 20
11.617313833
 10
17.9835714261
 20
11.6469446784
 10
17.9956402673
 20
11.6769886508
 10
18.0057907125
 20
11.7073852455
  0
LWPOLYLINE
  5
54C
100
AcDbEntity
  8
0
100
AcDbPolyline
 62
7
  6
CONTINUOUS
 90
16
 70
0
 10
17.5432442504
 20
10.3967119116
 10
17.5420727519
 20
10.3950058641
 10
17.5405718989
 20
10.3931446258
 10
17.5387577176
 20
10.3911480658
 10
17.536649598
 20
10.389037523
 10
17.5342700711
 20
10.3868355546
 10
17.5316445692
 20
10.384565695
 10
17.5288011531
 20
10.382252204
 10
17.5257702129
 20
10.379919808
 10
17.5225841428
 20
10.3775934353
 10
17.5192769952
 20
10.3752979497
 10
17.5158841163
 20
10.3730578852
 10
17.5124417687
 20
10.3708971832
 10
17.5089867438
 20
10.368838937
 10
17.5055559684
 20
10.3669051449
 10
17.5021861101
 20
10.3651164749
  0
LINE
  5
54D
100
AcDbEntity
  8
0
100
AcDbLine
 62
7
  6
CONTINUOUS
 10
17.8028153336
 20
10.0177046052
 11
17.8954342194
 21
10.1121576997
  0
LWPOLYLINE
  5
54E
100
AcDbEntity
  8
AXIS
100
AcDbPolyline
 62
7
  6
CONTINUOUS
 90
12
 70
0
 10
16.5479682708
 20
8.7330288423
 10
16.7043932077
 20
8.6814509563
 10
16.8711079689
 20
8.6498637287
 10
17.043047011
 20
8.6392269215
 10
17.2149860531
 20
8.6498637287
 10
17.3817008143
 20
8.6814509563
 10
17.5381257512
 20
8.7330288423
 10
17.679507971
 20
8.8030302189
 10
17.8015516466
 20
8.8893281295
 10
17.9005485427
 20
8.9893004559
 10
17.9734906887
 20
9.0999095895
 10
18.0181617743
 20
9.2177947277
  0
LWPOLYLINE
  5
54F
100
AcDbEntity
  8
AXIS
100
AcDbPolyline
 62
7
  6
CONTINUOUS
 90
6
 70
0
 10
16.5479682708
 20
8.7330288423
 10
16.406586051
 20
8.8030302189
 10
16.2845423754
 20
8.8893281295
 10
16.1855454793
 20
8.9893004559
 10
16.1126033333
 20
9.0999095895
 10
16.0679322477
 20
9.2177947277
  0
LINE
  5
550
100
AcDbEntity
  8
0
100
AcDbLine
 62
7
  6
CONTINUOUS
 10
16.0681210652
 20
10.3645626274
 11
16.1036667872
 21
10.2523974028
  0
LINE
  5
551
100
AcDbEntity
  8
0
100
AcDbLine
 62
7
  6
CONTINUOUS
 10
16.8442011425
 20
5.879658069
 11
16.8442011425
 21
5.874519638
  0
LINE
  5
552
100
AcDbEntity
  8
0
100
AcDbLine
 62
7
  6
CONTINUOUS
 10
16.8621822846
 20
6.166312418
 11
16.8621822846
 21
6.1587745062
  0
LINE
  5
553
100
AcDbEntity
  8
0
100
AcDbLine
 62
7
  6
CONTINUOUS
 10
16.8621822846
 20
6.1245541435
 11
16.8621822846
 21
6.1170162317
  0
LINE
  5
554
100
AcDbEntity
  8
0
100
AcDbLine
 62
7
  6
CONTINUOUS
 10
16.8621822846
 20
6.0827958691
 11
16.8621822846
 21
6.0752579572
  0
LINE
  5
555
100
AcDbEntity
  8
0
100
AcDbLine
 62
7
  6
CONTINUOUS
 10
16.8621822846
 20
6.0410375946
 11
16.8621822846
 21
6.0334996827
  0
LINE
  5
556
100
AcDbEntity
  8
0
100
AcDbLine
 62
7
  6
CONTINUOUS
 10
16.8621822846
 20
5.9992793201
 11
16.8621822846
 21
5.9917414083
  0
LINE
  5
557
100
AcDbEntity
  8
0
100
AcDbLine
 62
7
  6
CONTINUOUS
 10
16.8621822846
 20
5.9575210456
 11
16.8621822846
 21
5.9499831338
  0
LINE
  5
558
100
AcDbEntity
  8
0
100
AcDbLine
 62
7
  6
CONTINUOUS
 10
16.8621822846
 20
5.9157627711
 11
16.8621822846
 21
5.9082248593
  0
LINE
  5
559
100
AcDbEntity
  8
0
100
AcDbLine
 62
7
  6
CONTINUOUS
 10
16.8868370773
 20
5.8667741161
 11
16.8868370773
 21
5.8615782481
  0
LINE
  5
55A
100
AcDbEntity
  8
02___PRT_ALL_AXES
100
AcDbLine
 62
7
  6
CONTINUOUS
 10
16.935547011
 20
5.8451770651
 11
16.935547011
 21
5.1680007583
  0
LINE
  5
55B
100
AcDbEntity
  8
0
100
AcDbLine
 62
7
  6
CONTINUOUS
 10
16.9680855257
 20
6.1442028664
 11
16.9680855257
 21
6.1389134849
  0
LINE
  5
55C
100
AcDbEntity
  8
0
100
AcDbLine
 62
7
  6
CONTINUOUS
 10
16.9680855257
 20
6.1024445919
 11
16.9680855257
 21
6.0971552105
  0
LINE
  5
55D
100
AcDbEntity
  8
0
100
AcDbLine
 62
7
  6
CONTINUOUS
 10
16.9680855257
 20
6.0606863174
 11
16.9680855257
 21
6.055396936
  0
LINE
  5
55E
100
AcDbEntity
  8
0
100
AcDbLine
 62
7
  6
CONTINUOUS
 10
16.9680855257
 20
6.0189280429
 11
16.9680855257
 21
6.0136386615
  0
LINE
  5
55F
100
AcDbEntity
  8
0
100
AcDbLine
 62
7
  6
CONTINUOUS
 10
16.9680855257
 20
5.9771697685
 11
16.9680855257
 21
5.971880387
  0
LINE
  5
560
100
AcDbEntity
  8
0
100
AcDbLine
 62
7
  6
CONTINUOUS
 10
16.9680855257
 20
5.935411494
 11
16.9680855257
 21
5.9301221125
  0
LINE
  5
561
100
AcDbEntity
  8
0
100
AcDbLine
 62
7
  6
CONTINUOUS
 10
16.9680855257
 20
5.8936532195
 11
16.9680855257
 21
5.8883638381
  0
LINE
  5
562
100
AcDbEntity
  8
0
100
AcDbLine
 62
7
  6
CONTINUOUS
 10
16.9680855257
 20
5.851894945
 11
16.9680855257
 21
5.8466055636
  0
LINE
  5
563
100
AcDbEntity
  8
0
100
AcDbLine
 62
7
  6
CONTINUOUS
 10
17.912337423
 20
11.6966074789
 11
17.9432972404
 21
11.7822056857
  0
LWPOLYLINE
  5
564
100
AcDbEntity
  8
0
100
AcDbPolyline
 62
7
  6
CONTINUOUS
 90
18
 70
0
 10
17.7003919704
 20
10.3056531557
 10
17.6950976019
 20
10.2949257971
 10
17.6892281937
 20
10.2842451011
 10
17.6827787945
 20
10.2736406688
 10
17.675767243
 20
10.2631845268
 10
17.6683433381
 20
10.2531149865
 10
17.6607315062
 20
10.243694674
 10
17.6531857055
 20
10.2351398843
 10
17.6459463978
 20
10.2275842333
 10
17.6392269296
 20
10.2210895472
 10
17.6324829874
 20
10.215034298
 10
17.6252776407
 20
10.2090429182
 10
17.6178079422
 20
10.2033215182
 10
17.6102502601
 20
10.1980123819
 10
17.6027715208
 20
10.1932109451
 10
17.5955491553
 20
10.188983883
 10
17.588745232
 20
10.1853579359
 10
17.5825443635
 20
10.1823466133
  0
LINE
  5
565
100
AcDbEntity
  8
0
100
AcDbLine
 62
7
  6
CONTINUOUS
 10
17.8954342194
 20
10.1121576997
 11
17.9648056884
 21
10.2161014407
  0
LWPOLYLINE
  5
566
100
AcDbEntity
  8
AXIS
100
AcDbPolyline
 62
7
  6
CONTINUOUS
 90
6
 70
0
 10
16.5479682708
 20
9.1088533126
 10
16.406586051
 20
9.1788546892
 10
16.2845423754
 20
9.2651525998
 10
16.1855454793
 20
9.3651249262
 10
16.1126033333
 20
9.4757340598
 10
16.0679322477
 20
9.593619198
  0
LINE
  5
567
100
AcDbEntity
  8
0
100
AcDbLine
 62
7
  6
CONTINUOUS
 10
16.1036667872
 20
10.2523974028
 11
16.1648373299
 21
10.1458984369
  0
LWPOLYLINE
  5
568
100
AcDbEntity
  8
0
100
AcDbPolyline
 62
7
  6
CONTINUOUS
 90
18
 70
0
 10
16.1669683177
 20
10.6508731647
 10
16.179630225
 20
10.6237274961
 10
16.1939732915
 20
10.5970035576
 10
16.2099700652
 20
10.5707525457
 10
16.2275886189
 20
10.5450268213
 10
16.2467955093
 20
10.5198751965
 10
16.2675524096
 20
10.4953478502
 10
16.2898197742
 20
10.4714914829
 10
16.3135534838
 20
10.4483533661
 10
16.3387079219
 20
10.4259779481
 10
16.365233753
 20
10.4044091271
 10
16.3930794042
 20
10.3836888189
 10
16.4221909536
 20
10.3638571672
 10
16.4525109264
 20
10.3449533017
 10
16.4839804041
 20
10.3270138816
 10
16.5165236596
 20
10.3100809593
 10
16.550217131
 20
10.2941223933
 10
16.5850183735
 20
10.2791759815
  0
LWPOLYLINE
  5
569
100
AcDbEntity
  8
0
100
AcDbPolyline
 62
7
  6
CONTINUOUS
 90
8
 70
0
 10
16.1314631342
 20
11.8405056516
 10
16.1513004773
 20
11.7532729343
 10
16.1877532678
 20
11.668763135
 10
16.240142436
 20
11.5885507147
 10
16.3074907643
 20
11.5141313962
 10
16.3885451647
 20
11.4468898162
 10
16.481799823
 20
11.3880770069
 10
16.585355782
 20
11.3388568621
  0
LINE
  5
56A
100
AcDbEntity
  8
02___PRT_ALL_AXES
100
AcDbLine
 62
7
  6
CONTINUOUS
 10
17.150547011
 20
5.8444321061
 11
17.150547011
 21
5.1680007583
  0
LWPOLYLINE
  5
56B
100
AcDbEntity
  8
0
100
AcDbPolyline
 62
7
  6
CONTINUOUS
 90
12
 70
0
 10
17.4327027207
 20
10.5374865315
 10
17.4321742694
 20
10.5285663702
 10
17.4321909647
 20
10.5194682764
 10
17.4327723738
 20
10.5100710308
 10
17.4339509674
 20
10.5004024033
 10
17.4357604665
 20
10.4904863774
 10
17.4382361299
 20
10.4803501472
 10
17.4414140862
 20
10.4700267576
 10
17.4453203852
 20
10.4595807983
 10
17.4500608648
 20
10.4489012507
 10
17.4556739314
 20
10.4380888006
 10
17.4621435214
 20
10.4273162856
  0
LWPOLYLINE
  5
56C
100
AcDbEntity
  8
0
100
AcDbPolyline
 62
7
  6
CONTINUOUS
 90
8
 70
0
 10
17.4436015744
 20
10.6572923536
 10
17.4429207099
 20
10.6498729766
 10
17.4414811151
 20
10.6341321847
 10
17.4399887619
 20
10.6177682533
 10
17.4384171904
 20
10.60049562
 10
17.4367189465
 20
10.5817959681
 10
17.4348332653
 20
10.5610027369
 10
17.4327027207
 20
10.5374865315
  0
LWPOLYLINE
  5
56D
100
AcDbEntity
  8
0
100
AcDbPolyline
 62
7
  6
CONTINUOUS
 90
4
 70
0
 10
18.0057907125
 20
11.7073852455
 10
18.01400232
 20
11.7380732479
 10
18.0202585527
 20
11.7689908564
 10
18.0245468114
 20
11.800075807
  0
LWPOLYLINE
  5
56E
100
AcDbEntity
  8
0
100
AcDbPolyline
 62
7
  6
CONTINUOUS
 90
7
 70
0
 10
18.0001221246
 20
11.1628717244
 10
18.0094837209
 20
11.1934715484
 10
18.0168896842
 20
11.2243382119
 10
18.0223249959
 20
11.255409159
 10
18.0257786571
 20
11.286621515
 10
18.0272436792
 20
11.3179121193
 10
18.0272989795
 20
11.3252896491
  0
LWPOLYLINE
  5
56F
100
AcDbEntity
  8
AXIS
100
AcDbPolyline
 62
7
  6
CONTINUOUS
 90
12
 70
0
 10
16.5479682708
 20
9.1088533126
 10
16.7043932077
 20
9.0572754266
 10
16.8711079689
 20
9.025688199
 10
17.043047011
 20
9.0150513918
 10
17.2149860531
 20
9.025688199
 10
17.3817008143
 20
9.0572754266
 10
17.5381257512
 20
9.1088533126
 10
17.679507971
 20
9.1788546892
 10
17.8015516466
 20
9.2651525998
 10
17.9005485427
 20
9.3651249262
 10
17.9734906887
 20
9.4757340598
 10
18.0181617743
 20
9.593619198
  0
LINE
  5
570
100
AcDbEntity
  8
0
100
AcDbLine
 62
7
  6
CONTINUOUS
 10
16.1648373299
 20
10.1458984369
 11
16.2499644728
 21
10.0479710111
  0
LWPOLYLINE
  5
571
100
AcDbEntity
  8
0
100
AcDbPolyline
 62
7
  6
CONTINUOUS
 90
3
 70
0
 10
17.6296611842
 20
6.2745843208
 10
17.629479476
 20
6.2850733161
 10
17.628132512
 20
6.2944137327
  0
LWPOLYLINE
  5
572
100
AcDbEntity
  8
0
100
AcDbPolyline
 62
7
  6
CONTINUOUS
 90
3
 70
0
 10
17.6296611842
 20
6.3163425952
 10
17.629479476
 20
6.3268315906
 10
17.6282779767
 20
6.3351632931
  0
LWPOLYLINE
  5
573
100
AcDbEntity
  8
0
100
AcDbPolyline
 62
7
  6
CONTINUOUS
 90
11
 70
0
 10
17.4810015691
 20
10.5381419267
 10
17.4810256533
 20
10.5355886468
 10
17.4813884887
 20
10.5278333139
 10
17.4822066442
 20
10.5198377508
 10
17.4835059988
 20
10.5116211612
 10
17.4853135649
 20
10.5032053228
 10
17.4876569951
 20
10.4946167609
 10
17.490556425
 20
10.4859081934
 10
17.4940914412
 20
10.476985484
 10
17.4982917545
 20
10.4679305988
 10
17.503145937
 20
10.4588862149
  0
LINE
  5
574
100
AcDbEntity
  8
AXIS
100
AcDbLine
 62
7
  6
CONTINUOUS
 10
17.4810015691
 20
10.6702871619
 11
17.4810015691
 21
10.5381424685
  0
LINE
  5
575
100
AcDbEntity
  8
0
100
AcDbLine
 62
7
  6
CONTINUOUS
 10
17.503145937
 20
10.4588862149
 11
17.503145937
 21
10.6787273343
  0
LINE
  5
576
100
AcDbEntity
  8
0
100
AcDbLine
 62
7
  6
CONTINUOUS
 10
17.5432442504
 20
10.3967119116
 11
17.5432442504
 21
10.6952232034
  0
LWPOLYLINE
  5
577
100
AcDbEntity
  8
02___PRT_ALL_AXES
100
AcDbPolyline
 62
7
  6
CONTINUOUS
 90
16
 70
0
 10
17.1505461841
 20
5.1680007584
 10
17.1500602427
 20
5.1607751702
 10
17.1475167546
 20
5.1500797835
 10
17.1428465638
 20
5.1397492162
 10
17.1361447419
 20
5.1299937688
 10
17.1275477187
 20
5.1210120341
 10
17.1172305047
 20
5.1129868543
 10
17.1054031288
 20
5.106081599
 10
17.0923063621
 20
5.1004368392
 10
17.0782068171
 20
5.0961674859
 10
17.0633915198
 20
5.0933604509
 10
17.0481620669
 20
5.0920728773
 10
17.0328284863
 20
5.0923309765
 10
17.0177029254
 20
5.0941294941
 10
17.003093297
 20
5.0974318177
 10
16.989297011
 20
5.1021707214
  0
LWPOLYLINE
  5
578
100
AcDbEntity
  8
0
100
AcDbPolyline
 62
7
  6
CONTINUOUS
 90
10
 70
0
 10
17.9432972404
 20
11.7822056857
 10
17.9574831692
 20
11.8699877343
 10
17.9546308906
 20
11.9583180217
 10
17.9347935517
 20
12.0455507395
 10
17.8983407652
 20
12.1300605396
 10
17.8459516008
 20
12.2102729611
 10
17.7786032758
 20
12.2846922814
 10
17.6975488782
 20
12.3519338636
 10
17.6042942232
 20
12.4107466747
 10
17.50073824
 20
12.4599668328
  0
LINE
  5
579
100
AcDbEntity
  8
0
100
AcDbLine
 62
7
  6
CONTINUOUS
 10
17.9648056884
 20
10.2161014407
 11
18.0090390879
 21
10.3267056105
  0
LINE
  5
57A
100
AcDbEntity
  8
0
100
AcDbLine
 62
7
  6
CONTINUOUS
 10
16.2499644728
 20
10.0479710111
 11
16.3567262495
 21
9.9612867529
  0
LINE
  5
57B
100
AcDbEntity
  8
0
100
AcDbLine
 62
7
  6
CONTINUOUS
 10
17.720505088
 20
10.7072256165
 11
17.720505088
 21
10.3848122411
  0
LWPOLYLINE
  5
57C
100
AcDbEntity
  8
0
100
AcDbPolyline
 62
7
  6
CONTINUOUS
 90
9
 70
0
 10
17.720505088
 20
10.3848122411
 10
17.720196755
 20
10.3761673541
 10
17.7192664216
 20
10.3670710925
 10
17.7177069417
 20
10.3575616528
 10
17.7155121054
 20
10.3476811462
 10
17.7126776655
 20
10.3374790498
 10
17.7092045142
 20
10.3270185955
 10
17.7051026128
 20
10.3163797077
 10
17.7003919704
 20
10.3056531557
  0
LWPOLYLINE
  5
57D
100
AcDbEntity
  8
0
100
AcDbPolyline
 62
7
  6
CONTINUOUS
 90
3
 70
0
 10
18.0245468114
 20
11.800075807
 10
18.0268584601
 20
11.8312654989
 10
18.0272989056
 20
11.852085803
  0
LWPOLYLINE
  5
57E
100
AcDbEntity
  8
0
100
AcDbPolyline
 62
7
  6
CONTINUOUS
 90
3
 70
0
 10
18.0090390879
 20
10.3267056105
 10
18.0269247207
 20
10.4409523081
 10
18.0272989795
 20
10.4601433204
  0
LWPOLYLINE
  5
57F
100
AcDbEntity
  8
0
100
AcDbPolyline
 62
7
  6
CONTINUOUS
 90
10
 70
0
 10
16.4822103313
 20
9.8882105637
 10
16.6229935411
 20
9.8307360516
 10
16.7752352612
 20
9.7904311418
 10
16.9347822421
 20
9.7683952892
 10
17.0972819196
 20
9.7652294724
 10
17.2583012464
 20
9.7810197854
 10
17.4134478829
 20
9.8153351584
 10
17.5584898238
 20
9.867239178
 10
17.6894700918
 20
9.9353151875
 10
17.8028153336
 20
10.0177046052
  0
LWPOLYLINE
  5
580
100
AcDbEntity
  8
0
100
AcDbPolyline
 62
7
  6
CONTINUOUS
 90
24
 70
0
 10
16.5509210267
 20
9.8574145451
 10
16.5126349678
 20
9.8738775948
 10
16.4754482688
 20
9.8915557698
 10
16.4394380048
 20
9.9104124293
 10
16.4046788127
 20
9.9304084901
 10
16.3712427362
 20
9.9515025071
 10
16.3391990766
 20
9.9736507599
 10
16.3086142493
 20
9.9968073429
 10
16.2795516461
 20
10.0209242604
 10
16.2520715037
 20
10.0459515265
 10
16.2262307787
 20
10.0718372683
 10
16.2020830301
 20
10.0985278337
 10
16.1796783078
 20
10.1259679024
 10
16.159063049
 20
10.1541006008
 10
16.140279982
 20
10.1828676193
 10
16.1233680374
 20
10.2122093342
 10
16.108362268
 20
10.24206493
 10
16.0952937754
 20
10.2723725267
 10
16.0841896462
 20
10.3030693069
 10
16.0750728952
 20
10.3340916471
 10
16.0679624184
 20
10.3653752486
 10
16.0628729534
 20
10.3968552714
 10
16.0598150487
 20
10.4284664683
 10
16.0587950425
 20
10.4601433204
  0
LINE
  5
581
100
AcDbEntity
  8
0
100
AcDbLine
 62
7
  6
CONTINUOUS
 10
16.3567262495
 20
9.9612867529
 11
16.4822103313
 21
9.8882105637
  0
LWPOLYLINE
  5
582
100
AcDbEntity
  8
0
100
AcDbPolyline
 62
7
  6
CONTINUOUS
 90
3
 70
0
 10
18.0371414992
 20
7.072320075
 10
18.0360150937
 20
7.1057733123
 10
18.0332044913
 20
7.1223938567
  0
LINE
  5
583
100
AcDbEntity
  8
0
100
AcDbLine
 62
7
  6
CONTINUOUS
 10
18.0272989056
 20
11.852085803
 11
18.0271888435
 21
11.8624971201
  0
LINE
  5
584
100
AcDbEntity
  8
0
100
AcDbLine
 62
7
  6
CONTINUOUS
 10
18.0001221246
 20
10.7272717725
 11
18.0001221246
 21
11.1628717244
  0
LINE
  5
585
100
AcDbEntity
  8
AXIS
100
AcDbLine
 62
7
  6
CONTINUOUS
 10
18.0033833471
 20
11.1584102852
 11
18.0033833471
 21
10.7467619235
  0
LINE
  5
586
100
AcDbEntity
  8
AXIS
100
AcDbLine
 62
7
  6
CONTINUOUS
 10
18.0272989795
 20
11.852085803
 11
18.0272989795
 21
11.3252896491
  0
LINE
  5
587
100
AcDbEntity
  8
AXIS
100
AcDbLine
 62
7
  6
CONTINUOUS
 10
18.0272989795
 20
7.4013861727
 11
18.0272989795
 21
8.1586028833
  0
LINE
  5
588
100
AcDbEntity
  8
AXIS
100
AcDbLine
 62
7
  6
CONTINUOUS
 10
18.0272989795
 20
8.5344273536
 11
18.0272989795
 21
9.2916440641
  0
LINE
  5
589
100
AcDbEntity
  8
AXIS
100
AcDbLine
 62
7
  6
CONTINUOUS
 10
18.0272989795
 20
9.6674685344
 11
18.0272989795
 21
10.7644525076
  0
LINE
  5
58A
100
AcDbEntity
  8
0
100
AcDbLine
 62
7
  6
CONTINUOUS
 10
18.0332044913
 20
7.0732916285
 11
18.0332044913
 21
7.4491160988
  0
LINE
  5
58B
100
AcDbEntity
  8
AXIS
100
AcDbLine
 62
7
  6
CONTINUOUS
 10
18.0332044913
 20
8.2063328094
 11
18.0332044913
 21
8.5821572797
  0
LINE
  5
58C
100
AcDbEntity
  8
AXIS
100
AcDbLine
 62
7
  6
CONTINUOUS
 10
18.0332044913
 20
9.3393739903
 11
18.0332044913
 21
9.7151984606
  0
LINE
  5
58D
100
AcDbEntity
  8
AXIS
100
AcDbLine
 62
7
  6
CONTINUOUS
 10
18.0371414992
 20
7.072320075
 11
18.0371414992
 21
7.0412769514
  0
LINE
  5
58E
100
AcDbEntity
  8
0
100
AcDbLine
 62
7
  6
CONTINUOUS
 10
18.0262791231
 20
11.8204112765
 11
18.0268892364
 21
11.8719786635
  0
LWPOLYLINE
  5
58F
100
AcDbEntity
  8
0
100
AcDbPolyline
 62
7
  6
CONTINUOUS
 90
7
 70
0
 10
18.0272989795
 20
11.3252896491
 10
18.0264627919
 20
11.2949357843
 10
18.0239531692
 20
11.2646142745
 10
18.0197676864
 20
11.2343621623
 10
18.0139020946
 20
11.2042135035
 10
18.0063528801
 20
11.1742118564
 10
18.0049139195
 20
11.1691709457
  0
LWPOLYLINE
  5
590
100
AcDbEntity
  8
0
100
AcDbPolyline
 62
7
  6
CONTINUOUS
 90
47
 70
0
 10
18.0272989795
 20
10.4601433204
 10
18.0262789732
 20
10.4284664683
 10
18.0232210686
 20
10.3968552714
 10
18.0181316036
 20
10.3653752486
 10
18.0110211268
 20
10.3340916471
 10
18.0019043758
 20
10.3030693069
 10
17.9908002466
 20
10.2723725267
 10
17.977731754
 20
10.24206493
 10
17.9627259846
 20
10.2122093342
 10
17.94581404
 20
10.1828676193
 10
17.927030973
 20
10.1541006008
 10
17.9064157141
 20
10.1259679024
 10
17.8840109918
 20
10.0985278337
 10
17.8598632433
 20
10.0718372683
 10
17.8340225183
 20
10.0459515265
 10
17.8065423759
 20
10.0209242604
 10
17.7774797727
 20
9.9968073429
 10
17.7468949454
 20
9.9736507599
 10
17.7148512858
 20
9.9515025071
 10
17.6814152093
 20
9.9304084901
 10
17.6466560172
 20
9.9104124293
 10
17.6106457532
 20
9.8915557698
 10
17.5734590542
 20
9.8738775948
 10
17.5351729952
 20
9.8574145451
 10
17.49586693
 20
9.8422007428
 10
17.4556223264
 20
9.8282677208
 10
17.4145225974
 20
9.8156443575
 10
17.3726529285
 20
9.8043568168
 10
17.330100101
 20
9.7944284937
 10
17.2869523122
 20
9.7858799662
 10
17.2432989923
 20
9.7787289525
 10
17.1992306197
 20
9.7729902742
 10
17.1548385327
 20
9.7686758254
 10
17.1102147407
 20
9.7657945487
 10
17.0654517333
 20
9.7643524158
 10
17.0206422887
 20
9.7643524158
 10
16.9758792813
 20
9.7657945487
 10
16.9312554893
 20
9.7686758254
 10
16.8868634023
 20
9.7729902742
 10
16.8427950296
 20
9.7787289525
 10
16.7991417098
 20
9.7858799662
 10
16.755993921
 20
9.7944284937
 10
16.7134410935
 20
9.8043568168
 10
16.6715714246
 20
9.8156443575
 10
16.6304716956
 20
9.8282677208
 10
16.590227092
 20
9.8422007428
 10
16.5509210267
 20
9.8574145451
  0
LWPOLYLINE
  5
591
100
AcDbEntity
  8
0
100
AcDbPolyline
 62
7
  6
CONTINUOUS
 90
4
 70
0
 10
18.0033833654
 20
11.1584103107
 10
18.0035404458
 20
11.1618885415
 10
18.0041185499
 20
11.1659071783
 10
18.0049140257
 20
11.1691712405
  0
LWPOLYLINE
  5
592
100
AcDbEntity
  8
0
100
AcDbPolyline
 62
7
  6
CONTINUOUS
 90
3
 70
0
 10
18.0257268957
 20
10.7251321463
 10
18.0272233647
 20
10.7558257361
 10
18.0272989795
 20
10.7644525076
  0
LWPOLYLINE
  5
593
100
AcDbEntity
  8
0
100
AcDbPolyline
 62
7
  6
CONTINUOUS
 90
4
 70
0
 10
18.0033833471
 20
10.7467619235
 10
18.0030027066
 20
10.7400622891
 10
18.0019135886
 20
10.7336274866
 10
18.0001221246
 20
10.7272717725
  0
LWPOLYLINE
  5
594
100
AcDbEntity
  8
0
100
AcDbPolyline
 62
7
  6
CONTINUOUS
 90
26
 70
0
 10
18.0257268957
 20
10.7251321463
 10
18.0252787742
 20
10.719998223
 10
18.0247196518
 20
10.7146060905
 10
18.0240475873
 20
10.7091650459
 10
18.0232647633
 20
10.7038487742
 10
18.022382
 20
10.6988206707
 10
18.0214169969
 20
10.6942112106
 10
18.0203973285
 20
10.6901286517
 10
18.0193631225
 20
10.6866589002
 10
18.0182530384
 20
10.6835643015
 10
18.0169676985
 20
10.6806800607
 10
18.0155266374
 20
10.6782283843
 10
18.0139648612
 20
10.6764127623
 10
18.0123345193
 20
10.6753926446
 10
18.0106955245
 20
10.6752539768
 10
18.009101064
 20
10.6760067532
 10
18.0075760186
 20
10.6776310787
 10
18.0061385834
 20
10.6801136293
 10
18.0048093503
 20
10.6834429376
 10
18.0036126436
 20
10.6875926141
 10
18.0025703674
 20
10.6925232244
 10
18.00169981
 20
10.6981881123
 10
18.001013252
 20
10.7045401061
 10
18.0005187873
 20
10.7115344298
 10
18.0002211822
 20
10.7191267737
 10
18.0001221246
 20
10.7272717725
  0
LINE
  5
595
100
AcDbEntity
  8
0
100
AcDbLine
 62
7
  6
CONTINUOUS
 10
17.6245718617
 20
6.3027039808
 11
17.6275032465
 21
6.334611882
  0
LINE
  5
596
100
AcDbEntity
  8
0
100
AcDbLine
 62
7
  6
CONTINUOUS
 10
17.6245718617
 20
6.2974145993
 11
17.6280231806
 21
6.3349819429
  0
LINE
  5
597
100
AcDbEntity
  8
0
100
AcDbLine
 62
7
  6
CONTINUOUS
 10
17.6245718617
 20
6.2609457063
 11
17.6296611842
 21
6.3163425952
  0
LINE
  5
598
100
AcDbEntity
  8
0
100
AcDbLine
 62
7
  6
CONTINUOUS
 10
17.6245718617
 20
6.2556563249
 11
17.628132512
 21
6.2944137327
  0
LINE
  5
599
100
AcDbEntity
  8
AXIS
100
AcDbLine
 62
7
  6
CONTINUOUS
 10
18.0181617743
 20
9.593619198
 11
18.0332044913
 21
9.7151984606
  0
LINE
  5
59A
100
AcDbEntity
  8
AXIS
100
AcDbLine
 62
7
  6
CONTINUOUS
 10
18.0181617743
 20
9.2177947277
 11
18.0332044913
 21
9.3393739903
  0
LINE
  5
59B
100
AcDbEntity
  8
AXIS
100
AcDbLine
 62
7
  6
CONTINUOUS
 10
18.0181617743
 20
8.4605780171
 11
18.0332044913
 21
8.5821572797
  0
LINE
  5
59C
100
AcDbEntity
  8
AXIS
100
AcDbLine
 62
7
  6
CONTINUOUS
 10
18.0181617743
 20
8.0847535468
 11
18.0332044913
 21
8.2063328094
  0
LWPOLYLINE
  5
59D
100
AcDbEntity
  8
0
100
AcDbPolyline
 62
7
  6
CONTINUOUS
 90
26
 70
0
 10
16.5509210267
 20
10.1617237323
 10
16.5891542873
 20
10.1469035893
 10
16.6281356657
 20
10.1333421713
 10
16.6679255701
 20
10.1210102638
 10
16.7084456397
 20
10.109932126
 10
16.7496181328
 20
10.1001290054
 10
16.791361986
 20
10.0916202158
 10
16.8335962026
 20
10.0844222522
 10
16.8762387334
 20
10.078549112
 10
16.9192058333
 20
10.0740123218
 10
16.9624149114
 20
10.070820616
 10
17.0057803751
 20
10.0689803171
 10
17.0492194345
 20
10.0684949519
 10
17.0926456749
 20
10.069365495
 10
17.1359761628
 20
10.0715902881
 10
17.1791250604
 20
10.0751649399
 10
17.222008939
 20
10.0800825178
 10
17.2645440868
 20
10.086333424
 10
17.3066474906
 20
10.0939054456
 10
17.3482375206
 20
10.1027839008
 10
17.3892326874
 20
10.112951389
 10
17.4295536269
 20
10.1243882243
 10
17.4691214097
 20
10.1370720232
 10
17.5078591752
 20
10.150978144
 10
17.545691518
 20
10.1660795314
 10
17.5825443635
 20
10.1823466133
  0
LWPOLYLINE
  5
59E
100
AcDbEntity
  8
0
100
AcDbPolyline
 62
7
  6
CONTINUOUS
 90
26
 70
0
 10
17.5432442125
 20
10.396711949
 10
17.5451917705
 20
10.3914319143
 10
17.5470472742
 20
10.385981948
 10
17.5487991546
 20
10.3803873425
 10
17.5504346818
 20
10.3746760795
 10
17.5519398447
 20
10.3688807148
 10
17.5532987082
 20
10.3630417368
 10
17.5544940859
 20
10.3572086379
 10
17.5555092826
 20
10.3514360417
 10
17.5563300438
 20
10.3457753991
 10
17.5569460601
 20
10.3402569165
 10
17.5573466848
 20
10.334902426
 10
17.5575185874
 20
10.3297558704
 10
17.5574527091
 20
10.3249388474
 10
17.5571598697
 20
10.3205726014
 10
17.5566730215
 20
10.3167423453
 10
17.5560416374
 20
10.313483006
 10
17.5553242138
 20
10.3107889494
 10
17.5544863673
 20
10.3083815994
 10
17.5534691426
 20
10.3061162718
 10
17.5522891422
 20
10.3040825579
 10
17.5509720562
 20
10.3023335431
 10
17.5495522997
 20
10.3008941736
 10
17.5480755404
 20
10.2997684014
 10
17.5465923565
 20
10.2989377265
 10
17.5451648538
 20
10.2983699899
  0
LINE
  5
59F
100
AcDbEntity
  8
0
100
AcDbLine
 62
7
  6
CONTINUOUS
 10
18.0332044913
 20
7.4491160988
 11
18.0272989795
 21
7.496846025
  0
LINE
  5
5A0
100
AcDbEntity
  8
AXIS
100
AcDbLine
 62
7
  6
CONTINUOUS
 10
18.0332044913
 20
8.5821572797
 11
18.0272989795
 21
8.6298872058
  0
LINE
  5
5A1
100
AcDbEntity
  8
0
100
AcDbLine
 62
7
  6
CONTINUOUS
 10
18.0271888435
 20
11.8624971201
 11
18.0266876943
 21
11.8719677501
  0
LWPOLYLINE
  5
5A2
100
AcDbEntity
  8
AXIS
100
AcDbPolyline
 62
7
  6
CONTINUOUS
 90
12
 70
0
 10
18.0371395586
 20
7.0412769515
 10
18.0348735866
 20
6.9938222607
 10
18.0229953311
 20
6.9231136295
 10
18.0010614798
 20
6.8536175139
 10
17.9692971037
 20
6.7860470381
 10
17.9280281481
 20
6.7210955666
 10
17.8776780885
 20
6.6594295893
 10
17.8187635847
 20
6.6016818828
 10
17.7518891791
 20
6.5484450165
 10
17.6777410936
 20
6.5002652727
 10
17.5970801879
 20
6.4576370409
 10
17.5107341521
 20
6.4209977443
  0
LINE
  5
5A3
100
AcDbEntity
  8
0
100
AcDbLine
 62
7
  6
CONTINUOUS
 10
18.0326408489
 20
7.0055073237
 11
18.0371414992
 21
7.072320075
  0
LINE
  5
5A4
100
AcDbEntity
  8
0
100
AcDbLine
 62
7
  6
CONTINUOUS
 10
18.0181617743
 20
7.3275368362
 11
18.0332044913
 21
7.4491160988
  0
LINE
  5
5A5
100
AcDbEntity
  8
0
100
AcDbLine
 62
7
  6
CONTINUOUS
 10
18.0181617743
 20
6.9517123659
 11
18.0332044913
 21
7.0732916285
  0
LWPOLYLINE
  5
5A6
100
AcDbEntity
  8
0
100
AcDbPolyline
 62
7
  6
CONTINUOUS
 90
26
 70
0
 10
16.5850183735
 20
10.2791759815
 10
16.6206026158
 20
10.2653826626
 10
16.656883022
 20
10.2527608967
 10
16.6939161503
 20
10.2412833822
 10
16.7316287327
 20
10.2309728071
 10
16.7699485588
 20
10.221848902
 10
16.80880014
 20
10.2139296525
 10
16.8481081182
 20
10.2072304052
 10
16.8877961291
 20
10.2017641882
 10
16.9277861828
 20
10.1975417348
 10
16.9680015301
 20
10.1945711635
 10
17.0083622894
 20
10.1928583725
 10
17.0487917564
 20
10.1924066324
 10
17.0892089989
 20
10.1932168525
 10
17.1295375012
 20
10.1952875066
 10
17.1696965563
 20
10.1986144627
 10
17.2096094052
 20
10.203191343
 10
17.2491972653
 20
10.2090091162
 10
17.2883836613
 20
10.2160565285
 10
17.3270919623
 20
10.2243198008
 10
17.3652468155
 20
10.2337828383
 10
17.4027740648
 20
10.2444272525
 10
17.4396003099
 20
10.2562322213
 10
17.4756542137
 20
10.2691748817
 10
17.5108651142
 20
10.2832298711
 10
17.5451648538
 20
10.2983699899
  0
LINE
  5
5A7
100
AcDbEntity
  8
0
100
AcDbLine
 62
7
  6
CONTINUOUS
 10
17.503145937
 20
10.4588862149
 11
17.5432442504
 21
10.3967119116
  0
LINE
  5
5A8
100
AcDbEntity
  8
0
100
AcDbLine
 62
7
  6
CONTINUOUS
 10
17.5021861148
 20
10.3651164677
 11
17.5451648538
 21
10.2983699899
  0
LINE
  5
5A9
100
AcDbEntity
  8
0
100
AcDbLine
 62
7
  6
CONTINUOUS
 10
17.4621435214
 20
10.4273162856
 11
17.5021861148
 21
10.3651164677
  0
LWPOLYLINE
  5
5AA
100
AcDbEntity
  8
0
100
AcDbPolyline
 62
7
  6
CONTINUOUS
 90
16
 70
0
 10
17.5451648538
 20
10.2983699899
 10
17.5495199866
 20
10.2907876235
 10
17.553693793
 20
10.2829846357
 10
17.5576624101
 20
10.2750056389
 10
17.5614031485
 20
10.2668962503
 10
17.5648946203
 20
10.2587028362
 10
17.5681168645
 20
10.2504722387
 10
17.5710514582
 20
10.2422515156
 10
17.5736816235
 20
10.2340876672
 10
17.5759923229
 20
10.2260273688
 10
17.5779703453
 20
10.2181167037
 10
17.579604382
 20
10.2104008986
 10
17.5808850903
 20
10.2029240699
 10
17.5818051483
 20
10.195728962
 10
17.5823592957
 20
10.1888567131
 10
17.5825443641
 20
10.1823466137
  0
LWPOLYLINE
  5
5AB
100
AcDbEntity
  8
0
100
AcDbPolyline
 62
7
  6
CONTINUOUS
 90
10
 70
0
 10
18.0042164171
 20
10.7286893579
 10
18.0042596429
 20
10.7284554637
 10
18.004247013
 20
10.728540412
 10
18.0041604346
 20
10.7291845743
 10
18.0040205914
 20
10.7304426382
 10
18.003851253
 20
10.732357999
 10
18.0036780326
 20
10.7349577165
 10
18.0035259645
 20
10.7382702972
 10
18.0034197757
 20
10.7423203164
 10
18.0033833471
 20
10.7467619801
  0
LINE
  5
5AC
100
AcDbEntity
  8
AXIS
100
AcDbLine
 62
7
  6
CONTINUOUS
 10
18.0332044913
 20
9.7151984606
 11
18.0272989795
 21
9.7629283867
  0
LWPOLYLINE
  5
5AD
100
AcDbEntity
  8
AXIS
100
AcDbPolyline
 62
7
  6
CONTINUOUS
 90
19
 70
0
 10
17.9052809642
 20
6.6932360698
 10
17.9007248127
 20
6.6772284586
 10
17.8717448972
 20
6.6125758237
 10
17.8330492566
 20
6.550517749
 10
17.7850915619
 20
6.4917818084
 10
17.7284340734
 20
6.4370566274
 10
17.6637410483
 20
6.3869838085
 10
17.591770953
 20
6.3421504098
 10
17.5133675713
 20
6.3030820618
 10
17.4294501109
 20
6.2702368054
 10
17.3410024276
 20
6.243999721
 10
17.2490614894
 20
6.2246784144
 10
17.1547052198
 20
6.2124994104
 10
17.0590398597
 20
6.2076054967
 10
16.9631869982
 20
6.2100540498
 10
16.8682704223
 20
6.2198163627
 10
16.7754029421
 20
6.2367779813
 10
16.6856733439
 20
6.2607400461
 10
16.6001336252
 20
6.2914216237
  0
LWPOLYLINE
  5
5AE
100
AcDbEntity
  8
AXIS
100
AcDbPolyline
 62
7
  6
CONTINUOUS
 90
7
 70
0
 10
17.9076104154
 20
6.6960890531
 10
17.8923229547
 20
6.6433729323
 10
17.8462282139
 20
6.5515524834
 10
17.7822912338
 20
6.4655583704
 10
17.7010098952
 20
6.3869299443
 10
17.6047646503
 20
6.3184277774
 10
17.4960183241
 20
6.2617062682
  0
LWPOLYLINE
  5
5AF
100
AcDbEntity
  8
0
100
AcDbPolyline
 62
7
  6
CONTINUOUS
 90
23
 70
0
 10
17.5432442504
 20
10.3967119116
 10
17.5488719272
 20
10.3915967969
 10
17.5550435717
 20
10.3868056411
 10
17.5617220222
 20
10.382367294
 10
17.5688670628
 20
10.3783084817
 10
17.576435673
 20
10.3746536426
 10
17.5843822763
 20
10.3714247855
 10
17.5926590235
 20
10.3686413523
 10
17.6012160754
 20
10.3663201037
 10
17.6100019083
 20
10.3644750163
 10
17.6189636165
 20
10.3631172009
 10
17.6280472384
 20
10.3622548332
 10
17.637198077
 20
10.3618931061
 10
17.646361031
 20
10.3620341975
 10
17.6554809267
 20
10.3626772581
 10
17.6645028472
 20
10.3638184154
 10
17.6733724694
 20
10.3654507983
 10
17.682036384
 20
10.3675645772
 10
17.6904424227
 20
10.3701470244
 10
17.6985399665
 20
10.3731825891
 10
17.7062802595
 20
10.3766529938
 10
17.7136166919
 20
10.3805373409
 10
17.720505088
 20
10.3848122411
  0
LWPOLYLINE
  5
5B0
100
AcDbEntity
  8
0
100
AcDbPolyline
 62
7
  6
CONTINUOUS
 90
6
 70
0
 10
18.0033833471
 20
10.925737224
 10
18.0119718137
 20
10.8938887011
 10
18.0186824083
 20
10.8616818931
 10
18.0234683489
 20
10.829366586
 10
18.0263412695
 20
10.7969361418
 10
18.0272989795
 20
10.7644525076
  0
LINE
  5
5B1
100
AcDbEntity
  8
0
100
AcDbLine
 62
7
  6
CONTINUOUS
 10
18.0153609622
 20
11.9625938457
 11
18.0268968336
 21
11.8719788169
  0
LWPOLYLINE
  5
5B2
100
AcDbEntity
  8
0
100
AcDbPolyline
 62
7
  6
CONTINUOUS
 90
3
 70
0
 10
17.5724698098
 20
6.2547244725
 10
17.6054121159
 20
6.3163814711
 10
17.6063556136
 20
6.3195601391
  0
LWPOLYLINE
  5
5B3
100
AcDbEntity
  8
0
100
AcDbPolyline
 62
7
  6
CONTINUOUS
 90
3
 70
0
 10
17.5724698098
 20
6.212966198
 10
17.6054121159
 20
6.2746231967
 10
17.6220702834
 20
6.3307449923
  0
LWPOLYLINE
  5
5B4
100
AcDbEntity
  8
0
100
AcDbPolyline
 62
7
  6
CONTINUOUS
 90
3
 70
0
 10
17.5724698098
 20
6.1764973049
 10
17.6054121159
 20
6.2381543036
 10
17.6245718617
 20
6.3027039808
  0
LWPOLYLINE
  5
5B5
100
AcDbEntity
  8
0
100
AcDbPolyline
 62
7
  6
CONTINUOUS
 90
3
 70
0
 10
17.5724698098
 20
6.1712079235
 10
17.6054121159
 20
6.2328649222
 10
17.6245718617
 20
6.2974145993
  0
LWPOLYLINE
  5
5B6
100
AcDbEntity
  8
0
100
AcDbPolyline
 62
7
  6
CONTINUOUS
 90
3
 70
0
 10
17.5724698098
 20
6.1347390305
 10
17.6054121159
 20
6.1963960291
 10
17.6245718617
 20
6.2609457063
  0
LWPOLYLINE
  5
5B7
100
AcDbEntity
  8
0
100
AcDbPolyline
 62
7
  6
CONTINUOUS
 90
3
 70
0
 10
17.5724698098
 20
6.129449649
 10
17.6054121159
 20
6.1911066477
 10
17.6245718617
 20
6.2556563249
  0
LWPOLYLINE
  5
5B8
100
AcDbEntity
  8
0
100
AcDbPolyline
 62
7
  6
CONTINUOUS
 90
17
 70
0
 10
17.4327027207
 20
10.5374865315
 10
17.4366581484
 20
10.5368079048
 10
17.4406743902
 20
10.5363024661
 10
17.4447088991
 20
10.5359755697
 10
17.4487189345
 20
10.5358306788
 10
17.4526620151
 20
10.5358693283
 10
17.456496369
 20
10.5360911087
 10
17.460181376
 20
10.5364936706
 10
17.4636779981
 20
10.5370727493
 10
17.466949193
 20
10.5378222102
 10
17.4699603065
 20
10.5387341137
 10
17.4726794396
 20
10.5397987993
 10
17.4750777866
 20
10.5410049881
 10
17.4771299399
 20
10.5423399019
 10
17.4788141596
 20
10.5437893991
 10
17.4801126036
 20
10.545338124
 10
17.4810015691
 20
10.5469516154
  0
LWPOLYLINE
  5
5B9
100
AcDbEntity
  8
0
100
AcDbPolyline
 62
7
  6
CONTINUOUS
 90
3
 70
0
 10
16.3391965196
 20
11.3655950923
 10
16.4394396486
 20
11.3023540095
 10
16.5509210267
 20
11.2493570277
  0
LWPOLYLINE
  5
5BA
100
AcDbEntity
  8
0
100
AcDbPolyline
 62
7
  6
CONTINUOUS
 90
3
 70
0
 10
17.9005485427
 20
6.7232180941
 10
17.9734906887
 20
6.8338272277
 10
18.0181617743
 20
6.9517123659
  0
LWPOLYLINE
  5
5BB
100
AcDbEntity
  8
0
100
AcDbPolyline
 62
7
  6
CONTINUOUS
 90
4
 70
0
 10
17.9039580976
 20
6.7208546056
 10
17.9659334088
 20
6.8110687132
 10
18.0091207141
 20
6.9066012596
 10
18.0326408489
 20
7.0055073237
  0
LINE
  5
5BC
100
AcDbEntity
  8
0
100
AcDbLine
 62
7
  6
CONTINUOUS
 10
17.8244564906
 20
6.6377955782
 11
17.9039580976
 21
6.7208546056
  0
LINE
  5
5BD
100
AcDbEntity
  8
0
100
AcDbLine
 62
7
  6
CONTINUOUS
 10
17.8015516466
 20
6.6232457677
 11
17.9005485427
 21
6.7232180941
  0
LWPOLYLINE
  5
5BE
100
AcDbEntity
  8
0
100
AcDbPolyline
 62
7
  6
CONTINUOUS
 90
20
 70
0
 10
16.1891763767
 20
10.9495078063
 10
16.1800978277
 20
10.950396483
 10
16.171144062
 20
10.9517802502
 10
16.1623689939
 20
10.9536507755
 10
16.153825464
 20
10.9559967954
 10
16.1455649136
 20
10.9588041841
 10
16.1376370858
 20
10.9620560363
 10
16.1300897166
 20
10.9657327716
 10
16.1229682532
 20
10.96981225
 10
16.1163155755
 20
10.9742699082
 10
16.1101717439
 20
10.9790789036
 10
16.1045737526
 20
10.9842102794
 10
16.0995553098
 20
10.9896331371
 10
16.0951466339
 20
10.9953148233
 10
16.0913742711
 20
11.0012211263
 10
16.0882609375
 20
11.0073164804
 10
16.0858253789
 20
11.013564184
 10
16.0840822615
 20
11.0199266159
 10
16.0830420812
 20
11.026365466
 10
16.0827106748
 20
11.0326172149
  0
LWPOLYLINE
  5
5BF
100
AcDbEntity
  8
0
100
AcDbPolyline
 62
7
  6
CONTINUOUS
 90
22
 70
0
 10
16.5509210267
 20
11.2493570277
 10
16.5131743574
 20
11.2655762513
 10
16.476494781
 20
11.2829766271
 10
16.4409561654
 20
11.3015231131
 10
16.4066300807
 20
11.321178359
 10
16.3735856549
 20
11.3419027818
 10
16.3418894353
 20
11.3636546454
 10
16.3116052536
 20
11.3863901443
 10
16.2827940984
 20
11.4100634923
 10
16.2555139913
 20
11.4346270144
 10
16.2298198709
 20
11.460031243
 10
16.2057634818
 20
11.4862250172
 10
16.1833932702
 20
11.5131555864
 10
16.1627542869
 20
11.5407687159
 10
16.143888096
 20
11.5690087967
 10
16.1268326915
 20
11.5978189568
 10
16.1116224206
 20
11.6271411765
 10
16.098287915
 20
11.6569164048
 10
16.0868560284
 20
11.6870846783
 10
16.0773497832
 20
11.717585242
 10
16.0697883238
 20
11.748356672
 10
16.0641868778
 20
11.7793369987
  0
LWPOLYLINE
  5
5C0
100
AcDbEntity
  8
0
100
AcDbPolyline
 62
7
  6
CONTINUOUS
 90
20
 70
0
 10
17.5631772854
 20
10.7039539925
 10
17.5688670629
 20
10.7007218571
 10
17.576435673
 20
10.6970670181
 10
17.5843822763
 20
10.6938381609
 10
17.5926590235
 20
10.6910547277
 10
17.6012160754
 20
10.6887334791
 10
17.6100019083
 20
10.6868883917
 10
17.6189636165
 20
10.6855305763
 10
17.6280472384
 20
10.6846682086
 10
17.637198077
 20
10.6843064815
 10
17.646361031
 20
10.6844475729
 10
17.6554809267
 20
10.6850906335
 10
17.6645028472
 20
10.6862317908
 10
17.6733724694
 20
10.6878641737
 10
17.682036384
 20
10.6899779526
 10
17.6904424227
 20
10.6925603999
 10
17.6985399665
 20
10.6955959645
 10
17.7062802595
 20
10.6990663692
 10
17.7136166919
 20
10.7029507163
 10
17.720505088
 20
10.7072256165
  0
LWPOLYLINE
  5
5C1
100
AcDbEntity
  8
0
100
AcDbPolyline
 62
7
  6
CONTINUOUS
 90
10
 70
0
 10
18.0033833471
 20
10.7748633095
 10
18.0047928774
 20
10.7734740943
 10
18.0095836526
 20
10.7679564418
 10
18.0137925292
 20
10.7622209262
 10
18.0173954437
 20
10.7563003393
 10
18.0203717976
 20
10.7502285303
 10
18.0227045731
 20
10.7440402156
 10
18.024380434
 20
10.7377707734
 10
18.0253897985
 20
10.7314560493
 10
18.0257268957
 20
10.7251321463
  0
LINE
  5
5C2
100
AcDbEntity
  8
0
100
AcDbLine
 62
7
  6
CONTINUOUS
 10
17.9881359046
 20
12.0517161391
 11
18.0153609622
 21
11.9625938457
  0
LINE
  5
5C3
100
AcDbEntity
  8
0
100
AcDbLine
 62
7
  6
CONTINUOUS
 10
16.1284528966
 20
10.8767402245
 11
16.2363310284
 21
10.9049554364
  0
LINE
  5
5C4
100
AcDbEntity
  8
0
100
AcDbLine
 62
7
  6
CONTINUOUS
 10
16.1891763767
 20
10.9495078063
 11
16.1959120782
 21
10.9512653576
  0
LWPOLYLINE
  5
5C5
100
AcDbEntity
  8
0
100
AcDbPolyline
 62
7
  6
CONTINUOUS
 90
9
 70
0
 10
16.5509210267
 20
11.2493570277
 10
16.6715694975
 20
11.2075873956
 10
16.7991452538
 20
11.1778218079
 10
16.931251803
 20
11.1606186061
 10
17.065452933
 20
11.1562949177
 10
17.1992320055
 20
11.1649329143
 10
17.3300975021
 20
11.186370416
 10
17.4556255495
 20
11.2202112557
 10
17.5734562863
 20
11.2658188254
  0
LWPOLYLINE
  5
5C6
100
AcDbEntity
  8
0
100
AcDbPolyline
 62
7
  6
CONTINUOUS
 90
14
 70
0
 10
16.585355782
 20
11.3388568621
 10
16.6974158815
 20
11.3000521196
 10
16.8160738972
 20
11.2723519421
 10
16.9389548776
 20
11.2563372514
 10
17.0637737205
 20
11.2523046508
 10
17.188208055
 20
11.2603291785
 10
17.3099373935
 20
11.280261394
 10
17.4266938882
 20
11.3117299105
 10
17.5363020959
 20
11.3541483948
 10
17.6367197478
 20
11.4067264885
 10
17.7260758069
 20
11.4684845286
 10
17.8027053461
 20
11.5382718066
 10
17.8651805779
 20
11.6147880234
 10
17.912337423
 20
11.6966074789
  0
LWPOLYLINE
  5
5C7
100
AcDbEntity
  8
0
100
AcDbPolyline
 62
7
  6
CONTINUOUS
 90
6
 70
0
 10
17.4687849429
 20
5.9841797988
 10
17.5265523002
 20
6.0357020128
 10
17.5724698098
 20
6.092980756
 10
17.6054121159
 20
6.1546377547
 10
17.6245718617
 20
6.2191874318
 10
17.6296611842
 20
6.2745843208
  0
LWPOLYLINE
  5
5C8
100
AcDbEntity
  8
0
100
AcDbPolyline
 62
7
  6
CONTINUOUS
 90
8
 70
0
 10
17.4488345573
 20
5.9658648753
 10
17.4387450159
 20
5.9570700589
 10
17.3746055761
 20
5.9162171518
 10
17.3025292827
 20
5.883082342
 10
17.2244028051
 20
5.8584522095
 10
17.1420772644
 20
5.8428242874
 10
17.0574687362
 20
5.836509082
 10
16.9725759941
 20
5.8396266531
  0
LWPOLYLINE
  5
5C9
100
AcDbEntity
  8
0
100
AcDbPolyline
 62
7
  6
CONTINUOUS
 90
4
 70
0
 10
17.4005835123
 20
6.1013950222
 10
17.4687849429
 20
6.1459235153
 10
17.5265523002
 20
6.1974457293
 10
17.5724698098
 20
6.2547244725
  0
LWPOLYLINE
  5
5CA
100
AcDbEntity
  8
0
100
AcDbPolyline
 62
7
  6
CONTINUOUS
 90
4
 70
0
 10
17.4005835123
 20
6.0596367477
 10
17.4687849429
 20
6.1041652409
 10
17.5265523002
 20
6.1556874548
 10
17.5724698098
 20
6.212966198
  0
LINE
  5
5CB
100
AcDbEntity
  8
0
100
AcDbLine
 62
7
  6
CONTINUOUS
 10
17.323619503
 20
6.1902008613
 11
17.3987548072
 21
6.2258033235
  0
LWPOLYLINE
  5
5CC
100
AcDbEntity
  8
0
100
AcDbPolyline
 62
7
  6
CONTINUOUS
 90
4
 70
0
 10
17.323619503
 20
6.1537319683
 10
17.4005835123
 20
6.1902009526
 10
17.4687849429
 20
6.2347294457
 10
17.5032762913
 20
6.2654919856
  0
LWPOLYLINE
  5
5CD
100
AcDbEntity
  8
0
100
AcDbPolyline
 62
7
  6
CONTINUOUS
 90
4
 70
0
 10
17.323619503
 20
6.1484425869
 10
17.4005835123
 20
6.1849115712
 10
17.4687849429
 20
6.2294400643
 10
17.5175604599
 20
6.2729425324
  0
LWPOLYLINE
  5
5CE
100
AcDbEntity
  8
0
100
AcDbPolyline
 62
7
  6
CONTINUOUS
 90
5
 70
0
 10
17.323619503
 20
6.1119736938
 10
17.4005835123
 20
6.1484426781
 10
17.4687849429
 20
6.1929711712
 10
17.5265523002
 20
6.2444933852
 10
17.5722091861
 20
6.3014470192
  0
LWPOLYLINE
  5
5CF
100
AcDbEntity
  8
0
100
AcDbPolyline
 62
7
  6
CONTINUOUS
 90
6
 70
0
 10
17.323619503
 20
6.1066843124
 10
17.4005835123
 20
6.1431532967
 10
17.4687849429
 20
6.1876817898
 10
17.5265523002
 20
6.2392040038
 10
17.5724698098
 20
6.296482747
 10
17.576247545
 20
6.3035534059
  0
LWPOLYLINE
  5
5D0
100
AcDbEntity
  8
AXIS
100
AcDbPolyline
 62
7
  6
CONTINUOUS
 90
5
 70
0
 10
17.4960183241
 20
6.2617062682
 10
17.3774101012
 20
6.2179243384
 10
17.2520802488
 20
6.187942302
 10
17.1224138151
 20
6.1720827707
 10
16.9913911094
 20
6.1705641213
  0
LWPOLYLINE
  5
5D1
100
AcDbEntity
  8
AXIS
100
AcDbPolyline
 62
7
  6
CONTINUOUS
 90
4
 70
0
 10
17.5107341521
 20
6.4209977443
 10
17.4195890134
 20
6.3907233518
 10
17.3245800442
 20
6.3671245196
 10
17.2266821651
 20
6.3504434036
  0
LWPOLYLINE
  5
5D2
100
AcDbEntity
  8
0
100
AcDbPolyline
 62
7
  6
CONTINUOUS
 90
4
 70
0
 10
18.0001221246
 20
11.1628717244
 10
18.0021417853
 20
11.1610324755
 10
18.0031968958
 20
11.1593778751
 10
18.0033833471
 20
11.1584100106
  0
LWPOLYLINE
  5
5D3
100
AcDbEntity
  8
AXIS
100
AcDbPolyline
 62
7
  6
CONTINUOUS
 90
27
 70
0
 10
17.6888742736
 20
12.173456352
 10
17.7247692802
 20
12.1258498983
 10
17.7536688938
 20
12.0759198839
 10
17.7752765652
 20
12.0241786581
 10
17.7893705706
 20
11.971157156
 10
17.7958062862
 20
11.9173994499
 10
17.7945176731
 20
11.8634571667
 10
17.7855179541
 20
11.8098838272
 10
17.7688994784
 20
11.7572291663
 10
17.7448327743
 20
11.7060334921
 10
17.7135647985
 20
11.6568221416
 10
17.6754164029
 20
11.6101000897
 10
17.6307790415
 20
11.5663467679
 10
17.5801107542
 20
11.5260111446
 10
17.5239314662
 20
11.4895071177
 10
17.4628176529
 20
11.4572092681
 10
17.3973964248
 20
11.4294490153
 10
17.3283390921
 20
11.4065112172
 10
17.2563542767
 20
11.3886312465
 10
17.18218064
 20
11.375992576
 10
17.1065793041
 20
11.3687248955
 10
17.0303260408
 20
11.3669027813
 10
16.9542033119
 20
11.3705449307
 10
16.8789922396
 20
11.3796139703
 10
16.8054645913
 20
11.3940168396
 10
16.7343748601
 20
11.4136057455
 10
16.6664525228
 20
11.4381796794
  0
LWPOLYLINE
  5
5D4
100
AcDbEntity
  8
0
100
AcDbPolyline
 62
7
  6
CONTINUOUS
 90
7
 70
0
 10
17.4005835123
 20
5.9343619243
 10
17.4687849429
 20
5.9788904174
 10
17.5265523002
 20
6.0304126314
 10
17.5724698098
 20
6.0876913746
 10
17.6054121159
 20
6.1493483732
 10
17.6245718617
 20
6.2138980504
 10
17.6296611842
 20
6.2692949393
  0
LWPOLYLINE
  5
5D5
100
AcDbEntity
  8
0
100
AcDbPolyline
 62
7
  6
CONTINUOUS
 90
6
 70
0
 10
17.323619503
 20
6.0702154193
 10
17.4005835123
 20
6.1066844036
 10
17.4687849429
 20
6.1512128968
 10
17.5265523002
 20
6.2027351107
 10
17.5724698098
 20
6.2600138539
 10
17.6032601108
 20
6.3176430175
  0
LINE
  5
5D6
100
AcDbEntity
  8
0
100
AcDbLine
 62
7
  6
CONTINUOUS
 10
17.323619503
 20
6.0649260379
 11
17.4005835123
 21
6.1013950222
  0
LINE
  5
5D7
100
AcDbEntity
  8
0
100
AcDbLine
 62
7
  6
CONTINUOUS
 10
17.2397791651
 20
6.1261907567
 11
17.323619503
 21
6.1537319683
  0
LINE
  5
5D8
100
AcDbEntity
  8
0
100
AcDbLine
 62
7
  6
CONTINUOUS
 10
17.2397791651
 20
6.0844324823
 11
17.323619503
 21
6.1119736938
  0
LINE
  5
5D9
100
AcDbEntity
  8
0
100
AcDbLine
 62
7
  6
CONTINUOUS
 10
17.2397791651
 20
6.0791431008
 11
17.323619503
 21
6.1066843124
  0
LWPOLYLINE
  5
5DA
100
AcDbEntity
  8
AXIS
100
AcDbPolyline
 62
7
  6
CONTINUOUS
 90
6
 70
0
 10
17.4196414992
 20
12.3606440154
 10
17.4836994674
 20
12.3313372153
 10
17.5432357451
 20
12.2975982764
 10
17.5976394095
 20
12.2597734059
 10
17.6463522054
 20
12.2182507382
 10
17.6888742736
 20
12.173456352
  0
LWPOLYLINE
  5
5DB
100
AcDbEntity
  8
0
100
AcDbPolyline
 62
7
  6
CONTINUOUS
 90
17
 70
0
 10
17.50073824
 20
12.4599668328
 10
17.3886781121
 20
12.4987715834
 10
17.2700200959
 20
12.5264717581
 10
17.1471391141
 20
12.5424864459
 10
17.0223202707
 20
12.5465190436
 10
16.8978859367
 20
12.538494513
 10
16.7761565992
 20
12.5185622946
 10
16.6594001059
 20
12.4870937753
 10
16.5497919003
 20
12.4446752884
 10
16.4493742508
 20
12.3920971923
 10
16.3600181947
 20
12.3303391501
 10
16.2833886588
 20
12.2605518703
 10
16.2209134305
 20
12.184035652
 10
16.1737565893
 20
12.1022161954
 10
16.142796776
 20
12.0166179878
 10
16.1286108514
 20
11.9288359389
 10
16.1314631342
 20
11.8405056516
  0
LWPOLYLINE
  5
5DC
100
AcDbEntity
  8
AXIS
100
AcDbPolyline
 62
7
  6
CONTINUOUS
 90
16
 70
0
 10
17.4196414992
 20
12.3606440154
 10
17.3517191619
 20
12.3852179494
 10
17.2806294307
 20
12.4048068553
 10
17.2071017824
 20
12.4192097246
 10
17.13189071
 20
12.4282787642
 10
17.0557679812
 20
12.4319209136
 10
16.9795147179
 20
12.4300987994
 10
16.903913382
 20
12.4228311189
 10
16.8297397453
 20
12.4101924484
 10
16.7577549299
 20
12.3923124777
 10
16.6886975972
 20
12.3693746795
 10
16.6232763691
 20
12.3416144268
 10
16.5621625558
 20
12.3093165772
 10
16.5059832677
 20
12.2728125503
 10
16.4553149805
 20
12.232476927
 10
16.4106776191
 20
12.1887236052
  0
LWPOLYLINE
  5
5DD
100
AcDbEntity
  8
0
100
AcDbPolyline
 62
7
  6
CONTINUOUS
 90
7
 70
0
 10
17.5267790993
 20
12.4750356638
 10
17.6333625843
 20
12.4246549715
 10
17.7300823073
 20
12.3646510298
 10
17.8153025296
 20
12.2959976884
 10
17.8874762472
 20
12.2199586436
 10
17.9453656015
 20
12.1380071031
 10
17.9881359046
 20
12.0517161391
  0
CIRCLE
  5
5DE
100
AcDbEntity
  8
0
100
AcDbCircle
 62
7
  6
CONTINUOUS
 10
15.2229827477
 20
1.1139932523
 40
0.252091
  0
CIRCLE
  5
5DF
100
AcDbEntity
  8
0
100
AcDbCircle
 62
7
  6
CONTINUOUS
 10
15.2229827477
 20
1.1139932523
 40
0.182698
  0
CIRCLE
  5
5E0
100
AcDbEntity
  8
0
100
AcDbCircle
 62
7
  6
CONTINUOUS
 10
14.8013422688
 20
1.8652439144
 40
0.0638444824
  0
ARC
  5
5E1
100
AcDbEntity
  8
AXIS
100
AcDbCircle
 62
7
  6
CONTINUOUS
 10
7.6303340503
 20
7.038931777
 40
7.874015748
100
AcDbArc
 50
84.5109797622
 51
95.4890202378
  0
ARC
  5
5E2
100
AcDbEntity
  8
0
100
AcDbCircle
 62
7
  6
CONTINUOUS
 10
7.6303340503
 20
20.0756604959
 40
6.1909448819
100
AcDbArc
 50
261.8001925299
 51
266.6276357776
  0
ARC
  5
5E3
100
AcDbEntity
  8
0
100
AcDbCircle
 62
7
  6
CONTINUOUS
 10
7.6303340503
 20
20.0756604959
 40
6.1909448819
100
AcDbArc
 50
273.3723642224
 51
278.1998074701
  0
ARC
  5
5E4
100
AcDbEntity
  8
AXIS
100
AcDbCircle
 62
7
  6
CONTINUOUS
 10
8.3862395622
 20
7.7130942539
 40
0.1299212598
100
AcDbArc
 50
270.0
 51
360.0
  0
ARC
  5
5E5
100
AcDbEntity
  8
AXIS
100
AcDbCircle
 62
7
  6
CONTINUOUS
 10
6.8744285385
 20
7.7130942539
 40
0.1299212598
100
AcDbArc
 50
180.0
 51
270.0
  0
ARC
  5
5E6
100
AcDbEntity
  8
0
100
AcDbCircle
 62
7
  6
CONTINUOUS
 10
6.7641923181
 20
13.2717667071
 40
0.1181102362
100
AcDbArc
 50
115.0
 51
180.0
  0
ARC
  5
5E7
100
AcDbEntity
  8
0
100
AcDbCircle
 62
7
  6
CONTINUOUS
 10
8.4964757826
 20
13.2717667071
 40
0.1181102362
100
AcDbArc
 50
0.0
 51
65.0
  0
ARC
  5
5E8
100
AcDbEntity
  8
0
100
AcDbCircle
 62
7
  6
CONTINUOUS
 10
6.7641923181
 20
14.0649101989
 40
0.1181102362
100
AcDbArc
 50
180.0
 51
261.8001925299
  0
ARC
  5
5E9
100
AcDbEntity
  8
0
100
AcDbCircle
 62
7
  6
CONTINUOUS
 10
8.4964757826
 20
14.0649101989
 40
0.1181102362
100
AcDbArc
 50
278.1998074701
 51
360.0
  0
ARC
  5
5EA
100
AcDbEntity
  8
0
100
AcDbCircle
 62
7
  6
CONTINUOUS
 10
6.7149515924
 20
14.8079439605
 40
0.0688976378
100
AcDbArc
 50
90.0
 51
178.3627549222
  0
ARC
  5
5EB
100
AcDbEntity
  8
0
100
AcDbCircle
 62
7
  6
CONTINUOUS
 10
8.5457165083
 20
14.8079439605
 40
0.0688976378
100
AcDbArc
 50
1.6372450778
 51
90.0
  0
ARC
  5
5EC
100
AcDbEntity
  8
0
100
AcDbCircle
 62
7
  6
CONTINUOUS
 10
8.203168696
 20
7.551676931
 40
0.031496063
100
AcDbArc
 50
90.0
 51
180.0
  0
ARC
  5
5ED
100
AcDbEntity
  8
0
100
AcDbCircle
 62
7
  6
CONTINUOUS
 10
7.0574994047
 20
7.551676931
 40
0.031496063
100
AcDbArc
 50
0.0
 51
90.0
  0
ARC
  5
5EE
100
AcDbEntity
  8
0
100
AcDbCircle
 62
7
  6
CONTINUOUS
 10
7.1204915307
 20
6.8666375609
 40
0.031496063
100
AcDbArc
 50
180.0
 51
270.0
  0
ARC
  5
5EF
100
AcDbEntity
  8
0
100
AcDbCircle
 62
7
  6
CONTINUOUS
 10
8.14017657
 20
6.8666375609
 40
0.031496063
100
AcDbArc
 50
270.0
 51
360.0
  0
ARC
  5
5F0
100
AcDbEntity
  8
0
100
AcDbCircle
 62
7
  6
CONTINUOUS
 10
8.5358458614
 20
7.9867163011
 40
0.0196850394
100
AcDbArc
 50
90.0
 51
180.0
  0
ARC
  5
5F1
100
AcDbEntity
  8
0
100
AcDbCircle
 62
7
  6
CONTINUOUS
 10
6.7248222393
 20
7.9867163011
 40
0.0196850394
100
AcDbArc
 50
0.0
 51
90.0
  0
ARC
  5
5F2
100
AcDbEntity
  8
0
100
AcDbCircle
 62
7
  6
CONTINUOUS
 10
7.2858458614
 20
2.8738307606
 40
0.2283464567
100
AcDbArc
 50
180.0
 51
193.5362027374
  0
ARC
  5
5F3
100
AcDbEntity
  8
0
100
AcDbCircle
 62
7
  6
CONTINUOUS
 10
7.2858458614
 20
2.8738307606
 40
0.1968503937
100
AcDbArc
 50
180.0
 51
193.5362027374
  0
ARC
  5
5F4
100
AcDbEntity
  8
0
100
AcDbCircle
 62
7
  6
CONTINUOUS
 10
7.2858458614
 20
2.8738307606
 40
0.1653543307
100
AcDbArc
 50
180.0
 51
193.5362027374
  0
ARC
  5
5F5
100
AcDbEntity
  8
0
100
AcDbCircle
 62
7
  6
CONTINUOUS
 10
7.2858458614
 20
3.0396998506
 40
0.2283464567
100
AcDbArc
 50
166.4637972626
 51
180.0
  0
ARC
  5
5F6
100
AcDbEntity
  8
0
100
AcDbCircle
 62
7
  6
CONTINUOUS
 10
7.2858458614
 20
3.0396998506
 40
0.1968503937
100
AcDbArc
 50
166.4637972626
 51
180.0
  0
ARC
  5
5F7
100
AcDbEntity
  8
0
100
AcDbCircle
 62
7
  6
CONTINUOUS
 10
7.2858458614
 20
3.0396998506
 40
0.1653543307
100
AcDbArc
 50
166.4637972626
 51
180.0
  0
ARC
  5
5F8
100
AcDbEntity
  8
0
100
AcDbCircle
 62
7
  6
CONTINUOUS
 10
7.9748222393
 20
2.8738307606
 40
0.2283464567
100
AcDbArc
 50
346.4637972626
 51
360.0
  0
ARC
  5
5F9
100
AcDbEntity
  8
0
100
AcDbCircle
 62
7
  6
CONTINUOUS
 10
7.9748222393
 20
2.8738307606
 40
0.1968503937
100
AcDbArc
 50
346.4637972626
 51
360.0
  0
ARC
  5
5FA
100
AcDbEntity
  8
0
100
AcDbCircle
 62
7
  6
CONTINUOUS
 10
7.9748222393
 20
2.8738307606
 40
0.1653543307
100
AcDbArc
 50
346.4637972626
 51
360.0
  0
CIRCLE
  5
5FB
100
AcDbEntity
  8
AXIS
100
AcDbCircle
 62
7
  6
CONTINUOUS
 10
7.6303340503
 20
2.9567653056
 40
0.9940944882
  0
ARC
  5
5FC
100
AcDbEntity
  8
SCHEME_DIMS
100
AcDbCircle
 62
7
  6
CONTINUOUS
 10
7.6303340503
 20
2.9567653056
 40
0.9940944882
100
AcDbArc
 50
180.0
 51
229.7986158755
  0
CIRCLE
  5
5FD
100
AcDbEntity
  8
QUILTS
100
AcDbCircle
 62
7
  6
CONTINUOUS
 10
7.6303340503
 20
2.9567653056
 40
0.9901574803
  0
CIRCLE
  5
5FE
100
AcDbEntity
  8
0
100
AcDbCircle
 62
7
  6
CONTINUOUS
 10
7.6303340503
 20
2.9567653056
 40
0.905511811
  0
ARC
  5
5FF
100
AcDbEntity
  8
0
100
AcDbCircle
 62
7
  6
CONTINUOUS
 10
7.6303340503
 20
2.9567653056
 40
0.8858267717
100
AcDbArc
 50
7.3796037165
 51
7.9723559115
  0
ARC
  5
600
100
AcDbEntity
  8
0
100
AcDbCircle
 62
7
  6
CONTINUOUS
 10
7.6303340503
 20
2.9567653056
 40
0.8858267717
100
AcDbArc
 50
8.3166779055
 51
8.3758681663
  0
ARC
  5
601
100
AcDbEntity
  8
0
100
AcDbCircle
 62
7
  6
CONTINUOUS
 10
7.6303340503
 20
2.9567653056
 40
0.8858267717
100
AcDbArc
 50
81.8174718017
 51
82.9584284876
  0
ARC
  5
602
100
AcDbEntity
  8
0
100
AcDbCircle
 62
7
  6
CONTINUOUS
 10
7.6303340503
 20
2.9567653056
 40
0.8858267717
100
AcDbArc
 50
89.3883488544
 51
97.0415689605
  0
ARC
  5
603
100
AcDbEntity
  8
0
100
AcDbCircle
 62
7
  6
CONTINUOUS
 10
7.6303340503
 20
2.9567653056
 40
0.8858267717
100
AcDbArc
 50
98.5346921484
 51
187.9723559115
  0
ARC
  5
604
100
AcDbEntity
  8
0
100
AcDbCircle
 62
7
  6
CONTINUOUS
 10
7.6303340503
 20
2.9567653056
 40
0.8858267717
100
AcDbArc
 50
188.3166779055
 51
189.1836132263
  0
ARC
  5
605
100
AcDbEntity
  8
0
100
AcDbCircle
 62
7
  6
CONTINUOUS
 10
7.6303340503
 20
2.9567653056
 40
0.8858267717
100
AcDbArc
 50
204.4894799812
 51
205.4799087494
  0
ARC
  5
606
100
AcDbEntity
  8
0
100
AcDbCircle
 62
7
  6
CONTINUOUS
 10
7.6303340503
 20
2.9567653056
 40
0.8858267717
100
AcDbArc
 50
226.9640422576
 51
270.950661591
  0
ARC
  5
607
100
AcDbEntity
  8
0
100
AcDbCircle
 62
7
  6
CONTINUOUS
 10
7.6303340503
 20
2.9567653056
 40
0.8858267717
100
AcDbArc
 50
271.1096734071
 51
277.5276515917
  0
ARC
  5
608
100
AcDbEntity
  8
0
100
AcDbCircle
 62
7
  6
CONTINUOUS
 10
7.6303340503
 20
2.9567653056
 40
0.8858267717
100
AcDbArc
 50
278.3995751699
 51
278.5346921484
  0
ARC
  5
609
100
AcDbEntity
  8
0
100
AcDbCircle
 62
7
  6
CONTINUOUS
 10
7.6303340503
 20
2.9567653056
 40
0.8858267717
100
AcDbArc
 50
351.6241302616
 51
351.8174711863
  0
CIRCLE
  5
60A
100
AcDbEntity
  8
AXIS
100
AcDbCircle
 62
7
  6
CONTINUOUS
 10
7.6303340503
 20
2.9567653056
 40
0.8858267717
  0
CIRCLE
  5
60B
100
AcDbEntity
  8
AXIS
100
AcDbCircle
 62
7
  6
CONTINUOUS
 10
7.6303340503
 20
2.9567653056
 40
0.7559055118
  0
ARC
  5
60C
100
AcDbEntity
  8
0
100
AcDbCircle
 62
7
  6
CONTINUOUS
 10
7.6303340503
 20
2.9567653056
 40
0.5826771654
100
AcDbArc
 50
193.5362027374
 51
201.5387017515
  0
ARC
  5
60D
100
AcDbEntity
  8
0
100
AcDbCircle
 62
7
  6
CONTINUOUS
 10
7.6303340503
 20
2.9567653056
 40
0.5826771654
100
AcDbArc
 50
338.4613013445
 51
346.4637972626
  0
ARC
  5
60E
100
AcDbEntity
  8
0
100
AcDbCircle
 62
7
  6
CONTINUOUS
 10
7.6303340503
 20
2.9567653056
 40
0.5826771654
100
AcDbArc
 50
13.5362027374
 51
21.5387017515
  0
ARC
  5
60F
100
AcDbEntity
  8
0
100
AcDbCircle
 62
7
  6
CONTINUOUS
 10
7.6303340503
 20
2.9567653056
 40
0.5826771654
100
AcDbArc
 50
158.4613013445
 51
166.4637972626
  0
ARC
  5
610
100
AcDbEntity
  8
0
100
AcDbCircle
 62
7
  6
CONTINUOUS
 10
7.6303340503
 20
2.9567653056
 40
0.5511811024
100
AcDbArc
 50
193.5362027374
 51
346.4637972626
  0
ARC
  5
611
100
AcDbEntity
  8
0
100
AcDbCircle
 62
7
  6
CONTINUOUS
 10
7.6303340503
 20
2.9567653056
 40
0.5511811024
100
AcDbArc
 50
13.5362027374
 51
166.4637972626
  0
ARC
  5
612
100
AcDbEntity
  8
0
100
AcDbCircle
 62
7
  6
CONTINUOUS
 10
7.6303340503
 20
2.9567653056
 40
0.5196850394
100
AcDbArc
 50
193.5362027374
 51
346.4637972626
  0
ARC
  5
613
100
AcDbEntity
  8
0
100
AcDbCircle
 62
7
  6
CONTINUOUS
 10
7.6303340503
 20
2.9567653056
 40
0.5196850394
100
AcDbArc
 50
13.5362027374
 51
166.4637972626
  0
CIRCLE
  5
614
100
AcDbEntity
  8
0
100
AcDbCircle
 62
7
  6
CONTINUOUS
 10
7.6303340503
 20
2.9567653056
 40
0.4682862539
  0
CIRCLE
  5
615
100
AcDbEntity
  8
0
100
AcDbCircle
 62
7
  6
CONTINUOUS
 10
7.6303340503
 20
2.9567653056
 40
0.4460151742
  0
CIRCLE
  5
616
100
AcDbEntity
  8
0
100
AcDbCircle
 62
7
  6
CONTINUOUS
 10
7.6303340503
 20
2.9567653056
 40
0.3765
  0
ARC
  5
617
100
AcDbEntity
  8
0
100
AcDbCircle
 62
7
  6
CONTINUOUS
 10
7.6303340503
 20
2.9567653056
 40
0.3568149606
100
AcDbArc
 50
51.3357489792
 51
354.046306505
  0
CIRCLE
  5
618
100
AcDbEntity
  8
0
100
AcDbCircle
 62
7
  6
CONTINUOUS
 10
7.6303340503
 20
2.9567653056
 40
0.3051181102
  0
CIRCLE
  5
619
100
AcDbEntity
  8
0
100
AcDbCircle
 62
7
  6
CONTINUOUS
 10
7.6303340503
 20
2.9567653056
 40
0.29
  0
CIRCLE
  5
61A
100
AcDbEntity
  8
0
100
AcDbCircle
 62
7
  6
CONTINUOUS
 10
7.6303340503
 20
2.9567653056
 40
0.2611324865
  0
CIRCLE
  5
61B
100
AcDbEntity
  8
0
100
AcDbCircle
 62
7
  6
CONTINUOUS
 10
7.6303340503
 20
2.9567653056
 40
0.17
  0
CIRCLE
  5
61C
100
AcDbEntity
  8
0
100
AcDbCircle
 62
7
  6
CONTINUOUS
 10
7.6303340503
 20
2.9567653056
 40
0.11
  0
CIRCLE
  5
61D
100
AcDbEntity
  8
02___PRT_ALL_AXES
100
AcDbCircle
 62
7
  6
CONTINUOUS
 10
7.6303340503
 20
2.9567653056
 40
0.1075
  0
ARC
  5
61E
100
AcDbEntity
  8
0
100
AcDbCircle
 62
7
  6
CONTINUOUS
 10
7.9748222393
 20
3.0396998506
 40
0.2283464567
100
AcDbArc
 50
0.0
 51
13.5362027374
  0
ARC
  5
61F
100
AcDbEntity
  8
0
100
AcDbCircle
 62
7
  6
CONTINUOUS
 10
7.9748222393
 20
3.0396998506
 40
0.1968503937
100
AcDbArc
 50
0.0
 51
13.5362027374
  0
ARC
  5
620
100
AcDbEntity
  8
0
100
AcDbCircle
 62
7
  6
CONTINUOUS
 10
7.9748222393
 20
3.0396998506
 40
0.1653543307
100
AcDbArc
 50
0.0
 51
13.5362027374
  0
ENDSEC
  0
SECTION
  2
OBJECTS
  0
DICTIONARY
  5
C
100
AcDbDictionary
280
0
281
1
  3
ACAD_GROUP
350
D
  3
ACAD_MLINESTYLE
350
17
  3
ACAD_LAYOUT
350
1A
  3
ACAD_PLOTSETTINGS
350
19
  3
ACAD_PLOTSTYLENAME
350
E
  3
ACAD_TABLESTYLE
350
       621
  0
DICTIONARY
  5
D
102
{ACAD_REACTORS
330
C
102
}
100
AcDbDictionary
280
0
281
1
  0
ACDBDICTIONARYWDFLT
  5
E
102
{ACAD_REACTORS
330
C
102
}
100
AcDbDictionary
281
1
  3
Normal
350
F
100
AcDbDictionaryWithDefault
340
F
  0
DICTIONARY
  5
17
102
{ACAD_REACTORS
330
C
102
}
100
AcDbDictionary
280
0
281
1
  3
Standard
350
18
  0
DICTIONARY
  5
621
330
C
100
AcDbDictionary
281
1
  3
Standard
350
       624
  3
Standard1
350
       625
  0
DICTIONARY
  5
19
102
{ACAD_REACTORS
330
C
102
}
100
AcDbDictionary
281
1
  0
DICTIONARY
  5
1A
102
{ACAD_REACTORS
330
C
102
}
100
AcDbDictionary
281
1
  3
Model
350
622
  3
Layout1
350
623
  0
ACDBPLACEHOLDER
  5
F
102
{ACAD_REACTORS
330
E
102
}
  0
MLINESTYLE
  5
18
102
{ACAD_REACTORS
330
17
102
}
100
AcDbMlineStyle
  2
STANDARD
 70
0
  3

 62
256
 51
90.0
 52
90.0
 71
2
 49
0.5
 62
256
  6
BYLAYER
 49
-0.5
 62
256
  6
BYLAYER
  0
LAYOUT
  5
622
102
{ACAD_REACTORS
330
1A
102
}
100
AcDbPlotSettings
  1

  2
none_device
  4
ANSI_C_(22.00_x_17.00_Inches)
  6

 40
0.0
 41
0.0
 42
0.0
 43
0.0
 44
558.8
 45
431.8
 46
0.0
 47
0.0
 48
0.0
 49
0.0
140
0.0
141
0.0
142
1.0
143
1.0
 70
1024
 72
0
 73
0
 74
0
  7

 75
0
147
1.0
148
0.0
149
0.0
100
AcDbLayout
  1
Model
 70
0
 71
0
 10
0.0
 20
0.0
 11
22.0
 21
17.0
 12
0.0
 22
0.0
 32
0.0
 14
0.0
 24
0.0
 34
0.0
 15
0.0
 25
0.0
 35
0.0
146
0.0
 13
0.0
 23
0.0
 33
0.0
 16
1.0
 26
0.0
 36
0.0
 17
0.0
 27
1.0
 37
0.0
 76
0
330
215
345
0
346
0
  0
LAYOUT
  5
623
102
{ACAD_REACTORS
330
1A
102
}
100
AcDbPlotSettings
  1

  2
none_device
  4
ANSI_C_(22.00_x_17.00_Inches)
  6

 40
0.0
 41
0.0
 42
0.0
 43
0.0
 44
558.8
 45
431.8
 46
0.0
 47
0.0
 48
0.0
 49
0.0
140
0.0
141
0.0
142
1.0
143
1.0
 70
0
 72
0
 73
0
 74
0
  7

 75
0
147
1.0
148
0.0
149
0.0
100
AcDbLayout
  1
Layout1
 70
0
 71
1
 10
0.0
 20
0.0
 11
22.0
 21
17.0
 12
0.0
 22
0.0
 32
0.0
 14
0.0
 24
0.0
 34
0.0
 15
0.0
 25
0.0
 35
0.0
146
0.0
 13
0.0
 23
0.0
 33
0.0
 16
1.0
 26
0.0
 36
0.0
 17
0.0
 27
1.0
 37
0.0
 76
0
330
216
345
0
346
0
  0
TABLESTYLE
  5
624
102
{ACAD_REACTORS
330
621
102
}
330
621
100
AcDbTableStyle
  3
Standard
 70
0
 71
0
 40
0.06
 41
0.06
280
1
281
1
  7
Standard
140
0.18
170
1
 62
0
 63
7
283
0
  7
Standard
140
0.18
170
1
 62
0
 63
7
283
0
  7
Standard
140
0.18
170
1
 62
0
 63
7
283
0
  0
TABLESTYLE
  5
625
102
{ACAD_REACTORS
330
621
330
288
102
}
330
621
100
AcDbTableStyle
  3
Standard1
 70
1
 71
0
 40
0.06
 41
0.06
280
1
281
1
  7
Standard
140
0.18
170
1
 62
0
 63
7
283
0
  7
Standard
140
0.18
170
1
 62
0
 63
7
283
0
  7
Standard
140
0.18
170
1
 62
0
 63
7
283
0
  0
ENDSEC
  0
EOF
