999
DXF file: 212916_1.dxf
999
Pro/ENGINEER 2018300 by Parametric Technology Corporation
  0
SECTION
  2
HEADER
  9
$ACADVER
  1
AC1027
  9
$DWGCODEPAGE
  3
ANSI_1252
  9
$EXTMAX
 10
22.0
 20
17.0
 30
0.0
  9
$EXTMIN
 10
0.0
 20
0.0
 30
0.0
  9
$LIMMIN
 10
0.0
 20
0.0
  9
$LIMMAX
 10
22.0
 20
17.0
  9
$VIEWCTR
 10
11.0
 20
8.5
  9
$VIEWSIZE
 40
17.0
  9
$CLAYER
  8
0
  9
$LTSCALE
 40
1.21
  9
$CELTYPE
  6
BYLAYER
  9
$DIMSCALE
 40
1.0
  9
$DIMASZ
 40
0.1875
  9
$DIMEXO
 40
0.0625
  9
$DIMDLI
 40
0.836
  9
$DIMEXE
 40
0.125
  9
$DIMCEN
 40
0.198
  9
$DIMLFAC
 40
1.0
  9
$DIMBLK
  1
_FILLED
  9
$DIMALT
 70
1
  9
$DIMALTD
 70
2
  9
$DIMALTTD
 70
2
  9
$DIMALTF
 40
25.4
  9
$DIMTXT
 40
0.1
  9
$DIMTOL
 70
1
  9
$DIMLIM
 70
0
  9
$DIMTFAC
 40
1.0
  9
$DIMTP
 40
0.005
  9
$DIMTM
 40
0.005
  9
$DIMGAP
 40
0.09
  9
$DIMDSEP
 70
46
  9
$AUNITS
 70
0
  9
$PDMODE
 70
3
  9
$PDSIZE
 40
0.3125
  9
$HANDSEED
  5
6AD
  9
$TILEMODE
 70
1
  9
$MEASUREMENT
 70
0
  9
$INSUNITS
 70
1
  0
ENDSEC
  0
SECTION
  2
CLASSES
  0
CLASS
  1
ACDBDICTIONARYWDFLT
  2
AcDbDictionaryWithDefault
  3
AutoCAD 2000
 90
0
 91
1
280
0
281
0
  0
CLASS
  1
ACDBPLACEHOLDER
  2
AcDbPlaceHolder
  3
AutoCAD 2000
 90
0
 91
1
280
0
281
0
  0
CLASS
  1
LAYOUT
  2
AcDbLayout
  3
AutoCAD 2000
 90
0
 91
0
280
0
281
0
  0
CLASS
  1
TABLESTYLE
  2
AcDbTableStyle
  3
ObjectDBX Classes
 90
2047
 91
1
280
0
281
0
  0
CLASS
  1
ACAD_TABLE
  2
AcDbTable
  3
ObjectDBX Classes
 90
1025
 91
1
280
0
281
1
  0
ENDSEC
  0
SECTION
  2
TABLES
  0
TABLE
  2
VPORT
  5
8
100
AcDbSymbolTable
 70
2
  0
VPORT
  5
1F4
100
AcDbSymbolTableRecord
100
AcDbViewportTableRecord
  2
*ACTIVE
 70
0
 10
0.0
 20
0.0
 11
1.0
 21
1.0
 12
11.0
 22
8.5
 13
0.0
 23
0.0
 14
1.0
 24
1.0
 15
0.0
 25
0.0
 16
0.0
 26
0.0
 36
1.0
 17
0.0
 27
0.0
 37
0.0
 40
17.0
 41
1.2941176471
 42
50.0
 43
0.0
 44
0.0
 50
0.0
 51
0.0
 71
0
 72
100
 73
1
 74
1
 75
0
 76
0
 77
0
 78
0
  0
ENDTAB
  0
TABLE
  2
LTYPE
  5
5
100
AcDbSymbolTable
 70
6
  0
LTYPE
  5
14
100
AcDbSymbolTableRecord
100
AcDbLinetypeTableRecord
  2
BYBLOCK
 70
0
  3

 72
65
 73
0
 40
0.0
  0
LTYPE
  5
15
100
AcDbSymbolTableRecord
100
AcDbLinetypeTableRecord
  2
BYLAYER
 70
0
  3

 72
65
 73
0
 40
0.0
  0
LTYPE
  5
16
100
AcDbSymbolTableRecord
100
AcDbLinetypeTableRecord
  2
CONTINUOUS
 70
64
  3
Solid line
 72
65
 73
0
 40
0.0
  0
LTYPE
  5
1F5
100
AcDbSymbolTableRecord
100
AcDbLinetypeTableRecord
  2
CENTER
 70
64
  3
____ _ ____ _ ____ _ ____ _ ____ _ ____ _ ____
 72
65
 73
4
 40
0.6
 49
0.375
 74
0
 49
-0.075
 74
0
 49
0.075
 74
0
 49
-0.075
 74
0
  0
LTYPE
  5
1F6
100
AcDbSymbolTableRecord
100
AcDbLinetypeTableRecord
  2
HIDDEN
 70
64
  3
- - - - - - - - - - - - - - - - - - - -
 72
65
 73
2
 40
0.2
 49
0.1
 74
0
 49
-0.1
 74
0
  0
LTYPE
  5
1F7
100
AcDbSymbolTableRecord
100
AcDbLinetypeTableRecord
  2
PHANTOM
 70
64
  3
_____ _ _ _____ _ _ _____ _ _ _____
 72
65
 73
6
 40
0.8
 49
0.45
 74
0
 49
-0.05
 74
0
 49
0.1
 74
0
 49
-0.05
 74
0
 49
0.1
 74
0
 49
-0.05
 74
0
  0
LTYPE
  5
1F8
100
AcDbSymbolTableRecord
100
AcDbLinetypeTableRecord
  2
DOT
 70
64
  3
. . . . . . . . . . . . . . . . . . . .
 72
65
 73
2
 40
0.2
 49
0.1
 74
0
 49
-0.1
 74
0
  0
LTYPE
  5
1F9
100
AcDbSymbolTableRecord
100
AcDbLinetypeTableRecord
  2
DASHED
 70
64
  3
- - - - - - - - - - - - - - - - - - - -
 72
65
 73
2
 40
0.2
 49
0.1
 74
0
 49
-0.1
 74
0
  0
ENDTAB
  0
TABLE
  2
LAYER
  5
2
100
AcDbSymbolTable
 70
36
  0
LAYER
  5
10
100
AcDbSymbolTableRecord
100
AcDbLayerTableRecord
  2
0
 70
0
 62
7
  6
CONTINUOUS
370
-3
390
F
  0
LAYER
  5
1FA
100
AcDbSymbolTableRecord
100
AcDbLayerTableRecord
  2
DEFAULT_1
 70
0
 62
7
  6
CENTER
370
-3
390
F
  0
LAYER
  5
1FB
100
AcDbSymbolTableRecord
100
AcDbLayerTableRecord
  2
DEFAULT_2
 70
0
 62
7
  6
HIDDEN
370
-3
390
F
  0
LAYER
  5
1FC
100
AcDbSymbolTableRecord
100
AcDbLayerTableRecord
  2
DEFAULT_3
 70
0
 62
7
  6
PHANTOM
370
-3
390
F
  0
LAYER
  5
1FD
100
AcDbSymbolTableRecord
100
AcDbLayerTableRecord
  2
01___PRT_ALL_DTM_PLN
 70
0
 62
7
  6
CONTINUOUS
370
-3
390
F
  0
LAYER
  5
1FE
100
AcDbSymbolTableRecord
100
AcDbLayerTableRecord
  2
01___PRT_DEF_DTM_PLN
 70
0
 62
7
  6
CONTINUOUS
370
-3
390
F
  0
LAYER
  5
1FF
100
AcDbSymbolTableRecord
100
AcDbLayerTableRecord
  2
02___PRT_ALL_AXES
 70
0
 62
7
  6
CONTINUOUS
370
-3
390
F
  0
LAYER
  5
200
100
AcDbSymbolTableRecord
100
AcDbLayerTableRecord
  2
03___PRT_ALL_CURVES
 70
0
 62
7
  6
CONTINUOUS
370
-3
390
F
  0
LAYER
  5
201
100
AcDbSymbolTableRecord
100
AcDbLayerTableRecord
  2
04___PRT_ALL_DTM_PNT
 70
0
 62
7
  6
CONTINUOUS
370
-3
390
F
  0
LAYER
  5
202
100
AcDbSymbolTableRecord
100
AcDbLayerTableRecord
  2
05___PRT_ALL_DTM_CSYS
 70
0
 62
7
  6
CONTINUOUS
370
-3
390
F
  0
LAYER
  5
203
100
AcDbSymbolTableRecord
100
AcDbLayerTableRecord
  2
05___PRT_DEF_DTM_CSYS
 70
0
 62
7
  6
CONTINUOUS
370
-3
390
F
  0
LAYER
  5
204
100
AcDbSymbolTableRecord
100
AcDbLayerTableRecord
  2
06___PRT_ALL_SURFS
 70
0
 62
7
  6
CONTINUOUS
370
-3
390
F
  0
LAYER
  5
205
100
AcDbSymbolTableRecord
100
AcDbLayerTableRecord
  2
AXIS
 70
0
 62
7
  6
CONTINUOUS
370
-3
390
F
  0
LAYER
  5
206
100
AcDbSymbolTableRecord
100
AcDbLayerTableRecord
  2
AXIS_COSMETIC_THREADS
 70
0
 62
7
  6
CONTINUOUS
370
-3
390
F
  0
LAYER
  5
207
100
AcDbSymbolTableRecord
100
AcDbLayerTableRecord
  2
DATUM_CURVES
 70
0
 62
7
  6
CONTINUOUS
370
-3
390
F
  0
LAYER
  5
208
100
AcDbSymbolTableRecord
100
AcDbLayerTableRecord
  2
DATUM_PLANES
 70
0
 62
7
  6
CONTINUOUS
370
-3
390
F
  0
LAYER
  5
209
100
AcDbSymbolTableRecord
100
AcDbLayerTableRecord
  2
GEOMETRIC_TOLERANCES
 70
0
 62
7
  6
CONTINUOUS
370
-3
390
F
  0
LAYER
  5
20A
100
AcDbSymbolTableRecord
100
AcDbLayerTableRecord
  2
NOTES
 70
0
 62
7
  6
CONTINUOUS
370
-3
390
F
  0
LAYER
  5
20B
100
AcDbSymbolTableRecord
100
AcDbLayerTableRecord
  2
QUILTS
 70
0
 62
7
  6
CONTINUOUS
370
-3
390
F
  0
LAYER
  5
20C
100
AcDbSymbolTableRecord
100
AcDbLayerTableRecord
  2
SCHEME_DIMS
 70
0
 62
7
  6
CONTINUOUS
370
-3
390
F
  0
LAYER
  5
20D
100
AcDbSymbolTableRecord
100
AcDbLayerTableRecord
  2
SYMBOLS
 70
0
 62
7
  6
CONTINUOUS
370
-3
390
F
  0
ENDTAB
  0
TABLE
  2
STYLE
  5
3
100
AcDbSymbolTable
 70
1
  0
STYLE
  5
11
100
AcDbSymbolTableRecord
100
AcDbTextStyleTableRecord
  2
STANDARD
 70
0
 40
0.0
 41
1.0
 50
0.0
 71
0
 42
0.2
  3
txt
  4

  0
STYLE
  5
20E
100
AcDbSymbolTableRecord
100
AcDbTextStyleTableRecord
  2
TEXTSTYLE_1
 70
0
 40
0.0
 41
0.8
 50
0.0
 71
0
 42
0.2
  3
gdt
  4

  0
STYLE
  5
20F
100
AcDbSymbolTableRecord
100
AcDbTextStyleTableRecord
  2
TEXTSTYLE_2
 70
0
 40
0.0
 41
0.8
 50
0.0
 71
0
 42
0.2
  3
txt
  4

  0
STYLE
  5
210
100
AcDbSymbolTableRecord
100
AcDbTextStyleTableRecord
  2
TEXTSTYLE_3
 70
0
 40
0.0
 41
0.9
 50
0.0
 71
0
 42
0.2
  3
txt
  4

  0
STYLE
  5
211
100
AcDbSymbolTableRecord
100
AcDbTextStyleTableRecord
  2
TEXTSTYLE_4
 70
0
 40
0.0
 41
0.85
 50
0.0
 71
0
 42
0.2
  3
txt
  4

  0
STYLE
  5
212
100
AcDbSymbolTableRecord
100
AcDbTextStyleTableRecord
  2
TEXTSTYLE_5
 70
0
 40
0.0
 41
0.75
 50
0.0
 71
0
 42
0.2
  3
txt
  4

  0
STYLE
  5
213
100
AcDbSymbolTableRecord
100
AcDbTextStyleTableRecord
  2
TEXTSTYLE_6
 70
0
 40
0.0
 41
1.0
 50
0.0
 71
0
 42
0.2
  3
gdt
  4

  0
ENDTAB
  0
TABLE
  2
VIEW
  5
6
100
AcDbSymbolTable
 70
0
  0
ENDTAB
  0
TABLE
  2
UCS
  5
7
100
AcDbSymbolTable
 70
0
  0
ENDTAB
  0
TABLE
  2
APPID
  5
9
100
AcDbSymbolTable
 70
1
  0
APPID
  5
214
100
AcDbSymbolTableRecord
100
AcDbRegAppTableRecord
  2
ACAD
 70
0
  0
ENDTAB
  0
TABLE
  2
BLOCK_RECORD
  5
1
100
AcDbSymbolTable
 70
0
  0
BLOCK_RECORD
  5
215
100
AcDbSymbolTableRecord
100
AcDbBlockTableRecord
  2
*Model_Space
  0
BLOCK_RECORD
  5
216
100
AcDbSymbolTableRecord
100
AcDbBlockTableRecord
  2
*Paper_Space
  0
BLOCK_RECORD
  5
217
100
AcDbSymbolTableRecord
100
AcDbBlockTableRecord
  2
_FILLED
  0
BLOCK_RECORD
  5
218
100
AcDbSymbolTableRecord
100
AcDbBlockTableRecord
  2
*D0
  0
BLOCK_RECORD
  5
219
100
AcDbSymbolTableRecord
100
AcDbBlockTableRecord
  2
*D1
  0
BLOCK_RECORD
  5
21A
100
AcDbSymbolTableRecord
100
AcDbBlockTableRecord
  2
*D2
  0
BLOCK_RECORD
  5
21B
100
AcDbSymbolTableRecord
100
AcDbBlockTableRecord
  2
*D3
  0
BLOCK_RECORD
  5
21C
100
AcDbSymbolTableRecord
100
AcDbBlockTableRecord
  2
*D4
  0
BLOCK_RECORD
  5
21D
100
AcDbSymbolTableRecord
100
AcDbBlockTableRecord
  2
*T1
  0
ENDTAB
  0
TABLE
  2
DIMSTYLE
  5
A
100
AcDbSymbolTable
 70
1
100
AcDbDimStyleTable
 71
0
  0
DIMSTYLE
105
21E
100
AcDbSymbolTableRecord
100
AcDbDimStyleTableRecord
  2
STANDARD
 70
0
  3

  4

 40
1.0
 41
0.1875
 42
0.0625
 43
0.38
 44
0.125
 45
0.0
 46
0.0
 47
0.005
 48
0.005
140
0.1
141
0.09
142
0.0
143
1.0
144
1.0
145
0.0
146
1.0
147
0.09
 71
1.0
 72
0.0
 73
1
 74
1
 75
0
 76
0
 77
0
 78
0
 79
0
170
1
171
2
172
0
173
0
174
0
175
0
176
0
177
0
178
0
270
2
179
3
271
3
272
3
273
2
274
2
275
0
280
0
281
0
282
0
283
1
284
0
285
0
286
0
287
3
288
0
340
11
278
46
341
217
342
217
343
217
344
217
  0
DIMSTYLE
105
21F
100
AcDbSymbolTableRecord
100
AcDbDimStyleTableRecord
  2
DIMSTYLE_1
 70
0
  3
<>
  4

 40
1.0
 41
0.1875
 42
0.0625
 43
0.38
 44
0.125
 45
0.0
 46
0.0
 47
0.1
 48
0.1
140
0.1
141
0.09
142
0.0
143
1.0
144
1.0
145
0.0
146
1.0
147
0.09
 71
0.0
 72
0.0
 73
1
 74
1
 75
0
 76
0
 77
0
 78
0
 79
0
170
1
171
2
172
1
173
0
174
0
175
0
176
0
177
0
178
0
270
2
179
3
271
1
272
3
273
2
274
4
275
0
280
0
281
0
282
0
283
1
284
0
285
0
286
0
287
3
288
1
340
11
278
46
289
2
341
217
342
217
343
217
344
217
  0
DIMSTYLE
105
220
100
AcDbSymbolTableRecord
100
AcDbDimStyleTableRecord
  2
DIMSTYLE_2
 70
0
  3

  4

 40
1.0
 41
0.1875
 42
0.0625
 43
0.38
 44
0.125
 45
0.0
 46
0.0
 47
0.1
 48
0.1
140
0.1
141
0.09
142
0.0
143
1.0
144
1.0
145
0.0
146
1.0
147
0.1
 71
0.0
 72
0.0
 73
1
 74
1
 75
0
 76
0
 77
0
 78
0
 79
0
170
1
171
2
172
0
173
0
174
0
175
0
176
0
177
0
178
0
270
2
179
3
271
1
272
3
273
2
274
4
275
0
280
0
281
0
282
0
283
1
284
0
285
0
286
0
287
3
288
0
340
11
278
46
341
217
342
217
343
217
344
217
  0
ENDTAB
  0
ENDSEC
  0
SECTION
  2
BLOCKS
  0
BLOCK
  5
20
100
AcDbEntity
  8
0
100
AcDbBlockBegin
  2
*Model_Space
 70
0
 10
0.0
 20
0.0
 30
0.0
  3
*Model_Space
  1

  0
ENDBLK
  5
21
100
AcDbEntity
  8
0
100
AcDbBlockEnd
  0
BLOCK
  5
1C
100
AcDbEntity
  8
0
100
AcDbBlockBegin
  2
*Paper_Space
 70
0
 10
0.0
 20
0.0
 30
0.0
  3
*Paper_Space
  1

  0
ENDBLK
  5
1D
100
AcDbEntity
  8
0
100
AcDbBlockEnd
  0
BLOCK
  5
221
100
AcDbEntity
  8
0
100
AcDbBlockBegin
  2
_FILLED
 70
64
 10
0.0
 20
0.0
  3
_FILLED
  1

  0
SOLID
  5
222
100
AcDbEntity
  8
0
  6
BYBLOCK
 62
0
100
AcDbTrace
 10
0.0
 20
0.0
 11
-1.0
 21
0.1666666667
 12
-1.0
 22
-0.1666666667
 13
-1.0
 23
-0.1666666667
  0
ENDBLK
  5
223
100
AcDbEntity
  8
0
  6
BYBLOCK
 62
0
100
AcDbBlockEnd
  0
BLOCK
  5
224
100
AcDbEntity
  8
SCHEME_DIMS
100
AcDbBlockBegin
 62
7
  6
CONTINUOUS
  2
*D0
 70
65
 10
0.0
 20
0.0
  3
*D0
  1

  0
MTEXT
  5
225
100
AcDbEntity
  8
SCHEME_DIMS
100
AcDbMText
 62
7
  6
CONTINUOUS
  7
TEXTSTYLE_6
 71
1
 72
1
 10
8.6714439763
 20
4.8394527892
 30
0.0
 11
1.0
 21
0.0
 31
0.0
 73
2
 44
0.9
  1
{\fgdt;n}\ftxt;50.5\P[1.99]
 40
0.1
 41
0.6
  0
LINE
  5
226
100
AcDbEntity
  8
SCHEME_DIMS
100
AcDbLine
 62
7
  6
CONTINUOUS
 10
8.3232973547
 20
4.6871025352
 11
7.6352553102
 21
3.9695915622
  0
LINE
  5
227
100
AcDbEntity
  8
SCHEME_DIMS
100
AcDbLine
 62
7
  6
CONTINUOUS
 10
7.6352553102
 20
3.9695915622
 11
8.4214439763
 21
4.7894527892
  0
LINE
  5
228
100
AcDbEntity
  8
SCHEME_DIMS
100
AcDbLine
 62
7
  6
CONTINUOUS
 10
8.4214439763
 20
4.7894527892
 11
8.5714439763
 21
4.7894527892
  0
LINE
  5
229
100
AcDbEntity
  8
SCHEME_DIMS
100
AcDbLine
 62
7
  6
CONTINUOUS
 10
6.9472132657
 20
3.2520805891
 11
7.6352553102
 21
3.9695915622
  0
INSERT
  5
22A
100
AcDbEntity
  8
SCHEME_DIMS
100
AcDbBlockReference
 62
7
  6
CONTINUOUS
  2
_FILLED
 10
8.3232973547
 20
4.6871025352
 41
0.1875
 42
0.1875
 43
0.1875
 50
46.2010915808
  0
INSERT
  5
22B
100
AcDbEntity
  8
SCHEME_DIMS
100
AcDbBlockReference
 62
7
  6
CONTINUOUS
  2
_FILLED
 10
6.9472132657
 20
3.2520805891
 41
0.1875
 42
0.1875
 43
0.1875
 50
226.2010915808
  0
ENDBLK
  5
22C
100
AcDbEntity
  8
0
  6
BYBLOCK
 62
0
100
AcDbBlockEnd
  0
BLOCK
  5
22D
100
AcDbEntity
  8
SCHEME_DIMS
100
AcDbBlockBegin
 62
7
  6
CONTINUOUS
  2
*D1
 70
65
 10
0.0
 20
0.0
  3
*D1
  1

  0
MTEXT
  5
22E
100
AcDbEntity
  8
SCHEME_DIMS
100
AcDbMText
 62
7
  6
CONTINUOUS
  7
TEXTSTYLE_6
 71
2
 72
1
 10
7.5352553102
 20
6.1497336894
 30
0.0
 11
1.0
 21
0.0
 31
0.0
 73
2
 44
0.9
  1
{\fgdt;n}\ftxt;45.0\P[1.77]
 40
0.1
 41
0.6
  0
LINE
  5
22F
100
AcDbEntity
  8
SCHEME_DIMS
100
AcDbLine
 62
7
  6
CONTINUOUS
 10
6.7494285385
 20
8.8178293925
 11
6.7494285385
 21
8.1780737593
  0
LINE
  5
230
100
AcDbEntity
  8
SCHEME_DIMS
100
AcDbLine
 62
7
  6
CONTINUOUS
 10
6.7494285385
 20
7.974330877
 11
6.7494285385
 21
5.9747336894
  0
LINE
  5
231
100
AcDbEntity
  8
SCHEME_DIMS
100
AcDbLine
 62
7
  6
CONTINUOUS
 10
8.5210820818
 20
8.8165463019
 11
8.5210820818
 21
5.9747336894
  0
LINE
  5
232
100
AcDbEntity
  8
SCHEME_DIMS
100
AcDbLine
 62
7
  6
CONTINUOUS
 10
6.7494285385
 20
6.0997336894
 11
7.1685886435
 21
6.0997336894
  0
LINE
  5
233
100
AcDbEntity
  8
SCHEME_DIMS
100
AcDbLine
 62
7
  6
CONTINUOUS
 10
8.5210820818
 20
6.0997336894
 11
8.1019219769
 21
6.0997336894
  0
INSERT
  5
234
100
AcDbEntity
  8
SCHEME_DIMS
100
AcDbBlockReference
 62
7
  6
CONTINUOUS
  2
_FILLED
 10
6.7494285385
 20
6.0997336894
 41
0.1875
 42
0.1875
 43
0.1875
 50
180.0
  0
INSERT
  5
235
100
AcDbEntity
  8
SCHEME_DIMS
100
AcDbBlockReference
 62
7
  6
CONTINUOUS
  2
_FILLED
 10
8.5210820818
 20
6.0997336894
 41
0.1875
 42
0.1875
 43
0.1875
  0
ENDBLK
  5
236
100
AcDbEntity
  8
0
  6
BYBLOCK
 62
0
100
AcDbBlockEnd
  0
BLOCK
  5
237
100
AcDbEntity
  8
SCHEME_DIMS
100
AcDbBlockBegin
 62
7
  6
CONTINUOUS
  2
*D2
 70
65
 10
0.0
 20
0.0
  3
*D2
  1

  0
MTEXT
  5
238
100
AcDbEntity
  8
SCHEME_DIMS
100
AcDbMText
 62
7
  6
CONTINUOUS
  7
STANDARD
 71
2
 72
1
 10
9.1478144153
 20
8.4598044009
 30
0.0
 11
1.0
 21
0.0
 31
0.0
 73
2
 44
0.9
  1
19.0\P[.75]
 40
0.1
 41
0.5
  0
LINE
  5
239
100
AcDbEntity
  8
SCHEME_DIMS
100
AcDbLine
 62
7
  6
CONTINUOUS
 10
8.2174403496
 20
8.0357886529
 11
9.3228144153
 21
8.0357886529
  0
LINE
  5
23A
100
AcDbEntity
  8
SCHEME_DIMS
100
AcDbLine
 62
7
  6
CONTINUOUS
 10
8.453660822
 20
8.7838201489
 11
9.3228144153
 21
8.7838201489
  0
LINE
  5
23B
100
AcDbEntity
  8
SCHEME_DIMS
100
AcDbLine
 62
7
  6
CONTINUOUS
 10
9.1978144153
 20
8.0357886529
 11
9.1978144153
 21
7.6357886529
  0
LINE
  5
23C
100
AcDbEntity
  8
SCHEME_DIMS
100
AcDbLine
 62
7
  6
CONTINUOUS
 10
9.1978144153
 20
8.7838201489
 11
9.1978144153
 21
9.1838201489
  0
INSERT
  5
23D
100
AcDbEntity
  8
SCHEME_DIMS
100
AcDbBlockReference
 62
7
  6
CONTINUOUS
  2
_FILLED
 10
9.1978144153
 20
8.0357886529
 41
0.1875
 42
0.1875
 43
0.1875
 50
90.0
  0
INSERT
  5
23E
100
AcDbEntity
  8
SCHEME_DIMS
100
AcDbBlockReference
 62
7
  6
CONTINUOUS
  2
_FILLED
 10
9.1978144153
 20
8.7838201489
 41
0.1875
 42
0.1875
 43
0.1875
 50
270.0
  0
ENDBLK
  5
23F
100
AcDbEntity
  8
0
  6
BYBLOCK
 62
0
100
AcDbBlockEnd
  0
BLOCK
  5
240
100
AcDbEntity
  8
SCHEME_DIMS
100
AcDbBlockBegin
 62
7
  6
CONTINUOUS
  2
*D3
 70
65
 10
0.0
 20
0.0
  3
*D3
  1

  0
MTEXT
  5
241
100
AcDbEntity
  8
SCHEME_DIMS
100
AcDbMText
 62
7
  6
CONTINUOUS
  7
STANDARD
 71
2
 72
1
 10
9.8818147659
 20
11.3544894403
 30
0.0
 11
1.0
 21
0.0
 31
0.0
 73
2
 44
0.9
  1
166.1\P[6.54]
 40
0.1
 41
0.6
  0
LINE
  5
242
100
AcDbEntity
  8
SCHEME_DIMS
100
AcDbLine
 62
7
  6
CONTINUOUS
 10
8.2174403496
 20
8.0357886529
 11
10.0568147659
 21
8.0357886529
  0
LINE
  5
243
100
AcDbEntity
  8
SCHEME_DIMS
100
AcDbLine
 62
7
  6
CONTINUOUS
 10
8.5835820818
 20
14.5731902277
 11
10.0568147659
 21
14.5731902277
  0
LINE
  5
244
100
AcDbEntity
  8
SCHEME_DIMS
100
AcDbLine
 62
7
  6
CONTINUOUS
 10
9.9318147659
 20
8.0357886529
 11
9.9318147659
 21
11.0044894403
  0
LINE
  5
245
100
AcDbEntity
  8
SCHEME_DIMS
100
AcDbLine
 62
7
  6
CONTINUOUS
 10
9.9318147659
 20
14.5731902277
 11
9.9318147659
 21
11.4544894403
  0
INSERT
  5
246
100
AcDbEntity
  8
SCHEME_DIMS
100
AcDbBlockReference
 62
7
  6
CONTINUOUS
  2
_FILLED
 10
9.9318147659
 20
8.0357886529
 41
0.1875
 42
0.1875
 43
0.1875
 50
270.0
  0
INSERT
  5
247
100
AcDbEntity
  8
SCHEME_DIMS
100
AcDbBlockReference
 62
7
  6
CONTINUOUS
  2
_FILLED
 10
9.9318147659
 20
14.5731902277
 41
0.1875
 42
0.1875
 43
0.1875
 50
90.0
  0
ENDBLK
  5
248
100
AcDbEntity
  8
0
  6
BYBLOCK
 62
0
100
AcDbBlockEnd
  0
BLOCK
  5
249
100
AcDbEntity
  8
SCHEME_DIMS
100
AcDbBlockBegin
 62
7
  6
CONTINUOUS
  2
*D4
 70
65
 10
0.0
 20
0.0
  3
*D4
  1

  0
MTEXT
  5
24A
100
AcDbEntity
  8
SCHEME_DIMS
100
AcDbMText
 62
7
  6
CONTINUOUS
  7
STANDARD
 71
2
 72
1
 10
5.8231889546
 20
10.3692532198
 30
0.0
 11
1.0
 21
0.0
 31
0.0
 73
2
 44
0.9
  1
3X 27.2\P[1.07]
 40
0.1
 41
0.7
  0
LINE
  5
24B
100
AcDbEntity
  8
SCHEME_DIMS
100
AcDbLine
 62
7
  6
CONTINUOUS
 10
6.5865348377
 20
9.7838201489
 11
5.7981889546
 21
9.7838201489
  0
LINE
  5
24C
100
AcDbEntity
  8
SCHEME_DIMS
100
AcDbLine
 62
7
  6
CONTINUOUS
 10
6.5865348377
 20
10.8546862907
 11
5.7981889546
 21
10.8546862907
  0
LINE
  5
24D
100
AcDbEntity
  8
SCHEME_DIMS
100
AcDbLine
 62
7
  6
CONTINUOUS
 10
5.9231889546
 20
9.7838201489
 11
5.9231889546
 21
10.0192532198
  0
LINE
  5
24E
100
AcDbEntity
  8
SCHEME_DIMS
100
AcDbLine
 62
7
  6
CONTINUOUS
 10
5.9231889546
 20
10.8546862907
 11
5.9231889546
 21
10.4692532198
  0
INSERT
  5
24F
100
AcDbEntity
  8
SCHEME_DIMS
100
AcDbBlockReference
 62
7
  6
CONTINUOUS
  2
_FILLED
 10
5.9231889546
 20
9.7838201489
 41
0.1875
 42
0.1875
 43
0.1875
 50
270.0
  0
INSERT
  5
250
100
AcDbEntity
  8
SCHEME_DIMS
100
AcDbBlockReference
 62
7
  6
CONTINUOUS
  2
_FILLED
 10
5.9231889546
 20
10.8546862907
 41
0.1875
 42
0.1875
 43
0.1875
 50
90.0
  0
ENDBLK
  5
251
100
AcDbEntity
  8
0
  6
BYBLOCK
 62
0
100
AcDbBlockEnd
  0
BLOCK
  5
252
100
AcDbEntity
  8
0
100
AcDbBlockBegin
  2
*T1
 70
1
 10
0.0
 20
0.0
  3
*T1
  1

  0
LINE
  5
253
100
AcDbEntity
  8
0
100
AcDbLine
 62
7
  6
CONTINUOUS
 10
4.35
 20
0.0
 11
0.0
 21
0.0
  0
LINE
  5
254
100
AcDbEntity
  8
0
100
AcDbLine
 62
7
  6
CONTINUOUS
 10
4.35
 20
0.0
 11
4.35
 21
1.92
  0
LINE
  5
255
100
AcDbEntity
  8
0
100
AcDbLine
 62
7
  6
CONTINUOUS
 10
4.35
 20
1.92
 11
0.0
 21
1.92
  0
LINE
  5
256
100
AcDbEntity
  8
0
100
AcDbLine
 62
7
  6
CONTINUOUS
 10
0.0
 20
0.0
 11
0.0
 21
1.92
  0
MTEXT
  5
257
100
AcDbEntity
  8
NOTES
100
AcDbMText
 62
7
  6
CONTINUOUS
  7
STANDARD
 71
2
 72
1
 10
4.125
 20
0.48
 30
0.0
 11
1.0
 21
0.0
 31
0.0
 73
2
 44
0.9
  1
A
 40
0.1
 41
0.2
  0
MTEXT
  5
258
100
AcDbEntity
  8
NOTES
100
AcDbMText
 62
7
  6
CONTINUOUS
  7
STANDARD
 71
2
 72
1
 10
2.175
 20
1.08
 30
0.0
 11
1.0
 21
0.0
 31
0.0
 73
2
 44
0.9
  1
TL50 BASIC 3 STACK CABLE \P 
 40
0.1
 41
5.0
  0
ENDBLK
  5
259
100
AcDbEntity
  8
0
  6
BYBLOCK
 62
0
100
AcDbBlockEnd
  0
ENDSEC
  0
SECTION
  2
ENTITIES
  0
MTEXT
  5
25A
100
AcDbEntity
  8
0
100
AcDbMText
 62
7
  6
CONTINUOUS
  7
TEXTSTYLE_2
 71
2
 72
1
 10
15.7174677477
 20
1.6655662523
 30
0.0
 11
1.0
 21
0.0
 31
0.0
 73
2
 44
0.9
  1
THIRD ANGLE PROJECTION
 40
0.1
 41
1.76
  0
MTEXT
  5
25B
100
AcDbEntity
  8
0
100
AcDbMText
 62
7
  6
CONTINUOUS
  7
STANDARD
 71
1
 72
1
 10
17.55
 20
1.32
 30
0.0
 11
1.0
 21
0.0
 31
0.0
 73
2
 44
0.9
  1
DRAWING NO.
 40
0.08
 41
0.88
  0
MTEXT
  5
25C
100
AcDbEntity
  8
0
100
AcDbMText
 62
7
  6
CONTINUOUS
  7
TEXTSTYLE_2
 71
1
 72
1
 10
16.75
 20
2.08
 30
0.0
 11
1.0
 21
0.0
 31
0.0
 73
2
 44
0.9
  1
TITLE
 40
0.1
 41
0.4
  0
MTEXT
  5
25D
100
AcDbEntity
  8
0
100
AcDbMText
 62
7
  6
CONTINUOUS
  7
STANDARD
 71
1
 72
1
 10
16.75
 20
1.32
 30
0.0
 11
1.0
 21
0.0
 31
0.0
 73
2
 44
0.9
  1
SIZE
 40
0.08
 41
0.32
  0
MTEXT
  5
25E
100
AcDbEntity
  8
0
100
AcDbMText
 62
7
  6
CONTINUOUS
  7
STANDARD
 71
1
 72
1
 10
16.75
 20
0.95
 30
0.0
 11
1.0
 21
0.0
 31
0.0
 73
2
 44
0.9
  1
SCALE
 40
0.08
 41
0.4
  0
MTEXT
  5
25F
100
AcDbEntity
  8
0
100
AcDbMText
 62
7
  6
CONTINUOUS
  7
TEXTSTYLE_2
 71
2
 72
1
 10
17.17
 20
1.2
 30
0.0
 11
1.0
 21
0.0
 31
0.0
 73
2
 44
0.9
  1
C
 40
0.1
 41
0.08
  0
MTEXT
  5
260
100
AcDbEntity
  8
0
100
AcDbMText
 62
7
  6
CONTINUOUS
  7
STANDARD
 71
1
 72
1
 10
18.925
 20
0.95
 30
0.0
 11
1.0
 21
0.0
 31
0.0
 73
2
 44
0.9
  1
SHEET
 40
0.08
 41
0.4
  0
MTEXT
  5
261
100
AcDbEntity
  8
0
100
AcDbMText
 62
7
  6
CONTINUOUS
  7
STANDARD
 71
1
 72
1
 10
20.3
 20
1.32
 30
0.0
 11
1.0
 21
0.0
 31
0.0
 73
2
 44
0.9
  1
REV.
 40
0.08
 41
0.32
  0
MTEXT
  5
262
100
AcDbEntity
  8
0
100
AcDbMText
 62
7
  6
CONTINUOUS
  7
STANDARD
 71
3
 72
1
 10
21.05
 20
0.698443
 30
0.0
 11
1.0
 21
0.0
 31
0.0
 73
2
 44
0.9
  1
CREO
 40
0.07
 41
0.28
  0
MTEXT
  5
263
100
AcDbEntity
  8
0
100
AcDbMText
 62
7
  6
CONTINUOUS
  7
TEXTSTYLE_2
 71
2
 72
1
 10
12.257
 20
15.95
 30
0.0
 11
1.0
 21
0.0
 31
0.0
 73
2
 44
0.9
  1
4
 40
0.1
 41
0.08
  0
MTEXT
  5
264
100
AcDbEntity
  8
0
100
AcDbMText
 62
7
  6
CONTINUOUS
  7
TEXTSTYLE_2
 71
2
 72
1
 10
12.257
 20
0.65
 30
0.0
 11
1.0
 21
0.0
 31
0.0
 73
2
 44
0.9
  1
4
 40
0.1
 41
0.08
  0
MTEXT
  5
265
100
AcDbEntity
  8
0
100
AcDbMText
 62
7
  6
CONTINUOUS
  7
TEXTSTYLE_2
 71
3
 72
1
 10
0.864
 20
6.375
 30
0.0
 11
1.0
 21
0.0
 31
0.0
 73
2
 44
0.9
  1
B
 40
0.1
 41
0.08
  0
MTEXT
  5
266
100
AcDbEntity
  8
0
100
AcDbMText
 62
7
  6
CONTINUOUS
  7
TEXTSTYLE_2
 71
1
 72
1
 10
21.15
 20
6.375
 30
0.0
 11
1.0
 21
0.0
 31
0.0
 73
2
 44
0.9
  1
B
 40
0.1
 41
0.08
  0
MTEXT
  5
267
100
AcDbEntity
  8
0
100
AcDbMText
 62
7
  6
CONTINUOUS
  7
TEXTSTYLE_2
 71
3
 72
1
 10
0.864
 20
2.525
 30
0.0
 11
1.0
 21
0.0
 31
0.0
 73
2
 44
0.9
  1
A
 40
0.1
 41
0.08
  0
MTEXT
  5
268
100
AcDbEntity
  8
0
100
AcDbMText
 62
7
  6
CONTINUOUS
  7
TEXTSTYLE_2
 71
1
 72
1
 10
21.15
 20
2.525
 30
0.0
 11
1.0
 21
0.0
 31
0.0
 73
2
 44
0.9
  1
A
 40
0.1
 41
0.08
  0
MTEXT
  5
269
100
AcDbEntity
  8
0
100
AcDbMText
 62
7
  6
CONTINUOUS
  7
TEXTSTYLE_2
 71
3
 72
1
 10
0.864
 20
14.075
 30
0.0
 11
1.0
 21
0.0
 31
0.0
 73
2
 44
0.9
  1
D
 40
0.1
 41
0.08
  0
MTEXT
  5
26A
100
AcDbEntity
  8
0
100
AcDbMText
 62
7
  6
CONTINUOUS
  7
TEXTSTYLE_2
 71
1
 72
1
 10
21.15
 20
14.075
 30
0.0
 11
1.0
 21
0.0
 31
0.0
 73
2
 44
0.9
  1
D
 40
0.1
 41
0.08
  0
MTEXT
  5
26B
100
AcDbEntity
  8
0
100
AcDbMText
 62
7
  6
CONTINUOUS
  7
TEXTSTYLE_2
 71
3
 72
1
 10
0.864
 20
10.225
 30
0.0
 11
1.0
 21
0.0
 31
0.0
 73
2
 44
0.9
  1
C
 40
0.1
 41
0.08
  0
MTEXT
  5
26C
100
AcDbEntity
  8
0
100
AcDbMText
 62
7
  6
CONTINUOUS
  7
TEXTSTYLE_2
 71
1
 72
1
 10
21.15
 20
10.225
 30
0.0
 11
1.0
 21
0.0
 31
0.0
 73
2
 44
0.9
  1
C
 40
0.1
 41
0.08
  0
MTEXT
  5
26D
100
AcDbEntity
  8
0
100
AcDbMText
 62
7
  6
CONTINUOUS
  7
TEXTSTYLE_2
 71
2
 72
1
 10
14.757
 20
0.65
 30
0.0
 11
1.0
 21
0.0
 31
0.0
 73
2
 44
0.9
  1
3
 40
0.1
 41
0.08
  0
MTEXT
  5
26E
100
AcDbEntity
  8
0
100
AcDbMText
 62
7
  6
CONTINUOUS
  7
TEXTSTYLE_2
 71
2
 72
1
 10
14.757
 20
15.95
 30
0.0
 11
1.0
 21
0.0
 31
0.0
 73
2
 44
0.9
  1
3
 40
0.1
 41
0.08
  0
MTEXT
  5
26F
100
AcDbEntity
  8
0
100
AcDbMText
 62
7
  6
CONTINUOUS
  7
TEXTSTYLE_2
 71
2
 72
1
 10
17.257
 20
15.95
 30
0.0
 11
1.0
 21
0.0
 31
0.0
 73
2
 44
0.9
  1
2
 40
0.1
 41
0.08
  0
MTEXT
  5
270
100
AcDbEntity
  8
0
100
AcDbMText
 62
7
  6
CONTINUOUS
  7
TEXTSTYLE_2
 71
2
 72
1
 10
17.257
 20
0.65
 30
0.0
 11
1.0
 21
0.0
 31
0.0
 73
2
 44
0.9
  1
2
 40
0.1
 41
0.08
  0
MTEXT
  5
271
100
AcDbEntity
  8
0
100
AcDbMText
 62
7
  6
CONTINUOUS
  7
TEXTSTYLE_2
 71
2
 72
1
 10
19.757
 20
0.65
 30
0.0
 11
1.0
 21
0.0
 31
0.0
 73
2
 44
0.9
  1
1
 40
0.1
 41
0.08
  0
MTEXT
  5
272
100
AcDbEntity
  8
0
100
AcDbMText
 62
7
  6
CONTINUOUS
  7
TEXTSTYLE_2
 71
2
 72
1
 10
19.757
 20
15.95
 30
0.0
 11
1.0
 21
0.0
 31
0.0
 73
2
 44
0.9
  1
1
 40
0.1
 41
0.08
  0
MTEXT
  5
273
100
AcDbEntity
  8
0
100
AcDbMText
 62
7
  6
CONTINUOUS
  7
TEXTSTYLE_2
 71
2
 72
1
 10
2.257
 20
0.65
 30
0.0
 11
1.0
 21
0.0
 31
0.0
 73
2
 44
0.9
  1
8
 40
0.1
 41
0.08
  0
MTEXT
  5
274
100
AcDbEntity
  8
0
100
AcDbMText
 62
7
  6
CONTINUOUS
  7
TEXTSTYLE_2
 71
2
 72
1
 10
4.757
 20
0.65
 30
0.0
 11
1.0
 21
0.0
 31
0.0
 73
2
 44
0.9
  1
7
 40
0.1
 41
0.08
  0
MTEXT
  5
275
100
AcDbEntity
  8
0
100
AcDbMText
 62
7
  6
CONTINUOUS
  7
TEXTSTYLE_2
 71
2
 72
1
 10
7.257
 20
0.65
 30
0.0
 11
1.0
 21
0.0
 31
0.0
 73
2
 44
0.9
  1
6
 40
0.1
 41
0.08
  0
MTEXT
  5
276
100
AcDbEntity
  8
0
100
AcDbMText
 62
7
  6
CONTINUOUS
  7
TEXTSTYLE_2
 71
2
 72
1
 10
9.757
 20
0.65
 30
0.0
 11
1.0
 21
0.0
 31
0.0
 73
2
 44
0.9
  1
5
 40
0.1
 41
0.08
  0
MTEXT
  5
277
100
AcDbEntity
  8
0
100
AcDbMText
 62
7
  6
CONTINUOUS
  7
TEXTSTYLE_2
 71
2
 72
1
 10
9.757
 20
15.95
 30
0.0
 11
1.0
 21
0.0
 31
0.0
 73
2
 44
0.9
  1
5
 40
0.1
 41
0.08
  0
MTEXT
  5
278
100
AcDbEntity
  8
0
100
AcDbMText
 62
7
  6
CONTINUOUS
  7
TEXTSTYLE_2
 71
2
 72
1
 10
7.257
 20
15.95
 30
0.0
 11
1.0
 21
0.0
 31
0.0
 73
2
 44
0.9
  1
6
 40
0.1
 41
0.08
  0
MTEXT
  5
279
100
AcDbEntity
  8
0
100
AcDbMText
 62
7
  6
CONTINUOUS
  7
TEXTSTYLE_2
 71
2
 72
1
 10
4.757
 20
15.95
 30
0.0
 11
1.0
 21
0.0
 31
0.0
 73
2
 44
0.9
  1
7
 40
0.1
 41
0.08
  0
MTEXT
  5
27A
100
AcDbEntity
  8
0
100
AcDbMText
 62
7
  6
CONTINUOUS
  7
TEXTSTYLE_2
 71
2
 72
1
 10
2.257
 20
15.95
 30
0.0
 11
1.0
 21
0.0
 31
0.0
 73
2
 44
0.9
  1
8
 40
0.1
 41
0.08
  0
MTEXT
  5
27B
100
AcDbEntity
  8
0
100
AcDbMText
 62
7
  6
CONTINUOUS
  7
STANDARD
 71
1
 72
1
 10
17.2749123633
 20
0.9184107931
 30
0.0
 11
1.0
 21
0.0
 31
0.0
 73
2
 44
0.9
  1
1:1
 40
0.1
 41
0.3
  0
MTEXT
  5
27C
100
AcDbEntity
  8
0
100
AcDbMText
 62
7
  6
CONTINUOUS
  7
STANDARD
 71
1
 72
1
 10
19.4499123633
 20
0.9184107931
 30
0.0
 11
1.0
 21
0.0
 31
0.0
 73
2
 44
0.9
  1
1 OF 1
 40
0.1
 41
0.6
  0
MTEXT
  5
27D
100
AcDbEntity
  8
0
100
AcDbMText
 62
7
  6
CONTINUOUS
  7
STANDARD
 71
1
 72
1
 10
18.5204017884
 20
1.2400373234
 30
0.0
 11
1.0
 21
0.0
 31
0.0
 73
2
 44
0.9
  1
212916
 40
0.12
 41
0.72
  0
MTEXT
  5
27E
100
AcDbEntity
  8
0
100
AcDbMText
 62
7
  6
CONTINUOUS
  7
STANDARD
 71
1
 72
1
 10
1.2857894151
 20
1.4458068967
 30
0.0
 11
1.0
 21
0.0
 31
0.0
 73
2
 44
0.9
  1
NOTES:\P1. ALL DIMENSIONS ARE MILLIMETERS [INCHES] UNLESS OTHERWISE NOTED.\P2. REFER TO "www.bannerengineering.com" FOR ADDITIONAL DATA AND SPECIFICATIONS.
 40
0.1
 41
7.9
  0
MTEXT
  5
27F
100
AcDbEntity
  8
0
100
AcDbMText
 62
7
  6
CONTINUOUS
  7
TEXTSTYLE_3
 71
2
 72
1
 10
19.7555637832
 20
2.555409194
 30
0.0
 11
1.0
 21
0.0
 31
0.0
 73
2
 44
0.9
  1
BANNER ENGINEERING CORP.
 40
0.12
 41
2.592
  0
MTEXT
  5
280
100
AcDbEntity
  8
0
100
AcDbMText
 62
7
  6
CONTINUOUS
  7
TEXTSTYLE_2
 71
2
 72
1
 10
19.6690932526
 20
2.3442032634
 30
0.0
 11
1.0
 21
0.0
 31
0.0
 73
2
 44
0.9
  1
www.bannerengineering.com
 40
0.1
 41
2.0
  0
MTEXT
  5
281
100
AcDbEntity
  8
0
100
AcDbMText
 62
7
  6
CONTINUOUS
  7
TEXTSTYLE_4
 71
2
 72
1
 10
15.7104628329
 20
2.6377571551
 30
0.0
 11
1.0
 21
0.0
 31
0.0
 73
2
 44
0.9
  1
This drawing is the property\Pof BANNER ENGINEERING CORP.\PAny use or reproduction,\Pin any form, without prior\Pwritten permission of\PBanner is prohibited.
 40
0.08
 41
1.904
  0
MTEXT
  5
282
100
AcDbEntity
  8
0
100
AcDbMText
 62
7
  6
CONTINUOUS
  7
TEXTSTYLE_5
 71
2
 72
1
 10
15.7283993136
 20
1.9032170366
 30
0.0
 11
1.0
 21
0.0
 31
0.0
 73
2
 44
0.9
  1
C  2015 Banner Engineering Corp.
 40
0.08
 41
1.92
  0
DIMENSION
  5
283
100
AcDbEntity
  8
SCHEME_DIMS
100
AcDbDimension
 62
7
  6
CONTINUOUS
  2
*D0
 10
8.3232973547
 20
4.6871025352
 11
9.038110643
 21
4.7144527892
 70
163
 71
1
 72
2
 41
0.9
 42
50.5
  1
%%c<>\P[]
  3
DIMSTYLE_1
100
AcDbDiametricDimension
 15
6.9472132657
 25
3.2520805891
  0
DIMENSION
  5
284
100
AcDbEntity
  8
SCHEME_DIMS
100
AcDbDimension
 62
7
  6
CONTINUOUS
  2
*D1
 10
8.5210820818
 20
6.0997336894
 11
7.6352553102
 21
6.0247336894
 70
160
 71
2
 72
2
 41
0.9
 42
45.0
  1
%%c<>\P[]
  3
DIMSTYLE_2
100
AcDbAlignedDimension
 13
6.7494285385
 23
8.8803293925
 14
8.5210820818
 24
8.8790463019
100
AcDbRotatedDimension
  0
DIMENSION
  5
285
100
AcDbEntity
  8
SCHEME_DIMS
100
AcDbDimension
 62
7
  6
CONTINUOUS
  2
*D2
 10
9.1978144153
 20
8.7838201489
 11
9.1978144153
 21
8.3348044009
 70
160
 71
2
 72
2
 41
0.9
 42
19.0
  1
<>\P[]
  3
DIMSTYLE_2
100
AcDbAlignedDimension
 13
8.1549403496
 23
8.0357886529
 14
8.391160822
 24
8.7838201489
 50
90.0
100
AcDbRotatedDimension
  0
DIMENSION
  5
286
100
AcDbEntity
  8
SCHEME_DIMS
100
AcDbDimension
 62
7
  6
CONTINUOUS
  2
*D3
 10
9.9318147659
 20
14.5731902277
 11
9.9318147659
 21
11.2294894403
 70
160
 71
2
 72
2
 41
0.9
 42
166.05
  1
<>\P[]
  3
DIMSTYLE_2
100
AcDbAlignedDimension
 13
8.1549403496
 23
8.0357886529
 14
8.5210820818
 24
14.5731902277
 50
90.0
100
AcDbRotatedDimension
  0
DIMENSION
  5
287
100
AcDbEntity
  8
SCHEME_DIMS
100
AcDbDimension
 62
7
  6
CONTINUOUS
  2
*D4
 10
5.9231889546
 20
10.8546862907
 11
5.9231889546
 21
10.2442532198
 70
160
 71
2
 72
2
 41
0.9
 42
27.2
  1
3X <>\P[]
  3
DIMSTYLE_2
100
AcDbAlignedDimension
 13
6.6490348377
 23
9.7838201489
 14
6.6490348377
 24
10.8546862907
 50
90.0
100
AcDbRotatedDimension
  0
ACAD_TABLE
  5
288
100
AcDbEntity
  8
0
 62
7
  6
CONTINUOUS
100
AcDbBlockReference
  2
*T1
 10
16.7
 20
0.75
 30
0.0
100
AcDbTable
342
       6AC
343
21D
 11
1.0
 21
0.0
 31
0.0
 90
6
 91
3
 92
5
 93
4
 94
0
 95
0
 96
0
 70
1
141
0.33
141
0.45
141
1.14
142
0.65
142
1.15
142
1.025
142
1.075
142
0.45
171
1
172
0
173
0
174
0
175
1
176
1
 91
33
178
0
145
0.0
301
CELL_VALUE
 90
4
  1
 
304
ACVALUE_END
170
1
140
0.1
171
1
172
0
173
0
174
0
175
1
176
1
 91
33
178
0
145
0.0
301
CELL_VALUE
 90
4
  1
 
304
ACVALUE_END
170
1
140
0.1
171
1
172
0
173
0
174
0
175
1
176
1
 91
33
178
0
145
0.0
301
CELL_VALUE
 90
4
  1
 
304
ACVALUE_END
170
1
140
0.1
171
1
172
0
173
0
174
0
175
1
176
1
 91
33
178
0
145
0.0
301
CELL_VALUE
 90
4
  1
 
304
ACVALUE_END
170
1
140
0.1
171
1
172
0
173
0
174
0
175
1
176
1
 91
33
178
0
145
0.0
301
CELL_VALUE
 90
4
  1
 
304
ACVALUE_END
170
1
140
0.1
171
1
172
0
173
0
174
0
175
1
176
1
 91
33
178
0
145
0.0
301
CELL_VALUE
 90
4
  1
 
304
ACVALUE_END
170
1
140
0.1
171
1
172
0
173
0
174
0
175
1
176
1
 91
33
178
0
145
0.0
301
CELL_VALUE
 90
4
  1
 
304
ACVALUE_END
170
1
140
0.1
171
1
172
0
173
0
174
0
175
1
176
1
 91
33
178
0
145
0.0
301
CELL_VALUE
 90
4
  1
 
304
ACVALUE_END
170
1
140
0.1
171
1
172
0
173
0
174
0
175
1
176
1
 91
33
178
0
145
0.0
301
CELL_VALUE
 90
4
  1
 
304
ACVALUE_END
170
1
140
0.1
171
1
172
0
173
0
174
0
175
1
176
1
 91
41
178
0
145
0.0
301
CELL_VALUE
 90
4
  1
A
304
ACVALUE_END
170
8
140
0.1
 64
7
171
1
172
0
173
0
174
0
175
5
176
1
 91
33
178
0
145
0.0
301
CELL_VALUE
 90
4
  1
TL50 BASIC 3 STACK CABLE \P 
304
ACVALUE_END
170
8
140
0.1
171
1
172
0
173
1
174
0
175
1
176
1
 91
1
178
0
145
0.0
170
1
171
1
172
0
173
1
174
0
175
1
176
1
 91
1
178
0
145
0.0
170
1
171
1
172
0
173
1
174
0
175
1
176
1
 91
1
178
0
145
0.0
170
1
171
1
172
0
173
1
174
0
175
1
176
1
 91
1
178
0
145
0.0
170
8
  0
LEADER
  5
289
100
AcDbEntity
  8
NOTES
100
AcDbLeader
 62
7
  6
CONTINUOUS
  3
STANDARD
 71
1
 72
0
 73
0
 75
0
 40
0.1
 41
1.4
 76
3
 10
7.0536362265
 20
8.2272626105
 30
0.0
 10
6.7417538453
 20
8.0653383914
 30
0.0
 10
6.6161811249
 20
8.0653383914
 30
0.0
340
28A
1001
ACAD
1000
DSTYLE
1002
{
1070
77
1070
0
1002
}
  0
MTEXT
  5
28A
102
{ACAD_REACTORS
330
289
102
}
100
AcDbEntity
  8
NOTES
100
AcDbMText
 62
7
  6
CONTINUOUS
  7
STANDARD
 71
3
 72
1
 10
6.6161811249
 20
8.1153383914
 30
0.0
 11
1.0
 21
0.0
 31
0.0
 73
2
 44
0.9
  1
 M30 X 1.5-5g 
 40
0.1
 41
1.4
  0
LEADER
  5
28B
100
AcDbEntity
  8
NOTES
100
AcDbLeader
 62
7
  6
CONTINUOUS
  3
STANDARD
 71
1
 72
0
 73
0
 75
0
 40
0.1
 41
1.2
 76
3
 10
7.9449281951
 20
3.7554538627
 30
0.0
 10
8.5607091458
 20
3.3296435234
 30
0.0
 10
8.6743269262
 20
3.3296435234
 30
0.0
340
28C
1001
ACAD
1000
DSTYLE
1002
{
1070
77
1070
0
1002
}
  0
MTEXT
  5
28C
102
{ACAD_REACTORS
330
28B
102
}
100
AcDbEntity
  8
NOTES
100
AcDbMText
 62
7
  6
CONTINUOUS
  7
STANDARD
 71
1
 72
1
 10
8.6743269262
 20
3.3796435234
 30
0.0
 11
1.0
 21
0.0
 31
0.0
 73
2
 44
0.9
  1
 1/2-14 NPSM
 40
0.1
 41
1.2
  0
MTEXT
  5
28D
100
AcDbEntity
  8
NOTES
100
AcDbMText
 62
7
  6
CONTINUOUS
  7
STANDARD
 71
2
 72
1
 10
17.0201938077
 20
5.0646931561
 30
0.0
 11
1.0
 21
0.0
 31
0.0
 73
2
 44
0.9
  1
ISOMETRIC VIEW\P\H0.1;SCALE  1:1
 40
0.125
 41
1.75
  0
LINE
  5
28E
100
AcDbEntity
  8
0
100
AcDbLine
 62
7
  6
CONTINUOUS
 10
0.814
 20
8.336603
 11
0.814
 21
8.163397
  0
LINE
  5
28F
100
AcDbEntity
  8
0
100
AcDbLine
 62
7
  6
CONTINUOUS
 10
0.964
 20
15.75
 11
0.964
 21
0.75
  0
LINE
  5
290
100
AcDbEntity
  8
0
100
AcDbLine
 62
7
  6
CONTINUOUS
 10
15.8276527477
 20
1.2966912523
 11
16.4340437477
 21
1.3660842523
  0
LINE
  5
291
100
AcDbEntity
  8
0
100
AcDbLine
 62
7
  6
CONTINUOUS
 10
10.920397
 20
0.6
 11
11.093603
 21
0.6
  0
LINE
  5
292
100
AcDbEntity
  8
0
100
AcDbLine
 62
7
  6
CONTINUOUS
 10
0.964
 20
0.75
 11
21.05
 21
0.75
  0
LINE
  5
293
100
AcDbEntity
  8
0
100
AcDbLine
 62
7
  6
CONTINUOUS
 10
3.507
 20
0.75
 11
3.507
 21
0.5
  0
LINE
  5
294
100
AcDbEntity
  8
0
100
AcDbLine
 62
7
  6
CONTINUOUS
 10
3.507
 20
15.75
 11
3.507
 21
16.0
  0
LINE
  5
295
100
AcDbEntity
  8
0
100
AcDbLine
 62
7
  6
CONTINUOUS
 10
16.7
 20
1.0
 11
21.05
 21
1.0
  0
LINE
  5
296
100
AcDbEntity
  8
0
100
AcDbLine
 62
7
  6
CONTINUOUS
 10
14.9008917477
 20
1.1139932523
 11
15.1229827477
 21
1.1139932523
  0
LINE
  5
297
100
AcDbEntity
  8
0
100
AcDbLine
 62
7
  6
CONTINUOUS
 10
15.1729827477
 20
1.1139932523
 11
15.2729827477
 21
1.1139932523
  0
LINE
  5
298
100
AcDbEntity
  8
0
100
AcDbLine
 62
7
  6
CONTINUOUS
 10
15.3229827477
 20
1.1139932523
 11
15.5450737477
 21
1.1139932523
  0
LINE
  5
299
100
AcDbEntity
  8
0
100
AcDbLine
 62
7
  6
CONTINUOUS
 10
15.7276527477
 20
1.1139932523
 11
16.0058047477
 21
1.1139932523
  0
LINE
  5
29A
100
AcDbEntity
  8
0
100
AcDbLine
 62
7
  6
CONTINUOUS
 10
16.0558047477
 20
1.1139932523
 11
16.2058907477
 21
1.1139932523
  0
LINE
  5
29B
100
AcDbEntity
  8
0
100
AcDbLine
 62
7
  6
CONTINUOUS
 10
16.2558907477
 20
1.1139932523
 11
16.5340437477
 21
1.1139932523
  0
LINE
  5
29C
100
AcDbEntity
  8
0
100
AcDbLine
 62
7
  6
CONTINUOUS
 10
16.7
 20
1.37
 11
21.05
 21
1.37
  0
LINE
  5
29D
100
AcDbEntity
  8
0
100
AcDbLine
 62
7
  6
CONTINUOUS
 10
16.4340437477
 20
0.8619022523
 11
15.8276527477
 21
0.9312952523
  0
LINE
  5
29E
100
AcDbEntity
  8
0
100
AcDbLine
 62
7
  6
CONTINUOUS
 10
14.7
 20
1.77
 11
16.7
 21
1.77
  0
LINE
  5
29F
100
AcDbEntity
  8
0
100
AcDbLine
 62
7
  6
CONTINUOUS
 10
16.7
 20
2.13
 11
21.05
 21
2.13
  0
LINE
  5
2A0
100
AcDbEntity
  8
0
100
AcDbLine
 62
7
  6
CONTINUOUS
 10
18.273144232
 20
2.3543254011
 11
18.2257802057
 21
2.3543254011
  0
LINE
  5
2A1
100
AcDbEntity
  8
0
100
AcDbLine
 62
7
  6
CONTINUOUS
 10
18.1818891814
 20
2.3543254011
 11
18.0683181184
 21
2.3543254011
  0
LINE
  5
2A2
100
AcDbEntity
  8
0
100
AcDbLine
 62
7
  6
CONTINUOUS
 10
18.0394141024
 20
2.3543254011
 11
17.8362019897
 21
2.3543254011
  0
LINE
  5
2A3
100
AcDbEntity
  8
0
100
AcDbLine
 62
7
  6
CONTINUOUS
 10
17.7857289617
 20
2.3543254011
 11
17.7115229205
 21
2.3543254011
  0
LINE
  5
2A4
100
AcDbEntity
  8
0
100
AcDbLine
 62
7
  6
CONTINUOUS
 10
17.6651428948
 20
2.3543254011
 11
17.5894788529
 21
2.3543254011
  0
LINE
  5
2A5
100
AcDbEntity
  8
0
100
AcDbLine
 62
7
  6
CONTINUOUS
 10
17.537475824
 20
2.3543254011
 11
17.4632707829
 21
2.3543254011
  0
LINE
  5
2A6
100
AcDbEntity
  8
0
100
AcDbLine
 62
7
  6
CONTINUOUS
 10
17.4168897572
 20
2.3543254011
 11
17.3412257152
 21
2.3543254011
  0
LINE
  5
2A7
100
AcDbEntity
  8
0
100
AcDbLine
 62
7
  6
CONTINUOUS
 10
16.8743904563
 20
2.3543254011
 11
17.0508365542
 21
2.3543254011
  0
LINE
  5
2A8
100
AcDbEntity
  8
0
100
AcDbLine
 62
7
  6
CONTINUOUS
 10
17.1083735861
 20
2.3543254011
 11
17.185749629
 21
2.3543254011
  0
LINE
  5
2A9
100
AcDbEntity
  8
0
100
AcDbLine
 62
7
  6
CONTINUOUS
 10
17.2060356402
 20
2.3543254011
 11
17.3113166986
 21
2.3543254011
  0
LINE
  5
2AA
100
AcDbEntity
  8
0
100
AcDbLine
 62
7
  6
CONTINUOUS
 10
18.1572301677
 20
2.3790534148
 11
18.1818891814
 21
2.3790534148
  0
LINE
  5
2AB
100
AcDbEntity
  8
0
100
AcDbLine
 62
7
  6
CONTINUOUS
 10
17.3113166986
 20
2.3790754148
 11
17.2913006875
 21
2.3790754148
  0
LINE
  5
2AC
100
AcDbEntity
  8
0
100
AcDbLine
 62
7
  6
CONTINUOUS
 10
17.2204866482
 20
2.3790754148
 11
17.2060356402
 21
2.3790754148
  0
LINE
  5
2AD
100
AcDbEntity
  8
0
100
AcDbLine
 62
7
  6
CONTINUOUS
 10
17.185749629
 20
2.3790754148
 11
17.1744666227
 21
2.3790754148
  0
LINE
  5
2AE
100
AcDbEntity
  8
0
100
AcDbLine
 62
7
  6
CONTINUOUS
 10
17.1312345987
 20
2.3790754148
 11
17.1083735861
 21
2.3790754148
  0
LINE
  5
2AF
100
AcDbEntity
  8
0
100
AcDbLine
 62
7
  6
CONTINUOUS
 10
17.0051585288
 20
2.3790754148
 11
16.9637955059
 21
2.3790754148
  0
LINE
  5
2B0
100
AcDbEntity
  8
0
100
AcDbLine
 62
7
  6
CONTINUOUS
 10
16.8983324696
 20
2.3790754148
 11
16.8743904563
 21
2.3790754148
  0
LINE
  5
2B1
100
AcDbEntity
  8
0
100
AcDbLine
 62
7
  6
CONTINUOUS
 10
17.3412257152
 20
2.3790754148
 11
17.3598727255
 21
2.3790754148
  0
LINE
  5
2B2
100
AcDbEntity
  8
0
100
AcDbLine
 62
7
  6
CONTINUOUS
 10
17.3965727459
 20
2.3790754148
 11
17.4168897572
 21
2.3790754148
  0
LINE
  5
2B3
100
AcDbEntity
  8
0
100
AcDbLine
 62
7
  6
CONTINUOUS
 10
17.5894788529
 20
2.3790754148
 11
17.6081248632
 21
2.3790754148
  0
LINE
  5
2B4
100
AcDbEntity
  8
0
100
AcDbLine
 62
7
  6
CONTINUOUS
 10
17.6448258836
 20
2.3790754148
 11
17.6651428948
 21
2.3790754148
  0
LINE
  5
2B5
100
AcDbEntity
  8
0
100
AcDbLine
 62
7
  6
CONTINUOUS
 10
17.8362019897
 20
2.3790754148
 11
17.860125003
 21
2.3790754148
  0
LINE
  5
2B6
100
AcDbEntity
  8
0
100
AcDbLine
 62
7
  6
CONTINUOUS
 10
17.9271410401
 20
2.3790754148
 11
17.9921450762
 21
2.3790754148
  0
LINE
  5
2B7
100
AcDbEntity
  8
0
100
AcDbLine
 62
7
  6
CONTINUOUS
 10
18.0683181184
 20
2.3790754148
 11
18.091064131
 21
2.3790754148
  0
LINE
  5
2B8
100
AcDbEntity
  8
0
100
AcDbLine
 62
7
  6
CONTINUOUS
 10
18.2741672326
 20
2.379462415
 11
18.2752762332
 21
2.379462415
  0
LINE
  5
2B9
100
AcDbEntity
  8
0
100
AcDbLine
 62
7
  6
CONTINUOUS
 10
17.9970950789
 20
2.3922754221
 11
18.0394141024
 21
2.3922754221
  0
LINE
  5
2BA
100
AcDbEntity
  8
0
100
AcDbLine
 62
7
  6
CONTINUOUS
 10
17.1799826258
 20
2.3927194224
 11
17.2148606451
 21
2.3927194224
  0
LINE
  5
2BB
100
AcDbEntity
  8
0
100
AcDbLine
 62
7
  6
CONTINUOUS
 10
18.2860312391
 20
2.3932124227
 11
18.2981412459
 21
2.3932124227
  0
LINE
  5
2BC
100
AcDbEntity
  8
0
100
AcDbLine
 62
7
  6
CONTINUOUS
 10
18.184837183
 20
2.3937024229
 11
18.1572301677
 21
2.3937024229
  0
LINE
  5
2BD
100
AcDbEntity
  8
0
100
AcDbLine
 62
7
  6
CONTINUOUS
 10
17.9623080596
 20
2.395575424
 11
17.9271410401
 21
2.395575424
  0
LINE
  5
2BE
100
AcDbEntity
  8
0
100
AcDbLine
 62
7
  6
CONTINUOUS
 10
16.9637955059
 20
2.3964004244
 11
17.0051585288
 21
2.3964004244
  0
LINE
  5
2BF
100
AcDbEntity
  8
0
100
AcDbLine
 62
7
  6
CONTINUOUS
 10
18.1911671865
 20
2.4127054335
 11
18.1572301677
 21
2.4127054335
  0
LINE
  5
2C0
100
AcDbEntity
  8
0
100
AcDbLine
 62
7
  6
CONTINUOUS
 10
16.9637955059
 20
2.4130554337
 11
17.0051585288
 21
2.4130554337
  0
LINE
  5
2C1
100
AcDbEntity
  8
0
100
AcDbLine
 62
7
  6
CONTINUOUS
 10
17.1884986305
 20
2.413669434
 11
17.2090556419
 21
2.413669434
  0
LINE
  5
2C2
100
AcDbEntity
  8
0
100
AcDbLine
 62
7
  6
CONTINUOUS
 10
17.9271410401
 20
2.4138804341
 11
17.9623080596
 21
2.4138804341
  0
LINE
  5
2C3
100
AcDbEntity
  8
0
100
AcDbLine
 62
7
  6
CONTINUOUS
 10
18.0379951016
 20
2.4171804359
 11
17.9961310784
 21
2.4171804359
  0
LINE
  5
2C4
100
AcDbEntity
  8
0
100
AcDbLine
 62
7
  6
CONTINUOUS
 10
17.2017966379
 20
2.429836443
 11
17.1956156344
 21
2.429836443
  0
LINE
  5
2C5
100
AcDbEntity
  8
0
100
AcDbLine
 62
7
  6
CONTINUOUS
 10
18.091064131
 20
2.4303804433
 11
18.0683181184
 21
2.4303804433
  0
LINE
  5
2C6
100
AcDbEntity
  8
0
100
AcDbLine
 62
7
  6
CONTINUOUS
 10
17.9911810756
 20
2.4303804433
 11
17.9271410401
 21
2.4303804433
  0
LINE
  5
2C7
100
AcDbEntity
  8
0
100
AcDbLine
 62
7
  6
CONTINUOUS
 10
17.860125003
 20
2.4303804433
 11
17.8362019897
 21
2.4303804433
  0
LINE
  5
2C8
100
AcDbEntity
  8
0
100
AcDbLine
 62
7
  6
CONTINUOUS
 10
17.8086119744
 20
2.4303804433
 11
17.7906789644
 21
2.4303804433
  0
LINE
  5
2C9
100
AcDbEntity
  8
0
100
AcDbLine
 62
7
  6
CONTINUOUS
 10
17.7533869438
 20
2.4303804433
 11
17.7346109333
 21
2.4303804433
  0
LINE
  5
2CA
100
AcDbEntity
  8
0
100
AcDbLine
 62
7
  6
CONTINUOUS
 10
17.6081248632
 20
2.4303804433
 11
17.5894788529
 21
2.4303804433
  0
LINE
  5
2CB
100
AcDbEntity
  8
0
100
AcDbLine
 62
7
  6
CONTINUOUS
 10
17.5603588367
 20
2.4303804433
 11
17.5424258268
 21
2.4303804433
  0
LINE
  5
2CC
100
AcDbEntity
  8
0
100
AcDbLine
 62
7
  6
CONTINUOUS
 10
17.5051338061
 20
2.4303804433
 11
17.4863577957
 21
2.4303804433
  0
LINE
  5
2CD
100
AcDbEntity
  8
0
100
AcDbLine
 62
7
  6
CONTINUOUS
 10
17.3598727255
 20
2.4303804433
 11
17.3412257152
 21
2.4303804433
  0
LINE
  5
2CE
100
AcDbEntity
  8
0
100
AcDbLine
 62
7
  6
CONTINUOUS
 10
17.0051585288
 20
2.4303804433
 11
16.9637955059
 21
2.4303804433
  0
LINE
  5
2CF
100
AcDbEntity
  8
0
100
AcDbLine
 62
7
  6
CONTINUOUS
 10
16.8743904563
 20
2.4303804433
 11
16.8983324696
 21
2.4303804433
  0
LINE
  5
2D0
100
AcDbEntity
  8
0
100
AcDbLine
 62
7
  6
CONTINUOUS
 10
18.1572301677
 20
2.4303804433
 11
18.1940311881
 21
2.4303804433
  0
LINE
  5
2D1
100
AcDbEntity
  8
0
100
AcDbLine
 62
7
  6
CONTINUOUS
 10
17.2393896587
 20
2.455130457
 11
17.182214627
 21
2.455130457
  0
LINE
  5
2D2
100
AcDbEntity
  8
0
100
AcDbLine
 62
7
  6
CONTINUOUS
 10
17.0404535484
 20
2.455130457
 11
16.8743904563
 21
2.455130457
  0
LINE
  5
2D3
100
AcDbEntity
  8
0
100
AcDbLine
 62
7
  6
CONTINUOUS
 10
17.3412257152
 20
2.455130457
 11
17.4416837709
 21
2.455130457
  0
LINE
  5
2D4
100
AcDbEntity
  8
0
100
AcDbLine
 62
7
  6
CONTINUOUS
 10
17.4863577957
 20
2.455130457
 11
17.5603588367
 21
2.455130457
  0
LINE
  5
2D5
100
AcDbEntity
  8
0
100
AcDbLine
 62
7
  6
CONTINUOUS
 10
17.5894788529
 20
2.455130457
 11
17.6899369086
 21
2.455130457
  0
LINE
  5
2D6
100
AcDbEntity
  8
0
100
AcDbLine
 62
7
  6
CONTINUOUS
 10
17.7346109333
 20
2.455130457
 11
17.8086119744
 21
2.455130457
  0
LINE
  5
2D7
100
AcDbEntity
  8
0
100
AcDbLine
 62
7
  6
CONTINUOUS
 10
17.8362019897
 20
2.455130457
 11
18.0379951016
 21
2.455130457
  0
LINE
  5
2D8
100
AcDbEntity
  8
0
100
AcDbLine
 62
7
  6
CONTINUOUS
 10
18.0683181184
 20
2.455130457
 11
18.2178992014
 21
2.455130457
  0
LINE
  5
2D9
100
AcDbEntity
  8
0
100
AcDbLine
 62
7
  6
CONTINUOUS
 10
17.0697205646
 20
2.4006414268
 11
17.059669559
 21
2.4041904287
  0
LINE
  5
2DA
100
AcDbEntity
  8
0
100
AcDbLine
 62
7
  6
CONTINUOUS
 10
17.4615617819
 20
2.3550094015
 11
17.3982817468
 21
2.415387435
  0
LINE
  5
2DB
100
AcDbEntity
  8
0
100
AcDbLine
 62
7
  6
CONTINUOUS
 10
17.4433917718
 20
2.4544464566
 11
17.5034248051
 21
2.3971664249
  0
LINE
  5
2DC
100
AcDbEntity
  8
0
100
AcDbLine
 62
7
  6
CONTINUOUS
 10
17.7098149196
 20
2.3550094015
 11
17.6465348845
 21
2.415387435
  0
LINE
  5
2DD
100
AcDbEntity
  8
0
100
AcDbLine
 62
7
  6
CONTINUOUS
 10
17.6916449095
 20
2.4544464566
 11
17.7516779428
 21
2.3971664249
  0
LINE
  5
2DE
100
AcDbEntity
  8
0
100
AcDbLine
 62
7
  6
CONTINUOUS
 10
17.2169386463
 20
2.3915884218
 11
17.2225646494
 21
2.3828954169
  0
LINE
  5
2DF
100
AcDbEntity
  8
0
100
AcDbLine
 62
7
  6
CONTINUOUS
 10
17.211133643
 20
2.4174894361
 11
17.203874639
 21
2.4287054423
  0
LINE
  5
2E0
100
AcDbEntity
  8
0
100
AcDbLine
 62
7
  6
CONTINUOUS
 10
17.2892236864
 20
2.3802054154
 11
17.2414676599
 21
2.4540004564
  0
LINE
  5
2E1
100
AcDbEntity
  8
0
100
AcDbLine
 62
7
  6
CONTINUOUS
 10
18.206476195
 20
2.3723714111
 11
18.204672194
 21
2.3784404145
  0
LINE
  5
2E2
100
AcDbEntity
  8
0
100
AcDbLine
 62
7
  6
CONTINUOUS
 10
16.8719154549
 20
2.4526554556
 11
16.8719154549
 21
2.4328554446
  0
LINE
  5
2E3
100
AcDbEntity
  8
0
100
AcDbLine
 62
7
  6
CONTINUOUS
 10
16.8719154549
 20
2.3766004134
 11
16.8719154549
 21
2.3568004025
  0
LINE
  5
2E4
100
AcDbEntity
  8
0
100
AcDbLine
 62
7
  6
CONTINUOUS
 10
16.9008074709
 20
2.4279054419
 11
16.9008074709
 21
2.3815504162
  0
LINE
  5
2E5
100
AcDbEntity
  8
0
100
AcDbLine
 62
7
  6
CONTINUOUS
 10
16.9613205045
 20
2.4279054419
 11
16.9613205045
 21
2.415530435
  0
LINE
  5
2E6
100
AcDbEntity
  8
0
100
AcDbLine
 62
7
  6
CONTINUOUS
 10
16.9613205045
 20
2.3815504162
 11
16.9613205045
 21
2.3939254231
  0
LINE
  5
2E7
100
AcDbEntity
  8
0
100
AcDbLine
 62
7
  6
CONTINUOUS
 10
17.1058985847
 20
2.3766004134
 11
17.1058985847
 21
2.3568004025
  0
LINE
  5
2E8
100
AcDbEntity
  8
0
100
AcDbLine
 62
7
  6
CONTINUOUS
 10
17.1882246303
 20
2.3568004025
 11
17.1882246303
 21
2.3766004134
  0
LINE
  5
2E9
100
AcDbEntity
  8
0
100
AcDbLine
 62
7
  6
CONTINUOUS
 10
17.2035606388
 20
2.3766004134
 11
17.2035606388
 21
2.3568004025
  0
LINE
  5
2EA
100
AcDbEntity
  8
0
100
AcDbLine
 62
7
  6
CONTINUOUS
 10
17.3137917
 20
2.3568004025
 11
17.3137917
 21
2.3766004134
  0
LINE
  5
2EB
100
AcDbEntity
  8
0
100
AcDbLine
 62
7
  6
CONTINUOUS
 10
17.3387507138
 20
2.3568004025
 11
17.3387507138
 21
2.3766004134
  0
LINE
  5
2EC
100
AcDbEntity
  8
0
100
AcDbLine
 62
7
  6
CONTINUOUS
 10
17.3387507138
 20
2.4328554446
 11
17.3387507138
 21
2.4526554556
  0
LINE
  5
2ED
100
AcDbEntity
  8
0
100
AcDbLine
 62
7
  6
CONTINUOUS
 10
17.3623477269
 20
2.3815504162
 11
17.3623477269
 21
2.4279054419
  0
LINE
  5
2EE
100
AcDbEntity
  8
0
100
AcDbLine
 62
7
  6
CONTINUOUS
 10
17.3940977445
 20
2.413596434
 11
17.3940977445
 21
2.3815504162
  0
LINE
  5
2EF
100
AcDbEntity
  8
0
100
AcDbLine
 62
7
  6
CONTINUOUS
 10
17.4193647585
 20
2.3766004134
 11
17.4193647585
 21
2.3568004025
  0
LINE
  5
2F0
100
AcDbEntity
  8
0
100
AcDbLine
 62
7
  6
CONTINUOUS
 10
17.4838827943
 20
2.4328554446
 11
17.4838827943
 21
2.4526554556
  0
LINE
  5
2F1
100
AcDbEntity
  8
0
100
AcDbLine
 62
7
  6
CONTINUOUS
 10
17.5076088075
 20
2.3989574258
 11
17.5076088075
 21
2.4279054419
  0
LINE
  5
2F2
100
AcDbEntity
  8
0
100
AcDbLine
 62
7
  6
CONTINUOUS
 10
17.5399508254
 20
2.4279054419
 11
17.5399508254
 21
2.3568004025
  0
LINE
  5
2F3
100
AcDbEntity
  8
0
100
AcDbLine
 62
7
  6
CONTINUOUS
 10
17.5628338381
 20
2.4526554556
 11
17.5628338381
 21
2.4328554446
  0
LINE
  5
2F4
100
AcDbEntity
  8
0
100
AcDbLine
 62
7
  6
CONTINUOUS
 10
17.5870038515
 20
2.3568004025
 11
17.5870038515
 21
2.3766004134
  0
LINE
  5
2F5
100
AcDbEntity
  8
0
100
AcDbLine
 62
7
  6
CONTINUOUS
 10
17.5870038515
 20
2.4328554446
 11
17.5870038515
 21
2.4526554556
  0
LINE
  5
2F6
100
AcDbEntity
  8
0
100
AcDbLine
 62
7
  6
CONTINUOUS
 10
17.6105998646
 20
2.3815504162
 11
17.6105998646
 21
2.4279054419
  0
LINE
  5
2F7
100
AcDbEntity
  8
0
100
AcDbLine
 62
7
  6
CONTINUOUS
 10
17.6423508822
 20
2.413596434
 11
17.6423508822
 21
2.3815504162
  0
LINE
  5
2F8
100
AcDbEntity
  8
0
100
AcDbLine
 62
7
  6
CONTINUOUS
 10
17.6676178962
 20
2.3766004134
 11
17.6676178962
 21
2.3568004025
  0
LINE
  5
2F9
100
AcDbEntity
  8
0
100
AcDbLine
 62
7
  6
CONTINUOUS
 10
17.732135932
 20
2.4328554446
 11
17.732135932
 21
2.4526554556
  0
LINE
  5
2FA
100
AcDbEntity
  8
0
100
AcDbLine
 62
7
  6
CONTINUOUS
 10
17.7558619451
 20
2.3989574258
 11
17.7558619451
 21
2.4279054419
  0
LINE
  5
2FB
100
AcDbEntity
  8
0
100
AcDbLine
 62
7
  6
CONTINUOUS
 10
17.7882039631
 20
2.4279054419
 11
17.7882039631
 21
2.3568004025
  0
LINE
  5
2FC
100
AcDbEntity
  8
0
100
AcDbLine
 62
7
  6
CONTINUOUS
 10
17.8110869758
 20
2.4526554556
 11
17.8110869758
 21
2.4328554446
  0
LINE
  5
2FD
100
AcDbEntity
  8
0
100
AcDbLine
 62
7
  6
CONTINUOUS
 10
17.8337269883
 20
2.3568004025
 11
17.8337269883
 21
2.3766004134
  0
LINE
  5
2FE
100
AcDbEntity
  8
0
100
AcDbLine
 62
7
  6
CONTINUOUS
 10
17.8337269883
 20
2.4328554446
 11
17.8337269883
 21
2.4526554556
  0
LINE
  5
2FF
100
AcDbEntity
  8
0
100
AcDbLine
 62
7
  6
CONTINUOUS
 10
17.8626000043
 20
2.3815504162
 11
17.8626000043
 21
2.4279054419
  0
LINE
  5
300
100
AcDbEntity
  8
0
100
AcDbLine
 62
7
  6
CONTINUOUS
 10
17.9246660387
 20
2.4279054419
 11
17.9246660387
 21
2.4163554355
  0
LINE
  5
301
100
AcDbEntity
  8
0
100
AcDbLine
 62
7
  6
CONTINUOUS
 10
17.9246660387
 20
2.3931004226
 11
17.9246660387
 21
2.3815504162
  0
LINE
  5
302
100
AcDbEntity
  8
0
100
AcDbLine
 62
7
  6
CONTINUOUS
 10
17.964783061
 20
2.4114054327
 11
17.964783061
 21
2.3980504253
  0
LINE
  5
303
100
AcDbEntity
  8
0
100
AcDbLine
 62
7
  6
CONTINUOUS
 10
17.993656077
 20
2.4196554373
 11
17.993656077
 21
2.4279054419
  0
LINE
  5
304
100
AcDbEntity
  8
0
100
AcDbLine
 62
7
  6
CONTINUOUS
 10
17.9946200775
 20
2.3815504162
 11
17.9946200775
 21
2.3898004208
  0
LINE
  5
305
100
AcDbEntity
  8
0
100
AcDbLine
 62
7
  6
CONTINUOUS
 10
18.040470103
 20
2.4526554556
 11
18.040470103
 21
2.4196554373
  0
LINE
  5
306
100
AcDbEntity
  8
0
100
AcDbLine
 62
7
  6
CONTINUOUS
 10
18.0418891038
 20
2.3898004208
 11
18.0418891038
 21
2.3568004025
  0
LINE
  5
307
100
AcDbEntity
  8
0
100
AcDbLine
 62
7
  6
CONTINUOUS
 10
18.065843117
 20
2.3568004025
 11
18.065843117
 21
2.3766004134
  0
LINE
  5
308
100
AcDbEntity
  8
0
100
AcDbLine
 62
7
  6
CONTINUOUS
 10
18.065843117
 20
2.4328554446
 11
18.065843117
 21
2.4526554556
  0
LINE
  5
309
100
AcDbEntity
  8
0
100
AcDbLine
 62
7
  6
CONTINUOUS
 10
18.0935391324
 20
2.3815504162
 11
18.0935391324
 21
2.4279054419
  0
LINE
  5
30A
100
AcDbEntity
  8
0
100
AcDbLine
 62
7
  6
CONTINUOUS
 10
18.1547551663
 20
2.3912274216
 11
18.1547551663
 21
2.3815284162
  0
LINE
  5
30B
100
AcDbEntity
  8
0
100
AcDbLine
 62
7
  6
CONTINUOUS
 10
18.1547551663
 20
2.4151804348
 11
18.1547551663
 21
2.4279054419
  0
LINE
  5
30C
100
AcDbEntity
  8
0
100
AcDbLine
 62
7
  6
CONTINUOUS
 10
18.1843641828
 20
2.3765784134
 11
18.1843641828
 21
2.3568004025
  0
LINE
  5
30D
100
AcDbEntity
  8
0
100
AcDbLine
 62
7
  6
CONTINUOUS
 10
18.2835562378
 20
2.3881114198
 11
18.2835562378
 21
2.3907374213
  0
LINE
  5
30E
100
AcDbEntity
  8
0
100
AcDbLine
 62
7
  6
CONTINUOUS
 10
18.3006162472
 20
2.3907374213
 11
18.3006162472
 21
2.3791854149
  0
LINE
  5
30F
100
AcDbEntity
  8
0
100
AcDbLine
 62
7
  6
CONTINUOUS
 10
18.3975725422
 20
2.3981678251
 11
18.3975725422
 21
2.4087850316
  0
LINE
  5
310
100
AcDbEntity
  8
0
100
AcDbLine
 62
7
  6
CONTINUOUS
 10
17.1801246258
 20
2.4539814564
 11
17.1333245999
 21
2.3802244155
  0
LINE
  5
311
100
AcDbEntity
  8
0
100
AcDbLine
 62
7
  6
CONTINUOUS
 10
17.1935256333
 20
2.4286874423
 11
17.1864086293
 21
2.4174704361
  0
LINE
  5
312
100
AcDbEntity
  8
0
100
AcDbLine
 62
7
  6
CONTINUOUS
 10
17.1723766216
 20
2.3828764169
 11
17.1778926246
 21
2.3915704217
  0
LINE
  5
313
100
AcDbEntity
  8
0
100
AcDbLine
 62
7
  6
CONTINUOUS
 10
17.059669559
 20
2.4041904287
 11
17.0679095636
 21
2.4089664314
  0
ARC
  5
314
100
AcDbEntity
  8
0
100
AcDbCircle
 62
7
  6
CONTINUOUS
 10
17.4632701481
 20
2.3568008172
 40
0.0024754162
100
AcDbArc
 50
226.3593695814
 51
270.0146919953
  0
ARC
  5
315
100
AcDbEntity
  8
0
100
AcDbCircle
 62
7
  6
CONTINUOUS
 10
16.8743904545
 20
2.3568004006
 40
0.0024749995
100
AcDbArc
 50
179.9999571957
 51
270.0000428043
  0
ARC
  5
316
100
AcDbEntity
  8
0
100
AcDbCircle
 62
7
  6
CONTINUOUS
 10
17.5374758259
 20
2.3568004006
 40
0.0024749995
100
AcDbArc
 50
269.9999571957
 51
0.0000428043
  0
ARC
  5
317
100
AcDbEntity
  8
0
100
AcDbCircle
 62
7
  6
CONTINUOUS
 10
17.416889759
 20
2.3568004006
 40
0.0024749995
100
AcDbArc
 50
269.9999571957
 51
0.0000428043
  0
ARC
  5
318
100
AcDbEntity
  8
0
100
AcDbCircle
 62
7
  6
CONTINUOUS
 10
17.3412257133
 20
2.3568004006
 40
0.0024749995
100
AcDbArc
 50
179.9999571957
 51
270.0000428043
  0
ARC
  5
319
100
AcDbEntity
  8
0
100
AcDbCircle
 62
7
  6
CONTINUOUS
 10
17.2060356384
 20
2.3568004006
 40
0.0024749995
100
AcDbArc
 50
179.9999571957
 51
270.0000428043
  0
ARC
  5
31A
100
AcDbEntity
  8
0
100
AcDbCircle
 62
7
  6
CONTINUOUS
 10
17.3113167005
 20
2.3568004006
 40
0.0024749995
100
AcDbArc
 50
269.9999571957
 51
0.0000428043
  0
ARC
  5
31B
100
AcDbEntity
  8
0
100
AcDbCircle
 62
7
  6
CONTINUOUS
 10
17.1083735842
 20
2.3568004006
 40
0.0024749995
100
AcDbArc
 50
179.9999571957
 51
270.0000428043
  0
ARC
  5
31C
100
AcDbEntity
  8
0
100
AcDbCircle
 62
7
  6
CONTINUOUS
 10
17.1857496308
 20
2.3568004006
 40
0.0024749995
100
AcDbArc
 50
269.9999571958
 51
0.0000428044
  0
ARC
  5
31D
100
AcDbEntity
  8
0
100
AcDbCircle
 62
7
  6
CONTINUOUS
 10
17.0404590422
 20
2.3933827403
 40
0.061747717
100
AcDbArc
 50
59.5385584989
 51
90.0050977555
  0
ARC
  5
31E
100
AcDbEntity
  8
0
100
AcDbCircle
 62
7
  6
CONTINUOUS
 10
17.0481152095
 20
2.4027328529
 40
0.048483885
100
AcDbArc
 50
273.21763719
 51
303.0749121182
  0
ARC
  5
31F
100
AcDbEntity
  8
0
100
AcDbCircle
 62
7
  6
CONTINUOUS
 10
17.0620614151
 20
2.3797859164
 40
0.0222174455
100
AcDbArc
 50
4.0793399388
 51
69.834329283
  0
ARC
  5
320
100
AcDbEntity
  8
0
100
AcDbCircle
 62
7
  6
CONTINUOUS
 10
17.0629546036
 20
2.379965244
 40
0.0213072145
100
AcDbArc
 50
303.0488228549
 51
355.7263138674
  0
ARC
  5
321
100
AcDbEntity
  8
0
100
AcDbCircle
 62
7
  6
CONTINUOUS
 10
17.0688911042
 20
2.3799744343
 40
0.0153945295
100
AcDbArc
 50
354.0454548824
 51
5.1878013979
  0
ARC
  5
322
100
AcDbEntity
  8
0
100
AcDbCircle
 62
7
  6
CONTINUOUS
 10
17.0051585288
 20
2.3877379196
 40
0.0086625048
100
AcDbArc
 50
270.0
 51
90.0
  0
ARC
  5
323
100
AcDbEntity
  8
0
100
AcDbCircle
 62
7
  6
CONTINUOUS
 10
17.2148601055
 20
2.3902439622
 40
0.0024754602
100
AcDbArc
 50
32.8959418573
 51
89.9875097202
  0
ARC
  5
324
100
AcDbEntity
  8
0
100
AcDbCircle
 62
7
  6
CONTINUOUS
 10
17.131234669
 20
2.3815506151
 40
0.0024752003
100
AcDbArc
 50
269.9983726451
 51
327.602165307
  0
ARC
  5
325
100
AcDbEntity
  8
0
100
AcDbCircle
 62
7
  6
CONTINUOUS
 10
17.1799825555
 20
2.3902442221
 40
0.0024752003
100
AcDbArc
 50
89.998372645
 51
147.602165307
  0
ARC
  5
326
100
AcDbEntity
  8
0
100
AcDbCircle
 62
7
  6
CONTINUOUS
 10
17.1744665134
 20
2.3815504549
 40
0.0024750401
100
AcDbArc
 50
147.6063258011
 51
270.0025305754
  0
ARC
  5
327
100
AcDbEntity
  8
0
100
AcDbCircle
 62
7
  6
CONTINUOUS
 10
16.8983324714
 20
2.3815504143
 40
0.0024749995
100
AcDbArc
 50
269.9999571957
 51
0.0000428043
  0
ARC
  5
328
100
AcDbEntity
  8
0
100
AcDbCircle
 62
7
  6
CONTINUOUS
 10
16.8743904545
 20
2.3766004153
 40
0.0024749995
100
AcDbArc
 50
89.9999571957
 51
180.0000428043
  0
ARC
  5
329
100
AcDbEntity
  8
0
100
AcDbCircle
 62
7
  6
CONTINUOUS
 10
16.963795504
 20
2.3939254249
 40
0.0024749995
100
AcDbArc
 50
89.9999571957
 51
180.0000428043
  0
ARC
  5
32A
100
AcDbEntity
  8
0
100
AcDbCircle
 62
7
  6
CONTINUOUS
 10
16.963795504
 20
2.3815504143
 40
0.0024749995
100
AcDbArc
 50
179.9999571957
 51
270.0000428043
  0
ARC
  5
32B
100
AcDbEntity
  8
0
100
AcDbCircle
 62
7
  6
CONTINUOUS
 10
17.2060356384
 20
2.3766004153
 40
0.0024749995
100
AcDbArc
 50
89.9999571957
 51
180.0000428043
  0
ARC
  5
32C
100
AcDbEntity
  8
0
100
AcDbCircle
 62
7
  6
CONTINUOUS
 10
17.1083735842
 20
2.3766004153
 40
0.0024749995
100
AcDbArc
 50
89.9999571957
 51
180.0000428043
  0
ARC
  5
32D
100
AcDbEntity
  8
0
100
AcDbCircle
 62
7
  6
CONTINUOUS
 10
17.1857496308
 20
2.3766004153
 40
0.0024749995
100
AcDbArc
 50
359.9999571957
 51
90.0000428043
  0
ARC
  5
32E
100
AcDbEntity
  8
0
100
AcDbCircle
 62
7
  6
CONTINUOUS
 10
17.0460441811
 20
2.445793323
 40
0.0428289026
100
AcDbArc
 50
300.6990502959
 51
319.0591802498
  0
ARC
  5
32F
100
AcDbEntity
  8
0
100
AcDbCircle
 62
7
  6
CONTINUOUS
 10
17.0611211659
 20
2.4263113051
 40
0.0229166529
100
AcDbArc
 50
20.6563876465
 51
62.3316896973
  0
ARC
  5
330
100
AcDbEntity
  8
0
100
AcDbCircle
 62
7
  6
CONTINUOUS
 10
17.0660727781
 20
2.4296649696
 40
0.0171568255
100
AcDbArc
 50
315.9145124245
 51
16.0049121283
  0
ARC
  5
331
100
AcDbEntity
  8
0
100
AcDbCircle
 62
7
  6
CONTINUOUS
 10
17.0051585288
 20
2.4217179385
 40
0.0086625048
100
AcDbArc
 50
270.0
 51
90.0
  0
ARC
  5
332
100
AcDbEntity
  8
0
100
AcDbCircle
 62
7
  6
CONTINUOUS
 10
17.2017960982
 20
2.4273609828
 40
0.0024754602
100
AcDbArc
 50
32.8959418573
 51
89.9875097202
  0
ARC
  5
333
100
AcDbEntity
  8
0
100
AcDbCircle
 62
7
  6
CONTINUOUS
 10
17.2090556207
 20
2.4161446411
 40
0.0024752071
100
AcDbArc
 50
270.0004896793
 51
32.9089806818
  0
ARC
  5
334
100
AcDbEntity
  8
0
100
AcDbCircle
 62
7
  6
CONTINUOUS
 10
17.1956155641
 20
2.4273612427
 40
0.0024752003
100
AcDbArc
 50
89.998372645
 51
147.602165307
  0
ARC
  5
335
100
AcDbEntity
  8
0
100
AcDbCircle
 62
7
  6
CONTINUOUS
 10
17.1822145567
 20
2.4526552567
 40
0.0024752003
100
AcDbArc
 50
89.998372645
 51
147.602165307
  0
ARC
  5
336
100
AcDbEntity
  8
0
100
AcDbCircle
 62
7
  6
CONTINUOUS
 10
17.1884985212
 20
2.4161444741
 40
0.0024750401
100
AcDbArc
 50
147.6063258012
 51
270.0025305754
  0
ARC
  5
337
100
AcDbEntity
  8
0
100
AcDbCircle
 62
7
  6
CONTINUOUS
 10
16.8743904545
 20
2.4526554575
 40
0.0024749995
100
AcDbArc
 50
89.9999571957
 51
180.0000428043
  0
ARC
  5
338
100
AcDbEntity
  8
0
100
AcDbCircle
 62
7
  6
CONTINUOUS
 10
16.8743904545
 20
2.4328554428
 40
0.0024749995
100
AcDbArc
 50
179.9999571957
 51
270.0000428043
  0
ARC
  5
339
100
AcDbEntity
  8
0
100
AcDbCircle
 62
7
  6
CONTINUOUS
 10
16.8983324714
 20
2.4279054437
 40
0.0024749995
100
AcDbArc
 50
359.9999571957
 51
90.0000428043
  0
ARC
  5
33A
100
AcDbEntity
  8
0
100
AcDbCircle
 62
7
  6
CONTINUOUS
 10
16.963795504
 20
2.4279054437
 40
0.0024749995
100
AcDbArc
 50
89.9999571957
 51
180.0000428043
  0
ARC
  5
33B
100
AcDbEntity
  8
0
100
AcDbCircle
 62
7
  6
CONTINUOUS
 10
16.963795504
 20
2.4155304332
 40
0.0024749995
100
AcDbArc
 50
179.9999571957
 51
270.0000428043
  0
ARC
  5
33C
100
AcDbEntity
  8
0
100
AcDbCircle
 62
7
  6
CONTINUOUS
 10
17.5051335061
 20
2.3989573626
 40
0.0024753014
100
AcDbArc
 50
226.3461263059
 51
0.0014637321
  0
ARC
  5
33D
100
AcDbEntity
  8
0
100
AcDbCircle
 62
7
  6
CONTINUOUS
 10
17.3965730459
 20
2.4135964972
 40
0.0024753014
100
AcDbArc
 50
46.3461263059
 51
180.0014637321
  0
ARC
  5
33E
100
AcDbEntity
  8
0
100
AcDbCircle
 62
7
  6
CONTINUOUS
 10
17.2204866271
 20
2.3815506219
 40
0.0024752071
100
AcDbArc
 50
270.0004896793
 51
32.9089806818
  0
ARC
  5
33F
100
AcDbEntity
  8
0
100
AcDbCircle
 62
7
  6
CONTINUOUS
 10
17.396572744
 20
2.3815504143
 40
0.0024749995
100
AcDbArc
 50
179.9999571957
 51
270.0000428043
  0
ARC
  5
340
100
AcDbEntity
  8
0
100
AcDbCircle
 62
7
  6
CONTINUOUS
 10
17.416889759
 20
2.3766004153
 40
0.0024749995
100
AcDbArc
 50
359.9999571957
 51
90.0000428043
  0
ARC
  5
341
100
AcDbEntity
  8
0
100
AcDbCircle
 62
7
  6
CONTINUOUS
 10
17.3412257133
 20
2.3766004153
 40
0.0024749995
100
AcDbArc
 50
89.9999571957
 51
180.0000428043
  0
ARC
  5
342
100
AcDbEntity
  8
0
100
AcDbCircle
 62
7
  6
CONTINUOUS
 10
17.3598727274
 20
2.3815504143
 40
0.0024749995
100
AcDbArc
 50
269.9999571957
 51
0.0000428043
  0
ARC
  5
343
100
AcDbEntity
  8
0
100
AcDbCircle
 62
7
  6
CONTINUOUS
 10
17.3113167005
 20
2.3766004153
 40
0.0024749995
100
AcDbArc
 50
359.9999571957
 51
90.0000428043
  0
ARC
  5
344
100
AcDbEntity
  8
0
100
AcDbCircle
 62
7
  6
CONTINUOUS
 10
17.291300808
 20
2.3815494558
 40
0.002474041
100
AcDbArc
 50
212.9056413127
 51
269.9972091755
  0
ARC
  5
345
100
AcDbEntity
  8
0
100
AcDbCircle
 62
7
  6
CONTINUOUS
 10
17.5051338079
 20
2.4279054437
 40
0.0024749995
100
AcDbArc
 50
359.9999571957
 51
90.0000428043
  0
ARC
  5
346
100
AcDbEntity
  8
0
100
AcDbCircle
 62
7
  6
CONTINUOUS
 10
17.4863577938
 20
2.4328554428
 40
0.0024749995
100
AcDbArc
 50
179.9999571957
 51
270.0000428043
  0
ARC
  5
347
100
AcDbEntity
  8
0
100
AcDbCircle
 62
7
  6
CONTINUOUS
 10
17.4863577938
 20
2.4526554575
 40
0.0024749995
100
AcDbArc
 50
89.9999571957
 51
180.0000428043
  0
ARC
  5
348
100
AcDbEntity
  8
0
100
AcDbCircle
 62
7
  6
CONTINUOUS
 10
17.5603588386
 20
2.4526554575
 40
0.0024749995
100
AcDbArc
 50
359.9999571957
 51
90.0000428043
  0
ARC
  5
349
100
AcDbEntity
  8
0
100
AcDbCircle
 62
7
  6
CONTINUOUS
 10
17.5603588386
 20
2.4328554428
 40
0.0024749995
100
AcDbArc
 50
269.9999571957
 51
0.0000428043
  0
ARC
  5
34A
100
AcDbEntity
  8
0
100
AcDbCircle
 62
7
  6
CONTINUOUS
 10
17.5424258249
 20
2.4279054437
 40
0.0024749995
100
AcDbArc
 50
89.9999571957
 51
180.0000428043
  0
ARC
  5
34B
100
AcDbEntity
  8
0
100
AcDbCircle
 62
7
  6
CONTINUOUS
 10
17.3598727274
 20
2.4279054437
 40
0.0024749995
100
AcDbArc
 50
359.9999571957
 51
90.0000428043
  0
ARC
  5
34C
100
AcDbEntity
  8
0
100
AcDbCircle
 62
7
  6
CONTINUOUS
 10
17.3412257133
 20
2.4328554428
 40
0.0024749995
100
AcDbArc
 50
179.9999571957
 51
270.0000428043
  0
ARC
  5
34D
100
AcDbEntity
  8
0
100
AcDbCircle
 62
7
  6
CONTINUOUS
 10
17.3412257133
 20
2.4526554575
 40
0.0024749995
100
AcDbArc
 50
89.9999571957
 51
180.0000428043
  0
ARC
  5
34E
100
AcDbEntity
  8
0
100
AcDbCircle
 62
7
  6
CONTINUOUS
 10
17.2393900382
 20
2.4526554968
 40
0.0024749602
100
AcDbArc
 50
32.9172174468
 51
90.0087853097
  0
ARC
  5
34F
100
AcDbEntity
  8
0
100
AcDbCircle
 62
7
  6
CONTINUOUS
 10
17.4416839057
 20
2.4526562892
 40
0.0024741678
100
AcDbArc
 50
46.3477981899
 51
90.0031206038
  0
ARC
  5
350
100
AcDbEntity
  8
0
100
AcDbCircle
 62
7
  6
CONTINUOUS
 10
18.2152358981
 20
2.2725915465
 40
0.1825583387
100
AcDbArc
 50
79.8618509324
 51
89.1640948679
  0
ARC
  5
351
100
AcDbEntity
  8
0
100
AcDbCircle
 62
7
  6
CONTINUOUS
 10
18.197141171
 20
2.3016991173
 40
0.117346916
100
AcDbArc
 50
58.614769177
 51
62.3737227606
  0
ARC
  5
352
100
AcDbEntity
  8
0
100
AcDbCircle
 62
7
  6
CONTINUOUS
 10
18.2260032264
 20
2.3725718859
 40
0.0459185159
100
AcDbArc
 50
15.6740290068
 51
20.9917271228
  0
ARC
  5
353
100
AcDbEntity
  8
0
100
AcDbCircle
 62
7
  6
CONTINUOUS
 10
18.1662929967
 20
2.368643334
 40
0.0396099176
100
AcDbArc
 50
14.3201081283
 51
22.4984722084
  0
ARC
  5
354
100
AcDbEntity
  8
0
100
AcDbCircle
 62
7
  6
CONTINUOUS
 10
18.1850046504
 20
2.3693353402
 40
0.0243676582
100
AcDbArc
 50
63.3666028271
 51
90.3937697637
  0
ARC
  5
355
100
AcDbEntity
  8
0
100
AcDbCircle
 62
7
  6
CONTINUOUS
 10
18.2724993219
 20
2.3741987064
 40
0.0198837666
100
AcDbArc
 50
271.8586572978
 51
289.4131338543
  0
ARC
  5
356
100
AcDbEntity
  8
0
100
AcDbCircle
 62
7
  6
CONTINUOUS
 10
18.2265855264
 20
2.3716475527
 40
0.0173408616
100
AcDbArc
 50
232.4713476722
 51
267.338189944
  0
ARC
  5
357
100
AcDbEntity
  8
0
100
AcDbCircle
 62
7
  6
CONTINUOUS
 10
18.1818891832
 20
2.3568004006
 40
0.0024749995
100
AcDbArc
 50
269.9999571957
 51
0.0000428043
  0
ARC
  5
358
100
AcDbEntity
  8
0
100
AcDbCircle
 62
7
  6
CONTINUOUS
 10
18.0683181166
 20
2.3568004006
 40
0.0024749995
100
AcDbArc
 50
179.9999571957
 51
270.0000428043
  0
ARC
  5
359
100
AcDbEntity
  8
0
100
AcDbCircle
 62
7
  6
CONTINUOUS
 10
17.7857289635
 20
2.3568004006
 40
0.0024749995
100
AcDbArc
 50
269.9999571957
 51
0.0000428043
  0
ARC
  5
35A
100
AcDbEntity
  8
0
100
AcDbCircle
 62
7
  6
CONTINUOUS
 10
17.6651428967
 20
2.3568004006
 40
0.0024749995
100
AcDbArc
 50
269.9999571957
 51
0.0000428043
  0
ARC
  5
35B
100
AcDbEntity
  8
0
100
AcDbCircle
 62
7
  6
CONTINUOUS
 10
17.589478851
 20
2.3568004006
 40
0.0024749995
100
AcDbArc
 50
179.9999571957
 51
270.0000428043
  0
ARC
  5
35C
100
AcDbEntity
  8
0
100
AcDbCircle
 62
7
  6
CONTINUOUS
 10
18.0394141042
 20
2.3568004006
 40
0.0024749995
100
AcDbArc
 50
269.9999571957
 51
0.0000428043
  0
ARC
  5
35D
100
AcDbEntity
  8
0
100
AcDbCircle
 62
7
  6
CONTINUOUS
 10
17.8362019878
 20
2.3568004006
 40
0.0024749995
100
AcDbArc
 50
179.9999571957
 51
270.0000428043
  0
ARC
  5
35E
100
AcDbEntity
  8
0
100
AcDbCircle
 62
7
  6
CONTINUOUS
 10
17.7115227858
 20
2.3567995689
 40
0.0024741678
100
AcDbArc
 50
226.3477981898
 51
270.0031206038
  0
ARC
  5
35F
100
AcDbEntity
  8
0
100
AcDbCircle
 62
7
  6
CONTINUOUS
 10
17.7533866437
 20
2.3989573626
 40
0.0024753014
100
AcDbArc
 50
226.3461263059
 51
0.0014637321
  0
ARC
  5
360
100
AcDbEntity
  8
0
100
AcDbCircle
 62
7
  6
CONTINUOUS
 10
17.6448261836
 20
2.4135964972
 40
0.0024753014
100
AcDbArc
 50
46.3461263058
 51
180.0014637321
  0
ARC
  5
361
100
AcDbEntity
  8
0
100
AcDbCircle
 62
7
  6
CONTINUOUS
 10
17.6448258817
 20
2.3815504143
 40
0.0024749995
100
AcDbArc
 50
179.9999571957
 51
270.0000428043
  0
ARC
  5
362
100
AcDbEntity
  8
0
100
AcDbCircle
 62
7
  6
CONTINUOUS
 10
17.6651428967
 20
2.3766004153
 40
0.0024749995
100
AcDbArc
 50
359.9999571957
 51
90.0000428043
  0
ARC
  5
363
100
AcDbEntity
  8
0
100
AcDbCircle
 62
7
  6
CONTINUOUS
 10
17.589478851
 20
2.3766004153
 40
0.0024749995
100
AcDbArc
 50
89.9999571957
 51
180.0000428043
  0
ARC
  5
364
100
AcDbEntity
  8
0
100
AcDbCircle
 62
7
  6
CONTINUOUS
 10
17.6081248651
 20
2.3815504143
 40
0.0024749995
100
AcDbArc
 50
269.9999571957
 51
0.0000428043
  0
ARC
  5
365
100
AcDbEntity
  8
0
100
AcDbCircle
 62
7
  6
CONTINUOUS
 10
17.9271410383
 20
2.3931004244
 40
0.0024749995
100
AcDbArc
 50
89.9999571957
 51
180.0000428043
  0
ARC
  5
366
100
AcDbEntity
  8
0
100
AcDbCircle
 62
7
  6
CONTINUOUS
 10
17.9271410383
 20
2.3815504143
 40
0.0024749995
100
AcDbArc
 50
179.9999571957
 51
270.0000428043
  0
ARC
  5
367
100
AcDbEntity
  8
0
100
AcDbCircle
 62
7
  6
CONTINUOUS
 10
17.8362019878
 20
2.3766004153
 40
0.0024749995
100
AcDbArc
 50
89.9999571957
 51
180.0000428043
  0
ARC
  5
368
100
AcDbEntity
  8
0
100
AcDbCircle
 62
7
  6
CONTINUOUS
 10
17.8601250048
 20
2.3815504143
 40
0.0024749995
100
AcDbArc
 50
269.9999571956
 51
0.0000428042
  0
ARC
  5
369
100
AcDbEntity
  8
0
100
AcDbCircle
 62
7
  6
CONTINUOUS
 10
17.9271410383
 20
2.4163554336
 40
0.0024749995
100
AcDbArc
 50
179.9999571957
 51
270.0000428043
  0
ARC
  5
36A
100
AcDbEntity
  8
0
100
AcDbCircle
 62
7
  6
CONTINUOUS
 10
17.7533869456
 20
2.4279054437
 40
0.0024749995
100
AcDbArc
 50
359.9999571957
 51
90.0000428043
  0
ARC
  5
36B
100
AcDbEntity
  8
0
100
AcDbCircle
 62
7
  6
CONTINUOUS
 10
17.7346109315
 20
2.4328554428
 40
0.0024749995
100
AcDbArc
 50
179.9999571957
 51
270.0000428043
  0
ARC
  5
36C
100
AcDbEntity
  8
0
100
AcDbCircle
 62
7
  6
CONTINUOUS
 10
17.7346109315
 20
2.4526554575
 40
0.0024749995
100
AcDbArc
 50
89.9999571957
 51
180.0000428043
  0
ARC
  5
36D
100
AcDbEntity
  8
0
100
AcDbCircle
 62
7
  6
CONTINUOUS
 10
17.8086119762
 20
2.4526554575
 40
0.0024749995
100
AcDbArc
 50
359.9999571957
 51
90.0000428043
  0
ARC
  5
36E
100
AcDbEntity
  8
0
100
AcDbCircle
 62
7
  6
CONTINUOUS
 10
17.8086119762
 20
2.4328554428
 40
0.0024749995
100
AcDbArc
 50
269.9999571956
 51
0.0000428042
  0
ARC
  5
36F
100
AcDbEntity
  8
0
100
AcDbCircle
 62
7
  6
CONTINUOUS
 10
17.7906789626
 20
2.4279054437
 40
0.0024749995
100
AcDbArc
 50
89.9999571957
 51
180.0000428043
  0
ARC
  5
370
100
AcDbEntity
  8
0
100
AcDbCircle
 62
7
  6
CONTINUOUS
 10
17.6081248651
 20
2.4279054437
 40
0.0024749995
100
AcDbArc
 50
359.9999571957
 51
90.0000428043
  0
ARC
  5
371
100
AcDbEntity
  8
0
100
AcDbCircle
 62
7
  6
CONTINUOUS
 10
17.589478851
 20
2.4328554428
 40
0.0024749995
100
AcDbArc
 50
179.9999571957
 51
270.0000428043
  0
ARC
  5
372
100
AcDbEntity
  8
0
100
AcDbCircle
 62
7
  6
CONTINUOUS
 10
17.589478851
 20
2.4526554575
 40
0.0024749995
100
AcDbArc
 50
89.9999571957
 51
180.0000428043
  0
ARC
  5
373
100
AcDbEntity
  8
0
100
AcDbCircle
 62
7
  6
CONTINUOUS
 10
17.8601250048
 20
2.4279054437
 40
0.0024749995
100
AcDbArc
 50
359.9999571957
 51
90.0000428043
  0
ARC
  5
374
100
AcDbEntity
  8
0
100
AcDbCircle
 62
7
  6
CONTINUOUS
 10
17.8362019878
 20
2.4328554428
 40
0.0024749995
100
AcDbArc
 50
179.9999571957
 51
270.0000428043
  0
ARC
  5
375
100
AcDbEntity
  8
0
100
AcDbCircle
 62
7
  6
CONTINUOUS
 10
17.8362019878
 20
2.4526554575
 40
0.0024749995
100
AcDbArc
 50
89.9999571957
 51
180.0000428043
  0
ARC
  5
376
100
AcDbEntity
  8
0
100
AcDbCircle
 62
7
  6
CONTINUOUS
 10
17.9271410383
 20
2.4279054437
 40
0.0024749995
100
AcDbArc
 50
89.9999571957
 51
180.0000428043
  0
ARC
  5
377
100
AcDbEntity
  8
0
100
AcDbCircle
 62
7
  6
CONTINUOUS
 10
17.6899370433
 20
2.4526562892
 40
0.0024741678
100
AcDbArc
 50
46.3477981899
 51
90.0031206038
  0
ARC
  5
378
100
AcDbEntity
  8
0
100
AcDbCircle
 62
7
  6
CONTINUOUS
 10
18.2495655574
 20
2.384346736
 40
0.044722495
100
AcDbArc
 50
195.531588407
 51
204.7624440448
  0
ARC
  5
379
100
AcDbEntity
  8
0
100
AcDbCircle
 62
7
  6
CONTINUOUS
 10
18.2415401884
 20
2.4134150625
 40
0.039319019
100
AcDbArc
 50
59.1202086415
 51
81.4730239328
  0
ARC
  5
37A
100
AcDbEntity
  8
0
100
AcDbCircle
 62
7
  6
CONTINUOUS
 10
18.2667613545
 20
2.3917854558
 40
0.0383802683
100
AcDbArc
 50
288.7656836787
 51
309.6104317088
  0
ARC
  5
37B
100
AcDbEntity
  8
0
100
AcDbCircle
 62
7
  6
CONTINUOUS
 10
18.2471995846
 20
2.4197497317
 40
0.0310192946
100
AcDbArc
 50
34.7540871
 51
62.0879016178
  0
ARC
  5
37C
100
AcDbEntity
  8
0
100
AcDbCircle
 62
7
  6
CONTINUOUS
 10
18.1924863006
 20
2.4019259643
 40
0.0284963867
100
AcDbArc
 50
70.3834917948
 51
86.8922743861
  0
ARC
  5
37D
100
AcDbEntity
  8
0
100
AcDbCircle
 62
7
  6
CONTINUOUS
 10
18.2737535399
 20
2.384184238
 40
0.0280715479
100
AcDbArc
 50
308.5071794988
 51
332.2400656899
  0
ARC
  5
37E
100
AcDbEntity
  8
0
100
AcDbCircle
 62
7
  6
CONTINUOUS
 10
18.2439037681
 20
2.3797532943
 40
0.0266349791
100
AcDbArc
 50
20.3630922153
 51
37.9727053099
  0
ARC
  5
37F
100
AcDbEntity
  8
0
100
AcDbCircle
 62
7
  6
CONTINUOUS
 10
18.2450241237
 20
2.3798263774
 40
0.0257145923
100
AcDbArc
 50
39.3804255939
 51
59.0361096173
  0
ARC
  5
380
100
AcDbEntity
  8
0
100
AcDbCircle
 62
7
  6
CONTINUOUS
 10
18.2296840914
 20
2.3774978567
 40
0.0238935861
100
AcDbArc
 50
209.8247607259
 51
235.1255079367
  0
ARC
  5
381
100
AcDbEntity
  8
0
100
AcDbCircle
 62
7
  6
CONTINUOUS
 10
18.2830605507
 20
2.3792897325
 40
0.0175560065
100
AcDbArc
 50
332.2279060967
 51
359.6595469939
  0
ARC
  5
382
100
AcDbEntity
  8
0
100
AcDbCircle
 62
7
  6
CONTINUOUS
 10
18.1890593051
 20
2.3776149607
 40
0.0151491919
100
AcDbArc
 50
24.098260853
 51
63.0369451818
  0
ARC
  5
383
100
AcDbEntity
  8
0
100
AcDbCircle
 62
7
  6
CONTINUOUS
 10
18.2845735615
 20
2.3882148688
 40
0.0147197649
100
AcDbArc
 50
192.7054516565
 51
206.0594861022
  0
ARC
  5
384
100
AcDbEntity
  8
0
100
AcDbCircle
 62
7
  6
CONTINUOUS
 10
18.1973459106
 20
2.4149676972
 40
0.0145814632
100
AcDbArc
 50
54.6746025112
 51
71.1660573124
  0
ARC
  5
385
100
AcDbEntity
  8
0
100
AcDbCircle
 62
7
  6
CONTINUOUS
 10
18.2752146786
 20
2.3927110743
 40
0.0132488022
100
AcDbArc
 50
270.266200055
 51
281.2404888597
  0
ARC
  5
386
100
AcDbEntity
  8
0
100
AcDbCircle
 62
7
  6
CONTINUOUS
 10
18.2716089246
 20
2.3878675959
 40
0.0119498009
100
AcDbArc
 50
340.7883861657
 51
1.1691452593
  0
ARC
  5
387
100
AcDbEntity
  8
0
100
AcDbCircle
 62
7
  6
CONTINUOUS
 10
18.198398534
 20
2.4260095887
 40
0.0110815393
100
AcDbArc
 50
306.758405961
 51
320.4502234234
  0
ARC
  5
388
100
AcDbEntity
  8
0
100
AcDbCircle
 62
7
  6
CONTINUOUS
 10
18.2764089196
 20
2.3869743807
 40
0.0073895522
100
AcDbArc
 50
280.8288201977
 51
305.0837508495
  0
ARC
  5
389
100
AcDbEntity
  8
0
100
AcDbCircle
 62
7
  6
CONTINUOUS
 10
18.2768101012
 20
2.3861235343
 40
0.0064647042
100
AcDbArc
 50
306.5086174083
 51
340.2162360092
  0
ARC
  5
38A
100
AcDbEntity
  8
0
100
AcDbCircle
 62
7
  6
CONTINUOUS
 10
18.2024754016
 20
2.4218216224
 40
0.0060275915
100
AcDbArc
 50
20.9055592135
 51
56.7851676243
  0
ARC
  5
38B
100
AcDbEntity
  8
0
100
AcDbCircle
 62
7
  6
CONTINUOUS
 10
18.2025691502
 20
2.4227756809
 40
0.0058087709
100
AcDbArc
 50
318.8515287446
 51
353.6422345323
  0
ARC
  5
38C
100
AcDbEntity
  8
0
100
AcDbCircle
 62
7
  6
CONTINUOUS
 10
18.2760792244
 20
2.3840063824
 40
0.0052403997
100
AcDbArc
 50
205.5232099488
 51
227.5054868079
  0
ARC
  5
38D
100
AcDbEntity
  8
0
100
AcDbCircle
 62
7
  6
CONTINUOUS
 10
18.2037759605
 20
2.4224819047
 40
0.0045795888
100
AcDbArc
 50
355.6235353944
 51
18.9942678268
  0
ARC
  5
38E
100
AcDbEntity
  8
0
100
AcDbCircle
 62
7
  6
CONTINUOUS
 10
18.2743509251
 20
2.3821910097
 40
0.0027347709
100
AcDbArc
 50
228.5117626738
 51
266.1485845754
  0
ARC
  5
38F
100
AcDbEntity
  8
0
100
AcDbCircle
 62
7
  6
CONTINUOUS
 10
18.1572301659
 20
2.3912274234
 40
0.0024749995
100
AcDbArc
 50
89.9999571957
 51
180.0000428043
  0
ARC
  5
390
100
AcDbEntity
  8
0
100
AcDbCircle
 62
7
  6
CONTINUOUS
 10
18.1572301659
 20
2.3815284143
 40
0.0024749995
100
AcDbArc
 50
179.9999571957
 51
270.0000428043
  0
ARC
  5
391
100
AcDbEntity
  8
0
100
AcDbCircle
 62
7
  6
CONTINUOUS
 10
18.1818891832
 20
2.3765784153
 40
0.0024749995
100
AcDbArc
 50
359.9999571957
 51
90.0000428043
  0
ARC
  5
392
100
AcDbEntity
  8
0
100
AcDbCircle
 62
7
  6
CONTINUOUS
 10
18.0683181166
 20
2.3766004153
 40
0.0024749995
100
AcDbArc
 50
89.9999571957
 51
180.0000428043
  0
ARC
  5
393
100
AcDbEntity
  8
0
100
AcDbCircle
 62
7
  6
CONTINUOUS
 10
18.0910641329
 20
2.3815504143
 40
0.0024749995
100
AcDbArc
 50
269.9999571957
 51
0.0000428043
  0
ARC
  5
394
100
AcDbEntity
  8
0
100
AcDbCircle
 62
7
  6
CONTINUOUS
 10
18.2860312373
 20
2.3907374231
 40
0.0024749995
100
AcDbArc
 50
89.9999571957
 51
180.0000428043
  0
ARC
  5
395
100
AcDbEntity
  8
0
100
AcDbCircle
 62
7
  6
CONTINUOUS
 10
18.2981412477
 20
2.3907374231
 40
0.0024749995
100
AcDbArc
 50
359.9999571957
 51
90.0000428043
  0
ARC
  5
396
100
AcDbEntity
  8
0
100
AcDbCircle
 62
7
  6
CONTINUOUS
 10
18.1572301659
 20
2.415180433
 40
0.0024749995
100
AcDbArc
 50
179.9999571957
 51
270.0000428043
  0
ARC
  5
397
100
AcDbEntity
  8
0
100
AcDbCircle
 62
7
  6
CONTINUOUS
 10
17.992145078
 20
2.3815504143
 40
0.0024749995
100
AcDbArc
 50
269.9999571957
 51
0.0000428043
  0
ARC
  5
398
100
AcDbEntity
  8
0
100
AcDbCircle
 62
7
  6
CONTINUOUS
 10
17.9970950771
 20
2.3898004226
 40
0.0024749995
100
AcDbArc
 50
89.9999571957
 51
180.0000428043
  0
ARC
  5
399
100
AcDbEntity
  8
0
100
AcDbCircle
 62
7
  6
CONTINUOUS
 10
18.0394141042
 20
2.3898004226
 40
0.0024749995
100
AcDbArc
 50
359.9999571957
 51
90.0000428043
  0
ARC
  5
39A
100
AcDbEntity
  8
0
100
AcDbCircle
 62
7
  6
CONTINUOUS
 10
18.0379951034
 20
2.4196554355
 40
0.0024749995
100
AcDbArc
 50
269.9999571956
 51
0.0000428042
  0
ARC
  5
39B
100
AcDbEntity
  8
0
100
AcDbCircle
 62
7
  6
CONTINUOUS
 10
17.9961310765
 20
2.4196554355
 40
0.0024749995
100
AcDbArc
 50
179.9999571957
 51
270.0000428043
  0
ARC
  5
39C
100
AcDbEntity
  8
0
100
AcDbCircle
 62
7
  6
CONTINUOUS
 10
17.9623080615
 20
2.4114054346
 40
0.0024749995
100
AcDbArc
 50
359.9999571957
 51
90.0000428043
  0
ARC
  5
39D
100
AcDbEntity
  8
0
100
AcDbCircle
 62
7
  6
CONTINUOUS
 10
17.9623080615
 20
2.3980504235
 40
0.0024749995
100
AcDbArc
 50
269.9999571956
 51
0.0000428042
  0
ARC
  5
39E
100
AcDbEntity
  8
0
100
AcDbCircle
 62
7
  6
CONTINUOUS
 10
18.220842337
 20
2.4783532224
 40
0.0789082104
100
AcDbArc
 50
292.906155071
 51
305.2574666259
  0
ARC
  5
39F
100
AcDbEntity
  8
0
100
AcDbCircle
 62
7
  6
CONTINUOUS
 10
18.2511742746
 20
2.4351463727
 40
0.0261183659
100
AcDbArc
 50
305.6373831893
 51
329.9727629745
  0
ARC
  5
3A0
100
AcDbEntity
  8
0
100
AcDbCircle
 62
7
  6
CONTINUOUS
 10
18.1908418374
 20
2.4381440645
 40
0.0254407115
100
AcDbArc
 50
270.7327484175
 51
290.441894219
  0
ARC
  5
3A1
100
AcDbEntity
  8
0
100
AcDbCircle
 62
7
  6
CONTINUOUS
 10
18.1927693431
 20
2.4337504172
 40
0.0206523367
100
AcDbArc
 50
289.6883413472
 51
306.4184925496
  0
ARC
  5
3A2
100
AcDbEntity
  8
0
100
AcDbCircle
 62
7
  6
CONTINUOUS
 10
18.2588883357
 20
2.4282993328
 40
0.0165459396
100
AcDbArc
 50
1.548452892
 51
33.5033152417
  0
ARC
  5
3A3
100
AcDbEntity
  8
0
100
AcDbCircle
 62
7
  6
CONTINUOUS
 10
18.2621849309
 20
2.428467785
 40
0.0132462337
100
AcDbArc
 50
331.1510006998
 51
1.205404301
  0
ARC
  5
3A4
100
AcDbEntity
  8
0
100
AcDbCircle
 62
7
  6
CONTINUOUS
 10
18.0910641329
 20
2.4279054437
 40
0.0024749995
100
AcDbArc
 50
359.9999571957
 51
90.0000428043
  0
ARC
  5
3A5
100
AcDbEntity
  8
0
100
AcDbCircle
 62
7
  6
CONTINUOUS
 10
18.0683181166
 20
2.4328554428
 40
0.0024749995
100
AcDbArc
 50
179.9999571957
 51
270.0000428043
  0
ARC
  5
3A6
100
AcDbEntity
  8
0
100
AcDbCircle
 62
7
  6
CONTINUOUS
 10
18.0683181166
 20
2.4526554575
 40
0.0024749995
100
AcDbArc
 50
89.9999571957
 51
180.0000428043
  0
ARC
  5
3A7
100
AcDbEntity
  8
0
100
AcDbCircle
 62
7
  6
CONTINUOUS
 10
18.1572301659
 20
2.4279054437
 40
0.0024749995
100
AcDbArc
 50
89.9999571957
 51
180.0000428043
  0
ARC
  5
3A8
100
AcDbEntity
  8
0
100
AcDbCircle
 62
7
  6
CONTINUOUS
 10
18.0379951034
 20
2.4526554575
 40
0.0024749995
100
AcDbArc
 50
359.9999571957
 51
90.0000428043
  0
ARC
  5
3A9
100
AcDbEntity
  8
0
100
AcDbCircle
 62
7
  6
CONTINUOUS
 10
17.9911810775
 20
2.4279054437
 40
0.0024749995
100
AcDbArc
 50
359.9999571957
 51
90.0000428043
  0
ELLIPSE
  5
3AA
100
AcDbEntity
  8
0
100
AcDbEllipse
 62
7
  6
CONTINUOUS
 10
17.573550844
 20
2.4034764283
 30
0.0
 11
-0.8250004575
 21
0.0
 31
0.0
 40
0.218572
 41
0.0
 42
6.2831853072
  0
HATCH
  5
3AB
100
AcDbEntity
  8
0
100
AcDbHatch
 62
7
  6
CONTINUOUS
 10
0.0
 20
0.0
 30
0.0
210
0.0
220
0.0
230
1.0
  2
XSEC0002
 70
1
 71
1
 91
11
 92
1
 93
57
 72
2
 10
18.2265855264
 20
2.3716475527
 40
0.0173408616
 50
232.4713476722
 51
267.338189944
 73
1
 72
2
 10
18.2296840914
 20
2.3774978567
 40
0.0238935861
 50
209.8247607259
 51
235.1255079367
 73
1
 72
2
 10
18.2495655574
 20
2.384346736
 40
0.044722495
 50
195.531588407
 51
204.7624440448
 73
1
 72
1
 10
18.206476195
 20
2.3723714111
 11
18.204672194
 21
2.3784404145
 72
2
 10
18.1662929967
 20
2.368643334
 40
0.0396099176
 50
14.3201081283
 51
22.4984722084
 73
1
 72
2
 10
18.1890593051
 20
2.3776149607
 40
0.0151491919
 50
24.098260853
 51
63.0369451818
 73
1
 72
2
 10
18.1850046504
 20
2.3693353402
 40
0.0243676582
 50
63.3666028271
 51
90.3937697637
 73
1
 72
1
 10
18.184837183
 20
2.3937024229
 11
18.1572301677
 21
2.3937024229
 72
2
 10
18.1572301659
 20
2.3912274234
 40
0.0024749995
 50
89.9999571957
 51
180.0000428043
 73
1
 72
1
 10
18.1547551663
 20
2.3912274216
 11
18.1547551663
 21
2.3815284162
 72
2
 10
18.1572301659
 20
2.3815284143
 40
0.0024749995
 50
179.9999571957
 51
270.0000428043
 73
1
 72
1
 10
18.1572301677
 20
2.3790534148
 11
18.1818891814
 21
2.3790534148
 72
2
 10
18.1818891832
 20
2.3765784153
 40
0.0024749995
 50
359.9999571957
 51
90.0000428042
 73
1
 72
1
 10
18.1843641828
 20
2.3765784134
 11
18.1843641828
 21
2.3568004025
 72
2
 10
18.1818891832
 20
2.3568004006
 40
0.0024749995
 50
269.9999571958
 51
0.0000428043
 73
1
 72
1
 10
18.1818891814
 20
2.3543254011
 11
18.0683181184
 21
2.3543254011
 72
2
 10
18.0683181166
 20
2.3568004006
 40
0.0024749995
 50
179.9999571957
 51
270.0000428042
 73
1
 72
1
 10
18.065843117
 20
2.3568004025
 11
18.065843117
 21
2.3766004134
 72
2
 10
18.0683181166
 20
2.3766004153
 40
0.0024749995
 50
89.9999571958
 51
180.0000428043
 73
1
 72
1
 10
18.0683181184
 20
2.3790754148
 11
18.091064131
 21
2.3790754148
 72
2
 10
18.0910641329
 20
2.3815504143
 40
0.0024749995
 50
269.9999571957
 51
0.0000428043
 73
1
 72
1
 10
18.0935391324
 20
2.3815504162
 11
18.0935391324
 21
2.4279054419
 72
2
 10
18.0910641329
 20
2.4279054437
 40
0.0024749995
 50
359.9999571957
 51
90.0000428043
 73
1
 72
1
 10
18.091064131
 20
2.4303804433
 11
18.0683181184
 21
2.4303804433
 72
2
 10
18.0683181166
 20
2.4328554428
 40
0.0024749995
 50
179.9999571957
 51
270.0000428043
 73
1
 72
1
 10
18.065843117
 20
2.4328554446
 11
18.065843117
 21
2.4526554556
 72
2
 10
18.0683181166
 20
2.4526554575
 40
0.0024749995
 50
89.9999571958
 51
180.0000428043
 73
1
 72
1
 10
18.0683181184
 20
2.455130457
 11
18.2178992014
 21
2.455130457
 72
2
 10
18.2152358981
 20
2.2725915465
 40
0.1825583387
 50
79.8618509324
 51
89.1640948679
 73
1
 72
2
 10
18.2415401884
 20
2.4134150625
 40
0.039319019
 50
59.1202086415
 51
81.4730239328
 73
1
 72
2
 10
18.2471995846
 20
2.4197497317
 40
0.0310192946
 50
34.7540871
 51
62.0879016178
 73
1
 72
2
 10
18.2588883357
 20
2.4282993328
 40
0.0165459396
 50
1.548452892
 51
33.5033152417
 73
1
 72
2
 10
18.2621849309
 20
2.428467785
 40
0.0132462337
 50
331.1510006998
 51
1.205404301
 73
1
 72
2
 10
18.2511742746
 20
2.4351463727
 40
0.0261183659
 50
305.6373831893
 51
329.9727629745
 73
1
 72
2
 10
18.220842337
 20
2.4783532224
 40
0.0789082104
 50
292.906155071
 51
305.2574666259
 73
1
 72
2
 10
18.197141171
 20
2.3016991173
 40
0.117346916
 50
58.614769177
 51
62.3737227606
 73
1
 72
2
 10
18.2450241237
 20
2.3798263774
 40
0.0257145923
 50
39.3804255939
 51
59.0361096173
 73
1
 72
2
 10
18.2439037681
 20
2.3797532943
 40
0.0266349791
 50
20.3630922153
 51
37.9727053099
 73
1
 72
2
 10
18.2260032264
 20
2.3725718859
 40
0.0459185159
 50
15.6740290068
 51
20.9917271228
 73
1
 72
2
 10
18.2845735615
 20
2.3882148688
 40
0.0147197649
 50
192.7054516565
 51
206.0594861022
 73
1
 72
2
 10
18.2760792244
 20
2.3840063824
 40
0.0052403997
 50
205.5232099488
 51
227.5054868079
 73
1
 72
2
 10
18.2743509251
 20
2.3821910097
 40
0.0027347709
 50
228.5117626738
 51
266.1485845755
 73
1
 72
1
 10
18.2741672326
 20
2.379462415
 11
18.2752762332
 21
2.379462415
 72
2
 10
18.2752146786
 20
2.3927110743
 40
0.0132488022
 50
270.266200055
 51
281.2404888597
 73
1
 72
2
 10
18.2764089196
 20
2.3869743807
 40
0.0073895522
 50
280.8288201977
 51
305.0837508495
 73
1
 72
2
 10
18.2768101012
 20
2.3861235343
 40
0.0064647042
 50
306.5086174083
 51
340.2162360092
 73
1
 72
2
 10
18.2716089246
 20
2.3878675959
 40
0.0119498009
 50
340.7883861657
 51
1.1691452593
 73
1
 72
1
 10
18.2835562378
 20
2.3881114198
 11
18.2835562378
 21
2.3907374213
 72
2
 10
18.2860312373
 20
2.3907374231
 40
0.0024749995
 50
89.9999571957
 51
180.0000428043
 73
1
 72
1
 10
18.2860312391
 20
2.3932124227
 11
18.2981412459
 21
2.3932124227
 72
2
 10
18.2981412477
 20
2.3907374231
 40
0.0024749995
 50
359.9999571957
 51
90.0000428043
 73
1
 72
1
 10
18.3006162472
 20
2.3907374213
 11
18.3006162472
 21
2.3791854149
 72
2
 10
18.2830605507
 20
2.3792897325
 40
0.0175560065
 50
332.2279060967
 51
359.6595469939
 73
1
 72
2
 10
18.2737535399
 20
2.384184238
 40
0.0280715479
 50
308.5071794988
 51
332.2400656899
 73
1
 72
2
 10
18.2667613545
 20
2.3917854558
 40
0.0383802683
 50
288.7656836787
 51
309.6104317088
 73
1
 72
2
 10
18.2724993219
 20
2.3741987064
 40
0.0198837666
 50
271.8586572978
 51
289.4131338543
 73
1
 72
1
 10
18.273144232
 20
2.3543254011
 11
18.2257802057
 21
2.3543254011
 97
267
330
2A0
330
2A1
330
2A2
330
2A3
330
2A4
330
2A5
330
2A6
330
2A7
330
2A8
330
2A9
330
2AA
330
2AB
330
2AC
330
2AD
330
2AE
330
2AF
330
2B0
330
2B1
330
2B2
330
2B3
330
2B4
330
2B5
330
2B6
330
2B7
330
2B8
330
2B9
330
2BA
330
2BB
330
2BC
330
2BD
330
2BE
330
2BF
330
2C0
330
2C1
330
2C2
330
2C3
330
2C4
330
2C5
330
2C6
330
2C7
330
2C8
330
2C9
330
2CA
330
2CB
330
2CC
330
2CD
330
2CE
330
2CF
330
2D0
330
2D1
330
2D2
330
2D3
330
2D4
330
2D5
330
2D6
330
2D7
330
2D8
330
2D9
330
2DA
330
2DB
330
2DC
330
2DD
330
2DE
330
2DF
330
2E0
330
2E1
330
2E2
330
2E3
330
2E4
330
2E5
330
2E6
330
2E7
330
2E8
330
2E9
330
2EA
330
2EB
330
2EC
330
2ED
330
2EE
330
2EF
330
2F0
330
2F1
330
2F2
330
2F3
330
2F4
330
2F5
330
2F6
330
2F7
330
2F8
330
2F9
330
2FA
330
2FB
330
2FC
330
2FD
330
2FE
330
2FF
330
300
330
301
330
302
330
303
330
304
330
305
330
306
330
307
330
308
330
309
330
30A
330
30B
330
30C
330
30D
330
30E
330
30F
330
310
330
311
330
312
330
313
330
314
330
315
330
316
330
317
330
318
330
319
330
31A
330
31B
330
31C
330
31D
330
31E
330
31F
330
320
330
321
330
322
330
323
330
324
330
325
330
326
330
327
330
328
330
329
330
32A
330
32B
330
32C
330
32D
330
32E
330
32F
330
330
330
331
330
332
330
333
330
334
330
335
330
336
330
337
330
338
330
339
330
33A
330
33B
330
33C
330
33D
330
33E
330
33F
330
340
330
341
330
342
330
343
330
344
330
345
330
346
330
347
330
348
330
349
330
34A
330
34B
330
34C
330
34D
330
34E
330
34F
330
350
330
351
330
352
330
353
330
354
330
355
330
356
330
357
330
358
330
359
330
35A
330
35B
330
35C
330
35D
330
35E
330
35F
330
360
330
361
330
362
330
363
330
364
330
365
330
366
330
367
330
368
330
369
330
36A
330
36B
330
36C
330
36D
330
36E
330
36F
330
370
330
371
330
372
330
373
330
374
330
375
330
376
330
377
330
378
330
379
330
37A
330
37B
330
37C
330
37D
330
37E
330
37F
330
380
330
381
330
382
330
383
330
384
330
385
330
386
330
387
330
388
330
389
330
38A
330
38B
330
38C
330
38D
330
38E
330
38F
330
390
330
391
330
392
330
393
330
394
330
395
330
396
330
397
330
398
330
399
330
39A
330
39B
330
39C
330
39D
330
39E
330
39F
330
3A0
330
3A1
330
3A2
330
3A3
330
3A4
330
3A5
330
3A6
330
3A7
330
3A8
330
3A9
330
3AA
 92
1
 93
40
 72
2
 10
17.8362019878
 20
2.3568004006
 40
0.0024749995
 50
179.9999571957
 51
270.0000428042
 73
1
 72
1
 10
17.8337269883
 20
2.3568004025
 11
17.8337269883
 21
2.3766004134
 72
2
 10
17.8362019878
 20
2.3766004153
 40
0.0024749995
 50
89.9999571958
 51
180.0000428043
 73
1
 72
1
 10
17.8362019897
 20
2.3790754148
 11
17.860125003
 21
2.3790754148
 72
2
 10
17.8601250048
 20
2.3815504143
 40
0.0024749995
 50
269.9999571956
 51
0.0000428042
 73
1
 72
1
 10
17.8626000043
 20
2.3815504162
 11
17.8626000043
 21
2.4279054419
 72
2
 10
17.8601250048
 20
2.4279054437
 40
0.0024749995
 50
359.9999571957
 51
90.0000428043
 73
1
 72
1
 10
17.860125003
 20
2.4303804433
 11
17.8362019897
 21
2.4303804433
 72
2
 10
17.8362019878
 20
2.4328554428
 40
0.0024749995
 50
179.9999571957
 51
270.0000428043
 73
1
 72
1
 10
17.8337269883
 20
2.4328554446
 11
17.8337269883
 21
2.4526554556
 72
2
 10
17.8362019878
 20
2.4526554575
 40
0.0024749995
 50
89.9999571958
 51
180.0000428043
 73
1
 72
1
 10
17.8362019897
 20
2.455130457
 11
18.0379951016
 21
2.455130457
 72
2
 10
18.0379951034
 20
2.4526554575
 40
0.0024749995
 50
359.9999571957
 51
90.0000428042
 73
1
 72
1
 10
18.040470103
 20
2.4526554556
 11
18.040470103
 21
2.4196554373
 72
2
 10
18.0379951034
 20
2.4196554355
 40
0.0024749995
 50
269.9999571956
 51
0.0000428042
 73
1
 72
1
 10
18.0379951016
 20
2.4171804359
 11
17.9961310784
 21
2.4171804359
 72
2
 10
17.9961310765
 20
2.4196554355
 40
0.0024749995
 50
179.9999571957
 51
270.0000428043
 73
1
 72
1
 10
17.993656077
 20
2.4196554373
 11
17.993656077
 21
2.4279054419
 72
2
 10
17.9911810775
 20
2.4279054437
 40
0.0024749995
 50
359.9999571957
 51
90.0000428043
 73
1
 72
1
 10
17.9911810756
 20
2.4303804433
 11
17.9271410401
 21
2.4303804433
 72
2
 10
17.9271410383
 20
2.4279054437
 40
0.0024749995
 50
89.9999571958
 51
180.0000428043
 73
1
 72
1
 10
17.9246660387
 20
2.4279054419
 11
17.9246660387
 21
2.4163554355
 72
2
 10
17.9271410383
 20
2.4163554336
 40
0.0024749995
 50
179.9999571957
 51
270.0000428042
 73
1
 72
1
 10
17.9271410401
 20
2.4138804341
 11
17.9623080596
 21
2.4138804341
 72
2
 10
17.9623080615
 20
2.4114054346
 40
0.0024749995
 50
359.9999571957
 51
90.0000428042
 73
1
 72
1
 10
17.964783061
 20
2.4114054327
 11
17.964783061
 21
2.3980504253
 72
2
 10
17.9623080615
 20
2.3980504235
 40
0.0024749995
 50
269.9999571956
 51
0.0000428042
 73
1
 72
1
 10
17.9623080596
 20
2.395575424
 11
17.9271410401
 21
2.395575424
 72
2
 10
17.9271410383
 20
2.3931004244
 40
0.0024749995
 50
89.9999571958
 51
180.0000428043
 73
1
 72
1
 10
17.9246660387
 20
2.3931004226
 11
17.9246660387
 21
2.3815504162
 72
2
 10
17.9271410383
 20
2.3815504143
 40
0.0024749995
 50
179.9999571957
 51
270.0000428043
 73
1
 72
1
 10
17.9271410401
 20
2.3790754148
 11
17.9921450762
 21
2.3790754148
 72
2
 10
17.992145078
 20
2.3815504143
 40
0.0024749995
 50
269.9999571958
 51
0.0000428043
 73
1
 72
1
 10
17.9946200775
 20
2.3815504162
 11
17.9946200775
 21
2.3898004208
 72
2
 10
17.9970950771
 20
2.3898004226
 40
0.0024749995
 50
89.9999571958
 51
180.0000428043
 73
1
 72
1
 10
17.9970950789
 20
2.3922754221
 11
18.0394141024
 21
2.3922754221
 72
2
 10
18.0394141042
 20
2.3898004226
 40
0.0024749995
 50
359.9999571957
 51
90.0000428043
 73
1
 72
1
 10
18.0418891038
 20
2.3898004208
 11
18.0418891038
 21
2.3568004025
 72
2
 10
18.0394141042
 20
2.3568004006
 40
0.0024749995
 50
269.9999571958
 51
0.0000428043
 73
1
 72
1
 10
18.0394141024
 20
2.3543254011
 11
17.8362019897
 21
2.3543254011
 97
267
330
2A0
330
2A1
330
2A2
330
2A3
330
2A4
330
2A5
330
2A6
330
2A7
330
2A8
330
2A9
330
2AA
330
2AB
330
2AC
330
2AD
330
2AE
330
2AF
330
2B0
330
2B1
330
2B2
330
2B3
330
2B4
330
2B5
330
2B6
330
2B7
330
2B8
330
2B9
330
2BA
330
2BB
330
2BC
330
2BD
330
2BE
330
2BF
330
2C0
330
2C1
330
2C2
330
2C3
330
2C4
330
2C5
330
2C6
330
2C7
330
2C8
330
2C9
330
2CA
330
2CB
330
2CC
330
2CD
330
2CE
330
2CF
330
2D0
330
2D1
330
2D2
330
2D3
330
2D4
330
2D5
330
2D6
330
2D7
330
2D8
330
2D9
330
2DA
330
2DB
330
2DC
330
2DD
330
2DE
330
2DF
330
2E0
330
2E1
330
2E2
330
2E3
330
2E4
330
2E5
330
2E6
330
2E7
330
2E8
330
2E9
330
2EA
330
2EB
330
2EC
330
2ED
330
2EE
330
2EF
330
2F0
330
2F1
330
2F2
330
2F3
330
2F4
330
2F5
330
2F6
330
2F7
330
2F8
330
2F9
330
2FA
330
2FB
330
2FC
330
2FD
330
2FE
330
2FF
330
300
330
301
330
302
330
303
330
304
330
305
330
306
330
307
330
308
330
309
330
30A
330
30B
330
30C
330
30D
330
30E
330
30F
330
310
330
311
330
312
330
313
330
314
330
315
330
316
330
317
330
318
330
319
330
31A
330
31B
330
31C
330
31D
330
31E
330
31F
330
320
330
321
330
322
330
323
330
324
330
325
330
326
330
327
330
328
330
329
330
32A
330
32B
330
32C
330
32D
330
32E
330
32F
330
330
330
331
330
332
330
333
330
334
330
335
330
336
330
337
330
338
330
339
330
33A
330
33B
330
33C
330
33D
330
33E
330
33F
330
340
330
341
330
342
330
343
330
344
330
345
330
346
330
347
330
348
330
349
330
34A
330
34B
330
34C
330
34D
330
34E
330
34F
330
350
330
351
330
352
330
353
330
354
330
355
330
356
330
357
330
358
330
359
330
35A
330
35B
330
35C
330
35D
330
35E
330
35F
330
360
330
361
330
362
330
363
330
364
330
365
330
366
330
367
330
368
330
369
330
36A
330
36B
330
36C
330
36D
330
36E
330
36F
330
370
330
371
330
372
330
373
330
374
330
375
330
376
330
377
330
378
330
379
330
37A
330
37B
330
37C
330
37D
330
37E
330
37F
330
380
330
381
330
382
330
383
330
384
330
385
330
386
330
387
330
388
330
389
330
38A
330
38B
330
38C
330
38D
330
38E
330
38F
330
390
330
391
330
392
330
393
330
394
330
395
330
396
330
397
330
398
330
399
330
39A
330
39B
330
39C
330
39D
330
39E
330
39F
330
3A0
330
3A1
330
3A2
330
3A3
330
3A4
330
3A5
330
3A6
330
3A7
330
3A8
330
3A9
330
3AA
 92
1
 93
40
 72
2
 10
17.7115227858
 20
2.3567995689
 40
0.0024741678
 50
226.3477981898
 51
270.0031206038
 73
1
 72
1
 10
17.7098149196
 20
2.3550094015
 11
17.6465348845
 21
2.415387435
 72
2
 10
17.6448261836
 20
2.4135964972
 40
0.0024753014
 50
46.3461263058
 51
180.0014637321
 73
1
 72
1
 10
17.6423508822
 20
2.413596434
 11
17.6423508822
 21
2.3815504162
 72
2
 10
17.6448258817
 20
2.3815504143
 40
0.0024749995
 50
179.9999571957
 51
270.0000428043
 73
1
 72
1
 10
17.6448258836
 20
2.3790754148
 11
17.6651428948
 21
2.3790754148
 72
2
 10
17.6651428967
 20
2.3766004153
 40
0.0024749995
 50
359.9999571957
 51
90.0000428043
 73
1
 72
1
 10
17.6676178962
 20
2.3766004134
 11
17.6676178962
 21
2.3568004025
 72
2
 10
17.6651428967
 20
2.3568004006
 40
0.0024749995
 50
269.9999571958
 51
0.0000428043
 73
1
 72
1
 10
17.6651428948
 20
2.3543254011
 11
17.5894788529
 21
2.3543254011
 72
2
 10
17.589478851
 20
2.3568004006
 40
0.0024749995
 50
179.9999571957
 51
270.0000428042
 73
1
 72
1
 10
17.5870038515
 20
2.3568004025
 11
17.5870038515
 21
2.3766004134
 72
2
 10
17.589478851
 20
2.3766004153
 40
0.0024749995
 50
89.9999571957
 51
180.0000428043
 73
1
 72
1
 10
17.5894788529
 20
2.3790754148
 11
17.6081248632
 21
2.3790754148
 72
2
 10
17.6081248651
 20
2.3815504143
 40
0.0024749995
 50
269.9999571957
 51
0.0000428043
 73
1
 72
1
 10
17.6105998646
 20
2.3815504162
 11
17.6105998646
 21
2.4279054419
 72
2
 10
17.6081248651
 20
2.4279054437
 40
0.0024749995
 50
359.9999571957
 51
90.0000428043
 73
1
 72
1
 10
17.6081248632
 20
2.4303804433
 11
17.5894788529
 21
2.4303804433
 72
2
 10
17.589478851
 20
2.4328554428
 40
0.0024749995
 50
179.9999571957
 51
270.0000428043
 73
1
 72
1
 10
17.5870038515
 20
2.4328554446
 11
17.5870038515
 21
2.4526554556
 72
2
 10
17.589478851
 20
2.4526554575
 40
0.0024749995
 50
89.9999571957
 51
180.0000428043
 73
1
 72
1
 10
17.5894788529
 20
2.455130457
 11
17.6899369086
 21
2.455130457
 72
2
 10
17.6899370433
 20
2.4526562892
 40
0.0024741678
 50
46.3477981899
 51
90.0031206038
 73
1
 72
1
 10
17.6916449095
 20
2.4544464566
 11
17.7516779428
 21
2.3971664249
 72
2
 10
17.7533866437
 20
2.3989573626
 40
0.0024753014
 50
226.3461263059
 51
0.0014637321
 73
1
 72
1
 10
17.7558619451
 20
2.3989574258
 11
17.7558619451
 21
2.4279054419
 72
2
 10
17.7533869456
 20
2.4279054437
 40
0.0024749995
 50
359.9999571957
 51
90.0000428043
 73
1
 72
1
 10
17.7533869438
 20
2.4303804433
 11
17.7346109333
 21
2.4303804433
 72
2
 10
17.7346109315
 20
2.4328554428
 40
0.0024749995
 50
179.9999571957
 51
270.0000428043
 73
1
 72
1
 10
17.732135932
 20
2.4328554446
 11
17.732135932
 21
2.4526554556
 72
2
 10
17.7346109315
 20
2.4526554575
 40
0.0024749995
 50
89.9999571958
 51
180.0000428043
 73
1
 72
1
 10
17.7346109333
 20
2.455130457
 11
17.8086119744
 21
2.455130457
 72
2
 10
17.8086119762
 20
2.4526554575
 40
0.0024749995
 50
359.9999571957
 51
90.0000428043
 73
1
 72
1
 10
17.8110869758
 20
2.4526554556
 11
17.8110869758
 21
2.4328554446
 72
2
 10
17.8086119762
 20
2.4328554428
 40
0.0024749995
 50
269.9999571956
 51
0.0000428042
 73
1
 72
1
 10
17.8086119744
 20
2.4303804433
 11
17.7906789644
 21
2.4303804433
 72
2
 10
17.7906789626
 20
2.4279054437
 40
0.0024749995
 50
89.9999571957
 51
180.0000428043
 73
1
 72
1
 10
17.7882039631
 20
2.4279054419
 11
17.7882039631
 21
2.3568004025
 72
2
 10
17.7857289635
 20
2.3568004006
 40
0.0024749995
 50
269.9999571957
 51
0.0000428043
 73
1
 72
1
 10
17.7857289617
 20
2.3543254011
 11
17.7115229205
 21
2.3543254011
 97
267
330
2A0
330
2A1
330
2A2
330
2A3
330
2A4
330
2A5
330
2A6
330
2A7
330
2A8
330
2A9
330
2AA
330
2AB
330
2AC
330
2AD
330
2AE
330
2AF
330
2B0
330
2B1
330
2B2
330
2B3
330
2B4
330
2B5
330
2B6
330
2B7
330
2B8
330
2B9
330
2BA
330
2BB
330
2BC
330
2BD
330
2BE
330
2BF
330
2C0
330
2C1
330
2C2
330
2C3
330
2C4
330
2C5
330
2C6
330
2C7
330
2C8
330
2C9
330
2CA
330
2CB
330
2CC
330
2CD
330
2CE
330
2CF
330
2D0
330
2D1
330
2D2
330
2D3
330
2D4
330
2D5
330
2D6
330
2D7
330
2D8
330
2D9
330
2DA
330
2DB
330
2DC
330
2DD
330
2DE
330
2DF
330
2E0
330
2E1
330
2E2
330
2E3
330
2E4
330
2E5
330
2E6
330
2E7
330
2E8
330
2E9
330
2EA
330
2EB
330
2EC
330
2ED
330
2EE
330
2EF
330
2F0
330
2F1
330
2F2
330
2F3
330
2F4
330
2F5
330
2F6
330
2F7
330
2F8
330
2F9
330
2FA
330
2FB
330
2FC
330
2FD
330
2FE
330
2FF
330
300
330
301
330
302
330
303
330
304
330
305
330
306
330
307
330
308
330
309
330
30A
330
30B
330
30C
330
30D
330
30E
330
30F
330
310
330
311
330
312
330
313
330
314
330
315
330
316
330
317
330
318
330
319
330
31A
330
31B
330
31C
330
31D
330
31E
330
31F
330
320
330
321
330
322
330
323
330
324
330
325
330
326
330
327
330
328
330
329
330
32A
330
32B
330
32C
330
32D
330
32E
330
32F
330
330
330
331
330
332
330
333
330
334
330
335
330
336
330
337
330
338
330
339
330
33A
330
33B
330
33C
330
33D
330
33E
330
33F
330
340
330
341
330
342
330
343
330
344
330
345
330
346
330
347
330
348
330
349
330
34A
330
34B
330
34C
330
34D
330
34E
330
34F
330
350
330
351
330
352
330
353
330
354
330
355
330
356
330
357
330
358
330
359
330
35A
330
35B
330
35C
330
35D
330
35E
330
35F
330
360
330
361
330
362
330
363
330
364
330
365
330
366
330
367
330
368
330
369
330
36A
330
36B
330
36C
330
36D
330
36E
330
36F
330
370
330
371
330
372
330
373
330
374
330
375
330
376
330
377
330
378
330
379
330
37A
330
37B
330
37C
330
37D
330
37E
330
37F
330
380
330
381
330
382
330
383
330
384
330
385
330
386
330
387
330
388
330
389
330
38A
330
38B
330
38C
330
38D
330
38E
330
38F
330
390
330
391
330
392
330
393
330
394
330
395
330
396
330
397
330
398
330
399
330
39A
330
39B
330
39C
330
39D
330
39E
330
39F
330
3A0
330
3A1
330
3A2
330
3A3
330
3A4
330
3A5
330
3A6
330
3A7
330
3A8
330
3A9
330
3AA
 92
1
 93
40
 72
2
 10
17.4632701481
 20
2.3568008172
 40
0.0024754162
 50
226.3593695814
 51
270.0146919954
 73
1
 72
1
 10
17.4615617819
 20
2.3550094015
 11
17.3982817468
 21
2.415387435
 72
2
 10
17.3965730459
 20
2.4135964972
 40
0.0024753014
 50
46.3461263058
 51
180.0014637321
 73
1
 72
1
 10
17.3940977445
 20
2.413596434
 11
17.3940977445
 21
2.3815504162
 72
2
 10
17.396572744
 20
2.3815504143
 40
0.0024749995
 50
179.9999571957
 51
270.0000428043
 73
1
 72
1
 10
17.3965727459
 20
2.3790754148
 11
17.4168897572
 21
2.3790754148
 72
2
 10
17.416889759
 20
2.3766004153
 40
0.0024749995
 50
359.9999571957
 51
90.0000428043
 73
1
 72
1
 10
17.4193647585
 20
2.3766004134
 11
17.4193647585
 21
2.3568004025
 72
2
 10
17.416889759
 20
2.3568004006
 40
0.0024749995
 50
269.9999571957
 51
0.0000428043
 73
1
 72
1
 10
17.4168897572
 20
2.3543254011
 11
17.3412257152
 21
2.3543254011
 72
2
 10
17.3412257133
 20
2.3568004006
 40
0.0024749995
 50
179.9999571957
 51
270.0000428043
 73
1
 72
1
 10
17.3387507138
 20
2.3568004025
 11
17.3387507138
 21
2.3766004134
 72
2
 10
17.3412257133
 20
2.3766004153
 40
0.0024749995
 50
89.9999571957
 51
180.0000428043
 73
1
 72
1
 10
17.3412257152
 20
2.3790754148
 11
17.3598727255
 21
2.3790754148
 72
2
 10
17.3598727274
 20
2.3815504143
 40
0.0024749995
 50
269.9999571957
 51
0.0000428043
 73
1
 72
1
 10
17.3623477269
 20
2.3815504162
 11
17.3623477269
 21
2.4279054419
 72
2
 10
17.3598727274
 20
2.4279054437
 40
0.0024749995
 50
359.9999571957
 51
90.0000428044
 73
1
 72
1
 10
17.3598727255
 20
2.4303804433
 11
17.3412257152
 21
2.4303804433
 72
2
 10
17.3412257133
 20
2.4328554428
 40
0.0024749995
 50
179.9999571957
 51
270.0000428043
 73
1
 72
1
 10
17.3387507138
 20
2.4328554446
 11
17.3387507138
 21
2.4526554556
 72
2
 10
17.3412257133
 20
2.4526554575
 40
0.0024749995
 50
89.9999571957
 51
180.0000428043
 73
1
 72
1
 10
17.3412257152
 20
2.455130457
 11
17.4416837709
 21
2.455130457
 72
2
 10
17.4416839057
 20
2.4526562892
 40
0.0024741678
 50
46.3477981899
 51
90.0031206038
 73
1
 72
1
 10
17.4433917718
 20
2.4544464566
 11
17.5034248051
 21
2.3971664249
 72
2
 10
17.5051335061
 20
2.3989573626
 40
0.0024753014
 50
226.3461263059
 51
0.0014637321
 73
1
 72
1
 10
17.5076088075
 20
2.3989574258
 11
17.5076088075
 21
2.4279054419
 72
2
 10
17.5051338079
 20
2.4279054437
 40
0.0024749995
 50
359.9999571957
 51
90.0000428043
 73
1
 72
1
 10
17.5051338061
 20
2.4303804433
 11
17.4863577957
 21
2.4303804433
 72
2
 10
17.4863577938
 20
2.4328554428
 40
0.0024749995
 50
179.9999571957
 51
270.0000428043
 73
1
 72
1
 10
17.4838827943
 20
2.4328554446
 11
17.4838827943
 21
2.4526554556
 72
2
 10
17.4863577938
 20
2.4526554575
 40
0.0024749995
 50
89.9999571957
 51
180.0000428043
 73
1
 72
1
 10
17.4863577957
 20
2.455130457
 11
17.5603588367
 21
2.455130457
 72
2
 10
17.5603588386
 20
2.4526554575
 40
0.0024749995
 50
359.9999571957
 51
90.0000428042
 73
1
 72
1
 10
17.5628338381
 20
2.4526554556
 11
17.5628338381
 21
2.4328554446
 72
2
 10
17.5603588386
 20
2.4328554428
 40
0.0024749995
 50
269.9999571958
 51
0.0000428043
 73
1
 72
1
 10
17.5603588367
 20
2.4303804433
 11
17.5424258268
 21
2.4303804433
 72
2
 10
17.5424258249
 20
2.4279054437
 40
0.0024749995
 50
89.9999571958
 51
180.0000428043
 73
1
 72
1
 10
17.5399508254
 20
2.4279054419
 11
17.5399508254
 21
2.3568004025
 72
2
 10
17.5374758259
 20
2.3568004006
 40
0.0024749995
 50
269.9999571958
 51
0.0000428043
 73
1
 72
1
 10
17.537475824
 20
2.3543254011
 11
17.4632707829
 21
2.3543254011
 97
267
330
2A0
330
2A1
330
2A2
330
2A3
330
2A4
330
2A5
330
2A6
330
2A7
330
2A8
330
2A9
330
2AA
330
2AB
330
2AC
330
2AD
330
2AE
330
2AF
330
2B0
330
2B1
330
2B2
330
2B3
330
2B4
330
2B5
330
2B6
330
2B7
330
2B8
330
2B9
330
2BA
330
2BB
330
2BC
330
2BD
330
2BE
330
2BF
330
2C0
330
2C1
330
2C2
330
2C3
330
2C4
330
2C5
330
2C6
330
2C7
330
2C8
330
2C9
330
2CA
330
2CB
330
2CC
330
2CD
330
2CE
330
2CF
330
2D0
330
2D1
330
2D2
330
2D3
330
2D4
330
2D5
330
2D6
330
2D7
330
2D8
330
2D9
330
2DA
330
2DB
330
2DC
330
2DD
330
2DE
330
2DF
330
2E0
330
2E1
330
2E2
330
2E3
330
2E4
330
2E5
330
2E6
330
2E7
330
2E8
330
2E9
330
2EA
330
2EB
330
2EC
330
2ED
330
2EE
330
2EF
330
2F0
330
2F1
330
2F2
330
2F3
330
2F4
330
2F5
330
2F6
330
2F7
330
2F8
330
2F9
330
2FA
330
2FB
330
2FC
330
2FD
330
2FE
330
2FF
330
300
330
301
330
302
330
303
330
304
330
305
330
306
330
307
330
308
330
309
330
30A
330
30B
330
30C
330
30D
330
30E
330
30F
330
310
330
311
330
312
330
313
330
314
330
315
330
316
330
317
330
318
330
319
330
31A
330
31B
330
31C
330
31D
330
31E
330
31F
330
320
330
321
330
322
330
323
330
324
330
325
330
326
330
327
330
328
330
329
330
32A
330
32B
330
32C
330
32D
330
32E
330
32F
330
330
330
331
330
332
330
333
330
334
330
335
330
336
330
337
330
338
330
339
330
33A
330
33B
330
33C
330
33D
330
33E
330
33F
330
340
330
341
330
342
330
343
330
344
330
345
330
346
330
347
330
348
330
349
330
34A
330
34B
330
34C
330
34D
330
34E
330
34F
330
350
330
351
330
352
330
353
330
354
330
355
330
356
330
357
330
358
330
359
330
35A
330
35B
330
35C
330
35D
330
35E
330
35F
330
360
330
361
330
362
330
363
330
364
330
365
330
366
330
367
330
368
330
369
330
36A
330
36B
330
36C
330
36D
330
36E
330
36F
330
370
330
371
330
372
330
373
330
374
330
375
330
376
330
377
330
378
330
379
330
37A
330
37B
330
37C
330
37D
330
37E
330
37F
330
380
330
381
330
382
330
383
330
384
330
385
330
386
330
387
330
388
330
389
330
38A
330
38B
330
38C
330
38D
330
38E
330
38F
330
390
330
391
330
392
330
393
330
394
330
395
330
396
330
397
330
398
330
399
330
39A
330
39B
330
39C
330
39D
330
39E
330
39F
330
3A0
330
3A1
330
3A2
330
3A3
330
3A4
330
3A5
330
3A6
330
3A7
330
3A8
330
3A9
330
3AA
 92
1
 93
23
 72
2
 10
17.0481152095
 20
2.4027328529
 40
0.048483885
 50
273.21763719
 51
303.0749121182
 73
1
 72
2
 10
17.0629546036
 20
2.379965244
 40
0.0213072145
 50
303.0488228549
 51
355.7263138674
 73
1
 72
2
 10
17.0688911042
 20
2.3799744343
 40
0.0153945295
 50
354.0454548824
 51
5.1878013979
 73
1
 72
2
 10
17.0620614151
 20
2.3797859164
 40
0.0222174455
 50
4.0793399388
 51
69.834329283
 73
1
 72
1
 10
17.0697205646
 20
2.4006414268
 11
17.059669559
 21
2.4041904287
 72
1
 10
17.059669559
 20
2.4041904287
 11
17.0679095636
 21
2.4089664314
 72
2
 10
17.0460441811
 20
2.445793323
 40
0.0428289026
 50
300.6990502959
 51
319.0591802498
 73
1
 72
2
 10
17.0660727781
 20
2.4296649696
 40
0.0171568255
 50
315.9145124245
 51
16.0049121283
 73
1
 72
2
 10
17.0611211659
 20
2.4263113051
 40
0.0229166529
 50
20.6563876465
 51
62.3316896973
 73
1
 72
2
 10
17.0404590422
 20
2.3933827403
 40
0.061747717
 50
59.5385584989
 51
90.0050977555
 73
1
 72
1
 10
17.0404535484
 20
2.455130457
 11
16.8743904563
 21
2.455130457
 72
2
 10
16.8743904545
 20
2.4526554575
 40
0.0024749995
 50
89.9999571958
 51
180.0000428043
 73
1
 72
1
 10
16.8719154549
 20
2.4526554556
 11
16.8719154549
 21
2.4328554446
 72
2
 10
16.8743904545
 20
2.4328554428
 40
0.0024749995
 50
179.9999571957
 51
270.0000428043
 73
1
 72
1
 10
16.8743904563
 20
2.4303804433
 11
16.8983324696
 21
2.4303804433
 72
2
 10
16.8983324714
 20
2.4279054437
 40
0.0024749995
 50
359.9999571957
 51
90.0000428043
 73
1
 72
1
 10
16.9008074709
 20
2.4279054419
 11
16.9008074709
 21
2.3815504162
 72
2
 10
16.8983324714
 20
2.3815504143
 40
0.0024749995
 50
269.9999571958
 51
0.0000428043
 73
1
 72
1
 10
16.8983324696
 20
2.3790754148
 11
16.8743904563
 21
2.3790754148
 72
2
 10
16.8743904545
 20
2.3766004153
 40
0.0024749995
 50
89.9999571958
 51
180.0000428043
 73
1
 72
1
 10
16.8719154549
 20
2.3766004134
 11
16.8719154549
 21
2.3568004025
 72
2
 10
16.8743904545
 20
2.3568004006
 40
0.0024749995
 50
179.9999571957
 51
270.0000428042
 73
1
 72
1
 10
16.8743904563
 20
2.3543254011
 11
17.0508365542
 21
2.3543254011
 97
267
330
2A0
330
2A1
330
2A2
330
2A3
330
2A4
330
2A5
330
2A6
330
2A7
330
2A8
330
2A9
330
2AA
330
2AB
330
2AC
330
2AD
330
2AE
330
2AF
330
2B0
330
2B1
330
2B2
330
2B3
330
2B4
330
2B5
330
2B6
330
2B7
330
2B8
330
2B9
330
2BA
330
2BB
330
2BC
330
2BD
330
2BE
330
2BF
330
2C0
330
2C1
330
2C2
330
2C3
330
2C4
330
2C5
330
2C6
330
2C7
330
2C8
330
2C9
330
2CA
330
2CB
330
2CC
330
2CD
330
2CE
330
2CF
330
2D0
330
2D1
330
2D2
330
2D3
330
2D4
330
2D5
330
2D6
330
2D7
330
2D8
330
2D9
330
2DA
330
2DB
330
2DC
330
2DD
330
2DE
330
2DF
330
2E0
330
2E1
330
2E2
330
2E3
330
2E4
330
2E5
330
2E6
330
2E7
330
2E8
330
2E9
330
2EA
330
2EB
330
2EC
330
2ED
330
2EE
330
2EF
330
2F0
330
2F1
330
2F2
330
2F3
330
2F4
330
2F5
330
2F6
330
2F7
330
2F8
330
2F9
330
2FA
330
2FB
330
2FC
330
2FD
330
2FE
330
2FF
330
300
330
301
330
302
330
303
330
304
330
305
330
306
330
307
330
308
330
309
330
30A
330
30B
330
30C
330
30D
330
30E
330
30F
330
310
330
311
330
312
330
313
330
314
330
315
330
316
330
317
330
318
330
319
330
31A
330
31B
330
31C
330
31D
330
31E
330
31F
330
320
330
321
330
322
330
323
330
324
330
325
330
326
330
327
330
328
330
329
330
32A
330
32B
330
32C
330
32D
330
32E
330
32F
330
330
330
331
330
332
330
333
330
334
330
335
330
336
330
337
330
338
330
339
330
33A
330
33B
330
33C
330
33D
330
33E
330
33F
330
340
330
341
330
342
330
343
330
344
330
345
330
346
330
347
330
348
330
349
330
34A
330
34B
330
34C
330
34D
330
34E
330
34F
330
350
330
351
330
352
330
353
330
354
330
355
330
356
330
357
330
358
330
359
330
35A
330
35B
330
35C
330
35D
330
35E
330
35F
330
360
330
361
330
362
330
363
330
364
330
365
330
366
330
367
330
368
330
369
330
36A
330
36B
330
36C
330
36D
330
36E
330
36F
330
370
330
371
330
372
330
373
330
374
330
375
330
376
330
377
330
378
330
379
330
37A
330
37B
330
37C
330
37D
330
37E
330
37F
330
380
330
381
330
382
330
383
330
384
330
385
330
386
330
387
330
388
330
389
330
38A
330
38B
330
38C
330
38D
330
38E
330
38F
330
390
330
391
330
392
330
393
330
394
330
395
330
396
330
397
330
398
330
399
330
39A
330
39B
330
39C
330
39D
330
39E
330
39F
330
3A0
330
3A1
330
3A2
330
3A3
330
3A4
330
3A5
330
3A6
330
3A7
330
3A8
330
3A9
330
3AA
 92
1
 93
32
 72
2
 10
17.1857496308
 20
2.3568004006
 40
0.0024749995
 50
269.9999571958
 51
0.0000428044
 73
1
 72
1
 10
17.1882246303
 20
2.3568004025
 11
17.1882246303
 21
2.3766004134
 72
2
 10
17.1857496308
 20
2.3766004153
 40
0.0024749995
 50
359.9999571957
 51
90.0000428043
 73
1
 72
1
 10
17.185749629
 20
2.3790754148
 11
17.1744666227
 21
2.3790754148
 72
2
 10
17.1744665134
 20
2.3815504549
 40
0.0024750401
 50
147.6063258011
 51
270.0025305754
 73
1
 72
1
 10
17.1723766216
 20
2.3828764169
 11
17.1778926246
 21
2.3915704217
 72
2
 10
17.1799825555
 20
2.3902442221
 40
0.0024752003
 50
89.998372645
 51
147.602165307
 73
1
 72
1
 10
17.1799826258
 20
2.3927194224
 11
17.2148606451
 21
2.3927194224
 72
2
 10
17.2148601055
 20
2.3902439622
 40
0.0024754602
 50
32.8959418574
 51
89.9875097202
 73
1
 72
1
 10
17.2169386463
 20
2.3915884218
 11
17.2225646494
 21
2.3828954169
 72
2
 10
17.2204866271
 20
2.3815506219
 40
0.0024752071
 50
270.0004896793
 51
32.9089806818
 73
1
 72
1
 10
17.2204866482
 20
2.3790754148
 11
17.2060356402
 21
2.3790754148
 72
2
 10
17.2060356384
 20
2.3766004153
 40
0.0024749995
 50
89.9999571958
 51
180.0000428043
 73
1
 72
1
 10
17.2035606388
 20
2.3766004134
 11
17.2035606388
 21
2.3568004025
 72
2
 10
17.2060356384
 20
2.3568004006
 40
0.0024749995
 50
179.9999571957
 51
270.0000428042
 73
1
 72
1
 10
17.2060356402
 20
2.3543254011
 11
17.3113166986
 21
2.3543254011
 72
2
 10
17.3113167005
 20
2.3568004006
 40
0.0024749995
 50
269.9999571957
 51
0.0000428043
 73
1
 72
1
 10
17.3137917
 20
2.3568004025
 11
17.3137917
 21
2.3766004134
 72
2
 10
17.3113167005
 20
2.3766004153
 40
0.0024749995
 50
359.9999571957
 51
90.0000428043
 73
1
 72
1
 10
17.3113166986
 20
2.3790754148
 11
17.2913006875
 21
2.3790754148
 72
2
 10
17.291300808
 20
2.3815494558
 40
0.002474041
 50
212.9056413127
 51
269.9972091756
 73
1
 72
1
 10
17.2892236864
 20
2.3802054154
 11
17.2414676599
 21
2.4540004564
 72
2
 10
17.2393900382
 20
2.4526554968
 40
0.0024749602
 50
32.9172174468
 51
90.0087853096
 73
1
 72
1
 10
17.2393896587
 20
2.455130457
 11
17.182214627
 21
2.455130457
 72
2
 10
17.1822145567
 20
2.4526552567
 40
0.0024752003
 50
89.998372645
 51
147.602165307
 73
1
 72
1
 10
17.1801246258
 20
2.4539814564
 11
17.1333245999
 21
2.3802244155
 72
2
 10
17.131234669
 20
2.3815506151
 40
0.0024752003
 50
269.998372645
 51
327.602165307
 73
1
 72
1
 10
17.1312345987
 20
2.3790754148
 11
17.1083735861
 21
2.3790754148
 72
2
 10
17.1083735842
 20
2.3766004153
 40
0.0024749995
 50
89.9999571957
 51
180.0000428043
 73
1
 72
1
 10
17.1058985847
 20
2.3766004134
 11
17.1058985847
 21
2.3568004025
 72
2
 10
17.1083735842
 20
2.3568004006
 40
0.0024749995
 50
179.9999571957
 51
270.0000428043
 73
1
 72
1
 10
17.1083735861
 20
2.3543254011
 11
17.185749629
 21
2.3543254011
 97
267
330
2A0
330
2A1
330
2A2
330
2A3
330
2A4
330
2A5
330
2A6
330
2A7
330
2A8
330
2A9
330
2AA
330
2AB
330
2AC
330
2AD
330
2AE
330
2AF
330
2B0
330
2B1
330
2B2
330
2B3
330
2B4
330
2B5
330
2B6
330
2B7
330
2B8
330
2B9
330
2BA
330
2BB
330
2BC
330
2BD
330
2BE
330
2BF
330
2C0
330
2C1
330
2C2
330
2C3
330
2C4
330
2C5
330
2C6
330
2C7
330
2C8
330
2C9
330
2CA
330
2CB
330
2CC
330
2CD
330
2CE
330
2CF
330
2D0
330
2D1
330
2D2
330
2D3
330
2D4
330
2D5
330
2D6
330
2D7
330
2D8
330
2D9
330
2DA
330
2DB
330
2DC
330
2DD
330
2DE
330
2DF
330
2E0
330
2E1
330
2E2
330
2E3
330
2E4
330
2E5
330
2E6
330
2E7
330
2E8
330
2E9
330
2EA
330
2EB
330
2EC
330
2ED
330
2EE
330
2EF
330
2F0
330
2F1
330
2F2
330
2F3
330
2F4
330
2F5
330
2F6
330
2F7
330
2F8
330
2F9
330
2FA
330
2FB
330
2FC
330
2FD
330
2FE
330
2FF
330
300
330
301
330
302
330
303
330
304
330
305
330
306
330
307
330
308
330
309
330
30A
330
30B
330
30C
330
30D
330
30E
330
30F
330
310
330
311
330
312
330
313
330
314
330
315
330
316
330
317
330
318
330
319
330
31A
330
31B
330
31C
330
31D
330
31E
330
31F
330
320
330
321
330
322
330
323
330
324
330
325
330
326
330
327
330
328
330
329
330
32A
330
32B
330
32C
330
32D
330
32E
330
32F
330
330
330
331
330
332
330
333
330
334
330
335
330
336
330
337
330
338
330
339
330
33A
330
33B
330
33C
330
33D
330
33E
330
33F
330
340
330
341
330
342
330
343
330
344
330
345
330
346
330
347
330
348
330
349
330
34A
330
34B
330
34C
330
34D
330
34E
330
34F
330
350
330
351
330
352
330
353
330
354
330
355
330
356
330
357
330
358
330
359
330
35A
330
35B
330
35C
330
35D
330
35E
330
35F
330
360
330
361
330
362
330
363
330
364
330
365
330
366
330
367
330
368
330
369
330
36A
330
36B
330
36C
330
36D
330
36E
330
36F
330
370
330
371
330
372
330
373
330
374
330
375
330
376
330
377
330
378
330
379
330
37A
330
37B
330
37C
330
37D
330
37E
330
37F
330
380
330
381
330
382
330
383
330
384
330
385
330
386
330
387
330
388
330
389
330
38A
330
38B
330
38C
330
38D
330
38E
330
38F
330
390
330
391
330
392
330
393
330
394
330
395
330
396
330
397
330
398
330
399
330
39A
330
39B
330
39C
330
39D
330
39E
330
39F
330
3A0
330
3A1
330
3A2
330
3A3
330
3A4
330
3A5
330
3A6
330
3A7
330
3A8
330
3A9
330
3AA
 92
1
 93
6
 72
2
 10
16.963795504
 20
2.3815504143
 40
0.0024749995
 50
179.9999571957
 51
270.0000428043
 73
1
 72
1
 10
16.9613205045
 20
2.3815504162
 11
16.9613205045
 21
2.3939254231
 72
2
 10
16.963795504
 20
2.3939254249
 40
0.0024749995
 50
89.9999571957
 51
180.0000428043
 73
1
 72
1
 10
16.9637955059
 20
2.3964004244
 11
17.0051585288
 21
2.3964004244
 72
2
 10
17.0051585288
 20
2.3877379196
 40
0.0086625048
 50
270.0
 51
90.0
 73
1
 72
1
 10
17.0051585288
 20
2.3790754148
 11
16.9637955059
 21
2.3790754148
 97
267
330
2A0
330
2A1
330
2A2
330
2A3
330
2A4
330
2A5
330
2A6
330
2A7
330
2A8
330
2A9
330
2AA
330
2AB
330
2AC
330
2AD
330
2AE
330
2AF
330
2B0
330
2B1
330
2B2
330
2B3
330
2B4
330
2B5
330
2B6
330
2B7
330
2B8
330
2B9
330
2BA
330
2BB
330
2BC
330
2BD
330
2BE
330
2BF
330
2C0
330
2C1
330
2C2
330
2C3
330
2C4
330
2C5
330
2C6
330
2C7
330
2C8
330
2C9
330
2CA
330
2CB
330
2CC
330
2CD
330
2CE
330
2CF
330
2D0
330
2D1
330
2D2
330
2D3
330
2D4
330
2D5
330
2D6
330
2D7
330
2D8
330
2D9
330
2DA
330
2DB
330
2DC
330
2DD
330
2DE
330
2DF
330
2E0
330
2E1
330
2E2
330
2E3
330
2E4
330
2E5
330
2E6
330
2E7
330
2E8
330
2E9
330
2EA
330
2EB
330
2EC
330
2ED
330
2EE
330
2EF
330
2F0
330
2F1
330
2F2
330
2F3
330
2F4
330
2F5
330
2F6
330
2F7
330
2F8
330
2F9
330
2FA
330
2FB
330
2FC
330
2FD
330
2FE
330
2FF
330
300
330
301
330
302
330
303
330
304
330
305
330
306
330
307
330
308
330
309
330
30A
330
30B
330
30C
330
30D
330
30E
330
30F
330
310
330
311
330
312
330
313
330
314
330
315
330
316
330
317
330
318
330
319
330
31A
330
31B
330
31C
330
31D
330
31E
330
31F
330
320
330
321
330
322
330
323
330
324
330
325
330
326
330
327
330
328
330
329
330
32A
330
32B
330
32C
330
32D
330
32E
330
32F
330
330
330
331
330
332
330
333
330
334
330
335
330
336
330
337
330
338
330
339
330
33A
330
33B
330
33C
330
33D
330
33E
330
33F
330
340
330
341
330
342
330
343
330
344
330
345
330
346
330
347
330
348
330
349
330
34A
330
34B
330
34C
330
34D
330
34E
330
34F
330
350
330
351
330
352
330
353
330
354
330
355
330
356
330
357
330
358
330
359
330
35A
330
35B
330
35C
330
35D
330
35E
330
35F
330
360
330
361
330
362
330
363
330
364
330
365
330
366
330
367
330
368
330
369
330
36A
330
36B
330
36C
330
36D
330
36E
330
36F
330
370
330
371
330
372
330
373
330
374
330
375
330
376
330
377
330
378
330
379
330
37A
330
37B
330
37C
330
37D
330
37E
330
37F
330
380
330
381
330
382
330
383
330
384
330
385
330
386
330
387
330
388
330
389
330
38A
330
38B
330
38C
330
38D
330
38E
330
38F
330
390
330
391
330
392
330
393
330
394
330
395
330
396
330
397
330
398
330
399
330
39A
330
39B
330
39C
330
39D
330
39E
330
39F
330
3A0
330
3A1
330
3A2
330
3A3
330
3A4
330
3A5
330
3A6
330
3A7
330
3A8
330
3A9
330
3AA
 92
1
 93
13
 72
2
 10
18.1572301659
 20
2.415180433
 40
0.0024749995
 50
179.9999571957
 51
270.0000428043
 73
1
 72
1
 10
18.1547551663
 20
2.4151804348
 11
18.1547551663
 21
2.4279054419
 72
2
 10
18.1572301659
 20
2.4279054437
 40
0.0024749995
 50
89.9999571957
 51
180.0000428043
 73
1
 72
1
 10
18.1572301677
 20
2.4303804433
 11
18.1940311881
 21
2.4303804433
 72
2
 10
18.1924863006
 20
2.4019259643
 40
0.0284963867
 50
70.3834917948
 51
86.8922743861
 73
1
 72
2
 10
18.1973459106
 20
2.4149676972
 40
0.0145814632
 50
54.6746025112
 51
71.1660573124
 73
1
 72
2
 10
18.2024754016
 20
2.4218216224
 40
0.0060275915
 50
20.9055592135
 51
56.7851676243
 73
1
 72
2
 10
18.2037759605
 20
2.4224819047
 40
0.0045795888
 50
355.6235353944
 51
18.9942678268
 73
1
 72
2
 10
18.2025691502
 20
2.4227756809
 40
0.0058087709
 50
318.8515287446
 51
353.6422345323
 73
1
 72
2
 10
18.198398534
 20
2.4260095887
 40
0.0110815393
 50
306.758405961
 51
320.4502234234
 73
1
 72
2
 10
18.1927693431
 20
2.4337504172
 40
0.0206523367
 50
289.6883413472
 51
306.4184925496
 73
1
 72
2
 10
18.1908418374
 20
2.4381440645
 40
0.0254407115
 50
270.7327484175
 51
290.441894219
 73
1
 72
1
 10
18.1911671865
 20
2.4127054335
 11
18.1572301677
 21
2.4127054335
 97
267
330
2A0
330
2A1
330
2A2
330
2A3
330
2A4
330
2A5
330
2A6
330
2A7
330
2A8
330
2A9
330
2AA
330
2AB
330
2AC
330
2AD
330
2AE
330
2AF
330
2B0
330
2B1
330
2B2
330
2B3
330
2B4
330
2B5
330
2B6
330
2B7
330
2B8
330
2B9
330
2BA
330
2BB
330
2BC
330
2BD
330
2BE
330
2BF
330
2C0
330
2C1
330
2C2
330
2C3
330
2C4
330
2C5
330
2C6
330
2C7
330
2C8
330
2C9
330
2CA
330
2CB
330
2CC
330
2CD
330
2CE
330
2CF
330
2D0
330
2D1
330
2D2
330
2D3
330
2D4
330
2D5
330
2D6
330
2D7
330
2D8
330
2D9
330
2DA
330
2DB
330
2DC
330
2DD
330
2DE
330
2DF
330
2E0
330
2E1
330
2E2
330
2E3
330
2E4
330
2E5
330
2E6
330
2E7
330
2E8
330
2E9
330
2EA
330
2EB
330
2EC
330
2ED
330
2EE
330
2EF
330
2F0
330
2F1
330
2F2
330
2F3
330
2F4
330
2F5
330
2F6
330
2F7
330
2F8
330
2F9
330
2FA
330
2FB
330
2FC
330
2FD
330
2FE
330
2FF
330
300
330
301
330
302
330
303
330
304
330
305
330
306
330
307
330
308
330
309
330
30A
330
30B
330
30C
330
30D
330
30E
330
30F
330
310
330
311
330
312
330
313
330
314
330
315
330
316
330
317
330
318
330
319
330
31A
330
31B
330
31C
330
31D
330
31E
330
31F
330
320
330
321
330
322
330
323
330
324
330
325
330
326
330
327
330
328
330
329
330
32A
330
32B
330
32C
330
32D
330
32E
330
32F
330
330
330
331
330
332
330
333
330
334
330
335
330
336
330
337
330
338
330
339
330
33A
330
33B
330
33C
330
33D
330
33E
330
33F
330
340
330
341
330
342
330
343
330
344
330
345
330
346
330
347
330
348
330
349
330
34A
330
34B
330
34C
330
34D
330
34E
330
34F
330
350
330
351
330
352
330
353
330
354
330
355
330
356
330
357
330
358
330
359
330
35A
330
35B
330
35C
330
35D
330
35E
330
35F
330
360
330
361
330
362
330
363
330
364
330
365
330
366
330
367
330
368
330
369
330
36A
330
36B
330
36C
330
36D
330
36E
330
36F
330
370
330
371
330
372
330
373
330
374
330
375
330
376
330
377
330
378
330
379
330
37A
330
37B
330
37C
330
37D
330
37E
330
37F
330
380
330
381
330
382
330
383
330
384
330
385
330
386
330
387
330
388
330
389
330
38A
330
38B
330
38C
330
38D
330
38E
330
38F
330
390
330
391
330
392
330
393
330
394
330
395
330
396
330
397
330
398
330
399
330
39A
330
39B
330
39C
330
39D
330
39E
330
39F
330
3A0
330
3A1
330
3A2
330
3A3
330
3A4
330
3A5
330
3A6
330
3A7
330
3A8
330
3A9
330
3AA
 92
1
 93
6
 72
2
 10
17.0051585288
 20
2.4217179385
 40
0.0086625048
 50
270.0
 51
90.0
 73
1
 72
1
 10
17.0051585288
 20
2.4303804433
 11
16.9637955059
 21
2.4303804433
 72
2
 10
16.963795504
 20
2.4279054437
 40
0.0024749995
 50
89.9999571957
 51
180.0000428043
 73
1
 72
1
 10
16.9613205045
 20
2.4279054419
 11
16.9613205045
 21
2.415530435
 72
2
 10
16.963795504
 20
2.4155304332
 40
0.0024749995
 50
179.9999571957
 51
270.0000428043
 73
1
 72
1
 10
16.9637955059
 20
2.4130554337
 11
17.0051585288
 21
2.4130554337
 97
267
330
2A0
330
2A1
330
2A2
330
2A3
330
2A4
330
2A5
330
2A6
330
2A7
330
2A8
330
2A9
330
2AA
330
2AB
330
2AC
330
2AD
330
2AE
330
2AF
330
2B0
330
2B1
330
2B2
330
2B3
330
2B4
330
2B5
330
2B6
330
2B7
330
2B8
330
2B9
330
2BA
330
2BB
330
2BC
330
2BD
330
2BE
330
2BF
330
2C0
330
2C1
330
2C2
330
2C3
330
2C4
330
2C5
330
2C6
330
2C7
330
2C8
330
2C9
330
2CA
330
2CB
330
2CC
330
2CD
330
2CE
330
2CF
330
2D0
330
2D1
330
2D2
330
2D3
330
2D4
330
2D5
330
2D6
330
2D7
330
2D8
330
2D9
330
2DA
330
2DB
330
2DC
330
2DD
330
2DE
330
2DF
330
2E0
330
2E1
330
2E2
330
2E3
330
2E4
330
2E5
330
2E6
330
2E7
330
2E8
330
2E9
330
2EA
330
2EB
330
2EC
330
2ED
330
2EE
330
2EF
330
2F0
330
2F1
330
2F2
330
2F3
330
2F4
330
2F5
330
2F6
330
2F7
330
2F8
330
2F9
330
2FA
330
2FB
330
2FC
330
2FD
330
2FE
330
2FF
330
300
330
301
330
302
330
303
330
304
330
305
330
306
330
307
330
308
330
309
330
30A
330
30B
330
30C
330
30D
330
30E
330
30F
330
310
330
311
330
312
330
313
330
314
330
315
330
316
330
317
330
318
330
319
330
31A
330
31B
330
31C
330
31D
330
31E
330
31F
330
320
330
321
330
322
330
323
330
324
330
325
330
326
330
327
330
328
330
329
330
32A
330
32B
330
32C
330
32D
330
32E
330
32F
330
330
330
331
330
332
330
333
330
334
330
335
330
336
330
337
330
338
330
339
330
33A
330
33B
330
33C
330
33D
330
33E
330
33F
330
340
330
341
330
342
330
343
330
344
330
345
330
346
330
347
330
348
330
349
330
34A
330
34B
330
34C
330
34D
330
34E
330
34F
330
350
330
351
330
352
330
353
330
354
330
355
330
356
330
357
330
358
330
359
330
35A
330
35B
330
35C
330
35D
330
35E
330
35F
330
360
330
361
330
362
330
363
330
364
330
365
330
366
330
367
330
368
330
369
330
36A
330
36B
330
36C
330
36D
330
36E
330
36F
330
370
330
371
330
372
330
373
330
374
330
375
330
376
330
377
330
378
330
379
330
37A
330
37B
330
37C
330
37D
330
37E
330
37F
330
380
330
381
330
382
330
383
330
384
330
385
330
386
330
387
330
388
330
389
330
38A
330
38B
330
38C
330
38D
330
38E
330
38F
330
390
330
391
330
392
330
393
330
394
330
395
330
396
330
397
330
398
330
399
330
39A
330
39B
330
39C
330
39D
330
39E
330
39F
330
3A0
330
3A1
330
3A2
330
3A3
330
3A4
330
3A5
330
3A6
330
3A7
330
3A8
330
3A9
330
3AA
 92
1
 93
8
 72
2
 10
17.2090556207
 20
2.4161446411
 40
0.0024752071
 50
270.0004896793
 51
32.9089806818
 73
1
 72
1
 10
17.211133643
 20
2.4174894361
 11
17.203874639
 21
2.4287054423
 72
2
 10
17.2017960982
 20
2.4273609828
 40
0.0024754602
 50
32.8959418573
 51
89.9875097202
 73
1
 72
1
 10
17.2017966379
 20
2.429836443
 11
17.1956156344
 21
2.429836443
 72
2
 10
17.1956155641
 20
2.4273612427
 40
0.0024752003
 50
89.998372645
 51
147.6021653069
 73
1
 72
1
 10
17.1935256333
 20
2.4286874423
 11
17.1864086293
 21
2.4174704361
 72
2
 10
17.1884985212
 20
2.4161444741
 40
0.0024750401
 50
147.6063258012
 51
270.0025305753
 73
1
 72
1
 10
17.1884986305
 20
2.413669434
 11
17.2090556419
 21
2.413669434
 97
267
330
2A0
330
2A1
330
2A2
330
2A3
330
2A4
330
2A5
330
2A6
330
2A7
330
2A8
330
2A9
330
2AA
330
2AB
330
2AC
330
2AD
330
2AE
330
2AF
330
2B0
330
2B1
330
2B2
330
2B3
330
2B4
330
2B5
330
2B6
330
2B7
330
2B8
330
2B9
330
2BA
330
2BB
330
2BC
330
2BD
330
2BE
330
2BF
330
2C0
330
2C1
330
2C2
330
2C3
330
2C4
330
2C5
330
2C6
330
2C7
330
2C8
330
2C9
330
2CA
330
2CB
330
2CC
330
2CD
330
2CE
330
2CF
330
2D0
330
2D1
330
2D2
330
2D3
330
2D4
330
2D5
330
2D6
330
2D7
330
2D8
330
2D9
330
2DA
330
2DB
330
2DC
330
2DD
330
2DE
330
2DF
330
2E0
330
2E1
330
2E2
330
2E3
330
2E4
330
2E5
330
2E6
330
2E7
330
2E8
330
2E9
330
2EA
330
2EB
330
2EC
330
2ED
330
2EE
330
2EF
330
2F0
330
2F1
330
2F2
330
2F3
330
2F4
330
2F5
330
2F6
330
2F7
330
2F8
330
2F9
330
2FA
330
2FB
330
2FC
330
2FD
330
2FE
330
2FF
330
300
330
301
330
302
330
303
330
304
330
305
330
306
330
307
330
308
330
309
330
30A
330
30B
330
30C
330
30D
330
30E
330
30F
330
310
330
311
330
312
330
313
330
314
330
315
330
316
330
317
330
318
330
319
330
31A
330
31B
330
31C
330
31D
330
31E
330
31F
330
320
330
321
330
322
330
323
330
324
330
325
330
326
330
327
330
328
330
329
330
32A
330
32B
330
32C
330
32D
330
32E
330
32F
330
330
330
331
330
332
330
333
330
334
330
335
330
336
330
337
330
338
330
339
330
33A
330
33B
330
33C
330
33D
330
33E
330
33F
330
340
330
341
330
342
330
343
330
344
330
345
330
346
330
347
330
348
330
349
330
34A
330
34B
330
34C
330
34D
330
34E
330
34F
330
350
330
351
330
352
330
353
330
354
330
355
330
356
330
357
330
358
330
359
330
35A
330
35B
330
35C
330
35D
330
35E
330
35F
330
360
330
361
330
362
330
363
330
364
330
365
330
366
330
367
330
368
330
369
330
36A
330
36B
330
36C
330
36D
330
36E
330
36F
330
370
330
371
330
372
330
373
330
374
330
375
330
376
330
377
330
378
330
379
330
37A
330
37B
330
37C
330
37D
330
37E
330
37F
330
380
330
381
330
382
330
383
330
384
330
385
330
386
330
387
330
388
330
389
330
38A
330
38B
330
38C
330
38D
330
38E
330
38F
330
390
330
391
330
392
330
393
330
394
330
395
330
396
330
397
330
398
330
399
330
39A
330
39B
330
39C
330
39D
330
39E
330
39F
330
3A0
330
3A1
330
3A2
330
3A3
330
3A4
330
3A5
330
3A6
330
3A7
330
3A8
330
3A9
330
3AA
 92
1
 93
1
 72
3
 10
17.573550844
 20
2.4034764283
 11
-0.8250004575
 21
0.0
 40
0.218572
 50
0.0
 51
-0.0
 73
1
 97
267
330
2A0
330
2A1
330
2A2
330
2A3
330
2A4
330
2A5
330
2A6
330
2A7
330
2A8
330
2A9
330
2AA
330
2AB
330
2AC
330
2AD
330
2AE
330
2AF
330
2B0
330
2B1
330
2B2
330
2B3
330
2B4
330
2B5
330
2B6
330
2B7
330
2B8
330
2B9
330
2BA
330
2BB
330
2BC
330
2BD
330
2BE
330
2BF
330
2C0
330
2C1
330
2C2
330
2C3
330
2C4
330
2C5
330
2C6
330
2C7
330
2C8
330
2C9
330
2CA
330
2CB
330
2CC
330
2CD
330
2CE
330
2CF
330
2D0
330
2D1
330
2D2
330
2D3
330
2D4
330
2D5
330
2D6
330
2D7
330
2D8
330
2D9
330
2DA
330
2DB
330
2DC
330
2DD
330
2DE
330
2DF
330
2E0
330
2E1
330
2E2
330
2E3
330
2E4
330
2E5
330
2E6
330
2E7
330
2E8
330
2E9
330
2EA
330
2EB
330
2EC
330
2ED
330
2EE
330
2EF
330
2F0
330
2F1
330
2F2
330
2F3
330
2F4
330
2F5
330
2F6
330
2F7
330
2F8
330
2F9
330
2FA
330
2FB
330
2FC
330
2FD
330
2FE
330
2FF
330
300
330
301
330
302
330
303
330
304
330
305
330
306
330
307
330
308
330
309
330
30A
330
30B
330
30C
330
30D
330
30E
330
30F
330
310
330
311
330
312
330
313
330
314
330
315
330
316
330
317
330
318
330
319
330
31A
330
31B
330
31C
330
31D
330
31E
330
31F
330
320
330
321
330
322
330
323
330
324
330
325
330
326
330
327
330
328
330
329
330
32A
330
32B
330
32C
330
32D
330
32E
330
32F
330
330
330
331
330
332
330
333
330
334
330
335
330
336
330
337
330
338
330
339
330
33A
330
33B
330
33C
330
33D
330
33E
330
33F
330
340
330
341
330
342
330
343
330
344
330
345
330
346
330
347
330
348
330
349
330
34A
330
34B
330
34C
330
34D
330
34E
330
34F
330
350
330
351
330
352
330
353
330
354
330
355
330
356
330
357
330
358
330
359
330
35A
330
35B
330
35C
330
35D
330
35E
330
35F
330
360
330
361
330
362
330
363
330
364
330
365
330
366
330
367
330
368
330
369
330
36A
330
36B
330
36C
330
36D
330
36E
330
36F
330
370
330
371
330
372
330
373
330
374
330
375
330
376
330
377
330
378
330
379
330
37A
330
37B
330
37C
330
37D
330
37E
330
37F
330
380
330
381
330
382
330
383
330
384
330
385
330
386
330
387
330
388
330
389
330
38A
330
38B
330
38C
330
38D
330
38E
330
38F
330
390
330
391
330
392
330
393
330
394
330
395
330
396
330
397
330
398
330
399
330
39A
330
39B
330
39C
330
39D
330
39E
330
39F
330
3A0
330
3A1
330
3A2
330
3A3
330
3A4
330
3A5
330
3A6
330
3A7
330
3A8
330
3A9
330
3AA
 75
0
 76
1
 98
1
 10
0.0
 20
0.0
  0
LINE
  5
3AC
100
AcDbEntity
  8
0
100
AcDbLine
 62
7
  6
CONTINUOUS
 10
21.05
 20
2.67
 11
14.7
 21
2.67
  0
LINE
  5
3AD
100
AcDbEntity
  8
0
100
AcDbLine
 62
7
  6
CONTINUOUS
 10
6.007
 20
0.75
 11
6.007
 21
0.5
  0
LINE
  5
3AE
100
AcDbEntity
  8
0
100
AcDbLine
 62
7
  6
CONTINUOUS
 10
6.007
 20
15.75
 11
6.007
 21
16.0
  0
LINE
  5
3AF
100
AcDbEntity
  8
0
100
AcDbLine
 62
7
  6
CONTINUOUS
 10
0.814
 20
8.163397
 11
0.964
 21
8.25
  0
LINE
  5
3B0
100
AcDbEntity
  8
0
100
AcDbLine
 62
7
  6
CONTINUOUS
 10
0.964
 20
8.25
 11
0.814
 21
8.336603
  0
LINE
  5
3B1
100
AcDbEntity
  8
0
100
AcDbLine
 62
7
  6
CONTINUOUS
 10
0.964
 20
4.4
 11
0.714
 21
4.4
  0
LINE
  5
3B2
100
AcDbEntity
  8
0
100
AcDbLine
 62
7
  6
CONTINUOUS
 10
21.05
 20
4.4
 11
21.3
 21
4.4
  0
LINE
  5
3B3
100
AcDbEntity
  8
0
100
AcDbLine
 62
7
  6
CONTINUOUS
 10
11.093603
 20
0.6
 11
11.007
 21
0.75
  0
LINE
  5
3B4
100
AcDbEntity
  8
0
100
AcDbLine
 62
7
  6
CONTINUOUS
 10
11.007
 20
15.75
 11
11.093603
 21
15.9
  0
LINE
  5
3B5
100
AcDbEntity
  8
0
100
AcDbLine
 62
7
  6
CONTINUOUS
 10
8.507
 20
0.75
 11
8.507
 21
0.5
  0
LINE
  5
3B6
100
AcDbEntity
  8
0
100
AcDbLine
 62
7
  6
CONTINUOUS
 10
8.507
 20
15.75
 11
8.507
 21
16.0
  0
LINE
  5
3B7
100
AcDbEntity
  8
0
100
AcDbLine
 62
7
  6
CONTINUOUS
 10
11.007
 20
0.75
 11
11.007
 21
0.5
  0
LINE
  5
3B8
100
AcDbEntity
  8
0
100
AcDbLine
 62
7
  6
CONTINUOUS
 10
11.007
 20
15.75
 11
11.007
 21
16.0
  0
LINE
  5
3B9
100
AcDbEntity
  8
0
100
AcDbLine
 62
7
  6
CONTINUOUS
 10
0.964
 20
8.25
 11
0.714
 21
8.25
  0
LINE
  5
3BA
100
AcDbEntity
  8
0
100
AcDbLine
 62
7
  6
CONTINUOUS
 10
21.05
 20
8.25
 11
21.3
 21
8.25
  0
LINE
  5
3BB
100
AcDbEntity
  8
0
100
AcDbLine
 62
7
  6
CONTINUOUS
 10
13.507
 20
0.75
 11
13.507
 21
0.5
  0
LINE
  5
3BC
100
AcDbEntity
  8
0
100
AcDbLine
 62
7
  6
CONTINUOUS
 10
13.507
 20
15.75
 11
13.507
 21
16.0
  0
LINE
  5
3BD
100
AcDbEntity
  8
0
100
AcDbLine
 62
7
  6
CONTINUOUS
 10
14.7
 20
2.67
 11
14.7
 21
0.75
  0
LINE
  5
3BE
100
AcDbEntity
  8
0
100
AcDbLine
 62
7
  6
CONTINUOUS
 10
11.007
 20
0.75
 11
10.920397
 21
0.6
  0
LINE
  5
3BF
100
AcDbEntity
  8
0
100
AcDbLine
 62
7
  6
CONTINUOUS
 10
0.964
 20
12.1
 11
0.714
 21
12.1
  0
LINE
  5
3C0
100
AcDbEntity
  8
0
100
AcDbLine
 62
7
  6
CONTINUOUS
 10
21.05
 20
12.1
 11
21.3
 21
12.1
  0
LINE
  5
3C1
100
AcDbEntity
  8
0
100
AcDbLine
 62
7
  6
CONTINUOUS
 10
10.920397
 20
15.9
 11
11.007
 21
15.75
  0
LINE
  5
3C2
100
AcDbEntity
  8
0
100
AcDbLine
 62
7
  6
CONTINUOUS
 10
15.2229827477
 20
1.0139932523
 11
15.2229827477
 21
0.7919022523
  0
LINE
  5
3C3
100
AcDbEntity
  8
0
100
AcDbLine
 62
7
  6
CONTINUOUS
 10
15.2229827477
 20
1.0639932523
 11
15.2229827477
 21
1.1639932523
  0
LINE
  5
3C4
100
AcDbEntity
  8
0
100
AcDbLine
 62
7
  6
CONTINUOUS
 10
15.2229827477
 20
1.2139932523
 11
15.2229827477
 21
1.4360842523
  0
LINE
  5
3C5
100
AcDbEntity
  8
0
100
AcDbLine
 62
7
  6
CONTINUOUS
 10
15.8276527477
 20
0.9312952523
 11
15.8276527477
 21
1.2966912523
  0
LINE
  5
3C6
100
AcDbEntity
  8
0
100
AcDbLine
 62
7
  6
CONTINUOUS
 10
16.007
 20
0.75
 11
16.007
 21
0.5
  0
LINE
  5
3C7
100
AcDbEntity
  8
0
100
AcDbLine
 62
7
  6
CONTINUOUS
 10
16.007
 20
15.75
 11
16.007
 21
16.0
  0
LINE
  5
3C8
100
AcDbEntity
  8
0
100
AcDbLine
 62
7
  6
CONTINUOUS
 10
16.4340437477
 20
1.3660842523
 11
16.4340437477
 21
0.8619022523
  0
LINE
  5
3C9
100
AcDbEntity
  8
0
100
AcDbLine
 62
7
  6
CONTINUOUS
 10
21.2
 20
8.336603
 11
21.05
 21
8.25
  0
LINE
  5
3CA
100
AcDbEntity
  8
0
100
AcDbLine
 62
7
  6
CONTINUOUS
 10
21.05
 20
8.25
 11
21.2
 21
8.163397
  0
LINE
  5
3CB
100
AcDbEntity
  8
0
100
AcDbLine
 62
7
  6
CONTINUOUS
 10
16.7
 20
2.67
 11
16.7
 21
0.75
  0
LINE
  5
3CC
100
AcDbEntity
  8
0
100
AcDbLine
 62
7
  6
CONTINUOUS
 10
17.5
 20
1.37
 11
17.5
 21
1.0
  0
LINE
  5
3CD
100
AcDbEntity
  8
0
100
AcDbLine
 62
7
  6
CONTINUOUS
 10
18.507
 20
0.75
 11
18.507
 21
0.5
  0
LINE
  5
3CE
100
AcDbEntity
  8
0
100
AcDbLine
 62
7
  6
CONTINUOUS
 10
18.507
 20
15.75
 11
18.507
 21
16.0
  0
LINE
  5
3CF
100
AcDbEntity
  8
0
100
AcDbLine
 62
7
  6
CONTINUOUS
 10
21.05
 20
15.75
 11
0.964
 21
15.75
  0
LINE
  5
3D0
100
AcDbEntity
  8
0
100
AcDbLine
 62
7
  6
CONTINUOUS
 10
11.093603
 20
15.9
 11
10.920397
 21
15.9
  0
LINE
  5
3D1
100
AcDbEntity
  8
0
100
AcDbLine
 62
7
  6
CONTINUOUS
 10
18.875
 20
1.0
 11
18.875
 21
0.75
  0
LINE
  5
3D2
100
AcDbEntity
  8
0
100
AcDbLine
 62
7
  6
CONTINUOUS
 10
20.25
 20
1.37
 11
20.25
 21
1.0
  0
LINE
  5
3D3
100
AcDbEntity
  8
0
100
AcDbLine
 62
7
  6
CONTINUOUS
 10
21.05
 20
0.75
 11
21.05
 21
15.75
  0
LINE
  5
3D4
100
AcDbEntity
  8
0
100
AcDbLine
 62
7
  6
CONTINUOUS
 10
21.2
 20
8.163397
 11
21.2
 21
8.336603
  0
LINE
  5
3D5
100
AcDbEntity
  8
02___PRT_ALL_AXES
100
AcDbLine
 62
7
  6
CONTINUOUS
 10
7.7427553102
 20
6.5578358969
 11
7.5277553102
 21
6.5578358969
  0
LWPOLYLINE
  5
3D6
100
AcDbEntity
  8
0
100
AcDbPolyline
 62
7
  6
CONTINUOUS
 90
4
 70
0
 10
7.7181898552
 20
8.1040791137
 10
7.7655779847
 20
8.1101535252
 10
7.8131527665
 20
8.1184317537
 10
7.8612392192
 20
8.1288604943
  0
LWPOLYLINE
  5
3D7
100
AcDbEntity
  8
0
100
AcDbPolyline
 62
7
  6
CONTINUOUS
 90
4
 70
0
 10
7.7181898552
 20
8.1040791137
 10
7.7336843986
 20
8.1054735292
 10
7.7490986312
 20
8.1064175164
 10
7.7642646024
 20
8.1069067963
  0
LWPOLYLINE
  5
3D8
100
AcDbEntity
  8
0
100
AcDbPolyline
 62
7
  6
CONTINUOUS
 90
7
 70
0
 10
7.993383969
 20
8.111333696
 10
8.0544905754
 20
8.1128093597
 10
8.1052845572
 20
8.1142850356
 10
8.1445166468
 20
8.1157607475
 10
8.1712206772
 20
8.1172364854
 10
8.1847388342
 20
8.1187122136
 10
8.1861961599
 20
8.1191725495
  0
LWPOLYLINE
  5
3D9
100
AcDbEntity
  8
0
100
AcDbPolyline
 62
7
  6
CONTINUOUS
 90
7
 70
0
 10
7.2900292896
 20
8.1467195598
 10
7.2250500438
 20
8.1451919255
 10
7.1708834464
 20
8.1436642941
 10
7.1289563951
 20
8.1421366309
 10
7.1003748711
 20
8.1406089356
 10
7.0858933633
 20
8.1390812478
 10
7.0843144605
 20
8.1385949328
  0
LWPOLYLINE
  5
3DA
100
AcDbEntity
  8
0
100
AcDbPolyline
 62
7
  6
CONTINUOUS
 90
4
 70
0
 10
7.7642646024
 20
8.1069067963
 10
7.8464626027
 20
8.1083823934
 10
7.9234675454
 20
8.109858032
 10
7.993383969
 20
8.111333696
  0
LWPOLYLINE
  5
3DB
100
AcDbEntity
  8
0
100
AcDbPolyline
 62
7
  6
CONTINUOUS
 90
9
 70
0
 10
7.8612392192
 20
8.1288604943
 10
7.9429570467
 20
8.1303334102
 10
8.0171336564
 20
8.131806326
 10
8.0819511126
 20
8.1332792419
 10
8.1358208555
 20
8.1347521577
 10
8.1774226345
 20
8.1362250736
 10
8.2057368645
 20
8.1376979894
 10
8.2200696145
 20
8.1391709053
 10
8.2216437254
 20
8.1396465966
  0
LWPOLYLINE
  5
3DC
100
AcDbEntity
  8
0
100
AcDbPolyline
 62
7
  6
CONTINUOUS
 90
9
 70
0
 10
7.8612392192
 20
8.1363408093
 10
7.9429570467
 20
8.1378137251
 10
8.0171336564
 20
8.139286641
 10
8.0819511126
 20
8.1407595568
 10
8.1358208555
 20
8.1422324727
 10
8.1774226345
 20
8.1437053885
 10
8.2057368645
 20
8.1451783044
 10
8.2200696145
 20
8.1466512202
 10
8.2218694834
 20
8.1473876781
  0
LWPOLYLINE
  5
3DD
100
AcDbEntity
  8
0
100
AcDbPolyline
 62
7
  6
CONTINUOUS
 90
4
 70
0
 10
7.5315579307
 20
8.15130231
 10
7.4453320587
 20
8.1497747846
 10
7.3641083297
 20
8.1482471945
 10
7.2900292896
 20
8.1467195598
  0
LWPOLYLINE
  5
3DE
100
AcDbEntity
  8
0
100
AcDbPolyline
 62
7
  6
CONTINUOUS
 90
10
 70
0
 10
7.7389526896
 20
8.1655202904
 10
7.8251793375
 20
8.1670478298
 10
7.9064028523
 20
8.1685754169
 10
7.9804812256
 20
8.1701030383
 10
8.0454600144
 20
8.1716306605
 10
8.0996267192
 20
8.1731582919
 10
8.1415540271
 20
8.1746859609
 10
8.1701356831
 20
8.1762136601
 10
8.1846172493
 20
8.177741351
 10
8.1861961599
 20
8.1782276676
  0
LWPOLYLINE
  5
3DF
100
AcDbEntity
  8
0
100
AcDbPolyline
 62
7
  6
CONTINUOUS
 90
4
 70
0
 10
7.5062460179
 20
8.102465785
 10
7.5214142572
 20
8.1025039403
 10
7.5368324613
 20
8.1020885475
 10
7.5523207652
 20
8.1012214545
  0
LINE
  5
3E0
100
AcDbEntity
  8
0
100
AcDbLine
 62
7
  6
CONTINUOUS
 10
8.1549403495
 20
8.0357886529
 11
7.1155702708
 21
8.0357886529
  0
LINE
  5
3E1
100
AcDbEntity
  8
0
100
AcDbLine
 62
7
  6
CONTINUOUS
 10
8.1864364126
 20
8.0672847158
 11
7.0840742078
 21
8.0672847158
  0
LWPOLYLINE
  5
3E2
100
AcDbEntity
  8
0
100
AcDbPolyline
 62
7
  6
CONTINUOUS
 90
4
 70
0
 10
7.5315579307
 20
8.1619625271
 10
7.4910287884
 20
8.16651394
 10
7.4502450818
 20
8.1727125133
 10
7.4092714012
 20
8.1804817911
  0
LWPOLYLINE
  5
3E3
100
AcDbEntity
  8
0
100
AcDbPolyline
 62
7
  6
CONTINUOUS
 90
4
 70
0
 10
7.4092714012
 20
8.121426673
 10
7.4573580707
 20
8.1124632725
 10
7.5049331544
 20
8.1057125519
 10
7.5523207652
 20
8.1012214545
  0
LINE
  5
3E4
100
AcDbEntity
  8
0
100
AcDbLine
 62
7
  6
CONTINUOUS
 10
7.048866895
 20
8.1101190376
 11
7.0843144605
 21
8.0896449904
  0
LWPOLYLINE
  5
3E5
100
AcDbEntity
  8
0
100
AcDbPolyline
 62
7
  6
CONTINUOUS
 90
4
 70
0
 10
7.8612392192
 20
8.1879156125
 10
7.8202631629
 20
8.178902518
 10
7.7794826511
 20
8.1714086052
 10
7.7389526896
 20
8.1655202904
  0
LWPOLYLINE
  5
3E6
100
AcDbEntity
  8
0
100
AcDbPolyline
 62
7
  6
CONTINUOUS
 90
4
 70
0
 10
7.4092714012
 20
8.1289069879
 10
7.4502409319
 20
8.1379187625
 10
7.4910208975
 20
8.1454128294
 10
7.5315579307
 20
8.15130231
  0
LWPOLYLINE
  5
3E7
100
AcDbEntity
  8
0
100
AcDbPolyline
 62
7
  6
CONTINUOUS
 90
4
 70
0
 10
7.8612392192
 20
8.2469707306
 10
7.8202631629
 20
8.2379576361
 10
7.7794826511
 20
8.2304637233
 10
7.7389526896
 20
8.2245754085
  0
LWPOLYLINE
  5
3E8
100
AcDbEntity
  8
0
100
AcDbPolyline
 62
7
  6
CONTINUOUS
 90
4
 70
0
 10
7.4092714012
 20
8.187962106
 10
7.4502409319
 20
8.1969738806
 10
7.4910208975
 20
8.2044679475
 10
7.5315579307
 20
8.2103574281
  0
LWPOLYLINE
  5
3E9
100
AcDbEntity
  8
0
100
AcDbPolyline
 62
7
  6
CONTINUOUS
 90
4
 70
0
 10
7.8612392192
 20
8.3060258487
 10
7.8202631629
 20
8.2970127543
 10
7.7794826511
 20
8.2895188414
 10
7.7389526896
 20
8.2836305266
  0
LWPOLYLINE
  5
3EA
100
AcDbEntity
  8
0
100
AcDbPolyline
 62
7
  6
CONTINUOUS
 90
4
 70
0
 10
7.4092714012
 20
8.2470172241
 10
7.4502409319
 20
8.2560289987
 10
7.4910208975
 20
8.2635230656
 10
7.5315579307
 20
8.2694125462
  0
LWPOLYLINE
  5
3EB
100
AcDbEntity
  8
0
100
AcDbPolyline
 62
7
  6
CONTINUOUS
 90
4
 70
0
 10
7.8612392192
 20
8.3650809668
 10
7.8202631629
 20
8.3560678724
 10
7.7794826511
 20
8.3485739595
 10
7.7389526896
 20
8.3426856447
  0
LWPOLYLINE
  5
3EC
100
AcDbEntity
  8
0
100
AcDbPolyline
 62
7
  6
CONTINUOUS
 90
4
 70
0
 10
7.4092714012
 20
8.3060723423
 10
7.4502409319
 20
8.3150841168
 10
7.4910208975
 20
8.3225781837
 10
7.5315579307
 20
8.3284676643
  0
LWPOLYLINE
  5
3ED
100
AcDbEntity
  8
0
100
AcDbPolyline
 62
7
  6
CONTINUOUS
 90
4
 70
0
 10
7.8612392192
 20
8.4241360849
 10
7.8202631629
 20
8.4151229905
 10
7.7794826511
 20
8.4076290776
 10
7.7389526896
 20
8.4017407629
  0
LWPOLYLINE
  5
3EE
100
AcDbEntity
  8
0
100
AcDbPolyline
 62
7
  6
CONTINUOUS
 90
5
 70
0
 10
7.2250505577
 20
8.2149072739
 10
7.2900293225
 20
8.2164348958
 10
7.364107649
 20
8.2179625164
 10
7.4453311755
 20
8.2194901039
 10
7.5315579307
 20
8.2210176452
  0
LINE
  5
3EF
100
AcDbEntity
  8
0
100
AcDbLine
 62
7
  6
CONTINUOUS
 10
7.2250505758
 20
8.3920726287
 11
7.2900293482
 21
8.3936002507
  0
LINE
  5
3F0
100
AcDbEntity
  8
0
100
AcDbLine
 62
7
  6
CONTINUOUS
 10
7.9804820648
 20
8.3956633119
 11
7.9064041493
 21
8.3941356976
  0
LWPOLYLINE
  5
3F1
100
AcDbEntity
  8
0
100
AcDbPolyline
 62
7
  6
CONTINUOUS
 90
4
 70
0
 10
7.2900293482
 20
8.3936002507
 10
7.3641076923
 20
8.3951278716
 10
7.4453312156
 20
8.3966554589
 10
7.5315579307
 20
8.3981829995
  0
LWPOLYLINE
  5
3F2
100
AcDbEntity
  8
0
100
AcDbPolyline
 62
7
  6
CONTINUOUS
 90
8
 70
0
 10
7.9429570467
 20
8.2484436464
 10
8.0171336564
 20
8.2499165623
 10
8.0819511126
 20
8.2513894781
 10
8.1358208555
 20
8.2528623939
 10
8.1774226345
 20
8.2543353098
 10
8.2057368645
 20
8.2558082256
 10
8.2200696145
 20
8.2572811415
 10
8.2216437254
 20
8.2577568328
  0
LWPOLYLINE
  5
3F3
100
AcDbEntity
  8
0
100
AcDbPolyline
 62
7
  6
CONTINUOUS
 90
3
 70
0
 10
7.253376964
 20
8.3547013137
 10
7.3275535736
 20
8.3561742296
 10
7.4092714012
 20
8.3576471454
  0
LWPOLYLINE
  5
3F4
100
AcDbEntity
  8
0
100
AcDbPolyline
 62
7
  6
CONTINUOUS
 90
3
 70
0
 10
7.9064041493
 20
8.3941356976
 10
7.8251812064
 20
8.3926081191
 10
7.7389526896
 20
8.3910805457
  0
LWPOLYLINE
  5
3F5
100
AcDbEntity
  8
0
100
AcDbPolyline
 62
7
  6
CONTINUOUS
 90
9
 70
0
 10
7.8612392192
 20
8.1879156125
 10
7.9429570467
 20
8.1893885283
 10
8.0171336564
 20
8.1908614441
 10
8.0819511126
 20
8.19233436
 10
8.1358208555
 20
8.1938072758
 10
8.1774226345
 20
8.1952801917
 10
8.2057368645
 20
8.1967531075
 10
8.2200696145
 20
8.1982260234
 10
8.2216437254
 20
8.1987017147
  0
LWPOLYLINE
  5
3F6
100
AcDbEntity
  8
0
100
AcDbPolyline
 62
7
  6
CONTINUOUS
 90
9
 70
0
 10
7.8612392192
 20
8.1953959274
 10
7.9429570467
 20
8.1968688433
 10
8.0171336564
 20
8.1983417591
 10
8.0819511126
 20
8.1998146749
 10
8.1358208555
 20
8.2012875908
 10
8.1774226345
 20
8.2027605066
 10
8.2057368645
 20
8.2042334225
 10
8.2200696145
 20
8.2057063383
 10
8.2218694834
 20
8.2064427963
  0
LINE
  5
3F7
100
AcDbEntity
  8
0
100
AcDbLine
 62
7
  6
CONTINUOUS
 10
7.8612392192
 20
8.2469707306
 11
7.9429570467
 21
8.2484436464
  0
LINE
  5
3F8
100
AcDbEntity
  8
0
100
AcDbLine
 62
7
  6
CONTINUOUS
 10
7.3275535736
 20
8.2380639933
 11
7.4092714012
 21
8.2395369092
  0
LWPOLYLINE
  5
3F9
100
AcDbEntity
  8
0
100
AcDbPolyline
 62
7
  6
CONTINUOUS
 90
9
 70
0
 10
7.8612392192
 20
8.2544510455
 10
7.9429570467
 20
8.2559239614
 10
8.0171336564
 20
8.2573968772
 10
8.0819511126
 20
8.2588697931
 10
8.1358208555
 20
8.2603427089
 10
8.1774226345
 20
8.2618156247
 10
8.2057368645
 20
8.2632885406
 10
8.2200696145
 20
8.2647614564
 10
8.2218694834
 20
8.2654979144
  0
LWPOLYLINE
  5
3FA
100
AcDbEntity
  8
0
100
AcDbPolyline
 62
7
  6
CONTINUOUS
 90
9
 70
0
 10
7.8612392192
 20
8.3060258487
 10
7.9429570467
 20
8.3074987645
 10
8.0171336564
 20
8.3089716804
 10
8.0819511126
 20
8.3104445962
 10
8.1358208555
 20
8.3119175121
 10
8.1774226345
 20
8.3133904279
 10
8.2057368645
 20
8.3148633437
 10
8.2200696145
 20
8.3163362596
 10
8.2216437254
 20
8.3168119509
  0
LWPOLYLINE
  5
3FB
100
AcDbEntity
  8
0
100
AcDbPolyline
 62
7
  6
CONTINUOUS
 90
9
 70
0
 10
7.8612392192
 20
8.3135061636
 10
7.9429570467
 20
8.3149790795
 10
8.0171336564
 20
8.3164519953
 10
8.0819511126
 20
8.3179249112
 10
8.1358208555
 20
8.319397827
 10
8.1774226345
 20
8.3208707429
 10
8.2057368645
 20
8.3223436587
 10
8.2200696145
 20
8.3238165745
 10
8.2218694834
 20
8.3245530325
  0
LWPOLYLINE
  5
3FC
100
AcDbEntity
  8
0
100
AcDbPolyline
 62
7
  6
CONTINUOUS
 90
9
 70
0
 10
7.8612392192
 20
8.3650809668
 10
7.9429570467
 20
8.3665538826
 10
8.0171336564
 20
8.3680267985
 10
8.0819511126
 20
8.3694997143
 10
8.1358208555
 20
8.3709726302
 10
8.1774226345
 20
8.372445546
 10
8.2057368645
 20
8.3739184619
 10
8.2200696145
 20
8.3753913777
 10
8.2216437254
 20
8.375867069
  0
LWPOLYLINE
  5
3FD
100
AcDbEntity
  8
0
100
AcDbPolyline
 62
7
  6
CONTINUOUS
 90
9
 70
0
 10
7.8612392192
 20
8.3725612817
 10
7.9429570467
 20
8.3740341976
 10
8.0171336564
 20
8.3755071134
 10
8.0819511126
 20
8.3769800293
 10
8.1358208555
 20
8.3784529451
 10
8.1774226345
 20
8.379925861
 10
8.2057368645
 20
8.3813987768
 10
8.2200696145
 20
8.3828716927
 10
8.2218694834
 20
8.3836081506
  0
LWPOLYLINE
  5
3FE
100
AcDbEntity
  8
0
100
AcDbPolyline
 62
7
  6
CONTINUOUS
 90
9
 70
0
 10
7.8612392192
 20
8.4241360849
 10
7.9429570467
 20
8.4256090007
 10
8.0171336564
 20
8.4270819166
 10
8.0819511126
 20
8.4285548324
 10
8.1358208555
 20
8.4300277483
 10
8.1774226345
 20
8.4315006641
 10
8.2057368645
 20
8.43297358
 10
8.2200696145
 20
8.4344464958
 10
8.2216437254
 20
8.4349221872
  0
LWPOLYLINE
  5
3FF
100
AcDbEntity
  8
0
100
AcDbPolyline
 62
7
  6
CONTINUOUS
 90
9
 70
0
 10
7.8612392192
 20
8.4316163999
 10
7.9429570467
 20
8.4330893157
 10
8.0171336564
 20
8.4345622315
 10
8.0819511126
 20
8.4360351474
 10
8.1358208555
 20
8.4375080632
 10
8.1774226345
 20
8.4389809791
 10
8.2057368645
 20
8.4404538949
 10
8.2200696145
 20
8.4419268108
 10
8.2218694834
 20
8.4426632687
  0
LWPOLYLINE
  5
400
100
AcDbEntity
  8
0
100
AcDbPolyline
 62
7
  6
CONTINUOUS
 90
10
 70
0
 10
7.5315579307
 20
8.2103574281
 10
7.4453305379
 20
8.2088298751
 10
7.3641067277
 20
8.2073022812
 10
7.2900272307
 20
8.2057746329
 10
7.2250474461
 20
8.2042469773
 10
7.1708811953
 20
8.202719341
 10
7.1289553741
 20
8.201191705
 10
7.1003746583
 20
8.1996640387
 10
7.0858933509
 20
8.1981363633
 10
7.0843144605
 20
8.1976500509
  0
LWPOLYLINE
  5
401
100
AcDbEntity
  8
0
100
AcDbPolyline
 62
7
  6
CONTINUOUS
 90
10
 70
0
 10
7.7389526896
 20
8.2245754085
 10
7.8251792547
 20
8.2261029464
 10
7.9064027615
 20
8.2276305332
 10
7.9804811687
 20
8.2291581551
 10
8.0454599751
 20
8.2306857776
 10
8.0996266705
 20
8.2322134084
 10
8.1415539864
 20
8.2337410772
 10
8.1701356633
 20
8.2352687768
 10
8.1846172468
 20
8.2367964686
 10
8.1861961599
 20
8.2372827857
  0
LWPOLYLINE
  5
402
100
AcDbEntity
  8
0
100
AcDbPolyline
 62
7
  6
CONTINUOUS
 90
10
 70
0
 10
7.5315579307
 20
8.2694125462
 10
7.4453294198
 20
8.2678849729
 10
7.3641064906
 20
8.2663573947
 10
7.2900285518
 20
8.2648297799
 10
7.2250490006
 20
8.2633021351
 10
7.17088196
 20
8.2617744833
 10
7.1289554051
 20
8.2602468245
 10
7.1003746335
 20
8.2587191551
 10
7.0858933701
 20
8.2571914854
 10
7.0843144605
 20
8.256705169
  0
LWPOLYLINE
  5
403
100
AcDbEntity
  8
0
100
AcDbPolyline
 62
7
  6
CONTINUOUS
 90
10
 70
0
 10
7.7389526896
 20
8.2836305266
 10
7.8251796106
 20
8.285158071
 10
7.9064029522
 20
8.2866856551
 10
7.980481363
 20
8.2882132775
 10
8.0454600736
 20
8.2897408982
 10
8.0996267751
 20
8.2912685299
 10
8.141554094
 20
8.2927962
 10
8.1701357166
 20
8.2943238987
 10
8.1846172536
 20
8.2958515881
 10
8.1861961599
 20
8.2963379038
  0
LWPOLYLINE
  5
404
100
AcDbEntity
  8
0
100
AcDbPolyline
 62
7
  6
CONTINUOUS
 90
10
 70
0
 10
7.5315579307
 20
8.3284676643
 10
7.4453305214
 20
8.326940111
 10
7.3641070328
 20
8.3254125234
 10
7.2900287064
 20
8.3238849014
 10
7.2250500839
 20
8.3223572809
 10
7.1708832904
 20
8.3208296435
 10
7.128956119
 20
8.3193019734
 10
7.1003747306
 20
8.31777428
 10
7.0858933491
 20
8.3162465991
 10
7.0843144605
 20
8.3157602871
  0
LWPOLYLINE
  5
405
100
AcDbEntity
  8
0
100
AcDbPolyline
 62
7
  6
CONTINUOUS
 90
10
 70
0
 10
7.7389526896
 20
8.3426856447
 10
7.8251793783
 20
8.3442131849
 10
7.9064028968
 20
8.3457407721
 10
7.9804812528
 20
8.3472683932
 10
8.0454600333
 20
8.3487960153
 10
8.0996267435
 20
8.350323647
 10
8.1415540472
 20
8.3518513161
 10
8.1701356927
 20
8.3533790151
 10
8.1846172505
 20
8.3549067055
 10
8.1861961599
 20
8.3553930219
  0
LWPOLYLINE
  5
406
100
AcDbEntity
  8
0
100
AcDbPolyline
 62
7
  6
CONTINUOUS
 90
10
 70
0
 10
7.5315579307
 20
8.3875227824
 10
7.4453321034
 20
8.3859952579
 10
7.3641083362
 20
8.384467667
 10
7.2900287802
 20
8.3829400211
 10
7.2250489076
 20
8.381412369
 10
7.1708823514
 20
8.3798847319
 10
7.1289559168
 20
8.3783570828
 10
7.1003747326
 20
8.3768293983
 10
7.0858933494
 20
8.3753017173
 10
7.0843144605
 20
8.3748154052
  0
LWPOLYLINE
  5
407
100
AcDbEntity
  8
0
100
AcDbPolyline
 62
7
  6
CONTINUOUS
 90
10
 70
0
 10
7.7389526896
 20
8.4017407629
 10
7.8251792963
 20
8.4032683015
 10
7.9064028072
 20
8.4047958885
 10
7.9804811976
 20
8.4063235101
 10
8.045459995
 20
8.4078511325
 10
8.0996266949
 20
8.4093787635
 10
8.1415540069
 20
8.4109064324
 10
8.1701356733
 20
8.4124341318
 10
8.1846172481
 20
8.4139618232
 10
8.1861961599
 20
8.41444814
  0
LWPOLYLINE
  5
408
100
AcDbEntity
  8
0
100
AcDbPolyline
 62
7
  6
CONTINUOUS
 90
10
 70
0
 10
7.5315579307
 20
8.4465779005
 10
7.4453298112
 20
8.4450503344
 10
7.3641068074
 20
8.4435227552
 10
7.2900281375
 20
8.4419951252
 10
7.2250482546
 20
8.4404674704
 10
7.1708814925
 20
8.4389398228
 10
7.1289553591
 20
8.4374121768
 10
7.1003747016
 20
8.4358845142
 10
7.0858933674
 20
8.4343568392
 10
7.0843144605
 20
8.4338705233
  0
LWPOLYLINE
  5
409
100
AcDbEntity
  8
0
100
AcDbPolyline
 62
7
  6
CONTINUOUS
 90
4
 70
0
 10
7.7389526896
 20
8.1548600733
 10
7.779489229
 20
8.1503076808
 10
7.8202723236
 20
8.1441089257
 10
7.8612392192
 20
8.1363408093
  0
LWPOLYLINE
  5
40A
100
AcDbEntity
  8
0
100
AcDbPolyline
 62
7
  6
CONTINUOUS
 90
4
 70
0
 10
7.5315579307
 20
8.2210176452
 10
7.4910287884
 20
8.2255690581
 10
7.4502450818
 20
8.2317676314
 10
7.4092714012
 20
8.2395369092
  0
LWPOLYLINE
  5
40B
100
AcDbEntity
  8
0
100
AcDbPolyline
 62
7
  6
CONTINUOUS
 90
4
 70
0
 10
7.7389526896
 20
8.2139151914
 10
7.779489229
 20
8.2093627989
 10
7.8202723236
 20
8.2031640438
 10
7.8612392192
 20
8.1953959274
  0
LWPOLYLINE
  5
40C
100
AcDbEntity
  8
0
100
AcDbPolyline
 62
7
  6
CONTINUOUS
 90
4
 70
0
 10
7.5315579307
 20
8.2800727633
 10
7.4910287884
 20
8.2846241763
 10
7.4502450818
 20
8.2908227495
 10
7.4092714012
 20
8.2985920273
  0
LWPOLYLINE
  5
40D
100
AcDbEntity
  8
0
100
AcDbPolyline
 62
7
  6
CONTINUOUS
 90
4
 70
0
 10
7.7389526896
 20
8.2729703095
 10
7.779489229
 20
8.268417917
 10
7.8202723236
 20
8.2622191619
 10
7.8612392192
 20
8.2544510455
  0
LWPOLYLINE
  5
40E
100
AcDbEntity
  8
0
100
AcDbPolyline
 62
7
  6
CONTINUOUS
 90
4
 70
0
 10
7.5315579307
 20
8.3391278814
 10
7.4910287884
 20
8.3436792944
 10
7.4502450818
 20
8.3498778676
 10
7.4092714012
 20
8.3576471454
  0
LWPOLYLINE
  5
40F
100
AcDbEntity
  8
0
100
AcDbPolyline
 62
7
  6
CONTINUOUS
 90
4
 70
0
 10
7.7389526896
 20
8.3320254276
 10
7.779489229
 20
8.3274730351
 10
7.8202723236
 20
8.3212742801
 10
7.8612392192
 20
8.3135061636
  0
LWPOLYLINE
  5
410
100
AcDbEntity
  8
0
100
AcDbPolyline
 62
7
  6
CONTINUOUS
 90
4
 70
0
 10
7.5315579307
 20
8.3981829995
 10
7.4910287884
 20
8.4027344125
 10
7.4502450818
 20
8.4089329857
 10
7.4092714012
 20
8.4167022635
  0
LWPOLYLINE
  5
411
100
AcDbEntity
  8
0
100
AcDbPolyline
 62
7
  6
CONTINUOUS
 90
4
 70
0
 10
7.7389526896
 20
8.3910805457
 10
7.779489229
 20
8.3865281532
 10
7.8202723236
 20
8.3803293982
 10
7.8612392192
 20
8.3725612817
  0
LINE
  5
412
100
AcDbEntity
  8
0
100
AcDbLine
 62
7
  6
CONTINUOUS
 10
7.048866895
 20
8.1691741557
 11
7.0843144605
 21
8.1487001085
  0
LINE
  5
413
100
AcDbEntity
  8
0
100
AcDbLine
 62
7
  6
CONTINUOUS
 10
7.048866895
 20
8.2282292738
 11
7.0843144605
 21
8.2077552267
  0
LINE
  5
414
100
AcDbEntity
  8
0
100
AcDbLine
 62
7
  6
CONTINUOUS
 10
7.048866895
 20
8.2872843919
 11
7.0843144605
 21
8.2668103448
  0
LINE
  5
415
100
AcDbEntity
  8
0
100
AcDbLine
 62
7
  6
CONTINUOUS
 10
7.048866895
 20
8.34633951
 11
7.0843144605
 21
8.3258654629
  0
LINE
  5
416
100
AcDbEntity
  8
0
100
AcDbLine
 62
7
  6
CONTINUOUS
 10
7.048866895
 20
8.4053946281
 11
7.0843144605
 21
8.384920581
  0
LWPOLYLINE
  5
417
100
AcDbEntity
  8
0
100
AcDbPolyline
 62
7
  6
CONTINUOUS
 90
6
 70
0
 10
7.5136179775
 20
8.0357886529
 10
7.5113399167
 20
8.0373301799
 10
7.5092848484
 20
8.0418038656
 10
7.5076539369
 20
8.0487717945
 10
7.5066068273
 20
8.0575518971
 10
7.5062460179
 20
8.0672847158
  0
LWPOLYLINE
  5
418
100
AcDbEntity
  8
0
100
AcDbPolyline
 62
7
  6
CONTINUOUS
 90
4
 70
0
 10
7.4092714012
 20
8.3651274604
 10
7.4502409319
 20
8.3741392349
 10
7.4910208975
 20
8.3816333019
 10
7.5315579307
 20
8.3875227824
  0
LWPOLYLINE
  5
419
100
AcDbEntity
  8
0
100
AcDbPolyline
 62
7
  6
CONTINUOUS
 90
4
 70
0
 10
7.8612392192
 20
8.483191203
 10
7.8202631629
 20
8.4741781086
 10
7.7794826511
 20
8.4666841957
 10
7.7389526896
 20
8.460795881
  0
LWPOLYLINE
  5
41A
100
AcDbEntity
  8
0
100
AcDbPolyline
 62
7
  6
CONTINUOUS
 90
4
 70
0
 10
7.4092714012
 20
8.4241825785
 10
7.4502409319
 20
8.433194353
 10
7.4910208975
 20
8.44068842
 10
7.5315579307
 20
8.4465779005
  0
LWPOLYLINE
  5
41B
100
AcDbEntity
  8
0
100
AcDbPolyline
 62
7
  6
CONTINUOUS
 90
4
 70
0
 10
7.8612392192
 20
8.5422463211
 10
7.8202631629
 20
8.5332332267
 10
7.7794826511
 20
8.5257393138
 10
7.7389526896
 20
8.5198509991
  0
LWPOLYLINE
  5
41C
100
AcDbEntity
  8
0
100
AcDbPolyline
 62
7
  6
CONTINUOUS
 90
4
 70
0
 10
7.4092714012
 20
8.4832376966
 10
7.4502409319
 20
8.4922494711
 10
7.4910208975
 20
8.4997435381
 10
7.5315579307
 20
8.5056330186
  0
LWPOLYLINE
  5
41D
100
AcDbEntity
  8
0
100
AcDbPolyline
 62
7
  6
CONTINUOUS
 90
4
 70
0
 10
7.8612392192
 20
8.6013014392
 10
7.8202631629
 20
8.5922883448
 10
7.7794826511
 20
8.5847944319
 10
7.7389526896
 20
8.5789061172
  0
LWPOLYLINE
  5
41E
100
AcDbEntity
  8
0
100
AcDbPolyline
 62
7
  6
CONTINUOUS
 90
4
 70
0
 10
7.4092714012
 20
8.5422928147
 10
7.4502409319
 20
8.5513045892
 10
7.4910208975
 20
8.5587986562
 10
7.5315579307
 20
8.5646881367
  0
LWPOLYLINE
  5
41F
100
AcDbEntity
  8
0
100
AcDbPolyline
 62
7
  6
CONTINUOUS
 90
4
 70
0
 10
7.8612392192
 20
8.6603565573
 10
7.8202631629
 20
8.6513434629
 10
7.7794826511
 20
8.64384955
 10
7.7389526896
 20
8.6379612353
  0
LWPOLYLINE
  5
420
100
AcDbEntity
  8
0
100
AcDbPolyline
 62
7
  6
CONTINUOUS
 90
4
 70
0
 10
7.4092714012
 20
8.6013479328
 10
7.4502409319
 20
8.6103597073
 10
7.4910208975
 20
8.6178537743
 10
7.5315579307
 20
8.6237432548
  0
LWPOLYLINE
  5
421
100
AcDbEntity
  8
0
100
AcDbPolyline
 62
7
  6
CONTINUOUS
 90
6
 70
0
 10
8.0454599874
 20
8.4669062504
 10
8.0996266752
 20
8.468433881
 10
8.1415539863
 20
8.4699615497
 10
8.1701356625
 20
8.4714892492
 10
8.1846172467
 20
8.473016941
 10
8.1861961599
 20
8.4735032581
  0
LWPOLYLINE
  5
422
100
AcDbEntity
  8
0
100
AcDbPolyline
 62
7
  6
CONTINUOUS
 90
4
 70
0
 10
7.1885595078
 20
8.4713386341
 10
7.253376964
 20
8.4728115499
 10
7.3275535736
 20
8.4742844658
 10
7.4092714012
 20
8.4757573816
  0
LWPOLYLINE
  5
423
100
AcDbEntity
  8
0
100
AcDbPolyline
 62
7
  6
CONTINUOUS
 90
3
 70
0
 10
7.906402741
 20
8.4638510053
 10
7.9804811706
 20
8.4653786276
 10
8.0454599874
 20
8.4669062504
  0
LINE
  5
424
100
AcDbEntity
  8
0
100
AcDbLine
 62
7
  6
CONTINUOUS
 10
7.8251792286
 20
8.4623234184
 11
7.906402741
 21
8.4638510053
  0
LWPOLYLINE
  5
425
100
AcDbEntity
  8
0
100
AcDbPolyline
 62
7
  6
CONTINUOUS
 90
9
 70
0
 10
7.4453297668
 20
8.5041054517
 10
7.3641063108
 20
8.5025778636
 10
7.2900285233
 20
8.5010502517
 10
7.2250496326
 20
8.4995226237
 10
7.1708825645
 20
8.4979949749
 10
7.1289556564
 20
8.4964673077
 10
7.1003746186
 20
8.4949396264
 10
7.0858933568
 20
8.4934119551
 10
7.0843144605
 20
8.4929256414
  0
LWPOLYLINE
  5
426
100
AcDbEntity
  8
0
100
AcDbPolyline
 62
7
  6
CONTINUOUS
 90
3
 70
0
 10
7.9064038383
 20
8.630356164
 10
7.8251808621
 20
8.6288285853
 10
7.7389526896
 20
8.6273010182
  0
LWPOLYLINE
  5
427
100
AcDbEntity
  8
0
100
AcDbPolyline
 62
7
  6
CONTINUOUS
 90
9
 70
0
 10
7.8612392192
 20
8.483191203
 10
7.9429570467
 20
8.4846641189
 10
8.0171336564
 20
8.4861370347
 10
8.0819511126
 20
8.4876099505
 10
8.1358208555
 20
8.4890828664
 10
8.1774226345
 20
8.4905557822
 10
8.2057368645
 20
8.4920286981
 10
8.2200696145
 20
8.4935016139
 10
8.2216437254
 20
8.4939773053
  0
LWPOLYLINE
  5
428
100
AcDbEntity
  8
0
100
AcDbPolyline
 62
7
  6
CONTINUOUS
 90
9
 70
0
 10
7.8612392192
 20
8.490671518
 10
7.9429570467
 20
8.4921444338
 10
8.0171336564
 20
8.4936173497
 10
8.0819511126
 20
8.4950902655
 10
8.1358208555
 20
8.4965631813
 10
8.1774226345
 20
8.4980360972
 10
8.2057368645
 20
8.499509013
 10
8.2200696145
 20
8.5009819289
 10
8.2218694834
 20
8.5017183868
  0
LWPOLYLINE
  5
429
100
AcDbEntity
  8
0
100
AcDbPolyline
 62
7
  6
CONTINUOUS
 90
9
 70
0
 10
7.8612392192
 20
8.5422463211
 10
7.9429570467
 20
8.543719237
 10
8.0171336564
 20
8.5451921528
 10
8.0819511126
 20
8.5466650687
 10
8.1358208555
 20
8.5481379845
 10
8.1774226345
 20
8.5496109003
 10
8.2057368645
 20
8.5510838162
 10
8.2200696145
 20
8.552556732
 10
8.2216437254
 20
8.5530324234
  0
LWPOLYLINE
  5
42A
100
AcDbEntity
  8
0
100
AcDbPolyline
 62
7
  6
CONTINUOUS
 90
9
 70
0
 10
7.8612392192
 20
8.5497266361
 10
7.9429570467
 20
8.5511995519
 10
8.0171336564
 20
8.5526724678
 10
8.0819511126
 20
8.5541453836
 10
8.1358208555
 20
8.5556182995
 10
8.1774226345
 20
8.5570912153
 10
8.2057368645
 20
8.5585641311
 10
8.2200696145
 20
8.560037047
 10
8.2218694834
 20
8.5607735049
  0
LWPOLYLINE
  5
42B
100
AcDbEntity
  8
0
100
AcDbPolyline
 62
7
  6
CONTINUOUS
 90
9
 70
0
 10
7.8612392192
 20
8.6013014392
 10
7.9429570467
 20
8.6027743551
 10
8.0171336564
 20
8.6042472709
 10
8.0819511126
 20
8.6057201868
 10
8.1358208555
 20
8.6071931026
 10
8.1774226345
 20
8.6086660185
 10
8.2057368645
 20
8.6101389343
 10
8.2200696145
 20
8.6116118501
 10
8.2216437254
 20
8.6120875415
  0
LWPOLYLINE
  5
42C
100
AcDbEntity
  8
0
100
AcDbPolyline
 62
7
  6
CONTINUOUS
 90
9
 70
0
 10
7.8612392192
 20
8.6087817542
 10
7.9429570467
 20
8.61025467
 10
8.0171336564
 20
8.6117275859
 10
8.0819511126
 20
8.6132005017
 10
8.1358208555
 20
8.6146734176
 10
8.1774226345
 20
8.6161463334
 10
8.2057368645
 20
8.6176192493
 10
8.2200696145
 20
8.6190921651
 10
8.2218694834
 20
8.619828623
  0
LWPOLYLINE
  5
42D
100
AcDbEntity
  8
0
100
AcDbPolyline
 62
7
  6
CONTINUOUS
 90
9
 70
0
 10
7.8612392192
 20
8.6603565573
 10
7.9429570467
 20
8.6618294732
 10
8.0171336564
 20
8.663302389
 10
8.0819511126
 20
8.6647753049
 10
8.1358208555
 20
8.6662482207
 10
8.1774226345
 20
8.6677211366
 10
8.2057368645
 20
8.6691940524
 10
8.2200696145
 20
8.6706669683
 10
8.2216437254
 20
8.6711426596
  0
LWPOLYLINE
  5
42E
100
AcDbEntity
  8
0
100
AcDbPolyline
 62
7
  6
CONTINUOUS
 90
9
 70
0
 10
7.8612392192
 20
8.6678368723
 10
7.9429570467
 20
8.6693097881
 10
8.0171336564
 20
8.670782704
 10
8.0819511126
 20
8.6722556198
 10
8.1358208555
 20
8.6737285357
 10
8.1774226345
 20
8.6752014515
 10
8.2057368645
 20
8.6766743674
 10
8.2200696145
 20
8.6781472832
 10
8.2218694834
 20
8.6788837411
  0
LINE
  5
42F
100
AcDbEntity
  8
0
100
AcDbLine
 62
7
  6
CONTINUOUS
 10
7.7389526896
 20
8.460795881
 11
7.8251792286
 21
8.4623234184
  0
LINE
  5
430
100
AcDbEntity
  8
0
100
AcDbLine
 62
7
  6
CONTINUOUS
 10
7.5315579307
 20
8.5056330186
 11
7.4453297668
 21
8.5041054517
  0
LWPOLYLINE
  5
431
100
AcDbEntity
  8
0
100
AcDbPolyline
 62
7
  6
CONTINUOUS
 90
10
 70
0
 10
7.7389526896
 20
8.5198509991
 10
7.8251794187
 20
8.52137854
 10
7.9064029406
 20
8.5229061273
 10
7.9804812791
 20
8.5244337481
 10
8.0454600517
 20
8.5259613701
 10
8.0996267678
 20
8.5274890021
 10
8.1415540672
 20
8.5290166713
 10
8.1701357022
 20
8.5305443701
 10
8.1846172516
 20
8.5320720601
 10
8.1861961599
 20
8.5325583763
  0
LWPOLYLINE
  5
432
100
AcDbEntity
  8
0
100
AcDbPolyline
 62
7
  6
CONTINUOUS
 90
10
 70
0
 10
7.5315579307
 20
8.5646881367
 10
7.4453320587
 20
8.5631606114
 10
7.3641083297
 20
8.5616330212
 10
7.2900292896
 20
8.5601053866
 10
7.2250500438
 20
8.5585777523
 10
7.1708834464
 20
8.5570501209
 10
7.1289563951
 20
8.5555224577
 10
7.1003748711
 20
8.5539947624
 10
7.0858933633
 20
8.5524670745
 10
7.0843144605
 20
8.5519807595
  0
LWPOLYLINE
  5
433
100
AcDbEntity
  8
0
100
AcDbPolyline
 62
7
  6
CONTINUOUS
 90
10
 70
0
 10
7.7389526896
 20
8.5789061172
 10
7.8251793375
 20
8.5804336566
 10
7.9064028523
 20
8.5819612437
 10
7.9804812256
 20
8.583488865
 10
8.0454600144
 20
8.5850164873
 10
8.0996267192
 20
8.5865441186
 10
8.1415540271
 20
8.5880717876
 10
8.1701356831
 20
8.5895994868
 10
8.1846172493
 20
8.5911271777
 10
8.1861961599
 20
8.5916134944
  0
LWPOLYLINE
  5
434
100
AcDbEntity
  8
0
100
AcDbPolyline
 62
7
  6
CONTINUOUS
 90
10
 70
0
 10
7.5315579307
 20
8.6237432548
 10
7.4453305379
 20
8.6222157019
 10
7.3641067277
 20
8.620688108
 10
7.2900272307
 20
8.6191604597
 10
7.2250474461
 20
8.6176328041
 10
7.1708811953
 20
8.6161051677
 10
7.1289553741
 20
8.6145775318
 10
7.1003746583
 20
8.6130498655
 10
7.0858933509
 20
8.61152219
 10
7.0843144605
 20
8.6110358777
  0
LWPOLYLINE
  5
435
100
AcDbEntity
  8
0
100
AcDbPolyline
 62
7
  6
CONTINUOUS
 90
10
 70
0
 10
7.7389526896
 20
8.6379612353
 10
7.8251792547
 20
8.6394887732
 10
7.9064027615
 20
8.64101636
 10
7.9804811687
 20
8.6425439819
 10
8.0454599751
 20
8.6440716044
 10
8.0996266705
 20
8.6455992352
 10
8.1415539864
 20
8.647126904
 10
8.1701356633
 20
8.6486546036
 10
8.1846172468
 20
8.6501822953
 10
8.1861961599
 20
8.6506686125
  0
LWPOLYLINE
  5
436
100
AcDbEntity
  8
0
100
AcDbPolyline
 62
7
  6
CONTINUOUS
 90
10
 70
0
 10
7.5315579307
 20
8.682798373
 10
7.4453294198
 20
8.6812707997
 10
7.3641064906
 20
8.6797432214
 10
7.2900285518
 20
8.6782156067
 10
7.2250490006
 20
8.6766879619
 10
7.17088196
 20
8.6751603101
 10
7.1289554051
 20
8.6736326512
 10
7.1003746335
 20
8.6721049818
 10
7.0858933701
 20
8.6705773122
 10
7.0843144605
 20
8.6700909958
  0
LWPOLYLINE
  5
437
100
AcDbEntity
  8
0
100
AcDbPolyline
 62
7
  6
CONTINUOUS
 90
4
 70
0
 10
7.7642646024
 20
8.6867977603
 10
7.7490963632
 20
8.686759605
 10
7.7336781591
 20
8.6871749978
 10
7.7181898552
 20
8.6880420908
  0
LWPOLYLINE
  5
438
100
AcDbEntity
  8
0
100
AcDbPolyline
 62
7
  6
CONTINUOUS
 90
4
 70
0
 10
7.5315579307
 20
8.4572381177
 10
7.4910287884
 20
8.4617895306
 10
7.4502450818
 20
8.4679881038
 10
7.4092714012
 20
8.4757573816
  0
LWPOLYLINE
  5
439
100
AcDbEntity
  8
0
100
AcDbPolyline
 62
7
  6
CONTINUOUS
 90
4
 70
0
 10
7.7389526896
 20
8.4501356638
 10
7.779489229
 20
8.4455832713
 10
7.8202723236
 20
8.4393845163
 10
7.8612392192
 20
8.4316163999
  0
LWPOLYLINE
  5
43A
100
AcDbEntity
  8
0
100
AcDbPolyline
 62
7
  6
CONTINUOUS
 90
4
 70
0
 10
7.5315579307
 20
8.5162932358
 10
7.4910287884
 20
8.5208446487
 10
7.4502450818
 20
8.5270432219
 10
7.4092714012
 20
8.5348124997
  0
LWPOLYLINE
  5
43B
100
AcDbEntity
  8
0
100
AcDbPolyline
 62
7
  6
CONTINUOUS
 90
4
 70
0
 10
7.7389526896
 20
8.5091907819
 10
7.779489229
 20
8.5046383894
 10
7.8202723236
 20
8.4984396344
 10
7.8612392192
 20
8.490671518
  0
LWPOLYLINE
  5
43C
100
AcDbEntity
  8
0
100
AcDbPolyline
 62
7
  6
CONTINUOUS
 90
4
 70
0
 10
7.5315579307
 20
8.5753483539
 10
7.4910287884
 20
8.5798997668
 10
7.4502450818
 20
8.58609834
 10
7.4092714012
 20
8.5938676178
  0
LWPOLYLINE
  5
43D
100
AcDbEntity
  8
0
100
AcDbPolyline
 62
7
  6
CONTINUOUS
 90
4
 70
0
 10
7.7389526896
 20
8.5682459
 10
7.779489229
 20
8.5636935075
 10
7.8202723236
 20
8.5574947525
 10
7.8612392192
 20
8.5497266361
  0
LWPOLYLINE
  5
43E
100
AcDbEntity
  8
0
100
AcDbPolyline
 62
7
  6
CONTINUOUS
 90
4
 70
0
 10
7.5315579307
 20
8.634403472
 10
7.4910287884
 20
8.6389548849
 10
7.4502450818
 20
8.6451534581
 10
7.4092714012
 20
8.652922736
  0
LWPOLYLINE
  5
43F
100
AcDbEntity
  8
0
100
AcDbPolyline
 62
7
  6
CONTINUOUS
 90
4
 70
0
 10
7.7389526896
 20
8.6273010182
 10
7.779489229
 20
8.6227486256
 10
7.8202723236
 20
8.6165498706
 10
7.8612392192
 20
8.6087817542
  0
LWPOLYLINE
  5
440
100
AcDbEntity
  8
0
100
AcDbPolyline
 62
7
  6
CONTINUOUS
 90
4
 70
0
 10
7.5315579307
 20
8.6934585901
 10
7.4910287884
 20
8.698010003
 10
7.4502450818
 20
8.7042085762
 10
7.4092714012
 20
8.7119778541
  0
LINE
  5
441
100
AcDbEntity
  8
0
100
AcDbLine
 62
7
  6
CONTINUOUS
 10
7.048866895
 20
8.4644497462
 11
7.0843144605
 21
8.4439756991
  0
LINE
  5
442
100
AcDbEntity
  8
0
100
AcDbLine
 62
7
  6
CONTINUOUS
 10
7.048866895
 20
8.5235048643
 11
7.0843144605
 21
8.5030308172
  0
LINE
  5
443
100
AcDbEntity
  8
0
100
AcDbLine
 62
7
  6
CONTINUOUS
 10
7.048866895
 20
8.5825599824
 11
7.0843144605
 21
8.5620859353
  0
LINE
  5
444
100
AcDbEntity
  8
0
100
AcDbLine
 62
7
  6
CONTINUOUS
 10
7.048866895
 20
8.6416151005
 11
7.0843144605
 21
8.6211410534
  0
LINE
  5
445
100
AcDbEntity
  8
0
100
AcDbLine
 62
7
  6
CONTINUOUS
 10
7.048866895
 20
8.7006702187
 11
7.0843144605
 21
8.6801961715
  0
LINE
  5
446
100
AcDbEntity
  8
0
100
AcDbLine
 62
7
  6
CONTINUOUS
 10
7.048866895
 20
8.1101190376
 11
7.048641137
 21
8.1103798041
  0
LINE
  5
447
100
AcDbEntity
  8
0
100
AcDbLine
 62
7
  6
CONTINUOUS
 10
7.048866895
 20
8.1691741557
 11
7.048641137
 21
8.1694349222
  0
LINE
  5
448
100
AcDbEntity
  8
0
100
AcDbLine
 62
7
  6
CONTINUOUS
 10
7.048866895
 20
8.2282292738
 11
7.048641137
 21
8.2284900403
  0
LINE
  5
449
100
AcDbEntity
  8
0
100
AcDbLine
 62
7
  6
CONTINUOUS
 10
7.048866895
 20
8.2872843919
 11
7.048641137
 21
8.2875451585
  0
LINE
  5
44A
100
AcDbEntity
  8
0
100
AcDbLine
 62
7
  6
CONTINUOUS
 10
7.048866895
 20
8.34633951
 11
7.048641137
 21
8.3466002766
  0
LWPOLYLINE
  5
44B
100
AcDbEntity
  8
0
100
AcDbPolyline
 62
7
  6
CONTINUOUS
 90
4
 70
0
 10
7.4092714012
 20
8.6604030509
 10
7.4502409319
 20
8.6694148255
 10
7.4910208975
 20
8.6769088924
 10
7.5315579307
 20
8.682798373
  0
LWPOLYLINE
  5
44C
100
AcDbEntity
  8
0
100
AcDbPolyline
 62
7
  6
CONTINUOUS
 90
4
 70
0
 10
7.5523207652
 20
8.7442395497
 10
7.5049326317
 20
8.7381651376
 10
7.4573578457
 20
8.729886908
 10
7.4092714012
 20
8.719458169
  0
LWPOLYLINE
  5
44D
100
AcDbEntity
  8
0
100
AcDbPolyline
 62
7
  6
CONTINUOUS
 90
4
 70
0
 10
7.5523207652
 20
8.7442395497
 10
7.5368355891
 20
8.7428458426
 10
7.5214172233
 20
8.7419013918
 10
7.5062460179
 20
8.741411867
  0
LWPOLYLINE
  5
44E
100
AcDbEntity
  8
0
100
AcDbPolyline
 62
7
  6
CONTINUOUS
 90
10
 70
0
 10
7.5062460179
 20
8.741411867
 10
7.4240475632
 20
8.7399362616
 10
7.3470426758
 20
8.7384606234
 10
7.2771262654
 20
8.7369849587
 10
7.2160197485
 20
8.7355092959
 10
7.1652256649
 20
8.7340336147
 10
7.1259936755
 20
8.7325579026
 10
7.0992898396
 20
8.7310821704
 10
7.0857717924
 20
8.7296064511
 10
7.0843144605
 20
8.7291461139
  0
LINE
  5
44F
100
AcDbEntity
  8
0
100
AcDbLine
 62
7
  6
CONTINUOUS
 10
7.0840742078
 20
8.7523240859
 11
8.1864364126
 21
8.7523240859
  0
LINE
  5
450
100
AcDbEntity
  8
AXIS
100
AcDbLine
 62
7
  6
CONTINUOUS
 10
8.391160822
 20
8.7838201489
 11
6.8793497984
 21
8.7838201489
  0
LINE
  5
451
100
AcDbEntity
  8
AXIS
100
AcDbLine
 62
7
  6
CONTINUOUS
 10
8.5210820818
 20
8.9137414088
 11
6.7494285385
 21
8.9137414088
  0
LWPOLYLINE
  5
452
100
AcDbEntity
  8
0
100
AcDbPolyline
 62
7
  6
CONTINUOUS
 90
4
 70
0
 10
7.8612392192
 20
8.6678368723
 10
7.8131525587
 20
8.6768002713
 10
7.7655774703
 20
8.6835509928
 10
7.7181898552
 20
8.6880420908
  0
LINE
  5
453
100
AcDbEntity
  8
0
100
AcDbLine
 62
7
  6
CONTINUOUS
 10
8.2216437254
 20
8.1476484447
 11
8.1861961599
 21
8.1681224918
  0
LINE
  5
454
100
AcDbEntity
  8
0
100
AcDbLine
 62
7
  6
CONTINUOUS
 10
8.2216437254
 20
8.2067035628
 11
8.1861961599
 21
8.22717761
  0
LINE
  5
455
100
AcDbEntity
  8
0
100
AcDbLine
 62
7
  6
CONTINUOUS
 10
8.2216437254
 20
8.2657586809
 11
8.1861961599
 21
8.2862327281
  0
LINE
  5
456
100
AcDbEntity
  8
0
100
AcDbLine
 62
7
  6
CONTINUOUS
 10
8.2216437254
 20
8.324813799
 11
8.1861961599
 21
8.3452878462
  0
LINE
  5
457
100
AcDbEntity
  8
0
100
AcDbLine
 62
7
  6
CONTINUOUS
 10
8.2216437254
 20
8.3838689172
 11
8.1861961599
 21
8.4043429643
  0
LINE
  5
458
100
AcDbEntity
  8
0
100
AcDbLine
 62
7
  6
CONTINUOUS
 10
7.048866895
 20
8.4053946281
 11
7.048641137
 21
8.4056553947
  0
LINE
  5
459
100
AcDbEntity
  8
0
100
AcDbLine
 62
7
  6
CONTINUOUS
 10
7.048866895
 20
8.4644497462
 11
7.048641137
 21
8.4647105128
  0
LINE
  5
45A
100
AcDbEntity
  8
0
100
AcDbLine
 62
7
  6
CONTINUOUS
 10
7.048866895
 20
8.5235048643
 11
7.048641137
 21
8.5237656309
  0
LINE
  5
45B
100
AcDbEntity
  8
0
100
AcDbLine
 62
7
  6
CONTINUOUS
 10
7.048866895
 20
8.5825599824
 11
7.048641137
 21
8.582820749
  0
LINE
  5
45C
100
AcDbEntity
  8
0
100
AcDbLine
 62
7
  6
CONTINUOUS
 10
7.048866895
 20
8.6416151005
 11
7.048641137
 21
8.6418758671
  0
LINE
  5
45D
100
AcDbEntity
  8
0
100
AcDbLine
 62
7
  6
CONTINUOUS
 10
7.048866895
 20
8.7006702187
 11
7.048641137
 21
8.7009309852
  0
LINE
  5
45E
100
AcDbEntity
  8
AXIS
100
AcDbLine
 62
7
  6
CONTINUOUS
 10
6.6510033417
 20
14.1533335706
 11
6.6313820476
 21
14.0420556823
  0
LINE
  5
45F
100
AcDbEntity
  8
AXIS
100
AcDbLine
 62
7
  6
CONTINUOUS
 10
6.631350175
 20
14.0418749235
 11
6.6313183023
 21
14.0416941647
  0
LINE
  5
460
100
AcDbEntity
  8
0
100
AcDbLine
 62
7
  6
CONTINUOUS
 10
8.5210820818
 20
9.187363456
 11
6.7494285385
 21
9.187363456
  0
LINE
  5
461
100
AcDbEntity
  8
AXIS
100
AcDbLine
 62
7
  6
CONTINUOUS
 10
8.6293497984
 20
9.2070484954
 11
6.641160822
 21
9.2070484954
  0
LINE
  5
462
100
AcDbEntity
  8
0
100
AcDbLine
 62
7
  6
CONTINUOUS
 10
6.641160822
 20
9.2509501018
 11
8.6293497984
 21
9.2509501018
  0
LINE
  5
463
100
AcDbEntity
  8
0
100
AcDbLine
 62
7
  6
CONTINUOUS
 10
6.6510033417
 20
9.2523240859
 11
8.6195072787
 21
9.2523240859
  0
LINE
  5
464
100
AcDbEntity
  8
0
100
AcDbLine
 62
7
  6
CONTINUOUS
 10
8.2216437254
 20
8.4429240353
 11
8.1861961599
 21
8.4633980824
  0
LINE
  5
465
100
AcDbEntity
  8
0
100
AcDbLine
 62
7
  6
CONTINUOUS
 10
8.2216437254
 20
8.5019791534
 11
8.1861961599
 21
8.5224532005
  0
LINE
  5
466
100
AcDbEntity
  8
0
100
AcDbLine
 62
7
  6
CONTINUOUS
 10
8.2216437254
 20
8.5610342715
 11
8.1861961599
 21
8.5815083186
  0
LINE
  5
467
100
AcDbEntity
  8
0
100
AcDbLine
 62
7
  6
CONTINUOUS
 10
8.2216437254
 20
8.6200893896
 11
8.1861961599
 21
8.6405634367
  0
LINE
  5
468
100
AcDbEntity
  8
0
100
AcDbLine
 62
7
  6
CONTINUOUS
 10
8.2216437254
 20
8.6791445077
 11
8.1861961599
 21
8.6996185548
  0
LINE
  5
469
100
AcDbEntity
  8
0
100
AcDbLine
 62
7
  6
CONTINUOUS
 10
6.6490348377
 20
9.2523385032
 11
6.641160822
 21
9.2509501018
  0
LINE
  5
46A
100
AcDbEntity
  8
0
100
AcDbLine
 62
7
  6
CONTINUOUS
 10
8.6214757826
 20
9.2523385032
 11
8.6293530181
 21
9.2509495341
  0
LINE
  5
46B
100
AcDbEntity
  8
0
100
AcDbLine
 62
7
  6
CONTINUOUS
 10
8.2218694834
 20
8.1473876781
 11
8.2216437254
 21
8.1476484447
  0
LINE
  5
46C
100
AcDbEntity
  8
0
100
AcDbLine
 62
7
  6
CONTINUOUS
 10
8.2218694834
 20
8.2064427963
 11
8.2216437254
 21
8.2067035628
  0
LINE
  5
46D
100
AcDbEntity
  8
0
100
AcDbLine
 62
7
  6
CONTINUOUS
 10
8.2218694834
 20
8.2654979144
 11
8.2216437254
 21
8.2657586809
  0
LWPOLYLINE
  5
46E
100
AcDbEntity
  8
0
100
AcDbPolyline
 62
7
  6
CONTINUOUS
 90
4
 70
0
 10
6.6512001921
 20
14.0416941647
 10
6.6510908328
 20
14.0789064318
 10
6.6510252149
 20
14.1161196268
 10
6.6510033417
 20
14.1533335706
  0
LINE
  5
46F
100
AcDbEntity
  8
0
100
AcDbLine
 62
7
  6
CONTINUOUS
 10
6.641160822
 20
9.2070484954
 11
6.641160822
 21
9.2509501018
  0
LINE
  5
470
100
AcDbEntity
  8
0
100
AcDbLine
 62
7
  6
CONTINUOUS
 10
6.6490348377
 20
9.2523240859
 11
6.6490348377
 21
9.7838201489
  0
LINE
  5
471
100
AcDbEntity
  8
AXIS
100
AcDbLine
 62
7
  6
CONTINUOUS
 10
6.6490348377
 20
10.8546862907
 11
6.6490348377
 21
11.3861823536
  0
LINE
  5
472
100
AcDbEntity
  8
AXIS
100
AcDbLine
 62
7
  6
CONTINUOUS
 10
6.6490348377
 20
12.4570484954
 11
6.6490348377
 21
12.9885445584
  0
LINE
  5
473
100
AcDbEntity
  8
AXIS
100
AcDbLine
 62
7
  6
CONTINUOUS
 10
6.6510033417
 20
9.7838201489
 11
6.6510033417
 21
10.8546862907
  0
LINE
  5
474
100
AcDbEntity
  8
AXIS
100
AcDbLine
 62
7
  6
CONTINUOUS
 10
6.6510033417
 20
11.3861823536
 11
6.6510033417
 21
12.4570484954
  0
LINE
  5
475
100
AcDbEntity
  8
AXIS
100
AcDbLine
 62
7
  6
CONTINUOUS
 10
6.6510033417
 20
12.9885445584
 11
6.6510033417
 21
13.9304162764
  0
LINE
  5
476
100
AcDbEntity
  8
0
100
AcDbLine
 62
7
  6
CONTINUOUS
 10
6.6510033417
 20
14.1533335706
 11
6.6510033417
 21
14.4747650308
  0
LINE
  5
477
100
AcDbEntity
  8
0
100
AcDbLine
 62
7
  6
CONTINUOUS
 10
6.7494285385
 20
8.9137414088
 11
6.7494285385
 21
9.187363456
  0
LWPOLYLINE
  5
478
100
AcDbEntity
  8
AXIS
100
AcDbPolyline
 62
7
  6
CONTINUOUS
 90
4
 70
0
 10
6.6510033417
 20
13.9304162764
 10
6.6510252147
 20
13.9676300284
 10
6.6510908326
 20
14.0048433183
 10
6.6512001921
 20
14.0420556823
  0
LINE
  5
479
100
AcDbEntity
  8
0
100
AcDbLine
 62
7
  6
CONTINUOUS
 10
6.6490348377
 20
9.7838201489
 11
8.6214757826
 21
9.7838201489
  0
LINE
  5
47A
100
AcDbEntity
  8
0
100
AcDbLine
 62
7
  6
CONTINUOUS
 10
8.2218694834
 20
8.3245530325
 11
8.2216437254
 21
8.324813799
  0
LINE
  5
47B
100
AcDbEntity
  8
0
100
AcDbLine
 62
7
  6
CONTINUOUS
 10
8.2218694834
 20
8.3836081506
 11
8.2216437254
 21
8.3838689172
  0
LINE
  5
47C
100
AcDbEntity
  8
0
100
AcDbLine
 62
7
  6
CONTINUOUS
 10
8.2218694834
 20
8.4426632687
 11
8.2216437254
 21
8.4429240353
  0
LINE
  5
47D
100
AcDbEntity
  8
0
100
AcDbLine
 62
7
  6
CONTINUOUS
 10
8.2218694834
 20
8.5017183868
 11
8.2216437254
 21
8.5019791534
  0
LINE
  5
47E
100
AcDbEntity
  8
0
100
AcDbLine
 62
7
  6
CONTINUOUS
 10
8.2218694834
 20
8.5607735049
 11
8.2216437254
 21
8.5610342715
  0
LINE
  5
47F
100
AcDbEntity
  8
0
100
AcDbLine
 62
7
  6
CONTINUOUS
 10
8.2218694834
 20
8.619828623
 11
8.2216437254
 21
8.6200893896
  0
LINE
  5
480
100
AcDbEntity
  8
0
100
AcDbLine
 62
7
  6
CONTINUOUS
 10
8.2218694834
 20
8.6788837411
 11
8.2216437254
 21
8.6791445077
  0
LINE
  5
481
100
AcDbEntity
  8
0
100
AcDbLine
 62
7
  6
CONTINUOUS
 10
7.048641137
 20
8.7084113002
 11
7.048641137
 21
8.7009309852
  0
LINE
  5
482
100
AcDbEntity
  8
0
100
AcDbLine
 62
7
  6
CONTINUOUS
 10
7.048641137
 20
8.6493561821
 11
7.048641137
 21
8.6418758671
  0
LINE
  5
483
100
AcDbEntity
  8
0
100
AcDbLine
 62
7
  6
CONTINUOUS
 10
7.048641137
 20
8.590301064
 11
7.048641137
 21
8.582820749
  0
LINE
  5
484
100
AcDbEntity
  8
0
100
AcDbLine
 62
7
  6
CONTINUOUS
 10
7.048641137
 20
8.5312459459
 11
7.048641137
 21
8.5237656309
  0
LINE
  5
485
100
AcDbEntity
  8
0
100
AcDbLine
 62
7
  6
CONTINUOUS
 10
7.048641137
 20
8.4721908277
 11
7.048641137
 21
8.4647105128
  0
LINE
  5
486
100
AcDbEntity
  8
0
100
AcDbLine
 62
7
  6
CONTINUOUS
 10
7.048641137
 20
8.4131357096
 11
7.048641137
 21
8.4056553947
  0
LINE
  5
487
100
AcDbEntity
  8
0
100
AcDbLine
 62
7
  6
CONTINUOUS
 10
7.048641137
 20
8.3540805915
 11
7.048641137
 21
8.3466002766
  0
LINE
  5
488
100
AcDbEntity
  8
0
100
AcDbLine
 62
7
  6
CONTINUOUS
 10
7.048641137
 20
8.2950254734
 11
7.048641137
 21
8.2875451585
  0
LINE
  5
489
100
AcDbEntity
  8
0
100
AcDbLine
 62
7
  6
CONTINUOUS
 10
7.048641137
 20
8.2359703553
 11
7.048641137
 21
8.2284900403
  0
LINE
  5
48A
100
AcDbEntity
  8
0
100
AcDbLine
 62
7
  6
CONTINUOUS
 10
7.048641137
 20
8.1769152372
 11
7.048641137
 21
8.1694349222
  0
LINE
  5
48B
100
AcDbEntity
  8
0
100
AcDbLine
 62
7
  6
CONTINUOUS
 10
7.048641137
 20
8.1178601191
 11
7.048641137
 21
8.1103798041
  0
LINE
  5
48C
100
AcDbEntity
  8
AXIS
100
AcDbLine
 62
7
  6
CONTINUOUS
 10
7.0840742078
 20
8.7523240859
 11
7.0840742078
 21
8.7288685932
  0
LINE
  5
48D
100
AcDbEntity
  8
AXIS
100
AcDbLine
 62
7
  6
CONTINUOUS
 10
7.0840742078
 20
8.6804736922
 11
7.0840742078
 21
8.6698134751
  0
LINE
  5
48E
100
AcDbEntity
  8
AXIS
100
AcDbLine
 62
7
  6
CONTINUOUS
 10
7.0840742078
 20
8.6214185741
 11
7.0840742078
 21
8.610758357
  0
LINE
  5
48F
100
AcDbEntity
  8
AXIS
100
AcDbLine
 62
7
  6
CONTINUOUS
 10
7.0840742078
 20
8.562363456
 11
7.0840742078
 21
8.5517032389
  0
LINE
  5
490
100
AcDbEntity
  8
AXIS
100
AcDbLine
 62
7
  6
CONTINUOUS
 10
7.0840742078
 20
8.5033083379
 11
7.0840742078
 21
8.4926481208
  0
LINE
  5
491
100
AcDbEntity
  8
AXIS
100
AcDbLine
 62
7
  6
CONTINUOUS
 10
7.0840742078
 20
8.4442532198
 11
7.0840742078
 21
8.4335930026
  0
LINE
  5
492
100
AcDbEntity
  8
AXIS
100
AcDbLine
 62
7
  6
CONTINUOUS
 10
7.0840742078
 20
8.3851981017
 11
7.0840742078
 21
8.3745378845
  0
LINE
  5
493
100
AcDbEntity
  8
AXIS
100
AcDbLine
 62
7
  6
CONTINUOUS
 10
7.0840742078
 20
8.3261429836
 11
7.0840742078
 21
8.3154827664
  0
LINE
  5
494
100
AcDbEntity
  8
AXIS
100
AcDbLine
 62
7
  6
CONTINUOUS
 10
7.0840742078
 20
8.2670878655
 11
7.0840742078
 21
8.2564276483
  0
LINE
  5
495
100
AcDbEntity
  8
AXIS
100
AcDbLine
 62
7
  6
CONTINUOUS
 10
7.0840742078
 20
8.2080327473
 11
7.0840742078
 21
8.1973725302
  0
LINE
  5
496
100
AcDbEntity
  8
AXIS
100
AcDbLine
 62
7
  6
CONTINUOUS
 10
7.0840742078
 20
8.1489776292
 11
7.0840742078
 21
8.1383174121
  0
LINE
  5
497
100
AcDbEntity
  8
AXIS
100
AcDbLine
 62
7
  6
CONTINUOUS
 10
7.0840742078
 20
8.0899225111
 11
7.0840742078
 21
8.0672847158
  0
LINE
  5
498
100
AcDbEntity
  8
AXIS
100
AcDbLine
 62
7
  6
CONTINUOUS
 10
6.6510033417
 20
13.9304162764
 11
6.6313183023
 21
14.0420556823
  0
LWPOLYLINE
  5
499
100
AcDbEntity
  8
0
100
AcDbPolyline
 62
7
  6
CONTINUOUS
 90
6
 70
0
 10
7.5062460179
 20
8.7523240859
 10
7.5058852086
 20
8.7620569046
 10
7.504838099
 20
8.7708370073
 10
7.5032071875
 20
8.7778049361
 10
7.5011521192
 20
8.7822786219
 10
7.4988740584
 20
8.7838201489
  0
LINE
  5
49A
100
AcDbEntity
  8
0
100
AcDbLine
 62
7
  6
CONTINUOUS
 10
7.4092714012
 20
8.121426673
 11
7.4092714012
 21
8.1289069879
  0
LINE
  5
49B
100
AcDbEntity
  8
0
100
AcDbLine
 62
7
  6
CONTINUOUS
 10
7.4092714012
 20
8.1804817911
 11
7.4092714012
 21
8.187962106
  0
LINE
  5
49C
100
AcDbEntity
  8
0
100
AcDbLine
 62
7
  6
CONTINUOUS
 10
7.4092714012
 20
8.2395369092
 11
7.4092714012
 21
8.2470172241
  0
LINE
  5
49D
100
AcDbEntity
  8
0
100
AcDbLine
 62
7
  6
CONTINUOUS
 10
7.4092714012
 20
8.2985920273
 11
7.4092714012
 21
8.3060723423
  0
LINE
  5
49E
100
AcDbEntity
  8
0
100
AcDbLine
 62
7
  6
CONTINUOUS
 10
7.4092714012
 20
8.3576471454
 11
7.4092714012
 21
8.3651274604
  0
LINE
  5
49F
100
AcDbEntity
  8
0
100
AcDbLine
 62
7
  6
CONTINUOUS
 10
7.4092714012
 20
8.4167022635
 11
7.4092714012
 21
8.4241825785
  0
LINE
  5
4A0
100
AcDbEntity
  8
0
100
AcDbLine
 62
7
  6
CONTINUOUS
 10
7.4092714012
 20
8.4757573816
 11
7.4092714012
 21
8.4832376966
  0
LINE
  5
4A1
100
AcDbEntity
  8
0
100
AcDbLine
 62
7
  6
CONTINUOUS
 10
7.4092714012
 20
8.5348124997
 11
7.4092714012
 21
8.5422928147
  0
LINE
  5
4A2
100
AcDbEntity
  8
0
100
AcDbLine
 62
7
  6
CONTINUOUS
 10
7.4092714012
 20
8.5938676178
 11
7.4092714012
 21
8.6013479328
  0
LINE
  5
4A3
100
AcDbEntity
  8
0
100
AcDbLine
 62
7
  6
CONTINUOUS
 10
7.4092714012
 20
8.652922736
 11
7.4092714012
 21
8.6604030509
  0
LINE
  5
4A4
100
AcDbEntity
  8
0
100
AcDbLine
 62
7
  6
CONTINUOUS
 10
7.4092714012
 20
8.7119778541
 11
7.4092714012
 21
8.719458169
  0
LINE
  5
4A5
100
AcDbEntity
  8
0
100
AcDbLine
 62
7
  6
CONTINUOUS
 10
7.5062460179
 20
8.0672847158
 11
7.5062460179
 21
8.102465785
  0
LINE
  5
4A6
100
AcDbEntity
  8
0
100
AcDbLine
 62
7
  6
CONTINUOUS
 10
7.5062460179
 20
8.741411867
 11
7.5062460179
 21
8.7523240859
  0
LINE
  5
4A7
100
AcDbEntity
  8
02___PRT_ALL_AXES
100
AcDbLine
 62
7
  6
CONTINUOUS
 10
7.5277553102
 20
8.0357886529
 11
7.5277553102
 21
6.5578358969
  0
LINE
  5
4A8
100
AcDbEntity
  8
0
100
AcDbLine
 62
7
  6
CONTINUOUS
 10
7.5315579307
 20
8.6934585901
 11
7.5315579307
 21
8.682798373
  0
LINE
  5
4A9
100
AcDbEntity
  8
0
100
AcDbLine
 62
7
  6
CONTINUOUS
 10
7.5315579307
 20
8.634403472
 11
7.5315579307
 21
8.6237432548
  0
LINE
  5
4AA
100
AcDbEntity
  8
0
100
AcDbLine
 62
7
  6
CONTINUOUS
 10
7.5315579307
 20
8.5753483539
 11
7.5315579307
 21
8.5646881367
  0
LINE
  5
4AB
100
AcDbEntity
  8
0
100
AcDbLine
 62
7
  6
CONTINUOUS
 10
7.5315579307
 20
8.5162932358
 11
7.5315579307
 21
8.5056330186
  0
LINE
  5
4AC
100
AcDbEntity
  8
0
100
AcDbLine
 62
7
  6
CONTINUOUS
 10
7.5315579307
 20
8.4572381177
 11
7.5315579307
 21
8.4465779005
  0
LINE
  5
4AD
100
AcDbEntity
  8
0
100
AcDbLine
 62
7
  6
CONTINUOUS
 10
7.5315579307
 20
8.3981829995
 11
7.5315579307
 21
8.3875227824
  0
LINE
  5
4AE
100
AcDbEntity
  8
0
100
AcDbLine
 62
7
  6
CONTINUOUS
 10
7.5315579307
 20
8.3391278814
 11
7.5315579307
 21
8.3284676643
  0
LINE
  5
4AF
100
AcDbEntity
  8
0
100
AcDbLine
 62
7
  6
CONTINUOUS
 10
7.5315579307
 20
8.2800727633
 11
7.5315579307
 21
8.2694125462
  0
LINE
  5
4B0
100
AcDbEntity
  8
0
100
AcDbLine
 62
7
  6
CONTINUOUS
 10
7.5315579307
 20
8.2210176452
 11
7.5315579307
 21
8.2103574281
  0
LINE
  5
4B1
100
AcDbEntity
  8
0
100
AcDbLine
 62
7
  6
CONTINUOUS
 10
7.5315579307
 20
8.1619625271
 11
7.5315579307
 21
8.15130231
  0
LINE
  5
4B2
100
AcDbEntity
  8
0
100
AcDbLine
 62
7
  6
CONTINUOUS
 10
7.5523207652
 20
8.0357886529
 11
7.5523207652
 21
8.1012214545
  0
LINE
  5
4B3
100
AcDbEntity
  8
0
100
AcDbLine
 62
7
  6
CONTINUOUS
 10
7.5523207652
 20
8.7442395497
 11
7.5523207652
 21
8.7838201489
  0
LINE
  5
4B4
100
AcDbEntity
  8
0
100
AcDbLine
 62
7
  6
CONTINUOUS
 10
7.7181898552
 20
8.0357886529
 11
7.7181898552
 21
8.1040791137
  0
LINE
  5
4B5
100
AcDbEntity
  8
0
100
AcDbLine
 62
7
  6
CONTINUOUS
 10
7.7181898552
 20
8.6880420908
 11
7.7181898552
 21
8.7838201489
  0
LINE
  5
4B6
100
AcDbEntity
  8
0
100
AcDbLine
 62
7
  6
CONTINUOUS
 10
7.7389526896
 20
8.1548600733
 11
7.7389526896
 21
8.1655202904
  0
LINE
  5
4B7
100
AcDbEntity
  8
0
100
AcDbLine
 62
7
  6
CONTINUOUS
 10
7.7389526896
 20
8.2139151914
 11
7.7389526896
 21
8.2245754085
  0
LINE
  5
4B8
100
AcDbEntity
  8
0
100
AcDbLine
 62
7
  6
CONTINUOUS
 10
7.7389526896
 20
8.2729703095
 11
7.7389526896
 21
8.2836305266
  0
LINE
  5
4B9
100
AcDbEntity
  8
0
100
AcDbLine
 62
7
  6
CONTINUOUS
 10
7.7389526896
 20
8.3320254276
 11
7.7389526896
 21
8.3426856447
  0
LINE
  5
4BA
100
AcDbEntity
  8
0
100
AcDbLine
 62
7
  6
CONTINUOUS
 10
7.7389526896
 20
8.3910805457
 11
7.7389526896
 21
8.4017407629
  0
LINE
  5
4BB
100
AcDbEntity
  8
0
100
AcDbLine
 62
7
  6
CONTINUOUS
 10
7.7389526896
 20
8.4501356638
 11
7.7389526896
 21
8.460795881
  0
LINE
  5
4BC
100
AcDbEntity
  8
0
100
AcDbLine
 62
7
  6
CONTINUOUS
 10
7.7389526896
 20
8.5091907819
 11
7.7389526896
 21
8.5198509991
  0
LINE
  5
4BD
100
AcDbEntity
  8
0
100
AcDbLine
 62
7
  6
CONTINUOUS
 10
7.7389526896
 20
8.5682459
 11
7.7389526896
 21
8.5789061172
  0
LINE
  5
4BE
100
AcDbEntity
  8
0
100
AcDbLine
 62
7
  6
CONTINUOUS
 10
7.7389526896
 20
8.6273010182
 11
7.7389526896
 21
8.6379612353
  0
LINE
  5
4BF
100
AcDbEntity
  8
02___PRT_ALL_AXES
100
AcDbLine
 62
7
  6
CONTINUOUS
 10
7.7427553102
 20
8.0357886529
 11
7.7427553102
 21
6.5578358969
  0
LINE
  5
4C0
100
AcDbEntity
  8
0
100
AcDbLine
 62
7
  6
CONTINUOUS
 10
7.7642646024
 20
8.7523240859
 11
7.7642646024
 21
8.6867977603
  0
LINE
  5
4C1
100
AcDbEntity
  8
0
100
AcDbLine
 62
7
  6
CONTINUOUS
 10
7.7642646024
 20
8.1069067963
 11
7.7642646024
 21
8.0672847158
  0
LINE
  5
4C2
100
AcDbEntity
  8
0
100
AcDbLine
 62
7
  6
CONTINUOUS
 10
7.8612392192
 20
8.6678368723
 11
7.8612392192
 21
8.6603565573
  0
LINE
  5
4C3
100
AcDbEntity
  8
0
100
AcDbLine
 62
7
  6
CONTINUOUS
 10
7.8612392192
 20
8.6087817542
 11
7.8612392192
 21
8.6013014392
  0
LINE
  5
4C4
100
AcDbEntity
  8
0
100
AcDbLine
 62
7
  6
CONTINUOUS
 10
7.8612392192
 20
8.5497266361
 11
7.8612392192
 21
8.5422463211
  0
LINE
  5
4C5
100
AcDbEntity
  8
0
100
AcDbLine
 62
7
  6
CONTINUOUS
 10
7.8612392192
 20
8.490671518
 11
7.8612392192
 21
8.483191203
  0
LINE
  5
4C6
100
AcDbEntity
  8
0
100
AcDbLine
 62
7
  6
CONTINUOUS
 10
7.8612392192
 20
8.4316163999
 11
7.8612392192
 21
8.4241360849
  0
LINE
  5
4C7
100
AcDbEntity
  8
0
100
AcDbLine
 62
7
  6
CONTINUOUS
 10
7.8612392192
 20
8.3725612817
 11
7.8612392192
 21
8.3650809668
  0
LINE
  5
4C8
100
AcDbEntity
  8
0
100
AcDbLine
 62
7
  6
CONTINUOUS
 10
7.8612392192
 20
8.3135061636
 11
7.8612392192
 21
8.3060258487
  0
LINE
  5
4C9
100
AcDbEntity
  8
0
100
AcDbLine
 62
7
  6
CONTINUOUS
 10
7.8612392192
 20
8.2544510455
 11
7.8612392192
 21
8.2469707306
  0
LINE
  5
4CA
100
AcDbEntity
  8
0
100
AcDbLine
 62
7
  6
CONTINUOUS
 10
7.8612392192
 20
8.1953959274
 11
7.8612392192
 21
8.1879156125
  0
LINE
  5
4CB
100
AcDbEntity
  8
0
100
AcDbLine
 62
7
  6
CONTINUOUS
 10
7.8612392192
 20
8.1363408093
 11
7.8612392192
 21
8.1288604943
  0
LWPOLYLINE
  5
4CC
100
AcDbEntity
  8
0
100
AcDbPolyline
 62
7
  6
CONTINUOUS
 90
6
 70
0
 10
7.7642646024
 20
8.7523240859
 10
7.7646254118
 20
8.7620569046
 10
7.7656725214
 20
8.7708370073
 10
7.7673034329
 20
8.7778049361
 10
7.7693585012
 20
8.7822786219
 10
7.771636562
 20
8.7838201489
  0
LINE
  5
4CD
100
AcDbEntity
  8
AXIS
100
AcDbLine
 62
7
  6
CONTINUOUS
 10
6.6490348377
 20
10.8546862907
 11
8.6214757826
 21
10.8546862907
  0
LINE
  5
4CE
100
AcDbEntity
  8
AXIS
100
AcDbLine
 62
7
  6
CONTINUOUS
 10
8.1864364126
 20
8.7523240859
 11
8.1864364126
 21
8.6993410341
  0
LINE
  5
4CF
100
AcDbEntity
  8
AXIS
100
AcDbLine
 62
7
  6
CONTINUOUS
 10
8.1864364126
 20
8.6509461332
 11
8.1864364126
 21
8.640285916
  0
LINE
  5
4D0
100
AcDbEntity
  8
AXIS
100
AcDbLine
 62
7
  6
CONTINUOUS
 10
8.1864364126
 20
8.5918910151
 11
8.1864364126
 21
8.5812307979
  0
LINE
  5
4D1
100
AcDbEntity
  8
AXIS
100
AcDbLine
 62
7
  6
CONTINUOUS
 10
8.1864364126
 20
8.5328358969
 11
8.1864364126
 21
8.5221756798
  0
LINE
  5
4D2
100
AcDbEntity
  8
AXIS
100
AcDbLine
 62
7
  6
CONTINUOUS
 10
8.1864364126
 20
8.4737807788
 11
8.1864364126
 21
8.4631205617
  0
LINE
  5
4D3
100
AcDbEntity
  8
AXIS
100
AcDbLine
 62
7
  6
CONTINUOUS
 10
8.1864364126
 20
8.4147256607
 11
8.1864364126
 21
8.4040654436
  0
LINE
  5
4D4
100
AcDbEntity
  8
AXIS
100
AcDbLine
 62
7
  6
CONTINUOUS
 10
8.1864364126
 20
8.3556705426
 11
8.1864364126
 21
8.3450103255
  0
LINE
  5
4D5
100
AcDbEntity
  8
AXIS
100
AcDbLine
 62
7
  6
CONTINUOUS
 10
8.1864364126
 20
8.2966154245
 11
8.1864364126
 21
8.2859552074
  0
LINE
  5
4D6
100
AcDbEntity
  8
AXIS
100
AcDbLine
 62
7
  6
CONTINUOUS
 10
8.1864364126
 20
8.2375603064
 11
8.1864364126
 21
8.2269000893
  0
LINE
  5
4D7
100
AcDbEntity
  8
AXIS
100
AcDbLine
 62
7
  6
CONTINUOUS
 10
8.1864364126
 20
8.1785051883
 11
8.1864364126
 21
8.1678449711
  0
LINE
  5
4D8
100
AcDbEntity
  8
AXIS
100
AcDbLine
 62
7
  6
CONTINUOUS
 10
8.1864364126
 20
8.1194500702
 11
8.1864364126
 21
8.0672847158
  0
LINE
  5
4D9
100
AcDbEntity
  8
0
100
AcDbLine
 62
7
  6
CONTINUOUS
 10
8.2218694834
 20
8.1399073632
 11
8.2218694834
 21
8.1473876781
  0
LINE
  5
4DA
100
AcDbEntity
  8
0
100
AcDbLine
 62
7
  6
CONTINUOUS
 10
8.2218694834
 20
8.1989624813
 11
8.2218694834
 21
8.2064427963
  0
LINE
  5
4DB
100
AcDbEntity
  8
0
100
AcDbLine
 62
7
  6
CONTINUOUS
 10
8.2218694834
 20
8.2580175994
 11
8.2218694834
 21
8.2654979144
  0
LINE
  5
4DC
100
AcDbEntity
  8
0
100
AcDbLine
 62
7
  6
CONTINUOUS
 10
8.2218694834
 20
8.3170727175
 11
8.2218694834
 21
8.3245530325
  0
LINE
  5
4DD
100
AcDbEntity
  8
0
100
AcDbLine
 62
7
  6
CONTINUOUS
 10
8.2218694834
 20
8.3761278356
 11
8.2218694834
 21
8.3836081506
  0
LINE
  5
4DE
100
AcDbEntity
  8
0
100
AcDbLine
 62
7
  6
CONTINUOUS
 10
8.2218694834
 20
8.4351829537
 11
8.2218694834
 21
8.4426632687
  0
LINE
  5
4DF
100
AcDbEntity
  8
0
100
AcDbLine
 62
7
  6
CONTINUOUS
 10
8.2218694834
 20
8.4942380718
 11
8.2218694834
 21
8.5017183868
  0
LINE
  5
4E0
100
AcDbEntity
  8
0
100
AcDbLine
 62
7
  6
CONTINUOUS
 10
8.2218694834
 20
8.55329319
 11
8.2218694834
 21
8.5607735049
  0
LINE
  5
4E1
100
AcDbEntity
  8
0
100
AcDbLine
 62
7
  6
CONTINUOUS
 10
8.2218694834
 20
8.6123483081
 11
8.2218694834
 21
8.619828623
  0
LINE
  5
4E2
100
AcDbEntity
  8
0
100
AcDbLine
 62
7
  6
CONTINUOUS
 10
8.2218694834
 20
8.6714034262
 11
8.2218694834
 21
8.6788837411
  0
LINE
  5
4E3
100
AcDbEntity
  8
0
100
AcDbLine
 62
7
  6
CONTINUOUS
 10
7.048641137
 20
8.7084113002
 11
7.048866895
 21
8.7086720668
  0
LINE
  5
4E4
100
AcDbEntity
  8
AXIS
100
AcDbLine
 62
7
  6
CONTINUOUS
 10
6.6490348377
 20
11.3861823536
 11
8.6214757826
 21
11.3861823536
  0
LINE
  5
4E5
100
AcDbEntity
  8
0
100
AcDbLine
 62
7
  6
CONTINUOUS
 10
8.5210820818
 20
8.9137414088
 11
8.5210820818
 21
9.187363456
  0
LINE
  5
4E6
100
AcDbEntity
  8
AXIS
100
AcDbLine
 62
7
  6
CONTINUOUS
 10
8.6195072787
 20
9.7838201489
 11
8.6195072787
 21
10.8546862907
  0
LINE
  5
4E7
100
AcDbEntity
  8
AXIS
100
AcDbLine
 62
7
  6
CONTINUOUS
 10
8.6195072787
 20
11.3861823536
 11
8.6195072787
 21
12.4570484954
  0
LINE
  5
4E8
100
AcDbEntity
  8
AXIS
100
AcDbLine
 62
7
  6
CONTINUOUS
 10
8.6195072787
 20
12.9885445584
 11
8.6195072787
 21
14.0420556823
  0
LINE
  5
4E9
100
AcDbEntity
  8
0
100
AcDbLine
 62
7
  6
CONTINUOUS
 10
8.6195072787
 20
14.0416941647
 11
8.6195072787
 21
14.4747650308
  0
LINE
  5
4EA
100
AcDbEntity
  8
0
100
AcDbLine
 62
7
  6
CONTINUOUS
 10
8.6214757826
 20
9.2523240859
 11
8.6214757826
 21
9.7838201489
  0
LINE
  5
4EB
100
AcDbEntity
  8
AXIS
100
AcDbLine
 62
7
  6
CONTINUOUS
 10
8.6214757826
 20
10.8546862907
 11
8.6214757826
 21
11.3861823536
  0
LINE
  5
4EC
100
AcDbEntity
  8
AXIS
100
AcDbLine
 62
7
  6
CONTINUOUS
 10
8.6214757826
 20
12.4570484954
 11
8.6214757826
 21
12.9885445584
  0
LINE
  5
4ED
100
AcDbEntity
  8
0
100
AcDbLine
 62
7
  6
CONTINUOUS
 10
8.6293497984
 20
9.2070484954
 11
8.6293497984
 21
9.2509501018
  0
LINE
  5
4EE
100
AcDbEntity
  8
0
100
AcDbLine
 62
7
  6
CONTINUOUS
 10
7.048641137
 20
8.6493561821
 11
7.048866895
 21
8.6496169486
  0
LINE
  5
4EF
100
AcDbEntity
  8
0
100
AcDbLine
 62
7
  6
CONTINUOUS
 10
7.048641137
 20
8.590301064
 11
7.048866895
 21
8.5905618305
  0
LINE
  5
4F0
100
AcDbEntity
  8
0
100
AcDbLine
 62
7
  6
CONTINUOUS
 10
7.048641137
 20
8.5312459459
 11
7.048866895
 21
8.5315067124
  0
LINE
  5
4F1
100
AcDbEntity
  8
0
100
AcDbLine
 62
7
  6
CONTINUOUS
 10
7.048641137
 20
8.4721908277
 11
7.048866895
 21
8.4724515943
  0
LINE
  5
4F2
100
AcDbEntity
  8
0
100
AcDbLine
 62
7
  6
CONTINUOUS
 10
7.048641137
 20
8.4131357096
 11
7.048866895
 21
8.4133964762
  0
LINE
  5
4F3
100
AcDbEntity
  8
0
100
AcDbLine
 62
7
  6
CONTINUOUS
 10
7.048641137
 20
8.3540805915
 11
7.048866895
 21
8.3543413581
  0
LINE
  5
4F4
100
AcDbEntity
  8
0
100
AcDbLine
 62
7
  6
CONTINUOUS
 10
7.048641137
 20
8.2950254734
 11
7.048866895
 21
8.29528624
  0
LINE
  5
4F5
100
AcDbEntity
  8
0
100
AcDbLine
 62
7
  6
CONTINUOUS
 10
7.048641137
 20
8.2359703553
 11
7.048866895
 21
8.2362311219
  0
LINE
  5
4F6
100
AcDbEntity
  8
0
100
AcDbLine
 62
7
  6
CONTINUOUS
 10
7.048641137
 20
8.1769152372
 11
7.048866895
 21
8.1771760038
  0
LINE
  5
4F7
100
AcDbEntity
  8
0
100
AcDbLine
 62
7
  6
CONTINUOUS
 10
7.048641137
 20
8.1178601191
 11
7.048866895
 21
8.1181208857
  0
LINE
  5
4F8
100
AcDbEntity
  8
0
100
AcDbLine
 62
7
  6
CONTINUOUS
 10
7.0843144605
 20
8.7291461139
 11
7.048866895
 21
8.7086720668
  0
LINE
  5
4F9
100
AcDbEntity
  8
0
100
AcDbLine
 62
7
  6
CONTINUOUS
 10
7.0843144605
 20
8.6700909958
 11
7.048866895
 21
8.6496169486
  0
LINE
  5
4FA
100
AcDbEntity
  8
0
100
AcDbLine
 62
7
  6
CONTINUOUS
 10
7.0843144605
 20
8.6110358777
 11
7.048866895
 21
8.5905618305
  0
LINE
  5
4FB
100
AcDbEntity
  8
0
100
AcDbLine
 62
7
  6
CONTINUOUS
 10
7.0843144605
 20
8.5519807595
 11
7.048866895
 21
8.5315067124
  0
LINE
  5
4FC
100
AcDbEntity
  8
0
100
AcDbLine
 62
7
  6
CONTINUOUS
 10
7.0843144605
 20
8.4929256414
 11
7.048866895
 21
8.4724515943
  0
LINE
  5
4FD
100
AcDbEntity
  8
0
100
AcDbLine
 62
7
  6
CONTINUOUS
 10
7.0843144605
 20
8.4338705233
 11
7.048866895
 21
8.4133964762
  0
LINE
  5
4FE
100
AcDbEntity
  8
0
100
AcDbLine
 62
7
  6
CONTINUOUS
 10
7.0843144605
 20
8.3748154052
 11
7.048866895
 21
8.3543413581
  0
LWPOLYLINE
  5
4FF
100
AcDbEntity
  8
0
100
AcDbPolyline
 62
7
  6
CONTINUOUS
 90
10
 70
0
 10
7.0840742078
 20
8.6804736922
 10
7.0858933647
 20
8.6812375282
 10
7.1003748864
 20
8.6827652168
 10
7.1289564916
 20
8.6842929152
 10
7.1708838003
 20
8.6858205855
 10
7.2250505188
 20
8.6873482178
 10
7.2900292122
 20
8.6888758383
 10
7.3641075998
 20
8.6904034603
 10
7.4453309224
 20
8.6919310441
 10
7.5315579307
 20
8.6934585901
  0
LWPOLYLINE
  5
500
100
AcDbEntity
  8
0
100
AcDbPolyline
 62
7
  6
CONTINUOUS
 90
10
 70
0
 10
7.0840742078
 20
8.6214185741
 10
7.0858933678
 20
8.6221824107
 10
7.1003749099
 20
8.6237101004
 10
7.1289565377
 20
8.6252377991
 10
7.1708838367
 20
8.6267654685
 10
7.2250505577
 20
8.6282931007
 10
7.2900293225
 20
8.6298207226
 10
7.364107649
 20
8.6313483432
 10
7.4453311755
 20
8.6328759306
 10
7.5315579307
 20
8.634403472
  0
LWPOLYLINE
  5
501
100
AcDbEntity
  8
0
100
AcDbPolyline
 62
7
  6
CONTINUOUS
 90
9
 70
0
 10
7.048641137
 20
8.7009309852
 10
7.0504410059
 20
8.7016674432
 10
7.0647737559
 20
8.703140359
 10
7.0930879859
 20
8.7046132748
 10
7.1346897649
 20
8.7060861907
 10
7.1885595078
 20
8.7075591065
 10
7.253376964
 20
8.7090320224
 10
7.3275535736
 20
8.7105049382
 10
7.4092714012
 20
8.7119778541
  0
LWPOLYLINE
  5
502
100
AcDbEntity
  8
0
100
AcDbPolyline
 62
7
  6
CONTINUOUS
 90
9
 70
0
 10
7.048641137
 20
8.6418758671
 10
7.0504410059
 20
8.642612325
 10
7.0647737559
 20
8.6440852409
 10
7.0930879859
 20
8.6455581567
 10
7.1346897649
 20
8.6470310726
 10
7.1885595078
 20
8.6485039884
 10
7.253376964
 20
8.6499769043
 10
7.3275535736
 20
8.6514498201
 10
7.4092714012
 20
8.652922736
  0
LWPOLYLINE
  5
503
100
AcDbEntity
  8
0
100
AcDbPolyline
 62
7
  6
CONTINUOUS
 90
9
 70
0
 10
7.048641137
 20
8.582820749
 10
7.0504410059
 20
8.5835572069
 10
7.0647737559
 20
8.5850301228
 10
7.0930879859
 20
8.5865030386
 10
7.1346897649
 20
8.5879759545
 10
7.1885595078
 20
8.5894488703
 10
7.253376964
 20
8.5909217862
 10
7.3275535736
 20
8.592394702
 10
7.4092714012
 20
8.5938676178
  0
LWPOLYLINE
  5
504
100
AcDbEntity
  8
0
100
AcDbPolyline
 62
7
  6
CONTINUOUS
 90
9
 70
0
 10
7.048866895
 20
8.7086720668
 10
7.0504410059
 20
8.7091477581
 10
7.0647737559
 20
8.710620674
 10
7.0930879859
 20
8.7120935898
 10
7.1346897649
 20
8.7135665056
 10
7.1885595078
 20
8.7150394215
 10
7.253376964
 20
8.7165123373
 10
7.3275535736
 20
8.7179852532
 10
7.4092714012
 20
8.719458169
  0
LINE
  5
505
100
AcDbEntity
  8
0
100
AcDbLine
 62
7
  6
CONTINUOUS
 10
8.2216437254
 20
8.6711426596
 11
8.2218694834
 21
8.6714034262
  0
LINE
  5
506
100
AcDbEntity
  8
0
100
AcDbLine
 62
7
  6
CONTINUOUS
 10
8.2216437254
 20
8.6120875415
 11
8.2218694834
 21
8.6123483081
  0
LINE
  5
507
100
AcDbEntity
  8
0
100
AcDbLine
 62
7
  6
CONTINUOUS
 10
8.2216437254
 20
8.5530324234
 11
8.2218694834
 21
8.55329319
  0
LINE
  5
508
100
AcDbEntity
  8
0
100
AcDbLine
 62
7
  6
CONTINUOUS
 10
8.2216437254
 20
8.4939773053
 11
8.2218694834
 21
8.4942380718
  0
LINE
  5
509
100
AcDbEntity
  8
0
100
AcDbLine
 62
7
  6
CONTINUOUS
 10
8.2216437254
 20
8.4349221872
 11
8.2218694834
 21
8.4351829537
  0
LINE
  5
50A
100
AcDbEntity
  8
0
100
AcDbLine
 62
7
  6
CONTINUOUS
 10
8.2216437254
 20
8.375867069
 11
8.2218694834
 21
8.3761278356
  0
LINE
  5
50B
100
AcDbEntity
  8
0
100
AcDbLine
 62
7
  6
CONTINUOUS
 10
8.2216437254
 20
8.3168119509
 11
8.2218694834
 21
8.3170727175
  0
LINE
  5
50C
100
AcDbEntity
  8
0
100
AcDbLine
 62
7
  6
CONTINUOUS
 10
7.0843144605
 20
8.3157602871
 11
7.048866895
 21
8.29528624
  0
LINE
  5
50D
100
AcDbEntity
  8
0
100
AcDbLine
 62
7
  6
CONTINUOUS
 10
7.0843144605
 20
8.256705169
 11
7.048866895
 21
8.2362311219
  0
LINE
  5
50E
100
AcDbEntity
  8
0
100
AcDbLine
 62
7
  6
CONTINUOUS
 10
7.0843144605
 20
8.1976500509
 11
7.048866895
 21
8.1771760038
  0
LINE
  5
50F
100
AcDbEntity
  8
0
100
AcDbLine
 62
7
  6
CONTINUOUS
 10
7.0843144605
 20
8.1385949328
 11
7.048866895
 21
8.1181208857
  0
LWPOLYLINE
  5
510
100
AcDbEntity
  8
0
100
AcDbPolyline
 62
7
  6
CONTINUOUS
 90
10
 70
0
 10
7.0840742078
 20
8.562363456
 10
7.08589337
 20
8.5631272931
 10
7.1003749289
 20
8.5646549836
 10
7.1289565777
 20
8.5661826827
 10
7.1708838853
 20
8.5677103519
 10
7.2250505944
 20
8.5692379835
 10
7.2900293748
 20
8.5707656056
 10
7.3641077362
 20
8.5722932268
 10
7.4453312561
 20
8.573820814
 10
7.5315579307
 20
8.5753483539
  0
LWPOLYLINE
  5
511
100
AcDbEntity
  8
0
100
AcDbPolyline
 62
7
  6
CONTINUOUS
 90
10
 70
0
 10
7.0840742078
 20
8.5033083379
 10
7.0858933725
 20
8.5040721755
 10
7.1003749488
 20
8.5055998669
 10
7.1289566186
 20
8.5071275664
 10
7.1708839345
 20
8.5086552354
 10
7.2250506335
 20
8.5101828664
 10
7.2900294309
 20
8.5117104887
 10
7.3641078264
 20
8.5132381104
 10
7.4453313385
 20
8.5147656974
 10
7.5315579307
 20
8.5162932358
  0
LWPOLYLINE
  5
512
100
AcDbEntity
  8
0
100
AcDbPolyline
 62
7
  6
CONTINUOUS
 90
10
 70
0
 10
7.0840742078
 20
8.4442532198
 10
7.0858933667
 20
8.4450170562
 10
7.1003749007
 20
8.4465447454
 10
7.128956518
 20
8.4480724439
 10
7.1708838125
 20
8.4496001134
 10
7.2250505401
 20
8.4511277459
 10
7.2900292976
 20
8.4526553677
 10
7.3641076063
 20
8.454182988
 10
7.4453311361
 20
8.4557105756
 10
7.5315579307
 20
8.4572381177
  0
LWPOLYLINE
  5
513
100
AcDbEntity
  8
0
100
AcDbPolyline
 62
7
  6
CONTINUOUS
 90
6
 70
0
 10
7.0840742078
 20
8.3851981017
 10
7.0858933689
 20
8.3859619385
 10
7.1003749193
 20
8.3874896286
 10
7.1289565576
 20
8.3890173275
 10
7.170883861
 20
8.3905449968
 10
7.2250505758
 20
8.3920726287
  0
LWPOLYLINE
  5
514
100
AcDbEntity
  8
0
100
AcDbPolyline
 62
7
  6
CONTINUOUS
 90
10
 70
0
 10
7.0840742078
 20
8.3261429836
 10
7.0858933712
 20
8.3269068209
 10
7.1003749387
 20
8.3284345119
 10
7.1289565979
 20
8.3299622112
 10
7.1708839097
 20
8.3314898803
 10
7.2250506136
 20
8.3330175115
 10
7.2900294023
 20
8.3345451338
 10
7.3641077809
 20
8.3360727552
 10
7.4453312971
 20
8.3376003423
 10
7.5315579307
 20
8.3391278814
  0
LWPOLYLINE
  5
515
100
AcDbEntity
  8
0
100
AcDbPolyline
 62
7
  6
CONTINUOUS
 90
10
 70
0
 10
7.0840742078
 20
8.2670878655
 10
7.0858933647
 20
8.2678517014
 10
7.1003748864
 20
8.2693793901
 10
7.1289564916
 20
8.2709070885
 10
7.1708838003
 20
8.2724347587
 10
7.2250505188
 20
8.273962391
 10
7.2900292122
 20
8.2754900115
 10
7.3641075998
 20
8.2770176335
 10
7.4453309224
 20
8.2785452174
 10
7.5315579307
 20
8.2800727633
  0
LWPOLYLINE
  5
516
100
AcDbEntity
  8
0
100
AcDbPolyline
 62
7
  6
CONTINUOUS
 90
9
 70
0
 10
7.048641137
 20
8.5237656309
 10
7.0504410059
 20
8.5245020888
 10
7.0647737559
 20
8.5259750047
 10
7.0930879859
 20
8.5274479205
 10
7.1346897649
 20
8.5289208364
 10
7.1885595078
 20
8.5303937522
 10
7.253376964
 20
8.531866668
 10
7.3275535736
 20
8.5333395839
 10
7.4092714012
 20
8.5348124997
  0
LWPOLYLINE
  5
517
100
AcDbEntity
  8
0
100
AcDbPolyline
 62
7
  6
CONTINUOUS
 90
6
 70
0
 10
7.048641137
 20
8.4647105128
 10
7.0504410059
 20
8.4654469707
 10
7.0647737559
 20
8.4669198866
 10
7.0930879859
 20
8.4683928024
 10
7.1346897649
 20
8.4698657182
 10
7.1885595078
 20
8.4713386341
  0
LWPOLYLINE
  5
518
100
AcDbEntity
  8
0
100
AcDbPolyline
 62
7
  6
CONTINUOUS
 90
9
 70
0
 10
7.048641137
 20
8.4056553947
 10
7.0504410059
 20
8.4063918526
 10
7.0647737559
 20
8.4078647684
 10
7.0930879859
 20
8.4093376843
 10
7.1346897649
 20
8.4108106001
 10
7.1885595078
 20
8.412283516
 10
7.253376964
 20
8.4137564318
 10
7.3275535736
 20
8.4152293477
 10
7.4092714012
 20
8.4167022635
  0
LWPOLYLINE
  5
519
100
AcDbEntity
  8
0
100
AcDbPolyline
 62
7
  6
CONTINUOUS
 90
7
 70
0
 10
7.048641137
 20
8.3466002766
 10
7.0504410059
 20
8.3473367345
 10
7.0647737559
 20
8.3488096503
 10
7.0930879859
 20
8.3502825662
 10
7.1346897649
 20
8.351755482
 10
7.1885595078
 20
8.3532283979
 10
7.253376964
 20
8.3547013137
  0
LWPOLYLINE
  5
51A
100
AcDbEntity
  8
0
100
AcDbPolyline
 62
7
  6
CONTINUOUS
 90
9
 70
0
 10
7.048641137
 20
8.2875451585
 10
7.0504410059
 20
8.2882816164
 10
7.0647737559
 20
8.2897545322
 10
7.0930879859
 20
8.2912274481
 10
7.1346897649
 20
8.2927003639
 10
7.1885595078
 20
8.2941732798
 10
7.253376964
 20
8.2956461956
 10
7.3275535736
 20
8.2971191114
 10
7.4092714012
 20
8.2985920273
  0
LWPOLYLINE
  5
51B
100
AcDbEntity
  8
0
100
AcDbPolyline
 62
7
  6
CONTINUOUS
 90
9
 70
0
 10
7.048866895
 20
8.6496169486
 10
7.0504410059
 20
8.65009264
 10
7.0647737559
 20
8.6515655558
 10
7.0930879859
 20
8.6530384717
 10
7.1346897649
 20
8.6545113875
 10
7.1885595078
 20
8.6559843034
 10
7.253376964
 20
8.6574572192
 10
7.3275535736
 20
8.6589301351
 10
7.4092714012
 20
8.6604030509
  0
LWPOLYLINE
  5
51C
100
AcDbEntity
  8
0
100
AcDbPolyline
 62
7
  6
CONTINUOUS
 90
9
 70
0
 10
7.048866895
 20
8.5905618305
 10
7.0504410059
 20
8.5910375219
 10
7.0647737559
 20
8.5925104377
 10
7.0930879859
 20
8.5939833536
 10
7.1346897649
 20
8.5954562694
 10
7.1885595078
 20
8.5969291853
 10
7.253376964
 20
8.5984021011
 10
7.3275535736
 20
8.599875017
 10
7.4092714012
 20
8.6013479328
  0
LWPOLYLINE
  5
51D
100
AcDbEntity
  8
0
100
AcDbPolyline
 62
7
  6
CONTINUOUS
 90
9
 70
0
 10
7.048866895
 20
8.5315067124
 10
7.0504410059
 20
8.5319824038
 10
7.0647737559
 20
8.5334553196
 10
7.0930879859
 20
8.5349282355
 10
7.1346897649
 20
8.5364011513
 10
7.1885595078
 20
8.5378740672
 10
7.253376964
 20
8.539346983
 10
7.3275535736
 20
8.5408198988
 10
7.4092714012
 20
8.5422928147
  0
LWPOLYLINE
  5
51E
100
AcDbEntity
  8
0
100
AcDbPolyline
 62
7
  6
CONTINUOUS
 90
9
 70
0
 10
7.048866895
 20
8.4724515943
 10
7.0504410059
 20
8.4729272857
 10
7.0647737559
 20
8.4744002015
 10
7.0930879859
 20
8.4758731174
 10
7.1346897649
 20
8.4773460332
 10
7.1885595078
 20
8.478818949
 10
7.253376964
 20
8.4802918649
 10
7.3275535736
 20
8.4817647807
 10
7.4092714012
 20
8.4832376966
  0
LWPOLYLINE
  5
51F
100
AcDbEntity
  8
0
100
AcDbPolyline
 62
7
  6
CONTINUOUS
 90
9
 70
0
 10
7.048866895
 20
8.4133964762
 10
7.0504410059
 20
8.4138721676
 10
7.0647737559
 20
8.4153450834
 10
7.0930879859
 20
8.4168179992
 10
7.1346897649
 20
8.4182909151
 10
7.1885595078
 20
8.4197638309
 10
7.253376964
 20
8.4212367468
 10
7.3275535736
 20
8.4227096626
 10
7.4092714012
 20
8.4241825785
  0
LINE
  5
520
100
AcDbEntity
  8
AXIS
100
AcDbLine
 62
7
  6
CONTINUOUS
 10
6.6490348377
 20
12.4570484954
 11
8.6214757826
 21
12.4570484954
  0
LINE
  5
521
100
AcDbEntity
  8
0
100
AcDbLine
 62
7
  6
CONTINUOUS
 10
8.2216437254
 20
8.2577568328
 11
8.2218694834
 21
8.2580175994
  0
LINE
  5
522
100
AcDbEntity
  8
0
100
AcDbLine
 62
7
  6
CONTINUOUS
 10
8.2216437254
 20
8.1987017147
 11
8.2218694834
 21
8.1989624813
  0
LINE
  5
523
100
AcDbEntity
  8
0
100
AcDbLine
 62
7
  6
CONTINUOUS
 10
8.2216437254
 20
8.1396465966
 11
8.2218694834
 21
8.1399073632
  0
LWPOLYLINE
  5
524
100
AcDbEntity
  8
0
100
AcDbPolyline
 62
7
  6
CONTINUOUS
 90
6
 70
0
 10
7.7568926429
 20
8.0357886529
 10
7.7591707037
 20
8.0373301799
 10
7.761225772
 20
8.0418038656
 10
7.7628566834
 20
8.0487717945
 10
7.763903793
 20
8.0575518971
 10
7.7642646024
 20
8.0672847158
  0
LINE
  5
525
100
AcDbEntity
  8
0
100
AcDbLine
 62
7
  6
CONTINUOUS
 10
8.1861961599
 20
8.6506686125
 11
8.2216437254
 21
8.6711426596
  0
LINE
  5
526
100
AcDbEntity
  8
0
100
AcDbLine
 62
7
  6
CONTINUOUS
 10
8.1861961599
 20
8.5916134944
 11
8.2216437254
 21
8.6120875415
  0
LINE
  5
527
100
AcDbEntity
  8
0
100
AcDbLine
 62
7
  6
CONTINUOUS
 10
8.1861961599
 20
8.5325583763
 11
8.2216437254
 21
8.5530324234
  0
LINE
  5
528
100
AcDbEntity
  8
0
100
AcDbLine
 62
7
  6
CONTINUOUS
 10
8.1861961599
 20
8.4735032581
 11
8.2216437254
 21
8.4939773053
  0
LINE
  5
529
100
AcDbEntity
  8
0
100
AcDbLine
 62
7
  6
CONTINUOUS
 10
8.1861961599
 20
8.41444814
 11
8.2216437254
 21
8.4349221872
  0
LINE
  5
52A
100
AcDbEntity
  8
0
100
AcDbLine
 62
7
  6
CONTINUOUS
 10
8.1861961599
 20
8.3553930219
 11
8.2216437254
 21
8.375867069
  0
LWPOLYLINE
  5
52B
100
AcDbEntity
  8
0
100
AcDbPolyline
 62
7
  6
CONTINUOUS
 90
10
 70
0
 10
8.1864364126
 20
8.6993410341
 10
8.1847388907
 20
8.6986031898
 10
8.1712209603
 20
8.69712747
 10
8.1445174239
 20
8.6956517461
 10
8.105286259
 20
8.6941760552
 10
8.0544926336
 20
8.6927003777
 10
7.9933851543
 20
8.6912246865
 10
7.923467506
 20
8.6897489952
 10
7.8464620792
 20
8.6882733477
 10
7.7642646024
 20
8.6867977603
  0
LWPOLYLINE
  5
52C
100
AcDbEntity
  8
0
100
AcDbPolyline
 62
7
  6
CONTINUOUS
 90
10
 70
0
 10
7.0840742078
 20
8.0899225111
 10
7.0857717824
 20
8.0906603669
 10
7.0992899512
 20
8.0921360965
 10
7.1259940041
 20
8.0936118352
 10
7.1652261032
 20
8.095087547
 10
7.2160200628
 20
8.0965632221
 10
7.2771266809
 20
8.098038886
 10
7.3470431571
 20
8.0995145509
 10
7.4240481122
 20
8.1009901897
 10
7.5062460179
 20
8.102465785
  0
LWPOLYLINE
  5
52D
100
AcDbEntity
  8
0
100
AcDbPolyline
 62
7
  6
CONTINUOUS
 90
6
 70
0
 10
7.0840742078
 20
8.2080327473
 10
7.0858933678
 20
8.208796584
 10
7.1003749099
 20
8.2103242736
 10
7.1289565377
 20
8.2118519724
 10
7.1708838367
 20
8.2133796417
 10
7.2250505577
 20
8.2149072739
  0
LWPOLYLINE
  5
52E
100
AcDbEntity
  8
0
100
AcDbPolyline
 62
7
  6
CONTINUOUS
 90
8
 70
0
 10
8.1864364126
 20
8.640285916
 10
8.1846172525
 20
8.6395220794
 10
8.1701359203
 20
8.6379944046
 10
8.1415552631
 20
8.6364667419
 10
8.0996291134
 20
8.6349390954
 10
8.0454623324
 20
8.6334114474
 10
7.9804824552
 20
8.6318837929
 10
7.9064038383
 20
8.630356164
  0
LWPOLYLINE
  5
52F
100
AcDbEntity
  8
0
100
AcDbPolyline
 62
7
  6
CONTINUOUS
 90
10
 70
0
 10
7.0840742078
 20
8.1489776292
 10
7.08589337
 20
8.1497414663
 10
7.1003749289
 20
8.1512691569
 10
7.1289565777
 20
8.152796856
 10
7.1708838853
 20
8.1543245252
 10
7.2250505944
 20
8.1558521567
 10
7.2900293748
 20
8.1573797788
 10
7.3641077362
 20
8.1589074
 10
7.4453312561
 20
8.1604349872
 10
7.5315579307
 20
8.1619625271
  0
LWPOLYLINE
  5
530
100
AcDbEntity
  8
0
100
AcDbPolyline
 62
7
  6
CONTINUOUS
 90
10
 70
0
 10
8.1864364126
 20
8.5812307979
 10
8.1846172644
 20
8.5804669638
 10
8.1701359991
 20
8.578939292
 10
8.1415549452
 20
8.5774116101
 10
8.0996280243
 20
8.5758839428
 10
8.0454609632
 20
8.5743562944
 10
7.9804820935
 20
8.5728286669
 10
7.9064043011
 20
8.5713010549
 10
7.8251808257
 20
8.5697734665
 10
7.7389526896
 20
8.5682459
  0
LWPOLYLINE
  5
531
100
AcDbEntity
  8
0
100
AcDbPolyline
 62
7
  6
CONTINUOUS
 90
10
 70
0
 10
8.1864364126
 20
8.5221756798
 10
8.1846172575
 20
8.5214118442
 10
8.1701357536
 20
8.5198841566
 10
8.141554241
 20
8.5183564616
 10
8.0996272131
 20
8.516828799
 10
8.0454606136
 20
8.5153011673
 10
7.9804813284
 20
8.513773532
 10
7.906402255
 20
8.5122458967
 10
7.8251785276
 20
8.5107183066
 10
7.7389526896
 20
8.5091907819
  0
LWPOLYLINE
  5
532
100
AcDbEntity
  8
0
100
AcDbPolyline
 62
7
  6
CONTINUOUS
 90
10
 70
0
 10
8.1864364126
 20
8.4631205617
 10
8.1846172683
 20
8.4623567284
 10
8.1701359564
 20
8.4608290528
 10
8.1415552475
 20
8.4593013869
 10
8.0996294156
 20
8.4577737506
 10
8.0454631317
 20
8.4562461135
 10
7.9804833288
 20
8.4547184577
 10
7.9064038578
 20
8.45319081
 10
7.8251800982
 20
8.4516632171
 10
7.7389526896
 20
8.4501356638
  0
LWPOLYLINE
  5
533
100
AcDbEntity
  8
0
100
AcDbPolyline
 62
7
  6
CONTINUOUS
 90
8
 70
0
 10
7.048641137
 20
8.2284900403
 10
7.0504410059
 20
8.2292264983
 10
7.0647737559
 20
8.2306994141
 10
7.0930879859
 20
8.23217233
 10
7.1346897649
 20
8.2336452458
 10
7.1885595078
 20
8.2351181616
 10
7.253376964
 20
8.2365910775
 10
7.3275535736
 20
8.2380639933
  0
LWPOLYLINE
  5
534
100
AcDbEntity
  8
0
100
AcDbPolyline
 62
7
  6
CONTINUOUS
 90
9
 70
0
 10
7.048641137
 20
8.1694349222
 10
7.0504410059
 20
8.1701713802
 10
7.0647737559
 20
8.171644296
 10
7.0930879859
 20
8.1731172118
 10
7.1346897649
 20
8.1745901277
 10
7.1885595078
 20
8.1760630435
 10
7.253376964
 20
8.1775359594
 10
7.3275535736
 20
8.1790088752
 10
7.4092714012
 20
8.1804817911
  0
LWPOLYLINE
  5
535
100
AcDbEntity
  8
0
100
AcDbPolyline
 62
7
  6
CONTINUOUS
 90
9
 70
0
 10
7.048641137
 20
8.1103798041
 10
7.0504410059
 20
8.111116262
 10
7.0647737559
 20
8.1125891779
 10
7.0930879859
 20
8.1140620937
 10
7.1346897649
 20
8.1155350096
 10
7.1885595078
 20
8.1170079254
 10
7.253376964
 20
8.1184808413
 10
7.3275535736
 20
8.1199537571
 10
7.4092714012
 20
8.121426673
  0
LWPOLYLINE
  5
536
100
AcDbEntity
  8
0
100
AcDbPolyline
 62
7
  6
CONTINUOUS
 90
9
 70
0
 10
7.048866895
 20
8.3543413581
 10
7.0504410059
 20
8.3548170494
 10
7.0647737559
 20
8.3562899653
 10
7.0930879859
 20
8.3577628811
 10
7.1346897649
 20
8.359235797
 10
7.1885595078
 20
8.3607087128
 10
7.253376964
 20
8.3621816287
 10
7.3275535736
 20
8.3636545445
 10
7.4092714012
 20
8.3651274604
  0
LWPOLYLINE
  5
537
100
AcDbEntity
  8
0
100
AcDbPolyline
 62
7
  6
CONTINUOUS
 90
9
 70
0
 10
7.048866895
 20
8.29528624
 10
7.0504410059
 20
8.2957619313
 10
7.0647737559
 20
8.2972348472
 10
7.0930879859
 20
8.298707763
 10
7.1346897649
 20
8.3001806789
 10
7.1885595078
 20
8.3016535947
 10
7.253376964
 20
8.3031265106
 10
7.3275535736
 20
8.3045994264
 10
7.4092714012
 20
8.3060723423
  0
LWPOLYLINE
  5
538
100
AcDbEntity
  8
0
100
AcDbPolyline
 62
7
  6
CONTINUOUS
 90
9
 70
0
 10
7.048866895
 20
8.2362311219
 10
7.0504410059
 20
8.2367068132
 10
7.0647737559
 20
8.2381797291
 10
7.0930879859
 20
8.2396526449
 10
7.1346897649
 20
8.2411255608
 10
7.1885595078
 20
8.2425984766
 10
7.253376964
 20
8.2440713925
 10
7.3275535736
 20
8.2455443083
 10
7.4092714012
 20
8.2470172241
  0
LWPOLYLINE
  5
539
100
AcDbEntity
  8
0
100
AcDbPolyline
 62
7
  6
CONTINUOUS
 90
9
 70
0
 10
7.048866895
 20
8.1771760038
 10
7.0504410059
 20
8.1776516951
 10
7.0647737559
 20
8.179124611
 10
7.0930879859
 20
8.1805975268
 10
7.1346897649
 20
8.1820704427
 10
7.1885595078
 20
8.1835433585
 10
7.253376964
 20
8.1850162743
 10
7.3275535736
 20
8.1864891902
 10
7.4092714012
 20
8.187962106
  0
LWPOLYLINE
  5
53A
100
AcDbEntity
  8
0
100
AcDbPolyline
 62
7
  6
CONTINUOUS
 90
9
 70
0
 10
7.048866895
 20
8.1181208857
 10
7.0504410059
 20
8.118596577
 10
7.0647737559
 20
8.1200694929
 10
7.0930879859
 20
8.1215424087
 10
7.1346897649
 20
8.1230153245
 10
7.1885595078
 20
8.1244882404
 10
7.253376964
 20
8.1259611562
 10
7.3275535736
 20
8.1274340721
 10
7.4092714012
 20
8.1289069879
  0
LINE
  5
53B
100
AcDbEntity
  8
0
100
AcDbLine
 62
7
  6
CONTINUOUS
 10
8.1861961599
 20
8.2963379038
 11
8.2216437254
 21
8.3168119509
  0
LINE
  5
53C
100
AcDbEntity
  8
0
100
AcDbLine
 62
7
  6
CONTINUOUS
 10
8.1861961599
 20
8.2372827857
 11
8.2216437254
 21
8.2577568328
  0
LINE
  5
53D
100
AcDbEntity
  8
0
100
AcDbLine
 62
7
  6
CONTINUOUS
 10
8.1861961599
 20
8.1782276676
 11
8.2216437254
 21
8.1987017147
  0
LINE
  5
53E
100
AcDbEntity
  8
0
100
AcDbLine
 62
7
  6
CONTINUOUS
 10
8.1861961599
 20
8.1191725495
 11
8.2216437254
 21
8.1396465966
  0
LWPOLYLINE
  5
53F
100
AcDbEntity
  8
0
100
AcDbPolyline
 62
7
  6
CONTINUOUS
 90
7
 70
0
 10
8.1864364126
 20
8.4040654436
 10
8.1846172506
 20
8.4033016065
 10
8.1701359896
 20
8.401773937
 10
8.1415552092
 20
8.4002462672
 10
8.0996286364
 20
8.3987186079
 10
8.0454615885
 20
8.397190956
 10
7.9804820648
 20
8.3956633119
  0
LWPOLYLINE
  5
540
100
AcDbEntity
  8
0
100
AcDbPolyline
 62
7
  6
CONTINUOUS
 90
10
 70
0
 10
8.1864364126
 20
8.3450103255
 10
8.1846172702
 20
8.3442464926
 10
8.1701358774
 20
8.342718811
 10
8.1415544723
 20
8.3411911173
 10
8.0996272895
 20
8.3396634471
 10
8.045460513
 20
8.3381358104
 10
7.980481883
 20
8.3366081898
 10
7.9064035326
 20
8.3350805674
 10
7.8251800195
 20
8.3335529794
 10
7.7389526896
 20
8.3320254276
  0
LWPOLYLINE
  5
541
100
AcDbEntity
  8
0
100
AcDbPolyline
 62
7
  6
CONTINUOUS
 90
10
 70
0
 10
8.1864364126
 20
8.2859552074
 10
8.1846172704
 20
8.2851913745
 10
8.1701358876
 20
8.2836636936
 10
8.1415547211
 20
8.2821360099
 10
8.0996283225
 20
8.2806083617
 10
8.0454617832
 20
8.2790807247
 10
7.9804819036
 20
8.2775530722
 10
7.9064023403
 20
8.276025426
 10
7.8251785729
 20
8.274497835
 10
7.7389526896
 20
8.2729703095
  0
LWPOLYLINE
  5
542
100
AcDbEntity
  8
0
100
AcDbPolyline
 62
7
  6
CONTINUOUS
 90
10
 70
0
 10
8.1864364126
 20
8.2269000893
 10
8.1846172525
 20
8.2261362526
 10
8.1701359203
 20
8.2246085778
 10
8.1415552631
 20
8.2230809152
 10
8.0996291134
 20
8.2215532686
 10
8.0454623324
 20
8.2200256207
 10
7.9804824552
 20
8.2184979661
 10
7.9064038383
 20
8.2169703372
 10
7.8251808621
 20
8.2154427585
 10
7.7389526896
 20
8.2139151914
  0
LWPOLYLINE
  5
543
100
AcDbEntity
  8
0
100
AcDbPolyline
 62
7
  6
CONTINUOUS
 90
10
 70
0
 10
8.1864364126
 20
8.1678449711
 10
8.1846172644
 20
8.167081137
 10
8.1701359991
 20
8.1655534653
 10
8.1415549452
 20
8.1640257833
 10
8.0996280243
 20
8.162498116
 10
8.0454609632
 20
8.1609704676
 10
7.9804820935
 20
8.1594428401
 10
7.9064043011
 20
8.1579152281
 10
7.8251808257
 20
8.1563876397
 10
7.7389526896
 20
8.1548600733
  0
LINE
  5
544
100
AcDbEntity
  8
AXIS
100
AcDbLine
 62
7
  6
CONTINUOUS
 10
6.6490348377
 20
12.9885445584
 11
8.6214757826
 21
12.9885445584
  0
LINE
  5
545
100
AcDbEntity
  8
0
100
AcDbLine
 62
7
  6
CONTINUOUS
 10
8.6195072787
 20
14.0416941647
 11
6.6313183023
 21
14.0416941647
  0
LINE
  5
546
100
AcDbEntity
  8
AXIS
100
AcDbLine
 62
7
  6
CONTINUOUS
 10
6.6313183023
 20
14.0420556823
 11
7.6352553102
 21
14.0420556823
  0
LINE
  5
547
100
AcDbEntity
  8
0
100
AcDbLine
 62
7
  6
CONTINUOUS
 10
7.6352553102
 20
14.0420556823
 11
8.6195072787
 21
14.0420556823
  0
LINE
  5
548
100
AcDbEntity
  8
0
100
AcDbLine
 62
7
  6
CONTINUOUS
 10
6.6510033417
 20
14.4747650308
 11
8.6195072787
 21
14.4747650308
  0
LINE
  5
549
100
AcDbEntity
  8
0
100
AcDbLine
 62
7
  6
CONTINUOUS
 10
6.7494285385
 20
14.5731902277
 11
8.5210820818
 21
14.5731902277
  0
LINE
  5
54A
100
AcDbEntity
  8
0
100
AcDbLine
 62
7
  6
CONTINUOUS
 10
7.7181898552
 20
3.3967569165
 11
7.5523207652
 21
3.3967569165
  0
LWPOLYLINE
  5
54B
100
AcDbEntity
  8
0
100
AcDbPolyline
 62
7
  6
CONTINUOUS
 90
16
 70
0
 10
7.4092714012
 20
3.4282529795
 10
7.3275535736
 20
3.4701560513
 10
7.253376964
 20
3.5242993919
 10
7.1885595078
 20
3.5893560452
 10
7.1346897649
 20
3.6637315892
 10
7.0930879859
 20
3.7456032128
 10
7.0647737559
 20
3.8329643892
 10
7.0504410059
 20
3.9236740526
 10
7.0504410059
 20
4.0155090718
 10
7.0647737559
 20
4.1062187352
 10
7.0930879859
 20
4.1935799116
 10
7.1346897649
 20
4.2754515351
 10
7.1885595078
 20
4.3498270792
 10
7.253376964
 20
4.4148837325
 10
7.3275535736
 20
4.4690270731
 10
7.4092714012
 20
4.5109301449
  0
LINE
  5
54C
100
AcDbEntity
  8
0
100
AcDbLine
 62
7
  6
CONTINUOUS
 10
7.4092714012
 20
3.4282529795
 11
7.8612392192
 21
3.4282529795
  0
LINE
  5
54D
100
AcDbEntity
  8
0
100
AcDbLine
 62
7
  6
CONTINUOUS
 10
7.5523207652
 20
3.4597490425
 11
7.7181898552
 21
3.4597490425
  0
LWPOLYLINE
  5
54E
100
AcDbEntity
  8
0
100
AcDbPolyline
 62
7
  6
CONTINUOUS
 90
4
 70
0
 10
7.288894832
 20
4.1680392613
 10
7.2586515754
 20
4.1056679694
 10
7.2395881838
 20
4.0388530184
 10
7.2323230623
 20
3.9695915623
  0
LINE
  5
54F
100
AcDbEntity
  8
0
100
AcDbLine
 62
7
  6
CONTINUOUS
 10
7.5523207652
 20
3.4597490425
 11
7.5523207652
 21
3.3967569165
  0
LINE
  5
550
100
AcDbEntity
  8
0
100
AcDbLine
 62
7
  6
CONTINUOUS
 10
7.5523207652
 20
4.4794340819
 11
7.5523207652
 21
4.5424262079
  0
LINE
  5
551
100
AcDbEntity
  8
0
100
AcDbLine
 62
7
  6
CONTINUOUS
 10
7.5136179775
 20
3.4643422183
 11
7.5062460179
 21
3.433721046
  0
LINE
  5
552
100
AcDbEntity
  8
0
100
AcDbLine
 62
7
  6
CONTINUOUS
 10
7.5049295966
 20
3.4282529795
 11
7.4988740584
 21
3.4030998736
  0
LINE
  5
553
100
AcDbEntity
  8
0
100
AcDbLine
 62
7
  6
CONTINUOUS
 10
7.7568926429
 20
4.474840906
 11
7.7642646024
 21
4.5054620784
  0
LINE
  5
554
100
AcDbEntity
  8
0
100
AcDbLine
 62
7
  6
CONTINUOUS
 10
7.7655810238
 20
4.5109301449
 11
7.771636562
 21
4.5360832507
  0
LINE
  5
555
100
AcDbEntity
  8
0
100
AcDbLine
 62
7
  6
CONTINUOUS
 10
7.9901456289
 20
3.9325810533
 11
8.0097244882
 21
3.9305392293
  0
LINE
  5
556
100
AcDbEntity
  8
0
100
AcDbLine
 62
7
  6
CONTINUOUS
 10
7.7568926429
 20
3.4643422183
 11
7.7642646024
 21
3.433721046
  0
LINE
  5
557
100
AcDbEntity
  8
0
100
AcDbLine
 62
7
  6
CONTINUOUS
 10
7.7655810238
 20
3.4282529795
 11
7.771636562
 21
3.4030998736
  0
LINE
  5
558
100
AcDbEntity
  8
0
100
AcDbLine
 62
7
  6
CONTINUOUS
 10
7.5136179775
 20
4.474840906
 11
7.5062460179
 21
4.5054620784
  0
LINE
  5
559
100
AcDbEntity
  8
0
100
AcDbLine
 62
7
  6
CONTINUOUS
 10
7.5049295966
 20
4.5109301449
 11
7.4988740584
 21
4.5360832507
  0
LINE
  5
55A
100
AcDbEntity
  8
0
100
AcDbLine
 62
7
  6
CONTINUOUS
 10
7.7181898552
 20
3.4597490425
 11
7.7181898552
 21
3.3967569165
  0
LINE
  5
55B
100
AcDbEntity
  8
0
100
AcDbLine
 62
7
  6
CONTINUOUS
 10
7.7181898552
 20
4.4794340819
 11
7.7181898552
 21
4.5424262079
  0
LINE
  5
55C
100
AcDbEntity
  8
0
100
AcDbLine
 62
7
  6
CONTINUOUS
 10
8.0077793127
 20
3.9926523825
 11
8.0097244882
 21
3.9305392293
  0
LWPOLYLINE
  5
55D
100
AcDbEntity
  8
0
100
AcDbPolyline
 62
7
  6
CONTINUOUS
 90
19
 70
0
 10
7.9607691464
 20
3.7804012018
 10
7.9900591439
 20
3.839887442
 10
8.0085290417
 20
3.9037520468
 10
8.0155570493
 20
3.9700199196
 10
8.0108752457
 20
4.0367012363
 10
7.9945709273
 20
4.1017021933
 10
7.9670982823
 20
4.1630094115
 10
7.9292584893
 20
4.2187180372
 10
7.8821704579
 20
4.2670958856
 10
7.8272416672
 20
4.3066280128
 10
7.7661214058
 20
4.336068305
 10
7.7006535346
 20
4.354475181
 10
7.6328169251
 20
4.361241891
 10
7.5646731941
 20
4.3561145768
 10
7.4982957893
 20
4.3392025023
 10
7.435702881
 20
4.3109706451
 10
7.3788096752
 20
4.2722292553
 10
7.329365201
 20
4.2241118929
 10
7.288894832
 20
4.1680392613
  0
LINE
  5
55E
100
AcDbEntity
  8
0
100
AcDbLine
 62
7
  6
CONTINUOUS
 10
7.9755608697
 20
3.7977129183
 11
7.9362856813
 21
3.7434655671
  0
LINE
  5
55F
100
AcDbEntity
  8
0
100
AcDbLine
 62
7
  6
CONTINUOUS
 10
7.7072458548
 20
4.3387497115
 11
7.7219117463
 21
4.3356666319
  0
LINE
  5
560
100
AcDbEntity
  8
0
100
AcDbLine
 62
7
  6
CONTINUOUS
 10
7.7219117463
 20
4.3356666319
 11
7.7419977739
 21
4.3301750306
  0
LWPOLYLINE
  5
561
100
AcDbEntity
  8
0
100
AcDbPolyline
 62
7
  6
CONTINUOUS
 90
17
 70
0
 10
7.9315293969
 20
4.1849524395
 10
7.9310017092
 20
4.1851156219
 10
7.9304530934
 20
4.1854053846
 10
7.9299232705
 20
4.1857478078
 10
7.9294115925
 20
4.186116131
 10
7.928901077
 20
4.186509852
 10
7.9283798474
 20
4.1869321814
 10
7.9278370526
 20
4.1873889455
 10
7.9272624268
 20
4.1878873902
 10
7.926646025
 20
4.1884356387
 10
7.9259780929
 20
4.1890423704
 10
7.9252490535
 20
4.1897165513
 10
7.9244496183
 20
4.1904671188
 10
7.9235710352
 20
4.1913025675
 10
7.9226054516
 20
4.1922304346
 10
7.9215462772
 20
4.1932567971
 10
7.920388038
 20
4.1943862858
  0
LINE
  5
562
100
AcDbEntity
  8
0
100
AcDbLine
 62
7
  6
CONTINUOUS
 10
7.7419977739
 20
4.3301750306
 11
7.7601116964
 21
4.3241432388
  0
LWPOLYLINE
  5
563
100
AcDbEntity
  8
0
100
AcDbPolyline
 62
7
  6
CONTINUOUS
 90
3
 70
0
 10
7.7601116964
 20
4.3241432388
 10
7.7764170036
 20
4.317788534
 10
7.7910718815
 20
4.3112831149
  0
LINE
  5
564
100
AcDbEntity
  8
0
100
AcDbLine
 62
7
  6
CONTINUOUS
 10
7.7910718815
 20
4.3112831149
 11
7.8042485026
 21
4.3047505949
  0
LWPOLYLINE
  5
565
100
AcDbEntity
  8
0
100
AcDbPolyline
 62
7
  6
CONTINUOUS
 90
50
 70
0
 10
7.8042485026
 20
4.3047505949
 10
7.8161223593
 20
4.298272502
 10
7.8268670256
 20
4.2918939822
 10
7.8366506001
 20
4.2856292497
 10
7.8456149533
 20
4.2794795822
 10
7.8538095252
 20
4.2734905017
 10
7.8612598847
 20
4.2677182814
 10
7.867995716
 20
4.262211673
 10
7.8740550404
 20
4.2570071787
 10
7.8794948764
 20
4.2521174372
 10
7.8843680286
 20
4.2475497707
 10
7.888724885
 20
4.2433054215
 10
7.8926136156
 20
4.2393800164
 10
7.8960800187
 20
4.2357643706
 10
7.8991674979
 20
4.2324451854
 10
7.9019171154
 20
4.2294056641
 10
7.9043677002
 20
4.2266260462
 10
7.9065559925
 20
4.224084067
 10
7.9085168066
 20
4.2217553495
 10
7.9102832
 20
4.2196137354
 10
7.9118866379
 20
4.2176315611
 10
7.9133571432
 20
4.2157798846
 10
7.9147234226
 20
4.2140286667
 10
7.9160129619
 20
4.2123469087
 10
7.917252079
 20
4.2107027451
 10
7.9184660029
 20
4.2090633851
 10
7.9196775085
 20
4.2073968968
 10
7.9208922149
 20
4.2056929189
 10
7.9220907167
 20
4.2039760443
 10
7.9232529439
 20
4.202273574
 10
7.9243599375
 20
4.2006132587
 10
7.9253938142
 20
4.1990235412
 10
7.9263381923
 20
4.1975331203
 10
7.9271838348
 20
4.1961618782
 10
7.9279381171
 20
4.1949037567
 10
7.9286037746
 20
4.1937600539
 10
7.9291858353
 20
4.1927282147
 10
7.9296918049
 20
4.1918009637
 10
7.9301305519
 20
4.1909677002
 10
7.9305112963
 20
4.1902159041
 10
7.9308428806
 20
4.1895321748
 10
7.9311332872
 20
4.1889028414
 10
7.9313892704
 20
4.1883142235
 10
7.931615904
 20
4.1877526608
 10
7.931815705
 20
4.1872044379
 10
7.9319865237
 20
4.1866557751
 10
7.9321155283
 20
4.1860931253
 10
7.9321556302
 20
4.1855137681
 10
7.9319782768
 20
4.1850585904
 10
7.9315293969
 20
4.1849524395
  0
LWPOLYLINE
  5
566
100
AcDbEntity
  8
0
100
AcDbPolyline
 62
7
  6
CONTINUOUS
 90
6
 70
0
 10
7.8581774532
 20
4.2481999509
 10
7.9039861855
 20
4.2093118926
 10
7.942924416
 20
4.1629920318
 10
7.9737975158
 20
4.1104846236
 10
7.9956567603
 20
4.0531786821
 10
8.0077793127
 20
3.9926523825
  0
LWPOLYLINE
  5
567
100
AcDbEntity
  8
0
100
AcDbPolyline
 62
7
  6
CONTINUOUS
 90
20
 70
0
 10
7.9147938533
 20
4.1998758879
 10
7.9132028777
 20
4.2014330443
 10
7.9115552491
 20
4.2030391885
 10
7.9098613041
 20
4.2046818993
 10
7.908131172
 20
4.2063492655
 10
7.9063592804
 20
4.2080447232
 10
7.9045160218
 20
4.2097943649
 10
7.9025694783
 20
4.2116254894
 10
7.9004871034
 20
4.2135646944
 10
7.8982355654
 20
4.215637714
 10
7.8957805913
 20
4.217869207
 10
7.8930867934
 20
4.2202825045
 10
7.8901174833
 20
4.2228993086
 10
7.8868344757
 20
4.2257393359
 10
7.8831978949
 20
4.2288198977
 10
7.8791659912
 20
4.2321554103
 10
7.8746949866
 20
4.2357568297
 10
7.8697389668
 20
4.2396310038
 10
7.8642498412
 20
4.2437799403
 10
7.8581774532
 20
4.2481999509
  0
LINE
  5
568
100
AcDbEntity
  8
0
100
AcDbLine
 62
7
  6
CONTINUOUS
 10
7.920388038
 20
4.1943862858
 11
7.9147938533
 21
4.1998758879
  0
LWPOLYLINE
  5
569
100
AcDbEntity
  8
0
100
AcDbPolyline
 62
7
  6
CONTINUOUS
 90
19
 70
0
 10
8.0608259423
 20
3.9695915621
 10
8.0532628464
 20
3.8966403024
 10
8.0332904201
 20
3.8261909355
 10
8.0016709617
 20
3.7605832305
 10
7.9593138622
 20
3.7014835609
 10
7.9068671662
 20
3.650117539
 10
7.8462030325
 20
3.6086518394
 10
7.7801619113
 20
3.5787812212
 10
7.710098634
 20
3.5608305159
 10
7.6370468065
 20
3.5553128343
 10
7.5643115962
 20
3.5627228393
 10
7.4951693755
 20
3.5824044305
 10
7.4309904294
 20
3.6135231388
 10
7.3726969013
 20
3.6556904927
 10
7.3228023321
 20
3.7072779522
 10
7.2831289062
 20
3.7660752159
 10
7.2542846543
 20
3.8308462423
 10
7.2372213834
 20
3.8993069739
 10
7.2323230623
 20
3.9695915623
  0
LWPOLYLINE
  5
56A
100
AcDbEntity
  8
0
100
AcDbPolyline
 62
7
  6
CONTINUOUS
 90
11
 70
0
 10
7.6170507506
 20
4.4064023487
 10
7.6875122076
 20
4.4024728882
 10
7.7556353978
 20
4.3874664077
 10
7.8201716358
 20
4.3619121117
 10
7.8805427616
 20
4.3258627585
 10
7.9343018134
 20
4.2804795835
 10
7.9794764178
 20
4.2276403117
 10
8.0150935984
 20
4.1691209546
 10
8.0410189813
 20
4.1054334491
 10
8.0564626683
 20
4.0380314156
 10
8.0608259423
 20
3.9695915621
  0
LWPOLYLINE
  5
56B
100
AcDbEntity
  8
0
100
AcDbPolyline
 62
7
  6
CONTINUOUS
 90
13
 70
0
 10
7.6170507506
 20
4.4064023487
 10
7.6909523227
 20
4.398588746
 10
7.7618653615
 20
4.3784291666
 10
7.8277443522
 20
4.3466801496
 10
7.886709444
 20
4.3044352018
 10
7.9370983453
 20
4.2530950449
 10
7.9775212609
 20
4.1943227826
 10
8.0069025183
 20
4.129990859
 10
8.0245106849
 20
4.0621239968
 10
8.0299794066
 20
3.992840529
 10
8.0233236835
 20
3.9243054117
 10
8.0049371689
 20
3.858606243
 10
7.9755608697
 20
3.7977129183
  0
LINE
  5
56C
100
AcDbEntity
  8
0
100
AcDbLine
 62
7
  6
CONTINUOUS
 10
7.7181898552
 20
4.4794340819
 11
7.5523207652
 21
4.4794340819
  0
LINE
  5
56D
100
AcDbEntity
  8
0
100
AcDbLine
 62
7
  6
CONTINUOUS
 10
7.4092714012
 20
4.5109301449
 11
7.8612392192
 21
4.5109301449
  0
LINE
  5
56E
100
AcDbEntity
  8
0
100
AcDbLine
 62
7
  6
CONTINUOUS
 10
7.5523207652
 20
4.5424262079
 11
7.7181898552
 21
4.5424262079
  0
LWPOLYLINE
  5
56F
100
AcDbEntity
  8
0
100
AcDbPolyline
 62
7
  6
CONTINUOUS
 90
16
 70
0
 10
7.8612392192
 20
4.5109301449
 10
7.9429570467
 20
4.4690270731
 10
8.0171336564
 20
4.4148837325
 10
8.0819511126
 20
4.3498270792
 10
8.1358208555
 20
4.2754515351
 10
8.1774226345
 20
4.1935799116
 10
8.2057368645
 20
4.1062187352
 10
8.2200696145
 20
4.0155090718
 10
8.2200696145
 20
3.9236740526
 10
8.2057368645
 20
3.8329643892
 10
8.1774226345
 20
3.7456032128
 10
8.1358208555
 20
3.6637315892
 10
8.0819511126
 20
3.5893560452
 10
8.0171336564
 20
3.5242993919
 10
7.9429570467
 20
3.4701560513
 10
7.8612392192
 20
3.4282529795
  0
LWPOLYLINE
  5
570
100
AcDbEntity
  8
02___PRT_ALL_AXES
100
AcDbPolyline
 62
7
  6
CONTINUOUS
 90
9
 70
0
 10
16.989297011
 20
5.5598056131
 10
16.97659492
 20
5.5658846265
 10
16.9652456019
 20
5.5731799984
 10
16.9554800962
 20
5.5815432162
 10
16.9474972003
 20
5.5908040287
 10
16.941459423
 20
5.6007739126
 10
16.937489676
 20
5.6112499098
 10
16.935668772
 20
5.6220187592
 10
16.9355478379
 20
5.6256356498
  0
LWPOLYLINE
  5
571
100
AcDbEntity
  8
0
100
AcDbPolyline
 62
7
  6
CONTINUOUS
 90
4
 70
0
 10
17.1489927269
 20
6.445433835
 10
17.2377421695
 20
6.4631667669
 10
17.3217199827
 20
6.4904894252
 10
17.3988680211
 20
6.5267577059
  0
LWPOLYLINE
  5
572
100
AcDbEntity
  8
0
100
AcDbPolyline
 62
7
  6
CONTINUOUS
 90
4
 70
0
 10
17.1489927269
 20
6.4507232164
 10
17.2377421695
 20
6.4684561483
 10
17.3217199827
 20
6.4957788066
 10
17.3988680211
 20
6.5320470873
  0
LWPOLYLINE
  5
573
100
AcDbEntity
  8
0
100
AcDbPolyline
 62
7
  6
CONTINUOUS
 90
5
 70
0
 10
16.9659429496
 20
6.4871760607
 10
17.0576467449
 20
6.4847473622
 10
17.1489927269
 20
6.4924814909
 10
17.2377421695
 20
6.5102144228
 10
17.3217199827
 20
6.5375370811
  0
LWPOLYLINE
  5
574
100
AcDbEntity
  8
0
100
AcDbPolyline
 62
7
  6
CONTINUOUS
 90
5
 70
0
 10
16.7904055886
 20
6.4748871014
 10
16.8761288365
 20
6.4526348822
 10
16.9659429496
 20
6.4401284048
 10
17.0576467449
 20
6.4376997062
 10
17.1489927269
 20
6.445433835
  0
LWPOLYLINE
  5
575
100
AcDbEntity
  8
0
100
AcDbPolyline
 62
7
  6
CONTINUOUS
 90
5
 70
0
 10
16.7904055886
 20
6.4801764829
 10
16.8761288365
 20
6.4579242636
 10
16.9659429496
 20
6.4454177863
 10
17.0576467449
 20
6.4429890877
 10
17.1489927269
 20
6.4507232164
  0
LWPOLYLINE
  5
576
100
AcDbEntity
  8
0
100
AcDbPolyline
 62
7
  6
CONTINUOUS
 90
10
 70
0
 10
16.6394836311
 20
6.4208455329
 10
16.710874129
 20
6.3810393516
 10
16.7904055886
 20
6.349612278
 10
16.8761288365
 20
6.3273600587
 10
16.9659429496
 20
6.3148535814
 10
17.0576467449
 20
6.3124248828
 10
17.1489927269
 20
6.3201590115
 10
17.2377421695
 20
6.3378919434
 10
17.3217199827
 20
6.3652146017
 10
17.3988680211
 20
6.4014828825
  0
LWPOLYLINE
  5
577
100
AcDbEntity
  8
AXIS
100
AcDbPolyline
 62
7
  6
CONTINUOUS
 90
6
 70
0
 10
17.3774101012
 20
6.6755592301
 10
17.2520802488
 20
6.6455771937
 10
17.1224138151
 20
6.6297176623
 10
16.9913911094
 20
6.628199013
 10
16.8615104488
 20
6.6409811676
 10
16.7356407721
 20
6.6678001192
  0
LWPOLYLINE
  5
578
100
AcDbEntity
  8
AXIS
100
AcDbPolyline
 62
7
  6
CONTINUOUS
 90
4
 70
0
 10
17.2266821651
 20
6.8080782952
 10
17.1268999408
 20
6.7984860663
 10
17.026257272
 20
6.7960811536
 10
16.9257868886
 20
6.8008882349
  0
LWPOLYLINE
  5
579
100
AcDbEntity
  8
0
100
AcDbPolyline
 62
7
  6
CONTINUOUS
 90
3
 70
0
 10
17.0576467449
 20
6.6100221856
 10
17.1489927269
 20
6.6177563143
 10
17.2377421695
 20
6.6354892462
  0
LINE
  5
57A
100
AcDbEntity
  8
0
100
AcDbLine
 62
7
  6
CONTINUOUS
 10
16.9659429496
 20
6.6124508842
 11
17.0576467449
 21
6.6100221856
  0
LWPOLYLINE
  5
57B
100
AcDbEntity
  8
AXIS
100
AcDbPolyline
 62
7
  6
CONTINUOUS
 90
5
 70
0
 10
16.9257868886
 20
6.8008882349
 10
16.8265197528
 20
6.812857983
 10
16.7294744796
 20
6.831867572
 10
16.635646885
 20
6.857721938
 10
16.5459997669
 20
6.89015578
  0
LWPOLYLINE
  5
57C
100
AcDbEntity
  8
0
100
AcDbPolyline
 62
7
  6
CONTINUOUS
 90
6
 70
0
 10
16.7904055886
 20
6.6419201993
 10
16.8761288365
 20
6.6196679801
 10
16.9659429496
 20
6.6071615027
 10
17.0576467449
 20
6.6047328042
 10
17.1489927269
 20
6.6124669329
 10
17.2377421695
 20
6.6301998648
  0
LWPOLYLINE
  5
57D
100
AcDbEntity
  8
0
100
AcDbPolyline
 62
7
  6
CONTINUOUS
 90
3
 70
0
 10
16.7904055886
 20
6.6472095808
 10
16.8761288365
 20
6.6249573615
 10
16.9659429496
 20
6.6124508842
  0
LINE
  5
57E
100
AcDbEntity
  8
AXIS
100
AcDbLine
 62
7
  6
CONTINUOUS
 10
16.7356407721
 20
6.6678001192
 11
16.6159886346
 21
6.708333
  0
LWPOLYLINE
  5
57F
100
AcDbEntity
  8
0
100
AcDbPolyline
 62
7
  6
CONTINUOUS
 90
7
 70
0
 10
16.710874129
 20
6.589830724
 10
16.7904055886
 20
6.5584036504
 10
16.8761288365
 20
6.5361514311
 10
16.9659429496
 20
6.5236449538
 10
17.0576467449
 20
6.5212162552
 10
17.1489927269
 20
6.5289503839
 10
17.2377421695
 20
6.5466833158
  0
LWPOLYLINE
  5
580
100
AcDbEntity
  8
0
100
AcDbPolyline
 62
7
  6
CONTINUOUS
 90
7
 70
0
 10
16.710874129
 20
6.5951201055
 10
16.7904055886
 20
6.5636930318
 10
16.8761288365
 20
6.5414408126
 10
16.9659429496
 20
6.5289343352
 10
17.0576467449
 20
6.5265056366
 10
17.1489927269
 20
6.5342397654
 10
17.2377421695
 20
6.5519726973
  0
LWPOLYLINE
  5
581
100
AcDbEntity
  8
0
100
AcDbPolyline
 62
7
  6
CONTINUOUS
 90
7
 70
0
 10
16.710874129
 20
6.6315889985
 10
16.7904055886
 20
6.6001619249
 10
16.8761288365
 20
6.5779097056
 10
16.9659429496
 20
6.5654032283
 10
17.0576467449
 20
6.5629745297
 10
17.1489927269
 20
6.5707086584
 10
17.2377421695
 20
6.5884415903
  0
LWPOLYLINE
  5
582
100
AcDbEntity
  8
0
100
AcDbPolyline
 62
7
  6
CONTINUOUS
 90
7
 70
0
 10
16.710874129
 20
6.6368783799
 10
16.7904055886
 20
6.6054513063
 10
16.8761288365
 20
6.583199087
 10
16.9659429496
 20
6.5706926097
 10
17.0576467449
 20
6.5682639111
 10
17.1489927269
 20
6.5759980398
 10
17.2377421695
 20
6.5937309718
  0
LINE
  5
583
100
AcDbEntity
  8
0
100
AcDbLine
 62
7
  6
CONTINUOUS
 10
16.7414069637
 20
6.6665715214
 11
16.7904055886
 21
6.6472095808
  0
LWPOLYLINE
  5
584
100
AcDbEntity
  8
AXIS
100
AcDbPolyline
 62
7
  6
CONTINUOUS
 90
8
 70
0
 10
16.6159886346
 20
6.708333
 10
16.5147946879
 20
6.7566197161
 10
16.423421402
 20
6.8147436304
 10
16.3435742668
 20
6.8816357725
 10
16.2769101653
 20
6.9557682028
 10
16.2245716452
 20
7.0354056116
 10
16.1871239342
 20
7.1188405728
 10
16.177890062
 20
7.1541428141
  0
LWPOLYLINE
  5
585
100
AcDbEntity
  8
0
100
AcDbPolyline
 62
7
  6
CONTINUOUS
 90
9
 70
0
 10
16.6394836311
 20
6.5878786308
 10
16.710874129
 20
6.5480724495
 10
16.7904055886
 20
6.5166453759
 10
16.8761288365
 20
6.4943931567
 10
16.9659429496
 20
6.4818866793
 10
17.0576467449
 20
6.4794579807
 10
17.1489927269
 20
6.4871921094
 10
17.2377421695
 20
6.5049250414
 10
17.3217199827
 20
6.5322476996
  0
LWPOLYLINE
  5
586
100
AcDbEntity
  8
0
100
AcDbPolyline
 62
7
  6
CONTINUOUS
 90
5
 70
0
 10
16.6394836311
 20
6.5931680123
 10
16.710874129
 20
6.553361831
 10
16.7904055886
 20
6.5219347573
 10
16.8761288365
 20
6.4996825381
 10
16.9659429496
 20
6.4871760607
  0
LWPOLYLINE
  5
587
100
AcDbEntity
  8
0
100
AcDbPolyline
 62
7
  6
CONTINUOUS
 90
3
 70
0
 10
16.6978835663
 20
6.6805905996
 10
16.710874129
 20
6.673347273
 10
16.7904055886
 20
6.6419201993
  0
LWPOLYLINE
  5
588
100
AcDbEntity
  8
0
100
AcDbPolyline
 62
7
  6
CONTINUOUS
 90
11
 70
0
 10
16.5779837481
 20
6.4733190997
 10
16.6394836311
 20
6.4261349144
 10
16.710874129
 20
6.3863287331
 10
16.7904055886
 20
6.3549016594
 10
16.8761288365
 20
6.3326494402
 10
16.9659429496
 20
6.3201429628
 10
17.0576467449
 20
6.3177142642
 10
17.1489927269
 20
6.325448393
 10
17.2377421695
 20
6.3431813249
 10
17.3217199827
 20
6.3705039831
 10
17.3988680211
 20
6.4067722639
  0
LWPOLYLINE
  5
589
100
AcDbEntity
  8
0
100
AcDbPolyline
 62
7
  6
CONTINUOUS
 90
7
 70
0
 10
16.7057397437
 20
6.8756194823
 10
16.8717916232
 20
6.8441578501
 10
17.043047011
 20
6.8335633364
 10
17.2143023988
 20
6.8441578501
 10
17.3803542783
 20
6.8756194823
 10
17.5361572472
 20
6.9269922873
 10
17.6769773111
 20
6.9967153284
  0
LINE
  5
58A
100
AcDbEntity
  8
0
100
AcDbLine
 62
7
  6
CONTINUOUS
 10
16.5499367748
 20
6.9269922873
 11
16.7057397437
 21
6.8756194823
  0
LWPOLYLINE
  5
58B
100
AcDbEntity
  8
0
100
AcDbPolyline
 62
7
  6
CONTINUOUS
 90
11
 70
0
 10
16.5459997669
 20
6.9211989036
 10
16.6735737415
 20
6.8773780154
 10
16.8086710516
 20
6.8468401297
 10
16.9485411965
 20
6.83020769
 10
17.0903363193
 20
6.8278198042
 10
17.2311694632
 20
6.8397253692
 10
17.3681735368
 20
6.8656822088
 10
17.4985593959
 20
6.9051620735
 10
17.6196725257
 20
6.9573613642
 10
17.72904715
 20
7.02121748
 10
17.8244564906
 20
7.0954304699
  0
LWPOLYLINE
  5
58C
100
AcDbEntity
  8
0
100
AcDbPolyline
 62
7
  6
CONTINUOUS
 90
8
 70
0
 10
16.5459997669
 20
6.9211989036
 10
16.4285617686
 20
6.9774010153
 10
16.3236220251
 20
7.0448510906
 10
16.2333208587
 20
7.1221759764
 10
16.1594993326
 20
7.2078002278
 10
16.1036612836
 20
7.2999785476
 10
16.0669359646
 20
7.3968552362
 10
16.0500829256
 20
7.4964424576
  0
LINE
  5
58D
100
AcDbEntity
  8
0
100
AcDbLine
 62
7
  6
CONTINUOUS
 10
16.5499367748
 20
6.9269922873
 11
16.4091167109
 21
6.9967153284
  0
LINE
  5
58E
100
AcDbEntity
  8
0
100
AcDbLine
 62
7
  6
CONTINUOUS
 10
16.4091167109
 20
6.9967153284
 11
16.2875582984
 21
7.0826701062
  0
LWPOLYLINE
  5
58F
100
AcDbEntity
  8
0
100
AcDbPolyline
 62
7
  6
CONTINUOUS
 90
3
 70
0
 10
16.5779837481
 20
6.7238687466
 10
16.6394836311
 20
6.6766845612
 10
16.710874129
 20
6.6368783799
  0
LWPOLYLINE
  5
590
100
AcDbEntity
  8
0
100
AcDbPolyline
 62
7
  6
CONTINUOUS
 90
24
 70
0
 10
17.366670078
 20
10.7102702206
 10
17.4033399119
 20
10.7211241506
 10
17.4392841486
 20
10.7331304855
 10
17.4744303999
 20
10.7462650454
 10
17.5087078843
 20
10.7605013787
 10
17.5420475701
 20
10.7758108147
 10
17.5743823143
 20
10.7921625214
 10
17.6056469975
 20
10.8095235682
 10
17.6357786556
 20
10.8278589914
 10
17.6647166062
 20
10.8471318651
 10
17.6924025708
 20
10.8673033756
 10
17.7187807925
 20
10.8883328993
 10
17.7437981479
 20
10.9101780845
 10
17.7674042544
 20
10.9327949371
 10
17.7895515713
 20
10.9561379089
 10
17.8101954961
 20
10.9801599891
 10
17.8292944537
 20
11.0048127995
 10
17.8468099805
 20
11.0300466917
 10
17.862706802
 20
11.0558108468
 10
17.8769529033
 20
11.0820533782
 10
17.8895195941
 20
11.1087214357
 10
17.9003815662
 20
11.1357613125
 10
17.9095169446
 20
11.1631185526
 10
17.9169073315
 20
11.190738061
  0
LWPOLYLINE
  5
591
100
AcDbEntity
  8
0
100
AcDbPolyline
 62
7
  6
CONTINUOUS
 90
12
 70
0
 10
16.5499367748
 20
7.3028167576
 10
16.7057397437
 20
7.2514439527
 10
16.8717916232
 20
7.2199823204
 10
17.043047011
 20
7.2093878067
 10
17.2143023988
 20
7.2199823204
 10
17.3803542783
 20
7.2514439527
 10
17.5361572472
 20
7.3028167576
 10
17.6769773111
 20
7.3725397987
 10
17.7985357236
 20
7.4584945765
 10
17.8971389939
 20
7.5580693986
 10
17.9697911114
 20
7.6682387344
 10
18.0142845784
 20
7.7856551444
  0
LWPOLYLINE
  5
592
100
AcDbEntity
  8
0
100
AcDbPolyline
 62
7
  6
CONTINUOUS
 90
6
 70
0
 10
16.5499367748
 20
7.3028167576
 10
16.4091167109
 20
7.3725397987
 10
16.2875582984
 20
7.4584945765
 10
16.1889550281
 20
7.5580693986
 10
16.1163029106
 20
7.6682387344
 10
16.0718094436
 20
7.7856551444
  0
LINE
  5
593
100
AcDbEntity
  8
0
100
AcDbLine
 62
7
  6
CONTINUOUS
 10
16.2875582984
 20
7.0826701062
 11
16.1889550281
 21
7.1822449283
  0
LWPOLYLINE
  5
594
100
AcDbEntity
  8
0
100
AcDbPolyline
 62
7
  6
CONTINUOUS
 90
4
 70
0
 10
16.5645740188
 20
6.7328665125
 10
16.5779837481
 20
6.7185793651
 10
16.6394836311
 20
6.6713951798
 10
16.710874129
 20
6.6315889985
  0
LINE
  5
595
100
AcDbEntity
  8
0
100
AcDbLine
 62
7
  6
CONTINUOUS
 10
16.5735655675
 20
6.7285760151
 11
16.5779837481
 21
6.7238687466
  0
LINE
  5
596
100
AcDbEntity
  8
0
100
AcDbLine
 62
7
  6
CONTINUOUS
 10
16.1889550281
 20
7.1822449283
 11
16.1163029106
 21
7.2924142641
  0
LWPOLYLINE
  5
597
100
AcDbEntity
  8
0
100
AcDbPolyline
 62
7
  6
CONTINUOUS
 90
13
 70
0
 10
16.4904054927
 20
6.6214108195
 10
16.5278817317
 20
6.5631682568
 10
16.5779837481
 20
6.5097879927
 10
16.6394836311
 20
6.4626038074
 10
16.710874129
 20
6.4227976261
 10
16.7904055886
 20
6.3913705525
 10
16.8761288365
 20
6.3691183332
 10
16.9659429496
 20
6.3566118559
 10
17.0576467449
 20
6.3541831573
 10
17.1489927269
 20
6.361917286
 10
17.2377421695
 20
6.3796502179
 10
17.3217199827
 20
6.4069728762
 10
17.3988680211
 20
6.443241157
  0
LWPOLYLINE
  5
598
100
AcDbEntity
  8
0
100
AcDbPolyline
 62
7
  6
CONTINUOUS
 90
13
 70
0
 10
16.4904054927
 20
6.6267002009
 10
16.5278817317
 20
6.5684576382
 10
16.5779837481
 20
6.5150773742
 10
16.6394836311
 20
6.4678931888
 10
16.710874129
 20
6.4280870075
 10
16.7904055886
 20
6.3966599339
 10
16.8761288365
 20
6.3744077146
 10
16.9659429496
 20
6.3619012373
 10
17.0576467449
 20
6.3594725387
 10
17.1489927269
 20
6.3672066674
 10
17.2377421695
 20
6.3849395994
 10
17.3217199827
 20
6.4122622576
 10
17.3988680211
 20
6.4485305384
  0
LWPOLYLINE
  5
599
100
AcDbEntity
  8
0
100
AcDbPolyline
 62
7
  6
CONTINUOUS
 90
13
 70
0
 10
16.4904054927
 20
6.663169094
 10
16.5278817317
 20
6.6049265313
 10
16.5779837481
 20
6.5515462672
 10
16.6394836311
 20
6.5043620819
 10
16.710874129
 20
6.4645559006
 10
16.7904055886
 20
6.4331288269
 10
16.8761288365
 20
6.4108766077
 10
16.9659429496
 20
6.3983701304
 10
17.0576467449
 20
6.3959414318
 10
17.1489927269
 20
6.4036755605
 10
17.2377421695
 20
6.4214084924
 10
17.3217199827
 20
6.4487311507
 10
17.3988680211
 20
6.4849994314
  0
LWPOLYLINE
  5
59A
100
AcDbEntity
  8
0
100
AcDbPolyline
 62
7
  6
CONTINUOUS
 90
13
 70
0
 10
16.4904054927
 20
6.6684584754
 10
16.5278817317
 20
6.6102159127
 10
16.5779837481
 20
6.5568356486
 10
16.6394836311
 20
6.5096514633
 10
16.710874129
 20
6.469845282
 10
16.7904055886
 20
6.4384182084
 10
16.8761288365
 20
6.4161659891
 10
16.9659429496
 20
6.4036595118
 10
17.0576467449
 20
6.4012308132
 10
17.1489927269
 20
6.4089649419
 10
17.2377421695
 20
6.4266978738
 10
17.3217199827
 20
6.4540205321
 10
17.3988680211
 20
6.4902888129
  0
LWPOLYLINE
  5
59B
100
AcDbEntity
  8
0
100
AcDbPolyline
 62
7
  6
CONTINUOUS
 90
6
 70
0
 10
16.4904054927
 20
6.7049273684
 10
16.5278817317
 20
6.6466848057
 10
16.5779837481
 20
6.5933045417
 10
16.6394836311
 20
6.5461203564
 10
16.710874129
 20
6.5063141751
 10
16.7904055886
 20
6.4748871014
  0
LWPOLYLINE
  5
59C
100
AcDbEntity
  8
0
100
AcDbPolyline
 62
7
  6
CONTINUOUS
 90
6
 70
0
 10
16.4904054927
 20
6.7102167499
 10
16.5278817317
 20
6.6519741872
 10
16.5779837481
 20
6.5985939231
 10
16.6394836311
 20
6.5514097378
 10
16.710874129
 20
6.5116035565
 10
16.7904055886
 20
6.4801764829
  0
LWPOLYLINE
  5
59D
100
AcDbEntity
  8
0
100
AcDbPolyline
 62
7
  6
CONTINUOUS
 90
4
 70
0
 10
16.4904054927
 20
6.7466856429
 10
16.5278817317
 20
6.6884430802
 10
16.5779837481
 20
6.6350628162
 10
16.6394836311
 20
6.5878786308
  0
LWPOLYLINE
  5
59E
100
AcDbEntity
  8
0
100
AcDbPolyline
 62
7
  6
CONTINUOUS
 90
5
 70
0
 10
16.5081721425
 20
6.7608324163
 10
16.5278817317
 20
6.7302013547
 10
16.5779837481
 20
6.6768210906
 10
16.6394836311
 20
6.6296369053
 10
16.710874129
 20
6.589830724
  0
LWPOLYLINE
  5
59F
100
AcDbEntity
  8
0
100
AcDbPolyline
 62
7
  6
CONTINUOUS
 90
5
 70
0
 10
16.513933966
 20
6.7571672342
 10
16.5278817317
 20
6.7354907361
 10
16.5779837481
 20
6.6821104721
 10
16.6394836311
 20
6.6349262868
 10
16.710874129
 20
6.5951201055
  0
LINE
  5
5A0
100
AcDbEntity
  8
0
100
AcDbLine
 62
7
  6
CONTINUOUS
 10
16.1163029106
 20
7.2924142641
 11
16.0718094436
 21
7.4098306741
  0
LWPOLYLINE
  5
5A1
100
AcDbEntity
  8
AXIS
100
AcDbPolyline
 62
7
  6
CONTINUOUS
 90
9
 70
0
 10
16.1817825518
 20
7.1489803235
 10
16.1939262898
 20
7.1130704475
 10
16.2261882519
 20
7.0491997669
 10
16.2680271361
 20
6.9881699805
 10
16.3189524198
 20
6.9306966067
 10
16.3783670504
 20
6.8774534684
 10
16.4455744459
 20
6.8290647927
 10
16.5197866609
 20
6.7860978925
 10
16.6001336252
 20
6.7490565154
  0
LINE
  5
5A2
100
AcDbEntity
  8
AXIS
100
AcDbLine
 62
7
  6
CONTINUOUS
 10
16.0568265386
 20
10.1728333522
 11
16.0587950425
 21
10.1887433276
  0
LINE
  5
5A3
100
AcDbEntity
  8
AXIS
100
AcDbLine
 62
7
  6
CONTINUOUS
 10
16.5315344227
 20
10.3171938273
 11
16.5314245418
 21
10.3169713954
  0
LINE
  5
5A4
100
AcDbEntity
  8
0
100
AcDbLine
 62
7
  6
CONTINUOUS
 10
16.4772878617
 20
6.7804783694
 11
16.4904054927
 21
6.7466856429
  0
LWPOLYLINE
  5
5A5
100
AcDbEntity
  8
0
100
AcDbPolyline
 62
7
  6
CONTINUOUS
 90
5
 70
0
 10
16.4800143254
 20
6.778744025
 10
16.4904054927
 20
6.7519750244
 10
16.5278817317
 20
6.6937324616
 10
16.5779837481
 20
6.6403521976
 10
16.6394836311
 20
6.5931680123
  0
LINE
  5
5A6
100
AcDbEntity
  8
0
100
AcDbLine
 62
7
  6
CONTINUOUS
 10
16.0718094436
 20
7.4098306741
 11
16.0568265386
 21
7.5309265202
  0
LINE
  5
5A7
100
AcDbEntity
  8
0
100
AcDbLine
 62
7
  6
CONTINUOUS
 10
16.0500829256
 20
7.4964424576
 11
16.0489525228
 21
7.5299549667
  0
LWPOLYLINE
  5
5A8
100
AcDbEntity
  8
0
100
AcDbPolyline
 62
7
  6
CONTINUOUS
 90
25
 70
0
 10
16.0587950425
 20
11.2237499266
 10
16.0597318323
 20
11.1933920875
 10
16.0625404184
 20
11.1630920362
 10
16.0672154545
 20
11.1329074506
 10
16.0737480415
 20
11.1028957889
 10
16.0821257441
 20
11.0731141799
 10
16.092332615
 20
11.0436193145
 10
16.1043492248
 20
11.0144673381
 10
16.1181526992
 20
10.9857137429
 10
16.1337167625
 20
10.9574132632
 10
16.1510117875
 20
10.9296197704
 10
16.1700048524
 20
10.9023861711
 10
16.1906598025
 20
10.875764306
 10
16.2129373202
 20
10.8498048513
 10
16.2367949989
 20
10.8245572222
 10
16.2621874241
 20
10.8000694792
 10
16.2890662599
 20
10.776388236
 10
16.3173803409
 20
10.7535585712
 10
16.3470757697
 20
10.7316239424
 10
16.3780960193
 20
10.7106261033
 10
16.4103820408
 20
10.6906050247
 10
16.4438723761
 20
10.6715988176
 10
16.4785032744
 20
10.6536436615
 10
16.5142088138
 20
10.6367737352
 10
16.5509210267
 20
10.6210211514
  0
LWPOLYLINE
  5
5A9
100
AcDbEntity
  8
AXIS
100
AcDbPolyline
 62
7
  6
CONTINUOUS
 90
12
 70
0
 10
16.0489544634
 20
7.498911843
 10
16.0495196627
 20
7.4751709533
 10
16.0580138251
 20
7.4042189864
 10
16.076615761
 20
7.3342386964
 10
16.1051345892
 20
7.2659481758
 10
16.1432776682
 20
7.2000481775
 10
16.1906535981
 20
7.137214925
 10
16.246776238
 20
7.0780931722
 10
16.3110696934
 20
7.0232895885
 10
16.3828742267
 20
6.9733665328
 10
16.4614530262
 20
6.928836283
 10
16.5459997669
 20
6.89015578
  0
LINE
  5
5AA
100
AcDbEntity
  8
AXIS
100
AcDbLine
 62
7
  6
CONTINUOUS
 10
16.0489525228
 20
7.5299549667
 11
16.0489525228
 21
7.4989118431
  0
LINE
  5
5AB
100
AcDbEntity
  8
0
100
AcDbLine
 62
7
  6
CONTINUOUS
 10
16.0568265386
 20
7.5309265202
 11
16.0568265386
 21
7.9067509905
  0
LINE
  5
5AC
100
AcDbEntity
  8
AXIS
100
AcDbLine
 62
7
  6
CONTINUOUS
 10
16.0568265386
 20
8.663967701
 11
16.0568265386
 21
9.0397921714
  0
LINE
  5
5AD
100
AcDbEntity
  8
AXIS
100
AcDbLine
 62
7
  6
CONTINUOUS
 10
16.0568265386
 20
9.7970088819
 11
16.0568265386
 21
10.1728333522
  0
LINE
  5
5AE
100
AcDbEntity
  8
AXIS
100
AcDbLine
 62
7
  6
CONTINUOUS
 10
16.0587950425
 20
7.8908410151
 11
16.0587950425
 21
8.6480577257
  0
LINE
  5
5AF
100
AcDbEntity
  8
AXIS
100
AcDbLine
 62
7
  6
CONTINUOUS
 10
16.0587950425
 20
9.023882196
 11
16.0587950425
 21
9.7810989065
  0
LINE
  5
5B0
100
AcDbEntity
  8
AXIS
100
AcDbLine
 62
7
  6
CONTINUOUS
 10
16.0587950425
 20
10.1569233769
 11
16.0587950425
 21
11.2237499266
  0
LWPOLYLINE
  5
5B1
100
AcDbEntity
  8
0
100
AcDbPolyline
 62
7
  6
CONTINUOUS
 90
48
 70
0
 10
16.0587950425
 20
11.2237499266
 10
16.0597108436
 20
11.2552304193
 10
16.0624606812
 20
11.2866845493
 10
16.0670462516
 20
11.3180537095
 10
16.0734792204
 20
11.3493326629
 10
16.0817538177
 20
11.3804224605
 10
16.0918636348
 20
11.4112568222
 10
16.1038350648
 20
11.4418578975
 10
16.1176491796
 20
11.4721175
 10
16.1332748966
 20
11.5019335166
 10
16.1507412455
 20
11.5313231585
 10
16.1700107131
 20
11.5601821917
 10
16.1910156226
 20
11.5883891203
 10
16.2137815411
 20
11.6159579382
 10
16.23824467
 20
11.6427881698
 10
16.2643052071
 20
11.6687637788
 10
16.2919857012
 20
11.6939001827
 10
16.3211884669
 20
11.7180994385
 10
16.3517994869
 20
11.741270687
 10
16.3838432122
 20
11.7634332984
 10
16.417187571
 20
11.7844951774
 10
16.4517222384
 20
11.8043957117
 10
16.4874746834
 20
11.8231549559
 10
16.5242848716
 20
11.8406920766
 10
16.5620562921
 20
11.8569717508
 10
16.6008145807
 20
11.8720097654
 10
16.6403833952
 20
11.8857418112
 10
16.6806905934
 20
11.8981521759
 10
16.72172455
 20
11.9092416834
 10
16.7633342432
 20
11.9189735993
 10
16.8054552112
 20
11.9273394073
 10
16.8480404166
 20
11.9343331152
 10
16.8909690893
 20
11.9399379969
 10
16.9341742836
 20
11.9441491476
 10
16.9775863994
 20
11.9469617509
 10
17.0211097666
 20
11.9483711348
 10
17.0646670353
 20
11.9483762492
 10
17.1081808269
 20
11.9469775793
 10
17.1515738094
 20
11.9441771522
 10
17.1947507009
 20
11.9399805874
 10
17.2376417988
 20
11.9343937113
 10
17.2801809571
 20
11.9274223411
 10
17.3222487046
 20
11.9190839431
 10
17.363796871
 20
11.9093857836
 10
17.4047616218
 20
11.8983374059
 10
17.4449939378
 20
11.8859760973
 10
17.484482249
 20
11.8723022131
 10
17.5231616245
 20
11.85732985
  0
LINE
  5
5B2
100
AcDbEntity
  8
0
100
AcDbLine
 62
7
  6
CONTINUOUS
 10
16.0489525228
 20
7.5299549667
 11
16.0534456431
 21
7.5967119294
  0
LINE
  5
5B3
100
AcDbEntity
  8
AXIS
100
AcDbLine
 62
7
  6
CONTINUOUS
 10
16.0568265386
 20
9.0397921714
 11
16.0587950425
 21
9.0557021467
  0
LWPOLYLINE
  5
5B4
100
AcDbEntity
  8
AXIS
100
AcDbPolyline
 62
7
  6
CONTINUOUS
 90
12
 70
0
 10
16.5499367748
 20
8.0600334682
 10
16.7057397437
 20
8.0086606632
 10
16.8717916232
 20
7.977199031
 10
17.043047011
 20
7.9666045172
 10
17.2143023988
 20
7.977199031
 10
17.3803542783
 20
8.0086606632
 10
17.5361572472
 20
8.0600334682
 10
17.6769773111
 20
8.1297565093
 10
17.7985357236
 20
8.215711287
 10
17.8971389939
 20
8.3152861091
 10
17.9697911114
 20
8.425455445
 10
18.0142845784
 20
8.542871855
  0
LWPOLYLINE
  5
5B5
100
AcDbEntity
  8
AXIS
100
AcDbPolyline
 62
7
  6
CONTINUOUS
 90
6
 70
0
 10
16.5499367748
 20
8.0600334682
 10
16.4091167109
 20
8.1297565093
 10
16.2875582984
 20
8.215711287
 10
16.1889550281
 20
8.3152861091
 10
16.1163029106
 20
8.425455445
 10
16.0718094436
 20
8.542871855
  0
LWPOLYLINE
  5
5B6
100
AcDbEntity
  8
0
100
AcDbPolyline
 62
7
  6
CONTINUOUS
 90
3
 70
0
 10
16.4579542568
 20
6.7382787405
 10
16.4664735063
 20
6.6830627345
 10
16.4904054927
 20
6.6214108195
  0
LWPOLYLINE
  5
5B7
100
AcDbEntity
  8
0
100
AcDbPolyline
 62
7
  6
CONTINUOUS
 90
3
 70
0
 10
16.4566723027
 20
6.75187688
 10
16.4664735063
 20
6.688352116
 10
16.4904054927
 20
6.6267002009
  0
LWPOLYLINE
  5
5B8
100
AcDbEntity
  8
0
100
AcDbPolyline
 62
7
  6
CONTINUOUS
 90
3
 70
0
 10
16.4579542568
 20
6.780037015
 10
16.4664735063
 20
6.724821009
 10
16.4904054927
 20
6.663169094
  0
LWPOLYLINE
  5
5B9
100
AcDbEntity
  8
0
100
AcDbPolyline
 62
7
  6
CONTINUOUS
 90
3
 70
0
 10
16.4566796454
 20
6.7935875642
 10
16.4664735063
 20
6.7301103905
 10
16.4904054927
 20
6.6684584754
  0
LWPOLYLINE
  5
5BA
100
AcDbEntity
  8
0
100
AcDbPolyline
 62
7
  6
CONTINUOUS
 90
3
 70
0
 10
16.4629187552
 20
6.7896187731
 10
16.4664735063
 20
6.7665792835
 10
16.4904054927
 20
6.7049273684
  0
LWPOLYLINE
  5
5BB
100
AcDbEntity
  8
0
100
AcDbPolyline
 62
7
  6
CONTINUOUS
 90
3
 70
0
 10
16.4638236642
 20
6.7890431469
 10
16.4664735063
 20
6.7718686649
 10
16.4904054927
 20
6.7102167499
  0
LINE
  5
5BC
100
AcDbEntity
  8
0
100
AcDbLine
 62
7
  6
CONTINUOUS
 10
16.0718094436
 20
7.7856551444
 11
16.0568265386
 21
7.9067509905
  0
LINE
  5
5BD
100
AcDbEntity
  8
AXIS
100
AcDbLine
 62
7
  6
CONTINUOUS
 10
16.0718094436
 20
8.542871855
 11
16.0568265386
 21
8.663967701
  0
LINE
  5
5BE
100
AcDbEntity
  8
AXIS
100
AcDbLine
 62
7
  6
CONTINUOUS
 10
16.0718094436
 20
8.9186963253
 11
16.0568265386
 21
9.0397921714
  0
LINE
  5
5BF
100
AcDbEntity
  8
AXIS
100
AcDbLine
 62
7
  6
CONTINUOUS
 10
16.0587950425
 20
10.917778212
 11
16.063393284
 21
10.8505825545
  0
LWPOLYLINE
  5
5C0
100
AcDbEntity
  8
0
100
AcDbPolyline
 62
7
  6
CONTINUOUS
 90
3
 70
0
 10
16.1573194361
 20
11.2839733518
 10
16.1588060763
 20
11.2558834763
 10
16.1620734972
 20
11.2278690491
  0
LINE
  5
5C1
100
AcDbEntity
  8
0
100
AcDbLine
 62
7
  6
CONTINUOUS
 10
16.0568265386
 20
7.9067509905
 11
16.0587950425
 21
7.9226609659
  0
LWPOLYLINE
  5
5C2
100
AcDbEntity
  8
AXIS
100
AcDbPolyline
 62
7
  6
CONTINUOUS
 90
4
 70
0
 10
16.5509210267
 20
10.2361084558
 10
16.5566146072
 20
10.2601160169
 10
16.5623298002
 20
10.2841501455
 10
16.5680663437
 20
10.3082106181
  0
LINE
  5
5C3
100
AcDbEntity
  8
0
100
AcDbLine
 62
7
  6
CONTINUOUS
 10
16.0534456431
 20
7.5967119294
 11
16.0587950425
 21
7.6192177157
  0
LINE
  5
5C4
100
AcDbEntity
  8
AXIS
100
AcDbLine
 62
7
  6
CONTINUOUS
 10
16.5509210267
 20
10.3937347861
 11
16.5315444195
 21
10.3172481753
  0
LWPOLYLINE
  5
5C5
100
AcDbEntity
  8
0
100
AcDbPolyline
 62
7
  6
CONTINUOUS
 90
14
 70
0
 10
17.8731567018
 20
10.8498048513
 10
17.8954342194
 20
10.875764306
 10
17.9160891696
 20
10.9023861711
 10
17.9350822345
 20
10.9296197704
 10
17.9523772595
 20
10.9574132632
 10
17.9679413228
 20
10.9857137429
 10
17.9817447972
 20
11.0144673381
 10
17.9937614069
 20
11.0436193145
 10
18.0039682778
 20
11.0731141799
 10
18.0123459805
 20
11.1028957889
 10
18.0188785675
 20
11.1329074506
 10
18.0235536036
 20
11.1630920362
 10
18.0263621897
 20
11.1933920875
 10
18.0272989795
 20
11.2237499266
  0
LINE
  5
5C6
100
AcDbEntity
  8
AXIS
100
AcDbLine
 62
7
  6
CONTINUOUS
 10
16.0718094436
 20
9.6759130359
 11
16.0568265386
 21
9.7970088819
  0
LINE
  5
5C7
100
AcDbEntity
  8
AXIS
100
AcDbLine
 62
7
  6
CONTINUOUS
 10
16.0718094436
 20
10.0517375062
 11
16.0568265386
 21
10.1728333522
  0
LINE
  5
5C8
100
AcDbEntity
  8
AXIS
100
AcDbLine
 62
7
  6
CONTINUOUS
 10
16.5314245418
 20
10.3169713954
 11
16.531549064
 21
10.3125956398
  0
LWPOLYLINE
  5
5C9
100
AcDbEntity
  8
0
100
AcDbPolyline
 62
7
  6
CONTINUOUS
 90
7
 70
0
 10
16.4564328378
 20
6.7164902624
 10
16.4566723027
 20
6.7048292241
 10
16.4664735063
 20
6.6413044601
 10
16.4904054927
 20
6.579652545
 10
16.5278817317
 20
6.5214099823
 10
16.5779837481
 20
6.4680297182
 10
16.6394836311
 20
6.4208455329
  0
LWPOLYLINE
  5
5CA
100
AcDbEntity
  8
0
100
AcDbPolyline
 62
7
  6
CONTINUOUS
 90
6
 70
0
 10
16.4564328378
 20
6.7217796438
 10
16.4566723027
 20
6.7101186055
 10
16.4664735063
 20
6.6465938415
 10
16.4904054927
 20
6.5849419264
 10
16.5278817317
 20
6.5266993637
 10
16.5779837481
 20
6.4733190997
  0
LINE
  5
5CB
100
AcDbEntity
  8
0
100
AcDbLine
 62
7
  6
CONTINUOUS
 10
16.4564328378
 20
6.7635379183
 11
16.4566723027
 21
6.75187688
  0
LWPOLYLINE
  5
5CC
100
AcDbEntity
  8
AXIS
100
AcDbPolyline
 62
7
  6
CONTINUOUS
 90
12
 70
0
 10
16.5499367748
 20
8.4358579385
 10
16.7057397437
 20
8.3844851335
 10
16.8717916232
 20
8.3530235013
 10
17.043047011
 20
8.3424289876
 10
17.2143023988
 20
8.3530235013
 10
17.3803542783
 20
8.3844851335
 10
17.5361572472
 20
8.4358579385
 10
17.6769773111
 20
8.5055809796
 10
17.7985357236
 20
8.5915357574
 10
17.8971389939
 20
8.6911105795
 10
17.9697911114
 20
8.8012799153
 10
18.0142845784
 20
8.9186963253
  0
LWPOLYLINE
  5
5CD
100
AcDbEntity
  8
AXIS
100
AcDbPolyline
 62
7
  6
CONTINUOUS
 90
6
 70
0
 10
16.5499367748
 20
8.4358579385
 10
16.4091167109
 20
8.5055809796
 10
16.2875582984
 20
8.5915357574
 10
16.1889550281
 20
8.6911105795
 10
16.1163029106
 20
8.8012799153
 10
16.0718094436
 20
8.9186963253
  0
LINE
  5
5CE
100
AcDbEntity
  8
AXIS
100
AcDbLine
 62
7
  6
CONTINUOUS
 10
16.063393284
 20
10.8505825545
 11
16.0898282826
 21
10.744391371
  0
LINE
  5
5CF
100
AcDbEntity
  8
0
100
AcDbLine
 62
7
  6
CONTINUOUS
 10
16.1620734972
 20
11.2278690491
 11
16.1671151185
 21
11.1999864885
  0
LINE
  5
5D0
100
AcDbEntity
  8
0
100
AcDbLine
 62
7
  6
CONTINUOUS
 10
16.4579542568
 20
6.780037015
 11
16.4564328378
 21
6.7635379183
  0
LINE
  5
5D1
100
AcDbEntity
  8
0
100
AcDbLine
 62
7
  6
CONTINUOUS
 10
16.4579542568
 20
6.7382787405
 11
16.4564328378
 21
6.7217796438
  0
LINE
  5
5D2
100
AcDbEntity
  8
0
100
AcDbLine
 62
7
  6
CONTINUOUS
 10
17.8954342194
 20
10.5697925914
 11
17.9648056884
 21
10.6737363324
  0
LWPOLYLINE
  5
5D3
100
AcDbEntity
  8
0
100
AcDbPolyline
 62
7
  6
CONTINUOUS
 90
21
 70
0
 10
16.1671151185
 20
11.1999864885
 10
16.1739207869
 20
11.1722919477
 10
16.1824767963
 20
11.1448412008
 10
16.1927659157
 20
11.1176895311
 10
16.2047674239
 20
11.0908916197
 10
16.2184571507
 20
11.0645014351
 10
16.2338075264
 20
11.0385721247
 10
16.2507876367
 20
11.0131559078
 10
16.2693632852
 20
10.9883039703
 10
16.2894970623
 20
10.9640663618
 10
16.3111484203
 20
10.9404918947
 10
16.3342737556
 20
10.9176280455
 10
16.3588264948
 20
10.895520861
 10
16.384757195
 20
10.8742148595
 10
16.41201362
 20
10.8537529602
 10
16.4405409239
 20
10.8341763394
 10
16.4702815099
 20
10.8155245156
 10
16.5011759355
 20
10.7978347871
 10
16.5331605665
 20
10.781143535
 10
16.5661738672
 20
10.7654829233
 10
16.6001336252
 20
10.750891153
  0
LINE
  5
5D4
100
AcDbEntity
  8
02___PRT_ALL_AXES
100
AcDbLine
 62
7
  6
CONTINUOUS
 10
16.935547011
 20
6.3026633287
 11
16.935547011
 21
5.6256356499
  0
LINE
  5
5D5
100
AcDbEntity
  8
AXIS
100
AcDbLine
 62
7
  6
CONTINUOUS
 10
16.0898282826
 20
10.744391371
 11
16.1391427428
 21
10.6423612451
  0
LWPOLYLINE
  5
5D6
100
AcDbEntity
  8
AXIS
100
AcDbPolyline
 62
7
  6
CONTINUOUS
 90
8
 70
0
 10
16.531549064
 20
10.3125956398
 10
16.5318814849
 20
10.3115141418
 10
16.5352752121
 20
10.3066022698
 10
16.5410785071
 20
10.3029948612
 10
16.5483983096
 20
10.3012447877
 10
16.5561109633
 20
10.3016224986
 10
16.5630231783
 20
10.3040713061
 10
16.5680663437
 20
10.3082106181
  0
LINE
  5
5D7
100
AcDbEntity
  8
AXIS
100
AcDbLine
 62
7
  6
CONTINUOUS
 10
16.5509210267
 20
10.2361084558
 11
16.5315444195
 21
10.3125950666
  0
LWPOLYLINE
  5
5D8
100
AcDbEntity
  8
0
100
AcDbPolyline
 62
7
  6
CONTINUOUS
 90
4
 70
0
 10
16.5680663437
 20
10.3079549865
 10
16.5623298151
 20
10.3365206695
 10
16.5566146366
 20
10.3651140071
 10
16.5509210267
 20
10.3937347861
  0
LINE
  5
5D9
100
AcDbEntity
  8
02___PRT_ALL_AXES
100
AcDbLine
 62
7
  6
CONTINUOUS
 10
17.150547011
 20
6.3024248491
 11
17.150547011
 21
5.6256356499
  0
LINE
  5
5DA
100
AcDbEntity
  8
0
100
AcDbLine
 62
7
  6
CONTINUOUS
 10
17.9648056884
 20
10.6737363324
 11
18.0090390879
 21
10.7843405022
  0
LWPOLYLINE
  5
5DB
100
AcDbEntity
  8
AXIS
100
AcDbPolyline
 62
7
  6
CONTINUOUS
 90
12
 70
0
 10
16.5499367748
 20
9.1930746491
 10
16.7057397437
 20
9.1417018441
 10
16.8717916232
 20
9.1102402118
 10
17.043047011
 20
9.0996456981
 10
17.2143023988
 20
9.1102402118
 10
17.3803542783
 20
9.1417018441
 10
17.5361572472
 20
9.1930746491
 10
17.6769773111
 20
9.2627976901
 10
17.7985357236
 20
9.3487524679
 10
17.8971389939
 20
9.44832729
 10
17.9697911114
 20
9.5584966258
 10
18.0142845784
 20
9.6759130359
  0
LWPOLYLINE
  5
5DC
100
AcDbEntity
  8
AXIS
100
AcDbPolyline
 62
7
  6
CONTINUOUS
 90
6
 70
0
 10
16.5499367748
 20
9.1930746491
 10
16.4091167109
 20
9.2627976901
 10
16.2875582984
 20
9.3487524679
 10
16.1889550281
 20
9.44832729
 10
16.1163029106
 20
9.5584966258
 10
16.0718094436
 20
9.6759130359
  0
LINE
  5
5DD
100
AcDbEntity
  8
0
100
AcDbLine
 62
7
  6
CONTINUOUS
 10
17.3988680211
 20
6.4014828825
 11
17.3988680211
 21
6.4067722639
  0
LINE
  5
5DE
100
AcDbEntity
  8
0
100
AcDbLine
 62
7
  6
CONTINUOUS
 10
17.3988680211
 20
6.443241157
 11
17.3988680211
 21
6.4485305384
  0
LINE
  5
5DF
100
AcDbEntity
  8
0
100
AcDbLine
 62
7
  6
CONTINUOUS
 10
17.3988680211
 20
6.4849994314
 11
17.3988680211
 21
6.4902888129
  0
LINE
  5
5E0
100
AcDbEntity
  8
0
100
AcDbLine
 62
7
  6
CONTINUOUS
 10
17.3988680211
 20
6.5267577059
 11
17.3988680211
 21
6.5320470873
  0
LINE
  5
5E1
100
AcDbEntity
  8
0
100
AcDbLine
 62
7
  6
CONTINUOUS
 10
17.3988680211
 20
6.5685159804
 11
17.3988680211
 21
6.5738053618
  0
LINE
  5
5E2
100
AcDbEntity
  8
0
100
AcDbLine
 62
7
  6
CONTINUOUS
 10
17.3988680211
 20
6.6102742549
 11
17.3988680211
 21
6.6155636363
  0
LINE
  5
5E3
100
AcDbEntity
  8
0
100
AcDbLine
 62
7
  6
CONTINUOUS
 10
17.3988680211
 20
6.6520325294
 11
17.3988680211
 21
6.6573219108
  0
LINE
  5
5E4
100
AcDbEntity
  8
0
100
AcDbLine
 62
7
  6
CONTINUOUS
 10
17.442619845
 20
6.4245165732
 11
17.442619845
 21
6.4447746922
  0
LINE
  5
5E5
100
AcDbEntity
  8
0
100
AcDbLine
 62
7
  6
CONTINUOUS
 10
17.4600112859
 20
6.6720640577
 11
17.4600112859
 21
6.6645261459
  0
LINE
  5
5E6
100
AcDbEntity
  8
0
100
AcDbLine
 62
7
  6
CONTINUOUS
 10
17.4600112859
 20
6.6303057832
 11
17.4600112859
 21
6.6227678714
  0
LINE
  5
5E7
100
AcDbEntity
  8
0
100
AcDbLine
 62
7
  6
CONTINUOUS
 10
17.4600112859
 20
6.5885475087
 11
17.4600112859
 21
6.5810095969
  0
LINE
  5
5E8
100
AcDbEntity
  8
0
100
AcDbLine
 62
7
  6
CONTINUOUS
 10
17.4600112859
 20
6.5467892343
 11
17.4600112859
 21
6.5392513224
  0
LINE
  5
5E9
100
AcDbEntity
  8
0
100
AcDbLine
 62
7
  6
CONTINUOUS
 10
17.4600112859
 20
6.5050309598
 11
17.4600112859
 21
6.497493048
  0
LINE
  5
5EA
100
AcDbEntity
  8
0
100
AcDbLine
 62
7
  6
CONTINUOUS
 10
17.4703927031
 20
6.4507982249
 11
17.4703927031
 21
6.4747951229
  0
LWPOLYLINE
  5
5EB
100
AcDbEntity
  8
02___PRT_ALL_AXES
100
AcDbPolyline
 62
7
  6
CONTINUOUS
 90
16
 70
0
 10
17.1505461841
 20
5.62563565
 10
17.1500602427
 20
5.6184100618
 10
17.1475167546
 20
5.6077146751
 10
17.1428465638
 20
5.5973841078
 10
17.1361447419
 20
5.5876286604
 10
17.1275477187
 20
5.5786469257
 10
17.1172305047
 20
5.570621746
 10
17.1054031288
 20
5.5637164906
 10
17.0923063621
 20
5.5580717308
 10
17.0782068171
 20
5.5538023775
 10
17.0633915198
 20
5.5509953426
 10
17.0481620669
 20
5.549707769
 10
17.0328284863
 20
5.5499658681
 10
17.0177029254
 20
5.5517643858
 10
17.003093297
 20
5.5550667094
 10
16.989297011
 20
5.5598056131
  0
LWPOLYLINE
  5
5EC
100
AcDbEntity
  8
0
100
AcDbPolyline
 62
7
  6
CONTINUOUS
 90
3
 70
0
 10
17.9169073315
 20
11.190738061
 10
17.9225378433
 20
11.2185642145
 10
17.9263971407
 20
11.2465409739
  0
LWPOLYLINE
  5
5ED
100
AcDbEntity
  8
AXIS
100
AcDbPolyline
 62
7
  6
CONTINUOUS
 90
6
 70
0
 10
16.5499367748
 20
9.5688991194
 10
16.4091167109
 20
9.6386221604
 10
16.2875582984
 20
9.7245769382
 10
16.1889550281
 20
9.8241517603
 10
16.1163029106
 20
9.9343210962
 10
16.0718094436
 20
10.0517375062
  0
LWPOLYLINE
  5
5EE
100
AcDbEntity
  8
AXIS
100
AcDbPolyline
 62
7
  6
CONTINUOUS
 90
5
 70
0
 10
16.1391427428
 20
10.6423612451
 10
16.2101533734
 20
10.5469412357
 10
16.3011559759
 20
10.4604218797
 10
16.4099663056
 20
10.3848801177
 10
16.532916379
 20
10.3226638053
  0
LWPOLYLINE
  5
5EF
100
AcDbEntity
  8
0
100
AcDbPolyline
 62
7
  6
CONTINUOUS
 90
3
 70
0
 10
17.6296611842
 20
6.742658781
 10
17.6294217193
 20
6.75469963
 10
17.6282063334
 20
6.7628352403
  0
LINE
  5
5F0
100
AcDbEntity
  8
0
100
AcDbLine
 62
7
  6
CONTINUOUS
 10
17.6296611842
 20
6.7844170555
 11
17.6294775231
 21
6.7936519571
  0
LINE
  5
5F1
100
AcDbEntity
  8
0
100
AcDbLine
 62
7
  6
CONTINUOUS
 10
17.5533272481
 20
6.5783894518
 11
17.5533272481
 21
6.5523718836
  0
LINE
  5
5F2
100
AcDbEntity
  8
0
100
AcDbLine
 62
7
  6
CONTINUOUS
 10
17.5637086654
 20
6.6270116002
 11
17.5637086654
 21
6.634549512
  0
LINE
  5
5F3
100
AcDbEntity
  8
0
100
AcDbLine
 62
7
  6
CONTINUOUS
 10
17.5637086654
 20
6.6687698747
 11
17.5637086654
 21
6.6763077865
  0
LINE
  5
5F4
100
AcDbEntity
  8
0
100
AcDbLine
 62
7
  6
CONTINUOUS
 10
17.5637086654
 20
6.7105281491
 11
17.5637086654
 21
6.718066061
  0
LINE
  5
5F5
100
AcDbEntity
  8
0
100
AcDbLine
 62
7
  6
CONTINUOUS
 10
17.5716291373
 20
6.6041223612
 11
17.5716291373
 21
6.5825200422
  0
LINE
  5
5F6
100
AcDbEntity
  8
0
100
AcDbLine
 62
7
  6
CONTINUOUS
 10
17.6248519302
 20
6.772317952
 11
17.6248519302
 21
6.7670285705
  0
LINE
  5
5F7
100
AcDbEntity
  8
0
100
AcDbLine
 62
7
  6
CONTINUOUS
 10
17.6248519302
 20
6.7305596775
 11
17.6248519302
 21
6.7252702961
  0
LINE
  5
5F8
100
AcDbEntity
  8
0
100
AcDbLine
 62
7
  6
CONTINUOUS
 10
17.6248519302
 20
6.688801403
 11
17.6248519302
 21
6.6835120216
  0
LINE
  5
5F9
100
AcDbEntity
  8
0
100
AcDbLine
 62
7
  6
CONTINUOUS
 10
17.9263971407
 20
11.2465409739
 11
17.9284774514
 21
11.2746119965
  0
LINE
  5
5FA
100
AcDbEntity
  8
0
100
AcDbLine
 62
7
  6
CONTINUOUS
 10
18.0090390879
 20
10.7843405022
 11
18.0269247207
 21
10.8985871998
  0
LWPOLYLINE
  5
5FB
100
AcDbEntity
  8
AXIS
100
AcDbPolyline
 62
7
  6
CONTINUOUS
 90
12
 70
0
 10
16.5499367748
 20
9.5688991194
 10
16.7057397437
 20
9.5175263144
 10
16.8717916232
 20
9.4860646822
 10
17.043047011
 20
9.4754701684
 10
17.2143023988
 20
9.4860646822
 10
17.3803542783
 20
9.5175263144
 10
17.5361572472
 20
9.5688991194
 10
17.6769773111
 20
9.6386221604
 10
17.7985357236
 20
9.7245769382
 10
17.8971389939
 20
9.8241517603
 10
17.9697911114
 20
9.9343210962
 10
18.0142845784
 20
10.0517375062
  0
LWPOLYLINE
  5
5FC
100
AcDbEntity
  8
0
100
AcDbPolyline
 62
7
  6
CONTINUOUS
 90
25
 70
0
 10
17.9284774514
 20
11.2746119965
 10
17.9287745859
 20
11.3027207498
 10
17.9272879457
 20
11.3308106252
 10
17.9240205248
 20
11.3588250525
 10
17.9189789034
 20
11.386707613
 10
17.9121732351
 20
11.4144021539
 10
17.9036172257
 20
11.4418529008
 10
17.8933281062
 20
11.4690045705
 10
17.8813265981
 20
11.4958024819
 10
17.8676368713
 20
11.5221926665
 10
17.8522864956
 20
11.5481219769
 10
17.8353063853
 20
11.5735381938
 10
17.8167307368
 20
11.5983901312
 10
17.7965969597
 20
11.6226277397
 10
17.7749456017
 20
11.6462022068
 10
17.7518202664
 20
11.669066056
 10
17.7272675272
 20
11.6911732405
 10
17.701336827
 20
11.712479242
 10
17.674080402
 20
11.7329411413
 10
17.6455530981
 20
11.7525177622
 10
17.6158125121
 20
11.7711695859
 10
17.5849180865
 20
11.7888593145
 10
17.5529334554
 20
11.8055505665
 10
17.5199201548
 20
11.8212111782
 10
17.4859603968
 20
11.8358029485
  0
LINE
  5
5FD
100
AcDbEntity
  8
0
100
AcDbLine
 62
7
  6
CONTINUOUS
 10
18.0269247207
 20
10.8985871998
 11
18.0272989795
 21
10.917778212
  0
LINE
  5
5FE
100
AcDbEntity
  8
0
100
AcDbLine
 62
7
  6
CONTINUOUS
 10
17.6248519302
 20
6.772317952
 11
17.6265723309
 21
6.7915841982
  0
LINE
  5
5FF
100
AcDbEntity
  8
0
100
AcDbLine
 62
7
  6
CONTINUOUS
 10
17.6248519302
 20
6.7670285705
 11
17.6270767083
 21
6.7919431868
  0
LINE
  5
600
100
AcDbEntity
  8
0
100
AcDbLine
 62
7
  6
CONTINUOUS
 10
17.6248519302
 20
6.7305596775
 11
17.6296611842
 21
6.7844170555
  0
LINE
  5
601
100
AcDbEntity
  8
0
100
AcDbLine
 62
7
  6
CONTINUOUS
 10
17.6248519302
 20
6.7252702961
 11
17.6285512835
 21
6.7666982327
  0
LINE
  5
602
100
AcDbEntity
  8
0
100
AcDbLine
 62
7
  6
CONTINUOUS
 10
17.6248519302
 20
6.688801403
 11
17.6296611842
 21
6.742658781
  0
LINE
  5
603
100
AcDbEntity
  8
0
100
AcDbLine
 62
7
  6
CONTINUOUS
 10
17.6248519302
 20
6.6835120216
 11
17.6285512835
 21
6.7249399582
  0
LINE
  5
604
100
AcDbEntity
  8
AXIS
100
AcDbLine
 62
7
  6
CONTINUOUS
 10
18.0142845784
 20
10.0517375062
 11
18.0292674834
 21
10.1728333522
  0
LINE
  5
605
100
AcDbEntity
  8
AXIS
100
AcDbLine
 62
7
  6
CONTINUOUS
 10
18.0142845784
 20
9.6759130359
 11
18.0292674834
 21
9.7970088819
  0
LINE
  5
606
100
AcDbEntity
  8
0
100
AcDbLine
 62
7
  6
CONTINUOUS
 10
18.0360150937
 20
7.5634082039
 11
18.0272989795
 21
7.6149510916
  0
LINE
  5
607
100
AcDbEntity
  8
0
100
AcDbLine
 62
7
  6
CONTINUOUS
 10
18.0292674834
 20
7.9067509905
 11
18.0272989795
 21
7.9226609659
  0
LINE
  5
608
100
AcDbEntity
  8
0
100
AcDbLine
 62
7
  6
CONTINUOUS
 10
18.0371414992
 20
7.5299549667
 11
18.0360150937
 21
7.5634082039
  0
LINE
  5
609
100
AcDbEntity
  8
AXIS
100
AcDbLine
 62
7
  6
CONTINUOUS
 10
18.0272989795
 20
7.8908410151
 11
18.0272989795
 21
8.6480577257
  0
LINE
  5
60A
100
AcDbEntity
  8
AXIS
100
AcDbLine
 62
7
  6
CONTINUOUS
 10
18.0272989795
 20
9.023882196
 11
18.0272989795
 21
9.7810989065
  0
LINE
  5
60B
100
AcDbEntity
  8
AXIS
100
AcDbLine
 62
7
  6
CONTINUOUS
 10
18.0272989795
 20
10.1569233769
 11
18.0272989795
 21
11.2237499266
  0
LINE
  5
60C
100
AcDbEntity
  8
0
100
AcDbLine
 62
7
  6
CONTINUOUS
 10
18.0292674834
 20
7.5309265202
 11
18.0292674834
 21
7.9067509905
  0
LINE
  5
60D
100
AcDbEntity
  8
AXIS
100
AcDbLine
 62
7
  6
CONTINUOUS
 10
18.0292674834
 20
8.663967701
 11
18.0292674834
 21
9.0397921714
  0
LINE
  5
60E
100
AcDbEntity
  8
AXIS
100
AcDbLine
 62
7
  6
CONTINUOUS
 10
18.0292674834
 20
9.7970088819
 11
18.0292674834
 21
10.1728333522
  0
LINE
  5
60F
100
AcDbEntity
  8
AXIS
100
AcDbLine
 62
7
  6
CONTINUOUS
 10
18.0371414992
 20
7.5299549667
 11
18.0371414992
 21
7.4989118431
  0
LWPOLYLINE
  5
610
100
AcDbEntity
  8
AXIS
100
AcDbPolyline
 62
7
  6
CONTINUOUS
 90
12
 70
0
 10
18.0371395586
 20
7.4989118431
 10
18.0348735866
 20
7.4514571523
 10
18.0229953311
 20
7.3807485212
 10
18.0010614798
 20
7.3112524056
 10
17.9692971037
 20
7.2436819298
 10
17.9280281481
 20
7.1787304582
 10
17.8776780885
 20
7.117064481
 10
17.8187635847
 20
7.0593167744
 10
17.7518891791
 20
7.0060799081
 10
17.6777410936
 20
6.9579001644
 10
17.5970801879
 20
6.9152719325
 10
17.5107341521
 20
6.878632636
  0
LINE
  5
611
100
AcDbEntity
  8
0
100
AcDbLine
 62
7
  6
CONTINUOUS
 10
18.0326408489
 20
7.4631422154
 11
18.0371414992
 21
7.5299549667
  0
LINE
  5
612
100
AcDbEntity
  8
AXIS
100
AcDbLine
 62
7
  6
CONTINUOUS
 10
18.0142845784
 20
8.9186963253
 11
18.0292674834
 21
9.0397921714
  0
LINE
  5
613
100
AcDbEntity
  8
AXIS
100
AcDbLine
 62
7
  6
CONTINUOUS
 10
18.0142845784
 20
8.542871855
 11
18.0292674834
 21
8.663967701
  0
LINE
  5
614
100
AcDbEntity
  8
0
100
AcDbLine
 62
7
  6
CONTINUOUS
 10
18.0142845784
 20
7.7856551444
 11
18.0292674834
 21
7.9067509905
  0
LINE
  5
615
100
AcDbEntity
  8
0
100
AcDbLine
 62
7
  6
CONTINUOUS
 10
18.0142845784
 20
7.4098306741
 11
18.0292674834
 21
7.5309265202
  0
LINE
  5
616
100
AcDbEntity
  8
0
100
AcDbLine
 62
7
  6
CONTINUOUS
 10
17.5704846064
 20
6.5766865499
 11
17.5716291373
 21
6.5825200422
  0
LWPOLYLINE
  5
617
100
AcDbEntity
  8
0
100
AcDbPolyline
 62
7
  6
CONTINUOUS
 90
3
 70
0
 10
17.5855737314
 20
6.624283
 10
17.5836688216
 20
6.6149324331
 10
17.5704846064
 20
6.5766865499
  0
LINE
  5
618
100
AcDbEntity
  8
0
100
AcDbLine
 62
7
  6
CONTINUOUS
 10
17.5830210939
 20
6.6205285184
 11
17.5716291373
 21
6.5825200422
  0
LINE
  5
619
100
AcDbEntity
  8
AXIS
100
AcDbLine
 62
7
  6
CONTINUOUS
 10
18.0292674834
 20
9.0397921714
 11
18.0272989795
 21
9.0557021467
  0
LINE
  5
61A
100
AcDbEntity
  8
AXIS
100
AcDbLine
 62
7
  6
CONTINUOUS
 10
18.0292674834
 20
10.1728333522
 11
18.0272989795
 21
10.1887433276
  0
LWPOLYLINE
  5
61B
100
AcDbEntity
  8
AXIS
100
AcDbPolyline
 62
7
  6
CONTINUOUS
 90
19
 70
0
 10
17.9052809642
 20
7.1508709614
 10
17.9007248127
 20
7.1348633502
 10
17.8717448972
 20
7.0702107154
 10
17.8330492566
 20
7.0081526406
 10
17.7850915619
 20
6.9494167001
 10
17.7284340734
 20
6.894691519
 10
17.6637410483
 20
6.8446187001
 10
17.591770953
 20
6.7997853014
 10
17.5133675713
 20
6.7607169535
 10
17.4294501109
 20
6.727871697
 10
17.3410024276
 20
6.7016346126
 10
17.2490614894
 20
6.6823133061
 10
17.1547052198
 20
6.6701343021
 10
17.0590398597
 20
6.6652403883
 10
16.9631869982
 20
6.6676889414
 10
16.8682704223
 20
6.6774512544
 10
16.7754029421
 20
6.694412873
 10
16.6856733439
 20
6.7183749377
 10
16.6001336252
 20
6.7490565154
  0
LWPOLYLINE
  5
61C
100
AcDbEntity
  8
AXIS
100
AcDbPolyline
 62
7
  6
CONTINUOUS
 90
7
 70
0
 10
17.9076104154
 20
7.1537239448
 10
17.8923229547
 20
7.101007824
 10
17.8462282139
 20
7.0091873751
 10
17.7822912338
 20
6.923193262
 10
17.7010098952
 20
6.844564836
 10
17.6047646503
 20
6.776062669
 10
17.4960183241
 20
6.7193411599
  0
LINE
  5
61D
100
AcDbEntity
  8
0
100
AcDbLine
 62
7
  6
CONTINUOUS
 10
17.5692833178
 20
6.7260389627
 11
17.5637086654
 21
6.7105281491
  0
LINE
  5
61E
100
AcDbEntity
  8
0
100
AcDbLine
 62
7
  6
CONTINUOUS
 10
17.5692832132
 20
6.6842805386
 11
17.5637086654
 21
6.6687698747
  0
LINE
  5
61F
100
AcDbEntity
  8
0
100
AcDbLine
 62
7
  6
CONTINUOUS
 10
17.5692832149
 20
6.6425222665
 11
17.5637086654
 21
6.6270116002
  0
LWPOLYLINE
  5
620
100
AcDbEntity
  8
AXIS
100
AcDbPolyline
 62
7
  6
CONTINUOUS
 90
11
 70
0
 10
16.5680663437
 20
10.3082106181
 10
16.706923144
 20
10.2636479943
 10
16.8538476799
 20
10.2347864293
 10
17.0053131025
 20
10.2223186195
 10
17.1576835675
 20
10.2265436652
 10
17.3073016514
 20
10.2473599014
 10
17.450576239
 20
10.2842674127
 10
17.5840684132
 20
10.3363799923
 10
17.7045736056
 20
10.4024460366
 10
17.8091991121
 20
10.4808783977
 10
17.8954342194
 20
10.5697925914
  0
LINE
  5
621
100
AcDbEntity
  8
0
100
AcDbLine
 62
7
  6
CONTINUOUS
 10
17.9697911114
 20
7.2924142641
 11
18.0142845784
 21
7.4098306741
  0
LWPOLYLINE
  5
622
100
AcDbEntity
  8
0
100
AcDbPolyline
 62
7
  6
CONTINUOUS
 90
3
 70
0
 10
17.5704846064
 20
6.5766865499
 10
17.5650541838
 20
6.5653225098
 10
17.5583680985
 20
6.5542583675
  0
LWPOLYLINE
  5
623
100
AcDbEntity
  8
0
100
AcDbPolyline
 62
7
  6
CONTINUOUS
 90
4
 70
0
 10
17.5716291373
 20
6.5825200422
 10
17.5666551809
 20
6.5721409943
 10
17.5605419203
 20
6.5620708016
 10
17.5533272481
 20
6.5523718836
  0
LWPOLYLINE
  5
624
100
AcDbEntity
  8
0
100
AcDbPolyline
 62
7
  6
CONTINUOUS
 90
3
 70
0
 10
17.3988680211
 20
6.6573219108
 10
17.4193527865
 20
6.688782809
 10
17.4213776612
 20
6.6917890038
  0
LWPOLYLINE
  5
625
100
AcDbEntity
  8
0
100
AcDbPolyline
 62
7
  6
CONTINUOUS
 90
4
 70
0
 10
17.3988680211
 20
6.6155636363
 10
17.4193527865
 20
6.6470245345
 10
17.4397427693
 20
6.6772961669
 10
17.4597902266
 20
6.7059682589
  0
LWPOLYLINE
  5
626
100
AcDbEntity
  8
0
100
AcDbPolyline
 62
7
  6
CONTINUOUS
 90
4
 70
0
 10
17.3988680211
 20
6.5738053618
 10
17.4193527865
 20
6.6052662601
 10
17.4397427693
 20
6.6355378924
 10
17.4600112859
 20
6.6645261459
  0
LWPOLYLINE
  5
627
100
AcDbEntity
  8
0
100
AcDbPolyline
 62
7
  6
CONTINUOUS
 90
4
 70
0
 10
17.3988680211
 20
6.5320470873
 10
17.4193527865
 20
6.5635079856
 10
17.4397427693
 20
6.593779618
 10
17.4600112859
 20
6.6227678714
  0
LWPOLYLINE
  5
628
100
AcDbEntity
  8
0
100
AcDbPolyline
 62
7
  6
CONTINUOUS
 90
4
 70
0
 10
17.3988680211
 20
6.4902888129
 10
17.4193527865
 20
6.5217497111
 10
17.4397427693
 20
6.5520213435
 10
17.4600112859
 20
6.5810095969
  0
LWPOLYLINE
  5
629
100
AcDbEntity
  8
0
100
AcDbPolyline
 62
7
  6
CONTINUOUS
 90
4
 70
0
 10
17.3988680211
 20
6.4485305384
 10
17.4193527865
 20
6.4799914366
 10
17.4397427693
 20
6.510263069
 10
17.4600112859
 20
6.5392513224
  0
LINE
  5
62A
100
AcDbEntity
  8
0
100
AcDbLine
 62
7
  6
CONTINUOUS
 10
17.6248519302
 20
6.7670285705
 11
17.604363902
 21
6.7355627429
  0
LWPOLYLINE
  5
62B
100
AcDbEntity
  8
0
100
AcDbPolyline
 62
7
  6
CONTINUOUS
 90
4
 70
0
 10
17.3988680211
 20
6.4067722639
 10
17.4193527865
 20
6.4382331621
 10
17.4397427693
 20
6.4685047945
 10
17.4600112859
 20
6.497493048
  0
LINE
  5
62C
100
AcDbEntity
  8
0
100
AcDbLine
 62
7
  6
CONTINUOUS
 10
17.8971389939
 20
7.1822449283
 11
17.9697911114
 21
7.2924142641
  0
LWPOLYLINE
  5
62D
100
AcDbEntity
  8
0
100
AcDbPolyline
 62
7
  6
CONTINUOUS
 90
3
 70
0
 10
17.6028401923
 20
6.7750588819
 10
17.5839736461
 20
6.7470491595
 10
17.5637086654
 20
6.718066061
  0
LWPOLYLINE
  5
62E
100
AcDbEntity
  8
0
100
AcDbPolyline
 62
7
  6
CONTINUOUS
 90
36
 70
0
 10
16.5509210267
 20
10.6210211514
 10
16.5885700295
 20
10.606415896
 10
16.6270841549
 20
10.5929857711
 10
16.6663900894
 20
10.5807563416
 10
16.7064130117
 20
10.5697508869
 10
16.7470767359
 20
10.5599903566
 10
16.7883038564
 20
10.5514933303
 10
16.8300158949
 20
10.5442759827
 10
16.8721334503
 20
10.5383520523
 10
16.9145763494
 20
10.5337328158
 10
16.9572637996
 20
10.530427066
 10
17.0001145431
 20
10.5284410957
 10
17.043047011
 20
10.5277786853
 10
17.0859794789
 20
10.5284410957
 10
17.1288302224
 20
10.530427066
 10
17.1715176726
 20
10.5337328158
 10
17.2139605717
 20
10.5383520523
 10
17.2560781271
 20
10.5442759827
 10
17.2977901656
 20
10.5514933303
 10
17.3390172861
 20
10.5599903566
 10
17.3796810103
 20
10.5697508869
 10
17.4197039326
 20
10.5807563416
 10
17.459009867
 20
10.5929857711
 10
17.4975239925
 20
10.606415896
 10
17.5351729952
 20
10.6210211514
 10
17.5718852082
 20
10.6367737352
 10
17.6075907476
 20
10.6536436615
 10
17.6422216458
 20
10.6715988176
 10
17.6757119812
 20
10.6906050247
 10
17.7079980027
 20
10.7106261033
 10
17.7390182523
 20
10.7316239424
 10
17.7687136811
 20
10.7535585712
 10
17.7970277621
 20
10.776388236
 10
17.8239065979
 20
10.8000694792
 10
17.8492990231
 20
10.8245572222
 10
17.8731567018
 20
10.8498048513
  0
LWPOLYLINE
  5
62F
100
AcDbEntity
  8
0
100
AcDbPolyline
 62
7
  6
CONTINUOUS
 90
3
 70
0
 10
17.467513058
 20
6.4420139055
 10
17.4690577016
 20
6.4444610949
 10
17.4703927031
 20
6.4507982249
  0
LWPOLYLINE
  5
630
100
AcDbEntity
  8
0
100
AcDbPolyline
 62
7
  6
CONTINUOUS
 90
3
 70
0
 10
17.550447603
 20
6.5435875642
 10
17.5519922466
 20
6.5460347536
 10
17.5533272481
 20
6.5523718836
  0
LINE
  5
631
100
AcDbEntity
  8
0
100
AcDbLine
 62
7
  6
CONTINUOUS
 10
17.6248519302
 20
6.7252702961
 11
17.604363902
 21
6.6938044685
  0
LWPOLYLINE
  5
632
100
AcDbEntity
  8
0
100
AcDbPolyline
 62
7
  6
CONTINUOUS
 90
3
 70
0
 10
17.604363902
 20
6.7355627429
 10
17.5839736461
 20
6.705290885
 10
17.5637086654
 20
6.6763077865
  0
LWPOLYLINE
  5
633
100
AcDbEntity
  8
0
100
AcDbPolyline
 62
7
  6
CONTINUOUS
 90
3
 70
0
 10
17.604363902
 20
6.6938044685
 10
17.5839736461
 20
6.6635326105
 10
17.5637086654
 20
6.634549512
  0
LWPOLYLINE
  5
634
100
AcDbEntity
  8
0
100
AcDbPolyline
 62
7
  6
CONTINUOUS
 90
3
 70
0
 10
17.5770213129
 20
6.6117038936
 10
17.6008087038
 20
6.6466909702
 10
17.6248519302
 20
6.6835120216
  0
LWPOLYLINE
  5
635
100
AcDbEntity
  8
0
100
AcDbPolyline
 62
7
  6
CONTINUOUS
 90
4
 70
0
 10
17.9039580976
 20
7.1784894972
 10
17.9659334088
 20
7.2687036048
 10
18.0091207141
 20
7.3642361512
 10
18.0326408489
 20
7.4631422154
  0
LINE
  5
636
100
AcDbEntity
  8
0
100
AcDbLine
 62
7
  6
CONTINUOUS
 10
17.5533272481
 20
6.5783894518
 11
17.5770213129
 21
6.6117038936
  0
LINE
  5
637
100
AcDbEntity
  8
0
100
AcDbLine
 62
7
  6
CONTINUOUS
 10
17.5583680985
 20
6.5542583675
 11
17.550447603
 21
6.5435875642
  0
LWPOLYLINE
  5
638
100
AcDbEntity
  8
0
100
AcDbPolyline
 62
7
  6
CONTINUOUS
 90
3
 70
0
 10
17.4385907098
 20
6.4145900706
 10
17.4415023315
 20
6.4183852537
 10
17.442619845
 20
6.4245165732
  0
LINE
  5
639
100
AcDbEntity
  8
0
100
AcDbLine
 62
7
  6
CONTINUOUS
 10
17.5533272481
 20
6.5523718836
 11
17.4703927031
 21
6.4507982249
  0
LINE
  5
63A
100
AcDbEntity
  8
0
100
AcDbLine
 62
7
  6
CONTINUOUS
 10
17.550447603
 20
6.5435875642
 11
17.467513058
 21
6.4420139055
  0
LWPOLYLINE
  5
63B
100
AcDbEntity
  8
0
100
AcDbPolyline
 62
7
  6
CONTINUOUS
 90
4
 70
0
 10
17.4488567343
 20
6.7019323718
 10
17.4397467147
 20
6.6922217375
 10
17.4193548615
 20
6.671629973
 10
17.3988680211
 20
6.6520325294
  0
LWPOLYLINE
  5
63C
100
AcDbEntity
  8
0
100
AcDbPolyline
 62
7
  6
CONTINUOUS
 90
3
 70
0
 10
17.4600112859
 20
6.6720640577
 10
17.4397467147
 20
6.650463463
 10
17.4193548615
 20
6.6298716985
  0
LWPOLYLINE
  5
63D
100
AcDbEntity
  8
0
100
AcDbPolyline
 62
7
  6
CONTINUOUS
 90
4
 70
0
 10
17.4600112859
 20
6.6303057832
 10
17.4397467147
 20
6.6087051886
 10
17.4193548615
 20
6.588113424
 10
17.3988680211
 20
6.5685159804
  0
LWPOLYLINE
  5
63E
100
AcDbEntity
  8
0
100
AcDbPolyline
 62
7
  6
CONTINUOUS
 90
4
 70
0
 10
17.5637086654
 20
6.7105281491
 10
17.5839769351
 20
6.7321325809
 10
17.6043684823
 20
6.7527238421
 10
17.6248519302
 20
6.772317952
  0
LWPOLYLINE
  5
63F
100
AcDbEntity
  8
0
100
AcDbPolyline
 62
7
  6
CONTINUOUS
 90
4
 70
0
 10
17.4600112859
 20
6.5885475087
 10
17.4397467147
 20
6.5669469141
 10
17.4193548615
 20
6.5463551495
 10
17.3988680211
 20
6.5267577059
  0
LWPOLYLINE
  5
640
100
AcDbEntity
  8
0
100
AcDbPolyline
 62
7
  6
CONTINUOUS
 90
4
 70
0
 10
17.5637086654
 20
6.6687698747
 10
17.5839769351
 20
6.6903743064
 10
17.6043684823
 20
6.7109655676
 10
17.6248519302
 20
6.7305596775
  0
LINE
  5
641
100
AcDbEntity
  8
0
100
AcDbLine
 62
7
  6
CONTINUOUS
 10
17.8244564906
 20
7.0954304699
 11
17.9039580976
 21
7.1784894972
  0
LINE
  5
642
100
AcDbEntity
  8
0
100
AcDbLine
 62
7
  6
CONTINUOUS
 10
17.7985357236
 20
7.0826701062
 11
17.8971389939
 21
7.1822449283
  0
LINE
  5
643
100
AcDbEntity
  8
0
100
AcDbLine
 62
7
  6
CONTINUOUS
 10
17.4193548615
 20
6.6298716985
 11
17.3988680211
 21
6.6102742549
  0
LWPOLYLINE
  5
644
100
AcDbEntity
  8
0
100
AcDbPolyline
 62
7
  6
CONTINUOUS
 90
18
 70
0
 10
16.7071064367
 20
10.713764011
 10
16.7442190521
 20
10.7036899808
 10
16.7819330713
 20
10.694803577
 10
16.8201730887
 20
10.6871225527
 10
16.8588619075
 20
10.6806624186
 10
16.8979216735
 20
10.675436173
 10
16.9372737039
 20
10.6714543442
 10
16.9768387536
 20
10.6687249506
 10
17.0165371403
 20
10.667253489
 10
17.0562889155
 20
10.6670429228
 10
17.0960140227
 20
10.6680936761
 10
17.1356324592
 20
10.6704036327
 10
17.175064437
 20
10.6739681407
 10
17.2142305438
 20
10.6787800213
 10
17.2530519025
 20
10.6848295839
 10
17.2914503305
 20
10.6921046453
 10
17.3293484968
 20
10.7005905541
 10
17.366670078
 20
10.7102702206
  0
LINE
  5
645
100
AcDbEntity
  8
0
100
AcDbLine
 62
7
  6
CONTINUOUS
 10
16.6706715945
 20
10.7250048921
 11
16.7071064367
 21
10.713764011
  0
LINE
  5
646
100
AcDbEntity
  8
0
100
AcDbLine
 62
7
  6
CONTINUOUS
 10
16.634984688
 20
10.7373910229
 11
16.6706715945
 21
10.7250048921
  0
LINE
  5
647
100
AcDbEntity
  8
0
100
AcDbLine
 62
7
  6
CONTINUOUS
 10
16.6001336252
 20
10.750891153
 11
16.634984688
 21
10.7373910229
  0
LINE
  5
648
100
AcDbEntity
  8
0
100
AcDbLine
 62
7
  6
CONTINUOUS
 10
17.4703927031
 20
6.4507982249
 11
17.4621213391
 21
6.4415306995
  0
LWPOLYLINE
  5
649
100
AcDbEntity
  8
0
100
AcDbPolyline
 62
7
  6
CONTINUOUS
 90
4
 70
0
 10
17.4600112859
 20
6.5467892343
 10
17.4397467147
 20
6.5251886396
 10
17.4193548615
 20
6.504596875
 10
17.3988680211
 20
6.4849994314
  0
LINE
  5
64A
100
AcDbEntity
  8
0
100
AcDbLine
 62
7
  6
CONTINUOUS
 10
17.5637086654
 20
6.6270116002
 11
17.5839769351
 21
6.6486160319
  0
LWPOLYLINE
  5
64B
100
AcDbEntity
  8
0
100
AcDbPolyline
 62
7
  6
CONTINUOUS
 90
4
 70
0
 10
17.4600112859
 20
6.5050309598
 10
17.4397467147
 20
6.4834303651
 10
17.4193548615
 20
6.4628386006
 10
17.3988680211
 20
6.443241157
  0
LWPOLYLINE
  5
64C
100
AcDbEntity
  8
0
100
AcDbPolyline
 62
7
  6
CONTINUOUS
 90
3
 70
0
 10
17.4229113559
 20
6.4245917521
 10
17.4466988977
 20
6.4489519418
 10
17.4703927031
 20
6.4747951229
  0
LWPOLYLINE
  5
64D
100
AcDbEntity
  8
0
100
AcDbPolyline
 62
7
  6
CONTINUOUS
 90
3
 70
0
 10
17.5839769351
 20
6.6486160319
 10
17.6043684823
 20
6.6692072931
 10
17.6248519302
 20
6.688801403
  0
LINE
  5
64E
100
AcDbEntity
  8
0
100
AcDbLine
 62
7
  6
CONTINUOUS
 10
17.3988680211
 20
6.4014828825
 11
17.4229113559
 21
6.4245917521
  0
LWPOLYLINE
  5
64F
100
AcDbEntity
  8
0
100
AcDbPolyline
 62
7
  6
CONTINUOUS
 90
3
 70
0
 10
17.4492166161
 20
6.4231594606
 10
17.4588784724
 20
6.4323251864
 10
17.467513058
 20
6.4420139055
  0
LWPOLYLINE
  5
650
100
AcDbEntity
  8
0
100
AcDbPolyline
 62
7
  6
CONTINUOUS
 90
3
 70
0
 10
17.4621213391
 20
6.4415306995
 10
17.4528445525
 20
6.4327520109
 10
17.442619845
 20
6.4245165732
  0
LINE
  5
651
100
AcDbEntity
  8
0
100
AcDbLine
 62
7
  6
CONTINUOUS
 10
17.4593267605
 20
6.7057971794
 11
17.4385336162
 21
6.6909967463
  0
LINE
  5
652
100
AcDbEntity
  8
0
100
AcDbLine
 62
7
  6
CONTINUOUS
 10
17.4600112859
 20
6.6645261459
 11
17.4385333917
 21
6.6492382452
  0
LINE
  5
653
100
AcDbEntity
  8
0
100
AcDbLine
 62
7
  6
CONTINUOUS
 10
17.4600112859
 20
6.6227678714
 11
17.4385335466
 21
6.6074801271
  0
LINE
  5
654
100
AcDbEntity
  8
0
100
AcDbLine
 62
7
  6
CONTINUOUS
 10
17.4600112859
 20
6.5810095969
 11
17.4385336545
 21
6.5657219616
  0
LINE
  5
655
100
AcDbEntity
  8
0
100
AcDbLine
 62
7
  6
CONTINUOUS
 10
17.6769773111
 20
6.9967153284
 11
17.7985357236
 21
7.0826701062
  0
LWPOLYLINE
  5
656
100
AcDbEntity
  8
AXIS
100
AcDbPolyline
 62
7
  6
CONTINUOUS
 90
4
 70
0
 10
17.5107341521
 20
6.878632636
 10
17.4195890134
 20
6.8483582435
 10
17.3245800442
 20
6.8247594112
 10
17.2266821651
 20
6.8080782952
  0
LINE
  5
657
100
AcDbEntity
  8
0
100
AcDbLine
 62
7
  6
CONTINUOUS
 10
17.4385907098
 20
6.4145900706
 11
17.4492166161
 21
6.4231594606
  0
LINE
  5
658
100
AcDbEntity
  8
0
100
AcDbLine
 62
7
  6
CONTINUOUS
 10
17.4600112859
 20
6.5392513224
 11
17.438533545
 21
6.5239635765
  0
LINE
  5
659
100
AcDbEntity
  8
0
100
AcDbLine
 62
7
  6
CONTINUOUS
 10
17.4600112859
 20
6.497493048
 11
17.4385333961
 21
6.4822051517
  0
LWPOLYLINE
  5
65A
100
AcDbEntity
  8
0
100
AcDbPolyline
 62
7
  6
CONTINUOUS
 90
11
 70
0
 10
17.442619845
 20
6.4245165732
 10
17.378340989
 20
6.3836403099
 10
17.3058138668
 20
6.35037374
 10
17.2268224439
 20
6.3255351789
 10
17.1433103895
 20
6.309735797
 10
17.0573317859
 20
6.3033641628
 10
16.9710017889
 20
6.3065770333
 10
16.8864441075
 20
6.3192953704
 10
16.8057388669
 20
6.3412063024
 10
16.7308714215
 20
6.3717708187
 10
16.7231666623
 20
6.3761819235
  0
LWPOLYLINE
  5
65B
100
AcDbEntity
  8
0
100
AcDbPolyline
 62
7
  6
CONTINUOUS
 90
12
 70
0
 10
17.4385907098
 20
6.4145900706
 10
17.3728511628
 20
6.3729032992
 10
17.2989237441
 20
6.3393438001
 10
17.2185057449
 20
6.3146352564
 10
17.1338464865
 20
6.2994242016
 10
17.0470147792
 20
6.2940185376
 10
16.9601575423
 20
6.298516419
 10
16.8753333018
 20
6.3128094248
 10
16.7946738305
 20
6.3365637904
 10
16.7201161332
 20
6.369261479
 10
16.6536700154
 20
6.4100737934
 10
16.6437422868
 20
6.4184709758
  0
LINE
  5
65C
100
AcDbEntity
  8
0
100
AcDbLine
 62
7
  6
CONTINUOUS
 10
17.3217199827
 20
6.6157642486
 11
17.3988680211
 21
6.6520325294
  0
LINE
  5
65D
100
AcDbEntity
  8
0
100
AcDbLine
 62
7
  6
CONTINUOUS
 10
17.3217199827
 20
6.5375370811
 11
17.3988680211
 21
6.5738053618
  0
LINE
  5
65E
100
AcDbEntity
  8
0
100
AcDbLine
 62
7
  6
CONTINUOUS
 10
17.3217199827
 20
6.5322476996
 11
17.3988680211
 21
6.5685159804
  0
LINE
  5
65F
100
AcDbEntity
  8
AXIS
100
AcDbLine
 62
7
  6
CONTINUOUS
 10
17.4960183241
 20
6.7193411599
 11
17.3774101012
 21
6.6755592301
  0
LINE
  5
660
100
AcDbEntity
  8
0
100
AcDbLine
 62
7
  6
CONTINUOUS
 10
17.2377421695
 20
6.6354892462
 11
17.3150424057
 21
6.6606393169
  0
LWPOLYLINE
  5
661
100
AcDbEntity
  8
0
100
AcDbPolyline
 62
7
  6
CONTINUOUS
 90
3
 70
0
 10
17.2377421695
 20
6.6301998648
 10
17.3217199827
 20
6.6575225231
 10
17.3421378551
 20
6.6671212263
  0
LWPOLYLINE
  5
662
100
AcDbEntity
  8
0
100
AcDbPolyline
 62
7
  6
CONTINUOUS
 90
3
 70
0
 10
17.2377421695
 20
6.5937309718
 10
17.3217199827
 20
6.62105363
 10
17.3988680211
 20
6.6573219108
  0
LINE
  5
663
100
AcDbEntity
  8
0
100
AcDbLine
 62
7
  6
CONTINUOUS
 10
17.2377421695
 20
6.5884415903
 11
17.3217199827
 21
6.6157642486
  0
LWPOLYLINE
  5
664
100
AcDbEntity
  8
0
100
AcDbPolyline
 62
7
  6
CONTINUOUS
 90
3
 70
0
 10
17.2377421695
 20
6.5519726973
 10
17.3217199827
 20
6.5792953555
 10
17.3988680211
 20
6.6155636363
  0
LWPOLYLINE
  5
665
100
AcDbEntity
  8
0
100
AcDbPolyline
 62
7
  6
CONTINUOUS
 90
3
 70
0
 10
17.2377421695
 20
6.5466833158
 10
17.3217199827
 20
6.5740059741
 10
17.3988680211
 20
6.6102742549
  0
LWPOLYLINE
  5
666
100
AcDbEntity
  8
0
100
AcDbPolyline
 62
7
  6
CONTINUOUS
 90
48
 70
0
 10
17.4859603968
 20
11.8358029485
 10
17.451109334
 20
11.8493030787
 10
17.4154224275
 20
11.8616892094
 10
17.3789875853
 20
11.8729300905
 10
17.3418749699
 20
11.8830041208
 10
17.3041609507
 20
11.8918905245
 10
17.2659209333
 20
11.8995715489
 10
17.2272321144
 20
11.906031683
 10
17.1881723485
 20
11.9112579286
 10
17.1488203181
 20
11.9152397573
 10
17.1092552684
 20
11.9179691509
 10
17.0695568817
 20
11.9194406125
 10
17.0298051065
 20
11.9196511787
 10
16.9900799993
 20
11.9186004254
 10
16.9504615628
 20
11.9162904688
 10
16.911029585
 20
11.9127259609
 10
16.8718634782
 20
11.9079140803
 10
16.8330421195
 20
11.9018645176
 10
16.7946436915
 20
11.8945894562
 10
16.7567455252
 20
11.8861035474
 10
16.7194239439
 20
11.876423881
 10
16.6827541101
 20
11.8655699509
 10
16.6468098733
 20
11.8535636161
 10
16.6116636221
 20
11.8404290561
 10
16.5773861377
 20
11.8261927228
 10
16.5440464519
 20
11.8108832869
 10
16.5117117077
 20
11.7945315801
 10
16.4804470245
 20
11.7771705333
 10
16.4503153664
 20
11.7588351101
 10
16.4213774158
 20
11.7395622364
 10
16.3936914511
 20
11.7193907259
 10
16.3673132295
 20
11.6983612023
 10
16.3422958741
 20
11.6765160171
 10
16.3186897676
 20
11.6538991644
 10
16.2965424507
 20
11.6305561927
 10
16.2758985259
 20
11.6065341125
 10
16.2567995683
 20
11.581881302
 10
16.2392840415
 20
11.5566474099
 10
16.22338722
 20
11.5308832548
 10
16.2091411187
 20
11.5046407234
 10
16.1965744279
 20
11.4779726658
 10
16.1857124558
 20
11.4509327891
 10
16.1765770774
 20
11.423575549
 10
16.1691866905
 20
11.3959560406
 10
16.1635561786
 20
11.368129887
 10
16.1596968813
 20
11.3401531276
 10
16.1576165706
 20
11.3120821051
 10
16.1573194361
 20
11.2839733518
  0
LWPOLYLINE
  5
667
100
AcDbEntity
  8
0
100
AcDbPolyline
 62
7
  6
CONTINUOUS
 90
26
 70
0
 10
17.5231616245
 20
11.85732985
 10
17.5595860034
 20
11.8416969773
 10
17.5950904825
 20
11.8249117066
 10
17.6296086653
 20
11.806999082
 10
17.6629658965
 20
11.7880511287
 10
17.695220015
 20
11.7680358497
 10
17.7263106364
 20
11.7469821064
 10
17.756057782
 20
11.7250136795
 10
17.7845243876
 20
11.7020867476
 10
17.8116453706
 20
11.6782460973
 10
17.837248322
 20
11.6536514452
 10
17.8613969556
 20
11.6282530724
 10
17.8840432833
 20
11.6021005494
 10
17.9050525968
 20
11.5753666941
 10
17.9244743516
 20
11.54801198
 10
17.9422840395
 20
11.5200804472
 10
17.9583970279
 20
11.4917317311
 10
17.9728382119
 20
11.46295972
 10
17.9856073375
 20
11.4337886181
 10
17.9966675193
 20
11.4043363485
 10
18.0060220725
 20
11.3746444615
 10
18.0136835504
 20
11.3447116666
 10
18.0196429323
 20
11.3146037756
 10
18.0238956268
 20
11.2843955415
 10
18.0264481393
 20
11.2540939134
 10
18.0272989795
 20
11.2237499266
  0
CIRCLE
  5
668
100
AcDbEntity
  8
0
100
AcDbCircle
 62
7
  6
CONTINUOUS
 10
15.2229827477
 20
1.1139932523
 40
0.252091
  0
CIRCLE
  5
669
100
AcDbEntity
  8
0
100
AcDbCircle
 62
7
  6
CONTINUOUS
 10
15.2229827477
 20
1.1139932523
 40
0.182698
  0
CIRCLE
  5
66A
100
AcDbEntity
  8
0
100
AcDbCircle
 62
7
  6
CONTINUOUS
 10
14.8013422688
 20
1.8652439144
 40
0.0638444824
  0
ARC
  5
66B
100
AcDbEntity
  8
AXIS
100
AcDbCircle
 62
7
  6
CONTINUOUS
 10
8.391160822
 20
8.9137414088
 40
0.1299212598
100
AcDbArc
 50
270.0
 51
360.0
  0
ARC
  5
66C
100
AcDbEntity
  8
AXIS
100
AcDbCircle
 62
7
  6
CONTINUOUS
 10
6.8793497984
 20
8.9137414088
 40
0.1299212598
100
AcDbArc
 50
180.0
 51
270.0
  0
ARC
  5
66D
100
AcDbEntity
  8
0
100
AcDbCircle
 62
7
  6
CONTINUOUS
 10
6.7494285385
 20
14.4747650308
 40
0.0984251969
100
AcDbArc
 50
90.0
 51
180.0
  0
ARC
  5
66E
100
AcDbEntity
  8
0
100
AcDbCircle
 62
7
  6
CONTINUOUS
 10
8.5210820818
 20
14.4747650308
 40
0.0984251969
100
AcDbArc
 50
0.0
 51
90.0
  0
ARC
  5
66F
100
AcDbEntity
  8
0
100
AcDbCircle
 62
7
  6
CONTINUOUS
 10
7.0525781448
 20
8.7523240859
 40
0.031496063
100
AcDbArc
 50
0.0
 51
90.0
  0
ARC
  5
670
100
AcDbEntity
  8
0
100
AcDbCircle
 62
7
  6
CONTINUOUS
 10
8.2179324755
 20
8.7523240859
 40
0.031496063
100
AcDbArc
 50
90.0
 51
180.0
  0
ARC
  5
671
100
AcDbEntity
  8
0
100
AcDbCircle
 62
7
  6
CONTINUOUS
 10
8.1549403496
 20
8.0672847158
 40
0.031496063
100
AcDbArc
 50
270.0
 51
360.0
  0
ARC
  5
672
100
AcDbEntity
  8
0
100
AcDbCircle
 62
7
  6
CONTINUOUS
 10
7.1155702708
 20
8.0672847158
 40
0.031496063
100
AcDbArc
 50
180.0
 51
270.0
  0
ARC
  5
673
100
AcDbEntity
  8
0
100
AcDbCircle
 62
7
  6
CONTINUOUS
 10
8.5407671212
 20
9.187363456
 40
0.0196850394
100
AcDbArc
 50
90.0
 51
180.0
  0
ARC
  5
674
100
AcDbEntity
  8
0
100
AcDbCircle
 62
7
  6
CONTINUOUS
 10
6.7297434992
 20
9.187363456
 40
0.0196850394
100
AcDbArc
 50
0.0
 51
90.0
  0
ARC
  5
675
100
AcDbEntity
  8
0
100
AcDbCircle
 62
7
  6
CONTINUOUS
 10
6.6510033417
 20
3.9695915622
 40
0.0196850394
100
AcDbArc
 50
117.0965409678
 51
242.9034623614
  0
ARC
  5
676
100
AcDbEntity
  8
AXIS
100
AcDbCircle
 62
7
  6
CONTINUOUS
 10
6.6510033417
 20
3.9695915622
 40
0.0196850394
100
AcDbArc
 50
117.5348688225
 51
242.4651311775
  0
ARC
  5
677
100
AcDbEntity
  8
0
100
AcDbCircle
 62
7
  6
CONTINUOUS
 10
7.7181898552
 20
3.6251033732
 40
0.2283464567
100
AcDbArc
 50
270.0
 51
283.5362027374
  0
ARC
  5
678
100
AcDbEntity
  8
0
100
AcDbCircle
 62
7
  6
CONTINUOUS
 10
7.5523207652
 20
3.6251033732
 40
0.2283464567
100
AcDbArc
 50
256.4637972626
 51
270.0
  0
ARC
  5
679
100
AcDbEntity
  8
0
100
AcDbCircle
 62
7
  6
CONTINUOUS
 10
7.5523207652
 20
3.6251033732
 40
0.1968503937
100
AcDbArc
 50
256.4637972626
 51
270.0
  0
ARC
  5
67A
100
AcDbEntity
  8
0
100
AcDbCircle
 62
7
  6
CONTINUOUS
 10
7.7181898552
 20
3.6251033732
 40
0.1968503937
100
AcDbArc
 50
270.0
 51
283.5362027374
  0
ARC
  5
67B
100
AcDbEntity
  8
0
100
AcDbCircle
 62
7
  6
CONTINUOUS
 10
7.7181898552
 20
3.6251033732
 40
0.1653543307
100
AcDbArc
 50
270.0
 51
283.5362027374
  0
ARC
  5
67C
100
AcDbEntity
  8
0
100
AcDbCircle
 62
7
  6
CONTINUOUS
 10
7.5523207652
 20
3.6251033732
 40
0.1653543307
100
AcDbArc
 50
256.4637972626
 51
270.0
  0
ARC
  5
67D
100
AcDbEntity
  8
0
100
AcDbCircle
 62
7
  6
CONTINUOUS
 10
7.5523207652
 20
4.3140797512
 40
0.2283464567
100
AcDbArc
 50
90.0
 51
103.5362027374
  0
ARC
  5
67E
100
AcDbEntity
  8
0
100
AcDbCircle
 62
7
  6
CONTINUOUS
 10
7.5523207652
 20
4.3140797512
 40
0.1968503937
100
AcDbArc
 50
90.0
 51
103.5362027374
  0
ARC
  5
67F
100
AcDbEntity
  8
0
100
AcDbCircle
 62
7
  6
CONTINUOUS
 10
7.5523207652
 20
4.3140797512
 40
0.1653543307
100
AcDbArc
 50
90.0
 51
103.5362027374
  0
CIRCLE
  5
680
100
AcDbEntity
  8
AXIS
100
AcDbCircle
 62
7
  6
CONTINUOUS
 10
7.6352553102
 20
3.9695915622
 40
0.9940944882
  0
ARC
  5
681
100
AcDbEntity
  8
SCHEME_DIMS
100
AcDbCircle
 62
7
  6
CONTINUOUS
 10
7.6352553102
 20
3.9695915622
 40
0.9940944882
100
AcDbArc
 50
180.0
 51
229.7986158755
  0
CIRCLE
  5
682
100
AcDbEntity
  8
QUILTS
100
AcDbCircle
 62
7
  6
CONTINUOUS
 10
7.6352553102
 20
3.9695915622
 40
0.9862204724
  0
CIRCLE
  5
683
100
AcDbEntity
  8
0
100
AcDbCircle
 62
7
  6
CONTINUOUS
 10
7.6352553102
 20
3.9695915622
 40
0.905511811
  0
ARC
  5
684
100
AcDbEntity
  8
0
100
AcDbCircle
 62
7
  6
CONTINUOUS
 10
7.6352553102
 20
3.9695915622
 40
0.8858267717
100
AcDbArc
 50
7.3796037165
 51
8.1773050316
  0
ARC
  5
685
100
AcDbEntity
  8
0
100
AcDbCircle
 62
7
  6
CONTINUOUS
 10
7.6352553102
 20
3.9695915622
 40
0.8858267717
100
AcDbArc
 50
81.6004237812
 51
82.6804894435
  0
ARC
  5
686
100
AcDbEntity
  8
0
100
AcDbCircle
 62
7
  6
CONTINUOUS
 10
7.6352553102
 20
3.9695915622
 40
0.8858267717
100
AcDbArc
 50
89.0493367989
 51
97.3195074743
  0
ARC
  5
687
100
AcDbEntity
  8
0
100
AcDbCircle
 62
7
  6
CONTINUOUS
 10
7.6352553102
 20
3.9695915622
 40
0.8858267717
100
AcDbArc
 50
172.0276416266
 51
172.6203949041
  0
ARC
  5
688
100
AcDbEntity
  8
0
100
AcDbCircle
 62
7
  6
CONTINUOUS
 10
7.6352553102
 20
3.9695915622
 40
0.8858267717
100
AcDbArc
 50
180.0
 51
187.2429027592
  0
ARC
  5
689
100
AcDbEntity
  8
0
100
AcDbCircle
 62
7
  6
CONTINUOUS
 10
7.6352553102
 20
3.9695915622
 40
0.8858267717
100
AcDbArc
 50
187.3796037165
 51
188.3166779035
  0
ARC
  5
68A
100
AcDbEntity
  8
0
100
AcDbCircle
 62
7
  6
CONTINUOUS
 10
7.6352553102
 20
3.9695915622
 40
0.8858267717
100
AcDbArc
 50
189.1836132259
 51
194.9455704768
  0
ARC
  5
68B
100
AcDbEntity
  8
0
100
AcDbCircle
 62
7
  6
CONTINUOUS
 10
7.6352553102
 20
3.9695915622
 40
0.8858267717
100
AcDbArc
 50
204.4894799816
 51
205.4799087452
  0
ARC
  5
68C
100
AcDbEntity
  8
0
100
AcDbCircle
 62
7
  6
CONTINUOUS
 10
7.6352553102
 20
3.9695915622
 40
0.8858267717
100
AcDbArc
 50
212.3365383489
 51
215.4086673254
  0
ARC
  5
68D
100
AcDbEntity
  8
0
100
AcDbCircle
 62
7
  6
CONTINUOUS
 10
7.6352553102
 20
3.9695915622
 40
0.8858267717
100
AcDbArc
 50
226.9640422575
 51
261.6004237812
  0
ARC
  5
68E
100
AcDbEntity
  8
0
100
AcDbCircle
 62
7
  6
CONTINUOUS
 10
7.6352553102
 20
3.9695915622
 40
0.8858267717
100
AcDbArc
 50
262.6804894435
 51
268.9580207619
  0
ARC
  5
68F
100
AcDbEntity
  8
0
100
AcDbCircle
 62
7
  6
CONTINUOUS
 10
7.6352553102
 20
3.9695915622
 40
0.8858267717
100
AcDbArc
 50
277.3195074743
 51
278.1772985935
  0
CIRCLE
  5
690
100
AcDbEntity
  8
AXIS
100
AcDbCircle
 62
7
  6
CONTINUOUS
 10
7.6352553102
 20
3.9695915622
 40
0.8858267717
  0
CIRCLE
  5
691
100
AcDbEntity
  8
QUILTS
100
AcDbCircle
 62
7
  6
CONTINUOUS
 10
7.6352553102
 20
3.9695915622
 40
0.8858267717
  0
CIRCLE
  5
692
100
AcDbEntity
  8
AXIS
100
AcDbCircle
 62
7
  6
CONTINUOUS
 10
7.6352553102
 20
3.9695915622
 40
0.7559055118
  0
ARC
  5
693
100
AcDbEntity
  8
0
100
AcDbCircle
 62
7
  6
CONTINUOUS
 10
7.6352553102
 20
3.9695915622
 40
0.5826771654
100
AcDbArc
 50
68.46218756
 51
76.4637972626
  0
ARC
  5
694
100
AcDbEntity
  8
0
100
AcDbCircle
 62
7
  6
CONTINUOUS
 10
7.6352553102
 20
3.9695915622
 40
0.5826771654
100
AcDbArc
 50
283.5362027374
 51
291.5391316457
  0
ARC
  5
695
100
AcDbEntity
  8
0
100
AcDbCircle
 62
7
  6
CONTINUOUS
 10
7.6352553102
 20
3.9695915622
 40
0.5826771654
100
AcDbArc
 50
248.4608858433
 51
256.4637972626
  0
ARC
  5
696
100
AcDbEntity
  8
0
100
AcDbCircle
 62
7
  6
CONTINUOUS
 10
7.6352553102
 20
3.9695915622
 40
0.5826771654
100
AcDbArc
 50
103.5362027374
 51
111.5378680334
  0
ARC
  5
697
100
AcDbEntity
  8
0
100
AcDbCircle
 62
7
  6
CONTINUOUS
 10
7.6352553102
 20
3.9695915622
 40
0.5511811024
100
AcDbArc
 50
103.5362027374
 51
256.4637972626
  0
ARC
  5
698
100
AcDbEntity
  8
0
100
AcDbCircle
 62
7
  6
CONTINUOUS
 10
7.6352553102
 20
3.9695915622
 40
0.5511811024
100
AcDbArc
 50
283.5362027374
 51
76.4637972626
  0
ARC
  5
699
100
AcDbEntity
  8
0
100
AcDbCircle
 62
7
  6
CONTINUOUS
 10
7.6352553102
 20
3.9695915622
 40
0.5196850394
100
AcDbArc
 50
283.5362027374
 51
76.4637972626
  0
ARC
  5
69A
100
AcDbEntity
  8
0
100
AcDbCircle
 62
7
  6
CONTINUOUS
 10
7.6352553102
 20
3.9695915622
 40
0.5196850394
100
AcDbArc
 50
103.5362027374
 51
256.4637972626
  0
CIRCLE
  5
69B
100
AcDbEntity
  8
0
100
AcDbCircle
 62
7
  6
CONTINUOUS
 10
7.6352553102
 20
3.9695915622
 40
0.4682862539
  0
CIRCLE
  5
69C
100
AcDbEntity
  8
0
100
AcDbCircle
 62
7
  6
CONTINUOUS
 10
7.6352553102
 20
3.9695915622
 40
0.4460151742
  0
CIRCLE
  5
69D
100
AcDbEntity
  8
0
100
AcDbCircle
 62
7
  6
CONTINUOUS
 10
7.6352553102
 20
3.9695915622
 40
0.3765
  0
ARC
  5
69E
100
AcDbEntity
  8
0
100
AcDbCircle
 62
7
  6
CONTINUOUS
 10
7.6352553102
 20
3.9695915622
 40
0.3568149606
100
AcDbArc
 50
51.3357489792
 51
354.046306505
  0
CIRCLE
  5
69F
100
AcDbEntity
  8
0
100
AcDbCircle
 62
7
  6
CONTINUOUS
 10
7.6352553102
 20
3.9695915622
 40
0.3051181102
  0
CIRCLE
  5
6A0
100
AcDbEntity
  8
0
100
AcDbCircle
 62
7
  6
CONTINUOUS
 10
7.6352553102
 20
3.9695915622
 40
0.29
  0
CIRCLE
  5
6A1
100
AcDbEntity
  8
0
100
AcDbCircle
 62
7
  6
CONTINUOUS
 10
7.6352553102
 20
3.9695915622
 40
0.2611324865
  0
CIRCLE
  5
6A2
100
AcDbEntity
  8
0
100
AcDbCircle
 62
7
  6
CONTINUOUS
 10
7.6352553102
 20
3.9695915622
 40
0.17
  0
CIRCLE
  5
6A3
100
AcDbEntity
  8
0
100
AcDbCircle
 62
7
  6
CONTINUOUS
 10
7.6352553102
 20
3.9695915622
 40
0.11
  0
CIRCLE
  5
6A4
100
AcDbEntity
  8
02___PRT_ALL_AXES
100
AcDbCircle
 62
7
  6
CONTINUOUS
 10
7.6352553102
 20
3.9695915622
 40
0.1075
  0
ARC
  5
6A5
100
AcDbEntity
  8
0
100
AcDbCircle
 62
7
  6
CONTINUOUS
 10
7.7181898552
 20
4.3140797512
 40
0.2283464567
100
AcDbArc
 50
76.4637972626
 51
90.0
  0
ARC
  5
6A6
100
AcDbEntity
  8
0
100
AcDbCircle
 62
7
  6
CONTINUOUS
 10
7.7181898552
 20
4.3140797512
 40
0.1968503937
100
AcDbArc
 50
76.4637972626
 51
90.0
  0
ARC
  5
6A7
100
AcDbEntity
  8
0
100
AcDbCircle
 62
7
  6
CONTINUOUS
 10
7.7181898552
 20
4.3140797512
 40
0.1653543307
100
AcDbArc
 50
76.4637972626
 51
90.0
  0
ENDSEC
  0
SECTION
  2
OBJECTS
  0
DICTIONARY
  5
C
100
AcDbDictionary
280
0
281
1
  3
ACAD_GROUP
350
D
  3
ACAD_MLINESTYLE
350
17
  3
ACAD_LAYOUT
350
1A
  3
ACAD_PLOTSETTINGS
350
19
  3
ACAD_PLOTSTYLENAME
350
E
  3
ACAD_TABLESTYLE
350
       6A8
  0
DICTIONARY
  5
D
102
{ACAD_REACTORS
330
C
102
}
100
AcDbDictionary
280
0
281
1
  0
ACDBDICTIONARYWDFLT
  5
E
102
{ACAD_REACTORS
330
C
102
}
100
AcDbDictionary
281
1
  3
Normal
350
F
100
AcDbDictionaryWithDefault
340
F
  0
DICTIONARY
  5
17
102
{ACAD_REACTORS
330
C
102
}
100
AcDbDictionary
280
0
281
1
  3
Standard
350
18
  0
DICTIONARY
  5
6A8
330
C
100
AcDbDictionary
281
1
  3
Standard
350
       6AB
  3
Standard1
350
       6AC
  0
DICTIONARY
  5
19
102
{ACAD_REACTORS
330
C
102
}
100
AcDbDictionary
281
1
  0
DICTIONARY
  5
1A
102
{ACAD_REACTORS
330
C
102
}
100
AcDbDictionary
281
1
  3
Model
350
6A9
  3
Layout1
350
6AA
  0
ACDBPLACEHOLDER
  5
F
102
{ACAD_REACTORS
330
E
102
}
  0
MLINESTYLE
  5
18
102
{ACAD_REACTORS
330
17
102
}
100
AcDbMlineStyle
  2
STANDARD
 70
0
  3

 62
256
 51
90.0
 52
90.0
 71
2
 49
0.5
 62
256
  6
BYLAYER
 49
-0.5
 62
256
  6
BYLAYER
  0
LAYOUT
  5
6A9
102
{ACAD_REACTORS
330
1A
102
}
100
AcDbPlotSettings
  1

  2
none_device
  4
ANSI_C_(22.00_x_17.00_Inches)
  6

 40
0.0
 41
0.0
 42
0.0
 43
0.0
 44
558.8
 45
431.8
 46
0.0
 47
0.0
 48
0.0
 49
0.0
140
0.0
141
0.0
142
1.0
143
1.0
 70
1024
 72
0
 73
0
 74
0
  7

 75
0
147
1.0
148
0.0
149
0.0
100
AcDbLayout
  1
Model
 70
0
 71
0
 10
0.0
 20
0.0
 11
22.0
 21
17.0
 12
0.0
 22
0.0
 32
0.0
 14
0.0
 24
0.0
 34
0.0
 15
0.0
 25
0.0
 35
0.0
146
0.0
 13
0.0
 23
0.0
 33
0.0
 16
1.0
 26
0.0
 36
0.0
 17
0.0
 27
1.0
 37
0.0
 76
0
330
215
345
0
346
0
  0
LAYOUT
  5
6AA
102
{ACAD_REACTORS
330
1A
102
}
100
AcDbPlotSettings
  1

  2
none_device
  4
ANSI_C_(22.00_x_17.00_Inches)
  6

 40
0.0
 41
0.0
 42
0.0
 43
0.0
 44
558.8
 45
431.8
 46
0.0
 47
0.0
 48
0.0
 49
0.0
140
0.0
141
0.0
142
1.0
143
1.0
 70
0
 72
0
 73
0
 74
0
  7

 75
0
147
1.0
148
0.0
149
0.0
100
AcDbLayout
  1
Layout1
 70
0
 71
1
 10
0.0
 20
0.0
 11
22.0
 21
17.0
 12
0.0
 22
0.0
 32
0.0
 14
0.0
 24
0.0
 34
0.0
 15
0.0
 25
0.0
 35
0.0
146
0.0
 13
0.0
 23
0.0
 33
0.0
 16
1.0
 26
0.0
 36
0.0
 17
0.0
 27
1.0
 37
0.0
 76
0
330
216
345
0
346
0
  0
TABLESTYLE
  5
6AB
102
{ACAD_REACTORS
330
6A8
102
}
330
6A8
100
AcDbTableStyle
  3
Standard
 70
0
 71
0
 40
0.06
 41
0.06
280
1
281
1
  7
Standard
140
0.18
170
1
 62
0
 63
7
283
0
  7
Standard
140
0.18
170
1
 62
0
 63
7
283
0
  7
Standard
140
0.18
170
1
 62
0
 63
7
283
0
  0
TABLESTYLE
  5
6AC
102
{ACAD_REACTORS
330
6A8
330
288
102
}
330
6A8
100
AcDbTableStyle
  3
Standard1
 70
1
 71
0
 40
0.06
 41
0.06
280
1
281
1
  7
Standard
140
0.18
170
1
 62
0
 63
7
283
0
  7
Standard
140
0.18
170
1
 62
0
 63
7
283
0
  7
Standard
140
0.18
170
1
 62
0
 63
7
283
0
  0
ENDSEC
  0
EOF
