999
DXF file: 212914_1.dxf
999
Pro/ENGINEER 2019292 by Parametric Technology Corporation
  0
SECTION
  2
HEADER
  9
$ACADVER
  1
AC1027
  9
$DWGCODEPAGE
  3
ANSI_1252
  9
$EXTMAX
 10
22.0
 20
17.0
 30
0.0
  9
$EXTMIN
 10
0.0
 20
0.0
 30
0.0
  9
$LIMMIN
 10
0.0
 20
0.0
  9
$LIMMAX
 10
22.0
 20
17.0
  9
$VIEWCTR
 10
11.0
 20
8.5
  9
$VIEWSIZE
 40
17.0
  9
$CLAYER
  8
0
  9
$LTSCALE
 40
1.21
  9
$CELTYPE
  6
BYLAYER
  9
$DIMSCALE
 40
1.0
  9
$DIMASZ
 40
0.1875
  9
$DIMEXO
 40
0.0625
  9
$DIMDLI
 40
0.836
  9
$DIMEXE
 40
0.125
  9
$DIMCEN
 40
0.198
  9
$DIMLFAC
 40
1.0
  9
$DIMBLK
  1
_FILLED
  9
$DIMALT
 70
1
  9
$DIMALTD
 70
2
  9
$DIMALTTD
 70
2
  9
$DIMALTF
 40
25.4
  9
$DIMTXT
 40
0.1
  9
$DIMTOL
 70
1
  9
$DIMLIM
 70
0
  9
$DIMTFAC
 40
1.0
  9
$DIMTP
 40
0.005
  9
$DIMTM
 40
0.005
  9
$DIMGAP
 40
0.09
  9
$DIMDSEP
 70
46
  9
$AUNITS
 70
0
  9
$PDMODE
 70
3
  9
$PDSIZE
 40
0.3125
  9
$HANDSEED
  5
660
  9
$TILEMODE
 70
1
  9
$MEASUREMENT
 70
0
  9
$INSUNITS
 70
1
  0
ENDSEC
  0
SECTION
  2
CLASSES
  0
CLASS
  1
ACDBDICTIONARYWDFLT
  2
AcDbDictionaryWithDefault
  3
AutoCAD 2000
 90
0
 91
1
280
0
281
0
  0
CLASS
  1
ACDBPLACEHOLDER
  2
AcDbPlaceHolder
  3
AutoCAD 2000
 90
0
 91
1
280
0
281
0
  0
CLASS
  1
LAYOUT
  2
AcDbLayout
  3
AutoCAD 2000
 90
0
 91
0
280
0
281
0
  0
CLASS
  1
TABLESTYLE
  2
AcDbTableStyle
  3
ObjectDBX Classes
 90
2047
 91
1
280
0
281
0
  0
CLASS
  1
ACAD_TABLE
  2
AcDbTable
  3
ObjectDBX Classes
 90
1025
 91
1
280
0
281
1
  0
ENDSEC
  0
SECTION
  2
TABLES
  0
TABLE
  2
VPORT
  5
8
100
AcDbSymbolTable
 70
2
  0
VPORT
  5
1F4
100
AcDbSymbolTableRecord
100
AcDbViewportTableRecord
  2
*ACTIVE
 70
0
 10
0.0
 20
0.0
 11
1.0
 21
1.0
 12
11.0
 22
8.5
 13
0.0
 23
0.0
 14
1.0
 24
1.0
 15
0.0
 25
0.0
 16
0.0
 26
0.0
 36
1.0
 17
0.0
 27
0.0
 37
0.0
 40
17.0
 41
1.2941176471
 42
50.0
 43
0.0
 44
0.0
 50
0.0
 51
0.0
 71
0
 72
100
 73
1
 74
1
 75
0
 76
0
 77
0
 78
0
  0
ENDTAB
  0
TABLE
  2
LTYPE
  5
5
100
AcDbSymbolTable
 70
6
  0
LTYPE
  5
14
100
AcDbSymbolTableRecord
100
AcDbLinetypeTableRecord
  2
BYBLOCK
 70
0
  3

 72
65
 73
0
 40
0.0
  0
LTYPE
  5
15
100
AcDbSymbolTableRecord
100
AcDbLinetypeTableRecord
  2
BYLAYER
 70
0
  3

 72
65
 73
0
 40
0.0
  0
LTYPE
  5
16
100
AcDbSymbolTableRecord
100
AcDbLinetypeTableRecord
  2
CONTINUOUS
 70
64
  3
Solid line
 72
65
 73
0
 40
0.0
  0
LTYPE
  5
1F5
100
AcDbSymbolTableRecord
100
AcDbLinetypeTableRecord
  2
CENTER
 70
64
  3
____ _ ____ _ ____ _ ____ _ ____ _ ____ _ ____
 72
65
 73
4
 40
0.6
 49
0.375
 74
0
 49
-0.075
 74
0
 49
0.075
 74
0
 49
-0.075
 74
0
  0
LTYPE
  5
1F6
100
AcDbSymbolTableRecord
100
AcDbLinetypeTableRecord
  2
HIDDEN
 70
64
  3
- - - - - - - - - - - - - - - - - - - -
 72
65
 73
2
 40
0.2
 49
0.1
 74
0
 49
-0.1
 74
0
  0
LTYPE
  5
1F7
100
AcDbSymbolTableRecord
100
AcDbLinetypeTableRecord
  2
PHANTOM
 70
64
  3
_____ _ _ _____ _ _ _____ _ _ _____
 72
65
 73
6
 40
0.8
 49
0.45
 74
0
 49
-0.05
 74
0
 49
0.1
 74
0
 49
-0.05
 74
0
 49
0.1
 74
0
 49
-0.05
 74
0
  0
LTYPE
  5
1F8
100
AcDbSymbolTableRecord
100
AcDbLinetypeTableRecord
  2
DOT
 70
64
  3
. . . . . . . . . . . . . . . . . . . .
 72
65
 73
2
 40
0.2
 49
0.1
 74
0
 49
-0.1
 74
0
  0
LTYPE
  5
1F9
100
AcDbSymbolTableRecord
100
AcDbLinetypeTableRecord
  2
DASHED
 70
64
  3
- - - - - - - - - - - - - - - - - - - -
 72
65
 73
2
 40
0.2
 49
0.1
 74
0
 49
-0.1
 74
0
  0
ENDTAB
  0
TABLE
  2
LAYER
  5
2
100
AcDbSymbolTable
 70
36
  0
LAYER
  5
10
100
AcDbSymbolTableRecord
100
AcDbLayerTableRecord
  2
0
 70
0
 62
7
  6
CONTINUOUS
370
-3
390
F
  0
LAYER
  5
1FA
100
AcDbSymbolTableRecord
100
AcDbLayerTableRecord
  2
DEFAULT_1
 70
0
 62
7
  6
CENTER
370
-3
390
F
  0
LAYER
  5
1FB
100
AcDbSymbolTableRecord
100
AcDbLayerTableRecord
  2
DEFAULT_2
 70
0
 62
7
  6
HIDDEN
370
-3
390
F
  0
LAYER
  5
1FC
100
AcDbSymbolTableRecord
100
AcDbLayerTableRecord
  2
DEFAULT_3
 70
0
 62
7
  6
PHANTOM
370
-3
390
F
  0
LAYER
  5
1FD
100
AcDbSymbolTableRecord
100
AcDbLayerTableRecord
  2
01___PRT_ALL_DTM_PLN
 70
0
 62
7
  6
CONTINUOUS
370
-3
390
F
  0
LAYER
  5
1FE
100
AcDbSymbolTableRecord
100
AcDbLayerTableRecord
  2
01___PRT_DEF_DTM_PLN
 70
0
 62
7
  6
CONTINUOUS
370
-3
390
F
  0
LAYER
  5
1FF
100
AcDbSymbolTableRecord
100
AcDbLayerTableRecord
  2
02___PRT_ALL_AXES
 70
0
 62
7
  6
CONTINUOUS
370
-3
390
F
  0
LAYER
  5
200
100
AcDbSymbolTableRecord
100
AcDbLayerTableRecord
  2
03___PRT_ALL_CURVES
 70
0
 62
7
  6
CONTINUOUS
370
-3
390
F
  0
LAYER
  5
201
100
AcDbSymbolTableRecord
100
AcDbLayerTableRecord
  2
04___PRT_ALL_DTM_PNT
 70
0
 62
7
  6
CONTINUOUS
370
-3
390
F
  0
LAYER
  5
202
100
AcDbSymbolTableRecord
100
AcDbLayerTableRecord
  2
05___PRT_ALL_DTM_CSYS
 70
0
 62
7
  6
CONTINUOUS
370
-3
390
F
  0
LAYER
  5
203
100
AcDbSymbolTableRecord
100
AcDbLayerTableRecord
  2
05___PRT_DEF_DTM_CSYS
 70
0
 62
7
  6
CONTINUOUS
370
-3
390
F
  0
LAYER
  5
204
100
AcDbSymbolTableRecord
100
AcDbLayerTableRecord
  2
06___PRT_ALL_SURFS
 70
0
 62
7
  6
CONTINUOUS
370
-3
390
F
  0
LAYER
  5
205
100
AcDbSymbolTableRecord
100
AcDbLayerTableRecord
  2
AXIS
 70
0
 62
7
  6
CONTINUOUS
370
-3
390
F
  0
LAYER
  5
206
100
AcDbSymbolTableRecord
100
AcDbLayerTableRecord
  2
AXIS_COSMETIC_THREADS
 70
0
 62
7
  6
CONTINUOUS
370
-3
390
F
  0
LAYER
  5
207
100
AcDbSymbolTableRecord
100
AcDbLayerTableRecord
  2
DATUM_CURVES
 70
0
 62
7
  6
CONTINUOUS
370
-3
390
F
  0
LAYER
  5
208
100
AcDbSymbolTableRecord
100
AcDbLayerTableRecord
  2
DATUM_PLANES
 70
0
 62
7
  6
CONTINUOUS
370
-3
390
F
  0
LAYER
  5
209
100
AcDbSymbolTableRecord
100
AcDbLayerTableRecord
  2
GEOMETRIC_TOLERANCES
 70
0
 62
7
  6
CONTINUOUS
370
-3
390
F
  0
LAYER
  5
20A
100
AcDbSymbolTableRecord
100
AcDbLayerTableRecord
  2
NOTES
 70
0
 62
7
  6
CONTINUOUS
370
-3
390
F
  0
LAYER
  5
20B
100
AcDbSymbolTableRecord
100
AcDbLayerTableRecord
  2
QUILTS
 70
0
 62
7
  6
CONTINUOUS
370
-3
390
F
  0
LAYER
  5
20C
100
AcDbSymbolTableRecord
100
AcDbLayerTableRecord
  2
SCHEME_DIMS
 70
0
 62
7
  6
CONTINUOUS
370
-3
390
F
  0
LAYER
  5
20D
100
AcDbSymbolTableRecord
100
AcDbLayerTableRecord
  2
SYMBOLS
 70
0
 62
7
  6
CONTINUOUS
370
-3
390
F
  0
ENDTAB
  0
TABLE
  2
STYLE
  5
3
100
AcDbSymbolTable
 70
1
  0
STYLE
  5
11
100
AcDbSymbolTableRecord
100
AcDbTextStyleTableRecord
  2
STANDARD
 70
0
 40
0.0
 41
1.0
 50
0.0
 71
0
 42
0.2
  3
txt
  4

  0
STYLE
  5
20E
100
AcDbSymbolTableRecord
100
AcDbTextStyleTableRecord
  2
TEXTSTYLE_1
 70
0
 40
0.0
 41
0.8
 50
0.0
 71
0
 42
0.2
  3
gdt
  4

  0
STYLE
  5
20F
100
AcDbSymbolTableRecord
100
AcDbTextStyleTableRecord
  2
TEXTSTYLE_2
 70
0
 40
0.0
 41
0.8
 50
0.0
 71
0
 42
0.2
  3
txt
  4

  0
STYLE
  5
210
100
AcDbSymbolTableRecord
100
AcDbTextStyleTableRecord
  2
TEXTSTYLE_3
 70
0
 40
0.0
 41
0.9
 50
0.0
 71
0
 42
0.2
  3
txt
  4

  0
STYLE
  5
211
100
AcDbSymbolTableRecord
100
AcDbTextStyleTableRecord
  2
TEXTSTYLE_4
 70
0
 40
0.0
 41
0.85
 50
0.0
 71
0
 42
0.2
  3
txt
  4

  0
STYLE
  5
212
100
AcDbSymbolTableRecord
100
AcDbTextStyleTableRecord
  2
TEXTSTYLE_5
 70
0
 40
0.0
 41
0.75
 50
0.0
 71
0
 42
0.2
  3
txt
  4

  0
STYLE
  5
213
100
AcDbSymbolTableRecord
100
AcDbTextStyleTableRecord
  2
TEXTSTYLE_6
 70
0
 40
0.0
 41
1.0
 50
0.0
 71
0
 42
0.2
  3
gdt
  4

  0
ENDTAB
  0
TABLE
  2
VIEW
  5
6
100
AcDbSymbolTable
 70
0
  0
ENDTAB
  0
TABLE
  2
UCS
  5
7
100
AcDbSymbolTable
 70
0
  0
ENDTAB
  0
TABLE
  2
APPID
  5
9
100
AcDbSymbolTable
 70
1
  0
APPID
  5
214
100
AcDbSymbolTableRecord
100
AcDbRegAppTableRecord
  2
ACAD
 70
0
  0
ENDTAB
  0
TABLE
  2
BLOCK_RECORD
  5
1
100
AcDbSymbolTable
 70
0
  0
BLOCK_RECORD
  5
215
100
AcDbSymbolTableRecord
100
AcDbBlockTableRecord
  2
*Model_Space
  0
BLOCK_RECORD
  5
216
100
AcDbSymbolTableRecord
100
AcDbBlockTableRecord
  2
*Paper_Space
  0
BLOCK_RECORD
  5
217
100
AcDbSymbolTableRecord
100
AcDbBlockTableRecord
  2
_FILLED
  0
BLOCK_RECORD
  5
218
100
AcDbSymbolTableRecord
100
AcDbBlockTableRecord
  2
*D0
  0
BLOCK_RECORD
  5
219
100
AcDbSymbolTableRecord
100
AcDbBlockTableRecord
  2
*D1
  0
BLOCK_RECORD
  5
21A
100
AcDbSymbolTableRecord
100
AcDbBlockTableRecord
  2
*D2
  0
BLOCK_RECORD
  5
21B
100
AcDbSymbolTableRecord
100
AcDbBlockTableRecord
  2
*D3
  0
BLOCK_RECORD
  5
21C
100
AcDbSymbolTableRecord
100
AcDbBlockTableRecord
  2
*D4
  0
BLOCK_RECORD
  5
21D
100
AcDbSymbolTableRecord
100
AcDbBlockTableRecord
  2
*D5
  0
BLOCK_RECORD
  5
21E
100
AcDbSymbolTableRecord
100
AcDbBlockTableRecord
  2
*T1
  0
ENDTAB
  0
TABLE
  2
DIMSTYLE
  5
A
100
AcDbSymbolTable
 70
1
100
AcDbDimStyleTable
 71
0
  0
DIMSTYLE
105
21F
100
AcDbSymbolTableRecord
100
AcDbDimStyleTableRecord
  2
STANDARD
 70
0
  3

  4

 40
1.0
 41
0.1875
 42
0.0625
 43
0.38
 44
0.125
 45
0.0
 46
0.0
 47
0.005
 48
0.005
140
0.1
141
0.09
142
0.0
143
1.0
144
1.0
145
0.0
146
1.0
147
0.09
 71
1.0
 72
0.0
 73
1
 74
1
 75
0
 76
0
 77
0
 78
0
 79
0
170
1
171
2
172
0
173
0
174
0
175
0
176
0
177
0
178
0
270
2
179
3
271
3
272
3
273
2
274
2
275
0
280
0
281
0
282
0
283
1
284
0
285
0
286
0
287
3
288
0
340
11
278
46
341
217
342
217
343
217
344
217
  0
DIMSTYLE
105
220
100
AcDbSymbolTableRecord
100
AcDbDimStyleTableRecord
  2
DIMSTYLE_1
 70
0
  3
<>
  4

 40
1.0
 41
0.1875
 42
0.0625
 43
0.38
 44
0.125
 45
0.0
 46
0.0
 47
0.1
 48
0.1
140
0.1
141
0.09
142
0.0
143
1.0
144
1.0
145
0.0
146
1.0
147
0.09
 71
0.0
 72
0.0
 73
1
 74
1
 75
0
 76
0
 77
0
 78
0
 79
0
170
1
171
2
172
1
173
0
174
0
175
0
176
0
177
0
178
0
270
2
179
3
271
1
272
3
273
2
274
4
275
0
280
0
281
0
282
0
283
1
284
0
285
0
286
0
287
3
288
1
340
11
278
46
289
2
341
217
342
217
343
217
344
217
  0
DIMSTYLE
105
221
100
AcDbSymbolTableRecord
100
AcDbDimStyleTableRecord
  2
DIMSTYLE_2
 70
0
  3

  4

 40
1.0
 41
0.1875
 42
0.0625
 43
0.38
 44
0.125
 45
0.0
 46
0.0
 47
0.1
 48
0.1
140
0.1
141
0.09
142
0.0
143
1.0
144
1.0
145
0.0
146
1.0
147
0.1
 71
0.0
 72
0.0
 73
1
 74
1
 75
0
 76
0
 77
0
 78
0
 79
0
170
1
171
2
172
0
173
0
174
0
175
0
176
0
177
0
178
0
270
2
179
3
271
1
272
3
273
2
274
4
275
0
280
0
281
0
282
0
283
1
284
0
285
0
286
0
287
3
288
0
340
11
278
46
341
217
342
217
343
217
344
217
  0
ENDTAB
  0
ENDSEC
  0
SECTION
  2
BLOCKS
  0
BLOCK
  5
20
100
AcDbEntity
  8
0
100
AcDbBlockBegin
  2
*Model_Space
 70
0
 10
0.0
 20
0.0
 30
0.0
  3
*Model_Space
  1

  0
ENDBLK
  5
21
100
AcDbEntity
  8
0
100
AcDbBlockEnd
  0
BLOCK
  5
1C
100
AcDbEntity
  8
0
100
AcDbBlockBegin
  2
*Paper_Space
 70
0
 10
0.0
 20
0.0
 30
0.0
  3
*Paper_Space
  1

  0
ENDBLK
  5
1D
100
AcDbEntity
  8
0
100
AcDbBlockEnd
  0
BLOCK
  5
222
100
AcDbEntity
  8
0
100
AcDbBlockBegin
  2
_FILLED
 70
64
 10
0.0
 20
0.0
  3
_FILLED
  1

  0
SOLID
  5
223
100
AcDbEntity
  8
0
  6
BYBLOCK
 62
0
100
AcDbTrace
 10
0.0
 20
0.0
 11
-1.0
 21
0.1666666667
 12
-1.0
 22
-0.1666666667
 13
-1.0
 23
-0.1666666667
  0
ENDBLK
  5
224
100
AcDbEntity
  8
0
  6
BYBLOCK
 62
0
100
AcDbBlockEnd
  0
BLOCK
  5
225
100
AcDbEntity
  8
SCHEME_DIMS
100
AcDbBlockBegin
 62
7
  6
CONTINUOUS
  2
*D0
 70
65
 10
0.0
 20
0.0
  3
*D0
  1

  0
MTEXT
  5
226
100
AcDbEntity
  8
SCHEME_DIMS
100
AcDbMText
 62
7
  6
CONTINUOUS
  7
TEXTSTYLE_6
 71
1
 72
1
 10
8.6665227165
 20
5.4638008569
 30
0.0
 11
1.0
 21
0.0
 31
0.0
 73
2
 44
0.9
  1
{\fgdt;n}\ftxt;50.5\P[1.99]
 40
0.1
 41
0.6
  0
LINE
  5
227
100
AcDbEntity
  8
SCHEME_DIMS
100
AcDbLine
 62
7
  6
CONTINUOUS
 10
8.3183760949
 20
5.3114506029
 11
7.6303340503
 21
4.5939396299
  0
LINE
  5
228
100
AcDbEntity
  8
SCHEME_DIMS
100
AcDbLine
 62
7
  6
CONTINUOUS
 10
7.6303340503
 20
4.5939396299
 11
8.4165227165
 21
5.4138008569
  0
LINE
  5
229
100
AcDbEntity
  8
SCHEME_DIMS
100
AcDbLine
 62
7
  6
CONTINUOUS
 10
8.4165227165
 20
5.4138008569
 11
8.5665227165
 21
5.4138008569
  0
LINE
  5
22A
100
AcDbEntity
  8
SCHEME_DIMS
100
AcDbLine
 62
7
  6
CONTINUOUS
 10
6.9422920058
 20
3.8764286568
 11
7.6303340503
 21
4.5939396299
  0
INSERT
  5
22B
100
AcDbEntity
  8
SCHEME_DIMS
100
AcDbBlockReference
 62
7
  6
CONTINUOUS
  2
_FILLED
 10
8.3183760949
 20
5.3114506029
 41
0.1875
 42
0.1875
 43
0.1875
 50
46.2010915808
  0
INSERT
  5
22C
100
AcDbEntity
  8
SCHEME_DIMS
100
AcDbBlockReference
 62
7
  6
CONTINUOUS
  2
_FILLED
 10
6.9422920058
 20
3.8764286568
 41
0.1875
 42
0.1875
 43
0.1875
 50
226.2010915808
  0
ENDBLK
  5
22D
100
AcDbEntity
  8
0
  6
BYBLOCK
 62
0
100
AcDbBlockEnd
  0
BLOCK
  5
22E
100
AcDbEntity
  8
SCHEME_DIMS
100
AcDbBlockBegin
 62
7
  6
CONTINUOUS
  2
*D1
 70
65
 10
0.0
 20
0.0
  3
*D1
  1

  0
MTEXT
  5
22F
100
AcDbEntity
  8
SCHEME_DIMS
100
AcDbMText
 62
7
  6
CONTINUOUS
  7
TEXTSTYLE_6
 71
2
 72
1
 10
7.5303340503
 20
6.652308836
 30
0.0
 11
1.0
 21
0.0
 31
0.0
 73
2
 44
0.9
  1
{\fgdt;n}\ftxt;45.0\P[1.77]
 40
0.1
 41
0.6
  0
LINE
  5
230
100
AcDbEntity
  8
SCHEME_DIMS
100
AcDbLine
 62
7
  6
CONTINUOUS
 10
6.7445072787
 20
8.3148927282
 11
6.7445072787
 21
7.6751370949
  0
LINE
  5
231
100
AcDbEntity
  8
SCHEME_DIMS
100
AcDbLine
 62
7
  6
CONTINUOUS
 10
6.7445072787
 20
7.4713942126
 11
6.7445072787
 21
7.2112720719
  0
LINE
  5
232
100
AcDbEntity
  8
SCHEME_DIMS
100
AcDbLine
 62
7
  6
CONTINUOUS
 10
6.7445072787
 20
6.9843121239
 11
6.7445072787
 21
6.477308836
  0
LINE
  5
233
100
AcDbEntity
  8
SCHEME_DIMS
100
AcDbLine
 62
7
  6
CONTINUOUS
 10
8.516160822
 20
8.3136096376
 11
8.516160822
 21
6.477308836
  0
LINE
  5
234
100
AcDbEntity
  8
SCHEME_DIMS
100
AcDbLine
 62
7
  6
CONTINUOUS
 10
6.7445072787
 20
6.602308836
 11
7.1636673837
 21
6.602308836
  0
LINE
  5
235
100
AcDbEntity
  8
SCHEME_DIMS
100
AcDbLine
 62
7
  6
CONTINUOUS
 10
8.516160822
 20
6.602308836
 11
8.097000717
 21
6.602308836
  0
INSERT
  5
236
100
AcDbEntity
  8
SCHEME_DIMS
100
AcDbBlockReference
 62
7
  6
CONTINUOUS
  2
_FILLED
 10
6.7445072787
 20
6.602308836
 41
0.1875
 42
0.1875
 43
0.1875
 50
180.0
  0
INSERT
  5
237
100
AcDbEntity
  8
SCHEME_DIMS
100
AcDbBlockReference
 62
7
  6
CONTINUOUS
  2
_FILLED
 10
8.516160822
 20
6.602308836
 41
0.1875
 42
0.1875
 43
0.1875
  0
ENDBLK
  5
238
100
AcDbEntity
  8
0
  6
BYBLOCK
 62
0
100
AcDbBlockEnd
  0
BLOCK
  5
239
100
AcDbEntity
  8
SCHEME_DIMS
100
AcDbBlockBegin
 62
7
  6
CONTINUOUS
  2
*D2
 70
65
 10
0.0
 20
0.0
  3
*D2
  1

  0
MTEXT
  5
23A
100
AcDbEntity
  8
SCHEME_DIMS
100
AcDbMText
 62
7
  6
CONTINUOUS
  7
STANDARD
 71
2
 72
1
 10
8.9698991098
 20
7.3399225111
 30
0.0
 11
1.0
 21
0.0
 31
0.0
 73
2
 44
0.9
  1
12.0\P[.47]
 40
0.1
 41
0.5
  0
LINE
  5
23B
100
AcDbEntity
  8
SCHEME_DIMS
100
AcDbLine
 62
7
  6
CONTINUOUS
 10
7.9014954677
 20
7.0537020387
 11
9.1448991098
 21
7.0537020387
  0
LINE
  5
23C
100
AcDbEntity
  8
SCHEME_DIMS
100
AcDbLine
 62
7
  6
CONTINUOUS
 10
8.2174403496
 20
7.5261429836
 11
9.1448991098
 21
7.5261429836
  0
LINE
  5
23D
100
AcDbEntity
  8
SCHEME_DIMS
100
AcDbLine
 62
7
  6
CONTINUOUS
 10
9.0198991098
 20
7.0537020387
 11
9.0198991098
 21
6.6537020387
  0
LINE
  5
23E
100
AcDbEntity
  8
SCHEME_DIMS
100
AcDbLine
 62
7
  6
CONTINUOUS
 10
9.0198991098
 20
7.5261429836
 11
9.0198991098
 21
7.9261429836
  0
INSERT
  5
23F
100
AcDbEntity
  8
SCHEME_DIMS
100
AcDbBlockReference
 62
7
  6
CONTINUOUS
  2
_FILLED
 10
9.0198991098
 20
7.0537020387
 41
0.1875
 42
0.1875
 43
0.1875
 50
90.0
  0
INSERT
  5
240
100
AcDbEntity
  8
SCHEME_DIMS
100
AcDbBlockReference
 62
7
  6
CONTINUOUS
  2
_FILLED
 10
9.0198991098
 20
7.5261429836
 41
0.1875
 42
0.1875
 43
0.1875
 50
270.0
  0
ENDBLK
  5
241
100
AcDbEntity
  8
0
  6
BYBLOCK
 62
0
100
AcDbBlockEnd
  0
BLOCK
  5
242
100
AcDbEntity
  8
SCHEME_DIMS
100
AcDbBlockBegin
 62
7
  6
CONTINUOUS
  2
*D3
 70
65
 10
0.0
 20
0.0
  3
*D3
  1

  0
MTEXT
  5
243
100
AcDbEntity
  8
SCHEME_DIMS
100
AcDbMText
 62
7
  6
CONTINUOUS
  7
STANDARD
 71
2
 72
1
 10
9.8008463141
 20
7.7206472641
 30
0.0
 11
1.0
 21
0.0
 31
0.0
 73
2
 44
0.9
  1
31.0\P[1.22]
 40
0.1
 41
0.6
  0
LINE
  5
244
100
AcDbEntity
  8
SCHEME_DIMS
100
AcDbLine
 62
7
  6
CONTINUOUS
 10
7.8965742078
 20
7.0604110436
 11
10.0258463141
 21
7.0604110436
  0
LINE
  5
245
100
AcDbEntity
  8
SCHEME_DIMS
100
AcDbLine
 62
7
  6
CONTINUOUS
 10
8.4487395622
 20
8.2808834846
 11
10.0258463141
 21
8.2808834846
  0
LINE
  5
246
100
AcDbEntity
  8
SCHEME_DIMS
100
AcDbLine
 62
7
  6
CONTINUOUS
 10
9.9008463141
 20
7.0604110436
 11
9.9008463141
 21
7.3706472641
  0
LINE
  5
247
100
AcDbEntity
  8
SCHEME_DIMS
100
AcDbLine
 62
7
  6
CONTINUOUS
 10
9.9008463141
 20
8.2808834846
 11
9.9008463141
 21
7.8206472641
  0
INSERT
  5
248
100
AcDbEntity
  8
SCHEME_DIMS
100
AcDbBlockReference
 62
7
  6
CONTINUOUS
  2
_FILLED
 10
9.9008463141
 20
7.0604110436
 41
0.1875
 42
0.1875
 43
0.1875
 50
270.0
  0
INSERT
  5
249
100
AcDbEntity
  8
SCHEME_DIMS
100
AcDbBlockReference
 62
7
  6
CONTINUOUS
  2
_FILLED
 10
9.9008463141
 20
8.2808834846
 41
0.1875
 42
0.1875
 43
0.1875
 50
90.0
  0
ENDBLK
  5
24A
100
AcDbEntity
  8
0
  6
BYBLOCK
 62
0
100
AcDbBlockEnd
  0
BLOCK
  5
24B
100
AcDbEntity
  8
SCHEME_DIMS
100
AcDbBlockBegin
 62
7
  6
CONTINUOUS
  2
*D4
 70
65
 10
0.0
 20
0.0
  3
*D4
  1

  0
MTEXT
  5
24C
100
AcDbEntity
  8
SCHEME_DIMS
100
AcDbMText
 62
7
  6
CONTINUOUS
  7
STANDARD
 71
2
 72
1
 10
10.483939026
 20
10.6155130623
 30
0.0
 11
1.0
 21
0.0
 31
0.0
 73
2
 44
0.9
  1
178.1\P[7.01]
 40
0.1
 41
0.6
  0
LINE
  5
24D
100
AcDbEntity
  8
SCHEME_DIMS
100
AcDbLine
 62
7
  6
CONTINUOUS
 10
8.578660822
 20
14.070615081
 11
10.658939026
 21
14.070615081
  0
LINE
  5
24E
100
AcDbEntity
  8
SCHEME_DIMS
100
AcDbLine
 62
7
  6
CONTINUOUS
 10
7.8965742078
 20
7.0604110436
 11
10.658939026
 21
7.0604110436
  0
LINE
  5
24F
100
AcDbEntity
  8
SCHEME_DIMS
100
AcDbLine
 62
7
  6
CONTINUOUS
 10
10.533939026
 20
14.070615081
 11
10.533939026
 21
10.7155130623
  0
LINE
  5
250
100
AcDbEntity
  8
SCHEME_DIMS
100
AcDbLine
 62
7
  6
CONTINUOUS
 10
10.533939026
 20
7.0604110436
 11
10.533939026
 21
10.2655130623
  0
INSERT
  5
251
100
AcDbEntity
  8
SCHEME_DIMS
100
AcDbBlockReference
 62
7
  6
CONTINUOUS
  2
_FILLED
 10
10.533939026
 20
14.070615081
 41
0.1875
 42
0.1875
 43
0.1875
 50
90.0
  0
INSERT
  5
252
100
AcDbEntity
  8
SCHEME_DIMS
100
AcDbBlockReference
 62
7
  6
CONTINUOUS
  2
_FILLED
 10
10.533939026
 20
7.0604110436
 41
0.1875
 42
0.1875
 43
0.1875
 50
270.0
  0
ENDBLK
  5
253
100
AcDbEntity
  8
0
  6
BYBLOCK
 62
0
100
AcDbBlockEnd
  0
BLOCK
  5
254
100
AcDbEntity
  8
SCHEME_DIMS
100
AcDbBlockBegin
 62
7
  6
CONTINUOUS
  2
*D5
 70
65
 10
0.0
 20
0.0
  3
*D5
  1

  0
MTEXT
  5
255
100
AcDbEntity
  8
SCHEME_DIMS
100
AcDbMText
 62
7
  6
CONTINUOUS
  7
STANDARD
 71
2
 72
1
 10
5.8985902693
 20
9.9626856294
 30
0.0
 11
1.0
 21
0.0
 31
0.0
 73
2
 44
0.9
  1
3X 27.2\P[1.07]
 40
0.1
 41
0.7
  0
LINE
  5
256
100
AcDbEntity
  8
SCHEME_DIMS
100
AcDbLine
 62
7
  6
CONTINUOUS
 10
6.57767657
 20
9.2808834846
 11
5.8735902693
 21
9.2808834846
  0
LINE
  5
257
100
AcDbEntity
  8
SCHEME_DIMS
100
AcDbLine
 62
7
  6
CONTINUOUS
 10
6.57767657
 20
10.3517496263
 11
5.8735902693
 21
10.3517496263
  0
LINE
  5
258
100
AcDbEntity
  8
SCHEME_DIMS
100
AcDbLine
 62
7
  6
CONTINUOUS
 10
5.9985902693
 20
9.2808834846
 11
5.9985902693
 21
9.6126856294
  0
LINE
  5
259
100
AcDbEntity
  8
SCHEME_DIMS
100
AcDbLine
 62
7
  6
CONTINUOUS
 10
5.9985902693
 20
10.3517496263
 11
5.9985902693
 21
10.0626856294
  0
INSERT
  5
25A
100
AcDbEntity
  8
SCHEME_DIMS
100
AcDbBlockReference
 62
7
  6
CONTINUOUS
  2
_FILLED
 10
5.9985902693
 20
9.2808834846
 41
0.1875
 42
0.1875
 43
0.1875
 50
270.0
  0
INSERT
  5
25B
100
AcDbEntity
  8
SCHEME_DIMS
100
AcDbBlockReference
 62
7
  6
CONTINUOUS
  2
_FILLED
 10
5.9985902693
 20
10.3517496263
 41
0.1875
 42
0.1875
 43
0.1875
 50
90.0
  0
ENDBLK
  5
25C
100
AcDbEntity
  8
0
  6
BYBLOCK
 62
0
100
AcDbBlockEnd
  0
BLOCK
  5
25D
100
AcDbEntity
  8
0
100
AcDbBlockBegin
  2
*T1
 70
1
 10
0.0
 20
0.0
  3
*T1
  1

  0
LINE
  5
25E
100
AcDbEntity
  8
0
100
AcDbLine
 62
7
  6
CONTINUOUS
 10
4.35
 20
0.0
 11
0.0
 21
0.0
  0
LINE
  5
25F
100
AcDbEntity
  8
0
100
AcDbLine
 62
7
  6
CONTINUOUS
 10
4.35
 20
0.0
 11
4.35
 21
1.92
  0
LINE
  5
260
100
AcDbEntity
  8
0
100
AcDbLine
 62
7
  6
CONTINUOUS
 10
4.35
 20
1.92
 11
0.0
 21
1.92
  0
LINE
  5
261
100
AcDbEntity
  8
0
100
AcDbLine
 62
7
  6
CONTINUOUS
 10
0.0
 20
0.0
 11
0.0
 21
1.92
  0
MTEXT
  5
262
100
AcDbEntity
  8
NOTES
100
AcDbMText
 62
7
  6
CONTINUOUS
  7
STANDARD
 71
2
 72
1
 10
4.125
 20
0.48
 30
0.0
 11
1.0
 21
0.0
 31
0.0
 73
2
 44
0.9
  1
A
 40
0.1
 41
0.2
  0
MTEXT
  5
263
100
AcDbEntity
  8
NOTES
100
AcDbMText
 62
7
  6
CONTINUOUS
  7
STANDARD
 71
2
 72
1
 10
2.175
 20
1.08
 30
0.0
 11
1.0
 21
0.0
 31
0.0
 73
2
 44
0.9
  1
TL50 BASIC 3 STACK QD \P 
 40
0.1
 41
4.4
  0
ENDBLK
  5
264
100
AcDbEntity
  8
0
  6
BYBLOCK
 62
0
100
AcDbBlockEnd
  0
ENDSEC
  0
SECTION
  2
ENTITIES
  0
MTEXT
  5
265
100
AcDbEntity
  8
0
100
AcDbMText
 62
7
  6
CONTINUOUS
  7
TEXTSTYLE_2
 71
2
 72
1
 10
15.7174677477
 20
1.6655662523
 30
0.0
 11
1.0
 21
0.0
 31
0.0
 73
2
 44
0.9
  1
\LTHIRD ANGLE PROJECTION\l
 40
0.1
 41
1.76
  0
MTEXT
  5
266
100
AcDbEntity
  8
0
100
AcDbMText
 62
7
  6
CONTINUOUS
  7
STANDARD
 71
1
 72
1
 10
17.55
 20
1.32
 30
0.0
 11
1.0
 21
0.0
 31
0.0
 73
2
 44
0.9
  1
DRAWING NO.
 40
0.08
 41
0.88
  0
MTEXT
  5
267
100
AcDbEntity
  8
0
100
AcDbMText
 62
7
  6
CONTINUOUS
  7
TEXTSTYLE_2
 71
1
 72
1
 10
16.75
 20
2.08
 30
0.0
 11
1.0
 21
0.0
 31
0.0
 73
2
 44
0.9
  1
TITLE
 40
0.1
 41
0.4
  0
MTEXT
  5
268
100
AcDbEntity
  8
0
100
AcDbMText
 62
7
  6
CONTINUOUS
  7
STANDARD
 71
1
 72
1
 10
16.75
 20
1.32
 30
0.0
 11
1.0
 21
0.0
 31
0.0
 73
2
 44
0.9
  1
SIZE
 40
0.08
 41
0.32
  0
MTEXT
  5
269
100
AcDbEntity
  8
0
100
AcDbMText
 62
7
  6
CONTINUOUS
  7
STANDARD
 71
1
 72
1
 10
16.75
 20
0.95
 30
0.0
 11
1.0
 21
0.0
 31
0.0
 73
2
 44
0.9
  1
SCALE
 40
0.08
 41
0.4
  0
MTEXT
  5
26A
100
AcDbEntity
  8
0
100
AcDbMText
 62
7
  6
CONTINUOUS
  7
TEXTSTYLE_2
 71
2
 72
1
 10
17.17
 20
1.2
 30
0.0
 11
1.0
 21
0.0
 31
0.0
 73
2
 44
0.9
  1
C
 40
0.1
 41
0.08
  0
MTEXT
  5
26B
100
AcDbEntity
  8
0
100
AcDbMText
 62
7
  6
CONTINUOUS
  7
STANDARD
 71
1
 72
1
 10
18.925
 20
0.95
 30
0.0
 11
1.0
 21
0.0
 31
0.0
 73
2
 44
0.9
  1
SHEET
 40
0.08
 41
0.4
  0
MTEXT
  5
26C
100
AcDbEntity
  8
0
100
AcDbMText
 62
7
  6
CONTINUOUS
  7
STANDARD
 71
1
 72
1
 10
20.3
 20
1.32
 30
0.0
 11
1.0
 21
0.0
 31
0.0
 73
2
 44
0.9
  1
REV.
 40
0.08
 41
0.32
  0
MTEXT
  5
26D
100
AcDbEntity
  8
0
100
AcDbMText
 62
7
  6
CONTINUOUS
  7
STANDARD
 71
3
 72
1
 10
21.05
 20
0.698443
 30
0.0
 11
1.0
 21
0.0
 31
0.0
 73
2
 44
0.9
  1
CREO
 40
0.07
 41
0.28
  0
MTEXT
  5
26E
100
AcDbEntity
  8
0
100
AcDbMText
 62
7
  6
CONTINUOUS
  7
TEXTSTYLE_2
 71
2
 72
1
 10
12.257
 20
15.95
 30
0.0
 11
1.0
 21
0.0
 31
0.0
 73
2
 44
0.9
  1
4
 40
0.1
 41
0.08
  0
MTEXT
  5
26F
100
AcDbEntity
  8
0
100
AcDbMText
 62
7
  6
CONTINUOUS
  7
TEXTSTYLE_2
 71
2
 72
1
 10
12.257
 20
0.65
 30
0.0
 11
1.0
 21
0.0
 31
0.0
 73
2
 44
0.9
  1
4
 40
0.1
 41
0.08
  0
MTEXT
  5
270
100
AcDbEntity
  8
0
100
AcDbMText
 62
7
  6
CONTINUOUS
  7
TEXTSTYLE_2
 71
3
 72
1
 10
0.864
 20
6.375
 30
0.0
 11
1.0
 21
0.0
 31
0.0
 73
2
 44
0.9
  1
B
 40
0.1
 41
0.08
  0
MTEXT
  5
271
100
AcDbEntity
  8
0
100
AcDbMText
 62
7
  6
CONTINUOUS
  7
TEXTSTYLE_2
 71
1
 72
1
 10
21.15
 20
6.375
 30
0.0
 11
1.0
 21
0.0
 31
0.0
 73
2
 44
0.9
  1
B
 40
0.1
 41
0.08
  0
MTEXT
  5
272
100
AcDbEntity
  8
0
100
AcDbMText
 62
7
  6
CONTINUOUS
  7
TEXTSTYLE_2
 71
3
 72
1
 10
0.864
 20
2.525
 30
0.0
 11
1.0
 21
0.0
 31
0.0
 73
2
 44
0.9
  1
A
 40
0.1
 41
0.08
  0
MTEXT
  5
273
100
AcDbEntity
  8
0
100
AcDbMText
 62
7
  6
CONTINUOUS
  7
TEXTSTYLE_2
 71
1
 72
1
 10
21.15
 20
2.525
 30
0.0
 11
1.0
 21
0.0
 31
0.0
 73
2
 44
0.9
  1
A
 40
0.1
 41
0.08
  0
MTEXT
  5
274
100
AcDbEntity
  8
0
100
AcDbMText
 62
7
  6
CONTINUOUS
  7
TEXTSTYLE_2
 71
3
 72
1
 10
0.864
 20
14.075
 30
0.0
 11
1.0
 21
0.0
 31
0.0
 73
2
 44
0.9
  1
D
 40
0.1
 41
0.08
  0
MTEXT
  5
275
100
AcDbEntity
  8
0
100
AcDbMText
 62
7
  6
CONTINUOUS
  7
TEXTSTYLE_2
 71
1
 72
1
 10
21.15
 20
14.075
 30
0.0
 11
1.0
 21
0.0
 31
0.0
 73
2
 44
0.9
  1
D
 40
0.1
 41
0.08
  0
MTEXT
  5
276
100
AcDbEntity
  8
0
100
AcDbMText
 62
7
  6
CONTINUOUS
  7
TEXTSTYLE_2
 71
3
 72
1
 10
0.864
 20
10.225
 30
0.0
 11
1.0
 21
0.0
 31
0.0
 73
2
 44
0.9
  1
C
 40
0.1
 41
0.08
  0
MTEXT
  5
277
100
AcDbEntity
  8
0
100
AcDbMText
 62
7
  6
CONTINUOUS
  7
TEXTSTYLE_2
 71
1
 72
1
 10
21.15
 20
10.225
 30
0.0
 11
1.0
 21
0.0
 31
0.0
 73
2
 44
0.9
  1
C
 40
0.1
 41
0.08
  0
MTEXT
  5
278
100
AcDbEntity
  8
0
100
AcDbMText
 62
7
  6
CONTINUOUS
  7
TEXTSTYLE_2
 71
2
 72
1
 10
14.757
 20
0.65
 30
0.0
 11
1.0
 21
0.0
 31
0.0
 73
2
 44
0.9
  1
3
 40
0.1
 41
0.08
  0
MTEXT
  5
279
100
AcDbEntity
  8
0
100
AcDbMText
 62
7
  6
CONTINUOUS
  7
TEXTSTYLE_2
 71
2
 72
1
 10
14.757
 20
15.95
 30
0.0
 11
1.0
 21
0.0
 31
0.0
 73
2
 44
0.9
  1
3
 40
0.1
 41
0.08
  0
MTEXT
  5
27A
100
AcDbEntity
  8
0
100
AcDbMText
 62
7
  6
CONTINUOUS
  7
TEXTSTYLE_2
 71
2
 72
1
 10
17.257
 20
15.95
 30
0.0
 11
1.0
 21
0.0
 31
0.0
 73
2
 44
0.9
  1
2
 40
0.1
 41
0.08
  0
MTEXT
  5
27B
100
AcDbEntity
  8
0
100
AcDbMText
 62
7
  6
CONTINUOUS
  7
TEXTSTYLE_2
 71
2
 72
1
 10
17.257
 20
0.65
 30
0.0
 11
1.0
 21
0.0
 31
0.0
 73
2
 44
0.9
  1
2
 40
0.1
 41
0.08
  0
MTEXT
  5
27C
100
AcDbEntity
  8
0
100
AcDbMText
 62
7
  6
CONTINUOUS
  7
TEXTSTYLE_2
 71
2
 72
1
 10
19.757
 20
0.65
 30
0.0
 11
1.0
 21
0.0
 31
0.0
 73
2
 44
0.9
  1
1
 40
0.1
 41
0.08
  0
MTEXT
  5
27D
100
AcDbEntity
  8
0
100
AcDbMText
 62
7
  6
CONTINUOUS
  7
TEXTSTYLE_2
 71
2
 72
1
 10
19.757
 20
15.95
 30
0.0
 11
1.0
 21
0.0
 31
0.0
 73
2
 44
0.9
  1
1
 40
0.1
 41
0.08
  0
MTEXT
  5
27E
100
AcDbEntity
  8
0
100
AcDbMText
 62
7
  6
CONTINUOUS
  7
TEXTSTYLE_2
 71
2
 72
1
 10
2.257
 20
0.65
 30
0.0
 11
1.0
 21
0.0
 31
0.0
 73
2
 44
0.9
  1
8
 40
0.1
 41
0.08
  0
MTEXT
  5
27F
100
AcDbEntity
  8
0
100
AcDbMText
 62
7
  6
CONTINUOUS
  7
TEXTSTYLE_2
 71
2
 72
1
 10
4.757
 20
0.65
 30
0.0
 11
1.0
 21
0.0
 31
0.0
 73
2
 44
0.9
  1
7
 40
0.1
 41
0.08
  0
MTEXT
  5
280
100
AcDbEntity
  8
0
100
AcDbMText
 62
7
  6
CONTINUOUS
  7
TEXTSTYLE_2
 71
2
 72
1
 10
7.257
 20
0.65
 30
0.0
 11
1.0
 21
0.0
 31
0.0
 73
2
 44
0.9
  1
6
 40
0.1
 41
0.08
  0
MTEXT
  5
281
100
AcDbEntity
  8
0
100
AcDbMText
 62
7
  6
CONTINUOUS
  7
TEXTSTYLE_2
 71
2
 72
1
 10
9.757
 20
0.65
 30
0.0
 11
1.0
 21
0.0
 31
0.0
 73
2
 44
0.9
  1
5
 40
0.1
 41
0.08
  0
MTEXT
  5
282
100
AcDbEntity
  8
0
100
AcDbMText
 62
7
  6
CONTINUOUS
  7
TEXTSTYLE_2
 71
2
 72
1
 10
9.757
 20
15.95
 30
0.0
 11
1.0
 21
0.0
 31
0.0
 73
2
 44
0.9
  1
5
 40
0.1
 41
0.08
  0
MTEXT
  5
283
100
AcDbEntity
  8
0
100
AcDbMText
 62
7
  6
CONTINUOUS
  7
TEXTSTYLE_2
 71
2
 72
1
 10
7.257
 20
15.95
 30
0.0
 11
1.0
 21
0.0
 31
0.0
 73
2
 44
0.9
  1
6
 40
0.1
 41
0.08
  0
MTEXT
  5
284
100
AcDbEntity
  8
0
100
AcDbMText
 62
7
  6
CONTINUOUS
  7
TEXTSTYLE_2
 71
2
 72
1
 10
4.757
 20
15.95
 30
0.0
 11
1.0
 21
0.0
 31
0.0
 73
2
 44
0.9
  1
7
 40
0.1
 41
0.08
  0
MTEXT
  5
285
100
AcDbEntity
  8
0
100
AcDbMText
 62
7
  6
CONTINUOUS
  7
TEXTSTYLE_2
 71
2
 72
1
 10
2.257
 20
15.95
 30
0.0
 11
1.0
 21
0.0
 31
0.0
 73
2
 44
0.9
  1
8
 40
0.1
 41
0.08
  0
MTEXT
  5
286
100
AcDbEntity
  8
0
100
AcDbMText
 62
7
  6
CONTINUOUS
  7
STANDARD
 71
1
 72
1
 10
17.2749123633
 20
0.9184107931
 30
0.0
 11
1.0
 21
0.0
 31
0.0
 73
2
 44
0.9
  1
1:1
 40
0.1
 41
0.3
  0
MTEXT
  5
287
100
AcDbEntity
  8
0
100
AcDbMText
 62
7
  6
CONTINUOUS
  7
STANDARD
 71
1
 72
1
 10
19.4499123633
 20
0.9184107931
 30
0.0
 11
1.0
 21
0.0
 31
0.0
 73
2
 44
0.9
  1
1 OF 1
 40
0.1
 41
0.6
  0
MTEXT
  5
288
100
AcDbEntity
  8
0
100
AcDbMText
 62
7
  6
CONTINUOUS
  7
STANDARD
 71
1
 72
1
 10
18.5204017884
 20
1.2400373234
 30
0.0
 11
1.0
 21
0.0
 31
0.0
 73
2
 44
0.9
  1
212914
 40
0.12
 41
0.72
  0
MTEXT
  5
289
100
AcDbEntity
  8
0
100
AcDbMText
 62
7
  6
CONTINUOUS
  7
STANDARD
 71
1
 72
1
 10
1.2857894151
 20
1.4458068967
 30
0.0
 11
1.0
 21
0.0
 31
0.0
 73
2
 44
0.9
  1
NOTES:\P1. ALL DIMENSIONS ARE MILLIMETERS [INCHES] UNLESS OTHERWISE NOTED.\P2. REFER TO "www.bannerengineering.com" FOR ADDITIONAL DATA AND SPECIFICATIONS.
 40
0.1
 41
7.9
  0
MTEXT
  5
28A
100
AcDbEntity
  8
0
100
AcDbMText
 62
7
  6
CONTINUOUS
  7
TEXTSTYLE_3
 71
2
 72
1
 10
19.7555637832
 20
2.555409194
 30
0.0
 11
1.0
 21
0.0
 31
0.0
 73
2
 44
0.9
  1
BANNER ENGINEERING CORP.
 40
0.12
 41
2.592
  0
MTEXT
  5
28B
100
AcDbEntity
  8
0
100
AcDbMText
 62
7
  6
CONTINUOUS
  7
TEXTSTYLE_2
 71
2
 72
1
 10
19.6690932526
 20
2.3442032634
 30
0.0
 11
1.0
 21
0.0
 31
0.0
 73
2
 44
0.9
  1
www.bannerengineering.com
 40
0.1
 41
2.0
  0
MTEXT
  5
28C
100
AcDbEntity
  8
0
100
AcDbMText
 62
7
  6
CONTINUOUS
  7
TEXTSTYLE_4
 71
2
 72
1
 10
15.7104628329
 20
2.6377571551
 30
0.0
 11
1.0
 21
0.0
 31
0.0
 73
2
 44
0.9
  1
This drawing is the property\Pof BANNER ENGINEERING CORP.\PAny use or reproduction,\Pin any form, without prior\Pwritten permission of\PBanner is prohibited.
 40
0.08
 41
1.904
  0
MTEXT
  5
28D
100
AcDbEntity
  8
0
100
AcDbMText
 62
7
  6
CONTINUOUS
  7
TEXTSTYLE_5
 71
2
 72
1
 10
15.7283993136
 20
1.9032170366
 30
0.0
 11
1.0
 21
0.0
 31
0.0
 73
2
 44
0.9
  1
C  2015 Banner Engineering Corp.
 40
0.08
 41
1.92
  0
DIMENSION
  5
28E
100
AcDbEntity
  8
SCHEME_DIMS
100
AcDbDimension
 62
7
  6
CONTINUOUS
  2
*D0
 10
8.3183760949
 20
5.3114506029
 11
9.0331893832
 21
5.3388008569
 70
163
 71
1
 72
2
 41
0.9
 42
50.5
  1
%%c<>\P[]
  3
DIMSTYLE_1
100
AcDbDiametricDimension
 15
6.9422920058
 25
3.8764286568
  0
DIMENSION
  5
28F
100
AcDbEntity
  8
SCHEME_DIMS
100
AcDbDimension
 62
7
  6
CONTINUOUS
  2
*D1
 10
8.516160822
 20
6.602308836
 11
7.6303340503
 21
6.527308836
 70
160
 71
2
 72
2
 41
0.9
 42
45.0
  1
%%c<>\P[]
  3
DIMSTYLE_2
100
AcDbAlignedDimension
 13
6.7445072787
 23
8.3773927282
 14
8.516160822
 24
8.3761096376
100
AcDbRotatedDimension
  0
DIMENSION
  5
290
100
AcDbEntity
  8
SCHEME_DIMS
100
AcDbDimension
 62
7
  6
CONTINUOUS
  2
*D2
 10
9.0198991098
 20
7.5261429836
 11
9.0198991098
 21
7.2149225111
 70
160
 71
2
 72
2
 41
0.9
 42
12.0
  1
<>\P[]
  3
DIMSTYLE_2
100
AcDbAlignedDimension
 13
7.8389954677
 23
7.0537020387
 14
8.1549403496
 24
7.5261429836
 50
90.0
100
AcDbRotatedDimension
  0
DIMENSION
  5
291
100
AcDbEntity
  8
SCHEME_DIMS
100
AcDbDimension
 62
7
  6
CONTINUOUS
  2
*D3
 10
9.9008463141
 20
8.2808834846
 11
9.9008463141
 21
7.5956472641
 70
160
 71
2
 72
2
 41
0.9
 42
31.0
  1
<>\P[]
  3
DIMSTYLE_2
100
AcDbAlignedDimension
 13
7.8340742078
 23
7.0604110436
 14
8.3862395622
 24
8.2808834846
 50
90.0
100
AcDbRotatedDimension
  0
DIMENSION
  5
292
100
AcDbEntity
  8
SCHEME_DIMS
100
AcDbDimension
 62
7
  6
CONTINUOUS
  2
*D4
 10
10.533939026
 20
7.0604110436
 11
10.533939026
 21
10.4905130623
 70
160
 71
2
 72
2
 41
0.9
 42
178.0591825482
  1
<>\P[]
  3
DIMSTYLE_2
100
AcDbAlignedDimension
 13
8.516160822
 23
14.070615081
 14
7.8340742078
 24
7.0604110436
 50
270.0
100
AcDbRotatedDimension
  0
DIMENSION
  5
293
100
AcDbEntity
  8
SCHEME_DIMS
100
AcDbDimension
 62
7
  6
CONTINUOUS
  2
*D5
 10
5.9985902693
 20
10.3517496263
 11
5.9985902693
 21
9.8376856294
 70
160
 71
2
 72
2
 41
0.9
 42
27.2
  1
3X <>\P[]
  3
DIMSTYLE_2
100
AcDbAlignedDimension
 13
6.64017657
 23
9.2808834846
 14
6.64017657
 24
10.3517496263
 50
90.0
100
AcDbRotatedDimension
  0
ACAD_TABLE
  5
294
100
AcDbEntity
  8
0
 62
7
  6
CONTINUOUS
100
AcDbBlockReference
  2
*T1
 10
16.7
 20
0.75
 30
0.0
100
AcDbTable
342
       65F
343
21E
 11
1.0
 21
0.0
 31
0.0
 90
6
 91
3
 92
5
 93
4
 94
0
 95
0
 96
0
 70
1
141
0.33
141
0.45
141
1.14
142
0.65
142
1.15
142
1.025
142
1.075
142
0.45
171
1
172
0
173
0
174
0
175
1
176
1
 91
33
178
0
145
0.0
301
CELL_VALUE
 90
4
  1
 
304
ACVALUE_END
170
1
140
0.1
171
1
172
0
173
0
174
0
175
1
176
1
 91
33
178
0
145
0.0
301
CELL_VALUE
 90
4
  1
 
304
ACVALUE_END
170
1
140
0.1
171
1
172
0
173
0
174
0
175
1
176
1
 91
33
178
0
145
0.0
301
CELL_VALUE
 90
4
  1
 
304
ACVALUE_END
170
1
140
0.1
171
1
172
0
173
0
174
0
175
1
176
1
 91
33
178
0
145
0.0
301
CELL_VALUE
 90
4
  1
 
304
ACVALUE_END
170
1
140
0.1
171
1
172
0
173
0
174
0
175
1
176
1
 91
33
178
0
145
0.0
301
CELL_VALUE
 90
4
  1
 
304
ACVALUE_END
170
1
140
0.1
171
1
172
0
173
0
174
0
175
1
176
1
 91
33
178
0
145
0.0
301
CELL_VALUE
 90
4
  1
 
304
ACVALUE_END
170
1
140
0.1
171
1
172
0
173
0
174
0
175
1
176
1
 91
33
178
0
145
0.0
301
CELL_VALUE
 90
4
  1
 
304
ACVALUE_END
170
1
140
0.1
171
1
172
0
173
0
174
0
175
1
176
1
 91
33
178
0
145
0.0
301
CELL_VALUE
 90
4
  1
 
304
ACVALUE_END
170
1
140
0.1
171
1
172
0
173
0
174
0
175
1
176
1
 91
33
178
0
145
0.0
301
CELL_VALUE
 90
4
  1
 
304
ACVALUE_END
170
1
140
0.1
171
1
172
0
173
0
174
0
175
1
176
1
 91
41
178
0
145
0.0
301
CELL_VALUE
 90
4
  1
A
304
ACVALUE_END
170
8
140
0.1
 64
7
171
1
172
0
173
0
174
0
175
5
176
1
 91
33
178
0
145
0.0
301
CELL_VALUE
 90
4
  1
TL50 BASIC 3 STACK QD \P 
304
ACVALUE_END
170
8
140
0.1
171
1
172
0
173
1
174
0
175
1
176
1
 91
1
178
0
145
0.0
170
1
171
1
172
0
173
1
174
0
175
1
176
1
 91
1
178
0
145
0.0
170
1
171
1
172
0
173
1
174
0
175
1
176
1
 91
1
178
0
145
0.0
170
1
171
1
172
0
173
1
174
0
175
1
176
1
 91
1
178
0
145
0.0
170
8
  0
LEADER
  5
295
100
AcDbEntity
  8
NOTES
100
AcDbLeader
 62
7
  6
CONTINUOUS
  3
STANDARD
 71
1
 72
0
 73
0
 75
0
 40
0.1
 41
1.2
 76
3
 10
7.3873903976
 20
7.257915111
 30
0.0
 10
7.1413061959
 20
7.1125794559
 30
0.0
 10
7.0350396308
 20
7.1125794559
 30
0.0
340
296
1001
ACAD
1000
DSTYLE
1002
{
1070
77
1070
0
1002
}
  0
MTEXT
  5
296
102
{ACAD_REACTORS
330
295
102
}
100
AcDbEntity
  8
NOTES
100
AcDbMText
 62
7
  6
CONTINUOUS
  7
STANDARD
 71
3
 72
1
 10
7.0350396308
 20
7.1625794559
 30
0.0
 11
1.0
 21
0.0
 31
0.0
 73
2
 44
0.9
  1
 M12 X 1-6g 
 40
0.1
 41
1.2
  0
LEADER
  5
297
100
AcDbEntity
  8
NOTES
100
AcDbLeader
 62
7
  6
CONTINUOUS
  3
STANDARD
 71
1
 72
0
 73
0
 75
0
 40
0.1
 41
1.4
 76
3
 10
7.5539440662
 20
7.7243259461
 30
0.0
 10
6.7052752815
 20
7.5451935416
 30
0.0
 10
6.5797025611
 20
7.5451935416
 30
0.0
340
298
1001
ACAD
1000
DSTYLE
1002
{
1070
77
1070
0
1002
}
  0
MTEXT
  5
298
102
{ACAD_REACTORS
330
297
102
}
100
AcDbEntity
  8
NOTES
100
AcDbMText
 62
7
  6
CONTINUOUS
  7
STANDARD
 71
3
 72
1
 10
6.5797025611
 20
7.5951935416
 30
0.0
 11
1.0
 21
0.0
 31
0.0
 73
2
 44
0.9
  1
 M30 X 1.5-5g 
 40
0.1
 41
1.4
  0
LEADER
  5
299
100
AcDbEntity
  8
NOTES
100
AcDbLeader
 62
7
  6
CONTINUOUS
  3
STANDARD
 71
1
 72
0
 73
0
 75
0
 40
0.1
 41
1.2
 76
3
 10
7.9400069353
 20
4.3798019304
 30
0.0
 10
8.5557878859
 20
3.9539915911
 30
0.0
 10
8.6694056664
 20
3.9539915911
 30
0.0
340
29A
1001
ACAD
1000
DSTYLE
1002
{
1070
77
1070
0
1002
}
  0
MTEXT
  5
29A
102
{ACAD_REACTORS
330
299
102
}
100
AcDbEntity
  8
NOTES
100
AcDbMText
 62
7
  6
CONTINUOUS
  7
STANDARD
 71
1
 72
1
 10
8.6694056664
 20
4.0039915911
 30
0.0
 11
1.0
 21
0.0
 31
0.0
 73
2
 44
0.9
  1
 1/2-14 NPSM
 40
0.1
 41
1.2
  0
MTEXT
  5
29B
100
AcDbEntity
  8
NOTES
100
AcDbMText
 62
7
  6
CONTINUOUS
  7
STANDARD
 71
2
 72
1
 10
17.0201938077
 20
5.3860799563
 30
0.0
 11
1.0
 21
0.0
 31
0.0
 73
2
 44
0.9
  1
\LISOMETRIC VIEW\P\H0.1;\lSCALE  1:1
 40
0.125
 41
1.75
  0
LINE
  5
29C
100
AcDbEntity
  8
0
100
AcDbLine
 62
7
  6
CONTINUOUS
 10
0.814
 20
8.336603
 11
0.814
 21
8.163397
  0
LINE
  5
29D
100
AcDbEntity
  8
0
100
AcDbLine
 62
7
  6
CONTINUOUS
 10
0.964
 20
15.75
 11
0.964
 21
0.75
  0
LINE
  5
29E
100
AcDbEntity
  8
0
100
AcDbLine
 62
7
  6
CONTINUOUS
 10
15.8276527477
 20
1.2966912523
 11
16.4340437477
 21
1.3660842523
  0
LINE
  5
29F
100
AcDbEntity
  8
0
100
AcDbLine
 62
7
  6
CONTINUOUS
 10
10.920397
 20
0.6
 11
11.093603
 21
0.6
  0
LINE
  5
2A0
100
AcDbEntity
  8
0
100
AcDbLine
 62
7
  6
CONTINUOUS
 10
0.964
 20
0.75
 11
21.05
 21
0.75
  0
LINE
  5
2A1
100
AcDbEntity
  8
0
100
AcDbLine
 62
7
  6
CONTINUOUS
 10
3.507
 20
0.75
 11
3.507
 21
0.5
  0
LINE
  5
2A2
100
AcDbEntity
  8
0
100
AcDbLine
 62
7
  6
CONTINUOUS
 10
3.507
 20
15.75
 11
3.507
 21
16.0
  0
LINE
  5
2A3
100
AcDbEntity
  8
0
100
AcDbLine
 62
7
  6
CONTINUOUS
 10
16.7
 20
1.0
 11
21.05
 21
1.0
  0
LINE
  5
2A4
100
AcDbEntity
  8
0
100
AcDbLine
 62
7
  6
CONTINUOUS
 10
14.9008917477
 20
1.1139932523
 11
15.1229827477
 21
1.1139932523
  0
LINE
  5
2A5
100
AcDbEntity
  8
0
100
AcDbLine
 62
7
  6
CONTINUOUS
 10
15.1729827477
 20
1.1139932523
 11
15.2729827477
 21
1.1139932523
  0
LINE
  5
2A6
100
AcDbEntity
  8
0
100
AcDbLine
 62
7
  6
CONTINUOUS
 10
15.3229827477
 20
1.1139932523
 11
15.5450737477
 21
1.1139932523
  0
LINE
  5
2A7
100
AcDbEntity
  8
0
100
AcDbLine
 62
7
  6
CONTINUOUS
 10
15.7276527477
 20
1.1139932523
 11
16.0058047477
 21
1.1139932523
  0
LINE
  5
2A8
100
AcDbEntity
  8
0
100
AcDbLine
 62
7
  6
CONTINUOUS
 10
16.0558047477
 20
1.1139932523
 11
16.2058907477
 21
1.1139932523
  0
LINE
  5
2A9
100
AcDbEntity
  8
0
100
AcDbLine
 62
7
  6
CONTINUOUS
 10
16.2558907477
 20
1.1139932523
 11
16.5340437477
 21
1.1139932523
  0
LINE
  5
2AA
100
AcDbEntity
  8
0
100
AcDbLine
 62
7
  6
CONTINUOUS
 10
16.7
 20
1.37
 11
21.05
 21
1.37
  0
LINE
  5
2AB
100
AcDbEntity
  8
0
100
AcDbLine
 62
7
  6
CONTINUOUS
 10
16.4340437477
 20
0.8619022523
 11
15.8276527477
 21
0.9312952523
  0
LINE
  5
2AC
100
AcDbEntity
  8
0
100
AcDbLine
 62
7
  6
CONTINUOUS
 10
14.7
 20
1.77
 11
16.7
 21
1.77
  0
LINE
  5
2AD
100
AcDbEntity
  8
0
100
AcDbLine
 62
7
  6
CONTINUOUS
 10
16.7
 20
2.13
 11
21.05
 21
2.13
  0
LINE
  5
2AE
100
AcDbEntity
  8
0
100
AcDbLine
 62
7
  6
CONTINUOUS
 10
18.273144232
 20
2.3543254011
 11
18.2257802057
 21
2.3543254011
  0
LINE
  5
2AF
100
AcDbEntity
  8
0
100
AcDbLine
 62
7
  6
CONTINUOUS
 10
18.1818891814
 20
2.3543254011
 11
18.0683181184
 21
2.3543254011
  0
LINE
  5
2B0
100
AcDbEntity
  8
0
100
AcDbLine
 62
7
  6
CONTINUOUS
 10
18.0394141024
 20
2.3543254011
 11
17.8362019897
 21
2.3543254011
  0
LINE
  5
2B1
100
AcDbEntity
  8
0
100
AcDbLine
 62
7
  6
CONTINUOUS
 10
17.7857289617
 20
2.3543254011
 11
17.7115229205
 21
2.3543254011
  0
LINE
  5
2B2
100
AcDbEntity
  8
0
100
AcDbLine
 62
7
  6
CONTINUOUS
 10
17.6651428948
 20
2.3543254011
 11
17.5894788529
 21
2.3543254011
  0
LINE
  5
2B3
100
AcDbEntity
  8
0
100
AcDbLine
 62
7
  6
CONTINUOUS
 10
17.537475824
 20
2.3543254011
 11
17.4632707829
 21
2.3543254011
  0
LINE
  5
2B4
100
AcDbEntity
  8
0
100
AcDbLine
 62
7
  6
CONTINUOUS
 10
17.4168897572
 20
2.3543254011
 11
17.3412257152
 21
2.3543254011
  0
LINE
  5
2B5
100
AcDbEntity
  8
0
100
AcDbLine
 62
7
  6
CONTINUOUS
 10
16.8743904563
 20
2.3543254011
 11
17.0508365542
 21
2.3543254011
  0
LINE
  5
2B6
100
AcDbEntity
  8
0
100
AcDbLine
 62
7
  6
CONTINUOUS
 10
17.1083735861
 20
2.3543254011
 11
17.185749629
 21
2.3543254011
  0
LINE
  5
2B7
100
AcDbEntity
  8
0
100
AcDbLine
 62
7
  6
CONTINUOUS
 10
17.2060356402
 20
2.3543254011
 11
17.3113166986
 21
2.3543254011
  0
LINE
  5
2B8
100
AcDbEntity
  8
0
100
AcDbLine
 62
7
  6
CONTINUOUS
 10
18.1572301677
 20
2.3790534148
 11
18.1818891814
 21
2.3790534148
  0
LINE
  5
2B9
100
AcDbEntity
  8
0
100
AcDbLine
 62
7
  6
CONTINUOUS
 10
17.3113166986
 20
2.3790754148
 11
17.2913006875
 21
2.3790754148
  0
LINE
  5
2BA
100
AcDbEntity
  8
0
100
AcDbLine
 62
7
  6
CONTINUOUS
 10
17.2204866482
 20
2.3790754148
 11
17.2060356402
 21
2.3790754148
  0
LINE
  5
2BB
100
AcDbEntity
  8
0
100
AcDbLine
 62
7
  6
CONTINUOUS
 10
17.185749629
 20
2.3790754148
 11
17.1744666227
 21
2.3790754148
  0
LINE
  5
2BC
100
AcDbEntity
  8
0
100
AcDbLine
 62
7
  6
CONTINUOUS
 10
17.1312345987
 20
2.3790754148
 11
17.1083735861
 21
2.3790754148
  0
LINE
  5
2BD
100
AcDbEntity
  8
0
100
AcDbLine
 62
7
  6
CONTINUOUS
 10
17.0051585288
 20
2.3790754148
 11
16.9637955059
 21
2.3790754148
  0
LINE
  5
2BE
100
AcDbEntity
  8
0
100
AcDbLine
 62
7
  6
CONTINUOUS
 10
16.8983324696
 20
2.3790754148
 11
16.8743904563
 21
2.3790754148
  0
LINE
  5
2BF
100
AcDbEntity
  8
0
100
AcDbLine
 62
7
  6
CONTINUOUS
 10
17.3412257152
 20
2.3790754148
 11
17.3598727255
 21
2.3790754148
  0
LINE
  5
2C0
100
AcDbEntity
  8
0
100
AcDbLine
 62
7
  6
CONTINUOUS
 10
17.3965727459
 20
2.3790754148
 11
17.4168897572
 21
2.3790754148
  0
LINE
  5
2C1
100
AcDbEntity
  8
0
100
AcDbLine
 62
7
  6
CONTINUOUS
 10
17.5894788529
 20
2.3790754148
 11
17.6081248632
 21
2.3790754148
  0
LINE
  5
2C2
100
AcDbEntity
  8
0
100
AcDbLine
 62
7
  6
CONTINUOUS
 10
17.6448258836
 20
2.3790754148
 11
17.6651428948
 21
2.3790754148
  0
LINE
  5
2C3
100
AcDbEntity
  8
0
100
AcDbLine
 62
7
  6
CONTINUOUS
 10
17.8362019897
 20
2.3790754148
 11
17.860125003
 21
2.3790754148
  0
LINE
  5
2C4
100
AcDbEntity
  8
0
100
AcDbLine
 62
7
  6
CONTINUOUS
 10
17.9271410401
 20
2.3790754148
 11
17.9921450762
 21
2.3790754148
  0
LINE
  5
2C5
100
AcDbEntity
  8
0
100
AcDbLine
 62
7
  6
CONTINUOUS
 10
18.0683181184
 20
2.3790754148
 11
18.091064131
 21
2.3790754148
  0
LINE
  5
2C6
100
AcDbEntity
  8
0
100
AcDbLine
 62
7
  6
CONTINUOUS
 10
18.2741672326
 20
2.379462415
 11
18.2752762332
 21
2.379462415
  0
LINE
  5
2C7
100
AcDbEntity
  8
0
100
AcDbLine
 62
7
  6
CONTINUOUS
 10
17.9970950789
 20
2.3922754221
 11
18.0394141024
 21
2.3922754221
  0
LINE
  5
2C8
100
AcDbEntity
  8
0
100
AcDbLine
 62
7
  6
CONTINUOUS
 10
17.1799826258
 20
2.3927194224
 11
17.2148606451
 21
2.3927194224
  0
LINE
  5
2C9
100
AcDbEntity
  8
0
100
AcDbLine
 62
7
  6
CONTINUOUS
 10
18.2860312391
 20
2.3932124227
 11
18.2981412459
 21
2.3932124227
  0
LINE
  5
2CA
100
AcDbEntity
  8
0
100
AcDbLine
 62
7
  6
CONTINUOUS
 10
18.184837183
 20
2.3937024229
 11
18.1572301677
 21
2.3937024229
  0
LINE
  5
2CB
100
AcDbEntity
  8
0
100
AcDbLine
 62
7
  6
CONTINUOUS
 10
17.9623080596
 20
2.395575424
 11
17.9271410401
 21
2.395575424
  0
LINE
  5
2CC
100
AcDbEntity
  8
0
100
AcDbLine
 62
7
  6
CONTINUOUS
 10
16.9637955059
 20
2.3964004244
 11
17.0051585288
 21
2.3964004244
  0
LINE
  5
2CD
100
AcDbEntity
  8
0
100
AcDbLine
 62
7
  6
CONTINUOUS
 10
18.1911671865
 20
2.4127054335
 11
18.1572301677
 21
2.4127054335
  0
LINE
  5
2CE
100
AcDbEntity
  8
0
100
AcDbLine
 62
7
  6
CONTINUOUS
 10
16.9637955059
 20
2.4130554337
 11
17.0051585288
 21
2.4130554337
  0
LINE
  5
2CF
100
AcDbEntity
  8
0
100
AcDbLine
 62
7
  6
CONTINUOUS
 10
17.1884986305
 20
2.413669434
 11
17.2090556419
 21
2.413669434
  0
LINE
  5
2D0
100
AcDbEntity
  8
0
100
AcDbLine
 62
7
  6
CONTINUOUS
 10
17.9271410401
 20
2.4138804341
 11
17.9623080596
 21
2.4138804341
  0
LINE
  5
2D1
100
AcDbEntity
  8
0
100
AcDbLine
 62
7
  6
CONTINUOUS
 10
18.0379951016
 20
2.4171804359
 11
17.9961310784
 21
2.4171804359
  0
LINE
  5
2D2
100
AcDbEntity
  8
0
100
AcDbLine
 62
7
  6
CONTINUOUS
 10
17.2017966379
 20
2.429836443
 11
17.1956156344
 21
2.429836443
  0
LINE
  5
2D3
100
AcDbEntity
  8
0
100
AcDbLine
 62
7
  6
CONTINUOUS
 10
18.091064131
 20
2.4303804433
 11
18.0683181184
 21
2.4303804433
  0
LINE
  5
2D4
100
AcDbEntity
  8
0
100
AcDbLine
 62
7
  6
CONTINUOUS
 10
17.9911810756
 20
2.4303804433
 11
17.9271410401
 21
2.4303804433
  0
LINE
  5
2D5
100
AcDbEntity
  8
0
100
AcDbLine
 62
7
  6
CONTINUOUS
 10
17.860125003
 20
2.4303804433
 11
17.8362019897
 21
2.4303804433
  0
LINE
  5
2D6
100
AcDbEntity
  8
0
100
AcDbLine
 62
7
  6
CONTINUOUS
 10
17.8086119744
 20
2.4303804433
 11
17.7906789644
 21
2.4303804433
  0
LINE
  5
2D7
100
AcDbEntity
  8
0
100
AcDbLine
 62
7
  6
CONTINUOUS
 10
17.7533869438
 20
2.4303804433
 11
17.7346109333
 21
2.4303804433
  0
LINE
  5
2D8
100
AcDbEntity
  8
0
100
AcDbLine
 62
7
  6
CONTINUOUS
 10
17.6081248632
 20
2.4303804433
 11
17.5894788529
 21
2.4303804433
  0
LINE
  5
2D9
100
AcDbEntity
  8
0
100
AcDbLine
 62
7
  6
CONTINUOUS
 10
17.5603588367
 20
2.4303804433
 11
17.5424258268
 21
2.4303804433
  0
LINE
  5
2DA
100
AcDbEntity
  8
0
100
AcDbLine
 62
7
  6
CONTINUOUS
 10
17.5051338061
 20
2.4303804433
 11
17.4863577957
 21
2.4303804433
  0
LINE
  5
2DB
100
AcDbEntity
  8
0
100
AcDbLine
 62
7
  6
CONTINUOUS
 10
17.3598727255
 20
2.4303804433
 11
17.3412257152
 21
2.4303804433
  0
LINE
  5
2DC
100
AcDbEntity
  8
0
100
AcDbLine
 62
7
  6
CONTINUOUS
 10
17.0051585288
 20
2.4303804433
 11
16.9637955059
 21
2.4303804433
  0
LINE
  5
2DD
100
AcDbEntity
  8
0
100
AcDbLine
 62
7
  6
CONTINUOUS
 10
16.8743904563
 20
2.4303804433
 11
16.8983324696
 21
2.4303804433
  0
LINE
  5
2DE
100
AcDbEntity
  8
0
100
AcDbLine
 62
7
  6
CONTINUOUS
 10
18.1572301677
 20
2.4303804433
 11
18.1940311881
 21
2.4303804433
  0
LINE
  5
2DF
100
AcDbEntity
  8
0
100
AcDbLine
 62
7
  6
CONTINUOUS
 10
17.2393896587
 20
2.455130457
 11
17.182214627
 21
2.455130457
  0
LINE
  5
2E0
100
AcDbEntity
  8
0
100
AcDbLine
 62
7
  6
CONTINUOUS
 10
17.0404535484
 20
2.455130457
 11
16.8743904563
 21
2.455130457
  0
LINE
  5
2E1
100
AcDbEntity
  8
0
100
AcDbLine
 62
7
  6
CONTINUOUS
 10
17.3412257152
 20
2.455130457
 11
17.4416837709
 21
2.455130457
  0
LINE
  5
2E2
100
AcDbEntity
  8
0
100
AcDbLine
 62
7
  6
CONTINUOUS
 10
17.4863577957
 20
2.455130457
 11
17.5603588367
 21
2.455130457
  0
LINE
  5
2E3
100
AcDbEntity
  8
0
100
AcDbLine
 62
7
  6
CONTINUOUS
 10
17.5894788529
 20
2.455130457
 11
17.6899369086
 21
2.455130457
  0
LINE
  5
2E4
100
AcDbEntity
  8
0
100
AcDbLine
 62
7
  6
CONTINUOUS
 10
17.7346109333
 20
2.455130457
 11
17.8086119744
 21
2.455130457
  0
LINE
  5
2E5
100
AcDbEntity
  8
0
100
AcDbLine
 62
7
  6
CONTINUOUS
 10
17.8362019897
 20
2.455130457
 11
18.0379951016
 21
2.455130457
  0
LINE
  5
2E6
100
AcDbEntity
  8
0
100
AcDbLine
 62
7
  6
CONTINUOUS
 10
18.0683181184
 20
2.455130457
 11
18.2178992014
 21
2.455130457
  0
LINE
  5
2E7
100
AcDbEntity
  8
0
100
AcDbLine
 62
7
  6
CONTINUOUS
 10
17.0697205646
 20
2.4006414268
 11
17.059669559
 21
2.4041904287
  0
LINE
  5
2E8
100
AcDbEntity
  8
0
100
AcDbLine
 62
7
  6
CONTINUOUS
 10
17.4615617819
 20
2.3550094015
 11
17.3982817468
 21
2.415387435
  0
LINE
  5
2E9
100
AcDbEntity
  8
0
100
AcDbLine
 62
7
  6
CONTINUOUS
 10
17.4433917718
 20
2.4544464566
 11
17.5034248051
 21
2.3971664249
  0
LINE
  5
2EA
100
AcDbEntity
  8
0
100
AcDbLine
 62
7
  6
CONTINUOUS
 10
17.7098149196
 20
2.3550094015
 11
17.6465348845
 21
2.415387435
  0
LINE
  5
2EB
100
AcDbEntity
  8
0
100
AcDbLine
 62
7
  6
CONTINUOUS
 10
17.6916449095
 20
2.4544464566
 11
17.7516779428
 21
2.3971664249
  0
LINE
  5
2EC
100
AcDbEntity
  8
0
100
AcDbLine
 62
7
  6
CONTINUOUS
 10
17.2169386463
 20
2.3915884218
 11
17.2225646494
 21
2.3828954169
  0
LINE
  5
2ED
100
AcDbEntity
  8
0
100
AcDbLine
 62
7
  6
CONTINUOUS
 10
17.211133643
 20
2.4174894361
 11
17.203874639
 21
2.4287054423
  0
LINE
  5
2EE
100
AcDbEntity
  8
0
100
AcDbLine
 62
7
  6
CONTINUOUS
 10
17.2892236864
 20
2.3802054154
 11
17.2414676599
 21
2.4540004564
  0
LINE
  5
2EF
100
AcDbEntity
  8
0
100
AcDbLine
 62
7
  6
CONTINUOUS
 10
18.206476195
 20
2.3723714111
 11
18.204672194
 21
2.3784404145
  0
LINE
  5
2F0
100
AcDbEntity
  8
0
100
AcDbLine
 62
7
  6
CONTINUOUS
 10
16.8719154549
 20
2.4526554556
 11
16.8719154549
 21
2.4328554446
  0
LINE
  5
2F1
100
AcDbEntity
  8
0
100
AcDbLine
 62
7
  6
CONTINUOUS
 10
16.8719154549
 20
2.3766004134
 11
16.8719154549
 21
2.3568004025
  0
LINE
  5
2F2
100
AcDbEntity
  8
0
100
AcDbLine
 62
7
  6
CONTINUOUS
 10
16.9008074709
 20
2.4279054419
 11
16.9008074709
 21
2.3815504162
  0
LINE
  5
2F3
100
AcDbEntity
  8
0
100
AcDbLine
 62
7
  6
CONTINUOUS
 10
16.9613205045
 20
2.4279054419
 11
16.9613205045
 21
2.415530435
  0
LINE
  5
2F4
100
AcDbEntity
  8
0
100
AcDbLine
 62
7
  6
CONTINUOUS
 10
16.9613205045
 20
2.3815504162
 11
16.9613205045
 21
2.3939254231
  0
LINE
  5
2F5
100
AcDbEntity
  8
0
100
AcDbLine
 62
7
  6
CONTINUOUS
 10
17.1058985847
 20
2.3766004134
 11
17.1058985847
 21
2.3568004025
  0
LINE
  5
2F6
100
AcDbEntity
  8
0
100
AcDbLine
 62
7
  6
CONTINUOUS
 10
17.1882246303
 20
2.3568004025
 11
17.1882246303
 21
2.3766004134
  0
LINE
  5
2F7
100
AcDbEntity
  8
0
100
AcDbLine
 62
7
  6
CONTINUOUS
 10
17.2035606388
 20
2.3766004134
 11
17.2035606388
 21
2.3568004025
  0
LINE
  5
2F8
100
AcDbEntity
  8
0
100
AcDbLine
 62
7
  6
CONTINUOUS
 10
17.3137917
 20
2.3568004025
 11
17.3137917
 21
2.3766004134
  0
LINE
  5
2F9
100
AcDbEntity
  8
0
100
AcDbLine
 62
7
  6
CONTINUOUS
 10
17.3387507138
 20
2.3568004025
 11
17.3387507138
 21
2.3766004134
  0
LINE
  5
2FA
100
AcDbEntity
  8
0
100
AcDbLine
 62
7
  6
CONTINUOUS
 10
17.3387507138
 20
2.4328554446
 11
17.3387507138
 21
2.4526554556
  0
LINE
  5
2FB
100
AcDbEntity
  8
0
100
AcDbLine
 62
7
  6
CONTINUOUS
 10
17.3623477269
 20
2.3815504162
 11
17.3623477269
 21
2.4279054419
  0
LINE
  5
2FC
100
AcDbEntity
  8
0
100
AcDbLine
 62
7
  6
CONTINUOUS
 10
17.3940977445
 20
2.413596434
 11
17.3940977445
 21
2.3815504162
  0
LINE
  5
2FD
100
AcDbEntity
  8
0
100
AcDbLine
 62
7
  6
CONTINUOUS
 10
17.4193647585
 20
2.3766004134
 11
17.4193647585
 21
2.3568004025
  0
LINE
  5
2FE
100
AcDbEntity
  8
0
100
AcDbLine
 62
7
  6
CONTINUOUS
 10
17.4838827943
 20
2.4328554446
 11
17.4838827943
 21
2.4526554556
  0
LINE
  5
2FF
100
AcDbEntity
  8
0
100
AcDbLine
 62
7
  6
CONTINUOUS
 10
17.5076088075
 20
2.3989574258
 11
17.5076088075
 21
2.4279054419
  0
LINE
  5
300
100
AcDbEntity
  8
0
100
AcDbLine
 62
7
  6
CONTINUOUS
 10
17.5399508254
 20
2.4279054419
 11
17.5399508254
 21
2.3568004025
  0
LINE
  5
301
100
AcDbEntity
  8
0
100
AcDbLine
 62
7
  6
CONTINUOUS
 10
17.5628338381
 20
2.4526554556
 11
17.5628338381
 21
2.4328554446
  0
LINE
  5
302
100
AcDbEntity
  8
0
100
AcDbLine
 62
7
  6
CONTINUOUS
 10
17.5870038515
 20
2.3568004025
 11
17.5870038515
 21
2.3766004134
  0
LINE
  5
303
100
AcDbEntity
  8
0
100
AcDbLine
 62
7
  6
CONTINUOUS
 10
17.5870038515
 20
2.4328554446
 11
17.5870038515
 21
2.4526554556
  0
LINE
  5
304
100
AcDbEntity
  8
0
100
AcDbLine
 62
7
  6
CONTINUOUS
 10
17.6105998646
 20
2.3815504162
 11
17.6105998646
 21
2.4279054419
  0
LINE
  5
305
100
AcDbEntity
  8
0
100
AcDbLine
 62
7
  6
CONTINUOUS
 10
17.6423508822
 20
2.413596434
 11
17.6423508822
 21
2.3815504162
  0
LINE
  5
306
100
AcDbEntity
  8
0
100
AcDbLine
 62
7
  6
CONTINUOUS
 10
17.6676178962
 20
2.3766004134
 11
17.6676178962
 21
2.3568004025
  0
LINE
  5
307
100
AcDbEntity
  8
0
100
AcDbLine
 62
7
  6
CONTINUOUS
 10
17.732135932
 20
2.4328554446
 11
17.732135932
 21
2.4526554556
  0
LINE
  5
308
100
AcDbEntity
  8
0
100
AcDbLine
 62
7
  6
CONTINUOUS
 10
17.7558619451
 20
2.3989574258
 11
17.7558619451
 21
2.4279054419
  0
LINE
  5
309
100
AcDbEntity
  8
0
100
AcDbLine
 62
7
  6
CONTINUOUS
 10
17.7882039631
 20
2.4279054419
 11
17.7882039631
 21
2.3568004025
  0
LINE
  5
30A
100
AcDbEntity
  8
0
100
AcDbLine
 62
7
  6
CONTINUOUS
 10
17.8110869758
 20
2.4526554556
 11
17.8110869758
 21
2.4328554446
  0
LINE
  5
30B
100
AcDbEntity
  8
0
100
AcDbLine
 62
7
  6
CONTINUOUS
 10
17.8337269883
 20
2.3568004025
 11
17.8337269883
 21
2.3766004134
  0
LINE
  5
30C
100
AcDbEntity
  8
0
100
AcDbLine
 62
7
  6
CONTINUOUS
 10
17.8337269883
 20
2.4328554446
 11
17.8337269883
 21
2.4526554556
  0
LINE
  5
30D
100
AcDbEntity
  8
0
100
AcDbLine
 62
7
  6
CONTINUOUS
 10
17.8626000043
 20
2.3815504162
 11
17.8626000043
 21
2.4279054419
  0
LINE
  5
30E
100
AcDbEntity
  8
0
100
AcDbLine
 62
7
  6
CONTINUOUS
 10
17.9246660387
 20
2.4279054419
 11
17.9246660387
 21
2.4163554355
  0
LINE
  5
30F
100
AcDbEntity
  8
0
100
AcDbLine
 62
7
  6
CONTINUOUS
 10
17.9246660387
 20
2.3931004226
 11
17.9246660387
 21
2.3815504162
  0
LINE
  5
310
100
AcDbEntity
  8
0
100
AcDbLine
 62
7
  6
CONTINUOUS
 10
17.964783061
 20
2.4114054327
 11
17.964783061
 21
2.3980504253
  0
LINE
  5
311
100
AcDbEntity
  8
0
100
AcDbLine
 62
7
  6
CONTINUOUS
 10
17.993656077
 20
2.4196554373
 11
17.993656077
 21
2.4279054419
  0
LINE
  5
312
100
AcDbEntity
  8
0
100
AcDbLine
 62
7
  6
CONTINUOUS
 10
17.9946200775
 20
2.3815504162
 11
17.9946200775
 21
2.3898004208
  0
LINE
  5
313
100
AcDbEntity
  8
0
100
AcDbLine
 62
7
  6
CONTINUOUS
 10
18.040470103
 20
2.4526554556
 11
18.040470103
 21
2.4196554373
  0
LINE
  5
314
100
AcDbEntity
  8
0
100
AcDbLine
 62
7
  6
CONTINUOUS
 10
18.0418891038
 20
2.3898004208
 11
18.0418891038
 21
2.3568004025
  0
LINE
  5
315
100
AcDbEntity
  8
0
100
AcDbLine
 62
7
  6
CONTINUOUS
 10
18.065843117
 20
2.3568004025
 11
18.065843117
 21
2.3766004134
  0
LINE
  5
316
100
AcDbEntity
  8
0
100
AcDbLine
 62
7
  6
CONTINUOUS
 10
18.065843117
 20
2.4328554446
 11
18.065843117
 21
2.4526554556
  0
LINE
  5
317
100
AcDbEntity
  8
0
100
AcDbLine
 62
7
  6
CONTINUOUS
 10
18.0935391324
 20
2.3815504162
 11
18.0935391324
 21
2.4279054419
  0
LINE
  5
318
100
AcDbEntity
  8
0
100
AcDbLine
 62
7
  6
CONTINUOUS
 10
18.1547551663
 20
2.3912274216
 11
18.1547551663
 21
2.3815284162
  0
LINE
  5
319
100
AcDbEntity
  8
0
100
AcDbLine
 62
7
  6
CONTINUOUS
 10
18.1547551663
 20
2.4151804348
 11
18.1547551663
 21
2.4279054419
  0
LINE
  5
31A
100
AcDbEntity
  8
0
100
AcDbLine
 62
7
  6
CONTINUOUS
 10
18.1843641828
 20
2.3765784134
 11
18.1843641828
 21
2.3568004025
  0
LINE
  5
31B
100
AcDbEntity
  8
0
100
AcDbLine
 62
7
  6
CONTINUOUS
 10
18.2835562378
 20
2.3881114198
 11
18.2835562378
 21
2.3907374213
  0
LINE
  5
31C
100
AcDbEntity
  8
0
100
AcDbLine
 62
7
  6
CONTINUOUS
 10
18.3006162472
 20
2.3907374213
 11
18.3006162472
 21
2.3791854149
  0
LINE
  5
31D
100
AcDbEntity
  8
0
100
AcDbLine
 62
7
  6
CONTINUOUS
 10
18.3975725422
 20
2.3981678251
 11
18.3975725422
 21
2.4087850316
  0
LINE
  5
31E
100
AcDbEntity
  8
0
100
AcDbLine
 62
7
  6
CONTINUOUS
 10
17.1801246258
 20
2.4539814564
 11
17.1333245999
 21
2.3802244155
  0
LINE
  5
31F
100
AcDbEntity
  8
0
100
AcDbLine
 62
7
  6
CONTINUOUS
 10
17.1935256333
 20
2.4286874423
 11
17.1864086293
 21
2.4174704361
  0
LINE
  5
320
100
AcDbEntity
  8
0
100
AcDbLine
 62
7
  6
CONTINUOUS
 10
17.1723766216
 20
2.3828764169
 11
17.1778926246
 21
2.3915704217
  0
LINE
  5
321
100
AcDbEntity
  8
0
100
AcDbLine
 62
7
  6
CONTINUOUS
 10
17.059669559
 20
2.4041904287
 11
17.0679095636
 21
2.4089664314
  0
ARC
  5
322
100
AcDbEntity
  8
0
100
AcDbCircle
 62
7
  6
CONTINUOUS
 10
17.4632701481
 20
2.3568008172
 40
0.0024754162
100
AcDbArc
 50
226.3593695814
 51
270.0146919953
  0
ARC
  5
323
100
AcDbEntity
  8
0
100
AcDbCircle
 62
7
  6
CONTINUOUS
 10
16.8743904545
 20
2.3568004006
 40
0.0024749995
100
AcDbArc
 50
179.9999571957
 51
270.0000428043
  0
ARC
  5
324
100
AcDbEntity
  8
0
100
AcDbCircle
 62
7
  6
CONTINUOUS
 10
17.5374758259
 20
2.3568004006
 40
0.0024749995
100
AcDbArc
 50
269.9999571957
 51
0.0000428043
  0
ARC
  5
325
100
AcDbEntity
  8
0
100
AcDbCircle
 62
7
  6
CONTINUOUS
 10
17.416889759
 20
2.3568004006
 40
0.0024749995
100
AcDbArc
 50
269.9999571957
 51
0.0000428043
  0
ARC
  5
326
100
AcDbEntity
  8
0
100
AcDbCircle
 62
7
  6
CONTINUOUS
 10
17.3412257133
 20
2.3568004006
 40
0.0024749995
100
AcDbArc
 50
179.9999571957
 51
270.0000428043
  0
ARC
  5
327
100
AcDbEntity
  8
0
100
AcDbCircle
 62
7
  6
CONTINUOUS
 10
17.2060356384
 20
2.3568004006
 40
0.0024749995
100
AcDbArc
 50
179.9999571957
 51
270.0000428043
  0
ARC
  5
328
100
AcDbEntity
  8
0
100
AcDbCircle
 62
7
  6
CONTINUOUS
 10
17.3113167005
 20
2.3568004006
 40
0.0024749995
100
AcDbArc
 50
269.9999571957
 51
0.0000428043
  0
ARC
  5
329
100
AcDbEntity
  8
0
100
AcDbCircle
 62
7
  6
CONTINUOUS
 10
17.1083735842
 20
2.3568004006
 40
0.0024749995
100
AcDbArc
 50
179.9999571957
 51
270.0000428043
  0
ARC
  5
32A
100
AcDbEntity
  8
0
100
AcDbCircle
 62
7
  6
CONTINUOUS
 10
17.1857496308
 20
2.3568004006
 40
0.0024749995
100
AcDbArc
 50
269.9999571958
 51
0.0000428044
  0
ARC
  5
32B
100
AcDbEntity
  8
0
100
AcDbCircle
 62
7
  6
CONTINUOUS
 10
17.0404590422
 20
2.3933827403
 40
0.061747717
100
AcDbArc
 50
59.5385584989
 51
90.0050977555
  0
ARC
  5
32C
100
AcDbEntity
  8
0
100
AcDbCircle
 62
7
  6
CONTINUOUS
 10
17.0481152095
 20
2.4027328529
 40
0.048483885
100
AcDbArc
 50
273.21763719
 51
303.0749121182
  0
ARC
  5
32D
100
AcDbEntity
  8
0
100
AcDbCircle
 62
7
  6
CONTINUOUS
 10
17.0620614151
 20
2.3797859164
 40
0.0222174455
100
AcDbArc
 50
4.0793399388
 51
69.834329283
  0
ARC
  5
32E
100
AcDbEntity
  8
0
100
AcDbCircle
 62
7
  6
CONTINUOUS
 10
17.0629546036
 20
2.379965244
 40
0.0213072145
100
AcDbArc
 50
303.0488228549
 51
355.7263138674
  0
ARC
  5
32F
100
AcDbEntity
  8
0
100
AcDbCircle
 62
7
  6
CONTINUOUS
 10
17.0688911042
 20
2.3799744343
 40
0.0153945295
100
AcDbArc
 50
354.0454548824
 51
5.1878013979
  0
ARC
  5
330
100
AcDbEntity
  8
0
100
AcDbCircle
 62
7
  6
CONTINUOUS
 10
17.0051585288
 20
2.3877379196
 40
0.0086625048
100
AcDbArc
 50
270.0
 51
90.0
  0
ARC
  5
331
100
AcDbEntity
  8
0
100
AcDbCircle
 62
7
  6
CONTINUOUS
 10
17.2148601055
 20
2.3902439622
 40
0.0024754602
100
AcDbArc
 50
32.8959418573
 51
89.9875097202
  0
ARC
  5
332
100
AcDbEntity
  8
0
100
AcDbCircle
 62
7
  6
CONTINUOUS
 10
17.131234669
 20
2.3815506151
 40
0.0024752003
100
AcDbArc
 50
269.9983726451
 51
327.602165307
  0
ARC
  5
333
100
AcDbEntity
  8
0
100
AcDbCircle
 62
7
  6
CONTINUOUS
 10
17.1799825555
 20
2.3902442221
 40
0.0024752003
100
AcDbArc
 50
89.998372645
 51
147.602165307
  0
ARC
  5
334
100
AcDbEntity
  8
0
100
AcDbCircle
 62
7
  6
CONTINUOUS
 10
17.1744665134
 20
2.3815504549
 40
0.0024750401
100
AcDbArc
 50
147.6063258011
 51
270.0025305754
  0
ARC
  5
335
100
AcDbEntity
  8
0
100
AcDbCircle
 62
7
  6
CONTINUOUS
 10
16.8983324714
 20
2.3815504143
 40
0.0024749995
100
AcDbArc
 50
269.9999571957
 51
0.0000428043
  0
ARC
  5
336
100
AcDbEntity
  8
0
100
AcDbCircle
 62
7
  6
CONTINUOUS
 10
16.8743904545
 20
2.3766004153
 40
0.0024749995
100
AcDbArc
 50
89.9999571957
 51
180.0000428043
  0
ARC
  5
337
100
AcDbEntity
  8
0
100
AcDbCircle
 62
7
  6
CONTINUOUS
 10
16.963795504
 20
2.3939254249
 40
0.0024749995
100
AcDbArc
 50
89.9999571957
 51
180.0000428043
  0
ARC
  5
338
100
AcDbEntity
  8
0
100
AcDbCircle
 62
7
  6
CONTINUOUS
 10
16.963795504
 20
2.3815504143
 40
0.0024749995
100
AcDbArc
 50
179.9999571957
 51
270.0000428043
  0
ARC
  5
339
100
AcDbEntity
  8
0
100
AcDbCircle
 62
7
  6
CONTINUOUS
 10
17.2060356384
 20
2.3766004153
 40
0.0024749995
100
AcDbArc
 50
89.9999571957
 51
180.0000428043
  0
ARC
  5
33A
100
AcDbEntity
  8
0
100
AcDbCircle
 62
7
  6
CONTINUOUS
 10
17.1083735842
 20
2.3766004153
 40
0.0024749995
100
AcDbArc
 50
89.9999571957
 51
180.0000428043
  0
ARC
  5
33B
100
AcDbEntity
  8
0
100
AcDbCircle
 62
7
  6
CONTINUOUS
 10
17.1857496308
 20
2.3766004153
 40
0.0024749995
100
AcDbArc
 50
359.9999571957
 51
90.0000428043
  0
ARC
  5
33C
100
AcDbEntity
  8
0
100
AcDbCircle
 62
7
  6
CONTINUOUS
 10
17.0460441811
 20
2.445793323
 40
0.0428289026
100
AcDbArc
 50
300.6990502959
 51
319.0591802498
  0
ARC
  5
33D
100
AcDbEntity
  8
0
100
AcDbCircle
 62
7
  6
CONTINUOUS
 10
17.0611211659
 20
2.4263113051
 40
0.0229166529
100
AcDbArc
 50
20.6563876465
 51
62.3316896973
  0
ARC
  5
33E
100
AcDbEntity
  8
0
100
AcDbCircle
 62
7
  6
CONTINUOUS
 10
17.0660727781
 20
2.4296649696
 40
0.0171568255
100
AcDbArc
 50
315.9145124245
 51
16.0049121283
  0
ARC
  5
33F
100
AcDbEntity
  8
0
100
AcDbCircle
 62
7
  6
CONTINUOUS
 10
17.0051585288
 20
2.4217179385
 40
0.0086625048
100
AcDbArc
 50
270.0
 51
90.0
  0
ARC
  5
340
100
AcDbEntity
  8
0
100
AcDbCircle
 62
7
  6
CONTINUOUS
 10
17.2017960982
 20
2.4273609828
 40
0.0024754602
100
AcDbArc
 50
32.8959418573
 51
89.9875097202
  0
ARC
  5
341
100
AcDbEntity
  8
0
100
AcDbCircle
 62
7
  6
CONTINUOUS
 10
17.2090556207
 20
2.4161446411
 40
0.0024752071
100
AcDbArc
 50
270.0004896793
 51
32.9089806818
  0
ARC
  5
342
100
AcDbEntity
  8
0
100
AcDbCircle
 62
7
  6
CONTINUOUS
 10
17.1956155641
 20
2.4273612427
 40
0.0024752003
100
AcDbArc
 50
89.998372645
 51
147.602165307
  0
ARC
  5
343
100
AcDbEntity
  8
0
100
AcDbCircle
 62
7
  6
CONTINUOUS
 10
17.1822145567
 20
2.4526552567
 40
0.0024752003
100
AcDbArc
 50
89.998372645
 51
147.602165307
  0
ARC
  5
344
100
AcDbEntity
  8
0
100
AcDbCircle
 62
7
  6
CONTINUOUS
 10
17.1884985212
 20
2.4161444741
 40
0.0024750401
100
AcDbArc
 50
147.6063258012
 51
270.0025305754
  0
ARC
  5
345
100
AcDbEntity
  8
0
100
AcDbCircle
 62
7
  6
CONTINUOUS
 10
16.8743904545
 20
2.4526554575
 40
0.0024749995
100
AcDbArc
 50
89.9999571957
 51
180.0000428043
  0
ARC
  5
346
100
AcDbEntity
  8
0
100
AcDbCircle
 62
7
  6
CONTINUOUS
 10
16.8743904545
 20
2.4328554428
 40
0.0024749995
100
AcDbArc
 50
179.9999571957
 51
270.0000428043
  0
ARC
  5
347
100
AcDbEntity
  8
0
100
AcDbCircle
 62
7
  6
CONTINUOUS
 10
16.8983324714
 20
2.4279054437
 40
0.0024749995
100
AcDbArc
 50
359.9999571957
 51
90.0000428043
  0
ARC
  5
348
100
AcDbEntity
  8
0
100
AcDbCircle
 62
7
  6
CONTINUOUS
 10
16.963795504
 20
2.4279054437
 40
0.0024749995
100
AcDbArc
 50
89.9999571957
 51
180.0000428043
  0
ARC
  5
349
100
AcDbEntity
  8
0
100
AcDbCircle
 62
7
  6
CONTINUOUS
 10
16.963795504
 20
2.4155304332
 40
0.0024749995
100
AcDbArc
 50
179.9999571957
 51
270.0000428043
  0
ARC
  5
34A
100
AcDbEntity
  8
0
100
AcDbCircle
 62
7
  6
CONTINUOUS
 10
17.5051335061
 20
2.3989573626
 40
0.0024753014
100
AcDbArc
 50
226.3461263059
 51
0.0014637321
  0
ARC
  5
34B
100
AcDbEntity
  8
0
100
AcDbCircle
 62
7
  6
CONTINUOUS
 10
17.3965730459
 20
2.4135964972
 40
0.0024753014
100
AcDbArc
 50
46.3461263059
 51
180.0014637321
  0
ARC
  5
34C
100
AcDbEntity
  8
0
100
AcDbCircle
 62
7
  6
CONTINUOUS
 10
17.2204866271
 20
2.3815506219
 40
0.0024752071
100
AcDbArc
 50
270.0004896793
 51
32.9089806818
  0
ARC
  5
34D
100
AcDbEntity
  8
0
100
AcDbCircle
 62
7
  6
CONTINUOUS
 10
17.396572744
 20
2.3815504143
 40
0.0024749995
100
AcDbArc
 50
179.9999571957
 51
270.0000428043
  0
ARC
  5
34E
100
AcDbEntity
  8
0
100
AcDbCircle
 62
7
  6
CONTINUOUS
 10
17.416889759
 20
2.3766004153
 40
0.0024749995
100
AcDbArc
 50
359.9999571957
 51
90.0000428043
  0
ARC
  5
34F
100
AcDbEntity
  8
0
100
AcDbCircle
 62
7
  6
CONTINUOUS
 10
17.3412257133
 20
2.3766004153
 40
0.0024749995
100
AcDbArc
 50
89.9999571957
 51
180.0000428043
  0
ARC
  5
350
100
AcDbEntity
  8
0
100
AcDbCircle
 62
7
  6
CONTINUOUS
 10
17.3598727274
 20
2.3815504143
 40
0.0024749995
100
AcDbArc
 50
269.9999571957
 51
0.0000428043
  0
ARC
  5
351
100
AcDbEntity
  8
0
100
AcDbCircle
 62
7
  6
CONTINUOUS
 10
17.3113167005
 20
2.3766004153
 40
0.0024749995
100
AcDbArc
 50
359.9999571957
 51
90.0000428043
  0
ARC
  5
352
100
AcDbEntity
  8
0
100
AcDbCircle
 62
7
  6
CONTINUOUS
 10
17.291300808
 20
2.3815494558
 40
0.002474041
100
AcDbArc
 50
212.9056413127
 51
269.9972091755
  0
ARC
  5
353
100
AcDbEntity
  8
0
100
AcDbCircle
 62
7
  6
CONTINUOUS
 10
17.5051338079
 20
2.4279054437
 40
0.0024749995
100
AcDbArc
 50
359.9999571957
 51
90.0000428043
  0
ARC
  5
354
100
AcDbEntity
  8
0
100
AcDbCircle
 62
7
  6
CONTINUOUS
 10
17.4863577938
 20
2.4328554428
 40
0.0024749995
100
AcDbArc
 50
179.9999571957
 51
270.0000428043
  0
ARC
  5
355
100
AcDbEntity
  8
0
100
AcDbCircle
 62
7
  6
CONTINUOUS
 10
17.4863577938
 20
2.4526554575
 40
0.0024749995
100
AcDbArc
 50
89.9999571957
 51
180.0000428043
  0
ARC
  5
356
100
AcDbEntity
  8
0
100
AcDbCircle
 62
7
  6
CONTINUOUS
 10
17.5603588386
 20
2.4526554575
 40
0.0024749995
100
AcDbArc
 50
359.9999571957
 51
90.0000428043
  0
ARC
  5
357
100
AcDbEntity
  8
0
100
AcDbCircle
 62
7
  6
CONTINUOUS
 10
17.5603588386
 20
2.4328554428
 40
0.0024749995
100
AcDbArc
 50
269.9999571957
 51
0.0000428043
  0
ARC
  5
358
100
AcDbEntity
  8
0
100
AcDbCircle
 62
7
  6
CONTINUOUS
 10
17.5424258249
 20
2.4279054437
 40
0.0024749995
100
AcDbArc
 50
89.9999571957
 51
180.0000428043
  0
ARC
  5
359
100
AcDbEntity
  8
0
100
AcDbCircle
 62
7
  6
CONTINUOUS
 10
17.3598727274
 20
2.4279054437
 40
0.0024749995
100
AcDbArc
 50
359.9999571957
 51
90.0000428043
  0
ARC
  5
35A
100
AcDbEntity
  8
0
100
AcDbCircle
 62
7
  6
CONTINUOUS
 10
17.3412257133
 20
2.4328554428
 40
0.0024749995
100
AcDbArc
 50
179.9999571957
 51
270.0000428043
  0
ARC
  5
35B
100
AcDbEntity
  8
0
100
AcDbCircle
 62
7
  6
CONTINUOUS
 10
17.3412257133
 20
2.4526554575
 40
0.0024749995
100
AcDbArc
 50
89.9999571957
 51
180.0000428043
  0
ARC
  5
35C
100
AcDbEntity
  8
0
100
AcDbCircle
 62
7
  6
CONTINUOUS
 10
17.2393900382
 20
2.4526554968
 40
0.0024749602
100
AcDbArc
 50
32.9172174468
 51
90.0087853097
  0
ARC
  5
35D
100
AcDbEntity
  8
0
100
AcDbCircle
 62
7
  6
CONTINUOUS
 10
17.4416839057
 20
2.4526562892
 40
0.0024741678
100
AcDbArc
 50
46.3477981899
 51
90.0031206038
  0
ARC
  5
35E
100
AcDbEntity
  8
0
100
AcDbCircle
 62
7
  6
CONTINUOUS
 10
18.2152358981
 20
2.2725915465
 40
0.1825583387
100
AcDbArc
 50
79.8618509324
 51
89.1640948679
  0
ARC
  5
35F
100
AcDbEntity
  8
0
100
AcDbCircle
 62
7
  6
CONTINUOUS
 10
18.197141171
 20
2.3016991173
 40
0.117346916
100
AcDbArc
 50
58.614769177
 51
62.3737227606
  0
ARC
  5
360
100
AcDbEntity
  8
0
100
AcDbCircle
 62
7
  6
CONTINUOUS
 10
18.2260032264
 20
2.3725718859
 40
0.0459185159
100
AcDbArc
 50
15.6740290068
 51
20.9917271228
  0
ARC
  5
361
100
AcDbEntity
  8
0
100
AcDbCircle
 62
7
  6
CONTINUOUS
 10
18.1662929967
 20
2.368643334
 40
0.0396099176
100
AcDbArc
 50
14.3201081283
 51
22.4984722084
  0
ARC
  5
362
100
AcDbEntity
  8
0
100
AcDbCircle
 62
7
  6
CONTINUOUS
 10
18.1850046504
 20
2.3693353402
 40
0.0243676582
100
AcDbArc
 50
63.3666028271
 51
90.3937697637
  0
ARC
  5
363
100
AcDbEntity
  8
0
100
AcDbCircle
 62
7
  6
CONTINUOUS
 10
18.2724993219
 20
2.3741987064
 40
0.0198837666
100
AcDbArc
 50
271.8586572978
 51
289.4131338543
  0
ARC
  5
364
100
AcDbEntity
  8
0
100
AcDbCircle
 62
7
  6
CONTINUOUS
 10
18.2265855264
 20
2.3716475527
 40
0.0173408616
100
AcDbArc
 50
232.4713476722
 51
267.338189944
  0
ARC
  5
365
100
AcDbEntity
  8
0
100
AcDbCircle
 62
7
  6
CONTINUOUS
 10
18.1818891832
 20
2.3568004006
 40
0.0024749995
100
AcDbArc
 50
269.9999571957
 51
0.0000428043
  0
ARC
  5
366
100
AcDbEntity
  8
0
100
AcDbCircle
 62
7
  6
CONTINUOUS
 10
18.0683181166
 20
2.3568004006
 40
0.0024749995
100
AcDbArc
 50
179.9999571957
 51
270.0000428043
  0
ARC
  5
367
100
AcDbEntity
  8
0
100
AcDbCircle
 62
7
  6
CONTINUOUS
 10
17.7857289635
 20
2.3568004006
 40
0.0024749995
100
AcDbArc
 50
269.9999571957
 51
0.0000428043
  0
ARC
  5
368
100
AcDbEntity
  8
0
100
AcDbCircle
 62
7
  6
CONTINUOUS
 10
17.6651428967
 20
2.3568004006
 40
0.0024749995
100
AcDbArc
 50
269.9999571957
 51
0.0000428043
  0
ARC
  5
369
100
AcDbEntity
  8
0
100
AcDbCircle
 62
7
  6
CONTINUOUS
 10
17.589478851
 20
2.3568004006
 40
0.0024749995
100
AcDbArc
 50
179.9999571957
 51
270.0000428043
  0
ARC
  5
36A
100
AcDbEntity
  8
0
100
AcDbCircle
 62
7
  6
CONTINUOUS
 10
18.0394141042
 20
2.3568004006
 40
0.0024749995
100
AcDbArc
 50
269.9999571957
 51
0.0000428043
  0
ARC
  5
36B
100
AcDbEntity
  8
0
100
AcDbCircle
 62
7
  6
CONTINUOUS
 10
17.8362019878
 20
2.3568004006
 40
0.0024749995
100
AcDbArc
 50
179.9999571957
 51
270.0000428043
  0
ARC
  5
36C
100
AcDbEntity
  8
0
100
AcDbCircle
 62
7
  6
CONTINUOUS
 10
17.7115227858
 20
2.3567995689
 40
0.0024741678
100
AcDbArc
 50
226.3477981898
 51
270.0031206038
  0
ARC
  5
36D
100
AcDbEntity
  8
0
100
AcDbCircle
 62
7
  6
CONTINUOUS
 10
17.7533866437
 20
2.3989573626
 40
0.0024753014
100
AcDbArc
 50
226.3461263059
 51
0.0014637321
  0
ARC
  5
36E
100
AcDbEntity
  8
0
100
AcDbCircle
 62
7
  6
CONTINUOUS
 10
17.6448261836
 20
2.4135964972
 40
0.0024753014
100
AcDbArc
 50
46.3461263058
 51
180.0014637321
  0
ARC
  5
36F
100
AcDbEntity
  8
0
100
AcDbCircle
 62
7
  6
CONTINUOUS
 10
17.6448258817
 20
2.3815504143
 40
0.0024749995
100
AcDbArc
 50
179.9999571957
 51
270.0000428043
  0
ARC
  5
370
100
AcDbEntity
  8
0
100
AcDbCircle
 62
7
  6
CONTINUOUS
 10
17.6651428967
 20
2.3766004153
 40
0.0024749995
100
AcDbArc
 50
359.9999571957
 51
90.0000428043
  0
ARC
  5
371
100
AcDbEntity
  8
0
100
AcDbCircle
 62
7
  6
CONTINUOUS
 10
17.589478851
 20
2.3766004153
 40
0.0024749995
100
AcDbArc
 50
89.9999571957
 51
180.0000428043
  0
ARC
  5
372
100
AcDbEntity
  8
0
100
AcDbCircle
 62
7
  6
CONTINUOUS
 10
17.6081248651
 20
2.3815504143
 40
0.0024749995
100
AcDbArc
 50
269.9999571957
 51
0.0000428043
  0
ARC
  5
373
100
AcDbEntity
  8
0
100
AcDbCircle
 62
7
  6
CONTINUOUS
 10
17.9271410383
 20
2.3931004244
 40
0.0024749995
100
AcDbArc
 50
89.9999571957
 51
180.0000428043
  0
ARC
  5
374
100
AcDbEntity
  8
0
100
AcDbCircle
 62
7
  6
CONTINUOUS
 10
17.9271410383
 20
2.3815504143
 40
0.0024749995
100
AcDbArc
 50
179.9999571957
 51
270.0000428043
  0
ARC
  5
375
100
AcDbEntity
  8
0
100
AcDbCircle
 62
7
  6
CONTINUOUS
 10
17.8362019878
 20
2.3766004153
 40
0.0024749995
100
AcDbArc
 50
89.9999571957
 51
180.0000428043
  0
ARC
  5
376
100
AcDbEntity
  8
0
100
AcDbCircle
 62
7
  6
CONTINUOUS
 10
17.8601250048
 20
2.3815504143
 40
0.0024749995
100
AcDbArc
 50
269.9999571956
 51
0.0000428042
  0
ARC
  5
377
100
AcDbEntity
  8
0
100
AcDbCircle
 62
7
  6
CONTINUOUS
 10
17.9271410383
 20
2.4163554336
 40
0.0024749995
100
AcDbArc
 50
179.9999571957
 51
270.0000428043
  0
ARC
  5
378
100
AcDbEntity
  8
0
100
AcDbCircle
 62
7
  6
CONTINUOUS
 10
17.7533869456
 20
2.4279054437
 40
0.0024749995
100
AcDbArc
 50
359.9999571957
 51
90.0000428043
  0
ARC
  5
379
100
AcDbEntity
  8
0
100
AcDbCircle
 62
7
  6
CONTINUOUS
 10
17.7346109315
 20
2.4328554428
 40
0.0024749995
100
AcDbArc
 50
179.9999571957
 51
270.0000428043
  0
ARC
  5
37A
100
AcDbEntity
  8
0
100
AcDbCircle
 62
7
  6
CONTINUOUS
 10
17.7346109315
 20
2.4526554575
 40
0.0024749995
100
AcDbArc
 50
89.9999571957
 51
180.0000428043
  0
ARC
  5
37B
100
AcDbEntity
  8
0
100
AcDbCircle
 62
7
  6
CONTINUOUS
 10
17.8086119762
 20
2.4526554575
 40
0.0024749995
100
AcDbArc
 50
359.9999571957
 51
90.0000428043
  0
ARC
  5
37C
100
AcDbEntity
  8
0
100
AcDbCircle
 62
7
  6
CONTINUOUS
 10
17.8086119762
 20
2.4328554428
 40
0.0024749995
100
AcDbArc
 50
269.9999571956
 51
0.0000428042
  0
ARC
  5
37D
100
AcDbEntity
  8
0
100
AcDbCircle
 62
7
  6
CONTINUOUS
 10
17.7906789626
 20
2.4279054437
 40
0.0024749995
100
AcDbArc
 50
89.9999571957
 51
180.0000428043
  0
ARC
  5
37E
100
AcDbEntity
  8
0
100
AcDbCircle
 62
7
  6
CONTINUOUS
 10
17.6081248651
 20
2.4279054437
 40
0.0024749995
100
AcDbArc
 50
359.9999571957
 51
90.0000428043
  0
ARC
  5
37F
100
AcDbEntity
  8
0
100
AcDbCircle
 62
7
  6
CONTINUOUS
 10
17.589478851
 20
2.4328554428
 40
0.0024749995
100
AcDbArc
 50
179.9999571957
 51
270.0000428043
  0
ARC
  5
380
100
AcDbEntity
  8
0
100
AcDbCircle
 62
7
  6
CONTINUOUS
 10
17.589478851
 20
2.4526554575
 40
0.0024749995
100
AcDbArc
 50
89.9999571957
 51
180.0000428043
  0
ARC
  5
381
100
AcDbEntity
  8
0
100
AcDbCircle
 62
7
  6
CONTINUOUS
 10
17.8601250048
 20
2.4279054437
 40
0.0024749995
100
AcDbArc
 50
359.9999571957
 51
90.0000428043
  0
ARC
  5
382
100
AcDbEntity
  8
0
100
AcDbCircle
 62
7
  6
CONTINUOUS
 10
17.8362019878
 20
2.4328554428
 40
0.0024749995
100
AcDbArc
 50
179.9999571957
 51
270.0000428043
  0
ARC
  5
383
100
AcDbEntity
  8
0
100
AcDbCircle
 62
7
  6
CONTINUOUS
 10
17.8362019878
 20
2.4526554575
 40
0.0024749995
100
AcDbArc
 50
89.9999571957
 51
180.0000428043
  0
ARC
  5
384
100
AcDbEntity
  8
0
100
AcDbCircle
 62
7
  6
CONTINUOUS
 10
17.9271410383
 20
2.4279054437
 40
0.0024749995
100
AcDbArc
 50
89.9999571957
 51
180.0000428043
  0
ARC
  5
385
100
AcDbEntity
  8
0
100
AcDbCircle
 62
7
  6
CONTINUOUS
 10
17.6899370433
 20
2.4526562892
 40
0.0024741678
100
AcDbArc
 50
46.3477981899
 51
90.0031206038
  0
ARC
  5
386
100
AcDbEntity
  8
0
100
AcDbCircle
 62
7
  6
CONTINUOUS
 10
18.2495655574
 20
2.384346736
 40
0.044722495
100
AcDbArc
 50
195.531588407
 51
204.7624440448
  0
ARC
  5
387
100
AcDbEntity
  8
0
100
AcDbCircle
 62
7
  6
CONTINUOUS
 10
18.2415401884
 20
2.4134150625
 40
0.039319019
100
AcDbArc
 50
59.1202086415
 51
81.4730239328
  0
ARC
  5
388
100
AcDbEntity
  8
0
100
AcDbCircle
 62
7
  6
CONTINUOUS
 10
18.2667613545
 20
2.3917854558
 40
0.0383802683
100
AcDbArc
 50
288.7656836787
 51
309.6104317088
  0
ARC
  5
389
100
AcDbEntity
  8
0
100
AcDbCircle
 62
7
  6
CONTINUOUS
 10
18.2471995846
 20
2.4197497317
 40
0.0310192946
100
AcDbArc
 50
34.7540871
 51
62.0879016178
  0
ARC
  5
38A
100
AcDbEntity
  8
0
100
AcDbCircle
 62
7
  6
CONTINUOUS
 10
18.1924863006
 20
2.4019259643
 40
0.0284963867
100
AcDbArc
 50
70.3834917948
 51
86.8922743861
  0
ARC
  5
38B
100
AcDbEntity
  8
0
100
AcDbCircle
 62
7
  6
CONTINUOUS
 10
18.2737535399
 20
2.384184238
 40
0.0280715479
100
AcDbArc
 50
308.5071794988
 51
332.2400656899
  0
ARC
  5
38C
100
AcDbEntity
  8
0
100
AcDbCircle
 62
7
  6
CONTINUOUS
 10
18.2439037681
 20
2.3797532943
 40
0.0266349791
100
AcDbArc
 50
20.3630922153
 51
37.9727053099
  0
ARC
  5
38D
100
AcDbEntity
  8
0
100
AcDbCircle
 62
7
  6
CONTINUOUS
 10
18.2450241237
 20
2.3798263774
 40
0.0257145923
100
AcDbArc
 50
39.3804255939
 51
59.0361096173
  0
ARC
  5
38E
100
AcDbEntity
  8
0
100
AcDbCircle
 62
7
  6
CONTINUOUS
 10
18.2296840914
 20
2.3774978567
 40
0.0238935861
100
AcDbArc
 50
209.8247607259
 51
235.1255079367
  0
ARC
  5
38F
100
AcDbEntity
  8
0
100
AcDbCircle
 62
7
  6
CONTINUOUS
 10
18.2830605507
 20
2.3792897325
 40
0.0175560065
100
AcDbArc
 50
332.2279060967
 51
359.6595469939
  0
ARC
  5
390
100
AcDbEntity
  8
0
100
AcDbCircle
 62
7
  6
CONTINUOUS
 10
18.1890593051
 20
2.3776149607
 40
0.0151491919
100
AcDbArc
 50
24.098260853
 51
63.0369451818
  0
ARC
  5
391
100
AcDbEntity
  8
0
100
AcDbCircle
 62
7
  6
CONTINUOUS
 10
18.2845735615
 20
2.3882148688
 40
0.0147197649
100
AcDbArc
 50
192.7054516565
 51
206.0594861022
  0
ARC
  5
392
100
AcDbEntity
  8
0
100
AcDbCircle
 62
7
  6
CONTINUOUS
 10
18.1973459106
 20
2.4149676972
 40
0.0145814632
100
AcDbArc
 50
54.6746025112
 51
71.1660573124
  0
ARC
  5
393
100
AcDbEntity
  8
0
100
AcDbCircle
 62
7
  6
CONTINUOUS
 10
18.2752146786
 20
2.3927110743
 40
0.0132488022
100
AcDbArc
 50
270.266200055
 51
281.2404888597
  0
ARC
  5
394
100
AcDbEntity
  8
0
100
AcDbCircle
 62
7
  6
CONTINUOUS
 10
18.2716089246
 20
2.3878675959
 40
0.0119498009
100
AcDbArc
 50
340.7883861657
 51
1.1691452593
  0
ARC
  5
395
100
AcDbEntity
  8
0
100
AcDbCircle
 62
7
  6
CONTINUOUS
 10
18.198398534
 20
2.4260095887
 40
0.0110815393
100
AcDbArc
 50
306.758405961
 51
320.4502234234
  0
ARC
  5
396
100
AcDbEntity
  8
0
100
AcDbCircle
 62
7
  6
CONTINUOUS
 10
18.2764089196
 20
2.3869743807
 40
0.0073895522
100
AcDbArc
 50
280.8288201977
 51
305.0837508495
  0
ARC
  5
397
100
AcDbEntity
  8
0
100
AcDbCircle
 62
7
  6
CONTINUOUS
 10
18.2768101012
 20
2.3861235343
 40
0.0064647042
100
AcDbArc
 50
306.5086174083
 51
340.2162360092
  0
ARC
  5
398
100
AcDbEntity
  8
0
100
AcDbCircle
 62
7
  6
CONTINUOUS
 10
18.2024754016
 20
2.4218216224
 40
0.0060275915
100
AcDbArc
 50
20.9055592135
 51
56.7851676243
  0
ARC
  5
399
100
AcDbEntity
  8
0
100
AcDbCircle
 62
7
  6
CONTINUOUS
 10
18.2025691502
 20
2.4227756809
 40
0.0058087709
100
AcDbArc
 50
318.8515287446
 51
353.6422345323
  0
ARC
  5
39A
100
AcDbEntity
  8
0
100
AcDbCircle
 62
7
  6
CONTINUOUS
 10
18.2760792244
 20
2.3840063824
 40
0.0052403997
100
AcDbArc
 50
205.5232099488
 51
227.5054868079
  0
ARC
  5
39B
100
AcDbEntity
  8
0
100
AcDbCircle
 62
7
  6
CONTINUOUS
 10
18.2037759605
 20
2.4224819047
 40
0.0045795888
100
AcDbArc
 50
355.6235353944
 51
18.9942678268
  0
ARC
  5
39C
100
AcDbEntity
  8
0
100
AcDbCircle
 62
7
  6
CONTINUOUS
 10
18.2743509251
 20
2.3821910097
 40
0.0027347709
100
AcDbArc
 50
228.5117626738
 51
266.1485845754
  0
ARC
  5
39D
100
AcDbEntity
  8
0
100
AcDbCircle
 62
7
  6
CONTINUOUS
 10
18.1572301659
 20
2.3912274234
 40
0.0024749995
100
AcDbArc
 50
89.9999571957
 51
180.0000428043
  0
ARC
  5
39E
100
AcDbEntity
  8
0
100
AcDbCircle
 62
7
  6
CONTINUOUS
 10
18.1572301659
 20
2.3815284143
 40
0.0024749995
100
AcDbArc
 50
179.9999571957
 51
270.0000428043
  0
ARC
  5
39F
100
AcDbEntity
  8
0
100
AcDbCircle
 62
7
  6
CONTINUOUS
 10
18.1818891832
 20
2.3765784153
 40
0.0024749995
100
AcDbArc
 50
359.9999571957
 51
90.0000428043
  0
ARC
  5
3A0
100
AcDbEntity
  8
0
100
AcDbCircle
 62
7
  6
CONTINUOUS
 10
18.0683181166
 20
2.3766004153
 40
0.0024749995
100
AcDbArc
 50
89.9999571957
 51
180.0000428043
  0
ARC
  5
3A1
100
AcDbEntity
  8
0
100
AcDbCircle
 62
7
  6
CONTINUOUS
 10
18.0910641329
 20
2.3815504143
 40
0.0024749995
100
AcDbArc
 50
269.9999571957
 51
0.0000428043
  0
ARC
  5
3A2
100
AcDbEntity
  8
0
100
AcDbCircle
 62
7
  6
CONTINUOUS
 10
18.2860312373
 20
2.3907374231
 40
0.0024749995
100
AcDbArc
 50
89.9999571957
 51
180.0000428043
  0
ARC
  5
3A3
100
AcDbEntity
  8
0
100
AcDbCircle
 62
7
  6
CONTINUOUS
 10
18.2981412477
 20
2.3907374231
 40
0.0024749995
100
AcDbArc
 50
359.9999571957
 51
90.0000428043
  0
ARC
  5
3A4
100
AcDbEntity
  8
0
100
AcDbCircle
 62
7
  6
CONTINUOUS
 10
18.1572301659
 20
2.415180433
 40
0.0024749995
100
AcDbArc
 50
179.9999571957
 51
270.0000428043
  0
ARC
  5
3A5
100
AcDbEntity
  8
0
100
AcDbCircle
 62
7
  6
CONTINUOUS
 10
17.992145078
 20
2.3815504143
 40
0.0024749995
100
AcDbArc
 50
269.9999571957
 51
0.0000428043
  0
ARC
  5
3A6
100
AcDbEntity
  8
0
100
AcDbCircle
 62
7
  6
CONTINUOUS
 10
17.9970950771
 20
2.3898004226
 40
0.0024749995
100
AcDbArc
 50
89.9999571957
 51
180.0000428043
  0
ARC
  5
3A7
100
AcDbEntity
  8
0
100
AcDbCircle
 62
7
  6
CONTINUOUS
 10
18.0394141042
 20
2.3898004226
 40
0.0024749995
100
AcDbArc
 50
359.9999571957
 51
90.0000428043
  0
ARC
  5
3A8
100
AcDbEntity
  8
0
100
AcDbCircle
 62
7
  6
CONTINUOUS
 10
18.0379951034
 20
2.4196554355
 40
0.0024749995
100
AcDbArc
 50
269.9999571956
 51
0.0000428042
  0
ARC
  5
3A9
100
AcDbEntity
  8
0
100
AcDbCircle
 62
7
  6
CONTINUOUS
 10
17.9961310765
 20
2.4196554355
 40
0.0024749995
100
AcDbArc
 50
179.9999571957
 51
270.0000428043
  0
ARC
  5
3AA
100
AcDbEntity
  8
0
100
AcDbCircle
 62
7
  6
CONTINUOUS
 10
17.9623080615
 20
2.4114054346
 40
0.0024749995
100
AcDbArc
 50
359.9999571957
 51
90.0000428043
  0
ARC
  5
3AB
100
AcDbEntity
  8
0
100
AcDbCircle
 62
7
  6
CONTINUOUS
 10
17.9623080615
 20
2.3980504235
 40
0.0024749995
100
AcDbArc
 50
269.9999571956
 51
0.0000428042
  0
ARC
  5
3AC
100
AcDbEntity
  8
0
100
AcDbCircle
 62
7
  6
CONTINUOUS
 10
18.220842337
 20
2.4783532224
 40
0.0789082104
100
AcDbArc
 50
292.906155071
 51
305.2574666259
  0
ARC
  5
3AD
100
AcDbEntity
  8
0
100
AcDbCircle
 62
7
  6
CONTINUOUS
 10
18.2511742746
 20
2.4351463727
 40
0.0261183659
100
AcDbArc
 50
305.6373831893
 51
329.9727629745
  0
ARC
  5
3AE
100
AcDbEntity
  8
0
100
AcDbCircle
 62
7
  6
CONTINUOUS
 10
18.1908418374
 20
2.4381440645
 40
0.0254407115
100
AcDbArc
 50
270.7327484175
 51
290.441894219
  0
ARC
  5
3AF
100
AcDbEntity
  8
0
100
AcDbCircle
 62
7
  6
CONTINUOUS
 10
18.1927693431
 20
2.4337504172
 40
0.0206523367
100
AcDbArc
 50
289.6883413472
 51
306.4184925496
  0
ARC
  5
3B0
100
AcDbEntity
  8
0
100
AcDbCircle
 62
7
  6
CONTINUOUS
 10
18.2588883357
 20
2.4282993328
 40
0.0165459396
100
AcDbArc
 50
1.548452892
 51
33.5033152417
  0
ARC
  5
3B1
100
AcDbEntity
  8
0
100
AcDbCircle
 62
7
  6
CONTINUOUS
 10
18.2621849309
 20
2.428467785
 40
0.0132462337
100
AcDbArc
 50
331.1510006998
 51
1.205404301
  0
ARC
  5
3B2
100
AcDbEntity
  8
0
100
AcDbCircle
 62
7
  6
CONTINUOUS
 10
18.0910641329
 20
2.4279054437
 40
0.0024749995
100
AcDbArc
 50
359.9999571957
 51
90.0000428043
  0
ARC
  5
3B3
100
AcDbEntity
  8
0
100
AcDbCircle
 62
7
  6
CONTINUOUS
 10
18.0683181166
 20
2.4328554428
 40
0.0024749995
100
AcDbArc
 50
179.9999571957
 51
270.0000428043
  0
ARC
  5
3B4
100
AcDbEntity
  8
0
100
AcDbCircle
 62
7
  6
CONTINUOUS
 10
18.0683181166
 20
2.4526554575
 40
0.0024749995
100
AcDbArc
 50
89.9999571957
 51
180.0000428043
  0
ARC
  5
3B5
100
AcDbEntity
  8
0
100
AcDbCircle
 62
7
  6
CONTINUOUS
 10
18.1572301659
 20
2.4279054437
 40
0.0024749995
100
AcDbArc
 50
89.9999571957
 51
180.0000428043
  0
ARC
  5
3B6
100
AcDbEntity
  8
0
100
AcDbCircle
 62
7
  6
CONTINUOUS
 10
18.0379951034
 20
2.4526554575
 40
0.0024749995
100
AcDbArc
 50
359.9999571957
 51
90.0000428043
  0
ARC
  5
3B7
100
AcDbEntity
  8
0
100
AcDbCircle
 62
7
  6
CONTINUOUS
 10
17.9911810775
 20
2.4279054437
 40
0.0024749995
100
AcDbArc
 50
359.9999571957
 51
90.0000428043
  0
ELLIPSE
  5
3B8
100
AcDbEntity
  8
0
100
AcDbEllipse
 62
7
  6
CONTINUOUS
 10
17.573550844
 20
2.4034764283
 30
0.0
 11
-0.8250004575
 21
0.0
 31
0.0
 40
0.218572
 41
0.0
 42
6.2831853072
  0
HATCH
  5
3B9
100
AcDbEntity
  8
0
100
AcDbHatch
 62
7
  6
CONTINUOUS
 10
0.0
 20
0.0
 30
0.0
210
0.0
220
0.0
230
1.0
  2
XSEC0002
 70
1
 71
1
 91
11
 92
1
 93
57
 72
2
 10
18.2265855264
 20
2.3716475527
 40
0.0173408616
 50
232.4713476722
 51
267.338189944
 73
1
 72
2
 10
18.2296840914
 20
2.3774978567
 40
0.0238935861
 50
209.8247607259
 51
235.1255079367
 73
1
 72
2
 10
18.2495655574
 20
2.384346736
 40
0.044722495
 50
195.531588407
 51
204.7624440448
 73
1
 72
1
 10
18.206476195
 20
2.3723714111
 11
18.204672194
 21
2.3784404145
 72
2
 10
18.1662929967
 20
2.368643334
 40
0.0396099176
 50
14.3201081283
 51
22.4984722084
 73
1
 72
2
 10
18.1890593051
 20
2.3776149607
 40
0.0151491919
 50
24.098260853
 51
63.0369451818
 73
1
 72
2
 10
18.1850046504
 20
2.3693353402
 40
0.0243676582
 50
63.3666028271
 51
90.3937697637
 73
1
 72
1
 10
18.184837183
 20
2.3937024229
 11
18.1572301677
 21
2.3937024229
 72
2
 10
18.1572301659
 20
2.3912274234
 40
0.0024749995
 50
89.9999571957
 51
180.0000428043
 73
1
 72
1
 10
18.1547551663
 20
2.3912274216
 11
18.1547551663
 21
2.3815284162
 72
2
 10
18.1572301659
 20
2.3815284143
 40
0.0024749995
 50
179.9999571957
 51
270.0000428043
 73
1
 72
1
 10
18.1572301677
 20
2.3790534148
 11
18.1818891814
 21
2.3790534148
 72
2
 10
18.1818891832
 20
2.3765784153
 40
0.0024749995
 50
359.9999571957
 51
90.0000428042
 73
1
 72
1
 10
18.1843641828
 20
2.3765784134
 11
18.1843641828
 21
2.3568004025
 72
2
 10
18.1818891832
 20
2.3568004006
 40
0.0024749995
 50
269.9999571958
 51
0.0000428043
 73
1
 72
1
 10
18.1818891814
 20
2.3543254011
 11
18.0683181184
 21
2.3543254011
 72
2
 10
18.0683181166
 20
2.3568004006
 40
0.0024749995
 50
179.9999571957
 51
270.0000428042
 73
1
 72
1
 10
18.065843117
 20
2.3568004025
 11
18.065843117
 21
2.3766004134
 72
2
 10
18.0683181166
 20
2.3766004153
 40
0.0024749995
 50
89.9999571958
 51
180.0000428043
 73
1
 72
1
 10
18.0683181184
 20
2.3790754148
 11
18.091064131
 21
2.3790754148
 72
2
 10
18.0910641329
 20
2.3815504143
 40
0.0024749995
 50
269.9999571957
 51
0.0000428043
 73
1
 72
1
 10
18.0935391324
 20
2.3815504162
 11
18.0935391324
 21
2.4279054419
 72
2
 10
18.0910641329
 20
2.4279054437
 40
0.0024749995
 50
359.9999571957
 51
90.0000428043
 73
1
 72
1
 10
18.091064131
 20
2.4303804433
 11
18.0683181184
 21
2.4303804433
 72
2
 10
18.0683181166
 20
2.4328554428
 40
0.0024749995
 50
179.9999571957
 51
270.0000428043
 73
1
 72
1
 10
18.065843117
 20
2.4328554446
 11
18.065843117
 21
2.4526554556
 72
2
 10
18.0683181166
 20
2.4526554575
 40
0.0024749995
 50
89.9999571958
 51
180.0000428043
 73
1
 72
1
 10
18.0683181184
 20
2.455130457
 11
18.2178992014
 21
2.455130457
 72
2
 10
18.2152358981
 20
2.2725915465
 40
0.1825583387
 50
79.8618509324
 51
89.1640948679
 73
1
 72
2
 10
18.2415401884
 20
2.4134150625
 40
0.039319019
 50
59.1202086415
 51
81.4730239328
 73
1
 72
2
 10
18.2471995846
 20
2.4197497317
 40
0.0310192946
 50
34.7540871
 51
62.0879016178
 73
1
 72
2
 10
18.2588883357
 20
2.4282993328
 40
0.0165459396
 50
1.548452892
 51
33.5033152417
 73
1
 72
2
 10
18.2621849309
 20
2.428467785
 40
0.0132462337
 50
331.1510006998
 51
1.205404301
 73
1
 72
2
 10
18.2511742746
 20
2.4351463727
 40
0.0261183659
 50
305.6373831893
 51
329.9727629745
 73
1
 72
2
 10
18.220842337
 20
2.4783532224
 40
0.0789082104
 50
292.906155071
 51
305.2574666259
 73
1
 72
2
 10
18.197141171
 20
2.3016991173
 40
0.117346916
 50
58.614769177
 51
62.3737227606
 73
1
 72
2
 10
18.2450241237
 20
2.3798263774
 40
0.0257145923
 50
39.3804255939
 51
59.0361096173
 73
1
 72
2
 10
18.2439037681
 20
2.3797532943
 40
0.0266349791
 50
20.3630922153
 51
37.9727053099
 73
1
 72
2
 10
18.2260032264
 20
2.3725718859
 40
0.0459185159
 50
15.6740290068
 51
20.9917271228
 73
1
 72
2
 10
18.2845735615
 20
2.3882148688
 40
0.0147197649
 50
192.7054516565
 51
206.0594861022
 73
1
 72
2
 10
18.2760792244
 20
2.3840063824
 40
0.0052403997
 50
205.5232099488
 51
227.5054868079
 73
1
 72
2
 10
18.2743509251
 20
2.3821910097
 40
0.0027347709
 50
228.5117626738
 51
266.1485845755
 73
1
 72
1
 10
18.2741672326
 20
2.379462415
 11
18.2752762332
 21
2.379462415
 72
2
 10
18.2752146786
 20
2.3927110743
 40
0.0132488022
 50
270.266200055
 51
281.2404888597
 73
1
 72
2
 10
18.2764089196
 20
2.3869743807
 40
0.0073895522
 50
280.8288201977
 51
305.0837508495
 73
1
 72
2
 10
18.2768101012
 20
2.3861235343
 40
0.0064647042
 50
306.5086174083
 51
340.2162360092
 73
1
 72
2
 10
18.2716089246
 20
2.3878675959
 40
0.0119498009
 50
340.7883861657
 51
1.1691452593
 73
1
 72
1
 10
18.2835562378
 20
2.3881114198
 11
18.2835562378
 21
2.3907374213
 72
2
 10
18.2860312373
 20
2.3907374231
 40
0.0024749995
 50
89.9999571957
 51
180.0000428043
 73
1
 72
1
 10
18.2860312391
 20
2.3932124227
 11
18.2981412459
 21
2.3932124227
 72
2
 10
18.2981412477
 20
2.3907374231
 40
0.0024749995
 50
359.9999571957
 51
90.0000428043
 73
1
 72
1
 10
18.3006162472
 20
2.3907374213
 11
18.3006162472
 21
2.3791854149
 72
2
 10
18.2830605507
 20
2.3792897325
 40
0.0175560065
 50
332.2279060967
 51
359.6595469939
 73
1
 72
2
 10
18.2737535399
 20
2.384184238
 40
0.0280715479
 50
308.5071794988
 51
332.2400656899
 73
1
 72
2
 10
18.2667613545
 20
2.3917854558
 40
0.0383802683
 50
288.7656836787
 51
309.6104317088
 73
1
 72
2
 10
18.2724993219
 20
2.3741987064
 40
0.0198837666
 50
271.8586572978
 51
289.4131338543
 73
1
 72
1
 10
18.273144232
 20
2.3543254011
 11
18.2257802057
 21
2.3543254011
 97
267
330
2AE
330
2AF
330
2B0
330
2B1
330
2B2
330
2B3
330
2B4
330
2B5
330
2B6
330
2B7
330
2B8
330
2B9
330
2BA
330
2BB
330
2BC
330
2BD
330
2BE
330
2BF
330
2C0
330
2C1
330
2C2
330
2C3
330
2C4
330
2C5
330
2C6
330
2C7
330
2C8
330
2C9
330
2CA
330
2CB
330
2CC
330
2CD
330
2CE
330
2CF
330
2D0
330
2D1
330
2D2
330
2D3
330
2D4
330
2D5
330
2D6
330
2D7
330
2D8
330
2D9
330
2DA
330
2DB
330
2DC
330
2DD
330
2DE
330
2DF
330
2E0
330
2E1
330
2E2
330
2E3
330
2E4
330
2E5
330
2E6
330
2E7
330
2E8
330
2E9
330
2EA
330
2EB
330
2EC
330
2ED
330
2EE
330
2EF
330
2F0
330
2F1
330
2F2
330
2F3
330
2F4
330
2F5
330
2F6
330
2F7
330
2F8
330
2F9
330
2FA
330
2FB
330
2FC
330
2FD
330
2FE
330
2FF
330
300
330
301
330
302
330
303
330
304
330
305
330
306
330
307
330
308
330
309
330
30A
330
30B
330
30C
330
30D
330
30E
330
30F
330
310
330
311
330
312
330
313
330
314
330
315
330
316
330
317
330
318
330
319
330
31A
330
31B
330
31C
330
31D
330
31E
330
31F
330
320
330
321
330
322
330
323
330
324
330
325
330
326
330
327
330
328
330
329
330
32A
330
32B
330
32C
330
32D
330
32E
330
32F
330
330
330
331
330
332
330
333
330
334
330
335
330
336
330
337
330
338
330
339
330
33A
330
33B
330
33C
330
33D
330
33E
330
33F
330
340
330
341
330
342
330
343
330
344
330
345
330
346
330
347
330
348
330
349
330
34A
330
34B
330
34C
330
34D
330
34E
330
34F
330
350
330
351
330
352
330
353
330
354
330
355
330
356
330
357
330
358
330
359
330
35A
330
35B
330
35C
330
35D
330
35E
330
35F
330
360
330
361
330
362
330
363
330
364
330
365
330
366
330
367
330
368
330
369
330
36A
330
36B
330
36C
330
36D
330
36E
330
36F
330
370
330
371
330
372
330
373
330
374
330
375
330
376
330
377
330
378
330
379
330
37A
330
37B
330
37C
330
37D
330
37E
330
37F
330
380
330
381
330
382
330
383
330
384
330
385
330
386
330
387
330
388
330
389
330
38A
330
38B
330
38C
330
38D
330
38E
330
38F
330
390
330
391
330
392
330
393
330
394
330
395
330
396
330
397
330
398
330
399
330
39A
330
39B
330
39C
330
39D
330
39E
330
39F
330
3A0
330
3A1
330
3A2
330
3A3
330
3A4
330
3A5
330
3A6
330
3A7
330
3A8
330
3A9
330
3AA
330
3AB
330
3AC
330
3AD
330
3AE
330
3AF
330
3B0
330
3B1
330
3B2
330
3B3
330
3B4
330
3B5
330
3B6
330
3B7
330
3B8
 92
1
 93
40
 72
2
 10
17.8362019878
 20
2.3568004006
 40
0.0024749995
 50
179.9999571957
 51
270.0000428042
 73
1
 72
1
 10
17.8337269883
 20
2.3568004025
 11
17.8337269883
 21
2.3766004134
 72
2
 10
17.8362019878
 20
2.3766004153
 40
0.0024749995
 50
89.9999571958
 51
180.0000428043
 73
1
 72
1
 10
17.8362019897
 20
2.3790754148
 11
17.860125003
 21
2.3790754148
 72
2
 10
17.8601250048
 20
2.3815504143
 40
0.0024749995
 50
269.9999571956
 51
0.0000428042
 73
1
 72
1
 10
17.8626000043
 20
2.3815504162
 11
17.8626000043
 21
2.4279054419
 72
2
 10
17.8601250048
 20
2.4279054437
 40
0.0024749995
 50
359.9999571957
 51
90.0000428043
 73
1
 72
1
 10
17.860125003
 20
2.4303804433
 11
17.8362019897
 21
2.4303804433
 72
2
 10
17.8362019878
 20
2.4328554428
 40
0.0024749995
 50
179.9999571957
 51
270.0000428043
 73
1
 72
1
 10
17.8337269883
 20
2.4328554446
 11
17.8337269883
 21
2.4526554556
 72
2
 10
17.8362019878
 20
2.4526554575
 40
0.0024749995
 50
89.9999571958
 51
180.0000428043
 73
1
 72
1
 10
17.8362019897
 20
2.455130457
 11
18.0379951016
 21
2.455130457
 72
2
 10
18.0379951034
 20
2.4526554575
 40
0.0024749995
 50
359.9999571957
 51
90.0000428042
 73
1
 72
1
 10
18.040470103
 20
2.4526554556
 11
18.040470103
 21
2.4196554373
 72
2
 10
18.0379951034
 20
2.4196554355
 40
0.0024749995
 50
269.9999571956
 51
0.0000428042
 73
1
 72
1
 10
18.0379951016
 20
2.4171804359
 11
17.9961310784
 21
2.4171804359
 72
2
 10
17.9961310765
 20
2.4196554355
 40
0.0024749995
 50
179.9999571957
 51
270.0000428043
 73
1
 72
1
 10
17.993656077
 20
2.4196554373
 11
17.993656077
 21
2.4279054419
 72
2
 10
17.9911810775
 20
2.4279054437
 40
0.0024749995
 50
359.9999571957
 51
90.0000428043
 73
1
 72
1
 10
17.9911810756
 20
2.4303804433
 11
17.9271410401
 21
2.4303804433
 72
2
 10
17.9271410383
 20
2.4279054437
 40
0.0024749995
 50
89.9999571958
 51
180.0000428043
 73
1
 72
1
 10
17.9246660387
 20
2.4279054419
 11
17.9246660387
 21
2.4163554355
 72
2
 10
17.9271410383
 20
2.4163554336
 40
0.0024749995
 50
179.9999571957
 51
270.0000428042
 73
1
 72
1
 10
17.9271410401
 20
2.4138804341
 11
17.9623080596
 21
2.4138804341
 72
2
 10
17.9623080615
 20
2.4114054346
 40
0.0024749995
 50
359.9999571957
 51
90.0000428042
 73
1
 72
1
 10
17.964783061
 20
2.4114054327
 11
17.964783061
 21
2.3980504253
 72
2
 10
17.9623080615
 20
2.3980504235
 40
0.0024749995
 50
269.9999571956
 51
0.0000428042
 73
1
 72
1
 10
17.9623080596
 20
2.395575424
 11
17.9271410401
 21
2.395575424
 72
2
 10
17.9271410383
 20
2.3931004244
 40
0.0024749995
 50
89.9999571958
 51
180.0000428043
 73
1
 72
1
 10
17.9246660387
 20
2.3931004226
 11
17.9246660387
 21
2.3815504162
 72
2
 10
17.9271410383
 20
2.3815504143
 40
0.0024749995
 50
179.9999571957
 51
270.0000428043
 73
1
 72
1
 10
17.9271410401
 20
2.3790754148
 11
17.9921450762
 21
2.3790754148
 72
2
 10
17.992145078
 20
2.3815504143
 40
0.0024749995
 50
269.9999571958
 51
0.0000428043
 73
1
 72
1
 10
17.9946200775
 20
2.3815504162
 11
17.9946200775
 21
2.3898004208
 72
2
 10
17.9970950771
 20
2.3898004226
 40
0.0024749995
 50
89.9999571958
 51
180.0000428043
 73
1
 72
1
 10
17.9970950789
 20
2.3922754221
 11
18.0394141024
 21
2.3922754221
 72
2
 10
18.0394141042
 20
2.3898004226
 40
0.0024749995
 50
359.9999571957
 51
90.0000428043
 73
1
 72
1
 10
18.0418891038
 20
2.3898004208
 11
18.0418891038
 21
2.3568004025
 72
2
 10
18.0394141042
 20
2.3568004006
 40
0.0024749995
 50
269.9999571958
 51
0.0000428043
 73
1
 72
1
 10
18.0394141024
 20
2.3543254011
 11
17.8362019897
 21
2.3543254011
 97
267
330
2AE
330
2AF
330
2B0
330
2B1
330
2B2
330
2B3
330
2B4
330
2B5
330
2B6
330
2B7
330
2B8
330
2B9
330
2BA
330
2BB
330
2BC
330
2BD
330
2BE
330
2BF
330
2C0
330
2C1
330
2C2
330
2C3
330
2C4
330
2C5
330
2C6
330
2C7
330
2C8
330
2C9
330
2CA
330
2CB
330
2CC
330
2CD
330
2CE
330
2CF
330
2D0
330
2D1
330
2D2
330
2D3
330
2D4
330
2D5
330
2D6
330
2D7
330
2D8
330
2D9
330
2DA
330
2DB
330
2DC
330
2DD
330
2DE
330
2DF
330
2E0
330
2E1
330
2E2
330
2E3
330
2E4
330
2E5
330
2E6
330
2E7
330
2E8
330
2E9
330
2EA
330
2EB
330
2EC
330
2ED
330
2EE
330
2EF
330
2F0
330
2F1
330
2F2
330
2F3
330
2F4
330
2F5
330
2F6
330
2F7
330
2F8
330
2F9
330
2FA
330
2FB
330
2FC
330
2FD
330
2FE
330
2FF
330
300
330
301
330
302
330
303
330
304
330
305
330
306
330
307
330
308
330
309
330
30A
330
30B
330
30C
330
30D
330
30E
330
30F
330
310
330
311
330
312
330
313
330
314
330
315
330
316
330
317
330
318
330
319
330
31A
330
31B
330
31C
330
31D
330
31E
330
31F
330
320
330
321
330
322
330
323
330
324
330
325
330
326
330
327
330
328
330
329
330
32A
330
32B
330
32C
330
32D
330
32E
330
32F
330
330
330
331
330
332
330
333
330
334
330
335
330
336
330
337
330
338
330
339
330
33A
330
33B
330
33C
330
33D
330
33E
330
33F
330
340
330
341
330
342
330
343
330
344
330
345
330
346
330
347
330
348
330
349
330
34A
330
34B
330
34C
330
34D
330
34E
330
34F
330
350
330
351
330
352
330
353
330
354
330
355
330
356
330
357
330
358
330
359
330
35A
330
35B
330
35C
330
35D
330
35E
330
35F
330
360
330
361
330
362
330
363
330
364
330
365
330
366
330
367
330
368
330
369
330
36A
330
36B
330
36C
330
36D
330
36E
330
36F
330
370
330
371
330
372
330
373
330
374
330
375
330
376
330
377
330
378
330
379
330
37A
330
37B
330
37C
330
37D
330
37E
330
37F
330
380
330
381
330
382
330
383
330
384
330
385
330
386
330
387
330
388
330
389
330
38A
330
38B
330
38C
330
38D
330
38E
330
38F
330
390
330
391
330
392
330
393
330
394
330
395
330
396
330
397
330
398
330
399
330
39A
330
39B
330
39C
330
39D
330
39E
330
39F
330
3A0
330
3A1
330
3A2
330
3A3
330
3A4
330
3A5
330
3A6
330
3A7
330
3A8
330
3A9
330
3AA
330
3AB
330
3AC
330
3AD
330
3AE
330
3AF
330
3B0
330
3B1
330
3B2
330
3B3
330
3B4
330
3B5
330
3B6
330
3B7
330
3B8
 92
1
 93
40
 72
2
 10
17.7115227858
 20
2.3567995689
 40
0.0024741678
 50
226.3477981898
 51
270.0031206038
 73
1
 72
1
 10
17.7098149196
 20
2.3550094015
 11
17.6465348845
 21
2.415387435
 72
2
 10
17.6448261836
 20
2.4135964972
 40
0.0024753014
 50
46.3461263058
 51
180.0014637321
 73
1
 72
1
 10
17.6423508822
 20
2.413596434
 11
17.6423508822
 21
2.3815504162
 72
2
 10
17.6448258817
 20
2.3815504143
 40
0.0024749995
 50
179.9999571957
 51
270.0000428043
 73
1
 72
1
 10
17.6448258836
 20
2.3790754148
 11
17.6651428948
 21
2.3790754148
 72
2
 10
17.6651428967
 20
2.3766004153
 40
0.0024749995
 50
359.9999571957
 51
90.0000428043
 73
1
 72
1
 10
17.6676178962
 20
2.3766004134
 11
17.6676178962
 21
2.3568004025
 72
2
 10
17.6651428967
 20
2.3568004006
 40
0.0024749995
 50
269.9999571958
 51
0.0000428043
 73
1
 72
1
 10
17.6651428948
 20
2.3543254011
 11
17.5894788529
 21
2.3543254011
 72
2
 10
17.589478851
 20
2.3568004006
 40
0.0024749995
 50
179.9999571957
 51
270.0000428042
 73
1
 72
1
 10
17.5870038515
 20
2.3568004025
 11
17.5870038515
 21
2.3766004134
 72
2
 10
17.589478851
 20
2.3766004153
 40
0.0024749995
 50
89.9999571957
 51
180.0000428043
 73
1
 72
1
 10
17.5894788529
 20
2.3790754148
 11
17.6081248632
 21
2.3790754148
 72
2
 10
17.6081248651
 20
2.3815504143
 40
0.0024749995
 50
269.9999571957
 51
0.0000428043
 73
1
 72
1
 10
17.6105998646
 20
2.3815504162
 11
17.6105998646
 21
2.4279054419
 72
2
 10
17.6081248651
 20
2.4279054437
 40
0.0024749995
 50
359.9999571957
 51
90.0000428043
 73
1
 72
1
 10
17.6081248632
 20
2.4303804433
 11
17.5894788529
 21
2.4303804433
 72
2
 10
17.589478851
 20
2.4328554428
 40
0.0024749995
 50
179.9999571957
 51
270.0000428043
 73
1
 72
1
 10
17.5870038515
 20
2.4328554446
 11
17.5870038515
 21
2.4526554556
 72
2
 10
17.589478851
 20
2.4526554575
 40
0.0024749995
 50
89.9999571957
 51
180.0000428043
 73
1
 72
1
 10
17.5894788529
 20
2.455130457
 11
17.6899369086
 21
2.455130457
 72
2
 10
17.6899370433
 20
2.4526562892
 40
0.0024741678
 50
46.3477981899
 51
90.0031206038
 73
1
 72
1
 10
17.6916449095
 20
2.4544464566
 11
17.7516779428
 21
2.3971664249
 72
2
 10
17.7533866437
 20
2.3989573626
 40
0.0024753014
 50
226.3461263059
 51
0.0014637321
 73
1
 72
1
 10
17.7558619451
 20
2.3989574258
 11
17.7558619451
 21
2.4279054419
 72
2
 10
17.7533869456
 20
2.4279054437
 40
0.0024749995
 50
359.9999571957
 51
90.0000428043
 73
1
 72
1
 10
17.7533869438
 20
2.4303804433
 11
17.7346109333
 21
2.4303804433
 72
2
 10
17.7346109315
 20
2.4328554428
 40
0.0024749995
 50
179.9999571957
 51
270.0000428043
 73
1
 72
1
 10
17.732135932
 20
2.4328554446
 11
17.732135932
 21
2.4526554556
 72
2
 10
17.7346109315
 20
2.4526554575
 40
0.0024749995
 50
89.9999571958
 51
180.0000428043
 73
1
 72
1
 10
17.7346109333
 20
2.455130457
 11
17.8086119744
 21
2.455130457
 72
2
 10
17.8086119762
 20
2.4526554575
 40
0.0024749995
 50
359.9999571957
 51
90.0000428043
 73
1
 72
1
 10
17.8110869758
 20
2.4526554556
 11
17.8110869758
 21
2.4328554446
 72
2
 10
17.8086119762
 20
2.4328554428
 40
0.0024749995
 50
269.9999571956
 51
0.0000428042
 73
1
 72
1
 10
17.8086119744
 20
2.4303804433
 11
17.7906789644
 21
2.4303804433
 72
2
 10
17.7906789626
 20
2.4279054437
 40
0.0024749995
 50
89.9999571957
 51
180.0000428043
 73
1
 72
1
 10
17.7882039631
 20
2.4279054419
 11
17.7882039631
 21
2.3568004025
 72
2
 10
17.7857289635
 20
2.3568004006
 40
0.0024749995
 50
269.9999571957
 51
0.0000428043
 73
1
 72
1
 10
17.7857289617
 20
2.3543254011
 11
17.7115229205
 21
2.3543254011
 97
267
330
2AE
330
2AF
330
2B0
330
2B1
330
2B2
330
2B3
330
2B4
330
2B5
330
2B6
330
2B7
330
2B8
330
2B9
330
2BA
330
2BB
330
2BC
330
2BD
330
2BE
330
2BF
330
2C0
330
2C1
330
2C2
330
2C3
330
2C4
330
2C5
330
2C6
330
2C7
330
2C8
330
2C9
330
2CA
330
2CB
330
2CC
330
2CD
330
2CE
330
2CF
330
2D0
330
2D1
330
2D2
330
2D3
330
2D4
330
2D5
330
2D6
330
2D7
330
2D8
330
2D9
330
2DA
330
2DB
330
2DC
330
2DD
330
2DE
330
2DF
330
2E0
330
2E1
330
2E2
330
2E3
330
2E4
330
2E5
330
2E6
330
2E7
330
2E8
330
2E9
330
2EA
330
2EB
330
2EC
330
2ED
330
2EE
330
2EF
330
2F0
330
2F1
330
2F2
330
2F3
330
2F4
330
2F5
330
2F6
330
2F7
330
2F8
330
2F9
330
2FA
330
2FB
330
2FC
330
2FD
330
2FE
330
2FF
330
300
330
301
330
302
330
303
330
304
330
305
330
306
330
307
330
308
330
309
330
30A
330
30B
330
30C
330
30D
330
30E
330
30F
330
310
330
311
330
312
330
313
330
314
330
315
330
316
330
317
330
318
330
319
330
31A
330
31B
330
31C
330
31D
330
31E
330
31F
330
320
330
321
330
322
330
323
330
324
330
325
330
326
330
327
330
328
330
329
330
32A
330
32B
330
32C
330
32D
330
32E
330
32F
330
330
330
331
330
332
330
333
330
334
330
335
330
336
330
337
330
338
330
339
330
33A
330
33B
330
33C
330
33D
330
33E
330
33F
330
340
330
341
330
342
330
343
330
344
330
345
330
346
330
347
330
348
330
349
330
34A
330
34B
330
34C
330
34D
330
34E
330
34F
330
350
330
351
330
352
330
353
330
354
330
355
330
356
330
357
330
358
330
359
330
35A
330
35B
330
35C
330
35D
330
35E
330
35F
330
360
330
361
330
362
330
363
330
364
330
365
330
366
330
367
330
368
330
369
330
36A
330
36B
330
36C
330
36D
330
36E
330
36F
330
370
330
371
330
372
330
373
330
374
330
375
330
376
330
377
330
378
330
379
330
37A
330
37B
330
37C
330
37D
330
37E
330
37F
330
380
330
381
330
382
330
383
330
384
330
385
330
386
330
387
330
388
330
389
330
38A
330
38B
330
38C
330
38D
330
38E
330
38F
330
390
330
391
330
392
330
393
330
394
330
395
330
396
330
397
330
398
330
399
330
39A
330
39B
330
39C
330
39D
330
39E
330
39F
330
3A0
330
3A1
330
3A2
330
3A3
330
3A4
330
3A5
330
3A6
330
3A7
330
3A8
330
3A9
330
3AA
330
3AB
330
3AC
330
3AD
330
3AE
330
3AF
330
3B0
330
3B1
330
3B2
330
3B3
330
3B4
330
3B5
330
3B6
330
3B7
330
3B8
 92
1
 93
40
 72
2
 10
17.4632701481
 20
2.3568008172
 40
0.0024754162
 50
226.3593695814
 51
270.0146919954
 73
1
 72
1
 10
17.4615617819
 20
2.3550094015
 11
17.3982817468
 21
2.415387435
 72
2
 10
17.3965730459
 20
2.4135964972
 40
0.0024753014
 50
46.3461263058
 51
180.0014637321
 73
1
 72
1
 10
17.3940977445
 20
2.413596434
 11
17.3940977445
 21
2.3815504162
 72
2
 10
17.396572744
 20
2.3815504143
 40
0.0024749995
 50
179.9999571957
 51
270.0000428043
 73
1
 72
1
 10
17.3965727459
 20
2.3790754148
 11
17.4168897572
 21
2.3790754148
 72
2
 10
17.416889759
 20
2.3766004153
 40
0.0024749995
 50
359.9999571957
 51
90.0000428043
 73
1
 72
1
 10
17.4193647585
 20
2.3766004134
 11
17.4193647585
 21
2.3568004025
 72
2
 10
17.416889759
 20
2.3568004006
 40
0.0024749995
 50
269.9999571957
 51
0.0000428043
 73
1
 72
1
 10
17.4168897572
 20
2.3543254011
 11
17.3412257152
 21
2.3543254011
 72
2
 10
17.3412257133
 20
2.3568004006
 40
0.0024749995
 50
179.9999571957
 51
270.0000428043
 73
1
 72
1
 10
17.3387507138
 20
2.3568004025
 11
17.3387507138
 21
2.3766004134
 72
2
 10
17.3412257133
 20
2.3766004153
 40
0.0024749995
 50
89.9999571957
 51
180.0000428043
 73
1
 72
1
 10
17.3412257152
 20
2.3790754148
 11
17.3598727255
 21
2.3790754148
 72
2
 10
17.3598727274
 20
2.3815504143
 40
0.0024749995
 50
269.9999571957
 51
0.0000428043
 73
1
 72
1
 10
17.3623477269
 20
2.3815504162
 11
17.3623477269
 21
2.4279054419
 72
2
 10
17.3598727274
 20
2.4279054437
 40
0.0024749995
 50
359.9999571957
 51
90.0000428044
 73
1
 72
1
 10
17.3598727255
 20
2.4303804433
 11
17.3412257152
 21
2.4303804433
 72
2
 10
17.3412257133
 20
2.4328554428
 40
0.0024749995
 50
179.9999571957
 51
270.0000428043
 73
1
 72
1
 10
17.3387507138
 20
2.4328554446
 11
17.3387507138
 21
2.4526554556
 72
2
 10
17.3412257133
 20
2.4526554575
 40
0.0024749995
 50
89.9999571957
 51
180.0000428043
 73
1
 72
1
 10
17.3412257152
 20
2.455130457
 11
17.4416837709
 21
2.455130457
 72
2
 10
17.4416839057
 20
2.4526562892
 40
0.0024741678
 50
46.3477981899
 51
90.0031206038
 73
1
 72
1
 10
17.4433917718
 20
2.4544464566
 11
17.5034248051
 21
2.3971664249
 72
2
 10
17.5051335061
 20
2.3989573626
 40
0.0024753014
 50
226.3461263059
 51
0.0014637321
 73
1
 72
1
 10
17.5076088075
 20
2.3989574258
 11
17.5076088075
 21
2.4279054419
 72
2
 10
17.5051338079
 20
2.4279054437
 40
0.0024749995
 50
359.9999571957
 51
90.0000428043
 73
1
 72
1
 10
17.5051338061
 20
2.4303804433
 11
17.4863577957
 21
2.4303804433
 72
2
 10
17.4863577938
 20
2.4328554428
 40
0.0024749995
 50
179.9999571957
 51
270.0000428043
 73
1
 72
1
 10
17.4838827943
 20
2.4328554446
 11
17.4838827943
 21
2.4526554556
 72
2
 10
17.4863577938
 20
2.4526554575
 40
0.0024749995
 50
89.9999571957
 51
180.0000428043
 73
1
 72
1
 10
17.4863577957
 20
2.455130457
 11
17.5603588367
 21
2.455130457
 72
2
 10
17.5603588386
 20
2.4526554575
 40
0.0024749995
 50
359.9999571957
 51
90.0000428042
 73
1
 72
1
 10
17.5628338381
 20
2.4526554556
 11
17.5628338381
 21
2.4328554446
 72
2
 10
17.5603588386
 20
2.4328554428
 40
0.0024749995
 50
269.9999571958
 51
0.0000428043
 73
1
 72
1
 10
17.5603588367
 20
2.4303804433
 11
17.5424258268
 21
2.4303804433
 72
2
 10
17.5424258249
 20
2.4279054437
 40
0.0024749995
 50
89.9999571958
 51
180.0000428043
 73
1
 72
1
 10
17.5399508254
 20
2.4279054419
 11
17.5399508254
 21
2.3568004025
 72
2
 10
17.5374758259
 20
2.3568004006
 40
0.0024749995
 50
269.9999571958
 51
0.0000428043
 73
1
 72
1
 10
17.537475824
 20
2.3543254011
 11
17.4632707829
 21
2.3543254011
 97
267
330
2AE
330
2AF
330
2B0
330
2B1
330
2B2
330
2B3
330
2B4
330
2B5
330
2B6
330
2B7
330
2B8
330
2B9
330
2BA
330
2BB
330
2BC
330
2BD
330
2BE
330
2BF
330
2C0
330
2C1
330
2C2
330
2C3
330
2C4
330
2C5
330
2C6
330
2C7
330
2C8
330
2C9
330
2CA
330
2CB
330
2CC
330
2CD
330
2CE
330
2CF
330
2D0
330
2D1
330
2D2
330
2D3
330
2D4
330
2D5
330
2D6
330
2D7
330
2D8
330
2D9
330
2DA
330
2DB
330
2DC
330
2DD
330
2DE
330
2DF
330
2E0
330
2E1
330
2E2
330
2E3
330
2E4
330
2E5
330
2E6
330
2E7
330
2E8
330
2E9
330
2EA
330
2EB
330
2EC
330
2ED
330
2EE
330
2EF
330
2F0
330
2F1
330
2F2
330
2F3
330
2F4
330
2F5
330
2F6
330
2F7
330
2F8
330
2F9
330
2FA
330
2FB
330
2FC
330
2FD
330
2FE
330
2FF
330
300
330
301
330
302
330
303
330
304
330
305
330
306
330
307
330
308
330
309
330
30A
330
30B
330
30C
330
30D
330
30E
330
30F
330
310
330
311
330
312
330
313
330
314
330
315
330
316
330
317
330
318
330
319
330
31A
330
31B
330
31C
330
31D
330
31E
330
31F
330
320
330
321
330
322
330
323
330
324
330
325
330
326
330
327
330
328
330
329
330
32A
330
32B
330
32C
330
32D
330
32E
330
32F
330
330
330
331
330
332
330
333
330
334
330
335
330
336
330
337
330
338
330
339
330
33A
330
33B
330
33C
330
33D
330
33E
330
33F
330
340
330
341
330
342
330
343
330
344
330
345
330
346
330
347
330
348
330
349
330
34A
330
34B
330
34C
330
34D
330
34E
330
34F
330
350
330
351
330
352
330
353
330
354
330
355
330
356
330
357
330
358
330
359
330
35A
330
35B
330
35C
330
35D
330
35E
330
35F
330
360
330
361
330
362
330
363
330
364
330
365
330
366
330
367
330
368
330
369
330
36A
330
36B
330
36C
330
36D
330
36E
330
36F
330
370
330
371
330
372
330
373
330
374
330
375
330
376
330
377
330
378
330
379
330
37A
330
37B
330
37C
330
37D
330
37E
330
37F
330
380
330
381
330
382
330
383
330
384
330
385
330
386
330
387
330
388
330
389
330
38A
330
38B
330
38C
330
38D
330
38E
330
38F
330
390
330
391
330
392
330
393
330
394
330
395
330
396
330
397
330
398
330
399
330
39A
330
39B
330
39C
330
39D
330
39E
330
39F
330
3A0
330
3A1
330
3A2
330
3A3
330
3A4
330
3A5
330
3A6
330
3A7
330
3A8
330
3A9
330
3AA
330
3AB
330
3AC
330
3AD
330
3AE
330
3AF
330
3B0
330
3B1
330
3B2
330
3B3
330
3B4
330
3B5
330
3B6
330
3B7
330
3B8
 92
1
 93
23
 72
2
 10
17.0481152095
 20
2.4027328529
 40
0.048483885
 50
273.21763719
 51
303.0749121182
 73
1
 72
2
 10
17.0629546036
 20
2.379965244
 40
0.0213072145
 50
303.0488228549
 51
355.7263138674
 73
1
 72
2
 10
17.0688911042
 20
2.3799744343
 40
0.0153945295
 50
354.0454548824
 51
5.1878013979
 73
1
 72
2
 10
17.0620614151
 20
2.3797859164
 40
0.0222174455
 50
4.0793399388
 51
69.834329283
 73
1
 72
1
 10
17.0697205646
 20
2.4006414268
 11
17.059669559
 21
2.4041904287
 72
1
 10
17.059669559
 20
2.4041904287
 11
17.0679095636
 21
2.4089664314
 72
2
 10
17.0460441811
 20
2.445793323
 40
0.0428289026
 50
300.6990502959
 51
319.0591802498
 73
1
 72
2
 10
17.0660727781
 20
2.4296649696
 40
0.0171568255
 50
315.9145124245
 51
16.0049121283
 73
1
 72
2
 10
17.0611211659
 20
2.4263113051
 40
0.0229166529
 50
20.6563876465
 51
62.3316896973
 73
1
 72
2
 10
17.0404590422
 20
2.3933827403
 40
0.061747717
 50
59.5385584989
 51
90.0050977555
 73
1
 72
1
 10
17.0404535484
 20
2.455130457
 11
16.8743904563
 21
2.455130457
 72
2
 10
16.8743904545
 20
2.4526554575
 40
0.0024749995
 50
89.9999571958
 51
180.0000428043
 73
1
 72
1
 10
16.8719154549
 20
2.4526554556
 11
16.8719154549
 21
2.4328554446
 72
2
 10
16.8743904545
 20
2.4328554428
 40
0.0024749995
 50
179.9999571957
 51
270.0000428043
 73
1
 72
1
 10
16.8743904563
 20
2.4303804433
 11
16.8983324696
 21
2.4303804433
 72
2
 10
16.8983324714
 20
2.4279054437
 40
0.0024749995
 50
359.9999571957
 51
90.0000428043
 73
1
 72
1
 10
16.9008074709
 20
2.4279054419
 11
16.9008074709
 21
2.3815504162
 72
2
 10
16.8983324714
 20
2.3815504143
 40
0.0024749995
 50
269.9999571958
 51
0.0000428043
 73
1
 72
1
 10
16.8983324696
 20
2.3790754148
 11
16.8743904563
 21
2.3790754148
 72
2
 10
16.8743904545
 20
2.3766004153
 40
0.0024749995
 50
89.9999571958
 51
180.0000428043
 73
1
 72
1
 10
16.8719154549
 20
2.3766004134
 11
16.8719154549
 21
2.3568004025
 72
2
 10
16.8743904545
 20
2.3568004006
 40
0.0024749995
 50
179.9999571957
 51
270.0000428042
 73
1
 72
1
 10
16.8743904563
 20
2.3543254011
 11
17.0508365542
 21
2.3543254011
 97
267
330
2AE
330
2AF
330
2B0
330
2B1
330
2B2
330
2B3
330
2B4
330
2B5
330
2B6
330
2B7
330
2B8
330
2B9
330
2BA
330
2BB
330
2BC
330
2BD
330
2BE
330
2BF
330
2C0
330
2C1
330
2C2
330
2C3
330
2C4
330
2C5
330
2C6
330
2C7
330
2C8
330
2C9
330
2CA
330
2CB
330
2CC
330
2CD
330
2CE
330
2CF
330
2D0
330
2D1
330
2D2
330
2D3
330
2D4
330
2D5
330
2D6
330
2D7
330
2D8
330
2D9
330
2DA
330
2DB
330
2DC
330
2DD
330
2DE
330
2DF
330
2E0
330
2E1
330
2E2
330
2E3
330
2E4
330
2E5
330
2E6
330
2E7
330
2E8
330
2E9
330
2EA
330
2EB
330
2EC
330
2ED
330
2EE
330
2EF
330
2F0
330
2F1
330
2F2
330
2F3
330
2F4
330
2F5
330
2F6
330
2F7
330
2F8
330
2F9
330
2FA
330
2FB
330
2FC
330
2FD
330
2FE
330
2FF
330
300
330
301
330
302
330
303
330
304
330
305
330
306
330
307
330
308
330
309
330
30A
330
30B
330
30C
330
30D
330
30E
330
30F
330
310
330
311
330
312
330
313
330
314
330
315
330
316
330
317
330
318
330
319
330
31A
330
31B
330
31C
330
31D
330
31E
330
31F
330
320
330
321
330
322
330
323
330
324
330
325
330
326
330
327
330
328
330
329
330
32A
330
32B
330
32C
330
32D
330
32E
330
32F
330
330
330
331
330
332
330
333
330
334
330
335
330
336
330
337
330
338
330
339
330
33A
330
33B
330
33C
330
33D
330
33E
330
33F
330
340
330
341
330
342
330
343
330
344
330
345
330
346
330
347
330
348
330
349
330
34A
330
34B
330
34C
330
34D
330
34E
330
34F
330
350
330
351
330
352
330
353
330
354
330
355
330
356
330
357
330
358
330
359
330
35A
330
35B
330
35C
330
35D
330
35E
330
35F
330
360
330
361
330
362
330
363
330
364
330
365
330
366
330
367
330
368
330
369
330
36A
330
36B
330
36C
330
36D
330
36E
330
36F
330
370
330
371
330
372
330
373
330
374
330
375
330
376
330
377
330
378
330
379
330
37A
330
37B
330
37C
330
37D
330
37E
330
37F
330
380
330
381
330
382
330
383
330
384
330
385
330
386
330
387
330
388
330
389
330
38A
330
38B
330
38C
330
38D
330
38E
330
38F
330
390
330
391
330
392
330
393
330
394
330
395
330
396
330
397
330
398
330
399
330
39A
330
39B
330
39C
330
39D
330
39E
330
39F
330
3A0
330
3A1
330
3A2
330
3A3
330
3A4
330
3A5
330
3A6
330
3A7
330
3A8
330
3A9
330
3AA
330
3AB
330
3AC
330
3AD
330
3AE
330
3AF
330
3B0
330
3B1
330
3B2
330
3B3
330
3B4
330
3B5
330
3B6
330
3B7
330
3B8
 92
1
 93
32
 72
2
 10
17.1857496308
 20
2.3568004006
 40
0.0024749995
 50
269.9999571958
 51
0.0000428044
 73
1
 72
1
 10
17.1882246303
 20
2.3568004025
 11
17.1882246303
 21
2.3766004134
 72
2
 10
17.1857496308
 20
2.3766004153
 40
0.0024749995
 50
359.9999571957
 51
90.0000428043
 73
1
 72
1
 10
17.185749629
 20
2.3790754148
 11
17.1744666227
 21
2.3790754148
 72
2
 10
17.1744665134
 20
2.3815504549
 40
0.0024750401
 50
147.6063258011
 51
270.0025305754
 73
1
 72
1
 10
17.1723766216
 20
2.3828764169
 11
17.1778926246
 21
2.3915704217
 72
2
 10
17.1799825555
 20
2.3902442221
 40
0.0024752003
 50
89.998372645
 51
147.602165307
 73
1
 72
1
 10
17.1799826258
 20
2.3927194224
 11
17.2148606451
 21
2.3927194224
 72
2
 10
17.2148601055
 20
2.3902439622
 40
0.0024754602
 50
32.8959418574
 51
89.9875097202
 73
1
 72
1
 10
17.2169386463
 20
2.3915884218
 11
17.2225646494
 21
2.3828954169
 72
2
 10
17.2204866271
 20
2.3815506219
 40
0.0024752071
 50
270.0004896793
 51
32.9089806818
 73
1
 72
1
 10
17.2204866482
 20
2.3790754148
 11
17.2060356402
 21
2.3790754148
 72
2
 10
17.2060356384
 20
2.3766004153
 40
0.0024749995
 50
89.9999571958
 51
180.0000428043
 73
1
 72
1
 10
17.2035606388
 20
2.3766004134
 11
17.2035606388
 21
2.3568004025
 72
2
 10
17.2060356384
 20
2.3568004006
 40
0.0024749995
 50
179.9999571957
 51
270.0000428042
 73
1
 72
1
 10
17.2060356402
 20
2.3543254011
 11
17.3113166986
 21
2.3543254011
 72
2
 10
17.3113167005
 20
2.3568004006
 40
0.0024749995
 50
269.9999571957
 51
0.0000428043
 73
1
 72
1
 10
17.3137917
 20
2.3568004025
 11
17.3137917
 21
2.3766004134
 72
2
 10
17.3113167005
 20
2.3766004153
 40
0.0024749995
 50
359.9999571957
 51
90.0000428043
 73
1
 72
1
 10
17.3113166986
 20
2.3790754148
 11
17.2913006875
 21
2.3790754148
 72
2
 10
17.291300808
 20
2.3815494558
 40
0.002474041
 50
212.9056413127
 51
269.9972091756
 73
1
 72
1
 10
17.2892236864
 20
2.3802054154
 11
17.2414676599
 21
2.4540004564
 72
2
 10
17.2393900382
 20
2.4526554968
 40
0.0024749602
 50
32.9172174468
 51
90.0087853096
 73
1
 72
1
 10
17.2393896587
 20
2.455130457
 11
17.182214627
 21
2.455130457
 72
2
 10
17.1822145567
 20
2.4526552567
 40
0.0024752003
 50
89.998372645
 51
147.602165307
 73
1
 72
1
 10
17.1801246258
 20
2.4539814564
 11
17.1333245999
 21
2.3802244155
 72
2
 10
17.131234669
 20
2.3815506151
 40
0.0024752003
 50
269.998372645
 51
327.602165307
 73
1
 72
1
 10
17.1312345987
 20
2.3790754148
 11
17.1083735861
 21
2.3790754148
 72
2
 10
17.1083735842
 20
2.3766004153
 40
0.0024749995
 50
89.9999571957
 51
180.0000428043
 73
1
 72
1
 10
17.1058985847
 20
2.3766004134
 11
17.1058985847
 21
2.3568004025
 72
2
 10
17.1083735842
 20
2.3568004006
 40
0.0024749995
 50
179.9999571957
 51
270.0000428043
 73
1
 72
1
 10
17.1083735861
 20
2.3543254011
 11
17.185749629
 21
2.3543254011
 97
267
330
2AE
330
2AF
330
2B0
330
2B1
330
2B2
330
2B3
330
2B4
330
2B5
330
2B6
330
2B7
330
2B8
330
2B9
330
2BA
330
2BB
330
2BC
330
2BD
330
2BE
330
2BF
330
2C0
330
2C1
330
2C2
330
2C3
330
2C4
330
2C5
330
2C6
330
2C7
330
2C8
330
2C9
330
2CA
330
2CB
330
2CC
330
2CD
330
2CE
330
2CF
330
2D0
330
2D1
330
2D2
330
2D3
330
2D4
330
2D5
330
2D6
330
2D7
330
2D8
330
2D9
330
2DA
330
2DB
330
2DC
330
2DD
330
2DE
330
2DF
330
2E0
330
2E1
330
2E2
330
2E3
330
2E4
330
2E5
330
2E6
330
2E7
330
2E8
330
2E9
330
2EA
330
2EB
330
2EC
330
2ED
330
2EE
330
2EF
330
2F0
330
2F1
330
2F2
330
2F3
330
2F4
330
2F5
330
2F6
330
2F7
330
2F8
330
2F9
330
2FA
330
2FB
330
2FC
330
2FD
330
2FE
330
2FF
330
300
330
301
330
302
330
303
330
304
330
305
330
306
330
307
330
308
330
309
330
30A
330
30B
330
30C
330
30D
330
30E
330
30F
330
310
330
311
330
312
330
313
330
314
330
315
330
316
330
317
330
318
330
319
330
31A
330
31B
330
31C
330
31D
330
31E
330
31F
330
320
330
321
330
322
330
323
330
324
330
325
330
326
330
327
330
328
330
329
330
32A
330
32B
330
32C
330
32D
330
32E
330
32F
330
330
330
331
330
332
330
333
330
334
330
335
330
336
330
337
330
338
330
339
330
33A
330
33B
330
33C
330
33D
330
33E
330
33F
330
340
330
341
330
342
330
343
330
344
330
345
330
346
330
347
330
348
330
349
330
34A
330
34B
330
34C
330
34D
330
34E
330
34F
330
350
330
351
330
352
330
353
330
354
330
355
330
356
330
357
330
358
330
359
330
35A
330
35B
330
35C
330
35D
330
35E
330
35F
330
360
330
361
330
362
330
363
330
364
330
365
330
366
330
367
330
368
330
369
330
36A
330
36B
330
36C
330
36D
330
36E
330
36F
330
370
330
371
330
372
330
373
330
374
330
375
330
376
330
377
330
378
330
379
330
37A
330
37B
330
37C
330
37D
330
37E
330
37F
330
380
330
381
330
382
330
383
330
384
330
385
330
386
330
387
330
388
330
389
330
38A
330
38B
330
38C
330
38D
330
38E
330
38F
330
390
330
391
330
392
330
393
330
394
330
395
330
396
330
397
330
398
330
399
330
39A
330
39B
330
39C
330
39D
330
39E
330
39F
330
3A0
330
3A1
330
3A2
330
3A3
330
3A4
330
3A5
330
3A6
330
3A7
330
3A8
330
3A9
330
3AA
330
3AB
330
3AC
330
3AD
330
3AE
330
3AF
330
3B0
330
3B1
330
3B2
330
3B3
330
3B4
330
3B5
330
3B6
330
3B7
330
3B8
 92
1
 93
6
 72
2
 10
16.963795504
 20
2.3815504143
 40
0.0024749995
 50
179.9999571957
 51
270.0000428043
 73
1
 72
1
 10
16.9613205045
 20
2.3815504162
 11
16.9613205045
 21
2.3939254231
 72
2
 10
16.963795504
 20
2.3939254249
 40
0.0024749995
 50
89.9999571957
 51
180.0000428043
 73
1
 72
1
 10
16.9637955059
 20
2.3964004244
 11
17.0051585288
 21
2.3964004244
 72
2
 10
17.0051585288
 20
2.3877379196
 40
0.0086625048
 50
270.0
 51
90.0
 73
1
 72
1
 10
17.0051585288
 20
2.3790754148
 11
16.9637955059
 21
2.3790754148
 97
267
330
2AE
330
2AF
330
2B0
330
2B1
330
2B2
330
2B3
330
2B4
330
2B5
330
2B6
330
2B7
330
2B8
330
2B9
330
2BA
330
2BB
330
2BC
330
2BD
330
2BE
330
2BF
330
2C0
330
2C1
330
2C2
330
2C3
330
2C4
330
2C5
330
2C6
330
2C7
330
2C8
330
2C9
330
2CA
330
2CB
330
2CC
330
2CD
330
2CE
330
2CF
330
2D0
330
2D1
330
2D2
330
2D3
330
2D4
330
2D5
330
2D6
330
2D7
330
2D8
330
2D9
330
2DA
330
2DB
330
2DC
330
2DD
330
2DE
330
2DF
330
2E0
330
2E1
330
2E2
330
2E3
330
2E4
330
2E5
330
2E6
330
2E7
330
2E8
330
2E9
330
2EA
330
2EB
330
2EC
330
2ED
330
2EE
330
2EF
330
2F0
330
2F1
330
2F2
330
2F3
330
2F4
330
2F5
330
2F6
330
2F7
330
2F8
330
2F9
330
2FA
330
2FB
330
2FC
330
2FD
330
2FE
330
2FF
330
300
330
301
330
302
330
303
330
304
330
305
330
306
330
307
330
308
330
309
330
30A
330
30B
330
30C
330
30D
330
30E
330
30F
330
310
330
311
330
312
330
313
330
314
330
315
330
316
330
317
330
318
330
319
330
31A
330
31B
330
31C
330
31D
330
31E
330
31F
330
320
330
321
330
322
330
323
330
324
330
325
330
326
330
327
330
328
330
329
330
32A
330
32B
330
32C
330
32D
330
32E
330
32F
330
330
330
331
330
332
330
333
330
334
330
335
330
336
330
337
330
338
330
339
330
33A
330
33B
330
33C
330
33D
330
33E
330
33F
330
340
330
341
330
342
330
343
330
344
330
345
330
346
330
347
330
348
330
349
330
34A
330
34B
330
34C
330
34D
330
34E
330
34F
330
350
330
351
330
352
330
353
330
354
330
355
330
356
330
357
330
358
330
359
330
35A
330
35B
330
35C
330
35D
330
35E
330
35F
330
360
330
361
330
362
330
363
330
364
330
365
330
366
330
367
330
368
330
369
330
36A
330
36B
330
36C
330
36D
330
36E
330
36F
330
370
330
371
330
372
330
373
330
374
330
375
330
376
330
377
330
378
330
379
330
37A
330
37B
330
37C
330
37D
330
37E
330
37F
330
380
330
381
330
382
330
383
330
384
330
385
330
386
330
387
330
388
330
389
330
38A
330
38B
330
38C
330
38D
330
38E
330
38F
330
390
330
391
330
392
330
393
330
394
330
395
330
396
330
397
330
398
330
399
330
39A
330
39B
330
39C
330
39D
330
39E
330
39F
330
3A0
330
3A1
330
3A2
330
3A3
330
3A4
330
3A5
330
3A6
330
3A7
330
3A8
330
3A9
330
3AA
330
3AB
330
3AC
330
3AD
330
3AE
330
3AF
330
3B0
330
3B1
330
3B2
330
3B3
330
3B4
330
3B5
330
3B6
330
3B7
330
3B8
 92
1
 93
13
 72
2
 10
18.1572301659
 20
2.415180433
 40
0.0024749995
 50
179.9999571957
 51
270.0000428043
 73
1
 72
1
 10
18.1547551663
 20
2.4151804348
 11
18.1547551663
 21
2.4279054419
 72
2
 10
18.1572301659
 20
2.4279054437
 40
0.0024749995
 50
89.9999571957
 51
180.0000428043
 73
1
 72
1
 10
18.1572301677
 20
2.4303804433
 11
18.1940311881
 21
2.4303804433
 72
2
 10
18.1924863006
 20
2.4019259643
 40
0.0284963867
 50
70.3834917948
 51
86.8922743861
 73
1
 72
2
 10
18.1973459106
 20
2.4149676972
 40
0.0145814632
 50
54.6746025112
 51
71.1660573124
 73
1
 72
2
 10
18.2024754016
 20
2.4218216224
 40
0.0060275915
 50
20.9055592135
 51
56.7851676243
 73
1
 72
2
 10
18.2037759605
 20
2.4224819047
 40
0.0045795888
 50
355.6235353944
 51
18.9942678268
 73
1
 72
2
 10
18.2025691502
 20
2.4227756809
 40
0.0058087709
 50
318.8515287446
 51
353.6422345323
 73
1
 72
2
 10
18.198398534
 20
2.4260095887
 40
0.0110815393
 50
306.758405961
 51
320.4502234234
 73
1
 72
2
 10
18.1927693431
 20
2.4337504172
 40
0.0206523367
 50
289.6883413472
 51
306.4184925496
 73
1
 72
2
 10
18.1908418374
 20
2.4381440645
 40
0.0254407115
 50
270.7327484175
 51
290.441894219
 73
1
 72
1
 10
18.1911671865
 20
2.4127054335
 11
18.1572301677
 21
2.4127054335
 97
267
330
2AE
330
2AF
330
2B0
330
2B1
330
2B2
330
2B3
330
2B4
330
2B5
330
2B6
330
2B7
330
2B8
330
2B9
330
2BA
330
2BB
330
2BC
330
2BD
330
2BE
330
2BF
330
2C0
330
2C1
330
2C2
330
2C3
330
2C4
330
2C5
330
2C6
330
2C7
330
2C8
330
2C9
330
2CA
330
2CB
330
2CC
330
2CD
330
2CE
330
2CF
330
2D0
330
2D1
330
2D2
330
2D3
330
2D4
330
2D5
330
2D6
330
2D7
330
2D8
330
2D9
330
2DA
330
2DB
330
2DC
330
2DD
330
2DE
330
2DF
330
2E0
330
2E1
330
2E2
330
2E3
330
2E4
330
2E5
330
2E6
330
2E7
330
2E8
330
2E9
330
2EA
330
2EB
330
2EC
330
2ED
330
2EE
330
2EF
330
2F0
330
2F1
330
2F2
330
2F3
330
2F4
330
2F5
330
2F6
330
2F7
330
2F8
330
2F9
330
2FA
330
2FB
330
2FC
330
2FD
330
2FE
330
2FF
330
300
330
301
330
302
330
303
330
304
330
305
330
306
330
307
330
308
330
309
330
30A
330
30B
330
30C
330
30D
330
30E
330
30F
330
310
330
311
330
312
330
313
330
314
330
315
330
316
330
317
330
318
330
319
330
31A
330
31B
330
31C
330
31D
330
31E
330
31F
330
320
330
321
330
322
330
323
330
324
330
325
330
326
330
327
330
328
330
329
330
32A
330
32B
330
32C
330
32D
330
32E
330
32F
330
330
330
331
330
332
330
333
330
334
330
335
330
336
330
337
330
338
330
339
330
33A
330
33B
330
33C
330
33D
330
33E
330
33F
330
340
330
341
330
342
330
343
330
344
330
345
330
346
330
347
330
348
330
349
330
34A
330
34B
330
34C
330
34D
330
34E
330
34F
330
350
330
351
330
352
330
353
330
354
330
355
330
356
330
357
330
358
330
359
330
35A
330
35B
330
35C
330
35D
330
35E
330
35F
330
360
330
361
330
362
330
363
330
364
330
365
330
366
330
367
330
368
330
369
330
36A
330
36B
330
36C
330
36D
330
36E
330
36F
330
370
330
371
330
372
330
373
330
374
330
375
330
376
330
377
330
378
330
379
330
37A
330
37B
330
37C
330
37D
330
37E
330
37F
330
380
330
381
330
382
330
383
330
384
330
385
330
386
330
387
330
388
330
389
330
38A
330
38B
330
38C
330
38D
330
38E
330
38F
330
390
330
391
330
392
330
393
330
394
330
395
330
396
330
397
330
398
330
399
330
39A
330
39B
330
39C
330
39D
330
39E
330
39F
330
3A0
330
3A1
330
3A2
330
3A3
330
3A4
330
3A5
330
3A6
330
3A7
330
3A8
330
3A9
330
3AA
330
3AB
330
3AC
330
3AD
330
3AE
330
3AF
330
3B0
330
3B1
330
3B2
330
3B3
330
3B4
330
3B5
330
3B6
330
3B7
330
3B8
 92
1
 93
6
 72
2
 10
17.0051585288
 20
2.4217179385
 40
0.0086625048
 50
270.0
 51
90.0
 73
1
 72
1
 10
17.0051585288
 20
2.4303804433
 11
16.9637955059
 21
2.4303804433
 72
2
 10
16.963795504
 20
2.4279054437
 40
0.0024749995
 50
89.9999571957
 51
180.0000428043
 73
1
 72
1
 10
16.9613205045
 20
2.4279054419
 11
16.9613205045
 21
2.415530435
 72
2
 10
16.963795504
 20
2.4155304332
 40
0.0024749995
 50
179.9999571957
 51
270.0000428043
 73
1
 72
1
 10
16.9637955059
 20
2.4130554337
 11
17.0051585288
 21
2.4130554337
 97
267
330
2AE
330
2AF
330
2B0
330
2B1
330
2B2
330
2B3
330
2B4
330
2B5
330
2B6
330
2B7
330
2B8
330
2B9
330
2BA
330
2BB
330
2BC
330
2BD
330
2BE
330
2BF
330
2C0
330
2C1
330
2C2
330
2C3
330
2C4
330
2C5
330
2C6
330
2C7
330
2C8
330
2C9
330
2CA
330
2CB
330
2CC
330
2CD
330
2CE
330
2CF
330
2D0
330
2D1
330
2D2
330
2D3
330
2D4
330
2D5
330
2D6
330
2D7
330
2D8
330
2D9
330
2DA
330
2DB
330
2DC
330
2DD
330
2DE
330
2DF
330
2E0
330
2E1
330
2E2
330
2E3
330
2E4
330
2E5
330
2E6
330
2E7
330
2E8
330
2E9
330
2EA
330
2EB
330
2EC
330
2ED
330
2EE
330
2EF
330
2F0
330
2F1
330
2F2
330
2F3
330
2F4
330
2F5
330
2F6
330
2F7
330
2F8
330
2F9
330
2FA
330
2FB
330
2FC
330
2FD
330
2FE
330
2FF
330
300
330
301
330
302
330
303
330
304
330
305
330
306
330
307
330
308
330
309
330
30A
330
30B
330
30C
330
30D
330
30E
330
30F
330
310
330
311
330
312
330
313
330
314
330
315
330
316
330
317
330
318
330
319
330
31A
330
31B
330
31C
330
31D
330
31E
330
31F
330
320
330
321
330
322
330
323
330
324
330
325
330
326
330
327
330
328
330
329
330
32A
330
32B
330
32C
330
32D
330
32E
330
32F
330
330
330
331
330
332
330
333
330
334
330
335
330
336
330
337
330
338
330
339
330
33A
330
33B
330
33C
330
33D
330
33E
330
33F
330
340
330
341
330
342
330
343
330
344
330
345
330
346
330
347
330
348
330
349
330
34A
330
34B
330
34C
330
34D
330
34E
330
34F
330
350
330
351
330
352
330
353
330
354
330
355
330
356
330
357
330
358
330
359
330
35A
330
35B
330
35C
330
35D
330
35E
330
35F
330
360
330
361
330
362
330
363
330
364
330
365
330
366
330
367
330
368
330
369
330
36A
330
36B
330
36C
330
36D
330
36E
330
36F
330
370
330
371
330
372
330
373
330
374
330
375
330
376
330
377
330
378
330
379
330
37A
330
37B
330
37C
330
37D
330
37E
330
37F
330
380
330
381
330
382
330
383
330
384
330
385
330
386
330
387
330
388
330
389
330
38A
330
38B
330
38C
330
38D
330
38E
330
38F
330
390
330
391
330
392
330
393
330
394
330
395
330
396
330
397
330
398
330
399
330
39A
330
39B
330
39C
330
39D
330
39E
330
39F
330
3A0
330
3A1
330
3A2
330
3A3
330
3A4
330
3A5
330
3A6
330
3A7
330
3A8
330
3A9
330
3AA
330
3AB
330
3AC
330
3AD
330
3AE
330
3AF
330
3B0
330
3B1
330
3B2
330
3B3
330
3B4
330
3B5
330
3B6
330
3B7
330
3B8
 92
1
 93
8
 72
2
 10
17.2090556207
 20
2.4161446411
 40
0.0024752071
 50
270.0004896793
 51
32.9089806818
 73
1
 72
1
 10
17.211133643
 20
2.4174894361
 11
17.203874639
 21
2.4287054423
 72
2
 10
17.2017960982
 20
2.4273609828
 40
0.0024754602
 50
32.8959418573
 51
89.9875097202
 73
1
 72
1
 10
17.2017966379
 20
2.429836443
 11
17.1956156344
 21
2.429836443
 72
2
 10
17.1956155641
 20
2.4273612427
 40
0.0024752003
 50
89.998372645
 51
147.6021653069
 73
1
 72
1
 10
17.1935256333
 20
2.4286874423
 11
17.1864086293
 21
2.4174704361
 72
2
 10
17.1884985212
 20
2.4161444741
 40
0.0024750401
 50
147.6063258012
 51
270.0025305753
 73
1
 72
1
 10
17.1884986305
 20
2.413669434
 11
17.2090556419
 21
2.413669434
 97
267
330
2AE
330
2AF
330
2B0
330
2B1
330
2B2
330
2B3
330
2B4
330
2B5
330
2B6
330
2B7
330
2B8
330
2B9
330
2BA
330
2BB
330
2BC
330
2BD
330
2BE
330
2BF
330
2C0
330
2C1
330
2C2
330
2C3
330
2C4
330
2C5
330
2C6
330
2C7
330
2C8
330
2C9
330
2CA
330
2CB
330
2CC
330
2CD
330
2CE
330
2CF
330
2D0
330
2D1
330
2D2
330
2D3
330
2D4
330
2D5
330
2D6
330
2D7
330
2D8
330
2D9
330
2DA
330
2DB
330
2DC
330
2DD
330
2DE
330
2DF
330
2E0
330
2E1
330
2E2
330
2E3
330
2E4
330
2E5
330
2E6
330
2E7
330
2E8
330
2E9
330
2EA
330
2EB
330
2EC
330
2ED
330
2EE
330
2EF
330
2F0
330
2F1
330
2F2
330
2F3
330
2F4
330
2F5
330
2F6
330
2F7
330
2F8
330
2F9
330
2FA
330
2FB
330
2FC
330
2FD
330
2FE
330
2FF
330
300
330
301
330
302
330
303
330
304
330
305
330
306
330
307
330
308
330
309
330
30A
330
30B
330
30C
330
30D
330
30E
330
30F
330
310
330
311
330
312
330
313
330
314
330
315
330
316
330
317
330
318
330
319
330
31A
330
31B
330
31C
330
31D
330
31E
330
31F
330
320
330
321
330
322
330
323
330
324
330
325
330
326
330
327
330
328
330
329
330
32A
330
32B
330
32C
330
32D
330
32E
330
32F
330
330
330
331
330
332
330
333
330
334
330
335
330
336
330
337
330
338
330
339
330
33A
330
33B
330
33C
330
33D
330
33E
330
33F
330
340
330
341
330
342
330
343
330
344
330
345
330
346
330
347
330
348
330
349
330
34A
330
34B
330
34C
330
34D
330
34E
330
34F
330
350
330
351
330
352
330
353
330
354
330
355
330
356
330
357
330
358
330
359
330
35A
330
35B
330
35C
330
35D
330
35E
330
35F
330
360
330
361
330
362
330
363
330
364
330
365
330
366
330
367
330
368
330
369
330
36A
330
36B
330
36C
330
36D
330
36E
330
36F
330
370
330
371
330
372
330
373
330
374
330
375
330
376
330
377
330
378
330
379
330
37A
330
37B
330
37C
330
37D
330
37E
330
37F
330
380
330
381
330
382
330
383
330
384
330
385
330
386
330
387
330
388
330
389
330
38A
330
38B
330
38C
330
38D
330
38E
330
38F
330
390
330
391
330
392
330
393
330
394
330
395
330
396
330
397
330
398
330
399
330
39A
330
39B
330
39C
330
39D
330
39E
330
39F
330
3A0
330
3A1
330
3A2
330
3A3
330
3A4
330
3A5
330
3A6
330
3A7
330
3A8
330
3A9
330
3AA
330
3AB
330
3AC
330
3AD
330
3AE
330
3AF
330
3B0
330
3B1
330
3B2
330
3B3
330
3B4
330
3B5
330
3B6
330
3B7
330
3B8
 92
1
 93
1
 72
3
 10
17.573550844
 20
2.4034764283
 11
-0.8250004575
 21
0.0
 40
0.218572
 50
0.0
 51
-0.0
 73
1
 97
267
330
2AE
330
2AF
330
2B0
330
2B1
330
2B2
330
2B3
330
2B4
330
2B5
330
2B6
330
2B7
330
2B8
330
2B9
330
2BA
330
2BB
330
2BC
330
2BD
330
2BE
330
2BF
330
2C0
330
2C1
330
2C2
330
2C3
330
2C4
330
2C5
330
2C6
330
2C7
330
2C8
330
2C9
330
2CA
330
2CB
330
2CC
330
2CD
330
2CE
330
2CF
330
2D0
330
2D1
330
2D2
330
2D3
330
2D4
330
2D5
330
2D6
330
2D7
330
2D8
330
2D9
330
2DA
330
2DB
330
2DC
330
2DD
330
2DE
330
2DF
330
2E0
330
2E1
330
2E2
330
2E3
330
2E4
330
2E5
330
2E6
330
2E7
330
2E8
330
2E9
330
2EA
330
2EB
330
2EC
330
2ED
330
2EE
330
2EF
330
2F0
330
2F1
330
2F2
330
2F3
330
2F4
330
2F5
330
2F6
330
2F7
330
2F8
330
2F9
330
2FA
330
2FB
330
2FC
330
2FD
330
2FE
330
2FF
330
300
330
301
330
302
330
303
330
304
330
305
330
306
330
307
330
308
330
309
330
30A
330
30B
330
30C
330
30D
330
30E
330
30F
330
310
330
311
330
312
330
313
330
314
330
315
330
316
330
317
330
318
330
319
330
31A
330
31B
330
31C
330
31D
330
31E
330
31F
330
320
330
321
330
322
330
323
330
324
330
325
330
326
330
327
330
328
330
329
330
32A
330
32B
330
32C
330
32D
330
32E
330
32F
330
330
330
331
330
332
330
333
330
334
330
335
330
336
330
337
330
338
330
339
330
33A
330
33B
330
33C
330
33D
330
33E
330
33F
330
340
330
341
330
342
330
343
330
344
330
345
330
346
330
347
330
348
330
349
330
34A
330
34B
330
34C
330
34D
330
34E
330
34F
330
350
330
351
330
352
330
353
330
354
330
355
330
356
330
357
330
358
330
359
330
35A
330
35B
330
35C
330
35D
330
35E
330
35F
330
360
330
361
330
362
330
363
330
364
330
365
330
366
330
367
330
368
330
369
330
36A
330
36B
330
36C
330
36D
330
36E
330
36F
330
370
330
371
330
372
330
373
330
374
330
375
330
376
330
377
330
378
330
379
330
37A
330
37B
330
37C
330
37D
330
37E
330
37F
330
380
330
381
330
382
330
383
330
384
330
385
330
386
330
387
330
388
330
389
330
38A
330
38B
330
38C
330
38D
330
38E
330
38F
330
390
330
391
330
392
330
393
330
394
330
395
330
396
330
397
330
398
330
399
330
39A
330
39B
330
39C
330
39D
330
39E
330
39F
330
3A0
330
3A1
330
3A2
330
3A3
330
3A4
330
3A5
330
3A6
330
3A7
330
3A8
330
3A9
330
3AA
330
3AB
330
3AC
330
3AD
330
3AE
330
3AF
330
3B0
330
3B1
330
3B2
330
3B3
330
3B4
330
3B5
330
3B6
330
3B7
330
3B8
 75
0
 76
1
 98
1
 10
0.0
 20
0.0
  0
LINE
  5
3BA
100
AcDbEntity
  8
0
100
AcDbLine
 62
7
  6
CONTINUOUS
 10
21.05
 20
2.67
 11
14.7
 21
2.67
  0
LINE
  5
3BB
100
AcDbEntity
  8
0
100
AcDbLine
 62
7
  6
CONTINUOUS
 10
6.007
 20
0.75
 11
6.007
 21
0.5
  0
LINE
  5
3BC
100
AcDbEntity
  8
0
100
AcDbLine
 62
7
  6
CONTINUOUS
 10
6.007
 20
15.75
 11
6.007
 21
16.0
  0
LINE
  5
3BD
100
AcDbEntity
  8
0
100
AcDbLine
 62
7
  6
CONTINUOUS
 10
0.814
 20
8.163397
 11
0.964
 21
8.25
  0
LINE
  5
3BE
100
AcDbEntity
  8
0
100
AcDbLine
 62
7
  6
CONTINUOUS
 10
0.964
 20
8.25
 11
0.814
 21
8.336603
  0
LINE
  5
3BF
100
AcDbEntity
  8
0
100
AcDbLine
 62
7
  6
CONTINUOUS
 10
0.964
 20
4.4
 11
0.714
 21
4.4
  0
LINE
  5
3C0
100
AcDbEntity
  8
0
100
AcDbLine
 62
7
  6
CONTINUOUS
 10
21.05
 20
4.4
 11
21.3
 21
4.4
  0
LINE
  5
3C1
100
AcDbEntity
  8
0
100
AcDbLine
 62
7
  6
CONTINUOUS
 10
11.093603
 20
0.6
 11
11.007
 21
0.75
  0
LINE
  5
3C2
100
AcDbEntity
  8
0
100
AcDbLine
 62
7
  6
CONTINUOUS
 10
11.007
 20
15.75
 11
11.093603
 21
15.9
  0
LINE
  5
3C3
100
AcDbEntity
  8
0
100
AcDbLine
 62
7
  6
CONTINUOUS
 10
8.507
 20
0.75
 11
8.507
 21
0.5
  0
LINE
  5
3C4
100
AcDbEntity
  8
0
100
AcDbLine
 62
7
  6
CONTINUOUS
 10
8.507
 20
15.75
 11
8.507
 21
16.0
  0
LINE
  5
3C5
100
AcDbEntity
  8
0
100
AcDbLine
 62
7
  6
CONTINUOUS
 10
11.007
 20
0.75
 11
11.007
 21
0.5
  0
LINE
  5
3C6
100
AcDbEntity
  8
0
100
AcDbLine
 62
7
  6
CONTINUOUS
 10
11.007
 20
15.75
 11
11.007
 21
16.0
  0
LINE
  5
3C7
100
AcDbEntity
  8
0
100
AcDbLine
 62
7
  6
CONTINUOUS
 10
0.964
 20
8.25
 11
0.714
 21
8.25
  0
LINE
  5
3C8
100
AcDbEntity
  8
0
100
AcDbLine
 62
7
  6
CONTINUOUS
 10
21.05
 20
8.25
 11
21.3
 21
8.25
  0
LINE
  5
3C9
100
AcDbEntity
  8
0
100
AcDbLine
 62
7
  6
CONTINUOUS
 10
13.507
 20
0.75
 11
13.507
 21
0.5
  0
LINE
  5
3CA
100
AcDbEntity
  8
0
100
AcDbLine
 62
7
  6
CONTINUOUS
 10
13.507
 20
15.75
 11
13.507
 21
16.0
  0
LINE
  5
3CB
100
AcDbEntity
  8
0
100
AcDbLine
 62
7
  6
CONTINUOUS
 10
14.7
 20
2.67
 11
14.7
 21
0.75
  0
LINE
  5
3CC
100
AcDbEntity
  8
0
100
AcDbLine
 62
7
  6
CONTINUOUS
 10
11.007
 20
0.75
 11
10.920397
 21
0.6
  0
LINE
  5
3CD
100
AcDbEntity
  8
0
100
AcDbLine
 62
7
  6
CONTINUOUS
 10
0.964
 20
12.1
 11
0.714
 21
12.1
  0
LINE
  5
3CE
100
AcDbEntity
  8
0
100
AcDbLine
 62
7
  6
CONTINUOUS
 10
21.05
 20
12.1
 11
21.3
 21
12.1
  0
LINE
  5
3CF
100
AcDbEntity
  8
0
100
AcDbLine
 62
7
  6
CONTINUOUS
 10
10.920397
 20
15.9
 11
11.007
 21
15.75
  0
LINE
  5
3D0
100
AcDbEntity
  8
0
100
AcDbLine
 62
7
  6
CONTINUOUS
 10
15.2229827477
 20
1.0139932523
 11
15.2229827477
 21
0.7919022523
  0
LINE
  5
3D1
100
AcDbEntity
  8
0
100
AcDbLine
 62
7
  6
CONTINUOUS
 10
15.2229827477
 20
1.0639932523
 11
15.2229827477
 21
1.1639932523
  0
LINE
  5
3D2
100
AcDbEntity
  8
0
100
AcDbLine
 62
7
  6
CONTINUOUS
 10
15.2229827477
 20
1.2139932523
 11
15.2229827477
 21
1.4360842523
  0
LINE
  5
3D3
100
AcDbEntity
  8
0
100
AcDbLine
 62
7
  6
CONTINUOUS
 10
15.8276527477
 20
0.9312952523
 11
15.8276527477
 21
1.2966912523
  0
LINE
  5
3D4
100
AcDbEntity
  8
0
100
AcDbLine
 62
7
  6
CONTINUOUS
 10
16.007
 20
0.75
 11
16.007
 21
0.5
  0
LINE
  5
3D5
100
AcDbEntity
  8
0
100
AcDbLine
 62
7
  6
CONTINUOUS
 10
16.007
 20
15.75
 11
16.007
 21
16.0
  0
LINE
  5
3D6
100
AcDbEntity
  8
0
100
AcDbLine
 62
7
  6
CONTINUOUS
 10
16.4340437477
 20
1.3660842523
 11
16.4340437477
 21
0.8619022523
  0
LINE
  5
3D7
100
AcDbEntity
  8
0
100
AcDbLine
 62
7
  6
CONTINUOUS
 10
21.2
 20
8.336603
 11
21.05
 21
8.25
  0
LINE
  5
3D8
100
AcDbEntity
  8
0
100
AcDbLine
 62
7
  6
CONTINUOUS
 10
21.05
 20
8.25
 11
21.2
 21
8.163397
  0
LINE
  5
3D9
100
AcDbEntity
  8
0
100
AcDbLine
 62
7
  6
CONTINUOUS
 10
16.7
 20
2.67
 11
16.7
 21
0.75
  0
LINE
  5
3DA
100
AcDbEntity
  8
0
100
AcDbLine
 62
7
  6
CONTINUOUS
 10
17.5
 20
1.37
 11
17.5
 21
1.0
  0
LINE
  5
3DB
100
AcDbEntity
  8
0
100
AcDbLine
 62
7
  6
CONTINUOUS
 10
18.507
 20
0.75
 11
18.507
 21
0.5
  0
LINE
  5
3DC
100
AcDbEntity
  8
0
100
AcDbLine
 62
7
  6
CONTINUOUS
 10
18.507
 20
15.75
 11
18.507
 21
16.0
  0
LINE
  5
3DD
100
AcDbEntity
  8
0
100
AcDbLine
 62
7
  6
CONTINUOUS
 10
21.05
 20
15.75
 11
0.964
 21
15.75
  0
LINE
  5
3DE
100
AcDbEntity
  8
0
100
AcDbLine
 62
7
  6
CONTINUOUS
 10
11.093603
 20
15.9
 11
10.920397
 21
15.9
  0
LINE
  5
3DF
100
AcDbEntity
  8
0
100
AcDbLine
 62
7
  6
CONTINUOUS
 10
18.875
 20
1.0
 11
18.875
 21
0.75
  0
LINE
  5
3E0
100
AcDbEntity
  8
0
100
AcDbLine
 62
7
  6
CONTINUOUS
 10
20.25
 20
1.37
 11
20.25
 21
1.0
  0
LINE
  5
3E1
100
AcDbEntity
  8
0
100
AcDbLine
 62
7
  6
CONTINUOUS
 10
21.05
 20
0.75
 11
21.05
 21
15.75
  0
LINE
  5
3E2
100
AcDbEntity
  8
0
100
AcDbLine
 62
7
  6
CONTINUOUS
 10
21.2
 20
8.163397
 11
21.2
 21
8.336603
  0
LWPOLYLINE
  5
3E3
100
AcDbEntity
  8
0
100
AcDbPolyline
 62
7
  6
CONTINUOUS
 90
10
 70
0
 10
7.8743649642
 20
7.1585580294
 10
7.8715983347
 20
7.1578519918
 10
7.8626498275
 20
7.1568677058
 10
7.8479805724
 20
7.1558834216
 10
7.8279526327
 20
7.1548991743
 10
7.8030589824
 20
7.1539149367
 10
7.7739120277
 20
7.1529306875
 10
7.7412304488
 20
7.1519464591
 10
7.7058185087
 20
7.1509622346
 10
7.668547046
 20
7.1499779855
  0
LWPOLYLINE
  5
3E4
100
AcDbEntity
  8
0
100
AcDbPolyline
 62
7
  6
CONTINUOUS
 90
10
 70
0
 10
7.8671178474
 20
7.1277262856
 10
7.8636379254
 20
7.1271073276
 10
7.8543807803
 20
7.1264803218
 10
7.8396091403
 20
7.1258531285
 10
7.819975619
 20
7.1252331071
 10
7.7959280425
 20
7.1246150577
 10
7.7678685441
 20
7.1239939478
 10
7.7368120638
 20
7.1233766923
 10
7.7033867327
 20
7.1227599212
 10
7.6680868824
 20
7.1221379735
  0
LWPOLYLINE
  5
3E5
100
AcDbEntity
  8
0
100
AcDbPolyline
 62
7
  6
CONTINUOUS
 90
8
 70
0
 10
7.5081982236
 20
7.1890199675
 10
7.4781929478
 20
7.1880878253
 10
7.4514348573
 20
7.1871514062
 10
7.42879143
 20
7.186220736
 10
7.4104765588
 20
7.1852836305
 10
7.3969607341
 20
7.1843370553
 10
7.3887679138
 20
7.1833917391
 10
7.3863031365
 20
7.1827364988
  0
LWPOLYLINE
  5
3E6
100
AcDbEntity
  8
0
100
AcDbPolyline
 62
7
  6
CONTINUOUS
 90
10
 70
0
 10
7.6685099054
 20
7.1324031973
 10
7.7024611571
 20
7.1334356043
 10
7.7344587673
 20
7.1344680113
 10
7.7636360458
 20
7.1355004183
 10
7.7892026943
 20
7.1365328254
 10
7.810466212
 20
7.1375652324
 10
7.8268506535
 20
7.1385976394
 10
7.8379122281
 20
7.1396300464
 10
7.8433513211
 20
7.1406624535
 10
7.8436445627
 20
7.1408015876
  0
LWPOLYLINE
  5
3E7
100
AcDbEntity
  8
0
100
AcDbPolyline
 62
7
  6
CONTINUOUS
 90
11
 70
0
 10
7.5937891965
 20
7.1695698501
 10
7.6638521997
 20
7.1716346642
 10
7.6979966025
 20
7.1726670712
 10
7.7303082911
 20
7.1736994782
 10
7.7599120682
 20
7.1747318852
 10
7.7860060832
 20
7.1757642923
 10
7.8078835512
 20
7.1767966993
 10
7.8249518971
 20
7.1778291063
 10
7.8367488061
 20
7.1788615133
 10
7.8429547461
 20
7.1798939203
 10
7.8436445627
 20
7.1801716664
  0
LWPOLYLINE
  5
3E8
100
AcDbEntity
  8
0
100
AcDbPolyline
 62
7
  6
CONTINUOUS
 90
3
 70
0
 10
7.5808879786
 20
7.1910236142
 10
7.5433722412
 20
7.1900200746
 10
7.5081982236
 20
7.1890199675
  0
LWPOLYLINE
  5
3E9
100
AcDbEntity
  8
0
100
AcDbPolyline
 62
7
  6
CONTINUOUS
 90
11
 70
0
 10
7.668547046
 20
7.1499779855
 10
7.5921193451
 20
7.1480094117
 10
7.5548479511
 20
7.1470251627
 10
7.5194361171
 20
7.1460409383
 10
7.4867546758
 20
7.1450567098
 10
7.4576078942
 20
7.1440724605
 10
7.4327144503
 20
7.1430882229
 10
7.4126867408
 20
7.1421039755
 10
7.3980177368
 20
7.1411196913
 10
7.3890694957
 20
7.1401354054
 10
7.3860623968
 20
7.1391512011
  0
LWPOLYLINE
  5
3EA
100
AcDbEntity
  8
0
100
AcDbPolyline
 62
7
  6
CONTINUOUS
 90
11
 70
0
 10
7.592119337
 20
7.1519464194
 10
7.6685470125
 20
7.1539149925
 10
7.7058184663
 20
7.1548992413
 10
7.741230409
 20
7.1558834658
 10
7.7739119567
 20
7.1568676931
 10
7.8030588802
 20
7.1578519409
 10
7.8279525337
 20
7.1588361778
 10
7.8479804948
 20
7.1598204251
 10
7.8626497823
 20
7.1608047099
 10
7.8715983211
 20
7.1617889975
 10
7.8746057039
 20
7.1627732484
  0
LWPOLYLINE
  5
3EB
100
AcDbEntity
  8
0
100
AcDbPolyline
 62
7
  6
CONTINUOUS
 90
11
 70
0
 10
7.5916607646
 20
7.1873675787
 10
7.6689079276
 20
7.1893574379
 10
7.7061066979
 20
7.1903400879
 10
7.7411667372
 20
7.1913147038
 10
7.7735788662
 20
7.1922902092
 10
7.8027133332
 20
7.193272489
 10
7.8275359034
 20
7.1942511029
 10
7.8476196352
 20
7.1952331716
 10
7.8625285445
 20
7.1962277417
 10
7.8716038575
 20
7.1972229766
 10
7.8743649642
 20
7.1979281082
  0
LWPOLYLINE
  5
3EC
100
AcDbEntity
  8
0
100
AcDbPolyline
 62
7
  6
CONTINUOUS
 90
10
 70
0
 10
7.6680868824
 20
7.1221379735
 10
7.5951704682
 20
7.1208764828
 10
7.5602516205
 20
7.1202525654
 10
7.5275054579
 20
7.1196337819
 10
7.4973644865
 20
7.1190137765
 10
7.4704171253
 20
7.1183888872
 10
7.4476223098
 20
7.1177659456
 10
7.4293723593
 20
7.1171408538
 10
7.4160377918
 20
7.1165074241
 10
7.4081976006
 20
7.1158732869
  0
LINE
  5
3ED
100
AcDbEntity
  8
0
100
AcDbLine
 62
7
  6
CONTINUOUS
 10
7.4265938929
 20
7.0604110436
 11
7.8340742078
 21
7.0604110436
  0
LINE
  5
3EE
100
AcDbEntity
  8
0
100
AcDbLine
 62
7
  6
CONTINUOUS
 10
7.4214954677
 20
7.0997811224
 11
7.839172633
 21
7.0997811224
  0
LWPOLYLINE
  5
3EF
100
AcDbEntity
  8
0
100
AcDbPolyline
 62
7
  6
CONTINUOUS
 90
10
 70
0
 10
7.3863031365
 20
7.14336642
 10
7.3890695176
 20
7.1440724169
 10
7.3980177532
 20
7.1450567005
 10
7.4126867414
 20
7.1460409834
 10
7.4327144372
 20
7.1470252302
 10
7.4576078773
 20
7.1480094677
 10
7.4867546821
 20
7.1489937179
 10
7.5194361449
 20
7.149977947
 10
7.5548479574
 20
7.1509621708
 10
7.592119337
 20
7.1519464194
  0
LWPOLYLINE
  5
3F0
100
AcDbEntity
  8
0
100
AcDbPolyline
 62
7
  6
CONTINUOUS
 90
7
 70
0
 10
7.417023538
 20
7.2004929406
 10
7.4220547173
 20
7.2015744678
 10
7.4326358474
 20
7.2026068749
 10
7.4485718492
 20
7.2036392819
 10
7.4694310787
 20
7.2046716889
 10
7.4946485409
 20
7.2057040959
 10
7.5235411933
 20
7.206736503
  0
LINE
  5
3F1
100
AcDbEntity
  8
0
100
AcDbLine
 62
7
  6
CONTINUOUS
 10
7.4081976006
 20
7.1158732869
 11
7.4061000529
 21
7.1154383647
  0
LWPOLYLINE
  5
3F2
100
AcDbEntity
  8
0
100
AcDbPolyline
 62
7
  6
CONTINUOUS
 90
7
 70
0
 10
7.7371269074
 20
7.331408419
 10
7.7661912712
 20
7.3324473516
 10
7.7915292349
 20
7.3334862842
 10
7.8124458087
 20
7.3345252169
 10
7.828367276
 20
7.3355641495
 10
7.8388569301
 20
7.3366030821
 10
7.8436445627
 20
7.3376519813
  0
LWPOLYLINE
  5
3F3
100
AcDbEntity
  8
0
100
AcDbPolyline
 62
7
  6
CONTINUOUS
 90
3
 70
0
 10
7.5235411933
 20
7.206736503
 10
7.5555347568
 20
7.2077754356
 10
7.5895799748
 20
7.2088143682
  0
LWPOLYLINE
  5
3F4
100
AcDbEntity
  8
0
100
AcDbPolyline
 62
7
  6
CONTINUOUS
 90
8
 70
0
 10
7.7524698771
 20
7.3491249544
 10
7.7824630774
 20
7.3500567007
 10
7.8092143364
 20
7.3509928035
 10
7.8318541198
 20
7.3519231623
 10
7.8501752176
 20
7.3528603306
 10
7.8636977776
 20
7.353807034
 10
7.8718974161
 20
7.3547527041
 10
7.8743649642
 20
7.3554084231
  0
LWPOLYLINE
  5
3F5
100
AcDbEntity
  8
0
100
AcDbPolyline
 62
7
  6
CONTINUOUS
 90
3
 70
0
 10
7.6710881259
 20
7.3293305537
 10
7.7051333439
 20
7.3303694863
 10
7.7371269074
 20
7.331408419
  0
LWPOLYLINE
  5
3F6
100
AcDbEntity
  8
0
100
AcDbPolyline
 62
7
  6
CONTINUOUS
 90
9
 70
0
 10
7.6747410173
 20
7.3688099938
 10
7.7086134766
 20
7.3698489264
 10
7.7403388253
 20
7.370887859
 10
7.7690468755
 20
7.3719267917
 10
7.7939501997
 20
7.3729657243
 10
7.8143657298
 20
7.3740046569
 10
7.8297334924
 20
7.3750435896
 10
7.8396319681
 20
7.3760825222
 10
7.8436445627
 20
7.3770220601
  0
LWPOLYLINE
  5
3F7
100
AcDbEntity
  8
0
100
AcDbPolyline
 62
7
  6
CONTINUOUS
 90
10
 70
0
 10
7.6674228204
 20
7.2898511136
 10
7.7016304267
 20
7.2908900463
 10
7.7338824593
 20
7.2919289789
 10
7.7632942835
 20
7.2929679115
 10
7.7890591685
 20
7.2940068442
 10
7.8104704145
 20
7.2950457768
 10
7.8269407367
 20
7.2960847094
 10
7.8380183741
 20
7.2971236421
 10
7.8433994803
 20
7.2981625747
 10
7.8436445627
 20
7.2982819026
  0
LWPOLYLINE
  5
3F8
100
AcDbEntity
  8
0
100
AcDbPolyline
 62
7
  6
CONTINUOUS
 90
11
 70
0
 10
7.5895799748
 20
7.2088143682
 10
7.6600594365
 20
7.2108922335
 10
7.6945605132
 20
7.2119311661
 10
7.7272999354
 20
7.2129700988
 10
7.7573797
 20
7.2140090314
 10
7.7839747552
 20
7.215047964
 10
7.8063556308
 20
7.2160868967
 10
7.8239084462
 20
7.2171258293
 10
7.8361517488
 20
7.2181647619
 10
7.8427497195
 20
7.2192036946
 10
7.8436445627
 20
7.2195417451
  0
LWPOLYLINE
  5
3F9
100
AcDbEntity
  8
0
100
AcDbPolyline
 62
7
  6
CONTINUOUS
 90
11
 70
0
 10
7.5932452803
 20
7.2482938083
 10
7.6637462173
 20
7.2503716736
 10
7.698105792
 20
7.2514106062
 10
7.7306064693
 20
7.2524495388
 10
7.7603567948
 20
7.2534884715
 10
7.7865407529
 20
7.2545274041
 10
7.8084401491
 20
7.2555663367
 10
7.8254543092
 20
7.2566052694
 10
7.8371165554
 20
7.257644202
 10
7.8431070063
 20
7.2586831346
 10
7.8436445627
 20
7.2589118238
  0
LWPOLYLINE
  5
3FA
100
AcDbEntity
  8
0
100
AcDbPolyline
 62
7
  6
CONTINUOUS
 90
3
 70
0
 10
7.5081982236
 20
7.2244530384
 10
7.5433722412
 20
7.2254531455
 10
7.5808879786
 20
7.2264566851
  0
LWPOLYLINE
  5
3FB
100
AcDbEntity
  8
0
100
AcDbPolyline
 62
7
  6
CONTINUOUS
 90
3
 70
0
 10
7.7524698771
 20
7.3136918835
 10
7.7172884177
 20
7.3126915722
 10
7.6797692625
 20
7.3116879524
  0
LWPOLYLINE
  5
3FC
100
AcDbEntity
  8
0
100
AcDbPolyline
 62
7
  6
CONTINUOUS
 90
3
 70
0
 10
7.6797692625
 20
7.3471210232
 10
7.7172884177
 20
7.348124643
 10
7.7524698771
 20
7.3491249544
  0
LWPOLYLINE
  5
3FD
100
AcDbEntity
  8
0
100
AcDbPolyline
 62
7
  6
CONTINUOUS
 90
11
 70
0
 10
7.5808879786
 20
7.2264566851
 10
7.660022387
 20
7.2284973171
 10
7.6986332466
 20
7.2295095277
 10
7.7350274799
 20
7.2305092918
 10
7.7687890698
 20
7.231509896
 10
7.7992440899
 20
7.232518188
 10
7.8252719285
 20
7.2335238039
 10
7.8462958388
 20
7.2345297643
 10
7.8619307815
 20
7.2355490254
 10
7.8714558004
 20
7.2365690459
 10
7.8743649642
 20
7.2372981869
  0
LWPOLYLINE
  5
3FE
100
AcDbEntity
  8
0
100
AcDbPolyline
 62
7
  6
CONTINUOUS
 90
11
 70
0
 10
7.6689629526
 20
7.232665954
 10
7.5917156772
 20
7.2306760919
 10
7.554520966
 20
7.2296935067
 10
7.5194678707
 20
7.2287190178
 10
7.4870502005
 20
7.2277432403
 10
7.4579108161
 20
7.2267606052
 10
7.4330932082
 20
7.2257818877
 10
7.4130189375
 20
7.2247998558
 10
7.398122857
 20
7.2238055641
 10
7.3890593098
 20
7.2228108991
 10
7.3863031365
 20
7.2221065775
  0
LWPOLYLINE
  5
3FF
100
AcDbEntity
  8
0
100
AcDbPolyline
 62
7
  6
CONTINUOUS
 90
11
 70
0
 10
7.5917156772
 20
7.2661091627
 10
7.6689629526
 20
7.2680990248
 10
7.7061587629
 20
7.2690816502
 10
7.7412105297
 20
7.2700561219
 10
7.7736292497
 20
7.2710319624
 10
7.8027697538
 20
7.2720146895
 10
7.827586081
 20
7.272993442
 10
7.8476568352
 20
7.2739754183
 10
7.8625489176
 20
7.2749695827
 10
7.8716097882
 20
7.2759641079
 10
7.8743649642
 20
7.2766682656
  0
LWPOLYLINE
  5
400
100
AcDbEntity
  8
0
100
AcDbPolyline
 62
7
  6
CONTINUOUS
 90
11
 70
0
 10
7.668914894
 20
7.2720347842
 10
7.5916678309
 20
7.2700449276
 10
7.5544758453
 20
7.2690623679
 10
7.5194300079
 20
7.2680880065
 10
7.48700569
 20
7.2671119091
 10
7.4578614231
 20
7.266128895
 10
7.4330494814
 20
7.2651500647
 10
7.4129866353
 20
7.2641681196
 10
7.398105275
 20
7.2631741891
 10
7.3890542834
 20
7.2621801518
 10
7.3863031365
 20
7.2614766563
  0
LWPOLYLINE
  5
401
100
AcDbEntity
  8
0
100
AcDbPolyline
 62
7
  6
CONTINUOUS
 90
11
 70
0
 10
7.5916678309
 20
7.3054779985
 10
7.668914894
 20
7.3074678551
 10
7.7061132359
 20
7.3084505005
 10
7.7411720993
 20
7.3094250943
 10
7.7735850864
 20
7.3104006424
 10
7.8027204958
 20
7.3113829846
 10
7.827542299
 20
7.3123616172
 10
7.8476243615
 20
7.3133436732
 10
7.862531133
 20
7.3143381918
 10
7.8716046171
 20
7.3153333375
 10
7.8743649642
 20
7.3160383444
  0
LWPOLYLINE
  5
402
100
AcDbEntity
  8
0
100
AcDbPolyline
 62
7
  6
CONTINUOUS
 90
11
 70
0
 10
7.6797692625
 20
7.3116879524
 10
7.6006308928
 20
7.3096472218
 10
7.5620172282
 20
7.3086349233
 10
7.525626744
 20
7.3076352361
 10
7.4918590555
 20
7.306634404
 10
7.4613961224
 20
7.3056257436
 10
7.435367314
 20
7.3046198894
 10
7.4143506941
 20
7.3036139734
 10
7.3987246673
 20
7.3025948755
 10
7.3892086214
 20
7.3015752864
 10
7.3863031365
 20
7.300846735
  0
LWPOLYLINE
  5
403
100
AcDbEntity
  8
0
100
AcDbPolyline
 62
7
  6
CONTINUOUS
 90
11
 70
0
 10
7.6689709329
 20
7.3507763975
 10
7.591723682
 20
7.348786536
 10
7.5545285429
 20
7.3478039474
 10
7.519474264
 20
7.3468294381
 10
7.4870575868
 20
7.3458537104
 10
7.4579190428
 20
7.3448711394
 10
7.4331005116
 20
7.3438924415
 10
7.4130243488
 20
7.342910396
 10
7.3981258162
 20
7.3419160449
 10
7.3890601671
 20
7.3409212761
 10
7.3863031365
 20
7.3402168137
  0
LWPOLYLINE
  5
404
100
AcDbEntity
  8
0
100
AcDbPolyline
 62
7
  6
CONTINUOUS
 90
11
 70
0
 10
7.591723682
 20
7.3842196069
 10
7.6689709329
 20
7.3862094684
 10
7.7061662949
 20
7.3871920897
 10
7.7412168525
 20
7.3881665401
 10
7.7736366428
 20
7.3891424328
 10
7.8027779696
 20
7.3901252233
 10
7.8275933631
 20
7.3911039949
 10
7.8476622203
 20
7.3920859571
 10
7.8625518532
 20
7.3930800617
 10
7.8716106305
 20
7.3940744826
 10
7.8743649642
 20
7.3947785019
  0
LWPOLYLINE
  5
405
100
AcDbEntity
  8
0
100
AcDbPolyline
 62
7
  6
CONTINUOUS
 90
11
 70
0
 10
7.6689229248
 20
7.3901452291
 10
7.5916757836
 20
7.3881553705
 10
7.5544833249
 20
7.3871728059
 10
7.5194362592
 20
7.3861984227
 10
7.4870131313
 20
7.3852223811
 10
7.4578696591
 20
7.3842394296
 10
7.4330567581
 20
7.3832606174
 10
7.4129919993
 20
7.3822786572
 10
7.3981081847
 20
7.381284666
 10
7.3890551071
 20
7.3802905235
 10
7.3863031365
 20
7.3795868925
  0
LWPOLYLINE
  5
406
100
AcDbEntity
  8
0
100
AcDbPolyline
 62
7
  6
CONTINUOUS
 90
11
 70
0
 10
7.5916757836
 20
7.4235884413
 10
7.6689229248
 20
7.4255783
 10
7.7061208637
 20
7.4265609425
 10
7.7411785631
 20
7.4275355166
 10
7.7735924237
 20
7.428511111
 10
7.802728701
 20
7.4294935179
 10
7.8275496067
 20
7.4304721711
 10
7.8476297932
 20
7.4314542144
 10
7.8625341175
 20
7.4324486746
 10
7.8716054929
 20
7.4334437175
 10
7.8743649642
 20
7.4341485806
  0
LWPOLYLINE
  5
407
100
AcDbEntity
  8
0
100
AcDbPolyline
 62
7
  6
CONTINUOUS
 90
11
 70
0
 10
7.6689037564
 20
7.4295148099
 10
7.591652037
 20
7.4275248323
 10
7.5544587114
 20
7.4265422205
 10
7.5194155496
 20
7.4255679052
 10
7.4869812556
 20
7.42459145
 10
7.457829643
 20
7.4236080587
 10
7.4330193718
 20
7.4226290696
 10
7.4129636
 20
7.4216471396
 10
7.3980925202
 20
7.4206534487
 10
7.3890506659
 20
7.4196598719
 10
7.3863031365
 20
7.4189569712
  0
LWPOLYLINE
  5
408
100
AcDbEntity
  8
0
100
AcDbPolyline
 62
7
  6
CONTINUOUS
 90
20
 70
0
 10
7.417023538
 20
7.4367134131
 10
7.4193779309
 20
7.4373795476
 10
7.4277856653
 20
7.4384184802
 10
7.4417490583
 20
7.4394574128
 10
7.4608851107
 20
7.4404963455
 10
7.4846689436
 20
7.4415352781
 10
7.5124481952
 20
7.4425742107
 10
7.543460914
 20
7.4436131434
 10
7.5768564584
 20
7.444652076
 10
7.6117188288
 20
7.4456910086
 10
7.6470917923
 20
7.4467299413
 10
7.6820051112
 20
7.4477688739
 10
7.715501155
 20
7.4488078065
 10
7.7466611675
 20
7.4498467392
 10
7.7746304672
 20
7.4508856718
 10
7.7986418898
 20
7.4519246044
 10
7.8180368309
 20
7.4529635371
 10
7.8322833105
 20
7.4540024697
 10
7.8409905648
 20
7.4550414023
 10
7.8436445627
 20
7.4557622175
  0
LINE
  5
409
100
AcDbEntity
  8
0
100
AcDbLine
 62
7
  6
CONTINUOUS
 10
7.8439197644
 20
7.456080335
 11
7.8465469907
 21
7.4567880751
  0
LINE
  5
40A
100
AcDbEntity
  8
0
100
AcDbLine
 62
7
  6
CONTINUOUS
 10
7.8716034968
 20
7.4728134686
 11
7.8743649642
 21
7.4735186593
  0
LWPOLYLINE
  5
40B
100
AcDbEntity
  8
0
100
AcDbPolyline
 62
7
  6
CONTINUOUS
 90
6
 70
0
 10
8.1355833942
 20
7.5328519885
 10
8.1450458568
 20
7.5343935156
 10
8.1535820677
 20
7.5388672013
 10
8.160356443
 20
7.5458351302
 10
8.1647058597
 20
7.5546152328
 10
8.1662045665
 20
7.5643480515
  0
LWPOLYLINE
  5
40C
100
AcDbEntity
  8
0
100
AcDbPolyline
 62
7
  6
CONTINUOUS
 90
18
 70
0
 10
8.171672633
 20
7.7074207637
 10
8.1479487231
 20
7.7059025833
 10
8.1107921973
 20
7.7043859042
 10
8.0611503306
 20
7.7028691816
 10
7.9999098909
 20
7.7013431683
 10
7.9287973103
 20
7.6998140888
 10
7.8505247786
 20
7.6982984365
 10
7.7665671576
 20
7.696783284
 10
7.6779099632
 20
7.6952481561
 10
7.5875135055
 20
7.6937049399
 10
7.4989925627
 20
7.692174433
 10
7.4146618652
 20
7.690657183
 10
7.3347936939
 20
7.6891168098
 10
7.2624941998
 20
7.6875683887
 10
7.2006361003
 20
7.6860330615
 10
7.150832744
 20
7.6845190179
 10
7.1131407129
 20
7.682989993
 10
7.0889954677
 20
7.681450968
  0
LWPOLYLINE
  5
40D
100
AcDbEntity
  8
0
100
AcDbPolyline
 62
7
  6
CONTINUOUS
 90
18
 70
0
 10
8.171672633
 20
7.6483656456
 10
8.1476357506
 20
7.6468319696
 10
8.1097791962
 20
7.6452956541
 10
8.0596792395
 20
7.6437739533
 10
7.9984710107
 20
7.6422550301
 10
7.9276252987
 20
7.6407352176
 10
7.8486290447
 20
7.6392080844
 10
7.7643243372
 20
7.637688717
 10
7.6761293321
 20
7.6361625646
 10
7.5870250765
 20
7.6346414674
 10
7.4991628331
 20
7.6331223044
 10
7.4147018275
 20
7.6316028053
 10
7.3350982611
 20
7.6300678433
 10
7.2633534771
 20
7.6285329274
 10
7.2019841852
 20
7.62701456
 10
7.151642771
 20
7.6254918368
 10
7.1133822951
 20
7.6239467701
 10
7.0889954677
 20
7.6223958499
  0
LWPOLYLINE
  5
40E
100
AcDbEntity
  8
0
100
AcDbPolyline
 62
7
  6
CONTINUOUS
 90
18
 70
0
 10
7.0889954677
 20
7.633056067
 10
7.1133322196
 20
7.6346045249
 10
7.151511717
 20
7.6361475439
 10
7.2017583395
 20
7.6376686551
 10
7.2629437758
 20
7.6391837768
 10
7.3343289865
 20
7.6407125179
 10
7.4136651608
 20
7.6422438056
 10
7.497988503
 20
7.6437618986
 10
7.585931206
 20
7.6452829722
 10
7.6747696548
 20
7.646799518
 10
7.7627151008
 20
7.6483206549
 10
7.8470353664
 20
7.6498387256
 10
7.9263638088
 20
7.6513699111
 10
7.9977406041
 20
7.6528985254
 10
8.0589233884
 20
7.6544136443
 10
8.1091649113
 20
7.6559346795
 10
8.1473386801
 20
7.6574775425
 10
8.171672633
 20
7.6590258628
  0
LWPOLYLINE
  5
40F
100
AcDbEntity
  8
0
100
AcDbPolyline
 62
7
  6
CONTINUOUS
 90
18
 70
0
 10
7.0944635342
 20
7.574442573
 10
7.1216895905
 20
7.5759387929
 10
7.1615097304
 20
7.5774263082
 10
7.2122878393
 20
7.5788939494
 10
7.2731519349
 20
7.5803596547
 10
7.3433670969
 20
7.5818389973
 10
7.4206941081
 20
7.5833186613
 10
7.5024731247
 20
7.5847854777
 10
7.587533733
 20
7.5862552668
 10
7.6733986555
 20
7.5877209472
 10
7.7584934994
 20
7.5891914495
 10
7.8402601184
 20
7.5906583085
 10
7.9175288292
 20
7.5921372472
 10
7.987641352
 20
7.5936148422
 10
8.0484703212
 20
7.5950801009
 10
8.0992285152
 20
7.5965476606
 10
8.1390124405
 20
7.598034403
 10
8.1662045665
 20
7.5995291206
  0
LWPOLYLINE
  5
410
100
AcDbEntity
  8
0
100
AcDbPolyline
 62
7
  6
CONTINUOUS
 90
16
 70
0
 10
7.0889954677
 20
7.596396271
 10
7.1308985394
 20
7.5978691868
 10
7.1850418801
 20
7.5993421026
 10
7.2500985334
 20
7.6008150185
 10
7.3244740774
 20
7.6022879343
 10
7.4063457009
 20
7.6037608502
 10
7.4937068773
 20
7.605233766
 10
7.5844165407
 20
7.6067066819
 10
7.67625156
 20
7.6081795977
 10
7.7669612234
 20
7.6096525136
 10
7.8543223997
 20
7.6111254294
 10
7.9361940233
 20
7.6125983452
 10
8.0105695673
 20
7.6140712611
 10
8.0756262206
 20
7.6155441769
 10
8.1297695613
 20
7.6170170928
 10
8.171672633
 20
7.6184900086
  0
LWPOLYLINE
  5
411
100
AcDbEntity
  8
0
100
AcDbPolyline
 62
7
  6
CONTINUOUS
 90
16
 70
0
 10
7.0889954677
 20
7.6038765859
 10
7.1308985394
 20
7.6053495018
 10
7.1850418801
 20
7.6068224176
 10
7.2500985334
 20
7.6082953334
 10
7.3244740774
 20
7.6097682493
 10
7.4063457009
 20
7.6112411651
 10
7.4937068773
 20
7.612714081
 10
7.5844165407
 20
7.6141869968
 10
7.67625156
 20
7.6156599127
 10
7.7669612234
 20
7.6171328285
 10
7.8543223997
 20
7.6186057444
 10
7.9361940233
 20
7.6200786602
 10
8.0105695673
 20
7.6215515761
 10
8.0756262206
 20
7.6230244919
 10
8.1297695613
 20
7.6244974077
 10
8.171672633
 20
7.6259703236
  0
LWPOLYLINE
  5
412
100
AcDbEntity
  8
0
100
AcDbPolyline
 62
7
  6
CONTINUOUS
 90
16
 70
0
 10
7.0889954677
 20
7.6554513891
 10
7.1308985394
 20
7.6569243049
 10
7.1850418801
 20
7.6583972208
 10
7.2500985334
 20
7.6598701366
 10
7.3244740774
 20
7.6613430524
 10
7.4063457009
 20
7.6628159683
 10
7.4937068773
 20
7.6642888841
 10
7.5844165407
 20
7.6657618
 10
7.67625156
 20
7.6672347158
 10
7.7669612234
 20
7.6687076317
 10
7.8543223997
 20
7.6701805475
 10
7.9361940233
 20
7.6716534634
 10
8.0105695673
 20
7.6731263792
 10
8.0756262206
 20
7.674599295
 10
8.1297695613
 20
7.6760722109
 10
8.171672633
 20
7.6775451267
  0
LWPOLYLINE
  5
413
100
AcDbEntity
  8
0
100
AcDbPolyline
 62
7
  6
CONTINUOUS
 90
16
 70
0
 10
7.0889954677
 20
7.662931704
 10
7.1308985394
 20
7.6644046199
 10
7.1850418801
 20
7.6658775357
 10
7.2500985334
 20
7.6673504516
 10
7.3244740774
 20
7.6688233674
 10
7.4063457009
 20
7.6702962832
 10
7.4937068773
 20
7.6717691991
 10
7.5844165407
 20
7.6732421149
 10
7.67625156
 20
7.6747150308
 10
7.7669612234
 20
7.6761879466
 10
7.8543223997
 20
7.6776608625
 10
7.9361940233
 20
7.6791337783
 10
8.0105695673
 20
7.6806066942
 10
8.0756262206
 20
7.68207961
 10
8.1297695613
 20
7.6835525259
 10
8.171672633
 20
7.6850254417
  0
LWPOLYLINE
  5
414
100
AcDbEntity
  8
0
100
AcDbPolyline
 62
7
  6
CONTINUOUS
 90
9
 70
0
 10
7.6689037564
 20
7.4649478807
 10
7.7061048941
 20
7.4659305904
 10
7.7411700017
 20
7.4669053489
 10
7.7735786227
 20
7.4678807527
 10
7.8027077694
 20
7.4688628388
 10
7.8275305918
 20
7.4698414232
 10
7.8476164738
 20
7.4708235453
 10
7.8625271029
 20
7.4718181738
 10
7.8716034968
 20
7.4728134686
  0
LWPOLYLINE
  5
415
100
AcDbEntity
  8
0
100
AcDbPolyline
 62
7
  6
CONTINUOUS
 90
4
 70
0
 10
8.1662045665
 20
7.5995291206
 10
8.1692312547
 20
7.5995672759
 10
8.1710623727
 20
7.5991518832
 10
8.171672633
 20
7.5982847901
  0
LINE
  5
416
100
AcDbEntity
  8
0
100
AcDbLine
 62
7
  6
CONTINUOUS
 10
7.8746057039
 20
7.481265589
 11
7.3860623968
 21
7.481265589
  0
LINE
  5
417
100
AcDbEntity
  8
0
100
AcDbLine
 62
7
  6
CONTINUOUS
 10
7.87710606
 20
7.5054396149
 11
7.3835620407
 21
7.5054396149
  0
LINE
  5
418
100
AcDbEntity
  8
0
100
AcDbLine
 62
7
  6
CONTINUOUS
 10
8.14017657
 20
7.5328519885
 11
7.1204915307
 21
7.5328519885
  0
LINE
  5
419
100
AcDbEntity
  8
0
100
AcDbLine
 62
7
  6
CONTINUOUS
 10
8.171672633
 20
7.5643480515
 11
7.0889954677
 21
7.5643480515
  0
LWPOLYLINE
  5
41A
100
AcDbEntity
  8
0
100
AcDbPolyline
 62
7
  6
CONTINUOUS
 90
6
 70
0
 10
7.1250847065
 20
7.5328519885
 10
7.1156222439
 20
7.5343935156
 10
7.107086033
 20
7.5388672013
 10
7.1003116577
 20
7.5458351302
 10
7.095962241
 20
7.5546152328
 10
7.0944635342
 20
7.5643480515
  0
LINE
  5
41B
100
AcDbEntity
  8
0
100
AcDbLine
 62
7
  6
CONTINUOUS
 10
7.3863031365
 20
7.1388729901
 11
7.4164732234
 21
7.1214346658
  0
LINE
  5
41C
100
AcDbEntity
  8
0
100
AcDbLine
 62
7
  6
CONTINUOUS
 10
7.3863031365
 20
7.1782430688
 11
7.4164732234
 21
7.1608047446
  0
LINE
  5
41D
100
AcDbEntity
  8
0
100
AcDbLine
 62
7
  6
CONTINUOUS
 10
7.3863031365
 20
7.2176131475
 11
7.4164732234
 21
7.2001748233
  0
LINE
  5
41E
100
AcDbEntity
  8
0
100
AcDbLine
 62
7
  6
CONTINUOUS
 10
7.3863031365
 20
7.2569832263
 11
7.4164732234
 21
7.239544902
  0
LINE
  5
41F
100
AcDbEntity
  8
0
100
AcDbLine
 62
7
  6
CONTINUOUS
 10
7.3863031365
 20
7.296353305
 11
7.4164732234
 21
7.2789149808
  0
LINE
  5
420
100
AcDbEntity
  8
0
100
AcDbLine
 62
7
  6
CONTINUOUS
 10
7.3863031365
 20
7.3357233838
 11
7.4164732234
 21
7.3182850595
  0
LINE
  5
421
100
AcDbEntity
  8
0
100
AcDbLine
 62
7
  6
CONTINUOUS
 10
7.3863031365
 20
7.3750934625
 11
7.4164732234
 21
7.3576551383
  0
LWPOLYLINE
  5
422
100
AcDbEntity
  8
0
100
AcDbPolyline
 62
7
  6
CONTINUOUS
 90
18
 70
0
 10
8.171672633
 20
7.8845861181
 10
8.1479415555
 20
7.883067582
 10
8.110493812
 20
7.881540886
 10
8.0606871955
 20
7.8800218852
 10
7.999541843
 20
7.8785000665
 10
7.9288598626
 20
7.876980712
 10
7.8504854503
 20
7.8754630593
 10
7.7664169894
 20
7.8739459957
 10
7.6780429783
 20
7.8724157872
 10
7.5883138242
 20
7.8708839821
 10
7.5005507749
 20
7.8693671368
 10
7.4161114072
 20
7.8678493807
 10
7.3361542455
 20
7.8663096244
 10
7.2637683998
 20
7.8647628784
 10
7.2018317635
 20
7.8632309012
 10
7.1515401289
 20
7.8617087773
 10
7.1133474264
 20
7.8601655282
 10
7.0889954677
 20
7.8586163223
  0
LWPOLYLINE
  5
423
100
AcDbEntity
  8
0
100
AcDbPolyline
 62
7
  6
CONTINUOUS
 90
18
 70
0
 10
8.171672633
 20
7.7664758818
 10
8.147539573
 20
7.764937458
 10
8.1098777194
 20
7.763409297
 10
8.0600944249
 20
7.7618954882
 10
7.9982489349
 20
7.7603601793
 10
7.9259632233
 20
7.7588118344
 10
7.8461103026
 20
7.7572715953
 10
7.7617794029
 20
7.7557542406
 10
7.673212391
 20
7.7542228985
 10
7.5827870559
 20
7.7526791887
 10
7.4941216402
 20
7.7511439301
 10
7.4101721509
 20
7.7496289496
 10
7.3318829821
 20
7.7481130083
 10
7.2607491021
 20
7.7465834722
 10
7.1995054841
 20
7.7450573324
 10
7.1498709635
 20
7.7435407738
 10
7.1127252505
 20
7.742024558
 10
7.0889954677
 20
7.7405060861
  0
LWPOLYLINE
  5
424
100
AcDbEntity
  8
0
100
AcDbPolyline
 62
7
  6
CONTINUOUS
 90
18
 70
0
 10
8.171672633
 20
7.9436412362
 10
8.1477712895
 20
7.9421142623
 10
8.1105868513
 20
7.9405992362
 10
8.0609657707
 20
7.9390846101
 10
7.9994674919
 20
7.9375534772
 10
7.9277364772
 20
7.9360130598
 10
7.8486414744
 20
7.9344839058
 10
7.7646139682
 20
7.9329693995
 10
7.6757463687
 20
7.9314316023
 10
7.5850615479
 20
7.9298834666
 10
7.4961929059
 20
7.928345717
 10
7.4121487514
 20
7.9268310387
 10
7.3330019503
 20
7.9253010411
 10
7.2612388599
 20
7.9237600777
 10
7.1997273777
 20
7.9222287508
 10
7.1501049511
 20
7.920714264
 10
7.1129066951
 20
7.9191989035
 10
7.0889954677
 20
7.9176714404
  0
LWPOLYLINE
  5
425
100
AcDbEntity
  8
0
100
AcDbPolyline
 62
7
  6
CONTINUOUS
 90
18
 70
0
 10
7.0889954677
 20
7.6921111851
 10
7.1133156999
 20
7.6936588304
 10
7.1514756861
 20
7.6952014214
 10
7.2017103936
 20
7.6967224729
 10
7.2628822014
 20
7.6982374863
 10
7.3342185426
 20
7.6997654032
 10
7.4135244179
 20
7.7012963134
 10
7.4978395449
 20
7.7028144
 10
7.5857978412
 20
7.7043358087
 10
7.6746374564
 20
7.7058523745
 10
7.7625668371
 20
7.7073731686
 10
7.8468947936
 20
7.7088912368
 10
7.926253066
 20
7.7104227907
 10
7.9976783687
 20
7.7119522199
 10
8.0588762987
 20
7.7134674854
 10
8.1091294399
 20
7.7149885764
 10
8.1473223828
 20
7.7165318591
 10
8.171672633
 20
7.7180809809
  0
LWPOLYLINE
  5
426
100
AcDbEntity
  8
0
100
AcDbPolyline
 62
7
  6
CONTINUOUS
 90
18
 70
0
 10
7.0889954677
 20
7.7511663032
 10
7.1132999036
 20
7.7527131712
 10
7.1514418076
 20
7.7542553728
 10
7.2016666495
 20
7.7557764044
 10
7.2628296142
 20
7.7572914013
 10
7.3341201362
 20
7.7588185316
 10
7.4133987537
 20
7.7603491007
 10
7.497708498
 20
7.7618672158
 10
7.5856850754
 20
7.7633889976
 10
7.6745313059
 20
7.7649056767
 10
7.7624459891
 20
7.766426164
 10
7.8467823932
 20
7.7679442707
 10
7.9261701812
 20
7.7694762336
 10
7.9976419694
 20
7.7710065055
 10
8.058854362
 20
7.7725220088
 10
8.1091138311
 20
7.7740431573
 10
8.1473154324
 20
7.7755866354
 10
8.171672633
 20
7.777136099
  0
LWPOLYLINE
  5
427
100
AcDbEntity
  8
0
100
AcDbPolyline
 62
7
  6
CONTINUOUS
 90
18
 70
0
 10
8.171672633
 20
7.825531
 10
8.1472828365
 20
7.8239799338
 10
8.1090217135
 20
7.8224348886
 10
8.0586798069
 20
7.8209121785
 10
7.997294888
 20
7.8193934714
 10
7.9255162032
 20
7.8178579235
 10
7.8458946601
 20
7.8163227176
 10
7.7614325956
 20
7.8148032696
 10
7.6735852362
 20
7.8132843939
 10
7.5844557006
 20
7.8117628638
 10
7.4962484894
 20
7.810236458
 10
7.4119514249
 20
7.808717138
 10
7.3329794421
 20
7.8071903491
 10
7.2621557361
 20
7.8056708722
 10
7.2009475259
 20
7.8041517724
 10
7.1508571981
 20
7.8026300997
 10
7.1130168059
 20
7.8010941122
 10
7.0889954677
 20
7.7995612042
  0
LWPOLYLINE
  5
428
100
AcDbEntity
  8
0
100
AcDbPolyline
 62
7
  6
CONTINUOUS
 90
18
 70
0
 10
7.0889954677
 20
7.8102214214
 10
7.1133403864
 20
7.811770281
 10
7.1515295037
 20
7.8133135106
 10
7.2017819552
 20
7.8148346498
 10
7.2629748724
 20
7.8163498425
 10
7.3343843285
 20
7.8178789909
 10
7.4137354647
 20
7.8194104637
 10
7.4980627009
 20
7.8209285563
 10
7.58599737
 20
7.8224494585
 10
7.6748362711
 20
7.8239660121
 10
7.7627895155
 20
7.8254873164
 10
7.8471057218
 20
7.8270053847
 10
7.9264190616
 20
7.8285363824
 10
7.9977714119
 20
7.8300645845
 10
8.0589472895
 20
7.8315796468
 10
8.1091828764
 20
7.8331006524
 10
8.1473469224
 20
7.8346433023
 10
8.171672633
 20
7.8361912171
  0
LWPOLYLINE
  5
429
100
AcDbEntity
  8
0
100
AcDbPolyline
 62
7
  6
CONTINUOUS
 90
18
 70
0
 10
7.0889954677
 20
7.8692765395
 10
7.1133239908
 20
7.8708245926
 10
7.1514937778
 20
7.8723673987
 10
7.2017344855
 20
7.8738884806
 10
7.2629128856
 20
7.8754035426
 10
7.3342737246
 20
7.8769318732
 10
7.413594812
 20
7.8784629734
 10
7.4979141178
 20
7.8799810643
 10
7.5858646963
 20
7.8815023068
 10
7.6747033832
 20
7.8830188567
 10
7.7626408748
 20
7.8845398235
 10
7.8469650571
 20
7.8860578941
 10
7.926308477
 20
7.887589265
 10
7.9977095897
 20
7.8891182884
 10
8.0588997246
 20
7.890633475
 10
8.1091470992
 20
7.8921545387
 10
8.1473305002
 20
7.8936976126
 10
8.171672633
 20
7.8952463352
  0
LWPOLYLINE
  5
42A
100
AcDbEntity
  8
0
100
AcDbPolyline
 62
7
  6
CONTINUOUS
 90
11
 70
0
 10
7.0889954677
 20
7.7145065072
 10
7.1308985394
 20
7.715979423
 10
7.1850418801
 20
7.7174523389
 10
7.2500985334
 20
7.7189252547
 10
7.3244740774
 20
7.7203981706
 10
7.4063457009
 20
7.7218710864
 10
7.4937068773
 20
7.7233440022
 10
7.5844165407
 20
7.7248169181
 10
7.67625156
 20
7.7262898339
 10
7.7669612234
 20
7.7277627498
 10
7.8543223997
 20
7.7292356656
  0
LWPOLYLINE
  5
42B
100
AcDbEntity
  8
0
100
AcDbPolyline
 62
7
  6
CONTINUOUS
 90
5
 70
0
 10
7.0889954677
 20
7.7219868221
 10
7.1308985394
 20
7.723459738
 10
7.1850418801
 20
7.7249326538
 10
7.2500985334
 20
7.7264055697
 10
7.3244740774
 20
7.7278784855
  0
LWPOLYLINE
  5
42C
100
AcDbEntity
  8
0
100
AcDbPolyline
 62
7
  6
CONTINUOUS
 90
16
 70
0
 10
7.0889954677
 20
7.7735616253
 10
7.1308985394
 20
7.7750345411
 10
7.1850418801
 20
7.776507457
 10
7.2500985334
 20
7.7779803728
 10
7.3244740774
 20
7.7794532887
 10
7.4063457009
 20
7.7809262045
 10
7.4937068773
 20
7.7823991204
 10
7.5844165407
 20
7.7838720362
 10
7.67625156
 20
7.785344952
 10
7.7669612234
 20
7.7868178679
 10
7.8543223997
 20
7.7882907837
 10
7.9361940233
 20
7.7897636996
 10
8.0105695673
 20
7.7912366154
 10
8.0756262206
 20
7.7927095313
 10
8.1297695613
 20
7.7941824471
 10
8.171672633
 20
7.795655363
  0
LWPOLYLINE
  5
42D
100
AcDbEntity
  8
0
100
AcDbPolyline
 62
7
  6
CONTINUOUS
 90
16
 70
0
 10
7.0889954677
 20
7.7810419402
 10
7.1308985394
 20
7.7825148561
 10
7.1850418801
 20
7.7839877719
 10
7.2500985334
 20
7.7854606878
 10
7.3244740774
 20
7.7869336036
 10
7.4063457009
 20
7.7884065195
 10
7.4937068773
 20
7.7898794353
 10
7.5844165407
 20
7.7913523512
 10
7.67625156
 20
7.792825267
 10
7.7669612234
 20
7.7942981828
 10
7.8543223997
 20
7.7957710987
 10
7.9361940233
 20
7.7972440145
 10
8.0105695673
 20
7.7987169304
 10
8.0756262206
 20
7.8001898462
 10
8.1297695613
 20
7.8016627621
 10
8.171672633
 20
7.8031356779
  0
LWPOLYLINE
  5
42E
100
AcDbEntity
  8
0
100
AcDbPolyline
 62
7
  6
CONTINUOUS
 90
16
 70
0
 10
7.0889954677
 20
7.8326167434
 10
7.1308985394
 20
7.8340896592
 10
7.1850418801
 20
7.8355625751
 10
7.2500985334
 20
7.8370354909
 10
7.3244740774
 20
7.8385084068
 10
7.4063457009
 20
7.8399813226
 10
7.4937068773
 20
7.8414542385
 10
7.5844165407
 20
7.8429271543
 10
7.67625156
 20
7.8444000702
 10
7.7669612234
 20
7.845872986
 10
7.8543223997
 20
7.8473459018
 10
7.9361940233
 20
7.8488188177
 10
8.0105695673
 20
7.8502917335
 10
8.0756262206
 20
7.8517646494
 10
8.1297695613
 20
7.8532375652
 10
8.171672633
 20
7.8547104811
  0
LWPOLYLINE
  5
42F
100
AcDbEntity
  8
0
100
AcDbPolyline
 62
7
  6
CONTINUOUS
 90
16
 70
0
 10
7.0889954677
 20
7.8400970584
 10
7.1308985394
 20
7.8415699742
 10
7.1850418801
 20
7.84304289
 10
7.2500985334
 20
7.8445158059
 10
7.3244740774
 20
7.8459887217
 10
7.4063457009
 20
7.8474616376
 10
7.4937068773
 20
7.8489345534
 10
7.5844165407
 20
7.8504074693
 10
7.67625156
 20
7.8518803851
 10
7.7669612234
 20
7.853353301
 10
7.8543223997
 20
7.8548262168
 10
7.9361940233
 20
7.8562991326
 10
8.0105695673
 20
7.8577720485
 10
8.0756262206
 20
7.8592449643
 10
8.1297695613
 20
7.8607178802
 10
8.171672633
 20
7.862190796
  0
LWPOLYLINE
  5
430
100
AcDbEntity
  8
0
100
AcDbPolyline
 62
7
  6
CONTINUOUS
 90
16
 70
0
 10
7.0889954677
 20
7.8916718615
 10
7.1308985394
 20
7.8931447774
 10
7.1850418801
 20
7.8946176932
 10
7.2500985334
 20
7.896090609
 10
7.3244740774
 20
7.8975635249
 10
7.4063457009
 20
7.8990364407
 10
7.4937068773
 20
7.9005093566
 10
7.5844165407
 20
7.9019822724
 10
7.67625156
 20
7.9034551883
 10
7.7669612234
 20
7.9049281041
 10
7.8543223997
 20
7.90640102
 10
7.9361940233
 20
7.9078739358
 10
8.0105695673
 20
7.9093468516
 10
8.0756262206
 20
7.9108197675
 10
8.1297695613
 20
7.9122926833
 10
8.171672633
 20
7.9137655992
  0
LWPOLYLINE
  5
431
100
AcDbEntity
  8
0
100
AcDbPolyline
 62
7
  6
CONTINUOUS
 90
16
 70
0
 10
7.0889954677
 20
7.8991521765
 10
7.1308985394
 20
7.9006250923
 10
7.1850418801
 20
7.9020980082
 10
7.2500985334
 20
7.903570924
 10
7.3244740774
 20
7.9050438398
 10
7.4063457009
 20
7.9065167557
 10
7.4937068773
 20
7.9079896715
 10
7.5844165407
 20
7.9094625874
 10
7.67625156
 20
7.9109355032
 10
7.7669612234
 20
7.9124084191
 10
7.8543223997
 20
7.9138813349
 10
7.9361940233
 20
7.9153542508
 10
8.0105695673
 20
7.9168271666
 10
8.0756262206
 20
7.9183000824
 10
8.1297695613
 20
7.9197729983
 10
8.171672633
 20
7.9212459141
  0
LWPOLYLINE
  5
432
100
AcDbEntity
  8
0
100
AcDbPolyline
 62
7
  6
CONTINUOUS
 90
6
 70
0
 10
7.8543223997
 20
7.7292356656
 10
7.9361940233
 20
7.7307085815
 10
8.0105695673
 20
7.7321814973
 10
8.0756262206
 20
7.7336544132
 10
8.1297695613
 20
7.735127329
 10
8.171672633
 20
7.7366002448
  0
LWPOLYLINE
  5
433
100
AcDbEntity
  8
0
100
AcDbPolyline
 62
7
  6
CONTINUOUS
 90
12
 70
0
 10
7.3244740774
 20
7.7278784855
 10
7.4063457009
 20
7.7293514014
 10
7.4937068773
 20
7.7308243172
 10
7.5844165407
 20
7.732297233
 10
7.67625156
 20
7.7337701489
 10
7.7669612234
 20
7.7352430647
 10
7.8543223997
 20
7.7367159806
 10
7.9361940233
 20
7.7381888964
 10
8.0105695673
 20
7.7396618123
 10
8.0756262206
 20
7.7411347281
 10
8.1297695613
 20
7.742607644
 10
8.171672633
 20
7.7440805598
  0
LINE
  5
434
100
AcDbEntity
  8
0
100
AcDbLine
 62
7
  6
CONTINUOUS
 10
7.8670515175
 20
7.1279080949
 11
7.8441948773
 21
7.1411197052
  0
LINE
  5
435
100
AcDbEntity
  8
0
100
AcDbLine
 62
7
  6
CONTINUOUS
 10
7.3863031365
 20
7.4144635412
 11
7.4164732234
 21
7.397025217
  0
LINE
  5
436
100
AcDbEntity
  8
0
100
AcDbLine
 62
7
  6
CONTINUOUS
 10
7.8743649642
 20
7.1630514594
 11
7.8441948773
 21
7.1804897839
  0
LINE
  5
437
100
AcDbEntity
  8
0
100
AcDbLine
 62
7
  6
CONTINUOUS
 10
7.3863031365
 20
7.45383362
 11
7.4164732234
 21
7.4363952957
  0
LINE
  5
438
100
AcDbEntity
  8
0
100
AcDbLine
 62
7
  6
CONTINUOUS
 10
7.8743649642
 20
7.2024215381
 11
7.8441948773
 21
7.2198598627
  0
LINE
  5
439
100
AcDbEntity
  8
0
100
AcDbLine
 62
7
  6
CONTINUOUS
 10
7.8743649642
 20
7.2417916169
 11
7.8441948773
 21
7.2592299414
  0
LINE
  5
43A
100
AcDbEntity
  8
0
100
AcDbLine
 62
7
  6
CONTINUOUS
 10
7.8743649642
 20
7.2811616956
 11
7.8441948773
 21
7.2986000201
  0
LINE
  5
43B
100
AcDbEntity
  8
0
100
AcDbLine
 62
7
  6
CONTINUOUS
 10
7.8743649642
 20
7.3205317744
 11
7.8441948773
 21
7.3379700989
  0
LINE
  5
43C
100
AcDbEntity
  8
0
100
AcDbLine
 62
7
  6
CONTINUOUS
 10
7.8743649642
 20
7.3599018531
 11
7.8441948773
 21
7.3773401776
  0
LWPOLYLINE
  5
43D
100
AcDbEntity
  8
0
100
AcDbPolyline
 62
7
  6
CONTINUOUS
 90
18
 70
0
 10
8.171672633
 20
8.1208065905
 10
8.1479487231
 20
8.1192884101
 10
8.1107921973
 20
8.117771731
 10
8.0611503306
 20
8.1162550083
 10
7.9999098909
 20
8.114728995
 10
7.9287973103
 20
8.1131999156
 10
7.8505247786
 20
8.1116842633
 10
7.7665671576
 20
8.1101691107
 10
7.6779099632
 20
8.1086339829
 10
7.5875135055
 20
8.1070907667
 10
7.4989925627
 20
8.1055602598
 10
7.4146618652
 20
8.1040430098
 10
7.3347936939
 20
8.1025026366
 10
7.2624941998
 20
8.1009542155
 10
7.2006361003
 20
8.0994188883
 10
7.150832744
 20
8.0979048447
 10
7.1131407129
 20
8.0963758197
 10
7.0889954677
 20
8.0948367948
  0
LWPOLYLINE
  5
43E
100
AcDbEntity
  8
0
100
AcDbPolyline
 62
7
  6
CONTINUOUS
 90
18
 70
0
 10
8.171672633
 20
8.0617514724
 10
8.1476357506
 20
8.0602177964
 10
8.1097791962
 20
8.0586814808
 10
8.0596792395
 20
8.0571597801
 10
7.9984710107
 20
8.0556408569
 10
7.9276252987
 20
8.0541210444
 10
7.8486290447
 20
8.0525939112
 10
7.7643243372
 20
8.0510745437
 10
7.6761293321
 20
8.0495483914
 10
7.5870250765
 20
8.0480272942
 10
7.4991628331
 20
8.0465081312
 10
7.4147018275
 20
8.0449886321
 10
7.3350982611
 20
8.04345367
 10
7.2633534771
 20
8.0419187542
 10
7.2019841852
 20
8.0404003868
 10
7.151642771
 20
8.0388776636
 10
7.1133822951
 20
8.0373325969
 10
7.0889954677
 20
8.0357816767
  0
LWPOLYLINE
  5
43F
100
AcDbEntity
  8
0
100
AcDbPolyline
 62
7
  6
CONTINUOUS
 90
18
 70
0
 10
8.171672633
 20
8.1798617086
 10
8.147539573
 20
8.1783232847
 10
8.1098777194
 20
8.1767951238
 10
8.0600944249
 20
8.175281315
 10
7.9982489349
 20
8.1737460061
 10
7.9259632233
 20
8.1721976612
 10
7.8461103026
 20
8.1706574221
 10
7.7617794029
 20
8.1691400673
 10
7.673212391
 20
8.1676087252
 10
7.5827870559
 20
8.1660650155
 10
7.4941216402
 20
8.1645297569
 10
7.4101721509
 20
8.1630147764
 10
7.3318829821
 20
8.1614988351
 10
7.2607491021
 20
8.159969299
 10
7.1995054841
 20
8.1584431592
 10
7.1498709635
 20
8.1569266005
 10
7.1127252505
 20
8.1554103847
 10
7.0889954677
 20
8.1538919129
  0
LWPOLYLINE
  5
440
100
AcDbEntity
  8
0
100
AcDbPolyline
 62
7
  6
CONTINUOUS
 90
18
 70
0
 10
7.0889954677
 20
7.9283316576
 10
7.1133075334
 20
7.929878901
 10
7.1514579718
 20
7.9314212838
 10
7.2016870524
 20
7.9329423122
 10
7.2628532901
 20
7.9344572973
 10
7.3341656886
 20
7.935984807
 10
7.4134569058
 20
7.9375155337
 10
7.4977683639
 20
7.9390336219
 10
7.5857348555
 20
7.9405552036
 10
7.6745766078
 20
7.942071806
 10
7.7624981017
 20
7.9435924337
 10
7.8468299439
 20
7.9451105067
 10
7.9262029784
 20
7.9466422508
 10
7.9976520525
 20
7.9481720904
 10
8.0588577528
 20
7.949687455
 10
8.1091156256
 20
7.9512085734
 10
8.1473160733
 20
7.9527520212
 10
8.171672633
 20
7.9543014533
  0
LWPOLYLINE
  5
441
100
AcDbEntity
  8
0
100
AcDbPolyline
 62
7
  6
CONTINUOUS
 90
8
 70
0
 10
8.171672633
 20
8.0026963543
 10
8.1473235551
 20
8.0011472901
 10
8.1091386228
 20
7.999604266
 10
8.0588494078
 20
7.9980821297
 10
7.9968776382
 20
7.9965492944
 10
7.9244662891
 20
7.9950020931
 10
7.8445015056
 20
7.9934622746
 10
7.760070759
 20
7.9919447227
  0
LWPOLYLINE
  5
442
100
AcDbEntity
  8
0
100
AcDbPolyline
 62
7
  6
CONTINUOUS
 90
18
 70
0
 10
7.0889954677
 20
7.9873867757
 10
7.1133484624
 20
7.9889360325
 10
7.1515471142
 20
7.9904794711
 10
7.20180387
 20
7.9920005983
 10
7.2630051647
 20
7.9935158896
 10
7.3344398001
 20
7.9950454664
 10
7.4138053581
 20
7.9965771141
 10
7.4981358511
 20
7.9980951955
 10
7.5860626653
 20
7.9996159298
 10
7.6749029422
 20
8.001132507
 10
7.7628634626
 20
8.0026539698
 10
7.847175951
 20
8.0041720416
 10
7.926474252
 20
8.0057028526
 10
7.9978015621
 20
8.0072306286
 10
8.0589710633
 20
8.008745646
 10
8.1092009984
 20
8.0102666308
 10
8.1473552284
 20
8.0118090653
 10
8.171672633
 20
8.0133565714
  0
LWPOLYLINE
  5
443
100
AcDbEntity
  8
0
100
AcDbPolyline
 62
7
  6
CONTINUOUS
 90
18
 70
0
 10
7.0889954677
 20
8.0464418938
 10
7.1133322196
 20
8.0479903517
 10
7.151511717
 20
8.0495333707
 10
7.2017583395
 20
8.0510544818
 10
7.2629437758
 20
8.0525696036
 10
7.3343289865
 20
8.0540983447
 10
7.4136651608
 20
8.0556296324
 10
7.497988503
 20
8.0571477253
 10
7.585931206
 20
8.058668799
 10
7.6747696548
 20
8.0601853448
 10
7.7627151008
 20
8.0617064817
 10
7.8470353664
 20
8.0632245523
 10
7.9263638088
 20
8.0647557379
 10
7.9977406041
 20
8.0662843521
 10
8.0589233884
 20
8.0677994711
 10
8.1091649113
 20
8.0693205062
 10
8.1473386801
 20
8.0708633693
 10
8.171672633
 20
8.0724116895
  0
LWPOLYLINE
  5
444
100
AcDbEntity
  8
0
100
AcDbPolyline
 62
7
  6
CONTINUOUS
 90
12
 70
0
 10
7.0889954677
 20
8.1054970119
 10
7.1133156999
 20
8.1070446571
 10
7.1514756861
 20
8.1085872482
 10
7.2017103936
 20
8.1101082996
 10
7.2628822014
 20
8.1116233131
 10
7.3342185426
 20
8.11315123
 10
7.4135244179
 20
8.1146821402
 10
7.4978395449
 20
8.1162002267
 10
7.5857978412
 20
8.1177216355
 10
7.6746374564
 20
8.1192382013
 10
7.7625668371
 20
8.1207589954
 10
7.8468947936
 20
8.1222770636
  0
LWPOLYLINE
  5
445
100
AcDbEntity
  8
0
100
AcDbPolyline
 62
7
  6
CONTINUOUS
 90
18
 70
0
 10
7.0889954677
 20
8.16455213
 10
7.1132999036
 20
8.166098998
 10
7.1514418076
 20
8.1676411995
 10
7.2016666495
 20
8.1691622312
 10
7.2628296142
 20
8.170677228
 10
7.3341201362
 20
8.1722043584
 10
7.4133987537
 20
8.1737349274
 10
7.497708498
 20
8.1752530426
 10
7.5856850754
 20
8.1767748243
 10
7.6745313059
 20
8.1782915034
 10
7.7624459891
 20
8.1798119908
 10
7.8467823932
 20
8.1813300975
 10
7.9261701812
 20
8.1828620604
 10
7.9976419694
 20
8.1843923323
 10
8.058854362
 20
8.1859078355
 10
8.1091138311
 20
8.1874289841
 10
8.1473154324
 20
8.1889724621
 10
8.171672633
 20
8.1905219258
  0
LWPOLYLINE
  5
446
100
AcDbEntity
  8
0
100
AcDbPolyline
 62
7
  6
CONTINUOUS
 90
16
 70
0
 10
7.0889954677
 20
7.9507269796
 10
7.1308985394
 20
7.9521998955
 10
7.1850418801
 20
7.9536728113
 10
7.2500985334
 20
7.9551457271
 10
7.3244740774
 20
7.956618643
 10
7.4063457009
 20
7.9580915588
 10
7.4937068773
 20
7.9595644747
 10
7.5844165407
 20
7.9610373905
 10
7.67625156
 20
7.9625103064
 10
7.7669612234
 20
7.9639832222
 10
7.8543223997
 20
7.9654561381
 10
7.9361940233
 20
7.9669290539
 10
8.0105695673
 20
7.9684019698
 10
8.0756262206
 20
7.9698748856
 10
8.1297695613
 20
7.9713478014
 10
8.171672633
 20
7.9728207173
  0
LWPOLYLINE
  5
447
100
AcDbEntity
  8
0
100
AcDbPolyline
 62
7
  6
CONTINUOUS
 90
3
 70
0
 10
7.0889954677
 20
7.9582072946
 10
7.1308985394
 20
7.9596802104
 10
7.1850418801
 20
7.9611531263
  0
LWPOLYLINE
  5
448
100
AcDbEntity
  8
0
100
AcDbPolyline
 62
7
  6
CONTINUOUS
 90
16
 70
0
 10
7.0889954677
 20
8.0097820977
 10
7.1308985394
 20
8.0112550136
 10
7.1850418801
 20
8.0127279294
 10
7.2500985334
 20
8.0142008453
 10
7.3244740774
 20
8.0156737611
 10
7.4063457009
 20
8.0171466769
 10
7.4937068773
 20
8.0186195928
 10
7.5844165407
 20
8.0200925086
 10
7.67625156
 20
8.0215654245
 10
7.7669612234
 20
8.0230383403
 10
7.8543223997
 20
8.0245112562
 10
7.9361940233
 20
8.025984172
 10
8.0105695673
 20
8.0274570879
 10
8.0756262206
 20
8.0289300037
 10
8.1297695613
 20
8.0304029196
 10
8.171672633
 20
8.0318758354
  0
LWPOLYLINE
  5
449
100
AcDbEntity
  8
0
100
AcDbPolyline
 62
7
  6
CONTINUOUS
 90
16
 70
0
 10
7.0889954677
 20
8.0172624127
 10
7.1308985394
 20
8.0187353285
 10
7.1850418801
 20
8.0202082444
 10
7.2500985334
 20
8.0216811602
 10
7.3244740774
 20
8.0231540761
 10
7.4063457009
 20
8.0246269919
 10
7.4937068773
 20
8.0260999078
 10
7.5844165407
 20
8.0275728236
 10
7.67625156
 20
8.0290457394
 10
7.7669612234
 20
8.0305186553
 10
7.8543223997
 20
8.0319915711
 10
7.9361940233
 20
8.033464487
 10
8.0105695673
 20
8.0349374028
 10
8.0756262206
 20
8.0364103187
 10
8.1297695613
 20
8.0378832345
 10
8.171672633
 20
8.0393561504
  0
LWPOLYLINE
  5
44A
100
AcDbEntity
  8
0
100
AcDbPolyline
 62
7
  6
CONTINUOUS
 90
16
 70
0
 10
7.0889954677
 20
8.0688372158
 10
7.1308985394
 20
8.0703101317
 10
7.1850418801
 20
8.0717830475
 10
7.2500985334
 20
8.0732559634
 10
7.3244740774
 20
8.0747288792
 10
7.4063457009
 20
8.0762017951
 10
7.4937068773
 20
8.0776747109
 10
7.5844165407
 20
8.0791476267
 10
7.67625156
 20
8.0806205426
 10
7.7669612234
 20
8.0820934584
 10
7.8543223997
 20
8.0835663743
 10
7.9361940233
 20
8.0850392901
 10
8.0105695673
 20
8.086512206
 10
8.0756262206
 20
8.0879851218
 10
8.1297695613
 20
8.0894580377
 10
8.171672633
 20
8.0909309535
  0
LWPOLYLINE
  5
44B
100
AcDbEntity
  8
0
100
AcDbPolyline
 62
7
  6
CONTINUOUS
 90
16
 70
0
 10
7.0889954677
 20
8.0763175308
 10
7.1308985394
 20
8.0777904466
 10
7.1850418801
 20
8.0792633625
 10
7.2500985334
 20
8.0807362783
 10
7.3244740774
 20
8.0822091942
 10
7.4063457009
 20
8.08368211
 10
7.4937068773
 20
8.0851550259
 10
7.5844165407
 20
8.0866279417
 10
7.67625156
 20
8.0881008576
 10
7.7669612234
 20
8.0895737734
 10
7.8543223997
 20
8.0910466892
 10
7.9361940233
 20
8.0925196051
 10
8.0105695673
 20
8.0939925209
 10
8.0756262206
 20
8.0954654368
 10
8.1297695613
 20
8.0969383526
 10
8.171672633
 20
8.0984112685
  0
LWPOLYLINE
  5
44C
100
AcDbEntity
  8
0
100
AcDbPolyline
 62
7
  6
CONTINUOUS
 90
16
 70
0
 10
7.0889954677
 20
8.1278923339
 10
7.1308985394
 20
8.1293652498
 10
7.1850418801
 20
8.1308381656
 10
7.2500985334
 20
8.1323110815
 10
7.3244740774
 20
8.1337839973
 10
7.4063457009
 20
8.1352569132
 10
7.4937068773
 20
8.136729829
 10
7.5844165407
 20
8.1382027449
 10
7.67625156
 20
8.1396756607
 10
7.7669612234
 20
8.1411485765
 10
7.8543223997
 20
8.1426214924
 10
7.9361940233
 20
8.1440944082
 10
8.0105695673
 20
8.1455673241
 10
8.0756262206
 20
8.1470402399
 10
8.1297695613
 20
8.1485131558
 10
8.171672633
 20
8.1499860716
  0
LWPOLYLINE
  5
44D
100
AcDbEntity
  8
0
100
AcDbPolyline
 62
7
  6
CONTINUOUS
 90
16
 70
0
 10
7.0889954677
 20
8.1353726489
 10
7.1308985394
 20
8.1368455648
 10
7.1850418801
 20
8.1383184806
 10
7.2500985334
 20
8.1397913964
 10
7.3244740774
 20
8.1412643123
 10
7.4063457009
 20
8.1427372281
 10
7.4937068773
 20
8.144210144
 10
7.5844165407
 20
8.1456830598
 10
7.67625156
 20
8.1471559757
 10
7.7669612234
 20
8.1486288915
 10
7.8543223997
 20
8.1501018074
 10
7.9361940233
 20
8.1515747232
 10
8.0105695673
 20
8.153047639
 10
8.0756262206
 20
8.1545205549
 10
8.1297695613
 20
8.1559934707
 10
8.171672633
 20
8.1574663866
  0
LWPOLYLINE
  5
44E
100
AcDbEntity
  8
0
100
AcDbPolyline
 62
7
  6
CONTINUOUS
 90
16
 70
0
 10
7.0889954677
 20
8.1869474521
 10
7.1308985394
 20
8.1884203679
 10
7.1850418801
 20
8.1898932837
 10
7.2500985334
 20
8.1913661996
 10
7.3244740774
 20
8.1928391154
 10
7.4063457009
 20
8.1943120313
 10
7.4937068773
 20
8.1957849471
 10
7.5844165407
 20
8.197257863
 10
7.67625156
 20
8.1987307788
 10
7.7669612234
 20
8.2002036947
 10
7.8543223997
 20
8.2016766105
 10
7.9361940233
 20
8.2031495263
 10
8.0105695673
 20
8.2046224422
 10
8.0756262206
 20
8.206095358
 10
8.1297695613
 20
8.2075682739
 10
8.171672633
 20
8.2090411897
  0
LINE
  5
44F
100
AcDbEntity
  8
0
100
AcDbLine
 62
7
  6
CONTINUOUS
 10
7.1850418801
 20
7.9611531263
 11
7.2500985334
 21
7.9626260421
  0
LWPOLYLINE
  5
450
100
AcDbEntity
  8
0
100
AcDbPolyline
 62
7
  6
CONTINUOUS
 90
7
 70
0
 10
7.8468947936
 20
8.1222770636
 10
7.926253066
 20
8.1238086175
 10
7.9976783687
 20
8.1253380467
 10
8.0588762987
 20
8.1268533122
 10
8.1091294399
 20
8.1283744032
 10
8.1473223828
 20
8.1299176858
 10
8.171672633
 20
8.1314668077
  0
LINE
  5
451
100
AcDbEntity
  8
0
100
AcDbLine
 62
7
  6
CONTINUOUS
 10
7.2500985334
 20
7.9626260421
 11
7.3251776963
 21
7.9641116164
  0
LWPOLYLINE
  5
452
100
AcDbEntity
  8
0
100
AcDbPolyline
 62
7
  6
CONTINUOUS
 90
12
 70
0
 10
7.3251776963
 20
7.9641116164
 10
7.4063457009
 20
7.9655718738
 10
7.4937068773
 20
7.9670447896
 10
7.5844165407
 20
7.9685177055
 10
7.67625156
 20
7.9699906213
 10
7.7669612234
 20
7.9714635372
 10
7.8543223997
 20
7.972936453
 10
7.9361940233
 20
7.9744093689
 10
8.0105695673
 20
7.9758822847
 10
8.0756262206
 20
7.9773552006
 10
8.1297695613
 20
7.9788281164
 10
8.171672633
 20
7.9803010322
  0
LWPOLYLINE
  5
453
100
AcDbEntity
  8
0
100
AcDbPolyline
 62
7
  6
CONTINUOUS
 90
3
 70
0
 10
7.760070759
 20
7.9919447227
 10
7.6722925098
 20
7.9904276381
 10
7.58253759
 20
7.9888953911
  0
LWPOLYLINE
  5
454
100
AcDbEntity
  8
0
100
AcDbPolyline
 62
7
  6
CONTINUOUS
 90
9
 70
0
 10
7.58253759
 20
7.9888953911
 10
7.494162372
 20
7.9873651193
 10
7.4101104751
 20
7.9858482748
 10
7.3317674421
 20
7.984331137
 10
7.2610769682
 20
7.982811478
 10
7.1999366093
 20
7.9812895824
 10
7.1501451723
 20
7.9797707794
 10
7.1127168222
 20
7.9782446122
 10
7.0889954677
 20
7.9767265585
  0
LINE
  5
455
100
AcDbEntity
  8
0
100
AcDbLine
 62
7
  6
CONTINUOUS
 10
7.8746057039
 20
7.4383637995
 11
7.8440574058
 21
7.4560008677
  0
LINE
  5
456
100
AcDbEntity
  8
0
100
AcDbLine
 62
7
  6
CONTINUOUS
 10
7.8743649642
 20
7.3992719318
 11
7.8441948773
 21
7.4167102564
  0
LWPOLYLINE
  5
457
100
AcDbEntity
  8
0
100
AcDbPolyline
 62
7
  6
CONTINUOUS
 90
3
 70
0
 10
7.870316611
 20
7.4433901384
 10
7.8557285712
 20
7.4519723763
 10
7.8470565759
 20
7.457084097
  0
LWPOLYLINE
  5
458
100
AcDbEntity
  8
0
100
AcDbPolyline
 62
7
  6
CONTINUOUS
 90
3
 70
0
 10
7.870316611
 20
7.4433901384
 10
7.8720914441
 20
7.4422098042
 10
7.8746057039
 20
7.4383637995
  0
LINE
  5
459
100
AcDbEntity
  8
0
100
AcDbLine
 62
7
  6
CONTINUOUS
 10
7.4060300699
 20
7.1152464717
 11
7.4214954451
 21
7.0997810998
  0
LINE
  5
45A
100
AcDbEntity
  8
0
100
AcDbLine
 62
7
  6
CONTINUOUS
 10
7.3860623968
 20
7.1391512011
 11
7.3863031365
 21
7.1388729901
  0
LINE
  5
45B
100
AcDbEntity
  8
0
100
AcDbLine
 62
7
  6
CONTINUOUS
 10
7.3863031365
 20
7.1782430688
 11
7.3860623968
 21
7.1785212799
  0
LWPOLYLINE
  5
45C
100
AcDbEntity
  8
0
100
AcDbPolyline
 62
7
  6
CONTINUOUS
 90
6
 70
0
 10
8.1968257389
 20
8.2808834846
 10
8.1873632762
 20
8.2793419575
 10
8.1788270654
 20
8.2748682718
 10
8.1720526901
 20
8.2679003429
 10
8.1677032734
 20
8.2591202403
 10
8.1662045665
 20
8.2493874216
  0
LWPOLYLINE
  5
45D
100
AcDbEntity
  8
0
100
AcDbPolyline
 62
7
  6
CONTINUOUS
 90
18
 70
0
 10
8.1662045665
 20
8.2384752027
 10
8.1389462522
 20
8.2369775551
 10
8.0990757613
 20
8.2354887892
 10
8.0482205906
 20
8.2340196495
 10
7.9871757088
 20
8.2325505009
 10
7.916645891
 20
8.2310656994
 10
7.8391031184
 20
8.2295830628
 10
7.7572286667
 20
8.2281153617
 10
7.6722648641
 20
8.2266476378
 10
7.5861327429
 20
8.225177384
 10
7.5008035444
 20
8.2237022802
 10
7.4190370822
 20
8.2222341705
 10
7.3420583034
 20
8.2207589169
 10
7.2724470899
 20
8.2192899442
 10
7.2116072186
 20
8.2178222034
 10
7.1609165894
 20
8.2163531236
 10
7.1213802287
 20
8.2148711565
 10
7.0944635342
 20
8.213388655
  0
LWPOLYLINE
  5
45E
100
AcDbEntity
  8
0
100
AcDbPolyline
 62
7
  6
CONTINUOUS
 90
16
 70
0
 10
7.0889954677
 20
8.194427767
 10
7.1308985394
 20
8.1959006829
 10
7.1850418801
 20
8.1973735987
 10
7.2500985334
 20
8.1988465146
 10
7.3244740774
 20
8.2003194304
 10
7.4063457009
 20
8.2017923462
 10
7.4937068773
 20
8.2032652621
 10
7.5844165407
 20
8.2047381779
 10
7.67625156
 20
8.2062110938
 10
7.7669612234
 20
8.2076840096
 10
7.8543223997
 20
8.2091569255
 10
7.9361940233
 20
8.2106298413
 10
8.0105695673
 20
8.2121027572
 10
8.0756262206
 20
8.213575673
 10
8.1297695613
 20
8.2150485888
 10
8.171672633
 20
8.2165215047
  0
LWPOLYLINE
  5
45F
100
AcDbEntity
  8
0
100
AcDbPolyline
 62
7
  6
CONTINUOUS
 90
4
 70
0
 10
7.0944635342
 20
8.213388655
 10
7.091436846
 20
8.2133504997
 10
7.089605728
 20
8.2137658925
 10
7.0889954677
 20
8.2146329855
  0
LINE
  5
460
100
AcDbEntity
  8
0
100
AcDbLine
 62
7
  6
CONTINUOUS
 10
8.171672633
 20
8.2493874216
 11
7.0889954677
 21
8.2493874216
  0
LINE
  5
461
100
AcDbEntity
  8
AXIS
100
AcDbLine
 62
7
  6
CONTINUOUS
 10
8.3862395622
 20
8.2808834846
 11
6.8744285385
 21
8.2808834846
  0
LINE
  5
462
100
AcDbEntity
  8
AXIS
100
AcDbLine
 62
7
  6
CONTINUOUS
 10
8.516160822
 20
8.4108047444
 11
6.7445072787
 21
8.4108047444
  0
LWPOLYLINE
  5
463
100
AcDbEntity
  8
0
100
AcDbPolyline
 62
7
  6
CONTINUOUS
 90
6
 70
0
 10
7.0638423618
 20
8.2808834846
 10
7.0733048245
 20
8.2793419575
 10
7.0818410353
 20
8.2748682718
 10
7.0886154106
 20
8.2679003429
 10
7.0929648273
 20
8.2591202403
 10
7.0944635342
 20
8.2493874216
  0
LINE
  5
464
100
AcDbEntity
  8
0
100
AcDbLine
 62
7
  6
CONTINUOUS
 10
7.3863031365
 20
7.2176131475
 11
7.3860623968
 21
7.2178913586
  0
LINE
  5
465
100
AcDbEntity
  8
0
100
AcDbLine
 62
7
  6
CONTINUOUS
 10
7.3863031365
 20
7.2569832263
 11
7.3860623968
 21
7.2572614373
  0
LINE
  5
466
100
AcDbEntity
  8
0
100
AcDbLine
 62
7
  6
CONTINUOUS
 10
7.3863031365
 20
7.296353305
 11
7.3860623968
 21
7.2966315161
  0
LINE
  5
467
100
AcDbEntity
  8
0
100
AcDbLine
 62
7
  6
CONTINUOUS
 10
7.3863031365
 20
7.3357233838
 11
7.3860623968
 21
7.3360015948
  0
LINE
  5
468
100
AcDbEntity
  8
0
100
AcDbLine
 62
7
  6
CONTINUOUS
 10
7.3863031365
 20
7.3750934625
 11
7.3860623968
 21
7.3753716736
  0
LINE
  5
469
100
AcDbEntity
  8
0
100
AcDbLine
 62
7
  6
CONTINUOUS
 10
7.3863031365
 20
7.4144635412
 11
7.3860623968
 21
7.4147417523
  0
LINE
  5
46A
100
AcDbEntity
  8
0
100
AcDbLine
 62
7
  6
CONTINUOUS
 10
7.3863031365
 20
7.45383362
 11
7.3860623968
 21
7.454111831
  0
LINE
  5
46B
100
AcDbEntity
  8
0
100
AcDbLine
 62
7
  6
CONTINUOUS
 10
8.516160822
 20
8.6844267917
 11
6.7445072787
 21
8.6844267917
  0
LINE
  5
46C
100
AcDbEntity
  8
AXIS
100
AcDbLine
 62
7
  6
CONTINUOUS
 10
8.6244285385
 20
8.704111831
 11
6.6362395622
 21
8.704111831
  0
LINE
  5
46D
100
AcDbEntity
  8
0
100
AcDbLine
 62
7
  6
CONTINUOUS
 10
7.8743649642
 20
7.1630514594
 11
7.8746057039
 21
7.1627732484
  0
LINE
  5
46E
100
AcDbEntity
  8
0
100
AcDbLine
 62
7
  6
CONTINUOUS
 10
7.8743649642
 20
7.2024215381
 11
7.8746057039
 21
7.2021433271
  0
LINE
  5
46F
100
AcDbEntity
  8
0
100
AcDbLine
 62
7
  6
CONTINUOUS
 10
7.8743649642
 20
7.2417916169
 11
7.8746057039
 21
7.2415134058
  0
LINE
  5
470
100
AcDbEntity
  8
0
100
AcDbLine
 62
7
  6
CONTINUOUS
 10
7.8743649642
 20
7.2811616956
 11
7.8746057039
 21
7.2808834846
  0
LINE
  5
471
100
AcDbEntity
  8
0
100
AcDbLine
 62
7
  6
CONTINUOUS
 10
7.8743649642
 20
7.3205317744
 11
7.8746057039
 21
7.3202535633
  0
LINE
  5
472
100
AcDbEntity
  8
0
100
AcDbLine
 62
7
  6
CONTINUOUS
 10
7.8743649642
 20
7.3599018531
 11
7.8746057039
 21
7.3596236421
  0
LINE
  5
473
100
AcDbEntity
  8
0
100
AcDbLine
 62
7
  6
CONTINUOUS
 10
6.6402928198
 20
8.7487281361
 11
6.6362395622
 21
8.7480134375
  0
LINE
  5
474
100
AcDbEntity
  8
0
100
AcDbLine
 62
7
  6
CONTINUOUS
 10
6.6362395622
 20
8.7480134375
 11
8.6244285385
 21
8.7480134375
  0
LINE
  5
475
100
AcDbEntity
  8
0
100
AcDbLine
 62
7
  6
CONTINUOUS
 10
6.64017657
 20
8.7493874216
 11
8.6204915307
 21
8.7493874216
  0
LINE
  5
476
100
AcDbEntity
  8
0
100
AcDbLine
 62
7
  6
CONTINUOUS
 10
8.6203752809
 20
8.7487281361
 11
8.6244317583
 21
8.7480128697
  0
LINE
  5
477
100
AcDbEntity
  8
0
100
AcDbLine
 62
7
  6
CONTINUOUS
 10
7.8743649642
 20
7.3992719318
 11
7.8746057039
 21
7.3989937208
  0
LINE
  5
478
100
AcDbEntity
  8
0
100
AcDbLine
 62
7
  6
CONTINUOUS
 10
6.64017657
 20
9.2808834846
 11
8.6204915307
 21
9.2808834846
  0
LINE
  5
479
100
AcDbEntity
  8
0
100
AcDbLine
 62
7
  6
CONTINUOUS
 10
6.6362395622
 20
8.704111831
 11
6.6362395622
 21
8.7480134375
  0
LINE
  5
47A
100
AcDbEntity
  8
0
100
AcDbLine
 62
7
  6
CONTINUOUS
 10
6.64017657
 20
8.7493874216
 11
6.64017657
 21
9.2808834846
  0
LINE
  5
47B
100
AcDbEntity
  8
AXIS
100
AcDbLine
 62
7
  6
CONTINUOUS
 10
6.64017657
 20
10.3517496263
 11
6.64017657
 21
10.8832456893
  0
LINE
  5
47C
100
AcDbEntity
  8
AXIS
100
AcDbLine
 62
7
  6
CONTINUOUS
 10
6.64017657
 20
11.954111831
 11
6.64017657
 21
12.485607894
  0
LINE
  5
47D
100
AcDbEntity
  8
AXIS
100
AcDbLine
 62
7
  6
CONTINUOUS
 10
6.6460820818
 20
9.2808834846
 11
6.6460820818
 21
10.3517496263
  0
LINE
  5
47E
100
AcDbEntity
  8
AXIS
100
AcDbLine
 62
7
  6
CONTINUOUS
 10
6.6460820818
 20
10.8832456893
 11
6.6460820818
 21
11.954111831
  0
LINE
  5
47F
100
AcDbEntity
  8
AXIS
100
AcDbLine
 62
7
  6
CONTINUOUS
 10
6.6460820818
 20
12.485607894
 11
6.6460820818
 21
13.539119018
  0
LINE
  5
480
100
AcDbEntity
  8
0
100
AcDbLine
 62
7
  6
CONTINUOUS
 10
6.6460820818
 20
13.539119018
 11
6.6460820818
 21
13.9721898841
  0
LINE
  5
481
100
AcDbEntity
  8
0
100
AcDbLine
 62
7
  6
CONTINUOUS
 10
7.8670515175
 20
7.1279080949
 11
7.8671178474
 21
7.1277262856
  0
LINE
  5
482
100
AcDbEntity
  8
0
100
AcDbLine
 62
7
  6
CONTINUOUS
 10
6.7445072787
 20
8.4108047444
 11
6.7445072787
 21
8.6844267917
  0
LINE
  5
483
100
AcDbEntity
  8
0
100
AcDbLine
 62
7
  6
CONTINUOUS
 10
7.3835620407
 20
7.5054396149
 11
7.3778301133
 21
7.5328519885
  0
LINE
  5
484
100
AcDbEntity
  8
0
100
AcDbLine
 62
7
  6
CONTINUOUS
 10
7.0889954677
 20
7.5643480515
 11
7.0889954677
 21
8.2493874216
  0
LINE
  5
485
100
AcDbEntity
  8
0
100
AcDbLine
 62
7
  6
CONTINUOUS
 10
7.0944635342
 20
8.2493874216
 11
7.0944635342
 21
8.213388655
  0
LINE
  5
486
100
AcDbEntity
  8
0
100
AcDbLine
 62
7
  6
CONTINUOUS
 10
7.0944635342
 20
7.574442573
 11
7.0944635342
 21
7.5643480515
  0
LINE
  5
487
100
AcDbEntity
  8
02___PRT_ALL_AXES
100
AcDbLine
 62
7
  6
CONTINUOUS
 10
7.3860623968
 20
7.143088209
 11
7.3860623968
 21
7.1391512011
  0
LINE
  5
488
100
AcDbEntity
  8
0
100
AcDbLine
 62
7
  6
CONTINUOUS
 10
7.3860623968
 20
7.1785212799
 11
7.3860623968
 21
7.1824582877
  0
LINE
  5
489
100
AcDbEntity
  8
0
100
AcDbLine
 62
7
  6
CONTINUOUS
 10
7.3860623968
 20
7.2178913586
 11
7.3860623968
 21
7.2218283665
  0
LINE
  5
48A
100
AcDbEntity
  8
0
100
AcDbLine
 62
7
  6
CONTINUOUS
 10
7.3860623968
 20
7.2572614373
 11
7.3860623968
 21
7.2611984452
  0
LINE
  5
48B
100
AcDbEntity
  8
0
100
AcDbLine
 62
7
  6
CONTINUOUS
 10
7.3860623968
 20
7.2966315161
 11
7.3860623968
 21
7.300568524
  0
LINE
  5
48C
100
AcDbEntity
  8
0
100
AcDbLine
 62
7
  6
CONTINUOUS
 10
7.3860623968
 20
7.3360015948
 11
7.3860623968
 21
7.3399386027
  0
LINE
  5
48D
100
AcDbEntity
  8
0
100
AcDbLine
 62
7
  6
CONTINUOUS
 10
7.3860623968
 20
7.3753716736
 11
7.3860623968
 21
7.3793086814
  0
LINE
  5
48E
100
AcDbEntity
  8
0
100
AcDbLine
 62
7
  6
CONTINUOUS
 10
7.3860623968
 20
7.4147417523
 11
7.3860623968
 21
7.4186787602
  0
LINE
  5
48F
100
AcDbEntity
  8
0
100
AcDbLine
 62
7
  6
CONTINUOUS
 10
7.3860623968
 20
7.454111831
 11
7.3860623968
 21
7.481265589
  0
LINE
  5
490
100
AcDbEntity
  8
AXIS
100
AcDbLine
 62
7
  6
CONTINUOUS
 10
6.64017657
 20
10.3517496263
 11
8.6204915307
 21
10.3517496263
  0
LINE
  5
491
100
AcDbEntity
  8
0
100
AcDbLine
 62
7
  6
CONTINUOUS
 10
7.4265938929
 20
7.0997811224
 11
7.4265938929
 21
7.0604110436
  0
LINE
  5
492
100
AcDbEntity
  8
0
100
AcDbLine
 62
7
  6
CONTINUOUS
 10
7.8340742078
 20
7.0997811224
 11
7.8340742078
 21
7.0604110436
  0
LINE
  5
493
100
AcDbEntity
  8
0
100
AcDbLine
 62
7
  6
CONTINUOUS
 10
7.8746057039
 20
7.1588362405
 11
7.8746057039
 21
7.1627732484
  0
LINE
  5
494
100
AcDbEntity
  8
0
100
AcDbLine
 62
7
  6
CONTINUOUS
 10
7.8746057039
 20
7.1982063192
 11
7.8746057039
 21
7.2021433271
  0
LINE
  5
495
100
AcDbEntity
  8
0
100
AcDbLine
 62
7
  6
CONTINUOUS
 10
7.8746057039
 20
7.237576398
 11
7.8746057039
 21
7.2415134058
  0
LINE
  5
496
100
AcDbEntity
  8
0
100
AcDbLine
 62
7
  6
CONTINUOUS
 10
7.8746057039
 20
7.2769464767
 11
7.8746057039
 21
7.2808834846
  0
LINE
  5
497
100
AcDbEntity
  8
0
100
AcDbLine
 62
7
  6
CONTINUOUS
 10
7.8746057039
 20
7.3163165554
 11
7.8746057039
 21
7.3202535633
  0
LINE
  5
498
100
AcDbEntity
  8
0
100
AcDbLine
 62
7
  6
CONTINUOUS
 10
7.8746057039
 20
7.3556866342
 11
7.8746057039
 21
7.3596236421
  0
LINE
  5
499
100
AcDbEntity
  8
0
100
AcDbLine
 62
7
  6
CONTINUOUS
 10
7.8746057039
 20
7.3950567129
 11
7.8746057039
 21
7.3989937208
  0
LINE
  5
49A
100
AcDbEntity
  8
0
100
AcDbLine
 62
7
  6
CONTINUOUS
 10
7.8746057039
 20
7.4344267917
 11
7.8746057039
 21
7.4383637995
  0
LINE
  5
49B
100
AcDbEntity
  8
0
100
AcDbLine
 62
7
  6
CONTINUOUS
 10
7.8746057039
 20
7.4737968704
 11
7.8746057039
 21
7.481265589
  0
LINE
  5
49C
100
AcDbEntity
  8
AXIS
100
AcDbLine
 62
7
  6
CONTINUOUS
 10
6.64017657
 20
10.8832456893
 11
8.6204915307
 21
10.8832456893
  0
LINE
  5
49D
100
AcDbEntity
  8
0
100
AcDbLine
 62
7
  6
CONTINUOUS
 10
8.1662045665
 20
7.5643480515
 11
8.1662045665
 21
7.5995291206
  0
LINE
  5
49E
100
AcDbEntity
  8
0
100
AcDbLine
 62
7
  6
CONTINUOUS
 10
8.1662045665
 20
8.2384752027
 11
8.1662045665
 21
8.2493874216
  0
LINE
  5
49F
100
AcDbEntity
  8
0
100
AcDbLine
 62
7
  6
CONTINUOUS
 10
8.171672633
 20
7.5643480515
 11
8.171672633
 21
8.2493874216
  0
LWPOLYLINE
  5
4A0
100
AcDbEntity
  8
0
100
AcDbPolyline
 62
7
  6
CONTINUOUS
 90
4
 70
0
 10
7.0889954677
 20
7.5716148903
 10
7.0896054812
 20
7.5730085974
 10
7.0914363745
 20
7.5739530481
 10
7.0944635342
 20
7.574442573
  0
LINE
  5
4A1
100
AcDbEntity
  8
0
100
AcDbLine
 62
7
  6
CONTINUOUS
 10
8.516160822
 20
8.4108047444
 11
8.516160822
 21
8.6844267917
  0
LINE
  5
4A2
100
AcDbEntity
  8
AXIS
100
AcDbLine
 62
7
  6
CONTINUOUS
 10
8.6145860189
 20
9.2808834846
 11
8.6145860189
 21
10.3517496263
  0
LINE
  5
4A3
100
AcDbEntity
  8
AXIS
100
AcDbLine
 62
7
  6
CONTINUOUS
 10
8.6145860189
 20
10.8832456893
 11
8.6145860189
 21
11.954111831
  0
LINE
  5
4A4
100
AcDbEntity
  8
AXIS
100
AcDbLine
 62
7
  6
CONTINUOUS
 10
8.6145860189
 20
12.485607894
 11
8.6145860189
 21
13.539119018
  0
LINE
  5
4A5
100
AcDbEntity
  8
0
100
AcDbLine
 62
7
  6
CONTINUOUS
 10
8.6145860189
 20
13.539119018
 11
8.6145860189
 21
13.9721898841
  0
LINE
  5
4A6
100
AcDbEntity
  8
0
100
AcDbLine
 62
7
  6
CONTINUOUS
 10
8.6204915307
 20
8.7493874216
 11
8.6204915307
 21
9.2808834846
  0
LINE
  5
4A7
100
AcDbEntity
  8
AXIS
100
AcDbLine
 62
7
  6
CONTINUOUS
 10
8.6204915307
 20
10.3517496263
 11
8.6204915307
 21
10.8832456893
  0
LINE
  5
4A8
100
AcDbEntity
  8
AXIS
100
AcDbLine
 62
7
  6
CONTINUOUS
 10
8.6204915307
 20
11.954111831
 11
8.6204915307
 21
12.485607894
  0
LINE
  5
4A9
100
AcDbEntity
  8
0
100
AcDbLine
 62
7
  6
CONTINUOUS
 10
8.6244285385
 20
8.704111831
 11
8.6244285385
 21
8.7480134375
  0
LINE
  5
4AA
100
AcDbEntity
  8
0
100
AcDbLine
 62
7
  6
CONTINUOUS
 10
7.87710606
 20
7.5054396149
 11
7.8828379874
 21
7.5328519885
  0
LINE
  5
4AB
100
AcDbEntity
  8
0
100
AcDbLine
 62
7
  6
CONTINUOUS
 10
7.4061000529
 20
7.1154383647
 11
7.4060300699
 21
7.1152464717
  0
LINE
  5
4AC
100
AcDbEntity
  8
AXIS
100
AcDbLine
 62
7
  6
CONTINUOUS
 10
6.64017657
 20
11.954111831
 11
8.6204915307
 21
11.954111831
  0
LWPOLYLINE
  5
4AD
100
AcDbEntity
  8
0
100
AcDbPolyline
 62
7
  6
CONTINUOUS
 90
4
 70
0
 10
8.171672633
 20
8.2413028853
 10
8.1710626195
 20
8.2399091782
 10
8.1692317262
 20
8.2389647275
 10
8.1662045665
 20
8.2384752027
  0
LINE
  5
4AE
100
AcDbEntity
  8
0
100
AcDbLine
 62
7
  6
CONTINUOUS
 10
7.3863031365
 20
7.4189569712
 11
7.3860623968
 21
7.4186787602
  0
LINE
  5
4AF
100
AcDbEntity
  8
0
100
AcDbLine
 62
7
  6
CONTINUOUS
 10
7.3863031365
 20
7.3795868925
 11
7.3860623968
 21
7.3793086814
  0
LINE
  5
4B0
100
AcDbEntity
  8
0
100
AcDbLine
 62
7
  6
CONTINUOUS
 10
7.3863031365
 20
7.3402168137
 11
7.3860623968
 21
7.3399386027
  0
LINE
  5
4B1
100
AcDbEntity
  8
0
100
AcDbLine
 62
7
  6
CONTINUOUS
 10
7.3863031365
 20
7.300846735
 11
7.3860623968
 21
7.300568524
  0
LINE
  5
4B2
100
AcDbEntity
  8
AXIS
100
AcDbLine
 62
7
  6
CONTINUOUS
 10
6.64017657
 20
12.485607894
 11
8.6204915307
 21
12.485607894
  0
LINE
  5
4B3
100
AcDbEntity
  8
0
100
AcDbLine
 62
7
  6
CONTINUOUS
 10
7.3863031365
 20
7.2614766563
 11
7.3860623968
 21
7.2611984452
  0
LINE
  5
4B4
100
AcDbEntity
  8
0
100
AcDbLine
 62
7
  6
CONTINUOUS
 10
7.3863031365
 20
7.2221065775
 11
7.3860623968
 21
7.2218283665
  0
LINE
  5
4B5
100
AcDbEntity
  8
0
100
AcDbLine
 62
7
  6
CONTINUOUS
 10
7.3863031365
 20
7.1827364988
 11
7.3860623968
 21
7.1824582877
  0
LINE
  5
4B6
100
AcDbEntity
  8
0
100
AcDbLine
 62
7
  6
CONTINUOUS
 10
7.3860623968
 20
7.143088209
 11
7.3863031365
 21
7.14336642
  0
LINE
  5
4B7
100
AcDbEntity
  8
0
100
AcDbLine
 62
7
  6
CONTINUOUS
 10
7.873368103
 20
7.472361746
 11
7.8746057039
 21
7.4737968704
  0
LINE
  5
4B8
100
AcDbEntity
  8
0
100
AcDbLine
 62
7
  6
CONTINUOUS
 10
7.8743649642
 20
7.4341485806
 11
7.8746057039
 21
7.4344267917
  0
LINE
  5
4B9
100
AcDbEntity
  8
0
100
AcDbLine
 62
7
  6
CONTINUOUS
 10
7.8743649642
 20
7.3947785019
 11
7.8746057039
 21
7.3950567129
  0
LINE
  5
4BA
100
AcDbEntity
  8
0
100
AcDbLine
 62
7
  6
CONTINUOUS
 10
7.8743649642
 20
7.3554084231
 11
7.8746057039
 21
7.3556866342
  0
LINE
  5
4BB
100
AcDbEntity
  8
0
100
AcDbLine
 62
7
  6
CONTINUOUS
 10
7.8743649642
 20
7.3160383444
 11
7.8746057039
 21
7.3163165554
  0
LINE
  5
4BC
100
AcDbEntity
  8
0
100
AcDbLine
 62
7
  6
CONTINUOUS
 10
7.8743649642
 20
7.2766682656
 11
7.8746057039
 21
7.2769464767
  0
LINE
  5
4BD
100
AcDbEntity
  8
0
100
AcDbLine
 62
7
  6
CONTINUOUS
 10
7.8743649642
 20
7.2372981869
 11
7.8746057039
 21
7.237576398
  0
LINE
  5
4BE
100
AcDbEntity
  8
0
100
AcDbLine
 62
7
  6
CONTINUOUS
 10
7.8743649642
 20
7.1979281082
 11
7.8746057039
 21
7.1982063192
  0
LINE
  5
4BF
100
AcDbEntity
  8
0
100
AcDbLine
 62
7
  6
CONTINUOUS
 10
7.8746057039
 20
7.1588362405
 11
7.8743649642
 21
7.1585580294
  0
LINE
  5
4C0
100
AcDbEntity
  8
0
100
AcDbLine
 62
7
  6
CONTINUOUS
 10
7.8671178474
 20
7.1277262856
 11
7.8391726556
 21
7.0997810998
  0
LINE
  5
4C1
100
AcDbEntity
  8
0
100
AcDbLine
 62
7
  6
CONTINUOUS
 10
7.417023538
 20
7.4367134131
 11
7.3863031365
 21
7.4189569712
  0
LINE
  5
4C2
100
AcDbEntity
  8
0
100
AcDbLine
 62
7
  6
CONTINUOUS
 10
7.417023538
 20
7.3973433343
 11
7.3863031365
 21
7.3795868925
  0
LINE
  5
4C3
100
AcDbEntity
  8
0
100
AcDbLine
 62
7
  6
CONTINUOUS
 10
7.417023538
 20
7.3579732556
 11
7.3863031365
 21
7.3402168137
  0
LINE
  5
4C4
100
AcDbEntity
  8
0
100
AcDbLine
 62
7
  6
CONTINUOUS
 10
7.8465469907
 20
7.4567880751
 11
7.873368103
 21
7.472361746
  0
LINE
  5
4C5
100
AcDbEntity
  8
0
100
AcDbLine
 62
7
  6
CONTINUOUS
 10
7.417023538
 20
7.3186031768
 11
7.3863031365
 21
7.300846735
  0
LINE
  5
4C6
100
AcDbEntity
  8
0
100
AcDbLine
 62
7
  6
CONTINUOUS
 10
7.417023538
 20
7.2792330981
 11
7.3863031365
 21
7.2614766563
  0
LINE
  5
4C7
100
AcDbEntity
  8
0
100
AcDbLine
 62
7
  6
CONTINUOUS
 10
7.417023538
 20
7.2398630194
 11
7.3863031365
 21
7.2221065775
  0
LINE
  5
4C8
100
AcDbEntity
  8
0
100
AcDbLine
 62
7
  6
CONTINUOUS
 10
7.8436445627
 20
7.4557622175
 11
7.8743649642
 21
7.4735186593
  0
LINE
  5
4C9
100
AcDbEntity
  8
0
100
AcDbLine
 62
7
  6
CONTINUOUS
 10
7.417023538
 20
7.2004929406
 11
7.3863031365
 21
7.1827364988
  0
LINE
  5
4CA
100
AcDbEntity
  8
0
100
AcDbLine
 62
7
  6
CONTINUOUS
 10
7.8436445627
 20
7.4163921388
 11
7.8743649642
 21
7.4341485806
  0
LINE
  5
4CB
100
AcDbEntity
  8
0
100
AcDbLine
 62
7
  6
CONTINUOUS
 10
7.417023538
 20
7.1611228619
 11
7.3863031365
 21
7.14336642
  0
LINE
  5
4CC
100
AcDbEntity
  8
0
100
AcDbLine
 62
7
  6
CONTINUOUS
 10
7.8436445627
 20
7.3770220601
 11
7.8743649642
 21
7.3947785019
  0
LINE
  5
4CD
100
AcDbEntity
  8
0
100
AcDbLine
 62
7
  6
CONTINUOUS
 10
7.417023538
 20
7.1217527831
 11
7.4061000529
 21
7.1154383647
  0
LINE
  5
4CE
100
AcDbEntity
  8
0
100
AcDbLine
 62
7
  6
CONTINUOUS
 10
7.8436445627
 20
7.3376519813
 11
7.8743649642
 21
7.3554084231
  0
LINE
  5
4CF
100
AcDbEntity
  8
0
100
AcDbLine
 62
7
  6
CONTINUOUS
 10
7.8436445627
 20
7.2982819026
 11
7.8743649642
 21
7.3160383444
  0
LWPOLYLINE
  5
4D0
100
AcDbEntity
  8
0
100
AcDbPolyline
 62
7
  6
CONTINUOUS
 90
10
 70
0
 10
7.417023538
 20
7.2398630194
 10
7.4172686204
 20
7.2399823472
 10
7.4226497266
 20
7.2410212799
 10
7.4337273639
 20
7.2420602125
 10
7.4501976862
 20
7.2430991451
 10
7.4716089322
 20
7.2441380778
 10
7.4973738172
 20
7.2451770104
 10
7.5267856414
 20
7.246215943
 10
7.559037674
 20
7.2472548757
 10
7.5932452803
 20
7.2482938083
  0
LWPOLYLINE
  5
4D1
100
AcDbEntity
  8
0
100
AcDbPolyline
 62
7
  6
CONTINUOUS
 90
11
 70
0
 10
7.3860623968
 20
7.454111831
 10
7.3890506659
 20
7.4550929428
 10
7.3980925202
 20
7.4560865196
 10
7.4129636
 20
7.4570802104
 10
7.4330193718
 20
7.4580621405
 10
7.457829643
 20
7.4590411296
 10
7.4869812556
 20
7.4600245209
 10
7.5194155496
 20
7.4610009761
 10
7.5544587114
 20
7.4619752913
 10
7.591652037
 20
7.4629579031
 10
7.6689037564
 20
7.4649478807
  0
LWPOLYLINE
  5
4D2
100
AcDbEntity
  8
0
100
AcDbPolyline
 62
7
  6
CONTINUOUS
 90
10
 70
0
 10
7.3860623968
 20
7.4147417523
 10
7.3890551071
 20
7.4157235943
 10
7.3981081847
 20
7.4167177368
 10
7.4129919993
 20
7.4177117281
 10
7.4330567581
 20
7.4186936883
 10
7.4578696591
 20
7.4196725005
 10
7.4870131313
 20
7.4206554519
 10
7.5194362592
 20
7.4216314936
 10
7.5544833249
 20
7.4226058768
 10
7.5916757836
 20
7.4235884413
  0
LINE
  5
4D3
100
AcDbEntity
  8
0
100
AcDbLine
 62
7
  6
CONTINUOUS
 10
8.6145860189
 20
13.539119018
 11
6.6460820818
 21
13.539119018
  0
LINE
  5
4D4
100
AcDbEntity
  8
0
100
AcDbLine
 62
7
  6
CONTINUOUS
 10
7.8436445627
 20
7.2589118238
 11
7.8743649642
 21
7.2766682656
  0
LINE
  5
4D5
100
AcDbEntity
  8
0
100
AcDbLine
 62
7
  6
CONTINUOUS
 10
7.8436445627
 20
7.2195417451
 11
7.8743649642
 21
7.2372981869
  0
LINE
  5
4D6
100
AcDbEntity
  8
0
100
AcDbLine
 62
7
  6
CONTINUOUS
 10
7.8436445627
 20
7.1801716664
 11
7.8743649642
 21
7.1979281082
  0
LINE
  5
4D7
100
AcDbEntity
  8
0
100
AcDbLine
 62
7
  6
CONTINUOUS
 10
7.8436445627
 20
7.1408015876
 11
7.8743649642
 21
7.1585580294
  0
LWPOLYLINE
  5
4D8
100
AcDbEntity
  8
0
100
AcDbPolyline
 62
7
  6
CONTINUOUS
 90
10
 70
0
 10
7.417023538
 20
7.1611228619
 10
7.4174439628
 20
7.1613105939
 10
7.4231522379
 20
7.1623430009
 10
7.4344722585
 20
7.163375408
 10
7.4510974097
 20
7.164407815
 10
7.472577381
 20
7.165440222
 10
7.498330364
 20
7.166472629
 10
7.527658811
 20
7.1675050361
 10
7.5597683289
 20
7.1685374431
 10
7.5937891965
 20
7.1695698501
  0
LWPOLYLINE
  5
4D9
100
AcDbEntity
  8
0
100
AcDbPolyline
 62
7
  6
CONTINUOUS
 90
11
 70
0
 10
7.417023538
 20
7.2792330981
 10
7.4175610944
 20
7.2794617873
 10
7.4235515453
 20
7.2805007199
 10
7.4352137915
 20
7.2815396526
 10
7.4522279516
 20
7.2825785852
 10
7.4741273478
 20
7.2836175178
 10
7.5003113059
 20
7.2846564505
 10
7.5300616314
 20
7.2856953831
 10
7.5625623087
 20
7.2867343157
 10
7.5969218834
 20
7.2877732484
 10
7.6674228204
 20
7.2898511136
  0
LWPOLYLINE
  5
4DA
100
AcDbEntity
  8
0
100
AcDbPolyline
 62
7
  6
CONTINUOUS
 90
11
 70
0
 10
7.417023538
 20
7.1217527831
 10
7.4178770408
 20
7.122079127
 10
7.4243511406
 20
7.1231115341
 10
7.4364045125
 20
7.1241439411
 10
7.4537106777
 20
7.1251763481
 10
7.4758008799
 20
7.1262087551
 10
7.5020767817
 20
7.1272411621
 10
7.5318266717
 20
7.1282735692
 10
7.5642447416
 20
7.1293059762
 10
7.5984529126
 20
7.1303383832
 10
7.6685099054
 20
7.1324031973
  0
LWPOLYLINE
  5
4DB
100
AcDbEntity
  8
0
100
AcDbPolyline
 62
7
  6
CONTINUOUS
 90
11
 70
0
 10
7.417023538
 20
7.3186031768
 10
7.4179183812
 20
7.3189412274
 10
7.4245163519
 20
7.31998016
 10
7.4367596545
 20
7.3210190926
 10
7.4543124699
 20
7.3220580253
 10
7.4766933455
 20
7.3230969579
 10
7.5032884007
 20
7.3241358905
 10
7.5333681653
 20
7.3251748232
 10
7.5661075874
 20
7.3262137558
 10
7.6006086642
 20
7.3272526884
 10
7.6710881259
 20
7.3293305537
  0
LWPOLYLINE
  5
4DC
100
AcDbEntity
  8
0
100
AcDbPolyline
 62
7
  6
CONTINUOUS
 90
8
 70
0
 10
7.3860623968
 20
7.2178913586
 10
7.3887679138
 20
7.2188248099
 10
7.3969607341
 20
7.2197701262
 10
7.4104765588
 20
7.2207167014
 10
7.42879143
 20
7.2216538069
 10
7.4514348573
 20
7.222584477
 10
7.4781929478
 20
7.2235208962
 10
7.5081982236
 20
7.2244530384
  0
LWPOLYLINE
  5
4DD
100
AcDbEntity
  8
0
100
AcDbPolyline
 62
7
  6
CONTINUOUS
 90
8
 70
0
 10
7.8746057039
 20
7.3202535633
 10
7.8718974161
 20
7.3193196333
 10
7.8636977776
 20
7.3183739631
 10
7.8501752176
 20
7.3174272598
 10
7.8318541198
 20
7.3164900914
 10
7.8092143364
 20
7.3155597327
 10
7.7824630774
 20
7.3146236298
 10
7.7524698771
 20
7.3136918835
  0
LWPOLYLINE
  5
4DE
100
AcDbEntity
  8
0
100
AcDbPolyline
 62
7
  6
CONTINUOUS
 90
11
 70
0
 10
7.417023538
 20
7.3579732556
 10
7.4183403718
 20
7.3584206674
 10
7.4255438526
 20
7.3594596001
 10
7.4383644822
 20
7.3604985327
 10
7.456450606
 20
7.3615374653
 10
7.4793061436
 20
7.362576398
 10
7.5063041949
 20
7.3636153306
 10
7.5367042359
 20
7.3646542632
 10
7.5696724302
 20
7.3656931959
 10
7.6043044996
 20
7.3667321285
 10
7.6747410173
 20
7.3688099938
  0
LWPOLYLINE
  5
4DF
100
AcDbEntity
  8
0
100
AcDbPolyline
 62
7
  6
CONTINUOUS
 90
10
 70
0
 10
7.3860623968
 20
7.1785212799
 10
7.3890534806
 20
7.1795028545
 10
7.398102435
 20
7.1804967888
 10
7.4129814142
 20
7.1814906607
 10
7.4330424376
 20
7.1824725929
 10
7.4578535323
 20
7.1834514438
 10
7.4869987146
 20
7.1844345228
 10
7.5194243856
 20
7.1854106793
 10
7.554469119
 20
7.186385021
 10
7.5916607646
 20
7.1873675787
  0
LWPOLYLINE
  5
4E0
100
AcDbEntity
  8
0
100
AcDbPolyline
 62
7
  6
CONTINUOUS
 90
10
 70
0
 10
7.3860623968
 20
7.2966315161
 10
7.3890542834
 20
7.2976132227
 10
7.398105275
 20
7.2986072599
 10
7.4129866353
 20
7.2996011904
 10
7.4330494814
 20
7.3005831355
 10
7.4578614231
 20
7.3015619659
 10
7.48700569
 20
7.30254498
 10
7.5194300079
 20
7.3035210774
 10
7.5544758453
 20
7.3044954388
 10
7.5916678309
 20
7.3054779985
  0
LWPOLYLINE
  5
4E1
100
AcDbEntity
  8
0
100
AcDbPolyline
 62
7
  6
CONTINUOUS
 90
10
 70
0
 10
7.3860623968
 20
7.3753716736
 10
7.3890601671
 20
7.376354347
 10
7.3981258162
 20
7.3773491158
 10
7.4130243488
 20
7.3783434669
 10
7.4331005116
 20
7.3793255124
 10
7.4579190428
 20
7.3803042102
 10
7.4870575868
 20
7.3812867813
 10
7.519474264
 20
7.3822625089
 10
7.5545285429
 20
7.3832370183
 10
7.591723682
 20
7.3842196069
  0
LWPOLYLINE
  5
4E2
100
AcDbEntity
  8
0
100
AcDbPolyline
 62
7
  6
CONTINUOUS
 90
10
 70
0
 10
7.3860623968
 20
7.2572614373
 10
7.3890593098
 20
7.2582439699
 10
7.398122857
 20
7.259238635
 10
7.4130189375
 20
7.2602329267
 10
7.4330932082
 20
7.2612149586
 10
7.4579108161
 20
7.2621936761
 10
7.4870502005
 20
7.2631763111
 10
7.5194678707
 20
7.2641520887
 10
7.554520966
 20
7.2651265776
 10
7.5917156772
 20
7.2661091627
  0
LWPOLYLINE
  5
4E3
100
AcDbEntity
  8
0
100
AcDbPolyline
 62
7
  6
CONTINUOUS
 90
10
 70
0
 10
7.8746057039
 20
7.3596236421
 10
7.8716106305
 20
7.3586414117
 10
7.8625518532
 20
7.3576469908
 10
7.8476622203
 20
7.3566528862
 10
7.8275933631
 20
7.3556709241
 10
7.8027779696
 20
7.3546921524
 10
7.7736366428
 20
7.3537093619
 10
7.7412168525
 20
7.3527334693
 10
7.7061662949
 20
7.3517590188
 10
7.6689709329
 20
7.3507763975
  0
LWPOLYLINE
  5
4E4
100
AcDbEntity
  8
0
100
AcDbPolyline
 62
7
  6
CONTINUOUS
 90
10
 70
0
 10
7.8746057039
 20
7.3989937208
 10
7.8716054929
 20
7.3980106466
 10
7.8625341175
 20
7.3970156037
 10
7.8476297932
 20
7.3960211435
 10
7.8275496067
 20
7.3950391002
 10
7.802728701
 20
7.394060447
 10
7.7735924237
 20
7.3930780401
 10
7.7411785631
 20
7.3921024458
 10
7.7061208637
 20
7.3911278717
 10
7.6689229248
 20
7.3901452291
  0
LWPOLYLINE
  5
4E5
100
AcDbEntity
  8
0
100
AcDbPolyline
 62
7
  6
CONTINUOUS
 90
10
 70
0
 10
7.8746057039
 20
7.4383637995
 10
7.8716034968
 20
7.4373803977
 10
7.8625271029
 20
7.436385103
 10
7.8476164738
 20
7.4353904744
 10
7.8275305918
 20
7.4344083524
 10
7.8027077694
 20
7.4334297679
 10
7.7735786227
 20
7.4324476818
 10
7.7411700017
 20
7.431472278
 10
7.7061048941
 20
7.4304975195
 10
7.6689037564
 20
7.4295148099
  0
LWPOLYLINE
  5
4E6
100
AcDbEntity
  8
0
100
AcDbPolyline
 62
7
  6
CONTINUOUS
 90
11
 70
0
 10
7.3860623968
 20
7.3360015948
 10
7.3892086214
 20
7.3370083572
 10
7.3987246673
 20
7.3380279464
 10
7.4143506941
 20
7.3390470443
 10
7.435367314
 20
7.3400529603
 10
7.4613961224
 20
7.3410588145
 10
7.4918590555
 20
7.3420674748
 10
7.525626744
 20
7.343068307
 10
7.5620172282
 20
7.3440679941
 10
7.6006308928
 20
7.3450802927
 10
7.6797692625
 20
7.3471210232
  0
LWPOLYLINE
  5
4E7
100
AcDbEntity
  8
0
100
AcDbPolyline
 62
7
  6
CONTINUOUS
 90
20
 70
0
 10
7.417023538
 20
7.3973433343
 10
7.4188269378
 20
7.3979001075
 10
7.4266337344
 20
7.3989390401
 10
7.4400277857
 20
7.3999779728
 10
7.4586417088
 20
7.4010169054
 10
7.4819649463
 20
7.402055838
 10
7.5093577698
 20
7.4030947707
 10
7.5400688271
 20
7.4041337033
 10
7.573255751
 20
7.4051726359
 10
7.6080082639
 20
7.4062115686
 10
7.6433731463
 20
7.4072505012
 10
7.6783803819
 20
7.4082894338
 10
7.7120697645
 20
7.4093283665
 10
7.7435172348
 20
7.4103672991
 10
7.7718602265
 20
7.4114062317
 10
7.7963213254
 20
7.4124451644
 10
7.8162295931
 20
7.413484097
 10
7.8310389697
 20
7.4145230296
 10
7.8403432519
 20
7.4155619623
 10
7.8436445627
 20
7.4163921388
  0
LWPOLYLINE
  5
4E8
100
AcDbEntity
  8
0
100
AcDbPolyline
 62
7
  6
CONTINUOUS
 90
10
 70
0
 10
7.8746057039
 20
7.2415134058
 10
7.8716097882
 20
7.2405310371
 10
7.8625489176
 20
7.2395365119
 10
7.8476568352
 20
7.2385423475
 10
7.827586081
 20
7.2375603712
 10
7.8027697538
 20
7.2365816186
 10
7.7736292497
 20
7.2355988915
 10
7.7412105297
 20
7.234623051
 10
7.7061587629
 20
7.2336485794
 10
7.6689629526
 20
7.232665954
  0
LWPOLYLINE
  5
4E9
100
AcDbEntity
  8
0
100
AcDbPolyline
 62
7
  6
CONTINUOUS
 90
10
 70
0
 10
7.8746057039
 20
7.2808834846
 10
7.8716046171
 20
7.2799002666
 10
7.862531133
 20
7.2789051209
 10
7.8476243615
 20
7.2779106023
 10
7.827542299
 20
7.2769285463
 10
7.8027204958
 20
7.2759499137
 10
7.7735850864
 20
7.2749675715
 10
7.7411720993
 20
7.2739920235
 10
7.7061132359
 20
7.2730174296
 10
7.668914894
 20
7.2720347842
  0
LWPOLYLINE
  5
4EA
100
AcDbEntity
  8
0
100
AcDbPolyline
 62
7
  6
CONTINUOUS
 90
11
 70
0
 10
7.8746057039
 20
7.2021433271
 10
7.8714558004
 20
7.201135975
 10
7.8619307815
 20
7.2001159545
 10
7.8462958388
 20
7.1990966934
 10
7.8252719285
 20
7.1980907331
 10
7.7992440899
 20
7.1970851171
 10
7.7687890698
 20
7.1960768251
 10
7.7350274799
 20
7.195076221
 10
7.6986332466
 20
7.1940764569
 10
7.660022387
 20
7.1930642462
 10
7.5808879786
 20
7.1910236142
  0
LINE
  5
4EB
100
AcDbEntity
  8
0
100
AcDbLine
 62
7
  6
CONTINUOUS
 10
6.6460820818
 20
13.9721898841
 11
8.6145860189
 21
13.9721898841
  0
LINE
  5
4EC
100
AcDbEntity
  8
0
100
AcDbLine
 62
7
  6
CONTINUOUS
 10
6.7445072787
 20
14.070615081
 11
8.516160822
 21
14.070615081
  0
LINE
  5
4ED
100
AcDbEntity
  8
0
100
AcDbLine
 62
7
  6
CONTINUOUS
 10
7.0574994047
 20
4.6768741749
 11
7.0574994047
 21
4.5110050849
  0
LWPOLYLINE
  5
4EE
100
AcDbEntity
  8
0
100
AcDbPolyline
 62
7
  6
CONTINUOUS
 90
16
 70
0
 10
7.0889954677
 20
4.8199235389
 10
7.1308985394
 20
4.9016413664
 10
7.1850418801
 20
4.9758179761
 10
7.2500985334
 20
5.0406354322
 10
7.3244740774
 20
5.0945051752
 10
7.4063457009
 20
5.1361069542
 10
7.4937068773
 20
5.1644211842
 10
7.5844165407
 20
5.1787539342
 10
7.67625156
 20
5.1787539342
 10
7.7669612234
 20
5.1644211842
 10
7.8543223997
 20
5.1361069542
 10
7.9361940233
 20
5.0945051752
 10
8.0105695673
 20
5.0406354322
 10
8.0756262206
 20
4.9758179761
 10
8.1297695613
 20
4.9016413664
 10
8.171672633
 20
4.8199235389
  0
LINE
  5
4EF
100
AcDbEntity
  8
0
100
AcDbLine
 62
7
  6
CONTINUOUS
 10
7.0889954677
 20
4.3679557209
 11
7.0889954677
 21
4.8199235389
  0
LINE
  5
4F0
100
AcDbEntity
  8
0
100
AcDbLine
 62
7
  6
CONTINUOUS
 10
7.1204915307
 20
4.6768741749
 11
7.1204915307
 21
4.5110050849
  0
LWPOLYLINE
  5
4F1
100
AcDbEntity
  8
0
100
AcDbPolyline
 62
7
  6
CONTINUOUS
 90
4
 70
0
 10
7.2839735722
 20
4.792387329
 10
7.2537303155
 20
4.7300160371
 10
7.2346669239
 20
4.6632010861
 10
7.2274018024
 20
4.59393963
  0
LWPOLYLINE
  5
4F2
100
AcDbEntity
  8
0
100
AcDbPolyline
 62
7
  6
CONTINUOUS
 90
18
 70
0
 10
7.4060300699
 20
4.5939396299
 10
7.4094305794
 20
4.5588203791
 10
7.4184319689
 20
4.5243282649
 10
7.4327681272
 20
4.4917964055
 10
7.4517663035
 20
4.4624070681
 10
7.4750948641
 20
4.436426479
 10
7.5022151791
 20
4.4144471142
 10
7.5321950001
 20
4.3971516349
 10
7.5643736534
 20
4.3848176931
 10
7.5984001997
 20
4.3776378692
 10
7.6334225864
 20
4.3759537166
 10
7.6681401295
 20
4.3798829624
 10
7.7013040247
 20
4.3891494902
 10
7.732276621
 20
4.4033814854
 10
7.7606717779
 20
4.4223434199
 10
7.7857613868
 20
4.4456039821
 10
7.8067607035
 20
4.4724331083
 10
7.8232618137
 20
4.5023004714
  0
LWPOLYLINE
  5
4F3
100
AcDbEntity
  8
0
100
AcDbPolyline
 62
7
  6
CONTINUOUS
 90
13
 70
0
 10
7.5548519132
 20
4.3616228468
 10
7.5919721202
 20
4.3533267784
 10
7.6303626872
 20
4.3509163943
 10
7.6685724959
 20
4.3545803358
 10
7.7052497313
 20
4.3640669756
 10
7.7395927928
 20
4.3789543284
 10
7.7712252616
 20
4.3989829635
 10
7.7995012814
 20
4.4238172517
 10
7.8234328174
 20
4.4526090624
 10
7.842572973
 20
4.4847676882
 10
7.8565733155
 20
4.51992092
 10
7.8648160907
 20
4.5567806059
 10
7.8671178474
 20
4.5939396299
  0
LINE
  5
4F4
100
AcDbEntity
  8
0
100
AcDbLine
 62
7
  6
CONTINUOUS
 10
7.0574994047
 20
4.5110050849
 11
7.1204915307
 21
4.5110050849
  0
LINE
  5
4F5
100
AcDbEntity
  8
0
100
AcDbLine
 62
7
  6
CONTINUOUS
 10
8.14017657
 20
4.5110050849
 11
8.203168696
 21
4.5110050849
  0
LINE
  5
4F6
100
AcDbEntity
  8
AXIS
100
AcDbLine
 62
7
  6
CENTER
 10
7.6303340503
 20
4.5939396299
 11
7.6303340503
 21
3.5096876614
  0
LINE
  5
4F7
100
AcDbEntity
  8
AXIS
100
AcDbLine
 62
7
  6
CENTER
 10
7.6303340503
 20
4.5939396299
 11
7.6303340503
 21
5.6781915984
  0
LINE
  5
4F8
100
AcDbEntity
  8
0
100
AcDbLine
 62
7
  6
CONTINUOUS
 10
8.1355833942
 20
4.7155769626
 11
8.1662045665
 21
4.7229489221
  0
LINE
  5
4F9
100
AcDbEntity
  8
0
100
AcDbLine
 62
7
  6
CONTINUOUS
 10
8.1968257389
 20
4.7303208817
 11
8.171672633
 21
4.7242653435
  0
LINE
  5
4FA
100
AcDbEntity
  8
0
100
AcDbLine
 62
7
  6
CONTINUOUS
 10
7.0638423618
 20
4.4575583781
 11
7.0889954677
 21
4.4636139163
  0
LINE
  5
4FB
100
AcDbEntity
  8
0
100
AcDbLine
 62
7
  6
CONTINUOUS
 10
7.1250847065
 20
4.4723022972
 11
7.0944635342
 21
4.4649303376
  0
LINE
  5
4FC
100
AcDbEntity
  8
AXIS
100
AcDbLine
 62
7
  6
CENTER
 10
7.6303340503
 20
4.5939396299
 11
6.5460820818
 21
4.5939396299
  0
LINE
  5
4FD
100
AcDbEntity
  8
AXIS
100
AcDbLine
 62
7
  6
CENTER
 10
7.6303340503
 20
4.5939396299
 11
8.7145860189
 21
4.5939396299
  0
LINE
  5
4FE
100
AcDbEntity
  8
0
100
AcDbLine
 62
7
  6
CONTINUOUS
 10
7.9852243691
 20
4.556929121
 11
8.0034261912
 21
4.5550309043
  0
LINE
  5
4FF
100
AcDbEntity
  8
0
100
AcDbLine
 62
7
  6
CONTINUOUS
 10
8.1968257389
 20
4.4575583781
 11
8.171672633
 21
4.4636139163
  0
LINE
  5
500
100
AcDbEntity
  8
0
100
AcDbLine
 62
7
  6
CONTINUOUS
 10
7.1250847065
 20
4.7155769626
 11
7.0944635342
 21
4.7229489221
  0
LINE
  5
501
100
AcDbEntity
  8
0
100
AcDbLine
 62
7
  6
CONTINUOUS
 10
7.0638423618
 20
4.7303208817
 11
7.0889954677
 21
4.7242653435
  0
LINE
  5
502
100
AcDbEntity
  8
0
100
AcDbLine
 62
7
  6
CONTINUOUS
 10
8.1355833942
 20
4.4723022972
 11
8.1662045665
 21
4.4649303376
  0
LINE
  5
503
100
AcDbEntity
  8
0
100
AcDbLine
 62
7
  6
CONTINUOUS
 10
7.7124586568
 20
4.4784084038
 11
7.7279481217
 21
4.4629189389
  0
LINE
  5
504
100
AcDbEntity
  8
0
100
AcDbLine
 62
7
  6
CONTINUOUS
 10
7.0574994047
 20
4.6768741749
 11
7.1204915307
 21
4.6768741749
  0
LINE
  5
505
100
AcDbEntity
  8
0
100
AcDbLine
 62
7
  6
CONTINUOUS
 10
8.14017657
 20
4.6768741749
 11
8.203168696
 21
4.6768741749
  0
LINE
  5
506
100
AcDbEntity
  8
0
100
AcDbLine
 62
7
  6
CONTINUOUS
 10
7.7613547413
 20
4.4963255585
 11
7.7458652764
 21
4.5118150234
  0
LWPOLYLINE
  5
507
100
AcDbEntity
  8
0
100
AcDbPolyline
 62
7
  6
CONTINUOUS
 90
21
 70
0
 10
7.8671178474
 20
4.5939396299
 10
7.8636379254
 20
4.630588409
 10
7.8543807803
 20
4.6666110381
 10
7.8396091403
 20
4.7006492606
 10
7.819975619
 20
4.7315193127
 10
7.7959280425
 20
4.7588077559
 10
7.7678685441
 20
4.7820811864
 10
7.7368120638
 20
4.8005505959
 10
7.7033867327
 20
4.8139456007
 10
7.6680868824
 20
4.8220318817
 10
7.6315625977
 20
4.8245014124
 10
7.5951704682
 20
4.8211689491
 10
7.5602516205
 20
4.8122778163
 10
7.5275054579
 20
4.798209029
 10
7.4973644865
 20
4.7792383256
 10
7.4704171253
 20
4.7556753415
 10
7.4476223098
 20
4.7283468451
 10
7.4293723593
 20
4.6977668812
 10
7.4160377918
 20
4.6643431284
 10
7.4081976006
 20
4.6292845101
 10
7.4060300699
 20
4.5939396299
  0
LWPOLYLINE
  5
508
100
AcDbEntity
  8
0
100
AcDbPolyline
 62
7
  6
CONTINUOUS
 90
14
 70
0
 10
7.8232618137
 20
4.5023004714
 10
7.8080712881
 20
4.4712536292
 10
7.7878411236
 20
4.4427115353
 10
7.7629993366
 20
4.4175132305
 10
7.7343443827
 20
4.3965577988
 10
7.7025793995
 20
4.3803644818
 10
7.6680656017
 20
4.3692531587
 10
7.6315099605
 20
4.3637191766
 10
7.5942181031
 20
4.364150107
 10
7.5576191634
 20
4.3705105794
 10
7.5225545577
 20
4.3825401838
 10
7.4894672688
 20
4.4001035765
 10
7.4591724353
 20
4.4229327121
 10
7.4327153397
 20
4.4503586913
  0
LWPOLYLINE
  5
509
100
AcDbEntity
  8
0
100
AcDbPolyline
 62
7
  6
CONTINUOUS
 90
14
 70
0
 10
7.9266081371
 20
4.8093005072
 10
7.9260804493
 20
4.8094636896
 10
7.9255318336
 20
4.8097534523
 10
7.9250020107
 20
4.8100958755
 10
7.9244903327
 20
4.8104641987
 10
7.9239798171
 20
4.8108579197
 10
7.9234585876
 20
4.8112802491
 10
7.9229157927
 20
4.8117370132
 10
7.922341167
 20
4.8122354579
 10
7.9217247652
 20
4.8127837064
 10
7.9210568331
 20
4.8133904381
 10
7.9203277937
 20
4.814064619
 10
7.9195283585
 20
4.8148151865
 10
7.9186497754
 20
4.8156506352
  0
LINE
  5
50A
100
AcDbEntity
  8
0
100
AcDbLine
 62
7
  6
CONTINUOUS
 10
8.0028580529
 20
4.6170004502
 11
8.0044372307
 21
4.566574298
  0
LWPOLYLINE
  5
50B
100
AcDbEntity
  8
0
100
AcDbPolyline
 62
7
  6
CONTINUOUS
 90
19
 70
0
 10
7.9558478865
 20
4.4047492695
 10
7.9851378841
 20
4.4642355097
 10
8.0036077818
 20
4.5281001145
 10
8.0106357894
 20
4.5943679873
 10
8.0059539858
 20
4.661049304
 10
7.9896496674
 20
4.726050261
 10
7.9621770224
 20
4.7873574792
 10
7.9243372294
 20
4.8430661049
 10
7.877249198
 20
4.8914439533
 10
7.8223204074
 20
4.9309760805
 10
7.761200146
 20
4.9604163727
 10
7.6957322748
 20
4.9788232487
 10
7.6278956652
 20
4.9855899587
 10
7.5597519343
 20
4.9804626445
 10
7.4933745295
 20
4.96355057
 10
7.4307816212
 20
4.9353187128
 10
7.3738884153
 20
4.896577323
 10
7.3244439411
 20
4.8484599606
 10
7.2839735722
 20
4.792387329
  0
LINE
  5
50C
100
AcDbEntity
  8
0
100
AcDbLine
 62
7
  6
CONTINUOUS
 10
7.9706396098
 20
4.422060986
 11
7.9313644215
 21
4.3678136348
  0
LINE
  5
50D
100
AcDbEntity
  8
0
100
AcDbLine
 62
7
  6
CONTINUOUS
 10
7.702324595
 20
4.9630977792
 11
7.7169904865
 21
4.9600146996
  0
LINE
  5
50E
100
AcDbEntity
  8
0
100
AcDbLine
 62
7
  6
CONTINUOUS
 10
7.7169904865
 20
4.9600146996
 11
7.7370765141
 21
4.9545230983
  0
LINE
  5
50F
100
AcDbEntity
  8
0
100
AcDbLine
 62
7
  6
CONTINUOUS
 10
7.7370765141
 20
4.9545230983
 11
7.7551904366
 21
4.9484913065
  0
LWPOLYLINE
  5
510
100
AcDbEntity
  8
0
100
AcDbPolyline
 62
7
  6
CONTINUOUS
 90
3
 70
0
 10
7.7551904366
 20
4.9484913065
 10
7.7714957438
 20
4.9421366017
 10
7.7861506217
 20
4.9356311826
  0
LINE
  5
511
100
AcDbEntity
  8
0
100
AcDbLine
 62
7
  6
CONTINUOUS
 10
7.7861506217
 20
4.9356311826
 11
7.7993272428
 21
4.9290986626
  0
LWPOLYLINE
  5
512
100
AcDbEntity
  8
0
100
AcDbPolyline
 62
7
  6
CONTINUOUS
 90
50
 70
0
 10
7.7993272428
 20
4.9290986626
 10
7.8112010995
 20
4.9226205697
 10
7.8219457657
 20
4.9162420499
 10
7.8317293402
 20
4.9099773174
 10
7.8406936934
 20
4.9038276499
 10
7.8488882653
 20
4.8978385694
 10
7.8563386249
 20
4.8920663491
 10
7.8630744562
 20
4.8865597407
 10
7.8691337806
 20
4.8813552464
 10
7.8745736165
 20
4.8764655049
 10
7.8794467688
 20
4.8718978384
 10
7.8838036252
 20
4.8676534892
 10
7.8876923557
 20
4.8637280841
 10
7.8911587588
 20
4.8601124382
 10
7.8942462381
 20
4.8567932531
 10
7.8969958555
 20
4.8537537318
 10
7.8994464403
 20
4.8509741139
 10
7.9016347327
 20
4.8484321347
 10
7.9035955467
 20
4.8461034172
 10
7.9053619401
 20
4.8439618031
 10
7.9069653781
 20
4.8419796288
 10
7.9084358834
 20
4.8401279523
 10
7.9098021628
 20
4.8383767344
 10
7.9110917021
 20
4.8366949764
 10
7.9123308192
 20
4.8350508128
 10
7.9135447431
 20
4.8334114528
 10
7.9147562486
 20
4.8317449645
 10
7.9159709551
 20
4.8300409866
 10
7.9171694569
 20
4.828324112
 10
7.9183316841
 20
4.8266216417
 10
7.9194386776
 20
4.8249613264
 10
7.9204725543
 20
4.8233716089
 10
7.9214169324
 20
4.821881188
 10
7.922262575
 20
4.8205099459
 10
7.9230168572
 20
4.8192518244
 10
7.9236825147
 20
4.8181081216
 10
7.9242645755
 20
4.8170762824
 10
7.9247705451
 20
4.8161490314
 10
7.9252092921
 20
4.8153157679
 10
7.9255900365
 20
4.8145639718
 10
7.9259216208
 20
4.8138802425
 10
7.9262120274
 20
4.8132509091
 10
7.9264680106
 20
4.8126622912
 10
7.9266946442
 20
4.8121007285
 10
7.9268944451
 20
4.8115525056
 10
7.9270652638
 20
4.8110038428
 10
7.9271942685
 20
4.810441193
 10
7.9272343704
 20
4.8098618358
 10
7.927057017
 20
4.8094066581
 10
7.9266081371
 20
4.8093005072
  0
LWPOLYLINE
  5
513
100
AcDbEntity
  8
0
100
AcDbPolyline
 62
7
  6
CONTINUOUS
 90
6
 70
0
 10
7.8532561933
 20
4.8725480186
 10
7.8990649256
 20
4.8336599603
 10
7.9380031561
 20
4.7873400995
 10
7.9688762559
 20
4.7348326913
 10
7.9907355004
 20
4.6775267498
 10
8.0028580529
 20
4.6170004502
  0
LWPOLYLINE
  5
514
100
AcDbEntity
  8
0
100
AcDbPolyline
 62
7
  6
CONTINUOUS
 90
15
 70
0
 10
7.9014380205
 20
4.8323927909
 10
7.899594762
 20
4.8341424326
 10
7.8976482184
 20
4.8359735571
 10
7.8955658435
 20
4.8379127621
 10
7.8933143056
 20
4.8399857817
 10
7.8908593315
 20
4.8422172747
 10
7.8881655336
 20
4.8446305721
 10
7.8851962234
 20
4.8472473763
 10
7.8819132159
 20
4.8500874036
 10
7.8782766351
 20
4.8531679654
 10
7.8742447314
 20
4.856503478
 10
7.8697737268
 20
4.8601048974
 10
7.8648177069
 20
4.8639790715
 10
7.8593285814
 20
4.868128008
 10
7.8532561933
 20
4.8725480186
  0
LINE
  5
515
100
AcDbEntity
  8
0
100
AcDbLine
 62
7
  6
CONTINUOUS
 10
7.9049400442
 20
4.829029967
 11
7.9014380205
 21
4.8323927909
  0
LINE
  5
516
100
AcDbEntity
  8
0
100
AcDbLine
 62
7
  6
CONTINUOUS
 10
7.9186497754
 20
4.8156506352
 11
7.9166250174
 21
4.8176048648
  0
LINE
  5
517
100
AcDbEntity
  8
0
100
AcDbLine
 62
7
  6
CONTINUOUS
 10
7.9082816179
 20
4.825781112
 11
7.9049400442
 21
4.829029967
  0
LINE
  5
518
100
AcDbEntity
  8
0
100
AcDbLine
 62
7
  6
CONTINUOUS
 10
7.9166250174
 20
4.8176048648
 11
7.9082816179
 21
4.825781112
  0
LWPOLYLINE
  5
519
100
AcDbEntity
  8
0
100
AcDbPolyline
 62
7
  6
CONTINUOUS
 90
19
 70
0
 10
8.0559046825
 20
4.5939396298
 10
8.0483415865
 20
4.5209883701
 10
8.0283691603
 20
4.4505390032
 10
7.9967497019
 20
4.3849312981
 10
7.9543926024
 20
4.3258316286
 10
7.9019459063
 20
4.2744656067
 10
7.8412817727
 20
4.2329999071
 10
7.7752406514
 20
4.2031292889
 10
7.7051773742
 20
4.1851785836
 10
7.6321255467
 20
4.179660902
 10
7.5593903363
 20
4.187070907
 10
7.4902481157
 20
4.2067524982
 10
7.4260691696
 20
4.2378712065
 10
7.3677756414
 20
4.2800385604
 10
7.3178810722
 20
4.3316260199
 10
7.2782076463
 20
4.3904232836
 10
7.2493633945
 20
4.45519431
 10
7.2323001235
 20
4.5236550416
 10
7.2274018024
 20
4.59393963
  0
LWPOLYLINE
  5
51A
100
AcDbEntity
  8
0
100
AcDbPolyline
 62
7
  6
CONTINUOUS
 90
11
 70
0
 10
7.6121294907
 20
5.0307504164
 10
7.6825909478
 20
5.0268209559
 10
7.750714138
 20
5.0118144754
 10
7.815250376
 20
4.9862601794
 10
7.8756215018
 20
4.9502108262
 10
7.9293805536
 20
4.9048276512
 10
7.974555158
 20
4.8519883794
 10
8.0101723386
 20
4.7934690223
 10
8.0360977214
 20
4.7297815168
 10
8.0515414084
 20
4.6623794833
 10
8.0559046825
 20
4.5939396298
  0
LWPOLYLINE
  5
51B
100
AcDbEntity
  8
0
100
AcDbPolyline
 62
7
  6
CONTINUOUS
 90
13
 70
0
 10
7.6121294907
 20
5.0307504164
 10
7.6860310628
 20
5.0229368137
 10
7.7569441017
 20
5.0027772343
 10
7.8228230923
 20
4.9710282173
 10
7.8817881841
 20
4.9287832695
 10
7.9321770855
 20
4.8774431126
 10
7.9726000011
 20
4.8186708503
 10
8.0019812584
 20
4.7543389267
 10
8.019589425
 20
4.6864720645
 10
8.0250581468
 20
4.6171885967
 10
8.0184024237
 20
4.5486534794
 10
8.0000159091
 20
4.4829543107
 10
7.9706396098
 20
4.422060986
  0
LINE
  5
51C
100
AcDbEntity
  8
0
100
AcDbLine
 62
7
  6
CONTINUOUS
 10
8.14017657
 20
4.5110050849
 11
8.14017657
 21
4.6768741749
  0
LINE
  5
51D
100
AcDbEntity
  8
0
100
AcDbLine
 62
7
  6
CONTINUOUS
 10
8.171672633
 20
4.3679557209
 11
8.171672633
 21
4.8199235389
  0
LINE
  5
51E
100
AcDbEntity
  8
0
100
AcDbLine
 62
7
  6
CONTINUOUS
 10
8.203168696
 20
4.5110050849
 11
8.203168696
 21
4.6768741749
  0
LWPOLYLINE
  5
51F
100
AcDbEntity
  8
0
100
AcDbPolyline
 62
7
  6
CONTINUOUS
 90
16
 70
0
 10
8.171672633
 20
4.3679557209
 10
8.1297695613
 20
4.2862378933
 10
8.0756262206
 20
4.2120612837
 10
8.0105695673
 20
4.1472438275
 10
7.9361940233
 20
4.0933740845
 10
7.8543223997
 20
4.0517723056
 10
7.7669612234
 20
4.0234580756
 10
7.67625156
 20
4.0091253256
 10
7.5844165407
 20
4.0091253256
 10
7.4937068773
 20
4.0234580756
 10
7.4063457009
 20
4.0517723056
 10
7.3244740774
 20
4.0933740845
 10
7.2500985334
 20
4.1472438275
 10
7.1850418801
 20
4.2120612837
 10
7.1308985394
 20
4.2862378933
 10
7.0889954677
 20
4.3679557209
  0
LWPOLYLINE
  5
520
100
AcDbEntity
  8
0
100
AcDbPolyline
 62
7
  6
CONTINUOUS
 90
12
 70
0
 10
16.9680855257
 20
5.9825980234
 10
17.0598067762
 20
5.9804082033
 10
17.1511172748
 20
5.9883802096
 10
17.2397791651
 20
6.0063441883
 10
17.323619503
 20
6.0338853998
 10
17.4005835123
 20
6.0703543841
 10
17.4687849429
 20
6.1148828772
 10
17.5265523002
 20
6.1664050912
 10
17.5724698098
 20
6.2236838344
 10
17.6054121159
 20
6.285340833
 10
17.6245718617
 20
6.3498905102
 10
17.6296611842
 20
6.4052873992
  0
LWPOLYLINE
  5
521
100
AcDbEntity
  8
0
100
AcDbPolyline
 62
7
  6
CONTINUOUS
 90
11
 70
0
 10
16.9680855257
 20
5.9878874048
 10
17.0598067762
 20
5.9856975848
 10
17.1511172748
 20
5.9936695911
 10
17.2397791651
 20
6.0116335697
 10
17.323619503
 20
6.0391747813
 10
17.4005835123
 20
6.0756437656
 10
17.4687849429
 20
6.1201722587
 10
17.5265523002
 20
6.1716944726
 10
17.5724698098
 20
6.2289732158
 10
17.6054121159
 20
6.2906302145
 10
17.6245718617
 20
6.3551798916
  0
LWPOLYLINE
  5
522
100
AcDbEntity
  8
0
100
AcDbPolyline
 62
7
  6
CONTINUOUS
 90
11
 70
0
 10
16.9680855257
 20
6.0243562979
 10
17.0598067762
 20
6.0221664778
 10
17.1511172748
 20
6.0301384841
 10
17.2397791651
 20
6.0481024627
 10
17.323619503
 20
6.0756436743
 10
17.4005835123
 20
6.1121126586
 10
17.4687849429
 20
6.1566411517
 10
17.5265523002
 20
6.2081633657
 10
17.5724698098
 20
6.2654421089
 10
17.6054121159
 20
6.3270991075
 10
17.6245718617
 20
6.3916487847
  0
LWPOLYLINE
  5
523
100
AcDbEntity
  8
0
100
AcDbPolyline
 62
7
  6
CONTINUOUS
 90
11
 70
0
 10
16.9680855257
 20
6.0296456793
 10
17.0598067762
 20
6.0274558592
 10
17.1511172748
 20
6.0354278655
 10
17.2397791651
 20
6.0533918442
 10
17.323619503
 20
6.0809330557
 10
17.4005835123
 20
6.11740204
 10
17.4687849429
 20
6.1619305332
 10
17.5265523002
 20
6.2134527471
 10
17.5724698098
 20
6.2707314903
 10
17.6054121159
 20
6.332388489
 10
17.6245718617
 20
6.3969381661
  0
LWPOLYLINE
  5
524
100
AcDbEntity
  8
0
100
AcDbPolyline
 62
7
  6
CONTINUOUS
 90
11
 70
0
 10
16.9680855257
 20
6.0661145724
 10
17.0598067762
 20
6.0639247523
 10
17.1511172748
 20
6.0718967586
 10
17.2397791651
 20
6.0898607372
 10
17.323619503
 20
6.1174019488
 10
17.4005835123
 20
6.1538709331
 10
17.4687849429
 20
6.1983994262
 10
17.5265523002
 20
6.2499216401
 10
17.5724698098
 20
6.3072003833
 10
17.6054121159
 20
6.368857382
 10
17.6245718617
 20
6.4334070592
  0
LWPOLYLINE
  5
525
100
AcDbEntity
  8
0
100
AcDbPolyline
 62
7
  6
CONTINUOUS
 90
9
 70
0
 10
16.9680855257
 20
6.0714039538
 10
17.0598067762
 20
6.0692141337
 10
17.1511172748
 20
6.07718614
 10
17.2397791651
 20
6.0951501187
 10
17.323619503
 20
6.1226913302
 10
17.4005835123
 20
6.1591603145
 10
17.4687849429
 20
6.2036888076
 10
17.5265523002
 20
6.2552110216
 10
17.5724698098
 20
6.3124897648
  0
LWPOLYLINE
  5
526
100
AcDbEntity
  8
0
100
AcDbPolyline
 62
7
  6
CONTINUOUS
 90
6
 70
0
 10
16.9680855257
 20
6.1078728469
 10
17.0598067762
 20
6.1056830268
 10
17.1511172748
 20
6.1136550331
 10
17.2397791651
 20
6.1316190117
 10
17.323619503
 20
6.1591602233
 10
17.4005835123
 20
6.1956292076
  0
LWPOLYLINE
  5
527
100
AcDbEntity
  8
0
100
AcDbPolyline
 62
7
  6
CONTINUOUS
 90
11
 70
0
 10
16.9680855257
 20
6.1131622283
 10
17.0598067762
 20
6.1109724082
 10
17.1511172748
 20
6.1189444145
 10
17.2397791651
 20
6.1369083931
 10
17.323619503
 20
6.1644496047
 10
17.4005835123
 20
6.200918589
 10
17.4687849429
 20
6.2454470821
 10
17.5265523002
 20
6.2969692961
 10
17.5724698098
 20
6.3542480393
 10
17.6054121159
 20
6.4159050379
 10
17.6200797586
 20
6.4653207041
  0
LWPOLYLINE
  5
528
100
AcDbEntity
  8
0
100
AcDbPolyline
 62
7
  6
CONTINUOUS
 90
9
 70
0
 10
16.9680855257
 20
6.1496311213
 10
17.0598067762
 20
6.1474413012
 10
17.1511172748
 20
6.1554133075
 10
17.2397791651
 20
6.1733772862
 10
17.323619503
 20
6.2009184977
 10
17.4005835123
 20
6.237387482
 10
17.4687849429
 20
6.2819159752
 10
17.5265523002
 20
6.3334381891
 10
17.5724698098
 20
6.3907169323
  0
LINE
  5
529
100
AcDbEntity
  8
0
100
AcDbLine
 62
7
  6
CONTINUOUS
 10
16.9725759941
 20
5.9756191129
 11
16.8893208317
 21
5.9880985388
  0
LINE
  5
52A
100
AcDbEntity
  8
0
100
AcDbLine
 62
7
  6
CONTINUOUS
 10
16.9336896649
 20
5.9905493402
 11
16.8868370773
 21
5.9975707079
  0
LINE
  5
52B
100
AcDbEntity
  8
0
100
AcDbLine
 62
7
  6
CONTINUOUS
 10
16.9357481461
 20
6.0317502941
 11
16.8621822846
 21
6.0442173191
  0
LINE
  5
52C
100
AcDbEntity
  8
0
100
AcDbLine
 62
7
  6
CONTINUOUS
 10
16.9363437776
 20
6.0733723765
 11
16.8621822846
 21
6.0859755936
  0
LINE
  5
52D
100
AcDbEntity
  8
0
100
AcDbLine
 62
7
  6
CONTINUOUS
 10
16.9373964399
 20
6.1148899579
 11
16.8621822846
 21
6.1277338681
  0
LWPOLYLINE
  5
52E
100
AcDbEntity
  8
0
100
AcDbPolyline
 62
7
  6
CONTINUOUS
 90
3
 70
0
 10
16.9680855257
 20
6.0243562979
 10
16.93259922
 20
6.0324703014
 10
16.8972822608
 20
6.041589393
  0
LWPOLYLINE
  5
52F
100
AcDbEntity
  8
0
100
AcDbPolyline
 62
7
  6
CONTINUOUS
 90
3
 70
0
 10
16.9680855257
 20
6.0661145724
 10
16.93259922
 20
6.0742285758
 10
16.8972822608
 20
6.0833476674
  0
LWPOLYLINE
  5
530
100
AcDbEntity
  8
0
100
AcDbPolyline
 62
7
  6
CONTINUOUS
 90
4
 70
0
 10
16.5766699136
 20
6.1841839283
 10
16.612150568
 20
6.1760712987
 10
16.6474670541
 20
6.1669525092
 10
16.6825731547
 20
6.1567849953
  0
LINE
  5
531
100
AcDbEntity
  8
0
100
AcDbLine
 62
7
  6
CONTINUOUS
 10
16.9264414361
 20
5.9922249186
 11
16.9680855257
 21
5.9825980234
  0
LWPOLYLINE
  5
532
100
AcDbEntity
  8
0
100
AcDbPolyline
 62
7
  6
CONTINUOUS
 90
4
 70
0
 10
16.8893208317
 20
5.9880985388
 10
16.8751747037
 20
5.9914890901
 10
16.8613901599
 20
5.9956748688
 10
16.8480447811
 20
6.0006397304
  0
LWPOLYLINE
  5
533
100
AcDbEntity
  8
0
100
AcDbPolyline
 62
7
  6
CONTINUOUS
 90
4
 70
0
 10
16.8868370773
 20
5.9975707079
 10
16.872158887
 20
6.0010878262
 10
16.857917484
 20
6.0054105542
 10
16.8442011425
 20
6.0105120978
  0
LINE
  5
534
100
AcDbEntity
  8
0
100
AcDbLine
 62
7
  6
CONTINUOUS
 10
16.8852404665
 20
6.0031915525
 11
16.9264414361
 21
5.9922249186
  0
LINE
  5
535
100
AcDbEntity
  8
0
100
AcDbLine
 62
7
  6
CONTINUOUS
 10
16.8972822608
 20
6.041589393
 11
16.8621822846
 21
6.051755231
  0
LINE
  5
536
100
AcDbEntity
  8
0
100
AcDbLine
 62
7
  6
CONTINUOUS
 10
16.8972822608
 20
6.0833476674
 11
16.8621822846
 21
6.0935135054
  0
LINE
  5
537
100
AcDbEntity
  8
0
100
AcDbLine
 62
7
  6
CONTINUOUS
 10
16.8442011425
 20
6.0156505288
 11
16.8852404665
 21
6.0031915525
  0
LWPOLYLINE
  5
538
100
AcDbEntity
  8
0
100
AcDbPolyline
 62
7
  6
CONTINUOUS
 90
6
 70
0
 10
16.9555061455
 20
5.9101177998
 10
16.9209096999
 20
5.921090485
 10
16.8893210333
 20
5.9357462063
 10
16.8615165132
 20
5.9537078188
 10
16.83818208
 20
5.9745153913
 10
16.8198929154
 20
5.9976384917
  0
LWPOLYLINE
  5
539
100
AcDbEntity
  8
0
100
AcDbPolyline
 62
7
  6
CONTINUOUS
 90
7
 70
0
 10
16.9209111842
 20
5.9489287597
 10
16.9554104461
 20
5.9379807828
 10
16.9925272258
 20
5.930919179
 10
17.0309100849
 20
5.9281008516
 10
17.0691349018
 20
5.9295697234
 10
17.1066043946
 20
5.9352231931
 10
17.1426765022
 20
5.9449889004
  0
LINE
  5
53A
100
AcDbEntity
  8
0
100
AcDbLine
 62
7
  6
CONTINUOUS
 10
16.9554453066
 20
5.9685947226
 11
16.9209111842
 21
5.9795514944
  0
LINE
  5
53B
100
AcDbEntity
  8
0
100
AcDbLine
 62
7
  6
CONTINUOUS
 10
16.9536619012
 20
5.9412113156
 11
16.9209111842
 21
5.9517126447
  0
LWPOLYLINE
  5
53C
100
AcDbEntity
  8
0
100
AcDbPolyline
 62
7
  6
CONTINUOUS
 90
8
 70
0
 10
16.9209111842
 20
5.9767676094
 10
16.9536619012
 20
5.9662662803
 10
16.9888435666
 20
5.9592612749
 10
17.0253055371
 20
5.9560806921
 10
17.0618035623
 20
5.9567970991
 10
17.0976383447
 20
5.9613139746
 10
17.1324796145
 20
5.9696001235
 10
17.1651828378
 20
5.9814074177
  0
LINE
  5
53D
100
AcDbEntity
  8
0
100
AcDbLine
 62
7
  6
CONTINUOUS
 10
16.8480447811
 20
6.0006397304
 11
16.7043979355
 21
6.0592833096
  0
LINE
  5
53E
100
AcDbEntity
  8
0
100
AcDbLine
 62
7
  6
CONTINUOUS
 10
16.8442011425
 20
6.0105120978
 11
16.7005542968
 21
6.069155677
  0
LWPOLYLINE
  5
53F
100
AcDbEntity
  8
0
100
AcDbPolyline
 62
7
  6
CONTINUOUS
 90
10
 70
0
 10
16.9680855257
 20
6.1549205028
 10
17.0598067762
 20
6.1527306827
 10
17.1511172748
 20
6.160702689
 10
17.2397791651
 20
6.1786666676
 10
17.323619503
 20
6.2062078792
 10
17.4005835123
 20
6.2426768635
 10
17.4687849429
 20
6.2872053566
 10
17.5265523002
 20
6.3387275705
 10
17.5724698098
 20
6.3960063137
 10
17.6032601108
 20
6.4536354773
  0
LWPOLYLINE
  5
540
100
AcDbEntity
  8
0
100
AcDbPolyline
 62
7
  6
CONTINUOUS
 90
10
 70
0
 10
16.9680855257
 20
6.1913893958
 10
17.0598067762
 20
6.1891995757
 10
17.1511172748
 20
6.197171582
 10
17.2397791651
 20
6.2151355607
 10
17.323619503
 20
6.2426767722
 10
17.4005835123
 20
6.2791457565
 10
17.4687849429
 20
6.3236742496
 10
17.5265523002
 20
6.3751964636
 10
17.5724698098
 20
6.4324752068
 10
17.576247545
 20
6.4395458657
  0
LWPOLYLINE
  5
541
100
AcDbEntity
  8
0
100
AcDbPolyline
 62
7
  6
CONTINUOUS
 90
9
 70
0
 10
16.9680855257
 20
6.1966787772
 10
17.0598067762
 20
6.1944889572
 10
17.1511172748
 20
6.2024609635
 10
17.2397791651
 20
6.2204249421
 10
17.323619503
 20
6.2479661537
 10
17.4005835123
 20
6.2844351379
 10
17.4687849429
 20
6.3289636311
 10
17.5265523002
 20
6.380485845
 10
17.5722091861
 20
6.437439479
  0
LWPOLYLINE
  5
542
100
AcDbEntity
  8
0
100
AcDbPolyline
 62
7
  6
CONTINUOUS
 90
8
 70
0
 10
16.9680855257
 20
6.2331476703
 10
17.0598067762
 20
6.2309578502
 10
17.1511172748
 20
6.2389298565
 10
17.2397791651
 20
6.2568938351
 10
17.323619503
 20
6.2844350467
 10
17.4005835123
 20
6.320904031
 10
17.4687849429
 20
6.3654325241
 10
17.5175604599
 20
6.4089349922
  0
LWPOLYLINE
  5
543
100
AcDbEntity
  8
0
100
AcDbPolyline
 62
7
  6
CONTINUOUS
 90
8
 70
0
 10
16.9680855257
 20
6.2384370517
 10
17.0598067762
 20
6.2362472316
 10
17.1511172748
 20
6.2442192379
 10
17.2397791651
 20
6.2621832166
 10
17.323619503
 20
6.2897244281
 10
17.4005835123
 20
6.3261934124
 10
17.4687849429
 20
6.3707219056
 10
17.5032762913
 20
6.4014844454
  0
LWPOLYLINE
  5
544
100
AcDbEntity
  8
0
100
AcDbPolyline
 62
7
  6
CONTINUOUS
 90
6
 70
0
 10
16.9680855257
 20
6.2749059448
 10
17.0598067762
 20
6.2727161247
 10
17.1511172748
 20
6.280688131
 10
17.2397791651
 20
6.2986521096
 10
17.323619503
 20
6.3261933212
 10
17.3987548072
 20
6.3617957834
  0
LWPOLYLINE
  5
545
100
AcDbEntity
  8
0
100
AcDbPolyline
 62
7
  6
CONTINUOUS
 90
6
 70
0
 10
16.9680855257
 20
6.2801953262
 10
17.0598067762
 20
6.2780055061
 10
17.1511172748
 20
6.2859775124
 10
17.2397791651
 20
6.303941491
 10
17.323619503
 20
6.3314827026
 10
17.3643920445
 20
6.3508025534
  0
LWPOLYLINE
  5
546
100
AcDbEntity
  8
AXIS
100
AcDbPolyline
 62
7
  6
CONTINUOUS
 90
4
 70
0
 10
16.9913911094
 20
6.3065565812
 10
16.8615104488
 20
6.3193387358
 10
16.7356407721
 20
6.3461576874
 10
16.6159886346
 20
6.3866905682
  0
LINE
  5
547
100
AcDbEntity
  8
0
100
AcDbLine
 62
7
  6
CONTINUOUS
 10
16.9358333883
 20
6.1987639013
 11
16.8621822846
 21
6.2112504171
  0
LINE
  5
548
100
AcDbEntity
  8
0
100
AcDbLine
 62
7
  6
CONTINUOUS
 10
16.9366539153
 20
6.1568180119
 11
16.8621822846
 21
6.1694921426
  0
LINE
  5
549
100
AcDbEntity
  8
0
100
AcDbLine
 62
7
  6
CONTINUOUS
 10
16.9369322155
 20
6.240270927
 11
16.8621822846
 21
6.2530086915
  0
LINE
  5
54A
100
AcDbEntity
  8
0
100
AcDbLine
 62
7
  6
CONTINUOUS
 10
16.9374181762
 20
6.2819180858
 11
16.8621822846
 21
6.294766966
  0
LWPOLYLINE
  5
54B
100
AcDbEntity
  8
0
100
AcDbPolyline
 62
7
  6
CONTINUOUS
 90
3
 70
0
 10
16.9680855257
 20
6.1078728469
 10
16.93259922
 20
6.1159868503
 10
16.8972822608
 20
6.1251059419
  0
LWPOLYLINE
  5
54C
100
AcDbEntity
  8
0
100
AcDbPolyline
 62
7
  6
CONTINUOUS
 90
4
 70
0
 10
16.5766699136
 20
6.2259422028
 10
16.612150568
 20
6.2178295732
 10
16.6474670541
 20
6.2087107837
 10
16.6825731547
 20
6.1985432697
  0
LWPOLYLINE
  5
54D
100
AcDbEntity
  8
0
100
AcDbPolyline
 62
7
  6
CONTINUOUS
 90
3
 70
0
 10
16.9680855257
 20
6.1496311213
 10
16.93259922
 20
6.1577451248
 10
16.8972822608
 20
6.1668642164
  0
LWPOLYLINE
  5
54E
100
AcDbEntity
  8
0
100
AcDbPolyline
 62
7
  6
CONTINUOUS
 90
4
 70
0
 10
16.5766699136
 20
6.2677004773
 10
16.612150568
 20
6.2595878477
 10
16.6474670541
 20
6.2504690581
 10
16.6825731547
 20
6.2403015442
  0
LWPOLYLINE
  5
54F
100
AcDbEntity
  8
0
100
AcDbPolyline
 62
7
  6
CONTINUOUS
 90
3
 70
0
 10
16.9680855257
 20
6.1913893958
 10
16.93259922
 20
6.1995033993
 10
16.8972822608
 20
6.2086224909
  0
LWPOLYLINE
  5
550
100
AcDbEntity
  8
0
100
AcDbPolyline
 62
7
  6
CONTINUOUS
 90
4
 70
0
 10
16.5766699136
 20
6.3094587518
 10
16.612150568
 20
6.3013461221
 10
16.6474670541
 20
6.2922273326
 10
16.6825731547
 20
6.2820598187
  0
LWPOLYLINE
  5
551
100
AcDbEntity
  8
0
100
AcDbPolyline
 62
7
  6
CONTINUOUS
 90
3
 70
0
 10
16.9680855257
 20
6.2331476703
 10
16.93259922
 20
6.2412616738
 10
16.8972822608
 20
6.2503807654
  0
LWPOLYLINE
  5
552
100
AcDbEntity
  8
0
100
AcDbPolyline
 62
7
  6
CONTINUOUS
 90
4
 70
0
 10
16.5766699136
 20
6.3512170262
 10
16.612150568
 20
6.3431043966
 10
16.6474670541
 20
6.3339856071
 10
16.6825731547
 20
6.3238180932
  0
LWPOLYLINE
  5
553
100
AcDbEntity
  8
0
100
AcDbPolyline
 62
7
  6
CONTINUOUS
 90
3
 70
0
 10
16.9680855257
 20
6.2749059448
 10
16.93259922
 20
6.2830199482
 10
16.8972822608
 20
6.2921390398
  0
LINE
  5
554
100
AcDbEntity
  8
0
100
AcDbLine
 62
7
  6
CONTINUOUS
 10
16.5766699136
 20
6.3929753007
 11
16.612150568
 21
6.3848626711
  0
LINE
  5
555
100
AcDbEntity
  8
0
100
AcDbLine
 62
7
  6
CONTINUOUS
 10
16.612150568
 20
6.3848626711
 11
16.6153062817
 21
6.3840478593
  0
LINE
  5
556
100
AcDbEntity
  8
0
100
AcDbLine
 62
7
  6
CONTINUOUS
 10
16.8972822608
 20
6.1251059419
 11
16.8621822846
 21
6.1352717799
  0
LINE
  5
557
100
AcDbEntity
  8
0
100
AcDbLine
 62
7
  6
CONTINUOUS
 10
16.8972822608
 20
6.1668642164
 11
16.8621822846
 21
6.1770300544
  0
LINE
  5
558
100
AcDbEntity
  8
0
100
AcDbLine
 62
7
  6
CONTINUOUS
 10
16.8972822608
 20
6.2086224909
 11
16.8621822846
 21
6.2187883289
  0
LINE
  5
559
100
AcDbEntity
  8
0
100
AcDbLine
 62
7
  6
CONTINUOUS
 10
16.8972822608
 20
6.2503807654
 11
16.8621822846
 21
6.2605466034
  0
LINE
  5
55A
100
AcDbEntity
  8
0
100
AcDbLine
 62
7
  6
CONTINUOUS
 10
16.8972822608
 20
6.2921390398
 11
16.8621822846
 21
6.3023048778
  0
LWPOLYLINE
  5
55B
100
AcDbEntity
  8
0
100
AcDbPolyline
 62
7
  6
CONTINUOUS
 90
3
 70
0
 10
16.7005542968
 20
6.069155677
 10
16.6874480367
 20
6.0750044146
 10
16.6750330963
 20
6.0815640933
  0
LINE
  5
55C
100
AcDbEntity
  8
0
100
AcDbLine
 62
7
  6
CONTINUOUS
 10
16.6914656363
 20
6.0650573983
 11
16.7043979355
 21
6.0592833096
  0
LINE
  5
55D
100
AcDbEntity
  8
0
100
AcDbLine
 62
7
  6
CONTINUOUS
 10
16.9209111842
 20
5.9795514944
 11
16.9087664177
 21
5.9851837676
  0
LINE
  5
55E
100
AcDbEntity
  8
0
100
AcDbLine
 62
7
  6
CONTINUOUS
 10
16.8893618929
 20
5.9635626181
 11
16.9209111842
 21
5.9489287597
  0
LWPOLYLINE
  5
55F
100
AcDbEntity
  8
0
100
AcDbPolyline
 62
7
  6
CONTINUOUS
 90
3
 70
0
 10
16.9209111842
 20
5.9517126447
 10
16.8893480766
 20
5.9663540891
 10
16.8612529186
 20
5.9845307477
  0
LINE
  5
560
100
AcDbEntity
  8
0
100
AcDbLine
 62
7
  6
CONTINUOUS
 10
16.8999046382
 20
5.9865120927
 11
16.9209111842
 21
5.9767676094
  0
LINE
  5
561
100
AcDbEntity
  8
0
100
AcDbLine
 62
7
  6
CONTINUOUS
 10
16.6595154221
 20
6.1339614482
 11
16.7005542968
 21
6.1140317122
  0
LINE
  5
562
100
AcDbEntity
  8
0
100
AcDbLine
 62
7
  6
CONTINUOUS
 10
16.9308950208
 20
5.9164143664
 11
16.9221391226
 21
5.9207005585
  0
LWPOLYLINE
  5
563
100
AcDbEntity
  8
0
100
AcDbPolyline
 62
7
  6
CONTINUOUS
 90
4
 70
0
 10
16.8621822846
 20
6.0442173191
 10
16.8972879575
 20
6.0266664606
 10
16.9326071534
 20
6.0078642775
 10
16.9680855257
 20
5.9878874048
  0
LWPOLYLINE
  5
564
100
AcDbEntity
  8
0
100
AcDbPolyline
 62
7
  6
CONTINUOUS
 90
4
 70
0
 10
16.6825731547
 20
6.1643229071
 10
16.6474738879
 20
6.1818704577
 10
16.6121541619
 20
6.2006727286
 10
16.5766699136
 20
6.2206528214
  0
LWPOLYLINE
  5
565
100
AcDbEntity
  8
0
100
AcDbPolyline
 62
7
  6
CONTINUOUS
 90
4
 70
0
 10
16.8621822846
 20
6.0859755936
 10
16.8972879575
 20
6.0684247351
 10
16.9326071534
 20
6.049622552
 10
16.9680855257
 20
6.0296456793
  0
LWPOLYLINE
  5
566
100
AcDbEntity
  8
0
100
AcDbPolyline
 62
7
  6
CONTINUOUS
 90
4
 70
0
 10
16.6825731547
 20
6.2060811816
 10
16.6474738879
 20
6.2236287322
 10
16.6121541619
 20
6.2424310031
 10
16.5766699136
 20
6.2624110959
  0
LWPOLYLINE
  5
567
100
AcDbEntity
  8
0
100
AcDbPolyline
 62
7
  6
CONTINUOUS
 90
4
 70
0
 10
16.8621822846
 20
6.1277338681
 10
16.8972879575
 20
6.1101830095
 10
16.9326071534
 20
6.0913808265
 10
16.9680855257
 20
6.0714039538
  0
LWPOLYLINE
  5
568
100
AcDbEntity
  8
0
100
AcDbPolyline
 62
7
  6
CONTINUOUS
 90
4
 70
0
 10
16.6825731547
 20
6.247839456
 10
16.6474738879
 20
6.2653870067
 10
16.6121541619
 20
6.2841892776
 10
16.5766699136
 20
6.3041693703
  0
LWPOLYLINE
  5
569
100
AcDbEntity
  8
0
100
AcDbPolyline
 62
7
  6
CONTINUOUS
 90
4
 70
0
 10
16.7043979355
 20
6.0592833096
 10
16.7035619032
 20
6.0597486152
 10
16.7013250603
 20
6.0632175235
 10
16.7005542968
 20
6.069155677
  0
LWPOLYLINE
  5
56A
100
AcDbEntity
  8
0
100
AcDbPolyline
 62
7
  6
CONTINUOUS
 90
4
 70
0
 10
16.8480447811
 20
6.0006397304
 10
16.8472087489
 20
6.0011050361
 10
16.844971906
 20
6.0045739443
 10
16.8442011425
 20
6.0105120978
  0
LWPOLYLINE
  5
56B
100
AcDbEntity
  8
0
100
AcDbPolyline
 62
7
  6
CONTINUOUS
 90
3
 70
0
 10
16.5766699136
 20
6.1788945469
 10
16.618314191
 20
6.1555552606
 10
16.6595154221
 20
6.1339614482
  0
LWPOLYLINE
  5
56C
100
AcDbEntity
  8
0
100
AcDbPolyline
 62
7
  6
CONTINUOUS
 90
4
 70
0
 10
16.8893208317
 20
5.9880985388
 10
16.8885418455
 20
5.9885590999
 10
16.8872739606
 20
5.9917338979
 10
16.8868370773
 20
5.9975707079
  0
LINE
  5
56D
100
AcDbEntity
  8
0
100
AcDbLine
 62
7
  6
CONTINUOUS
 10
16.6750330963
 20
6.0815640933
 11
16.6633864285
 21
6.0887940533
  0
LWPOLYLINE
  5
56E
100
AcDbEntity
  8
0
100
AcDbPolyline
 62
7
  6
CONTINUOUS
 90
3
 70
0
 10
16.6675164023
 20
6.0787958659
 10
16.6791430164
 20
6.0715743025
 10
16.6914656363
 20
6.0650573983
  0
LWPOLYLINE
  5
56F
100
AcDbEntity
  8
AXIS
100
AcDbPolyline
 62
7
  6
CONTINUOUS
 90
4
 70
0
 10
17.2266821651
 20
6.4864358634
 10
17.1268999408
 20
6.4768436344
 10
17.026257272
 20
6.4744387218
 10
16.9257868886
 20
6.4792458031
  0
LWPOLYLINE
  5
570
100
AcDbEntity
  8
AXIS
100
AcDbPolyline
 62
7
  6
CONTINUOUS
 90
5
 70
0
 10
16.9257868886
 20
6.4792458031
 10
16.8265197528
 20
6.4912155511
 10
16.7294744796
 20
6.5102251402
 10
16.635646885
 20
6.5360795062
 10
16.5459997669
 20
6.5685133482
  0
LWPOLYLINE
  5
571
100
AcDbEntity
  8
0
100
AcDbPolyline
 62
7
  6
CONTINUOUS
 90
8
 70
0
 10
16.7043932077
 20
6.5513610544
 10
16.8711079689
 20
6.5197738268
 10
17.043047011
 20
6.5091370196
 10
17.2149860531
 20
6.5197738268
 10
17.3817008143
 20
6.5513610544
 10
17.5381257512
 20
6.6029389404
 10
17.679507971
 20
6.6729403169
 10
17.8015516466
 20
6.7592382276
  0
LINE
  5
572
100
AcDbEntity
  8
0
100
AcDbLine
 62
7
  6
CONTINUOUS
 10
16.5479682708
 20
6.6029389404
 11
16.7043932077
 21
6.5513610544
  0
LWPOLYLINE
  5
573
100
AcDbEntity
  8
0
100
AcDbPolyline
 62
7
  6
CONTINUOUS
 90
11
 70
0
 10
16.5459997669
 20
6.5995564718
 10
16.6735737415
 20
6.5557355836
 10
16.8086710516
 20
6.5251976978
 10
16.9485411965
 20
6.5085652582
 10
17.0903363193
 20
6.5061773724
 10
17.2311694632
 20
6.5180829374
 10
17.3681735368
 20
6.544039777
 10
17.4985593959
 20
6.5835196417
 10
17.6196725257
 20
6.6357189323
 10
17.72904715
 20
6.6995750482
 10
17.8244564906
 20
6.7737880381
  0
LWPOLYLINE
  5
574
100
AcDbEntity
  8
AXIS
100
AcDbPolyline
 62
7
  6
CONTINUOUS
 90
8
 70
0
 10
16.6159886346
 20
6.3866905682
 10
16.5147946879
 20
6.4349772843
 10
16.423421402
 20
6.4931011986
 10
16.3435742668
 20
6.5599933407
 10
16.2769101653
 20
6.6341257709
 10
16.2245716452
 20
6.7137631797
 10
16.1871239342
 20
6.797198141
 10
16.177890062
 20
6.8325003823
  0
LWPOLYLINE
  5
575
100
AcDbEntity
  8
0
100
AcDbPolyline
 62
7
  6
CONTINUOUS
 90
4
 70
0
 10
16.8621822846
 20
6.1694921426
 10
16.8972879575
 20
6.151941284
 10
16.9326071534
 20
6.1331391009
 10
16.9680855257
 20
6.1131622283
  0
LWPOLYLINE
  5
576
100
AcDbEntity
  8
0
100
AcDbPolyline
 62
7
  6
CONTINUOUS
 90
4
 70
0
 10
16.6825731547
 20
6.2895977305
 10
16.6474738879
 20
6.3071452812
 10
16.6121541619
 20
6.3259475521
 10
16.5766699136
 20
6.3459276448
  0
LWPOLYLINE
  5
577
100
AcDbEntity
  8
0
100
AcDbPolyline
 62
7
  6
CONTINUOUS
 90
4
 70
0
 10
16.8621822846
 20
6.2112504171
 10
16.8972879575
 20
6.1936995585
 10
16.9326071534
 20
6.1748973754
 10
16.9680855257
 20
6.1549205028
  0
LWPOLYLINE
  5
578
100
AcDbEntity
  8
0
100
AcDbPolyline
 62
7
  6
CONTINUOUS
 90
4
 70
0
 10
16.6825731547
 20
6.331356005
 10
16.6474738879
 20
6.3489035556
 10
16.6121541619
 20
6.3677058265
 10
16.5766699136
 20
6.3876859193
  0
LWPOLYLINE
  5
579
100
AcDbEntity
  8
0
100
AcDbPolyline
 62
7
  6
CONTINUOUS
 90
4
 70
0
 10
16.8621822846
 20
6.2530086915
 10
16.8972879575
 20
6.235457833
 10
16.9326071534
 20
6.2166556499
 10
16.9680855257
 20
6.1966787772
  0
LWPOLYLINE
  5
57A
100
AcDbEntity
  8
0
100
AcDbPolyline
 62
7
  6
CONTINUOUS
 90
4
 70
0
 10
16.8621822846
 20
6.294766966
 10
16.8972879575
 20
6.2772161074
 10
16.9326071534
 20
6.2584139244
 10
16.9680855257
 20
6.2384370517
  0
LWPOLYLINE
  5
57B
100
AcDbEntity
  8
0
100
AcDbPolyline
 62
7
  6
CONTINUOUS
 90
3
 70
0
 10
16.9045624825
 20
6.3151017866
 10
16.9326071534
 20
6.3001721989
 10
16.9680855257
 20
6.2801953262
  0
LINE
  5
57C
100
AcDbEntity
  8
0
100
AcDbLine
 62
7
  6
CONTINUOUS
 10
16.6825731547
 20
6.1567849953
 11
16.6447693951
 21
6.1833101803
  0
LINE
  5
57D
100
AcDbEntity
  8
0
100
AcDbLine
 62
7
  6
CONTINUOUS
 10
16.6825731547
 20
6.1985432697
 11
16.6449112408
 21
6.224992944
  0
LINE
  5
57E
100
AcDbEntity
  8
0
100
AcDbLine
 62
7
  6
CONTINUOUS
 10
16.6825731547
 20
6.2820598187
 11
16.6450232428
 21
6.3084498692
  0
LINE
  5
57F
100
AcDbEntity
  8
0
100
AcDbLine
 62
7
  6
CONTINUOUS
 10
16.6825731547
 20
6.2403015442
 11
16.6452781989
 21
6.2665558702
  0
LINE
  5
580
100
AcDbEntity
  8
0
100
AcDbLine
 62
7
  6
CONTINUOUS
 10
16.6633864285
 20
6.0887940533
 11
16.6055787294
 21
6.1342460065
  0
LWPOLYLINE
  5
581
100
AcDbEntity
  8
0
100
AcDbPolyline
 62
7
  6
CONTINUOUS
 90
4
 70
0
 10
16.6675164023
 20
6.0787958659
 10
16.6061047177
 20
6.1275464635
 10
16.55677597
 20
6.1829015402
 10
16.5280089375
 20
6.231161972
  0
LWPOLYLINE
  5
582
100
AcDbEntity
  8
0
100
AcDbPolyline
 62
7
  6
CONTINUOUS
 90
8
 70
0
 10
16.5459997669
 20
6.5995564718
 10
16.4285617686
 20
6.6557585835
 10
16.3236220251
 20
6.7232086588
 10
16.2333208587
 20
6.8005335446
 10
16.1594993326
 20
6.886157796
 10
16.1036612836
 20
6.9783361158
 10
16.0669359646
 20
7.0752128044
 10
16.0500829256
 20
7.1748000258
  0
LWPOLYLINE
  5
583
100
AcDbEntity
  8
0
100
AcDbPolyline
 62
7
  6
CONTINUOUS
 90
6
 70
0
 10
16.5479682708
 20
6.6029389404
 10
16.406586051
 20
6.6729403169
 10
16.2845423754
 20
6.7592382276
 10
16.1855454793
 20
6.859210554
 10
16.1126033333
 20
6.9698196875
 10
16.0679322477
 20
7.0877048258
  0
LINE
  5
584
100
AcDbEntity
  8
0
100
AcDbLine
 62
7
  6
CONTINUOUS
 10
16.6825731547
 20
6.3238180932
 11
16.6447633956
 21
6.350346472
  0
LWPOLYLINE
  5
585
100
AcDbEntity
  8
0
100
AcDbPolyline
 62
7
  6
CONTINUOUS
 90
3
 70
0
 10
16.8377701748
 20
6.0027905308
 10
16.8612736499
 20
5.9817310939
 10
16.8893618929
 20
5.9635626181
  0
LINE
  5
586
100
AcDbEntity
  8
0
100
AcDbLine
 62
7
  6
CONTINUOUS
 10
16.8612529186
 20
5.9845307477
 11
16.8392939322
 21
6.0042122495
  0
LINE
  5
587
100
AcDbEntity
  8
0
100
AcDbLine
 62
7
  6
CONTINUOUS
 10
16.5268517349
 20
6.2324049392
 11
16.5766699136
 21
6.1788945469
  0
LINE
  5
588
100
AcDbEntity
  8
0
100
AcDbLine
 62
7
  6
CONTINUOUS
 10
16.5268517349
 20
6.2741632137
 11
16.5766699136
 21
6.2206528214
  0
LINE
  5
589
100
AcDbEntity
  8
0
100
AcDbLine
 62
7
  6
CONTINUOUS
 10
16.5268517349
 20
6.3159214882
 11
16.5766699136
 21
6.2624110959
  0
LINE
  5
58A
100
AcDbEntity
  8
0
100
AcDbLine
 62
7
  6
CONTINUOUS
 10
16.5268517349
 20
6.3576797627
 11
16.5766699136
 21
6.3041693703
  0
LWPOLYLINE
  5
58B
100
AcDbEntity
  8
0
100
AcDbPolyline
 62
7
  6
CONTINUOUS
 90
3
 70
0
 10
16.6055787294
 20
6.1342460065
 10
16.5585327384
 20
6.1855303445
 10
16.5336372093
 20
6.2251165677
  0
LWPOLYLINE
  5
58C
100
AcDbEntity
  8
0
100
AcDbPolyline
 62
7
  6
CONTINUOUS
 90
13
 70
0
 10
16.5479682708
 20
6.9787634107
 10
16.7043932077
 20
6.9271855247
 10
16.8711079689
 20
6.8955982971
 10
17.043047011
 20
6.8849614899
 10
17.2149860531
 20
6.8955982971
 10
17.3817008143
 20
6.9271855247
 10
17.5381257512
 20
6.9787634107
 10
17.679507971
 20
7.0487647873
 10
17.8015516466
 20
7.1350626979
 10
17.9005485427
 20
7.2350350243
 10
17.9734906887
 20
7.3456441578
 10
18.0181617743
 20
7.4635292961
 10
18.0332044913
 20
7.5851085587
  0
LWPOLYLINE
  5
58D
100
AcDbEntity
  8
0
100
AcDbPolyline
 62
7
  6
CONTINUOUS
 90
7
 70
0
 10
16.5479682708
 20
6.9787634107
 10
16.406586051
 20
7.0487647873
 10
16.2845423754
 20
7.1350626979
 10
16.1855454793
 20
7.2350350243
 10
16.1126033333
 20
7.3456441578
 10
16.0679322477
 20
7.4635292961
 10
16.0528895307
 20
7.5851085587
  0
LINE
  5
58E
100
AcDbEntity
  8
0
100
AcDbLine
 62
7
  6
CONTINUOUS
 10
16.5268517349
 20
6.3994380371
 11
16.5766699136
 21
6.3459276448
  0
LINE
  5
58F
100
AcDbEntity
  8
0
100
AcDbLine
 62
7
  6
CONTINUOUS
 10
16.5469077084
 20
6.4196539141
 11
16.5766699136
 21
6.3876859193
  0
LINE
  5
590
100
AcDbEntity
  8
0
100
AcDbLine
 62
7
  6
CONTINUOUS
 10
16.5557684783
 20
6.4154258205
 11
16.5766699136
 21
6.3929753007
  0
LWPOLYLINE
  5
591
100
AcDbEntity
  8
0
100
AcDbPolyline
 62
7
  6
CONTINUOUS
 90
16
 70
0
 10
16.8198920094
 20
6.0004237752
 10
16.8381811817
 20
5.9773002244
 10
16.8615157956
 20
5.9564922479
 10
16.8893207096
 20
5.9385302691
 10
16.9209099163
 20
5.9238742861
 10
16.9555062762
 20
5.9129016518
 10
16.9922596059
 20
5.9058993652
 10
17.030263542
 20
5.9030574951
 10
17.0685808691
 20
5.9044630246
 10
17.1062691256
 20
5.910098228
 10
17.1424011386
 20
5.9198416319
 10
17.1760860459
 20
5.9334700838
 10
17.2064950872
 20
5.9506652197
 10
17.2328803332
 20
5.971021411
 10
17.2545920223
 20
5.994055101
 10
17.2627837485
 20
6.0065446353
  0
LWPOLYLINE
  5
592
100
AcDbEntity
  8
0
100
AcDbPolyline
 62
7
  6
CONTINUOUS
 90
3
 70
0
 10
16.6675164023
 20
6.0787958659
 10
16.664448252
 20
6.0827021125
 10
16.6633864285
 20
6.0887940533
  0
LINE
  5
593
100
AcDbEntity
  8
0
100
AcDbLine
 62
7
  6
CONTINUOUS
 10
16.835407394
 20
6.0057989221
 11
16.8377701748
 21
6.0027905308
  0
LINE
  5
594
100
AcDbEntity
  8
0
100
AcDbLine
 62
7
  6
CONTINUOUS
 10
16.4896845769
 20
6.3742612606
 11
16.5268517349
 21
6.3159214882
  0
LWPOLYLINE
  5
595
100
AcDbEntity
  8
0
100
AcDbPolyline
 62
7
  6
CONTINUOUS
 90
3
 70
0
 10
16.4896845769
 20
6.3795506421
 10
16.5268517349
 20
6.3212108696
 10
16.5766699136
 20
6.2677004773
  0
LINE
  5
596
100
AcDbEntity
  8
0
100
AcDbLine
 62
7
  6
CONTINUOUS
 10
16.4969982183
 20
6.4462978848
 11
16.5268517349
 21
6.3994380371
  0
LWPOLYLINE
  5
597
100
AcDbEntity
  8
0
100
AcDbPolyline
 62
7
  6
CONTINUOUS
 90
3
 70
0
 10
16.5026641322
 20
6.4426937122
 10
16.5268517349
 20
6.4047274186
 10
16.5766699136
 20
6.3512170262
  0
LINE
  5
598
100
AcDbEntity
  8
0
100
AcDbLine
 62
7
  6
CONTINUOUS
 10
16.8122601823
 20
6.0152487317
 11
16.8198920094
 21
6.0004237752
  0
LINE
  5
599
100
AcDbEntity
  8
0
100
AcDbLine
 62
7
  6
CONTINUOUS
 10
16.8107693345
 20
6.0158573678
 11
16.8198929154
 21
5.9976384917
  0
LWPOLYLINE
  5
59A
100
AcDbEntity
  8
AXIS
100
AcDbPolyline
 62
7
  6
CONTINUOUS
 90
9
 70
0
 10
16.1817825518
 20
6.8273378917
 10
16.1939262898
 20
6.7914280157
 10
16.2261882519
 20
6.7275573351
 10
16.2680271361
 20
6.6665275487
 10
16.3189524198
 20
6.6090541749
 10
16.3783670504
 20
6.5558110366
 10
16.4455744459
 20
6.5074223609
 10
16.5197866609
 20
6.4644554606
 10
16.6001336252
 20
6.4274140836
  0
LWPOLYLINE
  5
59B
100
AcDbEntity
  8
0
100
AcDbPolyline
 62
7
  6
CONTINUOUS
 90
3
 70
0
 10
16.4720276431
 20
6.4621820414
 10
16.4896845769
 20
6.4160195351
 10
16.5268517349
 20
6.3576797627
  0
LWPOLYLINE
  5
59C
100
AcDbEntity
  8
0
100
AcDbPolyline
 62
7
  6
CONTINUOUS
 90
4
 70
0
 10
16.474701347
 20
6.4604812583
 10
16.4896845769
 20
6.4213089165
 10
16.5268517349
 20
6.3629691441
 10
16.5766699136
 20
6.3094587518
  0
LINE
  5
59D
100
AcDbEntity
  8
0
100
AcDbLine
 62
7
  6
CONTINUOUS
 10
16.0500829256
 20
7.1748000258
 11
16.0489525228
 21
7.2083125348
  0
LWPOLYLINE
  5
59E
100
AcDbEntity
  8
AXIS
100
AcDbPolyline
 62
7
  6
CONTINUOUS
 90
12
 70
0
 10
16.0489544634
 20
7.1772694112
 10
16.0495196627
 20
7.1535285215
 10
16.0580138251
 20
7.0825765546
 10
16.076615761
 20
7.0125962646
 10
16.1051345892
 20
6.9443057439
 10
16.1432776682
 20
6.8784057457
 10
16.1906535981
 20
6.8155724931
 10
16.246776238
 20
6.7564507404
 10
16.3110696934
 20
6.7016471567
 10
16.3828742267
 20
6.6517241009
 10
16.4614530262
 20
6.6071938512
 10
16.5459997669
 20
6.5685133482
  0
LWPOLYLINE
  5
59F
100
AcDbEntity
  8
0
100
AcDbPolyline
 62
7
  6
CONTINUOUS
 90
49
 70
0
 10
16.0587950425
 20
10.9023631264
 10
16.0596730683
 20
10.9331878402
 10
16.0623094569
 20
10.9639884524
 10
16.0667058747
 20
10.9947099252
 10
16.0728726595
 20
11.0253452286
 10
16.0808061663
 20
11.055808128
 10
16.0904997241
 20
11.0860315294
 10
16.101973032
 20
11.1160251667
 10
16.1152204702
 20
11.1457164578
 10
16.130208059
 20
11.1749929944
 10
16.1469489037
 20
11.2038483788
 10
16.1654400261
 20
11.2322370004
 10
16.1856040023
 20
11.2600153809
 10
16.2074387762
 20
11.2871657241
 10
16.230941877
 20
11.313661423
 10
16.2559934353
 20
11.3393550675
 10
16.2825768891
 20
11.3642271427
 10
16.310680982
 20
11.388257111
 10
16.340160034
 20
11.4113181852
 10
16.3709904101
 20
11.4333966917
 10
16.4031449277
 20
11.454471687
 10
16.4364719299
 20
11.4744475608
 10
16.4709462383
 20
11.4933169877
 10
16.5065218225
 20
11.5110574618
 10
16.5430554191
 20
11.5276038005
 10
16.5805209485
 20
11.5429520683
 10
16.6188546903
 20
11.5570801415
 10
16.6579288353
 20
11.5699473224
 10
16.6977131284
 20
11.5815502154
 10
16.7381305372
 20
11.5918700816
 10
16.7790704071
 20
11.6008839697
 10
16.8204933313
 20
11.6085879527
 10
16.8623156392
 20
11.6149692404
 10
16.9044424722
 20
11.6200169489
 10
16.9468201103
 20
11.6237275178
 10
16.9893662278
 20
11.6260952861
 10
17.0319989274
 20
11.6271172708
 10
17.0746455864
 20
11.6267928605
 10
17.1172335602
 20
11.6251228575
 10
17.1596902767
 20
11.6221094807
 10
17.2019203916
 20
11.6177590901
 10
17.2438691743
 20
11.6120763042
 10
17.2854697833
 20
11.6050671659
 10
17.3266015656
 20
11.5967502877
 10
17.367233954
 20
11.5871296764
 10
17.4073007801
 20
11.5762155575
 10
17.4466544596
 20
11.5640457035
 10
17.4852965791
 20
11.5506166709
 10
17.5231616245
 20
11.5359430497
  0
LINE
  5
5A0
100
AcDbEntity
  8
AXIS
100
AcDbLine
 62
7
  6
CONTINUOUS
 10
16.0528895307
 20
9.8511909204
 11
16.0587950425
 21
9.8989208466
  0
LWPOLYLINE
  5
5A1
100
AcDbEntity
  8
AXIS
100
AcDbPolyline
 62
7
  6
CONTINUOUS
 90
13
 70
0
 10
16.5479682708
 20
7.7359801213
 10
16.7043932077
 20
7.6844022352
 10
16.8711079689
 20
7.6528150076
 10
17.043047011
 20
7.6421782004
 10
17.2149860531
 20
7.6528150076
 10
17.3817008143
 20
7.6844022352
 10
17.5381257512
 20
7.7359801213
 10
17.679507971
 20
7.8059814978
 10
17.8015516466
 20
7.8922794085
 10
17.9005485427
 20
7.9922517348
 10
17.9734906887
 20
8.1028608684
 10
18.0181617743
 20
8.2207460066
 10
18.0332044913
 20
8.3423252692
  0
LWPOLYLINE
  5
5A2
100
AcDbEntity
  8
AXIS
100
AcDbPolyline
 62
7
  6
CONTINUOUS
 90
7
 70
0
 10
16.5479682708
 20
7.7359801213
 10
16.406586051
 20
7.8059814978
 10
16.2845423754
 20
7.8922794085
 10
16.1855454793
 20
7.9922517348
 10
16.1126033333
 20
8.1028608684
 10
16.0679322477
 20
8.2207460066
 10
16.0528895307
 20
8.3423252692
  0
LINE
  5
5A3
100
AcDbEntity
  8
0
100
AcDbLine
 62
7
  6
CONTINUOUS
 10
16.0679322477
 20
7.0877048258
 11
16.0528895307
 21
7.2092840883
  0
LINE
  5
5A4
100
AcDbEntity
  8
0
100
AcDbLine
 62
7
  6
CONTINUOUS
 10
16.0587950425
 20
10.5961357802
 11
16.0681210652
 21
10.5005550873
  0
LWPOLYLINE
  5
5A5
100
AcDbEntity
  8
0
100
AcDbPolyline
 62
7
  6
CONTINUOUS
 90
25
 70
0
 10
16.0587950425
 20
10.9023631264
 10
16.0597318323
 20
10.8720052872
 10
16.0625404184
 20
10.8417052359
 10
16.0672154545
 20
10.8115206504
 10
16.0737480415
 20
10.7815089886
 10
16.0821257441
 20
10.7517273796
 10
16.092332615
 20
10.7222325143
 10
16.1043492248
 20
10.6930805378
 10
16.1181526992
 20
10.6643269427
 10
16.1337167625
 20
10.6360264629
 10
16.1510117875
 20
10.6082329702
 10
16.1700048524
 20
10.5809993709
 10
16.1906598025
 20
10.5543775057
 10
16.2129373202
 20
10.528418051
 10
16.2367949989
 20
10.503170422
 10
16.2621874241
 20
10.478682679
 10
16.2890662599
 20
10.4550014358
 10
16.3173803409
 20
10.432171771
 10
16.3470757697
 20
10.4102371421
 10
16.3780960193
 20
10.3892393031
 10
16.4103820408
 20
10.3692182244
 10
16.4438723761
 20
10.3502120173
 10
16.4785032744
 20
10.3322568613
 10
16.5142088138
 20
10.3153869349
 10
16.5509210267
 20
10.2996343511
  0
LINE
  5
5A6
100
AcDbEntity
  8
AXIS
100
AcDbLine
 62
7
  6
CONTINUOUS
 10
16.0489525228
 20
7.2083125348
 11
16.0489525228
 21
7.1772694112
  0
LINE
  5
5A7
100
AcDbEntity
  8
0
100
AcDbLine
 62
7
  6
CONTINUOUS
 10
16.0528895307
 20
7.2092840883
 11
16.0528895307
 21
7.5851085587
  0
LINE
  5
5A8
100
AcDbEntity
  8
AXIS
100
AcDbLine
 62
7
  6
CONTINUOUS
 10
16.0528895307
 20
8.3423252692
 11
16.0528895307
 21
8.7181497395
  0
LINE
  5
5A9
100
AcDbEntity
  8
AXIS
100
AcDbLine
 62
7
  6
CONTINUOUS
 10
16.0528895307
 20
9.4753664501
 11
16.0528895307
 21
9.8511909204
  0
LINE
  5
5AA
100
AcDbEntity
  8
AXIS
100
AcDbLine
 62
7
  6
CONTINUOUS
 10
16.0587950425
 20
7.5373786325
 11
16.0587950425
 21
8.2945953431
  0
LINE
  5
5AB
100
AcDbEntity
  8
AXIS
100
AcDbLine
 62
7
  6
CONTINUOUS
 10
16.0587950425
 20
8.6704198134
 11
16.0587950425
 21
9.427636524
  0
LINE
  5
5AC
100
AcDbEntity
  8
AXIS
100
AcDbLine
 62
7
  6
CONTINUOUS
 10
16.0587950425
 20
9.8034609943
 11
16.0587950425
 21
10.9023631264
  0
LINE
  5
5AD
100
AcDbEntity
  8
0
100
AcDbLine
 62
7
  6
CONTINUOUS
 10
16.0489525228
 20
7.2083125348
 11
16.0528895307
 21
7.266807004
  0
LINE
  5
5AE
100
AcDbEntity
  8
AXIS
100
AcDbLine
 62
7
  6
CONTINUOUS
 10
16.0528895307
 20
8.7181497395
 11
16.0587950425
 21
8.7658796657
  0
LINE
  5
5AF
100
AcDbEntity
  8
0
100
AcDbLine
 62
7
  6
CONTINUOUS
 10
16.0528895307
 20
7.5851085587
 11
16.0587950425
 21
7.6328384848
  0
LWPOLYLINE
  5
5B0
100
AcDbEntity
  8
AXIS
100
AcDbPolyline
 62
7
  6
CONTINUOUS
 90
13
 70
0
 10
16.5479682708
 20
8.1118045916
 10
16.7043932077
 20
8.0602267055
 10
16.8711079689
 20
8.028639478
 10
17.043047011
 20
8.0180026708
 10
17.2149860531
 20
8.028639478
 10
17.3817008143
 20
8.0602267055
 10
17.5381257512
 20
8.1118045916
 10
17.679507971
 20
8.1818059681
 10
17.8015516466
 20
8.2681038788
 10
17.9005485427
 20
8.3680762052
 10
17.9734906887
 20
8.4786853387
 10
18.0181617743
 20
8.5965704769
 10
18.0332044913
 20
8.7181497395
  0
LWPOLYLINE
  5
5B1
100
AcDbEntity
  8
AXIS
100
AcDbPolyline
 62
7
  6
CONTINUOUS
 90
7
 70
0
 10
16.5479682708
 20
8.1118045916
 10
16.406586051
 20
8.1818059681
 10
16.2845423754
 20
8.2681038788
 10
16.1855454793
 20
8.3680762052
 10
16.1126033333
 20
8.4786853387
 10
16.0679322477
 20
8.5965704769
 10
16.0528895307
 20
8.7181497395
  0
LWPOLYLINE
  5
5B2
100
AcDbEntity
  8
0
100
AcDbPolyline
 62
7
  6
CONTINUOUS
 90
5
 70
0
 10
16.456614546
 20
6.4212977715
 10
16.4660793399
 20
6.357747917
 10
16.4896845769
 20
6.2960340931
 10
16.5268517349
 20
6.2376943207
 10
16.5766699136
 20
6.1841839283
  0
LWPOLYLINE
  5
5B3
100
AcDbEntity
  8
0
100
AcDbPolyline
 62
7
  6
CONTINUOUS
 90
4
 70
0
 10
16.460444158
 20
6.4320533436
 10
16.4660793399
 20
6.39421681
 10
16.4896845769
 20
6.3325029862
 10
16.5268517349
 20
6.2741632137
  0
LWPOLYLINE
  5
5B4
100
AcDbEntity
  8
0
100
AcDbPolyline
 62
7
  6
CONTINUOUS
 90
5
 70
0
 10
16.456614546
 20
6.463056046
 10
16.4660793399
 20
6.3995061914
 10
16.4896845769
 20
6.3377923676
 10
16.5268517349
 20
6.2794525951
 10
16.5766699136
 20
6.2259422028
  0
LWPOLYLINE
  5
5B5
100
AcDbEntity
  8
0
100
AcDbPolyline
 62
7
  6
CONTINUOUS
 90
3
 70
0
 10
16.4612148368
 20
6.4686370176
 10
16.4660793399
 20
6.4359750845
 10
16.4896845769
 20
6.3742612606
  0
LWPOLYLINE
  5
5B6
100
AcDbEntity
  8
0
100
AcDbPolyline
 62
7
  6
CONTINUOUS
 90
3
 70
0
 10
16.4619855156
 20
6.4687517986
 10
16.4660793399
 20
6.4412644659
 10
16.4896845769
 20
6.3795506421
  0
LWPOLYLINE
  5
5B7
100
AcDbEntity
  8
0
100
AcDbPolyline
 62
7
  6
CONTINUOUS
 90
5
 70
0
 10
16.4564328378
 20
6.4261665364
 10
16.456614546
 20
6.4160083901
 10
16.4660793399
 20
6.3524585355
 10
16.4896845769
 20
6.2907447117
 10
16.5268517349
 20
6.2324049392
  0
LINE
  5
5B8
100
AcDbEntity
  8
0
100
AcDbLine
 62
7
  6
CONTINUOUS
 10
16.4564328378
 20
6.4314559178
 11
16.456614546
 21
6.4212977715
  0
LINE
  5
5B9
100
AcDbEntity
  8
0
100
AcDbLine
 62
7
  6
CONTINUOUS
 10
16.4564529592
 20
6.4720893308
 11
16.456614546
 21
6.463056046
  0
LINE
  5
5BA
100
AcDbEntity
  8
0
100
AcDbLine
 62
7
  6
CONTINUOUS
 10
16.0528895307
 20
7.2092840883
 11
16.0529785723
 21
7.2100037466
  0
LINE
  5
5BB
100
AcDbEntity
  8
0
100
AcDbLine
 62
7
  6
CONTINUOUS
 10
16.5766699136
 20
6.1788945469
 11
16.5766699136
 21
6.1841839283
  0
LINE
  5
5BC
100
AcDbEntity
  8
0
100
AcDbLine
 62
7
  6
CONTINUOUS
 10
16.5766699136
 20
6.2206528214
 11
16.5766699136
 21
6.2259422028
  0
LINE
  5
5BD
100
AcDbEntity
  8
0
100
AcDbLine
 62
7
  6
CONTINUOUS
 10
16.5766699136
 20
6.2624110959
 11
16.5766699136
 21
6.2677004773
  0
LINE
  5
5BE
100
AcDbEntity
  8
0
100
AcDbLine
 62
7
  6
CONTINUOUS
 10
16.5766699136
 20
6.3041693703
 11
16.5766699136
 21
6.3094587518
  0
LINE
  5
5BF
100
AcDbEntity
  8
0
100
AcDbLine
 62
7
  6
CONTINUOUS
 10
16.5766699136
 20
6.3459276448
 11
16.5766699136
 21
6.3512170262
  0
LINE
  5
5C0
100
AcDbEntity
  8
0
100
AcDbLine
 62
7
  6
CONTINUOUS
 10
16.5766699136
 20
6.3876859193
 11
16.5766699136
 21
6.3929753007
  0
LWPOLYLINE
  5
5C1
100
AcDbEntity
  8
0
100
AcDbPolyline
 62
7
  6
CONTINUOUS
 90
14
 70
0
 10
17.8731567018
 20
10.528418051
 10
17.8954342194
 20
10.5543775057
 10
17.9160891696
 20
10.5809993709
 10
17.9350822345
 20
10.6082329702
 10
17.9523772595
 20
10.6360264629
 10
17.9679413228
 20
10.6643269427
 10
17.9817447972
 20
10.6930805378
 10
17.9937614069
 20
10.7222325143
 10
18.0039682778
 20
10.7517273796
 10
18.0123459805
 20
10.7815089886
 10
18.0188785675
 20
10.8115206504
 10
18.0235536036
 20
10.8417052359
 10
18.0263621897
 20
10.8720052872
 10
18.0272989795
 20
10.9023631264
  0
LINE
  5
5C2
100
AcDbEntity
  8
0
100
AcDbLine
 62
7
  6
CONTINUOUS
 10
16.0681210652
 20
10.5005550873
 11
16.1036667872
 21
10.3883898626
  0
LINE
  5
5C3
100
AcDbEntity
  8
0
100
AcDbLine
 62
7
  6
CONTINUOUS
 10
16.6633864285
 20
6.0887940533
 11
16.6633864285
 21
6.1320815687
  0
LINE
  5
5C4
100
AcDbEntity
  8
0
100
AcDbLine
 62
7
  6
CONTINUOUS
 10
16.6825731547
 20
6.331356005
 11
16.6825731547
 21
6.3238180932
  0
LINE
  5
5C5
100
AcDbEntity
  8
0
100
AcDbLine
 62
7
  6
CONTINUOUS
 10
16.6825731547
 20
6.2895977305
 11
16.6825731547
 21
6.2820598187
  0
LINE
  5
5C6
100
AcDbEntity
  8
0
100
AcDbLine
 62
7
  6
CONTINUOUS
 10
16.6825731547
 20
6.247839456
 11
16.6825731547
 21
6.2403015442
  0
LINE
  5
5C7
100
AcDbEntity
  8
0
100
AcDbLine
 62
7
  6
CONTINUOUS
 10
16.6825731547
 20
6.2060811816
 11
16.6825731547
 21
6.1985432697
  0
LINE
  5
5C8
100
AcDbEntity
  8
0
100
AcDbLine
 62
7
  6
CONTINUOUS
 10
16.6825731547
 20
6.1643229071
 11
16.6825731547
 21
6.1567849953
  0
LINE
  5
5C9
100
AcDbEntity
  8
0
100
AcDbLine
 62
7
  6
CONTINUOUS
 10
16.7005542968
 20
6.069155677
 11
16.7005542968
 21
6.1140317122
  0
LINE
  5
5CA
100
AcDbEntity
  8
0
100
AcDbLine
 62
7
  6
CONTINUOUS
 10
16.8442011425
 20
6.0156505288
 11
16.8442011425
 21
6.0105120978
  0
LINE
  5
5CB
100
AcDbEntity
  8
0
100
AcDbLine
 62
7
  6
CONTINUOUS
 10
16.8621822846
 20
6.3023048778
 11
16.8621822846
 21
6.294766966
  0
LINE
  5
5CC
100
AcDbEntity
  8
0
100
AcDbLine
 62
7
  6
CONTINUOUS
 10
16.8621822846
 20
6.2605466034
 11
16.8621822846
 21
6.2530086915
  0
LINE
  5
5CD
100
AcDbEntity
  8
0
100
AcDbLine
 62
7
  6
CONTINUOUS
 10
16.8621822846
 20
6.2187883289
 11
16.8621822846
 21
6.2112504171
  0
LINE
  5
5CE
100
AcDbEntity
  8
0
100
AcDbLine
 62
7
  6
CONTINUOUS
 10
16.8621822846
 20
6.1770300544
 11
16.8621822846
 21
6.1694921426
  0
LINE
  5
5CF
100
AcDbEntity
  8
0
100
AcDbLine
 62
7
  6
CONTINUOUS
 10
16.8621822846
 20
6.1352717799
 11
16.8621822846
 21
6.1277338681
  0
LINE
  5
5D0
100
AcDbEntity
  8
0
100
AcDbLine
 62
7
  6
CONTINUOUS
 10
16.8621822846
 20
6.0935135054
 11
16.8621822846
 21
6.0859755936
  0
LINE
  5
5D1
100
AcDbEntity
  8
0
100
AcDbLine
 62
7
  6
CONTINUOUS
 10
16.8621822846
 20
6.051755231
 11
16.8621822846
 21
6.0442173191
  0
LINE
  5
5D2
100
AcDbEntity
  8
0
100
AcDbLine
 62
7
  6
CONTINUOUS
 10
16.4580283653
 20
6.4482737998
 11
16.4564328378
 21
6.4314559178
  0
LINE
  5
5D3
100
AcDbEntity
  8
0
100
AcDbLine
 62
7
  6
CONTINUOUS
 10
17.8028153336
 20
10.153697065
 11
17.8954342194
 21
10.2481501595
  0
LWPOLYLINE
  5
5D4
100
AcDbEntity
  8
AXIS
100
AcDbPolyline
 62
7
  6
CONTINUOUS
 90
7
 70
0
 10
16.5479682708
 20
8.8690213022
 10
16.406586051
 20
8.9390226787
 10
16.2845423754
 20
9.0253205893
 10
16.1855454793
 20
9.1252929157
 10
16.1126033333
 20
9.2359020493
 10
16.0679322477
 20
9.3537871875
 10
16.0528895307
 20
9.4753664501
  0
LINE
  5
5D5
100
AcDbEntity
  8
0
100
AcDbLine
 62
7
  6
CONTINUOUS
 10
16.8868370773
 20
6.0027665759
 11
16.8868370773
 21
5.9975707079
  0
LINE
  5
5D6
100
AcDbEntity
  8
0
100
AcDbLine
 62
7
  6
CONTINUOUS
 10
16.9680855257
 20
6.2801953262
 11
16.9680855257
 21
6.2749059448
  0
LINE
  5
5D7
100
AcDbEntity
  8
0
100
AcDbLine
 62
7
  6
CONTINUOUS
 10
16.9680855257
 20
6.2384370517
 11
16.9680855257
 21
6.2331476703
  0
LINE
  5
5D8
100
AcDbEntity
  8
0
100
AcDbLine
 62
7
  6
CONTINUOUS
 10
16.9680855257
 20
6.1966787772
 11
16.9680855257
 21
6.1913893958
  0
LINE
  5
5D9
100
AcDbEntity
  8
0
100
AcDbLine
 62
7
  6
CONTINUOUS
 10
16.9680855257
 20
6.1549205028
 11
16.9680855257
 21
6.1496311213
  0
LINE
  5
5DA
100
AcDbEntity
  8
0
100
AcDbLine
 62
7
  6
CONTINUOUS
 10
16.9680855257
 20
6.1131622283
 11
16.9680855257
 21
6.1078728469
  0
LINE
  5
5DB
100
AcDbEntity
  8
0
100
AcDbLine
 62
7
  6
CONTINUOUS
 10
16.9680855257
 20
6.0714039538
 11
16.9680855257
 21
6.0661145724
  0
LINE
  5
5DC
100
AcDbEntity
  8
0
100
AcDbLine
 62
7
  6
CONTINUOUS
 10
16.9680855257
 20
6.0296456793
 11
16.9680855257
 21
6.0243562979
  0
LINE
  5
5DD
100
AcDbEntity
  8
0
100
AcDbLine
 62
7
  6
CONTINUOUS
 10
16.9680855257
 20
5.9878874048
 11
16.9680855257
 21
5.9825980234
  0
LINE
  5
5DE
100
AcDbEntity
  8
0
100
AcDbLine
 62
7
  6
CONTINUOUS
 10
17.8954342194
 20
10.2481501595
 11
17.9648056884
 21
10.3520939005
  0
LWPOLYLINE
  5
5DF
100
AcDbEntity
  8
AXIS
100
AcDbPolyline
 62
7
  6
CONTINUOUS
 90
13
 70
0
 10
16.5479682708
 20
8.8690213022
 10
16.7043932077
 20
8.8174434161
 10
16.8711079689
 20
8.7858561885
 10
17.043047011
 20
8.7752193813
 10
17.2149860531
 20
8.7858561885
 10
17.3817008143
 20
8.8174434161
 10
17.5381257512
 20
8.8690213022
 10
17.679507971
 20
8.9390226787
 10
17.8015516466
 20
9.0253205893
 10
17.9005485427
 20
9.1252929157
 10
17.9734906887
 20
9.2359020493
 10
18.0181617743
 20
9.3537871875
 10
18.0332044913
 20
9.4753664501
  0
LINE
  5
5E0
100
AcDbEntity
  8
0
100
AcDbLine
 62
7
  6
CONTINUOUS
 10
16.1036667872
 20
10.3883898626
 11
16.1648373299
 21
10.2818908967
  0
LWPOLYLINE
  5
5E1
100
AcDbEntity
  8
AXIS
100
AcDbPolyline
 62
7
  6
CONTINUOUS
 90
7
 70
0
 10
16.5479682708
 20
9.2448457725
 10
16.406586051
 20
9.314847149
 10
16.2845423754
 20
9.4011450596
 10
16.1855454793
 20
9.501117386
 10
16.1126033333
 20
9.6117265196
 10
16.0679322477
 20
9.7296116578
 10
16.0528895307
 20
9.8511909204
  0
LINE
  5
5E2
100
AcDbEntity
  8
0
100
AcDbLine
 62
7
  6
CONTINUOUS
 10
17.9648056884
 20
10.3520939005
 11
18.0090390879
 21
10.4626980704
  0
LWPOLYLINE
  5
5E3
100
AcDbEntity
  8
AXIS
100
AcDbPolyline
 62
7
  6
CONTINUOUS
 90
13
 70
0
 10
16.5479682708
 20
9.2448457725
 10
16.7043932077
 20
9.1932678864
 10
16.8711079689
 20
9.1616806588
 10
17.043047011
 20
9.1510438516
 10
17.2149860531
 20
9.1616806588
 10
17.3817008143
 20
9.1932678864
 10
17.5381257512
 20
9.2448457725
 10
17.679507971
 20
9.314847149
 10
17.8015516466
 20
9.4011450596
 10
17.9005485427
 20
9.501117386
 10
17.9734906887
 20
9.6117265196
 10
18.0181617743
 20
9.7296116578
 10
18.0332044913
 20
9.8511909204
  0
LINE
  5
5E4
100
AcDbEntity
  8
0
100
AcDbLine
 62
7
  6
CONTINUOUS
 10
16.1648373299
 20
10.2818908967
 11
16.2499644728
 21
10.1839634709
  0
LWPOLYLINE
  5
5E5
100
AcDbEntity
  8
0
100
AcDbPolyline
 62
7
  6
CONTINUOUS
 90
3
 70
0
 10
17.6296611842
 20
6.4105767806
 10
17.629479476
 20
6.421065776
 10
17.628132512
 20
6.4304061925
  0
LWPOLYLINE
  5
5E6
100
AcDbEntity
  8
0
100
AcDbPolyline
 62
7
  6
CONTINUOUS
 90
3
 70
0
 10
17.6296611842
 20
6.4523350551
 10
17.629479476
 20
6.4628240504
 10
17.6282779767
 20
6.4711557529
  0
LINE
  5
5E7
100
AcDbEntity
  8
0
100
AcDbLine
 62
7
  6
CONTINUOUS
 10
16.2499644728
 20
10.1839634709
 11
16.3567262495
 21
10.0972792127
  0
LINE
  5
5E8
100
AcDbEntity
  8
0
100
AcDbLine
 62
7
  6
CONTINUOUS
 10
17.6245718617
 20
6.4386964406
 11
17.6275032465
 21
6.4706043418
  0
LINE
  5
5E9
100
AcDbEntity
  8
0
100
AcDbLine
 62
7
  6
CONTINUOUS
 10
17.6245718617
 20
6.4334070592
 11
17.6280231806
 21
6.4709744028
  0
LINE
  5
5EA
100
AcDbEntity
  8
0
100
AcDbLine
 62
7
  6
CONTINUOUS
 10
17.6245718617
 20
6.3969381661
 11
17.6296611842
 21
6.4523350551
  0
LINE
  5
5EB
100
AcDbEntity
  8
0
100
AcDbLine
 62
7
  6
CONTINUOUS
 10
17.6245718617
 20
6.3916487847
 11
17.6296611842
 21
6.4470456736
  0
LINE
  5
5EC
100
AcDbEntity
  8
0
100
AcDbLine
 62
7
  6
CONTINUOUS
 10
17.6245718617
 20
6.3551798916
 11
17.6296611842
 21
6.4105767806
  0
LWPOLYLINE
  5
5ED
100
AcDbEntity
  8
0
100
AcDbPolyline
 62
7
  6
CONTINUOUS
 90
3
 70
0
 10
18.0090390879
 20
10.4626980704
 10
18.0269247207
 20
10.576944768
 10
18.0272989795
 20
10.5961357802
  0
LINE
  5
5EE
100
AcDbEntity
  8
0
100
AcDbLine
 62
7
  6
CONTINUOUS
 10
16.3567262495
 20
10.0972792127
 11
16.4822103313
 21
10.0242030236
  0
LINE
  5
5EF
100
AcDbEntity
  8
0
100
AcDbLine
 62
7
  6
CONTINUOUS
 10
18.0332044913
 20
7.2092840883
 11
18.0331154497
 21
7.2100037466
  0
LINE
  5
5F0
100
AcDbEntity
  8
0
100
AcDbLine
 62
7
  6
CONTINUOUS
 10
18.0332044913
 20
7.5851085587
 11
18.0272989795
 21
7.6328384848
  0
LWPOLYLINE
  5
5F1
100
AcDbEntity
  8
0
100
AcDbPolyline
 62
7
  6
CONTINUOUS
 90
3
 70
0
 10
18.0371414992
 20
7.2083125348
 10
18.0360150937
 20
7.2417657721
 10
18.0332044913
 20
7.2583863166
  0
LINE
  5
5F2
100
AcDbEntity
  8
AXIS
100
AcDbLine
 62
7
  6
CONTINUOUS
 10
18.0272989795
 20
7.5373786325
 11
18.0272989795
 21
8.2945953431
  0
LINE
  5
5F3
100
AcDbEntity
  8
AXIS
100
AcDbLine
 62
7
  6
CONTINUOUS
 10
18.0272989795
 20
8.6704198134
 11
18.0272989795
 21
9.427636524
  0
LINE
  5
5F4
100
AcDbEntity
  8
AXIS
100
AcDbLine
 62
7
  6
CONTINUOUS
 10
18.0272989795
 20
9.8034609943
 11
18.0272989795
 21
10.9023631264
  0
LINE
  5
5F5
100
AcDbEntity
  8
0
100
AcDbLine
 62
7
  6
CONTINUOUS
 10
18.0332044913
 20
7.2092840883
 11
18.0332044913
 21
7.5851085587
  0
LINE
  5
5F6
100
AcDbEntity
  8
AXIS
100
AcDbLine
 62
7
  6
CONTINUOUS
 10
18.0332044913
 20
8.3423252692
 11
18.0332044913
 21
8.7181497395
  0
LINE
  5
5F7
100
AcDbEntity
  8
AXIS
100
AcDbLine
 62
7
  6
CONTINUOUS
 10
18.0332044913
 20
9.4753664501
 11
18.0332044913
 21
9.8511909204
  0
LINE
  5
5F8
100
AcDbEntity
  8
AXIS
100
AcDbLine
 62
7
  6
CONTINUOUS
 10
18.0371414992
 20
7.2083125348
 11
18.0371414992
 21
7.1772694112
  0
LWPOLYLINE
  5
5F9
100
AcDbEntity
  8
0
100
AcDbPolyline
 62
7
  6
CONTINUOUS
 90
49
 70
0
 10
18.0272989795
 20
10.5961357802
 10
18.0263621897
 20
10.565777941
 10
18.0235536036
 20
10.5354778897
 10
18.0188785675
 20
10.5052933042
 10
18.0123459805
 20
10.4752816424
 10
18.0039682778
 20
10.4455000334
 10
17.9937614069
 20
10.4160051681
 10
17.9817447972
 20
10.3868531917
 10
17.9679413228
 20
10.3580995965
 10
17.9523772595
 20
10.3297991168
 10
17.9350822345
 20
10.302005624
 10
17.9160891696
 20
10.2747720247
 10
17.8954342194
 20
10.2481501595
 10
17.8731567018
 20
10.2221907048
 10
17.8492990231
 20
10.1969430758
 10
17.8239065979
 20
10.1724553328
 10
17.7970277621
 20
10.1487740896
 10
17.7687136811
 20
10.1259444248
 10
17.7390182523
 20
10.104009796
 10
17.7079980027
 20
10.0830119569
 10
17.6757119812
 20
10.0629908782
 10
17.6422216458
 20
10.0439846712
 10
17.6075907476
 20
10.0260295151
 10
17.5718852082
 20
10.0091595887
 10
17.5351729952
 20
9.9934070049
 10
17.4975239925
 20
9.9788017496
 10
17.459009867
 20
9.9653716246
 10
17.4197039326
 20
9.9531421951
 10
17.3796810103
 20
9.9421367405
 10
17.3390172861
 20
9.9323762101
 10
17.2977901656
 20
9.9238791839
 10
17.2560781271
 20
9.9166618362
 10
17.2139605717
 20
9.9107379059
 10
17.1715176726
 20
9.9061186693
 10
17.1288302224
 20
9.9028129196
 10
17.0859794789
 20
9.9008269493
 10
17.043047011
 20
9.9001645389
 10
17.0001145431
 20
9.9008269493
 10
16.9572637996
 20
9.9028129196
 10
16.9145763494
 20
9.9061186693
 10
16.8721334503
 20
9.9107379059
 10
16.8300158949
 20
9.9166618362
 10
16.7883038564
 20
9.9238791839
 10
16.7470767359
 20
9.9323762101
 10
16.7064130117
 20
9.9421367405
 10
16.6663900894
 20
9.9531421951
 10
16.627084155
 20
9.9653716246
 10
16.5885700295
 20
9.9788017496
 10
16.5509210267
 20
9.9934070049
  0
LWPOLYLINE
  5
5FA
100
AcDbEntity
  8
0
100
AcDbPolyline
 62
7
  6
CONTINUOUS
 90
10
 70
0
 10
16.4822103313
 20
10.0242030236
 10
16.6229935411
 20
9.9667285114
 10
16.7752352612
 20
9.9264236017
 10
16.9347822421
 20
9.904387749
 10
17.0972819196
 20
9.9012219322
 10
17.2583012464
 20
9.9170122452
 10
17.4134478829
 20
9.9513276182
 10
17.5584898238
 20
10.0032316378
 10
17.6894700918
 20
10.0713076473
 10
17.8028153336
 20
10.153697065
  0
LWPOLYLINE
  5
5FB
100
AcDbEntity
  8
0
100
AcDbPolyline
 62
7
  6
CONTINUOUS
 90
25
 70
0
 10
16.5509210267
 20
9.9934070049
 10
16.5142088138
 20
10.0091595887
 10
16.4785032744
 20
10.0260295151
 10
16.4438723761
 20
10.0439846712
 10
16.4103820408
 20
10.0629908782
 10
16.3780960192
 20
10.0830119569
 10
16.3470757697
 20
10.104009796
 10
16.3173803409
 20
10.1259444248
 10
16.2890662599
 20
10.1487740896
 10
16.2621874241
 20
10.1724553328
 10
16.2367949989
 20
10.1969430758
 10
16.2129373202
 20
10.2221907048
 10
16.1906598025
 20
10.2481501595
 10
16.1700048524
 20
10.2747720247
 10
16.1510117875
 20
10.302005624
 10
16.1337167625
 20
10.3297991168
 10
16.1181526992
 20
10.3580995965
 10
16.1043492248
 20
10.3868531917
 10
16.092332615
 20
10.4160051681
 10
16.0821257441
 20
10.4455000334
 10
16.0737480415
 20
10.4752816424
 10
16.0672154545
 20
10.5052933042
 10
16.0625404184
 20
10.5354778897
 10
16.0597318323
 20
10.565777941
 10
16.0587950425
 20
10.5961357802
  0
LINE
  5
5FC
100
AcDbEntity
  8
AXIS
100
AcDbLine
 62
7
  6
CONTINUOUS
 10
18.0332044913
 20
8.7181497395
 11
18.0272989795
 21
8.7658796657
  0
LWPOLYLINE
  5
5FD
100
AcDbEntity
  8
AXIS
100
AcDbPolyline
 62
7
  6
CONTINUOUS
 90
12
 70
0
 10
18.0371395586
 20
7.1772694113
 10
18.0348735866
 20
7.1298147205
 10
18.0229953311
 20
7.0591060893
 10
18.0010614798
 20
6.9896099737
 10
17.9692971037
 20
6.9220394979
 10
17.9280281481
 20
6.8570880264
 10
17.8776780885
 20
6.7954220492
 10
17.8187635847
 20
6.7376743426
 10
17.7518891791
 20
6.6844374763
 10
17.6777410936
 20
6.6362577325
 10
17.5970801879
 20
6.5936295007
 10
17.5107341521
 20
6.5569902042
  0
LINE
  5
5FE
100
AcDbEntity
  8
0
100
AcDbLine
 62
7
  6
CONTINUOUS
 10
18.0326408489
 20
7.1414997836
 11
18.0371414992
 21
7.2083125348
  0
LINE
  5
5FF
100
AcDbEntity
  8
0
100
AcDbLine
 62
7
  6
CONTINUOUS
 10
18.0181617743
 20
7.0877048258
 11
18.0332044913
 21
7.2092840883
  0
LWPOLYLINE
  5
600
100
AcDbEntity
  8
0
100
AcDbPolyline
 62
7
  6
CONTINUOUS
 90
36
 70
0
 10
16.5509210267
 20
10.2996343511
 10
16.5885700295
 20
10.2850290958
 10
16.6270841549
 20
10.2715989708
 10
16.6663900894
 20
10.2593695413
 10
16.7064130117
 20
10.2483640866
 10
16.7470767359
 20
10.2386035563
 10
16.7883038564
 20
10.23010653
 10
16.8300158949
 20
10.2228891824
 10
16.8721334503
 20
10.2169652521
 10
16.9145763494
 20
10.2123460155
 10
16.9572637996
 20
10.2090402658
 10
17.0001145431
 20
10.2070542955
 10
17.043047011
 20
10.2063918851
 10
17.0859794789
 20
10.2070542955
 10
17.1288302224
 20
10.2090402658
 10
17.1715176726
 20
10.2123460155
 10
17.2139605717
 20
10.2169652521
 10
17.2560781271
 20
10.2228891824
 10
17.2977901656
 20
10.23010653
 10
17.3390172861
 20
10.2386035563
 10
17.3796810103
 20
10.2483640866
 10
17.4197039326
 20
10.2593695413
 10
17.459009867
 20
10.2715989708
 10
17.4975239925
 20
10.2850290958
 10
17.5351729952
 20
10.2996343511
 10
17.5718852082
 20
10.3153869349
 10
17.6075907476
 20
10.3322568613
 10
17.6422216458
 20
10.3502120173
 10
17.6757119812
 20
10.3692182244
 10
17.7079980027
 20
10.3892393031
 10
17.7390182523
 20
10.4102371421
 10
17.7687136811
 20
10.432171771
 10
17.7970277621
 20
10.4550014358
 10
17.8239065979
 20
10.478682679
 10
17.8492990231
 20
10.503170422
 10
17.8731567018
 20
10.528418051
  0
LINE
  5
601
100
AcDbEntity
  8
AXIS
100
AcDbLine
 62
7
  6
CONTINUOUS
 10
18.0332044913
 20
9.8511909204
 11
18.0272989795
 21
9.8989208466
  0
LWPOLYLINE
  5
602
100
AcDbEntity
  8
AXIS
100
AcDbPolyline
 62
7
  6
CONTINUOUS
 90
19
 70
0
 10
17.9052809642
 20
6.8292285296
 10
17.9007248127
 20
6.8132209184
 10
17.8717448972
 20
6.7485682836
 10
17.8330492566
 20
6.6865102088
 10
17.7850915619
 20
6.6277742683
 10
17.7284340734
 20
6.5730490872
 10
17.6637410483
 20
6.5229762683
 10
17.591770953
 20
6.4781428696
 10
17.5133675713
 20
6.4390745217
 10
17.4294501109
 20
6.4062292652
 10
17.3410024276
 20
6.3799921808
 10
17.2490614894
 20
6.3606708743
 10
17.1547052198
 20
6.3484918703
 10
17.0590398597
 20
6.3435979565
 10
16.9631869982
 20
6.3460465096
 10
16.8682704223
 20
6.3558088226
 10
16.7754029421
 20
6.3727704412
 10
16.6856733439
 20
6.3967325059
 10
16.6001336252
 20
6.4274140836
  0
LWPOLYLINE
  5
603
100
AcDbEntity
  8
AXIS
100
AcDbPolyline
 62
7
  6
CONTINUOUS
 90
11
 70
0
 10
17.9076104154
 20
6.832081513
 10
17.8923229547
 20
6.7793653922
 10
17.8462282139
 20
6.6875449433
 10
17.7822912338
 20
6.6015508302
 10
17.7010098952
 20
6.5229224042
 10
17.6047646503
 20
6.4544202372
 10
17.4960183241
 20
6.3976987281
 10
17.3774101012
 20
6.3539167983
 10
17.2520802488
 20
6.3239347619
 10
17.1224138151
 20
6.3080752305
 10
16.9913911094
 20
6.3065565812
  0
LWPOLYLINE
  5
604
100
AcDbEntity
  8
0
100
AcDbPolyline
 62
7
  6
CONTINUOUS
 90
69
 70
0
 10
16.6706715946
 20
10.4036180919
 10
16.7071064368
 20
10.3923772107
 10
16.7442190522
 20
10.3823031805
 10
16.7819330715
 20
10.3734167768
 10
16.8201730888
 20
10.3657357524
 10
16.8588619077
 20
10.3592756183
 10
16.8979216736
 20
10.3540493727
 10
16.937273704
 20
10.350067544
 10
16.9768387537
 20
10.3473381504
 10
17.0165371404
 20
10.3458666888
 10
17.0562889156
 20
10.3456561226
 10
17.0960140228
 20
10.3467068759
 10
17.1356324593
 20
10.3490168325
 10
17.1750644371
 20
10.3525813404
 10
17.2142305439
 20
10.357393221
 10
17.2530519026
 20
10.3634427837
 10
17.2914503306
 20
10.3707178451
 10
17.3293484969
 20
10.3792037539
 10
17.3666700781
 20
10.3888834203
 10
17.403339912
 20
10.3997373504
 10
17.4392841487
 20
10.4117436852
 10
17.4744304
 20
10.4248782452
 10
17.5087078844
 20
10.4391145785
 10
17.5420475702
 20
10.4544240144
 10
17.5743823143
 20
10.4707757212
 10
17.6056469976
 20
10.488136768
 10
17.6357786557
 20
10.5064721912
 10
17.6647166062
 20
10.5257450649
 10
17.6924025709
 20
10.5459165754
 10
17.7187807926
 20
10.566946099
 10
17.743798148
 20
10.5887912843
 10
17.7674042544
 20
10.6114081369
 10
17.7895515713
 20
10.6347511086
 10
17.8101954961
 20
10.6587731889
 10
17.8292944537
 20
10.6834259993
 10
17.8468099805
 20
10.7086598915
 10
17.862706802
 20
10.7344240465
 10
17.8769529033
 20
10.7606665779
 10
17.8895195941
 20
10.7873346355
 10
17.9003815662
 20
10.8143745122
 10
17.9095169446
 20
10.8417317523
 10
17.9169073315
 20
10.8693512607
 10
17.9225378433
 20
10.8971774143
 10
17.9263971407
 20
10.9251541737
 10
17.9284774514
 20
10.9532251962
 10
17.9287745859
 20
10.9813339495
 10
17.9272879457
 20
11.009423825
 10
17.9240205248
 20
11.0374382522
 10
17.9189789035
 20
11.0653208128
 10
17.9121732351
 20
11.0930153536
 10
17.9036172257
 20
11.1204661005
 10
17.8933281063
 20
11.1476177702
 10
17.8813265982
 20
11.1744156816
 10
17.8676368713
 20
11.2008058662
 10
17.8522864956
 20
11.2267351766
 10
17.8353063853
 20
11.2521513935
 10
17.8167307368
 20
11.2770033309
 10
17.7965969597
 20
11.3012409394
 10
17.7749456018
 20
11.3248154065
 10
17.7518202664
 20
11.3476792557
 10
17.7272675273
 20
11.3697864403
 10
17.7013368271
 20
11.3910924417
 10
17.674080402
 20
11.411554341
 10
17.6455530981
 20
11.4311309619
 10
17.6158125122
 20
11.4497827856
 10
17.5849180866
 20
11.4674725142
 10
17.5529334555
 20
11.4841637663
 10
17.5199201549
 20
11.4998243779
 10
17.4859603968
 20
11.5144161483
  0
LINE
  5
605
100
AcDbEntity
  8
0
100
AcDbLine
 62
7
  6
CONTINUOUS
 10
16.6349846882
 20
10.4160042226
 11
16.6706715946
 21
10.4036180919
  0
LINE
  5
606
100
AcDbEntity
  8
0
100
AcDbLine
 62
7
  6
CONTINUOUS
 10
16.6001336252
 20
10.4295043528
 11
16.6349846882
 21
10.4160042226
  0
LWPOLYLINE
  5
607
100
AcDbEntity
  8
0
100
AcDbPolyline
 62
7
  6
CONTINUOUS
 90
3
 70
0
 10
17.5724698098
 20
6.3907169323
 10
17.6054121159
 20
6.452373931
 10
17.6063556136
 20
6.4555525989
  0
LWPOLYLINE
  5
608
100
AcDbEntity
  8
0
100
AcDbPolyline
 62
7
  6
CONTINUOUS
 90
3
 70
0
 10
17.5724698098
 20
6.3489586578
 10
17.6054121159
 20
6.4106156565
 10
17.6220702834
 20
6.4667374521
  0
LWPOLYLINE
  5
609
100
AcDbEntity
  8
0
100
AcDbPolyline
 62
7
  6
CONTINUOUS
 90
3
 70
0
 10
17.5724698098
 20
6.3124897648
 10
17.6054121159
 20
6.3741467634
 10
17.6245718617
 20
6.4386964406
  0
LWPOLYLINE
  5
60A
100
AcDbEntity
  8
0
100
AcDbPolyline
 62
7
  6
CONTINUOUS
 90
11
 70
0
 10
17.2650856341
 20
6.0072703271
 10
17.2545920347
 20
5.9912712318
 10
17.2328803384
 20
5.9682375307
 10
17.2064950824
 20
5.9478813315
 10
17.1760860197
 20
5.9306861862
 10
17.1424011315
 20
5.9170577445
 10
17.1062691487
 20
5.9073143478
 10
17.0685808911
 20
5.9016791417
 10
17.0302635407
 20
5.9002736102
 10
16.992259554
 20
5.9031154871
 10
16.9555061455
 20
5.9101177998
  0
LWPOLYLINE
  5
60B
100
AcDbEntity
  8
0
100
AcDbPolyline
 62
7
  6
CONTINUOUS
 90
3
 70
0
 10
17.9005485427
 20
6.859210554
 10
17.9734906887
 20
6.9698196875
 10
18.0181617743
 20
7.0877048258
  0
LWPOLYLINE
  5
60C
100
AcDbEntity
  8
0
100
AcDbPolyline
 62
7
  6
CONTINUOUS
 90
12
 70
0
 10
17.2479689456
 20
5.984244869
 10
17.2433336455
 20
5.9774356177
 10
17.2222515828
 20
5.9558820556
 10
17.1970922121
 20
5.9372010297
 10
17.1685352036
 20
5.9216847038
 10
17.1370356069
 20
5.9094959503
 10
17.1031557834
 20
5.9008830385
 10
17.0680912036
 20
5.896145718
 10
17.0324832027
 20
5.8953395947
 10
16.9968701
 20
5.8985430518
 10
16.9625883503
 20
5.9056886255
 10
16.9308950208
 20
5.9164143664
  0
LWPOLYLINE
  5
60D
100
AcDbEntity
  8
0
100
AcDbPolyline
 62
7
  6
CONTINUOUS
 90
3
 70
0
 10
17.2194911631
 20
5.9429644148
 10
17.2321928399
 20
5.9614534974
 10
17.2360529009
 20
5.9699920396
  0
LWPOLYLINE
  5
60E
100
AcDbEntity
  8
0
100
AcDbPolyline
 62
7
  6
CONTINUOUS
 90
4
 70
0
 10
17.9039580976
 20
6.8568470654
 10
17.9659334088
 20
6.947061173
 10
18.0091207141
 20
7.0425937194
 10
18.0326408489
 20
7.1414997836
  0
LINE
  5
60F
100
AcDbEntity
  8
0
100
AcDbLine
 62
7
  6
CONTINUOUS
 10
17.8244564906
 20
6.7737880381
 11
17.9039580976
 21
6.8568470654
  0
LINE
  5
610
100
AcDbEntity
  8
0
100
AcDbLine
 62
7
  6
CONTINUOUS
 10
17.8015516466
 20
6.7592382276
 11
17.9005485427
 21
6.859210554
  0
LWPOLYLINE
  5
611
100
AcDbEntity
  8
0
100
AcDbPolyline
 62
7
  6
CONTINUOUS
 90
17
 70
0
 10
17.2194911631
 20
5.9429644148
 10
17.2031975923
 20
5.9259417167
 10
17.1836438175
 20
5.9107319363
 10
17.1612278971
 20
5.8976447009
 10
17.1364061547
 20
5.8869464287
 10
17.1096838893
 20
5.8788549059
 10
17.0816050893
 20
5.8735348524
 10
17.052741358
 20
5.8710945692
 10
17.0236802778
 20
5.8715837335
 10
16.9950134483
 20
5.8749923872
 10
16.9673244438
 20
5.88125114
 10
16.9411769323
 20
5.8902325817
 10
16.9171032018
 20
5.9017538762
 10
16.8955933241
 20
5.915580483
 10
16.8770851782
 20
5.9314309323
 10
16.8619555367
 20
5.9489825546
 10
16.8562497355
 20
5.9584042628
  0
LWPOLYLINE
  5
612
100
AcDbEntity
  8
0
100
AcDbPolyline
 62
7
  6
CONTINUOUS
 90
4
 70
0
 10
17.2289958228
 20
5.9958926629
 10
17.22549008
 20
5.992499853
 10
17.1972520021
 20
5.9726869191
 10
17.1651828378
 20
5.956352453
  0
LWPOLYLINE
  5
613
100
AcDbEntity
  8
AXIS
100
AcDbPolyline
 62
7
  6
CONTINUOUS
 90
4
 70
0
 10
17.5107341521
 20
6.5569902042
 10
17.4195890134
 20
6.5267158117
 10
17.3245800442
 20
6.5031169794
 10
17.2266821651
 20
6.4864358634
  0
LWPOLYLINE
  5
614
100
AcDbEntity
  8
0
100
AcDbPolyline
 62
7
  6
CONTINUOUS
 90
8
 70
0
 10
17.4488345573
 20
6.1018573351
 10
17.4387450159
 20
6.0930625187
 10
17.3746055761
 20
6.0522096116
 10
17.3025292827
 20
6.0190748018
 10
17.2244028051
 20
5.9944446693
 10
17.1420772644
 20
5.9788167473
 10
17.0574687362
 20
5.9725015419
 10
16.9725759941
 20
5.9756191129
  0
LWPOLYLINE
  5
615
100
AcDbEntity
  8
0
100
AcDbPolyline
 62
7
  6
CONTINUOUS
 90
4
 70
0
 10
17.4005835123
 20
6.1956292076
 10
17.4687849429
 20
6.2401577007
 10
17.5265523002
 20
6.2916799146
 10
17.5724698098
 20
6.3489586578
  0
LWPOLYLINE
  5
616
100
AcDbEntity
  8
0
100
AcDbPolyline
 62
7
  6
CONTINUOUS
 90
7
 70
0
 10
17.1580948753
 20
5.9818573829
 10
17.1427345474
 20
5.9756311293
 10
17.1066824884
 20
5.9658622851
 10
17.0692204928
 20
5.9602005311
 10
17.0309921815
 20
5.958722199
 10
16.9925916375
 20
5.9615334862
 10
16.9554453066
 20
5.9685947226
  0
LWPOLYLINE
  5
617
100
AcDbEntity
  8
0
100
AcDbPolyline
 62
7
  6
CONTINUOUS
 90
5
 70
0
 10
17.1426765022
 20
5.9449889004
 10
17.1760749769
 20
5.9585197266
 10
17.2061987682
 20
5.9755246089
 10
17.2325877562
 20
5.9958129743
 10
17.234218513
 20
5.9975391668
  0
LWPOLYLINE
  5
618
100
AcDbEntity
  8
0
100
AcDbPolyline
 62
7
  6
CONTINUOUS
 90
71
 70
0
 10
17.4859603968
 20
11.5144161483
 10
17.4511093338
 20
11.5279162785
 10
17.4154224274
 20
11.5403024092
 10
17.3789875852
 20
11.5515432903
 10
17.3418749697
 20
11.5616173205
 10
17.3041609505
 20
11.5705037243
 10
17.2659209332
 20
11.5781847486
 10
17.2272321143
 20
11.5846448827
 10
17.1881723483
 20
11.5898711283
 10
17.1488203179
 20
11.5938529571
 10
17.1092552683
 20
11.5965823507
 10
17.0695568816
 20
11.5980538123
 10
17.0298051064
 20
11.5982643785
 10
16.9900799992
 20
11.5972136252
 10
16.9504615627
 20
11.5949036686
 10
16.9110295849
 20
11.5913391606
 10
16.8718634781
 20
11.58652728
 10
16.8330421194
 20
11.5804777174
 10
16.7946436914
 20
11.573202656
 10
16.7567455251
 20
11.5647167471
 10
16.7194239439
 20
11.5550370807
 10
16.68275411
 20
11.5441831507
 10
16.6468098733
 20
11.5321768158
 10
16.611663622
 20
11.5190422559
 10
16.5773861376
 20
11.5048059226
 10
16.5440464518
 20
11.4894964866
 10
16.5117117077
 20
11.4731447798
 10
16.4804470244
 20
11.4557837331
 10
16.4503153663
 20
11.4374483099
 10
16.4213774158
 20
11.4181754361
 10
16.3936914511
 20
11.3980039257
 10
16.3673132294
 20
11.376974402
 10
16.342295874
 20
11.3551292168
 10
16.3186897676
 20
11.3325123642
 10
16.2965424507
 20
11.3091693924
 10
16.2758985259
 20
11.2851473122
 10
16.2567995683
 20
11.2604945017
 10
16.2392840415
 20
11.2352606096
 10
16.22338722
 20
11.2094964545
 10
16.2091411187
 20
11.1832539231
 10
16.1965744279
 20
11.1565858656
 10
16.1857124558
 20
11.1295459888
 10
16.1765770774
 20
11.1021887487
 10
16.1691866905
 20
11.0745692403
 10
16.1635561786
 20
11.0467430868
 10
16.1596968813
 20
11.0187663274
 10
16.1576165706
 20
10.9906953048
 10
16.1573194361
 20
10.9625865516
 10
16.1588060763
 20
10.9344966761
 10
16.1620734972
 20
10.9064822488
 10
16.1671151185
 20
10.8785996883
 10
16.1739207869
 20
10.8509051474
 10
16.1824767963
 20
10.8234544005
 10
16.1927659157
 20
10.7963027309
 10
16.2047674238
 20
10.7695048195
 10
16.2184571507
 20
10.7431146349
 10
16.2338075264
 20
10.7171853245
 10
16.2507876367
 20
10.6917691076
 10
16.2693632852
 20
10.6669171701
 10
16.2894970623
 20
10.6426795616
 10
16.3111484202
 20
10.6191050945
 10
16.3342737556
 20
10.5962412453
 10
16.3588264947
 20
10.5741340608
 10
16.3847571949
 20
10.5528280593
 10
16.41201362
 20
10.53236616
 10
16.4405409239
 20
10.5127895392
 10
16.4702815098
 20
10.4941377154
 10
16.5011759354
 20
10.4764479869
 10
16.5331605665
 20
10.4597567348
 10
16.5661738671
 20
10.4440961231
 10
16.6001336252
 20
10.4295043528
  0
LWPOLYLINE
  5
619
100
AcDbEntity
  8
0
100
AcDbPolyline
 62
7
  6
CONTINUOUS
 90
26
 70
0
 10
17.5231616245
 20
11.5359430497
 10
17.5595860034
 20
11.5203101771
 10
17.5950904825
 20
11.5035249063
 10
17.6296086653
 20
11.4856122817
 10
17.6629658965
 20
11.4666643284
 10
17.695220015
 20
11.4466490494
 10
17.7263106364
 20
11.4255953061
 10
17.756057782
 20
11.4036268792
 10
17.7845243876
 20
11.3806999474
 10
17.8116453706
 20
11.3568592971
 10
17.837248322
 20
11.332264645
 10
17.8613969556
 20
11.3068662721
 10
17.8840432833
 20
11.2807137491
 10
17.9050525968
 20
11.2539798938
 10
17.9244743516
 20
11.2266251798
 10
17.9422840395
 20
11.198693647
 10
17.9583970279
 20
11.1703449308
 10
17.9728382119
 20
11.1415729198
 10
17.9856073375
 20
11.1124018179
 10
17.9966675193
 20
11.0829495483
 10
18.0060220725
 20
11.0532576613
 10
18.0136835504
 20
11.0233248663
 10
18.0196429323
 20
10.9932169754
 10
18.0238956268
 20
10.9630087413
 10
18.0264481393
 20
10.9327071132
 10
18.0272989795
 20
10.9023631264
  0
LWPOLYLINE
  5
61A
100
AcDbEntity
  8
0
100
AcDbPolyline
 62
7
  6
CONTINUOUS
 90
7
 70
0
 10
17.1651828378
 20
5.956352453
 10
17.1324796145
 20
5.9445451589
 10
17.0976383447
 20
5.9362590099
 10
17.0618035623
 20
5.9317421344
 10
17.0253055371
 20
5.9310257274
 10
16.9888435666
 20
5.9342063102
 10
16.9536619012
 20
5.9412113156
  0
CIRCLE
  5
61B
100
AcDbEntity
  8
0
100
AcDbCircle
 62
7
  6
CONTINUOUS
 10
15.2229827477
 20
1.1139932523
 40
0.252091
  0
CIRCLE
  5
61C
100
AcDbEntity
  8
0
100
AcDbCircle
 62
7
  6
CONTINUOUS
 10
15.2229827477
 20
1.1139932523
 40
0.182698
  0
CIRCLE
  5
61D
100
AcDbEntity
  8
0
100
AcDbCircle
 62
7
  6
CONTINUOUS
 10
14.8013422688
 20
1.8652439144
 40
0.0638444824
  0
ARC
  5
61E
100
AcDbEntity
  8
AXIS
100
AcDbCircle
 62
7
  6
CONTINUOUS
 10
8.3862395622
 20
8.4108047444
 40
0.1299212598
100
AcDbArc
 50
270.0
 51
360.0
  0
ARC
  5
61F
100
AcDbEntity
  8
AXIS
100
AcDbCircle
 62
7
  6
CONTINUOUS
 10
6.8744285385
 20
8.4108047444
 40
0.1299212598
100
AcDbArc
 50
180.0
 51
270.0
  0
ARC
  5
620
100
AcDbEntity
  8
0
100
AcDbCircle
 62
7
  6
CONTINUOUS
 10
7.9927159401
 20
7.481265589
 40
0.1181102362
100
AcDbArc
 50
168.1896179912
 51
180.0
  0
ARC
  5
621
100
AcDbEntity
  8
0
100
AcDbCircle
 62
7
  6
CONTINUOUS
 10
7.2679521606
 20
7.481265589
 40
0.1181102362
100
AcDbArc
 50
0.0
 51
11.8103820088
  0
ARC
  5
622
100
AcDbEntity
  8
0
100
AcDbCircle
 62
7
  6
CONTINUOUS
 10
8.516160822
 20
13.9721898841
 40
0.0984251969
100
AcDbArc
 50
0.0
 51
90.0
  0
ARC
  5
623
100
AcDbEntity
  8
0
100
AcDbCircle
 62
7
  6
CONTINUOUS
 10
6.7445072787
 20
13.9721898841
 40
0.0984251969
100
AcDbArc
 50
90.0
 51
180.0
  0
ARC
  5
624
100
AcDbEntity
  8
0
100
AcDbCircle
 62
7
  6
CONTINUOUS
 10
8.203168696
 20
8.2493874216
 40
0.031496063
100
AcDbArc
 50
90.0
 51
180.0
  0
ARC
  5
625
100
AcDbEntity
  8
0
100
AcDbCircle
 62
7
  6
CONTINUOUS
 10
7.0574994047
 20
8.2493874216
 40
0.031496063
100
AcDbArc
 50
0.0
 51
90.0
  0
ARC
  5
626
100
AcDbEntity
  8
0
100
AcDbCircle
 62
7
  6
CONTINUOUS
 10
7.1204915307
 20
7.5643480515
 40
0.031496063
100
AcDbArc
 50
180.0
 51
270.0
  0
ARC
  5
627
100
AcDbEntity
  8
0
100
AcDbCircle
 62
7
  6
CONTINUOUS
 10
8.14017657
 20
7.5643480515
 40
0.031496063
100
AcDbArc
 50
270.0
 51
360.0
  0
ARC
  5
628
100
AcDbEntity
  8
0
100
AcDbCircle
 62
7
  6
CONTINUOUS
 10
8.5358458614
 20
8.6844267917
 40
0.0196850394
100
AcDbArc
 50
90.0
 51
180.0
  0
ARC
  5
629
100
AcDbEntity
  8
0
100
AcDbCircle
 62
7
  6
CONTINUOUS
 10
6.7248222393
 20
8.6844267917
 40
0.0196850394
100
AcDbArc
 50
0.0
 51
90.0
  0
ARC
  5
62A
100
AcDbEntity
  8
0
100
AcDbCircle
 62
7
  6
CONTINUOUS
 10
7.2858458614
 20
4.5110050849
 40
0.2283464567
100
AcDbArc
 50
180.0
 51
193.5362027374
  0
ARC
  5
62B
100
AcDbEntity
  8
0
100
AcDbCircle
 62
7
  6
CONTINUOUS
 10
7.2858458614
 20
4.5110050849
 40
0.1968503937
100
AcDbArc
 50
180.0
 51
193.5362027374
  0
ARC
  5
62C
100
AcDbEntity
  8
0
100
AcDbCircle
 62
7
  6
CONTINUOUS
 10
7.2858458614
 20
4.5110050849
 40
0.1653543307
100
AcDbArc
 50
180.0
 51
193.5362027374
  0
ARC
  5
62D
100
AcDbEntity
  8
0
100
AcDbCircle
 62
7
  6
CONTINUOUS
 10
7.2858458614
 20
4.6768741749
 40
0.2283464567
100
AcDbArc
 50
166.4637972626
 51
180.0
  0
ARC
  5
62E
100
AcDbEntity
  8
0
100
AcDbCircle
 62
7
  6
CONTINUOUS
 10
7.2858458614
 20
4.6768741749
 40
0.1968503937
100
AcDbArc
 50
166.4637972626
 51
180.0
  0
ARC
  5
62F
100
AcDbEntity
  8
0
100
AcDbCircle
 62
7
  6
CONTINUOUS
 10
7.2858458614
 20
4.6768741749
 40
0.1653543307
100
AcDbArc
 50
166.4637972626
 51
180.0
  0
CIRCLE
  5
630
100
AcDbEntity
  8
0
100
AcDbCircle
 62
7
  6
CONTINUOUS
 10
7.5319088535
 20
4.5939396299
 40
0.0196850394
  0
CIRCLE
  5
631
100
AcDbEntity
  8
0
100
AcDbCircle
 62
7
  6
CONTINUOUS
 10
7.5319088535
 20
4.5939396299
 40
0.00468503
  0
ARC
  5
632
100
AcDbEntity
  8
0
100
AcDbCircle
 62
7
  6
CONTINUOUS
 10
7.9748222393
 20
4.5110050849
 40
0.2283464567
100
AcDbArc
 50
346.4637972626
 51
360.0
  0
ARC
  5
633
100
AcDbEntity
  8
0
100
AcDbCircle
 62
7
  6
CONTINUOUS
 10
7.9748222393
 20
4.5110050849
 40
0.1968503937
100
AcDbArc
 50
346.4637972626
 51
360.0
  0
ARC
  5
634
100
AcDbEntity
  8
0
100
AcDbCircle
 62
7
  6
CONTINUOUS
 10
7.9748222393
 20
4.5110050849
 40
0.1653543307
100
AcDbArc
 50
346.4637972626
 51
360.0
  0
ARC
  5
635
100
AcDbEntity
  8
0
100
AcDbCircle
 62
7
  6
CONTINUOUS
 10
7.7291619666
 20
4.4951117136
 40
0.0236220472
100
AcDbArc
 50
45.0
 51
225.0
  0
CIRCLE
  5
636
100
AcDbEntity
  8
0
100
AcDbCircle
 62
7
  6
CONTINUOUS
 10
7.6303340503
 20
4.495514433
 40
0.0196850394
  0
CIRCLE
  5
637
100
AcDbEntity
  8
0
100
AcDbCircle
 62
7
  6
CONTINUOUS
 10
7.6303340503
 20
4.495514433
 40
0.00468503
  0
CIRCLE
  5
638
100
AcDbEntity
  8
AXIS
100
AcDbCircle
 62
7
  6
CONTINUOUS
 10
7.6303340503
 20
4.5939396299
 40
0.9940944882
  0
ARC
  5
639
100
AcDbEntity
  8
SCHEME_DIMS
100
AcDbCircle
 62
7
  6
CONTINUOUS
 10
7.6303340503
 20
4.5939396299
 40
0.9940944882
100
AcDbArc
 50
180.0
 51
229.7986158755
  0
CIRCLE
  5
63A
100
AcDbEntity
  8
QUILTS
100
AcDbCircle
 62
7
  6
CONTINUOUS
 10
7.6303340503
 20
4.5939396299
 40
0.9901574803
  0
CIRCLE
  5
63B
100
AcDbEntity
  8
0
100
AcDbCircle
 62
7
  6
CONTINUOUS
 10
7.6303340503
 20
4.5939396299
 40
0.905511811
  0
ARC
  5
63C
100
AcDbEntity
  8
0
100
AcDbCircle
 62
7
  6
CONTINUOUS
 10
7.6303340503
 20
4.5939396299
 40
0.8858267717
100
AcDbArc
 50
172.6203949041
 51
187.3796037165
  0
CIRCLE
  5
63D
100
AcDbEntity
  8
AXIS
100
AcDbCircle
 62
7
  6
CONTINUOUS
 10
7.6303340503
 20
4.5939396299
 40
0.8858267717
  0
CIRCLE
  5
63E
100
AcDbEntity
  8
QUILTS
100
AcDbCircle
 62
7
  6
CONTINUOUS
 10
7.6303340503
 20
4.5939396299
 40
0.8858267717
  0
CIRCLE
  5
63F
100
AcDbEntity
  8
AXIS
100
AcDbCircle
 62
7
  6
CONTINUOUS
 10
7.6303340503
 20
4.5939396299
 40
0.7559055118
  0
ARC
  5
640
100
AcDbEntity
  8
0
100
AcDbCircle
 62
7
  6
CONTINUOUS
 10
7.6303340503
 20
4.5939396299
 40
0.5826771654
100
AcDbArc
 50
193.5362027374
 51
201.5387017515
  0
ARC
  5
641
100
AcDbEntity
  8
0
100
AcDbCircle
 62
7
  6
CONTINUOUS
 10
7.6303340503
 20
4.5939396299
 40
0.5826771654
100
AcDbArc
 50
338.4613013445
 51
346.4637972626
  0
ARC
  5
642
100
AcDbEntity
  8
0
100
AcDbCircle
 62
7
  6
CONTINUOUS
 10
7.6303340503
 20
4.5939396299
 40
0.5826771654
100
AcDbArc
 50
13.5362027374
 51
21.5387017515
  0
ARC
  5
643
100
AcDbEntity
  8
0
100
AcDbCircle
 62
7
  6
CONTINUOUS
 10
7.6303340503
 20
4.5939396299
 40
0.5826771654
100
AcDbArc
 50
158.4613013445
 51
166.4637972626
  0
ARC
  5
644
100
AcDbEntity
  8
0
100
AcDbCircle
 62
7
  6
CONTINUOUS
 10
7.6303340503
 20
4.5939396299
 40
0.5511811024
100
AcDbArc
 50
193.5362027374
 51
346.4637972626
  0
ARC
  5
645
100
AcDbEntity
  8
0
100
AcDbCircle
 62
7
  6
CONTINUOUS
 10
7.6303340503
 20
4.5939396299
 40
0.5511811024
100
AcDbArc
 50
13.5362027374
 51
166.4637972626
  0
ARC
  5
646
100
AcDbEntity
  8
0
100
AcDbCircle
 62
7
  6
CONTINUOUS
 10
7.6303340503
 20
4.5939396299
 40
0.5196850394
100
AcDbArc
 50
193.5362027374
 51
346.4637972626
  0
ARC
  5
647
100
AcDbEntity
  8
0
100
AcDbCircle
 62
7
  6
CONTINUOUS
 10
7.6303340503
 20
4.5939396299
 40
0.5196850394
100
AcDbArc
 50
13.5362027374
 51
166.4637972626
  0
CIRCLE
  5
648
100
AcDbEntity
  8
0
100
AcDbCircle
 62
7
  6
CONTINUOUS
 10
7.6303340503
 20
4.5939396299
 40
0.4682862539
  0
CIRCLE
  5
649
100
AcDbEntity
  8
0
100
AcDbCircle
 62
7
  6
CONTINUOUS
 10
7.6303340503
 20
4.5939396299
 40
0.4460151742
  0
CIRCLE
  5
64A
100
AcDbEntity
  8
0
100
AcDbCircle
 62
7
  6
CONTINUOUS
 10
7.6303340503
 20
4.5939396299
 40
0.3765
  0
ARC
  5
64B
100
AcDbEntity
  8
0
100
AcDbCircle
 62
7
  6
CONTINUOUS
 10
7.6303340503
 20
4.5939396299
 40
0.3568149606
100
AcDbArc
 50
51.3357489792
 51
354.046306505
  0
CIRCLE
  5
64C
100
AcDbEntity
  8
0
100
AcDbCircle
 62
7
  6
CONTINUOUS
 10
7.6303340503
 20
4.5939396299
 40
0.3051181102
  0
CIRCLE
  5
64D
100
AcDbEntity
  8
0
100
AcDbCircle
 62
7
  6
CONTINUOUS
 10
7.6303340503
 20
4.5939396299
 40
0.2854330709
  0
CIRCLE
  5
64E
100
AcDbEntity
  8
0
100
AcDbCircle
 62
7
  6
CONTINUOUS
 10
7.6303340503
 20
4.5939396299
 40
0.2829327147
  0
CIRCLE
  5
64F
100
AcDbEntity
  8
0
100
AcDbCircle
 62
7
  6
CONTINUOUS
 10
7.6303340503
 20
4.5939396299
 40
0.2467720097
  0
ARC
  5
650
100
AcDbEntity
  8
0
100
AcDbCircle
 62
7
  6
CONTINUOUS
 10
7.6303340503
 20
4.5939396299
 40
0.2442716535
100
AcDbArc
 50
252.3466585695
 51
252.0004821661
  0
CIRCLE
  5
651
100
AcDbEntity
  8
0
100
AcDbCircle
 62
7
  6
CONTINUOUS
 10
7.6303340503
 20
4.5939396299
 40
0.2088385907
  0
CIRCLE
  5
652
100
AcDbEntity
  8
0
100
AcDbCircle
 62
7
  6
CONTINUOUS
 10
7.6303340503
 20
4.5939396299
 40
0.2037401575
  0
ARC
  5
653
100
AcDbEntity
  8
AXIS_COSMETIC_THREADS
100
AcDbCircle
 62
7
  6
CONTINUOUS
 10
7.6303340503
 20
4.5939396299
 40
0.1633858268
100
AcDbArc
 50
323.312861012
 51
306.687138988
  0
CIRCLE
  5
654
100
AcDbEntity
  8
0
100
AcDbCircle
 62
7
  6
CONTINUOUS
 10
7.7287592472
 20
4.5939396299
 40
0.0196850394
  0
CIRCLE
  5
655
100
AcDbEntity
  8
0
100
AcDbCircle
 62
7
  6
CONTINUOUS
 10
7.7287592472
 20
4.5939396299
 40
0.00468503
  0
CIRCLE
  5
656
100
AcDbEntity
  8
0
100
AcDbCircle
 62
7
  6
CONTINUOUS
 10
7.6303340503
 20
4.6923648267
 40
0.0196850394
  0
CIRCLE
  5
657
100
AcDbEntity
  8
0
100
AcDbCircle
 62
7
  6
CONTINUOUS
 10
7.6303340503
 20
4.6923648267
 40
0.00468503
  0
ARC
  5
658
100
AcDbEntity
  8
0
100
AcDbCircle
 62
7
  6
CONTINUOUS
 10
7.9748222393
 20
4.6768741749
 40
0.2283464567
100
AcDbArc
 50
0.0
 51
13.5362027374
  0
ARC
  5
659
100
AcDbEntity
  8
0
100
AcDbCircle
 62
7
  6
CONTINUOUS
 10
7.9748222393
 20
4.6768741749
 40
0.1968503937
100
AcDbArc
 50
0.0
 51
13.5362027374
  0
ARC
  5
65A
100
AcDbEntity
  8
0
100
AcDbCircle
 62
7
  6
CONTINUOUS
 10
7.9748222393
 20
4.6768741749
 40
0.1653543307
100
AcDbArc
 50
0.0
 51
13.5362027374
  0
ENDSEC
  0
SECTION
  2
OBJECTS
  0
DICTIONARY
  5
C
100
AcDbDictionary
280
0
281
1
  3
ACAD_GROUP
350
D
  3
ACAD_MLINESTYLE
350
17
  3
ACAD_LAYOUT
350
1A
  3
ACAD_PLOTSETTINGS
350
19
  3
ACAD_PLOTSTYLENAME
350
E
  3
ACAD_TABLESTYLE
350
       65B
  0
DICTIONARY
  5
D
102
{ACAD_REACTORS
330
C
102
}
100
AcDbDictionary
280
0
281
1
  0
ACDBDICTIONARYWDFLT
  5
E
102
{ACAD_REACTORS
330
C
102
}
100
AcDbDictionary
281
1
  3
Normal
350
F
100
AcDbDictionaryWithDefault
340
F
  0
DICTIONARY
  5
17
102
{ACAD_REACTORS
330
C
102
}
100
AcDbDictionary
280
0
281
1
  3
Standard
350
18
  0
DICTIONARY
  5
65B
330
C
100
AcDbDictionary
281
1
  3
Standard
350
       65E
  3
Standard1
350
       65F
  0
DICTIONARY
  5
19
102
{ACAD_REACTORS
330
C
102
}
100
AcDbDictionary
281
1
  0
DICTIONARY
  5
1A
102
{ACAD_REACTORS
330
C
102
}
100
AcDbDictionary
281
1
  3
Model
350
65C
  3
Layout1
350
65D
  0
ACDBPLACEHOLDER
  5
F
102
{ACAD_REACTORS
330
E
102
}
  0
MLINESTYLE
  5
18
102
{ACAD_REACTORS
330
17
102
}
100
AcDbMlineStyle
  2
STANDARD
 70
0
  3

 62
256
 51
90.0
 52
90.0
 71
2
 49
0.5
 62
256
  6
BYLAYER
 49
-0.5
 62
256
  6
BYLAYER
  0
LAYOUT
  5
65C
102
{ACAD_REACTORS
330
1A
102
}
100
AcDbPlotSettings
  1

  2
none_device
  4
ANSI_C_(22.00_x_17.00_Inches)
  6

 40
0.0
 41
0.0
 42
0.0
 43
0.0
 44
558.8
 45
431.8
 46
0.0
 47
0.0
 48
0.0
 49
0.0
140
0.0
141
0.0
142
1.0
143
1.0
 70
1024
 72
0
 73
0
 74
0
  7

 75
0
147
1.0
148
0.0
149
0.0
100
AcDbLayout
  1
Model
 70
0
 71
0
 10
0.0
 20
0.0
 11
22.0
 21
17.0
 12
0.0
 22
0.0
 32
0.0
 14
0.0
 24
0.0
 34
0.0
 15
0.0
 25
0.0
 35
0.0
146
0.0
 13
0.0
 23
0.0
 33
0.0
 16
1.0
 26
0.0
 36
0.0
 17
0.0
 27
1.0
 37
0.0
 76
0
330
215
345
0
346
0
  0
LAYOUT
  5
65D
102
{ACAD_REACTORS
330
1A
102
}
100
AcDbPlotSettings
  1

  2
none_device
  4
ANSI_C_(22.00_x_17.00_Inches)
  6

 40
0.0
 41
0.0
 42
0.0
 43
0.0
 44
558.8
 45
431.8
 46
0.0
 47
0.0
 48
0.0
 49
0.0
140
0.0
141
0.0
142
1.0
143
1.0
 70
0
 72
0
 73
0
 74
0
  7

 75
0
147
1.0
148
0.0
149
0.0
100
AcDbLayout
  1
Layout1
 70
0
 71
1
 10
0.0
 20
0.0
 11
22.0
 21
17.0
 12
0.0
 22
0.0
 32
0.0
 14
0.0
 24
0.0
 34
0.0
 15
0.0
 25
0.0
 35
0.0
146
0.0
 13
0.0
 23
0.0
 33
0.0
 16
1.0
 26
0.0
 36
0.0
 17
0.0
 27
1.0
 37
0.0
 76
0
330
216
345
0
346
0
  0
TABLESTYLE
  5
65E
102
{ACAD_REACTORS
330
65B
102
}
330
65B
100
AcDbTableStyle
  3
Standard
 70
0
 71
0
 40
0.06
 41
0.06
280
1
281
1
  7
Standard
140
0.18
170
1
 62
0
 63
7
283
0
  7
Standard
140
0.18
170
1
 62
0
 63
7
283
0
  7
Standard
140
0.18
170
1
 62
0
 63
7
283
0
  0
TABLESTYLE
  5
65F
102
{ACAD_REACTORS
330
65B
330
294
102
}
330
65B
100
AcDbTableStyle
  3
Standard1
 70
1
 71
0
 40
0.06
 41
0.06
280
1
281
1
  7
Standard
140
0.18
170
1
 62
0
 63
7
283
0
  7
Standard
140
0.18
170
1
 62
0
 63
7
283
0
  7
Standard
140
0.18
170
1
 62
0
 63
7
283
0
  0
ENDSEC
  0
EOF
