999
DXF file: 212913_1.dxf
999
Pro/ENGINEER 2018300 by Parametric Technology Corporation
  0
SECTION
  2
HEADER
  9
$ACADVER
  1
AC1027
  9
$DWGCODEPAGE
  3
ANSI_1252
  9
$EXTMAX
 10
22.0
 20
17.0
 30
0.0
  9
$EXTMIN
 10
0.0
 20
0.0
 30
0.0
  9
$LIMMIN
 10
0.0
 20
0.0
  9
$LIMMAX
 10
22.0
 20
17.0
  9
$VIEWCTR
 10
11.0
 20
8.5
  9
$VIEWSIZE
 40
17.0
  9
$CLAYER
  8
0
  9
$LTSCALE
 40
1.21
  9
$CELTYPE
  6
BYLAYER
  9
$DIMSCALE
 40
1.0
  9
$DIMASZ
 40
0.1875
  9
$DIMEXO
 40
0.0625
  9
$DIMDLI
 40
0.836
  9
$DIMEXE
 40
0.125
  9
$DIMCEN
 40
0.198
  9
$DIMLFAC
 40
1.0
  9
$DIMBLK
  1
_FILLED
  9
$DIMALT
 70
1
  9
$DIMALTD
 70
2
  9
$DIMALTTD
 70
2
  9
$DIMALTF
 40
25.4
  9
$DIMTXT
 40
0.1
  9
$DIMTOL
 70
1
  9
$DIMLIM
 70
0
  9
$DIMTFAC
 40
1.0
  9
$DIMTP
 40
0.005
  9
$DIMTM
 40
0.005
  9
$DIMGAP
 40
0.09
  9
$DIMDSEP
 70
46
  9
$AUNITS
 70
0
  9
$PDMODE
 70
3
  9
$PDSIZE
 40
0.3125
  9
$HANDSEED
  5
731
  9
$TILEMODE
 70
1
  9
$MEASUREMENT
 70
0
  9
$INSUNITS
 70
1
  0
ENDSEC
  0
SECTION
  2
CLASSES
  0
CLASS
  1
ACDBDICTIONARYWDFLT
  2
AcDbDictionaryWithDefault
  3
AutoCAD 2000
 90
0
 91
1
280
0
281
0
  0
CLASS
  1
ACDBPLACEHOLDER
  2
AcDbPlaceHolder
  3
AutoCAD 2000
 90
0
 91
1
280
0
281
0
  0
CLASS
  1
LAYOUT
  2
AcDbLayout
  3
AutoCAD 2000
 90
0
 91
0
280
0
281
0
  0
CLASS
  1
TABLESTYLE
  2
AcDbTableStyle
  3
ObjectDBX Classes
 90
2047
 91
1
280
0
281
0
  0
CLASS
  1
ACAD_TABLE
  2
AcDbTable
  3
ObjectDBX Classes
 90
1025
 91
1
280
0
281
1
  0
ENDSEC
  0
SECTION
  2
TABLES
  0
TABLE
  2
VPORT
  5
8
100
AcDbSymbolTable
 70
2
  0
VPORT
  5
1F4
100
AcDbSymbolTableRecord
100
AcDbViewportTableRecord
  2
*ACTIVE
 70
0
 10
0.0
 20
0.0
 11
1.0
 21
1.0
 12
11.0
 22
8.5
 13
0.0
 23
0.0
 14
1.0
 24
1.0
 15
0.0
 25
0.0
 16
0.0
 26
0.0
 36
1.0
 17
0.0
 27
0.0
 37
0.0
 40
17.0
 41
1.2941176471
 42
50.0
 43
0.0
 44
0.0
 50
0.0
 51
0.0
 71
0
 72
100
 73
1
 74
1
 75
0
 76
0
 77
0
 78
0
  0
ENDTAB
  0
TABLE
  2
LTYPE
  5
5
100
AcDbSymbolTable
 70
6
  0
LTYPE
  5
14
100
AcDbSymbolTableRecord
100
AcDbLinetypeTableRecord
  2
BYBLOCK
 70
0
  3

 72
65
 73
0
 40
0.0
  0
LTYPE
  5
15
100
AcDbSymbolTableRecord
100
AcDbLinetypeTableRecord
  2
BYLAYER
 70
0
  3

 72
65
 73
0
 40
0.0
  0
LTYPE
  5
16
100
AcDbSymbolTableRecord
100
AcDbLinetypeTableRecord
  2
CONTINUOUS
 70
64
  3
Solid line
 72
65
 73
0
 40
0.0
  0
LTYPE
  5
1F5
100
AcDbSymbolTableRecord
100
AcDbLinetypeTableRecord
  2
CENTER
 70
64
  3
____ _ ____ _ ____ _ ____ _ ____ _ ____ _ ____
 72
65
 73
4
 40
0.6
 49
0.375
 74
0
 49
-0.075
 74
0
 49
0.075
 74
0
 49
-0.075
 74
0
  0
LTYPE
  5
1F6
100
AcDbSymbolTableRecord
100
AcDbLinetypeTableRecord
  2
HIDDEN
 70
64
  3
- - - - - - - - - - - - - - - - - - - -
 72
65
 73
2
 40
0.2
 49
0.1
 74
0
 49
-0.1
 74
0
  0
LTYPE
  5
1F7
100
AcDbSymbolTableRecord
100
AcDbLinetypeTableRecord
  2
PHANTOM
 70
64
  3
_____ _ _ _____ _ _ _____ _ _ _____
 72
65
 73
6
 40
0.8
 49
0.45
 74
0
 49
-0.05
 74
0
 49
0.1
 74
0
 49
-0.05
 74
0
 49
0.1
 74
0
 49
-0.05
 74
0
  0
LTYPE
  5
1F8
100
AcDbSymbolTableRecord
100
AcDbLinetypeTableRecord
  2
DOT
 70
64
  3
. . . . . . . . . . . . . . . . . . . .
 72
65
 73
2
 40
0.2
 49
0.1
 74
0
 49
-0.1
 74
0
  0
LTYPE
  5
1F9
100
AcDbSymbolTableRecord
100
AcDbLinetypeTableRecord
  2
DASHED
 70
64
  3
- - - - - - - - - - - - - - - - - - - -
 72
65
 73
2
 40
0.2
 49
0.1
 74
0
 49
-0.1
 74
0
  0
ENDTAB
  0
TABLE
  2
LAYER
  5
2
100
AcDbSymbolTable
 70
36
  0
LAYER
  5
10
100
AcDbSymbolTableRecord
100
AcDbLayerTableRecord
  2
0
 70
0
 62
7
  6
CONTINUOUS
370
-3
390
F
  0
LAYER
  5
1FA
100
AcDbSymbolTableRecord
100
AcDbLayerTableRecord
  2
DEFAULT_1
 70
0
 62
7
  6
CENTER
370
-3
390
F
  0
LAYER
  5
1FB
100
AcDbSymbolTableRecord
100
AcDbLayerTableRecord
  2
DEFAULT_2
 70
0
 62
7
  6
HIDDEN
370
-3
390
F
  0
LAYER
  5
1FC
100
AcDbSymbolTableRecord
100
AcDbLayerTableRecord
  2
DEFAULT_3
 70
0
 62
7
  6
PHANTOM
370
-3
390
F
  0
LAYER
  5
1FD
100
AcDbSymbolTableRecord
100
AcDbLayerTableRecord
  2
01___PRT_ALL_DTM_PLN
 70
0
 62
7
  6
CONTINUOUS
370
-3
390
F
  0
LAYER
  5
1FE
100
AcDbSymbolTableRecord
100
AcDbLayerTableRecord
  2
01___PRT_DEF_DTM_PLN
 70
0
 62
7
  6
CONTINUOUS
370
-3
390
F
  0
LAYER
  5
1FF
100
AcDbSymbolTableRecord
100
AcDbLayerTableRecord
  2
02___PRT_ALL_AXES
 70
0
 62
7
  6
CONTINUOUS
370
-3
390
F
  0
LAYER
  5
200
100
AcDbSymbolTableRecord
100
AcDbLayerTableRecord
  2
03___PRT_ALL_CURVES
 70
0
 62
7
  6
CONTINUOUS
370
-3
390
F
  0
LAYER
  5
201
100
AcDbSymbolTableRecord
100
AcDbLayerTableRecord
  2
04___PRT_ALL_DTM_PNT
 70
0
 62
7
  6
CONTINUOUS
370
-3
390
F
  0
LAYER
  5
202
100
AcDbSymbolTableRecord
100
AcDbLayerTableRecord
  2
05___PRT_ALL_DTM_CSYS
 70
0
 62
7
  6
CONTINUOUS
370
-3
390
F
  0
LAYER
  5
203
100
AcDbSymbolTableRecord
100
AcDbLayerTableRecord
  2
05___PRT_DEF_DTM_CSYS
 70
0
 62
7
  6
CONTINUOUS
370
-3
390
F
  0
LAYER
  5
204
100
AcDbSymbolTableRecord
100
AcDbLayerTableRecord
  2
06___PRT_ALL_SURFS
 70
0
 62
7
  6
CONTINUOUS
370
-3
390
F
  0
LAYER
  5
205
100
AcDbSymbolTableRecord
100
AcDbLayerTableRecord
  2
AXIS
 70
0
 62
7
  6
CONTINUOUS
370
-3
390
F
  0
LAYER
  5
206
100
AcDbSymbolTableRecord
100
AcDbLayerTableRecord
  2
AXIS_COSMETIC_THREADS
 70
0
 62
7
  6
CONTINUOUS
370
-3
390
F
  0
LAYER
  5
207
100
AcDbSymbolTableRecord
100
AcDbLayerTableRecord
  2
DATUM_CURVES
 70
0
 62
7
  6
CONTINUOUS
370
-3
390
F
  0
LAYER
  5
208
100
AcDbSymbolTableRecord
100
AcDbLayerTableRecord
  2
DATUM_PLANES
 70
0
 62
7
  6
CONTINUOUS
370
-3
390
F
  0
LAYER
  5
209
100
AcDbSymbolTableRecord
100
AcDbLayerTableRecord
  2
GEOMETRIC_TOLERANCES
 70
0
 62
7
  6
CONTINUOUS
370
-3
390
F
  0
LAYER
  5
20A
100
AcDbSymbolTableRecord
100
AcDbLayerTableRecord
  2
INTFCLR_1
 70
0
 62
7
  6
CONTINUOUS
370
-3
390
F
  0
LAYER
  5
20B
100
AcDbSymbolTableRecord
100
AcDbLayerTableRecord
  2
INTFCLR_1025
 70
0
 62
7
  6
CONTINUOUS
370
-3
390
F
  0
LAYER
  5
20C
100
AcDbSymbolTableRecord
100
AcDbLayerTableRecord
  2
INTFCLR_1053
 70
0
 62
7
  6
CONTINUOUS
370
-3
390
F
  0
LAYER
  5
20D
100
AcDbSymbolTableRecord
100
AcDbLayerTableRecord
  2
INTFCLR_1081
 70
0
 62
7
  6
CONTINUOUS
370
-3
390
F
  0
LAYER
  5
20E
100
AcDbSymbolTableRecord
100
AcDbLayerTableRecord
  2
INTFCLR_1109
 70
0
 62
7
  6
CONTINUOUS
370
-3
390
F
  0
LAYER
  5
20F
100
AcDbSymbolTableRecord
100
AcDbLayerTableRecord
  2
INTFCLR_1149
 70
0
 62
7
  6
CONTINUOUS
370
-3
390
F
  0
LAYER
  5
210
100
AcDbSymbolTableRecord
100
AcDbLayerTableRecord
  2
INTFCLR_1177
 70
0
 62
7
  6
CONTINUOUS
370
-3
390
F
  0
LAYER
  5
211
100
AcDbSymbolTableRecord
100
AcDbLayerTableRecord
  2
INTFCLR_1205
 70
0
 62
7
  6
CONTINUOUS
370
-3
390
F
  0
LAYER
  5
212
100
AcDbSymbolTableRecord
100
AcDbLayerTableRecord
  2
INTFCLR_1233
 70
0
 62
7
  6
CONTINUOUS
370
-3
390
F
  0
LAYER
  5
213
100
AcDbSymbolTableRecord
100
AcDbLayerTableRecord
  2
INTFCLR_1269
 70
0
 62
7
  6
CONTINUOUS
370
-3
390
F
  0
LAYER
  5
214
100
AcDbSymbolTableRecord
100
AcDbLayerTableRecord
  2
INTFCLR_1297
 70
0
 62
7
  6
CONTINUOUS
370
-3
390
F
  0
LAYER
  5
215
100
AcDbSymbolTableRecord
100
AcDbLayerTableRecord
  2
INTFCLR_1325
 70
0
 62
7
  6
CONTINUOUS
370
-3
390
F
  0
LAYER
  5
216
100
AcDbSymbolTableRecord
100
AcDbLayerTableRecord
  2
INTFCLR_1353
 70
0
 62
7
  6
CONTINUOUS
370
-3
390
F
  0
LAYER
  5
217
100
AcDbSymbolTableRecord
100
AcDbLayerTableRecord
  2
INTFCLR_1381
 70
0
 62
7
  6
CONTINUOUS
370
-3
390
F
  0
LAYER
  5
218
100
AcDbSymbolTableRecord
100
AcDbLayerTableRecord
  2
INTFCLR_1409
 70
0
 62
7
  6
CONTINUOUS
370
-3
390
F
  0
LAYER
  5
219
100
AcDbSymbolTableRecord
100
AcDbLayerTableRecord
  2
INTFCLR_1437
 70
0
 62
7
  6
CONTINUOUS
370
-3
390
F
  0
LAYER
  5
21A
100
AcDbSymbolTableRecord
100
AcDbLayerTableRecord
  2
INTFCLR_1477
 70
0
 62
7
  6
CONTINUOUS
370
-3
390
F
  0
LAYER
  5
21B
100
AcDbSymbolTableRecord
100
AcDbLayerTableRecord
  2
INTFCLR_1505
 70
0
 62
7
  6
CONTINUOUS
370
-3
390
F
  0
LAYER
  5
21C
100
AcDbSymbolTableRecord
100
AcDbLayerTableRecord
  2
INTFCLR_153
 70
0
 62
7
  6
CONTINUOUS
370
-3
390
F
  0
LAYER
  5
21D
100
AcDbSymbolTableRecord
100
AcDbLayerTableRecord
  2
INTFCLR_1533
 70
0
 62
7
  6
CONTINUOUS
370
-3
390
F
  0
LAYER
  5
21E
100
AcDbSymbolTableRecord
100
AcDbLayerTableRecord
  2
INTFCLR_1561
 70
0
 62
7
  6
CONTINUOUS
370
-3
390
F
  0
LAYER
  5
21F
100
AcDbSymbolTableRecord
100
AcDbLayerTableRecord
  2
INTFCLR_1589
 70
0
 62
7
  6
CONTINUOUS
370
-3
390
F
  0
LAYER
  5
220
100
AcDbSymbolTableRecord
100
AcDbLayerTableRecord
  2
INTFCLR_1617
 70
0
 62
7
  6
CONTINUOUS
370
-3
390
F
  0
LAYER
  5
221
100
AcDbSymbolTableRecord
100
AcDbLayerTableRecord
  2
INTFCLR_1645
 70
0
 62
7
  6
CONTINUOUS
370
-3
390
F
  0
LAYER
  5
222
100
AcDbSymbolTableRecord
100
AcDbLayerTableRecord
  2
INTFCLR_1673
 70
0
 62
7
  6
CONTINUOUS
370
-3
390
F
  0
LAYER
  5
223
100
AcDbSymbolTableRecord
100
AcDbLayerTableRecord
  2
INTFCLR_1701
 70
0
 62
7
  6
CONTINUOUS
370
-3
390
F
  0
LAYER
  5
224
100
AcDbSymbolTableRecord
100
AcDbLayerTableRecord
  2
INTFCLR_1729
 70
0
 62
7
  6
CONTINUOUS
370
-3
390
F
  0
LAYER
  5
225
100
AcDbSymbolTableRecord
100
AcDbLayerTableRecord
  2
INTFCLR_1757
 70
0
 62
7
  6
CONTINUOUS
370
-3
390
F
  0
LAYER
  5
226
100
AcDbSymbolTableRecord
100
AcDbLayerTableRecord
  2
INTFCLR_1785
 70
0
 62
7
  6
CONTINUOUS
370
-3
390
F
  0
LAYER
  5
227
100
AcDbSymbolTableRecord
100
AcDbLayerTableRecord
  2
INTFCLR_181
 70
0
 62
7
  6
CONTINUOUS
370
-3
390
F
  0
LAYER
  5
228
100
AcDbSymbolTableRecord
100
AcDbLayerTableRecord
  2
INTFCLR_1813
 70
0
 62
7
  6
CONTINUOUS
370
-3
390
F
  0
LAYER
  5
229
100
AcDbSymbolTableRecord
100
AcDbLayerTableRecord
  2
INTFCLR_1841
 70
0
 62
7
  6
CONTINUOUS
370
-3
390
F
  0
LAYER
  5
22A
100
AcDbSymbolTableRecord
100
AcDbLayerTableRecord
  2
INTFCLR_1869
 70
0
 62
7
  6
CONTINUOUS
370
-3
390
F
  0
LAYER
  5
22B
100
AcDbSymbolTableRecord
100
AcDbLayerTableRecord
  2
INTFCLR_1897
 70
0
 62
7
  6
CONTINUOUS
370
-3
390
F
  0
LAYER
  5
22C
100
AcDbSymbolTableRecord
100
AcDbLayerTableRecord
  2
INTFCLR_1941
 70
0
 62
7
  6
CONTINUOUS
370
-3
390
F
  0
LAYER
  5
22D
100
AcDbSymbolTableRecord
100
AcDbLayerTableRecord
  2
INTFCLR_1969
 70
0
 62
7
  6
CONTINUOUS
370
-3
390
F
  0
LAYER
  5
22E
100
AcDbSymbolTableRecord
100
AcDbLayerTableRecord
  2
INTFCLR_1997
 70
0
 62
7
  6
CONTINUOUS
370
-3
390
F
  0
LAYER
  5
22F
100
AcDbSymbolTableRecord
100
AcDbLayerTableRecord
  2
INTFCLR_2025
 70
0
 62
7
  6
CONTINUOUS
370
-3
390
F
  0
LAYER
  5
230
100
AcDbSymbolTableRecord
100
AcDbLayerTableRecord
  2
INTFCLR_2053
 70
0
 62
7
  6
CONTINUOUS
370
-3
390
F
  0
LAYER
  5
231
100
AcDbSymbolTableRecord
100
AcDbLayerTableRecord
  2
INTFCLR_2081
 70
0
 62
7
  6
CONTINUOUS
370
-3
390
F
  0
LAYER
  5
232
100
AcDbSymbolTableRecord
100
AcDbLayerTableRecord
  2
INTFCLR_2109
 70
0
 62
7
  6
CONTINUOUS
370
-3
390
F
  0
LAYER
  5
233
100
AcDbSymbolTableRecord
100
AcDbLayerTableRecord
  2
INTFCLR_2137
 70
0
 62
7
  6
CONTINUOUS
370
-3
390
F
  0
LAYER
  5
234
100
AcDbSymbolTableRecord
100
AcDbLayerTableRecord
  2
INTFCLR_2165
 70
0
 62
7
  6
CONTINUOUS
370
-3
390
F
  0
LAYER
  5
235
100
AcDbSymbolTableRecord
100
AcDbLayerTableRecord
  2
INTFCLR_2193
 70
0
 62
7
  6
CONTINUOUS
370
-3
390
F
  0
LAYER
  5
236
100
AcDbSymbolTableRecord
100
AcDbLayerTableRecord
  2
INTFCLR_269
 70
0
 62
7
  6
CONTINUOUS
370
-3
390
F
  0
LAYER
  5
237
100
AcDbSymbolTableRecord
100
AcDbLayerTableRecord
  2
INTFCLR_313
 70
0
 62
7
  6
CONTINUOUS
370
-3
390
F
  0
LAYER
  5
238
100
AcDbSymbolTableRecord
100
AcDbLayerTableRecord
  2
INTFCLR_341
 70
0
 62
7
  6
CONTINUOUS
370
-3
390
F
  0
LAYER
  5
239
100
AcDbSymbolTableRecord
100
AcDbLayerTableRecord
  2
INTFCLR_429
 70
0
 62
7
  6
CONTINUOUS
370
-3
390
F
  0
LAYER
  5
23A
100
AcDbSymbolTableRecord
100
AcDbLayerTableRecord
  2
INTFCLR_457
 70
0
 62
7
  6
CONTINUOUS
370
-3
390
F
  0
LAYER
  5
23B
100
AcDbSymbolTableRecord
100
AcDbLayerTableRecord
  2
INTFCLR_485
 70
0
 62
7
  6
CONTINUOUS
370
-3
390
F
  0
LAYER
  5
23C
100
AcDbSymbolTableRecord
100
AcDbLayerTableRecord
  2
INTFCLR_513
 70
0
 62
7
  6
CONTINUOUS
370
-3
390
F
  0
LAYER
  5
23D
100
AcDbSymbolTableRecord
100
AcDbLayerTableRecord
  2
INTFCLR_601
 70
0
 62
7
  6
CONTINUOUS
370
-3
390
F
  0
LAYER
  5
23E
100
AcDbSymbolTableRecord
100
AcDbLayerTableRecord
  2
INTFCLR_629
 70
0
 62
7
  6
CONTINUOUS
370
-3
390
F
  0
LAYER
  5
23F
100
AcDbSymbolTableRecord
100
AcDbLayerTableRecord
  2
INTFCLR_657
 70
0
 62
7
  6
CONTINUOUS
370
-3
390
F
  0
LAYER
  5
240
100
AcDbSymbolTableRecord
100
AcDbLayerTableRecord
  2
INTFCLR_717
 70
0
 62
7
  6
CONTINUOUS
370
-3
390
F
  0
LAYER
  5
241
100
AcDbSymbolTableRecord
100
AcDbLayerTableRecord
  2
INTFCLR_777
 70
0
 62
7
  6
CONTINUOUS
370
-3
390
F
  0
LAYER
  5
242
100
AcDbSymbolTableRecord
100
AcDbLayerTableRecord
  2
INTFCLR_805
 70
0
 62
7
  6
CONTINUOUS
370
-3
390
F
  0
LAYER
  5
243
100
AcDbSymbolTableRecord
100
AcDbLayerTableRecord
  2
INTFCLR_849
 70
0
 62
7
  6
CONTINUOUS
370
-3
390
F
  0
LAYER
  5
244
100
AcDbSymbolTableRecord
100
AcDbLayerTableRecord
  2
INTFCLR_877
 70
0
 62
7
  6
CONTINUOUS
370
-3
390
F
  0
LAYER
  5
245
100
AcDbSymbolTableRecord
100
AcDbLayerTableRecord
  2
INTFCLR_905
 70
0
 62
7
  6
CONTINUOUS
370
-3
390
F
  0
LAYER
  5
246
100
AcDbSymbolTableRecord
100
AcDbLayerTableRecord
  2
INTFCLR_93
 70
0
 62
7
  6
CONTINUOUS
370
-3
390
F
  0
LAYER
  5
247
100
AcDbSymbolTableRecord
100
AcDbLayerTableRecord
  2
INTFCLR_941
 70
0
 62
7
  6
CONTINUOUS
370
-3
390
F
  0
LAYER
  5
248
100
AcDbSymbolTableRecord
100
AcDbLayerTableRecord
  2
INTFCLR_969
 70
0
 62
7
  6
CONTINUOUS
370
-3
390
F
  0
LAYER
  5
249
100
AcDbSymbolTableRecord
100
AcDbLayerTableRecord
  2
INTFCLR_997
 70
0
 62
7
  6
CONTINUOUS
370
-3
390
F
  0
LAYER
  5
24A
100
AcDbSymbolTableRecord
100
AcDbLayerTableRecord
  2
NOTES
 70
0
 62
7
  6
CONTINUOUS
370
-3
390
F
  0
LAYER
  5
24B
100
AcDbSymbolTableRecord
100
AcDbLayerTableRecord
  2
QUILTS
 70
0
 62
7
  6
CONTINUOUS
370
-3
390
F
  0
LAYER
  5
24C
100
AcDbSymbolTableRecord
100
AcDbLayerTableRecord
  2
SCHEME_DIMS
 70
0
 62
7
  6
CONTINUOUS
370
-3
390
F
  0
LAYER
  5
24D
100
AcDbSymbolTableRecord
100
AcDbLayerTableRecord
  2
SYMBOLS
 70
0
 62
7
  6
CONTINUOUS
370
-3
390
F
  0
ENDTAB
  0
TABLE
  2
STYLE
  5
3
100
AcDbSymbolTable
 70
1
  0
STYLE
  5
11
100
AcDbSymbolTableRecord
100
AcDbTextStyleTableRecord
  2
STANDARD
 70
0
 40
0.0
 41
1.0
 50
0.0
 71
0
 42
0.2
  3
txt
  4

  0
STYLE
  5
24E
100
AcDbSymbolTableRecord
100
AcDbTextStyleTableRecord
  2
TEXTSTYLE_1
 70
0
 40
0.0
 41
0.8
 50
0.0
 71
0
 42
0.2
  3
gdt
  4

  0
STYLE
  5
24F
100
AcDbSymbolTableRecord
100
AcDbTextStyleTableRecord
  2
TEXTSTYLE_2
 70
0
 40
0.0
 41
0.8
 50
0.0
 71
0
 42
0.2
  3
txt
  4

  0
STYLE
  5
250
100
AcDbSymbolTableRecord
100
AcDbTextStyleTableRecord
  2
TEXTSTYLE_3
 70
0
 40
0.0
 41
0.9
 50
0.0
 71
0
 42
0.2
  3
txt
  4

  0
STYLE
  5
251
100
AcDbSymbolTableRecord
100
AcDbTextStyleTableRecord
  2
TEXTSTYLE_4
 70
0
 40
0.0
 41
0.85
 50
0.0
 71
0
 42
0.2
  3
txt
  4

  0
STYLE
  5
252
100
AcDbSymbolTableRecord
100
AcDbTextStyleTableRecord
  2
TEXTSTYLE_5
 70
0
 40
0.0
 41
0.75
 50
0.0
 71
0
 42
0.2
  3
txt
  4

  0
STYLE
  5
253
100
AcDbSymbolTableRecord
100
AcDbTextStyleTableRecord
  2
TEXTSTYLE_6
 70
0
 40
0.0
 41
1.0
 50
0.0
 71
0
 42
0.2
  3
gdt
  4

  0
ENDTAB
  0
TABLE
  2
VIEW
  5
6
100
AcDbSymbolTable
 70
0
  0
ENDTAB
  0
TABLE
  2
UCS
  5
7
100
AcDbSymbolTable
 70
0
  0
ENDTAB
  0
TABLE
  2
APPID
  5
9
100
AcDbSymbolTable
 70
1
  0
APPID
  5
254
100
AcDbSymbolTableRecord
100
AcDbRegAppTableRecord
  2
ACAD
 70
0
  0
ENDTAB
  0
TABLE
  2
BLOCK_RECORD
  5
1
100
AcDbSymbolTable
 70
0
  0
BLOCK_RECORD
  5
255
100
AcDbSymbolTableRecord
100
AcDbBlockTableRecord
  2
*Model_Space
  0
BLOCK_RECORD
  5
256
100
AcDbSymbolTableRecord
100
AcDbBlockTableRecord
  2
*Paper_Space
  0
BLOCK_RECORD
  5
257
100
AcDbSymbolTableRecord
100
AcDbBlockTableRecord
  2
_FILLED
  0
BLOCK_RECORD
  5
258
100
AcDbSymbolTableRecord
100
AcDbBlockTableRecord
  2
*D0
  0
BLOCK_RECORD
  5
259
100
AcDbSymbolTableRecord
100
AcDbBlockTableRecord
  2
*D1
  0
BLOCK_RECORD
  5
25A
100
AcDbSymbolTableRecord
100
AcDbBlockTableRecord
  2
*D2
  0
BLOCK_RECORD
  5
25B
100
AcDbSymbolTableRecord
100
AcDbBlockTableRecord
  2
*D3
  0
BLOCK_RECORD
  5
25C
100
AcDbSymbolTableRecord
100
AcDbBlockTableRecord
  2
*D4
  0
BLOCK_RECORD
  5
25D
100
AcDbSymbolTableRecord
100
AcDbBlockTableRecord
  2
*T1
  0
ENDTAB
  0
TABLE
  2
DIMSTYLE
  5
A
100
AcDbSymbolTable
 70
1
100
AcDbDimStyleTable
 71
0
  0
DIMSTYLE
105
25E
100
AcDbSymbolTableRecord
100
AcDbDimStyleTableRecord
  2
STANDARD
 70
0
  3

  4

 40
1.0
 41
0.1875
 42
0.0625
 43
0.38
 44
0.125
 45
0.0
 46
0.0
 47
0.005
 48
0.005
140
0.1
141
0.09
142
0.0
143
1.0
144
1.0
145
0.0
146
1.0
147
0.09
 71
1.0
 72
0.0
 73
1
 74
1
 75
0
 76
0
 77
0
 78
0
 79
0
170
1
171
2
172
0
173
0
174
0
175
0
176
0
177
0
178
0
270
2
179
3
271
3
272
3
273
2
274
2
275
0
280
0
281
0
282
0
283
1
284
0
285
0
286
0
287
3
288
0
340
11
278
46
341
257
342
257
343
257
344
257
  0
DIMSTYLE
105
25F
100
AcDbSymbolTableRecord
100
AcDbDimStyleTableRecord
  2
DIMSTYLE_1
 70
0
  3
<>
  4

 40
1.0
 41
0.1875
 42
0.0625
 43
0.38
 44
0.125
 45
0.0
 46
0.0
 47
0.1
 48
0.1
140
0.1
141
0.09
142
0.0
143
1.0
144
1.0
145
0.0
146
1.0
147
0.09
 71
0.0
 72
0.0
 73
1
 74
1
 75
0
 76
0
 77
0
 78
0
 79
0
170
1
171
2
172
1
173
0
174
0
175
0
176
0
177
0
178
0
270
2
179
3
271
1
272
3
273
2
274
4
275
0
280
0
281
0
282
0
283
1
284
0
285
0
286
0
287
3
288
1
340
11
278
46
289
2
341
257
342
257
343
257
344
257
  0
DIMSTYLE
105
260
100
AcDbSymbolTableRecord
100
AcDbDimStyleTableRecord
  2
DIMSTYLE_2
 70
0
  3

  4

 40
1.0
 41
0.1875
 42
0.0625
 43
0.38
 44
0.125
 45
0.0
 46
0.0
 47
0.1
 48
0.1
140
0.1
141
0.09
142
0.0
143
1.0
144
1.0
145
0.0
146
1.0
147
0.1
 71
0.0
 72
0.0
 73
1
 74
1
 75
0
 76
0
 77
0
 78
0
 79
0
170
1
171
2
172
0
173
0
174
0
175
0
176
0
177
0
178
0
270
2
179
3
271
1
272
3
273
2
274
4
275
0
280
0
281
0
282
0
283
1
284
0
285
0
286
0
287
3
288
0
340
11
278
46
341
257
342
257
343
257
344
257
  0
ENDTAB
  0
ENDSEC
  0
SECTION
  2
BLOCKS
  0
BLOCK
  5
20
100
AcDbEntity
  8
0
100
AcDbBlockBegin
  2
*Model_Space
 70
0
 10
0.0
 20
0.0
 30
0.0
  3
*Model_Space
  1

  0
ENDBLK
  5
21
100
AcDbEntity
  8
0
100
AcDbBlockEnd
  0
BLOCK
  5
1C
100
AcDbEntity
  8
0
100
AcDbBlockBegin
  2
*Paper_Space
 70
0
 10
0.0
 20
0.0
 30
0.0
  3
*Paper_Space
  1

  0
ENDBLK
  5
1D
100
AcDbEntity
  8
0
100
AcDbBlockEnd
  0
BLOCK
  5
261
100
AcDbEntity
  8
0
100
AcDbBlockBegin
  2
_FILLED
 70
64
 10
0.0
 20
0.0
  3
_FILLED
  1

  0
SOLID
  5
262
100
AcDbEntity
  8
0
  6
BYBLOCK
 62
0
100
AcDbTrace
 10
0.0
 20
0.0
 11
-1.0
 21
0.1666666667
 12
-1.0
 22
-0.1666666667
 13
-1.0
 23
-0.1666666667
  0
ENDBLK
  5
263
100
AcDbEntity
  8
0
  6
BYBLOCK
 62
0
100
AcDbBlockEnd
  0
BLOCK
  5
264
100
AcDbEntity
  8
SCHEME_DIMS
100
AcDbBlockBegin
 62
7
  6
CONTINUOUS
  2
*D0
 70
65
 10
0.0
 20
0.0
  3
*D0
  1

  0
MTEXT
  5
265
100
AcDbEntity
  8
SCHEME_DIMS
100
AcDbMText
 62
7
  6
CONTINUOUS
  7
TEXTSTYLE_6
 71
1
 72
1
 10
8.6714439763
 20
4.9041313395
 30
0.0
 11
1.0
 21
0.0
 31
0.0
 73
2
 44
0.9
  1
{\fgdt;n}\ftxt;50.5\P[1.99]
 40
0.1
 41
0.6
  0
LINE
  5
266
100
AcDbEntity
  8
SCHEME_DIMS
100
AcDbLine
 62
7
  6
CONTINUOUS
 10
8.3232973547
 20
4.7517810855
 11
7.6352553102
 21
4.0342701125
  0
LINE
  5
267
100
AcDbEntity
  8
SCHEME_DIMS
100
AcDbLine
 62
7
  6
CONTINUOUS
 10
7.6352553102
 20
4.0342701125
 11
8.4214439763
 21
4.8541313395
  0
LINE
  5
268
100
AcDbEntity
  8
SCHEME_DIMS
100
AcDbLine
 62
7
  6
CONTINUOUS
 10
8.4214439763
 20
4.8541313395
 11
8.5714439763
 21
4.8541313395
  0
LINE
  5
269
100
AcDbEntity
  8
SCHEME_DIMS
100
AcDbLine
 62
7
  6
CONTINUOUS
 10
6.9472132657
 20
3.3167591395
 11
7.6352553102
 21
4.0342701125
  0
INSERT
  5
26A
100
AcDbEntity
  8
SCHEME_DIMS
100
AcDbBlockReference
 62
7
  6
CONTINUOUS
  2
_FILLED
 10
8.3232973547
 20
4.7517810855
 41
0.1875
 42
0.1875
 43
0.1875
 50
46.2010915808
  0
INSERT
  5
26B
100
AcDbEntity
  8
SCHEME_DIMS
100
AcDbBlockReference
 62
7
  6
CONTINUOUS
  2
_FILLED
 10
6.9472132657
 20
3.3167591395
 41
0.1875
 42
0.1875
 43
0.1875
 50
226.2010915808
  0
ENDBLK
  5
26C
100
AcDbEntity
  8
0
  6
BYBLOCK
 62
0
100
AcDbBlockEnd
  0
BLOCK
  5
26D
100
AcDbEntity
  8
SCHEME_DIMS
100
AcDbBlockBegin
 62
7
  6
CONTINUOUS
  2
*D1
 70
65
 10
0.0
 20
0.0
  3
*D1
  1

  0
MTEXT
  5
26E
100
AcDbEntity
  8
SCHEME_DIMS
100
AcDbMText
 62
7
  6
CONTINUOUS
  7
TEXTSTYLE_6
 71
2
 72
1
 10
7.5352553102
 20
6.4198112576
 30
0.0
 11
1.0
 21
0.0
 31
0.0
 73
2
 44
0.9
  1
{\fgdt;n}\ftxt;45.0\P[1.77]
 40
0.1
 41
0.6
  0
LINE
  5
26F
100
AcDbEntity
  8
SCHEME_DIMS
100
AcDbLine
 62
7
  6
CONTINUOUS
 10
6.7494285385
 20
8.9584378465
 11
6.7494285385
 21
8.3186822132
  0
LINE
  5
270
100
AcDbEntity
  8
SCHEME_DIMS
100
AcDbLine
 62
7
  6
CONTINUOUS
 10
6.7494285385
 20
8.1149393309
 11
6.7494285385
 21
6.2448112576
  0
LINE
  5
271
100
AcDbEntity
  8
SCHEME_DIMS
100
AcDbLine
 62
7
  6
CONTINUOUS
 10
8.5210820818
 20
8.9571547558
 11
8.5210820818
 21
6.2448112576
  0
LINE
  5
272
100
AcDbEntity
  8
SCHEME_DIMS
100
AcDbLine
 62
7
  6
CONTINUOUS
 10
6.7494285385
 20
6.3698112576
 11
7.1685886435
 21
6.3698112576
  0
LINE
  5
273
100
AcDbEntity
  8
SCHEME_DIMS
100
AcDbLine
 62
7
  6
CONTINUOUS
 10
8.5210820818
 20
6.3698112576
 11
8.1019219769
 21
6.3698112576
  0
INSERT
  5
274
100
AcDbEntity
  8
SCHEME_DIMS
100
AcDbBlockReference
 62
7
  6
CONTINUOUS
  2
_FILLED
 10
6.7494285385
 20
6.3698112576
 41
0.1875
 42
0.1875
 43
0.1875
 50
180.0
  0
INSERT
  5
275
100
AcDbEntity
  8
SCHEME_DIMS
100
AcDbBlockReference
 62
7
  6
CONTINUOUS
  2
_FILLED
 10
8.5210820818
 20
6.3698112576
 41
0.1875
 42
0.1875
 43
0.1875
  0
ENDBLK
  5
276
100
AcDbEntity
  8
0
  6
BYBLOCK
 62
0
100
AcDbBlockEnd
  0
BLOCK
  5
277
100
AcDbEntity
  8
SCHEME_DIMS
100
AcDbBlockBegin
 62
7
  6
CONTINUOUS
  2
*D2
 70
65
 10
0.0
 20
0.0
  3
*D2
  1

  0
MTEXT
  5
278
100
AcDbEntity
  8
SCHEME_DIMS
100
AcDbMText
 62
7
  6
CONTINUOUS
  7
STANDARD
 71
2
 72
1
 10
9.6541175655
 20
11.4639382592
 30
0.0
 11
1.0
 21
0.0
 31
0.0
 73
2
 44
0.9
  1
164.5\P[6.48]
 40
0.1
 41
0.6
  0
LINE
  5
279
100
AcDbEntity
  8
SCHEME_DIMS
100
AcDbLine
 62
7
  6
CONTINUOUS
 10
8.2174403496
 20
8.1763971068
 11
9.8291175655
 21
8.1763971068
  0
LINE
  5
27A
100
AcDbEntity
  8
SCHEME_DIMS
100
AcDbLine
 62
7
  6
CONTINUOUS
 10
7.6977553102
 20
14.6514794115
 11
9.8291175655
 21
14.6514794115
  0
LINE
  5
27B
100
AcDbEntity
  8
SCHEME_DIMS
100
AcDbLine
 62
7
  6
CONTINUOUS
 10
9.7041175655
 20
8.1763971068
 11
9.7041175655
 21
11.1139382592
  0
LINE
  5
27C
100
AcDbEntity
  8
SCHEME_DIMS
100
AcDbLine
 62
7
  6
CONTINUOUS
 10
9.7041175655
 20
14.6514794115
 11
9.7041175655
 21
11.5639382592
  0
INSERT
  5
27D
100
AcDbEntity
  8
SCHEME_DIMS
100
AcDbBlockReference
 62
7
  6
CONTINUOUS
  2
_FILLED
 10
9.7041175655
 20
8.1763971068
 41
0.1875
 42
0.1875
 43
0.1875
 50
270.0
  0
INSERT
  5
27E
100
AcDbEntity
  8
SCHEME_DIMS
100
AcDbBlockReference
 62
7
  6
CONTINUOUS
  2
_FILLED
 10
9.7041175655
 20
14.6514794115
 41
0.1875
 42
0.1875
 43
0.1875
 50
90.0
  0
ENDBLK
  5
27F
100
AcDbEntity
  8
0
  6
BYBLOCK
 62
0
100
AcDbBlockEnd
  0
BLOCK
  5
280
100
AcDbEntity
  8
SCHEME_DIMS
100
AcDbBlockBegin
 62
7
  6
CONTINUOUS
  2
*D3
 70
65
 10
0.0
 20
0.0
  3
*D3
  1

  0
MTEXT
  5
281
100
AcDbEntity
  8
SCHEME_DIMS
100
AcDbMText
 62
7
  6
CONTINUOUS
  7
STANDARD
 71
2
 72
1
 10
9.0345757259
 20
8.6004128548
 30
0.0
 11
1.0
 21
0.0
 31
0.0
 73
2
 44
0.9
  1
19.0\P[.75]
 40
0.1
 41
0.5
  0
LINE
  5
282
100
AcDbEntity
  8
SCHEME_DIMS
100
AcDbLine
 62
7
  6
CONTINUOUS
 10
8.2174403496
 20
8.1763971068
 11
9.2095757259
 21
8.1763971068
  0
LINE
  5
283
100
AcDbEntity
  8
SCHEME_DIMS
100
AcDbLine
 62
7
  6
CONTINUOUS
 10
8.453660822
 20
8.9244286029
 11
9.2095757259
 21
8.9244286029
  0
LINE
  5
284
100
AcDbEntity
  8
SCHEME_DIMS
100
AcDbLine
 62
7
  6
CONTINUOUS
 10
9.0845757259
 20
8.1763971068
 11
9.0845757259
 21
7.7763971068
  0
LINE
  5
285
100
AcDbEntity
  8
SCHEME_DIMS
100
AcDbLine
 62
7
  6
CONTINUOUS
 10
9.0845757259
 20
8.9244286029
 11
9.0845757259
 21
9.3244286029
  0
INSERT
  5
286
100
AcDbEntity
  8
SCHEME_DIMS
100
AcDbBlockReference
 62
7
  6
CONTINUOUS
  2
_FILLED
 10
9.0845757259
 20
8.1763971068
 41
0.1875
 42
0.1875
 43
0.1875
 50
90.0
  0
INSERT
  5
287
100
AcDbEntity
  8
SCHEME_DIMS
100
AcDbBlockReference
 62
7
  6
CONTINUOUS
  2
_FILLED
 10
9.0845757259
 20
8.9244286029
 41
0.1875
 42
0.1875
 43
0.1875
 50
270.0
  0
ENDBLK
  5
288
100
AcDbEntity
  8
0
  6
BYBLOCK
 62
0
100
AcDbBlockEnd
  0
BLOCK
  5
289
100
AcDbEntity
  8
SCHEME_DIMS
100
AcDbBlockBegin
 62
7
  6
CONTINUOUS
  2
*D4
 70
65
 10
0.0
 20
0.0
  3
*D4
  1

  0
MTEXT
  5
28A
100
AcDbEntity
  8
SCHEME_DIMS
100
AcDbMText
 62
7
  6
CONTINUOUS
  7
STANDARD
 71
2
 72
1
 10
5.8342487189
 20
10.5098616737
 30
0.0
 11
1.0
 21
0.0
 31
0.0
 73
2
 44
0.9
  1
2X 27.2\P[1.07]
 40
0.1
 41
0.7
  0
LINE
  5
28B
100
AcDbEntity
  8
SCHEME_DIMS
100
AcDbLine
 62
7
  6
CONTINUOUS
 10
6.5865348377
 20
9.9244286029
 11
5.8092487189
 21
9.9244286029
  0
LINE
  5
28C
100
AcDbEntity
  8
SCHEME_DIMS
100
AcDbLine
 62
7
  6
CONTINUOUS
 10
6.5865348377
 20
10.9952947446
 11
5.8092487189
 21
10.9952947446
  0
LINE
  5
28D
100
AcDbEntity
  8
SCHEME_DIMS
100
AcDbLine
 62
7
  6
CONTINUOUS
 10
5.9342487189
 20
9.9244286029
 11
5.9342487189
 21
10.1598616737
  0
LINE
  5
28E
100
AcDbEntity
  8
SCHEME_DIMS
100
AcDbLine
 62
7
  6
CONTINUOUS
 10
5.9342487189
 20
10.9952947446
 11
5.9342487189
 21
10.6098616737
  0
INSERT
  5
28F
100
AcDbEntity
  8
SCHEME_DIMS
100
AcDbBlockReference
 62
7
  6
CONTINUOUS
  2
_FILLED
 10
5.9342487189
 20
9.9244286029
 41
0.1875
 42
0.1875
 43
0.1875
 50
270.0
  0
INSERT
  5
290
100
AcDbEntity
  8
SCHEME_DIMS
100
AcDbBlockReference
 62
7
  6
CONTINUOUS
  2
_FILLED
 10
5.9342487189
 20
10.9952947446
 41
0.1875
 42
0.1875
 43
0.1875
 50
90.0
  0
ENDBLK
  5
291
100
AcDbEntity
  8
0
  6
BYBLOCK
 62
0
100
AcDbBlockEnd
  0
BLOCK
  5
292
100
AcDbEntity
  8
0
100
AcDbBlockBegin
  2
*T1
 70
1
 10
0.0
 20
0.0
  3
*T1
  1

  0
LINE
  5
293
100
AcDbEntity
  8
0
100
AcDbLine
 62
7
  6
CONTINUOUS
 10
4.35
 20
0.0
 11
0.0
 21
0.0
  0
LINE
  5
294
100
AcDbEntity
  8
0
100
AcDbLine
 62
7
  6
CONTINUOUS
 10
4.35
 20
0.0
 11
4.35
 21
1.92
  0
LINE
  5
295
100
AcDbEntity
  8
0
100
AcDbLine
 62
7
  6
CONTINUOUS
 10
4.35
 20
1.92
 11
0.0
 21
1.92
  0
LINE
  5
296
100
AcDbEntity
  8
0
100
AcDbLine
 62
7
  6
CONTINUOUS
 10
0.0
 20
0.0
 11
0.0
 21
1.92
  0
MTEXT
  5
297
100
AcDbEntity
  8
NOTES
100
AcDbMText
 62
7
  6
CONTINUOUS
  7
STANDARD
 71
2
 72
1
 10
4.125
 20
0.48
 30
0.0
 11
1.0
 21
0.0
 31
0.0
 73
2
 44
0.9
  1
A
 40
0.1
 41
0.2
  0
MTEXT
  5
298
100
AcDbEntity
  8
NOTES
100
AcDbMText
 62
7
  6
CONTINUOUS
  7
STANDARD
 71
2
 72
1
 10
2.175
 20
1.08
 30
0.0
 11
1.0
 21
0.0
 31
0.0
 73
2
 44
0.9
  1
TL50 BASIC 2 STACK CABLE AUDIBLE \P 
 40
0.1
 41
6.6
  0
ENDBLK
  5
299
100
AcDbEntity
  8
0
  6
BYBLOCK
 62
0
100
AcDbBlockEnd
  0
ENDSEC
  0
SECTION
  2
ENTITIES
  0
MTEXT
  5
29A
100
AcDbEntity
  8
0
100
AcDbMText
 62
7
  6
CONTINUOUS
  7
TEXTSTYLE_2
 71
2
 72
1
 10
15.7174677477
 20
1.6655662523
 30
0.0
 11
1.0
 21
0.0
 31
0.0
 73
2
 44
0.9
  1
THIRD ANGLE PROJECTION
 40
0.1
 41
1.76
  0
MTEXT
  5
29B
100
AcDbEntity
  8
0
100
AcDbMText
 62
7
  6
CONTINUOUS
  7
STANDARD
 71
1
 72
1
 10
17.55
 20
1.32
 30
0.0
 11
1.0
 21
0.0
 31
0.0
 73
2
 44
0.9
  1
DRAWING NO.
 40
0.08
 41
0.88
  0
MTEXT
  5
29C
100
AcDbEntity
  8
0
100
AcDbMText
 62
7
  6
CONTINUOUS
  7
TEXTSTYLE_2
 71
1
 72
1
 10
16.75
 20
2.08
 30
0.0
 11
1.0
 21
0.0
 31
0.0
 73
2
 44
0.9
  1
TITLE
 40
0.1
 41
0.4
  0
MTEXT
  5
29D
100
AcDbEntity
  8
0
100
AcDbMText
 62
7
  6
CONTINUOUS
  7
STANDARD
 71
1
 72
1
 10
16.75
 20
1.32
 30
0.0
 11
1.0
 21
0.0
 31
0.0
 73
2
 44
0.9
  1
SIZE
 40
0.08
 41
0.32
  0
MTEXT
  5
29E
100
AcDbEntity
  8
0
100
AcDbMText
 62
7
  6
CONTINUOUS
  7
STANDARD
 71
1
 72
1
 10
16.75
 20
0.95
 30
0.0
 11
1.0
 21
0.0
 31
0.0
 73
2
 44
0.9
  1
SCALE
 40
0.08
 41
0.4
  0
MTEXT
  5
29F
100
AcDbEntity
  8
0
100
AcDbMText
 62
7
  6
CONTINUOUS
  7
TEXTSTYLE_2
 71
2
 72
1
 10
17.17
 20
1.2
 30
0.0
 11
1.0
 21
0.0
 31
0.0
 73
2
 44
0.9
  1
C
 40
0.1
 41
0.08
  0
MTEXT
  5
2A0
100
AcDbEntity
  8
0
100
AcDbMText
 62
7
  6
CONTINUOUS
  7
STANDARD
 71
1
 72
1
 10
18.925
 20
0.95
 30
0.0
 11
1.0
 21
0.0
 31
0.0
 73
2
 44
0.9
  1
SHEET
 40
0.08
 41
0.4
  0
MTEXT
  5
2A1
100
AcDbEntity
  8
0
100
AcDbMText
 62
7
  6
CONTINUOUS
  7
STANDARD
 71
1
 72
1
 10
20.3
 20
1.32
 30
0.0
 11
1.0
 21
0.0
 31
0.0
 73
2
 44
0.9
  1
REV.
 40
0.08
 41
0.32
  0
MTEXT
  5
2A2
100
AcDbEntity
  8
0
100
AcDbMText
 62
7
  6
CONTINUOUS
  7
STANDARD
 71
3
 72
1
 10
21.05
 20
0.698443
 30
0.0
 11
1.0
 21
0.0
 31
0.0
 73
2
 44
0.9
  1
CREO
 40
0.07
 41
0.28
  0
MTEXT
  5
2A3
100
AcDbEntity
  8
0
100
AcDbMText
 62
7
  6
CONTINUOUS
  7
TEXTSTYLE_2
 71
2
 72
1
 10
12.257
 20
15.95
 30
0.0
 11
1.0
 21
0.0
 31
0.0
 73
2
 44
0.9
  1
4
 40
0.1
 41
0.08
  0
MTEXT
  5
2A4
100
AcDbEntity
  8
0
100
AcDbMText
 62
7
  6
CONTINUOUS
  7
TEXTSTYLE_2
 71
2
 72
1
 10
12.257
 20
0.65
 30
0.0
 11
1.0
 21
0.0
 31
0.0
 73
2
 44
0.9
  1
4
 40
0.1
 41
0.08
  0
MTEXT
  5
2A5
100
AcDbEntity
  8
0
100
AcDbMText
 62
7
  6
CONTINUOUS
  7
TEXTSTYLE_2
 71
3
 72
1
 10
0.864
 20
6.375
 30
0.0
 11
1.0
 21
0.0
 31
0.0
 73
2
 44
0.9
  1
B
 40
0.1
 41
0.08
  0
MTEXT
  5
2A6
100
AcDbEntity
  8
0
100
AcDbMText
 62
7
  6
CONTINUOUS
  7
TEXTSTYLE_2
 71
1
 72
1
 10
21.15
 20
6.375
 30
0.0
 11
1.0
 21
0.0
 31
0.0
 73
2
 44
0.9
  1
B
 40
0.1
 41
0.08
  0
MTEXT
  5
2A7
100
AcDbEntity
  8
0
100
AcDbMText
 62
7
  6
CONTINUOUS
  7
TEXTSTYLE_2
 71
3
 72
1
 10
0.864
 20
2.525
 30
0.0
 11
1.0
 21
0.0
 31
0.0
 73
2
 44
0.9
  1
A
 40
0.1
 41
0.08
  0
MTEXT
  5
2A8
100
AcDbEntity
  8
0
100
AcDbMText
 62
7
  6
CONTINUOUS
  7
TEXTSTYLE_2
 71
1
 72
1
 10
21.15
 20
2.525
 30
0.0
 11
1.0
 21
0.0
 31
0.0
 73
2
 44
0.9
  1
A
 40
0.1
 41
0.08
  0
MTEXT
  5
2A9
100
AcDbEntity
  8
0
100
AcDbMText
 62
7
  6
CONTINUOUS
  7
TEXTSTYLE_2
 71
3
 72
1
 10
0.864
 20
14.075
 30
0.0
 11
1.0
 21
0.0
 31
0.0
 73
2
 44
0.9
  1
D
 40
0.1
 41
0.08
  0
MTEXT
  5
2AA
100
AcDbEntity
  8
0
100
AcDbMText
 62
7
  6
CONTINUOUS
  7
TEXTSTYLE_2
 71
1
 72
1
 10
21.15
 20
14.075
 30
0.0
 11
1.0
 21
0.0
 31
0.0
 73
2
 44
0.9
  1
D
 40
0.1
 41
0.08
  0
MTEXT
  5
2AB
100
AcDbEntity
  8
0
100
AcDbMText
 62
7
  6
CONTINUOUS
  7
TEXTSTYLE_2
 71
3
 72
1
 10
0.864
 20
10.225
 30
0.0
 11
1.0
 21
0.0
 31
0.0
 73
2
 44
0.9
  1
C
 40
0.1
 41
0.08
  0
MTEXT
  5
2AC
100
AcDbEntity
  8
0
100
AcDbMText
 62
7
  6
CONTINUOUS
  7
TEXTSTYLE_2
 71
1
 72
1
 10
21.15
 20
10.225
 30
0.0
 11
1.0
 21
0.0
 31
0.0
 73
2
 44
0.9
  1
C
 40
0.1
 41
0.08
  0
MTEXT
  5
2AD
100
AcDbEntity
  8
0
100
AcDbMText
 62
7
  6
CONTINUOUS
  7
TEXTSTYLE_2
 71
2
 72
1
 10
14.757
 20
0.65
 30
0.0
 11
1.0
 21
0.0
 31
0.0
 73
2
 44
0.9
  1
3
 40
0.1
 41
0.08
  0
MTEXT
  5
2AE
100
AcDbEntity
  8
0
100
AcDbMText
 62
7
  6
CONTINUOUS
  7
TEXTSTYLE_2
 71
2
 72
1
 10
14.757
 20
15.95
 30
0.0
 11
1.0
 21
0.0
 31
0.0
 73
2
 44
0.9
  1
3
 40
0.1
 41
0.08
  0
MTEXT
  5
2AF
100
AcDbEntity
  8
0
100
AcDbMText
 62
7
  6
CONTINUOUS
  7
TEXTSTYLE_2
 71
2
 72
1
 10
17.257
 20
15.95
 30
0.0
 11
1.0
 21
0.0
 31
0.0
 73
2
 44
0.9
  1
2
 40
0.1
 41
0.08
  0
MTEXT
  5
2B0
100
AcDbEntity
  8
0
100
AcDbMText
 62
7
  6
CONTINUOUS
  7
TEXTSTYLE_2
 71
2
 72
1
 10
17.257
 20
0.65
 30
0.0
 11
1.0
 21
0.0
 31
0.0
 73
2
 44
0.9
  1
2
 40
0.1
 41
0.08
  0
MTEXT
  5
2B1
100
AcDbEntity
  8
0
100
AcDbMText
 62
7
  6
CONTINUOUS
  7
TEXTSTYLE_2
 71
2
 72
1
 10
19.757
 20
0.65
 30
0.0
 11
1.0
 21
0.0
 31
0.0
 73
2
 44
0.9
  1
1
 40
0.1
 41
0.08
  0
MTEXT
  5
2B2
100
AcDbEntity
  8
0
100
AcDbMText
 62
7
  6
CONTINUOUS
  7
TEXTSTYLE_2
 71
2
 72
1
 10
19.757
 20
15.95
 30
0.0
 11
1.0
 21
0.0
 31
0.0
 73
2
 44
0.9
  1
1
 40
0.1
 41
0.08
  0
MTEXT
  5
2B3
100
AcDbEntity
  8
0
100
AcDbMText
 62
7
  6
CONTINUOUS
  7
TEXTSTYLE_2
 71
2
 72
1
 10
2.257
 20
0.65
 30
0.0
 11
1.0
 21
0.0
 31
0.0
 73
2
 44
0.9
  1
8
 40
0.1
 41
0.08
  0
MTEXT
  5
2B4
100
AcDbEntity
  8
0
100
AcDbMText
 62
7
  6
CONTINUOUS
  7
TEXTSTYLE_2
 71
2
 72
1
 10
4.757
 20
0.65
 30
0.0
 11
1.0
 21
0.0
 31
0.0
 73
2
 44
0.9
  1
7
 40
0.1
 41
0.08
  0
MTEXT
  5
2B5
100
AcDbEntity
  8
0
100
AcDbMText
 62
7
  6
CONTINUOUS
  7
TEXTSTYLE_2
 71
2
 72
1
 10
7.257
 20
0.65
 30
0.0
 11
1.0
 21
0.0
 31
0.0
 73
2
 44
0.9
  1
6
 40
0.1
 41
0.08
  0
MTEXT
  5
2B6
100
AcDbEntity
  8
0
100
AcDbMText
 62
7
  6
CONTINUOUS
  7
TEXTSTYLE_2
 71
2
 72
1
 10
9.757
 20
0.65
 30
0.0
 11
1.0
 21
0.0
 31
0.0
 73
2
 44
0.9
  1
5
 40
0.1
 41
0.08
  0
MTEXT
  5
2B7
100
AcDbEntity
  8
0
100
AcDbMText
 62
7
  6
CONTINUOUS
  7
TEXTSTYLE_2
 71
2
 72
1
 10
9.757
 20
15.95
 30
0.0
 11
1.0
 21
0.0
 31
0.0
 73
2
 44
0.9
  1
5
 40
0.1
 41
0.08
  0
MTEXT
  5
2B8
100
AcDbEntity
  8
0
100
AcDbMText
 62
7
  6
CONTINUOUS
  7
TEXTSTYLE_2
 71
2
 72
1
 10
7.257
 20
15.95
 30
0.0
 11
1.0
 21
0.0
 31
0.0
 73
2
 44
0.9
  1
6
 40
0.1
 41
0.08
  0
MTEXT
  5
2B9
100
AcDbEntity
  8
0
100
AcDbMText
 62
7
  6
CONTINUOUS
  7
TEXTSTYLE_2
 71
2
 72
1
 10
4.757
 20
15.95
 30
0.0
 11
1.0
 21
0.0
 31
0.0
 73
2
 44
0.9
  1
7
 40
0.1
 41
0.08
  0
MTEXT
  5
2BA
100
AcDbEntity
  8
0
100
AcDbMText
 62
7
  6
CONTINUOUS
  7
TEXTSTYLE_2
 71
2
 72
1
 10
2.257
 20
15.95
 30
0.0
 11
1.0
 21
0.0
 31
0.0
 73
2
 44
0.9
  1
8
 40
0.1
 41
0.08
  0
MTEXT
  5
2BB
100
AcDbEntity
  8
0
100
AcDbMText
 62
7
  6
CONTINUOUS
  7
STANDARD
 71
1
 72
1
 10
17.2749123633
 20
0.9184107931
 30
0.0
 11
1.0
 21
0.0
 31
0.0
 73
2
 44
0.9
  1
1:1
 40
0.1
 41
0.3
  0
MTEXT
  5
2BC
100
AcDbEntity
  8
0
100
AcDbMText
 62
7
  6
CONTINUOUS
  7
STANDARD
 71
1
 72
1
 10
19.4499123633
 20
0.9184107931
 30
0.0
 11
1.0
 21
0.0
 31
0.0
 73
2
 44
0.9
  1
1 OF 1
 40
0.1
 41
0.6
  0
MTEXT
  5
2BD
100
AcDbEntity
  8
0
100
AcDbMText
 62
7
  6
CONTINUOUS
  7
STANDARD
 71
1
 72
1
 10
18.5204017884
 20
1.2400373234
 30
0.0
 11
1.0
 21
0.0
 31
0.0
 73
2
 44
0.9
  1
212913
 40
0.12
 41
0.72
  0
MTEXT
  5
2BE
100
AcDbEntity
  8
0
100
AcDbMText
 62
7
  6
CONTINUOUS
  7
STANDARD
 71
1
 72
1
 10
1.2857894151
 20
1.4458068967
 30
0.0
 11
1.0
 21
0.0
 31
0.0
 73
2
 44
0.9
  1
NOTES:\P1. ALL DIMENSIONS ARE MILLIMETERS [INCHES] UNLESS OTHERWISE NOTED.\P2. REFER TO "www.bannerengineering.com" FOR ADDITIONAL DATA AND SPECIFICATIONS.
 40
0.1
 41
7.9
  0
MTEXT
  5
2BF
100
AcDbEntity
  8
0
100
AcDbMText
 62
7
  6
CONTINUOUS
  7
TEXTSTYLE_3
 71
2
 72
1
 10
19.7555637832
 20
2.555409194
 30
0.0
 11
1.0
 21
0.0
 31
0.0
 73
2
 44
0.9
  1
BANNER ENGINEERING CORP.
 40
0.12
 41
2.592
  0
MTEXT
  5
2C0
100
AcDbEntity
  8
0
100
AcDbMText
 62
7
  6
CONTINUOUS
  7
TEXTSTYLE_2
 71
2
 72
1
 10
19.6690932526
 20
2.3442032634
 30
0.0
 11
1.0
 21
0.0
 31
0.0
 73
2
 44
0.9
  1
www.bannerengineering.com
 40
0.1
 41
2.0
  0
MTEXT
  5
2C1
100
AcDbEntity
  8
0
100
AcDbMText
 62
7
  6
CONTINUOUS
  7
TEXTSTYLE_4
 71
2
 72
1
 10
15.7104628329
 20
2.6377571551
 30
0.0
 11
1.0
 21
0.0
 31
0.0
 73
2
 44
0.9
  1
This drawing is the property\Pof BANNER ENGINEERING CORP.\PAny use or reproduction,\Pin any form, without prior\Pwritten permission of\PBanner is prohibited.
 40
0.08
 41
1.904
  0
MTEXT
  5
2C2
100
AcDbEntity
  8
0
100
AcDbMText
 62
7
  6
CONTINUOUS
  7
TEXTSTYLE_5
 71
2
 72
1
 10
15.7283993136
 20
1.9032170366
 30
0.0
 11
1.0
 21
0.0
 31
0.0
 73
2
 44
0.9
  1
C  2015 Banner Engineering Corp.
 40
0.08
 41
1.92
  0
DIMENSION
  5
2C3
100
AcDbEntity
  8
SCHEME_DIMS
100
AcDbDimension
 62
7
  6
CONTINUOUS
  2
*D0
 10
8.3232973547
 20
4.7517810855
 11
9.038110643
 21
4.7791313395
 70
163
 71
1
 72
2
 41
0.9
 42
50.5
  1
%%c<>\P[]
  3
DIMSTYLE_1
100
AcDbDiametricDimension
 15
6.9472132657
 25
3.3167591395
  0
DIMENSION
  5
2C4
100
AcDbEntity
  8
SCHEME_DIMS
100
AcDbDimension
 62
7
  6
CONTINUOUS
  2
*D1
 10
8.5210820818
 20
6.3698112576
 11
7.6352553102
 21
6.2948112576
 70
160
 71
2
 72
2
 41
0.9
 42
45.0
  1
%%c<>\P[]
  3
DIMSTYLE_2
100
AcDbAlignedDimension
 13
6.7494285385
 23
9.0209378465
 14
8.5210820818
 24
9.0196547558
100
AcDbRotatedDimension
  0
DIMENSION
  5
2C5
100
AcDbEntity
  8
SCHEME_DIMS
100
AcDbDimension
 62
7
  6
CONTINUOUS
  2
*D2
 10
9.7041175655
 20
14.6514794115
 11
9.7041175655
 21
11.3389382592
 70
160
 71
2
 72
2
 41
0.9
 42
164.4670905401
  1
<>\P[]
  3
DIMSTYLE_2
100
AcDbAlignedDimension
 13
8.1549403496
 23
8.1763971068
 14
7.6352553102
 24
14.6514794115
 50
90.0
100
AcDbRotatedDimension
  0
DIMENSION
  5
2C6
100
AcDbEntity
  8
SCHEME_DIMS
100
AcDbDimension
 62
7
  6
CONTINUOUS
  2
*D3
 10
9.0845757259
 20
8.9244286029
 11
9.0845757259
 21
8.4754128548
 70
160
 71
2
 72
2
 41
0.9
 42
19.0
  1
<>\P[]
  3
DIMSTYLE_2
100
AcDbAlignedDimension
 13
8.1549403496
 23
8.1763971068
 14
8.391160822
 24
8.9244286029
 50
90.0
100
AcDbRotatedDimension
  0
DIMENSION
  5
2C7
100
AcDbEntity
  8
SCHEME_DIMS
100
AcDbDimension
 62
7
  6
CONTINUOUS
  2
*D4
 10
5.9342487189
 20
10.9952947446
 11
5.9342487189
 21
10.3848616737
 70
160
 71
2
 72
2
 41
0.9
 42
27.2
  1
2X <>\P[]
  3
DIMSTYLE_2
100
AcDbAlignedDimension
 13
6.6490348377
 23
9.9244286029
 14
6.6490348377
 24
10.9952947446
 50
90.0
100
AcDbRotatedDimension
  0
ACAD_TABLE
  5
2C8
100
AcDbEntity
  8
0
 62
7
  6
CONTINUOUS
100
AcDbBlockReference
  2
*T1
 10
16.7
 20
0.75
 30
0.0
100
AcDbTable
342
       730
343
25D
 11
1.0
 21
0.0
 31
0.0
 90
6
 91
3
 92
5
 93
4
 94
0
 95
0
 96
0
 70
1
141
0.33
141
0.45
141
1.14
142
0.65
142
1.15
142
1.025
142
1.075
142
0.45
171
1
172
0
173
0
174
0
175
1
176
1
 91
33
178
0
145
0.0
301
CELL_VALUE
 90
4
  1
 
304
ACVALUE_END
170
1
140
0.1
171
1
172
0
173
0
174
0
175
1
176
1
 91
33
178
0
145
0.0
301
CELL_VALUE
 90
4
  1
 
304
ACVALUE_END
170
1
140
0.1
171
1
172
0
173
0
174
0
175
1
176
1
 91
33
178
0
145
0.0
301
CELL_VALUE
 90
4
  1
 
304
ACVALUE_END
170
1
140
0.1
171
1
172
0
173
0
174
0
175
1
176
1
 91
33
178
0
145
0.0
301
CELL_VALUE
 90
4
  1
 
304
ACVALUE_END
170
1
140
0.1
171
1
172
0
173
0
174
0
175
1
176
1
 91
33
178
0
145
0.0
301
CELL_VALUE
 90
4
  1
 
304
ACVALUE_END
170
1
140
0.1
171
1
172
0
173
0
174
0
175
1
176
1
 91
33
178
0
145
0.0
301
CELL_VALUE
 90
4
  1
 
304
ACVALUE_END
170
1
140
0.1
171
1
172
0
173
0
174
0
175
1
176
1
 91
33
178
0
145
0.0
301
CELL_VALUE
 90
4
  1
 
304
ACVALUE_END
170
1
140
0.1
171
1
172
0
173
0
174
0
175
1
176
1
 91
33
178
0
145
0.0
301
CELL_VALUE
 90
4
  1
 
304
ACVALUE_END
170
1
140
0.1
171
1
172
0
173
0
174
0
175
1
176
1
 91
33
178
0
145
0.0
301
CELL_VALUE
 90
4
  1
 
304
ACVALUE_END
170
1
140
0.1
171
1
172
0
173
0
174
0
175
1
176
1
 91
41
178
0
145
0.0
301
CELL_VALUE
 90
4
  1
A
304
ACVALUE_END
170
8
140
0.1
 64
7
171
1
172
0
173
0
174
0
175
5
176
1
 91
33
178
0
145
0.0
301
CELL_VALUE
 90
4
  1
TL50 BASIC 2 STACK CABLE AUDIBLE \P 
304
ACVALUE_END
170
8
140
0.1
171
1
172
0
173
1
174
0
175
1
176
1
 91
1
178
0
145
0.0
170
1
171
1
172
0
173
1
174
0
175
1
176
1
 91
1
178
0
145
0.0
170
1
171
1
172
0
173
1
174
0
175
1
176
1
 91
1
178
0
145
0.0
170
1
171
1
172
0
173
1
174
0
175
1
176
1
 91
1
178
0
145
0.0
170
8
  0
LEADER
  5
2C9
100
AcDbEntity
  8
NOTES
100
AcDbLeader
 62
7
  6
CONTINUOUS
  3
STANDARD
 71
1
 72
0
 73
0
 75
0
 40
0.1
 41
1.4
 76
3
 10
7.0536362265
 20
8.3678710644
 30
0.0
 10
6.7705909787
 20
8.2228046865
 30
0.0
 10
6.6450182583
 20
8.2228046865
 30
0.0
340
2CA
1001
ACAD
1000
DSTYLE
1002
{
1070
77
1070
0
1002
}
  0
MTEXT
  5
2CA
102
{ACAD_REACTORS
330
2C9
102
}
100
AcDbEntity
  8
NOTES
100
AcDbMText
 62
7
  6
CONTINUOUS
  7
STANDARD
 71
3
 72
1
 10
6.6450182583
 20
8.2728046865
 30
0.0
 11
1.0
 21
0.0
 31
0.0
 73
2
 44
0.9
  1
 M30 X 1.5-5g 
 40
0.1
 41
1.4
  0
LEADER
  5
2CB
100
AcDbEntity
  8
NOTES
100
AcDbLeader
 62
7
  6
CONTINUOUS
  3
STANDARD
 71
1
 72
0
 73
0
 75
0
 40
0.1
 41
1.2
 76
3
 10
7.9449281951
 20
3.820132413
 30
0.0
 10
8.5607091458
 20
3.3943220737
 30
0.0
 10
8.6743269262
 20
3.3943220737
 30
0.0
340
2CC
1001
ACAD
1000
DSTYLE
1002
{
1070
77
1070
0
1002
}
  0
MTEXT
  5
2CC
102
{ACAD_REACTORS
330
2CB
102
}
100
AcDbEntity
  8
NOTES
100
AcDbMText
 62
7
  6
CONTINUOUS
  7
STANDARD
 71
1
 72
1
 10
8.6743269262
 20
3.4443220737
 30
0.0
 11
1.0
 21
0.0
 31
0.0
 73
2
 44
0.9
  1
 1/2-14 NPSM
 40
0.1
 41
1.2
  0
MTEXT
  5
2CD
100
AcDbEntity
  8
NOTES
100
AcDbMText
 62
7
  6
CONTINUOUS
  7
STANDARD
 71
2
 72
1
 10
17.0201938077
 20
5.1737066707
 30
0.0
 11
1.0
 21
0.0
 31
0.0
 73
2
 44
0.9
  1
ISOMETRIC VIEW\P\H0.1;SCALE  1:1
 40
0.125
 41
1.75
  0
LINE
  5
2CE
100
AcDbEntity
  8
0
100
AcDbLine
 62
7
  6
CONTINUOUS
 10
0.814
 20
8.336603
 11
0.814
 21
8.163397
  0
LINE
  5
2CF
100
AcDbEntity
  8
0
100
AcDbLine
 62
7
  6
CONTINUOUS
 10
0.964
 20
15.75
 11
0.964
 21
0.75
  0
LINE
  5
2D0
100
AcDbEntity
  8
0
100
AcDbLine
 62
7
  6
CONTINUOUS
 10
15.8276527477
 20
1.2966912523
 11
16.4340437477
 21
1.3660842523
  0
LINE
  5
2D1
100
AcDbEntity
  8
0
100
AcDbLine
 62
7
  6
CONTINUOUS
 10
10.920397
 20
0.6
 11
11.093603
 21
0.6
  0
LINE
  5
2D2
100
AcDbEntity
  8
0
100
AcDbLine
 62
7
  6
CONTINUOUS
 10
0.964
 20
0.75
 11
21.05
 21
0.75
  0
LINE
  5
2D3
100
AcDbEntity
  8
0
100
AcDbLine
 62
7
  6
CONTINUOUS
 10
3.507
 20
0.75
 11
3.507
 21
0.5
  0
LINE
  5
2D4
100
AcDbEntity
  8
0
100
AcDbLine
 62
7
  6
CONTINUOUS
 10
3.507
 20
15.75
 11
3.507
 21
16.0
  0
LINE
  5
2D5
100
AcDbEntity
  8
0
100
AcDbLine
 62
7
  6
CONTINUOUS
 10
16.7
 20
1.0
 11
21.05
 21
1.0
  0
LINE
  5
2D6
100
AcDbEntity
  8
0
100
AcDbLine
 62
7
  6
CONTINUOUS
 10
14.9008917477
 20
1.1139932523
 11
15.1229827477
 21
1.1139932523
  0
LINE
  5
2D7
100
AcDbEntity
  8
0
100
AcDbLine
 62
7
  6
CONTINUOUS
 10
15.1729827477
 20
1.1139932523
 11
15.2729827477
 21
1.1139932523
  0
LINE
  5
2D8
100
AcDbEntity
  8
0
100
AcDbLine
 62
7
  6
CONTINUOUS
 10
15.3229827477
 20
1.1139932523
 11
15.5450737477
 21
1.1139932523
  0
LINE
  5
2D9
100
AcDbEntity
  8
0
100
AcDbLine
 62
7
  6
CONTINUOUS
 10
15.7276527477
 20
1.1139932523
 11
16.0058047477
 21
1.1139932523
  0
LINE
  5
2DA
100
AcDbEntity
  8
0
100
AcDbLine
 62
7
  6
CONTINUOUS
 10
16.0558047477
 20
1.1139932523
 11
16.2058907477
 21
1.1139932523
  0
LINE
  5
2DB
100
AcDbEntity
  8
0
100
AcDbLine
 62
7
  6
CONTINUOUS
 10
16.2558907477
 20
1.1139932523
 11
16.5340437477
 21
1.1139932523
  0
LINE
  5
2DC
100
AcDbEntity
  8
0
100
AcDbLine
 62
7
  6
CONTINUOUS
 10
16.7
 20
1.37
 11
21.05
 21
1.37
  0
LINE
  5
2DD
100
AcDbEntity
  8
0
100
AcDbLine
 62
7
  6
CONTINUOUS
 10
16.4340437477
 20
0.8619022523
 11
15.8276527477
 21
0.9312952523
  0
LINE
  5
2DE
100
AcDbEntity
  8
0
100
AcDbLine
 62
7
  6
CONTINUOUS
 10
14.7
 20
1.77
 11
16.7
 21
1.77
  0
LINE
  5
2DF
100
AcDbEntity
  8
0
100
AcDbLine
 62
7
  6
CONTINUOUS
 10
16.7
 20
2.13
 11
21.05
 21
2.13
  0
LINE
  5
2E0
100
AcDbEntity
  8
0
100
AcDbLine
 62
7
  6
CONTINUOUS
 10
18.273144232
 20
2.3543254011
 11
18.2257802057
 21
2.3543254011
  0
LINE
  5
2E1
100
AcDbEntity
  8
0
100
AcDbLine
 62
7
  6
CONTINUOUS
 10
18.1818891814
 20
2.3543254011
 11
18.0683181184
 21
2.3543254011
  0
LINE
  5
2E2
100
AcDbEntity
  8
0
100
AcDbLine
 62
7
  6
CONTINUOUS
 10
18.0394141024
 20
2.3543254011
 11
17.8362019897
 21
2.3543254011
  0
LINE
  5
2E3
100
AcDbEntity
  8
0
100
AcDbLine
 62
7
  6
CONTINUOUS
 10
17.7857289617
 20
2.3543254011
 11
17.7115229205
 21
2.3543254011
  0
LINE
  5
2E4
100
AcDbEntity
  8
0
100
AcDbLine
 62
7
  6
CONTINUOUS
 10
17.6651428948
 20
2.3543254011
 11
17.5894788529
 21
2.3543254011
  0
LINE
  5
2E5
100
AcDbEntity
  8
0
100
AcDbLine
 62
7
  6
CONTINUOUS
 10
17.537475824
 20
2.3543254011
 11
17.4632707829
 21
2.3543254011
  0
LINE
  5
2E6
100
AcDbEntity
  8
0
100
AcDbLine
 62
7
  6
CONTINUOUS
 10
17.4168897572
 20
2.3543254011
 11
17.3412257152
 21
2.3543254011
  0
LINE
  5
2E7
100
AcDbEntity
  8
0
100
AcDbLine
 62
7
  6
CONTINUOUS
 10
16.8743904563
 20
2.3543254011
 11
17.0508365542
 21
2.3543254011
  0
LINE
  5
2E8
100
AcDbEntity
  8
0
100
AcDbLine
 62
7
  6
CONTINUOUS
 10
17.1083735861
 20
2.3543254011
 11
17.185749629
 21
2.3543254011
  0
LINE
  5
2E9
100
AcDbEntity
  8
0
100
AcDbLine
 62
7
  6
CONTINUOUS
 10
17.2060356402
 20
2.3543254011
 11
17.3113166986
 21
2.3543254011
  0
LINE
  5
2EA
100
AcDbEntity
  8
0
100
AcDbLine
 62
7
  6
CONTINUOUS
 10
18.1572301677
 20
2.3790534148
 11
18.1818891814
 21
2.3790534148
  0
LINE
  5
2EB
100
AcDbEntity
  8
0
100
AcDbLine
 62
7
  6
CONTINUOUS
 10
17.3113166986
 20
2.3790754148
 11
17.2913006875
 21
2.3790754148
  0
LINE
  5
2EC
100
AcDbEntity
  8
0
100
AcDbLine
 62
7
  6
CONTINUOUS
 10
17.2204866482
 20
2.3790754148
 11
17.2060356402
 21
2.3790754148
  0
LINE
  5
2ED
100
AcDbEntity
  8
0
100
AcDbLine
 62
7
  6
CONTINUOUS
 10
17.185749629
 20
2.3790754148
 11
17.1744666227
 21
2.3790754148
  0
LINE
  5
2EE
100
AcDbEntity
  8
0
100
AcDbLine
 62
7
  6
CONTINUOUS
 10
17.1312345987
 20
2.3790754148
 11
17.1083735861
 21
2.3790754148
  0
LINE
  5
2EF
100
AcDbEntity
  8
0
100
AcDbLine
 62
7
  6
CONTINUOUS
 10
17.0051585288
 20
2.3790754148
 11
16.9637955059
 21
2.3790754148
  0
LINE
  5
2F0
100
AcDbEntity
  8
0
100
AcDbLine
 62
7
  6
CONTINUOUS
 10
16.8983324696
 20
2.3790754148
 11
16.8743904563
 21
2.3790754148
  0
LINE
  5
2F1
100
AcDbEntity
  8
0
100
AcDbLine
 62
7
  6
CONTINUOUS
 10
17.3412257152
 20
2.3790754148
 11
17.3598727255
 21
2.3790754148
  0
LINE
  5
2F2
100
AcDbEntity
  8
0
100
AcDbLine
 62
7
  6
CONTINUOUS
 10
17.3965727459
 20
2.3790754148
 11
17.4168897572
 21
2.3790754148
  0
LINE
  5
2F3
100
AcDbEntity
  8
0
100
AcDbLine
 62
7
  6
CONTINUOUS
 10
17.5894788529
 20
2.3790754148
 11
17.6081248632
 21
2.3790754148
  0
LINE
  5
2F4
100
AcDbEntity
  8
0
100
AcDbLine
 62
7
  6
CONTINUOUS
 10
17.6448258836
 20
2.3790754148
 11
17.6651428948
 21
2.3790754148
  0
LINE
  5
2F5
100
AcDbEntity
  8
0
100
AcDbLine
 62
7
  6
CONTINUOUS
 10
17.8362019897
 20
2.3790754148
 11
17.860125003
 21
2.3790754148
  0
LINE
  5
2F6
100
AcDbEntity
  8
0
100
AcDbLine
 62
7
  6
CONTINUOUS
 10
17.9271410401
 20
2.3790754148
 11
17.9921450762
 21
2.3790754148
  0
LINE
  5
2F7
100
AcDbEntity
  8
0
100
AcDbLine
 62
7
  6
CONTINUOUS
 10
18.0683181184
 20
2.3790754148
 11
18.091064131
 21
2.3790754148
  0
LINE
  5
2F8
100
AcDbEntity
  8
0
100
AcDbLine
 62
7
  6
CONTINUOUS
 10
18.2741672326
 20
2.379462415
 11
18.2752762332
 21
2.379462415
  0
LINE
  5
2F9
100
AcDbEntity
  8
0
100
AcDbLine
 62
7
  6
CONTINUOUS
 10
17.9970950789
 20
2.3922754221
 11
18.0394141024
 21
2.3922754221
  0
LINE
  5
2FA
100
AcDbEntity
  8
0
100
AcDbLine
 62
7
  6
CONTINUOUS
 10
17.1799826258
 20
2.3927194224
 11
17.2148606451
 21
2.3927194224
  0
LINE
  5
2FB
100
AcDbEntity
  8
0
100
AcDbLine
 62
7
  6
CONTINUOUS
 10
18.2860312391
 20
2.3932124227
 11
18.2981412459
 21
2.3932124227
  0
LINE
  5
2FC
100
AcDbEntity
  8
0
100
AcDbLine
 62
7
  6
CONTINUOUS
 10
18.184837183
 20
2.3937024229
 11
18.1572301677
 21
2.3937024229
  0
LINE
  5
2FD
100
AcDbEntity
  8
0
100
AcDbLine
 62
7
  6
CONTINUOUS
 10
17.9623080596
 20
2.395575424
 11
17.9271410401
 21
2.395575424
  0
LINE
  5
2FE
100
AcDbEntity
  8
0
100
AcDbLine
 62
7
  6
CONTINUOUS
 10
16.9637955059
 20
2.3964004244
 11
17.0051585288
 21
2.3964004244
  0
LINE
  5
2FF
100
AcDbEntity
  8
0
100
AcDbLine
 62
7
  6
CONTINUOUS
 10
18.1911671865
 20
2.4127054335
 11
18.1572301677
 21
2.4127054335
  0
LINE
  5
300
100
AcDbEntity
  8
0
100
AcDbLine
 62
7
  6
CONTINUOUS
 10
16.9637955059
 20
2.4130554337
 11
17.0051585288
 21
2.4130554337
  0
LINE
  5
301
100
AcDbEntity
  8
0
100
AcDbLine
 62
7
  6
CONTINUOUS
 10
17.1884986305
 20
2.413669434
 11
17.2090556419
 21
2.413669434
  0
LINE
  5
302
100
AcDbEntity
  8
0
100
AcDbLine
 62
7
  6
CONTINUOUS
 10
17.9271410401
 20
2.4138804341
 11
17.9623080596
 21
2.4138804341
  0
LINE
  5
303
100
AcDbEntity
  8
0
100
AcDbLine
 62
7
  6
CONTINUOUS
 10
18.0379951016
 20
2.4171804359
 11
17.9961310784
 21
2.4171804359
  0
LINE
  5
304
100
AcDbEntity
  8
0
100
AcDbLine
 62
7
  6
CONTINUOUS
 10
17.2017966379
 20
2.429836443
 11
17.1956156344
 21
2.429836443
  0
LINE
  5
305
100
AcDbEntity
  8
0
100
AcDbLine
 62
7
  6
CONTINUOUS
 10
18.091064131
 20
2.4303804433
 11
18.0683181184
 21
2.4303804433
  0
LINE
  5
306
100
AcDbEntity
  8
0
100
AcDbLine
 62
7
  6
CONTINUOUS
 10
17.9911810756
 20
2.4303804433
 11
17.9271410401
 21
2.4303804433
  0
LINE
  5
307
100
AcDbEntity
  8
0
100
AcDbLine
 62
7
  6
CONTINUOUS
 10
17.860125003
 20
2.4303804433
 11
17.8362019897
 21
2.4303804433
  0
LINE
  5
308
100
AcDbEntity
  8
0
100
AcDbLine
 62
7
  6
CONTINUOUS
 10
17.8086119744
 20
2.4303804433
 11
17.7906789644
 21
2.4303804433
  0
LINE
  5
309
100
AcDbEntity
  8
0
100
AcDbLine
 62
7
  6
CONTINUOUS
 10
17.7533869438
 20
2.4303804433
 11
17.7346109333
 21
2.4303804433
  0
LINE
  5
30A
100
AcDbEntity
  8
0
100
AcDbLine
 62
7
  6
CONTINUOUS
 10
17.6081248632
 20
2.4303804433
 11
17.5894788529
 21
2.4303804433
  0
LINE
  5
30B
100
AcDbEntity
  8
0
100
AcDbLine
 62
7
  6
CONTINUOUS
 10
17.5603588367
 20
2.4303804433
 11
17.5424258268
 21
2.4303804433
  0
LINE
  5
30C
100
AcDbEntity
  8
0
100
AcDbLine
 62
7
  6
CONTINUOUS
 10
17.5051338061
 20
2.4303804433
 11
17.4863577957
 21
2.4303804433
  0
LINE
  5
30D
100
AcDbEntity
  8
0
100
AcDbLine
 62
7
  6
CONTINUOUS
 10
17.3598727255
 20
2.4303804433
 11
17.3412257152
 21
2.4303804433
  0
LINE
  5
30E
100
AcDbEntity
  8
0
100
AcDbLine
 62
7
  6
CONTINUOUS
 10
17.0051585288
 20
2.4303804433
 11
16.9637955059
 21
2.4303804433
  0
LINE
  5
30F
100
AcDbEntity
  8
0
100
AcDbLine
 62
7
  6
CONTINUOUS
 10
16.8743904563
 20
2.4303804433
 11
16.8983324696
 21
2.4303804433
  0
LINE
  5
310
100
AcDbEntity
  8
0
100
AcDbLine
 62
7
  6
CONTINUOUS
 10
18.1572301677
 20
2.4303804433
 11
18.1940311881
 21
2.4303804433
  0
LINE
  5
311
100
AcDbEntity
  8
0
100
AcDbLine
 62
7
  6
CONTINUOUS
 10
17.2393896587
 20
2.455130457
 11
17.182214627
 21
2.455130457
  0
LINE
  5
312
100
AcDbEntity
  8
0
100
AcDbLine
 62
7
  6
CONTINUOUS
 10
17.0404535484
 20
2.455130457
 11
16.8743904563
 21
2.455130457
  0
LINE
  5
313
100
AcDbEntity
  8
0
100
AcDbLine
 62
7
  6
CONTINUOUS
 10
17.3412257152
 20
2.455130457
 11
17.4416837709
 21
2.455130457
  0
LINE
  5
314
100
AcDbEntity
  8
0
100
AcDbLine
 62
7
  6
CONTINUOUS
 10
17.4863577957
 20
2.455130457
 11
17.5603588367
 21
2.455130457
  0
LINE
  5
315
100
AcDbEntity
  8
0
100
AcDbLine
 62
7
  6
CONTINUOUS
 10
17.5894788529
 20
2.455130457
 11
17.6899369086
 21
2.455130457
  0
LINE
  5
316
100
AcDbEntity
  8
0
100
AcDbLine
 62
7
  6
CONTINUOUS
 10
17.7346109333
 20
2.455130457
 11
17.8086119744
 21
2.455130457
  0
LINE
  5
317
100
AcDbEntity
  8
0
100
AcDbLine
 62
7
  6
CONTINUOUS
 10
17.8362019897
 20
2.455130457
 11
18.0379951016
 21
2.455130457
  0
LINE
  5
318
100
AcDbEntity
  8
0
100
AcDbLine
 62
7
  6
CONTINUOUS
 10
18.0683181184
 20
2.455130457
 11
18.2178992014
 21
2.455130457
  0
LINE
  5
319
100
AcDbEntity
  8
0
100
AcDbLine
 62
7
  6
CONTINUOUS
 10
17.0697205646
 20
2.4006414268
 11
17.059669559
 21
2.4041904287
  0
LINE
  5
31A
100
AcDbEntity
  8
0
100
AcDbLine
 62
7
  6
CONTINUOUS
 10
17.4615617819
 20
2.3550094015
 11
17.3982817468
 21
2.415387435
  0
LINE
  5
31B
100
AcDbEntity
  8
0
100
AcDbLine
 62
7
  6
CONTINUOUS
 10
17.4433917718
 20
2.4544464566
 11
17.5034248051
 21
2.3971664249
  0
LINE
  5
31C
100
AcDbEntity
  8
0
100
AcDbLine
 62
7
  6
CONTINUOUS
 10
17.7098149196
 20
2.3550094015
 11
17.6465348845
 21
2.415387435
  0
LINE
  5
31D
100
AcDbEntity
  8
0
100
AcDbLine
 62
7
  6
CONTINUOUS
 10
17.6916449095
 20
2.4544464566
 11
17.7516779428
 21
2.3971664249
  0
LINE
  5
31E
100
AcDbEntity
  8
0
100
AcDbLine
 62
7
  6
CONTINUOUS
 10
17.2169386463
 20
2.3915884218
 11
17.2225646494
 21
2.3828954169
  0
LINE
  5
31F
100
AcDbEntity
  8
0
100
AcDbLine
 62
7
  6
CONTINUOUS
 10
17.211133643
 20
2.4174894361
 11
17.203874639
 21
2.4287054423
  0
LINE
  5
320
100
AcDbEntity
  8
0
100
AcDbLine
 62
7
  6
CONTINUOUS
 10
17.2892236864
 20
2.3802054154
 11
17.2414676599
 21
2.4540004564
  0
LINE
  5
321
100
AcDbEntity
  8
0
100
AcDbLine
 62
7
  6
CONTINUOUS
 10
18.206476195
 20
2.3723714111
 11
18.204672194
 21
2.3784404145
  0
LINE
  5
322
100
AcDbEntity
  8
0
100
AcDbLine
 62
7
  6
CONTINUOUS
 10
16.8719154549
 20
2.4526554556
 11
16.8719154549
 21
2.4328554446
  0
LINE
  5
323
100
AcDbEntity
  8
0
100
AcDbLine
 62
7
  6
CONTINUOUS
 10
16.8719154549
 20
2.3766004134
 11
16.8719154549
 21
2.3568004025
  0
LINE
  5
324
100
AcDbEntity
  8
0
100
AcDbLine
 62
7
  6
CONTINUOUS
 10
16.9008074709
 20
2.4279054419
 11
16.9008074709
 21
2.3815504162
  0
LINE
  5
325
100
AcDbEntity
  8
0
100
AcDbLine
 62
7
  6
CONTINUOUS
 10
16.9613205045
 20
2.4279054419
 11
16.9613205045
 21
2.415530435
  0
LINE
  5
326
100
AcDbEntity
  8
0
100
AcDbLine
 62
7
  6
CONTINUOUS
 10
16.9613205045
 20
2.3815504162
 11
16.9613205045
 21
2.3939254231
  0
LINE
  5
327
100
AcDbEntity
  8
0
100
AcDbLine
 62
7
  6
CONTINUOUS
 10
17.1058985847
 20
2.3766004134
 11
17.1058985847
 21
2.3568004025
  0
LINE
  5
328
100
AcDbEntity
  8
0
100
AcDbLine
 62
7
  6
CONTINUOUS
 10
17.1882246303
 20
2.3568004025
 11
17.1882246303
 21
2.3766004134
  0
LINE
  5
329
100
AcDbEntity
  8
0
100
AcDbLine
 62
7
  6
CONTINUOUS
 10
17.2035606388
 20
2.3766004134
 11
17.2035606388
 21
2.3568004025
  0
LINE
  5
32A
100
AcDbEntity
  8
0
100
AcDbLine
 62
7
  6
CONTINUOUS
 10
17.3137917
 20
2.3568004025
 11
17.3137917
 21
2.3766004134
  0
LINE
  5
32B
100
AcDbEntity
  8
0
100
AcDbLine
 62
7
  6
CONTINUOUS
 10
17.3387507138
 20
2.3568004025
 11
17.3387507138
 21
2.3766004134
  0
LINE
  5
32C
100
AcDbEntity
  8
0
100
AcDbLine
 62
7
  6
CONTINUOUS
 10
17.3387507138
 20
2.4328554446
 11
17.3387507138
 21
2.4526554556
  0
LINE
  5
32D
100
AcDbEntity
  8
0
100
AcDbLine
 62
7
  6
CONTINUOUS
 10
17.3623477269
 20
2.3815504162
 11
17.3623477269
 21
2.4279054419
  0
LINE
  5
32E
100
AcDbEntity
  8
0
100
AcDbLine
 62
7
  6
CONTINUOUS
 10
17.3940977445
 20
2.413596434
 11
17.3940977445
 21
2.3815504162
  0
LINE
  5
32F
100
AcDbEntity
  8
0
100
AcDbLine
 62
7
  6
CONTINUOUS
 10
17.4193647585
 20
2.3766004134
 11
17.4193647585
 21
2.3568004025
  0
LINE
  5
330
100
AcDbEntity
  8
0
100
AcDbLine
 62
7
  6
CONTINUOUS
 10
17.4838827943
 20
2.4328554446
 11
17.4838827943
 21
2.4526554556
  0
LINE
  5
331
100
AcDbEntity
  8
0
100
AcDbLine
 62
7
  6
CONTINUOUS
 10
17.5076088075
 20
2.3989574258
 11
17.5076088075
 21
2.4279054419
  0
LINE
  5
332
100
AcDbEntity
  8
0
100
AcDbLine
 62
7
  6
CONTINUOUS
 10
17.5399508254
 20
2.4279054419
 11
17.5399508254
 21
2.3568004025
  0
LINE
  5
333
100
AcDbEntity
  8
0
100
AcDbLine
 62
7
  6
CONTINUOUS
 10
17.5628338381
 20
2.4526554556
 11
17.5628338381
 21
2.4328554446
  0
LINE
  5
334
100
AcDbEntity
  8
0
100
AcDbLine
 62
7
  6
CONTINUOUS
 10
17.5870038515
 20
2.3568004025
 11
17.5870038515
 21
2.3766004134
  0
LINE
  5
335
100
AcDbEntity
  8
0
100
AcDbLine
 62
7
  6
CONTINUOUS
 10
17.5870038515
 20
2.4328554446
 11
17.5870038515
 21
2.4526554556
  0
LINE
  5
336
100
AcDbEntity
  8
0
100
AcDbLine
 62
7
  6
CONTINUOUS
 10
17.6105998646
 20
2.3815504162
 11
17.6105998646
 21
2.4279054419
  0
LINE
  5
337
100
AcDbEntity
  8
0
100
AcDbLine
 62
7
  6
CONTINUOUS
 10
17.6423508822
 20
2.413596434
 11
17.6423508822
 21
2.3815504162
  0
LINE
  5
338
100
AcDbEntity
  8
0
100
AcDbLine
 62
7
  6
CONTINUOUS
 10
17.6676178962
 20
2.3766004134
 11
17.6676178962
 21
2.3568004025
  0
LINE
  5
339
100
AcDbEntity
  8
0
100
AcDbLine
 62
7
  6
CONTINUOUS
 10
17.732135932
 20
2.4328554446
 11
17.732135932
 21
2.4526554556
  0
LINE
  5
33A
100
AcDbEntity
  8
0
100
AcDbLine
 62
7
  6
CONTINUOUS
 10
17.7558619451
 20
2.3989574258
 11
17.7558619451
 21
2.4279054419
  0
LINE
  5
33B
100
AcDbEntity
  8
0
100
AcDbLine
 62
7
  6
CONTINUOUS
 10
17.7882039631
 20
2.4279054419
 11
17.7882039631
 21
2.3568004025
  0
LINE
  5
33C
100
AcDbEntity
  8
0
100
AcDbLine
 62
7
  6
CONTINUOUS
 10
17.8110869758
 20
2.4526554556
 11
17.8110869758
 21
2.4328554446
  0
LINE
  5
33D
100
AcDbEntity
  8
0
100
AcDbLine
 62
7
  6
CONTINUOUS
 10
17.8337269883
 20
2.3568004025
 11
17.8337269883
 21
2.3766004134
  0
LINE
  5
33E
100
AcDbEntity
  8
0
100
AcDbLine
 62
7
  6
CONTINUOUS
 10
17.8337269883
 20
2.4328554446
 11
17.8337269883
 21
2.4526554556
  0
LINE
  5
33F
100
AcDbEntity
  8
0
100
AcDbLine
 62
7
  6
CONTINUOUS
 10
17.8626000043
 20
2.3815504162
 11
17.8626000043
 21
2.4279054419
  0
LINE
  5
340
100
AcDbEntity
  8
0
100
AcDbLine
 62
7
  6
CONTINUOUS
 10
17.9246660387
 20
2.4279054419
 11
17.9246660387
 21
2.4163554355
  0
LINE
  5
341
100
AcDbEntity
  8
0
100
AcDbLine
 62
7
  6
CONTINUOUS
 10
17.9246660387
 20
2.3931004226
 11
17.9246660387
 21
2.3815504162
  0
LINE
  5
342
100
AcDbEntity
  8
0
100
AcDbLine
 62
7
  6
CONTINUOUS
 10
17.964783061
 20
2.4114054327
 11
17.964783061
 21
2.3980504253
  0
LINE
  5
343
100
AcDbEntity
  8
0
100
AcDbLine
 62
7
  6
CONTINUOUS
 10
17.993656077
 20
2.4196554373
 11
17.993656077
 21
2.4279054419
  0
LINE
  5
344
100
AcDbEntity
  8
0
100
AcDbLine
 62
7
  6
CONTINUOUS
 10
17.9946200775
 20
2.3815504162
 11
17.9946200775
 21
2.3898004208
  0
LINE
  5
345
100
AcDbEntity
  8
0
100
AcDbLine
 62
7
  6
CONTINUOUS
 10
18.040470103
 20
2.4526554556
 11
18.040470103
 21
2.4196554373
  0
LINE
  5
346
100
AcDbEntity
  8
0
100
AcDbLine
 62
7
  6
CONTINUOUS
 10
18.0418891038
 20
2.3898004208
 11
18.0418891038
 21
2.3568004025
  0
LINE
  5
347
100
AcDbEntity
  8
0
100
AcDbLine
 62
7
  6
CONTINUOUS
 10
18.065843117
 20
2.3568004025
 11
18.065843117
 21
2.3766004134
  0
LINE
  5
348
100
AcDbEntity
  8
0
100
AcDbLine
 62
7
  6
CONTINUOUS
 10
18.065843117
 20
2.4328554446
 11
18.065843117
 21
2.4526554556
  0
LINE
  5
349
100
AcDbEntity
  8
0
100
AcDbLine
 62
7
  6
CONTINUOUS
 10
18.0935391324
 20
2.3815504162
 11
18.0935391324
 21
2.4279054419
  0
LINE
  5
34A
100
AcDbEntity
  8
0
100
AcDbLine
 62
7
  6
CONTINUOUS
 10
18.1547551663
 20
2.3912274216
 11
18.1547551663
 21
2.3815284162
  0
LINE
  5
34B
100
AcDbEntity
  8
0
100
AcDbLine
 62
7
  6
CONTINUOUS
 10
18.1547551663
 20
2.4151804348
 11
18.1547551663
 21
2.4279054419
  0
LINE
  5
34C
100
AcDbEntity
  8
0
100
AcDbLine
 62
7
  6
CONTINUOUS
 10
18.1843641828
 20
2.3765784134
 11
18.1843641828
 21
2.3568004025
  0
LINE
  5
34D
100
AcDbEntity
  8
0
100
AcDbLine
 62
7
  6
CONTINUOUS
 10
18.2835562378
 20
2.3881114198
 11
18.2835562378
 21
2.3907374213
  0
LINE
  5
34E
100
AcDbEntity
  8
0
100
AcDbLine
 62
7
  6
CONTINUOUS
 10
18.3006162472
 20
2.3907374213
 11
18.3006162472
 21
2.3791854149
  0
LINE
  5
34F
100
AcDbEntity
  8
0
100
AcDbLine
 62
7
  6
CONTINUOUS
 10
18.3975725422
 20
2.3981678251
 11
18.3975725422
 21
2.4087850316
  0
LINE
  5
350
100
AcDbEntity
  8
0
100
AcDbLine
 62
7
  6
CONTINUOUS
 10
17.1801246258
 20
2.4539814564
 11
17.1333245999
 21
2.3802244155
  0
LINE
  5
351
100
AcDbEntity
  8
0
100
AcDbLine
 62
7
  6
CONTINUOUS
 10
17.1935256333
 20
2.4286874423
 11
17.1864086293
 21
2.4174704361
  0
LINE
  5
352
100
AcDbEntity
  8
0
100
AcDbLine
 62
7
  6
CONTINUOUS
 10
17.1723766216
 20
2.3828764169
 11
17.1778926246
 21
2.3915704217
  0
LINE
  5
353
100
AcDbEntity
  8
0
100
AcDbLine
 62
7
  6
CONTINUOUS
 10
17.059669559
 20
2.4041904287
 11
17.0679095636
 21
2.4089664314
  0
ARC
  5
354
100
AcDbEntity
  8
0
100
AcDbCircle
 62
7
  6
CONTINUOUS
 10
17.4632701481
 20
2.3568008172
 40
0.0024754162
100
AcDbArc
 50
226.3593695814
 51
270.0146919953
  0
ARC
  5
355
100
AcDbEntity
  8
0
100
AcDbCircle
 62
7
  6
CONTINUOUS
 10
16.8743904545
 20
2.3568004006
 40
0.0024749995
100
AcDbArc
 50
179.9999571957
 51
270.0000428043
  0
ARC
  5
356
100
AcDbEntity
  8
0
100
AcDbCircle
 62
7
  6
CONTINUOUS
 10
17.5374758259
 20
2.3568004006
 40
0.0024749995
100
AcDbArc
 50
269.9999571957
 51
0.0000428043
  0
ARC
  5
357
100
AcDbEntity
  8
0
100
AcDbCircle
 62
7
  6
CONTINUOUS
 10
17.416889759
 20
2.3568004006
 40
0.0024749995
100
AcDbArc
 50
269.9999571957
 51
0.0000428043
  0
ARC
  5
358
100
AcDbEntity
  8
0
100
AcDbCircle
 62
7
  6
CONTINUOUS
 10
17.3412257133
 20
2.3568004006
 40
0.0024749995
100
AcDbArc
 50
179.9999571957
 51
270.0000428043
  0
ARC
  5
359
100
AcDbEntity
  8
0
100
AcDbCircle
 62
7
  6
CONTINUOUS
 10
17.2060356384
 20
2.3568004006
 40
0.0024749995
100
AcDbArc
 50
179.9999571957
 51
270.0000428043
  0
ARC
  5
35A
100
AcDbEntity
  8
0
100
AcDbCircle
 62
7
  6
CONTINUOUS
 10
17.3113167005
 20
2.3568004006
 40
0.0024749995
100
AcDbArc
 50
269.9999571957
 51
0.0000428043
  0
ARC
  5
35B
100
AcDbEntity
  8
0
100
AcDbCircle
 62
7
  6
CONTINUOUS
 10
17.1083735842
 20
2.3568004006
 40
0.0024749995
100
AcDbArc
 50
179.9999571957
 51
270.0000428043
  0
ARC
  5
35C
100
AcDbEntity
  8
0
100
AcDbCircle
 62
7
  6
CONTINUOUS
 10
17.1857496308
 20
2.3568004006
 40
0.0024749995
100
AcDbArc
 50
269.9999571958
 51
0.0000428044
  0
ARC
  5
35D
100
AcDbEntity
  8
0
100
AcDbCircle
 62
7
  6
CONTINUOUS
 10
17.0404590422
 20
2.3933827403
 40
0.061747717
100
AcDbArc
 50
59.5385584989
 51
90.0050977555
  0
ARC
  5
35E
100
AcDbEntity
  8
0
100
AcDbCircle
 62
7
  6
CONTINUOUS
 10
17.0481152095
 20
2.4027328529
 40
0.048483885
100
AcDbArc
 50
273.21763719
 51
303.0749121182
  0
ARC
  5
35F
100
AcDbEntity
  8
0
100
AcDbCircle
 62
7
  6
CONTINUOUS
 10
17.0620614151
 20
2.3797859164
 40
0.0222174455
100
AcDbArc
 50
4.0793399388
 51
69.834329283
  0
ARC
  5
360
100
AcDbEntity
  8
0
100
AcDbCircle
 62
7
  6
CONTINUOUS
 10
17.0629546036
 20
2.379965244
 40
0.0213072145
100
AcDbArc
 50
303.0488228549
 51
355.7263138674
  0
ARC
  5
361
100
AcDbEntity
  8
0
100
AcDbCircle
 62
7
  6
CONTINUOUS
 10
17.0688911042
 20
2.3799744343
 40
0.0153945295
100
AcDbArc
 50
354.0454548824
 51
5.1878013979
  0
ARC
  5
362
100
AcDbEntity
  8
0
100
AcDbCircle
 62
7
  6
CONTINUOUS
 10
17.0051585288
 20
2.3877379196
 40
0.0086625048
100
AcDbArc
 50
270.0
 51
90.0
  0
ARC
  5
363
100
AcDbEntity
  8
0
100
AcDbCircle
 62
7
  6
CONTINUOUS
 10
17.2148601055
 20
2.3902439622
 40
0.0024754602
100
AcDbArc
 50
32.8959418573
 51
89.9875097202
  0
ARC
  5
364
100
AcDbEntity
  8
0
100
AcDbCircle
 62
7
  6
CONTINUOUS
 10
17.131234669
 20
2.3815506151
 40
0.0024752003
100
AcDbArc
 50
269.9983726451
 51
327.602165307
  0
ARC
  5
365
100
AcDbEntity
  8
0
100
AcDbCircle
 62
7
  6
CONTINUOUS
 10
17.1799825555
 20
2.3902442221
 40
0.0024752003
100
AcDbArc
 50
89.998372645
 51
147.602165307
  0
ARC
  5
366
100
AcDbEntity
  8
0
100
AcDbCircle
 62
7
  6
CONTINUOUS
 10
17.1744665134
 20
2.3815504549
 40
0.0024750401
100
AcDbArc
 50
147.6063258011
 51
270.0025305754
  0
ARC
  5
367
100
AcDbEntity
  8
0
100
AcDbCircle
 62
7
  6
CONTINUOUS
 10
16.8983324714
 20
2.3815504143
 40
0.0024749995
100
AcDbArc
 50
269.9999571957
 51
0.0000428043
  0
ARC
  5
368
100
AcDbEntity
  8
0
100
AcDbCircle
 62
7
  6
CONTINUOUS
 10
16.8743904545
 20
2.3766004153
 40
0.0024749995
100
AcDbArc
 50
89.9999571957
 51
180.0000428043
  0
ARC
  5
369
100
AcDbEntity
  8
0
100
AcDbCircle
 62
7
  6
CONTINUOUS
 10
16.963795504
 20
2.3939254249
 40
0.0024749995
100
AcDbArc
 50
89.9999571957
 51
180.0000428043
  0
ARC
  5
36A
100
AcDbEntity
  8
0
100
AcDbCircle
 62
7
  6
CONTINUOUS
 10
16.963795504
 20
2.3815504143
 40
0.0024749995
100
AcDbArc
 50
179.9999571957
 51
270.0000428043
  0
ARC
  5
36B
100
AcDbEntity
  8
0
100
AcDbCircle
 62
7
  6
CONTINUOUS
 10
17.2060356384
 20
2.3766004153
 40
0.0024749995
100
AcDbArc
 50
89.9999571957
 51
180.0000428043
  0
ARC
  5
36C
100
AcDbEntity
  8
0
100
AcDbCircle
 62
7
  6
CONTINUOUS
 10
17.1083735842
 20
2.3766004153
 40
0.0024749995
100
AcDbArc
 50
89.9999571957
 51
180.0000428043
  0
ARC
  5
36D
100
AcDbEntity
  8
0
100
AcDbCircle
 62
7
  6
CONTINUOUS
 10
17.1857496308
 20
2.3766004153
 40
0.0024749995
100
AcDbArc
 50
359.9999571957
 51
90.0000428043
  0
ARC
  5
36E
100
AcDbEntity
  8
0
100
AcDbCircle
 62
7
  6
CONTINUOUS
 10
17.0460441811
 20
2.445793323
 40
0.0428289026
100
AcDbArc
 50
300.6990502959
 51
319.0591802498
  0
ARC
  5
36F
100
AcDbEntity
  8
0
100
AcDbCircle
 62
7
  6
CONTINUOUS
 10
17.0611211659
 20
2.4263113051
 40
0.0229166529
100
AcDbArc
 50
20.6563876465
 51
62.3316896973
  0
ARC
  5
370
100
AcDbEntity
  8
0
100
AcDbCircle
 62
7
  6
CONTINUOUS
 10
17.0660727781
 20
2.4296649696
 40
0.0171568255
100
AcDbArc
 50
315.9145124245
 51
16.0049121283
  0
ARC
  5
371
100
AcDbEntity
  8
0
100
AcDbCircle
 62
7
  6
CONTINUOUS
 10
17.0051585288
 20
2.4217179385
 40
0.0086625048
100
AcDbArc
 50
270.0
 51
90.0
  0
ARC
  5
372
100
AcDbEntity
  8
0
100
AcDbCircle
 62
7
  6
CONTINUOUS
 10
17.2017960982
 20
2.4273609828
 40
0.0024754602
100
AcDbArc
 50
32.8959418573
 51
89.9875097202
  0
ARC
  5
373
100
AcDbEntity
  8
0
100
AcDbCircle
 62
7
  6
CONTINUOUS
 10
17.2090556207
 20
2.4161446411
 40
0.0024752071
100
AcDbArc
 50
270.0004896793
 51
32.9089806818
  0
ARC
  5
374
100
AcDbEntity
  8
0
100
AcDbCircle
 62
7
  6
CONTINUOUS
 10
17.1956155641
 20
2.4273612427
 40
0.0024752003
100
AcDbArc
 50
89.998372645
 51
147.602165307
  0
ARC
  5
375
100
AcDbEntity
  8
0
100
AcDbCircle
 62
7
  6
CONTINUOUS
 10
17.1822145567
 20
2.4526552567
 40
0.0024752003
100
AcDbArc
 50
89.998372645
 51
147.602165307
  0
ARC
  5
376
100
AcDbEntity
  8
0
100
AcDbCircle
 62
7
  6
CONTINUOUS
 10
17.1884985212
 20
2.4161444741
 40
0.0024750401
100
AcDbArc
 50
147.6063258012
 51
270.0025305754
  0
ARC
  5
377
100
AcDbEntity
  8
0
100
AcDbCircle
 62
7
  6
CONTINUOUS
 10
16.8743904545
 20
2.4526554575
 40
0.0024749995
100
AcDbArc
 50
89.9999571957
 51
180.0000428043
  0
ARC
  5
378
100
AcDbEntity
  8
0
100
AcDbCircle
 62
7
  6
CONTINUOUS
 10
16.8743904545
 20
2.4328554428
 40
0.0024749995
100
AcDbArc
 50
179.9999571957
 51
270.0000428043
  0
ARC
  5
379
100
AcDbEntity
  8
0
100
AcDbCircle
 62
7
  6
CONTINUOUS
 10
16.8983324714
 20
2.4279054437
 40
0.0024749995
100
AcDbArc
 50
359.9999571957
 51
90.0000428043
  0
ARC
  5
37A
100
AcDbEntity
  8
0
100
AcDbCircle
 62
7
  6
CONTINUOUS
 10
16.963795504
 20
2.4279054437
 40
0.0024749995
100
AcDbArc
 50
89.9999571957
 51
180.0000428043
  0
ARC
  5
37B
100
AcDbEntity
  8
0
100
AcDbCircle
 62
7
  6
CONTINUOUS
 10
16.963795504
 20
2.4155304332
 40
0.0024749995
100
AcDbArc
 50
179.9999571957
 51
270.0000428043
  0
ARC
  5
37C
100
AcDbEntity
  8
0
100
AcDbCircle
 62
7
  6
CONTINUOUS
 10
17.5051335061
 20
2.3989573626
 40
0.0024753014
100
AcDbArc
 50
226.3461263059
 51
0.0014637321
  0
ARC
  5
37D
100
AcDbEntity
  8
0
100
AcDbCircle
 62
7
  6
CONTINUOUS
 10
17.3965730459
 20
2.4135964972
 40
0.0024753014
100
AcDbArc
 50
46.3461263059
 51
180.0014637321
  0
ARC
  5
37E
100
AcDbEntity
  8
0
100
AcDbCircle
 62
7
  6
CONTINUOUS
 10
17.2204866271
 20
2.3815506219
 40
0.0024752071
100
AcDbArc
 50
270.0004896793
 51
32.9089806818
  0
ARC
  5
37F
100
AcDbEntity
  8
0
100
AcDbCircle
 62
7
  6
CONTINUOUS
 10
17.396572744
 20
2.3815504143
 40
0.0024749995
100
AcDbArc
 50
179.9999571957
 51
270.0000428043
  0
ARC
  5
380
100
AcDbEntity
  8
0
100
AcDbCircle
 62
7
  6
CONTINUOUS
 10
17.416889759
 20
2.3766004153
 40
0.0024749995
100
AcDbArc
 50
359.9999571957
 51
90.0000428043
  0
ARC
  5
381
100
AcDbEntity
  8
0
100
AcDbCircle
 62
7
  6
CONTINUOUS
 10
17.3412257133
 20
2.3766004153
 40
0.0024749995
100
AcDbArc
 50
89.9999571957
 51
180.0000428043
  0
ARC
  5
382
100
AcDbEntity
  8
0
100
AcDbCircle
 62
7
  6
CONTINUOUS
 10
17.3598727274
 20
2.3815504143
 40
0.0024749995
100
AcDbArc
 50
269.9999571957
 51
0.0000428043
  0
ARC
  5
383
100
AcDbEntity
  8
0
100
AcDbCircle
 62
7
  6
CONTINUOUS
 10
17.3113167005
 20
2.3766004153
 40
0.0024749995
100
AcDbArc
 50
359.9999571957
 51
90.0000428043
  0
ARC
  5
384
100
AcDbEntity
  8
0
100
AcDbCircle
 62
7
  6
CONTINUOUS
 10
17.291300808
 20
2.3815494558
 40
0.002474041
100
AcDbArc
 50
212.9056413127
 51
269.9972091755
  0
ARC
  5
385
100
AcDbEntity
  8
0
100
AcDbCircle
 62
7
  6
CONTINUOUS
 10
17.5051338079
 20
2.4279054437
 40
0.0024749995
100
AcDbArc
 50
359.9999571957
 51
90.0000428043
  0
ARC
  5
386
100
AcDbEntity
  8
0
100
AcDbCircle
 62
7
  6
CONTINUOUS
 10
17.4863577938
 20
2.4328554428
 40
0.0024749995
100
AcDbArc
 50
179.9999571957
 51
270.0000428043
  0
ARC
  5
387
100
AcDbEntity
  8
0
100
AcDbCircle
 62
7
  6
CONTINUOUS
 10
17.4863577938
 20
2.4526554575
 40
0.0024749995
100
AcDbArc
 50
89.9999571957
 51
180.0000428043
  0
ARC
  5
388
100
AcDbEntity
  8
0
100
AcDbCircle
 62
7
  6
CONTINUOUS
 10
17.5603588386
 20
2.4526554575
 40
0.0024749995
100
AcDbArc
 50
359.9999571957
 51
90.0000428043
  0
ARC
  5
389
100
AcDbEntity
  8
0
100
AcDbCircle
 62
7
  6
CONTINUOUS
 10
17.5603588386
 20
2.4328554428
 40
0.0024749995
100
AcDbArc
 50
269.9999571957
 51
0.0000428043
  0
ARC
  5
38A
100
AcDbEntity
  8
0
100
AcDbCircle
 62
7
  6
CONTINUOUS
 10
17.5424258249
 20
2.4279054437
 40
0.0024749995
100
AcDbArc
 50
89.9999571957
 51
180.0000428043
  0
ARC
  5
38B
100
AcDbEntity
  8
0
100
AcDbCircle
 62
7
  6
CONTINUOUS
 10
17.3598727274
 20
2.4279054437
 40
0.0024749995
100
AcDbArc
 50
359.9999571957
 51
90.0000428043
  0
ARC
  5
38C
100
AcDbEntity
  8
0
100
AcDbCircle
 62
7
  6
CONTINUOUS
 10
17.3412257133
 20
2.4328554428
 40
0.0024749995
100
AcDbArc
 50
179.9999571957
 51
270.0000428043
  0
ARC
  5
38D
100
AcDbEntity
  8
0
100
AcDbCircle
 62
7
  6
CONTINUOUS
 10
17.3412257133
 20
2.4526554575
 40
0.0024749995
100
AcDbArc
 50
89.9999571957
 51
180.0000428043
  0
ARC
  5
38E
100
AcDbEntity
  8
0
100
AcDbCircle
 62
7
  6
CONTINUOUS
 10
17.2393900382
 20
2.4526554968
 40
0.0024749602
100
AcDbArc
 50
32.9172174468
 51
90.0087853097
  0
ARC
  5
38F
100
AcDbEntity
  8
0
100
AcDbCircle
 62
7
  6
CONTINUOUS
 10
17.4416839057
 20
2.4526562892
 40
0.0024741678
100
AcDbArc
 50
46.3477981899
 51
90.0031206038
  0
ARC
  5
390
100
AcDbEntity
  8
0
100
AcDbCircle
 62
7
  6
CONTINUOUS
 10
18.2152358981
 20
2.2725915465
 40
0.1825583387
100
AcDbArc
 50
79.8618509324
 51
89.1640948679
  0
ARC
  5
391
100
AcDbEntity
  8
0
100
AcDbCircle
 62
7
  6
CONTINUOUS
 10
18.197141171
 20
2.3016991173
 40
0.117346916
100
AcDbArc
 50
58.614769177
 51
62.3737227606
  0
ARC
  5
392
100
AcDbEntity
  8
0
100
AcDbCircle
 62
7
  6
CONTINUOUS
 10
18.2260032264
 20
2.3725718859
 40
0.0459185159
100
AcDbArc
 50
15.6740290068
 51
20.9917271228
  0
ARC
  5
393
100
AcDbEntity
  8
0
100
AcDbCircle
 62
7
  6
CONTINUOUS
 10
18.1662929967
 20
2.368643334
 40
0.0396099176
100
AcDbArc
 50
14.3201081283
 51
22.4984722084
  0
ARC
  5
394
100
AcDbEntity
  8
0
100
AcDbCircle
 62
7
  6
CONTINUOUS
 10
18.1850046504
 20
2.3693353402
 40
0.0243676582
100
AcDbArc
 50
63.3666028271
 51
90.3937697637
  0
ARC
  5
395
100
AcDbEntity
  8
0
100
AcDbCircle
 62
7
  6
CONTINUOUS
 10
18.2724993219
 20
2.3741987064
 40
0.0198837666
100
AcDbArc
 50
271.8586572978
 51
289.4131338543
  0
ARC
  5
396
100
AcDbEntity
  8
0
100
AcDbCircle
 62
7
  6
CONTINUOUS
 10
18.2265855264
 20
2.3716475527
 40
0.0173408616
100
AcDbArc
 50
232.4713476722
 51
267.338189944
  0
ARC
  5
397
100
AcDbEntity
  8
0
100
AcDbCircle
 62
7
  6
CONTINUOUS
 10
18.1818891832
 20
2.3568004006
 40
0.0024749995
100
AcDbArc
 50
269.9999571957
 51
0.0000428043
  0
ARC
  5
398
100
AcDbEntity
  8
0
100
AcDbCircle
 62
7
  6
CONTINUOUS
 10
18.0683181166
 20
2.3568004006
 40
0.0024749995
100
AcDbArc
 50
179.9999571957
 51
270.0000428043
  0
ARC
  5
399
100
AcDbEntity
  8
0
100
AcDbCircle
 62
7
  6
CONTINUOUS
 10
17.7857289635
 20
2.3568004006
 40
0.0024749995
100
AcDbArc
 50
269.9999571957
 51
0.0000428043
  0
ARC
  5
39A
100
AcDbEntity
  8
0
100
AcDbCircle
 62
7
  6
CONTINUOUS
 10
17.6651428967
 20
2.3568004006
 40
0.0024749995
100
AcDbArc
 50
269.9999571957
 51
0.0000428043
  0
ARC
  5
39B
100
AcDbEntity
  8
0
100
AcDbCircle
 62
7
  6
CONTINUOUS
 10
17.589478851
 20
2.3568004006
 40
0.0024749995
100
AcDbArc
 50
179.9999571957
 51
270.0000428043
  0
ARC
  5
39C
100
AcDbEntity
  8
0
100
AcDbCircle
 62
7
  6
CONTINUOUS
 10
18.0394141042
 20
2.3568004006
 40
0.0024749995
100
AcDbArc
 50
269.9999571957
 51
0.0000428043
  0
ARC
  5
39D
100
AcDbEntity
  8
0
100
AcDbCircle
 62
7
  6
CONTINUOUS
 10
17.8362019878
 20
2.3568004006
 40
0.0024749995
100
AcDbArc
 50
179.9999571957
 51
270.0000428043
  0
ARC
  5
39E
100
AcDbEntity
  8
0
100
AcDbCircle
 62
7
  6
CONTINUOUS
 10
17.7115227858
 20
2.3567995689
 40
0.0024741678
100
AcDbArc
 50
226.3477981898
 51
270.0031206038
  0
ARC
  5
39F
100
AcDbEntity
  8
0
100
AcDbCircle
 62
7
  6
CONTINUOUS
 10
17.7533866437
 20
2.3989573626
 40
0.0024753014
100
AcDbArc
 50
226.3461263059
 51
0.0014637321
  0
ARC
  5
3A0
100
AcDbEntity
  8
0
100
AcDbCircle
 62
7
  6
CONTINUOUS
 10
17.6448261836
 20
2.4135964972
 40
0.0024753014
100
AcDbArc
 50
46.3461263058
 51
180.0014637321
  0
ARC
  5
3A1
100
AcDbEntity
  8
0
100
AcDbCircle
 62
7
  6
CONTINUOUS
 10
17.6448258817
 20
2.3815504143
 40
0.0024749995
100
AcDbArc
 50
179.9999571957
 51
270.0000428043
  0
ARC
  5
3A2
100
AcDbEntity
  8
0
100
AcDbCircle
 62
7
  6
CONTINUOUS
 10
17.6651428967
 20
2.3766004153
 40
0.0024749995
100
AcDbArc
 50
359.9999571957
 51
90.0000428043
  0
ARC
  5
3A3
100
AcDbEntity
  8
0
100
AcDbCircle
 62
7
  6
CONTINUOUS
 10
17.589478851
 20
2.3766004153
 40
0.0024749995
100
AcDbArc
 50
89.9999571957
 51
180.0000428043
  0
ARC
  5
3A4
100
AcDbEntity
  8
0
100
AcDbCircle
 62
7
  6
CONTINUOUS
 10
17.6081248651
 20
2.3815504143
 40
0.0024749995
100
AcDbArc
 50
269.9999571957
 51
0.0000428043
  0
ARC
  5
3A5
100
AcDbEntity
  8
0
100
AcDbCircle
 62
7
  6
CONTINUOUS
 10
17.9271410383
 20
2.3931004244
 40
0.0024749995
100
AcDbArc
 50
89.9999571957
 51
180.0000428043
  0
ARC
  5
3A6
100
AcDbEntity
  8
0
100
AcDbCircle
 62
7
  6
CONTINUOUS
 10
17.9271410383
 20
2.3815504143
 40
0.0024749995
100
AcDbArc
 50
179.9999571957
 51
270.0000428043
  0
ARC
  5
3A7
100
AcDbEntity
  8
0
100
AcDbCircle
 62
7
  6
CONTINUOUS
 10
17.8362019878
 20
2.3766004153
 40
0.0024749995
100
AcDbArc
 50
89.9999571957
 51
180.0000428043
  0
ARC
  5
3A8
100
AcDbEntity
  8
0
100
AcDbCircle
 62
7
  6
CONTINUOUS
 10
17.8601250048
 20
2.3815504143
 40
0.0024749995
100
AcDbArc
 50
269.9999571956
 51
0.0000428042
  0
ARC
  5
3A9
100
AcDbEntity
  8
0
100
AcDbCircle
 62
7
  6
CONTINUOUS
 10
17.9271410383
 20
2.4163554336
 40
0.0024749995
100
AcDbArc
 50
179.9999571957
 51
270.0000428043
  0
ARC
  5
3AA
100
AcDbEntity
  8
0
100
AcDbCircle
 62
7
  6
CONTINUOUS
 10
17.7533869456
 20
2.4279054437
 40
0.0024749995
100
AcDbArc
 50
359.9999571957
 51
90.0000428043
  0
ARC
  5
3AB
100
AcDbEntity
  8
0
100
AcDbCircle
 62
7
  6
CONTINUOUS
 10
17.7346109315
 20
2.4328554428
 40
0.0024749995
100
AcDbArc
 50
179.9999571957
 51
270.0000428043
  0
ARC
  5
3AC
100
AcDbEntity
  8
0
100
AcDbCircle
 62
7
  6
CONTINUOUS
 10
17.7346109315
 20
2.4526554575
 40
0.0024749995
100
AcDbArc
 50
89.9999571957
 51
180.0000428043
  0
ARC
  5
3AD
100
AcDbEntity
  8
0
100
AcDbCircle
 62
7
  6
CONTINUOUS
 10
17.8086119762
 20
2.4526554575
 40
0.0024749995
100
AcDbArc
 50
359.9999571957
 51
90.0000428043
  0
ARC
  5
3AE
100
AcDbEntity
  8
0
100
AcDbCircle
 62
7
  6
CONTINUOUS
 10
17.8086119762
 20
2.4328554428
 40
0.0024749995
100
AcDbArc
 50
269.9999571956
 51
0.0000428042
  0
ARC
  5
3AF
100
AcDbEntity
  8
0
100
AcDbCircle
 62
7
  6
CONTINUOUS
 10
17.7906789626
 20
2.4279054437
 40
0.0024749995
100
AcDbArc
 50
89.9999571957
 51
180.0000428043
  0
ARC
  5
3B0
100
AcDbEntity
  8
0
100
AcDbCircle
 62
7
  6
CONTINUOUS
 10
17.6081248651
 20
2.4279054437
 40
0.0024749995
100
AcDbArc
 50
359.9999571957
 51
90.0000428043
  0
ARC
  5
3B1
100
AcDbEntity
  8
0
100
AcDbCircle
 62
7
  6
CONTINUOUS
 10
17.589478851
 20
2.4328554428
 40
0.0024749995
100
AcDbArc
 50
179.9999571957
 51
270.0000428043
  0
ARC
  5
3B2
100
AcDbEntity
  8
0
100
AcDbCircle
 62
7
  6
CONTINUOUS
 10
17.589478851
 20
2.4526554575
 40
0.0024749995
100
AcDbArc
 50
89.9999571957
 51
180.0000428043
  0
ARC
  5
3B3
100
AcDbEntity
  8
0
100
AcDbCircle
 62
7
  6
CONTINUOUS
 10
17.8601250048
 20
2.4279054437
 40
0.0024749995
100
AcDbArc
 50
359.9999571957
 51
90.0000428043
  0
ARC
  5
3B4
100
AcDbEntity
  8
0
100
AcDbCircle
 62
7
  6
CONTINUOUS
 10
17.8362019878
 20
2.4328554428
 40
0.0024749995
100
AcDbArc
 50
179.9999571957
 51
270.0000428043
  0
ARC
  5
3B5
100
AcDbEntity
  8
0
100
AcDbCircle
 62
7
  6
CONTINUOUS
 10
17.8362019878
 20
2.4526554575
 40
0.0024749995
100
AcDbArc
 50
89.9999571957
 51
180.0000428043
  0
ARC
  5
3B6
100
AcDbEntity
  8
0
100
AcDbCircle
 62
7
  6
CONTINUOUS
 10
17.9271410383
 20
2.4279054437
 40
0.0024749995
100
AcDbArc
 50
89.9999571957
 51
180.0000428043
  0
ARC
  5
3B7
100
AcDbEntity
  8
0
100
AcDbCircle
 62
7
  6
CONTINUOUS
 10
17.6899370433
 20
2.4526562892
 40
0.0024741678
100
AcDbArc
 50
46.3477981899
 51
90.0031206038
  0
ARC
  5
3B8
100
AcDbEntity
  8
0
100
AcDbCircle
 62
7
  6
CONTINUOUS
 10
18.2495655574
 20
2.384346736
 40
0.044722495
100
AcDbArc
 50
195.531588407
 51
204.7624440448
  0
ARC
  5
3B9
100
AcDbEntity
  8
0
100
AcDbCircle
 62
7
  6
CONTINUOUS
 10
18.2415401884
 20
2.4134150625
 40
0.039319019
100
AcDbArc
 50
59.1202086415
 51
81.4730239328
  0
ARC
  5
3BA
100
AcDbEntity
  8
0
100
AcDbCircle
 62
7
  6
CONTINUOUS
 10
18.2667613545
 20
2.3917854558
 40
0.0383802683
100
AcDbArc
 50
288.7656836787
 51
309.6104317088
  0
ARC
  5
3BB
100
AcDbEntity
  8
0
100
AcDbCircle
 62
7
  6
CONTINUOUS
 10
18.2471995846
 20
2.4197497317
 40
0.0310192946
100
AcDbArc
 50
34.7540871
 51
62.0879016178
  0
ARC
  5
3BC
100
AcDbEntity
  8
0
100
AcDbCircle
 62
7
  6
CONTINUOUS
 10
18.1924863006
 20
2.4019259643
 40
0.0284963867
100
AcDbArc
 50
70.3834917948
 51
86.8922743861
  0
ARC
  5
3BD
100
AcDbEntity
  8
0
100
AcDbCircle
 62
7
  6
CONTINUOUS
 10
18.2737535399
 20
2.384184238
 40
0.0280715479
100
AcDbArc
 50
308.5071794988
 51
332.2400656899
  0
ARC
  5
3BE
100
AcDbEntity
  8
0
100
AcDbCircle
 62
7
  6
CONTINUOUS
 10
18.2439037681
 20
2.3797532943
 40
0.0266349791
100
AcDbArc
 50
20.3630922153
 51
37.9727053099
  0
ARC
  5
3BF
100
AcDbEntity
  8
0
100
AcDbCircle
 62
7
  6
CONTINUOUS
 10
18.2450241237
 20
2.3798263774
 40
0.0257145923
100
AcDbArc
 50
39.3804255939
 51
59.0361096173
  0
ARC
  5
3C0
100
AcDbEntity
  8
0
100
AcDbCircle
 62
7
  6
CONTINUOUS
 10
18.2296840914
 20
2.3774978567
 40
0.0238935861
100
AcDbArc
 50
209.8247607259
 51
235.1255079367
  0
ARC
  5
3C1
100
AcDbEntity
  8
0
100
AcDbCircle
 62
7
  6
CONTINUOUS
 10
18.2830605507
 20
2.3792897325
 40
0.0175560065
100
AcDbArc
 50
332.2279060967
 51
359.6595469939
  0
ARC
  5
3C2
100
AcDbEntity
  8
0
100
AcDbCircle
 62
7
  6
CONTINUOUS
 10
18.1890593051
 20
2.3776149607
 40
0.0151491919
100
AcDbArc
 50
24.098260853
 51
63.0369451818
  0
ARC
  5
3C3
100
AcDbEntity
  8
0
100
AcDbCircle
 62
7
  6
CONTINUOUS
 10
18.2845735615
 20
2.3882148688
 40
0.0147197649
100
AcDbArc
 50
192.7054516565
 51
206.0594861022
  0
ARC
  5
3C4
100
AcDbEntity
  8
0
100
AcDbCircle
 62
7
  6
CONTINUOUS
 10
18.1973459106
 20
2.4149676972
 40
0.0145814632
100
AcDbArc
 50
54.6746025112
 51
71.1660573124
  0
ARC
  5
3C5
100
AcDbEntity
  8
0
100
AcDbCircle
 62
7
  6
CONTINUOUS
 10
18.2752146786
 20
2.3927110743
 40
0.0132488022
100
AcDbArc
 50
270.266200055
 51
281.2404888597
  0
ARC
  5
3C6
100
AcDbEntity
  8
0
100
AcDbCircle
 62
7
  6
CONTINUOUS
 10
18.2716089246
 20
2.3878675959
 40
0.0119498009
100
AcDbArc
 50
340.7883861657
 51
1.1691452593
  0
ARC
  5
3C7
100
AcDbEntity
  8
0
100
AcDbCircle
 62
7
  6
CONTINUOUS
 10
18.198398534
 20
2.4260095887
 40
0.0110815393
100
AcDbArc
 50
306.758405961
 51
320.4502234234
  0
ARC
  5
3C8
100
AcDbEntity
  8
0
100
AcDbCircle
 62
7
  6
CONTINUOUS
 10
18.2764089196
 20
2.3869743807
 40
0.0073895522
100
AcDbArc
 50
280.8288201977
 51
305.0837508495
  0
ARC
  5
3C9
100
AcDbEntity
  8
0
100
AcDbCircle
 62
7
  6
CONTINUOUS
 10
18.2768101012
 20
2.3861235343
 40
0.0064647042
100
AcDbArc
 50
306.5086174083
 51
340.2162360092
  0
ARC
  5
3CA
100
AcDbEntity
  8
0
100
AcDbCircle
 62
7
  6
CONTINUOUS
 10
18.2024754016
 20
2.4218216224
 40
0.0060275915
100
AcDbArc
 50
20.9055592135
 51
56.7851676243
  0
ARC
  5
3CB
100
AcDbEntity
  8
0
100
AcDbCircle
 62
7
  6
CONTINUOUS
 10
18.2025691502
 20
2.4227756809
 40
0.0058087709
100
AcDbArc
 50
318.8515287446
 51
353.6422345323
  0
ARC
  5
3CC
100
AcDbEntity
  8
0
100
AcDbCircle
 62
7
  6
CONTINUOUS
 10
18.2760792244
 20
2.3840063824
 40
0.0052403997
100
AcDbArc
 50
205.5232099488
 51
227.5054868079
  0
ARC
  5
3CD
100
AcDbEntity
  8
0
100
AcDbCircle
 62
7
  6
CONTINUOUS
 10
18.2037759605
 20
2.4224819047
 40
0.0045795888
100
AcDbArc
 50
355.6235353944
 51
18.9942678268
  0
ARC
  5
3CE
100
AcDbEntity
  8
0
100
AcDbCircle
 62
7
  6
CONTINUOUS
 10
18.2743509251
 20
2.3821910097
 40
0.0027347709
100
AcDbArc
 50
228.5117626738
 51
266.1485845754
  0
ARC
  5
3CF
100
AcDbEntity
  8
0
100
AcDbCircle
 62
7
  6
CONTINUOUS
 10
18.1572301659
 20
2.3912274234
 40
0.0024749995
100
AcDbArc
 50
89.9999571957
 51
180.0000428043
  0
ARC
  5
3D0
100
AcDbEntity
  8
0
100
AcDbCircle
 62
7
  6
CONTINUOUS
 10
18.1572301659
 20
2.3815284143
 40
0.0024749995
100
AcDbArc
 50
179.9999571957
 51
270.0000428043
  0
ARC
  5
3D1
100
AcDbEntity
  8
0
100
AcDbCircle
 62
7
  6
CONTINUOUS
 10
18.1818891832
 20
2.3765784153
 40
0.0024749995
100
AcDbArc
 50
359.9999571957
 51
90.0000428043
  0
ARC
  5
3D2
100
AcDbEntity
  8
0
100
AcDbCircle
 62
7
  6
CONTINUOUS
 10
18.0683181166
 20
2.3766004153
 40
0.0024749995
100
AcDbArc
 50
89.9999571957
 51
180.0000428043
  0
ARC
  5
3D3
100
AcDbEntity
  8
0
100
AcDbCircle
 62
7
  6
CONTINUOUS
 10
18.0910641329
 20
2.3815504143
 40
0.0024749995
100
AcDbArc
 50
269.9999571957
 51
0.0000428043
  0
ARC
  5
3D4
100
AcDbEntity
  8
0
100
AcDbCircle
 62
7
  6
CONTINUOUS
 10
18.2860312373
 20
2.3907374231
 40
0.0024749995
100
AcDbArc
 50
89.9999571957
 51
180.0000428043
  0
ARC
  5
3D5
100
AcDbEntity
  8
0
100
AcDbCircle
 62
7
  6
CONTINUOUS
 10
18.2981412477
 20
2.3907374231
 40
0.0024749995
100
AcDbArc
 50
359.9999571957
 51
90.0000428043
  0
ARC
  5
3D6
100
AcDbEntity
  8
0
100
AcDbCircle
 62
7
  6
CONTINUOUS
 10
18.1572301659
 20
2.415180433
 40
0.0024749995
100
AcDbArc
 50
179.9999571957
 51
270.0000428043
  0
ARC
  5
3D7
100
AcDbEntity
  8
0
100
AcDbCircle
 62
7
  6
CONTINUOUS
 10
17.992145078
 20
2.3815504143
 40
0.0024749995
100
AcDbArc
 50
269.9999571957
 51
0.0000428043
  0
ARC
  5
3D8
100
AcDbEntity
  8
0
100
AcDbCircle
 62
7
  6
CONTINUOUS
 10
17.9970950771
 20
2.3898004226
 40
0.0024749995
100
AcDbArc
 50
89.9999571957
 51
180.0000428043
  0
ARC
  5
3D9
100
AcDbEntity
  8
0
100
AcDbCircle
 62
7
  6
CONTINUOUS
 10
18.0394141042
 20
2.3898004226
 40
0.0024749995
100
AcDbArc
 50
359.9999571957
 51
90.0000428043
  0
ARC
  5
3DA
100
AcDbEntity
  8
0
100
AcDbCircle
 62
7
  6
CONTINUOUS
 10
18.0379951034
 20
2.4196554355
 40
0.0024749995
100
AcDbArc
 50
269.9999571956
 51
0.0000428042
  0
ARC
  5
3DB
100
AcDbEntity
  8
0
100
AcDbCircle
 62
7
  6
CONTINUOUS
 10
17.9961310765
 20
2.4196554355
 40
0.0024749995
100
AcDbArc
 50
179.9999571957
 51
270.0000428043
  0
ARC
  5
3DC
100
AcDbEntity
  8
0
100
AcDbCircle
 62
7
  6
CONTINUOUS
 10
17.9623080615
 20
2.4114054346
 40
0.0024749995
100
AcDbArc
 50
359.9999571957
 51
90.0000428043
  0
ARC
  5
3DD
100
AcDbEntity
  8
0
100
AcDbCircle
 62
7
  6
CONTINUOUS
 10
17.9623080615
 20
2.3980504235
 40
0.0024749995
100
AcDbArc
 50
269.9999571956
 51
0.0000428042
  0
ARC
  5
3DE
100
AcDbEntity
  8
0
100
AcDbCircle
 62
7
  6
CONTINUOUS
 10
18.220842337
 20
2.4783532224
 40
0.0789082104
100
AcDbArc
 50
292.906155071
 51
305.2574666259
  0
ARC
  5
3DF
100
AcDbEntity
  8
0
100
AcDbCircle
 62
7
  6
CONTINUOUS
 10
18.2511742746
 20
2.4351463727
 40
0.0261183659
100
AcDbArc
 50
305.6373831893
 51
329.9727629745
  0
ARC
  5
3E0
100
AcDbEntity
  8
0
100
AcDbCircle
 62
7
  6
CONTINUOUS
 10
18.1908418374
 20
2.4381440645
 40
0.0254407115
100
AcDbArc
 50
270.7327484175
 51
290.441894219
  0
ARC
  5
3E1
100
AcDbEntity
  8
0
100
AcDbCircle
 62
7
  6
CONTINUOUS
 10
18.1927693431
 20
2.4337504172
 40
0.0206523367
100
AcDbArc
 50
289.6883413472
 51
306.4184925496
  0
ARC
  5
3E2
100
AcDbEntity
  8
0
100
AcDbCircle
 62
7
  6
CONTINUOUS
 10
18.2588883357
 20
2.4282993328
 40
0.0165459396
100
AcDbArc
 50
1.548452892
 51
33.5033152417
  0
ARC
  5
3E3
100
AcDbEntity
  8
0
100
AcDbCircle
 62
7
  6
CONTINUOUS
 10
18.2621849309
 20
2.428467785
 40
0.0132462337
100
AcDbArc
 50
331.1510006998
 51
1.205404301
  0
ARC
  5
3E4
100
AcDbEntity
  8
0
100
AcDbCircle
 62
7
  6
CONTINUOUS
 10
18.0910641329
 20
2.4279054437
 40
0.0024749995
100
AcDbArc
 50
359.9999571957
 51
90.0000428043
  0
ARC
  5
3E5
100
AcDbEntity
  8
0
100
AcDbCircle
 62
7
  6
CONTINUOUS
 10
18.0683181166
 20
2.4328554428
 40
0.0024749995
100
AcDbArc
 50
179.9999571957
 51
270.0000428043
  0
ARC
  5
3E6
100
AcDbEntity
  8
0
100
AcDbCircle
 62
7
  6
CONTINUOUS
 10
18.0683181166
 20
2.4526554575
 40
0.0024749995
100
AcDbArc
 50
89.9999571957
 51
180.0000428043
  0
ARC
  5
3E7
100
AcDbEntity
  8
0
100
AcDbCircle
 62
7
  6
CONTINUOUS
 10
18.1572301659
 20
2.4279054437
 40
0.0024749995
100
AcDbArc
 50
89.9999571957
 51
180.0000428043
  0
ARC
  5
3E8
100
AcDbEntity
  8
0
100
AcDbCircle
 62
7
  6
CONTINUOUS
 10
18.0379951034
 20
2.4526554575
 40
0.0024749995
100
AcDbArc
 50
359.9999571957
 51
90.0000428043
  0
ARC
  5
3E9
100
AcDbEntity
  8
0
100
AcDbCircle
 62
7
  6
CONTINUOUS
 10
17.9911810775
 20
2.4279054437
 40
0.0024749995
100
AcDbArc
 50
359.9999571957
 51
90.0000428043
  0
ELLIPSE
  5
3EA
100
AcDbEntity
  8
0
100
AcDbEllipse
 62
7
  6
CONTINUOUS
 10
17.573550844
 20
2.4034764283
 30
0.0
 11
-0.8250004575
 21
0.0
 31
0.0
 40
0.218572
 41
0.0
 42
6.2831853072
  0
HATCH
  5
3EB
100
AcDbEntity
  8
0
100
AcDbHatch
 62
7
  6
CONTINUOUS
 10
0.0
 20
0.0
 30
0.0
210
0.0
220
0.0
230
1.0
  2
XSEC0002
 70
1
 71
1
 91
11
 92
1
 93
57
 72
2
 10
18.2265855264
 20
2.3716475527
 40
0.0173408616
 50
232.4713476722
 51
267.338189944
 73
1
 72
2
 10
18.2296840914
 20
2.3774978567
 40
0.0238935861
 50
209.8247607259
 51
235.1255079367
 73
1
 72
2
 10
18.2495655574
 20
2.384346736
 40
0.044722495
 50
195.531588407
 51
204.7624440448
 73
1
 72
1
 10
18.206476195
 20
2.3723714111
 11
18.204672194
 21
2.3784404145
 72
2
 10
18.1662929967
 20
2.368643334
 40
0.0396099176
 50
14.3201081283
 51
22.4984722084
 73
1
 72
2
 10
18.1890593051
 20
2.3776149607
 40
0.0151491919
 50
24.098260853
 51
63.0369451818
 73
1
 72
2
 10
18.1850046504
 20
2.3693353402
 40
0.0243676582
 50
63.3666028271
 51
90.3937697637
 73
1
 72
1
 10
18.184837183
 20
2.3937024229
 11
18.1572301677
 21
2.3937024229
 72
2
 10
18.1572301659
 20
2.3912274234
 40
0.0024749995
 50
89.9999571957
 51
180.0000428043
 73
1
 72
1
 10
18.1547551663
 20
2.3912274216
 11
18.1547551663
 21
2.3815284162
 72
2
 10
18.1572301659
 20
2.3815284143
 40
0.0024749995
 50
179.9999571957
 51
270.0000428043
 73
1
 72
1
 10
18.1572301677
 20
2.3790534148
 11
18.1818891814
 21
2.3790534148
 72
2
 10
18.1818891832
 20
2.3765784153
 40
0.0024749995
 50
359.9999571957
 51
90.0000428042
 73
1
 72
1
 10
18.1843641828
 20
2.3765784134
 11
18.1843641828
 21
2.3568004025
 72
2
 10
18.1818891832
 20
2.3568004006
 40
0.0024749995
 50
269.9999571958
 51
0.0000428043
 73
1
 72
1
 10
18.1818891814
 20
2.3543254011
 11
18.0683181184
 21
2.3543254011
 72
2
 10
18.0683181166
 20
2.3568004006
 40
0.0024749995
 50
179.9999571957
 51
270.0000428042
 73
1
 72
1
 10
18.065843117
 20
2.3568004025
 11
18.065843117
 21
2.3766004134
 72
2
 10
18.0683181166
 20
2.3766004153
 40
0.0024749995
 50
89.9999571958
 51
180.0000428043
 73
1
 72
1
 10
18.0683181184
 20
2.3790754148
 11
18.091064131
 21
2.3790754148
 72
2
 10
18.0910641329
 20
2.3815504143
 40
0.0024749995
 50
269.9999571957
 51
0.0000428043
 73
1
 72
1
 10
18.0935391324
 20
2.3815504162
 11
18.0935391324
 21
2.4279054419
 72
2
 10
18.0910641329
 20
2.4279054437
 40
0.0024749995
 50
359.9999571957
 51
90.0000428043
 73
1
 72
1
 10
18.091064131
 20
2.4303804433
 11
18.0683181184
 21
2.4303804433
 72
2
 10
18.0683181166
 20
2.4328554428
 40
0.0024749995
 50
179.9999571957
 51
270.0000428043
 73
1
 72
1
 10
18.065843117
 20
2.4328554446
 11
18.065843117
 21
2.4526554556
 72
2
 10
18.0683181166
 20
2.4526554575
 40
0.0024749995
 50
89.9999571958
 51
180.0000428043
 73
1
 72
1
 10
18.0683181184
 20
2.455130457
 11
18.2178992014
 21
2.455130457
 72
2
 10
18.2152358981
 20
2.2725915465
 40
0.1825583387
 50
79.8618509324
 51
89.1640948679
 73
1
 72
2
 10
18.2415401884
 20
2.4134150625
 40
0.039319019
 50
59.1202086415
 51
81.4730239328
 73
1
 72
2
 10
18.2471995846
 20
2.4197497317
 40
0.0310192946
 50
34.7540871
 51
62.0879016178
 73
1
 72
2
 10
18.2588883357
 20
2.4282993328
 40
0.0165459396
 50
1.548452892
 51
33.5033152417
 73
1
 72
2
 10
18.2621849309
 20
2.428467785
 40
0.0132462337
 50
331.1510006998
 51
1.205404301
 73
1
 72
2
 10
18.2511742746
 20
2.4351463727
 40
0.0261183659
 50
305.6373831893
 51
329.9727629745
 73
1
 72
2
 10
18.220842337
 20
2.4783532224
 40
0.0789082104
 50
292.906155071
 51
305.2574666259
 73
1
 72
2
 10
18.197141171
 20
2.3016991173
 40
0.117346916
 50
58.614769177
 51
62.3737227606
 73
1
 72
2
 10
18.2450241237
 20
2.3798263774
 40
0.0257145923
 50
39.3804255939
 51
59.0361096173
 73
1
 72
2
 10
18.2439037681
 20
2.3797532943
 40
0.0266349791
 50
20.3630922153
 51
37.9727053099
 73
1
 72
2
 10
18.2260032264
 20
2.3725718859
 40
0.0459185159
 50
15.6740290068
 51
20.9917271228
 73
1
 72
2
 10
18.2845735615
 20
2.3882148688
 40
0.0147197649
 50
192.7054516565
 51
206.0594861022
 73
1
 72
2
 10
18.2760792244
 20
2.3840063824
 40
0.0052403997
 50
205.5232099488
 51
227.5054868079
 73
1
 72
2
 10
18.2743509251
 20
2.3821910097
 40
0.0027347709
 50
228.5117626738
 51
266.1485845755
 73
1
 72
1
 10
18.2741672326
 20
2.379462415
 11
18.2752762332
 21
2.379462415
 72
2
 10
18.2752146786
 20
2.3927110743
 40
0.0132488022
 50
270.266200055
 51
281.2404888597
 73
1
 72
2
 10
18.2764089196
 20
2.3869743807
 40
0.0073895522
 50
280.8288201977
 51
305.0837508495
 73
1
 72
2
 10
18.2768101012
 20
2.3861235343
 40
0.0064647042
 50
306.5086174083
 51
340.2162360092
 73
1
 72
2
 10
18.2716089246
 20
2.3878675959
 40
0.0119498009
 50
340.7883861657
 51
1.1691452593
 73
1
 72
1
 10
18.2835562378
 20
2.3881114198
 11
18.2835562378
 21
2.3907374213
 72
2
 10
18.2860312373
 20
2.3907374231
 40
0.0024749995
 50
89.9999571957
 51
180.0000428043
 73
1
 72
1
 10
18.2860312391
 20
2.3932124227
 11
18.2981412459
 21
2.3932124227
 72
2
 10
18.2981412477
 20
2.3907374231
 40
0.0024749995
 50
359.9999571957
 51
90.0000428043
 73
1
 72
1
 10
18.3006162472
 20
2.3907374213
 11
18.3006162472
 21
2.3791854149
 72
2
 10
18.2830605507
 20
2.3792897325
 40
0.0175560065
 50
332.2279060967
 51
359.6595469939
 73
1
 72
2
 10
18.2737535399
 20
2.384184238
 40
0.0280715479
 50
308.5071794988
 51
332.2400656899
 73
1
 72
2
 10
18.2667613545
 20
2.3917854558
 40
0.0383802683
 50
288.7656836787
 51
309.6104317088
 73
1
 72
2
 10
18.2724993219
 20
2.3741987064
 40
0.0198837666
 50
271.8586572978
 51
289.4131338543
 73
1
 72
1
 10
18.273144232
 20
2.3543254011
 11
18.2257802057
 21
2.3543254011
 97
267
330
2E0
330
2E1
330
2E2
330
2E3
330
2E4
330
2E5
330
2E6
330
2E7
330
2E8
330
2E9
330
2EA
330
2EB
330
2EC
330
2ED
330
2EE
330
2EF
330
2F0
330
2F1
330
2F2
330
2F3
330
2F4
330
2F5
330
2F6
330
2F7
330
2F8
330
2F9
330
2FA
330
2FB
330
2FC
330
2FD
330
2FE
330
2FF
330
300
330
301
330
302
330
303
330
304
330
305
330
306
330
307
330
308
330
309
330
30A
330
30B
330
30C
330
30D
330
30E
330
30F
330
310
330
311
330
312
330
313
330
314
330
315
330
316
330
317
330
318
330
319
330
31A
330
31B
330
31C
330
31D
330
31E
330
31F
330
320
330
321
330
322
330
323
330
324
330
325
330
326
330
327
330
328
330
329
330
32A
330
32B
330
32C
330
32D
330
32E
330
32F
330
330
330
331
330
332
330
333
330
334
330
335
330
336
330
337
330
338
330
339
330
33A
330
33B
330
33C
330
33D
330
33E
330
33F
330
340
330
341
330
342
330
343
330
344
330
345
330
346
330
347
330
348
330
349
330
34A
330
34B
330
34C
330
34D
330
34E
330
34F
330
350
330
351
330
352
330
353
330
354
330
355
330
356
330
357
330
358
330
359
330
35A
330
35B
330
35C
330
35D
330
35E
330
35F
330
360
330
361
330
362
330
363
330
364
330
365
330
366
330
367
330
368
330
369
330
36A
330
36B
330
36C
330
36D
330
36E
330
36F
330
370
330
371
330
372
330
373
330
374
330
375
330
376
330
377
330
378
330
379
330
37A
330
37B
330
37C
330
37D
330
37E
330
37F
330
380
330
381
330
382
330
383
330
384
330
385
330
386
330
387
330
388
330
389
330
38A
330
38B
330
38C
330
38D
330
38E
330
38F
330
390
330
391
330
392
330
393
330
394
330
395
330
396
330
397
330
398
330
399
330
39A
330
39B
330
39C
330
39D
330
39E
330
39F
330
3A0
330
3A1
330
3A2
330
3A3
330
3A4
330
3A5
330
3A6
330
3A7
330
3A8
330
3A9
330
3AA
330
3AB
330
3AC
330
3AD
330
3AE
330
3AF
330
3B0
330
3B1
330
3B2
330
3B3
330
3B4
330
3B5
330
3B6
330
3B7
330
3B8
330
3B9
330
3BA
330
3BB
330
3BC
330
3BD
330
3BE
330
3BF
330
3C0
330
3C1
330
3C2
330
3C3
330
3C4
330
3C5
330
3C6
330
3C7
330
3C8
330
3C9
330
3CA
330
3CB
330
3CC
330
3CD
330
3CE
330
3CF
330
3D0
330
3D1
330
3D2
330
3D3
330
3D4
330
3D5
330
3D6
330
3D7
330
3D8
330
3D9
330
3DA
330
3DB
330
3DC
330
3DD
330
3DE
330
3DF
330
3E0
330
3E1
330
3E2
330
3E3
330
3E4
330
3E5
330
3E6
330
3E7
330
3E8
330
3E9
330
3EA
 92
1
 93
40
 72
2
 10
17.8362019878
 20
2.3568004006
 40
0.0024749995
 50
179.9999571957
 51
270.0000428042
 73
1
 72
1
 10
17.8337269883
 20
2.3568004025
 11
17.8337269883
 21
2.3766004134
 72
2
 10
17.8362019878
 20
2.3766004153
 40
0.0024749995
 50
89.9999571958
 51
180.0000428043
 73
1
 72
1
 10
17.8362019897
 20
2.3790754148
 11
17.860125003
 21
2.3790754148
 72
2
 10
17.8601250048
 20
2.3815504143
 40
0.0024749995
 50
269.9999571956
 51
0.0000428042
 73
1
 72
1
 10
17.8626000043
 20
2.3815504162
 11
17.8626000043
 21
2.4279054419
 72
2
 10
17.8601250048
 20
2.4279054437
 40
0.0024749995
 50
359.9999571957
 51
90.0000428043
 73
1
 72
1
 10
17.860125003
 20
2.4303804433
 11
17.8362019897
 21
2.4303804433
 72
2
 10
17.8362019878
 20
2.4328554428
 40
0.0024749995
 50
179.9999571957
 51
270.0000428043
 73
1
 72
1
 10
17.8337269883
 20
2.4328554446
 11
17.8337269883
 21
2.4526554556
 72
2
 10
17.8362019878
 20
2.4526554575
 40
0.0024749995
 50
89.9999571958
 51
180.0000428043
 73
1
 72
1
 10
17.8362019897
 20
2.455130457
 11
18.0379951016
 21
2.455130457
 72
2
 10
18.0379951034
 20
2.4526554575
 40
0.0024749995
 50
359.9999571957
 51
90.0000428042
 73
1
 72
1
 10
18.040470103
 20
2.4526554556
 11
18.040470103
 21
2.4196554373
 72
2
 10
18.0379951034
 20
2.4196554355
 40
0.0024749995
 50
269.9999571956
 51
0.0000428042
 73
1
 72
1
 10
18.0379951016
 20
2.4171804359
 11
17.9961310784
 21
2.4171804359
 72
2
 10
17.9961310765
 20
2.4196554355
 40
0.0024749995
 50
179.9999571957
 51
270.0000428043
 73
1
 72
1
 10
17.993656077
 20
2.4196554373
 11
17.993656077
 21
2.4279054419
 72
2
 10
17.9911810775
 20
2.4279054437
 40
0.0024749995
 50
359.9999571957
 51
90.0000428043
 73
1
 72
1
 10
17.9911810756
 20
2.4303804433
 11
17.9271410401
 21
2.4303804433
 72
2
 10
17.9271410383
 20
2.4279054437
 40
0.0024749995
 50
89.9999571958
 51
180.0000428043
 73
1
 72
1
 10
17.9246660387
 20
2.4279054419
 11
17.9246660387
 21
2.4163554355
 72
2
 10
17.9271410383
 20
2.4163554336
 40
0.0024749995
 50
179.9999571957
 51
270.0000428042
 73
1
 72
1
 10
17.9271410401
 20
2.4138804341
 11
17.9623080596
 21
2.4138804341
 72
2
 10
17.9623080615
 20
2.4114054346
 40
0.0024749995
 50
359.9999571957
 51
90.0000428042
 73
1
 72
1
 10
17.964783061
 20
2.4114054327
 11
17.964783061
 21
2.3980504253
 72
2
 10
17.9623080615
 20
2.3980504235
 40
0.0024749995
 50
269.9999571956
 51
0.0000428042
 73
1
 72
1
 10
17.9623080596
 20
2.395575424
 11
17.9271410401
 21
2.395575424
 72
2
 10
17.9271410383
 20
2.3931004244
 40
0.0024749995
 50
89.9999571958
 51
180.0000428043
 73
1
 72
1
 10
17.9246660387
 20
2.3931004226
 11
17.9246660387
 21
2.3815504162
 72
2
 10
17.9271410383
 20
2.3815504143
 40
0.0024749995
 50
179.9999571957
 51
270.0000428043
 73
1
 72
1
 10
17.9271410401
 20
2.3790754148
 11
17.9921450762
 21
2.3790754148
 72
2
 10
17.992145078
 20
2.3815504143
 40
0.0024749995
 50
269.9999571958
 51
0.0000428043
 73
1
 72
1
 10
17.9946200775
 20
2.3815504162
 11
17.9946200775
 21
2.3898004208
 72
2
 10
17.9970950771
 20
2.3898004226
 40
0.0024749995
 50
89.9999571958
 51
180.0000428043
 73
1
 72
1
 10
17.9970950789
 20
2.3922754221
 11
18.0394141024
 21
2.3922754221
 72
2
 10
18.0394141042
 20
2.3898004226
 40
0.0024749995
 50
359.9999571957
 51
90.0000428043
 73
1
 72
1
 10
18.0418891038
 20
2.3898004208
 11
18.0418891038
 21
2.3568004025
 72
2
 10
18.0394141042
 20
2.3568004006
 40
0.0024749995
 50
269.9999571958
 51
0.0000428043
 73
1
 72
1
 10
18.0394141024
 20
2.3543254011
 11
17.8362019897
 21
2.3543254011
 97
267
330
2E0
330
2E1
330
2E2
330
2E3
330
2E4
330
2E5
330
2E6
330
2E7
330
2E8
330
2E9
330
2EA
330
2EB
330
2EC
330
2ED
330
2EE
330
2EF
330
2F0
330
2F1
330
2F2
330
2F3
330
2F4
330
2F5
330
2F6
330
2F7
330
2F8
330
2F9
330
2FA
330
2FB
330
2FC
330
2FD
330
2FE
330
2FF
330
300
330
301
330
302
330
303
330
304
330
305
330
306
330
307
330
308
330
309
330
30A
330
30B
330
30C
330
30D
330
30E
330
30F
330
310
330
311
330
312
330
313
330
314
330
315
330
316
330
317
330
318
330
319
330
31A
330
31B
330
31C
330
31D
330
31E
330
31F
330
320
330
321
330
322
330
323
330
324
330
325
330
326
330
327
330
328
330
329
330
32A
330
32B
330
32C
330
32D
330
32E
330
32F
330
330
330
331
330
332
330
333
330
334
330
335
330
336
330
337
330
338
330
339
330
33A
330
33B
330
33C
330
33D
330
33E
330
33F
330
340
330
341
330
342
330
343
330
344
330
345
330
346
330
347
330
348
330
349
330
34A
330
34B
330
34C
330
34D
330
34E
330
34F
330
350
330
351
330
352
330
353
330
354
330
355
330
356
330
357
330
358
330
359
330
35A
330
35B
330
35C
330
35D
330
35E
330
35F
330
360
330
361
330
362
330
363
330
364
330
365
330
366
330
367
330
368
330
369
330
36A
330
36B
330
36C
330
36D
330
36E
330
36F
330
370
330
371
330
372
330
373
330
374
330
375
330
376
330
377
330
378
330
379
330
37A
330
37B
330
37C
330
37D
330
37E
330
37F
330
380
330
381
330
382
330
383
330
384
330
385
330
386
330
387
330
388
330
389
330
38A
330
38B
330
38C
330
38D
330
38E
330
38F
330
390
330
391
330
392
330
393
330
394
330
395
330
396
330
397
330
398
330
399
330
39A
330
39B
330
39C
330
39D
330
39E
330
39F
330
3A0
330
3A1
330
3A2
330
3A3
330
3A4
330
3A5
330
3A6
330
3A7
330
3A8
330
3A9
330
3AA
330
3AB
330
3AC
330
3AD
330
3AE
330
3AF
330
3B0
330
3B1
330
3B2
330
3B3
330
3B4
330
3B5
330
3B6
330
3B7
330
3B8
330
3B9
330
3BA
330
3BB
330
3BC
330
3BD
330
3BE
330
3BF
330
3C0
330
3C1
330
3C2
330
3C3
330
3C4
330
3C5
330
3C6
330
3C7
330
3C8
330
3C9
330
3CA
330
3CB
330
3CC
330
3CD
330
3CE
330
3CF
330
3D0
330
3D1
330
3D2
330
3D3
330
3D4
330
3D5
330
3D6
330
3D7
330
3D8
330
3D9
330
3DA
330
3DB
330
3DC
330
3DD
330
3DE
330
3DF
330
3E0
330
3E1
330
3E2
330
3E3
330
3E4
330
3E5
330
3E6
330
3E7
330
3E8
330
3E9
330
3EA
 92
1
 93
40
 72
2
 10
17.7115227858
 20
2.3567995689
 40
0.0024741678
 50
226.3477981898
 51
270.0031206038
 73
1
 72
1
 10
17.7098149196
 20
2.3550094015
 11
17.6465348845
 21
2.415387435
 72
2
 10
17.6448261836
 20
2.4135964972
 40
0.0024753014
 50
46.3461263058
 51
180.0014637321
 73
1
 72
1
 10
17.6423508822
 20
2.413596434
 11
17.6423508822
 21
2.3815504162
 72
2
 10
17.6448258817
 20
2.3815504143
 40
0.0024749995
 50
179.9999571957
 51
270.0000428043
 73
1
 72
1
 10
17.6448258836
 20
2.3790754148
 11
17.6651428948
 21
2.3790754148
 72
2
 10
17.6651428967
 20
2.3766004153
 40
0.0024749995
 50
359.9999571957
 51
90.0000428043
 73
1
 72
1
 10
17.6676178962
 20
2.3766004134
 11
17.6676178962
 21
2.3568004025
 72
2
 10
17.6651428967
 20
2.3568004006
 40
0.0024749995
 50
269.9999571958
 51
0.0000428043
 73
1
 72
1
 10
17.6651428948
 20
2.3543254011
 11
17.5894788529
 21
2.3543254011
 72
2
 10
17.589478851
 20
2.3568004006
 40
0.0024749995
 50
179.9999571957
 51
270.0000428042
 73
1
 72
1
 10
17.5870038515
 20
2.3568004025
 11
17.5870038515
 21
2.3766004134
 72
2
 10
17.589478851
 20
2.3766004153
 40
0.0024749995
 50
89.9999571957
 51
180.0000428043
 73
1
 72
1
 10
17.5894788529
 20
2.3790754148
 11
17.6081248632
 21
2.3790754148
 72
2
 10
17.6081248651
 20
2.3815504143
 40
0.0024749995
 50
269.9999571957
 51
0.0000428043
 73
1
 72
1
 10
17.6105998646
 20
2.3815504162
 11
17.6105998646
 21
2.4279054419
 72
2
 10
17.6081248651
 20
2.4279054437
 40
0.0024749995
 50
359.9999571957
 51
90.0000428043
 73
1
 72
1
 10
17.6081248632
 20
2.4303804433
 11
17.5894788529
 21
2.4303804433
 72
2
 10
17.589478851
 20
2.4328554428
 40
0.0024749995
 50
179.9999571957
 51
270.0000428043
 73
1
 72
1
 10
17.5870038515
 20
2.4328554446
 11
17.5870038515
 21
2.4526554556
 72
2
 10
17.589478851
 20
2.4526554575
 40
0.0024749995
 50
89.9999571957
 51
180.0000428043
 73
1
 72
1
 10
17.5894788529
 20
2.455130457
 11
17.6899369086
 21
2.455130457
 72
2
 10
17.6899370433
 20
2.4526562892
 40
0.0024741678
 50
46.3477981899
 51
90.0031206038
 73
1
 72
1
 10
17.6916449095
 20
2.4544464566
 11
17.7516779428
 21
2.3971664249
 72
2
 10
17.7533866437
 20
2.3989573626
 40
0.0024753014
 50
226.3461263059
 51
0.0014637321
 73
1
 72
1
 10
17.7558619451
 20
2.3989574258
 11
17.7558619451
 21
2.4279054419
 72
2
 10
17.7533869456
 20
2.4279054437
 40
0.0024749995
 50
359.9999571957
 51
90.0000428043
 73
1
 72
1
 10
17.7533869438
 20
2.4303804433
 11
17.7346109333
 21
2.4303804433
 72
2
 10
17.7346109315
 20
2.4328554428
 40
0.0024749995
 50
179.9999571957
 51
270.0000428043
 73
1
 72
1
 10
17.732135932
 20
2.4328554446
 11
17.732135932
 21
2.4526554556
 72
2
 10
17.7346109315
 20
2.4526554575
 40
0.0024749995
 50
89.9999571958
 51
180.0000428043
 73
1
 72
1
 10
17.7346109333
 20
2.455130457
 11
17.8086119744
 21
2.455130457
 72
2
 10
17.8086119762
 20
2.4526554575
 40
0.0024749995
 50
359.9999571957
 51
90.0000428043
 73
1
 72
1
 10
17.8110869758
 20
2.4526554556
 11
17.8110869758
 21
2.4328554446
 72
2
 10
17.8086119762
 20
2.4328554428
 40
0.0024749995
 50
269.9999571956
 51
0.0000428042
 73
1
 72
1
 10
17.8086119744
 20
2.4303804433
 11
17.7906789644
 21
2.4303804433
 72
2
 10
17.7906789626
 20
2.4279054437
 40
0.0024749995
 50
89.9999571957
 51
180.0000428043
 73
1
 72
1
 10
17.7882039631
 20
2.4279054419
 11
17.7882039631
 21
2.3568004025
 72
2
 10
17.7857289635
 20
2.3568004006
 40
0.0024749995
 50
269.9999571957
 51
0.0000428043
 73
1
 72
1
 10
17.7857289617
 20
2.3543254011
 11
17.7115229205
 21
2.3543254011
 97
267
330
2E0
330
2E1
330
2E2
330
2E3
330
2E4
330
2E5
330
2E6
330
2E7
330
2E8
330
2E9
330
2EA
330
2EB
330
2EC
330
2ED
330
2EE
330
2EF
330
2F0
330
2F1
330
2F2
330
2F3
330
2F4
330
2F5
330
2F6
330
2F7
330
2F8
330
2F9
330
2FA
330
2FB
330
2FC
330
2FD
330
2FE
330
2FF
330
300
330
301
330
302
330
303
330
304
330
305
330
306
330
307
330
308
330
309
330
30A
330
30B
330
30C
330
30D
330
30E
330
30F
330
310
330
311
330
312
330
313
330
314
330
315
330
316
330
317
330
318
330
319
330
31A
330
31B
330
31C
330
31D
330
31E
330
31F
330
320
330
321
330
322
330
323
330
324
330
325
330
326
330
327
330
328
330
329
330
32A
330
32B
330
32C
330
32D
330
32E
330
32F
330
330
330
331
330
332
330
333
330
334
330
335
330
336
330
337
330
338
330
339
330
33A
330
33B
330
33C
330
33D
330
33E
330
33F
330
340
330
341
330
342
330
343
330
344
330
345
330
346
330
347
330
348
330
349
330
34A
330
34B
330
34C
330
34D
330
34E
330
34F
330
350
330
351
330
352
330
353
330
354
330
355
330
356
330
357
330
358
330
359
330
35A
330
35B
330
35C
330
35D
330
35E
330
35F
330
360
330
361
330
362
330
363
330
364
330
365
330
366
330
367
330
368
330
369
330
36A
330
36B
330
36C
330
36D
330
36E
330
36F
330
370
330
371
330
372
330
373
330
374
330
375
330
376
330
377
330
378
330
379
330
37A
330
37B
330
37C
330
37D
330
37E
330
37F
330
380
330
381
330
382
330
383
330
384
330
385
330
386
330
387
330
388
330
389
330
38A
330
38B
330
38C
330
38D
330
38E
330
38F
330
390
330
391
330
392
330
393
330
394
330
395
330
396
330
397
330
398
330
399
330
39A
330
39B
330
39C
330
39D
330
39E
330
39F
330
3A0
330
3A1
330
3A2
330
3A3
330
3A4
330
3A5
330
3A6
330
3A7
330
3A8
330
3A9
330
3AA
330
3AB
330
3AC
330
3AD
330
3AE
330
3AF
330
3B0
330
3B1
330
3B2
330
3B3
330
3B4
330
3B5
330
3B6
330
3B7
330
3B8
330
3B9
330
3BA
330
3BB
330
3BC
330
3BD
330
3BE
330
3BF
330
3C0
330
3C1
330
3C2
330
3C3
330
3C4
330
3C5
330
3C6
330
3C7
330
3C8
330
3C9
330
3CA
330
3CB
330
3CC
330
3CD
330
3CE
330
3CF
330
3D0
330
3D1
330
3D2
330
3D3
330
3D4
330
3D5
330
3D6
330
3D7
330
3D8
330
3D9
330
3DA
330
3DB
330
3DC
330
3DD
330
3DE
330
3DF
330
3E0
330
3E1
330
3E2
330
3E3
330
3E4
330
3E5
330
3E6
330
3E7
330
3E8
330
3E9
330
3EA
 92
1
 93
40
 72
2
 10
17.4632701481
 20
2.3568008172
 40
0.0024754162
 50
226.3593695814
 51
270.0146919954
 73
1
 72
1
 10
17.4615617819
 20
2.3550094015
 11
17.3982817468
 21
2.415387435
 72
2
 10
17.3965730459
 20
2.4135964972
 40
0.0024753014
 50
46.3461263058
 51
180.0014637321
 73
1
 72
1
 10
17.3940977445
 20
2.413596434
 11
17.3940977445
 21
2.3815504162
 72
2
 10
17.396572744
 20
2.3815504143
 40
0.0024749995
 50
179.9999571957
 51
270.0000428043
 73
1
 72
1
 10
17.3965727459
 20
2.3790754148
 11
17.4168897572
 21
2.3790754148
 72
2
 10
17.416889759
 20
2.3766004153
 40
0.0024749995
 50
359.9999571957
 51
90.0000428043
 73
1
 72
1
 10
17.4193647585
 20
2.3766004134
 11
17.4193647585
 21
2.3568004025
 72
2
 10
17.416889759
 20
2.3568004006
 40
0.0024749995
 50
269.9999571957
 51
0.0000428043
 73
1
 72
1
 10
17.4168897572
 20
2.3543254011
 11
17.3412257152
 21
2.3543254011
 72
2
 10
17.3412257133
 20
2.3568004006
 40
0.0024749995
 50
179.9999571957
 51
270.0000428043
 73
1
 72
1
 10
17.3387507138
 20
2.3568004025
 11
17.3387507138
 21
2.3766004134
 72
2
 10
17.3412257133
 20
2.3766004153
 40
0.0024749995
 50
89.9999571957
 51
180.0000428043
 73
1
 72
1
 10
17.3412257152
 20
2.3790754148
 11
17.3598727255
 21
2.3790754148
 72
2
 10
17.3598727274
 20
2.3815504143
 40
0.0024749995
 50
269.9999571957
 51
0.0000428043
 73
1
 72
1
 10
17.3623477269
 20
2.3815504162
 11
17.3623477269
 21
2.4279054419
 72
2
 10
17.3598727274
 20
2.4279054437
 40
0.0024749995
 50
359.9999571957
 51
90.0000428044
 73
1
 72
1
 10
17.3598727255
 20
2.4303804433
 11
17.3412257152
 21
2.4303804433
 72
2
 10
17.3412257133
 20
2.4328554428
 40
0.0024749995
 50
179.9999571957
 51
270.0000428043
 73
1
 72
1
 10
17.3387507138
 20
2.4328554446
 11
17.3387507138
 21
2.4526554556
 72
2
 10
17.3412257133
 20
2.4526554575
 40
0.0024749995
 50
89.9999571957
 51
180.0000428043
 73
1
 72
1
 10
17.3412257152
 20
2.455130457
 11
17.4416837709
 21
2.455130457
 72
2
 10
17.4416839057
 20
2.4526562892
 40
0.0024741678
 50
46.3477981899
 51
90.0031206038
 73
1
 72
1
 10
17.4433917718
 20
2.4544464566
 11
17.5034248051
 21
2.3971664249
 72
2
 10
17.5051335061
 20
2.3989573626
 40
0.0024753014
 50
226.3461263059
 51
0.0014637321
 73
1
 72
1
 10
17.5076088075
 20
2.3989574258
 11
17.5076088075
 21
2.4279054419
 72
2
 10
17.5051338079
 20
2.4279054437
 40
0.0024749995
 50
359.9999571957
 51
90.0000428043
 73
1
 72
1
 10
17.5051338061
 20
2.4303804433
 11
17.4863577957
 21
2.4303804433
 72
2
 10
17.4863577938
 20
2.4328554428
 40
0.0024749995
 50
179.9999571957
 51
270.0000428043
 73
1
 72
1
 10
17.4838827943
 20
2.4328554446
 11
17.4838827943
 21
2.4526554556
 72
2
 10
17.4863577938
 20
2.4526554575
 40
0.0024749995
 50
89.9999571957
 51
180.0000428043
 73
1
 72
1
 10
17.4863577957
 20
2.455130457
 11
17.5603588367
 21
2.455130457
 72
2
 10
17.5603588386
 20
2.4526554575
 40
0.0024749995
 50
359.9999571957
 51
90.0000428042
 73
1
 72
1
 10
17.5628338381
 20
2.4526554556
 11
17.5628338381
 21
2.4328554446
 72
2
 10
17.5603588386
 20
2.4328554428
 40
0.0024749995
 50
269.9999571958
 51
0.0000428043
 73
1
 72
1
 10
17.5603588367
 20
2.4303804433
 11
17.5424258268
 21
2.4303804433
 72
2
 10
17.5424258249
 20
2.4279054437
 40
0.0024749995
 50
89.9999571958
 51
180.0000428043
 73
1
 72
1
 10
17.5399508254
 20
2.4279054419
 11
17.5399508254
 21
2.3568004025
 72
2
 10
17.5374758259
 20
2.3568004006
 40
0.0024749995
 50
269.9999571958
 51
0.0000428043
 73
1
 72
1
 10
17.537475824
 20
2.3543254011
 11
17.4632707829
 21
2.3543254011
 97
267
330
2E0
330
2E1
330
2E2
330
2E3
330
2E4
330
2E5
330
2E6
330
2E7
330
2E8
330
2E9
330
2EA
330
2EB
330
2EC
330
2ED
330
2EE
330
2EF
330
2F0
330
2F1
330
2F2
330
2F3
330
2F4
330
2F5
330
2F6
330
2F7
330
2F8
330
2F9
330
2FA
330
2FB
330
2FC
330
2FD
330
2FE
330
2FF
330
300
330
301
330
302
330
303
330
304
330
305
330
306
330
307
330
308
330
309
330
30A
330
30B
330
30C
330
30D
330
30E
330
30F
330
310
330
311
330
312
330
313
330
314
330
315
330
316
330
317
330
318
330
319
330
31A
330
31B
330
31C
330
31D
330
31E
330
31F
330
320
330
321
330
322
330
323
330
324
330
325
330
326
330
327
330
328
330
329
330
32A
330
32B
330
32C
330
32D
330
32E
330
32F
330
330
330
331
330
332
330
333
330
334
330
335
330
336
330
337
330
338
330
339
330
33A
330
33B
330
33C
330
33D
330
33E
330
33F
330
340
330
341
330
342
330
343
330
344
330
345
330
346
330
347
330
348
330
349
330
34A
330
34B
330
34C
330
34D
330
34E
330
34F
330
350
330
351
330
352
330
353
330
354
330
355
330
356
330
357
330
358
330
359
330
35A
330
35B
330
35C
330
35D
330
35E
330
35F
330
360
330
361
330
362
330
363
330
364
330
365
330
366
330
367
330
368
330
369
330
36A
330
36B
330
36C
330
36D
330
36E
330
36F
330
370
330
371
330
372
330
373
330
374
330
375
330
376
330
377
330
378
330
379
330
37A
330
37B
330
37C
330
37D
330
37E
330
37F
330
380
330
381
330
382
330
383
330
384
330
385
330
386
330
387
330
388
330
389
330
38A
330
38B
330
38C
330
38D
330
38E
330
38F
330
390
330
391
330
392
330
393
330
394
330
395
330
396
330
397
330
398
330
399
330
39A
330
39B
330
39C
330
39D
330
39E
330
39F
330
3A0
330
3A1
330
3A2
330
3A3
330
3A4
330
3A5
330
3A6
330
3A7
330
3A8
330
3A9
330
3AA
330
3AB
330
3AC
330
3AD
330
3AE
330
3AF
330
3B0
330
3B1
330
3B2
330
3B3
330
3B4
330
3B5
330
3B6
330
3B7
330
3B8
330
3B9
330
3BA
330
3BB
330
3BC
330
3BD
330
3BE
330
3BF
330
3C0
330
3C1
330
3C2
330
3C3
330
3C4
330
3C5
330
3C6
330
3C7
330
3C8
330
3C9
330
3CA
330
3CB
330
3CC
330
3CD
330
3CE
330
3CF
330
3D0
330
3D1
330
3D2
330
3D3
330
3D4
330
3D5
330
3D6
330
3D7
330
3D8
330
3D9
330
3DA
330
3DB
330
3DC
330
3DD
330
3DE
330
3DF
330
3E0
330
3E1
330
3E2
330
3E3
330
3E4
330
3E5
330
3E6
330
3E7
330
3E8
330
3E9
330
3EA
 92
1
 93
23
 72
2
 10
17.0481152095
 20
2.4027328529
 40
0.048483885
 50
273.21763719
 51
303.0749121182
 73
1
 72
2
 10
17.0629546036
 20
2.379965244
 40
0.0213072145
 50
303.0488228549
 51
355.7263138674
 73
1
 72
2
 10
17.0688911042
 20
2.3799744343
 40
0.0153945295
 50
354.0454548824
 51
5.1878013979
 73
1
 72
2
 10
17.0620614151
 20
2.3797859164
 40
0.0222174455
 50
4.0793399388
 51
69.834329283
 73
1
 72
1
 10
17.0697205646
 20
2.4006414268
 11
17.059669559
 21
2.4041904287
 72
1
 10
17.059669559
 20
2.4041904287
 11
17.0679095636
 21
2.4089664314
 72
2
 10
17.0460441811
 20
2.445793323
 40
0.0428289026
 50
300.6990502959
 51
319.0591802498
 73
1
 72
2
 10
17.0660727781
 20
2.4296649696
 40
0.0171568255
 50
315.9145124245
 51
16.0049121283
 73
1
 72
2
 10
17.0611211659
 20
2.4263113051
 40
0.0229166529
 50
20.6563876465
 51
62.3316896973
 73
1
 72
2
 10
17.0404590422
 20
2.3933827403
 40
0.061747717
 50
59.5385584989
 51
90.0050977555
 73
1
 72
1
 10
17.0404535484
 20
2.455130457
 11
16.8743904563
 21
2.455130457
 72
2
 10
16.8743904545
 20
2.4526554575
 40
0.0024749995
 50
89.9999571958
 51
180.0000428043
 73
1
 72
1
 10
16.8719154549
 20
2.4526554556
 11
16.8719154549
 21
2.4328554446
 72
2
 10
16.8743904545
 20
2.4328554428
 40
0.0024749995
 50
179.9999571957
 51
270.0000428043
 73
1
 72
1
 10
16.8743904563
 20
2.4303804433
 11
16.8983324696
 21
2.4303804433
 72
2
 10
16.8983324714
 20
2.4279054437
 40
0.0024749995
 50
359.9999571957
 51
90.0000428043
 73
1
 72
1
 10
16.9008074709
 20
2.4279054419
 11
16.9008074709
 21
2.3815504162
 72
2
 10
16.8983324714
 20
2.3815504143
 40
0.0024749995
 50
269.9999571958
 51
0.0000428043
 73
1
 72
1
 10
16.8983324696
 20
2.3790754148
 11
16.8743904563
 21
2.3790754148
 72
2
 10
16.8743904545
 20
2.3766004153
 40
0.0024749995
 50
89.9999571958
 51
180.0000428043
 73
1
 72
1
 10
16.8719154549
 20
2.3766004134
 11
16.8719154549
 21
2.3568004025
 72
2
 10
16.8743904545
 20
2.3568004006
 40
0.0024749995
 50
179.9999571957
 51
270.0000428042
 73
1
 72
1
 10
16.8743904563
 20
2.3543254011
 11
17.0508365542
 21
2.3543254011
 97
267
330
2E0
330
2E1
330
2E2
330
2E3
330
2E4
330
2E5
330
2E6
330
2E7
330
2E8
330
2E9
330
2EA
330
2EB
330
2EC
330
2ED
330
2EE
330
2EF
330
2F0
330
2F1
330
2F2
330
2F3
330
2F4
330
2F5
330
2F6
330
2F7
330
2F8
330
2F9
330
2FA
330
2FB
330
2FC
330
2FD
330
2FE
330
2FF
330
300
330
301
330
302
330
303
330
304
330
305
330
306
330
307
330
308
330
309
330
30A
330
30B
330
30C
330
30D
330
30E
330
30F
330
310
330
311
330
312
330
313
330
314
330
315
330
316
330
317
330
318
330
319
330
31A
330
31B
330
31C
330
31D
330
31E
330
31F
330
320
330
321
330
322
330
323
330
324
330
325
330
326
330
327
330
328
330
329
330
32A
330
32B
330
32C
330
32D
330
32E
330
32F
330
330
330
331
330
332
330
333
330
334
330
335
330
336
330
337
330
338
330
339
330
33A
330
33B
330
33C
330
33D
330
33E
330
33F
330
340
330
341
330
342
330
343
330
344
330
345
330
346
330
347
330
348
330
349
330
34A
330
34B
330
34C
330
34D
330
34E
330
34F
330
350
330
351
330
352
330
353
330
354
330
355
330
356
330
357
330
358
330
359
330
35A
330
35B
330
35C
330
35D
330
35E
330
35F
330
360
330
361
330
362
330
363
330
364
330
365
330
366
330
367
330
368
330
369
330
36A
330
36B
330
36C
330
36D
330
36E
330
36F
330
370
330
371
330
372
330
373
330
374
330
375
330
376
330
377
330
378
330
379
330
37A
330
37B
330
37C
330
37D
330
37E
330
37F
330
380
330
381
330
382
330
383
330
384
330
385
330
386
330
387
330
388
330
389
330
38A
330
38B
330
38C
330
38D
330
38E
330
38F
330
390
330
391
330
392
330
393
330
394
330
395
330
396
330
397
330
398
330
399
330
39A
330
39B
330
39C
330
39D
330
39E
330
39F
330
3A0
330
3A1
330
3A2
330
3A3
330
3A4
330
3A5
330
3A6
330
3A7
330
3A8
330
3A9
330
3AA
330
3AB
330
3AC
330
3AD
330
3AE
330
3AF
330
3B0
330
3B1
330
3B2
330
3B3
330
3B4
330
3B5
330
3B6
330
3B7
330
3B8
330
3B9
330
3BA
330
3BB
330
3BC
330
3BD
330
3BE
330
3BF
330
3C0
330
3C1
330
3C2
330
3C3
330
3C4
330
3C5
330
3C6
330
3C7
330
3C8
330
3C9
330
3CA
330
3CB
330
3CC
330
3CD
330
3CE
330
3CF
330
3D0
330
3D1
330
3D2
330
3D3
330
3D4
330
3D5
330
3D6
330
3D7
330
3D8
330
3D9
330
3DA
330
3DB
330
3DC
330
3DD
330
3DE
330
3DF
330
3E0
330
3E1
330
3E2
330
3E3
330
3E4
330
3E5
330
3E6
330
3E7
330
3E8
330
3E9
330
3EA
 92
1
 93
32
 72
2
 10
17.1857496308
 20
2.3568004006
 40
0.0024749995
 50
269.9999571958
 51
0.0000428044
 73
1
 72
1
 10
17.1882246303
 20
2.3568004025
 11
17.1882246303
 21
2.3766004134
 72
2
 10
17.1857496308
 20
2.3766004153
 40
0.0024749995
 50
359.9999571957
 51
90.0000428043
 73
1
 72
1
 10
17.185749629
 20
2.3790754148
 11
17.1744666227
 21
2.3790754148
 72
2
 10
17.1744665134
 20
2.3815504549
 40
0.0024750401
 50
147.6063258011
 51
270.0025305754
 73
1
 72
1
 10
17.1723766216
 20
2.3828764169
 11
17.1778926246
 21
2.3915704217
 72
2
 10
17.1799825555
 20
2.3902442221
 40
0.0024752003
 50
89.998372645
 51
147.602165307
 73
1
 72
1
 10
17.1799826258
 20
2.3927194224
 11
17.2148606451
 21
2.3927194224
 72
2
 10
17.2148601055
 20
2.3902439622
 40
0.0024754602
 50
32.8959418574
 51
89.9875097202
 73
1
 72
1
 10
17.2169386463
 20
2.3915884218
 11
17.2225646494
 21
2.3828954169
 72
2
 10
17.2204866271
 20
2.3815506219
 40
0.0024752071
 50
270.0004896793
 51
32.9089806818
 73
1
 72
1
 10
17.2204866482
 20
2.3790754148
 11
17.2060356402
 21
2.3790754148
 72
2
 10
17.2060356384
 20
2.3766004153
 40
0.0024749995
 50
89.9999571958
 51
180.0000428043
 73
1
 72
1
 10
17.2035606388
 20
2.3766004134
 11
17.2035606388
 21
2.3568004025
 72
2
 10
17.2060356384
 20
2.3568004006
 40
0.0024749995
 50
179.9999571957
 51
270.0000428042
 73
1
 72
1
 10
17.2060356402
 20
2.3543254011
 11
17.3113166986
 21
2.3543254011
 72
2
 10
17.3113167005
 20
2.3568004006
 40
0.0024749995
 50
269.9999571957
 51
0.0000428043
 73
1
 72
1
 10
17.3137917
 20
2.3568004025
 11
17.3137917
 21
2.3766004134
 72
2
 10
17.3113167005
 20
2.3766004153
 40
0.0024749995
 50
359.9999571957
 51
90.0000428043
 73
1
 72
1
 10
17.3113166986
 20
2.3790754148
 11
17.2913006875
 21
2.3790754148
 72
2
 10
17.291300808
 20
2.3815494558
 40
0.002474041
 50
212.9056413127
 51
269.9972091756
 73
1
 72
1
 10
17.2892236864
 20
2.3802054154
 11
17.2414676599
 21
2.4540004564
 72
2
 10
17.2393900382
 20
2.4526554968
 40
0.0024749602
 50
32.9172174468
 51
90.0087853096
 73
1
 72
1
 10
17.2393896587
 20
2.455130457
 11
17.182214627
 21
2.455130457
 72
2
 10
17.1822145567
 20
2.4526552567
 40
0.0024752003
 50
89.998372645
 51
147.602165307
 73
1
 72
1
 10
17.1801246258
 20
2.4539814564
 11
17.1333245999
 21
2.3802244155
 72
2
 10
17.131234669
 20
2.3815506151
 40
0.0024752003
 50
269.998372645
 51
327.602165307
 73
1
 72
1
 10
17.1312345987
 20
2.3790754148
 11
17.1083735861
 21
2.3790754148
 72
2
 10
17.1083735842
 20
2.3766004153
 40
0.0024749995
 50
89.9999571957
 51
180.0000428043
 73
1
 72
1
 10
17.1058985847
 20
2.3766004134
 11
17.1058985847
 21
2.3568004025
 72
2
 10
17.1083735842
 20
2.3568004006
 40
0.0024749995
 50
179.9999571957
 51
270.0000428043
 73
1
 72
1
 10
17.1083735861
 20
2.3543254011
 11
17.185749629
 21
2.3543254011
 97
267
330
2E0
330
2E1
330
2E2
330
2E3
330
2E4
330
2E5
330
2E6
330
2E7
330
2E8
330
2E9
330
2EA
330
2EB
330
2EC
330
2ED
330
2EE
330
2EF
330
2F0
330
2F1
330
2F2
330
2F3
330
2F4
330
2F5
330
2F6
330
2F7
330
2F8
330
2F9
330
2FA
330
2FB
330
2FC
330
2FD
330
2FE
330
2FF
330
300
330
301
330
302
330
303
330
304
330
305
330
306
330
307
330
308
330
309
330
30A
330
30B
330
30C
330
30D
330
30E
330
30F
330
310
330
311
330
312
330
313
330
314
330
315
330
316
330
317
330
318
330
319
330
31A
330
31B
330
31C
330
31D
330
31E
330
31F
330
320
330
321
330
322
330
323
330
324
330
325
330
326
330
327
330
328
330
329
330
32A
330
32B
330
32C
330
32D
330
32E
330
32F
330
330
330
331
330
332
330
333
330
334
330
335
330
336
330
337
330
338
330
339
330
33A
330
33B
330
33C
330
33D
330
33E
330
33F
330
340
330
341
330
342
330
343
330
344
330
345
330
346
330
347
330
348
330
349
330
34A
330
34B
330
34C
330
34D
330
34E
330
34F
330
350
330
351
330
352
330
353
330
354
330
355
330
356
330
357
330
358
330
359
330
35A
330
35B
330
35C
330
35D
330
35E
330
35F
330
360
330
361
330
362
330
363
330
364
330
365
330
366
330
367
330
368
330
369
330
36A
330
36B
330
36C
330
36D
330
36E
330
36F
330
370
330
371
330
372
330
373
330
374
330
375
330
376
330
377
330
378
330
379
330
37A
330
37B
330
37C
330
37D
330
37E
330
37F
330
380
330
381
330
382
330
383
330
384
330
385
330
386
330
387
330
388
330
389
330
38A
330
38B
330
38C
330
38D
330
38E
330
38F
330
390
330
391
330
392
330
393
330
394
330
395
330
396
330
397
330
398
330
399
330
39A
330
39B
330
39C
330
39D
330
39E
330
39F
330
3A0
330
3A1
330
3A2
330
3A3
330
3A4
330
3A5
330
3A6
330
3A7
330
3A8
330
3A9
330
3AA
330
3AB
330
3AC
330
3AD
330
3AE
330
3AF
330
3B0
330
3B1
330
3B2
330
3B3
330
3B4
330
3B5
330
3B6
330
3B7
330
3B8
330
3B9
330
3BA
330
3BB
330
3BC
330
3BD
330
3BE
330
3BF
330
3C0
330
3C1
330
3C2
330
3C3
330
3C4
330
3C5
330
3C6
330
3C7
330
3C8
330
3C9
330
3CA
330
3CB
330
3CC
330
3CD
330
3CE
330
3CF
330
3D0
330
3D1
330
3D2
330
3D3
330
3D4
330
3D5
330
3D6
330
3D7
330
3D8
330
3D9
330
3DA
330
3DB
330
3DC
330
3DD
330
3DE
330
3DF
330
3E0
330
3E1
330
3E2
330
3E3
330
3E4
330
3E5
330
3E6
330
3E7
330
3E8
330
3E9
330
3EA
 92
1
 93
6
 72
2
 10
16.963795504
 20
2.3815504143
 40
0.0024749995
 50
179.9999571957
 51
270.0000428043
 73
1
 72
1
 10
16.9613205045
 20
2.3815504162
 11
16.9613205045
 21
2.3939254231
 72
2
 10
16.963795504
 20
2.3939254249
 40
0.0024749995
 50
89.9999571957
 51
180.0000428043
 73
1
 72
1
 10
16.9637955059
 20
2.3964004244
 11
17.0051585288
 21
2.3964004244
 72
2
 10
17.0051585288
 20
2.3877379196
 40
0.0086625048
 50
270.0
 51
90.0
 73
1
 72
1
 10
17.0051585288
 20
2.3790754148
 11
16.9637955059
 21
2.3790754148
 97
267
330
2E0
330
2E1
330
2E2
330
2E3
330
2E4
330
2E5
330
2E6
330
2E7
330
2E8
330
2E9
330
2EA
330
2EB
330
2EC
330
2ED
330
2EE
330
2EF
330
2F0
330
2F1
330
2F2
330
2F3
330
2F4
330
2F5
330
2F6
330
2F7
330
2F8
330
2F9
330
2FA
330
2FB
330
2FC
330
2FD
330
2FE
330
2FF
330
300
330
301
330
302
330
303
330
304
330
305
330
306
330
307
330
308
330
309
330
30A
330
30B
330
30C
330
30D
330
30E
330
30F
330
310
330
311
330
312
330
313
330
314
330
315
330
316
330
317
330
318
330
319
330
31A
330
31B
330
31C
330
31D
330
31E
330
31F
330
320
330
321
330
322
330
323
330
324
330
325
330
326
330
327
330
328
330
329
330
32A
330
32B
330
32C
330
32D
330
32E
330
32F
330
330
330
331
330
332
330
333
330
334
330
335
330
336
330
337
330
338
330
339
330
33A
330
33B
330
33C
330
33D
330
33E
330
33F
330
340
330
341
330
342
330
343
330
344
330
345
330
346
330
347
330
348
330
349
330
34A
330
34B
330
34C
330
34D
330
34E
330
34F
330
350
330
351
330
352
330
353
330
354
330
355
330
356
330
357
330
358
330
359
330
35A
330
35B
330
35C
330
35D
330
35E
330
35F
330
360
330
361
330
362
330
363
330
364
330
365
330
366
330
367
330
368
330
369
330
36A
330
36B
330
36C
330
36D
330
36E
330
36F
330
370
330
371
330
372
330
373
330
374
330
375
330
376
330
377
330
378
330
379
330
37A
330
37B
330
37C
330
37D
330
37E
330
37F
330
380
330
381
330
382
330
383
330
384
330
385
330
386
330
387
330
388
330
389
330
38A
330
38B
330
38C
330
38D
330
38E
330
38F
330
390
330
391
330
392
330
393
330
394
330
395
330
396
330
397
330
398
330
399
330
39A
330
39B
330
39C
330
39D
330
39E
330
39F
330
3A0
330
3A1
330
3A2
330
3A3
330
3A4
330
3A5
330
3A6
330
3A7
330
3A8
330
3A9
330
3AA
330
3AB
330
3AC
330
3AD
330
3AE
330
3AF
330
3B0
330
3B1
330
3B2
330
3B3
330
3B4
330
3B5
330
3B6
330
3B7
330
3B8
330
3B9
330
3BA
330
3BB
330
3BC
330
3BD
330
3BE
330
3BF
330
3C0
330
3C1
330
3C2
330
3C3
330
3C4
330
3C5
330
3C6
330
3C7
330
3C8
330
3C9
330
3CA
330
3CB
330
3CC
330
3CD
330
3CE
330
3CF
330
3D0
330
3D1
330
3D2
330
3D3
330
3D4
330
3D5
330
3D6
330
3D7
330
3D8
330
3D9
330
3DA
330
3DB
330
3DC
330
3DD
330
3DE
330
3DF
330
3E0
330
3E1
330
3E2
330
3E3
330
3E4
330
3E5
330
3E6
330
3E7
330
3E8
330
3E9
330
3EA
 92
1
 93
13
 72
2
 10
18.1572301659
 20
2.415180433
 40
0.0024749995
 50
179.9999571957
 51
270.0000428043
 73
1
 72
1
 10
18.1547551663
 20
2.4151804348
 11
18.1547551663
 21
2.4279054419
 72
2
 10
18.1572301659
 20
2.4279054437
 40
0.0024749995
 50
89.9999571957
 51
180.0000428043
 73
1
 72
1
 10
18.1572301677
 20
2.4303804433
 11
18.1940311881
 21
2.4303804433
 72
2
 10
18.1924863006
 20
2.4019259643
 40
0.0284963867
 50
70.3834917948
 51
86.8922743861
 73
1
 72
2
 10
18.1973459106
 20
2.4149676972
 40
0.0145814632
 50
54.6746025112
 51
71.1660573124
 73
1
 72
2
 10
18.2024754016
 20
2.4218216224
 40
0.0060275915
 50
20.9055592135
 51
56.7851676243
 73
1
 72
2
 10
18.2037759605
 20
2.4224819047
 40
0.0045795888
 50
355.6235353944
 51
18.9942678268
 73
1
 72
2
 10
18.2025691502
 20
2.4227756809
 40
0.0058087709
 50
318.8515287446
 51
353.6422345323
 73
1
 72
2
 10
18.198398534
 20
2.4260095887
 40
0.0110815393
 50
306.758405961
 51
320.4502234234
 73
1
 72
2
 10
18.1927693431
 20
2.4337504172
 40
0.0206523367
 50
289.6883413472
 51
306.4184925496
 73
1
 72
2
 10
18.1908418374
 20
2.4381440645
 40
0.0254407115
 50
270.7327484175
 51
290.441894219
 73
1
 72
1
 10
18.1911671865
 20
2.4127054335
 11
18.1572301677
 21
2.4127054335
 97
267
330
2E0
330
2E1
330
2E2
330
2E3
330
2E4
330
2E5
330
2E6
330
2E7
330
2E8
330
2E9
330
2EA
330
2EB
330
2EC
330
2ED
330
2EE
330
2EF
330
2F0
330
2F1
330
2F2
330
2F3
330
2F4
330
2F5
330
2F6
330
2F7
330
2F8
330
2F9
330
2FA
330
2FB
330
2FC
330
2FD
330
2FE
330
2FF
330
300
330
301
330
302
330
303
330
304
330
305
330
306
330
307
330
308
330
309
330
30A
330
30B
330
30C
330
30D
330
30E
330
30F
330
310
330
311
330
312
330
313
330
314
330
315
330
316
330
317
330
318
330
319
330
31A
330
31B
330
31C
330
31D
330
31E
330
31F
330
320
330
321
330
322
330
323
330
324
330
325
330
326
330
327
330
328
330
329
330
32A
330
32B
330
32C
330
32D
330
32E
330
32F
330
330
330
331
330
332
330
333
330
334
330
335
330
336
330
337
330
338
330
339
330
33A
330
33B
330
33C
330
33D
330
33E
330
33F
330
340
330
341
330
342
330
343
330
344
330
345
330
346
330
347
330
348
330
349
330
34A
330
34B
330
34C
330
34D
330
34E
330
34F
330
350
330
351
330
352
330
353
330
354
330
355
330
356
330
357
330
358
330
359
330
35A
330
35B
330
35C
330
35D
330
35E
330
35F
330
360
330
361
330
362
330
363
330
364
330
365
330
366
330
367
330
368
330
369
330
36A
330
36B
330
36C
330
36D
330
36E
330
36F
330
370
330
371
330
372
330
373
330
374
330
375
330
376
330
377
330
378
330
379
330
37A
330
37B
330
37C
330
37D
330
37E
330
37F
330
380
330
381
330
382
330
383
330
384
330
385
330
386
330
387
330
388
330
389
330
38A
330
38B
330
38C
330
38D
330
38E
330
38F
330
390
330
391
330
392
330
393
330
394
330
395
330
396
330
397
330
398
330
399
330
39A
330
39B
330
39C
330
39D
330
39E
330
39F
330
3A0
330
3A1
330
3A2
330
3A3
330
3A4
330
3A5
330
3A6
330
3A7
330
3A8
330
3A9
330
3AA
330
3AB
330
3AC
330
3AD
330
3AE
330
3AF
330
3B0
330
3B1
330
3B2
330
3B3
330
3B4
330
3B5
330
3B6
330
3B7
330
3B8
330
3B9
330
3BA
330
3BB
330
3BC
330
3BD
330
3BE
330
3BF
330
3C0
330
3C1
330
3C2
330
3C3
330
3C4
330
3C5
330
3C6
330
3C7
330
3C8
330
3C9
330
3CA
330
3CB
330
3CC
330
3CD
330
3CE
330
3CF
330
3D0
330
3D1
330
3D2
330
3D3
330
3D4
330
3D5
330
3D6
330
3D7
330
3D8
330
3D9
330
3DA
330
3DB
330
3DC
330
3DD
330
3DE
330
3DF
330
3E0
330
3E1
330
3E2
330
3E3
330
3E4
330
3E5
330
3E6
330
3E7
330
3E8
330
3E9
330
3EA
 92
1
 93
6
 72
2
 10
17.0051585288
 20
2.4217179385
 40
0.0086625048
 50
270.0
 51
90.0
 73
1
 72
1
 10
17.0051585288
 20
2.4303804433
 11
16.9637955059
 21
2.4303804433
 72
2
 10
16.963795504
 20
2.4279054437
 40
0.0024749995
 50
89.9999571957
 51
180.0000428043
 73
1
 72
1
 10
16.9613205045
 20
2.4279054419
 11
16.9613205045
 21
2.415530435
 72
2
 10
16.963795504
 20
2.4155304332
 40
0.0024749995
 50
179.9999571957
 51
270.0000428043
 73
1
 72
1
 10
16.9637955059
 20
2.4130554337
 11
17.0051585288
 21
2.4130554337
 97
267
330
2E0
330
2E1
330
2E2
330
2E3
330
2E4
330
2E5
330
2E6
330
2E7
330
2E8
330
2E9
330
2EA
330
2EB
330
2EC
330
2ED
330
2EE
330
2EF
330
2F0
330
2F1
330
2F2
330
2F3
330
2F4
330
2F5
330
2F6
330
2F7
330
2F8
330
2F9
330
2FA
330
2FB
330
2FC
330
2FD
330
2FE
330
2FF
330
300
330
301
330
302
330
303
330
304
330
305
330
306
330
307
330
308
330
309
330
30A
330
30B
330
30C
330
30D
330
30E
330
30F
330
310
330
311
330
312
330
313
330
314
330
315
330
316
330
317
330
318
330
319
330
31A
330
31B
330
31C
330
31D
330
31E
330
31F
330
320
330
321
330
322
330
323
330
324
330
325
330
326
330
327
330
328
330
329
330
32A
330
32B
330
32C
330
32D
330
32E
330
32F
330
330
330
331
330
332
330
333
330
334
330
335
330
336
330
337
330
338
330
339
330
33A
330
33B
330
33C
330
33D
330
33E
330
33F
330
340
330
341
330
342
330
343
330
344
330
345
330
346
330
347
330
348
330
349
330
34A
330
34B
330
34C
330
34D
330
34E
330
34F
330
350
330
351
330
352
330
353
330
354
330
355
330
356
330
357
330
358
330
359
330
35A
330
35B
330
35C
330
35D
330
35E
330
35F
330
360
330
361
330
362
330
363
330
364
330
365
330
366
330
367
330
368
330
369
330
36A
330
36B
330
36C
330
36D
330
36E
330
36F
330
370
330
371
330
372
330
373
330
374
330
375
330
376
330
377
330
378
330
379
330
37A
330
37B
330
37C
330
37D
330
37E
330
37F
330
380
330
381
330
382
330
383
330
384
330
385
330
386
330
387
330
388
330
389
330
38A
330
38B
330
38C
330
38D
330
38E
330
38F
330
390
330
391
330
392
330
393
330
394
330
395
330
396
330
397
330
398
330
399
330
39A
330
39B
330
39C
330
39D
330
39E
330
39F
330
3A0
330
3A1
330
3A2
330
3A3
330
3A4
330
3A5
330
3A6
330
3A7
330
3A8
330
3A9
330
3AA
330
3AB
330
3AC
330
3AD
330
3AE
330
3AF
330
3B0
330
3B1
330
3B2
330
3B3
330
3B4
330
3B5
330
3B6
330
3B7
330
3B8
330
3B9
330
3BA
330
3BB
330
3BC
330
3BD
330
3BE
330
3BF
330
3C0
330
3C1
330
3C2
330
3C3
330
3C4
330
3C5
330
3C6
330
3C7
330
3C8
330
3C9
330
3CA
330
3CB
330
3CC
330
3CD
330
3CE
330
3CF
330
3D0
330
3D1
330
3D2
330
3D3
330
3D4
330
3D5
330
3D6
330
3D7
330
3D8
330
3D9
330
3DA
330
3DB
330
3DC
330
3DD
330
3DE
330
3DF
330
3E0
330
3E1
330
3E2
330
3E3
330
3E4
330
3E5
330
3E6
330
3E7
330
3E8
330
3E9
330
3EA
 92
1
 93
8
 72
2
 10
17.2090556207
 20
2.4161446411
 40
0.0024752071
 50
270.0004896793
 51
32.9089806818
 73
1
 72
1
 10
17.211133643
 20
2.4174894361
 11
17.203874639
 21
2.4287054423
 72
2
 10
17.2017960982
 20
2.4273609828
 40
0.0024754602
 50
32.8959418573
 51
89.9875097202
 73
1
 72
1
 10
17.2017966379
 20
2.429836443
 11
17.1956156344
 21
2.429836443
 72
2
 10
17.1956155641
 20
2.4273612427
 40
0.0024752003
 50
89.998372645
 51
147.6021653069
 73
1
 72
1
 10
17.1935256333
 20
2.4286874423
 11
17.1864086293
 21
2.4174704361
 72
2
 10
17.1884985212
 20
2.4161444741
 40
0.0024750401
 50
147.6063258012
 51
270.0025305753
 73
1
 72
1
 10
17.1884986305
 20
2.413669434
 11
17.2090556419
 21
2.413669434
 97
267
330
2E0
330
2E1
330
2E2
330
2E3
330
2E4
330
2E5
330
2E6
330
2E7
330
2E8
330
2E9
330
2EA
330
2EB
330
2EC
330
2ED
330
2EE
330
2EF
330
2F0
330
2F1
330
2F2
330
2F3
330
2F4
330
2F5
330
2F6
330
2F7
330
2F8
330
2F9
330
2FA
330
2FB
330
2FC
330
2FD
330
2FE
330
2FF
330
300
330
301
330
302
330
303
330
304
330
305
330
306
330
307
330
308
330
309
330
30A
330
30B
330
30C
330
30D
330
30E
330
30F
330
310
330
311
330
312
330
313
330
314
330
315
330
316
330
317
330
318
330
319
330
31A
330
31B
330
31C
330
31D
330
31E
330
31F
330
320
330
321
330
322
330
323
330
324
330
325
330
326
330
327
330
328
330
329
330
32A
330
32B
330
32C
330
32D
330
32E
330
32F
330
330
330
331
330
332
330
333
330
334
330
335
330
336
330
337
330
338
330
339
330
33A
330
33B
330
33C
330
33D
330
33E
330
33F
330
340
330
341
330
342
330
343
330
344
330
345
330
346
330
347
330
348
330
349
330
34A
330
34B
330
34C
330
34D
330
34E
330
34F
330
350
330
351
330
352
330
353
330
354
330
355
330
356
330
357
330
358
330
359
330
35A
330
35B
330
35C
330
35D
330
35E
330
35F
330
360
330
361
330
362
330
363
330
364
330
365
330
366
330
367
330
368
330
369
330
36A
330
36B
330
36C
330
36D
330
36E
330
36F
330
370
330
371
330
372
330
373
330
374
330
375
330
376
330
377
330
378
330
379
330
37A
330
37B
330
37C
330
37D
330
37E
330
37F
330
380
330
381
330
382
330
383
330
384
330
385
330
386
330
387
330
388
330
389
330
38A
330
38B
330
38C
330
38D
330
38E
330
38F
330
390
330
391
330
392
330
393
330
394
330
395
330
396
330
397
330
398
330
399
330
39A
330
39B
330
39C
330
39D
330
39E
330
39F
330
3A0
330
3A1
330
3A2
330
3A3
330
3A4
330
3A5
330
3A6
330
3A7
330
3A8
330
3A9
330
3AA
330
3AB
330
3AC
330
3AD
330
3AE
330
3AF
330
3B0
330
3B1
330
3B2
330
3B3
330
3B4
330
3B5
330
3B6
330
3B7
330
3B8
330
3B9
330
3BA
330
3BB
330
3BC
330
3BD
330
3BE
330
3BF
330
3C0
330
3C1
330
3C2
330
3C3
330
3C4
330
3C5
330
3C6
330
3C7
330
3C8
330
3C9
330
3CA
330
3CB
330
3CC
330
3CD
330
3CE
330
3CF
330
3D0
330
3D1
330
3D2
330
3D3
330
3D4
330
3D5
330
3D6
330
3D7
330
3D8
330
3D9
330
3DA
330
3DB
330
3DC
330
3DD
330
3DE
330
3DF
330
3E0
330
3E1
330
3E2
330
3E3
330
3E4
330
3E5
330
3E6
330
3E7
330
3E8
330
3E9
330
3EA
 92
1
 93
1
 72
3
 10
17.573550844
 20
2.4034764283
 11
-0.8250004575
 21
0.0
 40
0.218572
 50
0.0
 51
-0.0
 73
1
 97
267
330
2E0
330
2E1
330
2E2
330
2E3
330
2E4
330
2E5
330
2E6
330
2E7
330
2E8
330
2E9
330
2EA
330
2EB
330
2EC
330
2ED
330
2EE
330
2EF
330
2F0
330
2F1
330
2F2
330
2F3
330
2F4
330
2F5
330
2F6
330
2F7
330
2F8
330
2F9
330
2FA
330
2FB
330
2FC
330
2FD
330
2FE
330
2FF
330
300
330
301
330
302
330
303
330
304
330
305
330
306
330
307
330
308
330
309
330
30A
330
30B
330
30C
330
30D
330
30E
330
30F
330
310
330
311
330
312
330
313
330
314
330
315
330
316
330
317
330
318
330
319
330
31A
330
31B
330
31C
330
31D
330
31E
330
31F
330
320
330
321
330
322
330
323
330
324
330
325
330
326
330
327
330
328
330
329
330
32A
330
32B
330
32C
330
32D
330
32E
330
32F
330
330
330
331
330
332
330
333
330
334
330
335
330
336
330
337
330
338
330
339
330
33A
330
33B
330
33C
330
33D
330
33E
330
33F
330
340
330
341
330
342
330
343
330
344
330
345
330
346
330
347
330
348
330
349
330
34A
330
34B
330
34C
330
34D
330
34E
330
34F
330
350
330
351
330
352
330
353
330
354
330
355
330
356
330
357
330
358
330
359
330
35A
330
35B
330
35C
330
35D
330
35E
330
35F
330
360
330
361
330
362
330
363
330
364
330
365
330
366
330
367
330
368
330
369
330
36A
330
36B
330
36C
330
36D
330
36E
330
36F
330
370
330
371
330
372
330
373
330
374
330
375
330
376
330
377
330
378
330
379
330
37A
330
37B
330
37C
330
37D
330
37E
330
37F
330
380
330
381
330
382
330
383
330
384
330
385
330
386
330
387
330
388
330
389
330
38A
330
38B
330
38C
330
38D
330
38E
330
38F
330
390
330
391
330
392
330
393
330
394
330
395
330
396
330
397
330
398
330
399
330
39A
330
39B
330
39C
330
39D
330
39E
330
39F
330
3A0
330
3A1
330
3A2
330
3A3
330
3A4
330
3A5
330
3A6
330
3A7
330
3A8
330
3A9
330
3AA
330
3AB
330
3AC
330
3AD
330
3AE
330
3AF
330
3B0
330
3B1
330
3B2
330
3B3
330
3B4
330
3B5
330
3B6
330
3B7
330
3B8
330
3B9
330
3BA
330
3BB
330
3BC
330
3BD
330
3BE
330
3BF
330
3C0
330
3C1
330
3C2
330
3C3
330
3C4
330
3C5
330
3C6
330
3C7
330
3C8
330
3C9
330
3CA
330
3CB
330
3CC
330
3CD
330
3CE
330
3CF
330
3D0
330
3D1
330
3D2
330
3D3
330
3D4
330
3D5
330
3D6
330
3D7
330
3D8
330
3D9
330
3DA
330
3DB
330
3DC
330
3DD
330
3DE
330
3DF
330
3E0
330
3E1
330
3E2
330
3E3
330
3E4
330
3E5
330
3E6
330
3E7
330
3E8
330
3E9
330
3EA
 75
0
 76
1
 98
1
 10
0.0
 20
0.0
  0
LINE
  5
3EC
100
AcDbEntity
  8
0
100
AcDbLine
 62
7
  6
CONTINUOUS
 10
21.05
 20
2.67
 11
14.7
 21
2.67
  0
LINE
  5
3ED
100
AcDbEntity
  8
0
100
AcDbLine
 62
7
  6
CONTINUOUS
 10
6.007
 20
0.75
 11
6.007
 21
0.5
  0
LINE
  5
3EE
100
AcDbEntity
  8
0
100
AcDbLine
 62
7
  6
CONTINUOUS
 10
6.007
 20
15.75
 11
6.007
 21
16.0
  0
LINE
  5
3EF
100
AcDbEntity
  8
0
100
AcDbLine
 62
7
  6
CONTINUOUS
 10
0.814
 20
8.163397
 11
0.964
 21
8.25
  0
LINE
  5
3F0
100
AcDbEntity
  8
0
100
AcDbLine
 62
7
  6
CONTINUOUS
 10
0.964
 20
8.25
 11
0.814
 21
8.336603
  0
LINE
  5
3F1
100
AcDbEntity
  8
0
100
AcDbLine
 62
7
  6
CONTINUOUS
 10
0.964
 20
4.4
 11
0.714
 21
4.4
  0
LINE
  5
3F2
100
AcDbEntity
  8
0
100
AcDbLine
 62
7
  6
CONTINUOUS
 10
21.05
 20
4.4
 11
21.3
 21
4.4
  0
LINE
  5
3F3
100
AcDbEntity
  8
0
100
AcDbLine
 62
7
  6
CONTINUOUS
 10
11.093603
 20
0.6
 11
11.007
 21
0.75
  0
LINE
  5
3F4
100
AcDbEntity
  8
0
100
AcDbLine
 62
7
  6
CONTINUOUS
 10
11.007
 20
15.75
 11
11.093603
 21
15.9
  0
LINE
  5
3F5
100
AcDbEntity
  8
0
100
AcDbLine
 62
7
  6
CONTINUOUS
 10
8.507
 20
0.75
 11
8.507
 21
0.5
  0
LINE
  5
3F6
100
AcDbEntity
  8
0
100
AcDbLine
 62
7
  6
CONTINUOUS
 10
8.507
 20
15.75
 11
8.507
 21
16.0
  0
LINE
  5
3F7
100
AcDbEntity
  8
0
100
AcDbLine
 62
7
  6
CONTINUOUS
 10
11.007
 20
0.75
 11
11.007
 21
0.5
  0
LINE
  5
3F8
100
AcDbEntity
  8
0
100
AcDbLine
 62
7
  6
CONTINUOUS
 10
11.007
 20
15.75
 11
11.007
 21
16.0
  0
LINE
  5
3F9
100
AcDbEntity
  8
0
100
AcDbLine
 62
7
  6
CONTINUOUS
 10
0.964
 20
8.25
 11
0.714
 21
8.25
  0
LINE
  5
3FA
100
AcDbEntity
  8
0
100
AcDbLine
 62
7
  6
CONTINUOUS
 10
21.05
 20
8.25
 11
21.3
 21
8.25
  0
LINE
  5
3FB
100
AcDbEntity
  8
0
100
AcDbLine
 62
7
  6
CONTINUOUS
 10
13.507
 20
0.75
 11
13.507
 21
0.5
  0
LINE
  5
3FC
100
AcDbEntity
  8
0
100
AcDbLine
 62
7
  6
CONTINUOUS
 10
13.507
 20
15.75
 11
13.507
 21
16.0
  0
LINE
  5
3FD
100
AcDbEntity
  8
0
100
AcDbLine
 62
7
  6
CONTINUOUS
 10
14.7
 20
2.67
 11
14.7
 21
0.75
  0
LINE
  5
3FE
100
AcDbEntity
  8
0
100
AcDbLine
 62
7
  6
CONTINUOUS
 10
11.007
 20
0.75
 11
10.920397
 21
0.6
  0
LINE
  5
3FF
100
AcDbEntity
  8
0
100
AcDbLine
 62
7
  6
CONTINUOUS
 10
0.964
 20
12.1
 11
0.714
 21
12.1
  0
LINE
  5
400
100
AcDbEntity
  8
0
100
AcDbLine
 62
7
  6
CONTINUOUS
 10
21.05
 20
12.1
 11
21.3
 21
12.1
  0
LINE
  5
401
100
AcDbEntity
  8
0
100
AcDbLine
 62
7
  6
CONTINUOUS
 10
10.920397
 20
15.9
 11
11.007
 21
15.75
  0
LINE
  5
402
100
AcDbEntity
  8
0
100
AcDbLine
 62
7
  6
CONTINUOUS
 10
15.2229827477
 20
1.0139932523
 11
15.2229827477
 21
0.7919022523
  0
LINE
  5
403
100
AcDbEntity
  8
0
100
AcDbLine
 62
7
  6
CONTINUOUS
 10
15.2229827477
 20
1.0639932523
 11
15.2229827477
 21
1.1639932523
  0
LINE
  5
404
100
AcDbEntity
  8
0
100
AcDbLine
 62
7
  6
CONTINUOUS
 10
15.2229827477
 20
1.2139932523
 11
15.2229827477
 21
1.4360842523
  0
LINE
  5
405
100
AcDbEntity
  8
0
100
AcDbLine
 62
7
  6
CONTINUOUS
 10
15.8276527477
 20
0.9312952523
 11
15.8276527477
 21
1.2966912523
  0
LINE
  5
406
100
AcDbEntity
  8
0
100
AcDbLine
 62
7
  6
CONTINUOUS
 10
16.007
 20
0.75
 11
16.007
 21
0.5
  0
LINE
  5
407
100
AcDbEntity
  8
0
100
AcDbLine
 62
7
  6
CONTINUOUS
 10
16.007
 20
15.75
 11
16.007
 21
16.0
  0
LINE
  5
408
100
AcDbEntity
  8
0
100
AcDbLine
 62
7
  6
CONTINUOUS
 10
16.4340437477
 20
1.3660842523
 11
16.4340437477
 21
0.8619022523
  0
LINE
  5
409
100
AcDbEntity
  8
0
100
AcDbLine
 62
7
  6
CONTINUOUS
 10
21.2
 20
8.336603
 11
21.05
 21
8.25
  0
LINE
  5
40A
100
AcDbEntity
  8
0
100
AcDbLine
 62
7
  6
CONTINUOUS
 10
21.05
 20
8.25
 11
21.2
 21
8.163397
  0
LINE
  5
40B
100
AcDbEntity
  8
0
100
AcDbLine
 62
7
  6
CONTINUOUS
 10
16.7
 20
2.67
 11
16.7
 21
0.75
  0
LINE
  5
40C
100
AcDbEntity
  8
0
100
AcDbLine
 62
7
  6
CONTINUOUS
 10
17.5
 20
1.37
 11
17.5
 21
1.0
  0
LINE
  5
40D
100
AcDbEntity
  8
0
100
AcDbLine
 62
7
  6
CONTINUOUS
 10
18.507
 20
0.75
 11
18.507
 21
0.5
  0
LINE
  5
40E
100
AcDbEntity
  8
0
100
AcDbLine
 62
7
  6
CONTINUOUS
 10
18.507
 20
15.75
 11
18.507
 21
16.0
  0
LINE
  5
40F
100
AcDbEntity
  8
0
100
AcDbLine
 62
7
  6
CONTINUOUS
 10
21.05
 20
15.75
 11
0.964
 21
15.75
  0
LINE
  5
410
100
AcDbEntity
  8
0
100
AcDbLine
 62
7
  6
CONTINUOUS
 10
11.093603
 20
15.9
 11
10.920397
 21
15.9
  0
LINE
  5
411
100
AcDbEntity
  8
0
100
AcDbLine
 62
7
  6
CONTINUOUS
 10
18.875
 20
1.0
 11
18.875
 21
0.75
  0
LINE
  5
412
100
AcDbEntity
  8
0
100
AcDbLine
 62
7
  6
CONTINUOUS
 10
20.25
 20
1.37
 11
20.25
 21
1.0
  0
LINE
  5
413
100
AcDbEntity
  8
0
100
AcDbLine
 62
7
  6
CONTINUOUS
 10
21.05
 20
0.75
 11
21.05
 21
15.75
  0
LINE
  5
414
100
AcDbEntity
  8
0
100
AcDbLine
 62
7
  6
CONTINUOUS
 10
21.2
 20
8.163397
 11
21.2
 21
8.336603
  0
LINE
  5
415
100
AcDbEntity
  8
02___PRT_ALL_AXES
100
AcDbLine
 62
7
  6
CONTINUOUS
 10
7.7427553102
 20
6.6984443509
 11
7.5277553102
 21
6.6984443509
  0
LWPOLYLINE
  5
416
100
AcDbEntity
  8
0
100
AcDbPolyline
 62
7
  6
CONTINUOUS
 90
3
 70
0
 10
8.0223372688
 20
13.6823662189
 10
8.0129509152
 20
13.6792428126
 10
8.0101623661
 20
13.6783404723
  0
LINE
  5
417
100
AcDbEntity
  8
0
100
AcDbLine
 62
7
  6
CONTINUOUS
 10
8.0140289639
 20
13.681199895
 11
8.0149654472
 21
13.681469892
  0
LWPOLYLINE
  5
418
100
AcDbEntity
  8
0
100
AcDbPolyline
 62
7
  6
CONTINUOUS
 90
6
 70
0
 10
8.0141432204
 20
13.68127669
 10
8.0169316877
 20
13.6827986388
 10
8.020509613
 20
13.6843238412
 10
8.0242343962
 20
13.6854629702
 10
8.0280669093
 20
13.6862040596
 10
8.0319668926
 20
13.6865393243
  0
LWPOLYLINE
  5
419
100
AcDbEntity
  8
0
100
AcDbPolyline
 62
7
  6
CONTINUOUS
 90
4
 70
0
 10
8.0319668926
 20
13.6865393243
 10
8.0294273732
 20
13.6851799693
 10
8.0262317608
 20
13.6837884477
 10
8.0223372688
 20
13.6823662189
  0
LINE
  5
41A
100
AcDbEntity
  8
0
100
AcDbLine
 62
7
  6
CONTINUOUS
 10
6.7191980352
 20
13.1173428204
 11
7.2710820818
 21
13.3746905777
  0
LWPOLYLINE
  5
41B
100
AcDbEntity
  8
0
100
AcDbPolyline
 62
7
  6
CONTINUOUS
 90
4
 70
0
 10
7.7181898552
 20
8.2446875676
 10
7.7336843986
 20
8.2460819831
 10
7.7490986312
 20
8.2470259703
 10
7.7642646024
 20
8.2475152503
  0
LWPOLYLINE
  5
41C
100
AcDbEntity
  8
0
100
AcDbPolyline
 62
7
  6
CONTINUOUS
 90
7
 70
0
 10
7.993383969
 20
8.2519421499
 10
8.0544905754
 20
8.2534178136
 10
8.1052845572
 20
8.2548934896
 10
8.1445166468
 20
8.2563692014
 10
8.1712206772
 20
8.2578449393
 10
8.1847388342
 20
8.2593206675
 10
8.1861961599
 20
8.2597810034
  0
LWPOLYLINE
  5
41D
100
AcDbEntity
  8
0
100
AcDbPolyline
 62
7
  6
CONTINUOUS
 90
4
 70
0
 10
7.7642646024
 20
8.2475152503
 10
7.8464626027
 20
8.2489908473
 10
7.9234675454
 20
8.2504664859
 10
7.993383969
 20
8.2519421499
  0
LWPOLYLINE
  5
41E
100
AcDbEntity
  8
0
100
AcDbPolyline
 62
7
  6
CONTINUOUS
 90
4
 70
0
 10
7.5062460179
 20
8.2430742389
 10
7.5214142572
 20
8.2431123942
 10
7.5368324613
 20
8.2426970014
 10
7.5523207652
 20
8.2418299084
  0
LINE
  5
41F
100
AcDbEntity
  8
0
100
AcDbLine
 62
7
  6
CONTINUOUS
 10
8.1549403495
 20
8.1763971068
 11
7.1155702708
 21
8.1763971068
  0
LINE
  5
420
100
AcDbEntity
  8
0
100
AcDbLine
 62
7
  6
CONTINUOUS
 10
8.1864364126
 20
8.2078931698
 11
7.0840742078
 21
8.2078931698
  0
LINE
  5
421
100
AcDbEntity
  8
0
100
AcDbLine
 62
7
  6
CONTINUOUS
 10
8.0141375766
 20
13.6812732824
 11
8.0141432204
 21
13.68127669
  0
LWPOLYLINE
  5
422
100
AcDbEntity
  8
0
100
AcDbPolyline
 62
7
  6
CONTINUOUS
 90
3
 70
0
 10
8.0141432204
 20
13.68127669
 10
8.0146025574
 20
13.6815425304
 10
8.0148245967
 20
13.6816608237
  0
LWPOLYLINE
  5
423
100
AcDbEntity
  8
0
100
AcDbPolyline
 62
7
  6
CONTINUOUS
 90
5
 70
0
 10
7.2639341084
 20
13.1536993005
 10
7.2638068036
 20
13.1536442965
 10
7.2604351589
 20
13.1526319773
 10
7.2569061527
 20
13.1519913685
 10
7.2532575027
 20
13.1517293167
  0
LWPOLYLINE
  5
424
100
AcDbEntity
  8
0
100
AcDbPolyline
 62
7
  6
CONTINUOUS
 90
4
 70
0
 10
7.8612392192
 20
8.3285240664
 10
7.8202631629
 20
8.319510972
 10
7.7794826511
 20
8.3120170591
 10
7.7389526896
 20
8.3061287443
  0
LWPOLYLINE
  5
425
100
AcDbEntity
  8
0
100
AcDbPolyline
 62
7
  6
CONTINUOUS
 90
4
 70
0
 10
7.4092714012
 20
8.2695154419
 10
7.4502409319
 20
8.2785272164
 10
7.4910208975
 20
8.2860212833
 10
7.5315579307
 20
8.2919107639
  0
LWPOLYLINE
  5
426
100
AcDbEntity
  8
0
100
AcDbPolyline
 62
7
  6
CONTINUOUS
 90
4
 70
0
 10
7.8612392192
 20
8.3875791845
 10
7.8202631629
 20
8.3785660901
 10
7.7794826511
 20
8.3710721772
 10
7.7389526896
 20
8.3651838625
  0
LWPOLYLINE
  5
427
100
AcDbEntity
  8
0
100
AcDbPolyline
 62
7
  6
CONTINUOUS
 90
4
 70
0
 10
7.4092714012
 20
8.32857056
 10
7.4502409319
 20
8.3375823345
 10
7.4910208975
 20
8.3450764015
 10
7.5315579307
 20
8.350965882
  0
LWPOLYLINE
  5
428
100
AcDbEntity
  8
0
100
AcDbPolyline
 62
7
  6
CONTINUOUS
 90
4
 70
0
 10
7.8612392192
 20
8.4466343026
 10
7.8202631629
 20
8.4376212082
 10
7.7794826511
 20
8.4301272953
 10
7.7389526896
 20
8.4242389806
  0
LWPOLYLINE
  5
429
100
AcDbEntity
  8
0
100
AcDbPolyline
 62
7
  6
CONTINUOUS
 90
4
 70
0
 10
7.4092714012
 20
8.3876256781
 10
7.4502409319
 20
8.3966374526
 10
7.4910208975
 20
8.4041315196
 10
7.5315579307
 20
8.4100210001
  0
LWPOLYLINE
  5
42A
100
AcDbEntity
  8
0
100
AcDbPolyline
 62
7
  6
CONTINUOUS
 90
4
 70
0
 10
7.8612392192
 20
8.5056894207
 10
7.8202631629
 20
8.4966763263
 10
7.7794826511
 20
8.4891824134
 10
7.7389526896
 20
8.4832940987
  0
LWPOLYLINE
  5
42B
100
AcDbEntity
  8
0
100
AcDbPolyline
 62
7
  6
CONTINUOUS
 90
4
 70
0
 10
7.7181898552
 20
8.2446875676
 10
7.7655779847
 20
8.2507619791
 10
7.8131527665
 20
8.2590402077
 10
7.8612392192
 20
8.2694689483
  0
LWPOLYLINE
  5
42C
100
AcDbEntity
  8
0
100
AcDbPolyline
 62
7
  6
CONTINUOUS
 90
7
 70
0
 10
7.2900292896
 20
8.2873280137
 10
7.2250500438
 20
8.2858003795
 10
7.1708834464
 20
8.284272748
 10
7.1289563951
 20
8.2827450849
 10
7.1003748711
 20
8.2812173896
 10
7.0858933633
 20
8.2796897017
 10
7.0843144605
 20
8.2792033867
  0
LWPOLYLINE
  5
42D
100
AcDbEntity
  8
0
100
AcDbPolyline
 62
7
  6
CONTINUOUS
 90
5
 70
0
 10
7.2250505577
 20
8.3555157278
 10
7.2900293225
 20
8.3570433497
 10
7.364107649
 20
8.3585709703
 10
7.4453311755
 20
8.3600985578
 10
7.5315579307
 20
8.3616260992
  0
LWPOLYLINE
  5
42E
100
AcDbEntity
  8
0
100
AcDbPolyline
 62
7
  6
CONTINUOUS
 90
8
 70
0
 10
7.9429570467
 20
8.3890521003
 10
8.0171336564
 20
8.3905250162
 10
8.0819511126
 20
8.391997932
 10
8.1358208555
 20
8.3934708479
 10
8.1774226345
 20
8.3949437637
 10
8.2057368645
 20
8.3964166796
 10
8.2200696145
 20
8.3978895954
 10
8.2216437254
 20
8.3983652868
  0
LWPOLYLINE
  5
42F
100
AcDbEntity
  8
0
100
AcDbPolyline
 62
7
  6
CONTINUOUS
 90
3
 70
0
 10
7.253376964
 20
8.4953097676
 10
7.3275535736
 20
8.4967826835
 10
7.4092714012
 20
8.4982555993
  0
LWPOLYLINE
  5
430
100
AcDbEntity
  8
0
100
AcDbPolyline
 62
7
  6
CONTINUOUS
 90
9
 70
0
 10
7.8612392192
 20
8.2694689483
 10
7.9429570467
 20
8.2709418641
 10
8.0171336564
 20
8.27241478
 10
8.0819511126
 20
8.2738876958
 10
8.1358208555
 20
8.2753606117
 10
8.1774226345
 20
8.2768335275
 10
8.2057368645
 20
8.2783064433
 10
8.2200696145
 20
8.2797793592
 10
8.2216437254
 20
8.2802550506
  0
LWPOLYLINE
  5
431
100
AcDbEntity
  8
0
100
AcDbPolyline
 62
7
  6
CONTINUOUS
 90
9
 70
0
 10
7.8612392192
 20
8.2769492632
 10
7.9429570467
 20
8.2784221791
 10
8.0171336564
 20
8.2798950949
 10
8.0819511126
 20
8.2813680108
 10
8.1358208555
 20
8.2828409266
 10
8.1774226345
 20
8.2843138425
 10
8.2057368645
 20
8.2857867583
 10
8.2200696145
 20
8.2872596742
 10
8.2218694834
 20
8.2879961321
  0
LWPOLYLINE
  5
432
100
AcDbEntity
  8
0
100
AcDbPolyline
 62
7
  6
CONTINUOUS
 90
9
 70
0
 10
7.8612392192
 20
8.3285240664
 10
7.9429570467
 20
8.3299969822
 10
8.0171336564
 20
8.3314698981
 10
8.0819511126
 20
8.3329428139
 10
8.1358208555
 20
8.3344157298
 10
8.1774226345
 20
8.3358886456
 10
8.2057368645
 20
8.3373615615
 10
8.2200696145
 20
8.3388344773
 10
8.2216437254
 20
8.3393101687
  0
LWPOLYLINE
  5
433
100
AcDbEntity
  8
0
100
AcDbPolyline
 62
7
  6
CONTINUOUS
 90
9
 70
0
 10
7.8612392192
 20
8.3360043813
 10
7.9429570467
 20
8.3374772972
 10
8.0171336564
 20
8.338950213
 10
8.0819511126
 20
8.3404231289
 10
8.1358208555
 20
8.3418960447
 10
8.1774226345
 20
8.3433689606
 10
8.2057368645
 20
8.3448418764
 10
8.2200696145
 20
8.3463147923
 10
8.2218694834
 20
8.3470512502
  0
LINE
  5
434
100
AcDbEntity
  8
0
100
AcDbLine
 62
7
  6
CONTINUOUS
 10
7.8612392192
 20
8.3875791845
 11
7.9429570467
 21
8.3890521003
  0
LINE
  5
435
100
AcDbEntity
  8
0
100
AcDbLine
 62
7
  6
CONTINUOUS
 10
7.3275535736
 20
8.3786724473
 11
7.4092714012
 21
8.3801453631
  0
LWPOLYLINE
  5
436
100
AcDbEntity
  8
0
100
AcDbPolyline
 62
7
  6
CONTINUOUS
 90
9
 70
0
 10
7.8612392192
 20
8.3950594995
 10
7.9429570467
 20
8.3965324153
 10
8.0171336564
 20
8.3980053311
 10
8.0819511126
 20
8.399478247
 10
8.1358208555
 20
8.4009511628
 10
8.1774226345
 20
8.4024240787
 10
8.2057368645
 20
8.4038969945
 10
8.2200696145
 20
8.4053699104
 10
8.2218694834
 20
8.4061063683
  0
LWPOLYLINE
  5
437
100
AcDbEntity
  8
0
100
AcDbPolyline
 62
7
  6
CONTINUOUS
 90
9
 70
0
 10
7.8612392192
 20
8.4466343026
 10
7.9429570467
 20
8.4481072185
 10
8.0171336564
 20
8.4495801343
 10
8.0819511126
 20
8.4510530501
 10
8.1358208555
 20
8.452525966
 10
8.1774226345
 20
8.4539988818
 10
8.2057368645
 20
8.4554717977
 10
8.2200696145
 20
8.4569447135
 10
8.2216437254
 20
8.4574204049
  0
LWPOLYLINE
  5
438
100
AcDbEntity
  8
0
100
AcDbPolyline
 62
7
  6
CONTINUOUS
 90
9
 70
0
 10
7.8612392192
 20
8.4541146176
 10
7.9429570467
 20
8.4555875334
 10
8.0171336564
 20
8.4570604493
 10
8.0819511126
 20
8.4585333651
 10
8.1358208555
 20
8.4600062809
 10
8.1774226345
 20
8.4614791968
 10
8.2057368645
 20
8.4629521126
 10
8.2200696145
 20
8.4644250285
 10
8.2218694834
 20
8.4651614864
  0
LWPOLYLINE
  5
439
100
AcDbEntity
  8
0
100
AcDbPolyline
 62
7
  6
CONTINUOUS
 90
9
 70
0
 10
7.8612392192
 20
8.5056894207
 10
7.9429570467
 20
8.5071623366
 10
8.0171336564
 20
8.5086352524
 10
8.0819511126
 20
8.5101081683
 10
8.1358208555
 20
8.5115810841
 10
8.1774226345
 20
8.5130539999
 10
8.2057368645
 20
8.5145269158
 10
8.2200696145
 20
8.5159998316
 10
8.2216437254
 20
8.516475523
  0
LWPOLYLINE
  5
43A
100
AcDbEntity
  8
0
100
AcDbPolyline
 62
7
  6
CONTINUOUS
 90
9
 70
0
 10
7.8612392192
 20
8.5131697357
 10
7.9429570467
 20
8.5146426515
 10
8.0171336564
 20
8.5161155674
 10
8.0819511126
 20
8.5175884832
 10
8.1358208555
 20
8.5190613991
 10
8.1774226345
 20
8.5205343149
 10
8.2057368645
 20
8.5220072307
 10
8.2200696145
 20
8.5234801466
 10
8.2218694834
 20
8.5242166045
  0
LWPOLYLINE
  5
43B
100
AcDbEntity
  8
0
100
AcDbPolyline
 62
7
  6
CONTINUOUS
 90
4
 70
0
 10
7.5315579307
 20
8.2919107639
 10
7.4453320587
 20
8.2903832386
 10
7.3641083297
 20
8.2888556484
 10
7.2900292896
 20
8.2873280137
  0
LWPOLYLINE
  5
43C
100
AcDbEntity
  8
0
100
AcDbPolyline
 62
7
  6
CONTINUOUS
 90
10
 70
0
 10
7.7389526896
 20
8.3061287443
 10
7.8251793375
 20
8.3076562838
 10
7.9064028523
 20
8.3091838708
 10
7.9804812256
 20
8.3107114922
 10
8.0454600144
 20
8.3122391144
 10
8.0996267192
 20
8.3137667458
 10
8.1415540271
 20
8.3152944148
 10
8.1701356831
 20
8.316822114
 10
8.1846172493
 20
8.3183498049
 10
8.1861961599
 20
8.3188361215
  0
LWPOLYLINE
  5
43D
100
AcDbEntity
  8
0
100
AcDbPolyline
 62
7
  6
CONTINUOUS
 90
10
 70
0
 10
7.5315579307
 20
8.350965882
 10
7.4453305379
 20
8.3494383291
 10
7.3641067277
 20
8.3479107351
 10
7.2900272307
 20
8.3463830868
 10
7.2250474461
 20
8.3448554312
 10
7.1708811953
 20
8.3433277949
 10
7.1289553741
 20
8.3418001589
 10
7.1003746583
 20
8.3402724926
 10
7.0858933509
 20
8.3387448172
 10
7.0843144605
 20
8.3382585048
  0
LWPOLYLINE
  5
43E
100
AcDbEntity
  8
0
100
AcDbPolyline
 62
7
  6
CONTINUOUS
 90
10
 70
0
 10
7.7389526896
 20
8.3651838625
 10
7.8251792547
 20
8.3667114004
 10
7.9064027615
 20
8.3682389872
 10
7.9804811687
 20
8.3697666091
 10
8.0454599751
 20
8.3712942315
 10
8.0996266705
 20
8.3728218624
 10
8.1415539864
 20
8.3743495312
 10
8.1701356633
 20
8.3758772307
 10
8.1846172468
 20
8.3774049225
 10
8.1861961599
 20
8.3778912396
  0
LWPOLYLINE
  5
43F
100
AcDbEntity
  8
0
100
AcDbPolyline
 62
7
  6
CONTINUOUS
 90
10
 70
0
 10
7.5315579307
 20
8.4100210001
 10
7.4453294198
 20
8.4084934269
 10
7.3641064906
 20
8.4069658486
 10
7.2900285518
 20
8.4054382338
 10
7.2250490006
 20
8.403910589
 10
7.17088196
 20
8.4023829372
 10
7.1289554051
 20
8.4008552784
 10
7.1003746335
 20
8.399327609
 10
7.0858933701
 20
8.3977999393
 10
7.0843144605
 20
8.3973136229
  0
LWPOLYLINE
  5
440
100
AcDbEntity
  8
0
100
AcDbPolyline
 62
7
  6
CONTINUOUS
 90
10
 70
0
 10
7.7389526896
 20
8.4242389806
 10
7.8251796106
 20
8.4257665249
 10
7.9064029522
 20
8.427294109
 10
7.980481363
 20
8.4288217314
 10
8.0454600736
 20
8.4303493522
 10
8.0996267751
 20
8.4318769838
 10
8.141554094
 20
8.4334046539
 10
8.1701357166
 20
8.4349323526
 10
8.1846172536
 20
8.436460042
 10
8.1861961599
 20
8.4369463577
  0
LWPOLYLINE
  5
441
100
AcDbEntity
  8
0
100
AcDbPolyline
 62
7
  6
CONTINUOUS
 90
10
 70
0
 10
7.5315579307
 20
8.4690761182
 10
7.4453305214
 20
8.467548565
 10
7.3641070328
 20
8.4660209773
 10
7.2900287064
 20
8.4644933553
 10
7.2250500839
 20
8.4629657348
 10
7.1708832904
 20
8.4614380974
 10
7.128956119
 20
8.4599104273
 10
7.1003747306
 20
8.458382734
 10
7.0858933491
 20
8.4568550531
 10
7.0843144605
 20
8.456368741
  0
LWPOLYLINE
  5
442
100
AcDbEntity
  8
0
100
AcDbPolyline
 62
7
  6
CONTINUOUS
 90
10
 70
0
 10
7.7389526896
 20
8.4832940987
 10
7.8251793783
 20
8.4848216388
 10
7.9064028968
 20
8.486349226
 10
7.9804812528
 20
8.4878768471
 10
8.0454600333
 20
8.4894044693
 10
8.0996267435
 20
8.4909321009
 10
8.1415540472
 20
8.49245977
 10
8.1701356927
 20
8.493987469
 10
8.1846172505
 20
8.4955151595
 10
8.1861961599
 20
8.4960014759
  0
LWPOLYLINE
  5
443
100
AcDbEntity
  8
0
100
AcDbPolyline
 62
7
  6
CONTINUOUS
 90
4
 70
0
 10
7.5315579307
 20
8.302570981
 10
7.4910287884
 20
8.307122394
 10
7.4502450818
 20
8.3133209672
 10
7.4092714012
 20
8.321090245
  0
LWPOLYLINE
  5
444
100
AcDbEntity
  8
0
100
AcDbPolyline
 62
7
  6
CONTINUOUS
 90
4
 70
0
 10
7.7389526896
 20
8.2954685272
 10
7.779489229
 20
8.2909161347
 10
7.8202723236
 20
8.2847173797
 10
7.8612392192
 20
8.2769492632
  0
LWPOLYLINE
  5
445
100
AcDbEntity
  8
0
100
AcDbPolyline
 62
7
  6
CONTINUOUS
 90
4
 70
0
 10
7.5315579307
 20
8.3616260992
 10
7.4910287884
 20
8.3661775121
 10
7.4502450818
 20
8.3723760853
 10
7.4092714012
 20
8.3801453631
  0
LWPOLYLINE
  5
446
100
AcDbEntity
  8
0
100
AcDbPolyline
 62
7
  6
CONTINUOUS
 90
4
 70
0
 10
7.7389526896
 20
8.3545236453
 10
7.779489229
 20
8.3499712528
 10
7.8202723236
 20
8.3437724978
 10
7.8612392192
 20
8.3360043813
  0
LWPOLYLINE
  5
447
100
AcDbEntity
  8
0
100
AcDbPolyline
 62
7
  6
CONTINUOUS
 90
4
 70
0
 10
7.5315579307
 20
8.4206812173
 10
7.4910287884
 20
8.4252326302
 10
7.4502450818
 20
8.4314312034
 10
7.4092714012
 20
8.4392004812
  0
LWPOLYLINE
  5
448
100
AcDbEntity
  8
0
100
AcDbPolyline
 62
7
  6
CONTINUOUS
 90
4
 70
0
 10
7.7389526896
 20
8.4135787634
 10
7.779489229
 20
8.4090263709
 10
7.8202723236
 20
8.4028276159
 10
7.8612392192
 20
8.3950594995
  0
LWPOLYLINE
  5
449
100
AcDbEntity
  8
0
100
AcDbPolyline
 62
7
  6
CONTINUOUS
 90
4
 70
0
 10
7.5315579307
 20
8.4797363354
 10
7.4910287884
 20
8.4842877483
 10
7.4502450818
 20
8.4904863215
 10
7.4092714012
 20
8.4982555993
  0
LWPOLYLINE
  5
44A
100
AcDbEntity
  8
0
100
AcDbPolyline
 62
7
  6
CONTINUOUS
 90
4
 70
0
 10
7.7389526896
 20
8.4726338815
 10
7.779489229
 20
8.468081489
 10
7.8202723236
 20
8.461882734
 10
7.8612392192
 20
8.4541146176
  0
LWPOLYLINE
  5
44B
100
AcDbEntity
  8
0
100
AcDbPolyline
 62
7
  6
CONTINUOUS
 90
4
 70
0
 10
7.4092714012
 20
8.2620351269
 10
7.4573580707
 20
8.2530717264
 10
7.5049331544
 20
8.2463210059
 10
7.5523207652
 20
8.2418299084
  0
LINE
  5
44C
100
AcDbEntity
  8
0
100
AcDbLine
 62
7
  6
CONTINUOUS
 10
7.048866895
 20
8.2507274915
 11
7.0843144605
 21
8.2302534444
  0
LINE
  5
44D
100
AcDbEntity
  8
0
100
AcDbLine
 62
7
  6
CONTINUOUS
 10
7.048866895
 20
8.3097826096
 11
7.0843144605
 21
8.2893085625
  0
LINE
  5
44E
100
AcDbEntity
  8
0
100
AcDbLine
 62
7
  6
CONTINUOUS
 10
7.048866895
 20
8.3688377277
 11
7.0843144605
 21
8.3483636806
  0
LINE
  5
44F
100
AcDbEntity
  8
0
100
AcDbLine
 62
7
  6
CONTINUOUS
 10
7.048866895
 20
8.4278928458
 11
7.0843144605
 21
8.4074187987
  0
LINE
  5
450
100
AcDbEntity
  8
0
100
AcDbLine
 62
7
  6
CONTINUOUS
 10
7.048866895
 20
8.4869479639
 11
7.0843144605
 21
8.4664739168
  0
LWPOLYLINE
  5
451
100
AcDbEntity
  8
0
100
AcDbPolyline
 62
7
  6
CONTINUOUS
 90
16
 70
0
 10
7.2227790386
 20
13.1173428204
 10
7.2192014145
 20
13.1132652566
 10
7.215772745
 20
13.1085990002
 10
7.2125126331
 20
13.1033707299
 10
7.2094397173
 20
13.0976103364
 10
7.2065715674
 20
13.0913507555
 10
7.2039245806
 20
13.0846277735
 10
7.201513891
 20
13.0774798285
 10
7.1993532811
 20
13.0699477874
 10
7.1974551039
 20
13.0620747132
 10
7.1958302118
 20
13.0539056189
 10
7.1944878946
 20
13.0454872085
 10
7.1934358274
 20
13.0368676159
 10
7.1926800245
 20
13.0280961185
 10
7.1922248074
 20
13.0192228675
 10
7.1920727786
 20
13.0102985935
  0
LINE
  5
452
100
AcDbEntity
  8
0
100
AcDbLine
 62
7
  6
CONTINUOUS
 10
7.2532574994
 20
13.151729313
 11
7.2227790387
 21
13.1173428204
  0
LINE
  5
453
100
AcDbEntity
  8
0
100
AcDbLine
 62
7
  6
CONTINUOUS
 10
7.2691268265
 20
13.1696266068
 11
7.2532574994
 21
13.151729313
  0
LWPOLYLINE
  5
454
100
AcDbEntity
  8
0
100
AcDbPolyline
 62
7
  6
CONTINUOUS
 90
15
 70
0
 10
7.252929514
 20
13.1361553221
 10
7.2519936779
 20
13.1351109918
 10
7.2488930235
 20
13.131840554
 10
7.245897839
 20
13.1289560884
 10
7.2430918163
 20
13.126500628
 10
7.2405380569
 20
13.1244788203
 10
7.2382793363
 20
13.1228663732
 10
7.2361122772
 20
13.1214822668
 10
7.2339016993
 20
13.1202448278
 10
7.2317190176
 20
13.1192088138
 10
7.2296183936
 20
13.1184016229
 10
7.2276419628
 20
13.1178295185
 10
7.2258263595
 20
13.1174819947
 10
7.224197079
 20
13.1173325674
 10
7.2227790386
 20
13.1173428204
  0
LWPOLYLINE
  5
455
100
AcDbEntity
  8
0
100
AcDbPolyline
 62
7
  6
CONTINUOUS
 90
4
 70
0
 10
7.4092714012
 20
8.4466807962
 10
7.4502409319
 20
8.4556925707
 10
7.4910208975
 20
8.4631866377
 10
7.5315579307
 20
8.4690761182
  0
LWPOLYLINE
  5
456
100
AcDbEntity
  8
0
100
AcDbPolyline
 62
7
  6
CONTINUOUS
 90
4
 70
0
 10
7.8612392192
 20
8.5647445388
 10
7.8202631629
 20
8.5557314444
 10
7.7794826511
 20
8.5482375315
 10
7.7389526896
 20
8.5423492168
  0
LWPOLYLINE
  5
457
100
AcDbEntity
  8
0
100
AcDbPolyline
 62
7
  6
CONTINUOUS
 90
4
 70
0
 10
7.4092714012
 20
8.5057359143
 10
7.4502409319
 20
8.5147476888
 10
7.4910208975
 20
8.5222417558
 10
7.5315579307
 20
8.5281312363
  0
LWPOLYLINE
  5
458
100
AcDbEntity
  8
0
100
AcDbPolyline
 62
7
  6
CONTINUOUS
 90
4
 70
0
 10
7.8612392192
 20
8.6237996569
 10
7.8202631629
 20
8.6147865625
 10
7.7794826511
 20
8.6072926496
 10
7.7389526896
 20
8.6014043349
  0
LWPOLYLINE
  5
459
100
AcDbEntity
  8
0
100
AcDbPolyline
 62
7
  6
CONTINUOUS
 90
4
 70
0
 10
7.4092714012
 20
8.5647910324
 10
7.4502409319
 20
8.573802807
 10
7.4910208975
 20
8.5812968739
 10
7.5315579307
 20
8.5871863544
  0
LWPOLYLINE
  5
45A
100
AcDbEntity
  8
0
100
AcDbPolyline
 62
7
  6
CONTINUOUS
 90
4
 70
0
 10
7.8612392192
 20
8.6828547751
 10
7.8202631629
 20
8.6738416806
 10
7.7794826511
 20
8.6663477678
 10
7.7389526896
 20
8.660459453
  0
LWPOLYLINE
  5
45B
100
AcDbEntity
  8
0
100
AcDbPolyline
 62
7
  6
CONTINUOUS
 90
4
 70
0
 10
7.4092714012
 20
8.6238461505
 10
7.4502409319
 20
8.6328579251
 10
7.4910208975
 20
8.640351992
 10
7.5315579307
 20
8.6462414726
  0
LWPOLYLINE
  5
45C
100
AcDbEntity
  8
0
100
AcDbPolyline
 62
7
  6
CONTINUOUS
 90
4
 70
0
 10
7.8612392192
 20
8.7419098932
 10
7.8202631629
 20
8.7328967987
 10
7.7794826511
 20
8.7254028859
 10
7.7389526896
 20
8.7195145711
  0
LWPOLYLINE
  5
45D
100
AcDbEntity
  8
0
100
AcDbPolyline
 62
7
  6
CONTINUOUS
 90
4
 70
0
 10
7.4092714012
 20
8.6829012686
 10
7.4502409319
 20
8.6919130432
 10
7.4910208975
 20
8.6994071101
 10
7.5315579307
 20
8.7052965907
  0
LWPOLYLINE
  5
45E
100
AcDbEntity
  8
0
100
AcDbPolyline
 62
7
  6
CONTINUOUS
 90
4
 70
0
 10
7.8612392192
 20
8.8009650113
 10
7.8202631629
 20
8.7919519169
 10
7.7794826511
 20
8.784458004
 10
7.7389526896
 20
8.7785696892
  0
LWPOLYLINE
  5
45F
100
AcDbEntity
  8
0
100
AcDbPolyline
 62
7
  6
CONTINUOUS
 90
6
 70
0
 10
8.0454599874
 20
8.6075147043
 10
8.0996266752
 20
8.609042335
 10
8.1415539863
 20
8.6105700036
 10
8.1701356625
 20
8.6120977031
 10
8.1846172467
 20
8.6136253949
 10
8.1861961599
 20
8.6141117121
  0
LINE
  5
460
100
AcDbEntity
  8
0
100
AcDbLine
 62
7
  6
CONTINUOUS
 10
7.2250505758
 20
8.5326810826
 11
7.2900293482
 21
8.5342087046
  0
LWPOLYLINE
  5
461
100
AcDbEntity
  8
0
100
AcDbPolyline
 62
7
  6
CONTINUOUS
 90
4
 70
0
 10
7.1885595078
 20
8.611947088
 10
7.253376964
 20
8.6134200039
 10
7.3275535736
 20
8.6148929197
 10
7.4092714012
 20
8.6163658356
  0
LINE
  5
462
100
AcDbEntity
  8
0
100
AcDbLine
 62
7
  6
CONTINUOUS
 10
7.9804820648
 20
8.5362717658
 11
7.9064041493
 21
8.5347441515
  0
LWPOLYLINE
  5
463
100
AcDbEntity
  8
0
100
AcDbPolyline
 62
7
  6
CONTINUOUS
 90
4
 70
0
 10
7.2900293482
 20
8.5342087046
 10
7.3641076923
 20
8.5357363255
 10
7.4453312156
 20
8.5372639128
 10
7.5315579307
 20
8.5387914535
  0
LWPOLYLINE
  5
464
100
AcDbEntity
  8
0
100
AcDbPolyline
 62
7
  6
CONTINUOUS
 90
3
 70
0
 10
7.906402741
 20
8.6044594592
 10
7.9804811706
 20
8.6059870815
 10
8.0454599874
 20
8.6075147043
  0
LWPOLYLINE
  5
465
100
AcDbEntity
  8
0
100
AcDbPolyline
 62
7
  6
CONTINUOUS
 90
3
 70
0
 10
7.9064041493
 20
8.5347441515
 10
7.8251812064
 20
8.533216573
 10
7.7389526896
 20
8.5316889996
  0
LINE
  5
466
100
AcDbEntity
  8
0
100
AcDbLine
 62
7
  6
CONTINUOUS
 10
7.8251792286
 20
8.6029318723
 11
7.906402741
 21
8.6044594592
  0
LWPOLYLINE
  5
467
100
AcDbEntity
  8
0
100
AcDbPolyline
 62
7
  6
CONTINUOUS
 90
9
 70
0
 10
7.4453297668
 20
8.6447139056
 10
7.3641063108
 20
8.6431863175
 10
7.2900285233
 20
8.6416587056
 10
7.2250496326
 20
8.6401310776
 10
7.1708825645
 20
8.6386034288
 10
7.1289556564
 20
8.6370757617
 10
7.1003746186
 20
8.6355480804
 10
7.0858933568
 20
8.634020409
 10
7.0843144605
 20
8.6335340954
  0
LWPOLYLINE
  5
468
100
AcDbEntity
  8
0
100
AcDbPolyline
 62
7
  6
CONTINUOUS
 90
3
 70
0
 10
7.9064038383
 20
8.7709646179
 10
7.8251808621
 20
8.7694370392
 10
7.7389526896
 20
8.7679094721
  0
LWPOLYLINE
  5
469
100
AcDbEntity
  8
0
100
AcDbPolyline
 62
7
  6
CONTINUOUS
 90
9
 70
0
 10
7.8612392192
 20
8.5647445388
 10
7.9429570467
 20
8.5662174547
 10
8.0171336564
 20
8.5676903705
 10
8.0819511126
 20
8.5691632864
 10
8.1358208555
 20
8.5706362022
 10
8.1774226345
 20
8.5721091181
 10
8.2057368645
 20
8.5735820339
 10
8.2200696145
 20
8.5750549497
 10
8.2216437254
 20
8.5755306411
  0
LWPOLYLINE
  5
46A
100
AcDbEntity
  8
0
100
AcDbPolyline
 62
7
  6
CONTINUOUS
 90
9
 70
0
 10
7.8612392192
 20
8.5722248538
 10
7.9429570467
 20
8.5736977696
 10
8.0171336564
 20
8.5751706855
 10
8.0819511126
 20
8.5766436013
 10
8.1358208555
 20
8.5781165172
 10
8.1774226345
 20
8.579589433
 10
8.2057368645
 20
8.5810623489
 10
8.2200696145
 20
8.5825352647
 10
8.2218694834
 20
8.5832717226
  0
LWPOLYLINE
  5
46B
100
AcDbEntity
  8
0
100
AcDbPolyline
 62
7
  6
CONTINUOUS
 90
9
 70
0
 10
7.8612392192
 20
8.6237996569
 10
7.9429570467
 20
8.6252725728
 10
8.0171336564
 20
8.6267454886
 10
8.0819511126
 20
8.6282184045
 10
8.1358208555
 20
8.6296913203
 10
8.1774226345
 20
8.6311642362
 10
8.2057368645
 20
8.632637152
 10
8.2200696145
 20
8.6341100679
 10
8.2216437254
 20
8.6345857592
  0
LWPOLYLINE
  5
46C
100
AcDbEntity
  8
0
100
AcDbPolyline
 62
7
  6
CONTINUOUS
 90
9
 70
0
 10
7.8612392192
 20
8.6312799719
 10
7.9429570467
 20
8.6327528877
 10
8.0171336564
 20
8.6342258036
 10
8.0819511126
 20
8.6356987194
 10
8.1358208555
 20
8.6371716353
 10
8.1774226345
 20
8.6386445511
 10
8.2057368645
 20
8.640117467
 10
8.2200696145
 20
8.6415903828
 10
8.2218694834
 20
8.6423268407
  0
LWPOLYLINE
  5
46D
100
AcDbEntity
  8
0
100
AcDbPolyline
 62
7
  6
CONTINUOUS
 90
9
 70
0
 10
7.8612392192
 20
8.6828547751
 10
7.9429570467
 20
8.6843276909
 10
8.0171336564
 20
8.6858006067
 10
8.0819511126
 20
8.6872735226
 10
8.1358208555
 20
8.6887464384
 10
8.1774226345
 20
8.6902193543
 10
8.2057368645
 20
8.6916922701
 10
8.2200696145
 20
8.693165186
 10
8.2216437254
 20
8.6936408773
  0
LWPOLYLINE
  5
46E
100
AcDbEntity
  8
0
100
AcDbPolyline
 62
7
  6
CONTINUOUS
 90
9
 70
0
 10
7.8612392192
 20
8.69033509
 10
7.9429570467
 20
8.6918080059
 10
8.0171336564
 20
8.6932809217
 10
8.0819511126
 20
8.6947538375
 10
8.1358208555
 20
8.6962267534
 10
8.1774226345
 20
8.6976996692
 10
8.2057368645
 20
8.6991725851
 10
8.2200696145
 20
8.7006455009
 10
8.2218694834
 20
8.7013819588
  0
LWPOLYLINE
  5
46F
100
AcDbEntity
  8
0
100
AcDbPolyline
 62
7
  6
CONTINUOUS
 90
9
 70
0
 10
7.8612392192
 20
8.7419098932
 10
7.9429570467
 20
8.743382809
 10
8.0171336564
 20
8.7448557249
 10
8.0819511126
 20
8.7463286407
 10
8.1358208555
 20
8.7478015565
 10
8.1774226345
 20
8.7492744724
 10
8.2057368645
 20
8.7507473882
 10
8.2200696145
 20
8.7522203041
 10
8.2216437254
 20
8.7526959954
  0
LWPOLYLINE
  5
470
100
AcDbEntity
  8
0
100
AcDbPolyline
 62
7
  6
CONTINUOUS
 90
9
 70
0
 10
7.8612392192
 20
8.7493902081
 10
7.9429570467
 20
8.750863124
 10
8.0171336564
 20
8.7523360398
 10
8.0819511126
 20
8.7538089557
 10
8.1358208555
 20
8.7552818715
 10
8.1774226345
 20
8.7567547873
 10
8.2057368645
 20
8.7582277032
 10
8.2200696145
 20
8.759700619
 10
8.2218694834
 20
8.760437077
  0
LWPOLYLINE
  5
471
100
AcDbEntity
  8
0
100
AcDbPolyline
 62
7
  6
CONTINUOUS
 90
9
 70
0
 10
7.8612392192
 20
8.8009650113
 10
7.9429570467
 20
8.8024379271
 10
8.0171336564
 20
8.803910843
 10
8.0819511126
 20
8.8053837588
 10
8.1358208555
 20
8.8068566746
 10
8.1774226345
 20
8.8083295905
 10
8.2057368645
 20
8.8098025063
 10
8.2200696145
 20
8.8112754222
 10
8.2216437254
 20
8.8117511135
  0
LWPOLYLINE
  5
472
100
AcDbEntity
  8
0
100
AcDbPolyline
 62
7
  6
CONTINUOUS
 90
10
 70
0
 10
7.5315579307
 20
8.5281312363
 10
7.4453321034
 20
8.5266037118
 10
7.3641083362
 20
8.525076121
 10
7.2900287802
 20
8.523548475
 10
7.2250489076
 20
8.5220208229
 10
7.1708823514
 20
8.5204931858
 10
7.1289559168
 20
8.5189655367
 10
7.1003747326
 20
8.5174378522
 10
7.0858933494
 20
8.5159101712
 10
7.0843144605
 20
8.5154238592
  0
LWPOLYLINE
  5
473
100
AcDbEntity
  8
0
100
AcDbPolyline
 62
7
  6
CONTINUOUS
 90
10
 70
0
 10
7.7389526896
 20
8.5423492168
 10
7.8251792963
 20
8.5438767555
 10
7.9064028072
 20
8.5454043424
 10
7.9804811976
 20
8.546931964
 10
8.045459995
 20
8.5484595864
 10
8.0996266949
 20
8.5499872175
 10
8.1415540069
 20
8.5515148864
 10
8.1701356733
 20
8.5530425858
 10
8.1846172481
 20
8.5545702771
 10
8.1861961599
 20
8.555056594
  0
LWPOLYLINE
  5
474
100
AcDbEntity
  8
0
100
AcDbPolyline
 62
7
  6
CONTINUOUS
 90
10
 70
0
 10
7.5315579307
 20
8.5871863544
 10
7.4453298112
 20
8.5856587883
 10
7.3641068074
 20
8.5841312091
 10
7.2900281375
 20
8.5826035791
 10
7.2250482546
 20
8.5810759243
 10
7.1708814925
 20
8.5795482768
 10
7.1289553591
 20
8.5780206307
 10
7.1003747016
 20
8.5764929681
 10
7.0858933674
 20
8.5749652931
 10
7.0843144605
 20
8.5744789773
  0
LINE
  5
475
100
AcDbEntity
  8
0
100
AcDbLine
 62
7
  6
CONTINUOUS
 10
7.7389526896
 20
8.6014043349
 11
7.8251792286
 21
8.6029318723
  0
LINE
  5
476
100
AcDbEntity
  8
0
100
AcDbLine
 62
7
  6
CONTINUOUS
 10
7.5315579307
 20
8.6462414726
 11
7.4453297668
 21
8.6447139056
  0
LWPOLYLINE
  5
477
100
AcDbEntity
  8
0
100
AcDbPolyline
 62
7
  6
CONTINUOUS
 90
10
 70
0
 10
7.7389526896
 20
8.660459453
 10
7.8251794187
 20
8.6619869939
 10
7.9064029406
 20
8.6635145812
 10
7.9804812791
 20
8.665042202
 10
8.0454600517
 20
8.6665698241
 10
8.0996267678
 20
8.668097456
 10
8.1415540672
 20
8.6696251252
 10
8.1701357022
 20
8.671152824
 10
8.1846172516
 20
8.6726805141
 10
8.1861961599
 20
8.6731668302
  0
LWPOLYLINE
  5
478
100
AcDbEntity
  8
0
100
AcDbPolyline
 62
7
  6
CONTINUOUS
 90
10
 70
0
 10
7.5315579307
 20
8.7052965907
 10
7.4453320587
 20
8.7037690653
 10
7.3641083297
 20
8.7022414752
 10
7.2900292896
 20
8.7007138405
 10
7.2250500438
 20
8.6991862062
 10
7.1708834464
 20
8.6976585748
 10
7.1289563951
 20
8.6961309117
 10
7.1003748711
 20
8.6946032163
 10
7.0858933633
 20
8.6930755285
 10
7.0843144605
 20
8.6925892135
  0
LWPOLYLINE
  5
479
100
AcDbEntity
  8
0
100
AcDbPolyline
 62
7
  6
CONTINUOUS
 90
10
 70
0
 10
7.7389526896
 20
8.7195145711
 10
7.8251793375
 20
8.7210421105
 10
7.9064028523
 20
8.7225696976
 10
7.9804812256
 20
8.724097319
 10
8.0454600144
 20
8.7256249412
 10
8.0996267192
 20
8.7271525726
 10
8.1415540271
 20
8.7286802416
 10
8.1701356831
 20
8.7302079408
 10
8.1846172493
 20
8.7317356317
 10
8.1861961599
 20
8.7322219483
  0
LWPOLYLINE
  5
47A
100
AcDbEntity
  8
0
100
AcDbPolyline
 62
7
  6
CONTINUOUS
 90
10
 70
0
 10
7.5315579307
 20
8.7643517088
 10
7.4453305379
 20
8.7628241558
 10
7.3641067277
 20
8.7612965619
 10
7.2900272307
 20
8.7597689136
 10
7.2250474461
 20
8.758241258
 10
7.1708811953
 20
8.7567136217
 10
7.1289553741
 20
8.7551859857
 10
7.1003746583
 20
8.7536583194
 10
7.0858933509
 20
8.752130644
 10
7.0843144605
 20
8.7516443316
  0
LWPOLYLINE
  5
47B
100
AcDbEntity
  8
0
100
AcDbPolyline
 62
7
  6
CONTINUOUS
 90
10
 70
0
 10
7.7389526896
 20
8.7785696892
 10
7.8251792547
 20
8.7800972271
 10
7.9064027615
 20
8.7816248139
 10
7.9804811687
 20
8.7831524358
 10
8.0454599751
 20
8.7846800583
 10
8.0996266705
 20
8.7862076891
 10
8.1415539864
 20
8.7877353579
 10
8.1701356633
 20
8.7892630575
 10
8.1846172468
 20
8.7907907493
 10
8.1861961599
 20
8.7912770664
  0
LWPOLYLINE
  5
47C
100
AcDbEntity
  8
0
100
AcDbPolyline
 62
7
  6
CONTINUOUS
 90
4
 70
0
 10
7.5315579307
 20
8.5387914535
 10
7.4910287884
 20
8.5433428664
 10
7.4502450818
 20
8.5495414396
 10
7.4092714012
 20
8.5573107174
  0
LWPOLYLINE
  5
47D
100
AcDbEntity
  8
0
100
AcDbPolyline
 62
7
  6
CONTINUOUS
 90
4
 70
0
 10
7.7389526896
 20
8.5316889996
 10
7.779489229
 20
8.5271366071
 10
7.8202723236
 20
8.5209378521
 10
7.8612392192
 20
8.5131697357
  0
LWPOLYLINE
  5
47E
100
AcDbEntity
  8
0
100
AcDbPolyline
 62
7
  6
CONTINUOUS
 90
4
 70
0
 10
7.5315579307
 20
8.5978465716
 10
7.4910287884
 20
8.6023979845
 10
7.4502450818
 20
8.6085965577
 10
7.4092714012
 20
8.6163658356
  0
LWPOLYLINE
  5
47F
100
AcDbEntity
  8
0
100
AcDbPolyline
 62
7
  6
CONTINUOUS
 90
4
 70
0
 10
7.7389526896
 20
8.5907441178
 10
7.779489229
 20
8.5861917252
 10
7.8202723236
 20
8.5799929702
 10
7.8612392192
 20
8.5722248538
  0
LWPOLYLINE
  5
480
100
AcDbEntity
  8
0
100
AcDbPolyline
 62
7
  6
CONTINUOUS
 90
4
 70
0
 10
7.5315579307
 20
8.6569016897
 10
7.4910287884
 20
8.6614531026
 10
7.4502450818
 20
8.6676516758
 10
7.4092714012
 20
8.6754209537
  0
LWPOLYLINE
  5
481
100
AcDbEntity
  8
0
100
AcDbPolyline
 62
7
  6
CONTINUOUS
 90
4
 70
0
 10
7.7389526896
 20
8.6497992359
 10
7.779489229
 20
8.6452468434
 10
7.8202723236
 20
8.6390480883
 10
7.8612392192
 20
8.6312799719
  0
LWPOLYLINE
  5
482
100
AcDbEntity
  8
0
100
AcDbPolyline
 62
7
  6
CONTINUOUS
 90
4
 70
0
 10
7.5315579307
 20
8.7159568078
 10
7.4910287884
 20
8.7205082207
 10
7.4502450818
 20
8.726706794
 10
7.4092714012
 20
8.7344760718
  0
LWPOLYLINE
  5
483
100
AcDbEntity
  8
0
100
AcDbPolyline
 62
7
  6
CONTINUOUS
 90
4
 70
0
 10
7.7389526896
 20
8.708854354
 10
7.779489229
 20
8.7043019615
 10
7.8202723236
 20
8.6981032064
 10
7.8612392192
 20
8.69033509
  0
LWPOLYLINE
  5
484
100
AcDbEntity
  8
0
100
AcDbPolyline
 62
7
  6
CONTINUOUS
 90
4
 70
0
 10
7.5315579307
 20
8.7750119259
 10
7.4910287884
 20
8.7795633389
 10
7.4502450818
 20
8.7857619121
 10
7.4092714012
 20
8.7935311899
  0
LWPOLYLINE
  5
485
100
AcDbEntity
  8
0
100
AcDbPolyline
 62
7
  6
CONTINUOUS
 90
4
 70
0
 10
7.7389526896
 20
8.7679094721
 10
7.779489229
 20
8.7633570796
 10
7.8202723236
 20
8.7571583245
 10
7.8612392192
 20
8.7493902081
  0
LINE
  5
486
100
AcDbEntity
  8
0
100
AcDbLine
 62
7
  6
CONTINUOUS
 10
7.048866895
 20
8.546003082
 11
7.0843144605
 21
8.5255290349
  0
LINE
  5
487
100
AcDbEntity
  8
0
100
AcDbLine
 62
7
  6
CONTINUOUS
 10
7.048866895
 20
8.6050582001
 11
7.0843144605
 21
8.584584153
  0
LINE
  5
488
100
AcDbEntity
  8
0
100
AcDbLine
 62
7
  6
CONTINUOUS
 10
7.048866895
 20
8.6641133183
 11
7.0843144605
 21
8.6436392711
  0
LINE
  5
489
100
AcDbEntity
  8
0
100
AcDbLine
 62
7
  6
CONTINUOUS
 10
7.048866895
 20
8.7231684364
 11
7.0843144605
 21
8.7026943892
  0
LINE
  5
48A
100
AcDbEntity
  8
0
100
AcDbLine
 62
7
  6
CONTINUOUS
 10
7.048866895
 20
8.7822235545
 11
7.0843144605
 21
8.7617495074
  0
LINE
  5
48B
100
AcDbEntity
  8
0
100
AcDbLine
 62
7
  6
CONTINUOUS
 10
7.048866895
 20
8.8412786726
 11
7.0843144605
 21
8.8208046255
  0
LWPOLYLINE
  5
48C
100
AcDbEntity
  8
0
100
AcDbPolyline
 62
7
  6
CONTINUOUS
 90
6
 70
0
 10
7.5136179775
 20
8.1763971068
 10
7.5113399167
 20
8.1779386338
 10
7.5092848484
 20
8.1824123196
 10
7.5076539369
 20
8.1893802484
 10
7.5066068273
 20
8.1981603511
 10
7.5062460179
 20
8.2078931698
  0
LINE
  5
48D
100
AcDbEntity
  8
0
100
AcDbLine
 62
7
  6
CONTINUOUS
 10
7.048866895
 20
8.2507274915
 11
7.048641137
 21
8.2509882581
  0
LINE
  5
48E
100
AcDbEntity
  8
0
100
AcDbLine
 62
7
  6
CONTINUOUS
 10
7.048866895
 20
8.3097826096
 11
7.048641137
 21
8.3100433762
  0
LINE
  5
48F
100
AcDbEntity
  8
0
100
AcDbLine
 62
7
  6
CONTINUOUS
 10
7.048866895
 20
8.3688377277
 11
7.048641137
 21
8.3690984943
  0
LINE
  5
490
100
AcDbEntity
  8
0
100
AcDbLine
 62
7
  6
CONTINUOUS
 10
7.048866895
 20
8.4278928458
 11
7.048641137
 21
8.4281536124
  0
LWPOLYLINE
  5
491
100
AcDbEntity
  8
0
100
AcDbPolyline
 62
7
  6
CONTINUOUS
 90
4
 70
0
 10
7.4092714012
 20
8.7419563867
 10
7.4502409319
 20
8.7509681613
 10
7.4910208975
 20
8.7584622282
 10
7.5315579307
 20
8.7643517088
  0
LWPOLYLINE
  5
492
100
AcDbEntity
  8
0
100
AcDbPolyline
 62
7
  6
CONTINUOUS
 90
4
 70
0
 10
7.4092714012
 20
8.8010115048
 10
7.4502409319
 20
8.8100232794
 10
7.4910208975
 20
8.8175173463
 10
7.5315579307
 20
8.8234068269
  0
LWPOLYLINE
  5
493
100
AcDbEntity
  8
0
100
AcDbPolyline
 62
7
  6
CONTINUOUS
 90
4
 70
0
 10
7.5523207652
 20
8.8848480036
 10
7.5049326317
 20
8.8787735915
 10
7.4573578457
 20
8.870495362
 10
7.4092714012
 20
8.860066623
  0
LWPOLYLINE
  5
494
100
AcDbEntity
  8
0
100
AcDbPolyline
 62
7
  6
CONTINUOUS
 90
4
 70
0
 10
7.5523207652
 20
8.8848480036
 10
7.5368355891
 20
8.8834542965
 10
7.5214172233
 20
8.8825098458
 10
7.5062460179
 20
8.882020321
  0
LWPOLYLINE
  5
495
100
AcDbEntity
  8
0
100
AcDbPolyline
 62
7
  6
CONTINUOUS
 90
9
 70
0
 10
7.8612392192
 20
8.8084453262
 10
7.9429570467
 20
8.8099182421
 10
8.0171336564
 20
8.8113911579
 10
8.0819511126
 20
8.8128640738
 10
8.1358208555
 20
8.8143369896
 10
8.1774226345
 20
8.8158099055
 10
8.2057368645
 20
8.8172828213
 10
8.2200696145
 20
8.8187557371
 10
8.2218694834
 20
8.8194921951
  0
LWPOLYLINE
  5
496
100
AcDbEntity
  8
0
100
AcDbPolyline
 62
7
  6
CONTINUOUS
 90
10
 70
0
 10
7.5062460179
 20
8.882020321
 10
7.4240475632
 20
8.8805447155
 10
7.3470426758
 20
8.8790690773
 10
7.2771262654
 20
8.8775934127
 10
7.2160197485
 20
8.8761177498
 10
7.1652256649
 20
8.8746420687
 10
7.1259936755
 20
8.8731663565
 10
7.0992898396
 20
8.8716906244
 10
7.0857717924
 20
8.8702149051
 10
7.0843144605
 20
8.8697545678
  0
LWPOLYLINE
  5
497
100
AcDbEntity
  8
0
100
AcDbPolyline
 62
7
  6
CONTINUOUS
 90
10
 70
0
 10
7.5315579307
 20
8.8234068269
 10
7.4453294198
 20
8.8218792536
 10
7.3641064906
 20
8.8203516754
 10
7.2900285518
 20
8.8188240606
 10
7.2250490006
 20
8.8172964158
 10
7.17088196
 20
8.815768764
 10
7.1289554051
 20
8.8142411052
 10
7.1003746335
 20
8.8127134358
 10
7.0858933701
 20
8.8111857661
 10
7.0843144605
 20
8.8106994497
  0
LWPOLYLINE
  5
498
100
AcDbEntity
  8
0
100
AcDbPolyline
 62
7
  6
CONTINUOUS
 90
4
 70
0
 10
7.7642646024
 20
8.8274062142
 10
7.7490963632
 20
8.8273680589
 10
7.7336781591
 20
8.8277834517
 10
7.7181898552
 20
8.8286505447
  0
LINE
  5
499
100
AcDbEntity
  8
0
100
AcDbLine
 62
7
  6
CONTINUOUS
 10
7.0840742078
 20
8.8929325399
 11
8.1864364126
 21
8.8929325399
  0
LINE
  5
49A
100
AcDbEntity
  8
AXIS
100
AcDbLine
 62
7
  6
CONTINUOUS
 10
8.391160822
 20
8.9244286029
 11
6.8793497984
 21
8.9244286029
  0
LINE
  5
49B
100
AcDbEntity
  8
AXIS
100
AcDbLine
 62
7
  6
CONTINUOUS
 10
8.5210820818
 20
9.0543498627
 11
6.7494285385
 21
9.0543498627
  0
LWPOLYLINE
  5
49C
100
AcDbEntity
  8
0
100
AcDbPolyline
 62
7
  6
CONTINUOUS
 90
4
 70
0
 10
7.5315579307
 20
8.834067044
 10
7.4910287884
 20
8.838618457
 10
7.4502450818
 20
8.8448170302
 10
7.4092714012
 20
8.852586308
  0
LWPOLYLINE
  5
49D
100
AcDbEntity
  8
0
100
AcDbPolyline
 62
7
  6
CONTINUOUS
 90
4
 70
0
 10
7.8612392192
 20
8.8084453262
 10
7.8131525587
 20
8.8174087253
 10
7.7655774703
 20
8.8241594467
 10
7.7181898552
 20
8.8286505447
  0
LINE
  5
49E
100
AcDbEntity
  8
0
100
AcDbLine
 62
7
  6
CONTINUOUS
 10
8.2216437254
 20
8.2882568987
 11
8.1861961599
 21
8.3087309458
  0
LINE
  5
49F
100
AcDbEntity
  8
0
100
AcDbLine
 62
7
  6
CONTINUOUS
 10
8.2216437254
 20
8.3473120168
 11
8.1861961599
 21
8.3677860639
  0
LINE
  5
4A0
100
AcDbEntity
  8
0
100
AcDbLine
 62
7
  6
CONTINUOUS
 10
8.2216437254
 20
8.4063671349
 11
8.1861961599
 21
8.426841182
  0
LINE
  5
4A1
100
AcDbEntity
  8
0
100
AcDbLine
 62
7
  6
CONTINUOUS
 10
8.2216437254
 20
8.465422253
 11
8.1861961599
 21
8.4858963001
  0
LINE
  5
4A2
100
AcDbEntity
  8
0
100
AcDbLine
 62
7
  6
CONTINUOUS
 10
7.048866895
 20
8.4869479639
 11
7.048641137
 21
8.4872087305
  0
LINE
  5
4A3
100
AcDbEntity
  8
0
100
AcDbLine
 62
7
  6
CONTINUOUS
 10
7.048866895
 20
8.546003082
 11
7.048641137
 21
8.5462638486
  0
LINE
  5
4A4
100
AcDbEntity
  8
0
100
AcDbLine
 62
7
  6
CONTINUOUS
 10
7.048866895
 20
8.6050582001
 11
7.048641137
 21
8.6053189667
  0
LINE
  5
4A5
100
AcDbEntity
  8
0
100
AcDbLine
 62
7
  6
CONTINUOUS
 10
7.048866895
 20
8.6641133183
 11
7.048641137
 21
8.6643740848
  0
LINE
  5
4A6
100
AcDbEntity
  8
0
100
AcDbLine
 62
7
  6
CONTINUOUS
 10
7.048866895
 20
8.7231684364
 11
7.048641137
 21
8.7234292029
  0
LINE
  5
4A7
100
AcDbEntity
  8
0
100
AcDbLine
 62
7
  6
CONTINUOUS
 10
7.048866895
 20
8.7822235545
 11
7.048641137
 21
8.7824843211
  0
LINE
  5
4A8
100
AcDbEntity
  8
0
100
AcDbLine
 62
7
  6
CONTINUOUS
 10
7.048866895
 20
8.8412786726
 11
7.048641137
 21
8.8415394392
  0
LINE
  5
4A9
100
AcDbEntity
  8
0
100
AcDbLine
 62
7
  6
CONTINUOUS
 10
8.5210820818
 20
9.3279719099
 11
6.7494285385
 21
9.3279719099
  0
LINE
  5
4AA
100
AcDbEntity
  8
0
100
AcDbLine
 62
7
  6
CONTINUOUS
 10
8.2216437254
 20
8.5244773711
 11
8.1861961599
 21
8.5449514182
  0
LINE
  5
4AB
100
AcDbEntity
  8
0
100
AcDbLine
 62
7
  6
CONTINUOUS
 10
8.2216437254
 20
8.5835324892
 11
8.1861961599
 21
8.6040065363
  0
LINE
  5
4AC
100
AcDbEntity
  8
0
100
AcDbLine
 62
7
  6
CONTINUOUS
 10
8.2216437254
 20
8.6425876073
 11
8.1861961599
 21
8.6630616544
  0
LINE
  5
4AD
100
AcDbEntity
  8
0
100
AcDbLine
 62
7
  6
CONTINUOUS
 10
8.2216437254
 20
8.7016427254
 11
8.1861961599
 21
8.7221167725
  0
LINE
  5
4AE
100
AcDbEntity
  8
0
100
AcDbLine
 62
7
  6
CONTINUOUS
 10
8.2216437254
 20
8.7606978435
 11
8.1861961599
 21
8.7811718906
  0
LINE
  5
4AF
100
AcDbEntity
  8
AXIS
100
AcDbLine
 62
7
  6
CONTINUOUS
 10
6.6510033417
 20
12.6915798198
 11
6.6313801255
 21
12.5802910304
  0
LINE
  5
4B0
100
AcDbEntity
  8
AXIS
100
AcDbLine
 62
7
  6
CONTINUOUS
 10
6.631350175
 20
12.5801211727
 11
6.6313183023
 21
12.5799404139
  0
LINE
  5
4B1
100
AcDbEntity
  8
0
100
AcDbLine
 62
7
  6
CONTINUOUS
 10
6.6490323722
 20
9.3929465224
 11
6.641160822
 21
9.3915585557
  0
LINE
  5
4B2
100
AcDbEntity
  8
AXIS
100
AcDbLine
 62
7
  6
CONTINUOUS
 10
8.6293497984
 20
9.3476569493
 11
6.641160822
 21
9.3476569493
  0
LINE
  5
4B3
100
AcDbEntity
  8
0
100
AcDbLine
 62
7
  6
CONTINUOUS
 10
6.641160822
 20
9.3915585557
 11
8.6293497984
 21
9.3915585557
  0
LINE
  5
4B4
100
AcDbEntity
  8
0
100
AcDbLine
 62
7
  6
CONTINUOUS
 10
6.6510033417
 20
9.3929325399
 11
8.6195072787
 21
9.3929325399
  0
LINE
  5
4B5
100
AcDbEntity
  8
0
100
AcDbLine
 62
7
  6
CONTINUOUS
 10
8.6214782481
 20
9.3929465224
 11
8.6293530181
 21
9.391557988
  0
LINE
  5
4B6
100
AcDbEntity
  8
0
100
AcDbLine
 62
7
  6
CONTINUOUS
 10
8.2216437254
 20
8.8197529616
 11
8.1861961599
 21
8.8402270088
  0
LINE
  5
4B7
100
AcDbEntity
  8
0
100
AcDbLine
 62
7
  6
CONTINUOUS
 10
8.2218694834
 20
8.2879961321
 11
8.2216437254
 21
8.2882568987
  0
LINE
  5
4B8
100
AcDbEntity
  8
0
100
AcDbLine
 62
7
  6
CONTINUOUS
 10
8.2218694834
 20
8.3470512502
 11
8.2216437254
 21
8.3473120168
  0
LWPOLYLINE
  5
4B9
100
AcDbEntity
  8
0
100
AcDbPolyline
 62
7
  6
CONTINUOUS
 90
4
 70
0
 10
6.6512001921
 20
12.5799404139
 10
6.6510908328
 20
12.617152681
 10
6.6510252149
 20
12.654365876
 10
6.6510033417
 20
12.6915798198
  0
LINE
  5
4BA
100
AcDbEntity
  8
0
100
AcDbLine
 62
7
  6
CONTINUOUS
 10
6.641160822
 20
9.3476569493
 11
6.641160822
 21
9.3915585557
  0
LINE
  5
4BB
100
AcDbEntity
  8
0
100
AcDbLine
 62
7
  6
CONTINUOUS
 10
6.6490348377
 20
9.3929325399
 11
6.6490348377
 21
9.9244286029
  0
LINE
  5
4BC
100
AcDbEntity
  8
AXIS
100
AcDbLine
 62
7
  6
CONTINUOUS
 10
6.6490348377
 20
10.9952947446
 11
6.6490348377
 21
11.5267908076
  0
LINE
  5
4BD
100
AcDbEntity
  8
AXIS
100
AcDbLine
 62
7
  6
CONTINUOUS
 10
6.6510033417
 20
14.5484443509
 11
6.6510033417
 21
13.8034420854
  0
LINE
  5
4BE
100
AcDbEntity
  8
AXIS
100
AcDbLine
 62
7
  6
CONTINUOUS
 10
6.6510033417
 20
9.9244286029
 11
6.6510033417
 21
10.9952947446
  0
LINE
  5
4BF
100
AcDbEntity
  8
AXIS
100
AcDbLine
 62
7
  6
CONTINUOUS
 10
6.6510033417
 20
11.5267908076
 11
6.6510033417
 21
12.4686625256
  0
LINE
  5
4C0
100
AcDbEntity
  8
0
100
AcDbLine
 62
7
  6
CONTINUOUS
 10
6.6510033417
 20
12.6915798198
 11
6.6510033417
 21
13.0102985935
  0
LINE
  5
4C1
100
AcDbEntity
  8
0
100
AcDbLine
 62
7
  6
CONTINUOUS
 10
6.7494285385
 20
9.0543498627
 11
6.7494285385
 21
9.3279719099
  0
LWPOLYLINE
  5
4C2
100
AcDbEntity
  8
AXIS
100
AcDbPolyline
 62
7
  6
CONTINUOUS
 90
4
 70
0
 10
6.6510033417
 20
12.4686625256
 10
6.6510252147
 20
12.5058762778
 10
6.6510908326
 20
12.5430895676
 10
6.6512001921
 20
12.5803019315
  0
LINE
  5
4C3
100
AcDbEntity
  8
0
100
AcDbLine
 62
7
  6
CONTINUOUS
 10
8.2218694834
 20
8.4061063683
 11
8.2216437254
 21
8.4063671349
  0
LINE
  5
4C4
100
AcDbEntity
  8
0
100
AcDbLine
 62
7
  6
CONTINUOUS
 10
8.2218694834
 20
8.4651614864
 11
8.2216437254
 21
8.465422253
  0
LINE
  5
4C5
100
AcDbEntity
  8
0
100
AcDbLine
 62
7
  6
CONTINUOUS
 10
8.2218694834
 20
8.5242166045
 11
8.2216437254
 21
8.5244773711
  0
LINE
  5
4C6
100
AcDbEntity
  8
0
100
AcDbLine
 62
7
  6
CONTINUOUS
 10
8.2218694834
 20
8.5832717226
 11
8.2216437254
 21
8.5835324892
  0
LINE
  5
4C7
100
AcDbEntity
  8
0
100
AcDbLine
 62
7
  6
CONTINUOUS
 10
8.2218694834
 20
8.6423268407
 11
8.2216437254
 21
8.6425876073
  0
LINE
  5
4C8
100
AcDbEntity
  8
0
100
AcDbLine
 62
7
  6
CONTINUOUS
 10
8.2218694834
 20
8.7013819588
 11
8.2216437254
 21
8.7016427254
  0
LINE
  5
4C9
100
AcDbEntity
  8
0
100
AcDbLine
 62
7
  6
CONTINUOUS
 10
8.2218694834
 20
8.760437077
 11
8.2216437254
 21
8.7606978435
  0
LINE
  5
4CA
100
AcDbEntity
  8
0
100
AcDbLine
 62
7
  6
CONTINUOUS
 10
7.048641137
 20
8.8490197541
 11
7.048641137
 21
8.8415394392
  0
LINE
  5
4CB
100
AcDbEntity
  8
0
100
AcDbLine
 62
7
  6
CONTINUOUS
 10
7.048641137
 20
8.789964636
 11
7.048641137
 21
8.7824843211
  0
LINE
  5
4CC
100
AcDbEntity
  8
0
100
AcDbLine
 62
7
  6
CONTINUOUS
 10
7.048641137
 20
8.7309095179
 11
7.048641137
 21
8.7234292029
  0
LINE
  5
4CD
100
AcDbEntity
  8
0
100
AcDbLine
 62
7
  6
CONTINUOUS
 10
7.048641137
 20
8.6718543998
 11
7.048641137
 21
8.6643740848
  0
LINE
  5
4CE
100
AcDbEntity
  8
0
100
AcDbLine
 62
7
  6
CONTINUOUS
 10
7.048641137
 20
8.6127992817
 11
7.048641137
 21
8.6053189667
  0
LINE
  5
4CF
100
AcDbEntity
  8
0
100
AcDbLine
 62
7
  6
CONTINUOUS
 10
7.048641137
 20
8.5537441636
 11
7.048641137
 21
8.5462638486
  0
LINE
  5
4D0
100
AcDbEntity
  8
0
100
AcDbLine
 62
7
  6
CONTINUOUS
 10
7.048641137
 20
8.4946890455
 11
7.048641137
 21
8.4872087305
  0
LINE
  5
4D1
100
AcDbEntity
  8
0
100
AcDbLine
 62
7
  6
CONTINUOUS
 10
7.048641137
 20
8.4356339274
 11
7.048641137
 21
8.4281536124
  0
LINE
  5
4D2
100
AcDbEntity
  8
0
100
AcDbLine
 62
7
  6
CONTINUOUS
 10
7.048641137
 20
8.3765788092
 11
7.048641137
 21
8.3690984943
  0
LINE
  5
4D3
100
AcDbEntity
  8
0
100
AcDbLine
 62
7
  6
CONTINUOUS
 10
7.048641137
 20
8.3175236911
 11
7.048641137
 21
8.3100433762
  0
LINE
  5
4D4
100
AcDbEntity
  8
0
100
AcDbLine
 62
7
  6
CONTINUOUS
 10
7.048641137
 20
8.258468573
 11
7.048641137
 21
8.2509882581
  0
LINE
  5
4D5
100
AcDbEntity
  8
AXIS
100
AcDbLine
 62
7
  6
CONTINUOUS
 10
7.0840742078
 20
8.8929325399
 11
7.0840742078
 21
8.8694770471
  0
LINE
  5
4D6
100
AcDbEntity
  8
AXIS
100
AcDbLine
 62
7
  6
CONTINUOUS
 10
7.0840742078
 20
8.8210821462
 11
7.0840742078
 21
8.810421929
  0
LINE
  5
4D7
100
AcDbEntity
  8
AXIS
100
AcDbLine
 62
7
  6
CONTINUOUS
 10
7.0840742078
 20
8.762027028
 11
7.0840742078
 21
8.7513668109
  0
LINE
  5
4D8
100
AcDbEntity
  8
AXIS
100
AcDbLine
 62
7
  6
CONTINUOUS
 10
7.0840742078
 20
8.7029719099
 11
7.0840742078
 21
8.6923116928
  0
LINE
  5
4D9
100
AcDbEntity
  8
AXIS
100
AcDbLine
 62
7
  6
CONTINUOUS
 10
7.0840742078
 20
8.6439167918
 11
7.0840742078
 21
8.6332565747
  0
LINE
  5
4DA
100
AcDbEntity
  8
AXIS
100
AcDbLine
 62
7
  6
CONTINUOUS
 10
7.0840742078
 20
8.5848616737
 11
7.0840742078
 21
8.5742014566
  0
LINE
  5
4DB
100
AcDbEntity
  8
AXIS
100
AcDbLine
 62
7
  6
CONTINUOUS
 10
7.0840742078
 20
8.5258065556
 11
7.0840742078
 21
8.5151463385
  0
LINE
  5
4DC
100
AcDbEntity
  8
AXIS
100
AcDbLine
 62
7
  6
CONTINUOUS
 10
7.0840742078
 20
8.4667514375
 11
7.0840742078
 21
8.4560912204
  0
LINE
  5
4DD
100
AcDbEntity
  8
AXIS
100
AcDbLine
 62
7
  6
CONTINUOUS
 10
7.0840742078
 20
8.4076963194
 11
7.0840742078
 21
8.3970361022
  0
LINE
  5
4DE
100
AcDbEntity
  8
AXIS
100
AcDbLine
 62
7
  6
CONTINUOUS
 10
7.0840742078
 20
8.3486412013
 11
7.0840742078
 21
8.3379809841
  0
LINE
  5
4DF
100
AcDbEntity
  8
AXIS
100
AcDbLine
 62
7
  6
CONTINUOUS
 10
7.0840742078
 20
8.2895860832
 11
7.0840742078
 21
8.278925866
  0
LINE
  5
4E0
100
AcDbEntity
  8
AXIS
100
AcDbLine
 62
7
  6
CONTINUOUS
 10
7.0840742078
 20
8.2305309651
 11
7.0840742078
 21
8.2078931698
  0
LINE
  5
4E1
100
AcDbEntity
  8
0
100
AcDbLine
 62
7
  6
CONTINUOUS
 10
6.6490348377
 20
9.9244286029
 11
8.6214757826
 21
9.9244286029
  0
LINE
  5
4E2
100
AcDbEntity
  8
0
100
AcDbLine
 62
7
  6
CONTINUOUS
 10
8.2218694834
 20
8.8194921951
 11
8.2216437254
 21
8.8197529616
  0
LINE
  5
4E3
100
AcDbEntity
  8
AXIS
100
AcDbLine
 62
7
  6
CONTINUOUS
 10
6.6510033417
 20
12.4686625256
 11
6.6313183023
 21
12.5803019315
  0
LINE
  5
4E4
100
AcDbEntity
  8
AXIS
100
AcDbLine
 62
7
  6
CONTINUOUS
 10
7.2710820818
 20
13.6433720939
 11
7.2710820818
 21
13.1874107257
  0
LINE
  5
4E5
100
AcDbEntity
  8
0
100
AcDbLine
 62
7
  6
CONTINUOUS
 10
7.3556382737
 20
13.6433720939
 11
7.3556382737
 21
13.1874107257
  0
LWPOLYLINE
  5
4E6
100
AcDbEntity
  8
0
100
AcDbPolyline
 62
7
  6
CONTINUOUS
 90
12
 70
0
 10
7.2710820818
 20
13.1874107257
 10
7.270895293
 20
13.1819212784
 10
7.2702680303
 20
13.1759164973
 10
7.2691926544
 20
13.1698864033
 10
7.2677127527
 20
13.1640458161
 10
7.2659174937
 20
13.158591042
 10
7.2639009921
 20
13.1536176238
 10
7.2617221156
 20
13.1491103749
 10
7.2594338545
 20
13.1450588739
 10
7.2571068952
 20
13.1414856708
 10
7.2548219465
 20
13.1384144045
 10
7.2529295232
 20
13.1361553325
  0
LWPOLYLINE
  5
4E7
100
AcDbEntity
  8
0
100
AcDbPolyline
 62
7
  6
CONTINUOUS
 90
26
 70
0
 10
7.3556382737
 20
13.1874107257
 10
7.3552307066
 20
13.1754751838
 10
7.3540022762
 20
13.1634896468
 10
7.3519475555
 20
13.1515103145
 10
7.349065098
 20
13.139594877
 10
7.345358763
 20
13.1278064493
 10
7.3408417216
 20
13.1162197861
 10
7.3355412406
 20
13.1049223246
 10
7.3294992942
 20
13.0940057117
 10
7.3227652715
 20
13.0835502905
 10
7.3153683892
 20
13.0735941553
 10
7.3073217871
 20
13.0641607582
 10
7.2986683477
 20
13.0553131813
 10
7.2896116995
 20
13.0472416442
 10
7.2804369034
 20
13.0401196713
 10
7.2714508272
 20
13.034046229
 10
7.2629296555
 20
13.0290293259
 10
7.2551057213
 20
13.0250094482
 10
7.2473298749
 20
13.0215363555
 10
7.2391063921
 20
13.0184014712
 10
7.23067356
 20
13.0157379238
 10
7.2222354118
 20
13.0136133905
 10
7.2139762085
 20
13.0120456811
 10
7.2060837746
 20
13.0110139746
 10
7.1987219045
 20
13.0104599832
 10
7.1920727779
 20
13.0102985935
  0
LWPOLYLINE
  5
4E8
100
AcDbEntity
  8
0
100
AcDbPolyline
 62
7
  6
CONTINUOUS
 90
6
 70
0
 10
7.5062460179
 20
8.8929325399
 10
7.5058852086
 20
8.9026653586
 10
7.504838099
 20
8.9114454612
 10
7.5032071875
 20
8.9184133901
 10
7.5011521192
 20
8.9228870758
 10
7.4988740584
 20
8.9244286029
  0
LINE
  5
4E9
100
AcDbEntity
  8
0
100
AcDbLine
 62
7
  6
CONTINUOUS
 10
7.4092714012
 20
8.2620351269
 11
7.4092714012
 21
8.2695154419
  0
LINE
  5
4EA
100
AcDbEntity
  8
0
100
AcDbLine
 62
7
  6
CONTINUOUS
 10
7.4092714012
 20
8.321090245
 11
7.4092714012
 21
8.32857056
  0
LINE
  5
4EB
100
AcDbEntity
  8
0
100
AcDbLine
 62
7
  6
CONTINUOUS
 10
7.4092714012
 20
8.3801453631
 11
7.4092714012
 21
8.3876256781
  0
LINE
  5
4EC
100
AcDbEntity
  8
0
100
AcDbLine
 62
7
  6
CONTINUOUS
 10
7.4092714012
 20
8.4392004812
 11
7.4092714012
 21
8.4466807962
  0
LINE
  5
4ED
100
AcDbEntity
  8
0
100
AcDbLine
 62
7
  6
CONTINUOUS
 10
7.4092714012
 20
8.4982555993
 11
7.4092714012
 21
8.5057359143
  0
LINE
  5
4EE
100
AcDbEntity
  8
0
100
AcDbLine
 62
7
  6
CONTINUOUS
 10
7.4092714012
 20
8.5573107174
 11
7.4092714012
 21
8.5647910324
  0
LINE
  5
4EF
100
AcDbEntity
  8
0
100
AcDbLine
 62
7
  6
CONTINUOUS
 10
7.4092714012
 20
8.6163658356
 11
7.4092714012
 21
8.6238461505
  0
LINE
  5
4F0
100
AcDbEntity
  8
0
100
AcDbLine
 62
7
  6
CONTINUOUS
 10
7.4092714012
 20
8.6754209537
 11
7.4092714012
 21
8.6829012686
  0
LINE
  5
4F1
100
AcDbEntity
  8
0
100
AcDbLine
 62
7
  6
CONTINUOUS
 10
7.4092714012
 20
8.7344760718
 11
7.4092714012
 21
8.7419563867
  0
LINE
  5
4F2
100
AcDbEntity
  8
0
100
AcDbLine
 62
7
  6
CONTINUOUS
 10
7.4092714012
 20
8.7935311899
 11
7.4092714012
 21
8.8010115048
  0
LINE
  5
4F3
100
AcDbEntity
  8
0
100
AcDbLine
 62
7
  6
CONTINUOUS
 10
7.4092714012
 20
8.852586308
 11
7.4092714012
 21
8.860066623
  0
LINE
  5
4F4
100
AcDbEntity
  8
0
100
AcDbLine
 62
7
  6
CONTINUOUS
 10
7.5062460179
 20
8.2078931698
 11
7.5062460179
 21
8.2430742389
  0
LINE
  5
4F5
100
AcDbEntity
  8
0
100
AcDbLine
 62
7
  6
CONTINUOUS
 10
7.5062460179
 20
8.882020321
 11
7.5062460179
 21
8.8929325399
  0
LINE
  5
4F6
100
AcDbEntity
  8
02___PRT_ALL_AXES
100
AcDbLine
 62
7
  6
CONTINUOUS
 10
7.5277553102
 20
8.1763971068
 11
7.5277553102
 21
6.6984443509
  0
LINE
  5
4F7
100
AcDbEntity
  8
0
100
AcDbLine
 62
7
  6
CONTINUOUS
 10
7.5315579307
 20
8.834067044
 11
7.5315579307
 21
8.8234068269
  0
LINE
  5
4F8
100
AcDbEntity
  8
0
100
AcDbLine
 62
7
  6
CONTINUOUS
 10
7.5315579307
 20
8.7750119259
 11
7.5315579307
 21
8.7643517088
  0
LINE
  5
4F9
100
AcDbEntity
  8
0
100
AcDbLine
 62
7
  6
CONTINUOUS
 10
7.5315579307
 20
8.7159568078
 11
7.5315579307
 21
8.7052965907
  0
LINE
  5
4FA
100
AcDbEntity
  8
0
100
AcDbLine
 62
7
  6
CONTINUOUS
 10
7.5315579307
 20
8.6569016897
 11
7.5315579307
 21
8.6462414726
  0
LINE
  5
4FB
100
AcDbEntity
  8
0
100
AcDbLine
 62
7
  6
CONTINUOUS
 10
7.5315579307
 20
8.5978465716
 11
7.5315579307
 21
8.5871863544
  0
LINE
  5
4FC
100
AcDbEntity
  8
0
100
AcDbLine
 62
7
  6
CONTINUOUS
 10
7.5315579307
 20
8.5387914535
 11
7.5315579307
 21
8.5281312363
  0
LINE
  5
4FD
100
AcDbEntity
  8
0
100
AcDbLine
 62
7
  6
CONTINUOUS
 10
7.5315579307
 20
8.4797363354
 11
7.5315579307
 21
8.4690761182
  0
LINE
  5
4FE
100
AcDbEntity
  8
0
100
AcDbLine
 62
7
  6
CONTINUOUS
 10
7.5315579307
 20
8.4206812173
 11
7.5315579307
 21
8.4100210001
  0
LINE
  5
4FF
100
AcDbEntity
  8
0
100
AcDbLine
 62
7
  6
CONTINUOUS
 10
7.5315579307
 20
8.3616260992
 11
7.5315579307
 21
8.350965882
  0
LINE
  5
500
100
AcDbEntity
  8
0
100
AcDbLine
 62
7
  6
CONTINUOUS
 10
7.5315579307
 20
8.302570981
 11
7.5315579307
 21
8.2919107639
  0
LINE
  5
501
100
AcDbEntity
  8
0
100
AcDbLine
 62
7
  6
CONTINUOUS
 10
7.5523207652
 20
8.1763971068
 11
7.5523207652
 21
8.2418299084
  0
LINE
  5
502
100
AcDbEntity
  8
0
100
AcDbLine
 62
7
  6
CONTINUOUS
 10
7.5523207652
 20
8.8848480036
 11
7.5523207652
 21
8.9244286029
  0
LINE
  5
503
100
AcDbEntity
  8
0
100
AcDbLine
 62
7
  6
CONTINUOUS
 10
7.7181898552
 20
8.1763971068
 11
7.7181898552
 21
8.2446875676
  0
LINE
  5
504
100
AcDbEntity
  8
0
100
AcDbLine
 62
7
  6
CONTINUOUS
 10
7.7181898552
 20
8.8286505447
 11
7.7181898552
 21
8.9244286029
  0
LINE
  5
505
100
AcDbEntity
  8
0
100
AcDbLine
 62
7
  6
CONTINUOUS
 10
7.7389526896
 20
8.2954685272
 11
7.7389526896
 21
8.3061287443
  0
LINE
  5
506
100
AcDbEntity
  8
0
100
AcDbLine
 62
7
  6
CONTINUOUS
 10
7.7389526896
 20
8.3545236453
 11
7.7389526896
 21
8.3651838625
  0
LINE
  5
507
100
AcDbEntity
  8
0
100
AcDbLine
 62
7
  6
CONTINUOUS
 10
7.7389526896
 20
8.4135787634
 11
7.7389526896
 21
8.4242389806
  0
LINE
  5
508
100
AcDbEntity
  8
0
100
AcDbLine
 62
7
  6
CONTINUOUS
 10
7.7389526896
 20
8.4726338815
 11
7.7389526896
 21
8.4832940987
  0
LINE
  5
509
100
AcDbEntity
  8
0
100
AcDbLine
 62
7
  6
CONTINUOUS
 10
7.7389526896
 20
8.5316889996
 11
7.7389526896
 21
8.5423492168
  0
LINE
  5
50A
100
AcDbEntity
  8
0
100
AcDbLine
 62
7
  6
CONTINUOUS
 10
7.7389526896
 20
8.5907441178
 11
7.7389526896
 21
8.6014043349
  0
LINE
  5
50B
100
AcDbEntity
  8
0
100
AcDbLine
 62
7
  6
CONTINUOUS
 10
7.7389526896
 20
8.6497992359
 11
7.7389526896
 21
8.660459453
  0
LINE
  5
50C
100
AcDbEntity
  8
0
100
AcDbLine
 62
7
  6
CONTINUOUS
 10
7.7389526896
 20
8.708854354
 11
7.7389526896
 21
8.7195145711
  0
LINE
  5
50D
100
AcDbEntity
  8
0
100
AcDbLine
 62
7
  6
CONTINUOUS
 10
7.7389526896
 20
8.7679094721
 11
7.7389526896
 21
8.7785696892
  0
LINE
  5
50E
100
AcDbEntity
  8
02___PRT_ALL_AXES
100
AcDbLine
 62
7
  6
CONTINUOUS
 10
7.7427553102
 20
8.1763971068
 11
7.7427553102
 21
6.6984443509
  0
LINE
  5
50F
100
AcDbEntity
  8
0
100
AcDbLine
 62
7
  6
CONTINUOUS
 10
7.7642646024
 20
8.8929325399
 11
7.7642646024
 21
8.8274062142
  0
LINE
  5
510
100
AcDbEntity
  8
0
100
AcDbLine
 62
7
  6
CONTINUOUS
 10
7.7642646024
 20
8.2475152503
 11
7.7642646024
 21
8.2078931698
  0
LINE
  5
511
100
AcDbEntity
  8
0
100
AcDbLine
 62
7
  6
CONTINUOUS
 10
7.8612392192
 20
8.8084453262
 11
7.8612392192
 21
8.8009650113
  0
LINE
  5
512
100
AcDbEntity
  8
0
100
AcDbLine
 62
7
  6
CONTINUOUS
 10
7.8612392192
 20
8.7493902081
 11
7.8612392192
 21
8.7419098932
  0
LINE
  5
513
100
AcDbEntity
  8
0
100
AcDbLine
 62
7
  6
CONTINUOUS
 10
7.8612392192
 20
8.69033509
 11
7.8612392192
 21
8.6828547751
  0
LINE
  5
514
100
AcDbEntity
  8
0
100
AcDbLine
 62
7
  6
CONTINUOUS
 10
7.8612392192
 20
8.6312799719
 11
7.8612392192
 21
8.6237996569
  0
LINE
  5
515
100
AcDbEntity
  8
0
100
AcDbLine
 62
7
  6
CONTINUOUS
 10
7.8612392192
 20
8.5722248538
 11
7.8612392192
 21
8.5647445388
  0
LINE
  5
516
100
AcDbEntity
  8
0
100
AcDbLine
 62
7
  6
CONTINUOUS
 10
7.8612392192
 20
8.5131697357
 11
7.8612392192
 21
8.5056894207
  0
LINE
  5
517
100
AcDbEntity
  8
0
100
AcDbLine
 62
7
  6
CONTINUOUS
 10
7.8612392192
 20
8.4541146176
 11
7.8612392192
 21
8.4466343026
  0
LINE
  5
518
100
AcDbEntity
  8
0
100
AcDbLine
 62
7
  6
CONTINUOUS
 10
7.8612392192
 20
8.3950594995
 11
7.8612392192
 21
8.3875791845
  0
LINE
  5
519
100
AcDbEntity
  8
0
100
AcDbLine
 62
7
  6
CONTINUOUS
 10
7.8612392192
 20
8.3360043813
 11
7.8612392192
 21
8.3285240664
  0
LINE
  5
51A
100
AcDbEntity
  8
0
100
AcDbLine
 62
7
  6
CONTINUOUS
 10
7.8612392192
 20
8.2769492632
 11
7.8612392192
 21
8.2694689483
  0
LINE
  5
51B
100
AcDbEntity
  8
0
100
AcDbLine
 62
7
  6
CONTINUOUS
 10
7.9148723467
 20
13.1874107257
 11
7.9148723467
 21
13.8034420854
  0
LWPOLYLINE
  5
51C
100
AcDbEntity
  8
0
100
AcDbPolyline
 62
7
  6
CONTINUOUS
 90
11
 70
0
 10
7.9994285377
 20
13.6567041395
 10
7.9994671127
 20
13.6579756597
 10
7.9996646183
 20
13.6599234256
 10
8.0001088494
 20
13.6622704409
 10
8.000889166
 20
13.6649634654
 10
8.0020906736
 20
13.6679223147
 10
8.0037822326
 20
13.6710354013
 10
8.0059775502
 20
13.6741317774
 10
8.0086074459
 20
13.6770125
 10
8.01154627
 20
13.6795223889
 10
8.0141375766
 20
13.6812732824
  0
LWPOLYLINE
  5
51D
100
AcDbEntity
  8
0
100
AcDbPolyline
 62
7
  6
CONTINUOUS
 90
6
 70
0
 10
7.7642646024
 20
8.8929325399
 10
7.7646254118
 20
8.9026653586
 10
7.7656725214
 20
8.9114454612
 10
7.7673034329
 20
8.9184133901
 10
7.7693585012
 20
8.9228870758
 10
7.771636562
 20
8.9244286029
  0
LINE
  5
51E
100
AcDbEntity
  8
AXIS
100
AcDbLine
 62
7
  6
CONTINUOUS
 10
7.9994285385
 20
13.6567048652
 11
7.9994285385
 21
13.1874107257
  0
LINE
  5
51F
100
AcDbEntity
  8
AXIS
100
AcDbLine
 62
7
  6
CONTINUOUS
 10
8.1864364126
 20
8.8929325399
 11
8.1864364126
 21
8.8399494881
  0
LINE
  5
520
100
AcDbEntity
  8
AXIS
100
AcDbLine
 62
7
  6
CONTINUOUS
 10
8.1864364126
 20
8.7915545871
 11
8.1864364126
 21
8.78089437
  0
LINE
  5
521
100
AcDbEntity
  8
AXIS
100
AcDbLine
 62
7
  6
CONTINUOUS
 10
8.1864364126
 20
8.732499469
 11
8.1864364126
 21
8.7218392518
  0
LINE
  5
522
100
AcDbEntity
  8
AXIS
100
AcDbLine
 62
7
  6
CONTINUOUS
 10
8.1864364126
 20
8.6734443509
 11
8.1864364126
 21
8.6627841337
  0
LINE
  5
523
100
AcDbEntity
  8
AXIS
100
AcDbLine
 62
7
  6
CONTINUOUS
 10
8.1864364126
 20
8.6143892328
 11
8.1864364126
 21
8.6037290156
  0
LINE
  5
524
100
AcDbEntity
  8
AXIS
100
AcDbLine
 62
7
  6
CONTINUOUS
 10
8.1864364126
 20
8.5553341147
 11
8.1864364126
 21
8.5446738975
  0
LINE
  5
525
100
AcDbEntity
  8
AXIS
100
AcDbLine
 62
7
  6
CONTINUOUS
 10
8.1864364126
 20
8.4962789966
 11
8.1864364126
 21
8.4856187794
  0
LINE
  5
526
100
AcDbEntity
  8
AXIS
100
AcDbLine
 62
7
  6
CONTINUOUS
 10
8.1864364126
 20
8.4372238784
 11
8.1864364126
 21
8.4265636613
  0
LINE
  5
527
100
AcDbEntity
  8
AXIS
100
AcDbLine
 62
7
  6
CONTINUOUS
 10
8.1864364126
 20
8.3781687603
 11
8.1864364126
 21
8.3675085432
  0
LINE
  5
528
100
AcDbEntity
  8
AXIS
100
AcDbLine
 62
7
  6
CONTINUOUS
 10
8.1864364126
 20
8.3191136422
 11
8.1864364126
 21
8.3084534251
  0
LINE
  5
529
100
AcDbEntity
  8
AXIS
100
AcDbLine
 62
7
  6
CONTINUOUS
 10
8.1864364126
 20
8.2600585241
 11
8.1864364126
 21
8.2078931698
  0
LINE
  5
52A
100
AcDbEntity
  8
AXIS
100
AcDbLine
 62
7
  6
CONTINUOUS
 10
6.6490348377
 20
10.9952947446
 11
8.6214757826
 21
10.9952947446
  0
LINE
  5
52B
100
AcDbEntity
  8
0
100
AcDbLine
 62
7
  6
CONTINUOUS
 10
8.2218694834
 20
8.2805158171
 11
8.2218694834
 21
8.2879961321
  0
LINE
  5
52C
100
AcDbEntity
  8
0
100
AcDbLine
 62
7
  6
CONTINUOUS
 10
8.2218694834
 20
8.3395709352
 11
8.2218694834
 21
8.3470512502
  0
LINE
  5
52D
100
AcDbEntity
  8
0
100
AcDbLine
 62
7
  6
CONTINUOUS
 10
8.2218694834
 20
8.3986260533
 11
8.2218694834
 21
8.4061063683
  0
LINE
  5
52E
100
AcDbEntity
  8
0
100
AcDbLine
 62
7
  6
CONTINUOUS
 10
8.2218694834
 20
8.4576811714
 11
8.2218694834
 21
8.4651614864
  0
LINE
  5
52F
100
AcDbEntity
  8
0
100
AcDbLine
 62
7
  6
CONTINUOUS
 10
8.2218694834
 20
8.5167362896
 11
8.2218694834
 21
8.5242166045
  0
LINE
  5
530
100
AcDbEntity
  8
0
100
AcDbLine
 62
7
  6
CONTINUOUS
 10
8.2218694834
 20
8.5757914077
 11
8.2218694834
 21
8.5832717226
  0
LINE
  5
531
100
AcDbEntity
  8
0
100
AcDbLine
 62
7
  6
CONTINUOUS
 10
8.2218694834
 20
8.6348465258
 11
8.2218694834
 21
8.6423268407
  0
LINE
  5
532
100
AcDbEntity
  8
0
100
AcDbLine
 62
7
  6
CONTINUOUS
 10
8.2218694834
 20
8.6939016439
 11
8.2218694834
 21
8.7013819588
  0
LINE
  5
533
100
AcDbEntity
  8
0
100
AcDbLine
 62
7
  6
CONTINUOUS
 10
8.2218694834
 20
8.752956762
 11
8.2218694834
 21
8.760437077
  0
LINE
  5
534
100
AcDbEntity
  8
0
100
AcDbLine
 62
7
  6
CONTINUOUS
 10
8.2218694834
 20
8.8120118801
 11
8.2218694834
 21
8.8194921951
  0
LINE
  5
535
100
AcDbEntity
  8
0
100
AcDbLine
 62
7
  6
CONTINUOUS
 10
7.048641137
 20
8.8490197541
 11
7.048866895
 21
8.8492805207
  0
LINE
  5
536
100
AcDbEntity
  8
0
100
AcDbLine
 62
7
  6
CONTINUOUS
 10
7.048641137
 20
8.789964636
 11
7.048866895
 21
8.7902254026
  0
LINE
  5
537
100
AcDbEntity
  8
0
100
AcDbLine
 62
7
  6
CONTINUOUS
 10
7.048641137
 20
8.7309095179
 11
7.048866895
 21
8.7311702845
  0
LINE
  5
538
100
AcDbEntity
  8
AXIS
100
AcDbLine
 62
7
  6
CONTINUOUS
 10
6.6490348377
 20
11.5267908076
 11
8.6214757826
 21
11.5267908076
  0
LINE
  5
539
100
AcDbEntity
  8
0
100
AcDbLine
 62
7
  6
CONTINUOUS
 10
8.5210820818
 20
9.0543498627
 11
8.5210820818
 21
9.3279719099
  0
LINE
  5
53A
100
AcDbEntity
  8
AXIS
100
AcDbLine
 62
7
  6
CONTINUOUS
 10
8.6195072787
 20
14.5484443509
 11
8.6195072787
 21
13.8034420854
  0
LINE
  5
53B
100
AcDbEntity
  8
AXIS
100
AcDbLine
 62
7
  6
CONTINUOUS
 10
8.6195072787
 20
9.9244286029
 11
8.6195072787
 21
10.9952947446
  0
LINE
  5
53C
100
AcDbEntity
  8
AXIS
100
AcDbLine
 62
7
  6
CONTINUOUS
 10
8.6195072787
 20
11.5267908076
 11
8.6195072787
 21
12.5803019315
  0
LINE
  5
53D
100
AcDbEntity
  8
0
100
AcDbLine
 62
7
  6
CONTINUOUS
 10
8.6195072787
 20
12.5799404139
 11
8.6195072787
 21
13.0102985935
  0
LINE
  5
53E
100
AcDbEntity
  8
0
100
AcDbLine
 62
7
  6
CONTINUOUS
 10
8.6214757826
 20
9.3929325399
 11
8.6214757826
 21
9.9244286029
  0
LINE
  5
53F
100
AcDbEntity
  8
AXIS
100
AcDbLine
 62
7
  6
CONTINUOUS
 10
8.6214757826
 20
10.9952947446
 11
8.6214757826
 21
11.5267908076
  0
LINE
  5
540
100
AcDbEntity
  8
0
100
AcDbLine
 62
7
  6
CONTINUOUS
 10
8.6293497984
 20
9.3476569493
 11
8.6293497984
 21
9.3915585557
  0
LINE
  5
541
100
AcDbEntity
  8
0
100
AcDbLine
 62
7
  6
CONTINUOUS
 10
7.048641137
 20
8.6718543998
 11
7.048866895
 21
8.6721151664
  0
LINE
  5
542
100
AcDbEntity
  8
0
100
AcDbLine
 62
7
  6
CONTINUOUS
 10
7.048641137
 20
8.6127992817
 11
7.048866895
 21
8.6130600483
  0
LINE
  5
543
100
AcDbEntity
  8
0
100
AcDbLine
 62
7
  6
CONTINUOUS
 10
7.048641137
 20
8.5537441636
 11
7.048866895
 21
8.5540049301
  0
LINE
  5
544
100
AcDbEntity
  8
0
100
AcDbLine
 62
7
  6
CONTINUOUS
 10
7.048641137
 20
8.4946890455
 11
7.048866895
 21
8.494949812
  0
LINE
  5
545
100
AcDbEntity
  8
0
100
AcDbLine
 62
7
  6
CONTINUOUS
 10
7.048641137
 20
8.4356339274
 11
7.048866895
 21
8.4358946939
  0
LINE
  5
546
100
AcDbEntity
  8
0
100
AcDbLine
 62
7
  6
CONTINUOUS
 10
7.048641137
 20
8.3765788092
 11
7.048866895
 21
8.3768395758
  0
LINE
  5
547
100
AcDbEntity
  8
0
100
AcDbLine
 62
7
  6
CONTINUOUS
 10
7.048641137
 20
8.3175236911
 11
7.048866895
 21
8.3177844577
  0
LINE
  5
548
100
AcDbEntity
  8
0
100
AcDbLine
 62
7
  6
CONTINUOUS
 10
7.048641137
 20
8.258468573
 11
7.048866895
 21
8.2587293396
  0
LINE
  5
549
100
AcDbEntity
  8
0
100
AcDbLine
 62
7
  6
CONTINUOUS
 10
7.0843144605
 20
8.8697545678
 11
7.048866895
 21
8.8492805207
  0
LINE
  5
54A
100
AcDbEntity
  8
0
100
AcDbLine
 62
7
  6
CONTINUOUS
 10
7.0843144605
 20
8.8106994497
 11
7.048866895
 21
8.7902254026
  0
LINE
  5
54B
100
AcDbEntity
  8
0
100
AcDbLine
 62
7
  6
CONTINUOUS
 10
7.0843144605
 20
8.7516443316
 11
7.048866895
 21
8.7311702845
  0
LINE
  5
54C
100
AcDbEntity
  8
0
100
AcDbLine
 62
7
  6
CONTINUOUS
 10
8.2216437254
 20
8.8117511135
 11
8.2218694834
 21
8.8120118801
  0
LINE
  5
54D
100
AcDbEntity
  8
0
100
AcDbLine
 62
7
  6
CONTINUOUS
 10
7.0843144605
 20
8.6925892135
 11
7.048866895
 21
8.6721151664
  0
LINE
  5
54E
100
AcDbEntity
  8
0
100
AcDbLine
 62
7
  6
CONTINUOUS
 10
7.0843144605
 20
8.6335340954
 11
7.048866895
 21
8.6130600483
  0
LINE
  5
54F
100
AcDbEntity
  8
0
100
AcDbLine
 62
7
  6
CONTINUOUS
 10
7.0843144605
 20
8.5744789773
 11
7.048866895
 21
8.5540049301
  0
LINE
  5
550
100
AcDbEntity
  8
0
100
AcDbLine
 62
7
  6
CONTINUOUS
 10
7.0843144605
 20
8.5154238592
 11
7.048866895
 21
8.494949812
  0
LINE
  5
551
100
AcDbEntity
  8
0
100
AcDbLine
 62
7
  6
CONTINUOUS
 10
7.0843144605
 20
8.456368741
 11
7.048866895
 21
8.4358946939
  0
LWPOLYLINE
  5
552
100
AcDbEntity
  8
0
100
AcDbPolyline
 62
7
  6
CONTINUOUS
 90
10
 70
0
 10
7.0840742078
 20
8.8210821462
 10
7.0858933647
 20
8.8218459821
 10
7.1003748864
 20
8.8233736708
 10
7.1289564916
 20
8.8249013692
 10
7.1708838003
 20
8.8264290394
 10
7.2250505188
 20
8.8279566717
 10
7.2900292122
 20
8.8294842922
 10
7.3641075998
 20
8.8310119142
 10
7.4453309224
 20
8.8325394981
 10
7.5315579307
 20
8.834067044
  0
LWPOLYLINE
  5
553
100
AcDbEntity
  8
0
100
AcDbPolyline
 62
7
  6
CONTINUOUS
 90
10
 70
0
 10
7.0840742078
 20
8.762027028
 10
7.0858933678
 20
8.7627908647
 10
7.1003749099
 20
8.7643185543
 10
7.1289565377
 20
8.7658462531
 10
7.1708838367
 20
8.7673739224
 10
7.2250505577
 20
8.7689015546
 10
7.2900293225
 20
8.7704291765
 10
7.364107649
 20
8.7719567971
 10
7.4453311755
 20
8.7734843846
 10
7.5315579307
 20
8.7750119259
  0
LWPOLYLINE
  5
554
100
AcDbEntity
  8
0
100
AcDbPolyline
 62
7
  6
CONTINUOUS
 90
10
 70
0
 10
7.0840742078
 20
8.7029719099
 10
7.08589337
 20
8.703735747
 10
7.1003749289
 20
8.7052634376
 10
7.1289565777
 20
8.7067911367
 10
7.1708838853
 20
8.7083188059
 10
7.2250505944
 20
8.7098464374
 10
7.2900293748
 20
8.7113740595
 10
7.3641077362
 20
8.7129016807
 10
7.4453312561
 20
8.7144292679
 10
7.5315579307
 20
8.7159568078
  0
LWPOLYLINE
  5
555
100
AcDbEntity
  8
0
100
AcDbPolyline
 62
7
  6
CONTINUOUS
 90
10
 70
0
 10
7.0840742078
 20
8.6439167918
 10
7.0858933725
 20
8.6446806294
 10
7.1003749488
 20
8.6462083209
 10
7.1289566186
 20
8.6477360203
 10
7.1708839345
 20
8.6492636893
 10
7.2250506335
 20
8.6507913203
 10
7.2900294309
 20
8.6523189426
 10
7.3641078264
 20
8.6538465644
 10
7.4453313385
 20
8.6553741513
 10
7.5315579307
 20
8.6569016897
  0
LWPOLYLINE
  5
556
100
AcDbEntity
  8
0
100
AcDbPolyline
 62
7
  6
CONTINUOUS
 90
9
 70
0
 10
7.048641137
 20
8.8415394392
 10
7.0504410059
 20
8.8422758971
 10
7.0647737559
 20
8.8437488129
 10
7.0930879859
 20
8.8452217288
 10
7.1346897649
 20
8.8466946446
 10
7.1885595078
 20
8.8481675605
 10
7.253376964
 20
8.8496404763
 10
7.3275535736
 20
8.8511133922
 10
7.4092714012
 20
8.852586308
  0
LWPOLYLINE
  5
557
100
AcDbEntity
  8
0
100
AcDbPolyline
 62
7
  6
CONTINUOUS
 90
9
 70
0
 10
7.048641137
 20
8.7824843211
 10
7.0504410059
 20
8.783220779
 10
7.0647737559
 20
8.7846936948
 10
7.0930879859
 20
8.7861666107
 10
7.1346897649
 20
8.7876395265
 10
7.1885595078
 20
8.7891124424
 10
7.253376964
 20
8.7905853582
 10
7.3275535736
 20
8.792058274
 10
7.4092714012
 20
8.7935311899
  0
LWPOLYLINE
  5
558
100
AcDbEntity
  8
0
100
AcDbPolyline
 62
7
  6
CONTINUOUS
 90
9
 70
0
 10
7.048641137
 20
8.7234292029
 10
7.0504410059
 20
8.7241656609
 10
7.0647737559
 20
8.7256385767
 10
7.0930879859
 20
8.7271114926
 10
7.1346897649
 20
8.7285844084
 10
7.1885595078
 20
8.7300573242
 10
7.253376964
 20
8.7315302401
 10
7.3275535736
 20
8.7330031559
 10
7.4092714012
 20
8.7344760718
  0
LWPOLYLINE
  5
559
100
AcDbEntity
  8
0
100
AcDbPolyline
 62
7
  6
CONTINUOUS
 90
9
 70
0
 10
7.048641137
 20
8.6643740848
 10
7.0504410059
 20
8.6651105428
 10
7.0647737559
 20
8.6665834586
 10
7.0930879859
 20
8.6680563744
 10
7.1346897649
 20
8.6695292903
 10
7.1885595078
 20
8.6710022061
 10
7.253376964
 20
8.672475122
 10
7.3275535736
 20
8.6739480378
 10
7.4092714012
 20
8.6754209537
  0
LWPOLYLINE
  5
55A
100
AcDbEntity
  8
0
100
AcDbPolyline
 62
7
  6
CONTINUOUS
 90
9
 70
0
 10
7.048866895
 20
8.8492805207
 10
7.0504410059
 20
8.849756212
 10
7.0647737559
 20
8.8512291279
 10
7.0930879859
 20
8.8527020437
 10
7.1346897649
 20
8.8541749596
 10
7.1885595078
 20
8.8556478754
 10
7.253376964
 20
8.8571207913
 10
7.3275535736
 20
8.8585937071
 10
7.4092714012
 20
8.860066623
  0
LWPOLYLINE
  5
55B
100
AcDbEntity
  8
0
100
AcDbPolyline
 62
7
  6
CONTINUOUS
 90
9
 70
0
 10
7.048866895
 20
8.7902254026
 10
7.0504410059
 20
8.7907010939
 10
7.0647737559
 20
8.7921740098
 10
7.0930879859
 20
8.7936469256
 10
7.1346897649
 20
8.7951198415
 10
7.1885595078
 20
8.7965927573
 10
7.253376964
 20
8.7980656732
 10
7.3275535736
 20
8.799538589
 10
7.4092714012
 20
8.8010115048
  0
LINE
  5
55C
100
AcDbEntity
  8
0
100
AcDbLine
 62
7
  6
CONTINUOUS
 10
8.2216437254
 20
8.7526959954
 11
8.2218694834
 21
8.752956762
  0
LINE
  5
55D
100
AcDbEntity
  8
0
100
AcDbLine
 62
7
  6
CONTINUOUS
 10
8.2216437254
 20
8.6936408773
 11
8.2218694834
 21
8.6939016439
  0
LINE
  5
55E
100
AcDbEntity
  8
0
100
AcDbLine
 62
7
  6
CONTINUOUS
 10
8.2216437254
 20
8.6345857592
 11
8.2218694834
 21
8.6348465258
  0
LINE
  5
55F
100
AcDbEntity
  8
0
100
AcDbLine
 62
7
  6
CONTINUOUS
 10
8.2216437254
 20
8.5755306411
 11
8.2218694834
 21
8.5757914077
  0
LINE
  5
560
100
AcDbEntity
  8
0
100
AcDbLine
 62
7
  6
CONTINUOUS
 10
8.2216437254
 20
8.516475523
 11
8.2218694834
 21
8.5167362896
  0
LINE
  5
561
100
AcDbEntity
  8
0
100
AcDbLine
 62
7
  6
CONTINUOUS
 10
8.2216437254
 20
8.4574204049
 11
8.2218694834
 21
8.4576811714
  0
LINE
  5
562
100
AcDbEntity
  8
0
100
AcDbLine
 62
7
  6
CONTINUOUS
 10
8.2216437254
 20
8.3983652868
 11
8.2218694834
 21
8.3986260533
  0
LINE
  5
563
100
AcDbEntity
  8
0
100
AcDbLine
 62
7
  6
CONTINUOUS
 10
7.0843144605
 20
8.3973136229
 11
7.048866895
 21
8.3768395758
  0
LINE
  5
564
100
AcDbEntity
  8
0
100
AcDbLine
 62
7
  6
CONTINUOUS
 10
7.0843144605
 20
8.3382585048
 11
7.048866895
 21
8.3177844577
  0
LINE
  5
565
100
AcDbEntity
  8
0
100
AcDbLine
 62
7
  6
CONTINUOUS
 10
7.0843144605
 20
8.2792033867
 11
7.048866895
 21
8.2587293396
  0
LINE
  5
566
100
AcDbEntity
  8
0
100
AcDbLine
 62
7
  6
CONTINUOUS
 10
8.1861961599
 20
8.7912770664
 11
8.2216437254
 21
8.8117511135
  0
LWPOLYLINE
  5
567
100
AcDbEntity
  8
0
100
AcDbPolyline
 62
7
  6
CONTINUOUS
 90
10
 70
0
 10
8.1864364126
 20
8.8399494881
 10
8.1847388907
 20
8.8392116438
 10
8.1712209603
 20
8.837735924
 10
8.1445174239
 20
8.8362602
 10
8.105286259
 20
8.8347845091
 10
8.0544926336
 20
8.8333088317
 10
7.9933851543
 20
8.8318331405
 10
7.923467506
 20
8.8303574491
 10
7.8464620792
 20
8.8288818016
 10
7.7642646024
 20
8.8274062142
  0
LWPOLYLINE
  5
568
100
AcDbEntity
  8
0
100
AcDbPolyline
 62
7
  6
CONTINUOUS
 90
10
 70
0
 10
7.0840742078
 20
8.5848616737
 10
7.0858933667
 20
8.5856255101
 10
7.1003749007
 20
8.5871531993
 10
7.128956518
 20
8.5886808979
 10
7.1708838125
 20
8.5902085673
 10
7.2250505401
 20
8.5917361998
 10
7.2900292976
 20
8.5932638216
 10
7.3641076063
 20
8.5947914419
 10
7.4453311361
 20
8.5963190295
 10
7.5315579307
 20
8.5978465716
  0
LWPOLYLINE
  5
569
100
AcDbEntity
  8
0
100
AcDbPolyline
 62
7
  6
CONTINUOUS
 90
6
 70
0
 10
7.0840742078
 20
8.5258065556
 10
7.0858933689
 20
8.5265703925
 10
7.1003749193
 20
8.5280980826
 10
7.1289565576
 20
8.5296257815
 10
7.170883861
 20
8.5311534508
 10
7.2250505758
 20
8.5326810826
  0
LWPOLYLINE
  5
56A
100
AcDbEntity
  8
0
100
AcDbPolyline
 62
7
  6
CONTINUOUS
 90
10
 70
0
 10
7.0840742078
 20
8.4667514375
 10
7.0858933712
 20
8.4675152748
 10
7.1003749387
 20
8.4690429658
 10
7.1289565979
 20
8.4705706651
 10
7.1708839097
 20
8.4720983342
 10
7.2250506136
 20
8.4736259655
 10
7.2900294023
 20
8.4751535877
 10
7.3641077809
 20
8.4766812091
 10
7.4453312971
 20
8.4782087962
 10
7.5315579307
 20
8.4797363354
  0
LWPOLYLINE
  5
56B
100
AcDbEntity
  8
0
100
AcDbPolyline
 62
7
  6
CONTINUOUS
 90
10
 70
0
 10
7.0840742078
 20
8.4076963194
 10
7.0858933647
 20
8.4084601554
 10
7.1003748864
 20
8.409987844
 10
7.1289564916
 20
8.4115155424
 10
7.1708838003
 20
8.4130432126
 10
7.2250505188
 20
8.4145708449
 10
7.2900292122
 20
8.4160984654
 10
7.3641075998
 20
8.4176260875
 10
7.4453309224
 20
8.4191536713
 10
7.5315579307
 20
8.4206812173
  0
LWPOLYLINE
  5
56C
100
AcDbEntity
  8
0
100
AcDbPolyline
 62
7
  6
CONTINUOUS
 90
6
 70
0
 10
7.0840742078
 20
8.3486412013
 10
7.0858933678
 20
8.3494050379
 10
7.1003749099
 20
8.3509327276
 10
7.1289565377
 20
8.3524604263
 10
7.1708838367
 20
8.3539880957
 10
7.2250505577
 20
8.3555157278
  0
LWPOLYLINE
  5
56D
100
AcDbEntity
  8
0
100
AcDbPolyline
 62
7
  6
CONTINUOUS
 90
6
 70
0
 10
7.048641137
 20
8.6053189667
 10
7.0504410059
 20
8.6060554246
 10
7.0647737559
 20
8.6075283405
 10
7.0930879859
 20
8.6090012563
 10
7.1346897649
 20
8.6104741722
 10
7.1885595078
 20
8.611947088
  0
LWPOLYLINE
  5
56E
100
AcDbEntity
  8
0
100
AcDbPolyline
 62
7
  6
CONTINUOUS
 90
9
 70
0
 10
7.048641137
 20
8.5462638486
 10
7.0504410059
 20
8.5470003065
 10
7.0647737559
 20
8.5484732224
 10
7.0930879859
 20
8.5499461382
 10
7.1346897649
 20
8.5514190541
 10
7.1885595078
 20
8.5528919699
 10
7.253376964
 20
8.5543648858
 10
7.3275535736
 20
8.5558378016
 10
7.4092714012
 20
8.5573107174
  0
LWPOLYLINE
  5
56F
100
AcDbEntity
  8
0
100
AcDbPolyline
 62
7
  6
CONTINUOUS
 90
7
 70
0
 10
7.048641137
 20
8.4872087305
 10
7.0504410059
 20
8.4879451884
 10
7.0647737559
 20
8.4894181043
 10
7.0930879859
 20
8.4908910201
 10
7.1346897649
 20
8.492363936
 10
7.1885595078
 20
8.4938368518
 10
7.253376964
 20
8.4953097676
  0
LWPOLYLINE
  5
570
100
AcDbEntity
  8
0
100
AcDbPolyline
 62
7
  6
CONTINUOUS
 90
9
 70
0
 10
7.048641137
 20
8.4281536124
 10
7.0504410059
 20
8.4288900703
 10
7.0647737559
 20
8.4303629862
 10
7.0930879859
 20
8.431835902
 10
7.1346897649
 20
8.4333088178
 10
7.1885595078
 20
8.4347817337
 10
7.253376964
 20
8.4362546495
 10
7.3275535736
 20
8.4377275654
 10
7.4092714012
 20
8.4392004812
  0
LWPOLYLINE
  5
571
100
AcDbEntity
  8
0
100
AcDbPolyline
 62
7
  6
CONTINUOUS
 90
8
 70
0
 10
7.048641137
 20
8.3690984943
 10
7.0504410059
 20
8.3698349522
 10
7.0647737559
 20
8.371307868
 10
7.0930879859
 20
8.3727807839
 10
7.1346897649
 20
8.3742536997
 10
7.1885595078
 20
8.3757266156
 10
7.253376964
 20
8.3771995314
 10
7.3275535736
 20
8.3786724473
  0
LWPOLYLINE
  5
572
100
AcDbEntity
  8
0
100
AcDbPolyline
 62
7
  6
CONTINUOUS
 90
9
 70
0
 10
7.048866895
 20
8.7311702845
 10
7.0504410059
 20
8.7316459758
 10
7.0647737559
 20
8.7331188917
 10
7.0930879859
 20
8.7345918075
 10
7.1346897649
 20
8.7360647234
 10
7.1885595078
 20
8.7375376392
 10
7.253376964
 20
8.739010555
 10
7.3275535736
 20
8.7404834709
 10
7.4092714012
 20
8.7419563867
  0
LWPOLYLINE
  5
573
100
AcDbEntity
  8
0
100
AcDbPolyline
 62
7
  6
CONTINUOUS
 90
9
 70
0
 10
7.048866895
 20
8.6721151664
 10
7.0504410059
 20
8.6725908577
 10
7.0647737559
 20
8.6740637736
 10
7.0930879859
 20
8.6755366894
 10
7.1346897649
 20
8.6770096052
 10
7.1885595078
 20
8.6784825211
 10
7.253376964
 20
8.6799554369
 10
7.3275535736
 20
8.6814283528
 10
7.4092714012
 20
8.6829012686
  0
LWPOLYLINE
  5
574
100
AcDbEntity
  8
0
100
AcDbPolyline
 62
7
  6
CONTINUOUS
 90
9
 70
0
 10
7.048866895
 20
8.6130600483
 10
7.0504410059
 20
8.6135357396
 10
7.0647737559
 20
8.6150086554
 10
7.0930879859
 20
8.6164815713
 10
7.1346897649
 20
8.6179544871
 10
7.1885595078
 20
8.619427403
 10
7.253376964
 20
8.6209003188
 10
7.3275535736
 20
8.6223732347
 10
7.4092714012
 20
8.6238461505
  0
LWPOLYLINE
  5
575
100
AcDbEntity
  8
0
100
AcDbPolyline
 62
7
  6
CONTINUOUS
 90
9
 70
0
 10
7.048866895
 20
8.5540049301
 10
7.0504410059
 20
8.5544806215
 10
7.0647737559
 20
8.5559535373
 10
7.0930879859
 20
8.5574264532
 10
7.1346897649
 20
8.558899369
 10
7.1885595078
 20
8.5603722849
 10
7.253376964
 20
8.5618452007
 10
7.3275535736
 20
8.5633181166
 10
7.4092714012
 20
8.5647910324
  0
LWPOLYLINE
  5
576
100
AcDbEntity
  8
0
100
AcDbPolyline
 62
7
  6
CONTINUOUS
 90
9
 70
0
 10
7.048866895
 20
8.494949812
 10
7.0504410059
 20
8.4954255034
 10
7.0647737559
 20
8.4968984192
 10
7.0930879859
 20
8.4983713351
 10
7.1346897649
 20
8.4998442509
 10
7.1885595078
 20
8.5013171668
 10
7.253376964
 20
8.5027900826
 10
7.3275535736
 20
8.5042629985
 10
7.4092714012
 20
8.5057359143
  0
LINE
  5
577
100
AcDbEntity
  8
0
100
AcDbLine
 62
7
  6
CONTINUOUS
 10
8.6195072787
 20
12.5799404139
 11
6.6313183023
 21
12.5799404139
  0
LINE
  5
578
100
AcDbEntity
  8
AXIS
100
AcDbLine
 62
7
  6
CONTINUOUS
 10
6.6313183023
 20
12.5803019315
 11
7.6352553102
 21
12.5803019315
  0
LINE
  5
579
100
AcDbEntity
  8
0
100
AcDbLine
 62
7
  6
CONTINUOUS
 10
7.6352553102
 20
12.5803019315
 11
8.6195072787
 21
12.5803019315
  0
LINE
  5
57A
100
AcDbEntity
  8
0
100
AcDbLine
 62
7
  6
CONTINUOUS
 10
8.0172531209
 20
13.1517293131
 11
8.0013846354
 21
13.1696256577
  0
LINE
  5
57B
100
AcDbEntity
  8
0
100
AcDbLine
 62
7
  6
CONTINUOUS
 10
8.0477315817
 20
13.1173428204
 11
8.0172531209
 21
13.1517293131
  0
LWPOLYLINE
  5
57C
100
AcDbEntity
  8
0
100
AcDbPolyline
 62
7
  6
CONTINUOUS
 90
16
 70
0
 10
8.0477315817
 20
13.1173428204
 10
8.0513092059
 20
13.1132652566
 10
8.0547378754
 20
13.1085990002
 10
8.0579979873
 20
13.1033707299
 10
8.0610709031
 20
13.0976103364
 10
8.063939053
 20
13.0913507555
 10
8.0665860398
 20
13.0846277735
 10
8.0689967294
 20
13.0774798285
 10
8.0711573393
 20
13.0699477874
 10
8.0730555165
 20
13.0620747131
 10
8.0746804086
 20
13.0539056189
 10
8.0760227257
 20
13.0454872085
 10
8.077074793
 20
13.0368676159
 10
8.0778305959
 20
13.0280961185
 10
8.078285813
 20
13.0192228675
 10
8.0784378418
 20
13.0102985935
  0
LWPOLYLINE
  5
57D
100
AcDbEntity
  8
0
100
AcDbPolyline
 62
7
  6
CONTINUOUS
 90
12
 70
0
 10
8.0175810968
 20
13.1361553329
 10
8.0156877349
 20
13.1384155868
 10
8.0134019935
 20
13.1414881533
 10
8.0110742991
 20
13.1450629317
 10
8.0087852741
 20
13.1491165397
 10
8.0066056735
 20
13.1536265193
 10
8.0045887555
 20
13.1586029313
 10
8.0027935614
 20
13.1640605884
 10
8.001314181
 20
13.1699039432
 10
8.0002397568
 20
13.1759365899
 10
7.9996138175
 20
13.1819435927
 10
7.9994285385
 20
13.1874107257
  0
LINE
  5
57E
100
AcDbEntity
  8
0
100
AcDbLine
 62
7
  6
CONTINUOUS
 10
8.2216437254
 20
8.3393101687
 11
8.2218694834
 21
8.3395709352
  0
LINE
  5
57F
100
AcDbEntity
  8
0
100
AcDbLine
 62
7
  6
CONTINUOUS
 10
8.2216437254
 20
8.2802550506
 11
8.2218694834
 21
8.2805158171
  0
LWPOLYLINE
  5
580
100
AcDbEntity
  8
0
100
AcDbPolyline
 62
7
  6
CONTINUOUS
 90
6
 70
0
 10
7.7568926429
 20
8.1763971068
 10
7.7591707037
 20
8.1779386338
 10
7.761225772
 20
8.1824123196
 10
7.7628566834
 20
8.1893802484
 10
7.763903793
 20
8.1981603511
 10
7.7642646024
 20
8.2078931698
  0
LINE
  5
581
100
AcDbEntity
  8
0
100
AcDbLine
 62
7
  6
CONTINUOUS
 10
8.1861961599
 20
8.7322219483
 11
8.2216437254
 21
8.7526959954
  0
LINE
  5
582
100
AcDbEntity
  8
0
100
AcDbLine
 62
7
  6
CONTINUOUS
 10
8.1861961599
 20
8.6731668302
 11
8.2216437254
 21
8.6936408773
  0
LINE
  5
583
100
AcDbEntity
  8
0
100
AcDbLine
 62
7
  6
CONTINUOUS
 10
8.1861961599
 20
8.6141117121
 11
8.2216437254
 21
8.6345857592
  0
LINE
  5
584
100
AcDbEntity
  8
0
100
AcDbLine
 62
7
  6
CONTINUOUS
 10
8.1861961599
 20
8.555056594
 11
8.2216437254
 21
8.5755306411
  0
LINE
  5
585
100
AcDbEntity
  8
0
100
AcDbLine
 62
7
  6
CONTINUOUS
 10
8.1861961599
 20
8.4960014759
 11
8.2216437254
 21
8.516475523
  0
LINE
  5
586
100
AcDbEntity
  8
0
100
AcDbLine
 62
7
  6
CONTINUOUS
 10
8.1861961599
 20
8.4369463577
 11
8.2216437254
 21
8.4574204049
  0
LWPOLYLINE
  5
587
100
AcDbEntity
  8
0
100
AcDbPolyline
 62
7
  6
CONTINUOUS
 90
10
 70
0
 10
7.0840742078
 20
8.2305309651
 10
7.0857717824
 20
8.2312688208
 10
7.0992899512
 20
8.2327445504
 10
7.1259940041
 20
8.2342202891
 10
7.1652261032
 20
8.2356960009
 10
7.2160200628
 20
8.237171676
 10
7.2771266809
 20
8.2386473399
 10
7.3470431571
 20
8.2401230049
 10
7.4240481122
 20
8.2415986436
 10
7.5062460179
 20
8.2430742389
  0
LWPOLYLINE
  5
588
100
AcDbEntity
  8
0
100
AcDbPolyline
 62
7
  6
CONTINUOUS
 90
8
 70
0
 10
8.1864364126
 20
8.78089437
 10
8.1846172525
 20
8.7801305333
 10
8.1701359203
 20
8.7786028585
 10
8.1415552631
 20
8.7770751959
 10
8.0996291134
 20
8.7755475493
 10
8.0454623324
 20
8.7740199014
 10
7.9804824552
 20
8.7724922468
 10
7.9064038383
 20
8.7709646179
  0
LWPOLYLINE
  5
589
100
AcDbEntity
  8
0
100
AcDbPolyline
 62
7
  6
CONTINUOUS
 90
10
 70
0
 10
7.0840742078
 20
8.2895860832
 10
7.08589337
 20
8.2903499203
 10
7.1003749289
 20
8.2918776108
 10
7.1289565777
 20
8.2934053099
 10
7.1708838853
 20
8.2949329791
 10
7.2250505944
 20
8.2964606107
 10
7.2900293748
 20
8.2979882328
 10
7.3641077362
 20
8.2995158539
 10
7.4453312561
 20
8.3010434411
 10
7.5315579307
 20
8.302570981
  0
LWPOLYLINE
  5
58A
100
AcDbEntity
  8
0
100
AcDbPolyline
 62
7
  6
CONTINUOUS
 90
10
 70
0
 10
8.1864364126
 20
8.7218392518
 10
8.1846172644
 20
8.7210754177
 10
8.1701359991
 20
8.719547746
 10
8.1415549452
 20
8.718020064
 10
8.0996280243
 20
8.7164923967
 10
8.0454609632
 20
8.7149647483
 10
7.9804820935
 20
8.7134371208
 10
7.9064043011
 20
8.7119095088
 10
7.8251808257
 20
8.7103819204
 10
7.7389526896
 20
8.708854354
  0
LWPOLYLINE
  5
58B
100
AcDbEntity
  8
0
100
AcDbPolyline
 62
7
  6
CONTINUOUS
 90
10
 70
0
 10
8.1864364126
 20
8.6627841337
 10
8.1846172575
 20
8.6620202982
 10
8.1701357536
 20
8.6604926105
 10
8.141554241
 20
8.6589649156
 10
8.0996272131
 20
8.657437253
 10
8.0454606136
 20
8.6559096213
 10
7.9804813284
 20
8.654381986
 10
7.906402255
 20
8.6528543507
 10
7.8251785276
 20
8.6513267606
 10
7.7389526896
 20
8.6497992359
  0
LWPOLYLINE
  5
58C
100
AcDbEntity
  8
0
100
AcDbPolyline
 62
7
  6
CONTINUOUS
 90
10
 70
0
 10
8.1864364126
 20
8.6037290156
 10
8.1846172683
 20
8.6029651823
 10
8.1701359564
 20
8.6014375067
 10
8.1415552475
 20
8.5999098409
 10
8.0996294156
 20
8.5983822046
 10
8.0454631317
 20
8.5968545674
 10
7.9804833288
 20
8.5953269116
 10
7.9064038578
 20
8.5937992639
 10
7.8251800982
 20
8.592271671
 10
7.7389526896
 20
8.5907441178
  0
LWPOLYLINE
  5
58D
100
AcDbEntity
  8
0
100
AcDbPolyline
 62
7
  6
CONTINUOUS
 90
7
 70
0
 10
8.1864364126
 20
8.5446738975
 10
8.1846172506
 20
8.5439100605
 10
8.1701359896
 20
8.542382391
 10
8.1415552092
 20
8.5408547211
 10
8.0996286364
 20
8.5393270618
 10
8.0454615885
 20
8.5377994099
 10
7.9804820648
 20
8.5362717658
  0
LWPOLYLINE
  5
58E
100
AcDbEntity
  8
0
100
AcDbPolyline
 62
7
  6
CONTINUOUS
 90
9
 70
0
 10
7.048641137
 20
8.3100433762
 10
7.0504410059
 20
8.3107798341
 10
7.0647737559
 20
8.3122527499
 10
7.0930879859
 20
8.3137256658
 10
7.1346897649
 20
8.3151985816
 10
7.1885595078
 20
8.3166714975
 10
7.253376964
 20
8.3181444133
 10
7.3275535736
 20
8.3196173292
 10
7.4092714012
 20
8.321090245
  0
LWPOLYLINE
  5
58F
100
AcDbEntity
  8
0
100
AcDbPolyline
 62
7
  6
CONTINUOUS
 90
9
 70
0
 10
7.048641137
 20
8.2509882581
 10
7.0504410059
 20
8.251724716
 10
7.0647737559
 20
8.2531976318
 10
7.0930879859
 20
8.2546705477
 10
7.1346897649
 20
8.2561434635
 10
7.1885595078
 20
8.2576163794
 10
7.253376964
 20
8.2590892952
 10
7.3275535736
 20
8.2605622111
 10
7.4092714012
 20
8.2620351269
  0
LWPOLYLINE
  5
590
100
AcDbEntity
  8
0
100
AcDbPolyline
 62
7
  6
CONTINUOUS
 90
9
 70
0
 10
7.048866895
 20
8.4358946939
 10
7.0504410059
 20
8.4363703853
 10
7.0647737559
 20
8.4378433011
 10
7.0930879859
 20
8.439316217
 10
7.1346897649
 20
8.4407891328
 10
7.1885595078
 20
8.4422620487
 10
7.253376964
 20
8.4437349645
 10
7.3275535736
 20
8.4452078803
 10
7.4092714012
 20
8.4466807962
  0
LWPOLYLINE
  5
591
100
AcDbEntity
  8
0
100
AcDbPolyline
 62
7
  6
CONTINUOUS
 90
9
 70
0
 10
7.048866895
 20
8.3768395758
 10
7.0504410059
 20
8.3773152672
 10
7.0647737559
 20
8.378788183
 10
7.0930879859
 20
8.3802610989
 10
7.1346897649
 20
8.3817340147
 10
7.1885595078
 20
8.3832069305
 10
7.253376964
 20
8.3846798464
 10
7.3275535736
 20
8.3861527622
 10
7.4092714012
 20
8.3876256781
  0
LWPOLYLINE
  5
592
100
AcDbEntity
  8
0
100
AcDbPolyline
 62
7
  6
CONTINUOUS
 90
9
 70
0
 10
7.048866895
 20
8.3177844577
 10
7.0504410059
 20
8.3182601491
 10
7.0647737559
 20
8.3197330649
 10
7.0930879859
 20
8.3212059807
 10
7.1346897649
 20
8.3226788966
 10
7.1885595078
 20
8.3241518124
 10
7.253376964
 20
8.3256247283
 10
7.3275535736
 20
8.3270976441
 10
7.4092714012
 20
8.32857056
  0
LWPOLYLINE
  5
593
100
AcDbEntity
  8
0
100
AcDbPolyline
 62
7
  6
CONTINUOUS
 90
9
 70
0
 10
7.048866895
 20
8.2587293396
 10
7.0504410059
 20
8.2592050309
 10
7.0647737559
 20
8.2606779468
 10
7.0930879859
 20
8.2621508626
 10
7.1346897649
 20
8.2636237785
 10
7.1885595078
 20
8.2650966943
 10
7.253376964
 20
8.2665696102
 10
7.3275535736
 20
8.268042526
 10
7.4092714012
 20
8.2695154419
  0
LWPOLYLINE
  5
594
100
AcDbEntity
  8
0
100
AcDbPolyline
 62
7
  6
CONTINUOUS
 90
18
 70
0
 10
7.9148723467
 20
13.8034420854
 10
7.9249634764
 20
13.7903543438
 10
7.9345368237
 20
13.7775693171
 10
7.9435971399
 20
13.7650755944
 10
7.9520688576
 20
13.7529723922
 10
7.959883341
 20
13.7413599016
 10
7.9669926937
 20
13.7303195595
 10
7.9733638502
 20
13.7199218481
 10
7.9789816195
 20
13.710220343
 10
7.9838464669
 20
13.7012532552
 10
7.9879708151
 20
13.693048239
 10
7.9913786755
 20
13.6856220054
 10
7.9941101166
 20
13.6789670723
 10
7.9962162585
 20
13.6730535611
 10
7.9977496388
 20
13.6678454011
 10
7.9987623594
 20
13.6633015704
 10
7.999304079
 20
13.6593769658
 10
7.9994285385
 20
13.6567051898
  0
LINE
  5
595
100
AcDbEntity
  8
0
100
AcDbLine
 62
7
  6
CONTINUOUS
 10
8.1861961599
 20
8.3778912396
 11
8.2216437254
 21
8.3983652868
  0
LINE
  5
596
100
AcDbEntity
  8
0
100
AcDbLine
 62
7
  6
CONTINUOUS
 10
8.1861961599
 20
8.3188361215
 11
8.2216437254
 21
8.3393101687
  0
LINE
  5
597
100
AcDbEntity
  8
0
100
AcDbLine
 62
7
  6
CONTINUOUS
 10
8.1861961599
 20
8.2597810034
 11
8.2216437254
 21
8.2802550506
  0
LWPOLYLINE
  5
598
100
AcDbEntity
  8
0
100
AcDbPolyline
 62
7
  6
CONTINUOUS
 90
10
 70
0
 10
8.1864364126
 20
8.4856187794
 10
8.1846172702
 20
8.4848549465
 10
8.1701358774
 20
8.4833272649
 10
8.1415544723
 20
8.4817995712
 10
8.0996272895
 20
8.480271901
 10
8.045460513
 20
8.4787442644
 10
7.980481883
 20
8.4772166438
 10
7.9064035326
 20
8.4756890214
 10
7.8251800195
 20
8.4741614333
 10
7.7389526896
 20
8.4726338815
  0
LWPOLYLINE
  5
599
100
AcDbEntity
  8
0
100
AcDbPolyline
 62
7
  6
CONTINUOUS
 90
10
 70
0
 10
8.1864364126
 20
8.4265636613
 10
8.1846172704
 20
8.4257998284
 10
8.1701358876
 20
8.4242721475
 10
8.1415547211
 20
8.4227444638
 10
8.0996283225
 20
8.4212168156
 10
8.0454617832
 20
8.4196891787
 10
7.9804819036
 20
8.4181615261
 10
7.9064023403
 20
8.4166338799
 10
7.8251785729
 20
8.4151062889
 10
7.7389526896
 20
8.4135787634
  0
LWPOLYLINE
  5
59A
100
AcDbEntity
  8
0
100
AcDbPolyline
 62
7
  6
CONTINUOUS
 90
10
 70
0
 10
8.1864364126
 20
8.3675085432
 10
8.1846172525
 20
8.3667447066
 10
8.1701359203
 20
8.3652170317
 10
8.1415552631
 20
8.3636893691
 10
8.0996291134
 20
8.3621617226
 10
8.0454623324
 20
8.3606340746
 10
7.9804824552
 20
8.3591064201
 10
7.9064038383
 20
8.3575787911
 10
7.8251808621
 20
8.3560512124
 10
7.7389526896
 20
8.3545236453
  0
LWPOLYLINE
  5
59B
100
AcDbEntity
  8
0
100
AcDbPolyline
 62
7
  6
CONTINUOUS
 90
10
 70
0
 10
8.1864364126
 20
8.3084534251
 10
8.1846172644
 20
8.3076895909
 10
8.1701359991
 20
8.3061619192
 10
8.1415549452
 20
8.3046342373
 10
8.0996280243
 20
8.30310657
 10
8.0454609632
 20
8.3015789215
 10
7.9804820935
 20
8.300051294
 10
7.9064043011
 20
8.2985236821
 10
7.8251808257
 20
8.2969960937
 10
7.7389526896
 20
8.2954685272
  0
LWPOLYLINE
  5
59C
100
AcDbEntity
  8
0
100
AcDbPolyline
 62
7
  6
CONTINUOUS
 90
15
 70
0
 10
8.0477315817
 20
13.1173428204
 10
8.0463712884
 20
13.1173303241
 10
8.0448154097
 20
13.1174640361
 10
8.0430857991
 20
13.117778609
 10
8.0412043137
 20
13.1182987378
 10
8.0392022776
 20
13.1190358394
 10
8.0371156049
 20
13.1199873542
 10
8.0349898708
 20
13.1211334099
 10
8.0329025924
 20
13.1224201508
 10
8.030779041
 20
13.1238837626
 10
8.0284326877
 20
13.1256732555
 10
8.0258276363
 20
13.1278634199
 10
8.0230202516
 20
13.1304561349
 10
8.0200770697
 20
13.1334291844
 10
8.0175811005
 20
13.1361553288
  0
LINE
  5
59D
100
AcDbEntity
  8
0
100
AcDbLine
 62
7
  6
CONTINUOUS
 10
6.6510033417
 20
13.0102985935
 11
7.1920727779
 21
13.0102985935
  0
LINE
  5
59E
100
AcDbEntity
  8
0
100
AcDbLine
 62
7
  6
CONTINUOUS
 10
8.0784378418
 20
13.0102985935
 11
8.6195072787
 21
13.0102985935
  0
LINE
  5
59F
100
AcDbEntity
  8
0
100
AcDbLine
 62
7
  6
CONTINUOUS
 10
6.7191980352
 20
13.1173428204
 11
7.2227790387
 21
13.1173428204
  0
LINE
  5
5A0
100
AcDbEntity
  8
0
100
AcDbLine
 62
7
  6
CONTINUOUS
 10
8.0477315817
 20
13.1173428204
 11
8.5513125852
 21
13.1173428204
  0
LWPOLYLINE
  5
5A1
100
AcDbEntity
  8
0
100
AcDbPolyline
 62
7
  6
CONTINUOUS
 90
26
 70
0
 10
8.0784378418
 20
13.0102985935
 10
8.0717858082
 20
13.0104601242
 10
8.0644233202
 20
13.0110143342
 10
8.0565315356
 20
13.0120461398
 10
8.048273201
 20
13.0136138327
 10
8.0398351248
 20
13.0157384725
 10
8.0314006303
 20
13.0184027252
 10
8.0231751723
 20
13.0215386649
 10
8.0154029345
 20
13.02501039
 10
8.0075778936
 20
13.0290310115
 10
7.9990601509
 20
13.0340460037
 10
7.9900792416
 20
13.040115674
 10
7.9809060542
 20
13.0472357146
 10
7.9718480394
 20
13.0553076775
 10
7.9631925522
 20
13.0641566863
 10
7.9551447166
 20
13.0735910341
 10
7.9477472639
 20
13.0835475244
 10
7.9410128728
 20
13.0940031249
 10
7.934970507
 20
13.1049201172
 10
7.9296695786
 20
13.1162182012
 10
7.9251521222
 20
13.1278056964
 10
7.9214454983
 20
13.1395949636
 10
7.9185628947
 20
13.1515111389
 10
7.9165081436
 20
13.1634911128
 10
7.9152798189
 20
13.1754765746
 10
7.9148723467
 20
13.1874107257
  0
LINE
  5
5A2
100
AcDbEntity
  8
0
100
AcDbLine
 62
7
  6
CONTINUOUS
 10
7.9994285385
 20
13.1874107257
 11
7.9148723467
 21
13.1874107257
  0
LINE
  5
5A3
100
AcDbEntity
  8
0
100
AcDbLine
 62
7
  6
CONTINUOUS
 10
7.2710820818
 20
13.1874107257
 11
7.3556382737
 21
13.1874107257
  0
LWPOLYLINE
  5
5A4
100
AcDbEntity
  8
0
100
AcDbPolyline
 62
7
  6
CONTINUOUS
 90
5
 70
0
 10
8.0172531177
 20
13.1517293167
 10
8.0136044678
 20
13.1519913685
 10
8.0100754617
 20
13.1526319773
 10
8.006703817
 20
13.1536442965
 10
8.0065761042
 20
13.1536994767
  0
LWPOLYLINE
  5
5A5
100
AcDbEntity
  8
0
100
AcDbPolyline
 62
7
  6
CONTINUOUS
 90
3
 70
0
 10
7.253870268
 20
13.6804797242
 10
7.2494507396
 20
13.6819360901
 10
7.2360175383
 20
13.6865393243
  0
LWPOLYLINE
  5
5A6
100
AcDbEntity
  8
0
100
AcDbPolyline
 62
7
  6
CONTINUOUS
 90
18
 70
0
 10
7.2465501366
 20
13.6847086325
 10
7.2478074398
 20
13.6842152965
 10
7.2494478791
 20
13.6834213407
 10
7.2512572316
 20
13.6823633631
 10
7.2531874313
 20
13.6810296749
 10
7.2551966731
 20
13.6794114492
 10
7.2572497303
 20
13.677498478
 10
7.2593138547
 20
13.6752787429
 10
7.2613411879
 20
13.6727580494
 10
7.2632741688
 20
13.6699647391
 10
7.2650602506
 20
13.6669383162
 10
7.2666564353
 20
13.6637235541
 10
7.2680308568
 20
13.6603652846
 10
7.2691605378
 20
13.6569102147
 10
7.2700315396
 20
13.6534050589
 10
7.270637904
 20
13.6499007446
 10
7.2709832073
 20
13.6464502872
 10
7.2710820818
 20
13.6433720939
  0
LWPOLYLINE
  5
5A7
100
AcDbEntity
  8
0
100
AcDbPolyline
 62
7
  6
CONTINUOUS
 90
20
 70
0
 10
7.2360175383
 20
13.6865393243
 10
7.2320710342
 20
13.6881338007
 10
7.2281897871
 20
13.6903790243
 10
7.224395701
 20
13.6932623241
 10
7.2207101876
 20
13.6967674285
 10
7.2171540472
 20
13.7008745553
 10
7.2137473481
 20
13.7055605267
 10
7.2105093165
 20
13.7107988968
 10
7.2074582264
 20
13.7165601027
 10
7.2046112967
 20
13.7228116309
 10
7.2019845942
 20
13.7295182005
 10
7.1995929428
 20
13.7366419627
 10
7.1974498398
 20
13.7441427142
 10
7.1955673801
 20
13.7519781243
 10
7.1939561873
 20
13.7601039733
 10
7.1926253541
 20
13.7684744039
 10
7.1915823916
 20
13.777042174
 10
7.1908331852
 20
13.7857589346
 10
7.1903819634
 20
13.7945754905
 10
7.1902312727
 20
13.8034420854
  0
LINE
  5
5A8
100
AcDbEntity
  8
0
100
AcDbLine
 62
7
  6
CONTINUOUS
 10
8.5513125852
 20
13.1173428204
 11
7.9994285385
 21
13.3746905777
  0
LWPOLYLINE
  5
5A9
100
AcDbEntity
  8
0
100
AcDbPolyline
 62
7
  6
CONTINUOUS
 90
22
 70
0
 10
7.9148723467
 20
13.8034420854
 10
7.927843956
 20
13.7936262719
 10
7.940223716
 20
13.7840375209
 10
7.9520232173
 20
13.7746672122
 10
7.9631492805
 20
13.7655898179
 10
7.973515025
 20
13.7568804471
 10
7.9830579753
 20
13.7486001911
 10
7.9917322591
 20
13.7408019069
 10
7.9995129037
 20
13.7335257777
 10
8.0063932417
 20
13.7268004613
 10
8.012380132
 20
13.7206466987
 10
8.0174936724
 20
13.7150770232
 10
8.0217747942
 20
13.7100858231
 10
8.0252801329
 20
13.7056506897
 10
8.028068871
 20
13.7017445697
 10
8.0302007506
 20
13.6983366969
 10
8.031734043
 20
13.695393243
 10
8.0327208869
 20
13.6928840804
 10
8.0332092097
 20
13.6907787299
 10
8.0332367143
 20
13.6890177815
 10
8.032814772
 20
13.6876021065
 10
8.0319668926
 20
13.6865393243
  0
LWPOLYLINE
  5
5AA
100
AcDbEntity
  8
0
100
AcDbPolyline
 62
7
  6
CONTINUOUS
 90
3
 70
0
 10
8.0149654472
 20
13.681469892
 10
8.0186177691
 20
13.6821286647
 10
8.0223372688
 20
13.6823662189
  0
LINE
  5
5AB
100
AcDbEntity
  8
0
100
AcDbLine
 62
7
  6
CONTINUOUS
 10
7.2710820818
 20
13.6433720939
 11
7.3556382737
 21
13.6433720939
  0
LINE
  5
5AC
100
AcDbEntity
  8
0
100
AcDbLine
 62
7
  6
CONTINUOUS
 10
8.5182425867
 20
13.6865393243
 11
8.0319668926
 21
13.6865393243
  0
LINE
  5
5AD
100
AcDbEntity
  8
0
100
AcDbLine
 62
7
  6
CONTINUOUS
 10
7.2360175383
 20
13.6865393243
 11
6.7522680337
 21
13.6865393243
  0
LWPOLYLINE
  5
5AE
100
AcDbEntity
  8
0
100
AcDbPolyline
 62
7
  6
CONTINUOUS
 90
6
 70
0
 10
7.2360175383
 20
13.6865393243
 10
7.2382930199
 20
13.686484074
 10
7.240664404
 20
13.6862129947
 10
7.2431286305
 20
13.6857206456
 10
7.2456813779
 20
13.6850003775
 10
7.2465502188
 20
13.6847086062
  0
LINE
  5
5AF
100
AcDbEntity
  8
0
100
AcDbLine
 62
7
  6
CONTINUOUS
 10
6.6510033417
 20
13.8034420854
 11
7.1902312727
 21
13.8034420854
  0
LINE
  5
5B0
100
AcDbEntity
  8
0
100
AcDbLine
 62
7
  6
CONTINUOUS
 10
7.9148723467
 20
13.8034420854
 11
8.6195072787
 21
13.8034420854
  0
LWPOLYLINE
  5
5B1
100
AcDbEntity
  8
0
100
AcDbPolyline
 62
7
  6
CONTINUOUS
 90
24
 70
0
 10
7.1902312727
 20
13.8034420854
 10
7.2010730227
 20
13.8030678168
 10
7.2120116748
 20
13.8019344303
 10
7.2230277122
 20
13.8000219052
 10
7.2340962515
 20
13.7973052288
 10
7.2451523828
 20
13.7937668338
 10
7.2560257441
 20
13.7894389268
 10
7.2665822269
 20
13.7843727486
 10
7.2767530587
 20
13.7786092747
 10
7.2864787942
 20
13.7721924591
 10
7.2957041607
 20
13.7651707749
 10
7.3043782961
 20
13.7575969951
 10
7.312456049
 20
13.749527073
 10
7.319899417
 20
13.7410182056
 10
7.3266767964
 20
13.7321287639
 10
7.3327633633
 20
13.7229171375
 10
7.3381428679
 20
13.7134372781
 10
7.3428047148
 20
13.7037405503
 10
7.3467435506
 20
13.6938744769
 10
7.3499601704
 20
13.6838754816
 10
7.352455673
 20
13.6737794055
 10
7.3542302699
 20
13.6636326663
 10
7.3552882398
 20
13.6534820917
 10
7.3556382737
 20
13.6433720939
  0
LINE
  5
5B2
100
AcDbEntity
  8
0
100
AcDbLine
 62
7
  6
CONTINUOUS
 10
6.6510033417
 20
14.5484443509
 11
8.6195072787
 21
14.5484443509
  0
LINE
  5
5B3
100
AcDbEntity
  8
0
100
AcDbLine
 62
7
  6
CONTINUOUS
 10
6.7198728523
 20
14.6153734847
 11
8.5506377681
 21
14.6153734847
  0
LINE
  5
5B4
100
AcDbEntity
  8
0
100
AcDbLine
 62
7
  6
CONTINUOUS
 10
7.7181898552
 20
3.4614354668
 11
7.5523207652
 21
3.4614354668
  0
LWPOLYLINE
  5
5B5
100
AcDbEntity
  8
0
100
AcDbPolyline
 62
7
  6
CONTINUOUS
 90
16
 70
0
 10
7.4092714012
 20
3.4929315298
 10
7.3275535736
 20
3.5348346016
 10
7.253376964
 20
3.5889779422
 10
7.1885595078
 20
3.6540345955
 10
7.1346897649
 20
3.7284101395
 10
7.0930879859
 20
3.8102817631
 10
7.0647737559
 20
3.8976429395
 10
7.0504410059
 20
3.9883526029
 10
7.0504410059
 20
4.0801876221
 10
7.0647737559
 20
4.1708972855
 10
7.0930879859
 20
4.2582584619
 10
7.1346897649
 20
4.3401300855
 10
7.1885595078
 20
4.4145056295
 10
7.253376964
 20
4.4795622828
 10
7.3275535736
 20
4.5337056234
 10
7.4092714012
 20
4.5756086952
  0
LINE
  5
5B6
100
AcDbEntity
  8
0
100
AcDbLine
 62
7
  6
CONTINUOUS
 10
7.4092714012
 20
3.4929315298
 11
7.8612392192
 21
3.4929315298
  0
LINE
  5
5B7
100
AcDbEntity
  8
0
100
AcDbLine
 62
7
  6
CONTINUOUS
 10
7.5523207652
 20
3.5244275928
 11
7.7181898552
 21
3.5244275928
  0
LWPOLYLINE
  5
5B8
100
AcDbEntity
  8
0
100
AcDbPolyline
 62
7
  6
CONTINUOUS
 90
4
 70
0
 10
7.288894832
 20
4.2327178116
 10
7.2586515754
 20
4.1703465197
 10
7.2395881838
 20
4.1035315688
 10
7.2323230623
 20
4.0342701126
  0
LINE
  5
5B9
100
AcDbEntity
  8
0
100
AcDbLine
 62
7
  6
CONTINUOUS
 10
7.5523207652
 20
3.5244275928
 11
7.5523207652
 21
3.4614354668
  0
LINE
  5
5BA
100
AcDbEntity
  8
0
100
AcDbLine
 62
7
  6
CONTINUOUS
 10
7.5523207652
 20
4.5441126322
 11
7.5523207652
 21
4.6071047582
  0
LINE
  5
5BB
100
AcDbEntity
  8
0
100
AcDbLine
 62
7
  6
CONTINUOUS
 10
7.5136179775
 20
3.5290207687
 11
7.5062460179
 21
3.4983995963
  0
LINE
  5
5BC
100
AcDbEntity
  8
0
100
AcDbLine
 62
7
  6
CONTINUOUS
 10
7.5049295966
 20
3.4929315298
 11
7.4988740584
 21
3.467778424
  0
LINE
  5
5BD
100
AcDbEntity
  8
0
100
AcDbLine
 62
7
  6
CONTINUOUS
 10
7.7568926429
 20
4.5395194563
 11
7.7642646024
 21
4.5701406287
  0
LINE
  5
5BE
100
AcDbEntity
  8
0
100
AcDbLine
 62
7
  6
CONTINUOUS
 10
7.7655810238
 20
4.5756086952
 11
7.771636562
 21
4.600761801
  0
LINE
  5
5BF
100
AcDbEntity
  8
0
100
AcDbLine
 62
7
  6
CONTINUOUS
 10
7.9901456289
 20
3.9972596036
 11
8.008347451
 21
3.995361387
  0
LINE
  5
5C0
100
AcDbEntity
  8
0
100
AcDbLine
 62
7
  6
CONTINUOUS
 10
7.7568926429
 20
3.5290207687
 11
7.7642646024
 21
3.4983995963
  0
LINE
  5
5C1
100
AcDbEntity
  8
0
100
AcDbLine
 62
7
  6
CONTINUOUS
 10
7.7655810238
 20
3.4929315298
 11
7.771636562
 21
3.467778424
  0
LINE
  5
5C2
100
AcDbEntity
  8
0
100
AcDbLine
 62
7
  6
CONTINUOUS
 10
7.5136179775
 20
4.5395194563
 11
7.5062460179
 21
4.5701406287
  0
LINE
  5
5C3
100
AcDbEntity
  8
0
100
AcDbLine
 62
7
  6
CONTINUOUS
 10
7.5049295966
 20
4.5756086952
 11
7.4988740584
 21
4.600761801
  0
LINE
  5
5C4
100
AcDbEntity
  8
0
100
AcDbLine
 62
7
  6
CONTINUOUS
 10
7.7181898552
 20
3.5244275928
 11
7.7181898552
 21
3.4614354668
  0
LINE
  5
5C5
100
AcDbEntity
  8
0
100
AcDbLine
 62
7
  6
CONTINUOUS
 10
7.7181898552
 20
4.5441126322
 11
7.7181898552
 21
4.6071047582
  0
LINE
  5
5C6
100
AcDbEntity
  8
0
100
AcDbLine
 62
7
  6
CONTINUOUS
 10
8.0077793127
 20
4.0573309328
 11
8.0093584906
 21
4.0069047806
  0
LWPOLYLINE
  5
5C7
100
AcDbEntity
  8
0
100
AcDbPolyline
 62
7
  6
CONTINUOUS
 90
19
 70
0
 10
7.9607691464
 20
3.8450797521
 10
7.9900591439
 20
3.9045659923
 10
8.0085290417
 20
3.9684305972
 10
8.0155570493
 20
4.03469847
 10
8.0108752457
 20
4.1013797866
 10
7.9945709273
 20
4.1663807436
 10
7.9670982823
 20
4.2276879618
 10
7.9292584893
 20
4.2833965876
 10
7.8821704579
 20
4.3317744359
 10
7.8272416672
 20
4.3713065631
 10
7.7661214058
 20
4.4007468553
 10
7.7006535346
 20
4.4191537313
 10
7.6328169251
 20
4.4259204414
 10
7.5646731941
 20
4.4207931271
 10
7.4982957893
 20
4.4038810527
 10
7.435702881
 20
4.3756491954
 10
7.3788096752
 20
4.3369078056
 10
7.329365201
 20
4.2887904432
 10
7.288894832
 20
4.2327178116
  0
LINE
  5
5C8
100
AcDbEntity
  8
0
100
AcDbLine
 62
7
  6
CONTINUOUS
 10
7.9755608697
 20
3.8623914686
 11
7.9362856813
 21
3.8081441174
  0
LINE
  5
5C9
100
AcDbEntity
  8
0
100
AcDbLine
 62
7
  6
CONTINUOUS
 10
7.7072458548
 20
4.4034282618
 11
7.7219117463
 21
4.4003451822
  0
LINE
  5
5CA
100
AcDbEntity
  8
0
100
AcDbLine
 62
7
  6
CONTINUOUS
 10
7.7219117463
 20
4.4003451822
 11
7.7419977739
 21
4.3948535809
  0
LWPOLYLINE
  5
5CB
100
AcDbEntity
  8
0
100
AcDbPolyline
 62
7
  6
CONTINUOUS
 90
17
 70
0
 10
7.9315293969
 20
4.2496309898
 10
7.9310017092
 20
4.2497941722
 10
7.9304530934
 20
4.250083935
 10
7.9299232705
 20
4.2504263582
 10
7.9294115925
 20
4.2507946814
 10
7.928901077
 20
4.2511884023
 10
7.9283798474
 20
4.2516107317
 10
7.9278370526
 20
4.2520674958
 10
7.9272624268
 20
4.2525659406
 10
7.926646025
 20
4.253114189
 10
7.9259780929
 20
4.2537209207
 10
7.9252490535
 20
4.2543951016
 10
7.9244496183
 20
4.2551456692
 10
7.9235710352
 20
4.2559811178
 10
7.9226054516
 20
4.2569089849
 10
7.9215462772
 20
4.2579353474
 10
7.920388038
 20
4.2590648361
  0
LINE
  5
5CC
100
AcDbEntity
  8
0
100
AcDbLine
 62
7
  6
CONTINUOUS
 10
7.7419977739
 20
4.3948535809
 11
7.7601116964
 21
4.3888217891
  0
LWPOLYLINE
  5
5CD
100
AcDbEntity
  8
0
100
AcDbPolyline
 62
7
  6
CONTINUOUS
 90
3
 70
0
 10
7.7601116964
 20
4.3888217891
 10
7.7764170036
 20
4.3824670843
 10
7.7910718815
 20
4.3759616652
  0
LINE
  5
5CE
100
AcDbEntity
  8
0
100
AcDbLine
 62
7
  6
CONTINUOUS
 10
7.7910718815
 20
4.3759616652
 11
7.8042485026
 21
4.3694291453
  0
LWPOLYLINE
  5
5CF
100
AcDbEntity
  8
0
100
AcDbPolyline
 62
7
  6
CONTINUOUS
 90
50
 70
0
 10
7.8042485026
 20
4.3694291453
 10
7.8161223593
 20
4.3629510524
 10
7.8268670256
 20
4.3565725325
 10
7.8366506001
 20
4.3503078
 10
7.8456149533
 20
4.3441581325
 10
7.8538095252
 20
4.338169052
 10
7.8612598847
 20
4.3323968317
 10
7.867995716
 20
4.3268902233
 10
7.8740550404
 20
4.321685729
 10
7.8794948764
 20
4.3167959875
 10
7.8843680286
 20
4.312228321
 10
7.888724885
 20
4.3079839718
 10
7.8926136156
 20
4.3040585668
 10
7.8960800187
 20
4.3004429209
 10
7.8991674979
 20
4.2971237357
 10
7.9019171154
 20
4.2940842144
 10
7.9043677002
 20
4.2913045965
 10
7.9065559925
 20
4.2887626173
 10
7.9085168066
 20
4.2864338999
 10
7.9102832
 20
4.2842922857
 10
7.9118866379
 20
4.2823101114
 10
7.9133571432
 20
4.2804584349
 10
7.9147234226
 20
4.278707217
 10
7.9160129619
 20
4.277025459
 10
7.917252079
 20
4.2753812954
 10
7.9184660029
 20
4.2737419355
 10
7.9196775085
 20
4.2720754471
 10
7.9208922149
 20
4.2703714692
 10
7.9220907167
 20
4.2686545946
 10
7.9232529439
 20
4.2669521243
 10
7.9243599375
 20
4.265291809
 10
7.9253938142
 20
4.2637020915
 10
7.9263381923
 20
4.2622116706
 10
7.9271838348
 20
4.2608404285
 10
7.9279381171
 20
4.259582307
 10
7.9286037746
 20
4.2584386042
 10
7.9291858353
 20
4.257406765
 10
7.9296918049
 20
4.2564795141
 10
7.9301305519
 20
4.2556462506
 10
7.9305112963
 20
4.2548944545
 10
7.9308428806
 20
4.2542107251
 10
7.9311332872
 20
4.2535813917
 10
7.9313892704
 20
4.2529927738
 10
7.931615904
 20
4.2524312111
 10
7.931815705
 20
4.2518829883
 10
7.9319865237
 20
4.2513343254
 10
7.9321155283
 20
4.2507716756
 10
7.9321556302
 20
4.2501923184
 10
7.9319782768
 20
4.2497371407
 10
7.9315293969
 20
4.2496309898
  0
LWPOLYLINE
  5
5D0
100
AcDbEntity
  8
0
100
AcDbPolyline
 62
7
  6
CONTINUOUS
 90
6
 70
0
 10
7.8581774532
 20
4.3128785012
 10
7.9039861855
 20
4.2739904429
 10
7.942924416
 20
4.2276705822
 10
7.9737975158
 20
4.1751631739
 10
7.9956567603
 20
4.1178572324
 10
8.0077793127
 20
4.0573309328
  0
LWPOLYLINE
  5
5D1
100
AcDbEntity
  8
0
100
AcDbPolyline
 62
7
  6
CONTINUOUS
 90
20
 70
0
 10
7.9147938533
 20
4.2645544382
 10
7.9132028777
 20
4.2661115946
 10
7.9115552491
 20
4.2677177388
 10
7.9098613041
 20
4.2693604496
 10
7.908131172
 20
4.2710278158
 10
7.9063592804
 20
4.2727232735
 10
7.9045160218
 20
4.2744729153
 10
7.9025694783
 20
4.2763040398
 10
7.9004871034
 20
4.2782432448
 10
7.8982355654
 20
4.2803162643
 10
7.8957805913
 20
4.2825477573
 10
7.8930867934
 20
4.2849610548
 10
7.8901174833
 20
4.2875778589
 10
7.8868344757
 20
4.2904178863
 10
7.8831978949
 20
4.293498448
 10
7.8791659912
 20
4.2968339606
 10
7.8746949866
 20
4.30043538
 10
7.8697389668
 20
4.3043095541
 10
7.8642498412
 20
4.3084584906
 10
7.8581774532
 20
4.3128785012
  0
LINE
  5
5D2
100
AcDbEntity
  8
0
100
AcDbLine
 62
7
  6
CONTINUOUS
 10
7.920388038
 20
4.2590648361
 11
7.9147938533
 21
4.2645544382
  0
LWPOLYLINE
  5
5D3
100
AcDbEntity
  8
0
100
AcDbPolyline
 62
7
  6
CONTINUOUS
 90
19
 70
0
 10
8.0608259423
 20
4.0342701124
 10
8.0532628464
 20
3.9613188527
 10
8.0332904201
 20
3.8908694858
 10
8.0016709617
 20
3.8252617808
 10
7.9593138622
 20
3.7661621113
 10
7.9068671662
 20
3.7147960893
 10
7.8462030325
 20
3.6733303898
 10
7.7801619113
 20
3.6434597715
 10
7.710098634
 20
3.6255090662
 10
7.6370468065
 20
3.6199913847
 10
7.5643115962
 20
3.6274013896
 10
7.4951693755
 20
3.6470829808
 10
7.4309904294
 20
3.6782016891
 10
7.3726969013
 20
3.7203690431
 10
7.3228023321
 20
3.7719565026
 10
7.2831289062
 20
3.8307537662
 10
7.2542846543
 20
3.8955247926
 10
7.2372213834
 20
3.9639855242
 10
7.2323230623
 20
4.0342701126
  0
LWPOLYLINE
  5
5D4
100
AcDbEntity
  8
0
100
AcDbPolyline
 62
7
  6
CONTINUOUS
 90
11
 70
0
 10
7.6170507506
 20
4.471080899
 10
7.6875122076
 20
4.4671514385
 10
7.7556353978
 20
4.452144958
 10
7.8201716358
 20
4.426590662
 10
7.8805427616
 20
4.3905413089
 10
7.9343018134
 20
4.3451581338
 10
7.9794764178
 20
4.2923188621
 10
8.0150935984
 20
4.2337995049
 10
8.0410189813
 20
4.1701119994
 10
8.0564626683
 20
4.102709966
 10
8.0608259423
 20
4.0342701124
  0
LWPOLYLINE
  5
5D5
100
AcDbEntity
  8
0
100
AcDbPolyline
 62
7
  6
CONTINUOUS
 90
13
 70
0
 10
7.6170507506
 20
4.471080899
 10
7.6909523227
 20
4.4632672963
 10
7.7618653615
 20
4.4431077169
 10
7.8277443522
 20
4.4113586999
 10
7.886709444
 20
4.3691137521
 10
7.9370983453
 20
4.3177735952
 10
7.9775212609
 20
4.2590013329
 10
8.0069025183
 20
4.1946694094
 10
8.0245106849
 20
4.1268025472
 10
8.0299794066
 20
4.0575190793
 10
8.0233236835
 20
3.988983962
 10
8.0049371689
 20
3.9232847933
 10
7.9755608697
 20
3.8623914686
  0
LINE
  5
5D6
100
AcDbEntity
  8
0
100
AcDbLine
 62
7
  6
CONTINUOUS
 10
7.7181898552
 20
4.5441126322
 11
7.5523207652
 21
4.5441126322
  0
LINE
  5
5D7
100
AcDbEntity
  8
0
100
AcDbLine
 62
7
  6
CONTINUOUS
 10
7.4092714012
 20
4.5756086952
 11
7.8612392192
 21
4.5756086952
  0
LINE
  5
5D8
100
AcDbEntity
  8
0
100
AcDbLine
 62
7
  6
CONTINUOUS
 10
7.5523207652
 20
4.6071047582
 11
7.7181898552
 21
4.6071047582
  0
LWPOLYLINE
  5
5D9
100
AcDbEntity
  8
0
100
AcDbPolyline
 62
7
  6
CONTINUOUS
 90
16
 70
0
 10
7.8612392192
 20
4.5756086952
 10
7.9429570467
 20
4.5337056234
 10
8.0171336564
 20
4.4795622828
 10
8.0819511126
 20
4.4145056295
 10
8.1358208555
 20
4.3401300855
 10
8.1774226345
 20
4.2582584619
 10
8.2057368645
 20
4.1708972855
 10
8.2200696145
 20
4.0801876221
 10
8.2200696145
 20
3.9883526029
 10
8.2057368645
 20
3.8976429395
 10
8.1774226345
 20
3.8102817631
 10
8.1358208555
 20
3.7284101395
 10
8.0819511126
 20
3.6540345955
 10
8.0171336564
 20
3.5889779422
 10
7.9429570467
 20
3.5348346016
 10
7.8612392192
 20
3.4929315298
  0
LWPOLYLINE
  5
5DA
100
AcDbEntity
  8
02___PRT_ALL_AXES
100
AcDbPolyline
 62
7
  6
CONTINUOUS
 90
9
 70
0
 10
16.989297011
 20
5.6688191277
 10
16.97659492
 20
5.6748981411
 10
16.9652456019
 20
5.682193513
 10
16.9554800962
 20
5.6905567308
 10
16.9474972003
 20
5.6998175433
 10
16.941459423
 20
5.7097874272
 10
16.937489676
 20
5.7202634244
 10
16.935668772
 20
5.7310322737
 10
16.9355478379
 20
5.7346491644
  0
LWPOLYLINE
  5
5DB
100
AcDbEntity
  8
0
100
AcDbPolyline
 62
7
  6
CONTINUOUS
 90
13
 70
0
 10
16.1510691171
 20
11.5880714781
 10
16.2163002045
 20
11.6739909609
 10
16.2976215749
 20
11.7529548369
 10
16.3930845728
 20
11.8228947435
 10
16.500936111
 20
11.8825710682
 10
16.6187770506
 20
11.9307608046
 10
16.7444332859
 20
11.9667139783
 10
16.8754505586
 20
11.9898386626
 10
17.0094591114
 20
11.9998024008
 10
17.1439934791
 20
11.9964692689
 10
17.276682262
 20
11.9799038982
 10
17.4049785427
 20
11.9504060775
 10
17.5267790993
 20
11.9083872576
  0
LWPOLYLINE
  5
5DC
100
AcDbEntity
  8
0
100
AcDbPolyline
 62
7
  6
CONTINUOUS
 90
8
 70
0
 10
16.7904055886
 20
6.583900616
 10
16.8761288365
 20
6.5616483967
 10
16.9659429496
 20
6.5491419194
 10
17.0576467449
 20
6.5467132208
 10
17.1489927269
 20
6.5544473495
 10
17.2377421695
 20
6.5721802815
 10
17.3217199827
 20
6.5995029397
 10
17.3988680211
 20
6.6357712205
  0
LWPOLYLINE
  5
5DD
100
AcDbEntity
  8
0
100
AcDbPolyline
 62
7
  6
CONTINUOUS
 90
7
 70
0
 10
16.7904055886
 20
6.5891899974
 10
16.8761288365
 20
6.5669377782
 10
16.9659429496
 20
6.5544313008
 10
17.0576467449
 20
6.5520026022
 10
17.1489927269
 20
6.559736731
 10
17.2377421695
 20
6.5774696629
 10
17.3217199827
 20
6.6047923212
  0
LWPOLYLINE
  5
5DE
100
AcDbEntity
  8
0
100
AcDbPolyline
 62
7
  6
CONTINUOUS
 90
8
 70
0
 10
16.7904055886
 20
6.7509337139
 10
16.8761288365
 20
6.7286814947
 10
16.9659429496
 20
6.7161750173
 10
17.0576467449
 20
6.7137463187
 10
17.1489927269
 20
6.7214804475
 10
17.2377421695
 20
6.7392133794
 10
17.3217199827
 20
6.7665360376
 10
17.3421378551
 20
6.7761347409
  0
LWPOLYLINE
  5
5DF
100
AcDbEntity
  8
0
100
AcDbPolyline
 62
7
  6
CONTINUOUS
 90
8
 70
0
 10
16.7414069637
 20
6.7755850359
 10
16.7904055886
 20
6.7562230953
 10
16.8761288365
 20
6.7339708761
 10
16.9659429496
 20
6.7214643988
 10
17.0576467449
 20
6.7190357002
 10
17.1489927269
 20
6.7267698289
 10
17.2377421695
 20
6.7445027608
 10
17.3150424057
 20
6.7696528315
  0
LWPOLYLINE
  5
5E0
100
AcDbEntity
  8
AXIS
100
AcDbPolyline
 62
7
  6
CONTINUOUS
 90
8
 70
0
 10
16.6159886346
 20
6.8173465146
 10
16.5147946879
 20
6.8656332307
 10
16.423421402
 20
6.923757145
 10
16.3435742668
 20
6.9906492871
 10
16.2769101653
 20
7.0647817173
 10
16.2245716452
 20
7.1444191261
 10
16.1871239342
 20
7.2278540874
 10
16.177890062
 20
7.2631563287
  0
LINE
  5
5E1
100
AcDbEntity
  8
0
100
AcDbLine
 62
7
  6
CONTINUOUS
 10
17.2982996519
 20
6.9663389252
 11
17.4441790153
 21
7.0028670658
  0
LINE
  5
5E2
100
AcDbEntity
  8
0
100
AcDbLine
 62
7
  6
CONTINUOUS
 10
17.1461351214
 20
6.9463970794
 11
17.2982996519
 21
6.9663389252
  0
LWPOLYLINE
  5
5E3
100
AcDbEntity
  8
AXIS
100
AcDbPolyline
 62
7
  6
CONTINUOUS
 90
4
 70
0
 10
17.2266821651
 20
6.9170918098
 10
17.1268999408
 20
6.9074995808
 10
17.026257272
 20
6.9050946682
 10
16.9257868886
 20
6.9099017495
  0
LINE
  5
5E4
100
AcDbEntity
  8
0
100
AcDbLine
 62
7
  6
CONTINUOUS
 10
16.9914322195
 20
6.9435325629
 11
17.1461351214
 21
6.9463970794
  0
LINE
  5
5E5
100
AcDbEntity
  8
0
100
AcDbLine
 62
7
  6
CONTINUOUS
 10
16.8380002451
 20
6.9578159097
 11
16.9914322195
 21
6.9435325629
  0
LWPOLYLINE
  5
5E6
100
AcDbEntity
  8
AXIS
100
AcDbPolyline
 62
7
  6
CONTINUOUS
 90
5
 70
0
 10
16.9257868886
 20
6.9099017495
 10
16.8265197528
 20
6.9218714975
 10
16.7294744796
 20
6.9408810866
 10
16.635646885
 20
6.9667354526
 10
16.5459997669
 20
6.9991692946
  0
LWPOLYLINE
  5
5E7
100
AcDbEntity
  8
0
100
AcDbPolyline
 62
7
  6
CONTINUOUS
 90
3
 70
0
 10
16.5499367748
 20
7.0360058019
 10
16.6896172025
 20
6.9888954162
 10
16.8380002451
 20
6.9578159097
  0
LWPOLYLINE
  5
5E8
100
AcDbEntity
  8
0
100
AcDbPolyline
 62
7
  6
CONTINUOUS
 90
11
 70
0
 10
16.5459997669
 20
7.0302124182
 10
16.6735737415
 20
6.98639153
 10
16.8086710516
 20
6.9558536442
 10
16.9485411965
 20
6.9392212046
 10
17.0903363193
 20
6.9368333188
 10
17.2311694632
 20
6.9487388838
 10
17.3681735368
 20
6.9746957234
 10
17.4985593959
 20
7.0141755881
 10
17.6196725257
 20
7.0663748787
 10
17.72904715
 20
7.1302309946
 10
17.8244564906
 20
7.2044439845
  0
LWPOLYLINE
  5
5E9
100
AcDbEntity
  8
0
100
AcDbPolyline
 62
7
  6
CONTINUOUS
 90
8
 70
0
 10
16.5459997669
 20
7.0302124182
 10
16.4285617686
 20
7.0864145299
 10
16.3236220251
 20
7.1538646052
 10
16.2333208587
 20
7.231189491
 10
16.1594993326
 20
7.3168137424
 10
16.1036612836
 20
7.4089920622
 10
16.0669359646
 20
7.5058687508
 10
16.0500829256
 20
7.6054559722
  0
LWPOLYLINE
  5
5EA
100
AcDbEntity
  8
0
100
AcDbPolyline
 62
7
  6
CONTINUOUS
 90
3
 70
0
 10
16.5499367748
 20
7.0360058019
 10
16.4223983576
 20
7.0979870528
 10
16.3101423701
 20
7.1733129847
  0
LWPOLYLINE
  5
5EB
100
AcDbEntity
  8
0
100
AcDbPolyline
 62
7
  6
CONTINUOUS
 90
3
 70
0
 10
16.6978835663
 20
6.7896041142
 10
16.710874129
 20
6.7823607876
 10
16.7904055886
 20
6.7509337139
  0
LWPOLYLINE
  5
5EC
100
AcDbEntity
  8
0
100
AcDbPolyline
 62
7
  6
CONTINUOUS
 90
10
 70
0
 10
16.5779837481
 20
6.8328822611
 10
16.6394836311
 20
6.7856980758
 10
16.710874129
 20
6.7458918945
 10
16.7904055886
 20
6.7144648209
 10
16.8761288365
 20
6.6922126016
 10
16.9659429496
 20
6.6797061243
 10
17.0576467449
 20
6.6772774257
 10
17.1489927269
 20
6.6850115544
 10
17.2377421695
 20
6.7027444863
 10
17.3217199827
 20
6.7300671446
  0
LWPOLYLINE
  5
5ED
100
AcDbEntity
  8
0
100
AcDbPolyline
 62
7
  6
CONTINUOUS
 90
16
 70
0
 10
16.1284528966
 20
10.3100918182
 10
16.1205201398
 20
10.3075259618
 10
16.1129176638
 20
10.3045306212
 10
16.1056889348
 20
10.3011229218
 10
16.0988752805
 20
10.2973223459
 10
16.0925156589
 20
10.2931506239
 10
16.0866464279
 20
10.2886316056
 10
16.0813011445
 20
10.2837911282
 10
16.0765103694
 20
10.278656866
 10
16.0723014928
 20
10.2732581733
 10
16.0686985783
 20
10.2676259162
 10
16.0657222244
 20
10.2617922952
 10
16.0633894489
 20
10.255790665
 10
16.061713588
 20
10.2496553367
 10
16.0607042235
 20
10.2434213888
 10
16.0605548752
 20
10.241827881
  0
LINE
  5
5EE
100
AcDbEntity
  8
0
100
AcDbLine
 62
7
  6
CONTINUOUS
 10
16.3101423701
 20
7.1733129847
 11
16.2159329273
 21
7.2601288233
  0
LWPOLYLINE
  5
5EF
100
AcDbEntity
  8
0
100
AcDbPolyline
 62
7
  6
CONTINUOUS
 90
12
 70
0
 10
16.5645740188
 20
6.841880027
 10
16.5779837481
 20
6.8275928797
 10
16.6394836311
 20
6.7804086944
 10
16.710874129
 20
6.7406025131
 10
16.7904055886
 20
6.7091754394
 10
16.8761288365
 20
6.6869232202
 10
16.9659429496
 20
6.6744167428
 10
17.0576467449
 20
6.6719880443
 10
17.1489927269
 20
6.679722173
 10
17.2377421695
 20
6.6974551049
 10
17.3217199827
 20
6.7247777632
 10
17.3988680211
 20
6.7610460439
  0
LINE
  5
5F0
100
AcDbEntity
  8
0
100
AcDbLine
 62
7
  6
CONTINUOUS
 10
16.5735655675
 20
6.8375895297
 11
16.5779837481
 21
6.8328822611
  0
LINE
  5
5F1
100
AcDbEntity
  8
0
100
AcDbLine
 62
7
  6
CONTINUOUS
 10
16.2159329273
 20
7.2601288233
 11
16.1420897782
 21
7.3562968744
  0
LWPOLYLINE
  5
5F2
100
AcDbEntity
  8
0
100
AcDbPolyline
 62
7
  6
CONTINUOUS
 90
6
 70
0
 10
16.4904054927
 20
6.813940883
 10
16.5278817317
 20
6.7556983203
 10
16.5779837481
 20
6.7023180563
 10
16.6394836311
 20
6.6551338709
 10
16.710874129
 20
6.6153276896
 10
16.7904055886
 20
6.583900616
  0
LWPOLYLINE
  5
5F3
100
AcDbEntity
  8
0
100
AcDbPolyline
 62
7
  6
CONTINUOUS
 90
6
 70
0
 10
16.4904054927
 20
6.8192302644
 10
16.5278817317
 20
6.7609877017
 10
16.5779837481
 20
6.7076074377
 10
16.6394836311
 20
6.6604232524
 10
16.710874129
 20
6.6206170711
 10
16.7904055886
 20
6.5891899974
  0
LWPOLYLINE
  5
5F4
100
AcDbEntity
  8
0
100
AcDbPolyline
 62
7
  6
CONTINUOUS
 90
13
 70
0
 10
16.4904054927
 20
6.8556991575
 10
16.5278817317
 20
6.7974565948
 10
16.5779837481
 20
6.7440763307
 10
16.6394836311
 20
6.6968921454
 10
16.710874129
 20
6.6570859641
 10
16.7904055886
 20
6.6256588905
 10
16.8761288365
 20
6.6034066712
 10
16.9659429496
 20
6.5909001939
 10
17.0576467449
 20
6.5884714953
 10
17.1489927269
 20
6.596205624
 10
17.2377421695
 20
6.6139385559
 10
17.3217199827
 20
6.6412612142
 10
17.3988680211
 20
6.677529495
  0
LWPOLYLINE
  5
5F5
100
AcDbEntity
  8
0
100
AcDbPolyline
 62
7
  6
CONTINUOUS
 90
4
 70
0
 10
16.0591971884
 20
11.3053304107
 10
16.0720125226
 20
11.4017353085
 10
16.1026820769
 20
11.496564607
 10
16.1510691171
 20
11.5880714781
  0
LWPOLYLINE
  5
5F6
100
AcDbEntity
  8
0
100
AcDbPolyline
 62
7
  6
CONTINUOUS
 90
15
 70
0
 10
16.5499367748
 20
7.4118302722
 10
16.6896172025
 20
7.3647198865
 10
16.8380002451
 20
7.33364038
 10
16.9914322195
 20
7.3193570333
 10
17.1461351214
 20
7.3222215497
 10
17.2982996519
 20
7.3421633955
 10
17.4441790153
 20
7.3786915362
 10
17.5801811774
 20
7.4309065276
 10
17.7029573137
 20
7.4975226635
 10
17.8094842683
 20
7.5768996335
 10
17.8971389939
 20
7.6670829132
 10
17.9637631403
 20
7.7658518908
 10
18.0077161999
 20
7.8707745464
 10
18.0279159026
 20
7.979267336
 10
18.0292674834
 20
8.0157645051
  0
LWPOLYLINE
  5
5F7
100
AcDbEntity
  8
0
100
AcDbPolyline
 62
7
  6
CONTINUOUS
 90
8
 70
0
 10
16.5499367748
 20
7.4118302722
 10
16.4223983576
 20
7.4738115231
 10
16.3101423701
 20
7.549137455
 10
16.2159329273
 20
7.6359532936
 10
16.1420897782
 20
7.7321213447
 10
16.0904311863
 20
7.8352736317
 10
16.0622291575
 20
7.9428702031
 10
16.0568265386
 20
8.0157645051
  0
LWPOLYLINE
  5
5F8
100
AcDbEntity
  8
0
100
AcDbPolyline
 62
7
  6
CONTINUOUS
 90
13
 70
0
 10
16.5081721425
 20
6.8698459309
 10
16.5278817317
 20
6.8392148693
 10
16.5779837481
 20
6.7858346052
 10
16.6394836311
 20
6.7386504199
 10
16.710874129
 20
6.6988442386
 10
16.7904055886
 20
6.667417165
 10
16.8761288365
 20
6.6451649457
 10
16.9659429496
 20
6.6326584684
 10
17.0576467449
 20
6.6302297698
 10
17.1489927269
 20
6.6379638985
 10
17.2377421695
 20
6.6556968304
 10
17.3217199827
 20
6.6830194887
 10
17.3988680211
 20
6.7192877694
  0
LWPOLYLINE
  5
5F9
100
AcDbEntity
  8
0
100
AcDbPolyline
 62
7
  6
CONTINUOUS
 90
12
 70
0
 10
16.513933966
 20
6.8661807488
 10
16.5278817317
 20
6.8445042507
 10
16.5779837481
 20
6.7911239867
 10
16.6394836311
 20
6.7439398013
 10
16.710874129
 20
6.70413362
 10
16.7904055886
 20
6.6727065464
 10
16.8761288365
 20
6.6504543271
 10
16.9659429496
 20
6.6379478498
 10
17.0576467449
 20
6.6355191512
 10
17.1489927269
 20
6.6432532799
 10
17.2377421695
 20
6.6609862119
 10
17.3217199827
 20
6.6883088701
  0
LINE
  5
5FA
100
AcDbEntity
  8
0
100
AcDbLine
 62
7
  6
CONTINUOUS
 10
16.1420897782
 20
7.3562968744
 11
16.0904311863
 21
7.4594491614
  0
LWPOLYLINE
  5
5FB
100
AcDbEntity
  8
AXIS
100
AcDbPolyline
 62
7
  6
CONTINUOUS
 90
9
 70
0
 10
16.1817825518
 20
7.2579938381
 10
16.1939262898
 20
7.2220839621
 10
16.2261882519
 20
7.1582132815
 10
16.2680271361
 20
7.0971834951
 10
16.3189524198
 20
7.0397101213
 10
16.3783670504
 20
6.986466983
 10
16.4455744459
 20
6.9380783073
 10
16.5197866609
 20
6.895111407
 10
16.6001336252
 20
6.85807003
  0
LINE
  5
5FC
100
AcDbEntity
  8
0
100
AcDbLine
 62
7
  6
CONTINUOUS
 10
16.4772878617
 20
6.889491884
 11
16.4904054927
 21
6.8556991575
  0
LWPOLYLINE
  5
5FD
100
AcDbEntity
  8
0
100
AcDbPolyline
 62
7
  6
CONTINUOUS
 90
13
 70
0
 10
16.4800143254
 20
6.8877575396
 10
16.4904054927
 20
6.8609885389
 10
16.5278817317
 20
6.8027459762
 10
16.5779837481
 20
6.7493657122
 10
16.6394836311
 20
6.7021815269
 10
16.710874129
 20
6.6623753456
 10
16.7904055886
 20
6.6309482719
 10
16.8761288365
 20
6.6086960527
 10
16.9659429496
 20
6.5961895753
 10
17.0576467449
 20
6.5937608767
 10
17.1489927269
 20
6.6014950055
 10
17.2377421695
 20
6.6192279374
 10
17.3217199827
 20
6.6465505956
  0
LWPOLYLINE
  5
5FE
100
AcDbEntity
  8
0
100
AcDbPolyline
 62
7
  6
CONTINUOUS
 90
3
 70
0
 10
16.0904311863
 20
7.4594491614
 10
16.0622291575
 20
7.5670457328
 10
16.0568265386
 20
7.6399400347
  0
LWPOLYLINE
  5
5FF
100
AcDbEntity
  8
0
100
AcDbPolyline
 62
7
  6
CONTINUOUS
 90
9
 70
0
 10
16.0591986063
 20
11.3053303822
 10
16.0628726306
 20
11.2221518477
 10
16.0841902594
 20
11.1283615117
 10
16.1233675374
 20
11.037504338
 10
16.1796777316
 20
10.9512627232
 10
16.2520737118
 20
10.8712434945
 10
16.3391965196
 20
10.7989466861
 10
16.4394396486
 20
10.7357056033
 10
16.5509210267
 20
10.6827086215
  0
LINE
  5
600
100
AcDbEntity
  8
0
100
AcDbLine
 62
7
  6
CONTINUOUS
 10
16.0500829256
 20
7.6054559722
 11
16.0489525228
 21
7.6389684812
  0
LINE
  5
601
100
AcDbEntity
  8
AXIS
100
AcDbLine
 62
7
  6
CONTINUOUS
 10
16.0587950425
 20
9.8937505457
 11
16.0595950292
 21
9.8656958054
  0
LINE
  5
602
100
AcDbEntity
  8
0
100
AcDbLine
 62
7
  6
CONTINUOUS
 10
16.0587950425
 20
10.7586412428
 11
16.0593769246
 21
10.7347132397
  0
LWPOLYLINE
  5
603
100
AcDbEntity
  8
AXIS
100
AcDbPolyline
 62
7
  6
CONTINUOUS
 90
12
 70
0
 10
16.0489544634
 20
7.6079253576
 10
16.0495196627
 20
7.5841844679
 10
16.0580138251
 20
7.513232501
 10
16.076615761
 20
7.443252211
 10
16.1051345892
 20
7.3749616903
 10
16.1432776682
 20
7.3090616921
 10
16.1906535981
 20
7.2462284395
 10
16.246776238
 20
7.1871066868
 10
16.3110696934
 20
7.1323031031
 10
16.3828742267
 20
7.0823800473
 10
16.4614530262
 20
7.0378497976
 10
16.5459997669
 20
6.9991692946
  0
LWPOLYLINE
  5
604
100
AcDbEntity
  8
0
100
AcDbPolyline
 62
7
  6
CONTINUOUS
 90
25
 70
0
 10
16.0587950425
 20
10.1978041013
 10
16.0592905093
 20
10.1757237609
 10
16.0616257653
 20
10.1450581249
 10
16.065871925
 20
10.1144950716
 10
16.0720206694
 20
10.084094424
 10
16.0800601248
 20
10.0539149174
 10
16.0899745175
 20
10.0240157824
 10
16.1017447003
 20
9.9944547746
 10
16.115347645
 20
9.965289775
 10
16.1307569236
 20
9.9365774431
 10
16.1479426453
 20
9.9083735293
 10
16.1668709154
 20
9.8807336147
 10
16.1875054494
 20
9.8537106737
 10
16.2098053676
 20
9.8273582205
 10
16.2337279714
 20
9.8017266912
 10
16.2592260126
 20
9.7768667069
 10
16.2862504063
 20
9.7528261038
 10
16.3147481842
 20
9.7296520126
 10
16.344663957
 20
9.7073894567
 10
16.375939757
 20
9.6860815939
 10
16.4085139608
 20
9.6657703873
 10
16.4423227784
 20
9.6464955063
 10
16.4772861811
 20
9.6283014144
 10
16.5135002098
 20
9.6111474203
 10
16.5509210267
 20
9.5950753261
  0
LWPOLYLINE
  5
605
100
AcDbEntity
  8
0
100
AcDbPolyline
 62
7
  6
CONTINUOUS
 90
27
 70
0
 10
16.1284528967
 20
10.3100918182
 10
16.1284411521
 20
10.3111984516
 10
16.1285721275
 20
10.3125098994
 10
16.1288792525
 20
10.314019174
 10
16.1293858645
 20
10.3157163634
 10
16.1301019742
 20
10.3175798781
 10
16.131023628
 20
10.3195801982
 10
16.1321299039
 20
10.3216746013
 10
16.1333672247
 20
10.323783586
 10
16.1347686973
 20
10.3259802396
 10
16.136473763
 20
10.3284653014
 10
16.1385480311
 20
10.3312941807
 10
16.1409857423
 20
10.3344245356
 10
16.1437572195
 20
10.3377984462
 10
16.1468022606
 20
10.3413366426
 10
16.1500438011
 20
10.3449550361
 10
16.1534240451
 20
10.3486007547
 10
16.1569204651
 20
10.3522616581
 10
16.1605153137
 20
10.3559295286
 10
16.1641824971
 20
10.3595867396
 10
16.1678857586
 20
10.3632054578
 10
16.1715891383
 20
10.3667583506
 10
16.1752608196
 20
10.3702218993
 10
16.1788748742
 20
10.3735776485
 10
16.1824104485
 20
10.3768108905
 10
16.185849476
 20
10.3799088218
 10
16.1891764408
 20
10.3828593956
  0
LINE
  5
606
100
AcDbEntity
  8
AXIS
100
AcDbLine
 62
7
  6
CONTINUOUS
 10
16.0489525228
 20
7.6389684812
 11
16.0489525228
 21
7.6079253576
  0
LINE
  5
607
100
AcDbEntity
  8
0
100
AcDbLine
 62
7
  6
CONTINUOUS
 10
16.0568265386
 20
7.6399400347
 11
16.0568265386
 21
8.0157645051
  0
LINE
  5
608
100
AcDbEntity
  8
AXIS
100
AcDbLine
 62
7
  6
CONTINUOUS
 10
16.0568265386
 20
8.7729812156
 11
16.0568265386
 21
9.1488056859
  0
LINE
  5
609
100
AcDbEntity
  8
AXIS
100
AcDbLine
 62
7
  6
CONTINUOUS
 10
16.0587950425
 20
11.2854373968
 11
16.0587950425
 21
10.7586412428
  0
LINE
  5
60A
100
AcDbEntity
  8
AXIS
100
AcDbLine
 62
7
  6
CONTINUOUS
 10
16.0587950425
 20
7.9892046603
 11
16.0587950425
 21
8.7464213708
  0
LINE
  5
60B
100
AcDbEntity
  8
AXIS
100
AcDbLine
 62
7
  6
CONTINUOUS
 10
16.0587950425
 20
9.1222458412
 11
16.0587950425
 21
10.1978041013
  0
LINE
  5
60C
100
AcDbEntity
  8
AXIS
100
AcDbLine
 62
7
  6
CONTINUOUS
 10
16.0827106748
 20
10.5973443485
 11
16.0827106748
 21
10.4659690647
  0
LWPOLYLINE
  5
60D
100
AcDbEntity
  8
0
100
AcDbPolyline
 62
7
  6
CONTINUOUS
 90
24
 70
0
 10
16.0827106748
 20
10.4659688079
 10
16.0826718314
 20
10.4610650788
 10
16.0825304206
 20
10.4550036805
 10
16.0822692123
 20
10.4481646022
 10
16.0818753914
 20
10.4405784029
 10
16.0813407258
 20
10.4322842154
 10
16.0806616028
 20
10.4233291663
 10
16.0798394448
 20
10.4137719174
 10
16.078881543
 20
10.4036900738
 10
16.0778004375
 20
10.3931722162
 10
16.0766127059
 20
10.3823099693
 10
16.0753374502
 20
10.3711908059
 10
16.0739961665
 20
10.3599038035
 10
16.0726108789
 20
10.3485298081
 10
16.0712029149
 20
10.3371373994
 10
16.0697938325
 20
10.3257949086
 10
16.0684042138
 20
10.314563987
 10
16.0670528124
 20
10.303495491
 10
16.0657570096
 20
10.2926346008
 10
16.0645284458
 20
10.2819828493
 10
16.0633771077
 20
10.2715266366
 10
16.0623144343
 20
10.2612584185
 10
16.0613541284
 20
10.251178598
 10
16.0605547459
 20
10.2418262642
  0
LWPOLYLINE
  5
60E
100
AcDbEntity
  8
0
100
AcDbPolyline
 62
7
  6
CONTINUOUS
 90
4
 70
0
 10
16.0587950425
 20
10.1978041013
 10
16.0589905472
 20
10.2124838064
 10
16.0595771125
 20
10.2271597335
 10
16.0605548752
 20
10.241827881
  0
LINE
  5
60F
100
AcDbEntity
  8
0
100
AcDbLine
 62
7
  6
CONTINUOUS
 10
16.0587951164
 20
11.2854373968
 11
16.0592194953
 21
11.3054982175
  0
LWPOLYLINE
  5
610
100
AcDbEntity
  8
AXIS
100
AcDbPolyline
 62
7
  6
CONTINUOUS
 90
3
 70
0
 10
16.0568265386
 20
9.1488056859
 10
16.0581781194
 20
9.185302855
 10
16.0587950425
 20
9.1886163544
  0
LWPOLYLINE
  5
611
100
AcDbEntity
  8
0
100
AcDbPolyline
 62
7
  6
CONTINUOUS
 90
3
 70
0
 10
16.0568265386
 20
8.0157645051
 10
16.0581781194
 20
8.0522616741
 10
16.0587950425
 20
8.0555751736
  0
LWPOLYLINE
  5
612
100
AcDbEntity
  8
0
100
AcDbPolyline
 62
7
  6
CONTINUOUS
 90
26
 70
0
 10
16.1284528966
 20
10.3100918182
 10
16.1270601398
 20
10.2815264593
 10
16.1274508713
 20
10.252945374
 10
16.129624321
 20
10.224404454
 10
16.1335762729
 20
10.1959590098
 10
16.1392990081
 20
10.1676646174
 10
16.1467814092
 20
10.1395762306
 10
16.1560089202
 20
10.1117485333
 10
16.1669635273
 20
10.0842358457
 10
16.1796240625
 20
10.0570913834
 10
16.1939655989
 20
10.0303685836
 10
16.2099606892
 20
10.0041186373
 10
16.227577414
 20
9.978393896
 10
16.2467823357
 20
9.9532431669
 10
16.2675371363
 20
9.9287166204
 10
16.2898022773
 20
9.9048609521
 10
16.3135336491
 20
9.8817234261
 10
16.3386856435
 20
9.8593484862
 10
16.3652089357
 20
9.8377800241
 10
16.3930519615
 20
9.817059952
 10
16.4221608133
 20
9.7972284063
 10
16.4524780129
 20
9.7783245218
 10
16.4839446905
 20
9.7603849317
 10
16.5164853469
 20
9.7434515825
 10
16.5501902818
 20
9.7274861043
 10
16.5850183735
 20
9.7125275753
  0
LINE
  5
613
100
AcDbEntity
  8
0
100
AcDbLine
 62
7
  6
CONTINUOUS
 10
16.0489525228
 20
7.6389684812
 11
16.0534456431
 21
7.705725444
  0
LWPOLYLINE
  5
614
100
AcDbEntity
  8
0
100
AcDbPolyline
 62
7
  6
CONTINUOUS
 90
16
 70
0
 10
16.2019101043
 20
10.3293035252
 10
16.2021888961
 20
10.3323541177
 10
16.2022871269
 20
10.3356484154
 10
16.2022037467
 20
10.3391512093
 10
16.2019396468
 20
10.3428250621
 10
16.2014976499
 20
10.3466307081
 10
16.2008824798
 20
10.3505274732
 10
16.2001007115
 20
10.3544737092
 10
16.1991607005
 20
10.3584272393
 10
16.1980724933
 20
10.3623458088
 10
16.1968477206
 20
10.3661875366
 10
16.1954994727
 20
10.3699113627
 10
16.1940421593
 20
10.3734774875
 10
16.1924913561
 20
10.3768477967
 10
16.1908636378
 20
10.379986269
 10
16.1891764013
 20
10.3828593608
  0
LWPOLYLINE
  5
615
100
AcDbEntity
  8
0
100
AcDbPolyline
 62
7
  6
CONTINUOUS
 90
11
 70
0
 10
17.5657575094
 20
10.1384357399
 10
17.5666144816
 20
10.1388595795
 10
17.5695045705
 20
10.140764191
 10
17.5720943116
 20
10.1432609297
 10
17.5743690896
 20
10.1463357051
 10
17.5763160666
 20
10.1499711646
 10
17.5779242551
 20
10.1541467919
 10
17.5791845786
 20
10.15883902
 10
17.580089925
 20
10.16402137
 10
17.5806351846
 20
10.1696645941
 10
17.5808172804
 20
10.1757368447
  0
LWPOLYLINE
  5
616
100
AcDbEntity
  8
0
100
AcDbPolyline
 62
7
  6
CONTINUOUS
 90
11
 70
0
 10
17.5657574409
 20
10.1384357083
 10
17.5688532989
 20
10.1398160491
 10
17.571963156
 20
10.1411011084
 10
17.5747168152
 20
10.1421452465
 10
17.5771116671
 20
10.1429722199
 10
17.5791440848
 20
10.1436050395
 10
17.5808070313
 20
10.1440659419
 10
17.5820972012
 20
10.144378896
 10
17.5830099417
 20
10.1445681952
 10
17.5835366433
 20
10.1446587316
 10
17.5836619722
 20
10.1446764932
  0
LWPOLYLINE
  5
617
100
AcDbEntity
  8
0
100
AcDbPolyline
 62
7
  6
CONTINUOUS
 90
24
 70
0
 10
17.5808172804
 20
10.1757368447
 10
17.590925317
 20
10.18019786
 10
17.600978682
 20
10.1842235376
 10
17.6109585725
 20
10.1877914618
 10
17.620842398
 20
10.1908728512
 10
17.6305738071
 20
10.1934252903
 10
17.6400087693
 20
10.1953912531
 10
17.6490420905
 20
10.1967404183
 10
17.6576290257
 20
10.1974638746
 10
17.6657347592
 20
10.1975583788
 10
17.6733293815
 20
10.1970252868
 10
17.6803875858
 20
10.1958707178
 10
17.6868892266
 20
10.1941055951
 10
17.6928199599
 20
10.19174519
 10
17.6981701513
 20
10.1888089061
 10
17.7029347625
 20
10.1853198193
 10
17.7071143808
 20
10.1813025716
 10
17.7107126397
 20
10.1767833485
 10
17.7137357162
 20
10.1717888614
 10
17.7161928988
 20
10.1663417224
 10
17.7180920632
 20
10.1604649572
 10
17.7194387987
 20
10.154189279
 10
17.7202401903
 20
10.1475484009
 10
17.720505088
 20
10.1405772103
  0
LWPOLYLINE
  5
618
100
AcDbEntity
  8
0
100
AcDbPolyline
 62
7
  6
CONTINUOUS
 90
48
 70
0
 10
17.5657575094
 20
10.1384357399
 10
17.5270482297
 20
10.1214808427
 10
17.4873730161
 20
10.105874684
 10
17.4468060285
 20
10.0916385336
 10
17.4053514445
 20
10.0787720176
 10
17.3632064001
 20
10.0673330042
 10
17.3204435228
 20
10.0573327424
 10
17.2771165812
 20
10.0487787363
 10
17.2333668145
 20
10.0416933971
 10
17.189251394
 20
10.0360799854
 10
17.1448444204
 20
10.0319449568
 10
17.1002567173
 20
10.0292958773
 10
17.0555643797
 20
10.0281346496
 10
17.0108515929
 20
10.0284623212
 10
16.9662046434
 20
10.0302780758
 10
16.9217245552
 20
10.0335777222
 10
16.8774804179
 20
10.0383569986
 10
16.8335470269
 20
10.0446109638
 10
16.7900625422
 20
10.052321779
 10
16.7470595876
 20
10.0614863209
 10
16.7046154354
 20
10.0720948865
 10
16.6629056483
 20
10.0841065433
 10
16.6219154211
 20
10.0975297196
 10
16.5817497732
 20
10.1123395464
 10
16.5425764457
 20
10.128477785
 10
16.5043699215
 20
10.1459606003
 10
16.4672601897
 20
10.1647386549
 10
16.4313887856
 20
10.1847426961
 10
16.3967307438
 20
10.2059922571
 10
16.3634377663
 20
10.2284019883
 10
16.3316132934
 20
10.2518997636
 10
16.3012379709
 20
10.2765021508
 10
16.272469822
 20
10.3020816381
 10
16.2453715206
 20
10.3285696395
 10
16.2199258927
 20
10.355976778
 10
16.196270968
 20
10.3841425842
 10
16.1744374124
 20
10.4130013615
 10
16.1544018636
 20
10.4425638416
 10
16.1362571472
 20
10.4726669171
 10
16.1200195929
 20
10.5032349592
 10
16.1056579737
 20
10.5342886444
 10
16.0932147957
 20
10.5656988711
 10
16.0827031673
 20
10.5973669665
 10
16.0740930532
 20
10.6293271704
 10
16.0673952309
 20
10.6615038935
 10
16.0626183891
 20
10.693788781
 10
16.059750932
 20
10.7261884814
 10
16.0587950425
 20
10.7586412428
  0
LWPOLYLINE
  5
619
100
AcDbEntity
  8
0
100
AcDbPolyline
 62
7
  6
CONTINUOUS
 90
14
 70
0
 10
16.4566723027
 20
6.8191321201
 10
16.4664735063
 20
6.7556073561
 10
16.4904054927
 20
6.693955441
 10
16.5278817317
 20
6.6357128783
 10
16.5779837481
 20
6.5823326143
 10
16.6394836311
 20
6.5351484289
 10
16.710874129
 20
6.4953422476
 10
16.7904055886
 20
6.463915174
 10
16.8761288365
 20
6.4416629547
 10
16.9659429496
 20
6.4291564774
 10
17.0576467449
 20
6.4267277788
 10
17.1489927269
 20
6.4344619075
 10
17.2377421695
 20
6.4521948395
 10
17.3217199827
 20
6.4795174977
  0
LWPOLYLINE
  5
61A
100
AcDbEntity
  8
0
100
AcDbPolyline
 62
7
  6
CONTINUOUS
 90
15
 70
0
 10
16.4604053279
 20
6.8314060719
 10
16.4664735063
 20
6.7920762491
 10
16.4904054927
 20
6.7304243341
 10
16.5278817317
 20
6.6721817714
 10
16.5779837481
 20
6.6188015073
 10
16.6394836311
 20
6.571617322
 10
16.710874129
 20
6.5318111407
 10
16.7904055886
 20
6.500384067
 10
16.8761288365
 20
6.4781318478
 10
16.9659429496
 20
6.4656253704
 10
17.0576467449
 20
6.4631966719
 10
17.1489927269
 20
6.4709308006
 10
17.2377421695
 20
6.4886637325
 10
17.3217199827
 20
6.5159863908
 10
17.3988680211
 20
6.5522546715
  0
LWPOLYLINE
  5
61B
100
AcDbEntity
  8
0
100
AcDbPolyline
 62
7
  6
CONTINUOUS
 90
14
 70
0
 10
16.4566723027
 20
6.8608903946
 10
16.4664735063
 20
6.7973656305
 10
16.4904054927
 20
6.7357137155
 10
16.5278817317
 20
6.6774711528
 10
16.5779837481
 20
6.6240908887
 10
16.6394836311
 20
6.5769067034
 10
16.710874129
 20
6.5371005221
 10
16.7904055886
 20
6.5056734485
 10
16.8761288365
 20
6.4834212292
 10
16.9659429496
 20
6.4709147519
 10
17.0576467449
 20
6.4684860533
 10
17.1489927269
 20
6.476220182
 10
17.2377421695
 20
6.4939531139
 10
17.3217199827
 20
6.5212757722
  0
LWPOLYLINE
  5
61C
100
AcDbEntity
  8
0
100
AcDbPolyline
 62
7
  6
CONTINUOUS
 90
15
 70
0
 10
16.4604053279
 20
6.8731643463
 10
16.4664735063
 20
6.8338345236
 10
16.4904054927
 20
6.7721826085
 10
16.5278817317
 20
6.7139400458
 10
16.5779837481
 20
6.6605597818
 10
16.6394836311
 20
6.6133755965
 10
16.710874129
 20
6.5735694152
 10
16.7904055886
 20
6.5421423415
 10
16.8761288365
 20
6.5198901223
 10
16.9659429496
 20
6.5073836449
 10
17.0576467449
 20
6.5049549463
 10
17.1489927269
 20
6.5126890751
 10
17.2377421695
 20
6.530422007
 10
17.3217199827
 20
6.5577446652
 10
17.3988680211
 20
6.594012946
  0
LWPOLYLINE
  5
61D
100
AcDbEntity
  8
0
100
AcDbPolyline
 62
7
  6
CONTINUOUS
 90
14
 70
0
 10
16.4566723027
 20
6.902648669
 10
16.4664735063
 20
6.839123905
 10
16.4904054927
 20
6.77747199
 10
16.5278817317
 20
6.7192294273
 10
16.5779837481
 20
6.6658491632
 10
16.6394836311
 20
6.6186649779
 10
16.710874129
 20
6.5788587966
 10
16.7904055886
 20
6.5474317229
 10
16.8761288365
 20
6.5251795037
 10
16.9659429496
 20
6.5126730264
 10
17.0576467449
 20
6.5102443278
 10
17.1489927269
 20
6.5179784565
 10
17.2377421695
 20
6.5357113884
 10
17.3217199827
 20
6.5630340467
  0
LWPOLYLINE
  5
61E
100
AcDbEntity
  8
0
100
AcDbPolyline
 62
7
  6
CONTINUOUS
 90
3
 70
0
 10
16.4629187552
 20
6.8986322877
 10
16.4664735063
 20
6.8755927981
 10
16.4904054927
 20
6.813940883
  0
LWPOLYLINE
  5
61F
100
AcDbEntity
  8
0
100
AcDbPolyline
 62
7
  6
CONTINUOUS
 90
3
 70
0
 10
16.4638236642
 20
6.8980566615
 10
16.4664735063
 20
6.8808821795
 10
16.4904054927
 20
6.8192302644
  0
LWPOLYLINE
  5
620
100
AcDbEntity
  8
0
100
AcDbPolyline
 62
7
  6
CONTINUOUS
 90
48
 70
0
 10
16.0593769246
 20
10.7347132397
 10
16.0618940446
 20
10.7034561267
 10
16.0663966093
 20
10.6723106854
 10
16.0728755072
 20
10.6413399411
 10
16.0813176279
 20
10.6106065658
 10
16.091705888
 20
10.5801727509
 10
16.104019266
 20
10.5501000819
 10
16.1182328447
 20
10.5204494133
 10
16.1343178618
 20
10.4912807457
 10
16.1522417679
 20
10.4626531043
 10
16.1719682925
 20
10.4346244194
 10
16.1934575174
 20
10.4072514096
 10
16.2166659572
 20
10.3805894663
 10
16.2415466479
 20
10.3546925423
 10
16.2680492412
 20
10.329613042
 10
16.2961201069
 20
10.305401716
 10
16.3257024413
 20
10.2821075578
 10
16.3567363822
 20
10.2597777052
 10
16.3891591297
 20
10.2384573445
 10
16.4229050737
 20
10.2181896192
 10
16.4579059265
 20
10.1990155426
 10
16.494090861
 20
10.1809739152
 10
16.5313866539
 20
10.1641012457
 10
16.569717834
 20
10.1484316773
 10
16.6090068351
 20
10.1339969188
 10
16.6491741526
 20
10.1208261799
 10
16.6901385045
 20
10.108946113
 10
16.7318169962
 20
10.0983807581
 10
16.7741252879
 20
10.0891514952
 10
16.8169777649
 20
10.0812770006
 10
16.8602877118
 20
10.0747732088
 10
16.9039674874
 20
10.0696532808
 10
16.947928702
 20
10.0659275773
 10
16.9920823963
 20
10.0636036376
 10
17.0363392218
 20
10.0626861642
 10
17.0806096211
 20
10.0631770138
 10
17.1248040093
 20
10.0650751931
 10
17.1688329554
 20
10.068376861
 10
17.2126073632
 20
10.0730753363
 10
17.2560386516
 20
10.0791611112
 10
17.2990389336
 20
10.0866218707
 10
17.3415211947
 20
10.0954425173
 10
17.3833994684
 20
10.1056052016
 10
17.4245890107
 20
10.1170893587
 10
17.4650064709
 20
10.1298717494
 10
17.5045700611
 20
10.1439265075
 10
17.5431997211
 20
10.159225192
 10
17.5808172804
 20
10.1757368447
  0
LINE
  5
621
100
AcDbEntity
  8
0
100
AcDbLine
 62
7
  6
CONTINUOUS
 10
16.1891763767
 20
10.3828594001
 11
16.1891763767
 21
10.3935199497
  0
LINE
  5
622
100
AcDbEntity
  8
0
100
AcDbLine
 62
7
  6
CONTINUOUS
 10
16.0534456431
 20
7.705725444
 11
16.0587950425
 21
7.7282312303
  0
LINE
  5
623
100
AcDbEntity
  8
0
100
AcDbLine
 62
7
  6
CONTINUOUS
 10
17.8954342194
 20
10.9374517761
 11
17.8724967735
 21
10.9107608503
  0
LWPOLYLINE
  5
624
100
AcDbEntity
  8
0
100
AcDbPolyline
 62
7
  6
CONTINUOUS
 90
35
 70
0
 10
17.8724967735
 20
10.9107608503
 10
17.847888926
 20
10.8848244731
 10
17.8216602341
 20
10.859694877
 10
17.7938635187
 20
10.8354226697
 10
17.7645547589
 20
10.8120567322
 10
17.7337929784
 20
10.7896441203
 10
17.7016401275
 20
10.7682299701
 10
17.6681609577
 20
10.7478574069
 10
17.6334228916
 20
10.7285674582
 10
17.597495887
 20
10.7103989714
 10
17.5604522962
 20
10.6933885355
 10
17.5223667201
 20
10.6775704072
 10
17.4833158578
 20
10.6629764422
 10
17.4433783526
 20
10.6496360306
 10
17.4026346334
 20
10.6375760384
 10
17.3611667526
 20
10.6268207528
 10
17.3190582209
 20
10.6173918334
 10
17.2763938395
 20
10.6093082689
 10
17.2332595285
 20
10.6025863385
 10
17.1897421549
 20
10.5972395792
 10
17.1459293567
 20
10.5932787588
 10
17.1019093672
 20
10.5907118537
 10
17.0577708368
 20
10.5895440334
 10
17.0136026545
 20
10.5897776497
 10
16.9694937693
 20
10.5914122322
 10
16.9255330105
 20
10.594444489
 10
16.8818089092
 20
10.5988683136
 10
16.83840952
 20
10.6046747969
 10
16.7954222435
 20
10.6118522455
 10
16.7529336504
 20
10.620386205
 10
16.7110293069
 20
10.630259489
 10
16.6697936029
 20
10.6414522142
 10
16.6293095816
 20
10.6539418398
 10
16.5896587724
 20
10.6677032135
 10
16.5509210267
 20
10.6827086215
  0
LWPOLYLINE
  5
625
100
AcDbEntity
  8
0
100
AcDbPolyline
 62
7
  6
CONTINUOUS
 90
16
 70
0
 10
17.4621435214
 20
9.8606678793
 10
17.4655109548
 20
9.862457063
 10
17.4689386049
 20
9.8643907768
 10
17.4723899169
 20
9.8664483984
 10
17.4758280835
 20
9.8686079839
 10
17.4792164378
 20
9.8708465018
 10
17.4825188439
 20
9.8731400791
 10
17.4857000826
 20
9.8754642555
 10
17.4887262271
 20
9.8777942442
 10
17.4915650043
 20
9.8801051967
 10
17.4941861395
 20
9.8823724673
 10
17.4965616792
 20
9.8845718763
 10
17.4986662888
 20
9.8866799676
 10
17.5004775234
 20
9.888674259
 10
17.5019760666
 20
9.890533482
 10
17.503145937
 20
9.8922378086
  0
LWPOLYLINE
  5
626
100
AcDbEntity
  8
AXIS
100
AcDbPolyline
 62
7
  6
CONTINUOUS
 90
15
 70
0
 10
16.5499367748
 20
8.1690469828
 10
16.6896172025
 20
8.1219365971
 10
16.8380002451
 20
8.0908570905
 10
16.9914322195
 20
8.0765737438
 10
17.1461351214
 20
8.0794382603
 10
17.2982996519
 20
8.0993801061
 10
17.4441790153
 20
8.1359082467
 10
17.5801811774
 20
8.1881232382
 10
17.7029573137
 20
8.2547393741
 10
17.8094842683
 20
8.3341163441
 10
17.8971389939
 20
8.4242996237
 10
17.9637631403
 20
8.5230686014
 10
18.0077161999
 20
8.627991257
 10
18.0279159026
 20
8.7364840465
 10
18.0292674834
 20
8.7729812156
  0
LWPOLYLINE
  5
627
100
AcDbEntity
  8
AXIS
100
AcDbPolyline
 62
7
  6
CONTINUOUS
 90
8
 70
0
 10
16.5499367748
 20
8.1690469828
 10
16.4223983576
 20
8.2310282337
 10
16.3101423701
 20
8.3063541656
 10
16.2159329273
 20
8.3931700041
 10
16.1420897782
 20
8.4893380552
 10
16.0904311863
 20
8.5924903423
 10
16.0622291575
 20
8.7000869137
 10
16.0568265386
 20
8.7729812156
  0
LINE
  5
628
100
AcDbEntity
  8
AXIS
100
AcDbLine
 62
7
  6
CONTINUOUS
 10
16.0595950292
 20
9.8656958054
 11
16.074927456
 21
9.7682585843
  0
LWPOLYLINE
  5
629
100
AcDbEntity
  8
0
100
AcDbPolyline
 62
7
  6
CONTINUOUS
 90
4
 70
0
 10
16.0641868778
 20
11.2126885925
 10
16.0605567258
 20
11.2438154255
 10
16.0589051785
 20
11.2750260797
 10
16.0587951164
 20
11.2854373968
  0
LINE
  5
62A
100
AcDbEntity
  8
AXIS
100
AcDbLine
 62
7
  6
CONTINUOUS
 10
16.5314245418
 20
9.2929437291
 11
16.531549064
 21
9.2885679735
  0
LWPOLYLINE
  5
62B
100
AcDbEntity
  8
0
100
AcDbPolyline
 62
7
  6
CONTINUOUS
 90
16
 70
0
 10
16.4564328378
 20
6.8255037769
 10
16.4566723027
 20
6.8138427387
 10
16.4664735063
 20
6.7503179746
 10
16.4904054927
 20
6.6886660596
 10
16.5278817317
 20
6.6304234969
 10
16.5779837481
 20
6.5770432328
 10
16.6394836311
 20
6.5298590475
 10
16.710874129
 20
6.4900528662
 10
16.7904055886
 20
6.4586257926
 10
16.8761288365
 20
6.4363735733
 10
16.9659429496
 20
6.423867096
 10
17.0576467449
 20
6.4214383974
 10
17.1489927269
 20
6.4291725261
 10
17.2377421695
 20
6.446905458
 10
17.3217199827
 20
6.4742281163
 10
17.3988680211
 20
6.510496397
  0
LINE
  5
62C
100
AcDbEntity
  8
0
100
AcDbLine
 62
7
  6
CONTINUOUS
 10
16.4564328378
 20
6.8307931584
 11
16.4566723027
 21
6.8191321201
  0
LINE
  5
62D
100
AcDbEntity
  8
0
100
AcDbLine
 62
7
  6
CONTINUOUS
 10
16.4564328378
 20
6.8725514328
 11
16.4566723027
 21
6.8608903946
  0
LWPOLYLINE
  5
62E
100
AcDbEntity
  8
AXIS
100
AcDbPolyline
 62
7
  6
CONTINUOUS
 90
4
 70
0
 10
16.5509210267
 20
9.2120807895
 10
16.5566146073
 20
9.2360883507
 10
16.5623298002
 20
9.2601224793
 10
16.5680663437
 20
9.2841829518
  0
LINE
  5
62F
100
AcDbEntity
  8
AXIS
100
AcDbLine
 62
7
  6
CONTINUOUS
 10
16.5509210267
 20
9.3697071198
 11
16.5315444195
 21
9.293220509
  0
LWPOLYLINE
  5
630
100
AcDbEntity
  8
0
100
AcDbPolyline
 62
7
  6
CONTINUOUS
 90
4
 70
0
 10
17.916655071
 20
10.9648434988
 10
17.9361165923
 20
10.9928808548
 10
17.9537795902
 20
11.0215073808
 10
17.9696084939
 20
11.0506654268
  0
LINE
  5
631
100
AcDbEntity
  8
0
100
AcDbLine
 62
7
  6
CONTINUOUS
 10
17.8954342194
 20
10.9374517761
 11
17.916655071
 21
10.9648434988
  0
LWPOLYLINE
  5
632
100
AcDbEntity
  8
0
100
AcDbPolyline
 62
7
  6
CONTINUOUS
 90
4
 70
0
 10
18.0001221246
 20
10.5962233182
 10
18.0028244373
 20
10.59877055
 10
18.004507192
 20
10.6014113291
 10
18.0049138369
 20
10.6025222552
  0
LWPOLYLINE
  5
633
100
AcDbEntity
  8
AXIS
100
AcDbPolyline
 62
7
  6
CONTINUOUS
 90
15
 70
0
 10
16.5499367748
 20
8.5448714531
 10
16.6896172025
 20
8.4977610674
 10
16.8380002451
 20
8.4666815609
 10
16.9914322195
 20
8.4523982141
 10
17.1461351214
 20
8.4552627306
 10
17.2982996519
 20
8.4752045764
 10
17.4441790153
 20
8.511732717
 10
17.5801811774
 20
8.5639477085
 10
17.7029573137
 20
8.6305638444
 10
17.8094842683
 20
8.7099408144
 10
17.8971389939
 20
8.800124094
 10
17.9637631403
 20
8.8988930717
 10
18.0077161999
 20
9.0038157273
 10
18.0279159026
 20
9.1123085169
 10
18.0292674834
 20
9.1488056859
  0
LWPOLYLINE
  5
634
100
AcDbEntity
  8
AXIS
100
AcDbPolyline
 62
7
  6
CONTINUOUS
 90
8
 70
0
 10
16.5499367748
 20
8.5448714531
 10
16.4223983576
 20
8.606852704
 10
16.3101423701
 20
8.6821786359
 10
16.2159329273
 20
8.7689944745
 10
16.1420897782
 20
8.8651625256
 10
16.0904311863
 20
8.9683148126
 10
16.0622291575
 20
9.075911384
 10
16.0568265386
 20
9.1488056859
  0
LINE
  5
635
100
AcDbEntity
  8
AXIS
100
AcDbLine
 62
7
  6
CONTINUOUS
 10
16.074927456
 20
9.7682585843
 11
16.1094703626
 21
9.6733116889
  0
LINE
  5
636
100
AcDbEntity
  8
0
100
AcDbLine
 62
7
  6
CONTINUOUS
 10
16.4579542568
 20
6.8890505295
 11
16.4564328378
 21
6.8725514328
  0
LINE
  5
637
100
AcDbEntity
  8
0
100
AcDbLine
 62
7
  6
CONTINUOUS
 10
16.4579542568
 20
6.8472922551
 11
16.4564328378
 21
6.8307931584
  0
LINE
  5
638
100
AcDbEntity
  8
AXIS
100
AcDbLine
 62
7
  6
CONTINUOUS
 10
16.1625382936
 20
9.5827390217
 11
16.2330782698
 21
9.4983377388
  0
LINE
  5
639
100
AcDbEntity
  8
AXIS
100
AcDbLine
 62
7
  6
CONTINUOUS
 10
16.1094703626
 20
9.6733116889
 11
16.1625382936
 21
9.5827390217
  0
LWPOLYLINE
  5
63A
100
AcDbEntity
  8
AXIS
100
AcDbPolyline
 62
7
  6
CONTINUOUS
 90
8
 70
0
 10
16.531549064
 20
9.2885679735
 10
16.5318814849
 20
9.2874864755
 10
16.5352752121
 20
9.2825746035
 10
16.5410785071
 20
9.2789671949
 10
16.5483983096
 20
9.2772171213
 10
16.5561109633
 20
9.2775948323
 10
16.5630231783
 20
9.2800436398
 10
16.5680663437
 20
9.2841829518
  0
LINE
  5
63B
100
AcDbEntity
  8
AXIS
100
AcDbLine
 62
7
  6
CONTINUOUS
 10
16.5509210267
 20
9.2120807895
 11
16.5315444195
 21
9.2885674003
  0
LWPOLYLINE
  5
63C
100
AcDbEntity
  8
0
100
AcDbPolyline
 62
7
  6
CONTINUOUS
 90
8
 70
0
 10
16.1314631342
 20
11.2738572454
 10
16.1513004773
 20
11.1866245281
 10
16.1877532678
 20
11.1021147288
 10
16.240142436
 20
11.0219023085
 10
16.3074907643
 20
10.9474829899
 10
16.3885451647
 20
10.88024141
 10
16.481799823
 20
10.8214286007
 10
16.585355782
 20
10.7722084559
  0
LWPOLYLINE
  5
63D
100
AcDbEntity
  8
0
100
AcDbPolyline
 62
7
  6
CONTINUOUS
 90
4
 70
0
 10
16.5680663437
 20
9.2839273202
 10
16.5623298151
 20
9.3124930032
 10
16.5566146366
 20
9.3410863408
 10
16.5509210267
 20
9.3697071198
  0
LINE
  5
63E
100
AcDbEntity
  8
02___PRT_ALL_AXES
100
AcDbLine
 62
7
  6
CONTINUOUS
 10
16.935547011
 20
6.4116768433
 11
16.935547011
 21
5.7346491645
  0
LWPOLYLINE
  5
63F
100
AcDbEntity
  8
0
100
AcDbPolyline
 62
7
  6
CONTINUOUS
 90
4
 70
0
 10
17.9696084939
 20
11.0506654268
 10
17.9835714261
 20
11.0802962722
 10
17.9956402673
 20
11.1103402445
 10
18.0057907125
 20
11.1407368393
  0
LWPOLYLINE
  5
640
100
AcDbEntity
  8
0
100
AcDbPolyline
 62
7
  6
CONTINUOUS
 90
16
 70
0
 10
17.5432442504
 20
9.8300635054
 10
17.5420727519
 20
9.8283574579
 10
17.5405718988
 20
9.8264962196
 10
17.5387577176
 20
9.8244996595
 10
17.536649598
 20
9.8223891167
 10
17.5342700711
 20
9.8201871484
 10
17.5316445692
 20
9.8179172887
 10
17.5288011531
 20
9.8156037978
 10
17.5257702129
 20
9.8132714018
 10
17.5225841428
 20
9.810945029
 10
17.5192769952
 20
9.8086495435
 10
17.5158841163
 20
9.806409479
 10
17.5124417687
 20
9.804248777
 10
17.5089867438
 20
9.8021905308
 10
17.5055559684
 20
9.8002567387
 10
17.5021861101
 20
9.7984680687
  0
LWPOLYLINE
  5
641
100
AcDbEntity
  8
AXIS
100
AcDbPolyline
 62
7
  6
CONTINUOUS
 90
4
 70
0
 10
16.2330782698
 20
9.4983377388
 10
16.31969056
 20
9.4217826537
 10
16.4206564835
 20
9.3545928838
 10
16.532914597
 20
9.2986291046
  0
LINE
  5
642
100
AcDbEntity
  8
02___PRT_ALL_AXES
100
AcDbLine
 62
7
  6
CONTINUOUS
 10
17.150547011
 20
6.4114383637
 11
17.150547011
 21
5.7346491645
  0
LINE
  5
643
100
AcDbEntity
  8
0
100
AcDbLine
 62
7
  6
CONTINUOUS
 10
17.912337423
 20
11.1299590726
 11
17.9432972404
 21
11.2155572795
  0
LWPOLYLINE
  5
644
100
AcDbEntity
  8
0
100
AcDbPolyline
 62
7
  6
CONTINUOUS
 90
11
 70
0
 10
17.4810015691
 20
9.9714935209
 10
17.4810256444
 20
9.9689407168
 10
17.4813883345
 20
9.96118698
 10
17.4822061519
 20
9.9531931311
 10
17.4835049607
 20
9.9449783321
 10
17.485311754
 20
9.9365643564
 10
17.4876541837
 20
9.9279776512
 10
17.4905522919
 20
9.9192711506
 10
17.4940870139
 20
9.9103473956
 10
17.4982887473
 20
9.9012882146
 10
17.503145937
 20
9.8922378086
  0
LINE
  5
645
100
AcDbEntity
  8
0
100
AcDbLine
 62
7
  6
CONTINUOUS
 10
17.3988680211
 20
6.510496397
 11
17.3988680211
 21
6.5157857785
  0
LINE
  5
646
100
AcDbEntity
  8
0
100
AcDbLine
 62
7
  6
CONTINUOUS
 10
17.3988680211
 20
6.5522546715
 11
17.3988680211
 21
6.557544053
  0
LINE
  5
647
100
AcDbEntity
  8
0
100
AcDbLine
 62
7
  6
CONTINUOUS
 10
17.3988680211
 20
6.594012946
 11
17.3988680211
 21
6.5993023274
  0
LINE
  5
648
100
AcDbEntity
  8
0
100
AcDbLine
 62
7
  6
CONTINUOUS
 10
17.3988680211
 20
6.6357712205
 11
17.3988680211
 21
6.6410606019
  0
LINE
  5
649
100
AcDbEntity
  8
0
100
AcDbLine
 62
7
  6
CONTINUOUS
 10
17.3988680211
 20
6.677529495
 11
17.3988680211
 21
6.6828188764
  0
LINE
  5
64A
100
AcDbEntity
  8
0
100
AcDbLine
 62
7
  6
CONTINUOUS
 10
17.3988680211
 20
6.7192877694
 11
17.3988680211
 21
6.7245771509
  0
LINE
  5
64B
100
AcDbEntity
  8
0
100
AcDbLine
 62
7
  6
CONTINUOUS
 10
17.3988680211
 20
6.7610460439
 11
17.3988680211
 21
6.7663354254
  0
LINE
  5
64C
100
AcDbEntity
  8
0
100
AcDbLine
 62
7
  6
CONTINUOUS
 10
17.442619845
 20
6.5335300878
 11
17.442619845
 21
6.5537882068
  0
LINE
  5
64D
100
AcDbEntity
  8
0
100
AcDbLine
 62
7
  6
CONTINUOUS
 10
17.4600112859
 20
6.7810775723
 11
17.4600112859
 21
6.7735396604
  0
LINE
  5
64E
100
AcDbEntity
  8
0
100
AcDbLine
 62
7
  6
CONTINUOUS
 10
17.4600112859
 20
6.7393192978
 11
17.4600112859
 21
6.731781386
  0
LINE
  5
64F
100
AcDbEntity
  8
0
100
AcDbLine
 62
7
  6
CONTINUOUS
 10
17.4600112859
 20
6.6975610233
 11
17.4600112859
 21
6.6900231115
  0
LINE
  5
650
100
AcDbEntity
  8
0
100
AcDbLine
 62
7
  6
CONTINUOUS
 10
17.4600112859
 20
6.6558027488
 11
17.4600112859
 21
6.648264837
  0
LINE
  5
651
100
AcDbEntity
  8
0
100
AcDbLine
 62
7
  6
CONTINUOUS
 10
17.4600112859
 20
6.6140444744
 11
17.4600112859
 21
6.6065065625
  0
LINE
  5
652
100
AcDbEntity
  8
0
100
AcDbLine
 62
7
  6
CONTINUOUS
 10
17.4703927031
 20
6.5598117395
 11
17.4703927031
 21
6.5838086375
  0
LINE
  5
653
100
AcDbEntity
  8
AXIS
100
AcDbLine
 62
7
  6
CONTINUOUS
 10
17.4810015691
 20
10.1036387557
 11
17.4810015691
 21
9.9714940623
  0
LINE
  5
654
100
AcDbEntity
  8
0
100
AcDbLine
 62
7
  6
CONTINUOUS
 10
17.503145937
 20
9.8922378086
 11
17.503145937
 21
10.112078928
  0
LWPOLYLINE
  5
655
100
AcDbEntity
  8
0
100
AcDbPolyline
 62
7
  6
CONTINUOUS
 90
12
 70
0
 10
17.4327027207
 20
9.9708381252
 10
17.4321742297
 20
9.9619165708
 10
17.4321909464
 20
9.9528204477
 10
17.4327721438
 20
9.9434251331
 10
17.4339502725
 20
9.9337585713
 10
17.4357590345
 20
9.9238446952
 10
17.4382336633
 20
9.9137106927
 10
17.4414102872
 20
9.9033895144
 10
17.4453148306
 20
9.8929460082
 10
17.4500549388
 20
9.8822651798
 10
17.4556699185
 20
9.8714475764
 10
17.4621435214
 20
9.8606678793
  0
LWPOLYLINE
  5
656
100
AcDbEntity
  8
02___PRT_ALL_AXES
100
AcDbPolyline
 62
7
  6
CONTINUOUS
 90
16
 70
0
 10
17.1505461841
 20
5.7346491646
 10
17.1500602427
 20
5.7274235764
 10
17.1475167546
 20
5.7167281897
 10
17.1428465638
 20
5.7063976224
 10
17.1361447419
 20
5.696642175
 10
17.1275477187
 20
5.6876604403
 10
17.1172305047
 20
5.6796352605
 10
17.1054031288
 20
5.6727300052
 10
17.0923063621
 20
5.6670852454
 10
17.0782068171
 20
5.6628158921
 10
17.0633915198
 20
5.6600088571
 10
17.0481620669
 20
5.6587212836
 10
17.0328284863
 20
5.6589793827
 10
17.0177029254
 20
5.6607779004
 10
17.003093297
 20
5.6640802239
 10
16.989297011
 20
5.6688191277
  0
LWPOLYLINE
  5
657
100
AcDbEntity
  8
0
100
AcDbPolyline
 62
7
  6
CONTINUOUS
 90
8
 70
0
 10
17.4436015745
 20
10.0906439473
 10
17.4429205262
 20
10.0832225643
 10
17.4414808948
 20
10.0674813659
 10
17.4399884678
 20
10.0511166182
 10
17.4384168851
 20
10.0338438545
 10
17.4367187068
 20
10.0151449207
 10
17.4348331403
 20
9.9943529518
 10
17.4327027207
 20
9.9708381252
  0
LWPOLYLINE
  5
658
100
AcDbEntity
  8
0
100
AcDbPolyline
 62
7
  6
CONTINUOUS
 90
4
 70
0
 10
18.0057907125
 20
11.1407368393
 10
18.01400232
 20
11.1714248416
 10
18.0202585527
 20
11.2023424501
 10
18.0245468114
 20
11.2334274008
  0
LWPOLYLINE
  5
659
100
AcDbEntity
  8
0
100
AcDbPolyline
 62
7
  6
CONTINUOUS
 90
7
 70
0
 10
18.0001221246
 20
10.5962233182
 10
18.0094837208
 20
10.6268231421
 10
18.0168896842
 20
10.6576898055
 10
18.0223249959
 20
10.6887607526
 10
18.0257786571
 20
10.7199731086
 10
18.0272436792
 20
10.7512637129
 10
18.0272989795
 20
10.7586412428
  0
LINE
  5
65A
100
AcDbEntity
  8
0
100
AcDbLine
 62
7
  6
CONTINUOUS
 10
17.8954342194
 20
9.5457649251
 11
17.9592594315
 21
9.6394802781
  0
LWPOLYLINE
  5
65B
100
AcDbEntity
  8
AXIS
100
AcDbPolyline
 62
7
  6
CONTINUOUS
 90
12
 70
0
 10
16.5680663437
 20
9.2841829518
 10
16.6939116804
 20
9.243036915
 10
16.8266849541
 20
9.2148030522
 10
16.9637515332
 20
9.2000416137
 10
17.1023915472
 20
9.1990455135
 10
17.23985391
 20
9.2118345018
 10
17.3734110732
 20
9.2381548152
 10
17.5004130138
 20
9.2774842571
 10
17.6183393925
 20
9.3290423851
 10
17.7248494541
 20
9.3918056453
 10
17.8178293174
 20
9.4645278092
 10
17.8954342194
 20
9.5457649251
  0
LWPOLYLINE
  5
65C
100
AcDbEntity
  8
0
100
AcDbPolyline
 62
7
  6
CONTINUOUS
 90
3
 70
0
 10
17.6296611842
 20
6.8516722956
 10
17.6294217193
 20
6.8637131445
 10
17.6282063334
 20
6.8718487549
  0
LINE
  5
65D
100
AcDbEntity
  8
0
100
AcDbLine
 62
7
  6
CONTINUOUS
 10
17.6296611842
 20
6.8934305701
 11
17.6294775231
 21
6.9026654717
  0
LINE
  5
65E
100
AcDbEntity
  8
0
100
AcDbLine
 62
7
  6
CONTINUOUS
 10
17.5432442504
 20
9.8300635054
 11
17.5432442504
 21
10.1285747972
  0
LINE
  5
65F
100
AcDbEntity
  8
0
100
AcDbLine
 62
7
  6
CONTINUOUS
 10
17.5533272481
 20
6.6874029664
 11
17.5533272481
 21
6.6613853982
  0
LINE
  5
660
100
AcDbEntity
  8
0
100
AcDbLine
 62
7
  6
CONTINUOUS
 10
17.5637086654
 20
6.7360251148
 11
17.5637086654
 21
6.7435630266
  0
LINE
  5
661
100
AcDbEntity
  8
0
100
AcDbLine
 62
7
  6
CONTINUOUS
 10
17.5637086654
 20
6.7777833892
 11
17.5637086654
 21
6.7853213011
  0
LINE
  5
662
100
AcDbEntity
  8
0
100
AcDbLine
 62
7
  6
CONTINUOUS
 10
17.5637086654
 20
6.8195416637
 11
17.5637086654
 21
6.8270795755
  0
LINE
  5
663
100
AcDbEntity
  8
0
100
AcDbLine
 62
7
  6
CONTINUOUS
 10
17.5716291373
 20
6.7131358757
 11
17.5716291373
 21
6.6915335568
  0
LINE
  5
664
100
AcDbEntity
  8
0
100
AcDbLine
 62
7
  6
CONTINUOUS
 10
17.6248519302
 20
6.8813314665
 11
17.6248519302
 21
6.8760420851
  0
LINE
  5
665
100
AcDbEntity
  8
0
100
AcDbLine
 62
7
  6
CONTINUOUS
 10
17.6248519302
 20
6.8395731921
 11
17.6248519302
 21
6.8342838106
  0
LINE
  5
666
100
AcDbEntity
  8
0
100
AcDbLine
 62
7
  6
CONTINUOUS
 10
17.6248519302
 20
6.7978149176
 11
17.6248519302
 21
6.7925255362
  0
LINE
  5
667
100
AcDbEntity
  8
0
100
AcDbLine
 62
7
  6
CONTINUOUS
 10
17.720505088
 20
10.1405772103
 11
17.720505088
 21
9.8181638349
  0
LWPOLYLINE
  5
668
100
AcDbEntity
  8
0
100
AcDbPolyline
 62
7
  6
CONTINUOUS
 90
26
 70
0
 10
17.720505088
 20
9.8181638349
 10
17.7201966388
 20
9.8095172791
 10
17.7192659514
 20
9.8004191669
 10
17.7177058741
 20
9.7909077263
 10
17.7155101953
 20
9.7810251051
 10
17.7126746682
 20
9.7708208171
 10
17.7092001815
 20
9.7603581134
 10
17.7050967199
 20
9.7497170083
 10
17.700384343
 20
9.7389883885
 10
17.6950881013
 20
9.7282591644
 10
17.6892165832
 20
9.7175766218
 10
17.6827646754
 20
9.70697016
 10
17.6757503248
 20
9.6965120713
 10
17.6683240867
 20
9.6864416594
 10
17.6607113116
 20
9.6770223768
 10
17.6531666611
 20
9.6684707948
 10
17.6459305437
 20
9.6609199336
 10
17.639215608
 20
9.6544305962
 10
17.6324739446
 20
9.6483780695
 10
17.6252695974
 20
9.6423880883
 10
17.6178012818
 20
9.6366682245
 10
17.610245583
 20
9.6313608345
 10
17.6027689935
 20
9.6265609902
 10
17.5955484598
 20
9.6223350887
 10
17.5887455511
 20
9.6187096917
 10
17.5825443635
 20
9.6156982071
  0
LWPOLYLINE
  5
669
100
AcDbEntity
  8
0
100
AcDbPolyline
 62
7
  6
CONTINUOUS
 90
10
 70
0
 10
17.9432972404
 20
11.2155572795
 10
17.9574831692
 20
11.3033393281
 10
17.9546308906
 20
11.3916696154
 10
17.9347935517
 20
11.4789023332
 10
17.8983407652
 20
11.5634121334
 10
17.8459516008
 20
11.6436245548
 10
17.7786032758
 20
11.7180438752
 10
17.6975488782
 20
11.7852854574
 10
17.6042942232
 20
11.8440982684
 10
17.50073824
 20
11.8933184266
  0
LINE
  5
66A
100
AcDbEntity
  8
0
100
AcDbLine
 62
7
  6
CONTINUOUS
 10
17.9592594315
 20
9.6394802781
 11
18.0026201495
 21
9.7388774858
  0
LWPOLYLINE
  5
66B
100
AcDbEntity
  8
0
100
AcDbPolyline
 62
7
  6
CONTINUOUS
 90
26
 70
0
 10
16.5509210267
 20
9.5950753261
 10
16.5891695202
 20
9.5802495852
 10
16.6281506423
 20
9.5666888422
 10
16.6679401525
 20
9.554357607
 10
16.7084597973
 20
9.543280101
 10
16.7496318181
 20
9.5334775769
 10
16.7913751531
 20
9.524969347
 10
16.8336088098
 20
9.5177719045
 10
16.8762507426
 20
9.5118992456
 10
16.9192172106
 20
9.5073628953
 10
16.9624256266
 20
9.504171587
 10
17.0057904023
 20
9.5023316423
 10
17.0492287517
 20
9.501846587
 10
17.0926542644
 20
9.5027173953
 10
17.1359840112
 20
9.5049424083
 10
17.1791321581
 20
9.5085172343
 10
17.2220152812
 20
9.5134349408
 10
17.2645496726
 20
9.5196859301
 10
17.3066523235
 20
9.5272579893
 10
17.348241608
 20
9.5361364372
 10
17.3892360411
 20
9.5463038738
 10
17.4295562626
 20
9.5577406139
 10
17.4691233473
 20
9.5704242749
 10
17.5078604383
 20
9.5843302163
 10
17.5456921338
 20
9.5994313839
 10
17.5825443635
 20
9.6156982071
  0
LWPOLYLINE
  5
66C
100
AcDbEntity
  8
0
100
AcDbPolyline
 62
7
  6
CONTINUOUS
 90
26
 70
0
 10
16.5850183735
 20
9.7125275753
 10
16.6206167945
 20
9.6987290459
 10
16.65689695
 20
9.6861079122
 10
16.6939297229
 20
9.6746310197
 10
16.7316419094
 20
9.6643210329
 10
16.7699612959
 20
9.6551976829
 10
16.8088123948
 20
9.6472789543
 10
16.8481198519
 20
9.640580192
 10
16.8878073063
 20
9.6351144229
 10
16.9277967718
 20
9.630892379
 10
16.9680115029
 20
9.6279221777
 10
17.0083716218
 20
9.6262097162
 10
17.0488004281
 20
9.6257582647
 10
17.0892169933
 20
9.6265687315
 10
17.1295448057
 20
9.6286395902
 10
17.1697031623
 20
9.6319667085
 10
17.2096153079
 20
9.6365437086
 10
17.249202464
 20
9.642361559
 10
17.2883881593
 20
9.6494090064
 10
17.3270957665
 20
9.6576722719
 10
17.3652499369
 20
9.6671352614
 10
17.402776518
 20
9.677779587
 10
17.4396021132
 20
9.6895844275
 10
17.4756553893
 20
9.7025269208
 10
17.5108656875
 20
9.7165817056
 10
17.5451648538
 20
9.7317215836
  0
LWPOLYLINE
  5
66D
100
AcDbEntity
  8
0
100
AcDbPolyline
 62
7
  6
CONTINUOUS
 90
4
 70
0
 10
18.0033833654
 20
10.5917619041
 10
18.0035402911
 20
10.5952384253
 10
18.0041182523
 20
10.599257269
 10
18.0049140257
 20
10.6025228343
  0
LWPOLYLINE
  5
66E
100
AcDbEntity
  8
0
100
AcDbPolyline
 62
7
  6
CONTINUOUS
 90
4
 70
0
 10
18.0033833471
 20
10.1801135173
 10
18.0030027066
 20
10.1734138829
 10
18.0019135886
 20
10.1669790803
 10
18.0001221246
 20
10.1606233663
  0
LWPOLYLINE
  5
66F
100
AcDbEntity
  8
0
100
AcDbPolyline
 62
7
  6
CONTINUOUS
 90
3
 70
0
 10
18.0245468114
 20
11.2334274008
 10
18.0268584601
 20
11.2646170927
 10
18.0272989056
 20
11.2854373968
  0
LWPOLYLINE
  5
670
100
AcDbEntity
  8
0
100
AcDbPolyline
 62
7
  6
CONTINUOUS
 90
26
 70
0
 10
18.0257268957
 20
10.1584837401
 10
18.025278749
 20
10.1533495519
 10
18.024719712
 20
10.1479582172
 10
18.0240478367
 20
10.1425184908
 10
18.0232652814
 20
10.1372035919
 10
18.02238282
 20
10.1321765422
 10
18.0214180865
 20
10.1275675682
 10
18.0203986631
 20
10.123485132
 10
18.0193649271
 20
10.1200160277
 10
18.0182557496
 20
10.1169227371
 10
18.0169711997
 20
10.1140385795
 10
18.0155306316
 20
10.1115857123
 10
18.013968947
 20
10.1097680202
 10
18.0123383532
 20
10.1087456089
 10
18.0106989198
 20
10.1086049233
 10
18.0091040072
 20
10.1093561046
 10
18.0075785421
 20
10.1109791801
 10
18.0061406945
 20
10.1134607977
 10
18.004811041
 20
10.1167895347
 10
18.0036139254
 20
10.120939017
 10
18.0025712771
 20
10.1258697851
 10
18.0017004017
 20
10.1315351436
 10
18.001013588
 20
10.1378879064
 10
18.0005189369
 20
10.1448832704
 10
18.0002212193
 20
10.1524768915
 10
18.0001221246
 20
10.1606233663
  0
LINE
  5
671
100
AcDbEntity
  8
0
100
AcDbLine
 62
7
  6
CONTINUOUS
 10
17.6248519302
 20
6.8813314665
 11
17.6265723309
 21
6.9005977127
  0
LINE
  5
672
100
AcDbEntity
  8
0
100
AcDbLine
 62
7
  6
CONTINUOUS
 10
17.6248519302
 20
6.8760420851
 11
17.6270767083
 21
6.9009567014
  0
LINE
  5
673
100
AcDbEntity
  8
0
100
AcDbLine
 62
7
  6
CONTINUOUS
 10
17.6248519302
 20
6.8395731921
 11
17.6296611842
 21
6.8934305701
  0
LINE
  5
674
100
AcDbEntity
  8
0
100
AcDbLine
 62
7
  6
CONTINUOUS
 10
17.6248519302
 20
6.8342838106
 11
17.6285512835
 21
6.8757117473
  0
LINE
  5
675
100
AcDbEntity
  8
0
100
AcDbLine
 62
7
  6
CONTINUOUS
 10
17.6248519302
 20
6.7978149176
 11
17.6296611842
 21
6.8516722956
  0
LINE
  5
676
100
AcDbEntity
  8
0
100
AcDbLine
 62
7
  6
CONTINUOUS
 10
17.6248519302
 20
6.7925255362
 11
17.6285512835
 21
6.8339534728
  0
LINE
  5
677
100
AcDbEntity
  8
0
100
AcDbLine
 62
7
  6
CONTINUOUS
 10
18.0026201495
 20
9.7388774858
 11
18.0245463031
 21
9.8417357543
  0
LINE
  5
678
100
AcDbEntity
  8
0
100
AcDbLine
 62
7
  6
CONTINUOUS
 10
17.5021861148
 20
9.7984680615
 11
17.5451648538
 21
9.7317215836
  0
LINE
  5
679
100
AcDbEntity
  8
0
100
AcDbLine
 62
7
  6
CONTINUOUS
 10
17.4621435214
 20
9.8606678793
 11
17.5021861148
 21
9.7984680615
  0
LWPOLYLINE
  5
67A
100
AcDbEntity
  8
0
100
AcDbPolyline
 62
7
  6
CONTINUOUS
 90
16
 70
0
 10
17.5451648538
 20
9.7317215836
 10
17.5495199866
 20
9.7241392172
 10
17.553693793
 20
9.7163362295
 10
17.5576624101
 20
9.7083572327
 10
17.5614031485
 20
9.700247844
 10
17.5648946203
 20
9.69205443
 10
17.5681168645
 20
9.6838238325
 10
17.5710514582
 20
9.6756031094
 10
17.5736816235
 20
9.667439261
 10
17.5759923229
 20
9.6593789625
 10
17.5779703453
 20
9.6514682975
 10
17.579604382
 20
9.6437524924
 10
17.5808850903
 20
9.6362756637
 10
17.5818051483
 20
9.6290805558
 10
17.5823592957
 20
9.6222083069
 10
17.5825443641
 20
9.6156982074
  0
LWPOLYLINE
  5
67B
100
AcDbEntity
  8
0
100
AcDbPolyline
 62
7
  6
CONTINUOUS
 90
26
 70
0
 10
17.5432442125
 20
9.8300635428
 10
17.5451921284
 20
9.8247824987
 10
17.5470479568
 20
9.8193314524
 10
17.5488001194
 20
9.8137357171
 10
17.5504358766
 20
9.8080232983
 10
17.5519412078
 20
9.8022267749
 10
17.5533001713
 20
9.7963866494
 10
17.5544955659
 20
9.7905524667
 10
17.5555106839
 20
9.7847789154
 10
17.5563312689
 20
9.7791174737
 10
17.5569470217
 20
9.7735982544
 10
17.5573472889
 20
9.7682429968
 10
17.5575187106
 20
9.7630957903
 10
17.557452242
 20
9.7582787036
 10
17.5571588171
 20
9.7539133106
 10
17.5566715643
 20
9.7500848501
 10
17.5560400894
 20
9.746827879
 10
17.5553229039
 20
9.7441362588
 10
17.5544851681
 20
9.7417301557
 10
17.5534679394
 20
9.7394655067
 10
17.5522880351
 20
9.7374324759
 10
17.550971204
 20
9.7356841475
 10
17.5495518009
 20
9.7342453285
 10
17.5480753933
 20
9.733119899
 10
17.5465924281
 20
9.7322893541
 10
17.5451648538
 20
9.7317215837
  0
LINE
  5
67C
100
AcDbEntity
  8
0
100
AcDbLine
 62
7
  6
CONTINUOUS
 10
18.0360150937
 20
7.6724217185
 11
18.0272989795
 21
7.7239646062
  0
LINE
  5
67D
100
AcDbEntity
  8
0
100
AcDbLine
 62
7
  6
CONTINUOUS
 10
18.0292674834
 20
8.0157645051
 11
18.0272989795
 21
8.0423243498
  0
LINE
  5
67E
100
AcDbEntity
  8
AXIS
100
AcDbLine
 62
7
  6
CONTINUOUS
 10
18.0292674834
 20
9.1488056859
 11
18.0272989795
 21
9.1753655307
  0
LINE
  5
67F
100
AcDbEntity
  8
0
100
AcDbLine
 62
7
  6
CONTINUOUS
 10
18.0271888435
 20
11.2958487139
 11
18.0266876943
 21
11.3053193438
  0
LINE
  5
680
100
AcDbEntity
  8
0
100
AcDbLine
 62
7
  6
CONTINUOUS
 10
18.0371414992
 20
7.6389684812
 11
18.0360150937
 21
7.6724217185
  0
LINE
  5
681
100
AcDbEntity
  8
0
100
AcDbLine
 62
7
  6
CONTINUOUS
 10
18.0272989056
 20
11.2854373968
 11
18.0271888435
 21
11.2958487139
  0
LINE
  5
682
100
AcDbEntity
  8
0
100
AcDbLine
 62
7
  6
CONTINUOUS
 10
18.0001221246
 20
10.1606233663
 11
18.0001221246
 21
10.5962233182
  0
LINE
  5
683
100
AcDbEntity
  8
AXIS
100
AcDbLine
 62
7
  6
CONTINUOUS
 10
18.0033833471
 20
10.591761879
 11
18.0033833471
 21
10.1801135173
  0
LINE
  5
684
100
AcDbEntity
  8
AXIS
100
AcDbLine
 62
7
  6
CONTINUOUS
 10
18.0272989795
 20
11.2854373968
 11
18.0272989795
 21
10.7586412428
  0
LINE
  5
685
100
AcDbEntity
  8
AXIS
100
AcDbLine
 62
7
  6
CONTINUOUS
 10
18.0272989795
 20
7.9759538366
 11
18.0272989795
 21
8.7331705471
  0
LINE
  5
686
100
AcDbEntity
  8
AXIS
100
AcDbLine
 62
7
  6
CONTINUOUS
 10
18.0272989795
 20
9.1089950174
 11
18.0272989795
 21
10.1978041013
  0
LINE
  5
687
100
AcDbEntity
  8
0
100
AcDbLine
 62
7
  6
CONTINUOUS
 10
18.0292674834
 20
7.6399400347
 11
18.0292674834
 21
8.0157645051
  0
LINE
  5
688
100
AcDbEntity
  8
AXIS
100
AcDbLine
 62
7
  6
CONTINUOUS
 10
18.0292674834
 20
8.7729812156
 11
18.0292674834
 21
9.1488056859
  0
LINE
  5
689
100
AcDbEntity
  8
AXIS
100
AcDbLine
 62
7
  6
CONTINUOUS
 10
18.0371414992
 20
7.6389684812
 11
18.0371414992
 21
7.6079253576
  0
LINE
  5
68A
100
AcDbEntity
  8
0
100
AcDbLine
 62
7
  6
CONTINUOUS
 10
18.0262791231
 20
11.2537628703
 11
18.0268892364
 21
11.3053302573
  0
LWPOLYLINE
  5
68B
100
AcDbEntity
  8
0
100
AcDbPolyline
 62
7
  6
CONTINUOUS
 90
7
 70
0
 10
18.0272989795
 20
10.7586412428
 10
18.0264627919
 20
10.728287378
 10
18.0239531692
 20
10.6979658683
 10
18.0197676864
 20
10.667713756
 10
18.0139020946
 20
10.6375650972
 10
18.0063528801
 20
10.6075634502
 10
18.0049139195
 20
10.6025225394
  0
LWPOLYLINE
  5
68C
100
AcDbEntity
  8
AXIS
100
AcDbPolyline
 62
7
  6
CONTINUOUS
 90
12
 70
0
 10
18.0371395586
 20
7.6079253577
 10
18.0348735866
 20
7.5604706669
 10
18.0229953311
 20
7.4897620357
 10
18.0010614798
 20
7.4202659201
 10
17.9692971037
 20
7.3526954443
 10
17.9280281481
 20
7.2877439728
 10
17.8776780885
 20
7.2260779956
 10
17.8187635847
 20
7.168330289
 10
17.7518891791
 20
7.1150934227
 10
17.6777410936
 20
7.0669136789
 10
17.5970801879
 20
7.0242854471
 10
17.5107341521
 20
6.9876461506
  0
LWPOLYLINE
  5
68D
100
AcDbEntity
  8
0
100
AcDbPolyline
 62
7
  6
CONTINUOUS
 90
3
 70
0
 10
18.0257268957
 20
10.1584837401
 10
18.0272233374
 20
10.1891757734
 10
18.0272989795
 20
10.1978041013
  0
LINE
  5
68E
100
AcDbEntity
  8
0
100
AcDbLine
 62
7
  6
CONTINUOUS
 10
18.0245463031
 20
9.8417357543
 11
18.0272989795
 21
9.8937505457
  0
LINE
  5
68F
100
AcDbEntity
  8
0
100
AcDbLine
 62
7
  6
CONTINUOUS
 10
18.0326408489
 20
7.57215573
 11
18.0371414992
 21
7.6389684812
  0
LINE
  5
690
100
AcDbEntity
  8
0
100
AcDbLine
 62
7
  6
CONTINUOUS
 10
17.5704846064
 20
6.6857000645
 11
17.5716291373
 21
6.6915335568
  0
LINE
  5
691
100
AcDbEntity
  8
0
100
AcDbLine
 62
7
  6
CONTINUOUS
 10
17.5855737314
 20
6.7332965146
 11
17.5836688216
 21
6.7239459477
  0
LINE
  5
692
100
AcDbEntity
  8
0
100
AcDbLine
 62
7
  6
CONTINUOUS
 10
17.5830210939
 20
6.729542033
 11
17.5716291373
 21
6.6915335568
  0
LWPOLYLINE
  5
693
100
AcDbEntity
  8
0
100
AcDbPolyline
 62
7
  6
CONTINUOUS
 90
23
 70
0
 10
17.5432442504
 20
9.8300635054
 10
17.5488719272
 20
9.8249483907
 10
17.5550435717
 20
9.8201572349
 10
17.5617220222
 20
9.8157188877
 10
17.5688670628
 20
9.8116600755
 10
17.576435673
 20
9.8080052364
 10
17.5843822763
 20
9.8047763793
 10
17.5926590235
 20
9.8019929461
 10
17.6012160754
 20
9.7996716974
 10
17.6100019083
 20
9.7978266101
 10
17.6189636165
 20
9.7964687947
 10
17.6280472384
 20
9.795606427
 10
17.637198077
 20
9.7952446998
 10
17.646361031
 20
9.7953857913
 10
17.6554809267
 20
9.7960288519
 10
17.6645028472
 20
9.7971700092
 10
17.6733724694
 20
9.7988023921
 10
17.682036384
 20
9.800916171
 10
17.6904424227
 20
9.8034986182
 10
17.6985399665
 20
9.8065341829
 10
17.7062802595
 20
9.8100045876
 10
17.7136166919
 20
9.8138889347
 10
17.720505088
 20
9.8181638349
  0
LINE
  5
694
100
AcDbEntity
  8
0
100
AcDbLine
 62
7
  6
CONTINUOUS
 10
17.503145937
 20
9.8922378086
 11
17.5432442504
 21
9.8300635054
  0
LWPOLYLINE
  5
695
100
AcDbEntity
  8
0
100
AcDbPolyline
 62
7
  6
CONTINUOUS
 90
3
 70
0
 10
18.0077161999
 20
7.4949500761
 10
18.0279159026
 20
7.6034428657
 10
18.0292674834
 20
7.6399400347
  0
LWPOLYLINE
  5
696
100
AcDbEntity
  8
AXIS
100
AcDbPolyline
 62
7
  6
CONTINUOUS
 90
19
 70
0
 10
17.9052809642
 20
7.259884476
 10
17.9007248127
 20
7.2438768648
 10
17.8717448972
 20
7.17922423
 10
17.8330492566
 20
7.1171661552
 10
17.7850915619
 20
7.0584302147
 10
17.7284340734
 20
7.0037050336
 10
17.6637410483
 20
6.9536322147
 10
17.591770953
 20
6.908798816
 10
17.5133675713
 20
6.8697304681
 10
17.4294501109
 20
6.8368852116
 10
17.3410024276
 20
6.8106481272
 10
17.2490614894
 20
6.7913268207
 10
17.1547052198
 20
6.7791478167
 10
17.0590398597
 20
6.7742539029
 10
16.9631869982
 20
6.776702456
 10
16.8682704223
 20
6.786464769
 10
16.7754029421
 20
6.8034263876
 10
16.6856733439
 20
6.8273884523
 10
16.6001336252
 20
6.85807003
  0
LWPOLYLINE
  5
697
100
AcDbEntity
  8
AXIS
100
AcDbPolyline
 62
7
  6
CONTINUOUS
 90
7
 70
0
 10
17.9076104154
 20
7.2627374594
 10
17.8923229547
 20
7.2100213386
 10
17.8462282139
 20
7.1182008897
 10
17.7822912338
 20
7.0322067766
 10
17.7010098952
 20
6.9535783506
 10
17.6047646503
 20
6.8850761836
 10
17.4960183241
 20
6.8283546745
  0
LINE
  5
698
100
AcDbEntity
  8
0
100
AcDbLine
 62
7
  6
CONTINUOUS
 10
17.5836688216
 20
6.7239459477
 11
17.5704846064
 21
6.6857000645
  0
LINE
  5
699
100
AcDbEntity
  8
0
100
AcDbLine
 62
7
  6
CONTINUOUS
 10
17.5692833178
 20
6.8350524773
 11
17.5637086654
 21
6.8195416637
  0
LINE
  5
69A
100
AcDbEntity
  8
0
100
AcDbLine
 62
7
  6
CONTINUOUS
 10
17.5692832132
 20
6.7932940532
 11
17.5637086654
 21
6.7777833892
  0
LINE
  5
69B
100
AcDbEntity
  8
0
100
AcDbLine
 62
7
  6
CONTINUOUS
 10
17.5692832149
 20
6.7515357811
 11
17.5637086654
 21
6.7360251148
  0
LWPOLYLINE
  5
69C
100
AcDbEntity
  8
0
100
AcDbPolyline
 62
7
  6
CONTINUOUS
 90
17
 70
0
 10
17.4327027207
 20
9.9708381252
 10
17.4366581484
 20
9.9701594986
 10
17.4406743902
 20
9.9696540598
 10
17.4447088991
 20
9.9693271635
 10
17.4487189345
 20
9.9691822726
 10
17.4526620151
 20
9.9692209221
 10
17.456496369
 20
9.9694427025
 10
17.460181376
 20
9.9698452644
 10
17.4636779981
 20
9.9704243431
 10
17.466949193
 20
9.971173804
 10
17.4699603065
 20
9.9720857075
 10
17.4726794396
 20
9.9731503931
 10
17.4750777866
 20
9.9743565819
 10
17.4771299399
 20
9.9756914957
 10
17.4788141596
 20
9.9771409929
 10
17.4801126036
 20
9.9786897178
 10
17.4810015691
 20
9.9803032092
  0
LWPOLYLINE
  5
69D
100
AcDbEntity
  8
0
100
AcDbPolyline
 62
7
  6
CONTINUOUS
 90
6
 70
0
 10
18.0033833471
 20
10.3590888178
 10
18.0119718137
 20
10.3272402949
 10
18.0186824083
 20
10.2950334869
 10
18.0234683489
 20
10.2627181798
 10
18.0263412695
 20
10.2302877356
 10
18.0272989795
 20
10.1978041013
  0
LWPOLYLINE
  5
69E
100
AcDbEntity
  8
0
100
AcDbPolyline
 62
7
  6
CONTINUOUS
 90
10
 70
0
 10
18.0042164218
 20
10.1620409279
 10
18.0042596444
 20
10.1618070491
 10
18.0042470065
 20
10.161892049
 10
18.0041604123
 20
10.1625363475
 10
18.004020562
 20
10.1637945255
 10
18.0038512226
 20
10.165709983
 10
18.0036780051
 20
10.1683097967
 10
18.0035259425
 20
10.1716225007
 10
18.0034197617
 20
10.1756727363
 10
18.0033833471
 20
10.1801135743
  0
LINE
  5
69F
100
AcDbEntity
  8
0
100
AcDbLine
 62
7
  6
CONTINUOUS
 10
18.0153609622
 20
11.3959454395
 11
18.0268968336
 21
11.3053304107
  0
LWPOLYLINE
  5
6A0
100
AcDbEntity
  8
0
100
AcDbPolyline
 62
7
  6
CONTINUOUS
 90
3
 70
0
 10
17.5704846064
 20
6.6857000645
 10
17.5650541838
 20
6.6743360243
 10
17.5583680985
 20
6.6632718821
  0
LINE
  5
6A1
100
AcDbEntity
  8
0
100
AcDbLine
 62
7
  6
CONTINUOUS
 10
17.5716291373
 20
6.6915335568
 11
17.5666551809
 21
6.6811545089
  0
LWPOLYLINE
  5
6A2
100
AcDbEntity
  8
0
100
AcDbPolyline
 62
7
  6
CONTINUOUS
 90
3
 70
0
 10
17.5666551809
 20
6.6811545089
 10
17.5605419203
 20
6.6710843162
 10
17.5533272481
 20
6.6613853982
  0
LWPOLYLINE
  5
6A3
100
AcDbEntity
  8
0
100
AcDbPolyline
 62
7
  6
CONTINUOUS
 90
3
 70
0
 10
17.467513058
 20
6.5510274201
 10
17.4690577016
 20
6.5534746095
 10
17.4703927031
 20
6.5598117395
  0
LWPOLYLINE
  5
6A4
100
AcDbEntity
  8
0
100
AcDbPolyline
 62
7
  6
CONTINUOUS
 90
3
 70
0
 10
17.3988680211
 20
6.7663354254
 10
17.4193527865
 20
6.7977963236
 10
17.4213776612
 20
6.8008025184
  0
LWPOLYLINE
  5
6A5
100
AcDbEntity
  8
0
100
AcDbPolyline
 62
7
  6
CONTINUOUS
 90
4
 70
0
 10
17.3988680211
 20
6.7245771509
 10
17.4193527865
 20
6.7560380491
 10
17.4397427693
 20
6.7863096815
 10
17.4597902266
 20
6.8149817735
  0
LWPOLYLINE
  5
6A6
100
AcDbEntity
  8
0
100
AcDbPolyline
 62
7
  6
CONTINUOUS
 90
4
 70
0
 10
17.3988680211
 20
6.6828188764
 10
17.4193527865
 20
6.7142797746
 10
17.4397427693
 20
6.744551407
 10
17.4600112859
 20
6.7735396604
  0
LWPOLYLINE
  5
6A7
100
AcDbEntity
  8
0
100
AcDbPolyline
 62
7
  6
CONTINUOUS
 90
4
 70
0
 10
17.3988680211
 20
6.6410606019
 10
17.4193527865
 20
6.6725215002
 10
17.4397427693
 20
6.7027931325
 10
17.4600112859
 20
6.731781386
  0
LWPOLYLINE
  5
6A8
100
AcDbEntity
  8
0
100
AcDbPolyline
 62
7
  6
CONTINUOUS
 90
4
 70
0
 10
17.3988680211
 20
6.5993023274
 10
17.4193527865
 20
6.6307632257
 10
17.4397427693
 20
6.661034858
 10
17.4600112859
 20
6.6900231115
  0
LWPOLYLINE
  5
6A9
100
AcDbEntity
  8
0
100
AcDbPolyline
 62
7
  6
CONTINUOUS
 90
4
 70
0
 10
17.3988680211
 20
6.557544053
 10
17.4193527865
 20
6.5890049512
 10
17.4397427693
 20
6.6192765836
 10
17.4600112859
 20
6.648264837
  0
LWPOLYLINE
  5
6AA
100
AcDbEntity
  8
0
100
AcDbPolyline
 62
7
  6
CONTINUOUS
 90
4
 70
0
 10
17.6248519302
 20
6.8760420851
 10
17.604363902
 20
6.8445762575
 10
17.5839736461
 20
6.8143043996
 10
17.5637086654
 20
6.7853213011
  0
LWPOLYLINE
  5
6AB
100
AcDbEntity
  8
0
100
AcDbPolyline
 62
7
  6
CONTINUOUS
 90
4
 70
0
 10
17.3988680211
 20
6.5157857785
 10
17.4193527865
 20
6.5472466767
 10
17.4397427693
 20
6.5775183091
 10
17.4600112859
 20
6.6065065625
  0
LWPOLYLINE
  5
6AC
100
AcDbEntity
  8
0
100
AcDbPolyline
 62
7
  6
CONTINUOUS
 90
4
 70
0
 10
17.6248519302
 20
6.8342838106
 10
17.604363902
 20
6.802817983
 10
17.5839736461
 20
6.7725461251
 10
17.5637086654
 20
6.7435630266
  0
LWPOLYLINE
  5
6AD
100
AcDbEntity
  8
0
100
AcDbPolyline
 62
7
  6
CONTINUOUS
 90
3
 70
0
 10
17.6028401923
 20
6.8840723965
 10
17.5839736461
 20
6.856062674
 10
17.5637086654
 20
6.8270795755
  0
LWPOLYLINE
  5
6AE
100
AcDbEntity
  8
0
100
AcDbPolyline
 62
7
  6
CONTINUOUS
 90
3
 70
0
 10
17.8971389939
 20
7.2912584428
 10
17.9637631403
 20
7.3900274205
 10
18.0077161999
 20
7.4949500761
  0
LWPOLYLINE
  5
6AF
100
AcDbEntity
  8
0
100
AcDbPolyline
 62
7
  6
CONTINUOUS
 90
20
 70
0
 10
16.1891763767
 20
10.3828594001
 10
16.1800978277
 20
10.3837480768
 10
16.171144062
 20
10.3851318439
 10
16.1623689939
 20
10.3870023693
 10
16.153825464
 20
10.3893483891
 10
16.1455649136
 20
10.3921557778
 10
16.1376370858
 20
10.3954076301
 10
16.1300897166
 20
10.3990843653
 10
16.1229682532
 20
10.4031638437
 10
16.1163155755
 20
10.4076215019
 10
16.1101717439
 20
10.4124304973
 10
16.1045737526
 20
10.4175618732
 10
16.0995553098
 20
10.4229847309
 10
16.0951466339
 20
10.4286664171
 10
16.0913742711
 20
10.4345727201
 10
16.0882609375
 20
10.4406680742
 10
16.0858253789
 20
10.4469157778
 10
16.0840822615
 20
10.4532782097
 10
16.0830420812
 20
10.4597170597
 10
16.0827106748
 20
10.4659688079
  0
LWPOLYLINE
  5
6B0
100
AcDbEntity
  8
0
100
AcDbPolyline
 62
7
  6
CONTINUOUS
 90
22
 70
0
 10
16.5509210267
 20
10.6827086215
 10
16.5131743574
 20
10.6989278451
 10
16.476494781
 20
10.7163282209
 10
16.4409561654
 20
10.7348747068
 10
16.4066300807
 20
10.7545299528
 10
16.3735856549
 20
10.7752543756
 10
16.3418894353
 20
10.7970062392
 10
16.3116052536
 20
10.8197417381
 10
16.2827940984
 20
10.8434150861
 10
16.2555139913
 20
10.8679786082
 10
16.2298198709
 20
10.8933828367
 10
16.2057634818
 20
10.919576611
 10
16.1833932702
 20
10.9465071802
 10
16.1627542869
 20
10.9741203097
 10
16.143888096
 20
11.0023603904
 10
16.1268326915
 20
11.0311705506
 10
16.1116224206
 20
11.0604927703
 10
16.098287915
 20
11.0902679986
 10
16.0868560284
 20
11.120436272
 10
16.0773497832
 20
11.1509368358
 10
16.0697883238
 20
11.1817082658
 10
16.0641868778
 20
11.2126885925
  0
LWPOLYLINE
  5
6B1
100
AcDbEntity
  8
0
100
AcDbPolyline
 62
7
  6
CONTINUOUS
 90
20
 70
0
 10
17.5631772854
 20
10.1373055863
 10
17.5688670628
 20
10.1340734509
 10
17.576435673
 20
10.1304186118
 10
17.5843822763
 20
10.1271897547
 10
17.5926590235
 20
10.1244063215
 10
17.6012160754
 20
10.1220850728
 10
17.6100019083
 20
10.1202399855
 10
17.6189636165
 20
10.1188821701
 10
17.6280472384
 20
10.1180198024
 10
17.637198077
 20
10.1176580753
 10
17.646361031
 20
10.1177991667
 10
17.6554809267
 20
10.1184422273
 10
17.6645028472
 20
10.1195833846
 10
17.6733724694
 20
10.1212157675
 10
17.682036384
 20
10.1233295464
 10
17.6904424227
 20
10.1259119936
 10
17.6985399665
 20
10.1289475583
 10
17.7062802595
 20
10.132417963
 10
17.7136166919
 20
10.1363023101
 10
17.720505088
 20
10.1405772103
  0
LWPOLYLINE
  5
6B2
100
AcDbEntity
  8
0
100
AcDbPolyline
 62
7
  6
CONTINUOUS
 90
3
 70
0
 10
17.550447603
 20
6.6526010787
 10
17.5519922466
 20
6.6550482682
 10
17.5533272481
 20
6.6613853982
  0
LWPOLYLINE
  5
6B3
100
AcDbEntity
  8
0
100
AcDbPolyline
 62
7
  6
CONTINUOUS
 90
4
 70
0
 10
17.9039580976
 20
7.2875030118
 10
17.9659334088
 20
7.3777171194
 10
18.0091207141
 20
7.4732496658
 10
18.0326408489
 20
7.57215573
  0
LWPOLYLINE
  5
6B4
100
AcDbEntity
  8
0
100
AcDbPolyline
 62
7
  6
CONTINUOUS
 90
4
 70
0
 10
17.5533272481
 20
6.6874029664
 10
17.5770213129
 20
6.7207174082
 10
17.6008087038
 20
6.7557044847
 10
17.6248519302
 20
6.7925255362
  0
LINE
  5
6B5
100
AcDbEntity
  8
0
100
AcDbLine
 62
7
  6
CONTINUOUS
 10
17.5583680985
 20
6.6632718821
 11
17.550447603
 21
6.6526010787
  0
LWPOLYLINE
  5
6B6
100
AcDbEntity
  8
0
100
AcDbPolyline
 62
7
  6
CONTINUOUS
 90
3
 70
0
 10
17.4385907098
 20
6.5236035852
 10
17.4415023315
 20
6.5273987682
 10
17.442619845
 20
6.5335300878
  0
LINE
  5
6B7
100
AcDbEntity
  8
0
100
AcDbLine
 62
7
  6
CONTINUOUS
 10
17.5533272481
 20
6.6613853982
 11
17.4703927031
 21
6.5598117395
  0
LINE
  5
6B8
100
AcDbEntity
  8
0
100
AcDbLine
 62
7
  6
CONTINUOUS
 10
17.550447603
 20
6.6526010787
 11
17.467513058
 21
6.5510274201
  0
LWPOLYLINE
  5
6B9
100
AcDbEntity
  8
0
100
AcDbPolyline
 62
7
  6
CONTINUOUS
 90
3
 70
0
 10
17.4488567343
 20
6.8109458864
 10
17.4397467147
 20
6.8012352521
 10
17.4193548615
 20
6.7806434875
  0
LWPOLYLINE
  5
6BA
100
AcDbEntity
  8
0
100
AcDbPolyline
 62
7
  6
CONTINUOUS
 90
3
 70
0
 10
17.4600112859
 20
6.7810775723
 10
17.4397467147
 20
6.7594769776
 10
17.4193548615
 20
6.738885213
  0
LWPOLYLINE
  5
6BB
100
AcDbEntity
  8
0
100
AcDbPolyline
 62
7
  6
CONTINUOUS
 90
3
 70
0
 10
17.4600112859
 20
6.7393192978
 10
17.4397467147
 20
6.7177187031
 10
17.4193548615
 20
6.6971269386
  0
LWPOLYLINE
  5
6BC
100
AcDbEntity
  8
0
100
AcDbPolyline
 62
7
  6
CONTINUOUS
 90
3
 70
0
 10
17.5637086654
 20
6.8195416637
 10
17.5839769351
 20
6.8411460955
 10
17.6043684823
 20
6.8617373567
  0
LWPOLYLINE
  5
6BD
100
AcDbEntity
  8
0
100
AcDbPolyline
 62
7
  6
CONTINUOUS
 90
3
 70
0
 10
17.4600112859
 20
6.6975610233
 10
17.4397467147
 20
6.6759604287
 10
17.4193548615
 20
6.6553686641
  0
LWPOLYLINE
  5
6BE
100
AcDbEntity
  8
0
100
AcDbPolyline
 62
7
  6
CONTINUOUS
 90
3
 70
0
 10
17.5637086654
 20
6.7777833892
 10
17.5839769351
 20
6.799387821
 10
17.6043684823
 20
6.8199790822
  0
LWPOLYLINE
  5
6BF
100
AcDbEntity
  8
0
100
AcDbPolyline
 62
7
  6
CONTINUOUS
 90
3
 70
0
 10
17.4600112859
 20
6.6558027488
 10
17.4397467147
 20
6.6342021542
 10
17.4193548615
 20
6.6136103896
  0
LINE
  5
6C0
100
AcDbEntity
  8
0
100
AcDbLine
 62
7
  6
CONTINUOUS
 10
17.8244564906
 20
7.2044439845
 11
17.9039580976
 21
7.2875030118
  0
LINE
  5
6C1
100
AcDbEntity
  8
0
100
AcDbLine
 62
7
  6
CONTINUOUS
 10
17.8094842683
 20
7.2010751632
 11
17.8971389939
 21
7.2912584428
  0
LINE
  5
6C2
100
AcDbEntity
  8
0
100
AcDbLine
 62
7
  6
CONTINUOUS
 10
17.4193548615
 20
6.7806434875
 11
17.3988680211
 21
6.7610460439
  0
LINE
  5
6C3
100
AcDbEntity
  8
0
100
AcDbLine
 62
7
  6
CONTINUOUS
 10
17.4193548615
 20
6.738885213
 11
17.3988680211
 21
6.7192877694
  0
LINE
  5
6C4
100
AcDbEntity
  8
0
100
AcDbLine
 62
7
  6
CONTINUOUS
 10
17.4193548615
 20
6.6971269386
 11
17.3988680211
 21
6.677529495
  0
LINE
  5
6C5
100
AcDbEntity
  8
0
100
AcDbLine
 62
7
  6
CONTINUOUS
 10
16.1284528966
 20
10.3100918182
 11
16.2363310284
 21
10.3383070302
  0
LINE
  5
6C6
100
AcDbEntity
  8
0
100
AcDbLine
 62
7
  6
CONTINUOUS
 10
16.1891763767
 20
10.3828594001
 11
16.1959120782
 21
10.3846169514
  0
LWPOLYLINE
  5
6C7
100
AcDbEntity
  8
0
100
AcDbPolyline
 62
7
  6
CONTINUOUS
 90
16
 70
0
 10
16.5509210267
 20
10.6827086215
 10
16.6715694975
 20
10.6409389893
 10
16.7991452538
 20
10.6111734016
 10
16.931251803
 20
10.5939701998
 10
17.065452933
 20
10.5896465115
 10
17.1992320055
 20
10.5982845081
 10
17.3300975021
 20
10.6197220098
 10
17.4556255495
 20
10.6535628495
 10
17.5734562863
 20
10.6991704192
 10
17.6814155199
 20
10.7557027536
 10
17.7774814596
 20
10.8221027563
 10
17.859861447
 20
10.8971294555
 10
17.9270323907
 20
10.9793967248
 10
17.9777309622
 20
11.0673573096
 10
18.0110210536
 20
11.1593854426
 10
18.0262791231
 20
11.2537628703
  0
LWPOLYLINE
  5
6C8
100
AcDbEntity
  8
0
100
AcDbPolyline
 62
7
  6
CONTINUOUS
 90
14
 70
0
 10
16.585355782
 20
10.7722084559
 10
16.6974158815
 20
10.7334037134
 10
16.8160738972
 20
10.7057035358
 10
16.9389548776
 20
10.6896888452
 10
17.0637737205
 20
10.6856562446
 10
17.188208055
 20
10.6936807722
 10
17.3099373935
 20
10.7136129878
 10
17.4266938882
 20
10.7450815043
 10
17.5363020959
 20
10.7874999886
 10
17.6367197478
 20
10.8400780823
 10
17.7260758069
 20
10.9018361223
 10
17.8027053461
 20
10.9716234003
 10
17.8651805779
 20
11.0481396172
 10
17.912337423
 20
11.1299590726
  0
LWPOLYLINE
  5
6C9
100
AcDbEntity
  8
0
100
AcDbPolyline
 62
7
  6
CONTINUOUS
 90
10
 70
0
 10
18.0033833471
 20
10.2082149032
 10
18.0047928774
 20
10.2068256881
 10
18.0095836526
 20
10.2013080355
 10
18.0137925292
 20
10.1955725199
 10
18.0173954437
 20
10.1896519331
 10
18.0203717976
 20
10.183580124
 10
18.0227045731
 20
10.1773918094
 10
18.024380434
 20
10.1711223672
 10
18.0253897985
 20
10.1648076431
 10
18.0257268957
 20
10.1584837401
  0
LINE
  5
6CA
100
AcDbEntity
  8
0
100
AcDbLine
 62
7
  6
CONTINUOUS
 10
17.9881359046
 20
11.4850677329
 11
18.0153609622
 21
11.3959454395
  0
LINE
  5
6CB
100
AcDbEntity
  8
0
100
AcDbLine
 62
7
  6
CONTINUOUS
 10
17.4703927031
 20
6.5598117395
 11
17.4621213391
 21
6.5505442141
  0
LWPOLYLINE
  5
6CC
100
AcDbEntity
  8
0
100
AcDbPolyline
 62
7
  6
CONTINUOUS
 90
3
 70
0
 10
17.5637086654
 20
6.7360251148
 10
17.5839769351
 20
6.7576295465
 10
17.6043684823
 20
6.7782208077
  0
LWPOLYLINE
  5
6CD
100
AcDbEntity
  8
0
100
AcDbPolyline
 62
7
  6
CONTINUOUS
 90
3
 70
0
 10
17.4600112859
 20
6.6140444744
 10
17.4397467147
 20
6.5924438797
 10
17.4193548615
 20
6.5718521151
  0
LWPOLYLINE
  5
6CE
100
AcDbEntity
  8
0
100
AcDbPolyline
 62
7
  6
CONTINUOUS
 90
3
 70
0
 10
17.4229113559
 20
6.5336052667
 10
17.4466988977
 20
6.5579654563
 10
17.4703927031
 20
6.5838086375
  0
LINE
  5
6CF
100
AcDbEntity
  8
0
100
AcDbLine
 62
7
  6
CONTINUOUS
 10
17.3988680211
 20
6.510496397
 11
17.4229113559
 21
6.5336052667
  0
LINE
  5
6D0
100
AcDbEntity
  8
0
100
AcDbLine
 62
7
  6
CONTINUOUS
 10
17.6043684823
 20
6.8617373567
 11
17.6248519302
 21
6.8813314665
  0
LINE
  5
6D1
100
AcDbEntity
  8
0
100
AcDbLine
 62
7
  6
CONTINUOUS
 10
17.4193548615
 20
6.6553686641
 11
17.3988680211
 21
6.6357712205
  0
LINE
  5
6D2
100
AcDbEntity
  8
0
100
AcDbLine
 62
7
  6
CONTINUOUS
 10
17.6043684823
 20
6.8199790822
 11
17.6248519302
 21
6.8395731921
  0
LINE
  5
6D3
100
AcDbEntity
  8
0
100
AcDbLine
 62
7
  6
CONTINUOUS
 10
17.4193548615
 20
6.6136103896
 11
17.3988680211
 21
6.594012946
  0
LINE
  5
6D4
100
AcDbEntity
  8
0
100
AcDbLine
 62
7
  6
CONTINUOUS
 10
17.6043684823
 20
6.7782208077
 11
17.6248519302
 21
6.7978149176
  0
LINE
  5
6D5
100
AcDbEntity
  8
0
100
AcDbLine
 62
7
  6
CONTINUOUS
 10
17.4193548615
 20
6.5718521151
 11
17.3988680211
 21
6.5522546715
  0
LWPOLYLINE
  5
6D6
100
AcDbEntity
  8
0
100
AcDbPolyline
 62
7
  6
CONTINUOUS
 90
3
 70
0
 10
17.4492166161
 20
6.5321729751
 10
17.4588784724
 20
6.5413387009
 10
17.467513058
 20
6.5510274201
  0
LWPOLYLINE
  5
6D7
100
AcDbEntity
  8
0
100
AcDbPolyline
 62
7
  6
CONTINUOUS
 90
3
 70
0
 10
17.4621213391
 20
6.5505442141
 10
17.4528445525
 20
6.5417655255
 10
17.442619845
 20
6.5335300878
  0
LINE
  5
6D8
100
AcDbEntity
  8
0
100
AcDbLine
 62
7
  6
CONTINUOUS
 10
17.4593267605
 20
6.8148106939
 11
17.4385336162
 21
6.8000102609
  0
LINE
  5
6D9
100
AcDbEntity
  8
0
100
AcDbLine
 62
7
  6
CONTINUOUS
 10
17.4600112859
 20
6.7735396604
 11
17.4385333917
 21
6.7582517597
  0
LINE
  5
6DA
100
AcDbEntity
  8
0
100
AcDbLine
 62
7
  6
CONTINUOUS
 10
17.4600112859
 20
6.731781386
 11
17.4385335466
 21
6.7164936417
  0
LINE
  5
6DB
100
AcDbEntity
  8
0
100
AcDbLine
 62
7
  6
CONTINUOUS
 10
17.4600112859
 20
6.6900231115
 11
17.4385336545
 21
6.6747354762
  0
LINE
  5
6DC
100
AcDbEntity
  8
0
100
AcDbLine
 62
7
  6
CONTINUOUS
 10
17.4600112859
 20
6.648264837
 11
17.438533545
 21
6.6329770911
  0
LWPOLYLINE
  5
6DD
100
AcDbEntity
  8
0
100
AcDbPolyline
 62
7
  6
CONTINUOUS
 90
3
 70
0
 10
17.5801811774
 20
7.0550820573
 10
17.7029573137
 20
7.1216981932
 10
17.8094842683
 20
7.2010751632
  0
LINE
  5
6DE
100
AcDbEntity
  8
0
100
AcDbLine
 62
7
  6
CONTINUOUS
 10
17.3217199827
 20
6.7300671446
 11
17.3988680211
 21
6.7663354254
  0
LINE
  5
6DF
100
AcDbEntity
  8
0
100
AcDbLine
 62
7
  6
CONTINUOUS
 10
17.4441790153
 20
7.0028670658
 11
17.5801811774
 21
7.0550820573
  0
LWPOLYLINE
  5
6E0
100
AcDbEntity
  8
AXIS
100
AcDbPolyline
 62
7
  6
CONTINUOUS
 90
4
 70
0
 10
17.5107341521
 20
6.9876461506
 10
17.4195890134
 20
6.9573717581
 10
17.3245800442
 20
6.9337729258
 10
17.2266821651
 20
6.9170918098
  0
LWPOLYLINE
  5
6E1
100
AcDbEntity
  8
0
100
AcDbPolyline
 62
7
  6
CONTINUOUS
 90
4
 70
0
 10
18.0001221246
 20
10.5962233182
 10
18.0021422392
 20
10.5943835519
 10
18.0031970071
 20
10.5927291709
 10
18.0033833471
 20
10.5917616047
  0
LINE
  5
6E2
100
AcDbEntity
  8
0
100
AcDbLine
 62
7
  6
CONTINUOUS
 10
17.4385907098
 20
6.5236035852
 11
17.4492166161
 21
6.5321729751
  0
LINE
  5
6E3
100
AcDbEntity
  8
0
100
AcDbLine
 62
7
  6
CONTINUOUS
 10
17.4600112859
 20
6.6065065625
 11
17.4385333961
 21
6.5912186663
  0
LWPOLYLINE
  5
6E4
100
AcDbEntity
  8
0
100
AcDbPolyline
 62
7
  6
CONTINUOUS
 90
11
 70
0
 10
17.442619845
 20
6.5335300878
 10
17.378340989
 20
6.4926538245
 10
17.3058138668
 20
6.4593872546
 10
17.2268224439
 20
6.4345486934
 10
17.1433103895
 20
6.4187493116
 10
17.0573317859
 20
6.4123776773
 10
16.9710017889
 20
6.4155905479
 10
16.8864441075
 20
6.428308885
 10
16.8057388669
 20
6.4502198169
 10
16.7308714215
 20
6.4807843332
 10
16.7231666623
 20
6.4851954381
  0
LWPOLYLINE
  5
6E5
100
AcDbEntity
  8
0
100
AcDbPolyline
 62
7
  6
CONTINUOUS
 90
12
 70
0
 10
17.4385907098
 20
6.5236035852
 10
17.3728511628
 20
6.4819168138
 10
17.2989237441
 20
6.4483573147
 10
17.2185057449
 20
6.423648771
 10
17.1338464865
 20
6.4084377162
 10
17.0470147792
 20
6.4030320522
 10
16.9601575423
 20
6.4075299336
 10
16.8753333018
 20
6.4218229393
 10
16.7946738305
 20
6.445577305
 10
16.7201161332
 20
6.4782749935
 10
16.6536700154
 20
6.519087308
 10
16.6437422868
 20
6.5274844903
  0
LINE
  5
6E6
100
AcDbEntity
  8
0
100
AcDbLine
 62
7
  6
CONTINUOUS
 10
17.3217199827
 20
6.6883088701
 11
17.3988680211
 21
6.7245771509
  0
LINE
  5
6E7
100
AcDbEntity
  8
0
100
AcDbLine
 62
7
  6
CONTINUOUS
 10
17.3217199827
 20
6.6465505956
 11
17.3988680211
 21
6.6828188764
  0
LINE
  5
6E8
100
AcDbEntity
  8
0
100
AcDbLine
 62
7
  6
CONTINUOUS
 10
17.3217199827
 20
6.6047923212
 11
17.3988680211
 21
6.6410606019
  0
LINE
  5
6E9
100
AcDbEntity
  8
0
100
AcDbLine
 62
7
  6
CONTINUOUS
 10
17.3217199827
 20
6.5630340467
 11
17.3988680211
 21
6.5993023274
  0
LINE
  5
6EA
100
AcDbEntity
  8
0
100
AcDbLine
 62
7
  6
CONTINUOUS
 10
17.3217199827
 20
6.5212757722
 11
17.3988680211
 21
6.557544053
  0
LWPOLYLINE
  5
6EB
100
AcDbEntity
  8
AXIS
100
AcDbPolyline
 62
7
  6
CONTINUOUS
 90
8
 70
0
 10
17.4960183241
 20
6.8283546745
 10
17.3774101012
 20
6.7845727447
 10
17.2520802488
 20
6.7545907083
 10
17.1224138151
 20
6.7387311769
 10
16.9913911094
 20
6.7372125276
 10
16.8615104488
 20
6.7499946822
 10
16.7356407721
 20
6.7768136338
 10
16.6159886346
 20
6.8173465146
  0
LINE
  5
6EC
100
AcDbEntity
  8
0
100
AcDbLine
 62
7
  6
CONTINUOUS
 10
17.3217199827
 20
6.4795174977
 11
17.3988680211
 21
6.5157857785
  0
LWPOLYLINE
  5
6ED
100
AcDbEntity
  8
AXIS
100
AcDbPolyline
 62
7
  6
CONTINUOUS
 90
32
 70
0
 10
17.4196414992
 20
11.7939956092
 10
17.4836994674
 20
11.7646888091
 10
17.5432357451
 20
11.7309498702
 10
17.5976394095
 20
11.6931249997
 10
17.6463522054
 20
11.651602332
 10
17.6888742736
 20
11.6068079458
 10
17.7247692802
 20
11.5592014921
 10
17.7536688938
 20
11.5092714776
 10
17.7752765652
 20
11.4575302518
 10
17.7893705706
 20
11.4045087497
 10
17.7958062862
 20
11.3507510437
 10
17.7945176731
 20
11.2968087605
 10
17.7855179541
 20
11.243235421
 10
17.7688994784
 20
11.1905807601
 10
17.7448327743
 20
11.1393850859
 10
17.7135647985
 20
11.0901737353
 10
17.6754164029
 20
11.0434516834
 10
17.6307790415
 20
10.9996983617
 10
17.5801107542
 20
10.9593627383
 10
17.5239314662
 20
10.9228587115
 10
17.4628176529
 20
10.8905608619
 10
17.3973964248
 20
10.8628006091
 10
17.3283390921
 20
10.839862811
 10
17.2563542767
 20
10.8219828403
 10
17.18218064
 20
10.8093441698
 10
17.1065793041
 20
10.8020764893
 10
17.0303260408
 20
10.8002543751
 10
16.9542033119
 20
10.8038965245
 10
16.8789922396
 20
10.8129655641
 10
16.8054645913
 20
10.8273684333
 10
16.7343748601
 20
10.8469573393
 10
16.6664525228
 20
10.8715312732
  0
LWPOLYLINE
  5
6EE
100
AcDbEntity
  8
0
100
AcDbPolyline
 62
7
  6
CONTINUOUS
 90
17
 70
0
 10
17.50073824
 20
11.8933184266
 10
17.3886781121
 20
11.9321231772
 10
17.2700200959
 20
11.9598233518
 10
17.1471391141
 20
11.9758380397
 10
17.0223202707
 20
11.9798706373
 10
16.8978859367
 20
11.9718461068
 10
16.7761565992
 20
11.9519138883
 10
16.6594001059
 20
11.920445369
 10
16.5497919003
 20
11.8780268821
 10
16.4493742508
 20
11.8254487861
 10
16.3600181947
 20
11.7636907439
 10
16.2833886588
 20
11.6939034641
 10
16.2209134305
 20
11.6173872457
 10
16.1737565893
 20
11.5355677892
 10
16.142796776
 20
11.4499695816
 10
16.1286108514
 20
11.3621875326
 10
16.1314631342
 20
11.2738572454
  0
LWPOLYLINE
  5
6EF
100
AcDbEntity
  8
AXIS
100
AcDbPolyline
 62
7
  6
CONTINUOUS
 90
32
 70
0
 10
17.4196414992
 20
11.7939956092
 10
17.3517191619
 20
11.8185695432
 10
17.2806294307
 20
11.8381584491
 10
17.2071017824
 20
11.8525613183
 10
17.13189071
 20
11.861630358
 10
17.0557679812
 20
11.8652725074
 10
16.9795147179
 20
11.8634503931
 10
16.903913382
 20
11.8561827126
 10
16.8297397453
 20
11.8435440421
 10
16.7577549299
 20
11.8256640715
 10
16.6886975972
 20
11.8027262733
 10
16.6232763691
 20
11.7749660206
 10
16.5621625558
 20
11.7426681709
 10
16.5059832677
 20
11.7061641441
 10
16.4553149805
 20
11.6658285208
 10
16.4106776191
 20
11.622075199
 10
16.3725292235
 20
11.5753531471
 10
16.3412612477
 20
11.5261417965
 10
16.3171945435
 20
11.4749461224
 10
16.3005760679
 20
11.4222914615
 10
16.2915763489
 20
11.368718122
 10
16.2902877358
 20
11.3147758388
 10
16.2967234514
 20
11.2610181327
 10
16.3108174568
 20
11.2079966306
 10
16.3324251282
 20
11.1562554048
 10
16.3613247418
 20
11.1063253903
 10
16.3972197483
 20
11.0587189367
 10
16.4397418166
 20
11.0139245505
 10
16.4884546125
 20
10.9724018827
 10
16.5428582769
 20
10.9345770122
 10
16.6023945546
 20
10.9008380733
 10
16.6664525228
 20
10.8715312732
  0
LWPOLYLINE
  5
6F0
100
AcDbEntity
  8
0
100
AcDbPolyline
 62
7
  6
CONTINUOUS
 90
7
 70
0
 10
17.5267790993
 20
11.9083872576
 10
17.6333625843
 20
11.8580065652
 10
17.7300823073
 20
11.7980026236
 10
17.8153025296
 20
11.7293492821
 10
17.8874762472
 20
11.6533102374
 10
17.9453656015
 20
11.5713586968
 10
17.9881359046
 20
11.4850677329
  0
CIRCLE
  5
6F1
100
AcDbEntity
  8
0
100
AcDbCircle
 62
7
  6
CONTINUOUS
 10
15.2229827477
 20
1.1139932523
 40
0.252091
  0
CIRCLE
  5
6F2
100
AcDbEntity
  8
0
100
AcDbCircle
 62
7
  6
CONTINUOUS
 10
15.2229827477
 20
1.1139932523
 40
0.182698
  0
CIRCLE
  5
6F3
100
AcDbEntity
  8
0
100
AcDbCircle
 62
7
  6
CONTINUOUS
 10
14.8013422688
 20
1.8652439144
 40
0.0638444824
  0
ARC
  5
6F4
100
AcDbEntity
  8
AXIS
100
AcDbCircle
 62
7
  6
CONTINUOUS
 10
7.6352553102
 20
6.7774636635
 40
7.874015748
100
AcDbArc
 50
84.5109797622
 51
95.4890202378
  0
ARC
  5
6F5
100
AcDbEntity
  8
0
100
AcDbCircle
 62
7
  6
CONTINUOUS
 10
7.6352553102
 20
19.8141923824
 40
6.1909448819
100
AcDbArc
 50
273.3723642224
 51
278.1998074701
  0
ARC
  5
6F6
100
AcDbEntity
  8
0
100
AcDbCircle
 62
7
  6
CONTINUOUS
 10
7.6352553102
 20
19.8141923824
 40
6.1909448819
100
AcDbArc
 50
261.8001925299
 51
266.6276357776
  0
ARC
  5
6F7
100
AcDbEntity
  8
AXIS
100
AcDbCircle
 62
7
  6
CONTINUOUS
 10
8.391160822
 20
9.0543498627
 40
0.1299212598
100
AcDbArc
 50
270.0
 51
360.0
  0
ARC
  5
6F8
100
AcDbEntity
  8
AXIS
100
AcDbCircle
 62
7
  6
CONTINUOUS
 10
6.8793497984
 20
9.0543498627
 40
0.1299212598
100
AcDbArc
 50
180.0
 51
270.0
  0
ARC
  5
6F9
100
AcDbEntity
  8
0
100
AcDbCircle
 62
7
  6
CONTINUOUS
 10
6.7691135779
 20
13.0102985935
 40
0.1181102362
100
AcDbArc
 50
115.0
 51
180.0
  0
ARC
  5
6FA
100
AcDbEntity
  8
0
100
AcDbCircle
 62
7
  6
CONTINUOUS
 10
8.5013970425
 20
13.0102985935
 40
0.1181102362
100
AcDbArc
 50
0.0
 51
65.0
  0
ARC
  5
6FB
100
AcDbEntity
  8
0
100
AcDbCircle
 62
7
  6
CONTINUOUS
 10
6.7691135779
 20
13.8034420854
 40
0.1181102362
100
AcDbArc
 50
180.0
 51
261.8001925299
  0
ARC
  5
6FC
100
AcDbEntity
  8
0
100
AcDbCircle
 62
7
  6
CONTINUOUS
 10
8.5013970425
 20
13.8034420854
 40
0.1181102362
100
AcDbArc
 50
278.1998074701
 51
360.0
  0
ARC
  5
6FD
100
AcDbEntity
  8
0
100
AcDbCircle
 62
7
  6
CONTINUOUS
 10
6.7198728523
 20
14.5464758469
 40
0.0688976378
100
AcDbArc
 50
90.0
 51
178.3627549222
  0
ARC
  5
6FE
100
AcDbEntity
  8
0
100
AcDbCircle
 62
7
  6
CONTINUOUS
 10
8.5506377681
 20
14.5464758469
 40
0.0688976378
100
AcDbArc
 50
1.6372450778
 51
90.0
  0
ARC
  5
6FF
100
AcDbEntity
  8
0
100
AcDbCircle
 62
7
  6
CONTINUOUS
 10
7.0525781448
 20
8.8929325399
 40
0.031496063
100
AcDbArc
 50
0.0
 51
90.0
  0
ARC
  5
700
100
AcDbEntity
  8
0
100
AcDbCircle
 62
7
  6
CONTINUOUS
 10
8.2179324755
 20
8.8929325399
 40
0.031496063
100
AcDbArc
 50
90.0
 51
180.0
  0
ARC
  5
701
100
AcDbEntity
  8
0
100
AcDbCircle
 62
7
  6
CONTINUOUS
 10
8.1549403496
 20
8.2078931698
 40
0.031496063
100
AcDbArc
 50
270.0
 51
360.0
  0
ARC
  5
702
100
AcDbEntity
  8
0
100
AcDbCircle
 62
7
  6
CONTINUOUS
 10
7.1155702708
 20
8.2078931698
 40
0.031496063
100
AcDbArc
 50
180.0
 51
270.0
  0
ARC
  5
703
100
AcDbEntity
  8
0
100
AcDbCircle
 62
7
  6
CONTINUOUS
 10
8.5407671212
 20
9.3279719099
 40
0.0196850394
100
AcDbArc
 50
90.0
 51
180.0
  0
ARC
  5
704
100
AcDbEntity
  8
0
100
AcDbCircle
 62
7
  6
CONTINUOUS
 10
6.7297434992
 20
9.3279719099
 40
0.0196850394
100
AcDbArc
 50
0.0
 51
90.0
  0
ARC
  5
705
100
AcDbEntity
  8
0
100
AcDbCircle
 62
7
  6
CONTINUOUS
 10
6.6510033417
 20
4.0342701125
 40
0.0196850394
100
AcDbArc
 50
117.0622390941
 51
242.9377589989
  0
ARC
  5
706
100
AcDbEntity
  8
AXIS
100
AcDbCircle
 62
7
  6
CONTINUOUS
 10
6.6510033417
 20
4.0342701125
 40
0.0196850394
100
AcDbArc
 50
117.5348688225
 51
242.4651311775
  0
ARC
  5
707
100
AcDbEntity
  8
0
100
AcDbCircle
 62
7
  6
CONTINUOUS
 10
7.7181898552
 20
3.6897819235
 40
0.2283464567
100
AcDbArc
 50
270.0
 51
283.5362027374
  0
ARC
  5
708
100
AcDbEntity
  8
0
100
AcDbCircle
 62
7
  6
CONTINUOUS
 10
7.5523207652
 20
3.6897819235
 40
0.2283464567
100
AcDbArc
 50
256.4637972626
 51
270.0
  0
ARC
  5
709
100
AcDbEntity
  8
0
100
AcDbCircle
 62
7
  6
CONTINUOUS
 10
7.5523207652
 20
3.6897819235
 40
0.1968503937
100
AcDbArc
 50
256.4637972626
 51
270.0
  0
ARC
  5
70A
100
AcDbEntity
  8
0
100
AcDbCircle
 62
7
  6
CONTINUOUS
 10
7.7181898552
 20
3.6897819235
 40
0.1968503937
100
AcDbArc
 50
270.0
 51
283.5362027374
  0
ARC
  5
70B
100
AcDbEntity
  8
0
100
AcDbCircle
 62
7
  6
CONTINUOUS
 10
7.7181898552
 20
3.6897819235
 40
0.1653543307
100
AcDbArc
 50
270.0
 51
283.5362027374
  0
ARC
  5
70C
100
AcDbEntity
  8
0
100
AcDbCircle
 62
7
  6
CONTINUOUS
 10
7.5523207652
 20
3.6897819235
 40
0.1653543307
100
AcDbArc
 50
256.4637972626
 51
270.0
  0
ARC
  5
70D
100
AcDbEntity
  8
0
100
AcDbCircle
 62
7
  6
CONTINUOUS
 10
7.5523207652
 20
4.3787583015
 40
0.2283464567
100
AcDbArc
 50
90.0
 51
103.5362027374
  0
ARC
  5
70E
100
AcDbEntity
  8
0
100
AcDbCircle
 62
7
  6
CONTINUOUS
 10
7.5523207652
 20
4.3787583015
 40
0.1968503937
100
AcDbArc
 50
90.0
 51
103.5362027374
  0
ARC
  5
70F
100
AcDbEntity
  8
0
100
AcDbCircle
 62
7
  6
CONTINUOUS
 10
7.5523207652
 20
4.3787583015
 40
0.1653543307
100
AcDbArc
 50
90.0
 51
103.5362027374
  0
CIRCLE
  5
710
100
AcDbEntity
  8
AXIS
100
AcDbCircle
 62
7
  6
CONTINUOUS
 10
7.6352553102
 20
4.0342701125
 40
0.9940944882
  0
ARC
  5
711
100
AcDbEntity
  8
SCHEME_DIMS
100
AcDbCircle
 62
7
  6
CONTINUOUS
 10
7.6352553102
 20
4.0342701125
 40
0.9940944882
100
AcDbArc
 50
180.0
 51
229.7986158755
  0
CIRCLE
  5
712
100
AcDbEntity
  8
QUILTS
100
AcDbCircle
 62
7
  6
CONTINUOUS
 10
7.6352553102
 20
4.0342701125
 40
0.9862204724
  0
CIRCLE
  5
713
100
AcDbEntity
  8
0
100
AcDbCircle
 62
7
  6
CONTINUOUS
 10
7.6352553102
 20
4.0342701125
 40
0.905511811
  0
ARC
  5
714
100
AcDbEntity
  8
0
100
AcDbCircle
 62
7
  6
CONTINUOUS
 10
7.6352553102
 20
4.0342701125
 40
0.8858267717
100
AcDbArc
 50
187.3796037165
 51
352.6203949041
  0
CIRCLE
  5
715
100
AcDbEntity
  8
AXIS
100
AcDbCircle
 62
7
  6
CONTINUOUS
 10
7.6352553102
 20
4.0342701125
 40
0.8858267717
  0
CIRCLE
  5
716
100
AcDbEntity
  8
AXIS
100
AcDbCircle
 62
7
  6
CONTINUOUS
 10
7.6352553102
 20
4.0342701125
 40
0.7559055118
  0
ARC
  5
717
100
AcDbEntity
  8
0
100
AcDbCircle
 62
7
  6
CONTINUOUS
 10
7.6352553102
 20
4.0342701125
 40
0.5826771654
100
AcDbArc
 50
68.46218756
 51
76.4637972626
  0
ARC
  5
718
100
AcDbEntity
  8
0
100
AcDbCircle
 62
7
  6
CONTINUOUS
 10
7.6352553102
 20
4.0342701125
 40
0.5826771654
100
AcDbArc
 50
283.5362027374
 51
291.5391316457
  0
ARC
  5
719
100
AcDbEntity
  8
0
100
AcDbCircle
 62
7
  6
CONTINUOUS
 10
7.6352553102
 20
4.0342701125
 40
0.5826771654
100
AcDbArc
 50
248.4608858433
 51
256.4637972626
  0
ARC
  5
71A
100
AcDbEntity
  8
0
100
AcDbCircle
 62
7
  6
CONTINUOUS
 10
7.6352553102
 20
4.0342701125
 40
0.5826771654
100
AcDbArc
 50
103.5362027374
 51
111.5378680334
  0
ARC
  5
71B
100
AcDbEntity
  8
0
100
AcDbCircle
 62
7
  6
CONTINUOUS
 10
7.6352553102
 20
4.0342701125
 40
0.5511811024
100
AcDbArc
 50
103.5362027374
 51
256.4637972626
  0
ARC
  5
71C
100
AcDbEntity
  8
0
100
AcDbCircle
 62
7
  6
CONTINUOUS
 10
7.6352553102
 20
4.0342701125
 40
0.5511811024
100
AcDbArc
 50
283.5362027374
 51
76.4637972626
  0
ARC
  5
71D
100
AcDbEntity
  8
0
100
AcDbCircle
 62
7
  6
CONTINUOUS
 10
7.6352553102
 20
4.0342701125
 40
0.5196850394
100
AcDbArc
 50
283.5362027374
 51
76.4637972626
  0
ARC
  5
71E
100
AcDbEntity
  8
0
100
AcDbCircle
 62
7
  6
CONTINUOUS
 10
7.6352553102
 20
4.0342701125
 40
0.5196850394
100
AcDbArc
 50
103.5362027374
 51
256.4637972626
  0
CIRCLE
  5
71F
100
AcDbEntity
  8
0
100
AcDbCircle
 62
7
  6
CONTINUOUS
 10
7.6352553102
 20
4.0342701125
 40
0.4682862539
  0
CIRCLE
  5
720
100
AcDbEntity
  8
0
100
AcDbCircle
 62
7
  6
CONTINUOUS
 10
7.6352553102
 20
4.0342701125
 40
0.4460151742
  0
CIRCLE
  5
721
100
AcDbEntity
  8
0
100
AcDbCircle
 62
7
  6
CONTINUOUS
 10
7.6352553102
 20
4.0342701125
 40
0.3765
  0
ARC
  5
722
100
AcDbEntity
  8
0
100
AcDbCircle
 62
7
  6
CONTINUOUS
 10
7.6352553102
 20
4.0342701125
 40
0.3568149606
100
AcDbArc
 50
51.3357489792
 51
354.046306505
  0
CIRCLE
  5
723
100
AcDbEntity
  8
0
100
AcDbCircle
 62
7
  6
CONTINUOUS
 10
7.6352553102
 20
4.0342701125
 40
0.3051181102
  0
CIRCLE
  5
724
100
AcDbEntity
  8
0
100
AcDbCircle
 62
7
  6
CONTINUOUS
 10
7.6352553102
 20
4.0342701125
 40
0.29
  0
CIRCLE
  5
725
100
AcDbEntity
  8
0
100
AcDbCircle
 62
7
  6
CONTINUOUS
 10
7.6352553102
 20
4.0342701125
 40
0.2611324865
  0
CIRCLE
  5
726
100
AcDbEntity
  8
0
100
AcDbCircle
 62
7
  6
CONTINUOUS
 10
7.6352553102
 20
4.0342701125
 40
0.17
  0
CIRCLE
  5
727
100
AcDbEntity
  8
0
100
AcDbCircle
 62
7
  6
CONTINUOUS
 10
7.6352553102
 20
4.0342701125
 40
0.11
  0
CIRCLE
  5
728
100
AcDbEntity
  8
02___PRT_ALL_AXES
100
AcDbCircle
 62
7
  6
CONTINUOUS
 10
7.6352553102
 20
4.0342701125
 40
0.1075
  0
ARC
  5
729
100
AcDbEntity
  8
0
100
AcDbCircle
 62
7
  6
CONTINUOUS
 10
7.7181898552
 20
4.3787583015
 40
0.2283464567
100
AcDbArc
 50
76.4637972626
 51
90.0
  0
ARC
  5
72A
100
AcDbEntity
  8
0
100
AcDbCircle
 62
7
  6
CONTINUOUS
 10
7.7181898552
 20
4.3787583015
 40
0.1968503937
100
AcDbArc
 50
76.4637972626
 51
90.0
  0
ARC
  5
72B
100
AcDbEntity
  8
0
100
AcDbCircle
 62
7
  6
CONTINUOUS
 10
7.7181898552
 20
4.3787583015
 40
0.1653543307
100
AcDbArc
 50
76.4637972626
 51
90.0
  0
ENDSEC
  0
SECTION
  2
OBJECTS
  0
DICTIONARY
  5
C
100
AcDbDictionary
280
0
281
1
  3
ACAD_GROUP
350
D
  3
ACAD_MLINESTYLE
350
17
  3
ACAD_LAYOUT
350
1A
  3
ACAD_PLOTSETTINGS
350
19
  3
ACAD_PLOTSTYLENAME
350
E
  3
ACAD_TABLESTYLE
350
       72C
  0
DICTIONARY
  5
D
102
{ACAD_REACTORS
330
C
102
}
100
AcDbDictionary
280
0
281
1
  0
ACDBDICTIONARYWDFLT
  5
E
102
{ACAD_REACTORS
330
C
102
}
100
AcDbDictionary
281
1
  3
Normal
350
F
100
AcDbDictionaryWithDefault
340
F
  0
DICTIONARY
  5
17
102
{ACAD_REACTORS
330
C
102
}
100
AcDbDictionary
280
0
281
1
  3
Standard
350
18
  0
DICTIONARY
  5
72C
330
C
100
AcDbDictionary
281
1
  3
Standard
350
       72F
  3
Standard1
350
       730
  0
DICTIONARY
  5
19
102
{ACAD_REACTORS
330
C
102
}
100
AcDbDictionary
281
1
  0
DICTIONARY
  5
1A
102
{ACAD_REACTORS
330
C
102
}
100
AcDbDictionary
281
1
  3
Model
350
72D
  3
Layout1
350
72E
  0
ACDBPLACEHOLDER
  5
F
102
{ACAD_REACTORS
330
E
102
}
  0
MLINESTYLE
  5
18
102
{ACAD_REACTORS
330
17
102
}
100
AcDbMlineStyle
  2
STANDARD
 70
0
  3

 62
256
 51
90.0
 52
90.0
 71
2
 49
0.5
 62
256
  6
BYLAYER
 49
-0.5
 62
256
  6
BYLAYER
  0
LAYOUT
  5
72D
102
{ACAD_REACTORS
330
1A
102
}
100
AcDbPlotSettings
  1

  2
none_device
  4
ANSI_C_(22.00_x_17.00_Inches)
  6

 40
0.0
 41
0.0
 42
0.0
 43
0.0
 44
558.8
 45
431.8
 46
0.0
 47
0.0
 48
0.0
 49
0.0
140
0.0
141
0.0
142
1.0
143
1.0
 70
1024
 72
0
 73
0
 74
0
  7

 75
0
147
1.0
148
0.0
149
0.0
100
AcDbLayout
  1
Model
 70
0
 71
0
 10
0.0
 20
0.0
 11
22.0
 21
17.0
 12
0.0
 22
0.0
 32
0.0
 14
0.0
 24
0.0
 34
0.0
 15
0.0
 25
0.0
 35
0.0
146
0.0
 13
0.0
 23
0.0
 33
0.0
 16
1.0
 26
0.0
 36
0.0
 17
0.0
 27
1.0
 37
0.0
 76
0
330
255
345
0
346
0
  0
LAYOUT
  5
72E
102
{ACAD_REACTORS
330
1A
102
}
100
AcDbPlotSettings
  1

  2
none_device
  4
ANSI_C_(22.00_x_17.00_Inches)
  6

 40
0.0
 41
0.0
 42
0.0
 43
0.0
 44
558.8
 45
431.8
 46
0.0
 47
0.0
 48
0.0
 49
0.0
140
0.0
141
0.0
142
1.0
143
1.0
 70
0
 72
0
 73
0
 74
0
  7

 75
0
147
1.0
148
0.0
149
0.0
100
AcDbLayout
  1
Layout1
 70
0
 71
1
 10
0.0
 20
0.0
 11
22.0
 21
17.0
 12
0.0
 22
0.0
 32
0.0
 14
0.0
 24
0.0
 34
0.0
 15
0.0
 25
0.0
 35
0.0
146
0.0
 13
0.0
 23
0.0
 33
0.0
 16
1.0
 26
0.0
 36
0.0
 17
0.0
 27
1.0
 37
0.0
 76
0
330
256
345
0
346
0
  0
TABLESTYLE
  5
72F
102
{ACAD_REACTORS
330
72C
102
}
330
72C
100
AcDbTableStyle
  3
Standard
 70
0
 71
0
 40
0.06
 41
0.06
280
1
281
1
  7
Standard
140
0.18
170
1
 62
0
 63
7
283
0
  7
Standard
140
0.18
170
1
 62
0
 63
7
283
0
  7
Standard
140
0.18
170
1
 62
0
 63
7
283
0
  0
TABLESTYLE
  5
730
102
{ACAD_REACTORS
330
72C
330
2C8
102
}
330
72C
100
AcDbTableStyle
  3
Standard1
 70
1
 71
0
 40
0.06
 41
0.06
280
1
281
1
  7
Standard
140
0.18
170
1
 62
0
 63
7
283
0
  7
Standard
140
0.18
170
1
 62
0
 63
7
283
0
  7
Standard
140
0.18
170
1
 62
0
 63
7
283
0
  0
ENDSEC
  0
EOF
