999
DXF file: 212910_1.dxf
999
Pro/ENGINEER 2018300 by Parametric Technology Corporation
  0
SECTION
  2
HEADER
  9
$ACADVER
  1
AC1027
  9
$DWGCODEPAGE
  3
ANSI_1252
  9
$EXTMAX
 10
22.0
 20
17.0
 30
0.0
  9
$EXTMIN
 10
0.0
 20
0.0
 30
0.0
  9
$LIMMIN
 10
0.0
 20
0.0
  9
$LIMMAX
 10
22.0
 20
17.0
  9
$VIEWCTR
 10
11.0
 20
8.5
  9
$VIEWSIZE
 40
17.0
  9
$CLAYER
  8
0
  9
$LTSCALE
 40
1.21
  9
$CELTYPE
  6
BYLAYER
  9
$DIMSCALE
 40
1.0
  9
$DIMASZ
 40
0.1875
  9
$DIMEXO
 40
0.0625
  9
$DIMDLI
 40
0.836
  9
$DIMEXE
 40
0.125
  9
$DIMCEN
 40
0.198
  9
$DIMLFAC
 40
1.0
  9
$DIMBLK
  1
_FILLED
  9
$DIMALT
 70
1
  9
$DIMALTD
 70
2
  9
$DIMALTTD
 70
2
  9
$DIMALTF
 40
25.4
  9
$DIMTXT
 40
0.1
  9
$DIMTOL
 70
1
  9
$DIMLIM
 70
0
  9
$DIMTFAC
 40
1.0
  9
$DIMTP
 40
0.005
  9
$DIMTM
 40
0.005
  9
$DIMGAP
 40
0.09
  9
$DIMDSEP
 70
46
  9
$AUNITS
 70
0
  9
$PDMODE
 70
3
  9
$PDSIZE
 40
0.3125
  9
$HANDSEED
  5
74F
  9
$TILEMODE
 70
1
  9
$MEASUREMENT
 70
0
  9
$INSUNITS
 70
1
  0
ENDSEC
  0
SECTION
  2
CLASSES
  0
CLASS
  1
ACDBDICTIONARYWDFLT
  2
AcDbDictionaryWithDefault
  3
AutoCAD 2000
 90
0
 91
1
280
0
281
0
  0
CLASS
  1
ACDBPLACEHOLDER
  2
AcDbPlaceHolder
  3
AutoCAD 2000
 90
0
 91
1
280
0
281
0
  0
CLASS
  1
LAYOUT
  2
AcDbLayout
  3
AutoCAD 2000
 90
0
 91
0
280
0
281
0
  0
CLASS
  1
TABLESTYLE
  2
AcDbTableStyle
  3
ObjectDBX Classes
 90
2047
 91
1
280
0
281
0
  0
CLASS
  1
ACAD_TABLE
  2
AcDbTable
  3
ObjectDBX Classes
 90
1025
 91
1
280
0
281
1
  0
ENDSEC
  0
SECTION
  2
TABLES
  0
TABLE
  2
VPORT
  5
8
100
AcDbSymbolTable
 70
2
  0
VPORT
  5
1F4
100
AcDbSymbolTableRecord
100
AcDbViewportTableRecord
  2
*ACTIVE
 70
0
 10
0.0
 20
0.0
 11
1.0
 21
1.0
 12
11.0
 22
8.5
 13
0.0
 23
0.0
 14
1.0
 24
1.0
 15
0.0
 25
0.0
 16
0.0
 26
0.0
 36
1.0
 17
0.0
 27
0.0
 37
0.0
 40
17.0
 41
1.2941176471
 42
50.0
 43
0.0
 44
0.0
 50
0.0
 51
0.0
 71
0
 72
100
 73
1
 74
1
 75
0
 76
0
 77
0
 78
0
  0
ENDTAB
  0
TABLE
  2
LTYPE
  5
5
100
AcDbSymbolTable
 70
6
  0
LTYPE
  5
14
100
AcDbSymbolTableRecord
100
AcDbLinetypeTableRecord
  2
BYBLOCK
 70
0
  3

 72
65
 73
0
 40
0.0
  0
LTYPE
  5
15
100
AcDbSymbolTableRecord
100
AcDbLinetypeTableRecord
  2
BYLAYER
 70
0
  3

 72
65
 73
0
 40
0.0
  0
LTYPE
  5
16
100
AcDbSymbolTableRecord
100
AcDbLinetypeTableRecord
  2
CONTINUOUS
 70
64
  3
Solid line
 72
65
 73
0
 40
0.0
  0
LTYPE
  5
1F5
100
AcDbSymbolTableRecord
100
AcDbLinetypeTableRecord
  2
CENTER
 70
64
  3
____ _ ____ _ ____ _ ____ _ ____ _ ____ _ ____
 72
65
 73
4
 40
0.6
 49
0.375
 74
0
 49
-0.075
 74
0
 49
0.075
 74
0
 49
-0.075
 74
0
  0
LTYPE
  5
1F6
100
AcDbSymbolTableRecord
100
AcDbLinetypeTableRecord
  2
HIDDEN
 70
64
  3
- - - - - - - - - - - - - - - - - - - -
 72
65
 73
2
 40
0.2
 49
0.1
 74
0
 49
-0.1
 74
0
  0
LTYPE
  5
1F7
100
AcDbSymbolTableRecord
100
AcDbLinetypeTableRecord
  2
PHANTOM
 70
64
  3
_____ _ _ _____ _ _ _____ _ _ _____
 72
65
 73
6
 40
0.8
 49
0.45
 74
0
 49
-0.05
 74
0
 49
0.1
 74
0
 49
-0.05
 74
0
 49
0.1
 74
0
 49
-0.05
 74
0
  0
LTYPE
  5
1F8
100
AcDbSymbolTableRecord
100
AcDbLinetypeTableRecord
  2
DOT
 70
64
  3
. . . . . . . . . . . . . . . . . . . .
 72
65
 73
2
 40
0.2
 49
0.1
 74
0
 49
-0.1
 74
0
  0
LTYPE
  5
1F9
100
AcDbSymbolTableRecord
100
AcDbLinetypeTableRecord
  2
DASHED
 70
64
  3
- - - - - - - - - - - - - - - - - - - -
 72
65
 73
2
 40
0.2
 49
0.1
 74
0
 49
-0.1
 74
0
  0
ENDTAB
  0
TABLE
  2
LAYER
  5
2
100
AcDbSymbolTable
 70
36
  0
LAYER
  5
10
100
AcDbSymbolTableRecord
100
AcDbLayerTableRecord
  2
0
 70
0
 62
7
  6
CONTINUOUS
370
-3
390
F
  0
LAYER
  5
1FA
100
AcDbSymbolTableRecord
100
AcDbLayerTableRecord
  2
DEFAULT_1
 70
0
 62
7
  6
CENTER
370
-3
390
F
  0
LAYER
  5
1FB
100
AcDbSymbolTableRecord
100
AcDbLayerTableRecord
  2
DEFAULT_2
 70
0
 62
7
  6
HIDDEN
370
-3
390
F
  0
LAYER
  5
1FC
100
AcDbSymbolTableRecord
100
AcDbLayerTableRecord
  2
DEFAULT_3
 70
0
 62
7
  6
PHANTOM
370
-3
390
F
  0
LAYER
  5
1FD
100
AcDbSymbolTableRecord
100
AcDbLayerTableRecord
  2
01___PRT_ALL_DTM_PLN
 70
0
 62
7
  6
CONTINUOUS
370
-3
390
F
  0
LAYER
  5
1FE
100
AcDbSymbolTableRecord
100
AcDbLayerTableRecord
  2
01___PRT_DEF_DTM_PLN
 70
0
 62
7
  6
CONTINUOUS
370
-3
390
F
  0
LAYER
  5
1FF
100
AcDbSymbolTableRecord
100
AcDbLayerTableRecord
  2
02___PRT_ALL_AXES
 70
0
 62
7
  6
CONTINUOUS
370
-3
390
F
  0
LAYER
  5
200
100
AcDbSymbolTableRecord
100
AcDbLayerTableRecord
  2
03___PRT_ALL_CURVES
 70
0
 62
7
  6
CONTINUOUS
370
-3
390
F
  0
LAYER
  5
201
100
AcDbSymbolTableRecord
100
AcDbLayerTableRecord
  2
04___PRT_ALL_DTM_PNT
 70
0
 62
7
  6
CONTINUOUS
370
-3
390
F
  0
LAYER
  5
202
100
AcDbSymbolTableRecord
100
AcDbLayerTableRecord
  2
05___PRT_ALL_DTM_CSYS
 70
0
 62
7
  6
CONTINUOUS
370
-3
390
F
  0
LAYER
  5
203
100
AcDbSymbolTableRecord
100
AcDbLayerTableRecord
  2
05___PRT_DEF_DTM_CSYS
 70
0
 62
7
  6
CONTINUOUS
370
-3
390
F
  0
LAYER
  5
204
100
AcDbSymbolTableRecord
100
AcDbLayerTableRecord
  2
06___PRT_ALL_SURFS
 70
0
 62
7
  6
CONTINUOUS
370
-3
390
F
  0
LAYER
  5
205
100
AcDbSymbolTableRecord
100
AcDbLayerTableRecord
  2
AXIS
 70
0
 62
7
  6
CONTINUOUS
370
-3
390
F
  0
LAYER
  5
206
100
AcDbSymbolTableRecord
100
AcDbLayerTableRecord
  2
AXIS_COSMETIC_THREADS
 70
0
 62
7
  6
CONTINUOUS
370
-3
390
F
  0
LAYER
  5
207
100
AcDbSymbolTableRecord
100
AcDbLayerTableRecord
  2
DATUM_CURVES
 70
0
 62
7
  6
CONTINUOUS
370
-3
390
F
  0
LAYER
  5
208
100
AcDbSymbolTableRecord
100
AcDbLayerTableRecord
  2
DATUM_PLANES
 70
0
 62
7
  6
CONTINUOUS
370
-3
390
F
  0
LAYER
  5
209
100
AcDbSymbolTableRecord
100
AcDbLayerTableRecord
  2
GEOMETRIC_TOLERANCES
 70
0
 62
7
  6
CONTINUOUS
370
-3
390
F
  0
LAYER
  5
20A
100
AcDbSymbolTableRecord
100
AcDbLayerTableRecord
  2
NOTES
 70
0
 62
7
  6
CONTINUOUS
370
-3
390
F
  0
LAYER
  5
20B
100
AcDbSymbolTableRecord
100
AcDbLayerTableRecord
  2
QUILTS
 70
0
 62
7
  6
CONTINUOUS
370
-3
390
F
  0
LAYER
  5
20C
100
AcDbSymbolTableRecord
100
AcDbLayerTableRecord
  2
SCHEME_DIMS
 70
0
 62
7
  6
CONTINUOUS
370
-3
390
F
  0
LAYER
  5
20D
100
AcDbSymbolTableRecord
100
AcDbLayerTableRecord
  2
SYMBOLS
 70
0
 62
7
  6
CONTINUOUS
370
-3
390
F
  0
ENDTAB
  0
TABLE
  2
STYLE
  5
3
100
AcDbSymbolTable
 70
1
  0
STYLE
  5
11
100
AcDbSymbolTableRecord
100
AcDbTextStyleTableRecord
  2
STANDARD
 70
0
 40
0.0
 41
1.0
 50
0.0
 71
0
 42
0.2
  3
txt
  4

  0
STYLE
  5
20E
100
AcDbSymbolTableRecord
100
AcDbTextStyleTableRecord
  2
TEXTSTYLE_1
 70
0
 40
0.0
 41
0.8
 50
0.0
 71
0
 42
0.2
  3
gdt
  4

  0
STYLE
  5
20F
100
AcDbSymbolTableRecord
100
AcDbTextStyleTableRecord
  2
TEXTSTYLE_2
 70
0
 40
0.0
 41
0.8
 50
0.0
 71
0
 42
0.2
  3
txt
  4

  0
STYLE
  5
210
100
AcDbSymbolTableRecord
100
AcDbTextStyleTableRecord
  2
TEXTSTYLE_3
 70
0
 40
0.0
 41
0.9
 50
0.0
 71
0
 42
0.2
  3
txt
  4

  0
STYLE
  5
211
100
AcDbSymbolTableRecord
100
AcDbTextStyleTableRecord
  2
TEXTSTYLE_4
 70
0
 40
0.0
 41
0.85
 50
0.0
 71
0
 42
0.2
  3
txt
  4

  0
STYLE
  5
212
100
AcDbSymbolTableRecord
100
AcDbTextStyleTableRecord
  2
TEXTSTYLE_5
 70
0
 40
0.0
 41
0.75
 50
0.0
 71
0
 42
0.2
  3
txt
  4

  0
STYLE
  5
213
100
AcDbSymbolTableRecord
100
AcDbTextStyleTableRecord
  2
TEXTSTYLE_6
 70
0
 40
0.0
 41
1.0
 50
0.0
 71
0
 42
0.2
  3
gdt
  4

  0
ENDTAB
  0
TABLE
  2
VIEW
  5
6
100
AcDbSymbolTable
 70
0
  0
ENDTAB
  0
TABLE
  2
UCS
  5
7
100
AcDbSymbolTable
 70
0
  0
ENDTAB
  0
TABLE
  2
APPID
  5
9
100
AcDbSymbolTable
 70
1
  0
APPID
  5
214
100
AcDbSymbolTableRecord
100
AcDbRegAppTableRecord
  2
ACAD
 70
0
  0
ENDTAB
  0
TABLE
  2
BLOCK_RECORD
  5
1
100
AcDbSymbolTable
 70
0
  0
BLOCK_RECORD
  5
215
100
AcDbSymbolTableRecord
100
AcDbBlockTableRecord
  2
*Model_Space
  0
BLOCK_RECORD
  5
216
100
AcDbSymbolTableRecord
100
AcDbBlockTableRecord
  2
*Paper_Space
  0
BLOCK_RECORD
  5
217
100
AcDbSymbolTableRecord
100
AcDbBlockTableRecord
  2
_FILLED
  0
BLOCK_RECORD
  5
218
100
AcDbSymbolTableRecord
100
AcDbBlockTableRecord
  2
*D0
  0
BLOCK_RECORD
  5
219
100
AcDbSymbolTableRecord
100
AcDbBlockTableRecord
  2
*D1
  0
BLOCK_RECORD
  5
21A
100
AcDbSymbolTableRecord
100
AcDbBlockTableRecord
  2
*D2
  0
BLOCK_RECORD
  5
21B
100
AcDbSymbolTableRecord
100
AcDbBlockTableRecord
  2
*D3
  0
BLOCK_RECORD
  5
21C
100
AcDbSymbolTableRecord
100
AcDbBlockTableRecord
  2
*D4
  0
BLOCK_RECORD
  5
21D
100
AcDbSymbolTableRecord
100
AcDbBlockTableRecord
  2
*D5
  0
BLOCK_RECORD
  5
21E
100
AcDbSymbolTableRecord
100
AcDbBlockTableRecord
  2
*T1
  0
ENDTAB
  0
TABLE
  2
DIMSTYLE
  5
A
100
AcDbSymbolTable
 70
1
100
AcDbDimStyleTable
 71
0
  0
DIMSTYLE
105
21F
100
AcDbSymbolTableRecord
100
AcDbDimStyleTableRecord
  2
STANDARD
 70
0
  3

  4

 40
1.0
 41
0.1875
 42
0.0625
 43
0.38
 44
0.125
 45
0.0
 46
0.0
 47
0.005
 48
0.005
140
0.1
141
0.09
142
0.0
143
1.0
144
1.0
145
0.0
146
1.0
147
0.09
 71
1.0
 72
0.0
 73
1
 74
1
 75
0
 76
0
 77
0
 78
0
 79
0
170
1
171
2
172
0
173
0
174
0
175
0
176
0
177
0
178
0
270
2
179
3
271
3
272
3
273
2
274
2
275
0
280
0
281
0
282
0
283
1
284
0
285
0
286
0
287
3
288
0
340
11
278
46
341
217
342
217
343
217
344
217
  0
DIMSTYLE
105
220
100
AcDbSymbolTableRecord
100
AcDbDimStyleTableRecord
  2
DIMSTYLE_1
 70
0
  3
<>
  4

 40
1.0
 41
0.1875
 42
0.0625
 43
0.38
 44
0.125
 45
0.0
 46
0.0
 47
0.1
 48
0.1
140
0.1
141
0.09
142
0.0
143
1.0
144
1.0
145
0.0
146
1.0
147
0.09
 71
0.0
 72
0.0
 73
1
 74
1
 75
0
 76
0
 77
0
 78
0
 79
0
170
1
171
2
172
1
173
0
174
0
175
0
176
0
177
0
178
0
270
2
179
3
271
1
272
3
273
2
274
4
275
0
280
0
281
0
282
0
283
1
284
0
285
0
286
0
287
3
288
1
340
11
278
46
289
2
341
217
342
217
343
217
344
217
  0
DIMSTYLE
105
221
100
AcDbSymbolTableRecord
100
AcDbDimStyleTableRecord
  2
DIMSTYLE_2
 70
0
  3

  4

 40
1.0
 41
0.1875
 42
0.0625
 43
0.38
 44
0.125
 45
0.0
 46
0.0
 47
0.1
 48
0.1
140
0.1
141
0.09
142
0.0
143
1.0
144
1.0
145
0.0
146
1.0
147
0.1
 71
0.0
 72
0.0
 73
1
 74
1
 75
0
 76
0
 77
0
 78
0
 79
0
170
1
171
2
172
0
173
0
174
0
175
0
176
0
177
0
178
0
270
2
179
3
271
1
272
3
273
2
274
4
275
0
280
0
281
0
282
0
283
1
284
0
285
0
286
0
287
3
288
0
340
11
278
46
341
217
342
217
343
217
344
217
  0
ENDTAB
  0
ENDSEC
  0
SECTION
  2
BLOCKS
  0
BLOCK
  5
20
100
AcDbEntity
  8
0
100
AcDbBlockBegin
  2
*Model_Space
 70
0
 10
0.0
 20
0.0
 30
0.0
  3
*Model_Space
  1

  0
ENDBLK
  5
21
100
AcDbEntity
  8
0
100
AcDbBlockEnd
  0
BLOCK
  5
1C
100
AcDbEntity
  8
0
100
AcDbBlockBegin
  2
*Paper_Space
 70
0
 10
0.0
 20
0.0
 30
0.0
  3
*Paper_Space
  1

  0
ENDBLK
  5
1D
100
AcDbEntity
  8
0
100
AcDbBlockEnd
  0
BLOCK
  5
222
100
AcDbEntity
  8
0
100
AcDbBlockBegin
  2
_FILLED
 70
64
 10
0.0
 20
0.0
  3
_FILLED
  1

  0
SOLID
  5
223
100
AcDbEntity
  8
0
  6
BYBLOCK
 62
0
100
AcDbTrace
 10
0.0
 20
0.0
 11
-1.0
 21
0.1666666667
 12
-1.0
 22
-0.1666666667
 13
-1.0
 23
-0.1666666667
  0
ENDBLK
  5
224
100
AcDbEntity
  8
0
  6
BYBLOCK
 62
0
100
AcDbBlockEnd
  0
BLOCK
  5
225
100
AcDbEntity
  8
SCHEME_DIMS
100
AcDbBlockBegin
 62
7
  6
CONTINUOUS
  2
*D0
 70
65
 10
0.0
 20
0.0
  3
*D0
  1

  0
MTEXT
  5
226
100
AcDbEntity
  8
SCHEME_DIMS
100
AcDbMText
 62
7
  6
CONTINUOUS
  7
TEXTSTYLE_6
 71
1
 72
1
 10
8.6714439763
 20
4.870075296
 30
0.0
 11
1.0
 21
0.0
 31
0.0
 73
2
 44
0.9
  1
{\fgdt;n}\ftxt;50.5\P[1.99]
 40
0.1
 41
0.6
  0
LINE
  5
227
100
AcDbEntity
  8
SCHEME_DIMS
100
AcDbLine
 62
7
  6
CONTINUOUS
 10
8.3232973547
 20
4.7177250421
 11
7.6352553102
 21
4.000214069
  0
LINE
  5
228
100
AcDbEntity
  8
SCHEME_DIMS
100
AcDbLine
 62
7
  6
CONTINUOUS
 10
7.6352553102
 20
4.000214069
 11
8.4214439763
 21
4.820075296
  0
LINE
  5
229
100
AcDbEntity
  8
SCHEME_DIMS
100
AcDbLine
 62
7
  6
CONTINUOUS
 10
8.4214439763
 20
4.820075296
 11
8.5714439763
 21
4.820075296
  0
LINE
  5
22A
100
AcDbEntity
  8
SCHEME_DIMS
100
AcDbLine
 62
7
  6
CONTINUOUS
 10
6.9472132657
 20
3.282703096
 11
7.6352553102
 21
4.000214069
  0
INSERT
  5
22B
100
AcDbEntity
  8
SCHEME_DIMS
100
AcDbBlockReference
 62
7
  6
CONTINUOUS
  2
_FILLED
 10
8.3232973547
 20
4.7177250421
 41
0.1875
 42
0.1875
 43
0.1875
 50
46.2010915808
  0
INSERT
  5
22C
100
AcDbEntity
  8
SCHEME_DIMS
100
AcDbBlockReference
 62
7
  6
CONTINUOUS
  2
_FILLED
 10
6.9472132657
 20
3.282703096
 41
0.1875
 42
0.1875
 43
0.1875
 50
226.2010915808
  0
ENDBLK
  5
22D
100
AcDbEntity
  8
0
  6
BYBLOCK
 62
0
100
AcDbBlockEnd
  0
BLOCK
  5
22E
100
AcDbEntity
  8
SCHEME_DIMS
100
AcDbBlockBegin
 62
7
  6
CONTINUOUS
  2
*D1
 70
65
 10
0.0
 20
0.0
  3
*D1
  1

  0
MTEXT
  5
22F
100
AcDbEntity
  8
SCHEME_DIMS
100
AcDbMText
 62
7
  6
CONTINUOUS
  7
TEXTSTYLE_6
 71
2
 72
1
 10
7.5352553102
 20
7.1762229715
 30
0.0
 11
1.0
 21
0.0
 31
0.0
 73
2
 44
0.9
  1
{\fgdt;n}\ftxt;45.0\P[1.77]
 40
0.1
 41
0.6
  0
LINE
  5
230
100
AcDbEntity
  8
SCHEME_DIMS
100
AcDbLine
 62
7
  6
CONTINUOUS
 10
6.7494285385
 20
8.8388068636
 11
6.7494285385
 21
8.1990512304
  0
LINE
  5
231
100
AcDbEntity
  8
SCHEME_DIMS
100
AcDbLine
 62
7
  6
CONTINUOUS
 10
6.7494285385
 20
7.9953083481
 11
6.7494285385
 21
7.7351862074
  0
LINE
  5
232
100
AcDbEntity
  8
SCHEME_DIMS
100
AcDbLine
 62
7
  6
CONTINUOUS
 10
6.7494285385
 20
7.5082262593
 11
6.7494285385
 21
7.0012229715
  0
LINE
  5
233
100
AcDbEntity
  8
SCHEME_DIMS
100
AcDbLine
 62
7
  6
CONTINUOUS
 10
8.5210820818
 20
8.837523773
 11
8.5210820818
 21
7.0012229715
  0
LINE
  5
234
100
AcDbEntity
  8
SCHEME_DIMS
100
AcDbLine
 62
7
  6
CONTINUOUS
 10
6.7494285385
 20
7.1262229715
 11
7.1685886435
 21
7.1262229715
  0
LINE
  5
235
100
AcDbEntity
  8
SCHEME_DIMS
100
AcDbLine
 62
7
  6
CONTINUOUS
 10
8.5210820818
 20
7.1262229715
 11
8.1019219769
 21
7.1262229715
  0
INSERT
  5
236
100
AcDbEntity
  8
SCHEME_DIMS
100
AcDbBlockReference
 62
7
  6
CONTINUOUS
  2
_FILLED
 10
6.7494285385
 20
7.1262229715
 41
0.1875
 42
0.1875
 43
0.1875
 50
180.0
  0
INSERT
  5
237
100
AcDbEntity
  8
SCHEME_DIMS
100
AcDbBlockReference
 62
7
  6
CONTINUOUS
  2
_FILLED
 10
8.5210820818
 20
7.1262229715
 41
0.1875
 42
0.1875
 43
0.1875
  0
ENDBLK
  5
238
100
AcDbEntity
  8
0
  6
BYBLOCK
 62
0
100
AcDbBlockEnd
  0
BLOCK
  5
239
100
AcDbEntity
  8
SCHEME_DIMS
100
AcDbBlockBegin
 62
7
  6
CONTINUOUS
  2
*D2
 70
65
 10
0.0
 20
0.0
  3
*D2
  1

  0
MTEXT
  5
23A
100
AcDbEntity
  8
SCHEME_DIMS
100
AcDbMText
 62
7
  6
CONTINUOUS
  7
STANDARD
 71
2
 72
1
 10
5.810145472
 20
10.3902306909
 30
0.0
 11
1.0
 21
0.0
 31
0.0
 73
2
 44
0.9
  1
2X 27.2\P[1.07]
 40
0.1
 41
0.7
  0
LINE
  5
23B
100
AcDbEntity
  8
SCHEME_DIMS
100
AcDbLine
 62
7
  6
CONTINUOUS
 10
6.5865348377
 20
9.80479762
 11
5.785145472
 21
9.80479762
  0
LINE
  5
23C
100
AcDbEntity
  8
SCHEME_DIMS
100
AcDbLine
 62
7
  6
CONTINUOUS
 10
6.5865348377
 20
10.8756637618
 11
5.785145472
 21
10.8756637618
  0
LINE
  5
23D
100
AcDbEntity
  8
SCHEME_DIMS
100
AcDbLine
 62
7
  6
CONTINUOUS
 10
5.910145472
 20
9.80479762
 11
5.910145472
 21
10.0402306909
  0
LINE
  5
23E
100
AcDbEntity
  8
SCHEME_DIMS
100
AcDbLine
 62
7
  6
CONTINUOUS
 10
5.910145472
 20
10.8756637618
 11
5.910145472
 21
10.4902306909
  0
INSERT
  5
23F
100
AcDbEntity
  8
SCHEME_DIMS
100
AcDbBlockReference
 62
7
  6
CONTINUOUS
  2
_FILLED
 10
5.910145472
 20
9.80479762
 41
0.1875
 42
0.1875
 43
0.1875
 50
270.0
  0
INSERT
  5
240
100
AcDbEntity
  8
SCHEME_DIMS
100
AcDbBlockReference
 62
7
  6
CONTINUOUS
  2
_FILLED
 10
5.910145472
 20
10.8756637618
 41
0.1875
 42
0.1875
 43
0.1875
 50
90.0
  0
ENDBLK
  5
241
100
AcDbEntity
  8
0
  6
BYBLOCK
 62
0
100
AcDbBlockEnd
  0
BLOCK
  5
242
100
AcDbEntity
  8
SCHEME_DIMS
100
AcDbBlockBegin
 62
7
  6
CONTINUOUS
  2
*D3
 70
65
 10
0.0
 20
0.0
  3
*D3
  1

  0
MTEXT
  5
243
100
AcDbEntity
  8
SCHEME_DIMS
100
AcDbMText
 62
7
  6
CONTINUOUS
  7
STANDARD
 71
2
 72
1
 10
9.7596693905
 20
8.2501651434
 30
0.0
 11
1.0
 21
0.0
 31
0.0
 73
2
 44
0.9
  1
31.0\P[1.22]
 40
0.1
 41
0.6
  0
LINE
  5
244
100
AcDbEntity
  8
SCHEME_DIMS
100
AcDbLine
 62
7
  6
CONTINUOUS
 10
8.453660822
 20
8.80479762
 11
9.9846693905
 21
8.80479762
  0
LINE
  5
245
100
AcDbEntity
  8
SCHEME_DIMS
100
AcDbLine
 62
7
  6
CONTINUOUS
 10
7.9014954677
 20
7.5843251791
 11
9.9846693905
 21
7.5843251791
  0
LINE
  5
246
100
AcDbEntity
  8
SCHEME_DIMS
100
AcDbLine
 62
7
  6
CONTINUOUS
 10
9.8596693905
 20
8.80479762
 11
9.8596693905
 21
8.3501651434
  0
LINE
  5
247
100
AcDbEntity
  8
SCHEME_DIMS
100
AcDbLine
 62
7
  6
CONTINUOUS
 10
9.8596693905
 20
7.5843251791
 11
9.8596693905
 21
7.9001651434
  0
INSERT
  5
248
100
AcDbEntity
  8
SCHEME_DIMS
100
AcDbBlockReference
 62
7
  6
CONTINUOUS
  2
_FILLED
 10
9.8596693905
 20
8.80479762
 41
0.1875
 42
0.1875
 43
0.1875
 50
90.0
  0
INSERT
  5
249
100
AcDbEntity
  8
SCHEME_DIMS
100
AcDbBlockReference
 62
7
  6
CONTINUOUS
  2
_FILLED
 10
9.8596693905
 20
7.5843251791
 41
0.1875
 42
0.1875
 43
0.1875
 50
270.0
  0
ENDBLK
  5
24A
100
AcDbEntity
  8
0
  6
BYBLOCK
 62
0
100
AcDbBlockEnd
  0
BLOCK
  5
24B
100
AcDbEntity
  8
SCHEME_DIMS
100
AcDbBlockBegin
 62
7
  6
CONTINUOUS
  2
*D4
 70
65
 10
0.0
 20
0.0
  3
*D4
  1

  0
MTEXT
  5
24C
100
AcDbEntity
  8
SCHEME_DIMS
100
AcDbMText
 62
7
  6
CONTINUOUS
  7
STANDARD
 71
2
 72
1
 10
8.9926400435
 20
7.9517718166
 30
0.0
 11
1.0
 21
0.0
 31
0.0
 73
2
 44
0.9
  1
12.0\P[.47]
 40
0.1
 41
0.5
  0
LINE
  5
24D
100
AcDbEntity
  8
SCHEME_DIMS
100
AcDbLine
 62
7
  6
CONTINUOUS
 10
7.9014954677
 20
7.5843251791
 11
9.1676400435
 21
7.5843251791
  0
LINE
  5
24E
100
AcDbEntity
  8
SCHEME_DIMS
100
AcDbLine
 62
7
  6
CONTINUOUS
 10
8.2174403496
 20
8.056766124
 11
9.1676400435
 21
8.056766124
  0
LINE
  5
24F
100
AcDbEntity
  8
SCHEME_DIMS
100
AcDbLine
 62
7
  6
CONTINUOUS
 10
9.0426400435
 20
7.5843251791
 11
9.0426400435
 21
7.1843251791
  0
LINE
  5
250
100
AcDbEntity
  8
SCHEME_DIMS
100
AcDbLine
 62
7
  6
CONTINUOUS
 10
9.0426400435
 20
8.056766124
 11
9.0426400435
 21
8.456766124
  0
INSERT
  5
251
100
AcDbEntity
  8
SCHEME_DIMS
100
AcDbBlockReference
 62
7
  6
CONTINUOUS
  2
_FILLED
 10
9.0426400435
 20
7.5843251791
 41
0.1875
 42
0.1875
 43
0.1875
 50
90.0
  0
INSERT
  5
252
100
AcDbEntity
  8
SCHEME_DIMS
100
AcDbBlockReference
 62
7
  6
CONTINUOUS
  2
_FILLED
 10
9.0426400435
 20
8.056766124
 41
0.1875
 42
0.1875
 43
0.1875
 50
270.0
  0
ENDBLK
  5
253
100
AcDbEntity
  8
0
  6
BYBLOCK
 62
0
100
AcDbBlockEnd
  0
BLOCK
  5
254
100
AcDbEntity
  8
SCHEME_DIMS
100
AcDbBlockBegin
 62
7
  6
CONTINUOUS
  2
*D5
 70
65
 10
0.0
 20
0.0
  3
*D5
  1

  0
MTEXT
  5
255
100
AcDbEntity
  8
SCHEME_DIMS
100
AcDbMText
 62
7
  6
CONTINUOUS
  7
STANDARD
 71
2
 72
1
 10
10.4634574336
 20
10.3380653366
 30
0.0
 11
1.0
 21
0.0
 31
0.0
 73
2
 44
0.9
  1
137.4\P[5.41]
 40
0.1
 41
0.6
  0
LINE
  5
256
100
AcDbEntity
  8
SCHEME_DIMS
100
AcDbLine
 62
7
  6
CONTINUOUS
 10
8.5835820818
 20
12.991805494
 11
10.6384574336
 21
12.991805494
  0
LINE
  5
257
100
AcDbEntity
  8
SCHEME_DIMS
100
AcDbLine
 62
7
  6
CONTINUOUS
 10
7.9014954677
 20
7.5843251791
 11
10.6384574336
 21
7.5843251791
  0
LINE
  5
258
100
AcDbEntity
  8
SCHEME_DIMS
100
AcDbLine
 62
7
  6
CONTINUOUS
 10
10.5134574336
 20
12.991805494
 11
10.5134574336
 21
10.4380653366
  0
LINE
  5
259
100
AcDbEntity
  8
SCHEME_DIMS
100
AcDbLine
 62
7
  6
CONTINUOUS
 10
10.5134574336
 20
7.5843251791
 11
10.5134574336
 21
9.9880653366
  0
INSERT
  5
25A
100
AcDbEntity
  8
SCHEME_DIMS
100
AcDbBlockReference
 62
7
  6
CONTINUOUS
  2
_FILLED
 10
10.5134574336
 20
12.991805494
 41
0.1875
 42
0.1875
 43
0.1875
 50
90.0
  0
INSERT
  5
25B
100
AcDbEntity
  8
SCHEME_DIMS
100
AcDbBlockReference
 62
7
  6
CONTINUOUS
  2
_FILLED
 10
10.5134574336
 20
7.5843251791
 41
0.1875
 42
0.1875
 43
0.1875
 50
270.0
  0
ENDBLK
  5
25C
100
AcDbEntity
  8
0
  6
BYBLOCK
 62
0
100
AcDbBlockEnd
  0
BLOCK
  5
25D
100
AcDbEntity
  8
0
100
AcDbBlockBegin
  2
*T1
 70
1
 10
0.0
 20
0.0
  3
*T1
  1

  0
LINE
  5
25E
100
AcDbEntity
  8
0
100
AcDbLine
 62
7
  6
CONTINUOUS
 10
4.35
 20
0.0
 11
0.0
 21
0.0
  0
LINE
  5
25F
100
AcDbEntity
  8
0
100
AcDbLine
 62
7
  6
CONTINUOUS
 10
4.35
 20
0.0
 11
4.35
 21
1.92
  0
LINE
  5
260
100
AcDbEntity
  8
0
100
AcDbLine
 62
7
  6
CONTINUOUS
 10
4.35
 20
1.92
 11
0.0
 21
1.92
  0
LINE
  5
261
100
AcDbEntity
  8
0
100
AcDbLine
 62
7
  6
CONTINUOUS
 10
0.0
 20
0.0
 11
0.0
 21
1.92
  0
MTEXT
  5
262
100
AcDbEntity
  8
NOTES
100
AcDbMText
 62
7
  6
CONTINUOUS
  7
STANDARD
 71
2
 72
1
 10
4.125
 20
0.48
 30
0.0
 11
1.0
 21
0.0
 31
0.0
 73
2
 44
0.9
  1
A
 40
0.1
 41
0.2
  0
MTEXT
  5
263
100
AcDbEntity
  8
NOTES
100
AcDbMText
 62
7
  6
CONTINUOUS
  7
STANDARD
 71
2
 72
1
 10
2.175
 20
1.08
 30
0.0
 11
1.0
 21
0.0
 31
0.0
 73
2
 44
0.9
  1
TL50 BASIC 2 STACK QD \P 
 40
0.1
 41
4.4
  0
ENDBLK
  5
264
100
AcDbEntity
  8
0
  6
BYBLOCK
 62
0
100
AcDbBlockEnd
  0
ENDSEC
  0
SECTION
  2
ENTITIES
  0
MTEXT
  5
265
100
AcDbEntity
  8
0
100
AcDbMText
 62
7
  6
CONTINUOUS
  7
TEXTSTYLE_2
 71
2
 72
1
 10
15.7174677477
 20
1.6655662523
 30
0.0
 11
1.0
 21
0.0
 31
0.0
 73
2
 44
0.9
  1
THIRD ANGLE PROJECTION
 40
0.1
 41
1.76
  0
MTEXT
  5
266
100
AcDbEntity
  8
0
100
AcDbMText
 62
7
  6
CONTINUOUS
  7
STANDARD
 71
1
 72
1
 10
17.55
 20
1.32
 30
0.0
 11
1.0
 21
0.0
 31
0.0
 73
2
 44
0.9
  1
DRAWING NO.
 40
0.08
 41
0.88
  0
MTEXT
  5
267
100
AcDbEntity
  8
0
100
AcDbMText
 62
7
  6
CONTINUOUS
  7
TEXTSTYLE_2
 71
1
 72
1
 10
16.75
 20
2.08
 30
0.0
 11
1.0
 21
0.0
 31
0.0
 73
2
 44
0.9
  1
TITLE
 40
0.1
 41
0.4
  0
MTEXT
  5
268
100
AcDbEntity
  8
0
100
AcDbMText
 62
7
  6
CONTINUOUS
  7
STANDARD
 71
1
 72
1
 10
16.75
 20
1.32
 30
0.0
 11
1.0
 21
0.0
 31
0.0
 73
2
 44
0.9
  1
SIZE
 40
0.08
 41
0.32
  0
MTEXT
  5
269
100
AcDbEntity
  8
0
100
AcDbMText
 62
7
  6
CONTINUOUS
  7
STANDARD
 71
1
 72
1
 10
16.75
 20
0.95
 30
0.0
 11
1.0
 21
0.0
 31
0.0
 73
2
 44
0.9
  1
SCALE
 40
0.08
 41
0.4
  0
MTEXT
  5
26A
100
AcDbEntity
  8
0
100
AcDbMText
 62
7
  6
CONTINUOUS
  7
TEXTSTYLE_2
 71
2
 72
1
 10
17.17
 20
1.2
 30
0.0
 11
1.0
 21
0.0
 31
0.0
 73
2
 44
0.9
  1
C
 40
0.1
 41
0.08
  0
MTEXT
  5
26B
100
AcDbEntity
  8
0
100
AcDbMText
 62
7
  6
CONTINUOUS
  7
STANDARD
 71
1
 72
1
 10
18.925
 20
0.95
 30
0.0
 11
1.0
 21
0.0
 31
0.0
 73
2
 44
0.9
  1
SHEET
 40
0.08
 41
0.4
  0
MTEXT
  5
26C
100
AcDbEntity
  8
0
100
AcDbMText
 62
7
  6
CONTINUOUS
  7
STANDARD
 71
1
 72
1
 10
20.3
 20
1.32
 30
0.0
 11
1.0
 21
0.0
 31
0.0
 73
2
 44
0.9
  1
REV.
 40
0.08
 41
0.32
  0
MTEXT
  5
26D
100
AcDbEntity
  8
0
100
AcDbMText
 62
7
  6
CONTINUOUS
  7
STANDARD
 71
3
 72
1
 10
21.05
 20
0.698443
 30
0.0
 11
1.0
 21
0.0
 31
0.0
 73
2
 44
0.9
  1
CREO
 40
0.07
 41
0.28
  0
MTEXT
  5
26E
100
AcDbEntity
  8
0
100
AcDbMText
 62
7
  6
CONTINUOUS
  7
TEXTSTYLE_2
 71
2
 72
1
 10
12.257
 20
15.95
 30
0.0
 11
1.0
 21
0.0
 31
0.0
 73
2
 44
0.9
  1
4
 40
0.1
 41
0.08
  0
MTEXT
  5
26F
100
AcDbEntity
  8
0
100
AcDbMText
 62
7
  6
CONTINUOUS
  7
TEXTSTYLE_2
 71
2
 72
1
 10
12.257
 20
0.65
 30
0.0
 11
1.0
 21
0.0
 31
0.0
 73
2
 44
0.9
  1
4
 40
0.1
 41
0.08
  0
MTEXT
  5
270
100
AcDbEntity
  8
0
100
AcDbMText
 62
7
  6
CONTINUOUS
  7
TEXTSTYLE_2
 71
3
 72
1
 10
0.864
 20
6.375
 30
0.0
 11
1.0
 21
0.0
 31
0.0
 73
2
 44
0.9
  1
B
 40
0.1
 41
0.08
  0
MTEXT
  5
271
100
AcDbEntity
  8
0
100
AcDbMText
 62
7
  6
CONTINUOUS
  7
TEXTSTYLE_2
 71
1
 72
1
 10
21.15
 20
6.375
 30
0.0
 11
1.0
 21
0.0
 31
0.0
 73
2
 44
0.9
  1
B
 40
0.1
 41
0.08
  0
MTEXT
  5
272
100
AcDbEntity
  8
0
100
AcDbMText
 62
7
  6
CONTINUOUS
  7
TEXTSTYLE_2
 71
3
 72
1
 10
0.864
 20
2.525
 30
0.0
 11
1.0
 21
0.0
 31
0.0
 73
2
 44
0.9
  1
A
 40
0.1
 41
0.08
  0
MTEXT
  5
273
100
AcDbEntity
  8
0
100
AcDbMText
 62
7
  6
CONTINUOUS
  7
TEXTSTYLE_2
 71
1
 72
1
 10
21.15
 20
2.525
 30
0.0
 11
1.0
 21
0.0
 31
0.0
 73
2
 44
0.9
  1
A
 40
0.1
 41
0.08
  0
MTEXT
  5
274
100
AcDbEntity
  8
0
100
AcDbMText
 62
7
  6
CONTINUOUS
  7
TEXTSTYLE_2
 71
3
 72
1
 10
0.864
 20
14.075
 30
0.0
 11
1.0
 21
0.0
 31
0.0
 73
2
 44
0.9
  1
D
 40
0.1
 41
0.08
  0
MTEXT
  5
275
100
AcDbEntity
  8
0
100
AcDbMText
 62
7
  6
CONTINUOUS
  7
TEXTSTYLE_2
 71
1
 72
1
 10
21.15
 20
14.075
 30
0.0
 11
1.0
 21
0.0
 31
0.0
 73
2
 44
0.9
  1
D
 40
0.1
 41
0.08
  0
MTEXT
  5
276
100
AcDbEntity
  8
0
100
AcDbMText
 62
7
  6
CONTINUOUS
  7
TEXTSTYLE_2
 71
3
 72
1
 10
0.864
 20
10.225
 30
0.0
 11
1.0
 21
0.0
 31
0.0
 73
2
 44
0.9
  1
C
 40
0.1
 41
0.08
  0
MTEXT
  5
277
100
AcDbEntity
  8
0
100
AcDbMText
 62
7
  6
CONTINUOUS
  7
TEXTSTYLE_2
 71
1
 72
1
 10
21.15
 20
10.225
 30
0.0
 11
1.0
 21
0.0
 31
0.0
 73
2
 44
0.9
  1
C
 40
0.1
 41
0.08
  0
MTEXT
  5
278
100
AcDbEntity
  8
0
100
AcDbMText
 62
7
  6
CONTINUOUS
  7
TEXTSTYLE_2
 71
2
 72
1
 10
14.757
 20
0.65
 30
0.0
 11
1.0
 21
0.0
 31
0.0
 73
2
 44
0.9
  1
3
 40
0.1
 41
0.08
  0
MTEXT
  5
279
100
AcDbEntity
  8
0
100
AcDbMText
 62
7
  6
CONTINUOUS
  7
TEXTSTYLE_2
 71
2
 72
1
 10
14.757
 20
15.95
 30
0.0
 11
1.0
 21
0.0
 31
0.0
 73
2
 44
0.9
  1
3
 40
0.1
 41
0.08
  0
MTEXT
  5
27A
100
AcDbEntity
  8
0
100
AcDbMText
 62
7
  6
CONTINUOUS
  7
TEXTSTYLE_2
 71
2
 72
1
 10
17.257
 20
15.95
 30
0.0
 11
1.0
 21
0.0
 31
0.0
 73
2
 44
0.9
  1
2
 40
0.1
 41
0.08
  0
MTEXT
  5
27B
100
AcDbEntity
  8
0
100
AcDbMText
 62
7
  6
CONTINUOUS
  7
TEXTSTYLE_2
 71
2
 72
1
 10
17.257
 20
0.65
 30
0.0
 11
1.0
 21
0.0
 31
0.0
 73
2
 44
0.9
  1
2
 40
0.1
 41
0.08
  0
MTEXT
  5
27C
100
AcDbEntity
  8
0
100
AcDbMText
 62
7
  6
CONTINUOUS
  7
TEXTSTYLE_2
 71
2
 72
1
 10
19.757
 20
0.65
 30
0.0
 11
1.0
 21
0.0
 31
0.0
 73
2
 44
0.9
  1
1
 40
0.1
 41
0.08
  0
MTEXT
  5
27D
100
AcDbEntity
  8
0
100
AcDbMText
 62
7
  6
CONTINUOUS
  7
TEXTSTYLE_2
 71
2
 72
1
 10
19.757
 20
15.95
 30
0.0
 11
1.0
 21
0.0
 31
0.0
 73
2
 44
0.9
  1
1
 40
0.1
 41
0.08
  0
MTEXT
  5
27E
100
AcDbEntity
  8
0
100
AcDbMText
 62
7
  6
CONTINUOUS
  7
TEXTSTYLE_2
 71
2
 72
1
 10
2.257
 20
0.65
 30
0.0
 11
1.0
 21
0.0
 31
0.0
 73
2
 44
0.9
  1
8
 40
0.1
 41
0.08
  0
MTEXT
  5
27F
100
AcDbEntity
  8
0
100
AcDbMText
 62
7
  6
CONTINUOUS
  7
TEXTSTYLE_2
 71
2
 72
1
 10
4.757
 20
0.65
 30
0.0
 11
1.0
 21
0.0
 31
0.0
 73
2
 44
0.9
  1
7
 40
0.1
 41
0.08
  0
MTEXT
  5
280
100
AcDbEntity
  8
0
100
AcDbMText
 62
7
  6
CONTINUOUS
  7
TEXTSTYLE_2
 71
2
 72
1
 10
7.257
 20
0.65
 30
0.0
 11
1.0
 21
0.0
 31
0.0
 73
2
 44
0.9
  1
6
 40
0.1
 41
0.08
  0
MTEXT
  5
281
100
AcDbEntity
  8
0
100
AcDbMText
 62
7
  6
CONTINUOUS
  7
TEXTSTYLE_2
 71
2
 72
1
 10
9.757
 20
0.65
 30
0.0
 11
1.0
 21
0.0
 31
0.0
 73
2
 44
0.9
  1
5
 40
0.1
 41
0.08
  0
MTEXT
  5
282
100
AcDbEntity
  8
0
100
AcDbMText
 62
7
  6
CONTINUOUS
  7
TEXTSTYLE_2
 71
2
 72
1
 10
9.757
 20
15.95
 30
0.0
 11
1.0
 21
0.0
 31
0.0
 73
2
 44
0.9
  1
5
 40
0.1
 41
0.08
  0
MTEXT
  5
283
100
AcDbEntity
  8
0
100
AcDbMText
 62
7
  6
CONTINUOUS
  7
TEXTSTYLE_2
 71
2
 72
1
 10
7.257
 20
15.95
 30
0.0
 11
1.0
 21
0.0
 31
0.0
 73
2
 44
0.9
  1
6
 40
0.1
 41
0.08
  0
MTEXT
  5
284
100
AcDbEntity
  8
0
100
AcDbMText
 62
7
  6
CONTINUOUS
  7
TEXTSTYLE_2
 71
2
 72
1
 10
4.757
 20
15.95
 30
0.0
 11
1.0
 21
0.0
 31
0.0
 73
2
 44
0.9
  1
7
 40
0.1
 41
0.08
  0
MTEXT
  5
285
100
AcDbEntity
  8
0
100
AcDbMText
 62
7
  6
CONTINUOUS
  7
TEXTSTYLE_2
 71
2
 72
1
 10
2.257
 20
15.95
 30
0.0
 11
1.0
 21
0.0
 31
0.0
 73
2
 44
0.9
  1
8
 40
0.1
 41
0.08
  0
MTEXT
  5
286
100
AcDbEntity
  8
0
100
AcDbMText
 62
7
  6
CONTINUOUS
  7
STANDARD
 71
1
 72
1
 10
17.2749123633
 20
0.9184107931
 30
0.0
 11
1.0
 21
0.0
 31
0.0
 73
2
 44
0.9
  1
1:1
 40
0.1
 41
0.3
  0
MTEXT
  5
287
100
AcDbEntity
  8
0
100
AcDbMText
 62
7
  6
CONTINUOUS
  7
STANDARD
 71
1
 72
1
 10
19.4499123633
 20
0.9184107931
 30
0.0
 11
1.0
 21
0.0
 31
0.0
 73
2
 44
0.9
  1
1 OF 1
 40
0.1
 41
0.6
  0
MTEXT
  5
288
100
AcDbEntity
  8
0
100
AcDbMText
 62
7
  6
CONTINUOUS
  7
STANDARD
 71
1
 72
1
 10
18.5204017884
 20
1.2400373234
 30
0.0
 11
1.0
 21
0.0
 31
0.0
 73
2
 44
0.9
  1
212910
 40
0.12
 41
0.72
  0
MTEXT
  5
289
100
AcDbEntity
  8
0
100
AcDbMText
 62
7
  6
CONTINUOUS
  7
STANDARD
 71
1
 72
1
 10
1.2857894151
 20
1.4458068967
 30
0.0
 11
1.0
 21
0.0
 31
0.0
 73
2
 44
0.9
  1
NOTES:\P1. ALL DIMENSIONS ARE MILLIMETERS [INCHES] UNLESS OTHERWISE NOTED.\P2. REFER TO "www.bannerengineering.com" FOR ADDITIONAL DATA AND SPECIFICATIONS.
 40
0.1
 41
7.9
  0
MTEXT
  5
28A
100
AcDbEntity
  8
0
100
AcDbMText
 62
7
  6
CONTINUOUS
  7
TEXTSTYLE_3
 71
2
 72
1
 10
19.7555637832
 20
2.555409194
 30
0.0
 11
1.0
 21
0.0
 31
0.0
 73
2
 44
0.9
  1
BANNER ENGINEERING CORP.
 40
0.12
 41
2.592
  0
MTEXT
  5
28B
100
AcDbEntity
  8
0
100
AcDbMText
 62
7
  6
CONTINUOUS
  7
TEXTSTYLE_2
 71
2
 72
1
 10
19.6690932526
 20
2.3442032634
 30
0.0
 11
1.0
 21
0.0
 31
0.0
 73
2
 44
0.9
  1
www.bannerengineering.com
 40
0.1
 41
2.0
  0
MTEXT
  5
28C
100
AcDbEntity
  8
0
100
AcDbMText
 62
7
  6
CONTINUOUS
  7
TEXTSTYLE_4
 71
2
 72
1
 10
15.7104628329
 20
2.6377571551
 30
0.0
 11
1.0
 21
0.0
 31
0.0
 73
2
 44
0.9
  1
This drawing is the property\Pof BANNER ENGINEERING CORP.\PAny use or reproduction,\Pin any form, without prior\Pwritten permission of\PBanner is prohibited.
 40
0.08
 41
1.904
  0
MTEXT
  5
28D
100
AcDbEntity
  8
0
100
AcDbMText
 62
7
  6
CONTINUOUS
  7
TEXTSTYLE_5
 71
2
 72
1
 10
15.7283993136
 20
1.9032170366
 30
0.0
 11
1.0
 21
0.0
 31
0.0
 73
2
 44
0.9
  1
C  2015 Banner Engineering Corp.
 40
0.08
 41
1.92
  0
DIMENSION
  5
28E
100
AcDbEntity
  8
SCHEME_DIMS
100
AcDbDimension
 62
7
  6
CONTINUOUS
  2
*D0
 10
8.3232973547
 20
4.7177250421
 11
9.038110643
 21
4.745075296
 70
163
 71
1
 72
2
 41
0.9
 42
50.5
  1
%%c<>\P[]
  3
DIMSTYLE_1
100
AcDbDiametricDimension
 15
6.9472132657
 25
3.282703096
  0
DIMENSION
  5
28F
100
AcDbEntity
  8
SCHEME_DIMS
100
AcDbDimension
 62
7
  6
CONTINUOUS
  2
*D1
 10
8.5210820818
 20
7.1262229715
 11
7.6352553102
 21
7.0512229715
 70
160
 71
2
 72
2
 41
0.9
 42
45.0
  1
%%c<>\P[]
  3
DIMSTYLE_2
100
AcDbAlignedDimension
 13
6.7494285385
 23
8.9013068636
 14
8.5210820818
 24
8.900023773
100
AcDbRotatedDimension
  0
DIMENSION
  5
290
100
AcDbEntity
  8
SCHEME_DIMS
100
AcDbDimension
 62
7
  6
CONTINUOUS
  2
*D2
 10
5.910145472
 20
10.8756637618
 11
5.910145472
 21
10.2652306909
 70
160
 71
2
 72
2
 41
0.9
 42
27.2
  1
2X <>\P[]
  3
DIMSTYLE_2
100
AcDbAlignedDimension
 13
6.6490348377
 23
9.80479762
 14
6.6490348377
 24
10.8756637618
 50
90.0
100
AcDbRotatedDimension
  0
DIMENSION
  5
291
100
AcDbEntity
  8
SCHEME_DIMS
100
AcDbDimension
 62
7
  6
CONTINUOUS
  2
*D3
 10
9.8596693905
 20
7.5843251791
 11
9.8596693905
 21
8.1251651434
 70
160
 71
2
 72
2
 41
0.9
 42
31.0
  1
<>\P[]
  3
DIMSTYLE_2
100
AcDbAlignedDimension
 13
8.391160822
 23
8.80479762
 14
7.8389954677
 24
7.5843251791
 50
270.0
100
AcDbRotatedDimension
  0
DIMENSION
  5
292
100
AcDbEntity
  8
SCHEME_DIMS
100
AcDbDimension
 62
7
  6
CONTINUOUS
  2
*D4
 10
9.0426400435
 20
8.056766124
 11
9.0426400435
 21
7.8267718166
 70
160
 71
2
 72
2
 41
0.9
 42
12.0
  1
<>\P[]
  3
DIMSTYLE_2
100
AcDbAlignedDimension
 13
7.8389954677
 23
7.5843251791
 14
8.1549403496
 24
8.056766124
 50
90.0
100
AcDbRotatedDimension
  0
DIMENSION
  5
293
100
AcDbEntity
  8
SCHEME_DIMS
100
AcDbDimension
 62
7
  6
CONTINUOUS
  2
*D5
 10
10.5134574336
 20
7.5843251791
 11
10.5134574336
 21
10.2130653366
 70
160
 71
2
 72
2
 41
0.9
 42
137.35
  1
<>\P[]
  3
DIMSTYLE_2
100
AcDbAlignedDimension
 13
8.5210820818
 23
12.991805494
 14
7.8389954677
 24
7.5843251791
 50
270.0
100
AcDbRotatedDimension
  0
ACAD_TABLE
  5
294
100
AcDbEntity
  8
0
 62
7
  6
CONTINUOUS
100
AcDbBlockReference
  2
*T1
 10
16.7
 20
0.75
 30
0.0
100
AcDbTable
342
       74E
343
21E
 11
1.0
 21
0.0
 31
0.0
 90
6
 91
3
 92
5
 93
4
 94
0
 95
0
 96
0
 70
1
141
0.33
141
0.45
141
1.14
142
0.65
142
1.15
142
1.025
142
1.075
142
0.45
171
1
172
0
173
0
174
0
175
1
176
1
 91
33
178
0
145
0.0
301
CELL_VALUE
 90
4
  1
 
304
ACVALUE_END
170
1
140
0.1
171
1
172
0
173
0
174
0
175
1
176
1
 91
33
178
0
145
0.0
301
CELL_VALUE
 90
4
  1
 
304
ACVALUE_END
170
1
140
0.1
171
1
172
0
173
0
174
0
175
1
176
1
 91
33
178
0
145
0.0
301
CELL_VALUE
 90
4
  1
 
304
ACVALUE_END
170
1
140
0.1
171
1
172
0
173
0
174
0
175
1
176
1
 91
33
178
0
145
0.0
301
CELL_VALUE
 90
4
  1
 
304
ACVALUE_END
170
1
140
0.1
171
1
172
0
173
0
174
0
175
1
176
1
 91
33
178
0
145
0.0
301
CELL_VALUE
 90
4
  1
 
304
ACVALUE_END
170
1
140
0.1
171
1
172
0
173
0
174
0
175
1
176
1
 91
33
178
0
145
0.0
301
CELL_VALUE
 90
4
  1
 
304
ACVALUE_END
170
1
140
0.1
171
1
172
0
173
0
174
0
175
1
176
1
 91
33
178
0
145
0.0
301
CELL_VALUE
 90
4
  1
 
304
ACVALUE_END
170
1
140
0.1
171
1
172
0
173
0
174
0
175
1
176
1
 91
33
178
0
145
0.0
301
CELL_VALUE
 90
4
  1
 
304
ACVALUE_END
170
1
140
0.1
171
1
172
0
173
0
174
0
175
1
176
1
 91
33
178
0
145
0.0
301
CELL_VALUE
 90
4
  1
 
304
ACVALUE_END
170
1
140
0.1
171
1
172
0
173
0
174
0
175
1
176
1
 91
41
178
0
145
0.0
301
CELL_VALUE
 90
4
  1
A
304
ACVALUE_END
170
8
140
0.1
 64
7
171
1
172
0
173
0
174
0
175
5
176
1
 91
33
178
0
145
0.0
301
CELL_VALUE
 90
4
  1
TL50 BASIC 2 STACK QD \P 
304
ACVALUE_END
170
8
140
0.1
171
1
172
0
173
1
174
0
175
1
176
1
 91
1
178
0
145
0.0
170
1
171
1
172
0
173
1
174
0
175
1
176
1
 91
1
178
0
145
0.0
170
1
171
1
172
0
173
1
174
0
175
1
176
1
 91
1
178
0
145
0.0
170
1
171
1
172
0
173
1
174
0
175
1
176
1
 91
1
178
0
145
0.0
170
8
  0
LEADER
  5
295
100
AcDbEntity
  8
NOTES
100
AcDbLeader
 62
7
  6
CONTINUOUS
  3
STANDARD
 71
1
 72
0
 73
0
 75
0
 40
0.1
 41
1.2
 76
3
 10
7.3923116574
 20
7.7818292465
 30
0.0
 10
7.1388852619
 20
7.6249276243
 30
0.0
 10
7.0326186968
 20
7.6249276243
 30
0.0
340
296
1001
ACAD
1000
DSTYLE
1002
{
1070
77
1070
0
1002
}
  0
MTEXT
  5
296
102
{ACAD_REACTORS
330
295
102
}
100
AcDbEntity
  8
NOTES
100
AcDbMText
 62
7
  6
CONTINUOUS
  7
STANDARD
 71
3
 72
1
 10
7.0326186968
 20
7.6749276243
 30
0.0
 11
1.0
 21
0.0
 31
0.0
 73
2
 44
0.9
  1
 M12 X 1-6g 
 40
0.1
 41
1.2
  0
LEADER
  5
297
100
AcDbEntity
  8
NOTES
100
AcDbLeader
 62
7
  6
CONTINUOUS
  3
STANDARD
 71
1
 72
0
 73
0
 75
0
 40
0.1
 41
1.4
 76
3
 10
7.0536362265
 20
8.2482400816
 30
0.0
 10
6.7911557784
 20
8.0963214369
 30
0.0
 10
6.665583058
 20
8.0963214369
 30
0.0
340
298
1001
ACAD
1000
DSTYLE
1002
{
1070
77
1070
0
1002
}
  0
MTEXT
  5
298
102
{ACAD_REACTORS
330
297
102
}
100
AcDbEntity
  8
NOTES
100
AcDbMText
 62
7
  6
CONTINUOUS
  7
STANDARD
 71
3
 72
1
 10
6.665583058
 20
8.1463214369
 30
0.0
 11
1.0
 21
0.0
 31
0.0
 73
2
 44
0.9
  1
 M30 X 1.5-5g 
 40
0.1
 41
1.4
  0
LEADER
  5
299
100
AcDbEntity
  8
NOTES
100
AcDbLeader
 62
7
  6
CONTINUOUS
  3
STANDARD
 71
1
 72
0
 73
0
 75
0
 40
0.1
 41
1.2
 76
3
 10
7.9449281951
 20
3.7860763695
 30
0.0
 10
8.5607091458
 20
3.3602660303
 30
0.0
 10
8.6743269262
 20
3.3602660303
 30
0.0
340
29A
1001
ACAD
1000
DSTYLE
1002
{
1070
77
1070
0
1002
}
  0
MTEXT
  5
29A
102
{ACAD_REACTORS
330
299
102
}
100
AcDbEntity
  8
NOTES
100
AcDbMText
 62
7
  6
CONTINUOUS
  7
STANDARD
 71
1
 72
1
 10
8.6743269262
 20
3.4102660303
 30
0.0
 11
1.0
 21
0.0
 31
0.0
 73
2
 44
0.9
  1
 1/2-14 NPSM
 40
0.1
 41
1.2
  0
MTEXT
  5
29B
100
AcDbEntity
  8
NOTES
100
AcDbMText
 62
7
  6
CONTINUOUS
  7
STANDARD
 71
2
 72
1
 10
17.7671684539
 20
6.5289659468
 30
0.0
 11
1.0
 21
0.0
 31
0.0
 73
2
 44
0.9
  1
ISOMETRIC VIEW\P\H0.1;SCALE  1:1
 40
0.125
 41
1.75
  0
LINE
  5
29C
100
AcDbEntity
  8
0
100
AcDbLine
 62
7
  6
CONTINUOUS
 10
0.814
 20
8.336603
 11
0.814
 21
8.163397
  0
LINE
  5
29D
100
AcDbEntity
  8
0
100
AcDbLine
 62
7
  6
CONTINUOUS
 10
0.964
 20
15.75
 11
0.964
 21
0.75
  0
LINE
  5
29E
100
AcDbEntity
  8
0
100
AcDbLine
 62
7
  6
CONTINUOUS
 10
15.8276527477
 20
1.2966912523
 11
16.4340437477
 21
1.3660842523
  0
LINE
  5
29F
100
AcDbEntity
  8
0
100
AcDbLine
 62
7
  6
CONTINUOUS
 10
10.920397
 20
0.6
 11
11.093603
 21
0.6
  0
LINE
  5
2A0
100
AcDbEntity
  8
0
100
AcDbLine
 62
7
  6
CONTINUOUS
 10
0.964
 20
0.75
 11
21.05
 21
0.75
  0
LINE
  5
2A1
100
AcDbEntity
  8
0
100
AcDbLine
 62
7
  6
CONTINUOUS
 10
3.507
 20
0.75
 11
3.507
 21
0.5
  0
LINE
  5
2A2
100
AcDbEntity
  8
0
100
AcDbLine
 62
7
  6
CONTINUOUS
 10
3.507
 20
15.75
 11
3.507
 21
16.0
  0
LINE
  5
2A3
100
AcDbEntity
  8
0
100
AcDbLine
 62
7
  6
CONTINUOUS
 10
16.7
 20
1.0
 11
21.05
 21
1.0
  0
LINE
  5
2A4
100
AcDbEntity
  8
0
100
AcDbLine
 62
7
  6
CONTINUOUS
 10
14.9008917477
 20
1.1139932523
 11
15.1229827477
 21
1.1139932523
  0
LINE
  5
2A5
100
AcDbEntity
  8
0
100
AcDbLine
 62
7
  6
CONTINUOUS
 10
15.1729827477
 20
1.1139932523
 11
15.2729827477
 21
1.1139932523
  0
LINE
  5
2A6
100
AcDbEntity
  8
0
100
AcDbLine
 62
7
  6
CONTINUOUS
 10
15.3229827477
 20
1.1139932523
 11
15.5450737477
 21
1.1139932523
  0
LINE
  5
2A7
100
AcDbEntity
  8
0
100
AcDbLine
 62
7
  6
CONTINUOUS
 10
15.7276527477
 20
1.1139932523
 11
16.0058047477
 21
1.1139932523
  0
LINE
  5
2A8
100
AcDbEntity
  8
0
100
AcDbLine
 62
7
  6
CONTINUOUS
 10
16.0558047477
 20
1.1139932523
 11
16.2058907477
 21
1.1139932523
  0
LINE
  5
2A9
100
AcDbEntity
  8
0
100
AcDbLine
 62
7
  6
CONTINUOUS
 10
16.2558907477
 20
1.1139932523
 11
16.5340437477
 21
1.1139932523
  0
LINE
  5
2AA
100
AcDbEntity
  8
0
100
AcDbLine
 62
7
  6
CONTINUOUS
 10
16.7
 20
1.37
 11
21.05
 21
1.37
  0
LINE
  5
2AB
100
AcDbEntity
  8
0
100
AcDbLine
 62
7
  6
CONTINUOUS
 10
16.4340437477
 20
0.8619022523
 11
15.8276527477
 21
0.9312952523
  0
LINE
  5
2AC
100
AcDbEntity
  8
0
100
AcDbLine
 62
7
  6
CONTINUOUS
 10
14.7
 20
1.77
 11
16.7
 21
1.77
  0
LINE
  5
2AD
100
AcDbEntity
  8
0
100
AcDbLine
 62
7
  6
CONTINUOUS
 10
16.7
 20
2.13
 11
21.05
 21
2.13
  0
LINE
  5
2AE
100
AcDbEntity
  8
0
100
AcDbLine
 62
7
  6
CONTINUOUS
 10
18.273144232
 20
2.3543254011
 11
18.2257802057
 21
2.3543254011
  0
LINE
  5
2AF
100
AcDbEntity
  8
0
100
AcDbLine
 62
7
  6
CONTINUOUS
 10
18.1818891814
 20
2.3543254011
 11
18.0683181184
 21
2.3543254011
  0
LINE
  5
2B0
100
AcDbEntity
  8
0
100
AcDbLine
 62
7
  6
CONTINUOUS
 10
18.0394141024
 20
2.3543254011
 11
17.8362019897
 21
2.3543254011
  0
LINE
  5
2B1
100
AcDbEntity
  8
0
100
AcDbLine
 62
7
  6
CONTINUOUS
 10
17.7857289617
 20
2.3543254011
 11
17.7115229205
 21
2.3543254011
  0
LINE
  5
2B2
100
AcDbEntity
  8
0
100
AcDbLine
 62
7
  6
CONTINUOUS
 10
17.6651428948
 20
2.3543254011
 11
17.5894788529
 21
2.3543254011
  0
LINE
  5
2B3
100
AcDbEntity
  8
0
100
AcDbLine
 62
7
  6
CONTINUOUS
 10
17.537475824
 20
2.3543254011
 11
17.4632707829
 21
2.3543254011
  0
LINE
  5
2B4
100
AcDbEntity
  8
0
100
AcDbLine
 62
7
  6
CONTINUOUS
 10
17.4168897572
 20
2.3543254011
 11
17.3412257152
 21
2.3543254011
  0
LINE
  5
2B5
100
AcDbEntity
  8
0
100
AcDbLine
 62
7
  6
CONTINUOUS
 10
16.8743904563
 20
2.3543254011
 11
17.0508365542
 21
2.3543254011
  0
LINE
  5
2B6
100
AcDbEntity
  8
0
100
AcDbLine
 62
7
  6
CONTINUOUS
 10
17.1083735861
 20
2.3543254011
 11
17.185749629
 21
2.3543254011
  0
LINE
  5
2B7
100
AcDbEntity
  8
0
100
AcDbLine
 62
7
  6
CONTINUOUS
 10
17.2060356402
 20
2.3543254011
 11
17.3113166986
 21
2.3543254011
  0
LINE
  5
2B8
100
AcDbEntity
  8
0
100
AcDbLine
 62
7
  6
CONTINUOUS
 10
18.1572301677
 20
2.3790534148
 11
18.1818891814
 21
2.3790534148
  0
LINE
  5
2B9
100
AcDbEntity
  8
0
100
AcDbLine
 62
7
  6
CONTINUOUS
 10
17.3113166986
 20
2.3790754148
 11
17.2913006875
 21
2.3790754148
  0
LINE
  5
2BA
100
AcDbEntity
  8
0
100
AcDbLine
 62
7
  6
CONTINUOUS
 10
17.2204866482
 20
2.3790754148
 11
17.2060356402
 21
2.3790754148
  0
LINE
  5
2BB
100
AcDbEntity
  8
0
100
AcDbLine
 62
7
  6
CONTINUOUS
 10
17.185749629
 20
2.3790754148
 11
17.1744666227
 21
2.3790754148
  0
LINE
  5
2BC
100
AcDbEntity
  8
0
100
AcDbLine
 62
7
  6
CONTINUOUS
 10
17.1312345987
 20
2.3790754148
 11
17.1083735861
 21
2.3790754148
  0
LINE
  5
2BD
100
AcDbEntity
  8
0
100
AcDbLine
 62
7
  6
CONTINUOUS
 10
17.0051585288
 20
2.3790754148
 11
16.9637955059
 21
2.3790754148
  0
LINE
  5
2BE
100
AcDbEntity
  8
0
100
AcDbLine
 62
7
  6
CONTINUOUS
 10
16.8983324696
 20
2.3790754148
 11
16.8743904563
 21
2.3790754148
  0
LINE
  5
2BF
100
AcDbEntity
  8
0
100
AcDbLine
 62
7
  6
CONTINUOUS
 10
17.3412257152
 20
2.3790754148
 11
17.3598727255
 21
2.3790754148
  0
LINE
  5
2C0
100
AcDbEntity
  8
0
100
AcDbLine
 62
7
  6
CONTINUOUS
 10
17.3965727459
 20
2.3790754148
 11
17.4168897572
 21
2.3790754148
  0
LINE
  5
2C1
100
AcDbEntity
  8
0
100
AcDbLine
 62
7
  6
CONTINUOUS
 10
17.5894788529
 20
2.3790754148
 11
17.6081248632
 21
2.3790754148
  0
LINE
  5
2C2
100
AcDbEntity
  8
0
100
AcDbLine
 62
7
  6
CONTINUOUS
 10
17.6448258836
 20
2.3790754148
 11
17.6651428948
 21
2.3790754148
  0
LINE
  5
2C3
100
AcDbEntity
  8
0
100
AcDbLine
 62
7
  6
CONTINUOUS
 10
17.8362019897
 20
2.3790754148
 11
17.860125003
 21
2.3790754148
  0
LINE
  5
2C4
100
AcDbEntity
  8
0
100
AcDbLine
 62
7
  6
CONTINUOUS
 10
17.9271410401
 20
2.3790754148
 11
17.9921450762
 21
2.3790754148
  0
LINE
  5
2C5
100
AcDbEntity
  8
0
100
AcDbLine
 62
7
  6
CONTINUOUS
 10
18.0683181184
 20
2.3790754148
 11
18.091064131
 21
2.3790754148
  0
LINE
  5
2C6
100
AcDbEntity
  8
0
100
AcDbLine
 62
7
  6
CONTINUOUS
 10
18.2741672326
 20
2.379462415
 11
18.2752762332
 21
2.379462415
  0
LINE
  5
2C7
100
AcDbEntity
  8
0
100
AcDbLine
 62
7
  6
CONTINUOUS
 10
17.9970950789
 20
2.3922754221
 11
18.0394141024
 21
2.3922754221
  0
LINE
  5
2C8
100
AcDbEntity
  8
0
100
AcDbLine
 62
7
  6
CONTINUOUS
 10
17.1799826258
 20
2.3927194224
 11
17.2148606451
 21
2.3927194224
  0
LINE
  5
2C9
100
AcDbEntity
  8
0
100
AcDbLine
 62
7
  6
CONTINUOUS
 10
18.2860312391
 20
2.3932124227
 11
18.2981412459
 21
2.3932124227
  0
LINE
  5
2CA
100
AcDbEntity
  8
0
100
AcDbLine
 62
7
  6
CONTINUOUS
 10
18.184837183
 20
2.3937024229
 11
18.1572301677
 21
2.3937024229
  0
LINE
  5
2CB
100
AcDbEntity
  8
0
100
AcDbLine
 62
7
  6
CONTINUOUS
 10
17.9623080596
 20
2.395575424
 11
17.9271410401
 21
2.395575424
  0
LINE
  5
2CC
100
AcDbEntity
  8
0
100
AcDbLine
 62
7
  6
CONTINUOUS
 10
16.9637955059
 20
2.3964004244
 11
17.0051585288
 21
2.3964004244
  0
LINE
  5
2CD
100
AcDbEntity
  8
0
100
AcDbLine
 62
7
  6
CONTINUOUS
 10
18.1911671865
 20
2.4127054335
 11
18.1572301677
 21
2.4127054335
  0
LINE
  5
2CE
100
AcDbEntity
  8
0
100
AcDbLine
 62
7
  6
CONTINUOUS
 10
16.9637955059
 20
2.4130554337
 11
17.0051585288
 21
2.4130554337
  0
LINE
  5
2CF
100
AcDbEntity
  8
0
100
AcDbLine
 62
7
  6
CONTINUOUS
 10
17.1884986305
 20
2.413669434
 11
17.2090556419
 21
2.413669434
  0
LINE
  5
2D0
100
AcDbEntity
  8
0
100
AcDbLine
 62
7
  6
CONTINUOUS
 10
17.9271410401
 20
2.4138804341
 11
17.9623080596
 21
2.4138804341
  0
LINE
  5
2D1
100
AcDbEntity
  8
0
100
AcDbLine
 62
7
  6
CONTINUOUS
 10
18.0379951016
 20
2.4171804359
 11
17.9961310784
 21
2.4171804359
  0
LINE
  5
2D2
100
AcDbEntity
  8
0
100
AcDbLine
 62
7
  6
CONTINUOUS
 10
17.2017966379
 20
2.429836443
 11
17.1956156344
 21
2.429836443
  0
LINE
  5
2D3
100
AcDbEntity
  8
0
100
AcDbLine
 62
7
  6
CONTINUOUS
 10
18.091064131
 20
2.4303804433
 11
18.0683181184
 21
2.4303804433
  0
LINE
  5
2D4
100
AcDbEntity
  8
0
100
AcDbLine
 62
7
  6
CONTINUOUS
 10
17.9911810756
 20
2.4303804433
 11
17.9271410401
 21
2.4303804433
  0
LINE
  5
2D5
100
AcDbEntity
  8
0
100
AcDbLine
 62
7
  6
CONTINUOUS
 10
17.860125003
 20
2.4303804433
 11
17.8362019897
 21
2.4303804433
  0
LINE
  5
2D6
100
AcDbEntity
  8
0
100
AcDbLine
 62
7
  6
CONTINUOUS
 10
17.8086119744
 20
2.4303804433
 11
17.7906789644
 21
2.4303804433
  0
LINE
  5
2D7
100
AcDbEntity
  8
0
100
AcDbLine
 62
7
  6
CONTINUOUS
 10
17.7533869438
 20
2.4303804433
 11
17.7346109333
 21
2.4303804433
  0
LINE
  5
2D8
100
AcDbEntity
  8
0
100
AcDbLine
 62
7
  6
CONTINUOUS
 10
17.6081248632
 20
2.4303804433
 11
17.5894788529
 21
2.4303804433
  0
LINE
  5
2D9
100
AcDbEntity
  8
0
100
AcDbLine
 62
7
  6
CONTINUOUS
 10
17.5603588367
 20
2.4303804433
 11
17.5424258268
 21
2.4303804433
  0
LINE
  5
2DA
100
AcDbEntity
  8
0
100
AcDbLine
 62
7
  6
CONTINUOUS
 10
17.5051338061
 20
2.4303804433
 11
17.4863577957
 21
2.4303804433
  0
LINE
  5
2DB
100
AcDbEntity
  8
0
100
AcDbLine
 62
7
  6
CONTINUOUS
 10
17.3598727255
 20
2.4303804433
 11
17.3412257152
 21
2.4303804433
  0
LINE
  5
2DC
100
AcDbEntity
  8
0
100
AcDbLine
 62
7
  6
CONTINUOUS
 10
17.0051585288
 20
2.4303804433
 11
16.9637955059
 21
2.4303804433
  0
LINE
  5
2DD
100
AcDbEntity
  8
0
100
AcDbLine
 62
7
  6
CONTINUOUS
 10
16.8743904563
 20
2.4303804433
 11
16.8983324696
 21
2.4303804433
  0
LINE
  5
2DE
100
AcDbEntity
  8
0
100
AcDbLine
 62
7
  6
CONTINUOUS
 10
18.1572301677
 20
2.4303804433
 11
18.1940311881
 21
2.4303804433
  0
LINE
  5
2DF
100
AcDbEntity
  8
0
100
AcDbLine
 62
7
  6
CONTINUOUS
 10
17.2393896587
 20
2.455130457
 11
17.182214627
 21
2.455130457
  0
LINE
  5
2E0
100
AcDbEntity
  8
0
100
AcDbLine
 62
7
  6
CONTINUOUS
 10
17.0404535484
 20
2.455130457
 11
16.8743904563
 21
2.455130457
  0
LINE
  5
2E1
100
AcDbEntity
  8
0
100
AcDbLine
 62
7
  6
CONTINUOUS
 10
17.3412257152
 20
2.455130457
 11
17.4416837709
 21
2.455130457
  0
LINE
  5
2E2
100
AcDbEntity
  8
0
100
AcDbLine
 62
7
  6
CONTINUOUS
 10
17.4863577957
 20
2.455130457
 11
17.5603588367
 21
2.455130457
  0
LINE
  5
2E3
100
AcDbEntity
  8
0
100
AcDbLine
 62
7
  6
CONTINUOUS
 10
17.5894788529
 20
2.455130457
 11
17.6899369086
 21
2.455130457
  0
LINE
  5
2E4
100
AcDbEntity
  8
0
100
AcDbLine
 62
7
  6
CONTINUOUS
 10
17.7346109333
 20
2.455130457
 11
17.8086119744
 21
2.455130457
  0
LINE
  5
2E5
100
AcDbEntity
  8
0
100
AcDbLine
 62
7
  6
CONTINUOUS
 10
17.8362019897
 20
2.455130457
 11
18.0379951016
 21
2.455130457
  0
LINE
  5
2E6
100
AcDbEntity
  8
0
100
AcDbLine
 62
7
  6
CONTINUOUS
 10
18.0683181184
 20
2.455130457
 11
18.2178992014
 21
2.455130457
  0
LINE
  5
2E7
100
AcDbEntity
  8
0
100
AcDbLine
 62
7
  6
CONTINUOUS
 10
17.0697205646
 20
2.4006414268
 11
17.059669559
 21
2.4041904287
  0
LINE
  5
2E8
100
AcDbEntity
  8
0
100
AcDbLine
 62
7
  6
CONTINUOUS
 10
17.4615617819
 20
2.3550094015
 11
17.3982817468
 21
2.415387435
  0
LINE
  5
2E9
100
AcDbEntity
  8
0
100
AcDbLine
 62
7
  6
CONTINUOUS
 10
17.4433917718
 20
2.4544464566
 11
17.5034248051
 21
2.3971664249
  0
LINE
  5
2EA
100
AcDbEntity
  8
0
100
AcDbLine
 62
7
  6
CONTINUOUS
 10
17.7098149196
 20
2.3550094015
 11
17.6465348845
 21
2.415387435
  0
LINE
  5
2EB
100
AcDbEntity
  8
0
100
AcDbLine
 62
7
  6
CONTINUOUS
 10
17.6916449095
 20
2.4544464566
 11
17.7516779428
 21
2.3971664249
  0
LINE
  5
2EC
100
AcDbEntity
  8
0
100
AcDbLine
 62
7
  6
CONTINUOUS
 10
17.2169386463
 20
2.3915884218
 11
17.2225646494
 21
2.3828954169
  0
LINE
  5
2ED
100
AcDbEntity
  8
0
100
AcDbLine
 62
7
  6
CONTINUOUS
 10
17.211133643
 20
2.4174894361
 11
17.203874639
 21
2.4287054423
  0
LINE
  5
2EE
100
AcDbEntity
  8
0
100
AcDbLine
 62
7
  6
CONTINUOUS
 10
17.2892236864
 20
2.3802054154
 11
17.2414676599
 21
2.4540004564
  0
LINE
  5
2EF
100
AcDbEntity
  8
0
100
AcDbLine
 62
7
  6
CONTINUOUS
 10
18.206476195
 20
2.3723714111
 11
18.204672194
 21
2.3784404145
  0
LINE
  5
2F0
100
AcDbEntity
  8
0
100
AcDbLine
 62
7
  6
CONTINUOUS
 10
16.8719154549
 20
2.4526554556
 11
16.8719154549
 21
2.4328554446
  0
LINE
  5
2F1
100
AcDbEntity
  8
0
100
AcDbLine
 62
7
  6
CONTINUOUS
 10
16.8719154549
 20
2.3766004134
 11
16.8719154549
 21
2.3568004025
  0
LINE
  5
2F2
100
AcDbEntity
  8
0
100
AcDbLine
 62
7
  6
CONTINUOUS
 10
16.9008074709
 20
2.4279054419
 11
16.9008074709
 21
2.3815504162
  0
LINE
  5
2F3
100
AcDbEntity
  8
0
100
AcDbLine
 62
7
  6
CONTINUOUS
 10
16.9613205045
 20
2.4279054419
 11
16.9613205045
 21
2.415530435
  0
LINE
  5
2F4
100
AcDbEntity
  8
0
100
AcDbLine
 62
7
  6
CONTINUOUS
 10
16.9613205045
 20
2.3815504162
 11
16.9613205045
 21
2.3939254231
  0
LINE
  5
2F5
100
AcDbEntity
  8
0
100
AcDbLine
 62
7
  6
CONTINUOUS
 10
17.1058985847
 20
2.3766004134
 11
17.1058985847
 21
2.3568004025
  0
LINE
  5
2F6
100
AcDbEntity
  8
0
100
AcDbLine
 62
7
  6
CONTINUOUS
 10
17.1882246303
 20
2.3568004025
 11
17.1882246303
 21
2.3766004134
  0
LINE
  5
2F7
100
AcDbEntity
  8
0
100
AcDbLine
 62
7
  6
CONTINUOUS
 10
17.2035606388
 20
2.3766004134
 11
17.2035606388
 21
2.3568004025
  0
LINE
  5
2F8
100
AcDbEntity
  8
0
100
AcDbLine
 62
7
  6
CONTINUOUS
 10
17.3137917
 20
2.3568004025
 11
17.3137917
 21
2.3766004134
  0
LINE
  5
2F9
100
AcDbEntity
  8
0
100
AcDbLine
 62
7
  6
CONTINUOUS
 10
17.3387507138
 20
2.3568004025
 11
17.3387507138
 21
2.3766004134
  0
LINE
  5
2FA
100
AcDbEntity
  8
0
100
AcDbLine
 62
7
  6
CONTINUOUS
 10
17.3387507138
 20
2.4328554446
 11
17.3387507138
 21
2.4526554556
  0
LINE
  5
2FB
100
AcDbEntity
  8
0
100
AcDbLine
 62
7
  6
CONTINUOUS
 10
17.3623477269
 20
2.3815504162
 11
17.3623477269
 21
2.4279054419
  0
LINE
  5
2FC
100
AcDbEntity
  8
0
100
AcDbLine
 62
7
  6
CONTINUOUS
 10
17.3940977445
 20
2.413596434
 11
17.3940977445
 21
2.3815504162
  0
LINE
  5
2FD
100
AcDbEntity
  8
0
100
AcDbLine
 62
7
  6
CONTINUOUS
 10
17.4193647585
 20
2.3766004134
 11
17.4193647585
 21
2.3568004025
  0
LINE
  5
2FE
100
AcDbEntity
  8
0
100
AcDbLine
 62
7
  6
CONTINUOUS
 10
17.4838827943
 20
2.4328554446
 11
17.4838827943
 21
2.4526554556
  0
LINE
  5
2FF
100
AcDbEntity
  8
0
100
AcDbLine
 62
7
  6
CONTINUOUS
 10
17.5076088075
 20
2.3989574258
 11
17.5076088075
 21
2.4279054419
  0
LINE
  5
300
100
AcDbEntity
  8
0
100
AcDbLine
 62
7
  6
CONTINUOUS
 10
17.5399508254
 20
2.4279054419
 11
17.5399508254
 21
2.3568004025
  0
LINE
  5
301
100
AcDbEntity
  8
0
100
AcDbLine
 62
7
  6
CONTINUOUS
 10
17.5628338381
 20
2.4526554556
 11
17.5628338381
 21
2.4328554446
  0
LINE
  5
302
100
AcDbEntity
  8
0
100
AcDbLine
 62
7
  6
CONTINUOUS
 10
17.5870038515
 20
2.3568004025
 11
17.5870038515
 21
2.3766004134
  0
LINE
  5
303
100
AcDbEntity
  8
0
100
AcDbLine
 62
7
  6
CONTINUOUS
 10
17.5870038515
 20
2.4328554446
 11
17.5870038515
 21
2.4526554556
  0
LINE
  5
304
100
AcDbEntity
  8
0
100
AcDbLine
 62
7
  6
CONTINUOUS
 10
17.6105998646
 20
2.3815504162
 11
17.6105998646
 21
2.4279054419
  0
LINE
  5
305
100
AcDbEntity
  8
0
100
AcDbLine
 62
7
  6
CONTINUOUS
 10
17.6423508822
 20
2.413596434
 11
17.6423508822
 21
2.3815504162
  0
LINE
  5
306
100
AcDbEntity
  8
0
100
AcDbLine
 62
7
  6
CONTINUOUS
 10
17.6676178962
 20
2.3766004134
 11
17.6676178962
 21
2.3568004025
  0
LINE
  5
307
100
AcDbEntity
  8
0
100
AcDbLine
 62
7
  6
CONTINUOUS
 10
17.732135932
 20
2.4328554446
 11
17.732135932
 21
2.4526554556
  0
LINE
  5
308
100
AcDbEntity
  8
0
100
AcDbLine
 62
7
  6
CONTINUOUS
 10
17.7558619451
 20
2.3989574258
 11
17.7558619451
 21
2.4279054419
  0
LINE
  5
309
100
AcDbEntity
  8
0
100
AcDbLine
 62
7
  6
CONTINUOUS
 10
17.7882039631
 20
2.4279054419
 11
17.7882039631
 21
2.3568004025
  0
LINE
  5
30A
100
AcDbEntity
  8
0
100
AcDbLine
 62
7
  6
CONTINUOUS
 10
17.8110869758
 20
2.4526554556
 11
17.8110869758
 21
2.4328554446
  0
LINE
  5
30B
100
AcDbEntity
  8
0
100
AcDbLine
 62
7
  6
CONTINUOUS
 10
17.8337269883
 20
2.3568004025
 11
17.8337269883
 21
2.3766004134
  0
LINE
  5
30C
100
AcDbEntity
  8
0
100
AcDbLine
 62
7
  6
CONTINUOUS
 10
17.8337269883
 20
2.4328554446
 11
17.8337269883
 21
2.4526554556
  0
LINE
  5
30D
100
AcDbEntity
  8
0
100
AcDbLine
 62
7
  6
CONTINUOUS
 10
17.8626000043
 20
2.3815504162
 11
17.8626000043
 21
2.4279054419
  0
LINE
  5
30E
100
AcDbEntity
  8
0
100
AcDbLine
 62
7
  6
CONTINUOUS
 10
17.9246660387
 20
2.4279054419
 11
17.9246660387
 21
2.4163554355
  0
LINE
  5
30F
100
AcDbEntity
  8
0
100
AcDbLine
 62
7
  6
CONTINUOUS
 10
17.9246660387
 20
2.3931004226
 11
17.9246660387
 21
2.3815504162
  0
LINE
  5
310
100
AcDbEntity
  8
0
100
AcDbLine
 62
7
  6
CONTINUOUS
 10
17.964783061
 20
2.4114054327
 11
17.964783061
 21
2.3980504253
  0
LINE
  5
311
100
AcDbEntity
  8
0
100
AcDbLine
 62
7
  6
CONTINUOUS
 10
17.993656077
 20
2.4196554373
 11
17.993656077
 21
2.4279054419
  0
LINE
  5
312
100
AcDbEntity
  8
0
100
AcDbLine
 62
7
  6
CONTINUOUS
 10
17.9946200775
 20
2.3815504162
 11
17.9946200775
 21
2.3898004208
  0
LINE
  5
313
100
AcDbEntity
  8
0
100
AcDbLine
 62
7
  6
CONTINUOUS
 10
18.040470103
 20
2.4526554556
 11
18.040470103
 21
2.4196554373
  0
LINE
  5
314
100
AcDbEntity
  8
0
100
AcDbLine
 62
7
  6
CONTINUOUS
 10
18.0418891038
 20
2.3898004208
 11
18.0418891038
 21
2.3568004025
  0
LINE
  5
315
100
AcDbEntity
  8
0
100
AcDbLine
 62
7
  6
CONTINUOUS
 10
18.065843117
 20
2.3568004025
 11
18.065843117
 21
2.3766004134
  0
LINE
  5
316
100
AcDbEntity
  8
0
100
AcDbLine
 62
7
  6
CONTINUOUS
 10
18.065843117
 20
2.4328554446
 11
18.065843117
 21
2.4526554556
  0
LINE
  5
317
100
AcDbEntity
  8
0
100
AcDbLine
 62
7
  6
CONTINUOUS
 10
18.0935391324
 20
2.3815504162
 11
18.0935391324
 21
2.4279054419
  0
LINE
  5
318
100
AcDbEntity
  8
0
100
AcDbLine
 62
7
  6
CONTINUOUS
 10
18.1547551663
 20
2.3912274216
 11
18.1547551663
 21
2.3815284162
  0
LINE
  5
319
100
AcDbEntity
  8
0
100
AcDbLine
 62
7
  6
CONTINUOUS
 10
18.1547551663
 20
2.4151804348
 11
18.1547551663
 21
2.4279054419
  0
LINE
  5
31A
100
AcDbEntity
  8
0
100
AcDbLine
 62
7
  6
CONTINUOUS
 10
18.1843641828
 20
2.3765784134
 11
18.1843641828
 21
2.3568004025
  0
LINE
  5
31B
100
AcDbEntity
  8
0
100
AcDbLine
 62
7
  6
CONTINUOUS
 10
18.2835562378
 20
2.3881114198
 11
18.2835562378
 21
2.3907374213
  0
LINE
  5
31C
100
AcDbEntity
  8
0
100
AcDbLine
 62
7
  6
CONTINUOUS
 10
18.3006162472
 20
2.3907374213
 11
18.3006162472
 21
2.3791854149
  0
LINE
  5
31D
100
AcDbEntity
  8
0
100
AcDbLine
 62
7
  6
CONTINUOUS
 10
18.3975725422
 20
2.3981678251
 11
18.3975725422
 21
2.4087850316
  0
LINE
  5
31E
100
AcDbEntity
  8
0
100
AcDbLine
 62
7
  6
CONTINUOUS
 10
17.1801246258
 20
2.4539814564
 11
17.1333245999
 21
2.3802244155
  0
LINE
  5
31F
100
AcDbEntity
  8
0
100
AcDbLine
 62
7
  6
CONTINUOUS
 10
17.1935256333
 20
2.4286874423
 11
17.1864086293
 21
2.4174704361
  0
LINE
  5
320
100
AcDbEntity
  8
0
100
AcDbLine
 62
7
  6
CONTINUOUS
 10
17.1723766216
 20
2.3828764169
 11
17.1778926246
 21
2.3915704217
  0
LINE
  5
321
100
AcDbEntity
  8
0
100
AcDbLine
 62
7
  6
CONTINUOUS
 10
17.059669559
 20
2.4041904287
 11
17.0679095636
 21
2.4089664314
  0
ARC
  5
322
100
AcDbEntity
  8
0
100
AcDbCircle
 62
7
  6
CONTINUOUS
 10
17.4632701481
 20
2.3568008172
 40
0.0024754162
100
AcDbArc
 50
226.3593695814
 51
270.0146919953
  0
ARC
  5
323
100
AcDbEntity
  8
0
100
AcDbCircle
 62
7
  6
CONTINUOUS
 10
16.8743904545
 20
2.3568004006
 40
0.0024749995
100
AcDbArc
 50
179.9999571957
 51
270.0000428043
  0
ARC
  5
324
100
AcDbEntity
  8
0
100
AcDbCircle
 62
7
  6
CONTINUOUS
 10
17.5374758259
 20
2.3568004006
 40
0.0024749995
100
AcDbArc
 50
269.9999571957
 51
0.0000428043
  0
ARC
  5
325
100
AcDbEntity
  8
0
100
AcDbCircle
 62
7
  6
CONTINUOUS
 10
17.416889759
 20
2.3568004006
 40
0.0024749995
100
AcDbArc
 50
269.9999571957
 51
0.0000428043
  0
ARC
  5
326
100
AcDbEntity
  8
0
100
AcDbCircle
 62
7
  6
CONTINUOUS
 10
17.3412257133
 20
2.3568004006
 40
0.0024749995
100
AcDbArc
 50
179.9999571957
 51
270.0000428043
  0
ARC
  5
327
100
AcDbEntity
  8
0
100
AcDbCircle
 62
7
  6
CONTINUOUS
 10
17.2060356384
 20
2.3568004006
 40
0.0024749995
100
AcDbArc
 50
179.9999571957
 51
270.0000428043
  0
ARC
  5
328
100
AcDbEntity
  8
0
100
AcDbCircle
 62
7
  6
CONTINUOUS
 10
17.3113167005
 20
2.3568004006
 40
0.0024749995
100
AcDbArc
 50
269.9999571957
 51
0.0000428043
  0
ARC
  5
329
100
AcDbEntity
  8
0
100
AcDbCircle
 62
7
  6
CONTINUOUS
 10
17.1083735842
 20
2.3568004006
 40
0.0024749995
100
AcDbArc
 50
179.9999571957
 51
270.0000428043
  0
ARC
  5
32A
100
AcDbEntity
  8
0
100
AcDbCircle
 62
7
  6
CONTINUOUS
 10
17.1857496308
 20
2.3568004006
 40
0.0024749995
100
AcDbArc
 50
269.9999571958
 51
0.0000428044
  0
ARC
  5
32B
100
AcDbEntity
  8
0
100
AcDbCircle
 62
7
  6
CONTINUOUS
 10
17.0404590422
 20
2.3933827403
 40
0.061747717
100
AcDbArc
 50
59.5385584989
 51
90.0050977555
  0
ARC
  5
32C
100
AcDbEntity
  8
0
100
AcDbCircle
 62
7
  6
CONTINUOUS
 10
17.0481152095
 20
2.4027328529
 40
0.048483885
100
AcDbArc
 50
273.21763719
 51
303.0749121182
  0
ARC
  5
32D
100
AcDbEntity
  8
0
100
AcDbCircle
 62
7
  6
CONTINUOUS
 10
17.0620614151
 20
2.3797859164
 40
0.0222174455
100
AcDbArc
 50
4.0793399388
 51
69.834329283
  0
ARC
  5
32E
100
AcDbEntity
  8
0
100
AcDbCircle
 62
7
  6
CONTINUOUS
 10
17.0629546036
 20
2.379965244
 40
0.0213072145
100
AcDbArc
 50
303.0488228549
 51
355.7263138674
  0
ARC
  5
32F
100
AcDbEntity
  8
0
100
AcDbCircle
 62
7
  6
CONTINUOUS
 10
17.0688911042
 20
2.3799744343
 40
0.0153945295
100
AcDbArc
 50
354.0454548824
 51
5.1878013979
  0
ARC
  5
330
100
AcDbEntity
  8
0
100
AcDbCircle
 62
7
  6
CONTINUOUS
 10
17.0051585288
 20
2.3877379196
 40
0.0086625048
100
AcDbArc
 50
270.0
 51
90.0
  0
ARC
  5
331
100
AcDbEntity
  8
0
100
AcDbCircle
 62
7
  6
CONTINUOUS
 10
17.2148601055
 20
2.3902439622
 40
0.0024754602
100
AcDbArc
 50
32.8959418573
 51
89.9875097202
  0
ARC
  5
332
100
AcDbEntity
  8
0
100
AcDbCircle
 62
7
  6
CONTINUOUS
 10
17.131234669
 20
2.3815506151
 40
0.0024752003
100
AcDbArc
 50
269.9983726451
 51
327.602165307
  0
ARC
  5
333
100
AcDbEntity
  8
0
100
AcDbCircle
 62
7
  6
CONTINUOUS
 10
17.1799825555
 20
2.3902442221
 40
0.0024752003
100
AcDbArc
 50
89.998372645
 51
147.602165307
  0
ARC
  5
334
100
AcDbEntity
  8
0
100
AcDbCircle
 62
7
  6
CONTINUOUS
 10
17.1744665134
 20
2.3815504549
 40
0.0024750401
100
AcDbArc
 50
147.6063258011
 51
270.0025305754
  0
ARC
  5
335
100
AcDbEntity
  8
0
100
AcDbCircle
 62
7
  6
CONTINUOUS
 10
16.8983324714
 20
2.3815504143
 40
0.0024749995
100
AcDbArc
 50
269.9999571957
 51
0.0000428043
  0
ARC
  5
336
100
AcDbEntity
  8
0
100
AcDbCircle
 62
7
  6
CONTINUOUS
 10
16.8743904545
 20
2.3766004153
 40
0.0024749995
100
AcDbArc
 50
89.9999571957
 51
180.0000428043
  0
ARC
  5
337
100
AcDbEntity
  8
0
100
AcDbCircle
 62
7
  6
CONTINUOUS
 10
16.963795504
 20
2.3939254249
 40
0.0024749995
100
AcDbArc
 50
89.9999571957
 51
180.0000428043
  0
ARC
  5
338
100
AcDbEntity
  8
0
100
AcDbCircle
 62
7
  6
CONTINUOUS
 10
16.963795504
 20
2.3815504143
 40
0.0024749995
100
AcDbArc
 50
179.9999571957
 51
270.0000428043
  0
ARC
  5
339
100
AcDbEntity
  8
0
100
AcDbCircle
 62
7
  6
CONTINUOUS
 10
17.2060356384
 20
2.3766004153
 40
0.0024749995
100
AcDbArc
 50
89.9999571957
 51
180.0000428043
  0
ARC
  5
33A
100
AcDbEntity
  8
0
100
AcDbCircle
 62
7
  6
CONTINUOUS
 10
17.1083735842
 20
2.3766004153
 40
0.0024749995
100
AcDbArc
 50
89.9999571957
 51
180.0000428043
  0
ARC
  5
33B
100
AcDbEntity
  8
0
100
AcDbCircle
 62
7
  6
CONTINUOUS
 10
17.1857496308
 20
2.3766004153
 40
0.0024749995
100
AcDbArc
 50
359.9999571957
 51
90.0000428043
  0
ARC
  5
33C
100
AcDbEntity
  8
0
100
AcDbCircle
 62
7
  6
CONTINUOUS
 10
17.0460441811
 20
2.445793323
 40
0.0428289026
100
AcDbArc
 50
300.6990502959
 51
319.0591802498
  0
ARC
  5
33D
100
AcDbEntity
  8
0
100
AcDbCircle
 62
7
  6
CONTINUOUS
 10
17.0611211659
 20
2.4263113051
 40
0.0229166529
100
AcDbArc
 50
20.6563876465
 51
62.3316896973
  0
ARC
  5
33E
100
AcDbEntity
  8
0
100
AcDbCircle
 62
7
  6
CONTINUOUS
 10
17.0660727781
 20
2.4296649696
 40
0.0171568255
100
AcDbArc
 50
315.9145124245
 51
16.0049121283
  0
ARC
  5
33F
100
AcDbEntity
  8
0
100
AcDbCircle
 62
7
  6
CONTINUOUS
 10
17.0051585288
 20
2.4217179385
 40
0.0086625048
100
AcDbArc
 50
270.0
 51
90.0
  0
ARC
  5
340
100
AcDbEntity
  8
0
100
AcDbCircle
 62
7
  6
CONTINUOUS
 10
17.2017960982
 20
2.4273609828
 40
0.0024754602
100
AcDbArc
 50
32.8959418573
 51
89.9875097202
  0
ARC
  5
341
100
AcDbEntity
  8
0
100
AcDbCircle
 62
7
  6
CONTINUOUS
 10
17.2090556207
 20
2.4161446411
 40
0.0024752071
100
AcDbArc
 50
270.0004896793
 51
32.9089806818
  0
ARC
  5
342
100
AcDbEntity
  8
0
100
AcDbCircle
 62
7
  6
CONTINUOUS
 10
17.1956155641
 20
2.4273612427
 40
0.0024752003
100
AcDbArc
 50
89.998372645
 51
147.602165307
  0
ARC
  5
343
100
AcDbEntity
  8
0
100
AcDbCircle
 62
7
  6
CONTINUOUS
 10
17.1822145567
 20
2.4526552567
 40
0.0024752003
100
AcDbArc
 50
89.998372645
 51
147.602165307
  0
ARC
  5
344
100
AcDbEntity
  8
0
100
AcDbCircle
 62
7
  6
CONTINUOUS
 10
17.1884985212
 20
2.4161444741
 40
0.0024750401
100
AcDbArc
 50
147.6063258012
 51
270.0025305754
  0
ARC
  5
345
100
AcDbEntity
  8
0
100
AcDbCircle
 62
7
  6
CONTINUOUS
 10
16.8743904545
 20
2.4526554575
 40
0.0024749995
100
AcDbArc
 50
89.9999571957
 51
180.0000428043
  0
ARC
  5
346
100
AcDbEntity
  8
0
100
AcDbCircle
 62
7
  6
CONTINUOUS
 10
16.8743904545
 20
2.4328554428
 40
0.0024749995
100
AcDbArc
 50
179.9999571957
 51
270.0000428043
  0
ARC
  5
347
100
AcDbEntity
  8
0
100
AcDbCircle
 62
7
  6
CONTINUOUS
 10
16.8983324714
 20
2.4279054437
 40
0.0024749995
100
AcDbArc
 50
359.9999571957
 51
90.0000428043
  0
ARC
  5
348
100
AcDbEntity
  8
0
100
AcDbCircle
 62
7
  6
CONTINUOUS
 10
16.963795504
 20
2.4279054437
 40
0.0024749995
100
AcDbArc
 50
89.9999571957
 51
180.0000428043
  0
ARC
  5
349
100
AcDbEntity
  8
0
100
AcDbCircle
 62
7
  6
CONTINUOUS
 10
16.963795504
 20
2.4155304332
 40
0.0024749995
100
AcDbArc
 50
179.9999571957
 51
270.0000428043
  0
ARC
  5
34A
100
AcDbEntity
  8
0
100
AcDbCircle
 62
7
  6
CONTINUOUS
 10
17.5051335061
 20
2.3989573626
 40
0.0024753014
100
AcDbArc
 50
226.3461263059
 51
0.0014637321
  0
ARC
  5
34B
100
AcDbEntity
  8
0
100
AcDbCircle
 62
7
  6
CONTINUOUS
 10
17.3965730459
 20
2.4135964972
 40
0.0024753014
100
AcDbArc
 50
46.3461263059
 51
180.0014637321
  0
ARC
  5
34C
100
AcDbEntity
  8
0
100
AcDbCircle
 62
7
  6
CONTINUOUS
 10
17.2204866271
 20
2.3815506219
 40
0.0024752071
100
AcDbArc
 50
270.0004896793
 51
32.9089806818
  0
ARC
  5
34D
100
AcDbEntity
  8
0
100
AcDbCircle
 62
7
  6
CONTINUOUS
 10
17.396572744
 20
2.3815504143
 40
0.0024749995
100
AcDbArc
 50
179.9999571957
 51
270.0000428043
  0
ARC
  5
34E
100
AcDbEntity
  8
0
100
AcDbCircle
 62
7
  6
CONTINUOUS
 10
17.416889759
 20
2.3766004153
 40
0.0024749995
100
AcDbArc
 50
359.9999571957
 51
90.0000428043
  0
ARC
  5
34F
100
AcDbEntity
  8
0
100
AcDbCircle
 62
7
  6
CONTINUOUS
 10
17.3412257133
 20
2.3766004153
 40
0.0024749995
100
AcDbArc
 50
89.9999571957
 51
180.0000428043
  0
ARC
  5
350
100
AcDbEntity
  8
0
100
AcDbCircle
 62
7
  6
CONTINUOUS
 10
17.3598727274
 20
2.3815504143
 40
0.0024749995
100
AcDbArc
 50
269.9999571957
 51
0.0000428043
  0
ARC
  5
351
100
AcDbEntity
  8
0
100
AcDbCircle
 62
7
  6
CONTINUOUS
 10
17.3113167005
 20
2.3766004153
 40
0.0024749995
100
AcDbArc
 50
359.9999571957
 51
90.0000428043
  0
ARC
  5
352
100
AcDbEntity
  8
0
100
AcDbCircle
 62
7
  6
CONTINUOUS
 10
17.291300808
 20
2.3815494558
 40
0.002474041
100
AcDbArc
 50
212.9056413127
 51
269.9972091755
  0
ARC
  5
353
100
AcDbEntity
  8
0
100
AcDbCircle
 62
7
  6
CONTINUOUS
 10
17.5051338079
 20
2.4279054437
 40
0.0024749995
100
AcDbArc
 50
359.9999571957
 51
90.0000428043
  0
ARC
  5
354
100
AcDbEntity
  8
0
100
AcDbCircle
 62
7
  6
CONTINUOUS
 10
17.4863577938
 20
2.4328554428
 40
0.0024749995
100
AcDbArc
 50
179.9999571957
 51
270.0000428043
  0
ARC
  5
355
100
AcDbEntity
  8
0
100
AcDbCircle
 62
7
  6
CONTINUOUS
 10
17.4863577938
 20
2.4526554575
 40
0.0024749995
100
AcDbArc
 50
89.9999571957
 51
180.0000428043
  0
ARC
  5
356
100
AcDbEntity
  8
0
100
AcDbCircle
 62
7
  6
CONTINUOUS
 10
17.5603588386
 20
2.4526554575
 40
0.0024749995
100
AcDbArc
 50
359.9999571957
 51
90.0000428043
  0
ARC
  5
357
100
AcDbEntity
  8
0
100
AcDbCircle
 62
7
  6
CONTINUOUS
 10
17.5603588386
 20
2.4328554428
 40
0.0024749995
100
AcDbArc
 50
269.9999571957
 51
0.0000428043
  0
ARC
  5
358
100
AcDbEntity
  8
0
100
AcDbCircle
 62
7
  6
CONTINUOUS
 10
17.5424258249
 20
2.4279054437
 40
0.0024749995
100
AcDbArc
 50
89.9999571957
 51
180.0000428043
  0
ARC
  5
359
100
AcDbEntity
  8
0
100
AcDbCircle
 62
7
  6
CONTINUOUS
 10
17.3598727274
 20
2.4279054437
 40
0.0024749995
100
AcDbArc
 50
359.9999571957
 51
90.0000428043
  0
ARC
  5
35A
100
AcDbEntity
  8
0
100
AcDbCircle
 62
7
  6
CONTINUOUS
 10
17.3412257133
 20
2.4328554428
 40
0.0024749995
100
AcDbArc
 50
179.9999571957
 51
270.0000428043
  0
ARC
  5
35B
100
AcDbEntity
  8
0
100
AcDbCircle
 62
7
  6
CONTINUOUS
 10
17.3412257133
 20
2.4526554575
 40
0.0024749995
100
AcDbArc
 50
89.9999571957
 51
180.0000428043
  0
ARC
  5
35C
100
AcDbEntity
  8
0
100
AcDbCircle
 62
7
  6
CONTINUOUS
 10
17.2393900382
 20
2.4526554968
 40
0.0024749602
100
AcDbArc
 50
32.9172174468
 51
90.0087853097
  0
ARC
  5
35D
100
AcDbEntity
  8
0
100
AcDbCircle
 62
7
  6
CONTINUOUS
 10
17.4416839057
 20
2.4526562892
 40
0.0024741678
100
AcDbArc
 50
46.3477981899
 51
90.0031206038
  0
ARC
  5
35E
100
AcDbEntity
  8
0
100
AcDbCircle
 62
7
  6
CONTINUOUS
 10
18.2152358981
 20
2.2725915465
 40
0.1825583387
100
AcDbArc
 50
79.8618509324
 51
89.1640948679
  0
ARC
  5
35F
100
AcDbEntity
  8
0
100
AcDbCircle
 62
7
  6
CONTINUOUS
 10
18.197141171
 20
2.3016991173
 40
0.117346916
100
AcDbArc
 50
58.614769177
 51
62.3737227606
  0
ARC
  5
360
100
AcDbEntity
  8
0
100
AcDbCircle
 62
7
  6
CONTINUOUS
 10
18.2260032264
 20
2.3725718859
 40
0.0459185159
100
AcDbArc
 50
15.6740290068
 51
20.9917271228
  0
ARC
  5
361
100
AcDbEntity
  8
0
100
AcDbCircle
 62
7
  6
CONTINUOUS
 10
18.1662929967
 20
2.368643334
 40
0.0396099176
100
AcDbArc
 50
14.3201081283
 51
22.4984722084
  0
ARC
  5
362
100
AcDbEntity
  8
0
100
AcDbCircle
 62
7
  6
CONTINUOUS
 10
18.1850046504
 20
2.3693353402
 40
0.0243676582
100
AcDbArc
 50
63.3666028271
 51
90.3937697637
  0
ARC
  5
363
100
AcDbEntity
  8
0
100
AcDbCircle
 62
7
  6
CONTINUOUS
 10
18.2724993219
 20
2.3741987064
 40
0.0198837666
100
AcDbArc
 50
271.8586572978
 51
289.4131338543
  0
ARC
  5
364
100
AcDbEntity
  8
0
100
AcDbCircle
 62
7
  6
CONTINUOUS
 10
18.2265855264
 20
2.3716475527
 40
0.0173408616
100
AcDbArc
 50
232.4713476722
 51
267.338189944
  0
ARC
  5
365
100
AcDbEntity
  8
0
100
AcDbCircle
 62
7
  6
CONTINUOUS
 10
18.1818891832
 20
2.3568004006
 40
0.0024749995
100
AcDbArc
 50
269.9999571957
 51
0.0000428043
  0
ARC
  5
366
100
AcDbEntity
  8
0
100
AcDbCircle
 62
7
  6
CONTINUOUS
 10
18.0683181166
 20
2.3568004006
 40
0.0024749995
100
AcDbArc
 50
179.9999571957
 51
270.0000428043
  0
ARC
  5
367
100
AcDbEntity
  8
0
100
AcDbCircle
 62
7
  6
CONTINUOUS
 10
17.7857289635
 20
2.3568004006
 40
0.0024749995
100
AcDbArc
 50
269.9999571957
 51
0.0000428043
  0
ARC
  5
368
100
AcDbEntity
  8
0
100
AcDbCircle
 62
7
  6
CONTINUOUS
 10
17.6651428967
 20
2.3568004006
 40
0.0024749995
100
AcDbArc
 50
269.9999571957
 51
0.0000428043
  0
ARC
  5
369
100
AcDbEntity
  8
0
100
AcDbCircle
 62
7
  6
CONTINUOUS
 10
17.589478851
 20
2.3568004006
 40
0.0024749995
100
AcDbArc
 50
179.9999571957
 51
270.0000428043
  0
ARC
  5
36A
100
AcDbEntity
  8
0
100
AcDbCircle
 62
7
  6
CONTINUOUS
 10
18.0394141042
 20
2.3568004006
 40
0.0024749995
100
AcDbArc
 50
269.9999571957
 51
0.0000428043
  0
ARC
  5
36B
100
AcDbEntity
  8
0
100
AcDbCircle
 62
7
  6
CONTINUOUS
 10
17.8362019878
 20
2.3568004006
 40
0.0024749995
100
AcDbArc
 50
179.9999571957
 51
270.0000428043
  0
ARC
  5
36C
100
AcDbEntity
  8
0
100
AcDbCircle
 62
7
  6
CONTINUOUS
 10
17.7115227858
 20
2.3567995689
 40
0.0024741678
100
AcDbArc
 50
226.3477981898
 51
270.0031206038
  0
ARC
  5
36D
100
AcDbEntity
  8
0
100
AcDbCircle
 62
7
  6
CONTINUOUS
 10
17.7533866437
 20
2.3989573626
 40
0.0024753014
100
AcDbArc
 50
226.3461263059
 51
0.0014637321
  0
ARC
  5
36E
100
AcDbEntity
  8
0
100
AcDbCircle
 62
7
  6
CONTINUOUS
 10
17.6448261836
 20
2.4135964972
 40
0.0024753014
100
AcDbArc
 50
46.3461263058
 51
180.0014637321
  0
ARC
  5
36F
100
AcDbEntity
  8
0
100
AcDbCircle
 62
7
  6
CONTINUOUS
 10
17.6448258817
 20
2.3815504143
 40
0.0024749995
100
AcDbArc
 50
179.9999571957
 51
270.0000428043
  0
ARC
  5
370
100
AcDbEntity
  8
0
100
AcDbCircle
 62
7
  6
CONTINUOUS
 10
17.6651428967
 20
2.3766004153
 40
0.0024749995
100
AcDbArc
 50
359.9999571957
 51
90.0000428043
  0
ARC
  5
371
100
AcDbEntity
  8
0
100
AcDbCircle
 62
7
  6
CONTINUOUS
 10
17.589478851
 20
2.3766004153
 40
0.0024749995
100
AcDbArc
 50
89.9999571957
 51
180.0000428043
  0
ARC
  5
372
100
AcDbEntity
  8
0
100
AcDbCircle
 62
7
  6
CONTINUOUS
 10
17.6081248651
 20
2.3815504143
 40
0.0024749995
100
AcDbArc
 50
269.9999571957
 51
0.0000428043
  0
ARC
  5
373
100
AcDbEntity
  8
0
100
AcDbCircle
 62
7
  6
CONTINUOUS
 10
17.9271410383
 20
2.3931004244
 40
0.0024749995
100
AcDbArc
 50
89.9999571957
 51
180.0000428043
  0
ARC
  5
374
100
AcDbEntity
  8
0
100
AcDbCircle
 62
7
  6
CONTINUOUS
 10
17.9271410383
 20
2.3815504143
 40
0.0024749995
100
AcDbArc
 50
179.9999571957
 51
270.0000428043
  0
ARC
  5
375
100
AcDbEntity
  8
0
100
AcDbCircle
 62
7
  6
CONTINUOUS
 10
17.8362019878
 20
2.3766004153
 40
0.0024749995
100
AcDbArc
 50
89.9999571957
 51
180.0000428043
  0
ARC
  5
376
100
AcDbEntity
  8
0
100
AcDbCircle
 62
7
  6
CONTINUOUS
 10
17.8601250048
 20
2.3815504143
 40
0.0024749995
100
AcDbArc
 50
269.9999571956
 51
0.0000428042
  0
ARC
  5
377
100
AcDbEntity
  8
0
100
AcDbCircle
 62
7
  6
CONTINUOUS
 10
17.9271410383
 20
2.4163554336
 40
0.0024749995
100
AcDbArc
 50
179.9999571957
 51
270.0000428043
  0
ARC
  5
378
100
AcDbEntity
  8
0
100
AcDbCircle
 62
7
  6
CONTINUOUS
 10
17.7533869456
 20
2.4279054437
 40
0.0024749995
100
AcDbArc
 50
359.9999571957
 51
90.0000428043
  0
ARC
  5
379
100
AcDbEntity
  8
0
100
AcDbCircle
 62
7
  6
CONTINUOUS
 10
17.7346109315
 20
2.4328554428
 40
0.0024749995
100
AcDbArc
 50
179.9999571957
 51
270.0000428043
  0
ARC
  5
37A
100
AcDbEntity
  8
0
100
AcDbCircle
 62
7
  6
CONTINUOUS
 10
17.7346109315
 20
2.4526554575
 40
0.0024749995
100
AcDbArc
 50
89.9999571957
 51
180.0000428043
  0
ARC
  5
37B
100
AcDbEntity
  8
0
100
AcDbCircle
 62
7
  6
CONTINUOUS
 10
17.8086119762
 20
2.4526554575
 40
0.0024749995
100
AcDbArc
 50
359.9999571957
 51
90.0000428043
  0
ARC
  5
37C
100
AcDbEntity
  8
0
100
AcDbCircle
 62
7
  6
CONTINUOUS
 10
17.8086119762
 20
2.4328554428
 40
0.0024749995
100
AcDbArc
 50
269.9999571956
 51
0.0000428042
  0
ARC
  5
37D
100
AcDbEntity
  8
0
100
AcDbCircle
 62
7
  6
CONTINUOUS
 10
17.7906789626
 20
2.4279054437
 40
0.0024749995
100
AcDbArc
 50
89.9999571957
 51
180.0000428043
  0
ARC
  5
37E
100
AcDbEntity
  8
0
100
AcDbCircle
 62
7
  6
CONTINUOUS
 10
17.6081248651
 20
2.4279054437
 40
0.0024749995
100
AcDbArc
 50
359.9999571957
 51
90.0000428043
  0
ARC
  5
37F
100
AcDbEntity
  8
0
100
AcDbCircle
 62
7
  6
CONTINUOUS
 10
17.589478851
 20
2.4328554428
 40
0.0024749995
100
AcDbArc
 50
179.9999571957
 51
270.0000428043
  0
ARC
  5
380
100
AcDbEntity
  8
0
100
AcDbCircle
 62
7
  6
CONTINUOUS
 10
17.589478851
 20
2.4526554575
 40
0.0024749995
100
AcDbArc
 50
89.9999571957
 51
180.0000428043
  0
ARC
  5
381
100
AcDbEntity
  8
0
100
AcDbCircle
 62
7
  6
CONTINUOUS
 10
17.8601250048
 20
2.4279054437
 40
0.0024749995
100
AcDbArc
 50
359.9999571957
 51
90.0000428043
  0
ARC
  5
382
100
AcDbEntity
  8
0
100
AcDbCircle
 62
7
  6
CONTINUOUS
 10
17.8362019878
 20
2.4328554428
 40
0.0024749995
100
AcDbArc
 50
179.9999571957
 51
270.0000428043
  0
ARC
  5
383
100
AcDbEntity
  8
0
100
AcDbCircle
 62
7
  6
CONTINUOUS
 10
17.8362019878
 20
2.4526554575
 40
0.0024749995
100
AcDbArc
 50
89.9999571957
 51
180.0000428043
  0
ARC
  5
384
100
AcDbEntity
  8
0
100
AcDbCircle
 62
7
  6
CONTINUOUS
 10
17.9271410383
 20
2.4279054437
 40
0.0024749995
100
AcDbArc
 50
89.9999571957
 51
180.0000428043
  0
ARC
  5
385
100
AcDbEntity
  8
0
100
AcDbCircle
 62
7
  6
CONTINUOUS
 10
17.6899370433
 20
2.4526562892
 40
0.0024741678
100
AcDbArc
 50
46.3477981899
 51
90.0031206038
  0
ARC
  5
386
100
AcDbEntity
  8
0
100
AcDbCircle
 62
7
  6
CONTINUOUS
 10
18.2495655574
 20
2.384346736
 40
0.044722495
100
AcDbArc
 50
195.531588407
 51
204.7624440448
  0
ARC
  5
387
100
AcDbEntity
  8
0
100
AcDbCircle
 62
7
  6
CONTINUOUS
 10
18.2415401884
 20
2.4134150625
 40
0.039319019
100
AcDbArc
 50
59.1202086415
 51
81.4730239328
  0
ARC
  5
388
100
AcDbEntity
  8
0
100
AcDbCircle
 62
7
  6
CONTINUOUS
 10
18.2667613545
 20
2.3917854558
 40
0.0383802683
100
AcDbArc
 50
288.7656836787
 51
309.6104317088
  0
ARC
  5
389
100
AcDbEntity
  8
0
100
AcDbCircle
 62
7
  6
CONTINUOUS
 10
18.2471995846
 20
2.4197497317
 40
0.0310192946
100
AcDbArc
 50
34.7540871
 51
62.0879016178
  0
ARC
  5
38A
100
AcDbEntity
  8
0
100
AcDbCircle
 62
7
  6
CONTINUOUS
 10
18.1924863006
 20
2.4019259643
 40
0.0284963867
100
AcDbArc
 50
70.3834917948
 51
86.8922743861
  0
ARC
  5
38B
100
AcDbEntity
  8
0
100
AcDbCircle
 62
7
  6
CONTINUOUS
 10
18.2737535399
 20
2.384184238
 40
0.0280715479
100
AcDbArc
 50
308.5071794988
 51
332.2400656899
  0
ARC
  5
38C
100
AcDbEntity
  8
0
100
AcDbCircle
 62
7
  6
CONTINUOUS
 10
18.2439037681
 20
2.3797532943
 40
0.0266349791
100
AcDbArc
 50
20.3630922153
 51
37.9727053099
  0
ARC
  5
38D
100
AcDbEntity
  8
0
100
AcDbCircle
 62
7
  6
CONTINUOUS
 10
18.2450241237
 20
2.3798263774
 40
0.0257145923
100
AcDbArc
 50
39.3804255939
 51
59.0361096173
  0
ARC
  5
38E
100
AcDbEntity
  8
0
100
AcDbCircle
 62
7
  6
CONTINUOUS
 10
18.2296840914
 20
2.3774978567
 40
0.0238935861
100
AcDbArc
 50
209.8247607259
 51
235.1255079367
  0
ARC
  5
38F
100
AcDbEntity
  8
0
100
AcDbCircle
 62
7
  6
CONTINUOUS
 10
18.2830605507
 20
2.3792897325
 40
0.0175560065
100
AcDbArc
 50
332.2279060967
 51
359.6595469939
  0
ARC
  5
390
100
AcDbEntity
  8
0
100
AcDbCircle
 62
7
  6
CONTINUOUS
 10
18.1890593051
 20
2.3776149607
 40
0.0151491919
100
AcDbArc
 50
24.098260853
 51
63.0369451818
  0
ARC
  5
391
100
AcDbEntity
  8
0
100
AcDbCircle
 62
7
  6
CONTINUOUS
 10
18.2845735615
 20
2.3882148688
 40
0.0147197649
100
AcDbArc
 50
192.7054516565
 51
206.0594861022
  0
ARC
  5
392
100
AcDbEntity
  8
0
100
AcDbCircle
 62
7
  6
CONTINUOUS
 10
18.1973459106
 20
2.4149676972
 40
0.0145814632
100
AcDbArc
 50
54.6746025112
 51
71.1660573124
  0
ARC
  5
393
100
AcDbEntity
  8
0
100
AcDbCircle
 62
7
  6
CONTINUOUS
 10
18.2752146786
 20
2.3927110743
 40
0.0132488022
100
AcDbArc
 50
270.266200055
 51
281.2404888597
  0
ARC
  5
394
100
AcDbEntity
  8
0
100
AcDbCircle
 62
7
  6
CONTINUOUS
 10
18.2716089246
 20
2.3878675959
 40
0.0119498009
100
AcDbArc
 50
340.7883861657
 51
1.1691452593
  0
ARC
  5
395
100
AcDbEntity
  8
0
100
AcDbCircle
 62
7
  6
CONTINUOUS
 10
18.198398534
 20
2.4260095887
 40
0.0110815393
100
AcDbArc
 50
306.758405961
 51
320.4502234234
  0
ARC
  5
396
100
AcDbEntity
  8
0
100
AcDbCircle
 62
7
  6
CONTINUOUS
 10
18.2764089196
 20
2.3869743807
 40
0.0073895522
100
AcDbArc
 50
280.8288201977
 51
305.0837508495
  0
ARC
  5
397
100
AcDbEntity
  8
0
100
AcDbCircle
 62
7
  6
CONTINUOUS
 10
18.2768101012
 20
2.3861235343
 40
0.0064647042
100
AcDbArc
 50
306.5086174083
 51
340.2162360092
  0
ARC
  5
398
100
AcDbEntity
  8
0
100
AcDbCircle
 62
7
  6
CONTINUOUS
 10
18.2024754016
 20
2.4218216224
 40
0.0060275915
100
AcDbArc
 50
20.9055592135
 51
56.7851676243
  0
ARC
  5
399
100
AcDbEntity
  8
0
100
AcDbCircle
 62
7
  6
CONTINUOUS
 10
18.2025691502
 20
2.4227756809
 40
0.0058087709
100
AcDbArc
 50
318.8515287446
 51
353.6422345323
  0
ARC
  5
39A
100
AcDbEntity
  8
0
100
AcDbCircle
 62
7
  6
CONTINUOUS
 10
18.2760792244
 20
2.3840063824
 40
0.0052403997
100
AcDbArc
 50
205.5232099488
 51
227.5054868079
  0
ARC
  5
39B
100
AcDbEntity
  8
0
100
AcDbCircle
 62
7
  6
CONTINUOUS
 10
18.2037759605
 20
2.4224819047
 40
0.0045795888
100
AcDbArc
 50
355.6235353944
 51
18.9942678268
  0
ARC
  5
39C
100
AcDbEntity
  8
0
100
AcDbCircle
 62
7
  6
CONTINUOUS
 10
18.2743509251
 20
2.3821910097
 40
0.0027347709
100
AcDbArc
 50
228.5117626738
 51
266.1485845754
  0
ARC
  5
39D
100
AcDbEntity
  8
0
100
AcDbCircle
 62
7
  6
CONTINUOUS
 10
18.1572301659
 20
2.3912274234
 40
0.0024749995
100
AcDbArc
 50
89.9999571957
 51
180.0000428043
  0
ARC
  5
39E
100
AcDbEntity
  8
0
100
AcDbCircle
 62
7
  6
CONTINUOUS
 10
18.1572301659
 20
2.3815284143
 40
0.0024749995
100
AcDbArc
 50
179.9999571957
 51
270.0000428043
  0
ARC
  5
39F
100
AcDbEntity
  8
0
100
AcDbCircle
 62
7
  6
CONTINUOUS
 10
18.1818891832
 20
2.3765784153
 40
0.0024749995
100
AcDbArc
 50
359.9999571957
 51
90.0000428043
  0
ARC
  5
3A0
100
AcDbEntity
  8
0
100
AcDbCircle
 62
7
  6
CONTINUOUS
 10
18.0683181166
 20
2.3766004153
 40
0.0024749995
100
AcDbArc
 50
89.9999571957
 51
180.0000428043
  0
ARC
  5
3A1
100
AcDbEntity
  8
0
100
AcDbCircle
 62
7
  6
CONTINUOUS
 10
18.0910641329
 20
2.3815504143
 40
0.0024749995
100
AcDbArc
 50
269.9999571957
 51
0.0000428043
  0
ARC
  5
3A2
100
AcDbEntity
  8
0
100
AcDbCircle
 62
7
  6
CONTINUOUS
 10
18.2860312373
 20
2.3907374231
 40
0.0024749995
100
AcDbArc
 50
89.9999571957
 51
180.0000428043
  0
ARC
  5
3A3
100
AcDbEntity
  8
0
100
AcDbCircle
 62
7
  6
CONTINUOUS
 10
18.2981412477
 20
2.3907374231
 40
0.0024749995
100
AcDbArc
 50
359.9999571957
 51
90.0000428043
  0
ARC
  5
3A4
100
AcDbEntity
  8
0
100
AcDbCircle
 62
7
  6
CONTINUOUS
 10
18.1572301659
 20
2.415180433
 40
0.0024749995
100
AcDbArc
 50
179.9999571957
 51
270.0000428043
  0
ARC
  5
3A5
100
AcDbEntity
  8
0
100
AcDbCircle
 62
7
  6
CONTINUOUS
 10
17.992145078
 20
2.3815504143
 40
0.0024749995
100
AcDbArc
 50
269.9999571957
 51
0.0000428043
  0
ARC
  5
3A6
100
AcDbEntity
  8
0
100
AcDbCircle
 62
7
  6
CONTINUOUS
 10
17.9970950771
 20
2.3898004226
 40
0.0024749995
100
AcDbArc
 50
89.9999571957
 51
180.0000428043
  0
ARC
  5
3A7
100
AcDbEntity
  8
0
100
AcDbCircle
 62
7
  6
CONTINUOUS
 10
18.0394141042
 20
2.3898004226
 40
0.0024749995
100
AcDbArc
 50
359.9999571957
 51
90.0000428043
  0
ARC
  5
3A8
100
AcDbEntity
  8
0
100
AcDbCircle
 62
7
  6
CONTINUOUS
 10
18.0379951034
 20
2.4196554355
 40
0.0024749995
100
AcDbArc
 50
269.9999571956
 51
0.0000428042
  0
ARC
  5
3A9
100
AcDbEntity
  8
0
100
AcDbCircle
 62
7
  6
CONTINUOUS
 10
17.9961310765
 20
2.4196554355
 40
0.0024749995
100
AcDbArc
 50
179.9999571957
 51
270.0000428043
  0
ARC
  5
3AA
100
AcDbEntity
  8
0
100
AcDbCircle
 62
7
  6
CONTINUOUS
 10
17.9623080615
 20
2.4114054346
 40
0.0024749995
100
AcDbArc
 50
359.9999571957
 51
90.0000428043
  0
ARC
  5
3AB
100
AcDbEntity
  8
0
100
AcDbCircle
 62
7
  6
CONTINUOUS
 10
17.9623080615
 20
2.3980504235
 40
0.0024749995
100
AcDbArc
 50
269.9999571956
 51
0.0000428042
  0
ARC
  5
3AC
100
AcDbEntity
  8
0
100
AcDbCircle
 62
7
  6
CONTINUOUS
 10
18.220842337
 20
2.4783532224
 40
0.0789082104
100
AcDbArc
 50
292.906155071
 51
305.2574666259
  0
ARC
  5
3AD
100
AcDbEntity
  8
0
100
AcDbCircle
 62
7
  6
CONTINUOUS
 10
18.2511742746
 20
2.4351463727
 40
0.0261183659
100
AcDbArc
 50
305.6373831893
 51
329.9727629745
  0
ARC
  5
3AE
100
AcDbEntity
  8
0
100
AcDbCircle
 62
7
  6
CONTINUOUS
 10
18.1908418374
 20
2.4381440645
 40
0.0254407115
100
AcDbArc
 50
270.7327484175
 51
290.441894219
  0
ARC
  5
3AF
100
AcDbEntity
  8
0
100
AcDbCircle
 62
7
  6
CONTINUOUS
 10
18.1927693431
 20
2.4337504172
 40
0.0206523367
100
AcDbArc
 50
289.6883413472
 51
306.4184925496
  0
ARC
  5
3B0
100
AcDbEntity
  8
0
100
AcDbCircle
 62
7
  6
CONTINUOUS
 10
18.2588883357
 20
2.4282993328
 40
0.0165459396
100
AcDbArc
 50
1.548452892
 51
33.5033152417
  0
ARC
  5
3B1
100
AcDbEntity
  8
0
100
AcDbCircle
 62
7
  6
CONTINUOUS
 10
18.2621849309
 20
2.428467785
 40
0.0132462337
100
AcDbArc
 50
331.1510006998
 51
1.205404301
  0
ARC
  5
3B2
100
AcDbEntity
  8
0
100
AcDbCircle
 62
7
  6
CONTINUOUS
 10
18.0910641329
 20
2.4279054437
 40
0.0024749995
100
AcDbArc
 50
359.9999571957
 51
90.0000428043
  0
ARC
  5
3B3
100
AcDbEntity
  8
0
100
AcDbCircle
 62
7
  6
CONTINUOUS
 10
18.0683181166
 20
2.4328554428
 40
0.0024749995
100
AcDbArc
 50
179.9999571957
 51
270.0000428043
  0
ARC
  5
3B4
100
AcDbEntity
  8
0
100
AcDbCircle
 62
7
  6
CONTINUOUS
 10
18.0683181166
 20
2.4526554575
 40
0.0024749995
100
AcDbArc
 50
89.9999571957
 51
180.0000428043
  0
ARC
  5
3B5
100
AcDbEntity
  8
0
100
AcDbCircle
 62
7
  6
CONTINUOUS
 10
18.1572301659
 20
2.4279054437
 40
0.0024749995
100
AcDbArc
 50
89.9999571957
 51
180.0000428043
  0
ARC
  5
3B6
100
AcDbEntity
  8
0
100
AcDbCircle
 62
7
  6
CONTINUOUS
 10
18.0379951034
 20
2.4526554575
 40
0.0024749995
100
AcDbArc
 50
359.9999571957
 51
90.0000428043
  0
ARC
  5
3B7
100
AcDbEntity
  8
0
100
AcDbCircle
 62
7
  6
CONTINUOUS
 10
17.9911810775
 20
2.4279054437
 40
0.0024749995
100
AcDbArc
 50
359.9999571957
 51
90.0000428043
  0
ELLIPSE
  5
3B8
100
AcDbEntity
  8
0
100
AcDbEllipse
 62
7
  6
CONTINUOUS
 10
17.573550844
 20
2.4034764283
 30
0.0
 11
-0.8250004575
 21
0.0
 31
0.0
 40
0.218572
 41
0.0
 42
6.2831853072
  0
HATCH
  5
3B9
100
AcDbEntity
  8
0
100
AcDbHatch
 62
7
  6
CONTINUOUS
 10
0.0
 20
0.0
 30
0.0
210
0.0
220
0.0
230
1.0
  2
XSEC0002
 70
1
 71
1
 91
11
 92
1
 93
57
 72
2
 10
18.2265855264
 20
2.3716475527
 40
0.0173408616
 50
232.4713476722
 51
267.338189944
 73
1
 72
2
 10
18.2296840914
 20
2.3774978567
 40
0.0238935861
 50
209.8247607259
 51
235.1255079367
 73
1
 72
2
 10
18.2495655574
 20
2.384346736
 40
0.044722495
 50
195.531588407
 51
204.7624440448
 73
1
 72
1
 10
18.206476195
 20
2.3723714111
 11
18.204672194
 21
2.3784404145
 72
2
 10
18.1662929967
 20
2.368643334
 40
0.0396099176
 50
14.3201081283
 51
22.4984722084
 73
1
 72
2
 10
18.1890593051
 20
2.3776149607
 40
0.0151491919
 50
24.098260853
 51
63.0369451818
 73
1
 72
2
 10
18.1850046504
 20
2.3693353402
 40
0.0243676582
 50
63.3666028271
 51
90.3937697637
 73
1
 72
1
 10
18.184837183
 20
2.3937024229
 11
18.1572301677
 21
2.3937024229
 72
2
 10
18.1572301659
 20
2.3912274234
 40
0.0024749995
 50
89.9999571957
 51
180.0000428043
 73
1
 72
1
 10
18.1547551663
 20
2.3912274216
 11
18.1547551663
 21
2.3815284162
 72
2
 10
18.1572301659
 20
2.3815284143
 40
0.0024749995
 50
179.9999571957
 51
270.0000428043
 73
1
 72
1
 10
18.1572301677
 20
2.3790534148
 11
18.1818891814
 21
2.3790534148
 72
2
 10
18.1818891832
 20
2.3765784153
 40
0.0024749995
 50
359.9999571957
 51
90.0000428042
 73
1
 72
1
 10
18.1843641828
 20
2.3765784134
 11
18.1843641828
 21
2.3568004025
 72
2
 10
18.1818891832
 20
2.3568004006
 40
0.0024749995
 50
269.9999571958
 51
0.0000428043
 73
1
 72
1
 10
18.1818891814
 20
2.3543254011
 11
18.0683181184
 21
2.3543254011
 72
2
 10
18.0683181166
 20
2.3568004006
 40
0.0024749995
 50
179.9999571957
 51
270.0000428042
 73
1
 72
1
 10
18.065843117
 20
2.3568004025
 11
18.065843117
 21
2.3766004134
 72
2
 10
18.0683181166
 20
2.3766004153
 40
0.0024749995
 50
89.9999571958
 51
180.0000428043
 73
1
 72
1
 10
18.0683181184
 20
2.3790754148
 11
18.091064131
 21
2.3790754148
 72
2
 10
18.0910641329
 20
2.3815504143
 40
0.0024749995
 50
269.9999571957
 51
0.0000428043
 73
1
 72
1
 10
18.0935391324
 20
2.3815504162
 11
18.0935391324
 21
2.4279054419
 72
2
 10
18.0910641329
 20
2.4279054437
 40
0.0024749995
 50
359.9999571957
 51
90.0000428043
 73
1
 72
1
 10
18.091064131
 20
2.4303804433
 11
18.0683181184
 21
2.4303804433
 72
2
 10
18.0683181166
 20
2.4328554428
 40
0.0024749995
 50
179.9999571957
 51
270.0000428043
 73
1
 72
1
 10
18.065843117
 20
2.4328554446
 11
18.065843117
 21
2.4526554556
 72
2
 10
18.0683181166
 20
2.4526554575
 40
0.0024749995
 50
89.9999571958
 51
180.0000428043
 73
1
 72
1
 10
18.0683181184
 20
2.455130457
 11
18.2178992014
 21
2.455130457
 72
2
 10
18.2152358981
 20
2.2725915465
 40
0.1825583387
 50
79.8618509324
 51
89.1640948679
 73
1
 72
2
 10
18.2415401884
 20
2.4134150625
 40
0.039319019
 50
59.1202086415
 51
81.4730239328
 73
1
 72
2
 10
18.2471995846
 20
2.4197497317
 40
0.0310192946
 50
34.7540871
 51
62.0879016178
 73
1
 72
2
 10
18.2588883357
 20
2.4282993328
 40
0.0165459396
 50
1.548452892
 51
33.5033152417
 73
1
 72
2
 10
18.2621849309
 20
2.428467785
 40
0.0132462337
 50
331.1510006998
 51
1.205404301
 73
1
 72
2
 10
18.2511742746
 20
2.4351463727
 40
0.0261183659
 50
305.6373831893
 51
329.9727629745
 73
1
 72
2
 10
18.220842337
 20
2.4783532224
 40
0.0789082104
 50
292.906155071
 51
305.2574666259
 73
1
 72
2
 10
18.197141171
 20
2.3016991173
 40
0.117346916
 50
58.614769177
 51
62.3737227606
 73
1
 72
2
 10
18.2450241237
 20
2.3798263774
 40
0.0257145923
 50
39.3804255939
 51
59.0361096173
 73
1
 72
2
 10
18.2439037681
 20
2.3797532943
 40
0.0266349791
 50
20.3630922153
 51
37.9727053099
 73
1
 72
2
 10
18.2260032264
 20
2.3725718859
 40
0.0459185159
 50
15.6740290068
 51
20.9917271228
 73
1
 72
2
 10
18.2845735615
 20
2.3882148688
 40
0.0147197649
 50
192.7054516565
 51
206.0594861022
 73
1
 72
2
 10
18.2760792244
 20
2.3840063824
 40
0.0052403997
 50
205.5232099488
 51
227.5054868079
 73
1
 72
2
 10
18.2743509251
 20
2.3821910097
 40
0.0027347709
 50
228.5117626738
 51
266.1485845755
 73
1
 72
1
 10
18.2741672326
 20
2.379462415
 11
18.2752762332
 21
2.379462415
 72
2
 10
18.2752146786
 20
2.3927110743
 40
0.0132488022
 50
270.266200055
 51
281.2404888597
 73
1
 72
2
 10
18.2764089196
 20
2.3869743807
 40
0.0073895522
 50
280.8288201977
 51
305.0837508495
 73
1
 72
2
 10
18.2768101012
 20
2.3861235343
 40
0.0064647042
 50
306.5086174083
 51
340.2162360092
 73
1
 72
2
 10
18.2716089246
 20
2.3878675959
 40
0.0119498009
 50
340.7883861657
 51
1.1691452593
 73
1
 72
1
 10
18.2835562378
 20
2.3881114198
 11
18.2835562378
 21
2.3907374213
 72
2
 10
18.2860312373
 20
2.3907374231
 40
0.0024749995
 50
89.9999571957
 51
180.0000428043
 73
1
 72
1
 10
18.2860312391
 20
2.3932124227
 11
18.2981412459
 21
2.3932124227
 72
2
 10
18.2981412477
 20
2.3907374231
 40
0.0024749995
 50
359.9999571957
 51
90.0000428043
 73
1
 72
1
 10
18.3006162472
 20
2.3907374213
 11
18.3006162472
 21
2.3791854149
 72
2
 10
18.2830605507
 20
2.3792897325
 40
0.0175560065
 50
332.2279060967
 51
359.6595469939
 73
1
 72
2
 10
18.2737535399
 20
2.384184238
 40
0.0280715479
 50
308.5071794988
 51
332.2400656899
 73
1
 72
2
 10
18.2667613545
 20
2.3917854558
 40
0.0383802683
 50
288.7656836787
 51
309.6104317088
 73
1
 72
2
 10
18.2724993219
 20
2.3741987064
 40
0.0198837666
 50
271.8586572978
 51
289.4131338543
 73
1
 72
1
 10
18.273144232
 20
2.3543254011
 11
18.2257802057
 21
2.3543254011
 97
267
330
2AE
330
2AF
330
2B0
330
2B1
330
2B2
330
2B3
330
2B4
330
2B5
330
2B6
330
2B7
330
2B8
330
2B9
330
2BA
330
2BB
330
2BC
330
2BD
330
2BE
330
2BF
330
2C0
330
2C1
330
2C2
330
2C3
330
2C4
330
2C5
330
2C6
330
2C7
330
2C8
330
2C9
330
2CA
330
2CB
330
2CC
330
2CD
330
2CE
330
2CF
330
2D0
330
2D1
330
2D2
330
2D3
330
2D4
330
2D5
330
2D6
330
2D7
330
2D8
330
2D9
330
2DA
330
2DB
330
2DC
330
2DD
330
2DE
330
2DF
330
2E0
330
2E1
330
2E2
330
2E3
330
2E4
330
2E5
330
2E6
330
2E7
330
2E8
330
2E9
330
2EA
330
2EB
330
2EC
330
2ED
330
2EE
330
2EF
330
2F0
330
2F1
330
2F2
330
2F3
330
2F4
330
2F5
330
2F6
330
2F7
330
2F8
330
2F9
330
2FA
330
2FB
330
2FC
330
2FD
330
2FE
330
2FF
330
300
330
301
330
302
330
303
330
304
330
305
330
306
330
307
330
308
330
309
330
30A
330
30B
330
30C
330
30D
330
30E
330
30F
330
310
330
311
330
312
330
313
330
314
330
315
330
316
330
317
330
318
330
319
330
31A
330
31B
330
31C
330
31D
330
31E
330
31F
330
320
330
321
330
322
330
323
330
324
330
325
330
326
330
327
330
328
330
329
330
32A
330
32B
330
32C
330
32D
330
32E
330
32F
330
330
330
331
330
332
330
333
330
334
330
335
330
336
330
337
330
338
330
339
330
33A
330
33B
330
33C
330
33D
330
33E
330
33F
330
340
330
341
330
342
330
343
330
344
330
345
330
346
330
347
330
348
330
349
330
34A
330
34B
330
34C
330
34D
330
34E
330
34F
330
350
330
351
330
352
330
353
330
354
330
355
330
356
330
357
330
358
330
359
330
35A
330
35B
330
35C
330
35D
330
35E
330
35F
330
360
330
361
330
362
330
363
330
364
330
365
330
366
330
367
330
368
330
369
330
36A
330
36B
330
36C
330
36D
330
36E
330
36F
330
370
330
371
330
372
330
373
330
374
330
375
330
376
330
377
330
378
330
379
330
37A
330
37B
330
37C
330
37D
330
37E
330
37F
330
380
330
381
330
382
330
383
330
384
330
385
330
386
330
387
330
388
330
389
330
38A
330
38B
330
38C
330
38D
330
38E
330
38F
330
390
330
391
330
392
330
393
330
394
330
395
330
396
330
397
330
398
330
399
330
39A
330
39B
330
39C
330
39D
330
39E
330
39F
330
3A0
330
3A1
330
3A2
330
3A3
330
3A4
330
3A5
330
3A6
330
3A7
330
3A8
330
3A9
330
3AA
330
3AB
330
3AC
330
3AD
330
3AE
330
3AF
330
3B0
330
3B1
330
3B2
330
3B3
330
3B4
330
3B5
330
3B6
330
3B7
330
3B8
 92
1
 93
40
 72
2
 10
17.8362019878
 20
2.3568004006
 40
0.0024749995
 50
179.9999571957
 51
270.0000428042
 73
1
 72
1
 10
17.8337269883
 20
2.3568004025
 11
17.8337269883
 21
2.3766004134
 72
2
 10
17.8362019878
 20
2.3766004153
 40
0.0024749995
 50
89.9999571958
 51
180.0000428043
 73
1
 72
1
 10
17.8362019897
 20
2.3790754148
 11
17.860125003
 21
2.3790754148
 72
2
 10
17.8601250048
 20
2.3815504143
 40
0.0024749995
 50
269.9999571956
 51
0.0000428042
 73
1
 72
1
 10
17.8626000043
 20
2.3815504162
 11
17.8626000043
 21
2.4279054419
 72
2
 10
17.8601250048
 20
2.4279054437
 40
0.0024749995
 50
359.9999571957
 51
90.0000428043
 73
1
 72
1
 10
17.860125003
 20
2.4303804433
 11
17.8362019897
 21
2.4303804433
 72
2
 10
17.8362019878
 20
2.4328554428
 40
0.0024749995
 50
179.9999571957
 51
270.0000428043
 73
1
 72
1
 10
17.8337269883
 20
2.4328554446
 11
17.8337269883
 21
2.4526554556
 72
2
 10
17.8362019878
 20
2.4526554575
 40
0.0024749995
 50
89.9999571958
 51
180.0000428043
 73
1
 72
1
 10
17.8362019897
 20
2.455130457
 11
18.0379951016
 21
2.455130457
 72
2
 10
18.0379951034
 20
2.4526554575
 40
0.0024749995
 50
359.9999571957
 51
90.0000428042
 73
1
 72
1
 10
18.040470103
 20
2.4526554556
 11
18.040470103
 21
2.4196554373
 72
2
 10
18.0379951034
 20
2.4196554355
 40
0.0024749995
 50
269.9999571956
 51
0.0000428042
 73
1
 72
1
 10
18.0379951016
 20
2.4171804359
 11
17.9961310784
 21
2.4171804359
 72
2
 10
17.9961310765
 20
2.4196554355
 40
0.0024749995
 50
179.9999571957
 51
270.0000428043
 73
1
 72
1
 10
17.993656077
 20
2.4196554373
 11
17.993656077
 21
2.4279054419
 72
2
 10
17.9911810775
 20
2.4279054437
 40
0.0024749995
 50
359.9999571957
 51
90.0000428043
 73
1
 72
1
 10
17.9911810756
 20
2.4303804433
 11
17.9271410401
 21
2.4303804433
 72
2
 10
17.9271410383
 20
2.4279054437
 40
0.0024749995
 50
89.9999571958
 51
180.0000428043
 73
1
 72
1
 10
17.9246660387
 20
2.4279054419
 11
17.9246660387
 21
2.4163554355
 72
2
 10
17.9271410383
 20
2.4163554336
 40
0.0024749995
 50
179.9999571957
 51
270.0000428042
 73
1
 72
1
 10
17.9271410401
 20
2.4138804341
 11
17.9623080596
 21
2.4138804341
 72
2
 10
17.9623080615
 20
2.4114054346
 40
0.0024749995
 50
359.9999571957
 51
90.0000428042
 73
1
 72
1
 10
17.964783061
 20
2.4114054327
 11
17.964783061
 21
2.3980504253
 72
2
 10
17.9623080615
 20
2.3980504235
 40
0.0024749995
 50
269.9999571956
 51
0.0000428042
 73
1
 72
1
 10
17.9623080596
 20
2.395575424
 11
17.9271410401
 21
2.395575424
 72
2
 10
17.9271410383
 20
2.3931004244
 40
0.0024749995
 50
89.9999571958
 51
180.0000428043
 73
1
 72
1
 10
17.9246660387
 20
2.3931004226
 11
17.9246660387
 21
2.3815504162
 72
2
 10
17.9271410383
 20
2.3815504143
 40
0.0024749995
 50
179.9999571957
 51
270.0000428043
 73
1
 72
1
 10
17.9271410401
 20
2.3790754148
 11
17.9921450762
 21
2.3790754148
 72
2
 10
17.992145078
 20
2.3815504143
 40
0.0024749995
 50
269.9999571958
 51
0.0000428043
 73
1
 72
1
 10
17.9946200775
 20
2.3815504162
 11
17.9946200775
 21
2.3898004208
 72
2
 10
17.9970950771
 20
2.3898004226
 40
0.0024749995
 50
89.9999571958
 51
180.0000428043
 73
1
 72
1
 10
17.9970950789
 20
2.3922754221
 11
18.0394141024
 21
2.3922754221
 72
2
 10
18.0394141042
 20
2.3898004226
 40
0.0024749995
 50
359.9999571957
 51
90.0000428043
 73
1
 72
1
 10
18.0418891038
 20
2.3898004208
 11
18.0418891038
 21
2.3568004025
 72
2
 10
18.0394141042
 20
2.3568004006
 40
0.0024749995
 50
269.9999571958
 51
0.0000428043
 73
1
 72
1
 10
18.0394141024
 20
2.3543254011
 11
17.8362019897
 21
2.3543254011
 97
267
330
2AE
330
2AF
330
2B0
330
2B1
330
2B2
330
2B3
330
2B4
330
2B5
330
2B6
330
2B7
330
2B8
330
2B9
330
2BA
330
2BB
330
2BC
330
2BD
330
2BE
330
2BF
330
2C0
330
2C1
330
2C2
330
2C3
330
2C4
330
2C5
330
2C6
330
2C7
330
2C8
330
2C9
330
2CA
330
2CB
330
2CC
330
2CD
330
2CE
330
2CF
330
2D0
330
2D1
330
2D2
330
2D3
330
2D4
330
2D5
330
2D6
330
2D7
330
2D8
330
2D9
330
2DA
330
2DB
330
2DC
330
2DD
330
2DE
330
2DF
330
2E0
330
2E1
330
2E2
330
2E3
330
2E4
330
2E5
330
2E6
330
2E7
330
2E8
330
2E9
330
2EA
330
2EB
330
2EC
330
2ED
330
2EE
330
2EF
330
2F0
330
2F1
330
2F2
330
2F3
330
2F4
330
2F5
330
2F6
330
2F7
330
2F8
330
2F9
330
2FA
330
2FB
330
2FC
330
2FD
330
2FE
330
2FF
330
300
330
301
330
302
330
303
330
304
330
305
330
306
330
307
330
308
330
309
330
30A
330
30B
330
30C
330
30D
330
30E
330
30F
330
310
330
311
330
312
330
313
330
314
330
315
330
316
330
317
330
318
330
319
330
31A
330
31B
330
31C
330
31D
330
31E
330
31F
330
320
330
321
330
322
330
323
330
324
330
325
330
326
330
327
330
328
330
329
330
32A
330
32B
330
32C
330
32D
330
32E
330
32F
330
330
330
331
330
332
330
333
330
334
330
335
330
336
330
337
330
338
330
339
330
33A
330
33B
330
33C
330
33D
330
33E
330
33F
330
340
330
341
330
342
330
343
330
344
330
345
330
346
330
347
330
348
330
349
330
34A
330
34B
330
34C
330
34D
330
34E
330
34F
330
350
330
351
330
352
330
353
330
354
330
355
330
356
330
357
330
358
330
359
330
35A
330
35B
330
35C
330
35D
330
35E
330
35F
330
360
330
361
330
362
330
363
330
364
330
365
330
366
330
367
330
368
330
369
330
36A
330
36B
330
36C
330
36D
330
36E
330
36F
330
370
330
371
330
372
330
373
330
374
330
375
330
376
330
377
330
378
330
379
330
37A
330
37B
330
37C
330
37D
330
37E
330
37F
330
380
330
381
330
382
330
383
330
384
330
385
330
386
330
387
330
388
330
389
330
38A
330
38B
330
38C
330
38D
330
38E
330
38F
330
390
330
391
330
392
330
393
330
394
330
395
330
396
330
397
330
398
330
399
330
39A
330
39B
330
39C
330
39D
330
39E
330
39F
330
3A0
330
3A1
330
3A2
330
3A3
330
3A4
330
3A5
330
3A6
330
3A7
330
3A8
330
3A9
330
3AA
330
3AB
330
3AC
330
3AD
330
3AE
330
3AF
330
3B0
330
3B1
330
3B2
330
3B3
330
3B4
330
3B5
330
3B6
330
3B7
330
3B8
 92
1
 93
40
 72
2
 10
17.7115227858
 20
2.3567995689
 40
0.0024741678
 50
226.3477981898
 51
270.0031206038
 73
1
 72
1
 10
17.7098149196
 20
2.3550094015
 11
17.6465348845
 21
2.415387435
 72
2
 10
17.6448261836
 20
2.4135964972
 40
0.0024753014
 50
46.3461263058
 51
180.0014637321
 73
1
 72
1
 10
17.6423508822
 20
2.413596434
 11
17.6423508822
 21
2.3815504162
 72
2
 10
17.6448258817
 20
2.3815504143
 40
0.0024749995
 50
179.9999571957
 51
270.0000428043
 73
1
 72
1
 10
17.6448258836
 20
2.3790754148
 11
17.6651428948
 21
2.3790754148
 72
2
 10
17.6651428967
 20
2.3766004153
 40
0.0024749995
 50
359.9999571957
 51
90.0000428043
 73
1
 72
1
 10
17.6676178962
 20
2.3766004134
 11
17.6676178962
 21
2.3568004025
 72
2
 10
17.6651428967
 20
2.3568004006
 40
0.0024749995
 50
269.9999571958
 51
0.0000428043
 73
1
 72
1
 10
17.6651428948
 20
2.3543254011
 11
17.5894788529
 21
2.3543254011
 72
2
 10
17.589478851
 20
2.3568004006
 40
0.0024749995
 50
179.9999571957
 51
270.0000428042
 73
1
 72
1
 10
17.5870038515
 20
2.3568004025
 11
17.5870038515
 21
2.3766004134
 72
2
 10
17.589478851
 20
2.3766004153
 40
0.0024749995
 50
89.9999571957
 51
180.0000428043
 73
1
 72
1
 10
17.5894788529
 20
2.3790754148
 11
17.6081248632
 21
2.3790754148
 72
2
 10
17.6081248651
 20
2.3815504143
 40
0.0024749995
 50
269.9999571957
 51
0.0000428043
 73
1
 72
1
 10
17.6105998646
 20
2.3815504162
 11
17.6105998646
 21
2.4279054419
 72
2
 10
17.6081248651
 20
2.4279054437
 40
0.0024749995
 50
359.9999571957
 51
90.0000428043
 73
1
 72
1
 10
17.6081248632
 20
2.4303804433
 11
17.5894788529
 21
2.4303804433
 72
2
 10
17.589478851
 20
2.4328554428
 40
0.0024749995
 50
179.9999571957
 51
270.0000428043
 73
1
 72
1
 10
17.5870038515
 20
2.4328554446
 11
17.5870038515
 21
2.4526554556
 72
2
 10
17.589478851
 20
2.4526554575
 40
0.0024749995
 50
89.9999571957
 51
180.0000428043
 73
1
 72
1
 10
17.5894788529
 20
2.455130457
 11
17.6899369086
 21
2.455130457
 72
2
 10
17.6899370433
 20
2.4526562892
 40
0.0024741678
 50
46.3477981899
 51
90.0031206038
 73
1
 72
1
 10
17.6916449095
 20
2.4544464566
 11
17.7516779428
 21
2.3971664249
 72
2
 10
17.7533866437
 20
2.3989573626
 40
0.0024753014
 50
226.3461263059
 51
0.0014637321
 73
1
 72
1
 10
17.7558619451
 20
2.3989574258
 11
17.7558619451
 21
2.4279054419
 72
2
 10
17.7533869456
 20
2.4279054437
 40
0.0024749995
 50
359.9999571957
 51
90.0000428043
 73
1
 72
1
 10
17.7533869438
 20
2.4303804433
 11
17.7346109333
 21
2.4303804433
 72
2
 10
17.7346109315
 20
2.4328554428
 40
0.0024749995
 50
179.9999571957
 51
270.0000428043
 73
1
 72
1
 10
17.732135932
 20
2.4328554446
 11
17.732135932
 21
2.4526554556
 72
2
 10
17.7346109315
 20
2.4526554575
 40
0.0024749995
 50
89.9999571958
 51
180.0000428043
 73
1
 72
1
 10
17.7346109333
 20
2.455130457
 11
17.8086119744
 21
2.455130457
 72
2
 10
17.8086119762
 20
2.4526554575
 40
0.0024749995
 50
359.9999571957
 51
90.0000428043
 73
1
 72
1
 10
17.8110869758
 20
2.4526554556
 11
17.8110869758
 21
2.4328554446
 72
2
 10
17.8086119762
 20
2.4328554428
 40
0.0024749995
 50
269.9999571956
 51
0.0000428042
 73
1
 72
1
 10
17.8086119744
 20
2.4303804433
 11
17.7906789644
 21
2.4303804433
 72
2
 10
17.7906789626
 20
2.4279054437
 40
0.0024749995
 50
89.9999571957
 51
180.0000428043
 73
1
 72
1
 10
17.7882039631
 20
2.4279054419
 11
17.7882039631
 21
2.3568004025
 72
2
 10
17.7857289635
 20
2.3568004006
 40
0.0024749995
 50
269.9999571957
 51
0.0000428043
 73
1
 72
1
 10
17.7857289617
 20
2.3543254011
 11
17.7115229205
 21
2.3543254011
 97
267
330
2AE
330
2AF
330
2B0
330
2B1
330
2B2
330
2B3
330
2B4
330
2B5
330
2B6
330
2B7
330
2B8
330
2B9
330
2BA
330
2BB
330
2BC
330
2BD
330
2BE
330
2BF
330
2C0
330
2C1
330
2C2
330
2C3
330
2C4
330
2C5
330
2C6
330
2C7
330
2C8
330
2C9
330
2CA
330
2CB
330
2CC
330
2CD
330
2CE
330
2CF
330
2D0
330
2D1
330
2D2
330
2D3
330
2D4
330
2D5
330
2D6
330
2D7
330
2D8
330
2D9
330
2DA
330
2DB
330
2DC
330
2DD
330
2DE
330
2DF
330
2E0
330
2E1
330
2E2
330
2E3
330
2E4
330
2E5
330
2E6
330
2E7
330
2E8
330
2E9
330
2EA
330
2EB
330
2EC
330
2ED
330
2EE
330
2EF
330
2F0
330
2F1
330
2F2
330
2F3
330
2F4
330
2F5
330
2F6
330
2F7
330
2F8
330
2F9
330
2FA
330
2FB
330
2FC
330
2FD
330
2FE
330
2FF
330
300
330
301
330
302
330
303
330
304
330
305
330
306
330
307
330
308
330
309
330
30A
330
30B
330
30C
330
30D
330
30E
330
30F
330
310
330
311
330
312
330
313
330
314
330
315
330
316
330
317
330
318
330
319
330
31A
330
31B
330
31C
330
31D
330
31E
330
31F
330
320
330
321
330
322
330
323
330
324
330
325
330
326
330
327
330
328
330
329
330
32A
330
32B
330
32C
330
32D
330
32E
330
32F
330
330
330
331
330
332
330
333
330
334
330
335
330
336
330
337
330
338
330
339
330
33A
330
33B
330
33C
330
33D
330
33E
330
33F
330
340
330
341
330
342
330
343
330
344
330
345
330
346
330
347
330
348
330
349
330
34A
330
34B
330
34C
330
34D
330
34E
330
34F
330
350
330
351
330
352
330
353
330
354
330
355
330
356
330
357
330
358
330
359
330
35A
330
35B
330
35C
330
35D
330
35E
330
35F
330
360
330
361
330
362
330
363
330
364
330
365
330
366
330
367
330
368
330
369
330
36A
330
36B
330
36C
330
36D
330
36E
330
36F
330
370
330
371
330
372
330
373
330
374
330
375
330
376
330
377
330
378
330
379
330
37A
330
37B
330
37C
330
37D
330
37E
330
37F
330
380
330
381
330
382
330
383
330
384
330
385
330
386
330
387
330
388
330
389
330
38A
330
38B
330
38C
330
38D
330
38E
330
38F
330
390
330
391
330
392
330
393
330
394
330
395
330
396
330
397
330
398
330
399
330
39A
330
39B
330
39C
330
39D
330
39E
330
39F
330
3A0
330
3A1
330
3A2
330
3A3
330
3A4
330
3A5
330
3A6
330
3A7
330
3A8
330
3A9
330
3AA
330
3AB
330
3AC
330
3AD
330
3AE
330
3AF
330
3B0
330
3B1
330
3B2
330
3B3
330
3B4
330
3B5
330
3B6
330
3B7
330
3B8
 92
1
 93
40
 72
2
 10
17.4632701481
 20
2.3568008172
 40
0.0024754162
 50
226.3593695814
 51
270.0146919954
 73
1
 72
1
 10
17.4615617819
 20
2.3550094015
 11
17.3982817468
 21
2.415387435
 72
2
 10
17.3965730459
 20
2.4135964972
 40
0.0024753014
 50
46.3461263058
 51
180.0014637321
 73
1
 72
1
 10
17.3940977445
 20
2.413596434
 11
17.3940977445
 21
2.3815504162
 72
2
 10
17.396572744
 20
2.3815504143
 40
0.0024749995
 50
179.9999571957
 51
270.0000428043
 73
1
 72
1
 10
17.3965727459
 20
2.3790754148
 11
17.4168897572
 21
2.3790754148
 72
2
 10
17.416889759
 20
2.3766004153
 40
0.0024749995
 50
359.9999571957
 51
90.0000428043
 73
1
 72
1
 10
17.4193647585
 20
2.3766004134
 11
17.4193647585
 21
2.3568004025
 72
2
 10
17.416889759
 20
2.3568004006
 40
0.0024749995
 50
269.9999571957
 51
0.0000428043
 73
1
 72
1
 10
17.4168897572
 20
2.3543254011
 11
17.3412257152
 21
2.3543254011
 72
2
 10
17.3412257133
 20
2.3568004006
 40
0.0024749995
 50
179.9999571957
 51
270.0000428043
 73
1
 72
1
 10
17.3387507138
 20
2.3568004025
 11
17.3387507138
 21
2.3766004134
 72
2
 10
17.3412257133
 20
2.3766004153
 40
0.0024749995
 50
89.9999571957
 51
180.0000428043
 73
1
 72
1
 10
17.3412257152
 20
2.3790754148
 11
17.3598727255
 21
2.3790754148
 72
2
 10
17.3598727274
 20
2.3815504143
 40
0.0024749995
 50
269.9999571957
 51
0.0000428043
 73
1
 72
1
 10
17.3623477269
 20
2.3815504162
 11
17.3623477269
 21
2.4279054419
 72
2
 10
17.3598727274
 20
2.4279054437
 40
0.0024749995
 50
359.9999571957
 51
90.0000428044
 73
1
 72
1
 10
17.3598727255
 20
2.4303804433
 11
17.3412257152
 21
2.4303804433
 72
2
 10
17.3412257133
 20
2.4328554428
 40
0.0024749995
 50
179.9999571957
 51
270.0000428043
 73
1
 72
1
 10
17.3387507138
 20
2.4328554446
 11
17.3387507138
 21
2.4526554556
 72
2
 10
17.3412257133
 20
2.4526554575
 40
0.0024749995
 50
89.9999571957
 51
180.0000428043
 73
1
 72
1
 10
17.3412257152
 20
2.455130457
 11
17.4416837709
 21
2.455130457
 72
2
 10
17.4416839057
 20
2.4526562892
 40
0.0024741678
 50
46.3477981899
 51
90.0031206038
 73
1
 72
1
 10
17.4433917718
 20
2.4544464566
 11
17.5034248051
 21
2.3971664249
 72
2
 10
17.5051335061
 20
2.3989573626
 40
0.0024753014
 50
226.3461263059
 51
0.0014637321
 73
1
 72
1
 10
17.5076088075
 20
2.3989574258
 11
17.5076088075
 21
2.4279054419
 72
2
 10
17.5051338079
 20
2.4279054437
 40
0.0024749995
 50
359.9999571957
 51
90.0000428043
 73
1
 72
1
 10
17.5051338061
 20
2.4303804433
 11
17.4863577957
 21
2.4303804433
 72
2
 10
17.4863577938
 20
2.4328554428
 40
0.0024749995
 50
179.9999571957
 51
270.0000428043
 73
1
 72
1
 10
17.4838827943
 20
2.4328554446
 11
17.4838827943
 21
2.4526554556
 72
2
 10
17.4863577938
 20
2.4526554575
 40
0.0024749995
 50
89.9999571957
 51
180.0000428043
 73
1
 72
1
 10
17.4863577957
 20
2.455130457
 11
17.5603588367
 21
2.455130457
 72
2
 10
17.5603588386
 20
2.4526554575
 40
0.0024749995
 50
359.9999571957
 51
90.0000428042
 73
1
 72
1
 10
17.5628338381
 20
2.4526554556
 11
17.5628338381
 21
2.4328554446
 72
2
 10
17.5603588386
 20
2.4328554428
 40
0.0024749995
 50
269.9999571958
 51
0.0000428043
 73
1
 72
1
 10
17.5603588367
 20
2.4303804433
 11
17.5424258268
 21
2.4303804433
 72
2
 10
17.5424258249
 20
2.4279054437
 40
0.0024749995
 50
89.9999571958
 51
180.0000428043
 73
1
 72
1
 10
17.5399508254
 20
2.4279054419
 11
17.5399508254
 21
2.3568004025
 72
2
 10
17.5374758259
 20
2.3568004006
 40
0.0024749995
 50
269.9999571958
 51
0.0000428043
 73
1
 72
1
 10
17.537475824
 20
2.3543254011
 11
17.4632707829
 21
2.3543254011
 97
267
330
2AE
330
2AF
330
2B0
330
2B1
330
2B2
330
2B3
330
2B4
330
2B5
330
2B6
330
2B7
330
2B8
330
2B9
330
2BA
330
2BB
330
2BC
330
2BD
330
2BE
330
2BF
330
2C0
330
2C1
330
2C2
330
2C3
330
2C4
330
2C5
330
2C6
330
2C7
330
2C8
330
2C9
330
2CA
330
2CB
330
2CC
330
2CD
330
2CE
330
2CF
330
2D0
330
2D1
330
2D2
330
2D3
330
2D4
330
2D5
330
2D6
330
2D7
330
2D8
330
2D9
330
2DA
330
2DB
330
2DC
330
2DD
330
2DE
330
2DF
330
2E0
330
2E1
330
2E2
330
2E3
330
2E4
330
2E5
330
2E6
330
2E7
330
2E8
330
2E9
330
2EA
330
2EB
330
2EC
330
2ED
330
2EE
330
2EF
330
2F0
330
2F1
330
2F2
330
2F3
330
2F4
330
2F5
330
2F6
330
2F7
330
2F8
330
2F9
330
2FA
330
2FB
330
2FC
330
2FD
330
2FE
330
2FF
330
300
330
301
330
302
330
303
330
304
330
305
330
306
330
307
330
308
330
309
330
30A
330
30B
330
30C
330
30D
330
30E
330
30F
330
310
330
311
330
312
330
313
330
314
330
315
330
316
330
317
330
318
330
319
330
31A
330
31B
330
31C
330
31D
330
31E
330
31F
330
320
330
321
330
322
330
323
330
324
330
325
330
326
330
327
330
328
330
329
330
32A
330
32B
330
32C
330
32D
330
32E
330
32F
330
330
330
331
330
332
330
333
330
334
330
335
330
336
330
337
330
338
330
339
330
33A
330
33B
330
33C
330
33D
330
33E
330
33F
330
340
330
341
330
342
330
343
330
344
330
345
330
346
330
347
330
348
330
349
330
34A
330
34B
330
34C
330
34D
330
34E
330
34F
330
350
330
351
330
352
330
353
330
354
330
355
330
356
330
357
330
358
330
359
330
35A
330
35B
330
35C
330
35D
330
35E
330
35F
330
360
330
361
330
362
330
363
330
364
330
365
330
366
330
367
330
368
330
369
330
36A
330
36B
330
36C
330
36D
330
36E
330
36F
330
370
330
371
330
372
330
373
330
374
330
375
330
376
330
377
330
378
330
379
330
37A
330
37B
330
37C
330
37D
330
37E
330
37F
330
380
330
381
330
382
330
383
330
384
330
385
330
386
330
387
330
388
330
389
330
38A
330
38B
330
38C
330
38D
330
38E
330
38F
330
390
330
391
330
392
330
393
330
394
330
395
330
396
330
397
330
398
330
399
330
39A
330
39B
330
39C
330
39D
330
39E
330
39F
330
3A0
330
3A1
330
3A2
330
3A3
330
3A4
330
3A5
330
3A6
330
3A7
330
3A8
330
3A9
330
3AA
330
3AB
330
3AC
330
3AD
330
3AE
330
3AF
330
3B0
330
3B1
330
3B2
330
3B3
330
3B4
330
3B5
330
3B6
330
3B7
330
3B8
 92
1
 93
23
 72
2
 10
17.0481152095
 20
2.4027328529
 40
0.048483885
 50
273.21763719
 51
303.0749121182
 73
1
 72
2
 10
17.0629546036
 20
2.379965244
 40
0.0213072145
 50
303.0488228549
 51
355.7263138674
 73
1
 72
2
 10
17.0688911042
 20
2.3799744343
 40
0.0153945295
 50
354.0454548824
 51
5.1878013979
 73
1
 72
2
 10
17.0620614151
 20
2.3797859164
 40
0.0222174455
 50
4.0793399388
 51
69.834329283
 73
1
 72
1
 10
17.0697205646
 20
2.4006414268
 11
17.059669559
 21
2.4041904287
 72
1
 10
17.059669559
 20
2.4041904287
 11
17.0679095636
 21
2.4089664314
 72
2
 10
17.0460441811
 20
2.445793323
 40
0.0428289026
 50
300.6990502959
 51
319.0591802498
 73
1
 72
2
 10
17.0660727781
 20
2.4296649696
 40
0.0171568255
 50
315.9145124245
 51
16.0049121283
 73
1
 72
2
 10
17.0611211659
 20
2.4263113051
 40
0.0229166529
 50
20.6563876465
 51
62.3316896973
 73
1
 72
2
 10
17.0404590422
 20
2.3933827403
 40
0.061747717
 50
59.5385584989
 51
90.0050977555
 73
1
 72
1
 10
17.0404535484
 20
2.455130457
 11
16.8743904563
 21
2.455130457
 72
2
 10
16.8743904545
 20
2.4526554575
 40
0.0024749995
 50
89.9999571958
 51
180.0000428043
 73
1
 72
1
 10
16.8719154549
 20
2.4526554556
 11
16.8719154549
 21
2.4328554446
 72
2
 10
16.8743904545
 20
2.4328554428
 40
0.0024749995
 50
179.9999571957
 51
270.0000428043
 73
1
 72
1
 10
16.8743904563
 20
2.4303804433
 11
16.8983324696
 21
2.4303804433
 72
2
 10
16.8983324714
 20
2.4279054437
 40
0.0024749995
 50
359.9999571957
 51
90.0000428043
 73
1
 72
1
 10
16.9008074709
 20
2.4279054419
 11
16.9008074709
 21
2.3815504162
 72
2
 10
16.8983324714
 20
2.3815504143
 40
0.0024749995
 50
269.9999571958
 51
0.0000428043
 73
1
 72
1
 10
16.8983324696
 20
2.3790754148
 11
16.8743904563
 21
2.3790754148
 72
2
 10
16.8743904545
 20
2.3766004153
 40
0.0024749995
 50
89.9999571958
 51
180.0000428043
 73
1
 72
1
 10
16.8719154549
 20
2.3766004134
 11
16.8719154549
 21
2.3568004025
 72
2
 10
16.8743904545
 20
2.3568004006
 40
0.0024749995
 50
179.9999571957
 51
270.0000428042
 73
1
 72
1
 10
16.8743904563
 20
2.3543254011
 11
17.0508365542
 21
2.3543254011
 97
267
330
2AE
330
2AF
330
2B0
330
2B1
330
2B2
330
2B3
330
2B4
330
2B5
330
2B6
330
2B7
330
2B8
330
2B9
330
2BA
330
2BB
330
2BC
330
2BD
330
2BE
330
2BF
330
2C0
330
2C1
330
2C2
330
2C3
330
2C4
330
2C5
330
2C6
330
2C7
330
2C8
330
2C9
330
2CA
330
2CB
330
2CC
330
2CD
330
2CE
330
2CF
330
2D0
330
2D1
330
2D2
330
2D3
330
2D4
330
2D5
330
2D6
330
2D7
330
2D8
330
2D9
330
2DA
330
2DB
330
2DC
330
2DD
330
2DE
330
2DF
330
2E0
330
2E1
330
2E2
330
2E3
330
2E4
330
2E5
330
2E6
330
2E7
330
2E8
330
2E9
330
2EA
330
2EB
330
2EC
330
2ED
330
2EE
330
2EF
330
2F0
330
2F1
330
2F2
330
2F3
330
2F4
330
2F5
330
2F6
330
2F7
330
2F8
330
2F9
330
2FA
330
2FB
330
2FC
330
2FD
330
2FE
330
2FF
330
300
330
301
330
302
330
303
330
304
330
305
330
306
330
307
330
308
330
309
330
30A
330
30B
330
30C
330
30D
330
30E
330
30F
330
310
330
311
330
312
330
313
330
314
330
315
330
316
330
317
330
318
330
319
330
31A
330
31B
330
31C
330
31D
330
31E
330
31F
330
320
330
321
330
322
330
323
330
324
330
325
330
326
330
327
330
328
330
329
330
32A
330
32B
330
32C
330
32D
330
32E
330
32F
330
330
330
331
330
332
330
333
330
334
330
335
330
336
330
337
330
338
330
339
330
33A
330
33B
330
33C
330
33D
330
33E
330
33F
330
340
330
341
330
342
330
343
330
344
330
345
330
346
330
347
330
348
330
349
330
34A
330
34B
330
34C
330
34D
330
34E
330
34F
330
350
330
351
330
352
330
353
330
354
330
355
330
356
330
357
330
358
330
359
330
35A
330
35B
330
35C
330
35D
330
35E
330
35F
330
360
330
361
330
362
330
363
330
364
330
365
330
366
330
367
330
368
330
369
330
36A
330
36B
330
36C
330
36D
330
36E
330
36F
330
370
330
371
330
372
330
373
330
374
330
375
330
376
330
377
330
378
330
379
330
37A
330
37B
330
37C
330
37D
330
37E
330
37F
330
380
330
381
330
382
330
383
330
384
330
385
330
386
330
387
330
388
330
389
330
38A
330
38B
330
38C
330
38D
330
38E
330
38F
330
390
330
391
330
392
330
393
330
394
330
395
330
396
330
397
330
398
330
399
330
39A
330
39B
330
39C
330
39D
330
39E
330
39F
330
3A0
330
3A1
330
3A2
330
3A3
330
3A4
330
3A5
330
3A6
330
3A7
330
3A8
330
3A9
330
3AA
330
3AB
330
3AC
330
3AD
330
3AE
330
3AF
330
3B0
330
3B1
330
3B2
330
3B3
330
3B4
330
3B5
330
3B6
330
3B7
330
3B8
 92
1
 93
32
 72
2
 10
17.1857496308
 20
2.3568004006
 40
0.0024749995
 50
269.9999571958
 51
0.0000428044
 73
1
 72
1
 10
17.1882246303
 20
2.3568004025
 11
17.1882246303
 21
2.3766004134
 72
2
 10
17.1857496308
 20
2.3766004153
 40
0.0024749995
 50
359.9999571957
 51
90.0000428043
 73
1
 72
1
 10
17.185749629
 20
2.3790754148
 11
17.1744666227
 21
2.3790754148
 72
2
 10
17.1744665134
 20
2.3815504549
 40
0.0024750401
 50
147.6063258011
 51
270.0025305754
 73
1
 72
1
 10
17.1723766216
 20
2.3828764169
 11
17.1778926246
 21
2.3915704217
 72
2
 10
17.1799825555
 20
2.3902442221
 40
0.0024752003
 50
89.998372645
 51
147.602165307
 73
1
 72
1
 10
17.1799826258
 20
2.3927194224
 11
17.2148606451
 21
2.3927194224
 72
2
 10
17.2148601055
 20
2.3902439622
 40
0.0024754602
 50
32.8959418574
 51
89.9875097202
 73
1
 72
1
 10
17.2169386463
 20
2.3915884218
 11
17.2225646494
 21
2.3828954169
 72
2
 10
17.2204866271
 20
2.3815506219
 40
0.0024752071
 50
270.0004896793
 51
32.9089806818
 73
1
 72
1
 10
17.2204866482
 20
2.3790754148
 11
17.2060356402
 21
2.3790754148
 72
2
 10
17.2060356384
 20
2.3766004153
 40
0.0024749995
 50
89.9999571958
 51
180.0000428043
 73
1
 72
1
 10
17.2035606388
 20
2.3766004134
 11
17.2035606388
 21
2.3568004025
 72
2
 10
17.2060356384
 20
2.3568004006
 40
0.0024749995
 50
179.9999571957
 51
270.0000428042
 73
1
 72
1
 10
17.2060356402
 20
2.3543254011
 11
17.3113166986
 21
2.3543254011
 72
2
 10
17.3113167005
 20
2.3568004006
 40
0.0024749995
 50
269.9999571957
 51
0.0000428043
 73
1
 72
1
 10
17.3137917
 20
2.3568004025
 11
17.3137917
 21
2.3766004134
 72
2
 10
17.3113167005
 20
2.3766004153
 40
0.0024749995
 50
359.9999571957
 51
90.0000428043
 73
1
 72
1
 10
17.3113166986
 20
2.3790754148
 11
17.2913006875
 21
2.3790754148
 72
2
 10
17.291300808
 20
2.3815494558
 40
0.002474041
 50
212.9056413127
 51
269.9972091756
 73
1
 72
1
 10
17.2892236864
 20
2.3802054154
 11
17.2414676599
 21
2.4540004564
 72
2
 10
17.2393900382
 20
2.4526554968
 40
0.0024749602
 50
32.9172174468
 51
90.0087853096
 73
1
 72
1
 10
17.2393896587
 20
2.455130457
 11
17.182214627
 21
2.455130457
 72
2
 10
17.1822145567
 20
2.4526552567
 40
0.0024752003
 50
89.998372645
 51
147.602165307
 73
1
 72
1
 10
17.1801246258
 20
2.4539814564
 11
17.1333245999
 21
2.3802244155
 72
2
 10
17.131234669
 20
2.3815506151
 40
0.0024752003
 50
269.998372645
 51
327.602165307
 73
1
 72
1
 10
17.1312345987
 20
2.3790754148
 11
17.1083735861
 21
2.3790754148
 72
2
 10
17.1083735842
 20
2.3766004153
 40
0.0024749995
 50
89.9999571957
 51
180.0000428043
 73
1
 72
1
 10
17.1058985847
 20
2.3766004134
 11
17.1058985847
 21
2.3568004025
 72
2
 10
17.1083735842
 20
2.3568004006
 40
0.0024749995
 50
179.9999571957
 51
270.0000428043
 73
1
 72
1
 10
17.1083735861
 20
2.3543254011
 11
17.185749629
 21
2.3543254011
 97
267
330
2AE
330
2AF
330
2B0
330
2B1
330
2B2
330
2B3
330
2B4
330
2B5
330
2B6
330
2B7
330
2B8
330
2B9
330
2BA
330
2BB
330
2BC
330
2BD
330
2BE
330
2BF
330
2C0
330
2C1
330
2C2
330
2C3
330
2C4
330
2C5
330
2C6
330
2C7
330
2C8
330
2C9
330
2CA
330
2CB
330
2CC
330
2CD
330
2CE
330
2CF
330
2D0
330
2D1
330
2D2
330
2D3
330
2D4
330
2D5
330
2D6
330
2D7
330
2D8
330
2D9
330
2DA
330
2DB
330
2DC
330
2DD
330
2DE
330
2DF
330
2E0
330
2E1
330
2E2
330
2E3
330
2E4
330
2E5
330
2E6
330
2E7
330
2E8
330
2E9
330
2EA
330
2EB
330
2EC
330
2ED
330
2EE
330
2EF
330
2F0
330
2F1
330
2F2
330
2F3
330
2F4
330
2F5
330
2F6
330
2F7
330
2F8
330
2F9
330
2FA
330
2FB
330
2FC
330
2FD
330
2FE
330
2FF
330
300
330
301
330
302
330
303
330
304
330
305
330
306
330
307
330
308
330
309
330
30A
330
30B
330
30C
330
30D
330
30E
330
30F
330
310
330
311
330
312
330
313
330
314
330
315
330
316
330
317
330
318
330
319
330
31A
330
31B
330
31C
330
31D
330
31E
330
31F
330
320
330
321
330
322
330
323
330
324
330
325
330
326
330
327
330
328
330
329
330
32A
330
32B
330
32C
330
32D
330
32E
330
32F
330
330
330
331
330
332
330
333
330
334
330
335
330
336
330
337
330
338
330
339
330
33A
330
33B
330
33C
330
33D
330
33E
330
33F
330
340
330
341
330
342
330
343
330
344
330
345
330
346
330
347
330
348
330
349
330
34A
330
34B
330
34C
330
34D
330
34E
330
34F
330
350
330
351
330
352
330
353
330
354
330
355
330
356
330
357
330
358
330
359
330
35A
330
35B
330
35C
330
35D
330
35E
330
35F
330
360
330
361
330
362
330
363
330
364
330
365
330
366
330
367
330
368
330
369
330
36A
330
36B
330
36C
330
36D
330
36E
330
36F
330
370
330
371
330
372
330
373
330
374
330
375
330
376
330
377
330
378
330
379
330
37A
330
37B
330
37C
330
37D
330
37E
330
37F
330
380
330
381
330
382
330
383
330
384
330
385
330
386
330
387
330
388
330
389
330
38A
330
38B
330
38C
330
38D
330
38E
330
38F
330
390
330
391
330
392
330
393
330
394
330
395
330
396
330
397
330
398
330
399
330
39A
330
39B
330
39C
330
39D
330
39E
330
39F
330
3A0
330
3A1
330
3A2
330
3A3
330
3A4
330
3A5
330
3A6
330
3A7
330
3A8
330
3A9
330
3AA
330
3AB
330
3AC
330
3AD
330
3AE
330
3AF
330
3B0
330
3B1
330
3B2
330
3B3
330
3B4
330
3B5
330
3B6
330
3B7
330
3B8
 92
1
 93
6
 72
2
 10
16.963795504
 20
2.3815504143
 40
0.0024749995
 50
179.9999571957
 51
270.0000428043
 73
1
 72
1
 10
16.9613205045
 20
2.3815504162
 11
16.9613205045
 21
2.3939254231
 72
2
 10
16.963795504
 20
2.3939254249
 40
0.0024749995
 50
89.9999571957
 51
180.0000428043
 73
1
 72
1
 10
16.9637955059
 20
2.3964004244
 11
17.0051585288
 21
2.3964004244
 72
2
 10
17.0051585288
 20
2.3877379196
 40
0.0086625048
 50
270.0
 51
90.0
 73
1
 72
1
 10
17.0051585288
 20
2.3790754148
 11
16.9637955059
 21
2.3790754148
 97
267
330
2AE
330
2AF
330
2B0
330
2B1
330
2B2
330
2B3
330
2B4
330
2B5
330
2B6
330
2B7
330
2B8
330
2B9
330
2BA
330
2BB
330
2BC
330
2BD
330
2BE
330
2BF
330
2C0
330
2C1
330
2C2
330
2C3
330
2C4
330
2C5
330
2C6
330
2C7
330
2C8
330
2C9
330
2CA
330
2CB
330
2CC
330
2CD
330
2CE
330
2CF
330
2D0
330
2D1
330
2D2
330
2D3
330
2D4
330
2D5
330
2D6
330
2D7
330
2D8
330
2D9
330
2DA
330
2DB
330
2DC
330
2DD
330
2DE
330
2DF
330
2E0
330
2E1
330
2E2
330
2E3
330
2E4
330
2E5
330
2E6
330
2E7
330
2E8
330
2E9
330
2EA
330
2EB
330
2EC
330
2ED
330
2EE
330
2EF
330
2F0
330
2F1
330
2F2
330
2F3
330
2F4
330
2F5
330
2F6
330
2F7
330
2F8
330
2F9
330
2FA
330
2FB
330
2FC
330
2FD
330
2FE
330
2FF
330
300
330
301
330
302
330
303
330
304
330
305
330
306
330
307
330
308
330
309
330
30A
330
30B
330
30C
330
30D
330
30E
330
30F
330
310
330
311
330
312
330
313
330
314
330
315
330
316
330
317
330
318
330
319
330
31A
330
31B
330
31C
330
31D
330
31E
330
31F
330
320
330
321
330
322
330
323
330
324
330
325
330
326
330
327
330
328
330
329
330
32A
330
32B
330
32C
330
32D
330
32E
330
32F
330
330
330
331
330
332
330
333
330
334
330
335
330
336
330
337
330
338
330
339
330
33A
330
33B
330
33C
330
33D
330
33E
330
33F
330
340
330
341
330
342
330
343
330
344
330
345
330
346
330
347
330
348
330
349
330
34A
330
34B
330
34C
330
34D
330
34E
330
34F
330
350
330
351
330
352
330
353
330
354
330
355
330
356
330
357
330
358
330
359
330
35A
330
35B
330
35C
330
35D
330
35E
330
35F
330
360
330
361
330
362
330
363
330
364
330
365
330
366
330
367
330
368
330
369
330
36A
330
36B
330
36C
330
36D
330
36E
330
36F
330
370
330
371
330
372
330
373
330
374
330
375
330
376
330
377
330
378
330
379
330
37A
330
37B
330
37C
330
37D
330
37E
330
37F
330
380
330
381
330
382
330
383
330
384
330
385
330
386
330
387
330
388
330
389
330
38A
330
38B
330
38C
330
38D
330
38E
330
38F
330
390
330
391
330
392
330
393
330
394
330
395
330
396
330
397
330
398
330
399
330
39A
330
39B
330
39C
330
39D
330
39E
330
39F
330
3A0
330
3A1
330
3A2
330
3A3
330
3A4
330
3A5
330
3A6
330
3A7
330
3A8
330
3A9
330
3AA
330
3AB
330
3AC
330
3AD
330
3AE
330
3AF
330
3B0
330
3B1
330
3B2
330
3B3
330
3B4
330
3B5
330
3B6
330
3B7
330
3B8
 92
1
 93
13
 72
2
 10
18.1572301659
 20
2.415180433
 40
0.0024749995
 50
179.9999571957
 51
270.0000428043
 73
1
 72
1
 10
18.1547551663
 20
2.4151804348
 11
18.1547551663
 21
2.4279054419
 72
2
 10
18.1572301659
 20
2.4279054437
 40
0.0024749995
 50
89.9999571957
 51
180.0000428043
 73
1
 72
1
 10
18.1572301677
 20
2.4303804433
 11
18.1940311881
 21
2.4303804433
 72
2
 10
18.1924863006
 20
2.4019259643
 40
0.0284963867
 50
70.3834917948
 51
86.8922743861
 73
1
 72
2
 10
18.1973459106
 20
2.4149676972
 40
0.0145814632
 50
54.6746025112
 51
71.1660573124
 73
1
 72
2
 10
18.2024754016
 20
2.4218216224
 40
0.0060275915
 50
20.9055592135
 51
56.7851676243
 73
1
 72
2
 10
18.2037759605
 20
2.4224819047
 40
0.0045795888
 50
355.6235353944
 51
18.9942678268
 73
1
 72
2
 10
18.2025691502
 20
2.4227756809
 40
0.0058087709
 50
318.8515287446
 51
353.6422345323
 73
1
 72
2
 10
18.198398534
 20
2.4260095887
 40
0.0110815393
 50
306.758405961
 51
320.4502234234
 73
1
 72
2
 10
18.1927693431
 20
2.4337504172
 40
0.0206523367
 50
289.6883413472
 51
306.4184925496
 73
1
 72
2
 10
18.1908418374
 20
2.4381440645
 40
0.0254407115
 50
270.7327484175
 51
290.441894219
 73
1
 72
1
 10
18.1911671865
 20
2.4127054335
 11
18.1572301677
 21
2.4127054335
 97
267
330
2AE
330
2AF
330
2B0
330
2B1
330
2B2
330
2B3
330
2B4
330
2B5
330
2B6
330
2B7
330
2B8
330
2B9
330
2BA
330
2BB
330
2BC
330
2BD
330
2BE
330
2BF
330
2C0
330
2C1
330
2C2
330
2C3
330
2C4
330
2C5
330
2C6
330
2C7
330
2C8
330
2C9
330
2CA
330
2CB
330
2CC
330
2CD
330
2CE
330
2CF
330
2D0
330
2D1
330
2D2
330
2D3
330
2D4
330
2D5
330
2D6
330
2D7
330
2D8
330
2D9
330
2DA
330
2DB
330
2DC
330
2DD
330
2DE
330
2DF
330
2E0
330
2E1
330
2E2
330
2E3
330
2E4
330
2E5
330
2E6
330
2E7
330
2E8
330
2E9
330
2EA
330
2EB
330
2EC
330
2ED
330
2EE
330
2EF
330
2F0
330
2F1
330
2F2
330
2F3
330
2F4
330
2F5
330
2F6
330
2F7
330
2F8
330
2F9
330
2FA
330
2FB
330
2FC
330
2FD
330
2FE
330
2FF
330
300
330
301
330
302
330
303
330
304
330
305
330
306
330
307
330
308
330
309
330
30A
330
30B
330
30C
330
30D
330
30E
330
30F
330
310
330
311
330
312
330
313
330
314
330
315
330
316
330
317
330
318
330
319
330
31A
330
31B
330
31C
330
31D
330
31E
330
31F
330
320
330
321
330
322
330
323
330
324
330
325
330
326
330
327
330
328
330
329
330
32A
330
32B
330
32C
330
32D
330
32E
330
32F
330
330
330
331
330
332
330
333
330
334
330
335
330
336
330
337
330
338
330
339
330
33A
330
33B
330
33C
330
33D
330
33E
330
33F
330
340
330
341
330
342
330
343
330
344
330
345
330
346
330
347
330
348
330
349
330
34A
330
34B
330
34C
330
34D
330
34E
330
34F
330
350
330
351
330
352
330
353
330
354
330
355
330
356
330
357
330
358
330
359
330
35A
330
35B
330
35C
330
35D
330
35E
330
35F
330
360
330
361
330
362
330
363
330
364
330
365
330
366
330
367
330
368
330
369
330
36A
330
36B
330
36C
330
36D
330
36E
330
36F
330
370
330
371
330
372
330
373
330
374
330
375
330
376
330
377
330
378
330
379
330
37A
330
37B
330
37C
330
37D
330
37E
330
37F
330
380
330
381
330
382
330
383
330
384
330
385
330
386
330
387
330
388
330
389
330
38A
330
38B
330
38C
330
38D
330
38E
330
38F
330
390
330
391
330
392
330
393
330
394
330
395
330
396
330
397
330
398
330
399
330
39A
330
39B
330
39C
330
39D
330
39E
330
39F
330
3A0
330
3A1
330
3A2
330
3A3
330
3A4
330
3A5
330
3A6
330
3A7
330
3A8
330
3A9
330
3AA
330
3AB
330
3AC
330
3AD
330
3AE
330
3AF
330
3B0
330
3B1
330
3B2
330
3B3
330
3B4
330
3B5
330
3B6
330
3B7
330
3B8
 92
1
 93
6
 72
2
 10
17.0051585288
 20
2.4217179385
 40
0.0086625048
 50
270.0
 51
90.0
 73
1
 72
1
 10
17.0051585288
 20
2.4303804433
 11
16.9637955059
 21
2.4303804433
 72
2
 10
16.963795504
 20
2.4279054437
 40
0.0024749995
 50
89.9999571957
 51
180.0000428043
 73
1
 72
1
 10
16.9613205045
 20
2.4279054419
 11
16.9613205045
 21
2.415530435
 72
2
 10
16.963795504
 20
2.4155304332
 40
0.0024749995
 50
179.9999571957
 51
270.0000428043
 73
1
 72
1
 10
16.9637955059
 20
2.4130554337
 11
17.0051585288
 21
2.4130554337
 97
267
330
2AE
330
2AF
330
2B0
330
2B1
330
2B2
330
2B3
330
2B4
330
2B5
330
2B6
330
2B7
330
2B8
330
2B9
330
2BA
330
2BB
330
2BC
330
2BD
330
2BE
330
2BF
330
2C0
330
2C1
330
2C2
330
2C3
330
2C4
330
2C5
330
2C6
330
2C7
330
2C8
330
2C9
330
2CA
330
2CB
330
2CC
330
2CD
330
2CE
330
2CF
330
2D0
330
2D1
330
2D2
330
2D3
330
2D4
330
2D5
330
2D6
330
2D7
330
2D8
330
2D9
330
2DA
330
2DB
330
2DC
330
2DD
330
2DE
330
2DF
330
2E0
330
2E1
330
2E2
330
2E3
330
2E4
330
2E5
330
2E6
330
2E7
330
2E8
330
2E9
330
2EA
330
2EB
330
2EC
330
2ED
330
2EE
330
2EF
330
2F0
330
2F1
330
2F2
330
2F3
330
2F4
330
2F5
330
2F6
330
2F7
330
2F8
330
2F9
330
2FA
330
2FB
330
2FC
330
2FD
330
2FE
330
2FF
330
300
330
301
330
302
330
303
330
304
330
305
330
306
330
307
330
308
330
309
330
30A
330
30B
330
30C
330
30D
330
30E
330
30F
330
310
330
311
330
312
330
313
330
314
330
315
330
316
330
317
330
318
330
319
330
31A
330
31B
330
31C
330
31D
330
31E
330
31F
330
320
330
321
330
322
330
323
330
324
330
325
330
326
330
327
330
328
330
329
330
32A
330
32B
330
32C
330
32D
330
32E
330
32F
330
330
330
331
330
332
330
333
330
334
330
335
330
336
330
337
330
338
330
339
330
33A
330
33B
330
33C
330
33D
330
33E
330
33F
330
340
330
341
330
342
330
343
330
344
330
345
330
346
330
347
330
348
330
349
330
34A
330
34B
330
34C
330
34D
330
34E
330
34F
330
350
330
351
330
352
330
353
330
354
330
355
330
356
330
357
330
358
330
359
330
35A
330
35B
330
35C
330
35D
330
35E
330
35F
330
360
330
361
330
362
330
363
330
364
330
365
330
366
330
367
330
368
330
369
330
36A
330
36B
330
36C
330
36D
330
36E
330
36F
330
370
330
371
330
372
330
373
330
374
330
375
330
376
330
377
330
378
330
379
330
37A
330
37B
330
37C
330
37D
330
37E
330
37F
330
380
330
381
330
382
330
383
330
384
330
385
330
386
330
387
330
388
330
389
330
38A
330
38B
330
38C
330
38D
330
38E
330
38F
330
390
330
391
330
392
330
393
330
394
330
395
330
396
330
397
330
398
330
399
330
39A
330
39B
330
39C
330
39D
330
39E
330
39F
330
3A0
330
3A1
330
3A2
330
3A3
330
3A4
330
3A5
330
3A6
330
3A7
330
3A8
330
3A9
330
3AA
330
3AB
330
3AC
330
3AD
330
3AE
330
3AF
330
3B0
330
3B1
330
3B2
330
3B3
330
3B4
330
3B5
330
3B6
330
3B7
330
3B8
 92
1
 93
8
 72
2
 10
17.2090556207
 20
2.4161446411
 40
0.0024752071
 50
270.0004896793
 51
32.9089806818
 73
1
 72
1
 10
17.211133643
 20
2.4174894361
 11
17.203874639
 21
2.4287054423
 72
2
 10
17.2017960982
 20
2.4273609828
 40
0.0024754602
 50
32.8959418573
 51
89.9875097202
 73
1
 72
1
 10
17.2017966379
 20
2.429836443
 11
17.1956156344
 21
2.429836443
 72
2
 10
17.1956155641
 20
2.4273612427
 40
0.0024752003
 50
89.998372645
 51
147.6021653069
 73
1
 72
1
 10
17.1935256333
 20
2.4286874423
 11
17.1864086293
 21
2.4174704361
 72
2
 10
17.1884985212
 20
2.4161444741
 40
0.0024750401
 50
147.6063258012
 51
270.0025305753
 73
1
 72
1
 10
17.1884986305
 20
2.413669434
 11
17.2090556419
 21
2.413669434
 97
267
330
2AE
330
2AF
330
2B0
330
2B1
330
2B2
330
2B3
330
2B4
330
2B5
330
2B6
330
2B7
330
2B8
330
2B9
330
2BA
330
2BB
330
2BC
330
2BD
330
2BE
330
2BF
330
2C0
330
2C1
330
2C2
330
2C3
330
2C4
330
2C5
330
2C6
330
2C7
330
2C8
330
2C9
330
2CA
330
2CB
330
2CC
330
2CD
330
2CE
330
2CF
330
2D0
330
2D1
330
2D2
330
2D3
330
2D4
330
2D5
330
2D6
330
2D7
330
2D8
330
2D9
330
2DA
330
2DB
330
2DC
330
2DD
330
2DE
330
2DF
330
2E0
330
2E1
330
2E2
330
2E3
330
2E4
330
2E5
330
2E6
330
2E7
330
2E8
330
2E9
330
2EA
330
2EB
330
2EC
330
2ED
330
2EE
330
2EF
330
2F0
330
2F1
330
2F2
330
2F3
330
2F4
330
2F5
330
2F6
330
2F7
330
2F8
330
2F9
330
2FA
330
2FB
330
2FC
330
2FD
330
2FE
330
2FF
330
300
330
301
330
302
330
303
330
304
330
305
330
306
330
307
330
308
330
309
330
30A
330
30B
330
30C
330
30D
330
30E
330
30F
330
310
330
311
330
312
330
313
330
314
330
315
330
316
330
317
330
318
330
319
330
31A
330
31B
330
31C
330
31D
330
31E
330
31F
330
320
330
321
330
322
330
323
330
324
330
325
330
326
330
327
330
328
330
329
330
32A
330
32B
330
32C
330
32D
330
32E
330
32F
330
330
330
331
330
332
330
333
330
334
330
335
330
336
330
337
330
338
330
339
330
33A
330
33B
330
33C
330
33D
330
33E
330
33F
330
340
330
341
330
342
330
343
330
344
330
345
330
346
330
347
330
348
330
349
330
34A
330
34B
330
34C
330
34D
330
34E
330
34F
330
350
330
351
330
352
330
353
330
354
330
355
330
356
330
357
330
358
330
359
330
35A
330
35B
330
35C
330
35D
330
35E
330
35F
330
360
330
361
330
362
330
363
330
364
330
365
330
366
330
367
330
368
330
369
330
36A
330
36B
330
36C
330
36D
330
36E
330
36F
330
370
330
371
330
372
330
373
330
374
330
375
330
376
330
377
330
378
330
379
330
37A
330
37B
330
37C
330
37D
330
37E
330
37F
330
380
330
381
330
382
330
383
330
384
330
385
330
386
330
387
330
388
330
389
330
38A
330
38B
330
38C
330
38D
330
38E
330
38F
330
390
330
391
330
392
330
393
330
394
330
395
330
396
330
397
330
398
330
399
330
39A
330
39B
330
39C
330
39D
330
39E
330
39F
330
3A0
330
3A1
330
3A2
330
3A3
330
3A4
330
3A5
330
3A6
330
3A7
330
3A8
330
3A9
330
3AA
330
3AB
330
3AC
330
3AD
330
3AE
330
3AF
330
3B0
330
3B1
330
3B2
330
3B3
330
3B4
330
3B5
330
3B6
330
3B7
330
3B8
 92
1
 93
1
 72
3
 10
17.573550844
 20
2.4034764283
 11
-0.8250004575
 21
0.0
 40
0.218572
 50
0.0
 51
-0.0
 73
1
 97
267
330
2AE
330
2AF
330
2B0
330
2B1
330
2B2
330
2B3
330
2B4
330
2B5
330
2B6
330
2B7
330
2B8
330
2B9
330
2BA
330
2BB
330
2BC
330
2BD
330
2BE
330
2BF
330
2C0
330
2C1
330
2C2
330
2C3
330
2C4
330
2C5
330
2C6
330
2C7
330
2C8
330
2C9
330
2CA
330
2CB
330
2CC
330
2CD
330
2CE
330
2CF
330
2D0
330
2D1
330
2D2
330
2D3
330
2D4
330
2D5
330
2D6
330
2D7
330
2D8
330
2D9
330
2DA
330
2DB
330
2DC
330
2DD
330
2DE
330
2DF
330
2E0
330
2E1
330
2E2
330
2E3
330
2E4
330
2E5
330
2E6
330
2E7
330
2E8
330
2E9
330
2EA
330
2EB
330
2EC
330
2ED
330
2EE
330
2EF
330
2F0
330
2F1
330
2F2
330
2F3
330
2F4
330
2F5
330
2F6
330
2F7
330
2F8
330
2F9
330
2FA
330
2FB
330
2FC
330
2FD
330
2FE
330
2FF
330
300
330
301
330
302
330
303
330
304
330
305
330
306
330
307
330
308
330
309
330
30A
330
30B
330
30C
330
30D
330
30E
330
30F
330
310
330
311
330
312
330
313
330
314
330
315
330
316
330
317
330
318
330
319
330
31A
330
31B
330
31C
330
31D
330
31E
330
31F
330
320
330
321
330
322
330
323
330
324
330
325
330
326
330
327
330
328
330
329
330
32A
330
32B
330
32C
330
32D
330
32E
330
32F
330
330
330
331
330
332
330
333
330
334
330
335
330
336
330
337
330
338
330
339
330
33A
330
33B
330
33C
330
33D
330
33E
330
33F
330
340
330
341
330
342
330
343
330
344
330
345
330
346
330
347
330
348
330
349
330
34A
330
34B
330
34C
330
34D
330
34E
330
34F
330
350
330
351
330
352
330
353
330
354
330
355
330
356
330
357
330
358
330
359
330
35A
330
35B
330
35C
330
35D
330
35E
330
35F
330
360
330
361
330
362
330
363
330
364
330
365
330
366
330
367
330
368
330
369
330
36A
330
36B
330
36C
330
36D
330
36E
330
36F
330
370
330
371
330
372
330
373
330
374
330
375
330
376
330
377
330
378
330
379
330
37A
330
37B
330
37C
330
37D
330
37E
330
37F
330
380
330
381
330
382
330
383
330
384
330
385
330
386
330
387
330
388
330
389
330
38A
330
38B
330
38C
330
38D
330
38E
330
38F
330
390
330
391
330
392
330
393
330
394
330
395
330
396
330
397
330
398
330
399
330
39A
330
39B
330
39C
330
39D
330
39E
330
39F
330
3A0
330
3A1
330
3A2
330
3A3
330
3A4
330
3A5
330
3A6
330
3A7
330
3A8
330
3A9
330
3AA
330
3AB
330
3AC
330
3AD
330
3AE
330
3AF
330
3B0
330
3B1
330
3B2
330
3B3
330
3B4
330
3B5
330
3B6
330
3B7
330
3B8
 75
0
 76
1
 98
1
 10
0.0
 20
0.0
  0
LINE
  5
3BA
100
AcDbEntity
  8
0
100
AcDbLine
 62
7
  6
CONTINUOUS
 10
21.05
 20
2.67
 11
14.7
 21
2.67
  0
LINE
  5
3BB
100
AcDbEntity
  8
0
100
AcDbLine
 62
7
  6
CONTINUOUS
 10
6.007
 20
0.75
 11
6.007
 21
0.5
  0
LINE
  5
3BC
100
AcDbEntity
  8
0
100
AcDbLine
 62
7
  6
CONTINUOUS
 10
6.007
 20
15.75
 11
6.007
 21
16.0
  0
LINE
  5
3BD
100
AcDbEntity
  8
0
100
AcDbLine
 62
7
  6
CONTINUOUS
 10
0.814
 20
8.163397
 11
0.964
 21
8.25
  0
LINE
  5
3BE
100
AcDbEntity
  8
0
100
AcDbLine
 62
7
  6
CONTINUOUS
 10
0.964
 20
8.25
 11
0.814
 21
8.336603
  0
LINE
  5
3BF
100
AcDbEntity
  8
0
100
AcDbLine
 62
7
  6
CONTINUOUS
 10
0.964
 20
4.4
 11
0.714
 21
4.4
  0
LINE
  5
3C0
100
AcDbEntity
  8
0
100
AcDbLine
 62
7
  6
CONTINUOUS
 10
21.05
 20
4.4
 11
21.3
 21
4.4
  0
LINE
  5
3C1
100
AcDbEntity
  8
0
100
AcDbLine
 62
7
  6
CONTINUOUS
 10
11.093603
 20
0.6
 11
11.007
 21
0.75
  0
LINE
  5
3C2
100
AcDbEntity
  8
0
100
AcDbLine
 62
7
  6
CONTINUOUS
 10
11.007
 20
15.75
 11
11.093603
 21
15.9
  0
LINE
  5
3C3
100
AcDbEntity
  8
0
100
AcDbLine
 62
7
  6
CONTINUOUS
 10
8.507
 20
0.75
 11
8.507
 21
0.5
  0
LINE
  5
3C4
100
AcDbEntity
  8
0
100
AcDbLine
 62
7
  6
CONTINUOUS
 10
8.507
 20
15.75
 11
8.507
 21
16.0
  0
LINE
  5
3C5
100
AcDbEntity
  8
0
100
AcDbLine
 62
7
  6
CONTINUOUS
 10
11.007
 20
0.75
 11
11.007
 21
0.5
  0
LINE
  5
3C6
100
AcDbEntity
  8
0
100
AcDbLine
 62
7
  6
CONTINUOUS
 10
11.007
 20
15.75
 11
11.007
 21
16.0
  0
LINE
  5
3C7
100
AcDbEntity
  8
0
100
AcDbLine
 62
7
  6
CONTINUOUS
 10
0.964
 20
8.25
 11
0.714
 21
8.25
  0
LINE
  5
3C8
100
AcDbEntity
  8
0
100
AcDbLine
 62
7
  6
CONTINUOUS
 10
21.05
 20
8.25
 11
21.3
 21
8.25
  0
LINE
  5
3C9
100
AcDbEntity
  8
0
100
AcDbLine
 62
7
  6
CONTINUOUS
 10
13.507
 20
0.75
 11
13.507
 21
0.5
  0
LINE
  5
3CA
100
AcDbEntity
  8
0
100
AcDbLine
 62
7
  6
CONTINUOUS
 10
13.507
 20
15.75
 11
13.507
 21
16.0
  0
LINE
  5
3CB
100
AcDbEntity
  8
0
100
AcDbLine
 62
7
  6
CONTINUOUS
 10
14.7
 20
2.67
 11
14.7
 21
0.75
  0
LINE
  5
3CC
100
AcDbEntity
  8
0
100
AcDbLine
 62
7
  6
CONTINUOUS
 10
11.007
 20
0.75
 11
10.920397
 21
0.6
  0
LINE
  5
3CD
100
AcDbEntity
  8
0
100
AcDbLine
 62
7
  6
CONTINUOUS
 10
0.964
 20
12.1
 11
0.714
 21
12.1
  0
LINE
  5
3CE
100
AcDbEntity
  8
0
100
AcDbLine
 62
7
  6
CONTINUOUS
 10
21.05
 20
12.1
 11
21.3
 21
12.1
  0
LINE
  5
3CF
100
AcDbEntity
  8
0
100
AcDbLine
 62
7
  6
CONTINUOUS
 10
10.920397
 20
15.9
 11
11.007
 21
15.75
  0
LINE
  5
3D0
100
AcDbEntity
  8
0
100
AcDbLine
 62
7
  6
CONTINUOUS
 10
15.2229827477
 20
1.0139932523
 11
15.2229827477
 21
0.7919022523
  0
LINE
  5
3D1
100
AcDbEntity
  8
0
100
AcDbLine
 62
7
  6
CONTINUOUS
 10
15.2229827477
 20
1.0639932523
 11
15.2229827477
 21
1.1639932523
  0
LINE
  5
3D2
100
AcDbEntity
  8
0
100
AcDbLine
 62
7
  6
CONTINUOUS
 10
15.2229827477
 20
1.2139932523
 11
15.2229827477
 21
1.4360842523
  0
LINE
  5
3D3
100
AcDbEntity
  8
0
100
AcDbLine
 62
7
  6
CONTINUOUS
 10
15.8276527477
 20
0.9312952523
 11
15.8276527477
 21
1.2966912523
  0
LINE
  5
3D4
100
AcDbEntity
  8
0
100
AcDbLine
 62
7
  6
CONTINUOUS
 10
16.007
 20
0.75
 11
16.007
 21
0.5
  0
LINE
  5
3D5
100
AcDbEntity
  8
0
100
AcDbLine
 62
7
  6
CONTINUOUS
 10
16.007
 20
15.75
 11
16.007
 21
16.0
  0
LINE
  5
3D6
100
AcDbEntity
  8
0
100
AcDbLine
 62
7
  6
CONTINUOUS
 10
16.4340437477
 20
1.3660842523
 11
16.4340437477
 21
0.8619022523
  0
LINE
  5
3D7
100
AcDbEntity
  8
0
100
AcDbLine
 62
7
  6
CONTINUOUS
 10
21.2
 20
8.336603
 11
21.05
 21
8.25
  0
LINE
  5
3D8
100
AcDbEntity
  8
0
100
AcDbLine
 62
7
  6
CONTINUOUS
 10
21.05
 20
8.25
 11
21.2
 21
8.163397
  0
LINE
  5
3D9
100
AcDbEntity
  8
0
100
AcDbLine
 62
7
  6
CONTINUOUS
 10
16.7
 20
2.67
 11
16.7
 21
0.75
  0
LINE
  5
3DA
100
AcDbEntity
  8
0
100
AcDbLine
 62
7
  6
CONTINUOUS
 10
17.5
 20
1.37
 11
17.5
 21
1.0
  0
LINE
  5
3DB
100
AcDbEntity
  8
0
100
AcDbLine
 62
7
  6
CONTINUOUS
 10
18.507
 20
0.75
 11
18.507
 21
0.5
  0
LINE
  5
3DC
100
AcDbEntity
  8
0
100
AcDbLine
 62
7
  6
CONTINUOUS
 10
18.507
 20
15.75
 11
18.507
 21
16.0
  0
LINE
  5
3DD
100
AcDbEntity
  8
0
100
AcDbLine
 62
7
  6
CONTINUOUS
 10
21.05
 20
15.75
 11
0.964
 21
15.75
  0
LINE
  5
3DE
100
AcDbEntity
  8
0
100
AcDbLine
 62
7
  6
CONTINUOUS
 10
11.093603
 20
15.9
 11
10.920397
 21
15.9
  0
LINE
  5
3DF
100
AcDbEntity
  8
0
100
AcDbLine
 62
7
  6
CONTINUOUS
 10
18.875
 20
1.0
 11
18.875
 21
0.75
  0
LINE
  5
3E0
100
AcDbEntity
  8
0
100
AcDbLine
 62
7
  6
CONTINUOUS
 10
20.25
 20
1.37
 11
20.25
 21
1.0
  0
LINE
  5
3E1
100
AcDbEntity
  8
0
100
AcDbLine
 62
7
  6
CONTINUOUS
 10
21.05
 20
0.75
 11
21.05
 21
15.75
  0
LINE
  5
3E2
100
AcDbEntity
  8
0
100
AcDbLine
 62
7
  6
CONTINUOUS
 10
21.2
 20
8.163397
 11
21.2
 21
8.336603
  0
LINE
  5
3E3
100
AcDbEntity
  8
0
100
AcDbLine
 62
7
  6
CONTINUOUS
 10
7.4315151527
 20
7.5843251791
 11
7.8389954677
 21
7.5843251791
  0
LINE
  5
3E4
100
AcDbEntity
  8
0
100
AcDbLine
 62
7
  6
CONTINUOUS
 10
7.4264167275
 20
7.6236952578
 11
7.8440938929
 21
7.6236952578
  0
LWPOLYLINE
  5
3E5
100
AcDbEntity
  8
0
100
AcDbPolyline
 62
7
  6
CONTINUOUS
 90
10
 70
0
 10
7.879286224
 20
7.6824721649
 10
7.8765195946
 20
7.6817661273
 10
7.8675710873
 20
7.6807818412
 10
7.8529018322
 20
7.679797557
 10
7.8328738925
 20
7.6788133097
 10
7.8079802422
 20
7.6778290722
 10
7.7788332875
 20
7.676844823
 10
7.7461517086
 20
7.6758605945
 10
7.7107397685
 20
7.6748763701
 10
7.6734683059
 20
7.6738921209
  0
LWPOLYLINE
  5
3E6
100
AcDbEntity
  8
0
100
AcDbPolyline
 62
7
  6
CONTINUOUS
 90
10
 70
0
 10
7.3912243963
 20
7.6672805555
 10
7.3939907774
 20
7.6679865523
 10
7.402939013
 20
7.668970836
 10
7.4176080013
 20
7.6699551189
 10
7.4376356971
 20
7.6709393656
 10
7.4625291372
 20
7.6719236032
 10
7.491675942
 20
7.6729078533
 10
7.5243574048
 20
7.6738920824
 10
7.5597692172
 20
7.6748763062
 10
7.5970405968
 20
7.6758605548
  0
LWPOLYLINE
  5
3E7
100
AcDbEntity
  8
0
100
AcDbPolyline
 62
7
  6
CONTINUOUS
 90
7
 70
0
 10
7.4219447978
 20
7.7244070761
 10
7.4269759772
 20
7.7254886033
 10
7.4375571073
 20
7.7265210103
 10
7.4534931091
 20
7.7275534173
 10
7.4743523386
 20
7.7285858243
 10
7.4995698008
 20
7.7296182314
 10
7.5284624532
 20
7.7306506384
  0
LINE
  5
3E8
100
AcDbEntity
  8
0
100
AcDbLine
 62
7
  6
CONTINUOUS
 10
7.4131188604
 20
7.6397874223
 11
7.4110213127
 21
7.6393525001
  0
LWPOLYLINE
  5
3E9
100
AcDbEntity
  8
0
100
AcDbPolyline
 62
7
  6
CONTINUOUS
 90
10
 70
0
 10
7.8720391072
 20
7.651640421
 10
7.8685591852
 20
7.651021463
 10
7.8593020401
 20
7.6503944573
 10
7.8445304001
 20
7.649767264
 10
7.8248968788
 20
7.6491472426
 10
7.8008493024
 20
7.6485291931
 10
7.772789804
 20
7.6479080833
 10
7.7417333237
 20
7.6472908277
 10
7.7083079925
 20
7.6466740567
 10
7.6730081423
 20
7.646052109
  0
LWPOLYLINE
  5
3EA
100
AcDbEntity
  8
0
100
AcDbPolyline
 62
7
  6
CONTINUOUS
 90
3
 70
0
 10
7.5284624532
 20
7.7306506384
 10
7.5604560166
 20
7.731689571
 10
7.5945012347
 20
7.7327285037
  0
LWPOLYLINE
  5
3EB
100
AcDbEntity
  8
0
100
AcDbPolyline
 62
7
  6
CONTINUOUS
 90
8
 70
0
 10
7.5131194834
 20
7.712934103
 10
7.4831142077
 20
7.7120019608
 10
7.4563561171
 20
7.7110655416
 10
7.4337126898
 20
7.7101348714
 10
7.4153978186
 20
7.709197766
 10
7.4018819939
 20
7.7082511908
 10
7.3936891736
 20
7.7073058745
 10
7.3912243963
 20
7.7066506342
  0
LWPOLYLINE
  5
3EC
100
AcDbEntity
  8
0
100
AcDbPolyline
 62
7
  6
CONTINUOUS
 90
10
 70
0
 10
7.6734311652
 20
7.6563173327
 10
7.7073824169
 20
7.6573497397
 10
7.7393800271
 20
7.6583821467
 10
7.7685573057
 20
7.6594145538
 10
7.7941239541
 20
7.6604469608
 10
7.8153874719
 20
7.6614793678
 10
7.8317719133
 20
7.6625117748
 10
7.842833488
 20
7.6635441819
 10
7.848272581
 20
7.6645765889
 10
7.8485658226
 20
7.6647157231
  0
LWPOLYLINE
  5
3ED
100
AcDbEntity
  8
0
100
AcDbPolyline
 62
7
  6
CONTINUOUS
 90
10
 70
0
 10
7.6723440802
 20
7.8137652491
 10
7.7065516866
 20
7.8148041817
 10
7.7388037191
 20
7.8158431143
 10
7.7682155434
 20
7.816882047
 10
7.7939804284
 20
7.8179209796
 10
7.8153916744
 20
7.8189599122
 10
7.8318619966
 20
7.8199988449
 10
7.8429396339
 20
7.8210377775
 10
7.8483207402
 20
7.8220767101
 10
7.8485658226
 20
7.822196038
  0
LWPOLYLINE
  5
3EE
100
AcDbEntity
  8
0
100
AcDbPolyline
 62
7
  6
CONTINUOUS
 90
11
 70
0
 10
7.5987104563
 20
7.6934839855
 10
7.6687734596
 20
7.6955487996
 10
7.7029178623
 20
7.6965812066
 10
7.7352295509
 20
7.6976136136
 10
7.7648333281
 20
7.6986460207
 10
7.7909273431
 20
7.6996784277
 10
7.8128048111
 20
7.7007108347
 10
7.829873157
 20
7.7017432417
 10
7.841670066
 20
7.7027756488
 10
7.8478760059
 20
7.7038080558
 10
7.8485658226
 20
7.7040858018
  0
LWPOLYLINE
  5
3EF
100
AcDbEntity
  8
0
100
AcDbPolyline
 62
7
  6
CONTINUOUS
 90
11
 70
0
 10
7.5945012347
 20
7.7327285037
 10
7.6649806963
 20
7.7348063689
 10
7.6994817731
 20
7.7358453016
 10
7.7322211952
 20
7.7368842342
 10
7.7623009598
 20
7.7379231668
 10
7.7888960151
 20
7.7389620995
 10
7.8112768906
 20
7.7400010321
 10
7.828829706
 20
7.7410399647
 10
7.8410730086
 20
7.7420788974
 10
7.8476709793
 20
7.74311783
 10
7.8485658226
 20
7.7434558805
  0
LWPOLYLINE
  5
3F0
100
AcDbEntity
  8
0
100
AcDbPolyline
 62
7
  6
CONTINUOUS
 90
11
 70
0
 10
7.5981665402
 20
7.7722079437
 10
7.6686674771
 20
7.774285809
 10
7.7030270518
 20
7.7753247416
 10
7.7355277291
 20
7.7763636743
 10
7.7652780547
 20
7.7774026069
 10
7.7914620128
 20
7.7784415395
 10
7.8133614089
 20
7.7794804722
 10
7.8303755691
 20
7.7805194048
 10
7.8420378153
 20
7.7815583374
 10
7.8480282661
 20
7.7825972701
 10
7.8485658226
 20
7.7828259593
  0
LWPOLYLINE
  5
3F1
100
AcDbEntity
  8
0
100
AcDbPolyline
 62
7
  6
CONTINUOUS
 90
3
 70
0
 10
7.5131194834
 20
7.7483671738
 10
7.548293501
 20
7.7493672809
 10
7.5858092384
 20
7.7503708205
  0
LWPOLYLINE
  5
3F2
100
AcDbEntity
  8
0
100
AcDbPolyline
 62
7
  6
CONTINUOUS
 90
3
 70
0
 10
7.757391137
 20
7.837606019
 10
7.7222096776
 20
7.8366057076
 10
7.6846905224
 20
7.8356020878
  0
LWPOLYLINE
  5
3F3
100
AcDbEntity
  8
0
100
AcDbPolyline
 62
7
  6
CONTINUOUS
 90
3
 70
0
 10
7.5858092384
 20
7.7149377497
 10
7.548293501
 20
7.7139342101
 10
7.5131194834
 20
7.712934103
  0
LWPOLYLINE
  5
3F4
100
AcDbEntity
  8
0
100
AcDbPolyline
 62
7
  6
CONTINUOUS
 90
11
 70
0
 10
7.6734683059
 20
7.6738921209
 10
7.5970406049
 20
7.6719235471
 10
7.559769211
 20
7.6709392982
 10
7.5243573769
 20
7.6699550738
 10
7.4916759357
 20
7.6689708452
 10
7.4625291541
 20
7.6679865959
 10
7.4376357101
 20
7.6670023583
 10
7.4176080007
 20
7.666018111
 10
7.4029389967
 20
7.6650338267
 10
7.3939907555
 20
7.6640495409
 10
7.3909836566
 20
7.6630653366
  0
LWPOLYLINE
  5
3F5
100
AcDbEntity
  8
0
100
AcDbPolyline
 62
7
  6
CONTINUOUS
 90
11
 70
0
 10
7.5970405968
 20
7.6758605548
 10
7.6734682723
 20
7.6778291279
 10
7.7107397262
 20
7.6788133768
 10
7.7461516689
 20
7.6797976013
 10
7.7788332165
 20
7.6807818286
 10
7.80798014
 20
7.6817660763
 10
7.8328737935
 20
7.6827503133
 10
7.8529017547
 20
7.6837345605
 10
7.8675710422
 20
7.6847188453
 10
7.8765195809
 20
7.6857031329
 10
7.8795269637
 20
7.6866873838
  0
LWPOLYLINE
  5
3F6
100
AcDbEntity
  8
0
100
AcDbPolyline
 62
7
  6
CONTINUOUS
 90
11
 70
0
 10
7.5965820244
 20
7.7112817141
 10
7.6738291874
 20
7.7132715734
 10
7.7110279578
 20
7.7142542233
 10
7.7460879971
 20
7.7152288392
 10
7.778500126
 20
7.7162043446
 10
7.807634593
 20
7.7171866245
 10
7.8324571632
 20
7.7181652384
 10
7.852540895
 20
7.719147307
 10
7.8674498044
 20
7.7201418772
 10
7.8765251173
 20
7.721137112
 10
7.879286224
 20
7.7218422436
  0
LWPOLYLINE
  5
3F7
100
AcDbEntity
  8
0
100
AcDbPolyline
 62
7
  6
CONTINUOUS
 90
11
 70
0
 10
7.5858092384
 20
7.7503708205
 10
7.6649436468
 20
7.7524114526
 10
7.7035545065
 20
7.7534236632
 10
7.7399487398
 20
7.7544234273
 10
7.7737103296
 20
7.7554240314
 10
7.8041653497
 20
7.7564323234
 10
7.8301931884
 20
7.7574379394
 10
7.8512170986
 20
7.7584438997
 10
7.8668520413
 20
7.7594631608
 10
7.8763770603
 20
7.7604831813
 10
7.879286224
 20
7.7612123223
  0
LWPOLYLINE
  5
3F8
100
AcDbEntity
  8
0
100
AcDbPolyline
 62
7
  6
CONTINUOUS
 90
11
 70
0
 10
7.6738842124
 20
7.7565800894
 10
7.596636937
 20
7.7545902273
 10
7.5594422259
 20
7.7536076422
 10
7.5243891305
 20
7.7526331532
 10
7.4919714603
 20
7.7516573757
 10
7.4628320759
 20
7.7506747407
 10
7.4380144681
 20
7.7496960231
 10
7.4179401974
 20
7.7487139913
 10
7.4030441168
 20
7.7477196996
 10
7.3939805696
 20
7.7467250345
 10
7.3912243963
 20
7.746020713
  0
LWPOLYLINE
  5
3F9
100
AcDbEntity
  8
0
100
AcDbPolyline
 62
7
  6
CONTINUOUS
 90
11
 70
0
 10
7.596636937
 20
7.7900232982
 10
7.6738842124
 20
7.7920131603
 10
7.7110800227
 20
7.7929957857
 10
7.7461317895
 20
7.7939702573
 10
7.7785505095
 20
7.7949460978
 10
7.8076910136
 20
7.7959288249
 10
7.8325073409
 20
7.7969075775
 10
7.852578095
 20
7.7978895538
 10
7.8674701775
 20
7.7988837182
 10
7.876531048
 20
7.7998782434
 10
7.879286224
 20
7.8005824011
  0
LWPOLYLINE
  5
3FA
100
AcDbEntity
  8
0
100
AcDbPolyline
 62
7
  6
CONTINUOUS
 90
11
 70
0
 10
7.6738361539
 20
7.7959489197
 10
7.5965890908
 20
7.7939590631
 10
7.5593971052
 20
7.7929765033
 10
7.5243512677
 20
7.792002142
 10
7.4919269498
 20
7.7910260446
 10
7.4627826829
 20
7.7900430305
 10
7.4379707412
 20
7.7890642001
 10
7.4179078951
 20
7.788082255
 10
7.4030265348
 20
7.7870883245
 10
7.3939755432
 20
7.7860942873
 10
7.3912243963
 20
7.7853907917
  0
LWPOLYLINE
  5
3FB
100
AcDbEntity
  8
0
100
AcDbPolyline
 62
7
  6
CONTINUOUS
 90
11
 70
0
 10
7.5965890908
 20
7.8293921339
 10
7.6738361539
 20
7.8313819905
 10
7.7110344958
 20
7.8323646359
 10
7.7460933592
 20
7.8333392298
 10
7.7785063463
 20
7.8343147778
 10
7.8076417556
 20
7.83529712
 10
7.8324635589
 20
7.8362757526
 10
7.8525456214
 20
7.8372578086
 10
7.8674523928
 20
7.8382523272
 10
7.8765258769
 20
7.8392474729
 10
7.879286224
 20
7.8399524798
  0
LWPOLYLINE
  5
3FC
100
AcDbEntity
  8
0
100
AcDbPolyline
 62
7
  6
CONTINUOUS
 90
11
 70
0
 10
7.6846905224
 20
7.8356020878
 10
7.6055521527
 20
7.8335613572
 10
7.566938488
 20
7.8325490587
 10
7.5305480038
 20
7.8315493715
 10
7.4967803154
 20
7.8305485394
 10
7.4663173822
 20
7.829539879
 10
7.4402885739
 20
7.8285340249
 10
7.419271954
 20
7.8275281089
 10
7.4036459271
 20
7.826509011
 10
7.3941298813
 20
7.8254894218
 10
7.3912243963
 20
7.8247608704
  0
LWPOLYLINE
  5
3FD
100
AcDbEntity
  8
0
100
AcDbPolyline
 62
7
  6
CONTINUOUS
 90
10
 70
0
 10
7.6730081423
 20
7.646052109
 10
7.6000917281
 20
7.6447906182
 10
7.5651728803
 20
7.6441667009
 10
7.5324267177
 20
7.6435479173
 10
7.5022857464
 20
7.642927912
 10
7.4753383852
 20
7.6423030226
 10
7.4525435696
 20
7.641680081
 10
7.4342936191
 20
7.6410549892
 10
7.4209590517
 20
7.6404215595
 10
7.4131188604
 20
7.6397874223
  0
LINE
  5
3FE
100
AcDbEntity
  8
0
100
AcDbLine
 62
7
  6
CONTINUOUS
 10
7.8488410242
 20
7.9799944704
 11
7.8514682506
 21
7.9807022105
  0
LINE
  5
3FF
100
AcDbEntity
  8
0
100
AcDbLine
 62
7
  6
CONTINUOUS
 10
7.8765247566
 20
7.996727604
 11
7.879286224
 21
7.9974327948
  0
LWPOLYLINE
  5
400
100
AcDbEntity
  8
0
100
AcDbPolyline
 62
7
  6
CONTINUOUS
 90
7
 70
0
 10
7.7420481672
 20
7.8553225544
 10
7.7711125311
 20
7.856361487
 10
7.7964504948
 20
7.8574004197
 10
7.8173670685
 20
7.8584393523
 10
7.8332885358
 20
7.8594782849
 10
7.84377819
 20
7.8605172176
 10
7.8485658226
 20
7.8615661168
  0
LWPOLYLINE
  5
401
100
AcDbEntity
  8
0
100
AcDbPolyline
 62
7
  6
CONTINUOUS
 90
8
 70
0
 10
7.757391137
 20
7.8730390898
 10
7.7873843373
 20
7.8739708361
 10
7.8141355962
 20
7.874906939
 10
7.8367753796
 20
7.8758372977
 10
7.8550964775
 20
7.8767744661
 10
7.8686190374
 20
7.8777211694
 10
7.876818676
 20
7.8786668396
 10
7.879286224
 20
7.8793225586
  0
LWPOLYLINE
  5
402
100
AcDbEntity
  8
0
100
AcDbPolyline
 62
7
  6
CONTINUOUS
 90
3
 70
0
 10
7.6760093857
 20
7.8532446891
 10
7.7100546038
 20
7.8542836218
 10
7.7420481672
 20
7.8553225544
  0
LWPOLYLINE
  5
403
100
AcDbEntity
  8
0
100
AcDbPolyline
 62
7
  6
CONTINUOUS
 90
9
 70
0
 10
7.6796622771
 20
7.8927241292
 10
7.7135347364
 20
7.8937630618
 10
7.7452600852
 20
7.8948019945
 10
7.7739681353
 20
7.8958409271
 10
7.7988714596
 20
7.8968798597
 10
7.8192869897
 20
7.8979187924
 10
7.8346547522
 20
7.898957725
 10
7.8445532279
 20
7.8999966576
 10
7.8485658226
 20
7.9009361955
  0
LWPOLYLINE
  5
404
100
AcDbEntity
  8
0
100
AcDbPolyline
 62
7
  6
CONTINUOUS
 90
3
 70
0
 10
7.6846905224
 20
7.8710351587
 10
7.7222096776
 20
7.8720387785
 10
7.757391137
 20
7.8730390898
  0
LWPOLYLINE
  5
405
100
AcDbEntity
  8
0
100
AcDbPolyline
 62
7
  6
CONTINUOUS
 90
11
 70
0
 10
7.6738921928
 20
7.8746905329
 10
7.5966449418
 20
7.8727006715
 10
7.5594498028
 20
7.8717180828
 10
7.5243955238
 20
7.8707435735
 10
7.4919788467
 20
7.8697678459
 10
7.4628403026
 20
7.8687852748
 10
7.4380217714
 20
7.8678065769
 10
7.4179456087
 20
7.8668245315
 10
7.403047076
 20
7.8658301804
 10
7.393981427
 20
7.8648354115
 10
7.3912243963
 20
7.8641309492
  0
LWPOLYLINE
  5
406
100
AcDbEntity
  8
0
100
AcDbPolyline
 62
7
  6
CONTINUOUS
 90
11
 70
0
 10
7.5966449418
 20
7.9081337423
 10
7.6738921928
 20
7.9101236038
 10
7.7110875547
 20
7.9111062251
 10
7.7461381124
 20
7.9120806756
 10
7.7785579026
 20
7.9130565682
 10
7.8076992295
 20
7.9140393587
 10
7.832514623
 20
7.9150181304
 10
7.8525834802
 20
7.9160000925
 10
7.867473113
 20
7.9169941971
 10
7.8765318904
 20
7.917988618
 10
7.879286224
 20
7.9186926373
  0
LWPOLYLINE
  5
407
100
AcDbEntity
  8
0
100
AcDbPolyline
 62
7
  6
CONTINUOUS
 90
11
 70
0
 10
7.6738441847
 20
7.9140593645
 10
7.5965970434
 20
7.9120695059
 10
7.5594045847
 20
7.9110869414
 10
7.5243575191
 20
7.9101125582
 10
7.4919343911
 20
7.9091365165
 10
7.462790919
 20
7.908153565
 10
7.4379780179
 20
7.9071747529
 10
7.4179132591
 20
7.9061927927
 10
7.4030294445
 20
7.9051988014
 10
7.3939763669
 20
7.9042046589
 10
7.3912243963
 20
7.9035010279
  0
LWPOLYLINE
  5
408
100
AcDbEntity
  8
0
100
AcDbPolyline
 62
7
  6
CONTINUOUS
 90
11
 70
0
 10
7.5965970434
 20
7.9475025768
 10
7.6738441847
 20
7.9494924354
 10
7.7110421235
 20
7.950475078
 10
7.746099823
 20
7.9514496521
 10
7.7785136836
 20
7.9524252464
 10
7.8076499608
 20
7.9534076533
 10
7.8324708665
 20
7.9543863065
 10
7.8525510531
 20
7.9553683498
 10
7.8674553773
 20
7.95636281
 10
7.8765267527
 20
7.9573578529
 10
7.879286224
 20
7.958062716
  0
LWPOLYLINE
  5
409
100
AcDbEntity
  8
0
100
AcDbPolyline
 62
7
  6
CONTINUOUS
 90
11
 70
0
 10
7.6738250162
 20
7.9534289453
 10
7.5965732969
 20
7.9514389677
 10
7.5593799713
 20
7.9504563559
 10
7.5243368095
 20
7.9494820407
 10
7.4919025154
 20
7.9485055855
 10
7.4627509029
 20
7.9475221941
 10
7.4379406316
 20
7.9465432051
 10
7.4178848598
 20
7.945561275
 10
7.4030137801
 20
7.9445675842
 10
7.3939719257
 20
7.9435740073
 10
7.3912243963
 20
7.9428711067
  0
LWPOLYLINE
  5
40A
100
AcDbEntity
  8
0
100
AcDbPolyline
 62
7
  6
CONTINUOUS
 90
10
 70
0
 10
7.5965732969
 20
7.9868720386
 10
7.6738250162
 20
7.9888620162
 10
7.7110261539
 20
7.9898447258
 10
7.7460912615
 20
7.9908194843
 10
7.7784998825
 20
7.9917948881
 10
7.8076290292
 20
7.9927769742
 10
7.8324518516
 20
7.9937555587
 10
7.8525377337
 20
7.9947376807
 10
7.8674483627
 20
7.9957323093
 10
7.8765247566
 20
7.996727604
  0
LINE
  5
40B
100
AcDbEntity
  8
0
100
AcDbLine
 62
7
  6
CONTINUOUS
 10
7.8795269637
 20
8.0051797244
 11
7.3909836566
 21
8.0051797244
  0
LINE
  5
40C
100
AcDbEntity
  8
0
100
AcDbLine
 62
7
  6
CONTINUOUS
 10
7.8820273199
 20
8.0293537504
 11
7.3884833005
 21
8.0293537504
  0
LINE
  5
40D
100
AcDbEntity
  8
0
100
AcDbLine
 62
7
  6
CONTINUOUS
 10
7.3912243963
 20
7.6627871255
 11
7.4213944833
 21
7.6453488013
  0
LINE
  5
40E
100
AcDbEntity
  8
0
100
AcDbLine
 62
7
  6
CONTINUOUS
 10
7.3912243963
 20
7.7021572042
 11
7.4213944833
 21
7.68471888
  0
LINE
  5
40F
100
AcDbEntity
  8
0
100
AcDbLine
 62
7
  6
CONTINUOUS
 10
7.3912243963
 20
7.741527283
 11
7.4213944833
 21
7.7240889587
  0
LINE
  5
410
100
AcDbEntity
  8
0
100
AcDbLine
 62
7
  6
CONTINUOUS
 10
7.3912243963
 20
7.7808973617
 11
7.4213944833
 21
7.7634590375
  0
LWPOLYLINE
  5
411
100
AcDbEntity
  8
0
100
AcDbPolyline
 62
7
  6
CONTINUOUS
 90
20
 70
0
 10
7.4219447978
 20
7.9606275485
 10
7.4242991907
 20
7.961293683
 10
7.4327069252
 20
7.9623326156
 10
7.4466703181
 20
7.9633715483
 10
7.4658063705
 20
7.9644104809
 10
7.4895902035
 20
7.9654494135
 10
7.5173694551
 20
7.9664883462
 10
7.5483821739
 20
7.9675272788
 10
7.5817777182
 20
7.9685662114
 10
7.6166400886
 20
7.9696051441
 10
7.6520130522
 20
7.9706440767
 10
7.686926371
 20
7.9716830093
 10
7.7204224148
 20
7.972721942
 10
7.7515824274
 20
7.9737608746
 10
7.7795517271
 20
7.9747998072
 10
7.8035631497
 20
7.9758387399
 10
7.8229580907
 20
7.9768776725
 10
7.8372045703
 20
7.9779166051
 10
7.8459118246
 20
7.9789555378
 10
7.8485658226
 20
7.979676353
  0
LWPOLYLINE
  5
412
100
AcDbEntity
  8
0
100
AcDbPolyline
 62
7
  6
CONTINUOUS
 90
4
 70
0
 10
7.8612392192
 20
8.2088930836
 10
7.8202631629
 20
8.1998799891
 10
7.7794826511
 20
8.1923860763
 10
7.7389526896
 20
8.1864977615
  0
LWPOLYLINE
  5
413
100
AcDbEntity
  8
0
100
AcDbPolyline
 62
7
  6
CONTINUOUS
 90
4
 70
0
 10
7.7181898552
 20
8.1250565848
 10
7.7655779847
 20
8.1311309963
 10
7.8131527665
 20
8.1394092248
 10
7.8612392192
 20
8.1498379654
  0
LWPOLYLINE
  5
414
100
AcDbEntity
  8
0
100
AcDbPolyline
 62
7
  6
CONTINUOUS
 90
4
 70
0
 10
7.7181898552
 20
8.1250565848
 10
7.7336843986
 20
8.1264510003
 10
7.7490986312
 20
8.1273949875
 10
7.7642646024
 20
8.1278842674
  0
LWPOLYLINE
  5
415
100
AcDbEntity
  8
0
100
AcDbPolyline
 62
7
  6
CONTINUOUS
 90
7
 70
0
 10
7.993383969
 20
8.1323111671
 10
8.0544905754
 20
8.1337868308
 10
8.1052845572
 20
8.1352625067
 10
8.1445166468
 20
8.1367382186
 10
8.1712206772
 20
8.1382139565
 10
8.1847388342
 20
8.1396896847
 10
8.1861961599
 20
8.1401500206
  0
LWPOLYLINE
  5
416
100
AcDbEntity
  8
0
100
AcDbPolyline
 62
7
  6
CONTINUOUS
 90
7
 70
0
 10
7.2900292896
 20
8.1676970309
 10
7.2250500438
 20
8.1661693966
 10
7.1708834464
 20
8.1646417652
 10
7.1289563951
 20
8.163114102
 10
7.1003748711
 20
8.1615864067
 10
7.0858933633
 20
8.1600587189
 10
7.0843144605
 20
8.1595724039
  0
LWPOLYLINE
  5
417
100
AcDbEntity
  8
0
100
AcDbPolyline
 62
7
  6
CONTINUOUS
 90
4
 70
0
 10
7.7642646024
 20
8.1278842674
 10
7.8464626027
 20
8.1293598645
 10
7.9234675454
 20
8.1308355031
 10
7.993383969
 20
8.1323111671
  0
LWPOLYLINE
  5
418
100
AcDbEntity
  8
0
100
AcDbPolyline
 62
7
  6
CONTINUOUS
 90
9
 70
0
 10
7.8612392192
 20
8.1498379654
 10
7.9429570467
 20
8.1513108813
 10
8.0171336564
 20
8.1527837971
 10
8.0819511126
 20
8.154256713
 10
8.1358208555
 20
8.1557296288
 10
8.1774226345
 20
8.1572025447
 10
8.2057368645
 20
8.1586754605
 10
8.2200696145
 20
8.1601483764
 10
8.2216437254
 20
8.1606240677
  0
LWPOLYLINE
  5
419
100
AcDbEntity
  8
0
100
AcDbPolyline
 62
7
  6
CONTINUOUS
 90
9
 70
0
 10
7.8612392192
 20
8.1573182804
 10
7.9429570467
 20
8.1587911962
 10
8.0171336564
 20
8.1602641121
 10
8.0819511126
 20
8.1617370279
 10
8.1358208555
 20
8.1632099438
 10
8.1774226345
 20
8.1646828596
 10
8.2057368645
 20
8.1661557755
 10
8.2200696145
 20
8.1676286913
 10
8.2218694834
 20
8.1683651492
  0
LWPOLYLINE
  5
41A
100
AcDbEntity
  8
0
100
AcDbPolyline
 62
7
  6
CONTINUOUS
 90
9
 70
0
 10
7.8612392192
 20
8.2088930836
 10
7.9429570467
 20
8.2103659994
 10
8.0171336564
 20
8.2118389152
 10
8.0819511126
 20
8.2133118311
 10
8.1358208555
 20
8.2147847469
 10
8.1774226345
 20
8.2162576628
 10
8.2057368645
 20
8.2177305786
 10
8.2200696145
 20
8.2192034945
 10
8.2216437254
 20
8.2196791858
  0
LINE
  5
41B
100
AcDbEntity
  8
0
100
AcDbLine
 62
7
  6
CONTINUOUS
 10
7.3275535736
 20
8.1999863463
 11
7.4092714012
 21
8.2014592622
  0
LWPOLYLINE
  5
41C
100
AcDbEntity
  8
0
100
AcDbPolyline
 62
7
  6
CONTINUOUS
 90
9
 70
0
 10
7.8612392192
 20
8.2163733985
 10
7.9429570467
 20
8.2178463144
 10
8.0171336564
 20
8.2193192302
 10
8.0819511126
 20
8.220792146
 10
8.1358208555
 20
8.2222650619
 10
8.1774226345
 20
8.2237379777
 10
8.2057368645
 20
8.2252108936
 10
8.2200696145
 20
8.2266838094
 10
8.2218694834
 20
8.2274202674
  0
LWPOLYLINE
  5
41D
100
AcDbEntity
  8
0
100
AcDbPolyline
 62
7
  6
CONTINUOUS
 90
4
 70
0
 10
7.5315579307
 20
8.1722797811
 10
7.4453320587
 20
8.1707522557
 10
7.3641083297
 20
8.1692246656
 10
7.2900292896
 20
8.1676970309
  0
LWPOLYLINE
  5
41E
100
AcDbEntity
  8
0
100
AcDbPolyline
 62
7
  6
CONTINUOUS
 90
10
 70
0
 10
7.7389526896
 20
8.1864977615
 10
7.8251793375
 20
8.1880253009
 10
7.9064028523
 20
8.189552888
 10
7.9804812256
 20
8.1910805094
 10
8.0454600144
 20
8.1926081316
 10
8.0996267192
 20
8.194135763
 10
8.1415540271
 20
8.195663432
 10
8.1701356831
 20
8.1971911312
 10
8.1846172493
 20
8.1987188221
 10
8.1861961599
 20
8.1992051387
  0
LWPOLYLINE
  5
41F
100
AcDbEntity
  8
0
100
AcDbPolyline
 62
7
  6
CONTINUOUS
 90
10
 70
0
 10
7.5315579307
 20
8.2313348992
 10
7.4453305379
 20
8.2298073462
 10
7.3641067277
 20
8.2282797523
 10
7.2900272307
 20
8.226752104
 10
7.2250474461
 20
8.2252244484
 10
7.1708811953
 20
8.2236968121
 10
7.1289553741
 20
8.2221691761
 10
7.1003746583
 20
8.2206415098
 10
7.0858933509
 20
8.2191138344
 10
7.0843144605
 20
8.218627522
  0
LWPOLYLINE
  5
420
100
AcDbEntity
  8
0
100
AcDbPolyline
 62
7
  6
CONTINUOUS
 90
4
 70
0
 10
7.5062460179
 20
8.1234432561
 10
7.5214142572
 20
8.1234814114
 10
7.5368324613
 20
8.1230660186
 10
7.5523207652
 20
8.1221989256
  0
LINE
  5
421
100
AcDbEntity
  8
0
100
AcDbLine
 62
7
  6
CONTINUOUS
 10
8.1549403495
 20
8.056766124
 11
7.1155702708
 21
8.056766124
  0
LINE
  5
422
100
AcDbEntity
  8
0
100
AcDbLine
 62
7
  6
CONTINUOUS
 10
8.1864364126
 20
8.0882621869
 11
7.0840742078
 21
8.0882621869
  0
LWPOLYLINE
  5
423
100
AcDbEntity
  8
0
100
AcDbPolyline
 62
7
  6
CONTINUOUS
 90
4
 70
0
 10
7.5315579307
 20
8.1829399982
 10
7.4910287884
 20
8.1874914111
 10
7.4502450818
 20
8.1936899844
 10
7.4092714012
 20
8.2014592622
  0
LWPOLYLINE
  5
424
100
AcDbEntity
  8
0
100
AcDbPolyline
 62
7
  6
CONTINUOUS
 90
4
 70
0
 10
7.7389526896
 20
8.1758375444
 10
7.779489229
 20
8.1712851519
 10
7.8202723236
 20
8.1650863968
 10
7.8612392192
 20
8.1573182804
  0
LWPOLYLINE
  5
425
100
AcDbEntity
  8
0
100
AcDbPolyline
 62
7
  6
CONTINUOUS
 90
4
 70
0
 10
7.4092714012
 20
8.1424041441
 10
7.4573580707
 20
8.1334407436
 10
7.5049331544
 20
8.126690023
 10
7.5523207652
 20
8.1221989256
  0
LINE
  5
426
100
AcDbEntity
  8
0
100
AcDbLine
 62
7
  6
CONTINUOUS
 10
7.048866895
 20
8.1310965087
 11
7.0843144605
 21
8.1106224615
  0
LINE
  5
427
100
AcDbEntity
  8
0
100
AcDbLine
 62
7
  6
CONTINUOUS
 10
7.048866895
 20
8.1901516268
 11
7.0843144605
 21
8.1696775796
  0
LINE
  5
428
100
AcDbEntity
  8
0
100
AcDbLine
 62
7
  6
CONTINUOUS
 10
7.3912243963
 20
7.8202674405
 11
7.4213944833
 21
7.8028291162
  0
LINE
  5
429
100
AcDbEntity
  8
0
100
AcDbLine
 62
7
  6
CONTINUOUS
 10
7.3912243963
 20
7.8596375192
 11
7.4213944833
 21
7.842199195
  0
LINE
  5
42A
100
AcDbEntity
  8
0
100
AcDbLine
 62
7
  6
CONTINUOUS
 10
7.3912243963
 20
7.8990075979
 11
7.4213944833
 21
7.8815692737
  0
LINE
  5
42B
100
AcDbEntity
  8
0
100
AcDbLine
 62
7
  6
CONTINUOUS
 10
7.8719727774
 20
7.6518222304
 11
7.8491161371
 21
7.6650338406
  0
LINE
  5
42C
100
AcDbEntity
  8
0
100
AcDbLine
 62
7
  6
CONTINUOUS
 10
7.3912243963
 20
7.9383776767
 11
7.4213944833
 21
7.9209393524
  0
LINE
  5
42D
100
AcDbEntity
  8
0
100
AcDbLine
 62
7
  6
CONTINUOUS
 10
7.8792862241
 20
7.6869655948
 11
7.8491161371
 21
7.7044039194
  0
LINE
  5
42E
100
AcDbEntity
  8
0
100
AcDbLine
 62
7
  6
CONTINUOUS
 10
7.3912243963
 20
7.9777477554
 11
7.4213944833
 21
7.9603094312
  0
LINE
  5
42F
100
AcDbEntity
  8
0
100
AcDbLine
 62
7
  6
CONTINUOUS
 10
7.8792862241
 20
7.7263356736
 11
7.8491161371
 21
7.7437739981
  0
LWPOLYLINE
  5
430
100
AcDbEntity
  8
0
100
AcDbPolyline
 62
7
  6
CONTINUOUS
 90
4
 70
0
 10
7.4092714012
 20
8.149884459
 10
7.4502409319
 20
8.1588962336
 10
7.4910208975
 20
8.1663903005
 10
7.5315579307
 20
8.1722797811
  0
LWPOLYLINE
  5
431
100
AcDbEntity
  8
0
100
AcDbPolyline
 62
7
  6
CONTINUOUS
 90
4
 70
0
 10
7.8612392192
 20
8.2679482017
 10
7.8202631629
 20
8.2589351072
 10
7.7794826511
 20
8.2514411944
 10
7.7389526896
 20
8.2455528796
  0
LWPOLYLINE
  5
432
100
AcDbEntity
  8
0
100
AcDbPolyline
 62
7
  6
CONTINUOUS
 90
4
 70
0
 10
7.4092714012
 20
8.2089395771
 10
7.4502409319
 20
8.2179513517
 10
7.4910208975
 20
8.2254454186
 10
7.5315579307
 20
8.2313348992
  0
LWPOLYLINE
  5
433
100
AcDbEntity
  8
0
100
AcDbPolyline
 62
7
  6
CONTINUOUS
 90
4
 70
0
 10
7.8612392192
 20
8.3270033198
 10
7.8202631629
 20
8.3179902254
 10
7.7794826511
 20
8.3104963125
 10
7.7389526896
 20
8.3046079977
  0
LWPOLYLINE
  5
434
100
AcDbEntity
  8
0
100
AcDbPolyline
 62
7
  6
CONTINUOUS
 90
4
 70
0
 10
7.4092714012
 20
8.2679946952
 10
7.4502409319
 20
8.2770064698
 10
7.4910208975
 20
8.2845005367
 10
7.5315579307
 20
8.2903900173
  0
LWPOLYLINE
  5
435
100
AcDbEntity
  8
0
100
AcDbPolyline
 62
7
  6
CONTINUOUS
 90
4
 70
0
 10
7.8612392192
 20
8.3860584379
 10
7.8202631629
 20
8.3770453435
 10
7.7794826511
 20
8.3695514306
 10
7.7389526896
 20
8.3636631158
  0
LWPOLYLINE
  5
436
100
AcDbEntity
  8
0
100
AcDbPolyline
 62
7
  6
CONTINUOUS
 90
4
 70
0
 10
7.4092714012
 20
8.3270498134
 10
7.4502409319
 20
8.3360615879
 10
7.4910208975
 20
8.3435556548
 10
7.5315579307
 20
8.3494451354
  0
LWPOLYLINE
  5
437
100
AcDbEntity
  8
0
100
AcDbPolyline
 62
7
  6
CONTINUOUS
 90
5
 70
0
 10
7.2250505577
 20
8.235884745
 10
7.2900293225
 20
8.2374123669
 10
7.364107649
 20
8.2389399875
 10
7.4453311755
 20
8.240467575
 10
7.5315579307
 20
8.2419951163
  0
LINE
  5
438
100
AcDbEntity
  8
0
100
AcDbLine
 62
7
  6
CONTINUOUS
 10
7.2250505758
 20
8.4130500998
 11
7.2900293482
 21
8.4145777218
  0
LINE
  5
439
100
AcDbEntity
  8
0
100
AcDbLine
 62
7
  6
CONTINUOUS
 10
7.9804820648
 20
8.416640783
 11
7.9064041493
 21
8.4151131687
  0
LWPOLYLINE
  5
43A
100
AcDbEntity
  8
0
100
AcDbPolyline
 62
7
  6
CONTINUOUS
 90
4
 70
0
 10
7.2900293482
 20
8.4145777218
 10
7.3641076923
 20
8.4161053427
 10
7.4453312156
 20
8.41763293
 10
7.5315579307
 20
8.4191604706
  0
LWPOLYLINE
  5
43B
100
AcDbEntity
  8
0
100
AcDbPolyline
 62
7
  6
CONTINUOUS
 90
8
 70
0
 10
7.9429570467
 20
8.2694211175
 10
8.0171336564
 20
8.2708940334
 10
8.0819511126
 20
8.2723669492
 10
8.1358208555
 20
8.273839865
 10
8.1774226345
 20
8.2753127809
 10
8.2057368645
 20
8.2767856967
 10
8.2200696145
 20
8.2782586126
 10
8.2216437254
 20
8.2787343039
  0
LWPOLYLINE
  5
43C
100
AcDbEntity
  8
0
100
AcDbPolyline
 62
7
  6
CONTINUOUS
 90
3
 70
0
 10
7.253376964
 20
8.3756787848
 10
7.3275535736
 20
8.3771517007
 10
7.4092714012
 20
8.3786246165
  0
LWPOLYLINE
  5
43D
100
AcDbEntity
  8
0
100
AcDbPolyline
 62
7
  6
CONTINUOUS
 90
3
 70
0
 10
7.9064041493
 20
8.4151131687
 10
7.8251812064
 20
8.4135855902
 10
7.7389526896
 20
8.4120580168
  0
LINE
  5
43E
100
AcDbEntity
  8
0
100
AcDbLine
 62
7
  6
CONTINUOUS
 10
7.8612392192
 20
8.2679482017
 11
7.9429570467
 21
8.2694211175
  0
LINE
  5
43F
100
AcDbEntity
  8
0
100
AcDbLine
 62
7
  6
CONTINUOUS
 10
7.3275535736
 20
8.2590414644
 11
7.4092714012
 21
8.2605143803
  0
LWPOLYLINE
  5
440
100
AcDbEntity
  8
0
100
AcDbPolyline
 62
7
  6
CONTINUOUS
 90
9
 70
0
 10
7.8612392192
 20
8.2754285166
 10
7.9429570467
 20
8.2769014325
 10
8.0171336564
 20
8.2783743483
 10
8.0819511126
 20
8.2798472642
 10
8.1358208555
 20
8.28132018
 10
8.1774226345
 20
8.2827930958
 10
8.2057368645
 20
8.2842660117
 10
8.2200696145
 20
8.2857389275
 10
8.2218694834
 20
8.2864753855
  0
LWPOLYLINE
  5
441
100
AcDbEntity
  8
0
100
AcDbPolyline
 62
7
  6
CONTINUOUS
 90
9
 70
0
 10
7.8612392192
 20
8.3270033198
 10
7.9429570467
 20
8.3284762356
 10
8.0171336564
 20
8.3299491515
 10
8.0819511126
 20
8.3314220673
 10
8.1358208555
 20
8.3328949832
 10
8.1774226345
 20
8.334367899
 10
8.2057368645
 20
8.3358408148
 10
8.2200696145
 20
8.3373137307
 10
8.2216437254
 20
8.337789422
  0
LWPOLYLINE
  5
442
100
AcDbEntity
  8
0
100
AcDbPolyline
 62
7
  6
CONTINUOUS
 90
9
 70
0
 10
7.8612392192
 20
8.3344836347
 10
7.9429570467
 20
8.3359565506
 10
8.0171336564
 20
8.3374294664
 10
8.0819511126
 20
8.3389023823
 10
8.1358208555
 20
8.3403752981
 10
8.1774226345
 20
8.341848214
 10
8.2057368645
 20
8.3433211298
 10
8.2200696145
 20
8.3447940456
 10
8.2218694834
 20
8.3455305036
  0
LWPOLYLINE
  5
443
100
AcDbEntity
  8
0
100
AcDbPolyline
 62
7
  6
CONTINUOUS
 90
9
 70
0
 10
7.8612392192
 20
8.3860584379
 10
7.9429570467
 20
8.3875313537
 10
8.0171336564
 20
8.3890042696
 10
8.0819511126
 20
8.3904771854
 10
8.1358208555
 20
8.3919501013
 10
8.1774226345
 20
8.3934230171
 10
8.2057368645
 20
8.394895933
 10
8.2200696145
 20
8.3963688488
 10
8.2216437254
 20
8.3968445401
  0
LWPOLYLINE
  5
444
100
AcDbEntity
  8
0
100
AcDbPolyline
 62
7
  6
CONTINUOUS
 90
9
 70
0
 10
7.8612392192
 20
8.3935387528
 10
7.9429570467
 20
8.3950116687
 10
8.0171336564
 20
8.3964845845
 10
8.0819511126
 20
8.3979575004
 10
8.1358208555
 20
8.3994304162
 10
8.1774226345
 20
8.4009033321
 10
8.2057368645
 20
8.4023762479
 10
8.2200696145
 20
8.4038491638
 10
8.2218694834
 20
8.4045856217
  0
LWPOLYLINE
  5
445
100
AcDbEntity
  8
0
100
AcDbPolyline
 62
7
  6
CONTINUOUS
 90
10
 70
0
 10
7.7389526896
 20
8.2455528796
 10
7.8251792547
 20
8.2470804175
 10
7.9064027615
 20
8.2486080043
 10
7.9804811687
 20
8.2501356262
 10
8.0454599751
 20
8.2516632487
 10
8.0996266705
 20
8.2531908795
 10
8.1415539864
 20
8.2547185483
 10
8.1701356633
 20
8.2562462479
 10
8.1846172468
 20
8.2577739397
 10
8.1861961599
 20
8.2582602568
  0
LWPOLYLINE
  5
446
100
AcDbEntity
  8
0
100
AcDbPolyline
 62
7
  6
CONTINUOUS
 90
10
 70
0
 10
7.5315579307
 20
8.2903900173
 10
7.4453294198
 20
8.288862444
 10
7.3641064906
 20
8.2873348658
 10
7.2900285518
 20
8.285807251
 10
7.2250490006
 20
8.2842796062
 10
7.17088196
 20
8.2827519544
 10
7.1289554051
 20
8.2812242956
 10
7.1003746335
 20
8.2796966262
 10
7.0858933701
 20
8.2781689565
 10
7.0843144605
 20
8.2776826401
  0
LWPOLYLINE
  5
447
100
AcDbEntity
  8
0
100
AcDbPolyline
 62
7
  6
CONTINUOUS
 90
10
 70
0
 10
7.7389526896
 20
8.3046079977
 10
7.8251796106
 20
8.3061355421
 10
7.9064029522
 20
8.3076631262
 10
7.980481363
 20
8.3091907486
 10
8.0454600736
 20
8.3107183693
 10
8.0996267751
 20
8.312246001
 10
8.141554094
 20
8.3137736711
 10
8.1701357166
 20
8.3153013698
 10
8.1846172536
 20
8.3168290592
 10
8.1861961599
 20
8.3173153749
  0
LWPOLYLINE
  5
448
100
AcDbEntity
  8
0
100
AcDbPolyline
 62
7
  6
CONTINUOUS
 90
10
 70
0
 10
7.5315579307
 20
8.3494451354
 10
7.4453305214
 20
8.3479175821
 10
7.3641070328
 20
8.3463899945
 10
7.2900287064
 20
8.3448623725
 10
7.2250500839
 20
8.343334752
 10
7.1708832904
 20
8.3418071146
 10
7.128956119
 20
8.3402794445
 10
7.1003747306
 20
8.3387517511
 10
7.0858933491
 20
8.3372240702
 10
7.0843144605
 20
8.3367377582
  0
LWPOLYLINE
  5
449
100
AcDbEntity
  8
0
100
AcDbPolyline
 62
7
  6
CONTINUOUS
 90
10
 70
0
 10
7.7389526896
 20
8.3636631158
 10
7.8251793783
 20
8.365190656
 10
7.9064028968
 20
8.3667182432
 10
7.9804812528
 20
8.3682458643
 10
8.0454600333
 20
8.3697734864
 10
8.0996267435
 20
8.3713011181
 10
8.1415540472
 20
8.3728287872
 10
8.1701356927
 20
8.3743564862
 10
8.1846172505
 20
8.3758841766
 10
8.1861961599
 20
8.376370493
  0
LWPOLYLINE
  5
44A
100
AcDbEntity
  8
0
100
AcDbPolyline
 62
7
  6
CONTINUOUS
 90
10
 70
0
 10
7.5315579307
 20
8.4085002535
 10
7.4453321034
 20
8.406972729
 10
7.3641083362
 20
8.4054451381
 10
7.2900287802
 20
8.4039174922
 10
7.2250489076
 20
8.4023898401
 10
7.1708823514
 20
8.400862203
 10
7.1289559168
 20
8.3993345539
 10
7.1003747326
 20
8.3978068694
 10
7.0858933494
 20
8.3962791884
 10
7.0843144605
 20
8.3957928763
  0
LWPOLYLINE
  5
44B
100
AcDbEntity
  8
0
100
AcDbPolyline
 62
7
  6
CONTINUOUS
 90
10
 70
0
 10
7.7389526896
 20
8.422718234
 10
7.8251792963
 20
8.4242457726
 10
7.9064028072
 20
8.4257733596
 10
7.9804811976
 20
8.4273009812
 10
8.045459995
 20
8.4288286036
 10
8.0996266949
 20
8.4303562346
 10
8.1415540069
 20
8.4318839035
 10
8.1701356733
 20
8.4334116029
 10
8.1846172481
 20
8.4349392943
 10
8.1861961599
 20
8.4354256111
  0
LWPOLYLINE
  5
44C
100
AcDbEntity
  8
0
100
AcDbPolyline
 62
7
  6
CONTINUOUS
 90
4
 70
0
 10
7.5315579307
 20
8.2419951163
 10
7.4910287884
 20
8.2465465292
 10
7.4502450818
 20
8.2527451025
 10
7.4092714012
 20
8.2605143803
  0
LWPOLYLINE
  5
44D
100
AcDbEntity
  8
0
100
AcDbPolyline
 62
7
  6
CONTINUOUS
 90
4
 70
0
 10
7.7389526896
 20
8.2348926625
 10
7.779489229
 20
8.23034027
 10
7.8202723236
 20
8.2241415149
 10
7.8612392192
 20
8.2163733985
  0
LWPOLYLINE
  5
44E
100
AcDbEntity
  8
0
100
AcDbPolyline
 62
7
  6
CONTINUOUS
 90
4
 70
0
 10
7.5315579307
 20
8.3010502344
 10
7.4910287884
 20
8.3056016474
 10
7.4502450818
 20
8.3118002206
 10
7.4092714012
 20
8.3195694984
  0
LWPOLYLINE
  5
44F
100
AcDbEntity
  8
0
100
AcDbPolyline
 62
7
  6
CONTINUOUS
 90
4
 70
0
 10
7.7389526896
 20
8.2939477806
 10
7.779489229
 20
8.2893953881
 10
7.8202723236
 20
8.283196633
 10
7.8612392192
 20
8.2754285166
  0
LWPOLYLINE
  5
450
100
AcDbEntity
  8
0
100
AcDbPolyline
 62
7
  6
CONTINUOUS
 90
4
 70
0
 10
7.5315579307
 20
8.3601053525
 10
7.4910287884
 20
8.3646567655
 10
7.4502450818
 20
8.3708553387
 10
7.4092714012
 20
8.3786246165
  0
LWPOLYLINE
  5
451
100
AcDbEntity
  8
0
100
AcDbPolyline
 62
7
  6
CONTINUOUS
 90
4
 70
0
 10
7.7389526896
 20
8.3530028987
 10
7.779489229
 20
8.3484505062
 10
7.8202723236
 20
8.3422517512
 10
7.8612392192
 20
8.3344836347
  0
LWPOLYLINE
  5
452
100
AcDbEntity
  8
0
100
AcDbPolyline
 62
7
  6
CONTINUOUS
 90
4
 70
0
 10
7.5315579307
 20
8.4191604706
 10
7.4910287884
 20
8.4237118836
 10
7.4502450818
 20
8.4299104568
 10
7.4092714012
 20
8.4376797346
  0
LINE
  5
453
100
AcDbEntity
  8
0
100
AcDbLine
 62
7
  6
CONTINUOUS
 10
7.8795269637
 20
7.962277935
 11
7.8489786656
 21
7.9799150031
  0
LINE
  5
454
100
AcDbEntity
  8
0
100
AcDbLine
 62
7
  6
CONTINUOUS
 10
7.048866895
 20
8.2492067449
 11
7.0843144605
 21
8.2287326978
  0
LINE
  5
455
100
AcDbEntity
  8
0
100
AcDbLine
 62
7
  6
CONTINUOUS
 10
7.048866895
 20
8.308261863
 11
7.0843144605
 21
8.2877878159
  0
LINE
  5
456
100
AcDbEntity
  8
0
100
AcDbLine
 62
7
  6
CONTINUOUS
 10
7.048866895
 20
8.3673169811
 11
7.0843144605
 21
8.346842934
  0
LINE
  5
457
100
AcDbEntity
  8
0
100
AcDbLine
 62
7
  6
CONTINUOUS
 10
7.048866895
 20
8.4263720992
 11
7.0843144605
 21
8.4058980521
  0
LINE
  5
458
100
AcDbEntity
  8
0
100
AcDbLine
 62
7
  6
CONTINUOUS
 10
7.8792862241
 20
7.7657057523
 11
7.8491161371
 21
7.7831440768
  0
LINE
  5
459
100
AcDbEntity
  8
0
100
AcDbLine
 62
7
  6
CONTINUOUS
 10
7.8792862241
 20
7.8050758311
 11
7.8491161371
 21
7.8225141556
  0
LINE
  5
45A
100
AcDbEntity
  8
0
100
AcDbLine
 62
7
  6
CONTINUOUS
 10
7.8792862241
 20
7.8444459098
 11
7.8491161371
 21
7.8618842343
  0
LINE
  5
45B
100
AcDbEntity
  8
0
100
AcDbLine
 62
7
  6
CONTINUOUS
 10
7.8792862241
 20
7.8838159885
 11
7.8491161371
 21
7.9012543131
  0
LINE
  5
45C
100
AcDbEntity
  8
0
100
AcDbLine
 62
7
  6
CONTINUOUS
 10
7.8792862241
 20
7.9231860673
 11
7.8491161371
 21
7.9406243918
  0
LWPOLYLINE
  5
45D
100
AcDbEntity
  8
0
100
AcDbPolyline
 62
7
  6
CONTINUOUS
 90
3
 70
0
 10
7.8752378709
 20
7.9673042738
 10
7.8606498311
 20
7.9758865118
 10
7.8519778358
 20
7.9809982324
  0
LWPOLYLINE
  5
45E
100
AcDbEntity
  8
0
100
AcDbPolyline
 62
7
  6
CONTINUOUS
 90
6
 70
0
 10
7.5136179775
 20
8.056766124
 10
7.5113399167
 20
8.058307651
 10
7.5092848484
 20
8.0627813367
 10
7.5076539369
 20
8.0697492656
 10
7.5066068273
 20
8.0785293682
 10
7.5062460179
 20
8.0882621869
  0
LINE
  5
45F
100
AcDbEntity
  8
0
100
AcDbLine
 62
7
  6
CONTINUOUS
 10
7.4109513298
 20
7.6391606071
 11
7.426416705
 21
7.6236952353
  0
LINE
  5
460
100
AcDbEntity
  8
0
100
AcDbLine
 62
7
  6
CONTINUOUS
 10
7.3909836566
 20
7.6630653366
 11
7.3912243963
 21
7.6627871255
  0
LWPOLYLINE
  5
461
100
AcDbEntity
  8
0
100
AcDbPolyline
 62
7
  6
CONTINUOUS
 90
4
 70
0
 10
7.8612392192
 20
8.445113556
 10
7.8202631629
 20
8.4361004616
 10
7.7794826511
 20
8.4286065487
 10
7.7389526896
 20
8.422718234
  0
LWPOLYLINE
  5
462
100
AcDbEntity
  8
0
100
AcDbPolyline
 62
7
  6
CONTINUOUS
 90
4
 70
0
 10
7.4092714012
 20
8.3861049315
 10
7.4502409319
 20
8.395116706
 10
7.4910208975
 20
8.402610773
 10
7.5315579307
 20
8.4085002535
  0
LWPOLYLINE
  5
463
100
AcDbEntity
  8
0
100
AcDbPolyline
 62
7
  6
CONTINUOUS
 90
4
 70
0
 10
7.8612392192
 20
8.5041686741
 10
7.8202631629
 20
8.4951555797
 10
7.7794826511
 20
8.4876616668
 10
7.7389526896
 20
8.4817733521
  0
LWPOLYLINE
  5
464
100
AcDbEntity
  8
0
100
AcDbPolyline
 62
7
  6
CONTINUOUS
 90
4
 70
0
 10
7.4092714012
 20
8.4451600496
 10
7.4502409319
 20
8.4541718241
 10
7.4910208975
 20
8.4616658911
 10
7.5315579307
 20
8.4675553716
  0
LWPOLYLINE
  5
465
100
AcDbEntity
  8
0
100
AcDbPolyline
 62
7
  6
CONTINUOUS
 90
4
 70
0
 10
7.8612392192
 20
8.5632237922
 10
7.8202631629
 20
8.5542106978
 10
7.7794826511
 20
8.5467167849
 10
7.7389526896
 20
8.5408284702
  0
LWPOLYLINE
  5
466
100
AcDbEntity
  8
0
100
AcDbPolyline
 62
7
  6
CONTINUOUS
 90
4
 70
0
 10
7.4092714012
 20
8.5042151677
 10
7.4502409319
 20
8.5132269422
 10
7.4910208975
 20
8.5207210092
 10
7.5315579307
 20
8.5266104897
  0
LWPOLYLINE
  5
467
100
AcDbEntity
  8
0
100
AcDbPolyline
 62
7
  6
CONTINUOUS
 90
4
 70
0
 10
7.8612392192
 20
8.6222789103
 10
7.8202631629
 20
8.6132658159
 10
7.7794826511
 20
8.605771903
 10
7.7389526896
 20
8.5998835883
  0
LWPOLYLINE
  5
468
100
AcDbEntity
  8
0
100
AcDbPolyline
 62
7
  6
CONTINUOUS
 90
6
 70
0
 10
8.0454599874
 20
8.4878837215
 10
8.0996266752
 20
8.4894113521
 10
8.1415539863
 20
8.4909390208
 10
8.1701356625
 20
8.4924667203
 10
8.1846172467
 20
8.4939944121
 10
8.1861961599
 20
8.4944807292
  0
LWPOLYLINE
  5
469
100
AcDbEntity
  8
0
100
AcDbPolyline
 62
7
  6
CONTINUOUS
 90
4
 70
0
 10
7.1885595078
 20
8.4923161052
 10
7.253376964
 20
8.493789021
 10
7.3275535736
 20
8.4952619369
 10
7.4092714012
 20
8.4967348527
  0
LWPOLYLINE
  5
46A
100
AcDbEntity
  8
0
100
AcDbPolyline
 62
7
  6
CONTINUOUS
 90
3
 70
0
 10
7.906402741
 20
8.4848284764
 10
7.9804811706
 20
8.4863560987
 10
8.0454599874
 20
8.4878837215
  0
LINE
  5
46B
100
AcDbEntity
  8
0
100
AcDbLine
 62
7
  6
CONTINUOUS
 10
7.8251792286
 20
8.4833008895
 11
7.906402741
 21
8.4848284764
  0
LWPOLYLINE
  5
46C
100
AcDbEntity
  8
0
100
AcDbPolyline
 62
7
  6
CONTINUOUS
 90
9
 70
0
 10
7.4453297668
 20
8.5250829228
 10
7.3641063108
 20
8.5235553347
 10
7.2900285233
 20
8.5220277228
 10
7.2250496326
 20
8.5205000948
 10
7.1708825645
 20
8.518972446
 10
7.1289556564
 20
8.5174447788
 10
7.1003746186
 20
8.5159170975
 10
7.0858933568
 20
8.5143894262
 10
7.0843144605
 20
8.5139031125
  0
LWPOLYLINE
  5
46D
100
AcDbEntity
  8
0
100
AcDbPolyline
 62
7
  6
CONTINUOUS
 90
9
 70
0
 10
7.8612392192
 20
8.445113556
 10
7.9429570467
 20
8.4465864718
 10
8.0171336564
 20
8.4480593877
 10
8.0819511126
 20
8.4495323035
 10
8.1358208555
 20
8.4510052194
 10
8.1774226345
 20
8.4524781352
 10
8.2057368645
 20
8.4539510511
 10
8.2200696145
 20
8.4554239669
 10
8.2216437254
 20
8.4558996583
  0
LWPOLYLINE
  5
46E
100
AcDbEntity
  8
0
100
AcDbPolyline
 62
7
  6
CONTINUOUS
 90
9
 70
0
 10
7.8612392192
 20
8.452593871
 10
7.9429570467
 20
8.4540667868
 10
8.0171336564
 20
8.4555397026
 10
8.0819511126
 20
8.4570126185
 10
8.1358208555
 20
8.4584855343
 10
8.1774226345
 20
8.4599584502
 10
8.2057368645
 20
8.461431366
 10
8.2200696145
 20
8.4629042819
 10
8.2218694834
 20
8.4636407398
  0
LWPOLYLINE
  5
46F
100
AcDbEntity
  8
0
100
AcDbPolyline
 62
7
  6
CONTINUOUS
 90
9
 70
0
 10
7.8612392192
 20
8.5041686741
 10
7.9429570467
 20
8.50564159
 10
8.0171336564
 20
8.5071145058
 10
8.0819511126
 20
8.5085874216
 10
8.1358208555
 20
8.5100603375
 10
8.1774226345
 20
8.5115332533
 10
8.2057368645
 20
8.5130061692
 10
8.2200696145
 20
8.514479085
 10
8.2216437254
 20
8.5149547764
  0
LWPOLYLINE
  5
470
100
AcDbEntity
  8
0
100
AcDbPolyline
 62
7
  6
CONTINUOUS
 90
9
 70
0
 10
7.8612392192
 20
8.5116489891
 10
7.9429570467
 20
8.5131219049
 10
8.0171336564
 20
8.5145948208
 10
8.0819511126
 20
8.5160677366
 10
8.1358208555
 20
8.5175406524
 10
8.1774226345
 20
8.5190135683
 10
8.2057368645
 20
8.5204864841
 10
8.2200696145
 20
8.5219594
 10
8.2218694834
 20
8.5226958579
  0
LWPOLYLINE
  5
471
100
AcDbEntity
  8
0
100
AcDbPolyline
 62
7
  6
CONTINUOUS
 90
9
 70
0
 10
7.8612392192
 20
8.5632237922
 10
7.9429570467
 20
8.5646967081
 10
8.0171336564
 20
8.5661696239
 10
8.0819511126
 20
8.5676425398
 10
8.1358208555
 20
8.5691154556
 10
8.1774226345
 20
8.5705883714
 10
8.2057368645
 20
8.5720612873
 10
8.2200696145
 20
8.5735342031
 10
8.2216437254
 20
8.5740098945
  0
LWPOLYLINE
  5
472
100
AcDbEntity
  8
0
100
AcDbPolyline
 62
7
  6
CONTINUOUS
 90
9
 70
0
 10
7.8612392192
 20
8.5707041072
 10
7.9429570467
 20
8.572177023
 10
8.0171336564
 20
8.5736499389
 10
8.0819511126
 20
8.5751228547
 10
8.1358208555
 20
8.5765957706
 10
8.1774226345
 20
8.5780686864
 10
8.2057368645
 20
8.5795416022
 10
8.2200696145
 20
8.5810145181
 10
8.2218694834
 20
8.581750976
  0
LWPOLYLINE
  5
473
100
AcDbEntity
  8
0
100
AcDbPolyline
 62
7
  6
CONTINUOUS
 90
9
 70
0
 10
7.8612392192
 20
8.6222789103
 10
7.9429570467
 20
8.6237518262
 10
8.0171336564
 20
8.625224742
 10
8.0819511126
 20
8.6266976579
 10
8.1358208555
 20
8.6281705737
 10
8.1774226345
 20
8.6296434896
 10
8.2057368645
 20
8.6311164054
 10
8.2200696145
 20
8.6325893212
 10
8.2216437254
 20
8.6330650126
  0
LWPOLYLINE
  5
474
100
AcDbEntity
  8
0
100
AcDbPolyline
 62
7
  6
CONTINUOUS
 90
9
 70
0
 10
7.8612392192
 20
8.6297592253
 10
7.9429570467
 20
8.6312321411
 10
8.0171336564
 20
8.632705057
 10
8.0819511126
 20
8.6341779728
 10
8.1358208555
 20
8.6356508887
 10
8.1774226345
 20
8.6371238045
 10
8.2057368645
 20
8.6385967204
 10
8.2200696145
 20
8.6400696362
 10
8.2218694834
 20
8.6408060941
  0
LWPOLYLINE
  5
475
100
AcDbEntity
  8
0
100
AcDbPolyline
 62
7
  6
CONTINUOUS
 90
10
 70
0
 10
7.5315579307
 20
8.4675553716
 10
7.4453298112
 20
8.4660278055
 10
7.3641068074
 20
8.4645002263
 10
7.2900281375
 20
8.4629725963
 10
7.2250482546
 20
8.4614449415
 10
7.1708814925
 20
8.4599172939
 10
7.1289553591
 20
8.4583896479
 10
7.1003747016
 20
8.4568619853
 10
7.0858933674
 20
8.4553343103
 10
7.0843144605
 20
8.4548479944
  0
LINE
  5
476
100
AcDbEntity
  8
0
100
AcDbLine
 62
7
  6
CONTINUOUS
 10
7.7389526896
 20
8.4817733521
 11
7.8251792286
 21
8.4833008895
  0
LINE
  5
477
100
AcDbEntity
  8
0
100
AcDbLine
 62
7
  6
CONTINUOUS
 10
7.5315579307
 20
8.5266104897
 11
7.4453297668
 21
8.5250829228
  0
LWPOLYLINE
  5
478
100
AcDbEntity
  8
0
100
AcDbPolyline
 62
7
  6
CONTINUOUS
 90
10
 70
0
 10
7.7389526896
 20
8.5408284702
 10
7.8251794187
 20
8.5423560111
 10
7.9064029406
 20
8.5438835984
 10
7.9804812791
 20
8.5454112192
 10
8.0454600517
 20
8.5469388412
 10
8.0996267678
 20
8.5484664732
 10
8.1415540672
 20
8.5499941424
 10
8.1701357022
 20
8.5515218412
 10
8.1846172516
 20
8.5530495312
 10
8.1861961599
 20
8.5535358474
  0
LWPOLYLINE
  5
479
100
AcDbEntity
  8
0
100
AcDbPolyline
 62
7
  6
CONTINUOUS
 90
10
 70
0
 10
7.5315579307
 20
8.5856656078
 10
7.4453320587
 20
8.5841380825
 10
7.3641083297
 20
8.5826104923
 10
7.2900292896
 20
8.5810828577
 10
7.2250500438
 20
8.5795552234
 10
7.1708834464
 20
8.578027592
 10
7.1289563951
 20
8.5764999288
 10
7.1003748711
 20
8.5749722335
 10
7.0858933633
 20
8.5734445456
 10
7.0843144605
 20
8.5729582306
  0
LWPOLYLINE
  5
47A
100
AcDbEntity
  8
0
100
AcDbPolyline
 62
7
  6
CONTINUOUS
 90
10
 70
0
 10
7.7389526896
 20
8.5998835883
 10
7.8251793375
 20
8.6014111277
 10
7.9064028523
 20
8.6029387148
 10
7.9804812256
 20
8.6044663361
 10
8.0454600144
 20
8.6059939584
 10
8.0996267192
 20
8.6075215897
 10
8.1415540271
 20
8.6090492587
 10
8.1701356831
 20
8.6105769579
 10
8.1846172493
 20
8.6121046488
 10
8.1861961599
 20
8.6125909655
  0
LWPOLYLINE
  5
47B
100
AcDbEntity
  8
0
100
AcDbPolyline
 62
7
  6
CONTINUOUS
 90
4
 70
0
 10
7.7389526896
 20
8.4120580168
 10
7.779489229
 20
8.4075056243
 10
7.8202723236
 20
8.4013068693
 10
7.8612392192
 20
8.3935387528
  0
LWPOLYLINE
  5
47C
100
AcDbEntity
  8
0
100
AcDbPolyline
 62
7
  6
CONTINUOUS
 90
4
 70
0
 10
7.5315579307
 20
8.4782155888
 10
7.4910287884
 20
8.4827670017
 10
7.4502450818
 20
8.4889655749
 10
7.4092714012
 20
8.4967348527
  0
LWPOLYLINE
  5
47D
100
AcDbEntity
  8
0
100
AcDbPolyline
 62
7
  6
CONTINUOUS
 90
4
 70
0
 10
7.7389526896
 20
8.4711131349
 10
7.779489229
 20
8.4665607424
 10
7.8202723236
 20
8.4603619874
 10
7.8612392192
 20
8.452593871
  0
LWPOLYLINE
  5
47E
100
AcDbEntity
  8
0
100
AcDbPolyline
 62
7
  6
CONTINUOUS
 90
4
 70
0
 10
7.5315579307
 20
8.5372707069
 10
7.4910287884
 20
8.5418221198
 10
7.4502450818
 20
8.548020693
 10
7.4092714012
 20
8.5557899708
  0
LWPOLYLINE
  5
47F
100
AcDbEntity
  8
0
100
AcDbPolyline
 62
7
  6
CONTINUOUS
 90
4
 70
0
 10
7.7389526896
 20
8.530168253
 10
7.779489229
 20
8.5256158605
 10
7.8202723236
 20
8.5194171055
 10
7.8612392192
 20
8.5116489891
  0
LWPOLYLINE
  5
480
100
AcDbEntity
  8
0
100
AcDbPolyline
 62
7
  6
CONTINUOUS
 90
4
 70
0
 10
7.5315579307
 20
8.596325825
 10
7.4910287884
 20
8.6008772379
 10
7.4502450818
 20
8.6070758111
 10
7.4092714012
 20
8.6148450889
  0
LWPOLYLINE
  5
481
100
AcDbEntity
  8
0
100
AcDbPolyline
 62
7
  6
CONTINUOUS
 90
4
 70
0
 10
7.7389526896
 20
8.5892233711
 10
7.779489229
 20
8.5846709786
 10
7.8202723236
 20
8.5784722236
 10
7.8612392192
 20
8.5707041072
  0
LINE
  5
482
100
AcDbEntity
  8
0
100
AcDbLine
 62
7
  6
CONTINUOUS
 10
7.048866895
 20
8.4854272173
 11
7.0843144605
 21
8.4649531702
  0
LINE
  5
483
100
AcDbEntity
  8
0
100
AcDbLine
 62
7
  6
CONTINUOUS
 10
7.048866895
 20
8.5444823354
 11
7.0843144605
 21
8.5240082883
  0
LINE
  5
484
100
AcDbEntity
  8
0
100
AcDbLine
 62
7
  6
CONTINUOUS
 10
7.048866895
 20
8.6035374535
 11
7.0843144605
 21
8.5830634064
  0
LINE
  5
485
100
AcDbEntity
  8
0
100
AcDbLine
 62
7
  6
CONTINUOUS
 10
7.048866895
 20
8.6625925716
 11
7.0843144605
 21
8.6421185245
  0
LWPOLYLINE
  5
486
100
AcDbEntity
  8
0
100
AcDbPolyline
 62
7
  6
CONTINUOUS
 90
3
 70
0
 10
7.8752378709
 20
7.9673042738
 10
7.8770127039
 20
7.9661239396
 10
7.8795269637
 20
7.962277935
  0
LINE
  5
487
100
AcDbEntity
  8
0
100
AcDbLine
 62
7
  6
CONTINUOUS
 10
7.048866895
 20
8.1310965087
 11
7.048641137
 21
8.1313572752
  0
LINE
  5
488
100
AcDbEntity
  8
0
100
AcDbLine
 62
7
  6
CONTINUOUS
 10
7.048866895
 20
8.1901516268
 11
7.048641137
 21
8.1904123933
  0
LINE
  5
489
100
AcDbEntity
  8
0
100
AcDbLine
 62
7
  6
CONTINUOUS
 10
7.048866895
 20
8.2492067449
 11
7.048641137
 21
8.2494675114
  0
LINE
  5
48A
100
AcDbEntity
  8
0
100
AcDbLine
 62
7
  6
CONTINUOUS
 10
7.048866895
 20
8.308261863
 11
7.048641137
 21
8.3085226296
  0
LINE
  5
48B
100
AcDbEntity
  8
0
100
AcDbLine
 62
7
  6
CONTINUOUS
 10
7.048866895
 20
8.3673169811
 11
7.048641137
 21
8.3675777477
  0
LINE
  5
48C
100
AcDbEntity
  8
0
100
AcDbLine
 62
7
  6
CONTINUOUS
 10
7.3912243963
 20
7.7021572042
 11
7.3909836566
 21
7.7024354153
  0
LINE
  5
48D
100
AcDbEntity
  8
0
100
AcDbLine
 62
7
  6
CONTINUOUS
 10
7.3912243963
 20
7.741527283
 11
7.3909836566
 21
7.741805494
  0
LINE
  5
48E
100
AcDbEntity
  8
0
100
AcDbLine
 62
7
  6
CONTINUOUS
 10
7.3912243963
 20
7.7808973617
 11
7.3909836566
 21
7.7811755728
  0
LINE
  5
48F
100
AcDbEntity
  8
0
100
AcDbLine
 62
7
  6
CONTINUOUS
 10
7.3912243963
 20
7.8202674405
 11
7.3909836566
 21
7.8205456515
  0
LINE
  5
490
100
AcDbEntity
  8
0
100
AcDbLine
 62
7
  6
CONTINUOUS
 10
7.3912243963
 20
7.8596375192
 11
7.3909836566
 21
7.8599157303
  0
LINE
  5
491
100
AcDbEntity
  8
0
100
AcDbLine
 62
7
  6
CONTINUOUS
 10
7.3912243963
 20
7.8990075979
 11
7.3909836566
 21
7.899285809
  0
LINE
  5
492
100
AcDbEntity
  8
0
100
AcDbLine
 62
7
  6
CONTINUOUS
 10
7.3912243963
 20
7.9383776767
 11
7.3909836566
 21
7.9386558877
  0
LWPOLYLINE
  5
493
100
AcDbEntity
  8
0
100
AcDbPolyline
 62
7
  6
CONTINUOUS
 90
4
 70
0
 10
7.4092714012
 20
8.5632702858
 10
7.4502409319
 20
8.5722820603
 10
7.4910208975
 20
8.5797761273
 10
7.5315579307
 20
8.5856656078
  0
LWPOLYLINE
  5
494
100
AcDbEntity
  8
0
100
AcDbPolyline
 62
7
  6
CONTINUOUS
 90
4
 70
0
 10
7.8612392192
 20
8.6813340284
 10
7.8202631629
 20
8.672320934
 10
7.7794826511
 20
8.6648270211
 10
7.7389526896
 20
8.6589387064
  0
LWPOLYLINE
  5
495
100
AcDbEntity
  8
0
100
AcDbPolyline
 62
7
  6
CONTINUOUS
 90
4
 70
0
 10
7.4092714012
 20
8.6223254039
 10
7.4502409319
 20
8.6313371784
 10
7.4910208975
 20
8.6388312454
 10
7.5315579307
 20
8.6447207259
  0
LWPOLYLINE
  5
496
100
AcDbEntity
  8
0
100
AcDbPolyline
 62
7
  6
CONTINUOUS
 90
4
 70
0
 10
7.4092714012
 20
8.681380522
 10
7.4502409319
 20
8.6903922966
 10
7.4910208975
 20
8.6978863635
 10
7.5315579307
 20
8.7037758441
  0
LWPOLYLINE
  5
497
100
AcDbEntity
  8
0
100
AcDbPolyline
 62
7
  6
CONTINUOUS
 90
4
 70
0
 10
7.5523207652
 20
8.7652170208
 10
7.5049326317
 20
8.7591426087
 10
7.4573578457
 20
8.7508643791
 10
7.4092714012
 20
8.7404356401
  0
LWPOLYLINE
  5
498
100
AcDbEntity
  8
0
100
AcDbPolyline
 62
7
  6
CONTINUOUS
 90
4
 70
0
 10
7.5523207652
 20
8.7652170208
 10
7.5368355891
 20
8.7638233137
 10
7.5214172233
 20
8.7628788629
 10
7.5062460179
 20
8.7623893381
  0
LWPOLYLINE
  5
499
100
AcDbEntity
  8
0
100
AcDbPolyline
 62
7
  6
CONTINUOUS
 90
3
 70
0
 10
7.9064038383
 20
8.6513336351
 10
7.8251808621
 20
8.6498060564
 10
7.7389526896
 20
8.6482784893
  0
LWPOLYLINE
  5
49A
100
AcDbEntity
  8
0
100
AcDbPolyline
 62
7
  6
CONTINUOUS
 90
9
 70
0
 10
7.8612392192
 20
8.6813340284
 10
7.9429570467
 20
8.6828069443
 10
8.0171336564
 20
8.6842798601
 10
8.0819511126
 20
8.685752776
 10
8.1358208555
 20
8.6872256918
 10
8.1774226345
 20
8.6886986077
 10
8.2057368645
 20
8.6901715235
 10
8.2200696145
 20
8.6916444394
 10
8.2216437254
 20
8.6921201307
  0
LWPOLYLINE
  5
49B
100
AcDbEntity
  8
0
100
AcDbPolyline
 62
7
  6
CONTINUOUS
 90
9
 70
0
 10
7.8612392192
 20
8.6888143434
 10
7.9429570467
 20
8.6902872592
 10
8.0171336564
 20
8.6917601751
 10
8.0819511126
 20
8.6932330909
 10
8.1358208555
 20
8.6947060068
 10
8.1774226345
 20
8.6961789226
 10
8.2057368645
 20
8.6976518385
 10
8.2200696145
 20
8.6991247543
 10
8.2218694834
 20
8.6998612122
  0
LWPOLYLINE
  5
49C
100
AcDbEntity
  8
0
100
AcDbPolyline
 62
7
  6
CONTINUOUS
 90
10
 70
0
 10
7.5062460179
 20
8.7623893381
 10
7.4240475632
 20
8.7609137327
 10
7.3470426758
 20
8.7594380945
 10
7.2771262654
 20
8.7579624298
 10
7.2160197485
 20
8.756486767
 10
7.1652256649
 20
8.7550110858
 10
7.1259936755
 20
8.7535353737
 10
7.0992898396
 20
8.7520596415
 10
7.0857717924
 20
8.7505839222
 10
7.0843144605
 20
8.750123585
  0
LWPOLYLINE
  5
49D
100
AcDbEntity
  8
0
100
AcDbPolyline
 62
7
  6
CONTINUOUS
 90
10
 70
0
 10
7.5315579307
 20
8.6447207259
 10
7.4453305379
 20
8.643193173
 10
7.3641067277
 20
8.6416655791
 10
7.2900272307
 20
8.6401379308
 10
7.2250474461
 20
8.6386102752
 10
7.1708811953
 20
8.6370826388
 10
7.1289553741
 20
8.6355550029
 10
7.1003746583
 20
8.6340273366
 10
7.0858933509
 20
8.6324996611
 10
7.0843144605
 20
8.6320133488
  0
LWPOLYLINE
  5
49E
100
AcDbEntity
  8
0
100
AcDbPolyline
 62
7
  6
CONTINUOUS
 90
10
 70
0
 10
7.7389526896
 20
8.6589387064
 10
7.8251792547
 20
8.6604662443
 10
7.9064027615
 20
8.6619938311
 10
7.9804811687
 20
8.663521453
 10
8.0454599751
 20
8.6650490755
 10
8.0996266705
 20
8.6665767063
 10
8.1415539864
 20
8.6681043751
 10
8.1701356633
 20
8.6696320747
 10
8.1846172468
 20
8.6711597664
 10
8.1861961599
 20
8.6716460836
  0
LWPOLYLINE
  5
49F
100
AcDbEntity
  8
0
100
AcDbPolyline
 62
7
  6
CONTINUOUS
 90
10
 70
0
 10
7.5315579307
 20
8.7037758441
 10
7.4453294198
 20
8.7022482708
 10
7.3641064906
 20
8.7007206925
 10
7.2900285518
 20
8.6991930778
 10
7.2250490006
 20
8.697665433
 10
7.17088196
 20
8.6961377812
 10
7.1289554051
 20
8.6946101223
 10
7.1003746335
 20
8.6930824529
 10
7.0858933701
 20
8.6915547833
 10
7.0843144605
 20
8.6910684669
  0
LWPOLYLINE
  5
4A0
100
AcDbEntity
  8
0
100
AcDbPolyline
 62
7
  6
CONTINUOUS
 90
4
 70
0
 10
7.7642646024
 20
8.7077752314
 10
7.7490963632
 20
8.7077370761
 10
7.7336781591
 20
8.7081524689
 10
7.7181898552
 20
8.7090195619
  0
LINE
  5
4A1
100
AcDbEntity
  8
0
100
AcDbLine
 62
7
  6
CONTINUOUS
 10
7.0840742078
 20
8.773301557
 11
8.1864364126
 21
8.773301557
  0
LINE
  5
4A2
100
AcDbEntity
  8
AXIS
100
AcDbLine
 62
7
  6
CONTINUOUS
 10
8.391160822
 20
8.80479762
 11
6.8793497984
 21
8.80479762
  0
LWPOLYLINE
  5
4A3
100
AcDbEntity
  8
0
100
AcDbPolyline
 62
7
  6
CONTINUOUS
 90
4
 70
0
 10
7.5315579307
 20
8.6553809431
 10
7.4910287884
 20
8.659932356
 10
7.4502450818
 20
8.6661309292
 10
7.4092714012
 20
8.6739002071
  0
LWPOLYLINE
  5
4A4
100
AcDbEntity
  8
0
100
AcDbPolyline
 62
7
  6
CONTINUOUS
 90
4
 70
0
 10
7.7389526896
 20
8.6482784893
 10
7.779489229
 20
8.6437260967
 10
7.8202723236
 20
8.6375273417
 10
7.8612392192
 20
8.6297592253
  0
LWPOLYLINE
  5
4A5
100
AcDbEntity
  8
0
100
AcDbPolyline
 62
7
  6
CONTINUOUS
 90
4
 70
0
 10
7.5315579307
 20
8.7144360612
 10
7.4910287884
 20
8.7189874741
 10
7.4502450818
 20
8.7251860473
 10
7.4092714012
 20
8.7329553252
  0
LWPOLYLINE
  5
4A6
100
AcDbEntity
  8
0
100
AcDbPolyline
 62
7
  6
CONTINUOUS
 90
4
 70
0
 10
7.8612392192
 20
8.6888143434
 10
7.8131525587
 20
8.6977777424
 10
7.7655774703
 20
8.7045284639
 10
7.7181898552
 20
8.7090195619
  0
LINE
  5
4A7
100
AcDbEntity
  8
0
100
AcDbLine
 62
7
  6
CONTINUOUS
 10
7.048866895
 20
8.7216476898
 11
7.0843144605
 21
8.7011736426
  0
LINE
  5
4A8
100
AcDbEntity
  8
0
100
AcDbLine
 62
7
  6
CONTINUOUS
 10
8.2216437254
 20
8.1686259158
 11
8.1861961599
 21
8.1890999629
  0
LINE
  5
4A9
100
AcDbEntity
  8
0
100
AcDbLine
 62
7
  6
CONTINUOUS
 10
8.2216437254
 20
8.2276810339
 11
8.1861961599
 21
8.2481550811
  0
LINE
  5
4AA
100
AcDbEntity
  8
0
100
AcDbLine
 62
7
  6
CONTINUOUS
 10
7.048866895
 20
8.4263720992
 11
7.048641137
 21
8.4266328658
  0
LINE
  5
4AB
100
AcDbEntity
  8
0
100
AcDbLine
 62
7
  6
CONTINUOUS
 10
7.048866895
 20
8.4854272173
 11
7.048641137
 21
8.4856879839
  0
LINE
  5
4AC
100
AcDbEntity
  8
0
100
AcDbLine
 62
7
  6
CONTINUOUS
 10
7.048866895
 20
8.5444823354
 11
7.048641137
 21
8.544743102
  0
LINE
  5
4AD
100
AcDbEntity
  8
0
100
AcDbLine
 62
7
  6
CONTINUOUS
 10
7.048866895
 20
8.6035374535
 11
7.048641137
 21
8.6037982201
  0
LINE
  5
4AE
100
AcDbEntity
  8
0
100
AcDbLine
 62
7
  6
CONTINUOUS
 10
7.048866895
 20
8.6625925716
 11
7.048641137
 21
8.6628533382
  0
LINE
  5
4AF
100
AcDbEntity
  8
0
100
AcDbLine
 62
7
  6
CONTINUOUS
 10
7.3912243963
 20
7.9777477554
 11
7.3909836566
 21
7.9780259665
  0
LINE
  5
4B0
100
AcDbEntity
  8
0
100
AcDbLine
 62
7
  6
CONTINUOUS
 10
7.8792862241
 20
7.6869655948
 11
7.8795269637
 21
7.6866873838
  0
LINE
  5
4B1
100
AcDbEntity
  8
AXIS
100
AcDbLine
 62
7
  6
CONTINUOUS
 10
8.5210820818
 20
8.9347188799
 11
6.7494285385
 21
8.9347188799
  0
LINE
  5
4B2
100
AcDbEntity
  8
0
100
AcDbLine
 62
7
  6
CONTINUOUS
 10
8.2216437254
 20
8.286736152
 11
8.1861961599
 21
8.3072101992
  0
LINE
  5
4B3
100
AcDbEntity
  8
0
100
AcDbLine
 62
7
  6
CONTINUOUS
 10
8.2216437254
 20
8.3457912701
 11
8.1861961599
 21
8.3662653173
  0
LINE
  5
4B4
100
AcDbEntity
  8
0
100
AcDbLine
 62
7
  6
CONTINUOUS
 10
8.2216437254
 20
8.4048463883
 11
8.1861961599
 21
8.4253204354
  0
LINE
  5
4B5
100
AcDbEntity
  8
0
100
AcDbLine
 62
7
  6
CONTINUOUS
 10
8.2216437254
 20
8.4639015064
 11
8.1861961599
 21
8.4843755535
  0
LINE
  5
4B6
100
AcDbEntity
  8
0
100
AcDbLine
 62
7
  6
CONTINUOUS
 10
7.048866895
 20
8.7216476898
 11
7.048641137
 21
8.7219084563
  0
LINE
  5
4B7
100
AcDbEntity
  8
0
100
AcDbLine
 62
7
  6
CONTINUOUS
 10
7.8792862241
 20
7.7263356736
 11
7.8795269637
 21
7.7260574625
  0
LINE
  5
4B8
100
AcDbEntity
  8
0
100
AcDbLine
 62
7
  6
CONTINUOUS
 10
7.8792862241
 20
7.7657057523
 11
7.8795269637
 21
7.7654275413
  0
LINE
  5
4B9
100
AcDbEntity
  8
0
100
AcDbLine
 62
7
  6
CONTINUOUS
 10
7.8792862241
 20
7.8050758311
 11
7.8795269637
 21
7.80479762
  0
LINE
  5
4BA
100
AcDbEntity
  8
0
100
AcDbLine
 62
7
  6
CONTINUOUS
 10
7.8792862241
 20
7.8444459098
 11
7.8795269637
 21
7.8441676988
  0
LINE
  5
4BB
100
AcDbEntity
  8
0
100
AcDbLine
 62
7
  6
CONTINUOUS
 10
7.8792862241
 20
7.8838159885
 11
7.8795269637
 21
7.8835377775
  0
LINE
  5
4BC
100
AcDbEntity
  8
0
100
AcDbLine
 62
7
  6
CONTINUOUS
 10
7.8792862241
 20
7.9231860673
 11
7.8795269637
 21
7.9229078562
  0
LINE
  5
4BD
100
AcDbEntity
  8
AXIS
100
AcDbLine
 62
7
  6
CONTINUOUS
 10
6.6510033417
 20
12.5719488369
 11
6.6313801255
 21
12.4606600476
  0
LINE
  5
4BE
100
AcDbEntity
  8
AXIS
100
AcDbLine
 62
7
  6
CONTINUOUS
 10
6.631350175
 20
12.4604901899
 11
6.6313183023
 21
12.460309431
  0
LINE
  5
4BF
100
AcDbEntity
  8
0
100
AcDbLine
 62
7
  6
CONTINUOUS
 10
8.5210820818
 20
9.2083409271
 11
6.7494285385
 21
9.2083409271
  0
LINE
  5
4C0
100
AcDbEntity
  8
AXIS
100
AcDbLine
 62
7
  6
CONTINUOUS
 10
8.6293497984
 20
9.2280259665
 11
6.641160822
 21
9.2280259665
  0
LINE
  5
4C1
100
AcDbEntity
  8
0
100
AcDbLine
 62
7
  6
CONTINUOUS
 10
8.2216437254
 20
8.5229566245
 11
8.1861961599
 21
8.5434306716
  0
LINE
  5
4C2
100
AcDbEntity
  8
0
100
AcDbLine
 62
7
  6
CONTINUOUS
 10
8.2216437254
 20
8.5820117426
 11
8.1861961599
 21
8.6024857897
  0
LINE
  5
4C3
100
AcDbEntity
  8
0
100
AcDbLine
 62
7
  6
CONTINUOUS
 10
8.2216437254
 20
8.6410668607
 11
8.1861961599
 21
8.6615409078
  0
LINE
  5
4C4
100
AcDbEntity
  8
0
100
AcDbLine
 62
7
  6
CONTINUOUS
 10
8.2216437254
 20
8.7001219788
 11
8.1861961599
 21
8.7205960259
  0
LWPOLYLINE
  5
4C5
100
AcDbEntity
  8
0
100
AcDbPolyline
 62
7
  6
CONTINUOUS
 90
4
 70
0
 10
6.6512001921
 20
12.460309431
 10
6.6510908328
 20
12.4975216982
 10
6.6510252149
 20
12.5347348932
 10
6.6510033417
 20
12.5719488369
  0
LINE
  5
4C6
100
AcDbEntity
  8
0
100
AcDbLine
 62
7
  6
CONTINUOUS
 10
6.641160822
 20
9.2280259665
 11
6.641160822
 21
9.2719275729
  0
LINE
  5
4C7
100
AcDbEntity
  8
0
100
AcDbLine
 62
7
  6
CONTINUOUS
 10
6.6490348377
 20
9.273301557
 11
6.6490348377
 21
9.80479762
  0
LINE
  5
4C8
100
AcDbEntity
  8
AXIS
100
AcDbLine
 62
7
  6
CONTINUOUS
 10
6.6490348377
 20
10.8756637618
 11
6.6490348377
 21
11.4071598247
  0
LINE
  5
4C9
100
AcDbEntity
  8
AXIS
100
AcDbLine
 62
7
  6
CONTINUOUS
 10
6.6510033417
 20
9.80479762
 11
6.6510033417
 21
10.8756637618
  0
LINE
  5
4CA
100
AcDbEntity
  8
AXIS
100
AcDbLine
 62
7
  6
CONTINUOUS
 10
6.6510033417
 20
11.4071598247
 11
6.6510033417
 21
12.3490315428
  0
LINE
  5
4CB
100
AcDbEntity
  8
0
100
AcDbLine
 62
7
  6
CONTINUOUS
 10
6.6510033417
 20
12.5719488369
 11
6.6510033417
 21
12.8933802972
  0
LWPOLYLINE
  5
4CC
100
AcDbEntity
  8
AXIS
100
AcDbPolyline
 62
7
  6
CONTINUOUS
 90
4
 70
0
 10
6.6510033417
 20
12.3490315428
 10
6.6510252147
 20
12.386245295
 10
6.6510908326
 20
12.4234585848
 10
6.6512001921
 20
12.4606709487
  0
LINE
  5
4CD
100
AcDbEntity
  8
0
100
AcDbLine
 62
7
  6
CONTINUOUS
 10
6.641160822
 20
9.2719275729
 11
8.6293497984
 21
9.2719275729
  0
LINE
  5
4CE
100
AcDbEntity
  8
0
100
AcDbLine
 62
7
  6
CONTINUOUS
 10
6.6510033417
 20
9.273301557
 11
8.6195072787
 21
9.273301557
  0
LINE
  5
4CF
100
AcDbEntity
  8
0
100
AcDbLine
 62
7
  6
CONTINUOUS
 10
8.2218694834
 20
8.1683651492
 11
8.2216437254
 21
8.1686259158
  0
LINE
  5
4D0
100
AcDbEntity
  8
0
100
AcDbLine
 62
7
  6
CONTINUOUS
 10
8.2218694834
 20
8.2274202674
 11
8.2216437254
 21
8.2276810339
  0
LINE
  5
4D1
100
AcDbEntity
  8
0
100
AcDbLine
 62
7
  6
CONTINUOUS
 10
6.7494285385
 20
8.9347188799
 11
6.7494285385
 21
9.2083409271
  0
LINE
  5
4D2
100
AcDbEntity
  8
0
100
AcDbLine
 62
7
  6
CONTINUOUS
 10
6.6490323722
 20
9.2733155396
 11
6.641160822
 21
9.2719275729
  0
LINE
  5
4D3
100
AcDbEntity
  8
0
100
AcDbLine
 62
7
  6
CONTINUOUS
 10
8.6214782481
 20
9.2733155396
 11
8.6293530181
 21
9.2719270052
  0
LINE
  5
4D4
100
AcDbEntity
  8
0
100
AcDbLine
 62
7
  6
CONTINUOUS
 10
8.2218694834
 20
8.2864753855
 11
8.2216437254
 21
8.286736152
  0
LINE
  5
4D5
100
AcDbEntity
  8
0
100
AcDbLine
 62
7
  6
CONTINUOUS
 10
8.2218694834
 20
8.3455305036
 11
8.2216437254
 21
8.3457912701
  0
LINE
  5
4D6
100
AcDbEntity
  8
0
100
AcDbLine
 62
7
  6
CONTINUOUS
 10
8.2218694834
 20
8.4045856217
 11
8.2216437254
 21
8.4048463883
  0
LINE
  5
4D7
100
AcDbEntity
  8
0
100
AcDbLine
 62
7
  6
CONTINUOUS
 10
8.2218694834
 20
8.4636407398
 11
8.2216437254
 21
8.4639015064
  0
LINE
  5
4D8
100
AcDbEntity
  8
0
100
AcDbLine
 62
7
  6
CONTINUOUS
 10
8.2218694834
 20
8.5226958579
 11
8.2216437254
 21
8.5229566245
  0
LINE
  5
4D9
100
AcDbEntity
  8
0
100
AcDbLine
 62
7
  6
CONTINUOUS
 10
7.048641137
 20
8.7293887713
 11
7.048641137
 21
8.7219084563
  0
LINE
  5
4DA
100
AcDbEntity
  8
0
100
AcDbLine
 62
7
  6
CONTINUOUS
 10
7.048641137
 20
8.6703336532
 11
7.048641137
 21
8.6628533382
  0
LINE
  5
4DB
100
AcDbEntity
  8
0
100
AcDbLine
 62
7
  6
CONTINUOUS
 10
7.048641137
 20
8.6112785351
 11
7.048641137
 21
8.6037982201
  0
LINE
  5
4DC
100
AcDbEntity
  8
0
100
AcDbLine
 62
7
  6
CONTINUOUS
 10
7.048641137
 20
8.552223417
 11
7.048641137
 21
8.544743102
  0
LINE
  5
4DD
100
AcDbEntity
  8
0
100
AcDbLine
 62
7
  6
CONTINUOUS
 10
7.048641137
 20
8.4931682988
 11
7.048641137
 21
8.4856879839
  0
LINE
  5
4DE
100
AcDbEntity
  8
0
100
AcDbLine
 62
7
  6
CONTINUOUS
 10
7.048641137
 20
8.4341131807
 11
7.048641137
 21
8.4266328658
  0
LINE
  5
4DF
100
AcDbEntity
  8
0
100
AcDbLine
 62
7
  6
CONTINUOUS
 10
7.048641137
 20
8.3750580626
 11
7.048641137
 21
8.3675777477
  0
LINE
  5
4E0
100
AcDbEntity
  8
0
100
AcDbLine
 62
7
  6
CONTINUOUS
 10
7.048641137
 20
8.3160029445
 11
7.048641137
 21
8.3085226296
  0
LINE
  5
4E1
100
AcDbEntity
  8
0
100
AcDbLine
 62
7
  6
CONTINUOUS
 10
7.048641137
 20
8.2569478264
 11
7.048641137
 21
8.2494675114
  0
LINE
  5
4E2
100
AcDbEntity
  8
0
100
AcDbLine
 62
7
  6
CONTINUOUS
 10
7.048641137
 20
8.1978927083
 11
7.048641137
 21
8.1904123933
  0
LINE
  5
4E3
100
AcDbEntity
  8
0
100
AcDbLine
 62
7
  6
CONTINUOUS
 10
7.048641137
 20
8.1388375902
 11
7.048641137
 21
8.1313572752
  0
LINE
  5
4E4
100
AcDbEntity
  8
0
100
AcDbLine
 62
7
  6
CONTINUOUS
 10
6.6490348377
 20
9.80479762
 11
8.6214757826
 21
9.80479762
  0
LINE
  5
4E5
100
AcDbEntity
  8
0
100
AcDbLine
 62
7
  6
CONTINUOUS
 10
8.2218694834
 20
8.581750976
 11
8.2216437254
 21
8.5820117426
  0
LINE
  5
4E6
100
AcDbEntity
  8
0
100
AcDbLine
 62
7
  6
CONTINUOUS
 10
8.2218694834
 20
8.6408060941
 11
8.2216437254
 21
8.6410668607
  0
LINE
  5
4E7
100
AcDbEntity
  8
0
100
AcDbLine
 62
7
  6
CONTINUOUS
 10
8.2218694834
 20
8.6998612122
 11
8.2216437254
 21
8.7001219788
  0
LINE
  5
4E8
100
AcDbEntity
  8
0
100
AcDbLine
 62
7
  6
CONTINUOUS
 10
7.8719727774
 20
7.6518222304
 11
7.8720391072
 21
7.651640421
  0
LINE
  5
4E9
100
AcDbEntity
  8
0
100
AcDbLine
 62
7
  6
CONTINUOUS
 10
7.3884833005
 20
8.0293537504
 11
7.3827513732
 21
8.056766124
  0
LINE
  5
4EA
100
AcDbEntity
  8
AXIS
100
AcDbLine
 62
7
  6
CONTINUOUS
 10
6.6510033417
 20
12.3490315428
 11
6.6313183023
 21
12.4606709487
  0
LINE
  5
4EB
100
AcDbEntity
  8
AXIS
100
AcDbLine
 62
7
  6
CONTINUOUS
 10
7.0840742078
 20
8.773301557
 11
7.0840742078
 21
8.7498460643
  0
LINE
  5
4EC
100
AcDbEntity
  8
AXIS
100
AcDbLine
 62
7
  6
CONTINUOUS
 10
7.0840742078
 20
8.7014511633
 11
7.0840742078
 21
8.6907909462
  0
LINE
  5
4ED
100
AcDbEntity
  8
AXIS
100
AcDbLine
 62
7
  6
CONTINUOUS
 10
7.0840742078
 20
8.6423960452
 11
7.0840742078
 21
8.6317358281
  0
LINE
  5
4EE
100
AcDbEntity
  8
AXIS
100
AcDbLine
 62
7
  6
CONTINUOUS
 10
7.0840742078
 20
8.5833409271
 11
7.0840742078
 21
8.57268071
  0
LINE
  5
4EF
100
AcDbEntity
  8
AXIS
100
AcDbLine
 62
7
  6
CONTINUOUS
 10
7.0840742078
 20
8.524285809
 11
7.0840742078
 21
8.5136255919
  0
LINE
  5
4F0
100
AcDbEntity
  8
AXIS
100
AcDbLine
 62
7
  6
CONTINUOUS
 10
7.0840742078
 20
8.4652306909
 11
7.0840742078
 21
8.4545704737
  0
LINE
  5
4F1
100
AcDbEntity
  8
AXIS
100
AcDbLine
 62
7
  6
CONTINUOUS
 10
7.0840742078
 20
8.4061755728
 11
7.0840742078
 21
8.3955153556
  0
LINE
  5
4F2
100
AcDbEntity
  8
AXIS
100
AcDbLine
 62
7
  6
CONTINUOUS
 10
7.0840742078
 20
8.3471204547
 11
7.0840742078
 21
8.3364602375
  0
LINE
  5
4F3
100
AcDbEntity
  8
AXIS
100
AcDbLine
 62
7
  6
CONTINUOUS
 10
7.0840742078
 20
8.2880653366
 11
7.0840742078
 21
8.2774051194
  0
LINE
  5
4F4
100
AcDbEntity
  8
AXIS
100
AcDbLine
 62
7
  6
CONTINUOUS
 10
7.0840742078
 20
8.2290102184
 11
7.0840742078
 21
8.2183500013
  0
LINE
  5
4F5
100
AcDbEntity
  8
AXIS
100
AcDbLine
 62
7
  6
CONTINUOUS
 10
7.0840742078
 20
8.1699551003
 11
7.0840742078
 21
8.1592948832
  0
LINE
  5
4F6
100
AcDbEntity
  8
AXIS
100
AcDbLine
 62
7
  6
CONTINUOUS
 10
7.0840742078
 20
8.1108999822
 11
7.0840742078
 21
8.0882621869
  0
LWPOLYLINE
  5
4F7
100
AcDbEntity
  8
0
100
AcDbPolyline
 62
7
  6
CONTINUOUS
 90
6
 70
0
 10
7.5062460179
 20
8.773301557
 10
7.5058852086
 20
8.7830343757
 10
7.504838099
 20
8.7918144784
 10
7.5032071875
 20
8.7987824072
 10
7.5011521192
 20
8.803256093
 10
7.4988740584
 20
8.80479762
  0
LINE
  5
4F8
100
AcDbEntity
  8
02___PRT_ALL_AXES
100
AcDbLine
 62
7
  6
CONTINUOUS
 10
7.3909836566
 20
7.6670023444
 11
7.3909836566
 21
7.6630653366
  0
LINE
  5
4F9
100
AcDbEntity
  8
0
100
AcDbLine
 62
7
  6
CONTINUOUS
 10
7.3909836566
 20
7.7024354153
 11
7.3909836566
 21
7.7063724232
  0
LINE
  5
4FA
100
AcDbEntity
  8
0
100
AcDbLine
 62
7
  6
CONTINUOUS
 10
7.3909836566
 20
7.741805494
 11
7.3909836566
 21
7.7457425019
  0
LINE
  5
4FB
100
AcDbEntity
  8
0
100
AcDbLine
 62
7
  6
CONTINUOUS
 10
7.3909836566
 20
7.7811755728
 11
7.3909836566
 21
7.7851125806
  0
LINE
  5
4FC
100
AcDbEntity
  8
0
100
AcDbLine
 62
7
  6
CONTINUOUS
 10
7.3909836566
 20
7.8205456515
 11
7.3909836566
 21
7.8244826594
  0
LINE
  5
4FD
100
AcDbEntity
  8
0
100
AcDbLine
 62
7
  6
CONTINUOUS
 10
7.3909836566
 20
7.8599157303
 11
7.3909836566
 21
7.8638527381
  0
LINE
  5
4FE
100
AcDbEntity
  8
0
100
AcDbLine
 62
7
  6
CONTINUOUS
 10
7.3909836566
 20
7.899285809
 11
7.3909836566
 21
7.9032228169
  0
LINE
  5
4FF
100
AcDbEntity
  8
0
100
AcDbLine
 62
7
  6
CONTINUOUS
 10
7.3909836566
 20
7.9386558877
 11
7.3909836566
 21
7.9425928956
  0
LINE
  5
500
100
AcDbEntity
  8
0
100
AcDbLine
 62
7
  6
CONTINUOUS
 10
7.3909836566
 20
7.9780259665
 11
7.3909836566
 21
8.0051797244
  0
LINE
  5
501
100
AcDbEntity
  8
0
100
AcDbLine
 62
7
  6
CONTINUOUS
 10
7.4092714012
 20
8.1424041441
 11
7.4092714012
 21
8.149884459
  0
LINE
  5
502
100
AcDbEntity
  8
0
100
AcDbLine
 62
7
  6
CONTINUOUS
 10
7.4092714012
 20
8.2014592622
 11
7.4092714012
 21
8.2089395771
  0
LINE
  5
503
100
AcDbEntity
  8
0
100
AcDbLine
 62
7
  6
CONTINUOUS
 10
7.4092714012
 20
8.2605143803
 11
7.4092714012
 21
8.2679946952
  0
LINE
  5
504
100
AcDbEntity
  8
0
100
AcDbLine
 62
7
  6
CONTINUOUS
 10
7.4092714012
 20
8.3195694984
 11
7.4092714012
 21
8.3270498134
  0
LINE
  5
505
100
AcDbEntity
  8
0
100
AcDbLine
 62
7
  6
CONTINUOUS
 10
7.4092714012
 20
8.3786246165
 11
7.4092714012
 21
8.3861049315
  0
LINE
  5
506
100
AcDbEntity
  8
0
100
AcDbLine
 62
7
  6
CONTINUOUS
 10
7.4092714012
 20
8.4376797346
 11
7.4092714012
 21
8.4451600496
  0
LINE
  5
507
100
AcDbEntity
  8
0
100
AcDbLine
 62
7
  6
CONTINUOUS
 10
7.4092714012
 20
8.4967348527
 11
7.4092714012
 21
8.5042151677
  0
LINE
  5
508
100
AcDbEntity
  8
0
100
AcDbLine
 62
7
  6
CONTINUOUS
 10
7.4092714012
 20
8.5557899708
 11
7.4092714012
 21
8.5632702858
  0
LINE
  5
509
100
AcDbEntity
  8
0
100
AcDbLine
 62
7
  6
CONTINUOUS
 10
7.4092714012
 20
8.6148450889
 11
7.4092714012
 21
8.6223254039
  0
LINE
  5
50A
100
AcDbEntity
  8
0
100
AcDbLine
 62
7
  6
CONTINUOUS
 10
7.4092714012
 20
8.6739002071
 11
7.4092714012
 21
8.681380522
  0
LINE
  5
50B
100
AcDbEntity
  8
0
100
AcDbLine
 62
7
  6
CONTINUOUS
 10
7.4092714012
 20
8.7329553252
 11
7.4092714012
 21
8.7404356401
  0
LINE
  5
50C
100
AcDbEntity
  8
0
100
AcDbLine
 62
7
  6
CONTINUOUS
 10
7.4315151527
 20
7.6236952578
 11
7.4315151527
 21
7.5843251791
  0
LINE
  5
50D
100
AcDbEntity
  8
0
100
AcDbLine
 62
7
  6
CONTINUOUS
 10
7.5062460179
 20
8.0882621869
 11
7.5062460179
 21
8.1234432561
  0
LINE
  5
50E
100
AcDbEntity
  8
0
100
AcDbLine
 62
7
  6
CONTINUOUS
 10
7.5062460179
 20
8.7623893381
 11
7.5062460179
 21
8.773301557
  0
LINE
  5
50F
100
AcDbEntity
  8
0
100
AcDbLine
 62
7
  6
CONTINUOUS
 10
7.5315579307
 20
8.7144360612
 11
7.5315579307
 21
8.7037758441
  0
LINE
  5
510
100
AcDbEntity
  8
0
100
AcDbLine
 62
7
  6
CONTINUOUS
 10
7.5315579307
 20
8.6553809431
 11
7.5315579307
 21
8.6447207259
  0
LINE
  5
511
100
AcDbEntity
  8
0
100
AcDbLine
 62
7
  6
CONTINUOUS
 10
7.5315579307
 20
8.596325825
 11
7.5315579307
 21
8.5856656078
  0
LINE
  5
512
100
AcDbEntity
  8
0
100
AcDbLine
 62
7
  6
CONTINUOUS
 10
7.5315579307
 20
8.5372707069
 11
7.5315579307
 21
8.5266104897
  0
LINE
  5
513
100
AcDbEntity
  8
0
100
AcDbLine
 62
7
  6
CONTINUOUS
 10
7.5315579307
 20
8.4782155888
 11
7.5315579307
 21
8.4675553716
  0
LINE
  5
514
100
AcDbEntity
  8
0
100
AcDbLine
 62
7
  6
CONTINUOUS
 10
7.5315579307
 20
8.4191604706
 11
7.5315579307
 21
8.4085002535
  0
LINE
  5
515
100
AcDbEntity
  8
0
100
AcDbLine
 62
7
  6
CONTINUOUS
 10
7.5315579307
 20
8.3601053525
 11
7.5315579307
 21
8.3494451354
  0
LINE
  5
516
100
AcDbEntity
  8
0
100
AcDbLine
 62
7
  6
CONTINUOUS
 10
7.5315579307
 20
8.3010502344
 11
7.5315579307
 21
8.2903900173
  0
LINE
  5
517
100
AcDbEntity
  8
0
100
AcDbLine
 62
7
  6
CONTINUOUS
 10
7.5315579307
 20
8.2419951163
 11
7.5315579307
 21
8.2313348992
  0
LINE
  5
518
100
AcDbEntity
  8
0
100
AcDbLine
 62
7
  6
CONTINUOUS
 10
7.5315579307
 20
8.1829399982
 11
7.5315579307
 21
8.1722797811
  0
LINE
  5
519
100
AcDbEntity
  8
0
100
AcDbLine
 62
7
  6
CONTINUOUS
 10
7.5523207652
 20
8.056766124
 11
7.5523207652
 21
8.1221989256
  0
LINE
  5
51A
100
AcDbEntity
  8
0
100
AcDbLine
 62
7
  6
CONTINUOUS
 10
7.5523207652
 20
8.7652170208
 11
7.5523207652
 21
8.80479762
  0
LINE
  5
51B
100
AcDbEntity
  8
0
100
AcDbLine
 62
7
  6
CONTINUOUS
 10
7.7181898552
 20
8.056766124
 11
7.7181898552
 21
8.1250565848
  0
LINE
  5
51C
100
AcDbEntity
  8
0
100
AcDbLine
 62
7
  6
CONTINUOUS
 10
7.7181898552
 20
8.7090195619
 11
7.7181898552
 21
8.80479762
  0
LINE
  5
51D
100
AcDbEntity
  8
0
100
AcDbLine
 62
7
  6
CONTINUOUS
 10
7.7389526896
 20
8.1758375444
 11
7.7389526896
 21
8.1864977615
  0
LINE
  5
51E
100
AcDbEntity
  8
0
100
AcDbLine
 62
7
  6
CONTINUOUS
 10
7.7389526896
 20
8.2348926625
 11
7.7389526896
 21
8.2455528796
  0
LINE
  5
51F
100
AcDbEntity
  8
0
100
AcDbLine
 62
7
  6
CONTINUOUS
 10
7.7389526896
 20
8.2939477806
 11
7.7389526896
 21
8.3046079977
  0
LINE
  5
520
100
AcDbEntity
  8
0
100
AcDbLine
 62
7
  6
CONTINUOUS
 10
7.7389526896
 20
8.3530028987
 11
7.7389526896
 21
8.3636631158
  0
LINE
  5
521
100
AcDbEntity
  8
0
100
AcDbLine
 62
7
  6
CONTINUOUS
 10
7.7389526896
 20
8.4120580168
 11
7.7389526896
 21
8.422718234
  0
LINE
  5
522
100
AcDbEntity
  8
0
100
AcDbLine
 62
7
  6
CONTINUOUS
 10
7.7389526896
 20
8.4711131349
 11
7.7389526896
 21
8.4817733521
  0
LINE
  5
523
100
AcDbEntity
  8
0
100
AcDbLine
 62
7
  6
CONTINUOUS
 10
7.7389526896
 20
8.530168253
 11
7.7389526896
 21
8.5408284702
  0
LINE
  5
524
100
AcDbEntity
  8
0
100
AcDbLine
 62
7
  6
CONTINUOUS
 10
7.7389526896
 20
8.5892233711
 11
7.7389526896
 21
8.5998835883
  0
LINE
  5
525
100
AcDbEntity
  8
0
100
AcDbLine
 62
7
  6
CONTINUOUS
 10
7.7389526896
 20
8.6482784893
 11
7.7389526896
 21
8.6589387064
  0
LINE
  5
526
100
AcDbEntity
  8
0
100
AcDbLine
 62
7
  6
CONTINUOUS
 10
7.7642646024
 20
8.773301557
 11
7.7642646024
 21
8.7077752314
  0
LINE
  5
527
100
AcDbEntity
  8
0
100
AcDbLine
 62
7
  6
CONTINUOUS
 10
7.7642646024
 20
8.1278842674
 11
7.7642646024
 21
8.0882621869
  0
LINE
  5
528
100
AcDbEntity
  8
0
100
AcDbLine
 62
7
  6
CONTINUOUS
 10
7.8389954677
 20
7.6236952578
 11
7.8389954677
 21
7.5843251791
  0
LWPOLYLINE
  5
529
100
AcDbEntity
  8
0
100
AcDbPolyline
 62
7
  6
CONTINUOUS
 90
6
 70
0
 10
7.7642646024
 20
8.773301557
 10
7.7646254118
 20
8.7830343757
 10
7.7656725214
 20
8.7918144784
 10
7.7673034329
 20
8.7987824072
 10
7.7693585012
 20
8.803256093
 10
7.771636562
 20
8.80479762
  0
LINE
  5
52A
100
AcDbEntity
  8
0
100
AcDbLine
 62
7
  6
CONTINUOUS
 10
7.8612392192
 20
8.6888143434
 11
7.8612392192
 21
8.6813340284
  0
LINE
  5
52B
100
AcDbEntity
  8
0
100
AcDbLine
 62
7
  6
CONTINUOUS
 10
7.8612392192
 20
8.6297592253
 11
7.8612392192
 21
8.6222789103
  0
LINE
  5
52C
100
AcDbEntity
  8
0
100
AcDbLine
 62
7
  6
CONTINUOUS
 10
7.8612392192
 20
8.5707041072
 11
7.8612392192
 21
8.5632237922
  0
LINE
  5
52D
100
AcDbEntity
  8
0
100
AcDbLine
 62
7
  6
CONTINUOUS
 10
7.8612392192
 20
8.5116489891
 11
7.8612392192
 21
8.5041686741
  0
LINE
  5
52E
100
AcDbEntity
  8
0
100
AcDbLine
 62
7
  6
CONTINUOUS
 10
7.8612392192
 20
8.452593871
 11
7.8612392192
 21
8.445113556
  0
LINE
  5
52F
100
AcDbEntity
  8
0
100
AcDbLine
 62
7
  6
CONTINUOUS
 10
7.8612392192
 20
8.3935387528
 11
7.8612392192
 21
8.3860584379
  0
LINE
  5
530
100
AcDbEntity
  8
0
100
AcDbLine
 62
7
  6
CONTINUOUS
 10
7.8612392192
 20
8.3344836347
 11
7.8612392192
 21
8.3270033198
  0
LINE
  5
531
100
AcDbEntity
  8
0
100
AcDbLine
 62
7
  6
CONTINUOUS
 10
7.8612392192
 20
8.2754285166
 11
7.8612392192
 21
8.2679482017
  0
LINE
  5
532
100
AcDbEntity
  8
0
100
AcDbLine
 62
7
  6
CONTINUOUS
 10
7.8612392192
 20
8.2163733985
 11
7.8612392192
 21
8.2088930836
  0
LINE
  5
533
100
AcDbEntity
  8
0
100
AcDbLine
 62
7
  6
CONTINUOUS
 10
7.8612392192
 20
8.1573182804
 11
7.8612392192
 21
8.1498379654
  0
LINE
  5
534
100
AcDbEntity
  8
0
100
AcDbLine
 62
7
  6
CONTINUOUS
 10
7.8795269637
 20
7.6827503759
 11
7.8795269637
 21
7.6866873838
  0
LINE
  5
535
100
AcDbEntity
  8
0
100
AcDbLine
 62
7
  6
CONTINUOUS
 10
7.8795269637
 20
7.7221204547
 11
7.8795269637
 21
7.7260574625
  0
LINE
  5
536
100
AcDbEntity
  8
0
100
AcDbLine
 62
7
  6
CONTINUOUS
 10
7.8795269637
 20
7.7614905334
 11
7.8795269637
 21
7.7654275413
  0
LINE
  5
537
100
AcDbEntity
  8
0
100
AcDbLine
 62
7
  6
CONTINUOUS
 10
7.8795269637
 20
7.8008606121
 11
7.8795269637
 21
7.80479762
  0
LINE
  5
538
100
AcDbEntity
  8
0
100
AcDbLine
 62
7
  6
CONTINUOUS
 10
7.8795269637
 20
7.8402306909
 11
7.8795269637
 21
7.8441676988
  0
LINE
  5
539
100
AcDbEntity
  8
0
100
AcDbLine
 62
7
  6
CONTINUOUS
 10
7.8795269637
 20
7.8796007696
 11
7.8795269637
 21
7.8835377775
  0
LINE
  5
53A
100
AcDbEntity
  8
0
100
AcDbLine
 62
7
  6
CONTINUOUS
 10
7.8795269637
 20
7.9189708484
 11
7.8795269637
 21
7.9229078562
  0
LINE
  5
53B
100
AcDbEntity
  8
0
100
AcDbLine
 62
7
  6
CONTINUOUS
 10
7.8795269637
 20
7.9583409271
 11
7.8795269637
 21
7.962277935
  0
LINE
  5
53C
100
AcDbEntity
  8
0
100
AcDbLine
 62
7
  6
CONTINUOUS
 10
7.8795269637
 20
7.9977110058
 11
7.8795269637
 21
8.0051797244
  0
LINE
  5
53D
100
AcDbEntity
  8
AXIS
100
AcDbLine
 62
7
  6
CONTINUOUS
 10
8.1864364126
 20
8.773301557
 11
8.1864364126
 21
8.7203185052
  0
LINE
  5
53E
100
AcDbEntity
  8
AXIS
100
AcDbLine
 62
7
  6
CONTINUOUS
 10
8.1864364126
 20
8.6719236043
 11
8.1864364126
 21
8.6612633871
  0
LINE
  5
53F
100
AcDbEntity
  8
AXIS
100
AcDbLine
 62
7
  6
CONTINUOUS
 10
8.1864364126
 20
8.6128684862
 11
8.1864364126
 21
8.602208269
  0
LINE
  5
540
100
AcDbEntity
  8
AXIS
100
AcDbLine
 62
7
  6
CONTINUOUS
 10
8.1864364126
 20
8.553813368
 11
8.1864364126
 21
8.5431531509
  0
LINE
  5
541
100
AcDbEntity
  8
AXIS
100
AcDbLine
 62
7
  6
CONTINUOUS
 10
8.1864364126
 20
8.4947582499
 11
8.1864364126
 21
8.4840980328
  0
LINE
  5
542
100
AcDbEntity
  8
AXIS
100
AcDbLine
 62
7
  6
CONTINUOUS
 10
8.1864364126
 20
8.4357031318
 11
8.1864364126
 21
8.4250429147
  0
LINE
  5
543
100
AcDbEntity
  8
AXIS
100
AcDbLine
 62
7
  6
CONTINUOUS
 10
8.1864364126
 20
8.3766480137
 11
8.1864364126
 21
8.3659877966
  0
LINE
  5
544
100
AcDbEntity
  8
AXIS
100
AcDbLine
 62
7
  6
CONTINUOUS
 10
8.1864364126
 20
8.3175928956
 11
8.1864364126
 21
8.3069326785
  0
LINE
  5
545
100
AcDbEntity
  8
AXIS
100
AcDbLine
 62
7
  6
CONTINUOUS
 10
8.1864364126
 20
8.2585377775
 11
8.1864364126
 21
8.2478775604
  0
LINE
  5
546
100
AcDbEntity
  8
AXIS
100
AcDbLine
 62
7
  6
CONTINUOUS
 10
8.1864364126
 20
8.1994826594
 11
8.1864364126
 21
8.1888224422
  0
LINE
  5
547
100
AcDbEntity
  8
AXIS
100
AcDbLine
 62
7
  6
CONTINUOUS
 10
8.1864364126
 20
8.1404275413
 11
8.1864364126
 21
8.0882621869
  0
LINE
  5
548
100
AcDbEntity
  8
0
100
AcDbLine
 62
7
  6
CONTINUOUS
 10
8.2218694834
 20
8.1608848343
 11
8.2218694834
 21
8.1683651492
  0
LINE
  5
549
100
AcDbEntity
  8
0
100
AcDbLine
 62
7
  6
CONTINUOUS
 10
8.2218694834
 20
8.2199399524
 11
8.2218694834
 21
8.2274202674
  0
LINE
  5
54A
100
AcDbEntity
  8
0
100
AcDbLine
 62
7
  6
CONTINUOUS
 10
8.2218694834
 20
8.2789950705
 11
8.2218694834
 21
8.2864753855
  0
LINE
  5
54B
100
AcDbEntity
  8
0
100
AcDbLine
 62
7
  6
CONTINUOUS
 10
8.2218694834
 20
8.3380501886
 11
8.2218694834
 21
8.3455305036
  0
LINE
  5
54C
100
AcDbEntity
  8
0
100
AcDbLine
 62
7
  6
CONTINUOUS
 10
8.2218694834
 20
8.3971053067
 11
8.2218694834
 21
8.4045856217
  0
LINE
  5
54D
100
AcDbEntity
  8
0
100
AcDbLine
 62
7
  6
CONTINUOUS
 10
8.2218694834
 20
8.4561604248
 11
8.2218694834
 21
8.4636407398
  0
LINE
  5
54E
100
AcDbEntity
  8
0
100
AcDbLine
 62
7
  6
CONTINUOUS
 10
8.2218694834
 20
8.5152155429
 11
8.2218694834
 21
8.5226958579
  0
LINE
  5
54F
100
AcDbEntity
  8
0
100
AcDbLine
 62
7
  6
CONTINUOUS
 10
8.2218694834
 20
8.5742706611
 11
8.2218694834
 21
8.581750976
  0
LINE
  5
550
100
AcDbEntity
  8
0
100
AcDbLine
 62
7
  6
CONTINUOUS
 10
8.2218694834
 20
8.6333257792
 11
8.2218694834
 21
8.6408060941
  0
LINE
  5
551
100
AcDbEntity
  8
0
100
AcDbLine
 62
7
  6
CONTINUOUS
 10
8.2218694834
 20
8.6923808973
 11
8.2218694834
 21
8.6998612122
  0
LINE
  5
552
100
AcDbEntity
  8
AXIS
100
AcDbLine
 62
7
  6
CONTINUOUS
 10
6.6490348377
 20
10.8756637618
 11
8.6214757826
 21
10.8756637618
  0
LINE
  5
553
100
AcDbEntity
  8
0
100
AcDbLine
 62
7
  6
CONTINUOUS
 10
7.8820273199
 20
8.0293537504
 11
7.8877592472
 21
8.056766124
  0
LINE
  5
554
100
AcDbEntity
  8
0
100
AcDbLine
 62
7
  6
CONTINUOUS
 10
7.4110213127
 20
7.6393525001
 11
7.4109513298
 21
7.6391606071
  0
LINE
  5
555
100
AcDbEntity
  8
0
100
AcDbLine
 62
7
  6
CONTINUOUS
 10
7.048641137
 20
8.7293887713
 11
7.048866895
 21
8.7296495379
  0
LINE
  5
556
100
AcDbEntity
  8
0
100
AcDbLine
 62
7
  6
CONTINUOUS
 10
7.048641137
 20
8.6703336532
 11
7.048866895
 21
8.6705944197
  0
LINE
  5
557
100
AcDbEntity
  8
0
100
AcDbLine
 62
7
  6
CONTINUOUS
 10
7.048641137
 20
8.6112785351
 11
7.048866895
 21
8.6115393016
  0
LINE
  5
558
100
AcDbEntity
  8
0
100
AcDbLine
 62
7
  6
CONTINUOUS
 10
7.048641137
 20
8.552223417
 11
7.048866895
 21
8.5524841835
  0
LINE
  5
559
100
AcDbEntity
  8
0
100
AcDbLine
 62
7
  6
CONTINUOUS
 10
7.048641137
 20
8.4931682988
 11
7.048866895
 21
8.4934290654
  0
LINE
  5
55A
100
AcDbEntity
  8
0
100
AcDbLine
 62
7
  6
CONTINUOUS
 10
8.5210820818
 20
8.9347188799
 11
8.5210820818
 21
9.2083409271
  0
LINE
  5
55B
100
AcDbEntity
  8
AXIS
100
AcDbLine
 62
7
  6
CONTINUOUS
 10
8.6195072787
 20
9.80479762
 11
8.6195072787
 21
10.8756637618
  0
LINE
  5
55C
100
AcDbEntity
  8
AXIS
100
AcDbLine
 62
7
  6
CONTINUOUS
 10
8.6195072787
 20
11.4071598247
 11
8.6195072787
 21
12.4606709487
  0
LINE
  5
55D
100
AcDbEntity
  8
0
100
AcDbLine
 62
7
  6
CONTINUOUS
 10
8.6195072787
 20
12.460309431
 11
8.6195072787
 21
12.8933802972
  0
LINE
  5
55E
100
AcDbEntity
  8
0
100
AcDbLine
 62
7
  6
CONTINUOUS
 10
8.6214757826
 20
9.273301557
 11
8.6214757826
 21
9.80479762
  0
LINE
  5
55F
100
AcDbEntity
  8
AXIS
100
AcDbLine
 62
7
  6
CONTINUOUS
 10
8.6214757826
 20
10.8756637618
 11
8.6214757826
 21
11.4071598247
  0
LINE
  5
560
100
AcDbEntity
  8
0
100
AcDbLine
 62
7
  6
CONTINUOUS
 10
8.6293497984
 20
9.2280259665
 11
8.6293497984
 21
9.2719275729
  0
LINE
  5
561
100
AcDbEntity
  8
0
100
AcDbLine
 62
7
  6
CONTINUOUS
 10
7.048641137
 20
8.4341131807
 11
7.048866895
 21
8.4343739473
  0
LINE
  5
562
100
AcDbEntity
  8
0
100
AcDbLine
 62
7
  6
CONTINUOUS
 10
7.048641137
 20
8.3750580626
 11
7.048866895
 21
8.3753188292
  0
LINE
  5
563
100
AcDbEntity
  8
0
100
AcDbLine
 62
7
  6
CONTINUOUS
 10
7.048641137
 20
8.3160029445
 11
7.048866895
 21
8.3162637111
  0
LINE
  5
564
100
AcDbEntity
  8
0
100
AcDbLine
 62
7
  6
CONTINUOUS
 10
7.048641137
 20
8.2569478264
 11
7.048866895
 21
8.257208593
  0
LINE
  5
565
100
AcDbEntity
  8
0
100
AcDbLine
 62
7
  6
CONTINUOUS
 10
7.048641137
 20
8.1978927083
 11
7.048866895
 21
8.1981534749
  0
LINE
  5
566
100
AcDbEntity
  8
AXIS
100
AcDbLine
 62
7
  6
CONTINUOUS
 10
6.6490348377
 20
11.4071598247
 11
8.6214757826
 21
11.4071598247
  0
LINE
  5
567
100
AcDbEntity
  8
0
100
AcDbLine
 62
7
  6
CONTINUOUS
 10
7.048641137
 20
8.1388375902
 11
7.048866895
 21
8.1390983568
  0
LINE
  5
568
100
AcDbEntity
  8
0
100
AcDbLine
 62
7
  6
CONTINUOUS
 10
7.0843144605
 20
8.750123585
 11
7.048866895
 21
8.7296495379
  0
LINE
  5
569
100
AcDbEntity
  8
0
100
AcDbLine
 62
7
  6
CONTINUOUS
 10
7.0843144605
 20
8.6910684669
 11
7.048866895
 21
8.6705944197
  0
LINE
  5
56A
100
AcDbEntity
  8
0
100
AcDbLine
 62
7
  6
CONTINUOUS
 10
7.0843144605
 20
8.6320133488
 11
7.048866895
 21
8.6115393016
  0
LINE
  5
56B
100
AcDbEntity
  8
0
100
AcDbLine
 62
7
  6
CONTINUOUS
 10
7.0843144605
 20
8.5729582306
 11
7.048866895
 21
8.5524841835
  0
LINE
  5
56C
100
AcDbEntity
  8
0
100
AcDbLine
 62
7
  6
CONTINUOUS
 10
7.0843144605
 20
8.5139031125
 11
7.048866895
 21
8.4934290654
  0
LINE
  5
56D
100
AcDbEntity
  8
0
100
AcDbLine
 62
7
  6
CONTINUOUS
 10
7.0843144605
 20
8.4548479944
 11
7.048866895
 21
8.4343739473
  0
LWPOLYLINE
  5
56E
100
AcDbEntity
  8
0
100
AcDbPolyline
 62
7
  6
CONTINUOUS
 90
10
 70
0
 10
7.0840742078
 20
8.7014511633
 10
7.0858933647
 20
8.7022149993
 10
7.1003748864
 20
8.7037426879
 10
7.1289564916
 20
8.7052703863
 10
7.1708838003
 20
8.7067980566
 10
7.2250505188
 20
8.7083256889
 10
7.2900292122
 20
8.7098533094
 10
7.3641075998
 20
8.7113809314
 10
7.4453309224
 20
8.7129085152
 10
7.5315579307
 20
8.7144360612
  0
LWPOLYLINE
  5
56F
100
AcDbEntity
  8
0
100
AcDbPolyline
 62
7
  6
CONTINUOUS
 90
10
 70
0
 10
7.0840742078
 20
8.6423960452
 10
7.0858933678
 20
8.6431598818
 10
7.1003749099
 20
8.6446875715
 10
7.1289565377
 20
8.6462152702
 10
7.1708838367
 20
8.6477429396
 10
7.2250505577
 20
8.6492705718
 10
7.2900293225
 20
8.6507981937
 10
7.364107649
 20
8.6523258143
 10
7.4453311755
 20
8.6538534017
 10
7.5315579307
 20
8.6553809431
  0
LWPOLYLINE
  5
570
100
AcDbEntity
  8
0
100
AcDbPolyline
 62
7
  6
CONTINUOUS
 90
9
 70
0
 10
7.048641137
 20
8.7219084563
 10
7.0504410059
 20
8.7226449143
 10
7.0647737559
 20
8.7241178301
 10
7.0930879859
 20
8.7255907459
 10
7.1346897649
 20
8.7270636618
 10
7.1885595078
 20
8.7285365776
 10
7.253376964
 20
8.7300094935
 10
7.3275535736
 20
8.7314824093
 10
7.4092714012
 20
8.7329553252
  0
LWPOLYLINE
  5
571
100
AcDbEntity
  8
0
100
AcDbPolyline
 62
7
  6
CONTINUOUS
 90
9
 70
0
 10
7.048641137
 20
8.6628533382
 10
7.0504410059
 20
8.6635897961
 10
7.0647737559
 20
8.665062712
 10
7.0930879859
 20
8.6665356278
 10
7.1346897649
 20
8.6680085437
 10
7.1885595078
 20
8.6694814595
 10
7.253376964
 20
8.6709543754
 10
7.3275535736
 20
8.6724272912
 10
7.4092714012
 20
8.6739002071
  0
LINE
  5
572
100
AcDbEntity
  8
0
100
AcDbLine
 62
7
  6
CONTINUOUS
 10
7.3912243963
 20
7.9428711067
 11
7.3909836566
 21
7.9425928956
  0
LINE
  5
573
100
AcDbEntity
  8
0
100
AcDbLine
 62
7
  6
CONTINUOUS
 10
7.3912243963
 20
7.9035010279
 11
7.3909836566
 21
7.9032228169
  0
LINE
  5
574
100
AcDbEntity
  8
0
100
AcDbLine
 62
7
  6
CONTINUOUS
 10
7.3912243963
 20
7.8641309492
 11
7.3909836566
 21
7.8638527381
  0
LINE
  5
575
100
AcDbEntity
  8
0
100
AcDbLine
 62
7
  6
CONTINUOUS
 10
7.3912243963
 20
7.8247608704
 11
7.3909836566
 21
7.8244826594
  0
LINE
  5
576
100
AcDbEntity
  8
0
100
AcDbLine
 62
7
  6
CONTINUOUS
 10
7.3912243963
 20
7.7853907917
 11
7.3909836566
 21
7.7851125806
  0
LINE
  5
577
100
AcDbEntity
  8
0
100
AcDbLine
 62
7
  6
CONTINUOUS
 10
7.3912243963
 20
7.746020713
 11
7.3909836566
 21
7.7457425019
  0
LINE
  5
578
100
AcDbEntity
  8
0
100
AcDbLine
 62
7
  6
CONTINUOUS
 10
7.3912243963
 20
7.7066506342
 11
7.3909836566
 21
7.7063724232
  0
LINE
  5
579
100
AcDbEntity
  8
0
100
AcDbLine
 62
7
  6
CONTINUOUS
 10
7.3909836566
 20
7.6670023444
 11
7.3912243963
 21
7.6672805555
  0
LINE
  5
57A
100
AcDbEntity
  8
0
100
AcDbLine
 62
7
  6
CONTINUOUS
 10
8.2216437254
 20
8.6921201307
 11
8.2218694834
 21
8.6923808973
  0
LINE
  5
57B
100
AcDbEntity
  8
0
100
AcDbLine
 62
7
  6
CONTINUOUS
 10
8.2216437254
 20
8.6330650126
 11
8.2218694834
 21
8.6333257792
  0
LINE
  5
57C
100
AcDbEntity
  8
0
100
AcDbLine
 62
7
  6
CONTINUOUS
 10
7.0843144605
 20
8.3957928763
 11
7.048866895
 21
8.3753188292
  0
LINE
  5
57D
100
AcDbEntity
  8
0
100
AcDbLine
 62
7
  6
CONTINUOUS
 10
7.0843144605
 20
8.3367377582
 11
7.048866895
 21
8.3162637111
  0
LINE
  5
57E
100
AcDbEntity
  8
0
100
AcDbLine
 62
7
  6
CONTINUOUS
 10
7.0843144605
 20
8.2776826401
 11
7.048866895
 21
8.257208593
  0
LINE
  5
57F
100
AcDbEntity
  8
0
100
AcDbLine
 62
7
  6
CONTINUOUS
 10
7.0843144605
 20
8.218627522
 11
7.048866895
 21
8.1981534749
  0
LWPOLYLINE
  5
580
100
AcDbEntity
  8
0
100
AcDbPolyline
 62
7
  6
CONTINUOUS
 90
10
 70
0
 10
7.0840742078
 20
8.5833409271
 10
7.08589337
 20
8.5841047642
 10
7.1003749289
 20
8.5856324547
 10
7.1289565777
 20
8.5871601538
 10
7.1708838853
 20
8.588687823
 10
7.2250505944
 20
8.5902154546
 10
7.2900293748
 20
8.5917430767
 10
7.3641077362
 20
8.5932706979
 10
7.4453312561
 20
8.5947982851
 10
7.5315579307
 20
8.596325825
  0
LWPOLYLINE
  5
581
100
AcDbEntity
  8
0
100
AcDbPolyline
 62
7
  6
CONTINUOUS
 90
10
 70
0
 10
7.0840742078
 20
8.524285809
 10
7.0858933725
 20
8.5250496466
 10
7.1003749488
 20
8.526577338
 10
7.1289566186
 20
8.5281050375
 10
7.1708839345
 20
8.5296327065
 10
7.2250506335
 20
8.5311603375
 10
7.2900294309
 20
8.5326879598
 10
7.3641078264
 20
8.5342155815
 10
7.4453313385
 20
8.5357431685
 10
7.5315579307
 20
8.5372707069
  0
LWPOLYLINE
  5
582
100
AcDbEntity
  8
0
100
AcDbPolyline
 62
7
  6
CONTINUOUS
 90
10
 70
0
 10
7.0840742078
 20
8.4652306909
 10
7.0858933667
 20
8.4659945273
 10
7.1003749007
 20
8.4675222165
 10
7.128956518
 20
8.469049915
 10
7.1708838125
 20
8.4705775845
 10
7.2250505401
 20
8.472105217
 10
7.2900292976
 20
8.4736328388
 10
7.3641076063
 20
8.4751604591
 10
7.4453311361
 20
8.4766880467
 10
7.5315579307
 20
8.4782155888
  0
LWPOLYLINE
  5
583
100
AcDbEntity
  8
0
100
AcDbPolyline
 62
7
  6
CONTINUOUS
 90
9
 70
0
 10
7.048641137
 20
8.6037982201
 10
7.0504410059
 20
8.604534678
 10
7.0647737559
 20
8.6060075939
 10
7.0930879859
 20
8.6074805097
 10
7.1346897649
 20
8.6089534256
 10
7.1885595078
 20
8.6104263414
 10
7.253376964
 20
8.6118992573
 10
7.3275535736
 20
8.6133721731
 10
7.4092714012
 20
8.6148450889
  0
LWPOLYLINE
  5
584
100
AcDbEntity
  8
0
100
AcDbPolyline
 62
7
  6
CONTINUOUS
 90
9
 70
0
 10
7.048641137
 20
8.544743102
 10
7.0504410059
 20
8.5454795599
 10
7.0647737559
 20
8.5469524758
 10
7.0930879859
 20
8.5484253916
 10
7.1346897649
 20
8.5498983075
 10
7.1885595078
 20
8.5513712233
 10
7.253376964
 20
8.5528441391
 10
7.3275535736
 20
8.554317055
 10
7.4092714012
 20
8.5557899708
  0
LWPOLYLINE
  5
585
100
AcDbEntity
  8
0
100
AcDbPolyline
 62
7
  6
CONTINUOUS
 90
6
 70
0
 10
7.048641137
 20
8.4856879839
 10
7.0504410059
 20
8.4864244418
 10
7.0647737559
 20
8.4878973577
 10
7.0930879859
 20
8.4893702735
 10
7.1346897649
 20
8.4908431893
 10
7.1885595078
 20
8.4923161052
  0
LWPOLYLINE
  5
586
100
AcDbEntity
  8
0
100
AcDbPolyline
 62
7
  6
CONTINUOUS
 90
9
 70
0
 10
7.048641137
 20
8.4266328658
 10
7.0504410059
 20
8.4273693237
 10
7.0647737559
 20
8.4288422395
 10
7.0930879859
 20
8.4303151554
 10
7.1346897649
 20
8.4317880712
 10
7.1885595078
 20
8.4332609871
 10
7.253376964
 20
8.4347339029
 10
7.3275535736
 20
8.4362068188
 10
7.4092714012
 20
8.4376797346
  0
LWPOLYLINE
  5
587
100
AcDbEntity
  8
0
100
AcDbPolyline
 62
7
  6
CONTINUOUS
 90
9
 70
0
 10
7.048866895
 20
8.7296495379
 10
7.0504410059
 20
8.7301252292
 10
7.0647737559
 20
8.7315981451
 10
7.0930879859
 20
8.7330710609
 10
7.1346897649
 20
8.7345439767
 10
7.1885595078
 20
8.7360168926
 10
7.253376964
 20
8.7374898084
 10
7.3275535736
 20
8.7389627243
 10
7.4092714012
 20
8.7404356401
  0
LWPOLYLINE
  5
588
100
AcDbEntity
  8
0
100
AcDbPolyline
 62
7
  6
CONTINUOUS
 90
9
 70
0
 10
7.048866895
 20
8.6705944197
 10
7.0504410059
 20
8.6710701111
 10
7.0647737559
 20
8.6725430269
 10
7.0930879859
 20
8.6740159428
 10
7.1346897649
 20
8.6754888586
 10
7.1885595078
 20
8.6769617745
 10
7.253376964
 20
8.6784346903
 10
7.3275535736
 20
8.6799076062
 10
7.4092714012
 20
8.681380522
  0
LWPOLYLINE
  5
589
100
AcDbEntity
  8
0
100
AcDbPolyline
 62
7
  6
CONTINUOUS
 90
9
 70
0
 10
7.048866895
 20
8.6115393016
 10
7.0504410059
 20
8.612014993
 10
7.0647737559
 20
8.6134879088
 10
7.0930879859
 20
8.6149608247
 10
7.1346897649
 20
8.6164337405
 10
7.1885595078
 20
8.6179066564
 10
7.253376964
 20
8.6193795722
 10
7.3275535736
 20
8.6208524881
 10
7.4092714012
 20
8.6223254039
  0
LWPOLYLINE
  5
58A
100
AcDbEntity
  8
0
100
AcDbPolyline
 62
7
  6
CONTINUOUS
 90
9
 70
0
 10
7.048866895
 20
8.5524841835
 10
7.0504410059
 20
8.5529598749
 10
7.0647737559
 20
8.5544327907
 10
7.0930879859
 20
8.5559057066
 10
7.1346897649
 20
8.5573786224
 10
7.1885595078
 20
8.5588515383
 10
7.253376964
 20
8.5603244541
 10
7.3275535736
 20
8.5617973699
 10
7.4092714012
 20
8.5632702858
  0
LINE
  5
58B
100
AcDbEntity
  8
0
100
AcDbLine
 62
7
  6
CONTINUOUS
 10
7.8782893628
 20
7.9962758815
 11
7.8795269637
 21
7.9977110058
  0
LINE
  5
58C
100
AcDbEntity
  8
0
100
AcDbLine
 62
7
  6
CONTINUOUS
 10
7.879286224
 20
7.958062716
 11
7.8795269637
 21
7.9583409271
  0
LINE
  5
58D
100
AcDbEntity
  8
0
100
AcDbLine
 62
7
  6
CONTINUOUS
 10
7.879286224
 20
7.9186926373
 11
7.8795269637
 21
7.9189708484
  0
LINE
  5
58E
100
AcDbEntity
  8
0
100
AcDbLine
 62
7
  6
CONTINUOUS
 10
8.2216437254
 20
8.5740098945
 11
8.2218694834
 21
8.5742706611
  0
LINE
  5
58F
100
AcDbEntity
  8
0
100
AcDbLine
 62
7
  6
CONTINUOUS
 10
8.2216437254
 20
8.5149547764
 11
8.2218694834
 21
8.5152155429
  0
LINE
  5
590
100
AcDbEntity
  8
0
100
AcDbLine
 62
7
  6
CONTINUOUS
 10
8.2216437254
 20
8.4558996583
 11
8.2218694834
 21
8.4561604248
  0
LINE
  5
591
100
AcDbEntity
  8
0
100
AcDbLine
 62
7
  6
CONTINUOUS
 10
8.2216437254
 20
8.3968445401
 11
8.2218694834
 21
8.3971053067
  0
LINE
  5
592
100
AcDbEntity
  8
0
100
AcDbLine
 62
7
  6
CONTINUOUS
 10
8.2216437254
 20
8.337789422
 11
8.2218694834
 21
8.3380501886
  0
LINE
  5
593
100
AcDbEntity
  8
0
100
AcDbLine
 62
7
  6
CONTINUOUS
 10
7.0843144605
 20
8.1595724039
 11
7.048866895
 21
8.1390983568
  0
LINE
  5
594
100
AcDbEntity
  8
0
100
AcDbLine
 62
7
  6
CONTINUOUS
 10
8.1861961599
 20
8.6716460836
 11
8.2216437254
 21
8.6921201307
  0
LWPOLYLINE
  5
595
100
AcDbEntity
  8
0
100
AcDbPolyline
 62
7
  6
CONTINUOUS
 90
10
 70
0
 10
8.1864364126
 20
8.7203185052
 10
8.1847388907
 20
8.7195806609
 10
8.1712209603
 20
8.7181049411
 10
8.1445174239
 20
8.7166292172
 10
8.105286259
 20
8.7151535263
 10
8.0544926336
 20
8.7136778488
 10
7.9933851543
 20
8.7122021576
 10
7.923467506
 20
8.7107264663
 10
7.8464620792
 20
8.7092508188
 10
7.7642646024
 20
8.7077752314
  0
LWPOLYLINE
  5
596
100
AcDbEntity
  8
0
100
AcDbPolyline
 62
7
  6
CONTINUOUS
 90
6
 70
0
 10
7.0840742078
 20
8.4061755728
 10
7.0858933689
 20
8.4069394096
 10
7.1003749193
 20
8.4084670997
 10
7.1289565576
 20
8.4099947986
 10
7.170883861
 20
8.4115224679
 10
7.2250505758
 20
8.4130500998
  0
LWPOLYLINE
  5
597
100
AcDbEntity
  8
0
100
AcDbPolyline
 62
7
  6
CONTINUOUS
 90
10
 70
0
 10
7.0840742078
 20
8.3471204547
 10
7.0858933712
 20
8.347884292
 10
7.1003749387
 20
8.349411983
 10
7.1289565979
 20
8.3509396823
 10
7.1708839097
 20
8.3524673514
 10
7.2250506136
 20
8.3539949826
 10
7.2900294023
 20
8.3555226049
 10
7.3641077809
 20
8.3570502263
 10
7.4453312971
 20
8.3585778134
 10
7.5315579307
 20
8.3601053525
  0
LWPOLYLINE
  5
598
100
AcDbEntity
  8
0
100
AcDbPolyline
 62
7
  6
CONTINUOUS
 90
10
 70
0
 10
7.0840742078
 20
8.2880653366
 10
7.0858933647
 20
8.2888291725
 10
7.1003748864
 20
8.2903568612
 10
7.1289564916
 20
8.2918845596
 10
7.1708838003
 20
8.2934122298
 10
7.2250505188
 20
8.2949398621
 10
7.2900292122
 20
8.2964674826
 10
7.3641075998
 20
8.2979951046
 10
7.4453309224
 20
8.2995226885
 10
7.5315579307
 20
8.3010502344
  0
LWPOLYLINE
  5
599
100
AcDbEntity
  8
0
100
AcDbPolyline
 62
7
  6
CONTINUOUS
 90
6
 70
0
 10
7.0840742078
 20
8.2290102184
 10
7.0858933678
 20
8.2297740551
 10
7.1003749099
 20
8.2313017447
 10
7.1289565377
 20
8.2328294435
 10
7.1708838367
 20
8.2343571128
 10
7.2250505577
 20
8.235884745
  0
LWPOLYLINE
  5
59A
100
AcDbEntity
  8
0
100
AcDbPolyline
 62
7
  6
CONTINUOUS
 90
8
 70
0
 10
8.1864364126
 20
8.6612633871
 10
8.1846172525
 20
8.6604995505
 10
8.1701359203
 20
8.6589718757
 10
8.1415552631
 20
8.657444213
 10
8.0996291134
 20
8.6559165665
 10
8.0454623324
 20
8.6543889185
 10
7.9804824552
 20
8.652861264
 10
7.9064038383
 20
8.6513336351
  0
LWPOLYLINE
  5
59B
100
AcDbEntity
  8
0
100
AcDbPolyline
 62
7
  6
CONTINUOUS
 90
7
 70
0
 10
7.048641137
 20
8.3675777477
 10
7.0504410059
 20
8.3683142056
 10
7.0647737559
 20
8.3697871214
 10
7.0930879859
 20
8.3712600373
 10
7.1346897649
 20
8.3727329531
 10
7.1885595078
 20
8.374205869
 10
7.253376964
 20
8.3756787848
  0
LWPOLYLINE
  5
59C
100
AcDbEntity
  8
0
100
AcDbPolyline
 62
7
  6
CONTINUOUS
 90
9
 70
0
 10
7.048641137
 20
8.3085226296
 10
7.0504410059
 20
8.3092590875
 10
7.0647737559
 20
8.3107320033
 10
7.0930879859
 20
8.3122049192
 10
7.1346897649
 20
8.313677835
 10
7.1885595078
 20
8.3151507509
 10
7.253376964
 20
8.3166236667
 10
7.3275535736
 20
8.3180965825
 10
7.4092714012
 20
8.3195694984
  0
LWPOLYLINE
  5
59D
100
AcDbEntity
  8
0
100
AcDbPolyline
 62
7
  6
CONTINUOUS
 90
8
 70
0
 10
7.048641137
 20
8.2494675114
 10
7.0504410059
 20
8.2502039694
 10
7.0647737559
 20
8.2516768852
 10
7.0930879859
 20
8.2531498011
 10
7.1346897649
 20
8.2546227169
 10
7.1885595078
 20
8.2560956327
 10
7.253376964
 20
8.2575685486
 10
7.3275535736
 20
8.2590414644
  0
LWPOLYLINE
  5
59E
100
AcDbEntity
  8
0
100
AcDbPolyline
 62
7
  6
CONTINUOUS
 90
9
 70
0
 10
7.048866895
 20
8.4934290654
 10
7.0504410059
 20
8.4939047568
 10
7.0647737559
 20
8.4953776726
 10
7.0930879859
 20
8.4968505885
 10
7.1346897649
 20
8.4983235043
 10
7.1885595078
 20
8.4997964201
 10
7.253376964
 20
8.501269336
 10
7.3275535736
 20
8.5027422518
 10
7.4092714012
 20
8.5042151677
  0
LWPOLYLINE
  5
59F
100
AcDbEntity
  8
0
100
AcDbPolyline
 62
7
  6
CONTINUOUS
 90
9
 70
0
 10
7.048866895
 20
8.4343739473
 10
7.0504410059
 20
8.4348496387
 10
7.0647737559
 20
8.4363225545
 10
7.0930879859
 20
8.4377954703
 10
7.1346897649
 20
8.4392683862
 10
7.1885595078
 20
8.440741302
 10
7.253376964
 20
8.4422142179
 10
7.3275535736
 20
8.4436871337
 10
7.4092714012
 20
8.4451600496
  0
LWPOLYLINE
  5
5A0
100
AcDbEntity
  8
0
100
AcDbPolyline
 62
7
  6
CONTINUOUS
 90
9
 70
0
 10
7.048866895
 20
8.3753188292
 10
7.0504410059
 20
8.3757945205
 10
7.0647737559
 20
8.3772674364
 10
7.0930879859
 20
8.3787403522
 10
7.1346897649
 20
8.3802132681
 10
7.1885595078
 20
8.3816861839
 10
7.253376964
 20
8.3831590998
 10
7.3275535736
 20
8.3846320156
 10
7.4092714012
 20
8.3861049315
  0
LINE
  5
5A1
100
AcDbEntity
  8
0
100
AcDbLine
 62
7
  6
CONTINUOUS
 10
7.879286224
 20
7.8793225586
 11
7.8795269637
 21
7.8796007696
  0
LINE
  5
5A2
100
AcDbEntity
  8
0
100
AcDbLine
 62
7
  6
CONTINUOUS
 10
7.879286224
 20
7.8399524798
 11
7.8795269637
 21
7.8402306909
  0
LINE
  5
5A3
100
AcDbEntity
  8
0
100
AcDbLine
 62
7
  6
CONTINUOUS
 10
7.879286224
 20
7.8005824011
 11
7.8795269637
 21
7.8008606121
  0
LINE
  5
5A4
100
AcDbEntity
  8
0
100
AcDbLine
 62
7
  6
CONTINUOUS
 10
7.879286224
 20
7.7612123223
 11
7.8795269637
 21
7.7614905334
  0
LINE
  5
5A5
100
AcDbEntity
  8
0
100
AcDbLine
 62
7
  6
CONTINUOUS
 10
7.879286224
 20
7.7218422436
 11
7.8795269637
 21
7.7221204547
  0
LINE
  5
5A6
100
AcDbEntity
  8
0
100
AcDbLine
 62
7
  6
CONTINUOUS
 10
7.8795269637
 20
7.6827503759
 11
7.879286224
 21
7.6824721649
  0
LINE
  5
5A7
100
AcDbEntity
  8
0
100
AcDbLine
 62
7
  6
CONTINUOUS
 10
8.2216437254
 20
8.2787343039
 11
8.2218694834
 21
8.2789950705
  0
LINE
  5
5A8
100
AcDbEntity
  8
0
100
AcDbLine
 62
7
  6
CONTINUOUS
 10
8.2216437254
 20
8.2196791858
 11
8.2218694834
 21
8.2199399524
  0
LINE
  5
5A9
100
AcDbEntity
  8
0
100
AcDbLine
 62
7
  6
CONTINUOUS
 10
8.2216437254
 20
8.1606240677
 11
8.2218694834
 21
8.1608848343
  0
LWPOLYLINE
  5
5AA
100
AcDbEntity
  8
0
100
AcDbPolyline
 62
7
  6
CONTINUOUS
 90
6
 70
0
 10
7.7568926429
 20
8.056766124
 10
7.7591707037
 20
8.058307651
 10
7.761225772
 20
8.0627813367
 10
7.7628566834
 20
8.0697492656
 10
7.763903793
 20
8.0785293682
 10
7.7642646024
 20
8.0882621869
  0
LINE
  5
5AB
100
AcDbEntity
  8
0
100
AcDbLine
 62
7
  6
CONTINUOUS
 10
7.4219447978
 20
7.9606275485
 11
7.3912243963
 21
7.9428711067
  0
LINE
  5
5AC
100
AcDbEntity
  8
0
100
AcDbLine
 62
7
  6
CONTINUOUS
 10
8.1861961599
 20
8.6125909655
 11
8.2216437254
 21
8.6330650126
  0
LINE
  5
5AD
100
AcDbEntity
  8
0
100
AcDbLine
 62
7
  6
CONTINUOUS
 10
8.1861961599
 20
8.5535358474
 11
8.2216437254
 21
8.5740098945
  0
LINE
  5
5AE
100
AcDbEntity
  8
0
100
AcDbLine
 62
7
  6
CONTINUOUS
 10
8.1861961599
 20
8.4944807292
 11
8.2216437254
 21
8.5149547764
  0
LINE
  5
5AF
100
AcDbEntity
  8
0
100
AcDbLine
 62
7
  6
CONTINUOUS
 10
8.1861961599
 20
8.4354256111
 11
8.2216437254
 21
8.4558996583
  0
LWPOLYLINE
  5
5B0
100
AcDbEntity
  8
0
100
AcDbPolyline
 62
7
  6
CONTINUOUS
 90
10
 70
0
 10
7.0840742078
 20
8.1108999822
 10
7.0857717824
 20
8.111637838
 10
7.0992899512
 20
8.1131135676
 10
7.1259940041
 20
8.1145893063
 10
7.1652261032
 20
8.1160650181
 10
7.2160200628
 20
8.1175406932
 10
7.2771266809
 20
8.1190163571
 10
7.3470431571
 20
8.120492022
 10
7.4240481122
 20
8.1219676608
 10
7.5062460179
 20
8.1234432561
  0
LWPOLYLINE
  5
5B1
100
AcDbEntity
  8
0
100
AcDbPolyline
 62
7
  6
CONTINUOUS
 90
10
 70
0
 10
7.0840742078
 20
8.1699551003
 10
7.08589337
 20
8.1707189374
 10
7.1003749289
 20
8.172246628
 10
7.1289565777
 20
8.1737743271
 10
7.1708838853
 20
8.1753019963
 10
7.2250505944
 20
8.1768296278
 10
7.2900293748
 20
8.1783572499
 10
7.3641077362
 20
8.1798848711
 10
7.4453312561
 20
8.1814124583
 10
7.5315579307
 20
8.1829399982
  0
LWPOLYLINE
  5
5B2
100
AcDbEntity
  8
0
100
AcDbPolyline
 62
7
  6
CONTINUOUS
 90
10
 70
0
 10
8.1864364126
 20
8.602208269
 10
8.1846172644
 20
8.6014444349
 10
8.1701359991
 20
8.5999167631
 10
8.1415549452
 20
8.5983890812
 10
8.0996280243
 20
8.5968614139
 10
8.0454609632
 20
8.5953337655
 10
7.9804820935
 20
8.593806138
 10
7.9064043011
 20
8.592278526
 10
7.8251808257
 20
8.5907509376
 10
7.7389526896
 20
8.5892233711
  0
LWPOLYLINE
  5
5B3
100
AcDbEntity
  8
0
100
AcDbPolyline
 62
7
  6
CONTINUOUS
 90
10
 70
0
 10
8.1864364126
 20
8.5431531509
 10
8.1846172575
 20
8.5423893153
 10
8.1701357536
 20
8.5408616277
 10
8.141554241
 20
8.5393339327
 10
8.0996272131
 20
8.5378062701
 10
8.0454606136
 20
8.5362786384
 10
7.9804813284
 20
8.5347510031
 10
7.906402255
 20
8.5332233678
 10
7.8251785276
 20
8.5316957777
 10
7.7389526896
 20
8.530168253
  0
LWPOLYLINE
  5
5B4
100
AcDbEntity
  8
0
100
AcDbPolyline
 62
7
  6
CONTINUOUS
 90
10
 70
0
 10
8.1864364126
 20
8.4840980328
 10
8.1846172683
 20
8.4833341995
 10
8.1701359564
 20
8.4818065239
 10
8.1415552475
 20
8.480278858
 10
8.0996294156
 20
8.4787512217
 10
8.0454631317
 20
8.4772235846
 10
7.9804833288
 20
8.4756959288
 10
7.9064038578
 20
8.4741682811
 10
7.8251800982
 20
8.4726406882
 10
7.7389526896
 20
8.4711131349
  0
LWPOLYLINE
  5
5B5
100
AcDbEntity
  8
0
100
AcDbPolyline
 62
7
  6
CONTINUOUS
 90
8
 70
0
 10
7.048641137
 20
8.1904123933
 10
7.0504410059
 20
8.1911488513
 10
7.0647737559
 20
8.1926217671
 10
7.0930879859
 20
8.1940946829
 10
7.1346897649
 20
8.1955675988
 10
7.1885595078
 20
8.1970405146
 10
7.253376964
 20
8.1985134305
 10
7.3275535736
 20
8.1999863463
  0
LWPOLYLINE
  5
5B6
100
AcDbEntity
  8
0
100
AcDbPolyline
 62
7
  6
CONTINUOUS
 90
9
 70
0
 10
7.048641137
 20
8.1313572752
 10
7.0504410059
 20
8.1320937331
 10
7.0647737559
 20
8.133566649
 10
7.0930879859
 20
8.1350395648
 10
7.1346897649
 20
8.1365124807
 10
7.1885595078
 20
8.1379853965
 10
7.253376964
 20
8.1394583124
 10
7.3275535736
 20
8.1409312282
 10
7.4092714012
 20
8.1424041441
  0
LWPOLYLINE
  5
5B7
100
AcDbEntity
  8
0
100
AcDbPolyline
 62
7
  6
CONTINUOUS
 90
9
 70
0
 10
7.048866895
 20
8.3162637111
 10
7.0504410059
 20
8.3167394024
 10
7.0647737559
 20
8.3182123183
 10
7.0930879859
 20
8.3196852341
 10
7.1346897649
 20
8.32115815
 10
7.1885595078
 20
8.3226310658
 10
7.253376964
 20
8.3241039817
 10
7.3275535736
 20
8.3255768975
 10
7.4092714012
 20
8.3270498134
  0
LWPOLYLINE
  5
5B8
100
AcDbEntity
  8
0
100
AcDbPolyline
 62
7
  6
CONTINUOUS
 90
9
 70
0
 10
7.048866895
 20
8.257208593
 10
7.0504410059
 20
8.2576842843
 10
7.0647737559
 20
8.2591572002
 10
7.0930879859
 20
8.260630116
 10
7.1346897649
 20
8.2621030319
 10
7.1885595078
 20
8.2635759477
 10
7.253376964
 20
8.2650488636
 10
7.3275535736
 20
8.2665217794
 10
7.4092714012
 20
8.2679946952
  0
LWPOLYLINE
  5
5B9
100
AcDbEntity
  8
0
100
AcDbPolyline
 62
7
  6
CONTINUOUS
 90
9
 70
0
 10
7.048866895
 20
8.1981534749
 10
7.0504410059
 20
8.1986291662
 10
7.0647737559
 20
8.2001020821
 10
7.0930879859
 20
8.2015749979
 10
7.1346897649
 20
8.2030479138
 10
7.1885595078
 20
8.2045208296
 10
7.253376964
 20
8.2059937454
 10
7.3275535736
 20
8.2074666613
 10
7.4092714012
 20
8.2089395771
  0
LWPOLYLINE
  5
5BA
100
AcDbEntity
  8
0
100
AcDbPolyline
 62
7
  6
CONTINUOUS
 90
9
 70
0
 10
7.048866895
 20
8.1390983568
 10
7.0504410059
 20
8.1395740481
 10
7.0647737559
 20
8.141046964
 10
7.0930879859
 20
8.1425198798
 10
7.1346897649
 20
8.1439927956
 10
7.1885595078
 20
8.1454657115
 10
7.253376964
 20
8.1469386273
 10
7.3275535736
 20
8.1484115432
 10
7.4092714012
 20
8.149884459
  0
LINE
  5
5BB
100
AcDbEntity
  8
0
100
AcDbLine
 62
7
  6
CONTINUOUS
 10
7.8720391072
 20
7.651640421
 11
7.8440939154
 21
7.6236952353
  0
LINE
  5
5BC
100
AcDbEntity
  8
0
100
AcDbLine
 62
7
  6
CONTINUOUS
 10
7.8514682506
 20
7.9807022105
 11
7.8782893628
 21
7.9962758815
  0
LINE
  5
5BD
100
AcDbEntity
  8
0
100
AcDbLine
 62
7
  6
CONTINUOUS
 10
7.4219447978
 20
7.9212574698
 11
7.3912243963
 21
7.9035010279
  0
LINE
  5
5BE
100
AcDbEntity
  8
0
100
AcDbLine
 62
7
  6
CONTINUOUS
 10
7.4219447978
 20
7.881887391
 11
7.3912243963
 21
7.8641309492
  0
LINE
  5
5BF
100
AcDbEntity
  8
0
100
AcDbLine
 62
7
  6
CONTINUOUS
 10
7.4219447978
 20
7.8425173123
 11
7.3912243963
 21
7.8247608704
  0
LINE
  5
5C0
100
AcDbEntity
  8
0
100
AcDbLine
 62
7
  6
CONTINUOUS
 10
7.4219447978
 20
7.8031472335
 11
7.3912243963
 21
7.7853907917
  0
LINE
  5
5C1
100
AcDbEntity
  8
0
100
AcDbLine
 62
7
  6
CONTINUOUS
 10
7.4219447978
 20
7.7637771548
 11
7.3912243963
 21
7.746020713
  0
LINE
  5
5C2
100
AcDbEntity
  8
0
100
AcDbLine
 62
7
  6
CONTINUOUS
 10
7.8485658226
 20
7.979676353
 11
7.879286224
 21
7.9974327948
  0
LINE
  5
5C3
100
AcDbEntity
  8
0
100
AcDbLine
 62
7
  6
CONTINUOUS
 10
7.4219447978
 20
7.7244070761
 11
7.3912243963
 21
7.7066506342
  0
LINE
  5
5C4
100
AcDbEntity
  8
0
100
AcDbLine
 62
7
  6
CONTINUOUS
 10
8.1861961599
 20
8.376370493
 11
8.2216437254
 21
8.3968445401
  0
LINE
  5
5C5
100
AcDbEntity
  8
0
100
AcDbLine
 62
7
  6
CONTINUOUS
 10
8.1861961599
 20
8.3173153749
 11
8.2216437254
 21
8.337789422
  0
LINE
  5
5C6
100
AcDbEntity
  8
0
100
AcDbLine
 62
7
  6
CONTINUOUS
 10
8.1861961599
 20
8.2582602568
 11
8.2216437254
 21
8.2787343039
  0
LINE
  5
5C7
100
AcDbEntity
  8
0
100
AcDbLine
 62
7
  6
CONTINUOUS
 10
8.1861961599
 20
8.1992051387
 11
8.2216437254
 21
8.2196791858
  0
LWPOLYLINE
  5
5C8
100
AcDbEntity
  8
0
100
AcDbPolyline
 62
7
  6
CONTINUOUS
 90
7
 70
0
 10
8.1864364126
 20
8.4250429147
 10
8.1846172506
 20
8.4242790776
 10
8.1701359896
 20
8.4227514081
 10
8.1415552092
 20
8.4212237383
 10
8.0996286364
 20
8.419696079
 10
8.0454615885
 20
8.4181684271
 10
7.9804820648
 20
8.416640783
  0
LWPOLYLINE
  5
5C9
100
AcDbEntity
  8
0
100
AcDbPolyline
 62
7
  6
CONTINUOUS
 90
10
 70
0
 10
8.1864364126
 20
8.3659877966
 10
8.1846172702
 20
8.3652239637
 10
8.1701358774
 20
8.3636962821
 10
8.1415544723
 20
8.3621685884
 10
8.0996272895
 20
8.3606409182
 10
8.045460513
 20
8.3591132815
 10
7.980481883
 20
8.3575856609
 10
7.9064035326
 20
8.3560580385
 10
7.8251800195
 20
8.3545304505
 10
7.7389526896
 20
8.3530028987
  0
LWPOLYLINE
  5
5CA
100
AcDbEntity
  8
0
100
AcDbPolyline
 62
7
  6
CONTINUOUS
 90
10
 70
0
 10
8.1864364126
 20
8.3069326785
 10
8.1846172704
 20
8.3061688456
 10
8.1701358876
 20
8.3046411647
 10
8.1415547211
 20
8.303113481
 10
8.0996283225
 20
8.3015858328
 10
8.0454617832
 20
8.3000581958
 10
7.9804819036
 20
8.2985305433
 10
7.9064023403
 20
8.2970028971
 10
7.8251785729
 20
8.2954753061
 10
7.7389526896
 20
8.2939477806
  0
LWPOLYLINE
  5
5CB
100
AcDbEntity
  8
0
100
AcDbPolyline
 62
7
  6
CONTINUOUS
 90
10
 70
0
 10
8.1864364126
 20
8.2478775604
 10
8.1846172525
 20
8.2471137237
 10
8.1701359203
 20
8.2455860489
 10
8.1415552631
 20
8.2440583863
 10
8.0996291134
 20
8.2425307397
 10
8.0454623324
 20
8.2410030918
 10
7.9804824552
 20
8.2394754372
 10
7.9064038383
 20
8.2379478083
 10
7.8251808621
 20
8.2364202296
 10
7.7389526896
 20
8.2348926625
  0
LINE
  5
5CC
100
AcDbEntity
  8
0
100
AcDbLine
 62
7
  6
CONTINUOUS
 10
8.6195072787
 20
12.460309431
 11
6.6313183023
 21
12.460309431
  0
LINE
  5
5CD
100
AcDbEntity
  8
AXIS
100
AcDbLine
 62
7
  6
CONTINUOUS
 10
6.6313183023
 20
12.4606709487
 11
7.6352553102
 21
12.4606709487
  0
LINE
  5
5CE
100
AcDbEntity
  8
0
100
AcDbLine
 62
7
  6
CONTINUOUS
 10
7.6352553102
 20
12.4606709487
 11
8.6195072787
 21
12.4606709487
  0
LINE
  5
5CF
100
AcDbEntity
  8
0
100
AcDbLine
 62
7
  6
CONTINUOUS
 10
7.8485658226
 20
7.9403062742
 11
7.879286224
 21
7.958062716
  0
LINE
  5
5D0
100
AcDbEntity
  8
0
100
AcDbLine
 62
7
  6
CONTINUOUS
 10
7.4219447978
 20
7.6850369973
 11
7.3912243963
 21
7.6672805555
  0
LINE
  5
5D1
100
AcDbEntity
  8
0
100
AcDbLine
 62
7
  6
CONTINUOUS
 10
7.8485658226
 20
7.9009361955
 11
7.879286224
 21
7.9186926373
  0
LINE
  5
5D2
100
AcDbEntity
  8
0
100
AcDbLine
 62
7
  6
CONTINUOUS
 10
7.4219447978
 20
7.6456669186
 11
7.4110213127
 21
7.6393525001
  0
LINE
  5
5D3
100
AcDbEntity
  8
0
100
AcDbLine
 62
7
  6
CONTINUOUS
 10
7.8485658226
 20
7.8615661168
 11
7.879286224
 21
7.8793225586
  0
LINE
  5
5D4
100
AcDbEntity
  8
0
100
AcDbLine
 62
7
  6
CONTINUOUS
 10
7.8485658226
 20
7.822196038
 11
7.879286224
 21
7.8399524798
  0
LINE
  5
5D5
100
AcDbEntity
  8
0
100
AcDbLine
 62
7
  6
CONTINUOUS
 10
7.8485658226
 20
7.7828259593
 11
7.879286224
 21
7.8005824011
  0
LINE
  5
5D6
100
AcDbEntity
  8
0
100
AcDbLine
 62
7
  6
CONTINUOUS
 10
7.8485658226
 20
7.7434558805
 11
7.879286224
 21
7.7612123223
  0
LINE
  5
5D7
100
AcDbEntity
  8
0
100
AcDbLine
 62
7
  6
CONTINUOUS
 10
8.1861961599
 20
8.1401500206
 11
8.2216437254
 21
8.1606240677
  0
LWPOLYLINE
  5
5D8
100
AcDbEntity
  8
0
100
AcDbPolyline
 62
7
  6
CONTINUOUS
 90
10
 70
0
 10
7.4219447978
 20
7.7637771548
 10
7.4221898802
 20
7.7638964827
 10
7.4275709864
 20
7.7649354153
 10
7.4386486238
 20
7.7659743479
 10
7.455118946
 20
7.7670132806
 10
7.476530192
 20
7.7680522132
 10
7.502295077
 20
7.7690911458
 10
7.5317069013
 20
7.7701300785
 10
7.5639589338
 20
7.7711690111
 10
7.5981665402
 20
7.7722079437
  0
LWPOLYLINE
  5
5D9
100
AcDbEntity
  8
0
100
AcDbPolyline
 62
7
  6
CONTINUOUS
 90
10
 70
0
 10
7.4219447978
 20
7.6850369973
 10
7.4223652227
 20
7.6852247294
 10
7.4280734977
 20
7.6862571364
 10
7.4393935184
 20
7.6872895434
 10
7.4560186696
 20
7.6883219504
 10
7.4774986409
 20
7.6893543575
 10
7.5032516238
 20
7.6903867645
 10
7.5325800708
 20
7.6914191715
 10
7.5646895888
 20
7.6924515785
 10
7.5987104563
 20
7.6934839855
  0
LWPOLYLINE
  5
5DA
100
AcDbEntity
  8
0
100
AcDbPolyline
 62
7
  6
CONTINUOUS
 90
11
 70
0
 10
7.4219447978
 20
7.8031472335
 10
7.4224823543
 20
7.8033759227
 10
7.4284728051
 20
7.8044148554
 10
7.4401350513
 20
7.805453788
 10
7.4571492115
 20
7.8064927206
 10
7.4790486076
 20
7.8075316533
 10
7.5052325657
 20
7.8085705859
 10
7.5349828912
 20
7.8096095185
 10
7.5674835686
 20
7.8106484512
 10
7.6018431433
 20
7.8116873838
 10
7.6723440802
 20
7.8137652491
  0
LWPOLYLINE
  5
5DB
100
AcDbEntity
  8
0
100
AcDbPolyline
 62
7
  6
CONTINUOUS
 90
10
 70
0
 10
8.1864364126
 20
8.1888224422
 10
8.1846172644
 20
8.1880586081
 10
8.1701359991
 20
8.1865309364
 10
8.1415549452
 20
8.1850032544
 10
8.0996280243
 20
8.1834755871
 10
8.0454609632
 20
8.1819479387
 10
7.9804820935
 20
8.1804203112
 10
7.9064043011
 20
8.1788926992
 10
7.8251808257
 20
8.1773651108
 10
7.7389526896
 20
8.1758375444
  0
LWPOLYLINE
  5
5DC
100
AcDbEntity
  8
0
100
AcDbPolyline
 62
7
  6
CONTINUOUS
 90
11
 70
0
 10
7.4219447978
 20
7.8425173123
 10
7.422839641
 20
7.8428553628
 10
7.4294376118
 20
7.8438942954
 10
7.4416809144
 20
7.8449332281
 10
7.4592337297
 20
7.8459721607
 10
7.4816146053
 20
7.8470110933
 10
7.5082096606
 20
7.848050026
 10
7.5382894251
 20
7.8490889586
 10
7.5710288473
 20
7.8501278912
 10
7.605529924
 20
7.8511668239
 10
7.6760093857
 20
7.8532446891
  0
LWPOLYLINE
  5
5DD
100
AcDbEntity
  8
0
100
AcDbPolyline
 62
7
  6
CONTINUOUS
 90
11
 70
0
 10
7.4219447978
 20
7.881887391
 10
7.4232616317
 20
7.8823348029
 10
7.4304651125
 20
7.8833737355
 10
7.443285742
 20
7.8844126681
 10
7.4613718659
 20
7.8854516008
 10
7.4842274034
 20
7.8864905334
 10
7.5112254547
 20
7.887529466
 10
7.5416254958
 20
7.8885683987
 10
7.57459369
 20
7.8896073313
 10
7.6092257595
 20
7.8906462639
 10
7.6796622771
 20
7.8927241292
  0
LWPOLYLINE
  5
5DE
100
AcDbEntity
  8
0
100
AcDbPolyline
 62
7
  6
CONTINUOUS
 90
10
 70
0
 10
7.3909836566
 20
7.9780259665
 10
7.3939719257
 20
7.9790070782
 10
7.4030137801
 20
7.980000655
 10
7.4178848598
 20
7.9809943459
 10
7.4379406316
 20
7.9819762759
 10
7.4627509029
 20
7.982955265
 10
7.4919025154
 20
7.9839386563
 10
7.5243368095
 20
7.9849151115
 10
7.5593799713
 20
7.9858894268
 10
7.5965732969
 20
7.9868720386
  0
LWPOLYLINE
  5
5DF
100
AcDbEntity
  8
0
100
AcDbPolyline
 62
7
  6
CONTINUOUS
 90
10
 70
0
 10
7.3909836566
 20
7.9386558877
 10
7.3939763669
 20
7.9396377298
 10
7.4030294445
 20
7.9406318723
 10
7.4179132591
 20
7.9416258635
 10
7.4379780179
 20
7.9426078237
 10
7.462790919
 20
7.9435866359
 10
7.4919343911
 20
7.9445695874
 10
7.5243575191
 20
7.945545629
 10
7.5594045847
 20
7.9465200122
 10
7.5965970434
 20
7.9475025768
  0
LWPOLYLINE
  5
5E0
100
AcDbEntity
  8
0
100
AcDbPolyline
 62
7
  6
CONTINUOUS
 90
10
 70
0
 10
7.3909836566
 20
7.8205456515
 10
7.3939755432
 20
7.8215273581
 10
7.4030265348
 20
7.8225213954
 10
7.4179078951
 20
7.8235153259
 10
7.4379707412
 20
7.824497271
 10
7.4627826829
 20
7.8254761013
 10
7.4919269498
 20
7.8264591154
 10
7.5243512677
 20
7.8274352128
 10
7.5593971052
 20
7.8284095742
 10
7.5965890908
 20
7.8293921339
  0
LWPOLYLINE
  5
5E1
100
AcDbEntity
  8
0
100
AcDbPolyline
 62
7
  6
CONTINUOUS
 90
10
 70
0
 10
7.3909836566
 20
7.899285809
 10
7.393981427
 20
7.9002684824
 10
7.403047076
 20
7.9012632512
 10
7.4179456087
 20
7.9022576023
 10
7.4380217714
 20
7.9032396478
 10
7.4628403026
 20
7.9042183457
 10
7.4919788467
 20
7.9052009167
 10
7.5243955238
 20
7.9061766444
 10
7.5594498028
 20
7.9071511537
 10
7.5966449418
 20
7.9081337423
  0
LWPOLYLINE
  5
5E2
100
AcDbEntity
  8
0
100
AcDbPolyline
 62
7
  6
CONTINUOUS
 90
10
 70
0
 10
7.3909836566
 20
7.7811755728
 10
7.3939805696
 20
7.7821581054
 10
7.4030441168
 20
7.7831527704
 10
7.4179401974
 20
7.7841470621
 10
7.4380144681
 20
7.785129094
 10
7.4628320759
 20
7.7861078115
 10
7.4919714603
 20
7.7870904466
 10
7.5243891305
 20
7.7880662241
 10
7.5594422259
 20
7.789040713
 10
7.596636937
 20
7.7900232982
  0
LWPOLYLINE
  5
5E3
100
AcDbEntity
  8
0
100
AcDbPolyline
 62
7
  6
CONTINUOUS
 90
10
 70
0
 10
7.8795269637
 20
7.962277935
 10
7.8765247566
 20
7.9612945331
 10
7.8674483627
 20
7.9602992384
 10
7.8525377337
 20
7.9593046099
 10
7.8324518516
 20
7.9583224878
 10
7.8076290292
 20
7.9573439034
 10
7.7784998825
 20
7.9563618172
 10
7.7460912615
 20
7.9553864135
 10
7.7110261539
 20
7.9544116549
 10
7.6738250162
 20
7.9534289453
  0
LWPOLYLINE
  5
5E4
100
AcDbEntity
  8
0
100
AcDbPolyline
 62
7
  6
CONTINUOUS
 90
11
 70
0
 10
7.3909836566
 20
7.8599157303
 10
7.3941298813
 20
7.8609224927
 10
7.4036459271
 20
7.8619420818
 10
7.419271954
 20
7.8629611798
 10
7.4402885739
 20
7.8639670957
 10
7.4663173822
 20
7.8649729499
 10
7.4967803154
 20
7.8659816103
 10
7.5305480038
 20
7.8669824424
 10
7.566938488
 20
7.8679821296
 10
7.6055521527
 20
7.8689944281
 10
7.6846905224
 20
7.8710351587
  0
LWPOLYLINE
  5
5E5
100
AcDbEntity
  8
0
100
AcDbPolyline
 62
7
  6
CONTINUOUS
 90
20
 70
0
 10
7.4219447978
 20
7.9212574698
 10
7.4237481976
 20
7.9218142429
 10
7.4315549943
 20
7.9228531756
 10
7.4449490455
 20
7.9238921082
 10
7.4635629686
 20
7.9249310408
 10
7.4868862061
 20
7.9259699735
 10
7.5142790296
 20
7.9270089061
 10
7.544990087
 20
7.9280478387
 10
7.5781770108
 20
7.9290867714
 10
7.6129295237
 20
7.930125704
 10
7.6482944061
 20
7.9311646366
 10
7.6833016418
 20
7.9322035693
 10
7.7169910243
 20
7.9332425019
 10
7.7484384946
 20
7.9342814345
 10
7.7767814863
 20
7.9353203672
 10
7.8012425853
 20
7.9363592998
 10
7.821150853
 20
7.9373982324
 10
7.8359602296
 20
7.9384371651
 10
7.8452645117
 20
7.9394760977
 10
7.8485658226
 20
7.9403062742
  0
LINE
  5
5E6
100
AcDbEntity
  8
0
100
AcDbLine
 62
7
  6
CONTINUOUS
 10
7.8485658226
 20
7.7040858018
 11
7.879286224
 21
7.7218422436
  0
LINE
  5
5E7
100
AcDbEntity
  8
0
100
AcDbLine
 62
7
  6
CONTINUOUS
 10
7.8485658226
 20
7.6647157231
 11
7.879286224
 21
7.6824721649
  0
LWPOLYLINE
  5
5E8
100
AcDbEntity
  8
0
100
AcDbPolyline
 62
7
  6
CONTINUOUS
 90
11
 70
0
 10
7.4219447978
 20
7.6456669186
 10
7.4227983006
 20
7.6459932625
 10
7.4292724005
 20
7.6470256695
 10
7.4413257724
 20
7.6480580765
 10
7.4586319376
 20
7.6490904835
 10
7.4807221397
 20
7.6501228906
 10
7.5069980415
 20
7.6511552976
 10
7.5367479315
 20
7.6521877046
 10
7.5691660014
 20
7.6532201116
 10
7.6033741724
 20
7.6542525187
 10
7.6734311652
 20
7.6563173327
  0
LWPOLYLINE
  5
5E9
100
AcDbEntity
  8
0
100
AcDbPolyline
 62
7
  6
CONTINUOUS
 90
8
 70
0
 10
7.3909836566
 20
7.741805494
 10
7.3936891736
 20
7.7427389454
 10
7.4018819939
 20
7.7436842616
 10
7.4153978186
 20
7.7446308368
 10
7.4337126898
 20
7.7455679423
 10
7.4563561171
 20
7.7464986125
 10
7.4831142077
 20
7.7474350316
 10
7.5131194834
 20
7.7483671738
  0
LWPOLYLINE
  5
5EA
100
AcDbEntity
  8
0
100
AcDbPolyline
 62
7
  6
CONTINUOUS
 90
8
 70
0
 10
7.8795269637
 20
7.8441676988
 10
7.876818676
 20
7.8432337687
 10
7.8686190374
 20
7.8422880985
 10
7.8550964775
 20
7.8413413952
 10
7.8367753796
 20
7.8404042268
 10
7.8141355962
 20
7.8394738681
 10
7.7873843373
 20
7.8385377652
 10
7.757391137
 20
7.837606019
  0
LWPOLYLINE
  5
5EB
100
AcDbEntity
  8
0
100
AcDbPolyline
 62
7
  6
CONTINUOUS
 90
10
 70
0
 10
7.3909836566
 20
7.7024354153
 10
7.3939747404
 20
7.7034169899
 10
7.4030236948
 20
7.7044109242
 10
7.417902674
 20
7.7054047962
 10
7.4379636975
 20
7.7063867283
 10
7.4627747922
 20
7.7073655793
 10
7.4919199745
 20
7.7083486583
 10
7.5243456455
 20
7.7093248147
 10
7.5593903789
 20
7.7102991565
 10
7.5965820244
 20
7.7112817141
  0
LWPOLYLINE
  5
5EC
100
AcDbEntity
  8
0
100
AcDbPolyline
 62
7
  6
CONTINUOUS
 90
10
 70
0
 10
7.8795269637
 20
7.8835377775
 10
7.8765318904
 20
7.8825555471
 10
7.867473113
 20
7.8815611262
 10
7.8525834802
 20
7.8805670217
 10
7.832514623
 20
7.8795850595
 10
7.8076992295
 20
7.8786062879
 10
7.7785579026
 20
7.8776234973
 10
7.7461381124
 20
7.8766476047
 10
7.7110875547
 20
7.8756731543
 10
7.6738921928
 20
7.8746905329
  0
LWPOLYLINE
  5
5ED
100
AcDbEntity
  8
0
100
AcDbPolyline
 62
7
  6
CONTINUOUS
 90
10
 70
0
 10
7.8795269637
 20
7.7654275413
 10
7.876531048
 20
7.7644451725
 10
7.8674701775
 20
7.7634506473
 10
7.852578095
 20
7.7624564829
 10
7.8325073409
 20
7.7614745066
 10
7.8076910136
 20
7.7604957541
 10
7.7785505095
 20
7.7595130269
 10
7.7461317895
 20
7.7585371864
 10
7.7110800227
 20
7.7575627148
 10
7.6738842124
 20
7.7565800894
  0
LWPOLYLINE
  5
5EE
100
AcDbEntity
  8
0
100
AcDbPolyline
 62
7
  6
CONTINUOUS
 90
10
 70
0
 10
7.8795269637
 20
7.9229078562
 10
7.8765267527
 20
7.9219247821
 10
7.8674553773
 20
7.9209297391
 10
7.8525510531
 20
7.919935279
 10
7.8324708665
 20
7.9189532356
 10
7.8076499608
 20
7.9179745825
 10
7.7785136836
 20
7.9169921756
 10
7.746099823
 20
7.9160165812
 10
7.7110421235
 20
7.9150420071
 10
7.6738441847
 20
7.9140593645
  0
LWPOLYLINE
  5
5EF
100
AcDbEntity
  8
0
100
AcDbPolyline
 62
7
  6
CONTINUOUS
 90
10
 70
0
 10
7.8795269637
 20
7.80479762
 10
7.8765258769
 20
7.8038144021
 10
7.8674523928
 20
7.8028192563
 10
7.8525456214
 20
7.8018247378
 10
7.8324635589
 20
7.8008426817
 10
7.8076417556
 20
7.7998640492
 10
7.7785063463
 20
7.798881707
 10
7.7460933592
 20
7.7979061589
 10
7.7110344958
 20
7.7969315651
 10
7.6738361539
 20
7.7959489197
  0
LINE
  5
5F0
100
AcDbEntity
  8
0
100
AcDbLine
 62
7
  6
CONTINUOUS
 10
6.6510033417
 20
12.8933802972
 11
8.6195072787
 21
12.8933802972
  0
LINE
  5
5F1
100
AcDbEntity
  8
0
100
AcDbLine
 62
7
  6
CONTINUOUS
 10
6.7494285385
 20
12.991805494
 11
8.5210820818
 21
12.991805494
  0
LWPOLYLINE
  5
5F2
100
AcDbEntity
  8
0
100
AcDbPolyline
 62
7
  6
CONTINUOUS
 90
11
 70
0
 10
7.8795269637
 20
7.7260574625
 10
7.8763770603
 20
7.7250501104
 10
7.8668520413
 20
7.72403009
 10
7.8512170986
 20
7.7230108289
 10
7.8301931884
 20
7.7220048685
 10
7.8041653497
 20
7.7209992525
 10
7.7737103296
 20
7.7199909605
 10
7.7399487398
 20
7.7189903564
 10
7.7035545065
 20
7.7179905923
 10
7.6649436468
 20
7.7169783817
 10
7.5858092384
 20
7.7149377497
  0
LINE
  5
5F3
100
AcDbEntity
  8
0
100
AcDbLine
 62
7
  6
CONTINUOUS
 10
7.7181898552
 20
3.4273794234
 11
7.5523207652
 21
3.4273794234
  0
LWPOLYLINE
  5
5F4
100
AcDbEntity
  8
0
100
AcDbPolyline
 62
7
  6
CONTINUOUS
 90
16
 70
0
 10
7.4092714012
 20
3.4588754864
 10
7.3275535736
 20
3.5007785581
 10
7.253376964
 20
3.5549218988
 10
7.1885595078
 20
3.6199785521
 10
7.1346897649
 20
3.6943540961
 10
7.0930879859
 20
3.7762257196
 10
7.0647737559
 20
3.863586896
 10
7.0504410059
 20
3.9542965594
 10
7.0504410059
 20
4.0461315787
 10
7.0647737559
 20
4.1368412421
 10
7.0930879859
 20
4.2242024185
 10
7.1346897649
 20
4.306074042
 10
7.1885595078
 20
4.380449586
 10
7.253376964
 20
4.4455062393
 10
7.3275535736
 20
4.49964958
 10
7.4092714012
 20
4.5415526517
  0
LINE
  5
5F5
100
AcDbEntity
  8
0
100
AcDbLine
 62
7
  6
CONTINUOUS
 10
7.4092714012
 20
3.4588754864
 11
7.8612392192
 21
3.4588754864
  0
LINE
  5
5F6
100
AcDbEntity
  8
0
100
AcDbLine
 62
7
  6
CONTINUOUS
 10
7.5523207652
 20
3.4903715494
 11
7.7181898552
 21
3.4903715494
  0
LWPOLYLINE
  5
5F7
100
AcDbEntity
  8
0
100
AcDbPolyline
 62
7
  6
CONTINUOUS
 90
4
 70
0
 10
7.288894832
 20
4.1986617681
 10
7.2586515754
 20
4.1362904763
 10
7.2395881838
 20
4.0694755253
 10
7.2323230623
 20
4.0002140691
  0
LWPOLYLINE
  5
5F8
100
AcDbEntity
  8
0
100
AcDbPolyline
 62
7
  6
CONTINUOUS
 90
18
 70
0
 10
7.4109513298
 20
4.0002140691
 10
7.4143518393
 20
3.9650948183
 10
7.4233532287
 20
3.9306027041
 10
7.437689387
 20
3.8980708446
 10
7.4566875633
 20
3.8686815073
 10
7.4800161239
 20
3.8427009182
 10
7.5071364389
 20
3.8207215534
 10
7.53711626
 20
3.8034260741
 10
7.5692949132
 20
3.7910921323
 10
7.6033214596
 20
3.7839123084
 10
7.6383438462
 20
3.7822281557
 10
7.6730613894
 20
3.7861574015
 10
7.7062252845
 20
3.7954239294
 10
7.7371978808
 20
3.8096559246
 10
7.7655930378
 20
3.8286178591
 10
7.7906826466
 20
3.8518784213
 10
7.8116819633
 20
3.8787075474
 10
7.8281830736
 20
3.9085749106
  0
LWPOLYLINE
  5
5F9
100
AcDbEntity
  8
0
100
AcDbPolyline
 62
7
  6
CONTINUOUS
 90
13
 70
0
 10
7.559773173
 20
3.767897286
 10
7.59689338
 20
3.7596012176
 10
7.6352839471
 20
3.7571908335
 10
7.6734937557
 20
3.7608547749
 10
7.7101709912
 20
3.7703414148
 10
7.7445140526
 20
3.7852287675
 10
7.7761465214
 20
3.8052574027
 10
7.8044225412
 20
3.8300916909
 10
7.8283540772
 20
3.8588835016
 10
7.8474942329
 20
3.8910421274
 10
7.8614945753
 20
3.9261953592
 10
7.8697373505
 20
3.9630550451
 10
7.8720391072
 20
4.000214069
  0
LINE
  5
5FA
100
AcDbEntity
  8
0
100
AcDbLine
 62
7
  6
CONTINUOUS
 10
7.5523207652
 20
3.4903715494
 11
7.5523207652
 21
3.4273794234
  0
LINE
  5
5FB
100
AcDbEntity
  8
0
100
AcDbLine
 62
7
  6
CONTINUOUS
 10
7.5523207652
 20
4.5100565887
 11
7.5523207652
 21
4.5730487147
  0
LINE
  5
5FC
100
AcDbEntity
  8
AXIS
100
AcDbLine
 62
7
  6
CENTER
 10
7.6352553102
 20
4.000214069
 11
7.6352553102
 21
2.9159621005
  0
LINE
  5
5FD
100
AcDbEntity
  8
AXIS
100
AcDbLine
 62
7
  6
CENTER
 10
7.6352553102
 20
4.000214069
 11
7.6352553102
 21
5.0844660376
  0
LINE
  5
5FE
100
AcDbEntity
  8
0
100
AcDbLine
 62
7
  6
CONTINUOUS
 10
7.5136179775
 20
3.4949647252
 11
7.5062460179
 21
3.4643435529
  0
LINE
  5
5FF
100
AcDbEntity
  8
0
100
AcDbLine
 62
7
  6
CONTINUOUS
 10
7.5049295966
 20
3.4588754864
 11
7.4988740584
 21
3.4337223805
  0
LINE
  5
600
100
AcDbEntity
  8
0
100
AcDbLine
 62
7
  6
CONTINUOUS
 10
7.7568926429
 20
4.5054634129
 11
7.7642646024
 21
4.5360845852
  0
LINE
  5
601
100
AcDbEntity
  8
0
100
AcDbLine
 62
7
  6
CONTINUOUS
 10
7.7655810238
 20
4.5415526517
 11
7.771636562
 21
4.5667057576
  0
LINE
  5
602
100
AcDbEntity
  8
AXIS
100
AcDbLine
 62
7
  6
CENTER
 10
7.6352553102
 20
4.000214069
 11
6.5510033417
 21
4.000214069
  0
LINE
  5
603
100
AcDbEntity
  8
AXIS
100
AcDbLine
 62
7
  6
CENTER
 10
7.6352553102
 20
4.000214069
 11
8.7195072787
 21
4.000214069
  0
LINE
  5
604
100
AcDbEntity
  8
0
100
AcDbLine
 62
7
  6
CONTINUOUS
 10
7.9901456289
 20
3.9632035601
 11
8.008347451
 21
3.9613053435
  0
LINE
  5
605
100
AcDbEntity
  8
AXIS_COSMETIC_THREADS
100
AcDbLine
 62
7
  6
CONTINUOUS
 10
7.7006766069
 20
3.9013861528
 11
7.7328693816
 21
3.8691933781
  0
LINE
  5
606
100
AcDbEntity
  8
0
100
AcDbLine
 62
7
  6
CONTINUOUS
 10
7.7568926429
 20
3.4949647252
 11
7.7642646024
 21
3.4643435529
  0
LINE
  5
607
100
AcDbEntity
  8
0
100
AcDbLine
 62
7
  6
CONTINUOUS
 10
7.7655810238
 20
3.4588754864
 11
7.771636562
 21
3.4337223805
  0
LINE
  5
608
100
AcDbEntity
  8
0
100
AcDbLine
 62
7
  6
CONTINUOUS
 10
7.5136179775
 20
4.5054634129
 11
7.5062460179
 21
4.5360845852
  0
LINE
  5
609
100
AcDbEntity
  8
0
100
AcDbLine
 62
7
  6
CONTINUOUS
 10
7.5049295966
 20
4.5415526517
 11
7.4988740584
 21
4.5667057576
  0
LINE
  5
60A
100
AcDbEntity
  8
0
100
AcDbLine
 62
7
  6
CONTINUOUS
 10
7.7181898552
 20
3.4903715494
 11
7.7181898552
 21
3.4273794234
  0
LINE
  5
60B
100
AcDbEntity
  8
0
100
AcDbLine
 62
7
  6
CONTINUOUS
 10
7.7181898552
 20
4.5100565887
 11
7.7181898552
 21
4.5730487147
  0
LINE
  5
60C
100
AcDbEntity
  8
AXIS_COSMETIC_THREADS
100
AcDbLine
 62
7
  6
CONTINUOUS
 10
7.7662760011
 20
3.9025999977
 11
7.7340832265
 21
3.9347927724
  0
LINE
  5
60D
100
AcDbEntity
  8
AXIS_COSMETIC_THREADS
100
AcDbLine
 62
7
  6
CONTINUOUS
 10
7.7340832265
 20
3.9347927724
 11
7.7006766069
 21
3.9013861528
  0
LWPOLYLINE
  5
60E
100
AcDbEntity
  8
0
100
AcDbPolyline
 62
7
  6
CONTINUOUS
 90
21
 70
0
 10
7.8720391072
 20
4.000214069
 10
7.8685591852
 20
4.0368628481
 10
7.8593020401
 20
4.0728854772
 10
7.8445304001
 20
4.1069236998
 10
7.8248968788
 20
4.1377937519
 10
7.8008493024
 20
4.1650821951
 10
7.772789804
 20
4.1883556256
 10
7.7417333237
 20
4.206825035
 10
7.7083079925
 20
4.2202200398
 10
7.6730081423
 20
4.2283063209
 10
7.6364838575
 20
4.2307758516
 10
7.6000917281
 20
4.2274433882
 10
7.5651728803
 20
4.2185522554
 10
7.5324267177
 20
4.2044834681
 10
7.5022857464
 20
4.1855127647
 10
7.4753383852
 20
4.1619497806
 10
7.4525435696
 20
4.1346212843
 10
7.4342936191
 20
4.1040413204
 10
7.4209590517
 20
4.0706175676
 10
7.4131188604
 20
4.0355589493
 10
7.4109513298
 20
4.0002140691
  0
LWPOLYLINE
  5
60F
100
AcDbEntity
  8
0
100
AcDbPolyline
 62
7
  6
CONTINUOUS
 90
14
 70
0
 10
7.8281830736
 20
3.9085749106
 10
7.812992548
 20
3.8775280684
 10
7.7927623835
 20
3.8489859744
 10
7.7679205964
 20
3.8237876696
 10
7.7392656426
 20
3.802832238
 10
7.7075006594
 20
3.786638921
 10
7.6729868616
 20
3.7755275979
 10
7.6364312204
 20
3.7699936158
 10
7.5991393629
 20
3.7704245462
 10
7.5625404232
 20
3.7767850186
 10
7.5274758176
 20
3.788814623
 10
7.4943885286
 20
3.8063780157
 10
7.4640936951
 20
3.8292071513
 10
7.4376365995
 20
3.8566331305
  0
LINE
  5
610
100
AcDbEntity
  8
0
100
AcDbLine
 62
7
  6
CONTINUOUS
 10
8.0077793127
 20
4.0232748894
 11
8.0093584906
 21
3.9728487372
  0
LWPOLYLINE
  5
611
100
AcDbEntity
  8
0
100
AcDbPolyline
 62
7
  6
CONTINUOUS
 90
19
 70
0
 10
7.9607691464
 20
3.8110237087
 10
7.9900591439
 20
3.8705099489
 10
8.0085290417
 20
3.9343745537
 10
8.0155570493
 20
4.0006424265
 10
8.0108752457
 20
4.0673237431
 10
7.9945709273
 20
4.1323247002
 10
7.9670982823
 20
4.1936319184
 10
7.9292584893
 20
4.2493405441
 10
7.8821704579
 20
4.2977183925
 10
7.8272416672
 20
4.3372505197
 10
7.7661214058
 20
4.3666908118
 10
7.7006535346
 20
4.3850976878
 10
7.6328169251
 20
4.3918643979
 10
7.5646731941
 20
4.3867370837
 10
7.4982957893
 20
4.3698250092
 10
7.435702881
 20
4.341593152
 10
7.3788096752
 20
4.3028517622
 10
7.329365201
 20
4.2547343998
 10
7.288894832
 20
4.1986617681
  0
LINE
  5
612
100
AcDbEntity
  8
0
100
AcDbLine
 62
7
  6
CONTINUOUS
 10
7.9755608697
 20
3.8283354252
 11
7.9362856813
 21
3.774088074
  0
LINE
  5
613
100
AcDbEntity
  8
0
100
AcDbLine
 62
7
  6
CONTINUOUS
 10
7.7072458548
 20
4.3693722184
 11
7.7219117463
 21
4.3662891388
  0
LINE
  5
614
100
AcDbEntity
  8
0
100
AcDbLine
 62
7
  6
CONTINUOUS
 10
7.7219117463
 20
4.3662891388
 11
7.7419977739
 21
4.3607975374
  0
LWPOLYLINE
  5
615
100
AcDbEntity
  8
0
100
AcDbPolyline
 62
7
  6
CONTINUOUS
 90
14
 70
0
 10
7.9315293969
 20
4.2155749464
 10
7.9310017092
 20
4.2157381287
 10
7.9304530934
 20
4.2160278915
 10
7.9299232705
 20
4.2163703147
 10
7.9294115925
 20
4.2167386379
 10
7.928901077
 20
4.2171323588
 10
7.9283798474
 20
4.2175546882
 10
7.9278370526
 20
4.2180114523
 10
7.9272624268
 20
4.2185098971
 10
7.926646025
 20
4.2190581456
 10
7.9259780929
 20
4.2196648772
 10
7.9252490535
 20
4.2203390581
 10
7.9244496183
 20
4.2210896257
 10
7.9235710352
 20
4.2219250744
  0
LINE
  5
616
100
AcDbEntity
  8
0
100
AcDbLine
 62
7
  6
CONTINUOUS
 10
7.7419977739
 20
4.3607975374
 11
7.7601116964
 21
4.3547657457
  0
LWPOLYLINE
  5
617
100
AcDbEntity
  8
0
100
AcDbPolyline
 62
7
  6
CONTINUOUS
 90
3
 70
0
 10
7.7601116964
 20
4.3547657457
 10
7.7764170036
 20
4.3484110409
 10
7.7910718815
 20
4.3419056218
  0
LINE
  5
618
100
AcDbEntity
  8
0
100
AcDbLine
 62
7
  6
CONTINUOUS
 10
7.7910718815
 20
4.3419056218
 11
7.8042485026
 21
4.3353731018
  0
LWPOLYLINE
  5
619
100
AcDbEntity
  8
0
100
AcDbPolyline
 62
7
  6
CONTINUOUS
 90
50
 70
0
 10
7.8042485026
 20
4.3353731018
 10
7.8161223593
 20
4.3288950089
 10
7.8268670256
 20
4.3225164891
 10
7.8366506001
 20
4.3162517565
 10
7.8456149533
 20
4.3101020891
 10
7.8538095252
 20
4.3041130086
 10
7.8612598847
 20
4.2983407882
 10
7.867995716
 20
4.2928341798
 10
7.8740550404
 20
4.2876296856
 10
7.8794948764
 20
4.282739944
 10
7.8843680286
 20
4.2781722776
 10
7.888724885
 20
4.2739279284
 10
7.8926136156
 20
4.2700025233
 10
7.8960800187
 20
4.2663868774
 10
7.8991674979
 20
4.2630676922
 10
7.9019171154
 20
4.260028171
 10
7.9043677002
 20
4.257248553
 10
7.9065559925
 20
4.2547065738
 10
7.9085168066
 20
4.2523778564
 10
7.9102832
 20
4.2502362423
 10
7.9118866379
 20
4.2482540679
 10
7.9133571432
 20
4.2464023914
 10
7.9147234226
 20
4.2446511736
 10
7.9160129619
 20
4.2429694155
 10
7.917252079
 20
4.241325252
 10
7.9184660029
 20
4.239685892
 10
7.9196775085
 20
4.2380194037
 10
7.9208922149
 20
4.2363154258
 10
7.9220907167
 20
4.2345985512
 10
7.9232529439
 20
4.2328960809
 10
7.9243599375
 20
4.2312357655
 10
7.9253938142
 20
4.2296460481
 10
7.9263381923
 20
4.2281556272
 10
7.9271838348
 20
4.2267843851
 10
7.9279381171
 20
4.2255262636
 10
7.9286037746
 20
4.2243825608
 10
7.9291858353
 20
4.2233507216
 10
7.9296918049
 20
4.2224234706
 10
7.9301305519
 20
4.2215902071
 10
7.9305112963
 20
4.220838411
 10
7.9308428806
 20
4.2201546817
 10
7.9311332872
 20
4.2195253483
 10
7.9313892704
 20
4.2189367304
 10
7.931615904
 20
4.2183751676
 10
7.931815705
 20
4.2178269448
 10
7.9319865237
 20
4.217278282
 10
7.9321155283
 20
4.2167156322
 10
7.9321556302
 20
4.2161362749
 10
7.9319782768
 20
4.2156810972
 10
7.9315293969
 20
4.2155749464
  0
LWPOLYLINE
  5
61A
100
AcDbEntity
  8
0
100
AcDbPolyline
 62
7
  6
CONTINUOUS
 90
6
 70
0
 10
7.8581774532
 20
4.2788224578
 10
7.9039861855
 20
4.2399343994
 10
7.942924416
 20
4.1936145387
 10
7.9737975158
 20
4.1411071305
 10
7.9956567603
 20
4.083801189
 10
8.0077793127
 20
4.0232748894
  0
LWPOLYLINE
  5
61B
100
AcDbEntity
  8
0
100
AcDbPolyline
 62
7
  6
CONTINUOUS
 90
15
 70
0
 10
7.9063592804
 20
4.23866723
 10
7.9045160218
 20
4.2404168718
 10
7.9025694783
 20
4.2422479963
 10
7.9004871034
 20
4.2441872013
 10
7.8982355654
 20
4.2462602209
 10
7.8957805913
 20
4.2484917138
 10
7.8930867934
 20
4.2509050113
 10
7.8901174833
 20
4.2535218154
 10
7.8868344757
 20
4.2563618428
 10
7.8831978949
 20
4.2594424046
 10
7.8791659912
 20
4.2627779172
 10
7.8746949866
 20
4.2663793366
 10
7.8697389668
 20
4.2702535106
 10
7.8642498412
 20
4.2744024471
 10
7.8581774532
 20
4.2788224578
  0
LINE
  5
61C
100
AcDbEntity
  8
0
100
AcDbLine
 62
7
  6
CONTINUOUS
 10
7.9098613041
 20
4.2353044062
 11
7.9063592804
 21
4.23866723
  0
LINE
  5
61D
100
AcDbEntity
  8
0
100
AcDbLine
 62
7
  6
CONTINUOUS
 10
7.9235710352
 20
4.2219250744
 11
7.9215462772
 21
4.223879304
  0
LINE
  5
61E
100
AcDbEntity
  8
0
100
AcDbLine
 62
7
  6
CONTINUOUS
 10
7.9132028777
 20
4.2320555511
 11
7.9098613041
 21
4.2353044062
  0
LINE
  5
61F
100
AcDbEntity
  8
0
100
AcDbLine
 62
7
  6
CONTINUOUS
 10
7.9215462772
 20
4.223879304
 11
7.9132028777
 21
4.2320555511
  0
LWPOLYLINE
  5
620
100
AcDbEntity
  8
0
100
AcDbPolyline
 62
7
  6
CONTINUOUS
 90
19
 70
0
 10
8.0608259423
 20
4.0002140689
 10
8.0532628464
 20
3.9272628093
 10
8.0332904201
 20
3.8568134423
 10
8.0016709617
 20
3.7912057373
 10
7.9593138622
 20
3.7321060678
 10
7.9068671662
 20
3.6807400458
 10
7.8462030325
 20
3.6392743463
 10
7.7801619113
 20
3.609403728
 10
7.710098634
 20
3.5914530228
 10
7.6370468065
 20
3.5859353412
 10
7.5643115962
 20
3.5933453462
 10
7.4951693755
 20
3.6130269373
 10
7.4309904294
 20
3.6441456457
 10
7.3726969013
 20
3.6863129996
 10
7.3228023321
 20
3.7379004591
 10
7.2831289062
 20
3.7966977228
 10
7.2542846543
 20
3.8614687491
 10
7.2372213834
 20
3.9299294808
 10
7.2323230623
 20
4.0002140691
  0
LWPOLYLINE
  5
621
100
AcDbEntity
  8
0
100
AcDbPolyline
 62
7
  6
CONTINUOUS
 90
11
 70
0
 10
7.6170507506
 20
4.4370248556
 10
7.6875122076
 20
4.433095395
 10
7.7556353978
 20
4.4180889146
 10
7.8201716358
 20
4.3925346186
 10
7.8805427616
 20
4.3564852654
 10
7.9343018134
 20
4.3111020903
 10
7.9794764178
 20
4.2582628186
 10
8.0150935984
 20
4.1997434615
 10
8.0410189813
 20
4.136055956
 10
8.0564626683
 20
4.0686539225
 10
8.0608259423
 20
4.0002140689
  0
LWPOLYLINE
  5
622
100
AcDbEntity
  8
0
100
AcDbPolyline
 62
7
  6
CONTINUOUS
 90
13
 70
0
 10
7.6170507506
 20
4.4370248556
 10
7.6909523227
 20
4.4292112528
 10
7.7618653615
 20
4.4090516734
 10
7.8277443522
 20
4.3773026565
 10
7.886709444
 20
4.3350577086
 10
7.9370983453
 20
4.2837175518
 10
7.9775212609
 20
4.2249452895
 10
8.0069025183
 20
4.1606133659
 10
8.0245106849
 20
4.0927465037
 10
8.0299794066
 20
4.0234630359
 10
8.0233236835
 20
3.9549279185
 10
8.0049371689
 20
3.8892287499
 10
7.9755608697
 20
3.8283354252
  0
LINE
  5
623
100
AcDbEntity
  8
0
100
AcDbLine
 62
7
  6
CONTINUOUS
 10
7.7181898552
 20
4.5100565887
 11
7.5523207652
 21
4.5100565887
  0
LINE
  5
624
100
AcDbEntity
  8
0
100
AcDbLine
 62
7
  6
CONTINUOUS
 10
7.4092714012
 20
4.5415526517
 11
7.8612392192
 21
4.5415526517
  0
LINE
  5
625
100
AcDbEntity
  8
0
100
AcDbLine
 62
7
  6
CONTINUOUS
 10
7.5523207652
 20
4.5730487147
 11
7.7181898552
 21
4.5730487147
  0
LWPOLYLINE
  5
626
100
AcDbEntity
  8
0
100
AcDbPolyline
 62
7
  6
CONTINUOUS
 90
16
 70
0
 10
7.8612392192
 20
4.5415526517
 10
7.9429570467
 20
4.49964958
 10
8.0171336564
 20
4.4455062393
 10
8.0819511126
 20
4.380449586
 10
8.1358208555
 20
4.306074042
 10
8.1774226345
 20
4.2242024185
 10
8.2057368645
 20
4.1368412421
 10
8.2200696145
 20
4.0461315787
 10
8.2200696145
 20
3.9542965594
 10
8.2057368645
 20
3.863586896
 10
8.1774226345
 20
3.7762257196
 10
8.1358208555
 20
3.6943540961
 10
8.0819511126
 20
3.6199785521
 10
8.0171336564
 20
3.5549218988
 10
7.9429570467
 20
3.5007785581
 10
7.8612392192
 20
3.4588754864
  0
LWPOLYLINE
  5
627
100
AcDbEntity
  8
0
100
AcDbPolyline
 62
7
  6
CONTINUOUS
 90
6
 70
0
 10
17.7024807917
 20
7.0530037903
 10
17.6678843461
 20
7.0639764755
 10
17.6362956796
 20
7.0786321968
 10
17.6084911595
 20
7.0965938093
 10
17.5851567262
 20
7.1174013817
 10
17.5668675616
 20
7.1405244822
  0
LWPOLYLINE
  5
628
100
AcDbEntity
  8
0
100
AcDbPolyline
 62
7
  6
CONTINUOUS
 90
7
 70
0
 10
17.6678858305
 20
7.0918147502
 10
17.7023850923
 20
7.0808667733
 10
17.739501872
 20
7.0738051695
 10
17.7778847312
 20
7.0709868421
 10
17.8161095481
 20
7.0724557139
 10
17.8535790408
 20
7.0781091836
 10
17.8896511484
 20
7.0878748909
  0
LINE
  5
629
100
AcDbEntity
  8
0
100
AcDbLine
 62
7
  6
CONTINUOUS
 10
17.7006365474
 20
7.0840973061
 11
17.6678858305
 21
7.0945986352
  0
LWPOLYLINE
  5
62A
100
AcDbEntity
  8
0
100
AcDbPolyline
 62
7
  6
CONTINUOUS
 90
8
 70
0
 10
17.5373802349
 20
7.2961306601
 10
17.6231034828
 20
7.2738784408
 10
17.7129175958
 20
7.2613719635
 10
17.8046213912
 20
7.2589432649
 10
17.8959673732
 20
7.2666773936
 10
17.9847168157
 20
7.2844103255
 10
18.068694629
 20
7.3117329838
 10
18.1458426674
 20
7.3480012646
  0
LWPOLYLINE
  5
62B
100
AcDbEntity
  8
0
100
AcDbPolyline
 62
7
  6
CONTINUOUS
 90
7
 70
0
 10
17.5373802349
 20
7.3014200415
 10
17.6231034828
 20
7.2791678223
 10
17.7129175958
 20
7.2666613449
 10
17.8046213912
 20
7.2642326463
 10
17.8959673732
 20
7.2719667751
 10
17.9847168157
 20
7.289699707
 10
18.068694629
 20
7.3170223652
  0
LINE
  5
62C
100
AcDbEntity
  8
0
100
AcDbLine
 62
7
  6
CONTINUOUS
 10
17.7024199528
 20
7.1114807131
 11
17.6678858305
 21
7.1224374848
  0
LWPOLYLINE
  5
62D
100
AcDbEntity
  8
0
100
AcDbPolyline
 62
7
  6
CONTINUOUS
 90
8
 70
0
 10
17.6678858305
 20
7.1196535999
 10
17.7006365474
 20
7.1091522708
 10
17.7358182128
 20
7.1021472654
 10
17.7722801834
 20
7.0989666826
 10
17.8087782085
 20
7.0996830895
 10
17.8446129909
 20
7.104199965
 10
17.8794542608
 20
7.112486114
 10
17.912157484
 20
7.1242934081
  0
LINE
  5
62E
100
AcDbEntity
  8
0
100
AcDbLine
 62
7
  6
CONTINUOUS
 10
17.6678858305
 20
7.1224374848
 11
17.6545566923
 21
7.1286190239
  0
LINE
  5
62F
100
AcDbEntity
  8
0
100
AcDbLine
 62
7
  6
CONTINUOUS
 10
17.6363365392
 20
7.1064486086
 11
17.6678858305
 21
7.0918147502
  0
LWPOLYLINE
  5
630
100
AcDbEntity
  8
0
100
AcDbPolyline
 62
7
  6
CONTINUOUS
 90
4
 70
0
 10
17.6678858305
 20
7.0945986352
 10
17.6363227229
 20
7.1092400796
 10
17.6082275649
 20
7.1274167382
 10
17.5903092305
 20
7.1434766658
  0
LINE
  5
631
100
AcDbEntity
  8
0
100
AcDbLine
 62
7
  6
CONTINUOUS
 10
17.6451371212
 20
7.1302062351
 11
17.6678858305
 21
7.1196535999
  0
LINE
  5
632
100
AcDbEntity
  8
0
100
AcDbLine
 62
7
  6
CONTINUOUS
 10
17.677869667
 20
7.0593003569
 11
17.6691137689
 21
7.063586549
  0
LWPOLYLINE
  5
633
100
AcDbEntity
  8
0
100
AcDbPolyline
 62
7
  6
CONTINUOUS
 90
8
 70
0
 10
17.5373802349
 20
7.463163758
 10
17.6231034828
 20
7.4409115387
 10
17.7129175958
 20
7.4284050614
 10
17.8046213912
 20
7.4259763628
 10
17.8959673732
 20
7.4337104915
 10
17.9847168157
 20
7.4514434235
 10
18.068694629
 20
7.4787660817
 10
18.0891125013
 20
7.488364785
  0
LWPOLYLINE
  5
634
100
AcDbEntity
  8
0
100
AcDbPolyline
 62
7
  6
CONTINUOUS
 90
8
 70
0
 10
17.4883816099
 20
7.48781508
 10
17.5373802349
 20
7.4684531394
 10
17.6231034828
 20
7.4462009202
 10
17.7129175958
 20
7.4336944428
 10
17.8046213912
 20
7.4312657442
 10
17.8959673732
 20
7.438999873
 10
17.9847168157
 20
7.4567328049
 10
18.062017052
 20
7.4818828756
  0
LWPOLYLINE
  5
635
100
AcDbEntity
  8
AXIS
100
AcDbPolyline
 62
7
  6
CONTINUOUS
 90
8
 70
0
 10
17.3629632808
 20
7.5295765586
 10
17.2617693341
 20
7.5778632747
 10
17.1703960482
 20
7.6359871891
 10
17.090548913
 20
7.7028793312
 10
17.0238848116
 20
7.7770117614
 10
16.9715462915
 20
7.8566491702
 10
16.9340985805
 20
7.9400841315
 10
16.9248647082
 20
7.9753863727
  0
LINE
  5
636
100
AcDbEntity
  8
0
100
AcDbLine
 62
7
  6
CONTINUOUS
 10
18.0452742982
 20
7.6785689693
 11
18.1911536615
 21
7.7150971099
  0
LINE
  5
637
100
AcDbEntity
  8
0
100
AcDbLine
 62
7
  6
CONTINUOUS
 10
17.8931097677
 20
7.6586271235
 11
18.0452742982
 21
7.6785689693
  0
LWPOLYLINE
  5
638
100
AcDbEntity
  8
AXIS
100
AcDbPolyline
 62
7
  6
CONTINUOUS
 90
4
 70
0
 10
17.9736568114
 20
7.6293218539
 10
17.8738745871
 20
7.6197296249
 10
17.7732319183
 20
7.6173247123
 10
17.6727615349
 20
7.6221317935
  0
LINE
  5
639
100
AcDbEntity
  8
0
100
AcDbLine
 62
7
  6
CONTINUOUS
 10
17.7384068658
 20
7.655762607
 11
17.8931097677
 21
7.6586271235
  0
LINE
  5
63A
100
AcDbEntity
  8
0
100
AcDbLine
 62
7
  6
CONTINUOUS
 10
17.5849748913
 20
7.6700459537
 11
17.7384068658
 21
7.655762607
  0
LWPOLYLINE
  5
63B
100
AcDbEntity
  8
AXIS
100
AcDbPolyline
 62
7
  6
CONTINUOUS
 90
5
 70
0
 10
17.6727615349
 20
7.6221317935
 10
17.573494399
 20
7.6341015416
 10
17.4764491259
 20
7.6531111307
 10
17.3826215312
 20
7.6789654966
 10
17.2929744132
 20
7.7113993387
  0
LWPOLYLINE
  5
63C
100
AcDbEntity
  8
0
100
AcDbPolyline
 62
7
  6
CONTINUOUS
 90
3
 70
0
 10
17.296911421
 20
7.748235846
 10
17.4365918487
 20
7.7011254603
 10
17.5849748913
 20
7.6700459537
  0
LWPOLYLINE
  5
63D
100
AcDbEntity
  8
0
100
AcDbPolyline
 62
7
  6
CONTINUOUS
 90
11
 70
0
 10
17.2929744132
 20
7.7424424623
 10
17.4205483878
 20
7.6986215741
 10
17.5556456979
 20
7.6680836883
 10
17.6955158427
 20
7.6514512486
 10
17.8373109656
 20
7.6490633629
 10
17.9781441094
 20
7.6609689279
 10
18.115148183
 20
7.6869257675
 10
18.2455340422
 20
7.7264056322
 10
18.3666471719
 20
7.7786049228
 10
18.4760217962
 20
7.8424610386
 10
18.5714311369
 20
7.9166740285
  0
LWPOLYLINE
  5
63E
100
AcDbEntity
  8
0
100
AcDbPolyline
 62
7
  6
CONTINUOUS
 90
8
 70
0
 10
17.2929744132
 20
7.7424424623
 10
17.1755364148
 20
7.798644574
 10
17.0705966714
 20
7.8660946493
 10
16.980295505
 20
7.9434195351
 10
16.9064739789
 20
8.0290437865
 10
16.8506359299
 20
8.1212221063
 10
16.8139106108
 20
8.2180987948
 10
16.7970575718
 20
8.3176860163
  0
LWPOLYLINE
  5
63F
100
AcDbEntity
  8
0
100
AcDbPolyline
 62
7
  6
CONTINUOUS
 90
3
 70
0
 10
17.296911421
 20
7.748235846
 10
17.1693730039
 20
7.8102170969
 10
17.0571170164
 20
7.8855430288
  0
LWPOLYLINE
  5
640
100
AcDbEntity
  8
0
100
AcDbPolyline
 62
7
  6
CONTINUOUS
 90
3
 70
0
 10
17.4448582126
 20
7.5018341583
 10
17.4578487753
 20
7.4945908316
 10
17.5373802349
 20
7.463163758
  0
LWPOLYLINE
  5
641
100
AcDbEntity
  8
0
100
AcDbPolyline
 62
7
  6
CONTINUOUS
 90
10
 70
0
 10
17.3249583944
 20
7.5451123052
 10
17.3864582774
 20
7.4979281199
 10
17.4578487753
 20
7.4581219386
 10
17.5373802349
 20
7.4266948649
 10
17.6231034828
 20
7.4044426457
 10
17.7129175958
 20
7.3919361684
 10
17.8046213912
 20
7.3895074698
 10
17.8959673732
 20
7.3972415985
 10
17.9847168157
 20
7.4149745304
 10
18.068694629
 20
7.4422971887
  0
LWPOLYLINE
  5
642
100
AcDbEntity
  8
0
100
AcDbPolyline
 62
7
  6
CONTINUOUS
 90
3
 70
0
 10
17.5856776812
 20
7.1448406657
 10
17.6082482961
 20
7.1246170844
 10
17.6363365392
 20
7.1064486086
  0
LINE
  5
643
100
AcDbEntity
  8
0
100
AcDbLine
 62
7
  6
CONTINUOUS
 10
17.0571170164
 20
7.8855430288
 11
16.9629075735
 21
7.9723588673
  0
LWPOLYLINE
  5
644
100
AcDbEntity
  8
0
100
AcDbPolyline
 62
7
  6
CONTINUOUS
 90
12
 70
0
 10
17.3115486651
 20
7.5541100711
 10
17.3249583944
 20
7.5398229238
 10
17.3864582774
 20
7.4926387385
 10
17.4578487753
 20
7.4528325572
 10
17.5373802349
 20
7.4214054835
 10
17.6231034828
 20
7.3991532643
 10
17.7129175958
 20
7.3866467869
 10
17.8046213912
 20
7.3842180883
 10
17.8959673732
 20
7.3919522171
 10
17.9847168157
 20
7.409685149
 10
18.068694629
 20
7.4370078072
 10
18.1458426674
 20
7.473276088
  0
LINE
  5
645
100
AcDbEntity
  8
0
100
AcDbLine
 62
7
  6
CONTINUOUS
 10
17.3205402137
 20
7.5498195738
 11
17.3249583944
 21
7.5451123052
  0
LWPOLYLINE
  5
646
100
AcDbEntity
  8
0
100
AcDbPolyline
 62
7
  6
CONTINUOUS
 90
16
 70
0
 10
17.5668666556
 20
7.1433097657
 10
17.5851558279
 20
7.1201862149
 10
17.6084904419
 20
7.0993782384
 10
17.6362953559
 20
7.0814162595
 10
17.6678845625
 20
7.0667602766
 10
17.7024809225
 20
7.0557876423
 10
17.7392342522
 20
7.0487853557
 10
17.7772381883
 20
7.0459434856
 10
17.8155555153
 20
7.0473490151
 10
17.8532437719
 20
7.0529842185
 10
17.8893757849
 20
7.0627276223
 10
17.9230606921
 20
7.0763560743
 10
17.9534697335
 20
7.0935512102
 10
17.9798549795
 20
7.1139074015
 10
18.0015666685
 20
7.1369410915
 10
18.0098016578
 20
7.1494965868
  0
LWPOLYLINE
  5
647
100
AcDbEntity
  8
0
100
AcDbPolyline
 62
7
  6
CONTINUOUS
 90
15
 70
0
 10
17.296911421
 20
8.1240603163
 10
17.4365918487
 20
8.0769499306
 10
17.5849748913
 20
8.0458704241
 10
17.7384068658
 20
8.0315870773
 10
17.8931097677
 20
8.0344515938
 10
18.0452742982
 20
8.0543934396
 10
18.1911536615
 20
8.0909215802
 10
18.3271558237
 20
8.1431365717
 10
18.44993196
 20
8.2097527076
 10
18.5564589145
 20
8.2891296776
 10
18.6441136401
 20
8.3793129572
 10
18.7107377865
 20
8.4780819349
 10
18.7546908462
 20
8.5830045905
 10
18.7748905488
 20
8.6914973801
 10
18.7762421297
 20
8.7279945491
  0
LWPOLYLINE
  5
648
100
AcDbEntity
  8
0
100
AcDbPolyline
 62
7
  6
CONTINUOUS
 90
8
 70
0
 10
17.296911421
 20
8.1240603163
 10
17.1693730039
 20
8.1860415672
 10
17.0571170164
 20
8.2613674991
 10
16.9629075735
 20
8.3481833377
 10
16.8890644244
 20
8.4443513888
 10
16.8374058325
 20
8.5475036758
 10
16.8092038037
 20
8.6551002472
 10
16.8038011848
 20
8.7279945491
  0
LINE
  5
649
100
AcDbEntity
  8
0
100
AcDbLine
 62
7
  6
CONTINUOUS
 10
16.9629075735
 20
7.9723588673
 11
16.8890644244
 21
8.0685269184
  0
LWPOLYLINE
  5
64A
100
AcDbEntity
  8
0
100
AcDbPolyline
 62
7
  6
CONTINUOUS
 90
6
 70
0
 10
17.2373801389
 20
7.5261709271
 10
17.274856378
 20
7.4679283644
 10
17.3249583944
 20
7.4145481003
 10
17.3864582774
 20
7.367363915
 10
17.4578487753
 20
7.3275577337
 10
17.5373802349
 20
7.2961306601
  0
LWPOLYLINE
  5
64B
100
AcDbEntity
  8
0
100
AcDbPolyline
 62
7
  6
CONTINUOUS
 90
6
 70
0
 10
17.2373801389
 20
7.5314603085
 10
17.274856378
 20
7.4732177458
 10
17.3249583944
 20
7.4198374818
 10
17.3864582774
 20
7.3726532965
 10
17.4578487753
 20
7.3328471152
 10
17.5373802349
 20
7.3014200415
  0
LWPOLYLINE
  5
64C
100
AcDbEntity
  8
0
100
AcDbPolyline
 62
7
  6
CONTINUOUS
 90
13
 70
0
 10
17.2373801389
 20
7.5679292016
 10
17.274856378
 20
7.5096866389
 10
17.3249583944
 20
7.4563063748
 10
17.3864582774
 20
7.4091221895
 10
17.4578487753
 20
7.3693160082
 10
17.5373802349
 20
7.3378889346
 10
17.6231034828
 20
7.3156367153
 10
17.7129175958
 20
7.303130238
 10
17.8046213912
 20
7.3007015394
 10
17.8959673732
 20
7.3084356681
 10
17.9847168157
 20
7.3261686
 10
18.068694629
 20
7.3534912583
 10
18.1458426674
 20
7.389759539
  0
LWPOLYLINE
  5
64D
100
AcDbEntity
  8
0
100
AcDbPolyline
 62
7
  6
CONTINUOUS
 90
13
 70
0
 10
17.2551467887
 20
7.582075975
 10
17.274856378
 20
7.5514449133
 10
17.3249583944
 20
7.4980646493
 10
17.3864582774
 20
7.450880464
 10
17.4578487753
 20
7.4110742827
 10
17.5373802349
 20
7.379647209
 10
17.6231034828
 20
7.3573949898
 10
17.7129175958
 20
7.3448885124
 10
17.8046213912
 20
7.3424598139
 10
17.8959673732
 20
7.3501939426
 10
17.9847168157
 20
7.3679268745
 10
18.068694629
 20
7.3952495328
 10
18.1458426674
 20
7.4315178135
  0
LWPOLYLINE
  5
64E
100
AcDbEntity
  8
0
100
AcDbPolyline
 62
7
  6
CONTINUOUS
 90
12
 70
0
 10
17.2609086122
 20
7.5784107928
 10
17.274856378
 20
7.5567342948
 10
17.3249583944
 20
7.5033540307
 10
17.3864582774
 20
7.4561698454
 10
17.4578487753
 20
7.4163636641
 10
17.5373802349
 20
7.3849365905
 10
17.6231034828
 20
7.3626843712
 10
17.7129175958
 20
7.3501778939
 10
17.8046213912
 20
7.3477491953
 10
17.8959673732
 20
7.355483324
 10
17.9847168157
 20
7.3732162559
 10
18.068694629
 20
7.4005389142
  0
LINE
  5
64F
100
AcDbEntity
  8
0
100
AcDbLine
 62
7
  6
CONTINUOUS
 10
16.8890644244
 20
8.0685269184
 11
16.8374058325
 21
8.1716792055
  0
LINE
  5
650
100
AcDbEntity
  8
0
100
AcDbLine
 62
7
  6
CONTINUOUS
 10
17.5625761727
 20
7.1516441033
 11
17.5668666556
 21
7.1433097657
  0
LINE
  5
651
100
AcDbEntity
  8
0
100
AcDbLine
 62
7
  6
CONTINUOUS
 10
17.5610781986
 20
7.1520852595
 11
17.5668675616
 21
7.1405244822
  0
LWPOLYLINE
  5
652
100
AcDbEntity
  8
AXIS
100
AcDbPolyline
 62
7
  6
CONTINUOUS
 90
9
 70
0
 10
16.928757198
 20
7.9702238822
 10
16.940900936
 20
7.9343140062
 10
16.9731628982
 20
7.8704433255
 10
17.0150017824
 20
7.8094135391
 10
17.065927066
 20
7.7519401654
 10
17.1253416967
 20
7.6986970271
 10
17.1925490922
 20
7.6503083513
 10
17.2667613072
 20
7.6073414511
 10
17.3471082714
 20
7.570300074
  0
LWPOLYLINE
  5
653
100
AcDbEntity
  8
0
100
AcDbPolyline
 62
7
  6
CONTINUOUS
 90
3
 70
0
 10
16.8374058325
 20
8.1716792055
 10
16.8092038037
 20
8.2792757769
 10
16.8038011848
 20
8.3521700788
  0
LINE
  5
654
100
AcDbEntity
  8
0
100
AcDbLine
 62
7
  6
CONTINUOUS
 10
16.7970575718
 20
8.3176860163
 11
16.7959271691
 21
8.3511985253
  0
LWPOLYLINE
  5
655
100
AcDbEntity
  8
AXIS
100
AcDbPolyline
 62
7
  6
CONTINUOUS
 90
12
 70
0
 10
16.7959291097
 20
8.3201554016
 10
16.796494309
 20
8.296414512
 10
16.8049884714
 20
8.2254625451
 10
16.8235904072
 20
8.1554822551
 10
16.8521092355
 20
8.0871917344
 10
16.8902523144
 20
8.0212917362
 10
16.9376282444
 20
7.9584584836
 10
16.9937508842
 20
7.8993367309
 10
17.0580443397
 20
7.8445331472
 10
17.129848873
 20
7.7946100914
 10
17.2084276724
 20
7.7500798417
 10
17.2929744132
 20
7.7113993387
  0
LWPOLYLINE
  5
656
100
AcDbEntity
  8
0
100
AcDbPolyline
 62
7
  6
CONTINUOUS
 90
48
 70
0
 10
16.8057696887
 20
10.9119523044
 10
16.8066854899
 20
10.9434327971
 10
16.8094353275
 20
10.974886927
 10
16.8140208979
 20
11.0062560873
 10
16.8204538667
 20
11.0375350407
 10
16.828728464
 20
11.0686248383
 10
16.838838281
 20
11.0994592
 10
16.850809711
 20
11.1300602752
 10
16.8646238258
 20
11.1603198778
 10
16.8802495429
 20
11.1901358943
 10
16.8977158917
 20
11.2195255363
 10
16.9169853593
 20
11.2483845695
 10
16.9379902688
 20
11.276591498
 10
16.9607561873
 20
11.304160316
 10
16.9852193163
 20
11.3309905476
 10
17.0112798534
 20
11.3569661566
 10
17.0389603474
 20
11.3821025605
 10
17.0681631132
 20
11.4063018162
 10
17.0987741331
 20
11.4294730648
 10
17.1308178585
 20
11.4516356762
 10
17.1641622172
 20
11.4726975552
 10
17.1986968847
 20
11.4925980894
 10
17.2344493297
 20
11.5113573336
 10
17.2712595179
 20
11.5288944544
 10
17.3090309383
 20
11.5451741286
 10
17.3477892269
 20
11.5602121432
 10
17.3873580415
 20
11.573944189
 10
17.4276652396
 20
11.5863545537
 10
17.4686991963
 20
11.5974440611
 10
17.5103088894
 20
11.6071759771
 10
17.5524298575
 20
11.6155417851
 10
17.5950150628
 20
11.622535493
 10
17.6379437355
 20
11.6281403747
 10
17.6811489298
 20
11.6323515253
 10
17.7245610457
 20
11.6351641286
 10
17.7680844128
 20
11.6365735126
 10
17.8116416815
 20
11.6365786269
 10
17.8551554731
 20
11.6351799571
 10
17.8985484557
 20
11.6323795299
 10
17.9417253472
 20
11.6281829652
 10
17.9846164451
 20
11.6225960891
 10
18.0271556033
 20
11.6156247189
 10
18.0692233509
 20
11.6072863208
 10
18.1107715172
 20
11.5975881614
 10
18.151736268
 20
11.5865397836
 10
18.1919685841
 20
11.5741784751
 10
18.2314568953
 20
11.5605045909
 10
18.2701362707
 20
11.5455322277
  0
LINE
  5
657
100
AcDbEntity
  8
0
100
AcDbLine
 62
7
  6
CONTINUOUS
 10
17.224262508
 20
7.6017219281
 11
17.2373801389
 21
7.5679292016
  0
LWPOLYLINE
  5
658
100
AcDbEntity
  8
0
100
AcDbPolyline
 62
7
  6
CONTINUOUS
 90
13
 70
0
 10
17.2269889717
 20
7.5999875837
 10
17.2373801389
 20
7.573218583
 10
17.274856378
 20
7.5149760203
 10
17.3249583944
 20
7.4615957563
 10
17.3864582774
 20
7.4144115709
 10
17.4578487753
 20
7.3746053896
 10
17.5373802349
 20
7.343178316
 10
17.6231034828
 20
7.3209260967
 10
17.7129175958
 20
7.3084196194
 10
17.8046213912
 20
7.3059909208
 10
17.8959673732
 20
7.3137250495
 10
17.9847168157
 20
7.3314579815
 10
18.068694629
 20
7.3587806397
  0
LWPOLYLINE
  5
659
100
AcDbEntity
  8
0
100
AcDbPolyline
 62
7
  6
CONTINUOUS
 90
25
 70
0
 10
16.8057696887
 20
10.9119523044
 10
16.8067064785
 20
10.8815944652
 10
16.8095150646
 20
10.8512944139
 10
16.8141901008
 20
10.8211098284
 10
16.8207226877
 20
10.7910981667
 10
16.8291003904
 20
10.7613165576
 10
16.8393072613
 20
10.7318216923
 10
16.8513238711
 20
10.7026697159
 10
16.8651273455
 20
10.6739161207
 10
16.8806914087
 20
10.645615641
 10
16.8979864338
 20
10.6178221482
 10
16.9169794986
 20
10.5905885489
 10
16.9376344488
 20
10.5639666838
 10
16.9599119665
 20
10.538007229
 10
16.9837696452
 20
10.5127596
 10
17.0091620703
 20
10.488271857
 10
17.0360409061
 20
10.4645906138
 10
17.0643549872
 20
10.441760949
 10
17.0940504159
 20
10.4198263202
 10
17.1250706655
 20
10.3988284811
 10
17.1573566871
 20
10.3788074024
 10
17.1908470224
 20
10.3598011954
 10
17.2254779207
 20
10.3418460393
 10
17.2611834601
 20
10.324976113
 10
17.297895673
 20
10.3092235291
  0
LINE
  5
65A
100
AcDbEntity
  8
AXIS
100
AcDbLine
 62
7
  6
CONTINUOUS
 10
16.8057696887
 20
10.6059805898
 11
16.8065696754
 21
10.5779258495
  0
LINE
  5
65B
100
AcDbEntity
  8
AXIS
100
AcDbLine
 62
7
  6
CONTINUOUS
 10
16.7959271691
 20
8.3511985253
 11
16.7959271691
 21
8.3201554017
  0
LINE
  5
65C
100
AcDbEntity
  8
0
100
AcDbLine
 62
7
  6
CONTINUOUS
 10
16.8038011848
 20
8.3521700788
 11
16.8038011848
 21
8.7279945491
  0
LINE
  5
65D
100
AcDbEntity
  8
AXIS
100
AcDbLine
 62
7
  6
CONTINUOUS
 10
16.8038011848
 20
9.4852112597
 11
16.8038011848
 21
9.86103573
  0
LINE
  5
65E
100
AcDbEntity
  8
AXIS
100
AcDbLine
 62
7
  6
CONTINUOUS
 10
16.8057696887
 20
8.7014347044
 11
16.8057696887
 21
9.4586514149
  0
LINE
  5
65F
100
AcDbEntity
  8
AXIS
100
AcDbLine
 62
7
  6
CONTINUOUS
 10
16.8057696887
 20
9.8344758852
 11
16.8057696887
 21
10.9119523044
  0
LWPOLYLINE
  5
660
100
AcDbEntity
  8
AXIS
100
AcDbPolyline
 62
7
  6
CONTINUOUS
 90
3
 70
0
 10
16.8038011848
 20
9.86103573
 10
16.8051527657
 20
9.8975328991
 10
16.8057696887
 20
9.9008463985
  0
LWPOLYLINE
  5
661
100
AcDbEntity
  8
0
100
AcDbPolyline
 62
7
  6
CONTINUOUS
 90
3
 70
0
 10
16.8038011848
 20
8.7279945491
 10
16.8051527657
 20
8.7644917182
 10
16.8057696887
 20
8.7678052176
  0
LINE
  5
662
100
AcDbEntity
  8
0
100
AcDbLine
 62
7
  6
CONTINUOUS
 10
16.7959271691
 20
8.3511985253
 11
16.8004202894
 21
8.4179554881
  0
LWPOLYLINE
  5
663
100
AcDbEntity
  8
0
100
AcDbPolyline
 62
7
  6
CONTINUOUS
 90
14
 70
0
 10
17.203646949
 20
7.5313621642
 10
17.2134481526
 20
7.4678374001
 10
17.2373801389
 20
7.4061854851
 10
17.274856378
 20
7.3479429224
 10
17.3249583944
 20
7.2945626583
 10
17.3864582774
 20
7.247378473
 10
17.4578487753
 20
7.2075722917
 10
17.5373802349
 20
7.1761452181
 10
17.6231034828
 20
7.1538929988
 10
17.7129175958
 20
7.1413865215
 10
17.8046213912
 20
7.1389578229
 10
17.8959673732
 20
7.1466919516
 10
17.9847168157
 20
7.1644248835
 10
18.068694629
 20
7.1917475418
  0
LWPOLYLINE
  5
664
100
AcDbEntity
  8
0
100
AcDbPolyline
 62
7
  6
CONTINUOUS
 90
15
 70
0
 10
17.2073799742
 20
7.5436361159
 10
17.2134481526
 20
7.5043062932
 10
17.2373801389
 20
7.4426543781
 10
17.274856378
 20
7.3844118154
 10
17.3249583944
 20
7.3310315514
 10
17.3864582774
 20
7.2838473661
 10
17.4578487753
 20
7.2440411848
 10
17.5373802349
 20
7.2126141111
 10
17.6231034828
 20
7.1903618919
 10
17.7129175958
 20
7.1778554145
 10
17.8046213912
 20
7.1754267159
 10
17.8959673732
 20
7.1831608447
 10
17.9847168157
 20
7.2008937766
 10
18.068694629
 20
7.2282164348
 10
18.1458426674
 20
7.2644847156
  0
LWPOLYLINE
  5
665
100
AcDbEntity
  8
0
100
AcDbPolyline
 62
7
  6
CONTINUOUS
 90
14
 70
0
 10
17.203646949
 20
7.5731204386
 10
17.2134481526
 20
7.5095956746
 10
17.2373801389
 20
7.4479437596
 10
17.274856378
 20
7.3897011969
 10
17.3249583944
 20
7.3363209328
 10
17.3864582774
 20
7.2891367475
 10
17.4578487753
 20
7.2493305662
 10
17.5373802349
 20
7.2179034925
 10
17.6231034828
 20
7.1956512733
 10
17.7129175958
 20
7.183144796
 10
17.8046213912
 20
7.1807160974
 10
17.8959673732
 20
7.1884502261
 10
17.9847168157
 20
7.206183158
 10
18.068694629
 20
7.2335058163
  0
LWPOLYLINE
  5
666
100
AcDbEntity
  8
0
100
AcDbPolyline
 62
7
  6
CONTINUOUS
 90
15
 70
0
 10
17.2073799742
 20
7.5853943904
 10
17.2134481526
 20
7.5460645677
 10
17.2373801389
 20
7.4844126526
 10
17.274856378
 20
7.4261700899
 10
17.3249583944
 20
7.3727898259
 10
17.3864582774
 20
7.3256056405
 10
17.4578487753
 20
7.2857994592
 10
17.5373802349
 20
7.2543723856
 10
17.6231034828
 20
7.2321201663
 10
17.7129175958
 20
7.219613689
 10
17.8046213912
 20
7.2171849904
 10
17.8959673732
 20
7.2249191191
 10
17.9847168157
 20
7.2426520511
 10
18.068694629
 20
7.2699747093
 10
18.1458426674
 20
7.3062429901
  0
LWPOLYLINE
  5
667
100
AcDbEntity
  8
0
100
AcDbPolyline
 62
7
  6
CONTINUOUS
 90
14
 70
0
 10
17.203646949
 20
7.6148787131
 10
17.2134481526
 20
7.5513539491
 10
17.2373801389
 20
7.489702034
 10
17.274856378
 20
7.4314594713
 10
17.3249583944
 20
7.3780792073
 10
17.3864582774
 20
7.330895022
 10
17.4578487753
 20
7.2910888407
 10
17.5373802349
 20
7.259661767
 10
17.6231034828
 20
7.2374095478
 10
17.7129175958
 20
7.2249030704
 10
17.8046213912
 20
7.2224743718
 10
17.8959673732
 20
7.2302085006
 10
17.9847168157
 20
7.2479414325
 10
18.068694629
 20
7.2752640908
  0
LWPOLYLINE
  5
668
100
AcDbEntity
  8
0
100
AcDbPolyline
 62
7
  6
CONTINUOUS
 90
3
 70
0
 10
17.2098934014
 20
7.6108623318
 10
17.2134481526
 20
7.5878228422
 10
17.2373801389
 20
7.5261709271
  0
LWPOLYLINE
  5
669
100
AcDbEntity
  8
0
100
AcDbPolyline
 62
7
  6
CONTINUOUS
 90
3
 70
0
 10
17.2107983105
 20
7.6102867056
 10
17.2134481526
 20
7.5931122236
 10
17.2373801389
 20
7.5314603085
  0
LINE
  5
66A
100
AcDbEntity
  8
0
100
AcDbLine
 62
7
  6
CONTINUOUS
 10
16.8004202894
 20
8.4179554881
 11
16.8057696887
 21
8.4404612744
  0
LWPOLYLINE
  5
66B
100
AcDbEntity
  8
AXIS
100
AcDbPolyline
 62
7
  6
CONTINUOUS
 90
8
 70
0
 10
17.296911421
 20
8.8812770269
 10
17.1693730039
 20
8.9432582777
 10
17.0571170164
 20
9.0185842097
 10
16.9629075735
 20
9.1054000482
 10
16.8890644244
 20
9.2015680993
 10
16.8374058325
 20
9.3047203864
 10
16.8092038037
 20
9.4123169578
 10
16.8038011848
 20
9.4852112597
  0
LINE
  5
66C
100
AcDbEntity
  8
AXIS
100
AcDbLine
 62
7
  6
CONTINUOUS
 10
16.8065696754
 20
10.5779258495
 11
16.8219021023
 21
10.4804886284
  0
LWPOLYLINE
  5
66D
100
AcDbEntity
  8
0
100
AcDbPolyline
 62
7
  6
CONTINUOUS
 90
16
 70
0
 10
17.203407484
 20
7.537733821
 10
17.203646949
 20
7.5260727827
 10
17.2134481526
 20
7.4625480187
 10
17.2373801389
 20
7.4008961037
 10
17.274856378
 20
7.342653541
 10
17.3249583944
 20
7.2892732769
 10
17.3864582774
 20
7.2420890916
 10
17.4578487753
 20
7.2022829103
 10
17.5373802349
 20
7.1708558366
 10
17.6231034828
 20
7.1486036174
 10
17.7129175958
 20
7.13609714
 10
17.8046213912
 20
7.1336684415
 10
17.8959673732
 20
7.1414025702
 10
17.9847168157
 20
7.1591355021
 10
18.068694629
 20
7.1864581604
 10
18.1458426674
 20
7.2227264411
  0
LINE
  5
66E
100
AcDbEntity
  8
0
100
AcDbLine
 62
7
  6
CONTINUOUS
 10
17.203407484
 20
7.5430232024
 11
17.203646949
 21
7.5313621642
  0
LINE
  5
66F
100
AcDbEntity
  8
0
100
AcDbLine
 62
7
  6
CONTINUOUS
 10
17.203407484
 20
7.5847814769
 11
17.203646949
 21
7.5731204386
  0
LWPOLYLINE
  5
670
100
AcDbEntity
  8
AXIS
100
AcDbPolyline
 62
7
  6
CONTINUOUS
 90
3
 70
0
 10
17.297895673
 20
9.9243108336
 10
17.3035892535
 20
9.9483183948
 10
17.3093044464
 20
9.9723525234
  0
LINE
  5
671
100
AcDbEntity
  8
AXIS
100
AcDbLine
 62
7
  6
CONTINUOUS
 10
17.3093044464
 20
9.9723525234
 11
17.31504099
 21
9.9964129959
  0
LINE
  5
672
100
AcDbEntity
  8
AXIS
100
AcDbLine
 62
7
  6
CONTINUOUS
 10
17.297895673
 20
10.0819371639
 11
17.2785190657
 21
10.0054505531
  0
LWPOLYLINE
  5
673
100
AcDbEntity
  8
AXIS
100
AcDbPolyline
 62
7
  6
CONTINUOUS
 90
15
 70
0
 10
17.296911421
 20
8.8812770269
 10
17.4365918487
 20
8.8341666411
 10
17.5849748913
 20
8.8030871346
 10
17.7384068658
 20
8.7888037879
 10
17.8931097677
 20
8.7916683044
 10
18.0452742982
 20
8.8116101502
 10
18.1911536615
 20
8.8481382908
 10
18.3271558237
 20
8.9003532823
 10
18.44993196
 20
8.9669694182
 10
18.5564589145
 20
9.0463463882
 10
18.6441136401
 20
9.1365296678
 10
18.7107377865
 20
9.2352986454
 10
18.7546908462
 20
9.340221301
 10
18.7748905488
 20
9.4487140906
 10
18.7762421297
 20
9.4852112597
  0
LINE
  5
674
100
AcDbEntity
  8
AXIS
100
AcDbLine
 62
7
  6
CONTINUOUS
 10
16.8219021023
 20
10.4804886284
 11
16.8564450089
 21
10.385541733
  0
LINE
  5
675
100
AcDbEntity
  8
AXIS
100
AcDbLine
 62
7
  6
CONTINUOUS
 10
17.2783991881
 20
10.0051737732
 11
17.2785237102
 21
10.0007980176
  0
LINE
  5
676
100
AcDbEntity
  8
0
100
AcDbLine
 62
7
  6
CONTINUOUS
 10
17.204928903
 20
7.6012805736
 11
17.203407484
 21
7.5847814769
  0
LINE
  5
677
100
AcDbEntity
  8
0
100
AcDbLine
 62
7
  6
CONTINUOUS
 10
17.204928903
 20
7.5595222991
 11
17.203407484
 21
7.5430232024
  0
LWPOLYLINE
  5
678
100
AcDbEntity
  8
AXIS
100
AcDbPolyline
 62
7
  6
CONTINUOUS
 90
8
 70
0
 10
17.296911421
 20
9.2571014972
 10
17.1693730039
 20
9.3190827481
 10
17.0571170164
 20
9.39440868
 10
16.9629075735
 20
9.4812245185
 10
16.8890644244
 20
9.5773925696
 10
16.8374058325
 20
9.6805448567
 10
16.8092038037
 20
9.7881414281
 10
16.8038011848
 20
9.86103573
  0
LINE
  5
679
100
AcDbEntity
  8
AXIS
100
AcDbLine
 62
7
  6
CONTINUOUS
 10
17.297895673
 20
9.9243108336
 11
17.2785190657
 21
10.0007974444
  0
LWPOLYLINE
  5
67A
100
AcDbEntity
  8
0
100
AcDbPolyline
 62
7
  6
CONTINUOUS
 90
4
 70
0
 10
17.31504099
 20
9.9961573643
 10
17.3093044613
 20
10.0247230472
 10
17.3035892829
 20
10.0533163848
 10
17.297895673
 20
10.0819371639
  0
LWPOLYLINE
  5
67B
100
AcDbEntity
  8
AXIS
100
AcDbPolyline
 62
7
  6
CONTINUOUS
 90
15
 70
0
 10
17.296911421
 20
9.2571014972
 10
17.4365918487
 20
9.2099911115
 10
17.5849748913
 20
9.1789116049
 10
17.7384068658
 20
9.1646282582
 10
17.8931097677
 20
9.1674927747
 10
18.0452742982
 20
9.1874346205
 10
18.1911536615
 20
9.2239627611
 10
18.3271558237
 20
9.2761777526
 10
18.44993196
 20
9.3427938885
 10
18.5564589145
 20
9.4221708585
 10
18.6441136401
 20
9.5123541381
 10
18.7107377865
 20
9.6111231157
 10
18.7546908462
 20
9.7160457714
 10
18.7748905488
 20
9.8245385609
 10
18.7762421297
 20
9.86103573
  0
LWPOLYLINE
  5
67C
100
AcDbEntity
  8
AXIS
100
AcDbPolyline
 62
7
  6
CONTINUOUS
 90
6
 70
0
 10
16.8564450089
 20
10.385541733
 10
16.9095129399
 20
10.2949690658
 10
16.9800529161
 20
10.2105677829
 10
17.0666652063
 20
10.1340126977
 10
17.1676311298
 20
10.0668229279
 10
17.2798892432
 20
10.0108591487
  0
LWPOLYLINE
  5
67D
100
AcDbEntity
  8
AXIS
100
AcDbPolyline
 62
7
  6
CONTINUOUS
 90
8
 70
0
 10
17.2785237102
 20
10.0007980176
 10
17.2788561311
 20
9.9997165195
 10
17.2822498584
 20
9.9948046475
 10
17.2880531533
 20
9.991197239
 10
17.2953729559
 20
9.9894471654
 10
17.3030856095
 20
9.9898248764
 10
17.3099978245
 20
9.9922736839
 10
17.31504099
 20
9.9964129959
  0
LWPOLYLINE
  5
67E
100
AcDbEntity
  8
0
100
AcDbPolyline
 62
7
  6
CONTINUOUS
 90
14
 70
0
 10
18.620131348
 20
10.538007229
 10
18.6424088657
 20
10.5639666838
 10
18.6630638159
 20
10.5905885489
 10
18.6820568807
 20
10.6178221482
 10
18.6993519058
 20
10.645615641
 10
18.714915969
 20
10.6739161207
 10
18.7287194434
 20
10.7026697159
 10
18.7407360532
 20
10.7318216923
 10
18.7509429241
 20
10.7613165576
 10
18.7593206267
 20
10.7910981667
 10
18.7658532137
 20
10.8211098284
 10
18.7705282499
 20
10.851294414
 10
18.773336836
 20
10.8815944652
 10
18.7742736258
 20
10.9119523044
  0
LWPOLYLINE
  5
67F
100
AcDbEntity
  8
AXIS
100
AcDbPolyline
 62
7
  6
CONTINUOUS
 90
3
 70
0
 10
18.4718241003
 20
10.1040356894
 10
18.5648039637
 20
10.1767578533
 10
18.6424088657
 20
10.2579949692
  0
LINE
  5
680
100
AcDbEntity
  8
0
100
AcDbLine
 62
7
  6
CONTINUOUS
 10
18.1458426674
 20
7.2227264411
 11
18.1458426674
 21
7.2280158226
  0
LINE
  5
681
100
AcDbEntity
  8
0
100
AcDbLine
 62
7
  6
CONTINUOUS
 10
18.1458426674
 20
7.2644847156
 11
18.1458426674
 21
7.269774097
  0
LINE
  5
682
100
AcDbEntity
  8
0
100
AcDbLine
 62
7
  6
CONTINUOUS
 10
18.1458426674
 20
7.3062429901
 11
18.1458426674
 21
7.3115323715
  0
LINE
  5
683
100
AcDbEntity
  8
0
100
AcDbLine
 62
7
  6
CONTINUOUS
 10
18.1458426674
 20
7.3480012646
 11
18.1458426674
 21
7.353290646
  0
LINE
  5
684
100
AcDbEntity
  8
0
100
AcDbLine
 62
7
  6
CONTINUOUS
 10
18.1458426674
 20
7.389759539
 11
18.1458426674
 21
7.3950489205
  0
LINE
  5
685
100
AcDbEntity
  8
0
100
AcDbLine
 62
7
  6
CONTINUOUS
 10
18.1458426674
 20
7.4315178135
 11
18.1458426674
 21
7.436807195
  0
LINE
  5
686
100
AcDbEntity
  8
0
100
AcDbLine
 62
7
  6
CONTINUOUS
 10
18.1458426674
 20
7.473276088
 11
18.1458426674
 21
7.4785654694
  0
LINE
  5
687
100
AcDbEntity
  8
0
100
AcDbLine
 62
7
  6
CONTINUOUS
 10
18.6424088657
 20
10.2579949692
 11
18.7062340778
 21
10.3517103222
  0
LINE
  5
688
100
AcDbEntity
  8
0
100
AcDbLine
 62
7
  6
CONTINUOUS
 10
18.1895944913
 20
7.2457601318
 11
18.1895944913
 21
7.2660182509
  0
LINE
  5
689
100
AcDbEntity
  8
0
100
AcDbLine
 62
7
  6
CONTINUOUS
 10
18.2069859322
 20
7.4933076164
 11
18.2069859322
 21
7.4857697045
  0
LINE
  5
68A
100
AcDbEntity
  8
0
100
AcDbLine
 62
7
  6
CONTINUOUS
 10
18.2069859322
 20
7.4515493419
 11
18.2069859322
 21
7.44401143
  0
LINE
  5
68B
100
AcDbEntity
  8
0
100
AcDbLine
 62
7
  6
CONTINUOUS
 10
18.2069859322
 20
7.4097910674
 11
18.2069859322
 21
7.4022531556
  0
LINE
  5
68C
100
AcDbEntity
  8
0
100
AcDbLine
 62
7
  6
CONTINUOUS
 10
18.2069859322
 20
7.3680327929
 11
18.2069859322
 21
7.3604948811
  0
LINE
  5
68D
100
AcDbEntity
  8
0
100
AcDbLine
 62
7
  6
CONTINUOUS
 10
18.2069859322
 20
7.3262745184
 11
18.2069859322
 21
7.3187366066
  0
LINE
  5
68E
100
AcDbEntity
  8
0
100
AcDbLine
 62
7
  6
CONTINUOUS
 10
18.2173673494
 20
7.2720417836
 11
18.2173673494
 21
7.2960386816
  0
LINE
  5
68F
100
AcDbEntity
  8
0
100
AcDbLine
 62
7
  6
CONTINUOUS
 10
18.3003018944
 20
7.3996330105
 11
18.3003018944
 21
7.3736154422
  0
LINE
  5
690
100
AcDbEntity
  8
0
100
AcDbLine
 62
7
  6
CONTINUOUS
 10
18.3106833116
 20
7.4482551588
 11
18.3106833116
 21
7.4557930707
  0
LINE
  5
691
100
AcDbEntity
  8
0
100
AcDbLine
 62
7
  6
CONTINUOUS
 10
18.3106833116
 20
7.4900134333
 11
18.3106833116
 21
7.4975513451
  0
LINE
  5
692
100
AcDbEntity
  8
0
100
AcDbLine
 62
7
  6
CONTINUOUS
 10
18.3106833116
 20
7.5317717078
 11
18.3106833116
 21
7.5393096196
  0
LINE
  5
693
100
AcDbEntity
  8
0
100
AcDbLine
 62
7
  6
CONTINUOUS
 10
18.3186037835
 20
7.4253659198
 11
18.3186037835
 21
7.4037636009
  0
LINE
  5
694
100
AcDbEntity
  8
0
100
AcDbLine
 62
7
  6
CONTINUOUS
 10
18.7062340778
 20
10.3517103222
 11
18.7495947957
 21
10.4511075298
  0
LWPOLYLINE
  5
695
100
AcDbEntity
  8
AXIS
100
AcDbPolyline
 62
7
  6
CONTINUOUS
 90
10
 70
0
 10
17.31504099
 20
9.9964129959
 10
17.4408863267
 20
9.9552669591
 10
17.5736596004
 20
9.9270330963
 10
17.7107261795
 20
9.9122716578
 10
17.8493661934
 20
9.9112755576
 10
17.9868285563
 20
9.9240645459
 10
18.1203857195
 20
9.9503848592
 10
18.2473876601
 20
9.9897143012
 10
18.3653140387
 20
10.0412724292
 10
18.4718241003
 20
10.1040356894
  0
LWPOLYLINE
  5
696
100
AcDbEntity
  8
0
100
AcDbPolyline
 62
7
  6
CONTINUOUS
 90
3
 70
0
 10
18.3766358305
 20
7.5639023397
 10
18.3763963655
 20
7.5759431886
 10
18.3751809796
 20
7.584078799
  0
LINE
  5
697
100
AcDbEntity
  8
0
100
AcDbLine
 62
7
  6
CONTINUOUS
 10
18.3766358305
 20
7.6056606142
 11
18.3764521694
 21
7.6148955158
  0
LINE
  5
698
100
AcDbEntity
  8
0
100
AcDbLine
 62
7
  6
CONTINUOUS
 10
18.3718265764
 20
7.5935615106
 11
18.3718265764
 21
7.5882721292
  0
LINE
  5
699
100
AcDbEntity
  8
0
100
AcDbLine
 62
7
  6
CONTINUOUS
 10
18.3718265764
 20
7.5518032361
 11
18.3718265764
 21
7.5465138547
  0
LINE
  5
69A
100
AcDbEntity
  8
0
100
AcDbLine
 62
7
  6
CONTINUOUS
 10
18.3718265764
 20
7.5100449617
 11
18.3718265764
 21
7.5047555802
  0
LWPOLYLINE
  5
69B
100
AcDbEntity
  8
0
100
AcDbPolyline
 62
7
  6
CONTINUOUS
 90
36
 70
0
 10
17.297895673
 20
10.3092235291
 10
17.3355446757
 20
10.2946182738
 10
17.3740588012
 20
10.2811881489
 10
17.4133647356
 20
10.2689587193
 10
17.4533876579
 20
10.2579532647
 10
17.4940513821
 20
10.2481927343
 10
17.5352785026
 20
10.2396957081
 10
17.5769905412
 20
10.2324783604
 10
17.6191080965
 20
10.2265544301
 10
17.6615509956
 20
10.2219351935
 10
17.7042384459
 20
10.2186294438
 10
17.7470891894
 20
10.2166434735
 10
17.7900216572
 20
10.2159810631
 10
17.8329541251
 20
10.2166434735
 10
17.8758048686
 20
10.2186294438
 10
17.9184923189
 20
10.2219351935
 10
17.9609352179
 20
10.2265544301
 10
18.0030527733
 20
10.2324783604
 10
18.0447648119
 20
10.2396957081
 10
18.0859919323
 20
10.2481927343
 10
18.1266556566
 20
10.2579532647
 10
18.1666785789
 20
10.2689587193
 10
18.2059845133
 20
10.2811881489
 10
18.2444986388
 20
10.2946182738
 10
18.2821476415
 20
10.3092235291
 10
18.3188598544
 20
10.324976113
 10
18.3545653938
 20
10.3418460393
 10
18.3891962921
 20
10.3598011954
 10
18.4226866274
 20
10.3788074024
 10
18.454972649
 20
10.3988284811
 10
18.4859928986
 20
10.4198263202
 10
18.5156883273
 20
10.441760949
 10
18.5440024083
 20
10.4645906138
 10
18.5708812441
 20
10.488271857
 10
18.5962736693
 20
10.5127596
 10
18.620131348
 20
10.538007229
  0
LINE
  5
69C
100
AcDbEntity
  8
0
100
AcDbLine
 62
7
  6
CONTINUOUS
 10
18.3718265764
 20
7.5935615106
 11
18.3735469771
 21
7.6128277568
  0
LINE
  5
69D
100
AcDbEntity
  8
0
100
AcDbLine
 62
7
  6
CONTINUOUS
 10
18.3718265764
 20
7.5882721292
 11
18.3740513546
 21
7.6131867455
  0
LINE
  5
69E
100
AcDbEntity
  8
0
100
AcDbLine
 62
7
  6
CONTINUOUS
 10
18.3718265764
 20
7.5518032361
 11
18.3766358305
 21
7.6056606142
  0
LINE
  5
69F
100
AcDbEntity
  8
0
100
AcDbLine
 62
7
  6
CONTINUOUS
 10
18.3718265764
 20
7.5465138547
 11
18.3755259298
 21
7.5879417913
  0
LINE
  5
6A0
100
AcDbEntity
  8
0
100
AcDbLine
 62
7
  6
CONTINUOUS
 10
18.3718265764
 20
7.5100449617
 11
18.3766358305
 21
7.5639023397
  0
LINE
  5
6A1
100
AcDbEntity
  8
0
100
AcDbLine
 62
7
  6
CONTINUOUS
 10
18.3718265764
 20
7.5047555802
 11
18.3755259298
 21
7.5461835169
  0
LINE
  5
6A2
100
AcDbEntity
  8
0
100
AcDbLine
 62
7
  6
CONTINUOUS
 10
18.7495947957
 20
10.4511075298
 11
18.7715209494
 21
10.5539657984
  0
LWPOLYLINE
  5
6A3
100
AcDbEntity
  8
0
100
AcDbPolyline
 62
7
  6
CONTINUOUS
 90
69
 70
0
 10
17.4176462407
 20
10.4132072699
 10
17.454081083
 20
10.4019663888
 10
17.4911936984
 20
10.3918923586
 10
17.5289077176
 20
10.3830059548
 10
17.5671477349
 20
10.3753249305
 10
17.6058365538
 20
10.3688647964
 10
17.6448963198
 20
10.3636385508
 10
17.6842483502
 20
10.359656722
 10
17.7238133999
 20
10.3569273284
 10
17.7635117865
 20
10.3554558668
 10
17.8032635617
 20
10.3552453006
 10
17.842988669
 20
10.3562960539
 10
17.8826071054
 20
10.3586060105
 10
17.9220390833
 20
10.3621705184
 10
17.96120519
 20
10.3669823991
 10
18.0000265487
 20
10.3730319617
 10
18.0384249767
 20
10.3803070231
 10
18.0763231431
 20
10.3887929319
 10
18.1136447243
 20
10.3984725983
 10
18.1503145581
 20
10.4093265284
 10
18.1862587949
 20
10.4213328632
 10
18.2214050462
 20
10.4344674232
 10
18.2556825306
 20
10.4487037565
 10
18.2890222164
 20
10.4640131924
 10
18.3213569605
 20
10.4803648992
 10
18.3526216438
 20
10.497725946
 10
18.3827533019
 20
10.5160613692
 10
18.4116912525
 20
10.5353342429
 10
18.4393772171
 20
10.5555057534
 10
18.4657554388
 20
10.576535277
 10
18.4907727942
 20
10.5983804623
 10
18.5143789006
 20
10.6209973149
 10
18.5365262176
 20
10.6443402866
 10
18.5571701423
 20
10.6683623669
 10
18.5762690999
 20
10.6930151773
 10
18.5937846268
 20
10.7182490695
 10
18.6096814482
 20
10.7440132246
 10
18.6239275495
 20
10.7702557559
 10
18.6364942403
 20
10.7969238135
 10
18.6473562125
 20
10.8239636903
 10
18.6564915909
 20
10.8513209303
 10
18.6638819778
 20
10.8789404387
 10
18.6695124896
 20
10.9067665923
 10
18.673371787
 20
10.9347433517
 10
18.6754520977
 20
10.9628143743
 10
18.6757492321
 20
10.9909231275
 10
18.6742625919
 20
11.019013003
 10
18.670995171
 20
11.0470274303
 10
18.6659535497
 20
11.0749099908
 10
18.6591478813
 20
11.1026045317
 10
18.6505918719
 20
11.1300552786
 10
18.6403027525
 20
11.1572069482
 10
18.6283012444
 20
11.1840048596
 10
18.6146115176
 20
11.2103950443
 10
18.5992611419
 20
11.2363243546
 10
18.5822810315
 20
11.2617405715
 10
18.563705383
 20
11.286592509
 10
18.5435716059
 20
11.3108301175
 10
18.521920248
 20
11.3344045846
 10
18.4987949126
 20
11.3572684338
 10
18.4742421735
 20
11.3793756183
 10
18.4483114733
 20
11.4006816198
 10
18.4210550482
 20
11.4211435191
 10
18.3925277443
 20
11.44072014
 10
18.3627871583
 20
11.4593719637
 10
18.3318927328
 20
11.4770616922
 10
18.2999081017
 20
11.4937529443
 10
18.266894801
 20
11.509413556
 10
18.2329350431
 20
11.5240053263
  0
LINE
  5
6A4
100
AcDbEntity
  8
0
100
AcDbLine
 62
7
  6
CONTINUOUS
 10
17.3819593343
 20
10.4255934006
 11
17.4176462407
 21
10.4132072699
  0
LINE
  5
6A5
100
AcDbEntity
  8
0
100
AcDbLine
 62
7
  6
CONTINUOUS
 10
17.3471082714
 20
10.4390935308
 11
17.3819593343
 21
10.4255934006
  0
LINE
  5
6A6
100
AcDbEntity
  8
0
100
AcDbLine
 62
7
  6
CONTINUOUS
 10
18.78298974
 20
8.3846517626
 11
18.7742736258
 21
8.4361946503
  0
LINE
  5
6A7
100
AcDbEntity
  8
0
100
AcDbLine
 62
7
  6
CONTINUOUS
 10
18.7762421297
 20
8.7279945491
 11
18.7742736258
 21
8.7545543939
  0
LINE
  5
6A8
100
AcDbEntity
  8
AXIS
100
AcDbLine
 62
7
  6
CONTINUOUS
 10
18.7762421297
 20
9.86103573
 11
18.7742736258
 21
9.8875955748
  0
LINE
  5
6A9
100
AcDbEntity
  8
0
100
AcDbLine
 62
7
  6
CONTINUOUS
 10
18.7841161454
 20
8.3511985253
 11
18.78298974
 21
8.3846517626
  0
LINE
  5
6AA
100
AcDbEntity
  8
AXIS
100
AcDbLine
 62
7
  6
CONTINUOUS
 10
18.7742736258
 20
8.6881838806
 11
18.7742736258
 21
9.4454005912
  0
LINE
  5
6AB
100
AcDbEntity
  8
AXIS
100
AcDbLine
 62
7
  6
CONTINUOUS
 10
18.7742736258
 20
9.8212250615
 11
18.7742736258
 21
10.9119523044
  0
LINE
  5
6AC
100
AcDbEntity
  8
0
100
AcDbLine
 62
7
  6
CONTINUOUS
 10
18.7762421297
 20
8.3521700788
 11
18.7762421297
 21
8.7279945491
  0
LINE
  5
6AD
100
AcDbEntity
  8
AXIS
100
AcDbLine
 62
7
  6
CONTINUOUS
 10
18.7762421297
 20
9.4852112597
 11
18.7762421297
 21
9.86103573
  0
LINE
  5
6AE
100
AcDbEntity
  8
AXIS
100
AcDbLine
 62
7
  6
CONTINUOUS
 10
18.7841161454
 20
8.3511985253
 11
18.7841161454
 21
8.3201554017
  0
LWPOLYLINE
  5
6AF
100
AcDbEntity
  8
AXIS
100
AcDbPolyline
 62
7
  6
CONTINUOUS
 90
12
 70
0
 10
18.7841142048
 20
8.3201554018
 10
18.7818482329
 20
8.272700711
 10
18.7699699774
 20
8.2019920798
 10
18.7480361261
 20
8.1324959642
 10
18.7162717499
 20
8.0649254884
 10
18.6750027944
 20
7.9999740169
 10
18.6246527348
 20
7.9383080397
 10
18.5657382309
 20
7.8805603331
 10
18.4988638253
 20
7.8273234668
 10
18.4247157398
 20
7.779143723
 10
18.3440548342
 20
7.7365154912
 10
18.2577087984
 20
7.6998761947
  0
LINE
  5
6B0
100
AcDbEntity
  8
0
100
AcDbLine
 62
7
  6
CONTINUOUS
 10
18.7715209494
 20
10.5539657984
 11
18.7742736258
 21
10.6059805898
  0
LINE
  5
6B1
100
AcDbEntity
  8
0
100
AcDbLine
 62
7
  6
CONTINUOUS
 10
18.3174592527
 20
7.3979301086
 11
18.3186037835
 21
7.4037636009
  0
LINE
  5
6B2
100
AcDbEntity
  8
0
100
AcDbLine
 62
7
  6
CONTINUOUS
 10
18.3325483776
 20
7.4455265587
 11
18.3306434679
 21
7.4361759918
  0
LINE
  5
6B3
100
AcDbEntity
  8
0
100
AcDbLine
 62
7
  6
CONTINUOUS
 10
18.7796154951
 20
8.284385774
 11
18.7841161454
 21
8.3511985253
  0
LWPOLYLINE
  5
6B4
100
AcDbEntity
  8
0
100
AcDbPolyline
 62
7
  6
CONTINUOUS
 90
3
 70
0
 10
18.7546908462
 20
8.2071801202
 10
18.7748905488
 20
8.3156729098
 10
18.7762421297
 20
8.3521700788
  0
LWPOLYLINE
  5
6B5
100
AcDbEntity
  8
AXIS
100
AcDbPolyline
 62
7
  6
CONTINUOUS
 90
19
 70
0
 10
18.6522556105
 20
7.9721145201
 10
18.647699459
 20
7.9561069089
 10
18.6187195434
 20
7.891454274
 10
18.5800239028
 20
7.8293961993
 10
18.5320662082
 20
7.7706602588
 10
18.4754087197
 20
7.7159350777
 10
18.4107156945
 20
7.6658622588
 10
18.3387455993
 20
7.6210288601
 10
18.2603422175
 20
7.5819605122
 10
18.1764247572
 20
7.5491152557
 10
18.0879770738
 20
7.5228781713
 10
17.9960361356
 20
7.5035568647
 10
17.901679866
 20
7.4913778608
 10
17.806014506
 20
7.486483947
 10
17.7101616445
 20
7.4889325001
 10
17.6152450685
 20
7.498694813
 10
17.5223775883
 20
7.5156564316
 10
17.4326479901
 20
7.5396184964
 10
17.3471082714
 20
7.570300074
  0
LWPOLYLINE
  5
6B6
100
AcDbEntity
  8
AXIS
100
AcDbPolyline
 62
7
  6
CONTINUOUS
 90
7
 70
0
 10
18.6545850616
 20
7.9749675034
 10
18.639297601
 20
7.9222513826
 10
18.5932028601
 20
7.8304309338
 10
18.52926588
 20
7.7444368207
 10
18.4479845415
 20
7.6658083946
 10
18.3517392966
 20
7.5973062277
 10
18.2429929704
 20
7.5405847185
  0
LINE
  5
6B7
100
AcDbEntity
  8
0
100
AcDbLine
 62
7
  6
CONTINUOUS
 10
18.3299957402
 20
7.441772077
 11
18.3186037835
 21
7.4037636009
  0
LINE
  5
6B8
100
AcDbEntity
  8
0
100
AcDbLine
 62
7
  6
CONTINUOUS
 10
18.3306434679
 20
7.4361759918
 11
18.3174592527
 21
7.3979301086
  0
LINE
  5
6B9
100
AcDbEntity
  8
0
100
AcDbLine
 62
7
  6
CONTINUOUS
 10
18.316257964
 20
7.5472825213
 11
18.3106833116
 21
7.5317717078
  0
LINE
  5
6BA
100
AcDbEntity
  8
0
100
AcDbLine
 62
7
  6
CONTINUOUS
 10
18.3162578594
 20
7.5055240973
 11
18.3106833116
 21
7.4900134333
  0
LINE
  5
6BB
100
AcDbEntity
  8
0
100
AcDbLine
 62
7
  6
CONTINUOUS
 10
18.3162578611
 20
7.4637658252
 11
18.3106833116
 21
7.4482551588
  0
LWPOLYLINE
  5
6BC
100
AcDbEntity
  8
0
100
AcDbPolyline
 62
7
  6
CONTINUOUS
 90
3
 70
0
 10
18.3174592527
 20
7.3979301086
 10
18.3120288301
 20
7.3865660684
 10
18.3053427447
 20
7.3755019262
  0
LINE
  5
6BD
100
AcDbEntity
  8
0
100
AcDbLine
 62
7
  6
CONTINUOUS
 10
18.3186037835
 20
7.4037636009
 11
18.3136298271
 21
7.393384553
  0
LWPOLYLINE
  5
6BE
100
AcDbEntity
  8
0
100
AcDbPolyline
 62
7
  6
CONTINUOUS
 90
3
 70
0
 10
18.1458426674
 20
7.4785654694
 10
18.1663274328
 20
7.5100263677
 10
18.1683523074
 20
7.5130325625
  0
LWPOLYLINE
  5
6BF
100
AcDbEntity
  8
0
100
AcDbPolyline
 62
7
  6
CONTINUOUS
 90
4
 70
0
 10
18.1458426674
 20
7.436807195
 10
18.1663274328
 20
7.4682680932
 10
18.1867174155
 20
7.4985397256
 10
18.2067648728
 20
7.5272118175
  0
LWPOLYLINE
  5
6C0
100
AcDbEntity
  8
0
100
AcDbPolyline
 62
7
  6
CONTINUOUS
 90
4
 70
0
 10
18.1458426674
 20
7.3950489205
 10
18.1663274328
 20
7.4265098187
 10
18.1867174155
 20
7.4567814511
 10
18.2069859322
 20
7.4857697045
  0
LWPOLYLINE
  5
6C1
100
AcDbEntity
  8
0
100
AcDbPolyline
 62
7
  6
CONTINUOUS
 90
3
 70
0
 10
18.3136298271
 20
7.393384553
 10
18.3075165665
 20
7.3833143603
 10
18.3003018944
 20
7.3736154422
  0
LWPOLYLINE
  5
6C2
100
AcDbEntity
  8
0
100
AcDbPolyline
 62
7
  6
CONTINUOUS
 90
3
 70
0
 10
18.2144877042
 20
7.2632574642
 10
18.2160323478
 20
7.2657046536
 10
18.2173673494
 20
7.2720417836
  0
LWPOLYLINE
  5
6C3
100
AcDbEntity
  8
0
100
AcDbPolyline
 62
7
  6
CONTINUOUS
 90
3
 70
0
 10
18.2974222492
 20
7.3648311228
 10
18.2989668928
 20
7.3672783122
 10
18.3003018944
 20
7.3736154422
  0
LWPOLYLINE
  5
6C4
100
AcDbEntity
  8
0
100
AcDbPolyline
 62
7
  6
CONTINUOUS
 90
4
 70
0
 10
18.1458426674
 20
7.353290646
 10
18.1663274328
 20
7.3847515442
 10
18.1867174155
 20
7.4150231766
 10
18.2069859322
 20
7.44401143
  0
LWPOLYLINE
  5
6C5
100
AcDbEntity
  8
0
100
AcDbPolyline
 62
7
  6
CONTINUOUS
 90
4
 70
0
 10
18.1458426674
 20
7.3115323715
 10
18.1663274328
 20
7.3429932698
 10
18.1867174155
 20
7.3732649021
 10
18.2069859322
 20
7.4022531556
  0
LWPOLYLINE
  5
6C6
100
AcDbEntity
  8
0
100
AcDbPolyline
 62
7
  6
CONTINUOUS
 90
4
 70
0
 10
18.1458426674
 20
7.269774097
 10
18.1663274328
 20
7.3012349953
 10
18.1867174155
 20
7.3315066276
 10
18.2069859322
 20
7.3604948811
  0
LWPOLYLINE
  5
6C7
100
AcDbEntity
  8
0
100
AcDbPolyline
 62
7
  6
CONTINUOUS
 90
4
 70
0
 10
18.3718265764
 20
7.5882721292
 10
18.3513385482
 20
7.5568063016
 10
18.3309482923
 20
7.5265344436
 10
18.3106833116
 20
7.4975513451
  0
LWPOLYLINE
  5
6C8
100
AcDbEntity
  8
0
100
AcDbPolyline
 62
7
  6
CONTINUOUS
 90
4
 70
0
 10
18.1458426674
 20
7.2280158226
 10
18.1663274328
 20
7.2594767208
 10
18.1867174155
 20
7.2897483532
 10
18.2069859322
 20
7.3187366066
  0
LWPOLYLINE
  5
6C9
100
AcDbEntity
  8
0
100
AcDbPolyline
 62
7
  6
CONTINUOUS
 90
4
 70
0
 10
18.3718265764
 20
7.5465138547
 10
18.3513385482
 20
7.5150480271
 10
18.3309482923
 20
7.4847761692
 10
18.3106833116
 20
7.4557930707
  0
LWPOLYLINE
  5
6CA
100
AcDbEntity
  8
0
100
AcDbPolyline
 62
7
  6
CONTINUOUS
 90
11
 70
0
 10
18.0120884011
 20
7.1501991919
 10
18.001566681
 20
7.1341572223
 10
17.9798549846
 20
7.1111235212
 10
17.9534697286
 20
7.090767322
 10
17.9230606659
 20
7.0735721767
 10
17.8893757778
 20
7.059943735
 10
17.853243795
 20
7.0502003383
 10
17.8155555374
 20
7.0445651321
 10
17.7772381869
 20
7.0431596006
 10
17.7392342003
 20
7.0460014776
 10
17.7024807917
 20
7.0530037903
  0
LWPOLYLINE
  5
6CB
100
AcDbEntity
  8
0
100
AcDbPolyline
 62
7
  6
CONTINUOUS
 90
3
 70
0
 10
18.3498148386
 20
7.5963024405
 10
18.3309482923
 20
7.5682927181
 10
18.3106833116
 20
7.5393096196
  0
LWPOLYLINE
  5
6CC
100
AcDbEntity
  8
0
100
AcDbPolyline
 62
7
  6
CONTINUOUS
 90
3
 70
0
 10
18.6441136401
 20
8.0034884869
 10
18.7107377865
 20
8.1022574646
 10
18.7546908462
 20
8.2071801202
  0
LWPOLYLINE
  5
6CD
100
AcDbEntity
  8
0
100
AcDbPolyline
 62
7
  6
CONTINUOUS
 90
12
 70
0
 10
17.9949435919
 20
7.1271308595
 10
17.9903082918
 20
7.1203216081
 10
17.9692262291
 20
7.0987680461
 10
17.9440668583
 20
7.0800870202
 10
17.9155098498
 20
7.0645706942
 10
17.8840102531
 20
7.0523819407
 10
17.8501304297
 20
7.0437690289
 10
17.8150658498
 20
7.0390317085
 10
17.779457849
 20
7.0382255852
 10
17.7438447462
 20
7.0414290423
 10
17.7095629965
 20
7.048574616
 10
17.677869667
 20
7.0593003569
  0
LWPOLYLINE
  5
6CE
100
AcDbEntity
  8
0
100
AcDbPolyline
 62
7
  6
CONTINUOUS
 90
3
 70
0
 10
17.9664658094
 20
7.0858504052
 10
17.9791674861
 20
7.1043394879
 10
17.9830275472
 20
7.1128780301
  0
LWPOLYLINE
  5
6CF
100
AcDbEntity
  8
0
100
AcDbPolyline
 62
7
  6
CONTINUOUS
 90
4
 70
0
 10
18.6509327439
 20
7.9997330559
 10
18.7129080551
 20
8.0899471635
 10
18.7560953604
 20
8.1854797099
 10
18.7796154951
 20
8.284385774
  0
LWPOLYLINE
  5
6D0
100
AcDbEntity
  8
0
100
AcDbPolyline
 62
7
  6
CONTINUOUS
 90
4
 70
0
 10
18.3003018944
 20
7.3996330105
 10
18.3239959592
 20
7.4329474523
 10
18.34778335
 20
7.4679345288
 10
18.3718265764
 20
7.5047555802
  0
LINE
  5
6D1
100
AcDbEntity
  8
0
100
AcDbLine
 62
7
  6
CONTINUOUS
 10
18.3053427447
 20
7.3755019262
 11
18.2974222492
 21
7.3648311228
  0
LWPOLYLINE
  5
6D2
100
AcDbEntity
  8
0
100
AcDbPolyline
 62
7
  6
CONTINUOUS
 90
3
 70
0
 10
18.185565356
 20
7.2358336293
 10
18.1884769778
 20
7.2396288123
 10
18.1895944913
 20
7.2457601318
  0
LINE
  5
6D3
100
AcDbEntity
  8
0
100
AcDbLine
 62
7
  6
CONTINUOUS
 10
18.3003018944
 20
7.3736154422
 11
18.2173673494
 21
7.2720417836
  0
LINE
  5
6D4
100
AcDbEntity
  8
0
100
AcDbLine
 62
7
  6
CONTINUOUS
 10
18.2974222492
 20
7.3648311228
 11
18.2144877042
 21
7.2632574642
  0
LINE
  5
6D5
100
AcDbEntity
  8
0
100
AcDbLine
 62
7
  6
CONTINUOUS
 10
18.2173673494
 20
7.2720417836
 11
18.2090959853
 21
7.2627742582
  0
LWPOLYLINE
  5
6D6
100
AcDbEntity
  8
0
100
AcDbPolyline
 62
7
  6
CONTINUOUS
 90
3
 70
0
 10
18.1958313806
 20
7.5231759305
 10
18.186721361
 20
7.5134652962
 10
18.1663295077
 20
7.4928735316
  0
LWPOLYLINE
  5
6D7
100
AcDbEntity
  8
0
100
AcDbPolyline
 62
7
  6
CONTINUOUS
 90
3
 70
0
 10
18.2069859322
 20
7.4933076164
 10
18.186721361
 20
7.4717070217
 10
18.1663295077
 20
7.4511152571
  0
LWPOLYLINE
  5
6D8
100
AcDbEntity
  8
0
100
AcDbPolyline
 62
7
  6
CONTINUOUS
 90
3
 70
0
 10
18.2069859322
 20
7.4515493419
 10
18.186721361
 20
7.4299487472
 10
18.1663295077
 20
7.4093569826
  0
LWPOLYLINE
  5
6D9
100
AcDbEntity
  8
0
100
AcDbPolyline
 62
7
  6
CONTINUOUS
 90
3
 70
0
 10
18.3106833116
 20
7.5317717078
 10
18.3309515813
 20
7.5533761395
 10
18.3513431286
 20
7.5739674008
  0
LWPOLYLINE
  5
6DA
100
AcDbEntity
  8
0
100
AcDbPolyline
 62
7
  6
CONTINUOUS
 90
3
 70
0
 10
18.2069859322
 20
7.4097910674
 10
18.186721361
 20
7.3881904727
 10
18.1663295077
 20
7.3675987082
  0
LWPOLYLINE
  5
6DB
100
AcDbEntity
  8
0
100
AcDbPolyline
 62
7
  6
CONTINUOUS
 90
3
 70
0
 10
18.3106833116
 20
7.4900134333
 10
18.3309515813
 20
7.5116178651
 10
18.3513431286
 20
7.5322091263
  0
LWPOLYLINE
  5
6DC
100
AcDbEntity
  8
0
100
AcDbPolyline
 62
7
  6
CONTINUOUS
 90
3
 70
0
 10
18.2069859322
 20
7.3680327929
 10
18.186721361
 20
7.3464321983
 10
18.1663295077
 20
7.3258404337
  0
LWPOLYLINE
  5
6DD
100
AcDbEntity
  8
0
100
AcDbPolyline
 62
7
  6
CONTINUOUS
 90
3
 70
0
 10
18.3106833116
 20
7.4482551588
 10
18.3309515813
 20
7.4698595906
 10
18.3513431286
 20
7.4904508518
  0
LWPOLYLINE
  5
6DE
100
AcDbEntity
  8
0
100
AcDbPolyline
 62
7
  6
CONTINUOUS
 90
3
 70
0
 10
18.2069859322
 20
7.3262745184
 10
18.186721361
 20
7.3046739238
 10
18.1663295077
 20
7.2840821592
  0
LINE
  5
6DF
100
AcDbEntity
  8
0
100
AcDbLine
 62
7
  6
CONTINUOUS
 10
18.5714311369
 20
7.9166740285
 11
18.6509327439
 21
7.9997330559
  0
LWPOLYLINE
  5
6E0
100
AcDbEntity
  8
0
100
AcDbPolyline
 62
7
  6
CONTINUOUS
 90
17
 70
0
 10
17.9664658094
 20
7.0858504052
 10
17.9501722386
 20
7.0688277072
 10
17.9306184637
 20
7.0536179268
 10
17.9082025434
 20
7.0405306914
 10
17.8833808009
 20
7.0298324192
 10
17.8566585356
 20
7.0217408964
 10
17.8285797356
 20
7.0164208429
 10
17.7997160043
 20
7.0139805597
 10
17.770654924
 20
7.014469724
 10
17.7419880946
 20
7.0178783777
 10
17.71429909
 20
7.0241371305
 10
17.6881515785
 20
7.0331185722
 10
17.664077848
 20
7.0446398667
 10
17.6425679703
 20
7.0584664734
 10
17.6240598245
 20
7.0743169227
 10
17.608930183
 20
7.0918685451
 10
17.6032243817
 20
7.1012902533
  0
LINE
  5
6E1
100
AcDbEntity
  8
0
100
AcDbLine
 62
7
  6
CONTINUOUS
 10
18.5564589145
 20
7.9133052073
 11
18.6441136401
 21
8.0034884869
  0
LINE
  5
6E2
100
AcDbEntity
  8
0
100
AcDbLine
 62
7
  6
CONTINUOUS
 10
18.1663295077
 20
7.4928735316
 11
18.1458426674
 21
7.473276088
  0
LINE
  5
6E3
100
AcDbEntity
  8
0
100
AcDbLine
 62
7
  6
CONTINUOUS
 10
18.1663295077
 20
7.4511152571
 11
18.1458426674
 21
7.4315178135
  0
LINE
  5
6E4
100
AcDbEntity
  8
0
100
AcDbLine
 62
7
  6
CONTINUOUS
 10
18.1663295077
 20
7.4093569826
 11
18.1458426674
 21
7.389759539
  0
LINE
  5
6E5
100
AcDbEntity
  8
0
100
AcDbLine
 62
7
  6
CONTINUOUS
 10
18.3513431286
 20
7.5739674008
 11
18.3718265764
 21
7.5935615106
  0
LINE
  5
6E6
100
AcDbEntity
  8
0
100
AcDbLine
 62
7
  6
CONTINUOUS
 10
18.1663295077
 20
7.3675987082
 11
18.1458426674
 21
7.3480012646
  0
LINE
  5
6E7
100
AcDbEntity
  8
0
100
AcDbLine
 62
7
  6
CONTINUOUS
 10
18.3513431286
 20
7.5322091263
 11
18.3718265764
 21
7.5518032361
  0
LWPOLYLINE
  5
6E8
100
AcDbEntity
  8
0
100
AcDbPolyline
 62
7
  6
CONTINUOUS
 90
3
 70
0
 10
18.3271558237
 20
7.7673121014
 10
18.44993196
 20
7.8339282373
 10
18.5564589145
 20
7.9133052073
  0
LINE
  5
6E9
100
AcDbEntity
  8
0
100
AcDbLine
 62
7
  6
CONTINUOUS
 10
18.1911536615
 20
7.7150971099
 11
18.3271558237
 21
7.7673121014
  0
LWPOLYLINE
  5
6EA
100
AcDbEntity
  8
0
100
AcDbPolyline
 62
7
  6
CONTINUOUS
 90
3
 70
0
 10
18.1698860021
 20
7.2458353108
 10
18.193673544
 20
7.2701955004
 10
18.2173673494
 20
7.2960386816
  0
LWPOLYLINE
  5
6EB
100
AcDbEntity
  8
0
100
AcDbPolyline
 62
7
  6
CONTINUOUS
 90
4
 70
0
 10
17.9764598497
 20
7.1392522692
 10
17.9724647263
 20
7.1353858435
 10
17.9442266483
 20
7.1155729096
 10
17.912157484
 20
7.0992384435
  0
LINE
  5
6EC
100
AcDbEntity
  8
0
100
AcDbLine
 62
7
  6
CONTINUOUS
 10
18.1458426674
 20
7.2227264411
 11
18.1698860021
 21
7.2458353108
  0
LINE
  5
6ED
100
AcDbEntity
  8
0
100
AcDbLine
 62
7
  6
CONTINUOUS
 10
18.1663295077
 20
7.3258404337
 11
18.1458426674
 21
7.3062429901
  0
LINE
  5
6EE
100
AcDbEntity
  8
0
100
AcDbLine
 62
7
  6
CONTINUOUS
 10
18.3513431286
 20
7.4904508518
 11
18.3718265764
 21
7.5100449617
  0
LINE
  5
6EF
100
AcDbEntity
  8
0
100
AcDbLine
 62
7
  6
CONTINUOUS
 10
18.1663295077
 20
7.2840821592
 11
18.1458426674
 21
7.2644847156
  0
LWPOLYLINE
  5
6F0
100
AcDbEntity
  8
0
100
AcDbPolyline
 62
7
  6
CONTINUOUS
 90
3
 70
0
 10
18.1961912623
 20
7.2444030192
 10
18.2058531187
 20
7.253568745
 10
18.2144877042
 20
7.2632574642
  0
LWPOLYLINE
  5
6F1
100
AcDbEntity
  8
0
100
AcDbPolyline
 62
7
  6
CONTINUOUS
 90
3
 70
0
 10
18.2090959853
 20
7.2627742582
 10
18.1998191988
 20
7.2539955696
 10
18.1895944913
 20
7.2457601318
  0
LINE
  5
6F2
100
AcDbEntity
  8
0
100
AcDbLine
 62
7
  6
CONTINUOUS
 10
18.2063014068
 20
7.527040738
 11
18.1855082624
 21
7.512240305
  0
LINE
  5
6F3
100
AcDbEntity
  8
0
100
AcDbLine
 62
7
  6
CONTINUOUS
 10
18.2069859322
 20
7.4857697045
 11
18.1855080379
 21
7.4704818038
  0
LINE
  5
6F4
100
AcDbEntity
  8
0
100
AcDbLine
 62
7
  6
CONTINUOUS
 10
18.2069859322
 20
7.44401143
 11
18.1855081929
 21
7.4287236858
  0
LINE
  5
6F5
100
AcDbEntity
  8
0
100
AcDbLine
 62
7
  6
CONTINUOUS
 10
18.2069859322
 20
7.4022531556
 11
18.1855083007
 21
7.3869655202
  0
LINE
  5
6F6
100
AcDbEntity
  8
0
100
AcDbLine
 62
7
  6
CONTINUOUS
 10
18.2069859322
 20
7.3604948811
 11
18.1855081912
 21
7.3452071352
  0
LINE
  5
6F7
100
AcDbEntity
  8
0
100
AcDbLine
 62
7
  6
CONTINUOUS
 10
18.068694629
 20
7.4422971887
 11
18.1458426674
 21
7.4785654694
  0
LWPOLYLINE
  5
6F8
100
AcDbEntity
  8
AXIS
100
AcDbPolyline
 62
7
  6
CONTINUOUS
 90
8
 70
0
 10
18.2429929704
 20
7.5405847185
 10
18.1243847474
 20
7.4968027887
 10
17.9990548951
 20
7.4668207524
 10
17.8693884613
 20
7.450961221
 10
17.7383657556
 20
7.4494425716
 10
17.608485095
 20
7.4622247262
 10
17.4826154184
 20
7.4890436778
 10
17.3629632808
 20
7.5295765586
  0
LWPOLYLINE
  5
6F9
100
AcDbEntity
  8
AXIS
100
AcDbPolyline
 62
7
  6
CONTINUOUS
 90
4
 70
0
 10
18.2577087984
 20
7.6998761947
 10
18.1665636597
 20
7.6696018021
 10
18.0715546905
 20
7.6460029699
 10
17.9736568114
 20
7.6293218539
  0
LINE
  5
6FA
100
AcDbEntity
  8
0
100
AcDbLine
 62
7
  6
CONTINUOUS
 10
18.185565356
 20
7.2358336293
 11
18.1961912623
 21
7.2444030192
  0
LINE
  5
6FB
100
AcDbEntity
  8
0
100
AcDbLine
 62
7
  6
CONTINUOUS
 10
18.2069859322
 20
7.3187366066
 11
18.1855080423
 21
7.3034487103
  0
LWPOLYLINE
  5
6FC
100
AcDbEntity
  8
0
100
AcDbPolyline
 62
7
  6
CONTINUOUS
 90
11
 70
0
 10
18.1895944913
 20
7.2457601318
 10
18.1253156353
 20
7.2048838685
 10
18.0527885131
 20
7.1716172987
 10
17.9737970901
 20
7.1467787375
 10
17.8902850357
 20
7.1309793557
 10
17.8043064322
 20
7.1246077214
 10
17.7179764352
 20
7.127820592
 10
17.6334187538
 20
7.1405389291
 10
17.5527135131
 20
7.162449861
 10
17.4778460678
 20
7.1930143773
 10
17.4701413086
 20
7.1974254821
  0
LWPOLYLINE
  5
6FD
100
AcDbEntity
  8
0
100
AcDbPolyline
 62
7
  6
CONTINUOUS
 90
12
 70
0
 10
18.185565356
 20
7.2358336293
 10
18.119825809
 20
7.1941468579
 10
18.0458983904
 20
7.1605873588
 10
17.9654803911
 20
7.1358788151
 10
17.8808211327
 20
7.1206677602
 10
17.7939894254
 20
7.1152620963
 10
17.7071321885
 20
7.1197599777
 10
17.622307948
 20
7.1340529834
 10
17.5416484767
 20
7.1578073491
 10
17.4670907794
 20
7.1905050376
 10
17.4006446617
 20
7.2313173521
 10
17.390716933
 20
7.2397145344
  0
LINE
  5
6FE
100
AcDbEntity
  8
0
100
AcDbLine
 62
7
  6
CONTINUOUS
 10
18.068694629
 20
7.4005389142
 11
18.1458426674
 21
7.436807195
  0
LINE
  5
6FF
100
AcDbEntity
  8
0
100
AcDbLine
 62
7
  6
CONTINUOUS
 10
18.068694629
 20
7.3587806397
 11
18.1458426674
 21
7.3950489205
  0
LINE
  5
700
100
AcDbEntity
  8
0
100
AcDbLine
 62
7
  6
CONTINUOUS
 10
18.068694629
 20
7.3170223652
 11
18.1458426674
 21
7.353290646
  0
LINE
  5
701
100
AcDbEntity
  8
0
100
AcDbLine
 62
7
  6
CONTINUOUS
 10
18.068694629
 20
7.2752640908
 11
18.1458426674
 21
7.3115323715
  0
LINE
  5
702
100
AcDbEntity
  8
0
100
AcDbLine
 62
7
  6
CONTINUOUS
 10
18.068694629
 20
7.2335058163
 11
18.1458426674
 21
7.269774097
  0
LINE
  5
703
100
AcDbEntity
  8
0
100
AcDbLine
 62
7
  6
CONTINUOUS
 10
18.068694629
 20
7.1917475418
 11
18.1458426674
 21
7.2280158226
  0
LWPOLYLINE
  5
704
100
AcDbEntity
  8
0
100
AcDbPolyline
 62
7
  6
CONTINUOUS
 90
7
 70
0
 10
17.9063155225
 20
7.1252484354
 10
17.8897091936
 20
7.1185171198
 10
17.8536571347
 20
7.1087482756
 10
17.8161951391
 20
7.1030865215
 10
17.7779668278
 20
7.1016081895
 10
17.7395662838
 20
7.1044194767
 10
17.7024199528
 20
7.1114807131
  0
LWPOLYLINE
  5
705
100
AcDbEntity
  8
0
100
AcDbPolyline
 62
7
  6
CONTINUOUS
 90
5
 70
0
 10
17.8896511484
 20
7.0878748909
 10
17.9230496232
 20
7.101405717
 10
17.9531734145
 20
7.1184105994
 10
17.9795624025
 20
7.1386989647
 10
17.9815677618
 20
7.1408216824
  0
LWPOLYLINE
  5
706
100
AcDbEntity
  8
0
100
AcDbPolyline
 62
7
  6
CONTINUOUS
 90
7
 70
0
 10
17.912157484
 20
7.0992384435
 10
17.8794542608
 20
7.0874311493
 10
17.8446129909
 20
7.0791450004
 10
17.8087782085
 20
7.0746281249
 10
17.7722801834
 20
7.0739117179
 10
17.7358182128
 20
7.0770923007
 10
17.7006365474
 20
7.0840973061
  0
LWPOLYLINE
  5
707
100
AcDbEntity
  8
0
100
AcDbPolyline
 62
7
  6
CONTINUOUS
 90
71
 70
0
 10
18.2329350431
 20
11.5240053263
 10
18.1980839802
 20
11.5375054565
 10
18.1623970738
 20
11.5498915872
 10
18.1259622315
 20
11.5611324683
 10
18.0888496161
 20
11.5712064985
 10
18.0511355969
 20
11.5800929023
 10
18.0128955796
 20
11.5877739266
 10
17.9742067607
 20
11.5942340607
 10
17.9351469947
 20
11.5994603063
 10
17.8957949643
 20
11.6034421351
 10
17.8562299146
 20
11.6061715287
 10
17.816531528
 20
11.6076429903
 10
17.7767797528
 20
11.6078535565
 10
17.7370546455
 20
11.6068028032
 10
17.697436209
 20
11.6044928466
 10
17.6580042312
 20
11.6009283387
 10
17.6188381245
 20
11.596116458
 10
17.5800167657
 20
11.5900668954
 10
17.5416183378
 20
11.582791834
 10
17.5037201714
 20
11.5743059252
 10
17.4663985902
 20
11.5646262588
 10
17.4297287564
 20
11.5537723287
 10
17.3937845196
 20
11.5417659939
 10
17.3586382683
 20
11.5286314339
 10
17.3243607839
 20
11.5143951006
 10
17.2910210981
 20
11.4990856647
 10
17.258686354
 20
11.4827339579
 10
17.2274216707
 20
11.4653729111
 10
17.1972900126
 20
11.4470374879
 10
17.168352062
 20
11.4277646142
 10
17.1406660974
 20
11.4075931037
 10
17.1142878757
 20
11.3865635801
 10
17.0892705203
 20
11.3647183948
 10
17.0656644139
 20
11.3421015422
 10
17.0435170969
 20
11.3187585705
 10
17.0228731722
 20
11.2947364902
 10
17.0037742146
 20
11.2700836798
 10
16.9862586877
 20
11.2448497876
 10
16.9703618663
 20
11.2190856325
 10
16.956115765
 20
11.1928431012
 10
16.9435490742
 20
11.1661750436
 10
16.932687102
 20
11.1391351668
 10
16.9235517236
 20
11.1117779268
 10
16.9161613367
 20
11.0841584184
 10
16.9105308249
 20
11.0563322648
 10
16.9066715275
 20
11.0283555054
 10
16.9045912168
 20
11.0002844828
 10
16.9042940824
 20
10.9721757296
 10
16.9057807226
 20
10.9440858541
 10
16.9090481435
 20
10.9160714268
 10
16.9140897648
 20
10.8881888663
 10
16.9208954332
 20
10.8604943254
 10
16.9294514426
 20
10.8330435785
 10
16.939740562
 20
10.8058919089
 10
16.9517420701
 20
10.7790939975
 10
16.9654317969
 20
10.7527038128
 10
16.9807821726
 20
10.7267745025
 10
16.997762283
 20
10.7013582856
 10
17.0163379315
 20
10.6765063481
 10
17.0364717086
 20
10.6522687396
 10
17.0581230665
 20
10.6286942725
 10
17.0812484019
 20
10.6058304233
 10
17.105801141
 20
10.5837232388
 10
17.1317318412
 20
10.5624172373
 10
17.1589882663
 20
10.541955338
 10
17.1875155702
 20
10.5223787171
 10
17.2172561562
 20
10.5037268934
 10
17.2481505817
 20
10.4860371649
 10
17.2801352128
 20
10.4693459128
 10
17.3131485134
 20
10.4536853011
 10
17.3471082714
 20
10.4390935308
  0
LWPOLYLINE
  5
708
100
AcDbEntity
  8
0
100
AcDbPolyline
 62
7
  6
CONTINUOUS
 90
26
 70
0
 10
18.2701362707
 20
11.5455322277
 10
18.3065606496
 20
11.5298993551
 10
18.3420651288
 20
11.5131140844
 10
18.3765833116
 20
11.4952014597
 10
18.4099405427
 20
11.4762535064
 10
18.4421946612
 20
11.4562382274
 10
18.4732852827
 20
11.4351844842
 10
18.5030324283
 20
11.4132160573
 10
18.5314990339
 20
11.3902891254
 10
18.5586200169
 20
11.3664484751
 10
18.5842229683
 20
11.341853823
 10
18.6083716019
 20
11.3164554501
 10
18.6310179296
 20
11.2903029271
 10
18.652027243
 20
11.2635690719
 10
18.6714489978
 20
11.2362143578
 10
18.6892586857
 20
11.208282825
 10
18.7053716742
 20
11.1799341088
 10
18.7198128581
 20
11.1511620978
 10
18.7325819838
 20
11.1219909959
 10
18.7436421656
 20
11.0925387263
 10
18.7529967187
 20
11.0628468393
 10
18.7606581967
 20
11.0329140444
 10
18.7666175786
 20
11.0028061534
 10
18.770870273
 20
10.9725979193
 10
18.7734227855
 20
10.9422962912
 10
18.7742736258
 20
10.9119523044
  0
CIRCLE
  5
709
100
AcDbEntity
  8
0
100
AcDbCircle
 62
7
  6
CONTINUOUS
 10
15.2229827477
 20
1.1139932523
 40
0.252091
  0
CIRCLE
  5
70A
100
AcDbEntity
  8
0
100
AcDbCircle
 62
7
  6
CONTINUOUS
 10
15.2229827477
 20
1.1139932523
 40
0.182698
  0
CIRCLE
  5
70B
100
AcDbEntity
  8
0
100
AcDbCircle
 62
7
  6
CONTINUOUS
 10
14.8013422688
 20
1.8652439144
 40
0.0638444824
  0
ARC
  5
70C
100
AcDbEntity
  8
AXIS
100
AcDbCircle
 62
7
  6
CONTINUOUS
 10
8.391160822
 20
8.9347188799
 40
0.1299212598
100
AcDbArc
 50
270.0
 51
360.0
  0
ARC
  5
70D
100
AcDbEntity
  8
AXIS
100
AcDbCircle
 62
7
  6
CONTINUOUS
 10
6.8793497984
 20
8.9347188799
 40
0.1299212598
100
AcDbArc
 50
180.0
 51
270.0
  0
ARC
  5
70E
100
AcDbEntity
  8
0
100
AcDbCircle
 62
7
  6
CONTINUOUS
 10
7.9976372
 20
8.0051797244
 40
0.1181102362
100
AcDbArc
 50
168.1896179912
 51
180.0
  0
ARC
  5
70F
100
AcDbEntity
  8
0
100
AcDbCircle
 62
7
  6
CONTINUOUS
 10
7.2728734204
 20
8.0051797244
 40
0.1181102362
100
AcDbArc
 50
0.0
 51
11.8103820088
  0
ARC
  5
710
100
AcDbEntity
  8
0
100
AcDbCircle
 62
7
  6
CONTINUOUS
 10
6.7494285385
 20
12.8933802972
 40
0.0984251969
100
AcDbArc
 50
90.0
 51
180.0
  0
ARC
  5
711
100
AcDbEntity
  8
0
100
AcDbCircle
 62
7
  6
CONTINUOUS
 10
8.5210820818
 20
12.8933802972
 40
0.0984251969
100
AcDbArc
 50
0.0
 51
90.0
  0
ARC
  5
712
100
AcDbEntity
  8
0
100
AcDbCircle
 62
7
  6
CONTINUOUS
 10
7.0525781448
 20
8.773301557
 40
0.031496063
100
AcDbArc
 50
0.0
 51
90.0
  0
ARC
  5
713
100
AcDbEntity
  8
0
100
AcDbCircle
 62
7
  6
CONTINUOUS
 10
8.2179324755
 20
8.773301557
 40
0.031496063
100
AcDbArc
 50
90.0
 51
180.0
  0
ARC
  5
714
100
AcDbEntity
  8
0
100
AcDbCircle
 62
7
  6
CONTINUOUS
 10
8.1549403496
 20
8.0882621869
 40
0.031496063
100
AcDbArc
 50
270.0
 51
360.0
  0
ARC
  5
715
100
AcDbEntity
  8
0
100
AcDbCircle
 62
7
  6
CONTINUOUS
 10
7.1155702708
 20
8.0882621869
 40
0.031496063
100
AcDbArc
 50
180.0
 51
270.0
  0
ARC
  5
716
100
AcDbEntity
  8
0
100
AcDbCircle
 62
7
  6
CONTINUOUS
 10
8.5407671212
 20
9.2083409271
 40
0.0196850394
100
AcDbArc
 50
90.0
 51
180.0
  0
ARC
  5
717
100
AcDbEntity
  8
0
100
AcDbCircle
 62
7
  6
CONTINUOUS
 10
6.7297434992
 20
9.2083409271
 40
0.0196850394
100
AcDbArc
 50
0.0
 51
90.0
  0
ARC
  5
718
100
AcDbEntity
  8
0
100
AcDbCircle
 62
7
  6
CONTINUOUS
 10
6.6510033417
 20
4.000214069
 40
0.0196850394
100
AcDbArc
 50
117.0965409678
 51
242.9034623614
  0
ARC
  5
719
100
AcDbEntity
  8
AXIS
100
AcDbCircle
 62
7
  6
CONTINUOUS
 10
6.6510033417
 20
4.000214069
 40
0.0196850394
100
AcDbArc
 50
117.5348688225
 51
242.4651311775
  0
ARC
  5
71A
100
AcDbEntity
  8
0
100
AcDbCircle
 62
7
  6
CONTINUOUS
 10
7.7181898552
 20
3.6557258801
 40
0.2283464567
100
AcDbArc
 50
270.0
 51
283.5362027374
  0
ARC
  5
71B
100
AcDbEntity
  8
0
100
AcDbCircle
 62
7
  6
CONTINUOUS
 10
7.5523207652
 20
3.6557258801
 40
0.2283464567
100
AcDbArc
 50
256.4637972626
 51
270.0
  0
ARC
  5
71C
100
AcDbEntity
  8
0
100
AcDbCircle
 62
7
  6
CONTINUOUS
 10
7.5523207652
 20
3.6557258801
 40
0.1968503937
100
AcDbArc
 50
256.4637972626
 51
270.0
  0
ARC
  5
71D
100
AcDbEntity
  8
0
100
AcDbCircle
 62
7
  6
CONTINUOUS
 10
7.7181898552
 20
3.6557258801
 40
0.1968503937
100
AcDbArc
 50
270.0
 51
283.5362027374
  0
ARC
  5
71E
100
AcDbEntity
  8
0
100
AcDbCircle
 62
7
  6
CONTINUOUS
 10
7.7181898552
 20
3.6557258801
 40
0.1653543307
100
AcDbArc
 50
270.0
 51
283.5362027374
  0
ARC
  5
71F
100
AcDbEntity
  8
0
100
AcDbCircle
 62
7
  6
CONTINUOUS
 10
7.5523207652
 20
3.6557258801
 40
0.1653543307
100
AcDbArc
 50
256.4637972626
 51
270.0
  0
CIRCLE
  5
720
100
AcDbEntity
  8
0
100
AcDbCircle
 62
7
  6
CONTINUOUS
 10
7.6352553102
 20
3.9017888722
 40
0.0196850394
  0
CIRCLE
  5
721
100
AcDbEntity
  8
0
100
AcDbCircle
 62
7
  6
CONTINUOUS
 10
7.6352553102
 20
3.9017888722
 40
0.00468503
  0
CIRCLE
  5
722
100
AcDbEntity
  8
0
100
AcDbCircle
 62
7
  6
CONTINUOUS
 10
7.5368301133
 20
4.000214069
 40
0.0196850394
  0
CIRCLE
  5
723
100
AcDbEntity
  8
0
100
AcDbCircle
 62
7
  6
CONTINUOUS
 10
7.5368301133
 20
4.000214069
 40
0.00468503
  0
ARC
  5
724
100
AcDbEntity
  8
0
100
AcDbCircle
 62
7
  6
CONTINUOUS
 10
7.5523207652
 20
4.344702258
 40
0.2283464567
100
AcDbArc
 50
90.0
 51
103.5362027374
  0
ARC
  5
725
100
AcDbEntity
  8
0
100
AcDbCircle
 62
7
  6
CONTINUOUS
 10
7.5523207652
 20
4.344702258
 40
0.1968503937
100
AcDbArc
 50
90.0
 51
103.5362027374
  0
ARC
  5
726
100
AcDbEntity
  8
0
100
AcDbCircle
 62
7
  6
CONTINUOUS
 10
7.5523207652
 20
4.344702258
 40
0.1653543307
100
AcDbArc
 50
90.0
 51
103.5362027374
  0
CIRCLE
  5
727
100
AcDbEntity
  8
AXIS
100
AcDbCircle
 62
7
  6
CONTINUOUS
 10
7.6352553102
 20
4.000214069
 40
0.9940944882
  0
ARC
  5
728
100
AcDbEntity
  8
SCHEME_DIMS
100
AcDbCircle
 62
7
  6
CONTINUOUS
 10
7.6352553102
 20
4.000214069
 40
0.9940944882
100
AcDbArc
 50
180.0
 51
229.7986158755
  0
CIRCLE
  5
729
100
AcDbEntity
  8
QUILTS
100
AcDbCircle
 62
7
  6
CONTINUOUS
 10
7.6352553102
 20
4.000214069
 40
0.9862204724
  0
CIRCLE
  5
72A
100
AcDbEntity
  8
0
100
AcDbCircle
 62
7
  6
CONTINUOUS
 10
7.6352553102
 20
4.000214069
 40
0.905511811
  0
ARC
  5
72B
100
AcDbEntity
  8
0
100
AcDbCircle
 62
7
  6
CONTINUOUS
 10
7.6352553102
 20
4.000214069
 40
0.8858267717
100
AcDbArc
 50
187.3796037165
 51
352.6203949041
  0
CIRCLE
  5
72C
100
AcDbEntity
  8
AXIS
100
AcDbCircle
 62
7
  6
CONTINUOUS
 10
7.6352553102
 20
4.000214069
 40
0.8858267717
  0
CIRCLE
  5
72D
100
AcDbEntity
  8
QUILTS
100
AcDbCircle
 62
7
  6
CONTINUOUS
 10
7.6352553102
 20
4.000214069
 40
0.8858267717
  0
CIRCLE
  5
72E
100
AcDbEntity
  8
AXIS
100
AcDbCircle
 62
7
  6
CONTINUOUS
 10
7.6352553102
 20
4.000214069
 40
0.7559055118
  0
ARC
  5
72F
100
AcDbEntity
  8
0
100
AcDbCircle
 62
7
  6
CONTINUOUS
 10
7.6352553102
 20
4.000214069
 40
0.5826771654
100
AcDbArc
 50
68.46218756
 51
76.4637972626
  0
ARC
  5
730
100
AcDbEntity
  8
0
100
AcDbCircle
 62
7
  6
CONTINUOUS
 10
7.6352553102
 20
4.000214069
 40
0.5826771654
100
AcDbArc
 50
283.5362027374
 51
291.5391316457
  0
ARC
  5
731
100
AcDbEntity
  8
0
100
AcDbCircle
 62
7
  6
CONTINUOUS
 10
7.6352553102
 20
4.000214069
 40
0.5826771654
100
AcDbArc
 50
248.4608858433
 51
256.4637972626
  0
ARC
  5
732
100
AcDbEntity
  8
0
100
AcDbCircle
 62
7
  6
CONTINUOUS
 10
7.6352553102
 20
4.000214069
 40
0.5826771654
100
AcDbArc
 50
103.5362027374
 51
111.5378680334
  0
ARC
  5
733
100
AcDbEntity
  8
0
100
AcDbCircle
 62
7
  6
CONTINUOUS
 10
7.6352553102
 20
4.000214069
 40
0.5511811024
100
AcDbArc
 50
103.5362027374
 51
256.4637972626
  0
ARC
  5
734
100
AcDbEntity
  8
0
100
AcDbCircle
 62
7
  6
CONTINUOUS
 10
7.6352553102
 20
4.000214069
 40
0.5511811024
100
AcDbArc
 50
283.5362027374
 51
76.4637972626
  0
ARC
  5
735
100
AcDbEntity
  8
0
100
AcDbCircle
 62
7
  6
CONTINUOUS
 10
7.6352553102
 20
4.000214069
 40
0.5196850394
100
AcDbArc
 50
283.5362027374
 51
76.4637972626
  0
ARC
  5
736
100
AcDbEntity
  8
0
100
AcDbCircle
 62
7
  6
CONTINUOUS
 10
7.6352553102
 20
4.000214069
 40
0.5196850394
100
AcDbArc
 50
103.5362027374
 51
256.4637972626
  0
CIRCLE
  5
737
100
AcDbEntity
  8
0
100
AcDbCircle
 62
7
  6
CONTINUOUS
 10
7.6352553102
 20
4.000214069
 40
0.4682862539
  0
CIRCLE
  5
738
100
AcDbEntity
  8
0
100
AcDbCircle
 62
7
  6
CONTINUOUS
 10
7.6352553102
 20
4.000214069
 40
0.4460151742
  0
CIRCLE
  5
739
100
AcDbEntity
  8
0
100
AcDbCircle
 62
7
  6
CONTINUOUS
 10
7.6352553102
 20
4.000214069
 40
0.3765
  0
ARC
  5
73A
100
AcDbEntity
  8
0
100
AcDbCircle
 62
7
  6
CONTINUOUS
 10
7.6352553102
 20
4.000214069
 40
0.3568149606
100
AcDbArc
 50
51.3357489792
 51
354.046306505
  0
CIRCLE
  5
73B
100
AcDbEntity
  8
0
100
AcDbCircle
 62
7
  6
CONTINUOUS
 10
7.6352553102
 20
4.000214069
 40
0.3051181102
  0
CIRCLE
  5
73C
100
AcDbEntity
  8
0
100
AcDbCircle
 62
7
  6
CONTINUOUS
 10
7.6352553102
 20
4.000214069
 40
0.2854330709
  0
CIRCLE
  5
73D
100
AcDbEntity
  8
0
100
AcDbCircle
 62
7
  6
CONTINUOUS
 10
7.6352553102
 20
4.000214069
 40
0.2829327147
  0
CIRCLE
  5
73E
100
AcDbEntity
  8
0
100
AcDbCircle
 62
7
  6
CONTINUOUS
 10
7.6352553102
 20
4.000214069
 40
0.2467720097
  0
ARC
  5
73F
100
AcDbEntity
  8
0
100
AcDbCircle
 62
7
  6
CONTINUOUS
 10
7.6352553102
 20
4.000214069
 40
0.2442716535
100
AcDbArc
 50
252.3466585695
 51
252.0004821661
  0
CIRCLE
  5
740
100
AcDbEntity
  8
0
100
AcDbCircle
 62
7
  6
CONTINUOUS
 10
7.6352553102
 20
4.000214069
 40
0.2088385907
  0
CIRCLE
  5
741
100
AcDbEntity
  8
0
100
AcDbCircle
 62
7
  6
CONTINUOUS
 10
7.6352553102
 20
4.000214069
 40
0.2037401575
  0
CIRCLE
  5
742
100
AcDbEntity
  8
0
100
AcDbCircle
 62
7
  6
CONTINUOUS
 10
7.6352553102
 20
4.000214069
 40
0.1633858268
  0
CIRCLE
  5
743
100
AcDbEntity
  8
0
100
AcDbCircle
 62
7
  6
CONTINUOUS
 10
7.6352553102
 20
4.0986392659
 40
0.0196850394
  0
CIRCLE
  5
744
100
AcDbEntity
  8
0
100
AcDbCircle
 62
7
  6
CONTINUOUS
 10
7.6352553102
 20
4.0986392659
 40
0.00468503
  0
CIRCLE
  5
745
100
AcDbEntity
  8
0
100
AcDbCircle
 62
7
  6
CONTINUOUS
 10
7.733680507
 20
4.000214069
 40
0.0196850394
  0
CIRCLE
  5
746
100
AcDbEntity
  8
0
100
AcDbCircle
 62
7
  6
CONTINUOUS
 10
7.733680507
 20
4.000214069
 40
0.00468503
  0
ARC
  5
747
100
AcDbEntity
  8
0
100
AcDbCircle
 62
7
  6
CONTINUOUS
 10
7.7181898552
 20
4.344702258
 40
0.2283464567
100
AcDbArc
 50
76.4637972626
 51
90.0
  0
ARC
  5
748
100
AcDbEntity
  8
0
100
AcDbCircle
 62
7
  6
CONTINUOUS
 10
7.7181898552
 20
4.344702258
 40
0.1968503937
100
AcDbArc
 50
76.4637972626
 51
90.0
  0
ARC
  5
749
100
AcDbEntity
  8
0
100
AcDbCircle
 62
7
  6
CONTINUOUS
 10
7.7181898552
 20
4.344702258
 40
0.1653543307
100
AcDbArc
 50
76.4637972626
 51
90.0
  0
ENDSEC
  0
SECTION
  2
OBJECTS
  0
DICTIONARY
  5
C
100
AcDbDictionary
280
0
281
1
  3
ACAD_GROUP
350
D
  3
ACAD_MLINESTYLE
350
17
  3
ACAD_LAYOUT
350
1A
  3
ACAD_PLOTSETTINGS
350
19
  3
ACAD_PLOTSTYLENAME
350
E
  3
ACAD_TABLESTYLE
350
       74A
  0
DICTIONARY
  5
D
102
{ACAD_REACTORS
330
C
102
}
100
AcDbDictionary
280
0
281
1
  0
ACDBDICTIONARYWDFLT
  5
E
102
{ACAD_REACTORS
330
C
102
}
100
AcDbDictionary
281
1
  3
Normal
350
F
100
AcDbDictionaryWithDefault
340
F
  0
DICTIONARY
  5
17
102
{ACAD_REACTORS
330
C
102
}
100
AcDbDictionary
280
0
281
1
  3
Standard
350
18
  0
DICTIONARY
  5
74A
330
C
100
AcDbDictionary
281
1
  3
Standard
350
       74D
  3
Standard1
350
       74E
  0
DICTIONARY
  5
19
102
{ACAD_REACTORS
330
C
102
}
100
AcDbDictionary
281
1
  0
DICTIONARY
  5
1A
102
{ACAD_REACTORS
330
C
102
}
100
AcDbDictionary
281
1
  3
Model
350
74B
  3
Layout1
350
74C
  0
ACDBPLACEHOLDER
  5
F
102
{ACAD_REACTORS
330
E
102
}
  0
MLINESTYLE
  5
18
102
{ACAD_REACTORS
330
17
102
}
100
AcDbMlineStyle
  2
STANDARD
 70
0
  3

 62
256
 51
90.0
 52
90.0
 71
2
 49
0.5
 62
256
  6
BYLAYER
 49
-0.5
 62
256
  6
BYLAYER
  0
LAYOUT
  5
74B
102
{ACAD_REACTORS
330
1A
102
}
100
AcDbPlotSettings
  1

  2
none_device
  4
ANSI_C_(22.00_x_17.00_Inches)
  6

 40
0.0
 41
0.0
 42
0.0
 43
0.0
 44
558.8
 45
431.8
 46
0.0
 47
0.0
 48
0.0
 49
0.0
140
0.0
141
0.0
142
1.0
143
1.0
 70
1024
 72
0
 73
0
 74
0
  7

 75
0
147
1.0
148
0.0
149
0.0
100
AcDbLayout
  1
Model
 70
0
 71
0
 10
0.0
 20
0.0
 11
22.0
 21
17.0
 12
0.0
 22
0.0
 32
0.0
 14
0.0
 24
0.0
 34
0.0
 15
0.0
 25
0.0
 35
0.0
146
0.0
 13
0.0
 23
0.0
 33
0.0
 16
1.0
 26
0.0
 36
0.0
 17
0.0
 27
1.0
 37
0.0
 76
0
330
215
345
0
346
0
  0
LAYOUT
  5
74C
102
{ACAD_REACTORS
330
1A
102
}
100
AcDbPlotSettings
  1

  2
none_device
  4
ANSI_C_(22.00_x_17.00_Inches)
  6

 40
0.0
 41
0.0
 42
0.0
 43
0.0
 44
558.8
 45
431.8
 46
0.0
 47
0.0
 48
0.0
 49
0.0
140
0.0
141
0.0
142
1.0
143
1.0
 70
0
 72
0
 73
0
 74
0
  7

 75
0
147
1.0
148
0.0
149
0.0
100
AcDbLayout
  1
Layout1
 70
0
 71
1
 10
0.0
 20
0.0
 11
22.0
 21
17.0
 12
0.0
 22
0.0
 32
0.0
 14
0.0
 24
0.0
 34
0.0
 15
0.0
 25
0.0
 35
0.0
146
0.0
 13
0.0
 23
0.0
 33
0.0
 16
1.0
 26
0.0
 36
0.0
 17
0.0
 27
1.0
 37
0.0
 76
0
330
216
345
0
346
0
  0
TABLESTYLE
  5
74D
102
{ACAD_REACTORS
330
74A
102
}
330
74A
100
AcDbTableStyle
  3
Standard
 70
0
 71
0
 40
0.06
 41
0.06
280
1
281
1
  7
Standard
140
0.18
170
1
 62
0
 63
7
283
0
  7
Standard
140
0.18
170
1
 62
0
 63
7
283
0
  7
Standard
140
0.18
170
1
 62
0
 63
7
283
0
  0
TABLESTYLE
  5
74E
102
{ACAD_REACTORS
330
74A
330
294
102
}
330
74A
100
AcDbTableStyle
  3
Standard1
 70
1
 71
0
 40
0.06
 41
0.06
280
1
281
1
  7
Standard
140
0.18
170
1
 62
0
 63
7
283
0
  7
Standard
140
0.18
170
1
 62
0
 63
7
283
0
  7
Standard
140
0.18
170
1
 62
0
 63
7
283
0
  0
ENDSEC
  0
EOF
