999
DXF file: 212846_1.dxf
999
Pro/ENGINEER 2019292 by Parametric Technology Corporation
  0
SECTION
  2
HEADER
  9
$ACADVER
  1
AC1027
  9
$DWGCODEPAGE
  3
ANSI_1252
  9
$EXTMAX
 10
17.0
 20
11.0
 30
0.0
  9
$EXTMIN
 10
0.0
 20
0.0
 30
0.0
  9
$LIMMIN
 10
0.0
 20
0.0
  9
$LIMMAX
 10
17.0
 20
11.0
  9
$VIEWCTR
 10
8.5
 20
5.5
  9
$VIEWSIZE
 40
11.0
  9
$CLAYER
  8
0
  9
$LTSCALE
 40
0.935
  9
$CELTYPE
  6
BYLAYER
  9
$DIMSCALE
 40
1.0
  9
$DIMASZ
 40
0.1875
  9
$DIMEXO
 40
0.0625
  9
$DIMDLI
 40
0.646
  9
$DIMEXE
 40
0.125
  9
$DIMCEN
 40
0.153
  9
$DIMLFAC
 40
1.0
  9
$DIMBLK
  1
_FILLED
  9
$DIMALT
 70
1
  9
$DIMALTD
 70
2
  9
$DIMALTTD
 70
2
  9
$DIMALTF
 40
25.4
  9
$DIMTXT
 40
0.1
  9
$DIMTOL
 70
1
  9
$DIMLIM
 70
0
  9
$DIMTFAC
 40
1.0
  9
$DIMTP
 40
0.005
  9
$DIMTM
 40
0.005
  9
$DIMGAP
 40
0.09
  9
$DIMDSEP
 70
46
  9
$AUNITS
 70
0
  9
$PDMODE
 70
3
  9
$PDSIZE
 40
0.3125
  9
$HANDSEED
  5
630
  9
$TILEMODE
 70
1
  9
$MEASUREMENT
 70
0
  9
$INSUNITS
 70
1
  0
ENDSEC
  0
SECTION
  2
CLASSES
  0
CLASS
  1
ACDBDICTIONARYWDFLT
  2
AcDbDictionaryWithDefault
  3
AutoCAD 2000
 90
0
 91
1
280
0
281
0
  0
CLASS
  1
ACDBPLACEHOLDER
  2
AcDbPlaceHolder
  3
AutoCAD 2000
 90
0
 91
1
280
0
281
0
  0
CLASS
  1
LAYOUT
  2
AcDbLayout
  3
AutoCAD 2000
 90
0
 91
0
280
0
281
0
  0
CLASS
  1
TABLESTYLE
  2
AcDbTableStyle
  3
ObjectDBX Classes
 90
2047
 91
1
280
0
281
0
  0
CLASS
  1
ACAD_TABLE
  2
AcDbTable
  3
ObjectDBX Classes
 90
1025
 91
1
280
0
281
1
  0
ENDSEC
  0
SECTION
  2
TABLES
  0
TABLE
  2
VPORT
  5
8
100
AcDbSymbolTable
 70
2
  0
VPORT
  5
1F4
100
AcDbSymbolTableRecord
100
AcDbViewportTableRecord
  2
*ACTIVE
 70
0
 10
0.0
 20
0.0
 11
1.0
 21
1.0
 12
8.5
 22
5.5
 13
0.0
 23
0.0
 14
1.0
 24
1.0
 15
0.0
 25
0.0
 16
0.0
 26
0.0
 36
1.0
 17
0.0
 27
0.0
 37
0.0
 40
11.0
 41
1.5454545455
 42
50.0
 43
0.0
 44
0.0
 50
0.0
 51
0.0
 71
0
 72
100
 73
1
 74
1
 75
0
 76
0
 77
0
 78
0
  0
ENDTAB
  0
TABLE
  2
LTYPE
  5
5
100
AcDbSymbolTable
 70
6
  0
LTYPE
  5
14
100
AcDbSymbolTableRecord
100
AcDbLinetypeTableRecord
  2
BYBLOCK
 70
0
  3

 72
65
 73
0
 40
0.0
  0
LTYPE
  5
15
100
AcDbSymbolTableRecord
100
AcDbLinetypeTableRecord
  2
BYLAYER
 70
0
  3

 72
65
 73
0
 40
0.0
  0
LTYPE
  5
16
100
AcDbSymbolTableRecord
100
AcDbLinetypeTableRecord
  2
CONTINUOUS
 70
64
  3
Solid line
 72
65
 73
0
 40
0.0
  0
LTYPE
  5
1F5
100
AcDbSymbolTableRecord
100
AcDbLinetypeTableRecord
  2
CENTER
 70
64
  3
____ _ ____ _ ____ _ ____ _ ____ _ ____ _ ____
 72
65
 73
4
 40
0.6
 49
0.375
 74
0
 49
-0.075
 74
0
 49
0.075
 74
0
 49
-0.075
 74
0
  0
LTYPE
  5
1F6
100
AcDbSymbolTableRecord
100
AcDbLinetypeTableRecord
  2
HIDDEN
 70
64
  3
- - - - - - - - - - - - - - - - - - - -
 72
65
 73
2
 40
0.2
 49
0.1
 74
0
 49
-0.1
 74
0
  0
LTYPE
  5
1F7
100
AcDbSymbolTableRecord
100
AcDbLinetypeTableRecord
  2
PHANTOM
 70
64
  3
_____ _ _ _____ _ _ _____ _ _ _____
 72
65
 73
6
 40
0.8
 49
0.45
 74
0
 49
-0.05
 74
0
 49
0.1
 74
0
 49
-0.05
 74
0
 49
0.1
 74
0
 49
-0.05
 74
0
  0
LTYPE
  5
1F8
100
AcDbSymbolTableRecord
100
AcDbLinetypeTableRecord
  2
DOT
 70
64
  3
. . . . . . . . . . . . . . . . . . . .
 72
65
 73
2
 40
0.2
 49
0.1
 74
0
 49
-0.1
 74
0
  0
LTYPE
  5
1F9
100
AcDbSymbolTableRecord
100
AcDbLinetypeTableRecord
  2
DASHED
 70
64
  3
- - - - - - - - - - - - - - - - - - - -
 72
65
 73
2
 40
0.2
 49
0.1
 74
0
 49
-0.1
 74
0
  0
ENDTAB
  0
TABLE
  2
LAYER
  5
2
100
AcDbSymbolTable
 70
36
  0
LAYER
  5
10
100
AcDbSymbolTableRecord
100
AcDbLayerTableRecord
  2
0
 70
0
 62
7
  6
CONTINUOUS
370
-3
390
F
  0
LAYER
  5
1FA
100
AcDbSymbolTableRecord
100
AcDbLayerTableRecord
  2
DEFAULT_1
 70
0
 62
7
  6
CENTER
370
-3
390
F
  0
LAYER
  5
1FB
100
AcDbSymbolTableRecord
100
AcDbLayerTableRecord
  2
DEFAULT_2
 70
0
 62
7
  6
HIDDEN
370
-3
390
F
  0
LAYER
  5
1FC
100
AcDbSymbolTableRecord
100
AcDbLayerTableRecord
  2
DEFAULT_3
 70
0
 62
7
  6
PHANTOM
370
-3
390
F
  0
LAYER
  5
1FD
100
AcDbSymbolTableRecord
100
AcDbLayerTableRecord
  2
01_ALL_DTM_PLN
 70
0
 62
7
  6
CONTINUOUS
370
-3
390
F
  0
LAYER
  5
1FE
100
AcDbSymbolTableRecord
100
AcDbLayerTableRecord
  2
01__ASM_ALL_DTM_PLN
 70
0
 62
7
  6
CONTINUOUS
370
-3
390
F
  0
LAYER
  5
1FF
100
AcDbSymbolTableRecord
100
AcDbLayerTableRecord
  2
01__ASM_DEF_DTM_PLN
 70
0
 62
7
  6
CONTINUOUS
370
-3
390
F
  0
LAYER
  5
200
100
AcDbSymbolTableRecord
100
AcDbLayerTableRecord
  2
01___PRT_ALL_DTM_PLN
 70
0
 62
7
  6
CONTINUOUS
370
-3
390
F
  0
LAYER
  5
201
100
AcDbSymbolTableRecord
100
AcDbLayerTableRecord
  2
01___PRT_DEF_DTM_PLN
 70
0
 62
7
  6
CONTINUOUS
370
-3
390
F
  0
LAYER
  5
202
100
AcDbSymbolTableRecord
100
AcDbLayerTableRecord
  2
02_ALL_AXES
 70
0
 62
7
  6
CONTINUOUS
370
-3
390
F
  0
LAYER
  5
203
100
AcDbSymbolTableRecord
100
AcDbLayerTableRecord
  2
02__ASM_ALL_AXES
 70
0
 62
7
  6
CONTINUOUS
370
-3
390
F
  0
LAYER
  5
204
100
AcDbSymbolTableRecord
100
AcDbLayerTableRecord
  2
02___PRT_ALL_AXES
 70
0
 62
7
  6
CONTINUOUS
370
-3
390
F
  0
LAYER
  5
205
100
AcDbSymbolTableRecord
100
AcDbLayerTableRecord
  2
03_ALL_CURVES
 70
0
 62
7
  6
CONTINUOUS
370
-3
390
F
  0
LAYER
  5
206
100
AcDbSymbolTableRecord
100
AcDbLayerTableRecord
  2
03__ASM_ALL_CURVES
 70
0
 62
7
  6
CONTINUOUS
370
-3
390
F
  0
LAYER
  5
207
100
AcDbSymbolTableRecord
100
AcDbLayerTableRecord
  2
03___PRT_ALL_CURVES
 70
0
 62
7
  6
CONTINUOUS
370
-3
390
F
  0
LAYER
  5
208
100
AcDbSymbolTableRecord
100
AcDbLayerTableRecord
  2
04_ALL_DTM_PNT
 70
0
 62
7
  6
CONTINUOUS
370
-3
390
F
  0
LAYER
  5
209
100
AcDbSymbolTableRecord
100
AcDbLayerTableRecord
  2
04__ASM_ALL_DTM_PNT
 70
0
 62
7
  6
CONTINUOUS
370
-3
390
F
  0
LAYER
  5
20A
100
AcDbSymbolTableRecord
100
AcDbLayerTableRecord
  2
04___PRT_ALL_DTM_PNT
 70
0
 62
7
  6
CONTINUOUS
370
-3
390
F
  0
LAYER
  5
20B
100
AcDbSymbolTableRecord
100
AcDbLayerTableRecord
  2
05_ALL_DTM_CSYS
 70
0
 62
7
  6
CONTINUOUS
370
-3
390
F
  0
LAYER
  5
20C
100
AcDbSymbolTableRecord
100
AcDbLayerTableRecord
  2
05__ASM_ALL_DTM_CSYS
 70
0
 62
7
  6
CONTINUOUS
370
-3
390
F
  0
LAYER
  5
20D
100
AcDbSymbolTableRecord
100
AcDbLayerTableRecord
  2
05__ASM_DEF_DTM_CSYS
 70
0
 62
7
  6
CONTINUOUS
370
-3
390
F
  0
LAYER
  5
20E
100
AcDbSymbolTableRecord
100
AcDbLayerTableRecord
  2
05___PRT_ALL_DTM_CSYS
 70
0
 62
7
  6
CONTINUOUS
370
-3
390
F
  0
LAYER
  5
20F
100
AcDbSymbolTableRecord
100
AcDbLayerTableRecord
  2
05___PRT_DEF_DTM_CSYS
 70
0
 62
7
  6
CONTINUOUS
370
-3
390
F
  0
LAYER
  5
210
100
AcDbSymbolTableRecord
100
AcDbLayerTableRecord
  2
06_ALL_SURFS
 70
0
 62
7
  6
CONTINUOUS
370
-3
390
F
  0
LAYER
  5
211
100
AcDbSymbolTableRecord
100
AcDbLayerTableRecord
  2
06__ASM_ALL_SURFS
 70
0
 62
7
  6
CONTINUOUS
370
-3
390
F
  0
LAYER
  5
212
100
AcDbSymbolTableRecord
100
AcDbLayerTableRecord
  2
06___PRT_ALL_SURFS
 70
0
 62
7
  6
CONTINUOUS
370
-3
390
F
  0
LAYER
  5
213
100
AcDbSymbolTableRecord
100
AcDbLayerTableRecord
  2
07__ASM_ALL_SKELETONS
 70
0
 62
7
  6
CONTINUOUS
370
-3
390
F
  0
LAYER
  5
214
100
AcDbSymbolTableRecord
100
AcDbLayerTableRecord
  2
AXIS
 70
0
 62
7
  6
CONTINUOUS
370
-3
390
F
  0
LAYER
  5
215
100
AcDbSymbolTableRecord
100
AcDbLayerTableRecord
  2
AXIS_COSMETIC_THREADS
 70
0
 62
7
  6
CONTINUOUS
370
-3
390
F
  0
LAYER
  5
216
100
AcDbSymbolTableRecord
100
AcDbLayerTableRecord
  2
DATUM_CURVES
 70
0
 62
7
  6
CONTINUOUS
370
-3
390
F
  0
LAYER
  5
217
100
AcDbSymbolTableRecord
100
AcDbLayerTableRecord
  2
DATUM_PLANES
 70
0
 62
7
  6
CONTINUOUS
370
-3
390
F
  0
LAYER
  5
218
100
AcDbSymbolTableRecord
100
AcDbLayerTableRecord
  2
NOTES
 70
0
 62
7
  6
CONTINUOUS
370
-3
390
F
  0
LAYER
  5
219
100
AcDbSymbolTableRecord
100
AcDbLayerTableRecord
  2
QUILTS
 70
0
 62
7
  6
CONTINUOUS
370
-3
390
F
  0
LAYER
  5
21A
100
AcDbSymbolTableRecord
100
AcDbLayerTableRecord
  2
SCHEME_DIMS
 70
0
 62
7
  6
CONTINUOUS
370
-3
390
F
  0
LAYER
  5
21B
100
AcDbSymbolTableRecord
100
AcDbLayerTableRecord
  2
SYMBOLS
 70
0
 62
7
  6
CONTINUOUS
370
-3
390
F
  0
ENDTAB
  0
TABLE
  2
STYLE
  5
3
100
AcDbSymbolTable
 70
1
  0
STYLE
  5
11
100
AcDbSymbolTableRecord
100
AcDbTextStyleTableRecord
  2
STANDARD
 70
0
 40
0.0
 41
1.0
 50
0.0
 71
0
 42
0.2
  3
txt
  4

  0
STYLE
  5
21C
100
AcDbSymbolTableRecord
100
AcDbTextStyleTableRecord
  2
TEXTSTYLE_1
 70
0
 40
0.0
 41
0.8
 50
0.0
 71
0
 42
0.2
  3
gdt
  4

  0
STYLE
  5
21D
100
AcDbSymbolTableRecord
100
AcDbTextStyleTableRecord
  2
TEXTSTYLE_2
 70
0
 40
0.0
 41
0.8
 50
0.0
 71
0
 42
0.2
  3
txt
  4

  0
STYLE
  5
21E
100
AcDbSymbolTableRecord
100
AcDbTextStyleTableRecord
  2
TEXTSTYLE_3
 70
0
 40
0.0
 41
0.85
 50
0.0
 71
0
 42
0.2
  3
txt
  4

  0
STYLE
  5
21F
100
AcDbSymbolTableRecord
100
AcDbTextStyleTableRecord
  2
TEXTSTYLE_4
 70
0
 40
0.0
 41
0.9
 50
0.0
 71
0
 42
0.2
  3
txt
  4

  0
STYLE
  5
220
100
AcDbSymbolTableRecord
100
AcDbTextStyleTableRecord
  2
TEXTSTYLE_5
 70
0
 40
0.0
 41
0.75
 50
0.0
 71
0
 42
0.2
  3
txt
  4

  0
STYLE
  5
221
100
AcDbSymbolTableRecord
100
AcDbTextStyleTableRecord
  2
TEXTSTYLE_6
 70
0
 40
0.0
 41
1.0
 50
0.0
 71
0
 42
0.2
  3
gdt
  4

  0
ENDTAB
  0
TABLE
  2
VIEW
  5
6
100
AcDbSymbolTable
 70
0
  0
ENDTAB
  0
TABLE
  2
UCS
  5
7
100
AcDbSymbolTable
 70
0
  0
ENDTAB
  0
TABLE
  2
APPID
  5
9
100
AcDbSymbolTable
 70
1
  0
APPID
  5
222
100
AcDbSymbolTableRecord
100
AcDbRegAppTableRecord
  2
ACAD
 70
0
  0
ENDTAB
  0
TABLE
  2
BLOCK_RECORD
  5
1
100
AcDbSymbolTable
 70
0
  0
BLOCK_RECORD
  5
223
100
AcDbSymbolTableRecord
100
AcDbBlockTableRecord
  2
*Model_Space
  0
BLOCK_RECORD
  5
224
100
AcDbSymbolTableRecord
100
AcDbBlockTableRecord
  2
*Paper_Space
  0
BLOCK_RECORD
  5
225
100
AcDbSymbolTableRecord
100
AcDbBlockTableRecord
  2
_FILLED
  0
BLOCK_RECORD
  5
226
100
AcDbSymbolTableRecord
100
AcDbBlockTableRecord
  2
*D0
  0
BLOCK_RECORD
  5
227
100
AcDbSymbolTableRecord
100
AcDbBlockTableRecord
  2
*D1
  0
BLOCK_RECORD
  5
228
100
AcDbSymbolTableRecord
100
AcDbBlockTableRecord
  2
*D2
  0
BLOCK_RECORD
  5
229
100
AcDbSymbolTableRecord
100
AcDbBlockTableRecord
  2
*D3
  0
BLOCK_RECORD
  5
22A
100
AcDbSymbolTableRecord
100
AcDbBlockTableRecord
  2
*T1
  0
ENDTAB
  0
TABLE
  2
DIMSTYLE
  5
A
100
AcDbSymbolTable
 70
1
100
AcDbDimStyleTable
 71
0
  0
DIMSTYLE
105
22B
100
AcDbSymbolTableRecord
100
AcDbDimStyleTableRecord
  2
STANDARD
 70
0
  3

  4

 40
1.0
 41
0.1875
 42
0.0625
 43
0.38
 44
0.125
 45
0.0
 46
0.0
 47
0.005
 48
0.005
140
0.1
141
0.09
142
0.0
143
1.0
144
1.0
145
0.0
146
1.0
147
0.09
 71
1.0
 72
0.0
 73
1
 74
1
 75
0
 76
0
 77
0
 78
0
 79
0
170
1
171
2
172
0
173
0
174
0
175
0
176
0
177
0
178
0
270
2
179
3
271
3
272
3
273
2
274
2
275
0
280
0
281
0
282
0
283
1
284
0
285
0
286
0
287
3
288
0
340
11
278
46
341
225
342
225
343
225
344
225
  0
DIMSTYLE
105
22C
100
AcDbSymbolTableRecord
100
AcDbDimStyleTableRecord
  2
DIMSTYLE_1
 70
0
  3

  4

 40
1.0
 41
0.1875
 42
0.0625
 43
0.38
 44
0.125
 45
0.0
 46
0.0
 47
0.1
 48
0.1
140
0.1
141
0.09
142
0.0
143
1.0
144
1.0
145
0.0
146
1.0
147
0.1
 71
0.0
 72
0.0
 73
1
 74
1
 75
0
 76
0
 77
0
 78
0
 79
0
170
1
171
2
172
0
173
0
174
0
175
0
176
0
177
0
178
0
270
2
179
3
271
1
272
3
273
2
274
-14
275
0
280
0
281
0
282
0
283
1
284
0
285
0
286
0
287
3
288
0
340
11
278
46
341
225
342
225
343
225
344
225
  0
DIMSTYLE
105
22D
100
AcDbSymbolTableRecord
100
AcDbDimStyleTableRecord
  2
DIMSTYLE_2
 70
0
  3
<>
  4

 40
1.0
 41
0.1875
 42
0.0625
 43
0.38
 44
0.125
 45
0.0
 46
0.0
 47
0.1
 48
0.1
140
0.1
141
0.09
142
0.0
143
1.0
144
1.0
145
0.0
146
1.0
147
0.09
 71
0.0
 72
0.0
 73
1
 74
1
 75
0
 76
0
 77
0
 78
0
 79
0
170
1
171
2
172
0
173
0
174
0
175
0
176
0
177
0
178
0
270
2
179
3
271
1
272
3
273
2
274
-14
275
0
280
0
281
0
282
0
283
1
284
0
285
0
286
0
287
3
288
1
340
11
278
46
289
1
341
225
342
225
343
225
344
225
  0
ENDTAB
  0
ENDSEC
  0
SECTION
  2
BLOCKS
  0
BLOCK
  5
20
100
AcDbEntity
  8
0
100
AcDbBlockBegin
  2
*Model_Space
 70
0
 10
0.0
 20
0.0
 30
0.0
  3
*Model_Space
  1

  0
ENDBLK
  5
21
100
AcDbEntity
  8
0
100
AcDbBlockEnd
  0
BLOCK
  5
1C
100
AcDbEntity
  8
0
100
AcDbBlockBegin
  2
*Paper_Space
 70
0
 10
0.0
 20
0.0
 30
0.0
  3
*Paper_Space
  1

  0
ENDBLK
  5
1D
100
AcDbEntity
  8
0
100
AcDbBlockEnd
  0
BLOCK
  5
22E
100
AcDbEntity
  8
0
100
AcDbBlockBegin
  2
_FILLED
 70
64
 10
0.0
 20
0.0
  3
_FILLED
  1

  0
SOLID
  5
22F
100
AcDbEntity
  8
0
  6
BYBLOCK
 62
0
100
AcDbTrace
 10
0.0
 20
0.0
 11
-1.0
 21
0.1666666667
 12
-1.0
 22
-0.1666666667
 13
-1.0
 23
-0.1666666667
  0
ENDBLK
  5
230
100
AcDbEntity
  8
0
  6
BYBLOCK
 62
0
100
AcDbBlockEnd
  0
BLOCK
  5
231
100
AcDbEntity
  8
SCHEME_DIMS
100
AcDbBlockBegin
 62
7
  6
CONTINUOUS
  2
*D0
 70
65
 10
0.0
 20
0.0
  3
*D0
  1

  0
MTEXT
  5
232
100
AcDbEntity
  8
SCHEME_DIMS
100
AcDbMText
 62
7
  6
CONTINUOUS
  7
STANDARD
 71
2
 72
1
 10
7.126101368
 20
8.3463498171
 30
0.0
 11
1.0
 21
0.0
 31
0.0
 73
2
 44
0.9
  1
68.3\P[2.69]
 40
0.1
 41
0.6
  0
LINE
  5
233
100
AcDbEntity
  8
SCHEME_DIMS
100
AcDbLine
 62
7
  6
CONTINUOUS
 10
5.881613179
 20
6.2699390732
 11
5.881613179
 21
6.9304211381
  0
LINE
  5
234
100
AcDbEntity
  8
SCHEME_DIMS
100
AcDbLine
 62
7
  6
CONTINUOUS
 10
5.881613179
 20
7.1970442049
 11
5.881613179
 21
8.4213498171
  0
LINE
  5
235
100
AcDbEntity
  8
SCHEME_DIMS
100
AcDbLine
 62
7
  6
CONTINUOUS
 10
8.570589557
 20
6.1169289615
 11
8.570589557
 21
6.7796029225
  0
LINE
  5
236
100
AcDbEntity
  8
SCHEME_DIMS
100
AcDbLine
 62
7
  6
CONTINUOUS
 10
8.570589557
 20
7.0278907397
 11
8.570589557
 21
8.4213498171
  0
LINE
  5
237
100
AcDbEntity
  8
SCHEME_DIMS
100
AcDbLine
 62
7
  6
CONTINUOUS
 10
5.881613179
 20
8.2963498171
 11
6.826101368
 21
8.2963498171
  0
LINE
  5
238
100
AcDbEntity
  8
SCHEME_DIMS
100
AcDbLine
 62
7
  6
CONTINUOUS
 10
8.570589557
 20
8.2963498171
 11
7.626101368
 21
8.2963498171
  0
INSERT
  5
239
100
AcDbEntity
  8
SCHEME_DIMS
100
AcDbBlockReference
 62
7
  6
CONTINUOUS
  2
_FILLED
 10
5.881613179
 20
8.2963498171
 41
0.1875
 42
0.1875
 43
0.1875
 50
180.0
  0
INSERT
  5
23A
100
AcDbEntity
  8
SCHEME_DIMS
100
AcDbBlockReference
 62
7
  6
CONTINUOUS
  2
_FILLED
 10
8.570589557
 20
8.2963498171
 41
0.1875
 42
0.1875
 43
0.1875
  0
ENDBLK
  5
23B
100
AcDbEntity
  8
0
  6
BYBLOCK
 62
0
100
AcDbBlockEnd
  0
BLOCK
  5
23C
100
AcDbEntity
  8
SCHEME_DIMS
100
AcDbBlockBegin
 62
7
  6
CONTINUOUS
  2
*D1
 70
65
 10
0.0
 20
0.0
  3
*D1
  1

  0
MTEXT
  5
23D
100
AcDbEntity
  8
SCHEME_DIMS
100
AcDbMText
 62
7
  6
CONTINUOUS
  7
STANDARD
 71
2
 72
1
 10
6.8898808956
 20
7.7975762708
 30
0.0
 11
1.0
 21
0.0
 31
0.0
 73
2
 44
0.9
  1
56.3\P[2.22]
 40
0.1
 41
0.6
  0
LINE
  5
23E
100
AcDbEntity
  8
SCHEME_DIMS
100
AcDbLine
 62
7
  6
CONTINUOUS
 10
5.881613179
 20
6.2699390732
 11
5.881613179
 21
7.8725762708
  0
LINE
  5
23F
100
AcDbEntity
  8
SCHEME_DIMS
100
AcDbLine
 62
7
  6
CONTINUOUS
 10
8.0981486121
 20
6.4151572748
 11
8.0981486121
 21
6.7861527331
  0
LINE
  5
240
100
AcDbEntity
  8
SCHEME_DIMS
100
AcDbLine
 62
7
  6
CONTINUOUS
 10
8.0981486121
 20
7.0309214502
 11
8.0981486121
 21
7.8725762708
  0
LINE
  5
241
100
AcDbEntity
  8
SCHEME_DIMS
100
AcDbLine
 62
7
  6
CONTINUOUS
 10
5.881613179
 20
7.7475762708
 11
6.5898808956
 21
7.7475762708
  0
LINE
  5
242
100
AcDbEntity
  8
SCHEME_DIMS
100
AcDbLine
 62
7
  6
CONTINUOUS
 10
8.0981486121
 20
7.7475762708
 11
7.3898808956
 21
7.7475762708
  0
INSERT
  5
243
100
AcDbEntity
  8
SCHEME_DIMS
100
AcDbBlockReference
 62
7
  6
CONTINUOUS
  2
_FILLED
 10
5.881613179
 20
7.7475762708
 41
0.1875
 42
0.1875
 43
0.1875
 50
180.0
  0
INSERT
  5
244
100
AcDbEntity
  8
SCHEME_DIMS
100
AcDbBlockReference
 62
7
  6
CONTINUOUS
  2
_FILLED
 10
8.0981486121
 20
7.7475762708
 41
0.1875
 42
0.1875
 43
0.1875
  0
ENDBLK
  5
245
100
AcDbEntity
  8
0
  6
BYBLOCK
 62
0
100
AcDbBlockEnd
  0
BLOCK
  5
246
100
AcDbEntity
  8
SCHEME_DIMS
100
AcDbBlockBegin
 62
7
  6
CONTINUOUS
  2
*D2
 70
65
 10
0.0
 20
0.0
  3
*D2
  1

  0
MTEXT
  5
247
100
AcDbEntity
  8
SCHEME_DIMS
100
AcDbMText
 62
7
  6
CONTINUOUS
  7
STANDARD
 71
2
 72
1
 10
6.4961801082
 20
7.2918501805
 30
0.0
 11
1.0
 21
0.0
 31
0.0
 73
2
 44
0.9
  1
36.3\P[1.43]
 40
0.1
 41
0.6
  0
LINE
  5
248
100
AcDbEntity
  8
SCHEME_DIMS
100
AcDbLine
 62
7
  6
CONTINUOUS
 10
5.881613179
 20
6.2699390732
 11
5.881613179
 21
7.3668501805
  0
LINE
  5
249
100
AcDbEntity
  8
SCHEME_DIMS
100
AcDbLine
 62
7
  6
CONTINUOUS
 10
7.3107470373
 20
6.8580706846
 11
7.3107470373
 21
7.3668501805
  0
LINE
  5
24A
100
AcDbEntity
  8
SCHEME_DIMS
100
AcDbLine
 62
7
  6
CONTINUOUS
 10
5.881613179
 20
7.2418501805
 11
6.1961801082
 21
7.2418501805
  0
LINE
  5
24B
100
AcDbEntity
  8
SCHEME_DIMS
100
AcDbLine
 62
7
  6
CONTINUOUS
 10
7.3107470373
 20
7.2418501805
 11
6.9961801082
 21
7.2418501805
  0
INSERT
  5
24C
100
AcDbEntity
  8
SCHEME_DIMS
100
AcDbBlockReference
 62
7
  6
CONTINUOUS
  2
_FILLED
 10
5.881613179
 20
7.2418501805
 41
0.1875
 42
0.1875
 43
0.1875
 50
180.0
  0
INSERT
  5
24D
100
AcDbEntity
  8
SCHEME_DIMS
100
AcDbBlockReference
 62
7
  6
CONTINUOUS
  2
_FILLED
 10
7.3107470373
 20
7.2418501805
 41
0.1875
 42
0.1875
 43
0.1875
  0
ENDBLK
  5
24E
100
AcDbEntity
  8
0
  6
BYBLOCK
 62
0
100
AcDbBlockEnd
  0
BLOCK
  5
24F
100
AcDbEntity
  8
SCHEME_DIMS
100
AcDbBlockBegin
 62
7
  6
CONTINUOUS
  2
*D3
 70
65
 10
0.0
 20
0.0
  3
*D3
  1

  0
MTEXT
  5
250
100
AcDbEntity
  8
SCHEME_DIMS
100
AcDbMText
 62
7
  6
CONTINUOUS
  7
TEXTSTYLE_6
 71
1
 72
1
 10
3.8892022729
 20
4.8493952545
 30
0.0
 11
1.0
 21
0.0
 31
0.0
 73
2
 44
0.9
  1
{\fgdt;n}\ftxt;50.0\P[1.97]
 40
0.1
 41
0.6
  0
LINE
  5
251
100
AcDbEntity
  8
SCHEME_DIMS
100
AcDbLine
 62
7
  6
CONTINUOUS
 10
3.4432872638
 20
5.061899832
 11
3.6392022729
 21
4.7993952545
  0
LINE
  5
252
100
AcDbEntity
  8
SCHEME_DIMS
100
AcDbLine
 62
7
  6
CONTINUOUS
 10
3.6392022729
 20
4.7993952545
 11
3.7892022729
 21
4.7993952545
  0
INSERT
  5
253
100
AcDbEntity
  8
SCHEME_DIMS
100
AcDbBlockReference
 62
7
  6
CONTINUOUS
  2
_FILLED
 10
3.4432872638
 20
5.061899832
 41
0.1875
 42
0.1875
 43
0.1875
 50
126.7350795665
  0
ENDBLK
  5
254
100
AcDbEntity
  8
0
  6
BYBLOCK
 62
0
100
AcDbBlockEnd
  0
BLOCK
  5
255
100
AcDbEntity
  8
0
100
AcDbBlockBegin
  2
*T1
 70
1
 10
0.0
 20
0.0
  3
*T1
  1

  0
LINE
  5
256
100
AcDbEntity
  8
0
100
AcDbLine
 62
7
  6
CONTINUOUS
 10
4.35
 20
0.0
 11
0.0
 21
0.0
  0
LINE
  5
257
100
AcDbEntity
  8
0
100
AcDbLine
 62
7
  6
CONTINUOUS
 10
4.35
 20
0.0
 11
4.35
 21
1.92
  0
LINE
  5
258
100
AcDbEntity
  8
0
100
AcDbLine
 62
7
  6
CONTINUOUS
 10
4.35
 20
1.92
 11
0.0
 21
1.92
  0
LINE
  5
259
100
AcDbEntity
  8
0
100
AcDbLine
 62
7
  6
CONTINUOUS
 10
0.0
 20
0.0
 11
0.0
 21
1.92
  0
MTEXT
  5
25A
100
AcDbEntity
  8
NOTES
100
AcDbMText
 62
7
  6
CONTINUOUS
  7
STANDARD
 71
2
 72
1
 10
4.125
 20
0.48
 30
0.0
 11
1.0
 21
0.0
 31
0.0
 73
2
 44
0.9
  1
B
 40
0.1
 41
0.2
  0
MTEXT
  5
25B
100
AcDbEntity
  8
NOTES
100
AcDbMText
 62
7
  6
CONTINUOUS
  7
STANDARD
 71
2
 72
1
 10
2.175
 20
1.08
 30
0.0
 11
1.0
 21
0.0
 31
0.0
 73
2
 44
0.9
  1
K50P OPTICAL QD\P 
 40
0.1
 41
3.0
  0
ENDBLK
  5
25C
100
AcDbEntity
  8
0
  6
BYBLOCK
 62
0
100
AcDbBlockEnd
  0
ENDSEC
  0
SECTION
  2
ENTITIES
  0
MTEXT
  5
25D
100
AcDbEntity
  8
0
100
AcDbMText
 62
7
  6
CONTINUOUS
  7
TEXTSTYLE_2
 71
2
 72
1
 10
11.0287658475
 20
1.794867839
 30
0.0
 11
1.0
 21
0.0
 31
0.0
 73
2
 44
0.9
  1
\LTHIRD ANGLE PROJECTION\l
 40
0.1
 41
1.76
  0
MTEXT
  5
25E
100
AcDbEntity
  8
0
100
AcDbMText
 62
7
  6
CONTINUOUS
  7
STANDARD
 71
1
 72
1
 10
12.88
 20
1.457
 30
0.0
 11
1.0
 21
0.0
 31
0.0
 73
2
 44
0.9
  1
DRAWING NO.
 40
0.08
 41
0.88
  0
MTEXT
  5
25F
100
AcDbEntity
  8
0
100
AcDbMText
 62
7
  6
CONTINUOUS
  7
TEXTSTYLE_2
 71
1
 72
1
 10
12.08
 20
2.217
 30
0.0
 11
1.0
 21
0.0
 31
0.0
 73
2
 44
0.9
  1
TITLE
 40
0.1
 41
0.4
  0
MTEXT
  5
260
100
AcDbEntity
  8
0
100
AcDbMText
 62
7
  6
CONTINUOUS
  7
STANDARD
 71
1
 72
1
 10
12.08
 20
1.457
 30
0.0
 11
1.0
 21
0.0
 31
0.0
 73
2
 44
0.9
  1
SIZE
 40
0.08
 41
0.32
  0
MTEXT
  5
261
100
AcDbEntity
  8
0
100
AcDbMText
 62
7
  6
CONTINUOUS
  7
STANDARD
 71
1
 72
1
 10
12.08
 20
1.087
 30
0.0
 11
1.0
 21
0.0
 31
0.0
 73
2
 44
0.9
  1
SCALE
 40
0.08
 41
0.4
  0
MTEXT
  5
262
100
AcDbEntity
  8
0
100
AcDbMText
 62
7
  6
CONTINUOUS
  7
TEXTSTYLE_2
 71
2
 72
1
 10
12.5
 20
1.337
 30
0.0
 11
1.0
 21
0.0
 31
0.0
 73
2
 44
0.9
  1
B
 40
0.1
 41
0.08
  0
MTEXT
  5
263
100
AcDbEntity
  8
0
100
AcDbMText
 62
7
  6
CONTINUOUS
  7
TEXTSTYLE_3
 71
2
 72
1
 10
11.0340287086
 20
2.7679425959
 30
0.0
 11
1.0
 21
0.0
 31
0.0
 73
2
 44
0.9
  1
This drawing is the property\Pof BANNER ENGINEERING CORP.\PAny use or reproduction,\Pin any form, without prior\Pwritten permission of\PBanner is prohibited.
 40
0.08
 41
1.904
  0
MTEXT
  5
264
100
AcDbEntity
  8
0
100
AcDbMText
 62
7
  6
CONTINUOUS
  7
STANDARD
 71
1
 72
1
 10
14.255
 20
1.087
 30
0.0
 11
1.0
 21
0.0
 31
0.0
 73
2
 44
0.9
  1
SHEET
 40
0.08
 41
0.4
  0
MTEXT
  5
265
100
AcDbEntity
  8
0
100
AcDbMText
 62
7
  6
CONTINUOUS
  7
STANDARD
 71
1
 72
1
 10
15.63
 20
1.457
 30
0.0
 11
1.0
 21
0.0
 31
0.0
 73
2
 44
0.9
  1
REV.
 40
0.08
 41
0.32
  0
MTEXT
  5
266
100
AcDbEntity
  8
0
100
AcDbMText
 62
7
  6
CONTINUOUS
  7
STANDARD
 71
3
 72
1
 10
16.38
 20
0.835443
 30
0.0
 11
1.0
 21
0.0
 31
0.0
 73
2
 44
0.9
  1
CREO
 40
0.07
 41
0.28
  0
MTEXT
  5
267
100
AcDbEntity
  8
0
100
AcDbMText
 62
7
  6
CONTINUOUS
  7
TEXTSTYLE_4
 71
2
 72
1
 10
15.1043392653
 20
2.7174764286
 30
0.0
 11
1.0
 21
0.0
 31
0.0
 73
2
 44
0.9
  1
BANNER ENGINEERING CORP.
 40
0.12
 41
2.592
  0
MTEXT
  5
268
100
AcDbEntity
  8
0
100
AcDbMText
 62
7
  6
CONTINUOUS
  7
TEXTSTYLE_2
 71
2
 72
1
 10
15.0923490612
 20
2.4764783673
 30
0.0
 11
1.0
 21
0.0
 31
0.0
 73
2
 44
0.9
  1
www.bannerengineering.com
 40
0.1
 41
2.0
  0
MTEXT
  5
269
100
AcDbEntity
  8
0
100
AcDbMText
 62
7
  6
CONTINUOUS
  7
TEXTSTYLE_2
 71
2
 72
1
 10
9.485
 20
10.312
 30
0.0
 11
1.0
 21
0.0
 31
0.0
 73
2
 44
0.9
  1
4
 40
0.1
 41
0.08
  0
MTEXT
  5
26A
100
AcDbEntity
  8
0
100
AcDbMText
 62
7
  6
CONTINUOUS
  7
TEXTSTYLE_2
 71
2
 72
1
 10
11.455
 20
10.312
 30
0.0
 11
1.0
 21
0.0
 31
0.0
 73
2
 44
0.9
  1
3
 40
0.1
 41
0.08
  0
MTEXT
  5
26B
100
AcDbEntity
  8
0
100
AcDbMText
 62
7
  6
CONTINUOUS
  7
TEXTSTYLE_2
 71
2
 72
1
 10
13.425
 20
10.312
 30
0.0
 11
1.0
 21
0.0
 31
0.0
 73
2
 44
0.9
  1
2
 40
0.1
 41
0.08
  0
MTEXT
  5
26C
100
AcDbEntity
  8
0
100
AcDbMText
 62
7
  6
CONTINUOUS
  7
TEXTSTYLE_2
 71
2
 72
1
 10
15.395
 20
10.312
 30
0.0
 11
1.0
 21
0.0
 31
0.0
 73
2
 44
0.9
  1
1
 40
0.1
 41
0.08
  0
MTEXT
  5
26D
100
AcDbEntity
  8
0
100
AcDbMText
 62
7
  6
CONTINUOUS
  7
TEXTSTYLE_2
 71
2
 72
1
 10
3.575
 20
10.312
 30
0.0
 11
1.0
 21
0.0
 31
0.0
 73
2
 44
0.9
  1
7
 40
0.1
 41
0.08
  0
MTEXT
  5
26E
100
AcDbEntity
  8
0
100
AcDbMText
 62
7
  6
CONTINUOUS
  7
TEXTSTYLE_2
 71
2
 72
1
 10
5.545
 20
10.312
 30
0.0
 11
1.0
 21
0.0
 31
0.0
 73
2
 44
0.9
  1
6
 40
0.1
 41
0.08
  0
MTEXT
  5
26F
100
AcDbEntity
  8
0
100
AcDbMText
 62
7
  6
CONTINUOUS
  7
TEXTSTYLE_2
 71
2
 72
1
 10
7.515
 20
10.312
 30
0.0
 11
1.0
 21
0.0
 31
0.0
 73
2
 44
0.9
  1
5
 40
0.1
 41
0.08
  0
MTEXT
  5
270
100
AcDbEntity
  8
0
100
AcDbMText
 62
7
  6
CONTINUOUS
  7
TEXTSTYLE_2
 71
2
 72
1
 10
1.605
 20
10.312
 30
0.0
 11
1.0
 21
0.0
 31
0.0
 73
2
 44
0.9
  1
8
 40
0.1
 41
0.08
  0
MTEXT
  5
271
100
AcDbEntity
  8
0
100
AcDbMText
 62
7
  6
CONTINUOUS
  7
TEXTSTYLE_2
 71
2
 72
1
 10
1.605
 20
0.787
 30
0.0
 11
1.0
 21
0.0
 31
0.0
 73
2
 44
0.9
  1
8
 40
0.1
 41
0.08
  0
MTEXT
  5
272
100
AcDbEntity
  8
0
100
AcDbMText
 62
7
  6
CONTINUOUS
  7
TEXTSTYLE_2
 71
2
 72
1
 10
3.575
 20
0.787
 30
0.0
 11
1.0
 21
0.0
 31
0.0
 73
2
 44
0.9
  1
7
 40
0.1
 41
0.08
  0
MTEXT
  5
273
100
AcDbEntity
  8
0
100
AcDbMText
 62
7
  6
CONTINUOUS
  7
TEXTSTYLE_2
 71
2
 72
1
 10
5.545
 20
0.787
 30
0.0
 11
1.0
 21
0.0
 31
0.0
 73
2
 44
0.9
  1
6
 40
0.1
 41
0.08
  0
MTEXT
  5
274
100
AcDbEntity
  8
0
100
AcDbMText
 62
7
  6
CONTINUOUS
  7
TEXTSTYLE_2
 71
2
 72
1
 10
7.515
 20
0.787
 30
0.0
 11
1.0
 21
0.0
 31
0.0
 73
2
 44
0.9
  1
5
 40
0.1
 41
0.08
  0
MTEXT
  5
275
100
AcDbEntity
  8
0
100
AcDbMText
 62
7
  6
CONTINUOUS
  7
TEXTSTYLE_2
 71
2
 72
1
 10
9.485
 20
0.787
 30
0.0
 11
1.0
 21
0.0
 31
0.0
 73
2
 44
0.9
  1
4
 40
0.1
 41
0.08
  0
MTEXT
  5
276
100
AcDbEntity
  8
0
100
AcDbMText
 62
7
  6
CONTINUOUS
  7
TEXTSTYLE_2
 71
2
 72
1
 10
11.455
 20
0.787
 30
0.0
 11
1.0
 21
0.0
 31
0.0
 73
2
 44
0.9
  1
3
 40
0.1
 41
0.08
  0
MTEXT
  5
277
100
AcDbEntity
  8
0
100
AcDbMText
 62
7
  6
CONTINUOUS
  7
TEXTSTYLE_2
 71
2
 72
1
 10
13.425
 20
0.787
 30
0.0
 11
1.0
 21
0.0
 31
0.0
 73
2
 44
0.9
  1
2
 40
0.1
 41
0.08
  0
MTEXT
  5
278
100
AcDbEntity
  8
0
100
AcDbMText
 62
7
  6
CONTINUOUS
  7
TEXTSTYLE_2
 71
2
 72
1
 10
15.395
 20
0.787
 30
0.0
 11
1.0
 21
0.0
 31
0.0
 73
2
 44
0.9
  1
1
 40
0.1
 41
0.08
  0
MTEXT
  5
279
100
AcDbEntity
  8
0
100
AcDbMText
 62
7
  6
CONTINUOUS
  7
TEXTSTYLE_2
 71
3
 72
1
 10
0.52
 20
4.3995
 30
0.0
 11
1.0
 21
0.0
 31
0.0
 73
2
 44
0.9
  1
B
 40
0.1
 41
0.08
  0
MTEXT
  5
27A
100
AcDbEntity
  8
0
100
AcDbMText
 62
7
  6
CONTINUOUS
  7
TEXTSTYLE_2
 71
3
 72
1
 10
0.52
 20
2.0995
 30
0.0
 11
1.0
 21
0.0
 31
0.0
 73
2
 44
0.9
  1
A
 40
0.1
 41
0.08
  0
MTEXT
  5
27B
100
AcDbEntity
  8
0
100
AcDbMText
 62
7
  6
CONTINUOUS
  7
TEXTSTYLE_2
 71
3
 72
1
 10
0.52
 20
8.9995
 30
0.0
 11
1.0
 21
0.0
 31
0.0
 73
2
 44
0.9
  1
D
 40
0.1
 41
0.08
  0
MTEXT
  5
27C
100
AcDbEntity
  8
0
100
AcDbMText
 62
7
  6
CONTINUOUS
  7
TEXTSTYLE_2
 71
3
 72
1
 10
0.52
 20
6.6995
 30
0.0
 11
1.0
 21
0.0
 31
0.0
 73
2
 44
0.9
  1
C
 40
0.1
 41
0.08
  0
MTEXT
  5
27D
100
AcDbEntity
  8
0
100
AcDbMText
 62
7
  6
CONTINUOUS
  7
TEXTSTYLE_2
 71
1
 72
1
 10
16.48
 20
8.9995
 30
0.0
 11
1.0
 21
0.0
 31
0.0
 73
2
 44
0.9
  1
D
 40
0.1
 41
0.08
  0
MTEXT
  5
27E
100
AcDbEntity
  8
0
100
AcDbMText
 62
7
  6
CONTINUOUS
  7
TEXTSTYLE_2
 71
1
 72
1
 10
16.48
 20
6.6995
 30
0.0
 11
1.0
 21
0.0
 31
0.0
 73
2
 44
0.9
  1
C
 40
0.1
 41
0.08
  0
MTEXT
  5
27F
100
AcDbEntity
  8
0
100
AcDbMText
 62
7
  6
CONTINUOUS
  7
TEXTSTYLE_2
 71
1
 72
1
 10
16.48
 20
4.3995
 30
0.0
 11
1.0
 21
0.0
 31
0.0
 73
2
 44
0.9
  1
B
 40
0.1
 41
0.08
  0
MTEXT
  5
280
100
AcDbEntity
  8
0
100
AcDbMText
 62
7
  6
CONTINUOUS
  7
TEXTSTYLE_2
 71
1
 72
1
 10
16.48
 20
2.0995
 30
0.0
 11
1.0
 21
0.0
 31
0.0
 73
2
 44
0.9
  1
A
 40
0.1
 41
0.08
  0
MTEXT
  5
281
100
AcDbEntity
  8
0
100
AcDbMText
 62
7
  6
CONTINUOUS
  7
STANDARD
 71
1
 72
1
 10
14.819264911
 20
1.0627941725
 30
0.0
 11
1.0
 21
0.0
 31
0.0
 73
2
 44
0.9
  1
1 OF 1
 40
0.1
 41
0.6
  0
MTEXT
  5
282
100
AcDbEntity
  8
0
100
AcDbMText
 62
7
  6
CONTINUOUS
  7
STANDARD
 71
1
 72
1
 10
13.8911999818
 20
1.3747321586
 30
0.0
 11
1.0
 21
0.0
 31
0.0
 73
2
 44
0.9
  1
212846
 40
0.12
 41
0.72
  0
MTEXT
  5
283
100
AcDbEntity
  8
0
100
AcDbMText
 62
7
  6
CONTINUOUS
  7
STANDARD
 71
1
 72
1
 10
12.644264911
 20
1.0627941725
 30
0.0
 11
1.0
 21
0.0
 31
0.0
 73
2
 44
0.9
  1
1:1
 40
0.1
 41
0.3
  0
MTEXT
  5
284
100
AcDbEntity
  8
0
100
AcDbMText
 62
7
  6
CONTINUOUS
  7
STANDARD
 71
1
 72
1
 10
0.8489354566
 20
1.4938330621
 30
0.0
 11
1.0
 21
0.0
 31
0.0
 73
2
 44
0.9
  1
NOTES:\P1. ALL DIMENSIONS ARE MILLIMETERS [INCHES] UNLESS OTHERWISE NOTED.\P2. REFER TO "www.bannerengineering.com" FOR ADDITIONAL DATA AND SPECIFICATIONS.
 40
0.1
 41
7.9
  0
MTEXT
  5
285
100
AcDbEntity
  8
0
100
AcDbMText
 62
7
  6
CONTINUOUS
  7
TEXTSTYLE_5
 71
2
 72
1
 10
11.0519651892
 20
2.0334024775
 30
0.0
 11
1.0
 21
0.0
 31
0.0
 73
2
 44
0.9
  1
C  2015 Banner Engineering Corp.
 40
0.08
 41
1.92
  0
DIMENSION
  5
286
100
AcDbEntity
  8
SCHEME_DIMS
100
AcDbDimension
 62
7
  6
CONTINUOUS
  2
*D0
 10
8.570589557
 20
8.2963498171
 11
7.226101368
 21
8.2213498171
 70
160
 71
2
 72
2
 41
0.9
 42
68.3
  1
<>\P[]
  3
DIMSTYLE_1
100
AcDbAlignedDimension
 13
5.881613179
 23
6.2074390732
 14
8.570589557
 24
6.0544289615
100
AcDbRotatedDimension
  0
DIMENSION
  5
287
100
AcDbEntity
  8
SCHEME_DIMS
100
AcDbDimension
 62
7
  6
CONTINUOUS
  2
*D1
 10
8.0981486121
 20
7.7475762708
 11
6.9898808956
 21
7.6725762708
 70
160
 71
2
 72
2
 41
0.9
 42
56.3
  1
<>\P[]
  3
DIMSTYLE_1
100
AcDbAlignedDimension
 13
5.881613179
 23
6.2074390732
 14
8.0981486121
 24
6.3526572748
100
AcDbRotatedDimension
  0
DIMENSION
  5
288
100
AcDbEntity
  8
SCHEME_DIMS
100
AcDbDimension
 62
7
  6
CONTINUOUS
  2
*D2
 10
7.3107470373
 20
7.2418501805
 11
6.5961801082
 21
7.1668501805
 70
160
 71
2
 72
2
 41
0.9
 42
36.3
  1
<>\P[]
  3
DIMSTYLE_1
100
AcDbAlignedDimension
 13
5.881613179
 23
6.2074390732
 14
7.3107470373
 24
6.7955706846
100
AcDbRotatedDimension
  0
DIMENSION
  5
289
100
AcDbEntity
  8
SCHEME_DIMS
100
AcDbDimension
 62
7
  6
CONTINUOUS
  2
*D3
 10
3.4432872638
 20
5.061899832
 11
4.2558689396
 21
4.7243952545
 70
163
 71
1
 72
2
 41
0.9
 42
50.0
  1
%%c<>\P[]
  3
DIMSTYLE_2
100
AcDbDiametricDimension
 15
2.2658937102
 25
6.6394777761
  0
ACAD_TABLE
  5
28A
100
AcDbEntity
  8
0
 62
7
  6
CONTINUOUS
100
AcDbBlockReference
  2
*T1
 10
12.03
 20
0.887
 30
0.0
100
AcDbTable
342
       62F
343
22A
 11
1.0
 21
0.0
 31
0.0
 90
6
 91
3
 92
5
 93
4
 94
0
 95
0
 96
0
 70
1
141
0.33
141
0.45
141
1.14
142
0.65
142
1.15
142
1.025
142
1.075
142
0.45
171
1
172
0
173
0
174
0
175
1
176
1
 91
33
178
0
145
0.0
301
CELL_VALUE
 90
4
  1
 
304
ACVALUE_END
170
1
140
0.1
171
1
172
0
173
0
174
0
175
1
176
1
 91
33
178
0
145
0.0
301
CELL_VALUE
 90
4
  1
 
304
ACVALUE_END
170
1
140
0.1
171
1
172
0
173
0
174
0
175
1
176
1
 91
33
178
0
145
0.0
301
CELL_VALUE
 90
4
  1
 
304
ACVALUE_END
170
1
140
0.1
171
1
172
0
173
0
174
0
175
1
176
1
 91
33
178
0
145
0.0
301
CELL_VALUE
 90
4
  1
 
304
ACVALUE_END
170
1
140
0.1
171
1
172
0
173
0
174
0
175
1
176
1
 91
33
178
0
145
0.0
301
CELL_VALUE
 90
4
  1
 
304
ACVALUE_END
170
1
140
0.1
171
1
172
0
173
0
174
0
175
1
176
1
 91
33
178
0
145
0.0
301
CELL_VALUE
 90
4
  1
 
304
ACVALUE_END
170
1
140
0.1
171
1
172
0
173
0
174
0
175
1
176
1
 91
33
178
0
145
0.0
301
CELL_VALUE
 90
4
  1
 
304
ACVALUE_END
170
1
140
0.1
171
1
172
0
173
0
174
0
175
1
176
1
 91
33
178
0
145
0.0
301
CELL_VALUE
 90
4
  1
 
304
ACVALUE_END
170
1
140
0.1
171
1
172
0
173
0
174
0
175
1
176
1
 91
33
178
0
145
0.0
301
CELL_VALUE
 90
4
  1
 
304
ACVALUE_END
170
1
140
0.1
171
1
172
0
173
0
174
0
175
1
176
1
 91
41
178
0
145
0.0
301
CELL_VALUE
 90
4
  1
B
304
ACVALUE_END
170
8
140
0.1
 64
7
171
1
172
0
173
0
174
0
175
5
176
1
 91
33
178
0
145
0.0
301
CELL_VALUE
 90
4
  1
K50P OPTICAL QD\P 
304
ACVALUE_END
170
8
140
0.1
171
1
172
0
173
1
174
0
175
1
176
1
 91
1
178
0
145
0.0
170
1
171
1
172
0
173
1
174
0
175
1
176
1
 91
1
178
0
145
0.0
170
1
171
1
172
0
173
1
174
0
175
1
176
1
 91
1
178
0
145
0.0
170
1
171
1
172
0
173
1
174
0
175
1
176
1
 91
1
178
0
145
0.0
170
8
  0
LEADER
  5
28B
100
AcDbEntity
  8
NOTES
100
AcDbLeader
 62
7
  6
CONTINUOUS
  3
STANDARD
 71
1
 72
0
 73
0
 75
0
 40
0.1
 41
0.8
 76
3
 10
8.3799692231
 20
5.6169561888
 30
0.0
 10
8.7223525899
 20
5.0472387346
 30
0.0
 10
8.8404503086
 20
5.0472387346
 30
0.0
340
28C
1001
ACAD
1000
DSTYLE
1002
{
1070
77
1070
0
1002
}
  0
MTEXT
  5
28C
102
{ACAD_REACTORS
330
28B
102
}
100
AcDbEntity
  8
NOTES
100
AcDbMText
 62
7
  6
CONTINUOUS
  7
STANDARD
 71
1
 72
1
 10
8.8404503086
 20
5.0972387346
 30
0.0
 11
1.0
 21
0.0
 31
0.0
 73
2
 44
0.9
  1
 M12 X 1
 40
0.1
 41
0.8
  0
LEADER
  5
28D
100
AcDbEntity
  8
NOTES
100
AcDbLeader
 62
7
  6
CONTINUOUS
  3
STANDARD
 71
1
 72
0
 73
0
 75
0
 40
0.1
 41
1.0
 76
3
 10
7.6724856015
 20
6.3920273867
 30
0.0
 10
8.0584003778
 20
6.9047259217
 30
0.0
 10
8.196653937
 20
6.9047259217
 30
0.0
340
28E
1001
ACAD
1000
DSTYLE
1002
{
1070
77
1070
0
1002
}
  0
MTEXT
  5
28E
102
{ACAD_REACTORS
330
28D
102
}
100
AcDbEntity
  8
NOTES
100
AcDbMText
 62
7
  6
CONTINUOUS
  7
STANDARD
 71
1
 72
1
 10
8.196653937
 20
6.9547259217
 30
0.0
 11
1.0
 21
0.0
 31
0.0
 73
2
 44
0.9
  1
 M30 X 1.5
 40
0.1
 41
1.0
  0
LEADER
  5
28F
100
AcDbEntity
  8
NOTES
100
AcDbLeader
 62
7
  6
CONTINUOUS
  3
STANDARD
 71
1
 72
0
 73
0
 75
0
 40
0.1
 41
1.2
 76
3
 10
11.7664778194
 20
5.4929965159
 30
0.0
 10
12.4759309319
 20
4.4899528159
 30
0.0
 10
12.6324566119
 20
4.4899528159
 30
0.0
340
290
1001
ACAD
1000
DSTYLE
1002
{
1070
77
1070
0
1002
}
  0
MTEXT
  5
290
102
{ACAD_REACTORS
330
28F
102
}
100
AcDbEntity
  8
NOTES
100
AcDbMText
 62
7
  6
CONTINUOUS
  7
STANDARD
 71
1
 72
1
 10
12.6324566119
 20
4.5399528159
 30
0.0
 11
1.0
 21
0.0
 31
0.0
 73
2
 44
0.9
  1
 1/2-14 NPSM
 40
0.1
 41
1.2
  0
LEADER
  5
291
100
AcDbEntity
  8
NOTES
100
AcDbLeader
 62
7
  6
CONTINUOUS
  3
STANDARD
 71
1
 72
0
 73
0
 75
0
 40
0.1
 41
1.8
 76
3
 10
11.6544048162
 20
5.843708128
 30
0.0
 10
12.9262671491
 20
5.3613334322
 30
0.0
 10
13.1762671491
 20
5.3613334322
 30
0.0
340
292
1001
ACAD
1000
DSTYLE
1002
{
1070
77
1070
0
1002
}
  0
MTEXT
  5
292
102
{ACAD_REACTORS
330
291
102
}
100
AcDbEntity
  8
NOTES
100
AcDbMText
 62
7
  6
CONTINUOUS
  7
STANDARD
 71
1
 72
1
 10
13.1762671491
 20
5.4113334322
 30
0.0
 11
1.0
 21
0.0
 31
0.0
 73
2
 44
0.9
  1
NUMBER OF PINS MAY\PVARY BY MODEL.
 40
0.1
 41
1.8
  0
MTEXT
  5
293
100
AcDbEntity
  8
NOTES
100
AcDbMText
 62
7
  6
CONTINUOUS
  7
STANDARD
 71
2
 72
1
 10
15.0046182753
 20
7.0559935636
 30
0.0
 11
1.0
 21
0.0
 31
0.0
 73
2
 44
0.9
  1
\LISOMETRIC VIEW\P\H0.1;\lSCALE  1:1
 40
0.12
 41
1.68
  0
LINE
  5
294
100
AcDbEntity
  8
0
100
AcDbLine
 62
7
  6
CONTINUOUS
 10
0.47
 20
5.586103
 11
0.47
 21
5.412897
  0
LINE
  5
295
100
AcDbEntity
  8
0
100
AcDbLine
 62
7
  6
CONTINUOUS
 10
0.62
 20
10.112
 11
0.62
 21
0.887
  0
LINE
  5
296
100
AcDbEntity
  8
0
100
AcDbLine
 62
7
  6
CONTINUOUS
 10
2.59
 20
0.887
 11
2.59
 21
0.637
  0
LINE
  5
297
100
AcDbEntity
  8
0
100
AcDbLine
 62
7
  6
CONTINUOUS
 10
2.59
 20
10.112
 11
2.59
 21
10.362
  0
LINE
  5
298
100
AcDbEntity
  8
0
100
AcDbLine
 62
7
  6
CONTINUOUS
 10
8.413397
 20
0.737
 11
8.586603
 21
0.737
  0
LINE
  5
299
100
AcDbEntity
  8
0
100
AcDbLine
 62
7
  6
CONTINUOUS
 10
11.1389508475
 20
1.425992839
 11
11.7453418475
 21
1.495385839
  0
LINE
  5
29A
100
AcDbEntity
  8
0
100
AcDbLine
 62
7
  6
CONTINUOUS
 10
0.62
 20
0.887
 11
16.38
 21
0.887
  0
LINE
  5
29B
100
AcDbEntity
  8
0
100
AcDbLine
 62
7
  6
CONTINUOUS
 10
12.03
 20
1.137
 11
16.38
 21
1.137
  0
LINE
  5
29C
100
AcDbEntity
  8
0
100
AcDbLine
 62
7
  6
CONTINUOUS
 10
10.2121898475
 20
1.243294839
 11
10.4342808475
 21
1.243294839
  0
LINE
  5
29D
100
AcDbEntity
  8
0
100
AcDbLine
 62
7
  6
CONTINUOUS
 10
10.4842808475
 20
1.243294839
 11
10.5842808475
 21
1.243294839
  0
LINE
  5
29E
100
AcDbEntity
  8
0
100
AcDbLine
 62
7
  6
CONTINUOUS
 10
10.6342808475
 20
1.243294839
 11
10.8563718475
 21
1.243294839
  0
LINE
  5
29F
100
AcDbEntity
  8
0
100
AcDbLine
 62
7
  6
CONTINUOUS
 10
11.0389508475
 20
1.243294839
 11
11.3171028475
 21
1.243294839
  0
LINE
  5
2A0
100
AcDbEntity
  8
0
100
AcDbLine
 62
7
  6
CONTINUOUS
 10
11.3671028475
 20
1.243294839
 11
11.5171888475
 21
1.243294839
  0
LINE
  5
2A1
100
AcDbEntity
  8
0
100
AcDbLine
 62
7
  6
CONTINUOUS
 10
11.5671888475
 20
1.243294839
 11
11.8453418475
 21
1.243294839
  0
LINE
  5
2A2
100
AcDbEntity
  8
0
100
AcDbLine
 62
7
  6
CONTINUOUS
 10
11.7453418475
 20
0.991203839
 11
11.1389508475
 21
1.060596839
  0
LINE
  5
2A3
100
AcDbEntity
  8
0
100
AcDbLine
 62
7
  6
CONTINUOUS
 10
4.56
 20
0.887
 11
4.56
 21
0.637
  0
LINE
  5
2A4
100
AcDbEntity
  8
0
100
AcDbLine
 62
7
  6
CONTINUOUS
 10
4.56
 20
10.112
 11
4.56
 21
10.362
  0
LINE
  5
2A5
100
AcDbEntity
  8
0
100
AcDbLine
 62
7
  6
CONTINUOUS
 10
0.47
 20
5.412897
 11
0.62
 21
5.4995
  0
LINE
  5
2A6
100
AcDbEntity
  8
0
100
AcDbLine
 62
7
  6
CONTINUOUS
 10
12.03
 20
1.507
 11
16.38
 21
1.507
  0
LINE
  5
2A7
100
AcDbEntity
  8
0
100
AcDbLine
 62
7
  6
CONTINUOUS
 10
10.03
 20
1.907
 11
12.03
 21
1.907
  0
LINE
  5
2A8
100
AcDbEntity
  8
0
100
AcDbLine
 62
7
  6
CONTINUOUS
 10
0.62
 20
5.4995
 11
0.47
 21
5.586103
  0
LINE
  5
2A9
100
AcDbEntity
  8
0
100
AcDbLine
 62
7
  6
CONTINUOUS
 10
12.03
 20
2.267
 11
16.38
 21
2.267
  0
LINE
  5
2AA
100
AcDbEntity
  8
0
100
AcDbLine
 62
7
  6
CONTINUOUS
 10
13.6042588488
 20
2.4912273132
 11
13.5568948225
 21
2.4912273132
  0
LINE
  5
2AB
100
AcDbEntity
  8
0
100
AcDbLine
 62
7
  6
CONTINUOUS
 10
13.5130037982
 20
2.4912273132
 11
13.3994327352
 21
2.4912273132
  0
LINE
  5
2AC
100
AcDbEntity
  8
0
100
AcDbLine
 62
7
  6
CONTINUOUS
 10
13.3705287192
 20
2.4912273132
 11
13.1673166065
 21
2.4912273132
  0
LINE
  5
2AD
100
AcDbEntity
  8
0
100
AcDbLine
 62
7
  6
CONTINUOUS
 10
13.1168435785
 20
2.4912273132
 11
13.0426375373
 21
2.4912273132
  0
LINE
  5
2AE
100
AcDbEntity
  8
0
100
AcDbLine
 62
7
  6
CONTINUOUS
 10
12.9962575116
 20
2.4912273132
 11
12.9205934696
 21
2.4912273132
  0
LINE
  5
2AF
100
AcDbEntity
  8
0
100
AcDbLine
 62
7
  6
CONTINUOUS
 10
12.8685904408
 20
2.4912273132
 11
12.7943853997
 21
2.4912273132
  0
LINE
  5
2B0
100
AcDbEntity
  8
0
100
AcDbLine
 62
7
  6
CONTINUOUS
 10
12.7480043739
 20
2.4912273132
 11
12.672340332
 21
2.4912273132
  0
LINE
  5
2B1
100
AcDbEntity
  8
0
100
AcDbLine
 62
7
  6
CONTINUOUS
 10
12.2055050731
 20
2.4912273132
 11
12.3819511709
 21
2.4912273132
  0
LINE
  5
2B2
100
AcDbEntity
  8
0
100
AcDbLine
 62
7
  6
CONTINUOUS
 10
12.4394882028
 20
2.4912273132
 11
12.5168642458
 21
2.4912273132
  0
LINE
  5
2B3
100
AcDbEntity
  8
0
100
AcDbLine
 62
7
  6
CONTINUOUS
 10
12.537150257
 20
2.4912273132
 11
12.6424313154
 21
2.4912273132
  0
LINE
  5
2B4
100
AcDbEntity
  8
0
100
AcDbLine
 62
7
  6
CONTINUOUS
 10
13.4883447845
 20
2.5159553269
 11
13.5130037982
 21
2.5159553269
  0
LINE
  5
2B5
100
AcDbEntity
  8
0
100
AcDbLine
 62
7
  6
CONTINUOUS
 10
12.6424313154
 20
2.515977327
 11
12.6224153043
 21
2.515977327
  0
LINE
  5
2B6
100
AcDbEntity
  8
0
100
AcDbLine
 62
7
  6
CONTINUOUS
 10
12.551601265
 20
2.515977327
 11
12.537150257
 21
2.515977327
  0
LINE
  5
2B7
100
AcDbEntity
  8
0
100
AcDbLine
 62
7
  6
CONTINUOUS
 10
12.5168642458
 20
2.515977327
 11
12.5055812395
 21
2.515977327
  0
LINE
  5
2B8
100
AcDbEntity
  8
0
100
AcDbLine
 62
7
  6
CONTINUOUS
 10
12.4623492155
 20
2.515977327
 11
12.4394882028
 21
2.515977327
  0
LINE
  5
2B9
100
AcDbEntity
  8
0
100
AcDbLine
 62
7
  6
CONTINUOUS
 10
12.3362731456
 20
2.515977327
 11
12.2949101227
 21
2.515977327
  0
LINE
  5
2BA
100
AcDbEntity
  8
0
100
AcDbLine
 62
7
  6
CONTINUOUS
 10
12.2294470864
 20
2.515977327
 11
12.2055050731
 21
2.515977327
  0
LINE
  5
2BB
100
AcDbEntity
  8
0
100
AcDbLine
 62
7
  6
CONTINUOUS
 10
12.672340332
 20
2.515977327
 11
12.6909873423
 21
2.515977327
  0
LINE
  5
2BC
100
AcDbEntity
  8
0
100
AcDbLine
 62
7
  6
CONTINUOUS
 10
12.7276873627
 20
2.515977327
 11
12.7480043739
 21
2.515977327
  0
LINE
  5
2BD
100
AcDbEntity
  8
0
100
AcDbLine
 62
7
  6
CONTINUOUS
 10
12.9205934696
 20
2.515977327
 11
12.93923948
 21
2.515977327
  0
LINE
  5
2BE
100
AcDbEntity
  8
0
100
AcDbLine
 62
7
  6
CONTINUOUS
 10
12.9759405003
 20
2.515977327
 11
12.9962575116
 21
2.515977327
  0
LINE
  5
2BF
100
AcDbEntity
  8
0
100
AcDbLine
 62
7
  6
CONTINUOUS
 10
13.1673166065
 20
2.515977327
 11
13.1912396197
 21
2.515977327
  0
LINE
  5
2C0
100
AcDbEntity
  8
0
100
AcDbLine
 62
7
  6
CONTINUOUS
 10
13.2582556569
 20
2.515977327
 11
13.3232596929
 21
2.515977327
  0
LINE
  5
2C1
100
AcDbEntity
  8
0
100
AcDbLine
 62
7
  6
CONTINUOUS
 10
13.3994327352
 20
2.515977327
 11
13.4221787478
 21
2.515977327
  0
LINE
  5
2C2
100
AcDbEntity
  8
0
100
AcDbLine
 62
7
  6
CONTINUOUS
 10
13.6052818493
 20
2.5163643272
 11
13.60639085
 21
2.5163643272
  0
LINE
  5
2C3
100
AcDbEntity
  8
0
100
AcDbLine
 62
7
  6
CONTINUOUS
 10
13.3282096957
 20
2.5291773343
 11
13.3705287192
 21
2.5291773343
  0
LINE
  5
2C4
100
AcDbEntity
  8
0
100
AcDbLine
 62
7
  6
CONTINUOUS
 10
12.5110972426
 20
2.5296213345
 11
12.5459752619
 21
2.5296213345
  0
LINE
  5
2C5
100
AcDbEntity
  8
0
100
AcDbLine
 62
7
  6
CONTINUOUS
 10
13.6171458559
 20
2.5301143348
 11
13.6292558626
 21
2.5301143348
  0
LINE
  5
2C6
100
AcDbEntity
  8
0
100
AcDbLine
 62
7
  6
CONTINUOUS
 10
13.5159517998
 20
2.5306043351
 11
13.4883447845
 21
2.5306043351
  0
LINE
  5
2C7
100
AcDbEntity
  8
0
100
AcDbLine
 62
7
  6
CONTINUOUS
 10
13.2934226764
 20
2.5324773361
 11
13.2582556569
 21
2.5324773361
  0
LINE
  5
2C8
100
AcDbEntity
  8
0
100
AcDbLine
 62
7
  6
CONTINUOUS
 10
12.2949101227
 20
2.5333023366
 11
12.3362731456
 21
2.5333023366
  0
LINE
  5
2C9
100
AcDbEntity
  8
0
100
AcDbLine
 62
7
  6
CONTINUOUS
 10
13.5222818033
 20
2.5496073456
 11
13.4883447845
 21
2.5496073456
  0
LINE
  5
2CA
100
AcDbEntity
  8
0
100
AcDbLine
 62
7
  6
CONTINUOUS
 10
12.2949101227
 20
2.5499573458
 11
12.3362731456
 21
2.5499573458
  0
LINE
  5
2CB
100
AcDbEntity
  8
0
100
AcDbLine
 62
7
  6
CONTINUOUS
 10
12.5196132473
 20
2.5505713461
 11
12.5401702587
 21
2.5505713461
  0
LINE
  5
2CC
100
AcDbEntity
  8
0
100
AcDbLine
 62
7
  6
CONTINUOUS
 10
13.2582556569
 20
2.5507823463
 11
13.2934226764
 21
2.5507823463
  0
LINE
  5
2CD
100
AcDbEntity
  8
0
100
AcDbLine
 62
7
  6
CONTINUOUS
 10
13.3691097184
 20
2.5540823481
 11
13.3272456952
 21
2.5540823481
  0
LINE
  5
2CE
100
AcDbEntity
  8
0
100
AcDbLine
 62
7
  6
CONTINUOUS
 10
12.5329112547
 20
2.5667383551
 11
12.5267302512
 21
2.5667383551
  0
LINE
  5
2CF
100
AcDbEntity
  8
0
100
AcDbLine
 62
7
  6
CONTINUOUS
 10
13.4221787478
 20
2.5672823554
 11
13.3994327352
 21
2.5672823554
  0
LINE
  5
2D0
100
AcDbEntity
  8
0
100
AcDbLine
 62
7
  6
CONTINUOUS
 10
13.3222956924
 20
2.5672823554
 11
13.2582556569
 21
2.5672823554
  0
LINE
  5
2D1
100
AcDbEntity
  8
0
100
AcDbLine
 62
7
  6
CONTINUOUS
 10
13.1912396197
 20
2.5672823554
 11
13.1673166065
 21
2.5672823554
  0
LINE
  5
2D2
100
AcDbEntity
  8
0
100
AcDbLine
 62
7
  6
CONTINUOUS
 10
13.1397265912
 20
2.5672823554
 11
13.1217935812
 21
2.5672823554
  0
LINE
  5
2D3
100
AcDbEntity
  8
0
100
AcDbLine
 62
7
  6
CONTINUOUS
 10
13.0845015605
 20
2.5672823554
 11
13.0657255501
 21
2.5672823554
  0
LINE
  5
2D4
100
AcDbEntity
  8
0
100
AcDbLine
 62
7
  6
CONTINUOUS
 10
12.93923948
 20
2.5672823554
 11
12.9205934696
 21
2.5672823554
  0
LINE
  5
2D5
100
AcDbEntity
  8
0
100
AcDbLine
 62
7
  6
CONTINUOUS
 10
12.8914734535
 20
2.5672823554
 11
12.8735404436
 21
2.5672823554
  0
LINE
  5
2D6
100
AcDbEntity
  8
0
100
AcDbLine
 62
7
  6
CONTINUOUS
 10
12.8362484229
 20
2.5672823554
 11
12.8174724125
 21
2.5672823554
  0
LINE
  5
2D7
100
AcDbEntity
  8
0
100
AcDbLine
 62
7
  6
CONTINUOUS
 10
12.6909873423
 20
2.5672823554
 11
12.672340332
 21
2.5672823554
  0
LINE
  5
2D8
100
AcDbEntity
  8
0
100
AcDbLine
 62
7
  6
CONTINUOUS
 10
12.3362731456
 20
2.5672823554
 11
12.2949101227
 21
2.5672823554
  0
LINE
  5
2D9
100
AcDbEntity
  8
0
100
AcDbLine
 62
7
  6
CONTINUOUS
 10
12.2055050731
 20
2.5672823554
 11
12.2294470864
 21
2.5672823554
  0
LINE
  5
2DA
100
AcDbEntity
  8
0
100
AcDbLine
 62
7
  6
CONTINUOUS
 10
13.4883447845
 20
2.5672823554
 11
13.5251458049
 21
2.5672823554
  0
LINE
  5
2DB
100
AcDbEntity
  8
0
100
AcDbLine
 62
7
  6
CONTINUOUS
 10
12.5705042755
 20
2.5920323691
 11
12.5133292438
 21
2.5920323691
  0
LINE
  5
2DC
100
AcDbEntity
  8
0
100
AcDbLine
 62
7
  6
CONTINUOUS
 10
12.3715681652
 20
2.5920323691
 11
12.2055050731
 21
2.5920323691
  0
LINE
  5
2DD
100
AcDbEntity
  8
0
100
AcDbLine
 62
7
  6
CONTINUOUS
 10
12.672340332
 20
2.5920323691
 11
12.7727983877
 21
2.5920323691
  0
LINE
  5
2DE
100
AcDbEntity
  8
0
100
AcDbLine
 62
7
  6
CONTINUOUS
 10
12.8174724125
 20
2.5920323691
 11
12.8914734535
 21
2.5920323691
  0
LINE
  5
2DF
100
AcDbEntity
  8
0
100
AcDbLine
 62
7
  6
CONTINUOUS
 10
12.9205934696
 20
2.5920323691
 11
13.0210515254
 21
2.5920323691
  0
LINE
  5
2E0
100
AcDbEntity
  8
0
100
AcDbLine
 62
7
  6
CONTINUOUS
 10
13.0657255501
 20
2.5920323691
 11
13.1397265912
 21
2.5920323691
  0
LINE
  5
2E1
100
AcDbEntity
  8
0
100
AcDbLine
 62
7
  6
CONTINUOUS
 10
13.1673166065
 20
2.5920323691
 11
13.3691097184
 21
2.5920323691
  0
LINE
  5
2E2
100
AcDbEntity
  8
0
100
AcDbLine
 62
7
  6
CONTINUOUS
 10
13.3994327352
 20
2.5920323691
 11
13.5490138181
 21
2.5920323691
  0
LINE
  5
2E3
100
AcDbEntity
  8
0
100
AcDbLine
 62
7
  6
CONTINUOUS
 10
12.4008351814
 20
2.5375433389
 11
12.3907841758
 21
2.5410923409
  0
LINE
  5
2E4
100
AcDbEntity
  8
0
100
AcDbLine
 62
7
  6
CONTINUOUS
 10
12.7926763987
 20
2.4919113136
 11
12.7293963636
 21
2.5522893471
  0
LINE
  5
2E5
100
AcDbEntity
  8
0
100
AcDbLine
 62
7
  6
CONTINUOUS
 10
12.7745063886
 20
2.5913483688
 11
12.8345394219
 21
2.534068337
  0
LINE
  5
2E6
100
AcDbEntity
  8
0
100
AcDbLine
 62
7
  6
CONTINUOUS
 10
13.0409295364
 20
2.4919113136
 11
12.9776495013
 21
2.5522893471
  0
LINE
  5
2E7
100
AcDbEntity
  8
0
100
AcDbLine
 62
7
  6
CONTINUOUS
 10
13.0227595263
 20
2.5913483688
 11
13.0827925596
 21
2.534068337
  0
LINE
  5
2E8
100
AcDbEntity
  8
0
100
AcDbLine
 62
7
  6
CONTINUOUS
 10
12.548053263
 20
2.5284903339
 11
12.5536792662
 21
2.5197973291
  0
LINE
  5
2E9
100
AcDbEntity
  8
0
100
AcDbLine
 62
7
  6
CONTINUOUS
 10
12.5422482598
 20
2.5543913483
 11
12.5349892558
 21
2.5656073545
  0
LINE
  5
2EA
100
AcDbEntity
  8
0
100
AcDbLine
 62
7
  6
CONTINUOUS
 10
12.6203383031
 20
2.5171073276
 11
12.5725822767
 21
2.5909023685
  0
LINE
  5
2EB
100
AcDbEntity
  8
0
100
AcDbLine
 62
7
  6
CONTINUOUS
 10
12.2030300717
 20
2.5895573678
 11
12.2030300717
 21
2.5697573568
  0
LINE
  5
2EC
100
AcDbEntity
  8
0
100
AcDbLine
 62
7
  6
CONTINUOUS
 10
12.2030300717
 20
2.5135023256
 11
12.2030300717
 21
2.4937023146
  0
LINE
  5
2ED
100
AcDbEntity
  8
0
100
AcDbLine
 62
7
  6
CONTINUOUS
 10
12.2319220877
 20
2.564807354
 11
12.2319220877
 21
2.5184523283
  0
LINE
  5
2EE
100
AcDbEntity
  8
0
100
AcDbLine
 62
7
  6
CONTINUOUS
 10
12.2924351213
 20
2.564807354
 11
12.2924351213
 21
2.5524323472
  0
LINE
  5
2EF
100
AcDbEntity
  8
0
100
AcDbLine
 62
7
  6
CONTINUOUS
 10
12.2924351213
 20
2.5184523283
 11
12.2924351213
 21
2.5308273352
  0
LINE
  5
2F0
100
AcDbEntity
  8
0
100
AcDbLine
 62
7
  6
CONTINUOUS
 10
12.4370132015
 20
2.5135023256
 11
12.4370132015
 21
2.4937023146
  0
LINE
  5
2F1
100
AcDbEntity
  8
0
100
AcDbLine
 62
7
  6
CONTINUOUS
 10
12.5193392471
 20
2.4937023146
 11
12.5193392471
 21
2.5135023256
  0
LINE
  5
2F2
100
AcDbEntity
  8
0
100
AcDbLine
 62
7
  6
CONTINUOUS
 10
12.5346752556
 20
2.5135023256
 11
12.5346752556
 21
2.4937023146
  0
LINE
  5
2F3
100
AcDbEntity
  8
0
100
AcDbLine
 62
7
  6
CONTINUOUS
 10
12.6449063168
 20
2.4937023146
 11
12.6449063168
 21
2.5135023256
  0
LINE
  5
2F4
100
AcDbEntity
  8
0
100
AcDbLine
 62
7
  6
CONTINUOUS
 10
12.6698653306
 20
2.4937023146
 11
12.6698653306
 21
2.5135023256
  0
LINE
  5
2F5
100
AcDbEntity
  8
0
100
AcDbLine
 62
7
  6
CONTINUOUS
 10
12.6698653306
 20
2.5697573568
 11
12.6698653306
 21
2.5895573678
  0
LINE
  5
2F6
100
AcDbEntity
  8
0
100
AcDbLine
 62
7
  6
CONTINUOUS
 10
12.6934623437
 20
2.5184523283
 11
12.6934623437
 21
2.564807354
  0
LINE
  5
2F7
100
AcDbEntity
  8
0
100
AcDbLine
 62
7
  6
CONTINUOUS
 10
12.7252123613
 20
2.5504983461
 11
12.7252123613
 21
2.5184523283
  0
LINE
  5
2F8
100
AcDbEntity
  8
0
100
AcDbLine
 62
7
  6
CONTINUOUS
 10
13.5375908118
 20
2.5092733232
 11
13.5357868108
 21
2.5153423266
  0
LINE
  5
2F9
100
AcDbEntity
  8
0
100
AcDbLine
 62
7
  6
CONTINUOUS
 10
12.7504793753
 20
2.5135023256
 11
12.7504793753
 21
2.4937023146
  0
LINE
  5
2FA
100
AcDbEntity
  8
0
100
AcDbLine
 62
7
  6
CONTINUOUS
 10
12.8149974111
 20
2.5697573568
 11
12.8149974111
 21
2.5895573678
  0
LINE
  5
2FB
100
AcDbEntity
  8
0
100
AcDbLine
 62
7
  6
CONTINUOUS
 10
12.8387234242
 20
2.535859338
 11
12.8387234242
 21
2.564807354
  0
LINE
  5
2FC
100
AcDbEntity
  8
0
100
AcDbLine
 62
7
  6
CONTINUOUS
 10
12.8710654422
 20
2.564807354
 11
12.8710654422
 21
2.4937023146
  0
LINE
  5
2FD
100
AcDbEntity
  8
0
100
AcDbLine
 62
7
  6
CONTINUOUS
 10
12.8939484549
 20
2.5895573678
 11
12.8939484549
 21
2.5697573568
  0
LINE
  5
2FE
100
AcDbEntity
  8
0
100
AcDbLine
 62
7
  6
CONTINUOUS
 10
12.9181184683
 20
2.4937023146
 11
12.9181184683
 21
2.5135023256
  0
LINE
  5
2FF
100
AcDbEntity
  8
0
100
AcDbLine
 62
7
  6
CONTINUOUS
 10
12.9181184683
 20
2.5697573568
 11
12.9181184683
 21
2.5895573678
  0
LINE
  5
300
100
AcDbEntity
  8
0
100
AcDbLine
 62
7
  6
CONTINUOUS
 10
12.9417144814
 20
2.5184523283
 11
12.9417144814
 21
2.564807354
  0
LINE
  5
301
100
AcDbEntity
  8
0
100
AcDbLine
 62
7
  6
CONTINUOUS
 10
12.973465499
 20
2.5504983461
 11
12.973465499
 21
2.5184523283
  0
LINE
  5
302
100
AcDbEntity
  8
0
100
AcDbLine
 62
7
  6
CONTINUOUS
 10
12.998732513
 20
2.5135023256
 11
12.998732513
 21
2.4937023146
  0
LINE
  5
303
100
AcDbEntity
  8
0
100
AcDbLine
 62
7
  6
CONTINUOUS
 10
13.0632505488
 20
2.5697573568
 11
13.0632505488
 21
2.5895573678
  0
LINE
  5
304
100
AcDbEntity
  8
0
100
AcDbLine
 62
7
  6
CONTINUOUS
 10
13.0869765619
 20
2.535859338
 11
13.0869765619
 21
2.564807354
  0
LINE
  5
305
100
AcDbEntity
  8
0
100
AcDbLine
 62
7
  6
CONTINUOUS
 10
13.1193185799
 20
2.564807354
 11
13.1193185799
 21
2.4937023146
  0
LINE
  5
306
100
AcDbEntity
  8
0
100
AcDbLine
 62
7
  6
CONTINUOUS
 10
13.1422015925
 20
2.5895573678
 11
13.1422015925
 21
2.5697573568
  0
LINE
  5
307
100
AcDbEntity
  8
0
100
AcDbLine
 62
7
  6
CONTINUOUS
 10
13.1648416051
 20
2.4937023146
 11
13.1648416051
 21
2.5135023256
  0
LINE
  5
308
100
AcDbEntity
  8
0
100
AcDbLine
 62
7
  6
CONTINUOUS
 10
13.1648416051
 20
2.5697573568
 11
13.1648416051
 21
2.5895573678
  0
LINE
  5
309
100
AcDbEntity
  8
0
100
AcDbLine
 62
7
  6
CONTINUOUS
 10
13.1937146211
 20
2.5184523283
 11
13.1937146211
 21
2.564807354
  0
LINE
  5
30A
100
AcDbEntity
  8
0
100
AcDbLine
 62
7
  6
CONTINUOUS
 10
13.2557806555
 20
2.564807354
 11
13.2557806555
 21
2.5532573476
  0
LINE
  5
30B
100
AcDbEntity
  8
0
100
AcDbLine
 62
7
  6
CONTINUOUS
 10
13.2557806555
 20
2.5300023347
 11
13.2557806555
 21
2.5184523283
  0
LINE
  5
30C
100
AcDbEntity
  8
0
100
AcDbLine
 62
7
  6
CONTINUOUS
 10
13.2958976778
 20
2.5483073449
 11
13.2958976778
 21
2.5349523375
  0
LINE
  5
30D
100
AcDbEntity
  8
0
100
AcDbLine
 62
7
  6
CONTINUOUS
 10
12.3907841758
 20
2.5410923409
 11
12.3990241804
 21
2.5458683435
  0
LINE
  5
30E
100
AcDbEntity
  8
0
100
AcDbLine
 62
7
  6
CONTINUOUS
 10
13.3247706938
 20
2.5565573495
 11
13.3247706938
 21
2.564807354
  0
LINE
  5
30F
100
AcDbEntity
  8
0
100
AcDbLine
 62
7
  6
CONTINUOUS
 10
13.3257346943
 20
2.5184523283
 11
13.3257346943
 21
2.5267023329
  0
LINE
  5
310
100
AcDbEntity
  8
0
100
AcDbLine
 62
7
  6
CONTINUOUS
 10
13.3715847197
 20
2.5895573678
 11
13.3715847197
 21
2.5565573495
  0
LINE
  5
311
100
AcDbEntity
  8
0
100
AcDbLine
 62
7
  6
CONTINUOUS
 10
13.3730037205
 20
2.5267023329
 11
13.3730037205
 21
2.4937023146
  0
LINE
  5
312
100
AcDbEntity
  8
0
100
AcDbLine
 62
7
  6
CONTINUOUS
 10
13.3969577338
 20
2.4937023146
 11
13.3969577338
 21
2.5135023256
  0
LINE
  5
313
100
AcDbEntity
  8
0
100
AcDbLine
 62
7
  6
CONTINUOUS
 10
13.3969577338
 20
2.5697573568
 11
13.3969577338
 21
2.5895573678
  0
LINE
  5
314
100
AcDbEntity
  8
0
100
AcDbLine
 62
7
  6
CONTINUOUS
 10
13.4246537492
 20
2.5184523283
 11
13.4246537492
 21
2.564807354
  0
LINE
  5
315
100
AcDbEntity
  8
0
100
AcDbLine
 62
7
  6
CONTINUOUS
 10
13.4858697831
 20
2.5281293337
 11
13.4858697831
 21
2.5184303283
  0
LINE
  5
316
100
AcDbEntity
  8
0
100
AcDbLine
 62
7
  6
CONTINUOUS
 10
13.4858697831
 20
2.552082347
 11
13.4858697831
 21
2.564807354
  0
LINE
  5
317
100
AcDbEntity
  8
0
100
AcDbLine
 62
7
  6
CONTINUOUS
 10
13.5154787995
 20
2.5134803256
 11
13.5154787995
 21
2.4937023146
  0
LINE
  5
318
100
AcDbEntity
  8
0
100
AcDbLine
 62
7
  6
CONTINUOUS
 10
13.6146708546
 20
2.525013332
 11
13.6146708546
 21
2.5276393334
  0
LINE
  5
319
100
AcDbEntity
  8
0
100
AcDbLine
 62
7
  6
CONTINUOUS
 10
13.631730864
 20
2.5276393334
 11
13.631730864
 21
2.516087327
  0
LINE
  5
31A
100
AcDbEntity
  8
0
100
AcDbLine
 62
7
  6
CONTINUOUS
 10
13.7286871589
 20
2.5350697372
 11
13.7286871589
 21
2.5456869438
  0
LINE
  5
31B
100
AcDbEntity
  8
0
100
AcDbLine
 62
7
  6
CONTINUOUS
 10
12.5112392426
 20
2.5908833685
 11
12.4644392167
 21
2.5171263276
  0
LINE
  5
31C
100
AcDbEntity
  8
0
100
AcDbLine
 62
7
  6
CONTINUOUS
 10
12.5246402501
 20
2.5655893545
 11
12.5175232461
 21
2.5543723483
  0
LINE
  5
31D
100
AcDbEntity
  8
0
100
AcDbLine
 62
7
  6
CONTINUOUS
 10
12.5034912383
 20
2.5197783291
 11
12.5090072414
 21
2.5284723339
  0
ARC
  5
31E
100
AcDbEntity
  8
0
100
AcDbCircle
 62
7
  6
CONTINUOUS
 10
12.7943847649
 20
2.4937027294
 40
0.0024754162
100
AcDbArc
 50
226.3593695813
 51
270.0146919953
  0
ARC
  5
31F
100
AcDbEntity
  8
0
100
AcDbCircle
 62
7
  6
CONTINUOUS
 10
12.2055050712
 20
2.4937023128
 40
0.0024749995
100
AcDbArc
 50
179.9999571957
 51
270.0000428043
  0
ARC
  5
320
100
AcDbEntity
  8
0
100
AcDbCircle
 62
7
  6
CONTINUOUS
 10
12.8685904427
 20
2.4937023128
 40
0.0024749995
100
AcDbArc
 50
269.9999571957
 51
0.0000428043
  0
ARC
  5
321
100
AcDbEntity
  8
0
100
AcDbCircle
 62
7
  6
CONTINUOUS
 10
12.7480043758
 20
2.4937023128
 40
0.0024749995
100
AcDbArc
 50
269.9999571957
 51
0.0000428043
  0
ARC
  5
322
100
AcDbEntity
  8
0
100
AcDbCircle
 62
7
  6
CONTINUOUS
 10
12.6723403301
 20
2.4937023128
 40
0.0024749995
100
AcDbArc
 50
179.9999571957
 51
270.0000428043
  0
ARC
  5
323
100
AcDbEntity
  8
0
100
AcDbCircle
 62
7
  6
CONTINUOUS
 10
12.5371502552
 20
2.4937023128
 40
0.0024749995
100
AcDbArc
 50
179.9999571957
 51
270.0000428043
  0
ARC
  5
324
100
AcDbEntity
  8
0
100
AcDbCircle
 62
7
  6
CONTINUOUS
 10
12.6424313172
 20
2.4937023128
 40
0.0024749995
100
AcDbArc
 50
269.9999571957
 51
0.0000428043
  0
ARC
  5
325
100
AcDbEntity
  8
0
100
AcDbCircle
 62
7
  6
CONTINUOUS
 10
12.439488201
 20
2.4937023128
 40
0.0024749995
100
AcDbArc
 50
179.9999571957
 51
270.0000428043
  0
ARC
  5
326
100
AcDbEntity
  8
0
100
AcDbCircle
 62
7
  6
CONTINUOUS
 10
12.5168642476
 20
2.4937023128
 40
0.0024749995
100
AcDbArc
 50
269.9999571957
 51
0.0000428043
  0
ARC
  5
327
100
AcDbEntity
  8
0
100
AcDbCircle
 62
7
  6
CONTINUOUS
 10
12.371573659
 20
2.5302846524
 40
0.061747717
100
AcDbArc
 50
59.5385584989
 51
90.0050977555
  0
ARC
  5
328
100
AcDbEntity
  8
0
100
AcDbCircle
 62
7
  6
CONTINUOUS
 10
12.3792298263
 20
2.539634765
 40
0.048483885
100
AcDbArc
 50
273.21763719
 51
303.0749121182
  0
ARC
  5
329
100
AcDbEntity
  8
0
100
AcDbCircle
 62
7
  6
CONTINUOUS
 10
12.3931760319
 20
2.5166878286
 40
0.0222174455
100
AcDbArc
 50
4.0793399388
 51
69.834329283
  0
ARC
  5
32A
100
AcDbEntity
  8
0
100
AcDbCircle
 62
7
  6
CONTINUOUS
 10
12.3940692204
 20
2.5168671561
 40
0.0213072145
100
AcDbArc
 50
303.0488228549
 51
355.7263138674
  0
ARC
  5
32B
100
AcDbEntity
  8
0
100
AcDbCircle
 62
7
  6
CONTINUOUS
 10
12.400005721
 20
2.5168763464
 40
0.0153945295
100
AcDbArc
 50
354.0454548824
 51
5.1878013979
  0
ARC
  5
32C
100
AcDbEntity
  8
0
100
AcDbCircle
 62
7
  6
CONTINUOUS
 10
12.3362731456
 20
2.5246398318
 40
0.0086625048
100
AcDbArc
 50
270.0
 51
90.0
  0
ARC
  5
32D
100
AcDbEntity
  8
0
100
AcDbCircle
 62
7
  6
CONTINUOUS
 10
12.5459747223
 20
2.5271458744
 40
0.0024754602
100
AcDbArc
 50
32.8959418573
 51
89.9875097202
  0
ARC
  5
32E
100
AcDbEntity
  8
0
100
AcDbCircle
 62
7
  6
CONTINUOUS
 10
12.4623492858
 20
2.5184525273
 40
0.0024752003
100
AcDbArc
 50
269.9983726451
 51
327.602165307
  0
ARC
  5
32F
100
AcDbEntity
  8
0
100
AcDbCircle
 62
7
  6
CONTINUOUS
 10
12.5110971723
 20
2.5271461342
 40
0.0024752003
100
AcDbArc
 50
89.998372645
 51
147.602165307
  0
ARC
  5
330
100
AcDbEntity
  8
0
100
AcDbCircle
 62
7
  6
CONTINUOUS
 10
12.5055811302
 20
2.518452367
 40
0.0024750401
100
AcDbArc
 50
147.6063258011
 51
270.0025305754
  0
ARC
  5
331
100
AcDbEntity
  8
0
100
AcDbCircle
 62
7
  6
CONTINUOUS
 10
12.2294470882
 20
2.5184523265
 40
0.0024749995
100
AcDbArc
 50
269.9999571957
 51
0.0000428043
  0
ARC
  5
332
100
AcDbEntity
  8
0
100
AcDbCircle
 62
7
  6
CONTINUOUS
 10
12.2055050712
 20
2.5135023274
 40
0.0024749995
100
AcDbArc
 50
89.9999571957
 51
180.0000428043
  0
ARC
  5
333
100
AcDbEntity
  8
0
100
AcDbCircle
 62
7
  6
CONTINUOUS
 10
12.2949101208
 20
2.530827337
 40
0.0024749995
100
AcDbArc
 50
89.9999571957
 51
180.0000428043
  0
ARC
  5
334
100
AcDbEntity
  8
0
100
AcDbCircle
 62
7
  6
CONTINUOUS
 10
12.2949101208
 20
2.5184523265
 40
0.0024749995
100
AcDbArc
 50
179.9999571957
 51
270.0000428043
  0
ARC
  5
335
100
AcDbEntity
  8
0
100
AcDbCircle
 62
7
  6
CONTINUOUS
 10
12.5371502552
 20
2.5135023274
 40
0.0024749995
100
AcDbArc
 50
89.9999571957
 51
180.0000428043
  0
ARC
  5
336
100
AcDbEntity
  8
0
100
AcDbCircle
 62
7
  6
CONTINUOUS
 10
12.439488201
 20
2.5135023274
 40
0.0024749995
100
AcDbArc
 50
89.9999571957
 51
180.0000428043
  0
ARC
  5
337
100
AcDbEntity
  8
0
100
AcDbCircle
 62
7
  6
CONTINUOUS
 10
12.5168642476
 20
2.5135023274
 40
0.0024749995
100
AcDbArc
 50
359.9999571957
 51
90.0000428043
  0
ARC
  5
338
100
AcDbEntity
  8
0
100
AcDbCircle
 62
7
  6
CONTINUOUS
 10
12.3771587979
 20
2.5826952352
 40
0.0428289026
100
AcDbArc
 50
300.6990502959
 51
319.0591802498
  0
ARC
  5
339
100
AcDbEntity
  8
0
100
AcDbCircle
 62
7
  6
CONTINUOUS
 10
12.3922357827
 20
2.5632132173
 40
0.0229166529
100
AcDbArc
 50
20.6563876465
 51
62.3316896973
  0
ARC
  5
33A
100
AcDbEntity
  8
0
100
AcDbCircle
 62
7
  6
CONTINUOUS
 10
12.3971873948
 20
2.5665668817
 40
0.0171568255
100
AcDbArc
 50
315.9145124245
 51
16.0049121282
  0
ARC
  5
33B
100
AcDbEntity
  8
0
100
AcDbCircle
 62
7
  6
CONTINUOUS
 10
12.3362731456
 20
2.5586198506
 40
0.0086625048
100
AcDbArc
 50
270.0
 51
90.0
  0
ARC
  5
33C
100
AcDbEntity
  8
0
100
AcDbCircle
 62
7
  6
CONTINUOUS
 10
12.532910715
 20
2.564262895
 40
0.0024754602
100
AcDbArc
 50
32.8959418573
 51
89.9875097202
  0
ARC
  5
33D
100
AcDbEntity
  8
0
100
AcDbCircle
 62
7
  6
CONTINUOUS
 10
12.5401702375
 20
2.5530465533
 40
0.0024752071
100
AcDbArc
 50
270.0004896793
 51
32.9089806818
  0
ARC
  5
33E
100
AcDbEntity
  8
0
100
AcDbCircle
 62
7
  6
CONTINUOUS
 10
12.5267301809
 20
2.5642631548
 40
0.0024752003
100
AcDbArc
 50
89.998372645
 51
147.602165307
  0
ARC
  5
33F
100
AcDbEntity
  8
0
100
AcDbCircle
 62
7
  6
CONTINUOUS
 10
12.5133291735
 20
2.5895571688
 40
0.0024752003
100
AcDbArc
 50
89.9983726451
 51
147.602165307
  0
ARC
  5
340
100
AcDbEntity
  8
0
100
AcDbCircle
 62
7
  6
CONTINUOUS
 10
12.519613138
 20
2.5530463862
 40
0.0024750401
100
AcDbArc
 50
147.6063258012
 51
270.0025305754
  0
ARC
  5
341
100
AcDbEntity
  8
0
100
AcDbCircle
 62
7
  6
CONTINUOUS
 10
12.2055050712
 20
2.5895573696
 40
0.0024749995
100
AcDbArc
 50
89.9999571957
 51
180.0000428043
  0
ARC
  5
342
100
AcDbEntity
  8
0
100
AcDbCircle
 62
7
  6
CONTINUOUS
 10
12.2055050712
 20
2.5697573549
 40
0.0024749995
100
AcDbArc
 50
179.9999571957
 51
270.0000428043
  0
ARC
  5
343
100
AcDbEntity
  8
0
100
AcDbCircle
 62
7
  6
CONTINUOUS
 10
12.2294470882
 20
2.5648073559
 40
0.0024749995
100
AcDbArc
 50
359.9999571957
 51
90.0000428043
  0
ARC
  5
344
100
AcDbEntity
  8
0
100
AcDbCircle
 62
7
  6
CONTINUOUS
 10
12.2949101208
 20
2.5648073559
 40
0.0024749995
100
AcDbArc
 50
89.9999571957
 51
180.0000428043
  0
ARC
  5
345
100
AcDbEntity
  8
0
100
AcDbCircle
 62
7
  6
CONTINUOUS
 10
12.2949101208
 20
2.5524323453
 40
0.0024749995
100
AcDbArc
 50
179.9999571957
 51
270.0000428043
  0
ARC
  5
346
100
AcDbEntity
  8
0
100
AcDbCircle
 62
7
  6
CONTINUOUS
 10
12.8362481229
 20
2.5358592748
 40
0.0024753014
100
AcDbArc
 50
226.3461263059
 51
0.0014637321
  0
ARC
  5
347
100
AcDbEntity
  8
0
100
AcDbCircle
 62
7
  6
CONTINUOUS
 10
12.7276876627
 20
2.5504984093
 40
0.0024753014
100
AcDbArc
 50
46.3461263059
 51
180.0014637321
  0
ARC
  5
348
100
AcDbEntity
  8
0
100
AcDbCircle
 62
7
  6
CONTINUOUS
 10
12.5516012439
 20
2.5184525341
 40
0.0024752071
100
AcDbArc
 50
270.0004896794
 51
32.9089806818
  0
ARC
  5
349
100
AcDbEntity
  8
0
100
AcDbCircle
 62
7
  6
CONTINUOUS
 10
12.7276873608
 20
2.5184523265
 40
0.0024749995
100
AcDbArc
 50
179.9999571957
 51
270.0000428043
  0
ARC
  5
34A
100
AcDbEntity
  8
0
100
AcDbCircle
 62
7
  6
CONTINUOUS
 10
12.7480043758
 20
2.5135023274
 40
0.0024749995
100
AcDbArc
 50
359.9999571957
 51
90.0000428043
  0
ARC
  5
34B
100
AcDbEntity
  8
0
100
AcDbCircle
 62
7
  6
CONTINUOUS
 10
12.6723403301
 20
2.5135023274
 40
0.0024749995
100
AcDbArc
 50
89.9999571957
 51
180.0000428043
  0
ARC
  5
34C
100
AcDbEntity
  8
0
100
AcDbCircle
 62
7
  6
CONTINUOUS
 10
12.6909873442
 20
2.5184523265
 40
0.0024749995
100
AcDbArc
 50
269.9999571957
 51
0.0000428043
  0
ARC
  5
34D
100
AcDbEntity
  8
0
100
AcDbCircle
 62
7
  6
CONTINUOUS
 10
12.6424313172
 20
2.5135023274
 40
0.0024749995
100
AcDbArc
 50
359.9999571957
 51
90.0000428043
  0
ARC
  5
34E
100
AcDbEntity
  8
0
100
AcDbCircle
 62
7
  6
CONTINUOUS
 10
12.6224154248
 20
2.518451368
 40
0.002474041
100
AcDbArc
 50
212.9056413127
 51
269.9972091756
  0
ARC
  5
34F
100
AcDbEntity
  8
0
100
AcDbCircle
 62
7
  6
CONTINUOUS
 10
12.8362484247
 20
2.5648073559
 40
0.0024749995
100
AcDbArc
 50
359.9999571957
 51
90.0000428043
  0
ARC
  5
350
100
AcDbEntity
  8
0
100
AcDbCircle
 62
7
  6
CONTINUOUS
 10
12.8174724106
 20
2.5697573549
 40
0.0024749995
100
AcDbArc
 50
179.9999571957
 51
270.0000428043
  0
ARC
  5
351
100
AcDbEntity
  8
0
100
AcDbCircle
 62
7
  6
CONTINUOUS
 10
12.8174724106
 20
2.5895573696
 40
0.0024749995
100
AcDbArc
 50
89.9999571957
 51
180.0000428043
  0
ARC
  5
352
100
AcDbEntity
  8
0
100
AcDbCircle
 62
7
  6
CONTINUOUS
 10
12.8914734553
 20
2.5895573696
 40
0.0024749995
100
AcDbArc
 50
359.9999571957
 51
90.0000428043
  0
ARC
  5
353
100
AcDbEntity
  8
0
100
AcDbCircle
 62
7
  6
CONTINUOUS
 10
12.8914734553
 20
2.5697573549
 40
0.0024749995
100
AcDbArc
 50
269.9999571957
 51
0.0000428043
  0
ARC
  5
354
100
AcDbEntity
  8
0
100
AcDbCircle
 62
7
  6
CONTINUOUS
 10
12.8735404417
 20
2.5648073559
 40
0.0024749995
100
AcDbArc
 50
89.9999571957
 51
180.0000428043
  0
ARC
  5
355
100
AcDbEntity
  8
0
100
AcDbCircle
 62
7
  6
CONTINUOUS
 10
12.6909873442
 20
2.5648073559
 40
0.0024749995
100
AcDbArc
 50
359.9999571957
 51
90.0000428043
  0
ARC
  5
356
100
AcDbEntity
  8
0
100
AcDbCircle
 62
7
  6
CONTINUOUS
 10
12.6723403301
 20
2.5697573549
 40
0.0024749995
100
AcDbArc
 50
179.9999571957
 51
270.0000428043
  0
ARC
  5
357
100
AcDbEntity
  8
0
100
AcDbCircle
 62
7
  6
CONTINUOUS
 10
12.6723403301
 20
2.5895573696
 40
0.0024749995
100
AcDbArc
 50
89.9999571957
 51
180.0000428043
  0
ARC
  5
358
100
AcDbEntity
  8
0
100
AcDbCircle
 62
7
  6
CONTINUOUS
 10
12.570504655
 20
2.589557409
 40
0.0024749602
100
AcDbArc
 50
32.9172174468
 51
90.0087853097
  0
ARC
  5
359
100
AcDbEntity
  8
0
100
AcDbCircle
 62
7
  6
CONTINUOUS
 10
12.7727985224
 20
2.5895582013
 40
0.0024741678
100
AcDbArc
 50
46.3477981899
 51
90.0031206038
  0
ARC
  5
35A
100
AcDbEntity
  8
0
100
AcDbCircle
 62
7
  6
CONTINUOUS
 10
13.5463505148
 20
2.4094934586
 40
0.1825583387
100
AcDbArc
 50
79.8618509324
 51
89.1640948679
  0
ARC
  5
35B
100
AcDbEntity
  8
0
100
AcDbCircle
 62
7
  6
CONTINUOUS
 10
13.5282557878
 20
2.4386010294
 40
0.117346916
100
AcDbArc
 50
58.614769177
 51
62.3737227606
  0
ARC
  5
35C
100
AcDbEntity
  8
0
100
AcDbCircle
 62
7
  6
CONTINUOUS
 10
13.5571178432
 20
2.509473798
 40
0.0459185159
100
AcDbArc
 50
15.6740290068
 51
20.9917271228
  0
ARC
  5
35D
100
AcDbEntity
  8
0
100
AcDbCircle
 62
7
  6
CONTINUOUS
 10
13.4974076135
 20
2.5055452462
 40
0.0396099176
100
AcDbArc
 50
14.3201081283
 51
22.4984722084
  0
ARC
  5
35E
100
AcDbEntity
  8
0
100
AcDbCircle
 62
7
  6
CONTINUOUS
 10
13.5161192671
 20
2.5062372524
 40
0.0243676582
100
AcDbArc
 50
63.3666028271
 51
90.3937697637
  0
ARC
  5
35F
100
AcDbEntity
  8
0
100
AcDbCircle
 62
7
  6
CONTINUOUS
 10
13.6036139387
 20
2.5111006186
 40
0.0198837666
100
AcDbArc
 50
271.8586572978
 51
289.4131338543
  0
ARC
  5
360
100
AcDbEntity
  8
0
100
AcDbCircle
 62
7
  6
CONTINUOUS
 10
13.5577001432
 20
2.5085494649
 40
0.0173408616
100
AcDbArc
 50
232.4713476722
 51
267.338189944
  0
ARC
  5
361
100
AcDbEntity
  8
0
100
AcDbCircle
 62
7
  6
CONTINUOUS
 10
13.5130038
 20
2.4937023128
 40
0.0024749995
100
AcDbArc
 50
269.9999571957
 51
0.0000428043
  0
ARC
  5
362
100
AcDbEntity
  8
0
100
AcDbCircle
 62
7
  6
CONTINUOUS
 10
13.3994327333
 20
2.4937023128
 40
0.0024749995
100
AcDbArc
 50
179.9999571957
 51
270.0000428043
  0
ARC
  5
363
100
AcDbEntity
  8
0
100
AcDbCircle
 62
7
  6
CONTINUOUS
 10
13.1168435803
 20
2.4937023128
 40
0.0024749995
100
AcDbArc
 50
269.9999571957
 51
0.0000428043
  0
ARC
  5
364
100
AcDbEntity
  8
0
100
AcDbCircle
 62
7
  6
CONTINUOUS
 10
12.9962575135
 20
2.4937023128
 40
0.0024749995
100
AcDbArc
 50
269.9999571957
 51
0.0000428043
  0
ARC
  5
365
100
AcDbEntity
  8
0
100
AcDbCircle
 62
7
  6
CONTINUOUS
 10
12.9205934678
 20
2.4937023128
 40
0.0024749995
100
AcDbArc
 50
179.9999571957
 51
270.0000428043
  0
ARC
  5
366
100
AcDbEntity
  8
0
100
AcDbCircle
 62
7
  6
CONTINUOUS
 10
13.370528721
 20
2.4937023128
 40
0.0024749995
100
AcDbArc
 50
269.9999571957
 51
0.0000428043
  0
ARC
  5
367
100
AcDbEntity
  8
0
100
AcDbCircle
 62
7
  6
CONTINUOUS
 10
13.1673166046
 20
2.4937023128
 40
0.0024749995
100
AcDbArc
 50
179.9999571957
 51
270.0000428043
  0
ARC
  5
368
100
AcDbEntity
  8
0
100
AcDbCircle
 62
7
  6
CONTINUOUS
 10
13.0426374026
 20
2.493701481
 40
0.0024741678
100
AcDbArc
 50
226.3477981898
 51
270.0031206038
  0
ARC
  5
369
100
AcDbEntity
  8
0
100
AcDbCircle
 62
7
  6
CONTINUOUS
 10
13.0845012605
 20
2.5358592748
 40
0.0024753014
100
AcDbArc
 50
226.3461263059
 51
0.0014637321
  0
ARC
  5
36A
100
AcDbEntity
  8
0
100
AcDbCircle
 62
7
  6
CONTINUOUS
 10
12.9759408003
 20
2.5504984093
 40
0.0024753014
100
AcDbArc
 50
46.3461263059
 51
180.0014637321
  0
ARC
  5
36B
100
AcDbEntity
  8
0
100
AcDbCircle
 62
7
  6
CONTINUOUS
 10
12.9759404985
 20
2.5184523265
 40
0.0024749995
100
AcDbArc
 50
179.9999571957
 51
270.0000428043
  0
ARC
  5
36C
100
AcDbEntity
  8
0
100
AcDbCircle
 62
7
  6
CONTINUOUS
 10
12.9962575135
 20
2.5135023274
 40
0.0024749995
100
AcDbArc
 50
359.9999571957
 51
90.0000428043
  0
ARC
  5
36D
100
AcDbEntity
  8
0
100
AcDbCircle
 62
7
  6
CONTINUOUS
 10
12.9205934678
 20
2.5135023274
 40
0.0024749995
100
AcDbArc
 50
89.9999571957
 51
180.0000428042
  0
ARC
  5
36E
100
AcDbEntity
  8
0
100
AcDbCircle
 62
7
  6
CONTINUOUS
 10
12.9392394818
 20
2.5184523265
 40
0.0024749995
100
AcDbArc
 50
269.9999571957
 51
0.0000428043
  0
ARC
  5
36F
100
AcDbEntity
  8
0
100
AcDbCircle
 62
7
  6
CONTINUOUS
 10
13.2582556551
 20
2.5300023366
 40
0.0024749995
100
AcDbArc
 50
89.9999571957
 51
180.0000428043
  0
ARC
  5
370
100
AcDbEntity
  8
0
100
AcDbCircle
 62
7
  6
CONTINUOUS
 10
13.2582556551
 20
2.5184523265
 40
0.0024749995
100
AcDbArc
 50
179.9999571957
 51
270.0000428043
  0
ARC
  5
371
100
AcDbEntity
  8
0
100
AcDbCircle
 62
7
  6
CONTINUOUS
 10
13.1673166046
 20
2.5135023274
 40
0.0024749995
100
AcDbArc
 50
89.9999571957
 51
180.0000428043
  0
ARC
  5
372
100
AcDbEntity
  8
0
100
AcDbCircle
 62
7
  6
CONTINUOUS
 10
13.1912396216
 20
2.5184523265
 40
0.0024749995
100
AcDbArc
 50
269.9999571957
 51
0.0000428042
  0
ARC
  5
373
100
AcDbEntity
  8
0
100
AcDbCircle
 62
7
  6
CONTINUOUS
 10
13.2582556551
 20
2.5532573458
 40
0.0024749995
100
AcDbArc
 50
179.9999571957
 51
270.0000428043
  0
ARC
  5
374
100
AcDbEntity
  8
0
100
AcDbCircle
 62
7
  6
CONTINUOUS
 10
13.0845015624
 20
2.5648073559
 40
0.0024749995
100
AcDbArc
 50
359.9999571957
 51
90.0000428043
  0
ARC
  5
375
100
AcDbEntity
  8
0
100
AcDbCircle
 62
7
  6
CONTINUOUS
 10
13.0657255483
 20
2.5697573549
 40
0.0024749995
100
AcDbArc
 50
179.9999571957
 51
270.0000428043
  0
ARC
  5
376
100
AcDbEntity
  8
0
100
AcDbCircle
 62
7
  6
CONTINUOUS
 10
13.0657255483
 20
2.5895573696
 40
0.0024749995
100
AcDbArc
 50
89.9999571957
 51
180.0000428043
  0
ARC
  5
377
100
AcDbEntity
  8
0
100
AcDbCircle
 62
7
  6
CONTINUOUS
 10
13.139726593
 20
2.5895573696
 40
0.0024749995
100
AcDbArc
 50
359.9999571957
 51
90.0000428043
  0
ARC
  5
378
100
AcDbEntity
  8
0
100
AcDbCircle
 62
7
  6
CONTINUOUS
 10
13.139726593
 20
2.5697573549
 40
0.0024749995
100
AcDbArc
 50
269.9999571957
 51
0.0000428042
  0
ARC
  5
379
100
AcDbEntity
  8
0
100
AcDbCircle
 62
7
  6
CONTINUOUS
 10
13.1217935794
 20
2.5648073559
 40
0.0024749995
100
AcDbArc
 50
89.9999571957
 51
180.0000428042
  0
ARC
  5
37A
100
AcDbEntity
  8
0
100
AcDbCircle
 62
7
  6
CONTINUOUS
 10
12.9392394818
 20
2.5648073559
 40
0.0024749995
100
AcDbArc
 50
359.9999571957
 51
90.0000428043
  0
ARC
  5
37B
100
AcDbEntity
  8
0
100
AcDbCircle
 62
7
  6
CONTINUOUS
 10
12.9205934678
 20
2.5697573549
 40
0.0024749995
100
AcDbArc
 50
179.9999571957
 51
270.0000428043
  0
ARC
  5
37C
100
AcDbEntity
  8
0
100
AcDbCircle
 62
7
  6
CONTINUOUS
 10
12.9205934678
 20
2.5895573696
 40
0.0024749995
100
AcDbArc
 50
89.9999571957
 51
180.0000428042
  0
ARC
  5
37D
100
AcDbEntity
  8
0
100
AcDbCircle
 62
7
  6
CONTINUOUS
 10
13.1912396216
 20
2.5648073559
 40
0.0024749995
100
AcDbArc
 50
359.9999571957
 51
90.0000428043
  0
ARC
  5
37E
100
AcDbEntity
  8
0
100
AcDbCircle
 62
7
  6
CONTINUOUS
 10
13.1673166046
 20
2.5697573549
 40
0.0024749995
100
AcDbArc
 50
179.9999571957
 51
270.0000428043
  0
ARC
  5
37F
100
AcDbEntity
  8
0
100
AcDbCircle
 62
7
  6
CONTINUOUS
 10
13.1673166046
 20
2.5895573696
 40
0.0024749995
100
AcDbArc
 50
89.9999571957
 51
180.0000428043
  0
ARC
  5
380
100
AcDbEntity
  8
0
100
AcDbCircle
 62
7
  6
CONTINUOUS
 10
13.2582556551
 20
2.5648073559
 40
0.0024749995
100
AcDbArc
 50
89.9999571957
 51
180.0000428043
  0
ARC
  5
381
100
AcDbEntity
  8
0
100
AcDbCircle
 62
7
  6
CONTINUOUS
 10
13.0210516601
 20
2.5895582013
 40
0.0024741678
100
AcDbArc
 50
46.3477981899
 51
90.0031206038
  0
ARC
  5
382
100
AcDbEntity
  8
0
100
AcDbCircle
 62
7
  6
CONTINUOUS
 10
13.5806801742
 20
2.5212486481
 40
0.044722495
100
AcDbArc
 50
195.531588407
 51
204.7624440448
  0
ARC
  5
383
100
AcDbEntity
  8
0
100
AcDbCircle
 62
7
  6
CONTINUOUS
 10
13.5726548052
 20
2.5503169747
 40
0.039319019
100
AcDbArc
 50
59.1202086415
 51
81.4730239328
  0
ARC
  5
384
100
AcDbEntity
  8
0
100
AcDbCircle
 62
7
  6
CONTINUOUS
 10
13.5978759713
 20
2.5286873679
 40
0.0383802683
100
AcDbArc
 50
288.7656836787
 51
309.6104317088
  0
ARC
  5
385
100
AcDbEntity
  8
0
100
AcDbCircle
 62
7
  6
CONTINUOUS
 10
13.5783142014
 20
2.5566516438
 40
0.0310192946
100
AcDbArc
 50
34.7540871
 51
62.0879016178
  0
ARC
  5
386
100
AcDbEntity
  8
0
100
AcDbCircle
 62
7
  6
CONTINUOUS
 10
13.5236009174
 20
2.5388278764
 40
0.0284963867
100
AcDbArc
 50
70.3834917948
 51
86.8922743861
  0
ARC
  5
387
100
AcDbEntity
  8
0
100
AcDbCircle
 62
7
  6
CONTINUOUS
 10
13.6048681567
 20
2.5210861501
 40
0.0280715479
100
AcDbArc
 50
308.5071794988
 51
332.24006569
  0
ARC
  5
388
100
AcDbEntity
  8
0
100
AcDbCircle
 62
7
  6
CONTINUOUS
 10
13.5750183849
 20
2.5166552064
 40
0.0266349791
100
AcDbArc
 50
20.3630922153
 51
37.9727053099
  0
ARC
  5
389
100
AcDbEntity
  8
0
100
AcDbCircle
 62
7
  6
CONTINUOUS
 10
13.5761387404
 20
2.5167282896
 40
0.0257145923
100
AcDbArc
 50
39.3804255939
 51
59.0361096173
  0
ARC
  5
38A
100
AcDbEntity
  8
0
100
AcDbCircle
 62
7
  6
CONTINUOUS
 10
13.5607987082
 20
2.5143997688
 40
0.0238935861
100
AcDbArc
 50
209.8247607259
 51
235.1255079367
  0
ARC
  5
38B
100
AcDbEntity
  8
0
100
AcDbCircle
 62
7
  6
CONTINUOUS
 10
13.6141751675
 20
2.5161916447
 40
0.0175560065
100
AcDbArc
 50
332.2279060967
 51
359.6595469939
  0
ARC
  5
38C
100
AcDbEntity
  8
0
100
AcDbCircle
 62
7
  6
CONTINUOUS
 10
13.5201739219
 20
2.5145168728
 40
0.0151491919
100
AcDbArc
 50
24.098260853
 51
63.0369451818
  0
ARC
  5
38D
100
AcDbEntity
  8
0
100
AcDbCircle
 62
7
  6
CONTINUOUS
 10
13.6156881783
 20
2.525116781
 40
0.0147197649
100
AcDbArc
 50
192.7054516565
 51
206.0594861022
  0
ARC
  5
38E
100
AcDbEntity
  8
0
100
AcDbCircle
 62
7
  6
CONTINUOUS
 10
13.5284605274
 20
2.5518696094
 40
0.0145814632
100
AcDbArc
 50
54.6746025112
 51
71.1660573124
  0
ARC
  5
38F
100
AcDbEntity
  8
0
100
AcDbCircle
 62
7
  6
CONTINUOUS
 10
13.6063292954
 20
2.5296129864
 40
0.0132488022
100
AcDbArc
 50
270.266200055
 51
281.2404888597
  0
ARC
  5
390
100
AcDbEntity
  8
0
100
AcDbCircle
 62
7
  6
CONTINUOUS
 10
13.6027235414
 20
2.524769508
 40
0.0119498009
100
AcDbArc
 50
340.7883861657
 51
1.1691452593
  0
ARC
  5
391
100
AcDbEntity
  8
0
100
AcDbCircle
 62
7
  6
CONTINUOUS
 10
13.5295131508
 20
2.5629115009
 40
0.0110815393
100
AcDbArc
 50
306.758405961
 51
320.4502234234
  0
ARC
  5
392
100
AcDbEntity
  8
0
100
AcDbCircle
 62
7
  6
CONTINUOUS
 10
13.6075235364
 20
2.5238762928
 40
0.0073895522
100
AcDbArc
 50
280.8288201977
 51
305.0837508495
  0
ARC
  5
393
100
AcDbEntity
  8
0
100
AcDbCircle
 62
7
  6
CONTINUOUS
 10
13.607924718
 20
2.5230254464
 40
0.0064647042
100
AcDbArc
 50
306.5086174083
 51
340.2162360092
  0
ARC
  5
394
100
AcDbEntity
  8
0
100
AcDbCircle
 62
7
  6
CONTINUOUS
 10
13.5335900184
 20
2.5587235346
 40
0.0060275915
100
AcDbArc
 50
20.9055592135
 51
56.7851676243
  0
ARC
  5
395
100
AcDbEntity
  8
0
100
AcDbCircle
 62
7
  6
CONTINUOUS
 10
13.533683767
 20
2.559677593
 40
0.0058087709
100
AcDbArc
 50
318.8515287446
 51
353.6422345323
  0
ARC
  5
396
100
AcDbEntity
  8
0
100
AcDbCircle
 62
7
  6
CONTINUOUS
 10
13.6071938412
 20
2.5209082945
 40
0.0052403997
100
AcDbArc
 50
205.5232099488
 51
227.5054868079
  0
ARC
  5
397
100
AcDbEntity
  8
0
100
AcDbCircle
 62
7
  6
CONTINUOUS
 10
13.5348905773
 20
2.5593838168
 40
0.0045795888
100
AcDbArc
 50
355.6235353944
 51
18.9942678268
  0
ARC
  5
398
100
AcDbEntity
  8
0
100
AcDbCircle
 62
7
  6
CONTINUOUS
 10
13.6054655419
 20
2.5190929218
 40
0.0027347709
100
AcDbArc
 50
228.5117626737
 51
266.1485845754
  0
ARC
  5
399
100
AcDbEntity
  8
0
100
AcDbCircle
 62
7
  6
CONTINUOUS
 10
13.4883447827
 20
2.5281293355
 40
0.0024749995
100
AcDbArc
 50
89.9999571957
 51
180.0000428043
  0
ARC
  5
39A
100
AcDbEntity
  8
0
100
AcDbCircle
 62
7
  6
CONTINUOUS
 10
13.4883447827
 20
2.5184303265
 40
0.0024749995
100
AcDbArc
 50
179.9999571957
 51
270.0000428043
  0
ARC
  5
39B
100
AcDbEntity
  8
0
100
AcDbCircle
 62
7
  6
CONTINUOUS
 10
13.5130038
 20
2.5134803274
 40
0.0024749995
100
AcDbArc
 50
359.9999571957
 51
90.0000428043
  0
ARC
  5
39C
100
AcDbEntity
  8
0
100
AcDbCircle
 62
7
  6
CONTINUOUS
 10
13.3994327333
 20
2.5135023274
 40
0.0024749995
100
AcDbArc
 50
89.9999571957
 51
180.0000428043
  0
ARC
  5
39D
100
AcDbEntity
  8
0
100
AcDbCircle
 62
7
  6
CONTINUOUS
 10
13.4221787497
 20
2.5184523265
 40
0.0024749995
100
AcDbArc
 50
269.9999571957
 51
0.0000428042
  0
ARC
  5
39E
100
AcDbEntity
  8
0
100
AcDbCircle
 62
7
  6
CONTINUOUS
 10
13.6171458541
 20
2.5276393353
 40
0.0024749995
100
AcDbArc
 50
89.9999571957
 51
180.0000428043
  0
ARC
  5
39F
100
AcDbEntity
  8
0
100
AcDbCircle
 62
7
  6
CONTINUOUS
 10
13.6292558645
 20
2.5276393353
 40
0.0024749995
100
AcDbArc
 50
359.9999571957
 51
90.0000428043
  0
ARC
  5
3A0
100
AcDbEntity
  8
0
100
AcDbCircle
 62
7
  6
CONTINUOUS
 10
13.4883447827
 20
2.5520823451
 40
0.0024749995
100
AcDbArc
 50
179.9999571957
 51
270.0000428043
  0
ARC
  5
3A1
100
AcDbEntity
  8
0
100
AcDbCircle
 62
7
  6
CONTINUOUS
 10
13.3232596948
 20
2.5184523265
 40
0.0024749995
100
AcDbArc
 50
269.9999571957
 51
0.0000428043
  0
ARC
  5
3A2
100
AcDbEntity
  8
0
100
AcDbCircle
 62
7
  6
CONTINUOUS
 10
13.3282096938
 20
2.5267023348
 40
0.0024749995
100
AcDbArc
 50
89.9999571957
 51
180.0000428043
  0
ARC
  5
3A3
100
AcDbEntity
  8
0
100
AcDbCircle
 62
7
  6
CONTINUOUS
 10
13.370528721
 20
2.5267023348
 40
0.0024749995
100
AcDbArc
 50
359.9999571957
 51
90.0000428043
  0
ARC
  5
3A4
100
AcDbEntity
  8
0
100
AcDbCircle
 62
7
  6
CONTINUOUS
 10
13.3691097202
 20
2.5565573476
 40
0.0024749995
100
AcDbArc
 50
269.9999571957
 51
0.0000428042
  0
ARC
  5
3A5
100
AcDbEntity
  8
0
100
AcDbCircle
 62
7
  6
CONTINUOUS
 10
13.3272456933
 20
2.5565573476
 40
0.0024749995
100
AcDbArc
 50
179.9999571957
 51
270.0000428043
  0
ARC
  5
3A6
100
AcDbEntity
  8
0
100
AcDbCircle
 62
7
  6
CONTINUOUS
 10
13.2934226783
 20
2.5483073467
 40
0.0024749995
100
AcDbArc
 50
359.9999571957
 51
90.0000428043
  0
ARC
  5
3A7
100
AcDbEntity
  8
0
100
AcDbCircle
 62
7
  6
CONTINUOUS
 10
13.2934226783
 20
2.5349523356
 40
0.0024749995
100
AcDbArc
 50
269.9999571957
 51
0.0000428042
  0
ARC
  5
3A8
100
AcDbEntity
  8
0
100
AcDbCircle
 62
7
  6
CONTINUOUS
 10
13.5519569538
 20
2.6152551345
 40
0.0789082104
100
AcDbArc
 50
292.906155071
 51
305.2574666259
  0
ARC
  5
3A9
100
AcDbEntity
  8
0
100
AcDbCircle
 62
7
  6
CONTINUOUS
 10
13.5822888914
 20
2.5720482849
 40
0.0261183659
100
AcDbArc
 50
305.6373831893
 51
329.9727629745
  0
ARC
  5
3AA
100
AcDbEntity
  8
0
100
AcDbCircle
 62
7
  6
CONTINUOUS
 10
13.5219564542
 20
2.5750459767
 40
0.0254407115
100
AcDbArc
 50
270.7327484175
 51
290.441894219
  0
ARC
  5
3AB
100
AcDbEntity
  8
0
100
AcDbCircle
 62
7
  6
CONTINUOUS
 10
13.5238839599
 20
2.5706523294
 40
0.0206523367
100
AcDbArc
 50
289.6883413472
 51
306.4184925496
  0
ARC
  5
3AC
100
AcDbEntity
  8
0
100
AcDbCircle
 62
7
  6
CONTINUOUS
 10
13.5900029525
 20
2.565201245
 40
0.0165459396
100
AcDbArc
 50
1.548452892
 51
33.5033152417
  0
ARC
  5
3AD
100
AcDbEntity
  8
0
100
AcDbCircle
 62
7
  6
CONTINUOUS
 10
13.5932995477
 20
2.5653696972
 40
0.0132462337
100
AcDbArc
 50
331.1510006998
 51
1.205404301
  0
ARC
  5
3AE
100
AcDbEntity
  8
0
100
AcDbCircle
 62
7
  6
CONTINUOUS
 10
13.4221787497
 20
2.5648073559
 40
0.0024749995
100
AcDbArc
 50
359.9999571957
 51
90.0000428043
  0
ARC
  5
3AF
100
AcDbEntity
  8
0
100
AcDbCircle
 62
7
  6
CONTINUOUS
 10
13.3994327333
 20
2.5697573549
 40
0.0024749995
100
AcDbArc
 50
179.9999571957
 51
270.0000428043
  0
ARC
  5
3B0
100
AcDbEntity
  8
0
100
AcDbCircle
 62
7
  6
CONTINUOUS
 10
13.3994327333
 20
2.5895573696
 40
0.0024749995
100
AcDbArc
 50
89.9999571957
 51
180.0000428043
  0
ARC
  5
3B1
100
AcDbEntity
  8
0
100
AcDbCircle
 62
7
  6
CONTINUOUS
 10
13.4883447827
 20
2.5648073559
 40
0.0024749995
100
AcDbArc
 50
89.9999571957
 51
180.0000428043
  0
ARC
  5
3B2
100
AcDbEntity
  8
0
100
AcDbCircle
 62
7
  6
CONTINUOUS
 10
13.3691097202
 20
2.5895573696
 40
0.0024749995
100
AcDbArc
 50
359.9999571957
 51
90.0000428043
  0
ARC
  5
3B3
100
AcDbEntity
  8
0
100
AcDbCircle
 62
7
  6
CONTINUOUS
 10
13.3222956943
 20
2.5648073559
 40
0.0024749995
100
AcDbArc
 50
359.9999571957
 51
90.0000428043
  0
ELLIPSE
  5
3B4
100
AcDbEntity
  8
0
100
AcDbEllipse
 62
7
  6
CONTINUOUS
 10
12.9046654608
 20
2.5403783405
 30
0.0
 11
-0.8250004575
 21
0.0
 31
0.0
 40
0.218572
 41
0.0
 42
6.2831853072
  0
HATCH
  5
3B5
100
AcDbEntity
  8
0
100
AcDbHatch
 62
7
  6
CONTINUOUS
 10
0.0
 20
0.0
 30
0.0
210
0.0
220
0.0
230
1.0
  2
XSEC0001
 70
1
 71
1
 91
11
 92
1
 93
57
 72
2
 10
13.5577001432
 20
2.5085494649
 40
0.0173408616
 50
232.4713476722
 51
267.338189944
 73
1
 72
2
 10
13.5607987082
 20
2.5143997688
 40
0.0238935861
 50
209.8247607259
 51
235.1255079367
 73
1
 72
2
 10
13.5806801742
 20
2.5212486481
 40
0.044722495
 50
195.531588407
 51
204.7624440448
 73
1
 72
1
 10
13.5375908118
 20
2.5092733232
 11
13.5357868108
 21
2.5153423266
 72
2
 10
13.4974076135
 20
2.5055452462
 40
0.0396099176
 50
14.3201081283
 51
22.4984722084
 73
1
 72
2
 10
13.5201739219
 20
2.5145168728
 40
0.0151491919
 50
24.098260853
 51
63.0369451818
 73
1
 72
2
 10
13.5161192671
 20
2.5062372524
 40
0.0243676582
 50
63.3666028271
 51
90.3937697637
 73
1
 72
1
 10
13.5159517998
 20
2.5306043351
 11
13.4883447845
 21
2.5306043351
 72
2
 10
13.4883447827
 20
2.5281293355
 40
0.0024749995
 50
89.9999571958
 51
180.0000428043
 73
1
 72
1
 10
13.4858697831
 20
2.5281293337
 11
13.4858697831
 21
2.5184303283
 72
2
 10
13.4883447827
 20
2.5184303265
 40
0.0024749995
 50
179.9999571957
 51
270.0000428042
 73
1
 72
1
 10
13.4883447845
 20
2.5159553269
 11
13.5130037982
 21
2.5159553269
 72
2
 10
13.5130038
 20
2.5134803274
 40
0.0024749995
 50
359.9999571957
 51
90.0000428042
 73
1
 72
1
 10
13.5154787995
 20
2.5134803256
 11
13.5154787995
 21
2.4937023146
 72
2
 10
13.5130038
 20
2.4937023128
 40
0.0024749995
 50
269.9999571958
 51
0.0000428043
 73
1
 72
1
 10
13.5130037982
 20
2.4912273132
 11
13.3994327352
 21
2.4912273132
 72
2
 10
13.3994327333
 20
2.4937023128
 40
0.0024749995
 50
179.9999571957
 51
270.0000428043
 73
1
 72
1
 10
13.3969577338
 20
2.4937023146
 11
13.3969577338
 21
2.5135023256
 72
2
 10
13.3994327333
 20
2.5135023274
 40
0.0024749995
 50
89.9999571957
 51
180.0000428043
 73
1
 72
1
 10
13.3994327352
 20
2.515977327
 11
13.4221787478
 21
2.515977327
 72
2
 10
13.4221787497
 20
2.5184523265
 40
0.0024749995
 50
269.9999571956
 51
0.0000428042
 73
1
 72
1
 10
13.4246537492
 20
2.5184523283
 11
13.4246537492
 21
2.564807354
 72
2
 10
13.4221787497
 20
2.5648073559
 40
0.0024749995
 50
359.9999571957
 51
90.0000428043
 73
1
 72
1
 10
13.4221787478
 20
2.5672823554
 11
13.3994327352
 21
2.5672823554
 72
2
 10
13.3994327333
 20
2.5697573549
 40
0.0024749995
 50
179.9999571957
 51
270.0000428043
 73
1
 72
1
 10
13.3969577338
 20
2.5697573568
 11
13.3969577338
 21
2.5895573678
 72
2
 10
13.3994327333
 20
2.5895573696
 40
0.0024749995
 50
89.9999571957
 51
180.0000428043
 73
1
 72
1
 10
13.3994327352
 20
2.5920323691
 11
13.5490138181
 21
2.5920323691
 72
2
 10
13.5463505148
 20
2.4094934586
 40
0.1825583387
 50
79.8618509324
 51
89.1640948679
 73
1
 72
2
 10
13.5726548052
 20
2.5503169747
 40
0.039319019
 50
59.1202086415
 51
81.4730239328
 73
1
 72
2
 10
13.5783142014
 20
2.5566516438
 40
0.0310192946
 50
34.7540871
 51
62.0879016178
 73
1
 72
2
 10
13.5900029525
 20
2.565201245
 40
0.0165459396
 50
1.548452892
 51
33.5033152417
 73
1
 72
2
 10
13.5932995477
 20
2.5653696972
 40
0.0132462337
 50
331.1510006998
 51
1.205404301
 73
1
 72
2
 10
13.5822888914
 20
2.5720482849
 40
0.0261183659
 50
305.6373831893
 51
329.9727629745
 73
1
 72
2
 10
13.5519569538
 20
2.6152551345
 40
0.0789082104
 50
292.906155071
 51
305.2574666259
 73
1
 72
2
 10
13.5282557878
 20
2.4386010294
 40
0.117346916
 50
58.614769177
 51
62.3737227606
 73
1
 72
2
 10
13.5761387404
 20
2.5167282896
 40
0.0257145923
 50
39.3804255939
 51
59.0361096173
 73
1
 72
2
 10
13.5750183849
 20
2.5166552064
 40
0.0266349791
 50
20.3630922153
 51
37.9727053099
 73
1
 72
2
 10
13.5571178432
 20
2.509473798
 40
0.0459185159
 50
15.6740290068
 51
20.9917271228
 73
1
 72
2
 10
13.6156881783
 20
2.525116781
 40
0.0147197649
 50
192.7054516565
 51
206.0594861022
 73
1
 72
2
 10
13.6071938412
 20
2.5209082945
 40
0.0052403997
 50
205.5232099488
 51
227.5054868079
 73
1
 72
2
 10
13.6054655419
 20
2.5190929218
 40
0.0027347709
 50
228.5117626737
 51
266.1485845754
 73
1
 72
1
 10
13.6052818493
 20
2.5163643272
 11
13.60639085
 21
2.5163643272
 72
2
 10
13.6063292954
 20
2.5296129864
 40
0.0132488022
 50
270.266200055
 51
281.2404888597
 73
1
 72
2
 10
13.6075235364
 20
2.5238762928
 40
0.0073895522
 50
280.8288201977
 51
305.0837508495
 73
1
 72
2
 10
13.607924718
 20
2.5230254464
 40
0.0064647042
 50
306.5086174083
 51
340.2162360092
 73
1
 72
2
 10
13.6027235414
 20
2.524769508
 40
0.0119498009
 50
340.7883861657
 51
1.1691452593
 73
1
 72
1
 10
13.6146708546
 20
2.525013332
 11
13.6146708546
 21
2.5276393334
 72
2
 10
13.6171458541
 20
2.5276393353
 40
0.0024749995
 50
89.9999571958
 51
180.0000428043
 73
1
 72
1
 10
13.6171458559
 20
2.5301143348
 11
13.6292558626
 21
2.5301143348
 72
2
 10
13.6292558645
 20
2.5276393353
 40
0.0024749995
 50
359.9999571957
 51
90.0000428042
 73
1
 72
1
 10
13.631730864
 20
2.5276393334
 11
13.631730864
 21
2.516087327
 72
2
 10
13.6141751675
 20
2.5161916447
 40
0.0175560065
 50
332.2279060967
 51
359.6595469939
 73
1
 72
2
 10
13.6048681567
 20
2.5210861501
 40
0.0280715479
 50
308.5071794988
 51
332.2400656899
 73
1
 72
2
 10
13.5978759713
 20
2.5286873679
 40
0.0383802683
 50
288.7656836787
 51
309.6104317088
 73
1
 72
2
 10
13.6036139387
 20
2.5111006186
 40
0.0198837666
 50
271.8586572978
 51
289.4131338543
 73
1
 72
1
 10
13.6042588488
 20
2.4912273132
 11
13.5568948225
 21
2.4912273132
 97
267
330
2AA
330
2AB
330
2AC
330
2AD
330
2AE
330
2AF
330
2B0
330
2B1
330
2B2
330
2B3
330
2B4
330
2B5
330
2B6
330
2B7
330
2B8
330
2B9
330
2BA
330
2BB
330
2BC
330
2BD
330
2BE
330
2BF
330
2C0
330
2C1
330
2C2
330
2C3
330
2C4
330
2C5
330
2C6
330
2C7
330
2C8
330
2C9
330
2CA
330
2CB
330
2CC
330
2CD
330
2CE
330
2CF
330
2D0
330
2D1
330
2D2
330
2D3
330
2D4
330
2D5
330
2D6
330
2D7
330
2D8
330
2D9
330
2DA
330
2DB
330
2DC
330
2DD
330
2DE
330
2DF
330
2E0
330
2E1
330
2E2
330
2E3
330
2E4
330
2E5
330
2E6
330
2E7
330
2E8
330
2E9
330
2EA
330
2EB
330
2EC
330
2ED
330
2EE
330
2EF
330
2F0
330
2F1
330
2F2
330
2F3
330
2F4
330
2F5
330
2F6
330
2F7
330
2F8
330
2F9
330
2FA
330
2FB
330
2FC
330
2FD
330
2FE
330
2FF
330
300
330
301
330
302
330
303
330
304
330
305
330
306
330
307
330
308
330
309
330
30A
330
30B
330
30C
330
30D
330
30E
330
30F
330
310
330
311
330
312
330
313
330
314
330
315
330
316
330
317
330
318
330
319
330
31A
330
31B
330
31C
330
31D
330
31E
330
31F
330
320
330
321
330
322
330
323
330
324
330
325
330
326
330
327
330
328
330
329
330
32A
330
32B
330
32C
330
32D
330
32E
330
32F
330
330
330
331
330
332
330
333
330
334
330
335
330
336
330
337
330
338
330
339
330
33A
330
33B
330
33C
330
33D
330
33E
330
33F
330
340
330
341
330
342
330
343
330
344
330
345
330
346
330
347
330
348
330
349
330
34A
330
34B
330
34C
330
34D
330
34E
330
34F
330
350
330
351
330
352
330
353
330
354
330
355
330
356
330
357
330
358
330
359
330
35A
330
35B
330
35C
330
35D
330
35E
330
35F
330
360
330
361
330
362
330
363
330
364
330
365
330
366
330
367
330
368
330
369
330
36A
330
36B
330
36C
330
36D
330
36E
330
36F
330
370
330
371
330
372
330
373
330
374
330
375
330
376
330
377
330
378
330
379
330
37A
330
37B
330
37C
330
37D
330
37E
330
37F
330
380
330
381
330
382
330
383
330
384
330
385
330
386
330
387
330
388
330
389
330
38A
330
38B
330
38C
330
38D
330
38E
330
38F
330
390
330
391
330
392
330
393
330
394
330
395
330
396
330
397
330
398
330
399
330
39A
330
39B
330
39C
330
39D
330
39E
330
39F
330
3A0
330
3A1
330
3A2
330
3A3
330
3A4
330
3A5
330
3A6
330
3A7
330
3A8
330
3A9
330
3AA
330
3AB
330
3AC
330
3AD
330
3AE
330
3AF
330
3B0
330
3B1
330
3B2
330
3B3
330
3B4
 92
1
 93
40
 72
2
 10
13.1673166046
 20
2.4937023128
 40
0.0024749995
 50
179.9999571957
 51
270.0000428042
 73
1
 72
1
 10
13.1648416051
 20
2.4937023146
 11
13.1648416051
 21
2.5135023256
 72
2
 10
13.1673166046
 20
2.5135023274
 40
0.0024749995
 50
89.9999571958
 51
180.0000428043
 73
1
 72
1
 10
13.1673166065
 20
2.515977327
 11
13.1912396197
 21
2.515977327
 72
2
 10
13.1912396216
 20
2.5184523265
 40
0.0024749995
 50
269.9999571956
 51
0.0000428042
 73
1
 72
1
 10
13.1937146211
 20
2.5184523283
 11
13.1937146211
 21
2.564807354
 72
2
 10
13.1912396216
 20
2.5648073559
 40
0.0024749995
 50
359.9999571957
 51
90.0000428043
 73
1
 72
1
 10
13.1912396197
 20
2.5672823554
 11
13.1673166065
 21
2.5672823554
 72
2
 10
13.1673166046
 20
2.5697573549
 40
0.0024749995
 50
179.9999571957
 51
270.0000428043
 73
1
 72
1
 10
13.1648416051
 20
2.5697573568
 11
13.1648416051
 21
2.5895573678
 72
2
 10
13.1673166046
 20
2.5895573696
 40
0.0024749995
 50
89.9999571958
 51
180.0000428043
 73
1
 72
1
 10
13.1673166065
 20
2.5920323691
 11
13.3691097184
 21
2.5920323691
 72
2
 10
13.3691097202
 20
2.5895573696
 40
0.0024749995
 50
359.9999571957
 51
90.0000428042
 73
1
 72
1
 10
13.3715847197
 20
2.5895573678
 11
13.3715847197
 21
2.5565573495
 72
2
 10
13.3691097202
 20
2.5565573476
 40
0.0024749995
 50
269.9999571956
 51
0.0000428042
 73
1
 72
1
 10
13.3691097184
 20
2.5540823481
 11
13.3272456952
 21
2.5540823481
 72
2
 10
13.3272456933
 20
2.5565573476
 40
0.0024749995
 50
179.9999571957
 51
270.0000428043
 73
1
 72
1
 10
13.3247706938
 20
2.5565573495
 11
13.3247706938
 21
2.564807354
 72
2
 10
13.3222956943
 20
2.5648073559
 40
0.0024749995
 50
359.9999571957
 51
90.0000428043
 73
1
 72
1
 10
13.3222956924
 20
2.5672823554
 11
13.2582556569
 21
2.5672823554
 72
2
 10
13.2582556551
 20
2.5648073559
 40
0.0024749995
 50
89.9999571957
 51
180.0000428043
 73
1
 72
1
 10
13.2557806555
 20
2.564807354
 11
13.2557806555
 21
2.5532573476
 72
2
 10
13.2582556551
 20
2.5532573458
 40
0.0024749995
 50
179.9999571957
 51
270.0000428042
 73
1
 72
1
 10
13.2582556569
 20
2.5507823463
 11
13.2934226764
 21
2.5507823463
 72
2
 10
13.2934226783
 20
2.5483073467
 40
0.0024749995
 50
359.9999571957
 51
90.0000428042
 73
1
 72
1
 10
13.2958976778
 20
2.5483073449
 11
13.2958976778
 21
2.5349523375
 72
2
 10
13.2934226783
 20
2.5349523356
 40
0.0024749995
 50
269.9999571956
 51
0.0000428042
 73
1
 72
1
 10
13.2934226764
 20
2.5324773361
 11
13.2582556569
 21
2.5324773361
 72
2
 10
13.2582556551
 20
2.5300023366
 40
0.0024749995
 50
89.9999571957
 51
180.0000428043
 73
1
 72
1
 10
13.2557806555
 20
2.5300023347
 11
13.2557806555
 21
2.5184523283
 72
2
 10
13.2582556551
 20
2.5184523265
 40
0.0024749995
 50
179.9999571957
 51
270.0000428043
 73
1
 72
1
 10
13.2582556569
 20
2.515977327
 11
13.3232596929
 21
2.515977327
 72
2
 10
13.3232596948
 20
2.5184523265
 40
0.0024749995
 50
269.9999571958
 51
0.0000428043
 73
1
 72
1
 10
13.3257346943
 20
2.5184523283
 11
13.3257346943
 21
2.5267023329
 72
2
 10
13.3282096938
 20
2.5267023348
 40
0.0024749995
 50
89.9999571957
 51
180.0000428043
 73
1
 72
1
 10
13.3282096957
 20
2.5291773343
 11
13.3705287192
 21
2.5291773343
 72
2
 10
13.370528721
 20
2.5267023348
 40
0.0024749995
 50
359.9999571957
 51
90.0000428043
 73
1
 72
1
 10
13.3730037205
 20
2.5267023329
 11
13.3730037205
 21
2.4937023146
 72
2
 10
13.370528721
 20
2.4937023128
 40
0.0024749995
 50
269.9999571957
 51
0.0000428043
 73
1
 72
1
 10
13.3705287192
 20
2.4912273132
 11
13.1673166065
 21
2.4912273132
 97
267
330
2AA
330
2AB
330
2AC
330
2AD
330
2AE
330
2AF
330
2B0
330
2B1
330
2B2
330
2B3
330
2B4
330
2B5
330
2B6
330
2B7
330
2B8
330
2B9
330
2BA
330
2BB
330
2BC
330
2BD
330
2BE
330
2BF
330
2C0
330
2C1
330
2C2
330
2C3
330
2C4
330
2C5
330
2C6
330
2C7
330
2C8
330
2C9
330
2CA
330
2CB
330
2CC
330
2CD
330
2CE
330
2CF
330
2D0
330
2D1
330
2D2
330
2D3
330
2D4
330
2D5
330
2D6
330
2D7
330
2D8
330
2D9
330
2DA
330
2DB
330
2DC
330
2DD
330
2DE
330
2DF
330
2E0
330
2E1
330
2E2
330
2E3
330
2E4
330
2E5
330
2E6
330
2E7
330
2E8
330
2E9
330
2EA
330
2EB
330
2EC
330
2ED
330
2EE
330
2EF
330
2F0
330
2F1
330
2F2
330
2F3
330
2F4
330
2F5
330
2F6
330
2F7
330
2F8
330
2F9
330
2FA
330
2FB
330
2FC
330
2FD
330
2FE
330
2FF
330
300
330
301
330
302
330
303
330
304
330
305
330
306
330
307
330
308
330
309
330
30A
330
30B
330
30C
330
30D
330
30E
330
30F
330
310
330
311
330
312
330
313
330
314
330
315
330
316
330
317
330
318
330
319
330
31A
330
31B
330
31C
330
31D
330
31E
330
31F
330
320
330
321
330
322
330
323
330
324
330
325
330
326
330
327
330
328
330
329
330
32A
330
32B
330
32C
330
32D
330
32E
330
32F
330
330
330
331
330
332
330
333
330
334
330
335
330
336
330
337
330
338
330
339
330
33A
330
33B
330
33C
330
33D
330
33E
330
33F
330
340
330
341
330
342
330
343
330
344
330
345
330
346
330
347
330
348
330
349
330
34A
330
34B
330
34C
330
34D
330
34E
330
34F
330
350
330
351
330
352
330
353
330
354
330
355
330
356
330
357
330
358
330
359
330
35A
330
35B
330
35C
330
35D
330
35E
330
35F
330
360
330
361
330
362
330
363
330
364
330
365
330
366
330
367
330
368
330
369
330
36A
330
36B
330
36C
330
36D
330
36E
330
36F
330
370
330
371
330
372
330
373
330
374
330
375
330
376
330
377
330
378
330
379
330
37A
330
37B
330
37C
330
37D
330
37E
330
37F
330
380
330
381
330
382
330
383
330
384
330
385
330
386
330
387
330
388
330
389
330
38A
330
38B
330
38C
330
38D
330
38E
330
38F
330
390
330
391
330
392
330
393
330
394
330
395
330
396
330
397
330
398
330
399
330
39A
330
39B
330
39C
330
39D
330
39E
330
39F
330
3A0
330
3A1
330
3A2
330
3A3
330
3A4
330
3A5
330
3A6
330
3A7
330
3A8
330
3A9
330
3AA
330
3AB
330
3AC
330
3AD
330
3AE
330
3AF
330
3B0
330
3B1
330
3B2
330
3B3
330
3B4
 92
1
 93
40
 72
2
 10
13.0426374026
 20
2.493701481
 40
0.0024741678
 50
226.3477981898
 51
270.0031206038
 73
1
 72
1
 10
13.0409295364
 20
2.4919113136
 11
12.9776495013
 21
2.5522893471
 72
2
 10
12.9759408003
 20
2.5504984093
 40
0.0024753014
 50
46.3461263059
 51
180.0014637321
 73
1
 72
1
 10
12.973465499
 20
2.5504983461
 11
12.973465499
 21
2.5184523283
 72
2
 10
12.9759404985
 20
2.5184523265
 40
0.0024749995
 50
179.9999571957
 51
270.0000428043
 73
1
 72
1
 10
12.9759405003
 20
2.515977327
 11
12.9962575116
 21
2.515977327
 72
2
 10
12.9962575135
 20
2.5135023274
 40
0.0024749995
 50
359.9999571957
 51
90.0000428043
 73
1
 72
1
 10
12.998732513
 20
2.5135023256
 11
12.998732513
 21
2.4937023146
 72
2
 10
12.9962575135
 20
2.4937023128
 40
0.0024749995
 50
269.9999571957
 51
0.0000428043
 73
1
 72
1
 10
12.9962575116
 20
2.4912273132
 11
12.9205934696
 21
2.4912273132
 72
2
 10
12.9205934678
 20
2.4937023128
 40
0.0024749995
 50
179.9999571957
 51
270.0000428043
 73
1
 72
1
 10
12.9181184683
 20
2.4937023146
 11
12.9181184683
 21
2.5135023256
 72
2
 10
12.9205934678
 20
2.5135023274
 40
0.0024749995
 50
89.9999571956
 51
180.0000428042
 73
1
 72
1
 10
12.9205934696
 20
2.515977327
 11
12.93923948
 21
2.515977327
 72
2
 10
12.9392394818
 20
2.5184523265
 40
0.0024749995
 50
269.9999571957
 51
0.0000428043
 73
1
 72
1
 10
12.9417144814
 20
2.5184523283
 11
12.9417144814
 21
2.564807354
 72
2
 10
12.9392394818
 20
2.5648073559
 40
0.0024749995
 50
359.9999571957
 51
90.0000428043
 73
1
 72
1
 10
12.93923948
 20
2.5672823554
 11
12.9205934696
 21
2.5672823554
 72
2
 10
12.9205934678
 20
2.5697573549
 40
0.0024749995
 50
179.9999571957
 51
270.0000428043
 73
1
 72
1
 10
12.9181184683
 20
2.5697573568
 11
12.9181184683
 21
2.5895573678
 72
2
 10
12.9205934678
 20
2.5895573696
 40
0.0024749995
 50
89.9999571956
 51
180.0000428042
 73
1
 72
1
 10
12.9205934696
 20
2.5920323691
 11
13.0210515254
 21
2.5920323691
 72
2
 10
13.0210516601
 20
2.5895582013
 40
0.0024741678
 50
46.3477981898
 51
90.0031206038
 73
1
 72
1
 10
13.0227595263
 20
2.5913483688
 11
13.0827925596
 21
2.534068337
 72
2
 10
13.0845012605
 20
2.5358592748
 40
0.0024753014
 50
226.3461263059
 51
0.0014637321
 73
1
 72
1
 10
13.0869765619
 20
2.535859338
 11
13.0869765619
 21
2.564807354
 72
2
 10
13.0845015624
 20
2.5648073559
 40
0.0024749995
 50
359.9999571957
 51
90.0000428043
 73
1
 72
1
 10
13.0845015605
 20
2.5672823554
 11
13.0657255501
 21
2.5672823554
 72
2
 10
13.0657255483
 20
2.5697573549
 40
0.0024749995
 50
179.9999571957
 51
270.0000428043
 73
1
 72
1
 10
13.0632505488
 20
2.5697573568
 11
13.0632505488
 21
2.5895573678
 72
2
 10
13.0657255483
 20
2.5895573696
 40
0.0024749995
 50
89.9999571957
 51
180.0000428043
 73
1
 72
1
 10
13.0657255501
 20
2.5920323691
 11
13.1397265912
 21
2.5920323691
 72
2
 10
13.139726593
 20
2.5895573696
 40
0.0024749995
 50
359.9999571957
 51
90.0000428043
 73
1
 72
1
 10
13.1422015925
 20
2.5895573678
 11
13.1422015925
 21
2.5697573568
 72
2
 10
13.139726593
 20
2.5697573549
 40
0.0024749995
 50
269.9999571956
 51
0.0000428042
 73
1
 72
1
 10
13.1397265912
 20
2.5672823554
 11
13.1217935812
 21
2.5672823554
 72
2
 10
13.1217935794
 20
2.5648073559
 40
0.0024749995
 50
89.9999571957
 51
180.0000428042
 73
1
 72
1
 10
13.1193185799
 20
2.564807354
 11
13.1193185799
 21
2.4937023146
 72
2
 10
13.1168435803
 20
2.4937023128
 40
0.0024749995
 50
269.9999571957
 51
0.0000428043
 73
1
 72
1
 10
13.1168435785
 20
2.4912273132
 11
13.0426375373
 21
2.4912273132
 97
267
330
2AA
330
2AB
330
2AC
330
2AD
330
2AE
330
2AF
330
2B0
330
2B1
330
2B2
330
2B3
330
2B4
330
2B5
330
2B6
330
2B7
330
2B8
330
2B9
330
2BA
330
2BB
330
2BC
330
2BD
330
2BE
330
2BF
330
2C0
330
2C1
330
2C2
330
2C3
330
2C4
330
2C5
330
2C6
330
2C7
330
2C8
330
2C9
330
2CA
330
2CB
330
2CC
330
2CD
330
2CE
330
2CF
330
2D0
330
2D1
330
2D2
330
2D3
330
2D4
330
2D5
330
2D6
330
2D7
330
2D8
330
2D9
330
2DA
330
2DB
330
2DC
330
2DD
330
2DE
330
2DF
330
2E0
330
2E1
330
2E2
330
2E3
330
2E4
330
2E5
330
2E6
330
2E7
330
2E8
330
2E9
330
2EA
330
2EB
330
2EC
330
2ED
330
2EE
330
2EF
330
2F0
330
2F1
330
2F2
330
2F3
330
2F4
330
2F5
330
2F6
330
2F7
330
2F8
330
2F9
330
2FA
330
2FB
330
2FC
330
2FD
330
2FE
330
2FF
330
300
330
301
330
302
330
303
330
304
330
305
330
306
330
307
330
308
330
309
330
30A
330
30B
330
30C
330
30D
330
30E
330
30F
330
310
330
311
330
312
330
313
330
314
330
315
330
316
330
317
330
318
330
319
330
31A
330
31B
330
31C
330
31D
330
31E
330
31F
330
320
330
321
330
322
330
323
330
324
330
325
330
326
330
327
330
328
330
329
330
32A
330
32B
330
32C
330
32D
330
32E
330
32F
330
330
330
331
330
332
330
333
330
334
330
335
330
336
330
337
330
338
330
339
330
33A
330
33B
330
33C
330
33D
330
33E
330
33F
330
340
330
341
330
342
330
343
330
344
330
345
330
346
330
347
330
348
330
349
330
34A
330
34B
330
34C
330
34D
330
34E
330
34F
330
350
330
351
330
352
330
353
330
354
330
355
330
356
330
357
330
358
330
359
330
35A
330
35B
330
35C
330
35D
330
35E
330
35F
330
360
330
361
330
362
330
363
330
364
330
365
330
366
330
367
330
368
330
369
330
36A
330
36B
330
36C
330
36D
330
36E
330
36F
330
370
330
371
330
372
330
373
330
374
330
375
330
376
330
377
330
378
330
379
330
37A
330
37B
330
37C
330
37D
330
37E
330
37F
330
380
330
381
330
382
330
383
330
384
330
385
330
386
330
387
330
388
330
389
330
38A
330
38B
330
38C
330
38D
330
38E
330
38F
330
390
330
391
330
392
330
393
330
394
330
395
330
396
330
397
330
398
330
399
330
39A
330
39B
330
39C
330
39D
330
39E
330
39F
330
3A0
330
3A1
330
3A2
330
3A3
330
3A4
330
3A5
330
3A6
330
3A7
330
3A8
330
3A9
330
3AA
330
3AB
330
3AC
330
3AD
330
3AE
330
3AF
330
3B0
330
3B1
330
3B2
330
3B3
330
3B4
 92
1
 93
40
 72
2
 10
12.7943847649
 20
2.4937027294
 40
0.0024754162
 50
226.3593695813
 51
270.0146919953
 73
1
 72
1
 10
12.7926763987
 20
2.4919113136
 11
12.7293963636
 21
2.5522893471
 72
2
 10
12.7276876627
 20
2.5504984093
 40
0.0024753014
 50
46.3461263059
 51
180.0014637321
 73
1
 72
1
 10
12.7252123613
 20
2.5504983461
 11
12.7252123613
 21
2.5184523283
 72
2
 10
12.7276873608
 20
2.5184523265
 40
0.0024749995
 50
179.9999571957
 51
270.0000428043
 73
1
 72
1
 10
12.7276873627
 20
2.515977327
 11
12.7480043739
 21
2.515977327
 72
2
 10
12.7480043758
 20
2.5135023274
 40
0.0024749995
 50
359.9999571957
 51
90.0000428043
 73
1
 72
1
 10
12.7504793753
 20
2.5135023256
 11
12.7504793753
 21
2.4937023146
 72
2
 10
12.7480043758
 20
2.4937023128
 40
0.0024749995
 50
269.9999571958
 51
0.0000428043
 73
1
 72
1
 10
12.7480043739
 20
2.4912273132
 11
12.672340332
 21
2.4912273132
 72
2
 10
12.6723403301
 20
2.4937023128
 40
0.0024749995
 50
179.9999571957
 51
270.0000428042
 73
1
 72
1
 10
12.6698653306
 20
2.4937023146
 11
12.6698653306
 21
2.5135023256
 72
2
 10
12.6723403301
 20
2.5135023274
 40
0.0024749995
 50
89.9999571957
 51
180.0000428043
 73
1
 72
1
 10
12.672340332
 20
2.515977327
 11
12.6909873423
 21
2.515977327
 72
2
 10
12.6909873442
 20
2.5184523265
 40
0.0024749995
 50
269.9999571957
 51
0.0000428043
 73
1
 72
1
 10
12.6934623437
 20
2.5184523283
 11
12.6934623437
 21
2.564807354
 72
2
 10
12.6909873442
 20
2.5648073559
 40
0.0024749995
 50
359.9999571957
 51
90.0000428043
 73
1
 72
1
 10
12.6909873423
 20
2.5672823554
 11
12.672340332
 21
2.5672823554
 72
2
 10
12.6723403301
 20
2.5697573549
 40
0.0024749995
 50
179.9999571957
 51
270.0000428043
 73
1
 72
1
 10
12.6698653306
 20
2.5697573568
 11
12.6698653306
 21
2.5895573678
 72
2
 10
12.6723403301
 20
2.5895573696
 40
0.0024749995
 50
89.9999571957
 51
180.0000428043
 73
1
 72
1
 10
12.672340332
 20
2.5920323691
 11
12.7727983877
 21
2.5920323691
 72
2
 10
12.7727985224
 20
2.5895582013
 40
0.0024741678
 50
46.3477981899
 51
90.0031206038
 73
1
 72
1
 10
12.7745063886
 20
2.5913483688
 11
12.8345394219
 21
2.534068337
 72
2
 10
12.8362481229
 20
2.5358592748
 40
0.0024753014
 50
226.3461263059
 51
0.0014637321
 73
1
 72
1
 10
12.8387234242
 20
2.535859338
 11
12.8387234242
 21
2.564807354
 72
2
 10
12.8362484247
 20
2.5648073559
 40
0.0024749995
 50
359.9999571957
 51
90.0000428043
 73
1
 72
1
 10
12.8362484229
 20
2.5672823554
 11
12.8174724125
 21
2.5672823554
 72
2
 10
12.8174724106
 20
2.5697573549
 40
0.0024749995
 50
179.9999571957
 51
270.0000428043
 73
1
 72
1
 10
12.8149974111
 20
2.5697573568
 11
12.8149974111
 21
2.5895573678
 72
2
 10
12.8174724106
 20
2.5895573696
 40
0.0024749995
 50
89.9999571958
 51
180.0000428043
 73
1
 72
1
 10
12.8174724125
 20
2.5920323691
 11
12.8914734535
 21
2.5920323691
 72
2
 10
12.8914734553
 20
2.5895573696
 40
0.0024749995
 50
359.9999571957
 51
90.0000428042
 73
1
 72
1
 10
12.8939484549
 20
2.5895573678
 11
12.8939484549
 21
2.5697573568
 72
2
 10
12.8914734553
 20
2.5697573549
 40
0.0024749995
 50
269.9999571958
 51
0.0000428043
 73
1
 72
1
 10
12.8914734535
 20
2.5672823554
 11
12.8735404436
 21
2.5672823554
 72
2
 10
12.8735404417
 20
2.5648073559
 40
0.0024749995
 50
89.9999571957
 51
180.0000428043
 73
1
 72
1
 10
12.8710654422
 20
2.564807354
 11
12.8710654422
 21
2.4937023146
 72
2
 10
12.8685904427
 20
2.4937023128
 40
0.0024749995
 50
269.9999571957
 51
0.0000428043
 73
1
 72
1
 10
12.8685904408
 20
2.4912273132
 11
12.7943853997
 21
2.4912273132
 97
267
330
2AA
330
2AB
330
2AC
330
2AD
330
2AE
330
2AF
330
2B0
330
2B1
330
2B2
330
2B3
330
2B4
330
2B5
330
2B6
330
2B7
330
2B8
330
2B9
330
2BA
330
2BB
330
2BC
330
2BD
330
2BE
330
2BF
330
2C0
330
2C1
330
2C2
330
2C3
330
2C4
330
2C5
330
2C6
330
2C7
330
2C8
330
2C9
330
2CA
330
2CB
330
2CC
330
2CD
330
2CE
330
2CF
330
2D0
330
2D1
330
2D2
330
2D3
330
2D4
330
2D5
330
2D6
330
2D7
330
2D8
330
2D9
330
2DA
330
2DB
330
2DC
330
2DD
330
2DE
330
2DF
330
2E0
330
2E1
330
2E2
330
2E3
330
2E4
330
2E5
330
2E6
330
2E7
330
2E8
330
2E9
330
2EA
330
2EB
330
2EC
330
2ED
330
2EE
330
2EF
330
2F0
330
2F1
330
2F2
330
2F3
330
2F4
330
2F5
330
2F6
330
2F7
330
2F8
330
2F9
330
2FA
330
2FB
330
2FC
330
2FD
330
2FE
330
2FF
330
300
330
301
330
302
330
303
330
304
330
305
330
306
330
307
330
308
330
309
330
30A
330
30B
330
30C
330
30D
330
30E
330
30F
330
310
330
311
330
312
330
313
330
314
330
315
330
316
330
317
330
318
330
319
330
31A
330
31B
330
31C
330
31D
330
31E
330
31F
330
320
330
321
330
322
330
323
330
324
330
325
330
326
330
327
330
328
330
329
330
32A
330
32B
330
32C
330
32D
330
32E
330
32F
330
330
330
331
330
332
330
333
330
334
330
335
330
336
330
337
330
338
330
339
330
33A
330
33B
330
33C
330
33D
330
33E
330
33F
330
340
330
341
330
342
330
343
330
344
330
345
330
346
330
347
330
348
330
349
330
34A
330
34B
330
34C
330
34D
330
34E
330
34F
330
350
330
351
330
352
330
353
330
354
330
355
330
356
330
357
330
358
330
359
330
35A
330
35B
330
35C
330
35D
330
35E
330
35F
330
360
330
361
330
362
330
363
330
364
330
365
330
366
330
367
330
368
330
369
330
36A
330
36B
330
36C
330
36D
330
36E
330
36F
330
370
330
371
330
372
330
373
330
374
330
375
330
376
330
377
330
378
330
379
330
37A
330
37B
330
37C
330
37D
330
37E
330
37F
330
380
330
381
330
382
330
383
330
384
330
385
330
386
330
387
330
388
330
389
330
38A
330
38B
330
38C
330
38D
330
38E
330
38F
330
390
330
391
330
392
330
393
330
394
330
395
330
396
330
397
330
398
330
399
330
39A
330
39B
330
39C
330
39D
330
39E
330
39F
330
3A0
330
3A1
330
3A2
330
3A3
330
3A4
330
3A5
330
3A6
330
3A7
330
3A8
330
3A9
330
3AA
330
3AB
330
3AC
330
3AD
330
3AE
330
3AF
330
3B0
330
3B1
330
3B2
330
3B3
330
3B4
 92
1
 93
23
 72
2
 10
12.3792298263
 20
2.539634765
 40
0.048483885
 50
273.21763719
 51
303.0749121182
 73
1
 72
2
 10
12.3940692204
 20
2.5168671561
 40
0.0213072145
 50
303.0488228549
 51
355.7263138674
 73
1
 72
2
 10
12.400005721
 20
2.5168763464
 40
0.0153945295
 50
354.0454548824
 51
5.1878013979
 73
1
 72
2
 10
12.3931760319
 20
2.5166878286
 40
0.0222174455
 50
4.0793399388
 51
69.834329283
 73
1
 72
1
 10
12.4008351814
 20
2.5375433389
 11
12.3907841758
 21
2.5410923409
 72
1
 10
12.3907841758
 20
2.5410923409
 11
12.3990241804
 21
2.5458683435
 72
2
 10
12.3771587979
 20
2.5826952352
 40
0.0428289026
 50
300.6990502959
 51
319.0591802498
 73
1
 72
2
 10
12.3971873948
 20
2.5665668817
 40
0.0171568255
 50
315.9145124245
 51
16.0049121282
 73
1
 72
2
 10
12.3922357827
 20
2.5632132173
 40
0.0229166529
 50
20.6563876465
 51
62.3316896973
 73
1
 72
2
 10
12.371573659
 20
2.5302846524
 40
0.061747717
 50
59.5385584989
 51
90.0050977555
 73
1
 72
1
 10
12.3715681652
 20
2.5920323691
 11
12.2055050731
 21
2.5920323691
 72
2
 10
12.2055050712
 20
2.5895573696
 40
0.0024749995
 50
89.9999571957
 51
180.0000428043
 73
1
 72
1
 10
12.2030300717
 20
2.5895573678
 11
12.2030300717
 21
2.5697573568
 72
2
 10
12.2055050712
 20
2.5697573549
 40
0.0024749995
 50
179.9999571957
 51
270.0000428043
 73
1
 72
1
 10
12.2055050731
 20
2.5672823554
 11
12.2294470864
 21
2.5672823554
 72
2
 10
12.2294470882
 20
2.5648073559
 40
0.0024749995
 50
359.9999571957
 51
90.0000428043
 73
1
 72
1
 10
12.2319220877
 20
2.564807354
 11
12.2319220877
 21
2.5184523283
 72
2
 10
12.2294470882
 20
2.5184523265
 40
0.0024749995
 50
269.9999571957
 51
0.0000428043
 73
1
 72
1
 10
12.2294470864
 20
2.515977327
 11
12.2055050731
 21
2.515977327
 72
2
 10
12.2055050712
 20
2.5135023274
 40
0.0024749995
 50
89.9999571957
 51
180.0000428043
 73
1
 72
1
 10
12.2030300717
 20
2.5135023256
 11
12.2030300717
 21
2.4937023146
 72
2
 10
12.2055050712
 20
2.4937023128
 40
0.0024749995
 50
179.9999571957
 51
270.0000428043
 73
1
 72
1
 10
12.2055050731
 20
2.4912273132
 11
12.3819511709
 21
2.4912273132
 97
267
330
2AA
330
2AB
330
2AC
330
2AD
330
2AE
330
2AF
330
2B0
330
2B1
330
2B2
330
2B3
330
2B4
330
2B5
330
2B6
330
2B7
330
2B8
330
2B9
330
2BA
330
2BB
330
2BC
330
2BD
330
2BE
330
2BF
330
2C0
330
2C1
330
2C2
330
2C3
330
2C4
330
2C5
330
2C6
330
2C7
330
2C8
330
2C9
330
2CA
330
2CB
330
2CC
330
2CD
330
2CE
330
2CF
330
2D0
330
2D1
330
2D2
330
2D3
330
2D4
330
2D5
330
2D6
330
2D7
330
2D8
330
2D9
330
2DA
330
2DB
330
2DC
330
2DD
330
2DE
330
2DF
330
2E0
330
2E1
330
2E2
330
2E3
330
2E4
330
2E5
330
2E6
330
2E7
330
2E8
330
2E9
330
2EA
330
2EB
330
2EC
330
2ED
330
2EE
330
2EF
330
2F0
330
2F1
330
2F2
330
2F3
330
2F4
330
2F5
330
2F6
330
2F7
330
2F8
330
2F9
330
2FA
330
2FB
330
2FC
330
2FD
330
2FE
330
2FF
330
300
330
301
330
302
330
303
330
304
330
305
330
306
330
307
330
308
330
309
330
30A
330
30B
330
30C
330
30D
330
30E
330
30F
330
310
330
311
330
312
330
313
330
314
330
315
330
316
330
317
330
318
330
319
330
31A
330
31B
330
31C
330
31D
330
31E
330
31F
330
320
330
321
330
322
330
323
330
324
330
325
330
326
330
327
330
328
330
329
330
32A
330
32B
330
32C
330
32D
330
32E
330
32F
330
330
330
331
330
332
330
333
330
334
330
335
330
336
330
337
330
338
330
339
330
33A
330
33B
330
33C
330
33D
330
33E
330
33F
330
340
330
341
330
342
330
343
330
344
330
345
330
346
330
347
330
348
330
349
330
34A
330
34B
330
34C
330
34D
330
34E
330
34F
330
350
330
351
330
352
330
353
330
354
330
355
330
356
330
357
330
358
330
359
330
35A
330
35B
330
35C
330
35D
330
35E
330
35F
330
360
330
361
330
362
330
363
330
364
330
365
330
366
330
367
330
368
330
369
330
36A
330
36B
330
36C
330
36D
330
36E
330
36F
330
370
330
371
330
372
330
373
330
374
330
375
330
376
330
377
330
378
330
379
330
37A
330
37B
330
37C
330
37D
330
37E
330
37F
330
380
330
381
330
382
330
383
330
384
330
385
330
386
330
387
330
388
330
389
330
38A
330
38B
330
38C
330
38D
330
38E
330
38F
330
390
330
391
330
392
330
393
330
394
330
395
330
396
330
397
330
398
330
399
330
39A
330
39B
330
39C
330
39D
330
39E
330
39F
330
3A0
330
3A1
330
3A2
330
3A3
330
3A4
330
3A5
330
3A6
330
3A7
330
3A8
330
3A9
330
3AA
330
3AB
330
3AC
330
3AD
330
3AE
330
3AF
330
3B0
330
3B1
330
3B2
330
3B3
330
3B4
 92
1
 93
32
 72
2
 10
12.5168642476
 20
2.4937023128
 40
0.0024749995
 50
269.9999571957
 51
0.0000428043
 73
1
 72
1
 10
12.5193392471
 20
2.4937023146
 11
12.5193392471
 21
2.5135023256
 72
2
 10
12.5168642476
 20
2.5135023274
 40
0.0024749995
 50
359.9999571957
 51
90.0000428043
 73
1
 72
1
 10
12.5168642458
 20
2.515977327
 11
12.5055812395
 21
2.515977327
 72
2
 10
12.5055811302
 20
2.518452367
 40
0.0024750401
 50
147.6063258011
 51
270.0025305754
 73
1
 72
1
 10
12.5034912383
 20
2.5197783291
 11
12.5090072414
 21
2.5284723339
 72
2
 10
12.5110971723
 20
2.5271461342
 40
0.0024752003
 50
89.998372645
 51
147.602165307
 73
1
 72
1
 10
12.5110972426
 20
2.5296213345
 11
12.5459752619
 21
2.5296213345
 72
2
 10
12.5459747223
 20
2.5271458744
 40
0.0024754602
 50
32.8959418573
 51
89.9875097202
 73
1
 72
1
 10
12.548053263
 20
2.5284903339
 11
12.5536792662
 21
2.5197973291
 72
2
 10
12.5516012439
 20
2.5184525341
 40
0.0024752071
 50
270.0004896794
 51
32.9089806818
 73
1
 72
1
 10
12.551601265
 20
2.515977327
 11
12.537150257
 21
2.515977327
 72
2
 10
12.5371502552
 20
2.5135023274
 40
0.0024749995
 50
89.9999571958
 51
180.0000428043
 73
1
 72
1
 10
12.5346752556
 20
2.5135023256
 11
12.5346752556
 21
2.4937023146
 72
2
 10
12.5371502552
 20
2.4937023128
 40
0.0024749995
 50
179.9999571957
 51
270.0000428042
 73
1
 72
1
 10
12.537150257
 20
2.4912273132
 11
12.6424313154
 21
2.4912273132
 72
2
 10
12.6424313172
 20
2.4937023128
 40
0.0024749995
 50
269.9999571957
 51
0.0000428043
 73
1
 72
1
 10
12.6449063168
 20
2.4937023146
 11
12.6449063168
 21
2.5135023256
 72
2
 10
12.6424313172
 20
2.5135023274
 40
0.0024749995
 50
359.9999571957
 51
90.0000428043
 73
1
 72
1
 10
12.6424313154
 20
2.515977327
 11
12.6224153043
 21
2.515977327
 72
2
 10
12.6224154248
 20
2.518451368
 40
0.002474041
 50
212.9056413127
 51
269.9972091756
 73
1
 72
1
 10
12.6203383031
 20
2.5171073276
 11
12.5725822767
 21
2.5909023685
 72
2
 10
12.570504655
 20
2.589557409
 40
0.0024749602
 50
32.9172174468
 51
90.0087853097
 73
1
 72
1
 10
12.5705042755
 20
2.5920323691
 11
12.5133292438
 21
2.5920323691
 72
2
 10
12.5133291735
 20
2.5895571688
 40
0.0024752003
 50
89.9983726451
 51
147.602165307
 73
1
 72
1
 10
12.5112392426
 20
2.5908833685
 11
12.4644392167
 21
2.5171263276
 72
2
 10
12.4623492858
 20
2.5184525273
 40
0.0024752003
 50
269.9983726451
 51
327.602165307
 73
1
 72
1
 10
12.4623492155
 20
2.515977327
 11
12.4394882028
 21
2.515977327
 72
2
 10
12.439488201
 20
2.5135023274
 40
0.0024749995
 50
89.9999571958
 51
180.0000428043
 73
1
 72
1
 10
12.4370132015
 20
2.5135023256
 11
12.4370132015
 21
2.4937023146
 72
2
 10
12.439488201
 20
2.4937023128
 40
0.0024749995
 50
179.9999571957
 51
270.0000428042
 73
1
 72
1
 10
12.4394882028
 20
2.4912273132
 11
12.5168642458
 21
2.4912273132
 97
267
330
2AA
330
2AB
330
2AC
330
2AD
330
2AE
330
2AF
330
2B0
330
2B1
330
2B2
330
2B3
330
2B4
330
2B5
330
2B6
330
2B7
330
2B8
330
2B9
330
2BA
330
2BB
330
2BC
330
2BD
330
2BE
330
2BF
330
2C0
330
2C1
330
2C2
330
2C3
330
2C4
330
2C5
330
2C6
330
2C7
330
2C8
330
2C9
330
2CA
330
2CB
330
2CC
330
2CD
330
2CE
330
2CF
330
2D0
330
2D1
330
2D2
330
2D3
330
2D4
330
2D5
330
2D6
330
2D7
330
2D8
330
2D9
330
2DA
330
2DB
330
2DC
330
2DD
330
2DE
330
2DF
330
2E0
330
2E1
330
2E2
330
2E3
330
2E4
330
2E5
330
2E6
330
2E7
330
2E8
330
2E9
330
2EA
330
2EB
330
2EC
330
2ED
330
2EE
330
2EF
330
2F0
330
2F1
330
2F2
330
2F3
330
2F4
330
2F5
330
2F6
330
2F7
330
2F8
330
2F9
330
2FA
330
2FB
330
2FC
330
2FD
330
2FE
330
2FF
330
300
330
301
330
302
330
303
330
304
330
305
330
306
330
307
330
308
330
309
330
30A
330
30B
330
30C
330
30D
330
30E
330
30F
330
310
330
311
330
312
330
313
330
314
330
315
330
316
330
317
330
318
330
319
330
31A
330
31B
330
31C
330
31D
330
31E
330
31F
330
320
330
321
330
322
330
323
330
324
330
325
330
326
330
327
330
328
330
329
330
32A
330
32B
330
32C
330
32D
330
32E
330
32F
330
330
330
331
330
332
330
333
330
334
330
335
330
336
330
337
330
338
330
339
330
33A
330
33B
330
33C
330
33D
330
33E
330
33F
330
340
330
341
330
342
330
343
330
344
330
345
330
346
330
347
330
348
330
349
330
34A
330
34B
330
34C
330
34D
330
34E
330
34F
330
350
330
351
330
352
330
353
330
354
330
355
330
356
330
357
330
358
330
359
330
35A
330
35B
330
35C
330
35D
330
35E
330
35F
330
360
330
361
330
362
330
363
330
364
330
365
330
366
330
367
330
368
330
369
330
36A
330
36B
330
36C
330
36D
330
36E
330
36F
330
370
330
371
330
372
330
373
330
374
330
375
330
376
330
377
330
378
330
379
330
37A
330
37B
330
37C
330
37D
330
37E
330
37F
330
380
330
381
330
382
330
383
330
384
330
385
330
386
330
387
330
388
330
389
330
38A
330
38B
330
38C
330
38D
330
38E
330
38F
330
390
330
391
330
392
330
393
330
394
330
395
330
396
330
397
330
398
330
399
330
39A
330
39B
330
39C
330
39D
330
39E
330
39F
330
3A0
330
3A1
330
3A2
330
3A3
330
3A4
330
3A5
330
3A6
330
3A7
330
3A8
330
3A9
330
3AA
330
3AB
330
3AC
330
3AD
330
3AE
330
3AF
330
3B0
330
3B1
330
3B2
330
3B3
330
3B4
 92
1
 93
6
 72
2
 10
12.2949101208
 20
2.5184523265
 40
0.0024749995
 50
179.9999571957
 51
270.0000428043
 73
1
 72
1
 10
12.2924351213
 20
2.5184523283
 11
12.2924351213
 21
2.5308273352
 72
2
 10
12.2949101208
 20
2.530827337
 40
0.0024749995
 50
89.9999571957
 51
180.0000428043
 73
1
 72
1
 10
12.2949101227
 20
2.5333023366
 11
12.3362731456
 21
2.5333023366
 72
2
 10
12.3362731456
 20
2.5246398318
 40
0.0086625048
 50
270.0
 51
90.0
 73
1
 72
1
 10
12.3362731456
 20
2.515977327
 11
12.2949101227
 21
2.515977327
 97
267
330
2AA
330
2AB
330
2AC
330
2AD
330
2AE
330
2AF
330
2B0
330
2B1
330
2B2
330
2B3
330
2B4
330
2B5
330
2B6
330
2B7
330
2B8
330
2B9
330
2BA
330
2BB
330
2BC
330
2BD
330
2BE
330
2BF
330
2C0
330
2C1
330
2C2
330
2C3
330
2C4
330
2C5
330
2C6
330
2C7
330
2C8
330
2C9
330
2CA
330
2CB
330
2CC
330
2CD
330
2CE
330
2CF
330
2D0
330
2D1
330
2D2
330
2D3
330
2D4
330
2D5
330
2D6
330
2D7
330
2D8
330
2D9
330
2DA
330
2DB
330
2DC
330
2DD
330
2DE
330
2DF
330
2E0
330
2E1
330
2E2
330
2E3
330
2E4
330
2E5
330
2E6
330
2E7
330
2E8
330
2E9
330
2EA
330
2EB
330
2EC
330
2ED
330
2EE
330
2EF
330
2F0
330
2F1
330
2F2
330
2F3
330
2F4
330
2F5
330
2F6
330
2F7
330
2F8
330
2F9
330
2FA
330
2FB
330
2FC
330
2FD
330
2FE
330
2FF
330
300
330
301
330
302
330
303
330
304
330
305
330
306
330
307
330
308
330
309
330
30A
330
30B
330
30C
330
30D
330
30E
330
30F
330
310
330
311
330
312
330
313
330
314
330
315
330
316
330
317
330
318
330
319
330
31A
330
31B
330
31C
330
31D
330
31E
330
31F
330
320
330
321
330
322
330
323
330
324
330
325
330
326
330
327
330
328
330
329
330
32A
330
32B
330
32C
330
32D
330
32E
330
32F
330
330
330
331
330
332
330
333
330
334
330
335
330
336
330
337
330
338
330
339
330
33A
330
33B
330
33C
330
33D
330
33E
330
33F
330
340
330
341
330
342
330
343
330
344
330
345
330
346
330
347
330
348
330
349
330
34A
330
34B
330
34C
330
34D
330
34E
330
34F
330
350
330
351
330
352
330
353
330
354
330
355
330
356
330
357
330
358
330
359
330
35A
330
35B
330
35C
330
35D
330
35E
330
35F
330
360
330
361
330
362
330
363
330
364
330
365
330
366
330
367
330
368
330
369
330
36A
330
36B
330
36C
330
36D
330
36E
330
36F
330
370
330
371
330
372
330
373
330
374
330
375
330
376
330
377
330
378
330
379
330
37A
330
37B
330
37C
330
37D
330
37E
330
37F
330
380
330
381
330
382
330
383
330
384
330
385
330
386
330
387
330
388
330
389
330
38A
330
38B
330
38C
330
38D
330
38E
330
38F
330
390
330
391
330
392
330
393
330
394
330
395
330
396
330
397
330
398
330
399
330
39A
330
39B
330
39C
330
39D
330
39E
330
39F
330
3A0
330
3A1
330
3A2
330
3A3
330
3A4
330
3A5
330
3A6
330
3A7
330
3A8
330
3A9
330
3AA
330
3AB
330
3AC
330
3AD
330
3AE
330
3AF
330
3B0
330
3B1
330
3B2
330
3B3
330
3B4
 92
1
 93
13
 72
2
 10
13.4883447827
 20
2.5520823451
 40
0.0024749995
 50
179.9999571957
 51
270.0000428042
 73
1
 72
1
 10
13.4858697831
 20
2.552082347
 11
13.4858697831
 21
2.564807354
 72
2
 10
13.4883447827
 20
2.5648073559
 40
0.0024749995
 50
89.9999571958
 51
180.0000428043
 73
1
 72
1
 10
13.4883447845
 20
2.5672823554
 11
13.5251458049
 21
2.5672823554
 72
2
 10
13.5236009174
 20
2.5388278764
 40
0.0284963867
 50
70.3834917948
 51
86.8922743861
 73
1
 72
2
 10
13.5284605274
 20
2.5518696094
 40
0.0145814632
 50
54.6746025112
 51
71.1660573124
 73
1
 72
2
 10
13.5335900184
 20
2.5587235346
 40
0.0060275915
 50
20.9055592135
 51
56.7851676243
 73
1
 72
2
 10
13.5348905773
 20
2.5593838168
 40
0.0045795888
 50
355.6235353944
 51
18.9942678268
 73
1
 72
2
 10
13.533683767
 20
2.559677593
 40
0.0058087709
 50
318.8515287446
 51
353.6422345323
 73
1
 72
2
 10
13.5295131508
 20
2.5629115009
 40
0.0110815393
 50
306.758405961
 51
320.4502234234
 73
1
 72
2
 10
13.5238839599
 20
2.5706523294
 40
0.0206523367
 50
289.6883413472
 51
306.4184925496
 73
1
 72
2
 10
13.5219564542
 20
2.5750459767
 40
0.0254407115
 50
270.7327484175
 51
290.441894219
 73
1
 72
1
 10
13.5222818033
 20
2.5496073456
 11
13.4883447845
 21
2.5496073456
 97
267
330
2AA
330
2AB
330
2AC
330
2AD
330
2AE
330
2AF
330
2B0
330
2B1
330
2B2
330
2B3
330
2B4
330
2B5
330
2B6
330
2B7
330
2B8
330
2B9
330
2BA
330
2BB
330
2BC
330
2BD
330
2BE
330
2BF
330
2C0
330
2C1
330
2C2
330
2C3
330
2C4
330
2C5
330
2C6
330
2C7
330
2C8
330
2C9
330
2CA
330
2CB
330
2CC
330
2CD
330
2CE
330
2CF
330
2D0
330
2D1
330
2D2
330
2D3
330
2D4
330
2D5
330
2D6
330
2D7
330
2D8
330
2D9
330
2DA
330
2DB
330
2DC
330
2DD
330
2DE
330
2DF
330
2E0
330
2E1
330
2E2
330
2E3
330
2E4
330
2E5
330
2E6
330
2E7
330
2E8
330
2E9
330
2EA
330
2EB
330
2EC
330
2ED
330
2EE
330
2EF
330
2F0
330
2F1
330
2F2
330
2F3
330
2F4
330
2F5
330
2F6
330
2F7
330
2F8
330
2F9
330
2FA
330
2FB
330
2FC
330
2FD
330
2FE
330
2FF
330
300
330
301
330
302
330
303
330
304
330
305
330
306
330
307
330
308
330
309
330
30A
330
30B
330
30C
330
30D
330
30E
330
30F
330
310
330
311
330
312
330
313
330
314
330
315
330
316
330
317
330
318
330
319
330
31A
330
31B
330
31C
330
31D
330
31E
330
31F
330
320
330
321
330
322
330
323
330
324
330
325
330
326
330
327
330
328
330
329
330
32A
330
32B
330
32C
330
32D
330
32E
330
32F
330
330
330
331
330
332
330
333
330
334
330
335
330
336
330
337
330
338
330
339
330
33A
330
33B
330
33C
330
33D
330
33E
330
33F
330
340
330
341
330
342
330
343
330
344
330
345
330
346
330
347
330
348
330
349
330
34A
330
34B
330
34C
330
34D
330
34E
330
34F
330
350
330
351
330
352
330
353
330
354
330
355
330
356
330
357
330
358
330
359
330
35A
330
35B
330
35C
330
35D
330
35E
330
35F
330
360
330
361
330
362
330
363
330
364
330
365
330
366
330
367
330
368
330
369
330
36A
330
36B
330
36C
330
36D
330
36E
330
36F
330
370
330
371
330
372
330
373
330
374
330
375
330
376
330
377
330
378
330
379
330
37A
330
37B
330
37C
330
37D
330
37E
330
37F
330
380
330
381
330
382
330
383
330
384
330
385
330
386
330
387
330
388
330
389
330
38A
330
38B
330
38C
330
38D
330
38E
330
38F
330
390
330
391
330
392
330
393
330
394
330
395
330
396
330
397
330
398
330
399
330
39A
330
39B
330
39C
330
39D
330
39E
330
39F
330
3A0
330
3A1
330
3A2
330
3A3
330
3A4
330
3A5
330
3A6
330
3A7
330
3A8
330
3A9
330
3AA
330
3AB
330
3AC
330
3AD
330
3AE
330
3AF
330
3B0
330
3B1
330
3B2
330
3B3
330
3B4
 92
1
 93
6
 72
2
 10
12.3362731456
 20
2.5586198506
 40
0.0086625048
 50
270.0
 51
90.0
 73
1
 72
1
 10
12.3362731456
 20
2.5672823554
 11
12.2949101227
 21
2.5672823554
 72
2
 10
12.2949101208
 20
2.5648073559
 40
0.0024749995
 50
89.9999571957
 51
180.0000428043
 73
1
 72
1
 10
12.2924351213
 20
2.564807354
 11
12.2924351213
 21
2.5524323472
 72
2
 10
12.2949101208
 20
2.5524323453
 40
0.0024749995
 50
179.9999571957
 51
270.0000428043
 73
1
 72
1
 10
12.2949101227
 20
2.5499573458
 11
12.3362731456
 21
2.5499573458
 97
267
330
2AA
330
2AB
330
2AC
330
2AD
330
2AE
330
2AF
330
2B0
330
2B1
330
2B2
330
2B3
330
2B4
330
2B5
330
2B6
330
2B7
330
2B8
330
2B9
330
2BA
330
2BB
330
2BC
330
2BD
330
2BE
330
2BF
330
2C0
330
2C1
330
2C2
330
2C3
330
2C4
330
2C5
330
2C6
330
2C7
330
2C8
330
2C9
330
2CA
330
2CB
330
2CC
330
2CD
330
2CE
330
2CF
330
2D0
330
2D1
330
2D2
330
2D3
330
2D4
330
2D5
330
2D6
330
2D7
330
2D8
330
2D9
330
2DA
330
2DB
330
2DC
330
2DD
330
2DE
330
2DF
330
2E0
330
2E1
330
2E2
330
2E3
330
2E4
330
2E5
330
2E6
330
2E7
330
2E8
330
2E9
330
2EA
330
2EB
330
2EC
330
2ED
330
2EE
330
2EF
330
2F0
330
2F1
330
2F2
330
2F3
330
2F4
330
2F5
330
2F6
330
2F7
330
2F8
330
2F9
330
2FA
330
2FB
330
2FC
330
2FD
330
2FE
330
2FF
330
300
330
301
330
302
330
303
330
304
330
305
330
306
330
307
330
308
330
309
330
30A
330
30B
330
30C
330
30D
330
30E
330
30F
330
310
330
311
330
312
330
313
330
314
330
315
330
316
330
317
330
318
330
319
330
31A
330
31B
330
31C
330
31D
330
31E
330
31F
330
320
330
321
330
322
330
323
330
324
330
325
330
326
330
327
330
328
330
329
330
32A
330
32B
330
32C
330
32D
330
32E
330
32F
330
330
330
331
330
332
330
333
330
334
330
335
330
336
330
337
330
338
330
339
330
33A
330
33B
330
33C
330
33D
330
33E
330
33F
330
340
330
341
330
342
330
343
330
344
330
345
330
346
330
347
330
348
330
349
330
34A
330
34B
330
34C
330
34D
330
34E
330
34F
330
350
330
351
330
352
330
353
330
354
330
355
330
356
330
357
330
358
330
359
330
35A
330
35B
330
35C
330
35D
330
35E
330
35F
330
360
330
361
330
362
330
363
330
364
330
365
330
366
330
367
330
368
330
369
330
36A
330
36B
330
36C
330
36D
330
36E
330
36F
330
370
330
371
330
372
330
373
330
374
330
375
330
376
330
377
330
378
330
379
330
37A
330
37B
330
37C
330
37D
330
37E
330
37F
330
380
330
381
330
382
330
383
330
384
330
385
330
386
330
387
330
388
330
389
330
38A
330
38B
330
38C
330
38D
330
38E
330
38F
330
390
330
391
330
392
330
393
330
394
330
395
330
396
330
397
330
398
330
399
330
39A
330
39B
330
39C
330
39D
330
39E
330
39F
330
3A0
330
3A1
330
3A2
330
3A3
330
3A4
330
3A5
330
3A6
330
3A7
330
3A8
330
3A9
330
3AA
330
3AB
330
3AC
330
3AD
330
3AE
330
3AF
330
3B0
330
3B1
330
3B2
330
3B3
330
3B4
 92
1
 93
8
 72
2
 10
12.5401702375
 20
2.5530465533
 40
0.0024752071
 50
270.0004896793
 51
32.9089806818
 73
1
 72
1
 10
12.5422482598
 20
2.5543913483
 11
12.5349892558
 21
2.5656073545
 72
2
 10
12.532910715
 20
2.564262895
 40
0.0024754602
 50
32.8959418573
 51
89.9875097202
 73
1
 72
1
 10
12.5329112547
 20
2.5667383551
 11
12.5267302512
 21
2.5667383551
 72
2
 10
12.5267301809
 20
2.5642631548
 40
0.0024752003
 50
89.998372645
 51
147.602165307
 73
1
 72
1
 10
12.5246402501
 20
2.5655893545
 11
12.5175232461
 21
2.5543723483
 72
2
 10
12.519613138
 20
2.5530463862
 40
0.0024750401
 50
147.6063258012
 51
270.0025305754
 73
1
 72
1
 10
12.5196132473
 20
2.5505713461
 11
12.5401702587
 21
2.5505713461
 97
267
330
2AA
330
2AB
330
2AC
330
2AD
330
2AE
330
2AF
330
2B0
330
2B1
330
2B2
330
2B3
330
2B4
330
2B5
330
2B6
330
2B7
330
2B8
330
2B9
330
2BA
330
2BB
330
2BC
330
2BD
330
2BE
330
2BF
330
2C0
330
2C1
330
2C2
330
2C3
330
2C4
330
2C5
330
2C6
330
2C7
330
2C8
330
2C9
330
2CA
330
2CB
330
2CC
330
2CD
330
2CE
330
2CF
330
2D0
330
2D1
330
2D2
330
2D3
330
2D4
330
2D5
330
2D6
330
2D7
330
2D8
330
2D9
330
2DA
330
2DB
330
2DC
330
2DD
330
2DE
330
2DF
330
2E0
330
2E1
330
2E2
330
2E3
330
2E4
330
2E5
330
2E6
330
2E7
330
2E8
330
2E9
330
2EA
330
2EB
330
2EC
330
2ED
330
2EE
330
2EF
330
2F0
330
2F1
330
2F2
330
2F3
330
2F4
330
2F5
330
2F6
330
2F7
330
2F8
330
2F9
330
2FA
330
2FB
330
2FC
330
2FD
330
2FE
330
2FF
330
300
330
301
330
302
330
303
330
304
330
305
330
306
330
307
330
308
330
309
330
30A
330
30B
330
30C
330
30D
330
30E
330
30F
330
310
330
311
330
312
330
313
330
314
330
315
330
316
330
317
330
318
330
319
330
31A
330
31B
330
31C
330
31D
330
31E
330
31F
330
320
330
321
330
322
330
323
330
324
330
325
330
326
330
327
330
328
330
329
330
32A
330
32B
330
32C
330
32D
330
32E
330
32F
330
330
330
331
330
332
330
333
330
334
330
335
330
336
330
337
330
338
330
339
330
33A
330
33B
330
33C
330
33D
330
33E
330
33F
330
340
330
341
330
342
330
343
330
344
330
345
330
346
330
347
330
348
330
349
330
34A
330
34B
330
34C
330
34D
330
34E
330
34F
330
350
330
351
330
352
330
353
330
354
330
355
330
356
330
357
330
358
330
359
330
35A
330
35B
330
35C
330
35D
330
35E
330
35F
330
360
330
361
330
362
330
363
330
364
330
365
330
366
330
367
330
368
330
369
330
36A
330
36B
330
36C
330
36D
330
36E
330
36F
330
370
330
371
330
372
330
373
330
374
330
375
330
376
330
377
330
378
330
379
330
37A
330
37B
330
37C
330
37D
330
37E
330
37F
330
380
330
381
330
382
330
383
330
384
330
385
330
386
330
387
330
388
330
389
330
38A
330
38B
330
38C
330
38D
330
38E
330
38F
330
390
330
391
330
392
330
393
330
394
330
395
330
396
330
397
330
398
330
399
330
39A
330
39B
330
39C
330
39D
330
39E
330
39F
330
3A0
330
3A1
330
3A2
330
3A3
330
3A4
330
3A5
330
3A6
330
3A7
330
3A8
330
3A9
330
3AA
330
3AB
330
3AC
330
3AD
330
3AE
330
3AF
330
3B0
330
3B1
330
3B2
330
3B3
330
3B4
 92
1
 93
1
 72
3
 10
12.9046654608
 20
2.5403783405
 11
-0.8250004575
 21
0.0
 40
0.218572
 50
0.0
 51
-0.0
 73
1
 97
267
330
2AA
330
2AB
330
2AC
330
2AD
330
2AE
330
2AF
330
2B0
330
2B1
330
2B2
330
2B3
330
2B4
330
2B5
330
2B6
330
2B7
330
2B8
330
2B9
330
2BA
330
2BB
330
2BC
330
2BD
330
2BE
330
2BF
330
2C0
330
2C1
330
2C2
330
2C3
330
2C4
330
2C5
330
2C6
330
2C7
330
2C8
330
2C9
330
2CA
330
2CB
330
2CC
330
2CD
330
2CE
330
2CF
330
2D0
330
2D1
330
2D2
330
2D3
330
2D4
330
2D5
330
2D6
330
2D7
330
2D8
330
2D9
330
2DA
330
2DB
330
2DC
330
2DD
330
2DE
330
2DF
330
2E0
330
2E1
330
2E2
330
2E3
330
2E4
330
2E5
330
2E6
330
2E7
330
2E8
330
2E9
330
2EA
330
2EB
330
2EC
330
2ED
330
2EE
330
2EF
330
2F0
330
2F1
330
2F2
330
2F3
330
2F4
330
2F5
330
2F6
330
2F7
330
2F8
330
2F9
330
2FA
330
2FB
330
2FC
330
2FD
330
2FE
330
2FF
330
300
330
301
330
302
330
303
330
304
330
305
330
306
330
307
330
308
330
309
330
30A
330
30B
330
30C
330
30D
330
30E
330
30F
330
310
330
311
330
312
330
313
330
314
330
315
330
316
330
317
330
318
330
319
330
31A
330
31B
330
31C
330
31D
330
31E
330
31F
330
320
330
321
330
322
330
323
330
324
330
325
330
326
330
327
330
328
330
329
330
32A
330
32B
330
32C
330
32D
330
32E
330
32F
330
330
330
331
330
332
330
333
330
334
330
335
330
336
330
337
330
338
330
339
330
33A
330
33B
330
33C
330
33D
330
33E
330
33F
330
340
330
341
330
342
330
343
330
344
330
345
330
346
330
347
330
348
330
349
330
34A
330
34B
330
34C
330
34D
330
34E
330
34F
330
350
330
351
330
352
330
353
330
354
330
355
330
356
330
357
330
358
330
359
330
35A
330
35B
330
35C
330
35D
330
35E
330
35F
330
360
330
361
330
362
330
363
330
364
330
365
330
366
330
367
330
368
330
369
330
36A
330
36B
330
36C
330
36D
330
36E
330
36F
330
370
330
371
330
372
330
373
330
374
330
375
330
376
330
377
330
378
330
379
330
37A
330
37B
330
37C
330
37D
330
37E
330
37F
330
380
330
381
330
382
330
383
330
384
330
385
330
386
330
387
330
388
330
389
330
38A
330
38B
330
38C
330
38D
330
38E
330
38F
330
390
330
391
330
392
330
393
330
394
330
395
330
396
330
397
330
398
330
399
330
39A
330
39B
330
39C
330
39D
330
39E
330
39F
330
3A0
330
3A1
330
3A2
330
3A3
330
3A4
330
3A5
330
3A6
330
3A7
330
3A8
330
3A9
330
3AA
330
3AB
330
3AC
330
3AD
330
3AE
330
3AF
330
3B0
330
3B1
330
3B2
330
3B3
330
3B4
 75
0
 76
1
 98
1
 10
0.0
 20
0.0
  0
LINE
  5
3B6
100
AcDbEntity
  8
0
100
AcDbLine
 62
7
  6
CONTINUOUS
 10
8.5
 20
10.112
 11
8.586603
 21
10.262
  0
LINE
  5
3B7
100
AcDbEntity
  8
0
100
AcDbLine
 62
7
  6
CONTINUOUS
 10
16.38
 20
2.807
 11
10.03
 21
2.807
  0
LINE
  5
3B8
100
AcDbEntity
  8
0
100
AcDbLine
 62
7
  6
CONTINUOUS
 10
0.62
 20
3.1995
 11
0.37
 21
3.1995
  0
LINE
  5
3B9
100
AcDbEntity
  8
0
100
AcDbLine
 62
7
  6
CONTINUOUS
 10
16.38
 20
3.1995
 11
16.63
 21
3.1995
  0
LINE
  5
3BA
100
AcDbEntity
  8
0
100
AcDbLine
 62
7
  6
CONTINUOUS
 10
8.586603
 20
0.737
 11
8.5
 21
0.887
  0
LINE
  5
3BB
100
AcDbEntity
  8
0
100
AcDbLine
 62
7
  6
CONTINUOUS
 10
6.53
 20
0.887
 11
6.53
 21
0.637
  0
LINE
  5
3BC
100
AcDbEntity
  8
0
100
AcDbLine
 62
7
  6
CONTINUOUS
 10
6.53
 20
10.112
 11
6.53
 21
10.362
  0
LINE
  5
3BD
100
AcDbEntity
  8
0
100
AcDbLine
 62
7
  6
CONTINUOUS
 10
8.5
 20
0.887
 11
8.5
 21
0.637
  0
LINE
  5
3BE
100
AcDbEntity
  8
0
100
AcDbLine
 62
7
  6
CONTINUOUS
 10
8.5
 20
10.112
 11
8.5
 21
10.362
  0
LINE
  5
3BF
100
AcDbEntity
  8
0
100
AcDbLine
 62
7
  6
CONTINUOUS
 10
0.62
 20
5.4995
 11
0.37
 21
5.4995
  0
LINE
  5
3C0
100
AcDbEntity
  8
0
100
AcDbLine
 62
7
  6
CONTINUOUS
 10
16.38
 20
5.4995
 11
16.63
 21
5.4995
  0
LINE
  5
3C1
100
AcDbEntity
  8
0
100
AcDbLine
 62
7
  6
CONTINUOUS
 10
10.03
 20
2.807
 11
10.03
 21
0.887
  0
LINE
  5
3C2
100
AcDbEntity
  8
0
100
AcDbLine
 62
7
  6
CONTINUOUS
 10
10.47
 20
0.887
 11
10.47
 21
0.637
  0
LINE
  5
3C3
100
AcDbEntity
  8
0
100
AcDbLine
 62
7
  6
CONTINUOUS
 10
10.47
 20
10.112
 11
10.47
 21
10.362
  0
LINE
  5
3C4
100
AcDbEntity
  8
0
100
AcDbLine
 62
7
  6
CONTINUOUS
 10
10.5342808475
 20
1.143294839
 11
10.5342808475
 21
0.921203839
  0
LINE
  5
3C5
100
AcDbEntity
  8
0
100
AcDbLine
 62
7
  6
CONTINUOUS
 10
10.5342808475
 20
1.193294839
 11
10.5342808475
 21
1.293294839
  0
LINE
  5
3C6
100
AcDbEntity
  8
0
100
AcDbLine
 62
7
  6
CONTINUOUS
 10
10.5342808475
 20
1.343294839
 11
10.5342808475
 21
1.565385839
  0
LINE
  5
3C7
100
AcDbEntity
  8
0
100
AcDbLine
 62
7
  6
CONTINUOUS
 10
8.5
 20
0.887
 11
8.413397
 21
0.737
  0
LINE
  5
3C8
100
AcDbEntity
  8
0
100
AcDbLine
 62
7
  6
CONTINUOUS
 10
0.62
 20
7.7995
 11
0.37
 21
7.7995
  0
LINE
  5
3C9
100
AcDbEntity
  8
0
100
AcDbLine
 62
7
  6
CONTINUOUS
 10
16.38
 20
7.7995
 11
16.63
 21
7.7995
  0
LINE
  5
3CA
100
AcDbEntity
  8
0
100
AcDbLine
 62
7
  6
CONTINUOUS
 10
8.413397
 20
10.262
 11
8.5
 21
10.112
  0
LINE
  5
3CB
100
AcDbEntity
  8
0
100
AcDbLine
 62
7
  6
CONTINUOUS
 10
11.1389508475
 20
1.060596839
 11
11.1389508475
 21
1.425992839
  0
LINE
  5
3CC
100
AcDbEntity
  8
0
100
AcDbLine
 62
7
  6
CONTINUOUS
 10
11.7453418475
 20
1.495385839
 11
11.7453418475
 21
0.991203839
  0
LINE
  5
3CD
100
AcDbEntity
  8
0
100
AcDbLine
 62
7
  6
CONTINUOUS
 10
12.44
 20
0.887
 11
12.44
 21
0.637
  0
LINE
  5
3CE
100
AcDbEntity
  8
0
100
AcDbLine
 62
7
  6
CONTINUOUS
 10
12.44
 20
10.112
 11
12.44
 21
10.362
  0
LINE
  5
3CF
100
AcDbEntity
  8
0
100
AcDbLine
 62
7
  6
CONTINUOUS
 10
16.53
 20
5.586103
 11
16.38
 21
5.4995
  0
LINE
  5
3D0
100
AcDbEntity
  8
0
100
AcDbLine
 62
7
  6
CONTINUOUS
 10
16.38
 20
5.4995
 11
16.53
 21
5.412897
  0
LINE
  5
3D1
100
AcDbEntity
  8
0
100
AcDbLine
 62
7
  6
CONTINUOUS
 10
12.83
 20
1.507
 11
12.83
 21
1.137
  0
LINE
  5
3D2
100
AcDbEntity
  8
0
100
AcDbLine
 62
7
  6
CONTINUOUS
 10
16.38
 20
10.112
 11
0.62
 21
10.112
  0
LINE
  5
3D3
100
AcDbEntity
  8
0
100
AcDbLine
 62
7
  6
CONTINUOUS
 10
8.586603
 20
10.262
 11
8.413397
 21
10.262
  0
LINE
  5
3D4
100
AcDbEntity
  8
0
100
AcDbLine
 62
7
  6
CONTINUOUS
 10
14.205
 20
1.137
 11
14.205
 21
0.887
  0
LINE
  5
3D5
100
AcDbEntity
  8
0
100
AcDbLine
 62
7
  6
CONTINUOUS
 10
14.41
 20
0.887
 11
14.41
 21
0.637
  0
LINE
  5
3D6
100
AcDbEntity
  8
0
100
AcDbLine
 62
7
  6
CONTINUOUS
 10
14.41
 20
10.112
 11
14.41
 21
10.362
  0
LINE
  5
3D7
100
AcDbEntity
  8
0
100
AcDbLine
 62
7
  6
CONTINUOUS
 10
15.58
 20
1.507
 11
15.58
 21
1.137
  0
LINE
  5
3D8
100
AcDbEntity
  8
0
100
AcDbLine
 62
7
  6
CONTINUOUS
 10
16.38
 20
0.887
 11
16.38
 21
10.112
  0
LINE
  5
3D9
100
AcDbEntity
  8
0
100
AcDbLine
 62
7
  6
CONTINUOUS
 10
16.53
 20
5.412897
 11
16.53
 21
5.586103
  0
LINE
  5
3DA
100
AcDbEntity
  8
02___PRT_ALL_AXES
100
AcDbLine
 62
7
  6
CONTINUOUS
 10
5.881613179
 20
6.2074390732
 11
5.881613179
 21
5.4939385349
  0
LINE
  5
3DB
100
AcDbEntity
  8
02___PRT_ALL_AXES
100
AcDbLine
 62
7
  6
CONTINUOUS
 10
6.7989360137
 20
4.8664368356
 11
7.2713769586
 21
4.8664368356
  0
LWPOLYLINE
  5
3DC
100
AcDbEntity
  8
0
100
AcDbPolyline
 62
7
  6
CONTINUOUS
 90
6
 70
0
 10
8.0587785334
 20
5.3101073383
 10
8.0709439728
 20
5.3119970051
 10
8.0819193729
 20
5.3174815354
 10
8.0906295037
 20
5.3260240458
 10
8.096221679
 20
5.3367881653
 10
8.0981486121
 20
5.3487203001
  0
LINE
  5
3DD
100
AcDbEntity
  8
0
100
AcDbLine
 62
7
  6
CONTINUOUS
 10
7.350117116
 20
5.3093502214
 11
7.450976977
 21
5.3093502214
  0
LINE
  5
3DE
100
AcDbEntity
  8
02___PRT_ALL_AXES
100
AcDbLine
 62
7
  6
CONTINUOUS
 10
7.450976977
 20
5.3093502214
 11
7.9898549298
 21
5.3093502214
  0
LINE
  5
3DF
100
AcDbEntity
  8
0
100
AcDbLine
 62
7
  6
CONTINUOUS
 10
7.9898549298
 20
5.3093502214
 11
8.0587785334
 21
5.3093502214
  0
LINE
  5
3E0
100
AcDbEntity
  8
0
100
AcDbLine
 62
7
  6
CONTINUOUS
 10
7.350117116
 20
5.3101073383
 11
7.4323903492
 21
5.3101073383
  0
LINE
  5
3E1
100
AcDbEntity
  8
0
100
AcDbLine
 62
7
  6
CONTINUOUS
 10
8.012182888
 20
5.3101073383
 11
8.0587785334
 21
5.3101073383
  0
LINE
  5
3E2
100
AcDbEntity
  8
02___PRT_ALL_AXES
100
AcDbLine
 62
7
  6
CONTINUOUS
 10
6.7989360137
 20
6.8349407726
 11
6.7989360137
 21
4.8664368356
  0
LINE
  5
3E3
100
AcDbEntity
  8
02___PRT_ALL_AXES
100
AcDbLine
 62
7
  6
CONTINUOUS
 10
8.0981486121
 20
5.5981848671
 11
8.1255609857
 21
5.6039167944
  0
LINE
  5
3E4
100
AcDbEntity
  8
02___PRT_ALL_AXES
100
AcDbLine
 62
7
  6
CONTINUOUS
 10
8.1497350116
 20
5.6064171505
 11
8.1768887696
 21
5.6064171505
  0
LINE
  5
3E5
100
AcDbEntity
  8
02___PRT_ALL_AXES
100
AcDbLine
 62
7
  6
CONTINUOUS
 10
8.2123218405
 20
5.6064171505
 11
8.2162588483
 21
5.6064171505
  0
LINE
  5
3E6
100
AcDbEntity
  8
02___PRT_ALL_AXES
100
AcDbLine
 62
7
  6
CONTINUOUS
 10
8.2516919192
 20
5.6064171505
 11
8.2556289271
 21
5.6064171505
  0
LINE
  5
3E7
100
AcDbEntity
  8
02___PRT_ALL_AXES
100
AcDbLine
 62
7
  6
CONTINUOUS
 10
8.2910619979
 20
5.6064171505
 11
8.2949990058
 21
5.6064171505
  0
LINE
  5
3E8
100
AcDbEntity
  8
02___PRT_ALL_AXES
100
AcDbLine
 62
7
  6
CONTINUOUS
 10
8.3304320767
 20
5.6064171505
 11
8.3343690846
 21
5.6064171505
  0
LINE
  5
3E9
100
AcDbEntity
  8
02___PRT_ALL_AXES
100
AcDbLine
 62
7
  6
CONTINUOUS
 10
8.3698021554
 20
5.6064171505
 11
8.3737391633
 21
5.6064171505
  0
LINE
  5
3EA
100
AcDbEntity
  8
02___PRT_ALL_AXES
100
AcDbLine
 62
7
  6
CONTINUOUS
 10
8.4091722342
 20
5.6064171505
 11
8.413109242
 21
5.6064171505
  0
LINE
  5
3EB
100
AcDbEntity
  8
02___PRT_ALL_AXES
100
AcDbLine
 62
7
  6
CONTINUOUS
 10
8.4485423129
 20
5.6064171505
 11
8.4524793208
 21
5.6064171505
  0
LINE
  5
3EC
100
AcDbEntity
  8
02___PRT_ALL_AXES
100
AcDbLine
 62
7
  6
CONTINUOUS
 10
8.4879123916
 20
5.6064171505
 11
8.4918493995
 21
5.6064171505
  0
LINE
  5
3ED
100
AcDbEntity
  8
0
100
AcDbLine
 62
7
  6
CONTINUOUS
 10
8.5312194783
 20
5.6469486466
 11
8.570589557
 21
5.6469486466
  0
LWPOLYLINE
  5
3EE
100
AcDbEntity
  8
0
100
AcDbPolyline
 62
7
  6
CONTINUOUS
 90
3
 70
0
 10
8.0127202458
 20
5.3093502214
 10
8.0123499665
 20
5.3095406784
 10
8.012182888
 20
5.3101073383
  0
LINE
  5
3EF
100
AcDbEntity
  8
0
100
AcDbLine
 62
7
  6
CONTINUOUS
 10
7.2713769586
 20
4.8664368356
 11
7.2713769586
 21
6.8349407726
  0
LINE
  5
3F0
100
AcDbEntity
  8
0
100
AcDbLine
 62
7
  6
CONTINUOUS
 10
7.3107470373
 20
4.9058069143
 11
7.3107470373
 21
6.7955706938
  0
LINE
  5
3F1
100
AcDbEntity
  8
0
100
AcDbLine
 62
7
  6
CONTINUOUS
 10
7.350117116
 20
6.3920273867
 11
7.350117116
 21
5.3093502214
  0
LWPOLYLINE
  5
3F2
100
AcDbEntity
  8
02___PRT_ALL_AXES
100
AcDbPolyline
 62
7
  6
CONTINUOUS
 90
10
 70
0
 10
7.4807541888
 20
5.3093502214
 10
7.4793043637
 20
5.3317103227
 10
7.4778640452
 20
5.36612883
 10
7.4764349679
 20
5.4115055832
 10
7.4749902199
 20
5.4676762803
 10
7.4735288706
 20
5.5336749465
 10
7.4720696485
 20
5.607209833
 10
7.4706287113
 20
5.6855783789
 10
7.4691927625
 20
5.7675308257
 10
7.466320496
 20
5.9353145171
  0
LWPOLYLINE
  5
3F3
100
AcDbEntity
  8
0
100
AcDbPolyline
 62
7
  6
CONTINUOUS
 90
9
 70
0
 10
7.4065552812
 20
6.3912702698
 10
7.4079818678
 20
6.3687900418
 10
7.4094063058
 20
6.3344571967
 10
7.4108330518
 20
6.2889521266
 10
7.4122700807
 20
6.2329333315
 10
7.413723999
 20
6.1671861014
 10
7.4151755846
 20
6.0940032506
 10
7.4166090451
 20
6.0160425765
 10
7.4180318755
 20
5.934859295
  0
LWPOLYLINE
  5
3F4
100
AcDbEntity
  8
02___PRT_ALL_AXES
100
AcDbPolyline
 62
7
  6
CONTINUOUS
 90
16
 70
0
 10
7.450976977
 20
5.3093502214
 10
7.4495040612
 20
5.3512532931
 10
7.4480311453
 20
5.4053966338
 10
7.4465582295
 20
5.4704532871
 10
7.4450853136
 20
5.5448288311
 10
7.4436123978
 20
5.6267004547
 10
7.4421394819
 20
5.714061631
 10
7.4406665661
 20
5.8047712944
 10
7.4391936503
 20
5.8966063137
 10
7.4377207344
 20
5.9873159771
 10
7.4362478186
 20
6.0746771535
 10
7.4347749027
 20
6.156548777
 10
7.4333019869
 20
6.230924321
 10
7.431829071
 20
6.2959809743
 10
7.4303561552
 20
6.350124315
 10
7.4288832393
 20
6.3920273867
  0
LWPOLYLINE
  5
3F5
100
AcDbEntity
  8
02___PRT_ALL_AXES
100
AcDbPolyline
 62
7
  6
CONTINUOUS
 90
16
 70
0
 10
7.4583588668
 20
5.3093502214
 10
7.4568859509
 20
5.3512532931
 10
7.4554130351
 20
5.4053966338
 10
7.4539401192
 20
5.4704532871
 10
7.4524672034
 20
5.5448288311
 10
7.4509942875
 20
5.6267004547
 10
7.4495213717
 20
5.714061631
 10
7.4480484559
 20
5.8047712944
 10
7.44657554
 20
5.8966063137
 10
7.4451026242
 20
5.9873159771
 10
7.4436297083
 20
6.0746771535
 10
7.4421567925
 20
6.156548777
 10
7.4406838766
 20
6.230924321
 10
7.4392109608
 20
6.2959809743
 10
7.4377380449
 20
6.350124315
 10
7.4362651291
 20
6.3920273867
  0
LWPOLYLINE
  5
3F6
100
AcDbEntity
  8
0
100
AcDbPolyline
 62
7
  6
CONTINUOUS
 90
10
 70
0
 10
7.4180318755
 20
5.934859295
 10
7.420889279
 20
5.7679371021
 10
7.4223177763
 20
5.6863875684
 10
7.4237510867
 20
5.6083724744
 10
7.4252025813
 20
5.5351067727
 10
7.4266565418
 20
5.4692481357
 10
7.4280942627
 20
5.4130776817
 10
7.4295160062
 20
5.3675772137
 10
7.4309484476
 20
5.332894708
 10
7.4323903492
 20
5.3101073383
  0
LWPOLYLINE
  5
3F7
100
AcDbEntity
  8
0
100
AcDbPolyline
 62
7
  6
CONTINUOUS
 90
6
 70
0
 10
7.3107470373
 20
5.2714943764
 10
7.3126739461
 20
5.2834264378
 10
7.3182660533
 20
5.2941905059
 10
7.3269759644
 20
5.3027329188
 10
7.3379510927
 20
5.3082174854
 10
7.350117116
 20
5.3101073383
  0
LINE
  5
3F8
100
AcDbEntity
  8
0
100
AcDbLine
 62
7
  6
CONTINUOUS
 10
8.5030925057
 20
6.0874062712
 11
8.503274315
 21
6.0874726011
  0
LINE
  5
3F9
100
AcDbEntity
  8
0
100
AcDbLine
 62
7
  6
CONTINUOUS
 10
8.5312194783
 20
6.0544289615
 11
8.570589557
 21
6.0544289615
  0
LINE
  5
3FA
100
AcDbEntity
  8
0
100
AcDbLine
 62
7
  6
CONTINUOUS
 10
8.5155622359
 20
5.6264548066
 11
8.5157541289
 21
5.6263848236
  0
LWPOLYLINE
  5
3FB
100
AcDbEntity
  8
0
100
AcDbPolyline
 62
7
  6
CONTINUOUS
 90
6
 70
0
 10
7.3107470373
 20
6.4298832317
 10
7.3126739461
 20
6.4179511704
 10
7.3182660532
 20
6.4071871022
 10
7.3269759644
 20
6.3986446893
 10
7.3379510927
 20
6.3931601227
 10
7.350117116
 20
6.3912702698
  0
LWPOLYLINE
  5
3FC
100
AcDbEntity
  8
02___PRT_ALL_AXES
100
AcDbPolyline
 62
7
  6
CONTINUOUS
 90
9
 70
0
 10
7.598864425
 20
5.3093502214
 10
7.5974299092
 20
5.3314086348
 10
7.5959982411
 20
5.3654607743
 10
7.5945643064
 20
5.4108296126
 10
7.5931201431
 20
5.4668469044
 10
7.5916587781
 20
5.5327319565
 10
7.5901993093
 20
5.6061884008
 10
7.5887580173
 20
5.6845117661
 10
7.5873274695
 20
5.7661124965
  0
LWPOLYLINE
  5
3FD
100
AcDbEntity
  8
02___PRT_ALL_AXES
100
AcDbPolyline
 62
7
  6
CONTINUOUS
 90
10
 70
0
 10
7.5245981535
 20
6.3920273867
 10
7.5260476155
 20
6.3696744579
 10
7.5274874024
 20
6.3352737816
 10
7.5289165519
 20
6.2899011691
 10
7.5303614734
 20
6.2337286973
 10
7.5318229566
 20
6.1677273725
 10
7.5332822351
 20
6.0941919087
 10
7.5347232259
 20
6.0158218933
 10
7.5361591305
 20
5.933872826
 10
7.5390309937
 20
5.7661124965
  0
LWPOLYLINE
  5
3FE
100
AcDbEntity
  8
02___PRT_ALL_AXES
100
AcDbPolyline
 62
7
  6
CONTINUOUS
 90
9
 70
0
 10
7.4655430354
 20
6.3920273867
 10
7.4670037091
 20
6.3694526685
 10
7.4684599114
 20
6.3344996962
 10
7.4698981755
 20
6.2885960476
 10
7.4713315191
 20
6.2326662134
 10
7.4727672761
 20
6.1677543504
 10
7.4741963968
 20
6.0958067942
 10
7.4756272851
 20
6.0181043335
 10
7.4770686047
 20
5.9359248667
  0
LWPOLYLINE
  5
3FF
100
AcDbEntity
  8
02___PRT_ALL_AXES
100
AcDbPolyline
 62
7
  6
CONTINUOUS
 90
9
 70
0
 10
7.5398093069
 20
5.3093502214
 10
7.5383486547
 20
5.331924515
 10
7.5368923951
 20
5.3668789171
 10
7.5354540655
 20
5.4127851705
 10
7.5340205506
 20
5.4687229204
 10
7.5325844133
 20
5.5336545761
 10
7.5311553537
 20
5.6056019006
 10
7.5297246237
 20
5.6832975006
 10
7.5282833622
 20
5.7654744939
  0
LWPOLYLINE
  5
400
100
AcDbEntity
  8
02___PRT_ALL_AXES
100
AcDbPolyline
 62
7
  6
CONTINUOUS
 90
16
 70
0
 10
7.5100320951
 20
5.3093502214
 10
7.5085591793
 20
5.3512532931
 10
7.5070862634
 20
5.4053966338
 10
7.5056133476
 20
5.4704532871
 10
7.5041404317
 20
5.5448288311
 10
7.5026675159
 20
5.6267004547
 10
7.5011946001
 20
5.714061631
 10
7.4997216842
 20
5.8047712944
 10
7.4982487684
 20
5.8966063137
 10
7.4967758525
 20
5.9873159771
 10
7.4953029367
 20
6.0746771535
 10
7.4938300208
 20
6.156548777
 10
7.492357105
 20
6.230924321
 10
7.4908841891
 20
6.2959809743
 10
7.4894112733
 20
6.350124315
 10
7.4879383574
 20
6.3920273867
  0
LWPOLYLINE
  5
401
100
AcDbEntity
  8
02___PRT_ALL_AXES
100
AcDbPolyline
 62
7
  6
CONTINUOUS
 90
5
 70
0
 10
7.5174139849
 20
5.3093502214
 10
7.515941069
 20
5.3512532931
 10
7.5144681532
 20
5.4053966338
 10
7.5129952373
 20
5.4704532871
 10
7.5115223215
 20
5.5448288311
  0
LWPOLYLINE
  5
402
100
AcDbEntity
  8
02___PRT_ALL_AXES
100
AcDbPolyline
 62
7
  6
CONTINUOUS
 90
16
 70
0
 10
7.5690872132
 20
5.3093502214
 10
7.5676142974
 20
5.3512532931
 10
7.5661413815
 20
5.4053966338
 10
7.5646684657
 20
5.4704532871
 10
7.5631955499
 20
5.5448288311
 10
7.561722634
 20
5.6267004547
 10
7.5602497182
 20
5.714061631
 10
7.5587768023
 20
5.8047712944
 10
7.5573038865
 20
5.8966063137
 10
7.5558309706
 20
5.9873159771
 10
7.5543580548
 20
6.0746771535
 10
7.5528851389
 20
6.156548777
 10
7.5514122231
 20
6.230924321
 10
7.5499393072
 20
6.2959809743
 10
7.5484663914
 20
6.350124315
 10
7.5469934756
 20
6.3920273867
  0
LWPOLYLINE
  5
403
100
AcDbEntity
  8
02___PRT_ALL_AXES
100
AcDbPolyline
 62
7
  6
CONTINUOUS
 90
16
 70
0
 10
7.576469103
 20
5.3093502214
 10
7.5749961871
 20
5.3512532931
 10
7.5735232713
 20
5.4053966338
 10
7.5720503555
 20
5.4704532871
 10
7.5705774396
 20
5.5448288311
 10
7.5691045238
 20
5.6267004547
 10
7.5676316079
 20
5.714061631
 10
7.5661586921
 20
5.8047712944
 10
7.5646857762
 20
5.8966063137
 10
7.5632128604
 20
5.9873159771
 10
7.5617399445
 20
6.0746771535
 10
7.5602670287
 20
6.156548777
 10
7.5587941129
 20
6.230924321
 10
7.557321197
 20
6.2959809743
 10
7.5558482812
 20
6.350124315
 10
7.5543753653
 20
6.3920273867
  0
LWPOLYLINE
  5
404
100
AcDbEntity
  8
02___PRT_ALL_AXES
100
AcDbPolyline
 62
7
  6
CONTINUOUS
 90
4
 70
0
 10
7.5115223215
 20
5.5448288311
 10
7.5100494057
 20
5.6267004547
 10
7.5085764898
 20
5.714061631
 10
7.507103574
 20
5.8047712944
  0
LWPOLYLINE
  5
405
100
AcDbEntity
  8
02___PRT_ALL_AXES
100
AcDbPolyline
 62
7
  6
CONTINUOUS
 90
9
 70
0
 10
7.466320496
 20
5.9353145171
 10
7.4648902017
 20
6.0168993385
 10
7.4634490748
 20
6.0952120142
 10
7.4619897575
 20
6.1686591832
 10
7.4605284636
 20
6.2345396028
 10
7.4590843479
 20
6.2905537832
 10
7.4576503759
 20
6.3359224256
 10
7.456218513
 20
6.3699767568
 10
7.4547843931
 20
6.3920273867
  0
LWPOLYLINE
  5
406
100
AcDbEntity
  8
02___PRT_ALL_AXES
100
AcDbPolyline
 62
7
  6
CONTINUOUS
 90
9
 70
0
 10
7.5390309937
 20
5.7661124965
 10
7.5404615415
 20
5.6845117661
 10
7.5419028336
 20
5.6061884008
 10
7.5433623023
 20
5.5327319565
 10
7.5448236673
 20
5.4668469044
 10
7.5462678307
 20
5.4108296126
 10
7.5477017654
 20
5.3654607743
 10
7.5491334335
 20
5.3314086348
 10
7.5505679493
 20
5.3093502214
  0
LWPOLYLINE
  5
407
100
AcDbEntity
  8
02___PRT_ALL_AXES
100
AcDbPolyline
 62
7
  6
CONTINUOUS
 90
10
 70
0
 10
7.4770686047
 20
5.9359248667
 10
7.4799868864
 20
5.7654744939
 10
7.4814281479
 20
5.6832975006
 10
7.4828588779
 20
5.6056019006
 10
7.4842879376
 20
5.5336545761
 10
7.4857240748
 20
5.4687229204
 10
7.4871575897
 20
5.4127851705
 10
7.4885959193
 20
5.3668789171
 10
7.4900521789
 20
5.331924515
 10
7.4915128312
 20
5.3093502214
  0
LWPOLYLINE
  5
408
100
AcDbEntity
  8
02___PRT_ALL_AXES
100
AcDbPolyline
 62
7
  6
CONTINUOUS
 90
10
 70
0
 10
7.5282833622
 20
5.7654744939
 10
7.5253650805
 20
5.9359248667
 10
7.5239237608
 20
6.0181043335
 10
7.5224928726
 20
6.0958067942
 10
7.5210637519
 20
6.1677543504
 10
7.5196279949
 20
6.2326662134
 10
7.5181946513
 20
6.2885960476
 10
7.5167563872
 20
6.3344996962
 10
7.5153001848
 20
6.3694526685
 10
7.5138395112
 20
6.3920273867
  0
LWPOLYLINE
  5
409
100
AcDbEntity
  8
02___PRT_ALL_AXES
100
AcDbPolyline
 62
7
  6
CONTINUOUS
 90
9
 70
0
 10
7.507103574
 20
5.8047712944
 10
7.5056306581
 20
5.8966063137
 10
7.5041577423
 20
5.9873159771
 10
7.5026848264
 20
6.0746771535
 10
7.5012119106
 20
6.156548777
 10
7.4997389947
 20
6.230924321
 10
7.4982660789
 20
6.2959809743
 10
7.4967931631
 20
6.350124315
 10
7.4953202472
 20
6.3920273867
  0
LWPOLYLINE
  5
40A
100
AcDbEntity
  8
0
100
AcDbPolyline
 62
7
  6
CONTINUOUS
 90
3
 70
0
 10
7.4323903492
 20
5.3101073383
 10
7.4323546412
 20
5.3095404407
 10
7.4321153913
 20
5.3093502214
  0
LINE
  5
40B
100
AcDbEntity
  8
02___PRT_ALL_AXES
100
AcDbLine
 62
7
  6
CONTINUOUS
 10
8.1497350116
 20
6.0949604576
 11
8.1572037302
 21
6.0949604576
  0
LINE
  5
40C
100
AcDbEntity
  8
02___PRT_ALL_AXES
100
AcDbLine
 62
7
  6
CONTINUOUS
 10
8.1926368011
 20
6.0949604576
 11
8.196573809
 21
6.0949604576
  0
LINE
  5
40D
100
AcDbEntity
  8
02___PRT_ALL_AXES
100
AcDbLine
 62
7
  6
CONTINUOUS
 10
8.2320068798
 20
6.0949604576
 11
8.2359438877
 21
6.0949604576
  0
LINE
  5
40E
100
AcDbEntity
  8
02___PRT_ALL_AXES
100
AcDbLine
 62
7
  6
CONTINUOUS
 10
8.2713769586
 20
6.0949604576
 11
8.2753139664
 21
6.0949604576
  0
LINE
  5
40F
100
AcDbEntity
  8
02___PRT_ALL_AXES
100
AcDbLine
 62
7
  6
CONTINUOUS
 10
8.3107470373
 20
6.0949604576
 11
8.3146840452
 21
6.0949604576
  0
LINE
  5
410
100
AcDbEntity
  8
02___PRT_ALL_AXES
100
AcDbLine
 62
7
  6
CONTINUOUS
 10
8.350117116
 20
6.0949604576
 11
8.3540541239
 21
6.0949604576
  0
LINE
  5
411
100
AcDbEntity
  8
02___PRT_ALL_AXES
100
AcDbLine
 62
7
  6
CONTINUOUS
 10
8.3894871948
 20
6.0949604576
 11
8.3934242027
 21
6.0949604576
  0
LINE
  5
412
100
AcDbEntity
  8
02___PRT_ALL_AXES
100
AcDbLine
 62
7
  6
CONTINUOUS
 10
8.4288572735
 20
6.0949604576
 11
8.4327942814
 21
6.0949604576
  0
LINE
  5
413
100
AcDbEntity
  8
02___PRT_ALL_AXES
100
AcDbLine
 62
7
  6
CONTINUOUS
 10
8.4682273523
 20
6.0949604576
 11
8.4721643601
 21
6.0949604576
  0
LWPOLYLINE
  5
414
100
AcDbEntity
  8
02___PRT_ALL_AXES
100
AcDbPolyline
 62
7
  6
CONTINUOUS
 90
9
 70
0
 10
7.7169746613
 20
5.3093502214
 10
7.7155419324
 20
5.3313735105
 10
7.7141019692
 20
5.3656419261
 10
7.7126692234
 20
5.4110176623
 10
7.711230055
 20
5.4668605527
 10
7.709773444
 20
5.5325198
 10
7.7083186762
 20
5.6057086303
 10
7.7068818145
 20
5.6837536832
 10
7.7054550532
 20
5.7651073815
  0
LWPOLYLINE
  5
415
100
AcDbEntity
  8
02___PRT_ALL_AXES
100
AcDbPolyline
 62
7
  6
CONTINUOUS
 90
10
 70
0
 10
7.5836532716
 20
6.3920273867
 10
7.5851119288
 20
6.3694926126
 10
7.5865661052
 20
6.3346132234
 10
7.5880029643
 20
6.288789971
 10
7.5894400619
 20
6.2327378001
 10
7.5908879214
 20
6.1672548457
 10
7.5923279853
 20
6.0946846353
 10
7.5937535642
 20
6.0172077319
 10
7.5951932592
 20
5.9350894022
 10
7.5981075329
 20
5.7648713984
  0
LWPOLYLINE
  5
416
100
AcDbEntity
  8
02___PRT_ALL_AXES
100
AcDbPolyline
 62
7
  6
CONTINUOUS
 90
9
 70
0
 10
7.6579195431
 20
5.3093502214
 10
7.6564609041
 20
5.3318846365
 10
7.6550065821
 20
5.3667679644
 10
7.6535706725
 20
5.4125583849
 10
7.6521442426
 20
5.4681544231
 10
7.6507147028
 20
5.5326933183
 10
7.6492759546
 20
5.6050576282
 10
7.6478429974
 20
5.6828428917
 10
7.6464040087
 20
5.7648713984
  0
LWPOLYLINE
  5
417
100
AcDbEntity
  8
02___PRT_ALL_AXES
100
AcDbPolyline
 62
7
  6
CONTINUOUS
 90
10
 70
0
 10
7.6427083897
 20
6.3920273867
 10
7.6441657417
 20
6.3695184546
 10
7.6456186613
 20
6.3346851276
 10
7.647053894
 20
6.2889389752
 10
7.6484875723
 20
6.2330592505
 10
7.6499399641
 20
6.1674024661
 10
7.6513918871
 20
6.0942226465
 10
7.6528275322
 20
6.0161536398
 10
7.654263693
 20
5.9342017266
 10
7.6571585774
 20
5.7651073815
  0
LWPOLYLINE
  5
418
100
AcDbEntity
  8
02___PRT_ALL_AXES
100
AcDbPolyline
 62
7
  6
CONTINUOUS
 90
16
 70
0
 10
7.6281423313
 20
5.3093502214
 10
7.6266694155
 20
5.3512532931
 10
7.6251964997
 20
5.4053966338
 10
7.6237235838
 20
5.4704532871
 10
7.622250668
 20
5.5448288311
 10
7.6207777521
 20
5.6267004547
 10
7.6193048363
 20
5.714061631
 10
7.6178319204
 20
5.8047712944
 10
7.6163590046
 20
5.8966063137
 10
7.6148860887
 20
5.9873159771
 10
7.6134131729
 20
6.0746771535
 10
7.611940257
 20
6.156548777
 10
7.6104673412
 20
6.2309243211
 10
7.6089944254
 20
6.2959809743
 10
7.6075215095
 20
6.350124315
 10
7.6060485937
 20
6.3920273867
  0
LWPOLYLINE
  5
419
100
AcDbEntity
  8
02___PRT_ALL_AXES
100
AcDbPolyline
 62
7
  6
CONTINUOUS
 90
16
 70
0
 10
7.6355242211
 20
5.3093502214
 10
7.6340513053
 20
5.3512532931
 10
7.6325783894
 20
5.4053966338
 10
7.6311054736
 20
5.4704532871
 10
7.6296325577
 20
5.5448288311
 10
7.6281596419
 20
5.6267004547
 10
7.626686726
 20
5.714061631
 10
7.6252138102
 20
5.8047712944
 10
7.6237408943
 20
5.8966063137
 10
7.6222679785
 20
5.9873159771
 10
7.6207950627
 20
6.0746771535
 10
7.6193221468
 20
6.156548777
 10
7.617849231
 20
6.2309243211
 10
7.6163763151
 20
6.2959809743
 10
7.6149033993
 20
6.350124315
 10
7.6134304834
 20
6.3920273867
  0
LWPOLYLINE
  5
41A
100
AcDbEntity
  8
02___PRT_ALL_AXES
100
AcDbPolyline
 62
7
  6
CONTINUOUS
 90
16
 70
0
 10
7.6871974495
 20
5.3093502214
 10
7.6857245336
 20
5.3512532931
 10
7.6842516178
 20
5.4053966338
 10
7.6827787019
 20
5.4704532871
 10
7.6813057861
 20
5.5448288311
 10
7.6798328702
 20
5.6267004547
 10
7.6783599544
 20
5.714061631
 10
7.6768870385
 20
5.8047712944
 10
7.6754141227
 20
5.8966063137
 10
7.6739412068
 20
5.9873159771
 10
7.672468291
 20
6.0746771535
 10
7.6709953752
 20
6.156548777
 10
7.6695224593
 20
6.2309243211
 10
7.6680495435
 20
6.2959809743
 10
7.6665766276
 20
6.350124315
 10
7.6651037118
 20
6.3920273867
  0
LWPOLYLINE
  5
41B
100
AcDbEntity
  8
02___PRT_ALL_AXES
100
AcDbPolyline
 62
7
  6
CONTINUOUS
 90
16
 70
0
 10
7.6945793392
 20
5.3093502214
 10
7.6931064234
 20
5.3512532931
 10
7.6916335075
 20
5.4053966338
 10
7.6901605917
 20
5.4704532871
 10
7.6886876758
 20
5.5448288311
 10
7.68721476
 20
5.6267004547
 10
7.6857418441
 20
5.714061631
 10
7.6842689283
 20
5.8047712944
 10
7.6827960125
 20
5.8966063137
 10
7.6813230966
 20
5.9873159771
 10
7.6798501808
 20
6.0746771535
 10
7.6783772649
 20
6.156548777
 10
7.6769043491
 20
6.2309243211
 10
7.6754314332
 20
6.2959809743
 10
7.6739585174
 20
6.350124315
 10
7.6724856015
 20
6.3920273867
  0
LWPOLYLINE
  5
41C
100
AcDbEntity
  8
02___PRT_ALL_AXES
100
AcDbPolyline
 62
7
  6
CONTINUOUS
 90
9
 70
0
 10
7.5981075329
 20
5.7648713984
 10
7.5995465217
 20
5.6828428917
 10
7.6009794788
 20
5.6050576282
 10
7.6024182271
 20
5.5326933183
 10
7.6038477669
 20
5.4681544231
 10
7.6052741968
 20
5.4125583849
 10
7.6067101063
 20
5.3667679644
 10
7.6081644283
 20
5.3318846365
 10
7.6096230674
 20
5.3093502214
  0
LWPOLYLINE
  5
41D
100
AcDbEntity
  8
02___PRT_ALL_AXES
100
AcDbPolyline
 62
7
  6
CONTINUOUS
 90
9
 70
0
 10
7.6571585774
 20
5.7651073815
 10
7.6585853388
 20
5.6837536832
 10
7.6600222004
 20
5.6057086303
 10
7.6614769683
 20
5.5325198
 10
7.6629335792
 20
5.4668605527
 10
7.6643727476
 20
5.4110176623
 10
7.6658054934
 20
5.3656419261
 10
7.6672454566
 20
5.3313735105
 10
7.6686781855
 20
5.3093502214
  0
LWPOLYLINE
  5
41E
100
AcDbEntity
  8
02___PRT_ALL_AXES
100
AcDbPolyline
 62
7
  6
CONTINUOUS
 90
10
 70
0
 10
7.5873274695
 20
5.7661124965
 10
7.5844556063
 20
5.933872826
 10
7.5830197017
 20
6.0158218933
 10
7.5815787109
 20
6.0941919087
 10
7.5801194324
 20
6.1677273725
 10
7.5786579492
 20
6.2337286973
 10
7.5772130277
 20
6.2899011691
 10
7.5757838782
 20
6.3352737816
 10
7.5743440912
 20
6.3696744579
 10
7.5728946293
 20
6.3920273867
  0
LWPOLYLINE
  5
41F
100
AcDbEntity
  8
02___PRT_ALL_AXES
100
AcDbPolyline
 62
7
  6
CONTINUOUS
 90
10
 70
0
 10
7.6464040087
 20
5.7648713984
 10
7.643489735
 20
5.9350894022
 10
7.64205004
 20
6.0172077319
 10
7.6406244611
 20
6.0946846353
 10
7.6391843972
 20
6.1672548457
 10
7.6377365377
 20
6.2327378001
 10
7.6362994401
 20
6.288789971
 10
7.634862581
 20
6.3346132234
 10
7.6334084046
 20
6.3694926126
 10
7.6319497474
 20
6.3920273867
  0
LINE
  5
420
100
AcDbEntity
  8
02___PRT_ALL_AXES
100
AcDbLine
 62
7
  6
CONTINUOUS
 10
8.0981486121
 20
6.1031927411
 11
8.1255609857
 21
6.0974608137
  0
LWPOLYLINE
  5
421
100
AcDbEntity
  8
02___PRT_ALL_AXES
100
AcDbPolyline
 62
7
  6
CONTINUOUS
 90
9
 70
0
 10
7.7017635078
 20
6.3920273867
 10
7.7031967789
 20
6.3699934419
 10
7.7046370257
 20
6.3357126798
 10
7.7060698178
 20
6.2903291023
 10
7.7075090072
 20
6.2344794667
 10
7.7089656095
 20
6.1688154538
 10
7.7104202732
 20
6.095627987
 10
7.7118570258
 20
6.0175864085
 10
7.7132842182
 20
5.9362063692
  0
LWPOLYLINE
  5
422
100
AcDbEntity
  8
02___PRT_ALL_AXES
100
AcDbPolyline
 62
7
  6
CONTINUOUS
 90
10
 70
0
 10
7.7760297794
 20
5.3093502214
 10
7.7745724961
 20
5.3318577929
 10
7.7731195583
 20
5.3666910633
 10
7.7716844063
 20
5.4124339683
 10
7.7702515569
 20
5.4682778071
 10
7.7687998806
 20
5.5338947226
 10
7.7673483122
 20
5.6070481639
 10
7.7659127555
 20
5.685105463
 10
7.7644765647
 20
5.767054816
 10
7.761580694
 20
5.9362063692
  0
LWPOLYLINE
  5
423
100
AcDbEntity
  8
02___PRT_ALL_AXES
100
AcDbPolyline
 62
7
  6
CONTINUOUS
 90
9
 70
0
 10
7.760818626
 20
6.3920273867
 10
7.7622771805
 20
6.3694946461
 10
7.7637313415
 20
6.3346165366
 10
7.7651670799
 20
6.2888340489
 10
7.7665932845
 20
6.2332502899
 10
7.768023072
 20
6.168703176
 10
7.7694620948
 20
6.0963262654
 10
7.7708951039
 20
6.0185385025
 10
7.7723340039
 20
5.9365152792
  0
LWPOLYLINE
  5
424
100
AcDbEntity
  8
02___PRT_ALL_AXES
100
AcDbPolyline
 62
7
  6
CONTINUOUS
 90
16
 70
0
 10
7.7462525676
 20
5.3093502214
 10
7.7447796517
 20
5.3512532931
 10
7.7433067359
 20
5.4053966338
 10
7.74183382
 20
5.4704532871
 10
7.7403609042
 20
5.5448288311
 10
7.7388879883
 20
5.6267004547
 10
7.7374150725
 20
5.714061631
 10
7.7359421566
 20
5.8047712944
 10
7.7344692408
 20
5.8966063137
 10
7.732996325
 20
5.9873159771
 10
7.7315234091
 20
6.0746771535
 10
7.7300504933
 20
6.156548777
 10
7.7285775774
 20
6.230924321
 10
7.7271046616
 20
6.2959809743
 10
7.7256317457
 20
6.350124315
 10
7.7241588299
 20
6.3920273867
  0
LWPOLYLINE
  5
425
100
AcDbEntity
  8
02___PRT_ALL_AXES
100
AcDbPolyline
 62
7
  6
CONTINUOUS
 90
7
 70
0
 10
7.7536344573
 20
5.3093502214
 10
7.7521615415
 20
5.3512532931
 10
7.7506886256
 20
5.4053966338
 10
7.7492157098
 20
5.4704532871
 10
7.7477427939
 20
5.5448288311
 10
7.7462698781
 20
5.6267004547
 10
7.7447969623
 20
5.714061631
  0
LWPOLYLINE
  5
426
100
AcDbEntity
  8
02___PRT_ALL_AXES
100
AcDbPolyline
 62
7
  6
CONTINUOUS
 90
16
 70
0
 10
7.8053076857
 20
5.3093502214
 10
7.8038347698
 20
5.3512532931
 10
7.802361854
 20
5.4053966338
 10
7.8008889381
 20
5.4704532871
 10
7.7994160223
 20
5.5448288311
 10
7.7979431064
 20
5.6267004547
 10
7.7964701906
 20
5.714061631
 10
7.7949972748
 20
5.8047712944
 10
7.7935243589
 20
5.8966063137
 10
7.7920514431
 20
5.9873159771
 10
7.7905785272
 20
6.0746771535
 10
7.7891056114
 20
6.156548777
 10
7.7876326955
 20
6.230924321
 10
7.7861597797
 20
6.2959809743
 10
7.7846868638
 20
6.350124315
 10
7.783213948
 20
6.3920273867
  0
LWPOLYLINE
  5
427
100
AcDbEntity
  8
02___PRT_ALL_AXES
100
AcDbPolyline
 62
7
  6
CONTINUOUS
 90
16
 70
0
 10
7.8126895754
 20
5.3093502214
 10
7.8112166596
 20
5.3512532931
 10
7.8097437437
 20
5.4053966338
 10
7.8082708279
 20
5.4704532871
 10
7.8067979121
 20
5.5448288311
 10
7.8053249962
 20
5.6267004547
 10
7.8038520804
 20
5.714061631
 10
7.8023791645
 20
5.8047712944
 10
7.8009062487
 20
5.8966063137
 10
7.7994333328
 20
5.9873159771
 10
7.797960417
 20
6.0746771535
 10
7.7964875011
 20
6.156548777
 10
7.7950145853
 20
6.230924321
 10
7.7935416695
 20
6.2959809743
 10
7.7920687536
 20
6.350124315
 10
7.7905958378
 20
6.3920273867
  0
LWPOLYLINE
  5
428
100
AcDbEntity
  8
02___PRT_ALL_AXES
100
AcDbPolyline
 62
7
  6
CONTINUOUS
 90
9
 70
0
 10
7.761580694
 20
5.9362063692
 10
7.7601535016
 20
6.0175864085
 10
7.7587167489
 20
6.095627987
 10
7.7572620853
 20
6.1688154538
 10
7.755805483
 20
6.2344794667
 10
7.7543662936
 20
6.2903291023
 10
7.7529335015
 20
6.3357126798
 10
7.7514932547
 20
6.3699934419
 10
7.7500599836
 20
6.3920273867
  0
LWPOLYLINE
  5
429
100
AcDbEntity
  8
02___PRT_ALL_AXES
100
AcDbPolyline
 62
7
  6
CONTINUOUS
 90
10
 70
0
 10
7.7054550532
 20
5.7651073815
 10
7.7025601688
 20
5.9342017266
 10
7.7011240079
 20
6.0161536398
 10
7.6996883629
 20
6.0942226465
 10
7.6982364399
 20
6.1674024661
 10
7.6967840481
 20
6.2330592505
 10
7.6953503698
 20
6.2889389752
 10
7.6939151371
 20
6.3346851276
 10
7.6924622175
 20
6.3695184546
 10
7.6910048655
 20
6.3920273867
  0
LWPOLYLINE
  5
42A
100
AcDbEntity
  8
02___PRT_ALL_AXES
100
AcDbPolyline
 62
7
  6
CONTINUOUS
 90
10
 70
0
 10
7.7132842182
 20
5.9362063692
 10
7.7161800889
 20
5.767054816
 10
7.7176162798
 20
5.685105463
 10
7.7190518364
 20
5.6070481639
 10
7.7205034049
 20
5.5338947226
 10
7.7219550811
 20
5.4682778071
 10
7.7233879305
 20
5.4124339683
 10
7.7248230826
 20
5.3666910633
 10
7.7262760203
 20
5.3318577929
 10
7.7277333036
 20
5.3093502214
  0
LWPOLYLINE
  5
42B
100
AcDbEntity
  8
02___PRT_ALL_AXES
100
AcDbPolyline
 62
7
  6
CONTINUOUS
 90
10
 70
0
 10
7.7723340039
 20
5.9365152792
 10
7.7752480674
 20
5.7663094539
 10
7.7766876299
 20
5.6841977848
 10
7.7781132519
 20
5.6067169616
 10
7.7795538829
 20
5.534117433
 10
7.7810020529
 20
5.4686219904
 10
7.7824392555
 20
5.4125689046
 10
7.7838759763
 20
5.3667534872
 10
7.7853300247
 20
5.3318798424
 10
7.7867884217
 20
5.3093502214
  0
LWPOLYLINE
  5
42C
100
AcDbEntity
  8
02___PRT_ALL_AXES
100
AcDbPolyline
 62
7
  6
CONTINUOUS
 90
3
 70
0
 10
7.7447969623
 20
5.714061631
 10
7.7433240464
 20
5.8047712944
 10
7.7418511306
 20
5.8966063137
  0
LWPOLYLINE
  5
42D
100
AcDbEntity
  8
02___PRT_ALL_AXES
100
AcDbPolyline
 62
7
  6
CONTINUOUS
 90
8
 70
0
 10
7.7418511306
 20
5.8966063137
 10
7.7403782147
 20
5.9873159771
 10
7.7389052989
 20
6.0746771535
 10
7.737432383
 20
6.156548777
 10
7.7359594672
 20
6.230924321
 10
7.7344865513
 20
6.2959809743
 10
7.7330136355
 20
6.350124315
 10
7.7315407197
 20
6.3920273867
  0
LINE
  5
42E
100
AcDbEntity
  8
0
100
AcDbLine
 62
7
  6
CONTINUOUS
 10
8.2317286688
 20
6.0947197179
 11
8.2320068798
 21
6.0949604576
  0
LINE
  5
42F
100
AcDbEntity
  8
0
100
AcDbLine
 62
7
  6
CONTINUOUS
 10
8.2710987475
 20
6.0947197179
 11
8.2713769586
 21
6.0949604576
  0
LINE
  5
430
100
AcDbEntity
  8
0
100
AcDbLine
 62
7
  6
CONTINUOUS
 10
8.3104688263
 20
6.0947197179
 11
8.3107470373
 21
6.0949604576
  0
LINE
  5
431
100
AcDbEntity
  8
0
100
AcDbLine
 62
7
  6
CONTINUOUS
 10
8.349838905
 20
6.0947197179
 11
8.350117116
 21
6.0949604576
  0
LINE
  5
432
100
AcDbEntity
  8
0
100
AcDbLine
 62
7
  6
CONTINUOUS
 10
8.0587785334
 20
6.3912702698
 11
7.9863478199
 21
6.3912702698
  0
LINE
  5
433
100
AcDbEntity
  8
0
100
AcDbLine
 62
7
  6
CONTINUOUS
 10
7.4065552812
 20
6.3912702698
 11
7.350117116
 21
6.3912702698
  0
LINE
  5
434
100
AcDbEntity
  8
0
100
AcDbLine
 62
7
  6
CONTINUOUS
 10
7.350117116
 20
6.3920273867
 11
7.4288832393
 21
6.3920273867
  0
LINE
  5
435
100
AcDbEntity
  8
02___PRT_ALL_AXES
100
AcDbLine
 62
7
  6
CONTINUOUS
 10
7.4288832393
 20
6.3920273867
 11
7.9677611921
 21
6.3920273867
  0
LINE
  5
436
100
AcDbEntity
  8
0
100
AcDbLine
 62
7
  6
CONTINUOUS
 10
7.9677611921
 20
6.3920273867
 11
8.0587785334
 21
6.3920273867
  0
LWPOLYLINE
  5
437
100
AcDbEntity
  8
0
100
AcDbPolyline
 62
7
  6
CONTINUOUS
 90
3
 70
0
 10
7.4060179233
 20
6.3920273867
 10
7.4063882026
 20
6.3918369297
 10
7.4065552812
 20
6.3912702698
  0
LINE
  5
438
100
AcDbEntity
  8
0
100
AcDbLine
 62
7
  6
CONTINUOUS
 10
8.2120436294
 20
5.6066578902
 11
8.2123218405
 21
5.6064171505
  0
LINE
  5
439
100
AcDbEntity
  8
0
100
AcDbLine
 62
7
  6
CONTINUOUS
 10
8.2514137082
 20
5.6066578902
 11
8.2516919192
 21
5.6064171505
  0
LINE
  5
43A
100
AcDbEntity
  8
0
100
AcDbLine
 62
7
  6
CONTINUOUS
 10
8.2907837869
 20
5.6066578902
 11
8.2910619979
 21
5.6064171505
  0
LINE
  5
43B
100
AcDbEntity
  8
0
100
AcDbLine
 62
7
  6
CONTINUOUS
 10
8.3301538656
 20
5.6066578902
 11
8.3304320767
 21
5.6064171505
  0
LINE
  5
43C
100
AcDbEntity
  8
0
100
AcDbLine
 62
7
  6
CONTINUOUS
 10
8.3695239444
 20
5.6066578902
 11
8.3698021554
 21
5.6064171505
  0
LWPOLYLINE
  5
43D
100
AcDbEntity
  8
02___PRT_ALL_AXES
100
AcDbPolyline
 62
7
  6
CONTINUOUS
 90
9
 70
0
 10
7.8198737441
 20
6.3920273867
 10
7.821307864
 20
6.3699767568
 10
7.8227397269
 20
6.3359224256
 10
7.8241736989
 20
6.2905537832
 10
7.8256178146
 20
6.2345396028
 10
7.8270791085
 20
6.1686591832
 10
7.8285384258
 20
6.0952120142
 10
7.8299795527
 20
6.0168993385
 10
7.831409847
 20
5.9353145171
  0
LWPOLYLINE
  5
43E
100
AcDbEntity
  8
02___PRT_ALL_AXES
100
AcDbPolyline
 62
7
  6
CONTINUOUS
 90
10
 70
0
 10
7.8941400156
 20
5.3093502214
 10
7.8926901905
 20
5.3317103227
 10
7.891249872
 20
5.36612883
 10
7.8898207947
 20
5.4115055832
 10
7.8883760467
 20
5.4676762803
 10
7.8869146974
 20
5.5336749465
 10
7.8854554752
 20
5.607209833
 10
7.8840145381
 20
5.6855783789
 10
7.8825785893
 20
5.7675308257
 10
7.8797063228
 20
5.9353145171
  0
LWPOLYLINE
  5
43F
100
AcDbEntity
  8
02___PRT_ALL_AXES
100
AcDbPolyline
 62
7
  6
CONTINUOUS
 90
10
 70
0
 10
7.8350848975
 20
5.3093502214
 10
7.8336265005
 20
5.3318798424
 10
7.8321724521
 20
5.3667534872
 10
7.8307357312
 20
5.4125689046
 10
7.8292985287
 20
5.4686219904
 10
7.8278503587
 20
5.534117433
 10
7.8264097276
 20
5.6067169616
 10
7.8249841057
 20
5.6841977848
 10
7.8235445432
 20
5.7663094539
 10
7.8206304797
 20
5.9365152792
  0
LWPOLYLINE
  5
440
100
AcDbEntity
  8
02___PRT_ALL_AXES
100
AcDbPolyline
 62
7
  6
CONTINUOUS
 90
16
 70
0
 10
7.8643628038
 20
5.3093502214
 10
7.8628898879
 20
5.3512532931
 10
7.8614169721
 20
5.4053966338
 10
7.8599440562
 20
5.4704532871
 10
7.8584711404
 20
5.5448288311
 10
7.8569982246
 20
5.6267004547
 10
7.8555253087
 20
5.714061631
 10
7.8540523929
 20
5.8047712944
 10
7.852579477
 20
5.8966063137
 10
7.8511065612
 20
5.9873159771
 10
7.8496336453
 20
6.0746771535
 10
7.8481607295
 20
6.156548777
 10
7.8466878136
 20
6.2309243211
 10
7.8452148978
 20
6.2959809743
 10
7.843741982
 20
6.350124315
 10
7.8422690661
 20
6.3920273867
  0
LWPOLYLINE
  5
441
100
AcDbEntity
  8
02___PRT_ALL_AXES
100
AcDbPolyline
 62
7
  6
CONTINUOUS
 90
16
 70
0
 10
7.8717446935
 20
5.3093502214
 10
7.8702717777
 20
5.3512532931
 10
7.8687988619
 20
5.4053966338
 10
7.867325946
 20
5.4704532871
 10
7.8658530302
 20
5.5448288311
 10
7.8643801143
 20
5.6267004547
 10
7.8629071985
 20
5.714061631
 10
7.8614342826
 20
5.8047712944
 10
7.8599613668
 20
5.8966063137
 10
7.8584884509
 20
5.9873159771
 10
7.8570155351
 20
6.0746771535
 10
7.8555426193
 20
6.156548777
 10
7.8540697034
 20
6.2309243211
 10
7.8525967876
 20
6.2959809743
 10
7.8511238717
 20
6.350124315
 10
7.8496509559
 20
6.3920273867
  0
LWPOLYLINE
  5
442
100
AcDbEntity
  8
02___PRT_ALL_AXES
100
AcDbPolyline
 62
7
  6
CONTINUOUS
 90
16
 70
0
 10
7.9234179219
 20
5.3093502214
 10
7.921945006
 20
5.3512532931
 10
7.9204720902
 20
5.4053966338
 10
7.9189991744
 20
5.4704532871
 10
7.9175262585
 20
5.5448288311
 10
7.9160533427
 20
5.6267004547
 10
7.9145804268
 20
5.714061631
 10
7.913107511
 20
5.8047712944
 10
7.9116345951
 20
5.8966063137
 10
7.9101616793
 20
5.9873159771
 10
7.9086887634
 20
6.0746771535
 10
7.9072158476
 20
6.156548777
 10
7.9057429318
 20
6.230924321
 10
7.9042700159
 20
6.2959809743
 10
7.9027971001
 20
6.350124315
 10
7.9013241842
 20
6.3920273867
  0
LWPOLYLINE
  5
443
100
AcDbEntity
  8
02___PRT_ALL_AXES
100
AcDbPolyline
 62
7
  6
CONTINUOUS
 90
9
 70
0
 10
7.8206304797
 20
5.9365152792
 10
7.8191915797
 20
6.0185385025
 10
7.8177585706
 20
6.0963262654
 10
7.8163195477
 20
6.168703176
 10
7.8148897602
 20
6.2332502899
 10
7.8134635557
 20
6.2888340489
 10
7.8120278173
 20
6.3346165366
 10
7.8105736562
 20
6.3694946461
 10
7.8091151017
 20
6.3920273867
  0
LWPOLYLINE
  5
444
100
AcDbEntity
  8
02___PRT_ALL_AXES
100
AcDbPolyline
 62
7
  6
CONTINUOUS
 90
9
 70
0
 10
7.8797063228
 20
5.9353145171
 10
7.8782760285
 20
6.0168993385
 10
7.8768349016
 20
6.0952120142
 10
7.8753755843
 20
6.1686591832
 10
7.8739142904
 20
6.2345396028
 10
7.8724701747
 20
6.2905537832
 10
7.8710362027
 20
6.3359224256
 10
7.8696043397
 20
6.3699767568
 10
7.8681702198
 20
6.3920273867
  0
LWPOLYLINE
  5
445
100
AcDbEntity
  8
02___PRT_ALL_AXES
100
AcDbPolyline
 62
7
  6
CONTINUOUS
 90
10
 70
0
 10
7.831409847
 20
5.9353145171
 10
7.8342821135
 20
5.7675308257
 10
7.8357180623
 20
5.6855783789
 10
7.8371589995
 20
5.607209833
 10
7.8386182216
 20
5.5336749465
 10
7.8400795709
 20
5.4676762803
 10
7.8415243189
 20
5.4115055832
 10
7.8429533962
 20
5.36612883
 10
7.8443937147
 20
5.3317103227
 10
7.8458435398
 20
5.3093502214
  0
LWPOLYLINE
  5
446
100
AcDbEntity
  8
02___PRT_ALL_AXES
100
AcDbPolyline
 62
7
  6
CONTINUOUS
 90
10
 70
0
 10
7.8904544315
 20
5.9359248667
 10
7.8933727132
 20
5.7654744939
 10
7.8948139747
 20
5.6832975006
 10
7.8962447047
 20
5.6056019006
 10
7.8976737643
 20
5.5336545761
 10
7.8991099016
 20
5.4687229204
 10
7.9005434165
 20
5.4127851705
 10
7.9019817461
 20
5.3668789171
 10
7.9034380057
 20
5.331924515
 10
7.9048986579
 20
5.3093502214
  0
LWPOLYLINE
  5
447
100
AcDbEntity
  8
0
100
AcDbPolyline
 62
7
  6
CONTINUOUS
 90
3
 70
0
 10
8.1876104623
 20
6.0906713648
 10
8.1887907964
 20
6.0924461978
 10
8.1926368011
 20
6.0949604576
  0
LINE
  5
448
100
AcDbEntity
  8
0
100
AcDbLine
 62
7
  6
CONTINUOUS
 10
8.3892089837
 20
6.0947197179
 11
8.3894871948
 21
6.0949604576
  0
LINE
  5
449
100
AcDbEntity
  8
0
100
AcDbLine
 62
7
  6
CONTINUOUS
 10
8.4285790625
 20
6.0947197179
 11
8.4288572735
 21
6.0949604576
  0
LINE
  5
44A
100
AcDbEntity
  8
0
100
AcDbLine
 62
7
  6
CONTINUOUS
 10
8.4679491412
 20
6.0947197179
 11
8.4682273523
 21
6.0949604576
  0
LWPOLYLINE
  5
44B
100
AcDbEntity
  8
0
100
AcDbPolyline
 62
7
  6
CONTINUOUS
 90
6
 70
0
 10
8.0587785334
 20
6.3912702698
 10
8.0709439726
 20
6.3893806031
 10
8.0819193733
 20
6.3838960724
 10
8.0906295032
 20
6.375353563
 10
8.096221679
 20
6.3645894427
 10
8.0981486121
 20
6.352657308
  0
LINE
  5
44C
100
AcDbEntity
  8
0
100
AcDbLine
 62
7
  6
CONTINUOUS
 10
8.4088940231
 20
5.6066578902
 11
8.4091722342
 21
5.6064171505
  0
LINE
  5
44D
100
AcDbEntity
  8
0
100
AcDbLine
 62
7
  6
CONTINUOUS
 10
8.4482641019
 20
5.6066578902
 11
8.4485423129
 21
5.6064171505
  0
LINE
  5
44E
100
AcDbEntity
  8
0
100
AcDbLine
 62
7
  6
CONTINUOUS
 10
8.4879123916
 20
5.6064171505
 11
8.4876341806
 21
5.6066578902
  0
LWPOLYLINE
  5
44F
100
AcDbEntity
  8
02___PRT_ALL_AXES
100
AcDbPolyline
 62
7
  6
CONTINUOUS
 90
9
 70
0
 10
7.9379839803
 20
6.3920273867
 10
7.9394334423
 20
6.3696744579
 10
7.9408732292
 20
6.3352737816
 10
7.9423023787
 20
6.2899011691
 10
7.9437473002
 20
6.2337286973
 10
7.9452087834
 20
6.1677273725
 10
7.9466680619
 20
6.0941919087
 10
7.9481090527
 20
6.0158218933
 10
7.9495449573
 20
5.933872826
  0
LWPOLYLINE
  5
450
100
AcDbEntity
  8
02___PRT_ALL_AXES
100
AcDbPolyline
 62
7
  6
CONTINUOUS
 90
9
 70
0
 10
7.8789288622
 20
6.3920273867
 10
7.8803895359
 20
6.3694526685
 10
7.8818457382
 20
6.3344996962
 10
7.8832840023
 20
6.2885960476
 10
7.8847173459
 20
6.2326662134
 10
7.8861531029
 20
6.1677543504
 10
7.8875822236
 20
6.0958067942
 10
7.8890131118
 20
6.0181043335
 10
7.8904544315
 20
5.9359248667
  0
LWPOLYLINE
  5
451
100
AcDbEntity
  8
02___PRT_ALL_AXES
100
AcDbPolyline
 62
7
  6
CONTINUOUS
 90
9
 70
0
 10
7.9531951337
 20
5.3093502214
 10
7.9517344814
 20
5.331924515
 10
7.9502782219
 20
5.3668789171
 10
7.9488398922
 20
5.4127851705
 10
7.9474063773
 20
5.4687229204
 10
7.9459702401
 20
5.5336545761
 10
7.9445411805
 20
5.6056019006
 10
7.9431104504
 20
5.6832975006
 10
7.941669189
 20
5.7654744939
  0
LWPOLYLINE
  5
452
100
AcDbEntity
  8
0
100
AcDbPolyline
 62
7
  6
CONTINUOUS
 90
9
 70
0
 10
8.012182888
 20
5.3101073383
 10
8.010755933
 20
5.332594936
 10
8.009331696
 20
5.366925113
 10
8.0079049821
 20
5.4124302929
 10
8.0064679033
 20
5.468452095
 10
8.0050139123
 20
5.5342038862
 10
8.0035621739
 20
5.6073959679
 10
8.0021285471
 20
5.6853673035
 10
8.000705464
 20
5.7665663957
  0
LWPOLYLINE
  5
453
100
AcDbEntity
  8
02___PRT_ALL_AXES
100
AcDbPolyline
 62
7
  6
CONTINUOUS
 90
16
 70
0
 10
7.9307998117
 20
5.3093502214
 10
7.9293268958
 20
5.3512532931
 10
7.92785398
 20
5.4053966338
 10
7.9263810641
 20
5.4704532871
 10
7.9249081483
 20
5.5448288311
 10
7.9234352324
 20
5.6267004547
 10
7.9219623166
 20
5.714061631
 10
7.9204894007
 20
5.8047712944
 10
7.9190164849
 20
5.8966063137
 10
7.9175435691
 20
5.9873159771
 10
7.9160706532
 20
6.0746771535
 10
7.9145977374
 20
6.156548777
 10
7.9131248215
 20
6.230924321
 10
7.9116519057
 20
6.2959809743
 10
7.9101789898
 20
6.350124315
 10
7.908706074
 20
6.3920273867
  0
LWPOLYLINE
  5
454
100
AcDbEntity
  8
02___PRT_ALL_AXES
100
AcDbPolyline
 62
7
  6
CONTINUOUS
 90
16
 70
0
 10
7.98247304
 20
5.3093502214
 10
7.9810001242
 20
5.3512532931
 10
7.9795272083
 20
5.4053966338
 10
7.9780542925
 20
5.4704532871
 10
7.9765813766
 20
5.5448288311
 10
7.9751084608
 20
5.6267004547
 10
7.9736355449
 20
5.714061631
 10
7.9721626291
 20
5.8047712944
 10
7.9706897132
 20
5.8966063137
 10
7.9692167974
 20
5.9873159771
 10
7.9677438816
 20
6.0746771535
 10
7.9662709657
 20
6.156548777
 10
7.9647980499
 20
6.230924321
 10
7.963325134
 20
6.2959809743
 10
7.9618522182
 20
6.350124315
 10
7.9603793023
 20
6.3920273867
  0
LWPOLYLINE
  5
455
100
AcDbEntity
  8
02___PRT_ALL_AXES
100
AcDbPolyline
 62
7
  6
CONTINUOUS
 90
16
 70
0
 10
7.9898549298
 20
5.3093502214
 10
7.9883820139
 20
5.3512532931
 10
7.9869090981
 20
5.4053966338
 10
7.9854361822
 20
5.4704532871
 10
7.9839632664
 20
5.5448288311
 10
7.9824903505
 20
5.6267004547
 10
7.9810174347
 20
5.714061631
 10
7.9795445189
 20
5.8047712944
 10
7.978071603
 20
5.8966063137
 10
7.9765986872
 20
5.9873159771
 10
7.9751257713
 20
6.0746771535
 10
7.9736528555
 20
6.156548777
 10
7.9721799396
 20
6.230924321
 10
7.9707070238
 20
6.2959809743
 10
7.9692341079
 20
6.350124315
 10
7.9677611921
 20
6.3920273867
  0
LWPOLYLINE
  5
456
100
AcDbEntity
  8
02___PRT_ALL_AXES
100
AcDbPolyline
 62
7
  6
CONTINUOUS
 90
10
 70
0
 10
7.941669189
 20
5.7654744939
 10
7.9387509072
 20
5.9359248667
 10
7.9373095876
 20
6.0181043335
 10
7.9358786993
 20
6.0958067942
 10
7.9344495787
 20
6.1677543504
 10
7.9330138217
 20
6.2326662134
 10
7.931580478
 20
6.2885960476
 10
7.930142214
 20
6.3344996962
 10
7.9286860116
 20
6.3694526685
 10
7.9272253379
 20
6.3920273867
  0
LWPOLYLINE
  5
457
100
AcDbEntity
  8
02___PRT_ALL_AXES
100
AcDbPolyline
 62
7
  6
CONTINUOUS
 90
10
 70
0
 10
7.9495449573
 20
5.933872826
 10
7.9524168205
 20
5.7661124965
 10
7.9538473683
 20
5.6845117661
 10
7.9552886603
 20
5.6061884008
 10
7.9567481291
 20
5.5327319565
 10
7.9582094941
 20
5.4668469044
 10
7.9596536574
 20
5.4108296126
 10
7.9610875921
 20
5.3654607743
 10
7.9625192602
 20
5.3314086348
 10
7.963953776
 20
5.3093502214
  0
LWPOLYLINE
  5
458
100
AcDbEntity
  8
0
100
AcDbPolyline
 62
7
  6
CONTINUOUS
 90
10
 70
0
 10
8.000705464
 20
5.7665663957
 10
7.9978484614
 20
5.933465363
 10
7.9964200081
 20
6.0150115752
 10
7.9949866439
 20
6.0930282281
 10
7.9935350931
 20
6.1662946204
 10
7.9920809996
 20
6.2321560457
 10
7.9906431039
 20
6.2883285384
 10
7.9892212756
 20
6.3338254402
 10
7.9877893533
 20
6.3684903019
 10
7.9863478199
 20
6.3912702698
  0
LWPOLYLINE
  5
459
100
AcDbEntity
  8
0
100
AcDbPolyline
 62
7
  6
CONTINUOUS
 90
3
 70
0
 10
7.9863478199
 20
6.3912702698
 10
7.9863835279
 20
6.3918371674
 10
7.9866227778
 20
6.3920273867
  0
LINE
  5
45A
100
AcDbEntity
  8
0
100
AcDbLine
 62
7
  6
CONTINUOUS
 10
8.1926368011
 20
6.0949604576
 11
8.174999733
 21
6.0644121595
  0
LINE
  5
45B
100
AcDbEntity
  8
0
100
AcDbLine
 62
7
  6
CONTINUOUS
 10
8.2317286688
 20
6.0947197179
 11
8.2142903443
 21
6.064549631
  0
LINE
  5
45C
100
AcDbEntity
  8
0
100
AcDbLine
 62
7
  6
CONTINUOUS
 10
8.2710987475
 20
6.0947197179
 11
8.253660423
 21
6.064549631
  0
LWPOLYLINE
  5
45D
100
AcDbEntity
  8
0
100
AcDbPolyline
 62
7
  6
CONTINUOUS
 90
4
 70
0
 10
8.1876104623
 20
6.0906713648
 10
8.1856557939
 20
6.0873460119
 10
8.1790282243
 20
6.076083325
 10
8.1739165036
 20
6.0674113296
  0
LINE
  5
45E
100
AcDbEntity
  8
0
100
AcDbLine
 62
7
  6
CONTINUOUS
 10
8.1942871876
 20
5.6373782917
 11
8.2120436294
 21
5.6066578902
  0
LINE
  5
45F
100
AcDbEntity
  8
0
100
AcDbLine
 62
7
  6
CONTINUOUS
 10
8.2336572663
 20
5.6373782917
 11
8.2514137082
 21
5.6066578902
  0
LINE
  5
460
100
AcDbEntity
  8
0
100
AcDbLine
 62
7
  6
CONTINUOUS
 10
8.0587785334
 20
5.3093502214
 11
8.0587785334
 21
6.3920273867
  0
LINE
  5
461
100
AcDbEntity
  8
0
100
AcDbLine
 62
7
  6
CONTINUOUS
 10
8.0981486121
 20
5.3487203001
 11
8.0981486121
 21
6.352657308
  0
LINE
  5
462
100
AcDbEntity
  8
0
100
AcDbLine
 62
7
  6
CONTINUOUS
 10
8.1255609857
 20
6.0974608137
 11
8.1255609857
 21
5.6039167944
  0
LINE
  5
463
100
AcDbEntity
  8
0
100
AcDbLine
 62
7
  6
CONTINUOUS
 10
8.3104688263
 20
6.0947197179
 11
8.2930305017
 21
6.064549631
  0
LINE
  5
464
100
AcDbEntity
  8
0
100
AcDbLine
 62
7
  6
CONTINUOUS
 10
8.349838905
 20
6.0947197179
 11
8.3324005805
 21
6.064549631
  0
LINE
  5
465
100
AcDbEntity
  8
0
100
AcDbLine
 62
7
  6
CONTINUOUS
 10
8.3892089837
 20
6.0947197179
 11
8.3717706592
 21
6.064549631
  0
LINE
  5
466
100
AcDbEntity
  8
0
100
AcDbLine
 62
7
  6
CONTINUOUS
 10
8.1771669807
 20
5.6066578902
 11
8.1768887696
 21
5.6064171505
  0
LINE
  5
467
100
AcDbEntity
  8
0
100
AcDbLine
 62
7
  6
CONTINUOUS
 10
8.2165370594
 20
5.6066578902
 11
8.2162588483
 21
5.6064171505
  0
LINE
  5
468
100
AcDbEntity
  8
0
100
AcDbLine
 62
7
  6
CONTINUOUS
 10
8.2559071381
 20
5.6066578902
 11
8.2556289271
 21
5.6064171505
  0
LINE
  5
469
100
AcDbEntity
  8
0
100
AcDbLine
 62
7
  6
CONTINUOUS
 10
8.2952772169
 20
5.6066578902
 11
8.2949990058
 21
5.6064171505
  0
LINE
  5
46A
100
AcDbEntity
  8
0
100
AcDbLine
 62
7
  6
CONTINUOUS
 10
8.1586388546
 20
6.0937228567
 11
8.1572037302
 21
6.0949604576
  0
LINE
  5
46B
100
AcDbEntity
  8
0
100
AcDbLine
 62
7
  6
CONTINUOUS
 10
8.19685202
 20
6.0947197179
 11
8.196573809
 21
6.0949604576
  0
LINE
  5
46C
100
AcDbEntity
  8
0
100
AcDbLine
 62
7
  6
CONTINUOUS
 10
8.2362220988
 20
6.0947197179
 11
8.2359438877
 21
6.0949604576
  0
LINE
  5
46D
100
AcDbEntity
  8
0
100
AcDbLine
 62
7
  6
CONTINUOUS
 10
8.2755921775
 20
6.0947197179
 11
8.2753139664
 21
6.0949604576
  0
LINE
  5
46E
100
AcDbEntity
  8
0
100
AcDbLine
 62
7
  6
CONTINUOUS
 10
8.3149622562
 20
6.0947197179
 11
8.3146840452
 21
6.0949604576
  0
LINE
  5
46F
100
AcDbEntity
  8
0
100
AcDbLine
 62
7
  6
CONTINUOUS
 10
8.273027345
 20
5.6373782917
 11
8.2907837869
 21
5.6066578902
  0
LINE
  5
470
100
AcDbEntity
  8
0
100
AcDbLine
 62
7
  6
CONTINUOUS
 10
8.3123974238
 20
5.6373782917
 11
8.3301538656
 21
5.6066578902
  0
LINE
  5
471
100
AcDbEntity
  8
0
100
AcDbLine
 62
7
  6
CONTINUOUS
 10
8.3517675025
 20
5.6373782917
 11
8.3695239444
 21
5.6066578902
  0
LINE
  5
472
100
AcDbEntity
  8
0
100
AcDbLine
 62
7
  6
CONTINUOUS
 10
8.3911375813
 20
5.6373782917
 11
8.4088940231
 21
5.6066578902
  0
LWPOLYLINE
  5
473
100
AcDbEntity
  8
0
100
AcDbPolyline
 62
7
  6
CONTINUOUS
 90
10
 70
0
 10
8.1768887696
 20
5.6064171505
 10
8.1759076579
 20
5.6094054196
 10
8.174914081
 20
5.6184472739
 10
8.1739203902
 20
5.6333183537
 10
8.1729384601
 20
5.6533741255
 10
8.1719594711
 20
5.6781843968
 10
8.1709760797
 20
5.7073360093
 10
8.1699996245
 20
5.7397703033
 10
8.1690253093
 20
5.7748134651
 10
8.1680426975
 20
5.8120067907
  0
LWPOLYLINE
  5
474
100
AcDbEntity
  8
0
100
AcDbPolyline
 62
7
  6
CONTINUOUS
 90
10
 70
0
 10
8.2162588483
 20
5.6064171505
 10
8.2152770063
 20
5.6094098608
 10
8.2142828638
 20
5.6184629384
 10
8.2132888725
 20
5.633346753
 10
8.2123069123
 20
5.6534115118
 10
8.2113281002
 20
5.6782244128
 10
8.2103451487
 20
5.707367885
 10
8.209369107
 20
5.7397910129
 10
8.2083947238
 20
5.7748380786
 10
8.2074121593
 20
5.8120305373
  0
LWPOLYLINE
  5
475
100
AcDbEntity
  8
0
100
AcDbPolyline
 62
7
  6
CONTINUOUS
 90
10
 70
0
 10
8.2556289271
 20
5.6064171505
 10
8.2546462537
 20
5.6094149208
 10
8.2536514848
 20
5.6184805699
 10
8.2526571337
 20
5.6333791025
 10
8.2516750883
 20
5.6534552653
 10
8.2506963904
 20
5.6782737965
 10
8.2497138193
 20
5.7074123406
 10
8.2487380917
 20
5.7398290177
 10
8.2477635824
 20
5.7748832967
 10
8.2467809937
 20
5.8120784357
  0
LWPOLYLINE
  5
476
100
AcDbEntity
  8
0
100
AcDbPolyline
 62
7
  6
CONTINUOUS
 90
20
 70
0
 10
8.2336572663
 20
5.6373782917
 10
8.2331004931
 20
5.6391816915
 10
8.2320615605
 20
5.6469884881
 10
8.2310226279
 20
5.6603825394
 10
8.2299836952
 20
5.6789964625
 10
8.2289447626
 20
5.7023197
 10
8.22790583
 20
5.7297125235
 10
8.2268668973
 20
5.7604235809
 10
8.2258279647
 20
5.7936105047
 10
8.2247890321
 20
5.8283630176
 10
8.2237500994
 20
5.8637279
 10
8.2227111668
 20
5.8987351356
 10
8.2216722342
 20
5.9324245182
 10
8.2206333015
 20
5.9638719885
 10
8.2195943689
 20
5.9922149802
 10
8.2185554363
 20
6.0166760792
 10
8.2175165036
 20
6.0365843468
 10
8.216477571
 20
6.0513937234
 10
8.2154386384
 20
6.0606980056
 10
8.2146084618
 20
6.0639993164
  0
LWPOLYLINE
  5
477
100
AcDbEntity
  8
0
100
AcDbPolyline
 62
7
  6
CONTINUOUS
 90
20
 70
0
 10
8.1942871876
 20
5.6373782917
 10
8.1936210531
 20
5.6397326846
 10
8.1925821204
 20
5.648140419
 10
8.1915431878
 20
5.662103812
 10
8.1905042552
 20
5.6812398644
 10
8.1894653225
 20
5.7050236974
 10
8.1884263899
 20
5.7328029489
 10
8.1873874573
 20
5.7638156677
 10
8.1863485246
 20
5.7972112121
 10
8.185309592
 20
5.8320735825
 10
8.1842706594
 20
5.867446546
 10
8.1832317267
 20
5.9023598649
 10
8.1821927941
 20
5.9358559087
 10
8.1811538615
 20
5.9670159212
 10
8.1801149288
 20
5.994985221
 10
8.1790759962
 20
6.0189966435
 10
8.1780370636
 20
6.0383915846
 10
8.1769981309
 20
6.0526380642
 10
8.1759591983
 20
6.0613453185
 10
8.1752383831
 20
6.0639993164
  0
LWPOLYLINE
  5
478
100
AcDbEntity
  8
0
100
AcDbPolyline
 62
7
  6
CONTINUOUS
 90
10
 70
0
 10
8.1680426975
 20
5.8120067907
 10
8.1660527199
 20
5.8892585101
 10
8.1650700103
 20
5.9264596478
 10
8.1640952517
 20
5.9615247554
 10
8.163119848
 20
5.9939333764
 10
8.1621377618
 20
6.0230625231
 10
8.1611591774
 20
6.0478853455
 10
8.1601770553
 20
6.0679712275
 10
8.1591824268
 20
6.0828818566
 10
8.1581871321
 20
6.0919582505
  0
LWPOLYLINE
  5
479
100
AcDbEntity
  8
0
100
AcDbPolyline
 62
7
  6
CONTINUOUS
 90
11
 70
0
 10
8.2014857908
 20
5.8892585101
 10
8.2034757683
 20
5.8120067907
 10
8.2044583802
 20
5.7748134651
 10
8.2054326954
 20
5.7397703033
 10
8.2064091506
 20
5.7073360093
 10
8.2073925419
 20
5.6781843968
 10
8.208371531
 20
5.6533741255
 10
8.2093534611
 20
5.6333183537
 10
8.2103471519
 20
5.6184472739
 10
8.2113407287
 20
5.6094054196
 10
8.2120436294
 20
5.6066578902
  0
LWPOLYLINE
  5
47A
100
AcDbEntity
  8
0
100
AcDbPolyline
 62
7
  6
CONTINUOUS
 90
11
 70
0
 10
8.2074121593
 20
5.8120305373
 10
8.2054223007
 20
5.8892776785
 10
8.2044396581
 20
5.9264756174
 10
8.203465084
 20
5.9615333168
 10
8.2024894896
 20
5.9939471775
 10
8.2015070827
 20
6.0230834547
 10
8.2005284296
 20
6.0479043604
 10
8.1995463862
 20
6.0679845469
 10
8.1985519261
 20
6.0828888712
 10
8.1975568831
 20
6.0919602466
 10
8.19685202
 20
6.0947197179
  0
LINE
  5
47B
100
AcDbEntity
  8
0
100
AcDbLine
 62
7
  6
CONTINUOUS
 10
8.1497350116
 20
6.0949604576
 11
8.1497350116
 21
5.6064171505
  0
LINE
  5
47C
100
AcDbEntity
  8
0
100
AcDbLine
 62
7
  6
CONTINUOUS
 10
8.4285790625
 20
6.0947197179
 11
8.411140738
 21
6.064549631
  0
LINE
  5
47D
100
AcDbEntity
  8
0
100
AcDbLine
 62
7
  6
CONTINUOUS
 10
8.1771669807
 20
5.6066578902
 11
8.1946053049
 21
5.6368279771
  0
LINE
  5
47E
100
AcDbEntity
  8
0
100
AcDbLine
 62
7
  6
CONTINUOUS
 10
8.4679491412
 20
6.0947197179
 11
8.4505108167
 21
6.064549631
  0
LINE
  5
47F
100
AcDbEntity
  8
0
100
AcDbLine
 62
7
  6
CONTINUOUS
 10
8.2165370594
 20
5.6066578902
 11
8.2339753836
 21
5.6368279771
  0
LINE
  5
480
100
AcDbEntity
  8
0
100
AcDbLine
 62
7
  6
CONTINUOUS
 10
8.5030925057
 20
6.0874062712
 11
8.4898808954
 21
6.064549631
  0
LINE
  5
481
100
AcDbEntity
  8
0
100
AcDbLine
 62
7
  6
CONTINUOUS
 10
8.2559071381
 20
5.6066578902
 11
8.2733454624
 21
5.6368279771
  0
LINE
  5
482
100
AcDbEntity
  8
0
100
AcDbLine
 62
7
  6
CONTINUOUS
 10
8.3346472956
 20
5.6066578902
 11
8.3343690846
 21
5.6064171505
  0
LINE
  5
483
100
AcDbEntity
  8
0
100
AcDbLine
 62
7
  6
CONTINUOUS
 10
8.3740173744
 20
5.6066578902
 11
8.3737391633
 21
5.6064171505
  0
LINE
  5
484
100
AcDbEntity
  8
0
100
AcDbLine
 62
7
  6
CONTINUOUS
 10
8.4133874531
 20
5.6066578902
 11
8.413109242
 21
5.6064171505
  0
LINE
  5
485
100
AcDbEntity
  8
0
100
AcDbLine
 62
7
  6
CONTINUOUS
 10
8.4527575318
 20
5.6066578902
 11
8.4524793208
 21
5.6064171505
  0
LINE
  5
486
100
AcDbEntity
  8
0
100
AcDbLine
 62
7
  6
CONTINUOUS
 10
8.4918493995
 20
5.6064171505
 11
8.4921276106
 21
5.6066578902
  0
LINE
  5
487
100
AcDbEntity
  8
02___PRT_ALL_AXES
100
AcDbLine
 62
7
  6
CONTINUOUS
 10
6.7989360137
 20
6.8349407726
 11
7.2713769586
 21
6.8349407726
  0
LINE
  5
488
100
AcDbEntity
  8
0
100
AcDbLine
 62
7
  6
CONTINUOUS
 10
8.354332335
 20
6.0947197179
 11
8.3540541239
 21
6.0949604576
  0
LINE
  5
489
100
AcDbEntity
  8
0
100
AcDbLine
 62
7
  6
CONTINUOUS
 10
8.3937024137
 20
6.0947197179
 11
8.3934242027
 21
6.0949604576
  0
LINE
  5
48A
100
AcDbEntity
  8
0
100
AcDbLine
 62
7
  6
CONTINUOUS
 10
8.4330724925
 20
6.0947197179
 11
8.4327942814
 21
6.0949604576
  0
LINE
  5
48B
100
AcDbEntity
  8
0
100
AcDbLine
 62
7
  6
CONTINUOUS
 10
8.4721643601
 20
6.0949604576
 11
8.4724425712
 21
6.0947197179
  0
LINE
  5
48C
100
AcDbEntity
  8
0
100
AcDbLine
 62
7
  6
CONTINUOUS
 10
8.1742125256
 20
6.0669017444
 11
8.1690074478
 21
6.0758619943
  0
LINE
  5
48D
100
AcDbEntity
  8
0
100
AcDbLine
 62
7
  6
CONTINUOUS
 10
8.1690074478
 20
6.0758619943
 11
8.1586388546
 21
6.0937228567
  0
LINE
  5
48E
100
AcDbEntity
  8
0
100
AcDbLine
 62
7
  6
CONTINUOUS
 10
8.1752383831
 20
6.0639993164
 11
8.1574819413
 21
6.0947197179
  0
LINE
  5
48F
100
AcDbEntity
  8
0
100
AcDbLine
 62
7
  6
CONTINUOUS
 10
8.43050766
 20
5.6373782917
 11
8.4482641019
 21
5.6066578902
  0
LINE
  5
490
100
AcDbEntity
  8
0
100
AcDbLine
 62
7
  6
CONTINUOUS
 10
8.2146084618
 20
6.0639993164
 11
8.19685202
 21
6.0947197179
  0
LINE
  5
491
100
AcDbEntity
  8
0
100
AcDbLine
 62
7
  6
CONTINUOUS
 10
8.4698777387
 20
5.6373782917
 11
8.4876341806
 21
5.6066578902
  0
LINE
  5
492
100
AcDbEntity
  8
0
100
AcDbLine
 62
7
  6
CONTINUOUS
 10
8.2539785406
 20
6.0639993164
 11
8.2362220988
 21
6.0947197179
  0
LINE
  5
493
100
AcDbEntity
  8
0
100
AcDbLine
 62
7
  6
CONTINUOUS
 10
8.5092478175
 20
5.6373782917
 11
8.5155622359
 21
5.6264548066
  0
LWPOLYLINE
  5
494
100
AcDbEntity
  8
0
100
AcDbPolyline
 62
7
  6
CONTINUOUS
 90
10
 70
0
 10
8.3911375813
 20
5.6373782917
 10
8.3910182534
 20
5.6376233741
 10
8.3899793208
 20
5.6430044803
 10
8.3889403881
 20
5.6540821177
 10
8.3879014555
 20
5.6705524399
 10
8.3868625229
 20
5.6919636859
 10
8.3858235902
 20
5.7177285709
 10
8.3847846576
 20
5.7471403951
 10
8.383745725
 20
5.7793924277
 10
8.3827067923
 20
5.813600034
  0
LWPOLYLINE
  5
495
100
AcDbEntity
  8
0
100
AcDbPolyline
 62
7
  6
CONTINUOUS
 90
11
 70
0
 10
8.3517675025
 20
5.6373782917
 10
8.3515388133
 20
5.6379158481
 10
8.3504998807
 20
5.643906299
 10
8.3494609481
 20
5.6555685452
 10
8.3484220154
 20
5.6725827053
 10
8.3473830828
 20
5.6944821015
 10
8.3463441502
 20
5.7206660596
 10
8.3453052175
 20
5.7504163851
 10
8.3442662849
 20
5.7829170625
 10
8.3432273523
 20
5.8172766371
 10
8.341149487
 20
5.8877775741
  0
LWPOLYLINE
  5
496
100
AcDbEntity
  8
0
100
AcDbPolyline
 62
7
  6
CONTINUOUS
 90
14
 70
0
 10
8.3123974238
 20
5.6373782917
 10
8.3120593733
 20
5.6382731349
 10
8.3110204406
 20
5.6448711056
 10
8.309981508
 20
5.6571144082
 10
8.3089425754
 20
5.6746672236
 10
8.3079036427
 20
5.6970480992
 10
8.3068647101
 20
5.7236431544
 10
8.3058257775
 20
5.753722919
 10
8.3047868448
 20
5.7864623412
 10
8.3037479122
 20
5.8209634179
 10
8.3027089796
 20
5.8562798263
 10
8.3016700469
 20
5.8914428796
 10
8.3006311143
 20
5.9254880976
 10
8.2995921817
 20
5.9574816611
  0
LWPOLYLINE
  5
497
100
AcDbEntity
  8
0
100
AcDbPolyline
 62
7
  6
CONTINUOUS
 90
20
 70
0
 10
8.273027345
 20
5.6373782917
 10
8.2725799332
 20
5.6386951255
 10
8.2715410006
 20
5.6458986064
 10
8.2705020679
 20
5.6587192359
 10
8.2694631353
 20
5.6768053598
 10
8.2684242027
 20
5.6996608973
 10
8.26738527
 20
5.7266589486
 10
8.2663463374
 20
5.7570589897
 10
8.2653074048
 20
5.7900271839
 10
8.2642684721
 20
5.8246592533
 10
8.2632295395
 20
5.8600052821
 10
8.2621906069
 20
5.895095771
 10
8.2611516742
 20
5.9289682303
 10
8.2601127416
 20
5.960693579
 10
8.259073809
 20
5.9894016292
 10
8.2580348763
 20
6.0143049534
 10
8.2569959437
 20
6.0347204835
 10
8.2559570111
 20
6.0500882461
 10
8.2549180784
 20
6.0599867218
 10
8.2539785406
 20
6.0639993164
  0
LWPOLYLINE
  5
498
100
AcDbEntity
  8
0
100
AcDbPolyline
 62
7
  6
CONTINUOUS
 90
10
 70
0
 10
8.3343690846
 20
5.6064171505
 10
8.3333873779
 20
5.6094090371
 10
8.3323933407
 20
5.6184600287
 10
8.3313994102
 20
5.633341389
 10
8.3304174651
 20
5.6534042351
 10
8.3294386347
 20
5.6782161768
 10
8.3284556206
 20
5.7073604437
 10
8.3274795232
 20
5.7397847616
 10
8.3265051619
 20
5.7748305991
 10
8.3255226021
 20
5.8120225847
  0
LWPOLYLINE
  5
499
100
AcDbEntity
  8
0
100
AcDbPolyline
 62
7
  6
CONTINUOUS
 90
10
 70
0
 10
8.3737391633
 20
5.6064171505
 10
8.3727566307
 20
5.6094140635
 10
8.3717619656
 20
5.6184776107
 10
8.3707676739
 20
5.6333736912
 10
8.3697856421
 20
5.6534479619
 10
8.3688069245
 20
5.6782655698
 10
8.3678242895
 20
5.7074049542
 10
8.366848512
 20
5.7398226244
 10
8.365874023
 20
5.7748757197
 10
8.3648914379
 20
5.8120704309
  0
LWPOLYLINE
  5
49A
100
AcDbEntity
  8
0
100
AcDbPolyline
 62
7
  6
CONTINUOUS
 90
10
 70
0
 10
8.1926368011
 20
6.0949604576
 10
8.1936202029
 20
6.0919582505
 10
8.1946154977
 20
6.0828818566
 10
8.1956101262
 20
6.0679712275
 10
8.1965922483
 20
6.0478853455
 10
8.1975708327
 20
6.0230625231
 10
8.1985529188
 20
5.9939333764
 10
8.1995283226
 20
5.9615247554
 10
8.2005030811
 20
5.9264596478
 10
8.2014857908
 20
5.8892585101
  0
LWPOLYLINE
  5
49B
100
AcDbEntity
  8
0
100
AcDbPolyline
 62
7
  6
CONTINUOUS
 90
14
 70
0
 10
8.2949990058
 20
5.6064171505
 10
8.2939922434
 20
5.6095633751
 10
8.2929726542
 20
5.619079421
 10
8.2919535563
 20
5.6347054479
 10
8.2909476403
 20
5.6557220677
 10
8.2899417862
 20
5.6817508761
 10
8.2889331258
 20
5.7122138092
 10
8.2879322937
 20
5.7459814977
 10
8.2869326065
 20
5.7823719819
 10
8.285920308
 20
5.8209856465
 10
8.2848982596
 20
5.8607526651
 10
8.2838795774
 20
5.9001240162
 10
8.2828759576
 20
5.9376431714
 10
8.2818756462
 20
5.9728246308
  0
LINE
  5
49C
100
AcDbEntity
  8
0
100
AcDbLine
 62
7
  6
CONTINUOUS
 10
8.1749202657
 20
6.0642745181
 11
8.1742125256
 21
6.0669017444
  0
LINE
  5
49D
100
AcDbEntity
  8
0
100
AcDbLine
 62
7
  6
CONTINUOUS
 10
8.1581871321
 20
6.0919582505
 11
8.1574819413
 21
6.0947197179
  0
LWPOLYLINE
  5
49E
100
AcDbEntity
  8
0
100
AcDbPolyline
 62
7
  6
CONTINUOUS
 90
7
 70
0
 10
8.2995921817
 20
5.9574816611
 10
8.298553249
 20
5.9865460249
 10
8.2975143164
 20
6.0118839886
 10
8.2964753838
 20
6.0328005624
 10
8.2954364511
 20
6.0487220297
 10
8.2943975185
 20
6.0592116839
 10
8.2933486193
 20
6.0639993164
  0
LWPOLYLINE
  5
49F
100
AcDbEntity
  8
0
100
AcDbPolyline
 62
7
  6
CONTINUOUS
 90
8
 70
0
 10
8.2818756462
 20
5.9728246308
 10
8.2809439
 20
6.0028178311
 10
8.2800077971
 20
6.0295690901
 10
8.2790774384
 20
6.0522088735
 10
8.27814027
 20
6.0705299713
 10
8.2771935667
 20
6.0840525313
 10
8.2762478965
 20
6.0922521698
 10
8.2755921775
 20
6.0947197179
  0
LWPOLYLINE
  5
4A0
100
AcDbEntity
  8
0
100
AcDbPolyline
 62
7
  6
CONTINUOUS
 90
10
 70
0
 10
8.341149487
 20
5.8877775741
 10
8.3401105544
 20
5.9219851804
 10
8.3390716217
 20
5.954237213
 10
8.3380326891
 20
5.9836490372
 10
8.3369937565
 20
6.0094139222
 10
8.3359548238
 20
6.0308251682
 10
8.3349158912
 20
6.0472954905
 10
8.3338769586
 20
6.0583731278
 10
8.3328380259
 20
6.063754234
 10
8.3327186981
 20
6.0639993164
  0
LWPOLYLINE
  5
4A1
100
AcDbEntity
  8
0
100
AcDbPolyline
 62
7
  6
CONTINUOUS
 90
14
 70
0
 10
8.3173087171
 20
5.9728246308
 10
8.3183090285
 20
5.9376431714
 10
8.3193126483
 20
5.9001240162
 10
8.3203313304
 20
5.8607526651
 10
8.3213533788
 20
5.8209856465
 10
8.3223656774
 20
5.7823719819
 10
8.3233653645
 20
5.7459814977
 10
8.3243661967
 20
5.7122138092
 10
8.325374857
 20
5.6817508761
 10
8.3263807112
 20
5.6557220677
 10
8.3273866272
 20
5.6347054479
 10
8.3284057251
 20
5.619079421
 10
8.3294253143
 20
5.6095633751
 10
8.3301538656
 20
5.6066578902
  0
LWPOLYLINE
  5
4A2
100
AcDbEntity
  8
0
100
AcDbPolyline
 62
7
  6
CONTINUOUS
 90
10
 70
0
 10
8.2428452302
 20
5.8120305373
 10
8.2438277947
 20
5.7748380786
 10
8.2448021779
 20
5.7397910129
 10
8.2457782196
 20
5.707367885
 10
8.246761171
 20
5.6782244128
 10
8.2477399832
 20
5.6534115118
 10
8.2487219434
 20
5.633346753
 10
8.2497159347
 20
5.6184629384
 10
8.2507100772
 20
5.6094098608
 10
8.2514137082
 20
5.6066578902
  0
LWPOLYLINE
  5
4A3
100
AcDbEntity
  8
0
100
AcDbPolyline
 62
7
  6
CONTINUOUS
 90
11
 70
0
 10
8.2467809937
 20
5.8120784357
 10
8.2447911323
 20
5.8893256866
 10
8.2438085109
 20
5.9265210486
 10
8.2428340605
 20
5.9615716062
 10
8.2418581679
 20
5.9939913965
 10
8.2408753773
 20
6.0231327234
 10
8.2398966057
 20
6.0479481168
 10
8.2389146435
 20
6.0680169741
 10
8.237920539
 20
6.0829066069
 10
8.2369261181
 20
6.0919653842
 10
8.2362220988
 20
6.0947197179
  0
LWPOLYLINE
  5
4A4
100
AcDbEntity
  8
0
100
AcDbPolyline
 62
7
  6
CONTINUOUS
 90
11
 70
0
 10
8.2802242031
 20
5.8893256866
 10
8.2822140646
 20
5.8120784357
 10
8.2831966532
 20
5.7748832967
 10
8.2841711626
 20
5.7398290177
 10
8.2851468902
 20
5.7074123406
 10
8.2861294613
 20
5.6782737965
 10
8.2871081591
 20
5.6534552653
 10
8.2880902046
 20
5.6333791025
 10
8.2890845557
 20
5.6184805699
 10
8.2900793245
 20
5.6094149208
 10
8.2907837869
 20
5.6066578902
  0
LWPOLYLINE
  5
4A5
100
AcDbEntity
  8
0
100
AcDbPolyline
 62
7
  6
CONTINUOUS
 90
11
 70
0
 10
8.3255226021
 20
5.8120225847
 10
8.3235327455
 20
5.8892696478
 10
8.3225501001
 20
5.9264679897
 10
8.3215755063
 20
5.961526853
 10
8.3205999582
 20
5.9939398402
 10
8.319617616
 20
6.0230752495
 10
8.3186389835
 20
6.0478970527
 10
8.3176569274
 20
6.0679791153
 10
8.3166624089
 20
6.0828858867
 10
8.3156672631
 20
6.0919593708
 10
8.3149622562
 20
6.0947197179
  0
LINE
  5
4A6
100
AcDbEntity
  8
0
100
AcDbLine
 62
7
  6
CONTINUOUS
 10
8.2952772169
 20
5.6066578902
 11
8.3127155411
 21
5.6368279771
  0
LINE
  5
4A7
100
AcDbEntity
  8
0
100
AcDbLine
 62
7
  6
CONTINUOUS
 10
8.3346472956
 20
5.6066578902
 11
8.3520856199
 21
5.6368279771
  0
LINE
  5
4A8
100
AcDbEntity
  8
0
100
AcDbLine
 62
7
  6
CONTINUOUS
 10
8.3740173744
 20
5.6066578902
 11
8.3914556986
 21
5.6368279771
  0
LINE
  5
4A9
100
AcDbEntity
  8
0
100
AcDbLine
 62
7
  6
CONTINUOUS
 10
8.5312195008
 20
5.6418501988
 11
8.5157541289
 21
5.6263848236
  0
LINE
  5
4AA
100
AcDbEntity
  8
0
100
AcDbLine
 62
7
  6
CONTINUOUS
 10
8.5312195008
 20
6.0595274093
 11
8.503274315
 21
6.0874726011
  0
LINE
  5
4AB
100
AcDbEntity
  8
0
100
AcDbLine
 62
7
  6
CONTINUOUS
 10
8.2933486193
 20
6.0639993164
 11
8.2755921775
 21
6.0947197179
  0
LINE
  5
4AC
100
AcDbEntity
  8
0
100
AcDbLine
 62
7
  6
CONTINUOUS
 10
8.3327186981
 20
6.0639993164
 11
8.3149622562
 21
6.0947197179
  0
LINE
  5
4AD
100
AcDbEntity
  8
0
100
AcDbLine
 62
7
  6
CONTINUOUS
 10
8.3720887768
 20
6.0639993164
 11
8.354332335
 21
6.0947197179
  0
LWPOLYLINE
  5
4AE
100
AcDbEntity
  8
0
100
AcDbPolyline
 62
7
  6
CONTINUOUS
 90
10
 70
0
 10
8.4698777387
 20
5.6373782917
 10
8.4696900067
 20
5.6377987166
 10
8.4686575997
 20
5.6435069916
 10
8.4676251927
 20
5.6548270122
 10
8.4665927856
 20
5.6714521634
 10
8.4655603786
 20
5.6929321347
 10
8.4645279716
 20
5.7186851177
 10
8.4634955646
 20
5.7480135647
 10
8.4624631575
 20
5.7801230826
 10
8.4614307505
 20
5.8141439502
  0
LWPOLYLINE
  5
4AF
100
AcDbEntity
  8
0
100
AcDbPolyline
 62
7
  6
CONTINUOUS
 90
21
 70
0
 10
8.5092478175
 20
5.6373782917
 10
8.5089214736
 20
5.6382317945
 10
8.5078890666
 20
5.6447058944
 10
8.5068566596
 20
5.6567592663
 10
8.5058242525
 20
5.6740654315
 10
8.5047918455
 20
5.6961556336
 10
8.5037594385
 20
5.7224315354
 10
8.5027270315
 20
5.7521814254
 10
8.5016946244
 20
5.7845994953
 10
8.5006622174
 20
5.8188076663
 10
8.4996298104
 20
5.8538793727
 10
8.4985974034
 20
5.8888646591
 10
8.4975649963
 20
5.9228159108
 10
8.4965325893
 20
5.954813521
 10
8.4955001823
 20
5.9839907996
 10
8.4944677753
 20
6.009557448
 10
8.4934353682
 20
6.0308209657
 10
8.4924029612
 20
6.0472054072
 10
8.4913705542
 20
6.0582669818
 10
8.4903381472
 20
6.0637060749
 10
8.490199013
 20
6.0639993164
  0
LWPOLYLINE
  5
4B0
100
AcDbEntity
  8
0
100
AcDbPolyline
 62
7
  6
CONTINUOUS
 90
8
 70
0
 10
8.413109242
 20
5.6064171505
 10
8.4121757907
 20
5.6091226675
 10
8.4112304744
 20
5.6173154878
 10
8.4102838992
 20
5.6308313125
 10
8.4093467938
 20
5.6491461837
 10
8.4084161236
 20
5.671789611
 10
8.4074797044
 20
5.6985477015
 10
8.4065475622
 20
5.7285529773
  0
LWPOLYLINE
  5
4B1
100
AcDbEntity
  8
0
100
AcDbPolyline
 62
7
  6
CONTINUOUS
 90
8
 70
0
 10
8.3107470373
 20
6.0949604576
 10
8.3116809674
 20
6.0922521698
 10
8.3126266375
 20
6.0840525313
 10
8.3135733409
 20
6.0705299713
 10
8.3145105092
 20
6.0522088735
 10
8.315440868
 20
6.0295690901
 10
8.3163769708
 20
6.0028178311
 10
8.3173087171
 20
5.9728246308
  0
LWPOLYLINE
  5
4B2
100
AcDbEntity
  8
0
100
AcDbPolyline
 62
7
  6
CONTINUOUS
 90
10
 70
0
 10
8.4524793208
 20
5.6064171505
 10
8.4514977461
 20
5.6094082343
 10
8.4505038118
 20
5.6184571887
 10
8.4495099399
 20
5.6333361679
 10
8.4485280077
 20
5.6533971914
 10
8.4475491568
 20
5.678208286
 10
8.4465660778
 20
5.7073534684
 10
8.4455899213
 20
5.7397791394
 10
8.4446155796
 20
5.7748238727
 10
8.4436330219
 20
5.8120155183
  0
LWPOLYLINE
  5
4B3
100
AcDbEntity
  8
0
100
AcDbPolyline
 62
7
  6
CONTINUOUS
 90
10
 70
0
 10
8.2713769586
 20
6.0949604576
 10
8.2723591889
 20
6.0919653842
 10
8.2733536098
 20
6.0829066069
 10
8.2743477144
 20
6.0680169741
 10
8.2753296766
 20
6.0479481168
 10
8.2763084482
 20
6.0231327234
 10
8.2772912387
 20
5.9939913965
 10
8.2782671314
 20
5.9615716062
 10
8.2792415818
 20
5.9265210486
 10
8.2802242031
 20
5.8893256866
  0
LWPOLYLINE
  5
4B4
100
AcDbEntity
  8
0
100
AcDbPolyline
 62
7
  6
CONTINUOUS
 90
11
 70
0
 10
8.2320068798
 20
6.0949604576
 10
8.232989954
 20
6.0919602466
 10
8.2339849969
 20
6.0828888712
 10
8.2349794571
 20
6.0679845469
 10
8.2359615004
 20
6.0479043604
 10
8.2369401536
 20
6.0230834547
 10
8.2379225605
 20
5.9939471775
 10
8.2388981549
 20
5.9615333168
 10
8.239872729
 20
5.9264756174
 10
8.2408553715
 20
5.8892776785
 10
8.2428452302
 20
5.8120305373
  0
LWPOLYLINE
  5
4B5
100
AcDbEntity
  8
0
100
AcDbPolyline
 62
7
  6
CONTINUOUS
 90
14
 70
0
 10
8.4242640977
 20
5.743895947
 10
8.423225165
 20
5.7758895105
 10
8.4221862324
 20
5.8099347285
 10
8.4211472998
 20
5.8450977819
 10
8.4201083671
 20
5.8804141902
 10
8.4190694345
 20
5.914915267
 10
8.4180305019
 20
5.9476546891
 10
8.4169915692
 20
5.9777344537
 10
8.4159526366
 20
6.004329509
 10
8.414913704
 20
6.0267103845
 10
8.4138747713
 20
6.0442631999
 10
8.4128358387
 20
6.0565065025
 10
8.4117969061
 20
6.0631044732
 10
8.4114588555
 20
6.0639993164
  0
LWPOLYLINE
  5
4B6
100
AcDbEntity
  8
0
100
AcDbPolyline
 62
7
  6
CONTINUOUS
 90
8
 70
0
 10
8.4419806331
 20
5.7285529773
 10
8.4429127753
 20
5.6985477015
 10
8.4438491945
 20
5.671789611
 10
8.4447798646
 20
5.6491461837
 10
8.4457169701
 20
5.6308313125
 10
8.4466635453
 20
5.6173154878
 10
8.4476088616
 20
5.6091226675
 10
8.4482641019
 20
5.6066578902
  0
LWPOLYLINE
  5
4B7
100
AcDbEntity
  8
0
100
AcDbPolyline
 62
7
  6
CONTINUOUS
 90
11
 70
0
 10
8.3827067923
 20
5.813600034
 10
8.3806289271
 20
5.884100971
 10
8.3795899944
 20
5.9184605457
 10
8.3785510618
 20
5.950961223
 10
8.3775121292
 20
5.9807115486
 10
8.3764731965
 20
6.0068955066
 10
8.3754342639
 20
6.0287949028
 10
8.3743953313
 20
6.0458090629
 10
8.3733563986
 20
6.0574713091
 10
8.372317466
 20
6.06346176
 10
8.3720887768
 20
6.0639993164
  0
LWPOLYLINE
  5
4B8
100
AcDbEntity
  8
0
100
AcDbPolyline
 62
7
  6
CONTINUOUS
 90
11
 70
0
 10
8.4614307505
 20
5.8141439502
 10
8.4593659365
 20
5.8842069535
 10
8.4583335294
 20
5.9183513562
 10
8.4573011224
 20
5.9506630448
 10
8.4562687154
 20
5.9802668219
 10
8.4552363084
 20
6.0063608369
 10
8.4542039014
 20
6.028238305
 10
8.4531714943
 20
6.0453066509
 10
8.4521390873
 20
6.0571035598
 10
8.4511066803
 20
6.0633094998
 10
8.4508289343
 20
6.0639993164
  0
LWPOLYLINE
  5
4B9
100
AcDbEntity
  8
0
100
AcDbPolyline
 62
7
  6
CONTINUOUS
 90
14
 70
0
 10
8.4065475622
 20
5.7285529773
 10
8.4055474551
 20
5.7637269949
 10
8.4045439155
 20
5.8012427323
 10
8.4035252997
 20
5.8406112798
 10
8.4025032835
 20
5.8803771407
 10
8.4014910729
 20
5.9189880003
 10
8.4004913088
 20
5.9553822336
 10
8.3994907047
 20
5.9891438235
 10
8.3984824127
 20
6.0195988436
 10
8.3974767967
 20
6.0456266822
 10
8.3964708363
 20
6.0666505925
 10
8.3954515752
 20
6.0822855352
 10
8.3944315548
 20
6.0918105541
 10
8.3937024137
 20
6.0947197179
  0
LWPOLYLINE
  5
4BA
100
AcDbEntity
  8
0
100
AcDbPolyline
 62
7
  6
CONTINUOUS
 90
10
 70
0
 10
8.360955673
 20
5.8120225847
 10
8.3619382327
 20
5.7748305991
 10
8.3629125941
 20
5.7397847616
 10
8.3638886915
 20
5.7073604437
 10
8.3648717056
 20
5.6782161768
 10
8.365850536
 20
5.6534042351
 10
8.3668324811
 20
5.633341389
 10
8.3678264116
 20
5.6184600287
 10
8.3688204488
 20
5.6094090371
 10
8.3695239444
 20
5.6066578902
  0
LWPOLYLINE
  5
4BB
100
AcDbEntity
  8
0
100
AcDbPolyline
 62
7
  6
CONTINUOUS
 90
11
 70
0
 10
8.3648914379
 20
5.8120704309
 10
8.3629015758
 20
5.8893177063
 10
8.3619189504
 20
5.9265135166
 10
8.3609444788
 20
5.9615652834
 10
8.3599686383
 20
5.9939840034
 10
8.3589859111
 20
6.0231245075
 10
8.3580071586
 20
6.0479408347
 10
8.3570251823
 20
6.0680115889
 10
8.3560310179
 20
6.0829036713
 10
8.3550364927
 20
6.0919645419
 10
8.354332335
 20
6.0947197179
  0
LWPOLYLINE
  5
4BC
100
AcDbEntity
  8
0
100
AcDbPolyline
 62
7
  6
CONTINUOUS
 90
11
 70
0
 10
8.3983346467
 20
5.8893177063
 10
8.4003245088
 20
5.8120704309
 10
8.4013070939
 20
5.7748757197
 10
8.4022815828
 20
5.7398226244
 10
8.4032573604
 20
5.7074049542
 10
8.4042399954
 20
5.6782655698
 10
8.4052187129
 20
5.6534479619
 10
8.4062007448
 20
5.6333736912
 10
8.4071950365
 20
5.6184776107
 10
8.4081897016
 20
5.6094140635
 10
8.4088940231
 20
5.6066578902
  0
LWPOLYLINE
  5
4BD
100
AcDbEntity
  8
0
100
AcDbPolyline
 62
7
  6
CONTINUOUS
 90
11
 70
0
 10
8.4436330219
 20
5.8120155183
 10
8.4416431627
 20
5.8892626813
 10
8.4406605128
 20
5.9264614516
 10
8.4396858969
 20
5.9615214909
 10
8.4387103914
 20
5.9939336199
 10
8.4377281116
 20
6.0230680869
 10
8.4367494977
 20
6.0478906571
 10
8.435767429
 20
6.0679743889
 10
8.4347728589
 20
6.0828832982
 10
8.433777624
 20
6.0919586112
 10
8.4330724925
 20
6.0947197179
  0
LINE
  5
4BE
100
AcDbEntity
  8
0
100
AcDbLine
 62
7
  6
CONTINUOUS
 10
8.4133874531
 20
5.6066578902
 11
8.4308257773
 21
5.6368279771
  0
LINE
  5
4BF
100
AcDbEntity
  8
0
100
AcDbLine
 62
7
  6
CONTINUOUS
 10
8.4527575318
 20
5.6066578902
 11
8.4701958561
 21
5.6368279771
  0
LINE
  5
4C0
100
AcDbEntity
  8
0
100
AcDbLine
 62
7
  6
CONTINUOUS
 10
8.4921276106
 20
5.6066578902
 11
8.5095659348
 21
5.6368279771
  0
LINE
  5
4C1
100
AcDbEntity
  8
0
100
AcDbLine
 62
7
  6
CONTINUOUS
 10
8.4114588555
 20
6.0639993164
 11
8.3937024137
 21
6.0947197179
  0
LINE
  5
4C2
100
AcDbEntity
  8
0
100
AcDbLine
 62
7
  6
CONTINUOUS
 10
8.4508289343
 20
6.0639993164
 11
8.4330724925
 21
6.0947197179
  0
LINE
  5
4C3
100
AcDbEntity
  8
0
100
AcDbLine
 62
7
  6
CONTINUOUS
 10
8.490199013
 20
6.0639993164
 11
8.4724425712
 21
6.0947197179
  0
LWPOLYLINE
  5
4C4
100
AcDbEntity
  8
0
100
AcDbPolyline
 62
7
  6
CONTINUOUS
 90
10
 70
0
 10
8.3894871948
 20
6.0949604576
 10
8.3904695636
 20
6.0919645419
 10
8.3914640888
 20
6.0829036713
 10
8.3924582532
 20
6.0680115889
 10
8.3934402295
 20
6.0479408347
 10
8.394418982
 20
6.0231245075
 10
8.3954017091
 20
5.9939840034
 10
8.3963775496
 20
5.9615652834
 10
8.3973520213
 20
5.9265135166
 10
8.3983346467
 20
5.8893177063
  0
LWPOLYLINE
  5
4C5
100
AcDbEntity
  8
0
100
AcDbPolyline
 62
7
  6
CONTINUOUS
 90
11
 70
0
 10
8.350117116
 20
6.0949604576
 10
8.351100334
 20
6.0919593708
 10
8.3520954797
 20
6.0828858867
 10
8.3530899983
 20
6.0679791153
 10
8.3540720543
 20
6.0478970527
 10
8.3550506869
 20
6.0230752495
 10
8.3560330291
 20
5.9939398402
 10
8.3570085772
 20
5.961526853
 10
8.357983171
 20
5.9264679897
 10
8.3589658164
 20
5.8892696478
 10
8.360955673
 20
5.8120225847
  0
LWPOLYLINE
  5
4C6
100
AcDbEntity
  8
0
100
AcDbPolyline
 62
7
  6
CONTINUOUS
 90
14
 70
0
 10
8.4288572735
 20
6.0949604576
 10
8.4298646256
 20
6.0918105541
 10
8.4308846461
 20
6.0822855352
 10
8.4319039072
 20
6.0666505925
 10
8.4329098676
 20
6.0456266822
 10
8.4339154835
 20
6.0195988436
 10
8.4349237755
 20
5.9891438235
 10
8.4359243796
 20
5.9553822336
 10
8.4369241438
 20
5.9189880003
 10
8.4379363544
 20
5.8803771407
 10
8.4389583706
 20
5.8406112798
 10
8.4399769864
 20
5.8012427323
 10
8.440980526
 20
5.7637269949
 10
8.4419806331
 20
5.7285529773
  0
LWPOLYLINE
  5
4C7
100
AcDbEntity
  8
0
100
AcDbPolyline
 62
7
  6
CONTINUOUS
 90
10
 70
0
 10
8.4876341806
 20
5.6066578902
 10
8.4869281837
 20
5.6094242713
 10
8.4859439001
 20
5.6183725069
 10
8.4849596172
 20
5.6330414951
 10
8.4839753704
 20
5.653069191
 10
8.4829911329
 20
5.677962631
 10
8.4820068828
 20
5.7071094358
 10
8.4810226536
 20
5.7397908986
 10
8.4800384299
 20
5.7752027111
 10
8.4790541813
 20
5.8124740907
  0
LWPOLYLINE
  5
4C8
100
AcDbEntity
  8
0
100
AcDbPolyline
 62
7
  6
CONTINUOUS
 90
7
 70
0
 10
8.43050766
 20
5.6373782917
 10
8.4294261328
 20
5.642409471
 10
8.4283937258
 20
5.6529906011
 10
8.4273613187
 20
5.6689266029
 10
8.4263289117
 20
5.6897858324
 10
8.4252965047
 20
5.7150032946
 10
8.4242640977
 20
5.743895947
  0
LINE
  5
4C9
100
AcDbEntity
  8
0
100
AcDbLine
 62
7
  6
CONTINUOUS
 10
8.5151273138
 20
5.6285523543
 11
8.5155622359
 21
5.6264548066
  0
LWPOLYLINE
  5
4CA
100
AcDbEntity
  8
0
100
AcDbPolyline
 62
7
  6
CONTINUOUS
 90
10
 70
0
 10
8.4790541813
 20
5.8124740907
 10
8.4770856081
 20
5.8889017662
 10
8.4761013593
 20
5.92617322
 10
8.4751171348
 20
5.9615851627
 10
8.4741329075
 20
5.9942667104
 10
8.4731486597
 20
6.0234136339
 10
8.4721644228
 20
6.0483072874
 10
8.4711801756
 20
6.0683352486
 10
8.4701958907
 20
6.0830045361
 10
8.4692116032
 20
6.0919530748
  0
LWPOLYLINE
  5
4CB
100
AcDbEntity
  8
0
100
AcDbPolyline
 62
7
  6
CONTINUOUS
 90
11
 70
0
 10
8.4810226151
 20
5.8889017997
 10
8.4829911889
 20
5.8124740988
 10
8.4839754379
 20
5.7752027048
 10
8.4849596623
 20
5.7397908708
 10
8.4859438908
 20
5.7071094295
 10
8.4869281402
 20
5.6779626479
 10
8.4879123777
 20
5.653069204
 10
8.4888966251
 20
5.6330414945
 10
8.4898809093
 20
5.6183724905
 10
8.4908651952
 20
5.6094242494
 10
8.4918493995
 20
5.6064171505
  0
LINE
  5
4CC
100
AcDbEntity
  8
0
100
AcDbLine
 62
7
  6
CONTINUOUS
 10
8.5312194783
 20
5.6418502214
 11
8.5312194783
 21
6.0595273867
  0
LINE
  5
4CD
100
AcDbEntity
  8
0
100
AcDbLine
 62
7
  6
CONTINUOUS
 10
8.570589557
 20
5.6469486466
 11
8.570589557
 21
6.0544289615
  0
LINE
  5
4CE
100
AcDbEntity
  8
0
100
AcDbLine
 62
7
  6
CONTINUOUS
 10
8.4692116032
 20
6.0919530748
 11
8.4682273523
 21
6.0949604576
  0
LWPOLYLINE
  5
4CF
100
AcDbEntity
  8
0
100
AcDbPolyline
 62
7
  6
CONTINUOUS
 90
10
 70
0
 10
8.4724425712
 20
6.0947197179
 10
8.4731486088
 20
6.0919530885
 10
8.4741328949
 20
6.0830045812
 10
8.475117179
 20
6.0683353261
 10
8.4761014263
 20
6.0483073864
 10
8.4770856639
 20
6.0234137361
 10
8.4780699131
 20
5.9942667814
 10
8.4790541415
 20
5.9615852025
 10
8.480038366
 20
5.9261732624
 10
8.4810226151
 20
5.8889017997
  0
LWPOLYLINE
  5
4D0
100
AcDbEntity
  8
0
100
AcDbPolyline
 62
7
  6
CONTINUOUS
 90
20
 70
0
 10
8.503274315
 20
6.0874726011
 10
8.5038932731
 20
6.0839926791
 10
8.5045202788
 20
6.074735534
 10
8.5051474721
 20
6.059963894
 10
8.5057674935
 20
6.0403303727
 10
8.506385543
 20
6.0162827962
 10
8.5070066528
 20
5.9882232978
 10
8.5076239083
 20
5.9571668175
 10
8.5082406794
 20
5.9237414864
 10
8.5088626271
 20
5.8884416361
 10
8.509493055
 20
5.8519173514
 10
8.5101241179
 20
5.815525222
 10
8.5107480352
 20
5.7806063742
 10
8.5113668188
 20
5.7478602116
 10
8.5119868241
 20
5.7177192403
 10
8.5126117135
 20
5.690771879
 10
8.5132346551
 20
5.6679770635
 10
8.5138597468
 20
5.649727113
 10
8.5144931766
 20
5.6363925455
 10
8.5151273138
 20
5.6285523543
  0
LINE
  5
4D1
100
AcDbEntity
  8
0
100
AcDbLine
 62
7
  6
CONTINUOUS
 10
11.6374645532
 20
5.3093502214
 11
11.6451484505
 21
5.3101073383
  0
LINE
  5
4D2
100
AcDbEntity
  8
0
100
AcDbLine
 62
7
  6
CONTINUOUS
 10
11.4376832232
 20
5.2699801426
 11
11.6374645532
 21
5.2699801426
  0
LINE
  5
4D3
100
AcDbEntity
  8
0
100
AcDbLine
 62
7
  6
CONTINUOUS
 10
11.4299993259
 20
5.3101073383
 11
11.4376832232
 21
5.3093502214
  0
LWPOLYLINE
  5
4D4
100
AcDbEntity
  8
02___PRT_ALL_AXES
100
AcDbPolyline
 62
7
  6
CONTINUOUS
 90
16
 70
0
 10
11.3115899792
 20
5.3093502214
 10
11.2298721517
 20
5.3512532931
 10
11.155695542
 20
5.4053966338
 10
11.0908780859
 20
5.4704532871
 10
11.0370083429
 20
5.5448288311
 10
10.9954065639
 20
5.6267004547
 10
10.9670923339
 20
5.714061631
 10
10.9527595839
 20
5.8047712944
 10
10.9527595839
 20
5.8966063137
 10
10.9670923339
 20
5.9873159771
 10
10.9954065639
 20
6.0746771535
 10
11.0370083429
 20
6.156548777
 10
11.0908780859
 20
6.230924321
 10
11.155695542
 20
6.2959809743
 10
11.2298721517
 20
6.350124315
 10
11.3115899792
 20
6.3920273867
  0
LINE
  5
4D5
100
AcDbEntity
  8
0
100
AcDbLine
 62
7
  6
CONTINUOUS
 10
11.7635577973
 20
5.3093502214
 11
11.3115899792
 21
5.3093502214
  0
LINE
  5
4D6
100
AcDbEntity
  8
0
100
AcDbLine
 62
7
  6
CONTINUOUS
 10
11.6374645532
 20
5.3487203001
 11
11.4376832232
 21
5.3487203001
  0
LWPOLYLINE
  5
4D7
100
AcDbEntity
  8
0
100
AcDbPolyline
 62
7
  6
CONTINUOUS
 90
20
 70
0
 10
11.5483429518
 20
5.4154343807
 10
11.4788087301
 20
5.422487295
 10
11.411728847
 20
5.4405213618
 10
11.3485240782
 20
5.4691097961
 10
11.291432273
 20
5.5070958263
 10
11.2412171677
 20
5.5538513419
 10
11.1996618856
 20
5.607627242
 10
11.1675716333
 20
5.6671129403
 10
11.1456818279
 20
5.7308144917
 10
11.1345947076
 20
5.7965376248
 10
11.1344013648
 20
5.8631201984
 10
11.1450209847
 20
5.9282013444
 10
11.1660737925
 20
5.9903643892
 10
11.1969047655
 20
6.0479082502
 10
11.2364668909
 20
6.0991566036
 10
11.2837568679
 20
6.1429894352
 10
11.337248718
 20
6.1781222672
 10
11.395368076
 20
6.2037045082
 10
11.456630944
 20
6.2192029832
 10
11.5190774182
 20
6.2242469125
  0
LWPOLYLINE
  5
4D8
100
AcDbEntity
  8
0
100
AcDbPolyline
 62
7
  6
CONTINUOUS
 90
18
 70
0
 10
11.5375738882
 20
5.6263848236
 10
11.572693139
 20
5.6297853332
 10
11.6071852532
 20
5.6387867226
 10
11.6397171127
 20
5.6531228809
 10
11.66910645
 20
5.6721210572
 10
11.6950870391
 20
5.6954496178
 10
11.7170664039
 20
5.7225699328
 10
11.7343618832
 20
5.7525497539
 10
11.746695825
 20
5.7847284071
 10
11.7538756489
 20
5.8187549534
 10
11.7555598016
 20
5.8537773401
 10
11.7516305557
 20
5.8884948832
 10
11.7423640279
 20
5.9216587784
 10
11.7281320327
 20
5.9526313747
 10
11.7091700982
 20
5.9810265316
 10
11.685909536
 20
6.0061161405
 10
11.6590804098
 20
6.0271154572
 10
11.6292130467
 20
6.0436165674
  0
LINE
  5
4D9
100
AcDbEntity
  8
0
100
AcDbLine
 62
7
  6
CONTINUOUS
 10
11.4376832232
 20
6.4313974655
 11
11.4376832232
 21
6.352657308
  0
LINE
  5
4DA
100
AcDbEntity
  8
0
100
AcDbLine
 62
7
  6
CONTINUOUS
 10
11.4376832232
 20
5.2699801426
 11
11.4376832232
 21
5.3487203001
  0
LINE
  5
4DB
100
AcDbEntity
  8
0
100
AcDbLine
 62
7
  6
CONTINUOUS
 10
11.4299993259
 20
5.3101073383
 11
11.4376832232
 21
5.3487203001
  0
LINE
  5
4DC
100
AcDbEntity
  8
0
100
AcDbLine
 62
7
  6
CONTINUOUS
 10
11.6528323479
 20
6.4298832317
 11
11.6452991152
 21
6.3920273867
  0
LINE
  5
4DD
100
AcDbEntity
  8
0
100
AcDbLine
 62
7
  6
CONTINUOUS
 10
11.4223154286
 20
5.2714943764
 11
11.4298486613
 21
5.3093502214
  0
LINE
  5
4DE
100
AcDbEntity
  8
0
100
AcDbLine
 62
7
  6
CONTINUOUS
 10
11.6451484505
 20
6.3912702698
 11
11.6374645532
 21
6.352657308
  0
LINE
  5
4DF
100
AcDbEntity
  8
0
100
AcDbLine
 62
7
  6
CONTINUOUS
 10
11.4065531973
 20
5.9483028754
 11
11.4220426622
 21
5.9328134105
  0
LINE
  5
4E0
100
AcDbEntity
  8
0
100
AcDbLine
 62
7
  6
CONTINUOUS
 10
11.4299993259
 20
6.3912702698
 11
11.4376832232
 21
6.352657308
  0
LINE
  5
4E1
100
AcDbEntity
  8
0
100
AcDbLine
 62
7
  6
CONTINUOUS
 10
11.6528323479
 20
5.2714943764
 11
11.6452991152
 21
5.3093502214
  0
LINE
  5
4E2
100
AcDbEntity
  8
0
100
AcDbLine
 62
7
  6
CONTINUOUS
 10
11.4223154286
 20
6.4298832317
 11
11.4298486613
 21
6.3920273867
  0
LINE
  5
4E3
100
AcDbEntity
  8
0
100
AcDbLine
 62
7
  6
CONTINUOUS
 10
11.6451484505
 20
5.3101073383
 11
11.6374645532
 21
5.3487203001
  0
LINE
  5
4E4
100
AcDbEntity
  8
0
100
AcDbLine
 62
7
  6
CONTINUOUS
 10
11.6374645532
 20
6.4313974655
 11
11.6374645532
 21
6.352657308
  0
LINE
  5
4E5
100
AcDbEntity
  8
0
100
AcDbLine
 62
7
  6
CONTINUOUS
 10
11.6374645532
 20
5.2699801426
 11
11.6374645532
 21
5.3487203001
  0
LINE
  5
4E6
100
AcDbEntity
  8
0
100
AcDbLine
 62
7
  6
CONTINUOUS
 10
11.4554492818
 20
5.9662200301
 11
11.4399598169
 21
5.981709495
  0
LWPOLYLINE
  5
4E7
100
AcDbEntity
  8
0
100
AcDbPolyline
 62
7
  6
CONTINUOUS
 90
13
 70
0
 10
11.7698906713
 20
5.7752066669
 10
11.7781867397
 20
5.8123268739
 10
11.7805971238
 20
5.8507174409
 10
11.7769331823
 20
5.8889272496
 10
11.7674465425
 20
5.925604485
 10
11.7525591897
 20
5.9599475465
 10
11.7325305546
 20
5.9915800153
 10
11.7076962664
 20
6.0198560351
 10
11.6789044557
 20
6.0437875711
 10
11.6467458299
 20
6.0629277267
 10
11.6115925981
 20
6.0769280692
 10
11.5747329122
 20
6.0851708444
 10
11.5375738882
 20
6.0874726011
  0
LWPOLYLINE
  5
4E8
100
AcDbEntity
  8
0
100
AcDbPolyline
 62
7
  6
CONTINUOUS
 90
21
 70
0
 10
11.5375738882
 20
6.0874726011
 10
11.5009251092
 20
6.0839926791
 10
11.46490248
 20
6.074735534
 10
11.4308642575
 20
6.059963894
 10
11.3999942054
 20
6.0403303727
 10
11.3727057622
 20
6.0162827962
 10
11.3494323317
 20
5.9882232978
 10
11.3309629223
 20
5.9571668175
 10
11.3175679175
 20
5.9237414864
 10
11.3094816364
 20
5.8884416361
 10
11.3070121057
 20
5.8519173514
 10
11.3103445691
 20
5.815525222
 10
11.3192357019
 20
5.7806063742
 10
11.3333044892
 20
5.7478602116
 10
11.3522751925
 20
5.7177192403
 10
11.3758381766
 20
5.690771879
 10
11.403166673
 20
5.6679770635
 10
11.4337466369
 20
5.649727113
 10
11.4671703897
 20
5.6363925455
 10
11.502229008
 20
5.6285523543
 10
11.5375738882
 20
5.6263848236
  0
LWPOLYLINE
  5
4E9
100
AcDbEntity
  8
0
100
AcDbPolyline
 62
7
  6
CONTINUOUS
 90
14
 70
0
 10
11.6292130467
 20
6.0436165674
 10
11.6602598889
 20
6.0284260419
 10
11.6888019828
 20
6.0081958773
 10
11.7140002877
 20
5.9833540903
 10
11.7349557193
 20
5.9546991364
 10
11.7511490363
 20
5.9229341533
 10
11.7622603594
 20
5.8884203554
 10
11.7677943415
 20
5.8518647142
 10
11.7673634111
 20
5.8145728568
 10
11.7610029387
 20
5.7779739171
 10
11.7489733343
 20
5.7429093114
 10
11.7314099416
 20
5.7098220225
 10
11.708580806
 20
5.679527189
 10
11.6811548268
 20
5.6530700934
  0
LWPOLYLINE
  5
4EA
100
AcDbEntity
  8
0
100
AcDbPolyline
 62
7
  6
CONTINUOUS
 90
20
 70
0
 10
11.5375738882
 20
6.2247045521
 10
11.6002371416
 20
6.2227499669
 10
11.6623441026
 20
6.2102482755
 10
11.721549536
 20
6.1875859184
 10
11.7768505334
 20
6.1550246174
 10
11.8260565654
 20
6.1137119505
 10
11.8681849171
 20
6.0643587524
 10
11.9018003011
 20
6.0083865004
 10
11.9258329282
 20
5.9474543853
 10
11.9396710085
 20
5.8827908802
 10
11.94273919
 20
5.8165669632
 10
11.9348820464
 20
5.7501804084
 10
11.916182117
 20
5.6855834838
 10
11.8870955218
 20
5.6246404611
 10
11.8481843748
 20
5.5687937446
 10
11.8005236192
 20
5.5197913276
 10
11.7452761098
 20
5.4789341207
 10
11.6836426165
 20
5.4472854631
 10
11.6175886175
 20
5.425951655
 10
11.5483429518
 20
5.4154343807
  0
LINE
  5
4EB
100
AcDbEntity
  8
0
100
AcDbLine
 62
7
  6
CONTINUOUS
 10
11.4376832232
 20
6.352657308
 11
11.6374645532
 21
6.352657308
  0
LINE
  5
4EC
100
AcDbEntity
  8
0
100
AcDbLine
 62
7
  6
CONTINUOUS
 10
11.3115899792
 20
6.3920273867
 11
11.7635577973
 21
6.3920273867
  0
LINE
  5
4ED
100
AcDbEntity
  8
0
100
AcDbLine
 62
7
  6
CONTINUOUS
 10
11.6374645532
 20
6.4313974655
 11
11.4376832232
 21
6.4313974655
  0
LWPOLYLINE
  5
4EE
100
AcDbEntity
  8
02___PRT_ALL_AXES
100
AcDbPolyline
 62
7
  6
CONTINUOUS
 90
16
 70
0
 10
11.7635577973
 20
6.3920273867
 10
11.8452756248
 20
6.350124315
 10
11.9194522345
 20
6.2959809743
 10
11.9842696906
 20
6.2309243211
 10
12.0381394336
 20
6.156548777
 10
12.0797412126
 20
6.0746771535
 10
12.1080554426
 20
5.9873159771
 10
12.1223881926
 20
5.8966063137
 10
12.1223881926
 20
5.8047712944
 10
12.1080554426
 20
5.714061631
 10
12.0797412126
 20
5.6267004547
 10
12.0381394336
 20
5.5448288311
 10
11.9842696906
 20
5.4704532871
 10
11.9194522345
 20
5.4053966338
 10
11.8452756248
 20
5.3512532931
 10
11.7635577973
 20
5.3093502214
  0
LWPOLYLINE
  5
4EF
100
AcDbEntity
  8
0
100
AcDbPolyline
 62
7
  6
CONTINUOUS
 90
8
 70
0
 10
15.0295119523
 20
7.3238015776
 10
15.0664723427
 20
7.3297349639
 10
15.1015416711
 20
7.3388970649
 10
15.1342031456
 20
7.351208932
 10
15.1636914648
 20
7.3665308143
 10
15.1888361671
 20
7.384362861
 10
15.2087864916
 20
7.4040192406
 10
15.2232949366
 20
7.4250646254
  0
LWPOLYLINE
  5
4F0
100
AcDbEntity
  8
0
100
AcDbPolyline
 62
7
  6
CONTINUOUS
 90
8
 70
0
 10
15.0542239296
 20
7.3305874673
 10
15.0185545564
 20
7.3259208745
 10
14.9821099019
 20
7.3243496549
 10
14.9460837274
 20
7.3259010717
 10
14.9108096209
 20
7.3305472234
 10
14.8769991665
 20
7.3382589549
 10
14.8458248815
 20
7.3487958902
 10
14.8182753676
 20
7.3617300798
  0
LWPOLYLINE
  5
4F1
100
AcDbEntity
  8
0
100
AcDbPolyline
 62
7
  6
CONTINUOUS
 90
17
 70
0
 10
14.846935344
 20
7.2786249563
 10
14.8689045441
 20
7.2676345236
 10
14.8933592716
 20
7.2585610423
 10
14.9198016989
 20
7.2515892224
 10
14.9476935344
 20
7.2468609901
 10
14.9764669808
 20
7.2444725985
 10
15.0055362936
 20
7.2444726683
 10
15.0343097056
 20
7.2468611983
 10
15.0622014729
 20
7.2515895647
 10
15.0886437997
 20
7.2585615117
 10
15.1130983963
 20
7.2676351105
 10
15.1350674379
 20
7.2786256489
 10
15.154103698
 20
7.2913093911
 10
15.1698196532
 20
7.3054281328
 10
15.1818953721
 20
7.3206944571
 10
15.1900850278
 20
7.3367975856
 10
15.192760934
 20
7.3475430098
  0
LWPOLYLINE
  5
4F2
100
AcDbEntity
  8
AXIS
100
AcDbPolyline
 62
7
  6
CONTINUOUS
 90
7
 70
0
 10
14.7826261339
 20
9.6776588395
 10
14.7550925288
 20
9.6593133689
 10
14.7323613356
 20
9.6388923483
 10
14.7148952958
 20
9.6168114908
 10
14.7030499677
 20
9.5935202991
 10
14.697066488
 20
9.5694929147
 10
14.6963186189
 20
9.5573563979
  0
LWPOLYLINE
  5
4F3
100
AcDbEntity
  8
02___PRT_ALL_AXES
100
AcDbPolyline
 62
7
  6
CONTINUOUS
 90
7
 70
0
 10
14.7988912151
 20
9.68830994
 10
14.7641777584
 20
9.6682682361
 10
14.7356514429
 20
9.6452011464
 10
14.7140903919
 20
9.6197378809
 10
14.7000827347
 20
9.5925730111
 10
14.6940105638
 20
9.5644475238
 10
14.6937596178
 20
9.5573685392
  0
LWPOLYLINE
  5
4F4
100
AcDbEntity
  8
0
100
AcDbPolyline
 62
7
  6
CONTINUOUS
 90
4
 70
0
 10
15.0542239296
 20
7.3595186553
 10
15.0909202921
 20
7.3678680047
 10
15.1251884047
 20
7.3795340467
 10
15.156454743
 20
7.3944582195
  0
LWPOLYLINE
  5
4F5
100
AcDbEntity
  8
0
100
AcDbPolyline
 62
7
  6
CONTINUOUS
 90
14
 70
0
 10
14.8182753676
 20
7.4228070323
 10
14.8473681168
 20
7.4092598699
 10
14.8804067712
 20
7.3983977906
 10
14.9162125656
 20
7.3906999891
 10
14.9534252541
 20
7.3864078217
 10
14.9914298103
 20
7.3855286204
 10
15.0295747329
 20
7.3881002297
 10
15.0665187568
 20
7.3940362231
 10
15.1015903063
 20
7.4032039894
 10
15.134248196
 20
7.4155204515
 10
15.1637310757
 20
7.4308463813
 10
15.1888688487
 20
7.4486816157
 10
15.2088112896
 20
7.4683401098
 10
15.2124149165
 20
7.4735705224
  0
LWPOLYLINE
  5
4F6
100
AcDbEntity
  8
0
100
AcDbPolyline
 62
7
  6
CONTINUOUS
 90
7
 70
0
 10
14.8182753676
 20
7.3585155034
 10
14.8473379111
 20
7.3449802383
 10
14.8803480758
 20
7.3341220956
 10
14.9161343198
 20
7.3264212757
 10
14.953340196
 20
7.3221221437
 10
14.9913489272
 20
7.3212353231
 10
15.0295119523
 20
7.3238015776
  0
LWPOLYLINE
  5
4F7
100
AcDbEntity
  8
0
100
AcDbPolyline
 62
7
  6
CONTINUOUS
 90
8
 70
0
 10
14.8182753676
 20
7.3906612678
 10
14.8458248815
 20
7.3777270782
 10
14.8769991665
 20
7.3671901429
 10
14.9108096209
 20
7.3594784114
 10
14.9460837274
 20
7.3548322597
 10
14.9821099019
 20
7.3532808429
 10
15.0185545564
 20
7.3548520625
 10
15.0542239296
 20
7.3595186553
  0
LINE
  5
4F8
100
AcDbEntity
  8
0
100
AcDbLine
 62
7
  6
CONTINUOUS
 10
14.8589199637
 20
7.3019706126
 11
14.8323945859
 21
7.3150031554
  0
LWPOLYLINE
  5
4F9
100
AcDbEntity
  8
0
100
AcDbPolyline
 62
7
  6
CONTINUOUS
 90
11
 70
0
 10
14.843330228
 20
7.3086893185
 10
14.8681024951
 20
7.2964637537
 10
14.8959793006
 20
7.2865787022
 10
14.9262591473
 20
7.2793152446
 10
14.9581574636
 20
7.2748755223
 10
14.9908568701
 20
7.2733751925
 10
15.0235546477
 20
7.2748490347
 10
15.0554515781
 20
7.2792606155
 10
15.0857598165
 20
7.2865014392
 10
15.1137301425
 20
7.2963926286
 10
15.1386750942
 20
7.3086914777
  0
LINE
  5
4FA
100
AcDbEntity
  8
0
100
AcDbLine
 62
7
  6
CONTINUOUS
 10
14.8323945859
 20
7.3150031554
 11
14.8323906562
 21
7.3150054242
  0
LINE
  5
4FB
100
AcDbEntity
  8
0
100
AcDbLine
 62
7
  6
CONTINUOUS
 10
14.8433264563
 20
7.3086914976
 11
14.843330228
 21
7.3086893185
  0
LINE
  5
4FC
100
AcDbEntity
  8
0
100
AcDbLine
 62
7
  6
CONTINUOUS
 10
14.8182741556
 20
7.3263704027
 11
14.7933808307
 21
7.3423942312
  0
LWPOLYLINE
  5
4FD
100
AcDbEntity
  8
0
100
AcDbPolyline
 62
7
  6
CONTINUOUS
 90
13
 70
0
 10
14.7933805859
 20
7.3456089934
 10
14.8182743323
 20
7.3295848824
 10
14.8474209491
 20
7.3160163533
 10
14.8801042567
 20
7.3052568026
 10
14.9155183534
 20
7.297591554
 10
14.9527898041
 20
7.2932292418
 10
14.9910017652
 20
7.2922967207
 10
15.0292141879
 20
7.2948367371
 10
15.0664848948
 20
7.3008064067
 10
15.1018968329
 20
7.3100784884
 10
15.1345790809
 20
7.3224448443
 10
15.163727022
 20
7.3376212039
 10
15.1886215796
 20
7.3552532275
  0
LWPOLYLINE
  5
4FE
100
AcDbEntity
  8
0
100
AcDbPolyline
 62
7
  6
CONTINUOUS
 90
3
 70
0
 10
14.8182753676
 20
7.3617300798
 10
14.7934012855
 20
7.377739049
 10
14.7731740254
 20
7.3960148412
  0
LWPOLYLINE
  5
4FF
100
AcDbEntity
  8
0
100
AcDbPolyline
 62
7
  6
CONTINUOUS
 90
6
 70
0
 10
14.846935344
 20
7.2786249563
 10
14.827898901
 20
7.291308607
 10
14.8121827421
 20
7.3054272732
 10
14.8001068031
 20
7.3206935394
 10
14.7919169151
 20
7.3367966286
 10
14.7896948609
 20
7.3457190276
  0
LWPOLYLINE
  5
500
100
AcDbEntity
  8
0
100
AcDbPolyline
 62
7
  6
CONTINUOUS
 90
3
 70
0
 10
14.8323906562
 20
7.3150054242
 10
14.8099659354
 20
7.3302171285
 10
14.8051639296
 20
7.3348094527
  0
LWPOLYLINE
  5
501
100
AcDbEntity
  8
02___PRT_ALL_AXES
100
AcDbPolyline
 62
7
  6
CONTINUOUS
 90
8
 70
0
 10
14.0067511975
 20
8.8083740842
 10
14.0104945557
 20
8.7588314759
 10
14.027083685
 20
8.6934476294
 10
14.0567081396
 20
8.6296177767
 10
14.0989672995
 20
8.5682051071
 10
14.1532896821
 20
8.5100401216
 10
14.2189406704
 20
8.4559094018
 10
14.2950324474
 20
8.4065449729
  0
LWPOLYLINE
  5
502
100
AcDbEntity
  8
0
100
AcDbPolyline
 62
7
  6
CONTINUOUS
 90
8
 70
0
 10
14.0067488226
 20
8.4226109115
 10
14.0072202145
 20
8.4050259935
 10
14.0204493743
 20
8.3281278989
 10
14.0518089293
 20
8.2526421828
 10
14.0998941802
 20
8.1813116843
 10
14.1606974983
 20
8.1174659228
 10
14.2281813619
 20
8.0635160332
 10
14.2950324474
 20
8.0207957994
  0
LINE
  5
503
100
AcDbEntity
  8
02___PRT_ALL_AXES
100
AcDbLine
 62
7
  6
CONTINUOUS
 10
14.0067488226
 20
8.8083600849
 11
14.0067488226
 21
8.4226109115
  0
LWPOLYLINE
  5
504
100
AcDbEntity
  8
02___PRT_ALL_AXES
100
AcDbPolyline
 62
7
  6
CONTINUOUS
 90
18
 70
0
 10
14.0067488226
 20
8.8083600849
 10
14.0156555602
 20
8.9404722267
 10
14.0431535124
 20
9.0735722147
 10
14.0907809047
 20
9.2062998965
 10
14.1588676744
 20
9.3340086495
 10
14.2395784105
 20
9.4440615427
 10
14.3380964726
 20
9.5448842789
 10
14.4441693832
 20
9.6267287969
 10
14.5542649354
 20
9.6904109507
 10
14.6709119637
 20
9.7391098258
 10
14.7819608379
 20
9.7701574833
 10
14.8884003328
 20
9.7872498047
 10
14.9922242877
 20
9.792611293
 10
15.0937065252
 20
9.7872387647
 10
15.1936427749
 20
9.771525784
 10
15.2896691115
 20
9.7462029139
 10
15.3848822836
 20
9.7103630269
 10
15.4831184255
 20
9.6607521142
  0
LWPOLYLINE
  5
505
100
AcDbEntity
  8
DATUM_CURVES
100
AcDbPolyline
 62
7
  6
CONTINUOUS
 90
17
 70
0
 10
14.8009998512
 20
9.6670510089
 10
14.7677139876
 20
9.6436552528
 10
14.742933049
 20
9.6169724001
 10
14.7276009335
 20
9.5880187923
 10
14.7223000037
 20
9.5573557508
 10
14.7274175858
 20
9.5272237504
 10
14.7425749702
 20
9.4982394931
 10
14.767194817
 20
9.4715069803
 10
14.8010014333
 20
9.4476608711
 10
14.8415246509
 20
9.4284435435
 10
14.8877413681
 20
9.4141364665
 10
14.9378912048
 20
9.405284592
 10
14.9910019098
 20
9.4022241426
 10
15.0431928117
 20
9.4051787377
 10
15.0933957356
 20
9.4139297326
 10
15.139698468
 20
9.4281438045
 10
15.1810017477
 20
9.4476617941
  0
LWPOLYLINE
  5
506
100
AcDbEntity
  8
02___PRT_ALL_AXES
100
AcDbPolyline
 62
7
  6
CONTINUOUS
 90
9
 70
0
 10
14.9461628813
 20
7.5067182914
 10
15.0379977441
 20
7.5080188019
 10
15.1286807958
 20
7.5175929978
 10
15.2159895575
 20
7.5352357072
 10
15.2977842479
 20
7.5605440134
 10
15.3720602259
 20
7.5929271299
 10
15.4369971204
 20
7.631620879
 10
15.4910034445
 20
7.6757064208
 10
15.5327556002
 20
7.7241327723
  0
LINE
  5
507
100
AcDbEntity
  8
02___PRT_ALL_AXES
100
AcDbLine
 62
7
  6
CONTINUOUS
 10
14.8554269153
 20
7.5136938649
 11
14.9461628813
 21
7.5067182914
  0
LWPOLYLINE
  5
508
100
AcDbEntity
  8
02___PRT_ALL_AXES
100
AcDbPolyline
 62
7
  6
CONTINUOUS
 90
10
 70
0
 10
14.7680136219
 20
7.5227177582
 10
14.8554269153
 20
7.507666534
 10
14.9461628813
 20
7.5006909606
 10
15.0379977441
 20
7.5019914711
 10
15.1286807958
 20
7.511565667
 10
15.2159895575
 20
7.5292083764
 10
15.2977842479
 20
7.5545166826
 10
15.3720602259
 20
7.5868997991
 10
15.4369971204
 20
7.6255935481
 10
15.4910034445
 20
7.66967909
  0
LINE
  5
509
100
AcDbEntity
  8
02___PRT_ALL_AXES
100
AcDbLine
 62
7
  6
CONTINUOUS
 10
14.7680136219
 20
7.528745089
 11
14.8554269153
 21
7.5136938649
  0
LWPOLYLINE
  5
50A
100
AcDbEntity
  8
02___PRT_ALL_AXES
100
AcDbPolyline
 62
7
  6
CONTINUOUS
 90
11
 70
0
 10
14.7680136219
 20
7.5709364049
 10
14.8554269153
 20
7.5558851807
 10
14.9461628813
 20
7.5489096072
 10
15.0379977441
 20
7.5502101178
 10
15.1286807958
 20
7.5597843136
 10
15.2159895575
 20
7.577427023
 10
15.2977842479
 20
7.6027353293
 10
15.3720602259
 20
7.6351184458
 10
15.4369971204
 20
7.6738121948
 10
15.4910034445
 20
7.7178977366
 10
15.5327556002
 20
7.7663240881
  0
LWPOLYLINE
  5
50B
100
AcDbEntity
  8
02___PRT_ALL_AXES
100
AcDbPolyline
 62
7
  6
CONTINUOUS
 90
11
 70
0
 10
14.7680136219
 20
7.5769637357
 10
14.8554269153
 20
7.5619125116
 10
14.9461628813
 20
7.5549369381
 10
15.0379977441
 20
7.5562374486
 10
15.1286807958
 20
7.5658116445
 10
15.2159895575
 20
7.5834543539
 10
15.2977842479
 20
7.6087626601
 10
15.3720602259
 20
7.6411457766
 10
15.4369971204
 20
7.6798395257
 10
15.4910034445
 20
7.7239250675
 10
15.5327556002
 20
7.772351419
  0
LWPOLYLINE
  5
50C
100
AcDbEntity
  8
02___PRT_ALL_AXES
100
AcDbPolyline
 62
7
  6
CONTINUOUS
 90
3
 70
0
 10
14.8327656797
 20
7.5546358155
 10
14.7544852167
 20
7.5708581367
 10
14.6815436276
 20
7.5937884579
  0
LWPOLYLINE
  5
50D
100
AcDbEntity
  8
02___PRT_ALL_AXES
100
AcDbPolyline
 62
7
  6
CONTINUOUS
 90
4
 70
0
 10
14.7680136219
 20
7.5709364049
 10
14.7390383304
 20
7.5803055364
 10
14.7102021879
 20
7.590834977
 10
14.6815436276
 20
7.6025729154
  0
LWPOLYLINE
  5
50E
100
AcDbEntity
  8
0
100
AcDbPolyline
 62
7
  6
CONTINUOUS
 90
14
 70
0
 10
14.6848205816
 20
7.5150900788
 10
14.7505904448
 20
7.4933412735
 10
14.8263198972
 20
7.4760110821
 10
14.9090904605
 20
7.4650091059
 10
14.9951341439
 20
7.4614845618
 10
15.0806701343
 20
7.4657149647
 10
15.1636917043
 20
7.4774977719
 10
15.2426608816
 20
7.496581434
 10
15.3156282845
 20
7.5225238736
 10
15.380720766
 20
7.5546662872
 10
15.4364017831
 20
7.5922429174
 10
15.4813450651
 20
7.6343669273
 10
15.5144092757
 20
7.67995711
 10
15.5286149166
 20
7.7133028583
  0
LWPOLYLINE
  5
50F
100
AcDbEntity
  8
0
100
AcDbPolyline
 62
7
  6
CONTINUOUS
 90
4
 70
0
 10
14.6925234016
 20
7.4972577416
 10
14.6912110659
 20
7.4977912036
 10
14.6884868116
 20
7.4990816605
 10
14.6870053542
 20
7.4998951036
  0
LWPOLYLINE
  5
510
100
AcDbEntity
  8
0
100
AcDbPolyline
 62
7
  6
CONTINUOUS
 90
4
 70
0
 10
14.6788518628
 20
7.5555245735
 10
14.7083820323
 20
7.5433232725
 10
14.7380441067
 20
7.5324294088
 10
14.7680136219
 20
7.5227177582
  0
LWPOLYLINE
  5
511
100
AcDbEntity
  8
0
100
AcDbPolyline
 62
7
  6
CONTINUOUS
 90
11
 70
0
 10
14.8182753676
 20
7.4549527967
 10
14.8473420725
 20
7.4414158923
 10
14.8803562407
 20
7.4305571857
 10
14.9161452096
 20
7.4228567845
 10
14.9533519989
 20
7.4185586241
 10
14.9913600703
 20
7.4176728592
 10
15.0295204587
 20
7.4202398356
 10
15.0664783441
 20
7.426173515
 10
15.1015479813
 20
7.4353363553
 10
15.1342089434
 20
7.4476487975
 10
15.1607151076
 20
7.4614219691
  0
LWPOLYLINE
  5
512
100
AcDbEntity
  8
0
100
AcDbPolyline
 62
7
  6
CONTINUOUS
 90
3
 70
0
 10
14.6788518628
 20
7.5179178703
 10
14.6817157401
 20
7.5164193511
 10
14.6848205816
 20
7.5150900788
  0
LINE
  5
513
100
AcDbEntity
  8
0
100
AcDbLine
 62
7
  6
CONTINUOUS
 10
14.5457385698
 20
7.5814536745
 11
14.6870058912
 21
7.4998947936
  0
LINE
  5
514
100
AcDbEntity
  8
0
100
AcDbLine
 62
7
  6
CONTINUOUS
 10
14.5375845414
 20
7.5994767512
 11
14.6788518628
 21
7.5179178703
  0
LWPOLYLINE
  5
515
100
AcDbEntity
  8
0
100
AcDbPolyline
 62
7
  6
CONTINUOUS
 90
4
 70
0
 10
14.545739301
 20
7.5814532524
 10
14.5441524536
 20
7.5824199843
 10
14.5414322879
 20
7.5843334042
 10
14.5396798014
 20
7.5857621663
  0
LINE
  5
516
100
AcDbEntity
  8
0
100
AcDbLine
 62
7
  6
CONTINUOUS
 10
14.8182753676
 20
7.3938758443
 11
14.7934340878
 21
7.4098599299
  0
LWPOLYLINE
  5
517
100
AcDbEntity
  8
0
100
AcDbPolyline
 62
7
  6
CONTINUOUS
 90
4
 70
0
 10
14.8182753676
 20
7.4260216087
 10
14.7934149908
 20
7.4420201797
 10
14.773192401
 20
7.4602863199
 10
14.7625577169
 20
7.4746185178
  0
LINE
  5
518
100
AcDbEntity
  8
0
100
AcDbLine
 62
7
  6
CONTINUOUS
 10
14.8012246814
 20
7.4659255432
 11
14.8182753676
 21
7.4549527967
  0
LINE
  5
519
100
AcDbEntity
  8
0
100
AcDbLine
 62
7
  6
CONTINUOUS
 10
14.8182753676
 20
7.4581673732
 11
14.8086894251
 21
7.4643368746
  0
LINE
  5
51A
100
AcDbEntity
  8
0
100
AcDbLine
 62
7
  6
CONTINUOUS
 10
14.5429011062
 20
7.5836517015
 11
14.5457385745
 21
7.5814536718
  0
LWPOLYLINE
  5
51B
100
AcDbEntity
  8
0
100
AcDbPolyline
 62
7
  6
CONTINUOUS
 90
3
 70
0
 10
14.5326865432
 20
7.6029227198
 10
14.5349889691
 20
7.6011301754
 10
14.5375845414
 20
7.5994767512
  0
LWPOLYLINE
  5
51C
100
AcDbEntity
  8
0
100
AcDbPolyline
 62
7
  6
CONTINUOUS
 90
4
 70
0
 10
14.4484227823
 20
7.7011597081
 10
14.4783923862
 20
7.6773172552
 10
14.5080545139
 20
7.6550516109
 10
14.5375845414
 20
7.6342827767
  0
LWPOLYLINE
  5
51D
100
AcDbEntity
  8
0
100
AcDbPolyline
 62
7
  6
CONTINUOUS
 90
4
 70
0
 10
14.7933808307
 20
7.3423942312
 10
14.7733527458
 20
7.3604598445
 10
14.7586841152
 20
7.3801020244
 10
14.7497363645
 20
7.4008165013
  0
LINE
  5
51E
100
AcDbEntity
  8
0
100
AcDbLine
 62
7
  6
CONTINUOUS
 10
14.7733522589
 20
7.3636749502
 11
14.7933805859
 21
7.3456089934
  0
LWPOLYLINE
  5
51F
100
AcDbEntity
  8
0
100
AcDbPolyline
 62
7
  6
CONTINUOUS
 90
5
 70
0
 10
14.7934340878
 20
7.4098599299
 10
14.7732181394
 20
7.4281124853
 10
14.7584762852
 20
7.4479650246
 10
14.7496454346
 20
7.4686443971
 10
14.7481651329
 20
7.4792710554
  0
LWPOLYLINE
  5
520
100
AcDbEntity
  8
0
100
AcDbPolyline
 62
7
  6
CONTINUOUS
 90
3
 70
0
 10
14.7731740254
 20
7.4249460292
 10
14.7934012855
 20
7.406670237
 10
14.8182753676
 20
7.3906612678
  0
LWPOLYLINE
  5
521
100
AcDbEntity
  8
0
100
AcDbPolyline
 62
7
  6
CONTINUOUS
 90
4
 70
0
 10
14.5396806031
 20
7.5857614733
 10
14.4959297226
 20
7.6308051881
 10
14.4645610034
 20
7.6791282524
 10
14.4596993448
 20
7.6921885882
  0
LWPOLYLINE
  5
522
100
AcDbEntity
  8
02___PRT_ALL_AXES
100
AcDbPolyline
 62
7
  6
CONTINUOUS
 90
8
 70
0
 10
14.0067488226
 20
8.8083600849
 10
14.0129380512
 20
8.7447339187
 10
14.0314269863
 20
8.6819102543
 10
14.0619831187
 20
8.6206767699
 10
14.1042221873
 20
8.561803512
 10
14.1576130115
 20
8.5060308461
 10
14.2214841704
 20
8.4540601458
 10
14.2950324474
 20
8.4065449729
  0
LWPOLYLINE
  5
523
100
AcDbEntity
  8
02___PRT_ALL_AXES
100
AcDbPolyline
 62
7
  6
CONTINUOUS
 90
6
 70
0
 10
14.7680136219
 20
7.6191550515
 10
14.8554269153
 20
7.6041038274
 10
14.9461628813
 20
7.5971282539
 10
15.0379977441
 20
7.5984287645
 10
15.1286807958
 20
7.6080029603
 10
15.2159895575
 20
7.6256456697
  0
LWPOLYLINE
  5
524
100
AcDbEntity
  8
02___PRT_ALL_AXES
100
AcDbPolyline
 62
7
  6
CONTINUOUS
 90
6
 70
0
 10
14.7680136219
 20
7.6251823824
 10
14.8554269153
 20
7.6101311582
 10
14.9461628813
 20
7.6031555848
 10
15.0379977441
 20
7.6044560953
 10
15.1286807958
 20
7.6140302912
 10
15.2159895575
 20
7.6316730005
  0
LWPOLYLINE
  5
525
100
AcDbEntity
  8
02___PRT_ALL_AXES
100
AcDbPolyline
 62
7
  6
CONTINUOUS
 90
11
 70
0
 10
14.7680136219
 20
7.6673736982
 10
14.8554269153
 20
7.6523224741
 10
14.9461628813
 20
7.6453469006
 10
15.0379977441
 20
7.6466474111
 10
15.1286807958
 20
7.656221607
 10
15.2159895575
 20
7.6738643164
 10
15.2977842479
 20
7.6991726227
 10
15.3720602259
 20
7.7315557391
 10
15.4369971204
 20
7.7702494882
 10
15.4910034445
 20
7.81433503
 10
15.5327556002
 20
7.8627613815
  0
LWPOLYLINE
  5
526
100
AcDbEntity
  8
02___PRT_ALL_AXES
100
AcDbPolyline
 62
7
  6
CONTINUOUS
 90
6
 70
0
 10
14.7680136219
 20
7.6734010291
 10
14.8554269153
 20
7.6583498049
 10
14.9461628813
 20
7.6513742314
 10
15.0379977441
 20
7.652674742
 10
15.1286807958
 20
7.6622489378
 10
15.2159895575
 20
7.6798916472
  0
LWPOLYLINE
  5
527
100
AcDbEntity
  8
02___PRT_ALL_AXES
100
AcDbPolyline
 62
7
  6
CONTINUOUS
 90
3
 70
0
 10
14.8356175858
 20
7.6024072576
 10
14.7558705653
 20
7.6187195173
 10
14.6815436276
 20
7.6420071046
  0
LWPOLYLINE
  5
528
100
AcDbEntity
  8
02___PRT_ALL_AXES
100
AcDbPolyline
 62
7
  6
CONTINUOUS
 90
3
 70
0
 10
14.8341121175
 20
7.6508607786
 10
14.7552964581
 20
7.667085893
 10
14.6815436276
 20
7.6902257513
  0
LWPOLYLINE
  5
529
100
AcDbEntity
  8
02___PRT_ALL_AXES
100
AcDbPolyline
 62
7
  6
CONTINUOUS
 90
5
 70
0
 10
14.4484227823
 20
7.7554056856
 10
14.4694892781
 20
7.7487105633
 10
14.4913648025
 20
7.7410921669
 10
14.5133791115
 20
7.73270245
 10
14.5348927766
 20
7.7237691751
  0
LWPOLYLINE
  5
52A
100
AcDbEntity
  8
02___PRT_ALL_AXES
100
AcDbPolyline
 62
7
  6
CONTINUOUS
 90
4
 70
0
 10
14.4484227823
 20
7.7071870389
 10
14.4773937223
 20
7.6978194034
 10
14.5062295358
 20
7.6872902781
 10
14.5348927766
 20
7.6755505284
  0
LWPOLYLINE
  5
52B
100
AcDbEntity
  8
02___PRT_ALL_AXES
100
AcDbPolyline
 62
7
  6
CONTINUOUS
 90
4
 70
0
 10
14.7680136219
 20
7.6191550515
 10
14.7390383304
 20
7.6285241831
 10
14.7102021879
 20
7.6390536237
 10
14.6815436276
 20
7.6507915621
  0
LWPOLYLINE
  5
52C
100
AcDbEntity
  8
02___PRT_ALL_AXES
100
AcDbPolyline
 62
7
  6
CONTINUOUS
 90
4
 70
0
 10
14.7680136219
 20
7.6673736982
 10
14.7390383304
 20
7.6767428298
 10
14.7102021879
 20
7.6872722703
 10
14.6815436276
 20
7.6990102087
  0
LWPOLYLINE
  5
52D
100
AcDbEntity
  8
02___PRT_ALL_AXES
100
AcDbPolyline
 62
7
  6
CONTINUOUS
 90
4
 70
0
 10
14.4484227823
 20
7.8036243323
 10
14.4773937223
 20
7.7942566968
 10
14.5062295358
 20
7.7837275715
 10
14.5348927766
 20
7.7719878218
  0
LWPOLYLINE
  5
52E
100
AcDbEntity
  8
02___PRT_ALL_AXES
100
AcDbPolyline
 62
7
  6
CONTINUOUS
 90
5
 70
0
 10
14.5348927766
 20
7.6843349859
 10
14.5135010634
 20
7.699332592
 10
14.4914533845
 20
7.715563271
 10
14.469478038
 20
7.732490514
 10
14.4484227823
 20
7.7493783548
  0
LWPOLYLINE
  5
52F
100
AcDbEntity
  8
02___PRT_ALL_AXES
100
AcDbPolyline
 62
7
  6
CONTINUOUS
 90
4
 70
0
 10
14.6815436276
 20
7.5937884579
 10
14.7102295257
 20
7.5735065996
 10
14.7390736175
 20
7.5517903643
 10
14.7680136219
 20
7.528745089
  0
LWPOLYLINE
  5
530
100
AcDbEntity
  8
02___PRT_ALL_AXES
100
AcDbPolyline
 62
7
  6
CONTINUOUS
 90
4
 70
0
 10
14.5348927766
 20
7.7325536326
 10
14.5062348417
 20
7.7528150702
 10
14.4773964476
 20
7.7745256387
 10
14.4484227823
 20
7.7975970015
  0
LWPOLYLINE
  5
531
100
AcDbEntity
  8
02___PRT_ALL_AXES
100
AcDbPolyline
 62
7
  6
CONTINUOUS
 90
4
 70
0
 10
14.6815436276
 20
7.6420071046
 10
14.7102064557
 20
7.6217420937
 10
14.7390444804
 20
7.6000315926
 10
14.7680136219
 20
7.5769637357
  0
LWPOLYLINE
  5
532
100
AcDbEntity
  8
02___PRT_ALL_AXES
100
AcDbPolyline
 62
7
  6
CONTINUOUS
 90
4
 70
0
 10
14.5348927766
 20
7.7807722793
 10
14.5062348417
 20
7.8010337169
 10
14.4773964476
 20
7.8227442854
 10
14.4484227823
 20
7.8458156482
  0
LWPOLYLINE
  5
533
100
AcDbEntity
  8
02___PRT_ALL_AXES
100
AcDbPolyline
 62
7
  6
CONTINUOUS
 90
4
 70
0
 10
14.6815436276
 20
7.6902257513
 10
14.7102064557
 20
7.6699607404
 10
14.7390444804
 20
7.6482502393
 10
14.7680136219
 20
7.6251823824
  0
LINE
  5
534
100
AcDbEntity
  8
02___PRT_ALL_AXES
100
AcDbLine
 62
7
  6
CONTINUOUS
 10
14.5348927766
 20
7.7237691751
 11
14.5020832835
 21
7.7559405109
  0
LINE
  5
535
100
AcDbEntity
  8
02___PRT_ALL_AXES
100
AcDbLine
 62
7
  6
CONTINUOUS
 10
14.5348927766
 20
7.6755505284
 11
14.5024275837
 21
7.7074844748
  0
LINE
  5
536
100
AcDbEntity
  8
02___PRT_ALL_AXES
100
AcDbLine
 62
7
  6
CONTINUOUS
 10
14.5348927766
 20
7.7719878218
 11
14.5025014393
 21
7.803844355
  0
LWPOLYLINE
  5
537
100
AcDbEntity
  8
0
100
AcDbPolyline
 62
7
  6
CONTINUOUS
 90
4
 70
0
 10
14.7584509688
 20
7.4126483907
 10
14.7731880725
 20
7.3927849368
 10
14.7934117364
 20
7.3745165433
 10
14.8182753676
 20
7.3585155034
  0
LWPOLYLINE
  5
538
100
AcDbEntity
  8
0
100
AcDbPolyline
 62
7
  6
CONTINUOUS
 90
3
 70
0
 10
14.534288635
 20
7.59360754
 10
14.5389385143
 20
7.5864395683
 10
14.5396793145
 20
7.585762587
  0
LINE
  5
539
100
AcDbEntity
  8
0
100
AcDbLine
 62
7
  6
CONTINUOUS
 10
14.5389469319
 20
7.5903302123
 11
14.5429011062
 21
7.5836517015
  0
LINE
  5
53A
100
AcDbEntity
  8
02___PRT_ALL_AXES
100
AcDbLine
 62
7
  6
CONTINUOUS
 10
14.4202691346
 20
7.7986429471
 11
14.4484227823
 21
7.7493783548
  0
LINE
  5
53B
100
AcDbEntity
  8
02___PRT_ALL_AXES
100
AcDbLine
 62
7
  6
CONTINUOUS
 10
14.4202691346
 20
7.8046702779
 11
14.4484227823
 21
7.7554056856
  0
LWPOLYLINE
  5
53C
100
AcDbEntity
  8
02___PRT_ALL_AXES
100
AcDbPolyline
 62
7
  6
CONTINUOUS
 90
3
 70
0
 10
15.0862012271
 20
7.6942457997
 10
15.0017552347
 20
7.6883413611
 10
14.9176918361
 20
7.6899345016
  0
LINE
  5
53D
100
AcDbEntity
  8
02___PRT_ALL_AXES
100
AcDbLine
 62
7
  6
CONTINUOUS
 10
14.9176918361
 20
7.6899345016
 11
14.8353663006
 21
7.6988835692
  0
LWPOLYLINE
  5
53E
100
AcDbEntity
  8
02___PRT_ALL_AXES
100
AcDbPolyline
 62
7
  6
CONTINUOUS
 90
11
 70
0
 10
14.7680136219
 20
7.7155923449
 10
14.8554269153
 20
7.7005411208
 10
14.9461628813
 20
7.6935655473
 10
15.0379977441
 20
7.6948660578
 10
15.1286807958
 20
7.7044402537
 10
15.2159895575
 20
7.7220829631
 10
15.2977842479
 20
7.7473912693
 10
15.3720602259
 20
7.7797743858
 10
15.4369971204
 20
7.8184681349
 10
15.4910034445
 20
7.8625536767
 10
15.5327556002
 20
7.9109800282
  0
LWPOLYLINE
  5
53F
100
AcDbEntity
  8
02___PRT_ALL_AXES
100
AcDbPolyline
 62
7
  6
CONTINUOUS
 90
12
 70
0
 10
14.7680136219
 20
7.7216196757
 10
14.8554269153
 20
7.7065684516
 10
14.9461628813
 20
7.6995928781
 10
15.0379977441
 20
7.7008933886
 10
15.1286807958
 20
7.7104675845
 10
15.2159895575
 20
7.7281102939
 10
15.2977842479
 20
7.7534186002
 10
15.3720602259
 20
7.7858017166
 10
15.4369971204
 20
7.8244954657
 10
15.4910034445
 20
7.8685810075
 10
15.5327556002
 20
7.917007359
 10
15.544473926
 20
7.9382465648
  0
LWPOLYLINE
  5
540
100
AcDbEntity
  8
02___PRT_ALL_AXES
100
AcDbPolyline
 62
7
  6
CONTINUOUS
 90
11
 70
0
 10
14.7680136219
 20
7.7638109916
 10
14.8554269153
 20
7.7487597674
 10
14.9461628813
 20
7.741784194
 10
15.0379977441
 20
7.7430847045
 10
15.1286807958
 20
7.7526589004
 10
15.2159895575
 20
7.7703016098
 10
15.2977842479
 20
7.795609916
 10
15.3720602259
 20
7.8279930325
 10
15.4369971204
 20
7.8666867815
 10
15.4910034445
 20
7.9107723234
 10
15.5018711256
 20
7.9233772329
  0
LWPOLYLINE
  5
541
100
AcDbEntity
  8
02___PRT_ALL_AXES
100
AcDbPolyline
 62
7
  6
CONTINUOUS
 90
11
 70
0
 10
14.7680136219
 20
7.7698383224
 10
14.8554269153
 20
7.7547870983
 10
14.9461628813
 20
7.7478115248
 10
15.0379977441
 20
7.7491120353
 10
15.1286807958
 20
7.7586862312
 10
15.2159895575
 20
7.7763289406
 10
15.2977842479
 20
7.8016372469
 10
15.3720602259
 20
7.8340203633
 10
15.4369971204
 20
7.8727141124
 10
15.4910034445
 20
7.9167996542
 10
15.4944375965
 20
7.9207827647
  0
LWPOLYLINE
  5
542
100
AcDbEntity
  8
02___PRT_ALL_AXES
100
AcDbPolyline
 62
7
  6
CONTINUOUS
 90
3
 70
0
 10
14.8353663006
 20
7.6988835692
 10
14.7557509541
 20
7.7151875508
 10
14.6815436276
 20
7.7384443979
  0
LWPOLYLINE
  5
543
100
AcDbEntity
  8
02___PRT_ALL_AXES
100
AcDbPolyline
 62
7
  6
CONTINUOUS
 90
3
 70
0
 10
14.8352411724
 20
7.7471216728
 10
14.7556918919
 20
7.763421384
 10
14.6815436276
 20
7.7866630446
  0
LWPOLYLINE
  5
544
100
AcDbEntity
  8
02___PRT_ALL_AXES
100
AcDbPolyline
 62
7
  6
CONTINUOUS
 90
3
 70
0
 10
14.8331313104
 20
7.7956711778
 10
14.7543905667
 20
7.8119758777
 10
14.6815436276
 20
7.8348816913
  0
LWPOLYLINE
  5
545
100
AcDbEntity
  8
02___PRT_ALL_AXES
100
AcDbPolyline
 62
7
  6
CONTINUOUS
 90
5
 70
0
 10
14.7680136219
 20
7.7638109916
 10
14.7469747346
 20
7.7704969357
 10
14.7250072946
 20
7.7781479438
 10
14.7029547206
 20
7.7865550717
 10
14.6815436276
 20
7.7954475021
  0
LWPOLYLINE
  5
546
100
AcDbEntity
  8
02___PRT_ALL_AXES
100
AcDbPolyline
 62
7
  6
CONTINUOUS
 90
4
 70
0
 10
14.7680136219
 20
7.7155923449
 10
14.7390383304
 20
7.7249614764
 10
14.7102021879
 20
7.735490917
 10
14.6815436276
 20
7.7472288554
  0
LWPOLYLINE
  5
547
100
AcDbEntity
  8
02___PRT_ALL_AXES
100
AcDbPolyline
 62
7
  6
CONTINUOUS
 90
4
 70
0
 10
14.4484227823
 20
7.851842979
 10
14.4773937223
 20
7.8424753434
 10
14.5062295358
 20
7.8319462181
 10
14.5348927766
 20
7.8202064685
  0
LWPOLYLINE
  5
548
100
AcDbEntity
  8
02___PRT_ALL_AXES
100
AcDbPolyline
 62
7
  6
CONTINUOUS
 90
4
 70
0
 10
14.4484227823
 20
7.9000616257
 10
14.4773937223
 20
7.8906939901
 10
14.5062295358
 20
7.8801648648
 10
14.5348927766
 20
7.8684251152
  0
LWPOLYLINE
  5
549
100
AcDbEntity
  8
02___PRT_ALL_AXES
100
AcDbPolyline
 62
7
  6
CONTINUOUS
 90
4
 70
0
 10
14.7680136219
 20
7.8120296383
 10
14.7390383304
 20
7.8213987698
 10
14.7102021879
 20
7.8319282104
 10
14.6815436276
 20
7.8436661488
  0
LWPOLYLINE
  5
54A
100
AcDbEntity
  8
0
100
AcDbPolyline
 62
7
  6
CONTINUOUS
 90
3
 70
0
 10
14.2950324474
 20
8.0207957994
 10
14.3689728029
 20
7.982226048
 10
14.4623641488
 20
7.9432795961
  0
LWPOLYLINE
  5
54B
100
AcDbEntity
  8
0
100
AcDbPolyline
 62
7
  6
CONTINUOUS
 90
7
 70
0
 10
14.3031864758
 20
8.0027727227
 10
14.215244361
 20
8.0609189877
 10
14.1411647578
 20
8.1257492868
 10
14.0824924683
 20
8.1959297251
 10
14.0403348664
 20
8.2698190465
 10
14.0151166901
 20
8.3457904797
 10
14.0067488226
 20
8.4226109115
  0
LWPOLYLINE
  5
54C
100
AcDbEntity
  8
02___PRT_ALL_AXES
100
AcDbPolyline
 62
7
  6
CONTINUOUS
 90
5
 70
0
 10
14.6815436276
 20
7.8348816913
 10
14.7030347098
 20
7.8198126729
 10
14.7250392074
 20
7.8036110659
 10
14.7469216629
 20
7.78675504
 10
14.7680136219
 20
7.7698383224
  0
LWPOLYLINE
  5
54D
100
AcDbEntity
  8
02___PRT_ALL_AXES
100
AcDbPolyline
 62
7
  6
CONTINUOUS
 90
4
 70
0
 10
14.5348927766
 20
7.8289909259
 10
14.5062348417
 20
7.8492523636
 10
14.4773964476
 20
7.8709629321
 10
14.4484227823
 20
7.8940342948
  0
LWPOLYLINE
  5
54E
100
AcDbEntity
  8
02___PRT_ALL_AXES
100
AcDbPolyline
 62
7
  6
CONTINUOUS
 90
4
 70
0
 10
14.6815436276
 20
7.7384443979
 10
14.7102064557
 20
7.718179387
 10
14.7390444804
 20
7.696468886
 10
14.7680136219
 20
7.6734010291
  0
LWPOLYLINE
  5
54F
100
AcDbEntity
  8
02___PRT_ALL_AXES
100
AcDbPolyline
 62
7
  6
CONTINUOUS
 90
4
 70
0
 10
14.5348927766
 20
7.8772095726
 10
14.5062348417
 20
7.8974710103
 10
14.4773964476
 20
7.9191815788
 10
14.4652076894
 20
7.9288873326
  0
LWPOLYLINE
  5
550
100
AcDbEntity
  8
02___PRT_ALL_AXES
100
AcDbPolyline
 62
7
  6
CONTINUOUS
 90
4
 70
0
 10
14.6815436276
 20
7.7866630446
 10
14.7102064557
 20
7.7663980337
 10
14.7390444804
 20
7.7446875326
 10
14.7680136219
 20
7.7216196757
  0
LINE
  5
551
100
AcDbEntity
  8
02___PRT_ALL_AXES
100
AcDbLine
 62
7
  6
CONTINUOUS
 10
14.5348927766
 20
7.8684251152
 11
14.5023654063
 21
7.9003840588
  0
LINE
  5
552
100
AcDbEntity
  8
02___PRT_ALL_AXES
100
AcDbLine
 62
7
  6
CONTINUOUS
 10
14.5348927766
 20
7.8202064685
 11
14.5025238521
 21
7.8520461285
  0
LWPOLYLINE
  5
553
100
AcDbEntity
  8
0
100
AcDbPolyline
 62
7
  6
CONTINUOUS
 90
4
 70
0
 10
14.7594126892
 20
7.4756351775
 10
14.7732181394
 20
7.4570436733
 10
14.7934340878
 20
7.4387911179
 10
14.8182753676
 20
7.4228070323
  0
LWPOLYLINE
  5
554
100
AcDbEntity
  8
0
100
AcDbPolyline
 62
7
  6
CONTINUOUS
 90
4
 70
0
 10
14.7731740254
 20
7.3960148412
 10
14.7584389352
 20
7.4158837601
 10
14.7496256165
 20
7.4365694426
 10
14.7467291376
 20
7.4574338332
  0
LINE
  5
555
100
AcDbEntity
  8
02___PRT_ALL_AXES
100
AcDbLine
 62
7
  6
CONTINUOUS
 10
14.4202691346
 20
7.8950802404
 11
14.4484227823
 21
7.8458156482
  0
LINE
  5
556
100
AcDbEntity
  8
02___PRT_ALL_AXES
100
AcDbLine
 62
7
  6
CONTINUOUS
 10
14.4202691346
 20
7.9432988871
 11
14.4484227823
 21
7.8940342948
  0
LINE
  5
557
100
AcDbEntity
  8
02___PRT_ALL_AXES
100
AcDbLine
 62
7
  6
CONTINUOUS
 10
14.4228920129
 20
7.9447365807
 11
14.4484227823
 21
7.9000616257
  0
LWPOLYLINE
  5
558
100
AcDbEntity
  8
0
100
AcDbPolyline
 62
7
  6
CONTINUOUS
 90
4
 70
0
 10
14.4630310667
 20
7.6895380219
 10
14.4649798486
 20
7.6846486153
 10
14.4950006375
 20
7.6409118541
 10
14.5326865432
 20
7.6029227198
  0
LINE
  5
559
100
AcDbEntity
  8
02___PRT_ALL_AXES
100
AcDbLine
 62
7
  6
CONTINUOUS
 10
14.4061030964
 20
7.8498259251
 11
14.4202691346
 21
7.7986429471
  0
LWPOLYLINE
  5
55A
100
AcDbEntity
  8
02___PRT_ALL_AXES
100
AcDbPolyline
 62
7
  6
CONTINUOUS
 90
4
 70
0
 10
14.4043866179
 20
7.826909682
 10
14.4061030964
 20
7.8016072784
 10
14.4202691346
 20
7.7504243004
 10
14.4484227823
 20
7.7011597081
  0
LWPOLYLINE
  5
55B
100
AcDbEntity
  8
02___PRT_ALL_AXES
100
AcDbPolyline
 62
7
  6
CONTINUOUS
 90
4
 70
0
 10
14.4043866179
 20
7.8329370128
 10
14.4061030964
 20
7.8076346093
 10
14.4202691346
 20
7.7564516312
 10
14.4484227823
 20
7.7071870389
  0
LWPOLYLINE
  5
55C
100
AcDbEntity
  8
DATUM_CURVES
100
AcDbPolyline
 62
7
  6
CONTINUOUS
 90
17
 70
0
 10
15.1810017311
 20
9.4476617845
 10
15.2142875947
 20
9.4710575406
 10
15.2390685333
 20
9.4977403933
 10
15.2544006487
 20
9.5266940011
 10
15.2597015785
 20
9.5573570426
 10
15.2545839965
 20
9.587489043
 10
15.2394266121
 20
9.6164733003
 10
15.2148067653
 20
9.6432058131
 10
15.181000149
 20
9.6670519223
 10
15.1404769314
 20
9.6862692499
 10
15.0942602141
 20
9.700576327
 10
15.0441103775
 20
9.7094282014
 10
14.9909996724
 20
9.7124886509
 10
14.9388087706
 20
9.7095340557
 10
14.8886058467
 20
9.7007830609
 10
14.8423031143
 20
9.6865689889
 10
14.8009998346
 20
9.6670509993
  0
LWPOLYLINE
  5
55D
100
AcDbEntity
  8
AXIS
100
AcDbPolyline
 62
7
  6
CONTINUOUS
 90
4
 70
0
 10
15.1993754483
 20
9.4370539539
 10
15.2269090535
 20
9.4553994246
 10
15.2496402467
 20
9.4758204452
 10
15.2671062865
 20
9.4979013026
  0
LWPOLYLINE
  5
55E
100
AcDbEntity
  8
02___PRT_ALL_AXES
100
AcDbPolyline
 62
7
  6
CONTINUOUS
 90
10
 70
0
 10
15.2432623759
 20
9.4117163977
 10
15.2006945397
 20
9.3907261627
 10
15.1529633475
 20
9.3738389171
 10
15.1012440997
 20
9.3614704809
 10
15.0468102957
 20
9.353925406
 10
14.9910022764
 20
9.3513894773
 10
14.9351942206
 20
9.3539251377
 10
14.8807603078
 20
9.3614699509
 10
14.8290408816
 20
9.3738381384
 10
14.7813094458
 20
9.3907251546
  0
LWPOLYLINE
  5
55F
100
AcDbEntity
  8
02___PRT_ALL_AXES
100
AcDbPolyline
 62
7
  6
CONTINUOUS
 90
6
 70
0
 10
15.1162488137
 20
7.8437853306
 10
15.0844853204
 20
7.8387053844
 10
15.0011062745
 20
7.8329811728
 10
14.9176746526
 20
7.8345915317
 10
14.8353953134
 20
7.8435350005
 10
14.8105888617
 20
7.8486143196
  0
LWPOLYLINE
  5
560
100
AcDbEntity
  8
02___PRT_ALL_AXES
100
AcDbPolyline
 62
7
  6
CONTINUOUS
 90
3
 70
0
 10
14.928278873
 20
7.839596369
 10
14.9461628813
 20
7.8382214873
 10
14.9976304828
 20
7.8389503408
  0
LWPOLYLINE
  5
561
100
AcDbEntity
  8
02___PRT_ALL_AXES
100
AcDbPolyline
 62
7
  6
CONTINUOUS
 90
9
 70
0
 10
14.7680136219
 20
7.8120296383
 10
14.8554269153
 20
7.7969784141
 10
14.9461628813
 20
7.7900028407
 10
15.0379977441
 20
7.7913033512
 10
15.1286807958
 20
7.8008775471
 10
15.2159895575
 20
7.8185202564
 10
15.2977842479
 20
7.8438285627
 10
15.3720602259
 20
7.8762116792
 10
15.3952936041
 20
7.8900556813
  0
LWPOLYLINE
  5
562
100
AcDbEntity
  8
02___PRT_ALL_AXES
100
AcDbPolyline
 62
7
  6
CONTINUOUS
 90
9
 70
0
 10
14.7680136219
 20
7.8180569691
 10
14.8554269153
 20
7.803005745
 10
14.9461628813
 20
7.7960301715
 10
15.0379977441
 20
7.797330682
 10
15.1286807958
 20
7.8069048779
 10
15.2159895575
 20
7.8245475873
 10
15.2977842479
 20
7.8498558935
 10
15.3720602259
 20
7.88223901
 10
15.3780395788
 20
7.8858019088
  0
LWPOLYLINE
  5
563
100
AcDbEntity
  8
0
100
AcDbPolyline
 62
7
  6
CONTINUOUS
 90
5
 70
0
 10
14.7743016516
 20
7.8519073785
 10
14.6446906193
 20
7.8747043403
 10
14.5214860508
 20
7.90780839
 10
14.4069478049
 20
7.9507084505
 10
14.3031864758
 20
8.0027727227
  0
LWPOLYLINE
  5
564
100
AcDbEntity
  8
0
100
AcDbPolyline
 62
7
  6
CONTINUOUS
 90
14
 70
0
 10
14.5729073573
 20
7.9081768801
 10
14.696432128
 20
7.8804067608
 10
14.8271710225
 20
7.8622881433
 10
14.9603635681
 20
7.8546362563
 10
15.0939320352
 20
7.8574767972
 10
15.2257806067
 20
7.8707642379
 10
15.3533467119
 20
7.8942696622
 10
15.4741675119
 20
7.927541612
 10
15.5860344754
 20
7.9699634117
 10
15.686908606
 20
8.0207608569
 10
15.7749120221
 20
8.0789904856
 10
15.8484101624
 20
8.1435682453
 10
15.9060616584
 20
8.2133170278
 10
15.946798103
 20
8.2869620292
  0
LINE
  5
565
100
AcDbEntity
  8
0
100
AcDbLine
 62
7
  6
CONTINUOUS
 10
14.4623641488
 20
7.9432795961
 11
14.5729073573
 21
7.9081768801
  0
LWPOLYLINE
  5
566
100
AcDbEntity
  8
02___PRT_ALL_AXES
100
AcDbPolyline
 62
7
  6
CONTINUOUS
 90
4
 70
0
 10
14.7095557706
 20
7.8632953704
 10
14.7102064557
 20
7.8628353271
 10
14.7390444804
 20
7.841124826
 10
14.7680136219
 20
7.8180569691
  0
LWPOLYLINE
  5
567
100
AcDbEntity
  8
0
100
AcDbPolyline
 62
7
  6
CONTINUOUS
 90
3
 70
0
 10
14.7497360161
 20
7.4040323013
 10
14.7586836055
 20
7.383317472
 10
14.7733522589
 20
7.3636749502
  0
LWPOLYLINE
  5
568
100
AcDbEntity
  8
0
100
AcDbPolyline
 62
7
  6
CONTINUOUS
 90
3
 70
0
 10
14.7496256165
 20
7.4655006306
 10
14.7584389352
 20
7.4448149481
 10
14.7731740254
 20
7.4249460292
  0
LWPOLYLINE
  5
569
100
AcDbEntity
  8
02___PRT_ALL_AXES
100
AcDbPolyline
 62
7
  6
CONTINUOUS
 90
3
 70
0
 10
14.4061030964
 20
7.8980445718
 10
14.4202691346
 20
7.8468615938
 10
14.4484227823
 20
7.7975970015
  0
LINE
  5
56A
100
AcDbEntity
  8
02___PRT_ALL_AXES
100
AcDbLine
 62
7
  6
CONTINUOUS
 10
14.4061030964
 20
7.9462632185
 11
14.4202691346
 21
7.8950802404
  0
LWPOLYLINE
  5
56B
100
AcDbEntity
  8
02___PRT_ALL_AXES
100
AcDbPolyline
 62
7
  6
CONTINUOUS
 90
3
 70
0
 10
14.4064753676
 20
7.9509455051
 10
14.4202691346
 20
7.9011075713
 10
14.4484227823
 20
7.851842979
  0
LINE
  5
56C
100
AcDbEntity
  8
02___PRT_ALL_AXES
100
AcDbLine
 62
7
  6
CONTINUOUS
 10
14.4195218547
 20
7.9459988664
 11
14.4202691346
 21
7.9432988871
  0
LINE
  5
56D
100
AcDbEntity
  8
02___PRT_ALL_AXES
100
AcDbLine
 62
7
  6
CONTINUOUS
 10
14.4043866179
 20
7.8751283287
 11
14.4061030964
 21
7.8498259251
  0
LWPOLYLINE
  5
56E
100
AcDbEntity
  8
02___PRT_ALL_AXES
100
AcDbPolyline
 62
7
  6
CONTINUOUS
 90
3
 70
0
 10
14.4043866179
 20
7.8811556595
 10
14.4061030964
 20
7.855853256
 10
14.4202691346
 20
7.8046702779
  0
LINE
  5
56F
100
AcDbEntity
  8
02___PRT_ALL_AXES
100
AcDbLine
 62
7
  6
CONTINUOUS
 10
14.4043866179
 20
7.9233469754
 11
14.4061030964
 21
7.8980445718
  0
LWPOLYLINE
  5
570
100
AcDbEntity
  8
02___PRT_ALL_AXES
100
AcDbPolyline
 62
7
  6
CONTINUOUS
 90
4
 70
0
 10
14.4043866179
 20
7.9293743062
 10
14.4061030964
 20
7.9040719026
 10
14.4202691346
 20
7.8528889246
 10
14.4484227823
 20
7.8036243323
  0
LINE
  5
571
100
AcDbEntity
  8
02___PRT_ALL_AXES
100
AcDbLine
 62
7
  6
CONTINUOUS
 10
14.4057611452
 20
7.9513038801
 11
14.4061030964
 21
7.9462632185
  0
LINE
  5
572
100
AcDbEntity
  8
02___PRT_ALL_AXES
100
AcDbLine
 62
7
  6
CONTINUOUS
 10
14.4484227823
 20
7.7011597081
 11
14.4484227823
 21
7.7071870389
  0
LINE
  5
573
100
AcDbEntity
  8
02___PRT_ALL_AXES
100
AcDbLine
 62
7
  6
CONTINUOUS
 10
14.4484227823
 20
7.7493783548
 11
14.4484227823
 21
7.7554056856
  0
LINE
  5
574
100
AcDbEntity
  8
02___PRT_ALL_AXES
100
AcDbLine
 62
7
  6
CONTINUOUS
 10
14.4484227823
 20
7.7975970015
 11
14.4484227823
 21
7.8036243323
  0
LINE
  5
575
100
AcDbEntity
  8
02___PRT_ALL_AXES
100
AcDbLine
 62
7
  6
CONTINUOUS
 10
14.4484227823
 20
7.8458156482
 11
14.4484227823
 21
7.851842979
  0
LINE
  5
576
100
AcDbEntity
  8
02___PRT_ALL_AXES
100
AcDbLine
 62
7
  6
CONTINUOUS
 10
14.4484227823
 20
7.8940342948
 11
14.4484227823
 21
7.9000616257
  0
LINE
  5
577
100
AcDbEntity
  8
02___PRT_ALL_AXES
100
AcDbLine
 62
7
  6
CONTINUOUS
 10
14.4058513149
 20
7.949974699
 11
14.4043866179
 21
7.9293743062
  0
LINE
  5
578
100
AcDbEntity
  8
02___PRT_ALL_AXES
100
AcDbLine
 62
7
  6
CONTINUOUS
 10
14.4058513149
 20
7.9017560523
 11
14.4043866179
 21
7.8811556595
  0
LINE
  5
579
100
AcDbEntity
  8
02___PRT_ALL_AXES
100
AcDbLine
 62
7
  6
CONTINUOUS
 10
14.4058513149
 20
7.8535374056
 11
14.4043866179
 21
7.8329370128
  0
LINE
  5
57A
100
AcDbEntity
  8
0
100
AcDbLine
 62
7
  6
CONTINUOUS
 10
14.5326865432
 20
7.6029227198
 11
14.534288635
 21
7.59360754
  0
LINE
  5
57B
100
AcDbEntity
  8
0
100
AcDbLine
 62
7
  6
CONTINUOUS
 10
14.5375845414
 20
7.5994767512
 11
14.5389469319
 21
7.5903302123
  0
LINE
  5
57C
100
AcDbEntity
  8
0
100
AcDbLine
 62
7
  6
CONTINUOUS
 10
14.5326865432
 20
7.6029227198
 11
14.5326865432
 21
7.6379532491
  0
LINE
  5
57D
100
AcDbEntity
  8
02___PRT_ALL_AXES
100
AcDbLine
 62
7
  6
CONTINUOUS
 10
14.5348927766
 20
7.8772095726
 11
14.5348927766
 21
7.8684251152
  0
LINE
  5
57E
100
AcDbEntity
  8
02___PRT_ALL_AXES
100
AcDbLine
 62
7
  6
CONTINUOUS
 10
14.5348927766
 20
7.8289909259
 11
14.5348927766
 21
7.8202064685
  0
LINE
  5
57F
100
AcDbEntity
  8
02___PRT_ALL_AXES
100
AcDbLine
 62
7
  6
CONTINUOUS
 10
14.5348927766
 20
7.7807722793
 11
14.5348927766
 21
7.7719878218
  0
LINE
  5
580
100
AcDbEntity
  8
02___PRT_ALL_AXES
100
AcDbLine
 62
7
  6
CONTINUOUS
 10
14.5348927766
 20
7.7325536326
 11
14.5348927766
 21
7.7237691751
  0
LINE
  5
581
100
AcDbEntity
  8
02___PRT_ALL_AXES
100
AcDbLine
 62
7
  6
CONTINUOUS
 10
14.5348927766
 20
7.6843349859
 11
14.5348927766
 21
7.6755505284
  0
LINE
  5
582
100
AcDbEntity
  8
0
100
AcDbLine
 62
7
  6
CONTINUOUS
 10
14.5375845414
 20
7.5994767512
 11
14.5375845414
 21
7.6342827767
  0
LWPOLYLINE
  5
583
100
AcDbEntity
  8
02___PRT_ALL_AXES
100
AcDbPolyline
 62
7
  6
CONTINUOUS
 90
13
 70
0
 10
15.2679111904
 20
9.4949749126
 10
15.2463501394
 20
9.469511647
 10
15.2178238238
 20
9.4464445573
 10
15.1831103672
 20
9.4264028534
 10
15.1431566622
 20
9.4099332208
 10
15.0990525416
 20
9.3974849081
 10
15.0520010509
 20
9.3893974729
 10
15.0032856322
 20
9.3858915193
 10
14.954235115
 20
9.3870626806
 10
14.9061874696
 20
9.3928790105
 10
14.8604533106
 20
9.4031818548
 10
14.8182801465
 20
9.4176901787
 10
14.7808183513
 20
9.4360082329
  0
LINE
  5
584
100
AcDbEntity
  8
02___PRT_ALL_AXES
100
AcDbLine
 62
7
  6
CONTINUOUS
 10
14.3805360023
 20
8.362614404
 11
14.2950324474
 21
8.4065449729
  0
LWPOLYLINE
  5
585
100
AcDbEntity
  8
0
100
AcDbPolyline
 62
7
  6
CONTINUOUS
 90
4
 70
0
 10
14.6788518628
 20
7.5179178703
 10
14.6802142532
 20
7.5087713314
 10
14.6841684281
 20
7.50209282
 10
14.6870053542
 20
7.4998951036
  0
LWPOLYLINE
  5
586
100
AcDbEntity
  8
0
100
AcDbPolyline
 62
7
  6
CONTINUOUS
 90
4
 70
0
 10
14.6848205815
 20
7.5150900788
 10
14.6858908709
 20
7.5060819282
 10
14.6889972568
 20
7.499805073
 10
14.6925230074
 20
7.4972578936
  0
LINE
  5
587
100
AcDbEntity
  8
0
100
AcDbLine
 62
7
  6
CONTINUOUS
 10
14.6788518628
 20
7.5555245735
 11
14.6788518628
 21
7.5179178703
  0
LINE
  5
588
100
AcDbEntity
  8
02___PRT_ALL_AXES
100
AcDbLine
 62
7
  6
CONTINUOUS
 10
14.6815436276
 20
7.8436661488
 11
14.6815436276
 21
7.8348816913
  0
LINE
  5
589
100
AcDbEntity
  8
02___PRT_ALL_AXES
100
AcDbLine
 62
7
  6
CONTINUOUS
 10
14.6815436276
 20
7.7954475021
 11
14.6815436276
 21
7.7866630446
  0
LINE
  5
58A
100
AcDbEntity
  8
02___PRT_ALL_AXES
100
AcDbLine
 62
7
  6
CONTINUOUS
 10
14.6815436276
 20
7.7472288554
 11
14.6815436276
 21
7.7384443979
  0
LINE
  5
58B
100
AcDbEntity
  8
02___PRT_ALL_AXES
100
AcDbLine
 62
7
  6
CONTINUOUS
 10
14.6815436276
 20
7.6990102087
 11
14.6815436276
 21
7.6902257513
  0
LINE
  5
58C
100
AcDbEntity
  8
02___PRT_ALL_AXES
100
AcDbLine
 62
7
  6
CONTINUOUS
 10
14.6815436276
 20
7.6507915621
 11
14.6815436276
 21
7.6420071046
  0
LINE
  5
58D
100
AcDbEntity
  8
02___PRT_ALL_AXES
100
AcDbLine
 62
7
  6
CONTINUOUS
 10
14.6815436276
 20
7.6025729154
 11
14.6815436276
 21
7.5937884579
  0
LINE
  5
58E
100
AcDbEntity
  8
0
100
AcDbLine
 62
7
  6
CONTINUOUS
 10
14.6962043969
 20
9.535674613
 11
14.6963157518
 21
9.5366008609
  0
LINE
  5
58F
100
AcDbEntity
  8
0
100
AcDbLine
 62
7
  6
CONTINUOUS
 10
14.7467291376
 20
7.425288548
 11
14.7497360161
 21
7.4040323013
  0
LWPOLYLINE
  5
590
100
AcDbEntity
  8
0
100
AcDbPolyline
 62
7
  6
CONTINUOUS
 90
3
 70
0
 10
14.7467291376
 20
7.4542192608
 10
14.7496321285
 20
7.4333315715
 10
14.7584509688
 20
7.4126483907
  0
LINE
  5
591
100
AcDbEntity
  8
0
100
AcDbLine
 62
7
  6
CONTINUOUS
 10
14.7476927519
 20
7.479423757
 11
14.7496256165
 21
7.4655006306
  0
LINE
  5
592
100
AcDbEntity
  8
0
100
AcDbLine
 62
7
  6
CONTINUOUS
 10
14.7467291376
 20
7.4228775941
 11
14.7497363645
 21
7.4008165013
  0
LWPOLYLINE
  5
593
100
AcDbEntity
  8
AXIS
100
AcDbPolyline
 62
7
  6
CONTINUOUS
 90
3
 70
0
 10
14.6963186189
 20
9.5573563979
 10
14.697066663
 20
9.5452184657
 10
14.7030504893
 20
9.52119111
  0
LINE
  5
594
100
AcDbEntity
  8
0
100
AcDbLine
 62
7
  6
CONTINUOUS
 10
14.6848205816
 20
7.5531355359
 11
14.6848205816
 21
7.5150900788
  0
LINE
  5
595
100
AcDbEntity
  8
AXIS
100
AcDbLine
 62
7
  6
CONTINUOUS
 10
14.6963157518
 20
9.5353680071
 11
14.6963157518
 21
9.5573563967
  0
LINE
  5
596
100
AcDbEntity
  8
02___PRT_ALL_AXES
100
AcDbLine
 62
7
  6
CONTINUOUS
 10
14.7680136219
 20
7.8180569691
 11
14.7680136219
 21
7.8120296383
  0
LINE
  5
597
100
AcDbEntity
  8
02___PRT_ALL_AXES
100
AcDbLine
 62
7
  6
CONTINUOUS
 10
14.7680136219
 20
7.7698383224
 11
14.7680136219
 21
7.7638109916
  0
LINE
  5
598
100
AcDbEntity
  8
02___PRT_ALL_AXES
100
AcDbLine
 62
7
  6
CONTINUOUS
 10
14.7680136219
 20
7.7216196757
 11
14.7680136219
 21
7.7155923449
  0
LINE
  5
599
100
AcDbEntity
  8
02___PRT_ALL_AXES
100
AcDbLine
 62
7
  6
CONTINUOUS
 10
14.7680136219
 20
7.6734010291
 11
14.7680136219
 21
7.6673736982
  0
LINE
  5
59A
100
AcDbEntity
  8
02___PRT_ALL_AXES
100
AcDbLine
 62
7
  6
CONTINUOUS
 10
14.7680136219
 20
7.6251823824
 11
14.7680136219
 21
7.6191550515
  0
LINE
  5
59B
100
AcDbEntity
  8
02___PRT_ALL_AXES
100
AcDbLine
 62
7
  6
CONTINUOUS
 10
14.7680136219
 20
7.5769637357
 11
14.7680136219
 21
7.5709364049
  0
LINE
  5
59C
100
AcDbEntity
  8
02___PRT_ALL_AXES
100
AcDbLine
 62
7
  6
CONTINUOUS
 10
14.7680136219
 20
7.528745089
 11
14.7680136219
 21
7.5227177582
  0
LINE
  5
59D
100
AcDbEntity
  8
02___PRT_ALL_AXES
100
AcDbLine
 62
7
  6
CONTINUOUS
 10
15.2819188475
 20
9.5221397824
 11
15.2679111904
 21
9.4949749126
  0
LINE
  5
59E
100
AcDbEntity
  8
02___PRT_ALL_AXES
100
AcDbLine
 62
7
  6
CONTINUOUS
 10
14.6937596178
 20
9.5573685392
 11
14.6960395121
 21
9.5361286092
  0
LWPOLYLINE
  5
59F
100
AcDbEntity
  8
AXIS
100
AcDbPolyline
 62
7
  6
CONTINUOUS
 90
4
 70
0
 10
15.2671062865
 20
9.4979013026
 10
15.2789516146
 20
9.5211924943
 10
15.2849350943
 20
9.5452198788
 10
15.2856829634
 20
9.5573563955
  0
LINE
  5
5A0
100
AcDbEntity
  8
0
100
AcDbLine
 62
7
  6
CONTINUOUS
 10
14.7487574685
 20
7.4396249522
 11
14.7467291376
 21
7.425288548
  0
LINE
  5
5A1
100
AcDbEntity
  8
0
100
AcDbLine
 62
7
  6
CONTINUOUS
 10
14.7467291376
 20
7.4574338332
 11
14.7487670307
 21
7.471685336
  0
LINE
  5
5A2
100
AcDbEntity
  8
02___PRT_ALL_AXES
100
AcDbLine
 62
7
  6
CONTINUOUS
 10
15.2879910185
 20
9.5502652696
 11
15.2819188475
 21
9.5221397824
  0
LINE
  5
5A3
100
AcDbEntity
  8
02___PRT_ALL_AXES
100
AcDbLine
 62
7
  6
CONTINUOUS
 10
14.6960395121
 20
9.5361286092
 11
14.7061142351
 21
9.5083887332
  0
LINE
  5
5A4
100
AcDbEntity
  8
0
100
AcDbLine
 62
7
  6
CONTINUOUS
 10
15.2352724447
 20
7.4413614302
 11
15.23335966
 21
7.4559049681
  0
LWPOLYLINE
  5
5A5
100
AcDbEntity
  8
AXIS
100
AcDbPolyline
 62
7
  6
CONTINUOUS
 90
4
 70
0
 10
14.7030504893
 20
9.52119111
 10
14.7148961533
 20
9.4978999752
 10
14.7323625115
 20
9.4758192018
 10
14.7550939993
 20
9.4553982905
  0
LINE
  5
5A6
100
AcDbEntity
  8
0
100
AcDbLine
 62
7
  6
CONTINUOUS
 10
15.234579742
 20
7.4794791747
 11
15.2352724446
 21
7.4735103012
  0
LINE
  5
5A7
100
AcDbEntity
  8
AXIS
100
AcDbLine
 62
7
  6
CONTINUOUS
 10
15.2856858305
 20
9.5395879458
 11
15.2856858305
 21
9.5573563967
  0
LWPOLYLINE
  5
5A8
100
AcDbEntity
  8
0
100
AcDbPolyline
 62
7
  6
CONTINUOUS
 90
3
 70
0
 10
15.2352724446
 20
7.4735103012
 10
15.2352141253
 20
7.4703138753
 10
15.2312039305
 20
7.4469398764
  0
LINE
  5
5A9
100
AcDbEntity
  8
02___PRT_ALL_AXES
100
AcDbLine
 62
7
  6
CONTINUOUS
 10
15.2882419645
 20
9.5573442542
 11
15.2879910185
 21
9.5502652696
  0
LINE
  5
5AA
100
AcDbEntity
  8
02___PRT_ALL_AXES
100
AcDbLine
 62
7
  6
CONTINUOUS
 10
14.7061142351
 20
9.5083887332
 11
14.7239599208
 21
9.4819845674
  0
LWPOLYLINE
  5
5AB
100
AcDbEntity
  8
AXIS
100
AcDbPolyline
 62
7
  6
CONTINUOUS
 90
18
 70
0
 10
15.2856829634
 20
9.5573563955
 10
15.2849349193
 20
9.5694943277
 10
15.278951093
 20
9.5935216834
 10
15.267105429
 20
9.6168128182
 10
15.2496390707
 20
9.6388935917
 10
15.226907583
 20
9.659314503
 10
15.1993737132
 20
9.6776598413
 10
15.1675979717
 20
9.6935561484
 10
15.1322272208
 20
9.7066798213
 10
15.0939815071
 20
9.7167636999
 10
15.053639403
 20
9.7236025055
 10
15.0120221574
 20
9.7270570197
 10
14.9699769774
 20
9.7270569187
 10
14.9283597816
 20
9.7236022044
 10
14.8880177761
 20
9.7167632048
 10
14.8497722078
 20
9.7066791423
 10
14.8144016462
 20
9.6935552994
 10
14.7826261339
 20
9.6776588395
  0
LWPOLYLINE
  5
5AC
100
AcDbEntity
  8
0
100
AcDbPolyline
 62
7
  6
CONTINUOUS
 90
3
 70
0
 10
15.2352724447
 20
7.4381468538
 10
15.2322649634
 20
7.4152811774
 10
15.2233170411
 20
7.3929596161
  0
LINE
  5
5AD
100
AcDbEntity
  8
0
100
AcDbLine
 62
7
  6
CONTINUOUS
 10
15.2322002383
 20
7.4471836699
 11
15.2352724447
 21
7.4702931458
  0
LINE
  5
5AE
100
AcDbEntity
  8
02___PRT_ALL_AXES
100
AcDbLine
 62
7
  6
CONTINUOUS
 10
15.5776149644
 20
7.8570463362
 11
15.57621524
 21
7.8786372133
  0
LINE
  5
5AF
100
AcDbEntity
  8
02___PRT_ALL_AXES
100
AcDbLine
 62
7
  6
CONTINUOUS
 10
15.5776149644
 20
7.9052649829
 11
15.57621524
 21
7.9268558599
  0
LWPOLYLINE
  5
5B0
100
AcDbEntity
  8
02___PRT_ALL_AXES
100
AcDbPolyline
 62
7
  6
CONTINUOUS
 90
3
 70
0
 10
14.7239599208
 20
9.4819845674
 10
14.7490897852
 20
9.4576363487
 10
14.7808183513
 20
9.4360082329
  0
LINE
  5
5B1
100
AcDbEntity
  8
02___PRT_ALL_AXES
100
AcDbLine
 62
7
  6
CONTINUOUS
 10
15.5757297303
 20
7.9197103724
 11
15.5776149644
 21
7.9474562987
  0
LINE
  5
5B2
100
AcDbEntity
  8
02___PRT_ALL_AXES
100
AcDbLine
 62
7
  6
CONTINUOUS
 10
15.5757297303
 20
7.8714917257
 11
15.5776149644
 21
7.899237652
  0
LINE
  5
5B3
100
AcDbEntity
  8
0
100
AcDbLine
 62
7
  6
CONTINUOUS
 10
15.2305281766
 20
7.4783991169
 11
15.2233101321
 21
7.4604529785
  0
LINE
  5
5B4
100
AcDbEntity
  8
0
100
AcDbLine
 62
7
  6
CONTINUOUS
 10
15.2232949366
 20
7.4250646254
 11
15.2322002383
 21
7.4471836699
  0
LWPOLYLINE
  5
5B5
100
AcDbEntity
  8
0
100
AcDbPolyline
 62
7
  6
CONTINUOUS
 90
3
 70
0
 10
15.2178378989
 20
7.385022375
 10
15.2123884264
 20
7.3723342987
 10
15.1982249847
 20
7.3527166207
  0
LWPOLYLINE
  5
5B6
100
AcDbEntity
  8
0
100
AcDbPolyline
 62
7
  6
CONTINUOUS
 90
3
 70
0
 10
15.2210881306
 20
7.4533285825
 10
15.2312039305
 20
7.4758710644
 10
15.2316908347
 20
7.4787090559
  0
LWPOLYLINE
  5
5B7
100
AcDbEntity
  8
0
100
AcDbPolyline
 62
7
  6
CONTINUOUS
 90
8
 70
0
 10
15.2312039305
 20
7.4469398764
 10
15.2210881306
 20
7.4243973945
 10
15.2051331647
 20
7.4030772616
 10
15.1834399231
 20
7.3832500518
 10
15.156454743
 20
7.3655270315
 10
15.1251884047
 20
7.3506028587
 10
15.0909202921
 20
7.3389368167
 10
15.0542239296
 20
7.3305874673
  0
LINE
  5
5B8
100
AcDbEntity
  8
AXIS
100
AcDbLine
 62
7
  6
CONTINUOUS
 10
14.7550939993
 20
9.4553982905
 11
14.782627869
 21
9.4370529522
  0
LWPOLYLINE
  5
5B9
100
AcDbEntity
  8
02___PRT_ALL_AXES
100
AcDbPolyline
 62
7
  6
CONTINUOUS
 90
3
 70
0
 10
15.5612303168
 20
7.8721798583
 10
15.5757297303
 20
7.9257377032
 10
15.5775927953
 20
7.9531573569
  0
LINE
  5
5BA
100
AcDbEntity
  8
02___PRT_ALL_AXES
100
AcDbLine
 62
7
  6
CONTINUOUS
 10
15.5612303168
 20
7.8661525275
 11
15.5757297303
 21
7.9197103724
  0
LWPOLYLINE
  5
5BB
100
AcDbEntity
  8
02___PRT_ALL_AXES
100
AcDbPolyline
 62
7
  6
CONTINUOUS
 90
3
 70
0
 10
15.5612303168
 20
7.8239612116
 10
15.5757297303
 20
7.8775190565
 10
15.5776149644
 20
7.9052649829
  0
LINE
  5
5BC
100
AcDbEntity
  8
02___PRT_ALL_AXES
100
AcDbLine
 62
7
  6
CONTINUOUS
 10
15.5612303168
 20
7.8179338808
 11
15.5757297303
 21
7.8714917257
  0
LWPOLYLINE
  5
5BD
100
AcDbEntity
  8
02___PRT_ALL_AXES
100
AcDbPolyline
 62
7
  6
CONTINUOUS
 90
8
 70
0
 10
15.330963032
 20
7.8582939721
 10
15.3155046023
 20
7.8503955139
 10
15.2444004771
 20
7.8238578266
 10
15.1669071186
 20
7.8037020821
 10
15.0842759235
 20
7.7904629975
 10
14.999306521
 20
7.7847201075
 10
14.9151510555
 20
7.7865364171
 10
14.8331313104
 20
7.7956711778
  0
LWPOLYLINE
  5
5BE
100
AcDbEntity
  8
0
100
AcDbPolyline
 62
7
  6
CONTINUOUS
 90
8
 70
0
 10
15.6566894795
 20
7.9903918676
 10
15.5500587518
 20
7.9401957942
 10
15.4331178035
 20
7.899380783
 10
15.3080322107
 20
7.8685424338
 10
15.1771902813
 20
7.8481589747
 10
15.0429913486
 20
7.8385277926
 10
14.9078649378
 20
7.8397865301
 10
14.7743016516
 20
7.8519073785
  0
LINE
  5
5BF
100
AcDbEntity
  8
02___PRT_ALL_AXES
100
AcDbLine
 62
7
  6
CONTINUOUS
 10
14.7813094458
 20
9.3907251546
 11
14.7387413069
 21
9.4117151849
  0
LWPOLYLINE
  5
5C0
100
AcDbEntity
  8
AXIS
100
AcDbPolyline
 62
7
  6
CONTINUOUS
 90
12
 70
0
 10
14.782627869
 20
9.4370529522
 10
14.8144036106
 20
9.4211566451
 10
14.8497743614
 20
9.4080329722
 10
14.8880200752
 20
9.3979490935
 10
14.9283621793
 20
9.3911102879
 10
14.9699794249
 20
9.3876557737
 10
15.0120246049
 20
9.3876558748
 10
15.0536418007
 20
9.3911105891
 10
15.0939838062
 20
9.3979495886
 10
15.1322293745
 20
9.4080336511
 10
15.1675999361
 20
9.421157494
 10
15.1993754483
 20
9.4370539539
  0
LWPOLYLINE
  5
5C1
100
AcDbEntity
  8
0
100
AcDbPolyline
 62
7
  6
CONTINUOUS
 90
14
 70
0
 10
15.531321785
 20
7.716442427
 10
15.5175405719
 20
7.6793262313
 10
15.4864323794
 20
7.631255186
 10
15.4430650155
 20
7.5864061124
 10
15.3886073653
 20
7.5462983504
 10
15.3248449121
 20
7.5121172754
 10
15.2535517584
 20
7.4845366947
 10
15.1764799528
 20
7.4639910558
 10
15.0953795121
 20
7.4507746837
 10
15.0120277713
 20
7.4450743935
 10
14.9282742309
 20
7.4469675246
 10
14.8459211013
 20
7.4564131203
 10
14.7667570367
 20
7.4732610483
 10
14.6925230074
 20
7.4972578936
  0
LINE
  5
5C2
100
AcDbEntity
  8
02___PRT_ALL_AXES
100
AcDbLine
 62
7
  6
CONTINUOUS
 10
15.5327556002
 20
7.9109800282
 11
15.5485924873
 21
7.939684035
  0
LWPOLYLINE
  5
5C3
100
AcDbEntity
  8
02___PRT_ALL_AXES
100
AcDbPolyline
 62
7
  6
CONTINUOUS
 90
3
 70
0
 10
15.5327556002
 20
7.8627613815
 10
15.5612303168
 20
7.9143711742
 10
15.57069448
 20
7.9493298424
  0
LINE
  5
5C4
100
AcDbEntity
  8
02___PRT_ALL_AXES
100
AcDbLine
 62
7
  6
CONTINUOUS
 10
15.5327556002
 20
7.772351419
 11
15.5612303168
 21
7.8239612116
  0
LINE
  5
5C5
100
AcDbEntity
  8
02___PRT_ALL_AXES
100
AcDbLine
 62
7
  6
CONTINUOUS
 10
15.5327556002
 20
7.7663240881
 11
15.5612303168
 21
7.8179338808
  0
LWPOLYLINE
  5
5C6
100
AcDbEntity
  8
02___PRT_ALL_AXES
100
AcDbPolyline
 62
7
  6
CONTINUOUS
 90
4
 70
0
 10
15.5327556002
 20
7.7241327723
 10
15.5612303168
 20
7.775742565
 10
15.5757297303
 20
7.8293004099
 10
15.5776149644
 20
7.8570463362
  0
LWPOLYLINE
  5
5C7
100
AcDbEntity
  8
0
100
AcDbPolyline
 62
7
  6
CONTINUOUS
 90
14
 70
0
 10
15.2233101321
 20
7.4604529785
 10
15.2088112896
 20
7.4394089218
 10
15.1888688487
 20
7.4197504276
 10
15.1637310757
 20
7.4019151933
 10
15.134248196
 20
7.3865892635
 10
15.1015903063
 20
7.3742728013
 10
15.0665187568
 20
7.3651050351
 10
15.0295747329
 20
7.3591690417
 10
14.9914298103
 20
7.3565974324
 10
14.9534252541
 20
7.3574766337
 10
14.9162125656
 20
7.3617688011
 10
14.8804067712
 20
7.3694666026
 10
14.8473681168
 20
7.3803286819
 10
14.8182753676
 20
7.3938758443
  0
LWPOLYLINE
  5
5C8
100
AcDbEntity
  8
0
100
AcDbPolyline
 62
7
  6
CONTINUOUS
 90
14
 70
0
 10
15.2096975303
 20
7.4728461273
 10
15.2087896061
 20
7.47152903
 10
15.1888403053
 20
7.451872413
 10
15.1636965214
 20
7.4340399877
 10
15.1342089434
 20
7.4187176095
 10
15.1015479813
 20
7.4064051673
 10
15.0664783441
 20
7.397242327
 10
15.0295204587
 20
7.3913086475
 10
14.9913600703
 20
7.3887416712
 10
14.9533519989
 20
7.3896274361
 10
14.9161452096
 20
7.3939255965
 10
14.8803562407
 20
7.4016259977
 10
14.8473420725
 20
7.4124847043
 10
14.8182753676
 20
7.4260216087
  0
LWPOLYLINE
  5
5C9
100
AcDbEntity
  8
0
100
AcDbPolyline
 62
7
  6
CONTINUOUS
 90
4
 70
0
 10
15.2086490444
 20
7.3749257213
 10
15.2233170273
 20
7.3961741671
 10
15.2322649496
 20
7.4184957019
 10
15.2352724447
 20
7.4413614302
  0
LINE
  5
5CA
100
AcDbEntity
  8
0
100
AcDbLine
 62
7
  6
CONTINUOUS
 10
15.2233170411
 20
7.3929596161
 11
15.2086490646
 21
7.3717111687
  0
LINE
  5
5CB
100
AcDbEntity
  8
0
100
AcDbLine
 62
7
  6
CONTINUOUS
 10
15.2051331647
 20
7.4320084496
 11
15.2210881306
 21
7.4533285825
  0
LWPOLYLINE
  5
5CC
100
AcDbEntity
  8
02___PRT_ALL_AXES
100
AcDbPolyline
 62
7
  6
CONTINUOUS
 90
5
 70
0
 10
15.3313391337
 20
7.7620206529
 10
15.3164872298
 20
7.7543893223
 10
15.2448141533
 20
7.7275507905
 10
15.1679729741
 20
7.707488379
 10
15.0862012271
 20
7.6942457997
  0
LWPOLYLINE
  5
5CD
100
AcDbEntity
  8
02___PRT_ALL_AXES
100
AcDbPolyline
 62
7
  6
CONTINUOUS
 90
7
 70
0
 10
15.2979573376
 20
7.7956853803
 10
15.2456587382
 20
7.7760361828
 10
15.1683226762
 20
7.7557806921
 10
15.0859331984
 20
7.7424335618
 10
15.0012775982
 20
7.7365480944
 10
14.9174713762
 20
7.7381671578
 10
14.8352411724
 20
7.7471216728
  0
LWPOLYLINE
  5
5CE
100
AcDbEntity
  8
02___PRT_ALL_AXES
100
AcDbPolyline
 62
7
  6
CONTINUOUS
 90
8
 70
0
 10
15.2159895575
 20
7.6798916472
 10
15.2977842479
 20
7.7051999535
 10
15.3720602259
 20
7.7375830699
 10
15.4369971204
 20
7.776276819
 10
15.4910034445
 20
7.8203623608
 10
15.5327556002
 20
7.8687887123
 10
15.5612303168
 20
7.920398505
 10
15.5690044097
 20
7.9491144019
  0
LWPOLYLINE
  5
5CF
100
AcDbEntity
  8
02___PRT_ALL_AXES
100
AcDbPolyline
 62
7
  6
CONTINUOUS
 90
21
 70
0
 10
15.9752503848
 20
8.8083460857
 10
15.9748364911
 20
8.7918350579
 10
15.9648612655
 20
8.7260048946
 10
15.9417162477
 20
8.6612884439
 10
15.9057144342
 20
8.5985608848
 10
15.8573426879
 20
8.5386705
 10
15.7972551536
 20
8.4824272042
 10
15.7262644122
 20
8.4305915915
 10
15.6453304917
 20
8.3838646496
 10
15.5555478844
 20
8.3428782803
 10
15.4581307462
 20
8.3081867538
 10
15.3543964767
 20
8.2802592136
 10
15.245747904
 20
8.2594733318
 10
15.1336543135
 20
8.2461102016
 10
15.0196315789
 20
8.2403505367
 10
14.905221662
 20
8.2422722264
 10
14.7919717607
 20
8.2518492833
 10
14.6814133856
 20
8.2689521941
 10
14.575041649
 20
8.2933496713
 10
14.4742950463
 20
8.3247117809
 10
14.3805360023
 20
8.362614404
  0
LWPOLYLINE
  5
5D0
100
AcDbEntity
  8
02___PRT_ALL_AXES
100
AcDbPolyline
 62
7
  6
CONTINUOUS
 90
22
 70
0
 10
15.9752527596
 20
8.8083600849
 10
15.9690644487
 20
8.7447386207
 10
15.9505764197
 20
8.6819148674
 10
15.9200211705
 20
8.620681236
 10
15.8777829509
 20
8.5618077751
 10
15.8243929312
 20
8.5060348526
 10
15.7605225217
 20
8.4540638452
 10
15.6869749301
 20
8.4065483187
 10
15.6046750598
 20
8.3640858082
 10
15.5146578795
 20
8.3272103045
 10
15.4180554075
 20
8.2963855385
 10
15.3160824759
 20
8.2719991495
 10
15.2100214535
 20
8.2543578105
 10
15.1012061192
 20
8.2436833714
 10
14.991004889
 20
8.2401100697
 10
14.8808036072
 20
8.2436828417
 10
14.771988119
 20
8.2543567576
 10
14.6659268421
 20
8.2719975867
 10
14.5639535588
 20
8.2963834855
 10
14.4673506423
 20
8.3272077871
 10
14.3773329301
 20
8.364082858
 10
14.2950324474
 20
8.4065449729
  0
LWPOLYLINE
  5
5D1
100
AcDbEntity
  8
02___PRT_ALL_AXES
100
AcDbPolyline
 62
7
  6
CONTINUOUS
 90
5
 70
0
 10
15.4910034445
 20
7.66967909
 10
15.5327556002
 20
7.7181054414
 10
15.5612303168
 20
7.7697152341
 10
15.5757297303
 20
7.823273079
 10
15.5776149644
 20
7.8510190053
  0
LINE
  5
5D2
100
AcDbEntity
  8
0
100
AcDbLine
 62
7
  6
CONTINUOUS
 10
15.1886215796
 20
7.3552532275
 11
15.2086490444
 21
7.3749257213
  0
LWPOLYLINE
  5
5D3
100
AcDbEntity
  8
0
100
AcDbPolyline
 62
7
  6
CONTINUOUS
 90
13
 70
0
 10
15.2086490646
 20
7.3717111687
 10
15.1886215996
 20
7.3520386676
 10
15.1637270397
 20
7.3344066382
 10
15.1345790875
 20
7.3192302708
 10
15.101896827
 20
7.3068639101
 10
15.0664848651
 20
7.2975918241
 10
15.0292141802
 20
7.2916221598
 10
14.9910017891
 20
7.2890821448
 10
14.952789826
 20
7.2900146639
 10
14.9155183521
 20
7.2943769777
 10
14.8801042095
 20
7.302042239
 10
14.8474208359
 20
7.3128018215
 10
14.8182741556
 20
7.3263704027
  0
LWPOLYLINE
  5
5D4
100
AcDbEntity
  8
02___PRT_ALL_AXES
100
AcDbPolyline
 62
7
  6
CONTINUOUS
 90
8
 70
0
 10
15.3315306112
 20
7.617448194
 10
15.3163263597
 20
7.6096626714
 10
15.2451064475
 20
7.5829870434
 10
15.1674144854
 20
7.5627151059
 10
15.0845319381
 20
7.5493987961
 10
14.9992875055
 20
7.5436264441
 10
14.9148420975
 20
7.5454636743
 10
14.8327656797
 20
7.5546358155
  0
LWPOLYLINE
  5
5D5
100
AcDbEntity
  8
02___PRT_ALL_AXES
100
AcDbPolyline
 62
7
  6
CONTINUOUS
 90
7
 70
0
 10
15.2981491207
 20
7.6993317013
 10
15.2460982987
 20
7.6797381443
 10
15.1684933047
 20
7.6593793976
 10
15.0856685873
 20
7.6459658552
 10
15.0004418586
 20
7.640090531
 10
14.9159517266
 20
7.6418278521
 10
14.8341121175
 20
7.6508607786
  0
LWPOLYLINE
  5
5D6
100
AcDbEntity
  8
02___PRT_ALL_AXES
100
AcDbPolyline
 62
7
  6
CONTINUOUS
 90
7
 70
0
 10
15.2567557797
 20
7.6356186024
 10
15.2439752431
 20
7.630849613
 10
15.166794194
 20
7.6108038892
 10
15.0856440556
 20
7.5977443928
 10
15.0018952221
 20
7.5919076048
 10
14.9180449546
 20
7.5934748772
 10
14.8356175858
 20
7.6024072576
  0
LWPOLYLINE
  5
5D7
100
AcDbEntity
  8
02___PRT_ALL_AXES
100
AcDbPolyline
 62
7
  6
CONTINUOUS
 90
7
 70
0
 10
15.2159895575
 20
7.6316730005
 10
15.2977842479
 20
7.6569813068
 10
15.3720602259
 20
7.6893644233
 10
15.4369971204
 20
7.7280581723
 10
15.4910034445
 20
7.7721437141
 10
15.5327556002
 20
7.8205700656
 10
15.5612303168
 20
7.8721798583
  0
LWPOLYLINE
  5
5D8
100
AcDbEntity
  8
02___PRT_ALL_AXES
100
AcDbPolyline
 62
7
  6
CONTINUOUS
 90
7
 70
0
 10
15.2159895575
 20
7.6256456697
 10
15.2977842479
 20
7.650953976
 10
15.3720602259
 20
7.6833370924
 10
15.4369971204
 20
7.7220308415
 10
15.4910034445
 20
7.7661163833
 10
15.5327556002
 20
7.8145427348
 10
15.5612303168
 20
7.8661525275
  0
LINE
  5
5D9
100
AcDbEntity
  8
02___PRT_ALL_AXES
100
AcDbLine
 62
7
  6
CONTINUOUS
 10
15.9752527596
 20
8.8083600849
 11
15.9752527596
 21
8.4226109115
  0
LINE
  5
5DA
100
AcDbEntity
  8
0
100
AcDbLine
 62
7
  6
CONTINUOUS
 10
15.9752527596
 20
8.4226055893
 11
15.9752527596
 21
8.4226109115
  0
LWPOLYLINE
  5
5DB
100
AcDbEntity
  8
0
100
AcDbPolyline
 62
7
  6
CONTINUOUS
 90
7
 70
0
 10
15.9752527596
 20
8.4226109115
 10
15.9662202155
 20
8.3428130175
 10
15.9389151271
 20
8.2638091396
 10
15.8934630803
 20
8.1874679587
 10
15.8303129253
 20
8.1152977342
 10
15.7507967303
 20
8.0491300601
 10
15.6566894795
 20
7.9903918676
  0
LWPOLYLINE
  5
5DC
100
AcDbEntity
  8
0
100
AcDbPolyline
 62
7
  6
CONTINUOUS
 90
3
 70
0
 10
15.946798103
 20
8.2869620292
 10
15.9698370533
 20
8.3630816316
 10
15.9752527596
 20
8.4226055893
  0
LWPOLYLINE
  5
5DD
100
AcDbEntity
  8
0
100
AcDbPolyline
 62
7
  6
CONTINUOUS
 90
3
 70
0
 10
15.1982249847
 20
7.3527166207
 10
15.1789822131
 20
7.3344966919
 10
15.1540236994
 20
7.3175532118
  0
LWPOLYLINE
  5
5DE
100
AcDbEntity
  8
0
100
AcDbPolyline
 62
7
  6
CONTINUOUS
 90
3
 70
0
 10
15.156454743
 20
7.3944582195
 10
15.1834399231
 20
7.4121812398
 10
15.2051331647
 20
7.4320084496
  0
LWPOLYLINE
  5
5DF
100
AcDbEntity
  8
0
100
AcDbPolyline
 62
7
  6
CONTINUOUS
 90
11
 70
0
 10
15.151707348
 20
7.4599540375
 10
15.1414426862
 20
7.4541948439
 10
15.1085278238
 20
7.4408439313
 10
15.0730154116
 20
7.4308181637
 10
15.0353759359
 20
7.4241609584
 10
14.9963016517
 20
7.4210240013
 10
14.9571986447
 20
7.4215262991
 10
14.9189625132
 20
7.4256204262
 10
14.8821187272
 20
7.4333012568
 10
14.8481332161
 20
7.4443201844
 10
14.8182753676
 20
7.4581673732
  0
LWPOLYLINE
  5
5E0
100
AcDbEntity
  8
02___PRT_ALL_AXES
100
AcDbPolyline
 62
7
  6
CONTINUOUS
 90
6
 70
0
 10
15.2011832309
 20
9.6787045606
 10
15.232911797
 20
9.6570764448
 10
15.2580416615
 20
9.632728226
 10
15.2758873472
 20
9.6063240603
 10
15.2859620702
 20
9.5785841843
 10
15.2882419645
 20
9.5573442542
  0
LWPOLYLINE
  5
5E1
100
AcDbEntity
  8
0
100
AcDbPolyline
 62
7
  6
CONTINUOUS
 90
10
 70
0
 10
15.1540236994
 20
7.3175532118
 10
15.1268125487
 20
7.3040512662
 10
15.095834291
 20
7.2929161435
 10
15.0627311775
 20
7.2847859281
 10
15.0280040121
 20
7.2797194312
 10
14.9922878144
 20
7.2778274752
 10
14.9568452673
 20
7.2791695977
 10
14.9223172674
 20
7.2836927607
 10
14.8892540829
 20
7.2913767426
 10
14.8589199637
 20
7.3019706126
  0
LWPOLYLINE
  5
5E2
100
AcDbEntity
  8
02___PRT_ALL_AXES
100
AcDbPolyline
 62
7
  6
CONTINUOUS
 90
10
 70
0
 10
15.2011832309
 20
9.6787045606
 10
15.1637214358
 20
9.6970226148
 10
15.1215482717
 20
9.7115309386
 10
15.0758141126
 20
9.7218337829
 10
15.0277664673
 20
9.7276501128
 10
14.9787159501
 20
9.7288212741
 10
14.9300005314
 20
9.7253153205
 10
14.8829490407
 20
9.7172278853
 10
14.8388449201
 20
9.7047795726
 10
14.7988912151
 20
9.68830994
  0
LWPOLYLINE
  5
5E3
100
AcDbEntity
  8
02___PRT_ALL_AXES
100
AcDbPolyline
 62
7
  6
CONTINUOUS
 90
21
 70
0
 10
15.2432602754
 20
9.7029976085
 10
15.2006921365
 20
9.7239876388
 10
15.1529607007
 20
9.740874655
 10
15.1012412745
 20
9.7532428425
 10
15.0468073616
 20
9.7607876557
 10
14.9909993058
 20
9.7633233161
 10
14.9351912866
 20
9.7607873874
 10
14.8807574826
 20
9.7532423126
 10
14.8290382348
 20
9.7408738764
 10
14.7813070426
 20
9.7239866308
 10
14.7387392064
 20
9.7029963958
 10
14.7023828876
 20
9.6784200207
 10
14.6731332995
 20
9.6508626573
 10
14.651710664
 20
9.6210028595
 10
14.6386424774
 20
9.5895758746
 10
14.634250522
 20
9.5573555392
 10
14.6386429421
 20
9.5251352249
 10
14.651711582
 20
9.4937083028
 10
14.6731346481
 20
9.463848608
 10
14.7023846337
 20
9.4362913853
 10
14.7387413069
 20
9.4117151849
  0
LWPOLYLINE
  5
5E4
100
AcDbEntity
  8
02___PRT_ALL_AXES
100
AcDbPolyline
 62
7
  6
CONTINUOUS
 90
11
 70
0
 10
15.2432602754
 20
9.7029976085
 10
15.2796169486
 20
9.6784214082
 10
15.3088669341
 20
9.6508641854
 10
15.3302900003
 20
9.6210044906
 10
15.3433586401
 20
9.5895775685
 10
15.3477510603
 20
9.5573572542
 10
15.3433591048
 20
9.5251369188
 10
15.3302909183
 20
9.4937099339
 10
15.3088682828
 20
9.4638501361
 10
15.2796186947
 20
9.4362927728
 10
15.2432623759
 20
9.4117163977
  0
LWPOLYLINE
  5
5E5
100
AcDbEntity
  8
02___PRT_ALL_AXES
100
AcDbPolyline
 62
7
  6
CONTINUOUS
 90
9
 70
0
 10
15.4831184255
 20
9.6607521142
 10
15.5830723207
 20
9.5946191017
 10
15.6729813138
 20
9.5180462862
 10
15.7563470507
 20
9.4272276318
 10
15.8310306132
 20
9.3212946183
 10
15.8924987324
 20
9.2033960318
 10
15.9378379465
 20
9.0771561763
 10
15.9657682793
 20
8.944669591
 10
15.9752527596
 20
8.8083600849
  0
LINE
  5
5E6
100
AcDbEntity
  8
02___PRT_ALL_AXES
100
AcDbLine
 62
7
  6
CENTER
 10
2.854590487
 20
5.8506888041
 11
2.854590487
 21
4.7538369283
  0
LINE
  5
5E7
100
AcDbEntity
  8
02___PRT_ALL_AXES
100
AcDbLine
 62
7
  6
CENTER
 10
2.854590487
 20
5.8506888041
 11
2.854590487
 21
6.9475406798
  0
LINE
  5
5E8
100
AcDbEntity
  8
02___PRT_ALL_AXES
100
AcDbLine
 62
7
  6
CENTER
 10
2.854590487
 20
5.8506888041
 11
1.7577386112
 21
5.8506888041
  0
LINE
  5
5E9
100
AcDbEntity
  8
02___PRT_ALL_AXES
100
AcDbLine
 62
7
  6
CENTER
 10
2.854590487
 20
5.8506888041
 11
3.9514423628
 21
5.8506888041
  0
CIRCLE
  5
5EA
100
AcDbEntity
  8
0
100
AcDbCircle
 62
7
  6
CONTINUOUS
 10
10.5342808475
 20
1.243294839
 40
0.252091
  0
CIRCLE
  5
5EB
100
AcDbEntity
  8
0
100
AcDbCircle
 62
7
  6
CONTINUOUS
 10
10.5342808475
 20
1.243294839
 40
0.182698
  0
CIRCLE
  5
5EC
100
AcDbEntity
  8
0
100
AcDbCircle
 62
7
  6
CONTINUOUS
 10
10.1225539079
 20
1.9935547577
 40
0.0638444824
  0
CIRCLE
  5
5ED
100
AcDbEntity
  8
02___PRT_ALL_AXES
100
AcDbCircle
 62
7
  6
CONTINUOUS
 10
2.854590487
 20
5.8506888041
 40
0.9842519685
  0
CIRCLE
  5
5EE
100
AcDbEntity
  8
02___PRT_ALL_AXES
100
AcDbCircle
 62
7
  6
CONTINUOUS
 10
2.854590487
 20
5.8506888041
 40
0.3567502692
  0
CIRCLE
  5
5EF
100
AcDbEntity
  8
02___PRT_ALL_AXES
100
AcDbCircle
 62
7
  6
CONTINUOUS
 10
2.854590487
 20
5.8506888041
 40
0.2972440945
  0
CIRCLE
  5
5F0
100
AcDbEntity
  8
AXIS
100
AcDbCircle
 62
7
  6
CONTINUOUS
 10
2.854590487
 20
5.8506888041
 40
0.2946850394
  0
CIRCLE
  5
5F1
100
AcDbEntity
  8
DATUM_CURVES
100
AcDbCircle
 62
7
  6
CONTINUOUS
 10
2.854590487
 20
5.8506888041
 40
0.2687007874
  0
ARC
  5
5F2
100
AcDbEntity
  8
0
100
AcDbCircle
 62
7
  6
CONTINUOUS
 10
7.2713769586
 20
4.9058069143
 40
0.0393700787
100
AcDbArc
 50
270.0
 51
360.0
  0
ARC
  5
5F3
100
AcDbEntity
  8
0
100
AcDbCircle
 62
7
  6
CONTINUOUS
 10
7.350117116
 20
5.2699801426
 40
0.0393700787
100
AcDbArc
 50
90.0
 51
180.0
  0
ARC
  5
5F4
100
AcDbEntity
  8
02___PRT_ALL_AXES
100
AcDbCircle
 62
7
  6
CONTINUOUS
 10
6.7989360137
 20
5.8506888041
 40
0.9842519685
100
AcDbArc
 50
90.0
 51
158.7487560243
  0
ARC
  5
5F5
100
AcDbEntity
  8
02___PRT_ALL_AXES
100
AcDbCircle
 62
7
  6
CONTINUOUS
 10
6.7989360137
 20
5.8506888041
 40
0.9842519685
100
AcDbArc
 50
201.2512439757
 51
270.0
  0
ARC
  5
5F6
100
AcDbEntity
  8
0
100
AcDbCircle
 62
7
  6
CONTINUOUS
 10
7.2713769586
 20
6.7955706938
 40
0.0393700787
100
AcDbArc
 50
0.0
 51
90.0
  0
ARC
  5
5F7
100
AcDbEntity
  8
0
100
AcDbCircle
 62
7
  6
CONTINUOUS
 10
7.350117116
 20
6.4313974655
 40
0.0393700787
100
AcDbArc
 50
180.0
 51
270.0
  0
ARC
  5
5F8
100
AcDbEntity
  8
0
100
AcDbCircle
 62
7
  6
CONTINUOUS
 10
8.1497350116
 20
5.4883069143
 40
0.1181102362
100
AcDbArc
 50
90.0
 51
101.8103820088
  0
ARC
  5
5F9
100
AcDbEntity
  8
0
100
AcDbCircle
 62
7
  6
CONTINUOUS
 10
8.0587785334
 20
5.3487203001
 40
0.0393700787
100
AcDbArc
 50
270.0
 51
360.0
  0
ARC
  5
5FA
100
AcDbEntity
  8
0
100
AcDbCircle
 62
7
  6
CONTINUOUS
 10
8.1497350116
 20
6.2130706938
 40
0.1181102362
100
AcDbArc
 50
258.1896179912
 51
270.0
  0
ARC
  5
5FB
100
AcDbEntity
  8
0
100
AcDbCircle
 62
7
  6
CONTINUOUS
 10
8.0587785334
 20
6.352657308
 40
0.0393700787
100
AcDbArc
 50
0.0
 51
90.0
  0
ARC
  5
5FC
100
AcDbEntity
  8
0
100
AcDbCircle
 62
7
  6
CONTINUOUS
 10
11.4376832232
 20
5.3487203001
 40
0.078740153
100
AcDbArc
 50
258.7452873818
 51
270.0
  0
ARC
  5
5FD
100
AcDbEntity
  8
0
100
AcDbCircle
 62
7
  6
CONTINUOUS
 10
11.4376832232
 20
5.3487203001
 40
0.0393700787
100
AcDbArc
 50
258.7452873818
 51
270.0
  0
ARC
  5
5FE
100
AcDbEntity
  8
0
100
AcDbCircle
 62
7
  6
CONTINUOUS
 10
11.208180177
 20
5.7916336859
 40
0.0354330709
100
AcDbArc
 50
190.1642486217
 51
10.1642486217
  0
ARC
  5
5FF
100
AcDbEntity
  8
0
100
AcDbCircle
 62
7
  6
CONTINUOUS
 10
11.4376832232
 20
6.352657308
 40
0.078740153
100
AcDbArc
 50
90.0
 51
101.2547126182
  0
ARC
  5
600
100
AcDbEntity
  8
0
100
AcDbCircle
 62
7
  6
CONTINUOUS
 10
11.4376832232
 20
6.352657308
 40
0.0393700787
100
AcDbArc
 50
90.0
 51
101.2547126182
  0
ARC
  5
601
100
AcDbEntity
  8
0
100
AcDbCircle
 62
7
  6
CONTINUOUS
 10
11.208180177
 20
5.9097439222
 40
0.0354330709
100
AcDbArc
 50
349.8357513783
 51
169.8357513783
  0
ARC
  5
602
100
AcDbEntity
  8
0
100
AcDbCircle
 62
7
  6
CONTINUOUS
 10
11.438745972
 20
5.9495167203
 40
0.0236220472
100
AcDbArc
 50
225.0
 51
45.0
  0
CIRCLE
  5
603
100
AcDbEntity
  8
0
100
AcDbCircle
 62
7
  6
CONTINUOUS
 10
11.4391486914
 20
5.8506888041
 40
0.0196850394
  0
CIRCLE
  5
604
100
AcDbEntity
  8
0
100
AcDbCircle
 62
7
  6
CONTINUOUS
 10
11.4391486914
 20
5.8506888041
 40
0.00468503
  0
ARC
  5
605
100
AcDbEntity
  8
0
100
AcDbCircle
 62
7
  6
CONTINUOUS
 10
11.6374645532
 20
5.3487203001
 40
0.078740153
100
AcDbArc
 50
270.0
 51
281.2547126182
  0
ARC
  5
606
100
AcDbEntity
  8
0
100
AcDbCircle
 62
7
  6
CONTINUOUS
 10
11.6374645532
 20
5.3487203001
 40
0.0393700787
100
AcDbArc
 50
270.0
 51
281.2547126182
  0
ARC
  5
607
100
AcDbEntity
  8
0
100
AcDbCircle
 62
7
  6
CONTINUOUS
 10
11.8669675995
 20
5.7916336859
 40
0.0354330709
100
AcDbArc
 50
169.8357513783
 51
349.8357513783
  0
CIRCLE
  5
608
100
AcDbEntity
  8
0
100
AcDbCircle
 62
7
  6
CONTINUOUS
 10
11.5375738882
 20
5.7522636072
 40
0.0196850394
  0
CIRCLE
  5
609
100
AcDbEntity
  8
0
100
AcDbCircle
 62
7
  6
CONTINUOUS
 10
11.5375738882
 20
5.7522636072
 40
0.00468503
  0
ARC
  5
60A
100
AcDbEntity
  8
02___PRT_ALL_AXES
100
AcDbCircle
 62
7
  6
CONTINUOUS
 10
11.5375738882
 20
5.8506888041
 40
0.9842519685
100
AcDbArc
 50
96.1106712295
 51
263.8913550294
  0
ARC
  5
60B
100
AcDbEntity
  8
02___PRT_ALL_AXES
100
AcDbCircle
 62
7
  6
CONTINUOUS
 10
11.5375738882
 20
5.8506888041
 40
0.9842519685
100
AcDbArc
 50
276.1106712295
 51
82.787260838
  0
CIRCLE
  5
60C
100
AcDbEntity
  8
0
100
AcDbCircle
 62
7
  6
CONTINUOUS
 10
11.5375738882
 20
5.8506888041
 40
0.9842519685
  0
CIRCLE
  5
60D
100
AcDbEntity
  8
0
100
AcDbCircle
 62
7
  6
CONTINUOUS
 10
11.5375738882
 20
5.8506888041
 40
0.9448818805
  0
ARC
  5
60E
100
AcDbEntity
  8
0
100
AcDbCircle
 62
7
  6
CONTINUOUS
 10
11.5375738882
 20
5.8506888041
 40
0.5905511149
100
AcDbArc
 50
101.2547126182
 51
258.7452873818
  0
ARC
  5
60F
100
AcDbEntity
  8
0
100
AcDbCircle
 62
7
  6
CONTINUOUS
 10
11.5375738882
 20
5.8506888041
 40
0.5905511149
100
AcDbArc
 50
281.2547126182
 51
78.7452873818
  0
ARC
  5
610
100
AcDbEntity
  8
0
100
AcDbCircle
 62
7
  6
CONTINUOUS
 10
11.5375738882
 20
5.8506888041
 40
0.5511811024
100
AcDbArc
 50
101.2547126182
 51
258.7452873818
  0
ARC
  5
611
100
AcDbEntity
  8
0
100
AcDbCircle
 62
7
  6
CONTINUOUS
 10
11.5375738882
 20
5.8506888041
 40
0.5511811024
100
AcDbArc
 50
281.2547126182
 51
78.7452873818
  0
ARC
  5
612
100
AcDbEntity
  8
0
100
AcDbCircle
 62
7
  6
CONTINUOUS
 10
11.5375738882
 20
5.8506888041
 40
0.5118109897
100
AcDbArc
 50
281.2547126182
 51
78.7452873818
  0
ARC
  5
613
100
AcDbEntity
  8
0
100
AcDbCircle
 62
7
  6
CONTINUOUS
 10
11.5375738882
 20
5.8506888041
 40
0.5118109897
100
AcDbArc
 50
101.2547126182
 51
258.7452873818
  0
CIRCLE
  5
614
100
AcDbEntity
  8
0
100
AcDbCircle
 62
7
  6
CONTINUOUS
 10
11.5375738882
 20
5.8506888041
 40
0.374015748
  0
ARC
  5
615
100
AcDbEntity
  8
02___PRT_ALL_AXES
100
AcDbCircle
 62
7
  6
CONTINUOUS
 10
11.5375738882
 20
5.8506888041
 40
0.3700787402
100
AcDbArc
 50
349.8357513783
 51
10.1642486217
  0
ARC
  5
616
100
AcDbEntity
  8
02___PRT_ALL_AXES
100
AcDbCircle
 62
7
  6
CONTINUOUS
 10
11.5375738882
 20
5.8506888041
 40
0.3700787402
100
AcDbArc
 50
169.8357513783
 51
190.1642486217
  0
ARC
  5
617
100
AcDbEntity
  8
0
100
AcDbCircle
 62
7
  6
CONTINUOUS
 10
11.5375738882
 20
5.8506888041
 40
0.3051181102
100
AcDbArc
 50
193.6751727363
 51
346.3247435443
  0
ARC
  5
618
100
AcDbEntity
  8
0
100
AcDbCircle
 62
7
  6
CONTINUOUS
 10
11.5375738882
 20
5.8506888041
 40
0.3051181102
100
AcDbArc
 50
13.675172742
 51
166.3247435506
  0
ARC
  5
619
100
AcDbEntity
  8
0
100
AcDbCircle
 62
7
  6
CONTINUOUS
 10
11.5375738882
 20
5.8506888041
 40
0.2992125984
100
AcDbArc
 50
349.8357513783
 51
10.1642486217
  0
ARC
  5
61A
100
AcDbEntity
  8
0
100
AcDbCircle
 62
7
  6
CONTINUOUS
 10
11.5375738882
 20
5.8506888041
 40
0.2992125984
100
AcDbArc
 50
169.8357513783
 51
190.1642486217
  0
CIRCLE
  5
61B
100
AcDbEntity
  8
0
100
AcDbCircle
 62
7
  6
CONTINUOUS
 10
11.5375738882
 20
5.8506888041
 40
0.2854330709
  0
ARC
  5
61C
100
AcDbEntity
  8
02___PRT_ALL_AXES
100
AcDbCircle
 62
7
  6
CONTINUOUS
 10
11.5375738882
 20
5.8506888041
 40
0.2854330709
100
AcDbArc
 50
280.1556506024
 51
349.2288862491
  0
ARC
  5
61D
100
AcDbEntity
  8
02___PRT_ALL_AXES
100
AcDbCircle
 62
7
  6
CONTINUOUS
 10
11.5375738882
 20
5.8506888041
 40
0.2854330709
100
AcDbArc
 50
190.7584196718
 51
259.8731579536
  0
CIRCLE
  5
61E
100
AcDbEntity
  8
0
100
AcDbCircle
 62
7
  6
CONTINUOUS
 10
11.5375738882
 20
5.8506888041
 40
0.2829327147
  0
CIRCLE
  5
61F
100
AcDbEntity
  8
0
100
AcDbCircle
 62
7
  6
CONTINUOUS
 10
11.5375738882
 20
5.8506888041
 40
0.2467720097
  0
ARC
  5
620
100
AcDbEntity
  8
0
100
AcDbCircle
 62
7
  6
CONTINUOUS
 10
11.5375738882
 20
5.8506888041
 40
0.2442716535
100
AcDbArc
 50
342.3466585695
 51
342.0004821661
  0
CIRCLE
  5
621
100
AcDbEntity
  8
0
100
AcDbCircle
 62
7
  6
CONTINUOUS
 10
11.5375738882
 20
5.8506888041
 40
0.2088385907
  0
CIRCLE
  5
622
100
AcDbEntity
  8
0
100
AcDbCircle
 62
7
  6
CONTINUOUS
 10
11.5375738882
 20
5.8506888041
 40
0.2037401575
  0
ARC
  5
623
100
AcDbEntity
  8
AXIS_COSMETIC_THREADS
100
AcDbCircle
 62
7
  6
CONTINUOUS
 10
11.5375738882
 20
5.8506888041
 40
0.1633858268
100
AcDbArc
 50
143.312861012
 51
126.687138988
  0
CIRCLE
  5
624
100
AcDbEntity
  8
0
100
AcDbCircle
 62
7
  6
CONTINUOUS
 10
11.5375738882
 20
5.9491140009
 40
0.0196850394
  0
CIRCLE
  5
625
100
AcDbEntity
  8
0
100
AcDbCircle
 62
7
  6
CONTINUOUS
 10
11.5375738882
 20
5.9491140009
 40
0.00468503
  0
CIRCLE
  5
626
100
AcDbEntity
  8
0
100
AcDbCircle
 62
7
  6
CONTINUOUS
 10
11.6359990851
 20
5.8506888041
 40
0.0196850394
  0
CIRCLE
  5
627
100
AcDbEntity
  8
0
100
AcDbCircle
 62
7
  6
CONTINUOUS
 10
11.6359990851
 20
5.8506888041
 40
0.00468503
  0
ARC
  5
628
100
AcDbEntity
  8
0
100
AcDbCircle
 62
7
  6
CONTINUOUS
 10
11.6374645532
 20
6.352657308
 40
0.078740153
100
AcDbArc
 50
78.7452873818
 51
90.0
  0
ARC
  5
629
100
AcDbEntity
  8
0
100
AcDbCircle
 62
7
  6
CONTINUOUS
 10
11.6374645532
 20
6.352657308
 40
0.0393700787
100
AcDbArc
 50
78.7452873818
 51
90.0
  0
ARC
  5
62A
100
AcDbEntity
  8
0
100
AcDbCircle
 62
7
  6
CONTINUOUS
 10
11.8669675995
 20
5.9097439222
 40
0.0354330709
100
AcDbArc
 50
10.1642486217
 51
190.1642486217
  0
ENDSEC
  0
SECTION
  2
OBJECTS
  0
DICTIONARY
  5
C
100
AcDbDictionary
280
0
281
1
  3
ACAD_GROUP
350
D
  3
ACAD_MLINESTYLE
350
17
  3
ACAD_LAYOUT
350
1A
  3
ACAD_PLOTSETTINGS
350
19
  3
ACAD_PLOTSTYLENAME
350
E
  3
ACAD_TABLESTYLE
350
       62B
  0
DICTIONARY
  5
D
102
{ACAD_REACTORS
330
C
102
}
100
AcDbDictionary
280
0
281
1
  0
ACDBDICTIONARYWDFLT
  5
E
102
{ACAD_REACTORS
330
C
102
}
100
AcDbDictionary
281
1
  3
Normal
350
F
100
AcDbDictionaryWithDefault
340
F
  0
DICTIONARY
  5
17
102
{ACAD_REACTORS
330
C
102
}
100
AcDbDictionary
280
0
281
1
  3
Standard
350
18
  0
DICTIONARY
  5
62B
330
C
100
AcDbDictionary
281
1
  3
Standard
350
       62E
  3
Standard1
350
       62F
  0
DICTIONARY
  5
19
102
{ACAD_REACTORS
330
C
102
}
100
AcDbDictionary
281
1
  0
DICTIONARY
  5
1A
102
{ACAD_REACTORS
330
C
102
}
100
AcDbDictionary
281
1
  3
Model
350
62C
  3
Layout1
350
62D
  0
ACDBPLACEHOLDER
  5
F
102
{ACAD_REACTORS
330
E
102
}
  0
MLINESTYLE
  5
18
102
{ACAD_REACTORS
330
17
102
}
100
AcDbMlineStyle
  2
STANDARD
 70
0
  3

 62
256
 51
90.0
 52
90.0
 71
2
 49
0.5
 62
256
  6
BYLAYER
 49
-0.5
 62
256
  6
BYLAYER
  0
LAYOUT
  5
62C
102
{ACAD_REACTORS
330
1A
102
}
100
AcDbPlotSettings
  1

  2
none_device
  4
ANSI_B_(17.00_x_11.00_Inches)
  6

 40
0.0
 41
0.0
 42
0.0
 43
0.0
 44
431.8
 45
279.4
 46
0.0
 47
0.0
 48
0.0
 49
0.0
140
0.0
141
0.0
142
1.0
143
1.0
 70
1024
 72
0
 73
0
 74
0
  7

 75
0
147
1.0
148
0.0
149
0.0
100
AcDbLayout
  1
Model
 70
0
 71
0
 10
0.0
 20
0.0
 11
17.0
 21
11.0
 12
0.0
 22
0.0
 32
0.0
 14
0.0
 24
0.0
 34
0.0
 15
0.0
 25
0.0
 35
0.0
146
0.0
 13
0.0
 23
0.0
 33
0.0
 16
1.0
 26
0.0
 36
0.0
 17
0.0
 27
1.0
 37
0.0
 76
0
330
223
345
0
346
0
  0
LAYOUT
  5
62D
102
{ACAD_REACTORS
330
1A
102
}
100
AcDbPlotSettings
  1

  2
none_device
  4
ANSI_B_(17.00_x_11.00_Inches)
  6

 40
0.0
 41
0.0
 42
0.0
 43
0.0
 44
431.8
 45
279.4
 46
0.0
 47
0.0
 48
0.0
 49
0.0
140
0.0
141
0.0
142
1.0
143
1.0
 70
0
 72
0
 73
0
 74
0
  7

 75
0
147
1.0
148
0.0
149
0.0
100
AcDbLayout
  1
Layout1
 70
0
 71
1
 10
0.0
 20
0.0
 11
17.0
 21
11.0
 12
0.0
 22
0.0
 32
0.0
 14
0.0
 24
0.0
 34
0.0
 15
0.0
 25
0.0
 35
0.0
146
0.0
 13
0.0
 23
0.0
 33
0.0
 16
1.0
 26
0.0
 36
0.0
 17
0.0
 27
1.0
 37
0.0
 76
0
330
224
345
0
346
0
  0
TABLESTYLE
  5
62E
102
{ACAD_REACTORS
330
62B
102
}
330
62B
100
AcDbTableStyle
  3
Standard
 70
0
 71
0
 40
0.06
 41
0.06
280
1
281
1
  7
Standard
140
0.18
170
1
 62
0
 63
7
283
0
  7
Standard
140
0.18
170
1
 62
0
 63
7
283
0
  7
Standard
140
0.18
170
1
 62
0
 63
7
283
0
  0
TABLESTYLE
  5
62F
102
{ACAD_REACTORS
330
62B
330
28A
102
}
330
62B
100
AcDbTableStyle
  3
Standard1
 70
1
 71
0
 40
0.06
 41
0.06
280
1
281
1
  7
Standard
140
0.18
170
1
 62
0
 63
7
283
0
  7
Standard
140
0.18
170
1
 62
0
 63
7
283
0
  7
Standard
140
0.18
170
1
 62
0
 63
7
283
0
  0
ENDSEC
  0
EOF
