999
DXF file: 212030_1.dxf
999
Pro/ENGINEER 2018300 by Parametric Technology Corporation
  0
SECTION
  2
HEADER
  9
$ACADVER
  1
AC1027
  9
$DWGCODEPAGE
  3
ANSI_1252
  9
$EXTMAX
 10
17.0
 20
11.0
 30
0.0
  9
$EXTMIN
 10
0.0
 20
0.0
 30
0.0
  9
$LIMMIN
 10
0.0
 20
0.0
  9
$LIMMAX
 10
17.0
 20
11.0
  9
$VIEWCTR
 10
8.5
 20
5.5
  9
$VIEWSIZE
 40
11.0
  9
$CLAYER
  8
0
  9
$LTSCALE
 40
0.935
  9
$CELTYPE
  6
BYLAYER
  9
$DIMSCALE
 40
1.0
  9
$DIMASZ
 40
0.1875
  9
$DIMEXO
 40
0.0625
  9
$DIMDLI
 40
0.646
  9
$DIMEXE
 40
0.125
  9
$DIMCEN
 40
0.153
  9
$DIMLFAC
 40
1.0
  9
$DIMBLK
  1
_FILLED
  9
$DIMALT
 70
1
  9
$DIMALTD
 70
2
  9
$DIMALTTD
 70
2
  9
$DIMALTF
 40
25.4
  9
$DIMTXT
 40
0.1
  9
$DIMTOL
 70
1
  9
$DIMLIM
 70
0
  9
$DIMTFAC
 40
1.0
  9
$DIMTP
 40
0.001
  9
$DIMTM
 40
0.001
  9
$DIMGAP
 40
0.09
  9
$DIMDSEP
 70
46
  9
$AUNITS
 70
0
  9
$PDMODE
 70
3
  9
$PDSIZE
 40
0.3125
  9
$HANDSEED
  5
4DB
  9
$TILEMODE
 70
1
  9
$MEASUREMENT
 70
0
  9
$INSUNITS
 70
1
  0
ENDSEC
  0
SECTION
  2
CLASSES
  0
CLASS
  1
ACDBDICTIONARYWDFLT
  2
AcDbDictionaryWithDefault
  3
AutoCAD 2000
 90
0
 91
1
280
0
281
0
  0
CLASS
  1
ACDBPLACEHOLDER
  2
AcDbPlaceHolder
  3
AutoCAD 2000
 90
0
 91
1
280
0
281
0
  0
CLASS
  1
LAYOUT
  2
AcDbLayout
  3
AutoCAD 2000
 90
0
 91
0
280
0
281
0
  0
CLASS
  1
TABLESTYLE
  2
AcDbTableStyle
  3
ObjectDBX Classes
 90
2047
 91
1
280
0
281
0
  0
CLASS
  1
ACAD_TABLE
  2
AcDbTable
  3
ObjectDBX Classes
 90
1025
 91
1
280
0
281
1
  0
ENDSEC
  0
SECTION
  2
TABLES
  0
TABLE
  2
VPORT
  5
8
100
AcDbSymbolTable
 70
2
  0
VPORT
  5
1F4
100
AcDbSymbolTableRecord
100
AcDbViewportTableRecord
  2
*ACTIVE
 70
0
 10
0.0
 20
0.0
 11
1.0
 21
1.0
 12
8.5
 22
5.5
 13
0.0
 23
0.0
 14
1.0
 24
1.0
 15
0.0
 25
0.0
 16
0.0
 26
0.0
 36
1.0
 17
0.0
 27
0.0
 37
0.0
 40
11.0
 41
1.5454545455
 42
50.0
 43
0.0
 44
0.0
 50
0.0
 51
0.0
 71
0
 72
100
 73
1
 74
1
 75
0
 76
0
 77
0
 78
0
  0
ENDTAB
  0
TABLE
  2
LTYPE
  5
5
100
AcDbSymbolTable
 70
6
  0
LTYPE
  5
14
100
AcDbSymbolTableRecord
100
AcDbLinetypeTableRecord
  2
BYBLOCK
 70
0
  3

 72
65
 73
0
 40
0.0
  0
LTYPE
  5
15
100
AcDbSymbolTableRecord
100
AcDbLinetypeTableRecord
  2
BYLAYER
 70
0
  3

 72
65
 73
0
 40
0.0
  0
LTYPE
  5
16
100
AcDbSymbolTableRecord
100
AcDbLinetypeTableRecord
  2
CONTINUOUS
 70
64
  3
Solid line
 72
65
 73
0
 40
0.0
  0
LTYPE
  5
1F5
100
AcDbSymbolTableRecord
100
AcDbLinetypeTableRecord
  2
CENTER
 70
64
  3
____ _ ____ _ ____ _ ____ _ ____ _ ____ _ ____
 72
65
 73
4
 40
0.6
 49
0.375
 74
0
 49
-0.075
 74
0
 49
0.075
 74
0
 49
-0.075
 74
0
  0
LTYPE
  5
1F6
100
AcDbSymbolTableRecord
100
AcDbLinetypeTableRecord
  2
HIDDEN
 70
64
  3
- - - - - - - - - - - - - - - - - - - -
 72
65
 73
2
 40
0.2
 49
0.1
 74
0
 49
-0.1
 74
0
  0
LTYPE
  5
1F7
100
AcDbSymbolTableRecord
100
AcDbLinetypeTableRecord
  2
PHANTOM
 70
64
  3
_____ _ _ _____ _ _ _____ _ _ _____
 72
65
 73
6
 40
0.8
 49
0.45
 74
0
 49
-0.05
 74
0
 49
0.1
 74
0
 49
-0.05
 74
0
 49
0.1
 74
0
 49
-0.05
 74
0
  0
LTYPE
  5
1F8
100
AcDbSymbolTableRecord
100
AcDbLinetypeTableRecord
  2
DOT
 70
64
  3
. . . . . . . . . . . . . . . . . . . .
 72
65
 73
2
 40
0.2
 49
0.1
 74
0
 49
-0.1
 74
0
  0
LTYPE
  5
1F9
100
AcDbSymbolTableRecord
100
AcDbLinetypeTableRecord
  2
DASHED
 70
64
  3
- - - - - - - - - - - - - - - - - - - -
 72
65
 73
2
 40
0.2
 49
0.1
 74
0
 49
-0.1
 74
0
  0
ENDTAB
  0
TABLE
  2
LAYER
  5
2
100
AcDbSymbolTable
 70
36
  0
LAYER
  5
10
100
AcDbSymbolTableRecord
100
AcDbLayerTableRecord
  2
0
 70
0
 62
7
  6
CONTINUOUS
370
-3
390
F
  0
LAYER
  5
1FA
100
AcDbSymbolTableRecord
100
AcDbLayerTableRecord
  2
DEFAULT_1
 70
0
 62
7
  6
CENTER
370
-3
390
F
  0
LAYER
  5
1FB
100
AcDbSymbolTableRecord
100
AcDbLayerTableRecord
  2
DEFAULT_2
 70
0
 62
7
  6
HIDDEN
370
-3
390
F
  0
LAYER
  5
1FC
100
AcDbSymbolTableRecord
100
AcDbLayerTableRecord
  2
DEFAULT_3
 70
0
 62
7
  6
PHANTOM
370
-3
390
F
  0
LAYER
  5
1FD
100
AcDbSymbolTableRecord
100
AcDbLayerTableRecord
  2
01___PRT_ALL_DTM_PLN
 70
0
 62
7
  6
CONTINUOUS
370
-3
390
F
  0
LAYER
  5
1FE
100
AcDbSymbolTableRecord
100
AcDbLayerTableRecord
  2
01___PRT_DEF_DTM_PLN
 70
0
 62
7
  6
CONTINUOUS
370
-3
390
F
  0
LAYER
  5
1FF
100
AcDbSymbolTableRecord
100
AcDbLayerTableRecord
  2
02___PRT_ALL_AXES
 70
0
 62
7
  6
CONTINUOUS
370
-3
390
F
  0
LAYER
  5
200
100
AcDbSymbolTableRecord
100
AcDbLayerTableRecord
  2
03___PRT_ALL_CURVES
 70
0
 62
7
  6
CONTINUOUS
370
-3
390
F
  0
LAYER
  5
201
100
AcDbSymbolTableRecord
100
AcDbLayerTableRecord
  2
04___PRT_ALL_DTM_PNT
 70
0
 62
7
  6
CONTINUOUS
370
-3
390
F
  0
LAYER
  5
202
100
AcDbSymbolTableRecord
100
AcDbLayerTableRecord
  2
05___PRT_ALL_DTM_CSYS
 70
0
 62
7
  6
CONTINUOUS
370
-3
390
F
  0
LAYER
  5
203
100
AcDbSymbolTableRecord
100
AcDbLayerTableRecord
  2
05___PRT_DEF_DTM_CSYS
 70
0
 62
7
  6
CONTINUOUS
370
-3
390
F
  0
LAYER
  5
204
100
AcDbSymbolTableRecord
100
AcDbLayerTableRecord
  2
06___PRT_ALL_SURFS
 70
0
 62
7
  6
CONTINUOUS
370
-3
390
F
  0
LAYER
  5
205
100
AcDbSymbolTableRecord
100
AcDbLayerTableRecord
  2
AXIS
 70
0
 62
7
  6
CONTINUOUS
370
-3
390
F
  0
LAYER
  5
206
100
AcDbSymbolTableRecord
100
AcDbLayerTableRecord
  2
DATUM_CURVES
 70
0
 62
7
  6
CONTINUOUS
370
-3
390
F
  0
LAYER
  5
207
100
AcDbSymbolTableRecord
100
AcDbLayerTableRecord
  2
DATUM_PLANES
 70
0
 62
7
  6
CONTINUOUS
370
-3
390
F
  0
LAYER
  5
208
100
AcDbSymbolTableRecord
100
AcDbLayerTableRecord
  2
GEOMETRIC_TOLERANCES
 70
0
 62
7
  6
CONTINUOUS
370
-3
390
F
  0
LAYER
  5
209
100
AcDbSymbolTableRecord
100
AcDbLayerTableRecord
  2
NOTES
 70
0
 62
7
  6
CONTINUOUS
370
-3
390
F
  0
LAYER
  5
20A
100
AcDbSymbolTableRecord
100
AcDbLayerTableRecord
  2
SCHEME_DIMS
 70
0
 62
7
  6
CONTINUOUS
370
-3
390
F
  0
ENDTAB
  0
TABLE
  2
STYLE
  5
3
100
AcDbSymbolTable
 70
1
  0
STYLE
  5
11
100
AcDbSymbolTableRecord
100
AcDbTextStyleTableRecord
  2
STANDARD
 70
0
 40
0.0
 41
1.0
 50
0.0
 71
0
 42
0.2
  3
txt
  4

  0
STYLE
  5
20B
100
AcDbSymbolTableRecord
100
AcDbTextStyleTableRecord
  2
TEXTSTYLE_1
 70
0
 40
0.0
 41
0.8
 50
0.0
 71
0
 42
0.2
  3
gdt
  4

  0
STYLE
  5
20C
100
AcDbSymbolTableRecord
100
AcDbTextStyleTableRecord
  2
TEXTSTYLE_2
 70
0
 40
0.0
 41
0.8
 50
0.0
 71
0
 42
0.2
  3
txt
  4

  0
STYLE
  5
20D
100
AcDbSymbolTableRecord
100
AcDbTextStyleTableRecord
  2
TEXTSTYLE_3
 70
0
 40
0.0
 41
0.85
 50
0.0
 71
0
 42
0.2
  3
txt
  4

  0
STYLE
  5
20E
100
AcDbSymbolTableRecord
100
AcDbTextStyleTableRecord
  2
TEXTSTYLE_4
 70
0
 40
0.0
 41
0.9
 50
0.0
 71
0
 42
0.2
  3
txt
  4

  0
STYLE
  5
20F
100
AcDbSymbolTableRecord
100
AcDbTextStyleTableRecord
  2
TEXTSTYLE_5
 70
0
 40
0.0
 41
0.75
 50
0.0
 71
0
 42
0.2
  3
txt
  4

  0
STYLE
  5
210
100
AcDbSymbolTableRecord
100
AcDbTextStyleTableRecord
  2
TEXTSTYLE_6
 70
0
 40
0.0
 41
1.0
 50
0.0
 71
0
 42
0.2
  3
gdt
  4

  0
ENDTAB
  0
TABLE
  2
VIEW
  5
6
100
AcDbSymbolTable
 70
0
  0
ENDTAB
  0
TABLE
  2
UCS
  5
7
100
AcDbSymbolTable
 70
0
  0
ENDTAB
  0
TABLE
  2
APPID
  5
9
100
AcDbSymbolTable
 70
1
  0
APPID
  5
211
100
AcDbSymbolTableRecord
100
AcDbRegAppTableRecord
  2
ACAD
 70
0
  0
ENDTAB
  0
TABLE
  2
BLOCK_RECORD
  5
1
100
AcDbSymbolTable
 70
0
  0
BLOCK_RECORD
  5
212
100
AcDbSymbolTableRecord
100
AcDbBlockTableRecord
  2
*Model_Space
  0
BLOCK_RECORD
  5
213
100
AcDbSymbolTableRecord
100
AcDbBlockTableRecord
  2
*Paper_Space
  0
BLOCK_RECORD
  5
214
100
AcDbSymbolTableRecord
100
AcDbBlockTableRecord
  2
_FILLED
  0
BLOCK_RECORD
  5
215
100
AcDbSymbolTableRecord
100
AcDbBlockTableRecord
  2
*D0
  0
BLOCK_RECORD
  5
216
100
AcDbSymbolTableRecord
100
AcDbBlockTableRecord
  2
*D1
  0
BLOCK_RECORD
  5
217
100
AcDbSymbolTableRecord
100
AcDbBlockTableRecord
  2
*D2
  0
BLOCK_RECORD
  5
218
100
AcDbSymbolTableRecord
100
AcDbBlockTableRecord
  2
*D3
  0
BLOCK_RECORD
  5
219
100
AcDbSymbolTableRecord
100
AcDbBlockTableRecord
  2
*D4
  0
BLOCK_RECORD
  5
21A
100
AcDbSymbolTableRecord
100
AcDbBlockTableRecord
  2
*D5
  0
BLOCK_RECORD
  5
21B
100
AcDbSymbolTableRecord
100
AcDbBlockTableRecord
  2
*D6
  0
BLOCK_RECORD
  5
21C
100
AcDbSymbolTableRecord
100
AcDbBlockTableRecord
  2
*D7
  0
BLOCK_RECORD
  5
21D
100
AcDbSymbolTableRecord
100
AcDbBlockTableRecord
  2
*D8
  0
BLOCK_RECORD
  5
21E
100
AcDbSymbolTableRecord
100
AcDbBlockTableRecord
  2
*D9
  0
BLOCK_RECORD
  5
21F
100
AcDbSymbolTableRecord
100
AcDbBlockTableRecord
  2
*T1
  0
ENDTAB
  0
TABLE
  2
DIMSTYLE
  5
A
100
AcDbSymbolTable
 70
1
100
AcDbDimStyleTable
 71
0
  0
DIMSTYLE
105
220
100
AcDbSymbolTableRecord
100
AcDbDimStyleTableRecord
  2
STANDARD
 70
0
  3

  4

 40
1.0
 41
0.1875
 42
0.0625
 43
0.38
 44
0.125
 45
0.0
 46
0.0
 47
0.001
 48
0.001
140
0.1
141
0.09
142
0.0
143
1.0
144
1.0
145
0.0
146
1.0
147
0.09
 71
1.0
 72
0.0
 73
1
 74
1
 75
0
 76
0
 77
0
 78
4
 79
1
170
1
171
2
172
0
173
0
174
0
175
0
176
0
177
0
178
0
270
2
179
3
271
3
272
3
273
2
274
2
275
0
280
0
281
0
282
0
283
1
284
4
285
0
286
0
287
3
288
0
340
11
278
46
341
214
342
214
343
214
344
214
  0
DIMSTYLE
105
221
100
AcDbSymbolTableRecord
100
AcDbDimStyleTableRecord
  2
DIMSTYLE_1
 70
0
  3

  4

 40
1.0
 41
0.1875
 42
0.0625
 43
0.38
 44
0.125
 45
0.0
 46
0.0
 47
0.1
 48
0.1
140
0.1
141
0.09
142
0.0
143
1.0
144
1.0
145
0.0
146
1.0
147
0.1
 71
0.0
 72
0.0
 73
1
 74
1
 75
0
 76
0
 77
0
 78
4
 79
1
170
1
171
2
172
0
173
0
174
0
175
0
176
0
177
0
178
0
270
2
179
3
271
1
272
3
273
2
274
4
275
0
280
0
281
0
282
0
283
1
284
4
285
0
286
0
287
3
288
0
340
11
278
46
341
214
342
214
343
214
344
214
  0
DIMSTYLE
105
222
100
AcDbSymbolTableRecord
100
AcDbDimStyleTableRecord
  2
DIMSTYLE_2
 70
0
  3
<>
  4

 40
1.0
 41
0.1875
 42
0.0625
 43
0.38
 44
0.125
 45
0.0
 46
0.0
 47
0.1
 48
0.1
140
0.1
141
0.09
142
0.0
143
1.0
144
1.0
145
0.0
146
1.0
147
0.09
 71
0.0
 72
0.0
 73
1
 74
1
 75
0
 76
0
 77
0
 78
4
 79
1
170
1
171
2
172
0
173
0
174
0
175
0
176
0
177
0
178
0
270
2
179
3
271
1
272
3
273
2
274
4
275
0
280
0
281
0
282
0
283
1
284
4
285
0
286
0
287
3
288
1
340
11
278
46
289
1
341
214
342
214
343
214
344
214
  0
ENDTAB
  0
ENDSEC
  0
SECTION
  2
BLOCKS
  0
BLOCK
  5
20
100
AcDbEntity
  8
0
100
AcDbBlockBegin
  2
*Model_Space
 70
0
 10
0.0
 20
0.0
 30
0.0
  3
*Model_Space
  1

  0
ENDBLK
  5
21
100
AcDbEntity
  8
0
100
AcDbBlockEnd
  0
BLOCK
  5
1C
100
AcDbEntity
  8
0
100
AcDbBlockBegin
  2
*Paper_Space
 70
0
 10
0.0
 20
0.0
 30
0.0
  3
*Paper_Space
  1

  0
ENDBLK
  5
1D
100
AcDbEntity
  8
0
100
AcDbBlockEnd
  0
BLOCK
  5
223
100
AcDbEntity
  8
0
100
AcDbBlockBegin
  2
_FILLED
 70
64
 10
0.0
 20
0.0
  3
_FILLED
  1

  0
SOLID
  5
224
100
AcDbEntity
  8
0
  6
BYBLOCK
 62
0
100
AcDbTrace
 10
0.0
 20
0.0
 11
-1.0
 21
0.1666666667
 12
-1.0
 22
-0.1666666667
 13
-1.0
 23
-0.1666666667
  0
ENDBLK
  5
225
100
AcDbEntity
  8
0
  6
BYBLOCK
 62
0
100
AcDbBlockEnd
  0
BLOCK
  5
226
100
AcDbEntity
  8
SCHEME_DIMS
100
AcDbBlockBegin
 62
7
  6
CONTINUOUS
  2
*D0
 70
65
 10
0.0
 20
0.0
  3
*D0
  1

  0
MTEXT
  5
227
100
AcDbEntity
  8
SCHEME_DIMS
100
AcDbMText
 62
7
  6
CONTINUOUS
  7
STANDARD
 71
2
 72
1
 10
1.4304934148
 20
5.7267552765
 30
0.0
 11
1.0
 21
0.0
 31
0.0
 73
2
 44
0.9
  1
30.0\P[1.18]
 40
0.1
 41
0.6
  0
LINE
  5
228
100
AcDbEntity
  8
SCHEME_DIMS
100
AcDbLine
 62
7
  6
CONTINUOUS
 10
2.1416441191
 20
6.184987893
 11
1.4054934148
 21
6.184987893
  0
LINE
  5
229
100
AcDbEntity
  8
SCHEME_DIMS
100
AcDbLine
 62
7
  6
CONTINUOUS
 10
2.1416441191
 20
5.0038855308
 11
1.4054934148
 21
5.0038855308
  0
LINE
  5
22A
100
AcDbEntity
  8
SCHEME_DIMS
100
AcDbLine
 62
7
  6
CONTINUOUS
 10
1.5304934148
 20
6.184987893
 11
1.5304934148
 21
5.8267552765
  0
LINE
  5
22B
100
AcDbEntity
  8
SCHEME_DIMS
100
AcDbLine
 62
7
  6
CONTINUOUS
 10
1.5304934148
 20
5.0038855308
 11
1.5304934148
 21
5.3767552765
  0
INSERT
  5
22C
100
AcDbEntity
  8
SCHEME_DIMS
100
AcDbBlockReference
 62
7
  6
CONTINUOUS
  2
_FILLED
 10
1.5304934148
 20
6.184987893
 41
0.1875
 42
0.1875
 43
0.1875
 50
90.0
  0
INSERT
  5
22D
100
AcDbEntity
  8
SCHEME_DIMS
100
AcDbBlockReference
 62
7
  6
CONTINUOUS
  2
_FILLED
 10
1.5304934148
 20
5.0038855308
 41
0.1875
 42
0.1875
 43
0.1875
 50
270.0
  0
ENDBLK
  5
22E
100
AcDbEntity
  8
0
  6
BYBLOCK
 62
0
100
AcDbBlockEnd
  0
BLOCK
  5
22F
100
AcDbEntity
  8
SCHEME_DIMS
100
AcDbBlockBegin
 62
7
  6
CONTINUOUS
  2
*D1
 70
65
 10
0.0
 20
0.0
  3
*D1
  1

  0
MTEXT
  5
230
100
AcDbEntity
  8
SCHEME_DIMS
100
AcDbMText
 62
7
  6
CONTINUOUS
  7
STANDARD
 71
2
 72
1
 10
2.5962701033
 20
4.6788855308
 30
0.0
 11
1.0
 21
0.0
 31
0.0
 73
2
 44
0.9
  1
30.0\P[1.18]
 40
0.1
 41
0.6
  0
LINE
  5
231
100
AcDbEntity
  8
SCHEME_DIMS
100
AcDbLine
 62
7
  6
CONTINUOUS
 10
3.2868212844
 20
5.0398107277
 11
3.2868212844
 21
4.5038855308
  0
LINE
  5
232
100
AcDbEntity
  8
SCHEME_DIMS
100
AcDbLine
 62
7
  6
CONTINUOUS
 10
2.1057189222
 20
5.0398107277
 11
2.1057189222
 21
4.5038855308
  0
LINE
  5
233
100
AcDbEntity
  8
SCHEME_DIMS
100
AcDbLine
 62
7
  6
CONTINUOUS
 10
3.2868212844
 20
4.6288855308
 11
3.6868212844
 21
4.6288855308
  0
LINE
  5
234
100
AcDbEntity
  8
SCHEME_DIMS
100
AcDbLine
 62
7
  6
CONTINUOUS
 10
2.1057189222
 20
4.6288855308
 11
1.7057189222
 21
4.6288855308
  0
INSERT
  5
235
100
AcDbEntity
  8
SCHEME_DIMS
100
AcDbBlockReference
 62
7
  6
CONTINUOUS
  2
_FILLED
 10
3.2868212844
 20
4.6288855308
 41
0.1875
 42
0.1875
 43
0.1875
 50
180.0
  0
INSERT
  5
236
100
AcDbEntity
  8
SCHEME_DIMS
100
AcDbBlockReference
 62
7
  6
CONTINUOUS
  2
_FILLED
 10
2.1057189222
 20
4.6288855308
 41
0.1875
 42
0.1875
 43
0.1875
  0
ENDBLK
  5
237
100
AcDbEntity
  8
0
  6
BYBLOCK
 62
0
100
AcDbBlockEnd
  0
BLOCK
  5
238
100
AcDbEntity
  8
SCHEME_DIMS
100
AcDbBlockBegin
 62
7
  6
CONTINUOUS
  2
*D2
 70
65
 10
0.0
 20
0.0
  3
*D2
  1

  0
MTEXT
  5
239
100
AcDbEntity
  8
SCHEME_DIMS
100
AcDbMText
 62
7
  6
CONTINUOUS
  7
STANDARD
 71
3
 72
1
 10
7.6979405063
 20
6.609987893
 30
0.0
 11
1.0
 21
0.0
 31
0.0
 73
2
 44
0.9
  1
13.3\P[0.52]
 40
0.1
 41
0.6
  0
LINE
  5
23A
100
AcDbEntity
  8
SCHEME_DIMS
100
AcDbLine
 62
7
  6
CONTINUOUS
 10
8.8862642602
 20
6.2244902016
 11
8.8862642602
 21
6.684987893
  0
LINE
  5
23B
100
AcDbEntity
  8
SCHEME_DIMS
100
AcDbLine
 62
7
  6
CONTINUOUS
 10
8.3646107169
 20
6.226023381
 11
8.3646107169
 21
6.684987893
  0
LINE
  5
23C
100
AcDbEntity
  8
SCHEME_DIMS
100
AcDbLine
 62
7
  6
CONTINUOUS
 10
8.8862642602
 20
6.559987893
 11
9.2862642602
 21
6.559987893
  0
LINE
  5
23D
100
AcDbEntity
  8
SCHEME_DIMS
100
AcDbLine
 62
7
  6
CONTINUOUS
 10
8.3646107169
 20
6.559987893
 11
7.9979405063
 21
6.559987893
  0
INSERT
  5
23E
100
AcDbEntity
  8
SCHEME_DIMS
100
AcDbBlockReference
 62
7
  6
CONTINUOUS
  2
_FILLED
 10
8.8862642602
 20
6.559987893
 41
0.1875
 42
0.1875
 43
0.1875
 50
180.0
  0
INSERT
  5
23F
100
AcDbEntity
  8
SCHEME_DIMS
100
AcDbBlockReference
 62
7
  6
CONTINUOUS
  2
_FILLED
 10
8.3646107169
 20
6.559987893
 41
0.1875
 42
0.1875
 43
0.1875
  0
ENDBLK
  5
240
100
AcDbEntity
  8
0
  6
BYBLOCK
 62
0
100
AcDbBlockEnd
  0
BLOCK
  5
241
100
AcDbEntity
  8
SCHEME_DIMS
100
AcDbBlockBegin
 62
7
  6
CONTINUOUS
  2
*D3
 70
65
 10
0.0
 20
0.0
  3
*D3
  1

  0
MTEXT
  5
242
100
AcDbEntity
  8
SCHEME_DIMS
100
AcDbMText
 62
7
  6
CONTINUOUS
  7
STANDARD
 71
3
 72
1
 10
7.2916411496
 20
4.8539212134
 30
0.0
 11
1.0
 21
0.0
 31
0.0
 73
2
 44
0.9
  1
15.0\P[0.59]
 40
0.1
 41
0.6
  0
LINE
  5
243
100
AcDbEntity
  8
SCHEME_DIMS
100
AcDbLine
 62
7
  6
CONTINUOUS
 10
8.3288451435
 20
5.5944367119
 11
7.6166411496
 21
5.5944367119
  0
LINE
  5
244
100
AcDbEntity
  8
SCHEME_DIMS
100
AcDbLine
 62
7
  6
CONTINUOUS
 10
8.3384349723
 20
5.0038855308
 11
7.6166411496
 21
5.0038855308
  0
LINE
  5
245
100
AcDbEntity
  8
SCHEME_DIMS
100
AcDbLine
 62
7
  6
CONTINUOUS
 10
7.7416411496
 20
5.5944367119
 11
7.7416411496
 21
5.2991611214
  0
LINE
  5
246
100
AcDbEntity
  8
SCHEME_DIMS
100
AcDbLine
 62
7
  6
CONTINUOUS
 10
7.7416411496
 20
5.0038855308
 11
7.7416411496
 21
5.2991611214
  0
LINE
  5
247
100
AcDbEntity
  8
SCHEME_DIMS
100
AcDbLine
 62
7
  6
CONTINUOUS
 10
7.7416411496
 20
5.2991611214
 11
7.7416411496
 21
4.8039212134
  0
LINE
  5
248
100
AcDbEntity
  8
SCHEME_DIMS
100
AcDbLine
 62
7
  6
CONTINUOUS
 10
7.7416411496
 20
4.8039212134
 11
7.5916411496
 21
4.8039212134
  0
INSERT
  5
249
100
AcDbEntity
  8
SCHEME_DIMS
100
AcDbBlockReference
 62
7
  6
CONTINUOUS
  2
_FILLED
 10
7.7416411496
 20
5.5944367119
 41
0.1875
 42
0.1875
 43
0.1875
 50
90.0
  0
INSERT
  5
24A
100
AcDbEntity
  8
SCHEME_DIMS
100
AcDbBlockReference
 62
7
  6
CONTINUOUS
  2
_FILLED
 10
7.7416411496
 20
5.0038855308
 41
0.1875
 42
0.1875
 43
0.1875
 50
270.0
  0
ENDBLK
  5
24B
100
AcDbEntity
  8
0
  6
BYBLOCK
 62
0
100
AcDbBlockEnd
  0
BLOCK
  5
24C
100
AcDbEntity
  8
SCHEME_DIMS
100
AcDbBlockBegin
 62
7
  6
CONTINUOUS
  2
*D4
 70
65
 10
0.0
 20
0.0
  3
*D4
  1

  0
MTEXT
  5
24D
100
AcDbEntity
  8
SCHEME_DIMS
100
AcDbMText
 62
7
  6
CONTINUOUS
  7
STANDARD
 71
1
 72
1
 10
8.7823840097
 20
4.5687932592
 30
0.0
 11
1.0
 21
0.0
 31
0.0
 73
2
 44
0.9
  1
4.8\P[0.19]
 40
0.1
 41
0.6
  0
LINE
  5
24E
100
AcDbEntity
  8
SCHEME_DIMS
100
AcDbLine
 62
7
  6
CONTINUOUS
 10
8.5516185909
 20
5.3934578177
 11
8.5516185909
 21
4.3937932592
  0
LINE
  5
24F
100
AcDbEntity
  8
SCHEME_DIMS
100
AcDbLine
 62
7
  6
CONTINUOUS
 10
8.3646107169
 20
4.9631800841
 11
8.3646107169
 21
4.3937932592
  0
LINE
  5
250
100
AcDbEntity
  8
SCHEME_DIMS
100
AcDbLine
 62
7
  6
CONTINUOUS
 10
8.5516185909
 20
4.5187932592
 11
8.6823840097
 21
4.5187932592
  0
LINE
  5
251
100
AcDbEntity
  8
SCHEME_DIMS
100
AcDbLine
 62
7
  6
CONTINUOUS
 10
8.3646107169
 20
4.5187932592
 11
7.9646107169
 21
4.5187932592
  0
INSERT
  5
252
100
AcDbEntity
  8
SCHEME_DIMS
100
AcDbBlockReference
 62
7
  6
CONTINUOUS
  2
_FILLED
 10
8.5516185909
 20
4.5187932592
 41
0.1875
 42
0.1875
 43
0.1875
 50
180.0
  0
INSERT
  5
253
100
AcDbEntity
  8
SCHEME_DIMS
100
AcDbBlockReference
 62
7
  6
CONTINUOUS
  2
_FILLED
 10
8.3646107169
 20
4.5187932592
 41
0.1875
 42
0.1875
 43
0.1875
  0
ENDBLK
  5
254
100
AcDbEntity
  8
0
  6
BYBLOCK
 62
0
100
AcDbBlockEnd
  0
BLOCK
  5
255
100
AcDbEntity
  8
SCHEME_DIMS
100
AcDbBlockBegin
 62
7
  6
CONTINUOUS
  2
*D5
 70
65
 10
0.0
 20
0.0
  3
*D5
  1

  0
MTEXT
  5
256
100
AcDbEntity
  8
SCHEME_DIMS
100
AcDbMText
 62
7
  6
CONTINUOUS
  7
STANDARD
 71
2
 72
1
 10
14.1606876043
 20
6.6837898877
 30
0.0
 11
1.0
 21
0.0
 31
0.0
 73
2
 44
0.9
  1
25.4\P[1.0]
 40
0.1
 41
0.5
  0
LINE
  5
257
100
AcDbEntity
  8
SCHEME_DIMS
100
AcDbLine
 62
7
  6
CONTINUOUS
 10
13.7106876043
 20
6.3100863182
 11
13.7106876043
 21
6.7587898877
  0
LINE
  5
258
100
AcDbEntity
  8
SCHEME_DIMS
100
AcDbLine
 62
7
  6
CONTINUOUS
 10
14.7106876043
 20
6.3100863182
 11
14.7106876043
 21
6.7587898877
  0
LINE
  5
259
100
AcDbEntity
  8
SCHEME_DIMS
100
AcDbLine
 62
7
  6
CONTINUOUS
 10
13.7106876043
 20
6.6337898877
 11
13.3106876043
 21
6.6337898877
  0
LINE
  5
25A
100
AcDbEntity
  8
SCHEME_DIMS
100
AcDbLine
 62
7
  6
CONTINUOUS
 10
14.7106876043
 20
6.6337898877
 11
15.1106876043
 21
6.6337898877
  0
INSERT
  5
25B
100
AcDbEntity
  8
SCHEME_DIMS
100
AcDbBlockReference
 62
7
  6
CONTINUOUS
  2
_FILLED
 10
13.7106876043
 20
6.6337898877
 41
0.1875
 42
0.1875
 43
0.1875
  0
INSERT
  5
25C
100
AcDbEntity
  8
SCHEME_DIMS
100
AcDbBlockReference
 62
7
  6
CONTINUOUS
  2
_FILLED
 10
14.7106876043
 20
6.6337898877
 41
0.1875
 42
0.1875
 43
0.1875
 50
180.0
  0
ENDBLK
  5
25D
100
AcDbEntity
  8
0
  6
BYBLOCK
 62
0
100
AcDbBlockEnd
  0
BLOCK
  5
25E
100
AcDbEntity
  8
SCHEME_DIMS
100
AcDbBlockBegin
 62
7
  6
CONTINUOUS
  2
*D6
 70
65
 10
0.0
 20
0.0
  3
*D6
  1

  0
MTEXT
  5
25F
100
AcDbEntity
  8
SCHEME_DIMS
100
AcDbMText
 62
7
  6
CONTINUOUS
  7
STANDARD
 71
2
 72
1
 10
15.2727628933
 20
5.7563866434
 30
0.0
 11
1.0
 21
0.0
 31
0.0
 73
2
 44
0.9
  1
25.4\P[1.0]
 40
0.1
 41
0.5
  0
LINE
  5
260
100
AcDbEntity
  8
SCHEME_DIMS
100
AcDbLine
 62
7
  6
CONTINUOUS
 10
14.8914659254
 20
6.0944367119
 11
15.4477628933
 21
6.0944367119
  0
LINE
  5
261
100
AcDbEntity
  8
SCHEME_DIMS
100
AcDbLine
 62
7
  6
CONTINUOUS
 10
14.9002745574
 20
5.0944367119
 11
15.4477628933
 21
5.0944367119
  0
LINE
  5
262
100
AcDbEntity
  8
SCHEME_DIMS
100
AcDbLine
 62
7
  6
CONTINUOUS
 10
15.3227628933
 20
6.0944367119
 11
15.3227628933
 21
5.8563866434
  0
LINE
  5
263
100
AcDbEntity
  8
SCHEME_DIMS
100
AcDbLine
 62
7
  6
CONTINUOUS
 10
15.3227628933
 20
5.0944367119
 11
15.3227628933
 21
5.4063866434
  0
INSERT
  5
264
100
AcDbEntity
  8
SCHEME_DIMS
100
AcDbBlockReference
 62
7
  6
CONTINUOUS
  2
_FILLED
 10
15.3227628933
 20
6.0944367119
 41
0.1875
 42
0.1875
 43
0.1875
 50
90.0
  0
INSERT
  5
265
100
AcDbEntity
  8
SCHEME_DIMS
100
AcDbBlockReference
 62
7
  6
CONTINUOUS
  2
_FILLED
 10
15.3227628933
 20
5.0944367119
 41
0.1875
 42
0.1875
 43
0.1875
 50
270.0
  0
ENDBLK
  5
266
100
AcDbEntity
  8
0
  6
BYBLOCK
 62
0
100
AcDbBlockEnd
  0
BLOCK
  5
267
100
AcDbEntity
  8
SCHEME_DIMS
100
AcDbBlockBegin
 62
7
  6
CONTINUOUS
  2
*D7
 70
65
 10
0.0
 20
0.0
  3
*D7
  1

  0
MTEXT
  5
268
100
AcDbEntity
  8
SCHEME_DIMS
100
AcDbMText
 62
7
  6
CONTINUOUS
  7
STANDARD
 71
3
 72
1
 10
13.0110640446
 20
4.6788855308
 30
0.0
 11
1.0
 21
0.0
 31
0.0
 73
2
 44
0.9
  1
2.3\P[0.09]
 40
0.1
 41
0.6
  0
LINE
  5
269
100
AcDbEntity
  8
SCHEME_DIMS
100
AcDbLine
 62
7
  6
CONTINUOUS
 10
13.7106876043
 20
4.921795024
 11
13.7106876043
 21
4.5038855308
  0
LINE
  5
26A
100
AcDbEntity
  8
SCHEME_DIMS
100
AcDbLine
 62
7
  6
CONTINUOUS
 10
13.6201364232
 20
5.0572463703
 11
13.6201364232
 21
4.5038855308
  0
LINE
  5
26B
100
AcDbEntity
  8
SCHEME_DIMS
100
AcDbLine
 62
7
  6
CONTINUOUS
 10
13.7106876043
 20
4.6288855308
 11
14.1106876043
 21
4.6288855308
  0
LINE
  5
26C
100
AcDbEntity
  8
SCHEME_DIMS
100
AcDbLine
 62
7
  6
CONTINUOUS
 10
13.6201364232
 20
4.6288855308
 11
13.4110640446
 21
4.6288855308
  0
INSERT
  5
26D
100
AcDbEntity
  8
SCHEME_DIMS
100
AcDbBlockReference
 62
7
  6
CONTINUOUS
  2
_FILLED
 10
13.7106876043
 20
4.6288855308
 41
0.1875
 42
0.1875
 43
0.1875
 50
180.0
  0
INSERT
  5
26E
100
AcDbEntity
  8
SCHEME_DIMS
100
AcDbBlockReference
 62
7
  6
CONTINUOUS
  2
_FILLED
 10
13.6201364232
 20
4.6288855308
 41
0.1875
 42
0.1875
 43
0.1875
  0
ENDBLK
  5
26F
100
AcDbEntity
  8
0
  6
BYBLOCK
 62
0
100
AcDbBlockEnd
  0
BLOCK
  5
270
100
AcDbEntity
  8
SCHEME_DIMS
100
AcDbBlockBegin
 62
7
  6
CONTINUOUS
  2
*D8
 70
65
 10
0.0
 20
0.0
  3
*D8
  1

  0
MTEXT
  5
271
100
AcDbEntity
  8
SCHEME_DIMS
100
AcDbMText
 62
7
  6
CONTINUOUS
  7
STANDARD
 71
3
 72
1
 10
12.555192783
 20
6.7049523791
 30
0.0
 11
1.0
 21
0.0
 31
0.0
 73
2
 44
0.9
  1
2.3\P[0.09]
 40
0.1
 41
0.6
  0
LINE
  5
272
100
AcDbEntity
  8
SCHEME_DIMS
100
AcDbLine
 62
7
  6
CONTINUOUS
 10
13.65606162
 20
6.184987893
 11
12.980192783
 21
6.184987893
  0
LINE
  5
273
100
AcDbEntity
  8
SCHEME_DIMS
100
AcDbLine
 62
7
  6
CONTINUOUS
 10
13.5261608088
 20
6.0944367119
 11
12.980192783
 21
6.0944367119
  0
LINE
  5
274
100
AcDbEntity
  8
SCHEME_DIMS
100
AcDbLine
 62
7
  6
CONTINUOUS
 10
13.105192783
 20
6.184987893
 11
13.105192783
 21
6.6549523791
  0
LINE
  5
275
100
AcDbEntity
  8
SCHEME_DIMS
100
AcDbLine
 62
7
  6
CONTINUOUS
 10
13.105192783
 20
6.6549523791
 11
12.955192783
 21
6.6549523791
  0
LINE
  5
276
100
AcDbEntity
  8
SCHEME_DIMS
100
AcDbLine
 62
7
  6
CONTINUOUS
 10
13.105192783
 20
6.0944367119
 11
13.105192783
 21
5.6944367119
  0
INSERT
  5
277
100
AcDbEntity
  8
SCHEME_DIMS
100
AcDbBlockReference
 62
7
  6
CONTINUOUS
  2
_FILLED
 10
13.105192783
 20
6.184987893
 41
0.1875
 42
0.1875
 43
0.1875
 50
270.0
  0
INSERT
  5
278
100
AcDbEntity
  8
SCHEME_DIMS
100
AcDbBlockReference
 62
7
  6
CONTINUOUS
  2
_FILLED
 10
13.105192783
 20
6.0944367119
 41
0.1875
 42
0.1875
 43
0.1875
 50
90.0
  0
ENDBLK
  5
279
100
AcDbEntity
  8
0
  6
BYBLOCK
 62
0
100
AcDbBlockEnd
  0
BLOCK
  5
27A
100
AcDbEntity
  8
SCHEME_DIMS
100
AcDbBlockBegin
 62
7
  6
CONTINUOUS
  2
*D9
 70
65
 10
0.0
 20
0.0
  3
*D9
  1

  0
MTEXT
  5
27B
100
AcDbEntity
  8
SCHEME_DIMS
100
AcDbMText
 62
7
  6
CONTINUOUS
  7
STANDARD
 71
1
 72
1
 10
3.6817798007
 20
6.609987893
 30
0.0
 11
1.0
 21
0.0
 31
0.0
 73
2
 44
0.9
  1
4X \fgdt;{\fgdt;n}\ftxt;2.7\P[0.11]
 40
0.1
 41
0.7333333333
  0
LINE
  5
27C
100
AcDbEntity
  8
SCHEME_DIMS
100
AcDbLine
 62
7
  6
CONTINUOUS
 10
3.2202618914
 20
6.1418632315
 11
3.4317798007
 21
6.559987893
  0
LINE
  5
27D
100
AcDbEntity
  8
SCHEME_DIMS
100
AcDbLine
 62
7
  6
CONTINUOUS
 10
3.4317798007
 20
6.559987893
 11
3.5817798007
 21
6.559987893
  0
INSERT
  5
27E
100
AcDbEntity
  8
SCHEME_DIMS
100
AcDbBlockReference
 62
7
  6
CONTINUOUS
  2
_FILLED
 10
3.2202618914
 20
6.1418632315
 41
0.1875
 42
0.1875
 43
0.1875
 50
243.1663905909
  0
ENDBLK
  5
27F
100
AcDbEntity
  8
0
  6
BYBLOCK
 62
0
100
AcDbBlockEnd
  0
BLOCK
  5
280
100
AcDbEntity
  8
0
100
AcDbBlockBegin
  2
*T1
 70
1
 10
0.0
 20
0.0
  3
*T1
  1

  0
LINE
  5
281
100
AcDbEntity
  8
0
100
AcDbLine
 62
7
  6
CONTINUOUS
 10
4.35
 20
0.0
 11
0.0
 21
0.0
  0
LINE
  5
282
100
AcDbEntity
  8
0
100
AcDbLine
 62
7
  6
CONTINUOUS
 10
4.35
 20
0.0
 11
4.35
 21
1.92
  0
LINE
  5
283
100
AcDbEntity
  8
0
100
AcDbLine
 62
7
  6
CONTINUOUS
 10
4.35
 20
1.92
 11
0.0
 21
1.92
  0
LINE
  5
284
100
AcDbEntity
  8
0
100
AcDbLine
 62
7
  6
CONTINUOUS
 10
0.0
 20
0.0
 11
0.0
 21
1.92
  0
MTEXT
  5
285
100
AcDbEntity
  8
NOTES
100
AcDbMText
 62
7
  6
CONTINUOUS
  7
STANDARD
 71
2
 72
1
 10
4.125
 20
0.48
 30
0.0
 11
1.0
 21
0.0
 31
0.0
 73
2
 44
0.9
  1
A
 40
0.1
 41
0.2
  0
MTEXT
  5
286
100
AcDbEntity
  8
NOTES
100
AcDbMText
 62
7
  6
CONTINUOUS
  7
STANDARD
 71
2
 72
1
 10
2.175
 20
0.93
 30
0.0
 11
1.0
 21
0.0
 31
0.0
 73
2
 44
0.9
  1
QM30VT AL
 40
0.1
 41
1.8
  0
ENDBLK
  5
287
100
AcDbEntity
  8
0
  6
BYBLOCK
 62
0
100
AcDbBlockEnd
  0
ENDSEC
  0
SECTION
  2
ENTITIES
  0
MTEXT
  5
288
100
AcDbEntity
  8
0
100
AcDbMText
 62
7
  6
CONTINUOUS
  7
TEXTSTYLE_2
 71
2
 72
1
 10
11.0287658475
 20
1.794867839
 30
0.0
 11
1.0
 21
0.0
 31
0.0
 73
2
 44
0.9
  1
THIRD ANGLE PROJECTION
 40
0.1
 41
1.76
  0
MTEXT
  5
289
100
AcDbEntity
  8
0
100
AcDbMText
 62
7
  6
CONTINUOUS
  7
STANDARD
 71
1
 72
1
 10
12.88
 20
1.457
 30
0.0
 11
1.0
 21
0.0
 31
0.0
 73
2
 44
0.9
  1
DRAWING NO.
 40
0.08
 41
0.88
  0
MTEXT
  5
28A
100
AcDbEntity
  8
0
100
AcDbMText
 62
7
  6
CONTINUOUS
  7
TEXTSTYLE_2
 71
1
 72
1
 10
12.08
 20
2.217
 30
0.0
 11
1.0
 21
0.0
 31
0.0
 73
2
 44
0.9
  1
TITLE
 40
0.1
 41
0.4
  0
MTEXT
  5
28B
100
AcDbEntity
  8
0
100
AcDbMText
 62
7
  6
CONTINUOUS
  7
STANDARD
 71
1
 72
1
 10
12.08
 20
1.457
 30
0.0
 11
1.0
 21
0.0
 31
0.0
 73
2
 44
0.9
  1
SIZE
 40
0.08
 41
0.32
  0
MTEXT
  5
28C
100
AcDbEntity
  8
0
100
AcDbMText
 62
7
  6
CONTINUOUS
  7
STANDARD
 71
1
 72
1
 10
12.08
 20
1.087
 30
0.0
 11
1.0
 21
0.0
 31
0.0
 73
2
 44
0.9
  1
SCALE
 40
0.08
 41
0.4
  0
MTEXT
  5
28D
100
AcDbEntity
  8
0
100
AcDbMText
 62
7
  6
CONTINUOUS
  7
TEXTSTYLE_2
 71
2
 72
1
 10
12.5
 20
1.337
 30
0.0
 11
1.0
 21
0.0
 31
0.0
 73
2
 44
0.9
  1
B
 40
0.1
 41
0.08
  0
MTEXT
  5
28E
100
AcDbEntity
  8
0
100
AcDbMText
 62
7
  6
CONTINUOUS
  7
TEXTSTYLE_3
 71
2
 72
1
 10
11.0340287086
 20
2.7679425959
 30
0.0
 11
1.0
 21
0.0
 31
0.0
 73
2
 44
0.9
  1
This drawing is the property\Pof BANNER ENGINEERING CORP.\PAny use or reproduction,\Pin any form, without prior\Pwritten permission of\PBanner is prohibited.
 40
0.08
 41
1.904
  0
MTEXT
  5
28F
100
AcDbEntity
  8
0
100
AcDbMText
 62
7
  6
CONTINUOUS
  7
STANDARD
 71
1
 72
1
 10
14.255
 20
1.087
 30
0.0
 11
1.0
 21
0.0
 31
0.0
 73
2
 44
0.9
  1
SHEET
 40
0.08
 41
0.4
  0
MTEXT
  5
290
100
AcDbEntity
  8
0
100
AcDbMText
 62
7
  6
CONTINUOUS
  7
STANDARD
 71
1
 72
1
 10
15.63
 20
1.457
 30
0.0
 11
1.0
 21
0.0
 31
0.0
 73
2
 44
0.9
  1
REV.
 40
0.08
 41
0.32
  0
MTEXT
  5
291
100
AcDbEntity
  8
0
100
AcDbMText
 62
7
  6
CONTINUOUS
  7
STANDARD
 71
3
 72
1
 10
16.38
 20
0.835443
 30
0.0
 11
1.0
 21
0.0
 31
0.0
 73
2
 44
0.9
  1
CREO
 40
0.07
 41
0.28
  0
MTEXT
  5
292
100
AcDbEntity
  8
0
100
AcDbMText
 62
7
  6
CONTINUOUS
  7
TEXTSTYLE_4
 71
2
 72
1
 10
15.1043392653
 20
2.7174764286
 30
0.0
 11
1.0
 21
0.0
 31
0.0
 73
2
 44
0.9
  1
BANNER ENGINEERING CORP.
 40
0.12
 41
2.592
  0
MTEXT
  5
293
100
AcDbEntity
  8
0
100
AcDbMText
 62
7
  6
CONTINUOUS
  7
TEXTSTYLE_2
 71
2
 72
1
 10
15.0923490612
 20
2.4764783673
 30
0.0
 11
1.0
 21
0.0
 31
0.0
 73
2
 44
0.9
  1
www.bannerengineering.com
 40
0.1
 41
2.0
  0
MTEXT
  5
294
100
AcDbEntity
  8
0
100
AcDbMText
 62
7
  6
CONTINUOUS
  7
TEXTSTYLE_2
 71
2
 72
1
 10
9.485
 20
10.312
 30
0.0
 11
1.0
 21
0.0
 31
0.0
 73
2
 44
0.9
  1
4
 40
0.1
 41
0.08
  0
MTEXT
  5
295
100
AcDbEntity
  8
0
100
AcDbMText
 62
7
  6
CONTINUOUS
  7
TEXTSTYLE_2
 71
2
 72
1
 10
11.455
 20
10.312
 30
0.0
 11
1.0
 21
0.0
 31
0.0
 73
2
 44
0.9
  1
3
 40
0.1
 41
0.08
  0
MTEXT
  5
296
100
AcDbEntity
  8
0
100
AcDbMText
 62
7
  6
CONTINUOUS
  7
TEXTSTYLE_2
 71
2
 72
1
 10
13.425
 20
10.312
 30
0.0
 11
1.0
 21
0.0
 31
0.0
 73
2
 44
0.9
  1
2
 40
0.1
 41
0.08
  0
MTEXT
  5
297
100
AcDbEntity
  8
0
100
AcDbMText
 62
7
  6
CONTINUOUS
  7
TEXTSTYLE_2
 71
2
 72
1
 10
15.395
 20
10.312
 30
0.0
 11
1.0
 21
0.0
 31
0.0
 73
2
 44
0.9
  1
1
 40
0.1
 41
0.08
  0
MTEXT
  5
298
100
AcDbEntity
  8
0
100
AcDbMText
 62
7
  6
CONTINUOUS
  7
TEXTSTYLE_2
 71
2
 72
1
 10
3.575
 20
10.312
 30
0.0
 11
1.0
 21
0.0
 31
0.0
 73
2
 44
0.9
  1
7
 40
0.1
 41
0.08
  0
MTEXT
  5
299
100
AcDbEntity
  8
0
100
AcDbMText
 62
7
  6
CONTINUOUS
  7
TEXTSTYLE_2
 71
2
 72
1
 10
5.545
 20
10.312
 30
0.0
 11
1.0
 21
0.0
 31
0.0
 73
2
 44
0.9
  1
6
 40
0.1
 41
0.08
  0
MTEXT
  5
29A
100
AcDbEntity
  8
0
100
AcDbMText
 62
7
  6
CONTINUOUS
  7
TEXTSTYLE_2
 71
2
 72
1
 10
7.515
 20
10.312
 30
0.0
 11
1.0
 21
0.0
 31
0.0
 73
2
 44
0.9
  1
5
 40
0.1
 41
0.08
  0
MTEXT
  5
29B
100
AcDbEntity
  8
0
100
AcDbMText
 62
7
  6
CONTINUOUS
  7
TEXTSTYLE_2
 71
2
 72
1
 10
1.605
 20
10.312
 30
0.0
 11
1.0
 21
0.0
 31
0.0
 73
2
 44
0.9
  1
8
 40
0.1
 41
0.08
  0
MTEXT
  5
29C
100
AcDbEntity
  8
0
100
AcDbMText
 62
7
  6
CONTINUOUS
  7
TEXTSTYLE_2
 71
2
 72
1
 10
1.605
 20
0.787
 30
0.0
 11
1.0
 21
0.0
 31
0.0
 73
2
 44
0.9
  1
8
 40
0.1
 41
0.08
  0
MTEXT
  5
29D
100
AcDbEntity
  8
0
100
AcDbMText
 62
7
  6
CONTINUOUS
  7
TEXTSTYLE_2
 71
2
 72
1
 10
3.575
 20
0.787
 30
0.0
 11
1.0
 21
0.0
 31
0.0
 73
2
 44
0.9
  1
7
 40
0.1
 41
0.08
  0
MTEXT
  5
29E
100
AcDbEntity
  8
0
100
AcDbMText
 62
7
  6
CONTINUOUS
  7
TEXTSTYLE_2
 71
2
 72
1
 10
5.545
 20
0.787
 30
0.0
 11
1.0
 21
0.0
 31
0.0
 73
2
 44
0.9
  1
6
 40
0.1
 41
0.08
  0
MTEXT
  5
29F
100
AcDbEntity
  8
0
100
AcDbMText
 62
7
  6
CONTINUOUS
  7
TEXTSTYLE_2
 71
2
 72
1
 10
7.515
 20
0.787
 30
0.0
 11
1.0
 21
0.0
 31
0.0
 73
2
 44
0.9
  1
5
 40
0.1
 41
0.08
  0
MTEXT
  5
2A0
100
AcDbEntity
  8
0
100
AcDbMText
 62
7
  6
CONTINUOUS
  7
TEXTSTYLE_2
 71
2
 72
1
 10
9.485
 20
0.787
 30
0.0
 11
1.0
 21
0.0
 31
0.0
 73
2
 44
0.9
  1
4
 40
0.1
 41
0.08
  0
MTEXT
  5
2A1
100
AcDbEntity
  8
0
100
AcDbMText
 62
7
  6
CONTINUOUS
  7
TEXTSTYLE_2
 71
2
 72
1
 10
11.455
 20
0.787
 30
0.0
 11
1.0
 21
0.0
 31
0.0
 73
2
 44
0.9
  1
3
 40
0.1
 41
0.08
  0
MTEXT
  5
2A2
100
AcDbEntity
  8
0
100
AcDbMText
 62
7
  6
CONTINUOUS
  7
TEXTSTYLE_2
 71
2
 72
1
 10
13.425
 20
0.787
 30
0.0
 11
1.0
 21
0.0
 31
0.0
 73
2
 44
0.9
  1
2
 40
0.1
 41
0.08
  0
MTEXT
  5
2A3
100
AcDbEntity
  8
0
100
AcDbMText
 62
7
  6
CONTINUOUS
  7
TEXTSTYLE_2
 71
2
 72
1
 10
15.395
 20
0.787
 30
0.0
 11
1.0
 21
0.0
 31
0.0
 73
2
 44
0.9
  1
1
 40
0.1
 41
0.08
  0
MTEXT
  5
2A4
100
AcDbEntity
  8
0
100
AcDbMText
 62
7
  6
CONTINUOUS
  7
TEXTSTYLE_2
 71
3
 72
1
 10
0.52
 20
4.3995
 30
0.0
 11
1.0
 21
0.0
 31
0.0
 73
2
 44
0.9
  1
B
 40
0.1
 41
0.08
  0
MTEXT
  5
2A5
100
AcDbEntity
  8
0
100
AcDbMText
 62
7
  6
CONTINUOUS
  7
TEXTSTYLE_2
 71
3
 72
1
 10
0.52
 20
2.0995
 30
0.0
 11
1.0
 21
0.0
 31
0.0
 73
2
 44
0.9
  1
A
 40
0.1
 41
0.08
  0
MTEXT
  5
2A6
100
AcDbEntity
  8
0
100
AcDbMText
 62
7
  6
CONTINUOUS
  7
TEXTSTYLE_2
 71
3
 72
1
 10
0.52
 20
8.9995
 30
0.0
 11
1.0
 21
0.0
 31
0.0
 73
2
 44
0.9
  1
D
 40
0.1
 41
0.08
  0
MTEXT
  5
2A7
100
AcDbEntity
  8
0
100
AcDbMText
 62
7
  6
CONTINUOUS
  7
TEXTSTYLE_2
 71
3
 72
1
 10
0.52
 20
6.6995
 30
0.0
 11
1.0
 21
0.0
 31
0.0
 73
2
 44
0.9
  1
C
 40
0.1
 41
0.08
  0
MTEXT
  5
2A8
100
AcDbEntity
  8
0
100
AcDbMText
 62
7
  6
CONTINUOUS
  7
TEXTSTYLE_2
 71
1
 72
1
 10
16.48
 20
8.9995
 30
0.0
 11
1.0
 21
0.0
 31
0.0
 73
2
 44
0.9
  1
D
 40
0.1
 41
0.08
  0
MTEXT
  5
2A9
100
AcDbEntity
  8
0
100
AcDbMText
 62
7
  6
CONTINUOUS
  7
TEXTSTYLE_2
 71
1
 72
1
 10
16.48
 20
6.6995
 30
0.0
 11
1.0
 21
0.0
 31
0.0
 73
2
 44
0.9
  1
C
 40
0.1
 41
0.08
  0
MTEXT
  5
2AA
100
AcDbEntity
  8
0
100
AcDbMText
 62
7
  6
CONTINUOUS
  7
TEXTSTYLE_2
 71
1
 72
1
 10
16.48
 20
4.3995
 30
0.0
 11
1.0
 21
0.0
 31
0.0
 73
2
 44
0.9
  1
B
 40
0.1
 41
0.08
  0
MTEXT
  5
2AB
100
AcDbEntity
  8
0
100
AcDbMText
 62
7
  6
CONTINUOUS
  7
TEXTSTYLE_2
 71
1
 72
1
 10
16.48
 20
2.0995
 30
0.0
 11
1.0
 21
0.0
 31
0.0
 73
2
 44
0.9
  1
A
 40
0.1
 41
0.08
  0
MTEXT
  5
2AC
100
AcDbEntity
  8
0
100
AcDbMText
 62
7
  6
CONTINUOUS
  7
STANDARD
 71
1
 72
1
 10
14.819264911
 20
1.0627941725
 30
0.0
 11
1.0
 21
0.0
 31
0.0
 73
2
 44
0.9
  1
1 OF 1
 40
0.1
 41
0.6
  0
MTEXT
  5
2AD
100
AcDbEntity
  8
0
100
AcDbMText
 62
7
  6
CONTINUOUS
  7
STANDARD
 71
1
 72
1
 10
13.8911999818
 20
1.3747321586
 30
0.0
 11
1.0
 21
0.0
 31
0.0
 73
2
 44
0.9
  1
212030
 40
0.12
 41
0.72
  0
MTEXT
  5
2AE
100
AcDbEntity
  8
0
100
AcDbMText
 62
7
  6
CONTINUOUS
  7
STANDARD
 71
1
 72
1
 10
12.644264911
 20
1.0627941725
 30
0.0
 11
1.0
 21
0.0
 31
0.0
 73
2
 44
0.9
  1
1:1
 40
0.1
 41
0.3
  0
MTEXT
  5
2AF
100
AcDbEntity
  8
0
100
AcDbMText
 62
7
  6
CONTINUOUS
  7
STANDARD
 71
1
 72
1
 10
0.8489354566
 20
1.4938330621
 30
0.0
 11
1.0
 21
0.0
 31
0.0
 73
2
 44
0.9
  1
NOTES:\P1. ALL DIMENSIONS ARE MILLIMETERS [INCHES] UNLESS OTHERWISE NOTED.\P2. REFER TO "www.bannerengineering.com" FOR ADDITIONAL DATA AND SPECIFICATIONS.
 40
0.1
 41
7.9
  0
MTEXT
  5
2B0
100
AcDbEntity
  8
0
100
AcDbMText
 62
7
  6
CONTINUOUS
  7
TEXTSTYLE_5
 71
2
 72
1
 10
11.0519651892
 20
2.0334024775
 30
0.0
 11
1.0
 21
0.0
 31
0.0
 73
2
 44
0.9
  1
C  2015 Banner Engineering Corp.
 40
0.08
 41
1.92
  0
DIMENSION
  5
2B1
100
AcDbEntity
  8
SCHEME_DIMS
100
AcDbDimension
 62
7
  6
CONTINUOUS
  2
*D0
 10
1.5304934148
 20
5.0038855308
 11
1.5304934148
 21
5.6017552765
 70
160
 71
2
 72
2
 41
0.9
 42
30.0
  1
<>\P[]
  3
DIMSTYLE_1
100
AcDbAlignedDimension
 13
2.2041441191
 23
6.184987893
 14
2.2041441191
 24
5.0038855308
 50
270.0
100
AcDbRotatedDimension
  0
DIMENSION
  5
2B2
100
AcDbEntity
  8
SCHEME_DIMS
100
AcDbDimension
 62
7
  6
CONTINUOUS
  2
*D1
 10
2.1057189222
 20
4.6288855308
 11
2.6962701033
 21
4.5538855308
 70
160
 71
2
 72
2
 41
0.9
 42
30.0
  1
<>\P[]
  3
DIMSTYLE_1
100
AcDbAlignedDimension
 13
3.2868212844
 23
5.1023107277
 14
2.1057189222
 24
5.1023107277
 50
180.0
100
AcDbRotatedDimension
  0
DIMENSION
  5
2B3
100
AcDbEntity
  8
SCHEME_DIMS
100
AcDbDimension
 62
7
  6
CONTINUOUS
  2
*D2
 10
8.3646107169
 20
6.559987893
 11
7.5979405063
 21
6.484987893
 70
160
 71
3
 72
2
 41
0.9
 42
13.25
  1
<>\P[]
  3
DIMSTYLE_1
100
AcDbAlignedDimension
 13
8.8862642602
 23
6.1619902016
 14
8.3646107169
 24
6.163523381
 50
180.0
100
AcDbRotatedDimension
  0
DIMENSION
  5
2B4
100
AcDbEntity
  8
SCHEME_DIMS
100
AcDbDimension
 62
7
  6
CONTINUOUS
  2
*D3
 10
7.7416411496
 20
5.0038855308
 11
7.1916411496
 21
4.7289212134
 70
160
 71
3
 72
2
 41
0.9
 42
15.0
  1
<>\P[]
  3
DIMSTYLE_1
100
AcDbAlignedDimension
 13
8.3913451435
 23
5.5944367119
 14
8.4009349723
 24
5.0038855308
 50
270.0
100
AcDbRotatedDimension
  0
DIMENSION
  5
2B5
100
AcDbEntity
  8
SCHEME_DIMS
100
AcDbDimension
 62
7
  6
CONTINUOUS
  2
*D4
 10
8.3646107169
 20
4.5187932592
 11
9.0823840097
 21
4.4437932592
 70
160
 71
1
 72
2
 41
0.9
 42
4.75
  1
<>\P[]
  3
DIMSTYLE_1
100
AcDbAlignedDimension
 13
8.5516185909
 23
5.4559578177
 14
8.3646107169
 24
5.0256800841
 50
180.0
100
AcDbRotatedDimension
  0
DIMENSION
  5
2B6
100
AcDbEntity
  8
SCHEME_DIMS
100
AcDbDimension
 62
7
  6
CONTINUOUS
  2
*D5
 10
14.7106876043
 20
6.6337898877
 11
14.2106876043
 21
6.5587898877
 70
160
 71
2
 72
2
 41
0.9
 42
25.4
  1
<>\P[]
  3
DIMSTYLE_1
100
AcDbAlignedDimension
 13
13.7106876043
 23
6.2475863182
 14
14.7106876043
 24
6.2475863182
100
AcDbRotatedDimension
  0
DIMENSION
  5
2B7
100
AcDbEntity
  8
SCHEME_DIMS
100
AcDbDimension
 62
7
  6
CONTINUOUS
  2
*D6
 10
15.3227628933
 20
5.0944367119
 11
15.3227628933
 21
5.6313866434
 70
160
 71
2
 72
2
 41
0.9
 42
25.4
  1
<>\P[]
  3
DIMSTYLE_1
100
AcDbAlignedDimension
 13
14.8289659254
 23
6.0944367119
 14
14.8377745574
 24
5.0944367119
 50
270.0
100
AcDbRotatedDimension
  0
DIMENSION
  5
2B8
100
AcDbEntity
  8
SCHEME_DIMS
100
AcDbDimension
 62
7
  6
CONTINUOUS
  2
*D7
 10
13.6201364232
 20
4.6288855308
 11
13.0110640446
 21
4.5538855308
 70
160
 71
3
 72
2
 41
0.9
 42
2.3
  1
<>\P[]
  3
DIMSTYLE_1
100
AcDbAlignedDimension
 13
13.7106876043
 23
4.984295024
 14
13.6201364232
 24
5.1197463703
 50
180.0
100
AcDbRotatedDimension
  0
DIMENSION
  5
2B9
100
AcDbEntity
  8
SCHEME_DIMS
100
AcDbDimension
 62
7
  6
CONTINUOUS
  2
*D8
 10
13.105192783
 20
6.0944367119
 11
12.555192783
 21
6.5799523791
 70
160
 71
3
 72
2
 41
0.9
 42
2.3
  1
<>\P[]
  3
DIMSTYLE_1
100
AcDbAlignedDimension
 13
13.71856162
 23
6.184987893
 14
13.5886608088
 24
6.0944367119
 50
270.0
100
AcDbRotatedDimension
  0
DIMENSION
  5
2BA
100
AcDbEntity
  8
SCHEME_DIMS
100
AcDbDimension
 62
7
  6
CONTINUOUS
  2
*D9
 10
3.2202618914
 20
6.1418632315
 11
4.1984464674
 21
6.484987893
 70
163
 71
1
 72
2
 41
0.9
 42
2.7
  1
4X %%c<>\P[]
  3
DIMSTYLE_2
100
AcDbDiametricDimension
 15
3.1722783153
 25
6.0470101924
  0
ACAD_TABLE
  5
2BB
100
AcDbEntity
  8
0
 62
7
  6
CONTINUOUS
100
AcDbBlockReference
  2
*T1
 10
12.03
 20
0.887
 30
0.0
100
AcDbTable
342
       4DA
343
21F
 11
1.0
 21
0.0
 31
0.0
 90
6
 91
3
 92
5
 93
4
 94
0
 95
0
 96
0
 70
1
141
0.33
141
0.45
141
1.14
142
0.65
142
1.15
142
1.025
142
1.075
142
0.45
171
1
172
0
173
0
174
0
175
1
176
1
 91
33
178
0
145
0.0
301
CELL_VALUE
 90
4
  1
 
304
ACVALUE_END
170
1
140
0.1
171
1
172
0
173
0
174
0
175
1
176
1
 91
33
178
0
145
0.0
301
CELL_VALUE
 90
4
  1
 
304
ACVALUE_END
170
1
140
0.1
171
1
172
0
173
0
174
0
175
1
176
1
 91
33
178
0
145
0.0
301
CELL_VALUE
 90
4
  1
 
304
ACVALUE_END
170
1
140
0.1
171
1
172
0
173
0
174
0
175
1
176
1
 91
33
178
0
145
0.0
301
CELL_VALUE
 90
4
  1
 
304
ACVALUE_END
170
1
140
0.1
171
1
172
0
173
0
174
0
175
1
176
1
 91
33
178
0
145
0.0
301
CELL_VALUE
 90
4
  1
 
304
ACVALUE_END
170
1
140
0.1
171
1
172
0
173
0
174
0
175
1
176
1
 91
33
178
0
145
0.0
301
CELL_VALUE
 90
4
  1
 
304
ACVALUE_END
170
1
140
0.1
171
1
172
0
173
0
174
0
175
1
176
1
 91
33
178
0
145
0.0
301
CELL_VALUE
 90
4
  1
 
304
ACVALUE_END
170
1
140
0.1
171
1
172
0
173
0
174
0
175
1
176
1
 91
33
178
0
145
0.0
301
CELL_VALUE
 90
4
  1
 
304
ACVALUE_END
170
1
140
0.1
171
1
172
0
173
0
174
0
175
1
176
1
 91
33
178
0
145
0.0
301
CELL_VALUE
 90
4
  1
 
304
ACVALUE_END
170
1
140
0.1
171
1
172
0
173
0
174
0
175
1
176
1
 91
41
178
0
145
0.0
301
CELL_VALUE
 90
4
  1
A
304
ACVALUE_END
170
8
140
0.1
 64
7
171
1
172
0
173
0
174
0
175
5
176
1
 91
33
178
0
145
0.0
301
CELL_VALUE
 90
4
  1
QM30VT AL
304
ACVALUE_END
170
8
140
0.1
171
1
172
0
173
1
174
0
175
1
176
1
 91
1
178
0
145
0.0
170
1
171
1
172
0
173
1
174
0
175
1
176
1
 91
1
178
0
145
0.0
170
1
171
1
172
0
173
1
174
0
175
1
176
1
 91
1
178
0
145
0.0
170
1
171
1
172
0
173
1
174
0
175
1
176
1
 91
1
178
0
145
0.0
170
8
  0
LINE
  5
2BC
100
AcDbEntity
  8
0
100
AcDbLine
 62
7
  6
CONTINUOUS
 10
0.47
 20
5.586103
 11
0.47
 21
5.412897
  0
LINE
  5
2BD
100
AcDbEntity
  8
0
100
AcDbLine
 62
7
  6
CONTINUOUS
 10
0.62
 20
10.112
 11
0.62
 21
0.887
  0
LINE
  5
2BE
100
AcDbEntity
  8
0
100
AcDbLine
 62
7
  6
CONTINUOUS
 10
2.59
 20
0.887
 11
2.59
 21
0.637
  0
LINE
  5
2BF
100
AcDbEntity
  8
0
100
AcDbLine
 62
7
  6
CONTINUOUS
 10
2.59
 20
10.112
 11
2.59
 21
10.362
  0
LINE
  5
2C0
100
AcDbEntity
  8
0
100
AcDbLine
 62
7
  6
CONTINUOUS
 10
8.413397
 20
0.737
 11
8.586603
 21
0.737
  0
LINE
  5
2C1
100
AcDbEntity
  8
0
100
AcDbLine
 62
7
  6
CONTINUOUS
 10
11.1389508475
 20
1.425992839
 11
11.7453418475
 21
1.495385839
  0
LINE
  5
2C2
100
AcDbEntity
  8
0
100
AcDbLine
 62
7
  6
CONTINUOUS
 10
0.62
 20
0.887
 11
16.38
 21
0.887
  0
LINE
  5
2C3
100
AcDbEntity
  8
0
100
AcDbLine
 62
7
  6
CONTINUOUS
 10
12.03
 20
1.137
 11
16.38
 21
1.137
  0
LINE
  5
2C4
100
AcDbEntity
  8
0
100
AcDbLine
 62
7
  6
CONTINUOUS
 10
10.2121898475
 20
1.243294839
 11
10.4342808475
 21
1.243294839
  0
LINE
  5
2C5
100
AcDbEntity
  8
0
100
AcDbLine
 62
7
  6
CONTINUOUS
 10
10.4842808475
 20
1.243294839
 11
10.5842808475
 21
1.243294839
  0
LINE
  5
2C6
100
AcDbEntity
  8
0
100
AcDbLine
 62
7
  6
CONTINUOUS
 10
10.6342808475
 20
1.243294839
 11
10.8563718475
 21
1.243294839
  0
LINE
  5
2C7
100
AcDbEntity
  8
0
100
AcDbLine
 62
7
  6
CONTINUOUS
 10
11.0389508475
 20
1.243294839
 11
11.3171028475
 21
1.243294839
  0
LINE
  5
2C8
100
AcDbEntity
  8
0
100
AcDbLine
 62
7
  6
CONTINUOUS
 10
11.3671028475
 20
1.243294839
 11
11.5171888475
 21
1.243294839
  0
LINE
  5
2C9
100
AcDbEntity
  8
0
100
AcDbLine
 62
7
  6
CONTINUOUS
 10
11.5671888475
 20
1.243294839
 11
11.8453418475
 21
1.243294839
  0
LINE
  5
2CA
100
AcDbEntity
  8
0
100
AcDbLine
 62
7
  6
CONTINUOUS
 10
11.7453418475
 20
0.991203839
 11
11.1389508475
 21
1.060596839
  0
LINE
  5
2CB
100
AcDbEntity
  8
0
100
AcDbLine
 62
7
  6
CONTINUOUS
 10
4.56
 20
0.887
 11
4.56
 21
0.637
  0
LINE
  5
2CC
100
AcDbEntity
  8
0
100
AcDbLine
 62
7
  6
CONTINUOUS
 10
4.56
 20
10.112
 11
4.56
 21
10.362
  0
LINE
  5
2CD
100
AcDbEntity
  8
0
100
AcDbLine
 62
7
  6
CONTINUOUS
 10
0.47
 20
5.412897
 11
0.62
 21
5.4995
  0
LINE
  5
2CE
100
AcDbEntity
  8
0
100
AcDbLine
 62
7
  6
CONTINUOUS
 10
12.03
 20
1.507
 11
16.38
 21
1.507
  0
LINE
  5
2CF
100
AcDbEntity
  8
0
100
AcDbLine
 62
7
  6
CONTINUOUS
 10
10.03
 20
1.907
 11
12.03
 21
1.907
  0
LINE
  5
2D0
100
AcDbEntity
  8
0
100
AcDbLine
 62
7
  6
CONTINUOUS
 10
0.62
 20
5.4995
 11
0.47
 21
5.586103
  0
LINE
  5
2D1
100
AcDbEntity
  8
0
100
AcDbLine
 62
7
  6
CONTINUOUS
 10
12.03
 20
2.267
 11
16.38
 21
2.267
  0
LINE
  5
2D2
100
AcDbEntity
  8
0
100
AcDbLine
 62
7
  6
CONTINUOUS
 10
13.6042588488
 20
2.4912273132
 11
13.5568948225
 21
2.4912273132
  0
LINE
  5
2D3
100
AcDbEntity
  8
0
100
AcDbLine
 62
7
  6
CONTINUOUS
 10
13.5130037982
 20
2.4912273132
 11
13.3994327352
 21
2.4912273132
  0
LINE
  5
2D4
100
AcDbEntity
  8
0
100
AcDbLine
 62
7
  6
CONTINUOUS
 10
13.3705287192
 20
2.4912273132
 11
13.1673166065
 21
2.4912273132
  0
LINE
  5
2D5
100
AcDbEntity
  8
0
100
AcDbLine
 62
7
  6
CONTINUOUS
 10
13.1168435785
 20
2.4912273132
 11
13.0426375373
 21
2.4912273132
  0
LINE
  5
2D6
100
AcDbEntity
  8
0
100
AcDbLine
 62
7
  6
CONTINUOUS
 10
12.9962575116
 20
2.4912273132
 11
12.9205934696
 21
2.4912273132
  0
LINE
  5
2D7
100
AcDbEntity
  8
0
100
AcDbLine
 62
7
  6
CONTINUOUS
 10
12.8685904408
 20
2.4912273132
 11
12.7943853997
 21
2.4912273132
  0
LINE
  5
2D8
100
AcDbEntity
  8
0
100
AcDbLine
 62
7
  6
CONTINUOUS
 10
12.7480043739
 20
2.4912273132
 11
12.672340332
 21
2.4912273132
  0
LINE
  5
2D9
100
AcDbEntity
  8
0
100
AcDbLine
 62
7
  6
CONTINUOUS
 10
12.2055050731
 20
2.4912273132
 11
12.3819511709
 21
2.4912273132
  0
LINE
  5
2DA
100
AcDbEntity
  8
0
100
AcDbLine
 62
7
  6
CONTINUOUS
 10
12.4394882028
 20
2.4912273132
 11
12.5168642458
 21
2.4912273132
  0
LINE
  5
2DB
100
AcDbEntity
  8
0
100
AcDbLine
 62
7
  6
CONTINUOUS
 10
12.537150257
 20
2.4912273132
 11
12.6424313154
 21
2.4912273132
  0
LINE
  5
2DC
100
AcDbEntity
  8
0
100
AcDbLine
 62
7
  6
CONTINUOUS
 10
13.4883447845
 20
2.5159553269
 11
13.5130037982
 21
2.5159553269
  0
LINE
  5
2DD
100
AcDbEntity
  8
0
100
AcDbLine
 62
7
  6
CONTINUOUS
 10
12.6424313154
 20
2.515977327
 11
12.6224153043
 21
2.515977327
  0
LINE
  5
2DE
100
AcDbEntity
  8
0
100
AcDbLine
 62
7
  6
CONTINUOUS
 10
12.551601265
 20
2.515977327
 11
12.537150257
 21
2.515977327
  0
LINE
  5
2DF
100
AcDbEntity
  8
0
100
AcDbLine
 62
7
  6
CONTINUOUS
 10
12.5168642458
 20
2.515977327
 11
12.5055812395
 21
2.515977327
  0
LINE
  5
2E0
100
AcDbEntity
  8
0
100
AcDbLine
 62
7
  6
CONTINUOUS
 10
12.4623492155
 20
2.515977327
 11
12.4394882028
 21
2.515977327
  0
LINE
  5
2E1
100
AcDbEntity
  8
0
100
AcDbLine
 62
7
  6
CONTINUOUS
 10
12.3362731456
 20
2.515977327
 11
12.2949101227
 21
2.515977327
  0
LINE
  5
2E2
100
AcDbEntity
  8
0
100
AcDbLine
 62
7
  6
CONTINUOUS
 10
12.2294470864
 20
2.515977327
 11
12.2055050731
 21
2.515977327
  0
LINE
  5
2E3
100
AcDbEntity
  8
0
100
AcDbLine
 62
7
  6
CONTINUOUS
 10
12.672340332
 20
2.515977327
 11
12.6909873423
 21
2.515977327
  0
LINE
  5
2E4
100
AcDbEntity
  8
0
100
AcDbLine
 62
7
  6
CONTINUOUS
 10
12.7276873627
 20
2.515977327
 11
12.7480043739
 21
2.515977327
  0
LINE
  5
2E5
100
AcDbEntity
  8
0
100
AcDbLine
 62
7
  6
CONTINUOUS
 10
12.9205934696
 20
2.515977327
 11
12.93923948
 21
2.515977327
  0
LINE
  5
2E6
100
AcDbEntity
  8
0
100
AcDbLine
 62
7
  6
CONTINUOUS
 10
12.9759405003
 20
2.515977327
 11
12.9962575116
 21
2.515977327
  0
LINE
  5
2E7
100
AcDbEntity
  8
0
100
AcDbLine
 62
7
  6
CONTINUOUS
 10
13.1673166065
 20
2.515977327
 11
13.1912396197
 21
2.515977327
  0
LINE
  5
2E8
100
AcDbEntity
  8
0
100
AcDbLine
 62
7
  6
CONTINUOUS
 10
13.2582556569
 20
2.515977327
 11
13.3232596929
 21
2.515977327
  0
LINE
  5
2E9
100
AcDbEntity
  8
0
100
AcDbLine
 62
7
  6
CONTINUOUS
 10
13.3994327352
 20
2.515977327
 11
13.4221787478
 21
2.515977327
  0
LINE
  5
2EA
100
AcDbEntity
  8
0
100
AcDbLine
 62
7
  6
CONTINUOUS
 10
13.6052818493
 20
2.5163643272
 11
13.60639085
 21
2.5163643272
  0
LINE
  5
2EB
100
AcDbEntity
  8
0
100
AcDbLine
 62
7
  6
CONTINUOUS
 10
13.3282096957
 20
2.5291773343
 11
13.3705287192
 21
2.5291773343
  0
LINE
  5
2EC
100
AcDbEntity
  8
0
100
AcDbLine
 62
7
  6
CONTINUOUS
 10
12.5110972426
 20
2.5296213345
 11
12.5459752619
 21
2.5296213345
  0
LINE
  5
2ED
100
AcDbEntity
  8
0
100
AcDbLine
 62
7
  6
CONTINUOUS
 10
13.6171458559
 20
2.5301143348
 11
13.6292558626
 21
2.5301143348
  0
LINE
  5
2EE
100
AcDbEntity
  8
0
100
AcDbLine
 62
7
  6
CONTINUOUS
 10
13.5159517998
 20
2.5306043351
 11
13.4883447845
 21
2.5306043351
  0
LINE
  5
2EF
100
AcDbEntity
  8
0
100
AcDbLine
 62
7
  6
CONTINUOUS
 10
13.2934226764
 20
2.5324773361
 11
13.2582556569
 21
2.5324773361
  0
LINE
  5
2F0
100
AcDbEntity
  8
0
100
AcDbLine
 62
7
  6
CONTINUOUS
 10
12.2949101227
 20
2.5333023366
 11
12.3362731456
 21
2.5333023366
  0
LINE
  5
2F1
100
AcDbEntity
  8
0
100
AcDbLine
 62
7
  6
CONTINUOUS
 10
13.5222818033
 20
2.5496073456
 11
13.4883447845
 21
2.5496073456
  0
LINE
  5
2F2
100
AcDbEntity
  8
0
100
AcDbLine
 62
7
  6
CONTINUOUS
 10
12.2949101227
 20
2.5499573458
 11
12.3362731456
 21
2.5499573458
  0
LINE
  5
2F3
100
AcDbEntity
  8
0
100
AcDbLine
 62
7
  6
CONTINUOUS
 10
12.5196132473
 20
2.5505713461
 11
12.5401702587
 21
2.5505713461
  0
LINE
  5
2F4
100
AcDbEntity
  8
0
100
AcDbLine
 62
7
  6
CONTINUOUS
 10
13.2582556569
 20
2.5507823463
 11
13.2934226764
 21
2.5507823463
  0
LINE
  5
2F5
100
AcDbEntity
  8
0
100
AcDbLine
 62
7
  6
CONTINUOUS
 10
13.3691097184
 20
2.5540823481
 11
13.3272456952
 21
2.5540823481
  0
LINE
  5
2F6
100
AcDbEntity
  8
0
100
AcDbLine
 62
7
  6
CONTINUOUS
 10
12.5329112547
 20
2.5667383551
 11
12.5267302512
 21
2.5667383551
  0
LINE
  5
2F7
100
AcDbEntity
  8
0
100
AcDbLine
 62
7
  6
CONTINUOUS
 10
13.4221787478
 20
2.5672823554
 11
13.3994327352
 21
2.5672823554
  0
LINE
  5
2F8
100
AcDbEntity
  8
0
100
AcDbLine
 62
7
  6
CONTINUOUS
 10
13.3222956924
 20
2.5672823554
 11
13.2582556569
 21
2.5672823554
  0
LINE
  5
2F9
100
AcDbEntity
  8
0
100
AcDbLine
 62
7
  6
CONTINUOUS
 10
13.1912396197
 20
2.5672823554
 11
13.1673166065
 21
2.5672823554
  0
LINE
  5
2FA
100
AcDbEntity
  8
0
100
AcDbLine
 62
7
  6
CONTINUOUS
 10
13.1397265912
 20
2.5672823554
 11
13.1217935812
 21
2.5672823554
  0
LINE
  5
2FB
100
AcDbEntity
  8
0
100
AcDbLine
 62
7
  6
CONTINUOUS
 10
13.0845015605
 20
2.5672823554
 11
13.0657255501
 21
2.5672823554
  0
LINE
  5
2FC
100
AcDbEntity
  8
0
100
AcDbLine
 62
7
  6
CONTINUOUS
 10
12.93923948
 20
2.5672823554
 11
12.9205934696
 21
2.5672823554
  0
LINE
  5
2FD
100
AcDbEntity
  8
0
100
AcDbLine
 62
7
  6
CONTINUOUS
 10
12.8914734535
 20
2.5672823554
 11
12.8735404436
 21
2.5672823554
  0
LINE
  5
2FE
100
AcDbEntity
  8
0
100
AcDbLine
 62
7
  6
CONTINUOUS
 10
12.8362484229
 20
2.5672823554
 11
12.8174724125
 21
2.5672823554
  0
LINE
  5
2FF
100
AcDbEntity
  8
0
100
AcDbLine
 62
7
  6
CONTINUOUS
 10
12.6909873423
 20
2.5672823554
 11
12.672340332
 21
2.5672823554
  0
LINE
  5
300
100
AcDbEntity
  8
0
100
AcDbLine
 62
7
  6
CONTINUOUS
 10
12.3362731456
 20
2.5672823554
 11
12.2949101227
 21
2.5672823554
  0
LINE
  5
301
100
AcDbEntity
  8
0
100
AcDbLine
 62
7
  6
CONTINUOUS
 10
12.2055050731
 20
2.5672823554
 11
12.2294470864
 21
2.5672823554
  0
LINE
  5
302
100
AcDbEntity
  8
0
100
AcDbLine
 62
7
  6
CONTINUOUS
 10
13.4883447845
 20
2.5672823554
 11
13.5251458049
 21
2.5672823554
  0
LINE
  5
303
100
AcDbEntity
  8
0
100
AcDbLine
 62
7
  6
CONTINUOUS
 10
12.5705042755
 20
2.5920323691
 11
12.5133292438
 21
2.5920323691
  0
LINE
  5
304
100
AcDbEntity
  8
0
100
AcDbLine
 62
7
  6
CONTINUOUS
 10
12.3715681652
 20
2.5920323691
 11
12.2055050731
 21
2.5920323691
  0
LINE
  5
305
100
AcDbEntity
  8
0
100
AcDbLine
 62
7
  6
CONTINUOUS
 10
12.672340332
 20
2.5920323691
 11
12.7727983877
 21
2.5920323691
  0
LINE
  5
306
100
AcDbEntity
  8
0
100
AcDbLine
 62
7
  6
CONTINUOUS
 10
12.8174724125
 20
2.5920323691
 11
12.8914734535
 21
2.5920323691
  0
LINE
  5
307
100
AcDbEntity
  8
0
100
AcDbLine
 62
7
  6
CONTINUOUS
 10
12.9205934696
 20
2.5920323691
 11
13.0210515254
 21
2.5920323691
  0
LINE
  5
308
100
AcDbEntity
  8
0
100
AcDbLine
 62
7
  6
CONTINUOUS
 10
13.0657255501
 20
2.5920323691
 11
13.1397265912
 21
2.5920323691
  0
LINE
  5
309
100
AcDbEntity
  8
0
100
AcDbLine
 62
7
  6
CONTINUOUS
 10
13.1673166065
 20
2.5920323691
 11
13.3691097184
 21
2.5920323691
  0
LINE
  5
30A
100
AcDbEntity
  8
0
100
AcDbLine
 62
7
  6
CONTINUOUS
 10
13.3994327352
 20
2.5920323691
 11
13.5490138181
 21
2.5920323691
  0
LINE
  5
30B
100
AcDbEntity
  8
0
100
AcDbLine
 62
7
  6
CONTINUOUS
 10
12.4008351814
 20
2.5375433389
 11
12.3907841758
 21
2.5410923409
  0
LINE
  5
30C
100
AcDbEntity
  8
0
100
AcDbLine
 62
7
  6
CONTINUOUS
 10
12.7926763987
 20
2.4919113136
 11
12.7293963636
 21
2.5522893471
  0
LINE
  5
30D
100
AcDbEntity
  8
0
100
AcDbLine
 62
7
  6
CONTINUOUS
 10
12.7745063886
 20
2.5913483688
 11
12.8345394219
 21
2.534068337
  0
LINE
  5
30E
100
AcDbEntity
  8
0
100
AcDbLine
 62
7
  6
CONTINUOUS
 10
13.0409295364
 20
2.4919113136
 11
12.9776495013
 21
2.5522893471
  0
LINE
  5
30F
100
AcDbEntity
  8
0
100
AcDbLine
 62
7
  6
CONTINUOUS
 10
13.0227595263
 20
2.5913483688
 11
13.0827925596
 21
2.534068337
  0
LINE
  5
310
100
AcDbEntity
  8
0
100
AcDbLine
 62
7
  6
CONTINUOUS
 10
12.548053263
 20
2.5284903339
 11
12.5536792662
 21
2.5197973291
  0
LINE
  5
311
100
AcDbEntity
  8
0
100
AcDbLine
 62
7
  6
CONTINUOUS
 10
12.5422482598
 20
2.5543913483
 11
12.5349892558
 21
2.5656073545
  0
LINE
  5
312
100
AcDbEntity
  8
0
100
AcDbLine
 62
7
  6
CONTINUOUS
 10
12.6203383031
 20
2.5171073276
 11
12.5725822767
 21
2.5909023685
  0
LINE
  5
313
100
AcDbEntity
  8
0
100
AcDbLine
 62
7
  6
CONTINUOUS
 10
12.2030300717
 20
2.5895573678
 11
12.2030300717
 21
2.5697573568
  0
LINE
  5
314
100
AcDbEntity
  8
0
100
AcDbLine
 62
7
  6
CONTINUOUS
 10
12.2030300717
 20
2.5135023256
 11
12.2030300717
 21
2.4937023146
  0
LINE
  5
315
100
AcDbEntity
  8
0
100
AcDbLine
 62
7
  6
CONTINUOUS
 10
12.2319220877
 20
2.564807354
 11
12.2319220877
 21
2.5184523283
  0
LINE
  5
316
100
AcDbEntity
  8
0
100
AcDbLine
 62
7
  6
CONTINUOUS
 10
12.2924351213
 20
2.564807354
 11
12.2924351213
 21
2.5524323472
  0
LINE
  5
317
100
AcDbEntity
  8
0
100
AcDbLine
 62
7
  6
CONTINUOUS
 10
12.2924351213
 20
2.5184523283
 11
12.2924351213
 21
2.5308273352
  0
LINE
  5
318
100
AcDbEntity
  8
0
100
AcDbLine
 62
7
  6
CONTINUOUS
 10
12.4370132015
 20
2.5135023256
 11
12.4370132015
 21
2.4937023146
  0
LINE
  5
319
100
AcDbEntity
  8
0
100
AcDbLine
 62
7
  6
CONTINUOUS
 10
12.5193392471
 20
2.4937023146
 11
12.5193392471
 21
2.5135023256
  0
LINE
  5
31A
100
AcDbEntity
  8
0
100
AcDbLine
 62
7
  6
CONTINUOUS
 10
12.5346752556
 20
2.5135023256
 11
12.5346752556
 21
2.4937023146
  0
LINE
  5
31B
100
AcDbEntity
  8
0
100
AcDbLine
 62
7
  6
CONTINUOUS
 10
12.6449063168
 20
2.4937023146
 11
12.6449063168
 21
2.5135023256
  0
LINE
  5
31C
100
AcDbEntity
  8
0
100
AcDbLine
 62
7
  6
CONTINUOUS
 10
12.6698653306
 20
2.4937023146
 11
12.6698653306
 21
2.5135023256
  0
LINE
  5
31D
100
AcDbEntity
  8
0
100
AcDbLine
 62
7
  6
CONTINUOUS
 10
12.6698653306
 20
2.5697573568
 11
12.6698653306
 21
2.5895573678
  0
LINE
  5
31E
100
AcDbEntity
  8
0
100
AcDbLine
 62
7
  6
CONTINUOUS
 10
12.6934623437
 20
2.5184523283
 11
12.6934623437
 21
2.564807354
  0
LINE
  5
31F
100
AcDbEntity
  8
0
100
AcDbLine
 62
7
  6
CONTINUOUS
 10
12.7252123613
 20
2.5504983461
 11
12.7252123613
 21
2.5184523283
  0
LINE
  5
320
100
AcDbEntity
  8
0
100
AcDbLine
 62
7
  6
CONTINUOUS
 10
13.5375908118
 20
2.5092733232
 11
13.5357868108
 21
2.5153423266
  0
LINE
  5
321
100
AcDbEntity
  8
0
100
AcDbLine
 62
7
  6
CONTINUOUS
 10
12.7504793753
 20
2.5135023256
 11
12.7504793753
 21
2.4937023146
  0
LINE
  5
322
100
AcDbEntity
  8
0
100
AcDbLine
 62
7
  6
CONTINUOUS
 10
12.8149974111
 20
2.5697573568
 11
12.8149974111
 21
2.5895573678
  0
LINE
  5
323
100
AcDbEntity
  8
0
100
AcDbLine
 62
7
  6
CONTINUOUS
 10
12.8387234242
 20
2.535859338
 11
12.8387234242
 21
2.564807354
  0
LINE
  5
324
100
AcDbEntity
  8
0
100
AcDbLine
 62
7
  6
CONTINUOUS
 10
12.8710654422
 20
2.564807354
 11
12.8710654422
 21
2.4937023146
  0
LINE
  5
325
100
AcDbEntity
  8
0
100
AcDbLine
 62
7
  6
CONTINUOUS
 10
12.8939484549
 20
2.5895573678
 11
12.8939484549
 21
2.5697573568
  0
LINE
  5
326
100
AcDbEntity
  8
0
100
AcDbLine
 62
7
  6
CONTINUOUS
 10
12.9181184683
 20
2.4937023146
 11
12.9181184683
 21
2.5135023256
  0
LINE
  5
327
100
AcDbEntity
  8
0
100
AcDbLine
 62
7
  6
CONTINUOUS
 10
12.9181184683
 20
2.5697573568
 11
12.9181184683
 21
2.5895573678
  0
LINE
  5
328
100
AcDbEntity
  8
0
100
AcDbLine
 62
7
  6
CONTINUOUS
 10
12.9417144814
 20
2.5184523283
 11
12.9417144814
 21
2.564807354
  0
LINE
  5
329
100
AcDbEntity
  8
0
100
AcDbLine
 62
7
  6
CONTINUOUS
 10
12.973465499
 20
2.5504983461
 11
12.973465499
 21
2.5184523283
  0
LINE
  5
32A
100
AcDbEntity
  8
0
100
AcDbLine
 62
7
  6
CONTINUOUS
 10
12.998732513
 20
2.5135023256
 11
12.998732513
 21
2.4937023146
  0
LINE
  5
32B
100
AcDbEntity
  8
0
100
AcDbLine
 62
7
  6
CONTINUOUS
 10
13.0632505488
 20
2.5697573568
 11
13.0632505488
 21
2.5895573678
  0
LINE
  5
32C
100
AcDbEntity
  8
0
100
AcDbLine
 62
7
  6
CONTINUOUS
 10
13.0869765619
 20
2.535859338
 11
13.0869765619
 21
2.564807354
  0
LINE
  5
32D
100
AcDbEntity
  8
0
100
AcDbLine
 62
7
  6
CONTINUOUS
 10
13.1193185799
 20
2.564807354
 11
13.1193185799
 21
2.4937023146
  0
LINE
  5
32E
100
AcDbEntity
  8
0
100
AcDbLine
 62
7
  6
CONTINUOUS
 10
13.1422015925
 20
2.5895573678
 11
13.1422015925
 21
2.5697573568
  0
LINE
  5
32F
100
AcDbEntity
  8
0
100
AcDbLine
 62
7
  6
CONTINUOUS
 10
13.1648416051
 20
2.4937023146
 11
13.1648416051
 21
2.5135023256
  0
LINE
  5
330
100
AcDbEntity
  8
0
100
AcDbLine
 62
7
  6
CONTINUOUS
 10
13.1648416051
 20
2.5697573568
 11
13.1648416051
 21
2.5895573678
  0
LINE
  5
331
100
AcDbEntity
  8
0
100
AcDbLine
 62
7
  6
CONTINUOUS
 10
13.1937146211
 20
2.5184523283
 11
13.1937146211
 21
2.564807354
  0
LINE
  5
332
100
AcDbEntity
  8
0
100
AcDbLine
 62
7
  6
CONTINUOUS
 10
13.2557806555
 20
2.564807354
 11
13.2557806555
 21
2.5532573476
  0
LINE
  5
333
100
AcDbEntity
  8
0
100
AcDbLine
 62
7
  6
CONTINUOUS
 10
13.2557806555
 20
2.5300023347
 11
13.2557806555
 21
2.5184523283
  0
LINE
  5
334
100
AcDbEntity
  8
0
100
AcDbLine
 62
7
  6
CONTINUOUS
 10
13.2958976778
 20
2.5483073449
 11
13.2958976778
 21
2.5349523375
  0
LINE
  5
335
100
AcDbEntity
  8
0
100
AcDbLine
 62
7
  6
CONTINUOUS
 10
12.3907841758
 20
2.5410923409
 11
12.3990241804
 21
2.5458683435
  0
LINE
  5
336
100
AcDbEntity
  8
0
100
AcDbLine
 62
7
  6
CONTINUOUS
 10
13.3247706938
 20
2.5565573495
 11
13.3247706938
 21
2.564807354
  0
LINE
  5
337
100
AcDbEntity
  8
0
100
AcDbLine
 62
7
  6
CONTINUOUS
 10
13.3257346943
 20
2.5184523283
 11
13.3257346943
 21
2.5267023329
  0
LINE
  5
338
100
AcDbEntity
  8
0
100
AcDbLine
 62
7
  6
CONTINUOUS
 10
13.3715847197
 20
2.5895573678
 11
13.3715847197
 21
2.5565573495
  0
LINE
  5
339
100
AcDbEntity
  8
0
100
AcDbLine
 62
7
  6
CONTINUOUS
 10
13.3730037205
 20
2.5267023329
 11
13.3730037205
 21
2.4937023146
  0
LINE
  5
33A
100
AcDbEntity
  8
0
100
AcDbLine
 62
7
  6
CONTINUOUS
 10
13.3969577338
 20
2.4937023146
 11
13.3969577338
 21
2.5135023256
  0
LINE
  5
33B
100
AcDbEntity
  8
0
100
AcDbLine
 62
7
  6
CONTINUOUS
 10
13.3969577338
 20
2.5697573568
 11
13.3969577338
 21
2.5895573678
  0
LINE
  5
33C
100
AcDbEntity
  8
0
100
AcDbLine
 62
7
  6
CONTINUOUS
 10
13.4246537492
 20
2.5184523283
 11
13.4246537492
 21
2.564807354
  0
LINE
  5
33D
100
AcDbEntity
  8
0
100
AcDbLine
 62
7
  6
CONTINUOUS
 10
13.4858697831
 20
2.5281293337
 11
13.4858697831
 21
2.5184303283
  0
LINE
  5
33E
100
AcDbEntity
  8
0
100
AcDbLine
 62
7
  6
CONTINUOUS
 10
13.4858697831
 20
2.552082347
 11
13.4858697831
 21
2.564807354
  0
LINE
  5
33F
100
AcDbEntity
  8
0
100
AcDbLine
 62
7
  6
CONTINUOUS
 10
13.5154787995
 20
2.5134803256
 11
13.5154787995
 21
2.4937023146
  0
LINE
  5
340
100
AcDbEntity
  8
0
100
AcDbLine
 62
7
  6
CONTINUOUS
 10
13.6146708546
 20
2.525013332
 11
13.6146708546
 21
2.5276393334
  0
LINE
  5
341
100
AcDbEntity
  8
0
100
AcDbLine
 62
7
  6
CONTINUOUS
 10
13.631730864
 20
2.5276393334
 11
13.631730864
 21
2.516087327
  0
LINE
  5
342
100
AcDbEntity
  8
0
100
AcDbLine
 62
7
  6
CONTINUOUS
 10
13.7286871589
 20
2.5350697372
 11
13.7286871589
 21
2.5456869438
  0
LINE
  5
343
100
AcDbEntity
  8
0
100
AcDbLine
 62
7
  6
CONTINUOUS
 10
12.5112392426
 20
2.5908833685
 11
12.4644392167
 21
2.5171263276
  0
LINE
  5
344
100
AcDbEntity
  8
0
100
AcDbLine
 62
7
  6
CONTINUOUS
 10
12.5246402501
 20
2.5655893545
 11
12.5175232461
 21
2.5543723483
  0
LINE
  5
345
100
AcDbEntity
  8
0
100
AcDbLine
 62
7
  6
CONTINUOUS
 10
12.5034912383
 20
2.5197783291
 11
12.5090072414
 21
2.5284723339
  0
ARC
  5
346
100
AcDbEntity
  8
0
100
AcDbCircle
 62
7
  6
CONTINUOUS
 10
12.7943847649
 20
2.4937027294
 40
0.0024754162
100
AcDbArc
 50
226.3593695813
 51
270.0146919953
  0
ARC
  5
347
100
AcDbEntity
  8
0
100
AcDbCircle
 62
7
  6
CONTINUOUS
 10
12.2055050712
 20
2.4937023128
 40
0.0024749995
100
AcDbArc
 50
179.9999571957
 51
270.0000428043
  0
ARC
  5
348
100
AcDbEntity
  8
0
100
AcDbCircle
 62
7
  6
CONTINUOUS
 10
12.8685904427
 20
2.4937023128
 40
0.0024749995
100
AcDbArc
 50
269.9999571957
 51
0.0000428043
  0
ARC
  5
349
100
AcDbEntity
  8
0
100
AcDbCircle
 62
7
  6
CONTINUOUS
 10
12.7480043758
 20
2.4937023128
 40
0.0024749995
100
AcDbArc
 50
269.9999571957
 51
0.0000428043
  0
ARC
  5
34A
100
AcDbEntity
  8
0
100
AcDbCircle
 62
7
  6
CONTINUOUS
 10
12.6723403301
 20
2.4937023128
 40
0.0024749995
100
AcDbArc
 50
179.9999571957
 51
270.0000428043
  0
ARC
  5
34B
100
AcDbEntity
  8
0
100
AcDbCircle
 62
7
  6
CONTINUOUS
 10
12.5371502552
 20
2.4937023128
 40
0.0024749995
100
AcDbArc
 50
179.9999571957
 51
270.0000428043
  0
ARC
  5
34C
100
AcDbEntity
  8
0
100
AcDbCircle
 62
7
  6
CONTINUOUS
 10
12.6424313172
 20
2.4937023128
 40
0.0024749995
100
AcDbArc
 50
269.9999571957
 51
0.0000428043
  0
ARC
  5
34D
100
AcDbEntity
  8
0
100
AcDbCircle
 62
7
  6
CONTINUOUS
 10
12.439488201
 20
2.4937023128
 40
0.0024749995
100
AcDbArc
 50
179.9999571957
 51
270.0000428043
  0
ARC
  5
34E
100
AcDbEntity
  8
0
100
AcDbCircle
 62
7
  6
CONTINUOUS
 10
12.5168642476
 20
2.4937023128
 40
0.0024749995
100
AcDbArc
 50
269.9999571957
 51
0.0000428043
  0
ARC
  5
34F
100
AcDbEntity
  8
0
100
AcDbCircle
 62
7
  6
CONTINUOUS
 10
12.371573659
 20
2.5302846524
 40
0.061747717
100
AcDbArc
 50
59.5385584989
 51
90.0050977555
  0
ARC
  5
350
100
AcDbEntity
  8
0
100
AcDbCircle
 62
7
  6
CONTINUOUS
 10
12.3792298263
 20
2.539634765
 40
0.048483885
100
AcDbArc
 50
273.21763719
 51
303.0749121182
  0
ARC
  5
351
100
AcDbEntity
  8
0
100
AcDbCircle
 62
7
  6
CONTINUOUS
 10
12.3931760319
 20
2.5166878286
 40
0.0222174455
100
AcDbArc
 50
4.0793399388
 51
69.834329283
  0
ARC
  5
352
100
AcDbEntity
  8
0
100
AcDbCircle
 62
7
  6
CONTINUOUS
 10
12.3940692204
 20
2.5168671561
 40
0.0213072145
100
AcDbArc
 50
303.0488228549
 51
355.7263138674
  0
ARC
  5
353
100
AcDbEntity
  8
0
100
AcDbCircle
 62
7
  6
CONTINUOUS
 10
12.400005721
 20
2.5168763464
 40
0.0153945295
100
AcDbArc
 50
354.0454548824
 51
5.1878013979
  0
ARC
  5
354
100
AcDbEntity
  8
0
100
AcDbCircle
 62
7
  6
CONTINUOUS
 10
12.3362731456
 20
2.5246398318
 40
0.0086625048
100
AcDbArc
 50
270.0
 51
90.0
  0
ARC
  5
355
100
AcDbEntity
  8
0
100
AcDbCircle
 62
7
  6
CONTINUOUS
 10
12.5459747223
 20
2.5271458744
 40
0.0024754602
100
AcDbArc
 50
32.8959418573
 51
89.9875097202
  0
ARC
  5
356
100
AcDbEntity
  8
0
100
AcDbCircle
 62
7
  6
CONTINUOUS
 10
12.4623492858
 20
2.5184525273
 40
0.0024752003
100
AcDbArc
 50
269.9983726451
 51
327.602165307
  0
ARC
  5
357
100
AcDbEntity
  8
0
100
AcDbCircle
 62
7
  6
CONTINUOUS
 10
12.5110971723
 20
2.5271461342
 40
0.0024752003
100
AcDbArc
 50
89.998372645
 51
147.602165307
  0
ARC
  5
358
100
AcDbEntity
  8
0
100
AcDbCircle
 62
7
  6
CONTINUOUS
 10
12.5055811302
 20
2.518452367
 40
0.0024750401
100
AcDbArc
 50
147.6063258011
 51
270.0025305754
  0
ARC
  5
359
100
AcDbEntity
  8
0
100
AcDbCircle
 62
7
  6
CONTINUOUS
 10
12.2294470882
 20
2.5184523265
 40
0.0024749995
100
AcDbArc
 50
269.9999571957
 51
0.0000428043
  0
ARC
  5
35A
100
AcDbEntity
  8
0
100
AcDbCircle
 62
7
  6
CONTINUOUS
 10
12.2055050712
 20
2.5135023274
 40
0.0024749995
100
AcDbArc
 50
89.9999571957
 51
180.0000428043
  0
ARC
  5
35B
100
AcDbEntity
  8
0
100
AcDbCircle
 62
7
  6
CONTINUOUS
 10
12.2949101208
 20
2.530827337
 40
0.0024749995
100
AcDbArc
 50
89.9999571957
 51
180.0000428043
  0
ARC
  5
35C
100
AcDbEntity
  8
0
100
AcDbCircle
 62
7
  6
CONTINUOUS
 10
12.2949101208
 20
2.5184523265
 40
0.0024749995
100
AcDbArc
 50
179.9999571957
 51
270.0000428043
  0
ARC
  5
35D
100
AcDbEntity
  8
0
100
AcDbCircle
 62
7
  6
CONTINUOUS
 10
12.5371502552
 20
2.5135023274
 40
0.0024749995
100
AcDbArc
 50
89.9999571957
 51
180.0000428043
  0
ARC
  5
35E
100
AcDbEntity
  8
0
100
AcDbCircle
 62
7
  6
CONTINUOUS
 10
12.439488201
 20
2.5135023274
 40
0.0024749995
100
AcDbArc
 50
89.9999571957
 51
180.0000428043
  0
ARC
  5
35F
100
AcDbEntity
  8
0
100
AcDbCircle
 62
7
  6
CONTINUOUS
 10
12.5168642476
 20
2.5135023274
 40
0.0024749995
100
AcDbArc
 50
359.9999571957
 51
90.0000428043
  0
ARC
  5
360
100
AcDbEntity
  8
0
100
AcDbCircle
 62
7
  6
CONTINUOUS
 10
12.3771587979
 20
2.5826952352
 40
0.0428289026
100
AcDbArc
 50
300.6990502959
 51
319.0591802498
  0
ARC
  5
361
100
AcDbEntity
  8
0
100
AcDbCircle
 62
7
  6
CONTINUOUS
 10
12.3922357827
 20
2.5632132173
 40
0.0229166529
100
AcDbArc
 50
20.6563876465
 51
62.3316896973
  0
ARC
  5
362
100
AcDbEntity
  8
0
100
AcDbCircle
 62
7
  6
CONTINUOUS
 10
12.3971873948
 20
2.5665668817
 40
0.0171568255
100
AcDbArc
 50
315.9145124245
 51
16.0049121282
  0
ARC
  5
363
100
AcDbEntity
  8
0
100
AcDbCircle
 62
7
  6
CONTINUOUS
 10
12.3362731456
 20
2.5586198506
 40
0.0086625048
100
AcDbArc
 50
270.0
 51
90.0
  0
ARC
  5
364
100
AcDbEntity
  8
0
100
AcDbCircle
 62
7
  6
CONTINUOUS
 10
12.532910715
 20
2.564262895
 40
0.0024754602
100
AcDbArc
 50
32.8959418573
 51
89.9875097202
  0
ARC
  5
365
100
AcDbEntity
  8
0
100
AcDbCircle
 62
7
  6
CONTINUOUS
 10
12.5401702375
 20
2.5530465533
 40
0.0024752071
100
AcDbArc
 50
270.0004896793
 51
32.9089806818
  0
ARC
  5
366
100
AcDbEntity
  8
0
100
AcDbCircle
 62
7
  6
CONTINUOUS
 10
12.5267301809
 20
2.5642631548
 40
0.0024752003
100
AcDbArc
 50
89.998372645
 51
147.602165307
  0
ARC
  5
367
100
AcDbEntity
  8
0
100
AcDbCircle
 62
7
  6
CONTINUOUS
 10
12.5133291735
 20
2.5895571688
 40
0.0024752003
100
AcDbArc
 50
89.9983726451
 51
147.602165307
  0
ARC
  5
368
100
AcDbEntity
  8
0
100
AcDbCircle
 62
7
  6
CONTINUOUS
 10
12.519613138
 20
2.5530463862
 40
0.0024750401
100
AcDbArc
 50
147.6063258012
 51
270.0025305754
  0
ARC
  5
369
100
AcDbEntity
  8
0
100
AcDbCircle
 62
7
  6
CONTINUOUS
 10
12.2055050712
 20
2.5895573696
 40
0.0024749995
100
AcDbArc
 50
89.9999571957
 51
180.0000428043
  0
ARC
  5
36A
100
AcDbEntity
  8
0
100
AcDbCircle
 62
7
  6
CONTINUOUS
 10
12.2055050712
 20
2.5697573549
 40
0.0024749995
100
AcDbArc
 50
179.9999571957
 51
270.0000428043
  0
ARC
  5
36B
100
AcDbEntity
  8
0
100
AcDbCircle
 62
7
  6
CONTINUOUS
 10
12.2294470882
 20
2.5648073559
 40
0.0024749995
100
AcDbArc
 50
359.9999571957
 51
90.0000428043
  0
ARC
  5
36C
100
AcDbEntity
  8
0
100
AcDbCircle
 62
7
  6
CONTINUOUS
 10
12.2949101208
 20
2.5648073559
 40
0.0024749995
100
AcDbArc
 50
89.9999571957
 51
180.0000428043
  0
ARC
  5
36D
100
AcDbEntity
  8
0
100
AcDbCircle
 62
7
  6
CONTINUOUS
 10
12.2949101208
 20
2.5524323453
 40
0.0024749995
100
AcDbArc
 50
179.9999571957
 51
270.0000428043
  0
ARC
  5
36E
100
AcDbEntity
  8
0
100
AcDbCircle
 62
7
  6
CONTINUOUS
 10
12.8362481229
 20
2.5358592748
 40
0.0024753014
100
AcDbArc
 50
226.3461263059
 51
0.0014637321
  0
ARC
  5
36F
100
AcDbEntity
  8
0
100
AcDbCircle
 62
7
  6
CONTINUOUS
 10
12.7276876627
 20
2.5504984093
 40
0.0024753014
100
AcDbArc
 50
46.3461263059
 51
180.0014637321
  0
ARC
  5
370
100
AcDbEntity
  8
0
100
AcDbCircle
 62
7
  6
CONTINUOUS
 10
12.5516012439
 20
2.5184525341
 40
0.0024752071
100
AcDbArc
 50
270.0004896794
 51
32.9089806818
  0
ARC
  5
371
100
AcDbEntity
  8
0
100
AcDbCircle
 62
7
  6
CONTINUOUS
 10
12.7276873608
 20
2.5184523265
 40
0.0024749995
100
AcDbArc
 50
179.9999571957
 51
270.0000428043
  0
ARC
  5
372
100
AcDbEntity
  8
0
100
AcDbCircle
 62
7
  6
CONTINUOUS
 10
12.7480043758
 20
2.5135023274
 40
0.0024749995
100
AcDbArc
 50
359.9999571957
 51
90.0000428043
  0
ARC
  5
373
100
AcDbEntity
  8
0
100
AcDbCircle
 62
7
  6
CONTINUOUS
 10
12.6723403301
 20
2.5135023274
 40
0.0024749995
100
AcDbArc
 50
89.9999571957
 51
180.0000428043
  0
ARC
  5
374
100
AcDbEntity
  8
0
100
AcDbCircle
 62
7
  6
CONTINUOUS
 10
12.6909873442
 20
2.5184523265
 40
0.0024749995
100
AcDbArc
 50
269.9999571957
 51
0.0000428043
  0
ARC
  5
375
100
AcDbEntity
  8
0
100
AcDbCircle
 62
7
  6
CONTINUOUS
 10
12.6424313172
 20
2.5135023274
 40
0.0024749995
100
AcDbArc
 50
359.9999571957
 51
90.0000428043
  0
ARC
  5
376
100
AcDbEntity
  8
0
100
AcDbCircle
 62
7
  6
CONTINUOUS
 10
12.6224154248
 20
2.518451368
 40
0.002474041
100
AcDbArc
 50
212.9056413127
 51
269.9972091756
  0
ARC
  5
377
100
AcDbEntity
  8
0
100
AcDbCircle
 62
7
  6
CONTINUOUS
 10
12.8362484247
 20
2.5648073559
 40
0.0024749995
100
AcDbArc
 50
359.9999571957
 51
90.0000428043
  0
ARC
  5
378
100
AcDbEntity
  8
0
100
AcDbCircle
 62
7
  6
CONTINUOUS
 10
12.8174724106
 20
2.5697573549
 40
0.0024749995
100
AcDbArc
 50
179.9999571957
 51
270.0000428043
  0
ARC
  5
379
100
AcDbEntity
  8
0
100
AcDbCircle
 62
7
  6
CONTINUOUS
 10
12.8174724106
 20
2.5895573696
 40
0.0024749995
100
AcDbArc
 50
89.9999571957
 51
180.0000428043
  0
ARC
  5
37A
100
AcDbEntity
  8
0
100
AcDbCircle
 62
7
  6
CONTINUOUS
 10
12.8914734553
 20
2.5895573696
 40
0.0024749995
100
AcDbArc
 50
359.9999571957
 51
90.0000428043
  0
ARC
  5
37B
100
AcDbEntity
  8
0
100
AcDbCircle
 62
7
  6
CONTINUOUS
 10
12.8914734553
 20
2.5697573549
 40
0.0024749995
100
AcDbArc
 50
269.9999571957
 51
0.0000428043
  0
ARC
  5
37C
100
AcDbEntity
  8
0
100
AcDbCircle
 62
7
  6
CONTINUOUS
 10
12.8735404417
 20
2.5648073559
 40
0.0024749995
100
AcDbArc
 50
89.9999571957
 51
180.0000428043
  0
ARC
  5
37D
100
AcDbEntity
  8
0
100
AcDbCircle
 62
7
  6
CONTINUOUS
 10
12.6909873442
 20
2.5648073559
 40
0.0024749995
100
AcDbArc
 50
359.9999571957
 51
90.0000428043
  0
ARC
  5
37E
100
AcDbEntity
  8
0
100
AcDbCircle
 62
7
  6
CONTINUOUS
 10
12.6723403301
 20
2.5697573549
 40
0.0024749995
100
AcDbArc
 50
179.9999571957
 51
270.0000428043
  0
ARC
  5
37F
100
AcDbEntity
  8
0
100
AcDbCircle
 62
7
  6
CONTINUOUS
 10
12.6723403301
 20
2.5895573696
 40
0.0024749995
100
AcDbArc
 50
89.9999571957
 51
180.0000428043
  0
ARC
  5
380
100
AcDbEntity
  8
0
100
AcDbCircle
 62
7
  6
CONTINUOUS
 10
12.570504655
 20
2.589557409
 40
0.0024749602
100
AcDbArc
 50
32.9172174468
 51
90.0087853097
  0
ARC
  5
381
100
AcDbEntity
  8
0
100
AcDbCircle
 62
7
  6
CONTINUOUS
 10
12.7727985224
 20
2.5895582013
 40
0.0024741678
100
AcDbArc
 50
46.3477981899
 51
90.0031206038
  0
ARC
  5
382
100
AcDbEntity
  8
0
100
AcDbCircle
 62
7
  6
CONTINUOUS
 10
13.5463505148
 20
2.4094934586
 40
0.1825583387
100
AcDbArc
 50
79.8618509324
 51
89.1640948679
  0
ARC
  5
383
100
AcDbEntity
  8
0
100
AcDbCircle
 62
7
  6
CONTINUOUS
 10
13.5282557878
 20
2.4386010294
 40
0.117346916
100
AcDbArc
 50
58.614769177
 51
62.3737227606
  0
ARC
  5
384
100
AcDbEntity
  8
0
100
AcDbCircle
 62
7
  6
CONTINUOUS
 10
13.5571178432
 20
2.509473798
 40
0.0459185159
100
AcDbArc
 50
15.6740290068
 51
20.9917271228
  0
ARC
  5
385
100
AcDbEntity
  8
0
100
AcDbCircle
 62
7
  6
CONTINUOUS
 10
13.4974076135
 20
2.5055452462
 40
0.0396099176
100
AcDbArc
 50
14.3201081283
 51
22.4984722084
  0
ARC
  5
386
100
AcDbEntity
  8
0
100
AcDbCircle
 62
7
  6
CONTINUOUS
 10
13.5161192671
 20
2.5062372524
 40
0.0243676582
100
AcDbArc
 50
63.3666028271
 51
90.3937697637
  0
ARC
  5
387
100
AcDbEntity
  8
0
100
AcDbCircle
 62
7
  6
CONTINUOUS
 10
13.6036139387
 20
2.5111006186
 40
0.0198837666
100
AcDbArc
 50
271.8586572978
 51
289.4131338543
  0
ARC
  5
388
100
AcDbEntity
  8
0
100
AcDbCircle
 62
7
  6
CONTINUOUS
 10
13.5577001432
 20
2.5085494649
 40
0.0173408616
100
AcDbArc
 50
232.4713476722
 51
267.338189944
  0
ARC
  5
389
100
AcDbEntity
  8
0
100
AcDbCircle
 62
7
  6
CONTINUOUS
 10
13.5130038
 20
2.4937023128
 40
0.0024749995
100
AcDbArc
 50
269.9999571957
 51
0.0000428043
  0
ARC
  5
38A
100
AcDbEntity
  8
0
100
AcDbCircle
 62
7
  6
CONTINUOUS
 10
13.3994327333
 20
2.4937023128
 40
0.0024749995
100
AcDbArc
 50
179.9999571957
 51
270.0000428043
  0
ARC
  5
38B
100
AcDbEntity
  8
0
100
AcDbCircle
 62
7
  6
CONTINUOUS
 10
13.1168435803
 20
2.4937023128
 40
0.0024749995
100
AcDbArc
 50
269.9999571957
 51
0.0000428043
  0
ARC
  5
38C
100
AcDbEntity
  8
0
100
AcDbCircle
 62
7
  6
CONTINUOUS
 10
12.9962575135
 20
2.4937023128
 40
0.0024749995
100
AcDbArc
 50
269.9999571957
 51
0.0000428043
  0
ARC
  5
38D
100
AcDbEntity
  8
0
100
AcDbCircle
 62
7
  6
CONTINUOUS
 10
12.9205934678
 20
2.4937023128
 40
0.0024749995
100
AcDbArc
 50
179.9999571957
 51
270.0000428043
  0
ARC
  5
38E
100
AcDbEntity
  8
0
100
AcDbCircle
 62
7
  6
CONTINUOUS
 10
13.370528721
 20
2.4937023128
 40
0.0024749995
100
AcDbArc
 50
269.9999571957
 51
0.0000428043
  0
ARC
  5
38F
100
AcDbEntity
  8
0
100
AcDbCircle
 62
7
  6
CONTINUOUS
 10
13.1673166046
 20
2.4937023128
 40
0.0024749995
100
AcDbArc
 50
179.9999571957
 51
270.0000428043
  0
ARC
  5
390
100
AcDbEntity
  8
0
100
AcDbCircle
 62
7
  6
CONTINUOUS
 10
13.0426374026
 20
2.493701481
 40
0.0024741678
100
AcDbArc
 50
226.3477981898
 51
270.0031206038
  0
ARC
  5
391
100
AcDbEntity
  8
0
100
AcDbCircle
 62
7
  6
CONTINUOUS
 10
13.0845012605
 20
2.5358592748
 40
0.0024753014
100
AcDbArc
 50
226.3461263059
 51
0.0014637321
  0
ARC
  5
392
100
AcDbEntity
  8
0
100
AcDbCircle
 62
7
  6
CONTINUOUS
 10
12.9759408003
 20
2.5504984093
 40
0.0024753014
100
AcDbArc
 50
46.3461263059
 51
180.0014637321
  0
ARC
  5
393
100
AcDbEntity
  8
0
100
AcDbCircle
 62
7
  6
CONTINUOUS
 10
12.9759404985
 20
2.5184523265
 40
0.0024749995
100
AcDbArc
 50
179.9999571957
 51
270.0000428043
  0
ARC
  5
394
100
AcDbEntity
  8
0
100
AcDbCircle
 62
7
  6
CONTINUOUS
 10
12.9962575135
 20
2.5135023274
 40
0.0024749995
100
AcDbArc
 50
359.9999571957
 51
90.0000428043
  0
ARC
  5
395
100
AcDbEntity
  8
0
100
AcDbCircle
 62
7
  6
CONTINUOUS
 10
12.9205934678
 20
2.5135023274
 40
0.0024749995
100
AcDbArc
 50
89.9999571957
 51
180.0000428042
  0
ARC
  5
396
100
AcDbEntity
  8
0
100
AcDbCircle
 62
7
  6
CONTINUOUS
 10
12.9392394818
 20
2.5184523265
 40
0.0024749995
100
AcDbArc
 50
269.9999571957
 51
0.0000428043
  0
ARC
  5
397
100
AcDbEntity
  8
0
100
AcDbCircle
 62
7
  6
CONTINUOUS
 10
13.2582556551
 20
2.5300023366
 40
0.0024749995
100
AcDbArc
 50
89.9999571957
 51
180.0000428043
  0
ARC
  5
398
100
AcDbEntity
  8
0
100
AcDbCircle
 62
7
  6
CONTINUOUS
 10
13.2582556551
 20
2.5184523265
 40
0.0024749995
100
AcDbArc
 50
179.9999571957
 51
270.0000428043
  0
ARC
  5
399
100
AcDbEntity
  8
0
100
AcDbCircle
 62
7
  6
CONTINUOUS
 10
13.1673166046
 20
2.5135023274
 40
0.0024749995
100
AcDbArc
 50
89.9999571957
 51
180.0000428043
  0
ARC
  5
39A
100
AcDbEntity
  8
0
100
AcDbCircle
 62
7
  6
CONTINUOUS
 10
13.1912396216
 20
2.5184523265
 40
0.0024749995
100
AcDbArc
 50
269.9999571957
 51
0.0000428042
  0
ARC
  5
39B
100
AcDbEntity
  8
0
100
AcDbCircle
 62
7
  6
CONTINUOUS
 10
13.2582556551
 20
2.5532573458
 40
0.0024749995
100
AcDbArc
 50
179.9999571957
 51
270.0000428043
  0
ARC
  5
39C
100
AcDbEntity
  8
0
100
AcDbCircle
 62
7
  6
CONTINUOUS
 10
13.0845015624
 20
2.5648073559
 40
0.0024749995
100
AcDbArc
 50
359.9999571957
 51
90.0000428043
  0
ARC
  5
39D
100
AcDbEntity
  8
0
100
AcDbCircle
 62
7
  6
CONTINUOUS
 10
13.0657255483
 20
2.5697573549
 40
0.0024749995
100
AcDbArc
 50
179.9999571957
 51
270.0000428043
  0
ARC
  5
39E
100
AcDbEntity
  8
0
100
AcDbCircle
 62
7
  6
CONTINUOUS
 10
13.0657255483
 20
2.5895573696
 40
0.0024749995
100
AcDbArc
 50
89.9999571957
 51
180.0000428043
  0
ARC
  5
39F
100
AcDbEntity
  8
0
100
AcDbCircle
 62
7
  6
CONTINUOUS
 10
13.139726593
 20
2.5895573696
 40
0.0024749995
100
AcDbArc
 50
359.9999571957
 51
90.0000428043
  0
ARC
  5
3A0
100
AcDbEntity
  8
0
100
AcDbCircle
 62
7
  6
CONTINUOUS
 10
13.139726593
 20
2.5697573549
 40
0.0024749995
100
AcDbArc
 50
269.9999571957
 51
0.0000428042
  0
ARC
  5
3A1
100
AcDbEntity
  8
0
100
AcDbCircle
 62
7
  6
CONTINUOUS
 10
13.1217935794
 20
2.5648073559
 40
0.0024749995
100
AcDbArc
 50
89.9999571957
 51
180.0000428042
  0
ARC
  5
3A2
100
AcDbEntity
  8
0
100
AcDbCircle
 62
7
  6
CONTINUOUS
 10
12.9392394818
 20
2.5648073559
 40
0.0024749995
100
AcDbArc
 50
359.9999571957
 51
90.0000428043
  0
ARC
  5
3A3
100
AcDbEntity
  8
0
100
AcDbCircle
 62
7
  6
CONTINUOUS
 10
12.9205934678
 20
2.5697573549
 40
0.0024749995
100
AcDbArc
 50
179.9999571957
 51
270.0000428043
  0
ARC
  5
3A4
100
AcDbEntity
  8
0
100
AcDbCircle
 62
7
  6
CONTINUOUS
 10
12.9205934678
 20
2.5895573696
 40
0.0024749995
100
AcDbArc
 50
89.9999571957
 51
180.0000428042
  0
ARC
  5
3A5
100
AcDbEntity
  8
0
100
AcDbCircle
 62
7
  6
CONTINUOUS
 10
13.1912396216
 20
2.5648073559
 40
0.0024749995
100
AcDbArc
 50
359.9999571957
 51
90.0000428043
  0
ARC
  5
3A6
100
AcDbEntity
  8
0
100
AcDbCircle
 62
7
  6
CONTINUOUS
 10
13.1673166046
 20
2.5697573549
 40
0.0024749995
100
AcDbArc
 50
179.9999571957
 51
270.0000428043
  0
ARC
  5
3A7
100
AcDbEntity
  8
0
100
AcDbCircle
 62
7
  6
CONTINUOUS
 10
13.1673166046
 20
2.5895573696
 40
0.0024749995
100
AcDbArc
 50
89.9999571957
 51
180.0000428043
  0
ARC
  5
3A8
100
AcDbEntity
  8
0
100
AcDbCircle
 62
7
  6
CONTINUOUS
 10
13.2582556551
 20
2.5648073559
 40
0.0024749995
100
AcDbArc
 50
89.9999571957
 51
180.0000428043
  0
ARC
  5
3A9
100
AcDbEntity
  8
0
100
AcDbCircle
 62
7
  6
CONTINUOUS
 10
13.0210516601
 20
2.5895582013
 40
0.0024741678
100
AcDbArc
 50
46.3477981899
 51
90.0031206038
  0
ARC
  5
3AA
100
AcDbEntity
  8
0
100
AcDbCircle
 62
7
  6
CONTINUOUS
 10
13.5806801742
 20
2.5212486481
 40
0.044722495
100
AcDbArc
 50
195.531588407
 51
204.7624440448
  0
ARC
  5
3AB
100
AcDbEntity
  8
0
100
AcDbCircle
 62
7
  6
CONTINUOUS
 10
13.5726548052
 20
2.5503169747
 40
0.039319019
100
AcDbArc
 50
59.1202086415
 51
81.4730239328
  0
ARC
  5
3AC
100
AcDbEntity
  8
0
100
AcDbCircle
 62
7
  6
CONTINUOUS
 10
13.5978759713
 20
2.5286873679
 40
0.0383802683
100
AcDbArc
 50
288.7656836787
 51
309.6104317088
  0
ARC
  5
3AD
100
AcDbEntity
  8
0
100
AcDbCircle
 62
7
  6
CONTINUOUS
 10
13.5783142014
 20
2.5566516438
 40
0.0310192946
100
AcDbArc
 50
34.7540871
 51
62.0879016178
  0
ARC
  5
3AE
100
AcDbEntity
  8
0
100
AcDbCircle
 62
7
  6
CONTINUOUS
 10
13.5236009174
 20
2.5388278764
 40
0.0284963867
100
AcDbArc
 50
70.3834917948
 51
86.8922743861
  0
ARC
  5
3AF
100
AcDbEntity
  8
0
100
AcDbCircle
 62
7
  6
CONTINUOUS
 10
13.6048681567
 20
2.5210861501
 40
0.0280715479
100
AcDbArc
 50
308.5071794988
 51
332.24006569
  0
ARC
  5
3B0
100
AcDbEntity
  8
0
100
AcDbCircle
 62
7
  6
CONTINUOUS
 10
13.5750183849
 20
2.5166552064
 40
0.0266349791
100
AcDbArc
 50
20.3630922153
 51
37.9727053099
  0
ARC
  5
3B1
100
AcDbEntity
  8
0
100
AcDbCircle
 62
7
  6
CONTINUOUS
 10
13.5761387404
 20
2.5167282896
 40
0.0257145923
100
AcDbArc
 50
39.3804255939
 51
59.0361096173
  0
ARC
  5
3B2
100
AcDbEntity
  8
0
100
AcDbCircle
 62
7
  6
CONTINUOUS
 10
13.5607987082
 20
2.5143997688
 40
0.0238935861
100
AcDbArc
 50
209.8247607259
 51
235.1255079367
  0
ARC
  5
3B3
100
AcDbEntity
  8
0
100
AcDbCircle
 62
7
  6
CONTINUOUS
 10
13.6141751675
 20
2.5161916447
 40
0.0175560065
100
AcDbArc
 50
332.2279060967
 51
359.6595469939
  0
ARC
  5
3B4
100
AcDbEntity
  8
0
100
AcDbCircle
 62
7
  6
CONTINUOUS
 10
13.5201739219
 20
2.5145168728
 40
0.0151491919
100
AcDbArc
 50
24.098260853
 51
63.0369451818
  0
ARC
  5
3B5
100
AcDbEntity
  8
0
100
AcDbCircle
 62
7
  6
CONTINUOUS
 10
13.6156881783
 20
2.525116781
 40
0.0147197649
100
AcDbArc
 50
192.7054516565
 51
206.0594861022
  0
ARC
  5
3B6
100
AcDbEntity
  8
0
100
AcDbCircle
 62
7
  6
CONTINUOUS
 10
13.5284605274
 20
2.5518696094
 40
0.0145814632
100
AcDbArc
 50
54.6746025112
 51
71.1660573124
  0
ARC
  5
3B7
100
AcDbEntity
  8
0
100
AcDbCircle
 62
7
  6
CONTINUOUS
 10
13.6063292954
 20
2.5296129864
 40
0.0132488022
100
AcDbArc
 50
270.266200055
 51
281.2404888597
  0
ARC
  5
3B8
100
AcDbEntity
  8
0
100
AcDbCircle
 62
7
  6
CONTINUOUS
 10
13.6027235414
 20
2.524769508
 40
0.0119498009
100
AcDbArc
 50
340.7883861657
 51
1.1691452593
  0
ARC
  5
3B9
100
AcDbEntity
  8
0
100
AcDbCircle
 62
7
  6
CONTINUOUS
 10
13.5295131508
 20
2.5629115009
 40
0.0110815393
100
AcDbArc
 50
306.758405961
 51
320.4502234234
  0
ARC
  5
3BA
100
AcDbEntity
  8
0
100
AcDbCircle
 62
7
  6
CONTINUOUS
 10
13.6075235364
 20
2.5238762928
 40
0.0073895522
100
AcDbArc
 50
280.8288201977
 51
305.0837508495
  0
ARC
  5
3BB
100
AcDbEntity
  8
0
100
AcDbCircle
 62
7
  6
CONTINUOUS
 10
13.607924718
 20
2.5230254464
 40
0.0064647042
100
AcDbArc
 50
306.5086174083
 51
340.2162360092
  0
ARC
  5
3BC
100
AcDbEntity
  8
0
100
AcDbCircle
 62
7
  6
CONTINUOUS
 10
13.5335900184
 20
2.5587235346
 40
0.0060275915
100
AcDbArc
 50
20.9055592135
 51
56.7851676243
  0
ARC
  5
3BD
100
AcDbEntity
  8
0
100
AcDbCircle
 62
7
  6
CONTINUOUS
 10
13.533683767
 20
2.559677593
 40
0.0058087709
100
AcDbArc
 50
318.8515287446
 51
353.6422345323
  0
ARC
  5
3BE
100
AcDbEntity
  8
0
100
AcDbCircle
 62
7
  6
CONTINUOUS
 10
13.6071938412
 20
2.5209082945
 40
0.0052403997
100
AcDbArc
 50
205.5232099488
 51
227.5054868079
  0
ARC
  5
3BF
100
AcDbEntity
  8
0
100
AcDbCircle
 62
7
  6
CONTINUOUS
 10
13.5348905773
 20
2.5593838168
 40
0.0045795888
100
AcDbArc
 50
355.6235353944
 51
18.9942678268
  0
ARC
  5
3C0
100
AcDbEntity
  8
0
100
AcDbCircle
 62
7
  6
CONTINUOUS
 10
13.6054655419
 20
2.5190929218
 40
0.0027347709
100
AcDbArc
 50
228.5117626737
 51
266.1485845754
  0
ARC
  5
3C1
100
AcDbEntity
  8
0
100
AcDbCircle
 62
7
  6
CONTINUOUS
 10
13.4883447827
 20
2.5281293355
 40
0.0024749995
100
AcDbArc
 50
89.9999571957
 51
180.0000428043
  0
ARC
  5
3C2
100
AcDbEntity
  8
0
100
AcDbCircle
 62
7
  6
CONTINUOUS
 10
13.4883447827
 20
2.5184303265
 40
0.0024749995
100
AcDbArc
 50
179.9999571957
 51
270.0000428043
  0
ARC
  5
3C3
100
AcDbEntity
  8
0
100
AcDbCircle
 62
7
  6
CONTINUOUS
 10
13.5130038
 20
2.5134803274
 40
0.0024749995
100
AcDbArc
 50
359.9999571957
 51
90.0000428043
  0
ARC
  5
3C4
100
AcDbEntity
  8
0
100
AcDbCircle
 62
7
  6
CONTINUOUS
 10
13.3994327333
 20
2.5135023274
 40
0.0024749995
100
AcDbArc
 50
89.9999571957
 51
180.0000428043
  0
ARC
  5
3C5
100
AcDbEntity
  8
0
100
AcDbCircle
 62
7
  6
CONTINUOUS
 10
13.4221787497
 20
2.5184523265
 40
0.0024749995
100
AcDbArc
 50
269.9999571957
 51
0.0000428042
  0
ARC
  5
3C6
100
AcDbEntity
  8
0
100
AcDbCircle
 62
7
  6
CONTINUOUS
 10
13.6171458541
 20
2.5276393353
 40
0.0024749995
100
AcDbArc
 50
89.9999571957
 51
180.0000428043
  0
ARC
  5
3C7
100
AcDbEntity
  8
0
100
AcDbCircle
 62
7
  6
CONTINUOUS
 10
13.6292558645
 20
2.5276393353
 40
0.0024749995
100
AcDbArc
 50
359.9999571957
 51
90.0000428043
  0
ARC
  5
3C8
100
AcDbEntity
  8
0
100
AcDbCircle
 62
7
  6
CONTINUOUS
 10
13.4883447827
 20
2.5520823451
 40
0.0024749995
100
AcDbArc
 50
179.9999571957
 51
270.0000428043
  0
ARC
  5
3C9
100
AcDbEntity
  8
0
100
AcDbCircle
 62
7
  6
CONTINUOUS
 10
13.3232596948
 20
2.5184523265
 40
0.0024749995
100
AcDbArc
 50
269.9999571957
 51
0.0000428043
  0
ARC
  5
3CA
100
AcDbEntity
  8
0
100
AcDbCircle
 62
7
  6
CONTINUOUS
 10
13.3282096938
 20
2.5267023348
 40
0.0024749995
100
AcDbArc
 50
89.9999571957
 51
180.0000428043
  0
ARC
  5
3CB
100
AcDbEntity
  8
0
100
AcDbCircle
 62
7
  6
CONTINUOUS
 10
13.370528721
 20
2.5267023348
 40
0.0024749995
100
AcDbArc
 50
359.9999571957
 51
90.0000428043
  0
ARC
  5
3CC
100
AcDbEntity
  8
0
100
AcDbCircle
 62
7
  6
CONTINUOUS
 10
13.3691097202
 20
2.5565573476
 40
0.0024749995
100
AcDbArc
 50
269.9999571957
 51
0.0000428042
  0
ARC
  5
3CD
100
AcDbEntity
  8
0
100
AcDbCircle
 62
7
  6
CONTINUOUS
 10
13.3272456933
 20
2.5565573476
 40
0.0024749995
100
AcDbArc
 50
179.9999571957
 51
270.0000428043
  0
ARC
  5
3CE
100
AcDbEntity
  8
0
100
AcDbCircle
 62
7
  6
CONTINUOUS
 10
13.2934226783
 20
2.5483073467
 40
0.0024749995
100
AcDbArc
 50
359.9999571957
 51
90.0000428043
  0
ARC
  5
3CF
100
AcDbEntity
  8
0
100
AcDbCircle
 62
7
  6
CONTINUOUS
 10
13.2934226783
 20
2.5349523356
 40
0.0024749995
100
AcDbArc
 50
269.9999571957
 51
0.0000428042
  0
ARC
  5
3D0
100
AcDbEntity
  8
0
100
AcDbCircle
 62
7
  6
CONTINUOUS
 10
13.5519569538
 20
2.6152551345
 40
0.0789082104
100
AcDbArc
 50
292.906155071
 51
305.2574666259
  0
ARC
  5
3D1
100
AcDbEntity
  8
0
100
AcDbCircle
 62
7
  6
CONTINUOUS
 10
13.5822888914
 20
2.5720482849
 40
0.0261183659
100
AcDbArc
 50
305.6373831893
 51
329.9727629745
  0
ARC
  5
3D2
100
AcDbEntity
  8
0
100
AcDbCircle
 62
7
  6
CONTINUOUS
 10
13.5219564542
 20
2.5750459767
 40
0.0254407115
100
AcDbArc
 50
270.7327484175
 51
290.441894219
  0
ARC
  5
3D3
100
AcDbEntity
  8
0
100
AcDbCircle
 62
7
  6
CONTINUOUS
 10
13.5238839599
 20
2.5706523294
 40
0.0206523367
100
AcDbArc
 50
289.6883413472
 51
306.4184925496
  0
ARC
  5
3D4
100
AcDbEntity
  8
0
100
AcDbCircle
 62
7
  6
CONTINUOUS
 10
13.5900029525
 20
2.565201245
 40
0.0165459396
100
AcDbArc
 50
1.548452892
 51
33.5033152417
  0
ARC
  5
3D5
100
AcDbEntity
  8
0
100
AcDbCircle
 62
7
  6
CONTINUOUS
 10
13.5932995477
 20
2.5653696972
 40
0.0132462337
100
AcDbArc
 50
331.1510006998
 51
1.205404301
  0
ARC
  5
3D6
100
AcDbEntity
  8
0
100
AcDbCircle
 62
7
  6
CONTINUOUS
 10
13.4221787497
 20
2.5648073559
 40
0.0024749995
100
AcDbArc
 50
359.9999571957
 51
90.0000428043
  0
ARC
  5
3D7
100
AcDbEntity
  8
0
100
AcDbCircle
 62
7
  6
CONTINUOUS
 10
13.3994327333
 20
2.5697573549
 40
0.0024749995
100
AcDbArc
 50
179.9999571957
 51
270.0000428043
  0
ARC
  5
3D8
100
AcDbEntity
  8
0
100
AcDbCircle
 62
7
  6
CONTINUOUS
 10
13.3994327333
 20
2.5895573696
 40
0.0024749995
100
AcDbArc
 50
89.9999571957
 51
180.0000428043
  0
ARC
  5
3D9
100
AcDbEntity
  8
0
100
AcDbCircle
 62
7
  6
CONTINUOUS
 10
13.4883447827
 20
2.5648073559
 40
0.0024749995
100
AcDbArc
 50
89.9999571957
 51
180.0000428043
  0
ARC
  5
3DA
100
AcDbEntity
  8
0
100
AcDbCircle
 62
7
  6
CONTINUOUS
 10
13.3691097202
 20
2.5895573696
 40
0.0024749995
100
AcDbArc
 50
359.9999571957
 51
90.0000428043
  0
ARC
  5
3DB
100
AcDbEntity
  8
0
100
AcDbCircle
 62
7
  6
CONTINUOUS
 10
13.3222956943
 20
2.5648073559
 40
0.0024749995
100
AcDbArc
 50
359.9999571957
 51
90.0000428043
  0
ELLIPSE
  5
3DC
100
AcDbEntity
  8
0
100
AcDbEllipse
 62
7
  6
CONTINUOUS
 10
12.9046654608
 20
2.5403783405
 30
0.0
 11
-0.8250004575
 21
0.0
 31
0.0
 40
0.218572
 41
0.0
 42
6.2831853072
  0
HATCH
  5
3DD
100
AcDbEntity
  8
0
100
AcDbHatch
 62
7
  6
CONTINUOUS
 10
0.0
 20
0.0
 30
0.0
210
0.0
220
0.0
230
1.0
  2
XSEC0001
 70
1
 71
1
 91
11
 92
1
 93
57
 72
2
 10
13.5577001432
 20
2.5085494649
 40
0.0173408616
 50
232.4713476722
 51
267.338189944
 73
1
 72
2
 10
13.5607987082
 20
2.5143997688
 40
0.0238935861
 50
209.8247607259
 51
235.1255079367
 73
1
 72
2
 10
13.5806801742
 20
2.5212486481
 40
0.044722495
 50
195.531588407
 51
204.7624440448
 73
1
 72
1
 10
13.5375908118
 20
2.5092733232
 11
13.5357868108
 21
2.5153423266
 72
2
 10
13.4974076135
 20
2.5055452462
 40
0.0396099176
 50
14.3201081283
 51
22.4984722084
 73
1
 72
2
 10
13.5201739219
 20
2.5145168728
 40
0.0151491919
 50
24.098260853
 51
63.0369451818
 73
1
 72
2
 10
13.5161192671
 20
2.5062372524
 40
0.0243676582
 50
63.3666028271
 51
90.3937697637
 73
1
 72
1
 10
13.5159517998
 20
2.5306043351
 11
13.4883447845
 21
2.5306043351
 72
2
 10
13.4883447827
 20
2.5281293355
 40
0.0024749995
 50
89.9999571958
 51
180.0000428043
 73
1
 72
1
 10
13.4858697831
 20
2.5281293337
 11
13.4858697831
 21
2.5184303283
 72
2
 10
13.4883447827
 20
2.5184303265
 40
0.0024749995
 50
179.9999571957
 51
270.0000428042
 73
1
 72
1
 10
13.4883447845
 20
2.5159553269
 11
13.5130037982
 21
2.5159553269
 72
2
 10
13.5130038
 20
2.5134803274
 40
0.0024749995
 50
359.9999571957
 51
90.0000428042
 73
1
 72
1
 10
13.5154787995
 20
2.5134803256
 11
13.5154787995
 21
2.4937023146
 72
2
 10
13.5130038
 20
2.4937023128
 40
0.0024749995
 50
269.9999571958
 51
0.0000428043
 73
1
 72
1
 10
13.5130037982
 20
2.4912273132
 11
13.3994327352
 21
2.4912273132
 72
2
 10
13.3994327333
 20
2.4937023128
 40
0.0024749995
 50
179.9999571957
 51
270.0000428043
 73
1
 72
1
 10
13.3969577338
 20
2.4937023146
 11
13.3969577338
 21
2.5135023256
 72
2
 10
13.3994327333
 20
2.5135023274
 40
0.0024749995
 50
89.9999571957
 51
180.0000428043
 73
1
 72
1
 10
13.3994327352
 20
2.515977327
 11
13.4221787478
 21
2.515977327
 72
2
 10
13.4221787497
 20
2.5184523265
 40
0.0024749995
 50
269.9999571956
 51
0.0000428042
 73
1
 72
1
 10
13.4246537492
 20
2.5184523283
 11
13.4246537492
 21
2.564807354
 72
2
 10
13.4221787497
 20
2.5648073559
 40
0.0024749995
 50
359.9999571957
 51
90.0000428043
 73
1
 72
1
 10
13.4221787478
 20
2.5672823554
 11
13.3994327352
 21
2.5672823554
 72
2
 10
13.3994327333
 20
2.5697573549
 40
0.0024749995
 50
179.9999571957
 51
270.0000428043
 73
1
 72
1
 10
13.3969577338
 20
2.5697573568
 11
13.3969577338
 21
2.5895573678
 72
2
 10
13.3994327333
 20
2.5895573696
 40
0.0024749995
 50
89.9999571957
 51
180.0000428043
 73
1
 72
1
 10
13.3994327352
 20
2.5920323691
 11
13.5490138181
 21
2.5920323691
 72
2
 10
13.5463505148
 20
2.4094934586
 40
0.1825583387
 50
79.8618509324
 51
89.1640948679
 73
1
 72
2
 10
13.5726548052
 20
2.5503169747
 40
0.039319019
 50
59.1202086415
 51
81.4730239328
 73
1
 72
2
 10
13.5783142014
 20
2.5566516438
 40
0.0310192946
 50
34.7540871
 51
62.0879016178
 73
1
 72
2
 10
13.5900029525
 20
2.565201245
 40
0.0165459396
 50
1.548452892
 51
33.5033152417
 73
1
 72
2
 10
13.5932995477
 20
2.5653696972
 40
0.0132462337
 50
331.1510006998
 51
1.205404301
 73
1
 72
2
 10
13.5822888914
 20
2.5720482849
 40
0.0261183659
 50
305.6373831893
 51
329.9727629745
 73
1
 72
2
 10
13.5519569538
 20
2.6152551345
 40
0.0789082104
 50
292.906155071
 51
305.2574666259
 73
1
 72
2
 10
13.5282557878
 20
2.4386010294
 40
0.117346916
 50
58.614769177
 51
62.3737227606
 73
1
 72
2
 10
13.5761387404
 20
2.5167282896
 40
0.0257145923
 50
39.3804255939
 51
59.0361096173
 73
1
 72
2
 10
13.5750183849
 20
2.5166552064
 40
0.0266349791
 50
20.3630922153
 51
37.9727053099
 73
1
 72
2
 10
13.5571178432
 20
2.509473798
 40
0.0459185159
 50
15.6740290068
 51
20.9917271228
 73
1
 72
2
 10
13.6156881783
 20
2.525116781
 40
0.0147197649
 50
192.7054516565
 51
206.0594861022
 73
1
 72
2
 10
13.6071938412
 20
2.5209082945
 40
0.0052403997
 50
205.5232099488
 51
227.5054868079
 73
1
 72
2
 10
13.6054655419
 20
2.5190929218
 40
0.0027347709
 50
228.5117626737
 51
266.1485845754
 73
1
 72
1
 10
13.6052818493
 20
2.5163643272
 11
13.60639085
 21
2.5163643272
 72
2
 10
13.6063292954
 20
2.5296129864
 40
0.0132488022
 50
270.266200055
 51
281.2404888597
 73
1
 72
2
 10
13.6075235364
 20
2.5238762928
 40
0.0073895522
 50
280.8288201977
 51
305.0837508495
 73
1
 72
2
 10
13.607924718
 20
2.5230254464
 40
0.0064647042
 50
306.5086174083
 51
340.2162360092
 73
1
 72
2
 10
13.6027235414
 20
2.524769508
 40
0.0119498009
 50
340.7883861657
 51
1.1691452593
 73
1
 72
1
 10
13.6146708546
 20
2.525013332
 11
13.6146708546
 21
2.5276393334
 72
2
 10
13.6171458541
 20
2.5276393353
 40
0.0024749995
 50
89.9999571958
 51
180.0000428043
 73
1
 72
1
 10
13.6171458559
 20
2.5301143348
 11
13.6292558626
 21
2.5301143348
 72
2
 10
13.6292558645
 20
2.5276393353
 40
0.0024749995
 50
359.9999571957
 51
90.0000428042
 73
1
 72
1
 10
13.631730864
 20
2.5276393334
 11
13.631730864
 21
2.516087327
 72
2
 10
13.6141751675
 20
2.5161916447
 40
0.0175560065
 50
332.2279060967
 51
359.6595469939
 73
1
 72
2
 10
13.6048681567
 20
2.5210861501
 40
0.0280715479
 50
308.5071794988
 51
332.2400656899
 73
1
 72
2
 10
13.5978759713
 20
2.5286873679
 40
0.0383802683
 50
288.7656836787
 51
309.6104317088
 73
1
 72
2
 10
13.6036139387
 20
2.5111006186
 40
0.0198837666
 50
271.8586572978
 51
289.4131338543
 73
1
 72
1
 10
13.6042588488
 20
2.4912273132
 11
13.5568948225
 21
2.4912273132
 97
267
330
2D2
330
2D3
330
2D4
330
2D5
330
2D6
330
2D7
330
2D8
330
2D9
330
2DA
330
2DB
330
2DC
330
2DD
330
2DE
330
2DF
330
2E0
330
2E1
330
2E2
330
2E3
330
2E4
330
2E5
330
2E6
330
2E7
330
2E8
330
2E9
330
2EA
330
2EB
330
2EC
330
2ED
330
2EE
330
2EF
330
2F0
330
2F1
330
2F2
330
2F3
330
2F4
330
2F5
330
2F6
330
2F7
330
2F8
330
2F9
330
2FA
330
2FB
330
2FC
330
2FD
330
2FE
330
2FF
330
300
330
301
330
302
330
303
330
304
330
305
330
306
330
307
330
308
330
309
330
30A
330
30B
330
30C
330
30D
330
30E
330
30F
330
310
330
311
330
312
330
313
330
314
330
315
330
316
330
317
330
318
330
319
330
31A
330
31B
330
31C
330
31D
330
31E
330
31F
330
320
330
321
330
322
330
323
330
324
330
325
330
326
330
327
330
328
330
329
330
32A
330
32B
330
32C
330
32D
330
32E
330
32F
330
330
330
331
330
332
330
333
330
334
330
335
330
336
330
337
330
338
330
339
330
33A
330
33B
330
33C
330
33D
330
33E
330
33F
330
340
330
341
330
342
330
343
330
344
330
345
330
346
330
347
330
348
330
349
330
34A
330
34B
330
34C
330
34D
330
34E
330
34F
330
350
330
351
330
352
330
353
330
354
330
355
330
356
330
357
330
358
330
359
330
35A
330
35B
330
35C
330
35D
330
35E
330
35F
330
360
330
361
330
362
330
363
330
364
330
365
330
366
330
367
330
368
330
369
330
36A
330
36B
330
36C
330
36D
330
36E
330
36F
330
370
330
371
330
372
330
373
330
374
330
375
330
376
330
377
330
378
330
379
330
37A
330
37B
330
37C
330
37D
330
37E
330
37F
330
380
330
381
330
382
330
383
330
384
330
385
330
386
330
387
330
388
330
389
330
38A
330
38B
330
38C
330
38D
330
38E
330
38F
330
390
330
391
330
392
330
393
330
394
330
395
330
396
330
397
330
398
330
399
330
39A
330
39B
330
39C
330
39D
330
39E
330
39F
330
3A0
330
3A1
330
3A2
330
3A3
330
3A4
330
3A5
330
3A6
330
3A7
330
3A8
330
3A9
330
3AA
330
3AB
330
3AC
330
3AD
330
3AE
330
3AF
330
3B0
330
3B1
330
3B2
330
3B3
330
3B4
330
3B5
330
3B6
330
3B7
330
3B8
330
3B9
330
3BA
330
3BB
330
3BC
330
3BD
330
3BE
330
3BF
330
3C0
330
3C1
330
3C2
330
3C3
330
3C4
330
3C5
330
3C6
330
3C7
330
3C8
330
3C9
330
3CA
330
3CB
330
3CC
330
3CD
330
3CE
330
3CF
330
3D0
330
3D1
330
3D2
330
3D3
330
3D4
330
3D5
330
3D6
330
3D7
330
3D8
330
3D9
330
3DA
330
3DB
330
3DC
 92
1
 93
40
 72
2
 10
13.1673166046
 20
2.4937023128
 40
0.0024749995
 50
179.9999571957
 51
270.0000428042
 73
1
 72
1
 10
13.1648416051
 20
2.4937023146
 11
13.1648416051
 21
2.5135023256
 72
2
 10
13.1673166046
 20
2.5135023274
 40
0.0024749995
 50
89.9999571958
 51
180.0000428043
 73
1
 72
1
 10
13.1673166065
 20
2.515977327
 11
13.1912396197
 21
2.515977327
 72
2
 10
13.1912396216
 20
2.5184523265
 40
0.0024749995
 50
269.9999571956
 51
0.0000428042
 73
1
 72
1
 10
13.1937146211
 20
2.5184523283
 11
13.1937146211
 21
2.564807354
 72
2
 10
13.1912396216
 20
2.5648073559
 40
0.0024749995
 50
359.9999571957
 51
90.0000428043
 73
1
 72
1
 10
13.1912396197
 20
2.5672823554
 11
13.1673166065
 21
2.5672823554
 72
2
 10
13.1673166046
 20
2.5697573549
 40
0.0024749995
 50
179.9999571957
 51
270.0000428043
 73
1
 72
1
 10
13.1648416051
 20
2.5697573568
 11
13.1648416051
 21
2.5895573678
 72
2
 10
13.1673166046
 20
2.5895573696
 40
0.0024749995
 50
89.9999571958
 51
180.0000428043
 73
1
 72
1
 10
13.1673166065
 20
2.5920323691
 11
13.3691097184
 21
2.5920323691
 72
2
 10
13.3691097202
 20
2.5895573696
 40
0.0024749995
 50
359.9999571957
 51
90.0000428042
 73
1
 72
1
 10
13.3715847197
 20
2.5895573678
 11
13.3715847197
 21
2.5565573495
 72
2
 10
13.3691097202
 20
2.5565573476
 40
0.0024749995
 50
269.9999571956
 51
0.0000428042
 73
1
 72
1
 10
13.3691097184
 20
2.5540823481
 11
13.3272456952
 21
2.5540823481
 72
2
 10
13.3272456933
 20
2.5565573476
 40
0.0024749995
 50
179.9999571957
 51
270.0000428043
 73
1
 72
1
 10
13.3247706938
 20
2.5565573495
 11
13.3247706938
 21
2.564807354
 72
2
 10
13.3222956943
 20
2.5648073559
 40
0.0024749995
 50
359.9999571957
 51
90.0000428043
 73
1
 72
1
 10
13.3222956924
 20
2.5672823554
 11
13.2582556569
 21
2.5672823554
 72
2
 10
13.2582556551
 20
2.5648073559
 40
0.0024749995
 50
89.9999571957
 51
180.0000428043
 73
1
 72
1
 10
13.2557806555
 20
2.564807354
 11
13.2557806555
 21
2.5532573476
 72
2
 10
13.2582556551
 20
2.5532573458
 40
0.0024749995
 50
179.9999571957
 51
270.0000428042
 73
1
 72
1
 10
13.2582556569
 20
2.5507823463
 11
13.2934226764
 21
2.5507823463
 72
2
 10
13.2934226783
 20
2.5483073467
 40
0.0024749995
 50
359.9999571957
 51
90.0000428042
 73
1
 72
1
 10
13.2958976778
 20
2.5483073449
 11
13.2958976778
 21
2.5349523375
 72
2
 10
13.2934226783
 20
2.5349523356
 40
0.0024749995
 50
269.9999571956
 51
0.0000428042
 73
1
 72
1
 10
13.2934226764
 20
2.5324773361
 11
13.2582556569
 21
2.5324773361
 72
2
 10
13.2582556551
 20
2.5300023366
 40
0.0024749995
 50
89.9999571957
 51
180.0000428043
 73
1
 72
1
 10
13.2557806555
 20
2.5300023347
 11
13.2557806555
 21
2.5184523283
 72
2
 10
13.2582556551
 20
2.5184523265
 40
0.0024749995
 50
179.9999571957
 51
270.0000428043
 73
1
 72
1
 10
13.2582556569
 20
2.515977327
 11
13.3232596929
 21
2.515977327
 72
2
 10
13.3232596948
 20
2.5184523265
 40
0.0024749995
 50
269.9999571958
 51
0.0000428043
 73
1
 72
1
 10
13.3257346943
 20
2.5184523283
 11
13.3257346943
 21
2.5267023329
 72
2
 10
13.3282096938
 20
2.5267023348
 40
0.0024749995
 50
89.9999571957
 51
180.0000428043
 73
1
 72
1
 10
13.3282096957
 20
2.5291773343
 11
13.3705287192
 21
2.5291773343
 72
2
 10
13.370528721
 20
2.5267023348
 40
0.0024749995
 50
359.9999571957
 51
90.0000428043
 73
1
 72
1
 10
13.3730037205
 20
2.5267023329
 11
13.3730037205
 21
2.4937023146
 72
2
 10
13.370528721
 20
2.4937023128
 40
0.0024749995
 50
269.9999571957
 51
0.0000428043
 73
1
 72
1
 10
13.3705287192
 20
2.4912273132
 11
13.1673166065
 21
2.4912273132
 97
267
330
2D2
330
2D3
330
2D4
330
2D5
330
2D6
330
2D7
330
2D8
330
2D9
330
2DA
330
2DB
330
2DC
330
2DD
330
2DE
330
2DF
330
2E0
330
2E1
330
2E2
330
2E3
330
2E4
330
2E5
330
2E6
330
2E7
330
2E8
330
2E9
330
2EA
330
2EB
330
2EC
330
2ED
330
2EE
330
2EF
330
2F0
330
2F1
330
2F2
330
2F3
330
2F4
330
2F5
330
2F6
330
2F7
330
2F8
330
2F9
330
2FA
330
2FB
330
2FC
330
2FD
330
2FE
330
2FF
330
300
330
301
330
302
330
303
330
304
330
305
330
306
330
307
330
308
330
309
330
30A
330
30B
330
30C
330
30D
330
30E
330
30F
330
310
330
311
330
312
330
313
330
314
330
315
330
316
330
317
330
318
330
319
330
31A
330
31B
330
31C
330
31D
330
31E
330
31F
330
320
330
321
330
322
330
323
330
324
330
325
330
326
330
327
330
328
330
329
330
32A
330
32B
330
32C
330
32D
330
32E
330
32F
330
330
330
331
330
332
330
333
330
334
330
335
330
336
330
337
330
338
330
339
330
33A
330
33B
330
33C
330
33D
330
33E
330
33F
330
340
330
341
330
342
330
343
330
344
330
345
330
346
330
347
330
348
330
349
330
34A
330
34B
330
34C
330
34D
330
34E
330
34F
330
350
330
351
330
352
330
353
330
354
330
355
330
356
330
357
330
358
330
359
330
35A
330
35B
330
35C
330
35D
330
35E
330
35F
330
360
330
361
330
362
330
363
330
364
330
365
330
366
330
367
330
368
330
369
330
36A
330
36B
330
36C
330
36D
330
36E
330
36F
330
370
330
371
330
372
330
373
330
374
330
375
330
376
330
377
330
378
330
379
330
37A
330
37B
330
37C
330
37D
330
37E
330
37F
330
380
330
381
330
382
330
383
330
384
330
385
330
386
330
387
330
388
330
389
330
38A
330
38B
330
38C
330
38D
330
38E
330
38F
330
390
330
391
330
392
330
393
330
394
330
395
330
396
330
397
330
398
330
399
330
39A
330
39B
330
39C
330
39D
330
39E
330
39F
330
3A0
330
3A1
330
3A2
330
3A3
330
3A4
330
3A5
330
3A6
330
3A7
330
3A8
330
3A9
330
3AA
330
3AB
330
3AC
330
3AD
330
3AE
330
3AF
330
3B0
330
3B1
330
3B2
330
3B3
330
3B4
330
3B5
330
3B6
330
3B7
330
3B8
330
3B9
330
3BA
330
3BB
330
3BC
330
3BD
330
3BE
330
3BF
330
3C0
330
3C1
330
3C2
330
3C3
330
3C4
330
3C5
330
3C6
330
3C7
330
3C8
330
3C9
330
3CA
330
3CB
330
3CC
330
3CD
330
3CE
330
3CF
330
3D0
330
3D1
330
3D2
330
3D3
330
3D4
330
3D5
330
3D6
330
3D7
330
3D8
330
3D9
330
3DA
330
3DB
330
3DC
 92
1
 93
40
 72
2
 10
13.0426374026
 20
2.493701481
 40
0.0024741678
 50
226.3477981898
 51
270.0031206038
 73
1
 72
1
 10
13.0409295364
 20
2.4919113136
 11
12.9776495013
 21
2.5522893471
 72
2
 10
12.9759408003
 20
2.5504984093
 40
0.0024753014
 50
46.3461263059
 51
180.0014637321
 73
1
 72
1
 10
12.973465499
 20
2.5504983461
 11
12.973465499
 21
2.5184523283
 72
2
 10
12.9759404985
 20
2.5184523265
 40
0.0024749995
 50
179.9999571957
 51
270.0000428043
 73
1
 72
1
 10
12.9759405003
 20
2.515977327
 11
12.9962575116
 21
2.515977327
 72
2
 10
12.9962575135
 20
2.5135023274
 40
0.0024749995
 50
359.9999571957
 51
90.0000428043
 73
1
 72
1
 10
12.998732513
 20
2.5135023256
 11
12.998732513
 21
2.4937023146
 72
2
 10
12.9962575135
 20
2.4937023128
 40
0.0024749995
 50
269.9999571957
 51
0.0000428043
 73
1
 72
1
 10
12.9962575116
 20
2.4912273132
 11
12.9205934696
 21
2.4912273132
 72
2
 10
12.9205934678
 20
2.4937023128
 40
0.0024749995
 50
179.9999571957
 51
270.0000428043
 73
1
 72
1
 10
12.9181184683
 20
2.4937023146
 11
12.9181184683
 21
2.5135023256
 72
2
 10
12.9205934678
 20
2.5135023274
 40
0.0024749995
 50
89.9999571956
 51
180.0000428042
 73
1
 72
1
 10
12.9205934696
 20
2.515977327
 11
12.93923948
 21
2.515977327
 72
2
 10
12.9392394818
 20
2.5184523265
 40
0.0024749995
 50
269.9999571957
 51
0.0000428043
 73
1
 72
1
 10
12.9417144814
 20
2.5184523283
 11
12.9417144814
 21
2.564807354
 72
2
 10
12.9392394818
 20
2.5648073559
 40
0.0024749995
 50
359.9999571957
 51
90.0000428043
 73
1
 72
1
 10
12.93923948
 20
2.5672823554
 11
12.9205934696
 21
2.5672823554
 72
2
 10
12.9205934678
 20
2.5697573549
 40
0.0024749995
 50
179.9999571957
 51
270.0000428043
 73
1
 72
1
 10
12.9181184683
 20
2.5697573568
 11
12.9181184683
 21
2.5895573678
 72
2
 10
12.9205934678
 20
2.5895573696
 40
0.0024749995
 50
89.9999571956
 51
180.0000428042
 73
1
 72
1
 10
12.9205934696
 20
2.5920323691
 11
13.0210515254
 21
2.5920323691
 72
2
 10
13.0210516601
 20
2.5895582013
 40
0.0024741678
 50
46.3477981898
 51
90.0031206038
 73
1
 72
1
 10
13.0227595263
 20
2.5913483688
 11
13.0827925596
 21
2.534068337
 72
2
 10
13.0845012605
 20
2.5358592748
 40
0.0024753014
 50
226.3461263059
 51
0.0014637321
 73
1
 72
1
 10
13.0869765619
 20
2.535859338
 11
13.0869765619
 21
2.564807354
 72
2
 10
13.0845015624
 20
2.5648073559
 40
0.0024749995
 50
359.9999571957
 51
90.0000428043
 73
1
 72
1
 10
13.0845015605
 20
2.5672823554
 11
13.0657255501
 21
2.5672823554
 72
2
 10
13.0657255483
 20
2.5697573549
 40
0.0024749995
 50
179.9999571957
 51
270.0000428043
 73
1
 72
1
 10
13.0632505488
 20
2.5697573568
 11
13.0632505488
 21
2.5895573678
 72
2
 10
13.0657255483
 20
2.5895573696
 40
0.0024749995
 50
89.9999571957
 51
180.0000428043
 73
1
 72
1
 10
13.0657255501
 20
2.5920323691
 11
13.1397265912
 21
2.5920323691
 72
2
 10
13.139726593
 20
2.5895573696
 40
0.0024749995
 50
359.9999571957
 51
90.0000428043
 73
1
 72
1
 10
13.1422015925
 20
2.5895573678
 11
13.1422015925
 21
2.5697573568
 72
2
 10
13.139726593
 20
2.5697573549
 40
0.0024749995
 50
269.9999571956
 51
0.0000428042
 73
1
 72
1
 10
13.1397265912
 20
2.5672823554
 11
13.1217935812
 21
2.5672823554
 72
2
 10
13.1217935794
 20
2.5648073559
 40
0.0024749995
 50
89.9999571957
 51
180.0000428042
 73
1
 72
1
 10
13.1193185799
 20
2.564807354
 11
13.1193185799
 21
2.4937023146
 72
2
 10
13.1168435803
 20
2.4937023128
 40
0.0024749995
 50
269.9999571957
 51
0.0000428043
 73
1
 72
1
 10
13.1168435785
 20
2.4912273132
 11
13.0426375373
 21
2.4912273132
 97
267
330
2D2
330
2D3
330
2D4
330
2D5
330
2D6
330
2D7
330
2D8
330
2D9
330
2DA
330
2DB
330
2DC
330
2DD
330
2DE
330
2DF
330
2E0
330
2E1
330
2E2
330
2E3
330
2E4
330
2E5
330
2E6
330
2E7
330
2E8
330
2E9
330
2EA
330
2EB
330
2EC
330
2ED
330
2EE
330
2EF
330
2F0
330
2F1
330
2F2
330
2F3
330
2F4
330
2F5
330
2F6
330
2F7
330
2F8
330
2F9
330
2FA
330
2FB
330
2FC
330
2FD
330
2FE
330
2FF
330
300
330
301
330
302
330
303
330
304
330
305
330
306
330
307
330
308
330
309
330
30A
330
30B
330
30C
330
30D
330
30E
330
30F
330
310
330
311
330
312
330
313
330
314
330
315
330
316
330
317
330
318
330
319
330
31A
330
31B
330
31C
330
31D
330
31E
330
31F
330
320
330
321
330
322
330
323
330
324
330
325
330
326
330
327
330
328
330
329
330
32A
330
32B
330
32C
330
32D
330
32E
330
32F
330
330
330
331
330
332
330
333
330
334
330
335
330
336
330
337
330
338
330
339
330
33A
330
33B
330
33C
330
33D
330
33E
330
33F
330
340
330
341
330
342
330
343
330
344
330
345
330
346
330
347
330
348
330
349
330
34A
330
34B
330
34C
330
34D
330
34E
330
34F
330
350
330
351
330
352
330
353
330
354
330
355
330
356
330
357
330
358
330
359
330
35A
330
35B
330
35C
330
35D
330
35E
330
35F
330
360
330
361
330
362
330
363
330
364
330
365
330
366
330
367
330
368
330
369
330
36A
330
36B
330
36C
330
36D
330
36E
330
36F
330
370
330
371
330
372
330
373
330
374
330
375
330
376
330
377
330
378
330
379
330
37A
330
37B
330
37C
330
37D
330
37E
330
37F
330
380
330
381
330
382
330
383
330
384
330
385
330
386
330
387
330
388
330
389
330
38A
330
38B
330
38C
330
38D
330
38E
330
38F
330
390
330
391
330
392
330
393
330
394
330
395
330
396
330
397
330
398
330
399
330
39A
330
39B
330
39C
330
39D
330
39E
330
39F
330
3A0
330
3A1
330
3A2
330
3A3
330
3A4
330
3A5
330
3A6
330
3A7
330
3A8
330
3A9
330
3AA
330
3AB
330
3AC
330
3AD
330
3AE
330
3AF
330
3B0
330
3B1
330
3B2
330
3B3
330
3B4
330
3B5
330
3B6
330
3B7
330
3B8
330
3B9
330
3BA
330
3BB
330
3BC
330
3BD
330
3BE
330
3BF
330
3C0
330
3C1
330
3C2
330
3C3
330
3C4
330
3C5
330
3C6
330
3C7
330
3C8
330
3C9
330
3CA
330
3CB
330
3CC
330
3CD
330
3CE
330
3CF
330
3D0
330
3D1
330
3D2
330
3D3
330
3D4
330
3D5
330
3D6
330
3D7
330
3D8
330
3D9
330
3DA
330
3DB
330
3DC
 92
1
 93
40
 72
2
 10
12.7943847649
 20
2.4937027294
 40
0.0024754162
 50
226.3593695813
 51
270.0146919953
 73
1
 72
1
 10
12.7926763987
 20
2.4919113136
 11
12.7293963636
 21
2.5522893471
 72
2
 10
12.7276876627
 20
2.5504984093
 40
0.0024753014
 50
46.3461263059
 51
180.0014637321
 73
1
 72
1
 10
12.7252123613
 20
2.5504983461
 11
12.7252123613
 21
2.5184523283
 72
2
 10
12.7276873608
 20
2.5184523265
 40
0.0024749995
 50
179.9999571957
 51
270.0000428043
 73
1
 72
1
 10
12.7276873627
 20
2.515977327
 11
12.7480043739
 21
2.515977327
 72
2
 10
12.7480043758
 20
2.5135023274
 40
0.0024749995
 50
359.9999571957
 51
90.0000428043
 73
1
 72
1
 10
12.7504793753
 20
2.5135023256
 11
12.7504793753
 21
2.4937023146
 72
2
 10
12.7480043758
 20
2.4937023128
 40
0.0024749995
 50
269.9999571958
 51
0.0000428043
 73
1
 72
1
 10
12.7480043739
 20
2.4912273132
 11
12.672340332
 21
2.4912273132
 72
2
 10
12.6723403301
 20
2.4937023128
 40
0.0024749995
 50
179.9999571957
 51
270.0000428042
 73
1
 72
1
 10
12.6698653306
 20
2.4937023146
 11
12.6698653306
 21
2.5135023256
 72
2
 10
12.6723403301
 20
2.5135023274
 40
0.0024749995
 50
89.9999571957
 51
180.0000428043
 73
1
 72
1
 10
12.672340332
 20
2.515977327
 11
12.6909873423
 21
2.515977327
 72
2
 10
12.6909873442
 20
2.5184523265
 40
0.0024749995
 50
269.9999571957
 51
0.0000428043
 73
1
 72
1
 10
12.6934623437
 20
2.5184523283
 11
12.6934623437
 21
2.564807354
 72
2
 10
12.6909873442
 20
2.5648073559
 40
0.0024749995
 50
359.9999571957
 51
90.0000428043
 73
1
 72
1
 10
12.6909873423
 20
2.5672823554
 11
12.672340332
 21
2.5672823554
 72
2
 10
12.6723403301
 20
2.5697573549
 40
0.0024749995
 50
179.9999571957
 51
270.0000428043
 73
1
 72
1
 10
12.6698653306
 20
2.5697573568
 11
12.6698653306
 21
2.5895573678
 72
2
 10
12.6723403301
 20
2.5895573696
 40
0.0024749995
 50
89.9999571957
 51
180.0000428043
 73
1
 72
1
 10
12.672340332
 20
2.5920323691
 11
12.7727983877
 21
2.5920323691
 72
2
 10
12.7727985224
 20
2.5895582013
 40
0.0024741678
 50
46.3477981899
 51
90.0031206038
 73
1
 72
1
 10
12.7745063886
 20
2.5913483688
 11
12.8345394219
 21
2.534068337
 72
2
 10
12.8362481229
 20
2.5358592748
 40
0.0024753014
 50
226.3461263059
 51
0.0014637321
 73
1
 72
1
 10
12.8387234242
 20
2.535859338
 11
12.8387234242
 21
2.564807354
 72
2
 10
12.8362484247
 20
2.5648073559
 40
0.0024749995
 50
359.9999571957
 51
90.0000428043
 73
1
 72
1
 10
12.8362484229
 20
2.5672823554
 11
12.8174724125
 21
2.5672823554
 72
2
 10
12.8174724106
 20
2.5697573549
 40
0.0024749995
 50
179.9999571957
 51
270.0000428043
 73
1
 72
1
 10
12.8149974111
 20
2.5697573568
 11
12.8149974111
 21
2.5895573678
 72
2
 10
12.8174724106
 20
2.5895573696
 40
0.0024749995
 50
89.9999571958
 51
180.0000428043
 73
1
 72
1
 10
12.8174724125
 20
2.5920323691
 11
12.8914734535
 21
2.5920323691
 72
2
 10
12.8914734553
 20
2.5895573696
 40
0.0024749995
 50
359.9999571957
 51
90.0000428042
 73
1
 72
1
 10
12.8939484549
 20
2.5895573678
 11
12.8939484549
 21
2.5697573568
 72
2
 10
12.8914734553
 20
2.5697573549
 40
0.0024749995
 50
269.9999571958
 51
0.0000428043
 73
1
 72
1
 10
12.8914734535
 20
2.5672823554
 11
12.8735404436
 21
2.5672823554
 72
2
 10
12.8735404417
 20
2.5648073559
 40
0.0024749995
 50
89.9999571957
 51
180.0000428043
 73
1
 72
1
 10
12.8710654422
 20
2.564807354
 11
12.8710654422
 21
2.4937023146
 72
2
 10
12.8685904427
 20
2.4937023128
 40
0.0024749995
 50
269.9999571957
 51
0.0000428043
 73
1
 72
1
 10
12.8685904408
 20
2.4912273132
 11
12.7943853997
 21
2.4912273132
 97
267
330
2D2
330
2D3
330
2D4
330
2D5
330
2D6
330
2D7
330
2D8
330
2D9
330
2DA
330
2DB
330
2DC
330
2DD
330
2DE
330
2DF
330
2E0
330
2E1
330
2E2
330
2E3
330
2E4
330
2E5
330
2E6
330
2E7
330
2E8
330
2E9
330
2EA
330
2EB
330
2EC
330
2ED
330
2EE
330
2EF
330
2F0
330
2F1
330
2F2
330
2F3
330
2F4
330
2F5
330
2F6
330
2F7
330
2F8
330
2F9
330
2FA
330
2FB
330
2FC
330
2FD
330
2FE
330
2FF
330
300
330
301
330
302
330
303
330
304
330
305
330
306
330
307
330
308
330
309
330
30A
330
30B
330
30C
330
30D
330
30E
330
30F
330
310
330
311
330
312
330
313
330
314
330
315
330
316
330
317
330
318
330
319
330
31A
330
31B
330
31C
330
31D
330
31E
330
31F
330
320
330
321
330
322
330
323
330
324
330
325
330
326
330
327
330
328
330
329
330
32A
330
32B
330
32C
330
32D
330
32E
330
32F
330
330
330
331
330
332
330
333
330
334
330
335
330
336
330
337
330
338
330
339
330
33A
330
33B
330
33C
330
33D
330
33E
330
33F
330
340
330
341
330
342
330
343
330
344
330
345
330
346
330
347
330
348
330
349
330
34A
330
34B
330
34C
330
34D
330
34E
330
34F
330
350
330
351
330
352
330
353
330
354
330
355
330
356
330
357
330
358
330
359
330
35A
330
35B
330
35C
330
35D
330
35E
330
35F
330
360
330
361
330
362
330
363
330
364
330
365
330
366
330
367
330
368
330
369
330
36A
330
36B
330
36C
330
36D
330
36E
330
36F
330
370
330
371
330
372
330
373
330
374
330
375
330
376
330
377
330
378
330
379
330
37A
330
37B
330
37C
330
37D
330
37E
330
37F
330
380
330
381
330
382
330
383
330
384
330
385
330
386
330
387
330
388
330
389
330
38A
330
38B
330
38C
330
38D
330
38E
330
38F
330
390
330
391
330
392
330
393
330
394
330
395
330
396
330
397
330
398
330
399
330
39A
330
39B
330
39C
330
39D
330
39E
330
39F
330
3A0
330
3A1
330
3A2
330
3A3
330
3A4
330
3A5
330
3A6
330
3A7
330
3A8
330
3A9
330
3AA
330
3AB
330
3AC
330
3AD
330
3AE
330
3AF
330
3B0
330
3B1
330
3B2
330
3B3
330
3B4
330
3B5
330
3B6
330
3B7
330
3B8
330
3B9
330
3BA
330
3BB
330
3BC
330
3BD
330
3BE
330
3BF
330
3C0
330
3C1
330
3C2
330
3C3
330
3C4
330
3C5
330
3C6
330
3C7
330
3C8
330
3C9
330
3CA
330
3CB
330
3CC
330
3CD
330
3CE
330
3CF
330
3D0
330
3D1
330
3D2
330
3D3
330
3D4
330
3D5
330
3D6
330
3D7
330
3D8
330
3D9
330
3DA
330
3DB
330
3DC
 92
1
 93
23
 72
2
 10
12.3792298263
 20
2.539634765
 40
0.048483885
 50
273.21763719
 51
303.0749121182
 73
1
 72
2
 10
12.3940692204
 20
2.5168671561
 40
0.0213072145
 50
303.0488228549
 51
355.7263138674
 73
1
 72
2
 10
12.400005721
 20
2.5168763464
 40
0.0153945295
 50
354.0454548824
 51
5.1878013979
 73
1
 72
2
 10
12.3931760319
 20
2.5166878286
 40
0.0222174455
 50
4.0793399388
 51
69.834329283
 73
1
 72
1
 10
12.4008351814
 20
2.5375433389
 11
12.3907841758
 21
2.5410923409
 72
1
 10
12.3907841758
 20
2.5410923409
 11
12.3990241804
 21
2.5458683435
 72
2
 10
12.3771587979
 20
2.5826952352
 40
0.0428289026
 50
300.6990502959
 51
319.0591802498
 73
1
 72
2
 10
12.3971873948
 20
2.5665668817
 40
0.0171568255
 50
315.9145124245
 51
16.0049121282
 73
1
 72
2
 10
12.3922357827
 20
2.5632132173
 40
0.0229166529
 50
20.6563876465
 51
62.3316896973
 73
1
 72
2
 10
12.371573659
 20
2.5302846524
 40
0.061747717
 50
59.5385584989
 51
90.0050977555
 73
1
 72
1
 10
12.3715681652
 20
2.5920323691
 11
12.2055050731
 21
2.5920323691
 72
2
 10
12.2055050712
 20
2.5895573696
 40
0.0024749995
 50
89.9999571957
 51
180.0000428043
 73
1
 72
1
 10
12.2030300717
 20
2.5895573678
 11
12.2030300717
 21
2.5697573568
 72
2
 10
12.2055050712
 20
2.5697573549
 40
0.0024749995
 50
179.9999571957
 51
270.0000428043
 73
1
 72
1
 10
12.2055050731
 20
2.5672823554
 11
12.2294470864
 21
2.5672823554
 72
2
 10
12.2294470882
 20
2.5648073559
 40
0.0024749995
 50
359.9999571957
 51
90.0000428043
 73
1
 72
1
 10
12.2319220877
 20
2.564807354
 11
12.2319220877
 21
2.5184523283
 72
2
 10
12.2294470882
 20
2.5184523265
 40
0.0024749995
 50
269.9999571957
 51
0.0000428043
 73
1
 72
1
 10
12.2294470864
 20
2.515977327
 11
12.2055050731
 21
2.515977327
 72
2
 10
12.2055050712
 20
2.5135023274
 40
0.0024749995
 50
89.9999571957
 51
180.0000428043
 73
1
 72
1
 10
12.2030300717
 20
2.5135023256
 11
12.2030300717
 21
2.4937023146
 72
2
 10
12.2055050712
 20
2.4937023128
 40
0.0024749995
 50
179.9999571957
 51
270.0000428043
 73
1
 72
1
 10
12.2055050731
 20
2.4912273132
 11
12.3819511709
 21
2.4912273132
 97
267
330
2D2
330
2D3
330
2D4
330
2D5
330
2D6
330
2D7
330
2D8
330
2D9
330
2DA
330
2DB
330
2DC
330
2DD
330
2DE
330
2DF
330
2E0
330
2E1
330
2E2
330
2E3
330
2E4
330
2E5
330
2E6
330
2E7
330
2E8
330
2E9
330
2EA
330
2EB
330
2EC
330
2ED
330
2EE
330
2EF
330
2F0
330
2F1
330
2F2
330
2F3
330
2F4
330
2F5
330
2F6
330
2F7
330
2F8
330
2F9
330
2FA
330
2FB
330
2FC
330
2FD
330
2FE
330
2FF
330
300
330
301
330
302
330
303
330
304
330
305
330
306
330
307
330
308
330
309
330
30A
330
30B
330
30C
330
30D
330
30E
330
30F
330
310
330
311
330
312
330
313
330
314
330
315
330
316
330
317
330
318
330
319
330
31A
330
31B
330
31C
330
31D
330
31E
330
31F
330
320
330
321
330
322
330
323
330
324
330
325
330
326
330
327
330
328
330
329
330
32A
330
32B
330
32C
330
32D
330
32E
330
32F
330
330
330
331
330
332
330
333
330
334
330
335
330
336
330
337
330
338
330
339
330
33A
330
33B
330
33C
330
33D
330
33E
330
33F
330
340
330
341
330
342
330
343
330
344
330
345
330
346
330
347
330
348
330
349
330
34A
330
34B
330
34C
330
34D
330
34E
330
34F
330
350
330
351
330
352
330
353
330
354
330
355
330
356
330
357
330
358
330
359
330
35A
330
35B
330
35C
330
35D
330
35E
330
35F
330
360
330
361
330
362
330
363
330
364
330
365
330
366
330
367
330
368
330
369
330
36A
330
36B
330
36C
330
36D
330
36E
330
36F
330
370
330
371
330
372
330
373
330
374
330
375
330
376
330
377
330
378
330
379
330
37A
330
37B
330
37C
330
37D
330
37E
330
37F
330
380
330
381
330
382
330
383
330
384
330
385
330
386
330
387
330
388
330
389
330
38A
330
38B
330
38C
330
38D
330
38E
330
38F
330
390
330
391
330
392
330
393
330
394
330
395
330
396
330
397
330
398
330
399
330
39A
330
39B
330
39C
330
39D
330
39E
330
39F
330
3A0
330
3A1
330
3A2
330
3A3
330
3A4
330
3A5
330
3A6
330
3A7
330
3A8
330
3A9
330
3AA
330
3AB
330
3AC
330
3AD
330
3AE
330
3AF
330
3B0
330
3B1
330
3B2
330
3B3
330
3B4
330
3B5
330
3B6
330
3B7
330
3B8
330
3B9
330
3BA
330
3BB
330
3BC
330
3BD
330
3BE
330
3BF
330
3C0
330
3C1
330
3C2
330
3C3
330
3C4
330
3C5
330
3C6
330
3C7
330
3C8
330
3C9
330
3CA
330
3CB
330
3CC
330
3CD
330
3CE
330
3CF
330
3D0
330
3D1
330
3D2
330
3D3
330
3D4
330
3D5
330
3D6
330
3D7
330
3D8
330
3D9
330
3DA
330
3DB
330
3DC
 92
1
 93
32
 72
2
 10
12.5168642476
 20
2.4937023128
 40
0.0024749995
 50
269.9999571957
 51
0.0000428043
 73
1
 72
1
 10
12.5193392471
 20
2.4937023146
 11
12.5193392471
 21
2.5135023256
 72
2
 10
12.5168642476
 20
2.5135023274
 40
0.0024749995
 50
359.9999571957
 51
90.0000428043
 73
1
 72
1
 10
12.5168642458
 20
2.515977327
 11
12.5055812395
 21
2.515977327
 72
2
 10
12.5055811302
 20
2.518452367
 40
0.0024750401
 50
147.6063258011
 51
270.0025305754
 73
1
 72
1
 10
12.5034912383
 20
2.5197783291
 11
12.5090072414
 21
2.5284723339
 72
2
 10
12.5110971723
 20
2.5271461342
 40
0.0024752003
 50
89.998372645
 51
147.602165307
 73
1
 72
1
 10
12.5110972426
 20
2.5296213345
 11
12.5459752619
 21
2.5296213345
 72
2
 10
12.5459747223
 20
2.5271458744
 40
0.0024754602
 50
32.8959418573
 51
89.9875097202
 73
1
 72
1
 10
12.548053263
 20
2.5284903339
 11
12.5536792662
 21
2.5197973291
 72
2
 10
12.5516012439
 20
2.5184525341
 40
0.0024752071
 50
270.0004896794
 51
32.9089806818
 73
1
 72
1
 10
12.551601265
 20
2.515977327
 11
12.537150257
 21
2.515977327
 72
2
 10
12.5371502552
 20
2.5135023274
 40
0.0024749995
 50
89.9999571958
 51
180.0000428043
 73
1
 72
1
 10
12.5346752556
 20
2.5135023256
 11
12.5346752556
 21
2.4937023146
 72
2
 10
12.5371502552
 20
2.4937023128
 40
0.0024749995
 50
179.9999571957
 51
270.0000428042
 73
1
 72
1
 10
12.537150257
 20
2.4912273132
 11
12.6424313154
 21
2.4912273132
 72
2
 10
12.6424313172
 20
2.4937023128
 40
0.0024749995
 50
269.9999571957
 51
0.0000428043
 73
1
 72
1
 10
12.6449063168
 20
2.4937023146
 11
12.6449063168
 21
2.5135023256
 72
2
 10
12.6424313172
 20
2.5135023274
 40
0.0024749995
 50
359.9999571957
 51
90.0000428043
 73
1
 72
1
 10
12.6424313154
 20
2.515977327
 11
12.6224153043
 21
2.515977327
 72
2
 10
12.6224154248
 20
2.518451368
 40
0.002474041
 50
212.9056413127
 51
269.9972091756
 73
1
 72
1
 10
12.6203383031
 20
2.5171073276
 11
12.5725822767
 21
2.5909023685
 72
2
 10
12.570504655
 20
2.589557409
 40
0.0024749602
 50
32.9172174468
 51
90.0087853097
 73
1
 72
1
 10
12.5705042755
 20
2.5920323691
 11
12.5133292438
 21
2.5920323691
 72
2
 10
12.5133291735
 20
2.5895571688
 40
0.0024752003
 50
89.9983726451
 51
147.602165307
 73
1
 72
1
 10
12.5112392426
 20
2.5908833685
 11
12.4644392167
 21
2.5171263276
 72
2
 10
12.4623492858
 20
2.5184525273
 40
0.0024752003
 50
269.9983726451
 51
327.602165307
 73
1
 72
1
 10
12.4623492155
 20
2.515977327
 11
12.4394882028
 21
2.515977327
 72
2
 10
12.439488201
 20
2.5135023274
 40
0.0024749995
 50
89.9999571958
 51
180.0000428043
 73
1
 72
1
 10
12.4370132015
 20
2.5135023256
 11
12.4370132015
 21
2.4937023146
 72
2
 10
12.439488201
 20
2.4937023128
 40
0.0024749995
 50
179.9999571957
 51
270.0000428042
 73
1
 72
1
 10
12.4394882028
 20
2.4912273132
 11
12.5168642458
 21
2.4912273132
 97
267
330
2D2
330
2D3
330
2D4
330
2D5
330
2D6
330
2D7
330
2D8
330
2D9
330
2DA
330
2DB
330
2DC
330
2DD
330
2DE
330
2DF
330
2E0
330
2E1
330
2E2
330
2E3
330
2E4
330
2E5
330
2E6
330
2E7
330
2E8
330
2E9
330
2EA
330
2EB
330
2EC
330
2ED
330
2EE
330
2EF
330
2F0
330
2F1
330
2F2
330
2F3
330
2F4
330
2F5
330
2F6
330
2F7
330
2F8
330
2F9
330
2FA
330
2FB
330
2FC
330
2FD
330
2FE
330
2FF
330
300
330
301
330
302
330
303
330
304
330
305
330
306
330
307
330
308
330
309
330
30A
330
30B
330
30C
330
30D
330
30E
330
30F
330
310
330
311
330
312
330
313
330
314
330
315
330
316
330
317
330
318
330
319
330
31A
330
31B
330
31C
330
31D
330
31E
330
31F
330
320
330
321
330
322
330
323
330
324
330
325
330
326
330
327
330
328
330
329
330
32A
330
32B
330
32C
330
32D
330
32E
330
32F
330
330
330
331
330
332
330
333
330
334
330
335
330
336
330
337
330
338
330
339
330
33A
330
33B
330
33C
330
33D
330
33E
330
33F
330
340
330
341
330
342
330
343
330
344
330
345
330
346
330
347
330
348
330
349
330
34A
330
34B
330
34C
330
34D
330
34E
330
34F
330
350
330
351
330
352
330
353
330
354
330
355
330
356
330
357
330
358
330
359
330
35A
330
35B
330
35C
330
35D
330
35E
330
35F
330
360
330
361
330
362
330
363
330
364
330
365
330
366
330
367
330
368
330
369
330
36A
330
36B
330
36C
330
36D
330
36E
330
36F
330
370
330
371
330
372
330
373
330
374
330
375
330
376
330
377
330
378
330
379
330
37A
330
37B
330
37C
330
37D
330
37E
330
37F
330
380
330
381
330
382
330
383
330
384
330
385
330
386
330
387
330
388
330
389
330
38A
330
38B
330
38C
330
38D
330
38E
330
38F
330
390
330
391
330
392
330
393
330
394
330
395
330
396
330
397
330
398
330
399
330
39A
330
39B
330
39C
330
39D
330
39E
330
39F
330
3A0
330
3A1
330
3A2
330
3A3
330
3A4
330
3A5
330
3A6
330
3A7
330
3A8
330
3A9
330
3AA
330
3AB
330
3AC
330
3AD
330
3AE
330
3AF
330
3B0
330
3B1
330
3B2
330
3B3
330
3B4
330
3B5
330
3B6
330
3B7
330
3B8
330
3B9
330
3BA
330
3BB
330
3BC
330
3BD
330
3BE
330
3BF
330
3C0
330
3C1
330
3C2
330
3C3
330
3C4
330
3C5
330
3C6
330
3C7
330
3C8
330
3C9
330
3CA
330
3CB
330
3CC
330
3CD
330
3CE
330
3CF
330
3D0
330
3D1
330
3D2
330
3D3
330
3D4
330
3D5
330
3D6
330
3D7
330
3D8
330
3D9
330
3DA
330
3DB
330
3DC
 92
1
 93
6
 72
2
 10
12.2949101208
 20
2.5184523265
 40
0.0024749995
 50
179.9999571957
 51
270.0000428043
 73
1
 72
1
 10
12.2924351213
 20
2.5184523283
 11
12.2924351213
 21
2.5308273352
 72
2
 10
12.2949101208
 20
2.530827337
 40
0.0024749995
 50
89.9999571957
 51
180.0000428043
 73
1
 72
1
 10
12.2949101227
 20
2.5333023366
 11
12.3362731456
 21
2.5333023366
 72
2
 10
12.3362731456
 20
2.5246398318
 40
0.0086625048
 50
270.0
 51
90.0
 73
1
 72
1
 10
12.3362731456
 20
2.515977327
 11
12.2949101227
 21
2.515977327
 97
267
330
2D2
330
2D3
330
2D4
330
2D5
330
2D6
330
2D7
330
2D8
330
2D9
330
2DA
330
2DB
330
2DC
330
2DD
330
2DE
330
2DF
330
2E0
330
2E1
330
2E2
330
2E3
330
2E4
330
2E5
330
2E6
330
2E7
330
2E8
330
2E9
330
2EA
330
2EB
330
2EC
330
2ED
330
2EE
330
2EF
330
2F0
330
2F1
330
2F2
330
2F3
330
2F4
330
2F5
330
2F6
330
2F7
330
2F8
330
2F9
330
2FA
330
2FB
330
2FC
330
2FD
330
2FE
330
2FF
330
300
330
301
330
302
330
303
330
304
330
305
330
306
330
307
330
308
330
309
330
30A
330
30B
330
30C
330
30D
330
30E
330
30F
330
310
330
311
330
312
330
313
330
314
330
315
330
316
330
317
330
318
330
319
330
31A
330
31B
330
31C
330
31D
330
31E
330
31F
330
320
330
321
330
322
330
323
330
324
330
325
330
326
330
327
330
328
330
329
330
32A
330
32B
330
32C
330
32D
330
32E
330
32F
330
330
330
331
330
332
330
333
330
334
330
335
330
336
330
337
330
338
330
339
330
33A
330
33B
330
33C
330
33D
330
33E
330
33F
330
340
330
341
330
342
330
343
330
344
330
345
330
346
330
347
330
348
330
349
330
34A
330
34B
330
34C
330
34D
330
34E
330
34F
330
350
330
351
330
352
330
353
330
354
330
355
330
356
330
357
330
358
330
359
330
35A
330
35B
330
35C
330
35D
330
35E
330
35F
330
360
330
361
330
362
330
363
330
364
330
365
330
366
330
367
330
368
330
369
330
36A
330
36B
330
36C
330
36D
330
36E
330
36F
330
370
330
371
330
372
330
373
330
374
330
375
330
376
330
377
330
378
330
379
330
37A
330
37B
330
37C
330
37D
330
37E
330
37F
330
380
330
381
330
382
330
383
330
384
330
385
330
386
330
387
330
388
330
389
330
38A
330
38B
330
38C
330
38D
330
38E
330
38F
330
390
330
391
330
392
330
393
330
394
330
395
330
396
330
397
330
398
330
399
330
39A
330
39B
330
39C
330
39D
330
39E
330
39F
330
3A0
330
3A1
330
3A2
330
3A3
330
3A4
330
3A5
330
3A6
330
3A7
330
3A8
330
3A9
330
3AA
330
3AB
330
3AC
330
3AD
330
3AE
330
3AF
330
3B0
330
3B1
330
3B2
330
3B3
330
3B4
330
3B5
330
3B6
330
3B7
330
3B8
330
3B9
330
3BA
330
3BB
330
3BC
330
3BD
330
3BE
330
3BF
330
3C0
330
3C1
330
3C2
330
3C3
330
3C4
330
3C5
330
3C6
330
3C7
330
3C8
330
3C9
330
3CA
330
3CB
330
3CC
330
3CD
330
3CE
330
3CF
330
3D0
330
3D1
330
3D2
330
3D3
330
3D4
330
3D5
330
3D6
330
3D7
330
3D8
330
3D9
330
3DA
330
3DB
330
3DC
 92
1
 93
13
 72
2
 10
13.4883447827
 20
2.5520823451
 40
0.0024749995
 50
179.9999571957
 51
270.0000428042
 73
1
 72
1
 10
13.4858697831
 20
2.552082347
 11
13.4858697831
 21
2.564807354
 72
2
 10
13.4883447827
 20
2.5648073559
 40
0.0024749995
 50
89.9999571958
 51
180.0000428043
 73
1
 72
1
 10
13.4883447845
 20
2.5672823554
 11
13.5251458049
 21
2.5672823554
 72
2
 10
13.5236009174
 20
2.5388278764
 40
0.0284963867
 50
70.3834917948
 51
86.8922743861
 73
1
 72
2
 10
13.5284605274
 20
2.5518696094
 40
0.0145814632
 50
54.6746025112
 51
71.1660573124
 73
1
 72
2
 10
13.5335900184
 20
2.5587235346
 40
0.0060275915
 50
20.9055592135
 51
56.7851676243
 73
1
 72
2
 10
13.5348905773
 20
2.5593838168
 40
0.0045795888
 50
355.6235353944
 51
18.9942678268
 73
1
 72
2
 10
13.533683767
 20
2.559677593
 40
0.0058087709
 50
318.8515287446
 51
353.6422345323
 73
1
 72
2
 10
13.5295131508
 20
2.5629115009
 40
0.0110815393
 50
306.758405961
 51
320.4502234234
 73
1
 72
2
 10
13.5238839599
 20
2.5706523294
 40
0.0206523367
 50
289.6883413472
 51
306.4184925496
 73
1
 72
2
 10
13.5219564542
 20
2.5750459767
 40
0.0254407115
 50
270.7327484175
 51
290.441894219
 73
1
 72
1
 10
13.5222818033
 20
2.5496073456
 11
13.4883447845
 21
2.5496073456
 97
267
330
2D2
330
2D3
330
2D4
330
2D5
330
2D6
330
2D7
330
2D8
330
2D9
330
2DA
330
2DB
330
2DC
330
2DD
330
2DE
330
2DF
330
2E0
330
2E1
330
2E2
330
2E3
330
2E4
330
2E5
330
2E6
330
2E7
330
2E8
330
2E9
330
2EA
330
2EB
330
2EC
330
2ED
330
2EE
330
2EF
330
2F0
330
2F1
330
2F2
330
2F3
330
2F4
330
2F5
330
2F6
330
2F7
330
2F8
330
2F9
330
2FA
330
2FB
330
2FC
330
2FD
330
2FE
330
2FF
330
300
330
301
330
302
330
303
330
304
330
305
330
306
330
307
330
308
330
309
330
30A
330
30B
330
30C
330
30D
330
30E
330
30F
330
310
330
311
330
312
330
313
330
314
330
315
330
316
330
317
330
318
330
319
330
31A
330
31B
330
31C
330
31D
330
31E
330
31F
330
320
330
321
330
322
330
323
330
324
330
325
330
326
330
327
330
328
330
329
330
32A
330
32B
330
32C
330
32D
330
32E
330
32F
330
330
330
331
330
332
330
333
330
334
330
335
330
336
330
337
330
338
330
339
330
33A
330
33B
330
33C
330
33D
330
33E
330
33F
330
340
330
341
330
342
330
343
330
344
330
345
330
346
330
347
330
348
330
349
330
34A
330
34B
330
34C
330
34D
330
34E
330
34F
330
350
330
351
330
352
330
353
330
354
330
355
330
356
330
357
330
358
330
359
330
35A
330
35B
330
35C
330
35D
330
35E
330
35F
330
360
330
361
330
362
330
363
330
364
330
365
330
366
330
367
330
368
330
369
330
36A
330
36B
330
36C
330
36D
330
36E
330
36F
330
370
330
371
330
372
330
373
330
374
330
375
330
376
330
377
330
378
330
379
330
37A
330
37B
330
37C
330
37D
330
37E
330
37F
330
380
330
381
330
382
330
383
330
384
330
385
330
386
330
387
330
388
330
389
330
38A
330
38B
330
38C
330
38D
330
38E
330
38F
330
390
330
391
330
392
330
393
330
394
330
395
330
396
330
397
330
398
330
399
330
39A
330
39B
330
39C
330
39D
330
39E
330
39F
330
3A0
330
3A1
330
3A2
330
3A3
330
3A4
330
3A5
330
3A6
330
3A7
330
3A8
330
3A9
330
3AA
330
3AB
330
3AC
330
3AD
330
3AE
330
3AF
330
3B0
330
3B1
330
3B2
330
3B3
330
3B4
330
3B5
330
3B6
330
3B7
330
3B8
330
3B9
330
3BA
330
3BB
330
3BC
330
3BD
330
3BE
330
3BF
330
3C0
330
3C1
330
3C2
330
3C3
330
3C4
330
3C5
330
3C6
330
3C7
330
3C8
330
3C9
330
3CA
330
3CB
330
3CC
330
3CD
330
3CE
330
3CF
330
3D0
330
3D1
330
3D2
330
3D3
330
3D4
330
3D5
330
3D6
330
3D7
330
3D8
330
3D9
330
3DA
330
3DB
330
3DC
 92
1
 93
6
 72
2
 10
12.3362731456
 20
2.5586198506
 40
0.0086625048
 50
270.0
 51
90.0
 73
1
 72
1
 10
12.3362731456
 20
2.5672823554
 11
12.2949101227
 21
2.5672823554
 72
2
 10
12.2949101208
 20
2.5648073559
 40
0.0024749995
 50
89.9999571957
 51
180.0000428043
 73
1
 72
1
 10
12.2924351213
 20
2.564807354
 11
12.2924351213
 21
2.5524323472
 72
2
 10
12.2949101208
 20
2.5524323453
 40
0.0024749995
 50
179.9999571957
 51
270.0000428043
 73
1
 72
1
 10
12.2949101227
 20
2.5499573458
 11
12.3362731456
 21
2.5499573458
 97
267
330
2D2
330
2D3
330
2D4
330
2D5
330
2D6
330
2D7
330
2D8
330
2D9
330
2DA
330
2DB
330
2DC
330
2DD
330
2DE
330
2DF
330
2E0
330
2E1
330
2E2
330
2E3
330
2E4
330
2E5
330
2E6
330
2E7
330
2E8
330
2E9
330
2EA
330
2EB
330
2EC
330
2ED
330
2EE
330
2EF
330
2F0
330
2F1
330
2F2
330
2F3
330
2F4
330
2F5
330
2F6
330
2F7
330
2F8
330
2F9
330
2FA
330
2FB
330
2FC
330
2FD
330
2FE
330
2FF
330
300
330
301
330
302
330
303
330
304
330
305
330
306
330
307
330
308
330
309
330
30A
330
30B
330
30C
330
30D
330
30E
330
30F
330
310
330
311
330
312
330
313
330
314
330
315
330
316
330
317
330
318
330
319
330
31A
330
31B
330
31C
330
31D
330
31E
330
31F
330
320
330
321
330
322
330
323
330
324
330
325
330
326
330
327
330
328
330
329
330
32A
330
32B
330
32C
330
32D
330
32E
330
32F
330
330
330
331
330
332
330
333
330
334
330
335
330
336
330
337
330
338
330
339
330
33A
330
33B
330
33C
330
33D
330
33E
330
33F
330
340
330
341
330
342
330
343
330
344
330
345
330
346
330
347
330
348
330
349
330
34A
330
34B
330
34C
330
34D
330
34E
330
34F
330
350
330
351
330
352
330
353
330
354
330
355
330
356
330
357
330
358
330
359
330
35A
330
35B
330
35C
330
35D
330
35E
330
35F
330
360
330
361
330
362
330
363
330
364
330
365
330
366
330
367
330
368
330
369
330
36A
330
36B
330
36C
330
36D
330
36E
330
36F
330
370
330
371
330
372
330
373
330
374
330
375
330
376
330
377
330
378
330
379
330
37A
330
37B
330
37C
330
37D
330
37E
330
37F
330
380
330
381
330
382
330
383
330
384
330
385
330
386
330
387
330
388
330
389
330
38A
330
38B
330
38C
330
38D
330
38E
330
38F
330
390
330
391
330
392
330
393
330
394
330
395
330
396
330
397
330
398
330
399
330
39A
330
39B
330
39C
330
39D
330
39E
330
39F
330
3A0
330
3A1
330
3A2
330
3A3
330
3A4
330
3A5
330
3A6
330
3A7
330
3A8
330
3A9
330
3AA
330
3AB
330
3AC
330
3AD
330
3AE
330
3AF
330
3B0
330
3B1
330
3B2
330
3B3
330
3B4
330
3B5
330
3B6
330
3B7
330
3B8
330
3B9
330
3BA
330
3BB
330
3BC
330
3BD
330
3BE
330
3BF
330
3C0
330
3C1
330
3C2
330
3C3
330
3C4
330
3C5
330
3C6
330
3C7
330
3C8
330
3C9
330
3CA
330
3CB
330
3CC
330
3CD
330
3CE
330
3CF
330
3D0
330
3D1
330
3D2
330
3D3
330
3D4
330
3D5
330
3D6
330
3D7
330
3D8
330
3D9
330
3DA
330
3DB
330
3DC
 92
1
 93
8
 72
2
 10
12.5401702375
 20
2.5530465533
 40
0.0024752071
 50
270.0004896793
 51
32.9089806818
 73
1
 72
1
 10
12.5422482598
 20
2.5543913483
 11
12.5349892558
 21
2.5656073545
 72
2
 10
12.532910715
 20
2.564262895
 40
0.0024754602
 50
32.8959418573
 51
89.9875097202
 73
1
 72
1
 10
12.5329112547
 20
2.5667383551
 11
12.5267302512
 21
2.5667383551
 72
2
 10
12.5267301809
 20
2.5642631548
 40
0.0024752003
 50
89.998372645
 51
147.602165307
 73
1
 72
1
 10
12.5246402501
 20
2.5655893545
 11
12.5175232461
 21
2.5543723483
 72
2
 10
12.519613138
 20
2.5530463862
 40
0.0024750401
 50
147.6063258012
 51
270.0025305754
 73
1
 72
1
 10
12.5196132473
 20
2.5505713461
 11
12.5401702587
 21
2.5505713461
 97
267
330
2D2
330
2D3
330
2D4
330
2D5
330
2D6
330
2D7
330
2D8
330
2D9
330
2DA
330
2DB
330
2DC
330
2DD
330
2DE
330
2DF
330
2E0
330
2E1
330
2E2
330
2E3
330
2E4
330
2E5
330
2E6
330
2E7
330
2E8
330
2E9
330
2EA
330
2EB
330
2EC
330
2ED
330
2EE
330
2EF
330
2F0
330
2F1
330
2F2
330
2F3
330
2F4
330
2F5
330
2F6
330
2F7
330
2F8
330
2F9
330
2FA
330
2FB
330
2FC
330
2FD
330
2FE
330
2FF
330
300
330
301
330
302
330
303
330
304
330
305
330
306
330
307
330
308
330
309
330
30A
330
30B
330
30C
330
30D
330
30E
330
30F
330
310
330
311
330
312
330
313
330
314
330
315
330
316
330
317
330
318
330
319
330
31A
330
31B
330
31C
330
31D
330
31E
330
31F
330
320
330
321
330
322
330
323
330
324
330
325
330
326
330
327
330
328
330
329
330
32A
330
32B
330
32C
330
32D
330
32E
330
32F
330
330
330
331
330
332
330
333
330
334
330
335
330
336
330
337
330
338
330
339
330
33A
330
33B
330
33C
330
33D
330
33E
330
33F
330
340
330
341
330
342
330
343
330
344
330
345
330
346
330
347
330
348
330
349
330
34A
330
34B
330
34C
330
34D
330
34E
330
34F
330
350
330
351
330
352
330
353
330
354
330
355
330
356
330
357
330
358
330
359
330
35A
330
35B
330
35C
330
35D
330
35E
330
35F
330
360
330
361
330
362
330
363
330
364
330
365
330
366
330
367
330
368
330
369
330
36A
330
36B
330
36C
330
36D
330
36E
330
36F
330
370
330
371
330
372
330
373
330
374
330
375
330
376
330
377
330
378
330
379
330
37A
330
37B
330
37C
330
37D
330
37E
330
37F
330
380
330
381
330
382
330
383
330
384
330
385
330
386
330
387
330
388
330
389
330
38A
330
38B
330
38C
330
38D
330
38E
330
38F
330
390
330
391
330
392
330
393
330
394
330
395
330
396
330
397
330
398
330
399
330
39A
330
39B
330
39C
330
39D
330
39E
330
39F
330
3A0
330
3A1
330
3A2
330
3A3
330
3A4
330
3A5
330
3A6
330
3A7
330
3A8
330
3A9
330
3AA
330
3AB
330
3AC
330
3AD
330
3AE
330
3AF
330
3B0
330
3B1
330
3B2
330
3B3
330
3B4
330
3B5
330
3B6
330
3B7
330
3B8
330
3B9
330
3BA
330
3BB
330
3BC
330
3BD
330
3BE
330
3BF
330
3C0
330
3C1
330
3C2
330
3C3
330
3C4
330
3C5
330
3C6
330
3C7
330
3C8
330
3C9
330
3CA
330
3CB
330
3CC
330
3CD
330
3CE
330
3CF
330
3D0
330
3D1
330
3D2
330
3D3
330
3D4
330
3D5
330
3D6
330
3D7
330
3D8
330
3D9
330
3DA
330
3DB
330
3DC
 92
1
 93
1
 72
3
 10
12.9046654608
 20
2.5403783405
 11
-0.8250004575
 21
0.0
 40
0.218572
 50
0.0
 51
-0.0
 73
1
 97
267
330
2D2
330
2D3
330
2D4
330
2D5
330
2D6
330
2D7
330
2D8
330
2D9
330
2DA
330
2DB
330
2DC
330
2DD
330
2DE
330
2DF
330
2E0
330
2E1
330
2E2
330
2E3
330
2E4
330
2E5
330
2E6
330
2E7
330
2E8
330
2E9
330
2EA
330
2EB
330
2EC
330
2ED
330
2EE
330
2EF
330
2F0
330
2F1
330
2F2
330
2F3
330
2F4
330
2F5
330
2F6
330
2F7
330
2F8
330
2F9
330
2FA
330
2FB
330
2FC
330
2FD
330
2FE
330
2FF
330
300
330
301
330
302
330
303
330
304
330
305
330
306
330
307
330
308
330
309
330
30A
330
30B
330
30C
330
30D
330
30E
330
30F
330
310
330
311
330
312
330
313
330
314
330
315
330
316
330
317
330
318
330
319
330
31A
330
31B
330
31C
330
31D
330
31E
330
31F
330
320
330
321
330
322
330
323
330
324
330
325
330
326
330
327
330
328
330
329
330
32A
330
32B
330
32C
330
32D
330
32E
330
32F
330
330
330
331
330
332
330
333
330
334
330
335
330
336
330
337
330
338
330
339
330
33A
330
33B
330
33C
330
33D
330
33E
330
33F
330
340
330
341
330
342
330
343
330
344
330
345
330
346
330
347
330
348
330
349
330
34A
330
34B
330
34C
330
34D
330
34E
330
34F
330
350
330
351
330
352
330
353
330
354
330
355
330
356
330
357
330
358
330
359
330
35A
330
35B
330
35C
330
35D
330
35E
330
35F
330
360
330
361
330
362
330
363
330
364
330
365
330
366
330
367
330
368
330
369
330
36A
330
36B
330
36C
330
36D
330
36E
330
36F
330
370
330
371
330
372
330
373
330
374
330
375
330
376
330
377
330
378
330
379
330
37A
330
37B
330
37C
330
37D
330
37E
330
37F
330
380
330
381
330
382
330
383
330
384
330
385
330
386
330
387
330
388
330
389
330
38A
330
38B
330
38C
330
38D
330
38E
330
38F
330
390
330
391
330
392
330
393
330
394
330
395
330
396
330
397
330
398
330
399
330
39A
330
39B
330
39C
330
39D
330
39E
330
39F
330
3A0
330
3A1
330
3A2
330
3A3
330
3A4
330
3A5
330
3A6
330
3A7
330
3A8
330
3A9
330
3AA
330
3AB
330
3AC
330
3AD
330
3AE
330
3AF
330
3B0
330
3B1
330
3B2
330
3B3
330
3B4
330
3B5
330
3B6
330
3B7
330
3B8
330
3B9
330
3BA
330
3BB
330
3BC
330
3BD
330
3BE
330
3BF
330
3C0
330
3C1
330
3C2
330
3C3
330
3C4
330
3C5
330
3C6
330
3C7
330
3C8
330
3C9
330
3CA
330
3CB
330
3CC
330
3CD
330
3CE
330
3CF
330
3D0
330
3D1
330
3D2
330
3D3
330
3D4
330
3D5
330
3D6
330
3D7
330
3D8
330
3D9
330
3DA
330
3DB
330
3DC
 75
0
 76
1
 98
1
 10
0.0
 20
0.0
  0
LINE
  5
3DE
100
AcDbEntity
  8
0
100
AcDbLine
 62
7
  6
CONTINUOUS
 10
8.5
 20
10.112
 11
8.586603
 21
10.262
  0
LINE
  5
3DF
100
AcDbEntity
  8
0
100
AcDbLine
 62
7
  6
CONTINUOUS
 10
16.38
 20
2.807
 11
10.03
 21
2.807
  0
LINE
  5
3E0
100
AcDbEntity
  8
0
100
AcDbLine
 62
7
  6
CONTINUOUS
 10
0.62
 20
3.1995
 11
0.37
 21
3.1995
  0
LINE
  5
3E1
100
AcDbEntity
  8
0
100
AcDbLine
 62
7
  6
CONTINUOUS
 10
16.38
 20
3.1995
 11
16.63
 21
3.1995
  0
LINE
  5
3E2
100
AcDbEntity
  8
0
100
AcDbLine
 62
7
  6
CONTINUOUS
 10
8.586603
 20
0.737
 11
8.5
 21
0.887
  0
LINE
  5
3E3
100
AcDbEntity
  8
0
100
AcDbLine
 62
7
  6
CONTINUOUS
 10
6.53
 20
0.887
 11
6.53
 21
0.637
  0
LINE
  5
3E4
100
AcDbEntity
  8
0
100
AcDbLine
 62
7
  6
CONTINUOUS
 10
6.53
 20
10.112
 11
6.53
 21
10.362
  0
LINE
  5
3E5
100
AcDbEntity
  8
0
100
AcDbLine
 62
7
  6
CONTINUOUS
 10
8.5
 20
0.887
 11
8.5
 21
0.637
  0
LINE
  5
3E6
100
AcDbEntity
  8
0
100
AcDbLine
 62
7
  6
CONTINUOUS
 10
8.5
 20
10.112
 11
8.5
 21
10.362
  0
LINE
  5
3E7
100
AcDbEntity
  8
0
100
AcDbLine
 62
7
  6
CONTINUOUS
 10
0.62
 20
5.4995
 11
0.37
 21
5.4995
  0
LINE
  5
3E8
100
AcDbEntity
  8
0
100
AcDbLine
 62
7
  6
CONTINUOUS
 10
16.38
 20
5.4995
 11
16.63
 21
5.4995
  0
LINE
  5
3E9
100
AcDbEntity
  8
0
100
AcDbLine
 62
7
  6
CONTINUOUS
 10
10.03
 20
2.807
 11
10.03
 21
0.887
  0
LINE
  5
3EA
100
AcDbEntity
  8
0
100
AcDbLine
 62
7
  6
CONTINUOUS
 10
10.47
 20
0.887
 11
10.47
 21
0.637
  0
LINE
  5
3EB
100
AcDbEntity
  8
0
100
AcDbLine
 62
7
  6
CONTINUOUS
 10
10.47
 20
10.112
 11
10.47
 21
10.362
  0
LINE
  5
3EC
100
AcDbEntity
  8
0
100
AcDbLine
 62
7
  6
CONTINUOUS
 10
10.5342808475
 20
1.143294839
 11
10.5342808475
 21
0.921203839
  0
LINE
  5
3ED
100
AcDbEntity
  8
0
100
AcDbLine
 62
7
  6
CONTINUOUS
 10
10.5342808475
 20
1.193294839
 11
10.5342808475
 21
1.293294839
  0
LINE
  5
3EE
100
AcDbEntity
  8
0
100
AcDbLine
 62
7
  6
CONTINUOUS
 10
10.5342808475
 20
1.343294839
 11
10.5342808475
 21
1.565385839
  0
LINE
  5
3EF
100
AcDbEntity
  8
0
100
AcDbLine
 62
7
  6
CONTINUOUS
 10
8.5
 20
0.887
 11
8.413397
 21
0.737
  0
LINE
  5
3F0
100
AcDbEntity
  8
0
100
AcDbLine
 62
7
  6
CONTINUOUS
 10
0.62
 20
7.7995
 11
0.37
 21
7.7995
  0
LINE
  5
3F1
100
AcDbEntity
  8
0
100
AcDbLine
 62
7
  6
CONTINUOUS
 10
16.38
 20
7.7995
 11
16.63
 21
7.7995
  0
LINE
  5
3F2
100
AcDbEntity
  8
0
100
AcDbLine
 62
7
  6
CONTINUOUS
 10
8.413397
 20
10.262
 11
8.5
 21
10.112
  0
LINE
  5
3F3
100
AcDbEntity
  8
0
100
AcDbLine
 62
7
  6
CONTINUOUS
 10
11.1389508475
 20
1.060596839
 11
11.1389508475
 21
1.425992839
  0
LINE
  5
3F4
100
AcDbEntity
  8
0
100
AcDbLine
 62
7
  6
CONTINUOUS
 10
11.7453418475
 20
1.495385839
 11
11.7453418475
 21
0.991203839
  0
LINE
  5
3F5
100
AcDbEntity
  8
0
100
AcDbLine
 62
7
  6
CONTINUOUS
 10
12.44
 20
0.887
 11
12.44
 21
0.637
  0
LINE
  5
3F6
100
AcDbEntity
  8
0
100
AcDbLine
 62
7
  6
CONTINUOUS
 10
12.44
 20
10.112
 11
12.44
 21
10.362
  0
LINE
  5
3F7
100
AcDbEntity
  8
0
100
AcDbLine
 62
7
  6
CONTINUOUS
 10
16.53
 20
5.586103
 11
16.38
 21
5.4995
  0
LINE
  5
3F8
100
AcDbEntity
  8
0
100
AcDbLine
 62
7
  6
CONTINUOUS
 10
16.38
 20
5.4995
 11
16.53
 21
5.412897
  0
LINE
  5
3F9
100
AcDbEntity
  8
0
100
AcDbLine
 62
7
  6
CONTINUOUS
 10
12.83
 20
1.507
 11
12.83
 21
1.137
  0
LINE
  5
3FA
100
AcDbEntity
  8
0
100
AcDbLine
 62
7
  6
CONTINUOUS
 10
16.38
 20
10.112
 11
0.62
 21
10.112
  0
LINE
  5
3FB
100
AcDbEntity
  8
0
100
AcDbLine
 62
7
  6
CONTINUOUS
 10
8.586603
 20
10.262
 11
8.413397
 21
10.262
  0
LINE
  5
3FC
100
AcDbEntity
  8
0
100
AcDbLine
 62
7
  6
CONTINUOUS
 10
14.205
 20
1.137
 11
14.205
 21
0.887
  0
LINE
  5
3FD
100
AcDbEntity
  8
0
100
AcDbLine
 62
7
  6
CONTINUOUS
 10
14.41
 20
0.887
 11
14.41
 21
0.637
  0
LINE
  5
3FE
100
AcDbEntity
  8
0
100
AcDbLine
 62
7
  6
CONTINUOUS
 10
14.41
 20
10.112
 11
14.41
 21
10.362
  0
LINE
  5
3FF
100
AcDbEntity
  8
0
100
AcDbLine
 62
7
  6
CONTINUOUS
 10
15.58
 20
1.507
 11
15.58
 21
1.137
  0
LINE
  5
400
100
AcDbEntity
  8
0
100
AcDbLine
 62
7
  6
CONTINUOUS
 10
16.38
 20
0.887
 11
16.38
 21
10.112
  0
LINE
  5
401
100
AcDbEntity
  8
0
100
AcDbLine
 62
7
  6
CONTINUOUS
 10
16.53
 20
5.412897
 11
16.53
 21
5.586103
  0
LINE
  5
402
100
AcDbEntity
  8
0
100
AcDbLine
 62
7
  6
CONTINUOUS
 10
2.1057189222
 20
6.0865626962
 11
2.1057189222
 21
5.1023107277
  0
LINE
  5
403
100
AcDbEntity
  8
0
100
AcDbLine
 62
7
  6
CONTINUOUS
 10
2.145089001
 20
5.8875641325
 11
2.145089001
 21
5.3013092914
  0
LINE
  5
404
100
AcDbEntity
  8
0
100
AcDbLine
 62
7
  6
CONTINUOUS
 10
2.1474512057
 20
5.8875641325
 11
2.1474512057
 21
5.3013092914
  0
LINE
  5
405
100
AcDbEntity
  8
AXIS
100
AcDbLine
 62
7
  6
CENTER
 10
2.1962701033
 20
6.0944367119
 11
2.1962701033
 21
5.9412871056
  0
LINE
  5
406
100
AcDbEntity
  8
AXIS
100
AcDbLine
 62
7
  6
CENTER
 10
2.1962701033
 20
5.0944367119
 11
2.1962701033
 21
4.9412871056
  0
LINE
  5
407
100
AcDbEntity
  8
AXIS
100
AcDbLine
 62
7
  6
CENTER
 10
2.1962701033
 20
5.0944367119
 11
2.1962701033
 21
5.2475863182
  0
LINE
  5
408
100
AcDbEntity
  8
AXIS
100
AcDbLine
 62
7
  6
CENTER
 10
2.1962701033
 20
6.0944367119
 11
2.1962701033
 21
6.2475863182
  0
LINE
  5
409
100
AcDbEntity
  8
0
100
AcDbLine
 62
7
  6
CONTINUOUS
 10
2.3474649834
 20
6.1225553561
 11
2.1681514591
 21
5.9432418318
  0
LINE
  5
40A
100
AcDbEntity
  8
0
100
AcDbLine
 62
7
  6
CONTINUOUS
 10
2.3491353144
 20
6.1208850252
 11
2.1698217901
 21
5.9415715008
  0
LINE
  5
40B
100
AcDbEntity
  8
0
100
AcDbLine
 62
7
  6
CONTINUOUS
 10
2.1681514591
 20
5.2456315921
 11
2.3474649834
 21
5.0663180678
  0
LINE
  5
40C
100
AcDbEntity
  8
0
100
AcDbLine
 62
7
  6
CONTINUOUS
 10
2.1698217901
 20
5.247301923
 11
2.3491353144
 21
5.0679883987
  0
LINE
  5
40D
100
AcDbEntity
  8
AXIS
100
AcDbLine
 62
7
  6
CENTER
 10
3.1962701033
 20
6.0944367119
 11
3.1962701033
 21
5.9412871056
  0
LINE
  5
40E
100
AcDbEntity
  8
AXIS
100
AcDbLine
 62
7
  6
CENTER
 10
3.1962701033
 20
5.0944367119
 11
3.1962701033
 21
4.9412871056
  0
LINE
  5
40F
100
AcDbEntity
  8
AXIS
100
AcDbLine
 62
7
  6
CENTER
 10
3.1962701033
 20
5.0944367119
 11
3.1962701033
 21
5.2475863182
  0
LINE
  5
410
100
AcDbEntity
  8
AXIS
100
AcDbLine
 62
7
  6
CENTER
 10
3.1962701033
 20
6.0944367119
 11
3.1962701033
 21
6.2475863182
  0
LINE
  5
411
100
AcDbEntity
  8
0
100
AcDbLine
 62
7
  6
CONTINUOUS
 10
3.245089001
 20
5.3013092914
 11
3.245089001
 21
5.8875641325
  0
LINE
  5
412
100
AcDbEntity
  8
0
100
AcDbLine
 62
7
  6
CONTINUOUS
 10
3.2474512057
 20
5.3013092914
 11
3.2474512057
 21
5.8875641325
  0
LINE
  5
413
100
AcDbEntity
  8
0
100
AcDbLine
 62
7
  6
CONTINUOUS
 10
3.2868212844
 20
5.1023107277
 11
3.2868212844
 21
6.0865626962
  0
LINE
  5
414
100
AcDbEntity
  8
0
100
AcDbLine
 62
7
  6
CONTINUOUS
 10
2.2041441191
 20
5.0038855308
 11
3.1883960876
 21
5.0038855308
  0
LINE
  5
415
100
AcDbEntity
  8
0
100
AcDbLine
 62
7
  6
CONTINUOUS
 10
2.4031426828
 20
5.0432556096
 11
2.9893975239
 21
5.0432556096
  0
LINE
  5
416
100
AcDbEntity
  8
0
100
AcDbLine
 62
7
  6
CONTINUOUS
 10
2.4031426828
 20
5.0456178143
 11
2.9893975239
 21
5.0456178143
  0
LINE
  5
417
100
AcDbEntity
  8
AXIS
100
AcDbLine
 62
7
  6
CENTER
 10
3.1962701033
 20
5.0944367119
 11
3.043120497
 21
5.0944367119
  0
LINE
  5
418
100
AcDbEntity
  8
AXIS
100
AcDbLine
 62
7
  6
CENTER
 10
2.1962701033
 20
5.0944367119
 11
2.043120497
 21
5.0944367119
  0
LINE
  5
419
100
AcDbEntity
  8
AXIS
100
AcDbLine
 62
7
  6
CENTER
 10
2.1962701033
 20
5.0944367119
 11
2.3494197096
 21
5.0944367119
  0
LINE
  5
41A
100
AcDbEntity
  8
AXIS
100
AcDbLine
 62
7
  6
CENTER
 10
3.1962701033
 20
5.0944367119
 11
3.3494197096
 21
5.0944367119
  0
LINE
  5
41B
100
AcDbEntity
  8
0
100
AcDbLine
 62
7
  6
CONTINUOUS
 10
3.0434048922
 20
5.0679883987
 11
3.2227184165
 21
5.247301923
  0
LINE
  5
41C
100
AcDbEntity
  8
0
100
AcDbLine
 62
7
  6
CONTINUOUS
 10
3.0450752232
 20
5.0663180678
 11
3.2243887475
 21
5.2456315921
  0
LINE
  5
41D
100
AcDbEntity
  8
0
100
AcDbLine
 62
7
  6
CONTINUOUS
 10
3.2227184165
 20
5.9415715008
 11
3.0434048922
 21
6.1208850252
  0
LINE
  5
41E
100
AcDbEntity
  8
0
100
AcDbLine
 62
7
  6
CONTINUOUS
 10
3.2243887475
 20
5.9432418318
 11
3.0450752232
 21
6.1225553561
  0
LINE
  5
41F
100
AcDbEntity
  8
AXIS
100
AcDbLine
 62
7
  6
CONTINUOUS
 10
3.2868212844
 20
5.5196335623
 11
5.550600812
 21
5.5196335623
  0
LINE
  5
420
100
AcDbEntity
  8
AXIS
100
AcDbLine
 62
7
  6
CONTINUOUS
 10
3.2868212844
 20
5.6692398616
 11
5.550600812
 21
5.6692398616
  0
LINE
  5
421
100
AcDbEntity
  8
AXIS
100
AcDbLine
 62
7
  6
CENTER
 10
3.1962701033
 20
6.0944367119
 11
3.043120497
 21
6.0944367119
  0
LINE
  5
422
100
AcDbEntity
  8
AXIS
100
AcDbLine
 62
7
  6
CENTER
 10
2.1962701033
 20
6.0944367119
 11
2.043120497
 21
6.0944367119
  0
LINE
  5
423
100
AcDbEntity
  8
AXIS
100
AcDbLine
 62
7
  6
CENTER
 10
2.1962701033
 20
6.0944367119
 11
2.3494197096
 21
6.0944367119
  0
LINE
  5
424
100
AcDbEntity
  8
AXIS
100
AcDbLine
 62
7
  6
CENTER
 10
3.1962701033
 20
6.0944367119
 11
3.3494197096
 21
6.0944367119
  0
LINE
  5
425
100
AcDbEntity
  8
0
100
AcDbLine
 62
7
  6
CONTINUOUS
 10
2.9893975239
 20
6.1432556096
 11
2.4031426828
 21
6.1432556096
  0
LINE
  5
426
100
AcDbEntity
  8
0
100
AcDbLine
 62
7
  6
CONTINUOUS
 10
2.9893975239
 20
6.1456178143
 11
2.4031426828
 21
6.1456178143
  0
LINE
  5
427
100
AcDbEntity
  8
0
100
AcDbLine
 62
7
  6
CONTINUOUS
 10
3.1883960876
 20
6.184987893
 11
2.2041441191
 21
6.184987893
  0
LINE
  5
428
100
AcDbEntity
  8
AXIS
100
AcDbLine
 62
7
  6
CONTINUOUS
 10
5.550600812
 20
5.6692398616
 11
5.550600812
 21
5.5196335623
  0
LINE
  5
429
100
AcDbEntity
  8
0
100
AcDbLine
 62
7
  6
CONTINUOUS
 10
8.3646107169
 20
5.0038855308
 11
8.8862642602
 21
5.0038855308
  0
LINE
  5
42A
100
AcDbEntity
  8
0
100
AcDbLine
 62
7
  6
CONTINUOUS
 10
8.3646107169
 20
5.1023107277
 11
8.8862642602
 21
5.1023107277
  0
LINE
  5
42B
100
AcDbEntity
  8
0
100
AcDbLine
 62
7
  6
CONTINUOUS
 10
8.3646107169
 20
5.0038855308
 11
8.3646107169
 21
6.184987893
  0
LINE
  5
42C
100
AcDbEntity
  8
AXIS
100
AcDbLine
 62
7
  6
CENTER
 10
8.5516185909
 20
5.5944367119
 11
8.5516185909
 21
5.4196335623
  0
LINE
  5
42D
100
AcDbEntity
  8
AXIS
100
AcDbLine
 62
7
  6
CENTER
 10
8.5516185909
 20
5.5944367119
 11
8.5516185909
 21
5.7692398616
  0
LINE
  5
42E
100
AcDbEntity
  8
AXIS
100
AcDbLine
 62
7
  6
CENTER
 10
8.5516185909
 20
5.5944367119
 11
8.3768154413
 21
5.5944367119
  0
LINE
  5
42F
100
AcDbEntity
  8
AXIS
100
AcDbLine
 62
7
  6
CENTER
 10
8.5516185909
 20
5.5944367119
 11
8.7264217405
 21
5.5944367119
  0
LINE
  5
430
100
AcDbEntity
  8
0
100
AcDbLine
 62
7
  6
CONTINUOUS
 10
8.8862642602
 20
5.0038855308
 11
8.8862642602
 21
6.184987893
  0
LINE
  5
431
100
AcDbEntity
  8
0
100
AcDbLine
 62
7
  6
CONTINUOUS
 10
8.3646107169
 20
6.0865626962
 11
8.8862642602
 21
6.0865626962
  0
LINE
  5
432
100
AcDbEntity
  8
0
100
AcDbLine
 62
7
  6
CONTINUOUS
 10
8.3646107169
 20
6.184987893
 11
8.8862642602
 21
6.184987893
  0
LINE
  5
433
100
AcDbEntity
  8
AXIS
100
AcDbLine
 62
7
  6
CONTINUOUS
 10
11.3563568956
 20
5.5196335623
 11
11.3563568956
 21
5.6692398616
  0
LINE
  5
434
100
AcDbEntity
  8
0
100
AcDbLine
 62
7
  6
CONTINUOUS
 10
14.7028135886
 20
5.0038855308
 11
13.71856162
 21
5.0038855308
  0
LINE
  5
435
100
AcDbEntity
  8
AXIS
100
AcDbLine
 62
7
  6
CENTER
 10
14.7106876043
 20
5.0944367119
 11
13.8768095605
 21
5.0944367119
  0
LINE
  5
436
100
AcDbEntity
  8
AXIS
100
AcDbLine
 62
7
  6
CENTER
 10
13.7106876043
 20
5.0944367119
 11
13.557537998
 21
5.0944367119
  0
LINE
  5
437
100
AcDbEntity
  8
AXIS
100
AcDbLine
 62
7
  6
CENTER
 10
13.7106876043
 20
5.0944367119
 11
13.8638372106
 21
5.0944367119
  0
LINE
  5
438
100
AcDbEntity
  8
AXIS
100
AcDbLine
 62
7
  6
CENTER
 10
14.7106876043
 20
5.0944367119
 11
14.8638372106
 21
5.0944367119
  0
LINE
  5
439
100
AcDbEntity
  8
AXIS
100
AcDbLine
 62
7
  6
CONTINUOUS
 10
13.6201364232
 20
5.5196335623
 11
11.3563568956
 21
5.5196335623
  0
LINE
  5
43A
100
AcDbEntity
  8
AXIS
100
AcDbLine
 62
7
  6
CONTINUOUS
 10
13.6201364232
 20
5.6692398616
 11
11.3563568956
 21
5.6692398616
  0
LINE
  5
43B
100
AcDbEntity
  8
AXIS
100
AcDbLine
 62
7
  6
CENTER
 10
14.7106876043
 20
6.0944367119
 11
14.1806829689
 21
6.0944367119
  0
LINE
  5
43C
100
AcDbEntity
  8
AXIS
100
AcDbLine
 62
7
  6
CENTER
 10
13.7106876043
 20
6.0944367119
 11
13.557537998
 21
6.0944367119
  0
LINE
  5
43D
100
AcDbEntity
  8
AXIS
100
AcDbLine
 62
7
  6
CENTER
 10
13.7106876043
 20
6.0944367119
 11
14.1806829689
 21
6.0944367119
  0
LINE
  5
43E
100
AcDbEntity
  8
AXIS
100
AcDbLine
 62
7
  6
CENTER
 10
14.7106876043
 20
6.0944367119
 11
14.8638372106
 21
6.0944367119
  0
LINE
  5
43F
100
AcDbEntity
  8
0
100
AcDbLine
 62
7
  6
CONTINUOUS
 10
13.6201364232
 20
5.1023107277
 11
13.6201364232
 21
6.0865626962
  0
LINE
  5
440
100
AcDbEntity
  8
0
100
AcDbLine
 62
7
  6
CONTINUOUS
 10
13.71856162
 20
6.184987893
 11
14.7028135886
 21
6.184987893
  0
LINE
  5
441
100
AcDbEntity
  8
AXIS
100
AcDbLine
 62
7
  6
CENTER
 10
13.7106876043
 20
6.0944367119
 11
13.7106876043
 21
5.5907087531
  0
LINE
  5
442
100
AcDbEntity
  8
AXIS
100
AcDbLine
 62
7
  6
CENTER
 10
13.7106876043
 20
5.0944367119
 11
13.7106876043
 21
4.9412871056
  0
LINE
  5
443
100
AcDbEntity
  8
AXIS
100
AcDbLine
 62
7
  6
CENTER
 10
13.7106876043
 20
5.0944367119
 11
13.7106876043
 21
5.5907087531
  0
LINE
  5
444
100
AcDbEntity
  8
AXIS
100
AcDbLine
 62
7
  6
CENTER
 10
13.7106876043
 20
6.0944367119
 11
13.7106876043
 21
6.2475863182
  0
LINE
  5
445
100
AcDbEntity
  8
AXIS
100
AcDbLine
 62
7
  6
CENTER
 10
14.7106876043
 20
6.0944367119
 11
14.7106876043
 21
5.5558950993
  0
LINE
  5
446
100
AcDbEntity
  8
AXIS
100
AcDbLine
 62
7
  6
CENTER
 10
14.7106876043
 20
5.0944367119
 11
14.7106876043
 21
4.9412871056
  0
LINE
  5
447
100
AcDbEntity
  8
AXIS
100
AcDbLine
 62
7
  6
CENTER
 10
14.7106876043
 20
5.0944367119
 11
14.7106876043
 21
5.5558950993
  0
LINE
  5
448
100
AcDbEntity
  8
AXIS
100
AcDbLine
 62
7
  6
CENTER
 10
14.7106876043
 20
6.0944367119
 11
14.7106876043
 21
6.2475863182
  0
LINE
  5
449
100
AcDbEntity
  8
0
100
AcDbLine
 62
7
  6
CONTINUOUS
 10
14.8012387854
 20
6.0865626962
 11
14.8012387854
 21
5.1023107277
  0
LWPOLYLINE
  5
44A
100
AcDbEntity
  8
0
100
AcDbPolyline
 62
7
  6
CONTINUOUS
 90
5
 70
0
 10
1.2478589852
 20
9.4754254831
 10
1.2392032285
 20
9.468244137
 10
1.232771737
 20
9.4580633304
 10
1.2288112442
 20
9.4452740604
 10
1.2274739494
 20
9.4303678116
  0
LWPOLYLINE
  5
44B
100
AcDbEntity
  8
0
100
AcDbPolyline
 62
7
  6
CONTINUOUS
 90
4
 70
0
 10
1.2553129149
 20
9.2518125327
 10
1.2563827508
 20
9.2637375318
 10
1.2595511451
 20
9.2739689477
 10
1.2646963382
 20
9.282113593
  0
LWPOLYLINE
  5
44C
100
AcDbEntity
  8
AXIS
100
AcDbPolyline
 62
7
  6
CONTINUOUS
 90
4
 70
0
 10
1.2539209666
 20
9.4215281174
 10
1.2552015628
 20
9.4320206953
 10
1.2589560808
 20
9.4403195497
 10
1.264928886
 20
9.44585926
  0
LINE
  5
44D
100
AcDbEntity
  8
0
100
AcDbLine
 62
7
  6
CONTINUOUS
 10
1.3050625022
 20
9.3054188695
 11
1.3040875199
 21
9.3038755096
  0
LINE
  5
44E
100
AcDbEntity
  8
0
100
AcDbLine
 62
7
  6
CONTINUOUS
 10
1.2478589852
 20
9.4754254831
 11
1.6167222073
 21
9.6883874925
  0
LINE
  5
44F
100
AcDbEntity
  8
0
100
AcDbLine
 62
7
  6
CONTINUOUS
 10
1.2970713633
 20
9.4705510461
 11
1.6659345854
 21
9.6835130556
  0
LWPOLYLINE
  5
450
100
AcDbEntity
  8
0
100
AcDbPolyline
 62
7
  6
CONTINUOUS
 90
9
 70
0
 10
1.2274739494
 20
8.6267237003
 10
1.2288112442
 20
8.6102733114
 10
1.232771737
 20
8.5929109616
 10
1.2392032285
 20
8.5753038764
 10
1.2478585599
 20
8.5581286861
 10
1.2584051118
 20
8.5420454236
 10
1.270437586
 20
8.5276721597
 10
1.2834935814
 20
8.5155612508
 10
1.2970713633
 20
8.5061781125
  0
LINE
  5
451
100
AcDbEntity
  8
0
100
AcDbLine
 62
7
  6
CONTINUOUS
 10
1.2563827508
 20
8.7599737268
 11
1.2553129149
 21
8.7731340379
  0
LWPOLYLINE
  5
452
100
AcDbEntity
  8
0
100
AcDbPolyline
 62
7
  6
CONTINUOUS
 90
5
 70
0
 10
1.2569832529
 20
8.7721696896
 10
1.2580209936
 20
8.7594041879
 10
1.2610943361
 20
8.7459310045
 10
1.2660851735
 20
8.7322679063
 10
1.2728017107
 20
8.7189399586
  0
LINE
  5
453
100
AcDbEntity
  8
0
100
AcDbLine
 62
7
  6
CONTINUOUS
 10
1.2274739494
 20
9.4303678116
 11
1.2274739494
 21
8.6267237003
  0
LINE
  5
454
100
AcDbEntity
  8
0
100
AcDbLine
 62
7
  6
CONTINUOUS
 10
1.2553129149
 20
9.2518125327
 11
1.2553129149
 21
8.7731340379
  0
LINE
  5
455
100
AcDbEntity
  8
0
100
AcDbLine
 62
7
  6
CONTINUOUS
 10
1.2569832529
 20
9.2508481845
 11
1.2569832529
 21
8.7721696896
  0
LWPOLYLINE
  5
456
100
AcDbEntity
  8
AXIS
100
AcDbPolyline
 62
7
  6
CONTINUOUS
 90
4
 70
0
 10
1.3290861736
 20
9.3781324467
 10
1.3278055775
 20
9.3676398688
 10
1.3240510595
 20
9.3593410144
 10
1.3180782543
 20
9.3538013041
  0
LWPOLYLINE
  5
457
100
AcDbEntity
  8
AXIS
100
AcDbPolyline
 62
7
  6
CONTINUOUS
 90
4
 70
0
 10
1.2539209666
 20
8.6050257003
 10
1.2552015628
 20
8.6155182782
 10
1.2589560808
 20
8.6238171326
 10
1.264928886
 20
8.6293568428
  0
LINE
  5
458
100
AcDbEntity
  8
0
100
AcDbLine
 62
7
  6
CONTINUOUS
 10
1.2646963382
 20
9.282113593
 11
1.2716206034
 21
9.2878584735
  0
LWPOLYLINE
  5
459
100
AcDbEntity
  8
0
100
AcDbPolyline
 62
7
  6
CONTINUOUS
 90
5
 70
0
 10
1.2728017107
 20
9.285812747
 10
1.2660851735
 20
9.280240213
 10
1.2610943361
 20
9.272339907
 10
1.2580209936
 20
9.2624154336
 10
1.2569832529
 20
9.2508481845
  0
LINE
  5
45A
100
AcDbEntity
  8
0
100
AcDbLine
 62
7
  6
CONTINUOUS
 10
1.3119867673
 20
9.31116375
 11
1.3050625022
 21
9.3054188695
  0
LWPOLYLINE
  5
45B
100
AcDbEntity
  8
0
100
AcDbPolyline
 62
7
  6
CONTINUOUS
 90
5
 70
0
 10
1.6167222073
 20
9.6883874925
 10
1.627268334
 20
9.6922926758
 10
1.6393008082
 20
9.6927723496
 10
1.6523568035
 20
9.6898078346
 10
1.6659345854
 20
9.6835130556
  0
LWPOLYLINE
  5
45C
100
AcDbEntity
  8
AXIS
100
AcDbPolyline
 62
7
  6
CONTINUOUS
 90
4
 70
0
 10
1.3290861736
 20
8.5616300295
 10
1.3278055775
 20
8.5511374517
 10
1.3240510595
 20
8.5428385973
 10
1.3180782543
 20
8.537298887
  0
LINE
  5
45D
100
AcDbEntity
  8
0
100
AcDbLine
 62
7
  6
CONTINUOUS
 10
1.3984149403
 20
9.361065311
 11
1.2716206034
 21
9.2878584735
  0
LINE
  5
45E
100
AcDbEntity
  8
0
100
AcDbLine
 62
7
  6
CONTINUOUS
 10
1.2728017107
 20
9.285812747
 11
1.4086769196
 21
9.3642623972
  0
LINE
  5
45F
100
AcDbEntity
  8
0
100
AcDbLine
 62
7
  6
CONTINUOUS
 10
1.2553129149
 20
9.2518125327
 11
1.2571657367
 21
9.2528822535
  0
LINE
  5
460
100
AcDbEntity
  8
0
100
AcDbLine
 62
7
  6
CONTINUOUS
 10
1.4377851829
 20
9.355237212
 11
1.4394555497
 21
9.356201593
  0
LWPOLYLINE
  5
461
100
AcDbEntity
  8
AXIS
100
AcDbPolyline
 62
7
  6
CONTINUOUS
 90
10
 70
0
 10
1.264928886
 20
9.44585926
 10
1.2727122684
 20
9.4482619154
 10
1.2817764766
 20
9.4473641676
 10
1.2915035701
 20
9.443227064
 10
1.3012306637
 20
9.4361325415
 10
1.3102948719
 20
9.42656408
 10
1.3180784839
 20
9.4151737543
 10
1.3240510595
 20
9.4027377964
 10
1.3278055775
 20
9.3901036961
 10
1.3290861736
 20
9.3781324467
  0
LWPOLYLINE
  5
462
100
AcDbEntity
  8
0
100
AcDbPolyline
 62
7
  6
CONTINUOUS
 90
4
 70
0
 10
1.2716206034
 20
8.7182580265
 10
1.2646963382
 20
8.7319981788
 10
1.2595511451
 20
8.746083847
 10
1.2563827508
 20
8.7599737268
  0
LWPOLYLINE
  5
463
100
AcDbEntity
  8
0
100
AcDbPolyline
 62
7
  6
CONTINUOUS
 90
5
 70
0
 10
1.3984149403
 20
9.361065311
 10
1.4068521818
 20
9.3641896541
 10
1.4164781611
 20
9.3645733931
 10
1.4269229574
 20
9.3622017812
 10
1.4377851829
 20
9.3571659579
  0
LWPOLYLINE
  5
464
100
AcDbEntity
  8
AXIS
100
AcDbPolyline
 62
7
  6
CONTINUOUS
 90
10
 70
0
 10
1.3180782543
 20
9.3538013041
 10
1.3102948719
 20
9.3513986487
 10
1.3012306637
 20
9.3522963965
 10
1.2915035701
 20
9.3564335
 10
1.2817764766
 20
9.3635280225
 10
1.2727122684
 20
9.3730964841
 10
1.2649286564
 20
9.3844868097
 10
1.2589560808
 20
9.3969227677
 10
1.2552015628
 20
9.4095568679
 10
1.2539209666
 20
9.4215281174
  0
LWPOLYLINE
  5
465
100
AcDbEntity
  8
0
100
AcDbPolyline
 62
7
  6
CONTINUOUS
 90
5
 70
0
 10
1.3995960476
 20
8.4993269441
 10
1.4077801718
 20
8.4868463324
 10
1.4171173718
 20
8.4756926796
 10
1.4272488242
 20
8.4662946144
 10
1.4377851829
 20
8.4590132991
  0
LINE
  5
466
100
AcDbEntity
  8
0
100
AcDbLine
 62
7
  6
CONTINUOUS
 10
1.2716206034
 20
8.7182580265
 11
1.3984149403
 21
8.498645012
  0
LINE
  5
467
100
AcDbEntity
  8
0
100
AcDbLine
 62
7
  6
CONTINUOUS
 10
1.2728017107
 20
8.7189399586
 11
1.3995960476
 21
8.4993269441
  0
LWPOLYLINE
  5
468
100
AcDbEntity
  8
0
100
AcDbPolyline
 62
7
  6
CONTINUOUS
 90
5
 70
0
 10
1.4377851829
 20
8.4570845532
 10
1.4269229574
 20
8.4645910639
 10
1.4164781611
 20
8.4742797909
 10
1.4068521818
 20
8.485778402
 10
1.3984149403
 20
8.498645012
  0
LINE
  5
469
100
AcDbEntity
  8
0
100
AcDbLine
 62
7
  6
CONTINUOUS
 10
1.2553129149
 20
8.7731340379
 11
1.2569832529
 21
8.7740984022
  0
LINE
  5
46A
100
AcDbEntity
  8
0
100
AcDbLine
 62
7
  6
CONTINUOUS
 10
1.8523316825
 20
9.1159040934
 11
1.8538522809
 21
9.116782006
  0
LINE
  5
46B
100
AcDbEntity
  8
0
100
AcDbLine
 62
7
  6
CONTINUOUS
 10
1.8905208179
 20
9.0755904483
 11
1.8917019354
 21
9.0762723627
  0
LINE
  5
46C
100
AcDbEntity
  8
0
100
AcDbLine
 62
7
  6
CONTINUOUS
 10
1.2716206034
 20
8.7182580265
 11
1.2728017209
 21
8.7189399409
  0
LWPOLYLINE
  5
46D
100
AcDbEntity
  8
0
100
AcDbPolyline
 62
7
  6
CONTINUOUS
 90
5
 70
0
 10
1.9930455022
 20
8.1043663463
 10
2.0066232841
 20
8.0980715672
 10
2.0196792794
 20
8.0951070522
 10
2.0317117536
 20
8.095586726
 10
2.0422578803
 20
8.0994919094
  0
LWPOLYLINE
  5
46E
100
AcDbEntity
  8
0
100
AcDbPolyline
 62
7
  6
CONTINUOUS
 90
5
 70
0
 10
1.8523316825
 20
8.2196801804
 10
1.8628680413
 20
8.2147954318
 10
1.8729994936
 20
8.2124949682
 10
1.8823366936
 20
8.212867195
 10
1.8905208179
 20
8.2158978078
  0
LINE
  5
46F
100
AcDbEntity
  8
0
100
AcDbLine
 62
7
  6
CONTINUOUS
 10
1.2970713633
 20
8.5061781125
 11
1.9930455022
 21
8.1043663463
  0
LINE
  5
470
100
AcDbEntity
  8
0
100
AcDbLine
 62
7
  6
CONTINUOUS
 10
1.4377851829
 20
8.4570845532
 11
1.8523316825
 21
8.2177514345
  0
LINE
  5
471
100
AcDbEntity
  8
0
100
AcDbLine
 62
7
  6
CONTINUOUS
 10
1.4377851829
 20
8.4590132991
 11
1.8523316825
 21
8.2196801804
  0
LWPOLYLINE
  5
472
100
AcDbEntity
  8
AXIS
100
AcDbPolyline
 62
7
  6
CONTINUOUS
 90
4
 70
0
 10
1.9610306918
 20
9.0132873629
 10
1.962311288
 20
9.0237799408
 10
1.9660658059
 20
9.0320787952
 10
1.9720386111
 20
9.0376185055
  0
LINE
  5
473
100
AcDbEntity
  8
0
100
AcDbLine
 62
7
  6
CONTINUOUS
 10
1.9930455022
 20
9.0687392799
 11
2.3619087244
 21
9.2817012893
  0
LWPOLYLINE
  5
474
100
AcDbEntity
  8
0
100
AcDbPolyline
 62
7
  6
CONTINUOUS
 90
5
 70
0
 10
2.0331336126
 20
8.8027477028
 10
2.0320958718
 20
8.8155132045
 10
2.0290225293
 20
8.828986388
 10
2.024031692
 20
8.8426494861
 10
2.0173151548
 20
8.8559774338
  0
LWPOLYLINE
  5
475
100
AcDbEntity
  8
0
100
AcDbPolyline
 62
7
  6
CONTINUOUS
 90
9
 70
0
 10
2.0626429161
 20
8.9481936921
 10
2.0613056213
 20
8.964644081
 10
2.0573451284
 20
8.9820064308
 10
2.0509136369
 20
8.999613516
 10
2.0422583055
 20
9.0167887064
 10
2.0317117536
 20
9.0328719689
 10
2.0196792794
 20
9.0472452328
 10
2.0066232841
 20
9.0593561416
 10
1.9930455022
 20
9.0687392799
  0
LINE
  5
476
100
AcDbEntity
  8
0
100
AcDbLine
 62
7
  6
CONTINUOUS
 10
2.0331336126
 20
8.3240692079
 11
2.0331336126
 21
8.8027477028
  0
LINE
  5
477
100
AcDbEntity
  8
0
100
AcDbLine
 62
7
  6
CONTINUOUS
 10
2.0348039505
 20
8.3231048597
 11
2.0348039505
 21
8.8017833545
  0
LINE
  5
478
100
AcDbEntity
  8
0
100
AcDbLine
 62
7
  6
CONTINUOUS
 10
2.0626429161
 20
8.1445495808
 11
2.0626429161
 21
8.9481936921
  0
LWPOLYLINE
  5
479
100
AcDbEntity
  8
0
100
AcDbPolyline
 62
7
  6
CONTINUOUS
 90
4
 70
0
 10
2.0348039505
 20
8.3231048597
 10
2.0337341147
 20
8.3111798606
 10
2.0305657204
 20
8.3009484447
 10
2.0254205272
 20
8.2928037994
  0
LWPOLYLINE
  5
47A
100
AcDbEntity
  8
AXIS
100
AcDbPolyline
 62
7
  6
CONTINUOUS
 90
4
 70
0
 10
2.0361958988
 20
8.9698916921
 10
2.0349153026
 20
8.9593991143
 10
2.0311607847
 20
8.9511002599
 10
2.0251879795
 20
8.9455605496
  0
LWPOLYLINE
  5
47B
100
AcDbEntity
  8
AXIS
100
AcDbPolyline
 62
7
  6
CONTINUOUS
 90
4
 70
0
 10
1.9610306918
 20
8.1967849458
 10
1.962311288
 20
8.2072775236
 10
1.9660658059
 20
8.215576378
 10
1.9720386111
 20
8.2211160883
  0
LWPOLYLINE
  5
47C
100
AcDbEntity
  8
AXIS
100
AcDbPolyline
 62
7
  6
CONTINUOUS
 90
4
 70
0
 10
2.0361958988
 20
8.153389275
 10
2.0349153026
 20
8.1428966971
 10
2.0311607847
 20
8.1345978427
 10
2.0251879795
 20
8.1290581324
  0
LINE
  5
47D
100
AcDbEntity
  8
0
100
AcDbLine
 62
7
  6
CONTINUOUS
 10
2.0626429161
 20
8.9481936921
 11
2.4315061382
 21
9.1611557015
  0
LWPOLYLINE
  5
47E
100
AcDbEntity
  8
AXIS
100
AcDbPolyline
 62
7
  6
CONTINUOUS
 90
10
 70
0
 10
1.9720386111
 20
9.0376185055
 10
1.9798219935
 20
9.0400211609
 10
1.9888862017
 20
9.0391234131
 10
1.9986132953
 20
9.0349863095
 10
2.0083403888
 20
9.027891787
 10
2.017404597
 20
9.0183233255
 10
2.0251882091
 20
9.0069329998
 10
2.0311607847
 20
8.9944970419
 10
2.0349153026
 20
8.9818629416
 10
2.0361958988
 20
8.9698916921
  0
LWPOLYLINE
  5
47F
100
AcDbEntity
  8
AXIS
100
AcDbPolyline
 62
7
  6
CONTINUOUS
 90
9
 70
0
 10
2.1280669424
 20
8.5841433478
 10
2.1284299488
 20
8.5762892171
 10
2.1313339995
 20
8.5621896052
 10
2.1370151799
 20
8.5507353093
 10
2.1452251951
 20
8.5424269372
 10
2.1556052282
 20
8.5376276047
 10
2.1677016219
 20
8.5365470654
 10
2.1809857057
 20
8.5392325444
 10
2.1859494392
 20
8.5414959152
  0
LINE
  5
480
100
AcDbEntity
  8
0
100
AcDbLine
 62
7
  6
CONTINUOUS
 10
2.0173151548
 20
8.8559774338
 11
2.0184962723
 21
8.8566593482
  0
LINE
  5
481
100
AcDbEntity
  8
0
100
AcDbLine
 62
7
  6
CONTINUOUS
 10
1.3984149403
 20
8.498645012
 11
1.3995960578
 21
8.4993269264
  0
LINE
  5
482
100
AcDbEntity
  8
0
100
AcDbLine
 62
7
  6
CONTINUOUS
 10
2.0331336126
 20
8.8027477028
 11
2.0346541894
 21
8.8036256029
  0
LINE
  5
483
100
AcDbEntity
  8
0
100
AcDbLine
 62
7
  6
CONTINUOUS
 10
1.4377851829
 20
8.4570845532
 11
1.4394555497
 21
8.4580489342
  0
LWPOLYLINE
  5
484
100
AcDbEntity
  8
AXIS
100
AcDbPolyline
 62
7
  6
CONTINUOUS
 90
10
 70
0
 10
2.0251879795
 20
8.9455605496
 10
2.017404597
 20
8.9431578942
 10
2.0083403888
 20
8.944055642
 10
1.9986132953
 20
8.9481927455
 10
1.9888862017
 20
8.955287268
 10
1.9798219935
 20
8.9648557295
 10
1.9720383815
 20
8.9762460552
 10
1.9660658059
 20
8.9886820132
 10
1.962311288
 20
9.0013161134
 10
1.9610306918
 20
9.0132873629
  0
LWPOLYLINE
  5
485
100
AcDbEntity
  8
AXIS
100
AcDbPolyline
 62
7
  6
CONTINUOUS
 90
10
 70
0
 10
1.264928886
 20
8.6293568428
 10
1.2727122684
 20
8.6317594983
 10
1.2817764766
 20
8.6308617505
 10
1.2915035701
 20
8.6267246469
 10
1.3012306637
 20
8.6196301244
 10
1.3102948719
 20
8.6100616629
 10
1.3180784839
 20
8.5986713372
 10
1.3240510595
 20
8.5862353793
 10
1.3278055775
 20
8.573601279
 10
1.3290861736
 20
8.5616300295
  0
LINE
  5
486
100
AcDbEntity
  8
0
100
AcDbLine
 62
7
  6
CONTINUOUS
 10
1.9218061098
 20
8.2339602717
 11
1.9236308476
 21
8.2340330148
  0
LWPOLYLINE
  5
487
100
AcDbEntity
  8
AXIS
100
AcDbPolyline
 62
7
  6
CONTINUOUS
 90
18
 70
0
 10
3.7582168446
 20
7.6337682814
 10
3.760979483
 20
7.6323924611
 10
3.7670209849
 20
7.6306581819
 10
3.7736446278
 20
7.6303059729
 10
3.7807155734
 20
7.6313430043
 10
3.7880898776
 20
7.633748165
 10
3.7956174209
 20
7.6374724929
 10
3.8031449642
 20
7.6424401714
 10
3.8105192684
 20
7.6485500729
 10
3.817590214
 20
7.6556778175
 10
3.8242138569
 20
7.6636783048
 10
3.8302553588
 20
7.6723886679
 10
3.8355917322
 20
7.681631589
 10
3.8401143438
 20
7.6912189089
 10
3.8437311265
 20
7.7009554574
 10
3.8463684528
 20
7.7106430264
 10
3.8479726345
 20
7.720084405
 10
3.848511015
 20
7.7290873939
  0
LWPOLYLINE
  5
488
100
AcDbEntity
  8
AXIS
100
AcDbPolyline
 62
7
  6
CONTINUOUS
 90
3
 70
0
 10
2.1435564784
 20
8.5659709489
 10
2.137426844
 20
8.5709248406
 10
2.131501049
 20
8.5805410794
  0
LINE
  5
489
100
AcDbEntity
  8
0
100
AcDbLine
 62
7
  6
CONTINUOUS
 10
2.0173151548
 20
8.8559774338
 11
1.8905208179
 21
9.0755904483
  0
LINE
  5
48A
100
AcDbEntity
  8
0
100
AcDbLine
 62
7
  6
CONTINUOUS
 10
2.0184962621
 20
8.8566593659
 11
1.8917019252
 21
9.0762723804
  0
LWPOLYLINE
  5
48B
100
AcDbEntity
  8
0
100
AcDbPolyline
 62
7
  6
CONTINUOUS
 90
5
 70
0
 10
2.0184962621
 20
8.8566593659
 10
2.0254205272
 20
8.8429192136
 10
2.0305657204
 20
8.8288335454
 10
2.0337341147
 20
8.8149436656
 10
2.0348039505
 20
8.8017833545
  0
LINE
  5
48C
100
AcDbEntity
  8
AXIS
100
AcDbLine
 62
7
  6
CONTINUOUS
 10
2.131501049
 20
8.5805410794
 11
2.1285028661
 21
8.5928561466
  0
LWPOLYLINE
  5
48D
100
AcDbEntity
  8
AXIS
100
AcDbPolyline
 62
7
  6
CONTINUOUS
 90
9
 70
0
 10
2.1948769014
 20
8.6998663424
 10
2.1809857057
 20
8.6901603957
 10
2.1677016219
 20
8.6775068275
 10
2.1556052282
 20
8.6624586594
 10
2.1452251951
 20
8.6456735686
 10
2.1370151799
 20
8.627885144
 10
2.1313339995
 20
8.6098708252
 10
2.1284299488
 20
8.5924179244
 10
2.1280669424
 20
8.5841433478
  0
LWPOLYLINE
  5
48E
100
AcDbEntity
  8
AXIS
100
AcDbPolyline
 62
7
  6
CONTINUOUS
 90
10
 70
0
 10
1.3180782543
 20
8.537298887
 10
1.3102948719
 20
8.5348962316
 10
1.3012306637
 20
8.5357939793
 10
1.2915035701
 20
8.5399310829
 10
1.2817764766
 20
8.5470256054
 10
1.2727122684
 20
8.5565940669
 10
1.2649286564
 20
8.5679843926
 10
1.2589560808
 20
8.5804203505
 10
1.2552015628
 20
8.5930544508
 10
1.2539209666
 20
8.6050257003
  0
LWPOLYLINE
  5
48F
100
AcDbEntity
  8
AXIS
100
AcDbPolyline
 62
7
  6
CONTINUOUS
 90
18
 70
0
 10
3.8330179972
 20
7.7633306093
 10
3.8302553588
 20
7.7647064296
 10
3.8242138569
 20
7.7664407088
 10
3.817590214
 20
7.7667929178
 10
3.8105192684
 20
7.7657558864
 10
3.8031449642
 20
7.7633507257
 10
3.7956174209
 20
7.7596263978
 10
3.7880898776
 20
7.7546587193
 10
3.7807155734
 20
7.7485488178
 10
3.7736446278
 20
7.7414210732
 10
3.7670209849
 20
7.7334205859
 10
3.760979483
 20
7.7247102228
 10
3.7556431097
 20
7.7154673017
 10
3.751120498
 20
7.7058799818
 10
3.7475037153
 20
7.6961434333
 10
3.744866389
 20
7.6864558643
 10
3.7432622073
 20
7.6770144857
 10
3.7427238268
 20
7.6680114968
  0
LINE
  5
490
100
AcDbEntity
  8
AXIS
100
AcDbLine
 62
7
  6
CONTINUOUS
 10
2.1435564784
 20
8.5659709489
 11
3.7582164807
 21
7.6337676511
  0
LWPOLYLINE
  5
491
100
AcDbEntity
  8
0
100
AcDbPolyline
 62
7
  6
CONTINUOUS
 90
5
 70
0
 10
1.8905208179
 20
9.0755904483
 10
1.8823366936
 20
9.08807106
 10
1.8729994936
 20
9.0992247128
 10
1.8628680413
 20
9.108622778
 10
1.8523316825
 20
9.1159040934
  0
LWPOLYLINE
  5
492
100
AcDbEntity
  8
AXIS
100
AcDbPolyline
 62
7
  6
CONTINUOUS
 90
8
 70
0
 10
2.2609533005
 20
8.6709428926
 10
2.2584198033
 20
8.6832434103
 10
2.2527386229
 20
8.6946977062
 10
2.2445286076
 20
8.7030060783
 10
2.2341485745
 20
8.7078054108
 10
2.2220521809
 20
8.70888595
 10
2.2087680971
 20
8.7062004711
 10
2.1948769014
 20
8.6998663424
  0
LINE
  5
493
100
AcDbEntity
  8
0
100
AcDbLine
 62
7
  6
CONTINUOUS
 10
2.4315061382
 20
8.3575115902
 11
2.4315061382
 21
8.3997268962
  0
LINE
  5
494
100
AcDbEntity
  8
0
100
AcDbLine
 62
7
  6
CONTINUOUS
 10
2.4315061382
 20
8.5724763934
 11
2.4315061382
 21
9.1611557015
  0
LINE
  5
495
100
AcDbEntity
  8
AXIS
100
AcDbLine
 62
7
  6
CONTINUOUS
 10
2.1936156842
 20
8.6973631197
 11
2.1874147553
 21
8.6946524506
  0
LWPOLYLINE
  5
496
100
AcDbEntity
  8
AXIS
100
AcDbPolyline
 62
7
  6
CONTINUOUS
 90
3
 70
0
 10
2.2183583588
 20
8.6955345373
 10
2.2160323593
 20
8.6967199041
 10
2.2055382974
 20
8.699025391
  0
LINE
  5
497
100
AcDbEntity
  8
AXIS
100
AcDbLine
 62
7
  6
CONTINUOUS
 10
2.2183583588
 20
8.6955345373
 11
3.8330183611
 21
7.7633312396
  0
LWPOLYLINE
  5
498
100
AcDbEntity
  8
0
100
AcDbPolyline
 62
7
  6
CONTINUOUS
 90
5
 70
0
 10
2.4315061382
 20
8.3575115902
 10
2.4301688435
 20
8.3426053414
 10
2.4262083506
 20
8.3298160714
 10
2.4197768591
 20
8.3196352648
 10
2.4111211025
 20
8.3124539188
  0
LWPOLYLINE
  5
499
100
AcDbEntity
  8
0
100
AcDbPolyline
 62
7
  6
CONTINUOUS
 90
5
 70
0
 10
2.0173151548
 20
8.2891046454
 10
2.024031692
 20
8.2946771794
 10
2.0290225293
 20
8.3025774854
 10
2.0320958718
 20
8.3125019588
 10
2.0331336126
 20
8.3240692079
  0
LINE
  5
49A
100
AcDbEntity
  8
0
100
AcDbLine
 62
7
  6
CONTINUOUS
 10
2.0254205272
 20
8.2928037994
 11
2.0184962621
 21
8.2870589189
  0
LWPOLYLINE
  5
49B
100
AcDbEntity
  8
0
100
AcDbPolyline
 62
7
  6
CONTINUOUS
 90
5
 70
0
 10
1.8523316825
 20
9.1178328392
 10
1.863193908
 20
9.1103263286
 10
1.8736387043
 20
9.1006376015
 10
1.8832646837
 20
9.0891389904
 10
1.8917019252
 20
9.0762723804
  0
LWPOLYLINE
  5
49C
100
AcDbEntity
  8
0
100
AcDbPolyline
 62
7
  6
CONTINUOUS
 90
5
 70
0
 10
2.0422578803
 20
8.0994919094
 10
2.0509136369
 20
8.1066732554
 10
2.0573451284
 20
8.116854062
 10
2.0613056213
 20
8.129643332
 10
2.0626429161
 20
8.1445495808
  0
LINE
  5
49D
100
AcDbEntity
  8
0
100
AcDbLine
 62
7
  6
CONTINUOUS
 10
2.0331336126
 20
8.3240692079
 11
2.0348039505
 21
8.3250335722
  0
LINE
  5
49E
100
AcDbEntity
  8
0
100
AcDbLine
 62
7
  6
CONTINUOUS
 10
1.8523316825
 20
8.2177514345
 11
1.8541845433
 21
8.2188211778
  0
LINE
  5
49F
100
AcDbEntity
  8
0
100
AcDbLine
 62
7
  6
CONTINUOUS
 10
1.8905208179
 20
8.2158978078
 11
2.0263955095
 21
8.2943471594
  0
LINE
  5
4A0
100
AcDbEntity
  8
0
100
AcDbLine
 62
7
  6
CONTINUOUS
 10
1.8917019252
 20
8.2138520814
 11
2.0184962621
 21
8.2870589189
  0
LINE
  5
4A1
100
AcDbEntity
  8
AXIS
100
AcDbLine
 62
7
  6
CONTINUOUS
 10
2.2055382974
 20
8.699025391
 11
2.1936156842
 21
8.6973631197
  0
LINE
  5
4A2
100
AcDbEntity
  8
0
100
AcDbLine
 62
7
  6
CONTINUOUS
 10
1.8523316825
 20
9.1159040934
 11
1.4377851829
 21
9.355237212
  0
LINE
  5
4A3
100
AcDbEntity
  8
0
100
AcDbLine
 62
7
  6
CONTINUOUS
 10
1.8523316825
 20
9.1178328392
 11
1.4377851829
 21
9.3571659579
  0
LINE
  5
4A4
100
AcDbEntity
  8
0
100
AcDbLine
 62
7
  6
CONTINUOUS
 10
1.9930455022
 20
9.0687392799
 11
1.2970713633
 21
9.4705510461
  0
LINE
  5
4A5
100
AcDbEntity
  8
0
100
AcDbLine
 62
7
  6
CONTINUOUS
 10
2.0626429161
 20
8.1445495808
 11
2.4315061382
 21
8.3575115902
  0
LINE
  5
4A6
100
AcDbEntity
  8
0
100
AcDbLine
 62
7
  6
CONTINUOUS
 10
1.9236308476
 20
8.2340330148
 11
1.9320680891
 21
8.2371573579
  0
LWPOLYLINE
  5
4A7
100
AcDbEntity
  8
0
100
AcDbPolyline
 62
7
  6
CONTINUOUS
 90
5
 70
0
 10
1.8917019252
 20
8.2138520814
 10
1.8832646837
 20
8.2107277383
 10
1.8736387043
 20
8.2103439993
 10
1.863193908
 20
8.2127156113
 10
1.8523316825
 20
8.2177514345
  0
LWPOLYLINE
  5
4A8
100
AcDbEntity
  8
0
100
AcDbPolyline
 62
7
  6
CONTINUOUS
 90
5
 70
0
 10
1.4377851829
 20
9.355237212
 10
1.4272488242
 20
9.3601219606
 10
1.4171173718
 20
9.3624224242
 10
1.4077801718
 20
9.3620501974
 10
1.3995960476
 20
9.3590195846
  0
LWPOLYLINE
  5
4A9
100
AcDbEntity
  8
0
100
AcDbPolyline
 62
7
  6
CONTINUOUS
 90
5
 70
0
 10
1.2970713633
 20
9.4705510461
 10
1.2834935814
 20
9.4768458252
 10
1.270437586
 20
9.4798103402
 10
1.2584051118
 20
9.4793306664
 10
1.2478589852
 20
9.4754254831
  0
LINE
  5
4AA
100
AcDbEntity
  8
0
100
AcDbLine
 62
7
  6
CONTINUOUS
 10
2.0422578803
 20
8.0994919094
 11
2.4111211025
 21
8.3124539188
  0
LWPOLYLINE
  5
4AB
100
AcDbEntity
  8
AXIS
100
AcDbPolyline
 62
7
  6
CONTINUOUS
 90
10
 70
0
 10
1.9720386111
 20
8.2211160883
 10
1.9798219935
 20
8.2235187437
 10
1.9888862017
 20
8.2226209959
 10
1.9986132953
 20
8.2184838924
 10
2.0083403888
 20
8.2113893699
 10
2.017404597
 20
8.2018209084
 10
2.0251882091
 20
8.1904305827
 10
2.0311607847
 20
8.1779946247
 10
2.0349153026
 20
8.1653605245
 10
2.0361958988
 20
8.153389275
  0
LWPOLYLINE
  5
4AC
100
AcDbEntity
  8
AXIS
100
AcDbPolyline
 62
7
  6
CONTINUOUS
 90
10
 70
0
 10
2.0251879795
 20
8.1290581324
 10
2.017404597
 20
8.126655477
 10
2.0083403888
 20
8.1275532248
 10
1.9986132953
 20
8.1316903284
 10
1.9888862017
 20
8.1387848509
 10
1.9798219935
 20
8.1483533124
 10
1.9720383815
 20
8.1597436381
 10
1.9660658059
 20
8.172179596
 10
1.962311288
 20
8.1848136963
 10
1.9610306918
 20
8.1967849458
  0
LINE
  5
4AD
100
AcDbEntity
  8
0
100
AcDbLine
 62
7
  6
CONTINUOUS
 10
2.3619087244
 20
9.2817012893
 11
1.6659345854
 21
9.6835130556
  0
LWPOLYLINE
  5
4AE
100
AcDbEntity
  8
0
100
AcDbPolyline
 62
7
  6
CONTINUOUS
 90
9
 70
0
 10
2.3619087244
 20
9.2817012893
 10
2.3754865062
 20
9.272318151
 10
2.3885425016
 20
9.2602072422
 10
2.4005749758
 20
9.2458339783
 10
2.4111215277
 20
9.2297507158
 10
2.4197768591
 20
9.2125755254
 10
2.4262083506
 20
9.1949684402
 10
2.4301688435
 20
9.1776060904
 10
2.4315061382
 20
9.1611557015
  0
LWPOLYLINE
  5
4AF
100
AcDbEntity
  8
AXIS
100
AcDbPolyline
 62
7
  6
CONTINUOUS
 90
7
 70
0
 10
3.7427238268
 20
7.6680114968
 10
3.7432622073
 20
7.6596301725
 10
3.744866389
 20
7.6520411323
 10
3.7475037153
 20
7.6453988673
 10
3.751120498
 20
7.6398385948
 10
3.7556431097
 20
7.6354735058
 10
3.7582168446
 20
7.6337682814
  0
LWPOLYLINE
  5
4B0
100
AcDbEntity
  8
AXIS
100
AcDbPolyline
 62
7
  6
CONTINUOUS
 90
7
 70
0
 10
3.848511015
 20
7.7290873939
 10
3.8479726345
 20
7.7374687182
 10
3.8463684528
 20
7.7450577584
 10
3.8437311265
 20
7.7517000234
 10
3.8401143438
 20
7.7572602959
 10
3.8355917322
 20
7.7616253849
 10
3.8330179972
 20
7.7633306093
  0
CIRCLE
  5
4B1
100
AcDbEntity
  8
0
100
AcDbCircle
 62
7
  6
CONTINUOUS
 10
10.5342808475
 20
1.243294839
 40
0.252091
  0
CIRCLE
  5
4B2
100
AcDbEntity
  8
0
100
AcDbCircle
 62
7
  6
CONTINUOUS
 10
10.5342808475
 20
1.243294839
 40
0.182698
  0
CIRCLE
  5
4B3
100
AcDbEntity
  8
0
100
AcDbCircle
 62
7
  6
CONTINUOUS
 10
10.1225539079
 20
1.9935547577
 40
0.0638444824
  0
ARC
  5
4B4
100
AcDbEntity
  8
0
100
AcDbCircle
 62
7
  6
CONTINUOUS
 10
2.2041441191
 20
5.1023107277
 40
0.0984251969
100
AcDbArc
 50
180.0
 51
270.0
  0
ARC
  5
4B5
100
AcDbEntity
  8
0
100
AcDbCircle
 62
7
  6
CONTINUOUS
 10
2.2238291584
 20
5.3013092914
 40
0.0787401575
100
AcDbArc
 50
180.0
 51
225.0
  0
ARC
  5
4B6
100
AcDbEntity
  8
0
100
AcDbCircle
 62
7
  6
CONTINUOUS
 10
2.4031426828
 20
5.1219957671
 40
0.0787401575
100
AcDbArc
 50
225.0
 51
270.0
  0
ARC
  5
4B7
100
AcDbEntity
  8
0
100
AcDbCircle
 62
7
  6
CONTINUOUS
 10
2.2238291584
 20
5.3013092914
 40
0.0763779528
100
AcDbArc
 50
180.0
 51
225.0
  0
ARC
  5
4B8
100
AcDbEntity
  8
0
100
AcDbCircle
 62
7
  6
CONTINUOUS
 10
2.4031426828
 20
5.1219957671
 40
0.0763779528
100
AcDbArc
 50
225.0
 51
270.0
  0
CIRCLE
  5
4B9
100
AcDbEntity
  8
AXIS
100
AcDbCircle
 62
7
  6
CONTINUOUS
 10
2.1962701033
 20
5.0944367119
 40
0.0531496063
  0
ARC
  5
4BA
100
AcDbEntity
  8
0
100
AcDbCircle
 62
7
  6
CONTINUOUS
 10
2.2041441191
 20
6.0865626962
 40
0.0984251969
100
AcDbArc
 50
90.0
 51
180.0
  0
ARC
  5
4BB
100
AcDbEntity
  8
0
100
AcDbCircle
 62
7
  6
CONTINUOUS
 10
2.2238291584
 20
5.8875641325
 40
0.0787401575
100
AcDbArc
 50
135.0
 51
180.0
  0
ARC
  5
4BC
100
AcDbEntity
  8
0
100
AcDbCircle
 62
7
  6
CONTINUOUS
 10
2.4031426828
 20
6.0668776568
 40
0.0787401575
100
AcDbArc
 50
90.0
 51
135.0
  0
ARC
  5
4BD
100
AcDbEntity
  8
0
100
AcDbCircle
 62
7
  6
CONTINUOUS
 10
2.4031426828
 20
6.0668776568
 40
0.0763779528
100
AcDbArc
 50
90.0
 51
135.0
  0
ARC
  5
4BE
100
AcDbEntity
  8
0
100
AcDbCircle
 62
7
  6
CONTINUOUS
 10
2.2238291584
 20
5.8875641325
 40
0.0763779528
100
AcDbArc
 50
135.0
 51
180.0
  0
CIRCLE
  5
4BF
100
AcDbEntity
  8
AXIS
100
AcDbCircle
 62
7
  6
CONTINUOUS
 10
2.1962701033
 20
6.0944367119
 40
0.0531496063
  0
ARC
  5
4C0
100
AcDbEntity
  8
0
100
AcDbCircle
 62
7
  6
CONTINUOUS
 10
3.1883960876
 20
5.1023107277
 40
0.0984251969
100
AcDbArc
 50
270.0
 51
360.0
  0
ARC
  5
4C1
100
AcDbEntity
  8
0
100
AcDbCircle
 62
7
  6
CONTINUOUS
 10
2.9893975239
 20
5.1219957671
 40
0.0787401575
100
AcDbArc
 50
270.0
 51
315.0
  0
ARC
  5
4C2
100
AcDbEntity
  8
0
100
AcDbCircle
 62
7
  6
CONTINUOUS
 10
3.1687110482
 20
5.3013092914
 40
0.0787401575
100
AcDbArc
 50
315.0
 51
360.0
  0
ARC
  5
4C3
100
AcDbEntity
  8
0
100
AcDbCircle
 62
7
  6
CONTINUOUS
 10
2.9893975239
 20
5.1219957671
 40
0.0763779528
100
AcDbArc
 50
270.0
 51
315.0
  0
ARC
  5
4C4
100
AcDbEntity
  8
0
100
AcDbCircle
 62
7
  6
CONTINUOUS
 10
3.1687110482
 20
5.3013092914
 40
0.0763779528
100
AcDbArc
 50
315.0
 51
360.0
  0
CIRCLE
  5
4C5
100
AcDbEntity
  8
AXIS
100
AcDbCircle
 62
7
  6
CONTINUOUS
 10
3.1962701033
 20
5.0944367119
 40
0.0531496063
  0
ARC
  5
4C6
100
AcDbEntity
  8
0
100
AcDbCircle
 62
7
  6
CONTINUOUS
 10
3.1883960876
 20
6.0865626962
 40
0.0984251969
100
AcDbArc
 50
0.0
 51
90.0
  0
ARC
  5
4C7
100
AcDbEntity
  8
0
100
AcDbCircle
 62
7
  6
CONTINUOUS
 10
3.1687110482
 20
5.8875641325
 40
0.0787401575
100
AcDbArc
 50
0.0
 51
45.0
  0
ARC
  5
4C8
100
AcDbEntity
  8
0
100
AcDbCircle
 62
7
  6
CONTINUOUS
 10
2.9893975239
 20
6.0668776568
 40
0.0787401575
100
AcDbArc
 50
45.0
 51
90.0
  0
ARC
  5
4C9
100
AcDbEntity
  8
0
100
AcDbCircle
 62
7
  6
CONTINUOUS
 10
3.1687110482
 20
5.8875641325
 40
0.0763779528
100
AcDbArc
 50
0.0
 51
45.0
  0
ARC
  5
4CA
100
AcDbEntity
  8
0
100
AcDbCircle
 62
7
  6
CONTINUOUS
 10
2.9893975239
 20
6.0668776568
 40
0.0763779528
100
AcDbArc
 50
45.0
 51
90.0
  0
CIRCLE
  5
4CB
100
AcDbEntity
  8
AXIS
100
AcDbCircle
 62
7
  6
CONTINUOUS
 10
3.1962701033
 20
6.0944367119
 40
0.0531496063
  0
CIRCLE
  5
4CC
100
AcDbEntity
  8
AXIS
100
AcDbCircle
 62
7
  6
CONTINUOUS
 10
8.5516185909
 20
5.5944367119
 40
0.094488189
  0
CIRCLE
  5
4CD
100
AcDbEntity
  8
AXIS
100
AcDbCircle
 62
7
  6
CONTINUOUS
 10
8.5516185909
 20
5.5944367119
 40
0.0748031496
  0
ARC
  5
4CE
100
AcDbEntity
  8
0
100
AcDbCircle
 62
7
  6
CONTINUOUS
 10
14.7028135886
 20
6.0865626962
 40
0.0984251969
100
AcDbArc
 50
0.0
 51
90.0
  0
ARC
  5
4CF
100
AcDbEntity
  8
0
100
AcDbCircle
 62
7
  6
CONTINUOUS
 10
14.7028135886
 20
5.1023107277
 40
0.0984251969
100
AcDbArc
 50
270.0
 51
360.0
  0
ARC
  5
4D0
100
AcDbEntity
  8
0
100
AcDbCircle
 62
7
  6
CONTINUOUS
 10
13.71856162
 20
5.1023107277
 40
0.0984251969
100
AcDbArc
 50
180.0
 51
270.0
  0
ARC
  5
4D1
100
AcDbEntity
  8
0
100
AcDbCircle
 62
7
  6
CONTINUOUS
 10
13.71856162
 20
6.0865626962
 40
0.0984251969
100
AcDbArc
 50
90.0
 51
180.0
  0
CIRCLE
  5
4D2
100
AcDbEntity
  8
AXIS
100
AcDbCircle
 62
7
  6
CONTINUOUS
 10
14.7106876043
 20
6.0944367119
 40
0.0531496063
  0
CIRCLE
  5
4D3
100
AcDbEntity
  8
AXIS
100
AcDbCircle
 62
7
  6
CONTINUOUS
 10
13.7106876043
 20
6.0944367119
 40
0.0531496063
  0
CIRCLE
  5
4D4
100
AcDbEntity
  8
AXIS
100
AcDbCircle
 62
7
  6
CONTINUOUS
 10
13.7106876043
 20
5.0944367119
 40
0.0531496063
  0
CIRCLE
  5
4D5
100
AcDbEntity
  8
AXIS
100
AcDbCircle
 62
7
  6
CONTINUOUS
 10
14.7106876043
 20
5.0944367119
 40
0.0531496063
  0
ENDSEC
  0
SECTION
  2
OBJECTS
  0
DICTIONARY
  5
C
100
AcDbDictionary
280
0
281
1
  3
ACAD_GROUP
350
D
  3
ACAD_MLINESTYLE
350
17
  3
ACAD_LAYOUT
350
1A
  3
ACAD_PLOTSETTINGS
350
19
  3
ACAD_PLOTSTYLENAME
350
E
  3
ACAD_TABLESTYLE
350
       4D6
  0
DICTIONARY
  5
D
102
{ACAD_REACTORS
330
C
102
}
100
AcDbDictionary
280
0
281
1
  0
ACDBDICTIONARYWDFLT
  5
E
102
{ACAD_REACTORS
330
C
102
}
100
AcDbDictionary
281
1
  3
Normal
350
F
100
AcDbDictionaryWithDefault
340
F
  0
DICTIONARY
  5
17
102
{ACAD_REACTORS
330
C
102
}
100
AcDbDictionary
280
0
281
1
  3
Standard
350
18
  0
DICTIONARY
  5
4D6
330
C
100
AcDbDictionary
281
1
  3
Standard
350
       4D9
  3
Standard1
350
       4DA
  0
DICTIONARY
  5
19
102
{ACAD_REACTORS
330
C
102
}
100
AcDbDictionary
281
1
  0
DICTIONARY
  5
1A
102
{ACAD_REACTORS
330
C
102
}
100
AcDbDictionary
281
1
  3
Model
350
4D7
  3
Layout1
350
4D8
  0
ACDBPLACEHOLDER
  5
F
102
{ACAD_REACTORS
330
E
102
}
  0
MLINESTYLE
  5
18
102
{ACAD_REACTORS
330
17
102
}
100
AcDbMlineStyle
  2
STANDARD
 70
0
  3

 62
256
 51
90.0
 52
90.0
 71
2
 49
0.5
 62
256
  6
BYLAYER
 49
-0.5
 62
256
  6
BYLAYER
  0
LAYOUT
  5
4D7
102
{ACAD_REACTORS
330
1A
102
}
100
AcDbPlotSettings
  1

  2
none_device
  4
ANSI_B_(17.00_x_11.00_Inches)
  6

 40
0.0
 41
0.0
 42
0.0
 43
0.0
 44
431.8
 45
279.4
 46
0.0
 47
0.0
 48
0.0
 49
0.0
140
0.0
141
0.0
142
1.0
143
1.0
 70
1024
 72
0
 73
0
 74
0
  7

 75
0
147
1.0
148
0.0
149
0.0
100
AcDbLayout
  1
Model
 70
0
 71
0
 10
0.0
 20
0.0
 11
17.0
 21
11.0
 12
0.0
 22
0.0
 32
0.0
 14
0.0
 24
0.0
 34
0.0
 15
0.0
 25
0.0
 35
0.0
146
0.0
 13
0.0
 23
0.0
 33
0.0
 16
1.0
 26
0.0
 36
0.0
 17
0.0
 27
1.0
 37
0.0
 76
0
330
212
345
0
346
0
  0
LAYOUT
  5
4D8
102
{ACAD_REACTORS
330
1A
102
}
100
AcDbPlotSettings
  1

  2
none_device
  4
ANSI_B_(17.00_x_11.00_Inches)
  6

 40
0.0
 41
0.0
 42
0.0
 43
0.0
 44
431.8
 45
279.4
 46
0.0
 47
0.0
 48
0.0
 49
0.0
140
0.0
141
0.0
142
1.0
143
1.0
 70
0
 72
0
 73
0
 74
0
  7

 75
0
147
1.0
148
0.0
149
0.0
100
AcDbLayout
  1
Layout1
 70
0
 71
1
 10
0.0
 20
0.0
 11
17.0
 21
11.0
 12
0.0
 22
0.0
 32
0.0
 14
0.0
 24
0.0
 34
0.0
 15
0.0
 25
0.0
 35
0.0
146
0.0
 13
0.0
 23
0.0
 33
0.0
 16
1.0
 26
0.0
 36
0.0
 17
0.0
 27
1.0
 37
0.0
 76
0
330
213
345
0
346
0
  0
TABLESTYLE
  5
4D9
102
{ACAD_REACTORS
330
4D6
102
}
330
4D6
100
AcDbTableStyle
  3
Standard
 70
0
 71
0
 40
0.06
 41
0.06
280
1
281
1
  7
Standard
140
0.18
170
1
 62
0
 63
7
283
0
  7
Standard
140
0.18
170
1
 62
0
 63
7
283
0
  7
Standard
140
0.18
170
1
 62
0
 63
7
283
0
  0
TABLESTYLE
  5
4DA
102
{ACAD_REACTORS
330
4D6
330
2BB
102
}
330
4D6
100
AcDbTableStyle
  3
Standard1
 70
1
 71
0
 40
0.06
 41
0.06
280
1
281
1
  7
Standard
140
0.18
170
1
 62
0
 63
7
283
0
  7
Standard
140
0.18
170
1
 62
0
 63
7
283
0
  7
Standard
140
0.18
170
1
 62
0
 63
7
283
0
  0
ENDSEC
  0
EOF
