999
DXF file: 211844_1.dxf
999
Pro/ENGINEER 2018300 by Parametric Technology Corporation
  0
SECTION
  2
HEADER
  9
$ACADVER
  1
AC1027
  9
$DWGCODEPAGE
  3
ANSI_1252
  9
$EXTMAX
 10
22.0
 20
17.0
 30
0.0
  9
$EXTMIN
 10
0.0
 20
0.0
 30
0.0
  9
$LIMMIN
 10
0.0
 20
0.0
  9
$LIMMAX
 10
22.0
 20
17.0
  9
$VIEWCTR
 10
11.0
 20
8.5
  9
$VIEWSIZE
 40
17.0
  9
$CLAYER
  8
0
  9
$LTSCALE
 40
1.21
  9
$CELTYPE
  6
BYLAYER
  9
$DIMSCALE
 40
1.0
  9
$DIMASZ
 40
0.1875
  9
$DIMEXO
 40
0.0625
  9
$DIMDLI
 40
0.836
  9
$DIMEXE
 40
0.125
  9
$DIMCEN
 40
0.198
  9
$DIMLFAC
 40
1.0
  9
$DIMBLK
  1
_FILLED
  9
$DIMALT
 70
1
  9
$DIMALTD
 70
2
  9
$DIMALTTD
 70
2
  9
$DIMALTF
 40
25.4
  9
$DIMTXT
 40
0.1
  9
$DIMTOL
 70
1
  9
$DIMLIM
 70
0
  9
$DIMTFAC
 40
1.0
  9
$DIMTP
 40
0.001
  9
$DIMTM
 40
0.001
  9
$DIMGAP
 40
0.09
  9
$DIMDSEP
 70
46
  9
$AUNITS
 70
0
  9
$PDMODE
 70
3
  9
$PDSIZE
 40
0.3125
  9
$HANDSEED
  5
5F8
  9
$TILEMODE
 70
1
  9
$MEASUREMENT
 70
0
  9
$INSUNITS
 70
1
  0
ENDSEC
  0
SECTION
  2
CLASSES
  0
CLASS
  1
ACDBDICTIONARYWDFLT
  2
AcDbDictionaryWithDefault
  3
AutoCAD 2000
 90
0
 91
1
280
0
281
0
  0
CLASS
  1
ACDBPLACEHOLDER
  2
AcDbPlaceHolder
  3
AutoCAD 2000
 90
0
 91
1
280
0
281
0
  0
CLASS
  1
LAYOUT
  2
AcDbLayout
  3
AutoCAD 2000
 90
0
 91
0
280
0
281
0
  0
CLASS
  1
TABLESTYLE
  2
AcDbTableStyle
  3
ObjectDBX Classes
 90
2047
 91
1
280
0
281
0
  0
CLASS
  1
ACAD_TABLE
  2
AcDbTable
  3
ObjectDBX Classes
 90
1025
 91
1
280
0
281
1
  0
ENDSEC
  0
SECTION
  2
TABLES
  0
TABLE
  2
VPORT
  5
8
100
AcDbSymbolTable
 70
2
  0
VPORT
  5
1F4
100
AcDbSymbolTableRecord
100
AcDbViewportTableRecord
  2
*ACTIVE
 70
0
 10
0.0
 20
0.0
 11
1.0
 21
1.0
 12
11.0
 22
8.5
 13
0.0
 23
0.0
 14
1.0
 24
1.0
 15
0.0
 25
0.0
 16
0.0
 26
0.0
 36
1.0
 17
0.0
 27
0.0
 37
0.0
 40
17.0
 41
1.2941176471
 42
50.0
 43
0.0
 44
0.0
 50
0.0
 51
0.0
 71
0
 72
100
 73
1
 74
1
 75
0
 76
0
 77
0
 78
0
  0
ENDTAB
  0
TABLE
  2
LTYPE
  5
5
100
AcDbSymbolTable
 70
6
  0
LTYPE
  5
14
100
AcDbSymbolTableRecord
100
AcDbLinetypeTableRecord
  2
BYBLOCK
 70
0
  3

 72
65
 73
0
 40
0.0
  0
LTYPE
  5
15
100
AcDbSymbolTableRecord
100
AcDbLinetypeTableRecord
  2
BYLAYER
 70
0
  3

 72
65
 73
0
 40
0.0
  0
LTYPE
  5
16
100
AcDbSymbolTableRecord
100
AcDbLinetypeTableRecord
  2
CONTINUOUS
 70
64
  3
Solid line
 72
65
 73
0
 40
0.0
  0
LTYPE
  5
1F5
100
AcDbSymbolTableRecord
100
AcDbLinetypeTableRecord
  2
CENTER
 70
64
  3
____ _ ____ _ ____ _ ____ _ ____ _ ____ _ ____
 72
65
 73
4
 40
0.6
 49
0.375
 74
0
 49
-0.075
 74
0
 49
0.075
 74
0
 49
-0.075
 74
0
  0
LTYPE
  5
1F6
100
AcDbSymbolTableRecord
100
AcDbLinetypeTableRecord
  2
HIDDEN
 70
64
  3
- - - - - - - - - - - - - - - - - - - -
 72
65
 73
2
 40
0.2
 49
0.1
 74
0
 49
-0.1
 74
0
  0
LTYPE
  5
1F7
100
AcDbSymbolTableRecord
100
AcDbLinetypeTableRecord
  2
PHANTOM
 70
64
  3
_____ _ _ _____ _ _ _____ _ _ _____
 72
65
 73
6
 40
0.8
 49
0.45
 74
0
 49
-0.05
 74
0
 49
0.1
 74
0
 49
-0.05
 74
0
 49
0.1
 74
0
 49
-0.05
 74
0
  0
LTYPE
  5
1F8
100
AcDbSymbolTableRecord
100
AcDbLinetypeTableRecord
  2
DOT
 70
64
  3
. . . . . . . . . . . . . . . . . . . .
 72
65
 73
2
 40
0.2
 49
0.1
 74
0
 49
-0.1
 74
0
  0
LTYPE
  5
1F9
100
AcDbSymbolTableRecord
100
AcDbLinetypeTableRecord
  2
DASHED
 70
64
  3
- - - - - - - - - - - - - - - - - - - -
 72
65
 73
2
 40
0.2
 49
0.1
 74
0
 49
-0.1
 74
0
  0
ENDTAB
  0
TABLE
  2
LAYER
  5
2
100
AcDbSymbolTable
 70
36
  0
LAYER
  5
10
100
AcDbSymbolTableRecord
100
AcDbLayerTableRecord
  2
0
 70
0
 62
7
  6
CONTINUOUS
370
-3
390
F
  0
LAYER
  5
1FA
100
AcDbSymbolTableRecord
100
AcDbLayerTableRecord
  2
DEFAULT_1
 70
0
 62
7
  6
CENTER
370
-3
390
F
  0
LAYER
  5
1FB
100
AcDbSymbolTableRecord
100
AcDbLayerTableRecord
  2
DEFAULT_2
 70
0
 62
7
  6
HIDDEN
370
-3
390
F
  0
LAYER
  5
1FC
100
AcDbSymbolTableRecord
100
AcDbLayerTableRecord
  2
DEFAULT_3
 70
0
 62
7
  6
PHANTOM
370
-3
390
F
  0
LAYER
  5
1FD
100
AcDbSymbolTableRecord
100
AcDbLayerTableRecord
  2
AXIS
 70
0
 62
7
  6
CONTINUOUS
370
-3
390
F
  0
LAYER
  5
1FE
100
AcDbSymbolTableRecord
100
AcDbLayerTableRecord
  2
DATUM_PLANES
 70
0
 62
7
  6
CONTINUOUS
370
-3
390
F
  0
LAYER
  5
1FF
100
AcDbSymbolTableRecord
100
AcDbLayerTableRecord
  2
NOTES
 70
0
 62
7
  6
CONTINUOUS
370
-3
390
F
  0
LAYER
  5
200
100
AcDbSymbolTableRecord
100
AcDbLayerTableRecord
  2
QUILTS
 70
0
 62
7
  6
CONTINUOUS
370
-3
390
F
  0
LAYER
  5
201
100
AcDbSymbolTableRecord
100
AcDbLayerTableRecord
  2
SCHEME_DIMS
 70
0
 62
7
  6
CONTINUOUS
370
-3
390
F
  0
ENDTAB
  0
TABLE
  2
STYLE
  5
3
100
AcDbSymbolTable
 70
1
  0
STYLE
  5
11
100
AcDbSymbolTableRecord
100
AcDbTextStyleTableRecord
  2
STANDARD
 70
0
 40
0.0
 41
1.0
 50
0.0
 71
0
 42
0.2
  3
txt
  4

  0
STYLE
  5
202
100
AcDbSymbolTableRecord
100
AcDbTextStyleTableRecord
  2
TEXTSTYLE_1
 70
0
 40
0.0
 41
0.8
 50
0.0
 71
0
 42
0.2
  3
gdt
  4

  0
STYLE
  5
203
100
AcDbSymbolTableRecord
100
AcDbTextStyleTableRecord
  2
TEXTSTYLE_2
 70
0
 40
0.0
 41
0.8
 50
0.0
 71
0
 42
0.2
  3
txt
  4

  0
STYLE
  5
204
100
AcDbSymbolTableRecord
100
AcDbTextStyleTableRecord
  2
TEXTSTYLE_3
 70
0
 40
0.0
 41
0.9
 50
0.0
 71
0
 42
0.2
  3
txt
  4

  0
STYLE
  5
205
100
AcDbSymbolTableRecord
100
AcDbTextStyleTableRecord
  2
TEXTSTYLE_4
 70
0
 40
0.0
 41
0.85
 50
0.0
 71
0
 42
0.2
  3
txt
  4

  0
STYLE
  5
206
100
AcDbSymbolTableRecord
100
AcDbTextStyleTableRecord
  2
TEXTSTYLE_5
 70
0
 40
0.0
 41
0.75
 50
0.0
 71
0
 42
0.2
  3
txt
  4

  0
STYLE
  5
207
100
AcDbSymbolTableRecord
100
AcDbTextStyleTableRecord
  2
TEXTSTYLE_6
 70
0
 40
0.0
 41
1.0
 50
0.0
 71
0
 42
0.2
  3
gdt
  4

  0
ENDTAB
  0
TABLE
  2
VIEW
  5
6
100
AcDbSymbolTable
 70
0
  0
ENDTAB
  0
TABLE
  2
UCS
  5
7
100
AcDbSymbolTable
 70
0
  0
ENDTAB
  0
TABLE
  2
APPID
  5
9
100
AcDbSymbolTable
 70
1
  0
APPID
  5
208
100
AcDbSymbolTableRecord
100
AcDbRegAppTableRecord
  2
ACAD
 70
0
  0
ENDTAB
  0
TABLE
  2
BLOCK_RECORD
  5
1
100
AcDbSymbolTable
 70
0
  0
BLOCK_RECORD
  5
209
100
AcDbSymbolTableRecord
100
AcDbBlockTableRecord
  2
*Model_Space
  0
BLOCK_RECORD
  5
20A
100
AcDbSymbolTableRecord
100
AcDbBlockTableRecord
  2
*Paper_Space
  0
BLOCK_RECORD
  5
20B
100
AcDbSymbolTableRecord
100
AcDbBlockTableRecord
  2
_FILLED
  0
BLOCK_RECORD
  5
20C
100
AcDbSymbolTableRecord
100
AcDbBlockTableRecord
  2
*D0
  0
BLOCK_RECORD
  5
20D
100
AcDbSymbolTableRecord
100
AcDbBlockTableRecord
  2
*D1
  0
BLOCK_RECORD
  5
20E
100
AcDbSymbolTableRecord
100
AcDbBlockTableRecord
  2
*D2
  0
BLOCK_RECORD
  5
20F
100
AcDbSymbolTableRecord
100
AcDbBlockTableRecord
  2
*D3
  0
BLOCK_RECORD
  5
210
100
AcDbSymbolTableRecord
100
AcDbBlockTableRecord
  2
*D4
  0
BLOCK_RECORD
  5
211
100
AcDbSymbolTableRecord
100
AcDbBlockTableRecord
  2
*D5
  0
BLOCK_RECORD
  5
212
100
AcDbSymbolTableRecord
100
AcDbBlockTableRecord
  2
*D6
  0
BLOCK_RECORD
  5
213
100
AcDbSymbolTableRecord
100
AcDbBlockTableRecord
  2
*D7
  0
BLOCK_RECORD
  5
214
100
AcDbSymbolTableRecord
100
AcDbBlockTableRecord
  2
*D8
  0
BLOCK_RECORD
  5
215
100
AcDbSymbolTableRecord
100
AcDbBlockTableRecord
  2
*D9
  0
BLOCK_RECORD
  5
216
100
AcDbSymbolTableRecord
100
AcDbBlockTableRecord
  2
*D10
  0
BLOCK_RECORD
  5
217
100
AcDbSymbolTableRecord
100
AcDbBlockTableRecord
  2
*D11
  0
BLOCK_RECORD
  5
218
100
AcDbSymbolTableRecord
100
AcDbBlockTableRecord
  2
*D12
  0
BLOCK_RECORD
  5
219
100
AcDbSymbolTableRecord
100
AcDbBlockTableRecord
  2
*D13
  0
BLOCK_RECORD
  5
21A
100
AcDbSymbolTableRecord
100
AcDbBlockTableRecord
  2
*D14
  0
BLOCK_RECORD
  5
21B
100
AcDbSymbolTableRecord
100
AcDbBlockTableRecord
  2
*D15
  0
BLOCK_RECORD
  5
21C
100
AcDbSymbolTableRecord
100
AcDbBlockTableRecord
  2
*T1
  0
ENDTAB
  0
TABLE
  2
DIMSTYLE
  5
A
100
AcDbSymbolTable
 70
1
100
AcDbDimStyleTable
 71
0
  0
DIMSTYLE
105
21D
100
AcDbSymbolTableRecord
100
AcDbDimStyleTableRecord
  2
STANDARD
 70
0
  3

  4

 40
1.0
 41
0.1875
 42
0.0625
 43
0.38
 44
0.125
 45
0.0
 46
0.0
 47
0.001
 48
0.001
140
0.1
141
0.09
142
0.0
143
1.0
144
1.0
145
0.0
146
1.0
147
0.09
 71
1.0
 72
0.0
 73
1
 74
1
 75
0
 76
0
 77
0
 78
4
 79
1
170
1
171
2
172
0
173
0
174
0
175
0
176
0
177
0
178
0
270
2
179
3
271
3
272
3
273
2
274
2
275
0
280
0
281
0
282
0
283
1
284
4
285
0
286
0
287
3
288
0
340
11
278
46
341
20B
342
20B
343
20B
344
20B
  0
DIMSTYLE
105
21E
100
AcDbSymbolTableRecord
100
AcDbDimStyleTableRecord
  2
DIMSTYLE_1
 70
0
  3

  4

 40
1.0
 41
0.1875
 42
0.0625
 43
0.38
 44
0.125
 45
0.0
 46
0.0
 47
0.1
 48
0.1
140
0.1
141
0.09
142
0.0
143
1.0
144
1.0
145
0.0
146
1.0
147
0.1
 71
0.0
 72
0.0
 73
1
 74
1
 75
0
 76
0
 77
0
 78
4
 79
1
170
1
171
2
172
0
173
0
174
0
175
0
176
0
177
0
178
0
270
2
179
3
271
1
272
3
273
2
274
4
275
0
280
0
281
0
282
0
283
1
284
4
285
0
286
0
287
3
288
0
340
11
278
46
341
20B
342
20B
343
20B
344
20B
  0
DIMSTYLE
105
21F
100
AcDbSymbolTableRecord
100
AcDbDimStyleTableRecord
  2
DIMSTYLE_2
 70
0
  3
<>
  4

 40
1.0
 41
0.1875
 42
0.0625
 43
0.38
 44
0.125
 45
0.0
 46
0.0
 47
0.1
 48
0.1
140
0.1
141
0.09
142
0.0
143
1.0
144
1.0
145
0.0
146
1.0
147
0.09
 71
0.0
 72
0.0
 73
1
 74
1
 75
0
 76
0
 77
0
 78
4
 79
1
170
1
171
3
172
0
173
0
174
0
175
0
176
0
177
0
178
0
270
2
179
3
271
2
272
3
273
2
274
4
275
0
280
0
281
0
282
0
283
1
284
4
285
0
286
0
287
3
288
0
340
11
278
46
341
20B
342
20B
343
20B
344
20B
  0
DIMSTYLE
105
220
100
AcDbSymbolTableRecord
100
AcDbDimStyleTableRecord
  2
DIMSTYLE_3
 70
0
  3
<>
  4

 40
1.0
 41
0.1875
 42
0.0625
 43
0.38
 44
0.125
 45
0.0
 46
0.0
 47
0.1
 48
0.1
140
0.1
141
0.09
142
0.0
143
1.0
144
1.0
145
0.0
146
1.0
147
0.09
 71
0.0
 72
0.0
 73
1
 74
1
 75
0
 76
0
 77
0
 78
4
 79
1
170
1
171
2
172
0
173
0
174
0
175
0
176
0
177
0
178
0
270
2
179
3
271
1
272
3
273
2
274
4
275
0
280
0
281
0
282
0
283
1
284
4
285
0
286
0
287
3
288
1
340
11
278
46
289
1
341
20B
342
20B
343
20B
344
20B
  0
ENDTAB
  0
ENDSEC
  0
SECTION
  2
BLOCKS
  0
BLOCK
  5
20
100
AcDbEntity
  8
0
100
AcDbBlockBegin
  2
*Model_Space
 70
0
 10
0.0
 20
0.0
 30
0.0
  3
*Model_Space
  1

  0
ENDBLK
  5
21
100
AcDbEntity
  8
0
100
AcDbBlockEnd
  0
BLOCK
  5
1C
100
AcDbEntity
  8
0
100
AcDbBlockBegin
  2
*Paper_Space
 70
0
 10
0.0
 20
0.0
 30
0.0
  3
*Paper_Space
  1

  0
ENDBLK
  5
1D
100
AcDbEntity
  8
0
100
AcDbBlockEnd
  0
BLOCK
  5
221
100
AcDbEntity
  8
0
100
AcDbBlockBegin
  2
_FILLED
 70
64
 10
0.0
 20
0.0
  3
_FILLED
  1

  0
SOLID
  5
222
100
AcDbEntity
  8
0
  6
BYBLOCK
 62
0
100
AcDbTrace
 10
0.0
 20
0.0
 11
-1.0
 21
0.1666666667
 12
-1.0
 22
-0.1666666667
 13
-1.0
 23
-0.1666666667
  0
ENDBLK
  5
223
100
AcDbEntity
  8
0
  6
BYBLOCK
 62
0
100
AcDbBlockEnd
  0
BLOCK
  5
224
100
AcDbEntity
  8
SCHEME_DIMS
100
AcDbBlockBegin
 62
7
  6
CONTINUOUS
  2
*D0
 70
65
 10
0.0
 20
0.0
  3
*D0
  1

  0
MTEXT
  5
225
100
AcDbEntity
  8
SCHEME_DIMS
100
AcDbMText
 62
7
  6
CONTINUOUS
  7
STANDARD
 71
2
 72
1
 10
8.2595774106
 20
11.4047663815
 30
0.0
 11
1.0
 21
0.0
 31
0.0
 73
2
 44
0.9
  1
68.0\P[2.68]
 40
0.1
 41
0.6
  0
LINE
  5
226
100
AcDbEntity
  8
SCHEME_DIMS
100
AcDbLine
 62
7
  6
CONTINUOUS
 10
9.6981600878
 20
11.8210335919
 11
9.6981600878
 21
11.2297663815
  0
LINE
  5
227
100
AcDbEntity
  8
SCHEME_DIMS
100
AcDbLine
 62
7
  6
CONTINUOUS
 10
7.0209947334
 20
11.7949449499
 11
7.0209947334
 21
11.2297663815
  0
LINE
  5
228
100
AcDbEntity
  8
SCHEME_DIMS
100
AcDbLine
 62
7
  6
CONTINUOUS
 10
9.6981600878
 20
11.3547663815
 11
8.7595774106
 21
11.3547663815
  0
LINE
  5
229
100
AcDbEntity
  8
SCHEME_DIMS
100
AcDbLine
 62
7
  6
CONTINUOUS
 10
7.0209947334
 20
11.3547663815
 11
7.9595774106
 21
11.3547663815
  0
INSERT
  5
22A
100
AcDbEntity
  8
SCHEME_DIMS
100
AcDbBlockReference
 62
7
  6
CONTINUOUS
  2
_FILLED
 10
9.6981600878
 20
11.3547663815
 41
0.1875
 42
0.1875
 43
0.1875
  0
INSERT
  5
22B
100
AcDbEntity
  8
SCHEME_DIMS
100
AcDbBlockReference
 62
7
  6
CONTINUOUS
  2
_FILLED
 10
7.0209947334
 20
11.3547663815
 41
0.1875
 42
0.1875
 43
0.1875
 50
180.0
  0
ENDBLK
  5
22C
100
AcDbEntity
  8
0
  6
BYBLOCK
 62
0
100
AcDbBlockEnd
  0
BLOCK
  5
22D
100
AcDbEntity
  8
SCHEME_DIMS
100
AcDbBlockBegin
 62
7
  6
CONTINUOUS
  2
*D1
 70
65
 10
0.0
 20
0.0
  3
*D1
  1

  0
MTEXT
  5
22E
100
AcDbEntity
  8
SCHEME_DIMS
100
AcDbMText
 62
7
  6
CONTINUOUS
  7
STANDARD
 71
2
 72
1
 10
8.2595774106
 20
5.1568470417
 30
0.0
 11
1.0
 21
0.0
 31
0.0
 73
2
 44
0.9
  1
88.0\P[3.46]
 40
0.1
 41
0.6
  0
LINE
  5
22F
100
AcDbEntity
  8
SCHEME_DIMS
100
AcDbLine
 62
7
  6
CONTINUOUS
 10
10.0918608752
 20
4.3077747213
 11
10.0918608752
 21
5.2318470417
  0
LINE
  5
230
100
AcDbEntity
  8
SCHEME_DIMS
100
AcDbLine
 62
7
  6
CONTINUOUS
 10
6.627293946
 20
4.3048539517
 11
6.627293946
 21
5.2318470417
  0
LINE
  5
231
100
AcDbEntity
  8
SCHEME_DIMS
100
AcDbLine
 62
7
  6
CONTINUOUS
 10
10.0918608752
 20
5.1068470417
 11
8.7595774106
 21
5.1068470417
  0
LINE
  5
232
100
AcDbEntity
  8
SCHEME_DIMS
100
AcDbLine
 62
7
  6
CONTINUOUS
 10
6.627293946
 20
5.1068470417
 11
7.9595774106
 21
5.1068470417
  0
INSERT
  5
233
100
AcDbEntity
  8
SCHEME_DIMS
100
AcDbBlockReference
 62
7
  6
CONTINUOUS
  2
_FILLED
 10
10.0918608752
 20
5.1068470417
 41
0.1875
 42
0.1875
 43
0.1875
  0
INSERT
  5
234
100
AcDbEntity
  8
SCHEME_DIMS
100
AcDbBlockReference
 62
7
  6
CONTINUOUS
  2
_FILLED
 10
6.627293946
 20
5.1068470417
 41
0.1875
 42
0.1875
 43
0.1875
 50
180.0
  0
ENDBLK
  5
235
100
AcDbEntity
  8
0
  6
BYBLOCK
 62
0
100
AcDbBlockEnd
  0
BLOCK
  5
236
100
AcDbEntity
  8
SCHEME_DIMS
100
AcDbBlockBegin
 62
7
  6
CONTINUOUS
  2
*D2
 70
65
 10
0.0
 20
0.0
  3
*D2
  1

  0
MTEXT
  5
237
100
AcDbEntity
  8
SCHEME_DIMS
100
AcDbMText
 62
7
  6
CONTINUOUS
  7
STANDARD
 71
3
 72
1
 10
5.9548486939
 20
11.4047663815
 30
0.0
 11
1.0
 21
0.0
 31
0.0
 73
2
 44
0.9
  1
10.0\P[0.39]
 40
0.1
 41
0.6
  0
LINE
  5
238
100
AcDbEntity
  8
SCHEME_DIMS
100
AcDbLine
 62
7
  6
CONTINUOUS
 10
7.0209947334
 20
11.8238381215
 11
7.0209947334
 21
11.2297663815
  0
LINE
  5
239
100
AcDbEntity
  8
SCHEME_DIMS
100
AcDbLine
 62
7
  6
CONTINUOUS
 10
6.627293946
 20
12.1479971625
 11
6.627293946
 21
11.2297663815
  0
LINE
  5
23A
100
AcDbEntity
  8
SCHEME_DIMS
100
AcDbLine
 62
7
  6
CONTINUOUS
 10
7.0209947334
 20
11.3547663815
 11
7.4209947334
 21
11.3547663815
  0
LINE
  5
23B
100
AcDbEntity
  8
SCHEME_DIMS
100
AcDbLine
 62
7
  6
CONTINUOUS
 10
6.627293946
 20
11.3547663815
 11
6.2548486939
 21
11.3547663815
  0
INSERT
  5
23C
100
AcDbEntity
  8
SCHEME_DIMS
100
AcDbBlockReference
 62
7
  6
CONTINUOUS
  2
_FILLED
 10
7.0209947334
 20
11.3547663815
 41
0.1875
 42
0.1875
 43
0.1875
 50
180.0
  0
INSERT
  5
23D
100
AcDbEntity
  8
SCHEME_DIMS
100
AcDbBlockReference
 62
7
  6
CONTINUOUS
  2
_FILLED
 10
6.627293946
 20
11.3547663815
 41
0.1875
 42
0.1875
 43
0.1875
  0
ENDBLK
  5
23E
100
AcDbEntity
  8
0
  6
BYBLOCK
 62
0
100
AcDbBlockEnd
  0
BLOCK
  5
23F
100
AcDbEntity
  8
SCHEME_DIMS
100
AcDbBlockBegin
 62
7
  6
CONTINUOUS
  2
*D3
 70
65
 10
0.0
 20
0.0
  3
*D3
  1

  0
MTEXT
  5
240
100
AcDbEntity
  8
SCHEME_DIMS
100
AcDbMText
 62
7
  6
CONTINUOUS
  7
STANDARD
 71
3
 72
1
 10
12.1843643079
 20
8.1364971643
 30
0.0
 11
1.0
 21
0.0
 31
0.0
 73
2
 44
0.9
  1
7.0\P[0.28]
 40
0.1
 41
0.6
  0
LINE
  5
241
100
AcDbEntity
  8
SCHEME_DIMS
100
AcDbLine
 62
7
  6
CONTINUOUS
 10
13.2396975127
 20
8.4763927223
 11
12.6093643079
 21
8.4763927223
  0
LINE
  5
242
100
AcDbEntity
  8
SCHEME_DIMS
100
AcDbLine
 62
7
  6
CONTINUOUS
 10
13.2210769064
 20
8.7519832735
 11
12.6093643079
 21
8.7519832735
  0
LINE
  5
243
100
AcDbEntity
  8
SCHEME_DIMS
100
AcDbLine
 62
7
  6
CONTINUOUS
 10
12.7343643079
 20
8.4763927223
 11
12.7343643079
 21
8.0864971643
  0
LINE
  5
244
100
AcDbEntity
  8
SCHEME_DIMS
100
AcDbLine
 62
7
  6
CONTINUOUS
 10
12.7343643079
 20
8.0864971643
 11
12.5843643079
 21
8.0864971643
  0
LINE
  5
245
100
AcDbEntity
  8
SCHEME_DIMS
100
AcDbLine
 62
7
  6
CONTINUOUS
 10
12.7343643079
 20
8.7519832735
 11
12.7343643079
 21
9.1519832735
  0
INSERT
  5
246
100
AcDbEntity
  8
SCHEME_DIMS
100
AcDbBlockReference
 62
7
  6
CONTINUOUS
  2
_FILLED
 10
12.7343643079
 20
8.4763927223
 41
0.1875
 42
0.1875
 43
0.1875
 50
90.0
  0
INSERT
  5
247
100
AcDbEntity
  8
SCHEME_DIMS
100
AcDbBlockReference
 62
7
  6
CONTINUOUS
  2
_FILLED
 10
12.7343643079
 20
8.7519832735
 41
0.1875
 42
0.1875
 43
0.1875
 50
270.0
  0
ENDBLK
  5
248
100
AcDbEntity
  8
0
  6
BYBLOCK
 62
0
100
AcDbBlockEnd
  0
BLOCK
  5
249
100
AcDbEntity
  8
SCHEME_DIMS
100
AcDbBlockBegin
 62
7
  6
CONTINUOUS
  2
*D4
 70
65
 10
0.0
 20
0.0
  3
*D4
  1

  0
MTEXT
  5
24A
100
AcDbEntity
  8
SCHEME_DIMS
100
AcDbMText
 62
7
  6
CONTINUOUS
  7
STANDARD
 71
1
 72
1
 10
14.1758838106
 20
9.3019832735
 30
0.0
 11
1.0
 21
0.0
 31
0.0
 73
2
 44
0.9
  1
7.5\P[0.3]
 40
0.1
 41
0.5
  0
LINE
  5
24B
100
AcDbEntity
  8
SCHEME_DIMS
100
AcDbLine
 62
7
  6
CONTINUOUS
 10
13.450899741
 20
8.6980284196
 11
13.450899741
 21
9.3769832735
  0
LINE
  5
24C
100
AcDbEntity
  8
SCHEME_DIMS
100
AcDbLine
 62
7
  6
CONTINUOUS
 10
13.7461753316
 20
8.7995289325
 11
13.7461753316
 21
9.3769832735
  0
LINE
  5
24D
100
AcDbEntity
  8
SCHEME_DIMS
100
AcDbLine
 62
7
  6
CONTINUOUS
 10
13.450899741
 20
9.2519832735
 11
13.050899741
 21
9.2519832735
  0
LINE
  5
24E
100
AcDbEntity
  8
SCHEME_DIMS
100
AcDbLine
 62
7
  6
CONTINUOUS
 10
13.7461753316
 20
9.2519832735
 11
14.0758838106
 21
9.2519832735
  0
INSERT
  5
24F
100
AcDbEntity
  8
SCHEME_DIMS
100
AcDbBlockReference
 62
7
  6
CONTINUOUS
  2
_FILLED
 10
13.450899741
 20
9.2519832735
 41
0.1875
 42
0.1875
 43
0.1875
  0
INSERT
  5
250
100
AcDbEntity
  8
SCHEME_DIMS
100
AcDbBlockReference
 62
7
  6
CONTINUOUS
  2
_FILLED
 10
13.7461753316
 20
9.2519832735
 41
0.1875
 42
0.1875
 43
0.1875
 50
180.0
  0
ENDBLK
  5
251
100
AcDbEntity
  8
0
  6
BYBLOCK
 62
0
100
AcDbBlockEnd
  0
BLOCK
  5
252
100
AcDbEntity
  8
SCHEME_DIMS
100
AcDbBlockBegin
 62
7
  6
CONTINUOUS
  2
*D5
 70
65
 10
0.0
 20
0.0
  3
*D5
  1

  0
MTEXT
  5
253
100
AcDbEntity
  8
SCHEME_DIMS
100
AcDbMText
 62
7
  6
CONTINUOUS
  7
STANDARD
 71
1
 72
1
 10
10.8418608752
 20
8.8176469056
 30
0.0
 11
1.0
 21
0.0
 31
0.0
 73
2
 44
0.9
  1
3.5\P[0.14]
 40
0.1
 41
0.6
  0
LINE
  5
254
100
AcDbEntity
  8
SCHEME_DIMS
100
AcDbLine
 62
7
  6
CONTINUOUS
 10
10.0548305287
 20
8.1889911475
 11
10.7168608752
 21
8.1889911475
  0
LINE
  5
255
100
AcDbEntity
  8
SCHEME_DIMS
100
AcDbLine
 62
7
  6
CONTINUOUS
 10
10.0510919435
 20
8.0511958719
 11
10.7168608752
 21
8.0511958719
  0
LINE
  5
256
100
AcDbEntity
  8
SCHEME_DIMS
100
AcDbLine
 62
7
  6
CONTINUOUS
 10
10.5918608752
 20
8.1889911475
 11
10.5918608752
 21
8.7676469056
  0
LINE
  5
257
100
AcDbEntity
  8
SCHEME_DIMS
100
AcDbLine
 62
7
  6
CONTINUOUS
 10
10.5918608752
 20
8.7676469056
 11
10.7418608752
 21
8.7676469056
  0
LINE
  5
258
100
AcDbEntity
  8
SCHEME_DIMS
100
AcDbLine
 62
7
  6
CONTINUOUS
 10
10.5918608752
 20
8.0511958719
 11
10.5918608752
 21
7.6511958719
  0
INSERT
  5
259
100
AcDbEntity
  8
SCHEME_DIMS
100
AcDbBlockReference
 62
7
  6
CONTINUOUS
  2
_FILLED
 10
10.5918608752
 20
8.1889911475
 41
0.1875
 42
0.1875
 43
0.1875
 50
270.0
  0
INSERT
  5
25A
100
AcDbEntity
  8
SCHEME_DIMS
100
AcDbBlockReference
 62
7
  6
CONTINUOUS
  2
_FILLED
 10
10.5918608752
 20
8.0511958719
 41
0.1875
 42
0.1875
 43
0.1875
 50
90.0
  0
ENDBLK
  5
25B
100
AcDbEntity
  8
0
  6
BYBLOCK
 62
0
100
AcDbBlockEnd
  0
BLOCK
  5
25C
100
AcDbEntity
  8
SCHEME_DIMS
100
AcDbBlockBegin
 62
7
  6
CONTINUOUS
  2
*D6
 70
65
 10
0.0
 20
0.0
  3
*D6
  1

  0
MTEXT
  5
25D
100
AcDbEntity
  8
SCHEME_DIMS
100
AcDbMText
 62
7
  6
CONTINUOUS
  7
STANDARD
 71
3
 72
1
 10
5.8454114795
 20
8.7819777082
 30
0.0
 11
1.0
 21
0.0
 31
0.0
 73
2
 44
0.9
  1
4X R2.25\P[0.089]
 40
0.1
 41
0.8
  0
LINE
  5
25E
100
AcDbEntity
  8
SCHEME_DIMS
100
AcDbLine
 62
7
  6
CONTINUOUS
 10
6.7692499157
 20
8.2585144738
 11
6.3954114795
 21
8.7319777082
  0
LINE
  5
25F
100
AcDbEntity
  8
SCHEME_DIMS
100
AcDbLine
 62
7
  6
CONTINUOUS
 10
6.3954114795
 20
8.7319777082
 11
6.2454114795
 21
8.7319777082
  0
INSERT
  5
260
100
AcDbEntity
  8
SCHEME_DIMS
100
AcDbBlockReference
 62
7
  6
CONTINUOUS
  2
_FILLED
 10
6.7692499157
 20
8.2585144738
 41
0.1875
 42
0.1875
 43
0.1875
 50
308.2940151349
  0
ENDBLK
  5
261
100
AcDbEntity
  8
0
  6
BYBLOCK
 62
0
100
AcDbBlockEnd
  0
BLOCK
  5
262
100
AcDbEntity
  8
SCHEME_DIMS
100
AcDbBlockBegin
 62
7
  6
CONTINUOUS
  2
*D7
 70
65
 10
0.0
 20
0.0
  3
*D7
  1

  0
MTEXT
  5
263
100
AcDbEntity
  8
SCHEME_DIMS
100
AcDbMText
 62
7
  6
CONTINUOUS
  7
STANDARD
 71
2
 72
1
 10
8.2595774106
 20
7.317731305
 30
0.0
 11
1.0
 21
0.0
 31
0.0
 73
2
 44
0.9
  1
78.0\P[3.07]
 40
0.1
 41
0.6
  0
LINE
  5
264
100
AcDbEntity
  8
SCHEME_DIMS
100
AcDbLine
 62
7
  6
CONTINUOUS
 10
9.8950104815
 20
7.8876162931
 11
9.8950104815
 21
7.142731305
  0
LINE
  5
265
100
AcDbEntity
  8
SCHEME_DIMS
100
AcDbLine
 62
7
  6
CONTINUOUS
 10
6.8241443397
 20
7.8762259922
 11
6.8241443397
 21
7.142731305
  0
LINE
  5
266
100
AcDbEntity
  8
SCHEME_DIMS
100
AcDbLine
 62
7
  6
CONTINUOUS
 10
9.8950104815
 20
7.267731305
 11
8.7595774106
 21
7.267731305
  0
LINE
  5
267
100
AcDbEntity
  8
SCHEME_DIMS
100
AcDbLine
 62
7
  6
CONTINUOUS
 10
6.8241443397
 20
7.267731305
 11
7.9595774106
 21
7.267731305
  0
INSERT
  5
268
100
AcDbEntity
  8
SCHEME_DIMS
100
AcDbBlockReference
 62
7
  6
CONTINUOUS
  2
_FILLED
 10
9.8950104815
 20
7.267731305
 41
0.1875
 42
0.1875
 43
0.1875
  0
INSERT
  5
269
100
AcDbEntity
  8
SCHEME_DIMS
100
AcDbBlockReference
 62
7
  6
CONTINUOUS
  2
_FILLED
 10
6.8241443397
 20
7.267731305
 41
0.1875
 42
0.1875
 43
0.1875
 50
180.0
  0
ENDBLK
  5
26A
100
AcDbEntity
  8
0
  6
BYBLOCK
 62
0
100
AcDbBlockEnd
  0
BLOCK
  5
26B
100
AcDbEntity
  8
SCHEME_DIMS
100
AcDbBlockBegin
 62
7
  6
CONTINUOUS
  2
*D8
 70
65
 10
0.0
 20
0.0
  3
*D8
  1

  0
MTEXT
  5
26C
100
AcDbEntity
  8
SCHEME_DIMS
100
AcDbMText
 62
7
  6
CONTINUOUS
  7
STANDARD
 71
3
 72
1
 10
5.9736477262
 20
7.317731305
 30
0.0
 11
1.0
 21
0.0
 31
0.0
 73
2
 44
0.9
  1
5.0\P[0.2]
 40
0.1
 41
0.5
  0
LINE
  5
26D
100
AcDbEntity
  8
SCHEME_DIMS
100
AcDbLine
 62
7
  6
CONTINUOUS
 10
6.8241443397
 20
7.6828962718
 11
6.8241443397
 21
7.142731305
  0
LINE
  5
26E
100
AcDbEntity
  8
SCHEME_DIMS
100
AcDbLine
 62
7
  6
CONTINUOUS
 10
6.627293946
 20
7.7544439034
 11
6.627293946
 21
7.142731305
  0
LINE
  5
26F
100
AcDbEntity
  8
SCHEME_DIMS
100
AcDbLine
 62
7
  6
CONTINUOUS
 10
6.8241443397
 20
7.267731305
 11
7.2241443397
 21
7.267731305
  0
LINE
  5
270
100
AcDbEntity
  8
SCHEME_DIMS
100
AcDbLine
 62
7
  6
CONTINUOUS
 10
6.627293946
 20
7.267731305
 11
6.2736477262
 21
7.267731305
  0
INSERT
  5
271
100
AcDbEntity
  8
SCHEME_DIMS
100
AcDbBlockReference
 62
7
  6
CONTINUOUS
  2
_FILLED
 10
6.8241443397
 20
7.267731305
 41
0.1875
 42
0.1875
 43
0.1875
 50
180.0
  0
INSERT
  5
272
100
AcDbEntity
  8
SCHEME_DIMS
100
AcDbBlockReference
 62
7
  6
CONTINUOUS
  2
_FILLED
 10
6.627293946
 20
7.267731305
 41
0.1875
 42
0.1875
 43
0.1875
  0
ENDBLK
  5
273
100
AcDbEntity
  8
0
  6
BYBLOCK
 62
0
100
AcDbBlockEnd
  0
BLOCK
  5
274
100
AcDbEntity
  8
SCHEME_DIMS
100
AcDbBlockBegin
 62
7
  6
CONTINUOUS
  2
*D9
 70
65
 10
0.0
 20
0.0
  3
*D9
  1

  0
MTEXT
  5
275
100
AcDbEntity
  8
SCHEME_DIMS
100
AcDbMText
 62
7
  6
CONTINUOUS
  7
STANDARD
 71
1
 72
1
 10
16.5447655316
 20
9.3019832735
 30
0.0
 11
1.0
 21
0.0
 31
0.0
 73
2
 44
0.9
  1
6.5\P[0.26]
 40
0.1
 41
0.6
  0
LINE
  5
276
100
AcDbEntity
  8
SCHEME_DIMS
100
AcDbLine
 62
7
  6
CONTINUOUS
 10
16.714585389
 20
8.4960777617
 11
16.1697655316
 21
8.4960777617
  0
LINE
  5
277
100
AcDbEntity
  8
SCHEME_DIMS
100
AcDbLine
 62
7
  6
CONTINUOUS
 10
16.78147813
 20
8.7519832735
 11
16.1697655316
 21
8.7519832735
  0
LINE
  5
278
100
AcDbEntity
  8
SCHEME_DIMS
100
AcDbLine
 62
7
  6
CONTINUOUS
 10
16.2947655316
 20
8.4960777617
 11
16.2947655316
 21
8.0960777617
  0
LINE
  5
279
100
AcDbEntity
  8
SCHEME_DIMS
100
AcDbLine
 62
7
  6
CONTINUOUS
 10
16.2947655316
 20
8.7519832735
 11
16.2947655316
 21
9.2519832735
  0
LINE
  5
27A
100
AcDbEntity
  8
SCHEME_DIMS
100
AcDbLine
 62
7
  6
CONTINUOUS
 10
16.2947655316
 20
9.2519832735
 11
16.4447655316
 21
9.2519832735
  0
INSERT
  5
27B
100
AcDbEntity
  8
SCHEME_DIMS
100
AcDbBlockReference
 62
7
  6
CONTINUOUS
  2
_FILLED
 10
16.2947655316
 20
8.4960777617
 41
0.1875
 42
0.1875
 43
0.1875
 50
90.0
  0
INSERT
  5
27C
100
AcDbEntity
  8
SCHEME_DIMS
100
AcDbBlockReference
 62
7
  6
CONTINUOUS
  2
_FILLED
 10
16.2947655316
 20
8.7519832735
 41
0.1875
 42
0.1875
 43
0.1875
 50
270.0
  0
ENDBLK
  5
27D
100
AcDbEntity
  8
0
  6
BYBLOCK
 62
0
100
AcDbBlockEnd
  0
BLOCK
  5
27E
100
AcDbEntity
  8
SCHEME_DIMS
100
AcDbBlockBegin
 62
7
  6
CONTINUOUS
  2
*D10
 70
65
 10
0.0
 20
0.0
  3
*D10
  1

  0
MTEXT
  5
27F
100
AcDbEntity
  8
SCHEME_DIMS
100
AcDbMText
 62
7
  6
CONTINUOUS
  7
STANDARD
 71
2
 72
1
 10
15.5888876291
 20
8.5204872105
 30
0.0
 11
1.0
 21
0.0
 31
0.0
 73
2
 44
0.9
  1
14.3\P[0.56]
 40
0.1
 41
0.6
  0
LINE
  5
280
100
AcDbEntity
  8
SCHEME_DIMS
100
AcDbLine
 62
7
  6
CONTINUOUS
 10
16.2132131722
 20
8.7519832735
 11
15.5638876291
 21
8.7519832735
  0
LINE
  5
281
100
AcDbEntity
  8
SCHEME_DIMS
100
AcDbLine
 62
7
  6
CONTINUOUS
 10
16.8164431441
 20
8.1889911475
 11
16.3317115647
 21
8.1889911475
  0
LINE
  5
282
100
AcDbEntity
  8
SCHEME_DIMS
100
AcDbLine
 62
7
  6
CONTINUOUS
 10
16.2494626892
 20
8.1889911475
 11
15.5638876291
 21
8.1889911475
  0
LINE
  5
283
100
AcDbEntity
  8
SCHEME_DIMS
100
AcDbLine
 62
7
  6
CONTINUOUS
 10
15.6888876291
 20
8.7519832735
 11
15.6888876291
 21
9.1519832735
  0
LINE
  5
284
100
AcDbEntity
  8
SCHEME_DIMS
100
AcDbLine
 62
7
  6
CONTINUOUS
 10
15.6888876291
 20
8.1889911475
 11
15.6888876291
 21
7.7889911475
  0
INSERT
  5
285
100
AcDbEntity
  8
SCHEME_DIMS
100
AcDbBlockReference
 62
7
  6
CONTINUOUS
  2
_FILLED
 10
15.6888876291
 20
8.7519832735
 41
0.1875
 42
0.1875
 43
0.1875
 50
270.0
  0
INSERT
  5
286
100
AcDbEntity
  8
SCHEME_DIMS
100
AcDbBlockReference
 62
7
  6
CONTINUOUS
  2
_FILLED
 10
15.6888876291
 20
8.1889911475
 41
0.1875
 42
0.1875
 43
0.1875
 50
90.0
  0
ENDBLK
  5
287
100
AcDbEntity
  8
0
  6
BYBLOCK
 62
0
100
AcDbBlockEnd
  0
BLOCK
  5
288
100
AcDbEntity
  8
SCHEME_DIMS
100
AcDbBlockBegin
 62
7
  6
CONTINUOUS
  2
*D11
 70
65
 10
0.0
 20
0.0
  3
*D11
  1

  0
MTEXT
  5
289
100
AcDbEntity
  8
SCHEME_DIMS
100
AcDbMText
 62
7
  6
CONTINUOUS
  7
TEXTSTYLE_6
 71
1
 72
1
 10
17.8060436215
 20
9.3019832735
 30
0.0
 11
1.0
 21
0.0
 31
0.0
 73
2
 44
0.9
  1
{\fgdt;n}\ftxt;4.5\P[0.18]
 40
0.1
 41
0.6
  0
LINE
  5
28A
100
AcDbEntity
  8
SCHEME_DIMS
100
AcDbLine
 62
7
  6
CONTINUOUS
 10
17.0446150873
 20
8.5670564875
 11
17.5560436215
 21
9.2519832735
  0
LINE
  5
28B
100
AcDbEntity
  8
SCHEME_DIMS
100
AcDbLine
 62
7
  6
CONTINUOUS
 10
17.5560436215
 20
9.2519832735
 11
17.7060436215
 21
9.2519832735
  0
INSERT
  5
28C
100
AcDbEntity
  8
SCHEME_DIMS
100
AcDbBlockReference
 62
7
  6
CONTINUOUS
  2
_FILLED
 10
17.0446150873
 20
8.5670564875
 41
0.1875
 42
0.1875
 43
0.1875
 50
233.2516410335
  0
ENDBLK
  5
28D
100
AcDbEntity
  8
0
  6
BYBLOCK
 62
0
100
AcDbBlockEnd
  0
BLOCK
  5
28E
100
AcDbEntity
  8
SCHEME_DIMS
100
AcDbBlockBegin
 62
7
  6
CONTINUOUS
  2
*D12
 70
65
 10
0.0
 20
0.0
  3
*D12
  1

  0
MTEXT
  5
28F
100
AcDbEntity
  8
SCHEME_DIMS
100
AcDbMText
 62
7
  6
CONTINUOUS
  7
STANDARD
 71
1
 72
1
 10
2.6407297591
 20
9.3019832735
 30
0.0
 11
1.0
 21
0.0
 31
0.0
 73
2
 44
0.9
  1
3.0\P[0.12]
 40
0.1
 41
0.6
  0
LINE
  5
290
100
AcDbEntity
  8
SCHEME_DIMS
100
AcDbLine
 62
7
  6
CONTINUOUS
 10
2.1202273387
 20
8.7911068606
 11
2.1202273387
 21
9.3769832735
  0
LINE
  5
291
100
AcDbEntity
  8
SCHEME_DIMS
100
AcDbLine
 62
7
  6
CONTINUOUS
 10
2.0021171025
 20
8.7652706751
 11
2.0021171026
 21
9.3769832735
  0
LINE
  5
292
100
AcDbEntity
  8
SCHEME_DIMS
100
AcDbLine
 62
7
  6
CONTINUOUS
 10
2.1202273387
 20
9.2519832735
 11
2.5407297591
 21
9.2519832735
  0
LINE
  5
293
100
AcDbEntity
  8
SCHEME_DIMS
100
AcDbLine
 62
7
  6
CONTINUOUS
 10
2.0021171026
 20
9.2519832735
 11
1.6021171026
 21
9.2519832735
  0
INSERT
  5
294
100
AcDbEntity
  8
SCHEME_DIMS
100
AcDbBlockReference
 62
7
  6
CONTINUOUS
  2
_FILLED
 10
2.1202273387
 20
9.2519832735
 41
0.1875
 42
0.1875
 43
0.1875
 50
180.0
  0
INSERT
  5
295
100
AcDbEntity
  8
SCHEME_DIMS
100
AcDbBlockReference
 62
7
  6
CONTINUOUS
  2
_FILLED
 10
2.0021171026
 20
9.2519832735
 41
0.1875
 42
0.1875
 43
0.1875
 50
359.9999999972
  0
ENDBLK
  5
296
100
AcDbEntity
  8
0
  6
BYBLOCK
 62
0
100
AcDbBlockEnd
  0
BLOCK
  5
297
100
AcDbEntity
  8
SCHEME_DIMS
100
AcDbBlockBegin
 62
7
  6
CONTINUOUS
  2
*D13
 70
65
 10
0.0
 20
0.0
  3
*D13
  1

  0
MTEXT
  5
298
100
AcDbEntity
  8
SCHEME_DIMS
100
AcDbMText
 62
7
  6
CONTINUOUS
  7
STANDARD
 71
1
 72
1
 10
14.1359211384
 20
9.8019832735
 30
0.0
 11
1.0
 21
0.0
 31
0.0
 73
2
 44
0.9
  1
13.0\P[0.51]
 40
0.1
 41
0.6
  0
LINE
  5
299
100
AcDbEntity
  8
SCHEME_DIMS
100
AcDbLine
 62
7
  6
CONTINUOUS
 10
13.7461753316
 20
8.8144832735
 11
13.7461753316
 21
9.8769832735
  0
LINE
  5
29A
100
AcDbEntity
  8
SCHEME_DIMS
100
AcDbLine
 62
7
  6
CONTINUOUS
 10
13.2343643079
 20
8.7652706751
 11
13.2343643079
 21
9.203875309
  0
LINE
  5
29B
100
AcDbEntity
  8
SCHEME_DIMS
100
AcDbLine
 62
7
  6
CONTINUOUS
 10
13.2343643079
 20
9.3015458486
 11
13.2343643079
 21
9.8769832735
  0
LINE
  5
29C
100
AcDbEntity
  8
SCHEME_DIMS
100
AcDbLine
 62
7
  6
CONTINUOUS
 10
13.7461753316
 20
9.7519832735
 11
14.0359211384
 21
9.7519832735
  0
LINE
  5
29D
100
AcDbEntity
  8
SCHEME_DIMS
100
AcDbLine
 62
7
  6
CONTINUOUS
 10
13.2343643079
 20
9.7519832735
 11
12.8343643079
 21
9.7519832735
  0
INSERT
  5
29E
100
AcDbEntity
  8
SCHEME_DIMS
100
AcDbBlockReference
 62
7
  6
CONTINUOUS
  2
_FILLED
 10
13.7461753316
 20
9.7519832735
 41
0.1875
 42
0.1875
 43
0.1875
 50
180.0
  0
INSERT
  5
29F
100
AcDbEntity
  8
SCHEME_DIMS
100
AcDbBlockReference
 62
7
  6
CONTINUOUS
  2
_FILLED
 10
13.2343643079
 20
9.7519832735
 41
0.1875
 42
0.1875
 43
0.1875
  0
ENDBLK
  5
2A0
100
AcDbEntity
  8
0
  6
BYBLOCK
 62
0
100
AcDbBlockEnd
  0
BLOCK
  5
2A1
100
AcDbEntity
  8
SCHEME_DIMS
100
AcDbBlockBegin
 62
7
  6
CONTINUOUS
  2
*D14
 70
65
 10
0.0
 20
0.0
  3
*D14
  1

  0
MTEXT
  5
2A2
100
AcDbEntity
  8
SCHEME_DIMS
100
AcDbMText
 62
7
  6
CONTINUOUS
  7
STANDARD
 71
1
 72
1
 10
3.2639281261
 20
7.4147950311
 30
0.0
 11
1.0
 21
0.0
 31
0.0
 73
2
 44
0.9
  1
2.5\P[0.1]
 40
0.1
 41
0.5
  0
LINE
  5
2A3
100
AcDbEntity
  8
SCHEME_DIMS
100
AcDbLine
 62
7
  6
CONTINUOUS
 10
2.5336752643
 20
7.767731305
 11
3.1389281261
 21
7.767731305
  0
LINE
  5
2A4
100
AcDbEntity
  8
SCHEME_DIMS
100
AcDbLine
 62
7
  6
CONTINUOUS
 10
2.5383021374
 20
7.8661565018
 11
3.1389281261
 21
7.8661565018
  0
LINE
  5
2A5
100
AcDbEntity
  8
SCHEME_DIMS
100
AcDbLine
 62
7
  6
CONTINUOUS
 10
3.0139281261
 20
7.767731305
 11
3.0139281261
 21
7.3647950311
  0
LINE
  5
2A6
100
AcDbEntity
  8
SCHEME_DIMS
100
AcDbLine
 62
7
  6
CONTINUOUS
 10
3.0139281261
 20
7.3647950311
 11
3.1639281261
 21
7.3647950311
  0
LINE
  5
2A7
100
AcDbEntity
  8
SCHEME_DIMS
100
AcDbLine
 62
7
  6
CONTINUOUS
 10
3.0139281261
 20
7.8661565018
 11
3.0139281261
 21
8.2661565018
  0
INSERT
  5
2A8
100
AcDbEntity
  8
SCHEME_DIMS
100
AcDbBlockReference
 62
7
  6
CONTINUOUS
  2
_FILLED
 10
3.0139281261
 20
7.767731305
 41
0.1875
 42
0.1875
 43
0.1875
 50
90.0
  0
INSERT
  5
2A9
100
AcDbEntity
  8
SCHEME_DIMS
100
AcDbBlockReference
 62
7
  6
CONTINUOUS
  2
_FILLED
 10
3.0139281261
 20
7.8661565018
 41
0.1875
 42
0.1875
 43
0.1875
 50
270.0
  0
ENDBLK
  5
2AA
100
AcDbEntity
  8
0
  6
BYBLOCK
 62
0
100
AcDbBlockEnd
  0
BLOCK
  5
2AB
100
AcDbEntity
  8
SCHEME_DIMS
100
AcDbBlockBegin
 62
7
  6
CONTINUOUS
  2
*D15
 70
65
 10
0.0
 20
0.0
  3
*D15
  1

  0
MTEXT
  5
2AC
100
AcDbEntity
  8
SCHEME_DIMS
100
AcDbMText
 62
7
  6
CONTINUOUS
  7
STANDARD
 71
2
 72
1
 10
3.4501631929
 20
8.3098572892
 30
0.0
 11
1.0
 21
0.0
 31
0.0
 73
2
 44
0.9
  1
25.0\P[0.98]
 40
0.1
 41
0.6
  0
LINE
  5
2AD
100
AcDbEntity
  8
SCHEME_DIMS
100
AcDbLine
 62
7
  6
CONTINUOUS
 10
2.5272155277
 20
8.7519832735
 11
3.6751631929
 21
8.7519832735
  0
LINE
  5
2AE
100
AcDbEntity
  8
SCHEME_DIMS
100
AcDbLine
 62
7
  6
CONTINUOUS
 10
2.5272155277
 20
7.767731305
 11
3.6751631929
 21
7.767731305
  0
LINE
  5
2AF
100
AcDbEntity
  8
SCHEME_DIMS
100
AcDbLine
 62
7
  6
CONTINUOUS
 10
3.5501631929
 20
8.7519832735
 11
3.5501631929
 21
8.4098572892
  0
LINE
  5
2B0
100
AcDbEntity
  8
SCHEME_DIMS
100
AcDbLine
 62
7
  6
CONTINUOUS
 10
3.5501631929
 20
7.767731305
 11
3.5501631929
 21
7.9598572892
  0
INSERT
  5
2B1
100
AcDbEntity
  8
SCHEME_DIMS
100
AcDbBlockReference
 62
7
  6
CONTINUOUS
  2
_FILLED
 10
3.5501631929
 20
8.7519832735
 41
0.1875
 42
0.1875
 43
0.1875
 50
90.0
  0
INSERT
  5
2B2
100
AcDbEntity
  8
SCHEME_DIMS
100
AcDbBlockReference
 62
7
  6
CONTINUOUS
  2
_FILLED
 10
3.5501631929
 20
7.767731305
 41
0.1875
 42
0.1875
 43
0.1875
 50
270.0
  0
ENDBLK
  5
2B3
100
AcDbEntity
  8
0
  6
BYBLOCK
 62
0
100
AcDbBlockEnd
  0
BLOCK
  5
2B4
100
AcDbEntity
  8
0
100
AcDbBlockBegin
  2
*T1
 70
1
 10
0.0
 20
0.0
  3
*T1
  1

  0
LINE
  5
2B5
100
AcDbEntity
  8
0
100
AcDbLine
 62
7
  6
CONTINUOUS
 10
4.35
 20
0.0
 11
0.0
 21
0.0
  0
LINE
  5
2B6
100
AcDbEntity
  8
0
100
AcDbLine
 62
7
  6
CONTINUOUS
 10
4.35
 20
0.0
 11
4.35
 21
1.92
  0
LINE
  5
2B7
100
AcDbEntity
  8
0
100
AcDbLine
 62
7
  6
CONTINUOUS
 10
4.35
 20
1.92
 11
0.0
 21
1.92
  0
LINE
  5
2B8
100
AcDbEntity
  8
0
100
AcDbLine
 62
7
  6
CONTINUOUS
 10
0.0
 20
0.0
 11
0.0
 21
1.92
  0
MTEXT
  5
2B9
100
AcDbEntity
  8
NOTES
100
AcDbMText
 62
7
  6
CONTINUOUS
  7
STANDARD
 71
2
 72
1
 10
4.125
 20
0.48
 30
0.0
 11
1.0
 21
0.0
 31
0.0
 73
2
 44
0.9
  1
A
 40
0.1
 41
0.2
  0
MTEXT
  5
2BA
100
AcDbEntity
  8
NOTES
100
AcDbMText
 62
7
  6
CONTINUOUS
  7
STANDARD
 71
2
 72
1
 10
2.175
 20
1.08
 30
0.0
 11
1.0
 21
0.0
 31
0.0
 73
2
 44
0.9
  1
SI-MAGB1SMCOQD\P 
 40
0.1
 41
2.8
  0
ENDBLK
  5
2BB
100
AcDbEntity
  8
0
  6
BYBLOCK
 62
0
100
AcDbBlockEnd
  0
ENDSEC
  0
SECTION
  2
ENTITIES
  0
MTEXT
  5
2BC
100
AcDbEntity
  8
0
100
AcDbMText
 62
7
  6
CONTINUOUS
  7
TEXTSTYLE_2
 71
2
 72
1
 10
15.7174677477
 20
1.6655662523
 30
0.0
 11
1.0
 21
0.0
 31
0.0
 73
2
 44
0.9
  1
THIRD ANGLE PROJECTION
 40
0.1
 41
1.76
  0
MTEXT
  5
2BD
100
AcDbEntity
  8
0
100
AcDbMText
 62
7
  6
CONTINUOUS
  7
STANDARD
 71
1
 72
1
 10
17.55
 20
1.32
 30
0.0
 11
1.0
 21
0.0
 31
0.0
 73
2
 44
0.9
  1
DRAWING NO.
 40
0.08
 41
0.88
  0
MTEXT
  5
2BE
100
AcDbEntity
  8
0
100
AcDbMText
 62
7
  6
CONTINUOUS
  7
TEXTSTYLE_2
 71
1
 72
1
 10
16.75
 20
2.08
 30
0.0
 11
1.0
 21
0.0
 31
0.0
 73
2
 44
0.9
  1
TITLE
 40
0.1
 41
0.4
  0
MTEXT
  5
2BF
100
AcDbEntity
  8
0
100
AcDbMText
 62
7
  6
CONTINUOUS
  7
STANDARD
 71
1
 72
1
 10
16.75
 20
1.32
 30
0.0
 11
1.0
 21
0.0
 31
0.0
 73
2
 44
0.9
  1
SIZE
 40
0.08
 41
0.32
  0
MTEXT
  5
2C0
100
AcDbEntity
  8
0
100
AcDbMText
 62
7
  6
CONTINUOUS
  7
STANDARD
 71
1
 72
1
 10
16.75
 20
0.95
 30
0.0
 11
1.0
 21
0.0
 31
0.0
 73
2
 44
0.9
  1
SCALE
 40
0.08
 41
0.4
  0
MTEXT
  5
2C1
100
AcDbEntity
  8
0
100
AcDbMText
 62
7
  6
CONTINUOUS
  7
TEXTSTYLE_2
 71
2
 72
1
 10
17.17
 20
1.2
 30
0.0
 11
1.0
 21
0.0
 31
0.0
 73
2
 44
0.9
  1
C
 40
0.1
 41
0.08
  0
MTEXT
  5
2C2
100
AcDbEntity
  8
0
100
AcDbMText
 62
7
  6
CONTINUOUS
  7
STANDARD
 71
1
 72
1
 10
18.925
 20
0.95
 30
0.0
 11
1.0
 21
0.0
 31
0.0
 73
2
 44
0.9
  1
SHEET
 40
0.08
 41
0.4
  0
MTEXT
  5
2C3
100
AcDbEntity
  8
0
100
AcDbMText
 62
7
  6
CONTINUOUS
  7
STANDARD
 71
1
 72
1
 10
20.3
 20
1.32
 30
0.0
 11
1.0
 21
0.0
 31
0.0
 73
2
 44
0.9
  1
REV.
 40
0.08
 41
0.32
  0
MTEXT
  5
2C4
100
AcDbEntity
  8
0
100
AcDbMText
 62
7
  6
CONTINUOUS
  7
STANDARD
 71
3
 72
1
 10
21.05
 20
0.698443
 30
0.0
 11
1.0
 21
0.0
 31
0.0
 73
2
 44
0.9
  1
CREO
 40
0.07
 41
0.28
  0
MTEXT
  5
2C5
100
AcDbEntity
  8
0
100
AcDbMText
 62
7
  6
CONTINUOUS
  7
TEXTSTYLE_2
 71
2
 72
1
 10
12.257
 20
15.95
 30
0.0
 11
1.0
 21
0.0
 31
0.0
 73
2
 44
0.9
  1
4
 40
0.1
 41
0.08
  0
MTEXT
  5
2C6
100
AcDbEntity
  8
0
100
AcDbMText
 62
7
  6
CONTINUOUS
  7
TEXTSTYLE_2
 71
2
 72
1
 10
12.257
 20
0.65
 30
0.0
 11
1.0
 21
0.0
 31
0.0
 73
2
 44
0.9
  1
4
 40
0.1
 41
0.08
  0
MTEXT
  5
2C7
100
AcDbEntity
  8
0
100
AcDbMText
 62
7
  6
CONTINUOUS
  7
TEXTSTYLE_2
 71
3
 72
1
 10
0.864
 20
6.375
 30
0.0
 11
1.0
 21
0.0
 31
0.0
 73
2
 44
0.9
  1
B
 40
0.1
 41
0.08
  0
MTEXT
  5
2C8
100
AcDbEntity
  8
0
100
AcDbMText
 62
7
  6
CONTINUOUS
  7
TEXTSTYLE_2
 71
1
 72
1
 10
21.15
 20
6.375
 30
0.0
 11
1.0
 21
0.0
 31
0.0
 73
2
 44
0.9
  1
B
 40
0.1
 41
0.08
  0
MTEXT
  5
2C9
100
AcDbEntity
  8
0
100
AcDbMText
 62
7
  6
CONTINUOUS
  7
TEXTSTYLE_2
 71
3
 72
1
 10
0.864
 20
2.525
 30
0.0
 11
1.0
 21
0.0
 31
0.0
 73
2
 44
0.9
  1
A
 40
0.1
 41
0.08
  0
MTEXT
  5
2CA
100
AcDbEntity
  8
0
100
AcDbMText
 62
7
  6
CONTINUOUS
  7
TEXTSTYLE_2
 71
1
 72
1
 10
21.15
 20
2.525
 30
0.0
 11
1.0
 21
0.0
 31
0.0
 73
2
 44
0.9
  1
A
 40
0.1
 41
0.08
  0
MTEXT
  5
2CB
100
AcDbEntity
  8
0
100
AcDbMText
 62
7
  6
CONTINUOUS
  7
TEXTSTYLE_2
 71
3
 72
1
 10
0.864
 20
14.075
 30
0.0
 11
1.0
 21
0.0
 31
0.0
 73
2
 44
0.9
  1
D
 40
0.1
 41
0.08
  0
MTEXT
  5
2CC
100
AcDbEntity
  8
0
100
AcDbMText
 62
7
  6
CONTINUOUS
  7
TEXTSTYLE_2
 71
1
 72
1
 10
21.15
 20
14.075
 30
0.0
 11
1.0
 21
0.0
 31
0.0
 73
2
 44
0.9
  1
D
 40
0.1
 41
0.08
  0
MTEXT
  5
2CD
100
AcDbEntity
  8
0
100
AcDbMText
 62
7
  6
CONTINUOUS
  7
TEXTSTYLE_2
 71
3
 72
1
 10
0.864
 20
10.225
 30
0.0
 11
1.0
 21
0.0
 31
0.0
 73
2
 44
0.9
  1
C
 40
0.1
 41
0.08
  0
MTEXT
  5
2CE
100
AcDbEntity
  8
0
100
AcDbMText
 62
7
  6
CONTINUOUS
  7
TEXTSTYLE_2
 71
1
 72
1
 10
21.15
 20
10.225
 30
0.0
 11
1.0
 21
0.0
 31
0.0
 73
2
 44
0.9
  1
C
 40
0.1
 41
0.08
  0
MTEXT
  5
2CF
100
AcDbEntity
  8
0
100
AcDbMText
 62
7
  6
CONTINUOUS
  7
TEXTSTYLE_2
 71
2
 72
1
 10
14.757
 20
0.65
 30
0.0
 11
1.0
 21
0.0
 31
0.0
 73
2
 44
0.9
  1
3
 40
0.1
 41
0.08
  0
MTEXT
  5
2D0
100
AcDbEntity
  8
0
100
AcDbMText
 62
7
  6
CONTINUOUS
  7
TEXTSTYLE_2
 71
2
 72
1
 10
14.757
 20
15.95
 30
0.0
 11
1.0
 21
0.0
 31
0.0
 73
2
 44
0.9
  1
3
 40
0.1
 41
0.08
  0
MTEXT
  5
2D1
100
AcDbEntity
  8
0
100
AcDbMText
 62
7
  6
CONTINUOUS
  7
TEXTSTYLE_2
 71
2
 72
1
 10
17.257
 20
15.95
 30
0.0
 11
1.0
 21
0.0
 31
0.0
 73
2
 44
0.9
  1
2
 40
0.1
 41
0.08
  0
MTEXT
  5
2D2
100
AcDbEntity
  8
0
100
AcDbMText
 62
7
  6
CONTINUOUS
  7
TEXTSTYLE_2
 71
2
 72
1
 10
17.257
 20
0.65
 30
0.0
 11
1.0
 21
0.0
 31
0.0
 73
2
 44
0.9
  1
2
 40
0.1
 41
0.08
  0
MTEXT
  5
2D3
100
AcDbEntity
  8
0
100
AcDbMText
 62
7
  6
CONTINUOUS
  7
TEXTSTYLE_2
 71
2
 72
1
 10
19.757
 20
0.65
 30
0.0
 11
1.0
 21
0.0
 31
0.0
 73
2
 44
0.9
  1
1
 40
0.1
 41
0.08
  0
MTEXT
  5
2D4
100
AcDbEntity
  8
0
100
AcDbMText
 62
7
  6
CONTINUOUS
  7
TEXTSTYLE_2
 71
2
 72
1
 10
19.757
 20
15.95
 30
0.0
 11
1.0
 21
0.0
 31
0.0
 73
2
 44
0.9
  1
1
 40
0.1
 41
0.08
  0
MTEXT
  5
2D5
100
AcDbEntity
  8
0
100
AcDbMText
 62
7
  6
CONTINUOUS
  7
TEXTSTYLE_2
 71
2
 72
1
 10
2.257
 20
0.65
 30
0.0
 11
1.0
 21
0.0
 31
0.0
 73
2
 44
0.9
  1
8
 40
0.1
 41
0.08
  0
MTEXT
  5
2D6
100
AcDbEntity
  8
0
100
AcDbMText
 62
7
  6
CONTINUOUS
  7
TEXTSTYLE_2
 71
2
 72
1
 10
4.757
 20
0.65
 30
0.0
 11
1.0
 21
0.0
 31
0.0
 73
2
 44
0.9
  1
7
 40
0.1
 41
0.08
  0
MTEXT
  5
2D7
100
AcDbEntity
  8
0
100
AcDbMText
 62
7
  6
CONTINUOUS
  7
TEXTSTYLE_2
 71
2
 72
1
 10
7.257
 20
0.65
 30
0.0
 11
1.0
 21
0.0
 31
0.0
 73
2
 44
0.9
  1
6
 40
0.1
 41
0.08
  0
MTEXT
  5
2D8
100
AcDbEntity
  8
0
100
AcDbMText
 62
7
  6
CONTINUOUS
  7
TEXTSTYLE_2
 71
2
 72
1
 10
9.757
 20
0.65
 30
0.0
 11
1.0
 21
0.0
 31
0.0
 73
2
 44
0.9
  1
5
 40
0.1
 41
0.08
  0
MTEXT
  5
2D9
100
AcDbEntity
  8
0
100
AcDbMText
 62
7
  6
CONTINUOUS
  7
TEXTSTYLE_2
 71
2
 72
1
 10
9.757
 20
15.95
 30
0.0
 11
1.0
 21
0.0
 31
0.0
 73
2
 44
0.9
  1
5
 40
0.1
 41
0.08
  0
MTEXT
  5
2DA
100
AcDbEntity
  8
0
100
AcDbMText
 62
7
  6
CONTINUOUS
  7
TEXTSTYLE_2
 71
2
 72
1
 10
7.257
 20
15.95
 30
0.0
 11
1.0
 21
0.0
 31
0.0
 73
2
 44
0.9
  1
6
 40
0.1
 41
0.08
  0
MTEXT
  5
2DB
100
AcDbEntity
  8
0
100
AcDbMText
 62
7
  6
CONTINUOUS
  7
TEXTSTYLE_2
 71
2
 72
1
 10
4.757
 20
15.95
 30
0.0
 11
1.0
 21
0.0
 31
0.0
 73
2
 44
0.9
  1
7
 40
0.1
 41
0.08
  0
MTEXT
  5
2DC
100
AcDbEntity
  8
0
100
AcDbMText
 62
7
  6
CONTINUOUS
  7
TEXTSTYLE_2
 71
2
 72
1
 10
2.257
 20
15.95
 30
0.0
 11
1.0
 21
0.0
 31
0.0
 73
2
 44
0.9
  1
8
 40
0.1
 41
0.08
  0
MTEXT
  5
2DD
100
AcDbEntity
  8
0
100
AcDbMText
 62
7
  6
CONTINUOUS
  7
STANDARD
 71
1
 72
1
 10
17.2749123633
 20
0.9184107931
 30
0.0
 11
1.0
 21
0.0
 31
0.0
 73
2
 44
0.9
  1
1:1
 40
0.1
 41
0.3
  0
MTEXT
  5
2DE
100
AcDbEntity
  8
0
100
AcDbMText
 62
7
  6
CONTINUOUS
  7
STANDARD
 71
1
 72
1
 10
19.4499123633
 20
0.9184107931
 30
0.0
 11
1.0
 21
0.0
 31
0.0
 73
2
 44
0.9
  1
1 OF 1
 40
0.1
 41
0.6
  0
MTEXT
  5
2DF
100
AcDbEntity
  8
0
100
AcDbMText
 62
7
  6
CONTINUOUS
  7
STANDARD
 71
1
 72
1
 10
18.5204017884
 20
1.2400373234
 30
0.0
 11
1.0
 21
0.0
 31
0.0
 73
2
 44
0.9
  1
211844
 40
0.12
 41
0.72
  0
MTEXT
  5
2E0
100
AcDbEntity
  8
0
100
AcDbMText
 62
7
  6
CONTINUOUS
  7
STANDARD
 71
1
 72
1
 10
1.2857894151
 20
1.4458068967
 30
0.0
 11
1.0
 21
0.0
 31
0.0
 73
2
 44
0.9
  1
NOTES:\P1. ALL DIMENSIONS ARE MILLIMETERS [INCHES] UNLESS OTHERWISE NOTED.\P2. REFER TO "www.bannerengineering.com" FOR ADDITIONAL DATA AND SPECIFICATIONS.
 40
0.1
 41
7.9
  0
MTEXT
  5
2E1
100
AcDbEntity
  8
0
100
AcDbMText
 62
7
  6
CONTINUOUS
  7
TEXTSTYLE_3
 71
2
 72
1
 10
19.7555637832
 20
2.555409194
 30
0.0
 11
1.0
 21
0.0
 31
0.0
 73
2
 44
0.9
  1
BANNER ENGINEERING CORP.
 40
0.12
 41
2.592
  0
MTEXT
  5
2E2
100
AcDbEntity
  8
0
100
AcDbMText
 62
7
  6
CONTINUOUS
  7
TEXTSTYLE_2
 71
2
 72
1
 10
19.6690932526
 20
2.3442032634
 30
0.0
 11
1.0
 21
0.0
 31
0.0
 73
2
 44
0.9
  1
www.bannerengineering.com
 40
0.1
 41
2.0
  0
MTEXT
  5
2E3
100
AcDbEntity
  8
0
100
AcDbMText
 62
7
  6
CONTINUOUS
  7
TEXTSTYLE_4
 71
2
 72
1
 10
15.7104628329
 20
2.6377571551
 30
0.0
 11
1.0
 21
0.0
 31
0.0
 73
2
 44
0.9
  1
This drawing is the property\Pof BANNER ENGINEERING CORP.\PAny use or reproduction,\Pin any form, without prior\Pwritten permission of\PBanner is prohibited.
 40
0.08
 41
1.904
  0
MTEXT
  5
2E4
100
AcDbEntity
  8
0
100
AcDbMText
 62
7
  6
CONTINUOUS
  7
TEXTSTYLE_5
 71
2
 72
1
 10
15.7283993136
 20
1.9032170366
 30
0.0
 11
1.0
 21
0.0
 31
0.0
 73
2
 44
0.9
  1
C  2015 Banner Engineering Corp.
 40
0.08
 41
1.92
  0
DIMENSION
  5
2E5
100
AcDbEntity
  8
SCHEME_DIMS
100
AcDbDimension
 62
7
  6
CONTINUOUS
  2
*D0
 10
7.0209947334
 20
11.3547663815
 11
8.3595774106
 21
11.2797663815
 70
160
 71
2
 72
2
 41
0.9
 42
68.0
  1
<>\P[]
  3
DIMSTYLE_1
100
AcDbAlignedDimension
 13
9.6981600878
 23
11.8835335919
 14
7.0209947334
 24
11.8574449499
 50
180.0
100
AcDbRotatedDimension
  0
DIMENSION
  5
2E6
100
AcDbEntity
  8
SCHEME_DIMS
100
AcDbDimension
 62
7
  6
CONTINUOUS
  2
*D1
 10
6.627293946
 20
5.1068470417
 11
8.3595774106
 21
5.0318470417
 70
160
 71
2
 72
2
 41
0.9
 42
88.0
  1
<>\P[]
  3
DIMSTYLE_1
100
AcDbAlignedDimension
 13
10.0918608752
 23
4.2452747213
 14
6.627293946
 24
4.2423539517
 50
180.0
100
AcDbRotatedDimension
  0
DIMENSION
  5
2E7
100
AcDbEntity
  8
SCHEME_DIMS
100
AcDbDimension
 62
7
  6
CONTINUOUS
  2
*D2
 10
6.627293946
 20
11.3547663815
 11
5.8548486939
 21
11.2797663815
 70
160
 71
3
 72
2
 41
0.9
 42
10.0
  1
<>\P[]
  3
DIMSTYLE_1
100
AcDbAlignedDimension
 13
7.0209947334
 23
11.8863381215
 14
6.627293946
 24
12.2104971625
 50
180.0
100
AcDbRotatedDimension
  0
DIMENSION
  5
2E8
100
AcDbEntity
  8
SCHEME_DIMS
100
AcDbDimension
 62
7
  6
CONTINUOUS
  2
*D3
 10
12.7343643079
 20
8.7519832735
 11
12.1843643079
 21
8.0114971643
 70
160
 71
3
 72
2
 41
0.9
 42
7.0
  1
<>\P[]
  3
DIMSTYLE_1
100
AcDbAlignedDimension
 13
13.3021975127
 23
8.4763927223
 14
13.2835769064
 24
8.7519832735
 50
90.0
100
AcDbRotatedDimension
  0
DIMENSION
  5
2E9
100
AcDbEntity
  8
SCHEME_DIMS
100
AcDbDimension
 62
7
  6
CONTINUOUS
  2
*D4
 10
13.7461753316
 20
9.2519832735
 11
14.4258838106
 21
9.1769832735
 70
160
 71
1
 72
2
 41
0.9
 42
7.5
  1
<>\P[]
  3
DIMSTYLE_1
100
AcDbAlignedDimension
 13
13.450899741
 23
8.6355284196
 14
13.7461753316
 24
8.7370289325
100
AcDbRotatedDimension
  0
DIMENSION
  5
2EA
100
AcDbEntity
  8
SCHEME_DIMS
100
AcDbDimension
 62
7
  6
CONTINUOUS
  2
*D5
 10
10.5918608752
 20
8.0511958719
 11
11.1418608752
 21
8.6926469056
 70
160
 71
1
 72
2
 41
0.9
 42
3.5
  1
<>\P[]
  3
DIMSTYLE_1
100
AcDbAlignedDimension
 13
9.9923305287
 23
8.1889911475
 14
9.9885919435
 24
8.0511958719
 50
270.0
100
AcDbRotatedDimension
  0
DIMENSION
  5
2EB
100
AcDbEntity
  8
SCHEME_DIMS
100
AcDbDimension
 62
7
  6
CONTINUOUS
  2
*D6
 10
6.8241443397
 20
8.1889911475
 11
5.5954114795
 21
8.6569777082
 70
164
 71
3
 72
2
 41
0.9
 42
2.25
  1
4X R<>\P[]
  3
DIMSTYLE_2
100
AcDbRadialDimension
 15
6.7692499157
 25
8.2585144738
  0
DIMENSION
  5
2EC
100
AcDbEntity
  8
SCHEME_DIMS
100
AcDbDimension
 62
7
  6
CONTINUOUS
  2
*D7
 10
6.8241443397
 20
7.267731305
 11
8.3595774106
 21
7.192731305
 70
160
 71
2
 72
2
 41
0.9
 42
78.0
  1
<>\P[]
  3
DIMSTYLE_1
100
AcDbAlignedDimension
 13
9.8950104815
 23
7.9501162931
 14
6.8241443397
 24
7.9387259922
 50
180.0
100
AcDbRotatedDimension
  0
DIMENSION
  5
2ED
100
AcDbEntity
  8
SCHEME_DIMS
100
AcDbDimension
 62
7
  6
CONTINUOUS
  2
*D8
 10
6.627293946
 20
7.267731305
 11
5.9236477262
 21
7.192731305
 70
160
 71
3
 72
2
 41
0.9
 42
5.0
  1
<>\P[]
  3
DIMSTYLE_1
100
AcDbAlignedDimension
 13
6.8241443397
 23
7.7453962718
 14
6.627293946
 24
7.8169439034
 50
180.0
100
AcDbRotatedDimension
  0
DIMENSION
  5
2EE
100
AcDbEntity
  8
SCHEME_DIMS
100
AcDbDimension
 62
7
  6
CONTINUOUS
  2
*D9
 10
16.2947655316
 20
8.7519832735
 11
16.8447655316
 21
9.1769832735
 70
160
 71
1
 72
2
 41
0.9
 42
6.5
  1
<>\P[]
  3
DIMSTYLE_1
100
AcDbAlignedDimension
 13
16.777085389
 23
8.4960777617
 14
16.84397813
 24
8.7519832735
 50
90.0
100
AcDbRotatedDimension
  0
DIMENSION
  5
2EF
100
AcDbEntity
  8
SCHEME_DIMS
100
AcDbDimension
 62
7
  6
CONTINUOUS
  2
*D10
 10
15.6888876291
 20
8.1889911475
 11
15.6888876291
 21
8.3954872105
 70
160
 71
2
 72
2
 41
0.9
 42
14.3
  1
<>\P[]
  3
DIMSTYLE_1
100
AcDbAlignedDimension
 13
16.2757131722
 23
8.7519832735
 14
16.8789431441
 24
8.1889911475
 50
270.0
100
AcDbRotatedDimension
  0
DIMENSION
  5
2F0
100
AcDbEntity
  8
SCHEME_DIMS
100
AcDbDimension
 62
7
  6
CONTINUOUS
  2
*D11
 10
17.0446150873
 20
8.5670564875
 11
18.1727102882
 21
9.1769832735
 70
163
 71
1
 72
2
 41
0.9
 42
4.5
  1
%%c<>\P[]
  3
DIMSTYLE_3
100
AcDbDiametricDimension
 15
16.9386167633
 25
8.4250990359
  0
DIMENSION
  5
2F1
100
AcDbEntity
  8
SCHEME_DIMS
100
AcDbDimension
 62
7
  6
CONTINUOUS
  2
*D12
 10
2.0021171026
 20
9.2519832735
 11
2.9407297591
 21
9.1769832735
 70
160
 71
1
 72
2
 41
0.9
 42
2.9999999989
  1
<>\P[]
  3
DIMSTYLE_1
100
AcDbAlignedDimension
 13
2.1202273387
 23
8.7286068606
 14
2.0021171025
 24
8.7027706751
 50
179.9999999972
100
AcDbRotatedDimension
  0
DIMENSION
  5
2F2
100
AcDbEntity
  8
SCHEME_DIMS
100
AcDbDimension
 62
7
  6
CONTINUOUS
  2
*D13
 10
13.2343643079
 20
9.7519832735
 11
14.4359211384
 21
9.6769832735
 70
160
 71
1
 72
2
 41
0.9
 42
13.0
  1
<>\P[]
  3
DIMSTYLE_1
100
AcDbAlignedDimension
 13
13.7461753316
 23
8.7519832735
 14
13.2343643079
 24
8.7027706751
 50
180.0
100
AcDbRotatedDimension
  0
DIMENSION
  5
2F3
100
AcDbEntity
  8
SCHEME_DIMS
100
AcDbDimension
 62
7
  6
CONTINUOUS
  2
*D14
 10
3.0139281261
 20
7.8661565018
 11
3.5139281261
 21
7.2897950311
 70
160
 71
1
 72
2
 41
0.9
 42
2.5
  1
<>\P[]
  3
DIMSTYLE_1
100
AcDbAlignedDimension
 13
2.4711752643
 23
7.767731305
 14
2.4758021374
 24
7.8661565018
 50
90.0
100
AcDbRotatedDimension
  0
DIMENSION
  5
2F4
100
AcDbEntity
  8
SCHEME_DIMS
100
AcDbDimension
 62
7
  6
CONTINUOUS
  2
*D15
 10
3.5501631929
 20
7.767731305
 11
3.5501631929
 21
8.1848572892
 70
160
 71
2
 72
2
 41
0.9
 42
25.0
  1
<>\P[]
  3
DIMSTYLE_1
100
AcDbAlignedDimension
 13
2.4647155277
 23
8.7519832735
 14
2.4647155277
 24
7.767731305
 50
270.0
100
AcDbRotatedDimension
  0
ACAD_TABLE
  5
2F5
100
AcDbEntity
  8
0
 62
7
  6
CONTINUOUS
100
AcDbBlockReference
  2
*T1
 10
16.7
 20
0.75
 30
0.0
100
AcDbTable
342
       5F7
343
21C
 11
1.0
 21
0.0
 31
0.0
 90
6
 91
3
 92
5
 93
4
 94
0
 95
0
 96
0
 70
1
141
0.33
141
0.45
141
1.14
142
0.65
142
1.15
142
1.025
142
1.075
142
0.45
171
1
172
0
173
0
174
0
175
1
176
1
 91
33
178
0
145
0.0
301
CELL_VALUE
 90
4
  1
 
304
ACVALUE_END
170
1
140
0.1
171
1
172
0
173
0
174
0
175
1
176
1
 91
33
178
0
145
0.0
301
CELL_VALUE
 90
4
  1
 
304
ACVALUE_END
170
1
140
0.1
171
1
172
0
173
0
174
0
175
1
176
1
 91
33
178
0
145
0.0
301
CELL_VALUE
 90
4
  1
 
304
ACVALUE_END
170
1
140
0.1
171
1
172
0
173
0
174
0
175
1
176
1
 91
33
178
0
145
0.0
301
CELL_VALUE
 90
4
  1
 
304
ACVALUE_END
170
1
140
0.1
171
1
172
0
173
0
174
0
175
1
176
1
 91
33
178
0
145
0.0
301
CELL_VALUE
 90
4
  1
 
304
ACVALUE_END
170
1
140
0.1
171
1
172
0
173
0
174
0
175
1
176
1
 91
33
178
0
145
0.0
301
CELL_VALUE
 90
4
  1
 
304
ACVALUE_END
170
1
140
0.1
171
1
172
0
173
0
174
0
175
1
176
1
 91
33
178
0
145
0.0
301
CELL_VALUE
 90
4
  1
 
304
ACVALUE_END
170
1
140
0.1
171
1
172
0
173
0
174
0
175
1
176
1
 91
33
178
0
145
0.0
301
CELL_VALUE
 90
4
  1
 
304
ACVALUE_END
170
1
140
0.1
171
1
172
0
173
0
174
0
175
1
176
1
 91
33
178
0
145
0.0
301
CELL_VALUE
 90
4
  1
 
304
ACVALUE_END
170
1
140
0.1
171
1
172
0
173
0
174
0
175
1
176
1
 91
41
178
0
145
0.0
301
CELL_VALUE
 90
4
  1
A
304
ACVALUE_END
170
8
140
0.1
 64
7
171
1
172
0
173
0
174
0
175
5
176
1
 91
33
178
0
145
0.0
301
CELL_VALUE
 90
4
  1
SI-MAGB1SMCOQD\P 
304
ACVALUE_END
170
8
140
0.1
171
1
172
0
173
1
174
0
175
1
176
1
 91
1
178
0
145
0.0
170
1
171
1
172
0
173
1
174
0
175
1
176
1
 91
1
178
0
145
0.0
170
1
171
1
172
0
173
1
174
0
175
1
176
1
 91
1
178
0
145
0.0
170
1
171
1
172
0
173
1
174
0
175
1
176
1
 91
1
178
0
145
0.0
170
8
  0
MTEXT
  5
2F6
100
AcDbEntity
  8
NOTES
100
AcDbMText
 62
7
  6
CONTINUOUS
  7
STANDARD
 71
1
 72
1
 10
18.1205941501
 20
12.5166630598
 30
0.0
 11
1.0
 21
0.0
 31
0.0
 73
2
 44
0.9
  1
ISOMETRIC VIEW
 40
0.1
 41
1.4
  0
LINE
  5
2F7
100
AcDbEntity
  8
0
100
AcDbLine
 62
7
  6
CONTINUOUS
 10
0.814
 20
8.336603
 11
0.814
 21
8.163397
  0
LINE
  5
2F8
100
AcDbEntity
  8
0
100
AcDbLine
 62
7
  6
CONTINUOUS
 10
0.964
 20
15.75
 11
0.964
 21
0.75
  0
LINE
  5
2F9
100
AcDbEntity
  8
0
100
AcDbLine
 62
7
  6
CONTINUOUS
 10
15.8276527477
 20
1.2966912523
 11
16.4340437477
 21
1.3660842523
  0
LINE
  5
2FA
100
AcDbEntity
  8
0
100
AcDbLine
 62
7
  6
CONTINUOUS
 10
10.920397
 20
0.6
 11
11.093603
 21
0.6
  0
LINE
  5
2FB
100
AcDbEntity
  8
0
100
AcDbLine
 62
7
  6
CONTINUOUS
 10
0.964
 20
0.75
 11
21.05
 21
0.75
  0
LINE
  5
2FC
100
AcDbEntity
  8
0
100
AcDbLine
 62
7
  6
CONTINUOUS
 10
3.507
 20
0.75
 11
3.507
 21
0.5
  0
LINE
  5
2FD
100
AcDbEntity
  8
0
100
AcDbLine
 62
7
  6
CONTINUOUS
 10
3.507
 20
15.75
 11
3.507
 21
16.0
  0
LINE
  5
2FE
100
AcDbEntity
  8
0
100
AcDbLine
 62
7
  6
CONTINUOUS
 10
16.7
 20
1.0
 11
21.05
 21
1.0
  0
LINE
  5
2FF
100
AcDbEntity
  8
0
100
AcDbLine
 62
7
  6
CONTINUOUS
 10
14.9008917477
 20
1.1139932523
 11
15.1229827477
 21
1.1139932523
  0
LINE
  5
300
100
AcDbEntity
  8
0
100
AcDbLine
 62
7
  6
CONTINUOUS
 10
15.1729827477
 20
1.1139932523
 11
15.2729827477
 21
1.1139932523
  0
LINE
  5
301
100
AcDbEntity
  8
0
100
AcDbLine
 62
7
  6
CONTINUOUS
 10
15.3229827477
 20
1.1139932523
 11
15.5450737477
 21
1.1139932523
  0
LINE
  5
302
100
AcDbEntity
  8
0
100
AcDbLine
 62
7
  6
CONTINUOUS
 10
15.7276527477
 20
1.1139932523
 11
16.0058047477
 21
1.1139932523
  0
LINE
  5
303
100
AcDbEntity
  8
0
100
AcDbLine
 62
7
  6
CONTINUOUS
 10
16.0558047477
 20
1.1139932523
 11
16.2058907477
 21
1.1139932523
  0
LINE
  5
304
100
AcDbEntity
  8
0
100
AcDbLine
 62
7
  6
CONTINUOUS
 10
16.2558907477
 20
1.1139932523
 11
16.5340437477
 21
1.1139932523
  0
LINE
  5
305
100
AcDbEntity
  8
0
100
AcDbLine
 62
7
  6
CONTINUOUS
 10
16.7
 20
1.37
 11
21.05
 21
1.37
  0
LINE
  5
306
100
AcDbEntity
  8
0
100
AcDbLine
 62
7
  6
CONTINUOUS
 10
16.4340437477
 20
0.8619022523
 11
15.8276527477
 21
0.9312952523
  0
LINE
  5
307
100
AcDbEntity
  8
0
100
AcDbLine
 62
7
  6
CONTINUOUS
 10
14.7
 20
1.77
 11
16.7
 21
1.77
  0
LINE
  5
308
100
AcDbEntity
  8
0
100
AcDbLine
 62
7
  6
CONTINUOUS
 10
16.7
 20
2.13
 11
21.05
 21
2.13
  0
LINE
  5
309
100
AcDbEntity
  8
0
100
AcDbLine
 62
7
  6
CONTINUOUS
 10
18.273144232
 20
2.3543254011
 11
18.2257802057
 21
2.3543254011
  0
LINE
  5
30A
100
AcDbEntity
  8
0
100
AcDbLine
 62
7
  6
CONTINUOUS
 10
18.1818891814
 20
2.3543254011
 11
18.0683181184
 21
2.3543254011
  0
LINE
  5
30B
100
AcDbEntity
  8
0
100
AcDbLine
 62
7
  6
CONTINUOUS
 10
18.0394141024
 20
2.3543254011
 11
17.8362019897
 21
2.3543254011
  0
LINE
  5
30C
100
AcDbEntity
  8
0
100
AcDbLine
 62
7
  6
CONTINUOUS
 10
17.7857289617
 20
2.3543254011
 11
17.7115229205
 21
2.3543254011
  0
LINE
  5
30D
100
AcDbEntity
  8
0
100
AcDbLine
 62
7
  6
CONTINUOUS
 10
17.6651428948
 20
2.3543254011
 11
17.5894788529
 21
2.3543254011
  0
LINE
  5
30E
100
AcDbEntity
  8
0
100
AcDbLine
 62
7
  6
CONTINUOUS
 10
17.537475824
 20
2.3543254011
 11
17.4632707829
 21
2.3543254011
  0
LINE
  5
30F
100
AcDbEntity
  8
0
100
AcDbLine
 62
7
  6
CONTINUOUS
 10
17.4168897572
 20
2.3543254011
 11
17.3412257152
 21
2.3543254011
  0
LINE
  5
310
100
AcDbEntity
  8
0
100
AcDbLine
 62
7
  6
CONTINUOUS
 10
16.8743904563
 20
2.3543254011
 11
17.0508365542
 21
2.3543254011
  0
LINE
  5
311
100
AcDbEntity
  8
0
100
AcDbLine
 62
7
  6
CONTINUOUS
 10
17.1083735861
 20
2.3543254011
 11
17.185749629
 21
2.3543254011
  0
LINE
  5
312
100
AcDbEntity
  8
0
100
AcDbLine
 62
7
  6
CONTINUOUS
 10
17.2060356402
 20
2.3543254011
 11
17.3113166986
 21
2.3543254011
  0
LINE
  5
313
100
AcDbEntity
  8
0
100
AcDbLine
 62
7
  6
CONTINUOUS
 10
18.1572301677
 20
2.3790534148
 11
18.1818891814
 21
2.3790534148
  0
LINE
  5
314
100
AcDbEntity
  8
0
100
AcDbLine
 62
7
  6
CONTINUOUS
 10
17.3113166986
 20
2.3790754148
 11
17.2913006875
 21
2.3790754148
  0
LINE
  5
315
100
AcDbEntity
  8
0
100
AcDbLine
 62
7
  6
CONTINUOUS
 10
17.2204866482
 20
2.3790754148
 11
17.2060356402
 21
2.3790754148
  0
LINE
  5
316
100
AcDbEntity
  8
0
100
AcDbLine
 62
7
  6
CONTINUOUS
 10
17.185749629
 20
2.3790754148
 11
17.1744666227
 21
2.3790754148
  0
LINE
  5
317
100
AcDbEntity
  8
0
100
AcDbLine
 62
7
  6
CONTINUOUS
 10
17.1312345987
 20
2.3790754148
 11
17.1083735861
 21
2.3790754148
  0
LINE
  5
318
100
AcDbEntity
  8
0
100
AcDbLine
 62
7
  6
CONTINUOUS
 10
17.0051585288
 20
2.3790754148
 11
16.9637955059
 21
2.3790754148
  0
LINE
  5
319
100
AcDbEntity
  8
0
100
AcDbLine
 62
7
  6
CONTINUOUS
 10
16.8983324696
 20
2.3790754148
 11
16.8743904563
 21
2.3790754148
  0
LINE
  5
31A
100
AcDbEntity
  8
0
100
AcDbLine
 62
7
  6
CONTINUOUS
 10
17.3412257152
 20
2.3790754148
 11
17.3598727255
 21
2.3790754148
  0
LINE
  5
31B
100
AcDbEntity
  8
0
100
AcDbLine
 62
7
  6
CONTINUOUS
 10
17.3965727459
 20
2.3790754148
 11
17.4168897572
 21
2.3790754148
  0
LINE
  5
31C
100
AcDbEntity
  8
0
100
AcDbLine
 62
7
  6
CONTINUOUS
 10
17.5894788529
 20
2.3790754148
 11
17.6081248632
 21
2.3790754148
  0
LINE
  5
31D
100
AcDbEntity
  8
0
100
AcDbLine
 62
7
  6
CONTINUOUS
 10
17.6448258836
 20
2.3790754148
 11
17.6651428948
 21
2.3790754148
  0
LINE
  5
31E
100
AcDbEntity
  8
0
100
AcDbLine
 62
7
  6
CONTINUOUS
 10
17.8362019897
 20
2.3790754148
 11
17.860125003
 21
2.3790754148
  0
LINE
  5
31F
100
AcDbEntity
  8
0
100
AcDbLine
 62
7
  6
CONTINUOUS
 10
17.9271410401
 20
2.3790754148
 11
17.9921450762
 21
2.3790754148
  0
LINE
  5
320
100
AcDbEntity
  8
0
100
AcDbLine
 62
7
  6
CONTINUOUS
 10
18.0683181184
 20
2.3790754148
 11
18.091064131
 21
2.3790754148
  0
LINE
  5
321
100
AcDbEntity
  8
0
100
AcDbLine
 62
7
  6
CONTINUOUS
 10
18.2741672326
 20
2.379462415
 11
18.2752762332
 21
2.379462415
  0
LINE
  5
322
100
AcDbEntity
  8
0
100
AcDbLine
 62
7
  6
CONTINUOUS
 10
17.9970950789
 20
2.3922754221
 11
18.0394141024
 21
2.3922754221
  0
LINE
  5
323
100
AcDbEntity
  8
0
100
AcDbLine
 62
7
  6
CONTINUOUS
 10
17.1799826258
 20
2.3927194224
 11
17.2148606451
 21
2.3927194224
  0
LINE
  5
324
100
AcDbEntity
  8
0
100
AcDbLine
 62
7
  6
CONTINUOUS
 10
18.2860312391
 20
2.3932124227
 11
18.2981412459
 21
2.3932124227
  0
LINE
  5
325
100
AcDbEntity
  8
0
100
AcDbLine
 62
7
  6
CONTINUOUS
 10
18.184837183
 20
2.3937024229
 11
18.1572301677
 21
2.3937024229
  0
LINE
  5
326
100
AcDbEntity
  8
0
100
AcDbLine
 62
7
  6
CONTINUOUS
 10
17.9623080596
 20
2.395575424
 11
17.9271410401
 21
2.395575424
  0
LINE
  5
327
100
AcDbEntity
  8
0
100
AcDbLine
 62
7
  6
CONTINUOUS
 10
16.9637955059
 20
2.3964004244
 11
17.0051585288
 21
2.3964004244
  0
LINE
  5
328
100
AcDbEntity
  8
0
100
AcDbLine
 62
7
  6
CONTINUOUS
 10
18.1911671865
 20
2.4127054335
 11
18.1572301677
 21
2.4127054335
  0
LINE
  5
329
100
AcDbEntity
  8
0
100
AcDbLine
 62
7
  6
CONTINUOUS
 10
16.9637955059
 20
2.4130554337
 11
17.0051585288
 21
2.4130554337
  0
LINE
  5
32A
100
AcDbEntity
  8
0
100
AcDbLine
 62
7
  6
CONTINUOUS
 10
17.1884986305
 20
2.413669434
 11
17.2090556419
 21
2.413669434
  0
LINE
  5
32B
100
AcDbEntity
  8
0
100
AcDbLine
 62
7
  6
CONTINUOUS
 10
17.9271410401
 20
2.4138804341
 11
17.9623080596
 21
2.4138804341
  0
LINE
  5
32C
100
AcDbEntity
  8
0
100
AcDbLine
 62
7
  6
CONTINUOUS
 10
18.0379951016
 20
2.4171804359
 11
17.9961310784
 21
2.4171804359
  0
LINE
  5
32D
100
AcDbEntity
  8
0
100
AcDbLine
 62
7
  6
CONTINUOUS
 10
17.2017966379
 20
2.429836443
 11
17.1956156344
 21
2.429836443
  0
LINE
  5
32E
100
AcDbEntity
  8
0
100
AcDbLine
 62
7
  6
CONTINUOUS
 10
18.091064131
 20
2.4303804433
 11
18.0683181184
 21
2.4303804433
  0
LINE
  5
32F
100
AcDbEntity
  8
0
100
AcDbLine
 62
7
  6
CONTINUOUS
 10
17.9911810756
 20
2.4303804433
 11
17.9271410401
 21
2.4303804433
  0
LINE
  5
330
100
AcDbEntity
  8
0
100
AcDbLine
 62
7
  6
CONTINUOUS
 10
17.860125003
 20
2.4303804433
 11
17.8362019897
 21
2.4303804433
  0
LINE
  5
331
100
AcDbEntity
  8
0
100
AcDbLine
 62
7
  6
CONTINUOUS
 10
17.8086119744
 20
2.4303804433
 11
17.7906789644
 21
2.4303804433
  0
LINE
  5
332
100
AcDbEntity
  8
0
100
AcDbLine
 62
7
  6
CONTINUOUS
 10
17.7533869438
 20
2.4303804433
 11
17.7346109333
 21
2.4303804433
  0
LINE
  5
333
100
AcDbEntity
  8
0
100
AcDbLine
 62
7
  6
CONTINUOUS
 10
17.6081248632
 20
2.4303804433
 11
17.5894788529
 21
2.4303804433
  0
LINE
  5
334
100
AcDbEntity
  8
0
100
AcDbLine
 62
7
  6
CONTINUOUS
 10
17.5603588367
 20
2.4303804433
 11
17.5424258268
 21
2.4303804433
  0
LINE
  5
335
100
AcDbEntity
  8
0
100
AcDbLine
 62
7
  6
CONTINUOUS
 10
17.5051338061
 20
2.4303804433
 11
17.4863577957
 21
2.4303804433
  0
LINE
  5
336
100
AcDbEntity
  8
0
100
AcDbLine
 62
7
  6
CONTINUOUS
 10
17.3598727255
 20
2.4303804433
 11
17.3412257152
 21
2.4303804433
  0
LINE
  5
337
100
AcDbEntity
  8
0
100
AcDbLine
 62
7
  6
CONTINUOUS
 10
17.0051585288
 20
2.4303804433
 11
16.9637955059
 21
2.4303804433
  0
LINE
  5
338
100
AcDbEntity
  8
0
100
AcDbLine
 62
7
  6
CONTINUOUS
 10
16.8743904563
 20
2.4303804433
 11
16.8983324696
 21
2.4303804433
  0
LINE
  5
339
100
AcDbEntity
  8
0
100
AcDbLine
 62
7
  6
CONTINUOUS
 10
18.1572301677
 20
2.4303804433
 11
18.1940311881
 21
2.4303804433
  0
LINE
  5
33A
100
AcDbEntity
  8
0
100
AcDbLine
 62
7
  6
CONTINUOUS
 10
17.2393896587
 20
2.455130457
 11
17.182214627
 21
2.455130457
  0
LINE
  5
33B
100
AcDbEntity
  8
0
100
AcDbLine
 62
7
  6
CONTINUOUS
 10
17.0404535484
 20
2.455130457
 11
16.8743904563
 21
2.455130457
  0
LINE
  5
33C
100
AcDbEntity
  8
0
100
AcDbLine
 62
7
  6
CONTINUOUS
 10
17.3412257152
 20
2.455130457
 11
17.4416837709
 21
2.455130457
  0
LINE
  5
33D
100
AcDbEntity
  8
0
100
AcDbLine
 62
7
  6
CONTINUOUS
 10
17.4863577957
 20
2.455130457
 11
17.5603588367
 21
2.455130457
  0
LINE
  5
33E
100
AcDbEntity
  8
0
100
AcDbLine
 62
7
  6
CONTINUOUS
 10
17.5894788529
 20
2.455130457
 11
17.6899369086
 21
2.455130457
  0
LINE
  5
33F
100
AcDbEntity
  8
0
100
AcDbLine
 62
7
  6
CONTINUOUS
 10
17.7346109333
 20
2.455130457
 11
17.8086119744
 21
2.455130457
  0
LINE
  5
340
100
AcDbEntity
  8
0
100
AcDbLine
 62
7
  6
CONTINUOUS
 10
17.8362019897
 20
2.455130457
 11
18.0379951016
 21
2.455130457
  0
LINE
  5
341
100
AcDbEntity
  8
0
100
AcDbLine
 62
7
  6
CONTINUOUS
 10
18.0683181184
 20
2.455130457
 11
18.2178992014
 21
2.455130457
  0
LINE
  5
342
100
AcDbEntity
  8
0
100
AcDbLine
 62
7
  6
CONTINUOUS
 10
17.0697205646
 20
2.4006414268
 11
17.059669559
 21
2.4041904287
  0
LINE
  5
343
100
AcDbEntity
  8
0
100
AcDbLine
 62
7
  6
CONTINUOUS
 10
17.4615617819
 20
2.3550094015
 11
17.3982817468
 21
2.415387435
  0
LINE
  5
344
100
AcDbEntity
  8
0
100
AcDbLine
 62
7
  6
CONTINUOUS
 10
17.4433917718
 20
2.4544464566
 11
17.5034248051
 21
2.3971664249
  0
LINE
  5
345
100
AcDbEntity
  8
0
100
AcDbLine
 62
7
  6
CONTINUOUS
 10
17.7098149196
 20
2.3550094015
 11
17.6465348845
 21
2.415387435
  0
LINE
  5
346
100
AcDbEntity
  8
0
100
AcDbLine
 62
7
  6
CONTINUOUS
 10
17.6916449095
 20
2.4544464566
 11
17.7516779428
 21
2.3971664249
  0
LINE
  5
347
100
AcDbEntity
  8
0
100
AcDbLine
 62
7
  6
CONTINUOUS
 10
17.2169386463
 20
2.3915884218
 11
17.2225646494
 21
2.3828954169
  0
LINE
  5
348
100
AcDbEntity
  8
0
100
AcDbLine
 62
7
  6
CONTINUOUS
 10
17.211133643
 20
2.4174894361
 11
17.203874639
 21
2.4287054423
  0
LINE
  5
349
100
AcDbEntity
  8
0
100
AcDbLine
 62
7
  6
CONTINUOUS
 10
17.2892236864
 20
2.3802054154
 11
17.2414676599
 21
2.4540004564
  0
LINE
  5
34A
100
AcDbEntity
  8
0
100
AcDbLine
 62
7
  6
CONTINUOUS
 10
18.206476195
 20
2.3723714111
 11
18.204672194
 21
2.3784404145
  0
LINE
  5
34B
100
AcDbEntity
  8
0
100
AcDbLine
 62
7
  6
CONTINUOUS
 10
16.8719154549
 20
2.4526554556
 11
16.8719154549
 21
2.4328554446
  0
LINE
  5
34C
100
AcDbEntity
  8
0
100
AcDbLine
 62
7
  6
CONTINUOUS
 10
16.8719154549
 20
2.3766004134
 11
16.8719154549
 21
2.3568004025
  0
LINE
  5
34D
100
AcDbEntity
  8
0
100
AcDbLine
 62
7
  6
CONTINUOUS
 10
16.9008074709
 20
2.4279054419
 11
16.9008074709
 21
2.3815504162
  0
LINE
  5
34E
100
AcDbEntity
  8
0
100
AcDbLine
 62
7
  6
CONTINUOUS
 10
16.9613205045
 20
2.4279054419
 11
16.9613205045
 21
2.415530435
  0
LINE
  5
34F
100
AcDbEntity
  8
0
100
AcDbLine
 62
7
  6
CONTINUOUS
 10
16.9613205045
 20
2.3815504162
 11
16.9613205045
 21
2.3939254231
  0
LINE
  5
350
100
AcDbEntity
  8
0
100
AcDbLine
 62
7
  6
CONTINUOUS
 10
17.1058985847
 20
2.3766004134
 11
17.1058985847
 21
2.3568004025
  0
LINE
  5
351
100
AcDbEntity
  8
0
100
AcDbLine
 62
7
  6
CONTINUOUS
 10
17.1882246303
 20
2.3568004025
 11
17.1882246303
 21
2.3766004134
  0
LINE
  5
352
100
AcDbEntity
  8
0
100
AcDbLine
 62
7
  6
CONTINUOUS
 10
17.2035606388
 20
2.3766004134
 11
17.2035606388
 21
2.3568004025
  0
LINE
  5
353
100
AcDbEntity
  8
0
100
AcDbLine
 62
7
  6
CONTINUOUS
 10
17.3137917
 20
2.3568004025
 11
17.3137917
 21
2.3766004134
  0
LINE
  5
354
100
AcDbEntity
  8
0
100
AcDbLine
 62
7
  6
CONTINUOUS
 10
17.3387507138
 20
2.3568004025
 11
17.3387507138
 21
2.3766004134
  0
LINE
  5
355
100
AcDbEntity
  8
0
100
AcDbLine
 62
7
  6
CONTINUOUS
 10
17.3387507138
 20
2.4328554446
 11
17.3387507138
 21
2.4526554556
  0
LINE
  5
356
100
AcDbEntity
  8
0
100
AcDbLine
 62
7
  6
CONTINUOUS
 10
17.3623477269
 20
2.3815504162
 11
17.3623477269
 21
2.4279054419
  0
LINE
  5
357
100
AcDbEntity
  8
0
100
AcDbLine
 62
7
  6
CONTINUOUS
 10
17.3940977445
 20
2.413596434
 11
17.3940977445
 21
2.3815504162
  0
LINE
  5
358
100
AcDbEntity
  8
0
100
AcDbLine
 62
7
  6
CONTINUOUS
 10
17.4193647585
 20
2.3766004134
 11
17.4193647585
 21
2.3568004025
  0
LINE
  5
359
100
AcDbEntity
  8
0
100
AcDbLine
 62
7
  6
CONTINUOUS
 10
17.4838827943
 20
2.4328554446
 11
17.4838827943
 21
2.4526554556
  0
LINE
  5
35A
100
AcDbEntity
  8
0
100
AcDbLine
 62
7
  6
CONTINUOUS
 10
17.5076088075
 20
2.3989574258
 11
17.5076088075
 21
2.4279054419
  0
LINE
  5
35B
100
AcDbEntity
  8
0
100
AcDbLine
 62
7
  6
CONTINUOUS
 10
17.5399508254
 20
2.4279054419
 11
17.5399508254
 21
2.3568004025
  0
LINE
  5
35C
100
AcDbEntity
  8
0
100
AcDbLine
 62
7
  6
CONTINUOUS
 10
17.5628338381
 20
2.4526554556
 11
17.5628338381
 21
2.4328554446
  0
LINE
  5
35D
100
AcDbEntity
  8
0
100
AcDbLine
 62
7
  6
CONTINUOUS
 10
17.5870038515
 20
2.3568004025
 11
17.5870038515
 21
2.3766004134
  0
LINE
  5
35E
100
AcDbEntity
  8
0
100
AcDbLine
 62
7
  6
CONTINUOUS
 10
17.5870038515
 20
2.4328554446
 11
17.5870038515
 21
2.4526554556
  0
LINE
  5
35F
100
AcDbEntity
  8
0
100
AcDbLine
 62
7
  6
CONTINUOUS
 10
17.6105998646
 20
2.3815504162
 11
17.6105998646
 21
2.4279054419
  0
LINE
  5
360
100
AcDbEntity
  8
0
100
AcDbLine
 62
7
  6
CONTINUOUS
 10
17.6423508822
 20
2.413596434
 11
17.6423508822
 21
2.3815504162
  0
LINE
  5
361
100
AcDbEntity
  8
0
100
AcDbLine
 62
7
  6
CONTINUOUS
 10
17.6676178962
 20
2.3766004134
 11
17.6676178962
 21
2.3568004025
  0
LINE
  5
362
100
AcDbEntity
  8
0
100
AcDbLine
 62
7
  6
CONTINUOUS
 10
17.732135932
 20
2.4328554446
 11
17.732135932
 21
2.4526554556
  0
LINE
  5
363
100
AcDbEntity
  8
0
100
AcDbLine
 62
7
  6
CONTINUOUS
 10
17.7558619451
 20
2.3989574258
 11
17.7558619451
 21
2.4279054419
  0
LINE
  5
364
100
AcDbEntity
  8
0
100
AcDbLine
 62
7
  6
CONTINUOUS
 10
17.7882039631
 20
2.4279054419
 11
17.7882039631
 21
2.3568004025
  0
LINE
  5
365
100
AcDbEntity
  8
0
100
AcDbLine
 62
7
  6
CONTINUOUS
 10
17.8110869758
 20
2.4526554556
 11
17.8110869758
 21
2.4328554446
  0
LINE
  5
366
100
AcDbEntity
  8
0
100
AcDbLine
 62
7
  6
CONTINUOUS
 10
17.8337269883
 20
2.3568004025
 11
17.8337269883
 21
2.3766004134
  0
LINE
  5
367
100
AcDbEntity
  8
0
100
AcDbLine
 62
7
  6
CONTINUOUS
 10
17.8337269883
 20
2.4328554446
 11
17.8337269883
 21
2.4526554556
  0
LINE
  5
368
100
AcDbEntity
  8
0
100
AcDbLine
 62
7
  6
CONTINUOUS
 10
17.8626000043
 20
2.3815504162
 11
17.8626000043
 21
2.4279054419
  0
LINE
  5
369
100
AcDbEntity
  8
0
100
AcDbLine
 62
7
  6
CONTINUOUS
 10
17.9246660387
 20
2.4279054419
 11
17.9246660387
 21
2.4163554355
  0
LINE
  5
36A
100
AcDbEntity
  8
0
100
AcDbLine
 62
7
  6
CONTINUOUS
 10
17.9246660387
 20
2.3931004226
 11
17.9246660387
 21
2.3815504162
  0
LINE
  5
36B
100
AcDbEntity
  8
0
100
AcDbLine
 62
7
  6
CONTINUOUS
 10
17.964783061
 20
2.4114054327
 11
17.964783061
 21
2.3980504253
  0
LINE
  5
36C
100
AcDbEntity
  8
0
100
AcDbLine
 62
7
  6
CONTINUOUS
 10
17.993656077
 20
2.4196554373
 11
17.993656077
 21
2.4279054419
  0
LINE
  5
36D
100
AcDbEntity
  8
0
100
AcDbLine
 62
7
  6
CONTINUOUS
 10
17.9946200775
 20
2.3815504162
 11
17.9946200775
 21
2.3898004208
  0
LINE
  5
36E
100
AcDbEntity
  8
0
100
AcDbLine
 62
7
  6
CONTINUOUS
 10
18.040470103
 20
2.4526554556
 11
18.040470103
 21
2.4196554373
  0
LINE
  5
36F
100
AcDbEntity
  8
0
100
AcDbLine
 62
7
  6
CONTINUOUS
 10
18.0418891038
 20
2.3898004208
 11
18.0418891038
 21
2.3568004025
  0
LINE
  5
370
100
AcDbEntity
  8
0
100
AcDbLine
 62
7
  6
CONTINUOUS
 10
18.065843117
 20
2.3568004025
 11
18.065843117
 21
2.3766004134
  0
LINE
  5
371
100
AcDbEntity
  8
0
100
AcDbLine
 62
7
  6
CONTINUOUS
 10
18.065843117
 20
2.4328554446
 11
18.065843117
 21
2.4526554556
  0
LINE
  5
372
100
AcDbEntity
  8
0
100
AcDbLine
 62
7
  6
CONTINUOUS
 10
18.0935391324
 20
2.3815504162
 11
18.0935391324
 21
2.4279054419
  0
LINE
  5
373
100
AcDbEntity
  8
0
100
AcDbLine
 62
7
  6
CONTINUOUS
 10
18.1547551663
 20
2.3912274216
 11
18.1547551663
 21
2.3815284162
  0
LINE
  5
374
100
AcDbEntity
  8
0
100
AcDbLine
 62
7
  6
CONTINUOUS
 10
18.1547551663
 20
2.4151804348
 11
18.1547551663
 21
2.4279054419
  0
LINE
  5
375
100
AcDbEntity
  8
0
100
AcDbLine
 62
7
  6
CONTINUOUS
 10
18.1843641828
 20
2.3765784134
 11
18.1843641828
 21
2.3568004025
  0
LINE
  5
376
100
AcDbEntity
  8
0
100
AcDbLine
 62
7
  6
CONTINUOUS
 10
18.2835562378
 20
2.3881114198
 11
18.2835562378
 21
2.3907374213
  0
LINE
  5
377
100
AcDbEntity
  8
0
100
AcDbLine
 62
7
  6
CONTINUOUS
 10
18.3006162472
 20
2.3907374213
 11
18.3006162472
 21
2.3791854149
  0
LINE
  5
378
100
AcDbEntity
  8
0
100
AcDbLine
 62
7
  6
CONTINUOUS
 10
18.3975725422
 20
2.3981678251
 11
18.3975725422
 21
2.4087850316
  0
LINE
  5
379
100
AcDbEntity
  8
0
100
AcDbLine
 62
7
  6
CONTINUOUS
 10
17.1801246258
 20
2.4539814564
 11
17.1333245999
 21
2.3802244155
  0
LINE
  5
37A
100
AcDbEntity
  8
0
100
AcDbLine
 62
7
  6
CONTINUOUS
 10
17.1935256333
 20
2.4286874423
 11
17.1864086293
 21
2.4174704361
  0
LINE
  5
37B
100
AcDbEntity
  8
0
100
AcDbLine
 62
7
  6
CONTINUOUS
 10
17.1723766216
 20
2.3828764169
 11
17.1778926246
 21
2.3915704217
  0
LINE
  5
37C
100
AcDbEntity
  8
0
100
AcDbLine
 62
7
  6
CONTINUOUS
 10
17.059669559
 20
2.4041904287
 11
17.0679095636
 21
2.4089664314
  0
ARC
  5
37D
100
AcDbEntity
  8
0
100
AcDbCircle
 62
7
  6
CONTINUOUS
 10
17.4632701481
 20
2.3568008172
 40
0.0024754162
100
AcDbArc
 50
226.3593695814
 51
270.0146919953
  0
ARC
  5
37E
100
AcDbEntity
  8
0
100
AcDbCircle
 62
7
  6
CONTINUOUS
 10
16.8743904545
 20
2.3568004006
 40
0.0024749995
100
AcDbArc
 50
179.9999571957
 51
270.0000428043
  0
ARC
  5
37F
100
AcDbEntity
  8
0
100
AcDbCircle
 62
7
  6
CONTINUOUS
 10
17.5374758259
 20
2.3568004006
 40
0.0024749995
100
AcDbArc
 50
269.9999571957
 51
0.0000428043
  0
ARC
  5
380
100
AcDbEntity
  8
0
100
AcDbCircle
 62
7
  6
CONTINUOUS
 10
17.416889759
 20
2.3568004006
 40
0.0024749995
100
AcDbArc
 50
269.9999571957
 51
0.0000428043
  0
ARC
  5
381
100
AcDbEntity
  8
0
100
AcDbCircle
 62
7
  6
CONTINUOUS
 10
17.3412257133
 20
2.3568004006
 40
0.0024749995
100
AcDbArc
 50
179.9999571957
 51
270.0000428043
  0
ARC
  5
382
100
AcDbEntity
  8
0
100
AcDbCircle
 62
7
  6
CONTINUOUS
 10
17.2060356384
 20
2.3568004006
 40
0.0024749995
100
AcDbArc
 50
179.9999571957
 51
270.0000428043
  0
ARC
  5
383
100
AcDbEntity
  8
0
100
AcDbCircle
 62
7
  6
CONTINUOUS
 10
17.3113167005
 20
2.3568004006
 40
0.0024749995
100
AcDbArc
 50
269.9999571957
 51
0.0000428043
  0
ARC
  5
384
100
AcDbEntity
  8
0
100
AcDbCircle
 62
7
  6
CONTINUOUS
 10
17.1083735842
 20
2.3568004006
 40
0.0024749995
100
AcDbArc
 50
179.9999571957
 51
270.0000428043
  0
ARC
  5
385
100
AcDbEntity
  8
0
100
AcDbCircle
 62
7
  6
CONTINUOUS
 10
17.1857496308
 20
2.3568004006
 40
0.0024749995
100
AcDbArc
 50
269.9999571958
 51
0.0000428044
  0
ARC
  5
386
100
AcDbEntity
  8
0
100
AcDbCircle
 62
7
  6
CONTINUOUS
 10
17.0404590422
 20
2.3933827403
 40
0.061747717
100
AcDbArc
 50
59.5385584989
 51
90.0050977555
  0
ARC
  5
387
100
AcDbEntity
  8
0
100
AcDbCircle
 62
7
  6
CONTINUOUS
 10
17.0481152095
 20
2.4027328529
 40
0.048483885
100
AcDbArc
 50
273.21763719
 51
303.0749121182
  0
ARC
  5
388
100
AcDbEntity
  8
0
100
AcDbCircle
 62
7
  6
CONTINUOUS
 10
17.0620614151
 20
2.3797859164
 40
0.0222174455
100
AcDbArc
 50
4.0793399388
 51
69.834329283
  0
ARC
  5
389
100
AcDbEntity
  8
0
100
AcDbCircle
 62
7
  6
CONTINUOUS
 10
17.0629546036
 20
2.379965244
 40
0.0213072145
100
AcDbArc
 50
303.0488228549
 51
355.7263138674
  0
ARC
  5
38A
100
AcDbEntity
  8
0
100
AcDbCircle
 62
7
  6
CONTINUOUS
 10
17.0688911042
 20
2.3799744343
 40
0.0153945295
100
AcDbArc
 50
354.0454548824
 51
5.1878013979
  0
ARC
  5
38B
100
AcDbEntity
  8
0
100
AcDbCircle
 62
7
  6
CONTINUOUS
 10
17.0051585288
 20
2.3877379196
 40
0.0086625048
100
AcDbArc
 50
270.0
 51
90.0
  0
ARC
  5
38C
100
AcDbEntity
  8
0
100
AcDbCircle
 62
7
  6
CONTINUOUS
 10
17.2148601055
 20
2.3902439622
 40
0.0024754602
100
AcDbArc
 50
32.8959418573
 51
89.9875097202
  0
ARC
  5
38D
100
AcDbEntity
  8
0
100
AcDbCircle
 62
7
  6
CONTINUOUS
 10
17.131234669
 20
2.3815506151
 40
0.0024752003
100
AcDbArc
 50
269.9983726451
 51
327.602165307
  0
ARC
  5
38E
100
AcDbEntity
  8
0
100
AcDbCircle
 62
7
  6
CONTINUOUS
 10
17.1799825555
 20
2.3902442221
 40
0.0024752003
100
AcDbArc
 50
89.998372645
 51
147.602165307
  0
ARC
  5
38F
100
AcDbEntity
  8
0
100
AcDbCircle
 62
7
  6
CONTINUOUS
 10
17.1744665134
 20
2.3815504549
 40
0.0024750401
100
AcDbArc
 50
147.6063258011
 51
270.0025305754
  0
ARC
  5
390
100
AcDbEntity
  8
0
100
AcDbCircle
 62
7
  6
CONTINUOUS
 10
16.8983324714
 20
2.3815504143
 40
0.0024749995
100
AcDbArc
 50
269.9999571957
 51
0.0000428043
  0
ARC
  5
391
100
AcDbEntity
  8
0
100
AcDbCircle
 62
7
  6
CONTINUOUS
 10
16.8743904545
 20
2.3766004153
 40
0.0024749995
100
AcDbArc
 50
89.9999571957
 51
180.0000428043
  0
ARC
  5
392
100
AcDbEntity
  8
0
100
AcDbCircle
 62
7
  6
CONTINUOUS
 10
16.963795504
 20
2.3939254249
 40
0.0024749995
100
AcDbArc
 50
89.9999571957
 51
180.0000428043
  0
ARC
  5
393
100
AcDbEntity
  8
0
100
AcDbCircle
 62
7
  6
CONTINUOUS
 10
16.963795504
 20
2.3815504143
 40
0.0024749995
100
AcDbArc
 50
179.9999571957
 51
270.0000428043
  0
ARC
  5
394
100
AcDbEntity
  8
0
100
AcDbCircle
 62
7
  6
CONTINUOUS
 10
17.2060356384
 20
2.3766004153
 40
0.0024749995
100
AcDbArc
 50
89.9999571957
 51
180.0000428043
  0
ARC
  5
395
100
AcDbEntity
  8
0
100
AcDbCircle
 62
7
  6
CONTINUOUS
 10
17.1083735842
 20
2.3766004153
 40
0.0024749995
100
AcDbArc
 50
89.9999571957
 51
180.0000428043
  0
ARC
  5
396
100
AcDbEntity
  8
0
100
AcDbCircle
 62
7
  6
CONTINUOUS
 10
17.1857496308
 20
2.3766004153
 40
0.0024749995
100
AcDbArc
 50
359.9999571957
 51
90.0000428043
  0
ARC
  5
397
100
AcDbEntity
  8
0
100
AcDbCircle
 62
7
  6
CONTINUOUS
 10
17.0460441811
 20
2.445793323
 40
0.0428289026
100
AcDbArc
 50
300.6990502959
 51
319.0591802498
  0
ARC
  5
398
100
AcDbEntity
  8
0
100
AcDbCircle
 62
7
  6
CONTINUOUS
 10
17.0611211659
 20
2.4263113051
 40
0.0229166529
100
AcDbArc
 50
20.6563876465
 51
62.3316896973
  0
ARC
  5
399
100
AcDbEntity
  8
0
100
AcDbCircle
 62
7
  6
CONTINUOUS
 10
17.0660727781
 20
2.4296649696
 40
0.0171568255
100
AcDbArc
 50
315.9145124245
 51
16.0049121283
  0
ARC
  5
39A
100
AcDbEntity
  8
0
100
AcDbCircle
 62
7
  6
CONTINUOUS
 10
17.0051585288
 20
2.4217179385
 40
0.0086625048
100
AcDbArc
 50
270.0
 51
90.0
  0
ARC
  5
39B
100
AcDbEntity
  8
0
100
AcDbCircle
 62
7
  6
CONTINUOUS
 10
17.2017960982
 20
2.4273609828
 40
0.0024754602
100
AcDbArc
 50
32.8959418573
 51
89.9875097202
  0
ARC
  5
39C
100
AcDbEntity
  8
0
100
AcDbCircle
 62
7
  6
CONTINUOUS
 10
17.2090556207
 20
2.4161446411
 40
0.0024752071
100
AcDbArc
 50
270.0004896793
 51
32.9089806818
  0
ARC
  5
39D
100
AcDbEntity
  8
0
100
AcDbCircle
 62
7
  6
CONTINUOUS
 10
17.1956155641
 20
2.4273612427
 40
0.0024752003
100
AcDbArc
 50
89.998372645
 51
147.602165307
  0
ARC
  5
39E
100
AcDbEntity
  8
0
100
AcDbCircle
 62
7
  6
CONTINUOUS
 10
17.1822145567
 20
2.4526552567
 40
0.0024752003
100
AcDbArc
 50
89.998372645
 51
147.602165307
  0
ARC
  5
39F
100
AcDbEntity
  8
0
100
AcDbCircle
 62
7
  6
CONTINUOUS
 10
17.1884985212
 20
2.4161444741
 40
0.0024750401
100
AcDbArc
 50
147.6063258012
 51
270.0025305754
  0
ARC
  5
3A0
100
AcDbEntity
  8
0
100
AcDbCircle
 62
7
  6
CONTINUOUS
 10
16.8743904545
 20
2.4526554575
 40
0.0024749995
100
AcDbArc
 50
89.9999571957
 51
180.0000428043
  0
ARC
  5
3A1
100
AcDbEntity
  8
0
100
AcDbCircle
 62
7
  6
CONTINUOUS
 10
16.8743904545
 20
2.4328554428
 40
0.0024749995
100
AcDbArc
 50
179.9999571957
 51
270.0000428043
  0
ARC
  5
3A2
100
AcDbEntity
  8
0
100
AcDbCircle
 62
7
  6
CONTINUOUS
 10
16.8983324714
 20
2.4279054437
 40
0.0024749995
100
AcDbArc
 50
359.9999571957
 51
90.0000428043
  0
ARC
  5
3A3
100
AcDbEntity
  8
0
100
AcDbCircle
 62
7
  6
CONTINUOUS
 10
16.963795504
 20
2.4279054437
 40
0.0024749995
100
AcDbArc
 50
89.9999571957
 51
180.0000428043
  0
ARC
  5
3A4
100
AcDbEntity
  8
0
100
AcDbCircle
 62
7
  6
CONTINUOUS
 10
16.963795504
 20
2.4155304332
 40
0.0024749995
100
AcDbArc
 50
179.9999571957
 51
270.0000428043
  0
ARC
  5
3A5
100
AcDbEntity
  8
0
100
AcDbCircle
 62
7
  6
CONTINUOUS
 10
17.5051335061
 20
2.3989573626
 40
0.0024753014
100
AcDbArc
 50
226.3461263059
 51
0.0014637321
  0
ARC
  5
3A6
100
AcDbEntity
  8
0
100
AcDbCircle
 62
7
  6
CONTINUOUS
 10
17.3965730459
 20
2.4135964972
 40
0.0024753014
100
AcDbArc
 50
46.3461263059
 51
180.0014637321
  0
ARC
  5
3A7
100
AcDbEntity
  8
0
100
AcDbCircle
 62
7
  6
CONTINUOUS
 10
17.2204866271
 20
2.3815506219
 40
0.0024752071
100
AcDbArc
 50
270.0004896793
 51
32.9089806818
  0
ARC
  5
3A8
100
AcDbEntity
  8
0
100
AcDbCircle
 62
7
  6
CONTINUOUS
 10
17.396572744
 20
2.3815504143
 40
0.0024749995
100
AcDbArc
 50
179.9999571957
 51
270.0000428043
  0
ARC
  5
3A9
100
AcDbEntity
  8
0
100
AcDbCircle
 62
7
  6
CONTINUOUS
 10
17.416889759
 20
2.3766004153
 40
0.0024749995
100
AcDbArc
 50
359.9999571957
 51
90.0000428043
  0
ARC
  5
3AA
100
AcDbEntity
  8
0
100
AcDbCircle
 62
7
  6
CONTINUOUS
 10
17.3412257133
 20
2.3766004153
 40
0.0024749995
100
AcDbArc
 50
89.9999571957
 51
180.0000428043
  0
ARC
  5
3AB
100
AcDbEntity
  8
0
100
AcDbCircle
 62
7
  6
CONTINUOUS
 10
17.3598727274
 20
2.3815504143
 40
0.0024749995
100
AcDbArc
 50
269.9999571957
 51
0.0000428043
  0
ARC
  5
3AC
100
AcDbEntity
  8
0
100
AcDbCircle
 62
7
  6
CONTINUOUS
 10
17.3113167005
 20
2.3766004153
 40
0.0024749995
100
AcDbArc
 50
359.9999571957
 51
90.0000428043
  0
ARC
  5
3AD
100
AcDbEntity
  8
0
100
AcDbCircle
 62
7
  6
CONTINUOUS
 10
17.291300808
 20
2.3815494558
 40
0.002474041
100
AcDbArc
 50
212.9056413127
 51
269.9972091755
  0
ARC
  5
3AE
100
AcDbEntity
  8
0
100
AcDbCircle
 62
7
  6
CONTINUOUS
 10
17.5051338079
 20
2.4279054437
 40
0.0024749995
100
AcDbArc
 50
359.9999571957
 51
90.0000428043
  0
ARC
  5
3AF
100
AcDbEntity
  8
0
100
AcDbCircle
 62
7
  6
CONTINUOUS
 10
17.4863577938
 20
2.4328554428
 40
0.0024749995
100
AcDbArc
 50
179.9999571957
 51
270.0000428043
  0
ARC
  5
3B0
100
AcDbEntity
  8
0
100
AcDbCircle
 62
7
  6
CONTINUOUS
 10
17.4863577938
 20
2.4526554575
 40
0.0024749995
100
AcDbArc
 50
89.9999571957
 51
180.0000428043
  0
ARC
  5
3B1
100
AcDbEntity
  8
0
100
AcDbCircle
 62
7
  6
CONTINUOUS
 10
17.5603588386
 20
2.4526554575
 40
0.0024749995
100
AcDbArc
 50
359.9999571957
 51
90.0000428043
  0
ARC
  5
3B2
100
AcDbEntity
  8
0
100
AcDbCircle
 62
7
  6
CONTINUOUS
 10
17.5603588386
 20
2.4328554428
 40
0.0024749995
100
AcDbArc
 50
269.9999571957
 51
0.0000428043
  0
ARC
  5
3B3
100
AcDbEntity
  8
0
100
AcDbCircle
 62
7
  6
CONTINUOUS
 10
17.5424258249
 20
2.4279054437
 40
0.0024749995
100
AcDbArc
 50
89.9999571957
 51
180.0000428043
  0
ARC
  5
3B4
100
AcDbEntity
  8
0
100
AcDbCircle
 62
7
  6
CONTINUOUS
 10
17.3598727274
 20
2.4279054437
 40
0.0024749995
100
AcDbArc
 50
359.9999571957
 51
90.0000428043
  0
ARC
  5
3B5
100
AcDbEntity
  8
0
100
AcDbCircle
 62
7
  6
CONTINUOUS
 10
17.3412257133
 20
2.4328554428
 40
0.0024749995
100
AcDbArc
 50
179.9999571957
 51
270.0000428043
  0
ARC
  5
3B6
100
AcDbEntity
  8
0
100
AcDbCircle
 62
7
  6
CONTINUOUS
 10
17.3412257133
 20
2.4526554575
 40
0.0024749995
100
AcDbArc
 50
89.9999571957
 51
180.0000428043
  0
ARC
  5
3B7
100
AcDbEntity
  8
0
100
AcDbCircle
 62
7
  6
CONTINUOUS
 10
17.2393900382
 20
2.4526554968
 40
0.0024749602
100
AcDbArc
 50
32.9172174468
 51
90.0087853097
  0
ARC
  5
3B8
100
AcDbEntity
  8
0
100
AcDbCircle
 62
7
  6
CONTINUOUS
 10
17.4416839057
 20
2.4526562892
 40
0.0024741678
100
AcDbArc
 50
46.3477981899
 51
90.0031206038
  0
ARC
  5
3B9
100
AcDbEntity
  8
0
100
AcDbCircle
 62
7
  6
CONTINUOUS
 10
18.2152358981
 20
2.2725915465
 40
0.1825583387
100
AcDbArc
 50
79.8618509324
 51
89.1640948679
  0
ARC
  5
3BA
100
AcDbEntity
  8
0
100
AcDbCircle
 62
7
  6
CONTINUOUS
 10
18.197141171
 20
2.3016991173
 40
0.117346916
100
AcDbArc
 50
58.614769177
 51
62.3737227606
  0
ARC
  5
3BB
100
AcDbEntity
  8
0
100
AcDbCircle
 62
7
  6
CONTINUOUS
 10
18.2260032264
 20
2.3725718859
 40
0.0459185159
100
AcDbArc
 50
15.6740290068
 51
20.9917271228
  0
ARC
  5
3BC
100
AcDbEntity
  8
0
100
AcDbCircle
 62
7
  6
CONTINUOUS
 10
18.1662929967
 20
2.368643334
 40
0.0396099176
100
AcDbArc
 50
14.3201081283
 51
22.4984722084
  0
ARC
  5
3BD
100
AcDbEntity
  8
0
100
AcDbCircle
 62
7
  6
CONTINUOUS
 10
18.1850046504
 20
2.3693353402
 40
0.0243676582
100
AcDbArc
 50
63.3666028271
 51
90.3937697637
  0
ARC
  5
3BE
100
AcDbEntity
  8
0
100
AcDbCircle
 62
7
  6
CONTINUOUS
 10
18.2724993219
 20
2.3741987064
 40
0.0198837666
100
AcDbArc
 50
271.8586572978
 51
289.4131338543
  0
ARC
  5
3BF
100
AcDbEntity
  8
0
100
AcDbCircle
 62
7
  6
CONTINUOUS
 10
18.2265855264
 20
2.3716475527
 40
0.0173408616
100
AcDbArc
 50
232.4713476722
 51
267.338189944
  0
ARC
  5
3C0
100
AcDbEntity
  8
0
100
AcDbCircle
 62
7
  6
CONTINUOUS
 10
18.1818891832
 20
2.3568004006
 40
0.0024749995
100
AcDbArc
 50
269.9999571957
 51
0.0000428043
  0
ARC
  5
3C1
100
AcDbEntity
  8
0
100
AcDbCircle
 62
7
  6
CONTINUOUS
 10
18.0683181166
 20
2.3568004006
 40
0.0024749995
100
AcDbArc
 50
179.9999571957
 51
270.0000428043
  0
ARC
  5
3C2
100
AcDbEntity
  8
0
100
AcDbCircle
 62
7
  6
CONTINUOUS
 10
17.7857289635
 20
2.3568004006
 40
0.0024749995
100
AcDbArc
 50
269.9999571957
 51
0.0000428043
  0
ARC
  5
3C3
100
AcDbEntity
  8
0
100
AcDbCircle
 62
7
  6
CONTINUOUS
 10
17.6651428967
 20
2.3568004006
 40
0.0024749995
100
AcDbArc
 50
269.9999571957
 51
0.0000428043
  0
ARC
  5
3C4
100
AcDbEntity
  8
0
100
AcDbCircle
 62
7
  6
CONTINUOUS
 10
17.589478851
 20
2.3568004006
 40
0.0024749995
100
AcDbArc
 50
179.9999571957
 51
270.0000428043
  0
ARC
  5
3C5
100
AcDbEntity
  8
0
100
AcDbCircle
 62
7
  6
CONTINUOUS
 10
18.0394141042
 20
2.3568004006
 40
0.0024749995
100
AcDbArc
 50
269.9999571957
 51
0.0000428043
  0
ARC
  5
3C6
100
AcDbEntity
  8
0
100
AcDbCircle
 62
7
  6
CONTINUOUS
 10
17.8362019878
 20
2.3568004006
 40
0.0024749995
100
AcDbArc
 50
179.9999571957
 51
270.0000428043
  0
ARC
  5
3C7
100
AcDbEntity
  8
0
100
AcDbCircle
 62
7
  6
CONTINUOUS
 10
17.7115227858
 20
2.3567995689
 40
0.0024741678
100
AcDbArc
 50
226.3477981898
 51
270.0031206038
  0
ARC
  5
3C8
100
AcDbEntity
  8
0
100
AcDbCircle
 62
7
  6
CONTINUOUS
 10
17.7533866437
 20
2.3989573626
 40
0.0024753014
100
AcDbArc
 50
226.3461263059
 51
0.0014637321
  0
ARC
  5
3C9
100
AcDbEntity
  8
0
100
AcDbCircle
 62
7
  6
CONTINUOUS
 10
17.6448261836
 20
2.4135964972
 40
0.0024753014
100
AcDbArc
 50
46.3461263058
 51
180.0014637321
  0
ARC
  5
3CA
100
AcDbEntity
  8
0
100
AcDbCircle
 62
7
  6
CONTINUOUS
 10
17.6448258817
 20
2.3815504143
 40
0.0024749995
100
AcDbArc
 50
179.9999571957
 51
270.0000428043
  0
ARC
  5
3CB
100
AcDbEntity
  8
0
100
AcDbCircle
 62
7
  6
CONTINUOUS
 10
17.6651428967
 20
2.3766004153
 40
0.0024749995
100
AcDbArc
 50
359.9999571957
 51
90.0000428043
  0
ARC
  5
3CC
100
AcDbEntity
  8
0
100
AcDbCircle
 62
7
  6
CONTINUOUS
 10
17.589478851
 20
2.3766004153
 40
0.0024749995
100
AcDbArc
 50
89.9999571957
 51
180.0000428043
  0
ARC
  5
3CD
100
AcDbEntity
  8
0
100
AcDbCircle
 62
7
  6
CONTINUOUS
 10
17.6081248651
 20
2.3815504143
 40
0.0024749995
100
AcDbArc
 50
269.9999571957
 51
0.0000428043
  0
ARC
  5
3CE
100
AcDbEntity
  8
0
100
AcDbCircle
 62
7
  6
CONTINUOUS
 10
17.9271410383
 20
2.3931004244
 40
0.0024749995
100
AcDbArc
 50
89.9999571957
 51
180.0000428043
  0
ARC
  5
3CF
100
AcDbEntity
  8
0
100
AcDbCircle
 62
7
  6
CONTINUOUS
 10
17.9271410383
 20
2.3815504143
 40
0.0024749995
100
AcDbArc
 50
179.9999571957
 51
270.0000428043
  0
ARC
  5
3D0
100
AcDbEntity
  8
0
100
AcDbCircle
 62
7
  6
CONTINUOUS
 10
17.8362019878
 20
2.3766004153
 40
0.0024749995
100
AcDbArc
 50
89.9999571957
 51
180.0000428043
  0
ARC
  5
3D1
100
AcDbEntity
  8
0
100
AcDbCircle
 62
7
  6
CONTINUOUS
 10
17.8601250048
 20
2.3815504143
 40
0.0024749995
100
AcDbArc
 50
269.9999571956
 51
0.0000428042
  0
ARC
  5
3D2
100
AcDbEntity
  8
0
100
AcDbCircle
 62
7
  6
CONTINUOUS
 10
17.9271410383
 20
2.4163554336
 40
0.0024749995
100
AcDbArc
 50
179.9999571957
 51
270.0000428043
  0
ARC
  5
3D3
100
AcDbEntity
  8
0
100
AcDbCircle
 62
7
  6
CONTINUOUS
 10
17.7533869456
 20
2.4279054437
 40
0.0024749995
100
AcDbArc
 50
359.9999571957
 51
90.0000428043
  0
ARC
  5
3D4
100
AcDbEntity
  8
0
100
AcDbCircle
 62
7
  6
CONTINUOUS
 10
17.7346109315
 20
2.4328554428
 40
0.0024749995
100
AcDbArc
 50
179.9999571957
 51
270.0000428043
  0
ARC
  5
3D5
100
AcDbEntity
  8
0
100
AcDbCircle
 62
7
  6
CONTINUOUS
 10
17.7346109315
 20
2.4526554575
 40
0.0024749995
100
AcDbArc
 50
89.9999571957
 51
180.0000428043
  0
ARC
  5
3D6
100
AcDbEntity
  8
0
100
AcDbCircle
 62
7
  6
CONTINUOUS
 10
17.8086119762
 20
2.4526554575
 40
0.0024749995
100
AcDbArc
 50
359.9999571957
 51
90.0000428043
  0
ARC
  5
3D7
100
AcDbEntity
  8
0
100
AcDbCircle
 62
7
  6
CONTINUOUS
 10
17.8086119762
 20
2.4328554428
 40
0.0024749995
100
AcDbArc
 50
269.9999571956
 51
0.0000428042
  0
ARC
  5
3D8
100
AcDbEntity
  8
0
100
AcDbCircle
 62
7
  6
CONTINUOUS
 10
17.7906789626
 20
2.4279054437
 40
0.0024749995
100
AcDbArc
 50
89.9999571957
 51
180.0000428043
  0
ARC
  5
3D9
100
AcDbEntity
  8
0
100
AcDbCircle
 62
7
  6
CONTINUOUS
 10
17.6081248651
 20
2.4279054437
 40
0.0024749995
100
AcDbArc
 50
359.9999571957
 51
90.0000428043
  0
ARC
  5
3DA
100
AcDbEntity
  8
0
100
AcDbCircle
 62
7
  6
CONTINUOUS
 10
17.589478851
 20
2.4328554428
 40
0.0024749995
100
AcDbArc
 50
179.9999571957
 51
270.0000428043
  0
ARC
  5
3DB
100
AcDbEntity
  8
0
100
AcDbCircle
 62
7
  6
CONTINUOUS
 10
17.589478851
 20
2.4526554575
 40
0.0024749995
100
AcDbArc
 50
89.9999571957
 51
180.0000428043
  0
ARC
  5
3DC
100
AcDbEntity
  8
0
100
AcDbCircle
 62
7
  6
CONTINUOUS
 10
17.8601250048
 20
2.4279054437
 40
0.0024749995
100
AcDbArc
 50
359.9999571957
 51
90.0000428043
  0
ARC
  5
3DD
100
AcDbEntity
  8
0
100
AcDbCircle
 62
7
  6
CONTINUOUS
 10
17.8362019878
 20
2.4328554428
 40
0.0024749995
100
AcDbArc
 50
179.9999571957
 51
270.0000428043
  0
ARC
  5
3DE
100
AcDbEntity
  8
0
100
AcDbCircle
 62
7
  6
CONTINUOUS
 10
17.8362019878
 20
2.4526554575
 40
0.0024749995
100
AcDbArc
 50
89.9999571957
 51
180.0000428043
  0
ARC
  5
3DF
100
AcDbEntity
  8
0
100
AcDbCircle
 62
7
  6
CONTINUOUS
 10
17.9271410383
 20
2.4279054437
 40
0.0024749995
100
AcDbArc
 50
89.9999571957
 51
180.0000428043
  0
ARC
  5
3E0
100
AcDbEntity
  8
0
100
AcDbCircle
 62
7
  6
CONTINUOUS
 10
17.6899370433
 20
2.4526562892
 40
0.0024741678
100
AcDbArc
 50
46.3477981899
 51
90.0031206038
  0
ARC
  5
3E1
100
AcDbEntity
  8
0
100
AcDbCircle
 62
7
  6
CONTINUOUS
 10
18.2495655574
 20
2.384346736
 40
0.044722495
100
AcDbArc
 50
195.531588407
 51
204.7624440448
  0
ARC
  5
3E2
100
AcDbEntity
  8
0
100
AcDbCircle
 62
7
  6
CONTINUOUS
 10
18.2415401884
 20
2.4134150625
 40
0.039319019
100
AcDbArc
 50
59.1202086415
 51
81.4730239328
  0
ARC
  5
3E3
100
AcDbEntity
  8
0
100
AcDbCircle
 62
7
  6
CONTINUOUS
 10
18.2667613545
 20
2.3917854558
 40
0.0383802683
100
AcDbArc
 50
288.7656836787
 51
309.6104317088
  0
ARC
  5
3E4
100
AcDbEntity
  8
0
100
AcDbCircle
 62
7
  6
CONTINUOUS
 10
18.2471995846
 20
2.4197497317
 40
0.0310192946
100
AcDbArc
 50
34.7540871
 51
62.0879016178
  0
ARC
  5
3E5
100
AcDbEntity
  8
0
100
AcDbCircle
 62
7
  6
CONTINUOUS
 10
18.1924863006
 20
2.4019259643
 40
0.0284963867
100
AcDbArc
 50
70.3834917948
 51
86.8922743861
  0
ARC
  5
3E6
100
AcDbEntity
  8
0
100
AcDbCircle
 62
7
  6
CONTINUOUS
 10
18.2737535399
 20
2.384184238
 40
0.0280715479
100
AcDbArc
 50
308.5071794988
 51
332.2400656899
  0
ARC
  5
3E7
100
AcDbEntity
  8
0
100
AcDbCircle
 62
7
  6
CONTINUOUS
 10
18.2439037681
 20
2.3797532943
 40
0.0266349791
100
AcDbArc
 50
20.3630922153
 51
37.9727053099
  0
ARC
  5
3E8
100
AcDbEntity
  8
0
100
AcDbCircle
 62
7
  6
CONTINUOUS
 10
18.2450241237
 20
2.3798263774
 40
0.0257145923
100
AcDbArc
 50
39.3804255939
 51
59.0361096173
  0
ARC
  5
3E9
100
AcDbEntity
  8
0
100
AcDbCircle
 62
7
  6
CONTINUOUS
 10
18.2296840914
 20
2.3774978567
 40
0.0238935861
100
AcDbArc
 50
209.8247607259
 51
235.1255079367
  0
ARC
  5
3EA
100
AcDbEntity
  8
0
100
AcDbCircle
 62
7
  6
CONTINUOUS
 10
18.2830605507
 20
2.3792897325
 40
0.0175560065
100
AcDbArc
 50
332.2279060967
 51
359.6595469939
  0
ARC
  5
3EB
100
AcDbEntity
  8
0
100
AcDbCircle
 62
7
  6
CONTINUOUS
 10
18.1890593051
 20
2.3776149607
 40
0.0151491919
100
AcDbArc
 50
24.098260853
 51
63.0369451818
  0
ARC
  5
3EC
100
AcDbEntity
  8
0
100
AcDbCircle
 62
7
  6
CONTINUOUS
 10
18.2845735615
 20
2.3882148688
 40
0.0147197649
100
AcDbArc
 50
192.7054516565
 51
206.0594861022
  0
ARC
  5
3ED
100
AcDbEntity
  8
0
100
AcDbCircle
 62
7
  6
CONTINUOUS
 10
18.1973459106
 20
2.4149676972
 40
0.0145814632
100
AcDbArc
 50
54.6746025112
 51
71.1660573124
  0
ARC
  5
3EE
100
AcDbEntity
  8
0
100
AcDbCircle
 62
7
  6
CONTINUOUS
 10
18.2752146786
 20
2.3927110743
 40
0.0132488022
100
AcDbArc
 50
270.266200055
 51
281.2404888597
  0
ARC
  5
3EF
100
AcDbEntity
  8
0
100
AcDbCircle
 62
7
  6
CONTINUOUS
 10
18.2716089246
 20
2.3878675959
 40
0.0119498009
100
AcDbArc
 50
340.7883861657
 51
1.1691452593
  0
ARC
  5
3F0
100
AcDbEntity
  8
0
100
AcDbCircle
 62
7
  6
CONTINUOUS
 10
18.198398534
 20
2.4260095887
 40
0.0110815393
100
AcDbArc
 50
306.758405961
 51
320.4502234234
  0
ARC
  5
3F1
100
AcDbEntity
  8
0
100
AcDbCircle
 62
7
  6
CONTINUOUS
 10
18.2764089196
 20
2.3869743807
 40
0.0073895522
100
AcDbArc
 50
280.8288201977
 51
305.0837508495
  0
ARC
  5
3F2
100
AcDbEntity
  8
0
100
AcDbCircle
 62
7
  6
CONTINUOUS
 10
18.2768101012
 20
2.3861235343
 40
0.0064647042
100
AcDbArc
 50
306.5086174083
 51
340.2162360092
  0
ARC
  5
3F3
100
AcDbEntity
  8
0
100
AcDbCircle
 62
7
  6
CONTINUOUS
 10
18.2024754016
 20
2.4218216224
 40
0.0060275915
100
AcDbArc
 50
20.9055592135
 51
56.7851676243
  0
ARC
  5
3F4
100
AcDbEntity
  8
0
100
AcDbCircle
 62
7
  6
CONTINUOUS
 10
18.2025691502
 20
2.4227756809
 40
0.0058087709
100
AcDbArc
 50
318.8515287446
 51
353.6422345323
  0
ARC
  5
3F5
100
AcDbEntity
  8
0
100
AcDbCircle
 62
7
  6
CONTINUOUS
 10
18.2760792244
 20
2.3840063824
 40
0.0052403997
100
AcDbArc
 50
205.5232099488
 51
227.5054868079
  0
ARC
  5
3F6
100
AcDbEntity
  8
0
100
AcDbCircle
 62
7
  6
CONTINUOUS
 10
18.2037759605
 20
2.4224819047
 40
0.0045795888
100
AcDbArc
 50
355.6235353944
 51
18.9942678268
  0
ARC
  5
3F7
100
AcDbEntity
  8
0
100
AcDbCircle
 62
7
  6
CONTINUOUS
 10
18.2743509251
 20
2.3821910097
 40
0.0027347709
100
AcDbArc
 50
228.5117626738
 51
266.1485845754
  0
ARC
  5
3F8
100
AcDbEntity
  8
0
100
AcDbCircle
 62
7
  6
CONTINUOUS
 10
18.1572301659
 20
2.3912274234
 40
0.0024749995
100
AcDbArc
 50
89.9999571957
 51
180.0000428043
  0
ARC
  5
3F9
100
AcDbEntity
  8
0
100
AcDbCircle
 62
7
  6
CONTINUOUS
 10
18.1572301659
 20
2.3815284143
 40
0.0024749995
100
AcDbArc
 50
179.9999571957
 51
270.0000428043
  0
ARC
  5
3FA
100
AcDbEntity
  8
0
100
AcDbCircle
 62
7
  6
CONTINUOUS
 10
18.1818891832
 20
2.3765784153
 40
0.0024749995
100
AcDbArc
 50
359.9999571957
 51
90.0000428043
  0
ARC
  5
3FB
100
AcDbEntity
  8
0
100
AcDbCircle
 62
7
  6
CONTINUOUS
 10
18.0683181166
 20
2.3766004153
 40
0.0024749995
100
AcDbArc
 50
89.9999571957
 51
180.0000428043
  0
ARC
  5
3FC
100
AcDbEntity
  8
0
100
AcDbCircle
 62
7
  6
CONTINUOUS
 10
18.0910641329
 20
2.3815504143
 40
0.0024749995
100
AcDbArc
 50
269.9999571957
 51
0.0000428043
  0
ARC
  5
3FD
100
AcDbEntity
  8
0
100
AcDbCircle
 62
7
  6
CONTINUOUS
 10
18.2860312373
 20
2.3907374231
 40
0.0024749995
100
AcDbArc
 50
89.9999571957
 51
180.0000428043
  0
ARC
  5
3FE
100
AcDbEntity
  8
0
100
AcDbCircle
 62
7
  6
CONTINUOUS
 10
18.2981412477
 20
2.3907374231
 40
0.0024749995
100
AcDbArc
 50
359.9999571957
 51
90.0000428043
  0
ARC
  5
3FF
100
AcDbEntity
  8
0
100
AcDbCircle
 62
7
  6
CONTINUOUS
 10
18.1572301659
 20
2.415180433
 40
0.0024749995
100
AcDbArc
 50
179.9999571957
 51
270.0000428043
  0
ARC
  5
400
100
AcDbEntity
  8
0
100
AcDbCircle
 62
7
  6
CONTINUOUS
 10
17.992145078
 20
2.3815504143
 40
0.0024749995
100
AcDbArc
 50
269.9999571957
 51
0.0000428043
  0
ARC
  5
401
100
AcDbEntity
  8
0
100
AcDbCircle
 62
7
  6
CONTINUOUS
 10
17.9970950771
 20
2.3898004226
 40
0.0024749995
100
AcDbArc
 50
89.9999571957
 51
180.0000428043
  0
ARC
  5
402
100
AcDbEntity
  8
0
100
AcDbCircle
 62
7
  6
CONTINUOUS
 10
18.0394141042
 20
2.3898004226
 40
0.0024749995
100
AcDbArc
 50
359.9999571957
 51
90.0000428043
  0
ARC
  5
403
100
AcDbEntity
  8
0
100
AcDbCircle
 62
7
  6
CONTINUOUS
 10
18.0379951034
 20
2.4196554355
 40
0.0024749995
100
AcDbArc
 50
269.9999571956
 51
0.0000428042
  0
ARC
  5
404
100
AcDbEntity
  8
0
100
AcDbCircle
 62
7
  6
CONTINUOUS
 10
17.9961310765
 20
2.4196554355
 40
0.0024749995
100
AcDbArc
 50
179.9999571957
 51
270.0000428043
  0
ARC
  5
405
100
AcDbEntity
  8
0
100
AcDbCircle
 62
7
  6
CONTINUOUS
 10
17.9623080615
 20
2.4114054346
 40
0.0024749995
100
AcDbArc
 50
359.9999571957
 51
90.0000428043
  0
ARC
  5
406
100
AcDbEntity
  8
0
100
AcDbCircle
 62
7
  6
CONTINUOUS
 10
17.9623080615
 20
2.3980504235
 40
0.0024749995
100
AcDbArc
 50
269.9999571956
 51
0.0000428042
  0
ARC
  5
407
100
AcDbEntity
  8
0
100
AcDbCircle
 62
7
  6
CONTINUOUS
 10
18.220842337
 20
2.4783532224
 40
0.0789082104
100
AcDbArc
 50
292.906155071
 51
305.2574666259
  0
ARC
  5
408
100
AcDbEntity
  8
0
100
AcDbCircle
 62
7
  6
CONTINUOUS
 10
18.2511742746
 20
2.4351463727
 40
0.0261183659
100
AcDbArc
 50
305.6373831893
 51
329.9727629745
  0
ARC
  5
409
100
AcDbEntity
  8
0
100
AcDbCircle
 62
7
  6
CONTINUOUS
 10
18.1908418374
 20
2.4381440645
 40
0.0254407115
100
AcDbArc
 50
270.7327484175
 51
290.441894219
  0
ARC
  5
40A
100
AcDbEntity
  8
0
100
AcDbCircle
 62
7
  6
CONTINUOUS
 10
18.1927693431
 20
2.4337504172
 40
0.0206523367
100
AcDbArc
 50
289.6883413472
 51
306.4184925496
  0
ARC
  5
40B
100
AcDbEntity
  8
0
100
AcDbCircle
 62
7
  6
CONTINUOUS
 10
18.2588883357
 20
2.4282993328
 40
0.0165459396
100
AcDbArc
 50
1.548452892
 51
33.5033152417
  0
ARC
  5
40C
100
AcDbEntity
  8
0
100
AcDbCircle
 62
7
  6
CONTINUOUS
 10
18.2621849309
 20
2.428467785
 40
0.0132462337
100
AcDbArc
 50
331.1510006998
 51
1.205404301
  0
ARC
  5
40D
100
AcDbEntity
  8
0
100
AcDbCircle
 62
7
  6
CONTINUOUS
 10
18.0910641329
 20
2.4279054437
 40
0.0024749995
100
AcDbArc
 50
359.9999571957
 51
90.0000428043
  0
ARC
  5
40E
100
AcDbEntity
  8
0
100
AcDbCircle
 62
7
  6
CONTINUOUS
 10
18.0683181166
 20
2.4328554428
 40
0.0024749995
100
AcDbArc
 50
179.9999571957
 51
270.0000428043
  0
ARC
  5
40F
100
AcDbEntity
  8
0
100
AcDbCircle
 62
7
  6
CONTINUOUS
 10
18.0683181166
 20
2.4526554575
 40
0.0024749995
100
AcDbArc
 50
89.9999571957
 51
180.0000428043
  0
ARC
  5
410
100
AcDbEntity
  8
0
100
AcDbCircle
 62
7
  6
CONTINUOUS
 10
18.1572301659
 20
2.4279054437
 40
0.0024749995
100
AcDbArc
 50
89.9999571957
 51
180.0000428043
  0
ARC
  5
411
100
AcDbEntity
  8
0
100
AcDbCircle
 62
7
  6
CONTINUOUS
 10
18.0379951034
 20
2.4526554575
 40
0.0024749995
100
AcDbArc
 50
359.9999571957
 51
90.0000428043
  0
ARC
  5
412
100
AcDbEntity
  8
0
100
AcDbCircle
 62
7
  6
CONTINUOUS
 10
17.9911810775
 20
2.4279054437
 40
0.0024749995
100
AcDbArc
 50
359.9999571957
 51
90.0000428043
  0
ELLIPSE
  5
413
100
AcDbEntity
  8
0
100
AcDbEllipse
 62
7
  6
CONTINUOUS
 10
17.573550844
 20
2.4034764283
 30
0.0
 11
-0.8250004575
 21
0.0
 31
0.0
 40
0.218572
 41
0.0
 42
6.2831853072
  0
HATCH
  5
414
100
AcDbEntity
  8
0
100
AcDbHatch
 62
7
  6
CONTINUOUS
 10
0.0
 20
0.0
 30
0.0
210
0.0
220
0.0
230
1.0
  2
XSEC0002
 70
1
 71
1
 91
11
 92
1
 93
57
 72
2
 10
18.2265855264
 20
2.3716475527
 40
0.0173408616
 50
232.4713476722
 51
267.338189944
 73
1
 72
2
 10
18.2296840914
 20
2.3774978567
 40
0.0238935861
 50
209.8247607259
 51
235.1255079367
 73
1
 72
2
 10
18.2495655574
 20
2.384346736
 40
0.044722495
 50
195.531588407
 51
204.7624440448
 73
1
 72
1
 10
18.206476195
 20
2.3723714111
 11
18.204672194
 21
2.3784404145
 72
2
 10
18.1662929967
 20
2.368643334
 40
0.0396099176
 50
14.3201081283
 51
22.4984722084
 73
1
 72
2
 10
18.1890593051
 20
2.3776149607
 40
0.0151491919
 50
24.098260853
 51
63.0369451818
 73
1
 72
2
 10
18.1850046504
 20
2.3693353402
 40
0.0243676582
 50
63.3666028271
 51
90.3937697637
 73
1
 72
1
 10
18.184837183
 20
2.3937024229
 11
18.1572301677
 21
2.3937024229
 72
2
 10
18.1572301659
 20
2.3912274234
 40
0.0024749995
 50
89.9999571957
 51
180.0000428043
 73
1
 72
1
 10
18.1547551663
 20
2.3912274216
 11
18.1547551663
 21
2.3815284162
 72
2
 10
18.1572301659
 20
2.3815284143
 40
0.0024749995
 50
179.9999571957
 51
270.0000428043
 73
1
 72
1
 10
18.1572301677
 20
2.3790534148
 11
18.1818891814
 21
2.3790534148
 72
2
 10
18.1818891832
 20
2.3765784153
 40
0.0024749995
 50
359.9999571957
 51
90.0000428042
 73
1
 72
1
 10
18.1843641828
 20
2.3765784134
 11
18.1843641828
 21
2.3568004025
 72
2
 10
18.1818891832
 20
2.3568004006
 40
0.0024749995
 50
269.9999571958
 51
0.0000428043
 73
1
 72
1
 10
18.1818891814
 20
2.3543254011
 11
18.0683181184
 21
2.3543254011
 72
2
 10
18.0683181166
 20
2.3568004006
 40
0.0024749995
 50
179.9999571957
 51
270.0000428042
 73
1
 72
1
 10
18.065843117
 20
2.3568004025
 11
18.065843117
 21
2.3766004134
 72
2
 10
18.0683181166
 20
2.3766004153
 40
0.0024749995
 50
89.9999571958
 51
180.0000428043
 73
1
 72
1
 10
18.0683181184
 20
2.3790754148
 11
18.091064131
 21
2.3790754148
 72
2
 10
18.0910641329
 20
2.3815504143
 40
0.0024749995
 50
269.9999571957
 51
0.0000428043
 73
1
 72
1
 10
18.0935391324
 20
2.3815504162
 11
18.0935391324
 21
2.4279054419
 72
2
 10
18.0910641329
 20
2.4279054437
 40
0.0024749995
 50
359.9999571957
 51
90.0000428043
 73
1
 72
1
 10
18.091064131
 20
2.4303804433
 11
18.0683181184
 21
2.4303804433
 72
2
 10
18.0683181166
 20
2.4328554428
 40
0.0024749995
 50
179.9999571957
 51
270.0000428043
 73
1
 72
1
 10
18.065843117
 20
2.4328554446
 11
18.065843117
 21
2.4526554556
 72
2
 10
18.0683181166
 20
2.4526554575
 40
0.0024749995
 50
89.9999571958
 51
180.0000428043
 73
1
 72
1
 10
18.0683181184
 20
2.455130457
 11
18.2178992014
 21
2.455130457
 72
2
 10
18.2152358981
 20
2.2725915465
 40
0.1825583387
 50
79.8618509324
 51
89.1640948679
 73
1
 72
2
 10
18.2415401884
 20
2.4134150625
 40
0.039319019
 50
59.1202086415
 51
81.4730239328
 73
1
 72
2
 10
18.2471995846
 20
2.4197497317
 40
0.0310192946
 50
34.7540871
 51
62.0879016178
 73
1
 72
2
 10
18.2588883357
 20
2.4282993328
 40
0.0165459396
 50
1.548452892
 51
33.5033152417
 73
1
 72
2
 10
18.2621849309
 20
2.428467785
 40
0.0132462337
 50
331.1510006998
 51
1.205404301
 73
1
 72
2
 10
18.2511742746
 20
2.4351463727
 40
0.0261183659
 50
305.6373831893
 51
329.9727629745
 73
1
 72
2
 10
18.220842337
 20
2.4783532224
 40
0.0789082104
 50
292.906155071
 51
305.2574666259
 73
1
 72
2
 10
18.197141171
 20
2.3016991173
 40
0.117346916
 50
58.614769177
 51
62.3737227606
 73
1
 72
2
 10
18.2450241237
 20
2.3798263774
 40
0.0257145923
 50
39.3804255939
 51
59.0361096173
 73
1
 72
2
 10
18.2439037681
 20
2.3797532943
 40
0.0266349791
 50
20.3630922153
 51
37.9727053099
 73
1
 72
2
 10
18.2260032264
 20
2.3725718859
 40
0.0459185159
 50
15.6740290068
 51
20.9917271228
 73
1
 72
2
 10
18.2845735615
 20
2.3882148688
 40
0.0147197649
 50
192.7054516565
 51
206.0594861022
 73
1
 72
2
 10
18.2760792244
 20
2.3840063824
 40
0.0052403997
 50
205.5232099488
 51
227.5054868079
 73
1
 72
2
 10
18.2743509251
 20
2.3821910097
 40
0.0027347709
 50
228.5117626738
 51
266.1485845755
 73
1
 72
1
 10
18.2741672326
 20
2.379462415
 11
18.2752762332
 21
2.379462415
 72
2
 10
18.2752146786
 20
2.3927110743
 40
0.0132488022
 50
270.266200055
 51
281.2404888597
 73
1
 72
2
 10
18.2764089196
 20
2.3869743807
 40
0.0073895522
 50
280.8288201977
 51
305.0837508495
 73
1
 72
2
 10
18.2768101012
 20
2.3861235343
 40
0.0064647042
 50
306.5086174083
 51
340.2162360092
 73
1
 72
2
 10
18.2716089246
 20
2.3878675959
 40
0.0119498009
 50
340.7883861657
 51
1.1691452593
 73
1
 72
1
 10
18.2835562378
 20
2.3881114198
 11
18.2835562378
 21
2.3907374213
 72
2
 10
18.2860312373
 20
2.3907374231
 40
0.0024749995
 50
89.9999571957
 51
180.0000428043
 73
1
 72
1
 10
18.2860312391
 20
2.3932124227
 11
18.2981412459
 21
2.3932124227
 72
2
 10
18.2981412477
 20
2.3907374231
 40
0.0024749995
 50
359.9999571957
 51
90.0000428043
 73
1
 72
1
 10
18.3006162472
 20
2.3907374213
 11
18.3006162472
 21
2.3791854149
 72
2
 10
18.2830605507
 20
2.3792897325
 40
0.0175560065
 50
332.2279060967
 51
359.6595469939
 73
1
 72
2
 10
18.2737535399
 20
2.384184238
 40
0.0280715479
 50
308.5071794988
 51
332.2400656899
 73
1
 72
2
 10
18.2667613545
 20
2.3917854558
 40
0.0383802683
 50
288.7656836787
 51
309.6104317088
 73
1
 72
2
 10
18.2724993219
 20
2.3741987064
 40
0.0198837666
 50
271.8586572978
 51
289.4131338543
 73
1
 72
1
 10
18.273144232
 20
2.3543254011
 11
18.2257802057
 21
2.3543254011
 97
267
330
309
330
30A
330
30B
330
30C
330
30D
330
30E
330
30F
330
310
330
311
330
312
330
313
330
314
330
315
330
316
330
317
330
318
330
319
330
31A
330
31B
330
31C
330
31D
330
31E
330
31F
330
320
330
321
330
322
330
323
330
324
330
325
330
326
330
327
330
328
330
329
330
32A
330
32B
330
32C
330
32D
330
32E
330
32F
330
330
330
331
330
332
330
333
330
334
330
335
330
336
330
337
330
338
330
339
330
33A
330
33B
330
33C
330
33D
330
33E
330
33F
330
340
330
341
330
342
330
343
330
344
330
345
330
346
330
347
330
348
330
349
330
34A
330
34B
330
34C
330
34D
330
34E
330
34F
330
350
330
351
330
352
330
353
330
354
330
355
330
356
330
357
330
358
330
359
330
35A
330
35B
330
35C
330
35D
330
35E
330
35F
330
360
330
361
330
362
330
363
330
364
330
365
330
366
330
367
330
368
330
369
330
36A
330
36B
330
36C
330
36D
330
36E
330
36F
330
370
330
371
330
372
330
373
330
374
330
375
330
376
330
377
330
378
330
379
330
37A
330
37B
330
37C
330
37D
330
37E
330
37F
330
380
330
381
330
382
330
383
330
384
330
385
330
386
330
387
330
388
330
389
330
38A
330
38B
330
38C
330
38D
330
38E
330
38F
330
390
330
391
330
392
330
393
330
394
330
395
330
396
330
397
330
398
330
399
330
39A
330
39B
330
39C
330
39D
330
39E
330
39F
330
3A0
330
3A1
330
3A2
330
3A3
330
3A4
330
3A5
330
3A6
330
3A7
330
3A8
330
3A9
330
3AA
330
3AB
330
3AC
330
3AD
330
3AE
330
3AF
330
3B0
330
3B1
330
3B2
330
3B3
330
3B4
330
3B5
330
3B6
330
3B7
330
3B8
330
3B9
330
3BA
330
3BB
330
3BC
330
3BD
330
3BE
330
3BF
330
3C0
330
3C1
330
3C2
330
3C3
330
3C4
330
3C5
330
3C6
330
3C7
330
3C8
330
3C9
330
3CA
330
3CB
330
3CC
330
3CD
330
3CE
330
3CF
330
3D0
330
3D1
330
3D2
330
3D3
330
3D4
330
3D5
330
3D6
330
3D7
330
3D8
330
3D9
330
3DA
330
3DB
330
3DC
330
3DD
330
3DE
330
3DF
330
3E0
330
3E1
330
3E2
330
3E3
330
3E4
330
3E5
330
3E6
330
3E7
330
3E8
330
3E9
330
3EA
330
3EB
330
3EC
330
3ED
330
3EE
330
3EF
330
3F0
330
3F1
330
3F2
330
3F3
330
3F4
330
3F5
330
3F6
330
3F7
330
3F8
330
3F9
330
3FA
330
3FB
330
3FC
330
3FD
330
3FE
330
3FF
330
400
330
401
330
402
330
403
330
404
330
405
330
406
330
407
330
408
330
409
330
40A
330
40B
330
40C
330
40D
330
40E
330
40F
330
410
330
411
330
412
330
413
 92
1
 93
40
 72
2
 10
17.8362019878
 20
2.3568004006
 40
0.0024749995
 50
179.9999571957
 51
270.0000428042
 73
1
 72
1
 10
17.8337269883
 20
2.3568004025
 11
17.8337269883
 21
2.3766004134
 72
2
 10
17.8362019878
 20
2.3766004153
 40
0.0024749995
 50
89.9999571958
 51
180.0000428043
 73
1
 72
1
 10
17.8362019897
 20
2.3790754148
 11
17.860125003
 21
2.3790754148
 72
2
 10
17.8601250048
 20
2.3815504143
 40
0.0024749995
 50
269.9999571956
 51
0.0000428042
 73
1
 72
1
 10
17.8626000043
 20
2.3815504162
 11
17.8626000043
 21
2.4279054419
 72
2
 10
17.8601250048
 20
2.4279054437
 40
0.0024749995
 50
359.9999571957
 51
90.0000428043
 73
1
 72
1
 10
17.860125003
 20
2.4303804433
 11
17.8362019897
 21
2.4303804433
 72
2
 10
17.8362019878
 20
2.4328554428
 40
0.0024749995
 50
179.9999571957
 51
270.0000428043
 73
1
 72
1
 10
17.8337269883
 20
2.4328554446
 11
17.8337269883
 21
2.4526554556
 72
2
 10
17.8362019878
 20
2.4526554575
 40
0.0024749995
 50
89.9999571958
 51
180.0000428043
 73
1
 72
1
 10
17.8362019897
 20
2.455130457
 11
18.0379951016
 21
2.455130457
 72
2
 10
18.0379951034
 20
2.4526554575
 40
0.0024749995
 50
359.9999571957
 51
90.0000428042
 73
1
 72
1
 10
18.040470103
 20
2.4526554556
 11
18.040470103
 21
2.4196554373
 72
2
 10
18.0379951034
 20
2.4196554355
 40
0.0024749995
 50
269.9999571956
 51
0.0000428042
 73
1
 72
1
 10
18.0379951016
 20
2.4171804359
 11
17.9961310784
 21
2.4171804359
 72
2
 10
17.9961310765
 20
2.4196554355
 40
0.0024749995
 50
179.9999571957
 51
270.0000428043
 73
1
 72
1
 10
17.993656077
 20
2.4196554373
 11
17.993656077
 21
2.4279054419
 72
2
 10
17.9911810775
 20
2.4279054437
 40
0.0024749995
 50
359.9999571957
 51
90.0000428043
 73
1
 72
1
 10
17.9911810756
 20
2.4303804433
 11
17.9271410401
 21
2.4303804433
 72
2
 10
17.9271410383
 20
2.4279054437
 40
0.0024749995
 50
89.9999571958
 51
180.0000428043
 73
1
 72
1
 10
17.9246660387
 20
2.4279054419
 11
17.9246660387
 21
2.4163554355
 72
2
 10
17.9271410383
 20
2.4163554336
 40
0.0024749995
 50
179.9999571957
 51
270.0000428042
 73
1
 72
1
 10
17.9271410401
 20
2.4138804341
 11
17.9623080596
 21
2.4138804341
 72
2
 10
17.9623080615
 20
2.4114054346
 40
0.0024749995
 50
359.9999571957
 51
90.0000428042
 73
1
 72
1
 10
17.964783061
 20
2.4114054327
 11
17.964783061
 21
2.3980504253
 72
2
 10
17.9623080615
 20
2.3980504235
 40
0.0024749995
 50
269.9999571956
 51
0.0000428042
 73
1
 72
1
 10
17.9623080596
 20
2.395575424
 11
17.9271410401
 21
2.395575424
 72
2
 10
17.9271410383
 20
2.3931004244
 40
0.0024749995
 50
89.9999571958
 51
180.0000428043
 73
1
 72
1
 10
17.9246660387
 20
2.3931004226
 11
17.9246660387
 21
2.3815504162
 72
2
 10
17.9271410383
 20
2.3815504143
 40
0.0024749995
 50
179.9999571957
 51
270.0000428043
 73
1
 72
1
 10
17.9271410401
 20
2.3790754148
 11
17.9921450762
 21
2.3790754148
 72
2
 10
17.992145078
 20
2.3815504143
 40
0.0024749995
 50
269.9999571958
 51
0.0000428043
 73
1
 72
1
 10
17.9946200775
 20
2.3815504162
 11
17.9946200775
 21
2.3898004208
 72
2
 10
17.9970950771
 20
2.3898004226
 40
0.0024749995
 50
89.9999571958
 51
180.0000428043
 73
1
 72
1
 10
17.9970950789
 20
2.3922754221
 11
18.0394141024
 21
2.3922754221
 72
2
 10
18.0394141042
 20
2.3898004226
 40
0.0024749995
 50
359.9999571957
 51
90.0000428043
 73
1
 72
1
 10
18.0418891038
 20
2.3898004208
 11
18.0418891038
 21
2.3568004025
 72
2
 10
18.0394141042
 20
2.3568004006
 40
0.0024749995
 50
269.9999571958
 51
0.0000428043
 73
1
 72
1
 10
18.0394141024
 20
2.3543254011
 11
17.8362019897
 21
2.3543254011
 97
267
330
309
330
30A
330
30B
330
30C
330
30D
330
30E
330
30F
330
310
330
311
330
312
330
313
330
314
330
315
330
316
330
317
330
318
330
319
330
31A
330
31B
330
31C
330
31D
330
31E
330
31F
330
320
330
321
330
322
330
323
330
324
330
325
330
326
330
327
330
328
330
329
330
32A
330
32B
330
32C
330
32D
330
32E
330
32F
330
330
330
331
330
332
330
333
330
334
330
335
330
336
330
337
330
338
330
339
330
33A
330
33B
330
33C
330
33D
330
33E
330
33F
330
340
330
341
330
342
330
343
330
344
330
345
330
346
330
347
330
348
330
349
330
34A
330
34B
330
34C
330
34D
330
34E
330
34F
330
350
330
351
330
352
330
353
330
354
330
355
330
356
330
357
330
358
330
359
330
35A
330
35B
330
35C
330
35D
330
35E
330
35F
330
360
330
361
330
362
330
363
330
364
330
365
330
366
330
367
330
368
330
369
330
36A
330
36B
330
36C
330
36D
330
36E
330
36F
330
370
330
371
330
372
330
373
330
374
330
375
330
376
330
377
330
378
330
379
330
37A
330
37B
330
37C
330
37D
330
37E
330
37F
330
380
330
381
330
382
330
383
330
384
330
385
330
386
330
387
330
388
330
389
330
38A
330
38B
330
38C
330
38D
330
38E
330
38F
330
390
330
391
330
392
330
393
330
394
330
395
330
396
330
397
330
398
330
399
330
39A
330
39B
330
39C
330
39D
330
39E
330
39F
330
3A0
330
3A1
330
3A2
330
3A3
330
3A4
330
3A5
330
3A6
330
3A7
330
3A8
330
3A9
330
3AA
330
3AB
330
3AC
330
3AD
330
3AE
330
3AF
330
3B0
330
3B1
330
3B2
330
3B3
330
3B4
330
3B5
330
3B6
330
3B7
330
3B8
330
3B9
330
3BA
330
3BB
330
3BC
330
3BD
330
3BE
330
3BF
330
3C0
330
3C1
330
3C2
330
3C3
330
3C4
330
3C5
330
3C6
330
3C7
330
3C8
330
3C9
330
3CA
330
3CB
330
3CC
330
3CD
330
3CE
330
3CF
330
3D0
330
3D1
330
3D2
330
3D3
330
3D4
330
3D5
330
3D6
330
3D7
330
3D8
330
3D9
330
3DA
330
3DB
330
3DC
330
3DD
330
3DE
330
3DF
330
3E0
330
3E1
330
3E2
330
3E3
330
3E4
330
3E5
330
3E6
330
3E7
330
3E8
330
3E9
330
3EA
330
3EB
330
3EC
330
3ED
330
3EE
330
3EF
330
3F0
330
3F1
330
3F2
330
3F3
330
3F4
330
3F5
330
3F6
330
3F7
330
3F8
330
3F9
330
3FA
330
3FB
330
3FC
330
3FD
330
3FE
330
3FF
330
400
330
401
330
402
330
403
330
404
330
405
330
406
330
407
330
408
330
409
330
40A
330
40B
330
40C
330
40D
330
40E
330
40F
330
410
330
411
330
412
330
413
 92
1
 93
40
 72
2
 10
17.7115227858
 20
2.3567995689
 40
0.0024741678
 50
226.3477981898
 51
270.0031206038
 73
1
 72
1
 10
17.7098149196
 20
2.3550094015
 11
17.6465348845
 21
2.415387435
 72
2
 10
17.6448261836
 20
2.4135964972
 40
0.0024753014
 50
46.3461263058
 51
180.0014637321
 73
1
 72
1
 10
17.6423508822
 20
2.413596434
 11
17.6423508822
 21
2.3815504162
 72
2
 10
17.6448258817
 20
2.3815504143
 40
0.0024749995
 50
179.9999571957
 51
270.0000428043
 73
1
 72
1
 10
17.6448258836
 20
2.3790754148
 11
17.6651428948
 21
2.3790754148
 72
2
 10
17.6651428967
 20
2.3766004153
 40
0.0024749995
 50
359.9999571957
 51
90.0000428043
 73
1
 72
1
 10
17.6676178962
 20
2.3766004134
 11
17.6676178962
 21
2.3568004025
 72
2
 10
17.6651428967
 20
2.3568004006
 40
0.0024749995
 50
269.9999571958
 51
0.0000428043
 73
1
 72
1
 10
17.6651428948
 20
2.3543254011
 11
17.5894788529
 21
2.3543254011
 72
2
 10
17.589478851
 20
2.3568004006
 40
0.0024749995
 50
179.9999571957
 51
270.0000428042
 73
1
 72
1
 10
17.5870038515
 20
2.3568004025
 11
17.5870038515
 21
2.3766004134
 72
2
 10
17.589478851
 20
2.3766004153
 40
0.0024749995
 50
89.9999571957
 51
180.0000428043
 73
1
 72
1
 10
17.5894788529
 20
2.3790754148
 11
17.6081248632
 21
2.3790754148
 72
2
 10
17.6081248651
 20
2.3815504143
 40
0.0024749995
 50
269.9999571957
 51
0.0000428043
 73
1
 72
1
 10
17.6105998646
 20
2.3815504162
 11
17.6105998646
 21
2.4279054419
 72
2
 10
17.6081248651
 20
2.4279054437
 40
0.0024749995
 50
359.9999571957
 51
90.0000428043
 73
1
 72
1
 10
17.6081248632
 20
2.4303804433
 11
17.5894788529
 21
2.4303804433
 72
2
 10
17.589478851
 20
2.4328554428
 40
0.0024749995
 50
179.9999571957
 51
270.0000428043
 73
1
 72
1
 10
17.5870038515
 20
2.4328554446
 11
17.5870038515
 21
2.4526554556
 72
2
 10
17.589478851
 20
2.4526554575
 40
0.0024749995
 50
89.9999571957
 51
180.0000428043
 73
1
 72
1
 10
17.5894788529
 20
2.455130457
 11
17.6899369086
 21
2.455130457
 72
2
 10
17.6899370433
 20
2.4526562892
 40
0.0024741678
 50
46.3477981899
 51
90.0031206038
 73
1
 72
1
 10
17.6916449095
 20
2.4544464566
 11
17.7516779428
 21
2.3971664249
 72
2
 10
17.7533866437
 20
2.3989573626
 40
0.0024753014
 50
226.3461263059
 51
0.0014637321
 73
1
 72
1
 10
17.7558619451
 20
2.3989574258
 11
17.7558619451
 21
2.4279054419
 72
2
 10
17.7533869456
 20
2.4279054437
 40
0.0024749995
 50
359.9999571957
 51
90.0000428043
 73
1
 72
1
 10
17.7533869438
 20
2.4303804433
 11
17.7346109333
 21
2.4303804433
 72
2
 10
17.7346109315
 20
2.4328554428
 40
0.0024749995
 50
179.9999571957
 51
270.0000428043
 73
1
 72
1
 10
17.732135932
 20
2.4328554446
 11
17.732135932
 21
2.4526554556
 72
2
 10
17.7346109315
 20
2.4526554575
 40
0.0024749995
 50
89.9999571958
 51
180.0000428043
 73
1
 72
1
 10
17.7346109333
 20
2.455130457
 11
17.8086119744
 21
2.455130457
 72
2
 10
17.8086119762
 20
2.4526554575
 40
0.0024749995
 50
359.9999571957
 51
90.0000428043
 73
1
 72
1
 10
17.8110869758
 20
2.4526554556
 11
17.8110869758
 21
2.4328554446
 72
2
 10
17.8086119762
 20
2.4328554428
 40
0.0024749995
 50
269.9999571956
 51
0.0000428042
 73
1
 72
1
 10
17.8086119744
 20
2.4303804433
 11
17.7906789644
 21
2.4303804433
 72
2
 10
17.7906789626
 20
2.4279054437
 40
0.0024749995
 50
89.9999571957
 51
180.0000428043
 73
1
 72
1
 10
17.7882039631
 20
2.4279054419
 11
17.7882039631
 21
2.3568004025
 72
2
 10
17.7857289635
 20
2.3568004006
 40
0.0024749995
 50
269.9999571957
 51
0.0000428043
 73
1
 72
1
 10
17.7857289617
 20
2.3543254011
 11
17.7115229205
 21
2.3543254011
 97
267
330
309
330
30A
330
30B
330
30C
330
30D
330
30E
330
30F
330
310
330
311
330
312
330
313
330
314
330
315
330
316
330
317
330
318
330
319
330
31A
330
31B
330
31C
330
31D
330
31E
330
31F
330
320
330
321
330
322
330
323
330
324
330
325
330
326
330
327
330
328
330
329
330
32A
330
32B
330
32C
330
32D
330
32E
330
32F
330
330
330
331
330
332
330
333
330
334
330
335
330
336
330
337
330
338
330
339
330
33A
330
33B
330
33C
330
33D
330
33E
330
33F
330
340
330
341
330
342
330
343
330
344
330
345
330
346
330
347
330
348
330
349
330
34A
330
34B
330
34C
330
34D
330
34E
330
34F
330
350
330
351
330
352
330
353
330
354
330
355
330
356
330
357
330
358
330
359
330
35A
330
35B
330
35C
330
35D
330
35E
330
35F
330
360
330
361
330
362
330
363
330
364
330
365
330
366
330
367
330
368
330
369
330
36A
330
36B
330
36C
330
36D
330
36E
330
36F
330
370
330
371
330
372
330
373
330
374
330
375
330
376
330
377
330
378
330
379
330
37A
330
37B
330
37C
330
37D
330
37E
330
37F
330
380
330
381
330
382
330
383
330
384
330
385
330
386
330
387
330
388
330
389
330
38A
330
38B
330
38C
330
38D
330
38E
330
38F
330
390
330
391
330
392
330
393
330
394
330
395
330
396
330
397
330
398
330
399
330
39A
330
39B
330
39C
330
39D
330
39E
330
39F
330
3A0
330
3A1
330
3A2
330
3A3
330
3A4
330
3A5
330
3A6
330
3A7
330
3A8
330
3A9
330
3AA
330
3AB
330
3AC
330
3AD
330
3AE
330
3AF
330
3B0
330
3B1
330
3B2
330
3B3
330
3B4
330
3B5
330
3B6
330
3B7
330
3B8
330
3B9
330
3BA
330
3BB
330
3BC
330
3BD
330
3BE
330
3BF
330
3C0
330
3C1
330
3C2
330
3C3
330
3C4
330
3C5
330
3C6
330
3C7
330
3C8
330
3C9
330
3CA
330
3CB
330
3CC
330
3CD
330
3CE
330
3CF
330
3D0
330
3D1
330
3D2
330
3D3
330
3D4
330
3D5
330
3D6
330
3D7
330
3D8
330
3D9
330
3DA
330
3DB
330
3DC
330
3DD
330
3DE
330
3DF
330
3E0
330
3E1
330
3E2
330
3E3
330
3E4
330
3E5
330
3E6
330
3E7
330
3E8
330
3E9
330
3EA
330
3EB
330
3EC
330
3ED
330
3EE
330
3EF
330
3F0
330
3F1
330
3F2
330
3F3
330
3F4
330
3F5
330
3F6
330
3F7
330
3F8
330
3F9
330
3FA
330
3FB
330
3FC
330
3FD
330
3FE
330
3FF
330
400
330
401
330
402
330
403
330
404
330
405
330
406
330
407
330
408
330
409
330
40A
330
40B
330
40C
330
40D
330
40E
330
40F
330
410
330
411
330
412
330
413
 92
1
 93
40
 72
2
 10
17.4632701481
 20
2.3568008172
 40
0.0024754162
 50
226.3593695814
 51
270.0146919954
 73
1
 72
1
 10
17.4615617819
 20
2.3550094015
 11
17.3982817468
 21
2.415387435
 72
2
 10
17.3965730459
 20
2.4135964972
 40
0.0024753014
 50
46.3461263058
 51
180.0014637321
 73
1
 72
1
 10
17.3940977445
 20
2.413596434
 11
17.3940977445
 21
2.3815504162
 72
2
 10
17.396572744
 20
2.3815504143
 40
0.0024749995
 50
179.9999571957
 51
270.0000428043
 73
1
 72
1
 10
17.3965727459
 20
2.3790754148
 11
17.4168897572
 21
2.3790754148
 72
2
 10
17.416889759
 20
2.3766004153
 40
0.0024749995
 50
359.9999571957
 51
90.0000428043
 73
1
 72
1
 10
17.4193647585
 20
2.3766004134
 11
17.4193647585
 21
2.3568004025
 72
2
 10
17.416889759
 20
2.3568004006
 40
0.0024749995
 50
269.9999571957
 51
0.0000428043
 73
1
 72
1
 10
17.4168897572
 20
2.3543254011
 11
17.3412257152
 21
2.3543254011
 72
2
 10
17.3412257133
 20
2.3568004006
 40
0.0024749995
 50
179.9999571957
 51
270.0000428043
 73
1
 72
1
 10
17.3387507138
 20
2.3568004025
 11
17.3387507138
 21
2.3766004134
 72
2
 10
17.3412257133
 20
2.3766004153
 40
0.0024749995
 50
89.9999571957
 51
180.0000428043
 73
1
 72
1
 10
17.3412257152
 20
2.3790754148
 11
17.3598727255
 21
2.3790754148
 72
2
 10
17.3598727274
 20
2.3815504143
 40
0.0024749995
 50
269.9999571957
 51
0.0000428043
 73
1
 72
1
 10
17.3623477269
 20
2.3815504162
 11
17.3623477269
 21
2.4279054419
 72
2
 10
17.3598727274
 20
2.4279054437
 40
0.0024749995
 50
359.9999571957
 51
90.0000428044
 73
1
 72
1
 10
17.3598727255
 20
2.4303804433
 11
17.3412257152
 21
2.4303804433
 72
2
 10
17.3412257133
 20
2.4328554428
 40
0.0024749995
 50
179.9999571957
 51
270.0000428043
 73
1
 72
1
 10
17.3387507138
 20
2.4328554446
 11
17.3387507138
 21
2.4526554556
 72
2
 10
17.3412257133
 20
2.4526554575
 40
0.0024749995
 50
89.9999571957
 51
180.0000428043
 73
1
 72
1
 10
17.3412257152
 20
2.455130457
 11
17.4416837709
 21
2.455130457
 72
2
 10
17.4416839057
 20
2.4526562892
 40
0.0024741678
 50
46.3477981899
 51
90.0031206038
 73
1
 72
1
 10
17.4433917718
 20
2.4544464566
 11
17.5034248051
 21
2.3971664249
 72
2
 10
17.5051335061
 20
2.3989573626
 40
0.0024753014
 50
226.3461263059
 51
0.0014637321
 73
1
 72
1
 10
17.5076088075
 20
2.3989574258
 11
17.5076088075
 21
2.4279054419
 72
2
 10
17.5051338079
 20
2.4279054437
 40
0.0024749995
 50
359.9999571957
 51
90.0000428043
 73
1
 72
1
 10
17.5051338061
 20
2.4303804433
 11
17.4863577957
 21
2.4303804433
 72
2
 10
17.4863577938
 20
2.4328554428
 40
0.0024749995
 50
179.9999571957
 51
270.0000428043
 73
1
 72
1
 10
17.4838827943
 20
2.4328554446
 11
17.4838827943
 21
2.4526554556
 72
2
 10
17.4863577938
 20
2.4526554575
 40
0.0024749995
 50
89.9999571957
 51
180.0000428043
 73
1
 72
1
 10
17.4863577957
 20
2.455130457
 11
17.5603588367
 21
2.455130457
 72
2
 10
17.5603588386
 20
2.4526554575
 40
0.0024749995
 50
359.9999571957
 51
90.0000428042
 73
1
 72
1
 10
17.5628338381
 20
2.4526554556
 11
17.5628338381
 21
2.4328554446
 72
2
 10
17.5603588386
 20
2.4328554428
 40
0.0024749995
 50
269.9999571958
 51
0.0000428043
 73
1
 72
1
 10
17.5603588367
 20
2.4303804433
 11
17.5424258268
 21
2.4303804433
 72
2
 10
17.5424258249
 20
2.4279054437
 40
0.0024749995
 50
89.9999571958
 51
180.0000428043
 73
1
 72
1
 10
17.5399508254
 20
2.4279054419
 11
17.5399508254
 21
2.3568004025
 72
2
 10
17.5374758259
 20
2.3568004006
 40
0.0024749995
 50
269.9999571958
 51
0.0000428043
 73
1
 72
1
 10
17.537475824
 20
2.3543254011
 11
17.4632707829
 21
2.3543254011
 97
267
330
309
330
30A
330
30B
330
30C
330
30D
330
30E
330
30F
330
310
330
311
330
312
330
313
330
314
330
315
330
316
330
317
330
318
330
319
330
31A
330
31B
330
31C
330
31D
330
31E
330
31F
330
320
330
321
330
322
330
323
330
324
330
325
330
326
330
327
330
328
330
329
330
32A
330
32B
330
32C
330
32D
330
32E
330
32F
330
330
330
331
330
332
330
333
330
334
330
335
330
336
330
337
330
338
330
339
330
33A
330
33B
330
33C
330
33D
330
33E
330
33F
330
340
330
341
330
342
330
343
330
344
330
345
330
346
330
347
330
348
330
349
330
34A
330
34B
330
34C
330
34D
330
34E
330
34F
330
350
330
351
330
352
330
353
330
354
330
355
330
356
330
357
330
358
330
359
330
35A
330
35B
330
35C
330
35D
330
35E
330
35F
330
360
330
361
330
362
330
363
330
364
330
365
330
366
330
367
330
368
330
369
330
36A
330
36B
330
36C
330
36D
330
36E
330
36F
330
370
330
371
330
372
330
373
330
374
330
375
330
376
330
377
330
378
330
379
330
37A
330
37B
330
37C
330
37D
330
37E
330
37F
330
380
330
381
330
382
330
383
330
384
330
385
330
386
330
387
330
388
330
389
330
38A
330
38B
330
38C
330
38D
330
38E
330
38F
330
390
330
391
330
392
330
393
330
394
330
395
330
396
330
397
330
398
330
399
330
39A
330
39B
330
39C
330
39D
330
39E
330
39F
330
3A0
330
3A1
330
3A2
330
3A3
330
3A4
330
3A5
330
3A6
330
3A7
330
3A8
330
3A9
330
3AA
330
3AB
330
3AC
330
3AD
330
3AE
330
3AF
330
3B0
330
3B1
330
3B2
330
3B3
330
3B4
330
3B5
330
3B6
330
3B7
330
3B8
330
3B9
330
3BA
330
3BB
330
3BC
330
3BD
330
3BE
330
3BF
330
3C0
330
3C1
330
3C2
330
3C3
330
3C4
330
3C5
330
3C6
330
3C7
330
3C8
330
3C9
330
3CA
330
3CB
330
3CC
330
3CD
330
3CE
330
3CF
330
3D0
330
3D1
330
3D2
330
3D3
330
3D4
330
3D5
330
3D6
330
3D7
330
3D8
330
3D9
330
3DA
330
3DB
330
3DC
330
3DD
330
3DE
330
3DF
330
3E0
330
3E1
330
3E2
330
3E3
330
3E4
330
3E5
330
3E6
330
3E7
330
3E8
330
3E9
330
3EA
330
3EB
330
3EC
330
3ED
330
3EE
330
3EF
330
3F0
330
3F1
330
3F2
330
3F3
330
3F4
330
3F5
330
3F6
330
3F7
330
3F8
330
3F9
330
3FA
330
3FB
330
3FC
330
3FD
330
3FE
330
3FF
330
400
330
401
330
402
330
403
330
404
330
405
330
406
330
407
330
408
330
409
330
40A
330
40B
330
40C
330
40D
330
40E
330
40F
330
410
330
411
330
412
330
413
 92
1
 93
23
 72
2
 10
17.0481152095
 20
2.4027328529
 40
0.048483885
 50
273.21763719
 51
303.0749121182
 73
1
 72
2
 10
17.0629546036
 20
2.379965244
 40
0.0213072145
 50
303.0488228549
 51
355.7263138674
 73
1
 72
2
 10
17.0688911042
 20
2.3799744343
 40
0.0153945295
 50
354.0454548824
 51
5.1878013979
 73
1
 72
2
 10
17.0620614151
 20
2.3797859164
 40
0.0222174455
 50
4.0793399388
 51
69.834329283
 73
1
 72
1
 10
17.0697205646
 20
2.4006414268
 11
17.059669559
 21
2.4041904287
 72
1
 10
17.059669559
 20
2.4041904287
 11
17.0679095636
 21
2.4089664314
 72
2
 10
17.0460441811
 20
2.445793323
 40
0.0428289026
 50
300.6990502959
 51
319.0591802498
 73
1
 72
2
 10
17.0660727781
 20
2.4296649696
 40
0.0171568255
 50
315.9145124245
 51
16.0049121283
 73
1
 72
2
 10
17.0611211659
 20
2.4263113051
 40
0.0229166529
 50
20.6563876465
 51
62.3316896973
 73
1
 72
2
 10
17.0404590422
 20
2.3933827403
 40
0.061747717
 50
59.5385584989
 51
90.0050977555
 73
1
 72
1
 10
17.0404535484
 20
2.455130457
 11
16.8743904563
 21
2.455130457
 72
2
 10
16.8743904545
 20
2.4526554575
 40
0.0024749995
 50
89.9999571958
 51
180.0000428043
 73
1
 72
1
 10
16.8719154549
 20
2.4526554556
 11
16.8719154549
 21
2.4328554446
 72
2
 10
16.8743904545
 20
2.4328554428
 40
0.0024749995
 50
179.9999571957
 51
270.0000428043
 73
1
 72
1
 10
16.8743904563
 20
2.4303804433
 11
16.8983324696
 21
2.4303804433
 72
2
 10
16.8983324714
 20
2.4279054437
 40
0.0024749995
 50
359.9999571957
 51
90.0000428043
 73
1
 72
1
 10
16.9008074709
 20
2.4279054419
 11
16.9008074709
 21
2.3815504162
 72
2
 10
16.8983324714
 20
2.3815504143
 40
0.0024749995
 50
269.9999571958
 51
0.0000428043
 73
1
 72
1
 10
16.8983324696
 20
2.3790754148
 11
16.8743904563
 21
2.3790754148
 72
2
 10
16.8743904545
 20
2.3766004153
 40
0.0024749995
 50
89.9999571958
 51
180.0000428043
 73
1
 72
1
 10
16.8719154549
 20
2.3766004134
 11
16.8719154549
 21
2.3568004025
 72
2
 10
16.8743904545
 20
2.3568004006
 40
0.0024749995
 50
179.9999571957
 51
270.0000428042
 73
1
 72
1
 10
16.8743904563
 20
2.3543254011
 11
17.0508365542
 21
2.3543254011
 97
267
330
309
330
30A
330
30B
330
30C
330
30D
330
30E
330
30F
330
310
330
311
330
312
330
313
330
314
330
315
330
316
330
317
330
318
330
319
330
31A
330
31B
330
31C
330
31D
330
31E
330
31F
330
320
330
321
330
322
330
323
330
324
330
325
330
326
330
327
330
328
330
329
330
32A
330
32B
330
32C
330
32D
330
32E
330
32F
330
330
330
331
330
332
330
333
330
334
330
335
330
336
330
337
330
338
330
339
330
33A
330
33B
330
33C
330
33D
330
33E
330
33F
330
340
330
341
330
342
330
343
330
344
330
345
330
346
330
347
330
348
330
349
330
34A
330
34B
330
34C
330
34D
330
34E
330
34F
330
350
330
351
330
352
330
353
330
354
330
355
330
356
330
357
330
358
330
359
330
35A
330
35B
330
35C
330
35D
330
35E
330
35F
330
360
330
361
330
362
330
363
330
364
330
365
330
366
330
367
330
368
330
369
330
36A
330
36B
330
36C
330
36D
330
36E
330
36F
330
370
330
371
330
372
330
373
330
374
330
375
330
376
330
377
330
378
330
379
330
37A
330
37B
330
37C
330
37D
330
37E
330
37F
330
380
330
381
330
382
330
383
330
384
330
385
330
386
330
387
330
388
330
389
330
38A
330
38B
330
38C
330
38D
330
38E
330
38F
330
390
330
391
330
392
330
393
330
394
330
395
330
396
330
397
330
398
330
399
330
39A
330
39B
330
39C
330
39D
330
39E
330
39F
330
3A0
330
3A1
330
3A2
330
3A3
330
3A4
330
3A5
330
3A6
330
3A7
330
3A8
330
3A9
330
3AA
330
3AB
330
3AC
330
3AD
330
3AE
330
3AF
330
3B0
330
3B1
330
3B2
330
3B3
330
3B4
330
3B5
330
3B6
330
3B7
330
3B8
330
3B9
330
3BA
330
3BB
330
3BC
330
3BD
330
3BE
330
3BF
330
3C0
330
3C1
330
3C2
330
3C3
330
3C4
330
3C5
330
3C6
330
3C7
330
3C8
330
3C9
330
3CA
330
3CB
330
3CC
330
3CD
330
3CE
330
3CF
330
3D0
330
3D1
330
3D2
330
3D3
330
3D4
330
3D5
330
3D6
330
3D7
330
3D8
330
3D9
330
3DA
330
3DB
330
3DC
330
3DD
330
3DE
330
3DF
330
3E0
330
3E1
330
3E2
330
3E3
330
3E4
330
3E5
330
3E6
330
3E7
330
3E8
330
3E9
330
3EA
330
3EB
330
3EC
330
3ED
330
3EE
330
3EF
330
3F0
330
3F1
330
3F2
330
3F3
330
3F4
330
3F5
330
3F6
330
3F7
330
3F8
330
3F9
330
3FA
330
3FB
330
3FC
330
3FD
330
3FE
330
3FF
330
400
330
401
330
402
330
403
330
404
330
405
330
406
330
407
330
408
330
409
330
40A
330
40B
330
40C
330
40D
330
40E
330
40F
330
410
330
411
330
412
330
413
 92
1
 93
32
 72
2
 10
17.1857496308
 20
2.3568004006
 40
0.0024749995
 50
269.9999571958
 51
0.0000428044
 73
1
 72
1
 10
17.1882246303
 20
2.3568004025
 11
17.1882246303
 21
2.3766004134
 72
2
 10
17.1857496308
 20
2.3766004153
 40
0.0024749995
 50
359.9999571957
 51
90.0000428043
 73
1
 72
1
 10
17.185749629
 20
2.3790754148
 11
17.1744666227
 21
2.3790754148
 72
2
 10
17.1744665134
 20
2.3815504549
 40
0.0024750401
 50
147.6063258011
 51
270.0025305754
 73
1
 72
1
 10
17.1723766216
 20
2.3828764169
 11
17.1778926246
 21
2.3915704217
 72
2
 10
17.1799825555
 20
2.3902442221
 40
0.0024752003
 50
89.998372645
 51
147.602165307
 73
1
 72
1
 10
17.1799826258
 20
2.3927194224
 11
17.2148606451
 21
2.3927194224
 72
2
 10
17.2148601055
 20
2.3902439622
 40
0.0024754602
 50
32.8959418574
 51
89.9875097202
 73
1
 72
1
 10
17.2169386463
 20
2.3915884218
 11
17.2225646494
 21
2.3828954169
 72
2
 10
17.2204866271
 20
2.3815506219
 40
0.0024752071
 50
270.0004896793
 51
32.9089806818
 73
1
 72
1
 10
17.2204866482
 20
2.3790754148
 11
17.2060356402
 21
2.3790754148
 72
2
 10
17.2060356384
 20
2.3766004153
 40
0.0024749995
 50
89.9999571958
 51
180.0000428043
 73
1
 72
1
 10
17.2035606388
 20
2.3766004134
 11
17.2035606388
 21
2.3568004025
 72
2
 10
17.2060356384
 20
2.3568004006
 40
0.0024749995
 50
179.9999571957
 51
270.0000428042
 73
1
 72
1
 10
17.2060356402
 20
2.3543254011
 11
17.3113166986
 21
2.3543254011
 72
2
 10
17.3113167005
 20
2.3568004006
 40
0.0024749995
 50
269.9999571957
 51
0.0000428043
 73
1
 72
1
 10
17.3137917
 20
2.3568004025
 11
17.3137917
 21
2.3766004134
 72
2
 10
17.3113167005
 20
2.3766004153
 40
0.0024749995
 50
359.9999571957
 51
90.0000428043
 73
1
 72
1
 10
17.3113166986
 20
2.3790754148
 11
17.2913006875
 21
2.3790754148
 72
2
 10
17.291300808
 20
2.3815494558
 40
0.002474041
 50
212.9056413127
 51
269.9972091756
 73
1
 72
1
 10
17.2892236864
 20
2.3802054154
 11
17.2414676599
 21
2.4540004564
 72
2
 10
17.2393900382
 20
2.4526554968
 40
0.0024749602
 50
32.9172174468
 51
90.0087853096
 73
1
 72
1
 10
17.2393896587
 20
2.455130457
 11
17.182214627
 21
2.455130457
 72
2
 10
17.1822145567
 20
2.4526552567
 40
0.0024752003
 50
89.998372645
 51
147.602165307
 73
1
 72
1
 10
17.1801246258
 20
2.4539814564
 11
17.1333245999
 21
2.3802244155
 72
2
 10
17.131234669
 20
2.3815506151
 40
0.0024752003
 50
269.998372645
 51
327.602165307
 73
1
 72
1
 10
17.1312345987
 20
2.3790754148
 11
17.1083735861
 21
2.3790754148
 72
2
 10
17.1083735842
 20
2.3766004153
 40
0.0024749995
 50
89.9999571957
 51
180.0000428043
 73
1
 72
1
 10
17.1058985847
 20
2.3766004134
 11
17.1058985847
 21
2.3568004025
 72
2
 10
17.1083735842
 20
2.3568004006
 40
0.0024749995
 50
179.9999571957
 51
270.0000428043
 73
1
 72
1
 10
17.1083735861
 20
2.3543254011
 11
17.185749629
 21
2.3543254011
 97
267
330
309
330
30A
330
30B
330
30C
330
30D
330
30E
330
30F
330
310
330
311
330
312
330
313
330
314
330
315
330
316
330
317
330
318
330
319
330
31A
330
31B
330
31C
330
31D
330
31E
330
31F
330
320
330
321
330
322
330
323
330
324
330
325
330
326
330
327
330
328
330
329
330
32A
330
32B
330
32C
330
32D
330
32E
330
32F
330
330
330
331
330
332
330
333
330
334
330
335
330
336
330
337
330
338
330
339
330
33A
330
33B
330
33C
330
33D
330
33E
330
33F
330
340
330
341
330
342
330
343
330
344
330
345
330
346
330
347
330
348
330
349
330
34A
330
34B
330
34C
330
34D
330
34E
330
34F
330
350
330
351
330
352
330
353
330
354
330
355
330
356
330
357
330
358
330
359
330
35A
330
35B
330
35C
330
35D
330
35E
330
35F
330
360
330
361
330
362
330
363
330
364
330
365
330
366
330
367
330
368
330
369
330
36A
330
36B
330
36C
330
36D
330
36E
330
36F
330
370
330
371
330
372
330
373
330
374
330
375
330
376
330
377
330
378
330
379
330
37A
330
37B
330
37C
330
37D
330
37E
330
37F
330
380
330
381
330
382
330
383
330
384
330
385
330
386
330
387
330
388
330
389
330
38A
330
38B
330
38C
330
38D
330
38E
330
38F
330
390
330
391
330
392
330
393
330
394
330
395
330
396
330
397
330
398
330
399
330
39A
330
39B
330
39C
330
39D
330
39E
330
39F
330
3A0
330
3A1
330
3A2
330
3A3
330
3A4
330
3A5
330
3A6
330
3A7
330
3A8
330
3A9
330
3AA
330
3AB
330
3AC
330
3AD
330
3AE
330
3AF
330
3B0
330
3B1
330
3B2
330
3B3
330
3B4
330
3B5
330
3B6
330
3B7
330
3B8
330
3B9
330
3BA
330
3BB
330
3BC
330
3BD
330
3BE
330
3BF
330
3C0
330
3C1
330
3C2
330
3C3
330
3C4
330
3C5
330
3C6
330
3C7
330
3C8
330
3C9
330
3CA
330
3CB
330
3CC
330
3CD
330
3CE
330
3CF
330
3D0
330
3D1
330
3D2
330
3D3
330
3D4
330
3D5
330
3D6
330
3D7
330
3D8
330
3D9
330
3DA
330
3DB
330
3DC
330
3DD
330
3DE
330
3DF
330
3E0
330
3E1
330
3E2
330
3E3
330
3E4
330
3E5
330
3E6
330
3E7
330
3E8
330
3E9
330
3EA
330
3EB
330
3EC
330
3ED
330
3EE
330
3EF
330
3F0
330
3F1
330
3F2
330
3F3
330
3F4
330
3F5
330
3F6
330
3F7
330
3F8
330
3F9
330
3FA
330
3FB
330
3FC
330
3FD
330
3FE
330
3FF
330
400
330
401
330
402
330
403
330
404
330
405
330
406
330
407
330
408
330
409
330
40A
330
40B
330
40C
330
40D
330
40E
330
40F
330
410
330
411
330
412
330
413
 92
1
 93
6
 72
2
 10
16.963795504
 20
2.3815504143
 40
0.0024749995
 50
179.9999571957
 51
270.0000428043
 73
1
 72
1
 10
16.9613205045
 20
2.3815504162
 11
16.9613205045
 21
2.3939254231
 72
2
 10
16.963795504
 20
2.3939254249
 40
0.0024749995
 50
89.9999571957
 51
180.0000428043
 73
1
 72
1
 10
16.9637955059
 20
2.3964004244
 11
17.0051585288
 21
2.3964004244
 72
2
 10
17.0051585288
 20
2.3877379196
 40
0.0086625048
 50
270.0
 51
90.0
 73
1
 72
1
 10
17.0051585288
 20
2.3790754148
 11
16.9637955059
 21
2.3790754148
 97
267
330
309
330
30A
330
30B
330
30C
330
30D
330
30E
330
30F
330
310
330
311
330
312
330
313
330
314
330
315
330
316
330
317
330
318
330
319
330
31A
330
31B
330
31C
330
31D
330
31E
330
31F
330
320
330
321
330
322
330
323
330
324
330
325
330
326
330
327
330
328
330
329
330
32A
330
32B
330
32C
330
32D
330
32E
330
32F
330
330
330
331
330
332
330
333
330
334
330
335
330
336
330
337
330
338
330
339
330
33A
330
33B
330
33C
330
33D
330
33E
330
33F
330
340
330
341
330
342
330
343
330
344
330
345
330
346
330
347
330
348
330
349
330
34A
330
34B
330
34C
330
34D
330
34E
330
34F
330
350
330
351
330
352
330
353
330
354
330
355
330
356
330
357
330
358
330
359
330
35A
330
35B
330
35C
330
35D
330
35E
330
35F
330
360
330
361
330
362
330
363
330
364
330
365
330
366
330
367
330
368
330
369
330
36A
330
36B
330
36C
330
36D
330
36E
330
36F
330
370
330
371
330
372
330
373
330
374
330
375
330
376
330
377
330
378
330
379
330
37A
330
37B
330
37C
330
37D
330
37E
330
37F
330
380
330
381
330
382
330
383
330
384
330
385
330
386
330
387
330
388
330
389
330
38A
330
38B
330
38C
330
38D
330
38E
330
38F
330
390
330
391
330
392
330
393
330
394
330
395
330
396
330
397
330
398
330
399
330
39A
330
39B
330
39C
330
39D
330
39E
330
39F
330
3A0
330
3A1
330
3A2
330
3A3
330
3A4
330
3A5
330
3A6
330
3A7
330
3A8
330
3A9
330
3AA
330
3AB
330
3AC
330
3AD
330
3AE
330
3AF
330
3B0
330
3B1
330
3B2
330
3B3
330
3B4
330
3B5
330
3B6
330
3B7
330
3B8
330
3B9
330
3BA
330
3BB
330
3BC
330
3BD
330
3BE
330
3BF
330
3C0
330
3C1
330
3C2
330
3C3
330
3C4
330
3C5
330
3C6
330
3C7
330
3C8
330
3C9
330
3CA
330
3CB
330
3CC
330
3CD
330
3CE
330
3CF
330
3D0
330
3D1
330
3D2
330
3D3
330
3D4
330
3D5
330
3D6
330
3D7
330
3D8
330
3D9
330
3DA
330
3DB
330
3DC
330
3DD
330
3DE
330
3DF
330
3E0
330
3E1
330
3E2
330
3E3
330
3E4
330
3E5
330
3E6
330
3E7
330
3E8
330
3E9
330
3EA
330
3EB
330
3EC
330
3ED
330
3EE
330
3EF
330
3F0
330
3F1
330
3F2
330
3F3
330
3F4
330
3F5
330
3F6
330
3F7
330
3F8
330
3F9
330
3FA
330
3FB
330
3FC
330
3FD
330
3FE
330
3FF
330
400
330
401
330
402
330
403
330
404
330
405
330
406
330
407
330
408
330
409
330
40A
330
40B
330
40C
330
40D
330
40E
330
40F
330
410
330
411
330
412
330
413
 92
1
 93
13
 72
2
 10
18.1572301659
 20
2.415180433
 40
0.0024749995
 50
179.9999571957
 51
270.0000428043
 73
1
 72
1
 10
18.1547551663
 20
2.4151804348
 11
18.1547551663
 21
2.4279054419
 72
2
 10
18.1572301659
 20
2.4279054437
 40
0.0024749995
 50
89.9999571957
 51
180.0000428043
 73
1
 72
1
 10
18.1572301677
 20
2.4303804433
 11
18.1940311881
 21
2.4303804433
 72
2
 10
18.1924863006
 20
2.4019259643
 40
0.0284963867
 50
70.3834917948
 51
86.8922743861
 73
1
 72
2
 10
18.1973459106
 20
2.4149676972
 40
0.0145814632
 50
54.6746025112
 51
71.1660573124
 73
1
 72
2
 10
18.2024754016
 20
2.4218216224
 40
0.0060275915
 50
20.9055592135
 51
56.7851676243
 73
1
 72
2
 10
18.2037759605
 20
2.4224819047
 40
0.0045795888
 50
355.6235353944
 51
18.9942678268
 73
1
 72
2
 10
18.2025691502
 20
2.4227756809
 40
0.0058087709
 50
318.8515287446
 51
353.6422345323
 73
1
 72
2
 10
18.198398534
 20
2.4260095887
 40
0.0110815393
 50
306.758405961
 51
320.4502234234
 73
1
 72
2
 10
18.1927693431
 20
2.4337504172
 40
0.0206523367
 50
289.6883413472
 51
306.4184925496
 73
1
 72
2
 10
18.1908418374
 20
2.4381440645
 40
0.0254407115
 50
270.7327484175
 51
290.441894219
 73
1
 72
1
 10
18.1911671865
 20
2.4127054335
 11
18.1572301677
 21
2.4127054335
 97
267
330
309
330
30A
330
30B
330
30C
330
30D
330
30E
330
30F
330
310
330
311
330
312
330
313
330
314
330
315
330
316
330
317
330
318
330
319
330
31A
330
31B
330
31C
330
31D
330
31E
330
31F
330
320
330
321
330
322
330
323
330
324
330
325
330
326
330
327
330
328
330
329
330
32A
330
32B
330
32C
330
32D
330
32E
330
32F
330
330
330
331
330
332
330
333
330
334
330
335
330
336
330
337
330
338
330
339
330
33A
330
33B
330
33C
330
33D
330
33E
330
33F
330
340
330
341
330
342
330
343
330
344
330
345
330
346
330
347
330
348
330
349
330
34A
330
34B
330
34C
330
34D
330
34E
330
34F
330
350
330
351
330
352
330
353
330
354
330
355
330
356
330
357
330
358
330
359
330
35A
330
35B
330
35C
330
35D
330
35E
330
35F
330
360
330
361
330
362
330
363
330
364
330
365
330
366
330
367
330
368
330
369
330
36A
330
36B
330
36C
330
36D
330
36E
330
36F
330
370
330
371
330
372
330
373
330
374
330
375
330
376
330
377
330
378
330
379
330
37A
330
37B
330
37C
330
37D
330
37E
330
37F
330
380
330
381
330
382
330
383
330
384
330
385
330
386
330
387
330
388
330
389
330
38A
330
38B
330
38C
330
38D
330
38E
330
38F
330
390
330
391
330
392
330
393
330
394
330
395
330
396
330
397
330
398
330
399
330
39A
330
39B
330
39C
330
39D
330
39E
330
39F
330
3A0
330
3A1
330
3A2
330
3A3
330
3A4
330
3A5
330
3A6
330
3A7
330
3A8
330
3A9
330
3AA
330
3AB
330
3AC
330
3AD
330
3AE
330
3AF
330
3B0
330
3B1
330
3B2
330
3B3
330
3B4
330
3B5
330
3B6
330
3B7
330
3B8
330
3B9
330
3BA
330
3BB
330
3BC
330
3BD
330
3BE
330
3BF
330
3C0
330
3C1
330
3C2
330
3C3
330
3C4
330
3C5
330
3C6
330
3C7
330
3C8
330
3C9
330
3CA
330
3CB
330
3CC
330
3CD
330
3CE
330
3CF
330
3D0
330
3D1
330
3D2
330
3D3
330
3D4
330
3D5
330
3D6
330
3D7
330
3D8
330
3D9
330
3DA
330
3DB
330
3DC
330
3DD
330
3DE
330
3DF
330
3E0
330
3E1
330
3E2
330
3E3
330
3E4
330
3E5
330
3E6
330
3E7
330
3E8
330
3E9
330
3EA
330
3EB
330
3EC
330
3ED
330
3EE
330
3EF
330
3F0
330
3F1
330
3F2
330
3F3
330
3F4
330
3F5
330
3F6
330
3F7
330
3F8
330
3F9
330
3FA
330
3FB
330
3FC
330
3FD
330
3FE
330
3FF
330
400
330
401
330
402
330
403
330
404
330
405
330
406
330
407
330
408
330
409
330
40A
330
40B
330
40C
330
40D
330
40E
330
40F
330
410
330
411
330
412
330
413
 92
1
 93
6
 72
2
 10
17.0051585288
 20
2.4217179385
 40
0.0086625048
 50
270.0
 51
90.0
 73
1
 72
1
 10
17.0051585288
 20
2.4303804433
 11
16.9637955059
 21
2.4303804433
 72
2
 10
16.963795504
 20
2.4279054437
 40
0.0024749995
 50
89.9999571957
 51
180.0000428043
 73
1
 72
1
 10
16.9613205045
 20
2.4279054419
 11
16.9613205045
 21
2.415530435
 72
2
 10
16.963795504
 20
2.4155304332
 40
0.0024749995
 50
179.9999571957
 51
270.0000428043
 73
1
 72
1
 10
16.9637955059
 20
2.4130554337
 11
17.0051585288
 21
2.4130554337
 97
267
330
309
330
30A
330
30B
330
30C
330
30D
330
30E
330
30F
330
310
330
311
330
312
330
313
330
314
330
315
330
316
330
317
330
318
330
319
330
31A
330
31B
330
31C
330
31D
330
31E
330
31F
330
320
330
321
330
322
330
323
330
324
330
325
330
326
330
327
330
328
330
329
330
32A
330
32B
330
32C
330
32D
330
32E
330
32F
330
330
330
331
330
332
330
333
330
334
330
335
330
336
330
337
330
338
330
339
330
33A
330
33B
330
33C
330
33D
330
33E
330
33F
330
340
330
341
330
342
330
343
330
344
330
345
330
346
330
347
330
348
330
349
330
34A
330
34B
330
34C
330
34D
330
34E
330
34F
330
350
330
351
330
352
330
353
330
354
330
355
330
356
330
357
330
358
330
359
330
35A
330
35B
330
35C
330
35D
330
35E
330
35F
330
360
330
361
330
362
330
363
330
364
330
365
330
366
330
367
330
368
330
369
330
36A
330
36B
330
36C
330
36D
330
36E
330
36F
330
370
330
371
330
372
330
373
330
374
330
375
330
376
330
377
330
378
330
379
330
37A
330
37B
330
37C
330
37D
330
37E
330
37F
330
380
330
381
330
382
330
383
330
384
330
385
330
386
330
387
330
388
330
389
330
38A
330
38B
330
38C
330
38D
330
38E
330
38F
330
390
330
391
330
392
330
393
330
394
330
395
330
396
330
397
330
398
330
399
330
39A
330
39B
330
39C
330
39D
330
39E
330
39F
330
3A0
330
3A1
330
3A2
330
3A3
330
3A4
330
3A5
330
3A6
330
3A7
330
3A8
330
3A9
330
3AA
330
3AB
330
3AC
330
3AD
330
3AE
330
3AF
330
3B0
330
3B1
330
3B2
330
3B3
330
3B4
330
3B5
330
3B6
330
3B7
330
3B8
330
3B9
330
3BA
330
3BB
330
3BC
330
3BD
330
3BE
330
3BF
330
3C0
330
3C1
330
3C2
330
3C3
330
3C4
330
3C5
330
3C6
330
3C7
330
3C8
330
3C9
330
3CA
330
3CB
330
3CC
330
3CD
330
3CE
330
3CF
330
3D0
330
3D1
330
3D2
330
3D3
330
3D4
330
3D5
330
3D6
330
3D7
330
3D8
330
3D9
330
3DA
330
3DB
330
3DC
330
3DD
330
3DE
330
3DF
330
3E0
330
3E1
330
3E2
330
3E3
330
3E4
330
3E5
330
3E6
330
3E7
330
3E8
330
3E9
330
3EA
330
3EB
330
3EC
330
3ED
330
3EE
330
3EF
330
3F0
330
3F1
330
3F2
330
3F3
330
3F4
330
3F5
330
3F6
330
3F7
330
3F8
330
3F9
330
3FA
330
3FB
330
3FC
330
3FD
330
3FE
330
3FF
330
400
330
401
330
402
330
403
330
404
330
405
330
406
330
407
330
408
330
409
330
40A
330
40B
330
40C
330
40D
330
40E
330
40F
330
410
330
411
330
412
330
413
 92
1
 93
8
 72
2
 10
17.2090556207
 20
2.4161446411
 40
0.0024752071
 50
270.0004896793
 51
32.9089806818
 73
1
 72
1
 10
17.211133643
 20
2.4174894361
 11
17.203874639
 21
2.4287054423
 72
2
 10
17.2017960982
 20
2.4273609828
 40
0.0024754602
 50
32.8959418573
 51
89.9875097202
 73
1
 72
1
 10
17.2017966379
 20
2.429836443
 11
17.1956156344
 21
2.429836443
 72
2
 10
17.1956155641
 20
2.4273612427
 40
0.0024752003
 50
89.998372645
 51
147.6021653069
 73
1
 72
1
 10
17.1935256333
 20
2.4286874423
 11
17.1864086293
 21
2.4174704361
 72
2
 10
17.1884985212
 20
2.4161444741
 40
0.0024750401
 50
147.6063258012
 51
270.0025305753
 73
1
 72
1
 10
17.1884986305
 20
2.413669434
 11
17.2090556419
 21
2.413669434
 97
267
330
309
330
30A
330
30B
330
30C
330
30D
330
30E
330
30F
330
310
330
311
330
312
330
313
330
314
330
315
330
316
330
317
330
318
330
319
330
31A
330
31B
330
31C
330
31D
330
31E
330
31F
330
320
330
321
330
322
330
323
330
324
330
325
330
326
330
327
330
328
330
329
330
32A
330
32B
330
32C
330
32D
330
32E
330
32F
330
330
330
331
330
332
330
333
330
334
330
335
330
336
330
337
330
338
330
339
330
33A
330
33B
330
33C
330
33D
330
33E
330
33F
330
340
330
341
330
342
330
343
330
344
330
345
330
346
330
347
330
348
330
349
330
34A
330
34B
330
34C
330
34D
330
34E
330
34F
330
350
330
351
330
352
330
353
330
354
330
355
330
356
330
357
330
358
330
359
330
35A
330
35B
330
35C
330
35D
330
35E
330
35F
330
360
330
361
330
362
330
363
330
364
330
365
330
366
330
367
330
368
330
369
330
36A
330
36B
330
36C
330
36D
330
36E
330
36F
330
370
330
371
330
372
330
373
330
374
330
375
330
376
330
377
330
378
330
379
330
37A
330
37B
330
37C
330
37D
330
37E
330
37F
330
380
330
381
330
382
330
383
330
384
330
385
330
386
330
387
330
388
330
389
330
38A
330
38B
330
38C
330
38D
330
38E
330
38F
330
390
330
391
330
392
330
393
330
394
330
395
330
396
330
397
330
398
330
399
330
39A
330
39B
330
39C
330
39D
330
39E
330
39F
330
3A0
330
3A1
330
3A2
330
3A3
330
3A4
330
3A5
330
3A6
330
3A7
330
3A8
330
3A9
330
3AA
330
3AB
330
3AC
330
3AD
330
3AE
330
3AF
330
3B0
330
3B1
330
3B2
330
3B3
330
3B4
330
3B5
330
3B6
330
3B7
330
3B8
330
3B9
330
3BA
330
3BB
330
3BC
330
3BD
330
3BE
330
3BF
330
3C0
330
3C1
330
3C2
330
3C3
330
3C4
330
3C5
330
3C6
330
3C7
330
3C8
330
3C9
330
3CA
330
3CB
330
3CC
330
3CD
330
3CE
330
3CF
330
3D0
330
3D1
330
3D2
330
3D3
330
3D4
330
3D5
330
3D6
330
3D7
330
3D8
330
3D9
330
3DA
330
3DB
330
3DC
330
3DD
330
3DE
330
3DF
330
3E0
330
3E1
330
3E2
330
3E3
330
3E4
330
3E5
330
3E6
330
3E7
330
3E8
330
3E9
330
3EA
330
3EB
330
3EC
330
3ED
330
3EE
330
3EF
330
3F0
330
3F1
330
3F2
330
3F3
330
3F4
330
3F5
330
3F6
330
3F7
330
3F8
330
3F9
330
3FA
330
3FB
330
3FC
330
3FD
330
3FE
330
3FF
330
400
330
401
330
402
330
403
330
404
330
405
330
406
330
407
330
408
330
409
330
40A
330
40B
330
40C
330
40D
330
40E
330
40F
330
410
330
411
330
412
330
413
 92
1
 93
1
 72
3
 10
17.573550844
 20
2.4034764283
 11
-0.8250004575
 21
0.0
 40
0.218572
 50
0.0
 51
-0.0
 73
1
 97
267
330
309
330
30A
330
30B
330
30C
330
30D
330
30E
330
30F
330
310
330
311
330
312
330
313
330
314
330
315
330
316
330
317
330
318
330
319
330
31A
330
31B
330
31C
330
31D
330
31E
330
31F
330
320
330
321
330
322
330
323
330
324
330
325
330
326
330
327
330
328
330
329
330
32A
330
32B
330
32C
330
32D
330
32E
330
32F
330
330
330
331
330
332
330
333
330
334
330
335
330
336
330
337
330
338
330
339
330
33A
330
33B
330
33C
330
33D
330
33E
330
33F
330
340
330
341
330
342
330
343
330
344
330
345
330
346
330
347
330
348
330
349
330
34A
330
34B
330
34C
330
34D
330
34E
330
34F
330
350
330
351
330
352
330
353
330
354
330
355
330
356
330
357
330
358
330
359
330
35A
330
35B
330
35C
330
35D
330
35E
330
35F
330
360
330
361
330
362
330
363
330
364
330
365
330
366
330
367
330
368
330
369
330
36A
330
36B
330
36C
330
36D
330
36E
330
36F
330
370
330
371
330
372
330
373
330
374
330
375
330
376
330
377
330
378
330
379
330
37A
330
37B
330
37C
330
37D
330
37E
330
37F
330
380
330
381
330
382
330
383
330
384
330
385
330
386
330
387
330
388
330
389
330
38A
330
38B
330
38C
330
38D
330
38E
330
38F
330
390
330
391
330
392
330
393
330
394
330
395
330
396
330
397
330
398
330
399
330
39A
330
39B
330
39C
330
39D
330
39E
330
39F
330
3A0
330
3A1
330
3A2
330
3A3
330
3A4
330
3A5
330
3A6
330
3A7
330
3A8
330
3A9
330
3AA
330
3AB
330
3AC
330
3AD
330
3AE
330
3AF
330
3B0
330
3B1
330
3B2
330
3B3
330
3B4
330
3B5
330
3B6
330
3B7
330
3B8
330
3B9
330
3BA
330
3BB
330
3BC
330
3BD
330
3BE
330
3BF
330
3C0
330
3C1
330
3C2
330
3C3
330
3C4
330
3C5
330
3C6
330
3C7
330
3C8
330
3C9
330
3CA
330
3CB
330
3CC
330
3CD
330
3CE
330
3CF
330
3D0
330
3D1
330
3D2
330
3D3
330
3D4
330
3D5
330
3D6
330
3D7
330
3D8
330
3D9
330
3DA
330
3DB
330
3DC
330
3DD
330
3DE
330
3DF
330
3E0
330
3E1
330
3E2
330
3E3
330
3E4
330
3E5
330
3E6
330
3E7
330
3E8
330
3E9
330
3EA
330
3EB
330
3EC
330
3ED
330
3EE
330
3EF
330
3F0
330
3F1
330
3F2
330
3F3
330
3F4
330
3F5
330
3F6
330
3F7
330
3F8
330
3F9
330
3FA
330
3FB
330
3FC
330
3FD
330
3FE
330
3FF
330
400
330
401
330
402
330
403
330
404
330
405
330
406
330
407
330
408
330
409
330
40A
330
40B
330
40C
330
40D
330
40E
330
40F
330
410
330
411
330
412
330
413
 75
0
 76
1
 98
1
 10
0.0
 20
0.0
  0
LINE
  5
415
100
AcDbEntity
  8
0
100
AcDbLine
 62
7
  6
CONTINUOUS
 10
21.05
 20
2.67
 11
14.7
 21
2.67
  0
LINE
  5
416
100
AcDbEntity
  8
0
100
AcDbLine
 62
7
  6
CONTINUOUS
 10
6.007
 20
0.75
 11
6.007
 21
0.5
  0
LINE
  5
417
100
AcDbEntity
  8
0
100
AcDbLine
 62
7
  6
CONTINUOUS
 10
6.007
 20
15.75
 11
6.007
 21
16.0
  0
LINE
  5
418
100
AcDbEntity
  8
0
100
AcDbLine
 62
7
  6
CONTINUOUS
 10
0.814
 20
8.163397
 11
0.964
 21
8.25
  0
LINE
  5
419
100
AcDbEntity
  8
0
100
AcDbLine
 62
7
  6
CONTINUOUS
 10
0.964
 20
8.25
 11
0.814
 21
8.336603
  0
LINE
  5
41A
100
AcDbEntity
  8
0
100
AcDbLine
 62
7
  6
CONTINUOUS
 10
0.964
 20
4.4
 11
0.714
 21
4.4
  0
LINE
  5
41B
100
AcDbEntity
  8
0
100
AcDbLine
 62
7
  6
CONTINUOUS
 10
21.05
 20
4.4
 11
21.3
 21
4.4
  0
LINE
  5
41C
100
AcDbEntity
  8
0
100
AcDbLine
 62
7
  6
CONTINUOUS
 10
11.093603
 20
0.6
 11
11.007
 21
0.75
  0
LINE
  5
41D
100
AcDbEntity
  8
0
100
AcDbLine
 62
7
  6
CONTINUOUS
 10
11.007
 20
15.75
 11
11.093603
 21
15.9
  0
LINE
  5
41E
100
AcDbEntity
  8
0
100
AcDbLine
 62
7
  6
CONTINUOUS
 10
8.507
 20
0.75
 11
8.507
 21
0.5
  0
LINE
  5
41F
100
AcDbEntity
  8
0
100
AcDbLine
 62
7
  6
CONTINUOUS
 10
8.507
 20
15.75
 11
8.507
 21
16.0
  0
LINE
  5
420
100
AcDbEntity
  8
0
100
AcDbLine
 62
7
  6
CONTINUOUS
 10
11.007
 20
0.75
 11
11.007
 21
0.5
  0
LINE
  5
421
100
AcDbEntity
  8
0
100
AcDbLine
 62
7
  6
CONTINUOUS
 10
11.007
 20
15.75
 11
11.007
 21
16.0
  0
LINE
  5
422
100
AcDbEntity
  8
0
100
AcDbLine
 62
7
  6
CONTINUOUS
 10
0.964
 20
8.25
 11
0.714
 21
8.25
  0
LINE
  5
423
100
AcDbEntity
  8
0
100
AcDbLine
 62
7
  6
CONTINUOUS
 10
21.05
 20
8.25
 11
21.3
 21
8.25
  0
LINE
  5
424
100
AcDbEntity
  8
0
100
AcDbLine
 62
7
  6
CONTINUOUS
 10
13.507
 20
0.75
 11
13.507
 21
0.5
  0
LINE
  5
425
100
AcDbEntity
  8
0
100
AcDbLine
 62
7
  6
CONTINUOUS
 10
13.507
 20
15.75
 11
13.507
 21
16.0
  0
LINE
  5
426
100
AcDbEntity
  8
0
100
AcDbLine
 62
7
  6
CONTINUOUS
 10
14.7
 20
2.67
 11
14.7
 21
0.75
  0
LINE
  5
427
100
AcDbEntity
  8
0
100
AcDbLine
 62
7
  6
CONTINUOUS
 10
11.007
 20
0.75
 11
10.920397
 21
0.6
  0
LINE
  5
428
100
AcDbEntity
  8
0
100
AcDbLine
 62
7
  6
CONTINUOUS
 10
0.964
 20
12.1
 11
0.714
 21
12.1
  0
LINE
  5
429
100
AcDbEntity
  8
0
100
AcDbLine
 62
7
  6
CONTINUOUS
 10
21.05
 20
12.1
 11
21.3
 21
12.1
  0
LINE
  5
42A
100
AcDbEntity
  8
0
100
AcDbLine
 62
7
  6
CONTINUOUS
 10
10.920397
 20
15.9
 11
11.007
 21
15.75
  0
LINE
  5
42B
100
AcDbEntity
  8
0
100
AcDbLine
 62
7
  6
CONTINUOUS
 10
15.2229827477
 20
1.0139932523
 11
15.2229827477
 21
0.7919022523
  0
LINE
  5
42C
100
AcDbEntity
  8
0
100
AcDbLine
 62
7
  6
CONTINUOUS
 10
15.2229827477
 20
1.0639932523
 11
15.2229827477
 21
1.1639932523
  0
LINE
  5
42D
100
AcDbEntity
  8
0
100
AcDbLine
 62
7
  6
CONTINUOUS
 10
15.2229827477
 20
1.2139932523
 11
15.2229827477
 21
1.4360842523
  0
LINE
  5
42E
100
AcDbEntity
  8
0
100
AcDbLine
 62
7
  6
CONTINUOUS
 10
15.8276527477
 20
0.9312952523
 11
15.8276527477
 21
1.2966912523
  0
LINE
  5
42F
100
AcDbEntity
  8
0
100
AcDbLine
 62
7
  6
CONTINUOUS
 10
16.007
 20
0.75
 11
16.007
 21
0.5
  0
LINE
  5
430
100
AcDbEntity
  8
0
100
AcDbLine
 62
7
  6
CONTINUOUS
 10
16.007
 20
15.75
 11
16.007
 21
16.0
  0
LINE
  5
431
100
AcDbEntity
  8
0
100
AcDbLine
 62
7
  6
CONTINUOUS
 10
16.4340437477
 20
1.3660842523
 11
16.4340437477
 21
0.8619022523
  0
LINE
  5
432
100
AcDbEntity
  8
0
100
AcDbLine
 62
7
  6
CONTINUOUS
 10
21.2
 20
8.336603
 11
21.05
 21
8.25
  0
LINE
  5
433
100
AcDbEntity
  8
0
100
AcDbLine
 62
7
  6
CONTINUOUS
 10
21.05
 20
8.25
 11
21.2
 21
8.163397
  0
LINE
  5
434
100
AcDbEntity
  8
0
100
AcDbLine
 62
7
  6
CONTINUOUS
 10
16.7
 20
2.67
 11
16.7
 21
0.75
  0
LINE
  5
435
100
AcDbEntity
  8
0
100
AcDbLine
 62
7
  6
CONTINUOUS
 10
17.5
 20
1.37
 11
17.5
 21
1.0
  0
LINE
  5
436
100
AcDbEntity
  8
0
100
AcDbLine
 62
7
  6
CONTINUOUS
 10
18.507
 20
0.75
 11
18.507
 21
0.5
  0
LINE
  5
437
100
AcDbEntity
  8
0
100
AcDbLine
 62
7
  6
CONTINUOUS
 10
18.507
 20
15.75
 11
18.507
 21
16.0
  0
LINE
  5
438
100
AcDbEntity
  8
0
100
AcDbLine
 62
7
  6
CONTINUOUS
 10
21.05
 20
15.75
 11
0.964
 21
15.75
  0
LINE
  5
439
100
AcDbEntity
  8
0
100
AcDbLine
 62
7
  6
CONTINUOUS
 10
11.093603
 20
15.9
 11
10.920397
 21
15.9
  0
LINE
  5
43A
100
AcDbEntity
  8
0
100
AcDbLine
 62
7
  6
CONTINUOUS
 10
18.875
 20
1.0
 11
18.875
 21
0.75
  0
LINE
  5
43B
100
AcDbEntity
  8
0
100
AcDbLine
 62
7
  6
CONTINUOUS
 10
20.25
 20
1.37
 11
20.25
 21
1.0
  0
LINE
  5
43C
100
AcDbEntity
  8
0
100
AcDbLine
 62
7
  6
CONTINUOUS
 10
21.05
 20
0.75
 11
21.05
 21
15.75
  0
LINE
  5
43D
100
AcDbEntity
  8
0
100
AcDbLine
 62
7
  6
CONTINUOUS
 10
21.2
 20
8.163397
 11
21.2
 21
8.336603
  0
LWPOLYLINE
  5
43E
100
AcDbEntity
  8
0
100
AcDbPolyline
 62
7
  6
CONTINUOUS
 90
4
 70
0
 10
17.0763960159
 20
13.3185978845
 10
17.0780651274
 20
13.3112608199
 10
17.0829710946
 20
13.3044095892
 10
17.0908098067
 20
13.2985071185
  0
LINE
  5
43F
100
AcDbEntity
  8
0
100
AcDbLine
 62
7
  6
CONTINUOUS
 10
17.0763957703
 20
13.4150349523
 11
17.0763957703
 21
13.3185978845
  0
LINE
  5
440
100
AcDbEntity
  8
0
100
AcDbLine
 62
7
  6
CONTINUOUS
 10
17.0908098067
 20
13.3949441863
 11
17.0908098067
 21
13.2985071185
  0
LWPOLYLINE
  5
441
100
AcDbEntity
  8
0
100
AcDbPolyline
 62
7
  6
CONTINUOUS
 90
5
 70
0
 10
17.1604069308
 20
13.3949441864
 10
17.1624127313
 20
13.4196184017
 10
17.1683537103
 20
13.44566324
 10
17.1780014451
 20
13.4720752317
 10
17.1909837194
 20
13.4978366644
  0
LWPOLYLINE
  5
442
100
AcDbEntity
  8
0
100
AcDbPolyline
 62
7
  6
CONTINUOUS
 90
4
 70
0
 10
17.0908098067
 20
13.3949441864
 10
17.0829890083
 20
13.4008286355
 10
17.0780726489
 20
13.4076812216
 10
17.0763957703
 20
13.4150349523
  0
LWPOLYLINE
  5
443
100
AcDbEntity
  8
0
100
AcDbPolyline
 62
7
  6
CONTINUOUS
 90
4
 70
0
 10
17.3070629752
 20
13.3796752043
 10
17.310067376
 20
13.366468488
 10
17.3188981169
 20
13.3541362727
 10
17.3330077987
 20
13.3435118256
  0
LWPOLYLINE
  5
444
100
AcDbEntity
  8
0
100
AcDbPolyline
 62
7
  6
CONTINUOUS
 90
7
 70
0
 10
17.7171839239
 20
12.9368733317
 10
17.7274065626
 20
12.9323479717
 10
17.7392726974
 20
12.9295154896
 10
17.7519816136
 20
12.9285516058
 10
17.7646907769
 20
12.9295152585
 10
17.7765575706
 20
12.9323476927
 10
17.786781048
 20
12.9368733317
  0
LINE
  5
445
100
AcDbEntity
  8
0
100
AcDbLine
 62
7
  6
CONTINUOUS
 10
17.7171839239
 20
12.9368733317
 11
17.0908098067
 21
13.2985071185
  0
LINE
  5
446
100
AcDbEntity
  8
0
100
AcDbLine
 62
7
  6
CONTINUOUS
 10
17.0908098067
 20
13.3949441863
 11
17.7171839239
 21
13.0333103996
  0
LINE
  5
447
100
AcDbEntity
  8
0
100
AcDbLine
 62
7
  6
CONTINUOUS
 10
17.4039968653
 20
13.5355795479
 11
17.4039968653
 21
13.8972179725
  0
LINE
  5
448
100
AcDbEntity
  8
0
100
AcDbLine
 62
7
  6
CONTINUOUS
 10
17.4582826221
 20
13.4158385829
 11
17.4582826221
 21
13.3194015151
  0
LWPOLYLINE
  5
449
100
AcDbEntity
  8
0
100
AcDbPolyline
 62
7
  6
CONTINUOUS
 90
5
 70
0
 10
17.1135657968
 20
13.5425337294
 10
17.098071088
 20
13.5117876403
 10
17.0863845036
 20
13.4797833406
 10
17.078978891
 20
13.4472261395
 10
17.0763957703
 20
13.4150349523
  0
LINE
  5
44A
100
AcDbEntity
  8
0
100
AcDbLine
 62
7
  6
CONTINUOUS
 10
17.2527600451
 20
13.7836252397
 11
17.1135657968
 21
13.5425337294
  0
LWPOLYLINE
  5
44B
100
AcDbEntity
  8
0
100
AcDbPolyline
 62
7
  6
CONTINUOUS
 90
7
 70
0
 10
17.0908098067
 20
13.3949441864
 10
17.1010324455
 20
13.3904188263
 10
17.1128985802
 20
13.3875863442
 10
17.1256074964
 20
13.3866224604
 10
17.1383166597
 20
13.3875861131
 10
17.1501834534
 20
13.3904185473
 10
17.1604069308
 20
13.3949441864
  0
LINE
  5
44C
100
AcDbEntity
  8
0
100
AcDbLine
 62
7
  6
CONTINUOUS
 10
17.4304437724
 20
13.287257681
 11
17.3330077987
 21
13.3435118256
  0
LINE
  5
44D
100
AcDbEntity
  8
0
100
AcDbLine
 62
7
  6
CONTINUOUS
 10
17.4582826221
 20
13.3194015151
 11
17.5307728146
 21
13.2775496855
  0
LINE
  5
44E
100
AcDbEntity
  8
0
100
AcDbLine
 62
7
  6
CONTINUOUS
 10
17.1135657968
 20
13.5425337294
 11
17.1909837193
 21
13.4978366642
  0
LWPOLYLINE
  5
44F
100
AcDbEntity
  8
0
100
AcDbPolyline
 62
7
  6
CONTINUOUS
 90
7
 70
0
 10
17.6879531317
 20
13.2598693873
 10
17.6826055104
 20
13.2641905673
 10
17.6781111631
 20
13.2702588111
 10
17.6751129904
 20
13.2771499908
 10
17.6740340617
 20
13.2839136669
 10
17.6750688098
 20
13.2894629308
 10
17.6781109024
 20
13.2929896359
  0
LWPOLYLINE
  5
450
100
AcDbEntity
  8
0
100
AcDbPolyline
 62
7
  6
CONTINUOUS
 90
7
 70
0
 10
17.6340532029
 20
13.3127524969
 10
17.6287055816
 20
13.3170736769
 10
17.6242112343
 20
13.3231419207
 10
17.6212130616
 20
13.3300331004
 10
17.6201341329
 20
13.3367967765
 10
17.621168881
 20
13.3423460404
 10
17.6242109736
 20
13.3458727455
  0
LWPOLYLINE
  5
451
100
AcDbEntity
  8
0
100
AcDbPolyline
 62
7
  6
CONTINUOUS
 90
7
 70
0
 10
17.6879531317
 20
13.2920150766
 10
17.6933007531
 20
13.2876938966
 10
17.6977951004
 20
13.2816256529
 10
17.7007932731
 20
13.2747344732
 10
17.7018722018
 20
13.2679707971
 10
17.7008374537
 20
13.2624215331
 10
17.6977953611
 20
13.2588948281
  0
LWPOLYLINE
  5
452
100
AcDbEntity
  8
0
100
AcDbPolyline
 62
7
  6
CONTINUOUS
 90
7
 70
0
 10
17.6340532029
 20
13.3448981862
 10
17.6394008243
 20
13.3405770062
 10
17.6438951716
 20
13.3345087625
 10
17.6468933443
 20
13.3276175828
 10
17.647972273
 20
13.3208539067
 10
17.6469375249
 20
13.3153046427
 10
17.6438954323
 20
13.3117779377
  0
LWPOLYLINE
  5
453
100
AcDbEntity
  8
0
100
AcDbPolyline
 62
7
  6
CONTINUOUS
 90
3
 70
0
 10
17.572733186
 20
13.3449032586
 10
17.5698282777
 20
13.3489599912
 10
17.5557185959
 20
13.3595844383
  0
LWPOLYLINE
  5
454
100
AcDbEntity
  8
0
100
AcDbPolyline
 62
7
  6
CONTINUOUS
 90
10
 70
0
 10
17.621641884
 20
13.19805468
 10
17.6246269706
 20
13.1848900404
 10
17.6333988053
 20
13.1725947359
 10
17.6473412206
 20
13.162034064
 10
17.6655066461
 20
13.1539070979
 10
17.6867427173
 20
13.1487417759
 10
17.7096190203
 20
13.1469133474
 10
17.7327554833
 20
13.1485940805
 10
17.7543895028
 20
13.1537218738
 10
17.7728616232
 20
13.1618913015
  0
LWPOLYLINE
  5
455
100
AcDbEntity
  8
0
100
AcDbPolyline
 62
7
  6
CONTINUOUS
 90
11
 70
0
 10
17.5807735606
 20
13.3756591381
 10
17.5830945192
 20
13.3523220364
 10
17.5899016692
 20
13.3277254885
 10
17.6007715598
 20
13.3033034259
 10
17.6149470586
 20
13.2806088183
 10
17.6318012429
 20
13.2606156455
 10
17.6503152635
 20
13.244596189
 10
17.6693528389
 20
13.2335267494
 10
17.687873403
 20
13.2280011176
 10
17.7048162332
 20
13.2283542017
 10
17.716216899
 20
13.2326786735
  0
LINE
  5
456
100
AcDbEntity
  8
0
100
AcDbLine
 62
7
  6
CONTINUOUS
 10
17.5557185959
 20
13.287257681
 11
17.5557185959
 21
13.3595844383
  0
LWPOLYLINE
  5
457
100
AcDbEntity
  8
0
100
AcDbPolyline
 62
7
  6
CONTINUOUS
 90
4
 70
0
 10
17.5668541357
 20
13.3836954445
 10
17.5695717508
 20
13.4079335039
 10
17.5775638251
 20
13.4276171335
 10
17.5864679298
 20
13.4384255452
  0
LINE
  5
458
100
AcDbEntity
  8
0
100
AcDbLine
 62
7
  6
CONTINUOUS
 10
17.1909837194
 20
13.4978366644
 11
17.3301779676
 21
13.7389281746
  0
LWPOLYLINE
  5
459
100
AcDbEntity
  8
0
100
AcDbPolyline
 62
7
  6
CONTINUOUS
 90
7
 70
0
 10
17.4304437724
 20
13.287257681
 10
17.4488445222
 20
13.2791120329
 10
17.4702035647
 20
13.274013565
 10
17.493079614
 20
13.2722785743
 10
17.5159561078
 20
13.2740131491
 10
17.5373163366
 20
13.2791115307
 10
17.5557185959
 20
13.287257681
  0
LINE
  5
45A
100
AcDbEntity
  8
0
100
AcDbLine
 62
7
  6
CONTINUOUS
 10
17.4582826221
 20
13.4158385829
 11
17.5557185959
 21
13.3595844383
  0
LINE
  5
45B
100
AcDbEntity
  8
0
100
AcDbLine
 62
7
  6
CONTINUOUS
 10
17.9955724204
 20
13.194036527
 11
17.867703855
 21
13.2678607676
  0
LINE
  5
45C
100
AcDbEntity
  8
0
100
AcDbLine
 62
7
  6
CONTINUOUS
 10
17.5818929845
 20
13.4328721635
 11
17.4039968653
 21
13.5355795479
  0
LWPOLYLINE
  5
45D
100
AcDbEntity
  8
0
100
AcDbPolyline
 62
7
  6
CONTINUOUS
 90
7
 70
0
 10
17.6340532029
 20
13.3770438755
 10
17.6287055816
 20
13.3813650555
 10
17.6242112343
 20
13.3874332992
 10
17.6212130616
 20
13.3943244789
 10
17.6201341329
 20
13.401088155
 10
17.621168881
 20
13.4066374189
 10
17.6242109736
 20
13.410164124
  0
LWPOLYLINE
  5
45E
100
AcDbEntity
  8
0
100
AcDbPolyline
 62
7
  6
CONTINUOUS
 90
7
 70
0
 10
17.6340532029
 20
13.4091895648
 10
17.6394008243
 20
13.4048683848
 10
17.6438951716
 20
13.398800141
 10
17.6468933443
 20
13.3919089613
 10
17.647972273
 20
13.3851452852
 10
17.6469375249
 20
13.3795960213
 10
17.6438954323
 20
13.3760693162
  0
LWPOLYLINE
  5
45F
100
AcDbEntity
  8
0
100
AcDbPolyline
 62
7
  6
CONTINUOUS
 90
7
 70
0
 10
17.6879531317
 20
13.3676893069
 10
17.6826055104
 20
13.3720104869
 10
17.6781111631
 20
13.3780787307
 10
17.6751129904
 20
13.3849699104
 10
17.6740340617
 20
13.3917335865
 10
17.6750688098
 20
13.3972828504
 10
17.6781109024
 20
13.4008095555
  0
LWPOLYLINE
  5
460
100
AcDbEntity
  8
0
100
AcDbPolyline
 62
7
  6
CONTINUOUS
 90
3
 70
0
 10
17.6884273213
 20
13.399088738
 10
17.6699133007
 20
13.4151081945
 10
17.6508757252
 20
13.4261776341
  0
LWPOLYLINE
  5
461
100
AcDbEntity
  8
0
100
AcDbPolyline
 62
7
  6
CONTINUOUS
 90
7
 70
0
 10
17.7263833733
 20
13.4525509813
 10
17.7397726659
 20
13.4402122508
 10
17.7602742113
 20
13.4159511068
 10
17.7776049727
 20
13.3882162553
 10
17.7907577492
 20
13.3586195448
 10
17.7989681493
 20
13.3288810288
 10
17.7995090634
 20
13.3258923523
  0
LWPOLYLINE
  5
462
100
AcDbEntity
  8
0
100
AcDbPolyline
 62
7
  6
CONTINUOUS
 90
6
 70
0
 10
17.7235263826
 20
13.4549274137
 10
17.7455313515
 20
13.4334387682
 10
17.764610131
 20
13.4085811286
 10
17.7805429866
 20
13.3809846132
 10
17.7925309783
 20
13.3520330265
 10
17.8001385885
 20
13.3222299044
  0
LWPOLYLINE
  5
463
100
AcDbEntity
  8
0
100
AcDbPolyline
 62
7
  6
CONTINUOUS
 90
3
 70
0
 10
17.7882284985
 20
13.4318645196
 10
17.7677818709
 20
13.4561112526
 10
17.7453512795
 20
13.4755032597
  0
LWPOLYLINE
  5
464
100
AcDbEntity
  8
0
100
AcDbPolyline
 62
7
  6
CONTINUOUS
 90
5
 70
0
 10
17.6991161611
 20
13.3864091673
 10
17.7007932731
 20
13.3825543928
 10
17.7018722018
 20
13.3757907167
 10
17.7008374537
 20
13.3702414528
 10
17.6977953611
 20
13.3667147477
  0
LWPOLYLINE
  5
465
100
AcDbEntity
  8
0
100
AcDbPolyline
 62
7
  6
CONTINUOUS
 90
4
 70
0
 10
17.7988065389
 20
13.1980546804
 10
17.7958214523
 20
13.2112193201
 10
17.7870496176
 20
13.2235146245
 10
17.7747444934
 20
13.2328351316
  0
LWPOLYLINE
  5
466
100
AcDbEntity
  8
0
100
AcDbPolyline
 62
7
  6
CONTINUOUS
 90
6
 70
0
 10
17.7394550036
 20
13.2840452454
 10
17.737134045
 20
13.3073823471
 10
17.730326895
 20
13.3319788951
 10
17.7194570044
 20
13.3564009576
 10
17.7052815056
 20
13.3790955653
 10
17.6884273213
 20
13.399088738
  0
LWPOLYLINE
  5
467
100
AcDbEntity
  8
0
100
AcDbPolyline
 62
7
  6
CONTINUOUS
 90
5
 70
0
 10
17.8295978639
 20
13.3168016142
 10
17.826798609
 20
13.3449975872
 10
17.8185666603
 20
13.3747749621
 10
17.8054229366
 20
13.4043277716
 10
17.7882284985
 20
13.4318645196
  0
LINE
  5
468
100
AcDbEntity
  8
0
100
AcDbLine
 62
7
  6
CONTINUOUS
 10
17.8001385885
 20
13.3222299044
 11
17.8024958134
 21
13.2958668053
  0
LINE
  5
469
100
AcDbEntity
  8
0
100
AcDbLine
 62
7
  6
CONTINUOUS
 10
17.7171839239
 20
12.9368733317
 11
17.7171839239
 21
13.0333103996
  0
LWPOLYLINE
  5
46A
100
AcDbEntity
  8
0
100
AcDbPolyline
 62
7
  6
CONTINUOUS
 90
5
 70
0
 10
17.3301779676
 20
13.7389281746
 10
17.3459968721
 20
13.7630518466
 10
17.36404642
 20
13.7846129559
 10
17.3836313565
 20
13.8027803001
 10
17.4039968653
 20
13.8168543291
  0
LWPOLYLINE
  5
46B
100
AcDbEntity
  8
0
100
AcDbPolyline
 62
7
  6
CONTINUOUS
 90
7
 70
0
 10
17.4582826221
 20
13.4158385829
 10
17.4398818723
 20
13.423984231
 10
17.4185228298
 20
13.4290826989
 10
17.3956467806
 20
13.4308176896
 10
17.3727702867
 20
13.4290831148
 10
17.3514100579
 20
13.4239847331
 10
17.3330077987
 20
13.4158385829
  0
LWPOLYLINE
  5
46C
100
AcDbEntity
  8
0
100
AcDbPolyline
 62
7
  6
CONTINUOUS
 90
7
 70
0
 10
17.9955724204
 20
13.194036527
 10
18.0057950592
 20
13.189511167
 10
18.0176611939
 20
13.1866786848
 10
18.0303701101
 20
13.1857148011
 10
18.0430792734
 20
13.1866784538
 10
18.0549460672
 20
13.189510888
 10
18.0651695445
 20
13.194036527
  0
LWPOLYLINE
  5
46D
100
AcDbEntity
  8
0
100
AcDbPolyline
 62
7
  6
CONTINUOUS
 90
5
 70
0
 10
17.7453512795
 20
13.4755032597
 10
17.7222852812
 20
13.4888941499
 10
17.6998658099
 20
13.4955578852
 10
17.6793595373
 20
13.4951009508
 10
17.6656408289
 20
13.4898820327
  0
LWPOLYLINE
  5
46E
100
AcDbEntity
  8
0
100
AcDbPolyline
 62
7
  6
CONTINUOUS
 90
3
 70
0
 10
17.7474732575
 20
13.5088711917
 10
17.7722521648
 20
13.4913413823
 10
17.7957885542
 20
13.4682429144
  0
LWPOLYLINE
  5
46F
100
AcDbEntity
  8
0
100
AcDbPolyline
 62
7
  6
CONTINUOUS
 90
8
 70
0
 10
17.7335538326
 20
13.4847620407
 10
17.7553401723
 20
13.4693351768
 10
17.7759265676
 20
13.449102205
 10
17.7943376673
 20
13.4250914422
 10
17.8097052796
 20
13.3984739568
 10
17.8212936931
 20
13.3705240385
 10
17.8285228273
 20
13.3425791001
 10
17.8309898064
 20
13.3159979836
  0
LINE
  5
470
100
AcDbEntity
  8
0
100
AcDbLine
 62
7
  6
CONTINUOUS
 10
17.7957885542
 20
13.4682429144
 11
17.8169022129
 21
13.4407340417
  0
LWPOLYLINE
  5
471
100
AcDbEntity
  8
0
100
AcDbPolyline
 62
7
  6
CONTINUOUS
 90
5
 70
0
 10
17.8169022129
 20
13.4407340417
 10
17.8345344138
 20
13.4101941737
 10
17.8478010049
 20
13.3781547072
 10
17.8560367437
 20
13.3462222346
 10
17.8588286561
 20
13.3159979836
  0
LWPOLYLINE
  5
472
100
AcDbEntity
  8
0
100
AcDbPolyline
 62
7
  6
CONTINUOUS
 90
7
 70
0
 10
17.9301511237
 20
13.3764627687
 10
17.9273927776
 20
13.4042483185
 10
17.9192808714
 20
13.4335929312
 10
17.9063264799
 20
13.462720577
 10
17.8893816995
 20
13.4898575654
 10
17.8692325373
 20
13.5137518771
 10
17.8471287095
 20
13.5328620818
  0
LWPOLYLINE
  5
473
100
AcDbEntity
  8
0
100
AcDbPolyline
 62
7
  6
CONTINUOUS
 90
8
 70
0
 10
17.9190155839
 20
13.3668192011
 10
17.9165486047
 20
13.3934003176
 10
17.9093194706
 20
13.421345256
 10
17.897731057
 20
13.4492951743
 10
17.8823634447
 20
13.4759126596
 10
17.863952345
 20
13.4999234225
 10
17.8433659497
 20
13.5201563942
 10
17.8215810158
 20
13.5355824403
  0
LWPOLYLINE
  5
474
100
AcDbEntity
  8
0
100
AcDbPolyline
 62
7
  6
CONTINUOUS
 90
7
 70
0
 10
17.9190155839
 20
13.3507465883
 10
17.9162236715
 20
13.3809708394
 10
17.9079879327
 20
13.4129033119
 10
17.8947213416
 20
13.4449427785
 10
17.8770891407
 20
13.4754826464
 10
17.855975482
 20
13.5029915192
 10
17.8324390925
 20
13.526089987
  0
LINE
  5
475
100
AcDbEntity
  8
0
100
AcDbLine
 62
7
  6
CONTINUOUS
 10
17.786781048
 20
13.0333103996
 11
17.786781048
 21
12.9368733317
  0
LWPOLYLINE
  5
476
100
AcDbEntity
  8
0
100
AcDbPolyline
 62
7
  6
CONTINUOUS
 90
5
 70
0
 10
17.7533744284
 20
13.2760089391
 10
17.7506568134
 20
13.2517708796
 10
17.7426647391
 20
13.23208725
 10
17.7298997341
 20
13.2181248333
 10
17.717321726
 20
13.2117764932
  0
LINE
  5
477
100
AcDbEntity
  8
0
100
AcDbLine
 62
7
  6
CONTINUOUS
 10
17.7371172364
 20
13.2633195374
 11
17.7394550036
 21
13.2840452454
  0
LWPOLYLINE
  5
478
100
AcDbEntity
  8
0
100
AcDbPolyline
 62
7
  6
CONTINUOUS
 90
4
 70
0
 10
17.6425652956
 20
13.4815319331
 10
17.64714551
 20
13.4940020969
 10
17.6604121011
 20
13.5107227709
 10
17.668733668
 20
13.5166707159
  0
LWPOLYLINE
  5
479
100
AcDbEntity
  8
0
100
AcDbPolyline
 62
7
  6
CONTINUOUS
 90
4
 70
0
 10
17.6508757252
 20
13.4261776341
 10
17.6323551612
 20
13.4317032659
 10
17.615412331
 20
13.4313501818
 10
17.6040116651
 20
13.42702571
  0
LINE
  5
47A
100
AcDbEntity
  8
0
100
AcDbLine
 62
7
  6
CONTINUOUS
 10
17.3301779676
 20
13.7389281745
 11
17.2527600451
 21
13.7836252397
  0
LINE
  5
47B
100
AcDbEntity
  8
0
100
AcDbLine
 62
7
  6
CONTINUOUS
 10
17.8215810158
 20
13.5355824465
 11
17.8076617918
 21
13.5436188688
  0
LINE
  5
47C
100
AcDbEntity
  8
0
100
AcDbLine
 62
7
  6
CONTINUOUS
 10
17.9955724204
 20
13.4753113082
 11
17.4039968653
 21
13.8168532436
  0
LINE
  5
47D
100
AcDbEntity
  8
0
100
AcDbLine
 62
7
  6
CONTINUOUS
 10
17.8471287095
 20
13.5328620818
 11
17.8244012144
 21
13.5460579382
  0
LINE
  5
47E
100
AcDbEntity
  8
0
100
AcDbLine
 62
7
  6
CONTINUOUS
 10
17.8324390925
 20
13.526089987
 11
17.8076601852
 21
13.5436197964
  0
LWPOLYLINE
  5
47F
100
AcDbEntity
  8
0
100
AcDbPolyline
 62
7
  6
CONTINUOUS
 90
7
 70
0
 10
17.3691983031
 20
13.8771272065
 10
17.3782048338
 20
13.8705581615
 10
17.3865975842
 20
13.8616984414
 10
17.3938046024
 20
13.8511518217
 10
17.399334742
 20
13.8396370371
 10
17.402811133
 20
13.8279388011
 10
17.4039968653
 20
13.8168532436
  0
LINE
  5
480
100
AcDbEntity
  8
0
100
AcDbLine
 62
7
  6
CONTINUOUS
 10
17.9190155839
 20
13.3668192011
 11
17.9190155839
 21
13.3507465883
  0
LINE
  5
481
100
AcDbEntity
  8
0
100
AcDbLine
 62
7
  6
CONTINUOUS
 10
17.9955724204
 20
13.194036527
 11
17.9955724204
 21
13.4753113082
  0
LWPOLYLINE
  5
482
100
AcDbEntity
  8
0
100
AcDbPolyline
 62
7
  6
CONTINUOUS
 90
5
 70
0
 10
17.8588286561
 20
13.3159979836
 10
17.8560367437
 20
13.2889975242
 10
17.8478010049
 20
13.2665747723
 10
17.8345344138
 20
13.2498540982
 10
17.8262128469
 20
13.2439061533
  0
LWPOLYLINE
  5
483
100
AcDbEntity
  8
0
100
AcDbPolyline
 62
7
  6
CONTINUOUS
 90
5
 70
0
 10
17.8309898064
 20
13.3159979836
 10
17.8285228273
 20
13.2922654618
 10
17.8212936931
 20
13.2726679283
 10
17.8097052796
 20
13.2580990286
 10
17.7943376673
 20
13.2492263628
  0
LWPOLYLINE
  5
484
100
AcDbEntity
  8
0
100
AcDbPolyline
 62
7
  6
CONTINUOUS
 90
5
 70
0
 10
17.3445921813
 20
13.8795645578
 10
17.3179451511
 20
13.861183479
 10
17.2934280991
 20
13.8384505949
 10
17.2715832513
 20
13.8123410533
 10
17.2527600451
 20
13.7836252397
  0
LWPOLYLINE
  5
485
100
AcDbEntity
  8
0
100
AcDbPolyline
 62
7
  6
CONTINUOUS
 90
3
 70
0
 10
17.8244012144
 20
13.5460579382
 10
17.8023071266
 20
13.5526272265
 10
17.7882183631
 20
13.5523149683
  0
LINE
  5
486
100
AcDbEntity
  8
0
100
AcDbLine
 62
7
  6
CONTINUOUS
 10
17.8076601852
 20
13.5436197964
 11
17.7828812779
 21
13.5547019294
  0
LINE
  5
487
100
AcDbEntity
  8
0
100
AcDbLine
 62
7
  6
CONTINUOUS
 10
17.4039968653
 20
13.8972179725
 11
18.0303709825
 21
13.5355841857
  0
LWPOLYLINE
  5
488
100
AcDbEntity
  8
0
100
AcDbPolyline
 62
7
  6
CONTINUOUS
 90
7
 70
0
 10
18.0303709825
 20
13.5355841857
 10
18.0393775131
 20
13.5290151406
 10
18.0477702635
 20
13.5201554206
 10
18.0549772817
 20
13.5096088009
 10
18.0605074212
 20
13.4980940162
 10
18.0639838123
 20
13.4863957802
 10
18.0651695445
 20
13.4753113082
  0
LINE
  5
489
100
AcDbEntity
  8
0
100
AcDbLine
 62
7
  6
CONTINUOUS
 10
18.0651695445
 20
13.4753113082
 11
18.0651695445
 21
13.194036527
  0
LWPOLYLINE
  5
48A
100
AcDbEntity
  8
0
100
AcDbPolyline
 62
7
  6
CONTINUOUS
 90
7
 70
0
 10
17.9955724204
 20
13.4753107655
 10
17.9967581526
 20
13.4863957802
 10
18.0002345437
 20
13.4980940162
 10
18.0057646833
 20
13.5096088009
 10
18.0129717014
 20
13.5201554206
 10
18.0213644519
 20
13.5290151406
 10
18.0303709825
 20
13.5355841857
  0
LWPOLYLINE
  5
48B
100
AcDbEntity
  8
0
100
AcDbPolyline
 62
7
  6
CONTINUOUS
 90
3
 70
0
 10
17.7925309783
 20
13.2512068737
 10
17.7999729782
 20
13.2714685795
 10
17.8024958134
 20
13.2958668053
  0
LINE
  5
48C
100
AcDbEntity
  8
0
100
AcDbLine
 62
7
  6
CONTINUOUS
 10
17.7302152898
 20
13.2464722208
 11
17.7371172364
 21
13.2633195374
  0
LINE
  5
48D
100
AcDbEntity
  8
0
100
AcDbLine
 62
7
  6
CONTINUOUS
 10
19.2376339579
 20
14.9725022246
 11
17.3445921814
 21
13.8795645578
  0
LINE
  5
48E
100
AcDbEntity
  8
0
100
AcDbLine
 62
7
  6
CONTINUOUS
 10
19.2274415175
 20
14.9499741074
 11
17.4039968653
 21
13.8972179725
  0
LWPOLYLINE
  5
48F
100
AcDbEntity
  8
0
100
AcDbPolyline
 62
7
  6
CONTINUOUS
 90
5
 70
0
 10
19.3130278324
 20
14.9172048664
 10
19.3174041504
 20
14.9192338046
 10
19.3369890869
 20
14.9236809796
 10
19.3550386348
 20
14.9229614925
 10
19.3708575393
 20
14.9171037423
  0
LWPOLYLINE
  5
490
100
AcDbEntity
  8
0
100
AcDbPolyline
 62
7
  6
CONTINUOUS
 90
11
 70
0
 10
17.717321726
 20
13.2117764932
 10
17.7132049748
 20
13.2106655351
 10
17.6933535697
 20
13.2100461386
 10
17.6715763909
 20
13.2163634367
 10
17.6491869135
 20
13.2292152358
 10
17.6274180909
 20
13.2478766897
 10
17.6075022226
 20
13.2713123843
 10
17.5906340799
 20
13.2981335812
 10
17.5776901088
 20
13.3270581147
 10
17.5695929255
 20
13.3562083367
 10
17.5668541357
 20
13.3836954445
  0
LWPOLYLINE
  5
491
100
AcDbEntity
  8
0
100
AcDbPolyline
 62
7
  6
CONTINUOUS
 90
5
 70
0
 10
17.6823105927
 20
13.1498198167
 10
17.6873966038
 20
13.1510329246
 10
17.7102843207
 20
13.1527601683
 10
17.7330262559
 20
13.1510367271
 10
17.7380353488
 20
13.1498455382
  0
LWPOLYLINE
  5
492
100
AcDbEntity
  8
0
100
AcDbPolyline
 62
7
  6
CONTINUOUS
 90
3
 70
0
 10
17.6977953611
 20
13.2588948281
 10
17.6933281893
 20
13.2580131147
 10
17.6879531317
 20
13.2598693873
  0
LINE
  5
493
100
AcDbEntity
  8
0
100
AcDbLine
 62
7
  6
CONTINUOUS
 10
17.7943376673
 20
13.2492263628
 11
17.7905051194
 21
13.2486535632
  0
LWPOLYLINE
  5
494
100
AcDbEntity
  8
0
100
AcDbPolyline
 62
7
  6
CONTINUOUS
 90
4
 70
0
 10
17.7828812779
 20
13.5547019294
 10
17.7593448885
 20
13.5587806817
 10
17.7382312298
 20
13.5556515275
 10
17.7289205958
 20
13.5514193206
  0
LWPOLYLINE
  5
495
100
AcDbEntity
  8
0
100
AcDbPolyline
 62
7
  6
CONTINUOUS
 90
3
 70
0
 10
17.9079879327
 20
13.301323377
 10
17.9162236715
 20
13.323746129
 10
17.9190155839
 20
13.3507465883
  0
LWPOLYLINE
  5
496
100
AcDbEntity
  8
0
100
AcDbPolyline
 62
7
  6
CONTINUOUS
 90
3
 70
0
 10
17.9191531069
 20
13.3316785365
 10
17.927371131
 20
13.3517737302
 10
17.9301511237
 20
13.3764627687
  0
LINE
  5
497
100
AcDbEntity
  8
0
100
AcDbLine
 62
7
  6
CONTINUOUS
 10
17.6549908577
 20
13.4833734661
 11
17.6574023857
 21
13.4864052279
  0
LWPOLYLINE
  5
498
100
AcDbEntity
  8
0
100
AcDbPolyline
 62
7
  6
CONTINUOUS
 90
3
 70
0
 10
17.6781109024
 20
13.2929896359
 10
17.6825780742
 20
13.2938713492
 10
17.6879531317
 20
13.2920150766
  0
LWPOLYLINE
  5
499
100
AcDbEntity
  8
0
100
AcDbPolyline
 62
7
  6
CONTINUOUS
 90
3
 70
0
 10
17.6438954323
 20
13.3117779377
 10
17.6394282605
 20
13.3108962243
 10
17.6340532029
 20
13.3127524969
  0
LWPOLYLINE
  5
49A
100
AcDbEntity
  8
0
100
AcDbPolyline
 62
7
  6
CONTINUOUS
 90
3
 70
0
 10
17.6242109736
 20
13.3458727455
 10
17.6286781454
 20
13.3467544588
 10
17.6340532029
 20
13.3448981862
  0
LWPOLYLINE
  5
49B
100
AcDbEntity
  8
0
100
AcDbPolyline
 62
7
  6
CONTINUOUS
 90
3
 70
0
 10
17.6977953611
 20
13.3667147477
 10
17.6933281893
 20
13.3658330343
 10
17.6879531317
 20
13.3676893069
  0
LWPOLYLINE
  5
49C
100
AcDbEntity
  8
0
100
AcDbPolyline
 62
7
  6
CONTINUOUS
 90
3
 70
0
 10
17.6438954323
 20
13.3760693162
 10
17.6394282605
 20
13.3751876028
 10
17.6340532029
 20
13.3770438755
  0
LWPOLYLINE
  5
49D
100
AcDbEntity
  8
0
100
AcDbPolyline
 62
7
  6
CONTINUOUS
 90
3
 70
0
 10
17.6781109024
 20
13.4008095555
 10
17.6825780742
 20
13.4016912688
 10
17.6873069437
 20
13.4000581568
  0
LINE
  5
49E
100
AcDbEntity
  8
0
100
AcDbLine
 62
7
  6
CONTINUOUS
 10
17.5864622052
 20
13.4384339738
 11
17.6224054729
 21
13.471115683
  0
LWPOLYLINE
  5
49F
100
AcDbEntity
  8
0
100
AcDbPolyline
 62
7
  6
CONTINUOUS
 90
12
 70
0
 10
17.5864679298
 20
13.4384255452
 10
17.59032883
 20
13.4415795502
 10
17.6070235893
 20
13.4490388485
 10
17.6268749945
 20
13.4496582449
 10
17.6486521732
 20
13.4433409468
 10
17.6710416507
 20
13.4304891477
 10
17.6928104733
 20
13.4118276939
 10
17.7127263416
 20
13.3883919993
 10
17.7295944842
 20
13.3615708023
 10
17.7425384554
 20
13.3326462689
 10
17.7506356386
 20
13.3034960469
 10
17.7533744284
 20
13.2760089391
  0
LWPOLYLINE
  5
4A0
100
AcDbEntity
  8
0
100
AcDbPolyline
 62
7
  6
CONTINUOUS
 90
4
 70
0
 10
17.3330077987
 20
13.4158385829
 10
17.3188989867
 20
13.4052150073
 10
17.3100680963
 20
13.3928834769
 10
17.3070629752
 20
13.3796752043
  0
LINE
  5
4A1
100
AcDbEntity
  8
0
100
AcDbLine
 62
7
  6
CONTINUOUS
 10
17.1604069308
 20
13.3949441864
 11
17.4039968653
 21
13.5355795479
  0
LWPOLYLINE
  5
4A2
100
AcDbEntity
  8
0
100
AcDbPolyline
 62
7
  6
CONTINUOUS
 90
4
 70
0
 10
17.3445920039
 20
13.8795644553
 10
17.351799022
 20
13.8817892073
 10
17.3601917725
 20
13.8809579071
 10
17.3691983031
 20
13.8771272065
  0
LWPOLYLINE
  5
4A3
100
AcDbEntity
  8
0
100
AcDbPolyline
 62
7
  6
CONTINUOUS
 90
6
 70
0
 10
17.357953615
 20
13.3291094903
 10
17.3727675909
 20
13.332645631
 10
17.3956436402
 20
13.3343806218
 10
17.418520134
 20
13.3326460469
 10
17.4398803628
 20
13.3275476653
 10
17.4582826221
 20
13.3194015151
  0
LWPOLYLINE
  5
4A4
100
AcDbEntity
  8
0
100
AcDbPolyline
 62
7
  6
CONTINUOUS
 90
3
 70
0
 10
17.6242109736
 20
13.410164124
 10
17.6286781454
 20
13.4110458374
 10
17.6340532029
 20
13.4091895648
  0
LWPOLYLINE
  5
4A5
100
AcDbEntity
  8
0
100
AcDbPolyline
 62
7
  6
CONTINUOUS
 90
5
 70
0
 10
17.6391349821
 20
13.4810235428
 10
17.6582137617
 20
13.4838511173
 10
17.6794817755
 20
13.4801654645
 10
17.7018725566
 20
13.4701513985
 10
17.7235263826
 20
13.4549274137
  0
LINE
  5
4A6
100
AcDbEntity
  8
0
100
AcDbLine
 62
7
  6
CONTINUOUS
 10
17.7805429866
 20
13.2360976944
 11
17.7925309783
 21
13.2512068737
  0
LINE
  5
4A7
100
AcDbEntity
  8
0
100
AcDbLine
 62
7
  6
CONTINUOUS
 10
17.9167787524
 20
13.3291142915
 11
17.9191531069
 21
13.3316785365
  0
LWPOLYLINE
  5
4A8
100
AcDbEntity
  8
0
100
AcDbPolyline
 62
7
  6
CONTINUOUS
 90
4
 70
0
 10
17.5557185959
 20
13.287257681
 10
17.5698274079
 20
13.2978812566
 10
17.5786582982
 20
13.3102127869
 10
17.5808728003
 20
13.3199460879
  0
LWPOLYLINE
  5
4A9
100
AcDbEntity
  8
0
100
AcDbPolyline
 62
7
  6
CONTINUOUS
 90
4
 70
0
 10
17.6453317284
 20
13.2325201163
 10
17.6334792961
 20
13.2235958979
 10
17.6246335567
 20
13.2112340789
 10
17.621641884
 20
13.19805468
  0
LWPOLYLINE
  5
4AA
100
AcDbEntity
  8
0
100
AcDbPolyline
 62
7
  6
CONTINUOUS
 90
5
 70
0
 10
17.6040116651
 20
13.42702571
 10
17.6010549048
 20
13.4251263999
 10
17.5900132744
 20
13.4132321627
 10
17.5831113278
 20
13.3963848461
 10
17.5807735606
 20
13.3756591381
  0
LINE
  5
4AB
100
AcDbEntity
  8
0
100
AcDbLine
 62
7
  6
CONTINUOUS
 10
17.6224054729
 20
13.471115683
 11
17.6391349821
 21
13.4810235428
  0
LINE
  5
4AC
100
AcDbEntity
  8
0
100
AcDbLine
 62
7
  6
CONTINUOUS
 10
17.668733668
 20
13.5166707159
 11
17.7289205958
 21
13.5514193206
  0
LWPOLYLINE
  5
4AD
100
AcDbEntity
  8
0
100
AcDbPolyline
 62
7
  6
CONTINUOUS
 90
5
 70
0
 10
17.6574023857
 20
13.4864052279
 10
17.672769998
 20
13.4952778937
 10
17.6911810977
 20
13.4980295542
 10
17.711767493
 20
13.4944916329
 10
17.7335538326
 20
13.4847620407
  0
LINE
  5
4AE
100
AcDbEntity
  8
0
100
AcDbLine
 62
7
  6
CONTINUOUS
 10
17.6541528718
 20
13.4832492722
 11
17.6656409367
 21
13.4898818458
  0
LINE
  5
4AF
100
AcDbEntity
  8
0
100
AcDbLine
 62
7
  6
CONTINUOUS
 10
17.6514092516
 20
13.425867414
 11
17.6242107543
 21
13.4101645053
  0
LINE
  5
4B0
100
AcDbEntity
  8
0
100
AcDbLine
 62
7
  6
CONTINUOUS
 10
17.6831053846
 20
13.4036936013
 11
17.678110683
 21
13.4008099367
  0
LINE
  5
4B1
100
AcDbEntity
  8
0
100
AcDbLine
 62
7
  6
CONTINUOUS
 10
17.6743967355
 20
13.3936785746
 11
17.6438956516
 21
13.376068935
  0
LWPOLYLINE
  5
4B2
100
AcDbEntity
  8
0
100
AcDbPolyline
 62
7
  6
CONTINUOUS
 90
5
 70
0
 10
17.668733668
 20
13.5166707159
 10
17.678044302
 20
13.5209029227
 10
17.6991579607
 20
13.524032077
 10
17.7226943502
 20
13.5199533247
 10
17.7474732575
 20
13.5088711917
  0
LWPOLYLINE
  5
4B3
100
AcDbEntity
  8
0
100
AcDbPolyline
 62
7
  6
CONTINUOUS
 90
4
 70
0
 10
19.8538156347
 20
14.5883403206
 10
19.8628221653
 20
14.5921710212
 10
19.8712149158
 20
14.5930023214
 10
19.8784217564
 20
14.5907776719
  0
LWPOLYLINE
  5
4B4
100
AcDbEntity
  8
0
100
AcDbPolyline
 62
7
  6
CONTINUOUS
 90
4
 70
0
 10
17.7728616232
 20
13.1618913015
 10
17.7869691268
 20
13.1725134626
 10
17.7958148662
 20
13.1848752816
 10
17.7988065389
 20
13.1980546804
  0
LWPOLYLINE
  5
4B5
100
AcDbEntity
  8
0
100
AcDbPolyline
 62
7
  6
CONTINUOUS
 90
3
 70
0
 10
17.8863997747
 20
13.278654758
 10
17.8947213416
 20
13.284602703
 10
17.9079879327
 20
13.301323377
  0
LWPOLYLINE
  5
4B6
100
AcDbEntity
  8
0
100
AcDbPolyline
 62
7
  6
CONTINUOUS
 90
3
 70
0
 10
17.716216899
 20
13.2326786735
 10
17.7191736593
 20
13.2345779836
 10
17.7302152898
 20
13.2464722208
  0
LINE
  5
4B7
100
AcDbEntity
  8
0
100
AcDbLine
 62
7
  6
CONTINUOUS
 10
17.6786748287
 20
13.3773176723
 11
17.6242107543
 21
13.3458731267
  0
LINE
  5
4B8
100
AcDbEntity
  8
0
100
AcDbLine
 62
7
  6
CONTINUOUS
 10
17.7089812575
 20
13.373172358
 11
17.6977955804
 21
13.3667143664
  0
LINE
  5
4B9
100
AcDbEntity
  8
0
100
AcDbLine
 62
7
  6
CONTINUOUS
 10
18.0303709825
 20
13.5355841857
 11
19.8538156347
 21
14.5883403206
  0
LINE
  5
4BA
100
AcDbEntity
  8
0
100
AcDbLine
 62
7
  6
CONTINUOUS
 10
17.719810551
 20
13.3556066224
 11
17.6438956516
 21
13.3117775564
  0
LINE
  5
4BB
100
AcDbEntity
  8
0
100
AcDbLine
 62
7
  6
CONTINUOUS
 10
17.7324368422
 20
13.3243549381
 11
17.678110683
 21
13.2929900171
  0
LINE
  5
4BC
100
AcDbEntity
  8
0
100
AcDbLine
 62
7
  6
CONTINUOUS
 10
19.8886141968
 20
14.5280674431
 11
18.0651695445
 21
13.4753113082
  0
LWPOLYLINE
  5
4BD
100
AcDbEntity
  8
0
100
AcDbPolyline
 62
7
  6
CONTINUOUS
 90
5
 70
0
 10
17.8014668363
 20
13.2546222238
 10
17.8051136473
 20
13.2569677426
 10
17.8184374012
 20
13.2713576515
 10
17.8267764794
 20
13.2917474226
 10
17.8295978639
 20
13.3168016142
  0
LINE
  5
4BE
100
AcDbEntity
  8
0
100
AcDbLine
 62
7
  6
CONTINUOUS
 10
17.7393224123
 20
13.2828697437
 11
17.6977955804
 21
13.2588944468
  0
LINE
  5
4BF
100
AcDbEntity
  8
0
100
AcDbLine
 62
7
  6
CONTINUOUS
 10
17.789978367
 20
13.2479896658
 11
17.8014667285
 21
13.2546224106
  0
LINE
  5
4C0
100
AcDbEntity
  8
0
100
AcDbLine
 62
7
  6
CONTINUOUS
 10
17.8262128469
 20
13.2439061533
 11
17.8863997747
 21
13.278654758
  0
LINE
  5
4C1
100
AcDbEntity
  8
0
100
AcDbLine
 62
7
  6
CONTINUOUS
 10
17.7635967891
 20
13.2265627975
 11
17.7805429866
 21
13.2360976944
  0
LWPOLYLINE
  5
4C2
100
AcDbEntity
  8
0
100
AcDbPolyline
 62
7
  6
CONTINUOUS
 90
7
 70
0
 10
18.0651695445
 20
13.4753113082
 10
18.0549772817
 20
13.4707960116
 10
18.0431081402
 20
13.4679575775
 10
18.0303709825
 20
13.4669894405
 10
18.0176338247
 20
13.4679575775
 10
18.0057646833
 20
13.4707960116
 10
17.9955724204
 20
13.4753113082
  0
LWPOLYLINE
  5
4C3
100
AcDbEntity
  8
0
100
AcDbPolyline
 62
7
  6
CONTINUOUS
 90
3
 70
0
 10
19.5516185957
 20
14.7794557499
 10
19.5533728552
 20
14.7819054128
 10
19.5550423669
 20
14.7892433421
  0
LINE
  5
4C4
100
AcDbEntity
  8
0
100
AcDbLine
 62
7
  6
CONTINUOUS
 10
17.786781048
 20
13.0333103996
 11
18.0651695445
 21
13.194036527
  0
LINE
  5
4C5
100
AcDbEntity
  8
0
100
AcDbLine
 62
7
  6
CONTINUOUS
 10
19.8886141968
 20
14.2467926619
 11
20.1670026933
 21
14.4075187894
  0
LWPOLYLINE
  5
4C6
100
AcDbEntity
  8
0
100
AcDbPolyline
 62
7
  6
CONTINUOUS
 90
4
 70
0
 10
17.8262128469
 20
13.2439061533
 10
17.8169022129
 20
13.2396739464
 10
17.7957885542
 20
13.2365447922
 10
17.7826976801
 20
13.2388133828
  0
LWPOLYLINE
  5
4C7
100
AcDbEntity
  8
0
100
AcDbPolyline
 62
7
  6
CONTINUOUS
 90
7
 70
0
 10
19.5100517876
 20
14.8367383596
 10
19.5152346342
 20
14.848453638
 10
19.5176928139
 20
14.8607396921
 10
19.5172588058
 20
14.8727592475
 10
19.5139621868
 20
14.8836931914
 10
19.508027616
 20
14.8927963936
 10
19.4998598797
 20
14.899448281
  0
LINE
  5
4C8
100
AcDbEntity
  8
0
100
AcDbLine
 62
7
  6
CONTINUOUS
 10
20.1670026933
 20
14.3110817215
 11
17.786781048
 21
12.9368733317
  0
LWPOLYLINE
  5
4C9
100
AcDbEntity
  8
0
100
AcDbPolyline
 62
7
  6
CONTINUOUS
 90
7
 70
0
 10
17.786781048
 20
13.0333103996
 10
17.7765584092
 20
13.0287850395
 10
17.7646922745
 20
13.0259525574
 10
17.7519833583
 20
13.0249886736
 10
17.739274195
 20
13.0259523263
 10
17.7274074012
 20
13.0287847606
 10
17.7171839239
 20
13.0333103996
  0
LINE
  5
4CA
100
AcDbEntity
  8
0
100
AcDbLine
 62
7
  6
CONTINUOUS
 10
17.7173218417
 20
13.2117762546
 11
17.7635967891
 21
13.2265627975
  0
LWPOLYLINE
  5
4CB
100
AcDbEntity
  8
0
100
AcDbPolyline
 62
7
  6
CONTINUOUS
 90
4
 70
0
 10
19.8886141968
 20
14.2467926619
 10
19.8964524257
 20
14.2526946484
 10
19.9013584759
 20
14.2595454986
 10
19.9030279876
 20
14.2668834278
  0
LWPOLYLINE
  5
4CC
100
AcDbEntity
  8
0
100
AcDbPolyline
 62
7
  6
CONTINUOUS
 90
4
 70
0
 10
20.1670026933
 20
14.3110817215
 10
20.1748409222
 20
14.316983708
 10
20.1797469724
 20
14.3238345582
 10
20.1814164841
 20
14.3311724875
  0
LWPOLYLINE
  5
4CD
100
AcDbEntity
  8
0
100
AcDbPolyline
 62
7
  6
CONTINUOUS
 90
5
 70
0
 10
19.5550426125
 20
14.7892433421
 10
19.550990285
 20
14.8263901008
 10
19.5394796673
 20
14.8576862853
 10
19.5220628999
 20
14.881979506
 10
19.4998598797
 20
14.899448281
  0
LWPOLYLINE
  5
4CE
100
AcDbEntity
  8
0
100
AcDbPolyline
 62
7
  6
CONTINUOUS
 90
6
 70
0
 10
19.2936129863
 20
14.9284139252
 10
19.2923765184
 20
14.9325747038
 10
19.2868463788
 20
14.9440894885
 10
19.2796393606
 20
14.9546361082
 10
19.2712466102
 20
14.9634958282
 10
19.2622400796
 20
14.9700648733
  0
LWPOLYLINE
  5
4CF
100
AcDbEntity
  8
0
100
AcDbPolyline
 62
7
  6
CONTINUOUS
 90
4
 70
0
 10
19.9030282332
 20
14.548158209
 10
19.9013513545
 20
14.5408044783
 10
19.8964349952
 20
14.5339518922
 10
19.8886141968
 20
14.5280674431
  0
LWPOLYLINE
  5
4D0
100
AcDbEntity
  8
0
100
AcDbPolyline
 62
7
  6
CONTINUOUS
 90
3
 70
0
 10
19.5326817967
 20
14.8106955675
 10
19.5386227757
 20
14.7915107149
 10
19.5390534433
 20
14.7867101743
  0
LWPOLYLINE
  5
4D1
100
AcDbEntity
  8
0
100
AcDbPolyline
 62
7
  6
CONTINUOUS
 90
5
 70
0
 10
19.3606656313
 20
14.9798136638
 10
19.3345858069
 20
14.990271353
 10
19.304781264
 20
14.9932486223
 10
19.2718030417
 20
14.9875576763
 10
19.2376339579
 20
14.9725022246
  0
LWPOLYLINE
  5
4D2
100
AcDbEntity
  8
0
100
AcDbPolyline
 62
7
  6
CONTINUOUS
 90
4
 70
0
 10
19.2622400796
 20
14.9700648733
 10
19.253233549
 20
14.9738955739
 10
19.2448407986
 20
14.9747268741
 10
19.2376339579
 20
14.9725022246
  0
LWPOLYLINE
  5
4D3
100
AcDbEntity
  8
0
100
AcDbPolyline
 62
7
  6
CONTINUOUS
 90
5
 70
0
 10
19.2766500313
 20
14.9381946154
 10
19.2738730063
 20
14.9397247342
 10
19.2611530096
 20
14.9449456496
 10
19.2462444347
 20
14.9484798607
 10
19.2274415175
 20
14.9499741074
  0
LINE
  5
4D4
100
AcDbEntity
  8
0
100
AcDbLine
 62
7
  6
CONTINUOUS
 10
19.8538156347
 20
14.5883403206
 11
19.2274415175
 21
14.9499741074
  0
LINE
  5
4D5
100
AcDbEntity
  8
0
100
AcDbLine
 62
7
  6
CONTINUOUS
 10
19.8784217564
 20
14.5907776719
 11
19.276653761
 21
14.9382052443
  0
LINE
  5
4D6
100
AcDbEntity
  8
0
100
AcDbLine
 62
7
  6
CONTINUOUS
 10
20.1670026933
 20
14.4477003212
 11
19.5536724514
 21
14.8018032955
  0
LINE
  5
4D7
100
AcDbEntity
  8
0
100
AcDbLine
 62
7
  6
CONTINUOUS
 10
19.3708575393
 20
14.9171037423
 11
19.5100517876
 21
14.8367383596
  0
LINE
  5
4D8
100
AcDbEntity
  8
0
100
AcDbLine
 62
7
  6
CONTINUOUS
 10
19.4998598797
 20
14.899448281
 11
19.3606656314
 21
14.9798136637
  0
LWPOLYLINE
  5
4D9
100
AcDbEntity
  8
0
100
AcDbPolyline
 62
7
  6
CONTINUOUS
 90
7
 70
0
 10
19.3606656313
 20
14.9798136638
 10
19.3688333676
 20
14.9731617763
 10
19.3747679384
 20
14.9640585741
 10
19.3780645574
 20
14.9531246302
 10
19.3784985655
 20
14.9411050748
 10
19.3760403858
 20
14.9288190208
 10
19.3708575392
 20
14.9171037423
  0
LWPOLYLINE
  5
4DA
100
AcDbEntity
  8
0
100
AcDbPolyline
 62
7
  6
CONTINUOUS
 90
3
 70
0
 10
19.5100517876
 20
14.8367383596
 10
19.5230340618
 20
14.8259674217
 10
19.5326817967
 20
14.8106955675
  0
LWPOLYLINE
  5
4DB
100
AcDbEntity
  8
0
100
AcDbPolyline
 62
7
  6
CONTINUOUS
 90
7
 70
0
 10
19.8886141968
 20
14.5280674431
 10
19.8874284646
 20
14.5391519151
 10
19.8839520735
 20
14.5508501511
 10
19.8784219339
 20
14.5623649358
 10
19.8712149158
 20
14.5729115555
 10
19.8628221653
 20
14.5817712755
 10
19.8538156347
 20
14.5883403206
  0
LINE
  5
4DC
100
AcDbEntity
  8
0
100
AcDbLine
 62
7
  6
CONTINUOUS
 10
19.8886141968
 20
14.2467926619
 11
19.8886141968
 21
14.5280674431
  0
LINE
  5
4DD
100
AcDbEntity
  8
0
100
AcDbLine
 62
7
  6
CONTINUOUS
 10
19.9030282332
 20
14.2668834278
 11
19.9030282332
 21
14.548158209
  0
LWPOLYLINE
  5
4DE
100
AcDbEntity
  8
0
100
AcDbPolyline
 62
7
  6
CONTINUOUS
 90
4
 70
0
 10
20.1670026933
 20
14.4477003212
 10
20.1748409222
 20
14.4417983347
 10
20.1797469724
 20
14.4349474846
 10
20.1814164841
 20
14.4276095553
  0
LWPOLYLINE
  5
4DF
100
AcDbEntity
  8
0
100
AcDbPolyline
 62
7
  6
CONTINUOUS
 90
4
 70
0
 10
20.1814164841
 20
14.4276095553
 10
20.1797473726
 20
14.4202724907
 10
20.1748414054
 20
14.41342126
 10
20.1670026933
 20
14.4075187894
  0
LINE
  5
4E0
100
AcDbEntity
  8
0
100
AcDbLine
 62
7
  6
CONTINUOUS
 10
20.1670026933
 20
14.3110817215
 11
20.1670026933
 21
14.4075187894
  0
LINE
  5
4E1
100
AcDbEntity
  8
0
100
AcDbLine
 62
7
  6
CONTINUOUS
 10
20.1814167297
 20
14.4276095553
 11
20.1814167297
 21
14.3311724875
  0
LWPOLYLINE
  5
4E2
100
AcDbEntity
  8
0
100
AcDbPolyline
 62
7
  6
CONTINUOUS
 90
7
 70
0
 10
6.6849500915
 20
7.8169439034
 10
6.6861358237
 20
7.8042067457
 10
6.6896122148
 20
7.7923376042
 10
6.6951423543
 20
7.7821453413
 10
6.7023493725
 20
7.774324543
 10
6.7107421229
 20
7.7694081836
 10
6.7197486535
 20
7.767731305
  0
LINE
  5
4E3
100
AcDbEntity
  8
0
100
AcDbLine
 62
7
  6
CONTINUOUS
 10
6.627293946
 20
8.7027706751
 11
6.627293946
 21
7.8169439034
  0
LINE
  5
4E4
100
AcDbEntity
  8
0
100
AcDbLine
 62
7
  6
CONTINUOUS
 10
6.7355616626
 20
8.0511958719
 11
6.7355616626
 21
8.1889911475
  0
LINE
  5
4E5
100
AcDbEntity
  8
AXIS
100
AcDbLine
 62
7
  6
CENTER
 10
6.8241443397
 20
8.1889911475
 11
6.8241443397
 21
8.0889872105
  0
LINE
  5
4E6
100
AcDbEntity
  8
AXIS
100
AcDbLine
 62
7
  6
CENTER
 10
6.8241443397
 20
8.0511958719
 11
6.8241443397
 21
7.920898971
  0
LINE
  5
4E7
100
AcDbEntity
  8
AXIS
100
AcDbLine
 62
7
  6
CENTER
 10
6.8241443397
 20
8.0511958719
 11
6.8241443397
 21
8.0889872105
  0
LINE
  5
4E8
100
AcDbEntity
  8
AXIS
100
AcDbLine
 62
7
  6
CENTER
 10
6.8241443397
 20
8.1889911475
 11
6.8241443397
 21
8.2889950845
  0
LINE
  5
4E9
100
AcDbEntity
  8
0
100
AcDbLine
 62
7
  6
CONTINUOUS
 10
6.9127270169
 20
8.1889911475
 11
6.9127270169
 21
8.0511958719
  0
LWPOLYLINE
  5
4EA
100
AcDbEntity
  8
0
100
AcDbPolyline
 62
7
  6
CONTINUOUS
 90
7
 70
0
 10
6.8818004853
 20
7.8169439034
 10
6.8829862176
 20
7.8296810611
 10
6.8864626086
 20
7.8415502026
 10
6.8919927482
 20
7.8517424655
 10
6.8991997664
 20
7.8595632638
 10
6.9075925168
 20
7.8644796232
 10
6.9165990474
 20
7.8661565018
  0
LINE
  5
4EB
100
AcDbEntity
  8
0
100
AcDbLine
 62
7
  6
CONTINUOUS
 10
7.0209947334
 20
7.8661565018
 11
7.0209947334
 21
7.767731305
  0
LINE
  5
4EC
100
AcDbEntity
  8
0
100
AcDbLine
 62
7
  6
CONTINUOUS
 10
7.0209947334
 20
7.8661565018
 11
7.0209947334
 21
8.7027706751
  0
LINE
  5
4ED
100
AcDbEntity
  8
0
100
AcDbLine
 62
7
  6
CONTINUOUS
 10
7.0702073319
 20
8.7519832735
 11
7.0702073319
 21
7.8169439034
  0
LINE
  5
4EE
100
AcDbEntity
  8
0
100
AcDbLine
 62
7
  6
CONTINUOUS
 10
7.0209947334
 20
7.8661565018
 11
7.0702073319
 21
7.8169439034
  0
LWPOLYLINE
  5
4EF
100
AcDbEntity
  8
0
100
AcDbPolyline
 62
7
  6
CONTINUOUS
 90
7
 70
0
 10
9.9994061678
 20
7.767731305
 10
10.0084126984
 20
7.7694081836
 10
10.0168054488
 20
7.774324543
 10
10.024012467
 20
7.7821453413
 10
10.0295426066
 20
7.7923376042
 10
10.0330189976
 20
7.8042067457
 10
10.0342047299
 20
7.8169439034
  0
LWPOLYLINE
  5
4F0
100
AcDbEntity
  8
0
100
AcDbPolyline
 62
7
  6
CONTINUOUS
 90
7
 70
0
 10
6.9165990474
 20
7.767731305
 10
6.9075925168
 20
7.7694081836
 10
6.8991997663
 20
7.774324543
 10
6.8919927482
 20
7.7821453413
 10
6.8864626086
 20
7.7923376042
 10
6.8829862176
 20
7.8042067457
 10
6.8818004853
 20
7.8169439034
  0
LINE
  5
4F1
100
AcDbEntity
  8
0
100
AcDbLine
 62
7
  6
CONTINUOUS
 10
6.6765065445
 20
7.767731305
 11
10.0426482768
 21
7.767731305
  0
LINE
  5
4F2
100
AcDbEntity
  8
0
100
AcDbLine
 62
7
  6
CONTINUOUS
 10
7.0702073319
 20
7.8169439034
 11
9.6489474893
 21
7.8169439034
  0
LINE
  5
4F3
100
AcDbEntity
  8
0
100
AcDbLine
 62
7
  6
CONTINUOUS
 10
10.0426482768
 20
7.8661565018
 11
9.6981600878
 21
7.8661565018
  0
LINE
  5
4F4
100
AcDbEntity
  8
0
100
AcDbLine
 62
7
  6
CONTINUOUS
 10
7.0209947334
 20
7.8661565018
 11
6.6765065445
 21
7.8661565018
  0
LINE
  5
4F5
100
AcDbEntity
  8
0
100
AcDbLine
 62
7
  6
CONTINUOUS
 10
8.3595774106
 20
7.7598572892
 11
8.3517033949
 21
7.767731305
  0
LINE
  5
4F6
100
AcDbEntity
  8
0
100
AcDbLine
 62
7
  6
CONTINUOUS
 10
9.9461915838
 20
8.3445029585
 11
9.8871364657
 21
8.3340899479
  0
LINE
  5
4F7
100
AcDbEntity
  8
AXIS
100
AcDbLine
 62
7
  6
CENTER
 10
9.8950104815
 20
8.0511958719
 11
9.7525201092
 21
8.0511958719
  0
LINE
  5
4F8
100
AcDbEntity
  8
AXIS
100
AcDbLine
 62
7
  6
CENTER
 10
6.8241443397
 20
8.0511958719
 11
6.6786913893
 21
8.0511958719
  0
LINE
  5
4F9
100
AcDbEntity
  8
AXIS
100
AcDbLine
 62
7
  6
CENTER
 10
6.8241443397
 20
8.0511958719
 11
9.7525201092
 21
8.0511958719
  0
LINE
  5
4FA
100
AcDbEntity
  8
AXIS
100
AcDbLine
 62
7
  6
CENTER
 10
9.8950104815
 20
8.0511958719
 11
10.0296978748
 21
8.0511958719
  0
LWPOLYLINE
  5
4FB
100
AcDbEntity
  8
0
100
AcDbPolyline
 62
7
  6
CONTINUOUS
 90
7
 70
0
 10
9.802555774
 20
7.8661565018
 10
9.8115623046
 20
7.8644796232
 10
9.819955055
 20
7.8595632638
 10
9.8271620732
 20
7.8517424655
 10
9.8326922127
 20
7.8415502026
 10
9.8361686038
 20
7.8296810611
 10
9.837354336
 20
7.8169439034
  0
LINE
  5
4FC
100
AcDbEntity
  8
0
100
AcDbLine
 62
7
  6
CONTINUOUS
 10
8.3595774106
 20
7.767731305
 11
8.3595774106
 21
7.7598572892
  0
LWPOLYLINE
  5
4FD
100
AcDbEntity
  8
0
100
AcDbPolyline
 62
7
  6
CONTINUOUS
 90
7
 70
0
 10
6.7197486535
 20
7.8661565018
 10
6.7107421229
 20
7.8644796232
 10
6.7023493725
 20
7.8595632638
 10
6.6951423543
 20
7.8517424655
 10
6.6896122148
 20
7.8415502026
 10
6.6861358237
 20
7.8296810611
 10
6.6849500915
 20
7.8169439034
  0
LINE
  5
4FE
100
AcDbEntity
  8
AXIS
100
AcDbLine
 62
7
  6
CENTER
 10
9.8950104815
 20
8.1889911475
 11
9.7415672227
 21
8.1889911475
  0
LINE
  5
4FF
100
AcDbEntity
  8
AXIS
100
AcDbLine
 62
7
  6
CENTER
 10
6.8241443397
 20
8.1889911475
 11
6.6901763232
 21
8.1889911475
  0
LINE
  5
500
100
AcDbEntity
  8
AXIS
100
AcDbLine
 62
7
  6
CENTER
 10
6.8241443397
 20
8.1889911475
 11
9.7415672227
 21
8.1889911475
  0
LINE
  5
501
100
AcDbEntity
  8
AXIS
100
AcDbLine
 62
7
  6
CENTER
 10
9.8950104815
 20
8.1889911475
 11
10.0334364601
 21
8.1889911475
  0
LINE
  5
502
100
AcDbEntity
  8
0
100
AcDbLine
 62
7
  6
CONTINUOUS
 10
9.8226473361
 20
8.3189124073
 11
9.7375301665
 21
8.3189124073
  0
LINE
  5
503
100
AcDbEntity
  8
0
100
AcDbLine
 62
7
  6
CONTINUOUS
 10
9.8817024542
 20
8.3405659507
 11
9.8423323754
 21
8.3405659507
  0
LINE
  5
504
100
AcDbEntity
  8
0
100
AcDbLine
 62
7
  6
CONTINUOUS
 10
9.7178451271
 20
8.3425344546
 11
9.6981600878
 21
8.3425344546
  0
LINE
  5
505
100
AcDbEntity
  8
0
100
AcDbLine
 62
7
  6
CONTINUOUS
 10
8.3674514264
 20
7.767731305
 11
8.3595774106
 21
7.7598572892
  0
LINE
  5
506
100
AcDbEntity
  8
0
100
AcDbLine
 62
7
  6
CONTINUOUS
 10
9.7178451271
 20
8.61025099
 11
9.6981600878
 21
8.61025099
  0
LINE
  5
507
100
AcDbEntity
  8
0
100
AcDbLine
 62
7
  6
CONTINUOUS
 10
9.8817024542
 20
8.612219494
 11
9.8423323754
 21
8.612219494
  0
LINE
  5
508
100
AcDbEntity
  8
0
100
AcDbLine
 62
7
  6
CONTINUOUS
 10
9.8226473361
 20
8.6338730373
 11
9.7375301665
 21
8.6338730373
  0
LINE
  5
509
100
AcDbEntity
  8
0
100
AcDbLine
 62
7
  6
CONTINUOUS
 10
9.6981600878
 20
8.7027706751
 11
7.0209947335
 21
8.7027706751
  0
LINE
  5
50A
100
AcDbEntity
  8
0
100
AcDbLine
 62
7
  6
CONTINUOUS
 10
6.6765065445
 20
8.7519832735
 11
10.0426482768
 21
8.7519832735
  0
LINE
  5
50B
100
AcDbEntity
  8
0
100
AcDbLine
 62
7
  6
CONTINUOUS
 10
9.7178451271
 20
8.6141879979
 11
9.7375301665
 21
8.6338730373
  0
LINE
  5
50C
100
AcDbEntity
  8
0
100
AcDbLine
 62
7
  6
CONTINUOUS
 10
9.9461915838
 20
8.6082824861
 11
9.8871364657
 21
8.6186954968
  0
LINE
  5
50D
100
AcDbEntity
  8
0
100
AcDbLine
 62
7
  6
CONTINUOUS
 10
9.8871364657
 20
8.6186954968
 11
9.8817024542
 21
8.612219494
  0
LINE
  5
50E
100
AcDbEntity
  8
0
100
AcDbLine
 62
7
  6
CONTINUOUS
 10
9.8226473361
 20
8.3189124073
 11
9.8423323754
 21
8.3385974467
  0
LINE
  5
50F
100
AcDbEntity
  8
0
100
AcDbLine
 62
7
  6
CONTINUOUS
 10
9.7178451271
 20
8.3385974467
 11
9.7375301665
 21
8.3189124073
  0
LINE
  5
510
100
AcDbEntity
  8
0
100
AcDbLine
 62
7
  6
CONTINUOUS
 10
9.6489474893
 20
7.8169439034
 11
9.6489474893
 21
8.7519832735
  0
LINE
  5
511
100
AcDbEntity
  8
0
100
AcDbLine
 62
7
  6
CONTINUOUS
 10
9.6981600878
 20
7.8661564329
 11
9.6489474893
 21
7.8169439034
  0
LINE
  5
512
100
AcDbEntity
  8
0
100
AcDbLine
 62
7
  6
CONTINUOUS
 10
9.8226473361
 20
8.6338730373
 11
9.8423323754
 21
8.6141879979
  0
LINE
  5
513
100
AcDbEntity
  8
0
100
AcDbLine
 62
7
  6
CONTINUOUS
 10
9.8871364657
 20
8.3340899479
 11
9.8817024542
 21
8.3405659507
  0
LINE
  5
514
100
AcDbEntity
  8
0
100
AcDbLine
 62
7
  6
CONTINUOUS
 10
9.6981600878
 20
8.7027706751
 11
9.6981600878
 21
7.8661565018
  0
LINE
  5
515
100
AcDbEntity
  8
0
100
AcDbLine
 62
7
  6
CONTINUOUS
 10
9.698160088
 20
7.767731305
 11
9.6981600878
 21
7.8661565018
  0
LINE
  5
516
100
AcDbEntity
  8
0
100
AcDbLine
 62
7
  6
CONTINUOUS
 10
9.7178451271
 20
8.6141879979
 11
9.7178451271
 21
8.3385974467
  0
LINE
  5
517
100
AcDbEntity
  8
0
100
AcDbLine
 62
7
  6
CONTINUOUS
 10
9.7375301665
 20
8.6338730373
 11
9.7375301665
 21
8.3189124073
  0
LINE
  5
518
100
AcDbEntity
  8
0
100
AcDbLine
 62
7
  6
CONTINUOUS
 10
9.8064278043
 20
8.0511958719
 11
9.8064278043
 21
8.1889911475
  0
LINE
  5
519
100
AcDbEntity
  8
0
100
AcDbLine
 62
7
  6
CONTINUOUS
 10
9.8226473361
 20
8.3189124073
 11
9.8226473361
 21
8.6338730373
  0
LINE
  5
51A
100
AcDbEntity
  8
0
100
AcDbLine
 62
7
  6
CONTINUOUS
 10
9.8423323754
 20
8.3385974467
 11
9.8423323754
 21
8.6141879979
  0
LINE
  5
51B
100
AcDbEntity
  8
0
100
AcDbLine
 62
7
  6
CONTINUOUS
 10
9.8817024542
 20
8.3405659507
 11
9.8817024542
 21
8.612219494
  0
LINE
  5
51C
100
AcDbEntity
  8
0
100
AcDbLine
 62
7
  6
CONTINUOUS
 10
9.8871364657
 20
8.3340899479
 11
9.8871364657
 21
8.6186954968
  0
LINE
  5
51D
100
AcDbEntity
  8
AXIS
100
AcDbLine
 62
7
  6
CENTER
 10
9.8950104815
 20
8.1889911475
 11
9.8950104815
 21
8.0889872105
  0
LINE
  5
51E
100
AcDbEntity
  8
AXIS
100
AcDbLine
 62
7
  6
CENTER
 10
9.8950104815
 20
8.0511958719
 11
9.8950104815
 21
7.9234599018
  0
LINE
  5
51F
100
AcDbEntity
  8
AXIS
100
AcDbLine
 62
7
  6
CENTER
 10
9.8950104815
 20
8.0511958719
 11
9.8950104815
 21
8.0889872105
  0
LINE
  5
520
100
AcDbEntity
  8
AXIS
100
AcDbLine
 62
7
  6
CENTER
 10
9.8950104815
 20
8.1889911475
 11
9.8950104815
 21
8.2889950845
  0
LWPOLYLINE
  5
521
100
AcDbEntity
  8
0
100
AcDbPolyline
 62
7
  6
CONTINUOUS
 90
7
 70
0
 10
9.837354336
 20
7.8169439034
 10
9.8361686038
 20
7.8042067457
 10
9.8326922127
 20
7.7923376042
 10
9.8271620732
 20
7.7821453413
 10
9.819955055
 20
7.774324543
 10
9.8115623046
 20
7.7694081836
 10
9.802555774
 20
7.767731305
  0
LWPOLYLINE
  5
522
100
AcDbEntity
  8
0
100
AcDbPolyline
 62
7
  6
CONTINUOUS
 90
7
 70
0
 10
10.0342047299
 20
7.8169439034
 10
10.0330189977
 20
7.8296810611
 10
10.0295426066
 20
7.8415502026
 10
10.0240124671
 20
7.8517424655
 10
10.0168054489
 20
7.8595632638
 10
10.0084126984
 20
7.8644796232
 10
9.9994061678
 20
7.8661565018
  0
LINE
  5
523
100
AcDbEntity
  8
0
100
AcDbLine
 62
7
  6
CONTINUOUS
 10
9.9461915838
 20
8.3445029585
 11
9.9461915838
 21
8.6082824861
  0
LINE
  5
524
100
AcDbEntity
  8
0
100
AcDbLine
 62
7
  6
CONTINUOUS
 10
9.9835931586
 20
8.1889911475
 11
9.9835931586
 21
8.0511958719
  0
LINE
  5
525
100
AcDbEntity
  8
0
100
AcDbLine
 62
7
  6
CONTINUOUS
 10
10.0918608752
 20
7.8169439034
 11
10.0918608752
 21
8.7027706751
  0
LINE
  5
526
100
AcDbEntity
  8
0
100
AcDbLine
 62
7
  6
CONTINUOUS
 10
13.3918446229
 20
7.7598572892
 11
13.7461753316
 21
7.7598572892
  0
LINE
  5
527
100
AcDbEntity
  8
0
100
AcDbLine
 62
7
  6
CONTINUOUS
 10
13.2835769064
 20
7.767731305
 11
13.7461753316
 21
7.767731305
  0
LINE
  5
528
100
AcDbEntity
  8
0
100
AcDbLine
 62
7
  6
CONTINUOUS
 10
13.3131044654
 20
7.767731305
 11
13.3918446229
 21
7.7598572892
  0
LWPOLYLINE
  5
529
100
AcDbEntity
  8
0
100
AcDbPolyline
 62
7
  6
CONTINUOUS
 90
7
 70
0
 10
13.5236694093
 20
7.767731305
 10
13.5146628787
 20
7.7694081836
 10
13.5062701282
 20
7.774324543
 10
13.4990631101
 20
7.7821453413
 10
13.4935329705
 20
7.7923376042
 10
13.4900565795
 20
7.8042067457
 10
13.4888708472
 20
7.8169439034
  0
LINE
  5
52A
100
AcDbEntity
  8
0
100
AcDbLine
 62
7
  6
CONTINUOUS
 10
13.6280650954
 20
7.8169439034
 11
13.7461753316
 21
7.8169439034
  0
LINE
  5
52B
100
AcDbEntity
  8
0
100
AcDbLine
 62
7
  6
CONTINUOUS
 10
13.6280650953
 20
7.8661565018
 11
13.2835769064
 21
7.8661565018
  0
LWPOLYLINE
  5
52C
100
AcDbEntity
  8
0
100
AcDbPolyline
 62
7
  6
CONTINUOUS
 90
7
 70
0
 10
13.3268190154
 20
7.8661565018
 10
13.3178124848
 20
7.8644796232
 10
13.3094197344
 20
7.8595632638
 10
13.3022127162
 20
7.8517424655
 10
13.2966825767
 20
7.8415502026
 10
13.2932061856
 20
7.8296810611
 10
13.2920204534
 20
7.8169439034
  0
LINE
  5
52D
100
AcDbEntity
  8
0
100
AcDbLine
 62
7
  6
CONTINUOUS
 10
13.2343643079
 20
7.8169439034
 11
13.2343643079
 21
8.7027706751
  0
LWPOLYLINE
  5
52E
100
AcDbEntity
  8
0
100
AcDbPolyline
 62
7
  6
CONTINUOUS
 90
7
 70
0
 10
13.2920204534
 20
7.8169439034
 10
13.2932061856
 20
7.8042067457
 10
13.2966825767
 20
7.7923376042
 10
13.3022127162
 20
7.7821453413
 10
13.3094197344
 20
7.774324543
 10
13.3178124848
 20
7.7694081836
 10
13.3268190154
 20
7.767731305
  0
LINE
  5
52F
100
AcDbEntity
  8
0
100
AcDbLine
 62
7
  6
CONTINUOUS
 10
13.2835769064
 20
8.7519832735
 11
13.2835782358
 21
7.8661565018
  0
LINE
  5
530
100
AcDbEntity
  8
0
100
AcDbLine
 62
7
  6
CONTINUOUS
 10
13.3922373443
 20
7.767731305
 11
13.3918446229
 21
7.7598572892
  0
LINE
  5
531
100
AcDbEntity
  8
AXIS
100
AcDbLine
 62
7
  6
CENTER
 10
13.450899741
 20
8.4763927223
 11
13.450899741
 21
8.2752563819
  0
LINE
  5
532
100
AcDbEntity
  8
AXIS
100
AcDbLine
 62
7
  6
CENTER
 10
13.450899741
 20
8.4763927223
 11
13.450899741
 21
8.6655646819
  0
LWPOLYLINE
  5
533
100
AcDbEntity
  8
0
100
AcDbPolyline
 62
7
  6
CONTINUOUS
 90
7
 70
0
 10
13.4888708472
 20
7.8169439034
 10
13.4900565795
 20
7.8296810611
 10
13.4935329705
 20
7.8415502026
 10
13.4990631101
 20
7.8517424655
 10
13.5062701283
 20
7.8595632638
 10
13.5146628787
 20
7.8644796232
 10
13.5236694093
 20
7.8661565018
  0
LINE
  5
534
100
AcDbEntity
  8
0
100
AcDbLine
 62
7
  6
CONTINUOUS
 10
13.6280650953
 20
7.8169439034
 11
13.6280650953
 21
7.767731305
  0
LINE
  5
535
100
AcDbEntity
  8
0
100
AcDbLine
 62
7
  6
CONTINUOUS
 10
13.6280650954
 20
7.8169439034
 11
13.6280650953
 21
8.7519832735
  0
LINE
  5
536
100
AcDbEntity
  8
AXIS
100
AcDbLine
 62
7
  6
CENTER
 10
13.450899741
 20
8.4763927223
 11
13.2692191877
 21
8.4763927223
  0
LINE
  5
537
100
AcDbEntity
  8
AXIS
100
AcDbLine
 62
7
  6
CENTER
 10
13.450899741
 20
8.4763927223
 11
13.6565366195
 21
8.4763927223
  0
LINE
  5
538
100
AcDbEntity
  8
0
100
AcDbLine
 62
7
  6
CONTINUOUS
 10
13.7461753316
 20
7.7598572892
 11
13.7461753316
 21
8.7519832735
  0
LINE
  5
539
100
AcDbEntity
  8
0
100
AcDbLine
 62
7
  6
CONTINUOUS
 10
13.7461753316
 20
8.7027706751
 11
13.2343643079
 21
8.7027706751
  0
LINE
  5
53A
100
AcDbEntity
  8
0
100
AcDbLine
 62
7
  6
CONTINUOUS
 10
13.2835769064
 20
8.7519832735
 11
13.7461753316
 21
8.7519832735
  0
LWPOLYLINE
  5
53B
100
AcDbEntity
  8
0
100
AcDbPolyline
 62
7
  6
CONTINUOUS
 90
7
 70
0
 10
2.4214734187
 20
7.767731305
 10
2.4304799493
 20
7.7694081836
 10
2.4388726998
 20
7.774324543
 10
2.446079718
 20
7.7821453413
 10
2.4516098575
 20
7.7923376042
 10
2.4550862486
 20
7.8042067457
 10
2.4562719808
 20
7.8169439034
  0
LINE
  5
53C
100
AcDbEntity
  8
0
100
AcDbLine
 62
7
  6
CONTINUOUS
 10
2.4351879686
 20
7.767731305
 11
2.3564478112
 21
7.7598572892
  0
LINE
  5
53D
100
AcDbEntity
  8
0
100
AcDbLine
 62
7
  6
CONTINUOUS
 10
2.3564478112
 20
7.7598572892
 11
2.0021171025
 21
7.7598572892
  0
LINE
  5
53E
100
AcDbEntity
  8
0
100
AcDbLine
 62
7
  6
CONTINUOUS
 10
2.0021171025
 20
7.767731305
 11
2.4647155277
 21
7.767731305
  0
LINE
  5
53F
100
AcDbEntity
  8
0
100
AcDbLine
 62
7
  6
CONTINUOUS
 10
2.0021171025
 20
7.8169439034
 11
2.1202273387
 21
7.8169439034
  0
LINE
  5
540
100
AcDbEntity
  8
0
100
AcDbLine
 62
7
  6
CONTINUOUS
 10
2.4647155277
 20
7.8661565018
 11
2.1202273387
 21
7.8661565018
  0
LWPOLYLINE
  5
541
100
AcDbEntity
  8
0
100
AcDbPolyline
 62
7
  6
CONTINUOUS
 90
7
 70
0
 10
2.2246230249
 20
7.8661565018
 10
2.2336295555
 20
7.8644796232
 10
2.2420223059
 20
7.8595632638
 10
2.2492293241
 20
7.8517424655
 10
2.2547594637
 20
7.8415502026
 10
2.2582358547
 20
7.8296810611
 10
2.259421587
 20
7.8169439034
  0
LINE
  5
542
100
AcDbEntity
  8
0
100
AcDbLine
 62
7
  6
CONTINUOUS
 10
2.0021171025
 20
7.7598572892
 11
2.0021171025
 21
8.7519832735
  0
LINE
  5
543
100
AcDbEntity
  8
0
100
AcDbLine
 62
7
  6
CONTINUOUS
 10
2.1202273389
 20
7.767731305
 11
2.1202273389
 21
7.8169439034
  0
LINE
  5
544
100
AcDbEntity
  8
0
100
AcDbLine
 62
7
  6
CONTINUOUS
 10
2.1202273387
 20
7.8169439034
 11
2.1202273387
 21
8.7519832735
  0
LWPOLYLINE
  5
545
100
AcDbEntity
  8
0
100
AcDbPolyline
 62
7
  6
CONTINUOUS
 90
7
 70
0
 10
2.259421587
 20
7.8169439034
 10
2.2582358547
 20
7.8042067457
 10
2.2547594637
 20
7.7923376042
 10
2.2492293241
 20
7.7821453413
 10
2.2420223059
 20
7.774324543
 10
2.2336295555
 20
7.7694081836
 10
2.2246230249
 20
7.767731305
  0
LINE
  5
546
100
AcDbEntity
  8
0
100
AcDbLine
 62
7
  6
CONTINUOUS
 10
2.3564478112
 20
7.7598572892
 11
2.3560550897
 21
7.767731305
  0
LWPOLYLINE
  5
547
100
AcDbEntity
  8
0
100
AcDbPolyline
 62
7
  6
CONTINUOUS
 90
7
 70
0
 10
2.4562719808
 20
7.8169439034
 10
2.4550862486
 20
7.8296810611
 10
2.4516098575
 20
7.8415502026
 10
2.446079718
 20
7.8517424655
 10
2.4388726998
 20
7.8595632638
 10
2.4304799494
 20
7.8644796232
 10
2.4214734188
 20
7.8661565018
  0
LINE
  5
548
100
AcDbEntity
  8
0
100
AcDbLine
 62
7
  6
CONTINUOUS
 10
2.4647138907
 20
7.8661565018
 11
2.4647155277
 21
8.7519832735
  0
LINE
  5
549
100
AcDbEntity
  8
0
100
AcDbLine
 62
7
  6
CONTINUOUS
 10
2.5139281261
 20
8.7027706751
 11
2.5139281261
 21
7.8169439034
  0
LINE
  5
54A
100
AcDbEntity
  8
0
100
AcDbLine
 62
7
  6
CONTINUOUS
 10
2.5139281261
 20
8.7027706751
 11
2.0021171025
 21
8.7027706751
  0
LINE
  5
54B
100
AcDbEntity
  8
0
100
AcDbLine
 62
7
  6
CONTINUOUS
 10
2.0021171025
 20
8.7519832735
 11
2.4647155277
 21
8.7519832735
  0
LINE
  5
54C
100
AcDbEntity
  8
0
100
AcDbLine
 62
7
  6
CONTINUOUS
 10
16.7947655316
 20
8.7027706751
 11
16.7947655316
 21
7.8169439034
  0
LINE
  5
54D
100
AcDbEntity
  8
0
100
AcDbLine
 62
7
  6
CONTINUOUS
 10
16.9030332482
 20
8.1889911475
 11
16.9030332482
 21
8.0511958719
  0
LINE
  5
54E
100
AcDbEntity
  8
0
100
AcDbLine
 62
7
  6
CONTINUOUS
 10
16.940434823
 20
8.5675125201
 11
16.940434823
 21
8.4246435271
  0
LINE
  5
54F
100
AcDbEntity
  8
AXIS
100
AcDbLine
 62
7
  6
CENTER
 10
16.9916159253
 20
8.4960777617
 11
16.9916159253
 21
8.3000716424
  0
LINE
  5
550
100
AcDbEntity
  8
AXIS
100
AcDbLine
 62
7
  6
CENTER
 10
16.9916159253
 20
8.1889911475
 11
16.9916159253
 21
8.0889872105
  0
LINE
  5
551
100
AcDbEntity
  8
AXIS
100
AcDbLine
 62
7
  6
CENTER
 10
16.9916159253
 20
8.0511958719
 11
16.9916159253
 21
7.9511919349
  0
LINE
  5
552
100
AcDbEntity
  8
AXIS
100
AcDbLine
 62
7
  6
CENTER
 10
16.9916159253
 20
8.0511958719
 11
16.9916159253
 21
8.0889872105
  0
LINE
  5
553
100
AcDbEntity
  8
AXIS
100
AcDbLine
 62
7
  6
CENTER
 10
16.9916159253
 20
8.1889911475
 11
16.9916159253
 21
8.2889950845
  0
LINE
  5
554
100
AcDbEntity
  8
AXIS
100
AcDbLine
 62
7
  6
CENTER
 10
16.9916159253
 20
8.4960777617
 11
16.9916159253
 21
8.6879498619
  0
LINE
  5
555
100
AcDbEntity
  8
0
100
AcDbLine
 62
7
  6
CONTINUOUS
 10
16.9994899411
 20
8.4085344618
 11
16.9994899411
 21
8.5836172067
  0
LINE
  5
556
100
AcDbEntity
  8
0
100
AcDbLine
 62
7
  6
CONTINUOUS
 10
17.0049239526
 20
8.5828972519
 11
17.0049239526
 21
8.4092517563
  0
LINE
  5
557
100
AcDbEntity
  8
0
100
AcDbLine
 62
7
  6
CONTINUOUS
 10
17.0442940314
 20
8.5663496101
 11
17.0442940314
 21
8.4257938949
  0
LINE
  5
558
100
AcDbEntity
  8
0
100
AcDbLine
 62
7
  6
CONTINUOUS
 10
17.0639790707
 20
8.5459974357
 11
17.0639790707
 21
8.4460927404
  0
LINE
  5
559
100
AcDbEntity
  8
0
100
AcDbLine
 62
7
  6
CONTINUOUS
 10
17.0801986025
 20
8.0511958719
 11
17.0801986025
 21
8.1889911475
  0
LINE
  5
55A
100
AcDbEntity
  8
0
100
AcDbLine
 62
7
  6
CONTINUOUS
 10
17.1805923033
 20
7.8208809113
 11
17.1805923033
 21
8.7106446908
  0
LINE
  5
55B
100
AcDbEntity
  8
0
100
AcDbLine
 62
7
  6
CONTINUOUS
 10
17.1845293112
 20
7.8208809113
 11
17.1845293112
 21
8.7027706751
  0
LINE
  5
55C
100
AcDbEntity
  8
0
100
AcDbLine
 62
7
  6
CONTINUOUS
 10
16.84397813
 20
7.767731305
 11
18.5191749804
 21
7.767731305
  0
LINE
  5
55D
100
AcDbEntity
  8
0
100
AcDbLine
 62
7
  6
CONTINUOUS
 10
18.5349230119
 20
7.767731305
 11
20.2101198623
 21
7.767731305
  0
LINE
  5
55E
100
AcDbEntity
  8
0
100
AcDbLine
 62
7
  6
CONTINUOUS
 10
19.8735056891
 20
7.8208809113
 11
19.8695686812
 21
7.8208809113
  0
LINE
  5
55F
100
AcDbEntity
  8
0
100
AcDbLine
 62
7
  6
CONTINUOUS
 10
17.1845293112
 20
7.8208809113
 11
17.1805923033
 21
7.8208809113
  0
LINE
  5
560
100
AcDbEntity
  8
0
100
AcDbLine
 62
7
  6
CONTINUOUS
 10
18.5270489962
 20
7.7598572892
 11
18.5191749804
 21
7.767731305
  0
LINE
  5
561
100
AcDbEntity
  8
AXIS
100
AcDbLine
 62
7
  6
CENTER
 10
16.9916159253
 20
8.0511958719
 11
16.8612559513
 21
8.0511958719
  0
LINE
  5
562
100
AcDbEntity
  8
AXIS
100
AcDbLine
 62
7
  6
CENTER
 10
16.9916159253
 20
8.0511958719
 11
17.1080025777
 21
8.0511958719
  0
LINE
  5
563
100
AcDbEntity
  8
AXIS
100
AcDbLine
 62
7
  6
CENTER
 10
16.9916159253
 20
8.1889911475
 11
16.8463016103
 21
8.1889911475
  0
LINE
  5
564
100
AcDbEntity
  8
AXIS
100
AcDbLine
 62
7
  6
CENTER
 10
16.9916159253
 20
8.1889911475
 11
17.1098718703
 21
8.1889911475
  0
LINE
  5
565
100
AcDbEntity
  8
AXIS
100
AcDbLine
 62
7
  6
CENTER
 10
16.9916159253
 20
8.4960777617
 11
16.7480370642
 21
8.4960777617
  0
LINE
  5
566
100
AcDbEntity
  8
AXIS
100
AcDbLine
 62
7
  6
CENTER
 10
16.9916159253
 20
8.4960777617
 11
17.2340531466
 21
8.4960777617
  0
LINE
  5
567
100
AcDbEntity
  8
0
100
AcDbLine
 62
7
  6
CONTINUOUS
 10
18.5349230119
 20
7.767731305
 11
18.5270489962
 21
7.7598572892
  0
LINE
  5
568
100
AcDbEntity
  8
0
100
AcDbLine
 62
7
  6
CONTINUOUS
 10
17.1845293112
 20
8.7027706751
 11
19.8695686812
 21
8.7027706751
  0
LINE
  5
569
100
AcDbEntity
  8
0
100
AcDbLine
 62
7
  6
CONTINUOUS
 10
17.1805923033
 20
8.7106446908
 11
19.8735056891
 21
8.7106446908
  0
LINE
  5
56A
100
AcDbEntity
  8
0
100
AcDbLine
 62
7
  6
CONTINUOUS
 10
20.2101198623
 20
8.7519832735
 11
16.84397813
 21
8.7519832735
  0
LINE
  5
56B
100
AcDbEntity
  8
0
100
AcDbLine
 62
7
  6
CONTINUOUS
 10
19.8695686812
 20
8.7027706751
 11
19.8695686812
 21
7.8208809113
  0
LINE
  5
56C
100
AcDbEntity
  8
0
100
AcDbLine
 62
7
  6
CONTINUOUS
 10
19.8735056891
 20
8.7106446908
 11
19.8735056891
 21
7.8208809113
  0
LINE
  5
56D
100
AcDbEntity
  8
0
100
AcDbLine
 62
7
  6
CONTINUOUS
 10
19.9738993899
 20
8.1889911475
 11
19.9738993899
 21
8.0511958719
  0
LINE
  5
56E
100
AcDbEntity
  8
0
100
AcDbLine
 62
7
  6
CONTINUOUS
 10
20.1510647442
 20
8.0511958719
 11
20.1510647442
 21
8.1889911475
  0
LINE
  5
56F
100
AcDbEntity
  8
0
100
AcDbLine
 62
7
  6
CONTINUOUS
 10
20.2593324608
 20
7.8169439034
 11
20.2593324608
 21
8.7027706751
  0
LINE
  5
570
100
AcDbEntity
  8
0
100
AcDbLine
 62
7
  6
CONTINUOUS
 10
6.627293946
 20
12.2484671689
 11
6.627293946
 21
12.3665774051
  0
LINE
  5
571
100
AcDbEntity
  8
0
100
AcDbLine
 62
7
  6
CONTINUOUS
 10
6.6765065445
 20
12.3665774051
 11
6.6765065445
 21
12.2484671689
  0
LINE
  5
572
100
AcDbEntity
  8
0
100
AcDbLine
 62
7
  6
CONTINUOUS
 10
7.0209947334
 20
11.9039806169
 11
7.0209947334
 21
11.8547663815
  0
LINE
  5
573
100
AcDbEntity
  8
0
100
AcDbLine
 62
7
  6
CONTINUOUS
 10
7.0209947334
 20
11.9039789799
 11
7.0209947334
 21
12.2484671689
  0
LINE
  5
574
100
AcDbEntity
  8
0
100
AcDbLine
 62
7
  6
CONTINUOUS
 10
7.0702073319
 20
12.2484671689
 11
7.0702073319
 21
11.8547663815
  0
LINE
  5
575
100
AcDbEntity
  8
0
100
AcDbLine
 62
7
  6
CONTINUOUS
 10
6.7197486535
 20
12.1440714827
 11
6.6849500915
 21
12.1092729206
  0
LINE
  5
576
100
AcDbEntity
  8
0
100
AcDbLine
 62
7
  6
CONTINUOUS
 10
6.6849500915
 20
12.1092729206
 11
6.8818004853
 21
11.9124225268
  0
LINE
  5
577
100
AcDbEntity
  8
0
100
AcDbLine
 62
7
  6
CONTINUOUS
 10
6.9165990472
 20
11.947221089
 11
6.7197486535
 21
12.1440714827
  0
LINE
  5
578
100
AcDbEntity
  8
0
100
AcDbLine
 62
7
  6
CONTINUOUS
 10
6.8818004853
 20
11.9124225268
 11
6.9165990474
 21
11.9472210888
  0
LINE
  5
579
100
AcDbEntity
  8
0
100
AcDbLine
 62
7
  6
CONTINUOUS
 10
9.9461915838
 20
11.9394120508
 11
9.8871364657
 21
11.9289990401
  0
LINE
  5
57A
100
AcDbEntity
  8
0
100
AcDbLine
 62
7
  6
CONTINUOUS
 10
7.0209947334
 20
11.8547663815
 11
9.6981600879
 21
11.8547663815
  0
LINE
  5
57B
100
AcDbEntity
  8
0
100
AcDbLine
 62
7
  6
CONTINUOUS
 10
7.0209947334
 20
11.9039789799
 11
9.6981600878
 21
11.9039789799
  0
LINE
  5
57C
100
AcDbEntity
  8
0
100
AcDbLine
 62
7
  6
CONTINUOUS
 10
9.8226473361
 20
11.9138214996
 11
9.7375301665
 21
11.9138214996
  0
LINE
  5
57D
100
AcDbEntity
  8
0
100
AcDbLine
 62
7
  6
CONTINUOUS
 10
9.8817024542
 20
11.9354750429
 11
9.8423323754
 21
11.9354750429
  0
LINE
  5
57E
100
AcDbEntity
  8
0
100
AcDbLine
 62
7
  6
CONTINUOUS
 10
9.7178451271
 20
11.9374435469
 11
9.6981600878
 21
11.9374435469
  0
LINE
  5
57F
100
AcDbEntity
  8
0
100
AcDbLine
 62
7
  6
CONTINUOUS
 10
9.7178451271
 20
12.2051600823
 11
9.6981600878
 21
12.2051600823
  0
LINE
  5
580
100
AcDbEntity
  8
0
100
AcDbLine
 62
7
  6
CONTINUOUS
 10
9.8817024542
 20
12.2071285862
 11
9.8423323754
 21
12.2071285862
  0
LINE
  5
581
100
AcDbEntity
  8
0
100
AcDbLine
 62
7
  6
CONTINUOUS
 10
9.8226473361
 20
12.2287821295
 11
9.7375301665
 21
12.2287821295
  0
LINE
  5
582
100
AcDbEntity
  8
0
100
AcDbLine
 62
7
  6
CONTINUOUS
 10
6.627293946
 20
12.2484671689
 11
7.0702073319
 21
12.2484671689
  0
LINE
  5
583
100
AcDbEntity
  8
0
100
AcDbLine
 62
7
  6
CONTINUOUS
 10
9.6489474893
 20
12.2484671689
 11
10.0918608752
 21
12.2484671689
  0
LINE
  5
584
100
AcDbEntity
  8
0
100
AcDbLine
 62
7
  6
CONTINUOUS
 10
6.627293946
 20
12.3665774051
 11
10.0918608752
 21
12.3665774051
  0
LINE
  5
585
100
AcDbEntity
  8
0
100
AcDbLine
 62
7
  6
CONTINUOUS
 10
9.9461915838
 20
12.2031915784
 11
9.8871364657
 21
12.213604589
  0
LINE
  5
586
100
AcDbEntity
  8
0
100
AcDbLine
 62
7
  6
CONTINUOUS
 10
9.7178451271
 20
12.2090970902
 11
9.7375301665
 21
12.2287821295
  0
LINE
  5
587
100
AcDbEntity
  8
0
100
AcDbLine
 62
7
  6
CONTINUOUS
 10
9.7178451271
 20
11.933506539
 11
9.7375301665
 21
11.9138214996
  0
LINE
  5
588
100
AcDbEntity
  8
0
100
AcDbLine
 62
7
  6
CONTINUOUS
 10
9.8293013497
 20
11.9204755133
 11
9.837354336
 21
11.9124225269
  0
LINE
  5
589
100
AcDbEntity
  8
0
100
AcDbLine
 62
7
  6
CONTINUOUS
 10
9.8817024542
 20
11.9354750429
 11
9.8871364657
 21
11.9289990401
  0
LINE
  5
58A
100
AcDbEntity
  8
0
100
AcDbLine
 62
7
  6
CONTINUOUS
 10
9.8817024542
 20
12.2071285862
 11
9.8871364657
 21
12.213604589
  0
LINE
  5
58B
100
AcDbEntity
  8
0
100
AcDbLine
 62
7
  6
CONTINUOUS
 10
9.9994061677
 20
12.1440714827
 11
9.9461915838
 21
12.0908568989
  0
LINE
  5
58C
100
AcDbEntity
  8
0
100
AcDbLine
 62
7
  6
CONTINUOUS
 10
9.8423323754
 20
11.933506539
 11
9.8226473361
 21
11.9138214996
  0
LINE
  5
58D
100
AcDbEntity
  8
0
100
AcDbLine
 62
7
  6
CONTINUOUS
 10
9.8423323754
 20
12.2090970902
 11
9.8226473361
 21
12.2287821295
  0
LINE
  5
58E
100
AcDbEntity
  8
0
100
AcDbLine
 62
7
  6
CONTINUOUS
 10
9.6489474893
 20
11.8547663815
 11
9.6489474893
 21
12.2484671689
  0
LINE
  5
58F
100
AcDbEntity
  8
0
100
AcDbLine
 62
7
  6
CONTINUOUS
 10
9.837354336
 20
11.9124225269
 11
9.860406852
 21
11.9354750429
  0
LINE
  5
590
100
AcDbEntity
  8
0
100
AcDbLine
 62
7
  6
CONTINUOUS
 10
9.9461915838
 20
12.0212597747
 11
10.0342047299
 21
12.1092729208
  0
LINE
  5
591
100
AcDbEntity
  8
0
100
AcDbLine
 62
7
  6
CONTINUOUS
 10
10.0342047299
 20
12.1092729208
 11
9.9994061678
 21
12.1440714829
  0
LINE
  5
592
100
AcDbEntity
  8
0
100
AcDbLine
 62
7
  6
CONTINUOUS
 10
9.6981600878
 20
12.2484671689
 11
9.6981600878
 21
11.9039789799
  0
LINE
  5
593
100
AcDbEntity
  8
0
100
AcDbLine
 62
7
  6
CONTINUOUS
 10
9.6981600879
 20
11.8547663815
 11
9.6981600878
 21
11.9039803093
  0
LINE
  5
594
100
AcDbEntity
  8
0
100
AcDbLine
 62
7
  6
CONTINUOUS
 10
9.7178451271
 20
12.2090970902
 11
9.7178451271
 21
11.933506539
  0
LINE
  5
595
100
AcDbEntity
  8
0
100
AcDbLine
 62
7
  6
CONTINUOUS
 10
9.7375301665
 20
12.2287821295
 11
9.7375301665
 21
11.9138214996
  0
LINE
  5
596
100
AcDbEntity
  8
0
100
AcDbLine
 62
7
  6
CONTINUOUS
 10
9.8226473361
 20
11.9138214996
 11
9.8226473361
 21
12.2287821295
  0
LINE
  5
597
100
AcDbEntity
  8
0
100
AcDbLine
 62
7
  6
CONTINUOUS
 10
9.8423323754
 20
11.933506539
 11
9.8423323754
 21
12.2090970902
  0
LINE
  5
598
100
AcDbEntity
  8
0
100
AcDbLine
 62
7
  6
CONTINUOUS
 10
9.8817024542
 20
11.9354750429
 11
9.8817024542
 21
12.2071285862
  0
LINE
  5
599
100
AcDbEntity
  8
0
100
AcDbLine
 62
7
  6
CONTINUOUS
 10
9.8871364657
 20
11.9289990401
 11
9.8871364657
 21
12.213604589
  0
LINE
  5
59A
100
AcDbEntity
  8
0
100
AcDbLine
 62
7
  6
CONTINUOUS
 10
9.9461915838
 20
11.9394210223
 11
9.9461915838
 21
12.2031826068
  0
LINE
  5
59B
100
AcDbEntity
  8
0
100
AcDbLine
 62
7
  6
CONTINUOUS
 10
10.0426482768
 20
12.2484671689
 11
10.0426482768
 21
12.3665774051
  0
LINE
  5
59C
100
AcDbEntity
  8
0
100
AcDbLine
 62
7
  6
CONTINUOUS
 10
10.0918608752
 20
12.3665774051
 11
10.0918608752
 21
12.2484671689
  0
LINE
  5
59D
100
AcDbEntity
  8
0
100
AcDbLine
 62
7
  6
CONTINUOUS
 10
6.627293946
 20
4.0950360181
 11
6.627293946
 21
4.2131462543
  0
LINE
  5
59E
100
AcDbEntity
  8
0
100
AcDbLine
 62
7
  6
CONTINUOUS
 10
6.6765065445
 20
4.2131462543
 11
6.6765065445
 21
4.0950360181
  0
LINE
  5
59F
100
AcDbEntity
  8
0
100
AcDbLine
 62
7
  6
CONTINUOUS
 10
7.0209947334
 20
4.6068470417
 11
7.0209947334
 21
4.5576344433
  0
LINE
  5
5A0
100
AcDbEntity
  8
0
100
AcDbLine
 62
7
  6
CONTINUOUS
 10
6.6849500915
 20
4.3523405026
 11
6.8818004853
 21
4.5491908964
  0
LINE
  5
5A1
100
AcDbEntity
  8
0
100
AcDbLine
 62
7
  6
CONTINUOUS
 10
6.6849500915
 20
4.3523405026
 11
6.7197486535
 21
4.3175419405
  0
LINE
  5
5A2
100
AcDbEntity
  8
0
100
AcDbLine
 62
7
  6
CONTINUOUS
 10
6.7197486535
 20
4.3175419405
 11
6.9165990472
 21
4.5143923342
  0
LINE
  5
5A3
100
AcDbEntity
  8
0
100
AcDbLine
 62
7
  6
CONTINUOUS
 10
6.9165990474
 20
4.5143923343
 11
6.8818004853
 21
4.5491908964
  0
LINE
  5
5A4
100
AcDbEntity
  8
0
100
AcDbLine
 62
7
  6
CONTINUOUS
 10
6.627293946
 20
4.0950360181
 11
10.0918608752
 21
4.0950360181
  0
LINE
  5
5A5
100
AcDbEntity
  8
0
100
AcDbLine
 62
7
  6
CONTINUOUS
 10
10.0918608752
 20
4.2131462543
 11
10.0426482768
 21
4.2131462543
  0
LINE
  5
5A6
100
AcDbEntity
  8
0
100
AcDbLine
 62
7
  6
CONTINUOUS
 10
6.6765065445
 20
4.2131462545
 11
6.627293946
 21
4.2131462545
  0
LINE
  5
5A7
100
AcDbEntity
  8
0
100
AcDbLine
 62
7
  6
CONTINUOUS
 10
8.3517033949
 20
4.4489740053
 11
8.3517033949
 21
4.0950360181
  0
LINE
  5
5A8
100
AcDbEntity
  8
0
100
AcDbLine
 62
7
  6
CONTINUOUS
 10
8.3595774106
 20
4.5281068842
 11
8.3595774106
 21
4.0950360181
  0
LINE
  5
5A9
100
AcDbEntity
  8
0
100
AcDbLine
 62
7
  6
CONTINUOUS
 10
8.3674514264
 20
4.4489740053
 11
8.3674514264
 21
4.0950360181
  0
LINE
  5
5AA
100
AcDbEntity
  8
0
100
AcDbLine
 62
7
  6
CONTINUOUS
 10
8.3595774106
 20
4.5281068842
 11
8.3517033949
 21
4.4489740053
  0
LINE
  5
5AB
100
AcDbEntity
  8
0
100
AcDbLine
 62
7
  6
CONTINUOUS
 10
8.3595774106
 20
4.5281068842
 11
8.3674514264
 21
4.4489740053
  0
LINE
  5
5AC
100
AcDbEntity
  8
0
100
AcDbLine
 62
7
  6
CONTINUOUS
 10
8.3595774106
 20
4.4493667267
 11
8.3517033949
 21
4.4489740053
  0
LINE
  5
5AD
100
AcDbEntity
  8
0
100
AcDbLine
 62
7
  6
CONTINUOUS
 10
8.3674514264
 20
4.4489740053
 11
8.3595774106
 21
4.4493667267
  0
LINE
  5
5AE
100
AcDbEntity
  8
0
100
AcDbLine
 62
7
  6
CONTINUOUS
 10
9.8817024542
 20
4.5261383803
 11
9.860406852
 21
4.5261383803
  0
LINE
  5
5AF
100
AcDbEntity
  8
0
100
AcDbLine
 62
7
  6
CONTINUOUS
 10
9.6981600878
 20
4.5576344433
 11
7.0209947334
 21
4.5576344433
  0
LINE
  5
5B0
100
AcDbEntity
  8
0
100
AcDbLine
 62
7
  6
CONTINUOUS
 10
7.0209947334
 20
4.6068470417
 11
9.6981600879
 21
4.6068470417
  0
LINE
  5
5B1
100
AcDbEntity
  8
0
100
AcDbLine
 62
7
  6
CONTINUOUS
 10
9.9461915838
 20
4.5222013724
 11
9.8871364657
 21
4.5326143831
  0
LINE
  5
5B2
100
AcDbEntity
  8
0
100
AcDbLine
 62
7
  6
CONTINUOUS
 10
9.837354336
 20
4.5491908963
 11
9.802555774
 21
4.5143923342
  0
LINE
  5
5B3
100
AcDbEntity
  8
0
100
AcDbLine
 62
7
  6
CONTINUOUS
 10
9.8817024542
 20
4.5261383803
 11
9.8871364657
 21
4.5326143831
  0
LINE
  5
5B4
100
AcDbEntity
  8
0
100
AcDbLine
 62
7
  6
CONTINUOUS
 10
9.802555774
 20
4.5143923342
 11
9.9994061677
 21
4.3175419405
  0
LINE
  5
5B5
100
AcDbEntity
  8
0
100
AcDbLine
 62
7
  6
CONTINUOUS
 10
9.9994061678
 20
4.3175419404
 11
10.0342047299
 21
4.3523405024
  0
LINE
  5
5B6
100
AcDbEntity
  8
0
100
AcDbLine
 62
7
  6
CONTINUOUS
 10
9.837354336
 20
4.5491908963
 11
10.0342047299
 21
4.3523405024
  0
LINE
  5
5B7
100
AcDbEntity
  8
0
100
AcDbLine
 62
7
  6
CONTINUOUS
 10
9.698160088
 20
4.5576344433
 11
9.6981600879
 21
4.6068470417
  0
LINE
  5
5B8
100
AcDbEntity
  8
0
100
AcDbLine
 62
7
  6
CONTINUOUS
 10
9.8817024542
 20
4.5048427781
 11
9.8817024542
 21
4.5261383803
  0
LINE
  5
5B9
100
AcDbEntity
  8
0
100
AcDbLine
 62
7
  6
CONTINUOUS
 10
9.8871364657
 20
4.4994087666
 11
9.8871364657
 21
4.5326143831
  0
LINE
  5
5BA
100
AcDbEntity
  8
0
100
AcDbLine
 62
7
  6
CONTINUOUS
 10
9.9461915838
 20
4.4403536485
 11
9.9461915838
 21
4.5221924009
  0
LINE
  5
5BB
100
AcDbEntity
  8
0
100
AcDbLine
 62
7
  6
CONTINUOUS
 10
10.0426482768
 20
4.0950360181
 11
10.0426482768
 21
4.2131462543
  0
LINE
  5
5BC
100
AcDbEntity
  8
0
100
AcDbLine
 62
7
  6
CONTINUOUS
 10
10.0918608752
 20
4.2131462543
 11
10.0918608752
 21
4.0950360181
  0
CIRCLE
  5
5BD
100
AcDbEntity
  8
0
100
AcDbCircle
 62
7
  6
CONTINUOUS
 10
15.2229827477
 20
1.1139932523
 40
0.252091
  0
CIRCLE
  5
5BE
100
AcDbEntity
  8
0
100
AcDbCircle
 62
7
  6
CONTINUOUS
 10
15.2229827477
 20
1.1139932523
 40
0.182698
  0
CIRCLE
  5
5BF
100
AcDbEntity
  8
0
100
AcDbCircle
 62
7
  6
CONTINUOUS
 10
14.8013422688
 20
1.8652439144
 40
0.0638444824
  0
ARC
  5
5C0
100
AcDbEntity
  8
0
100
AcDbCircle
 62
7
  6
CONTINUOUS
 10
19.8538156347
 20
14.548158209
 40
0.0492125984
100
AcDbArc
 50
0.0
 51
60.0002386321
  0
ARC
  5
5C1
100
AcDbEntity
  8
0
100
AcDbCircle
 62
7
  6
CONTINUOUS
 10
6.8241443397
 20
8.0511958719
 40
0.0885826772
100
AcDbArc
 50
180.0
 51
360.0
  0
ARC
  5
5C2
100
AcDbEntity
  8
0
100
AcDbCircle
 62
7
  6
CONTINUOUS
 10
6.8241443397
 20
8.1889911475
 40
0.0885826772
100
AcDbArc
 50
0.0
 51
180.0
  0
ARC
  5
5C3
100
AcDbEntity
  8
0
100
AcDbCircle
 62
7
  6
CONTINUOUS
 10
9.8950104815
 20
8.1889911475
 40
0.0885826772
100
AcDbArc
 50
0.0
 51
180.0
  0
ARC
  5
5C4
100
AcDbEntity
  8
0
100
AcDbCircle
 62
7
  6
CONTINUOUS
 10
9.8950104815
 20
8.0511958719
 40
0.0885826772
100
AcDbArc
 50
180.0
 51
360.0
  0
ARC
  5
5C5
100
AcDbEntity
  8
0
100
AcDbCircle
 62
7
  6
CONTINUOUS
 10
9.8950104815
 20
8.4960777617
 40
0.0885826772
100
AcDbArc
 50
305.6281237763
 51
54.3707714104
  0
ARC
  5
5C6
100
AcDbEntity
  8
0
100
AcDbCircle
 62
7
  6
CONTINUOUS
 10
6.6765065445
 20
7.8169439034
 40
0.0492125984
100
AcDbArc
 50
90.0
 51
270.0
  0
ARC
  5
5C7
100
AcDbEntity
  8
0
100
AcDbCircle
 62
7
  6
CONTINUOUS
 10
6.6765065445
 20
8.7027706751
 40
0.0492125984
100
AcDbArc
 50
90.0
 51
180.0
  0
ARC
  5
5C8
100
AcDbEntity
  8
0
100
AcDbCircle
 62
7
  6
CONTINUOUS
 10
9.6489474893
 20
8.7027706751
 40
0.0492125984
100
AcDbArc
 50
0.0
 51
90.0
  0
ARC
  5
5C9
100
AcDbEntity
  8
0
100
AcDbCircle
 62
7
  6
CONTINUOUS
 10
7.0702073319
 20
8.7027706751
 40
0.0492125984
100
AcDbArc
 50
90.0
 51
180.0
  0
ARC
  5
5CA
100
AcDbEntity
  8
0
100
AcDbCircle
 62
7
  6
CONTINUOUS
 10
10.0426482768
 20
7.8169439034
 40
0.0492125984
100
AcDbArc
 50
270.0
 51
90.0
  0
ARC
  5
5CB
100
AcDbEntity
  8
0
100
AcDbCircle
 62
7
  6
CONTINUOUS
 10
10.0426482768
 20
8.7027706751
 40
0.0492125984
100
AcDbArc
 50
0.0
 51
90.0
  0
CIRCLE
  5
5CC
100
AcDbEntity
  8
0
100
AcDbCircle
 62
7
  6
CONTINUOUS
 10
13.450899741
 20
8.4763927223
 40
0.157480315
  0
CIRCLE
  5
5CD
100
AcDbEntity
  8
0
100
AcDbCircle
 62
7
  6
CONTINUOUS
 10
13.450899741
 20
8.4763927223
 40
0.1423027745
  0
CIRCLE
  5
5CE
100
AcDbEntity
  8
0
100
AcDbCircle
 62
7
  6
CONTINUOUS
 10
13.450899741
 20
8.4763927223
 40
0.1318897638
  0
CIRCLE
  5
5CF
100
AcDbEntity
  8
0
100
AcDbCircle
 62
7
  6
CONTINUOUS
 10
13.450899741
 20
8.4763927223
 40
0.1122047244
  0
ARC
  5
5D0
100
AcDbEntity
  8
0
100
AcDbCircle
 62
7
  6
CONTINUOUS
 10
13.2835769064
 20
7.8169439034
 40
0.0492125984
100
AcDbArc
 50
89.9984522611
 51
270.0
  0
ARC
  5
5D1
100
AcDbEntity
  8
0
100
AcDbCircle
 62
7
  6
CONTINUOUS
 10
13.2835769064
 20
8.7027706751
 40
0.0492125984
100
AcDbArc
 50
90.0
 51
180.0
  0
CIRCLE
  5
5D2
100
AcDbEntity
  8
0
100
AcDbCircle
 62
7
  6
CONTINUOUS
 10
13.4902698198
 20
8.4198517514
 40
0.0196850394
  0
CIRCLE
  5
5D3
100
AcDbEntity
  8
0
100
AcDbCircle
 62
7
  6
CONTINUOUS
 10
13.3848741118
 20
8.4960777617
 40
0.0196850394
  0
CIRCLE
  5
5D4
100
AcDbEntity
  8
0
100
AcDbCircle
 62
7
  6
CONTINUOUS
 10
13.5169253703
 20
8.4960777617
 40
0.0196850394
  0
CIRCLE
  5
5D5
100
AcDbEntity
  8
0
100
AcDbCircle
 62
7
  6
CONTINUOUS
 10
13.4115296623
 20
8.4198517514
 40
0.0196850394
  0
ARC
  5
5D6
100
AcDbEntity
  8
0
100
AcDbCircle
 62
7
  6
CONTINUOUS
 10
2.4647155277
 20
7.8169439034
 40
0.0492125984
100
AcDbArc
 50
270.0
 51
90.0019058796
  0
ARC
  5
5D7
100
AcDbEntity
  8
0
100
AcDbCircle
 62
7
  6
CONTINUOUS
 10
2.4647155277
 20
8.7027706751
 40
0.0492125984
100
AcDbArc
 50
0.0
 51
90.0
  0
ARC
  5
5D8
100
AcDbEntity
  8
0
100
AcDbCircle
 62
7
  6
CONTINUOUS
 10
20.0624820671
 20
8.0511958719
 40
0.0885826772
100
AcDbArc
 50
180.0
 51
360.0
  0
ARC
  5
5D9
100
AcDbEntity
  8
0
100
AcDbCircle
 62
7
  6
CONTINUOUS
 10
20.0624820671
 20
8.1889911475
 40
0.0885826772
100
AcDbArc
 50
0.0
 51
180.0
  0
ARC
  5
5DA
100
AcDbEntity
  8
0
100
AcDbCircle
 62
7
  6
CONTINUOUS
 10
16.9916159253
 20
8.0511958719
 40
0.0885826772
100
AcDbArc
 50
180.0
 51
360.0
  0
ARC
  5
5DB
100
AcDbEntity
  8
0
100
AcDbCircle
 62
7
  6
CONTINUOUS
 10
16.9916159253
 20
8.1889911475
 40
0.0885826772
100
AcDbArc
 50
0.0
 51
180.0
  0
CIRCLE
  5
5DC
100
AcDbEntity
  8
0
100
AcDbCircle
 62
7
  6
CONTINUOUS
 10
16.9916159253
 20
8.4960777617
 40
0.0885826772
  0
ARC
  5
5DD
100
AcDbEntity
  8
0
100
AcDbCircle
 62
7
  6
CONTINUOUS
 10
16.84397813
 20
7.8169439034
 40
0.0492125984
100
AcDbArc
 50
180.0
 51
270.0
  0
ARC
  5
5DE
100
AcDbEntity
  8
0
100
AcDbCircle
 62
7
  6
CONTINUOUS
 10
16.84397813
 20
8.7027706751
 40
0.0492125984
100
AcDbArc
 50
90.0
 51
180.0
  0
ARC
  5
5DF
100
AcDbEntity
  8
0
100
AcDbCircle
 62
7
  6
CONTINUOUS
 10
20.2101198623
 20
8.7027706751
 40
0.0492125984
100
AcDbArc
 50
0.0
 51
90.0
  0
ARC
  5
5E0
100
AcDbEntity
  8
0
100
AcDbCircle
 62
7
  6
CONTINUOUS
 10
20.2101198623
 20
7.8169439034
 40
0.0492125984
100
AcDbArc
 50
270.0
 51
360.0
  0
ARC
  5
5E1
100
AcDbEntity
  8
0
100
AcDbCircle
 62
7
  6
CONTINUOUS
 10
6.8241443397
 20
12.2484671689
 40
0.1968503937
100
AcDbArc
 50
180.0
 51
225.0000000003
  0
ARC
  5
5E2
100
AcDbEntity
  8
0
100
AcDbCircle
 62
7
  6
CONTINUOUS
 10
9.6981600878
 20
12.0516167752
 40
0.1968503937
100
AcDbArc
 50
270.0000000302
 51
315.0000000003
  0
ARC
  5
5E3
100
AcDbEntity
  8
0
100
AcDbCircle
 62
7
  6
CONTINUOUS
 10
9.8950104815
 20
12.2484671689
 40
0.1968503937
100
AcDbArc
 50
315.0000000677
 51
360.0
  0
ARC
  5
5E4
100
AcDbEntity
  8
0
100
AcDbCircle
 62
7
  6
CONTINUOUS
 10
7.0209947334
 20
12.0516167752
 40
0.1968503937
100
AcDbArc
 50
225.0000000679
 51
270.0000000002
  0
ARC
  5
5E5
100
AcDbEntity
  8
0
100
AcDbCircle
 62
7
  6
CONTINUOUS
 10
6.8241443397
 20
12.2484671689
 40
0.1476377953
100
AcDbArc
 50
180.0
 51
225.0000000001
  0
ARC
  5
5E6
100
AcDbEntity
  8
0
100
AcDbCircle
 62
7
  6
CONTINUOUS
 10
9.8950104815
 20
12.2484671689
 40
0.1476377953
100
AcDbArc
 50
314.9999999999
 51
360.0
  0
ARC
  5
5E7
100
AcDbEntity
  8
0
100
AcDbCircle
 62
7
  6
CONTINUOUS
 10
9.6981600878
 20
12.0516167752
 40
0.1476377953
100
AcDbArc
 50
270.0
 51
290.6374468575
  0
ARC
  5
5E8
100
AcDbEntity
  8
0
100
AcDbCircle
 62
7
  6
CONTINUOUS
 10
7.0209947334
 20
12.0516167752
 40
0.1476377953
100
AcDbArc
 50
224.9999999999
 51
270.0
  0
ARC
  5
5E9
100
AcDbEntity
  8
0
100
AcDbCircle
 62
7
  6
CONTINUOUS
 10
9.6489474893
 20
11.9039789799
 40
0.0492125984
100
AcDbArc
 50
270.0
 51
0.0007738723
  0
ARC
  5
5EA
100
AcDbEntity
  8
0
100
AcDbCircle
 62
7
  6
CONTINUOUS
 10
7.0702073319
 20
11.9039789799
 40
0.0492125984
100
AcDbArc
 50
179.9990470575
 51
270.0
  0
ARC
  5
5EB
100
AcDbEntity
  8
0
100
AcDbCircle
 62
7
  6
CONTINUOUS
 10
6.8241443397
 20
4.2131462543
 40
0.1968503937
100
AcDbArc
 50
134.9999999997
 51
180.0
  0
ARC
  5
5EC
100
AcDbEntity
  8
0
100
AcDbCircle
 62
7
  6
CONTINUOUS
 10
9.6981600878
 20
4.409996648
 40
0.1968503937
100
AcDbArc
 50
44.9999999997
 51
89.9999999698
  0
ARC
  5
5ED
100
AcDbEntity
  8
0
100
AcDbCircle
 62
7
  6
CONTINUOUS
 10
9.8950104815
 20
4.2131462543
 40
0.1968503937
100
AcDbArc
 50
0.0
 51
44.9999999323
  0
ARC
  5
5EE
100
AcDbEntity
  8
0
100
AcDbCircle
 62
7
  6
CONTINUOUS
 10
7.0209947334
 20
4.409996648
 40
0.1968503937
100
AcDbArc
 50
89.9999999998
 51
134.9999999321
  0
ARC
  5
5EF
100
AcDbEntity
  8
0
100
AcDbCircle
 62
7
  6
CONTINUOUS
 10
6.8241443397
 20
4.2131462543
 40
0.1476377953
100
AcDbArc
 50
134.9999999999
 51
180.0
  0
ARC
  5
5F0
100
AcDbEntity
  8
0
100
AcDbCircle
 62
7
  6
CONTINUOUS
 10
7.0209947334
 20
4.409996648
 40
0.1476377953
100
AcDbArc
 50
90.0
 51
135.0000000001
  0
ARC
  5
5F1
100
AcDbEntity
  8
0
100
AcDbCircle
 62
7
  6
CONTINUOUS
 10
9.6981600878
 20
4.409996648
 40
0.1476377953
100
AcDbArc
 50
44.9999999999
 51
90.0
  0
ARC
  5
5F2
100
AcDbEntity
  8
0
100
AcDbCircle
 62
7
  6
CONTINUOUS
 10
9.8950104815
 20
4.2131462543
 40
0.1476377953
100
AcDbArc
 50
0.0
 51
45.0000000001
  0
ENDSEC
  0
SECTION
  2
OBJECTS
  0
DICTIONARY
  5
C
100
AcDbDictionary
280
0
281
1
  3
ACAD_GROUP
350
D
  3
ACAD_MLINESTYLE
350
17
  3
ACAD_LAYOUT
350
1A
  3
ACAD_PLOTSETTINGS
350
19
  3
ACAD_PLOTSTYLENAME
350
E
  3
ACAD_TABLESTYLE
350
       5F3
  0
DICTIONARY
  5
D
102
{ACAD_REACTORS
330
C
102
}
100
AcDbDictionary
280
0
281
1
  0
ACDBDICTIONARYWDFLT
  5
E
102
{ACAD_REACTORS
330
C
102
}
100
AcDbDictionary
281
1
  3
Normal
350
F
100
AcDbDictionaryWithDefault
340
F
  0
DICTIONARY
  5
17
102
{ACAD_REACTORS
330
C
102
}
100
AcDbDictionary
280
0
281
1
  3
Standard
350
18
  0
DICTIONARY
  5
5F3
330
C
100
AcDbDictionary
281
1
  3
Standard
350
       5F6
  3
Standard1
350
       5F7
  0
DICTIONARY
  5
19
102
{ACAD_REACTORS
330
C
102
}
100
AcDbDictionary
281
1
  0
DICTIONARY
  5
1A
102
{ACAD_REACTORS
330
C
102
}
100
AcDbDictionary
281
1
  3
Model
350
5F4
  3
Layout1
350
5F5
  0
ACDBPLACEHOLDER
  5
F
102
{ACAD_REACTORS
330
E
102
}
  0
MLINESTYLE
  5
18
102
{ACAD_REACTORS
330
17
102
}
100
AcDbMlineStyle
  2
STANDARD
 70
0
  3

 62
256
 51
90.0
 52
90.0
 71
2
 49
0.5
 62
256
  6
BYLAYER
 49
-0.5
 62
256
  6
BYLAYER
  0
LAYOUT
  5
5F4
102
{ACAD_REACTORS
330
1A
102
}
100
AcDbPlotSettings
  1

  2
none_device
  4
ANSI_C_(22.00_x_17.00_Inches)
  6

 40
0.0
 41
0.0
 42
0.0
 43
0.0
 44
558.8
 45
431.8
 46
0.0
 47
0.0
 48
0.0
 49
0.0
140
0.0
141
0.0
142
1.0
143
1.0
 70
1024
 72
0
 73
0
 74
0
  7

 75
0
147
1.0
148
0.0
149
0.0
100
AcDbLayout
  1
Model
 70
0
 71
0
 10
0.0
 20
0.0
 11
22.0
 21
17.0
 12
0.0
 22
0.0
 32
0.0
 14
0.0
 24
0.0
 34
0.0
 15
0.0
 25
0.0
 35
0.0
146
0.0
 13
0.0
 23
0.0
 33
0.0
 16
1.0
 26
0.0
 36
0.0
 17
0.0
 27
1.0
 37
0.0
 76
0
330
209
345
0
346
0
  0
LAYOUT
  5
5F5
102
{ACAD_REACTORS
330
1A
102
}
100
AcDbPlotSettings
  1

  2
none_device
  4
ANSI_C_(22.00_x_17.00_Inches)
  6

 40
0.0
 41
0.0
 42
0.0
 43
0.0
 44
558.8
 45
431.8
 46
0.0
 47
0.0
 48
0.0
 49
0.0
140
0.0
141
0.0
142
1.0
143
1.0
 70
0
 72
0
 73
0
 74
0
  7

 75
0
147
1.0
148
0.0
149
0.0
100
AcDbLayout
  1
Layout1
 70
0
 71
1
 10
0.0
 20
0.0
 11
22.0
 21
17.0
 12
0.0
 22
0.0
 32
0.0
 14
0.0
 24
0.0
 34
0.0
 15
0.0
 25
0.0
 35
0.0
146
0.0
 13
0.0
 23
0.0
 33
0.0
 16
1.0
 26
0.0
 36
0.0
 17
0.0
 27
1.0
 37
0.0
 76
0
330
20A
345
0
346
0
  0
TABLESTYLE
  5
5F6
102
{ACAD_REACTORS
330
5F3
102
}
330
5F3
100
AcDbTableStyle
  3
Standard
 70
0
 71
0
 40
0.06
 41
0.06
280
1
281
1
  7
Standard
140
0.18
170
1
 62
0
 63
7
283
0
  7
Standard
140
0.18
170
1
 62
0
 63
7
283
0
  7
Standard
140
0.18
170
1
 62
0
 63
7
283
0
  0
TABLESTYLE
  5
5F7
102
{ACAD_REACTORS
330
5F3
330
2F5
102
}
330
5F3
100
AcDbTableStyle
  3
Standard1
 70
1
 71
0
 40
0.06
 41
0.06
280
1
281
1
  7
Standard
140
0.18
170
1
 62
0
 63
7
283
0
  7
Standard
140
0.18
170
1
 62
0
 63
7
283
0
  7
Standard
140
0.18
170
1
 62
0
 63
7
283
0
  0
ENDSEC
  0
EOF
