999
DXF file: 209227_1.dxf
999
Pro/ENGINEER 2016260 by Parametric Technology Corporation
  0
SECTION
  2
HEADER
  9
$ACADVER
  1
AC1027
  9
$DWGCODEPAGE
  3
ANSI_1252
  9
$EXTMAX
 10
17.0
 20
11.0
 30
0.0
  9
$EXTMIN
 10
0.0
 20
0.0
 30
0.0
  9
$LIMMIN
 10
0.0
 20
0.0
  9
$LIMMAX
 10
17.0
 20
11.0
  9
$VIEWCTR
 10
8.5
 20
5.5
  9
$VIEWSIZE
 40
11.0
  9
$CLAYER
  8
0
  9
$LTSCALE
 40
0.935
  9
$CELTYPE
  6
BYLAYER
  9
$DIMSCALE
 40
1.0
  9
$DIMASZ
 40
0.1875
  9
$DIMEXO
 40
0.0625
  9
$DIMDLI
 40
0.646
  9
$DIMEXE
 40
0.125
  9
$DIMCEN
 40
0.153
  9
$DIMLFAC
 40
1.0
  9
$DIMBLK
  1
_FILLED
  9
$DIMALT
 70
1
  9
$DIMALTD
 70
2
  9
$DIMALTTD
 70
2
  9
$DIMALTF
 40
1.0
  9
$DIMTXT
 40
0.1
  9
$DIMTOL
 70
1
  9
$DIMLIM
 70
0
  9
$DIMTFAC
 40
1.0
  9
$DIMTP
 40
0.001
  9
$DIMTM
 40
0.001
  9
$DIMGAP
 40
0.09
  9
$DIMDSEP
 70
46
  9
$AUNITS
 70
0
  9
$PDMODE
 70
3
  9
$PDSIZE
 40
0.3125
  9
$HANDSEED
  5
744
  9
$TILEMODE
 70
1
  9
$MEASUREMENT
 70
0
  9
$INSUNITS
 70
1
  0
ENDSEC
  0
SECTION
  2
CLASSES
  0
CLASS
  1
ACDBDICTIONARYWDFLT
  2
AcDbDictionaryWithDefault
  3
AutoCAD 2000
 90
0
 91
1
280
0
281
0
  0
CLASS
  1
ACDBPLACEHOLDER
  2
AcDbPlaceHolder
  3
AutoCAD 2000
 90
0
 91
1
280
0
281
0
  0
CLASS
  1
LAYOUT
  2
AcDbLayout
  3
AutoCAD 2000
 90
0
 91
0
280
0
281
0
  0
CLASS
  1
TABLESTYLE
  2
AcDbTableStyle
  3
ObjectDBX Classes
 90
2047
 91
1
280
0
281
0
  0
CLASS
  1
ACAD_TABLE
  2
AcDbTable
  3
ObjectDBX Classes
 90
1025
 91
1
280
0
281
1
  0
ENDSEC
  0
SECTION
  2
TABLES
  0
TABLE
  2
VPORT
  5
8
100
AcDbSymbolTable
 70
2
  0
VPORT
  5
1F4
100
AcDbSymbolTableRecord
100
AcDbViewportTableRecord
  2
*ACTIVE
 70
0
 10
0.0
 20
0.0
 11
1.0
 21
1.0
 12
8.5
 22
5.5
 13
0.0
 23
0.0
 14
1.0
 24
1.0
 15
0.0
 25
0.0
 16
0.0
 26
0.0
 36
1.0
 17
0.0
 27
0.0
 37
0.0
 40
11.0
 41
1.5454545455
 42
50.0
 43
0.0
 44
0.0
 50
0.0
 51
0.0
 71
0
 72
100
 73
1
 74
1
 75
0
 76
0
 77
0
 78
0
  0
ENDTAB
  0
TABLE
  2
LTYPE
  5
5
100
AcDbSymbolTable
 70
6
  0
LTYPE
  5
14
100
AcDbSymbolTableRecord
100
AcDbLinetypeTableRecord
  2
BYBLOCK
 70
0
  3

 72
65
 73
0
 40
0.0
  0
LTYPE
  5
15
100
AcDbSymbolTableRecord
100
AcDbLinetypeTableRecord
  2
BYLAYER
 70
0
  3

 72
65
 73
0
 40
0.0
  0
LTYPE
  5
16
100
AcDbSymbolTableRecord
100
AcDbLinetypeTableRecord
  2
CONTINUOUS
 70
64
  3
Solid line
 72
65
 73
0
 40
0.0
  0
LTYPE
  5
1F5
100
AcDbSymbolTableRecord
100
AcDbLinetypeTableRecord
  2
CENTER
 70
64
  3
____ _ ____ _ ____ _ ____ _ ____ _ ____ _ ____
 72
65
 73
4
 40
0.6
 49
0.375
 74
0
 49
-0.075
 74
0
 49
0.075
 74
0
 49
-0.075
 74
0
  0
LTYPE
  5
1F6
100
AcDbSymbolTableRecord
100
AcDbLinetypeTableRecord
  2
HIDDEN
 70
64
  3
- - - - - - - - - - - - - - - - - - - -
 72
65
 73
2
 40
0.2
 49
0.1
 74
0
 49
-0.1
 74
0
  0
LTYPE
  5
1F7
100
AcDbSymbolTableRecord
100
AcDbLinetypeTableRecord
  2
PHANTOM
 70
64
  3
_____ _ _ _____ _ _ _____ _ _ _____
 72
65
 73
6
 40
0.8
 49
0.45
 74
0
 49
-0.05
 74
0
 49
0.1
 74
0
 49
-0.05
 74
0
 49
0.1
 74
0
 49
-0.05
 74
0
  0
LTYPE
  5
1F8
100
AcDbSymbolTableRecord
100
AcDbLinetypeTableRecord
  2
DOT
 70
64
  3
. . . . . . . . . . . . . . . . . . . .
 72
65
 73
2
 40
0.2
 49
0.1
 74
0
 49
-0.1
 74
0
  0
LTYPE
  5
1F9
100
AcDbSymbolTableRecord
100
AcDbLinetypeTableRecord
  2
DASHED
 70
64
  3
- - - - - - - - - - - - - - - - - - - -
 72
65
 73
2
 40
0.2
 49
0.1
 74
0
 49
-0.1
 74
0
  0
ENDTAB
  0
TABLE
  2
LAYER
  5
2
100
AcDbSymbolTable
 70
36
  0
LAYER
  5
10
100
AcDbSymbolTableRecord
100
AcDbLayerTableRecord
  2
0
 70
0
 62
7
  6
CONTINUOUS
370
-3
390
F
  0
LAYER
  5
1FA
100
AcDbSymbolTableRecord
100
AcDbLayerTableRecord
  2
DEFAULT_1
 70
0
 62
7
  6
CENTER
370
-3
390
F
  0
LAYER
  5
1FB
100
AcDbSymbolTableRecord
100
AcDbLayerTableRecord
  2
DEFAULT_2
 70
0
 62
7
  6
HIDDEN
370
-3
390
F
  0
LAYER
  5
1FC
100
AcDbSymbolTableRecord
100
AcDbLayerTableRecord
  2
DEFAULT_3
 70
0
 62
7
  6
PHANTOM
370
-3
390
F
  0
LAYER
  5
1FD
100
AcDbSymbolTableRecord
100
AcDbLayerTableRecord
  2
01___PRT_ALL_DTM_PLN
 70
0
 62
7
  6
CONTINUOUS
370
-3
390
F
  0
LAYER
  5
1FE
100
AcDbSymbolTableRecord
100
AcDbLayerTableRecord
  2
01___PRT_DEF_DTM_PLN
 70
0
 62
7
  6
CONTINUOUS
370
-3
390
F
  0
LAYER
  5
1FF
100
AcDbSymbolTableRecord
100
AcDbLayerTableRecord
  2
02___PRT_ALL_AXES
 70
0
 62
7
  6
CONTINUOUS
370
-3
390
F
  0
LAYER
  5
200
100
AcDbSymbolTableRecord
100
AcDbLayerTableRecord
  2
03___PRT_ALL_CURVES
 70
0
 62
7
  6
CONTINUOUS
370
-3
390
F
  0
LAYER
  5
201
100
AcDbSymbolTableRecord
100
AcDbLayerTableRecord
  2
04___PRT_ALL_DTM_PNT
 70
0
 62
7
  6
CONTINUOUS
370
-3
390
F
  0
LAYER
  5
202
100
AcDbSymbolTableRecord
100
AcDbLayerTableRecord
  2
05___PRT_ALL_DTM_CSYS
 70
0
 62
7
  6
CONTINUOUS
370
-3
390
F
  0
LAYER
  5
203
100
AcDbSymbolTableRecord
100
AcDbLayerTableRecord
  2
05___PRT_DEF_DTM_CSYS
 70
0
 62
7
  6
CONTINUOUS
370
-3
390
F
  0
LAYER
  5
204
100
AcDbSymbolTableRecord
100
AcDbLayerTableRecord
  2
06___PRT_ALL_SURFS
 70
0
 62
7
  6
CONTINUOUS
370
-3
390
F
  0
LAYER
  5
205
100
AcDbSymbolTableRecord
100
AcDbLayerTableRecord
  2
AXIS
 70
0
 62
7
  6
CONTINUOUS
370
-3
390
F
  0
LAYER
  5
206
100
AcDbSymbolTableRecord
100
AcDbLayerTableRecord
  2
AXIS_COSMETIC_THREADS
 70
0
 62
7
  6
CONTINUOUS
370
-3
390
F
  0
LAYER
  5
207
100
AcDbSymbolTableRecord
100
AcDbLayerTableRecord
  2
COSMETIC_THREADS
 70
0
 62
7
  6
CONTINUOUS
370
-3
390
F
  0
LAYER
  5
208
100
AcDbSymbolTableRecord
100
AcDbLayerTableRecord
  2
DATUM_CURVES
 70
0
 62
7
  6
CONTINUOUS
370
-3
390
F
  0
LAYER
  5
209
100
AcDbSymbolTableRecord
100
AcDbLayerTableRecord
  2
DATUM_PLANES
 70
0
 62
7
  6
CONTINUOUS
370
-3
390
F
  0
LAYER
  5
20A
100
AcDbSymbolTableRecord
100
AcDbLayerTableRecord
  2
DRIVEN_DIMS
 70
0
 62
7
  6
CONTINUOUS
370
-3
390
F
  0
LAYER
  5
20B
100
AcDbSymbolTableRecord
100
AcDbLayerTableRecord
  2
GEOMETRIC_TOLERANCES
 70
0
 62
7
  6
CONTINUOUS
370
-3
390
F
  0
LAYER
  5
20C
100
AcDbSymbolTableRecord
100
AcDbLayerTableRecord
  2
NOTES
 70
0
 62
7
  6
CONTINUOUS
370
-3
390
F
  0
LAYER
  5
20D
100
AcDbSymbolTableRecord
100
AcDbLayerTableRecord
  2
QUILTS
 70
0
 62
7
  6
CONTINUOUS
370
-3
390
F
  0
LAYER
  5
20E
100
AcDbSymbolTableRecord
100
AcDbLayerTableRecord
  2
SCHEME_DIMS
 70
0
 62
7
  6
CONTINUOUS
370
-3
390
F
  0
LAYER
  5
20F
100
AcDbSymbolTableRecord
100
AcDbLayerTableRecord
  2
SHELL20
 70
0
 62
7
  6
CONTINUOUS
370
-3
390
F
  0
ENDTAB
  0
TABLE
  2
STYLE
  5
3
100
AcDbSymbolTable
 70
1
  0
STYLE
  5
11
100
AcDbSymbolTableRecord
100
AcDbTextStyleTableRecord
  2
STANDARD
 70
0
 40
0.0
 41
1.0
 50
0.0
 71
0
 42
0.2
  3
txt
  4

  0
STYLE
  5
210
100
AcDbSymbolTableRecord
100
AcDbTextStyleTableRecord
  2
TEXTSTYLE_1
 70
0
 40
0.0
 41
0.8
 50
0.0
 71
0
 42
0.2
  3
gdt
  4

  0
STYLE
  5
211
100
AcDbSymbolTableRecord
100
AcDbTextStyleTableRecord
  2
TEXTSTYLE_2
 70
0
 40
0.0
 41
0.8
 50
0.0
 71
0
 42
0.2
  3
txt
  4

  0
STYLE
  5
212
100
AcDbSymbolTableRecord
100
AcDbTextStyleTableRecord
  2
TEXTSTYLE_3
 70
0
 40
0.0
 41
0.85
 50
0.0
 71
0
 42
0.2
  3
txt
  4

  0
STYLE
  5
213
100
AcDbSymbolTableRecord
100
AcDbTextStyleTableRecord
  2
TEXTSTYLE_4
 70
0
 40
0.0
 41
0.9
 50
0.0
 71
0
 42
0.2
  3
txt
  4

  0
STYLE
  5
214
100
AcDbSymbolTableRecord
100
AcDbTextStyleTableRecord
  2
TEXTSTYLE_5
 70
0
 40
0.0
 41
0.75
 50
0.0
 71
0
 42
0.2
  3
txt
  4

  0
STYLE
  5
215
100
AcDbSymbolTableRecord
100
AcDbTextStyleTableRecord
  2
TEXTSTYLE_6
 70
0
 40
0.0
 41
1.0
 50
0.0
 71
0
 42
0.2
  3
gdt
  4

  0
ENDTAB
  0
TABLE
  2
VIEW
  5
6
100
AcDbSymbolTable
 70
0
  0
ENDTAB
  0
TABLE
  2
UCS
  5
7
100
AcDbSymbolTable
 70
0
  0
ENDTAB
  0
TABLE
  2
APPID
  5
9
100
AcDbSymbolTable
 70
1
  0
APPID
  5
216
100
AcDbSymbolTableRecord
100
AcDbRegAppTableRecord
  2
ACAD
 70
0
  0
ENDTAB
  0
TABLE
  2
BLOCK_RECORD
  5
1
100
AcDbSymbolTable
 70
0
  0
BLOCK_RECORD
  5
217
100
AcDbSymbolTableRecord
100
AcDbBlockTableRecord
  2
*Model_Space
  0
BLOCK_RECORD
  5
218
100
AcDbSymbolTableRecord
100
AcDbBlockTableRecord
  2
*Paper_Space
  0
BLOCK_RECORD
  5
219
100
AcDbSymbolTableRecord
100
AcDbBlockTableRecord
  2
_FILLED
  0
BLOCK_RECORD
  5
21A
100
AcDbSymbolTableRecord
100
AcDbBlockTableRecord
  2
*D0
  0
BLOCK_RECORD
  5
21B
100
AcDbSymbolTableRecord
100
AcDbBlockTableRecord
  2
*D1
  0
BLOCK_RECORD
  5
21C
100
AcDbSymbolTableRecord
100
AcDbBlockTableRecord
  2
*D2
  0
BLOCK_RECORD
  5
21D
100
AcDbSymbolTableRecord
100
AcDbBlockTableRecord
  2
*D3
  0
BLOCK_RECORD
  5
21E
100
AcDbSymbolTableRecord
100
AcDbBlockTableRecord
  2
*D4
  0
BLOCK_RECORD
  5
21F
100
AcDbSymbolTableRecord
100
AcDbBlockTableRecord
  2
*D5
  0
BLOCK_RECORD
  5
220
100
AcDbSymbolTableRecord
100
AcDbBlockTableRecord
  2
*D6
  0
BLOCK_RECORD
  5
221
100
AcDbSymbolTableRecord
100
AcDbBlockTableRecord
  2
*D7
  0
BLOCK_RECORD
  5
222
100
AcDbSymbolTableRecord
100
AcDbBlockTableRecord
  2
*D8
  0
BLOCK_RECORD
  5
223
100
AcDbSymbolTableRecord
100
AcDbBlockTableRecord
  2
*D9
  0
BLOCK_RECORD
  5
224
100
AcDbSymbolTableRecord
100
AcDbBlockTableRecord
  2
*T1
  0
ENDTAB
  0
TABLE
  2
DIMSTYLE
  5
A
100
AcDbSymbolTable
 70
1
100
AcDbDimStyleTable
 71
0
  0
DIMSTYLE
105
225
100
AcDbSymbolTableRecord
100
AcDbDimStyleTableRecord
  2
STANDARD
 70
0
  3

  4

 40
1.0
 41
0.1875
 42
0.0625
 43
0.38
 44
0.125
 45
0.0
 46
0.0
 47
0.001
 48
0.001
140
0.1
141
0.09
142
0.0
143
1.0
144
1.0
145
0.0
146
1.0
147
0.09
 71
1.0
 72
0.0
 73
1
 74
1
 75
0
 76
0
 77
0
 78
4
170
1
171
2
172
0
173
0
174
0
175
0
176
0
177
0
178
0
270
2
271
3
272
3
273
2
274
2
275
0
280
0
281
0
282
0
283
1
284
4
285
0
286
0
287
3
288
0
340
11
278
46
341
219
342
219
343
219
344
219
  0
DIMSTYLE
105
226
100
AcDbSymbolTableRecord
100
AcDbDimStyleTableRecord
  2
DIMSTYLE_1
 70
0
  3

  4

 40
1.0
 41
0.1875
 42
0.0625
 43
0.38
 44
0.125
 45
0.0
 46
0.0
 47
0.5
 48
0.5
140
0.1
141
0.09
142
0.0
143
1.0
144
1.0
145
0.0
146
1.0
147
0.05
 71
0.0
 72
0.0
 73
1
 74
1
 75
0
 76
0
 77
0
 78
4
170
0
171
2
172
0
173
0
174
0
175
0
176
0
177
0
178
0
270
2
271
0
272
0
273
2
274
2
275
0
280
0
281
0
282
0
283
1
284
4
285
0
286
0
287
3
288
0
340
11
278
46
341
219
342
219
343
219
344
219
  0
DIMSTYLE
105
227
100
AcDbSymbolTableRecord
100
AcDbDimStyleTableRecord
  2
DIMSTYLE_2
 70
0
  3

  4

 40
1.0
 41
0.1875
 42
0.0625
 43
0.38
 44
0.125
 45
0.0
 46
0.0
 47
0.001
 48
0.001
140
0.1
141
0.09
142
0.0
143
1.0
144
1.0
145
0.0
146
1.0
147
0.1
 71
0.0
 72
0.0
 73
1
 74
1
 75
0
 76
0
 77
0
 78
4
170
1
171
2
172
0
173
0
174
0
175
0
176
0
177
0
178
0
270
2
271
1
272
1
273
2
274
2
275
0
280
0
281
0
282
0
283
1
284
4
285
0
286
0
287
3
288
0
340
11
278
46
341
219
342
219
343
219
344
219
  0
DIMSTYLE
105
228
100
AcDbSymbolTableRecord
100
AcDbDimStyleTableRecord
  2
DIMSTYLE_3
 70
0
  3
<>
  4

 40
1.0
 41
0.1875
 42
0.0625
 43
0.38
 44
0.125
 45
0.0
 46
0.0
 47
0.001
 48
0.001
140
0.1
141
0.09
142
0.0
143
1.0
144
1.0
145
0.0
146
1.0
147
0.09
 71
0.0
 72
0.0
 73
1
 74
1
 75
0
 76
0
 77
0
 78
4
170
1
171
2
172
0
173
0
174
0
175
0
176
0
177
0
178
0
270
2
271
1
272
1
273
2
274
2
275
0
280
0
281
0
282
0
283
1
284
4
285
0
286
0
287
3
288
1
340
11
278
46
289
2
341
219
342
219
343
219
344
219
  0
ENDTAB
  0
ENDSEC
  0
SECTION
  2
BLOCKS
  0
BLOCK
  5
20
100
AcDbEntity
  8
0
100
AcDbBlockBegin
  2
*Model_Space
 70
0
 10
0.0
 20
0.0
 30
0.0
  3
*Model_Space
  1

  0
ENDBLK
  5
21
100
AcDbEntity
  8
0
100
AcDbBlockEnd
  0
BLOCK
  5
1C
100
AcDbEntity
  8
0
100
AcDbBlockBegin
  2
*Paper_Space
 70
0
 10
0.0
 20
0.0
 30
0.0
  3
*Paper_Space
  1

  0
ENDBLK
  5
1D
100
AcDbEntity
  8
0
100
AcDbBlockEnd
  0
BLOCK
  5
229
100
AcDbEntity
  8
0
100
AcDbBlockBegin
  2
_FILLED
 70
64
 10
0.0
 20
0.0
  3
_FILLED
  1

  0
SOLID
  5
22A
100
AcDbEntity
  8
0
  6
BYBLOCK
 62
0
100
AcDbTrace
 10
0.0
 20
0.0
 11
-1.0
 21
0.1666666667
 12
-1.0
 22
-0.1666666667
 13
-1.0
 23
-0.1666666667
  0
ENDBLK
  5
22B
100
AcDbEntity
  8
0
  6
BYBLOCK
 62
0
100
AcDbBlockEnd
  0
BLOCK
  5
22C
100
AcDbEntity
  8
DRIVEN_DIMS
100
AcDbBlockBegin
 62
7
  6
CONTINUOUS
  2
*D0
 70
65
 10
0.0
 20
0.0
  3
*D0
  1

  0
MTEXT
  5
22D
100
AcDbEntity
  8
DRIVEN_DIMS
100
AcDbMText
 62
7
  6
CONTINUOUS
  7
STANDARD
 71
2
 72
1
 10
2.4666225355
 20
6.8869600533
 30
0.0
 11
1.0
 21
0.0
 31
0.0
 44
0.9
  1
2X 90\Fgdt;{\Fgdt;~}
 40
0.1
 41
0.5666666667
  0
LINE
  5
22E
100
AcDbEntity
  8
DRIVEN_DIMS
100
AcDbLine
 62
7
  6
CONTINUOUS
 10
4.5372074084
 20
6.8534233448
 11
4.5372074084
 21
8.0176305202
  0
LINE
  5
22F
100
AcDbEntity
  8
DRIVEN_DIMS
100
AcDbLine
 62
7
  6
CONTINUOUS
 10
4.081006621
 20
5.3341797442
 11
1.8537566324
 21
5.3341797442
  0
ARC
  5
230
100
AcDbEntity
  8
DRIVEN_DIMS
100
AcDbCircle
 62
7
  6
CONTINUOUS
 10
4.5372074084
 20
5.3341797442
 40
2.558450776
100
AcDbArc
 50
90.0
 51
139.7586872369
  0
ARC
  5
231
100
AcDbEntity
  8
DRIVEN_DIMS
100
AcDbCircle
 62
7
  6
CONTINUOUS
 10
4.5372074084
 20
5.3341797442
 40
2.558450776
100
AcDbArc
 50
148.0789780043
 51
180.0
  0
SOLID
  5
232
100
AcDbEntity
  8
DRIVEN_DIMS
100
AcDbTrace
 62
7
  6
CONTINUOUS
 10
4.350978121
 20
7.8545324225
 11
4.5372074084
 21
7.8926305202
 12
4.3486884292
 22
7.9169904669
 13
4.3486884292
 23
7.9169904669
  0
SOLID
  5
233
100
AcDbEntity
  8
DRIVEN_DIMS
100
AcDbTrace
 62
7
  6
CONTINUOUS
 10
1.9543966857
 20
5.5226987233
 11
1.9787566324
 21
5.3341797442
 12
2.0168547301
 22
5.5204090315
 13
2.0168547301
 23
5.5204090315
  0
ENDBLK
  5
234
100
AcDbEntity
  8
0
  6
BYBLOCK
 62
0
100
AcDbBlockEnd
  0
BLOCK
  5
235
100
AcDbEntity
  8
DRIVEN_DIMS
100
AcDbBlockBegin
 62
7
  6
CONTINUOUS
  2
*D1
 70
65
 10
0.0
 20
0.0
  3
*D1
  1

  0
MTEXT
  5
236
100
AcDbEntity
  8
DRIVEN_DIMS
100
AcDbMText
 62
7
  6
CONTINUOUS
  7
STANDARD
 71
2
 72
1
 10
3.1307159991
 20
6.2896915552
 30
0.0
 11
1.0
 21
0.0
 31
0.0
 44
0.9
  1
46.0\P[1.81]
 40
0.1
 41
0.6
  0
LINE
  5
237
100
AcDbEntity
  8
DRIVEN_DIMS
100
AcDbLine
 62
7
  6
CONTINUOUS
 10
4.081006621
 20
5.3341797442
 11
3.1057159991
 21
5.3341797442
  0
LINE
  5
238
100
AcDbEntity
  8
DRIVEN_DIMS
100
AcDbLine
 62
7
  6
CONTINUOUS
 10
3.7666262054
 20
7.1452033663
 11
3.1057159991
 21
7.1452033663
  0
LINE
  5
239
100
AcDbEntity
  8
DRIVEN_DIMS
100
AcDbLine
 62
7
  6
CONTINUOUS
 10
3.2307159991
 20
5.3341797442
 11
3.2307159991
 21
5.9396915552
  0
LINE
  5
23A
100
AcDbEntity
  8
DRIVEN_DIMS
100
AcDbLine
 62
7
  6
CONTINUOUS
 10
3.2307159991
 20
7.1452033663
 11
3.2307159991
 21
6.3896915552
  0
INSERT
  5
23B
100
AcDbEntity
  8
DRIVEN_DIMS
100
AcDbBlockReference
 62
7
  6
CONTINUOUS
  2
_FILLED
 10
3.2307159991
 20
5.3341797442
 41
0.1875
 42
0.1875
 43
0.1875
 50
270.0
  0
INSERT
  5
23C
100
AcDbEntity
  8
DRIVEN_DIMS
100
AcDbBlockReference
 62
7
  6
CONTINUOUS
  2
_FILLED
 10
3.2307159991
 20
7.1452033663
 41
0.1875
 42
0.1875
 43
0.1875
 50
90.0
  0
ENDBLK
  5
23D
100
AcDbEntity
  8
0
  6
BYBLOCK
 62
0
100
AcDbBlockEnd
  0
BLOCK
  5
23E
100
AcDbEntity
  8
DRIVEN_DIMS
100
AcDbBlockBegin
 62
7
  6
CONTINUOUS
  2
*D2
 70
65
 10
0.0
 20
0.0
  3
*D2
  1

  0
MTEXT
  5
23F
100
AcDbEntity
  8
DRIVEN_DIMS
100
AcDbMText
 62
7
  6
CONTINUOUS
  7
STANDARD
 71
2
 72
1
 10
9.0422224684
 20
7.870407437
 30
0.0
 11
1.0
 21
0.0
 31
0.0
 44
0.9
  1
20.0\P[.79]
 40
0.1
 41
0.5
  0
LINE
  5
240
100
AcDbEntity
  8
DRIVEN_DIMS
100
AcDbLine
 62
7
  6
CONTINUOUS
 10
8.698521681
 20
6.5777821064
 11
8.698521681
 21
7.945407437
  0
LINE
  5
241
100
AcDbEntity
  8
DRIVEN_DIMS
100
AcDbLine
 62
7
  6
CONTINUOUS
 10
9.4859232558
 20
6.5777821064
 11
9.4859232558
 21
7.945407437
  0
LINE
  5
242
100
AcDbEntity
  8
DRIVEN_DIMS
100
AcDbLine
 62
7
  6
CONTINUOUS
 10
8.698521681
 20
7.820407437
 11
8.298521681
 21
7.820407437
  0
LINE
  5
243
100
AcDbEntity
  8
DRIVEN_DIMS
100
AcDbLine
 62
7
  6
CONTINUOUS
 10
9.4859232558
 20
7.820407437
 11
9.8859232558
 21
7.820407437
  0
INSERT
  5
244
100
AcDbEntity
  8
DRIVEN_DIMS
100
AcDbBlockReference
 62
7
  6
CONTINUOUS
  2
_FILLED
 10
8.698521681
 20
7.820407437
 41
0.1875
 42
0.1875
 43
0.1875
  0
INSERT
  5
245
100
AcDbEntity
  8
DRIVEN_DIMS
100
AcDbBlockReference
 62
7
  6
CONTINUOUS
  2
_FILLED
 10
9.4859232558
 20
7.820407437
 41
0.1875
 42
0.1875
 43
0.1875
 50
180.0
  0
ENDBLK
  5
246
100
AcDbEntity
  8
0
  6
BYBLOCK
 62
0
100
AcDbBlockEnd
  0
BLOCK
  5
247
100
AcDbEntity
  8
DRIVEN_DIMS
100
AcDbBlockBegin
 62
7
  6
CONTINUOUS
  2
*D3
 70
65
 10
0.0
 20
0.0
  3
*D3
  1

  0
MTEXT
  5
248
100
AcDbEntity
  8
DRIVEN_DIMS
100
AcDbMText
 62
7
  6
CONTINUOUS
  7
STANDARD
 71
2
 72
1
 10
6.1672861485
 20
3.4577188517
 30
0.0
 11
1.0
 21
0.0
 31
0.0
 44
0.9
  1
10.0\P[.39]
 40
0.1
 41
0.5
  0
LINE
  5
249
100
AcDbEntity
  8
DRIVEN_DIMS
100
AcDbLine
 62
7
  6
CONTINUOUS
 10
4.8278601946
 20
3.1123929642
 11
6.3422861485
 21
3.1123929642
  0
LINE
  5
24A
100
AcDbEntity
  8
DRIVEN_DIMS
100
AcDbLine
 62
7
  6
CONTINUOUS
 10
4.6740014811
 20
3.5060937517
 11
6.3422861485
 21
3.5060937517
  0
LINE
  5
24B
100
AcDbEntity
  8
DRIVEN_DIMS
100
AcDbLine
 62
7
  6
CONTINUOUS
 10
6.2172861485
 20
3.1123929642
 11
6.2172861485
 21
2.7123929642
  0
LINE
  5
24C
100
AcDbEntity
  8
DRIVEN_DIMS
100
AcDbLine
 62
7
  6
CONTINUOUS
 10
6.2172861485
 20
3.5060937517
 11
6.2172861485
 21
3.9060937517
  0
INSERT
  5
24D
100
AcDbEntity
  8
DRIVEN_DIMS
100
AcDbBlockReference
 62
7
  6
CONTINUOUS
  2
_FILLED
 10
6.2172861485
 20
3.1123929642
 41
0.1875
 42
0.1875
 43
0.1875
 50
90.0
  0
INSERT
  5
24E
100
AcDbEntity
  8
DRIVEN_DIMS
100
AcDbBlockReference
 62
7
  6
CONTINUOUS
  2
_FILLED
 10
6.2172861485
 20
3.5060937517
 41
0.1875
 42
0.1875
 43
0.1875
 50
270.0
  0
ENDBLK
  5
24F
100
AcDbEntity
  8
0
  6
BYBLOCK
 62
0
100
AcDbBlockEnd
  0
BLOCK
  5
250
100
AcDbEntity
  8
DRIVEN_DIMS
100
AcDbBlockBegin
 62
7
  6
CONTINUOUS
  2
*D4
 70
65
 10
0.0
 20
0.0
  3
*D4
  1

  0
MTEXT
  5
251
100
AcDbEntity
  8
DRIVEN_DIMS
100
AcDbMText
 62
7
  6
CONTINUOUS
  7
STANDARD
 71
2
 72
1
 10
6.6172861485
 20
2.9712819097
 30
0.0
 11
1.0
 21
0.0
 31
0.0
 44
0.9
  1
29.7\P[1.17]
 40
0.1
 41
0.6
  0
LINE
  5
252
100
AcDbEntity
  8
DRIVEN_DIMS
100
AcDbLine
 62
7
  6
CONTINUOUS
 10
4.6460152269
 20
3.5060937517
 11
6.8422861485
 21
3.5060937517
  0
LINE
  5
253
100
AcDbEntity
  8
DRIVEN_DIMS
100
AcDbLine
 62
7
  6
CONTINUOUS
 10
4.6587074084
 20
2.3364700677
 11
6.8422861485
 21
2.3364700677
  0
LINE
  5
254
100
AcDbEntity
  8
DRIVEN_DIMS
100
AcDbLine
 62
7
  6
CONTINUOUS
 10
6.7172861485
 20
3.5060937517
 11
6.7172861485
 21
3.0712819097
  0
LINE
  5
255
100
AcDbEntity
  8
DRIVEN_DIMS
100
AcDbLine
 62
7
  6
CONTINUOUS
 10
6.7172861485
 20
2.3364700677
 11
6.7172861485
 21
2.6212819097
  0
INSERT
  5
256
100
AcDbEntity
  8
DRIVEN_DIMS
100
AcDbBlockReference
 62
7
  6
CONTINUOUS
  2
_FILLED
 10
6.7172861485
 20
3.5060937517
 41
0.1875
 42
0.1875
 43
0.1875
 50
90.0
  0
INSERT
  5
257
100
AcDbEntity
  8
DRIVEN_DIMS
100
AcDbBlockReference
 62
7
  6
CONTINUOUS
  2
_FILLED
 10
6.7172861485
 20
2.3364700677
 41
0.1875
 42
0.1875
 43
0.1875
 50
270.0
  0
ENDBLK
  5
258
100
AcDbEntity
  8
0
  6
BYBLOCK
 62
0
100
AcDbBlockEnd
  0
BLOCK
  5
259
100
AcDbEntity
  8
DRIVEN_DIMS
100
AcDbBlockBegin
 62
7
  6
CONTINUOUS
  2
*D5
 70
65
 10
0.0
 20
0.0
  3
*D5
  1

  0
MTEXT
  5
25A
100
AcDbEntity
  8
DRIVEN_DIMS
100
AcDbMText
 62
7
  6
CONTINUOUS
  7
STANDARD
 71
2
 72
1
 10
4.4381893836
 20
4.0549928844
 30
0.0
 11
1.0
 21
0.0
 31
0.0
 44
0.9
  1
41.0\P[1.62]
 40
0.1
 41
0.6
  0
LINE
  5
25B
100
AcDbEntity
  8
DRIVEN_DIMS
100
AcDbLine
 62
7
  6
CONTINUOUS
 10
3.7307159991
 20
3.4806062794
 11
3.7307159991
 21
3.7912538266
  0
LINE
  5
25C
100
AcDbEntity
  8
DRIVEN_DIMS
100
AcDbLine
 62
7
  6
CONTINUOUS
 10
3.7307159991
 20
3.8907494824
 11
3.7307159991
 21
4.1299928844
  0
LINE
  5
25D
100
AcDbEntity
  8
DRIVEN_DIMS
100
AcDbLine
 62
7
  6
CONTINUOUS
 10
5.345662768
 20
3.478642329
 11
5.345662768
 21
4.1299928844
  0
LINE
  5
25E
100
AcDbEntity
  8
DRIVEN_DIMS
100
AcDbLine
 62
7
  6
CONTINUOUS
 10
3.7307159991
 20
4.0049928844
 11
4.1381893836
 21
4.0049928844
  0
LINE
  5
25F
100
AcDbEntity
  8
DRIVEN_DIMS
100
AcDbLine
 62
7
  6
CONTINUOUS
 10
5.345662768
 20
4.0049928844
 11
4.9381893836
 21
4.0049928844
  0
INSERT
  5
260
100
AcDbEntity
  8
DRIVEN_DIMS
100
AcDbBlockReference
 62
7
  6
CONTINUOUS
  2
_FILLED
 10
3.7307159991
 20
4.0049928844
 41
0.1875
 42
0.1875
 43
0.1875
 50
180.0
  0
INSERT
  5
261
100
AcDbEntity
  8
DRIVEN_DIMS
100
AcDbBlockReference
 62
7
  6
CONTINUOUS
  2
_FILLED
 10
5.345662768
 20
4.0049928844
 41
0.1875
 42
0.1875
 43
0.1875
  0
ENDBLK
  5
262
100
AcDbEntity
  8
0
  6
BYBLOCK
 62
0
100
AcDbBlockEnd
  0
BLOCK
  5
263
100
AcDbEntity
  8
DRIVEN_DIMS
100
AcDbBlockBegin
 62
7
  6
CONTINUOUS
  2
*D6
 70
65
 10
0.0
 20
0.0
  3
*D6
  1

  0
MTEXT
  5
264
100
AcDbEntity
  8
DRIVEN_DIMS
100
AcDbMText
 62
7
  6
CONTINUOUS
  7
TEXTSTYLE_6
 71
3
 72
1
 10
3.098679234
 20
4.0549928844
 30
0.0
 11
1.0
 21
0.0
 31
0.0
 44
0.9
  1
{\Fgdt;n}\Ftxt;6.4\P[.25]
 40
0.1
 41
0.5
  0
LINE
  5
265
100
AcDbEntity
  8
DRIVEN_DIMS
100
AcDbLine
 62
7
  6
CONTINUOUS
 10
4.4444322434
 20
3.1961650883
 11
3.548679234
 21
4.0049928844
  0
LINE
  5
266
100
AcDbEntity
  8
DRIVEN_DIMS
100
AcDbLine
 62
7
  6
CONTINUOUS
 10
3.548679234
 20
4.0049928844
 11
3.398679234
 21
4.0049928844
  0
INSERT
  5
267
100
AcDbEntity
  8
DRIVEN_DIMS
100
AcDbBlockReference
 62
7
  6
CONTINUOUS
  2
_FILLED
 10
4.4444322434
 20
3.1961650883
 41
0.1875
 42
0.1875
 43
0.1875
 50
317.9192733773
  0
ENDBLK
  5
268
100
AcDbEntity
  8
0
  6
BYBLOCK
 62
0
100
AcDbBlockEnd
  0
BLOCK
  5
269
100
AcDbEntity
  8
DRIVEN_DIMS
100
AcDbBlockBegin
 62
7
  6
CONTINUOUS
  2
*D7
 70
65
 10
0.0
 20
0.0
  3
*D7
  1

  0
MTEXT
  5
26A
100
AcDbEntity
  8
DRIVEN_DIMS
100
AcDbMText
 62
7
  6
CONTINUOUS
  7
STANDARD
 71
2
 72
1
 10
10.6907736495
 20
6.8154244166
 30
0.0
 11
1.0
 21
0.0
 31
0.0
 44
0.9
  1
48.0\P[1.89]
 40
0.1
 41
0.6
  0
LINE
  5
26B
100
AcDbEntity
  8
DRIVEN_DIMS
100
AcDbLine
 62
7
  6
CONTINUOUS
 10
9.5360535247
 20
7.2239435237
 11
10.9157736495
 21
7.2239435237
  0
LINE
  5
26C
100
AcDbEntity
  8
DRIVEN_DIMS
100
AcDbLine
 62
7
  6
CONTINUOUS
 10
9.5484232558
 20
5.3341797442
 11
10.9157736495
 21
5.3341797442
  0
LINE
  5
26D
100
AcDbEntity
  8
DRIVEN_DIMS
100
AcDbLine
 62
7
  6
CONTINUOUS
 10
10.7907736495
 20
7.2239435237
 11
10.7907736495
 21
6.9154244166
  0
LINE
  5
26E
100
AcDbEntity
  8
DRIVEN_DIMS
100
AcDbLine
 62
7
  6
CONTINUOUS
 10
10.7907736495
 20
5.3341797442
 11
10.7907736495
 21
6.4654244166
  0
INSERT
  5
26F
100
AcDbEntity
  8
DRIVEN_DIMS
100
AcDbBlockReference
 62
7
  6
CONTINUOUS
  2
_FILLED
 10
10.7907736495
 20
7.2239435237
 41
0.1875
 42
0.1875
 43
0.1875
 50
90.0
  0
INSERT
  5
270
100
AcDbEntity
  8
DRIVEN_DIMS
100
AcDbBlockReference
 62
7
  6
CONTINUOUS
  2
_FILLED
 10
10.7907736495
 20
5.3341797442
 41
0.1875
 42
0.1875
 43
0.1875
 50
270.0
  0
ENDBLK
  5
271
100
AcDbEntity
  8
0
  6
BYBLOCK
 62
0
100
AcDbBlockEnd
  0
BLOCK
  5
272
100
AcDbEntity
  8
DRIVEN_DIMS
100
AcDbBlockBegin
 62
7
  6
CONTINUOUS
  2
*D8
 70
65
 10
0.0
 20
0.0
  3
*D8
  1

  0
MTEXT
  5
273
100
AcDbEntity
  8
DRIVEN_DIMS
100
AcDbMText
 62
7
  6
CONTINUOUS
  7
STANDARD
 71
1
 72
1
 10
10.5407736495
 20
7.7202164149
 30
0.0
 11
1.0
 21
0.0
 31
0.0
 44
0.9
  1
3.5\P[.14]
 40
0.1
 41
0.5
  0
LINE
  5
274
100
AcDbEntity
  8
DRIVEN_DIMS
100
AcDbLine
 62
7
  6
CONTINUOUS
 10
9.5360535247
 20
7.2239435237
 11
10.4157736495
 21
7.2239435237
  0
LINE
  5
275
100
AcDbEntity
  8
DRIVEN_DIMS
100
AcDbLine
 62
7
  6
CONTINUOUS
 10
9.583720776
 20
7.0861482481
 11
10.4157736495
 21
7.0861482481
  0
LINE
  5
276
100
AcDbEntity
  8
DRIVEN_DIMS
100
AcDbLine
 62
7
  6
CONTINUOUS
 10
10.2907736495
 20
7.2239435237
 11
10.2907736495
 21
7.6702164149
  0
LINE
  5
277
100
AcDbEntity
  8
DRIVEN_DIMS
100
AcDbLine
 62
7
  6
CONTINUOUS
 10
10.2907736495
 20
7.6702164149
 11
10.4407736495
 21
7.6702164149
  0
LINE
  5
278
100
AcDbEntity
  8
DRIVEN_DIMS
100
AcDbLine
 62
7
  6
CONTINUOUS
 10
10.2907736495
 20
7.0861482481
 11
10.2907736495
 21
6.6861482481
  0
INSERT
  5
279
100
AcDbEntity
  8
DRIVEN_DIMS
100
AcDbBlockReference
 62
7
  6
CONTINUOUS
  2
_FILLED
 10
10.2907736495
 20
7.2239435237
 41
0.1875
 42
0.1875
 43
0.1875
 50
270.0
  0
INSERT
  5
27A
100
AcDbEntity
  8
DRIVEN_DIMS
100
AcDbBlockReference
 62
7
  6
CONTINUOUS
  2
_FILLED
 10
10.2907736495
 20
7.0861482481
 41
0.1875
 42
0.1875
 43
0.1875
 50
90.0
  0
ENDBLK
  5
27B
100
AcDbEntity
  8
0
  6
BYBLOCK
 62
0
100
AcDbBlockEnd
  0
BLOCK
  5
27C
100
AcDbEntity
  8
DRIVEN_DIMS
100
AcDbBlockBegin
 62
7
  6
CONTINUOUS
  2
*D9
 70
65
 10
0.0
 20
0.0
  3
*D9
  1

  0
MTEXT
  5
27D
100
AcDbEntity
  8
DRIVEN_DIMS
100
AcDbMText
 62
7
  6
CONTINUOUS
  7
STANDARD
 71
2
 72
1
 10
10.1907736495
 20
6.5554395867
 30
0.0
 11
1.0
 21
0.0
 31
0.0
 44
0.9
  1
29.5\P[1.16]
 40
0.1
 41
0.6
  0
LINE
  5
27E
100
AcDbEntity
  8
DRIVEN_DIMS
100
AcDbLine
 62
7
  6
CONTINUOUS
 10
9.4131674265
 20
7.0861482481
 11
10.4157736495
 21
7.0861482481
  0
LINE
  5
27F
100
AcDbEntity
  8
DRIVEN_DIMS
100
AcDbLine
 62
7
  6
CONTINUOUS
 10
9.9532736495
 20
5.9247309253
 11
10.4157736495
 21
5.9247309253
  0
LINE
  5
280
100
AcDbEntity
  8
DRIVEN_DIMS
100
AcDbLine
 62
7
  6
CONTINUOUS
 10
10.2907736495
 20
7.0861482481
 11
10.2907736495
 21
6.6554395867
  0
LINE
  5
281
100
AcDbEntity
  8
DRIVEN_DIMS
100
AcDbLine
 62
7
  6
CONTINUOUS
 10
10.2907736495
 20
5.9247309253
 11
10.2907736495
 21
6.2054395867
  0
INSERT
  5
282
100
AcDbEntity
  8
DRIVEN_DIMS
100
AcDbBlockReference
 62
7
  6
CONTINUOUS
  2
_FILLED
 10
10.2907736495
 20
7.0861482481
 41
0.1875
 42
0.1875
 43
0.1875
 50
90.0
  0
INSERT
  5
283
100
AcDbEntity
  8
DRIVEN_DIMS
100
AcDbBlockReference
 62
7
  6
CONTINUOUS
  2
_FILLED
 10
10.2907736495
 20
5.9247309253
 41
0.1875
 42
0.1875
 43
0.1875
 50
270.0
  0
ENDBLK
  5
284
100
AcDbEntity
  8
0
  6
BYBLOCK
 62
0
100
AcDbBlockEnd
  0
BLOCK
  5
285
100
AcDbEntity
  8
0
100
AcDbBlockBegin
  2
*T1
 70
1
 10
0.0
 20
0.0
  3
*T1
  1

  0
LINE
  5
286
100
AcDbEntity
  8
0
100
AcDbLine
 62
7
  6
CONTINUOUS
 10
4.35
 20
0.0
 11
0.0
 21
0.0
  0
LINE
  5
287
100
AcDbEntity
  8
0
100
AcDbLine
 62
7
  6
CONTINUOUS
 10
4.35
 20
0.0
 11
4.35
 21
1.92
  0
LINE
  5
288
100
AcDbEntity
  8
0
100
AcDbLine
 62
7
  6
CONTINUOUS
 10
4.35
 20
1.92
 11
0.0
 21
1.92
  0
LINE
  5
289
100
AcDbEntity
  8
0
100
AcDbLine
 62
7
  6
CONTINUOUS
 10
0.0
 20
0.0
 11
0.0
 21
1.92
  0
MTEXT
  5
28A
100
AcDbEntity
  8
NOTES
100
AcDbMText
 62
7
  6
CONTINUOUS
  7
STANDARD
 71
2
 72
1
 10
4.125
 20
0.48
 30
0.0
 11
1.0
 21
0.0
 31
0.0
 44
0.9
  1
B
 40
0.1
 41
0.2
  0
MTEXT
  5
28B
100
AcDbEntity
  8
NOTES
100
AcDbMText
 62
7
  6
CONTINUOUS
  7
STANDARD
 71
2
 72
1
 10
2.175
 20
0.93
 30
0.0
 11
1.0
 21
0.0
 31
0.0
 44
0.9
  1
LMBWLB32-U-180S
 40
0.1
 41
3.0
  0
ENDBLK
  5
28C
100
AcDbEntity
  8
0
  6
BYBLOCK
 62
0
100
AcDbBlockEnd
  0
ENDSEC
  0
SECTION
  2
ENTITIES
  0
MTEXT
  5
28D
100
AcDbEntity
  8
0
100
AcDbMText
 62
7
  6
CONTINUOUS
  7
TEXTSTYLE_2
 71
2
 72
1
 10
11.0287658475
 20
1.794867839
 30
0.0
 11
1.0
 21
0.0
 31
0.0
 44
0.9
  1
THIRD ANGLE PROJECTION
 40
0.1
 41
1.76
  0
MTEXT
  5
28E
100
AcDbEntity
  8
0
100
AcDbMText
 62
7
  6
CONTINUOUS
  7
STANDARD
 71
1
 72
1
 10
12.88
 20
1.457
 30
0.0
 11
1.0
 21
0.0
 31
0.0
 44
0.9
  1
DRAWING NO.
 40
0.08
 41
0.88
  0
MTEXT
  5
28F
100
AcDbEntity
  8
0
100
AcDbMText
 62
7
  6
CONTINUOUS
  7
TEXTSTYLE_2
 71
1
 72
1
 10
12.08
 20
2.217
 30
0.0
 11
1.0
 21
0.0
 31
0.0
 44
0.9
  1
TITLE
 40
0.1
 41
0.4
  0
MTEXT
  5
290
100
AcDbEntity
  8
0
100
AcDbMText
 62
7
  6
CONTINUOUS
  7
STANDARD
 71
1
 72
1
 10
12.08
 20
1.457
 30
0.0
 11
1.0
 21
0.0
 31
0.0
 44
0.9
  1
SIZE
 40
0.08
 41
0.32
  0
MTEXT
  5
291
100
AcDbEntity
  8
0
100
AcDbMText
 62
7
  6
CONTINUOUS
  7
STANDARD
 71
1
 72
1
 10
12.08
 20
1.087
 30
0.0
 11
1.0
 21
0.0
 31
0.0
 44
0.9
  1
SCALE
 40
0.08
 41
0.4
  0
MTEXT
  5
292
100
AcDbEntity
  8
0
100
AcDbMText
 62
7
  6
CONTINUOUS
  7
TEXTSTYLE_2
 71
2
 72
1
 10
12.5
 20
1.337
 30
0.0
 11
1.0
 21
0.0
 31
0.0
 44
0.9
  1
B
 40
0.1
 41
0.08
  0
MTEXT
  5
293
100
AcDbEntity
  8
0
100
AcDbMText
 62
7
  6
CONTINUOUS
  7
TEXTSTYLE_3
 71
2
 72
1
 10
11.0340287086
 20
2.7679425959
 30
0.0
 11
1.0
 21
0.0
 31
0.0
 44
0.9
  1
This drawing is the property\Pof BANNER ENGINEERING CORP.\PAny use or reproduction,\Pin any form, without prior\Pwritten permission of\PBanner is prohibited.
 40
0.08
 41
1.904
  0
MTEXT
  5
294
100
AcDbEntity
  8
0
100
AcDbMText
 62
7
  6
CONTINUOUS
  7
STANDARD
 71
1
 72
1
 10
14.255
 20
1.087
 30
0.0
 11
1.0
 21
0.0
 31
0.0
 44
0.9
  1
SHEET
 40
0.08
 41
0.4
  0
MTEXT
  5
295
100
AcDbEntity
  8
0
100
AcDbMText
 62
7
  6
CONTINUOUS
  7
STANDARD
 71
1
 72
1
 10
15.63
 20
1.457
 30
0.0
 11
1.0
 21
0.0
 31
0.0
 44
0.9
  1
REV.
 40
0.08
 41
0.32
  0
MTEXT
  5
296
100
AcDbEntity
  8
0
100
AcDbMText
 62
7
  6
CONTINUOUS
  7
STANDARD
 71
3
 72
1
 10
16.38
 20
0.835443
 30
0.0
 11
1.0
 21
0.0
 31
0.0
 44
0.9
  1
CREO
 40
0.07
 41
0.28
  0
MTEXT
  5
297
100
AcDbEntity
  8
0
100
AcDbMText
 62
7
  6
CONTINUOUS
  7
TEXTSTYLE_4
 71
2
 72
1
 10
15.1043392653
 20
2.7174764286
 30
0.0
 11
1.0
 21
0.0
 31
0.0
 44
0.9
  1
BANNER ENGINEERING CORP.
 40
0.12
 41
2.592
  0
MTEXT
  5
298
100
AcDbEntity
  8
0
100
AcDbMText
 62
7
  6
CONTINUOUS
  7
TEXTSTYLE_2
 71
2
 72
1
 10
15.0923490612
 20
2.4764783673
 30
0.0
 11
1.0
 21
0.0
 31
0.0
 44
0.9
  1
www.bannerengineering.com
 40
0.1
 41
2.0
  0
MTEXT
  5
299
100
AcDbEntity
  8
0
100
AcDbMText
 62
7
  6
CONTINUOUS
  7
TEXTSTYLE_2
 71
2
 72
1
 10
9.485
 20
10.312
 30
0.0
 11
1.0
 21
0.0
 31
0.0
 44
0.9
  1
4
 40
0.1
 41
0.08
  0
MTEXT
  5
29A
100
AcDbEntity
  8
0
100
AcDbMText
 62
7
  6
CONTINUOUS
  7
TEXTSTYLE_2
 71
2
 72
1
 10
11.455
 20
10.312
 30
0.0
 11
1.0
 21
0.0
 31
0.0
 44
0.9
  1
3
 40
0.1
 41
0.08
  0
MTEXT
  5
29B
100
AcDbEntity
  8
0
100
AcDbMText
 62
7
  6
CONTINUOUS
  7
TEXTSTYLE_2
 71
2
 72
1
 10
13.425
 20
10.312
 30
0.0
 11
1.0
 21
0.0
 31
0.0
 44
0.9
  1
2
 40
0.1
 41
0.08
  0
MTEXT
  5
29C
100
AcDbEntity
  8
0
100
AcDbMText
 62
7
  6
CONTINUOUS
  7
TEXTSTYLE_2
 71
2
 72
1
 10
15.395
 20
10.312
 30
0.0
 11
1.0
 21
0.0
 31
0.0
 44
0.9
  1
1
 40
0.1
 41
0.08
  0
MTEXT
  5
29D
100
AcDbEntity
  8
0
100
AcDbMText
 62
7
  6
CONTINUOUS
  7
TEXTSTYLE_2
 71
2
 72
1
 10
3.575
 20
10.312
 30
0.0
 11
1.0
 21
0.0
 31
0.0
 44
0.9
  1
7
 40
0.1
 41
0.08
  0
MTEXT
  5
29E
100
AcDbEntity
  8
0
100
AcDbMText
 62
7
  6
CONTINUOUS
  7
TEXTSTYLE_2
 71
2
 72
1
 10
5.545
 20
10.312
 30
0.0
 11
1.0
 21
0.0
 31
0.0
 44
0.9
  1
6
 40
0.1
 41
0.08
  0
MTEXT
  5
29F
100
AcDbEntity
  8
0
100
AcDbMText
 62
7
  6
CONTINUOUS
  7
TEXTSTYLE_2
 71
2
 72
1
 10
7.515
 20
10.312
 30
0.0
 11
1.0
 21
0.0
 31
0.0
 44
0.9
  1
5
 40
0.1
 41
0.08
  0
MTEXT
  5
2A0
100
AcDbEntity
  8
0
100
AcDbMText
 62
7
  6
CONTINUOUS
  7
TEXTSTYLE_2
 71
2
 72
1
 10
1.605
 20
10.312
 30
0.0
 11
1.0
 21
0.0
 31
0.0
 44
0.9
  1
8
 40
0.1
 41
0.08
  0
MTEXT
  5
2A1
100
AcDbEntity
  8
0
100
AcDbMText
 62
7
  6
CONTINUOUS
  7
TEXTSTYLE_2
 71
2
 72
1
 10
1.605
 20
0.787
 30
0.0
 11
1.0
 21
0.0
 31
0.0
 44
0.9
  1
8
 40
0.1
 41
0.08
  0
MTEXT
  5
2A2
100
AcDbEntity
  8
0
100
AcDbMText
 62
7
  6
CONTINUOUS
  7
TEXTSTYLE_2
 71
2
 72
1
 10
3.575
 20
0.787
 30
0.0
 11
1.0
 21
0.0
 31
0.0
 44
0.9
  1
7
 40
0.1
 41
0.08
  0
MTEXT
  5
2A3
100
AcDbEntity
  8
0
100
AcDbMText
 62
7
  6
CONTINUOUS
  7
TEXTSTYLE_2
 71
2
 72
1
 10
5.545
 20
0.787
 30
0.0
 11
1.0
 21
0.0
 31
0.0
 44
0.9
  1
6
 40
0.1
 41
0.08
  0
MTEXT
  5
2A4
100
AcDbEntity
  8
0
100
AcDbMText
 62
7
  6
CONTINUOUS
  7
TEXTSTYLE_2
 71
2
 72
1
 10
7.515
 20
0.787
 30
0.0
 11
1.0
 21
0.0
 31
0.0
 44
0.9
  1
5
 40
0.1
 41
0.08
  0
MTEXT
  5
2A5
100
AcDbEntity
  8
0
100
AcDbMText
 62
7
  6
CONTINUOUS
  7
TEXTSTYLE_2
 71
2
 72
1
 10
9.485
 20
0.787
 30
0.0
 11
1.0
 21
0.0
 31
0.0
 44
0.9
  1
4
 40
0.1
 41
0.08
  0
MTEXT
  5
2A6
100
AcDbEntity
  8
0
100
AcDbMText
 62
7
  6
CONTINUOUS
  7
TEXTSTYLE_2
 71
2
 72
1
 10
11.455
 20
0.787
 30
0.0
 11
1.0
 21
0.0
 31
0.0
 44
0.9
  1
3
 40
0.1
 41
0.08
  0
MTEXT
  5
2A7
100
AcDbEntity
  8
0
100
AcDbMText
 62
7
  6
CONTINUOUS
  7
TEXTSTYLE_2
 71
2
 72
1
 10
13.425
 20
0.787
 30
0.0
 11
1.0
 21
0.0
 31
0.0
 44
0.9
  1
2
 40
0.1
 41
0.08
  0
MTEXT
  5
2A8
100
AcDbEntity
  8
0
100
AcDbMText
 62
7
  6
CONTINUOUS
  7
TEXTSTYLE_2
 71
2
 72
1
 10
15.395
 20
0.787
 30
0.0
 11
1.0
 21
0.0
 31
0.0
 44
0.9
  1
1
 40
0.1
 41
0.08
  0
MTEXT
  5
2A9
100
AcDbEntity
  8
0
100
AcDbMText
 62
7
  6
CONTINUOUS
  7
TEXTSTYLE_2
 71
3
 72
1
 10
0.52
 20
4.3995
 30
0.0
 11
1.0
 21
0.0
 31
0.0
 44
0.9
  1
B
 40
0.1
 41
0.08
  0
MTEXT
  5
2AA
100
AcDbEntity
  8
0
100
AcDbMText
 62
7
  6
CONTINUOUS
  7
TEXTSTYLE_2
 71
3
 72
1
 10
0.52
 20
2.0995
 30
0.0
 11
1.0
 21
0.0
 31
0.0
 44
0.9
  1
A
 40
0.1
 41
0.08
  0
MTEXT
  5
2AB
100
AcDbEntity
  8
0
100
AcDbMText
 62
7
  6
CONTINUOUS
  7
TEXTSTYLE_2
 71
3
 72
1
 10
0.52
 20
8.9995
 30
0.0
 11
1.0
 21
0.0
 31
0.0
 44
0.9
  1
D
 40
0.1
 41
0.08
  0
MTEXT
  5
2AC
100
AcDbEntity
  8
0
100
AcDbMText
 62
7
  6
CONTINUOUS
  7
TEXTSTYLE_2
 71
3
 72
1
 10
0.52
 20
6.6995
 30
0.0
 11
1.0
 21
0.0
 31
0.0
 44
0.9
  1
C
 40
0.1
 41
0.08
  0
MTEXT
  5
2AD
100
AcDbEntity
  8
0
100
AcDbMText
 62
7
  6
CONTINUOUS
  7
TEXTSTYLE_2
 71
1
 72
1
 10
16.48
 20
8.9995
 30
0.0
 11
1.0
 21
0.0
 31
0.0
 44
0.9
  1
D
 40
0.1
 41
0.08
  0
MTEXT
  5
2AE
100
AcDbEntity
  8
0
100
AcDbMText
 62
7
  6
CONTINUOUS
  7
TEXTSTYLE_2
 71
1
 72
1
 10
16.48
 20
6.6995
 30
0.0
 11
1.0
 21
0.0
 31
0.0
 44
0.9
  1
C
 40
0.1
 41
0.08
  0
MTEXT
  5
2AF
100
AcDbEntity
  8
0
100
AcDbMText
 62
7
  6
CONTINUOUS
  7
TEXTSTYLE_2
 71
1
 72
1
 10
16.48
 20
4.3995
 30
0.0
 11
1.0
 21
0.0
 31
0.0
 44
0.9
  1
B
 40
0.1
 41
0.08
  0
MTEXT
  5
2B0
100
AcDbEntity
  8
0
100
AcDbMText
 62
7
  6
CONTINUOUS
  7
TEXTSTYLE_2
 71
1
 72
1
 10
16.48
 20
2.0995
 30
0.0
 11
1.0
 21
0.0
 31
0.0
 44
0.9
  1
A
 40
0.1
 41
0.08
  0
MTEXT
  5
2B1
100
AcDbEntity
  8
0
100
AcDbMText
 62
7
  6
CONTINUOUS
  7
STANDARD
 71
1
 72
1
 10
14.819264911
 20
1.0627941725
 30
0.0
 11
1.0
 21
0.0
 31
0.0
 44
0.9
  1
1 OF 1
 40
0.1
 41
0.6
  0
MTEXT
  5
2B2
100
AcDbEntity
  8
0
100
AcDbMText
 62
7
  6
CONTINUOUS
  7
STANDARD
 71
1
 72
1
 10
13.8911999818
 20
1.3747321586
 30
0.0
 11
1.0
 21
0.0
 31
0.0
 44
0.9
  1
209227
 40
0.12
 41
0.72
  0
MTEXT
  5
2B3
100
AcDbEntity
  8
0
100
AcDbMText
 62
7
  6
CONTINUOUS
  7
STANDARD
 71
1
 72
1
 10
12.644264911
 20
1.0627941725
 30
0.0
 11
1.0
 21
0.0
 31
0.0
 44
0.9
  1
1:1
 40
0.1
 41
0.3
  0
MTEXT
  5
2B4
100
AcDbEntity
  8
0
100
AcDbMText
 62
7
  6
CONTINUOUS
  7
STANDARD
 71
1
 72
1
 10
0.8489354566
 20
1.4938330621
 30
0.0
 11
1.0
 21
0.0
 31
0.0
 44
0.9
  1
NOTES:\P1. ALL DIMENSIONS ARE MILLIMETERS [INCHES] UNLESS OTHERWISE NOTED.\P2. REFER TO "www.bannerengineering.com" FOR ADDITIONAL DATA AND SPECIFICATIONS.
 40
0.1
 41
7.9
  0
MTEXT
  5
2B5
100
AcDbEntity
  8
0
100
AcDbMText
 62
7
  6
CONTINUOUS
  7
TEXTSTYLE_5
 71
2
 72
1
 10
11.0519651892
 20
2.0334024775
 30
0.0
 11
1.0
 21
0.0
 31
0.0
 44
0.9
  1
C  2015 Banner Engineering Corp.
 40
0.08
 41
1.92
  0
DIMENSION
  5
2B6
100
AcDbEntity
  8
DRIVEN_DIMS
100
AcDbDimension
 62
7
  6
CONTINUOUS
  2
*D0
 10
4.143506621
 20
5.3341797442
 11
2.4666225355
 21
6.8369600533
 70
162
 71
2
 42
1.5707963268
  1
2X <>
  3
DIMSTYLE_1
100
AcDb2LineAngularDimension
 13
4.5372074084
 23
6.7653388371
 14
4.5372074084
 24
6.7909233448
 15
4.1690911287
 25
5.3341797442
 16
2.7281095153
 26
7.1432776372
  0
DIMENSION
  5
2B7
100
AcDbEntity
  8
DRIVEN_DIMS
100
AcDbDimension
 62
7
  6
CONTINUOUS
  2
*D1
 10
3.2307159991
 20
7.1452033663
 11
3.2307159991
 21
6.1646915552
 70
160
 71
2
 42
46.0
  1
<>\P[]
  3
DIMSTYLE_2
100
AcDbAlignedDimension
 13
4.143506621
 23
5.3341797442
 14
3.8291262054
 24
7.1452033663
 50
90.0
100
AcDbRotatedDimension
  0
DIMENSION
  5
2B8
100
AcDbEntity
  8
DRIVEN_DIMS
100
AcDbDimension
 62
7
  6
CONTINUOUS
  2
*D2
 10
9.4859232558
 20
7.820407437
 11
9.0922224684
 21
7.745407437
 70
160
 71
2
 42
20.0
  1
<>\P[]
  3
DIMSTYLE_2
100
AcDbAlignedDimension
 13
8.698521681
 23
6.5152821064
 14
9.4859232558
 24
6.5152821064
100
AcDbRotatedDimension
  0
DIMENSION
  5
2B9
100
AcDbEntity
  8
DRIVEN_DIMS
100
AcDbDimension
 62
7
  6
CONTINUOUS
  2
*D3
 10
6.2172861485
 20
3.5060937517
 11
6.2172861485
 21
3.3327188517
 70
160
 71
2
 42
10.0
  1
<>\P[]
  3
DIMSTYLE_2
100
AcDbAlignedDimension
 13
4.7653601946
 23
3.1123929642
 14
4.6115014811
 24
3.5060937517
 50
90.0
100
AcDbRotatedDimension
  0
DIMENSION
  5
2BA
100
AcDbEntity
  8
DRIVEN_DIMS
100
AcDbDimension
 62
7
  6
CONTINUOUS
  2
*D4
 10
6.7172861485
 20
2.3364700677
 11
6.7172861485
 21
2.8462819097
 70
160
 71
2
 42
29.7084415723
  1
<>\P[]
  3
DIMSTYLE_2
100
AcDbAlignedDimension
 13
4.5835152269
 23
3.5060937517
 14
4.5962074084
 24
2.3364700677
 50
270.0
100
AcDbRotatedDimension
  0
DIMENSION
  5
2BB
100
AcDbEntity
  8
DRIVEN_DIMS
100
AcDbDimension
 62
7
  6
CONTINUOUS
  2
*D5
 10
5.345662768
 20
4.0049928844
 11
4.5381893836
 21
3.9299928844
 70
160
 71
2
 42
41.0196479284
  1
<>\P[]
  3
DIMSTYLE_2
100
AcDbAlignedDimension
 13
3.7307159991
 23
3.4181062794
 14
5.345662768
 24
3.416142329
100
AcDbRotatedDimension
  0
DIMENSION
  5
2BC
100
AcDbEntity
  8
DRIVEN_DIMS
100
AcDbDimension
 62
7
  6
CONTINUOUS
  2
*D6
 10
4.4444322434
 20
3.1961650883
 11
2.9820125673
 21
3.9299928844
 70
163
 71
3
 42
6.35
  1
%%c<>\P[]
  3
DIMSTYLE_3
100
AcDbDiametricDimension
 15
4.6299825733
 25
3.0286208402
  0
DIMENSION
  5
2BD
100
AcDbEntity
  8
DRIVEN_DIMS
100
AcDbDimension
 62
7
  6
CONTINUOUS
  2
*D7
 10
10.7907736495
 20
5.3341797442
 11
10.7907736495
 21
6.6904244166
 70
160
 71
2
 42
48.0
  1
<>\P[]
  3
DIMSTYLE_2
100
AcDbAlignedDimension
 13
9.4735535247
 23
7.2239435237
 14
9.4859232558
 24
5.3341797442
 50
270.0
100
AcDbRotatedDimension
  0
DIMENSION
  5
2BE
100
AcDbEntity
  8
DRIVEN_DIMS
100
AcDbDimension
 62
7
  6
CONTINUOUS
  2
*D8
 10
10.2907736495
 20
7.0861482481
 11
10.7907736495
 21
7.5952164149
 70
160
 71
1
 42
3.5
  1
<>\P[]
  3
DIMSTYLE_2
100
AcDbAlignedDimension
 13
9.4735535247
 23
7.2239435237
 14
9.521220776
 24
7.0861482481
 50
270.0
100
AcDbRotatedDimension
  0
DIMENSION
  5
2BF
100
AcDbEntity
  8
DRIVEN_DIMS
100
AcDbDimension
 62
7
  6
CONTINUOUS
  2
*D9
 10
10.2907736495
 20
5.9247309253
 11
10.2907736495
 21
6.4304395867
 70
160
 71
2
 42
29.5
  1
<>\P[]
  3
DIMSTYLE_2
100
AcDbAlignedDimension
 13
9.3506674265
 23
7.0861482481
 14
9.8907736495
 24
5.9247309253
 50
270.0
100
AcDbRotatedDimension
  0
ACAD_TABLE
  5
2C0
100
AcDbEntity
  8
0
 62
7
  6
CONTINUOUS
100
AcDbBlockReference
  2
*T1
 10
12.03
 20
0.887
 30
0.0
100
AcDbTable
342
       743
343
224
 11
1.0
 21
0.0
 31
0.0
 90
6
 91
3
 92
5
 93
4
 94
0
 95
0
 96
0
 70
1
141
0.33
141
0.45
141
1.14
142
0.65
142
1.15
142
1.025
142
1.075
142
0.45
171
1
172
0
173
0
174
0
175
1
176
1
 91
33
178
0
145
0.0
301
CELL_VALUE
 90
4
  1
 
304
ACVALUE_END
170
1
140
0.1
171
1
172
0
173
0
174
0
175
1
176
1
 91
33
178
0
145
0.0
301
CELL_VALUE
 90
4
  1
 
304
ACVALUE_END
170
1
140
0.1
171
1
172
0
173
0
174
0
175
1
176
1
 91
33
178
0
145
0.0
301
CELL_VALUE
 90
4
  1
 
304
ACVALUE_END
170
1
140
0.1
171
1
172
0
173
0
174
0
175
1
176
1
 91
33
178
0
145
0.0
301
CELL_VALUE
 90
4
  1
 
304
ACVALUE_END
170
1
140
0.1
171
1
172
0
173
0
174
0
175
1
176
1
 91
33
178
0
145
0.0
301
CELL_VALUE
 90
4
  1
 
304
ACVALUE_END
170
1
140
0.1
171
1
172
0
173
0
174
0
175
1
176
1
 91
33
178
0
145
0.0
301
CELL_VALUE
 90
4
  1
 
304
ACVALUE_END
170
1
140
0.1
171
1
172
0
173
0
174
0
175
1
176
1
 91
33
178
0
145
0.0
301
CELL_VALUE
 90
4
  1
 
304
ACVALUE_END
170
1
140
0.1
171
1
172
0
173
0
174
0
175
1
176
1
 91
33
178
0
145
0.0
301
CELL_VALUE
 90
4
  1
 
304
ACVALUE_END
170
1
140
0.1
171
1
172
0
173
0
174
0
175
1
176
1
 91
33
178
0
145
0.0
301
CELL_VALUE
 90
4
  1
 
304
ACVALUE_END
170
1
140
0.1
171
1
172
0
173
0
174
0
175
1
176
1
 91
41
178
0
145
0.0
301
CELL_VALUE
 90
4
  1
B
304
ACVALUE_END
170
8
140
0.1
 64
7
171
1
172
0
173
0
174
0
175
5
176
1
 91
33
178
0
145
0.0
301
CELL_VALUE
 90
4
  1
LMBWLB32-U-180S
304
ACVALUE_END
170
8
140
0.1
171
1
172
0
173
1
174
0
175
1
176
1
 91
1
178
0
145
0.0
170
1
171
1
172
0
173
1
174
0
175
1
176
1
 91
1
178
0
145
0.0
170
1
171
1
172
0
173
1
174
0
175
1
176
1
 91
1
178
0
145
0.0
170
1
171
1
172
0
173
1
174
0
175
1
176
1
 91
1
178
0
145
0.0
170
8
  0
LEADER
  5
2C1
100
AcDbEntity
  8
NOTES
100
AcDbLeader
 62
7
  6
CONTINUOUS
  3
STANDARD
 71
1
 72
0
 73
0
 75
0
 40
0.1
 41
1.8
 76
3
 10
5.6760889317
 20
7.2578882376
 30
0.0
 10
5.9379786546
 20
7.4191003034
 30
0.0
 10
6.1879786546
 20
7.4191003034
 30
0.0
340
2C2
1001
ACAD
1000
DSTYLE
1002
{
1070
77
1070
0
1002
}
  0
MTEXT
  5
2C2
102
{ACAD_REACTORS
330
2C1
102
}
100
AcDbEntity
  8
NOTES
100
AcDbMText
 62
7
  6
CONTINUOUS
  7
STANDARD
 71
1
 72
1
 10
6.1879786546
 20
7.4691003034
 30
0.0
 11
1.0
 21
0.0
 31
0.0
 44
0.9
  1
8 X 32 THUMB SCREW
 40
0.1
 41
1.8
  0
MTEXT
  5
2C3
100
AcDbEntity
  8
NOTES
100
AcDbMText
 62
7
  6
CONTINUOUS
  7
STANDARD
 71
2
 72
1
 10
14.1454448892
 20
3.9525577348
 30
0.0
 11
1.0
 21
0.0
 31
0.0
 44
0.9
  1
ISOMETRIC VIEW\PSCALE  1:1
 40
0.1
 41
1.4
  0
LINE
  5
2C4
100
AcDbEntity
  8
0
100
AcDbLine
 62
7
  6
CONTINUOUS
 10
0.47
 20
5.586103
 11
0.47
 21
5.412897
  0
LINE
  5
2C5
100
AcDbEntity
  8
0
100
AcDbLine
 62
7
  6
CONTINUOUS
 10
0.62
 20
10.112
 11
0.62
 21
0.887
  0
LINE
  5
2C6
100
AcDbEntity
  8
0
100
AcDbLine
 62
7
  6
CONTINUOUS
 10
2.59
 20
0.887
 11
2.59
 21
0.637
  0
LINE
  5
2C7
100
AcDbEntity
  8
0
100
AcDbLine
 62
7
  6
CONTINUOUS
 10
2.59
 20
10.112
 11
2.59
 21
10.362
  0
LINE
  5
2C8
100
AcDbEntity
  8
0
100
AcDbLine
 62
7
  6
CONTINUOUS
 10
8.413397
 20
0.737
 11
8.586603
 21
0.737
  0
LINE
  5
2C9
100
AcDbEntity
  8
0
100
AcDbLine
 62
7
  6
CONTINUOUS
 10
11.1389508475
 20
1.425992839
 11
11.7453418475
 21
1.495385839
  0
LINE
  5
2CA
100
AcDbEntity
  8
0
100
AcDbLine
 62
7
  6
CONTINUOUS
 10
0.62
 20
0.887
 11
16.38
 21
0.887
  0
LINE
  5
2CB
100
AcDbEntity
  8
0
100
AcDbLine
 62
7
  6
CONTINUOUS
 10
12.03
 20
1.137
 11
16.38
 21
1.137
  0
LINE
  5
2CC
100
AcDbEntity
  8
0
100
AcDbLine
 62
7
  6
CONTINUOUS
 10
10.2121898475
 20
1.243294839
 11
10.4342808475
 21
1.243294839
  0
LINE
  5
2CD
100
AcDbEntity
  8
0
100
AcDbLine
 62
7
  6
CONTINUOUS
 10
10.4842808475
 20
1.243294839
 11
10.5842808475
 21
1.243294839
  0
LINE
  5
2CE
100
AcDbEntity
  8
0
100
AcDbLine
 62
7
  6
CONTINUOUS
 10
10.6342808475
 20
1.243294839
 11
10.8563718475
 21
1.243294839
  0
LINE
  5
2CF
100
AcDbEntity
  8
0
100
AcDbLine
 62
7
  6
CONTINUOUS
 10
11.0389508475
 20
1.243294839
 11
11.3171028475
 21
1.243294839
  0
LINE
  5
2D0
100
AcDbEntity
  8
0
100
AcDbLine
 62
7
  6
CONTINUOUS
 10
11.3671028475
 20
1.243294839
 11
11.5171888475
 21
1.243294839
  0
LINE
  5
2D1
100
AcDbEntity
  8
0
100
AcDbLine
 62
7
  6
CONTINUOUS
 10
11.5671888475
 20
1.243294839
 11
11.8453418475
 21
1.243294839
  0
LINE
  5
2D2
100
AcDbEntity
  8
0
100
AcDbLine
 62
7
  6
CONTINUOUS
 10
11.7453418475
 20
0.991203839
 11
11.1389508475
 21
1.060596839
  0
LINE
  5
2D3
100
AcDbEntity
  8
0
100
AcDbLine
 62
7
  6
CONTINUOUS
 10
4.56
 20
0.887
 11
4.56
 21
0.637
  0
LINE
  5
2D4
100
AcDbEntity
  8
0
100
AcDbLine
 62
7
  6
CONTINUOUS
 10
4.56
 20
10.112
 11
4.56
 21
10.362
  0
LINE
  5
2D5
100
AcDbEntity
  8
0
100
AcDbLine
 62
7
  6
CONTINUOUS
 10
0.47
 20
5.412897
 11
0.62
 21
5.4995
  0
LINE
  5
2D6
100
AcDbEntity
  8
0
100
AcDbLine
 62
7
  6
CONTINUOUS
 10
12.03
 20
1.507
 11
16.38
 21
1.507
  0
LINE
  5
2D7
100
AcDbEntity
  8
0
100
AcDbLine
 62
7
  6
CONTINUOUS
 10
10.03
 20
1.907
 11
12.03
 21
1.907
  0
LINE
  5
2D8
100
AcDbEntity
  8
0
100
AcDbLine
 62
7
  6
CONTINUOUS
 10
0.62
 20
5.4995
 11
0.47
 21
5.586103
  0
LINE
  5
2D9
100
AcDbEntity
  8
0
100
AcDbLine
 62
7
  6
CONTINUOUS
 10
12.03
 20
2.267
 11
16.38
 21
2.267
  0
LINE
  5
2DA
100
AcDbEntity
  8
0
100
AcDbLine
 62
7
  6
CONTINUOUS
 10
13.6042588488
 20
2.4912273132
 11
13.5568948225
 21
2.4912273132
  0
LINE
  5
2DB
100
AcDbEntity
  8
0
100
AcDbLine
 62
7
  6
CONTINUOUS
 10
13.5130037982
 20
2.4912273132
 11
13.3994327352
 21
2.4912273132
  0
LINE
  5
2DC
100
AcDbEntity
  8
0
100
AcDbLine
 62
7
  6
CONTINUOUS
 10
13.3705287192
 20
2.4912273132
 11
13.1673166065
 21
2.4912273132
  0
LINE
  5
2DD
100
AcDbEntity
  8
0
100
AcDbLine
 62
7
  6
CONTINUOUS
 10
13.1168435785
 20
2.4912273132
 11
13.0426375373
 21
2.4912273132
  0
LINE
  5
2DE
100
AcDbEntity
  8
0
100
AcDbLine
 62
7
  6
CONTINUOUS
 10
12.9962575116
 20
2.4912273132
 11
12.9205934696
 21
2.4912273132
  0
LINE
  5
2DF
100
AcDbEntity
  8
0
100
AcDbLine
 62
7
  6
CONTINUOUS
 10
12.8685904408
 20
2.4912273132
 11
12.7943853997
 21
2.4912273132
  0
LINE
  5
2E0
100
AcDbEntity
  8
0
100
AcDbLine
 62
7
  6
CONTINUOUS
 10
12.7480043739
 20
2.4912273132
 11
12.672340332
 21
2.4912273132
  0
LINE
  5
2E1
100
AcDbEntity
  8
0
100
AcDbLine
 62
7
  6
CONTINUOUS
 10
12.2055050731
 20
2.4912273132
 11
12.3819511709
 21
2.4912273132
  0
LINE
  5
2E2
100
AcDbEntity
  8
0
100
AcDbLine
 62
7
  6
CONTINUOUS
 10
12.4394882028
 20
2.4912273132
 11
12.5168642458
 21
2.4912273132
  0
LINE
  5
2E3
100
AcDbEntity
  8
0
100
AcDbLine
 62
7
  6
CONTINUOUS
 10
12.537150257
 20
2.4912273132
 11
12.6424313154
 21
2.4912273132
  0
LINE
  5
2E4
100
AcDbEntity
  8
0
100
AcDbLine
 62
7
  6
CONTINUOUS
 10
13.4883447845
 20
2.5159553269
 11
13.5130037982
 21
2.5159553269
  0
LINE
  5
2E5
100
AcDbEntity
  8
0
100
AcDbLine
 62
7
  6
CONTINUOUS
 10
12.6424313154
 20
2.515977327
 11
12.6224153043
 21
2.515977327
  0
LINE
  5
2E6
100
AcDbEntity
  8
0
100
AcDbLine
 62
7
  6
CONTINUOUS
 10
12.551601265
 20
2.515977327
 11
12.537150257
 21
2.515977327
  0
LINE
  5
2E7
100
AcDbEntity
  8
0
100
AcDbLine
 62
7
  6
CONTINUOUS
 10
12.5168642458
 20
2.515977327
 11
12.5055812395
 21
2.515977327
  0
LINE
  5
2E8
100
AcDbEntity
  8
0
100
AcDbLine
 62
7
  6
CONTINUOUS
 10
12.4623492155
 20
2.515977327
 11
12.4394882028
 21
2.515977327
  0
LINE
  5
2E9
100
AcDbEntity
  8
0
100
AcDbLine
 62
7
  6
CONTINUOUS
 10
12.3362731456
 20
2.515977327
 11
12.2949101227
 21
2.515977327
  0
LINE
  5
2EA
100
AcDbEntity
  8
0
100
AcDbLine
 62
7
  6
CONTINUOUS
 10
12.2294470864
 20
2.515977327
 11
12.2055050731
 21
2.515977327
  0
LINE
  5
2EB
100
AcDbEntity
  8
0
100
AcDbLine
 62
7
  6
CONTINUOUS
 10
12.672340332
 20
2.515977327
 11
12.6909873423
 21
2.515977327
  0
LINE
  5
2EC
100
AcDbEntity
  8
0
100
AcDbLine
 62
7
  6
CONTINUOUS
 10
12.7276873627
 20
2.515977327
 11
12.7480043739
 21
2.515977327
  0
LINE
  5
2ED
100
AcDbEntity
  8
0
100
AcDbLine
 62
7
  6
CONTINUOUS
 10
12.9205934696
 20
2.515977327
 11
12.93923948
 21
2.515977327
  0
LINE
  5
2EE
100
AcDbEntity
  8
0
100
AcDbLine
 62
7
  6
CONTINUOUS
 10
12.9759405003
 20
2.515977327
 11
12.9962575116
 21
2.515977327
  0
LINE
  5
2EF
100
AcDbEntity
  8
0
100
AcDbLine
 62
7
  6
CONTINUOUS
 10
13.1673166065
 20
2.515977327
 11
13.1912396197
 21
2.515977327
  0
LINE
  5
2F0
100
AcDbEntity
  8
0
100
AcDbLine
 62
7
  6
CONTINUOUS
 10
13.2582556569
 20
2.515977327
 11
13.3232596929
 21
2.515977327
  0
LINE
  5
2F1
100
AcDbEntity
  8
0
100
AcDbLine
 62
7
  6
CONTINUOUS
 10
13.3994327352
 20
2.515977327
 11
13.4221787478
 21
2.515977327
  0
LINE
  5
2F2
100
AcDbEntity
  8
0
100
AcDbLine
 62
7
  6
CONTINUOUS
 10
13.6052818493
 20
2.5163643272
 11
13.60639085
 21
2.5163643272
  0
LINE
  5
2F3
100
AcDbEntity
  8
0
100
AcDbLine
 62
7
  6
CONTINUOUS
 10
13.3282096957
 20
2.5291773343
 11
13.3705287192
 21
2.5291773343
  0
LINE
  5
2F4
100
AcDbEntity
  8
0
100
AcDbLine
 62
7
  6
CONTINUOUS
 10
12.5110972426
 20
2.5296213345
 11
12.5459752619
 21
2.5296213345
  0
LINE
  5
2F5
100
AcDbEntity
  8
0
100
AcDbLine
 62
7
  6
CONTINUOUS
 10
13.6171458559
 20
2.5301143348
 11
13.6292558626
 21
2.5301143348
  0
LINE
  5
2F6
100
AcDbEntity
  8
0
100
AcDbLine
 62
7
  6
CONTINUOUS
 10
13.5159517998
 20
2.5306043351
 11
13.4883447845
 21
2.5306043351
  0
LINE
  5
2F7
100
AcDbEntity
  8
0
100
AcDbLine
 62
7
  6
CONTINUOUS
 10
13.2934226764
 20
2.5324773361
 11
13.2582556569
 21
2.5324773361
  0
LINE
  5
2F8
100
AcDbEntity
  8
0
100
AcDbLine
 62
7
  6
CONTINUOUS
 10
12.2949101227
 20
2.5333023366
 11
12.3362731456
 21
2.5333023366
  0
LINE
  5
2F9
100
AcDbEntity
  8
0
100
AcDbLine
 62
7
  6
CONTINUOUS
 10
13.5222818033
 20
2.5496073456
 11
13.4883447845
 21
2.5496073456
  0
LINE
  5
2FA
100
AcDbEntity
  8
0
100
AcDbLine
 62
7
  6
CONTINUOUS
 10
12.2949101227
 20
2.5499573458
 11
12.3362731456
 21
2.5499573458
  0
LINE
  5
2FB
100
AcDbEntity
  8
0
100
AcDbLine
 62
7
  6
CONTINUOUS
 10
12.5196132473
 20
2.5505713461
 11
12.5401702587
 21
2.5505713461
  0
LINE
  5
2FC
100
AcDbEntity
  8
0
100
AcDbLine
 62
7
  6
CONTINUOUS
 10
13.2582556569
 20
2.5507823463
 11
13.2934226764
 21
2.5507823463
  0
LINE
  5
2FD
100
AcDbEntity
  8
0
100
AcDbLine
 62
7
  6
CONTINUOUS
 10
13.3691097184
 20
2.5540823481
 11
13.3272456952
 21
2.5540823481
  0
LINE
  5
2FE
100
AcDbEntity
  8
0
100
AcDbLine
 62
7
  6
CONTINUOUS
 10
12.5329112547
 20
2.5667383551
 11
12.5267302512
 21
2.5667383551
  0
LINE
  5
2FF
100
AcDbEntity
  8
0
100
AcDbLine
 62
7
  6
CONTINUOUS
 10
13.4221787478
 20
2.5672823554
 11
13.3994327352
 21
2.5672823554
  0
LINE
  5
300
100
AcDbEntity
  8
0
100
AcDbLine
 62
7
  6
CONTINUOUS
 10
13.3222956924
 20
2.5672823554
 11
13.2582556569
 21
2.5672823554
  0
LINE
  5
301
100
AcDbEntity
  8
0
100
AcDbLine
 62
7
  6
CONTINUOUS
 10
13.1912396197
 20
2.5672823554
 11
13.1673166065
 21
2.5672823554
  0
LINE
  5
302
100
AcDbEntity
  8
0
100
AcDbLine
 62
7
  6
CONTINUOUS
 10
13.1397265912
 20
2.5672823554
 11
13.1217935812
 21
2.5672823554
  0
LINE
  5
303
100
AcDbEntity
  8
0
100
AcDbLine
 62
7
  6
CONTINUOUS
 10
13.0845015605
 20
2.5672823554
 11
13.0657255501
 21
2.5672823554
  0
LINE
  5
304
100
AcDbEntity
  8
0
100
AcDbLine
 62
7
  6
CONTINUOUS
 10
12.93923948
 20
2.5672823554
 11
12.9205934696
 21
2.5672823554
  0
LINE
  5
305
100
AcDbEntity
  8
0
100
AcDbLine
 62
7
  6
CONTINUOUS
 10
12.8914734535
 20
2.5672823554
 11
12.8735404436
 21
2.5672823554
  0
LINE
  5
306
100
AcDbEntity
  8
0
100
AcDbLine
 62
7
  6
CONTINUOUS
 10
12.8362484229
 20
2.5672823554
 11
12.8174724125
 21
2.5672823554
  0
LINE
  5
307
100
AcDbEntity
  8
0
100
AcDbLine
 62
7
  6
CONTINUOUS
 10
12.6909873423
 20
2.5672823554
 11
12.672340332
 21
2.5672823554
  0
LINE
  5
308
100
AcDbEntity
  8
0
100
AcDbLine
 62
7
  6
CONTINUOUS
 10
12.3362731456
 20
2.5672823554
 11
12.2949101227
 21
2.5672823554
  0
LINE
  5
309
100
AcDbEntity
  8
0
100
AcDbLine
 62
7
  6
CONTINUOUS
 10
12.2055050731
 20
2.5672823554
 11
12.2294470864
 21
2.5672823554
  0
LINE
  5
30A
100
AcDbEntity
  8
0
100
AcDbLine
 62
7
  6
CONTINUOUS
 10
13.4883447845
 20
2.5672823554
 11
13.5251458049
 21
2.5672823554
  0
LINE
  5
30B
100
AcDbEntity
  8
0
100
AcDbLine
 62
7
  6
CONTINUOUS
 10
12.5705042755
 20
2.5920323691
 11
12.5133292438
 21
2.5920323691
  0
LINE
  5
30C
100
AcDbEntity
  8
0
100
AcDbLine
 62
7
  6
CONTINUOUS
 10
12.3715681652
 20
2.5920323691
 11
12.2055050731
 21
2.5920323691
  0
LINE
  5
30D
100
AcDbEntity
  8
0
100
AcDbLine
 62
7
  6
CONTINUOUS
 10
12.672340332
 20
2.5920323691
 11
12.7727983877
 21
2.5920323691
  0
LINE
  5
30E
100
AcDbEntity
  8
0
100
AcDbLine
 62
7
  6
CONTINUOUS
 10
12.8174724125
 20
2.5920323691
 11
12.8914734535
 21
2.5920323691
  0
LINE
  5
30F
100
AcDbEntity
  8
0
100
AcDbLine
 62
7
  6
CONTINUOUS
 10
12.9205934696
 20
2.5920323691
 11
13.0210515254
 21
2.5920323691
  0
LINE
  5
310
100
AcDbEntity
  8
0
100
AcDbLine
 62
7
  6
CONTINUOUS
 10
13.0657255501
 20
2.5920323691
 11
13.1397265912
 21
2.5920323691
  0
LINE
  5
311
100
AcDbEntity
  8
0
100
AcDbLine
 62
7
  6
CONTINUOUS
 10
13.1673166065
 20
2.5920323691
 11
13.3691097184
 21
2.5920323691
  0
LINE
  5
312
100
AcDbEntity
  8
0
100
AcDbLine
 62
7
  6
CONTINUOUS
 10
13.3994327352
 20
2.5920323691
 11
13.5490138181
 21
2.5920323691
  0
LINE
  5
313
100
AcDbEntity
  8
0
100
AcDbLine
 62
7
  6
CONTINUOUS
 10
12.4008351814
 20
2.5375433389
 11
12.3907841758
 21
2.5410923409
  0
LINE
  5
314
100
AcDbEntity
  8
0
100
AcDbLine
 62
7
  6
CONTINUOUS
 10
12.7926763987
 20
2.4919113136
 11
12.7293963636
 21
2.5522893471
  0
LINE
  5
315
100
AcDbEntity
  8
0
100
AcDbLine
 62
7
  6
CONTINUOUS
 10
12.7745063886
 20
2.5913483688
 11
12.8345394219
 21
2.534068337
  0
LINE
  5
316
100
AcDbEntity
  8
0
100
AcDbLine
 62
7
  6
CONTINUOUS
 10
13.0409295364
 20
2.4919113136
 11
12.9776495013
 21
2.5522893471
  0
LINE
  5
317
100
AcDbEntity
  8
0
100
AcDbLine
 62
7
  6
CONTINUOUS
 10
13.0227595263
 20
2.5913483688
 11
13.0827925596
 21
2.534068337
  0
LINE
  5
318
100
AcDbEntity
  8
0
100
AcDbLine
 62
7
  6
CONTINUOUS
 10
12.548053263
 20
2.5284903339
 11
12.5536792662
 21
2.5197973291
  0
LINE
  5
319
100
AcDbEntity
  8
0
100
AcDbLine
 62
7
  6
CONTINUOUS
 10
12.5422482598
 20
2.5543913483
 11
12.5349892558
 21
2.5656073545
  0
LINE
  5
31A
100
AcDbEntity
  8
0
100
AcDbLine
 62
7
  6
CONTINUOUS
 10
12.6203383031
 20
2.5171073276
 11
12.5725822767
 21
2.5909023685
  0
LINE
  5
31B
100
AcDbEntity
  8
0
100
AcDbLine
 62
7
  6
CONTINUOUS
 10
12.2030300717
 20
2.5895573678
 11
12.2030300717
 21
2.5697573568
  0
LINE
  5
31C
100
AcDbEntity
  8
0
100
AcDbLine
 62
7
  6
CONTINUOUS
 10
12.2030300717
 20
2.5135023256
 11
12.2030300717
 21
2.4937023146
  0
LINE
  5
31D
100
AcDbEntity
  8
0
100
AcDbLine
 62
7
  6
CONTINUOUS
 10
12.2319220877
 20
2.564807354
 11
12.2319220877
 21
2.5184523283
  0
LINE
  5
31E
100
AcDbEntity
  8
0
100
AcDbLine
 62
7
  6
CONTINUOUS
 10
12.2924351213
 20
2.564807354
 11
12.2924351213
 21
2.5524323472
  0
LINE
  5
31F
100
AcDbEntity
  8
0
100
AcDbLine
 62
7
  6
CONTINUOUS
 10
12.2924351213
 20
2.5184523283
 11
12.2924351213
 21
2.5308273352
  0
LINE
  5
320
100
AcDbEntity
  8
0
100
AcDbLine
 62
7
  6
CONTINUOUS
 10
12.4370132015
 20
2.5135023256
 11
12.4370132015
 21
2.4937023146
  0
LINE
  5
321
100
AcDbEntity
  8
0
100
AcDbLine
 62
7
  6
CONTINUOUS
 10
12.5193392471
 20
2.4937023146
 11
12.5193392471
 21
2.5135023256
  0
LINE
  5
322
100
AcDbEntity
  8
0
100
AcDbLine
 62
7
  6
CONTINUOUS
 10
12.5346752556
 20
2.5135023256
 11
12.5346752556
 21
2.4937023146
  0
LINE
  5
323
100
AcDbEntity
  8
0
100
AcDbLine
 62
7
  6
CONTINUOUS
 10
12.6449063168
 20
2.4937023146
 11
12.6449063168
 21
2.5135023256
  0
LINE
  5
324
100
AcDbEntity
  8
0
100
AcDbLine
 62
7
  6
CONTINUOUS
 10
12.6698653306
 20
2.4937023146
 11
12.6698653306
 21
2.5135023256
  0
LINE
  5
325
100
AcDbEntity
  8
0
100
AcDbLine
 62
7
  6
CONTINUOUS
 10
12.6698653306
 20
2.5697573568
 11
12.6698653306
 21
2.5895573678
  0
LINE
  5
326
100
AcDbEntity
  8
0
100
AcDbLine
 62
7
  6
CONTINUOUS
 10
12.6934623437
 20
2.5184523283
 11
12.6934623437
 21
2.564807354
  0
LINE
  5
327
100
AcDbEntity
  8
0
100
AcDbLine
 62
7
  6
CONTINUOUS
 10
12.7252123613
 20
2.5504983461
 11
12.7252123613
 21
2.5184523283
  0
LINE
  5
328
100
AcDbEntity
  8
0
100
AcDbLine
 62
7
  6
CONTINUOUS
 10
13.5375908118
 20
2.5092733232
 11
13.5357868108
 21
2.5153423266
  0
LINE
  5
329
100
AcDbEntity
  8
0
100
AcDbLine
 62
7
  6
CONTINUOUS
 10
12.7504793753
 20
2.5135023256
 11
12.7504793753
 21
2.4937023146
  0
LINE
  5
32A
100
AcDbEntity
  8
0
100
AcDbLine
 62
7
  6
CONTINUOUS
 10
12.8149974111
 20
2.5697573568
 11
12.8149974111
 21
2.5895573678
  0
LINE
  5
32B
100
AcDbEntity
  8
0
100
AcDbLine
 62
7
  6
CONTINUOUS
 10
12.8387234242
 20
2.535859338
 11
12.8387234242
 21
2.564807354
  0
LINE
  5
32C
100
AcDbEntity
  8
0
100
AcDbLine
 62
7
  6
CONTINUOUS
 10
12.8710654422
 20
2.564807354
 11
12.8710654422
 21
2.4937023146
  0
LINE
  5
32D
100
AcDbEntity
  8
0
100
AcDbLine
 62
7
  6
CONTINUOUS
 10
12.8939484549
 20
2.5895573678
 11
12.8939484549
 21
2.5697573568
  0
LINE
  5
32E
100
AcDbEntity
  8
0
100
AcDbLine
 62
7
  6
CONTINUOUS
 10
12.9181184683
 20
2.4937023146
 11
12.9181184683
 21
2.5135023256
  0
LINE
  5
32F
100
AcDbEntity
  8
0
100
AcDbLine
 62
7
  6
CONTINUOUS
 10
12.9181184683
 20
2.5697573568
 11
12.9181184683
 21
2.5895573678
  0
LINE
  5
330
100
AcDbEntity
  8
0
100
AcDbLine
 62
7
  6
CONTINUOUS
 10
12.9417144814
 20
2.5184523283
 11
12.9417144814
 21
2.564807354
  0
LINE
  5
331
100
AcDbEntity
  8
0
100
AcDbLine
 62
7
  6
CONTINUOUS
 10
12.973465499
 20
2.5504983461
 11
12.973465499
 21
2.5184523283
  0
LINE
  5
332
100
AcDbEntity
  8
0
100
AcDbLine
 62
7
  6
CONTINUOUS
 10
12.998732513
 20
2.5135023256
 11
12.998732513
 21
2.4937023146
  0
LINE
  5
333
100
AcDbEntity
  8
0
100
AcDbLine
 62
7
  6
CONTINUOUS
 10
13.0632505488
 20
2.5697573568
 11
13.0632505488
 21
2.5895573678
  0
LINE
  5
334
100
AcDbEntity
  8
0
100
AcDbLine
 62
7
  6
CONTINUOUS
 10
13.0869765619
 20
2.535859338
 11
13.0869765619
 21
2.564807354
  0
LINE
  5
335
100
AcDbEntity
  8
0
100
AcDbLine
 62
7
  6
CONTINUOUS
 10
13.1193185799
 20
2.564807354
 11
13.1193185799
 21
2.4937023146
  0
LINE
  5
336
100
AcDbEntity
  8
0
100
AcDbLine
 62
7
  6
CONTINUOUS
 10
13.1422015925
 20
2.5895573678
 11
13.1422015925
 21
2.5697573568
  0
LINE
  5
337
100
AcDbEntity
  8
0
100
AcDbLine
 62
7
  6
CONTINUOUS
 10
13.1648416051
 20
2.4937023146
 11
13.1648416051
 21
2.5135023256
  0
LINE
  5
338
100
AcDbEntity
  8
0
100
AcDbLine
 62
7
  6
CONTINUOUS
 10
13.1648416051
 20
2.5697573568
 11
13.1648416051
 21
2.5895573678
  0
LINE
  5
339
100
AcDbEntity
  8
0
100
AcDbLine
 62
7
  6
CONTINUOUS
 10
13.1937146211
 20
2.5184523283
 11
13.1937146211
 21
2.564807354
  0
LINE
  5
33A
100
AcDbEntity
  8
0
100
AcDbLine
 62
7
  6
CONTINUOUS
 10
13.2557806555
 20
2.564807354
 11
13.2557806555
 21
2.5532573476
  0
LINE
  5
33B
100
AcDbEntity
  8
0
100
AcDbLine
 62
7
  6
CONTINUOUS
 10
13.2557806555
 20
2.5300023347
 11
13.2557806555
 21
2.5184523283
  0
LINE
  5
33C
100
AcDbEntity
  8
0
100
AcDbLine
 62
7
  6
CONTINUOUS
 10
13.2958976778
 20
2.5483073449
 11
13.2958976778
 21
2.5349523375
  0
LINE
  5
33D
100
AcDbEntity
  8
0
100
AcDbLine
 62
7
  6
CONTINUOUS
 10
12.3907841758
 20
2.5410923409
 11
12.3990241804
 21
2.5458683435
  0
LINE
  5
33E
100
AcDbEntity
  8
0
100
AcDbLine
 62
7
  6
CONTINUOUS
 10
13.3247706938
 20
2.5565573495
 11
13.3247706938
 21
2.564807354
  0
LINE
  5
33F
100
AcDbEntity
  8
0
100
AcDbLine
 62
7
  6
CONTINUOUS
 10
13.3257346943
 20
2.5184523283
 11
13.3257346943
 21
2.5267023329
  0
LINE
  5
340
100
AcDbEntity
  8
0
100
AcDbLine
 62
7
  6
CONTINUOUS
 10
13.3715847197
 20
2.5895573678
 11
13.3715847197
 21
2.5565573495
  0
LINE
  5
341
100
AcDbEntity
  8
0
100
AcDbLine
 62
7
  6
CONTINUOUS
 10
13.3730037205
 20
2.5267023329
 11
13.3730037205
 21
2.4937023146
  0
LINE
  5
342
100
AcDbEntity
  8
0
100
AcDbLine
 62
7
  6
CONTINUOUS
 10
13.3969577338
 20
2.4937023146
 11
13.3969577338
 21
2.5135023256
  0
LINE
  5
343
100
AcDbEntity
  8
0
100
AcDbLine
 62
7
  6
CONTINUOUS
 10
13.3969577338
 20
2.5697573568
 11
13.3969577338
 21
2.5895573678
  0
LINE
  5
344
100
AcDbEntity
  8
0
100
AcDbLine
 62
7
  6
CONTINUOUS
 10
13.4246537492
 20
2.5184523283
 11
13.4246537492
 21
2.564807354
  0
LINE
  5
345
100
AcDbEntity
  8
0
100
AcDbLine
 62
7
  6
CONTINUOUS
 10
13.4858697831
 20
2.5281293337
 11
13.4858697831
 21
2.5184303283
  0
LINE
  5
346
100
AcDbEntity
  8
0
100
AcDbLine
 62
7
  6
CONTINUOUS
 10
13.4858697831
 20
2.552082347
 11
13.4858697831
 21
2.564807354
  0
LINE
  5
347
100
AcDbEntity
  8
0
100
AcDbLine
 62
7
  6
CONTINUOUS
 10
13.5154787995
 20
2.5134803256
 11
13.5154787995
 21
2.4937023146
  0
LINE
  5
348
100
AcDbEntity
  8
0
100
AcDbLine
 62
7
  6
CONTINUOUS
 10
13.6146708546
 20
2.525013332
 11
13.6146708546
 21
2.5276393334
  0
LINE
  5
349
100
AcDbEntity
  8
0
100
AcDbLine
 62
7
  6
CONTINUOUS
 10
13.631730864
 20
2.5276393334
 11
13.631730864
 21
2.516087327
  0
LINE
  5
34A
100
AcDbEntity
  8
0
100
AcDbLine
 62
7
  6
CONTINUOUS
 10
13.7286871589
 20
2.5350697372
 11
13.7286871589
 21
2.5456869438
  0
LINE
  5
34B
100
AcDbEntity
  8
0
100
AcDbLine
 62
7
  6
CONTINUOUS
 10
12.5112392426
 20
2.5908833685
 11
12.4644392167
 21
2.5171263276
  0
LINE
  5
34C
100
AcDbEntity
  8
0
100
AcDbLine
 62
7
  6
CONTINUOUS
 10
12.5246402501
 20
2.5655893545
 11
12.5175232461
 21
2.5543723483
  0
LINE
  5
34D
100
AcDbEntity
  8
0
100
AcDbLine
 62
7
  6
CONTINUOUS
 10
12.5034912383
 20
2.5197783291
 11
12.5090072414
 21
2.5284723339
  0
ARC
  5
34E
100
AcDbEntity
  8
0
100
AcDbCircle
 62
7
  6
CONTINUOUS
 10
12.7943847649
 20
2.4937027294
 40
0.0024754162
100
AcDbArc
 50
226.3593695813
 51
270.0146919953
  0
ARC
  5
34F
100
AcDbEntity
  8
0
100
AcDbCircle
 62
7
  6
CONTINUOUS
 10
12.2055050712
 20
2.4937023128
 40
0.0024749995
100
AcDbArc
 50
179.9999571957
 51
270.0000428043
  0
ARC
  5
350
100
AcDbEntity
  8
0
100
AcDbCircle
 62
7
  6
CONTINUOUS
 10
12.8685904427
 20
2.4937023128
 40
0.0024749995
100
AcDbArc
 50
269.9999571957
 51
0.0000428043
  0
ARC
  5
351
100
AcDbEntity
  8
0
100
AcDbCircle
 62
7
  6
CONTINUOUS
 10
12.7480043758
 20
2.4937023128
 40
0.0024749995
100
AcDbArc
 50
269.9999571957
 51
0.0000428043
  0
ARC
  5
352
100
AcDbEntity
  8
0
100
AcDbCircle
 62
7
  6
CONTINUOUS
 10
12.6723403301
 20
2.4937023128
 40
0.0024749995
100
AcDbArc
 50
179.9999571957
 51
270.0000428043
  0
ARC
  5
353
100
AcDbEntity
  8
0
100
AcDbCircle
 62
7
  6
CONTINUOUS
 10
12.5371502552
 20
2.4937023128
 40
0.0024749995
100
AcDbArc
 50
179.9999571957
 51
270.0000428043
  0
ARC
  5
354
100
AcDbEntity
  8
0
100
AcDbCircle
 62
7
  6
CONTINUOUS
 10
12.6424313172
 20
2.4937023128
 40
0.0024749995
100
AcDbArc
 50
269.9999571957
 51
0.0000428043
  0
ARC
  5
355
100
AcDbEntity
  8
0
100
AcDbCircle
 62
7
  6
CONTINUOUS
 10
12.439488201
 20
2.4937023128
 40
0.0024749995
100
AcDbArc
 50
179.9999571957
 51
270.0000428043
  0
ARC
  5
356
100
AcDbEntity
  8
0
100
AcDbCircle
 62
7
  6
CONTINUOUS
 10
12.5168642476
 20
2.4937023128
 40
0.0024749995
100
AcDbArc
 50
269.9999571957
 51
0.0000428043
  0
ARC
  5
357
100
AcDbEntity
  8
0
100
AcDbCircle
 62
7
  6
CONTINUOUS
 10
12.371573659
 20
2.5302846524
 40
0.061747717
100
AcDbArc
 50
59.5385584989
 51
90.0050977555
  0
ARC
  5
358
100
AcDbEntity
  8
0
100
AcDbCircle
 62
7
  6
CONTINUOUS
 10
12.3792298263
 20
2.539634765
 40
0.048483885
100
AcDbArc
 50
273.21763719
 51
303.0749121182
  0
ARC
  5
359
100
AcDbEntity
  8
0
100
AcDbCircle
 62
7
  6
CONTINUOUS
 10
12.3931760319
 20
2.5166878286
 40
0.0222174455
100
AcDbArc
 50
4.0793399388
 51
69.834329283
  0
ARC
  5
35A
100
AcDbEntity
  8
0
100
AcDbCircle
 62
7
  6
CONTINUOUS
 10
12.3940692204
 20
2.5168671561
 40
0.0213072145
100
AcDbArc
 50
303.0488228549
 51
355.7263138674
  0
ARC
  5
35B
100
AcDbEntity
  8
0
100
AcDbCircle
 62
7
  6
CONTINUOUS
 10
12.400005721
 20
2.5168763464
 40
0.0153945295
100
AcDbArc
 50
354.0454548824
 51
5.1878013979
  0
ARC
  5
35C
100
AcDbEntity
  8
0
100
AcDbCircle
 62
7
  6
CONTINUOUS
 10
12.3362731456
 20
2.5246398318
 40
0.0086625048
100
AcDbArc
 50
270.0
 51
90.0
  0
ARC
  5
35D
100
AcDbEntity
  8
0
100
AcDbCircle
 62
7
  6
CONTINUOUS
 10
12.5459747223
 20
2.5271458744
 40
0.0024754602
100
AcDbArc
 50
32.8959418573
 51
89.9875097202
  0
ARC
  5
35E
100
AcDbEntity
  8
0
100
AcDbCircle
 62
7
  6
CONTINUOUS
 10
12.4623492858
 20
2.5184525273
 40
0.0024752003
100
AcDbArc
 50
269.9983726451
 51
327.602165307
  0
ARC
  5
35F
100
AcDbEntity
  8
0
100
AcDbCircle
 62
7
  6
CONTINUOUS
 10
12.5110971723
 20
2.5271461342
 40
0.0024752003
100
AcDbArc
 50
89.998372645
 51
147.602165307
  0
ARC
  5
360
100
AcDbEntity
  8
0
100
AcDbCircle
 62
7
  6
CONTINUOUS
 10
12.5055811302
 20
2.518452367
 40
0.0024750401
100
AcDbArc
 50
147.6063258011
 51
270.0025305754
  0
ARC
  5
361
100
AcDbEntity
  8
0
100
AcDbCircle
 62
7
  6
CONTINUOUS
 10
12.2294470882
 20
2.5184523265
 40
0.0024749995
100
AcDbArc
 50
269.9999571957
 51
0.0000428043
  0
ARC
  5
362
100
AcDbEntity
  8
0
100
AcDbCircle
 62
7
  6
CONTINUOUS
 10
12.2055050712
 20
2.5135023274
 40
0.0024749995
100
AcDbArc
 50
89.9999571957
 51
180.0000428043
  0
ARC
  5
363
100
AcDbEntity
  8
0
100
AcDbCircle
 62
7
  6
CONTINUOUS
 10
12.2949101208
 20
2.530827337
 40
0.0024749995
100
AcDbArc
 50
89.9999571957
 51
180.0000428043
  0
ARC
  5
364
100
AcDbEntity
  8
0
100
AcDbCircle
 62
7
  6
CONTINUOUS
 10
12.2949101208
 20
2.5184523265
 40
0.0024749995
100
AcDbArc
 50
179.9999571957
 51
270.0000428043
  0
ARC
  5
365
100
AcDbEntity
  8
0
100
AcDbCircle
 62
7
  6
CONTINUOUS
 10
12.5371502552
 20
2.5135023274
 40
0.0024749995
100
AcDbArc
 50
89.9999571957
 51
180.0000428043
  0
ARC
  5
366
100
AcDbEntity
  8
0
100
AcDbCircle
 62
7
  6
CONTINUOUS
 10
12.439488201
 20
2.5135023274
 40
0.0024749995
100
AcDbArc
 50
89.9999571957
 51
180.0000428043
  0
ARC
  5
367
100
AcDbEntity
  8
0
100
AcDbCircle
 62
7
  6
CONTINUOUS
 10
12.5168642476
 20
2.5135023274
 40
0.0024749995
100
AcDbArc
 50
359.9999571957
 51
90.0000428043
  0
ARC
  5
368
100
AcDbEntity
  8
0
100
AcDbCircle
 62
7
  6
CONTINUOUS
 10
12.3771587979
 20
2.5826952352
 40
0.0428289026
100
AcDbArc
 50
300.6990502959
 51
319.0591802498
  0
ARC
  5
369
100
AcDbEntity
  8
0
100
AcDbCircle
 62
7
  6
CONTINUOUS
 10
12.3922357827
 20
2.5632132173
 40
0.0229166529
100
AcDbArc
 50
20.6563876465
 51
62.3316896973
  0
ARC
  5
36A
100
AcDbEntity
  8
0
100
AcDbCircle
 62
7
  6
CONTINUOUS
 10
12.3971873948
 20
2.5665668817
 40
0.0171568255
100
AcDbArc
 50
315.9145124245
 51
16.0049121282
  0
ARC
  5
36B
100
AcDbEntity
  8
0
100
AcDbCircle
 62
7
  6
CONTINUOUS
 10
12.3362731456
 20
2.5586198506
 40
0.0086625048
100
AcDbArc
 50
270.0
 51
90.0
  0
ARC
  5
36C
100
AcDbEntity
  8
0
100
AcDbCircle
 62
7
  6
CONTINUOUS
 10
12.532910715
 20
2.564262895
 40
0.0024754602
100
AcDbArc
 50
32.8959418573
 51
89.9875097202
  0
ARC
  5
36D
100
AcDbEntity
  8
0
100
AcDbCircle
 62
7
  6
CONTINUOUS
 10
12.5401702375
 20
2.5530465533
 40
0.0024752071
100
AcDbArc
 50
270.0004896793
 51
32.9089806818
  0
ARC
  5
36E
100
AcDbEntity
  8
0
100
AcDbCircle
 62
7
  6
CONTINUOUS
 10
12.5267301809
 20
2.5642631548
 40
0.0024752003
100
AcDbArc
 50
89.998372645
 51
147.602165307
  0
ARC
  5
36F
100
AcDbEntity
  8
0
100
AcDbCircle
 62
7
  6
CONTINUOUS
 10
12.5133291735
 20
2.5895571688
 40
0.0024752003
100
AcDbArc
 50
89.9983726451
 51
147.602165307
  0
ARC
  5
370
100
AcDbEntity
  8
0
100
AcDbCircle
 62
7
  6
CONTINUOUS
 10
12.519613138
 20
2.5530463862
 40
0.0024750401
100
AcDbArc
 50
147.6063258012
 51
270.0025305754
  0
ARC
  5
371
100
AcDbEntity
  8
0
100
AcDbCircle
 62
7
  6
CONTINUOUS
 10
12.2055050712
 20
2.5895573696
 40
0.0024749995
100
AcDbArc
 50
89.9999571957
 51
180.0000428043
  0
ARC
  5
372
100
AcDbEntity
  8
0
100
AcDbCircle
 62
7
  6
CONTINUOUS
 10
12.2055050712
 20
2.5697573549
 40
0.0024749995
100
AcDbArc
 50
179.9999571957
 51
270.0000428043
  0
ARC
  5
373
100
AcDbEntity
  8
0
100
AcDbCircle
 62
7
  6
CONTINUOUS
 10
12.2294470882
 20
2.5648073559
 40
0.0024749995
100
AcDbArc
 50
359.9999571957
 51
90.0000428043
  0
ARC
  5
374
100
AcDbEntity
  8
0
100
AcDbCircle
 62
7
  6
CONTINUOUS
 10
12.2949101208
 20
2.5648073559
 40
0.0024749995
100
AcDbArc
 50
89.9999571957
 51
180.0000428043
  0
ARC
  5
375
100
AcDbEntity
  8
0
100
AcDbCircle
 62
7
  6
CONTINUOUS
 10
12.2949101208
 20
2.5524323453
 40
0.0024749995
100
AcDbArc
 50
179.9999571957
 51
270.0000428043
  0
ARC
  5
376
100
AcDbEntity
  8
0
100
AcDbCircle
 62
7
  6
CONTINUOUS
 10
12.8362481229
 20
2.5358592748
 40
0.0024753014
100
AcDbArc
 50
226.3461263059
 51
0.0014637321
  0
ARC
  5
377
100
AcDbEntity
  8
0
100
AcDbCircle
 62
7
  6
CONTINUOUS
 10
12.7276876627
 20
2.5504984093
 40
0.0024753014
100
AcDbArc
 50
46.3461263059
 51
180.0014637321
  0
ARC
  5
378
100
AcDbEntity
  8
0
100
AcDbCircle
 62
7
  6
CONTINUOUS
 10
12.5516012439
 20
2.5184525341
 40
0.0024752071
100
AcDbArc
 50
270.0004896794
 51
32.9089806818
  0
ARC
  5
379
100
AcDbEntity
  8
0
100
AcDbCircle
 62
7
  6
CONTINUOUS
 10
12.7276873608
 20
2.5184523265
 40
0.0024749995
100
AcDbArc
 50
179.9999571957
 51
270.0000428043
  0
ARC
  5
37A
100
AcDbEntity
  8
0
100
AcDbCircle
 62
7
  6
CONTINUOUS
 10
12.7480043758
 20
2.5135023274
 40
0.0024749995
100
AcDbArc
 50
359.9999571957
 51
90.0000428043
  0
ARC
  5
37B
100
AcDbEntity
  8
0
100
AcDbCircle
 62
7
  6
CONTINUOUS
 10
12.6723403301
 20
2.5135023274
 40
0.0024749995
100
AcDbArc
 50
89.9999571957
 51
180.0000428043
  0
ARC
  5
37C
100
AcDbEntity
  8
0
100
AcDbCircle
 62
7
  6
CONTINUOUS
 10
12.6909873442
 20
2.5184523265
 40
0.0024749995
100
AcDbArc
 50
269.9999571957
 51
0.0000428043
  0
ARC
  5
37D
100
AcDbEntity
  8
0
100
AcDbCircle
 62
7
  6
CONTINUOUS
 10
12.6424313172
 20
2.5135023274
 40
0.0024749995
100
AcDbArc
 50
359.9999571957
 51
90.0000428043
  0
ARC
  5
37E
100
AcDbEntity
  8
0
100
AcDbCircle
 62
7
  6
CONTINUOUS
 10
12.6224154248
 20
2.518451368
 40
0.002474041
100
AcDbArc
 50
212.9056413127
 51
269.9972091756
  0
ARC
  5
37F
100
AcDbEntity
  8
0
100
AcDbCircle
 62
7
  6
CONTINUOUS
 10
12.8362484247
 20
2.5648073559
 40
0.0024749995
100
AcDbArc
 50
359.9999571957
 51
90.0000428043
  0
ARC
  5
380
100
AcDbEntity
  8
0
100
AcDbCircle
 62
7
  6
CONTINUOUS
 10
12.8174724106
 20
2.5697573549
 40
0.0024749995
100
AcDbArc
 50
179.9999571957
 51
270.0000428043
  0
ARC
  5
381
100
AcDbEntity
  8
0
100
AcDbCircle
 62
7
  6
CONTINUOUS
 10
12.8174724106
 20
2.5895573696
 40
0.0024749995
100
AcDbArc
 50
89.9999571957
 51
180.0000428043
  0
ARC
  5
382
100
AcDbEntity
  8
0
100
AcDbCircle
 62
7
  6
CONTINUOUS
 10
12.8914734553
 20
2.5895573696
 40
0.0024749995
100
AcDbArc
 50
359.9999571957
 51
90.0000428043
  0
ARC
  5
383
100
AcDbEntity
  8
0
100
AcDbCircle
 62
7
  6
CONTINUOUS
 10
12.8914734553
 20
2.5697573549
 40
0.0024749995
100
AcDbArc
 50
269.9999571957
 51
0.0000428043
  0
ARC
  5
384
100
AcDbEntity
  8
0
100
AcDbCircle
 62
7
  6
CONTINUOUS
 10
12.8735404417
 20
2.5648073559
 40
0.0024749995
100
AcDbArc
 50
89.9999571957
 51
180.0000428043
  0
ARC
  5
385
100
AcDbEntity
  8
0
100
AcDbCircle
 62
7
  6
CONTINUOUS
 10
12.6909873442
 20
2.5648073559
 40
0.0024749995
100
AcDbArc
 50
359.9999571957
 51
90.0000428043
  0
ARC
  5
386
100
AcDbEntity
  8
0
100
AcDbCircle
 62
7
  6
CONTINUOUS
 10
12.6723403301
 20
2.5697573549
 40
0.0024749995
100
AcDbArc
 50
179.9999571957
 51
270.0000428043
  0
ARC
  5
387
100
AcDbEntity
  8
0
100
AcDbCircle
 62
7
  6
CONTINUOUS
 10
12.6723403301
 20
2.5895573696
 40
0.0024749995
100
AcDbArc
 50
89.9999571957
 51
180.0000428043
  0
ARC
  5
388
100
AcDbEntity
  8
0
100
AcDbCircle
 62
7
  6
CONTINUOUS
 10
12.570504655
 20
2.589557409
 40
0.0024749602
100
AcDbArc
 50
32.9172174468
 51
90.0087853097
  0
ARC
  5
389
100
AcDbEntity
  8
0
100
AcDbCircle
 62
7
  6
CONTINUOUS
 10
12.7727985224
 20
2.5895582013
 40
0.0024741678
100
AcDbArc
 50
46.3477981899
 51
90.0031206038
  0
ARC
  5
38A
100
AcDbEntity
  8
0
100
AcDbCircle
 62
7
  6
CONTINUOUS
 10
13.5463505148
 20
2.4094934586
 40
0.1825583387
100
AcDbArc
 50
79.8618509324
 51
89.1640948679
  0
ARC
  5
38B
100
AcDbEntity
  8
0
100
AcDbCircle
 62
7
  6
CONTINUOUS
 10
13.5282557878
 20
2.4386010294
 40
0.117346916
100
AcDbArc
 50
58.614769177
 51
62.3737227606
  0
ARC
  5
38C
100
AcDbEntity
  8
0
100
AcDbCircle
 62
7
  6
CONTINUOUS
 10
13.5571178432
 20
2.509473798
 40
0.0459185159
100
AcDbArc
 50
15.6740290068
 51
20.9917271228
  0
ARC
  5
38D
100
AcDbEntity
  8
0
100
AcDbCircle
 62
7
  6
CONTINUOUS
 10
13.4974076135
 20
2.5055452462
 40
0.0396099176
100
AcDbArc
 50
14.3201081283
 51
22.4984722084
  0
ARC
  5
38E
100
AcDbEntity
  8
0
100
AcDbCircle
 62
7
  6
CONTINUOUS
 10
13.5161192671
 20
2.5062372524
 40
0.0243676582
100
AcDbArc
 50
63.3666028271
 51
90.3937697637
  0
ARC
  5
38F
100
AcDbEntity
  8
0
100
AcDbCircle
 62
7
  6
CONTINUOUS
 10
13.6036139387
 20
2.5111006186
 40
0.0198837666
100
AcDbArc
 50
271.8586572978
 51
289.4131338543
  0
ARC
  5
390
100
AcDbEntity
  8
0
100
AcDbCircle
 62
7
  6
CONTINUOUS
 10
13.5577001432
 20
2.5085494649
 40
0.0173408616
100
AcDbArc
 50
232.4713476722
 51
267.338189944
  0
ARC
  5
391
100
AcDbEntity
  8
0
100
AcDbCircle
 62
7
  6
CONTINUOUS
 10
13.5130038
 20
2.4937023128
 40
0.0024749995
100
AcDbArc
 50
269.9999571957
 51
0.0000428043
  0
ARC
  5
392
100
AcDbEntity
  8
0
100
AcDbCircle
 62
7
  6
CONTINUOUS
 10
13.3994327333
 20
2.4937023128
 40
0.0024749995
100
AcDbArc
 50
179.9999571957
 51
270.0000428043
  0
ARC
  5
393
100
AcDbEntity
  8
0
100
AcDbCircle
 62
7
  6
CONTINUOUS
 10
13.1168435803
 20
2.4937023128
 40
0.0024749995
100
AcDbArc
 50
269.9999571957
 51
0.0000428043
  0
ARC
  5
394
100
AcDbEntity
  8
0
100
AcDbCircle
 62
7
  6
CONTINUOUS
 10
12.9962575135
 20
2.4937023128
 40
0.0024749995
100
AcDbArc
 50
269.9999571957
 51
0.0000428043
  0
ARC
  5
395
100
AcDbEntity
  8
0
100
AcDbCircle
 62
7
  6
CONTINUOUS
 10
12.9205934678
 20
2.4937023128
 40
0.0024749995
100
AcDbArc
 50
179.9999571957
 51
270.0000428043
  0
ARC
  5
396
100
AcDbEntity
  8
0
100
AcDbCircle
 62
7
  6
CONTINUOUS
 10
13.370528721
 20
2.4937023128
 40
0.0024749995
100
AcDbArc
 50
269.9999571957
 51
0.0000428043
  0
ARC
  5
397
100
AcDbEntity
  8
0
100
AcDbCircle
 62
7
  6
CONTINUOUS
 10
13.1673166046
 20
2.4937023128
 40
0.0024749995
100
AcDbArc
 50
179.9999571957
 51
270.0000428043
  0
ARC
  5
398
100
AcDbEntity
  8
0
100
AcDbCircle
 62
7
  6
CONTINUOUS
 10
13.0426374026
 20
2.493701481
 40
0.0024741678
100
AcDbArc
 50
226.3477981898
 51
270.0031206038
  0
ARC
  5
399
100
AcDbEntity
  8
0
100
AcDbCircle
 62
7
  6
CONTINUOUS
 10
13.0845012605
 20
2.5358592748
 40
0.0024753014
100
AcDbArc
 50
226.3461263059
 51
0.0014637321
  0
ARC
  5
39A
100
AcDbEntity
  8
0
100
AcDbCircle
 62
7
  6
CONTINUOUS
 10
12.9759408003
 20
2.5504984093
 40
0.0024753014
100
AcDbArc
 50
46.3461263059
 51
180.0014637321
  0
ARC
  5
39B
100
AcDbEntity
  8
0
100
AcDbCircle
 62
7
  6
CONTINUOUS
 10
12.9759404985
 20
2.5184523265
 40
0.0024749995
100
AcDbArc
 50
179.9999571957
 51
270.0000428043
  0
ARC
  5
39C
100
AcDbEntity
  8
0
100
AcDbCircle
 62
7
  6
CONTINUOUS
 10
12.9962575135
 20
2.5135023274
 40
0.0024749995
100
AcDbArc
 50
359.9999571957
 51
90.0000428043
  0
ARC
  5
39D
100
AcDbEntity
  8
0
100
AcDbCircle
 62
7
  6
CONTINUOUS
 10
12.9205934678
 20
2.5135023274
 40
0.0024749995
100
AcDbArc
 50
89.9999571957
 51
180.0000428042
  0
ARC
  5
39E
100
AcDbEntity
  8
0
100
AcDbCircle
 62
7
  6
CONTINUOUS
 10
12.9392394818
 20
2.5184523265
 40
0.0024749995
100
AcDbArc
 50
269.9999571957
 51
0.0000428043
  0
ARC
  5
39F
100
AcDbEntity
  8
0
100
AcDbCircle
 62
7
  6
CONTINUOUS
 10
13.2582556551
 20
2.5300023366
 40
0.0024749995
100
AcDbArc
 50
89.9999571957
 51
180.0000428043
  0
ARC
  5
3A0
100
AcDbEntity
  8
0
100
AcDbCircle
 62
7
  6
CONTINUOUS
 10
13.2582556551
 20
2.5184523265
 40
0.0024749995
100
AcDbArc
 50
179.9999571957
 51
270.0000428043
  0
ARC
  5
3A1
100
AcDbEntity
  8
0
100
AcDbCircle
 62
7
  6
CONTINUOUS
 10
13.1673166046
 20
2.5135023274
 40
0.0024749995
100
AcDbArc
 50
89.9999571957
 51
180.0000428043
  0
ARC
  5
3A2
100
AcDbEntity
  8
0
100
AcDbCircle
 62
7
  6
CONTINUOUS
 10
13.1912396216
 20
2.5184523265
 40
0.0024749995
100
AcDbArc
 50
269.9999571957
 51
0.0000428042
  0
ARC
  5
3A3
100
AcDbEntity
  8
0
100
AcDbCircle
 62
7
  6
CONTINUOUS
 10
13.2582556551
 20
2.5532573458
 40
0.0024749995
100
AcDbArc
 50
179.9999571957
 51
270.0000428043
  0
ARC
  5
3A4
100
AcDbEntity
  8
0
100
AcDbCircle
 62
7
  6
CONTINUOUS
 10
13.0845015624
 20
2.5648073559
 40
0.0024749995
100
AcDbArc
 50
359.9999571957
 51
90.0000428043
  0
ARC
  5
3A5
100
AcDbEntity
  8
0
100
AcDbCircle
 62
7
  6
CONTINUOUS
 10
13.0657255483
 20
2.5697573549
 40
0.0024749995
100
AcDbArc
 50
179.9999571957
 51
270.0000428043
  0
ARC
  5
3A6
100
AcDbEntity
  8
0
100
AcDbCircle
 62
7
  6
CONTINUOUS
 10
13.0657255483
 20
2.5895573696
 40
0.0024749995
100
AcDbArc
 50
89.9999571957
 51
180.0000428043
  0
ARC
  5
3A7
100
AcDbEntity
  8
0
100
AcDbCircle
 62
7
  6
CONTINUOUS
 10
13.139726593
 20
2.5895573696
 40
0.0024749995
100
AcDbArc
 50
359.9999571957
 51
90.0000428043
  0
ARC
  5
3A8
100
AcDbEntity
  8
0
100
AcDbCircle
 62
7
  6
CONTINUOUS
 10
13.139726593
 20
2.5697573549
 40
0.0024749995
100
AcDbArc
 50
269.9999571957
 51
0.0000428042
  0
ARC
  5
3A9
100
AcDbEntity
  8
0
100
AcDbCircle
 62
7
  6
CONTINUOUS
 10
13.1217935794
 20
2.5648073559
 40
0.0024749995
100
AcDbArc
 50
89.9999571957
 51
180.0000428042
  0
ARC
  5
3AA
100
AcDbEntity
  8
0
100
AcDbCircle
 62
7
  6
CONTINUOUS
 10
12.9392394818
 20
2.5648073559
 40
0.0024749995
100
AcDbArc
 50
359.9999571957
 51
90.0000428043
  0
ARC
  5
3AB
100
AcDbEntity
  8
0
100
AcDbCircle
 62
7
  6
CONTINUOUS
 10
12.9205934678
 20
2.5697573549
 40
0.0024749995
100
AcDbArc
 50
179.9999571957
 51
270.0000428043
  0
ARC
  5
3AC
100
AcDbEntity
  8
0
100
AcDbCircle
 62
7
  6
CONTINUOUS
 10
12.9205934678
 20
2.5895573696
 40
0.0024749995
100
AcDbArc
 50
89.9999571957
 51
180.0000428042
  0
ARC
  5
3AD
100
AcDbEntity
  8
0
100
AcDbCircle
 62
7
  6
CONTINUOUS
 10
13.1912396216
 20
2.5648073559
 40
0.0024749995
100
AcDbArc
 50
359.9999571957
 51
90.0000428043
  0
ARC
  5
3AE
100
AcDbEntity
  8
0
100
AcDbCircle
 62
7
  6
CONTINUOUS
 10
13.1673166046
 20
2.5697573549
 40
0.0024749995
100
AcDbArc
 50
179.9999571957
 51
270.0000428043
  0
ARC
  5
3AF
100
AcDbEntity
  8
0
100
AcDbCircle
 62
7
  6
CONTINUOUS
 10
13.1673166046
 20
2.5895573696
 40
0.0024749995
100
AcDbArc
 50
89.9999571957
 51
180.0000428043
  0
ARC
  5
3B0
100
AcDbEntity
  8
0
100
AcDbCircle
 62
7
  6
CONTINUOUS
 10
13.2582556551
 20
2.5648073559
 40
0.0024749995
100
AcDbArc
 50
89.9999571957
 51
180.0000428043
  0
ARC
  5
3B1
100
AcDbEntity
  8
0
100
AcDbCircle
 62
7
  6
CONTINUOUS
 10
13.0210516601
 20
2.5895582013
 40
0.0024741678
100
AcDbArc
 50
46.3477981899
 51
90.0031206038
  0
ARC
  5
3B2
100
AcDbEntity
  8
0
100
AcDbCircle
 62
7
  6
CONTINUOUS
 10
13.5806801742
 20
2.5212486481
 40
0.044722495
100
AcDbArc
 50
195.531588407
 51
204.7624440448
  0
ARC
  5
3B3
100
AcDbEntity
  8
0
100
AcDbCircle
 62
7
  6
CONTINUOUS
 10
13.5726548052
 20
2.5503169747
 40
0.039319019
100
AcDbArc
 50
59.1202086415
 51
81.4730239328
  0
ARC
  5
3B4
100
AcDbEntity
  8
0
100
AcDbCircle
 62
7
  6
CONTINUOUS
 10
13.5978759713
 20
2.5286873679
 40
0.0383802683
100
AcDbArc
 50
288.7656836787
 51
309.6104317088
  0
ARC
  5
3B5
100
AcDbEntity
  8
0
100
AcDbCircle
 62
7
  6
CONTINUOUS
 10
13.5783142014
 20
2.5566516438
 40
0.0310192946
100
AcDbArc
 50
34.7540871
 51
62.0879016178
  0
ARC
  5
3B6
100
AcDbEntity
  8
0
100
AcDbCircle
 62
7
  6
CONTINUOUS
 10
13.5236009174
 20
2.5388278764
 40
0.0284963867
100
AcDbArc
 50
70.3834917948
 51
86.8922743861
  0
ARC
  5
3B7
100
AcDbEntity
  8
0
100
AcDbCircle
 62
7
  6
CONTINUOUS
 10
13.6048681567
 20
2.5210861501
 40
0.0280715479
100
AcDbArc
 50
308.5071794988
 51
332.24006569
  0
ARC
  5
3B8
100
AcDbEntity
  8
0
100
AcDbCircle
 62
7
  6
CONTINUOUS
 10
13.5750183849
 20
2.5166552064
 40
0.0266349791
100
AcDbArc
 50
20.3630922153
 51
37.9727053099
  0
ARC
  5
3B9
100
AcDbEntity
  8
0
100
AcDbCircle
 62
7
  6
CONTINUOUS
 10
13.5761387404
 20
2.5167282896
 40
0.0257145923
100
AcDbArc
 50
39.3804255939
 51
59.0361096173
  0
ARC
  5
3BA
100
AcDbEntity
  8
0
100
AcDbCircle
 62
7
  6
CONTINUOUS
 10
13.5607987082
 20
2.5143997688
 40
0.0238935861
100
AcDbArc
 50
209.8247607259
 51
235.1255079367
  0
ARC
  5
3BB
100
AcDbEntity
  8
0
100
AcDbCircle
 62
7
  6
CONTINUOUS
 10
13.6141751675
 20
2.5161916447
 40
0.0175560065
100
AcDbArc
 50
332.2279060967
 51
359.6595469939
  0
ARC
  5
3BC
100
AcDbEntity
  8
0
100
AcDbCircle
 62
7
  6
CONTINUOUS
 10
13.5201739219
 20
2.5145168728
 40
0.0151491919
100
AcDbArc
 50
24.098260853
 51
63.0369451818
  0
ARC
  5
3BD
100
AcDbEntity
  8
0
100
AcDbCircle
 62
7
  6
CONTINUOUS
 10
13.6156881783
 20
2.525116781
 40
0.0147197649
100
AcDbArc
 50
192.7054516565
 51
206.0594861022
  0
ARC
  5
3BE
100
AcDbEntity
  8
0
100
AcDbCircle
 62
7
  6
CONTINUOUS
 10
13.5284605274
 20
2.5518696094
 40
0.0145814632
100
AcDbArc
 50
54.6746025112
 51
71.1660573124
  0
ARC
  5
3BF
100
AcDbEntity
  8
0
100
AcDbCircle
 62
7
  6
CONTINUOUS
 10
13.6063292954
 20
2.5296129864
 40
0.0132488022
100
AcDbArc
 50
270.266200055
 51
281.2404888597
  0
ARC
  5
3C0
100
AcDbEntity
  8
0
100
AcDbCircle
 62
7
  6
CONTINUOUS
 10
13.6027235414
 20
2.524769508
 40
0.0119498009
100
AcDbArc
 50
340.7883861657
 51
1.1691452593
  0
ARC
  5
3C1
100
AcDbEntity
  8
0
100
AcDbCircle
 62
7
  6
CONTINUOUS
 10
13.5295131508
 20
2.5629115009
 40
0.0110815393
100
AcDbArc
 50
306.758405961
 51
320.4502234234
  0
ARC
  5
3C2
100
AcDbEntity
  8
0
100
AcDbCircle
 62
7
  6
CONTINUOUS
 10
13.6075235364
 20
2.5238762928
 40
0.0073895522
100
AcDbArc
 50
280.8288201977
 51
305.0837508495
  0
ARC
  5
3C3
100
AcDbEntity
  8
0
100
AcDbCircle
 62
7
  6
CONTINUOUS
 10
13.607924718
 20
2.5230254464
 40
0.0064647042
100
AcDbArc
 50
306.5086174083
 51
340.2162360092
  0
ARC
  5
3C4
100
AcDbEntity
  8
0
100
AcDbCircle
 62
7
  6
CONTINUOUS
 10
13.5335900184
 20
2.5587235346
 40
0.0060275915
100
AcDbArc
 50
20.9055592135
 51
56.7851676243
  0
ARC
  5
3C5
100
AcDbEntity
  8
0
100
AcDbCircle
 62
7
  6
CONTINUOUS
 10
13.533683767
 20
2.559677593
 40
0.0058087709
100
AcDbArc
 50
318.8515287446
 51
353.6422345323
  0
ARC
  5
3C6
100
AcDbEntity
  8
0
100
AcDbCircle
 62
7
  6
CONTINUOUS
 10
13.6071938412
 20
2.5209082945
 40
0.0052403997
100
AcDbArc
 50
205.5232099488
 51
227.5054868079
  0
ARC
  5
3C7
100
AcDbEntity
  8
0
100
AcDbCircle
 62
7
  6
CONTINUOUS
 10
13.5348905773
 20
2.5593838168
 40
0.0045795888
100
AcDbArc
 50
355.6235353944
 51
18.9942678268
  0
ARC
  5
3C8
100
AcDbEntity
  8
0
100
AcDbCircle
 62
7
  6
CONTINUOUS
 10
13.6054655419
 20
2.5190929218
 40
0.0027347709
100
AcDbArc
 50
228.5117626737
 51
266.1485845754
  0
ARC
  5
3C9
100
AcDbEntity
  8
0
100
AcDbCircle
 62
7
  6
CONTINUOUS
 10
13.4883447827
 20
2.5281293355
 40
0.0024749995
100
AcDbArc
 50
89.9999571957
 51
180.0000428043
  0
ARC
  5
3CA
100
AcDbEntity
  8
0
100
AcDbCircle
 62
7
  6
CONTINUOUS
 10
13.4883447827
 20
2.5184303265
 40
0.0024749995
100
AcDbArc
 50
179.9999571957
 51
270.0000428043
  0
ARC
  5
3CB
100
AcDbEntity
  8
0
100
AcDbCircle
 62
7
  6
CONTINUOUS
 10
13.5130038
 20
2.5134803274
 40
0.0024749995
100
AcDbArc
 50
359.9999571957
 51
90.0000428043
  0
ARC
  5
3CC
100
AcDbEntity
  8
0
100
AcDbCircle
 62
7
  6
CONTINUOUS
 10
13.3994327333
 20
2.5135023274
 40
0.0024749995
100
AcDbArc
 50
89.9999571957
 51
180.0000428043
  0
ARC
  5
3CD
100
AcDbEntity
  8
0
100
AcDbCircle
 62
7
  6
CONTINUOUS
 10
13.4221787497
 20
2.5184523265
 40
0.0024749995
100
AcDbArc
 50
269.9999571957
 51
0.0000428042
  0
ARC
  5
3CE
100
AcDbEntity
  8
0
100
AcDbCircle
 62
7
  6
CONTINUOUS
 10
13.6171458541
 20
2.5276393353
 40
0.0024749995
100
AcDbArc
 50
89.9999571957
 51
180.0000428043
  0
ARC
  5
3CF
100
AcDbEntity
  8
0
100
AcDbCircle
 62
7
  6
CONTINUOUS
 10
13.6292558645
 20
2.5276393353
 40
0.0024749995
100
AcDbArc
 50
359.9999571957
 51
90.0000428043
  0
ARC
  5
3D0
100
AcDbEntity
  8
0
100
AcDbCircle
 62
7
  6
CONTINUOUS
 10
13.4883447827
 20
2.5520823451
 40
0.0024749995
100
AcDbArc
 50
179.9999571957
 51
270.0000428043
  0
ARC
  5
3D1
100
AcDbEntity
  8
0
100
AcDbCircle
 62
7
  6
CONTINUOUS
 10
13.3232596948
 20
2.5184523265
 40
0.0024749995
100
AcDbArc
 50
269.9999571957
 51
0.0000428043
  0
ARC
  5
3D2
100
AcDbEntity
  8
0
100
AcDbCircle
 62
7
  6
CONTINUOUS
 10
13.3282096938
 20
2.5267023348
 40
0.0024749995
100
AcDbArc
 50
89.9999571957
 51
180.0000428043
  0
ARC
  5
3D3
100
AcDbEntity
  8
0
100
AcDbCircle
 62
7
  6
CONTINUOUS
 10
13.370528721
 20
2.5267023348
 40
0.0024749995
100
AcDbArc
 50
359.9999571957
 51
90.0000428043
  0
ARC
  5
3D4
100
AcDbEntity
  8
0
100
AcDbCircle
 62
7
  6
CONTINUOUS
 10
13.3691097202
 20
2.5565573476
 40
0.0024749995
100
AcDbArc
 50
269.9999571957
 51
0.0000428042
  0
ARC
  5
3D5
100
AcDbEntity
  8
0
100
AcDbCircle
 62
7
  6
CONTINUOUS
 10
13.3272456933
 20
2.5565573476
 40
0.0024749995
100
AcDbArc
 50
179.9999571957
 51
270.0000428043
  0
ARC
  5
3D6
100
AcDbEntity
  8
0
100
AcDbCircle
 62
7
  6
CONTINUOUS
 10
13.2934226783
 20
2.5483073467
 40
0.0024749995
100
AcDbArc
 50
359.9999571957
 51
90.0000428043
  0
ARC
  5
3D7
100
AcDbEntity
  8
0
100
AcDbCircle
 62
7
  6
CONTINUOUS
 10
13.2934226783
 20
2.5349523356
 40
0.0024749995
100
AcDbArc
 50
269.9999571957
 51
0.0000428042
  0
ARC
  5
3D8
100
AcDbEntity
  8
0
100
AcDbCircle
 62
7
  6
CONTINUOUS
 10
13.5519569538
 20
2.6152551345
 40
0.0789082104
100
AcDbArc
 50
292.906155071
 51
305.2574666259
  0
ARC
  5
3D9
100
AcDbEntity
  8
0
100
AcDbCircle
 62
7
  6
CONTINUOUS
 10
13.5822888914
 20
2.5720482849
 40
0.0261183659
100
AcDbArc
 50
305.6373831893
 51
329.9727629745
  0
ARC
  5
3DA
100
AcDbEntity
  8
0
100
AcDbCircle
 62
7
  6
CONTINUOUS
 10
13.5219564542
 20
2.5750459767
 40
0.0254407115
100
AcDbArc
 50
270.7327484175
 51
290.441894219
  0
ARC
  5
3DB
100
AcDbEntity
  8
0
100
AcDbCircle
 62
7
  6
CONTINUOUS
 10
13.5238839599
 20
2.5706523294
 40
0.0206523367
100
AcDbArc
 50
289.6883413472
 51
306.4184925496
  0
ARC
  5
3DC
100
AcDbEntity
  8
0
100
AcDbCircle
 62
7
  6
CONTINUOUS
 10
13.5900029525
 20
2.565201245
 40
0.0165459396
100
AcDbArc
 50
1.548452892
 51
33.5033152417
  0
ARC
  5
3DD
100
AcDbEntity
  8
0
100
AcDbCircle
 62
7
  6
CONTINUOUS
 10
13.5932995477
 20
2.5653696972
 40
0.0132462337
100
AcDbArc
 50
331.1510006998
 51
1.205404301
  0
ARC
  5
3DE
100
AcDbEntity
  8
0
100
AcDbCircle
 62
7
  6
CONTINUOUS
 10
13.4221787497
 20
2.5648073559
 40
0.0024749995
100
AcDbArc
 50
359.9999571957
 51
90.0000428043
  0
ARC
  5
3DF
100
AcDbEntity
  8
0
100
AcDbCircle
 62
7
  6
CONTINUOUS
 10
13.3994327333
 20
2.5697573549
 40
0.0024749995
100
AcDbArc
 50
179.9999571957
 51
270.0000428043
  0
ARC
  5
3E0
100
AcDbEntity
  8
0
100
AcDbCircle
 62
7
  6
CONTINUOUS
 10
13.3994327333
 20
2.5895573696
 40
0.0024749995
100
AcDbArc
 50
89.9999571957
 51
180.0000428043
  0
ARC
  5
3E1
100
AcDbEntity
  8
0
100
AcDbCircle
 62
7
  6
CONTINUOUS
 10
13.4883447827
 20
2.5648073559
 40
0.0024749995
100
AcDbArc
 50
89.9999571957
 51
180.0000428043
  0
ARC
  5
3E2
100
AcDbEntity
  8
0
100
AcDbCircle
 62
7
  6
CONTINUOUS
 10
13.3691097202
 20
2.5895573696
 40
0.0024749995
100
AcDbArc
 50
359.9999571957
 51
90.0000428043
  0
ARC
  5
3E3
100
AcDbEntity
  8
0
100
AcDbCircle
 62
7
  6
CONTINUOUS
 10
13.3222956943
 20
2.5648073559
 40
0.0024749995
100
AcDbArc
 50
359.9999571957
 51
90.0000428043
  0
ELLIPSE
  5
3E4
100
AcDbEntity
  8
0
100
AcDbEllipse
 62
7
  6
CONTINUOUS
 10
12.9046654608
 20
2.5403783405
 30
0.0
 11
-0.8250004575
 21
0.0
 31
0.0
 40
0.218572
 41
0.0
 42
6.2831853072
  0
HATCH
  5
3E5
100
AcDbEntity
  8
0
100
AcDbHatch
 62
7
  6
CONTINUOUS
 10
0.0
 20
0.0
 30
0.0
210
0.0
220
0.0
230
1.0
  2
XSEC0001
 70
1
 71
1
 91
11
 92
1
 93
57
 72
2
 10
13.5577001432
 20
2.5085494649
 40
0.0173408616
 50
232.4713476722
 51
267.338189944
 73
1
 72
2
 10
13.5607987082
 20
2.5143997688
 40
0.0238935861
 50
209.8247607259
 51
235.1255079367
 73
1
 72
2
 10
13.5806801742
 20
2.5212486481
 40
0.044722495
 50
195.531588407
 51
204.7624440448
 73
1
 72
1
 10
13.5375908118
 20
2.5092733232
 11
13.5357868108
 21
2.5153423266
 72
2
 10
13.4974076135
 20
2.5055452462
 40
0.0396099176
 50
14.3201081283
 51
22.4984722084
 73
1
 72
2
 10
13.5201739219
 20
2.5145168728
 40
0.0151491919
 50
24.098260853
 51
63.0369451818
 73
1
 72
2
 10
13.5161192671
 20
2.5062372524
 40
0.0243676582
 50
63.3666028271
 51
90.3937697637
 73
1
 72
1
 10
13.5159517998
 20
2.5306043351
 11
13.4883447845
 21
2.5306043351
 72
2
 10
13.4883447827
 20
2.5281293355
 40
0.0024749995
 50
89.9999571958
 51
180.0000428043
 73
1
 72
1
 10
13.4858697831
 20
2.5281293337
 11
13.4858697831
 21
2.5184303283
 72
2
 10
13.4883447827
 20
2.5184303265
 40
0.0024749995
 50
179.9999571957
 51
270.0000428042
 73
1
 72
1
 10
13.4883447845
 20
2.5159553269
 11
13.5130037982
 21
2.5159553269
 72
2
 10
13.5130038
 20
2.5134803274
 40
0.0024749995
 50
359.9999571957
 51
90.0000428042
 73
1
 72
1
 10
13.5154787995
 20
2.5134803256
 11
13.5154787995
 21
2.4937023146
 72
2
 10
13.5130038
 20
2.4937023128
 40
0.0024749995
 50
269.9999571958
 51
0.0000428043
 73
1
 72
1
 10
13.5130037982
 20
2.4912273132
 11
13.3994327352
 21
2.4912273132
 72
2
 10
13.3994327333
 20
2.4937023128
 40
0.0024749995
 50
179.9999571957
 51
270.0000428043
 73
1
 72
1
 10
13.3969577338
 20
2.4937023146
 11
13.3969577338
 21
2.5135023256
 72
2
 10
13.3994327333
 20
2.5135023274
 40
0.0024749995
 50
89.9999571957
 51
180.0000428043
 73
1
 72
1
 10
13.3994327352
 20
2.515977327
 11
13.4221787478
 21
2.515977327
 72
2
 10
13.4221787497
 20
2.5184523265
 40
0.0024749995
 50
269.9999571956
 51
0.0000428042
 73
1
 72
1
 10
13.4246537492
 20
2.5184523283
 11
13.4246537492
 21
2.564807354
 72
2
 10
13.4221787497
 20
2.5648073559
 40
0.0024749995
 50
359.9999571957
 51
90.0000428043
 73
1
 72
1
 10
13.4221787478
 20
2.5672823554
 11
13.3994327352
 21
2.5672823554
 72
2
 10
13.3994327333
 20
2.5697573549
 40
0.0024749995
 50
179.9999571957
 51
270.0000428043
 73
1
 72
1
 10
13.3969577338
 20
2.5697573568
 11
13.3969577338
 21
2.5895573678
 72
2
 10
13.3994327333
 20
2.5895573696
 40
0.0024749995
 50
89.9999571957
 51
180.0000428043
 73
1
 72
1
 10
13.3994327352
 20
2.5920323691
 11
13.5490138181
 21
2.5920323691
 72
2
 10
13.5463505148
 20
2.4094934586
 40
0.1825583387
 50
79.8618509324
 51
89.1640948679
 73
1
 72
2
 10
13.5726548052
 20
2.5503169747
 40
0.039319019
 50
59.1202086415
 51
81.4730239328
 73
1
 72
2
 10
13.5783142014
 20
2.5566516438
 40
0.0310192946
 50
34.7540871
 51
62.0879016178
 73
1
 72
2
 10
13.5900029525
 20
2.565201245
 40
0.0165459396
 50
1.548452892
 51
33.5033152417
 73
1
 72
2
 10
13.5932995477
 20
2.5653696972
 40
0.0132462337
 50
331.1510006998
 51
1.205404301
 73
1
 72
2
 10
13.5822888914
 20
2.5720482849
 40
0.0261183659
 50
305.6373831893
 51
329.9727629745
 73
1
 72
2
 10
13.5519569538
 20
2.6152551345
 40
0.0789082104
 50
292.906155071
 51
305.2574666259
 73
1
 72
2
 10
13.5282557878
 20
2.4386010294
 40
0.117346916
 50
58.614769177
 51
62.3737227606
 73
1
 72
2
 10
13.5761387404
 20
2.5167282896
 40
0.0257145923
 50
39.3804255939
 51
59.0361096173
 73
1
 72
2
 10
13.5750183849
 20
2.5166552064
 40
0.0266349791
 50
20.3630922153
 51
37.9727053099
 73
1
 72
2
 10
13.5571178432
 20
2.509473798
 40
0.0459185159
 50
15.6740290068
 51
20.9917271228
 73
1
 72
2
 10
13.6156881783
 20
2.525116781
 40
0.0147197649
 50
192.7054516565
 51
206.0594861022
 73
1
 72
2
 10
13.6071938412
 20
2.5209082945
 40
0.0052403997
 50
205.5232099488
 51
227.5054868079
 73
1
 72
2
 10
13.6054655419
 20
2.5190929218
 40
0.0027347709
 50
228.5117626737
 51
266.1485845754
 73
1
 72
1
 10
13.6052818493
 20
2.5163643272
 11
13.60639085
 21
2.5163643272
 72
2
 10
13.6063292954
 20
2.5296129864
 40
0.0132488022
 50
270.266200055
 51
281.2404888597
 73
1
 72
2
 10
13.6075235364
 20
2.5238762928
 40
0.0073895522
 50
280.8288201977
 51
305.0837508495
 73
1
 72
2
 10
13.607924718
 20
2.5230254464
 40
0.0064647042
 50
306.5086174083
 51
340.2162360092
 73
1
 72
2
 10
13.6027235414
 20
2.524769508
 40
0.0119498009
 50
340.7883861657
 51
1.1691452593
 73
1
 72
1
 10
13.6146708546
 20
2.525013332
 11
13.6146708546
 21
2.5276393334
 72
2
 10
13.6171458541
 20
2.5276393353
 40
0.0024749995
 50
89.9999571958
 51
180.0000428043
 73
1
 72
1
 10
13.6171458559
 20
2.5301143348
 11
13.6292558626
 21
2.5301143348
 72
2
 10
13.6292558645
 20
2.5276393353
 40
0.0024749995
 50
359.9999571957
 51
90.0000428042
 73
1
 72
1
 10
13.631730864
 20
2.5276393334
 11
13.631730864
 21
2.516087327
 72
2
 10
13.6141751675
 20
2.5161916447
 40
0.0175560065
 50
332.2279060967
 51
359.6595469939
 73
1
 72
2
 10
13.6048681567
 20
2.5210861501
 40
0.0280715479
 50
308.5071794988
 51
332.2400656899
 73
1
 72
2
 10
13.5978759713
 20
2.5286873679
 40
0.0383802683
 50
288.7656836787
 51
309.6104317088
 73
1
 72
2
 10
13.6036139387
 20
2.5111006186
 40
0.0198837666
 50
271.8586572978
 51
289.4131338543
 73
1
 72
1
 10
13.6042588488
 20
2.4912273132
 11
13.5568948225
 21
2.4912273132
 97
267
330
2DA
330
2DB
330
2DC
330
2DD
330
2DE
330
2DF
330
2E0
330
2E1
330
2E2
330
2E3
330
2E4
330
2E5
330
2E6
330
2E7
330
2E8
330
2E9
330
2EA
330
2EB
330
2EC
330
2ED
330
2EE
330
2EF
330
2F0
330
2F1
330
2F2
330
2F3
330
2F4
330
2F5
330
2F6
330
2F7
330
2F8
330
2F9
330
2FA
330
2FB
330
2FC
330
2FD
330
2FE
330
2FF
330
300
330
301
330
302
330
303
330
304
330
305
330
306
330
307
330
308
330
309
330
30A
330
30B
330
30C
330
30D
330
30E
330
30F
330
310
330
311
330
312
330
313
330
314
330
315
330
316
330
317
330
318
330
319
330
31A
330
31B
330
31C
330
31D
330
31E
330
31F
330
320
330
321
330
322
330
323
330
324
330
325
330
326
330
327
330
328
330
329
330
32A
330
32B
330
32C
330
32D
330
32E
330
32F
330
330
330
331
330
332
330
333
330
334
330
335
330
336
330
337
330
338
330
339
330
33A
330
33B
330
33C
330
33D
330
33E
330
33F
330
340
330
341
330
342
330
343
330
344
330
345
330
346
330
347
330
348
330
349
330
34A
330
34B
330
34C
330
34D
330
34E
330
34F
330
350
330
351
330
352
330
353
330
354
330
355
330
356
330
357
330
358
330
359
330
35A
330
35B
330
35C
330
35D
330
35E
330
35F
330
360
330
361
330
362
330
363
330
364
330
365
330
366
330
367
330
368
330
369
330
36A
330
36B
330
36C
330
36D
330
36E
330
36F
330
370
330
371
330
372
330
373
330
374
330
375
330
376
330
377
330
378
330
379
330
37A
330
37B
330
37C
330
37D
330
37E
330
37F
330
380
330
381
330
382
330
383
330
384
330
385
330
386
330
387
330
388
330
389
330
38A
330
38B
330
38C
330
38D
330
38E
330
38F
330
390
330
391
330
392
330
393
330
394
330
395
330
396
330
397
330
398
330
399
330
39A
330
39B
330
39C
330
39D
330
39E
330
39F
330
3A0
330
3A1
330
3A2
330
3A3
330
3A4
330
3A5
330
3A6
330
3A7
330
3A8
330
3A9
330
3AA
330
3AB
330
3AC
330
3AD
330
3AE
330
3AF
330
3B0
330
3B1
330
3B2
330
3B3
330
3B4
330
3B5
330
3B6
330
3B7
330
3B8
330
3B9
330
3BA
330
3BB
330
3BC
330
3BD
330
3BE
330
3BF
330
3C0
330
3C1
330
3C2
330
3C3
330
3C4
330
3C5
330
3C6
330
3C7
330
3C8
330
3C9
330
3CA
330
3CB
330
3CC
330
3CD
330
3CE
330
3CF
330
3D0
330
3D1
330
3D2
330
3D3
330
3D4
330
3D5
330
3D6
330
3D7
330
3D8
330
3D9
330
3DA
330
3DB
330
3DC
330
3DD
330
3DE
330
3DF
330
3E0
330
3E1
330
3E2
330
3E3
330
3E4
 92
1
 93
40
 72
2
 10
13.1673166046
 20
2.4937023128
 40
0.0024749995
 50
179.9999571957
 51
270.0000428042
 73
1
 72
1
 10
13.1648416051
 20
2.4937023146
 11
13.1648416051
 21
2.5135023256
 72
2
 10
13.1673166046
 20
2.5135023274
 40
0.0024749995
 50
89.9999571958
 51
180.0000428043
 73
1
 72
1
 10
13.1673166065
 20
2.515977327
 11
13.1912396197
 21
2.515977327
 72
2
 10
13.1912396216
 20
2.5184523265
 40
0.0024749995
 50
269.9999571956
 51
0.0000428042
 73
1
 72
1
 10
13.1937146211
 20
2.5184523283
 11
13.1937146211
 21
2.564807354
 72
2
 10
13.1912396216
 20
2.5648073559
 40
0.0024749995
 50
359.9999571957
 51
90.0000428043
 73
1
 72
1
 10
13.1912396197
 20
2.5672823554
 11
13.1673166065
 21
2.5672823554
 72
2
 10
13.1673166046
 20
2.5697573549
 40
0.0024749995
 50
179.9999571957
 51
270.0000428043
 73
1
 72
1
 10
13.1648416051
 20
2.5697573568
 11
13.1648416051
 21
2.5895573678
 72
2
 10
13.1673166046
 20
2.5895573696
 40
0.0024749995
 50
89.9999571958
 51
180.0000428043
 73
1
 72
1
 10
13.1673166065
 20
2.5920323691
 11
13.3691097184
 21
2.5920323691
 72
2
 10
13.3691097202
 20
2.5895573696
 40
0.0024749995
 50
359.9999571957
 51
90.0000428042
 73
1
 72
1
 10
13.3715847197
 20
2.5895573678
 11
13.3715847197
 21
2.5565573495
 72
2
 10
13.3691097202
 20
2.5565573476
 40
0.0024749995
 50
269.9999571956
 51
0.0000428042
 73
1
 72
1
 10
13.3691097184
 20
2.5540823481
 11
13.3272456952
 21
2.5540823481
 72
2
 10
13.3272456933
 20
2.5565573476
 40
0.0024749995
 50
179.9999571957
 51
270.0000428043
 73
1
 72
1
 10
13.3247706938
 20
2.5565573495
 11
13.3247706938
 21
2.564807354
 72
2
 10
13.3222956943
 20
2.5648073559
 40
0.0024749995
 50
359.9999571957
 51
90.0000428043
 73
1
 72
1
 10
13.3222956924
 20
2.5672823554
 11
13.2582556569
 21
2.5672823554
 72
2
 10
13.2582556551
 20
2.5648073559
 40
0.0024749995
 50
89.9999571957
 51
180.0000428043
 73
1
 72
1
 10
13.2557806555
 20
2.564807354
 11
13.2557806555
 21
2.5532573476
 72
2
 10
13.2582556551
 20
2.5532573458
 40
0.0024749995
 50
179.9999571957
 51
270.0000428042
 73
1
 72
1
 10
13.2582556569
 20
2.5507823463
 11
13.2934226764
 21
2.5507823463
 72
2
 10
13.2934226783
 20
2.5483073467
 40
0.0024749995
 50
359.9999571957
 51
90.0000428042
 73
1
 72
1
 10
13.2958976778
 20
2.5483073449
 11
13.2958976778
 21
2.5349523375
 72
2
 10
13.2934226783
 20
2.5349523356
 40
0.0024749995
 50
269.9999571956
 51
0.0000428042
 73
1
 72
1
 10
13.2934226764
 20
2.5324773361
 11
13.2582556569
 21
2.5324773361
 72
2
 10
13.2582556551
 20
2.5300023366
 40
0.0024749995
 50
89.9999571957
 51
180.0000428043
 73
1
 72
1
 10
13.2557806555
 20
2.5300023347
 11
13.2557806555
 21
2.5184523283
 72
2
 10
13.2582556551
 20
2.5184523265
 40
0.0024749995
 50
179.9999571957
 51
270.0000428043
 73
1
 72
1
 10
13.2582556569
 20
2.515977327
 11
13.3232596929
 21
2.515977327
 72
2
 10
13.3232596948
 20
2.5184523265
 40
0.0024749995
 50
269.9999571958
 51
0.0000428043
 73
1
 72
1
 10
13.3257346943
 20
2.5184523283
 11
13.3257346943
 21
2.5267023329
 72
2
 10
13.3282096938
 20
2.5267023348
 40
0.0024749995
 50
89.9999571957
 51
180.0000428043
 73
1
 72
1
 10
13.3282096957
 20
2.5291773343
 11
13.3705287192
 21
2.5291773343
 72
2
 10
13.370528721
 20
2.5267023348
 40
0.0024749995
 50
359.9999571957
 51
90.0000428043
 73
1
 72
1
 10
13.3730037205
 20
2.5267023329
 11
13.3730037205
 21
2.4937023146
 72
2
 10
13.370528721
 20
2.4937023128
 40
0.0024749995
 50
269.9999571957
 51
0.0000428043
 73
1
 72
1
 10
13.3705287192
 20
2.4912273132
 11
13.1673166065
 21
2.4912273132
 97
267
330
2DA
330
2DB
330
2DC
330
2DD
330
2DE
330
2DF
330
2E0
330
2E1
330
2E2
330
2E3
330
2E4
330
2E5
330
2E6
330
2E7
330
2E8
330
2E9
330
2EA
330
2EB
330
2EC
330
2ED
330
2EE
330
2EF
330
2F0
330
2F1
330
2F2
330
2F3
330
2F4
330
2F5
330
2F6
330
2F7
330
2F8
330
2F9
330
2FA
330
2FB
330
2FC
330
2FD
330
2FE
330
2FF
330
300
330
301
330
302
330
303
330
304
330
305
330
306
330
307
330
308
330
309
330
30A
330
30B
330
30C
330
30D
330
30E
330
30F
330
310
330
311
330
312
330
313
330
314
330
315
330
316
330
317
330
318
330
319
330
31A
330
31B
330
31C
330
31D
330
31E
330
31F
330
320
330
321
330
322
330
323
330
324
330
325
330
326
330
327
330
328
330
329
330
32A
330
32B
330
32C
330
32D
330
32E
330
32F
330
330
330
331
330
332
330
333
330
334
330
335
330
336
330
337
330
338
330
339
330
33A
330
33B
330
33C
330
33D
330
33E
330
33F
330
340
330
341
330
342
330
343
330
344
330
345
330
346
330
347
330
348
330
349
330
34A
330
34B
330
34C
330
34D
330
34E
330
34F
330
350
330
351
330
352
330
353
330
354
330
355
330
356
330
357
330
358
330
359
330
35A
330
35B
330
35C
330
35D
330
35E
330
35F
330
360
330
361
330
362
330
363
330
364
330
365
330
366
330
367
330
368
330
369
330
36A
330
36B
330
36C
330
36D
330
36E
330
36F
330
370
330
371
330
372
330
373
330
374
330
375
330
376
330
377
330
378
330
379
330
37A
330
37B
330
37C
330
37D
330
37E
330
37F
330
380
330
381
330
382
330
383
330
384
330
385
330
386
330
387
330
388
330
389
330
38A
330
38B
330
38C
330
38D
330
38E
330
38F
330
390
330
391
330
392
330
393
330
394
330
395
330
396
330
397
330
398
330
399
330
39A
330
39B
330
39C
330
39D
330
39E
330
39F
330
3A0
330
3A1
330
3A2
330
3A3
330
3A4
330
3A5
330
3A6
330
3A7
330
3A8
330
3A9
330
3AA
330
3AB
330
3AC
330
3AD
330
3AE
330
3AF
330
3B0
330
3B1
330
3B2
330
3B3
330
3B4
330
3B5
330
3B6
330
3B7
330
3B8
330
3B9
330
3BA
330
3BB
330
3BC
330
3BD
330
3BE
330
3BF
330
3C0
330
3C1
330
3C2
330
3C3
330
3C4
330
3C5
330
3C6
330
3C7
330
3C8
330
3C9
330
3CA
330
3CB
330
3CC
330
3CD
330
3CE
330
3CF
330
3D0
330
3D1
330
3D2
330
3D3
330
3D4
330
3D5
330
3D6
330
3D7
330
3D8
330
3D9
330
3DA
330
3DB
330
3DC
330
3DD
330
3DE
330
3DF
330
3E0
330
3E1
330
3E2
330
3E3
330
3E4
 92
1
 93
40
 72
2
 10
13.0426374026
 20
2.493701481
 40
0.0024741678
 50
226.3477981898
 51
270.0031206038
 73
1
 72
1
 10
13.0409295364
 20
2.4919113136
 11
12.9776495013
 21
2.5522893471
 72
2
 10
12.9759408003
 20
2.5504984093
 40
0.0024753014
 50
46.3461263059
 51
180.0014637321
 73
1
 72
1
 10
12.973465499
 20
2.5504983461
 11
12.973465499
 21
2.5184523283
 72
2
 10
12.9759404985
 20
2.5184523265
 40
0.0024749995
 50
179.9999571957
 51
270.0000428043
 73
1
 72
1
 10
12.9759405003
 20
2.515977327
 11
12.9962575116
 21
2.515977327
 72
2
 10
12.9962575135
 20
2.5135023274
 40
0.0024749995
 50
359.9999571957
 51
90.0000428043
 73
1
 72
1
 10
12.998732513
 20
2.5135023256
 11
12.998732513
 21
2.4937023146
 72
2
 10
12.9962575135
 20
2.4937023128
 40
0.0024749995
 50
269.9999571957
 51
0.0000428043
 73
1
 72
1
 10
12.9962575116
 20
2.4912273132
 11
12.9205934696
 21
2.4912273132
 72
2
 10
12.9205934678
 20
2.4937023128
 40
0.0024749995
 50
179.9999571957
 51
270.0000428043
 73
1
 72
1
 10
12.9181184683
 20
2.4937023146
 11
12.9181184683
 21
2.5135023256
 72
2
 10
12.9205934678
 20
2.5135023274
 40
0.0024749995
 50
89.9999571956
 51
180.0000428042
 73
1
 72
1
 10
12.9205934696
 20
2.515977327
 11
12.93923948
 21
2.515977327
 72
2
 10
12.9392394818
 20
2.5184523265
 40
0.0024749995
 50
269.9999571957
 51
0.0000428043
 73
1
 72
1
 10
12.9417144814
 20
2.5184523283
 11
12.9417144814
 21
2.564807354
 72
2
 10
12.9392394818
 20
2.5648073559
 40
0.0024749995
 50
359.9999571957
 51
90.0000428043
 73
1
 72
1
 10
12.93923948
 20
2.5672823554
 11
12.9205934696
 21
2.5672823554
 72
2
 10
12.9205934678
 20
2.5697573549
 40
0.0024749995
 50
179.9999571957
 51
270.0000428043
 73
1
 72
1
 10
12.9181184683
 20
2.5697573568
 11
12.9181184683
 21
2.5895573678
 72
2
 10
12.9205934678
 20
2.5895573696
 40
0.0024749995
 50
89.9999571956
 51
180.0000428042
 73
1
 72
1
 10
12.9205934696
 20
2.5920323691
 11
13.0210515254
 21
2.5920323691
 72
2
 10
13.0210516601
 20
2.5895582013
 40
0.0024741678
 50
46.3477981898
 51
90.0031206038
 73
1
 72
1
 10
13.0227595263
 20
2.5913483688
 11
13.0827925596
 21
2.534068337
 72
2
 10
13.0845012605
 20
2.5358592748
 40
0.0024753014
 50
226.3461263059
 51
0.0014637321
 73
1
 72
1
 10
13.0869765619
 20
2.535859338
 11
13.0869765619
 21
2.564807354
 72
2
 10
13.0845015624
 20
2.5648073559
 40
0.0024749995
 50
359.9999571957
 51
90.0000428043
 73
1
 72
1
 10
13.0845015605
 20
2.5672823554
 11
13.0657255501
 21
2.5672823554
 72
2
 10
13.0657255483
 20
2.5697573549
 40
0.0024749995
 50
179.9999571957
 51
270.0000428043
 73
1
 72
1
 10
13.0632505488
 20
2.5697573568
 11
13.0632505488
 21
2.5895573678
 72
2
 10
13.0657255483
 20
2.5895573696
 40
0.0024749995
 50
89.9999571957
 51
180.0000428043
 73
1
 72
1
 10
13.0657255501
 20
2.5920323691
 11
13.1397265912
 21
2.5920323691
 72
2
 10
13.139726593
 20
2.5895573696
 40
0.0024749995
 50
359.9999571957
 51
90.0000428043
 73
1
 72
1
 10
13.1422015925
 20
2.5895573678
 11
13.1422015925
 21
2.5697573568
 72
2
 10
13.139726593
 20
2.5697573549
 40
0.0024749995
 50
269.9999571956
 51
0.0000428042
 73
1
 72
1
 10
13.1397265912
 20
2.5672823554
 11
13.1217935812
 21
2.5672823554
 72
2
 10
13.1217935794
 20
2.5648073559
 40
0.0024749995
 50
89.9999571957
 51
180.0000428042
 73
1
 72
1
 10
13.1193185799
 20
2.564807354
 11
13.1193185799
 21
2.4937023146
 72
2
 10
13.1168435803
 20
2.4937023128
 40
0.0024749995
 50
269.9999571957
 51
0.0000428043
 73
1
 72
1
 10
13.1168435785
 20
2.4912273132
 11
13.0426375373
 21
2.4912273132
 97
267
330
2DA
330
2DB
330
2DC
330
2DD
330
2DE
330
2DF
330
2E0
330
2E1
330
2E2
330
2E3
330
2E4
330
2E5
330
2E6
330
2E7
330
2E8
330
2E9
330
2EA
330
2EB
330
2EC
330
2ED
330
2EE
330
2EF
330
2F0
330
2F1
330
2F2
330
2F3
330
2F4
330
2F5
330
2F6
330
2F7
330
2F8
330
2F9
330
2FA
330
2FB
330
2FC
330
2FD
330
2FE
330
2FF
330
300
330
301
330
302
330
303
330
304
330
305
330
306
330
307
330
308
330
309
330
30A
330
30B
330
30C
330
30D
330
30E
330
30F
330
310
330
311
330
312
330
313
330
314
330
315
330
316
330
317
330
318
330
319
330
31A
330
31B
330
31C
330
31D
330
31E
330
31F
330
320
330
321
330
322
330
323
330
324
330
325
330
326
330
327
330
328
330
329
330
32A
330
32B
330
32C
330
32D
330
32E
330
32F
330
330
330
331
330
332
330
333
330
334
330
335
330
336
330
337
330
338
330
339
330
33A
330
33B
330
33C
330
33D
330
33E
330
33F
330
340
330
341
330
342
330
343
330
344
330
345
330
346
330
347
330
348
330
349
330
34A
330
34B
330
34C
330
34D
330
34E
330
34F
330
350
330
351
330
352
330
353
330
354
330
355
330
356
330
357
330
358
330
359
330
35A
330
35B
330
35C
330
35D
330
35E
330
35F
330
360
330
361
330
362
330
363
330
364
330
365
330
366
330
367
330
368
330
369
330
36A
330
36B
330
36C
330
36D
330
36E
330
36F
330
370
330
371
330
372
330
373
330
374
330
375
330
376
330
377
330
378
330
379
330
37A
330
37B
330
37C
330
37D
330
37E
330
37F
330
380
330
381
330
382
330
383
330
384
330
385
330
386
330
387
330
388
330
389
330
38A
330
38B
330
38C
330
38D
330
38E
330
38F
330
390
330
391
330
392
330
393
330
394
330
395
330
396
330
397
330
398
330
399
330
39A
330
39B
330
39C
330
39D
330
39E
330
39F
330
3A0
330
3A1
330
3A2
330
3A3
330
3A4
330
3A5
330
3A6
330
3A7
330
3A8
330
3A9
330
3AA
330
3AB
330
3AC
330
3AD
330
3AE
330
3AF
330
3B0
330
3B1
330
3B2
330
3B3
330
3B4
330
3B5
330
3B6
330
3B7
330
3B8
330
3B9
330
3BA
330
3BB
330
3BC
330
3BD
330
3BE
330
3BF
330
3C0
330
3C1
330
3C2
330
3C3
330
3C4
330
3C5
330
3C6
330
3C7
330
3C8
330
3C9
330
3CA
330
3CB
330
3CC
330
3CD
330
3CE
330
3CF
330
3D0
330
3D1
330
3D2
330
3D3
330
3D4
330
3D5
330
3D6
330
3D7
330
3D8
330
3D9
330
3DA
330
3DB
330
3DC
330
3DD
330
3DE
330
3DF
330
3E0
330
3E1
330
3E2
330
3E3
330
3E4
 92
1
 93
40
 72
2
 10
12.7943847649
 20
2.4937027294
 40
0.0024754162
 50
226.3593695813
 51
270.0146919953
 73
1
 72
1
 10
12.7926763987
 20
2.4919113136
 11
12.7293963636
 21
2.5522893471
 72
2
 10
12.7276876627
 20
2.5504984093
 40
0.0024753014
 50
46.3461263059
 51
180.0014637321
 73
1
 72
1
 10
12.7252123613
 20
2.5504983461
 11
12.7252123613
 21
2.5184523283
 72
2
 10
12.7276873608
 20
2.5184523265
 40
0.0024749995
 50
179.9999571957
 51
270.0000428043
 73
1
 72
1
 10
12.7276873627
 20
2.515977327
 11
12.7480043739
 21
2.515977327
 72
2
 10
12.7480043758
 20
2.5135023274
 40
0.0024749995
 50
359.9999571957
 51
90.0000428043
 73
1
 72
1
 10
12.7504793753
 20
2.5135023256
 11
12.7504793753
 21
2.4937023146
 72
2
 10
12.7480043758
 20
2.4937023128
 40
0.0024749995
 50
269.9999571958
 51
0.0000428043
 73
1
 72
1
 10
12.7480043739
 20
2.4912273132
 11
12.672340332
 21
2.4912273132
 72
2
 10
12.6723403301
 20
2.4937023128
 40
0.0024749995
 50
179.9999571957
 51
270.0000428042
 73
1
 72
1
 10
12.6698653306
 20
2.4937023146
 11
12.6698653306
 21
2.5135023256
 72
2
 10
12.6723403301
 20
2.5135023274
 40
0.0024749995
 50
89.9999571957
 51
180.0000428043
 73
1
 72
1
 10
12.672340332
 20
2.515977327
 11
12.6909873423
 21
2.515977327
 72
2
 10
12.6909873442
 20
2.5184523265
 40
0.0024749995
 50
269.9999571957
 51
0.0000428043
 73
1
 72
1
 10
12.6934623437
 20
2.5184523283
 11
12.6934623437
 21
2.564807354
 72
2
 10
12.6909873442
 20
2.5648073559
 40
0.0024749995
 50
359.9999571957
 51
90.0000428043
 73
1
 72
1
 10
12.6909873423
 20
2.5672823554
 11
12.672340332
 21
2.5672823554
 72
2
 10
12.6723403301
 20
2.5697573549
 40
0.0024749995
 50
179.9999571957
 51
270.0000428043
 73
1
 72
1
 10
12.6698653306
 20
2.5697573568
 11
12.6698653306
 21
2.5895573678
 72
2
 10
12.6723403301
 20
2.5895573696
 40
0.0024749995
 50
89.9999571957
 51
180.0000428043
 73
1
 72
1
 10
12.672340332
 20
2.5920323691
 11
12.7727983877
 21
2.5920323691
 72
2
 10
12.7727985224
 20
2.5895582013
 40
0.0024741678
 50
46.3477981899
 51
90.0031206038
 73
1
 72
1
 10
12.7745063886
 20
2.5913483688
 11
12.8345394219
 21
2.534068337
 72
2
 10
12.8362481229
 20
2.5358592748
 40
0.0024753014
 50
226.3461263059
 51
0.0014637321
 73
1
 72
1
 10
12.8387234242
 20
2.535859338
 11
12.8387234242
 21
2.564807354
 72
2
 10
12.8362484247
 20
2.5648073559
 40
0.0024749995
 50
359.9999571957
 51
90.0000428043
 73
1
 72
1
 10
12.8362484229
 20
2.5672823554
 11
12.8174724125
 21
2.5672823554
 72
2
 10
12.8174724106
 20
2.5697573549
 40
0.0024749995
 50
179.9999571957
 51
270.0000428043
 73
1
 72
1
 10
12.8149974111
 20
2.5697573568
 11
12.8149974111
 21
2.5895573678
 72
2
 10
12.8174724106
 20
2.5895573696
 40
0.0024749995
 50
89.9999571958
 51
180.0000428043
 73
1
 72
1
 10
12.8174724125
 20
2.5920323691
 11
12.8914734535
 21
2.5920323691
 72
2
 10
12.8914734553
 20
2.5895573696
 40
0.0024749995
 50
359.9999571957
 51
90.0000428042
 73
1
 72
1
 10
12.8939484549
 20
2.5895573678
 11
12.8939484549
 21
2.5697573568
 72
2
 10
12.8914734553
 20
2.5697573549
 40
0.0024749995
 50
269.9999571958
 51
0.0000428043
 73
1
 72
1
 10
12.8914734535
 20
2.5672823554
 11
12.8735404436
 21
2.5672823554
 72
2
 10
12.8735404417
 20
2.5648073559
 40
0.0024749995
 50
89.9999571957
 51
180.0000428043
 73
1
 72
1
 10
12.8710654422
 20
2.564807354
 11
12.8710654422
 21
2.4937023146
 72
2
 10
12.8685904427
 20
2.4937023128
 40
0.0024749995
 50
269.9999571957
 51
0.0000428043
 73
1
 72
1
 10
12.8685904408
 20
2.4912273132
 11
12.7943853997
 21
2.4912273132
 97
267
330
2DA
330
2DB
330
2DC
330
2DD
330
2DE
330
2DF
330
2E0
330
2E1
330
2E2
330
2E3
330
2E4
330
2E5
330
2E6
330
2E7
330
2E8
330
2E9
330
2EA
330
2EB
330
2EC
330
2ED
330
2EE
330
2EF
330
2F0
330
2F1
330
2F2
330
2F3
330
2F4
330
2F5
330
2F6
330
2F7
330
2F8
330
2F9
330
2FA
330
2FB
330
2FC
330
2FD
330
2FE
330
2FF
330
300
330
301
330
302
330
303
330
304
330
305
330
306
330
307
330
308
330
309
330
30A
330
30B
330
30C
330
30D
330
30E
330
30F
330
310
330
311
330
312
330
313
330
314
330
315
330
316
330
317
330
318
330
319
330
31A
330
31B
330
31C
330
31D
330
31E
330
31F
330
320
330
321
330
322
330
323
330
324
330
325
330
326
330
327
330
328
330
329
330
32A
330
32B
330
32C
330
32D
330
32E
330
32F
330
330
330
331
330
332
330
333
330
334
330
335
330
336
330
337
330
338
330
339
330
33A
330
33B
330
33C
330
33D
330
33E
330
33F
330
340
330
341
330
342
330
343
330
344
330
345
330
346
330
347
330
348
330
349
330
34A
330
34B
330
34C
330
34D
330
34E
330
34F
330
350
330
351
330
352
330
353
330
354
330
355
330
356
330
357
330
358
330
359
330
35A
330
35B
330
35C
330
35D
330
35E
330
35F
330
360
330
361
330
362
330
363
330
364
330
365
330
366
330
367
330
368
330
369
330
36A
330
36B
330
36C
330
36D
330
36E
330
36F
330
370
330
371
330
372
330
373
330
374
330
375
330
376
330
377
330
378
330
379
330
37A
330
37B
330
37C
330
37D
330
37E
330
37F
330
380
330
381
330
382
330
383
330
384
330
385
330
386
330
387
330
388
330
389
330
38A
330
38B
330
38C
330
38D
330
38E
330
38F
330
390
330
391
330
392
330
393
330
394
330
395
330
396
330
397
330
398
330
399
330
39A
330
39B
330
39C
330
39D
330
39E
330
39F
330
3A0
330
3A1
330
3A2
330
3A3
330
3A4
330
3A5
330
3A6
330
3A7
330
3A8
330
3A9
330
3AA
330
3AB
330
3AC
330
3AD
330
3AE
330
3AF
330
3B0
330
3B1
330
3B2
330
3B3
330
3B4
330
3B5
330
3B6
330
3B7
330
3B8
330
3B9
330
3BA
330
3BB
330
3BC
330
3BD
330
3BE
330
3BF
330
3C0
330
3C1
330
3C2
330
3C3
330
3C4
330
3C5
330
3C6
330
3C7
330
3C8
330
3C9
330
3CA
330
3CB
330
3CC
330
3CD
330
3CE
330
3CF
330
3D0
330
3D1
330
3D2
330
3D3
330
3D4
330
3D5
330
3D6
330
3D7
330
3D8
330
3D9
330
3DA
330
3DB
330
3DC
330
3DD
330
3DE
330
3DF
330
3E0
330
3E1
330
3E2
330
3E3
330
3E4
 92
1
 93
23
 72
2
 10
12.3792298263
 20
2.539634765
 40
0.048483885
 50
273.21763719
 51
303.0749121182
 73
1
 72
2
 10
12.3940692204
 20
2.5168671561
 40
0.0213072145
 50
303.0488228549
 51
355.7263138674
 73
1
 72
2
 10
12.400005721
 20
2.5168763464
 40
0.0153945295
 50
354.0454548824
 51
5.1878013979
 73
1
 72
2
 10
12.3931760319
 20
2.5166878286
 40
0.0222174455
 50
4.0793399388
 51
69.834329283
 73
1
 72
1
 10
12.4008351814
 20
2.5375433389
 11
12.3907841758
 21
2.5410923409
 72
1
 10
12.3907841758
 20
2.5410923409
 11
12.3990241804
 21
2.5458683435
 72
2
 10
12.3771587979
 20
2.5826952352
 40
0.0428289026
 50
300.6990502959
 51
319.0591802498
 73
1
 72
2
 10
12.3971873948
 20
2.5665668817
 40
0.0171568255
 50
315.9145124245
 51
16.0049121282
 73
1
 72
2
 10
12.3922357827
 20
2.5632132173
 40
0.0229166529
 50
20.6563876465
 51
62.3316896973
 73
1
 72
2
 10
12.371573659
 20
2.5302846524
 40
0.061747717
 50
59.5385584989
 51
90.0050977555
 73
1
 72
1
 10
12.3715681652
 20
2.5920323691
 11
12.2055050731
 21
2.5920323691
 72
2
 10
12.2055050712
 20
2.5895573696
 40
0.0024749995
 50
89.9999571957
 51
180.0000428043
 73
1
 72
1
 10
12.2030300717
 20
2.5895573678
 11
12.2030300717
 21
2.5697573568
 72
2
 10
12.2055050712
 20
2.5697573549
 40
0.0024749995
 50
179.9999571957
 51
270.0000428043
 73
1
 72
1
 10
12.2055050731
 20
2.5672823554
 11
12.2294470864
 21
2.5672823554
 72
2
 10
12.2294470882
 20
2.5648073559
 40
0.0024749995
 50
359.9999571957
 51
90.0000428043
 73
1
 72
1
 10
12.2319220877
 20
2.564807354
 11
12.2319220877
 21
2.5184523283
 72
2
 10
12.2294470882
 20
2.5184523265
 40
0.0024749995
 50
269.9999571957
 51
0.0000428043
 73
1
 72
1
 10
12.2294470864
 20
2.515977327
 11
12.2055050731
 21
2.515977327
 72
2
 10
12.2055050712
 20
2.5135023274
 40
0.0024749995
 50
89.9999571957
 51
180.0000428043
 73
1
 72
1
 10
12.2030300717
 20
2.5135023256
 11
12.2030300717
 21
2.4937023146
 72
2
 10
12.2055050712
 20
2.4937023128
 40
0.0024749995
 50
179.9999571957
 51
270.0000428043
 73
1
 72
1
 10
12.2055050731
 20
2.4912273132
 11
12.3819511709
 21
2.4912273132
 97
267
330
2DA
330
2DB
330
2DC
330
2DD
330
2DE
330
2DF
330
2E0
330
2E1
330
2E2
330
2E3
330
2E4
330
2E5
330
2E6
330
2E7
330
2E8
330
2E9
330
2EA
330
2EB
330
2EC
330
2ED
330
2EE
330
2EF
330
2F0
330
2F1
330
2F2
330
2F3
330
2F4
330
2F5
330
2F6
330
2F7
330
2F8
330
2F9
330
2FA
330
2FB
330
2FC
330
2FD
330
2FE
330
2FF
330
300
330
301
330
302
330
303
330
304
330
305
330
306
330
307
330
308
330
309
330
30A
330
30B
330
30C
330
30D
330
30E
330
30F
330
310
330
311
330
312
330
313
330
314
330
315
330
316
330
317
330
318
330
319
330
31A
330
31B
330
31C
330
31D
330
31E
330
31F
330
320
330
321
330
322
330
323
330
324
330
325
330
326
330
327
330
328
330
329
330
32A
330
32B
330
32C
330
32D
330
32E
330
32F
330
330
330
331
330
332
330
333
330
334
330
335
330
336
330
337
330
338
330
339
330
33A
330
33B
330
33C
330
33D
330
33E
330
33F
330
340
330
341
330
342
330
343
330
344
330
345
330
346
330
347
330
348
330
349
330
34A
330
34B
330
34C
330
34D
330
34E
330
34F
330
350
330
351
330
352
330
353
330
354
330
355
330
356
330
357
330
358
330
359
330
35A
330
35B
330
35C
330
35D
330
35E
330
35F
330
360
330
361
330
362
330
363
330
364
330
365
330
366
330
367
330
368
330
369
330
36A
330
36B
330
36C
330
36D
330
36E
330
36F
330
370
330
371
330
372
330
373
330
374
330
375
330
376
330
377
330
378
330
379
330
37A
330
37B
330
37C
330
37D
330
37E
330
37F
330
380
330
381
330
382
330
383
330
384
330
385
330
386
330
387
330
388
330
389
330
38A
330
38B
330
38C
330
38D
330
38E
330
38F
330
390
330
391
330
392
330
393
330
394
330
395
330
396
330
397
330
398
330
399
330
39A
330
39B
330
39C
330
39D
330
39E
330
39F
330
3A0
330
3A1
330
3A2
330
3A3
330
3A4
330
3A5
330
3A6
330
3A7
330
3A8
330
3A9
330
3AA
330
3AB
330
3AC
330
3AD
330
3AE
330
3AF
330
3B0
330
3B1
330
3B2
330
3B3
330
3B4
330
3B5
330
3B6
330
3B7
330
3B8
330
3B9
330
3BA
330
3BB
330
3BC
330
3BD
330
3BE
330
3BF
330
3C0
330
3C1
330
3C2
330
3C3
330
3C4
330
3C5
330
3C6
330
3C7
330
3C8
330
3C9
330
3CA
330
3CB
330
3CC
330
3CD
330
3CE
330
3CF
330
3D0
330
3D1
330
3D2
330
3D3
330
3D4
330
3D5
330
3D6
330
3D7
330
3D8
330
3D9
330
3DA
330
3DB
330
3DC
330
3DD
330
3DE
330
3DF
330
3E0
330
3E1
330
3E2
330
3E3
330
3E4
 92
1
 93
32
 72
2
 10
12.5168642476
 20
2.4937023128
 40
0.0024749995
 50
269.9999571957
 51
0.0000428043
 73
1
 72
1
 10
12.5193392471
 20
2.4937023146
 11
12.5193392471
 21
2.5135023256
 72
2
 10
12.5168642476
 20
2.5135023274
 40
0.0024749995
 50
359.9999571957
 51
90.0000428043
 73
1
 72
1
 10
12.5168642458
 20
2.515977327
 11
12.5055812395
 21
2.515977327
 72
2
 10
12.5055811302
 20
2.518452367
 40
0.0024750401
 50
147.6063258011
 51
270.0025305754
 73
1
 72
1
 10
12.5034912383
 20
2.5197783291
 11
12.5090072414
 21
2.5284723339
 72
2
 10
12.5110971723
 20
2.5271461342
 40
0.0024752003
 50
89.998372645
 51
147.602165307
 73
1
 72
1
 10
12.5110972426
 20
2.5296213345
 11
12.5459752619
 21
2.5296213345
 72
2
 10
12.5459747223
 20
2.5271458744
 40
0.0024754602
 50
32.8959418573
 51
89.9875097202
 73
1
 72
1
 10
12.548053263
 20
2.5284903339
 11
12.5536792662
 21
2.5197973291
 72
2
 10
12.5516012439
 20
2.5184525341
 40
0.0024752071
 50
270.0004896794
 51
32.9089806818
 73
1
 72
1
 10
12.551601265
 20
2.515977327
 11
12.537150257
 21
2.515977327
 72
2
 10
12.5371502552
 20
2.5135023274
 40
0.0024749995
 50
89.9999571958
 51
180.0000428043
 73
1
 72
1
 10
12.5346752556
 20
2.5135023256
 11
12.5346752556
 21
2.4937023146
 72
2
 10
12.5371502552
 20
2.4937023128
 40
0.0024749995
 50
179.9999571957
 51
270.0000428042
 73
1
 72
1
 10
12.537150257
 20
2.4912273132
 11
12.6424313154
 21
2.4912273132
 72
2
 10
12.6424313172
 20
2.4937023128
 40
0.0024749995
 50
269.9999571957
 51
0.0000428043
 73
1
 72
1
 10
12.6449063168
 20
2.4937023146
 11
12.6449063168
 21
2.5135023256
 72
2
 10
12.6424313172
 20
2.5135023274
 40
0.0024749995
 50
359.9999571957
 51
90.0000428043
 73
1
 72
1
 10
12.6424313154
 20
2.515977327
 11
12.6224153043
 21
2.515977327
 72
2
 10
12.6224154248
 20
2.518451368
 40
0.002474041
 50
212.9056413127
 51
269.9972091756
 73
1
 72
1
 10
12.6203383031
 20
2.5171073276
 11
12.5725822767
 21
2.5909023685
 72
2
 10
12.570504655
 20
2.589557409
 40
0.0024749602
 50
32.9172174468
 51
90.0087853097
 73
1
 72
1
 10
12.5705042755
 20
2.5920323691
 11
12.5133292438
 21
2.5920323691
 72
2
 10
12.5133291735
 20
2.5895571688
 40
0.0024752003
 50
89.9983726451
 51
147.602165307
 73
1
 72
1
 10
12.5112392426
 20
2.5908833685
 11
12.4644392167
 21
2.5171263276
 72
2
 10
12.4623492858
 20
2.5184525273
 40
0.0024752003
 50
269.9983726451
 51
327.602165307
 73
1
 72
1
 10
12.4623492155
 20
2.515977327
 11
12.4394882028
 21
2.515977327
 72
2
 10
12.439488201
 20
2.5135023274
 40
0.0024749995
 50
89.9999571958
 51
180.0000428043
 73
1
 72
1
 10
12.4370132015
 20
2.5135023256
 11
12.4370132015
 21
2.4937023146
 72
2
 10
12.439488201
 20
2.4937023128
 40
0.0024749995
 50
179.9999571957
 51
270.0000428042
 73
1
 72
1
 10
12.4394882028
 20
2.4912273132
 11
12.5168642458
 21
2.4912273132
 97
267
330
2DA
330
2DB
330
2DC
330
2DD
330
2DE
330
2DF
330
2E0
330
2E1
330
2E2
330
2E3
330
2E4
330
2E5
330
2E6
330
2E7
330
2E8
330
2E9
330
2EA
330
2EB
330
2EC
330
2ED
330
2EE
330
2EF
330
2F0
330
2F1
330
2F2
330
2F3
330
2F4
330
2F5
330
2F6
330
2F7
330
2F8
330
2F9
330
2FA
330
2FB
330
2FC
330
2FD
330
2FE
330
2FF
330
300
330
301
330
302
330
303
330
304
330
305
330
306
330
307
330
308
330
309
330
30A
330
30B
330
30C
330
30D
330
30E
330
30F
330
310
330
311
330
312
330
313
330
314
330
315
330
316
330
317
330
318
330
319
330
31A
330
31B
330
31C
330
31D
330
31E
330
31F
330
320
330
321
330
322
330
323
330
324
330
325
330
326
330
327
330
328
330
329
330
32A
330
32B
330
32C
330
32D
330
32E
330
32F
330
330
330
331
330
332
330
333
330
334
330
335
330
336
330
337
330
338
330
339
330
33A
330
33B
330
33C
330
33D
330
33E
330
33F
330
340
330
341
330
342
330
343
330
344
330
345
330
346
330
347
330
348
330
349
330
34A
330
34B
330
34C
330
34D
330
34E
330
34F
330
350
330
351
330
352
330
353
330
354
330
355
330
356
330
357
330
358
330
359
330
35A
330
35B
330
35C
330
35D
330
35E
330
35F
330
360
330
361
330
362
330
363
330
364
330
365
330
366
330
367
330
368
330
369
330
36A
330
36B
330
36C
330
36D
330
36E
330
36F
330
370
330
371
330
372
330
373
330
374
330
375
330
376
330
377
330
378
330
379
330
37A
330
37B
330
37C
330
37D
330
37E
330
37F
330
380
330
381
330
382
330
383
330
384
330
385
330
386
330
387
330
388
330
389
330
38A
330
38B
330
38C
330
38D
330
38E
330
38F
330
390
330
391
330
392
330
393
330
394
330
395
330
396
330
397
330
398
330
399
330
39A
330
39B
330
39C
330
39D
330
39E
330
39F
330
3A0
330
3A1
330
3A2
330
3A3
330
3A4
330
3A5
330
3A6
330
3A7
330
3A8
330
3A9
330
3AA
330
3AB
330
3AC
330
3AD
330
3AE
330
3AF
330
3B0
330
3B1
330
3B2
330
3B3
330
3B4
330
3B5
330
3B6
330
3B7
330
3B8
330
3B9
330
3BA
330
3BB
330
3BC
330
3BD
330
3BE
330
3BF
330
3C0
330
3C1
330
3C2
330
3C3
330
3C4
330
3C5
330
3C6
330
3C7
330
3C8
330
3C9
330
3CA
330
3CB
330
3CC
330
3CD
330
3CE
330
3CF
330
3D0
330
3D1
330
3D2
330
3D3
330
3D4
330
3D5
330
3D6
330
3D7
330
3D8
330
3D9
330
3DA
330
3DB
330
3DC
330
3DD
330
3DE
330
3DF
330
3E0
330
3E1
330
3E2
330
3E3
330
3E4
 92
1
 93
6
 72
2
 10
12.2949101208
 20
2.5184523265
 40
0.0024749995
 50
179.9999571957
 51
270.0000428043
 73
1
 72
1
 10
12.2924351213
 20
2.5184523283
 11
12.2924351213
 21
2.5308273352
 72
2
 10
12.2949101208
 20
2.530827337
 40
0.0024749995
 50
89.9999571957
 51
180.0000428043
 73
1
 72
1
 10
12.2949101227
 20
2.5333023366
 11
12.3362731456
 21
2.5333023366
 72
2
 10
12.3362731456
 20
2.5246398318
 40
0.0086625048
 50
270.0
 51
90.0
 73
1
 72
1
 10
12.3362731456
 20
2.515977327
 11
12.2949101227
 21
2.515977327
 97
267
330
2DA
330
2DB
330
2DC
330
2DD
330
2DE
330
2DF
330
2E0
330
2E1
330
2E2
330
2E3
330
2E4
330
2E5
330
2E6
330
2E7
330
2E8
330
2E9
330
2EA
330
2EB
330
2EC
330
2ED
330
2EE
330
2EF
330
2F0
330
2F1
330
2F2
330
2F3
330
2F4
330
2F5
330
2F6
330
2F7
330
2F8
330
2F9
330
2FA
330
2FB
330
2FC
330
2FD
330
2FE
330
2FF
330
300
330
301
330
302
330
303
330
304
330
305
330
306
330
307
330
308
330
309
330
30A
330
30B
330
30C
330
30D
330
30E
330
30F
330
310
330
311
330
312
330
313
330
314
330
315
330
316
330
317
330
318
330
319
330
31A
330
31B
330
31C
330
31D
330
31E
330
31F
330
320
330
321
330
322
330
323
330
324
330
325
330
326
330
327
330
328
330
329
330
32A
330
32B
330
32C
330
32D
330
32E
330
32F
330
330
330
331
330
332
330
333
330
334
330
335
330
336
330
337
330
338
330
339
330
33A
330
33B
330
33C
330
33D
330
33E
330
33F
330
340
330
341
330
342
330
343
330
344
330
345
330
346
330
347
330
348
330
349
330
34A
330
34B
330
34C
330
34D
330
34E
330
34F
330
350
330
351
330
352
330
353
330
354
330
355
330
356
330
357
330
358
330
359
330
35A
330
35B
330
35C
330
35D
330
35E
330
35F
330
360
330
361
330
362
330
363
330
364
330
365
330
366
330
367
330
368
330
369
330
36A
330
36B
330
36C
330
36D
330
36E
330
36F
330
370
330
371
330
372
330
373
330
374
330
375
330
376
330
377
330
378
330
379
330
37A
330
37B
330
37C
330
37D
330
37E
330
37F
330
380
330
381
330
382
330
383
330
384
330
385
330
386
330
387
330
388
330
389
330
38A
330
38B
330
38C
330
38D
330
38E
330
38F
330
390
330
391
330
392
330
393
330
394
330
395
330
396
330
397
330
398
330
399
330
39A
330
39B
330
39C
330
39D
330
39E
330
39F
330
3A0
330
3A1
330
3A2
330
3A3
330
3A4
330
3A5
330
3A6
330
3A7
330
3A8
330
3A9
330
3AA
330
3AB
330
3AC
330
3AD
330
3AE
330
3AF
330
3B0
330
3B1
330
3B2
330
3B3
330
3B4
330
3B5
330
3B6
330
3B7
330
3B8
330
3B9
330
3BA
330
3BB
330
3BC
330
3BD
330
3BE
330
3BF
330
3C0
330
3C1
330
3C2
330
3C3
330
3C4
330
3C5
330
3C6
330
3C7
330
3C8
330
3C9
330
3CA
330
3CB
330
3CC
330
3CD
330
3CE
330
3CF
330
3D0
330
3D1
330
3D2
330
3D3
330
3D4
330
3D5
330
3D6
330
3D7
330
3D8
330
3D9
330
3DA
330
3DB
330
3DC
330
3DD
330
3DE
330
3DF
330
3E0
330
3E1
330
3E2
330
3E3
330
3E4
 92
1
 93
13
 72
2
 10
13.4883447827
 20
2.5520823451
 40
0.0024749995
 50
179.9999571957
 51
270.0000428042
 73
1
 72
1
 10
13.4858697831
 20
2.552082347
 11
13.4858697831
 21
2.564807354
 72
2
 10
13.4883447827
 20
2.5648073559
 40
0.0024749995
 50
89.9999571958
 51
180.0000428043
 73
1
 72
1
 10
13.4883447845
 20
2.5672823554
 11
13.5251458049
 21
2.5672823554
 72
2
 10
13.5236009174
 20
2.5388278764
 40
0.0284963867
 50
70.3834917948
 51
86.8922743861
 73
1
 72
2
 10
13.5284605274
 20
2.5518696094
 40
0.0145814632
 50
54.6746025112
 51
71.1660573124
 73
1
 72
2
 10
13.5335900184
 20
2.5587235346
 40
0.0060275915
 50
20.9055592135
 51
56.7851676243
 73
1
 72
2
 10
13.5348905773
 20
2.5593838168
 40
0.0045795888
 50
355.6235353944
 51
18.9942678268
 73
1
 72
2
 10
13.533683767
 20
2.559677593
 40
0.0058087709
 50
318.8515287446
 51
353.6422345323
 73
1
 72
2
 10
13.5295131508
 20
2.5629115009
 40
0.0110815393
 50
306.758405961
 51
320.4502234234
 73
1
 72
2
 10
13.5238839599
 20
2.5706523294
 40
0.0206523367
 50
289.6883413472
 51
306.4184925496
 73
1
 72
2
 10
13.5219564542
 20
2.5750459767
 40
0.0254407115
 50
270.7327484175
 51
290.441894219
 73
1
 72
1
 10
13.5222818033
 20
2.5496073456
 11
13.4883447845
 21
2.5496073456
 97
267
330
2DA
330
2DB
330
2DC
330
2DD
330
2DE
330
2DF
330
2E0
330
2E1
330
2E2
330
2E3
330
2E4
330
2E5
330
2E6
330
2E7
330
2E8
330
2E9
330
2EA
330
2EB
330
2EC
330
2ED
330
2EE
330
2EF
330
2F0
330
2F1
330
2F2
330
2F3
330
2F4
330
2F5
330
2F6
330
2F7
330
2F8
330
2F9
330
2FA
330
2FB
330
2FC
330
2FD
330
2FE
330
2FF
330
300
330
301
330
302
330
303
330
304
330
305
330
306
330
307
330
308
330
309
330
30A
330
30B
330
30C
330
30D
330
30E
330
30F
330
310
330
311
330
312
330
313
330
314
330
315
330
316
330
317
330
318
330
319
330
31A
330
31B
330
31C
330
31D
330
31E
330
31F
330
320
330
321
330
322
330
323
330
324
330
325
330
326
330
327
330
328
330
329
330
32A
330
32B
330
32C
330
32D
330
32E
330
32F
330
330
330
331
330
332
330
333
330
334
330
335
330
336
330
337
330
338
330
339
330
33A
330
33B
330
33C
330
33D
330
33E
330
33F
330
340
330
341
330
342
330
343
330
344
330
345
330
346
330
347
330
348
330
349
330
34A
330
34B
330
34C
330
34D
330
34E
330
34F
330
350
330
351
330
352
330
353
330
354
330
355
330
356
330
357
330
358
330
359
330
35A
330
35B
330
35C
330
35D
330
35E
330
35F
330
360
330
361
330
362
330
363
330
364
330
365
330
366
330
367
330
368
330
369
330
36A
330
36B
330
36C
330
36D
330
36E
330
36F
330
370
330
371
330
372
330
373
330
374
330
375
330
376
330
377
330
378
330
379
330
37A
330
37B
330
37C
330
37D
330
37E
330
37F
330
380
330
381
330
382
330
383
330
384
330
385
330
386
330
387
330
388
330
389
330
38A
330
38B
330
38C
330
38D
330
38E
330
38F
330
390
330
391
330
392
330
393
330
394
330
395
330
396
330
397
330
398
330
399
330
39A
330
39B
330
39C
330
39D
330
39E
330
39F
330
3A0
330
3A1
330
3A2
330
3A3
330
3A4
330
3A5
330
3A6
330
3A7
330
3A8
330
3A9
330
3AA
330
3AB
330
3AC
330
3AD
330
3AE
330
3AF
330
3B0
330
3B1
330
3B2
330
3B3
330
3B4
330
3B5
330
3B6
330
3B7
330
3B8
330
3B9
330
3BA
330
3BB
330
3BC
330
3BD
330
3BE
330
3BF
330
3C0
330
3C1
330
3C2
330
3C3
330
3C4
330
3C5
330
3C6
330
3C7
330
3C8
330
3C9
330
3CA
330
3CB
330
3CC
330
3CD
330
3CE
330
3CF
330
3D0
330
3D1
330
3D2
330
3D3
330
3D4
330
3D5
330
3D6
330
3D7
330
3D8
330
3D9
330
3DA
330
3DB
330
3DC
330
3DD
330
3DE
330
3DF
330
3E0
330
3E1
330
3E2
330
3E3
330
3E4
 92
1
 93
6
 72
2
 10
12.3362731456
 20
2.5586198506
 40
0.0086625048
 50
270.0
 51
90.0
 73
1
 72
1
 10
12.3362731456
 20
2.5672823554
 11
12.2949101227
 21
2.5672823554
 72
2
 10
12.2949101208
 20
2.5648073559
 40
0.0024749995
 50
89.9999571957
 51
180.0000428043
 73
1
 72
1
 10
12.2924351213
 20
2.564807354
 11
12.2924351213
 21
2.5524323472
 72
2
 10
12.2949101208
 20
2.5524323453
 40
0.0024749995
 50
179.9999571957
 51
270.0000428043
 73
1
 72
1
 10
12.2949101227
 20
2.5499573458
 11
12.3362731456
 21
2.5499573458
 97
267
330
2DA
330
2DB
330
2DC
330
2DD
330
2DE
330
2DF
330
2E0
330
2E1
330
2E2
330
2E3
330
2E4
330
2E5
330
2E6
330
2E7
330
2E8
330
2E9
330
2EA
330
2EB
330
2EC
330
2ED
330
2EE
330
2EF
330
2F0
330
2F1
330
2F2
330
2F3
330
2F4
330
2F5
330
2F6
330
2F7
330
2F8
330
2F9
330
2FA
330
2FB
330
2FC
330
2FD
330
2FE
330
2FF
330
300
330
301
330
302
330
303
330
304
330
305
330
306
330
307
330
308
330
309
330
30A
330
30B
330
30C
330
30D
330
30E
330
30F
330
310
330
311
330
312
330
313
330
314
330
315
330
316
330
317
330
318
330
319
330
31A
330
31B
330
31C
330
31D
330
31E
330
31F
330
320
330
321
330
322
330
323
330
324
330
325
330
326
330
327
330
328
330
329
330
32A
330
32B
330
32C
330
32D
330
32E
330
32F
330
330
330
331
330
332
330
333
330
334
330
335
330
336
330
337
330
338
330
339
330
33A
330
33B
330
33C
330
33D
330
33E
330
33F
330
340
330
341
330
342
330
343
330
344
330
345
330
346
330
347
330
348
330
349
330
34A
330
34B
330
34C
330
34D
330
34E
330
34F
330
350
330
351
330
352
330
353
330
354
330
355
330
356
330
357
330
358
330
359
330
35A
330
35B
330
35C
330
35D
330
35E
330
35F
330
360
330
361
330
362
330
363
330
364
330
365
330
366
330
367
330
368
330
369
330
36A
330
36B
330
36C
330
36D
330
36E
330
36F
330
370
330
371
330
372
330
373
330
374
330
375
330
376
330
377
330
378
330
379
330
37A
330
37B
330
37C
330
37D
330
37E
330
37F
330
380
330
381
330
382
330
383
330
384
330
385
330
386
330
387
330
388
330
389
330
38A
330
38B
330
38C
330
38D
330
38E
330
38F
330
390
330
391
330
392
330
393
330
394
330
395
330
396
330
397
330
398
330
399
330
39A
330
39B
330
39C
330
39D
330
39E
330
39F
330
3A0
330
3A1
330
3A2
330
3A3
330
3A4
330
3A5
330
3A6
330
3A7
330
3A8
330
3A9
330
3AA
330
3AB
330
3AC
330
3AD
330
3AE
330
3AF
330
3B0
330
3B1
330
3B2
330
3B3
330
3B4
330
3B5
330
3B6
330
3B7
330
3B8
330
3B9
330
3BA
330
3BB
330
3BC
330
3BD
330
3BE
330
3BF
330
3C0
330
3C1
330
3C2
330
3C3
330
3C4
330
3C5
330
3C6
330
3C7
330
3C8
330
3C9
330
3CA
330
3CB
330
3CC
330
3CD
330
3CE
330
3CF
330
3D0
330
3D1
330
3D2
330
3D3
330
3D4
330
3D5
330
3D6
330
3D7
330
3D8
330
3D9
330
3DA
330
3DB
330
3DC
330
3DD
330
3DE
330
3DF
330
3E0
330
3E1
330
3E2
330
3E3
330
3E4
 92
1
 93
8
 72
2
 10
12.5401702375
 20
2.5530465533
 40
0.0024752071
 50
270.0004896793
 51
32.9089806818
 73
1
 72
1
 10
12.5422482598
 20
2.5543913483
 11
12.5349892558
 21
2.5656073545
 72
2
 10
12.532910715
 20
2.564262895
 40
0.0024754602
 50
32.8959418573
 51
89.9875097202
 73
1
 72
1
 10
12.5329112547
 20
2.5667383551
 11
12.5267302512
 21
2.5667383551
 72
2
 10
12.5267301809
 20
2.5642631548
 40
0.0024752003
 50
89.998372645
 51
147.602165307
 73
1
 72
1
 10
12.5246402501
 20
2.5655893545
 11
12.5175232461
 21
2.5543723483
 72
2
 10
12.519613138
 20
2.5530463862
 40
0.0024750401
 50
147.6063258012
 51
270.0025305754
 73
1
 72
1
 10
12.5196132473
 20
2.5505713461
 11
12.5401702587
 21
2.5505713461
 97
267
330
2DA
330
2DB
330
2DC
330
2DD
330
2DE
330
2DF
330
2E0
330
2E1
330
2E2
330
2E3
330
2E4
330
2E5
330
2E6
330
2E7
330
2E8
330
2E9
330
2EA
330
2EB
330
2EC
330
2ED
330
2EE
330
2EF
330
2F0
330
2F1
330
2F2
330
2F3
330
2F4
330
2F5
330
2F6
330
2F7
330
2F8
330
2F9
330
2FA
330
2FB
330
2FC
330
2FD
330
2FE
330
2FF
330
300
330
301
330
302
330
303
330
304
330
305
330
306
330
307
330
308
330
309
330
30A
330
30B
330
30C
330
30D
330
30E
330
30F
330
310
330
311
330
312
330
313
330
314
330
315
330
316
330
317
330
318
330
319
330
31A
330
31B
330
31C
330
31D
330
31E
330
31F
330
320
330
321
330
322
330
323
330
324
330
325
330
326
330
327
330
328
330
329
330
32A
330
32B
330
32C
330
32D
330
32E
330
32F
330
330
330
331
330
332
330
333
330
334
330
335
330
336
330
337
330
338
330
339
330
33A
330
33B
330
33C
330
33D
330
33E
330
33F
330
340
330
341
330
342
330
343
330
344
330
345
330
346
330
347
330
348
330
349
330
34A
330
34B
330
34C
330
34D
330
34E
330
34F
330
350
330
351
330
352
330
353
330
354
330
355
330
356
330
357
330
358
330
359
330
35A
330
35B
330
35C
330
35D
330
35E
330
35F
330
360
330
361
330
362
330
363
330
364
330
365
330
366
330
367
330
368
330
369
330
36A
330
36B
330
36C
330
36D
330
36E
330
36F
330
370
330
371
330
372
330
373
330
374
330
375
330
376
330
377
330
378
330
379
330
37A
330
37B
330
37C
330
37D
330
37E
330
37F
330
380
330
381
330
382
330
383
330
384
330
385
330
386
330
387
330
388
330
389
330
38A
330
38B
330
38C
330
38D
330
38E
330
38F
330
390
330
391
330
392
330
393
330
394
330
395
330
396
330
397
330
398
330
399
330
39A
330
39B
330
39C
330
39D
330
39E
330
39F
330
3A0
330
3A1
330
3A2
330
3A3
330
3A4
330
3A5
330
3A6
330
3A7
330
3A8
330
3A9
330
3AA
330
3AB
330
3AC
330
3AD
330
3AE
330
3AF
330
3B0
330
3B1
330
3B2
330
3B3
330
3B4
330
3B5
330
3B6
330
3B7
330
3B8
330
3B9
330
3BA
330
3BB
330
3BC
330
3BD
330
3BE
330
3BF
330
3C0
330
3C1
330
3C2
330
3C3
330
3C4
330
3C5
330
3C6
330
3C7
330
3C8
330
3C9
330
3CA
330
3CB
330
3CC
330
3CD
330
3CE
330
3CF
330
3D0
330
3D1
330
3D2
330
3D3
330
3D4
330
3D5
330
3D6
330
3D7
330
3D8
330
3D9
330
3DA
330
3DB
330
3DC
330
3DD
330
3DE
330
3DF
330
3E0
330
3E1
330
3E2
330
3E3
330
3E4
 92
1
 93
1
 72
3
 10
12.9046654608
 20
2.5403783405
 11
-0.8250004575
 21
0.0
 40
0.218572
 50
0.0
 51
-0.0
 73
1
 97
267
330
2DA
330
2DB
330
2DC
330
2DD
330
2DE
330
2DF
330
2E0
330
2E1
330
2E2
330
2E3
330
2E4
330
2E5
330
2E6
330
2E7
330
2E8
330
2E9
330
2EA
330
2EB
330
2EC
330
2ED
330
2EE
330
2EF
330
2F0
330
2F1
330
2F2
330
2F3
330
2F4
330
2F5
330
2F6
330
2F7
330
2F8
330
2F9
330
2FA
330
2FB
330
2FC
330
2FD
330
2FE
330
2FF
330
300
330
301
330
302
330
303
330
304
330
305
330
306
330
307
330
308
330
309
330
30A
330
30B
330
30C
330
30D
330
30E
330
30F
330
310
330
311
330
312
330
313
330
314
330
315
330
316
330
317
330
318
330
319
330
31A
330
31B
330
31C
330
31D
330
31E
330
31F
330
320
330
321
330
322
330
323
330
324
330
325
330
326
330
327
330
328
330
329
330
32A
330
32B
330
32C
330
32D
330
32E
330
32F
330
330
330
331
330
332
330
333
330
334
330
335
330
336
330
337
330
338
330
339
330
33A
330
33B
330
33C
330
33D
330
33E
330
33F
330
340
330
341
330
342
330
343
330
344
330
345
330
346
330
347
330
348
330
349
330
34A
330
34B
330
34C
330
34D
330
34E
330
34F
330
350
330
351
330
352
330
353
330
354
330
355
330
356
330
357
330
358
330
359
330
35A
330
35B
330
35C
330
35D
330
35E
330
35F
330
360
330
361
330
362
330
363
330
364
330
365
330
366
330
367
330
368
330
369
330
36A
330
36B
330
36C
330
36D
330
36E
330
36F
330
370
330
371
330
372
330
373
330
374
330
375
330
376
330
377
330
378
330
379
330
37A
330
37B
330
37C
330
37D
330
37E
330
37F
330
380
330
381
330
382
330
383
330
384
330
385
330
386
330
387
330
388
330
389
330
38A
330
38B
330
38C
330
38D
330
38E
330
38F
330
390
330
391
330
392
330
393
330
394
330
395
330
396
330
397
330
398
330
399
330
39A
330
39B
330
39C
330
39D
330
39E
330
39F
330
3A0
330
3A1
330
3A2
330
3A3
330
3A4
330
3A5
330
3A6
330
3A7
330
3A8
330
3A9
330
3AA
330
3AB
330
3AC
330
3AD
330
3AE
330
3AF
330
3B0
330
3B1
330
3B2
330
3B3
330
3B4
330
3B5
330
3B6
330
3B7
330
3B8
330
3B9
330
3BA
330
3BB
330
3BC
330
3BD
330
3BE
330
3BF
330
3C0
330
3C1
330
3C2
330
3C3
330
3C4
330
3C5
330
3C6
330
3C7
330
3C8
330
3C9
330
3CA
330
3CB
330
3CC
330
3CD
330
3CE
330
3CF
330
3D0
330
3D1
330
3D2
330
3D3
330
3D4
330
3D5
330
3D6
330
3D7
330
3D8
330
3D9
330
3DA
330
3DB
330
3DC
330
3DD
330
3DE
330
3DF
330
3E0
330
3E1
330
3E2
330
3E3
330
3E4
 75
0
 76
1
 98
1
 10
0.0
 20
0.0
  0
LINE
  5
3E6
100
AcDbEntity
  8
0
100
AcDbLine
 62
7
  6
CONTINUOUS
 10
8.5
 20
10.112
 11
8.586603
 21
10.262
  0
LINE
  5
3E7
100
AcDbEntity
  8
0
100
AcDbLine
 62
7
  6
CONTINUOUS
 10
16.38
 20
2.807
 11
10.03
 21
2.807
  0
LINE
  5
3E8
100
AcDbEntity
  8
0
100
AcDbLine
 62
7
  6
CONTINUOUS
 10
0.62
 20
3.1995
 11
0.37
 21
3.1995
  0
LINE
  5
3E9
100
AcDbEntity
  8
0
100
AcDbLine
 62
7
  6
CONTINUOUS
 10
16.38
 20
3.1995
 11
16.63
 21
3.1995
  0
LINE
  5
3EA
100
AcDbEntity
  8
0
100
AcDbLine
 62
7
  6
CONTINUOUS
 10
8.586603
 20
0.737
 11
8.5
 21
0.887
  0
LINE
  5
3EB
100
AcDbEntity
  8
0
100
AcDbLine
 62
7
  6
CONTINUOUS
 10
6.53
 20
0.887
 11
6.53
 21
0.637
  0
LINE
  5
3EC
100
AcDbEntity
  8
0
100
AcDbLine
 62
7
  6
CONTINUOUS
 10
6.53
 20
10.112
 11
6.53
 21
10.362
  0
LINE
  5
3ED
100
AcDbEntity
  8
0
100
AcDbLine
 62
7
  6
CONTINUOUS
 10
8.5
 20
0.887
 11
8.5
 21
0.637
  0
LINE
  5
3EE
100
AcDbEntity
  8
0
100
AcDbLine
 62
7
  6
CONTINUOUS
 10
8.5
 20
10.112
 11
8.5
 21
10.362
  0
LINE
  5
3EF
100
AcDbEntity
  8
0
100
AcDbLine
 62
7
  6
CONTINUOUS
 10
0.62
 20
5.4995
 11
0.37
 21
5.4995
  0
LINE
  5
3F0
100
AcDbEntity
  8
0
100
AcDbLine
 62
7
  6
CONTINUOUS
 10
16.38
 20
5.4995
 11
16.63
 21
5.4995
  0
LINE
  5
3F1
100
AcDbEntity
  8
0
100
AcDbLine
 62
7
  6
CONTINUOUS
 10
10.03
 20
2.807
 11
10.03
 21
0.887
  0
LINE
  5
3F2
100
AcDbEntity
  8
0
100
AcDbLine
 62
7
  6
CONTINUOUS
 10
10.47
 20
0.887
 11
10.47
 21
0.637
  0
LINE
  5
3F3
100
AcDbEntity
  8
0
100
AcDbLine
 62
7
  6
CONTINUOUS
 10
10.47
 20
10.112
 11
10.47
 21
10.362
  0
LINE
  5
3F4
100
AcDbEntity
  8
0
100
AcDbLine
 62
7
  6
CONTINUOUS
 10
10.5342808475
 20
1.143294839
 11
10.5342808475
 21
0.921203839
  0
LINE
  5
3F5
100
AcDbEntity
  8
0
100
AcDbLine
 62
7
  6
CONTINUOUS
 10
10.5342808475
 20
1.193294839
 11
10.5342808475
 21
1.293294839
  0
LINE
  5
3F6
100
AcDbEntity
  8
0
100
AcDbLine
 62
7
  6
CONTINUOUS
 10
10.5342808475
 20
1.343294839
 11
10.5342808475
 21
1.565385839
  0
LINE
  5
3F7
100
AcDbEntity
  8
0
100
AcDbLine
 62
7
  6
CONTINUOUS
 10
8.5
 20
0.887
 11
8.413397
 21
0.737
  0
LINE
  5
3F8
100
AcDbEntity
  8
0
100
AcDbLine
 62
7
  6
CONTINUOUS
 10
0.62
 20
7.7995
 11
0.37
 21
7.7995
  0
LINE
  5
3F9
100
AcDbEntity
  8
0
100
AcDbLine
 62
7
  6
CONTINUOUS
 10
16.38
 20
7.7995
 11
16.63
 21
7.7995
  0
LINE
  5
3FA
100
AcDbEntity
  8
0
100
AcDbLine
 62
7
  6
CONTINUOUS
 10
8.413397
 20
10.262
 11
8.5
 21
10.112
  0
LINE
  5
3FB
100
AcDbEntity
  8
0
100
AcDbLine
 62
7
  6
CONTINUOUS
 10
11.1389508475
 20
1.060596839
 11
11.1389508475
 21
1.425992839
  0
LINE
  5
3FC
100
AcDbEntity
  8
0
100
AcDbLine
 62
7
  6
CONTINUOUS
 10
11.7453418475
 20
1.495385839
 11
11.7453418475
 21
0.991203839
  0
LINE
  5
3FD
100
AcDbEntity
  8
0
100
AcDbLine
 62
7
  6
CONTINUOUS
 10
12.44
 20
0.887
 11
12.44
 21
0.637
  0
LINE
  5
3FE
100
AcDbEntity
  8
0
100
AcDbLine
 62
7
  6
CONTINUOUS
 10
12.44
 20
10.112
 11
12.44
 21
10.362
  0
LINE
  5
3FF
100
AcDbEntity
  8
0
100
AcDbLine
 62
7
  6
CONTINUOUS
 10
16.53
 20
5.586103
 11
16.38
 21
5.4995
  0
LINE
  5
400
100
AcDbEntity
  8
0
100
AcDbLine
 62
7
  6
CONTINUOUS
 10
16.38
 20
5.4995
 11
16.53
 21
5.412897
  0
LINE
  5
401
100
AcDbEntity
  8
0
100
AcDbLine
 62
7
  6
CONTINUOUS
 10
12.83
 20
1.507
 11
12.83
 21
1.137
  0
LINE
  5
402
100
AcDbEntity
  8
0
100
AcDbLine
 62
7
  6
CONTINUOUS
 10
16.38
 20
10.112
 11
0.62
 21
10.112
  0
LINE
  5
403
100
AcDbEntity
  8
0
100
AcDbLine
 62
7
  6
CONTINUOUS
 10
8.586603
 20
10.262
 11
8.413397
 21
10.262
  0
LINE
  5
404
100
AcDbEntity
  8
0
100
AcDbLine
 62
7
  6
CONTINUOUS
 10
14.205
 20
1.137
 11
14.205
 21
0.887
  0
LINE
  5
405
100
AcDbEntity
  8
0
100
AcDbLine
 62
7
  6
CONTINUOUS
 10
14.41
 20
0.887
 11
14.41
 21
0.637
  0
LINE
  5
406
100
AcDbEntity
  8
0
100
AcDbLine
 62
7
  6
CONTINUOUS
 10
14.41
 20
10.112
 11
14.41
 21
10.362
  0
LINE
  5
407
100
AcDbEntity
  8
0
100
AcDbLine
 62
7
  6
CONTINUOUS
 10
15.58
 20
1.507
 11
15.58
 21
1.137
  0
LINE
  5
408
100
AcDbEntity
  8
0
100
AcDbLine
 62
7
  6
CONTINUOUS
 10
16.38
 20
0.887
 11
16.38
 21
10.112
  0
LINE
  5
409
100
AcDbEntity
  8
0
100
AcDbLine
 62
7
  6
CONTINUOUS
 10
16.53
 20
5.412897
 11
16.53
 21
5.586103
  0
LINE
  5
40A
100
AcDbEntity
  8
0
100
AcDbLine
 62
7
  6
CONTINUOUS
 10
3.7307159991
 20
7.0450604129
 11
3.7399633139
 21
6.5152821064
  0
LINE
  5
40B
100
AcDbEntity
  8
0
100
AcDbLine
 62
7
  6
CONTINUOUS
 10
4.143506621
 20
5.3341797442
 11
4.9309081958
 21
5.3341797442
  0
LINE
  5
40C
100
AcDbEntity
  8
0
100
AcDbLine
 62
7
  6
CONTINUOUS
 10
3.8554614223
 20
6.6727624214
 11
3.8554614223
 21
7.0196839056
  0
LINE
  5
40D
100
AcDbEntity
  8
0
100
AcDbLine
 62
7
  6
CONTINUOUS
 10
4.143506621
 20
5.4129199017
 11
4.9309081958
 21
5.4129199017
  0
LINE
  5
40E
100
AcDbEntity
  8
0
100
AcDbLine
 62
7
  6
CONTINUOUS
 10
4.9309081958
 20
5.4522899804
 11
4.143506621
 21
5.4522899804
  0
LWPOLYLINE
  5
40F
100
AcDbEntity
  8
0
100
AcDbPolyline
 62
7
  6
CONTINUOUS
 90
3
 70
0
 10
5.1132477933
 20
7.1656723929
 10
5.1134011054
 20
7.1657222299
 10
5.1135693198
 20
7.1655473069
  0
LWPOLYLINE
  5
410
100
AcDbEntity
  8
0
100
AcDbPolyline
 62
7
  6
CONTINUOUS
 90
4
 70
0
 10
4.1238215816
 20
6.5152821064
 10
4.1231514001
 20
6.5543303573
 10
4.1224973026
 20
6.5937019403
 10
4.121857903
 20
6.6333923426
  0
LINE
  5
411
100
AcDbEntity
  8
0
100
AcDbLine
 62
7
  6
CONTINUOUS
 10
4.143506621
 20
5.3341797442
 11
4.143506621
 21
6.5152821064
  0
LWPOLYLINE
  5
412
100
AcDbEntity
  8
0
100
AcDbPolyline
 62
7
  6
CONTINUOUS
 90
4
 70
0
 10
4.1631916603
 20
6.5152821064
 10
4.1638618418
 20
6.5543303573
 10
4.1645159393
 20
6.5937019403
 10
4.1651553389
 20
6.6333923426
  0
LINE
  5
413
100
AcDbEntity
  8
0
100
AcDbLine
 62
7
  6
CONTINUOUS
 10
5.0980825036
 20
7.150328407
 11
5.0987080833
 21
7.1505962857
  0
LINE
  5
414
100
AcDbEntity
  8
02___PRT_ALL_AXES
100
AcDbLine
 62
7
  6
CONTINUOUS
 10
4.3502074084
 20
6.6507607637
 11
4.3502074084
 21
6.6333923426
  0
LINE
  5
415
100
AcDbEntity
  8
0
100
AcDbLine
 62
7
  6
CONTINUOUS
 10
5.0957596656
 20
7.147471454
 11
5.0961928106
 21
7.1478522584
  0
LINE
  5
416
100
AcDbEntity
  8
0
100
AcDbLine
 62
7
  6
CONTINUOUS
 10
5.0975345413
 20
7.1499370008
 11
5.0980825036
 21
7.150328407
  0
LINE
  5
417
100
AcDbEntity
  8
02___PRT_ALL_AXES
100
AcDbLine
 62
7
  6
CENTER
 10
4.5372074084
 20
5.9247309253
 11
4.2502074084
 21
5.9247309253
  0
LINE
  5
418
100
AcDbEntity
  8
02___PRT_ALL_AXES
100
AcDbLine
 62
7
  6
CENTER
 10
4.5372074084
 20
5.9247309253
 11
4.8242074084
 21
5.9247309253
  0
LINE
  5
419
100
AcDbEntity
  8
0
100
AcDbLine
 62
7
  6
CONTINUOUS
 10
4.3649633139
 20
6.4365419489
 11
4.3649633139
 21
6.370925151
  0
LINE
  5
41A
100
AcDbEntity
  8
02___PRT_ALL_AXES
100
AcDbLine
 62
7
  6
CONTINUOUS
 10
4.4547074084
 20
6.3578017915
 11
4.4547074084
 21
6.3357607637
  0
LINE
  5
41B
100
AcDbEntity
  8
0
100
AcDbLine
 62
7
  6
CONTINUOUS
 10
5.0968530014
 20
7.1492395955
 11
5.0972404075
 21
7.1496650072
  0
LINE
  5
41C
100
AcDbEntity
  8
0
100
AcDbLine
 62
7
  6
CONTINUOUS
 10
5.0975752964
 20
7.1499704666
 11
5.0968523801
 21
7.1492401613
  0
LINE
  5
41D
100
AcDbEntity
  8
0
100
AcDbLine
 62
7
  6
CONTINUOUS
 10
5.0922861485
 20
7.1447107481
 11
5.0954261785
 21
7.1478507781
  0
LINE
  5
41E
100
AcDbEntity
  8
0
100
AcDbLine
 62
7
  6
CONTINUOUS
 10
5.0975234712
 20
7.1499480709
 11
5.1132471853
 21
7.1656717849
  0
LINE
  5
41F
100
AcDbEntity
  8
0
100
AcDbLine
 62
7
  6
CONTINUOUS
 10
5.0972404075
 20
7.1496650072
 11
5.0975345413
 21
7.1499370008
  0
LWPOLYLINE
  5
420
100
AcDbEntity
  8
0
100
AcDbPolyline
 62
7
  6
CONTINUOUS
 90
4
 70
0
 10
4.517522369
 20
6.5152821064
 10
4.5168521875
 20
6.5543303573
 10
4.51619809
 20
6.5937019403
 10
4.5155586904
 20
6.6333923426
  0
LINE
  5
421
100
AcDbEntity
  8
0
100
AcDbLine
 62
7
  6
CONTINUOUS
 10
4.4782074084
 20
6.7400239006
 11
4.4782074084
 21
6.7413923426
  0
LINE
  5
422
100
AcDbEntity
  8
02___PRT_ALL_AXES
100
AcDbLine
 62
7
  6
CENTER
 10
4.5372074084
 20
5.9247309253
 11
4.5372074084
 21
5.6377309253
  0
LINE
  5
423
100
AcDbEntity
  8
02___PRT_ALL_AXES
100
AcDbLine
 62
7
  6
CENTER
 10
4.5372074084
 20
5.9247309253
 11
4.5372074084
 21
6.7909233448
  0
LINE
  5
424
100
AcDbEntity
  8
0
100
AcDbLine
 62
7
  6
CONTINUOUS
 10
5.0961312128
 20
7.1482595905
 11
5.0968530014
 21
7.1492395955
  0
LINE
  5
425
100
AcDbEntity
  8
0
100
AcDbLine
 62
7
  6
CONTINUOUS
 10
5.0968523801
 20
7.1492401613
 11
5.0964134954
 21
7.1486722115
  0
LWPOLYLINE
  5
426
100
AcDbEntity
  8
0
100
AcDbPolyline
 62
7
  6
CONTINUOUS
 90
3
 70
0
 10
5.1386638167
 20
7.1677141775
 10
5.1389227742
 20
7.1680461562
 10
5.1391620711
 20
7.1681482481
  0
LWPOLYLINE
  5
427
100
AcDbEntity
  8
0
100
AcDbPolyline
 62
7
  6
CONTINUOUS
 90
3
 70
0
 10
5.189276017
 20
7.147265603
 10
5.1898299333
 20
7.1478327719
 10
5.1899420059
 20
7.1478500942
  0
LINE
  5
428
100
AcDbEntity
  8
0
100
AcDbLine
 62
7
  6
CONTINUOUS
 10
5.1035136803
 20
7.0164732409
 11
5.1037121689
 21
7.0166740387
  0
LINE
  5
429
100
AcDbEntity
  8
0
100
AcDbLine
 62
7
  6
CONTINUOUS
 10
4.3780866735
 20
6.3578017915
 11
4.3649633139
 21
6.370925151
  0
LINE
  5
42A
100
AcDbEntity
  8
02___PRT_ALL_AXES
100
AcDbLine
 62
7
  6
CONTINUOUS
 10
4.4547074084
 20
6.3357607637
 11
4.4720758294
 21
6.3183923426
  0
LINE
  5
42B
100
AcDbEntity
  8
0
100
AcDbLine
 62
7
  6
CONTINUOUS
 10
4.5962074084
 20
6.7413923426
 11
4.5962074084
 21
6.7400239006
  0
LINE
  5
42C
100
AcDbEntity
  8
02___PRT_ALL_AXES
100
AcDbLine
 62
7
  6
CONTINUOUS
 10
4.6197074084
 20
6.3578017915
 11
4.6197074084
 21
6.3357607637
  0
LWPOLYLINE
  5
42D
100
AcDbEntity
  8
0
100
AcDbPolyline
 62
7
  6
CONTINUOUS
 90
4
 70
0
 10
4.5568924477
 20
6.5152821064
 10
4.5575626292
 20
6.5543303573
 10
4.5582167267
 20
6.5937019403
 10
4.5588561263
 20
6.6333923426
  0
LINE
  5
42E
100
AcDbEntity
  8
0
100
AcDbLine
 62
7
  6
CONTINUOUS
 10
5.0958864005
 20
7.1478507784
 11
5.0961312128
 21
7.1482595905
  0
LINE
  5
42F
100
AcDbEntity
  8
0
100
AcDbLine
 62
7
  6
CONTINUOUS
 10
5.09594166
 20
7.1479635718
 11
5.0958737073
 21
7.1478507784
  0
LINE
  5
430
100
AcDbEntity
  8
0
100
AcDbLine
 62
7
  6
CONTINUOUS
 10
5.0964134954
 20
7.1486722115
 11
5.09594166
 21
7.1479635718
  0
LWPOLYLINE
  5
431
100
AcDbEntity
  8
0
100
AcDbPolyline
 62
7
  6
CONTINUOUS
 90
3
 70
0
 10
5.1699138167
 20
7.1677141775
 10
5.1701727742
 20
7.1680461562
 10
5.1704120711
 20
7.1681482481
  0
LWPOLYLINE
  5
432
100
AcDbEntity
  8
0
100
AcDbPolyline
 62
7
  6
CONTINUOUS
 90
3
 70
0
 10
5.2011638167
 20
7.1677141775
 10
5.2014227742
 20
7.1680461562
 10
5.2016620711
 20
7.1681482481
  0
LWPOLYLINE
  5
433
100
AcDbEntity
  8
0
100
AcDbPolyline
 62
7
  6
CONTINUOUS
 90
3
 70
0
 10
5.1279397309
 20
7.0045823208
 10
5.1276807722
 20
7.00425034
 10
5.1274414753
 20
7.0041482481
  0
LINE
  5
434
100
AcDbEntity
  8
0
100
AcDbLine
 62
7
  6
CONTINUOUS
 10
4.7094515028
 20
6.4365419489
 11
4.7094515028
 21
6.370925151
  0
LINE
  5
435
100
AcDbEntity
  8
02___PRT_ALL_AXES
100
AcDbLine
 62
7
  6
CONTINUOUS
 10
4.7242074084
 20
6.6507607637
 11
4.7242074084
 21
6.6333923426
  0
LWPOLYLINE
  5
436
100
AcDbEntity
  8
0
100
AcDbPolyline
 62
7
  6
CONTINUOUS
 90
3
 70
0
 10
5.1386662732
 20
7.1677141624
 10
5.134560299
 20
7.1606436758
 10
5.1301160178
 20
7.1530005644
  0
LWPOLYLINE
  5
437
100
AcDbEntity
  8
0
100
AcDbPolyline
 62
7
  6
CONTINUOUS
 90
3
 70
0
 10
5.1699162732
 20
7.1677141624
 10
5.165810299
 20
7.1606436758
 10
5.1613660178
 20
7.1530005644
  0
LWPOLYLINE
  5
438
100
AcDbEntity
  8
0
100
AcDbPolyline
 62
7
  6
CONTINUOUS
 90
3
 70
0
 10
5.2011662732
 20
7.1677141624
 10
5.197060299
 20
7.1606436758
 10
5.1926160178
 20
7.1530005644
  0
LWPOLYLINE
  5
439
100
AcDbEntity
  8
0
100
AcDbPolyline
 62
7
  6
CONTINUOUS
 90
3
 70
0
 10
5.127937275
 20
7.0045823359
 10
5.1321049047
 20
7.0117589327
 10
5.1365489613
 20
7.0194014922
  0
LINE
  5
43A
100
AcDbEntity
  8
0
100
AcDbLine
 62
7
  6
CONTINUOUS
 10
5.1301160178
 20
7.1530005644
 11
5.1271168197
 21
7.1478507781
  0
LINE
  5
43B
100
AcDbEntity
  8
0
100
AcDbLine
 62
7
  6
CONTINUOUS
 10
5.1613660178
 20
7.1530005644
 11
5.1583668197
 21
7.1478507781
  0
LINE
  5
43C
100
AcDbEntity
  8
0
100
AcDbLine
 62
7
  6
CONTINUOUS
 10
5.1037121689
 20
7.0166740387
 11
5.1082367226
 21
7.0244457181
  0
LINE
  5
43D
100
AcDbEntity
  8
0
100
AcDbLine
 62
7
  6
CONTINUOUS
 10
5.1926160178
 20
7.1530005644
 11
5.1896168197
 21
7.1478507781
  0
LINE
  5
43E
100
AcDbEntity
  8
0
100
AcDbLine
 62
7
  6
CONTINUOUS
 10
5.1365489613
 20
7.0194014922
 11
5.1394867226
 21
7.0244457181
  0
LWPOLYLINE
  5
43F
100
AcDbEntity
  8
0
100
AcDbPolyline
 62
7
  6
CONTINUOUS
 90
3
 70
0
 10
5.1591897305
 20
7.0045823208
 10
5.1589307718
 20
7.00425034
 10
5.1586914749
 20
7.0041482481
  0
LWPOLYLINE
  5
440
100
AcDbEntity
  8
0
100
AcDbPolyline
 62
7
  6
CONTINUOUS
 90
3
 70
0
 10
5.1904397305
 20
7.0045823208
 10
5.1901807718
 20
7.00425034
 10
5.1899414749
 20
7.0041482481
  0
LWPOLYLINE
  5
441
100
AcDbEntity
  8
0
100
AcDbPolyline
 62
7
  6
CONTINUOUS
 90
3
 70
0
 10
5.3574138167
 20
7.1677141775
 10
5.3576727742
 20
7.1680461562
 10
5.3579120711
 20
7.1681482481
  0
LWPOLYLINE
  5
442
100
AcDbEntity
  8
0
100
AcDbPolyline
 62
7
  6
CONTINUOUS
 90
3
 70
0
 10
5.3886638167
 20
7.1677141775
 10
5.3889227742
 20
7.1680461562
 10
5.3891620711
 20
7.1681482481
  0
LWPOLYLINE
  5
443
100
AcDbEntity
  8
0
100
AcDbPolyline
 62
7
  6
CONTINUOUS
 90
66
 70
0
 10
5.5219528155
 20
7.2779646023
 10
5.5298877752
 20
7.2873850325
 10
5.5376899525
 20
7.2952064921
 10
5.5453246015
 20
7.3016272874
 10
5.5527677089
 20
7.3068157655
 10
5.5600426051
 20
7.3109359787
 10
5.5671519877
 20
7.3141035458
 10
5.5741324855
 20
7.3164218595
 10
5.5810092889
 20
7.3179616561
 10
5.5878232451
 20
7.3187734984
 10
5.5946140267
 20
7.3188830292
 10
5.6014128288
 20
7.3182940881
 10
5.608270427
 20
7.3169864974
 10
5.6152073752
 20
7.3149221129
 10
5.6222761399
 20
7.3120300266
 10
5.6294897106
 20
7.3082260166
 10
5.636884387
 20
7.3033853105
 10
5.6444541868
 20
7.2973750012
 10
5.6522100929
 20
7.2900117935
 10
5.6601162446
 20
7.2811082782
 10
5.6681011174
 20
7.2704768546
 10
5.6760889317
 20
7.2578882376
 10
5.6840017361
 20
7.243030288
 10
5.691258772
 20
7.2266720642
 10
5.6972083368
 20
7.2105756949
 10
5.701719935
 20
7.1960676308
 10
5.7051357732
 20
7.1831684126
 10
5.7077937989
 20
7.1714653035
 10
5.7098601994
 20
7.1608860153
 10
5.711467464
 20
7.1513244571
 10
5.7127158414
 20
7.1426843166
 10
5.7136770309
 20
7.1349249983
 10
5.7144112613
 20
7.1279882846
 10
5.7149675344
 20
7.121811022
 10
5.7153828337
 20
7.1163639463
 10
5.7156889558
 20
7.1115982606
 10
5.715916453
 20
7.1073644516
 10
5.7160881307
 20
7.1034915022
 10
5.7162178399
 20
7.0998529786
 10
5.7163142061
 20
7.0963371648
 10
5.7163814404
 20
7.0928687381
 10
5.7164209762
 20
7.0894136285
 10
5.7164331472
 20
7.0859507316
 10
5.7164178575
 20
7.0824897331
 10
5.7163752038
 20
7.0790344232
 10
5.7163048098
 20
7.0755648668
 10
5.7162051458
 20
7.0720457436
 10
5.7160713866
 20
7.0683897871
 10
5.7158950749
 20
7.0644985575
 10
5.7156614642
 20
7.0602338839
 10
5.715349346
 20
7.0554567358
 10
5.7149309006
 20
7.0500452135
 10
5.7143717838
 20
7.0439051164
 10
5.7136343836
 20
7.0369998434
 10
5.7126714143
 20
7.0292805097
 10
5.7114221085
 20
7.0206811674
 10
5.7098140249
 20
7.0111555924
 10
5.7077507789
 20
7.0006267147
 10
5.7050992331
 20
6.9889788024
 10
5.7016938912
 20
6.9761377583
 10
5.6972145178
 20
6.9617391269
 10
5.6912780898
 20
6.9456722777
 10
5.6840137363
 20
6.9292908758
 10
5.6760896713
 20
6.9144095275
 10
5.6681029511
 20
6.9018222933
 10
5.6601190695
 20
6.8911916735
  0
LWPOLYLINE
  5
444
100
AcDbEntity
  8
0
100
AcDbPolyline
 62
7
  6
CONTINUOUS
 90
3
 70
0
 10
5.4392758879
 20
7.1472653813
 10
5.4397688259
 20
7.1478089113
 10
5.4399419928
 20
7.1478500713
  0
LINE
  5
445
100
AcDbEntity
  8
02___PRT_ALL_AXES
100
AcDbLine
 62
7
  6
CONTINUOUS
 10
4.6197074084
 20
6.3357607637
 11
4.6023389873
 21
6.3183923426
  0
LINE
  5
446
100
AcDbEntity
  8
0
100
AcDbLine
 62
7
  6
CONTINUOUS
 10
4.6963281433
 20
6.3578017915
 11
4.7094515028
 21
6.370925151
  0
LINE
  5
447
100
AcDbEntity
  8
02___PRT_ALL_AXES
100
AcDbLine
 62
7
  6
CONTINUOUS
 10
4.4720758294
 20
6.3183923426
 11
4.6023389873
 21
6.3183923426
  0
LINE
  5
448
100
AcDbEntity
  8
02___PRT_ALL_AXES
100
AcDbLine
 62
7
  6
CONTINUOUS
 10
4.4547074084
 20
6.3357607637
 11
4.6197074084
 21
6.3357607637
  0
LINE
  5
449
100
AcDbEntity
  8
0
100
AcDbLine
 62
7
  6
CONTINUOUS
 10
5.1037121689
 20
7.0166740387
 11
5.103902767
 21
7.0171292471
  0
LWPOLYLINE
  5
44A
100
AcDbEntity
  8
0
100
AcDbPolyline
 62
7
  6
CONTINUOUS
 90
3
 70
0
 10
5.159187275
 20
7.0045823359
 10
5.1633549047
 20
7.0117589327
 10
5.1677989613
 20
7.0194014922
  0
LWPOLYLINE
  5
44B
100
AcDbEntity
  8
0
100
AcDbPolyline
 62
7
  6
CONTINUOUS
 90
3
 70
0
 10
5.190437275
 20
7.0045823359
 10
5.1946049047
 20
7.0117589327
 10
5.1990489613
 20
7.0194014922
  0
LINE
  5
44C
100
AcDbEntity
  8
0
100
AcDbLine
 62
7
  6
CONTINUOUS
 10
5.1677989613
 20
7.0194014922
 11
5.1707367226
 21
7.0244457181
  0
LINE
  5
44D
100
AcDbEntity
  8
0
100
AcDbLine
 62
7
  6
CONTINUOUS
 10
5.1990489613
 20
7.0194014922
 11
5.2019867226
 21
7.0244457181
  0
LWPOLYLINE
  5
44E
100
AcDbEntity
  8
0
100
AcDbPolyline
 62
7
  6
CONTINUOUS
 90
3
 70
0
 10
5.4199138167
 20
7.1677141775
 10
5.4201727742
 20
7.1680461562
 10
5.4204120711
 20
7.1681482481
  0
LWPOLYLINE
  5
44F
100
AcDbEntity
  8
0
100
AcDbPolyline
 62
7
  6
CONTINUOUS
 90
3
 70
0
 10
5.4511638167
 20
7.1677141775
 10
5.4514227742
 20
7.1680461562
 10
5.4516620711
 20
7.1681482481
  0
LWPOLYLINE
  5
450
100
AcDbEntity
  8
0
100
AcDbPolyline
 62
7
  6
CONTINUOUS
 90
3
 70
0
 10
5.3466897305
 20
7.0045823208
 10
5.3464307718
 20
7.00425034
 10
5.3461914749
 20
7.0041482481
  0
LWPOLYLINE
  5
451
100
AcDbEntity
  8
0
100
AcDbPolyline
 62
7
  6
CONTINUOUS
 90
3
 70
0
 10
5.3779397305
 20
7.0045823208
 10
5.3776807718
 20
7.00425034
 10
5.3774414749
 20
7.0041482481
  0
LINE
  5
452
100
AcDbEntity
  8
0
100
AcDbLine
 62
7
  6
CONTINUOUS
 10
4.6963267746
 20
6.3578017915
 11
4.3780880422
 21
6.3578017915
  0
LINE
  5
453
100
AcDbEntity
  8
0
100
AcDbLine
 62
7
  6
CONTINUOUS
 10
4.7094515028
 20
6.370925151
 11
4.3649633139
 21
6.370925151
  0
LINE
  5
454
100
AcDbEntity
  8
0
100
AcDbLine
 62
7
  6
CONTINUOUS
 10
4.9309081958
 20
6.3971718702
 11
4.7094515028
 21
6.3971718702
  0
LINE
  5
455
100
AcDbEntity
  8
0
100
AcDbLine
 62
7
  6
CONTINUOUS
 10
4.3649633139
 20
6.3971718702
 11
4.143506621
 21
6.3971718702
  0
LWPOLYLINE
  5
456
100
AcDbEntity
  8
0
100
AcDbPolyline
 62
7
  6
CONTINUOUS
 90
4
 70
0
 10
4.9112231564
 20
6.5152821064
 10
4.9105529749
 20
6.5543303573
 10
4.9098988775
 20
6.5937019403
 10
4.9092594778
 20
6.6333923426
  0
LINE
  5
457
100
AcDbEntity
  8
0
100
AcDbLine
 62
7
  6
CONTINUOUS
 10
5.103674278
 20
7.016635707
 11
5.1036548921
 21
7.0165852334
  0
LINE
  5
458
100
AcDbEntity
  8
0
100
AcDbLine
 62
7
  6
CONTINUOUS
 10
5.3574162732
 20
7.1677141624
 11
5.353310299
 21
7.1606436758
  0
LWPOLYLINE
  5
459
100
AcDbEntity
  8
0
100
AcDbPolyline
 62
7
  6
CONTINUOUS
 90
3
 70
0
 10
5.3886662732
 20
7.1677141624
 10
5.384560299
 20
7.1606436758
 10
5.3801160178
 20
7.1530005644
  0
LWPOLYLINE
  5
45A
100
AcDbEntity
  8
0
100
AcDbPolyline
 62
7
  6
CONTINUOUS
 90
3
 70
0
 10
5.4199162732
 20
7.1677141624
 10
5.415810299
 20
7.1606436758
 10
5.4113660178
 20
7.1530005644
  0
LWPOLYLINE
  5
45B
100
AcDbEntity
  8
0
100
AcDbPolyline
 62
7
  6
CONTINUOUS
 90
3
 70
0
 10
5.346687275
 20
7.0045823359
 10
5.3508549047
 20
7.0117589327
 10
5.3552989613
 20
7.0194014922
  0
LINE
  5
45C
100
AcDbEntity
  8
0
100
AcDbLine
 62
7
  6
CONTINUOUS
 10
5.353310299
 20
7.1606436758
 11
5.3485363054
 21
7.1524344303
  0
LINE
  5
45D
100
AcDbEntity
  8
0
100
AcDbLine
 62
7
  6
CONTINUOUS
 10
5.3485363054
 20
7.1524344303
 11
5.3458668197
 21
7.1478507781
  0
LINE
  5
45E
100
AcDbEntity
  8
0
100
AcDbLine
 62
7
  6
CONTINUOUS
 10
5.3801160178
 20
7.1530005644
 11
5.3771168197
 21
7.1478507781
  0
LINE
  5
45F
100
AcDbEntity
  8
0
100
AcDbLine
 62
7
  6
CONTINUOUS
 10
5.4113660178
 20
7.1530005644
 11
5.4083668197
 21
7.1478507781
  0
LINE
  5
460
100
AcDbEntity
  8
0
100
AcDbLine
 62
7
  6
CONTINUOUS
 10
5.3552989613
 20
7.0194014922
 11
5.3582367226
 21
7.0244457181
  0
LWPOLYLINE
  5
461
100
AcDbEntity
  8
0
100
AcDbPolyline
 62
7
  6
CONTINUOUS
 90
3
 70
0
 10
5.4091897305
 20
7.0045823208
 10
5.4089307718
 20
7.00425034
 10
5.4086914749
 20
7.0041482481
  0
LWPOLYLINE
  5
462
100
AcDbEntity
  8
0
100
AcDbPolyline
 62
7
  6
CONTINUOUS
 90
3
 70
0
 10
5.4404397305
 20
7.0045823208
 10
5.4401807718
 20
7.00425034
 10
5.4399414749
 20
7.0041482481
  0
LINE
  5
463
100
AcDbEntity
  8
0
100
AcDbLine
 62
7
  6
CONTINUOUS
 10
4.143506621
 20
6.4365419489
 11
4.9309081958
 21
6.4365419489
  0
LINE
  5
464
100
AcDbEntity
  8
0
100
AcDbLine
 62
7
  6
CONTINUOUS
 10
3.7399633139
 20
6.5152821064
 11
4.517522369
 21
6.5152821064
  0
LINE
  5
465
100
AcDbEntity
  8
0
100
AcDbLine
 62
7
  6
CONTINUOUS
 10
4.517522369
 20
6.5152821064
 11
4.5568924477
 21
6.5152821064
  0
LINE
  5
466
100
AcDbEntity
  8
0
100
AcDbLine
 62
7
  6
CONTINUOUS
 10
4.5568924477
 20
6.5152821064
 11
5.3344515028
 21
6.5152821064
  0
LINE
  5
467
100
AcDbEntity
  8
0
100
AcDbLine
 62
7
  6
CONTINUOUS
 10
4.9309081958
 20
5.3341797442
 11
4.9309081958
 21
6.5152821064
  0
LWPOLYLINE
  5
468
100
AcDbEntity
  8
0
100
AcDbPolyline
 62
7
  6
CONTINUOUS
 90
4
 70
0
 10
4.9505932351
 20
6.5152821064
 10
4.9512634166
 20
6.5543303573
 10
4.9519175141
 20
6.5937019403
 10
4.9525569137
 20
6.6333923426
  0
LWPOLYLINE
  5
469
100
AcDbEntity
  8
0
100
AcDbPolyline
 62
7
  6
CONTINUOUS
 90
3
 70
0
 10
5.4511662732
 20
7.1677141624
 10
5.447060299
 20
7.1606436758
 10
5.4426160178
 20
7.1530005644
  0
LWPOLYLINE
  5
46A
100
AcDbEntity
  8
0
100
AcDbPolyline
 62
7
  6
CONTINUOUS
 90
3
 70
0
 10
5.377937275
 20
7.0045823359
 10
5.3821049047
 20
7.0117589327
 10
5.3865489613
 20
7.0194014922
  0
LWPOLYLINE
  5
46B
100
AcDbEntity
  8
0
100
AcDbPolyline
 62
7
  6
CONTINUOUS
 90
3
 70
0
 10
5.409187275
 20
7.0045823359
 10
5.4133549047
 20
7.0117589327
 10
5.4177989613
 20
7.0194014922
  0
LWPOLYLINE
  5
46C
100
AcDbEntity
  8
0
100
AcDbPolyline
 62
7
  6
CONTINUOUS
 90
3
 70
0
 10
5.440437275
 20
7.0045823359
 10
5.4446049047
 20
7.0117589327
 10
5.4490489613
 20
7.0194014922
  0
LINE
  5
46D
100
AcDbEntity
  8
0
100
AcDbLine
 62
7
  6
CONTINUOUS
 10
5.4426160178
 20
7.1530005644
 11
5.4396168197
 21
7.1478507781
  0
LINE
  5
46E
100
AcDbEntity
  8
0
100
AcDbLine
 62
7
  6
CONTINUOUS
 10
5.3865489613
 20
7.0194014922
 11
5.3894867226
 21
7.0244457181
  0
LINE
  5
46F
100
AcDbEntity
  8
0
100
AcDbLine
 62
7
  6
CONTINUOUS
 10
5.4177989613
 20
7.0194014922
 11
5.4207367226
 21
7.0244457181
  0
LINE
  5
470
100
AcDbEntity
  8
0
100
AcDbLine
 62
7
  6
CONTINUOUS
 10
5.4490489613
 20
7.0194014922
 11
5.4519867226
 21
7.0244457181
  0
LINE
  5
471
100
AcDbEntity
  8
0
100
AcDbLine
 62
7
  6
CONTINUOUS
 10
5.0922861485
 20
7.1447078857
 11
5.0922861485
 21
7.0275886106
  0
LINE
  5
472
100
AcDbEntity
  8
0
100
AcDbLine
 62
7
  6
CONTINUOUS
 10
5.0954261781
 20
7.1478507777
 11
5.0954261781
 21
7.1360998327
  0
LINE
  5
473
100
AcDbEntity
  8
0
100
AcDbLine
 62
7
  6
CONTINUOUS
 10
5.4623962593
 20
7.1566492228
 11
5.4945504819
 21
7.2322628438
  0
LWPOLYLINE
  5
474
100
AcDbEntity
  8
0
100
AcDbPolyline
 62
7
  6
CONTINUOUS
 90
4
 70
0
 10
5.4945504835
 20
7.2280833777
 10
5.5030597445
 20
7.2473932962
 10
5.5122357903
 20
7.2639341393
 10
5.5219528155
 20
7.2779646028
  0
LWPOLYLINE
  5
475
100
AcDbEntity
  8
0
100
AcDbPolyline
 62
7
  6
CONTINUOUS
 90
20
 70
0
 10
5.6601190695
 20
6.8911916735
 10
5.6522128991
 20
6.8822876027
 10
5.6444577458
 20
6.8749245854
 10
5.6368894757
 20
6.8689148588
 10
5.6294949853
 20
6.8640735864
 10
5.6222792972
 20
6.8602679435
 10
5.6152097352
 20
6.8573752147
 10
5.6082685836
 20
6.8553095502
 10
5.601412736
 20
6.8540023954
 10
5.5946088904
 20
6.8534132867
 10
5.5878224957
 20
6.8535230484
 10
5.5810055936
 20
6.8543354723
 10
5.57413354
 20
6.8558743445
 10
5.5671530695
 20
6.8581925312
 10
5.5600467582
 20
6.8613584234
 10
5.5527717758
 20
6.8654781704
 10
5.5453286645
 20
6.870666096
 10
5.5376933526
 20
6.8770868826
 10
5.5298900558
 20
6.8849089778
 10
5.5219528155
 20
6.8943318929
  0
LINE
  5
476
100
AcDbEntity
  8
0
100
AcDbLine
 62
7
  6
CONTINUOUS
 10
5.1673442888
 20
6.6333923426
 11
3.8948315011
 21
6.6333923426
  0
LINE
  5
477
100
AcDbEntity
  8
02___PRT_ALL_AXES
100
AcDbLine
 62
7
  6
CONTINUOUS
 10
4.3502074084
 20
6.6507607637
 11
4.7242074084
 21
6.6507607637
  0
LWPOLYLINE
  5
478
100
AcDbEntity
  8
0
100
AcDbPolyline
 62
7
  6
CONTINUOUS
 90
3
 70
0
 10
5.0964389162
 20
7.1274951398
 10
5.0974601801
 20
7.1171894942
 10
5.0985309463
 20
7.1053991386
  0
LINE
  5
479
100
AcDbEntity
  8
0
100
AcDbLine
 62
7
  6
CONTINUOUS
 10
5.0956735545
 20
7.1332634634
 11
5.0954261781
 21
7.1360998327
  0
LWPOLYLINE
  5
47A
100
AcDbEntity
  8
0
100
AcDbPolyline
 62
7
  6
CONTINUOUS
 90
3
 70
0
 10
5.095433801
 20
7.1360124303
 10
5.0956747214
 20
7.1332230608
 10
5.0959187792
 20
7.130000158
  0
LINE
  5
47B
100
AcDbEntity
  8
0
100
AcDbLine
 62
7
  6
CONTINUOUS
 10
5.0985309463
 20
7.1053991386
 11
5.0995789028
 21
7.0927616478
  0
LWPOLYLINE
  5
47C
100
AcDbEntity
  8
0
100
AcDbPolyline
 62
7
  6
CONTINUOUS
 90
9
 70
0
 10
5.0995789028
 20
7.0927616478
 10
5.1005935847
 20
7.079847528
 10
5.1016453448
 20
7.0671391562
 10
5.1027333692
 20
7.0551465805
 10
5.1037732017
 20
7.0446611404
 10
5.1047933145
 20
7.0360429322
 10
5.1058607171
 20
7.02960187
 10
5.106939386
 20
7.0256665055
 10
5.1079111485
 20
7.0244457181
  0
LINE
  5
47D
100
AcDbEntity
  8
0
100
AcDbLine
 62
7
  6
CONTINUOUS
 10
5.0959187792
 20
7.130000158
 11
5.096163692
 21
7.1265074138
  0
LWPOLYLINE
  5
47E
100
AcDbEntity
  8
0
100
AcDbPolyline
 62
7
  6
CONTINUOUS
 90
3
 70
0
 10
5.0961185057
 20
7.1271589918
 10
5.0958857158
 20
7.1304754362
 10
5.0956735545
 20
7.1332634634
  0
LWPOLYLINE
  5
47F
100
AcDbEntity
  8
0
100
AcDbPolyline
 62
7
  6
CONTINUOUS
 90
3
 70
0
 10
5.096163692
 20
7.1265074138
 10
5.0963647149
 20
7.12347218
 10
5.0965569877
 20
7.1204352932
  0
LINE
  5
480
100
AcDbEntity
  8
0
100
AcDbLine
 62
7
  6
CONTINUOUS
 10
5.096380187
 20
7.123215246
 11
5.0961273608
 21
7.1270255386
  0
LWPOLYLINE
  5
481
100
AcDbEntity
  8
0
100
AcDbPolyline
 62
7
  6
CONTINUOUS
 90
6
 70
0
 10
5.096380187
 20
7.123215246
 10
5.0967293627
 20
7.1176299453
 10
5.0968824451
 20
7.1150664668
 10
5.0970199359
 20
7.1127062972
 10
5.09714372
 20
7.1105407436
 10
5.0972565105
 20
7.1085370431
  0
LINE
  5
482
100
AcDbEntity
  8
0
100
AcDbLine
 62
7
  6
CONTINUOUS
 10
5.0966879597
 20
7.1183037655
 11
5.0965569877
 21
7.1204352932
  0
LWPOLYLINE
  5
483
100
AcDbEntity
  8
0
100
AcDbPolyline
 62
7
  6
CONTINUOUS
 90
12
 70
0
 10
5.115723649
 20
7.0861482481
 10
5.1162897166
 20
7.0765744627
 10
5.116945464
 20
7.0659789105
 10
5.117716987
 20
7.0541714293
 10
5.1185221117
 20
7.0426216716
 10
5.1192231175
 20
7.0332694689
 10
5.1198070861
 20
7.0260490797
 10
5.1203832316
 20
7.0199152265
 10
5.1210688287
 20
7.0139464769
 10
5.1218530187
 20
7.008833727
 10
5.1226364773
 20
7.0055364961
 10
5.1230388173
 20
7.0045823188
  0
LWPOLYLINE
  5
484
100
AcDbEntity
  8
0
100
AcDbPolyline
 62
7
  6
CONTINUOUS
 90
7
 70
0
 10
5.119629898
 20
7.0861482481
 10
5.1190839744
 20
7.0953887182
 10
5.1184454506
 20
7.1057271668
 10
5.1177106929
 20
7.1170237461
 10
5.1169492542
 20
7.1280345193
 10
5.1162900084
 20
7.1369610148
 10
5.1157236485
 20
7.1441310042
  0
LWPOLYLINE
  5
485
100
AcDbEntity
  8
0
100
AcDbPolyline
 62
7
  6
CONTINUOUS
 90
12
 70
0
 10
5.146973648
 20
7.0861482481
 10
5.1475397156
 20
7.0765744627
 10
5.1481954631
 20
7.0659789105
 10
5.1489669861
 20
7.0541714293
 10
5.1497721109
 20
7.0426216716
 10
5.1504731167
 20
7.0332694689
 10
5.1510570853
 20
7.0260490797
 10
5.1516332308
 20
7.0199152265
 10
5.152318828
 20
7.0139464769
 10
5.153103018
 20
7.008833727
 10
5.1538864766
 20
7.0055364961
 10
5.1542888167
 20
7.0045823188
  0
LWPOLYLINE
  5
486
100
AcDbEntity
  8
0
100
AcDbPolyline
 62
7
  6
CONTINUOUS
 90
12
 70
0
 10
5.150879898
 20
7.0861482481
 10
5.1503138304
 20
7.0957220336
 10
5.1496580829
 20
7.1063175859
 10
5.14888656
 20
7.1181250671
 10
5.1480814352
 20
7.1296748248
 10
5.1473804293
 20
7.1390270274
 10
5.1467964607
 20
7.1462474166
 10
5.1462203152
 20
7.1523812697
 10
5.1455347181
 20
7.1583500193
 10
5.144750528
 20
7.1634627691
 10
5.1439670694
 20
7.1667600002
 10
5.1435647305
 20
7.1677141754
  0
LWPOLYLINE
  5
487
100
AcDbEntity
  8
0
100
AcDbPolyline
 62
7
  6
CONTINUOUS
 90
10
 70
0
 10
5.1004341698
 20
7.0460262198
 10
5.1005845559
 20
7.0434181075
 10
5.1007524888
 20
7.0405672451
 10
5.100936112
 20
7.0375259827
 10
5.1011412114
 20
7.0343532769
 10
5.1013726507
 20
7.0310800258
 10
5.1016388995
 20
7.0277576444
 10
5.1019432718
 20
7.0244785539
 10
5.1022827967
 20
7.0214561719
 10
5.1026579395
 20
7.0188869071
  0
LINE
  5
488
100
AcDbEntity
  8
0
100
AcDbLine
 62
7
  6
CONTINUOUS
 10
5.1002927055
 20
7.048554566
 11
5.1005867289
 21
7.0433462364
  0
LINE
  5
489
100
AcDbEntity
  8
0
100
AcDbLine
 62
7
  6
CONTINUOUS
 10
5.1003927872
 20
7.0467745375
 11
5.1001913759
 21
7.0503821335
  0
LINE
  5
48A
100
AcDbEntity
  8
0
100
AcDbLine
 62
7
  6
CONTINUOUS
 10
5.1002927055
 20
7.048554566
 11
5.0999640862
 21
7.0545523027
  0
LINE
  5
48B
100
AcDbEntity
  8
0
100
AcDbLine
 62
7
  6
CONTINUOUS
 10
5.0972565105
 20
7.1085370431
 11
5.0974501785
 21
7.105008062
  0
LINE
  5
48C
100
AcDbEntity
  8
0
100
AcDbLine
 62
7
  6
CONTINUOUS
 10
5.099960702
 20
7.0546457594
 11
5.100135942
 21
7.0514134201
  0
LINE
  5
48D
100
AcDbEntity
  8
0
100
AcDbLine
 62
7
  6
CONTINUOUS
 10
5.0995414573
 20
7.0625642882
 11
5.0999640862
 21
7.0545523027
  0
LINE
  5
48E
100
AcDbEntity
  8
0
100
AcDbLine
 62
7
  6
CONTINUOUS
 10
5.0974501785
 20
7.105008062
 11
5.0976103886
 21
7.1019804813
  0
LWPOLYLINE
  5
48F
100
AcDbEntity
  8
0
100
AcDbPolyline
 62
7
  6
CONTINUOUS
 90
4
 70
0
 10
5.0977776848
 20
7.0986384014
 10
5.0973970799
 20
7.1059097747
 10
5.0970158143
 20
7.1127726082
 10
5.0966879597
 20
7.1183037655
  0
LWPOLYLINE
  5
490
100
AcDbEntity
  8
0
100
AcDbPolyline
 62
7
  6
CONTINUOUS
 90
5
 70
0
 10
5.0996552037
 20
7.060394447
 10
5.0994194802
 20
7.0649607843
 10
5.0991026377
 20
7.0712831585
 10
5.0987541139
 20
7.0784246429
 10
5.0983884057
 20
7.0861482481
  0
LWPOLYLINE
  5
491
100
AcDbEntity
  8
0
100
AcDbPolyline
 62
7
  6
CONTINUOUS
 90
3
 70
0
 10
5.0976103886
 20
7.1019804813
 10
5.0979115261
 20
7.0960486071
 10
5.0981508897
 20
7.0911453415
  0
LWPOLYLINE
  5
492
100
AcDbEntity
  8
0
100
AcDbPolyline
 62
7
  6
CONTINUOUS
 90
3
 70
0
 10
5.0983884056
 20
7.0861482481
 10
5.0981094919
 20
7.0919929018
 10
5.0977776848
 20
7.0986384014
  0
LWPOLYLINE
  5
493
100
AcDbEntity
  8
0
100
AcDbPolyline
 62
7
  6
CONTINUOUS
 90
5
 70
0
 10
5.0983884081
 20
7.0861481926
 10
5.0987230469
 20
7.0790170331
 10
5.0990234018
 20
7.0728045014
 10
5.0992961258
 20
7.0673567248
 10
5.0995414573
 20
7.0625642882
  0
LINE
  5
494
100
AcDbEntity
  8
0
100
AcDbLine
 62
7
  6
CONTINUOUS
 10
5.1157236485
 20
7.0861482481
 11
5.1157236485
 21
7.1441310042
  0
LINE
  5
495
100
AcDbEntity
  8
0
100
AcDbLine
 62
7
  6
CONTINUOUS
 10
5.2152225431
 20
7.1598518978
 11
5.2067083713
 21
6.6720753188
  0
LWPOLYLINE
  5
496
100
AcDbEntity
  8
0
100
AcDbPolyline
 62
7
  6
CONTINUOUS
 90
7
 70
0
 10
4.5372074084
 20
6.7400239006
 10
4.5273509037
 20
6.7408260151
 10
4.5175836011
 20
6.7412560295
 10
4.5077138391
 20
6.7413923426
 10
4.4978439728
 20
6.7412563877
 10
4.4880748502
 20
6.740826684
 10
4.4782074084
 20
6.7400239006
  0
LWPOLYLINE
  5
497
100
AcDbEntity
  8
0
100
AcDbPolyline
 62
7
  6
CONTINUOUS
 90
7
 70
0
 10
4.5962074084
 20
6.7400239006
 10
4.5863326072
 20
6.7408271339
 10
4.5765647894
 20
6.7412565575
 10
4.5667007075
 20
6.7413923426
 10
4.5568367887
 20
6.741256186
 10
4.5470708247
 20
6.7408264379
 10
4.5372074084
 20
6.7400239006
  0
LINE
  5
498
100
AcDbEntity
  8
0
100
AcDbLine
 62
7
  6
CONTINUOUS
 10
5.0954241912
 20
7.1361055889
 11
5.0964389162
 21
7.1274951398
  0
LWPOLYLINE
  5
499
100
AcDbEntity
  8
0
100
AcDbPolyline
 62
7
  6
CONTINUOUS
 90
12
 70
0
 10
5.178223648
 20
7.0861482481
 10
5.1787897156
 20
7.0765744627
 10
5.1794454631
 20
7.0659789105
 10
5.1802169861
 20
7.0541714293
 10
5.1810221109
 20
7.0426216716
 10
5.1817231167
 20
7.0332694689
 10
5.1823070853
 20
7.0260490797
 10
5.1828832308
 20
7.0199152265
 10
5.183568828
 20
7.0139464769
 10
5.184353018
 20
7.008833727
 10
5.1851364766
 20
7.0055364961
 10
5.1855387507
 20
7.0045824321
  0
LWPOLYLINE
  5
49A
100
AcDbEntity
  8
0
100
AcDbPolyline
 62
7
  6
CONTINUOUS
 90
12
 70
0
 10
5.182129898
 20
7.0861482481
 10
5.1815638304
 20
7.0957220336
 10
5.1809080829
 20
7.1063175859
 10
5.18013656
 20
7.1181250671
 10
5.1793314352
 20
7.1296748248
 10
5.1786304293
 20
7.1390270274
 10
5.1780464607
 20
7.1462474166
 10
5.1774703152
 20
7.1523812697
 10
5.1767847181
 20
7.1583500193
 10
5.176000528
 20
7.1634627691
 10
5.1752170694
 20
7.1667600002
 10
5.1748147305
 20
7.1677141754
  0
LWPOLYLINE
  5
49B
100
AcDbEntity
  8
0
100
AcDbPolyline
 62
7
  6
CONTINUOUS
 90
7
 70
0
 10
5.209473648
 20
7.0861482481
 10
5.2100397156
 20
7.0765744627
 10
5.2106954631
 20
7.0659789105
 10
5.2114669861
 20
7.0541714293
 10
5.2122721109
 20
7.0426216716
 10
5.2129731167
 20
7.0332694689
 10
5.2130059521
 20
7.0328634813
  0
LWPOLYLINE
  5
49C
100
AcDbEntity
  8
0
100
AcDbPolyline
 62
7
  6
CONTINUOUS
 90
12
 70
0
 10
5.213379898
 20
7.0861482481
 10
5.2128138304
 20
7.0957220336
 10
5.2121580829
 20
7.1063175859
 10
5.21138656
 20
7.1181250671
 10
5.2105814352
 20
7.1296748248
 10
5.2098804293
 20
7.1390270274
 10
5.2092964607
 20
7.1462474166
 10
5.2087203152
 20
7.1523812697
 10
5.2080347181
 20
7.1583500193
 10
5.207250528
 20
7.1634627691
 10
5.2064670694
 20
7.1667600002
 10
5.2060647305
 20
7.1677141754
  0
LINE
  5
49D
100
AcDbEntity
  8
0
100
AcDbLine
 62
7
  6
CONTINUOUS
 10
5.2138093483
 20
7.0788900179
 11
5.213379898
 21
7.0861482481
  0
LWPOLYLINE
  5
49E
100
AcDbEntity
  8
0
100
AcDbPolyline
 62
7
  6
CONTINUOUS
 90
5
 70
0
 10
5.1074458501
 20
7.1336606593
 10
5.106493839
 20
7.1375469771
 10
5.1055933481
 20
7.1407920764
 10
5.1046664416
 20
7.1435875066
 10
5.1037109172
 20
7.1459394354
  0
LINE
  5
49F
100
AcDbEntity
  8
0
100
AcDbLine
 62
7
  6
CONTINUOUS
 10
5.1026579395
 20
7.0188869071
 11
5.1030632576
 21
7.0170880859
  0
LINE
  5
4A0
100
AcDbEntity
  8
0
100
AcDbLine
 62
7
  6
CONTINUOUS
 10
5.102911136
 20
7.017640583
 11
5.1027574613
 21
7.0183478747
  0
LWPOLYLINE
  5
4A1
100
AcDbEntity
  8
0
100
AcDbPolyline
 62
7
  6
CONTINUOUS
 90
10
 70
0
 10
5.1027574613
 20
7.0183478747
 10
5.1025821748
 20
7.0193324919
 10
5.1023832832
 20
7.0206781974
 10
5.1021595993
 20
7.0224753739
 10
5.1019145321
 20
7.0247872307
 10
5.1016429761
 20
7.0277579508
 10
5.1013466366
 20
7.0314801531
 10
5.1010593424
 20
7.0355792446
 10
5.1008123709
 20
7.0395149095
 10
5.1005867289
 20
7.0433462364
  0
LWPOLYLINE
  5
4A2
100
AcDbEntity
  8
0
100
AcDbPolyline
 62
7
  6
CONTINUOUS
 90
9
 70
0
 10
5.1157236485
 20
7.0861482481
 10
5.1147056373
 20
7.0934224285
 10
5.1137546549
 20
7.0997943499
 10
5.1128321168
 20
7.1056252198
 10
5.1117751195
 20
7.1119441961
 10
5.1105824737
 20
7.1185927512
 10
5.1094661615
 20
7.1243509741
 10
5.1084770797
 20
7.1290860912
 10
5.1074458501
 20
7.1336606593
  0
LINE
  5
4A3
100
AcDbEntity
  8
0
100
AcDbLine
 62
7
  6
CONTINUOUS
 10
5.3344515028
 20
6.5152821064
 11
5.345662768
 21
7.1575750552
  0
LWPOLYLINE
  5
4A4
100
AcDbEntity
  8
0
100
AcDbPolyline
 62
7
  6
CONTINUOUS
 90
3
 70
0
 10
5.1391611485
 20
7.0244457181
 10
5.1393361462
 20
7.0244859229
 10
5.1398292552
 20
7.0250290097
  0
LINE
  5
4A5
100
AcDbEntity
  8
0
100
AcDbLine
 62
7
  6
CONTINUOUS
 10
5.1036548921
 20
7.0165852334
 11
5.1033396072
 21
7.0165322894
  0
LINE
  5
4A6
100
AcDbEntity
  8
0
100
AcDbLine
 62
7
  6
CONTINUOUS
 10
5.1033396072
 20
7.0165322894
 11
5.102911136
 21
7.017640583
  0
LWPOLYLINE
  5
4A7
100
AcDbEntity
  8
0
100
AcDbPolyline
 62
7
  6
CONTINUOUS
 90
12
 70
0
 10
5.365723648
 20
7.0861482481
 10
5.3662897156
 20
7.0765744627
 10
5.3669454631
 20
7.0659789105
 10
5.3677169861
 20
7.0541714293
 10
5.3685221109
 20
7.0426216716
 10
5.3692231167
 20
7.0332694689
 10
5.3698070853
 20
7.0260490797
 10
5.3703832308
 20
7.0199152265
 10
5.371068828
 20
7.0139464769
 10
5.371853018
 20
7.008833727
 10
5.3726364766
 20
7.0055364961
 10
5.3730388167
 20
7.0045823188
  0
LWPOLYLINE
  5
4A8
100
AcDbEntity
  8
0
100
AcDbPolyline
 62
7
  6
CONTINUOUS
 90
12
 70
0
 10
5.369629898
 20
7.0861482481
 10
5.3690638304
 20
7.0957220336
 10
5.3684080829
 20
7.1063175859
 10
5.36763656
 20
7.1181250671
 10
5.3668314352
 20
7.1296748248
 10
5.3661304293
 20
7.1390270274
 10
5.3655464607
 20
7.1462474166
 10
5.3649703152
 20
7.1523812697
 10
5.3642847181
 20
7.1583500193
 10
5.363500528
 20
7.1634627691
 10
5.3627170694
 20
7.1667600002
 10
5.3623147305
 20
7.1677141754
  0
LWPOLYLINE
  5
4A9
100
AcDbEntity
  8
0
100
AcDbPolyline
 62
7
  6
CONTINUOUS
 90
12
 70
0
 10
5.396973648
 20
7.0861482481
 10
5.3975397156
 20
7.0765744627
 10
5.3981954631
 20
7.0659789105
 10
5.3989669861
 20
7.0541714293
 10
5.3997721109
 20
7.0426216716
 10
5.4004731167
 20
7.0332694689
 10
5.4010570853
 20
7.0260490797
 10
5.4016332308
 20
7.0199152265
 10
5.402318828
 20
7.0139464769
 10
5.403103018
 20
7.008833727
 10
5.4038864766
 20
7.0055364961
 10
5.4042888167
 20
7.0045823188
  0
LWPOLYLINE
  5
4AA
100
AcDbEntity
  8
0
100
AcDbPolyline
 62
7
  6
CONTINUOUS
 90
12
 70
0
 10
5.400879898
 20
7.0861482481
 10
5.4003138304
 20
7.0957220336
 10
5.3996580829
 20
7.1063175859
 10
5.39888656
 20
7.1181250671
 10
5.3980814352
 20
7.1296748248
 10
5.3973804293
 20
7.1390270274
 10
5.3967964607
 20
7.1462474166
 10
5.3962203152
 20
7.1523812697
 10
5.3955347181
 20
7.1583500193
 10
5.394750528
 20
7.1634627691
 10
5.3939670694
 20
7.1667600002
 10
5.3935647305
 20
7.1677141754
  0
LWPOLYLINE
  5
4AB
100
AcDbEntity
  8
0
100
AcDbPolyline
 62
7
  6
CONTINUOUS
 90
12
 70
0
 10
5.428223648
 20
7.0861482481
 10
5.4287897156
 20
7.0765744627
 10
5.4294454631
 20
7.0659789105
 10
5.4302169861
 20
7.0541714293
 10
5.4310221109
 20
7.0426216716
 10
5.4317231167
 20
7.0332694689
 10
5.4323070853
 20
7.0260490797
 10
5.4328832308
 20
7.0199152265
 10
5.433568828
 20
7.0139464769
 10
5.434353018
 20
7.008833727
 10
5.4351364766
 20
7.0055364961
 10
5.4355388167
 20
7.0045823188
  0
LWPOLYLINE
  5
4AC
100
AcDbEntity
  8
0
100
AcDbPolyline
 62
7
  6
CONTINUOUS
 90
12
 70
0
 10
5.432129898
 20
7.0861482481
 10
5.4315638304
 20
7.0957220336
 10
5.4309080829
 20
7.1063175859
 10
5.43013656
 20
7.1181250671
 10
5.4293314352
 20
7.1296748248
 10
5.4286304293
 20
7.1390270274
 10
5.4280464607
 20
7.1462474166
 10
5.4274703152
 20
7.1523812697
 10
5.4267847181
 20
7.1583500193
 10
5.426000528
 20
7.1634627691
 10
5.4252170694
 20
7.1667600002
 10
5.4248147305
 20
7.1677141754
  0
LINE
  5
4AD
100
AcDbEntity
  8
0
100
AcDbLine
 62
7
  6
CONTINUOUS
 10
5.4653770433
 20
7.095644675
 11
5.4656293376
 21
7.0861482481
  0
LWPOLYLINE
  5
4AE
100
AcDbEntity
  8
0
100
AcDbPolyline
 62
7
  6
CONTINUOUS
 90
7
 70
0
 10
5.465629338
 20
7.0861482481
 10
5.4658605909
 20
7.077298313
 10
5.4661268275
 20
7.0673992913
 10
5.466433985
 20
7.0563497325
 10
5.4667613213
 20
7.0450566712
 10
5.4670439326
 20
7.0357510426
 10
5.4672861487
 20
7.0281654918
  0
LINE
  5
4AF
100
AcDbEntity
  8
0
100
AcDbLine
 62
7
  6
CONTINUOUS
 10
5.4672861485
 20
7.0281654921
 11
5.4672861485
 21
7.0041482481
  0
LWPOLYLINE
  5
4B0
100
AcDbEntity
  8
0
100
AcDbPolyline
 62
7
  6
CONTINUOUS
 90
18
 70
0
 10
5.4672861495
 20
7.0861482481
 10
5.4672874335
 20
7.0940096557
 10
5.4673086059
 20
7.1023703694
 10
5.4674156151
 20
7.1116930437
 10
5.4677410972
 20
7.1219435662
 10
5.4683533954
 20
7.1315930076
 10
5.4691865982
 20
7.1399264957
 10
5.4702111484
 20
7.1474461607
 10
5.4714142478
 20
7.1544835676
 10
5.472793179
 20
7.1612569659
 10
5.474357383
 20
7.1679443183
 10
5.4761275263
 20
7.1747033038
 10
5.4781377273
 20
7.1816931028
 10
5.4804386239
 20
7.1890899813
 10
5.4831167893
 20
7.1971463061
 10
5.486280024
 20
7.2061389795
 10
5.4900487687
 20
7.2163539459
 10
5.4945504835
 20
7.2280833777
  0
LINE
  5
4B1
100
AcDbEntity
  8
0
100
AcDbLine
 62
7
  6
CONTINUOUS
 10
5.1235361485
 20
7.0041482481
 11
5.1274423985
 21
7.0041482481
  0
LINE
  5
4B2
100
AcDbEntity
  8
0
100
AcDbLine
 62
7
  6
CONTINUOUS
 10
5.1547861485
 20
7.0041482481
 11
5.1586923985
 21
7.0041482481
  0
LINE
  5
4B3
100
AcDbEntity
  8
0
100
AcDbLine
 62
7
  6
CONTINUOUS
 10
5.1860361485
 20
7.0041482481
 11
5.1899423985
 21
7.0041482481
  0
LINE
  5
4B4
100
AcDbEntity
  8
0
100
AcDbLine
 62
7
  6
CONTINUOUS
 10
5.3429845557
 20
7.0041482481
 11
5.3461923985
 21
7.0041482481
  0
LINE
  5
4B5
100
AcDbEntity
  8
0
100
AcDbLine
 62
7
  6
CONTINUOUS
 10
5.3735361485
 20
7.0041482481
 11
5.3774423985
 21
7.0041482481
  0
LINE
  5
4B6
100
AcDbEntity
  8
0
100
AcDbLine
 62
7
  6
CONTINUOUS
 10
5.4047861485
 20
7.0041482481
 11
5.4086923985
 21
7.0041482481
  0
LINE
  5
4B7
100
AcDbEntity
  8
0
100
AcDbLine
 62
7
  6
CONTINUOUS
 10
5.4360361485
 20
7.0041482481
 11
5.4399423985
 21
7.0041482481
  0
LINE
  5
4B8
100
AcDbEntity
  8
0
100
AcDbLine
 62
7
  6
CONTINUOUS
 10
5.1079111485
 20
7.0244457181
 11
5.1114918197
 21
7.0244457181
  0
LINE
  5
4B9
100
AcDbEntity
  8
0
100
AcDbLine
 62
7
  6
CONTINUOUS
 10
5.1391611485
 20
7.0244457181
 11
5.1427418197
 21
7.0244457181
  0
LINE
  5
4BA
100
AcDbEntity
  8
0
100
AcDbLine
 62
7
  6
CONTINUOUS
 10
5.1704111485
 20
7.0244457181
 11
5.1739918359
 21
7.0244457181
  0
LINE
  5
4BB
100
AcDbEntity
  8
0
100
AcDbLine
 62
7
  6
CONTINUOUS
 10
5.2016611485
 20
7.0244457181
 11
5.2052418197
 21
7.0244457181
  0
LINE
  5
4BC
100
AcDbEntity
  8
0
100
AcDbLine
 62
7
  6
CONTINUOUS
 10
5.3579111485
 20
7.0244457181
 11
5.3614918197
 21
7.0244457181
  0
LINE
  5
4BD
100
AcDbEntity
  8
0
100
AcDbLine
 62
7
  6
CONTINUOUS
 10
5.3891611485
 20
7.0244457181
 11
5.3927418197
 21
7.0244457181
  0
LINE
  5
4BE
100
AcDbEntity
  8
0
100
AcDbLine
 62
7
  6
CONTINUOUS
 10
5.4204111485
 20
7.0244457181
 11
5.4239918197
 21
7.0244457181
  0
LINE
  5
4BF
100
AcDbEntity
  8
0
100
AcDbLine
 62
7
  6
CONTINUOUS
 10
5.4516611488
 20
7.0244457181
 11
5.4552418197
 21
7.0244457181
  0
LINE
  5
4C0
100
AcDbEntity
  8
AXIS
100
AcDbLine
 62
7
  6
CENTER
 10
5.0276726912
 20
7.0861482481
 11
5.7925786223
 21
7.0861482481
  0
LINE
  5
4C1
100
AcDbEntity
  8
0
100
AcDbLine
 62
7
  6
CONTINUOUS
 10
5.0922861485
 20
7.0275857481
 11
5.1033396072
 21
7.0165322894
  0
LWPOLYLINE
  5
4C2
100
AcDbEntity
  8
0
100
AcDbPolyline
 62
7
  6
CONTINUOUS
 90
3
 70
0
 10
5.1230388173
 20
7.0045823188
 10
5.1232977748
 20
7.00425034
 10
5.1235370717
 20
7.0041482481
  0
LWPOLYLINE
  5
4C3
100
AcDbEntity
  8
0
100
AcDbPolyline
 62
7
  6
CONTINUOUS
 90
3
 70
0
 10
5.1542888167
 20
7.0045823188
 10
5.1545477742
 20
7.00425034
 10
5.1547870711
 20
7.0041482481
  0
LINE
  5
4C4
100
AcDbEntity
  8
0
100
AcDbLine
 62
7
  6
CONTINUOUS
 10
5.1030632576
 20
7.0170880859
 11
5.1035136803
 21
7.0164732409
  0
LWPOLYLINE
  5
4C5
100
AcDbEntity
  8
0
100
AcDbPolyline
 62
7
  6
CONTINUOUS
 90
3
 70
0
 10
5.1424011552
 20
7.0250306562
 10
5.1425235664
 20
7.0248388389
 10
5.1430682567
 20
7.024444223
  0
LWPOLYLINE
  5
4C6
100
AcDbEntity
  8
0
100
AcDbPolyline
 62
7
  6
CONTINUOUS
 90
5
 70
0
 10
5.1025247804
 20
7.148159486
 10
5.1028331171
 20
7.1476505187
 10
5.1030931047
 20
7.1471843468
 10
5.1033048092
 20
7.146779665
 10
5.1035482721
 20
7.146286307
  0
LWPOLYLINE
  5
4C7
100
AcDbEntity
  8
0
100
AcDbPolyline
 62
7
  6
CONTINUOUS
 90
11
 70
0
 10
5.1028636087
 20
7.1475928888
 10
5.102640514
 20
7.1479702125
 10
5.1023933808
 20
7.1483593322
 10
5.1021258451
 20
7.1487461439
 10
5.1018323938
 20
7.1491289237
 10
5.101509178
 20
7.1495001263
 10
5.1011562749
 20
7.1498457836
 10
5.1007691546
 20
7.1501545658
 10
5.1003474613
 20
7.1504097907
 10
5.0998864215
 20
7.1505921514
 10
5.0993844967
 20
7.1506751401
  0
LWPOLYLINE
  5
4C8
100
AcDbEntity
  8
0
100
AcDbPolyline
 62
7
  6
CONTINUOUS
 90
4
 70
0
 10
5.173652207
 20
7.0250288518
 10
5.1767817616
 20
7.0196554911
 10
5.1812062504
 20
7.0120470077
 10
5.1855412075
 20
7.0045824472
  0
LWPOLYLINE
  5
4C9
100
AcDbEntity
  8
0
100
AcDbPolyline
 62
7
  6
CONTINUOUS
 90
4
 70
0
 10
5.1111520979
 20
7.025029039
 10
5.1144910178
 20
7.0192959319
 10
5.118935299
 20
7.0116528205
 10
5.1230412732
 20
7.0045823339
  0
LWPOLYLINE
  5
4CA
100
AcDbEntity
  8
0
100
AcDbPolyline
 62
7
  6
CONTINUOUS
 90
4
 70
0
 10
5.1424020979
 20
7.025029039
 10
5.1457410178
 20
7.0192959319
 10
5.150185299
 20
7.0116528205
 10
5.1542912732
 20
7.0045823339
  0
LWPOLYLINE
  5
4CB
100
AcDbEntity
  8
0
100
AcDbPolyline
 62
7
  6
CONTINUOUS
 90
4
 70
0
 10
5.1242014906
 20
7.1472673863
 10
5.1209737153
 20
7.1528095126
 10
5.1166741394
 20
7.1602032947
 10
5.1135698457
 20
7.1655478342
  0
LWPOLYLINE
  5
4CC
100
AcDbEntity
  8
0
100
AcDbPolyline
 62
7
  6
CONTINUOUS
 90
15
 70
0
 10
5.0964362261
 20
7.1477719351
 10
5.0974604884
 20
7.1458034038
 10
5.0985295362
 20
7.1412126765
 10
5.0995818229
 20
7.1342033527
 10
5.1005917192
 20
7.1250966604
 10
5.1016454492
 20
7.1142138313
 10
5.1027318351
 20
7.1019488242
 10
5.1037758448
 20
7.0891087792
 10
5.1047928223
 20
7.076181706
 10
5.1058608572
 20
7.0636237522
 10
5.1069392173
 20
7.0520165961
 10
5.1079679481
 20
7.0419993031
 10
5.1089942406
 20
7.0339994417
 10
5.110071188
 20
7.0282318115
 10
5.1111514185
 20
7.0250302046
  0
LWPOLYLINE
  5
4CD
100
AcDbEntity
  8
0
100
AcDbPolyline
 62
7
  6
CONTINUOUS
 90
5
 70
0
 10
5.1035731271
 20
7.1462296126
 10
5.1034204793
 20
7.1465438983
 10
5.1032565208
 20
7.1468686132
 10
5.1030679278
 20
7.147225746
 10
5.1028636087
 20
7.1475928888
  0
LINE
  5
4CE
100
AcDbEntity
  8
0
100
AcDbLine
 62
7
  6
CONTINUOUS
 10
5.1037109361
 20
7.145935412
 11
5.1035482721
 21
7.146286307
  0
LWPOLYLINE
  5
4CF
100
AcDbEntity
  8
0
100
AcDbPolyline
 62
7
  6
CONTINUOUS
 90
16
 70
0
 10
5.1242042955
 20
7.1472674169
 10
5.1247267604
 20
7.1460377275
 10
5.1258083097
 20
7.1415699209
 10
5.1268673034
 20
7.1346407313
 10
5.1278820509
 20
7.1256376404
 10
5.1289334316
 20
7.1148127622
 10
5.130020553
 20
7.1026147004
 10
5.1310520915
 20
7.089934868
 10
5.1320501659
 20
7.0772590296
 10
5.1331018252
 20
7.0647809086
 10
5.1341691887
 20
7.0531981113
 10
5.1351762414
 20
7.0432350063
 10
5.1361799071
 20
7.0350686007
 10
5.1372524285
 20
7.02893989
 10
5.138320946
 20
7.0253632318
 10
5.1391611485
 20
7.0244457181
  0
LWPOLYLINE
  5
4D0
100
AcDbEntity
  8
0
100
AcDbPolyline
 62
7
  6
CONTINUOUS
 90
9
 70
0
 10
5.1135693198
 20
7.1655473069
 10
5.1137397558
 20
7.1651398124
 10
5.1139429724
 20
7.1643583827
 10
5.1141704259
 20
7.1631123918
 10
5.1144239541
 20
7.1612738427
 10
5.1147050277
 20
7.1586799985
 10
5.1150160109
 20
7.1551367889
 10
5.1153554954
 20
7.1504062882
 10
5.1157236485
 20
7.1441310042
  0
LWPOLYLINE
  5
4D1
100
AcDbEntity
  8
0
100
AcDbPolyline
 62
7
  6
CONTINUOUS
 90
16
 70
0
 10
5.1554542552
 20
7.1472674866
 10
5.1561022408
 20
7.1456500625
 10
5.1571649605
 20
7.1409902167
 10
5.1582207531
 20
7.1338196289
 10
5.1592570248
 20
7.1244077369
 10
5.1603513716
 20
7.1129979368
 10
5.161469581
 20
7.100256147
 10
5.1625160904
 20
7.0872040516
 10
5.1635314042
 20
7.0744104022
 10
5.1646040477
 20
7.0619548141
 10
5.1656899342
 20
7.0504078782
 10
5.1667057708
 20
7.0407401419
 10
5.167733905
 20
7.0330642428
 10
5.168822838
 20
7.0276053869
 10
5.169890049
 20
7.0248016673
 10
5.1704111485
 20
7.0244457181
  0
LWPOLYLINE
  5
4D2
100
AcDbEntity
  8
0
100
AcDbPolyline
 62
7
  6
CONTINUOUS
 90
16
 70
0
 10
5.1867042552
 20
7.1472674866
 10
5.187714025
 20
7.1443405245
 10
5.1887999259
 20
7.1386842275
 10
5.1898283232
 20
7.1307979011
 10
5.1908422593
 20
7.1210201195
 10
5.1919136432
 20
7.1095588465
 10
5.192984887
 20
7.0970423091
 10
5.1940068209
 20
7.0841261549
 10
5.1950385782
 20
7.07131453
 10
5.196117902
 20
7.0590597261
 10
5.1971712033
 20
7.0480781704
 10
5.1981827662
 20
7.0388317799
 10
5.199231148
 20
7.0315935136
 10
5.2003201502
 20
7.0267274841
 10
5.2013545769
 20
7.0245691563
 10
5.2016611485
 20
7.0244457181
  0
LWPOLYLINE
  5
4D3
100
AcDbEntity
  8
0
100
AcDbPolyline
 62
7
  6
CONTINUOUS
 90
14
 70
0
 10
5.3453005226
 20
7.136822031
 10
5.3461463051
 20
7.1301934126
 10
5.3471529749
 20
7.1203952716
 10
5.3482202837
 20
7.1089256559
 10
5.3492817015
 20
7.0964666889
 10
5.3502831326
 20
7.0837901946
 10
5.3513038795
 20
7.071132696
 10
5.3523815708
 20
7.0589113848
 10
5.353432111
 20
7.0479697709
 10
5.354437427
 20
7.0387937871
 10
5.3554790858
 20
7.0316052082
 10
5.3565596009
 20
7.0267622218
 10
5.3575955714
 20
7.0245765125
 10
5.3579111485
 20
7.0244457181
  0
LINE
  5
4D4
100
AcDbEntity
  8
0
100
AcDbLine
 62
7
  6
CONTINUOUS
 10
5.463014517
 20
7.154167312
 11
5.463157337
 21
7.1527716107
  0
LINE
  5
4D5
100
AcDbEntity
  8
0
100
AcDbLine
 62
7
  6
CONTINUOUS
 10
5.4633041011
 20
7.1510310002
 11
5.4630951013
 21
7.1534028814
  0
LINE
  5
4D6
100
AcDbEntity
  8
0
100
AcDbLine
 62
7
  6
CONTINUOUS
 10
5.463157337
 20
7.1527716107
 11
5.4633148849
 21
7.1508751614
  0
LWPOLYLINE
  5
4D7
100
AcDbEntity
  8
0
100
AcDbPolyline
 62
7
  6
CONTINUOUS
 90
6
 70
0
 10
5.4672861485
 20
7.0281654921
 10
5.4667399806
 20
7.0350719837
 10
5.4661011906
 20
7.0436939395
 10
5.4653663569
 20
7.0542733912
 10
5.464606582
 20
7.0659019641
 10
5.4639466873
 20
7.0765626544
  0
LWPOLYLINE
  5
4D8
100
AcDbEntity
  8
0
100
AcDbPolyline
 62
7
  6
CONTINUOUS
 90
8
 70
0
 10
5.4605814352
 20
7.1296748248
 10
5.4598804293
 20
7.1390270274
 10
5.4592964607
 20
7.1462474166
 10
5.4587203152
 20
7.1523812697
 10
5.4580347181
 20
7.1583500193
 10
5.457250528
 20
7.1634627691
 10
5.4564670694
 20
7.1667600002
 10
5.4560647305
 20
7.1677141754
  0
LINE
  5
4D9
100
AcDbEntity
  8
0
100
AcDbLine
 62
7
  6
CONTINUOUS
 10
5.4633041011
 20
7.1510310002
 11
5.4634871935
 21
7.1483671537
  0
LWPOLYLINE
  5
4DA
100
AcDbEntity
  8
0
100
AcDbPolyline
 62
7
  6
CONTINUOUS
 90
4
 70
0
 10
5.4628138304
 20
7.0957220336
 10
5.4621580829
 20
7.1063175859
 10
5.46138656
 20
7.1181250671
 10
5.4605814352
 20
7.1296748248
  0
LWPOLYLINE
  5
4DB
100
AcDbEntity
  8
0
100
AcDbPolyline
 62
7
  6
CONTINUOUS
 90
13
 70
0
 10
5.4594736485
 20
7.0861482481
 10
5.4600141121
 20
7.0769982102
 10
5.4606460026
 20
7.0667609448
 10
5.4613730502
 20
7.0555685307
 10
5.4621583555
 20
7.0442049236
 10
5.4628440594
 20
7.0349372357
 10
5.4634317196
 20
7.0275356063
 10
5.463975677
 20
7.0214874572
 10
5.4645974205
 20
7.0157207341
 10
5.4653212251
 20
7.0104629736
 10
5.4660716865
 20
7.006638104
 10
5.4667251293
 20
7.0046992702
 10
5.4667891989
 20
7.0045823212
  0
LINE
  5
4DC
100
AcDbEntity
  8
0
100
AcDbLine
 62
7
  6
CONTINUOUS
 10
5.4639466873
 20
7.0765626544
 11
5.4628138304
 21
7.0957220336
  0
LINE
  5
4DD
100
AcDbEntity
  8
0
100
AcDbLine
 62
7
  6
CONTINUOUS
 10
5.4634875305
 20
7.1483802274
 11
5.463674623
 21
7.1450950883
  0
LINE
  5
4DE
100
AcDbEntity
  8
0
100
AcDbLine
 62
7
  6
CONTINUOUS
 10
5.4637424297
 20
7.1436841859
 11
5.4636460689
 21
7.145612345
  0
LINE
  5
4DF
100
AcDbEntity
  8
0
100
AcDbLine
 62
7
  6
CONTINUOUS
 10
5.463674623
 20
7.1450950883
 11
5.463878051
 21
7.140862216
  0
LINE
  5
4E0
100
AcDbEntity
  8
0
100
AcDbLine
 62
7
  6
CONTINUOUS
 10
5.4639089696
 20
7.1401100069
 11
5.4638155456
 21
7.1421628114
  0
LINE
  5
4E1
100
AcDbEntity
  8
0
100
AcDbLine
 62
7
  6
CONTINUOUS
 10
5.463878051
 20
7.140862216
 11
5.4641098251
 21
7.1351964333
  0
LINE
  5
4E2
100
AcDbEntity
  8
0
100
AcDbLine
 62
7
  6
CONTINUOUS
 10
5.4640981313
 20
7.1354618918
 11
5.4641998088
 21
7.1327868596
  0
LINE
  5
4E3
100
AcDbEntity
  8
0
100
AcDbLine
 62
7
  6
CONTINUOUS
 10
5.4643255853
 20
7.1293929818
 11
5.4641644423
 21
7.1337173167
  0
LWPOLYLINE
  5
4E4
100
AcDbEntity
  8
0
100
AcDbPolyline
 62
7
  6
CONTINUOUS
 90
5
 70
0
 10
5.4643255853
 20
7.1293929818
 10
5.4644652928
 20
7.125457479
 10
5.4646182262
 20
7.1209458819
 10
5.4647876535
 20
7.1157150372
 10
5.4649740707
 20
7.1096923719
  0
LWPOLYLINE
  5
4E5
100
AcDbEntity
  8
0
100
AcDbPolyline
 62
7
  6
CONTINUOUS
 90
4
 70
0
 10
5.4650717498
 20
7.1065029769
 10
5.4647859362
 20
7.1157554871
 10
5.4645293498
 20
7.1235241999
 10
5.4643047382
 20
7.1299178924
  0
LINE
  5
4E6
100
AcDbEntity
  8
0
100
AcDbLine
 62
7
  6
CONTINUOUS
 10
5.4649910461
 20
7.1091155618
 11
5.465157174
 21
7.1034706601
  0
LINE
  5
4E7
100
AcDbEntity
  8
0
100
AcDbLine
 62
7
  6
CONTINUOUS
 10
5.4650717498
 20
7.1065029769
 11
5.4653770433
 21
7.095644675
  0
LINE
  5
4E8
100
AcDbEntity
  8
0
100
AcDbLine
 62
7
  6
CONTINUOUS
 10
5.4945504825
 20
7.2322628451
 11
5.4945504825
 21
7.2280833778
  0
LINE
  5
4E9
100
AcDbEntity
  8
0
100
AcDbLine
 62
7
  6
CONTINUOUS
 10
5.4945504825
 20
6.9442131184
 11
5.4945504825
 21
6.9400336511
  0
LINE
  5
4EA
100
AcDbEntity
  8
0
100
AcDbLine
 62
7
  6
CONTINUOUS
 10
5.5219528155
 20
7.2779646023
 11
5.5219528155
 21
6.8943318929
  0
LINE
  5
4EB
100
AcDbEntity
  8
0
100
AcDbLine
 62
7
  6
CONTINUOUS
 10
5.0987080833
 20
7.1505962857
 11
5.0993760328
 21
7.150675129
  0
LWPOLYLINE
  5
4EC
100
AcDbEntity
  8
0
100
AcDbPolyline
 62
7
  6
CONTINUOUS
 90
4
 70
0
 10
5.0993844967
 20
7.1506751401
 10
5.0988351703
 20
7.1506272788
 10
5.0982345138
 20
7.1504096633
 10
5.0975752964
 20
7.1499704666
  0
LINE
  5
4ED
100
AcDbEntity
  8
0
100
AcDbLine
 62
7
  6
CONTINUOUS
 10
3.8554614223
 20
7.1452033663
 11
3.8291262054
 21
7.1452033663
  0
LINE
  5
4EE
100
AcDbEntity
  8
0
100
AcDbLine
 62
7
  6
CONTINUOUS
 10
5.4399423985
 20
7.1478507781
 11
5.4363617226
 21
7.1478507781
  0
LINE
  5
4EF
100
AcDbEntity
  8
0
100
AcDbLine
 62
7
  6
CONTINUOUS
 10
5.4086923985
 20
7.1478507781
 11
5.4051117226
 21
7.1478507781
  0
LINE
  5
4F0
100
AcDbEntity
  8
0
100
AcDbLine
 62
7
  6
CONTINUOUS
 10
5.3774423985
 20
7.1478507781
 11
5.3738617226
 21
7.1478507781
  0
LINE
  5
4F1
100
AcDbEntity
  8
0
100
AcDbLine
 62
7
  6
CONTINUOUS
 10
5.3461923985
 20
7.1478507781
 11
5.3454930301
 21
7.1478507781
  0
LINE
  5
4F2
100
AcDbEntity
  8
0
100
AcDbLine
 62
7
  6
CONTINUOUS
 10
5.1899423985
 20
7.1478507781
 11
5.1863617226
 21
7.1478507781
  0
LINE
  5
4F3
100
AcDbEntity
  8
0
100
AcDbLine
 62
7
  6
CONTINUOUS
 10
5.1586923985
 20
7.1478507781
 11
5.1551117226
 21
7.1478507781
  0
LINE
  5
4F4
100
AcDbEntity
  8
0
100
AcDbLine
 62
7
  6
CONTINUOUS
 10
5.1274423985
 20
7.1478507781
 11
5.1238617188
 21
7.1478507781
  0
LINE
  5
4F5
100
AcDbEntity
  8
0
100
AcDbLine
 62
7
  6
CONTINUOUS
 10
5.0961919611
 20
7.1478507784
 11
5.095426179
 21
7.1478507784
  0
LINE
  5
4F6
100
AcDbEntity
  8
0
100
AcDbLine
 62
7
  6
CONTINUOUS
 10
5.1391611485
 20
7.1681482481
 11
5.1430673985
 21
7.1681482481
  0
LINE
  5
4F7
100
AcDbEntity
  8
0
100
AcDbLine
 62
7
  6
CONTINUOUS
 10
5.1704111485
 20
7.1681482481
 11
5.1743173985
 21
7.1681482481
  0
LINE
  5
4F8
100
AcDbEntity
  8
0
100
AcDbLine
 62
7
  6
CONTINUOUS
 10
5.2016611485
 20
7.1681482481
 11
5.2055673985
 21
7.1681482481
  0
LINE
  5
4F9
100
AcDbEntity
  8
0
100
AcDbLine
 62
7
  6
CONTINUOUS
 10
5.3579111485
 20
7.1681482481
 11
5.3618173985
 21
7.1681482481
  0
LINE
  5
4FA
100
AcDbEntity
  8
0
100
AcDbLine
 62
7
  6
CONTINUOUS
 10
5.3891611485
 20
7.1681482481
 11
5.3930673985
 21
7.1681482481
  0
LINE
  5
4FB
100
AcDbEntity
  8
0
100
AcDbLine
 62
7
  6
CONTINUOUS
 10
5.4204111485
 20
7.1681482481
 11
5.4243173985
 21
7.1681482481
  0
LINE
  5
4FC
100
AcDbEntity
  8
0
100
AcDbLine
 62
7
  6
CONTINUOUS
 10
5.4516611485
 20
7.1681482481
 11
5.4555673985
 21
7.1681482481
  0
LWPOLYLINE
  5
4FD
100
AcDbEntity
  8
0
100
AcDbPolyline
 62
7
  6
CONTINUOUS
 90
13
 70
0
 10
5.1274414753
 20
7.0041482481
 10
5.1271138027
 20
7.004340648
 10
5.1265104809
 20
7.005635201
 10
5.1258011827
 20
7.0086110692
 10
5.1249979872
 20
7.0137712308
 10
5.12424183
 20
7.02038267
 10
5.1236113582
 20
7.0272540052
 10
5.123050602
 20
7.0342843643
 10
5.1224165553
 20
7.0427851744
 10
5.1216802498
 20
7.0533286445
 10
5.1208920271
 20
7.065343468
 10
5.1202131964
 20
7.0762898107
 10
5.1196298988
 20
7.0861482481
  0
LWPOLYLINE
  5
4FE
100
AcDbEntity
  8
0
100
AcDbPolyline
 62
7
  6
CONTINUOUS
 90
13
 70
0
 10
5.1586914749
 20
7.0041482481
 10
5.1583638023
 20
7.004340648
 10
5.1577604805
 20
7.005635201
 10
5.1570511823
 20
7.0086110692
 10
5.1562479866
 20
7.0137712308
 10
5.1554918294
 20
7.02038267
 10
5.1548613576
 20
7.0272540052
 10
5.1543006014
 20
7.0342843643
 10
5.1536665546
 20
7.0427851744
 10
5.1529302491
 20
7.0533286445
 10
5.1521420263
 20
7.065343468
 10
5.1514631956
 20
7.0762898107
 10
5.150879898
 20
7.0861482481
  0
LWPOLYLINE
  5
4FF
100
AcDbEntity
  8
0
100
AcDbPolyline
 62
7
  6
CONTINUOUS
 90
13
 70
0
 10
5.1899414749
 20
7.0041482481
 10
5.1896138023
 20
7.004340648
 10
5.1890104805
 20
7.005635201
 10
5.1883011823
 20
7.0086110692
 10
5.1874979866
 20
7.0137712308
 10
5.1867418294
 20
7.02038267
 10
5.1861113576
 20
7.0272540052
 10
5.1855506014
 20
7.0342843643
 10
5.1849165546
 20
7.0427851744
 10
5.1841802491
 20
7.0533286445
 10
5.1833920263
 20
7.065343468
 10
5.1827131956
 20
7.0762898107
 10
5.182129898
 20
7.0861482481
  0
LWPOLYLINE
  5
500
100
AcDbEntity
  8
0
100
AcDbPolyline
 62
7
  6
CONTINUOUS
 90
3
 70
0
 10
5.1855387507
 20
7.0045824321
 10
5.1857977742
 20
7.00425034
 10
5.1860370711
 20
7.0041482481
  0
LWPOLYLINE
  5
501
100
AcDbEntity
  8
0
100
AcDbPolyline
 62
7
  6
CONTINUOUS
 90
3
 70
0
 10
5.1435647305
 20
7.1677141754
 10
5.1433057718
 20
7.1680461562
 10
5.1430664749
 20
7.1681482481
  0
LWPOLYLINE
  5
502
100
AcDbEntity
  8
0
100
AcDbPolyline
 62
7
  6
CONTINUOUS
 90
3
 70
0
 10
5.2049020979
 20
7.025029039
 10
5.2082410178
 20
7.0192959319
 10
5.2126371636
 20
7.011735602
  0
LWPOLYLINE
  5
503
100
AcDbEntity
  8
0
100
AcDbPolyline
 62
7
  6
CONTINUOUS
 90
4
 70
0
 10
5.1554514499
 20
7.147267456
 10
5.1521739613
 20
7.1528950041
 10
5.1477299047
 20
7.1605375636
 10
5.143562275
 20
7.1677141603
  0
LWPOLYLINE
  5
504
100
AcDbEntity
  8
0
100
AcDbPolyline
 62
7
  6
CONTINUOUS
 90
4
 70
0
 10
5.1867014499
 20
7.147267456
 10
5.1834239613
 20
7.1528950041
 10
5.1789799047
 20
7.1605375636
 10
5.174812275
 20
7.1677141603
  0
LINE
  5
505
100
AcDbEntity
  8
0
100
AcDbLine
 62
7
  6
CONTINUOUS
 10
5.2150886806
 20
7.1521829184
 11
5.2117894403
 21
7.1578555897
  0
LINE
  5
506
100
AcDbEntity
  8
0
100
AcDbLine
 62
7
  6
CONTINUOUS
 10
5.2117894403
 20
7.1578555897
 11
5.206062275
 21
7.1677141603
  0
LINE
  5
507
100
AcDbEntity
  8
0
100
AcDbLine
 62
7
  6
CONTINUOUS
 10
5.4628875871
 20
7.1551468773
 11
5.463014517
 21
7.154167312
  0
LINE
  5
508
100
AcDbEntity
  8
0
100
AcDbLine
 62
7
  6
CONTINUOUS
 10
5.4630951013
 20
7.1534028814
 11
5.4628706412
 21
7.1552481914
  0
LWPOLYLINE
  5
509
100
AcDbEntity
  8
0
100
AcDbPolyline
 62
7
  6
CONTINUOUS
 90
8
 70
0
 10
5.0993760328
 20
7.150675129
 10
5.1000043456
 20
7.1505551836
 10
5.1005506656
 20
7.1502978887
 10
5.1010404105
 20
7.1499461832
 10
5.1014770618
 20
7.1495342176
 10
5.1018575253
 20
7.1490983367
 10
5.1022233536
 20
7.1486111132
 10
5.1025247804
 20
7.148159486
  0
LINE
  5
50A
100
AcDbEntity
  8
0
100
AcDbLine
 62
7
  6
CONTINUOUS
 10
5.0961928106
 20
7.1478522584
 11
5.0964362261
 21
7.1477719351
  0
LWPOLYLINE
  5
50B
100
AcDbEntity
  8
0
100
AcDbPolyline
 62
7
  6
CONTINUOUS
 90
16
 70
0
 10
5.1274433264
 20
7.1478523948
 10
5.1278799897
 20
7.1475982924
 10
5.1289335171
 20
7.1450521818
 10
5.130018943
 20
7.1398391671
 10
5.1310550524
 20
7.1323732667
 10
5.1320492831
 20
7.1230388249
 10
5.1331019973
 20
7.1119694576
 10
5.1341683224
 20
7.099736585
 10
5.1351774178
 20
7.0871542542
 10
5.1361798603
 20
7.07450486
 10
5.1372523144
 20
7.0620420674
 10
5.1383217664
 20
7.050665725
 10
5.1393342328
 20
7.0409637298
 10
5.1403717599
 20
7.0331800269
 10
5.141460973
 20
7.0276694929
 10
5.1424011552
 20
7.0250306562
  0
LWPOLYLINE
  5
50C
100
AcDbEntity
  8
0
100
AcDbPolyline
 62
7
  6
CONTINUOUS
 90
6
 70
0
 10
5.3461914749
 20
7.0041482481
 10
5.3458638023
 20
7.004340648
 10
5.3452604805
 20
7.005635201
 10
5.3445511823
 20
7.0086110692
 10
5.3437479866
 20
7.0137712308
 10
5.3432465377
 20
7.0181556356
  0
LWPOLYLINE
  5
50D
100
AcDbEntity
  8
0
100
AcDbPolyline
 62
7
  6
CONTINUOUS
 90
13
 70
0
 10
5.3774414749
 20
7.0041482481
 10
5.3771138023
 20
7.004340648
 10
5.3765104805
 20
7.005635201
 10
5.3758011823
 20
7.0086110692
 10
5.3749979866
 20
7.0137712308
 10
5.3742418294
 20
7.02038267
 10
5.3736113576
 20
7.0272540052
 10
5.3730506014
 20
7.0342843643
 10
5.3724165546
 20
7.0427851744
 10
5.3716802491
 20
7.0533286445
 10
5.3708920263
 20
7.065343468
 10
5.3702131956
 20
7.0762898107
 10
5.369629898
 20
7.0861482481
  0
LWPOLYLINE
  5
50E
100
AcDbEntity
  8
0
100
AcDbPolyline
 62
7
  6
CONTINUOUS
 90
13
 70
0
 10
5.4086914749
 20
7.0041482481
 10
5.4083638023
 20
7.004340648
 10
5.4077604805
 20
7.005635201
 10
5.4070511823
 20
7.0086110692
 10
5.4062479866
 20
7.0137712308
 10
5.4054918294
 20
7.02038267
 10
5.4048613576
 20
7.0272540052
 10
5.4043006014
 20
7.0342843643
 10
5.4036665546
 20
7.0427851744
 10
5.4029302491
 20
7.0533286445
 10
5.4021420263
 20
7.065343468
 10
5.4014631956
 20
7.0762898107
 10
5.400879898
 20
7.0861482481
  0
LWPOLYLINE
  5
50F
100
AcDbEntity
  8
0
100
AcDbPolyline
 62
7
  6
CONTINUOUS
 90
13
 70
0
 10
5.1391620711
 20
7.1681482481
 10
5.1394897438
 20
7.1679558482
 10
5.1400930656
 20
7.1666612953
 10
5.1408023638
 20
7.1636854271
 10
5.1416055594
 20
7.1585252654
 10
5.1423617166
 20
7.1519138263
 10
5.1429921885
 20
7.1450424911
 10
5.1435529446
 20
7.1380121319
 10
5.1441869914
 20
7.1295113219
 10
5.144923297
 20
7.1189678518
 10
5.1457115197
 20
7.1069530283
 10
5.1463903504
 20
7.0960066856
 10
5.146973648
 20
7.0861482481
  0
LWPOLYLINE
  5
510
100
AcDbEntity
  8
0
100
AcDbPolyline
 62
7
  6
CONTINUOUS
 90
13
 70
0
 10
5.4399414749
 20
7.0041482481
 10
5.4396138023
 20
7.004340648
 10
5.4390104805
 20
7.005635201
 10
5.4383011823
 20
7.0086110692
 10
5.4374979866
 20
7.0137712308
 10
5.4367418294
 20
7.02038267
 10
5.4361113576
 20
7.0272540052
 10
5.4355506014
 20
7.0342843643
 10
5.4349165546
 20
7.0427851744
 10
5.4341802491
 20
7.0533286445
 10
5.4333920263
 20
7.065343468
 10
5.4327131956
 20
7.0762898107
 10
5.432129898
 20
7.0861482481
  0
LWPOLYLINE
  5
511
100
AcDbEntity
  8
0
100
AcDbPolyline
 62
7
  6
CONTINUOUS
 90
16
 70
0
 10
5.1586929359
 20
7.1478517144
 10
5.1592554747
 20
7.1474340791
 10
5.1603515198
 20
7.1444158853
 10
5.1614685034
 20
7.1385982368
 10
5.1625173175
 20
7.1305183253
 10
5.1635313744
 20
7.1206819563
 10
5.1646039104
 20
7.1091774012
 10
5.1656909529
 20
7.0964422386
 10
5.1667037251
 20
7.0835808268
 10
5.1677340106
 20
7.0708506888
 10
5.1688215654
 20
7.0585316528
 10
5.1698929403
 20
7.0474593238
 10
5.1709048438
 20
7.0382839859
 10
5.1719502218
 20
7.0312424146
 10
5.1730411485
 20
7.0265138737
 10
5.1736509276
 20
7.0250310467
  0
LWPOLYLINE
  5
512
100
AcDbEntity
  8
0
100
AcDbPolyline
 62
7
  6
CONTINUOUS
 90
16
 70
0
 10
5.1899420059
 20
7.1478500942
 10
5.1908421509
 20
7.1468008218
 10
5.1919136005
 20
7.1430700273
 10
5.192985523
 20
7.1367964489
 10
5.1940050118
 20
7.1283260784
 10
5.1950386943
 20
7.1180088783
 10
5.1961167895
 20
7.1061938583
 10
5.1971738145
 20
7.093565496
 10
5.1981806686
 20
7.0806946441
 10
5.1992312302
 20
7.0679532895
 10
5.200318531
 20
7.0558814714
 10
5.201357572
 20
7.0453742155
 10
5.2023570347
 20
7.0367217381
 10
5.2034206688
 20
7.0300779761
 10
5.2045041708
 20
7.0258984989
 10
5.2049012323
 20
7.0250305239
  0
LWPOLYLINE
  5
513
100
AcDbEntity
  8
0
100
AcDbPolyline
 62
7
  6
CONTINUOUS
 90
3
 70
0
 10
5.1748147305
 20
7.1677141754
 10
5.1745557718
 20
7.1680461562
 10
5.1743164749
 20
7.1681482481
  0
LWPOLYLINE
  5
514
100
AcDbEntity
  8
0
100
AcDbPolyline
 62
7
  6
CONTINUOUS
 90
3
 70
0
 10
5.2060647305
 20
7.1677141754
 10
5.2058057718
 20
7.1680461562
 10
5.2055664749
 20
7.1681482481
  0
LWPOLYLINE
  5
515
100
AcDbEntity
  8
0
100
AcDbPolyline
 62
7
  6
CONTINUOUS
 90
3
 70
0
 10
5.3730388167
 20
7.0045823188
 10
5.3732977742
 20
7.00425034
 10
5.3735370711
 20
7.0041482481
  0
LWPOLYLINE
  5
516
100
AcDbEntity
  8
0
100
AcDbPolyline
 62
7
  6
CONTINUOUS
 90
4
 70
0
 10
5.3611520979
 20
7.025029039
 10
5.3644910178
 20
7.0192959319
 10
5.368935299
 20
7.0116528205
 10
5.3730412732
 20
7.0045823339
  0
LWPOLYLINE
  5
517
100
AcDbEntity
  8
0
100
AcDbPolyline
 62
7
  6
CONTINUOUS
 90
4
 70
0
 10
5.3924020979
 20
7.025029039
 10
5.3957410178
 20
7.0192959319
 10
5.400185299
 20
7.0116528205
 10
5.4042912732
 20
7.0045823339
  0
LWPOLYLINE
  5
518
100
AcDbEntity
  8
0
100
AcDbPolyline
 62
7
  6
CONTINUOUS
 90
16
 70
0
 10
5.3742042552
 20
7.1472674866
 10
5.3744494336
 20
7.1467697911
 10
5.3755128289
 20
7.1430446812
 10
5.3765857126
 20
7.1367463108
 10
5.3776214924
 20
7.1281300095
 10
5.3786676272
 20
7.1176379645
 10
5.3797652614
 20
7.1055794106
 10
5.3808205673
 20
7.0928665989
 10
5.3818275377
 20
7.0800500027
 10
5.3828841422
 20
7.0672682888
 10
5.3839896334
 20
7.0550804514
 10
5.385039548
 20
7.0445069409
 10
5.3860622257
 20
7.0359052882
 10
5.387140739
 20
7.029457923
 10
5.3882255294
 20
7.0255791633
 10
5.3891611485
 20
7.0244457181
  0
LINE
  5
519
100
AcDbEntity
  8
0
100
AcDbLine
 62
7
  6
CONTINUOUS
 10
5.4672861485
 20
7.0041482481
 11
5.4945504817
 21
6.940033653
  0
LWPOLYLINE
  5
51A
100
AcDbEntity
  8
0
100
AcDbPolyline
 62
7
  6
CONTINUOUS
 90
16
 70
0
 10
5.4054542552
 20
7.1472674866
 10
5.4059967395
 20
7.1459783233
 10
5.4070759028
 20
7.1414760317
 10
5.4081276653
 20
7.1345596144
 10
5.4091447293
 20
7.1255138123
 10
5.4101870258
 20
7.1147741674
 10
5.4112791767
 20
7.1025133882
 10
5.4123339561
 20
7.0895291643
 10
5.4133566842
 20
7.0765575312
 10
5.4144310813
 20
7.0638864995
 10
5.4155139585
 20
7.0522147943
 10
5.4165328675
 20
7.0422657451
 10
5.4175609552
 20
7.0341772411
 10
5.4186612532
 20
7.0282504765
 10
5.4197456175
 20
7.0250245595
 10
5.4204111485
 20
7.0244457181
  0
LWPOLYLINE
  5
51B
100
AcDbEntity
  8
0
100
AcDbPolyline
 62
7
  6
CONTINUOUS
 90
18
 70
0
 10
5.4945504835
 20
6.9442131186
 10
5.4900066899
 20
6.9560543056
 10
5.4862070935
 20
6.9663599018
 10
5.4830253018
 20
6.9754177342
 10
5.4803407641
 20
6.9835108906
 10
5.4780417787
 20
6.9909242335
 10
5.4760392674
 20
6.9979147844
 10
5.4742811429
 20
7.0046600712
 10
5.4727313343
 20
7.0113225416
 10
5.4713673575
 20
7.0180634757
 10
5.4701793321
 20
7.0250574562
 10
5.4691688311
 20
7.0325202278
 10
5.4683467366
 20
7.0407848331
 10
5.467741273
 20
7.0503491359
 10
5.4674152284
 20
7.0606235846
 10
5.4673084652
 20
7.0699522023
 10
5.4672874246
 20
7.0783005522
 10
5.4672861495
 20
7.0861482481
  0
LWPOLYLINE
  5
51C
100
AcDbEntity
  8
0
100
AcDbPolyline
 62
7
  6
CONTINUOUS
 90
16
 70
0
 10
5.4367042552
 20
7.1472674866
 10
5.4376519571
 20
7.1445853206
 10
5.4387351403
 20
7.1390961698
 10
5.4397665977
 20
7.1313388452
 10
5.4407798126
 20
7.1216595787
 10
5.4418392557
 20
7.1103859589
 10
5.4429256905
 20
7.0977666112
 10
5.4439513278
 20
7.0848352171
 10
5.4449753279
 20
7.0720689145
 10
5.4460555297
 20
7.059738639
 10
5.4471237032
 20
7.0485518794
 10
5.4481486262
 20
7.0391115726
 10
5.4491856824
 20
7.0318535582
 10
5.4502828841
 20
7.0268512817
 10
5.4513271378
 20
7.0245922312
 10
5.4516611488
 20
7.0244457181
  0
LINE
  5
51D
100
AcDbEntity
  8
0
100
AcDbLine
 62
7
  6
CONTINUOUS
 10
5.4626671889
 20
7.1562586048
 11
5.4627648326
 21
7.1558585839
  0
LWPOLYLINE
  5
51E
100
AcDbEntity
  8
0
100
AcDbPolyline
 62
7
  6
CONTINUOUS
 90
3
 70
0
 10
5.4628706412
 20
7.1552481914
 10
5.4626669794
 20
7.1562559976
 10
5.4625613702
 20
7.156526586
  0
LINE
  5
51F
100
AcDbEntity
  8
0
100
AcDbLine
 62
7
  6
CONTINUOUS
 10
5.4627648326
 20
7.1558585839
 11
5.4628875871
 21
7.1551468773
  0
LWPOLYLINE
  5
520
100
AcDbEntity
  8
0
100
AcDbPolyline
 62
7
  6
CONTINUOUS
 90
19
 70
0
 10
5.7172861485
 20
7.0861482481
 10
5.7154945202
 20
7.1256879556
 10
5.7103232745
 20
7.1632797616
 10
5.7027742542
 20
7.1957576515
 10
5.6919194894
 20
7.2276852582
 10
5.6789100325
 20
7.2551200058
 10
5.6652601011
 20
7.2764381382
 10
5.6506198144
 20
7.2934369685
 10
5.633889639
 20
7.3071609619
 10
5.6174705414
 20
7.3157170671
 10
5.6031323142
 20
7.3196392864
 10
5.5883570672
 20
7.320407437
 10
5.5734284115
 20
7.3178407909
 10
5.558518427
 20
7.3118093161
 10
5.5442001051
 20
7.3024872762
 10
5.5306827147
 20
7.290084276
 10
5.5192195969
 20
7.2763131764
 10
5.5070696484
 20
7.2576174663
 10
5.4945504826
 20
7.2322628451
  0
LWPOLYLINE
  5
521
100
AcDbEntity
  8
0
100
AcDbPolyline
 62
7
  6
CONTINUOUS
 90
16
 70
0
 10
5.3774432589
 20
7.1478522772
 10
5.3776195559
 20
7.1478097796
 10
5.3786677338
 20
7.1459341834
 10
5.3797639738
 20
7.1412980966
 10
5.380823432
 20
7.1342695148
 10
5.3818256155
 20
7.1252542961
 10
5.382884241
 20
7.1143345726
 10
5.3839881119
 20
7.1018748618
 10
5.3850420837
 20
7.0889003079
 10
5.3860618097
 20
7.0759483146
 10
5.3871408502
 20
7.0632871305
 10
5.3882256186
 20
7.0516440582
 10
5.389250724
 20
7.0417038765
 10
5.3902792205
 20
7.0337708787
 10
5.3913630986
 20
7.0280586958
 10
5.3924013496
 20
7.0250303227
  0
LWPOLYLINE
  5
522
100
AcDbEntity
  8
0
100
AcDbPolyline
 62
7
  6
CONTINUOUS
 90
13
 70
0
 10
5.1704120711
 20
7.1681482481
 10
5.1707397438
 20
7.1679558482
 10
5.1713430656
 20
7.1666612953
 10
5.1720523638
 20
7.1636854271
 10
5.1728555594
 20
7.1585252654
 10
5.1736117166
 20
7.1519138263
 10
5.1742421885
 20
7.1450424911
 10
5.1748029446
 20
7.1380121319
 10
5.1754369914
 20
7.1295113219
 10
5.176173297
 20
7.1189678518
 10
5.1769615197
 20
7.1069530283
 10
5.1776403504
 20
7.0960066856
 10
5.178223648
 20
7.0861482481
  0
LWPOLYLINE
  5
523
100
AcDbEntity
  8
0
100
AcDbPolyline
 62
7
  6
CONTINUOUS
 90
13
 70
0
 10
5.2016620711
 20
7.1681482481
 10
5.2019897438
 20
7.1679558482
 10
5.2025930656
 20
7.1666612953
 10
5.2033023638
 20
7.1636854271
 10
5.2041055594
 20
7.1585252654
 10
5.2048617166
 20
7.1519138263
 10
5.2054921885
 20
7.1450424911
 10
5.2060529446
 20
7.1380121319
 10
5.2066869914
 20
7.1295113219
 10
5.207423297
 20
7.1189678518
 10
5.2082115197
 20
7.1069530283
 10
5.2088903504
 20
7.0960066856
 10
5.209473648
 20
7.0861482481
  0
LINE
  5
524
100
AcDbEntity
  8
0
100
AcDbLine
 62
7
  6
CONTINUOUS
 10
5.4667891989
 20
7.0045823212
 11
5.4672861485
 21
7.0041482481
  0
LWPOLYLINE
  5
525
100
AcDbEntity
  8
0
100
AcDbPolyline
 62
7
  6
CONTINUOUS
 90
16
 70
0
 10
5.3461921796
 20
7.1478503967
 10
5.347152997
 20
7.1466573323
 10
5.3482200756
 20
7.1428030186
 10
5.3492827046
 20
7.1364604617
 10
5.3502811669
 20
7.1280801915
 10
5.3513039917
 20
7.1178482055
 10
5.3523804113
 20
7.106037492
 10
5.3534347774
 20
7.0934286222
 10
5.3544353434
 20
7.0806356637
 10
5.3554791675
 20
7.0679771964
 10
5.3565579764
 20
7.0559934939
 10
5.3575985939
 20
7.0454604203
 10
5.3586053097
 20
7.0367346559
 10
5.35967358
 20
7.0300633115
 10
5.3607547555
 20
7.0258969517
 10
5.3611512355
 20
7.0250305185
  0
LWPOLYLINE
  5
526
100
AcDbEntity
  8
0
100
AcDbPolyline
 62
7
  6
CONTINUOUS
 90
3
 70
0
 10
5.4042888167
 20
7.0045823188
 10
5.4045477742
 20
7.00425034
 10
5.4047870711
 20
7.0041482481
  0
LWPOLYLINE
  5
527
100
AcDbEntity
  8
0
100
AcDbPolyline
 62
7
  6
CONTINUOUS
 90
3
 70
0
 10
5.4355388167
 20
7.0045823188
 10
5.4357977742
 20
7.00425034
 10
5.4360370711
 20
7.0041482481
  0
LWPOLYLINE
  5
528
100
AcDbEntity
  8
0
100
AcDbPolyline
 62
7
  6
CONTINUOUS
 90
3
 70
0
 10
5.3623147305
 20
7.1677141754
 10
5.3620557718
 20
7.1680461562
 10
5.3618164749
 20
7.1681482481
  0
LWPOLYLINE
  5
529
100
AcDbEntity
  8
0
100
AcDbPolyline
 62
7
  6
CONTINUOUS
 90
4
 70
0
 10
5.5219528155
 20
6.8943318935
 10
5.5122440808
 20
6.9083489938
 10
5.5030650103
 20
6.9248925946
 10
5.4945504835
 20
6.9442131186
  0
LWPOLYLINE
  5
52A
100
AcDbEntity
  8
0
100
AcDbPolyline
 62
7
  6
CONTINUOUS
 90
4
 70
0
 10
5.4236520979
 20
7.025029039
 10
5.4269910178
 20
7.0192959319
 10
5.431435299
 20
7.0116528205
 10
5.4355412732
 20
7.0045823339
  0
LWPOLYLINE
  5
52B
100
AcDbEntity
  8
0
100
AcDbPolyline
 62
7
  6
CONTINUOUS
 90
4
 70
0
 10
5.3742014499
 20
7.147267456
 10
5.3709239613
 20
7.1528950041
 10
5.3664799047
 20
7.1605375636
 10
5.362312275
 20
7.1677141603
  0
LWPOLYLINE
  5
52C
100
AcDbEntity
  8
0
100
AcDbPolyline
 62
7
  6
CONTINUOUS
 90
4
 70
0
 10
5.4549020978
 20
7.0250290391
 10
5.4582410178
 20
7.0192959319
 10
5.462685299
 20
7.0116528205
 10
5.4667912732
 20
7.0045823339
  0
LWPOLYLINE
  5
52D
100
AcDbEntity
  8
0
100
AcDbPolyline
 62
7
  6
CONTINUOUS
 90
4
 70
0
 10
5.4054514499
 20
7.147267456
 10
5.4021739613
 20
7.1528950041
 10
5.3977299047
 20
7.1605375636
 10
5.393562275
 20
7.1677141603
  0
LWPOLYLINE
  5
52E
100
AcDbEntity
  8
0
100
AcDbPolyline
 62
7
  6
CONTINUOUS
 90
4
 70
0
 10
5.4367014499
 20
7.147267456
 10
5.4334239613
 20
7.1528950041
 10
5.4289799047
 20
7.1605375636
 10
5.424812275
 20
7.1677141603
  0
LWPOLYLINE
  5
52F
100
AcDbEntity
  8
0
100
AcDbPolyline
 62
7
  6
CONTINUOUS
 90
21
 70
0
 10
5.4945504826
 20
6.9400336512
 10
5.5066273595
 20
6.9154555562
 10
5.5192499679
 20
6.8959423078
 10
5.5317166016
 20
6.8811263646
 10
5.5472485001
 20
6.867514804
 10
5.5647908991
 20
6.8575134569
 10
5.5814681714
 20
6.8526526124
 10
5.5965892429
 20
6.8519121639
 10
5.6102774181
 20
6.8542135961
 10
5.6239660023
 20
6.8594252603
 10
5.6382720363
 20
6.8682098581
 10
5.652118947
 20
6.8803672226
 10
5.662495813
 20
6.8922365947
 10
5.6724907209
 20
6.9063805605
 10
5.6825829801
 20
6.9240774931
 10
5.6929047012
 20
6.9470830631
 10
5.7004813197
 20
6.9687725752
 10
5.707226568
 20
6.9940305844
 10
5.7122991904
 20
7.0206071465
 10
5.7159140298
 20
7.0515166902
 10
5.7172861485
 20
7.0861482481
  0
LWPOLYLINE
  5
530
100
AcDbEntity
  8
0
100
AcDbPolyline
 62
7
  6
CONTINUOUS
 90
13
 70
0
 10
5.3579120711
 20
7.1681482481
 10
5.3582397438
 20
7.1679558482
 10
5.3588430656
 20
7.1666612953
 10
5.3595523638
 20
7.1636854271
 10
5.3603555594
 20
7.1585252654
 10
5.3611117166
 20
7.1519138263
 10
5.3617421885
 20
7.1450424911
 10
5.3623029446
 20
7.1380121319
 10
5.3629369914
 20
7.1295113219
 10
5.363673297
 20
7.1189678518
 10
5.3644615197
 20
7.1069530283
 10
5.3651403504
 20
7.0960066856
 10
5.365723648
 20
7.0861482481
  0
LWPOLYLINE
  5
531
100
AcDbEntity
  8
0
100
AcDbPolyline
 62
7
  6
CONTINUOUS
 90
13
 70
0
 10
5.3891620711
 20
7.1681482481
 10
5.3894897438
 20
7.1679558482
 10
5.3900930656
 20
7.1666612953
 10
5.3908023638
 20
7.1636854271
 10
5.3916055594
 20
7.1585252654
 10
5.3923617166
 20
7.1519138263
 10
5.3929921885
 20
7.1450424911
 10
5.3935529446
 20
7.1380121319
 10
5.3941869914
 20
7.1295113219
 10
5.394923297
 20
7.1189678518
 10
5.3957115197
 20
7.1069530283
 10
5.3963903504
 20
7.0960066856
 10
5.396973648
 20
7.0861482481
  0
LWPOLYLINE
  5
532
100
AcDbEntity
  8
0
100
AcDbPolyline
 62
7
  6
CONTINUOUS
 90
13
 70
0
 10
5.4204120711
 20
7.1681482481
 10
5.4207397438
 20
7.1679558482
 10
5.4213430656
 20
7.1666612953
 10
5.4220523638
 20
7.1636854271
 10
5.4228555594
 20
7.1585252654
 10
5.4236117166
 20
7.1519138263
 10
5.4242421885
 20
7.1450424911
 10
5.4248029446
 20
7.1380121319
 10
5.4254369914
 20
7.1295113219
 10
5.426173297
 20
7.1189678518
 10
5.4269615197
 20
7.1069530283
 10
5.4276403504
 20
7.0960066856
 10
5.428223648
 20
7.0861482481
  0
LWPOLYLINE
  5
533
100
AcDbEntity
  8
0
100
AcDbPolyline
 62
7
  6
CONTINUOUS
 90
13
 70
0
 10
5.4516620711
 20
7.1681482481
 10
5.4519897438
 20
7.1679558482
 10
5.4525930656
 20
7.1666612953
 10
5.4533023638
 20
7.1636854271
 10
5.4541055594
 20
7.1585252654
 10
5.4548617166
 20
7.1519138263
 10
5.4554921885
 20
7.1450424911
 10
5.4560529446
 20
7.1380121319
 10
5.4566869914
 20
7.1295113219
 10
5.457423297
 20
7.1189678518
 10
5.4582115197
 20
7.1069530283
 10
5.4588903504
 20
7.0960066856
 10
5.459473648
 20
7.0861482481
  0
LWPOLYLINE
  5
534
100
AcDbEntity
  8
0
100
AcDbPolyline
 62
7
  6
CONTINUOUS
 90
16
 70
0
 10
5.4086932965
 20
7.1478523426
 10
5.4091427102
 20
7.1475834656
 10
5.4101871123
 20
7.1450392028
 10
5.4112775745
 20
7.1397873043
 10
5.4123367822
 20
7.1321030593
 10
5.4133560622
 20
7.1224674558
 10
5.4144312368
 20
7.1110982285
 10
5.4155136593
 20
7.0985932867
 10
5.4165324254
 20
7.0857904862
 10
5.4175610698
 20
7.0729165779
 10
5.4186605676
 20
7.0602908401
 10
5.4197477419
 20
7.0488968031
 10
5.4207709481
 20
7.039372454
 10
5.4218365252
 20
7.0318852679
 10
5.4229440891
 20
7.0268282484
 10
5.4236508
 20
7.0250312656
  0
LWPOLYLINE
  5
535
100
AcDbEntity
  8
0
100
AcDbPolyline
 62
7
  6
CONTINUOUS
 90
3
 70
0
 10
5.4360361485
 20
7.1478507781
 10
5.4365922725
 20
7.1474456207
 10
5.4367042552
 20
7.1472674866
  0
LWPOLYLINE
  5
536
100
AcDbEntity
  8
0
100
AcDbPolyline
 62
7
  6
CONTINUOUS
 90
16
 70
0
 10
5.4399419928
 20
7.1478500713
 10
5.4407795091
 20
7.1469394199
 10
5.4418393532
 20
7.1434099603
 10
5.442925873
 20
7.1372135324
 10
5.4439499725
 20
7.1288407587
 10
5.4449754541
 20
7.1186710917
 10
5.4460546469
 20
7.1069050907
 10
5.4471260461
 20
7.094160397
 10
5.4481464387
 20
7.0811270822
 10
5.4491857575
 20
7.068481352
 10
5.450281255
 20
7.0562776042
 10
5.4513302067
 20
7.0456372549
 10
5.4523349234
 20
7.0368878573
 10
5.4533876788
 20
7.0302454423
 10
5.4544505246
 20
7.02604377
 10
5.4549010892
 20
7.0250307696
  0
LINE
  5
537
100
AcDbEntity
  8
0
100
AcDbLine
 62
7
  6
CONTINUOUS
 10
5.4625613702
 20
7.156526586
 11
5.4624917311
 21
7.1566069616
  0
LINE
  5
538
100
AcDbEntity
  8
0
100
AcDbLine
 62
7
  6
CONTINUOUS
 10
5.462564358
 20
7.1565189308
 11
5.462567591
 21
7.1565148891
  0
LWPOLYLINE
  5
539
100
AcDbEntity
  8
0
100
AcDbPolyline
 62
7
  6
CONTINUOUS
 90
3
 70
0
 10
5.3935647305
 20
7.1677141754
 10
5.3933057718
 20
7.1680461562
 10
5.3930664749
 20
7.1681482481
  0
LWPOLYLINE
  5
53A
100
AcDbEntity
  8
0
100
AcDbPolyline
 62
7
  6
CONTINUOUS
 90
3
 70
0
 10
5.4248147305
 20
7.1677141754
 10
5.4245557718
 20
7.1680461562
 10
5.4243164749
 20
7.1681482481
  0
LWPOLYLINE
  5
53B
100
AcDbEntity
  8
0
100
AcDbPolyline
 62
7
  6
CONTINUOUS
 90
3
 70
0
 10
5.4560647305
 20
7.1677141754
 10
5.4558057718
 20
7.1680461562
 10
5.4555664749
 20
7.1681482481
  0
LINE
  5
53C
100
AcDbEntity
  8
0
100
AcDbLine
 62
7
  6
CONTINUOUS
 10
5.4625613702
 20
7.156526586
 11
5.456062275
 21
7.1677141603
  0
LINE
  5
53D
100
AcDbEntity
  8
0
100
AcDbLine
 62
7
  6
CONTINUOUS
 10
8.6197861366
 20
5.3341797442
 11
9.4859232558
 21
5.3341797442
  0
LINE
  5
53E
100
AcDbEntity
  8
0
100
AcDbLine
 62
7
  6
CONTINUOUS
 10
8.6197861366
 20
5.4129199017
 11
9.4859232558
 21
5.4129199017
  0
LINE
  5
53F
100
AcDbEntity
  8
0
100
AcDbLine
 62
7
  6
CONTINUOUS
 10
9.604033492
 20
5.4522899804
 11
9.5252933345
 21
5.4522899804
  0
LINE
  5
540
100
AcDbEntity
  8
0
100
AcDbLine
 62
7
  6
CONTINUOUS
 10
9.6827736495
 20
5.5310301379
 11
9.604033492
 21
5.5310301379
  0
LINE
  5
541
100
AcDbEntity
  8
0
100
AcDbLine
 62
7
  6
CONTINUOUS
 10
8.6197815235
 20
5.3341797442
 11
8.6197815235
 21
5.4129199017
  0
LINE
  5
542
100
AcDbEntity
  8
02___PRT_ALL_AXES
100
AcDbLine
 62
7
  6
CONTINUOUS
 10
9.6827736495
 20
5.7377309253
 11
9.7001420706
 21
5.7377309253
  0
LINE
  5
543
100
AcDbEntity
  8
0
100
AcDbLine
 62
7
  6
CONTINUOUS
 10
9.5252933345
 20
5.7524868308
 11
9.4596765366
 21
5.7524868308
  0
LINE
  5
544
100
AcDbEntity
  8
0
100
AcDbLine
 62
7
  6
CONTINUOUS
 10
8.698521681
 20
6.4365419489
 11
8.698521681
 21
6.5152821064
  0
LINE
  5
545
100
AcDbEntity
  8
0
100
AcDbLine
 62
7
  6
CONTINUOUS
 10
8.698521681
 20
6.5152821064
 11
8.7108913253
 21
7.2239385563
  0
LINE
  5
546
100
AcDbEntity
  8
02___PRT_ALL_AXES
100
AcDbLine
 62
7
  6
CONTINUOUS
 10
9.3851420706
 20
5.8422309253
 11
9.4465531771
 21
5.8422309253
  0
LINE
  5
547
100
AcDbEntity
  8
0
100
AcDbLine
 62
7
  6
CONTINUOUS
 10
9.6827736495
 20
5.9247309253
 11
9.5252933345
 21
5.9247309253
  0
LINE
  5
548
100
AcDbEntity
  8
02___PRT_ALL_AXES
100
AcDbLine
 62
7
  6
CENTER
 10
9.8907736495
 20
5.9247309253
 11
9.2677736495
 21
5.9247309253
  0
LWPOLYLINE
  5
549
100
AcDbEntity
  8
0
100
AcDbPolyline
 62
7
  6
CONTINUOUS
 90
17
 70
0
 10
9.010597142
 20
7.0940096557
 10
9.0117892255
 20
7.1023703694
 10
9.0139825401
 20
7.1116930437
 10
9.0172605056
 20
7.1219435662
 10
9.020971726
 20
7.1315930076
 10
9.0245112992
 20
7.1399264957
 10
9.0278645844
 20
7.1474461607
 10
9.0310622752
 20
7.1544835676
 10
9.0341342752
 20
7.1612569659
 10
9.0371133438
 20
7.1679443183
 10
9.0400299715
 20
7.1747033038
 10
9.0429131768
 20
7.1816931028
 10
9.0457895356
 20
7.1890899813
 10
9.0486959325
 20
7.1971463061
 10
9.0516458473
 20
7.2061389795
 10
9.0546136406
 20
7.2163539459
 10
9.0575252862
 20
7.2280833777
  0
LWPOLYLINE
  5
54A
100
AcDbEntity
  8
0
100
AcDbPolyline
 62
7
  6
CONTINUOUS
 90
4
 70
0
 10
9.0575252862
 20
7.2280833777
 10
9.0615205799
 20
7.2473932962
 10
9.0640186002
 20
7.2639341393
 10
9.0648891344
 20
7.2779646028
  0
LINE
  5
54B
100
AcDbEntity
  8
02___PRT_ALL_AXES
100
AcDbLine
 62
7
  6
CONTINUOUS
 10
9.3851420706
 20
6.0072309253
 11
9.4465531771
 21
6.0072309253
  0
LINE
  5
54C
100
AcDbEntity
  8
0
100
AcDbLine
 62
7
  6
CONTINUOUS
 10
8.9199783739
 20
6.370925151
 11
8.9199783739
 21
6.4365419489
  0
LINE
  5
54D
100
AcDbEntity
  8
0
100
AcDbLine
 62
7
  6
CONTINUOUS
 10
9.0102224684
 20
7.0861482481
 11
9.010597142
 21
7.0940096557
  0
LINE
  5
54E
100
AcDbEntity
  8
0
100
AcDbLine
 62
7
  6
CONTINUOUS
 10
9.4596765366
 20
6.0969750198
 11
9.5252933345
 21
6.0969750198
  0
LINE
  5
54F
100
AcDbEntity
  8
0
100
AcDbLine
 62
7
  6
CONTINUOUS
 10
9.4596765366
 20
5.7524868308
 11
9.4465531771
 21
5.7656101904
  0
LINE
  5
550
100
AcDbEntity
  8
02___PRT_ALL_AXES
100
AcDbLine
 62
7
  6
CONTINUOUS
 10
9.0097224684
 20
6.3357607637
 11
9.0097224684
 21
6.3578017915
  0
LINE
  5
551
100
AcDbEntity
  8
0
100
AcDbLine
 62
7
  6
CONTINUOUS
 10
9.0134823109
 20
5.3341797442
 11
9.0134823109
 21
5.4129199017
  0
LINE
  5
552
100
AcDbEntity
  8
AXIS
100
AcDbLine
 62
7
  6
CENTER
 10
9.0134823109
 20
5.2341797442
 11
9.0134823109
 21
5.5129199017
  0
LWPOLYLINE
  5
553
100
AcDbEntity
  8
0
100
AcDbPolyline
 62
7
  6
CONTINUOUS
 90
4
 70
0
 10
9.1269196506
 20
6.9442131186
 10
9.1229243569
 20
6.9249032001
 10
9.1204263366
 20
6.908362357
 10
9.1195558024
 20
6.8943318935
  0
LINE
  5
554
100
AcDbEntity
  8
02___PRT_ALL_AXES
100
AcDbLine
 62
7
  6
CONTINUOUS
 10
9.6827736495
 20
6.1117309253
 11
9.7001420706
 21
6.1117309253
  0
LINE
  5
555
100
AcDbEntity
  8
02___PRT_ALL_AXES
100
AcDbLine
 62
7
  6
CONTINUOUS
 10
9.3677736495
 20
5.8595993464
 11
9.3851420706
 21
5.8422309253
  0
LINE
  5
556
100
AcDbEntity
  8
0
100
AcDbLine
 62
7
  6
CONTINUOUS
 10
8.9331017335
 20
6.3578017915
 11
8.9199783739
 21
6.370925151
  0
LWPOLYLINE
  5
557
100
AcDbEntity
  8
0
100
AcDbPolyline
 62
7
  6
CONTINUOUS
 90
4
 70
0
 10
9.0648891344
 20
6.8943318935
 10
9.064020097
 20
6.9083489938
 10
9.0615225189
 20
6.9248925946
 10
9.0575252862
 20
6.9442131186
  0
LINE
  5
558
100
AcDbEntity
  8
0
100
AcDbLine
 62
7
  6
CONTINUOUS
 10
9.0648891354
 20
7.3189243091
 11
9.0648891354
 21
6.8533720435
  0
LINE
  5
559
100
AcDbEntity
  8
AXIS
100
AcDbLine
 62
7
  6
CENTER
 10
9.0922224684
 20
7.0861482481
 11
9.0922224684
 21
6.8149115366
  0
LINE
  5
55A
100
AcDbEntity
  8
0
100
AcDbLine
 62
7
  6
CONTINUOUS
 10
9.0922224684
 20
6.5152821064
 11
9.0922224684
 21
6.4365419489
  0
LINE
  5
55B
100
AcDbEntity
  8
AXIS
100
AcDbLine
 62
7
  6
CENTER
 10
9.0922224684
 20
7.0861482481
 11
9.0922224684
 21
7.3573849597
  0
LINE
  5
55C
100
AcDbEntity
  8
0
100
AcDbLine
 62
7
  6
CONTINUOUS
 10
9.1195558014
 20
6.8533721872
 11
9.1195558014
 21
7.3189244528
  0
LWPOLYLINE
  5
55D
100
AcDbEntity
  8
0
100
AcDbPolyline
 62
7
  6
CONTINUOUS
 90
18
 70
0
 10
9.1742224684
 20
7.0861482481
 10
9.1738477944
 20
7.0782868407
 10
9.1726557111
 20
7.0699261271
 10
9.1704623965
 20
7.0606034529
 10
9.1671844311
 20
7.0503529305
 10
9.1634732107
 20
7.0407034891
 10
9.1599336375
 20
7.0323700009
 10
9.1565803523
 20
7.0248503358
 10
9.1533826616
 20
7.0178129289
 10
9.1503106615
 20
7.0110395306
 10
9.1473315929
 20
7.0043521781
 10
9.1444149652
 20
6.9975931926
 10
9.1415317599
 20
6.9906033936
 10
9.1386554012
 20
6.9832065151
 10
9.1357490043
 20
6.9751501902
 10
9.1327990895
 20
6.9661575169
 10
9.1298312962
 20
6.9559425505
 10
9.1269196506
 20
6.9442131186
  0
LINE
  5
55E
100
AcDbEntity
  8
02___PRT_ALL_AXES
100
AcDbLine
 62
7
  6
CONTINUOUS
 10
9.0270908895
 20
6.3183923426
 11
9.0097224684
 21
6.3357607637
  0
LWPOLYLINE
  5
55F
100
AcDbEntity
  8
0
100
AcDbPolyline
 62
7
  6
CONTINUOUS
 90
3
 70
0
 10
9.0117843088
 20
7.0699522023
 10
9.0105958439
 20
7.0783005522
 10
9.0102224684
 20
7.0861482481
  0
LWPOLYLINE
  5
560
100
AcDbEntity
  8
0
100
AcDbPolyline
 62
7
  6
CONTINUOUS
 90
4
 70
0
 10
9.1195558024
 20
7.2779646028
 10
9.1204248398
 20
7.2639475025
 10
9.1229224179
 20
7.2474039017
 10
9.1269196506
 20
7.2280833777
  0
LINE
  5
561
100
AcDbEntity
  8
02___PRT_ALL_AXES
100
AcDbLine
 62
7
  6
CONTINUOUS
 10
9.1747224684
 20
6.3357607637
 11
9.1747224684
 21
6.3578017915
  0
LINE
  5
562
100
AcDbEntity
  8
02___PRT_ALL_AXES
100
AcDbLine
 62
7
  6
CONTINUOUS
 10
9.1573540473
 20
6.3183923426
 11
9.1747224684
 21
6.3357607637
  0
LINE
  5
563
100
AcDbEntity
  8
02___PRT_ALL_AXES
100
AcDbLine
 62
7
  6
CONTINUOUS
 10
9.0270926647
 20
6.3183923426
 11
9.157352272
 21
6.3183923426
  0
LINE
  5
564
100
AcDbEntity
  8
0
100
AcDbLine
 62
7
  6
CONTINUOUS
 10
9.5252933345
 20
6.3184317127
 11
9.604033492
 21
6.3184317127
  0
LINE
  5
565
100
AcDbEntity
  8
02___PRT_ALL_AXES
100
AcDbLine
 62
7
  6
CONTINUOUS
 10
9.0097224684
 20
6.3357607637
 11
9.1747224684
 21
6.3357607637
  0
LWPOLYLINE
  5
566
100
AcDbEntity
  8
0
100
AcDbPolyline
 62
7
  6
CONTINUOUS
 90
16
 70
0
 10
9.0575252862
 20
6.9442131186
 10
9.0545833682
 20
6.9560543056
 10
9.0515829294
 20
6.9663599018
 10
9.0486033627
 20
6.9754177342
 10
9.0456749936
 20
6.9835108906
 10
9.0427841823
 20
6.9909242335
 10
9.0398938429
 20
6.9979147844
 10
9.0369779538
 20
7.0046600712
 10
9.0340067102
 20
7.0113225416
 10
9.0309481966
 20
7.0180634757
 10
9.027770995
 20
7.0250574562
 10
9.0244455259
 20
7.0325202278
 10
9.0209384691
 20
7.0407848331
 10
9.0172618597
 20
7.0503491359
 10
9.0139769269
 20
7.0606235846
 10
9.0117843088
 20
7.0699522023
  0
LINE
  5
567
100
AcDbEntity
  8
0
100
AcDbLine
 62
7
  6
CONTINUOUS
 10
9.2644665629
 20
6.4365419489
 11
9.2644665629
 21
6.370925151
  0
LINE
  5
568
100
AcDbEntity
  8
0
100
AcDbLine
 62
7
  6
CONTINUOUS
 10
9.2644665629
 20
6.370925151
 11
9.2513432033
 21
6.3578017915
  0
LINE
  5
569
100
AcDbEntity
  8
0
100
AcDbLine
 62
7
  6
CONTINUOUS
 10
9.2513432033
 20
6.3578017915
 11
8.9331017335
 21
6.3578017915
  0
LINE
  5
56A
100
AcDbEntity
  8
0
100
AcDbLine
 62
7
  6
CONTINUOUS
 10
9.2644665629
 20
6.370925151
 11
8.9199783739
 21
6.370925151
  0
LINE
  5
56B
100
AcDbEntity
  8
0
100
AcDbLine
 62
7
  6
CONTINUOUS
 10
9.6827736495
 20
6.3971718702
 11
9.604033492
 21
6.3971718702
  0
LINE
  5
56C
100
AcDbEntity
  8
02___PRT_ALL_AXES
100
AcDbLine
 62
7
  6
CONTINUOUS
 10
9.3677736495
 20
5.8596011217
 11
9.3677736495
 21
5.989860729
  0
LINE
  5
56D
100
AcDbEntity
  8
0
100
AcDbLine
 62
7
  6
CONTINUOUS
 10
8.698521681
 20
6.4365419489
 11
9.5646634133
 21
6.4365419489
  0
LWPOLYLINE
  5
56E
100
AcDbEntity
  8
0
100
AcDbPolyline
 62
7
  6
CONTINUOUS
 90
18
 70
0
 10
9.1269196506
 20
7.2280833777
 10
9.1298615686
 20
7.2162421908
 10
9.1328620075
 20
7.2059365946
 10
9.1358415741
 20
7.1968787621
 10
9.1387699432
 20
7.1887856057
 10
9.1416607545
 20
7.1813722629
 10
9.1445510939
 20
7.174381712
 10
9.147466983
 20
7.1676364253
 10
9.1504382267
 20
7.1609739549
 10
9.1534967402
 20
7.1542330208
 10
9.1566739418
 20
7.1472390403
 10
9.159999411
 20
7.1397762689
 10
9.1635064678
 20
7.1315116636
 10
9.1671830772
 20
7.1219473608
 10
9.1704680101
 20
7.1116729121
 10
9.1726606282
 20
7.1023442942
 10
9.1738490932
 20
7.0939959442
 10
9.1742224684
 20
7.0861482481
  0
LINE
  5
56F
100
AcDbEntity
  8
02___PRT_ALL_AXES
100
AcDbLine
 62
7
  6
CONTINUOUS
 10
9.3851420706
 20
5.8422309253
 11
9.3851420706
 21
6.0072309253
  0
LINE
  5
570
100
AcDbEntity
  8
0
100
AcDbLine
 62
7
  6
CONTINUOUS
 10
9.4465531771
 20
5.7656101904
 11
9.4465531771
 21
6.0838516602
  0
LINE
  5
571
100
AcDbEntity
  8
0
100
AcDbLine
 62
7
  6
CONTINUOUS
 10
9.4859232558
 20
6.5152821064
 11
8.698521681
 21
6.5152821064
  0
LINE
  5
572
100
AcDbEntity
  8
0
100
AcDbLine
 62
7
  6
CONTINUOUS
 10
9.4859232558
 20
6.5152821064
 11
9.5646634133
 21
6.5152821064
  0
LINE
  5
573
100
AcDbEntity
  8
0
100
AcDbLine
 62
7
  6
CONTINUOUS
 10
9.4859232558
 20
6.5152821064
 11
9.4735536115
 21
7.2239385563
  0
LINE
  5
574
100
AcDbEntity
  8
0
100
AcDbLine
 62
7
  6
CONTINUOUS
 10
9.4596765366
 20
5.7524868308
 11
9.4596765366
 21
6.0969750198
  0
LINE
  5
575
100
AcDbEntity
  8
0
100
AcDbLine
 62
7
  6
CONTINUOUS
 10
9.4859232558
 20
5.3341797442
 11
9.4859232558
 21
5.4129199017
  0
LINE
  5
576
100
AcDbEntity
  8
0
100
AcDbLine
 62
7
  6
CONTINUOUS
 10
9.5252933345
 20
6.3184317127
 11
9.5252933345
 21
5.4522899804
  0
LINE
  5
577
100
AcDbEntity
  8
0
100
AcDbLine
 62
7
  6
CONTINUOUS
 10
9.5646634133
 20
6.5152821064
 11
9.5646634133
 21
6.4365419489
  0
LINE
  5
578
100
AcDbEntity
  8
0
100
AcDbLine
 62
7
  6
CONTINUOUS
 10
9.4465531771
 20
6.0838516602
 11
9.4596765366
 21
6.0969750198
  0
LINE
  5
579
100
AcDbEntity
  8
02___PRT_ALL_AXES
100
AcDbLine
 62
7
  6
CONTINUOUS
 10
9.3677736495
 20
5.9898625043
 11
9.3851420706
 21
6.0072309253
  0
LINE
  5
57A
100
AcDbEntity
  8
0
100
AcDbLine
 62
7
  6
CONTINUOUS
 10
9.604033492
 20
5.9247309253
 11
9.604033492
 21
5.4522899804
  0
LINE
  5
57B
100
AcDbEntity
  8
0
100
AcDbLine
 62
7
  6
CONTINUOUS
 10
9.604033492
 20
5.9247309253
 11
9.604033492
 21
6.3971718702
  0
LINE
  5
57C
100
AcDbEntity
  8
0
100
AcDbLine
 62
7
  6
CONTINUOUS
 10
9.6827736495
 20
5.531034751
 11
9.6827736495
 21
6.3971718702
  0
LINE
  5
57D
100
AcDbEntity
  8
02___PRT_ALL_AXES
100
AcDbLine
 62
7
  6
CONTINUOUS
 10
9.7001420706
 20
5.7377309253
 11
9.7001420706
 21
6.1117309253
  0
LINE
  5
57E
100
AcDbEntity
  8
0
100
AcDbLine
 62
7
  6
CONTINUOUS
 10
9.0922224684
 20
6.8517732481
 11
9.1195558014
 21
6.8533725416
  0
LINE
  5
57F
100
AcDbEntity
  8
0
100
AcDbLine
 62
7
  6
CONTINUOUS
 10
9.0648891354
 20
6.8533725416
 11
9.0922224684
 21
6.8517732481
  0
LWPOLYLINE
  5
580
100
AcDbEntity
  8
0
100
AcDbPolyline
 62
7
  6
CONTINUOUS
 90
9
 70
0
 10
9.7907736495
 20
5.9247309253
 10
9.7907549283
 20
5.9289904412
 10
9.7906981952
 20
5.9332493905
 10
9.7906017768
 20
5.9375074558
 10
9.7904629883
 20
5.9417649577
 10
9.7902783472
 20
5.9460213193
 10
9.7900436479
 20
5.9502779648
 10
9.7897542607
 20
5.9545353086
 10
9.7894052075
 20
5.9587945912
  0
LWPOLYLINE
  5
581
100
AcDbEntity
  8
0
100
AcDbPolyline
 62
7
  6
CONTINUOUS
 90
9
 70
0
 10
9.7894052075
 20
5.8906672594
 10
9.7897544941
 20
5.8949296627
 10
9.7900441579
 20
5.8991921977
 10
9.7902789815
 20
5.9034534582
 10
9.790463544
 20
5.9077115877
 10
9.7906021127
 20
5.9119666153
 10
9.7906983255
 20
5.9162197459
 10
9.7907549492
 20
5.9204737814
 10
9.7907736495
 20
5.9247309253
  0
LWPOLYLINE
  5
582
100
AcDbEntity
  8
0
100
AcDbPolyline
 62
7
  6
CONTINUOUS
 90
7
 70
0
 10
9.7894052075
 20
5.9587945912
 10
9.7902084407
 20
5.9644958103
 10
9.7906378643
 20
5.9701352625
 10
9.7907736494
 20
5.9758302928
 10
9.7906374929
 20
5.981525229
 10
9.7902077447
 20
5.987163611
 10
9.7894052075
 20
5.9928582571
  0
LWPOLYLINE
  5
583
100
AcDbEntity
  8
0
100
AcDbPolyline
 62
7
  6
CONTINUOUS
 90
7
 70
0
 10
9.7894052075
 20
5.8566035935
 10
9.790207322
 20
5.8622942491
 10
9.7906373363
 20
5.8679334039
 10
9.7907736494
 20
5.8736317137
 10
9.7906376945
 20
5.8793300837
 10
9.7902079909
 20
5.8849702892
 10
9.7894052075
 20
5.8906672594
  0
LINE
  5
584
100
AcDbEntity
  8
AXIS
100
AcDbLine
 62
7
  6
CENTER
 10
9.0922224684
 20
7.0861482481
 11
8.8209857569
 21
7.0861482481
  0
LINE
  5
585
100
AcDbEntity
  8
AXIS
100
AcDbLine
 62
7
  6
CENTER
 10
9.0922224684
 20
7.0861482481
 11
9.3634591799
 21
7.0861482481
  0
LINE
  5
586
100
AcDbEntity
  8
0
100
AcDbLine
 62
7
  6
CONTINUOUS
 10
8.7097329461
 20
7.1575750552
 11
9.0324643852
 21
7.1575750552
  0
LINE
  5
587
100
AcDbEntity
  8
0
100
AcDbLine
 62
7
  6
CONTINUOUS
 10
9.151980384
 20
7.1575750552
 11
9.4747119907
 21
7.1575750552
  0
LINE
  5
588
100
AcDbEntity
  8
0
100
AcDbLine
 62
7
  6
CONTINUOUS
 10
8.710891412
 20
7.2239435237
 11
9.056497633
 21
7.2239435237
  0
LINE
  5
589
100
AcDbEntity
  8
0
100
AcDbLine
 62
7
  6
CONTINUOUS
 10
9.1279481886
 20
7.2239435237
 11
9.4735535247
 21
7.2239435237
  0
LINE
  5
58A
100
AcDbEntity
  8
0
100
AcDbLine
 62
7
  6
CONTINUOUS
 10
9.0922224684
 20
7.3205232482
 11
9.0648891354
 21
7.3189239547
  0
LINE
  5
58B
100
AcDbEntity
  8
0
100
AcDbLine
 62
7
  6
CONTINUOUS
 10
9.1195558014
 20
7.3189239547
 11
9.0922224684
 21
7.3205232482
  0
LINE
  5
58C
100
AcDbEntity
  8
0
100
AcDbLine
 62
7
  6
CONTINUOUS
 10
3.7307036455
 20
3.4180762959
 11
3.7307159991
 21
3.4181062794
  0
LINE
  5
58D
100
AcDbEntity
  8
0
100
AcDbLine
 62
7
  6
CONTINUOUS
 10
3.7307010085
 20
3.4180762959
 11
3.7307010085
 21
2.6492293177
  0
LINE
  5
58E
100
AcDbEntity
  8
0
100
AcDbLine
 62
7
  6
CONTINUOUS
 10
3.7307159991
 20
3.4181062794
 11
3.7307159991
 21
2.6491993341
  0
LINE
  5
58F
100
AcDbEntity
  8
0
100
AcDbLine
 62
7
  6
CONTINUOUS
 10
3.7307159991
 20
3.4181062794
 11
3.7399633139
 21
3.4273535942
  0
LINE
  5
590
100
AcDbEntity
  8
0
100
AcDbLine
 62
7
  6
CONTINUOUS
 10
3.7307159991
 20
2.6491993341
 11
3.7307036455
 21
2.6492293176
  0
LINE
  5
591
100
AcDbEntity
  8
0
100
AcDbLine
 62
7
  6
CONTINUOUS
 10
3.7399633139
 20
2.6399520194
 11
3.7399633139
 21
3.4273535942
  0
LINE
  5
592
100
AcDbEntity
  8
0
100
AcDbLine
 62
7
  6
CONTINUOUS
 10
3.7307159991
 20
2.6491993341
 11
3.7399633139
 21
2.6399520194
  0
LINE
  5
593
100
AcDbEntity
  8
0
100
AcDbLine
 62
7
  6
CONTINUOUS
 10
4.143506621
 20
2.4431016257
 11
4.143506621
 21
2.5218417831
  0
LINE
  5
594
100
AcDbEntity
  8
0
100
AcDbLine
 62
7
  6
CONTINUOUS
 10
4.143506621
 20
2.5218417831
 11
4.143506621
 21
3.1123929642
  0
LWPOLYLINE
  5
595
100
AcDbEntity
  8
0
100
AcDbPolyline
 62
7
  6
CONTINUOUS
 90
7
 70
0
 10
4.4782074084
 20
2.3364700677
 10
4.4880822096
 20
2.3356668344
 10
4.4978500273
 20
2.3352374108
 10
4.5077141092
 20
2.3351016257
 10
4.517578028
 20
2.3352377823
 10
4.5273439921
 20
2.3356675304
 10
4.5372074084
 20
2.3364700677
  0
LWPOLYLINE
  5
596
100
AcDbEntity
  8
0
100
AcDbPolyline
 62
7
  6
CONTINUOUS
 90
7
 70
0
 10
4.5372074084
 20
2.3364700677
 10
4.547063913
 20
2.3356679532
 10
4.5568312156
 20
2.3352379388
 10
4.5667009777
 20
2.3351016257
 10
4.5765708439
 20
2.3352375806
 10
4.5863399665
 20
2.3356672843
 10
4.5962074084
 20
2.3364700677
  0
LINE
  5
597
100
AcDbEntity
  8
02___PRT_ALL_AXES
100
AcDbLine
 62
7
  6
CONTINUOUS
 10
4.3502074084
 20
2.4257332046
 11
4.7242074084
 21
2.4257332046
  0
LINE
  5
598
100
AcDbEntity
  8
0
100
AcDbLine
 62
7
  6
CONTINUOUS
 10
4.143506621
 20
2.4431016257
 11
4.9309081958
 21
2.4431016257
  0
LINE
  5
599
100
AcDbEntity
  8
0
100
AcDbLine
 62
7
  6
CONTINUOUS
 10
4.9309081958
 20
2.5218417831
 11
4.143506621
 21
2.5218417831
  0
LINE
  5
59A
100
AcDbEntity
  8
02___PRT_ALL_AXES
100
AcDbLine
 62
7
  6
CONTINUOUS
 10
4.3502074084
 20
2.4257332046
 11
4.3502074084
 21
2.4431016257
  0
LINE
  5
59B
100
AcDbEntity
  8
0
100
AcDbLine
 62
7
  6
CONTINUOUS
 10
4.4782074084
 20
2.3351016257
 11
4.4782074084
 21
2.3364700677
  0
LINE
  5
59C
100
AcDbEntity
  8
0
100
AcDbLine
 62
7
  6
CONTINUOUS
 10
4.9309081958
 20
2.6399520194
 11
4.143506621
 21
2.6399520194
  0
LINE
  5
59D
100
AcDbEntity
  8
0
100
AcDbLine
 62
7
  6
CONTINUOUS
 10
3.7399633139
 20
2.6399520194
 11
4.1238215816
 21
2.6399520194
  0
LINE
  5
59E
100
AcDbEntity
  8
0
100
AcDbLine
 62
7
  6
CONTINUOUS
 10
4.9505932351
 20
2.6399520194
 11
5.3344515028
 21
2.6399520194
  0
LINE
  5
59F
100
AcDbEntity
  8
AXIS
100
AcDbLine
 62
7
  6
CENTER
 10
4.5372074084
 20
3.1123929642
 11
4.5372074084
 21
2.7909839565
  0
LINE
  5
5A0
100
AcDbEntity
  8
02___PRT_ALL_AXES
100
AcDbLine
 62
7
  6
CENTER
 10
4.5372074084
 20
2.2351016257
 11
4.5372074084
 21
2.8581016257
  0
LINE
  5
5A1
100
AcDbEntity
  8
AXIS
100
AcDbLine
 62
7
  6
CENTER
 10
4.5372074084
 20
3.1123929642
 11
4.5372074084
 21
3.3405457505
  0
LINE
  5
5A2
100
AcDbEntity
  8
0
100
AcDbLine
 62
7
  6
CONTINUOUS
 10
4.5962074084
 20
2.3364700677
 11
4.5962074084
 21
2.3351016257
  0
LINE
  5
5A3
100
AcDbEntity
  8
02___PRT_ALL_AXES
100
AcDbLine
 62
7
  6
CONTINUOUS
 10
4.7242074084
 20
2.4257332046
 11
4.7242074084
 21
2.4431016257
  0
LINE
  5
5A4
100
AcDbEntity
  8
0
100
AcDbLine
 62
7
  6
CONTINUOUS
 10
5.447754898
 20
2.9516528068
 11
5.443848648
 21
2.9516528068
  0
LINE
  5
5A5
100
AcDbEntity
  8
0
100
AcDbLine
 62
7
  6
CONTINUOUS
 10
5.416504898
 20
2.9516528068
 11
5.412598648
 21
2.9516528068
  0
LINE
  5
5A6
100
AcDbEntity
  8
0
100
AcDbLine
 62
7
  6
CONTINUOUS
 10
5.385254898
 20
2.9516528068
 11
5.381348648
 21
2.9516528068
  0
LINE
  5
5A7
100
AcDbEntity
  8
0
100
AcDbLine
 62
7
  6
CONTINUOUS
 10
5.354004898
 20
2.9516528068
 11
5.350098648
 21
2.9516528068
  0
LINE
  5
5A8
100
AcDbEntity
  8
0
100
AcDbLine
 62
7
  6
CONTINUOUS
 10
5.3657236485
 20
2.9719502768
 11
5.3693043197
 21
2.9719502768
  0
LINE
  5
5A9
100
AcDbEntity
  8
0
100
AcDbLine
 62
7
  6
CONTINUOUS
 10
5.3969736485
 20
2.9719502768
 11
5.4005543197
 21
2.9719502768
  0
LINE
  5
5AA
100
AcDbEntity
  8
0
100
AcDbLine
 62
7
  6
CONTINUOUS
 10
5.4282236485
 20
2.9719502768
 11
5.4318043197
 21
2.9719502768
  0
LINE
  5
5AB
100
AcDbEntity
  8
0
100
AcDbLine
 62
7
  6
CONTINUOUS
 10
5.5219528155
 20
3.0063194738
 11
5.7164331914
 21
3.0063194738
  0
LINE
  5
5AC
100
AcDbEntity
  8
0
100
AcDbLine
 62
7
  6
CONTINUOUS
 10
5.7164331914
 20
3.0609861398
 11
5.5219528155
 21
3.0609861398
  0
LINE
  5
5AD
100
AcDbEntity
  8
0
100
AcDbLine
 62
7
  6
CONTINUOUS
 10
4.9309081958
 20
2.4431016257
 11
4.9309081958
 21
2.5218417831
  0
LINE
  5
5AE
100
AcDbEntity
  8
0
100
AcDbLine
 62
7
  6
CONTINUOUS
 10
4.9309081958
 20
2.5218417831
 11
4.9309081958
 21
3.1123929642
  0
LINE
  5
5AF
100
AcDbEntity
  8
0
100
AcDbLine
 62
7
  6
CONTINUOUS
 10
5.4477548985
 20
3.0953553368
 11
5.4441742226
 21
3.0953553368
  0
LINE
  5
5B0
100
AcDbEntity
  8
0
100
AcDbLine
 62
7
  6
CONTINUOUS
 10
5.4165048985
 20
3.0953553368
 11
5.4129242226
 21
3.0953553368
  0
LINE
  5
5B1
100
AcDbEntity
  8
0
100
AcDbLine
 62
7
  6
CONTINUOUS
 10
5.3852548985
 20
3.0953553368
 11
5.3816742226
 21
3.0953553368
  0
LINE
  5
5B2
100
AcDbEntity
  8
0
100
AcDbLine
 62
7
  6
CONTINUOUS
 10
5.3540048985
 20
3.0953553368
 11
5.3504242226
 21
3.0953553368
  0
LINE
  5
5B3
100
AcDbEntity
  8
AXIS
100
AcDbLine
 62
7
  6
CENTER
 10
4.5372074084
 20
3.1123929642
 11
4.3090546221
 21
3.1123929642
  0
LINE
  5
5B4
100
AcDbEntity
  8
AXIS
100
AcDbLine
 62
7
  6
CENTER
 10
4.5372074084
 20
3.1123929642
 11
4.7653601946
 21
3.1123929642
  0
LINE
  5
5B5
100
AcDbEntity
  8
0
100
AcDbLine
 62
7
  6
CONTINUOUS
 10
5.4633798985
 20
3.1156528068
 11
5.4594736485
 21
3.1156528068
  0
LINE
  5
5B6
100
AcDbEntity
  8
0
100
AcDbLine
 62
7
  6
CONTINUOUS
 10
5.365723648
 20
3.1156528068
 11
5.369629898
 21
3.1156528068
  0
LINE
  5
5B7
100
AcDbEntity
  8
0
100
AcDbLine
 62
7
  6
CONTINUOUS
 10
5.396973648
 20
3.1156528068
 11
5.400879898
 21
3.1156528068
  0
LINE
  5
5B8
100
AcDbEntity
  8
0
100
AcDbLine
 62
7
  6
CONTINUOUS
 10
5.428223648
 20
3.1156528068
 11
5.432129898
 21
3.1156528068
  0
LINE
  5
5B9
100
AcDbEntity
  8
0
100
AcDbLine
 62
7
  6
CONTINUOUS
 10
5.3652266483
 20
3.115218734
 11
5.365723648
 21
3.1156528068
  0
LINE
  5
5BA
100
AcDbEntity
  8
0
100
AcDbLine
 62
7
  6
CONTINUOUS
 10
5.3964766483
 20
3.115218734
 11
5.396973648
 21
3.1156528068
  0
LINE
  5
5BB
100
AcDbEntity
  8
0
100
AcDbLine
 62
7
  6
CONTINUOUS
 10
5.4277266483
 20
3.115218734
 11
5.428223648
 21
3.1156528068
  0
LWPOLYLINE
  5
5BC
100
AcDbEntity
  8
0
100
AcDbPolyline
 62
7
  6
CONTINUOUS
 90
3
 70
0
 10
5.3845883302
 20
3.0947698411
 10
5.3850420837
 20
3.095292966
 10
5.3852545362
 20
3.0953547056
  0
LINE
  5
5BD
100
AcDbEntity
  8
0
100
AcDbLine
 62
7
  6
CONTINUOUS
 10
5.3545019678
 20
2.952087
 11
5.354004898
 21
2.9516528068
  0
LINE
  5
5BE
100
AcDbEntity
  8
0
100
AcDbLine
 62
7
  6
CONTINUOUS
 10
5.4589766483
 20
3.115218734
 11
5.459473648
 21
3.1156528068
  0
LWPOLYLINE
  5
5BF
100
AcDbEntity
  8
0
100
AcDbPolyline
 62
7
  6
CONTINUOUS
 90
3
 70
0
 10
5.3652287732
 20
3.115218721
 10
5.361122799
 20
3.1081482345
 10
5.3566785178
 20
3.100505123
  0
LINE
  5
5C0
100
AcDbEntity
  8
0
100
AcDbLine
 62
7
  6
CONTINUOUS
 10
5.3566785178
 20
3.100505123
 11
5.3536793197
 21
3.0953553368
  0
LINE
  5
5C1
100
AcDbEntity
  8
0
100
AcDbLine
 62
7
  6
CONTINUOUS
 10
5.3857519705
 20
2.9520870046
 11
5.385254898
 21
2.9516528068
  0
LINE
  5
5C2
100
AcDbEntity
  8
0
100
AcDbLine
 62
7
  6
CONTINUOUS
 10
5.4170018989
 20
2.9520868815
 11
5.416504898
 21
2.9516528068
  0
LINE
  5
5C3
100
AcDbEntity
  8
0
100
AcDbLine
 62
7
  6
CONTINUOUS
 10
5.4482518989
 20
2.9520868815
 11
5.447754898
 21
2.9516528068
  0
LWPOLYLINE
  5
5C4
100
AcDbEntity
  8
0
100
AcDbPolyline
 62
7
  6
CONTINUOUS
 90
16
 70
0
 10
5.3540058321
 20
3.0953569634
 10
5.3544353434
 20
3.0951109993
 10
5.3554791675
 20
3.0926171992
 10
5.3565579764
 20
3.0874839045
 10
5.3575985939
 20
3.0800380775
 10
5.3586053097
 20
3.0706083016
 10
5.35967358
 20
3.0593744563
 10
5.3607547555
 20
3.0469549579
 10
5.3617833663
 20
3.0340952033
 10
5.3628093309
 20
3.0211965595
 10
5.3638747506
 20
3.0088809746
 10
5.3649523925
 20
2.9974821017
 10
5.3659660747
 20
2.9878671866
 10
5.3669986695
 20
2.9802851146
 10
5.368077544
 20
2.9749681337
 10
5.3689635514
 20
2.9725353929
  0
LINE
  5
5C5
100
AcDbEntity
  8
0
100
AcDbLine
 62
7
  6
CONTINUOUS
 10
5.3496016483
 20
2.9520868795
 11
5.350098648
 21
2.9516528068
  0
LINE
  5
5C6
100
AcDbEntity
  8
0
100
AcDbLine
 62
7
  6
CONTINUOUS
 10
5.3808516483
 20
2.9520868795
 11
5.381348648
 21
2.9516528068
  0
LWPOLYLINE
  5
5C7
100
AcDbEntity
  8
0
100
AcDbPolyline
 62
7
  6
CONTINUOUS
 90
20
 70
0
 10
5.354004898
 20
2.9516528068
 10
5.3534388304
 20
2.9522136109
 10
5.3527830829
 20
2.9541720053
 10
5.3520115599
 20
2.9581446415
 10
5.3512064351
 20
2.9641586552
 10
5.3505054293
 20
2.9709803673
 10
5.3499214607
 20
2.977866698
 10
5.3493453152
 20
2.9853083465
 10
5.3486597181
 20
2.9947824553
 10
5.347875528
 20
3.0063312983
 10
5.3470920694
 20
3.0186279797
 10
5.3464307718
 20
3.0295622507
 10
5.3458638023
 20
3.0392667685
 10
5.3452604805
 20
3.0491978779
 10
5.3445511823
 20
3.0603358703
 10
5.3437479866
 20
3.0721958653
 10
5.3429918294
 20
3.0826312584
 10
5.3423613576
 20
3.0907095167
 10
5.3418006014
 20
3.0971676677
 10
5.3413661354
 20
3.1013348286
  0
LINE
  5
5C8
100
AcDbEntity
  8
0
100
AcDbLine
 62
7
  6
CONTINUOUS
 10
5.3651403504
 20
3.1150580352
 11
5.3652266483
 21
3.115218734
  0
LINE
  5
5C9
100
AcDbEntity
  8
0
100
AcDbLine
 62
7
  6
CONTINUOUS
 10
5.3963903504
 20
3.1150580352
 11
5.3964766483
 21
3.115218734
  0
LINE
  5
5CA
100
AcDbEntity
  8
0
100
AcDbLine
 62
7
  6
CONTINUOUS
 10
5.4276403504
 20
3.1150580352
 11
5.4277266483
 21
3.115218734
  0
LINE
  5
5CB
100
AcDbEntity
  8
0
100
AcDbLine
 62
7
  6
CONTINUOUS
 10
5.3545881956
 20
2.9522475784
 11
5.3545019678
 21
2.952087
  0
LWPOLYLINE
  5
5CC
100
AcDbEntity
  8
0
100
AcDbPolyline
 62
7
  6
CONTINUOUS
 90
3
 70
0
 10
5.3964787732
 20
3.115218721
 10
5.392372799
 20
3.1081482345
 10
5.3879285178
 20
3.100505123
  0
LWPOLYLINE
  5
5CD
100
AcDbEntity
  8
0
100
AcDbPolyline
 62
7
  6
CONTINUOUS
 90
3
 70
0
 10
5.4277287732
 20
3.115218721
 10
5.423622799
 20
3.1081482345
 10
5.4191785178
 20
3.100505123
  0
LWPOLYLINE
  5
5CE
100
AcDbEntity
  8
0
100
AcDbPolyline
 62
7
  6
CONTINUOUS
 90
3
 70
0
 10
5.3544998438
 20
2.952087013
 10
5.3589136223
 20
2.959687217
 10
5.3633277887
 20
2.9672777502
  0
LWPOLYLINE
  5
5CF
100
AcDbEntity
  8
0
100
AcDbPolyline
 62
7
  6
CONTINUOUS
 90
3
 70
0
 10
5.4589787732
 20
3.115218721
 10
5.454872799
 20
3.1081482345
 10
5.4504285178
 20
3.100505123
  0
LINE
  5
5D0
100
AcDbEntity
  8
0
100
AcDbLine
 62
7
  6
CONTINUOUS
 10
5.3879285178
 20
3.100505123
 11
5.3849293197
 21
3.0953553368
  0
LINE
  5
5D1
100
AcDbEntity
  8
0
100
AcDbLine
 62
7
  6
CONTINUOUS
 10
5.4191785178
 20
3.100505123
 11
5.4161793197
 21
3.0953553368
  0
LINE
  5
5D2
100
AcDbEntity
  8
0
100
AcDbLine
 62
7
  6
CONTINUOUS
 10
5.3633277887
 20
2.9672777502
 11
5.3660492058
 21
2.9719502768
  0
LINE
  5
5D3
100
AcDbEntity
  8
0
100
AcDbLine
 62
7
  6
CONTINUOUS
 10
5.4504285178
 20
3.100505123
 11
5.4474293197
 21
3.0953553368
  0
LINE
  5
5D4
100
AcDbEntity
  8
0
100
AcDbLine
 62
7
  6
CONTINUOUS
 10
3.7399633139
 20
3.4273535942
 11
4.1238215816
 21
3.4273535942
  0
LINE
  5
5D5
100
AcDbEntity
  8
0
100
AcDbLine
 62
7
  6
CONTINUOUS
 10
4.1631916603
 20
3.4273535942
 11
4.3022304473
 21
3.4273535942
  0
LINE
  5
5D6
100
AcDbEntity
  8
0
100
AcDbLine
 62
7
  6
CONTINUOUS
 10
4.7721843694
 20
3.4273535942
 11
4.9112231564
 21
3.4273535942
  0
LINE
  5
5D7
100
AcDbEntity
  8
0
100
AcDbLine
 62
7
  6
CONTINUOUS
 10
4.9505932351
 20
3.4273535942
 11
5.3344515028
 21
3.4273535942
  0
LWPOLYLINE
  5
5D8
100
AcDbEntity
  8
0
100
AcDbPolyline
 62
7
  6
CONTINUOUS
 90
12
 70
0
 10
5.4477559352
 20
3.0953571428
 10
5.4481464387
 20
3.0951530639
 10
5.4491857575
 20
3.0927701389
 10
5.450281255
 20
3.0876420672
 10
5.4513302067
 20
3.0801926435
 10
5.4523349234
 20
3.0708124432
 10
5.4533876788
 20
3.0597675362
 10
5.4544505246
 20
3.0476026886
 10
5.455485818
 20
3.0347118837
 10
5.4565071657
 20
3.0218293455
 10
5.4575882566
 20
3.009286162
 10
5.4586544034
 20
2.9979658065
  0
LWPOLYLINE
  5
5D9
100
AcDbEntity
  8
0
100
AcDbPolyline
 62
7
  6
CONTINUOUS
 90
3
 70
0
 10
5.3813486485
 20
3.0953553368
 10
5.3818275377
 20
3.0950545286
 10
5.3820167552
 20
3.0947720452
  0
LINE
  5
5DA
100
AcDbEntity
  8
0
100
AcDbLine
 62
7
  6
CONTINUOUS
 10
5.4121016483
 20
2.9520868795
 11
5.412598648
 21
2.9516528068
  0
LINE
  5
5DB
100
AcDbEntity
  8
0
100
AcDbLine
 62
7
  6
CONTINUOUS
 10
5.4433516483
 20
2.9520868795
 11
5.443848648
 21
2.9516528068
  0
LWPOLYLINE
  5
5DC
100
AcDbEntity
  8
0
100
AcDbPolyline
 62
7
  6
CONTINUOUS
 90
23
 70
0
 10
5.385254898
 20
2.9516528068
 10
5.3846888304
 20
2.9522136109
 10
5.3840330829
 20
2.9541720053
 10
5.3832615599
 20
2.9581446415
 10
5.3824564351
 20
2.9641586552
 10
5.3817554293
 20
2.9709803673
 10
5.3811714607
 20
2.977866698
 10
5.3805953152
 20
2.9853083465
 10
5.3799097181
 20
2.9947824553
 10
5.379125528
 20
3.0063312983
 10
5.3783420694
 20
3.0186279797
 10
5.3776807718
 20
3.0295622507
 10
5.3771138023
 20
3.0392667685
 10
5.3765104805
 20
3.0491978779
 10
5.3758011823
 20
3.0603358703
 10
5.3749979866
 20
3.0721958653
 10
5.3742418294
 20
3.0826312584
 10
5.3736113576
 20
3.0907095167
 10
5.3730506014
 20
3.0971676677
 10
5.3724165546
 20
3.1032490986
 10
5.3716802491
 20
3.1087984894
 10
5.3708920263
 20
3.1129696469
 10
5.3702131956
 20
3.1150580352
  0
LWPOLYLINE
  5
5DD
100
AcDbEntity
  8
0
100
AcDbPolyline
 62
7
  6
CONTINUOUS
 90
23
 70
0
 10
5.416504898
 20
2.9516528068
 10
5.4159388304
 20
2.9522136109
 10
5.4152830829
 20
2.9541720053
 10
5.4145115599
 20
2.9581446415
 10
5.4137064351
 20
2.9641586552
 10
5.4130054293
 20
2.9709803673
 10
5.4124214607
 20
2.977866698
 10
5.4118453152
 20
2.9853083465
 10
5.4111597181
 20
2.9947824553
 10
5.410375528
 20
3.0063312983
 10
5.4095920694
 20
3.0186279797
 10
5.4089307718
 20
3.0295622507
 10
5.4083638023
 20
3.0392667685
 10
5.4077604805
 20
3.0491978779
 10
5.4070511823
 20
3.0603358703
 10
5.4062479866
 20
3.0721958653
 10
5.4054918294
 20
3.0826312584
 10
5.4048613576
 20
3.0907095167
 10
5.4043006014
 20
3.0971676677
 10
5.4036665546
 20
3.1032490986
 10
5.4029302491
 20
3.1087984894
 10
5.4021420263
 20
3.1129696469
 10
5.4014631956
 20
3.1150580352
  0
LWPOLYLINE
  5
5DE
100
AcDbEntity
  8
0
100
AcDbPolyline
 62
7
  6
CONTINUOUS
 90
23
 70
0
 10
5.447754898
 20
2.9516528068
 10
5.4471888304
 20
2.9522136109
 10
5.4465330829
 20
2.9541720053
 10
5.4457615599
 20
2.9581446415
 10
5.4449564351
 20
2.9641586552
 10
5.4442554293
 20
2.9709803673
 10
5.4436714607
 20
2.977866698
 10
5.4430953152
 20
2.9853083465
 10
5.4424097181
 20
2.9947824553
 10
5.441625528
 20
3.0063312983
 10
5.4408420694
 20
3.0186279797
 10
5.4401807718
 20
3.0295622507
 10
5.4396138023
 20
3.0392667685
 10
5.4390104805
 20
3.0491978779
 10
5.4383011823
 20
3.0603358703
 10
5.4374979866
 20
3.0721958653
 10
5.4367418294
 20
3.0826312584
 10
5.4361113576
 20
3.0907095167
 10
5.4355506014
 20
3.0971676677
 10
5.4349165546
 20
3.1032490986
 10
5.4341802491
 20
3.1087984894
 10
5.4333920263
 20
3.1129696469
 10
5.4327131956
 20
3.1150580352
  0
LINE
  5
5DF
100
AcDbEntity
  8
0
100
AcDbLine
 62
7
  6
CONTINUOUS
 10
5.3344515028
 20
2.6399520194
 11
5.3344515028
 21
3.4273535942
  0
LINE
  5
5E0
100
AcDbEntity
  8
0
100
AcDbLine
 62
7
  6
CONTINUOUS
 10
5.345662768
 20
3.416142329
 11
5.345662768
 21
3.1156606808
  0
LINE
  5
5E1
100
AcDbEntity
  8
0
100
AcDbLine
 62
7
  6
CONTINUOUS
 10
5.345662768
 20
2.9516449328
 11
5.345662768
 21
2.6511632845
  0
LINE
  5
5E2
100
AcDbEntity
  8
0
100
AcDbLine
 62
7
  6
CONTINUOUS
 10
5.3456727028
 20
3.4161224578
 11
5.3456727028
 21
3.1035187303
  0
LINE
  5
5E3
100
AcDbEntity
  8
0
100
AcDbLine
 62
7
  6
CONTINUOUS
 10
5.3456727028
 20
2.9588561947
 11
5.3456727028
 21
2.6511831557
  0
LINE
  5
5E4
100
AcDbEntity
  8
0
100
AcDbLine
 62
7
  6
CONTINUOUS
 10
5.4657373038
 20
3.1120105558
 11
5.4672861483
 21
3.1156528066
  0
LINE
  5
5E5
100
AcDbEntity
  8
0
100
AcDbLine
 62
7
  6
CONTINUOUS
 10
5.4588903504
 20
3.1150580352
 11
5.4589766483
 21
3.115218734
  0
LINE
  5
5E6
100
AcDbEntity
  8
0
100
AcDbLine
 62
7
  6
CONTINUOUS
 10
5.3858381956
 20
2.9522475784
 11
5.3857519705
 21
2.9520870046
  0
LINE
  5
5E7
100
AcDbEntity
  8
0
100
AcDbLine
 62
7
  6
CONTINUOUS
 10
5.4170881956
 20
2.9522475784
 11
5.4170018989
 21
2.9520868815
  0
LINE
  5
5E8
100
AcDbEntity
  8
0
100
AcDbLine
 62
7
  6
CONTINUOUS
 10
5.4483381956
 20
2.9522475784
 11
5.4482518989
 21
2.9520868815
  0
LWPOLYLINE
  5
5E9
100
AcDbEntity
  8
0
100
AcDbPolyline
 62
7
  6
CONTINUOUS
 90
3
 70
0
 10
5.3857498464
 20
2.9520870176
 10
5.3901437385
 20
2.9596529993
 10
5.3945328838
 20
2.9672005962
  0
LWPOLYLINE
  5
5EA
100
AcDbEntity
  8
0
100
AcDbPolyline
 62
7
  6
CONTINUOUS
 90
3
 70
0
 10
5.416999775
 20
2.9520868946
 10
5.4211674047
 20
2.9592634913
 10
5.4256114613
 20
2.9669060508
  0
LWPOLYLINE
  5
5EB
100
AcDbEntity
  8
0
100
AcDbPolyline
 62
7
  6
CONTINUOUS
 90
4
 70
0
 10
5.448249775
 20
2.9520868946
 10
5.4524174047
 20
2.9592634913
 10
5.4568614613
 20
2.9669060508
 10
5.4591375531
 20
2.9708149804
  0
LINE
  5
5EC
100
AcDbEntity
  8
0
100
AcDbLine
 62
7
  6
CONTINUOUS
 10
5.3945328838
 20
2.9672005962
 11
5.3972992093
 21
2.9719502768
  0
LINE
  5
5ED
100
AcDbEntity
  8
0
100
AcDbLine
 62
7
  6
CONTINUOUS
 10
5.4256114613
 20
2.9669060508
 11
5.4285492226
 21
2.9719502768
  0
LINE
  5
5EE
100
AcDbEntity
  8
0
100
AcDbLine
 62
7
  6
CONTINUOUS
 10
5.3701268989
 20
3.115218732
 11
5.369629898
 21
3.1156528068
  0
LINE
  5
5EF
100
AcDbEntity
  8
0
100
AcDbLine
 62
7
  6
CONTINUOUS
 10
5.4013768989
 20
3.115218732
 11
5.400879898
 21
3.1156528068
  0
LINE
  5
5F0
100
AcDbEntity
  8
0
100
AcDbLine
 62
7
  6
CONTINUOUS
 10
5.4326268989
 20
3.115218732
 11
5.432129898
 21
3.1156528068
  0
LWPOLYLINE
  5
5F1
100
AcDbEntity
  8
0
100
AcDbPolyline
 62
7
  6
CONTINUOUS
 90
23
 70
0
 10
5.365723648
 20
3.1156528068
 10
5.3662897156
 20
3.1150920027
 10
5.3669454631
 20
3.1131336083
 10
5.3677169861
 20
3.1091609723
 10
5.3685221109
 20
3.1031469585
 10
5.3692231167
 20
3.0963252465
 10
5.3698070853
 20
3.0894389157
 10
5.3703832308
 20
3.0819972671
 10
5.371068828
 20
3.0725231583
 10
5.371853018
 20
3.0609743152
 10
5.3726364766
 20
3.0486776338
 10
5.3732977742
 20
3.0377433628
 10
5.3738647438
 20
3.028038845
 10
5.3744680656
 20
3.0181077356
 10
5.3751773638
 20
3.0069697432
 10
5.3759805594
 20
2.9951097482
 10
5.3767367166
 20
2.9846743552
 10
5.3773671884
 20
2.9765960969
 10
5.3779279446
 20
2.9701379459
 10
5.3785619914
 20
2.9640565151
 10
5.3792982969
 20
2.9585071243
 10
5.3800865197
 20
2.9543359667
 10
5.3807653504
 20
2.9522475784
  0
LWPOLYLINE
  5
5F2
100
AcDbEntity
  8
0
100
AcDbPolyline
 62
7
  6
CONTINUOUS
 90
23
 70
0
 10
5.396973648
 20
3.1156528068
 10
5.3975397156
 20
3.1150920027
 10
5.3981954631
 20
3.1131336083
 10
5.3989669861
 20
3.1091609723
 10
5.3997721109
 20
3.1031469585
 10
5.4004731167
 20
3.0963252465
 10
5.4010570853
 20
3.0894389157
 10
5.4016332308
 20
3.0819972671
 10
5.402318828
 20
3.0725231583
 10
5.403103018
 20
3.0609743152
 10
5.4038864766
 20
3.0486776338
 10
5.4045477742
 20
3.0377433628
 10
5.4051147438
 20
3.028038845
 10
5.4057180656
 20
3.0181077356
 10
5.4064273638
 20
3.0069697432
 10
5.4072305594
 20
2.9951097482
 10
5.4079867166
 20
2.9846743552
 10
5.4086171884
 20
2.9765960969
 10
5.4091779446
 20
2.9701379459
 10
5.4098119914
 20
2.9640565151
 10
5.4105482969
 20
2.9585071243
 10
5.4113365197
 20
2.9543359667
 10
5.4120153504
 20
2.9522475784
  0
LWPOLYLINE
  5
5F3
100
AcDbEntity
  8
0
100
AcDbPolyline
 62
7
  6
CONTINUOUS
 90
16
 70
0
 10
5.3852545362
 20
3.0953547056
 10
5.3860618097
 20
3.0945074537
 10
5.3871408502
 20
3.0909638279
 10
5.3882256186
 20
3.0848061647
 10
5.389250724
 20
3.0764546974
 10
5.3902792205
 20
3.0662668444
 10
5.3913630986
 20
3.0544558611
 10
5.3924292474
 20
3.0417804749
 10
5.3934395918
 20
3.0288765036
 10
5.3944866726
 20
3.0161207902
 10
5.3955551897
 20
3.0041934576
 10
5.3966064555
 20
2.9934915687
 10
5.397622849
 20
2.9845783961
 10
5.3986885289
 20
2.9778097079
 10
5.3997713001
 20
2.9735254897
 10
5.4002135974
 20
2.972535314
  0
LWPOLYLINE
  5
5F4
100
AcDbEntity
  8
0
100
AcDbPolyline
 62
7
  6
CONTINUOUS
 90
3
 70
0
 10
5.3689635514
 20
2.9725353929
 10
5.3691363799
 20
2.9722752599
 10
5.3696305303
 20
2.971949176
  0
LWPOLYLINE
  5
5F5
100
AcDbEntity
  8
0
100
AcDbPolyline
 62
7
  6
CONTINUOUS
 90
4
 70
0
 10
5.3689645979
 20
2.9725335976
 10
5.3723035178
 20
2.9668004905
 10
5.376747799
 20
2.9591573791
 10
5.3808537732
 20
2.9520868926
  0
LWPOLYLINE
  5
5F6
100
AcDbEntity
  8
0
100
AcDbPolyline
 62
7
  6
CONTINUOUS
 90
4
 70
0
 10
5.4002145979
 20
2.9725335976
 10
5.4035535178
 20
2.9668004905
 10
5.407997799
 20
2.9591573791
 10
5.4121037732
 20
2.9520868926
  0
LWPOLYLINE
  5
5F7
100
AcDbEntity
  8
0
100
AcDbPolyline
 62
7
  6
CONTINUOUS
 90
3
 70
0
 10
5.342401874
 20
2.9644816371
 10
5.345497799
 20
2.9591573791
 10
5.3496037732
 20
2.9520868926
  0
LINE
  5
5F8
100
AcDbEntity
  8
0
100
AcDbLine
 62
7
  6
CONTINUOUS
 10
5.3807653504
 20
2.9522475784
 11
5.3808516483
 21
2.9520868795
  0
LINE
  5
5F9
100
AcDbEntity
  8
0
100
AcDbLine
 62
7
  6
CONTINUOUS
 10
5.4120153504
 20
2.9522475784
 11
5.4121016483
 21
2.9520868795
  0
LINE
  5
5FA
100
AcDbEntity
  8
0
100
AcDbLine
 62
7
  6
CONTINUOUS
 10
5.3456694421
 20
2.6511831556
 11
5.345662768
 21
2.6511632845
  0
LWPOLYLINE
  5
5FB
100
AcDbEntity
  8
0
100
AcDbPolyline
 62
7
  6
CONTINUOUS
 90
6
 70
0
 10
5.4586547755
 20
2.9979619095
 10
5.4601596984
 20
3.0018124228
 10
5.4617911421
 20
3.0070677229
 10
5.4635407938
 20
3.0139797678
 10
5.4653981355
 20
3.0228340366
 10
5.4672861487
 20
3.0336528068
  0
LINE
  5
5FC
100
AcDbEntity
  8
0
100
AcDbLine
 62
7
  6
CONTINUOUS
 10
5.3344515028
 20
2.6399520194
 11
5.345662768
 21
2.6511632845
  0
LINE
  5
5FD
100
AcDbEntity
  8
0
100
AcDbLine
 62
7
  6
CONTINUOUS
 10
5.4638768637
 20
3.1152187318
 11
5.4633798985
 21
3.1156528068
  0
LWPOLYLINE
  5
5FE
100
AcDbEntity
  8
0
100
AcDbPolyline
 62
7
  6
CONTINUOUS
 90
7
 70
0
 10
5.4594736485
 20
3.1156528068
 10
5.4600141121
 20
3.1151407004
 10
5.4606460026
 20
3.1133279752
 10
5.4613730502
 20
3.1097375022
 10
5.4621583555
 20
3.1041138423
 10
5.4628440594
 20
3.0976952318
 10
5.4634317196
 20
3.0909987588
  0
LWPOLYLINE
  5
5FF
100
AcDbEntity
  8
0
100
AcDbPolyline
 62
7
  6
CONTINUOUS
 90
23
 70
0
 10
5.428223648
 20
3.1156528068
 10
5.4287897156
 20
3.1150920027
 10
5.4294454631
 20
3.1131336083
 10
5.4302169861
 20
3.1091609723
 10
5.4310221109
 20
3.1031469585
 10
5.4317231167
 20
3.0963252465
 10
5.4323070853
 20
3.0894389157
 10
5.4328832308
 20
3.0819972671
 10
5.433568828
 20
3.0725231583
 10
5.434353018
 20
3.0609743152
 10
5.4351364766
 20
3.0486776338
 10
5.4357977742
 20
3.0377433628
 10
5.4363647438
 20
3.028038845
 10
5.4369680656
 20
3.0181077356
 10
5.4376773638
 20
3.0069697432
 10
5.4384805594
 20
2.9951097482
 10
5.4392367166
 20
2.9846743552
 10
5.4398671884
 20
2.9765960969
 10
5.4404279446
 20
2.9701379459
 10
5.4410619914
 20
2.9640565151
 10
5.4417982969
 20
2.9585071243
 10
5.4425865197
 20
2.9543359667
 10
5.4432653504
 20
2.9522475784
  0
LWPOLYLINE
  5
600
100
AcDbEntity
  8
0
100
AcDbPolyline
 62
7
  6
CONTINUOUS
 90
15
 70
0
 10
5.4165050565
 20
3.095355612
 10
5.4175610698
 20
3.0939191539
 10
5.4186605676
 20
3.0896757656
 10
5.4197477419
 20
3.0828415595
 10
5.4207709481
 20
3.0738959646
 10
5.4218365252
 20
3.063021266
 10
5.4229440891
 20
3.0506302422
 10
5.4240063535
 20
3.0376622536
 10
5.4250272924
 20
3.0246488559
 10
5.4261091456
 20
3.0118514286
 10
5.4271989647
 20
3.0000631534
 10
5.4282160986
 20
2.9900920833
 10
5.4292279137
 20
2.9820296042
 10
5.4303043755
 20
2.9760744992
 10
5.4314640294
 20
2.9725345729
  0
LWPOLYLINE
  5
601
100
AcDbEntity
  8
0
100
AcDbPolyline
 62
7
  6
CONTINUOUS
 90
4
 70
0
 10
5.4314645979
 20
2.9725335976
 10
5.4348035178
 20
2.9668004905
 10
5.439247799
 20
2.9591573791
 10
5.4433537732
 20
2.9520868926
  0
LWPOLYLINE
  5
602
100
AcDbEntity
  8
0
100
AcDbPolyline
 62
7
  6
CONTINUOUS
 90
4
 70
0
 10
5.3820139499
 20
3.0947720146
 10
5.3787364613
 20
3.1003995627
 10
5.3742924047
 20
3.1080421222
 10
5.370124775
 20
3.115218719
  0
LWPOLYLINE
  5
603
100
AcDbEntity
  8
0
100
AcDbPolyline
 62
7
  6
CONTINUOUS
 90
4
 70
0
 10
5.4132639499
 20
3.0947720146
 10
5.4099864613
 20
3.1003995627
 10
5.4055424047
 20
3.1080421222
 10
5.401374775
 20
3.115218719
  0
LINE
  5
604
100
AcDbEntity
  8
0
100
AcDbLine
 62
7
  6
CONTINUOUS
 10
5.3507639499
 20
3.0947720146
 11
5.346165995
 21
3.102670403
  0
LINE
  5
605
100
AcDbEntity
  8
0
100
AcDbLine
 62
7
  6
CONTINUOUS
 10
5.4432653504
 20
2.9522475784
 11
5.4433516483
 21
2.9520868795
  0
LINE
  5
606
100
AcDbEntity
  8
0
100
AcDbLine
 62
7
  6
CONTINUOUS
 10
5.3702131956
 20
3.1150580352
 11
5.3701268989
 21
3.115218732
  0
LINE
  5
607
100
AcDbEntity
  8
0
100
AcDbLine
 62
7
  6
CONTINUOUS
 10
5.4014631956
 20
3.1150580352
 11
5.4013768989
 21
3.115218732
  0
LINE
  5
608
100
AcDbEntity
  8
0
100
AcDbLine
 62
7
  6
CONTINUOUS
 10
5.4672861483
 20
2.9516528069
 11
5.4590020949
 21
2.9711335229
  0
LWPOLYLINE
  5
609
100
AcDbEntity
  8
0
100
AcDbPolyline
 62
7
  6
CONTINUOUS
 90
16
 70
0
 10
5.3507667552
 20
3.0947720452
 10
5.3513038795
 20
3.0934989054
 10
5.3523815708
 20
3.0890171322
 10
5.353432111
 20
3.0821272473
 10
5.354437427
 20
3.0732116809
 10
5.3554790858
 20
3.0624980714
 10
5.3565596009
 20
3.0503943847
 10
5.3575955714
 20
3.0376813858
 10
5.3586062235
 20
3.02484375
 10
5.3596734075
 20
3.012182673
 10
5.3607554923
 20
3.0004550277
 10
5.3617828124
 20
2.9903364319
 10
5.3628092654
 20
2.982113125
 10
5.3638750604
 20
2.9761769413
 10
5.3649510441
 20
2.9727279151
 10
5.3657236485
 20
2.9719502768
  0
LWPOLYLINE
  5
60A
100
AcDbEntity
  8
0
100
AcDbPolyline
 62
7
  6
CONTINUOUS
 90
16
 70
0
 10
5.3820167552
 20
3.0947720452
 10
5.3828841422
 20
3.0923942758
 10
5.3839896334
 20
3.0869612482
 10
5.385039548
 20
3.0791859287
 10
5.3860622257
 20
3.0694709865
 10
5.387140739
 20
3.058012585
 10
5.3882255294
 20
3.0454255501
 10
5.3892519584
 20
3.0324915066
 10
5.3902790939
 20
3.0196779948
 10
5.3913639656
 20
3.0072875503
 10
5.3924269613
 20
2.9961489112
 10
5.3934418182
 20
2.9867755258
 10
5.3944865982
 20
2.9794251176
 10
5.3955568033
 20
2.9744871869
 10
5.3966033313
 20
2.9721303411
 10
5.3969736485
 20
2.9719502768
  0
LWPOLYLINE
  5
60B
100
AcDbEntity
  8
0
100
AcDbPolyline
 62
7
  6
CONTINUOUS
 90
4
 70
0
 10
5.4672861485
 20
3.0916355628
 10
5.4667399806
 20
3.09780275
 10
5.4661011906
 20
3.1038071486
 10
5.4653663569
 20
3.1092040708
  0
LINE
  5
60C
100
AcDbEntity
  8
0
100
AcDbLine
 62
7
  6
CONTINUOUS
 10
5.4634317196
 20
3.0909987588
 11
5.463975677
 21
3.0840807961
  0
LWPOLYLINE
  5
60D
100
AcDbEntity
  8
0
100
AcDbPolyline
 62
7
  6
CONTINUOUS
 90
6
 70
0
 10
5.463975677
 20
3.0840807961
 10
5.4645974205
 20
3.0756523933
 10
5.4653212251
 20
3.0652081426
 10
5.4660716865
 20
3.0537061599
 10
5.4667251293
 20
3.0431430121
 10
5.4672861485
 20
3.0336528068
  0
LINE
  5
60E
100
AcDbEntity
  8
0
100
AcDbLine
 62
7
  6
CONTINUOUS
 10
5.4586547755
 20
2.9728250686
 11
5.4586547755
 21
2.9979619095
  0
LINE
  5
60F
100
AcDbEntity
  8
0
100
AcDbLine
 62
7
  6
CONTINUOUS
 10
5.4672861485
 20
3.0916355628
 11
5.4672861485
 21
3.0336528068
  0
LINE
  5
610
100
AcDbEntity
  8
0
100
AcDbLine
 62
7
  6
CONTINUOUS
 10
5.4945504825
 20
3.0683499884
 11
5.4945504825
 21
2.9989556251
  0
LWPOLYLINE
  5
611
100
AcDbEntity
  8
0
100
AcDbPolyline
 62
7
  6
CONTINUOUS
 90
4
 70
0
 10
5.4445139499
 20
3.0947720146
 10
5.4412364613
 20
3.1003995627
 10
5.4367924047
 20
3.1080421222
 10
5.432624775
 20
3.115218719
  0
LINE
  5
612
100
AcDbEntity
  8
0
100
AcDbLine
 62
7
  6
CONTINUOUS
 10
5.4658486473
 20
3.111818769
 11
5.463874775
 21
3.115218719
  0
LINE
  5
613
100
AcDbEntity
  8
0
100
AcDbLine
 62
7
  6
CONTINUOUS
 10
5.4327131956
 20
3.1150580352
 11
5.4326268989
 21
3.115218732
  0
LWPOLYLINE
  5
614
100
AcDbEntity
  8
0
100
AcDbPolyline
 62
7
  6
CONTINUOUS
 90
15
 70
0
 10
5.4445167552
 20
3.0947720452
 10
5.4449753279
 20
3.0937264273
 10
5.4460555297
 20
3.0894168769
 10
5.4471237032
 20
3.082580049
 10
5.4481486262
 20
3.0735888679
 10
5.4491856824
 20
3.0629627055
 10
5.4502828841
 20
3.0507071121
 10
5.4513271378
 20
3.0379157246
 10
5.4523359355
 20
3.0250964418
 10
5.453387511
 20
3.012589409
 10
5.4544515389
 20
3.0010169581
 10
5.4554845927
 20
2.9907777166
 10
5.4565071796
 20
2.9824705508
 10
5.4575884008
 20
2.9763389321
 10
5.4586536558
 20
2.9728254178
  0
LINE
  5
615
100
AcDbEntity
  8
0
100
AcDbLine
 62
7
  6
CONTINUOUS
 10
5.345662768
 20
3.416142329
 11
5.3456694421
 21
3.416122458
  0
LWPOLYLINE
  5
616
100
AcDbEntity
  8
0
100
AcDbPolyline
 62
7
  6
CONTINUOUS
 90
15
 70
0
 10
5.4132667552
 20
3.0947720452
 10
5.4144310813
 20
3.0911991905
 10
5.4155139585
 20
3.0851861869
 10
5.4165328675
 20
3.0770294081
 10
5.4175609552
 20
3.0669113735
 10
5.4186612532
 20
3.0549829887
 10
5.4197456175
 20
3.0420937573
 10
5.4207731946
 20
3.0290338081
 10
5.4218364505
 20
3.0160497035
 10
5.4229457182
 20
3.0037126655
 10
5.4240033355
 20
2.9929491503
 10
5.4250281314
 20
2.9841220857
 10
5.4261089756
 20
2.9774211289
 10
5.4271994781
 20
2.9733030392
 10
5.4282236485
 20
2.9719502768
  0
LWPOLYLINE
  5
617
100
AcDbEntity
  8
0
100
AcDbPolyline
 62
7
  6
CONTINUOUS
 90
6
 70
0
 10
5.4658495705
 20
3.1118209445
 10
5.4661268275
 20
3.1106775042
 10
5.466433985
 20
3.1078917312
 10
5.4667613213
 20
3.1031840949
 10
5.4670439326
 20
3.097613989
 10
5.4672861487
 20
3.0916355631
  0
LWPOLYLINE
  5
618
100
AcDbEntity
  8
0
100
AcDbPolyline
 62
7
  6
CONTINUOUS
 90
4
 70
0
 10
5.4653663569
 20
3.1092040708
 10
5.464606582
 20
3.1131140425
 10
5.4639466873
 20
3.1150906137
 10
5.4638768637
 20
3.1152187318
  0
LWPOLYLINE
  5
619
100
AcDbEntity
  8
0
100
AcDbPolyline
 62
7
  6
CONTINUOUS
 90
4
 70
0
 10
5.4586547755
 20
2.9728250686
 10
5.4587707137
 20
2.9720681097
 10
5.4588864537
 20
2.971503505
 10
5.4590020953
 20
2.9711335222
  0
LINE
  5
61A
100
AcDbEntity
  8
0
100
AcDbLine
 62
7
  6
CONTINUOUS
 10
5.3344515028
 20
3.4273535942
 11
5.345662768
 21
3.416142329
  0
LWPOLYLINE
  5
61B
100
AcDbEntity
  8
0
100
AcDbPolyline
 62
7
  6
CONTINUOUS
 90
3
 70
0
 10
5.7164331919
 20
3.0609861398
 10
5.7168776023
 20
3.0525865588
 10
5.7172861485
 20
3.0336528068
  0
LWPOLYLINE
  5
61C
100
AcDbEntity
  8
0
100
AcDbPolyline
 62
7
  6
CONTINUOUS
 90
3
 70
0
 10
5.7164331919
 20
3.0063194738
 10
5.7168776023
 20
3.0147190547
 10
5.7172861485
 20
3.0336528068
  0
LINE
  5
61D
100
AcDbEntity
  8
0
100
AcDbLine
 62
7
  6
CONTINUOUS
 10
13.3190515707
 20
5.9630484774
 11
13.8609881934
 21
6.2759338647
  0
LINE
  5
61E
100
AcDbEntity
  8
0
100
AcDbLine
 62
7
  6
CONTINUOUS
 10
13.3686197532
 20
5.958379463
 11
13.9098447672
 21
6.2708540053
  0
LINE
  5
61F
100
AcDbEntity
  8
0
100
AcDbLine
 62
7
  6
CONTINUOUS
 10
13.9284666552
 20
6.2601028964
 11
13.3872416412
 21
5.9476283541
  0
LINE
  5
620
100
AcDbEntity
  8
0
100
AcDbLine
 62
7
  6
CONTINUOUS
 10
13.3915143222
 20
5.8476082299
 11
13.3856924118
 21
5.8442469684
  0
LINE
  5
621
100
AcDbEntity
  8
AXIS
100
AcDbLine
 62
7
  6
CONTINUOUS
 10
13.9592383802
 20
6.1614593325
 11
13.4155247699
 21
5.847548007
  0
LINE
  5
622
100
AcDbEntity
  8
0
100
AcDbLine
 62
7
  6
CONTINUOUS
 10
13.2977969205
 20
5.9160739448
 11
13.297796975
 21
5.4759583841
  0
LINE
  5
623
100
AcDbEntity
  8
0
100
AcDbLine
 62
7
  6
CONTINUOUS
 10
13.3814105184
 20
5.5585126004
 11
13.3856924118
 21
5.8442469684
  0
LINE
  5
624
100
AcDbEntity
  8
0
100
AcDbLine
 62
7
  6
CONTINUOUS
 10
13.9342977781
 20
5.8777203032
 11
13.3814105184
 21
5.5585126004
  0
LINE
  5
625
100
AcDbEntity
  8
0
100
AcDbLine
 62
7
  6
CONTINUOUS
 10
13.9626226705
 20
5.8297826165
 11
13.408763557
 21
5.510013817
  0
LWPOLYLINE
  5
626
100
AcDbEntity
  8
0
100
AcDbPolyline
 62
7
  6
CONTINUOUS
 90
4
 70
0
 10
13.5692268892
 20
5.3192517953
 10
13.569234952
 20
5.351686637
 10
13.5692583789
 20
5.384381218
 10
13.5692961337
 20
5.4173323873
  0
LWPOLYLINE
  5
627
100
AcDbEntity
  8
0
100
AcDbPolyline
 62
7
  6
CONTINUOUS
 90
4
 70
0
 10
13.5970658547
 20
5.3031793246
 10
13.5980217013
 20
5.3350669755
 10
13.5989701654
 20
5.3672274981
 10
13.5999121717
 20
5.3996566094
  0
LWPOLYLINE
  5
628
100
AcDbEntity
  8
0
100
AcDbPolyline
 62
7
  6
CONTINUOUS
 90
17
 70
0
 10
13.6905477082
 20
4.3146987561
 10
13.6930208016
 20
4.2892482892
 10
13.7039605634
 20
4.2558682711
 10
13.7233952711
 20
4.2238024288
 10
13.7508907856
 20
4.1937670602
 10
13.7858329025
 20
4.1664331059
 10
13.8274410725
 20
4.1424111611
 10
13.874785838
 20
4.1222378366
 10
13.926809595
 20
4.1063637709
 10
13.9823502189
 20
4.0951435646
 10
14.0401670239
 20
4.0888278584
 10
14.0989684781
 20
4.0875577348
 10
14.1574410542
 20
4.0913615663
 10
14.2142785714
 20
4.1001543815
 10
14.2682113736
 20
4.1137397636
 10
14.318034691
 20
4.1318142374
 10
14.3626355531
 20
4.1539740492
  0
LWPOLYLINE
  5
629
100
AcDbEntity
  8
0
100
AcDbPolyline
 62
7
  6
CONTINUOUS
 90
17
 70
0
 10
13.6905477082
 20
4.378990285
 10
13.6930208016
 20
4.3535398181
 10
13.7039605634
 20
4.3201598
 10
13.7233952711
 20
4.2880939577
 10
13.7508907856
 20
4.2580585891
 10
13.7858329025
 20
4.2307246348
 10
13.8274410725
 20
4.2067026901
 10
13.874785838
 20
4.1865293655
 10
13.926809595
 20
4.1706552998
 10
13.9823502189
 20
4.1594350935
 10
14.0401670239
 20
4.1531193873
 10
14.0989684781
 20
4.1518492637
 10
14.1574410542
 20
4.1556530952
 10
14.2142785714
 20
4.1644459105
 10
14.2682113736
 20
4.1780312925
 10
14.318034691
 20
4.1961057663
 10
14.3626355531
 20
4.2182655781
  0
LINE
  5
62A
100
AcDbEntity
  8
0
100
AcDbLine
 62
7
  6
CONTINUOUS
 10
13.6905451101
 20
4.3146987557
 11
13.6905451101
 21
4.3789902846
  0
LWPOLYLINE
  5
62B
100
AcDbEntity
  8
0
100
AcDbPolyline
 62
7
  6
CONTINUOUS
 90
3
 70
0
 10
13.5999121717
 20
5.3996566094
 10
13.6034754764
 20
5.4031940387
 10
13.6048920236
 20
5.4074978872
  0
LWPOLYLINE
  5
62C
100
AcDbEntity
  8
0
100
AcDbPolyline
 62
7
  6
CONTINUOUS
 90
8
 70
0
 10
13.6048920236
 20
5.4074978872
 10
13.6039728247
 20
5.4112664858
 10
13.6008067722
 20
5.4149791287
 10
13.5958358874
 20
5.4178490054
 10
13.589405283
 20
5.4196768696
 10
13.582416032
 20
5.4202010321
 10
13.5754231989
 20
5.4193896623
 10
13.5692961337
 20
5.4173323873
  0
LWPOLYLINE
  5
62D
100
AcDbEntity
  8
0
100
AcDbPolyline
 62
7
  6
CONTINUOUS
 90
4
 70
0
 10
14.1231552472
 20
5.7371011869
 10
14.1195919425
 20
5.7335637576
 10
14.118186647
 20
5.7295264945
 10
14.1181751475
 20
5.7289499755
  0
LINE
  5
62E
100
AcDbEntity
  8
0
100
AcDbLine
 62
7
  6
CONTINUOUS
 10
14.6967003581
 20
4.4111368319
 11
14.1399210469
 21
4.7325862449
  0
LWPOLYLINE
  5
62F
100
AcDbEntity
  8
0
100
AcDbPolyline
 62
7
  6
CONTINUOUS
 90
11
 70
0
 10
13.7513626334
 20
5.2140980532
 10
13.7552202229
 20
5.1986083531
 10
13.7710460933
 20
5.1674912726
 10
13.7943812413
 20
5.1379912412
 10
13.8247506304
 20
5.1107087946
 10
13.8615360275
 20
5.0861993246
 10
13.903988588
 20
5.0649617733
 10
13.9512441002
 20
5.0474284762
 10
14.0023405781
 20
5.0339563605
 10
14.0562378448
 20
5.0248196796
 10
14.0830672081
 20
5.0225926601
  0
LWPOLYLINE
  5
630
100
AcDbEntity
  8
0
100
AcDbPolyline
 62
7
  6
CONTINUOUS
 90
4
 70
0
 10
13.8476165447
 20
5.1585270888
 10
13.8476246076
 20
5.1909619305
 10
13.8476480344
 20
5.2236565115
 10
13.8476857892
 20
5.2566076808
  0
LWPOLYLINE
  5
631
100
AcDbEntity
  8
0
100
AcDbPolyline
 62
7
  6
CONTINUOUS
 90
4
 70
0
 10
13.8754555103
 20
5.1424546181
 10
13.8764113569
 20
5.174342269
 10
13.877359821
 20
5.2065027916
 10
13.8783018272
 20
5.2389319029
  0
LWPOLYLINE
  5
632
100
AcDbEntity
  8
02___PRT_ALL_AXES
100
AcDbPolyline
 62
7
  6
CONTINUOUS
 90
4
 70
0
 10
13.9647381261
 20
5.4596024208
 10
13.958240135
 20
5.4473968996
 10
13.9539036742
 20
5.4328758422
 10
13.952923365
 20
5.4218355494
  0
LWPOLYLINE
  5
633
100
AcDbEntity
  8
0
100
AcDbPolyline
 62
7
  6
CONTINUOUS
 90
9
 70
0
 10
14.0741173424
 20
5.5048990285
 10
14.0771313041
 20
5.5069243231
 10
14.0801453589
 20
5.5089009893
 10
14.0831585126
 20
5.5108323581
 10
14.0861694523
 20
5.5127214103
 10
14.0891781986
 20
5.5145716421
 10
14.0921856036
 20
5.5163865158
 10
14.0951936484
 20
5.5181694343
 10
14.0982038912
 20
5.5199226572
  0
LWPOLYLINE
  5
634
100
AcDbEntity
  8
02___PRT_ALL_AXES
100
AcDbPolyline
 62
7
  6
CONTINUOUS
 90
5
 70
0
 10
14.0297696904
 20
5.5209562351
 10
14.0102906625
 20
5.5081364156
 10
13.9929387836
 20
5.4935231636
 10
13.9777481945
 20
5.4773032222
 10
13.9647381261
 20
5.4596024208
  0
LWPOLYLINE
  5
635
100
AcDbEntity
  8
0
100
AcDbPolyline
 62
7
  6
CONTINUOUS
 90
9
 70
0
 10
14.0982038912
 20
5.5199226572
 10
14.1012158112
 20
5.5216462938
 10
14.1042273307
 20
5.5233386622
 10
14.107238225
 20
5.5249982666
 10
14.1102487209
 20
5.5266230457
 10
14.1132584105
 20
5.5282099206
 10
14.1162683009
 20
5.5297560387
 10
14.119278685
 20
5.5312577891
 10
14.1222904401
 20
5.5327116135
  0
LWPOLYLINE
  5
636
100
AcDbEntity
  8
0
100
AcDbPolyline
 62
7
  6
CONTINUOUS
 90
8
 70
0
 10
14.4323810734
 20
4.8291259455
 10
14.4353201975
 20
4.828635921
 10
14.4489228714
 20
4.8289223593
 10
14.4614724092
 20
4.8319038732
 10
14.47270254
 20
4.8375301253
 10
14.4823917094
 20
4.8456877762
 10
14.4903636385
 20
4.8562189354
 10
14.4946129772
 20
4.8650553374
  0
LINE
  5
637
100
AcDbEntity
  8
0
100
AcDbLine
 62
7
  6
CONTINUOUS
 10
14.7245390918
 20
4.4593552009
 11
14.1677597807
 21
4.7808046139
  0
LWPOLYLINE
  5
638
100
AcDbEntity
  8
02___PRT_ALL_AXES
100
AcDbPolyline
 62
7
  6
CONTINUOUS
 90
19
 70
0
 10
13.952923365
 20
5.4218355494
 10
13.9530324084
 20
5.418149125
 10
13.9556425675
 20
5.4034910789
 10
13.9616855291
 20
5.3891747556
 10
13.9710487244
 20
5.3754668411
 10
13.9835577348
 20
5.3626226878
 10
13.9989795409
 20
5.3508815582
 10
14.0170268639
 20
5.3404621672
 10
14.0373635161
 20
5.3315586083
 10
14.0596106643
 20
5.324336738
 10
14.0833538861
 20
5.3189310861
 10
14.1081508902
 20
5.3154423496
 10
14.1335397555
 20
5.3139355172
 10
14.1590475353
 20
5.3144386582
 10
14.1841990681
 20
5.3169424001
 10
14.2085258282
 20
5.3214001029
 10
14.2315746543
 20
5.327728728
 10
14.2529161902
 20
5.3358103851
 10
14.2721528836
 20
5.3454945283
  0
LWPOLYLINE
  5
639
100
AcDbEntity
  8
02___PRT_ALL_AXES
100
AcDbPolyline
 62
7
  6
CONTINUOUS
 90
19
 70
0
 10
13.952924223
 20
5.4076541916
 10
13.9530324084
 20
5.4039677672
 10
13.9556425675
 20
5.3893097211
 10
13.9616855291
 20
5.3749933978
 10
13.9710487244
 20
5.3612854833
 10
13.9835577348
 20
5.3484413301
 10
13.9989795409
 20
5.3367002004
 10
14.0170268639
 20
5.3262808094
 10
14.0373635161
 20
5.3173772505
 10
14.0596106643
 20
5.3101553802
 10
14.0833538861
 20
5.3047497283
 10
14.1081508902
 20
5.3012609919
 10
14.1335397555
 20
5.2997541594
 10
14.1590475353
 20
5.3002573004
 10
14.1841990681
 20
5.3027610423
 10
14.2085258282
 20
5.3072187451
 10
14.2315746543
 20
5.3135473702
 10
14.2529161902
 20
5.3216290274
 10
14.2721528836
 20
5.3313131706
  0
LINE
  5
63A
100
AcDbEntity
  8
0
100
AcDbLine
 62
7
  6
CONTINUOUS
 10
13.9342977781
 20
5.8777203032
 11
13.9302263433
 21
6.1447093252
  0
LINE
  5
63B
100
AcDbEntity
  8
02___PRT_ALL_AXES
100
AcDbLine
 62
7
  6
CONTINUOUS
 10
13.952923365
 20
5.4076541917
 11
13.952923365
 21
5.4218355494
  0
LWPOLYLINE
  5
63C
100
AcDbEntity
  8
0
100
AcDbPolyline
 62
7
  6
CONTINUOUS
 90
3
 70
0
 10
13.8783018272
 20
5.2389319029
 10
13.8818651319
 20
5.2424693322
 10
13.8832816792
 20
5.2467731807
  0
LWPOLYLINE
  5
63D
100
AcDbEntity
  8
0
100
AcDbPolyline
 62
7
  6
CONTINUOUS
 90
9
 70
0
 10
14.1816428388
 20
5.4717502482
 10
14.1786309188
 20
5.4699960399
 10
14.1756193994
 20
5.468211026
 10
14.172608505
 20
5.4663939698
 10
14.1695980091
 20
5.4645425484
 10
14.1665883195
 20
5.4626541538
 10
14.1635784292
 20
5.4607247707
 10
14.160568045
 20
5.4587504496
 10
14.1575562899
 20
5.4567266195
  0
LINE
  5
63E
100
AcDbEntity
  8
0
100
AcDbLine
 62
7
  6
CONTINUOUS
 10
14.5371430693
 20
5.6012352705
 11
14.535927506
 21
5.600563407
  0
LWPOLYLINE
  5
63F
100
AcDbEntity
  8
0
100
AcDbPolyline
 62
7
  6
CONTINUOUS
 90
9
 70
0
 10
14.2057293876
 20
5.4845392044
 10
14.2027154259
 20
5.4830842965
 10
14.1997013711
 20
5.4815806528
 10
14.1966882174
 20
5.4800327521
 10
14.1936772777
 20
5.4784450914
 10
14.1906685314
 20
5.4768211429
 10
14.1876611264
 20
5.4751633852
 10
14.1846530816
 20
5.4734729335
 10
14.1816428388
 20
5.4717502482
  0
LWPOLYLINE
  5
640
100
AcDbEntity
  8
0
100
AcDbPolyline
 62
7
  6
CONTINUOUS
 90
6
 70
0
 10
14.4275702985
 20
4.8263484599
 10
14.4326115724
 20
4.8246475998
 10
14.4482749964
 20
4.822032508
 10
14.4630345203
 20
4.8223421948
 10
14.4766152022
 20
4.8255708915
 10
14.4858732083
 20
4.8298734226
  0
LWPOLYLINE
  5
641
100
AcDbEntity
  8
0
100
AcDbPolyline
 62
7
  6
CONTINUOUS
 90
3
 70
0
 10
14.3997515467
 20
4.8384036872
 10
14.4163360283
 20
4.8301387562
 10
14.4165252917
 20
4.8300749011
  0
LWPOLYLINE
  5
642
100
AcDbEntity
  8
0
100
AcDbPolyline
 62
7
  6
CONTINUOUS
 90
3
 70
0
 10
14.3904719687
 20
4.8437614072
 10
14.405795764
 20
4.8361249758
 10
14.4063976373
 20
4.8359219729
  0
LINE
  5
643
100
AcDbEntity
  8
0
100
AcDbLine
 62
7
  6
CONTINUOUS
 10
13.8481878367
 20
5.1593845207
 11
13.8615360275
 21
5.1504908535
  0
LWPOLYLINE
  5
644
100
AcDbEntity
  8
0
100
AcDbPolyline
 62
7
  6
CONTINUOUS
 90
8
 70
0
 10
13.8832816792
 20
5.2467731807
 10
13.8823624803
 20
5.2505417793
 10
13.8791964278
 20
5.2542544222
 10
13.874225543
 20
5.2571242989
 10
13.8677949385
 20
5.2589521631
 10
13.8608056876
 20
5.2594763256
 10
13.8538128544
 20
5.2586649558
 10
13.8476857892
 20
5.2566076808
  0
LINE
  5
645
100
AcDbEntity
  8
0
100
AcDbLine
 62
7
  6
CONTINUOUS
 10
13.9958571819
 20
4.36572885
 11
13.9958571819
 21
4.4300203789
  0
LWPOLYLINE
  5
646
100
AcDbEntity
  8
0
100
AcDbPolyline
 62
7
  6
CONTINUOUS
 90
4
 70
0
 10
14.4015449028
 20
5.5763764804
 10
14.3979815981
 20
5.5728390511
 10
14.3965763025
 20
5.568801788
 10
14.3965648031
 20
5.568225269
  0
LWPOLYLINE
  5
647
100
AcDbEntity
  8
0
100
AcDbPolyline
 62
7
  6
CONTINUOUS
 90
12
 70
0
 10
14.5310741517
 20
5.5973233894
 10
14.5288791781
 20
5.5955751311
 10
14.5268173948
 20
5.5937738214
 10
14.5250274312
 20
5.5920842457
 10
14.5234269107
 20
5.5904731509
 10
14.5220014673
 20
5.5889572841
 10
14.5207605659
 20
5.5875743118
 10
14.5195695636
 20
5.5861901767
 10
14.5185911588
 20
5.5850104317
 10
14.5175940057
 20
5.5837674022
 10
14.5167566993
 20
5.5826910787
 10
14.5160775821
 20
5.5817957146
  0
LINE
  5
648
100
AcDbEntity
  8
0
100
AcDbLine
 62
7
  6
CONTINUOUS
 10
14.5306541715
 20
5.597002456
 11
14.5326296104
 21
5.5984557149
  0
LINE
  5
649
100
AcDbEntity
  8
0
100
AcDbLine
 62
7
  6
CONTINUOUS
 10
14.5331347023
 20
5.5988050966
 11
14.5310741517
 21
5.5973233894
  0
LWPOLYLINE
  5
64A
100
AcDbEntity
  8
0
100
AcDbPolyline
 62
7
  6
CONTINUOUS
 90
8
 70
0
 10
14.5325067739
 20
5.5985278786
 10
14.5296299136
 20
5.5965935173
 10
14.5271130701
 20
5.5947179517
 10
14.5248928071
 20
5.5929178052
 10
14.5227841918
 20
5.5910777093
 10
14.5204558748
 20
5.5888921191
 10
14.5178930593
 20
5.5862895827
 10
14.5151250051
 20
5.5832295391
  0
LINE
  5
64B
100
AcDbEntity
  8
0
100
AcDbLine
 62
7
  6
CONTINUOUS
 10
14.5326296104
 20
5.5984557149
 11
14.5348091989
 21
5.5998937315
  0
LINE
  5
64C
100
AcDbEntity
  8
0
100
AcDbLine
 62
7
  6
CONTINUOUS
 10
14.5349476343
 20
5.5999796079
 11
14.5331347023
 21
5.5988050966
  0
LWPOLYLINE
  5
64D
100
AcDbEntity
  8
0
100
AcDbPolyline
 62
7
  6
CONTINUOUS
 90
3
 70
0
 10
14.5324242249
 20
5.5985383917
 10
14.5280899784
 20
5.5957754507
 10
14.5196218216
 20
5.58880627
  0
LWPOLYLINE
  5
64E
100
AcDbEntity
  8
0
100
AcDbPolyline
 62
7
  6
CONTINUOUS
 90
4
 70
0
 10
14.5472462209
 20
5.6070984569
 10
14.5444851284
 20
5.6054198634
 10
14.5416455615
 20
5.603517181
 10
14.5385697844
 20
5.601252609
  0
LINE
  5
64F
100
AcDbEntity
  8
0
100
AcDbLine
 62
7
  6
CONTINUOUS
 10
14.5346445319
 20
5.5998226604
 11
14.5325067739
 21
5.5985278786
  0
LINE
  5
650
100
AcDbEntity
  8
0
100
AcDbLine
 62
7
  6
CONTINUOUS
 10
14.535927506
 20
5.600563407
 11
14.5349476343
 21
5.5999796079
  0
LINE
  5
651
100
AcDbEntity
  8
0
100
AcDbLine
 62
7
  6
CONTINUOUS
 10
14.3629809008
 20
5.4338398958
 11
14.9027338167
 21
5.745464527
  0
LINE
  5
652
100
AcDbEntity
  8
0
100
AcDbLine
 62
7
  6
CONTINUOUS
 10
14.5348091989
 20
5.5998937315
 11
14.5359391102
 21
5.6005432192
  0
LINE
  5
653
100
AcDbEntity
  8
0
100
AcDbLine
 62
7
  6
CONTINUOUS
 10
13.8615360275
 20
5.1504908535
 11
13.8758847663
 21
5.1433126745
  0
LINE
  5
654
100
AcDbEntity
  8
0
100
AcDbLine
 62
7
  6
CONTINUOUS
 10
14.3997515467
 20
4.8384036872
 11
14.3904719687
 21
4.8437614072
  0
LINE
  5
655
100
AcDbEntity
  8
0
100
AcDbLine
 62
7
  6
CONTINUOUS
 10
13.297796975
 20
5.4759583841
 11
13.5692268892
 21
5.3192517953
  0
LINE
  5
656
100
AcDbEntity
  8
0
100
AcDbLine
 62
7
  6
CONTINUOUS
 10
13.5970658547
 20
5.3031793246
 11
13.8476165447
 21
5.1585270888
  0
LINE
  5
657
100
AcDbEntity
  8
0
100
AcDbLine
 62
7
  6
CONTINUOUS
 10
13.8754555103
 20
5.1424546181
 11
14.1260062003
 21
4.9978023823
  0
LINE
  5
658
100
AcDbEntity
  8
0
100
AcDbLine
 62
7
  6
CONTINUOUS
 10
14.1538451659
 20
4.9817299116
 11
14.42527508
 21
4.8250233228
  0
LWPOLYLINE
  5
659
100
AcDbEntity
  8
0
100
AcDbPolyline
 62
7
  6
CONTINUOUS
 90
9
 70
0
 10
14.1543158661
 20
4.9974327699
 10
14.1522266132
 20
4.9986389733
 10
14.148499931
 20
4.9999963974
 10
14.1443815742
 20
5.000836156
 10
14.1402372316
 20
5.0011297238
 10
14.1362714416
 20
5.0009336086
 10
14.1325306547
 20
5.0002987126
 10
14.1290849931
 20
4.9992524967
 10
14.1260062003
 20
4.9978023823
  0
LWPOLYLINE
  5
65A
100
AcDbEntity
  8
0
100
AcDbPolyline
 62
7
  6
CONTINUOUS
 90
9
 70
0
 10
13.8759262105
 20
5.1581574764
 10
13.8738369576
 20
5.1593636798
 10
13.8701102755
 20
5.1607211039
 10
13.8659919186
 20
5.1615608625
 10
13.861847576
 20
5.1618544303
 10
13.857881786
 20
5.1616583151
 10
13.8541409991
 20
5.1610234191
 10
13.8506953375
 20
5.1599772032
 10
13.8476165447
 20
5.1585270888
  0
LWPOLYLINE
  5
65B
100
AcDbEntity
  8
0
100
AcDbPolyline
 62
7
  6
CONTINUOUS
 90
9
 70
0
 10
13.5975365549
 20
5.3188821829
 10
13.595447302
 20
5.3200883863
 10
13.5917206199
 20
5.3214458104
 10
13.5876022631
 20
5.322285569
 10
13.5834579204
 20
5.3225791368
 10
13.5794921305
 20
5.3223830216
 10
13.5757513435
 20
5.3217481256
 10
13.572305682
 20
5.3207019097
 10
13.5692268892
 20
5.3192517953
  0
LINE
  5
65C
100
AcDbEntity
  8
0
100
AcDbLine
 62
7
  6
CONTINUOUS
 10
14.3085697246
 20
4.9905222364
 11
14.1566914828
 21
5.0782071964
  0
LINE
  5
65D
100
AcDbEntity
  8
0
100
AcDbLine
 62
7
  6
CONTINUOUS
 10
14.1260754448
 20
5.0958829743
 11
13.8783018272
 21
5.2389319029
  0
LINE
  5
65E
100
AcDbEntity
  8
0
100
AcDbLine
 62
7
  6
CONTINUOUS
 10
13.8476857892
 20
5.2566076808
 11
13.5999121717
 21
5.3996566094
  0
LINE
  5
65F
100
AcDbEntity
  8
0
100
AcDbLine
 62
7
  6
CONTINUOUS
 10
13.5692961337
 20
5.4173323873
 11
13.408763557
 21
5.510013817
  0
LWPOLYLINE
  5
660
100
AcDbEntity
  8
0
100
AcDbPolyline
 62
7
  6
CONTINUOUS
 90
3
 70
0
 10
14.374536712
 20
4.8543164705
 10
14.3751158783
 20
4.8538427478
 10
14.3904719687
 20
4.8437614072
  0
LINE
  5
661
100
AcDbEntity
  8
0
100
AcDbLine
 62
7
  6
CONTINUOUS
 10
14.1236238297
 20
5.7209916513
 11
14.1231552472
 21
5.7371011869
  0
LINE
  5
662
100
AcDbEntity
  8
0
100
AcDbLine
 62
7
  6
CONTINUOUS
 10
14.1222904401
 20
5.5327116135
 11
14.1222904401
 21
5.463275632
  0
LWPOLYLINE
  5
663
100
AcDbEntity
  8
0
100
AcDbPolyline
 62
7
  6
CONTINUOUS
 90
4
 70
0
 10
14.1260062003
 20
4.9978023823
 10
14.1260142632
 20
5.030237224
 10
14.12603769
 20
5.062931805
 10
14.1260754448
 20
5.0958829743
  0
LWPOLYLINE
  5
664
100
AcDbEntity
  8
0
100
AcDbPolyline
 62
7
  6
CONTINUOUS
 90
5
 70
0
 10
13.9592458975
 20
4.3789902846
 10
13.9616476359
 20
4.3930692199
 10
13.9687607568
 20
4.40660741
 10
13.9803119068
 20
4.4190842896
 10
13.9958571819
 20
4.4300203789
  0
LINE
  5
665
100
AcDbEntity
  8
0
100
AcDbLine
 62
7
  6
CONTINUOUS
 10
14.5196218216
 20
5.58880627
 11
14.5117133156
 21
5.5801724936
  0
LWPOLYLINE
  5
666
100
AcDbEntity
  8
0
100
AcDbPolyline
 62
7
  6
CONTINUOUS
 90
7
 70
0
 10
14.5218972857
 20
5.5888430771
 10
14.5230484305
 20
5.5900780581
 10
14.5243118841
 20
5.5913757097
 10
14.5256915727
 20
5.592724968
 10
14.5272033119
 20
5.5941230973
 10
14.5288508652
 20
5.5955518831
 10
14.5306541715
 20
5.597002456
  0
LWPOLYLINE
  5
667
100
AcDbEntity
  8
0
100
AcDbPolyline
 62
7
  6
CONTINUOUS
 90
5
 70
0
 10
14.5351229842
 20
5.5984586466
 10
14.5313435599
 20
5.5950735403
 10
14.527238007
 20
5.5909950298
 10
14.5228107247
 20
5.586091579
 10
14.5180917403
 20
5.5802201351
  0
LWPOLYLINE
  5
668
100
AcDbEntity
  8
0
100
AcDbPolyline
 62
7
  6
CONTINUOUS
 90
5
 70
0
 10
14.5684328261
 20
5.5687433332
 10
14.5660061561
 20
5.5665910094
 10
14.5583093597
 20
5.5574748149
 10
14.5513460877
 20
5.5467377473
 10
14.5485290648
 20
5.5409655388
  0
LWPOLYLINE
  5
669
100
AcDbEntity
  8
0
100
AcDbPolyline
 62
7
  6
CONTINUOUS
 90
7
 70
0
 10
14.5465462715
 20
5.5817536327
 10
14.5448692974
 20
5.5803219535
 10
14.5369520658
 20
5.5712199178
 10
14.5298976706
 20
5.5606247291
 10
14.5240696323
 20
5.5490803547
 10
14.5197036451
 20
5.5368626865
 10
14.5189751103
 20
5.5334518001
  0
LINE
  5
66A
100
AcDbEntity
  8
0
100
AcDbLine
 62
7
  6
CONTINUOUS
 10
14.5385697844
 20
5.601252609
 11
14.5351229842
 21
5.5984586466
  0
LINE
  5
66B
100
AcDbEntity
  8
0
100
AcDbLine
 62
7
  6
CONTINUOUS
 10
14.4411302032
 20
5.3494571061
 11
14.982049821
 21
5.6617553288
  0
LINE
  5
66C
100
AcDbEntity
  8
0
100
AcDbLine
 62
7
  6
CONTINUOUS
 10
14.8683480245
 20
5.5514971168
 11
14.8443900046
 21
5.5394752285
  0
LWPOLYLINE
  5
66D
100
AcDbEntity
  8
0
100
AcDbPolyline
 62
7
  6
CONTINUOUS
 90
8
 70
0
 10
14.1616713348
 20
5.0860484742
 10
14.1607521359
 20
5.0898170728
 10
14.1575860834
 20
5.0935297157
 10
14.1526151986
 20
5.0963995924
 10
14.1461845941
 20
5.0982274566
 10
14.1391953431
 20
5.0987516191
 10
14.13220251
 20
5.0979402493
 10
14.1260754448
 20
5.0958829743
  0
LINE
  5
66E
100
AcDbEntity
  8
0
100
AcDbLine
 62
7
  6
CONTINUOUS
 10
14.1677597807
 20
4.7808046139
 11
14.1677597807
 21
4.9736964868
  0
LINE
  5
66F
100
AcDbEntity
  8
0
100
AcDbLine
 62
7
  6
CONTINUOUS
 10
14.1880964627
 20
5.5225317014
 11
14.1880964627
 21
5.4754033536
  0
LWPOLYLINE
  5
670
100
AcDbEntity
  8
0
100
AcDbPolyline
 62
7
  6
CONTINUOUS
 90
4
 70
0
 10
14.1538451659
 20
4.9817299116
 10
14.1548010125
 20
5.0136175625
 10
14.1557494766
 20
5.0457780851
 10
14.1566914828
 20
5.0782071964
  0
LWPOLYLINE
  5
671
100
AcDbEntity
  8
0
100
AcDbPolyline
 62
7
  6
CONTINUOUS
 90
10
 70
0
 10
14.1677597807
 20
4.7808046139
 10
14.1673368478
 20
4.7749783815
 10
14.1660808996
 20
4.7688408182
 10
14.1640300976
 20
4.7625784109
 10
14.1612467542
 20
4.7563814396
 10
14.15781544
 20
4.7504381962
 10
14.1538404138
 20
4.744929263
 10
14.1494424546
 20
4.7400220262
 10
14.1447551923
 20
4.7358655898
 10
14.1399210469
 20
4.7325862449
  0
LINE
  5
672
100
AcDbEntity
  8
0
100
AcDbLine
 62
7
  6
CONTINUOUS
 10
14.5090324918
 20
5.5754409554
 11
14.5063390606
 21
5.5713340876
  0
LINE
  5
673
100
AcDbEntity
  8
0
100
AcDbLine
 62
7
  6
CONTINUOUS
 10
14.5117133156
 20
5.5801724936
 11
14.5047100432
 21
5.5702514027
  0
LWPOLYLINE
  5
674
100
AcDbEntity
  8
0
100
AcDbPolyline
 62
7
  6
CONTINUOUS
 90
3
 70
0
 10
14.5180917403
 20
5.5802201351
 10
14.5131380505
 20
5.5732204876
 10
14.5079979953
 20
5.5648285158
  0
LINE
  5
675
100
AcDbEntity
  8
0
100
AcDbLine
 62
7
  6
CONTINUOUS
 10
14.5152998401
 20
5.5807450751
 11
14.5147781091
 21
5.5800245355
  0
LINE
  5
676
100
AcDbEntity
  8
0
100
AcDbLine
 62
7
  6
CONTINUOUS
 10
14.5160775821
 20
5.5817957146
 11
14.5152170746
 21
5.5806307058
  0
LINE
  5
677
100
AcDbEntity
  8
0
100
AcDbLine
 62
7
  6
CONTINUOUS
 10
14.5157042433
 20
5.5812932213
 11
14.516229147
 21
5.5819952734
  0
LWPOLYLINE
  5
678
100
AcDbEntity
  8
0
100
AcDbPolyline
 62
7
  6
CONTINUOUS
 90
7
 70
0
 10
14.516229147
 20
5.5819952734
 10
14.5168349735
 20
5.5827906293
 10
14.5174936225
 20
5.5836374952
 10
14.518215226
 20
5.5845443507
 10
14.5190170559
 20
5.5855267832
 10
14.519887295
 20
5.5865634855
 10
14.5208434232
 20
5.5876676432
  0
LWPOLYLINE
  5
679
100
AcDbEntity
  8
0
100
AcDbPolyline
 62
7
  6
CONTINUOUS
 90
3
 70
0
 10
14.5151250051
 20
5.5832295391
 10
14.5121656912
 20
5.5796427706
 10
14.5090324918
 20
5.5754409554
  0
LWPOLYLINE
  5
67A
100
AcDbEntity
  8
0
100
AcDbPolyline
 62
7
  6
CONTINUOUS
 90
3
 70
0
 10
14.1566914828
 20
5.0782071964
 10
14.1602547875
 20
5.0817446257
 10
14.1616713348
 20
5.0860484742
  0
LWPOLYLINE
  5
67B
100
AcDbEntity
  8
0
100
AcDbPolyline
 62
7
  6
CONTINUOUS
 90
13
 70
0
 10
14.7671692102
 20
5.4854078213
 10
14.760708018
 20
5.4811408118
 10
14.7541123071
 20
5.4757831883
 10
14.7467381416
 20
5.4685167999
 10
14.738919841
 20
5.4591338446
 10
14.7320756206
 20
5.4491667062
 10
14.726809266
 20
5.4400009584
 10
14.7226391988
 20
5.4313952272
 10
14.7187873363
 20
5.4217127429
 10
14.7153839896
 20
5.4105378779
 10
14.7129919081
 20
5.3987031101
 10
14.7119952085
 20
5.3886356962
 10
14.7119870987
 20
5.3801053203
  0
LINE
  5
67C
100
AcDbEntity
  8
0
100
AcDbLine
 62
7
  6
CONTINUOUS
 10
14.8443810474
 20
5.539470057
 11
14.8211179771
 21
5.5242290514
  0
LWPOLYLINE
  5
67D
100
AcDbEntity
  8
0
100
AcDbPolyline
 62
7
  6
CONTINUOUS
 90
6
 70
0
 10
14.7644835744
 20
5.4802786117
 10
14.7709447665
 20
5.4843981478
 10
14.7775404774
 20
5.4876417601
 10
14.7849146429
 20
5.4900485412
 10
14.7927329435
 20
5.4910049276
 10
14.7940004165
 20
5.4908513369
  0
LWPOLYLINE
  5
67E
100
AcDbEntity
  8
0
100
AcDbPolyline
 62
7
  6
CONTINUOUS
 90
7
 70
0
 10
14.0917502673
 20
5.4669065316
 10
14.0888045214
 20
5.4739084638
 10
14.0858854348
 20
5.4805491345
 10
14.0829357267
 20
5.4870159753
 10
14.0799859876
 20
5.4932605756
 10
14.077066357
 20
5.4992004565
 10
14.0741173424
 20
5.5048990285
  0
LINE
  5
67F
100
AcDbEntity
  8
02___PRT_ALL_AXES
100
AcDbLine
 62
7
  6
CONTINUOUS
 10
14.326923365
 20
5.4076541917
 11
14.326923365
 21
5.4218355494
  0
LINE
  5
680
100
AcDbEntity
  8
0
100
AcDbLine
 62
7
  6
CONTINUOUS
 10
14.3489227537
 20
5.404583394
 11
14.3368818964
 21
5.0063126093
  0
LWPOLYLINE
  5
681
100
AcDbEntity
  8
02___PRT_ALL_AXES
100
AcDbPolyline
 62
7
  6
CONTINUOUS
 90
7
 70
0
 10
14.3269225071
 20
5.4076541917
 10
14.3259430558
 20
5.3966138989
 10
14.3216065951
 20
5.3820928415
 10
14.3138857195
 20
5.3680479436
 10
14.3029242545
 20
5.3547408352
 10
14.2889263913
 20
5.3424194025
 10
14.2721528836
 20
5.3313131706
  0
LINE
  5
682
100
AcDbEntity
  8
02___PRT_ALL_AXES
100
AcDbLine
 62
7
  6
CONTINUOUS
 10
14.326923365
 20
5.4218355494
 11
14.3259430558
 21
5.4107952567
  0
LWPOLYLINE
  5
683
100
AcDbEntity
  8
02___PRT_ALL_AXES
100
AcDbPolyline
 62
7
  6
CONTINUOUS
 90
6
 70
0
 10
14.3259430558
 20
5.4107952567
 10
14.3216065951
 20
5.3962741992
 10
14.3138857195
 20
5.3822293014
 10
14.3029242545
 20
5.368922193
 10
14.2889263913
 20
5.3566007603
 10
14.2721528836
 20
5.3454945283
  0
LWPOLYLINE
  5
684
100
AcDbEntity
  8
0
100
AcDbPolyline
 62
7
  6
CONTINUOUS
 90
4
 70
0
 10
14.5029755012
 20
5.5640913297
 10
14.498378012
 20
5.5521885494
 10
14.4953895125
 20
5.5399620268
 10
14.4951708169
 20
5.5377778693
  0
LWPOLYLINE
  5
685
100
AcDbEntity
  8
0
100
AcDbPolyline
 62
7
  6
CONTINUOUS
 90
3
 70
0
 10
14.4982142327
 20
5.5554816407
 10
14.4969760285
 20
5.5523354519
 10
14.4959718928
 20
5.549537641
  0
LINE
  5
686
100
AcDbEntity
  8
0
100
AcDbLine
 62
7
  6
CONTINUOUS
 10
14.4973346435
 20
5.5532793532
 11
14.4995997248
 21
5.5586957441
  0
LINE
  5
687
100
AcDbEntity
  8
0
100
AcDbLine
 62
7
  6
CONTINUOUS
 10
14.4997398648
 20
5.5589990734
 11
14.4982142327
 21
5.5554816407
  0
LINE
  5
688
100
AcDbEntity
  8
0
100
AcDbLine
 62
7
  6
CONTINUOUS
 10
14.503889907
 20
5.5561399842
 11
14.5079979953
 21
5.5648285158
  0
LINE
  5
689
100
AcDbEntity
  8
0
100
AcDbLine
 62
7
  6
CONTINUOUS
 10
14.5014806035
 20
5.562646492
 11
14.4997398648
 21
5.5589990734
  0
LINE
  5
68A
100
AcDbEntity
  8
0
100
AcDbLine
 62
7
  6
CONTINUOUS
 10
14.4995997248
 20
5.5586957441
 11
14.501884133
 21
5.5634483775
  0
LWPOLYLINE
  5
68B
100
AcDbEntity
  8
0
100
AcDbPolyline
 62
7
  6
CONTINUOUS
 90
5
 70
0
 10
14.5032853399
 20
5.5603173429
 10
14.5060457329
 20
5.5658615408
 10
14.5088248375
 20
5.5708509198
 10
14.5117377238
 20
5.5755719492
 10
14.5147817181
 20
5.5800299197
  0
LINE
  5
68C
100
AcDbEntity
  8
0
100
AcDbLine
 62
7
  6
CONTINUOUS
 10
14.5020889848
 20
5.5534280094
 11
14.5079979953
 21
5.5648285158
  0
LINE
  5
68D
100
AcDbEntity
  8
0
100
AcDbLine
 62
7
  6
CONTINUOUS
 10
14.5038013099
 20
5.567038147
 11
14.5014806035
 21
5.562646492
  0
LINE
  5
68E
100
AcDbEntity
  8
0
100
AcDbLine
 62
7
  6
CONTINUOUS
 10
14.5090355403
 20
5.5754490376
 11
14.5029755012
 21
5.5640913297
  0
LWPOLYLINE
  5
68F
100
AcDbEntity
  8
0
100
AcDbPolyline
 62
7
  6
CONTINUOUS
 90
4
 70
0
 10
14.5047100432
 20
5.5702514027
 10
14.4989184539
 20
5.5594770416
 10
14.4945912994
 20
5.5483201984
 10
14.4919172655
 20
5.5372635379
  0
LINE
  5
690
100
AcDbEntity
  8
0
100
AcDbLine
 62
7
  6
CONTINUOUS
 10
14.501884133
 20
5.5634483775
 11
14.5041545906
 21
5.5676571742
  0
LWPOLYLINE
  5
691
100
AcDbEntity
  8
0
100
AcDbPolyline
 62
7
  6
CONTINUOUS
 90
11
 70
0
 10
14.5552988596
 20
5.5448740584
 10
14.5584749395
 20
5.5502921495
 10
14.5646893258
 20
5.5593132862
 10
14.5723010486
 20
5.5685227447
 10
14.580442088
 20
5.5765548299
 10
14.5877061431
 20
5.5823388003
 10
14.5941673352
 20
5.5864583364
 10
14.6007630461
 20
5.5897019487
 10
14.6081372116
 20
5.5921087299
 10
14.6159555122
 20
5.5930651163
 10
14.6227997326
 20
5.5922357426
  0
LINE
  5
692
100
AcDbEntity
  8
0
100
AcDbLine
 62
7
  6
CONTINUOUS
 10
14.5063390606
 20
5.5713340876
 11
14.5038013099
 21
5.567038147
  0
LINE
  5
693
100
AcDbEntity
  8
0
100
AcDbLine
 62
7
  6
CONTINUOUS
 10
14.5041545906
 20
5.5676571742
 11
14.5063778641
 21
5.5713904322
  0
LWPOLYLINE
  5
694
100
AcDbEntity
  8
0
100
AcDbPolyline
 62
7
  6
CONTINUOUS
 90
6
 70
0
 10
14.7009264297
 20
5.4920908165
 10
14.6953312661
 20
5.4864860587
 10
14.6877583083
 20
5.4764453917
 10
14.681376943
 20
5.4654108182
 10
14.6763511093
 20
5.4536870292
 10
14.6731970206
 20
5.4426441722
  0
LWPOLYLINE
  5
695
100
AcDbEntity
  8
0
100
AcDbPolyline
 62
7
  6
CONTINUOUS
 90
7
 70
0
 10
14.7453780867
 20
5.466884561
 10
14.7435901995
 20
5.4653506821
 10
14.7357041604
 20
5.4562404463
 10
14.7287068677
 20
5.4456945584
 10
14.7228804503
 20
5.4341143546
 10
14.7185664846
 20
5.4220037312
 10
14.7178490141
 20
5.4186317684
  0
LINE
  5
696
100
AcDbEntity
  8
0
100
AcDbLine
 62
7
  6
CONTINUOUS
 10
14.8169189146
 20
5.5207771182
 11
14.8211216544
 21
5.5242232105
  0
LWPOLYLINE
  5
697
100
AcDbEntity
  8
0
100
AcDbPolyline
 62
7
  6
CONTINUOUS
 90
12
 70
0
 10
14.778530938
 20
5.4649113547
 10
14.776209486
 20
5.4630256647
 10
14.7688353205
 20
5.4557592764
 10
14.7610170199
 20
5.446376321
 10
14.7541727995
 20
5.4364091826
 10
14.7489064449
 20
5.4272434348
 10
14.7447363777
 20
5.4186377036
 10
14.7408845153
 20
5.4089552193
 10
14.7374811685
 20
5.3977803543
 10
14.735089087
 20
5.3859455866
 10
14.7340923875
 20
5.3758781726
 10
14.7340842776
 20
5.3673477967
  0
LWPOLYLINE
  5
698
100
AcDbEntity
  8
0
100
AcDbPolyline
 62
7
  6
CONTINUOUS
 90
7
 70
0
 10
14.7239464659
 20
5.4804408391
 10
14.723813445
 20
5.4803368774
 10
14.7158154564
 20
5.471809453
 10
14.7084850156
 20
5.4615586148
 10
14.7022136389
 20
5.4500569224
 10
14.6974088244
 20
5.4378619411
 10
14.6960212829
 20
5.4322740216
  0
LWPOLYLINE
  5
699
100
AcDbEntity
  8
0
100
AcDbPolyline
 62
7
  6
CONTINUOUS
 90
67
 70
0
 10
14.8211216544
 20
5.5242232105
 10
14.8225298017
 20
5.5252295484
 10
14.8280467972
 20
5.5284306223
 10
14.8334453317
 20
5.5305564423
 10
14.8387084254
 20
5.5317542674
 10
14.8438525752
 20
5.5321485224
 10
14.8488796888
 20
5.5318325088
 10
14.8538156667
 20
5.5308756939
 10
14.8586783212
 20
5.5293255501
 10
14.8634965359
 20
5.5272066867
 10
14.8682983636
 20
5.524523845
 10
14.8731058627
 20
5.5212674251
 10
14.8779549371
 20
5.5174002231
 10
14.8828601206
 20
5.5128827032
 10
14.8878585129
 20
5.5076355499
 10
14.8929592989
 20
5.501584693
 10
14.8981881465
 20
5.4946134365
 10
14.9035408256
 20
5.4866157036
 10
14.9090251022
 20
5.4774373498
 10
14.9146156189
 20
5.4669399947
 10
14.9202618001
 20
5.4549996611
 10
14.9259100613
 20
5.4414600736
 10
14.9315052822
 20
5.4260981926
 10
14.9366368029
 20
5.4097790455
 10
14.9408437981
 20
5.3942074662
 10
14.944033993
 20
5.3805197786
 10
14.9464493654
 20
5.3685930514
 10
14.9483288813
 20
5.3579523201
 10
14.9497900531
 20
5.3484707168
 10
14.9509265656
 20
5.3400075305
 10
14.9518093054
 20
5.3324431964
 10
14.9524889718
 20
5.3257152975
 10
14.9530081533
 20
5.3197517112
 10
14.9534014994
 20
5.314480868
 10
14.9536951616
 20
5.3098637754
 10
14.9539116234
 20
5.30584761
 10
14.9540724889
 20
5.3022978211
 10
14.9541938839
 20
5.2990654628
 10
14.9542856026
 20
5.2960416468
 10
14.954353744
 20
5.2931316358
 10
14.954401286
 20
5.2902722092
 10
14.9544292422
 20
5.2874349637
 10
14.9544378485
 20
5.2846025314
 10
14.9544270369
 20
5.2817828596
 10
14.9543968761
 20
5.2789790036
 10
14.9543470998
 20
5.2761748402
 10
14.9542766265
 20
5.2733421545
 10
14.954182044
 20
5.2704116632
 10
14.9540573723
 20
5.2673064424
 10
14.9538921839
 20
5.2639196955
 10
14.953671482
 20
5.2601465619
 10
14.9533755953
 20
5.2558988673
 10
14.9529802384
 20
5.2511137174
 10
14.9524588155
 20
5.2457765822
 10
14.9517778905
 20
5.2398668509
 10
14.9508944942
 20
5.2333554847
 10
14.9497574027
 20
5.2262343149
 10
14.9482984614
 20
5.2184797619
 10
14.9464235276
 20
5.2100516824
 10
14.9440155772
 20
5.2009571382
 10
14.9408481687
 20
5.1910292837
 10
14.9366504627
 20
5.1803341543
 10
14.9315137677
 20
5.1699243052
 10
14.9259105843
 20
5.1610085746
 10
14.9202630967
 20
5.1539915721
 10
14.9146176165
 20
5.1485709912
 10
14.9090270864
 20
5.1445284169
  0
LWPOLYLINE
  5
69A
100
AcDbEntity
  8
0
100
AcDbPolyline
 62
7
  6
CONTINUOUS
 90
7
 70
0
 10
14.1880964627
 20
5.5225317014
 10
14.1910422086
 20
5.5168396261
 10
14.1939612953
 20
5.5109011709
 10
14.1969110033
 20
5.5046569301
 10
14.1998607424
 20
5.4981903147
 10
14.2027803731
 20
5.4915487257
 10
14.2057293876
 20
5.4845392044
  0
LWPOLYLINE
  5
69B
100
AcDbEntity
  8
0
100
AcDbPolyline
 62
7
  6
CONTINUOUS
 90
8
 70
0
 10
14.1181751475
 20
5.7289499755
 10
14.1190945941
 20
5.7254913106
 10
14.1222606466
 20
5.7217786676
 10
14.1272315314
 20
5.7189087909
 10
14.1336621359
 20
5.7170809267
 10
14.1406513869
 20
5.7165567642
 10
14.14764422
 20
5.717368134
 10
14.1537712852
 20
5.719425409
  0
LINE
  5
69C
100
AcDbEntity
  8
0
100
AcDbLine
 62
7
  6
CONTINUOUS
 10
14.4020134853
 20
5.5602669448
 11
14.4015449028
 21
5.5763764804
  0
LINE
  5
69D
100
AcDbEntity
  8
0
100
AcDbLine
 62
7
  6
CONTINUOUS
 10
14.3626355531
 20
4.1539740492
 11
14.3626355531
 21
4.2182655781
  0
LWPOLYLINE
  5
69E
100
AcDbEntity
  8
0
100
AcDbPolyline
 62
7
  6
CONTINUOUS
 90
5
 70
0
 10
14.2092458975
 20
4.3789902846
 10
14.2068441591
 20
4.3649113493
 10
14.1997310382
 20
4.3513731592
 10
14.1881798882
 20
4.3388962797
 10
14.1726346132
 20
4.3279601903
  0
LINE
  5
69F
100
AcDbEntity
  8
0
100
AcDbLine
 62
7
  6
CONTINUOUS
 10
14.4918846263
 20
5.5330333627
 11
14.4932384774
 21
5.5400628578
  0
LWPOLYLINE
  5
6A0
100
AcDbEntity
  8
0
100
AcDbPolyline
 62
7
  6
CONTINUOUS
 90
5
 70
0
 10
14.4934269194
 20
5.5408378059
 10
14.4930378765
 20
5.5391674365
 10
14.4927117142
 20
5.5376490149
 10
14.4924272782
 20
5.5362120729
 10
14.4922164178
 20
5.5350593025
  0
LINE
  5
6A1
100
AcDbEntity
  8
0
100
AcDbLine
 62
7
  6
CONTINUOUS
 10
14.4932384774
 20
5.5400628578
 11
14.4951614212
 21
5.5470691784
  0
LWPOLYLINE
  5
6A2
100
AcDbEntity
  8
0
100
AcDbPolyline
 62
7
  6
CONTINUOUS
 90
14
 70
0
 10
14.5194380171
 20
5.5241699149
 10
14.5227387489
 20
5.5351157831
 10
14.5270667195
 20
5.5458229824
 10
14.5315231405
 20
5.5547681516
 10
14.5363777606
 20
5.5630496731
 10
14.5425921469
 20
5.5720708097
 10
14.5502038697
 20
5.5812802683
 10
14.5583449091
 20
5.5893123535
 10
14.5656089642
 20
5.5950963239
 10
14.5720701563
 20
5.59921586
 10
14.5786658672
 20
5.6024594723
 10
14.5860400327
 20
5.6048662534
 10
14.5938583333
 20
5.6058226398
 10
14.6007025537
 20
5.6049932662
  0
LWPOLYLINE
  5
6A3
100
AcDbEntity
  8
0
100
AcDbPolyline
 62
7
  6
CONTINUOUS
 90
5
 70
0
 10
14.4959718928
 20
5.549537641
 10
14.4951457005
 20
5.5470212976
 10
14.4944655501
 20
5.544759367
 10
14.493899199
 20
5.5427042675
 10
14.4934269194
 20
5.5408378059
  0
LINE
  5
6A4
100
AcDbEntity
  8
0
100
AcDbLine
 62
7
  6
CONTINUOUS
 10
14.4951614212
 20
5.5470691784
 11
14.4973346435
 21
5.5532793532
  0
LWPOLYLINE
  5
6A5
100
AcDbEntity
  8
0
100
AcDbPolyline
 62
7
  6
CONTINUOUS
 90
7
 70
0
 10
14.7670822583
 20
5.4536553787
 10
14.762633668
 20
5.449361863
 10
14.7550022739
 20
5.4395895906
 10
14.748424492
 20
5.4286158818
 10
14.7431676477
 20
5.4168504369
 10
14.7394743976
 20
5.4046481899
 10
14.7393669742
 20
5.403972384
  0
LINE
  5
6A6
100
AcDbEntity
  8
0
100
AcDbLine
 62
7
  6
CONTINUOUS
 10
14.3368989913
 20
5.0068780485
 11
14.3085697246
 21
4.9905222364
  0
LWPOLYLINE
  5
6A7
100
AcDbEntity
  8
0
100
AcDbPolyline
 62
7
  6
CONTINUOUS
 90
18
 70
0
 10
14.9036135051
 20
5.1417127279
 10
14.8981917448
 20
5.1398651851
 10
14.8929630286
 20
5.1389310069
 10
14.8878607455
 20
5.1387694281
 10
14.8828617894
 20
5.1392935914
 10
14.8779536336
 20
5.1404406323
 10
14.8731057971
 20
5.1421721736
 10
14.8682947317
 20
5.144468772
 10
14.863496006
 20
5.1473288756
 10
14.8586757083
 20
5.1507751589
 10
14.8538164123
 20
5.1548371042
 10
14.8488804537
 20
5.1595796218
 10
14.8438555119
 20
5.1650656663
 10
14.8387113011
 20
5.171399394
 10
14.8334482047
 20
5.1786739291
 10
14.8280492014
 20
5.1870335624
 10
14.8225314143
 20
5.1966059458
 10
14.8169189146
 20
5.2075400838
  0
LWPOLYLINE
  5
6A8
100
AcDbEntity
  8
0
100
AcDbPolyline
 62
7
  6
CONTINUOUS
 90
4
 70
0
 10
14.7450902299
 20
5.3357290012
 10
14.7413600512
 20
5.336410952
 10
14.735202071
 20
5.3389808964
 10
14.7344937749
 20
5.3393779538
  0
LWPOLYLINE
  5
6A9
100
AcDbEntity
  8
0
100
AcDbPolyline
 62
7
  6
CONTINUOUS
 90
4
 70
0
 10
14.7228197827
 20
5.3485182017
 10
14.7192628722
 20
5.3491684756
 10
14.7131048921
 20
5.35173842
 10
14.712396596
 20
5.3521354774
  0
LWPOLYLINE
  5
6AA
100
AcDbEntity
  8
0
100
AcDbPolyline
 62
7
  6
CONTINUOUS
 90
4
 70
0
 10
14.7007226038
 20
5.3612757252
 10
14.6971656933
 20
5.3619259992
 10
14.6910077131
 20
5.3644959436
 10
14.6902994171
 20
5.364893001
  0
LWPOLYLINE
  5
6AB
100
AcDbEntity
  8
0
100
AcDbPolyline
 62
7
  6
CONTINUOUS
 90
3
 70
0
 10
14.6786254249
 20
5.3740332488
 10
14.6750685144
 20
5.3746835227
 10
14.6690013736
 20
5.3772155566
  0
LWPOLYLINE
  5
6AC
100
AcDbEntity
  8
0
100
AcDbPolyline
 62
7
  6
CONTINUOUS
 90
7
 70
0
 10
14.1575562899
 20
5.4567266195
 10
14.1465423681
 20
5.4590862683
 10
14.1356477708
 20
5.4611222416
 10
14.1246458048
 20
5.4629350679
 10
14.1136440207
 20
5.464525825
 10
14.102751491
 20
5.4658599626
 10
14.0917502673
 20
5.4669065316
  0
LINE
  5
6AD
100
AcDbEntity
  8
0
100
AcDbLine
 62
7
  6
CONTINUOUS
 10
13.3872416412
 20
5.9476283541
 11
13.3686197532
 21
5.958379463
  0
LWPOLYLINE
  5
6AE
100
AcDbEntity
  8
02___PRT_ALL_AXES
100
AcDbPolyline
 62
7
  6
CONTINUOUS
 90
5
 70
0
 10
14.3151086039
 20
5.4596024208
 10
14.3181612009
 20
5.4544963433
 10
14.3242041625
 20
5.44018002
 10
14.3268143216
 20
5.4255219739
 10
14.326923365
 20
5.4218355494
  0
LINE
  5
6AF
100
AcDbEntity
  8
0
100
AcDbLine
 62
7
  6
CONTINUOUS
 10
14.4913304275
 20
5.5156197077
 11
14.4910152079
 21
5.52183452
  0
LWPOLYLINE
  5
6B0
100
AcDbEntity
  8
0
100
AcDbPolyline
 62
7
  6
CONTINUOUS
 90
3
 70
0
 10
14.4910152075
 20
5.5218344724
 10
14.4912911231
 20
5.5158979338
 10
14.4913304275
 20
5.5156197077
  0
LWPOLYLINE
  5
6B1
100
AcDbEntity
  8
0
100
AcDbPolyline
 62
7
  6
CONTINUOUS
 90
6
 70
0
 10
14.4937706251
 20
5.5093509277
 10
14.4937607576
 20
5.5140668306
 10
14.4946169618
 20
5.5235238729
 10
14.4966876357
 20
5.5345429754
 10
14.500017201
 20
5.546077318
 10
14.503889907
 20
5.5561399842
  0
LINE
  5
6B2
100
AcDbEntity
  8
0
100
AcDbLine
 62
7
  6
CONTINUOUS
 10
14.42527508
 20
4.8250233228
 11
14.4411302032
 21
5.3494571061
  0
LINE
  5
6B3
100
AcDbEntity
  8
0
100
AcDbLine
 62
7
  6
CONTINUOUS
 10
14.4911486735
 20
5.5261856439
 11
14.4910152075
 21
5.5218344724
  0
LWPOLYLINE
  5
6B4
100
AcDbEntity
  8
0
100
AcDbPolyline
 62
7
  6
CONTINUOUS
 90
9
 70
0
 10
14.4910153099
 20
5.5076805559
 10
14.4912467829
 20
5.5145847761
 10
14.4918440106
 20
5.5209087389
 10
14.4927371987
 20
5.5269385791
 10
14.4941166461
 20
5.5337574841
 10
14.4960948499
 20
5.5413019364
 10
14.4983267738
 20
5.5482035894
 10
14.5006048601
 20
5.5541926436
 10
14.5032853399
 20
5.5603173429
  0
LINE
  5
6B5
100
AcDbEntity
  8
0
100
AcDbLine
 62
7
  6
CONTINUOUS
 10
14.4910152079
 20
5.5218345201
 11
14.4912031716
 21
5.5269429439
  0
LWPOLYLINE
  5
6B6
100
AcDbEntity
  8
0
100
AcDbPolyline
 62
7
  6
CONTINUOUS
 90
5
 70
0
 10
14.4910153099
 20
5.5076805559
 10
14.4917291709
 20
5.518566489
 10
14.4938531762
 20
5.530008665
 10
14.4973350257
 20
5.5417253396
 10
14.5020889848
 20
5.5534280094
  0
LINE
  5
6B7
100
AcDbEntity
  8
0
100
AcDbLine
 62
7
  6
CONTINUOUS
 10
14.4919172655
 20
5.5372635379
 11
14.4910151719
 21
5.5268169209
  0
LINE
  5
6B8
100
AcDbEntity
  8
0
100
AcDbLine
 62
7
  6
CONTINUOUS
 10
14.4915563777
 20
5.5306199964
 11
14.4911486735
 21
5.5261856439
  0
LINE
  5
6B9
100
AcDbEntity
  8
0
100
AcDbLine
 62
7
  6
CONTINUOUS
 10
14.4912031716
 20
5.5269429439
 11
14.4918846263
 21
5.5330333627
  0
LINE
  5
6BA
100
AcDbEntity
  8
0
100
AcDbLine
 62
7
  6
CONTINUOUS
 10
14.4922164178
 20
5.5350593025
 11
14.4915563777
 21
5.5306199964
  0
LWPOLYLINE
  5
6BB
100
AcDbEntity
  8
0
100
AcDbPolyline
 62
7
  6
CONTINUOUS
 90
7
 70
0
 10
13.8058562419
 20
4.5397149911
 10
13.7674741447
 20
4.513964855
 10
13.736168205
 20
4.48519961
 10
13.7126377458
 20
4.4540618242
 10
13.6974083986
 20
4.4212470642
 10
13.6908203619
 20
4.3874883576
 10
13.6905477082
 20
4.378990285
  0
LINE
  5
6BC
100
AcDbEntity
  8
0
100
AcDbLine
 62
7
  6
CONTINUOUS
 10
14.9036136504
 20
5.1417124522
 11
14.9275702963
 21
5.1537338567
  0
LWPOLYLINE
  5
6BD
100
AcDbEntity
  8
0
100
AcDbPolyline
 62
7
  6
CONTINUOUS
 90
7
 70
0
 10
14.1222904401
 20
5.5327116135
 10
14.133304362
 20
5.5316636484
 10
14.1441989592
 20
5.530328926
 10
14.1552009252
 20
5.5287378374
 10
14.1662027093
 20
5.526924736
 10
14.177095239
 20
5.5248888176
 10
14.1880964627
 20
5.5225317014
  0
LWPOLYLINE
  5
6BE
100
AcDbEntity
  8
0
100
AcDbPolyline
 62
7
  6
CONTINUOUS
 90
5
 70
0
 10
14.7947705055
 20
5.4920640151
 10
14.7901860276
 20
5.4925994969
 10
14.7825743048
 20
5.4917391836
 10
14.7744332653
 20
5.4890914927
 10
14.7671692102
 20
5.4854078213
  0
LWPOLYLINE
  5
6BF
100
AcDbEntity
  8
02___PRT_ALL_AXES
100
AcDbPolyline
 62
7
  6
CONTINUOUS
 90
12
 70
0
 10
14.3151086039
 20
5.4596024208
 10
14.2991530036
 20
5.4807618501
 10
14.2788329134
 20
5.5007604735
 10
14.2546241146
 20
5.5182507083
 10
14.2276028281
 20
5.5321526977
 10
14.1986450361
 20
5.5420740058
 10
14.1687488689
 20
5.5478791497
 10
14.1388100939
 20
5.5496724746
 10
14.1093259229
 20
5.5476499865
 10
14.0808407413
 20
5.5419777718
 10
14.0542413591
 20
5.5329889963
 10
14.0297696904
 20
5.5209562351
  0
LWPOLYLINE
  5
6C0
100
AcDbEntity
  8
0
100
AcDbPolyline
 62
7
  6
CONTINUOUS
 90
8
 70
0
 10
14.3965648031
 20
5.568225269
 10
14.3974842497
 20
5.5647666041
 10
14.4006503022
 20
5.5610539611
 10
14.405621187
 20
5.5581840844
 10
14.4120517915
 20
5.5563562202
 10
14.4190410425
 20
5.5558320577
 10
14.4260338756
 20
5.5566434275
 10
14.4321609408
 20
5.5587007025
  0
LWPOLYLINE
  5
6C1
100
AcDbEntity
  8
0
100
AcDbPolyline
 62
7
  6
CONTINUOUS
 90
4
 70
0
 10
14.7923354531
 20
5.4882294781
 10
14.8011775218
 20
5.5021533014
 10
14.8094323527
 20
5.5129327061
 10
14.8169189138
 20
5.5207771183
  0
LWPOLYLINE
  5
6C2
100
AcDbEntity
  8
0
100
AcDbPolyline
 62
7
  6
CONTINUOUS
 90
3
 70
0
 10
13.9729533749
 20
4.346844503
 10
13.9803119068
 20
4.3547927606
 10
13.9958571819
 20
4.36572885
  0
LINE
  5
6C3
100
AcDbEntity
  8
0
100
AcDbLine
 62
7
  6
CONTINUOUS
 10
14.9275783995
 20
5.1537385352
 11
14.9508408545
 21
5.1689790628
  0
LINE
  5
6C4
100
AcDbEntity
  8
0
100
AcDbLine
 62
7
  6
CONTINUOUS
 10
14.1399210469
 20
4.7325862449
 11
13.8058562419
 21
4.5397149911
  0
LINE
  5
6C5
100
AcDbEntity
  8
0
100
AcDbLine
 62
7
  6
CONTINUOUS
 10
14.982049755
 20
5.1464754125
 11
14.42527508
 21
4.8250233228
  0
LINE
  5
6C6
100
AcDbEntity
  8
0
100
AcDbLine
 62
7
  6
CONTINUOUS
 10
14.9090270864
 20
5.1445284169
 11
14.9036135051
 21
5.1417127279
  0
LINE
  5
6C7
100
AcDbEntity
  8
0
100
AcDbLine
 62
7
  6
CONTINUOUS
 10
14.4911022354
 20
5.5246717
 11
14.4321609408
 21
5.5587007025
  0
LINE
  5
6C8
100
AcDbEntity
  8
0
100
AcDbLine
 62
7
  6
CONTINUOUS
 10
14.4015449028
 20
5.5763764804
 11
14.1537712852
 21
5.719425409
  0
LINE
  5
6C9
100
AcDbEntity
  8
0
100
AcDbLine
 62
7
  6
CONTINUOUS
 10
14.1231552472
 20
5.7371011869
 11
13.9626226705
 21
5.8297826165
  0
LINE
  5
6CA
100
AcDbEntity
  8
0
100
AcDbLine
 62
7
  6
CONTINUOUS
 10
14.6902994171
 20
5.364893001
 11
14.6860446136
 21
5.36782867
  0
LINE
  5
6CB
100
AcDbEntity
  8
0
100
AcDbLine
 62
7
  6
CONTINUOUS
 10
14.712396596
 20
5.3521354774
 11
14.7081417925
 21
5.3550711464
  0
LINE
  5
6CC
100
AcDbEntity
  8
0
100
AcDbLine
 62
7
  6
CONTINUOUS
 10
14.7344937749
 20
5.3393779538
 11
14.7302389714
 21
5.3423136228
  0
LWPOLYLINE
  5
6CD
100
AcDbEntity
  8
0
100
AcDbPolyline
 62
7
  6
CONTINUOUS
 90
7
 70
0
 10
14.6677927409
 20
5.4056203674
 10
14.6685895595
 20
5.3978012016
 10
14.6704380331
 20
5.3896817078
 10
14.6737926507
 20
5.3813477093
 10
14.6786144944
 20
5.3740438053
 10
14.6839338412
 20
5.3689064541
 10
14.6875372503
 20
5.3664877026
  0
LWPOLYLINE
  5
6CE
100
AcDbEntity
  8
0
100
AcDbPolyline
 62
7
  6
CONTINUOUS
 90
7
 70
0
 10
14.6898899198
 20
5.3928628439
 10
14.6906867384
 20
5.385043678
 10
14.692535212
 20
5.3769241842
 10
14.6958898296
 20
5.3685901857
 10
14.7007116733
 20
5.3612862817
 10
14.7060310202
 20
5.3561489305
 10
14.7096344292
 20
5.353730179
  0
LWPOLYLINE
  5
6CF
100
AcDbEntity
  8
0
100
AcDbPolyline
 62
7
  6
CONTINUOUS
 90
17
 70
0
 10
14.6705548882
 20
5.404025677
 10
14.670551163
 20
5.4123027329
 10
14.6714722658
 20
5.4220212328
 10
14.6737357806
 20
5.4335988423
 10
14.6774190012
 20
5.4458131181
 10
14.6817469719
 20
5.4565203173
 10
14.6862033929
 20
5.4654654866
 10
14.691058013
 20
5.473747008
 10
14.6972723993
 20
5.4827681447
 10
14.704884122
 20
5.4919776033
 10
14.7130251615
 20
5.5000096884
 10
14.7202892166
 20
5.5057936588
 10
14.7267504087
 20
5.5099131949
 10
14.7333461196
 20
5.5131568072
 10
14.7407202851
 20
5.5155635884
 10
14.7485385856
 20
5.5165199748
 10
14.755382806
 20
5.5156906012
  0
LWPOLYLINE
  5
6D0
100
AcDbEntity
  8
0
100
AcDbPolyline
 62
7
  6
CONTINUOUS
 90
17
 70
0
 10
14.6926520671
 20
5.3912681534
 10
14.6926483419
 20
5.3995452093
 10
14.6935694447
 20
5.4092637092
 10
14.6958329595
 20
5.4208413187
 10
14.6995161801
 20
5.4330555945
 10
14.7038441508
 20
5.4437627938
 10
14.7083005718
 20
5.452707963
 10
14.7131551919
 20
5.4609894844
 10
14.7193695782
 20
5.4700106211
 10
14.7269813009
 20
5.4792200797
 10
14.7351223404
 20
5.4872521648
 10
14.7423863955
 20
5.4930361353
 10
14.7488475876
 20
5.4971556713
 10
14.7554432985
 20
5.5003992837
 10
14.762817464
 20
5.5028060648
 10
14.7706357645
 20
5.5037624512
 10
14.777479985
 20
5.5029330776
  0
LINE
  5
6D1
100
AcDbEntity
  8
0
100
AcDbLine
 62
7
  6
CONTINUOUS
 10
14.6967003581
 20
4.346845303
 11
14.6967003581
 21
4.4111368319
  0
LWPOLYLINE
  5
6D2
100
AcDbEntity
  8
0
100
AcDbPolyline
 62
7
  6
CONTINUOUS
 90
6
 70
0
 10
14.5645745131
 20
4.9054474079
 10
14.5609045074
 20
4.8924540513
 10
14.5542906888
 20
4.8786946291
 10
14.5456774358
 20
4.8673054665
 10
14.535213156
 20
4.8584799745
 10
14.5322706374
 20
4.8566618946
  0
LWPOLYLINE
  5
6D3
100
AcDbEntity
  8
0
100
AcDbPolyline
 62
7
  6
CONTINUOUS
 90
65
 70
0
 10
14.9508416538
 20
5.1689777882
 10
14.9532706282
 20
5.1708866699
 10
14.9589168094
 20
5.1763075025
 10
14.9645650706
 20
5.1833251874
 10
14.9701602915
 20
5.1922264099
 10
14.9752918122
 20
5.2026203214
 10
14.9794988074
 20
5.2133341909
 10
14.9826890023
 20
5.2233382421
 10
14.9851043747
 20
5.2324760006
 10
14.9869838906
 20
5.240946503
 10
14.9884450624
 20
5.2487409285
 10
14.9895815749
 20
5.255891813
 10
14.9904643146
 20
5.2624368701
 10
14.9911439811
 20
5.2683799755
 10
14.9916631626
 20
5.2737440762
 10
14.9920565087
 20
5.2785607328
 10
14.9923501709
 20
5.2828387411
 10
14.9925666327
 20
5.2866049635
 10
14.9927274982
 20
5.2899690051
 10
14.9928488932
 20
5.2930611919
 10
14.9929406119
 20
5.2959791026
 10
14.9930087533
 20
5.2988104324
 10
14.9930562953
 20
5.3016149635
 10
14.9930842515
 20
5.3044199287
 10
14.9930928578
 20
5.3072424236
 10
14.9930820462
 20
5.3100745792
 10
14.9930518854
 20
5.312913261
 10
14.9930021091
 20
5.3157748999
 10
14.9929316358
 20
5.3186889594
 10
14.9928370533
 20
5.3217286627
 10
14.9927123816
 20
5.3249778387
 10
14.9925471932
 20
5.3285553244
 10
14.9923264913
 20
5.3325832968
 10
14.9920306046
 20
5.3371726442
 10
14.9916352477
 20
5.3424143026
 10
14.9911138248
 20
5.3483535116
 10
14.9904328998
 20
5.3550494895
 10
14.9895495035
 20
5.3625808908
 10
14.988412412
 20
5.371015031
 10
14.9869534707
 20
5.3804541862
 10
14.9850785369
 20
5.3910472038
 10
14.9826705865
 20
5.4029221467
 10
14.979503178
 20
5.4165073269
 10
14.975305472
 20
5.43204944
 10
14.970168777
 20
5.4483904993
 10
14.9645655936
 20
5.4637760825
 10
14.958918106
 20
5.4773140943
 10
14.9532726257
 20
5.4892533669
 10
14.9476820957
 20
5.4997511832
 10
14.9421983514
 20
5.5089290743
 10
14.9368467541
 20
5.5169257068
 10
14.9316180379
 20
5.5238973498
 10
14.9265157548
 20
5.5299504044
 10
14.9215167987
 20
5.5351984078
 10
14.9166086429
 20
5.5397186888
 10
14.9117608064
 20
5.5435848203
 10
14.906949741
 20
5.546843436
 10
14.9021510153
 20
5.5495242982
 10
14.8973307176
 20
5.5516438894
 10
14.8924714216
 20
5.5531928488
 10
14.887535463
 20
5.5541497564
 10
14.8825105212
 20
5.5544658836
 10
14.8773663104
 20
5.5540720445
 10
14.872103214
 20
5.5528746721
 10
14.868346864
 20
5.5514993281
  0
LWPOLYLINE
  5
6D4
100
AcDbEntity
  8
0
100
AcDbPolyline
 62
7
  6
CONTINUOUS
 90
6
 70
0
 10
14.4858732083
 20
4.8298734226
 10
14.4887640596
 20
4.8316584535
 10
14.4992547823
 20
4.840491481
 10
14.507891948
 20
4.8519054316
 10
14.5145146626
 20
4.8656876848
 10
14.5181747996
 20
4.8786586807
  0
LINE
  5
6D5
100
AcDbEntity
  8
0
100
AcDbLine
 62
7
  6
CONTINUOUS
 10
14.5322710979
 20
4.8566610967
 11
14.4858732083
 21
4.8298734226
  0
LWPOLYLINE
  5
6D6
100
AcDbEntity
  8
0
100
AcDbPolyline
 62
7
  6
CONTINUOUS
 90
4
 70
0
 10
14.2295135819
 20
5.6756965629
 10
14.237356615
 20
5.6760016179
 10
14.2492816938
 20
5.673244631
 10
14.2546513495
 20
5.6706603898
  0
LWPOLYLINE
  5
6D7
100
AcDbEntity
  8
0
100
AcDbPolyline
 62
7
  6
CONTINUOUS
 90
3
 70
0
 10
14.777479985
 20
5.5029330776
 10
14.7827463396
 20
5.5008779018
 10
14.7833465397
 20
5.5005432522
  0
LWPOLYLINE
  5
6D8
100
AcDbEntity
  8
0
100
AcDbPolyline
 62
7
  6
CONTINUOUS
 90
3
 70
0
 10
14.755382806
 20
5.5156906012
 10
14.7606491607
 20
5.5136354254
 10
14.7612493608
 20
5.5133007758
  0
LWPOLYLINE
  5
6D9
100
AcDbEntity
  8
0
100
AcDbPolyline
 62
7
  6
CONTINUOUS
 90
3
 70
0
 10
14.6227997326
 20
5.5922357426
 10
14.6280660872
 20
5.5901805668
 10
14.6286662873
 20
5.5898459173
  0
LWPOLYLINE
  5
6DA
100
AcDbEntity
  8
0
100
AcDbPolyline
 62
7
  6
CONTINUOUS
 90
3
 70
0
 10
14.6007025537
 20
5.6049932662
 10
14.6059689083
 20
5.6029380904
 10
14.6065691084
 20
5.6026034409
  0
LINE
  5
6DB
100
AcDbEntity
  8
0
100
AcDbLine
 62
7
  6
CONTINUOUS
 10
14.4915447762
 20
5.5338959588
 11
14.2546526305
 21
5.6706626087
  0
LWPOLYLINE
  5
6DC
100
AcDbEntity
  8
0
100
AcDbPolyline
 62
7
  6
CONTINUOUS
 90
4
 70
0
 10
14.6860446136
 20
5.36782867
 10
14.6812960699
 20
5.372545737
 10
14.6768514255
 20
5.3791895894
 10
14.6733446241
 20
5.3876186558
  0
LWPOLYLINE
  5
6DD
100
AcDbEntity
  8
0
100
AcDbPolyline
 62
7
  6
CONTINUOUS
 90
6
 70
0
 10
14.7081417925
 20
5.3550711464
 10
14.7033932488
 20
5.3597882134
 10
14.6989486044
 20
5.3664320658
 10
14.695441803
 20
5.3748611322
 10
14.6934850878
 20
5.3832234016
 10
14.6926520671
 20
5.3912681534
  0
LWPOLYLINE
  5
6DE
100
AcDbEntity
  8
0
100
AcDbPolyline
 62
7
  6
CONTINUOUS
 90
6
 70
0
 10
14.7302389714
 20
5.3423136228
 10
14.7254904277
 20
5.3470306899
 10
14.7210457834
 20
5.3536745422
 10
14.7175389819
 20
5.3621036087
 10
14.7155822667
 20
5.370465878
 10
14.714749246
 20
5.3785106298
  0
LWPOLYLINE
  5
6DF
100
AcDbEntity
  8
0
100
AcDbPolyline
 62
7
  6
CONTINUOUS
 90
4
 70
0
 10
14.7017081449
 20
4.9846210745
 10
14.7132623547
 20
4.9421799383
 10
14.7217054865
 20
4.8924885128
 10
14.7245390918
 20
4.8451043743
  0
LWPOLYLINE
  5
6E0
100
AcDbEntity
  8
0
100
AcDbPolyline
 62
7
  6
CONTINUOUS
 90
4
 70
0
 10
14.7573856123
 20
5.0167662835
 10
14.7689398222
 20
4.9743251473
 10
14.777382954
 20
4.9246337217
 10
14.7802165593
 20
4.8772495833
  0
LWPOLYLINE
  5
6E1
100
AcDbEntity
  8
0
100
AcDbPolyline
 62
7
  6
CONTINUOUS
 90
3
 70
0
 10
14.6733446241
 20
5.3876186558
 10
14.6713879089
 20
5.3959809252
 10
14.6705548882
 20
5.404025677
  0
LWPOLYLINE
  5
6E2
100
AcDbEntity
  8
0
100
AcDbPolyline
 62
7
  6
CONTINUOUS
 90
7
 70
0
 10
14.7119870987
 20
5.3801053203
 10
14.7127839173
 20
5.3722861545
 10
14.7146323909
 20
5.3641666606
 10
14.7179870085
 20
5.3558326621
 10
14.7228088522
 20
5.3485287582
 10
14.7281281991
 20
5.3433914069
 10
14.7317316082
 20
5.3409726554
  0
LWPOLYLINE
  5
6E3
100
AcDbEntity
  8
0
100
AcDbPolyline
 62
7
  6
CONTINUOUS
 90
6
 70
0
 10
14.7340842779
 20
5.3673477965
 10
14.7348285574
 20
5.3598651936
 10
14.7365571582
 20
5.3519885126
 10
14.7396100979
 20
5.3440188586
 10
14.7441419064
 20
5.3367156786
 10
14.746417588
 20
5.3343479596
  0
LWPOLYLINE
  5
6E4
100
AcDbEntity
  8
0
100
AcDbPolyline
 62
7
  6
CONTINUOUS
 90
12
 70
0
 10
14.714749246
 20
5.3785106298
 10
14.7147455208
 20
5.3867876857
 10
14.7156666236
 20
5.3965061857
 10
14.7179301384
 20
5.4080837951
 10
14.7216133591
 20
5.4202980709
 10
14.7259413297
 20
5.4310052702
 10
14.7303977507
 20
5.4399504394
 10
14.7352523708
 20
5.4482319609
 10
14.7414667571
 20
5.4572530975
 10
14.7490784798
 20
5.4664625561
 10
14.7572195193
 20
5.4744946413
 10
14.7644835744
 20
5.4802786117
  0
LWPOLYLINE
  5
6E5
100
AcDbEntity
  8
0
100
AcDbPolyline
 62
7
  6
CONTINUOUS
 90
11
 70
0
 10
14.736846425
 20
5.3657531063
 10
14.7368426997
 20
5.3740301621
 10
14.7377638025
 20
5.3837486621
 10
14.7400273173
 20
5.3953262716
 10
14.743710538
 20
5.4075405474
 10
14.7480385086
 20
5.4182477466
 10
14.7524949297
 20
5.4271929158
 10
14.7573495497
 20
5.4354744373
 10
14.763563936
 20
5.4444955739
 10
14.7711756588
 20
5.4537050325
 10
14.7729419428
 20
5.4554476778
  0
LINE
  5
6E6
100
AcDbEntity
  8
0
100
AcDbLine
 62
7
  6
CONTINUOUS
 10
14.7245390918
 20
4.8451043743
 11
14.7245390918
 21
4.4593552009
  0
LINE
  5
6E7
100
AcDbEntity
  8
0
100
AcDbLine
 62
7
  6
CONTINUOUS
 10
14.7802165593
 20
4.8772495833
 11
14.7802165593
 21
4.4915004098
  0
LINE
  5
6E8
100
AcDbEntity
  8
0
100
AcDbLine
 62
7
  6
CONTINUOUS
 10
14.7802165593
 20
4.8772495833
 11
14.7802165593
 21
5.0299476582
  0
LWPOLYLINE
  5
6E9
100
AcDbEntity
  8
0
100
AcDbPolyline
 62
7
  6
CONTINUOUS
 90
18
 70
0
 10
14.7396085734
 20
5.3641584152
 10
14.7398744145
 20
5.3707297077
 10
14.7407323124
 20
5.3780342682
 10
14.7423588808
 20
5.3864979767
 10
14.7449068944
 20
5.3960728883
 10
14.7479640746
 20
5.4052167994
 10
14.7510560862
 20
5.4131259754
 10
14.7541516765
 20
5.420216496
 10
14.7572634992
 20
5.42677684
 10
14.7604107778
 20
5.4329985263
 10
14.7636233526
 20
5.4390363812
 10
14.7669373967
 20
5.4450231608
 10
14.770397555
 20
5.4510867543
 10
14.7740584256
 20
5.4573612603
 10
14.7780073068
 20
5.4640324523
 10
14.7823299569
 20
5.471287916
 10
14.787093411
 20
5.4793014898
 10
14.7923354531
 20
5.4882294781
  0
LWPOLYLINE
  5
6EA
100
AcDbEntity
  8
0
100
AcDbPolyline
 62
7
  6
CONTINUOUS
 90
10
 70
0
 10
14.7245390918
 20
4.4593552009
 10
14.7241161589
 20
4.4535289685
 10
14.7228602107
 20
4.4473914052
 10
14.7208094087
 20
4.4411289979
 10
14.7180260654
 20
4.4349320266
 10
14.7145947512
 20
4.4289887832
 10
14.7106197249
 20
4.42347985
 10
14.7062217658
 20
4.4185726132
 10
14.7015345034
 20
4.4144161768
 10
14.6967003581
 20
4.4111368319
  0
LINE
  5
6EB
100
AcDbEntity
  8
0
100
AcDbLine
 62
7
  6
CONTINUOUS
 10
14.8358940268
 20
4.9093947922
 11
14.7245390918
 21
4.8451043743
  0
LWPOLYLINE
  5
6EC
100
AcDbEntity
  8
0
100
AcDbPolyline
 62
7
  6
CONTINUOUS
 90
13
 70
0
 10
13.9958571819
 20
4.4300203789
 10
14.0147991857
 20
4.4389954104
 10
14.0364099877
 20
4.4456644786
 10
14.0598590968
 20
4.4497712948
 10
14.0842453771
 20
4.4511580366
 10
14.1086316773
 20
4.4497714121
 10
14.1320808457
 20
4.4456647085
 10
14.1536917439
 20
4.4389957443
 10
14.1726338772
 20
4.4300208039
 10
14.1881793099
 20
4.4190847892
 10
14.1997306399
 20
4.4066079652
 10
14.206843956
 20
4.3930698093
 10
14.2092458975
 20
4.3789902846
  0
LWPOLYLINE
  5
6ED
100
AcDbEntity
  8
0
100
AcDbPolyline
 62
7
  6
CONTINUOUS
 90
19
 70
0
 10
14.7805843721
 20
5.5021379544
 10
14.7791578549
 20
5.5028960699
 10
14.7743032349
 20
5.5046311602
 10
14.7680888487
 20
5.5053570205
 10
14.7604771259
 20
5.5044967072
 10
14.7523360864
 20
5.5018490163
 10
14.7450720313
 20
5.4981653449
 10
14.7386108391
 20
5.4938983354
 10
14.7320151282
 20
5.4885407119
 10
14.7246409627
 20
5.4812743235
 10
14.7168226621
 20
5.4718913682
 10
14.7099784417
 20
5.4619242297
 10
14.7047120871
 20
5.452758482
 10
14.7005420199
 20
5.4441527508
 10
14.6966901574
 20
5.4344702665
 10
14.6932868107
 20
5.4232954014
 10
14.6908947292
 20
5.4114606337
 10
14.6898980296
 20
5.4013932198
 10
14.6898899198
 20
5.3928628439
  0
LWPOLYLINE
  5
6EE
100
AcDbEntity
  8
0
100
AcDbPolyline
 62
7
  6
CONTINUOUS
 90
19
 70
0
 10
14.7584871932
 20
5.5148954779
 10
14.757060676
 20
5.5156535935
 10
14.752206056
 20
5.5173886838
 10
14.7459916697
 20
5.5181145441
 10
14.738379947
 20
5.5172542308
 10
14.7302389075
 20
5.5146065398
 10
14.7229748524
 20
5.5109228685
 10
14.7165136602
 20
5.506655859
 10
14.7099179493
 20
5.5012982355
 10
14.7025437838
 20
5.4940318471
 10
14.6947254831
 20
5.4846488918
 10
14.6878812628
 20
5.4746817533
 10
14.6826149082
 20
5.4655160055
 10
14.678444841
 20
5.4569102744
 10
14.6745929785
 20
5.4472277901
 10
14.6711896318
 20
5.436052925
 10
14.6687975503
 20
5.4242181573
 10
14.6678008507
 20
5.4141507433
 10
14.6677927409
 20
5.4056203674
  0
LWPOLYLINE
  5
6EF
100
AcDbEntity
  8
0
100
AcDbPolyline
 62
7
  6
CONTINUOUS
 90
14
 70
0
 10
14.6259041197
 20
5.5914406194
 10
14.6244776026
 20
5.5921987349
 10
14.6196229825
 20
5.5939338252
 10
14.6134085963
 20
5.5946596856
 10
14.6057968735
 20
5.5937993722
 10
14.597655834
 20
5.5911516813
 10
14.5903917789
 20
5.58746801
 10
14.5839305867
 20
5.5832010005
 10
14.5773348758
 20
5.5778433769
 10
14.5699607103
 20
5.5705769886
 10
14.5621424097
 20
5.5611940332
 10
14.5552981893
 20
5.5512268948
 10
14.5500318347
 20
5.542061147
 10
14.5498784458
 20
5.5417445997
  0
LWPOLYLINE
  5
6F0
100
AcDbEntity
  8
0
100
AcDbPolyline
 62
7
  6
CONTINUOUS
 90
17
 70
0
 10
14.6038069408
 20
5.604198143
 10
14.6023804236
 20
5.6049562585
 10
14.5975258036
 20
5.6066913488
 10
14.5913114174
 20
5.6074172091
 10
14.5836996946
 20
5.6065568958
 10
14.5755586551
 20
5.6039092049
 10
14.5682946
 20
5.6002255335
 10
14.5618334078
 20
5.595958524
 10
14.5552376969
 20
5.5906009005
 10
14.5478635314
 20
5.5833345121
 10
14.5400452308
 20
5.5739515568
 10
14.5332010104
 20
5.5639844184
 10
14.5279346558
 20
5.5548186706
 10
14.5237645886
 20
5.5462129394
 10
14.5199127261
 20
5.5365304551
 10
14.5165093794
 20
5.5253555901
 10
14.5158511576
 20
5.5220990529
  0
LINE
  5
6F1
100
AcDbEntity
  8
0
100
AcDbLine
 62
7
  6
CONTINUOUS
 10
14.6038079085
 20
5.6041975843
 11
14.6065700558
 21
5.6026028939
  0
LINE
  5
6F2
100
AcDbEntity
  8
0
100
AcDbLine
 62
7
  6
CONTINUOUS
 10
14.6259050874
 20
5.5914400608
 11
14.6286672347
 21
5.5898453703
  0
LINE
  5
6F3
100
AcDbEntity
  8
0
100
AcDbLine
 62
7
  6
CONTINUOUS
 10
14.7584881608
 20
5.5148949193
 11
14.7612503081
 21
5.5133002289
  0
LINE
  5
6F4
100
AcDbEntity
  8
0
100
AcDbLine
 62
7
  6
CONTINUOUS
 10
14.7805853398
 20
5.5021373957
 11
14.7833474871
 21
5.5005427053
  0
LWPOLYLINE
  5
6F5
100
AcDbEntity
  8
0
100
AcDbPolyline
 62
7
  6
CONTINUOUS
 90
4
 70
0
 10
14.6065691084
 20
5.6026034409
 10
14.6101389755
 20
5.6000632111
 10
14.613990838
 20
5.5958638315
 10
14.6147577936
 20
5.594502095
  0
LINE
  5
6F6
100
AcDbEntity
  8
0
100
AcDbLine
 62
7
  6
CONTINUOUS
 10
14.6286662873
 20
5.5898459173
 11
14.6306938787
 21
5.5884031331
  0
LWPOLYLINE
  5
6F7
100
AcDbEntity
  8
0
100
AcDbPolyline
 62
7
  6
CONTINUOUS
 90
4
 70
0
 10
14.7612493608
 20
5.5133007758
 10
14.7648192279
 20
5.5107605461
 10
14.7686710903
 20
5.5065611665
 10
14.769438046
 20
5.5051994299
  0
LWPOLYLINE
  5
6F8
100
AcDbEntity
  8
0
100
AcDbPolyline
 62
7
  6
CONTINUOUS
 90
4
 70
0
 10
14.7833465397
 20
5.5005432522
 10
14.7869164068
 20
5.4980030225
 10
14.7907682693
 20
5.4938036429
 10
14.7915352249
 20
5.4924419063
  0
LWPOLYLINE
  5
6F9
100
AcDbEntity
  8
0
100
AcDbPolyline
 62
7
  6
CONTINUOUS
 90
16
 70
0
 10
14.5875098221
 20
5.6069875347
 10
14.5871882679
 20
5.6073212641
 10
14.5859396619
 20
5.608451915
 10
14.5844891808
 20
5.6095769907
 10
14.5827757035
 20
5.6106882357
 10
14.5808032299
 20
5.6117242608
 10
14.5784588618
 20
5.6126668141
 10
14.5756592925
 20
5.6134409209
 10
14.5723215902
 20
5.6139360715
 10
14.5683704731
 20
5.6140062809
 10
14.5637529962
 20
5.6134735783
 10
14.5590442039
 20
5.6123273184
 10
14.5548030255
 20
5.6108200734
 10
14.5510423481
 20
5.6091296323
 10
14.5475980495
 20
5.6073002174
 10
14.535927506
 20
5.600563407
  0
LWPOLYLINE
  5
6FA
100
AcDbEntity
  8
0
100
AcDbPolyline
 62
7
  6
CONTINUOUS
 90
5
 70
0
 10
14.7443716685
 20
5.3391246883
 10
14.7428109953
 20
5.3415489139
 10
14.7395089951
 20
5.3497576197
 10
14.737644736
 20
5.3579245714
 10
14.7368464253
 20
5.3657531061
  0
LWPOLYLINE
  5
6FB
100
AcDbEntity
  8
0
100
AcDbPolyline
 62
7
  6
CONTINUOUS
 90
18
 70
0
 10
14.7923354531
 20
5.2564487254
 10
14.7870422509
 20
5.2667710241
 10
14.7822338975
 20
5.2755118068
 10
14.7778771587
 20
5.2829900953
 10
14.7739082349
 20
5.2894986252
 10
14.7702384962
 20
5.2953100203
 10
14.7667787309
 20
5.3006553645
 10
14.7634737076
 20
5.3056902509
 10
14.7602768451
 20
5.3105498763
 10
14.7571496772
 20
5.3153620759
 10
14.7540630015
 20
5.3202606043
 10
14.7509970144
 20
5.3254088996
 10
14.74793585
 20
5.3310608469
 10
14.7449079762
 20
5.3376163439
 10
14.7423546383
 20
5.3447975062
 10
14.7407287363
 20
5.3515628067
 10
14.7398734903
 20
5.3579026603
 10
14.7396085734
 20
5.3641584152
  0
LWPOLYLINE
  5
6FC
100
AcDbEntity
  8
0
100
AcDbPolyline
 62
7
  6
CONTINUOUS
 90
4
 70
0
 10
14.8169189138
 20
5.2075400838
 10
14.8094392734
 20
5.2225938018
 10
14.8011826164
 20
5.2388293409
 10
14.7923354531
 20
5.2564487254
  0
LINE
  5
6FD
100
AcDbEntity
  8
0
100
AcDbLine
 62
7
  6
CONTINUOUS
 10
14.8169189146
 20
5.5207771182
 11
14.8169189146
 21
5.2075400838
  0
LINE
  5
6FE
100
AcDbEntity
  8
0
100
AcDbLine
 62
7
  6
CONTINUOUS
 10
14.8358940268
 20
4.9093947922
 11
14.8358940268
 21
5.0620928671
  0
LWPOLYLINE
  5
6FF
100
AcDbEntity
  8
0
100
AcDbPolyline
 62
7
  6
CONTINUOUS
 90
10
 70
0
 10
14.7802165593
 20
4.4915004098
 10
14.7789477606
 20
4.4740217126
 10
14.7751799161
 20
4.455609023
 10
14.76902751
 20
4.436821801
 10
14.7606774799
 20
4.4182308871
 10
14.7503835374
 20
4.4004011567
 10
14.7384584587
 20
4.3838743572
 10
14.7252645812
 20
4.3691526469
 10
14.7112027942
 20
4.3566833376
 10
14.6967003581
 20
4.346845303
  0
LWPOLYLINE
  5
700
100
AcDbEntity
  8
0
100
AcDbPolyline
 62
7
  6
CONTINUOUS
 90
6
 70
0
 10
14.7802165593
 20
4.7498798759
 10
14.787520699
 20
4.7562389752
 10
14.808324784
 20
4.7858362971
 10
14.8235259555
 20
4.8217840359
 10
14.8327846444
 20
4.8632791786
 10
14.8358940268
 20
4.9093947922
  0
LWPOLYLINE
  5
701
100
AcDbEntity
  8
0
100
AcDbPolyline
 62
7
  6
CONTINUOUS
 90
11
 70
0
 10
13.9958571819
 20
4.36572885
 10
14.0147991857
 20
4.3747038815
 10
14.0364099877
 20
4.3813729496
 10
14.0598590968
 20
4.3854797659
 10
14.0842453771
 20
4.3868665076
 10
14.1086316773
 20
4.3854798831
 10
14.1320808457
 20
4.3813731796
 10
14.1536917439
 20
4.3747042154
 10
14.1726338772
 20
4.3657292749
 10
14.1881793099
 20
4.3547932603
 10
14.1955384201
 20
4.3468445373
  0
LINE
  5
702
100
AcDbEntity
  8
0
100
AcDbLine
 62
7
  6
CONTINUOUS
 10
14.982049755
 20
5.1464754125
 11
14.9820497646
 21
5.2213336729
  0
LINE
  5
703
100
AcDbEntity
  8
0
100
AcDbLine
 62
7
  6
CONTINUOUS
 10
14.9820497882
 20
5.4055847829
 11
14.982049821
 21
5.6617553288
  0
LWPOLYLINE
  5
704
100
AcDbEntity
  8
0
100
AcDbPolyline
 62
7
  6
CONTINUOUS
 90
13
 70
0
 10
14.1726346132
 20
4.3279601903
 10
14.1536926094
 20
4.3189851588
 10
14.1320818074
 20
4.3123160907
 10
14.1086326982
 20
4.3082092744
 10
14.0842464179
 20
4.3068225327
 10
14.0598601177
 20
4.3082091572
 10
14.0364109493
 20
4.3123158607
 10
14.0148000511
 20
4.318984825
 10
13.9958579179
 20
4.3279597654
 10
13.9803124851
 20
4.33889578
 10
13.9687611551
 20
4.351372604
 10
13.961647839
 20
4.36491076
 10
13.9592458975
 20
4.3789902846
  0
LINE
  5
705
100
AcDbEntity
  8
0
100
AcDbLine
 62
7
  6
CONTINUOUS
 10
13.9284666552
 20
6.2601028964
 11
13.9098447672
 21
6.2708540053
  0
LINE
  5
706
100
AcDbEntity
  8
0
100
AcDbLine
 62
7
  6
CONTINUOUS
 10
14.7802165593
 20
4.4915004098
 11
14.7245390918
 21
4.4593552009
  0
LINE
  5
707
100
AcDbEntity
  8
0
100
AcDbLine
 62
7
  6
CONTINUOUS
 10
14.3626355531
 20
4.2182655781
 11
14.6967003581
 21
4.4111368319
  0
LINE
  5
708
100
AcDbEntity
  8
0
100
AcDbLine
 62
7
  6
CONTINUOUS
 10
14.3626355531
 20
4.1539740492
 11
14.6967003581
 21
4.346845303
  0
CIRCLE
  5
709
100
AcDbEntity
  8
0
100
AcDbCircle
 62
7
  6
CONTINUOUS
 10
10.5342808475
 20
1.243294839
 40
0.252091
  0
CIRCLE
  5
70A
100
AcDbEntity
  8
0
100
AcDbCircle
 62
7
  6
CONTINUOUS
 10
10.5342808475
 20
1.243294839
 40
0.182698
  0
CIRCLE
  5
70B
100
AcDbEntity
  8
0
100
AcDbCircle
 62
7
  6
CONTINUOUS
 10
10.1225539079
 20
1.9935547577
 40
0.0638444824
  0
ARC
  5
70C
100
AcDbEntity
  8
0
100
AcDbCircle
 62
7
  6
CONTINUOUS
 10
4.5372074084
 20
5.9247309253
 40
0.3937007874
100
AcDbArc
 50
90.080117927
 51
180.0
  0
ARC
  5
70D
100
AcDbEntity
  8
0
100
AcDbCircle
 62
7
  6
CONTINUOUS
 10
4.5372074084
 20
5.9247309253
 40
0.3937007874
100
AcDbArc
 50
0.0
 51
89.919882073
  0
CIRCLE
  5
70E
100
AcDbEntity
  8
0
100
AcDbCircle
 62
7
  6
CONTINUOUS
 10
4.5372074084
 20
5.9247309253
 40
0.1722440945
  0
CIRCLE
  5
70F
100
AcDbEntity
  8
0
100
AcDbCircle
 62
7
  6
CONTINUOUS
 10
4.5372074084
 20
5.9247309253
 40
0.1591207349
  0
CIRCLE
  5
710
100
AcDbEntity
  8
0
100
AcDbCircle
 62
7
  6
CONTINUOUS
 10
4.5372074084
 20
5.9247309253
 40
0.0984251969
  0
CIRCLE
  5
711
100
AcDbEntity
  8
COSMETIC_THREADS
100
AcDbCircle
 62
7
  6
CONTINUOUS
 10
4.5372074084
 20
5.9247309253
 40
0.0826771654
  0
CIRCLE
  5
712
100
AcDbEntity
  8
02___PRT_ALL_AXES
100
AcDbCircle
 62
7
  6
CONTINUOUS
 10
4.5372074084
 20
5.9247309253
 40
0.0825
  0
CIRCLE
  5
713
100
AcDbEntity
  8
02___PRT_ALL_AXES
100
AcDbCircle
 62
7
  6
CONTINUOUS
 10
4.5372074084
 20
5.9247309253
 40
0.0651315789
  0
ARC
  5
714
100
AcDbEntity
  8
0
100
AcDbCircle
 62
7
  6
CONTINUOUS
 10
4.4980988472
 20
6.5775957289
 40
0.165
100
AcDbArc
 50
96.9240866576
 51
153.6774202867
  0
ARC
  5
715
100
AcDbEntity
  8
0
100
AcDbCircle
 62
7
  6
CONTINUOUS
 10
3.8291262054
 20
7.0467781694
 40
0.0984251969
100
AcDbArc
 50
90.0
 51
181.0
  0
ARC
  5
716
100
AcDbEntity
  8
0
100
AcDbCircle
 62
7
  6
CONTINUOUS
 10
3.8554614223
 20
7.0861482481
 40
0.0590551181
100
AcDbArc
 50
276.7563270306
 51
90.0
  0
ARC
  5
717
100
AcDbEntity
  8
0
100
AcDbCircle
 62
7
  6
CONTINUOUS
 10
3.8948315011
 20
6.6727624214
 40
0.0393700787
100
AcDbArc
 50
180.0
 51
270.0
  0
ARC
  5
718
100
AcDbEntity
  8
0
100
AcDbCircle
 62
7
  6
CONTINUOUS
 10
3.8633354381
 20
7.0196839056
 40
0.0078740157
100
AcDbArc
 50
96.7563270306
 51
180.0
  0
ARC
  5
719
100
AcDbEntity
  8
0
100
AcDbCircle
 62
7
  6
CONTINUOUS
 10
4.5763159695
 20
6.5775957289
 40
0.165
100
AcDbArc
 50
26.3225797133
 51
83.0759133422
  0
ARC
  5
71A
100
AcDbEntity
  8
0
100
AcDbCircle
 62
7
  6
CONTINUOUS
 10
5.2804426556
 20
7.1587134765
 40
0.0652300473
100
AcDbArc
 50
359.0
 51
179.0
  0
ARC
  5
71B
100
AcDbEntity
  8
0
100
AcDbCircle
 62
7
  6
CONTINUOUS
 10
5.1673442888
 20
6.6727624214
 40
0.0393700787
100
AcDbArc
 50
270.0
 51
359.0
  0
ARC
  5
71C
100
AcDbEntity
  8
02___PRT_ALL_AXES
100
AcDbCircle
 62
7
  6
CONTINUOUS
 10
9.6269770358
 20
5.9638394864
 40
0.165
100
AcDbArc
 50
10.1293685237
 51
63.6774202867
  0
ARC
  5
71D
100
AcDbEntity
  8
02___PRT_ALL_AXES
100
AcDbCircle
 62
7
  6
CONTINUOUS
 10
9.6269770358
 20
5.8856223642
 40
0.165
100
AcDbArc
 50
296.3225797133
 51
349.8706314763
  0
ARC
  5
71E
100
AcDbEntity
  8
0
100
AcDbCircle
 62
7
  6
CONTINUOUS
 10
9.4859232558
 20
5.4522899804
 40
0.1181102362
100
AcDbArc
 50
270.0
 51
360.0
  0
ARC
  5
71F
100
AcDbEntity
  8
0
100
AcDbCircle
 62
7
  6
CONTINUOUS
 10
9.5646634133
 20
6.3971718702
 40
0.1181102362
100
AcDbArc
 50
0.0
 51
90.0
  0
ARC
  5
720
100
AcDbEntity
  8
0
100
AcDbCircle
 62
7
  6
CONTINUOUS
 10
9.4859232558
 20
5.4522899804
 40
0.0393700787
100
AcDbArc
 50
270.0
 51
360.0
  0
ARC
  5
721
100
AcDbEntity
  8
0
100
AcDbCircle
 62
7
  6
CONTINUOUS
 10
9.5646634133
 20
6.3971718702
 40
0.0393700787
100
AcDbArc
 50
0.0
 51
90.0
  0
ARC
  5
722
100
AcDbEntity
  8
0
100
AcDbCircle
 62
7
  6
CONTINUOUS
 10
4.4980988472
 20
2.4988982394
 40
0.165
100
AcDbArc
 50
206.3225797133
 51
263.0759133424
  0
ARC
  5
723
100
AcDbEntity
  8
0
100
AcDbCircle
 62
7
  6
CONTINUOUS
 10
4.5763159695
 20
2.4988982394
 40
0.165
100
AcDbArc
 50
276.9240866578
 51
333.6774202867
  0
ARC
  5
724
100
AcDbEntity
  8
0
100
AcDbCircle
 62
7
  6
CONTINUOUS
 10
4.143506621
 20
2.6399520194
 40
0.0196850394
100
AcDbArc
 50
90.0
 51
180.0
  0
ARC
  5
725
100
AcDbEntity
  8
0
100
AcDbCircle
 62
7
  6
CONTINUOUS
 10
4.5372074084
 20
3.1123929642
 40
0.3937007874
100
AcDbArc
 50
0.0
 51
180.0
  0
ARC
  5
726
100
AcDbEntity
  8
0
100
AcDbCircle
 62
7
  6
CONTINUOUS
 10
4.5372074084
 20
3.0336528068
 40
0.1722440945
100
AcDbArc
 50
48.120066428
 51
131.879933572
  0
ARC
  5
727
100
AcDbEntity
  8
0
100
AcDbCircle
 62
7
  6
CONTINUOUS
 10
4.5372074084
 20
3.0336528068
 40
0.1591207349
100
AcDbArc
 50
39.2973257717
 51
140.7036212249
  0
CIRCLE
  5
728
100
AcDbEntity
  8
0
100
AcDbCircle
 62
7
  6
CONTINUOUS
 10
4.5372074084
 20
3.1123929642
 40
0.125
  0
ARC
  5
729
100
AcDbEntity
  8
0
100
AcDbCircle
 62
7
  6
CONTINUOUS
 10
4.5372074084
 20
3.0336528068
 40
0.0984251969
100
AcDbArc
 50
1.3649328816
 51
178.6171258844
  0
ARC
  5
72A
100
AcDbEntity
  8
COSMETIC_THREADS
100
AcDbCircle
 62
7
  6
CONTINUOUS
 10
4.5372074084
 20
3.0336528068
 40
0.0826771654
100
AcDbArc
 50
349.0124159005
 51
190.9875840995
  0
ARC
  5
72B
100
AcDbEntity
  8
02___PRT_ALL_AXES
100
AcDbCircle
 62
7
  6
CONTINUOUS
 10
4.5372074084
 20
3.0336528068
 40
0.0825
100
AcDbArc
 50
348.9080375661
 51
191.0919624339
  0
ARC
  5
72C
100
AcDbEntity
  8
02___PRT_ALL_AXES
100
AcDbCircle
 62
7
  6
CONTINUOUS
 10
4.5372074084
 20
3.0336528068
 40
0.0651315789
100
AcDbArc
 50
330.3390748844
 51
209.6609251156
  0
ARC
  5
72D
100
AcDbEntity
  8
0
100
AcDbCircle
 62
7
  6
CONTINUOUS
 10
4.143506621
 20
3.4273535942
 40
0.0196850394
100
AcDbArc
 50
180.0
 51
360.0
  0
ARC
  5
72E
100
AcDbEntity
  8
0
100
AcDbCircle
 62
7
  6
CONTINUOUS
 10
5.5219528155
 20
2.9516528068
 40
0.054666666
100
AcDbArc
 50
90.0000000118
 51
180.0000000235
  0
ARC
  5
72F
100
AcDbEntity
  8
0
100
AcDbCircle
 62
7
  6
CONTINUOUS
 10
4.9309081958
 20
2.6399520194
 40
0.0196850394
100
AcDbArc
 50
0.0
 51
90.0
  0
ARC
  5
730
100
AcDbEntity
  8
0
100
AcDbCircle
 62
7
  6
CONTINUOUS
 10
5.5219528155
 20
3.1156528068
 40
0.054666666
100
AcDbArc
 50
180.0000000235
 51
269.999999978
  0
ARC
  5
731
100
AcDbEntity
  8
0
100
AcDbCircle
 62
7
  6
CONTINUOUS
 10
4.9309081958
 20
3.4273535942
 40
0.0196850394
100
AcDbArc
 50
180.0
 51
360.0
  0
ELLIPSE
  5
732
100
AcDbEntity
  8
DEFAULT_2
100
AcDbEllipse
 62
7
  6
HIDDEN
 10
5.3444160084
 20
3.0336528068
 30
0.0
 11
-0.0
 21
0.082007874
 31
0.0
 40
0.0174550649
 41
-0.5289710498
 42
3.5949778563
  0
ELLIPSE
  5
733
100
AcDbEntity
  8
DEFAULT_2
100
AcDbEllipse
 62
7
  6
HIDDEN
 10
14.7107084163
 20
5.4477950349
 30
0.0
 11
0.0420570235
 21
0.0704095536
 31
0.0
 40
0.5671895179
 41
-0.0776198675
 42
3.3715593978
  0
ELLIPSE
  5
734
100
AcDbEntity
  8
0
100
AcDbEllipse
 62
7
  6
CONTINUOUS
 10
13.9110595844
 20
6.191190965
 30
0.0
 11
-0.0504771134
 21
0.0845046212
 31
0.0
 40
0.5671943254
 41
-0.7938170236
 42
-0.0084275002
  0
ELLIPSE
  5
735
100
AcDbEntity
  8
0
100
AcDbEllipse
 62
7
  6
CONTINUOUS
 10
14.9359179943
 20
5.6893022482
 30
0.0
 11
-0.0334530649
 21
0.0560043628
 31
0.0
 40
0.5671943254
 41
-2.3820666429
 42
-0.0084274734
  0
ELLIPSE
  5
736
100
AcDbEntity
  8
AXIS
100
AcDbEllipse
 62
7
  6
CONTINUOUS
 10
14.7107084163
 20
5.4477950349
 30
0.0
 11
0.0348732074
 21
0.0583828041
 31
0.0
 40
0.5671895179
 41
0.8103686611
 42
2.364609118
  0
ELLIPSE
  5
737
100
AcDbEntity
  8
0
100
AcDbEllipse
 62
7
  6
CONTINUOUS
 10
13.9621367436
 20
5.8616478326
 30
0.0
 11
-0.0201908454
 21
0.0338018485
 31
0.0
 40
0.5671943254
 41
0.7769793032
 42
2.34777563
  0
ELLIPSE
  5
738
100
AcDbEntity
  8
0
100
AcDbEllipse
 62
7
  6
CONTINUOUS
 10
13.9291955456
 20
6.2123050723
 30
0.0
 11
-0.0302862681
 21
0.0507027727
 31
0.0
 40
0.5671943254
 41
-3.1500201492
 42
-0.7938170236
  0
ELLIPSE
  5
739
100
AcDbEntity
  8
0
100
AcDbEllipse
 62
7
  6
CONTINUOUS
 10
14.3950264785
 20
5.37702025
 30
0.0
 11
-0.0317443872
 21
0.0569904617
 31
0.0
 40
0.5873432686
 41
-2.3646022735
 42
0.7769903801
  0
ELLIPSE
  5
73A
100
AcDbEntity
  8
0
100
AcDbEllipse
 62
7
  6
CONTINUOUS
 10
13.3674049359
 20
5.877313681
 30
0.0
 11
-0.0478989008
 21
0.0859925394
 31
0.0
 40
0.5873432686
 41
-0.7763526541
 42
0.8118969652
  0
ELLIPSE
  5
73B
100
AcDbEntity
  8
0
100
AcDbEllipse
 62
7
  6
CONTINUOUS
 10
14.3090556515
 20
5.0229485492
 30
0.0
 11
-0.0191595603
 21
0.0343970157
 31
0.0
 40
0.5873432686
 41
-3.9179453077
 42
-2.3646022735
  0
ELLIPSE
  5
73C
100
AcDbEntity
  8
0
100
AcDbEllipse
 62
7
  6
CONTINUOUS
 10
13.4092494839
 20
5.5424401298
 30
0.0
 11
-0.0191595603
 21
0.0343970157
 31
0.0
 40
0.5873432686
 41
0.7944436726
 42
2.3652399994
  0
ELLIPSE
  5
73D
100
AcDbEntity
  8
0
100
AcDbEllipse
 62
7
  6
CONTINUOUS
 10
13.3912602049
 20
5.8410324743
 30
0.0
 11
-0.0038319121
 21
0.0068794031
 31
0.0
 40
0.5873432686
 41
5.6247528051
 42
7.0776289798
  0
ELLIPSE
  5
73E
100
AcDbEntity
  8
0
100
AcDbEllipse
 62
7
  6
CONTINUOUS
 10
13.3865127509
 20
5.8989888849
 30
0.0
 11
-0.0287393405
 21
0.0515955236
 31
0.0
 40
0.5873432686
 41
2.4831601515
 42
5.506832653
  0
ENDSEC
  0
SECTION
  2
OBJECTS
  0
DICTIONARY
  5
C
100
AcDbDictionary
280
0
281
1
  3
ACAD_GROUP
350
D
  3
ACAD_MLINESTYLE
350
17
  3
ACAD_LAYOUT
350
1A
  3
ACAD_PLOTSETTINGS
350
19
  3
ACAD_PLOTSTYLENAME
350
E
  3
ACAD_TABLESTYLE
350
       73F
  0
DICTIONARY
  5
D
102
{ACAD_REACTORS
330
C
102
}
100
AcDbDictionary
280
0
281
1
  0
ACDBDICTIONARYWDFLT
  5
E
102
{ACAD_REACTORS
330
C
102
}
100
AcDbDictionary
281
1
  3
Normal
350
F
100
AcDbDictionaryWithDefault
340
F
  0
DICTIONARY
  5
17
102
{ACAD_REACTORS
330
C
102
}
100
AcDbDictionary
280
0
281
1
  3
Standard
350
18
  0
DICTIONARY
  5
73F
330
C
100
AcDbDictionary
281
1
  3
Standard
350
       742
  3
Standard1
350
       743
  0
DICTIONARY
  5
19
102
{ACAD_REACTORS
330
C
102
}
100
AcDbDictionary
281
1
  0
DICTIONARY
  5
1A
102
{ACAD_REACTORS
330
C
102
}
100
AcDbDictionary
281
1
  3
Model
350
740
  3
Layout1
350
741
  0
ACDBPLACEHOLDER
  5
F
102
{ACAD_REACTORS
330
E
102
}
  0
MLINESTYLE
  5
18
102
{ACAD_REACTORS
330
17
102
}
100
AcDbMlineStyle
  2
STANDARD
 70
0
  3

 62
256
 51
90.0
 52
90.0
 71
2
 49
0.5
 62
256
  6
BYLAYER
 49
-0.5
 62
256
  6
BYLAYER
  0
LAYOUT
  5
740
102
{ACAD_REACTORS
330
1A
102
}
100
AcDbPlotSettings
  1

  2
none_device
  4
ANSI_B_(17.00_x_11.00_Inches)
  6

 40
0.0
 41
0.0
 42
0.0
 43
0.0
 44
431.8
 45
279.4
 46
0.0
 47
0.0
 48
0.0
 49
0.0
140
0.0
141
0.0
142
1.0
143
1.0
 70
1024
 72
0
 73
0
 74
0
  7

 75
0
147
1.0
148
0.0
149
0.0
100
AcDbLayout
  1
Model
 70
0
 71
0
 10
0.0
 20
0.0
 11
17.0
 21
11.0
 12
0.0
 22
0.0
 32
0.0
 14
0.0
 24
0.0
 34
0.0
 15
0.0
 25
0.0
 35
0.0
146
0.0
 13
0.0
 23
0.0
 33
0.0
 16
1.0
 26
0.0
 36
0.0
 17
0.0
 27
1.0
 37
0.0
 76
0
330
217
345
0
346
0
  0
LAYOUT
  5
741
102
{ACAD_REACTORS
330
1A
102
}
100
AcDbPlotSettings
  1

  2
none_device
  4
ANSI_B_(17.00_x_11.00_Inches)
  6

 40
0.0
 41
0.0
 42
0.0
 43
0.0
 44
431.8
 45
279.4
 46
0.0
 47
0.0
 48
0.0
 49
0.0
140
0.0
141
0.0
142
1.0
143
1.0
 70
0
 72
0
 73
0
 74
0
  7

 75
0
147
1.0
148
0.0
149
0.0
100
AcDbLayout
  1
Layout1
 70
0
 71
1
 10
0.0
 20
0.0
 11
17.0
 21
11.0
 12
0.0
 22
0.0
 32
0.0
 14
0.0
 24
0.0
 34
0.0
 15
0.0
 25
0.0
 35
0.0
146
0.0
 13
0.0
 23
0.0
 33
0.0
 16
1.0
 26
0.0
 36
0.0
 17
0.0
 27
1.0
 37
0.0
 76
0
330
218
345
0
346
0
  0
TABLESTYLE
  5
742
102
{ACAD_REACTORS
330
73F
102
}
330
73F
100
AcDbTableStyle
  3
Standard
 70
0
 71
0
 40
0.06
 41
0.06
280
1
281
1
  7
Standard
140
0.18
170
1
 62
0
 63
7
283
0
  7
Standard
140
0.18
170
1
 62
0
 63
7
283
0
  7
Standard
140
0.18
170
1
 62
0
 63
7
283
0
  0
TABLESTYLE
  5
743
102
{ACAD_REACTORS
330
73F
330
2C0
102
}
330
73F
100
AcDbTableStyle
  3
Standard1
 70
1
 71
0
 40
0.06
 41
0.06
280
1
281
1
  7
Standard
140
0.18
170
1
 62
0
 63
7
283
0
  7
Standard
140
0.18
170
1
 62
0
 63
7
283
0
  7
Standard
140
0.18
170
1
 62
0
 63
7
283
0
  0
ENDSEC
  0
EOF
