999
DXF file: 205097_1.dxf
999
Pro/ENGINEER 2016260 by Parametric Technology Corporation
  0
SECTION
  2
HEADER
  9
$ACADVER
  1
AC1027
  9
$DWGCODEPAGE
  3
ANSI_1252
  9
$EXTMAX
 10
22.0
 20
17.0
 30
0.0
  9
$EXTMIN
 10
0.0
 20
0.0
 30
0.0
  9
$LIMMIN
 10
0.0
 20
0.0
  9
$LIMMAX
 10
22.0
 20
17.0
  9
$VIEWCTR
 10
11.0
 20
8.5
  9
$VIEWSIZE
 40
17.0
  9
$CLAYER
  8
0
  9
$LTSCALE
 40
1.21
  9
$CELTYPE
  6
BYLAYER
  9
$DIMSCALE
 40
1.0
  9
$DIMASZ
 40
0.1875
  9
$DIMEXO
 40
0.0625
  9
$DIMDLI
 40
0.836
  9
$DIMEXE
 40
0.125
  9
$DIMCEN
 40
0.198
  9
$DIMLFAC
 40
1.0
  9
$DIMBLK
  1
_FILLED
  9
$DIMALT
 70
1
  9
$DIMALTD
 70
2
  9
$DIMALTTD
 70
2
  9
$DIMALTF
 40
1.0
  9
$DIMTXT
 40
0.1
  9
$DIMTOL
 70
1
  9
$DIMLIM
 70
0
  9
$DIMTFAC
 40
1.0
  9
$DIMTP
 40
0.001
  9
$DIMTM
 40
0.001
  9
$DIMGAP
 40
0.09
  9
$DIMDSEP
 70
46
  9
$AUNITS
 70
0
  9
$PDMODE
 70
3
  9
$PDSIZE
 40
0.3125
  9
$HANDSEED
  5
719
  9
$TILEMODE
 70
1
  9
$MEASUREMENT
 70
0
  9
$INSUNITS
 70
1
  0
ENDSEC
  0
SECTION
  2
CLASSES
  0
CLASS
  1
ACDBDICTIONARYWDFLT
  2
AcDbDictionaryWithDefault
  3
AutoCAD 2000
 90
0
 91
1
280
0
281
0
  0
CLASS
  1
ACDBPLACEHOLDER
  2
AcDbPlaceHolder
  3
AutoCAD 2000
 90
0
 91
1
280
0
281
0
  0
CLASS
  1
LAYOUT
  2
AcDbLayout
  3
AutoCAD 2000
 90
0
 91
0
280
0
281
0
  0
CLASS
  1
TABLESTYLE
  2
AcDbTableStyle
  3
ObjectDBX Classes
 90
2047
 91
1
280
0
281
0
  0
CLASS
  1
ACAD_TABLE
  2
AcDbTable
  3
ObjectDBX Classes
 90
1025
 91
1
280
0
281
1
  0
ENDSEC
  0
SECTION
  2
TABLES
  0
TABLE
  2
VPORT
  5
8
100
AcDbSymbolTable
 70
2
  0
VPORT
  5
1F4
100
AcDbSymbolTableRecord
100
AcDbViewportTableRecord
  2
*ACTIVE
 70
0
 10
0.0
 20
0.0
 11
1.0
 21
1.0
 12
11.0
 22
8.5
 13
0.0
 23
0.0
 14
1.0
 24
1.0
 15
0.0
 25
0.0
 16
0.0
 26
0.0
 36
1.0
 17
0.0
 27
0.0
 37
0.0
 40
17.0
 41
1.2941176471
 42
50.0
 43
0.0
 44
0.0
 50
0.0
 51
0.0
 71
0
 72
100
 73
1
 74
1
 75
0
 76
0
 77
0
 78
0
  0
ENDTAB
  0
TABLE
  2
LTYPE
  5
5
100
AcDbSymbolTable
 70
6
  0
LTYPE
  5
14
100
AcDbSymbolTableRecord
100
AcDbLinetypeTableRecord
  2
BYBLOCK
 70
0
  3

 72
65
 73
0
 40
0.0
  0
LTYPE
  5
15
100
AcDbSymbolTableRecord
100
AcDbLinetypeTableRecord
  2
BYLAYER
 70
0
  3

 72
65
 73
0
 40
0.0
  0
LTYPE
  5
16
100
AcDbSymbolTableRecord
100
AcDbLinetypeTableRecord
  2
CONTINUOUS
 70
64
  3
Solid line
 72
65
 73
0
 40
0.0
  0
LTYPE
  5
1F5
100
AcDbSymbolTableRecord
100
AcDbLinetypeTableRecord
  2
CENTER
 70
64
  3
____ _ ____ _ ____ _ ____ _ ____ _ ____ _ ____
 72
65
 73
4
 40
0.6
 49
0.375
 74
0
 49
-0.075
 74
0
 49
0.075
 74
0
 49
-0.075
 74
0
  0
LTYPE
  5
1F6
100
AcDbSymbolTableRecord
100
AcDbLinetypeTableRecord
  2
HIDDEN
 70
64
  3
- - - - - - - - - - - - - - - - - - - -
 72
65
 73
2
 40
0.2
 49
0.1
 74
0
 49
-0.1
 74
0
  0
LTYPE
  5
1F7
100
AcDbSymbolTableRecord
100
AcDbLinetypeTableRecord
  2
PHANTOM
 70
64
  3
_____ _ _ _____ _ _ _____ _ _ _____
 72
65
 73
6
 40
0.8
 49
0.45
 74
0
 49
-0.05
 74
0
 49
0.1
 74
0
 49
-0.05
 74
0
 49
0.1
 74
0
 49
-0.05
 74
0
  0
LTYPE
  5
1F8
100
AcDbSymbolTableRecord
100
AcDbLinetypeTableRecord
  2
DOT
 70
64
  3
. . . . . . . . . . . . . . . . . . . .
 72
65
 73
2
 40
0.2
 49
0.1
 74
0
 49
-0.1
 74
0
  0
LTYPE
  5
1F9
100
AcDbSymbolTableRecord
100
AcDbLinetypeTableRecord
  2
DASHED
 70
64
  3
- - - - - - - - - - - - - - - - - - - -
 72
65
 73
2
 40
0.2
 49
0.1
 74
0
 49
-0.1
 74
0
  0
ENDTAB
  0
TABLE
  2
LAYER
  5
2
100
AcDbSymbolTable
 70
36
  0
LAYER
  5
10
100
AcDbSymbolTableRecord
100
AcDbLayerTableRecord
  2
0
 70
0
 62
7
  6
CONTINUOUS
370
-3
390
F
  0
LAYER
  5
1FA
100
AcDbSymbolTableRecord
100
AcDbLayerTableRecord
  2
DEFAULT_1
 70
0
 62
7
  6
CENTER
370
-3
390
F
  0
LAYER
  5
1FB
100
AcDbSymbolTableRecord
100
AcDbLayerTableRecord
  2
DEFAULT_2
 70
0
 62
7
  6
HIDDEN
370
-3
390
F
  0
LAYER
  5
1FC
100
AcDbSymbolTableRecord
100
AcDbLayerTableRecord
  2
DEFAULT_3
 70
0
 62
7
  6
PHANTOM
370
-3
390
F
  0
LAYER
  5
1FD
100
AcDbSymbolTableRecord
100
AcDbLayerTableRecord
  2
01_ALL_DTM_PLN
 70
0
 62
7
  6
CONTINUOUS
370
-3
390
F
  0
LAYER
  5
1FE
100
AcDbSymbolTableRecord
100
AcDbLayerTableRecord
  2
01__ASM_ALL_DTM_PLN
 70
0
 62
7
  6
CONTINUOUS
370
-3
390
F
  0
LAYER
  5
1FF
100
AcDbSymbolTableRecord
100
AcDbLayerTableRecord
  2
01__ASM_DEF_DTM_PLN
 70
0
 62
7
  6
CONTINUOUS
370
-3
390
F
  0
LAYER
  5
200
100
AcDbSymbolTableRecord
100
AcDbLayerTableRecord
  2
01___PRT_ALL_DTM_PLN
 70
0
 62
7
  6
CONTINUOUS
370
-3
390
F
  0
LAYER
  5
201
100
AcDbSymbolTableRecord
100
AcDbLayerTableRecord
  2
01___PRT_DEF_DTM_PLN
 70
0
 62
7
  6
CONTINUOUS
370
-3
390
F
  0
LAYER
  5
202
100
AcDbSymbolTableRecord
100
AcDbLayerTableRecord
  2
02_ALL_AXES
 70
0
 62
7
  6
CONTINUOUS
370
-3
390
F
  0
LAYER
  5
203
100
AcDbSymbolTableRecord
100
AcDbLayerTableRecord
  2
02__ASM_ALL_AXES
 70
0
 62
7
  6
CONTINUOUS
370
-3
390
F
  0
LAYER
  5
204
100
AcDbSymbolTableRecord
100
AcDbLayerTableRecord
  2
02___PRT_ALL_AXES
 70
0
 62
7
  6
CONTINUOUS
370
-3
390
F
  0
LAYER
  5
205
100
AcDbSymbolTableRecord
100
AcDbLayerTableRecord
  2
03_ALL_CURVES
 70
0
 62
7
  6
CONTINUOUS
370
-3
390
F
  0
LAYER
  5
206
100
AcDbSymbolTableRecord
100
AcDbLayerTableRecord
  2
03__ASM_ALL_CURVES
 70
0
 62
7
  6
CONTINUOUS
370
-3
390
F
  0
LAYER
  5
207
100
AcDbSymbolTableRecord
100
AcDbLayerTableRecord
  2
03___PRT_ALL_CURVES
 70
0
 62
7
  6
CONTINUOUS
370
-3
390
F
  0
LAYER
  5
208
100
AcDbSymbolTableRecord
100
AcDbLayerTableRecord
  2
04_ALL_DTM_PNT
 70
0
 62
7
  6
CONTINUOUS
370
-3
390
F
  0
LAYER
  5
209
100
AcDbSymbolTableRecord
100
AcDbLayerTableRecord
  2
04__ASM_ALL_DTM_PNT
 70
0
 62
7
  6
CONTINUOUS
370
-3
390
F
  0
LAYER
  5
20A
100
AcDbSymbolTableRecord
100
AcDbLayerTableRecord
  2
04___PRT_ALL_DTM_PNT
 70
0
 62
7
  6
CONTINUOUS
370
-3
390
F
  0
LAYER
  5
20B
100
AcDbSymbolTableRecord
100
AcDbLayerTableRecord
  2
05_ALL_DTM_CSYS
 70
0
 62
7
  6
CONTINUOUS
370
-3
390
F
  0
LAYER
  5
20C
100
AcDbSymbolTableRecord
100
AcDbLayerTableRecord
  2
05__ASM_ALL_DTM_CSYS
 70
0
 62
7
  6
CONTINUOUS
370
-3
390
F
  0
LAYER
  5
20D
100
AcDbSymbolTableRecord
100
AcDbLayerTableRecord
  2
05__ASM_DEF_DTM_CSYS
 70
0
 62
7
  6
CONTINUOUS
370
-3
390
F
  0
LAYER
  5
20E
100
AcDbSymbolTableRecord
100
AcDbLayerTableRecord
  2
05___PRT_ALL_DTM_CSYS
 70
0
 62
7
  6
CONTINUOUS
370
-3
390
F
  0
LAYER
  5
20F
100
AcDbSymbolTableRecord
100
AcDbLayerTableRecord
  2
05___PRT_DEF_DTM_CSYS
 70
0
 62
7
  6
CONTINUOUS
370
-3
390
F
  0
LAYER
  5
210
100
AcDbSymbolTableRecord
100
AcDbLayerTableRecord
  2
06_ALL_SURFS
 70
0
 62
7
  6
CONTINUOUS
370
-3
390
F
  0
LAYER
  5
211
100
AcDbSymbolTableRecord
100
AcDbLayerTableRecord
  2
06__ASM_ALL_SURFS
 70
0
 62
7
  6
CONTINUOUS
370
-3
390
F
  0
LAYER
  5
212
100
AcDbSymbolTableRecord
100
AcDbLayerTableRecord
  2
06___PRT_ALL_SURFS
 70
0
 62
7
  6
CONTINUOUS
370
-3
390
F
  0
LAYER
  5
213
100
AcDbSymbolTableRecord
100
AcDbLayerTableRecord
  2
07__ASM_ALL_SKELETONS
 70
0
 62
7
  6
CONTINUOUS
370
-3
390
F
  0
LAYER
  5
214
100
AcDbSymbolTableRecord
100
AcDbLayerTableRecord
  2
AXIS
 70
0
 62
7
  6
CONTINUOUS
370
-3
390
F
  0
LAYER
  5
215
100
AcDbSymbolTableRecord
100
AcDbLayerTableRecord
  2
AXIS_COSMETIC_THREADS
 70
0
 62
7
  6
CONTINUOUS
370
-3
390
F
  0
LAYER
  5
216
100
AcDbSymbolTableRecord
100
AcDbLayerTableRecord
  2
COSMETIC_THREADS
 70
0
 62
7
  6
CONTINUOUS
370
-3
390
F
  0
LAYER
  5
217
100
AcDbSymbolTableRecord
100
AcDbLayerTableRecord
  2
CURVES
 70
0
 62
7
  6
CONTINUOUS
370
-3
390
F
  0
LAYER
  5
218
100
AcDbSymbolTableRecord
100
AcDbLayerTableRecord
  2
DATUM_CURVES
 70
0
 62
7
  6
CONTINUOUS
370
-3
390
F
  0
LAYER
  5
219
100
AcDbSymbolTableRecord
100
AcDbLayerTableRecord
  2
DATUM_PLANES
 70
0
 62
7
  6
CONTINUOUS
370
-3
390
F
  0
LAYER
  5
21A
100
AcDbSymbolTableRecord
100
AcDbLayerTableRecord
  2
DEF_CSY
 70
0
 62
7
  6
CONTINUOUS
370
-3
390
F
  0
LAYER
  5
21B
100
AcDbSymbolTableRecord
100
AcDbLayerTableRecord
  2
DRIVEN_DIMS
 70
0
 62
7
  6
CONTINUOUS
370
-3
390
F
  0
LAYER
  5
21C
100
AcDbSymbolTableRecord
100
AcDbLayerTableRecord
  2
GEOMETRIC_TOLERANCES
 70
0
 62
7
  6
CONTINUOUS
370
-3
390
F
  0
LAYER
  5
21D
100
AcDbSymbolTableRecord
100
AcDbLayerTableRecord
  2
GEOMTOL
 70
0
 62
7
  6
CONTINUOUS
370
-3
390
F
  0
LAYER
  5
21E
100
AcDbSymbolTableRecord
100
AcDbLayerTableRecord
  2
NOTES
 70
0
 62
7
  6
CONTINUOUS
370
-3
390
F
  0
LAYER
  5
21F
100
AcDbSymbolTableRecord
100
AcDbLayerTableRecord
  2
PNTS
 70
0
 62
7
  6
CONTINUOUS
370
-3
390
F
  0
LAYER
  5
220
100
AcDbSymbolTableRecord
100
AcDbLayerTableRecord
  2
QUILTS
 70
0
 62
7
  6
CONTINUOUS
370
-3
390
F
  0
LAYER
  5
221
100
AcDbSymbolTableRecord
100
AcDbLayerTableRecord
  2
SCHEME_DIMS
 70
0
 62
7
  6
CONTINUOUS
370
-3
390
F
  0
LAYER
  5
222
100
AcDbSymbolTableRecord
100
AcDbLayerTableRecord
  2
SURFACES
 70
0
 62
7
  6
CONTINUOUS
370
-3
390
F
  0
ENDTAB
  0
TABLE
  2
STYLE
  5
3
100
AcDbSymbolTable
 70
1
  0
STYLE
  5
11
100
AcDbSymbolTableRecord
100
AcDbTextStyleTableRecord
  2
STANDARD
 70
0
 40
0.0
 41
1.0
 50
0.0
 71
0
 42
0.2
  3
txt
  4

  0
STYLE
  5
223
100
AcDbSymbolTableRecord
100
AcDbTextStyleTableRecord
  2
TEXTSTYLE_1
 70
0
 40
0.0
 41
0.8
 50
0.0
 71
0
 42
0.2
  3
gdt
  4

  0
STYLE
  5
224
100
AcDbSymbolTableRecord
100
AcDbTextStyleTableRecord
  2
TEXTSTYLE_2
 70
0
 40
0.0
 41
0.8
 50
0.0
 71
0
 42
0.2
  3
txt
  4

  0
STYLE
  5
225
100
AcDbSymbolTableRecord
100
AcDbTextStyleTableRecord
  2
TEXTSTYLE_3
 70
0
 40
0.0
 41
0.9
 50
0.0
 71
0
 42
0.2
  3
txt
  4

  0
STYLE
  5
226
100
AcDbSymbolTableRecord
100
AcDbTextStyleTableRecord
  2
TEXTSTYLE_4
 70
0
 40
0.0
 41
0.85
 50
0.0
 71
0
 42
0.2
  3
txt
  4

  0
STYLE
  5
227
100
AcDbSymbolTableRecord
100
AcDbTextStyleTableRecord
  2
TEXTSTYLE_5
 70
0
 40
0.0
 41
0.75
 50
0.0
 71
0
 42
0.2
  3
txt
  4

  0
STYLE
  5
228
100
AcDbSymbolTableRecord
100
AcDbTextStyleTableRecord
  2
TEXTSTYLE_6
 70
0
 40
0.0
 41
1.0
 50
0.0
 71
0
 42
0.2
  3
gdt
  4

  0
ENDTAB
  0
TABLE
  2
VIEW
  5
6
100
AcDbSymbolTable
 70
0
  0
ENDTAB
  0
TABLE
  2
UCS
  5
7
100
AcDbSymbolTable
 70
0
  0
ENDTAB
  0
TABLE
  2
APPID
  5
9
100
AcDbSymbolTable
 70
1
  0
APPID
  5
229
100
AcDbSymbolTableRecord
100
AcDbRegAppTableRecord
  2
ACAD
 70
0
  0
ENDTAB
  0
TABLE
  2
BLOCK_RECORD
  5
1
100
AcDbSymbolTable
 70
0
  0
BLOCK_RECORD
  5
22A
100
AcDbSymbolTableRecord
100
AcDbBlockTableRecord
  2
*Model_Space
  0
BLOCK_RECORD
  5
22B
100
AcDbSymbolTableRecord
100
AcDbBlockTableRecord
  2
*Paper_Space
  0
BLOCK_RECORD
  5
22C
100
AcDbSymbolTableRecord
100
AcDbBlockTableRecord
  2
_FILLED
  0
BLOCK_RECORD
  5
22D
100
AcDbSymbolTableRecord
100
AcDbBlockTableRecord
  2
*D0
  0
BLOCK_RECORD
  5
22E
100
AcDbSymbolTableRecord
100
AcDbBlockTableRecord
  2
*D1
  0
BLOCK_RECORD
  5
22F
100
AcDbSymbolTableRecord
100
AcDbBlockTableRecord
  2
*D2
  0
BLOCK_RECORD
  5
230
100
AcDbSymbolTableRecord
100
AcDbBlockTableRecord
  2
*D3
  0
BLOCK_RECORD
  5
231
100
AcDbSymbolTableRecord
100
AcDbBlockTableRecord
  2
*D4
  0
BLOCK_RECORD
  5
232
100
AcDbSymbolTableRecord
100
AcDbBlockTableRecord
  2
*D5
  0
BLOCK_RECORD
  5
233
100
AcDbSymbolTableRecord
100
AcDbBlockTableRecord
  2
*D6
  0
BLOCK_RECORD
  5
234
100
AcDbSymbolTableRecord
100
AcDbBlockTableRecord
  2
*D7
  0
BLOCK_RECORD
  5
235
100
AcDbSymbolTableRecord
100
AcDbBlockTableRecord
  2
*D8
  0
BLOCK_RECORD
  5
236
100
AcDbSymbolTableRecord
100
AcDbBlockTableRecord
  2
*D9
  0
BLOCK_RECORD
  5
237
100
AcDbSymbolTableRecord
100
AcDbBlockTableRecord
  2
*D10
  0
BLOCK_RECORD
  5
238
100
AcDbSymbolTableRecord
100
AcDbBlockTableRecord
  2
*D11
  0
BLOCK_RECORD
  5
239
100
AcDbSymbolTableRecord
100
AcDbBlockTableRecord
  2
*D12
  0
BLOCK_RECORD
  5
23A
100
AcDbSymbolTableRecord
100
AcDbBlockTableRecord
  2
*D13
  0
BLOCK_RECORD
  5
23B
100
AcDbSymbolTableRecord
100
AcDbBlockTableRecord
  2
*D14
  0
BLOCK_RECORD
  5
23C
100
AcDbSymbolTableRecord
100
AcDbBlockTableRecord
  2
*D15
  0
BLOCK_RECORD
  5
23D
100
AcDbSymbolTableRecord
100
AcDbBlockTableRecord
  2
*D16
  0
BLOCK_RECORD
  5
23E
100
AcDbSymbolTableRecord
100
AcDbBlockTableRecord
  2
*D17
  0
BLOCK_RECORD
  5
23F
100
AcDbSymbolTableRecord
100
AcDbBlockTableRecord
  2
*D18
  0
BLOCK_RECORD
  5
240
100
AcDbSymbolTableRecord
100
AcDbBlockTableRecord
  2
*T1
  0
ENDTAB
  0
TABLE
  2
DIMSTYLE
  5
A
100
AcDbSymbolTable
 70
1
100
AcDbDimStyleTable
 71
0
  0
DIMSTYLE
105
241
100
AcDbSymbolTableRecord
100
AcDbDimStyleTableRecord
  2
STANDARD
 70
0
  3

  4

 40
1.0
 41
0.1875
 42
0.0625
 43
0.38
 44
0.125
 45
0.0
 46
0.0
 47
0.001
 48
0.001
140
0.1
141
0.09
142
0.0
143
1.0
144
1.0
145
0.0
146
1.0
147
0.09
 71
1.0
 72
0.0
 73
1
 74
1
 75
0
 76
0
 77
0
 78
4
170
1
171
2
172
0
173
0
174
0
175
0
176
0
177
0
178
0
270
2
271
3
272
3
273
2
274
2
275
0
280
0
281
0
282
0
283
1
284
4
285
0
286
0
287
3
288
0
340
11
278
46
341
22C
342
22C
343
22C
344
22C
  0
DIMSTYLE
105
242
100
AcDbSymbolTableRecord
100
AcDbDimStyleTableRecord
  2
DIMSTYLE_1
 70
0
  3

  4

 40
1.0
 41
0.1875
 42
0.0625
 43
0.38
 44
0.125
 45
0.0
 46
0.0
 47
0.001
 48
0.001
140
0.1
141
0.09
142
0.0
143
1.0
144
1.0
145
0.0
146
1.0
147
0.1
 71
0.0
 72
0.0
 73
1
 74
1
 75
0
 76
0
 77
0
 78
4
170
1
171
2
172
0
173
0
174
0
175
0
176
0
177
0
178
0
270
2
271
1
272
1
273
2
274
2
275
0
280
0
281
0
282
0
283
1
284
4
285
0
286
0
287
3
288
0
340
11
278
46
341
22C
342
22C
343
22C
344
22C
  0
ENDTAB
  0
ENDSEC
  0
SECTION
  2
BLOCKS
  0
BLOCK
  5
20
100
AcDbEntity
  8
0
100
AcDbBlockBegin
  2
*Model_Space
 70
0
 10
0.0
 20
0.0
 30
0.0
  3
*Model_Space
  1

  0
ENDBLK
  5
21
100
AcDbEntity
  8
0
100
AcDbBlockEnd
  0
BLOCK
  5
1C
100
AcDbEntity
  8
0
100
AcDbBlockBegin
  2
*Paper_Space
 70
0
 10
0.0
 20
0.0
 30
0.0
  3
*Paper_Space
  1

  0
ENDBLK
  5
1D
100
AcDbEntity
  8
0
100
AcDbBlockEnd
  0
BLOCK
  5
243
100
AcDbEntity
  8
0
100
AcDbBlockBegin
  2
_FILLED
 70
64
 10
0.0
 20
0.0
  3
_FILLED
  1

  0
SOLID
  5
244
100
AcDbEntity
  8
0
  6
BYBLOCK
 62
0
100
AcDbTrace
 10
0.0
 20
0.0
 11
-1.0
 21
0.1666666667
 12
-1.0
 22
-0.1666666667
 13
-1.0
 23
-0.1666666667
  0
ENDBLK
  5
245
100
AcDbEntity
  8
0
  6
BYBLOCK
 62
0
100
AcDbBlockEnd
  0
BLOCK
  5
246
100
AcDbEntity
  8
DRIVEN_DIMS
100
AcDbBlockBegin
 62
7
  6
CONTINUOUS
  2
*D0
 70
65
 10
0.0
 20
0.0
  3
*D0
  1

  0
MTEXT
  5
247
100
AcDbEntity
  8
DRIVEN_DIMS
100
AcDbMText
 62
7
  6
CONTINUOUS
  7
STANDARD
 71
2
 72
1
 10
12.9382674639
 20
9.097592581
 30
0.0
 11
1.0
 21
0.0
 31
0.0
 44
0.9
  1
17.4\P[.69]
 40
0.1
 41
0.5
  0
LINE
  5
248
100
AcDbEntity
  8
DRIVEN_DIMS
100
AcDbLine
 62
7
  6
CONTINUOUS
 10
12.6457477788
 20
8.5858145712
 11
12.6457477788
 21
9.172592581
  0
LINE
  5
249
100
AcDbEntity
  8
DRIVEN_DIMS
100
AcDbLine
 62
7
  6
CONTINUOUS
 10
13.3307871489
 20
8.0758367761
 11
13.3307871489
 21
9.172592581
  0
LINE
  5
24A
100
AcDbEntity
  8
DRIVEN_DIMS
100
AcDbLine
 62
7
  6
CONTINUOUS
 10
12.6457477788
 20
9.047592581
 11
12.2457477788
 21
9.047592581
  0
LINE
  5
24B
100
AcDbEntity
  8
DRIVEN_DIMS
100
AcDbLine
 62
7
  6
CONTINUOUS
 10
13.3307871489
 20
9.047592581
 11
13.7307871489
 21
9.047592581
  0
INSERT
  5
24C
100
AcDbEntity
  8
DRIVEN_DIMS
100
AcDbBlockReference
 62
7
  6
CONTINUOUS
  2
_FILLED
 10
12.6457477788
 20
9.047592581
 41
0.1875
 42
0.1875
 43
0.1875
  0
INSERT
  5
24D
100
AcDbEntity
  8
DRIVEN_DIMS
100
AcDbBlockReference
 62
7
  6
CONTINUOUS
  2
_FILLED
 10
13.3307871489
 20
9.047592581
 41
0.1875
 42
0.1875
 43
0.1875
 50
180.0
  0
ENDBLK
  5
24E
100
AcDbEntity
  8
0
  6
BYBLOCK
 62
0
100
AcDbBlockEnd
  0
BLOCK
  5
24F
100
AcDbEntity
  8
DRIVEN_DIMS
100
AcDbBlockBegin
 62
7
  6
CONTINUOUS
  2
*D1
 70
65
 10
0.0
 20
0.0
  3
*D1
  1

  0
MTEXT
  5
250
100
AcDbEntity
  8
DRIVEN_DIMS
100
AcDbMText
 62
7
  6
CONTINUOUS
  7
STANDARD
 71
2
 72
1
 10
13.0362989599
 20
9.672397029
 30
0.0
 11
1.0
 21
0.0
 31
0.0
 44
0.9
  1
30\P[1.18]
 40
0.1
 41
0.6
  0
LINE
  5
251
100
AcDbEntity
  8
DRIVEN_DIMS
100
AcDbLine
 62
7
  6
CONTINUOUS
 10
12.6457477788
 20
8.5858145712
 11
12.6457477788
 21
9.747397029
  0
LINE
  5
252
100
AcDbEntity
  8
DRIVEN_DIMS
100
AcDbLine
 62
7
  6
CONTINUOUS
 10
13.826850141
 20
7.7221395111
 11
13.826850141
 21
9.747397029
  0
LINE
  5
253
100
AcDbEntity
  8
DRIVEN_DIMS
100
AcDbLine
 62
7
  6
CONTINUOUS
 10
12.6457477788
 20
9.622397029
 11
12.2457477788
 21
9.622397029
  0
LINE
  5
254
100
AcDbEntity
  8
DRIVEN_DIMS
100
AcDbLine
 62
7
  6
CONTINUOUS
 10
13.826850141
 20
9.622397029
 11
14.226850141
 21
9.622397029
  0
INSERT
  5
255
100
AcDbEntity
  8
DRIVEN_DIMS
100
AcDbBlockReference
 62
7
  6
CONTINUOUS
  2
_FILLED
 10
12.6457477788
 20
9.622397029
 41
0.1875
 42
0.1875
 43
0.1875
  0
INSERT
  5
256
100
AcDbEntity
  8
DRIVEN_DIMS
100
AcDbBlockReference
 62
7
  6
CONTINUOUS
  2
_FILLED
 10
13.826850141
 20
9.622397029
 41
0.1875
 42
0.1875
 43
0.1875
 50
180.0
  0
ENDBLK
  5
257
100
AcDbEntity
  8
0
  6
BYBLOCK
 62
0
100
AcDbBlockEnd
  0
BLOCK
  5
258
100
AcDbEntity
  8
DRIVEN_DIMS
100
AcDbBlockBegin
 62
7
  6
CONTINUOUS
  2
*D2
 70
65
 10
0.0
 20
0.0
  3
*D2
  1

  0
MTEXT
  5
259
100
AcDbEntity
  8
DRIVEN_DIMS
100
AcDbMText
 62
7
  6
CONTINUOUS
  7
STANDARD
 71
2
 72
1
 10
13.281281044
 20
10.2252553496
 30
0.0
 11
1.0
 21
0.0
 31
0.0
 44
0.9
  1
37.4\P[1.47]
 40
0.1
 41
0.6
  0
LINE
  5
25A
100
AcDbEntity
  8
DRIVEN_DIMS
100
AcDbLine
 62
7
  6
CONTINUOUS
 10
12.6457477788
 20
8.6048825637
 11
12.6457477788
 21
10.3002553496
  0
LINE
  5
25B
100
AcDbEntity
  8
DRIVEN_DIMS
100
AcDbLine
 62
7
  6
CONTINUOUS
 10
14.1168143091
 20
7.7868893171
 11
14.1168143091
 21
9.5472309242
  0
LINE
  5
25C
100
AcDbEntity
  8
DRIVEN_DIMS
100
AcDbLine
 62
7
  6
CONTINUOUS
 10
14.1168143091
 20
9.6853660484
 11
14.1168143091
 21
10.3002553496
  0
LINE
  5
25D
100
AcDbEntity
  8
DRIVEN_DIMS
100
AcDbLine
 62
7
  6
CONTINUOUS
 10
12.6457477788
 20
10.1752553496
 11
12.981281044
 21
10.1752553496
  0
LINE
  5
25E
100
AcDbEntity
  8
DRIVEN_DIMS
100
AcDbLine
 62
7
  6
CONTINUOUS
 10
14.1168143091
 20
10.1752553496
 11
13.781281044
 21
10.1752553496
  0
INSERT
  5
25F
100
AcDbEntity
  8
DRIVEN_DIMS
100
AcDbBlockReference
 62
7
  6
CONTINUOUS
  2
_FILLED
 10
12.6457477788
 20
10.1752553496
 41
0.1875
 42
0.1875
 43
0.1875
 50
180.0
  0
INSERT
  5
260
100
AcDbEntity
  8
DRIVEN_DIMS
100
AcDbBlockReference
 62
7
  6
CONTINUOUS
  2
_FILLED
 10
14.1168143091
 20
10.1752553496
 41
0.1875
 42
0.1875
 43
0.1875
  0
ENDBLK
  5
261
100
AcDbEntity
  8
0
  6
BYBLOCK
 62
0
100
AcDbBlockEnd
  0
BLOCK
  5
262
100
AcDbEntity
  8
DRIVEN_DIMS
100
AcDbBlockBegin
 62
7
  6
CONTINUOUS
  2
*D3
 70
65
 10
0.0
 20
0.0
  3
*D3
  1

  0
MTEXT
  5
263
100
AcDbEntity
  8
DRIVEN_DIMS
100
AcDbMText
 62
7
  6
CONTINUOUS
  7
STANDARD
 71
2
 72
1
 10
6.4804427407
 20
11.3462323206
 30
0.0
 11
1.0
 21
0.0
 31
0.0
 44
0.9
  1
49.7\P[1.96]
 40
0.1
 41
0.6
  0
LINE
  5
264
100
AcDbEntity
  8
DRIVEN_DIMS
100
AcDbLine
 62
7
  6
CONTINUOUS
 10
5.6027655754
 20
8.4452114081
 11
5.6027655754
 21
11.4212323206
  0
LINE
  5
265
100
AcDbEntity
  8
DRIVEN_DIMS
100
AcDbLine
 62
7
  6
CONTINUOUS
 10
7.5581199061
 20
8.4374799285
 11
7.5581199061
 21
11.4212323206
  0
LINE
  5
266
100
AcDbEntity
  8
DRIVEN_DIMS
100
AcDbLine
 62
7
  6
CONTINUOUS
 10
5.6027655754
 20
11.2962323206
 11
6.1804427407
 21
11.2962323206
  0
LINE
  5
267
100
AcDbEntity
  8
DRIVEN_DIMS
100
AcDbLine
 62
7
  6
CONTINUOUS
 10
7.5581199061
 20
11.2962323206
 11
6.9804427407
 21
11.2962323206
  0
INSERT
  5
268
100
AcDbEntity
  8
DRIVEN_DIMS
100
AcDbBlockReference
 62
7
  6
CONTINUOUS
  2
_FILLED
 10
5.6027655754
 20
11.2962323206
 41
0.1875
 42
0.1875
 43
0.1875
 50
180.0
  0
INSERT
  5
269
100
AcDbEntity
  8
DRIVEN_DIMS
100
AcDbBlockReference
 62
7
  6
CONTINUOUS
  2
_FILLED
 10
7.5581199061
 20
11.2962323206
 41
0.1875
 42
0.1875
 43
0.1875
  0
ENDBLK
  5
26A
100
AcDbEntity
  8
0
  6
BYBLOCK
 62
0
100
AcDbBlockEnd
  0
BLOCK
  5
26B
100
AcDbEntity
  8
DRIVEN_DIMS
100
AcDbBlockBegin
 62
7
  6
CONTINUOUS
  2
*D4
 70
65
 10
0.0
 20
0.0
  3
*D4
  1

  0
MTEXT
  5
26C
100
AcDbEntity
  8
DRIVEN_DIMS
100
AcDbMText
 62
7
  6
CONTINUOUS
  7
STANDARD
 71
1
 72
1
 10
6.2383331319
 20
9.2117015532
 30
0.0
 11
1.0
 21
0.0
 31
0.0
 44
0.9
  1
4.1\P[.16]
 40
0.1
 41
0.5
  0
LINE
  5
26D
100
AcDbEntity
  8
DRIVEN_DIMS
100
AcDbLine
 62
7
  6
CONTINUOUS
 10
5.6027655754
 20
8.4452114081
 11
5.6027655754
 21
9.2867015532
  0
LINE
  5
26E
100
AcDbEntity
  8
DRIVEN_DIMS
100
AcDbLine
 62
7
  6
CONTINUOUS
 10
5.7628443155
 20
8.4588066972
 11
5.7628443155
 21
9.2867015532
  0
LINE
  5
26F
100
AcDbEntity
  8
DRIVEN_DIMS
100
AcDbLine
 62
7
  6
CONTINUOUS
 10
5.6027655754
 20
9.1617015532
 11
5.2027655754
 21
9.1617015532
  0
LINE
  5
270
100
AcDbEntity
  8
DRIVEN_DIMS
100
AcDbLine
 62
7
  6
CONTINUOUS
 10
5.7628443155
 20
9.1617015532
 11
6.1383331319
 21
9.1617015532
  0
INSERT
  5
271
100
AcDbEntity
  8
DRIVEN_DIMS
100
AcDbBlockReference
 62
7
  6
CONTINUOUS
  2
_FILLED
 10
5.6027655754
 20
9.1617015532
 41
0.1875
 42
0.1875
 43
0.1875
  0
INSERT
  5
272
100
AcDbEntity
  8
DRIVEN_DIMS
100
AcDbBlockReference
 62
7
  6
CONTINUOUS
  2
_FILLED
 10
5.7628443155
 20
9.1617015532
 41
0.1875
 42
0.1875
 43
0.1875
 50
180.0
  0
ENDBLK
  5
273
100
AcDbEntity
  8
0
  6
BYBLOCK
 62
0
100
AcDbBlockEnd
  0
BLOCK
  5
274
100
AcDbEntity
  8
DRIVEN_DIMS
100
AcDbBlockBegin
 62
7
  6
CONTINUOUS
  2
*D5
 70
65
 10
0.0
 20
0.0
  3
*D5
  1

  0
MTEXT
  5
275
100
AcDbEntity
  8
DRIVEN_DIMS
100
AcDbMText
 62
7
  6
CONTINUOUS
  7
STANDARD
 71
3
 72
1
 10
4.6997546349
 20
9.6851873832
 30
0.0
 11
1.0
 21
0.0
 31
0.0
 44
0.9
  1
8\P[.32]
 40
0.1
 41
0.5
  0
LINE
  5
276
100
AcDbEntity
  8
DRIVEN_DIMS
100
AcDbLine
 62
7
  6
CONTINUOUS
 10
5.6027655754
 20
8.4452114081
 11
5.6027655754
 21
9.7601873832
  0
LINE
  5
277
100
AcDbEntity
  8
DRIVEN_DIMS
100
AcDbLine
 62
7
  6
CONTINUOUS
 10
5.9177262053
 20
8.2779405555
 11
5.9177262053
 21
9.0862829191
  0
LINE
  5
278
100
AcDbEntity
  8
DRIVEN_DIMS
100
AcDbLine
 62
7
  6
CONTINUOUS
 10
5.9177262053
 20
9.2547403876
 11
5.9177262053
 21
9.7601873832
  0
LINE
  5
279
100
AcDbEntity
  8
DRIVEN_DIMS
100
AcDbLine
 62
7
  6
CONTINUOUS
 10
5.6027655754
 20
9.6351873832
 11
5.1997546349
 21
9.6351873832
  0
LINE
  5
27A
100
AcDbEntity
  8
DRIVEN_DIMS
100
AcDbLine
 62
7
  6
CONTINUOUS
 10
5.9177262053
 20
9.6351873832
 11
6.3177262053
 21
9.6351873832
  0
INSERT
  5
27B
100
AcDbEntity
  8
DRIVEN_DIMS
100
AcDbBlockReference
 62
7
  6
CONTINUOUS
  2
_FILLED
 10
5.6027655754
 20
9.6351873832
 41
0.1875
 42
0.1875
 43
0.1875
  0
INSERT
  5
27C
100
AcDbEntity
  8
DRIVEN_DIMS
100
AcDbBlockReference
 62
7
  6
CONTINUOUS
  2
_FILLED
 10
5.9177262053
 20
9.6351873832
 41
0.1875
 42
0.1875
 43
0.1875
 50
180.0
  0
ENDBLK
  5
27D
100
AcDbEntity
  8
0
  6
BYBLOCK
 62
0
100
AcDbBlockEnd
  0
BLOCK
  5
27E
100
AcDbEntity
  8
DRIVEN_DIMS
100
AcDbBlockBegin
 62
7
  6
CONTINUOUS
  2
*D6
 70
65
 10
0.0
 20
0.0
  3
*D6
  1

  0
MTEXT
  5
27F
100
AcDbEntity
  8
DRIVEN_DIMS
100
AcDbMText
 62
7
  6
CONTINUOUS
  7
STANDARD
 71
2
 72
1
 10
6.0326868352
 20
10.2279862554
 30
0.0
 11
1.0
 21
0.0
 31
0.0
 44
0.9
  1
32\P[1.26]
 40
0.1
 41
0.6
  0
LINE
  5
280
100
AcDbEntity
  8
DRIVEN_DIMS
100
AcDbLine
 62
7
  6
CONTINUOUS
 10
5.6027655754
 20
8.4452114081
 11
5.6027655754
 21
10.3029862554
  0
LINE
  5
281
100
AcDbEntity
  8
DRIVEN_DIMS
100
AcDbLine
 62
7
  6
CONTINUOUS
 10
6.862608095
 20
8.6724724336
 11
6.862608095
 21
10.3029862554
  0
LINE
  5
282
100
AcDbEntity
  8
DRIVEN_DIMS
100
AcDbLine
 62
7
  6
CONTINUOUS
 10
5.6027655754
 20
10.1779862554
 11
5.2027655754
 21
10.1779862554
  0
LINE
  5
283
100
AcDbEntity
  8
DRIVEN_DIMS
100
AcDbLine
 62
7
  6
CONTINUOUS
 10
6.862608095
 20
10.1779862554
 11
7.262608095
 21
10.1779862554
  0
INSERT
  5
284
100
AcDbEntity
  8
DRIVEN_DIMS
100
AcDbBlockReference
 62
7
  6
CONTINUOUS
  2
_FILLED
 10
5.6027655754
 20
10.1779862554
 41
0.1875
 42
0.1875
 43
0.1875
  0
INSERT
  5
285
100
AcDbEntity
  8
DRIVEN_DIMS
100
AcDbBlockReference
 62
7
  6
CONTINUOUS
  2
_FILLED
 10
6.862608095
 20
10.1779862554
 41
0.1875
 42
0.1875
 43
0.1875
 50
180.0
  0
ENDBLK
  5
286
100
AcDbEntity
  8
0
  6
BYBLOCK
 62
0
100
AcDbBlockEnd
  0
BLOCK
  5
287
100
AcDbEntity
  8
DRIVEN_DIMS
100
AcDbBlockBegin
 62
7
  6
CONTINUOUS
  2
*D7
 70
65
 10
0.0
 20
0.0
  3
*D7
  1

  0
MTEXT
  5
288
100
AcDbEntity
  8
DRIVEN_DIMS
100
AcDbMText
 62
7
  6
CONTINUOUS
  7
STANDARD
 71
2
 72
1
 10
6.2887891974
 20
10.7866735152
 30
0.0
 11
1.0
 21
0.0
 31
0.0
 44
0.9
  1
45\P[1.77]
 40
0.1
 41
0.6
  0
LINE
  5
289
100
AcDbEntity
  8
DRIVEN_DIMS
100
AcDbLine
 62
7
  6
CONTINUOUS
 10
5.6027655754
 20
8.4452114081
 11
5.6027655754
 21
10.8616735152
  0
LINE
  5
28A
100
AcDbEntity
  8
DRIVEN_DIMS
100
AcDbLine
 62
7
  6
CONTINUOUS
 10
7.3748128195
 20
7.0180980358
 11
7.3748128195
 21
10.8616735152
  0
LINE
  5
28B
100
AcDbEntity
  8
DRIVEN_DIMS
100
AcDbLine
 62
7
  6
CONTINUOUS
 10
5.6027655754
 20
10.7366735152
 11
6.0887891974
 21
10.7366735152
  0
LINE
  5
28C
100
AcDbEntity
  8
DRIVEN_DIMS
100
AcDbLine
 62
7
  6
CONTINUOUS
 10
7.3748128195
 20
10.7366735152
 11
6.8887891974
 21
10.7366735152
  0
INSERT
  5
28D
100
AcDbEntity
  8
DRIVEN_DIMS
100
AcDbBlockReference
 62
7
  6
CONTINUOUS
  2
_FILLED
 10
5.6027655754
 20
10.7366735152
 41
0.1875
 42
0.1875
 43
0.1875
 50
180.0
  0
INSERT
  5
28E
100
AcDbEntity
  8
DRIVEN_DIMS
100
AcDbBlockReference
 62
7
  6
CONTINUOUS
  2
_FILLED
 10
7.3748128195
 20
10.7366735152
 41
0.1875
 42
0.1875
 43
0.1875
  0
ENDBLK
  5
28F
100
AcDbEntity
  8
0
  6
BYBLOCK
 62
0
100
AcDbBlockEnd
  0
BLOCK
  5
290
100
AcDbEntity
  8
DRIVEN_DIMS
100
AcDbBlockBegin
 62
7
  6
CONTINUOUS
  2
*D8
 70
65
 10
0.0
 20
0.0
  3
*D8
  1

  0
MTEXT
  5
291
100
AcDbEntity
  8
DRIVEN_DIMS
100
AcDbMText
 62
7
  6
CONTINUOUS
  7
STANDARD
 71
2
 72
1
 10
10.6203589038
 20
7.4742988232
 30
0.0
 11
1.0
 21
0.0
 31
0.0
 44
0.9
  1
55.8\P[2.20]
 40
0.1
 41
0.6
  0
LINE
  5
292
100
AcDbEntity
  8
DRIVEN_DIMS
100
AcDbLine
 62
7
  6
CONTINUOUS
 10
7.4977986734
 20
8.5233145712
 11
10.8453589038
 21
8.5233145712
  0
LINE
  5
293
100
AcDbEntity
  8
DRIVEN_DIMS
100
AcDbLine
 62
7
  6
CONTINUOUS
 10
7.5425183186
 20
6.3252830752
 11
7.6777778131
 21
6.3252830752
  0
LINE
  5
294
100
AcDbEntity
  8
DRIVEN_DIMS
100
AcDbLine
 62
7
  6
CONTINUOUS
 10
7.785590593
 20
6.3252830752
 11
10.8453589038
 21
6.3252830752
  0
LINE
  5
295
100
AcDbEntity
  8
DRIVEN_DIMS
100
AcDbLine
 62
7
  6
CONTINUOUS
 10
10.7203589038
 20
8.5233145712
 11
10.7203589038
 21
7.5742988232
  0
LINE
  5
296
100
AcDbEntity
  8
DRIVEN_DIMS
100
AcDbLine
 62
7
  6
CONTINUOUS
 10
10.7203589038
 20
6.3252830752
 11
10.7203589038
 21
7.1242988232
  0
INSERT
  5
297
100
AcDbEntity
  8
DRIVEN_DIMS
100
AcDbBlockReference
 62
7
  6
CONTINUOUS
  2
_FILLED
 10
10.7203589038
 20
8.5233145712
 41
0.1875
 42
0.1875
 43
0.1875
 50
90.0
  0
INSERT
  5
298
100
AcDbEntity
  8
DRIVEN_DIMS
100
AcDbBlockReference
 62
7
  6
CONTINUOUS
  2
_FILLED
 10
10.7203589038
 20
6.3252830752
 41
0.1875
 42
0.1875
 43
0.1875
 50
270.0
  0
ENDBLK
  5
299
100
AcDbEntity
  8
0
  6
BYBLOCK
 62
0
100
AcDbBlockEnd
  0
BLOCK
  5
29A
100
AcDbEntity
  8
DRIVEN_DIMS
100
AcDbBlockBegin
 62
7
  6
CONTINUOUS
  2
*D9
 70
65
 10
0.0
 20
0.0
  3
*D9
  1

  0
MTEXT
  5
29B
100
AcDbEntity
  8
DRIVEN_DIMS
100
AcDbMText
 62
7
  6
CONTINUOUS
  7
STANDARD
 71
2
 72
1
 10
8.1231689394
 20
8.0254799256
 30
0.0
 11
1.0
 21
0.0
 31
0.0
 44
0.9
  1
27.8\P[1.10]
 40
0.1
 41
0.6
  0
LINE
  5
29C
100
AcDbEntity
  8
DRIVEN_DIMS
100
AcDbLine
 62
7
  6
CONTINUOUS
 10
7.4803712218
 20
8.5233145712
 11
8.3481689394
 21
8.5233145712
  0
LINE
  5
29D
100
AcDbEntity
  8
DRIVEN_DIMS
100
AcDbLine
 62
7
  6
CONTINUOUS
 10
7.4887790546
 20
7.4276452799
 11
8.3481689394
 21
7.4276452799
  0
LINE
  5
29E
100
AcDbEntity
  8
DRIVEN_DIMS
100
AcDbLine
 62
7
  6
CONTINUOUS
 10
8.2231689394
 20
8.5233145712
 11
8.2231689394
 21
8.9233145712
  0
LINE
  5
29F
100
AcDbEntity
  8
DRIVEN_DIMS
100
AcDbLine
 62
7
  6
CONTINUOUS
 10
8.2231689394
 20
7.4276452799
 11
8.2231689394
 21
7.0276452799
  0
INSERT
  5
2A0
100
AcDbEntity
  8
DRIVEN_DIMS
100
AcDbBlockReference
 62
7
  6
CONTINUOUS
  2
_FILLED
 10
8.2231689394
 20
8.5233145712
 41
0.1875
 42
0.1875
 43
0.1875
 50
270.0
  0
INSERT
  5
2A1
100
AcDbEntity
  8
DRIVEN_DIMS
100
AcDbBlockReference
 62
7
  6
CONTINUOUS
  2
_FILLED
 10
8.2231689394
 20
7.4276452799
 41
0.1875
 42
0.1875
 43
0.1875
 50
90.0
  0
ENDBLK
  5
2A2
100
AcDbEntity
  8
0
  6
BYBLOCK
 62
0
100
AcDbBlockEnd
  0
BLOCK
  5
2A3
100
AcDbEntity
  8
DRIVEN_DIMS
100
AcDbBlockBegin
 62
7
  6
CONTINUOUS
  2
*D10
 70
65
 10
0.0
 20
0.0
  3
*D10
  1

  0
MTEXT
  5
2A4
100
AcDbEntity
  8
DRIVEN_DIMS
100
AcDbMText
 62
7
  6
CONTINUOUS
  7
STANDARD
 71
2
 72
1
 10
8.9441657765
 20
7.7148500043
 30
0.0
 11
1.0
 21
0.0
 31
0.0
 44
0.9
  1
43.6\P[1.72]
 40
0.1
 41
0.6
  0
LINE
  5
2A5
100
AcDbEntity
  8
DRIVEN_DIMS
100
AcDbLine
 62
7
  6
CONTINUOUS
 10
7.4709376036
 20
8.5233145712
 11
9.1691657765
 21
8.5233145712
  0
LINE
  5
2A6
100
AcDbEntity
  8
DRIVEN_DIMS
100
AcDbLine
 62
7
  6
CONTINUOUS
 10
7.5865254179
 20
6.8063854374
 11
9.1691657765
 21
6.8063854374
  0
LINE
  5
2A7
100
AcDbEntity
  8
DRIVEN_DIMS
100
AcDbLine
 62
7
  6
CONTINUOUS
 10
9.0441657765
 20
8.5233145712
 11
9.0441657765
 21
7.8148500043
  0
LINE
  5
2A8
100
AcDbEntity
  8
DRIVEN_DIMS
100
AcDbLine
 62
7
  6
CONTINUOUS
 10
9.0441657765
 20
6.8063854374
 11
9.0441657765
 21
7.3648500043
  0
INSERT
  5
2A9
100
AcDbEntity
  8
DRIVEN_DIMS
100
AcDbBlockReference
 62
7
  6
CONTINUOUS
  2
_FILLED
 10
9.0441657765
 20
8.5233145712
 41
0.1875
 42
0.1875
 43
0.1875
 50
90.0
  0
INSERT
  5
2AA
100
AcDbEntity
  8
DRIVEN_DIMS
100
AcDbBlockReference
 62
7
  6
CONTINUOUS
  2
_FILLED
 10
9.0441657765
 20
6.8063854374
 41
0.1875
 42
0.1875
 43
0.1875
 50
270.0
  0
ENDBLK
  5
2AB
100
AcDbEntity
  8
0
  6
BYBLOCK
 62
0
100
AcDbBlockEnd
  0
BLOCK
  5
2AC
100
AcDbEntity
  8
DRIVEN_DIMS
100
AcDbBlockBegin
 62
7
  6
CONTINUOUS
  2
*D11
 70
65
 10
0.0
 20
0.0
  3
*D11
  1

  0
MTEXT
  5
2AD
100
AcDbEntity
  8
DRIVEN_DIMS
100
AcDbMText
 62
7
  6
CONTINUOUS
  7
STANDARD
 71
2
 72
1
 10
9.7502168935
 20
7.6064641775
 30
0.0
 11
1.0
 21
0.0
 31
0.0
 44
0.9
  1
49.1\P[1.93]
 40
0.1
 41
0.6
  0
LINE
  5
2AE
100
AcDbEntity
  8
DRIVEN_DIMS
100
AcDbLine
 62
7
  6
CONTINUOUS
 10
7.4736329231
 20
8.5233145712
 11
9.9752168935
 21
8.5233145712
  0
LINE
  5
2AF
100
AcDbEntity
  8
DRIVEN_DIMS
100
AcDbLine
 62
7
  6
CONTINUOUS
 10
7.6084151817
 20
6.5896137838
 11
9.9752168935
 21
6.5896137838
  0
LINE
  5
2B0
100
AcDbEntity
  8
DRIVEN_DIMS
100
AcDbLine
 62
7
  6
CONTINUOUS
 10
9.8502168935
 20
8.5233145712
 11
9.8502168935
 21
7.7064641775
  0
LINE
  5
2B1
100
AcDbEntity
  8
DRIVEN_DIMS
100
AcDbLine
 62
7
  6
CONTINUOUS
 10
9.8502168935
 20
6.5896137838
 11
9.8502168935
 21
7.2564641775
  0
INSERT
  5
2B2
100
AcDbEntity
  8
DRIVEN_DIMS
100
AcDbBlockReference
 62
7
  6
CONTINUOUS
  2
_FILLED
 10
9.8502168935
 20
8.5233145712
 41
0.1875
 42
0.1875
 43
0.1875
 50
90.0
  0
INSERT
  5
2B3
100
AcDbEntity
  8
DRIVEN_DIMS
100
AcDbBlockReference
 62
7
  6
CONTINUOUS
  2
_FILLED
 10
9.8502168935
 20
6.5896137838
 41
0.1875
 42
0.1875
 43
0.1875
 50
270.0
  0
ENDBLK
  5
2B4
100
AcDbEntity
  8
0
  6
BYBLOCK
 62
0
100
AcDbBlockEnd
  0
BLOCK
  5
2B5
100
AcDbEntity
  8
DRIVEN_DIMS
100
AcDbBlockBegin
 62
7
  6
CONTINUOUS
  2
*D12
 70
65
 10
0.0
 20
0.0
  3
*D12
  1

  0
MTEXT
  5
2B6
100
AcDbEntity
  8
DRIVEN_DIMS
100
AcDbMText
 62
7
  6
CONTINUOUS
  7
STANDARD
 71
3
 72
1
 10
4.6928118679
 20
7.648344797
 30
0.0
 11
1.0
 21
0.0
 31
0.0
 44
0.9
  1
7.5\P[.30]
 40
0.1
 41
0.5
  0
LINE
  5
2B7
100
AcDbEntity
  8
DRIVEN_DIMS
100
AcDbLine
 62
7
  6
CONTINUOUS
 10
5.6808687385
 20
8.5233145712
 11
5.0178118679
 21
8.5233145712
  0
LINE
  5
2B8
100
AcDbEntity
  8
DRIVEN_DIMS
100
AcDbLine
 62
7
  6
CONTINUOUS
 10
5.5429376569
 20
8.2274090594
 11
5.0178118679
 21
8.2274090594
  0
LINE
  5
2B9
100
AcDbEntity
  8
DRIVEN_DIMS
100
AcDbLine
 62
7
  6
CONTINUOUS
 10
5.1428118679
 20
8.5233145712
 11
5.1428118679
 21
8.9233145712
  0
LINE
  5
2BA
100
AcDbEntity
  8
DRIVEN_DIMS
100
AcDbLine
 62
7
  6
CONTINUOUS
 10
5.1428118679
 20
8.2274090594
 11
5.1428118679
 21
7.598344797
  0
LINE
  5
2BB
100
AcDbEntity
  8
DRIVEN_DIMS
100
AcDbLine
 62
7
  6
CONTINUOUS
 10
5.1428118679
 20
7.598344797
 11
4.9928118679
 21
7.598344797
  0
INSERT
  5
2BC
100
AcDbEntity
  8
DRIVEN_DIMS
100
AcDbBlockReference
 62
7
  6
CONTINUOUS
  2
_FILLED
 10
5.1428118679
 20
8.5233145712
 41
0.1875
 42
0.1875
 43
0.1875
 50
270.0
  0
INSERT
  5
2BD
100
AcDbEntity
  8
DRIVEN_DIMS
100
AcDbBlockReference
 62
7
  6
CONTINUOUS
  2
_FILLED
 10
5.1428118679
 20
8.2274090594
 41
0.1875
 42
0.1875
 43
0.1875
 50
90.0
  0
ENDBLK
  5
2BE
100
AcDbEntity
  8
0
  6
BYBLOCK
 62
0
100
AcDbBlockEnd
  0
BLOCK
  5
2BF
100
AcDbEntity
  8
DRIVEN_DIMS
100
AcDbBlockBegin
 62
7
  6
CONTINUOUS
  2
*D13
 70
65
 10
0.0
 20
0.0
  3
*D13
  1

  0
MTEXT
  5
2C0
100
AcDbEntity
  8
DRIVEN_DIMS
100
AcDbMText
 62
7
  6
CONTINUOUS
  7
STANDARD
 71
2
 72
1
 10
4.1638877216
 20
8.4149723605
 30
0.0
 11
1.0
 21
0.0
 31
0.0
 44
0.9
  1
11.6\P[.46]
 40
0.1
 41
0.5
  0
LINE
  5
2C1
100
AcDbEntity
  8
DRIVEN_DIMS
100
AcDbLine
 62
7
  6
CONTINUOUS
 10
5.6808687385
 20
8.5233145712
 11
4.0888877216
 21
8.5233145712
  0
LINE
  5
2C2
100
AcDbEntity
  8
DRIVEN_DIMS
100
AcDbLine
 62
7
  6
CONTINUOUS
 10
5.7086008247
 20
8.0662279571
 11
5.2384247493
 21
8.0662279571
  0
LINE
  5
2C3
100
AcDbEntity
  8
DRIVEN_DIMS
100
AcDbLine
 62
7
  6
CONTINUOUS
 10
5.0401503088
 20
8.0662279571
 11
4.0888877216
 21
8.0662279571
  0
LINE
  5
2C4
100
AcDbEntity
  8
DRIVEN_DIMS
100
AcDbLine
 62
7
  6
CONTINUOUS
 10
4.2138877216
 20
8.5233145712
 11
4.2138877216
 21
8.9233145712
  0
LINE
  5
2C5
100
AcDbEntity
  8
DRIVEN_DIMS
100
AcDbLine
 62
7
  6
CONTINUOUS
 10
4.2138877216
 20
8.0662279571
 11
4.2138877216
 21
7.6662279571
  0
INSERT
  5
2C6
100
AcDbEntity
  8
DRIVEN_DIMS
100
AcDbBlockReference
 62
7
  6
CONTINUOUS
  2
_FILLED
 10
4.2138877216
 20
8.5233145712
 41
0.1875
 42
0.1875
 43
0.1875
 50
270.0
  0
INSERT
  5
2C7
100
AcDbEntity
  8
DRIVEN_DIMS
100
AcDbBlockReference
 62
7
  6
CONTINUOUS
  2
_FILLED
 10
4.2138877216
 20
8.0662279571
 41
0.1875
 42
0.1875
 43
0.1875
 50
90.0
  0
ENDBLK
  5
2C8
100
AcDbEntity
  8
0
  6
BYBLOCK
 62
0
100
AcDbBlockEnd
  0
BLOCK
  5
2C9
100
AcDbEntity
  8
DRIVEN_DIMS
100
AcDbBlockBegin
 62
7
  6
CONTINUOUS
  2
*D14
 70
65
 10
0.0
 20
0.0
  3
*D14
  1

  0
MTEXT
  5
2CA
100
AcDbEntity
  8
DRIVEN_DIMS
100
AcDbMText
 62
7
  6
CONTINUOUS
  7
STANDARD
 71
2
 72
1
 10
3.5301326437
 20
7.9332358311
 30
0.0
 11
1.0
 21
0.0
 31
0.0
 44
0.9
  1
32.5\P[1.28]
 40
0.1
 41
0.6
  0
LINE
  5
2CB
100
AcDbEntity
  8
DRIVEN_DIMS
100
AcDbLine
 62
7
  6
CONTINUOUS
 10
5.6808687385
 20
8.5233145712
 11
3.5051326437
 21
8.5233145712
  0
LINE
  5
2CC
100
AcDbEntity
  8
DRIVEN_DIMS
100
AcDbLine
 62
7
  6
CONTINUOUS
 10
5.5515626793
 20
7.2431570909
 11
3.5051326437
 21
7.2431570909
  0
LINE
  5
2CD
100
AcDbEntity
  8
DRIVEN_DIMS
100
AcDbLine
 62
7
  6
CONTINUOUS
 10
3.6301326437
 20
8.5233145712
 11
3.6301326437
 21
8.0332358311
  0
LINE
  5
2CE
100
AcDbEntity
  8
DRIVEN_DIMS
100
AcDbLine
 62
7
  6
CONTINUOUS
 10
3.6301326437
 20
7.2431570909
 11
3.6301326437
 21
7.5832358311
  0
INSERT
  5
2CF
100
AcDbEntity
  8
DRIVEN_DIMS
100
AcDbBlockReference
 62
7
  6
CONTINUOUS
  2
_FILLED
 10
3.6301326437
 20
8.5233145712
 41
0.1875
 42
0.1875
 43
0.1875
 50
90.0
  0
INSERT
  5
2D0
100
AcDbEntity
  8
DRIVEN_DIMS
100
AcDbBlockReference
 62
7
  6
CONTINUOUS
  2
_FILLED
 10
3.6301326437
 20
7.2431570909
 41
0.1875
 42
0.1875
 43
0.1875
 50
270.0
  0
ENDBLK
  5
2D1
100
AcDbEntity
  8
0
  6
BYBLOCK
 62
0
100
AcDbBlockEnd
  0
BLOCK
  5
2D2
100
AcDbEntity
  8
DRIVEN_DIMS
100
AcDbBlockBegin
 62
7
  6
CONTINUOUS
  2
*D15
 70
65
 10
0.0
 20
0.0
  3
*D15
  1

  0
MTEXT
  5
2D3
100
AcDbEntity
  8
DRIVEN_DIMS
100
AcDbMText
 62
7
  6
CONTINUOUS
  7
STANDARD
 71
2
 72
1
 10
2.7365457322
 20
7.8526452799
 30
0.0
 11
1.0
 21
0.0
 31
0.0
 44
0.9
  1
36.6\P[1.44]
 40
0.1
 41
0.6
  0
LINE
  5
2D4
100
AcDbEntity
  8
DRIVEN_DIMS
100
AcDbLine
 62
7
  6
CONTINUOUS
 10
5.6808687385
 20
8.5233145712
 11
2.7115457322
 21
8.5233145712
  0
LINE
  5
2D5
100
AcDbEntity
  8
DRIVEN_DIMS
100
AcDbLine
 62
7
  6
CONTINUOUS
 10
5.7311136823
 20
7.0819759886
 11
5.6461772466
 21
7.0819759886
  0
LINE
  5
2D6
100
AcDbEntity
  8
DRIVEN_DIMS
100
AcDbLine
 62
7
  6
CONTINUOUS
 10
5.5187879401
 20
7.0819759886
 11
2.7115457322
 21
7.0819759886
  0
LINE
  5
2D7
100
AcDbEntity
  8
DRIVEN_DIMS
100
AcDbLine
 62
7
  6
CONTINUOUS
 10
2.8365457322
 20
8.5233145712
 11
2.8365457322
 21
7.9526452799
  0
LINE
  5
2D8
100
AcDbEntity
  8
DRIVEN_DIMS
100
AcDbLine
 62
7
  6
CONTINUOUS
 10
2.8365457322
 20
7.0819759886
 11
2.8365457322
 21
7.5026452799
  0
INSERT
  5
2D9
100
AcDbEntity
  8
DRIVEN_DIMS
100
AcDbBlockReference
 62
7
  6
CONTINUOUS
  2
_FILLED
 10
2.8365457322
 20
8.5233145712
 41
0.1875
 42
0.1875
 43
0.1875
 50
90.0
  0
INSERT
  5
2DA
100
AcDbEntity
  8
DRIVEN_DIMS
100
AcDbBlockReference
 62
7
  6
CONTINUOUS
  2
_FILLED
 10
2.8365457322
 20
7.0819759886
 41
0.1875
 42
0.1875
 43
0.1875
 50
270.0
  0
ENDBLK
  5
2DB
100
AcDbEntity
  8
0
  6
BYBLOCK
 62
0
100
AcDbBlockEnd
  0
BLOCK
  5
2DC
100
AcDbEntity
  8
DRIVEN_DIMS
100
AcDbBlockBegin
 62
7
  6
CONTINUOUS
  2
*D16
 70
65
 10
0.0
 20
0.0
  3
*D16
  1

  0
MTEXT
  5
2DD
100
AcDbEntity
  8
DRIVEN_DIMS
100
AcDbMText
 62
7
  6
CONTINUOUS
  7
STANDARD
 71
2
 72
1
 10
1.8640110955
 20
7.7858862383
 30
0.0
 11
1.0
 21
0.0
 31
0.0
 44
0.9
  1
40\P[1.57]
 40
0.1
 41
0.6
  0
LINE
  5
2DE
100
AcDbEntity
  8
DRIVEN_DIMS
100
AcDbLine
 62
7
  6
CONTINUOUS
 10
5.6808687385
 20
8.5233145712
 11
1.9390110955
 21
8.5233145712
  0
LINE
  5
2DF
100
AcDbEntity
  8
DRIVEN_DIMS
100
AcDbLine
 62
7
  6
CONTINUOUS
 10
5.5402655754
 20
6.9484579054
 11
5.4571479531
 21
6.9484579054
  0
LINE
  5
2E0
100
AcDbEntity
  8
DRIVEN_DIMS
100
AcDbLine
 62
7
  6
CONTINUOUS
 10
5.3927684111
 20
6.9484579054
 11
1.9390110955
 21
6.9484579054
  0
LINE
  5
2E1
100
AcDbEntity
  8
DRIVEN_DIMS
100
AcDbLine
 62
7
  6
CONTINUOUS
 10
2.0640110955
 20
8.5233145712
 11
2.0640110955
 21
7.8858862383
  0
LINE
  5
2E2
100
AcDbEntity
  8
DRIVEN_DIMS
100
AcDbLine
 62
7
  6
CONTINUOUS
 10
2.0640110955
 20
6.9484579054
 11
2.0640110955
 21
7.4358862383
  0
INSERT
  5
2E3
100
AcDbEntity
  8
DRIVEN_DIMS
100
AcDbBlockReference
 62
7
  6
CONTINUOUS
  2
_FILLED
 10
2.0640110955
 20
8.5233145712
 41
0.1875
 42
0.1875
 43
0.1875
 50
90.0
  0
INSERT
  5
2E4
100
AcDbEntity
  8
DRIVEN_DIMS
100
AcDbBlockReference
 62
7
  6
CONTINUOUS
  2
_FILLED
 10
2.0640110955
 20
6.9484579054
 41
0.1875
 42
0.1875
 43
0.1875
 50
270.0
  0
ENDBLK
  5
2E5
100
AcDbEntity
  8
0
  6
BYBLOCK
 62
0
100
AcDbBlockEnd
  0
BLOCK
  5
2E6
100
AcDbEntity
  8
DRIVEN_DIMS
100
AcDbBlockBegin
 62
7
  6
CONTINUOUS
  2
*D17
 70
65
 10
0.0
 20
0.0
  3
*D17
  1

  0
MTEXT
  5
2E7
100
AcDbEntity
  8
DRIVEN_DIMS
100
AcDbMText
 62
7
  6
CONTINUOUS
  7
STANDARD
 71
2
 72
1
 10
6.3898915596
 20
3.1367157456
 30
0.0
 11
1.0
 21
0.0
 31
0.0
 44
0.9
  1
45.1\P[1.77]
 40
0.1
 41
0.6
  0
LINE
  5
2E8
100
AcDbEntity
  8
DRIVEN_DIMS
100
AcDbLine
 62
7
  6
CONTINUOUS
 10
7.3770175439
 20
6.358216146
 11
7.3770175439
 21
2.9617157456
  0
LINE
  5
2E9
100
AcDbEntity
  8
DRIVEN_DIMS
100
AcDbLine
 62
7
  6
CONTINUOUS
 10
5.6027655754
 20
6.8683578902
 11
5.6027655754
 21
6.7514006283
  0
LINE
  5
2EA
100
AcDbEntity
  8
DRIVEN_DIMS
100
AcDbLine
 62
7
  6
CONTINUOUS
 10
5.6027655754
 20
6.6667136897
 11
5.6027655754
 21
2.9617157456
  0
LINE
  5
2EB
100
AcDbEntity
  8
DRIVEN_DIMS
100
AcDbLine
 62
7
  6
CONTINUOUS
 10
7.3770175439
 20
3.0867157456
 11
6.8898915596
 21
3.0867157456
  0
LINE
  5
2EC
100
AcDbEntity
  8
DRIVEN_DIMS
100
AcDbLine
 62
7
  6
CONTINUOUS
 10
5.6027655754
 20
3.0867157456
 11
6.0898915596
 21
3.0867157456
  0
INSERT
  5
2ED
100
AcDbEntity
  8
DRIVEN_DIMS
100
AcDbBlockReference
 62
7
  6
CONTINUOUS
  2
_FILLED
 10
7.3770175439
 20
3.0867157456
 41
0.1875
 42
0.1875
 43
0.1875
  0
INSERT
  5
2EE
100
AcDbEntity
  8
DRIVEN_DIMS
100
AcDbBlockReference
 62
7
  6
CONTINUOUS
  2
_FILLED
 10
5.6027655754
 20
3.0867157456
 41
0.1875
 42
0.1875
 43
0.1875
 50
180.0
  0
ENDBLK
  5
2EF
100
AcDbEntity
  8
0
  6
BYBLOCK
 62
0
100
AcDbBlockEnd
  0
BLOCK
  5
2F0
100
AcDbEntity
  8
DRIVEN_DIMS
100
AcDbBlockBegin
 62
7
  6
CONTINUOUS
  2
*D18
 70
65
 10
0.0
 20
0.0
  3
*D18
  1

  0
MTEXT
  5
2F1
100
AcDbEntity
  8
DRIVEN_DIMS
100
AcDbMText
 62
7
  6
CONTINUOUS
  7
TEXTSTYLE_6
 71
3
 72
1
 10
12.2062611938
 20
3.3806434317
 30
0.0
 11
1.0
 21
0.0
 31
0.0
 44
0.9
  1
{\Fgdt;n}\Ftxt;11.1\P[.44]
 40
0.1
 41
0.5333333333
  0
LINE
  5
2F2
100
AcDbEntity
  8
DRIVEN_DIMS
100
AcDbLine
 62
7
  6
CONTINUOUS
 10
13.5492871489
 20
3.5978216579
 11
13.5492871489
 21
3.2056434317
  0
LINE
  5
2F3
100
AcDbEntity
  8
DRIVEN_DIMS
100
AcDbLine
 62
7
  6
CONTINUOUS
 10
13.1122871489
 20
3.5978216579
 11
13.1122871489
 21
3.2056434317
  0
LINE
  5
2F4
100
AcDbEntity
  8
DRIVEN_DIMS
100
AcDbLine
 62
7
  6
CONTINUOUS
 10
13.5492871489
 20
3.3306434317
 11
13.9492871489
 21
3.3306434317
  0
LINE
  5
2F5
100
AcDbEntity
  8
DRIVEN_DIMS
100
AcDbLine
 62
7
  6
CONTINUOUS
 10
13.1122871489
 20
3.3306434317
 11
12.4062611938
 21
3.3306434317
  0
INSERT
  5
2F6
100
AcDbEntity
  8
DRIVEN_DIMS
100
AcDbBlockReference
 62
7
  6
CONTINUOUS
  2
_FILLED
 10
13.5492871489
 20
3.3306434317
 41
0.1875
 42
0.1875
 43
0.1875
 50
180.0
  0
INSERT
  5
2F7
100
AcDbEntity
  8
DRIVEN_DIMS
100
AcDbBlockReference
 62
7
  6
CONTINUOUS
  2
_FILLED
 10
13.1122871489
 20
3.3306434317
 41
0.1875
 42
0.1875
 43
0.1875
  0
ENDBLK
  5
2F8
100
AcDbEntity
  8
0
  6
BYBLOCK
 62
0
100
AcDbBlockEnd
  0
BLOCK
  5
2F9
100
AcDbEntity
  8
0
100
AcDbBlockBegin
  2
*T1
 70
1
 10
0.0
 20
0.0
  3
*T1
  1

  0
LINE
  5
2FA
100
AcDbEntity
  8
0
100
AcDbLine
 62
7
  6
CONTINUOUS
 10
4.35
 20
0.0
 11
0.0
 21
0.0
  0
LINE
  5
2FB
100
AcDbEntity
  8
0
100
AcDbLine
 62
7
  6
CONTINUOUS
 10
4.35
 20
0.0
 11
4.35
 21
1.92
  0
LINE
  5
2FC
100
AcDbEntity
  8
0
100
AcDbLine
 62
7
  6
CONTINUOUS
 10
4.35
 20
1.92
 11
0.0
 21
1.92
  0
LINE
  5
2FD
100
AcDbEntity
  8
0
100
AcDbLine
 62
7
  6
CONTINUOUS
 10
0.0
 20
0.0
 11
0.0
 21
1.92
  0
MTEXT
  5
2FE
100
AcDbEntity
  8
NOTES
100
AcDbMText
 62
7
  6
CONTINUOUS
  7
STANDARD
 71
2
 72
1
 10
4.125
 20
0.48
 30
0.0
 11
1.0
 21
0.0
 31
0.0
 44
0.9
  1
A
 40
0.1
 41
0.2
  0
MTEXT
  5
2FF
100
AcDbEntity
  8
NOTES
100
AcDbMText
 62
7
  6
CONTINUOUS
  7
STANDARD
 71
2
 72
1
 10
2.175
 20
1.08
 30
0.0
 11
1.0
 21
0.0
 31
0.0
 44
0.9
  1
SMBQ5XFAM12\P 
 40
0.1
 41
2.2
  0
ENDBLK
  5
300
100
AcDbEntity
  8
0
  6
BYBLOCK
 62
0
100
AcDbBlockEnd
  0
ENDSEC
  0
SECTION
  2
ENTITIES
  0
MTEXT
  5
301
100
AcDbEntity
  8
0
100
AcDbMText
 62
7
  6
CONTINUOUS
  7
TEXTSTYLE_2
 71
2
 72
1
 10
15.7174677477
 20
1.6655662523
 30
0.0
 11
1.0
 21
0.0
 31
0.0
 44
0.9
  1
THIRD ANGLE PROJECTION
 40
0.1
 41
1.76
  0
MTEXT
  5
302
100
AcDbEntity
  8
0
100
AcDbMText
 62
7
  6
CONTINUOUS
  7
STANDARD
 71
1
 72
1
 10
17.55
 20
1.32
 30
0.0
 11
1.0
 21
0.0
 31
0.0
 44
0.9
  1
DRAWING NO.
 40
0.08
 41
0.88
  0
MTEXT
  5
303
100
AcDbEntity
  8
0
100
AcDbMText
 62
7
  6
CONTINUOUS
  7
TEXTSTYLE_2
 71
1
 72
1
 10
16.75
 20
2.08
 30
0.0
 11
1.0
 21
0.0
 31
0.0
 44
0.9
  1
TITLE
 40
0.1
 41
0.4
  0
MTEXT
  5
304
100
AcDbEntity
  8
0
100
AcDbMText
 62
7
  6
CONTINUOUS
  7
STANDARD
 71
1
 72
1
 10
16.75
 20
1.32
 30
0.0
 11
1.0
 21
0.0
 31
0.0
 44
0.9
  1
SIZE
 40
0.08
 41
0.32
  0
MTEXT
  5
305
100
AcDbEntity
  8
0
100
AcDbMText
 62
7
  6
CONTINUOUS
  7
STANDARD
 71
1
 72
1
 10
16.75
 20
0.95
 30
0.0
 11
1.0
 21
0.0
 31
0.0
 44
0.9
  1
SCALE
 40
0.08
 41
0.4
  0
MTEXT
  5
306
100
AcDbEntity
  8
0
100
AcDbMText
 62
7
  6
CONTINUOUS
  7
TEXTSTYLE_2
 71
2
 72
1
 10
17.17
 20
1.2
 30
0.0
 11
1.0
 21
0.0
 31
0.0
 44
0.9
  1
C
 40
0.1
 41
0.08
  0
MTEXT
  5
307
100
AcDbEntity
  8
0
100
AcDbMText
 62
7
  6
CONTINUOUS
  7
STANDARD
 71
1
 72
1
 10
18.925
 20
0.95
 30
0.0
 11
1.0
 21
0.0
 31
0.0
 44
0.9
  1
SHEET
 40
0.08
 41
0.4
  0
MTEXT
  5
308
100
AcDbEntity
  8
0
100
AcDbMText
 62
7
  6
CONTINUOUS
  7
STANDARD
 71
1
 72
1
 10
20.3
 20
1.32
 30
0.0
 11
1.0
 21
0.0
 31
0.0
 44
0.9
  1
REV.
 40
0.08
 41
0.32
  0
MTEXT
  5
309
100
AcDbEntity
  8
0
100
AcDbMText
 62
7
  6
CONTINUOUS
  7
STANDARD
 71
3
 72
1
 10
21.05
 20
0.698443
 30
0.0
 11
1.0
 21
0.0
 31
0.0
 44
0.9
  1
CREO
 40
0.07
 41
0.28
  0
MTEXT
  5
30A
100
AcDbEntity
  8
0
100
AcDbMText
 62
7
  6
CONTINUOUS
  7
TEXTSTYLE_2
 71
2
 72
1
 10
12.257
 20
15.95
 30
0.0
 11
1.0
 21
0.0
 31
0.0
 44
0.9
  1
4
 40
0.1
 41
0.08
  0
MTEXT
  5
30B
100
AcDbEntity
  8
0
100
AcDbMText
 62
7
  6
CONTINUOUS
  7
TEXTSTYLE_2
 71
2
 72
1
 10
12.257
 20
0.65
 30
0.0
 11
1.0
 21
0.0
 31
0.0
 44
0.9
  1
4
 40
0.1
 41
0.08
  0
MTEXT
  5
30C
100
AcDbEntity
  8
0
100
AcDbMText
 62
7
  6
CONTINUOUS
  7
TEXTSTYLE_2
 71
3
 72
1
 10
0.864
 20
6.375
 30
0.0
 11
1.0
 21
0.0
 31
0.0
 44
0.9
  1
B
 40
0.1
 41
0.08
  0
MTEXT
  5
30D
100
AcDbEntity
  8
0
100
AcDbMText
 62
7
  6
CONTINUOUS
  7
TEXTSTYLE_2
 71
1
 72
1
 10
21.15
 20
6.375
 30
0.0
 11
1.0
 21
0.0
 31
0.0
 44
0.9
  1
B
 40
0.1
 41
0.08
  0
MTEXT
  5
30E
100
AcDbEntity
  8
0
100
AcDbMText
 62
7
  6
CONTINUOUS
  7
TEXTSTYLE_2
 71
3
 72
1
 10
0.864
 20
2.525
 30
0.0
 11
1.0
 21
0.0
 31
0.0
 44
0.9
  1
A
 40
0.1
 41
0.08
  0
MTEXT
  5
30F
100
AcDbEntity
  8
0
100
AcDbMText
 62
7
  6
CONTINUOUS
  7
TEXTSTYLE_2
 71
1
 72
1
 10
21.15
 20
2.525
 30
0.0
 11
1.0
 21
0.0
 31
0.0
 44
0.9
  1
A
 40
0.1
 41
0.08
  0
MTEXT
  5
310
100
AcDbEntity
  8
0
100
AcDbMText
 62
7
  6
CONTINUOUS
  7
TEXTSTYLE_2
 71
3
 72
1
 10
0.864
 20
14.075
 30
0.0
 11
1.0
 21
0.0
 31
0.0
 44
0.9
  1
D
 40
0.1
 41
0.08
  0
MTEXT
  5
311
100
AcDbEntity
  8
0
100
AcDbMText
 62
7
  6
CONTINUOUS
  7
TEXTSTYLE_2
 71
1
 72
1
 10
21.15
 20
14.075
 30
0.0
 11
1.0
 21
0.0
 31
0.0
 44
0.9
  1
D
 40
0.1
 41
0.08
  0
MTEXT
  5
312
100
AcDbEntity
  8
0
100
AcDbMText
 62
7
  6
CONTINUOUS
  7
TEXTSTYLE_2
 71
3
 72
1
 10
0.864
 20
10.225
 30
0.0
 11
1.0
 21
0.0
 31
0.0
 44
0.9
  1
C
 40
0.1
 41
0.08
  0
MTEXT
  5
313
100
AcDbEntity
  8
0
100
AcDbMText
 62
7
  6
CONTINUOUS
  7
TEXTSTYLE_2
 71
1
 72
1
 10
21.15
 20
10.225
 30
0.0
 11
1.0
 21
0.0
 31
0.0
 44
0.9
  1
C
 40
0.1
 41
0.08
  0
MTEXT
  5
314
100
AcDbEntity
  8
0
100
AcDbMText
 62
7
  6
CONTINUOUS
  7
TEXTSTYLE_2
 71
2
 72
1
 10
14.757
 20
0.65
 30
0.0
 11
1.0
 21
0.0
 31
0.0
 44
0.9
  1
3
 40
0.1
 41
0.08
  0
MTEXT
  5
315
100
AcDbEntity
  8
0
100
AcDbMText
 62
7
  6
CONTINUOUS
  7
TEXTSTYLE_2
 71
2
 72
1
 10
14.757
 20
15.95
 30
0.0
 11
1.0
 21
0.0
 31
0.0
 44
0.9
  1
3
 40
0.1
 41
0.08
  0
MTEXT
  5
316
100
AcDbEntity
  8
0
100
AcDbMText
 62
7
  6
CONTINUOUS
  7
TEXTSTYLE_2
 71
2
 72
1
 10
17.257
 20
15.95
 30
0.0
 11
1.0
 21
0.0
 31
0.0
 44
0.9
  1
2
 40
0.1
 41
0.08
  0
MTEXT
  5
317
100
AcDbEntity
  8
0
100
AcDbMText
 62
7
  6
CONTINUOUS
  7
TEXTSTYLE_2
 71
2
 72
1
 10
17.257
 20
0.65
 30
0.0
 11
1.0
 21
0.0
 31
0.0
 44
0.9
  1
2
 40
0.1
 41
0.08
  0
MTEXT
  5
318
100
AcDbEntity
  8
0
100
AcDbMText
 62
7
  6
CONTINUOUS
  7
TEXTSTYLE_2
 71
2
 72
1
 10
19.757
 20
0.65
 30
0.0
 11
1.0
 21
0.0
 31
0.0
 44
0.9
  1
1
 40
0.1
 41
0.08
  0
MTEXT
  5
319
100
AcDbEntity
  8
0
100
AcDbMText
 62
7
  6
CONTINUOUS
  7
TEXTSTYLE_2
 71
2
 72
1
 10
19.757
 20
15.95
 30
0.0
 11
1.0
 21
0.0
 31
0.0
 44
0.9
  1
1
 40
0.1
 41
0.08
  0
MTEXT
  5
31A
100
AcDbEntity
  8
0
100
AcDbMText
 62
7
  6
CONTINUOUS
  7
TEXTSTYLE_2
 71
2
 72
1
 10
2.257
 20
0.65
 30
0.0
 11
1.0
 21
0.0
 31
0.0
 44
0.9
  1
8
 40
0.1
 41
0.08
  0
MTEXT
  5
31B
100
AcDbEntity
  8
0
100
AcDbMText
 62
7
  6
CONTINUOUS
  7
TEXTSTYLE_2
 71
2
 72
1
 10
4.757
 20
0.65
 30
0.0
 11
1.0
 21
0.0
 31
0.0
 44
0.9
  1
7
 40
0.1
 41
0.08
  0
MTEXT
  5
31C
100
AcDbEntity
  8
0
100
AcDbMText
 62
7
  6
CONTINUOUS
  7
TEXTSTYLE_2
 71
2
 72
1
 10
7.257
 20
0.65
 30
0.0
 11
1.0
 21
0.0
 31
0.0
 44
0.9
  1
6
 40
0.1
 41
0.08
  0
MTEXT
  5
31D
100
AcDbEntity
  8
0
100
AcDbMText
 62
7
  6
CONTINUOUS
  7
TEXTSTYLE_2
 71
2
 72
1
 10
9.757
 20
0.65
 30
0.0
 11
1.0
 21
0.0
 31
0.0
 44
0.9
  1
5
 40
0.1
 41
0.08
  0
MTEXT
  5
31E
100
AcDbEntity
  8
0
100
AcDbMText
 62
7
  6
CONTINUOUS
  7
TEXTSTYLE_2
 71
2
 72
1
 10
9.757
 20
15.95
 30
0.0
 11
1.0
 21
0.0
 31
0.0
 44
0.9
  1
5
 40
0.1
 41
0.08
  0
MTEXT
  5
31F
100
AcDbEntity
  8
0
100
AcDbMText
 62
7
  6
CONTINUOUS
  7
TEXTSTYLE_2
 71
2
 72
1
 10
7.257
 20
15.95
 30
0.0
 11
1.0
 21
0.0
 31
0.0
 44
0.9
  1
6
 40
0.1
 41
0.08
  0
MTEXT
  5
320
100
AcDbEntity
  8
0
100
AcDbMText
 62
7
  6
CONTINUOUS
  7
TEXTSTYLE_2
 71
2
 72
1
 10
4.757
 20
15.95
 30
0.0
 11
1.0
 21
0.0
 31
0.0
 44
0.9
  1
7
 40
0.1
 41
0.08
  0
MTEXT
  5
321
100
AcDbEntity
  8
0
100
AcDbMText
 62
7
  6
CONTINUOUS
  7
TEXTSTYLE_2
 71
2
 72
1
 10
2.257
 20
15.95
 30
0.0
 11
1.0
 21
0.0
 31
0.0
 44
0.9
  1
8
 40
0.1
 41
0.08
  0
MTEXT
  5
322
100
AcDbEntity
  8
0
100
AcDbMText
 62
7
  6
CONTINUOUS
  7
STANDARD
 71
1
 72
1
 10
17.2749123633
 20
0.9184107931
 30
0.0
 11
1.0
 21
0.0
 31
0.0
 44
0.9
  1
1:1
 40
0.1
 41
0.3
  0
MTEXT
  5
323
100
AcDbEntity
  8
0
100
AcDbMText
 62
7
  6
CONTINUOUS
  7
STANDARD
 71
1
 72
1
 10
19.4499123633
 20
0.9184107931
 30
0.0
 11
1.0
 21
0.0
 31
0.0
 44
0.9
  1
1 OF 1
 40
0.1
 41
0.6
  0
MTEXT
  5
324
100
AcDbEntity
  8
0
100
AcDbMText
 62
7
  6
CONTINUOUS
  7
STANDARD
 71
1
 72
1
 10
18.5204017884
 20
1.2400373234
 30
0.0
 11
1.0
 21
0.0
 31
0.0
 44
0.9
  1
205097
 40
0.12
 41
0.72
  0
MTEXT
  5
325
100
AcDbEntity
  8
0
100
AcDbMText
 62
7
  6
CONTINUOUS
  7
STANDARD
 71
1
 72
1
 10
1.2857894151
 20
1.4458068967
 30
0.0
 11
1.0
 21
0.0
 31
0.0
 44
0.9
  1
NOTES:\P1. ALL DIMENSIONS ARE MILLIMETERS [INCHES] UNLESS OTHERWISE NOTED.\P2. REFER TO "www.bannerengineering.com" FOR ADDITIONAL DATA AND SPECIFICATIONS.
 40
0.1
 41
7.9
  0
MTEXT
  5
326
100
AcDbEntity
  8
0
100
AcDbMText
 62
7
  6
CONTINUOUS
  7
TEXTSTYLE_3
 71
2
 72
1
 10
19.7555637832
 20
2.555409194
 30
0.0
 11
1.0
 21
0.0
 31
0.0
 44
0.9
  1
BANNER ENGINEERING CORP.
 40
0.12
 41
2.592
  0
MTEXT
  5
327
100
AcDbEntity
  8
0
100
AcDbMText
 62
7
  6
CONTINUOUS
  7
TEXTSTYLE_2
 71
2
 72
1
 10
19.6690932526
 20
2.3442032634
 30
0.0
 11
1.0
 21
0.0
 31
0.0
 44
0.9
  1
www.bannerengineering.com
 40
0.1
 41
2.0
  0
MTEXT
  5
328
100
AcDbEntity
  8
0
100
AcDbMText
 62
7
  6
CONTINUOUS
  7
TEXTSTYLE_4
 71
2
 72
1
 10
15.7104628329
 20
2.6377571551
 30
0.0
 11
1.0
 21
0.0
 31
0.0
 44
0.9
  1
This drawing is the property\Pof BANNER ENGINEERING CORP.\PAny use or reproduction,\Pin any form, without prior\Pwritten permission of\PBanner is prohibited.
 40
0.08
 41
1.904
  0
MTEXT
  5
329
100
AcDbEntity
  8
0
100
AcDbMText
 62
7
  6
CONTINUOUS
  7
TEXTSTYLE_5
 71
2
 72
1
 10
15.7283993136
 20
1.9032170366
 30
0.0
 11
1.0
 21
0.0
 31
0.0
 44
0.9
  1
C  2015 Banner Engineering Corp.
 40
0.08
 41
1.92
  0
DIMENSION
  5
32A
100
AcDbEntity
  8
DRIVEN_DIMS
100
AcDbDimension
 62
7
  6
CONTINUOUS
  2
*D0
 10
13.3307871489
 20
9.047592581
 11
12.9882674639
 21
8.972592581
 70
160
 71
2
 42
17.4
  1
<>\P[]
  3
DIMSTYLE_1
100
AcDbAlignedDimension
 13
12.6457477788
 23
8.5233145712
 14
13.3307871489
 24
8.0133367761
100
AcDbRotatedDimension
  0
DIMENSION
  5
32B
100
AcDbEntity
  8
DRIVEN_DIMS
100
AcDbDimension
 62
7
  6
CONTINUOUS
  2
*D1
 10
13.826850141
 20
9.622397029
 11
13.2362989599
 21
9.547397029
 70
160
 71
2
 42
30.0
  1
<>\P[]
  3
DIMSTYLE_1
100
AcDbAlignedDimension
 13
12.6457477788
 23
8.5233145712
 14
13.826850141
 24
7.6596395111
100
AcDbRotatedDimension
  0
DIMENSION
  5
32C
100
AcDbEntity
  8
DRIVEN_DIMS
100
AcDbDimension
 62
7
  6
CONTINUOUS
  2
*D2
 10
14.1168143091
 20
10.1752553496
 11
13.381281044
 21
10.1002553496
 70
160
 71
2
 42
37.3650898701
  1
<>\P[]
  3
DIMSTYLE_1
100
AcDbAlignedDimension
 13
12.6457477788
 23
8.5423825637
 14
14.1168143091
 24
7.7243893171
100
AcDbRotatedDimension
  0
DIMENSION
  5
32D
100
AcDbEntity
  8
DRIVEN_DIMS
100
AcDbDimension
 62
7
  6
CONTINUOUS
  2
*D3
 10
7.5581199061
 20
11.2962323206
 11
6.5804427407
 21
11.2212323206
 70
160
 71
2
 42
49.666
  1
<>\P[]
  3
DIMSTYLE_1
100
AcDbAlignedDimension
 13
5.6027655754
 23
8.3827114081
 14
7.5581199061
 24
8.3749799285
100
AcDbRotatedDimension
  0
DIMENSION
  5
32E
100
AcDbEntity
  8
DRIVEN_DIMS
100
AcDbDimension
 62
7
  6
CONTINUOUS
  2
*D4
 10
5.7628443155
 20
9.1617015532
 11
6.4883331319
 21
9.0867015532
 70
160
 71
1
 42
4.066
  1
<>\P[]
  3
DIMSTYLE_1
100
AcDbAlignedDimension
 13
5.6027655754
 23
8.3827114081
 14
5.7628443155
 24
8.3963066972
100
AcDbRotatedDimension
  0
DIMENSION
  5
32F
100
AcDbEntity
  8
DRIVEN_DIMS
100
AcDbDimension
 62
7
  6
CONTINUOUS
  2
*D5
 10
5.9177262053
 20
9.6351873832
 11
4.8497546349
 21
9.5601873832
 70
160
 71
3
 42
8.0
  1
<>\P[]
  3
DIMSTYLE_1
100
AcDbAlignedDimension
 13
5.6027655754
 23
8.3827114081
 14
5.9177262053
 24
8.2154405555
100
AcDbRotatedDimension
  0
DIMENSION
  5
330
100
AcDbEntity
  8
DRIVEN_DIMS
100
AcDbDimension
 62
7
  6
CONTINUOUS
  2
*D6
 10
6.862608095
 20
10.1779862554
 11
6.2326868352
 21
10.1029862554
 70
160
 71
2
 42
32.0
  1
<>\P[]
  3
DIMSTYLE_1
100
AcDbAlignedDimension
 13
5.6027655754
 23
8.3827114081
 14
6.862608095
 24
8.6099724336
100
AcDbRotatedDimension
  0
DIMENSION
  5
331
100
AcDbEntity
  8
DRIVEN_DIMS
100
AcDbDimension
 62
7
  6
CONTINUOUS
  2
*D7
 10
7.3748128195
 20
10.7366735152
 11
6.4887891974
 21
10.6616735152
 70
160
 71
2
 42
45.01
  1
<>\P[]
  3
DIMSTYLE_1
100
AcDbAlignedDimension
 13
5.6027655754
 23
8.3827114081
 14
7.3748128195
 24
6.9555980358
100
AcDbRotatedDimension
  0
DIMENSION
  5
332
100
AcDbEntity
  8
DRIVEN_DIMS
100
AcDbDimension
 62
7
  6
CONTINUOUS
  2
*D8
 10
10.7203589038
 20
6.3252830752
 11
10.7203589038
 21
7.3492988232
 70
160
 71
2
 42
55.83
  1
<>\P[]
  3
DIMSTYLE_1
100
AcDbAlignedDimension
 13
7.4352986734
 23
8.5233145712
 14
7.4800183186
 24
6.3252830752
 50
270.0
100
AcDbRotatedDimension
  0
DIMENSION
  5
333
100
AcDbEntity
  8
DRIVEN_DIMS
100
AcDbDimension
 62
7
  6
CONTINUOUS
  2
*D9
 10
8.2231689394
 20
7.4276452799
 11
8.2231689394
 21
7.9004799256
 70
160
 71
2
 42
27.83
  1
<>\P[]
  3
DIMSTYLE_1
100
AcDbAlignedDimension
 13
7.4178712218
 23
8.5233145712
 14
7.4262790546
 24
7.4276452799
 50
270.0
100
AcDbRotatedDimension
  0
DIMENSION
  5
334
100
AcDbEntity
  8
DRIVEN_DIMS
100
AcDbDimension
 62
7
  6
CONTINUOUS
  2
*D10
 10
9.0441657765
 20
6.8063854374
 11
9.0441657765
 21
7.5898500043
 70
160
 71
2
 42
43.61
  1
<>\P[]
  3
DIMSTYLE_1
100
AcDbAlignedDimension
 13
7.4084376036
 23
8.5233145712
 14
7.5240254179
 24
6.8063854374
 50
270.0
100
AcDbRotatedDimension
  0
DIMENSION
  5
335
100
AcDbEntity
  8
DRIVEN_DIMS
100
AcDbDimension
 62
7
  6
CONTINUOUS
  2
*D11
 10
9.8502168935
 20
6.5896137838
 11
9.8502168935
 21
7.4814641775
 70
160
 71
2
 42
49.116
  1
<>\P[]
  3
DIMSTYLE_1
100
AcDbAlignedDimension
 13
7.4111329231
 23
8.5233145712
 14
7.5459151817
 24
6.5896137838
 50
270.0
100
AcDbRotatedDimension
  0
DIMENSION
  5
336
100
AcDbEntity
  8
DRIVEN_DIMS
100
AcDbDimension
 62
7
  6
CONTINUOUS
  2
*D12
 10
5.1428118679
 20
8.2274090594
 11
4.6428118679
 21
7.523344797
 70
160
 71
3
 42
7.516
  1
<>\P[]
  3
DIMSTYLE_1
100
AcDbAlignedDimension
 13
5.7433687385
 23
8.5233145712
 14
5.6054376569
 24
8.2274090594
 50
270.0
100
AcDbRotatedDimension
  0
DIMENSION
  5
337
100
AcDbEntity
  8
DRIVEN_DIMS
100
AcDbDimension
 62
7
  6
CONTINUOUS
  2
*D13
 10
4.2138877216
 20
8.0662279571
 11
4.2138877216
 21
8.2899723605
 70
160
 71
2
 42
11.61
  1
<>\P[]
  3
DIMSTYLE_1
100
AcDbAlignedDimension
 13
5.7433687385
 23
8.5233145712
 14
5.7711008247
 24
8.0662279571
 50
270.0
100
AcDbRotatedDimension
  0
DIMENSION
  5
338
100
AcDbEntity
  8
DRIVEN_DIMS
100
AcDbDimension
 62
7
  6
CONTINUOUS
  2
*D14
 10
3.6301326437
 20
7.2431570909
 11
3.6301326437
 21
7.8082358311
 70
160
 71
2
 42
32.516
  1
<>\P[]
  3
DIMSTYLE_1
100
AcDbAlignedDimension
 13
5.7433687385
 23
8.5233145712
 14
5.6140626793
 24
7.2431570909
 50
270.0
100
AcDbRotatedDimension
  0
DIMENSION
  5
339
100
AcDbEntity
  8
DRIVEN_DIMS
100
AcDbDimension
 62
7
  6
CONTINUOUS
  2
*D15
 10
2.8365457322
 20
7.0819759886
 11
2.8365457322
 21
7.7276452799
 70
160
 71
2
 42
36.61
  1
<>\P[]
  3
DIMSTYLE_1
100
AcDbAlignedDimension
 13
5.7433687385
 23
8.5233145712
 14
5.7936136823
 24
7.0819759886
 50
270.0
100
AcDbRotatedDimension
  0
DIMENSION
  5
33A
100
AcDbEntity
  8
DRIVEN_DIMS
100
AcDbDimension
 62
7
  6
CONTINUOUS
  2
*D16
 10
2.0640110955
 20
6.9484579054
 11
2.0640110955
 21
7.6608862383
 70
160
 71
2
 42
40.0013593129
  1
<>\P[]
  3
DIMSTYLE_1
100
AcDbAlignedDimension
 13
5.7433687385
 23
8.5233145712
 14
5.6027655754
 24
6.9484579054
 50
270.0
100
AcDbRotatedDimension
  0
DIMENSION
  5
33B
100
AcDbEntity
  8
DRIVEN_DIMS
100
AcDbDimension
 62
7
  6
CONTINUOUS
  2
*D17
 10
5.6027655754
 20
3.0867157456
 11
6.4898915596
 21
3.0117157456
 70
160
 71
2
 42
45.066
  1
<>\P[]
  3
DIMSTYLE_1
100
AcDbAlignedDimension
 13
7.3770175439
 23
6.420716146
 14
5.6027655754
 24
6.9308578902
 50
180.0
100
AcDbRotatedDimension
  0
DIMENSION
  5
33C
100
AcDbEntity
  8
DRIVEN_DIMS
100
AcDbDimension
 62
7
  6
CONTINUOUS
  2
*D18
 10
13.1122871489
 20
3.3306434317
 11
11.9895945272
 21
3.2556434317
 70
160
 71
3
 42
11.0998
  1
%%c<>\P[]
  3
DIMSTYLE_1
100
AcDbAlignedDimension
 13
13.5492871489
 23
3.6603216579
 14
13.1122871489
 24
3.6603216579
 50
180.0
100
AcDbRotatedDimension
  0
ACAD_TABLE
  5
33D
100
AcDbEntity
  8
0
 62
7
  6
CONTINUOUS
100
AcDbBlockReference
  2
*T1
 10
16.7
 20
0.75
 30
0.0
100
AcDbTable
342
       718
343
240
 11
1.0
 21
0.0
 31
0.0
 90
6
 91
3
 92
5
 93
4
 94
0
 95
0
 96
0
 70
1
141
0.33
141
0.45
141
1.14
142
0.65
142
1.15
142
1.025
142
1.075
142
0.45
171
1
172
0
173
0
174
0
175
1
176
1
 91
33
178
0
145
0.0
301
CELL_VALUE
 90
4
  1
 
304
ACVALUE_END
170
1
140
0.1
171
1
172
0
173
0
174
0
175
1
176
1
 91
33
178
0
145
0.0
301
CELL_VALUE
 90
4
  1
 
304
ACVALUE_END
170
1
140
0.1
171
1
172
0
173
0
174
0
175
1
176
1
 91
33
178
0
145
0.0
301
CELL_VALUE
 90
4
  1
 
304
ACVALUE_END
170
1
140
0.1
171
1
172
0
173
0
174
0
175
1
176
1
 91
33
178
0
145
0.0
301
CELL_VALUE
 90
4
  1
 
304
ACVALUE_END
170
1
140
0.1
171
1
172
0
173
0
174
0
175
1
176
1
 91
33
178
0
145
0.0
301
CELL_VALUE
 90
4
  1
 
304
ACVALUE_END
170
1
140
0.1
171
1
172
0
173
0
174
0
175
1
176
1
 91
33
178
0
145
0.0
301
CELL_VALUE
 90
4
  1
 
304
ACVALUE_END
170
1
140
0.1
171
1
172
0
173
0
174
0
175
1
176
1
 91
33
178
0
145
0.0
301
CELL_VALUE
 90
4
  1
 
304
ACVALUE_END
170
1
140
0.1
171
1
172
0
173
0
174
0
175
1
176
1
 91
33
178
0
145
0.0
301
CELL_VALUE
 90
4
  1
 
304
ACVALUE_END
170
1
140
0.1
171
1
172
0
173
0
174
0
175
1
176
1
 91
33
178
0
145
0.0
301
CELL_VALUE
 90
4
  1
 
304
ACVALUE_END
170
1
140
0.1
171
1
172
0
173
0
174
0
175
1
176
1
 91
41
178
0
145
0.0
301
CELL_VALUE
 90
4
  1
A
304
ACVALUE_END
170
8
140
0.1
 64
7
171
1
172
0
173
0
174
0
175
5
176
1
 91
33
178
0
145
0.0
301
CELL_VALUE
 90
4
  1
SMBQ5XFAM12\P 
304
ACVALUE_END
170
8
140
0.1
171
1
172
0
173
1
174
0
175
1
176
1
 91
1
178
0
145
0.0
170
1
171
1
172
0
173
1
174
0
175
1
176
1
 91
1
178
0
145
0.0
170
1
171
1
172
0
173
1
174
0
175
1
176
1
 91
1
178
0
145
0.0
170
1
171
1
172
0
173
1
174
0
175
1
176
1
 91
1
178
0
145
0.0
170
8
  0
MTEXT
  5
33E
100
AcDbEntity
  8
NOTES
100
AcDbMText
 62
7
  6
CONTINUOUS
  7
STANDARD
 71
1
 72
1
 10
17.1960840586
 20
3.9729728867
 30
0.0
 11
1.0
 21
0.0
 31
0.0
 44
0.9
  1
ISOMETRIC VIEWS 
 40
0.1
 41
1.6
  0
LEADER
  5
33F
100
AcDbEntity
  8
NOTES
100
AcDbLeader
 62
7
  6
CONTINUOUS
  3
STANDARD
 71
1
 72
0
 73
0
 75
0
 40
0.1
 41
1.0
 76
3
 10
5.7056268168
 20
7.2047847684
 30
0.0
 10
5.0816526664
 20
6.6171512082
 30
0.0
 10
4.8316526664
 20
6.6171512082
 30
0.0
340
340
1001
ACAD
1000
DSTYLE
1002
{
1070
77
1070
0
1002
}
  0
MTEXT
  5
340
102
{ACAD_REACTORS
330
33F
102
}
100
AcDbEntity
  8
NOTES
100
AcDbMText
 62
7
  6
CONTINUOUS
  7
STANDARD
 71
3
 72
1
 10
4.8316526664
 20
6.6671512082
 30
0.0
 11
1.0
 21
0.0
 31
0.0
 44
0.9
  1
3X M4 X .7
 40
0.1
 41
1.0
  0
LEADER
  5
341
100
AcDbEntity
  8
NOTES
100
AcDbLeader
 62
7
  6
CONTINUOUS
  3
STANDARD
 71
1
 72
0
 73
0
 75
0
 40
0.1
 41
1.0
 76
3
 10
5.8972825531
 20
7.0372106345
 30
0.0
 10
5.0728501405
 20
6.1379829549
 30
0.0
 10
4.8228501405
 20
6.1379829549
 30
0.0
340
342
1001
ACAD
1000
DSTYLE
1002
{
1070
77
1070
0
1002
}
  0
MTEXT
  5
342
102
{ACAD_REACTORS
330
341
102
}
100
AcDbEntity
  8
NOTES
100
AcDbMText
 62
7
  6
CONTINUOUS
  7
STANDARD
 71
3
 72
1
 10
4.8228501405
 20
6.1879829549
 30
0.0
 11
1.0
 21
0.0
 31
0.0
 44
0.9
  1
3X M3 X .5
 40
0.1
 41
1.0
  0
LEADER
  5
343
100
AcDbEntity
  8
NOTES
100
AcDbLeader
 62
7
  6
CONTINUOUS
  3
STANDARD
 71
1
 72
0
 73
0
 75
0
 40
0.1
 41
1.4
 76
3
 10
6.4544927593
 20
14.0271580327
 30
0.0
 10
6.250347066
 20
14.3829273982
 30
0.0
 10
6.000347066
 20
14.3829273982
 30
0.0
340
344
1001
ACAD
1000
DSTYLE
1002
{
1070
77
1070
0
1002
}
  0
MTEXT
  5
344
102
{ACAD_REACTORS
330
343
102
}
100
AcDbEntity
  8
NOTES
100
AcDbMText
 62
7
  6
CONTINUOUS
  7
STANDARD
 71
3
 72
1
 10
6.000347066
 20
14.4329273982
 30
0.0
 11
1.0
 21
0.0
 31
0.0
 44
0.9
  1
M5 X .8 X 18mm
 40
0.1
 41
1.4
  0
LINE
  5
345
100
AcDbEntity
  8
0
100
AcDbLine
 62
7
  6
CONTINUOUS
 10
0.814
 20
8.336603
 11
0.814
 21
8.163397
  0
LINE
  5
346
100
AcDbEntity
  8
0
100
AcDbLine
 62
7
  6
CONTINUOUS
 10
0.964
 20
15.75
 11
0.964
 21
0.75
  0
LINE
  5
347
100
AcDbEntity
  8
0
100
AcDbLine
 62
7
  6
CONTINUOUS
 10
15.8276527477
 20
1.2966912523
 11
16.4340437477
 21
1.3660842523
  0
LINE
  5
348
100
AcDbEntity
  8
0
100
AcDbLine
 62
7
  6
CONTINUOUS
 10
10.920397
 20
0.6
 11
11.093603
 21
0.6
  0
LINE
  5
349
100
AcDbEntity
  8
0
100
AcDbLine
 62
7
  6
CONTINUOUS
 10
0.964
 20
0.75
 11
21.05
 21
0.75
  0
LINE
  5
34A
100
AcDbEntity
  8
0
100
AcDbLine
 62
7
  6
CONTINUOUS
 10
3.507
 20
0.75
 11
3.507
 21
0.5
  0
LINE
  5
34B
100
AcDbEntity
  8
0
100
AcDbLine
 62
7
  6
CONTINUOUS
 10
3.507
 20
15.75
 11
3.507
 21
16.0
  0
LINE
  5
34C
100
AcDbEntity
  8
0
100
AcDbLine
 62
7
  6
CONTINUOUS
 10
16.7
 20
1.0
 11
21.05
 21
1.0
  0
LINE
  5
34D
100
AcDbEntity
  8
0
100
AcDbLine
 62
7
  6
CONTINUOUS
 10
14.9008917477
 20
1.1139932523
 11
15.1229827477
 21
1.1139932523
  0
LINE
  5
34E
100
AcDbEntity
  8
0
100
AcDbLine
 62
7
  6
CONTINUOUS
 10
15.1729827477
 20
1.1139932523
 11
15.2729827477
 21
1.1139932523
  0
LINE
  5
34F
100
AcDbEntity
  8
0
100
AcDbLine
 62
7
  6
CONTINUOUS
 10
15.3229827477
 20
1.1139932523
 11
15.5450737477
 21
1.1139932523
  0
LINE
  5
350
100
AcDbEntity
  8
0
100
AcDbLine
 62
7
  6
CONTINUOUS
 10
15.7276527477
 20
1.1139932523
 11
16.0058047477
 21
1.1139932523
  0
LINE
  5
351
100
AcDbEntity
  8
0
100
AcDbLine
 62
7
  6
CONTINUOUS
 10
16.0558047477
 20
1.1139932523
 11
16.2058907477
 21
1.1139932523
  0
LINE
  5
352
100
AcDbEntity
  8
0
100
AcDbLine
 62
7
  6
CONTINUOUS
 10
16.2558907477
 20
1.1139932523
 11
16.5340437477
 21
1.1139932523
  0
LINE
  5
353
100
AcDbEntity
  8
0
100
AcDbLine
 62
7
  6
CONTINUOUS
 10
16.7
 20
1.37
 11
21.05
 21
1.37
  0
LINE
  5
354
100
AcDbEntity
  8
0
100
AcDbLine
 62
7
  6
CONTINUOUS
 10
16.4340437477
 20
0.8619022523
 11
15.8276527477
 21
0.9312952523
  0
LINE
  5
355
100
AcDbEntity
  8
0
100
AcDbLine
 62
7
  6
CONTINUOUS
 10
14.7
 20
1.77
 11
16.7
 21
1.77
  0
LINE
  5
356
100
AcDbEntity
  8
0
100
AcDbLine
 62
7
  6
CONTINUOUS
 10
16.7
 20
2.13
 11
21.05
 21
2.13
  0
LINE
  5
357
100
AcDbEntity
  8
0
100
AcDbLine
 62
7
  6
CONTINUOUS
 10
18.273144232
 20
2.3543254011
 11
18.2257802057
 21
2.3543254011
  0
LINE
  5
358
100
AcDbEntity
  8
0
100
AcDbLine
 62
7
  6
CONTINUOUS
 10
18.1818891814
 20
2.3543254011
 11
18.0683181184
 21
2.3543254011
  0
LINE
  5
359
100
AcDbEntity
  8
0
100
AcDbLine
 62
7
  6
CONTINUOUS
 10
18.0394141024
 20
2.3543254011
 11
17.8362019897
 21
2.3543254011
  0
LINE
  5
35A
100
AcDbEntity
  8
0
100
AcDbLine
 62
7
  6
CONTINUOUS
 10
17.7857289617
 20
2.3543254011
 11
17.7115229205
 21
2.3543254011
  0
LINE
  5
35B
100
AcDbEntity
  8
0
100
AcDbLine
 62
7
  6
CONTINUOUS
 10
17.6651428948
 20
2.3543254011
 11
17.5894788529
 21
2.3543254011
  0
LINE
  5
35C
100
AcDbEntity
  8
0
100
AcDbLine
 62
7
  6
CONTINUOUS
 10
17.537475824
 20
2.3543254011
 11
17.4632707829
 21
2.3543254011
  0
LINE
  5
35D
100
AcDbEntity
  8
0
100
AcDbLine
 62
7
  6
CONTINUOUS
 10
17.4168897572
 20
2.3543254011
 11
17.3412257152
 21
2.3543254011
  0
LINE
  5
35E
100
AcDbEntity
  8
0
100
AcDbLine
 62
7
  6
CONTINUOUS
 10
16.8743904563
 20
2.3543254011
 11
17.0508365542
 21
2.3543254011
  0
LINE
  5
35F
100
AcDbEntity
  8
0
100
AcDbLine
 62
7
  6
CONTINUOUS
 10
17.1083735861
 20
2.3543254011
 11
17.185749629
 21
2.3543254011
  0
LINE
  5
360
100
AcDbEntity
  8
0
100
AcDbLine
 62
7
  6
CONTINUOUS
 10
17.2060356402
 20
2.3543254011
 11
17.3113166986
 21
2.3543254011
  0
LINE
  5
361
100
AcDbEntity
  8
0
100
AcDbLine
 62
7
  6
CONTINUOUS
 10
18.1572301677
 20
2.3790534148
 11
18.1818891814
 21
2.3790534148
  0
LINE
  5
362
100
AcDbEntity
  8
0
100
AcDbLine
 62
7
  6
CONTINUOUS
 10
17.3113166986
 20
2.3790754148
 11
17.2913006875
 21
2.3790754148
  0
LINE
  5
363
100
AcDbEntity
  8
0
100
AcDbLine
 62
7
  6
CONTINUOUS
 10
17.2204866482
 20
2.3790754148
 11
17.2060356402
 21
2.3790754148
  0
LINE
  5
364
100
AcDbEntity
  8
0
100
AcDbLine
 62
7
  6
CONTINUOUS
 10
17.185749629
 20
2.3790754148
 11
17.1744666227
 21
2.3790754148
  0
LINE
  5
365
100
AcDbEntity
  8
0
100
AcDbLine
 62
7
  6
CONTINUOUS
 10
17.1312345987
 20
2.3790754148
 11
17.1083735861
 21
2.3790754148
  0
LINE
  5
366
100
AcDbEntity
  8
0
100
AcDbLine
 62
7
  6
CONTINUOUS
 10
17.0051585288
 20
2.3790754148
 11
16.9637955059
 21
2.3790754148
  0
LINE
  5
367
100
AcDbEntity
  8
0
100
AcDbLine
 62
7
  6
CONTINUOUS
 10
16.8983324696
 20
2.3790754148
 11
16.8743904563
 21
2.3790754148
  0
LINE
  5
368
100
AcDbEntity
  8
0
100
AcDbLine
 62
7
  6
CONTINUOUS
 10
17.3412257152
 20
2.3790754148
 11
17.3598727255
 21
2.3790754148
  0
LINE
  5
369
100
AcDbEntity
  8
0
100
AcDbLine
 62
7
  6
CONTINUOUS
 10
17.3965727459
 20
2.3790754148
 11
17.4168897572
 21
2.3790754148
  0
LINE
  5
36A
100
AcDbEntity
  8
0
100
AcDbLine
 62
7
  6
CONTINUOUS
 10
17.5894788529
 20
2.3790754148
 11
17.6081248632
 21
2.3790754148
  0
LINE
  5
36B
100
AcDbEntity
  8
0
100
AcDbLine
 62
7
  6
CONTINUOUS
 10
17.6448258836
 20
2.3790754148
 11
17.6651428948
 21
2.3790754148
  0
LINE
  5
36C
100
AcDbEntity
  8
0
100
AcDbLine
 62
7
  6
CONTINUOUS
 10
17.8362019897
 20
2.3790754148
 11
17.860125003
 21
2.3790754148
  0
LINE
  5
36D
100
AcDbEntity
  8
0
100
AcDbLine
 62
7
  6
CONTINUOUS
 10
17.9271410401
 20
2.3790754148
 11
17.9921450762
 21
2.3790754148
  0
LINE
  5
36E
100
AcDbEntity
  8
0
100
AcDbLine
 62
7
  6
CONTINUOUS
 10
18.0683181184
 20
2.3790754148
 11
18.091064131
 21
2.3790754148
  0
LINE
  5
36F
100
AcDbEntity
  8
0
100
AcDbLine
 62
7
  6
CONTINUOUS
 10
18.2741672326
 20
2.379462415
 11
18.2752762332
 21
2.379462415
  0
LINE
  5
370
100
AcDbEntity
  8
0
100
AcDbLine
 62
7
  6
CONTINUOUS
 10
17.9970950789
 20
2.3922754221
 11
18.0394141024
 21
2.3922754221
  0
LINE
  5
371
100
AcDbEntity
  8
0
100
AcDbLine
 62
7
  6
CONTINUOUS
 10
17.1799826258
 20
2.3927194224
 11
17.2148606451
 21
2.3927194224
  0
LINE
  5
372
100
AcDbEntity
  8
0
100
AcDbLine
 62
7
  6
CONTINUOUS
 10
18.2860312391
 20
2.3932124227
 11
18.2981412459
 21
2.3932124227
  0
LINE
  5
373
100
AcDbEntity
  8
0
100
AcDbLine
 62
7
  6
CONTINUOUS
 10
18.184837183
 20
2.3937024229
 11
18.1572301677
 21
2.3937024229
  0
LINE
  5
374
100
AcDbEntity
  8
0
100
AcDbLine
 62
7
  6
CONTINUOUS
 10
17.9623080596
 20
2.395575424
 11
17.9271410401
 21
2.395575424
  0
LINE
  5
375
100
AcDbEntity
  8
0
100
AcDbLine
 62
7
  6
CONTINUOUS
 10
16.9637955059
 20
2.3964004244
 11
17.0051585288
 21
2.3964004244
  0
LINE
  5
376
100
AcDbEntity
  8
0
100
AcDbLine
 62
7
  6
CONTINUOUS
 10
18.1911671865
 20
2.4127054335
 11
18.1572301677
 21
2.4127054335
  0
LINE
  5
377
100
AcDbEntity
  8
0
100
AcDbLine
 62
7
  6
CONTINUOUS
 10
16.9637955059
 20
2.4130554337
 11
17.0051585288
 21
2.4130554337
  0
LINE
  5
378
100
AcDbEntity
  8
0
100
AcDbLine
 62
7
  6
CONTINUOUS
 10
17.1884986305
 20
2.413669434
 11
17.2090556419
 21
2.413669434
  0
LINE
  5
379
100
AcDbEntity
  8
0
100
AcDbLine
 62
7
  6
CONTINUOUS
 10
17.9271410401
 20
2.4138804341
 11
17.9623080596
 21
2.4138804341
  0
LINE
  5
37A
100
AcDbEntity
  8
0
100
AcDbLine
 62
7
  6
CONTINUOUS
 10
18.0379951016
 20
2.4171804359
 11
17.9961310784
 21
2.4171804359
  0
LINE
  5
37B
100
AcDbEntity
  8
0
100
AcDbLine
 62
7
  6
CONTINUOUS
 10
17.2017966379
 20
2.429836443
 11
17.1956156344
 21
2.429836443
  0
LINE
  5
37C
100
AcDbEntity
  8
0
100
AcDbLine
 62
7
  6
CONTINUOUS
 10
18.091064131
 20
2.4303804433
 11
18.0683181184
 21
2.4303804433
  0
LINE
  5
37D
100
AcDbEntity
  8
0
100
AcDbLine
 62
7
  6
CONTINUOUS
 10
17.9911810756
 20
2.4303804433
 11
17.9271410401
 21
2.4303804433
  0
LINE
  5
37E
100
AcDbEntity
  8
0
100
AcDbLine
 62
7
  6
CONTINUOUS
 10
17.860125003
 20
2.4303804433
 11
17.8362019897
 21
2.4303804433
  0
LINE
  5
37F
100
AcDbEntity
  8
0
100
AcDbLine
 62
7
  6
CONTINUOUS
 10
17.8086119744
 20
2.4303804433
 11
17.7906789644
 21
2.4303804433
  0
LINE
  5
380
100
AcDbEntity
  8
0
100
AcDbLine
 62
7
  6
CONTINUOUS
 10
17.7533869438
 20
2.4303804433
 11
17.7346109333
 21
2.4303804433
  0
LINE
  5
381
100
AcDbEntity
  8
0
100
AcDbLine
 62
7
  6
CONTINUOUS
 10
17.6081248632
 20
2.4303804433
 11
17.5894788529
 21
2.4303804433
  0
LINE
  5
382
100
AcDbEntity
  8
0
100
AcDbLine
 62
7
  6
CONTINUOUS
 10
17.5603588367
 20
2.4303804433
 11
17.5424258268
 21
2.4303804433
  0
LINE
  5
383
100
AcDbEntity
  8
0
100
AcDbLine
 62
7
  6
CONTINUOUS
 10
17.5051338061
 20
2.4303804433
 11
17.4863577957
 21
2.4303804433
  0
LINE
  5
384
100
AcDbEntity
  8
0
100
AcDbLine
 62
7
  6
CONTINUOUS
 10
17.3598727255
 20
2.4303804433
 11
17.3412257152
 21
2.4303804433
  0
LINE
  5
385
100
AcDbEntity
  8
0
100
AcDbLine
 62
7
  6
CONTINUOUS
 10
17.0051585288
 20
2.4303804433
 11
16.9637955059
 21
2.4303804433
  0
LINE
  5
386
100
AcDbEntity
  8
0
100
AcDbLine
 62
7
  6
CONTINUOUS
 10
16.8743904563
 20
2.4303804433
 11
16.8983324696
 21
2.4303804433
  0
LINE
  5
387
100
AcDbEntity
  8
0
100
AcDbLine
 62
7
  6
CONTINUOUS
 10
18.1572301677
 20
2.4303804433
 11
18.1940311881
 21
2.4303804433
  0
LINE
  5
388
100
AcDbEntity
  8
0
100
AcDbLine
 62
7
  6
CONTINUOUS
 10
17.2393896587
 20
2.455130457
 11
17.182214627
 21
2.455130457
  0
LINE
  5
389
100
AcDbEntity
  8
0
100
AcDbLine
 62
7
  6
CONTINUOUS
 10
17.0404535484
 20
2.455130457
 11
16.8743904563
 21
2.455130457
  0
LINE
  5
38A
100
AcDbEntity
  8
0
100
AcDbLine
 62
7
  6
CONTINUOUS
 10
17.3412257152
 20
2.455130457
 11
17.4416837709
 21
2.455130457
  0
LINE
  5
38B
100
AcDbEntity
  8
0
100
AcDbLine
 62
7
  6
CONTINUOUS
 10
17.4863577957
 20
2.455130457
 11
17.5603588367
 21
2.455130457
  0
LINE
  5
38C
100
AcDbEntity
  8
0
100
AcDbLine
 62
7
  6
CONTINUOUS
 10
17.5894788529
 20
2.455130457
 11
17.6899369086
 21
2.455130457
  0
LINE
  5
38D
100
AcDbEntity
  8
0
100
AcDbLine
 62
7
  6
CONTINUOUS
 10
17.7346109333
 20
2.455130457
 11
17.8086119744
 21
2.455130457
  0
LINE
  5
38E
100
AcDbEntity
  8
0
100
AcDbLine
 62
7
  6
CONTINUOUS
 10
17.8362019897
 20
2.455130457
 11
18.0379951016
 21
2.455130457
  0
LINE
  5
38F
100
AcDbEntity
  8
0
100
AcDbLine
 62
7
  6
CONTINUOUS
 10
18.0683181184
 20
2.455130457
 11
18.2178992014
 21
2.455130457
  0
LINE
  5
390
100
AcDbEntity
  8
0
100
AcDbLine
 62
7
  6
CONTINUOUS
 10
17.0697205646
 20
2.4006414268
 11
17.059669559
 21
2.4041904287
  0
LINE
  5
391
100
AcDbEntity
  8
0
100
AcDbLine
 62
7
  6
CONTINUOUS
 10
17.4615617819
 20
2.3550094015
 11
17.3982817468
 21
2.415387435
  0
LINE
  5
392
100
AcDbEntity
  8
0
100
AcDbLine
 62
7
  6
CONTINUOUS
 10
17.4433917718
 20
2.4544464566
 11
17.5034248051
 21
2.3971664249
  0
LINE
  5
393
100
AcDbEntity
  8
0
100
AcDbLine
 62
7
  6
CONTINUOUS
 10
17.7098149196
 20
2.3550094015
 11
17.6465348845
 21
2.415387435
  0
LINE
  5
394
100
AcDbEntity
  8
0
100
AcDbLine
 62
7
  6
CONTINUOUS
 10
17.6916449095
 20
2.4544464566
 11
17.7516779428
 21
2.3971664249
  0
LINE
  5
395
100
AcDbEntity
  8
0
100
AcDbLine
 62
7
  6
CONTINUOUS
 10
17.2169386463
 20
2.3915884218
 11
17.2225646494
 21
2.3828954169
  0
LINE
  5
396
100
AcDbEntity
  8
0
100
AcDbLine
 62
7
  6
CONTINUOUS
 10
17.211133643
 20
2.4174894361
 11
17.203874639
 21
2.4287054423
  0
LINE
  5
397
100
AcDbEntity
  8
0
100
AcDbLine
 62
7
  6
CONTINUOUS
 10
17.2892236864
 20
2.3802054154
 11
17.2414676599
 21
2.4540004564
  0
LINE
  5
398
100
AcDbEntity
  8
0
100
AcDbLine
 62
7
  6
CONTINUOUS
 10
18.206476195
 20
2.3723714111
 11
18.204672194
 21
2.3784404145
  0
LINE
  5
399
100
AcDbEntity
  8
0
100
AcDbLine
 62
7
  6
CONTINUOUS
 10
16.8719154549
 20
2.4526554556
 11
16.8719154549
 21
2.4328554446
  0
LINE
  5
39A
100
AcDbEntity
  8
0
100
AcDbLine
 62
7
  6
CONTINUOUS
 10
16.8719154549
 20
2.3766004134
 11
16.8719154549
 21
2.3568004025
  0
LINE
  5
39B
100
AcDbEntity
  8
0
100
AcDbLine
 62
7
  6
CONTINUOUS
 10
16.9008074709
 20
2.4279054419
 11
16.9008074709
 21
2.3815504162
  0
LINE
  5
39C
100
AcDbEntity
  8
0
100
AcDbLine
 62
7
  6
CONTINUOUS
 10
16.9613205045
 20
2.4279054419
 11
16.9613205045
 21
2.415530435
  0
LINE
  5
39D
100
AcDbEntity
  8
0
100
AcDbLine
 62
7
  6
CONTINUOUS
 10
16.9613205045
 20
2.3815504162
 11
16.9613205045
 21
2.3939254231
  0
LINE
  5
39E
100
AcDbEntity
  8
0
100
AcDbLine
 62
7
  6
CONTINUOUS
 10
17.1058985847
 20
2.3766004134
 11
17.1058985847
 21
2.3568004025
  0
LINE
  5
39F
100
AcDbEntity
  8
0
100
AcDbLine
 62
7
  6
CONTINUOUS
 10
17.1882246303
 20
2.3568004025
 11
17.1882246303
 21
2.3766004134
  0
LINE
  5
3A0
100
AcDbEntity
  8
0
100
AcDbLine
 62
7
  6
CONTINUOUS
 10
17.2035606388
 20
2.3766004134
 11
17.2035606388
 21
2.3568004025
  0
LINE
  5
3A1
100
AcDbEntity
  8
0
100
AcDbLine
 62
7
  6
CONTINUOUS
 10
17.3137917
 20
2.3568004025
 11
17.3137917
 21
2.3766004134
  0
LINE
  5
3A2
100
AcDbEntity
  8
0
100
AcDbLine
 62
7
  6
CONTINUOUS
 10
17.3387507138
 20
2.3568004025
 11
17.3387507138
 21
2.3766004134
  0
LINE
  5
3A3
100
AcDbEntity
  8
0
100
AcDbLine
 62
7
  6
CONTINUOUS
 10
17.3387507138
 20
2.4328554446
 11
17.3387507138
 21
2.4526554556
  0
LINE
  5
3A4
100
AcDbEntity
  8
0
100
AcDbLine
 62
7
  6
CONTINUOUS
 10
17.3623477269
 20
2.3815504162
 11
17.3623477269
 21
2.4279054419
  0
LINE
  5
3A5
100
AcDbEntity
  8
0
100
AcDbLine
 62
7
  6
CONTINUOUS
 10
17.3940977445
 20
2.413596434
 11
17.3940977445
 21
2.3815504162
  0
LINE
  5
3A6
100
AcDbEntity
  8
0
100
AcDbLine
 62
7
  6
CONTINUOUS
 10
17.4193647585
 20
2.3766004134
 11
17.4193647585
 21
2.3568004025
  0
LINE
  5
3A7
100
AcDbEntity
  8
0
100
AcDbLine
 62
7
  6
CONTINUOUS
 10
17.4838827943
 20
2.4328554446
 11
17.4838827943
 21
2.4526554556
  0
LINE
  5
3A8
100
AcDbEntity
  8
0
100
AcDbLine
 62
7
  6
CONTINUOUS
 10
17.5076088075
 20
2.3989574258
 11
17.5076088075
 21
2.4279054419
  0
LINE
  5
3A9
100
AcDbEntity
  8
0
100
AcDbLine
 62
7
  6
CONTINUOUS
 10
17.5399508254
 20
2.4279054419
 11
17.5399508254
 21
2.3568004025
  0
LINE
  5
3AA
100
AcDbEntity
  8
0
100
AcDbLine
 62
7
  6
CONTINUOUS
 10
17.5628338381
 20
2.4526554556
 11
17.5628338381
 21
2.4328554446
  0
LINE
  5
3AB
100
AcDbEntity
  8
0
100
AcDbLine
 62
7
  6
CONTINUOUS
 10
17.5870038515
 20
2.3568004025
 11
17.5870038515
 21
2.3766004134
  0
LINE
  5
3AC
100
AcDbEntity
  8
0
100
AcDbLine
 62
7
  6
CONTINUOUS
 10
17.5870038515
 20
2.4328554446
 11
17.5870038515
 21
2.4526554556
  0
LINE
  5
3AD
100
AcDbEntity
  8
0
100
AcDbLine
 62
7
  6
CONTINUOUS
 10
17.6105998646
 20
2.3815504162
 11
17.6105998646
 21
2.4279054419
  0
LINE
  5
3AE
100
AcDbEntity
  8
0
100
AcDbLine
 62
7
  6
CONTINUOUS
 10
17.6423508822
 20
2.413596434
 11
17.6423508822
 21
2.3815504162
  0
LINE
  5
3AF
100
AcDbEntity
  8
0
100
AcDbLine
 62
7
  6
CONTINUOUS
 10
17.6676178962
 20
2.3766004134
 11
17.6676178962
 21
2.3568004025
  0
LINE
  5
3B0
100
AcDbEntity
  8
0
100
AcDbLine
 62
7
  6
CONTINUOUS
 10
17.732135932
 20
2.4328554446
 11
17.732135932
 21
2.4526554556
  0
LINE
  5
3B1
100
AcDbEntity
  8
0
100
AcDbLine
 62
7
  6
CONTINUOUS
 10
17.7558619451
 20
2.3989574258
 11
17.7558619451
 21
2.4279054419
  0
LINE
  5
3B2
100
AcDbEntity
  8
0
100
AcDbLine
 62
7
  6
CONTINUOUS
 10
17.7882039631
 20
2.4279054419
 11
17.7882039631
 21
2.3568004025
  0
LINE
  5
3B3
100
AcDbEntity
  8
0
100
AcDbLine
 62
7
  6
CONTINUOUS
 10
17.8110869758
 20
2.4526554556
 11
17.8110869758
 21
2.4328554446
  0
LINE
  5
3B4
100
AcDbEntity
  8
0
100
AcDbLine
 62
7
  6
CONTINUOUS
 10
17.8337269883
 20
2.3568004025
 11
17.8337269883
 21
2.3766004134
  0
LINE
  5
3B5
100
AcDbEntity
  8
0
100
AcDbLine
 62
7
  6
CONTINUOUS
 10
17.8337269883
 20
2.4328554446
 11
17.8337269883
 21
2.4526554556
  0
LINE
  5
3B6
100
AcDbEntity
  8
0
100
AcDbLine
 62
7
  6
CONTINUOUS
 10
17.8626000043
 20
2.3815504162
 11
17.8626000043
 21
2.4279054419
  0
LINE
  5
3B7
100
AcDbEntity
  8
0
100
AcDbLine
 62
7
  6
CONTINUOUS
 10
17.9246660387
 20
2.4279054419
 11
17.9246660387
 21
2.4163554355
  0
LINE
  5
3B8
100
AcDbEntity
  8
0
100
AcDbLine
 62
7
  6
CONTINUOUS
 10
17.9246660387
 20
2.3931004226
 11
17.9246660387
 21
2.3815504162
  0
LINE
  5
3B9
100
AcDbEntity
  8
0
100
AcDbLine
 62
7
  6
CONTINUOUS
 10
17.964783061
 20
2.4114054327
 11
17.964783061
 21
2.3980504253
  0
LINE
  5
3BA
100
AcDbEntity
  8
0
100
AcDbLine
 62
7
  6
CONTINUOUS
 10
17.993656077
 20
2.4196554373
 11
17.993656077
 21
2.4279054419
  0
LINE
  5
3BB
100
AcDbEntity
  8
0
100
AcDbLine
 62
7
  6
CONTINUOUS
 10
17.9946200775
 20
2.3815504162
 11
17.9946200775
 21
2.3898004208
  0
LINE
  5
3BC
100
AcDbEntity
  8
0
100
AcDbLine
 62
7
  6
CONTINUOUS
 10
18.040470103
 20
2.4526554556
 11
18.040470103
 21
2.4196554373
  0
LINE
  5
3BD
100
AcDbEntity
  8
0
100
AcDbLine
 62
7
  6
CONTINUOUS
 10
18.0418891038
 20
2.3898004208
 11
18.0418891038
 21
2.3568004025
  0
LINE
  5
3BE
100
AcDbEntity
  8
0
100
AcDbLine
 62
7
  6
CONTINUOUS
 10
18.065843117
 20
2.3568004025
 11
18.065843117
 21
2.3766004134
  0
LINE
  5
3BF
100
AcDbEntity
  8
0
100
AcDbLine
 62
7
  6
CONTINUOUS
 10
18.065843117
 20
2.4328554446
 11
18.065843117
 21
2.4526554556
  0
LINE
  5
3C0
100
AcDbEntity
  8
0
100
AcDbLine
 62
7
  6
CONTINUOUS
 10
18.0935391324
 20
2.3815504162
 11
18.0935391324
 21
2.4279054419
  0
LINE
  5
3C1
100
AcDbEntity
  8
0
100
AcDbLine
 62
7
  6
CONTINUOUS
 10
18.1547551663
 20
2.3912274216
 11
18.1547551663
 21
2.3815284162
  0
LINE
  5
3C2
100
AcDbEntity
  8
0
100
AcDbLine
 62
7
  6
CONTINUOUS
 10
18.1547551663
 20
2.4151804348
 11
18.1547551663
 21
2.4279054419
  0
LINE
  5
3C3
100
AcDbEntity
  8
0
100
AcDbLine
 62
7
  6
CONTINUOUS
 10
18.1843641828
 20
2.3765784134
 11
18.1843641828
 21
2.3568004025
  0
LINE
  5
3C4
100
AcDbEntity
  8
0
100
AcDbLine
 62
7
  6
CONTINUOUS
 10
18.2835562378
 20
2.3881114198
 11
18.2835562378
 21
2.3907374213
  0
LINE
  5
3C5
100
AcDbEntity
  8
0
100
AcDbLine
 62
7
  6
CONTINUOUS
 10
18.3006162472
 20
2.3907374213
 11
18.3006162472
 21
2.3791854149
  0
LINE
  5
3C6
100
AcDbEntity
  8
0
100
AcDbLine
 62
7
  6
CONTINUOUS
 10
18.3975725422
 20
2.3981678251
 11
18.3975725422
 21
2.4087850316
  0
LINE
  5
3C7
100
AcDbEntity
  8
0
100
AcDbLine
 62
7
  6
CONTINUOUS
 10
17.1801246258
 20
2.4539814564
 11
17.1333245999
 21
2.3802244155
  0
LINE
  5
3C8
100
AcDbEntity
  8
0
100
AcDbLine
 62
7
  6
CONTINUOUS
 10
17.1935256333
 20
2.4286874423
 11
17.1864086293
 21
2.4174704361
  0
LINE
  5
3C9
100
AcDbEntity
  8
0
100
AcDbLine
 62
7
  6
CONTINUOUS
 10
17.1723766216
 20
2.3828764169
 11
17.1778926246
 21
2.3915704217
  0
LINE
  5
3CA
100
AcDbEntity
  8
0
100
AcDbLine
 62
7
  6
CONTINUOUS
 10
17.059669559
 20
2.4041904287
 11
17.0679095636
 21
2.4089664314
  0
ARC
  5
3CB
100
AcDbEntity
  8
0
100
AcDbCircle
 62
7
  6
CONTINUOUS
 10
17.4632701481
 20
2.3568008172
 40
0.0024754162
100
AcDbArc
 50
226.3593695814
 51
270.0146919953
  0
ARC
  5
3CC
100
AcDbEntity
  8
0
100
AcDbCircle
 62
7
  6
CONTINUOUS
 10
16.8743904545
 20
2.3568004006
 40
0.0024749995
100
AcDbArc
 50
179.9999571957
 51
270.0000428043
  0
ARC
  5
3CD
100
AcDbEntity
  8
0
100
AcDbCircle
 62
7
  6
CONTINUOUS
 10
17.5374758259
 20
2.3568004006
 40
0.0024749995
100
AcDbArc
 50
269.9999571957
 51
0.0000428043
  0
ARC
  5
3CE
100
AcDbEntity
  8
0
100
AcDbCircle
 62
7
  6
CONTINUOUS
 10
17.416889759
 20
2.3568004006
 40
0.0024749995
100
AcDbArc
 50
269.9999571957
 51
0.0000428043
  0
ARC
  5
3CF
100
AcDbEntity
  8
0
100
AcDbCircle
 62
7
  6
CONTINUOUS
 10
17.3412257133
 20
2.3568004006
 40
0.0024749995
100
AcDbArc
 50
179.9999571957
 51
270.0000428043
  0
ARC
  5
3D0
100
AcDbEntity
  8
0
100
AcDbCircle
 62
7
  6
CONTINUOUS
 10
17.2060356384
 20
2.3568004006
 40
0.0024749995
100
AcDbArc
 50
179.9999571957
 51
270.0000428043
  0
ARC
  5
3D1
100
AcDbEntity
  8
0
100
AcDbCircle
 62
7
  6
CONTINUOUS
 10
17.3113167005
 20
2.3568004006
 40
0.0024749995
100
AcDbArc
 50
269.9999571957
 51
0.0000428043
  0
ARC
  5
3D2
100
AcDbEntity
  8
0
100
AcDbCircle
 62
7
  6
CONTINUOUS
 10
17.1083735842
 20
2.3568004006
 40
0.0024749995
100
AcDbArc
 50
179.9999571957
 51
270.0000428043
  0
ARC
  5
3D3
100
AcDbEntity
  8
0
100
AcDbCircle
 62
7
  6
CONTINUOUS
 10
17.1857496308
 20
2.3568004006
 40
0.0024749995
100
AcDbArc
 50
269.9999571958
 51
0.0000428044
  0
ARC
  5
3D4
100
AcDbEntity
  8
0
100
AcDbCircle
 62
7
  6
CONTINUOUS
 10
17.0404590422
 20
2.3933827403
 40
0.061747717
100
AcDbArc
 50
59.5385584989
 51
90.0050977555
  0
ARC
  5
3D5
100
AcDbEntity
  8
0
100
AcDbCircle
 62
7
  6
CONTINUOUS
 10
17.0481152095
 20
2.4027328529
 40
0.048483885
100
AcDbArc
 50
273.21763719
 51
303.0749121182
  0
ARC
  5
3D6
100
AcDbEntity
  8
0
100
AcDbCircle
 62
7
  6
CONTINUOUS
 10
17.0620614151
 20
2.3797859164
 40
0.0222174455
100
AcDbArc
 50
4.0793399388
 51
69.834329283
  0
ARC
  5
3D7
100
AcDbEntity
  8
0
100
AcDbCircle
 62
7
  6
CONTINUOUS
 10
17.0629546036
 20
2.379965244
 40
0.0213072145
100
AcDbArc
 50
303.0488228549
 51
355.7263138674
  0
ARC
  5
3D8
100
AcDbEntity
  8
0
100
AcDbCircle
 62
7
  6
CONTINUOUS
 10
17.0688911042
 20
2.3799744343
 40
0.0153945295
100
AcDbArc
 50
354.0454548824
 51
5.1878013979
  0
ARC
  5
3D9
100
AcDbEntity
  8
0
100
AcDbCircle
 62
7
  6
CONTINUOUS
 10
17.0051585288
 20
2.3877379196
 40
0.0086625048
100
AcDbArc
 50
270.0
 51
90.0
  0
ARC
  5
3DA
100
AcDbEntity
  8
0
100
AcDbCircle
 62
7
  6
CONTINUOUS
 10
17.2148601055
 20
2.3902439622
 40
0.0024754602
100
AcDbArc
 50
32.8959418573
 51
89.9875097202
  0
ARC
  5
3DB
100
AcDbEntity
  8
0
100
AcDbCircle
 62
7
  6
CONTINUOUS
 10
17.131234669
 20
2.3815506151
 40
0.0024752003
100
AcDbArc
 50
269.9983726451
 51
327.602165307
  0
ARC
  5
3DC
100
AcDbEntity
  8
0
100
AcDbCircle
 62
7
  6
CONTINUOUS
 10
17.1799825555
 20
2.3902442221
 40
0.0024752003
100
AcDbArc
 50
89.998372645
 51
147.602165307
  0
ARC
  5
3DD
100
AcDbEntity
  8
0
100
AcDbCircle
 62
7
  6
CONTINUOUS
 10
17.1744665134
 20
2.3815504549
 40
0.0024750401
100
AcDbArc
 50
147.6063258011
 51
270.0025305754
  0
ARC
  5
3DE
100
AcDbEntity
  8
0
100
AcDbCircle
 62
7
  6
CONTINUOUS
 10
16.8983324714
 20
2.3815504143
 40
0.0024749995
100
AcDbArc
 50
269.9999571957
 51
0.0000428043
  0
ARC
  5
3DF
100
AcDbEntity
  8
0
100
AcDbCircle
 62
7
  6
CONTINUOUS
 10
16.8743904545
 20
2.3766004153
 40
0.0024749995
100
AcDbArc
 50
89.9999571957
 51
180.0000428043
  0
ARC
  5
3E0
100
AcDbEntity
  8
0
100
AcDbCircle
 62
7
  6
CONTINUOUS
 10
16.963795504
 20
2.3939254249
 40
0.0024749995
100
AcDbArc
 50
89.9999571957
 51
180.0000428043
  0
ARC
  5
3E1
100
AcDbEntity
  8
0
100
AcDbCircle
 62
7
  6
CONTINUOUS
 10
16.963795504
 20
2.3815504143
 40
0.0024749995
100
AcDbArc
 50
179.9999571957
 51
270.0000428043
  0
ARC
  5
3E2
100
AcDbEntity
  8
0
100
AcDbCircle
 62
7
  6
CONTINUOUS
 10
17.2060356384
 20
2.3766004153
 40
0.0024749995
100
AcDbArc
 50
89.9999571957
 51
180.0000428043
  0
ARC
  5
3E3
100
AcDbEntity
  8
0
100
AcDbCircle
 62
7
  6
CONTINUOUS
 10
17.1083735842
 20
2.3766004153
 40
0.0024749995
100
AcDbArc
 50
89.9999571957
 51
180.0000428043
  0
ARC
  5
3E4
100
AcDbEntity
  8
0
100
AcDbCircle
 62
7
  6
CONTINUOUS
 10
17.1857496308
 20
2.3766004153
 40
0.0024749995
100
AcDbArc
 50
359.9999571957
 51
90.0000428043
  0
ARC
  5
3E5
100
AcDbEntity
  8
0
100
AcDbCircle
 62
7
  6
CONTINUOUS
 10
17.0460441811
 20
2.445793323
 40
0.0428289026
100
AcDbArc
 50
300.6990502959
 51
319.0591802498
  0
ARC
  5
3E6
100
AcDbEntity
  8
0
100
AcDbCircle
 62
7
  6
CONTINUOUS
 10
17.0611211659
 20
2.4263113051
 40
0.0229166529
100
AcDbArc
 50
20.6563876465
 51
62.3316896973
  0
ARC
  5
3E7
100
AcDbEntity
  8
0
100
AcDbCircle
 62
7
  6
CONTINUOUS
 10
17.0660727781
 20
2.4296649696
 40
0.0171568255
100
AcDbArc
 50
315.9145124245
 51
16.0049121283
  0
ARC
  5
3E8
100
AcDbEntity
  8
0
100
AcDbCircle
 62
7
  6
CONTINUOUS
 10
17.0051585288
 20
2.4217179385
 40
0.0086625048
100
AcDbArc
 50
270.0
 51
90.0
  0
ARC
  5
3E9
100
AcDbEntity
  8
0
100
AcDbCircle
 62
7
  6
CONTINUOUS
 10
17.2017960982
 20
2.4273609828
 40
0.0024754602
100
AcDbArc
 50
32.8959418573
 51
89.9875097202
  0
ARC
  5
3EA
100
AcDbEntity
  8
0
100
AcDbCircle
 62
7
  6
CONTINUOUS
 10
17.2090556207
 20
2.4161446411
 40
0.0024752071
100
AcDbArc
 50
270.0004896793
 51
32.9089806818
  0
ARC
  5
3EB
100
AcDbEntity
  8
0
100
AcDbCircle
 62
7
  6
CONTINUOUS
 10
17.1956155641
 20
2.4273612427
 40
0.0024752003
100
AcDbArc
 50
89.998372645
 51
147.602165307
  0
ARC
  5
3EC
100
AcDbEntity
  8
0
100
AcDbCircle
 62
7
  6
CONTINUOUS
 10
17.1822145567
 20
2.4526552567
 40
0.0024752003
100
AcDbArc
 50
89.998372645
 51
147.602165307
  0
ARC
  5
3ED
100
AcDbEntity
  8
0
100
AcDbCircle
 62
7
  6
CONTINUOUS
 10
17.1884985212
 20
2.4161444741
 40
0.0024750401
100
AcDbArc
 50
147.6063258012
 51
270.0025305754
  0
ARC
  5
3EE
100
AcDbEntity
  8
0
100
AcDbCircle
 62
7
  6
CONTINUOUS
 10
16.8743904545
 20
2.4526554575
 40
0.0024749995
100
AcDbArc
 50
89.9999571957
 51
180.0000428043
  0
ARC
  5
3EF
100
AcDbEntity
  8
0
100
AcDbCircle
 62
7
  6
CONTINUOUS
 10
16.8743904545
 20
2.4328554428
 40
0.0024749995
100
AcDbArc
 50
179.9999571957
 51
270.0000428043
  0
ARC
  5
3F0
100
AcDbEntity
  8
0
100
AcDbCircle
 62
7
  6
CONTINUOUS
 10
16.8983324714
 20
2.4279054437
 40
0.0024749995
100
AcDbArc
 50
359.9999571957
 51
90.0000428043
  0
ARC
  5
3F1
100
AcDbEntity
  8
0
100
AcDbCircle
 62
7
  6
CONTINUOUS
 10
16.963795504
 20
2.4279054437
 40
0.0024749995
100
AcDbArc
 50
89.9999571957
 51
180.0000428043
  0
ARC
  5
3F2
100
AcDbEntity
  8
0
100
AcDbCircle
 62
7
  6
CONTINUOUS
 10
16.963795504
 20
2.4155304332
 40
0.0024749995
100
AcDbArc
 50
179.9999571957
 51
270.0000428043
  0
ARC
  5
3F3
100
AcDbEntity
  8
0
100
AcDbCircle
 62
7
  6
CONTINUOUS
 10
17.5051335061
 20
2.3989573626
 40
0.0024753014
100
AcDbArc
 50
226.3461263059
 51
0.0014637321
  0
ARC
  5
3F4
100
AcDbEntity
  8
0
100
AcDbCircle
 62
7
  6
CONTINUOUS
 10
17.3965730459
 20
2.4135964972
 40
0.0024753014
100
AcDbArc
 50
46.3461263059
 51
180.0014637321
  0
ARC
  5
3F5
100
AcDbEntity
  8
0
100
AcDbCircle
 62
7
  6
CONTINUOUS
 10
17.2204866271
 20
2.3815506219
 40
0.0024752071
100
AcDbArc
 50
270.0004896793
 51
32.9089806818
  0
ARC
  5
3F6
100
AcDbEntity
  8
0
100
AcDbCircle
 62
7
  6
CONTINUOUS
 10
17.396572744
 20
2.3815504143
 40
0.0024749995
100
AcDbArc
 50
179.9999571957
 51
270.0000428043
  0
ARC
  5
3F7
100
AcDbEntity
  8
0
100
AcDbCircle
 62
7
  6
CONTINUOUS
 10
17.416889759
 20
2.3766004153
 40
0.0024749995
100
AcDbArc
 50
359.9999571957
 51
90.0000428043
  0
ARC
  5
3F8
100
AcDbEntity
  8
0
100
AcDbCircle
 62
7
  6
CONTINUOUS
 10
17.3412257133
 20
2.3766004153
 40
0.0024749995
100
AcDbArc
 50
89.9999571957
 51
180.0000428043
  0
ARC
  5
3F9
100
AcDbEntity
  8
0
100
AcDbCircle
 62
7
  6
CONTINUOUS
 10
17.3598727274
 20
2.3815504143
 40
0.0024749995
100
AcDbArc
 50
269.9999571957
 51
0.0000428043
  0
ARC
  5
3FA
100
AcDbEntity
  8
0
100
AcDbCircle
 62
7
  6
CONTINUOUS
 10
17.3113167005
 20
2.3766004153
 40
0.0024749995
100
AcDbArc
 50
359.9999571957
 51
90.0000428043
  0
ARC
  5
3FB
100
AcDbEntity
  8
0
100
AcDbCircle
 62
7
  6
CONTINUOUS
 10
17.291300808
 20
2.3815494558
 40
0.002474041
100
AcDbArc
 50
212.9056413127
 51
269.9972091755
  0
ARC
  5
3FC
100
AcDbEntity
  8
0
100
AcDbCircle
 62
7
  6
CONTINUOUS
 10
17.5051338079
 20
2.4279054437
 40
0.0024749995
100
AcDbArc
 50
359.9999571957
 51
90.0000428043
  0
ARC
  5
3FD
100
AcDbEntity
  8
0
100
AcDbCircle
 62
7
  6
CONTINUOUS
 10
17.4863577938
 20
2.4328554428
 40
0.0024749995
100
AcDbArc
 50
179.9999571957
 51
270.0000428043
  0
ARC
  5
3FE
100
AcDbEntity
  8
0
100
AcDbCircle
 62
7
  6
CONTINUOUS
 10
17.4863577938
 20
2.4526554575
 40
0.0024749995
100
AcDbArc
 50
89.9999571957
 51
180.0000428043
  0
ARC
  5
3FF
100
AcDbEntity
  8
0
100
AcDbCircle
 62
7
  6
CONTINUOUS
 10
17.5603588386
 20
2.4526554575
 40
0.0024749995
100
AcDbArc
 50
359.9999571957
 51
90.0000428043
  0
ARC
  5
400
100
AcDbEntity
  8
0
100
AcDbCircle
 62
7
  6
CONTINUOUS
 10
17.5603588386
 20
2.4328554428
 40
0.0024749995
100
AcDbArc
 50
269.9999571957
 51
0.0000428043
  0
ARC
  5
401
100
AcDbEntity
  8
0
100
AcDbCircle
 62
7
  6
CONTINUOUS
 10
17.5424258249
 20
2.4279054437
 40
0.0024749995
100
AcDbArc
 50
89.9999571957
 51
180.0000428043
  0
ARC
  5
402
100
AcDbEntity
  8
0
100
AcDbCircle
 62
7
  6
CONTINUOUS
 10
17.3598727274
 20
2.4279054437
 40
0.0024749995
100
AcDbArc
 50
359.9999571957
 51
90.0000428043
  0
ARC
  5
403
100
AcDbEntity
  8
0
100
AcDbCircle
 62
7
  6
CONTINUOUS
 10
17.3412257133
 20
2.4328554428
 40
0.0024749995
100
AcDbArc
 50
179.9999571957
 51
270.0000428043
  0
ARC
  5
404
100
AcDbEntity
  8
0
100
AcDbCircle
 62
7
  6
CONTINUOUS
 10
17.3412257133
 20
2.4526554575
 40
0.0024749995
100
AcDbArc
 50
89.9999571957
 51
180.0000428043
  0
ARC
  5
405
100
AcDbEntity
  8
0
100
AcDbCircle
 62
7
  6
CONTINUOUS
 10
17.2393900382
 20
2.4526554968
 40
0.0024749602
100
AcDbArc
 50
32.9172174468
 51
90.0087853097
  0
ARC
  5
406
100
AcDbEntity
  8
0
100
AcDbCircle
 62
7
  6
CONTINUOUS
 10
17.4416839057
 20
2.4526562892
 40
0.0024741678
100
AcDbArc
 50
46.3477981899
 51
90.0031206038
  0
ARC
  5
407
100
AcDbEntity
  8
0
100
AcDbCircle
 62
7
  6
CONTINUOUS
 10
18.2152358981
 20
2.2725915465
 40
0.1825583387
100
AcDbArc
 50
79.8618509324
 51
89.1640948679
  0
ARC
  5
408
100
AcDbEntity
  8
0
100
AcDbCircle
 62
7
  6
CONTINUOUS
 10
18.197141171
 20
2.3016991173
 40
0.117346916
100
AcDbArc
 50
58.614769177
 51
62.3737227606
  0
ARC
  5
409
100
AcDbEntity
  8
0
100
AcDbCircle
 62
7
  6
CONTINUOUS
 10
18.2260032264
 20
2.3725718859
 40
0.0459185159
100
AcDbArc
 50
15.6740290068
 51
20.9917271228
  0
ARC
  5
40A
100
AcDbEntity
  8
0
100
AcDbCircle
 62
7
  6
CONTINUOUS
 10
18.1662929967
 20
2.368643334
 40
0.0396099176
100
AcDbArc
 50
14.3201081283
 51
22.4984722084
  0
ARC
  5
40B
100
AcDbEntity
  8
0
100
AcDbCircle
 62
7
  6
CONTINUOUS
 10
18.1850046504
 20
2.3693353402
 40
0.0243676582
100
AcDbArc
 50
63.3666028271
 51
90.3937697637
  0
ARC
  5
40C
100
AcDbEntity
  8
0
100
AcDbCircle
 62
7
  6
CONTINUOUS
 10
18.2724993219
 20
2.3741987064
 40
0.0198837666
100
AcDbArc
 50
271.8586572978
 51
289.4131338543
  0
ARC
  5
40D
100
AcDbEntity
  8
0
100
AcDbCircle
 62
7
  6
CONTINUOUS
 10
18.2265855264
 20
2.3716475527
 40
0.0173408616
100
AcDbArc
 50
232.4713476722
 51
267.338189944
  0
ARC
  5
40E
100
AcDbEntity
  8
0
100
AcDbCircle
 62
7
  6
CONTINUOUS
 10
18.1818891832
 20
2.3568004006
 40
0.0024749995
100
AcDbArc
 50
269.9999571957
 51
0.0000428043
  0
ARC
  5
40F
100
AcDbEntity
  8
0
100
AcDbCircle
 62
7
  6
CONTINUOUS
 10
18.0683181166
 20
2.3568004006
 40
0.0024749995
100
AcDbArc
 50
179.9999571957
 51
270.0000428043
  0
ARC
  5
410
100
AcDbEntity
  8
0
100
AcDbCircle
 62
7
  6
CONTINUOUS
 10
17.7857289635
 20
2.3568004006
 40
0.0024749995
100
AcDbArc
 50
269.9999571957
 51
0.0000428043
  0
ARC
  5
411
100
AcDbEntity
  8
0
100
AcDbCircle
 62
7
  6
CONTINUOUS
 10
17.6651428967
 20
2.3568004006
 40
0.0024749995
100
AcDbArc
 50
269.9999571957
 51
0.0000428043
  0
ARC
  5
412
100
AcDbEntity
  8
0
100
AcDbCircle
 62
7
  6
CONTINUOUS
 10
17.589478851
 20
2.3568004006
 40
0.0024749995
100
AcDbArc
 50
179.9999571957
 51
270.0000428043
  0
ARC
  5
413
100
AcDbEntity
  8
0
100
AcDbCircle
 62
7
  6
CONTINUOUS
 10
18.0394141042
 20
2.3568004006
 40
0.0024749995
100
AcDbArc
 50
269.9999571957
 51
0.0000428043
  0
ARC
  5
414
100
AcDbEntity
  8
0
100
AcDbCircle
 62
7
  6
CONTINUOUS
 10
17.8362019878
 20
2.3568004006
 40
0.0024749995
100
AcDbArc
 50
179.9999571957
 51
270.0000428043
  0
ARC
  5
415
100
AcDbEntity
  8
0
100
AcDbCircle
 62
7
  6
CONTINUOUS
 10
17.7115227858
 20
2.3567995689
 40
0.0024741678
100
AcDbArc
 50
226.3477981898
 51
270.0031206038
  0
ARC
  5
416
100
AcDbEntity
  8
0
100
AcDbCircle
 62
7
  6
CONTINUOUS
 10
17.7533866437
 20
2.3989573626
 40
0.0024753014
100
AcDbArc
 50
226.3461263059
 51
0.0014637321
  0
ARC
  5
417
100
AcDbEntity
  8
0
100
AcDbCircle
 62
7
  6
CONTINUOUS
 10
17.6448261836
 20
2.4135964972
 40
0.0024753014
100
AcDbArc
 50
46.3461263058
 51
180.0014637321
  0
ARC
  5
418
100
AcDbEntity
  8
0
100
AcDbCircle
 62
7
  6
CONTINUOUS
 10
17.6448258817
 20
2.3815504143
 40
0.0024749995
100
AcDbArc
 50
179.9999571957
 51
270.0000428043
  0
ARC
  5
419
100
AcDbEntity
  8
0
100
AcDbCircle
 62
7
  6
CONTINUOUS
 10
17.6651428967
 20
2.3766004153
 40
0.0024749995
100
AcDbArc
 50
359.9999571957
 51
90.0000428043
  0
ARC
  5
41A
100
AcDbEntity
  8
0
100
AcDbCircle
 62
7
  6
CONTINUOUS
 10
17.589478851
 20
2.3766004153
 40
0.0024749995
100
AcDbArc
 50
89.9999571957
 51
180.0000428043
  0
ARC
  5
41B
100
AcDbEntity
  8
0
100
AcDbCircle
 62
7
  6
CONTINUOUS
 10
17.6081248651
 20
2.3815504143
 40
0.0024749995
100
AcDbArc
 50
269.9999571957
 51
0.0000428043
  0
ARC
  5
41C
100
AcDbEntity
  8
0
100
AcDbCircle
 62
7
  6
CONTINUOUS
 10
17.9271410383
 20
2.3931004244
 40
0.0024749995
100
AcDbArc
 50
89.9999571957
 51
180.0000428043
  0
ARC
  5
41D
100
AcDbEntity
  8
0
100
AcDbCircle
 62
7
  6
CONTINUOUS
 10
17.9271410383
 20
2.3815504143
 40
0.0024749995
100
AcDbArc
 50
179.9999571957
 51
270.0000428043
  0
ARC
  5
41E
100
AcDbEntity
  8
0
100
AcDbCircle
 62
7
  6
CONTINUOUS
 10
17.8362019878
 20
2.3766004153
 40
0.0024749995
100
AcDbArc
 50
89.9999571957
 51
180.0000428043
  0
ARC
  5
41F
100
AcDbEntity
  8
0
100
AcDbCircle
 62
7
  6
CONTINUOUS
 10
17.8601250048
 20
2.3815504143
 40
0.0024749995
100
AcDbArc
 50
269.9999571956
 51
0.0000428042
  0
ARC
  5
420
100
AcDbEntity
  8
0
100
AcDbCircle
 62
7
  6
CONTINUOUS
 10
17.9271410383
 20
2.4163554336
 40
0.0024749995
100
AcDbArc
 50
179.9999571957
 51
270.0000428043
  0
ARC
  5
421
100
AcDbEntity
  8
0
100
AcDbCircle
 62
7
  6
CONTINUOUS
 10
17.7533869456
 20
2.4279054437
 40
0.0024749995
100
AcDbArc
 50
359.9999571957
 51
90.0000428043
  0
ARC
  5
422
100
AcDbEntity
  8
0
100
AcDbCircle
 62
7
  6
CONTINUOUS
 10
17.7346109315
 20
2.4328554428
 40
0.0024749995
100
AcDbArc
 50
179.9999571957
 51
270.0000428043
  0
ARC
  5
423
100
AcDbEntity
  8
0
100
AcDbCircle
 62
7
  6
CONTINUOUS
 10
17.7346109315
 20
2.4526554575
 40
0.0024749995
100
AcDbArc
 50
89.9999571957
 51
180.0000428043
  0
ARC
  5
424
100
AcDbEntity
  8
0
100
AcDbCircle
 62
7
  6
CONTINUOUS
 10
17.8086119762
 20
2.4526554575
 40
0.0024749995
100
AcDbArc
 50
359.9999571957
 51
90.0000428043
  0
ARC
  5
425
100
AcDbEntity
  8
0
100
AcDbCircle
 62
7
  6
CONTINUOUS
 10
17.8086119762
 20
2.4328554428
 40
0.0024749995
100
AcDbArc
 50
269.9999571956
 51
0.0000428042
  0
ARC
  5
426
100
AcDbEntity
  8
0
100
AcDbCircle
 62
7
  6
CONTINUOUS
 10
17.7906789626
 20
2.4279054437
 40
0.0024749995
100
AcDbArc
 50
89.9999571957
 51
180.0000428043
  0
ARC
  5
427
100
AcDbEntity
  8
0
100
AcDbCircle
 62
7
  6
CONTINUOUS
 10
17.6081248651
 20
2.4279054437
 40
0.0024749995
100
AcDbArc
 50
359.9999571957
 51
90.0000428043
  0
ARC
  5
428
100
AcDbEntity
  8
0
100
AcDbCircle
 62
7
  6
CONTINUOUS
 10
17.589478851
 20
2.4328554428
 40
0.0024749995
100
AcDbArc
 50
179.9999571957
 51
270.0000428043
  0
ARC
  5
429
100
AcDbEntity
  8
0
100
AcDbCircle
 62
7
  6
CONTINUOUS
 10
17.589478851
 20
2.4526554575
 40
0.0024749995
100
AcDbArc
 50
89.9999571957
 51
180.0000428043
  0
ARC
  5
42A
100
AcDbEntity
  8
0
100
AcDbCircle
 62
7
  6
CONTINUOUS
 10
17.8601250048
 20
2.4279054437
 40
0.0024749995
100
AcDbArc
 50
359.9999571957
 51
90.0000428043
  0
ARC
  5
42B
100
AcDbEntity
  8
0
100
AcDbCircle
 62
7
  6
CONTINUOUS
 10
17.8362019878
 20
2.4328554428
 40
0.0024749995
100
AcDbArc
 50
179.9999571957
 51
270.0000428043
  0
ARC
  5
42C
100
AcDbEntity
  8
0
100
AcDbCircle
 62
7
  6
CONTINUOUS
 10
17.8362019878
 20
2.4526554575
 40
0.0024749995
100
AcDbArc
 50
89.9999571957
 51
180.0000428043
  0
ARC
  5
42D
100
AcDbEntity
  8
0
100
AcDbCircle
 62
7
  6
CONTINUOUS
 10
17.9271410383
 20
2.4279054437
 40
0.0024749995
100
AcDbArc
 50
89.9999571957
 51
180.0000428043
  0
ARC
  5
42E
100
AcDbEntity
  8
0
100
AcDbCircle
 62
7
  6
CONTINUOUS
 10
17.6899370433
 20
2.4526562892
 40
0.0024741678
100
AcDbArc
 50
46.3477981899
 51
90.0031206038
  0
ARC
  5
42F
100
AcDbEntity
  8
0
100
AcDbCircle
 62
7
  6
CONTINUOUS
 10
18.2495655574
 20
2.384346736
 40
0.044722495
100
AcDbArc
 50
195.531588407
 51
204.7624440448
  0
ARC
  5
430
100
AcDbEntity
  8
0
100
AcDbCircle
 62
7
  6
CONTINUOUS
 10
18.2415401884
 20
2.4134150625
 40
0.039319019
100
AcDbArc
 50
59.1202086415
 51
81.4730239328
  0
ARC
  5
431
100
AcDbEntity
  8
0
100
AcDbCircle
 62
7
  6
CONTINUOUS
 10
18.2667613545
 20
2.3917854558
 40
0.0383802683
100
AcDbArc
 50
288.7656836787
 51
309.6104317088
  0
ARC
  5
432
100
AcDbEntity
  8
0
100
AcDbCircle
 62
7
  6
CONTINUOUS
 10
18.2471995846
 20
2.4197497317
 40
0.0310192946
100
AcDbArc
 50
34.7540871
 51
62.0879016178
  0
ARC
  5
433
100
AcDbEntity
  8
0
100
AcDbCircle
 62
7
  6
CONTINUOUS
 10
18.1924863006
 20
2.4019259643
 40
0.0284963867
100
AcDbArc
 50
70.3834917948
 51
86.8922743861
  0
ARC
  5
434
100
AcDbEntity
  8
0
100
AcDbCircle
 62
7
  6
CONTINUOUS
 10
18.2737535399
 20
2.384184238
 40
0.0280715479
100
AcDbArc
 50
308.5071794988
 51
332.2400656899
  0
ARC
  5
435
100
AcDbEntity
  8
0
100
AcDbCircle
 62
7
  6
CONTINUOUS
 10
18.2439037681
 20
2.3797532943
 40
0.0266349791
100
AcDbArc
 50
20.3630922153
 51
37.9727053099
  0
ARC
  5
436
100
AcDbEntity
  8
0
100
AcDbCircle
 62
7
  6
CONTINUOUS
 10
18.2450241237
 20
2.3798263774
 40
0.0257145923
100
AcDbArc
 50
39.3804255939
 51
59.0361096173
  0
ARC
  5
437
100
AcDbEntity
  8
0
100
AcDbCircle
 62
7
  6
CONTINUOUS
 10
18.2296840914
 20
2.3774978567
 40
0.0238935861
100
AcDbArc
 50
209.8247607259
 51
235.1255079367
  0
ARC
  5
438
100
AcDbEntity
  8
0
100
AcDbCircle
 62
7
  6
CONTINUOUS
 10
18.2830605507
 20
2.3792897325
 40
0.0175560065
100
AcDbArc
 50
332.2279060967
 51
359.6595469939
  0
ARC
  5
439
100
AcDbEntity
  8
0
100
AcDbCircle
 62
7
  6
CONTINUOUS
 10
18.1890593051
 20
2.3776149607
 40
0.0151491919
100
AcDbArc
 50
24.098260853
 51
63.0369451818
  0
ARC
  5
43A
100
AcDbEntity
  8
0
100
AcDbCircle
 62
7
  6
CONTINUOUS
 10
18.2845735615
 20
2.3882148688
 40
0.0147197649
100
AcDbArc
 50
192.7054516565
 51
206.0594861022
  0
ARC
  5
43B
100
AcDbEntity
  8
0
100
AcDbCircle
 62
7
  6
CONTINUOUS
 10
18.1973459106
 20
2.4149676972
 40
0.0145814632
100
AcDbArc
 50
54.6746025112
 51
71.1660573124
  0
ARC
  5
43C
100
AcDbEntity
  8
0
100
AcDbCircle
 62
7
  6
CONTINUOUS
 10
18.2752146786
 20
2.3927110743
 40
0.0132488022
100
AcDbArc
 50
270.266200055
 51
281.2404888597
  0
ARC
  5
43D
100
AcDbEntity
  8
0
100
AcDbCircle
 62
7
  6
CONTINUOUS
 10
18.2716089246
 20
2.3878675959
 40
0.0119498009
100
AcDbArc
 50
340.7883861657
 51
1.1691452593
  0
ARC
  5
43E
100
AcDbEntity
  8
0
100
AcDbCircle
 62
7
  6
CONTINUOUS
 10
18.198398534
 20
2.4260095887
 40
0.0110815393
100
AcDbArc
 50
306.758405961
 51
320.4502234234
  0
ARC
  5
43F
100
AcDbEntity
  8
0
100
AcDbCircle
 62
7
  6
CONTINUOUS
 10
18.2764089196
 20
2.3869743807
 40
0.0073895522
100
AcDbArc
 50
280.8288201977
 51
305.0837508495
  0
ARC
  5
440
100
AcDbEntity
  8
0
100
AcDbCircle
 62
7
  6
CONTINUOUS
 10
18.2768101012
 20
2.3861235343
 40
0.0064647042
100
AcDbArc
 50
306.5086174083
 51
340.2162360092
  0
ARC
  5
441
100
AcDbEntity
  8
0
100
AcDbCircle
 62
7
  6
CONTINUOUS
 10
18.2024754016
 20
2.4218216224
 40
0.0060275915
100
AcDbArc
 50
20.9055592135
 51
56.7851676243
  0
ARC
  5
442
100
AcDbEntity
  8
0
100
AcDbCircle
 62
7
  6
CONTINUOUS
 10
18.2025691502
 20
2.4227756809
 40
0.0058087709
100
AcDbArc
 50
318.8515287446
 51
353.6422345323
  0
ARC
  5
443
100
AcDbEntity
  8
0
100
AcDbCircle
 62
7
  6
CONTINUOUS
 10
18.2760792244
 20
2.3840063824
 40
0.0052403997
100
AcDbArc
 50
205.5232099488
 51
227.5054868079
  0
ARC
  5
444
100
AcDbEntity
  8
0
100
AcDbCircle
 62
7
  6
CONTINUOUS
 10
18.2037759605
 20
2.4224819047
 40
0.0045795888
100
AcDbArc
 50
355.6235353944
 51
18.9942678268
  0
ARC
  5
445
100
AcDbEntity
  8
0
100
AcDbCircle
 62
7
  6
CONTINUOUS
 10
18.2743509251
 20
2.3821910097
 40
0.0027347709
100
AcDbArc
 50
228.5117626738
 51
266.1485845754
  0
ARC
  5
446
100
AcDbEntity
  8
0
100
AcDbCircle
 62
7
  6
CONTINUOUS
 10
18.1572301659
 20
2.3912274234
 40
0.0024749995
100
AcDbArc
 50
89.9999571957
 51
180.0000428043
  0
ARC
  5
447
100
AcDbEntity
  8
0
100
AcDbCircle
 62
7
  6
CONTINUOUS
 10
18.1572301659
 20
2.3815284143
 40
0.0024749995
100
AcDbArc
 50
179.9999571957
 51
270.0000428043
  0
ARC
  5
448
100
AcDbEntity
  8
0
100
AcDbCircle
 62
7
  6
CONTINUOUS
 10
18.1818891832
 20
2.3765784153
 40
0.0024749995
100
AcDbArc
 50
359.9999571957
 51
90.0000428043
  0
ARC
  5
449
100
AcDbEntity
  8
0
100
AcDbCircle
 62
7
  6
CONTINUOUS
 10
18.0683181166
 20
2.3766004153
 40
0.0024749995
100
AcDbArc
 50
89.9999571957
 51
180.0000428043
  0
ARC
  5
44A
100
AcDbEntity
  8
0
100
AcDbCircle
 62
7
  6
CONTINUOUS
 10
18.0910641329
 20
2.3815504143
 40
0.0024749995
100
AcDbArc
 50
269.9999571957
 51
0.0000428043
  0
ARC
  5
44B
100
AcDbEntity
  8
0
100
AcDbCircle
 62
7
  6
CONTINUOUS
 10
18.2860312373
 20
2.3907374231
 40
0.0024749995
100
AcDbArc
 50
89.9999571957
 51
180.0000428043
  0
ARC
  5
44C
100
AcDbEntity
  8
0
100
AcDbCircle
 62
7
  6
CONTINUOUS
 10
18.2981412477
 20
2.3907374231
 40
0.0024749995
100
AcDbArc
 50
359.9999571957
 51
90.0000428043
  0
ARC
  5
44D
100
AcDbEntity
  8
0
100
AcDbCircle
 62
7
  6
CONTINUOUS
 10
18.1572301659
 20
2.415180433
 40
0.0024749995
100
AcDbArc
 50
179.9999571957
 51
270.0000428043
  0
ARC
  5
44E
100
AcDbEntity
  8
0
100
AcDbCircle
 62
7
  6
CONTINUOUS
 10
17.992145078
 20
2.3815504143
 40
0.0024749995
100
AcDbArc
 50
269.9999571957
 51
0.0000428043
  0
ARC
  5
44F
100
AcDbEntity
  8
0
100
AcDbCircle
 62
7
  6
CONTINUOUS
 10
17.9970950771
 20
2.3898004226
 40
0.0024749995
100
AcDbArc
 50
89.9999571957
 51
180.0000428043
  0
ARC
  5
450
100
AcDbEntity
  8
0
100
AcDbCircle
 62
7
  6
CONTINUOUS
 10
18.0394141042
 20
2.3898004226
 40
0.0024749995
100
AcDbArc
 50
359.9999571957
 51
90.0000428043
  0
ARC
  5
451
100
AcDbEntity
  8
0
100
AcDbCircle
 62
7
  6
CONTINUOUS
 10
18.0379951034
 20
2.4196554355
 40
0.0024749995
100
AcDbArc
 50
269.9999571956
 51
0.0000428042
  0
ARC
  5
452
100
AcDbEntity
  8
0
100
AcDbCircle
 62
7
  6
CONTINUOUS
 10
17.9961310765
 20
2.4196554355
 40
0.0024749995
100
AcDbArc
 50
179.9999571957
 51
270.0000428043
  0
ARC
  5
453
100
AcDbEntity
  8
0
100
AcDbCircle
 62
7
  6
CONTINUOUS
 10
17.9623080615
 20
2.4114054346
 40
0.0024749995
100
AcDbArc
 50
359.9999571957
 51
90.0000428043
  0
ARC
  5
454
100
AcDbEntity
  8
0
100
AcDbCircle
 62
7
  6
CONTINUOUS
 10
17.9623080615
 20
2.3980504235
 40
0.0024749995
100
AcDbArc
 50
269.9999571956
 51
0.0000428042
  0
ARC
  5
455
100
AcDbEntity
  8
0
100
AcDbCircle
 62
7
  6
CONTINUOUS
 10
18.220842337
 20
2.4783532224
 40
0.0789082104
100
AcDbArc
 50
292.906155071
 51
305.2574666259
  0
ARC
  5
456
100
AcDbEntity
  8
0
100
AcDbCircle
 62
7
  6
CONTINUOUS
 10
18.2511742746
 20
2.4351463727
 40
0.0261183659
100
AcDbArc
 50
305.6373831893
 51
329.9727629745
  0
ARC
  5
457
100
AcDbEntity
  8
0
100
AcDbCircle
 62
7
  6
CONTINUOUS
 10
18.1908418374
 20
2.4381440645
 40
0.0254407115
100
AcDbArc
 50
270.7327484175
 51
290.441894219
  0
ARC
  5
458
100
AcDbEntity
  8
0
100
AcDbCircle
 62
7
  6
CONTINUOUS
 10
18.1927693431
 20
2.4337504172
 40
0.0206523367
100
AcDbArc
 50
289.6883413472
 51
306.4184925496
  0
ARC
  5
459
100
AcDbEntity
  8
0
100
AcDbCircle
 62
7
  6
CONTINUOUS
 10
18.2588883357
 20
2.4282993328
 40
0.0165459396
100
AcDbArc
 50
1.548452892
 51
33.5033152417
  0
ARC
  5
45A
100
AcDbEntity
  8
0
100
AcDbCircle
 62
7
  6
CONTINUOUS
 10
18.2621849309
 20
2.428467785
 40
0.0132462337
100
AcDbArc
 50
331.1510006998
 51
1.205404301
  0
ARC
  5
45B
100
AcDbEntity
  8
0
100
AcDbCircle
 62
7
  6
CONTINUOUS
 10
18.0910641329
 20
2.4279054437
 40
0.0024749995
100
AcDbArc
 50
359.9999571957
 51
90.0000428043
  0
ARC
  5
45C
100
AcDbEntity
  8
0
100
AcDbCircle
 62
7
  6
CONTINUOUS
 10
18.0683181166
 20
2.4328554428
 40
0.0024749995
100
AcDbArc
 50
179.9999571957
 51
270.0000428043
  0
ARC
  5
45D
100
AcDbEntity
  8
0
100
AcDbCircle
 62
7
  6
CONTINUOUS
 10
18.0683181166
 20
2.4526554575
 40
0.0024749995
100
AcDbArc
 50
89.9999571957
 51
180.0000428043
  0
ARC
  5
45E
100
AcDbEntity
  8
0
100
AcDbCircle
 62
7
  6
CONTINUOUS
 10
18.1572301659
 20
2.4279054437
 40
0.0024749995
100
AcDbArc
 50
89.9999571957
 51
180.0000428043
  0
ARC
  5
45F
100
AcDbEntity
  8
0
100
AcDbCircle
 62
7
  6
CONTINUOUS
 10
18.0379951034
 20
2.4526554575
 40
0.0024749995
100
AcDbArc
 50
359.9999571957
 51
90.0000428043
  0
ARC
  5
460
100
AcDbEntity
  8
0
100
AcDbCircle
 62
7
  6
CONTINUOUS
 10
17.9911810775
 20
2.4279054437
 40
0.0024749995
100
AcDbArc
 50
359.9999571957
 51
90.0000428043
  0
ELLIPSE
  5
461
100
AcDbEntity
  8
0
100
AcDbEllipse
 62
7
  6
CONTINUOUS
 10
17.573550844
 20
2.4034764283
 30
0.0
 11
-0.8250004575
 21
0.0
 31
0.0
 40
0.218572
 41
0.0
 42
6.2831853072
  0
HATCH
  5
462
100
AcDbEntity
  8
0
100
AcDbHatch
 62
7
  6
CONTINUOUS
 10
0.0
 20
0.0
 30
0.0
210
0.0
220
0.0
230
1.0
  2
XSEC0002
 70
1
 71
1
 91
11
 92
1
 93
57
 72
2
 10
18.2265855264
 20
2.3716475527
 40
0.0173408616
 50
232.4713476722
 51
267.338189944
 73
1
 72
2
 10
18.2296840914
 20
2.3774978567
 40
0.0238935861
 50
209.8247607259
 51
235.1255079367
 73
1
 72
2
 10
18.2495655574
 20
2.384346736
 40
0.044722495
 50
195.531588407
 51
204.7624440448
 73
1
 72
1
 10
18.206476195
 20
2.3723714111
 11
18.204672194
 21
2.3784404145
 72
2
 10
18.1662929967
 20
2.368643334
 40
0.0396099176
 50
14.3201081283
 51
22.4984722084
 73
1
 72
2
 10
18.1890593051
 20
2.3776149607
 40
0.0151491919
 50
24.098260853
 51
63.0369451818
 73
1
 72
2
 10
18.1850046504
 20
2.3693353402
 40
0.0243676582
 50
63.3666028271
 51
90.3937697637
 73
1
 72
1
 10
18.184837183
 20
2.3937024229
 11
18.1572301677
 21
2.3937024229
 72
2
 10
18.1572301659
 20
2.3912274234
 40
0.0024749995
 50
89.9999571957
 51
180.0000428043
 73
1
 72
1
 10
18.1547551663
 20
2.3912274216
 11
18.1547551663
 21
2.3815284162
 72
2
 10
18.1572301659
 20
2.3815284143
 40
0.0024749995
 50
179.9999571957
 51
270.0000428043
 73
1
 72
1
 10
18.1572301677
 20
2.3790534148
 11
18.1818891814
 21
2.3790534148
 72
2
 10
18.1818891832
 20
2.3765784153
 40
0.0024749995
 50
359.9999571957
 51
90.0000428042
 73
1
 72
1
 10
18.1843641828
 20
2.3765784134
 11
18.1843641828
 21
2.3568004025
 72
2
 10
18.1818891832
 20
2.3568004006
 40
0.0024749995
 50
269.9999571958
 51
0.0000428043
 73
1
 72
1
 10
18.1818891814
 20
2.3543254011
 11
18.0683181184
 21
2.3543254011
 72
2
 10
18.0683181166
 20
2.3568004006
 40
0.0024749995
 50
179.9999571957
 51
270.0000428042
 73
1
 72
1
 10
18.065843117
 20
2.3568004025
 11
18.065843117
 21
2.3766004134
 72
2
 10
18.0683181166
 20
2.3766004153
 40
0.0024749995
 50
89.9999571958
 51
180.0000428043
 73
1
 72
1
 10
18.0683181184
 20
2.3790754148
 11
18.091064131
 21
2.3790754148
 72
2
 10
18.0910641329
 20
2.3815504143
 40
0.0024749995
 50
269.9999571957
 51
0.0000428043
 73
1
 72
1
 10
18.0935391324
 20
2.3815504162
 11
18.0935391324
 21
2.4279054419
 72
2
 10
18.0910641329
 20
2.4279054437
 40
0.0024749995
 50
359.9999571957
 51
90.0000428043
 73
1
 72
1
 10
18.091064131
 20
2.4303804433
 11
18.0683181184
 21
2.4303804433
 72
2
 10
18.0683181166
 20
2.4328554428
 40
0.0024749995
 50
179.9999571957
 51
270.0000428043
 73
1
 72
1
 10
18.065843117
 20
2.4328554446
 11
18.065843117
 21
2.4526554556
 72
2
 10
18.0683181166
 20
2.4526554575
 40
0.0024749995
 50
89.9999571958
 51
180.0000428043
 73
1
 72
1
 10
18.0683181184
 20
2.455130457
 11
18.2178992014
 21
2.455130457
 72
2
 10
18.2152358981
 20
2.2725915465
 40
0.1825583387
 50
79.8618509324
 51
89.1640948679
 73
1
 72
2
 10
18.2415401884
 20
2.4134150625
 40
0.039319019
 50
59.1202086415
 51
81.4730239328
 73
1
 72
2
 10
18.2471995846
 20
2.4197497317
 40
0.0310192946
 50
34.7540871
 51
62.0879016178
 73
1
 72
2
 10
18.2588883357
 20
2.4282993328
 40
0.0165459396
 50
1.548452892
 51
33.5033152417
 73
1
 72
2
 10
18.2621849309
 20
2.428467785
 40
0.0132462337
 50
331.1510006998
 51
1.205404301
 73
1
 72
2
 10
18.2511742746
 20
2.4351463727
 40
0.0261183659
 50
305.6373831893
 51
329.9727629745
 73
1
 72
2
 10
18.220842337
 20
2.4783532224
 40
0.0789082104
 50
292.906155071
 51
305.2574666259
 73
1
 72
2
 10
18.197141171
 20
2.3016991173
 40
0.117346916
 50
58.614769177
 51
62.3737227606
 73
1
 72
2
 10
18.2450241237
 20
2.3798263774
 40
0.0257145923
 50
39.3804255939
 51
59.0361096173
 73
1
 72
2
 10
18.2439037681
 20
2.3797532943
 40
0.0266349791
 50
20.3630922153
 51
37.9727053099
 73
1
 72
2
 10
18.2260032264
 20
2.3725718859
 40
0.0459185159
 50
15.6740290068
 51
20.9917271228
 73
1
 72
2
 10
18.2845735615
 20
2.3882148688
 40
0.0147197649
 50
192.7054516565
 51
206.0594861022
 73
1
 72
2
 10
18.2760792244
 20
2.3840063824
 40
0.0052403997
 50
205.5232099488
 51
227.5054868079
 73
1
 72
2
 10
18.2743509251
 20
2.3821910097
 40
0.0027347709
 50
228.5117626738
 51
266.1485845755
 73
1
 72
1
 10
18.2741672326
 20
2.379462415
 11
18.2752762332
 21
2.379462415
 72
2
 10
18.2752146786
 20
2.3927110743
 40
0.0132488022
 50
270.266200055
 51
281.2404888597
 73
1
 72
2
 10
18.2764089196
 20
2.3869743807
 40
0.0073895522
 50
280.8288201977
 51
305.0837508495
 73
1
 72
2
 10
18.2768101012
 20
2.3861235343
 40
0.0064647042
 50
306.5086174083
 51
340.2162360092
 73
1
 72
2
 10
18.2716089246
 20
2.3878675959
 40
0.0119498009
 50
340.7883861657
 51
1.1691452593
 73
1
 72
1
 10
18.2835562378
 20
2.3881114198
 11
18.2835562378
 21
2.3907374213
 72
2
 10
18.2860312373
 20
2.3907374231
 40
0.0024749995
 50
89.9999571957
 51
180.0000428043
 73
1
 72
1
 10
18.2860312391
 20
2.3932124227
 11
18.2981412459
 21
2.3932124227
 72
2
 10
18.2981412477
 20
2.3907374231
 40
0.0024749995
 50
359.9999571957
 51
90.0000428043
 73
1
 72
1
 10
18.3006162472
 20
2.3907374213
 11
18.3006162472
 21
2.3791854149
 72
2
 10
18.2830605507
 20
2.3792897325
 40
0.0175560065
 50
332.2279060967
 51
359.6595469939
 73
1
 72
2
 10
18.2737535399
 20
2.384184238
 40
0.0280715479
 50
308.5071794988
 51
332.2400656899
 73
1
 72
2
 10
18.2667613545
 20
2.3917854558
 40
0.0383802683
 50
288.7656836787
 51
309.6104317088
 73
1
 72
2
 10
18.2724993219
 20
2.3741987064
 40
0.0198837666
 50
271.8586572978
 51
289.4131338543
 73
1
 72
1
 10
18.273144232
 20
2.3543254011
 11
18.2257802057
 21
2.3543254011
 97
267
330
357
330
358
330
359
330
35A
330
35B
330
35C
330
35D
330
35E
330
35F
330
360
330
361
330
362
330
363
330
364
330
365
330
366
330
367
330
368
330
369
330
36A
330
36B
330
36C
330
36D
330
36E
330
36F
330
370
330
371
330
372
330
373
330
374
330
375
330
376
330
377
330
378
330
379
330
37A
330
37B
330
37C
330
37D
330
37E
330
37F
330
380
330
381
330
382
330
383
330
384
330
385
330
386
330
387
330
388
330
389
330
38A
330
38B
330
38C
330
38D
330
38E
330
38F
330
390
330
391
330
392
330
393
330
394
330
395
330
396
330
397
330
398
330
399
330
39A
330
39B
330
39C
330
39D
330
39E
330
39F
330
3A0
330
3A1
330
3A2
330
3A3
330
3A4
330
3A5
330
3A6
330
3A7
330
3A8
330
3A9
330
3AA
330
3AB
330
3AC
330
3AD
330
3AE
330
3AF
330
3B0
330
3B1
330
3B2
330
3B3
330
3B4
330
3B5
330
3B6
330
3B7
330
3B8
330
3B9
330
3BA
330
3BB
330
3BC
330
3BD
330
3BE
330
3BF
330
3C0
330
3C1
330
3C2
330
3C3
330
3C4
330
3C5
330
3C6
330
3C7
330
3C8
330
3C9
330
3CA
330
3CB
330
3CC
330
3CD
330
3CE
330
3CF
330
3D0
330
3D1
330
3D2
330
3D3
330
3D4
330
3D5
330
3D6
330
3D7
330
3D8
330
3D9
330
3DA
330
3DB
330
3DC
330
3DD
330
3DE
330
3DF
330
3E0
330
3E1
330
3E2
330
3E3
330
3E4
330
3E5
330
3E6
330
3E7
330
3E8
330
3E9
330
3EA
330
3EB
330
3EC
330
3ED
330
3EE
330
3EF
330
3F0
330
3F1
330
3F2
330
3F3
330
3F4
330
3F5
330
3F6
330
3F7
330
3F8
330
3F9
330
3FA
330
3FB
330
3FC
330
3FD
330
3FE
330
3FF
330
400
330
401
330
402
330
403
330
404
330
405
330
406
330
407
330
408
330
409
330
40A
330
40B
330
40C
330
40D
330
40E
330
40F
330
410
330
411
330
412
330
413
330
414
330
415
330
416
330
417
330
418
330
419
330
41A
330
41B
330
41C
330
41D
330
41E
330
41F
330
420
330
421
330
422
330
423
330
424
330
425
330
426
330
427
330
428
330
429
330
42A
330
42B
330
42C
330
42D
330
42E
330
42F
330
430
330
431
330
432
330
433
330
434
330
435
330
436
330
437
330
438
330
439
330
43A
330
43B
330
43C
330
43D
330
43E
330
43F
330
440
330
441
330
442
330
443
330
444
330
445
330
446
330
447
330
448
330
449
330
44A
330
44B
330
44C
330
44D
330
44E
330
44F
330
450
330
451
330
452
330
453
330
454
330
455
330
456
330
457
330
458
330
459
330
45A
330
45B
330
45C
330
45D
330
45E
330
45F
330
460
330
461
 92
1
 93
40
 72
2
 10
17.8362019878
 20
2.3568004006
 40
0.0024749995
 50
179.9999571957
 51
270.0000428042
 73
1
 72
1
 10
17.8337269883
 20
2.3568004025
 11
17.8337269883
 21
2.3766004134
 72
2
 10
17.8362019878
 20
2.3766004153
 40
0.0024749995
 50
89.9999571958
 51
180.0000428043
 73
1
 72
1
 10
17.8362019897
 20
2.3790754148
 11
17.860125003
 21
2.3790754148
 72
2
 10
17.8601250048
 20
2.3815504143
 40
0.0024749995
 50
269.9999571956
 51
0.0000428042
 73
1
 72
1
 10
17.8626000043
 20
2.3815504162
 11
17.8626000043
 21
2.4279054419
 72
2
 10
17.8601250048
 20
2.4279054437
 40
0.0024749995
 50
359.9999571957
 51
90.0000428043
 73
1
 72
1
 10
17.860125003
 20
2.4303804433
 11
17.8362019897
 21
2.4303804433
 72
2
 10
17.8362019878
 20
2.4328554428
 40
0.0024749995
 50
179.9999571957
 51
270.0000428043
 73
1
 72
1
 10
17.8337269883
 20
2.4328554446
 11
17.8337269883
 21
2.4526554556
 72
2
 10
17.8362019878
 20
2.4526554575
 40
0.0024749995
 50
89.9999571958
 51
180.0000428043
 73
1
 72
1
 10
17.8362019897
 20
2.455130457
 11
18.0379951016
 21
2.455130457
 72
2
 10
18.0379951034
 20
2.4526554575
 40
0.0024749995
 50
359.9999571957
 51
90.0000428042
 73
1
 72
1
 10
18.040470103
 20
2.4526554556
 11
18.040470103
 21
2.4196554373
 72
2
 10
18.0379951034
 20
2.4196554355
 40
0.0024749995
 50
269.9999571956
 51
0.0000428042
 73
1
 72
1
 10
18.0379951016
 20
2.4171804359
 11
17.9961310784
 21
2.4171804359
 72
2
 10
17.9961310765
 20
2.4196554355
 40
0.0024749995
 50
179.9999571957
 51
270.0000428043
 73
1
 72
1
 10
17.993656077
 20
2.4196554373
 11
17.993656077
 21
2.4279054419
 72
2
 10
17.9911810775
 20
2.4279054437
 40
0.0024749995
 50
359.9999571957
 51
90.0000428043
 73
1
 72
1
 10
17.9911810756
 20
2.4303804433
 11
17.9271410401
 21
2.4303804433
 72
2
 10
17.9271410383
 20
2.4279054437
 40
0.0024749995
 50
89.9999571958
 51
180.0000428043
 73
1
 72
1
 10
17.9246660387
 20
2.4279054419
 11
17.9246660387
 21
2.4163554355
 72
2
 10
17.9271410383
 20
2.4163554336
 40
0.0024749995
 50
179.9999571957
 51
270.0000428042
 73
1
 72
1
 10
17.9271410401
 20
2.4138804341
 11
17.9623080596
 21
2.4138804341
 72
2
 10
17.9623080615
 20
2.4114054346
 40
0.0024749995
 50
359.9999571957
 51
90.0000428042
 73
1
 72
1
 10
17.964783061
 20
2.4114054327
 11
17.964783061
 21
2.3980504253
 72
2
 10
17.9623080615
 20
2.3980504235
 40
0.0024749995
 50
269.9999571956
 51
0.0000428042
 73
1
 72
1
 10
17.9623080596
 20
2.395575424
 11
17.9271410401
 21
2.395575424
 72
2
 10
17.9271410383
 20
2.3931004244
 40
0.0024749995
 50
89.9999571958
 51
180.0000428043
 73
1
 72
1
 10
17.9246660387
 20
2.3931004226
 11
17.9246660387
 21
2.3815504162
 72
2
 10
17.9271410383
 20
2.3815504143
 40
0.0024749995
 50
179.9999571957
 51
270.0000428043
 73
1
 72
1
 10
17.9271410401
 20
2.3790754148
 11
17.9921450762
 21
2.3790754148
 72
2
 10
17.992145078
 20
2.3815504143
 40
0.0024749995
 50
269.9999571958
 51
0.0000428043
 73
1
 72
1
 10
17.9946200775
 20
2.3815504162
 11
17.9946200775
 21
2.3898004208
 72
2
 10
17.9970950771
 20
2.3898004226
 40
0.0024749995
 50
89.9999571958
 51
180.0000428043
 73
1
 72
1
 10
17.9970950789
 20
2.3922754221
 11
18.0394141024
 21
2.3922754221
 72
2
 10
18.0394141042
 20
2.3898004226
 40
0.0024749995
 50
359.9999571957
 51
90.0000428043
 73
1
 72
1
 10
18.0418891038
 20
2.3898004208
 11
18.0418891038
 21
2.3568004025
 72
2
 10
18.0394141042
 20
2.3568004006
 40
0.0024749995
 50
269.9999571958
 51
0.0000428043
 73
1
 72
1
 10
18.0394141024
 20
2.3543254011
 11
17.8362019897
 21
2.3543254011
 97
267
330
357
330
358
330
359
330
35A
330
35B
330
35C
330
35D
330
35E
330
35F
330
360
330
361
330
362
330
363
330
364
330
365
330
366
330
367
330
368
330
369
330
36A
330
36B
330
36C
330
36D
330
36E
330
36F
330
370
330
371
330
372
330
373
330
374
330
375
330
376
330
377
330
378
330
379
330
37A
330
37B
330
37C
330
37D
330
37E
330
37F
330
380
330
381
330
382
330
383
330
384
330
385
330
386
330
387
330
388
330
389
330
38A
330
38B
330
38C
330
38D
330
38E
330
38F
330
390
330
391
330
392
330
393
330
394
330
395
330
396
330
397
330
398
330
399
330
39A
330
39B
330
39C
330
39D
330
39E
330
39F
330
3A0
330
3A1
330
3A2
330
3A3
330
3A4
330
3A5
330
3A6
330
3A7
330
3A8
330
3A9
330
3AA
330
3AB
330
3AC
330
3AD
330
3AE
330
3AF
330
3B0
330
3B1
330
3B2
330
3B3
330
3B4
330
3B5
330
3B6
330
3B7
330
3B8
330
3B9
330
3BA
330
3BB
330
3BC
330
3BD
330
3BE
330
3BF
330
3C0
330
3C1
330
3C2
330
3C3
330
3C4
330
3C5
330
3C6
330
3C7
330
3C8
330
3C9
330
3CA
330
3CB
330
3CC
330
3CD
330
3CE
330
3CF
330
3D0
330
3D1
330
3D2
330
3D3
330
3D4
330
3D5
330
3D6
330
3D7
330
3D8
330
3D9
330
3DA
330
3DB
330
3DC
330
3DD
330
3DE
330
3DF
330
3E0
330
3E1
330
3E2
330
3E3
330
3E4
330
3E5
330
3E6
330
3E7
330
3E8
330
3E9
330
3EA
330
3EB
330
3EC
330
3ED
330
3EE
330
3EF
330
3F0
330
3F1
330
3F2
330
3F3
330
3F4
330
3F5
330
3F6
330
3F7
330
3F8
330
3F9
330
3FA
330
3FB
330
3FC
330
3FD
330
3FE
330
3FF
330
400
330
401
330
402
330
403
330
404
330
405
330
406
330
407
330
408
330
409
330
40A
330
40B
330
40C
330
40D
330
40E
330
40F
330
410
330
411
330
412
330
413
330
414
330
415
330
416
330
417
330
418
330
419
330
41A
330
41B
330
41C
330
41D
330
41E
330
41F
330
420
330
421
330
422
330
423
330
424
330
425
330
426
330
427
330
428
330
429
330
42A
330
42B
330
42C
330
42D
330
42E
330
42F
330
430
330
431
330
432
330
433
330
434
330
435
330
436
330
437
330
438
330
439
330
43A
330
43B
330
43C
330
43D
330
43E
330
43F
330
440
330
441
330
442
330
443
330
444
330
445
330
446
330
447
330
448
330
449
330
44A
330
44B
330
44C
330
44D
330
44E
330
44F
330
450
330
451
330
452
330
453
330
454
330
455
330
456
330
457
330
458
330
459
330
45A
330
45B
330
45C
330
45D
330
45E
330
45F
330
460
330
461
 92
1
 93
40
 72
2
 10
17.7115227858
 20
2.3567995689
 40
0.0024741678
 50
226.3477981898
 51
270.0031206038
 73
1
 72
1
 10
17.7098149196
 20
2.3550094015
 11
17.6465348845
 21
2.415387435
 72
2
 10
17.6448261836
 20
2.4135964972
 40
0.0024753014
 50
46.3461263058
 51
180.0014637321
 73
1
 72
1
 10
17.6423508822
 20
2.413596434
 11
17.6423508822
 21
2.3815504162
 72
2
 10
17.6448258817
 20
2.3815504143
 40
0.0024749995
 50
179.9999571957
 51
270.0000428043
 73
1
 72
1
 10
17.6448258836
 20
2.3790754148
 11
17.6651428948
 21
2.3790754148
 72
2
 10
17.6651428967
 20
2.3766004153
 40
0.0024749995
 50
359.9999571957
 51
90.0000428043
 73
1
 72
1
 10
17.6676178962
 20
2.3766004134
 11
17.6676178962
 21
2.3568004025
 72
2
 10
17.6651428967
 20
2.3568004006
 40
0.0024749995
 50
269.9999571958
 51
0.0000428043
 73
1
 72
1
 10
17.6651428948
 20
2.3543254011
 11
17.5894788529
 21
2.3543254011
 72
2
 10
17.589478851
 20
2.3568004006
 40
0.0024749995
 50
179.9999571957
 51
270.0000428042
 73
1
 72
1
 10
17.5870038515
 20
2.3568004025
 11
17.5870038515
 21
2.3766004134
 72
2
 10
17.589478851
 20
2.3766004153
 40
0.0024749995
 50
89.9999571957
 51
180.0000428043
 73
1
 72
1
 10
17.5894788529
 20
2.3790754148
 11
17.6081248632
 21
2.3790754148
 72
2
 10
17.6081248651
 20
2.3815504143
 40
0.0024749995
 50
269.9999571957
 51
0.0000428043
 73
1
 72
1
 10
17.6105998646
 20
2.3815504162
 11
17.6105998646
 21
2.4279054419
 72
2
 10
17.6081248651
 20
2.4279054437
 40
0.0024749995
 50
359.9999571957
 51
90.0000428043
 73
1
 72
1
 10
17.6081248632
 20
2.4303804433
 11
17.5894788529
 21
2.4303804433
 72
2
 10
17.589478851
 20
2.4328554428
 40
0.0024749995
 50
179.9999571957
 51
270.0000428043
 73
1
 72
1
 10
17.5870038515
 20
2.4328554446
 11
17.5870038515
 21
2.4526554556
 72
2
 10
17.589478851
 20
2.4526554575
 40
0.0024749995
 50
89.9999571957
 51
180.0000428043
 73
1
 72
1
 10
17.5894788529
 20
2.455130457
 11
17.6899369086
 21
2.455130457
 72
2
 10
17.6899370433
 20
2.4526562892
 40
0.0024741678
 50
46.3477981899
 51
90.0031206038
 73
1
 72
1
 10
17.6916449095
 20
2.4544464566
 11
17.7516779428
 21
2.3971664249
 72
2
 10
17.7533866437
 20
2.3989573626
 40
0.0024753014
 50
226.3461263059
 51
0.0014637321
 73
1
 72
1
 10
17.7558619451
 20
2.3989574258
 11
17.7558619451
 21
2.4279054419
 72
2
 10
17.7533869456
 20
2.4279054437
 40
0.0024749995
 50
359.9999571957
 51
90.0000428043
 73
1
 72
1
 10
17.7533869438
 20
2.4303804433
 11
17.7346109333
 21
2.4303804433
 72
2
 10
17.7346109315
 20
2.4328554428
 40
0.0024749995
 50
179.9999571957
 51
270.0000428043
 73
1
 72
1
 10
17.732135932
 20
2.4328554446
 11
17.732135932
 21
2.4526554556
 72
2
 10
17.7346109315
 20
2.4526554575
 40
0.0024749995
 50
89.9999571958
 51
180.0000428043
 73
1
 72
1
 10
17.7346109333
 20
2.455130457
 11
17.8086119744
 21
2.455130457
 72
2
 10
17.8086119762
 20
2.4526554575
 40
0.0024749995
 50
359.9999571957
 51
90.0000428043
 73
1
 72
1
 10
17.8110869758
 20
2.4526554556
 11
17.8110869758
 21
2.4328554446
 72
2
 10
17.8086119762
 20
2.4328554428
 40
0.0024749995
 50
269.9999571956
 51
0.0000428042
 73
1
 72
1
 10
17.8086119744
 20
2.4303804433
 11
17.7906789644
 21
2.4303804433
 72
2
 10
17.7906789626
 20
2.4279054437
 40
0.0024749995
 50
89.9999571957
 51
180.0000428043
 73
1
 72
1
 10
17.7882039631
 20
2.4279054419
 11
17.7882039631
 21
2.3568004025
 72
2
 10
17.7857289635
 20
2.3568004006
 40
0.0024749995
 50
269.9999571957
 51
0.0000428043
 73
1
 72
1
 10
17.7857289617
 20
2.3543254011
 11
17.7115229205
 21
2.3543254011
 97
267
330
357
330
358
330
359
330
35A
330
35B
330
35C
330
35D
330
35E
330
35F
330
360
330
361
330
362
330
363
330
364
330
365
330
366
330
367
330
368
330
369
330
36A
330
36B
330
36C
330
36D
330
36E
330
36F
330
370
330
371
330
372
330
373
330
374
330
375
330
376
330
377
330
378
330
379
330
37A
330
37B
330
37C
330
37D
330
37E
330
37F
330
380
330
381
330
382
330
383
330
384
330
385
330
386
330
387
330
388
330
389
330
38A
330
38B
330
38C
330
38D
330
38E
330
38F
330
390
330
391
330
392
330
393
330
394
330
395
330
396
330
397
330
398
330
399
330
39A
330
39B
330
39C
330
39D
330
39E
330
39F
330
3A0
330
3A1
330
3A2
330
3A3
330
3A4
330
3A5
330
3A6
330
3A7
330
3A8
330
3A9
330
3AA
330
3AB
330
3AC
330
3AD
330
3AE
330
3AF
330
3B0
330
3B1
330
3B2
330
3B3
330
3B4
330
3B5
330
3B6
330
3B7
330
3B8
330
3B9
330
3BA
330
3BB
330
3BC
330
3BD
330
3BE
330
3BF
330
3C0
330
3C1
330
3C2
330
3C3
330
3C4
330
3C5
330
3C6
330
3C7
330
3C8
330
3C9
330
3CA
330
3CB
330
3CC
330
3CD
330
3CE
330
3CF
330
3D0
330
3D1
330
3D2
330
3D3
330
3D4
330
3D5
330
3D6
330
3D7
330
3D8
330
3D9
330
3DA
330
3DB
330
3DC
330
3DD
330
3DE
330
3DF
330
3E0
330
3E1
330
3E2
330
3E3
330
3E4
330
3E5
330
3E6
330
3E7
330
3E8
330
3E9
330
3EA
330
3EB
330
3EC
330
3ED
330
3EE
330
3EF
330
3F0
330
3F1
330
3F2
330
3F3
330
3F4
330
3F5
330
3F6
330
3F7
330
3F8
330
3F9
330
3FA
330
3FB
330
3FC
330
3FD
330
3FE
330
3FF
330
400
330
401
330
402
330
403
330
404
330
405
330
406
330
407
330
408
330
409
330
40A
330
40B
330
40C
330
40D
330
40E
330
40F
330
410
330
411
330
412
330
413
330
414
330
415
330
416
330
417
330
418
330
419
330
41A
330
41B
330
41C
330
41D
330
41E
330
41F
330
420
330
421
330
422
330
423
330
424
330
425
330
426
330
427
330
428
330
429
330
42A
330
42B
330
42C
330
42D
330
42E
330
42F
330
430
330
431
330
432
330
433
330
434
330
435
330
436
330
437
330
438
330
439
330
43A
330
43B
330
43C
330
43D
330
43E
330
43F
330
440
330
441
330
442
330
443
330
444
330
445
330
446
330
447
330
448
330
449
330
44A
330
44B
330
44C
330
44D
330
44E
330
44F
330
450
330
451
330
452
330
453
330
454
330
455
330
456
330
457
330
458
330
459
330
45A
330
45B
330
45C
330
45D
330
45E
330
45F
330
460
330
461
 92
1
 93
40
 72
2
 10
17.4632701481
 20
2.3568008172
 40
0.0024754162
 50
226.3593695814
 51
270.0146919954
 73
1
 72
1
 10
17.4615617819
 20
2.3550094015
 11
17.3982817468
 21
2.415387435
 72
2
 10
17.3965730459
 20
2.4135964972
 40
0.0024753014
 50
46.3461263058
 51
180.0014637321
 73
1
 72
1
 10
17.3940977445
 20
2.413596434
 11
17.3940977445
 21
2.3815504162
 72
2
 10
17.396572744
 20
2.3815504143
 40
0.0024749995
 50
179.9999571957
 51
270.0000428043
 73
1
 72
1
 10
17.3965727459
 20
2.3790754148
 11
17.4168897572
 21
2.3790754148
 72
2
 10
17.416889759
 20
2.3766004153
 40
0.0024749995
 50
359.9999571957
 51
90.0000428043
 73
1
 72
1
 10
17.4193647585
 20
2.3766004134
 11
17.4193647585
 21
2.3568004025
 72
2
 10
17.416889759
 20
2.3568004006
 40
0.0024749995
 50
269.9999571957
 51
0.0000428043
 73
1
 72
1
 10
17.4168897572
 20
2.3543254011
 11
17.3412257152
 21
2.3543254011
 72
2
 10
17.3412257133
 20
2.3568004006
 40
0.0024749995
 50
179.9999571957
 51
270.0000428043
 73
1
 72
1
 10
17.3387507138
 20
2.3568004025
 11
17.3387507138
 21
2.3766004134
 72
2
 10
17.3412257133
 20
2.3766004153
 40
0.0024749995
 50
89.9999571957
 51
180.0000428043
 73
1
 72
1
 10
17.3412257152
 20
2.3790754148
 11
17.3598727255
 21
2.3790754148
 72
2
 10
17.3598727274
 20
2.3815504143
 40
0.0024749995
 50
269.9999571957
 51
0.0000428043
 73
1
 72
1
 10
17.3623477269
 20
2.3815504162
 11
17.3623477269
 21
2.4279054419
 72
2
 10
17.3598727274
 20
2.4279054437
 40
0.0024749995
 50
359.9999571957
 51
90.0000428044
 73
1
 72
1
 10
17.3598727255
 20
2.4303804433
 11
17.3412257152
 21
2.4303804433
 72
2
 10
17.3412257133
 20
2.4328554428
 40
0.0024749995
 50
179.9999571957
 51
270.0000428043
 73
1
 72
1
 10
17.3387507138
 20
2.4328554446
 11
17.3387507138
 21
2.4526554556
 72
2
 10
17.3412257133
 20
2.4526554575
 40
0.0024749995
 50
89.9999571957
 51
180.0000428043
 73
1
 72
1
 10
17.3412257152
 20
2.455130457
 11
17.4416837709
 21
2.455130457
 72
2
 10
17.4416839057
 20
2.4526562892
 40
0.0024741678
 50
46.3477981899
 51
90.0031206038
 73
1
 72
1
 10
17.4433917718
 20
2.4544464566
 11
17.5034248051
 21
2.3971664249
 72
2
 10
17.5051335061
 20
2.3989573626
 40
0.0024753014
 50
226.3461263059
 51
0.0014637321
 73
1
 72
1
 10
17.5076088075
 20
2.3989574258
 11
17.5076088075
 21
2.4279054419
 72
2
 10
17.5051338079
 20
2.4279054437
 40
0.0024749995
 50
359.9999571957
 51
90.0000428043
 73
1
 72
1
 10
17.5051338061
 20
2.4303804433
 11
17.4863577957
 21
2.4303804433
 72
2
 10
17.4863577938
 20
2.4328554428
 40
0.0024749995
 50
179.9999571957
 51
270.0000428043
 73
1
 72
1
 10
17.4838827943
 20
2.4328554446
 11
17.4838827943
 21
2.4526554556
 72
2
 10
17.4863577938
 20
2.4526554575
 40
0.0024749995
 50
89.9999571957
 51
180.0000428043
 73
1
 72
1
 10
17.4863577957
 20
2.455130457
 11
17.5603588367
 21
2.455130457
 72
2
 10
17.5603588386
 20
2.4526554575
 40
0.0024749995
 50
359.9999571957
 51
90.0000428042
 73
1
 72
1
 10
17.5628338381
 20
2.4526554556
 11
17.5628338381
 21
2.4328554446
 72
2
 10
17.5603588386
 20
2.4328554428
 40
0.0024749995
 50
269.9999571958
 51
0.0000428043
 73
1
 72
1
 10
17.5603588367
 20
2.4303804433
 11
17.5424258268
 21
2.4303804433
 72
2
 10
17.5424258249
 20
2.4279054437
 40
0.0024749995
 50
89.9999571958
 51
180.0000428043
 73
1
 72
1
 10
17.5399508254
 20
2.4279054419
 11
17.5399508254
 21
2.3568004025
 72
2
 10
17.5374758259
 20
2.3568004006
 40
0.0024749995
 50
269.9999571958
 51
0.0000428043
 73
1
 72
1
 10
17.537475824
 20
2.3543254011
 11
17.4632707829
 21
2.3543254011
 97
267
330
357
330
358
330
359
330
35A
330
35B
330
35C
330
35D
330
35E
330
35F
330
360
330
361
330
362
330
363
330
364
330
365
330
366
330
367
330
368
330
369
330
36A
330
36B
330
36C
330
36D
330
36E
330
36F
330
370
330
371
330
372
330
373
330
374
330
375
330
376
330
377
330
378
330
379
330
37A
330
37B
330
37C
330
37D
330
37E
330
37F
330
380
330
381
330
382
330
383
330
384
330
385
330
386
330
387
330
388
330
389
330
38A
330
38B
330
38C
330
38D
330
38E
330
38F
330
390
330
391
330
392
330
393
330
394
330
395
330
396
330
397
330
398
330
399
330
39A
330
39B
330
39C
330
39D
330
39E
330
39F
330
3A0
330
3A1
330
3A2
330
3A3
330
3A4
330
3A5
330
3A6
330
3A7
330
3A8
330
3A9
330
3AA
330
3AB
330
3AC
330
3AD
330
3AE
330
3AF
330
3B0
330
3B1
330
3B2
330
3B3
330
3B4
330
3B5
330
3B6
330
3B7
330
3B8
330
3B9
330
3BA
330
3BB
330
3BC
330
3BD
330
3BE
330
3BF
330
3C0
330
3C1
330
3C2
330
3C3
330
3C4
330
3C5
330
3C6
330
3C7
330
3C8
330
3C9
330
3CA
330
3CB
330
3CC
330
3CD
330
3CE
330
3CF
330
3D0
330
3D1
330
3D2
330
3D3
330
3D4
330
3D5
330
3D6
330
3D7
330
3D8
330
3D9
330
3DA
330
3DB
330
3DC
330
3DD
330
3DE
330
3DF
330
3E0
330
3E1
330
3E2
330
3E3
330
3E4
330
3E5
330
3E6
330
3E7
330
3E8
330
3E9
330
3EA
330
3EB
330
3EC
330
3ED
330
3EE
330
3EF
330
3F0
330
3F1
330
3F2
330
3F3
330
3F4
330
3F5
330
3F6
330
3F7
330
3F8
330
3F9
330
3FA
330
3FB
330
3FC
330
3FD
330
3FE
330
3FF
330
400
330
401
330
402
330
403
330
404
330
405
330
406
330
407
330
408
330
409
330
40A
330
40B
330
40C
330
40D
330
40E
330
40F
330
410
330
411
330
412
330
413
330
414
330
415
330
416
330
417
330
418
330
419
330
41A
330
41B
330
41C
330
41D
330
41E
330
41F
330
420
330
421
330
422
330
423
330
424
330
425
330
426
330
427
330
428
330
429
330
42A
330
42B
330
42C
330
42D
330
42E
330
42F
330
430
330
431
330
432
330
433
330
434
330
435
330
436
330
437
330
438
330
439
330
43A
330
43B
330
43C
330
43D
330
43E
330
43F
330
440
330
441
330
442
330
443
330
444
330
445
330
446
330
447
330
448
330
449
330
44A
330
44B
330
44C
330
44D
330
44E
330
44F
330
450
330
451
330
452
330
453
330
454
330
455
330
456
330
457
330
458
330
459
330
45A
330
45B
330
45C
330
45D
330
45E
330
45F
330
460
330
461
 92
1
 93
23
 72
2
 10
17.0481152095
 20
2.4027328529
 40
0.048483885
 50
273.21763719
 51
303.0749121182
 73
1
 72
2
 10
17.0629546036
 20
2.379965244
 40
0.0213072145
 50
303.0488228549
 51
355.7263138674
 73
1
 72
2
 10
17.0688911042
 20
2.3799744343
 40
0.0153945295
 50
354.0454548824
 51
5.1878013979
 73
1
 72
2
 10
17.0620614151
 20
2.3797859164
 40
0.0222174455
 50
4.0793399388
 51
69.834329283
 73
1
 72
1
 10
17.0697205646
 20
2.4006414268
 11
17.059669559
 21
2.4041904287
 72
1
 10
17.059669559
 20
2.4041904287
 11
17.0679095636
 21
2.4089664314
 72
2
 10
17.0460441811
 20
2.445793323
 40
0.0428289026
 50
300.6990502959
 51
319.0591802498
 73
1
 72
2
 10
17.0660727781
 20
2.4296649696
 40
0.0171568255
 50
315.9145124245
 51
16.0049121283
 73
1
 72
2
 10
17.0611211659
 20
2.4263113051
 40
0.0229166529
 50
20.6563876465
 51
62.3316896973
 73
1
 72
2
 10
17.0404590422
 20
2.3933827403
 40
0.061747717
 50
59.5385584989
 51
90.0050977555
 73
1
 72
1
 10
17.0404535484
 20
2.455130457
 11
16.8743904563
 21
2.455130457
 72
2
 10
16.8743904545
 20
2.4526554575
 40
0.0024749995
 50
89.9999571958
 51
180.0000428043
 73
1
 72
1
 10
16.8719154549
 20
2.4526554556
 11
16.8719154549
 21
2.4328554446
 72
2
 10
16.8743904545
 20
2.4328554428
 40
0.0024749995
 50
179.9999571957
 51
270.0000428043
 73
1
 72
1
 10
16.8743904563
 20
2.4303804433
 11
16.8983324696
 21
2.4303804433
 72
2
 10
16.8983324714
 20
2.4279054437
 40
0.0024749995
 50
359.9999571957
 51
90.0000428043
 73
1
 72
1
 10
16.9008074709
 20
2.4279054419
 11
16.9008074709
 21
2.3815504162
 72
2
 10
16.8983324714
 20
2.3815504143
 40
0.0024749995
 50
269.9999571958
 51
0.0000428043
 73
1
 72
1
 10
16.8983324696
 20
2.3790754148
 11
16.8743904563
 21
2.3790754148
 72
2
 10
16.8743904545
 20
2.3766004153
 40
0.0024749995
 50
89.9999571958
 51
180.0000428043
 73
1
 72
1
 10
16.8719154549
 20
2.3766004134
 11
16.8719154549
 21
2.3568004025
 72
2
 10
16.8743904545
 20
2.3568004006
 40
0.0024749995
 50
179.9999571957
 51
270.0000428042
 73
1
 72
1
 10
16.8743904563
 20
2.3543254011
 11
17.0508365542
 21
2.3543254011
 97
267
330
357
330
358
330
359
330
35A
330
35B
330
35C
330
35D
330
35E
330
35F
330
360
330
361
330
362
330
363
330
364
330
365
330
366
330
367
330
368
330
369
330
36A
330
36B
330
36C
330
36D
330
36E
330
36F
330
370
330
371
330
372
330
373
330
374
330
375
330
376
330
377
330
378
330
379
330
37A
330
37B
330
37C
330
37D
330
37E
330
37F
330
380
330
381
330
382
330
383
330
384
330
385
330
386
330
387
330
388
330
389
330
38A
330
38B
330
38C
330
38D
330
38E
330
38F
330
390
330
391
330
392
330
393
330
394
330
395
330
396
330
397
330
398
330
399
330
39A
330
39B
330
39C
330
39D
330
39E
330
39F
330
3A0
330
3A1
330
3A2
330
3A3
330
3A4
330
3A5
330
3A6
330
3A7
330
3A8
330
3A9
330
3AA
330
3AB
330
3AC
330
3AD
330
3AE
330
3AF
330
3B0
330
3B1
330
3B2
330
3B3
330
3B4
330
3B5
330
3B6
330
3B7
330
3B8
330
3B9
330
3BA
330
3BB
330
3BC
330
3BD
330
3BE
330
3BF
330
3C0
330
3C1
330
3C2
330
3C3
330
3C4
330
3C5
330
3C6
330
3C7
330
3C8
330
3C9
330
3CA
330
3CB
330
3CC
330
3CD
330
3CE
330
3CF
330
3D0
330
3D1
330
3D2
330
3D3
330
3D4
330
3D5
330
3D6
330
3D7
330
3D8
330
3D9
330
3DA
330
3DB
330
3DC
330
3DD
330
3DE
330
3DF
330
3E0
330
3E1
330
3E2
330
3E3
330
3E4
330
3E5
330
3E6
330
3E7
330
3E8
330
3E9
330
3EA
330
3EB
330
3EC
330
3ED
330
3EE
330
3EF
330
3F0
330
3F1
330
3F2
330
3F3
330
3F4
330
3F5
330
3F6
330
3F7
330
3F8
330
3F9
330
3FA
330
3FB
330
3FC
330
3FD
330
3FE
330
3FF
330
400
330
401
330
402
330
403
330
404
330
405
330
406
330
407
330
408
330
409
330
40A
330
40B
330
40C
330
40D
330
40E
330
40F
330
410
330
411
330
412
330
413
330
414
330
415
330
416
330
417
330
418
330
419
330
41A
330
41B
330
41C
330
41D
330
41E
330
41F
330
420
330
421
330
422
330
423
330
424
330
425
330
426
330
427
330
428
330
429
330
42A
330
42B
330
42C
330
42D
330
42E
330
42F
330
430
330
431
330
432
330
433
330
434
330
435
330
436
330
437
330
438
330
439
330
43A
330
43B
330
43C
330
43D
330
43E
330
43F
330
440
330
441
330
442
330
443
330
444
330
445
330
446
330
447
330
448
330
449
330
44A
330
44B
330
44C
330
44D
330
44E
330
44F
330
450
330
451
330
452
330
453
330
454
330
455
330
456
330
457
330
458
330
459
330
45A
330
45B
330
45C
330
45D
330
45E
330
45F
330
460
330
461
 92
1
 93
32
 72
2
 10
17.1857496308
 20
2.3568004006
 40
0.0024749995
 50
269.9999571958
 51
0.0000428044
 73
1
 72
1
 10
17.1882246303
 20
2.3568004025
 11
17.1882246303
 21
2.3766004134
 72
2
 10
17.1857496308
 20
2.3766004153
 40
0.0024749995
 50
359.9999571957
 51
90.0000428043
 73
1
 72
1
 10
17.185749629
 20
2.3790754148
 11
17.1744666227
 21
2.3790754148
 72
2
 10
17.1744665134
 20
2.3815504549
 40
0.0024750401
 50
147.6063258011
 51
270.0025305754
 73
1
 72
1
 10
17.1723766216
 20
2.3828764169
 11
17.1778926246
 21
2.3915704217
 72
2
 10
17.1799825555
 20
2.3902442221
 40
0.0024752003
 50
89.998372645
 51
147.602165307
 73
1
 72
1
 10
17.1799826258
 20
2.3927194224
 11
17.2148606451
 21
2.3927194224
 72
2
 10
17.2148601055
 20
2.3902439622
 40
0.0024754602
 50
32.8959418574
 51
89.9875097202
 73
1
 72
1
 10
17.2169386463
 20
2.3915884218
 11
17.2225646494
 21
2.3828954169
 72
2
 10
17.2204866271
 20
2.3815506219
 40
0.0024752071
 50
270.0004896793
 51
32.9089806818
 73
1
 72
1
 10
17.2204866482
 20
2.3790754148
 11
17.2060356402
 21
2.3790754148
 72
2
 10
17.2060356384
 20
2.3766004153
 40
0.0024749995
 50
89.9999571958
 51
180.0000428043
 73
1
 72
1
 10
17.2035606388
 20
2.3766004134
 11
17.2035606388
 21
2.3568004025
 72
2
 10
17.2060356384
 20
2.3568004006
 40
0.0024749995
 50
179.9999571957
 51
270.0000428042
 73
1
 72
1
 10
17.2060356402
 20
2.3543254011
 11
17.3113166986
 21
2.3543254011
 72
2
 10
17.3113167005
 20
2.3568004006
 40
0.0024749995
 50
269.9999571957
 51
0.0000428043
 73
1
 72
1
 10
17.3137917
 20
2.3568004025
 11
17.3137917
 21
2.3766004134
 72
2
 10
17.3113167005
 20
2.3766004153
 40
0.0024749995
 50
359.9999571957
 51
90.0000428043
 73
1
 72
1
 10
17.3113166986
 20
2.3790754148
 11
17.2913006875
 21
2.3790754148
 72
2
 10
17.291300808
 20
2.3815494558
 40
0.002474041
 50
212.9056413127
 51
269.9972091756
 73
1
 72
1
 10
17.2892236864
 20
2.3802054154
 11
17.2414676599
 21
2.4540004564
 72
2
 10
17.2393900382
 20
2.4526554968
 40
0.0024749602
 50
32.9172174468
 51
90.0087853096
 73
1
 72
1
 10
17.2393896587
 20
2.455130457
 11
17.182214627
 21
2.455130457
 72
2
 10
17.1822145567
 20
2.4526552567
 40
0.0024752003
 50
89.998372645
 51
147.602165307
 73
1
 72
1
 10
17.1801246258
 20
2.4539814564
 11
17.1333245999
 21
2.3802244155
 72
2
 10
17.131234669
 20
2.3815506151
 40
0.0024752003
 50
269.998372645
 51
327.602165307
 73
1
 72
1
 10
17.1312345987
 20
2.3790754148
 11
17.1083735861
 21
2.3790754148
 72
2
 10
17.1083735842
 20
2.3766004153
 40
0.0024749995
 50
89.9999571957
 51
180.0000428043
 73
1
 72
1
 10
17.1058985847
 20
2.3766004134
 11
17.1058985847
 21
2.3568004025
 72
2
 10
17.1083735842
 20
2.3568004006
 40
0.0024749995
 50
179.9999571957
 51
270.0000428043
 73
1
 72
1
 10
17.1083735861
 20
2.3543254011
 11
17.185749629
 21
2.3543254011
 97
267
330
357
330
358
330
359
330
35A
330
35B
330
35C
330
35D
330
35E
330
35F
330
360
330
361
330
362
330
363
330
364
330
365
330
366
330
367
330
368
330
369
330
36A
330
36B
330
36C
330
36D
330
36E
330
36F
330
370
330
371
330
372
330
373
330
374
330
375
330
376
330
377
330
378
330
379
330
37A
330
37B
330
37C
330
37D
330
37E
330
37F
330
380
330
381
330
382
330
383
330
384
330
385
330
386
330
387
330
388
330
389
330
38A
330
38B
330
38C
330
38D
330
38E
330
38F
330
390
330
391
330
392
330
393
330
394
330
395
330
396
330
397
330
398
330
399
330
39A
330
39B
330
39C
330
39D
330
39E
330
39F
330
3A0
330
3A1
330
3A2
330
3A3
330
3A4
330
3A5
330
3A6
330
3A7
330
3A8
330
3A9
330
3AA
330
3AB
330
3AC
330
3AD
330
3AE
330
3AF
330
3B0
330
3B1
330
3B2
330
3B3
330
3B4
330
3B5
330
3B6
330
3B7
330
3B8
330
3B9
330
3BA
330
3BB
330
3BC
330
3BD
330
3BE
330
3BF
330
3C0
330
3C1
330
3C2
330
3C3
330
3C4
330
3C5
330
3C6
330
3C7
330
3C8
330
3C9
330
3CA
330
3CB
330
3CC
330
3CD
330
3CE
330
3CF
330
3D0
330
3D1
330
3D2
330
3D3
330
3D4
330
3D5
330
3D6
330
3D7
330
3D8
330
3D9
330
3DA
330
3DB
330
3DC
330
3DD
330
3DE
330
3DF
330
3E0
330
3E1
330
3E2
330
3E3
330
3E4
330
3E5
330
3E6
330
3E7
330
3E8
330
3E9
330
3EA
330
3EB
330
3EC
330
3ED
330
3EE
330
3EF
330
3F0
330
3F1
330
3F2
330
3F3
330
3F4
330
3F5
330
3F6
330
3F7
330
3F8
330
3F9
330
3FA
330
3FB
330
3FC
330
3FD
330
3FE
330
3FF
330
400
330
401
330
402
330
403
330
404
330
405
330
406
330
407
330
408
330
409
330
40A
330
40B
330
40C
330
40D
330
40E
330
40F
330
410
330
411
330
412
330
413
330
414
330
415
330
416
330
417
330
418
330
419
330
41A
330
41B
330
41C
330
41D
330
41E
330
41F
330
420
330
421
330
422
330
423
330
424
330
425
330
426
330
427
330
428
330
429
330
42A
330
42B
330
42C
330
42D
330
42E
330
42F
330
430
330
431
330
432
330
433
330
434
330
435
330
436
330
437
330
438
330
439
330
43A
330
43B
330
43C
330
43D
330
43E
330
43F
330
440
330
441
330
442
330
443
330
444
330
445
330
446
330
447
330
448
330
449
330
44A
330
44B
330
44C
330
44D
330
44E
330
44F
330
450
330
451
330
452
330
453
330
454
330
455
330
456
330
457
330
458
330
459
330
45A
330
45B
330
45C
330
45D
330
45E
330
45F
330
460
330
461
 92
1
 93
6
 72
2
 10
16.963795504
 20
2.3815504143
 40
0.0024749995
 50
179.9999571957
 51
270.0000428043
 73
1
 72
1
 10
16.9613205045
 20
2.3815504162
 11
16.9613205045
 21
2.3939254231
 72
2
 10
16.963795504
 20
2.3939254249
 40
0.0024749995
 50
89.9999571957
 51
180.0000428043
 73
1
 72
1
 10
16.9637955059
 20
2.3964004244
 11
17.0051585288
 21
2.3964004244
 72
2
 10
17.0051585288
 20
2.3877379196
 40
0.0086625048
 50
270.0
 51
90.0
 73
1
 72
1
 10
17.0051585288
 20
2.3790754148
 11
16.9637955059
 21
2.3790754148
 97
267
330
357
330
358
330
359
330
35A
330
35B
330
35C
330
35D
330
35E
330
35F
330
360
330
361
330
362
330
363
330
364
330
365
330
366
330
367
330
368
330
369
330
36A
330
36B
330
36C
330
36D
330
36E
330
36F
330
370
330
371
330
372
330
373
330
374
330
375
330
376
330
377
330
378
330
379
330
37A
330
37B
330
37C
330
37D
330
37E
330
37F
330
380
330
381
330
382
330
383
330
384
330
385
330
386
330
387
330
388
330
389
330
38A
330
38B
330
38C
330
38D
330
38E
330
38F
330
390
330
391
330
392
330
393
330
394
330
395
330
396
330
397
330
398
330
399
330
39A
330
39B
330
39C
330
39D
330
39E
330
39F
330
3A0
330
3A1
330
3A2
330
3A3
330
3A4
330
3A5
330
3A6
330
3A7
330
3A8
330
3A9
330
3AA
330
3AB
330
3AC
330
3AD
330
3AE
330
3AF
330
3B0
330
3B1
330
3B2
330
3B3
330
3B4
330
3B5
330
3B6
330
3B7
330
3B8
330
3B9
330
3BA
330
3BB
330
3BC
330
3BD
330
3BE
330
3BF
330
3C0
330
3C1
330
3C2
330
3C3
330
3C4
330
3C5
330
3C6
330
3C7
330
3C8
330
3C9
330
3CA
330
3CB
330
3CC
330
3CD
330
3CE
330
3CF
330
3D0
330
3D1
330
3D2
330
3D3
330
3D4
330
3D5
330
3D6
330
3D7
330
3D8
330
3D9
330
3DA
330
3DB
330
3DC
330
3DD
330
3DE
330
3DF
330
3E0
330
3E1
330
3E2
330
3E3
330
3E4
330
3E5
330
3E6
330
3E7
330
3E8
330
3E9
330
3EA
330
3EB
330
3EC
330
3ED
330
3EE
330
3EF
330
3F0
330
3F1
330
3F2
330
3F3
330
3F4
330
3F5
330
3F6
330
3F7
330
3F8
330
3F9
330
3FA
330
3FB
330
3FC
330
3FD
330
3FE
330
3FF
330
400
330
401
330
402
330
403
330
404
330
405
330
406
330
407
330
408
330
409
330
40A
330
40B
330
40C
330
40D
330
40E
330
40F
330
410
330
411
330
412
330
413
330
414
330
415
330
416
330
417
330
418
330
419
330
41A
330
41B
330
41C
330
41D
330
41E
330
41F
330
420
330
421
330
422
330
423
330
424
330
425
330
426
330
427
330
428
330
429
330
42A
330
42B
330
42C
330
42D
330
42E
330
42F
330
430
330
431
330
432
330
433
330
434
330
435
330
436
330
437
330
438
330
439
330
43A
330
43B
330
43C
330
43D
330
43E
330
43F
330
440
330
441
330
442
330
443
330
444
330
445
330
446
330
447
330
448
330
449
330
44A
330
44B
330
44C
330
44D
330
44E
330
44F
330
450
330
451
330
452
330
453
330
454
330
455
330
456
330
457
330
458
330
459
330
45A
330
45B
330
45C
330
45D
330
45E
330
45F
330
460
330
461
 92
1
 93
13
 72
2
 10
18.1572301659
 20
2.415180433
 40
0.0024749995
 50
179.9999571957
 51
270.0000428043
 73
1
 72
1
 10
18.1547551663
 20
2.4151804348
 11
18.1547551663
 21
2.4279054419
 72
2
 10
18.1572301659
 20
2.4279054437
 40
0.0024749995
 50
89.9999571957
 51
180.0000428043
 73
1
 72
1
 10
18.1572301677
 20
2.4303804433
 11
18.1940311881
 21
2.4303804433
 72
2
 10
18.1924863006
 20
2.4019259643
 40
0.0284963867
 50
70.3834917948
 51
86.8922743861
 73
1
 72
2
 10
18.1973459106
 20
2.4149676972
 40
0.0145814632
 50
54.6746025112
 51
71.1660573124
 73
1
 72
2
 10
18.2024754016
 20
2.4218216224
 40
0.0060275915
 50
20.9055592135
 51
56.7851676243
 73
1
 72
2
 10
18.2037759605
 20
2.4224819047
 40
0.0045795888
 50
355.6235353944
 51
18.9942678268
 73
1
 72
2
 10
18.2025691502
 20
2.4227756809
 40
0.0058087709
 50
318.8515287446
 51
353.6422345323
 73
1
 72
2
 10
18.198398534
 20
2.4260095887
 40
0.0110815393
 50
306.758405961
 51
320.4502234234
 73
1
 72
2
 10
18.1927693431
 20
2.4337504172
 40
0.0206523367
 50
289.6883413472
 51
306.4184925496
 73
1
 72
2
 10
18.1908418374
 20
2.4381440645
 40
0.0254407115
 50
270.7327484175
 51
290.441894219
 73
1
 72
1
 10
18.1911671865
 20
2.4127054335
 11
18.1572301677
 21
2.4127054335
 97
267
330
357
330
358
330
359
330
35A
330
35B
330
35C
330
35D
330
35E
330
35F
330
360
330
361
330
362
330
363
330
364
330
365
330
366
330
367
330
368
330
369
330
36A
330
36B
330
36C
330
36D
330
36E
330
36F
330
370
330
371
330
372
330
373
330
374
330
375
330
376
330
377
330
378
330
379
330
37A
330
37B
330
37C
330
37D
330
37E
330
37F
330
380
330
381
330
382
330
383
330
384
330
385
330
386
330
387
330
388
330
389
330
38A
330
38B
330
38C
330
38D
330
38E
330
38F
330
390
330
391
330
392
330
393
330
394
330
395
330
396
330
397
330
398
330
399
330
39A
330
39B
330
39C
330
39D
330
39E
330
39F
330
3A0
330
3A1
330
3A2
330
3A3
330
3A4
330
3A5
330
3A6
330
3A7
330
3A8
330
3A9
330
3AA
330
3AB
330
3AC
330
3AD
330
3AE
330
3AF
330
3B0
330
3B1
330
3B2
330
3B3
330
3B4
330
3B5
330
3B6
330
3B7
330
3B8
330
3B9
330
3BA
330
3BB
330
3BC
330
3BD
330
3BE
330
3BF
330
3C0
330
3C1
330
3C2
330
3C3
330
3C4
330
3C5
330
3C6
330
3C7
330
3C8
330
3C9
330
3CA
330
3CB
330
3CC
330
3CD
330
3CE
330
3CF
330
3D0
330
3D1
330
3D2
330
3D3
330
3D4
330
3D5
330
3D6
330
3D7
330
3D8
330
3D9
330
3DA
330
3DB
330
3DC
330
3DD
330
3DE
330
3DF
330
3E0
330
3E1
330
3E2
330
3E3
330
3E4
330
3E5
330
3E6
330
3E7
330
3E8
330
3E9
330
3EA
330
3EB
330
3EC
330
3ED
330
3EE
330
3EF
330
3F0
330
3F1
330
3F2
330
3F3
330
3F4
330
3F5
330
3F6
330
3F7
330
3F8
330
3F9
330
3FA
330
3FB
330
3FC
330
3FD
330
3FE
330
3FF
330
400
330
401
330
402
330
403
330
404
330
405
330
406
330
407
330
408
330
409
330
40A
330
40B
330
40C
330
40D
330
40E
330
40F
330
410
330
411
330
412
330
413
330
414
330
415
330
416
330
417
330
418
330
419
330
41A
330
41B
330
41C
330
41D
330
41E
330
41F
330
420
330
421
330
422
330
423
330
424
330
425
330
426
330
427
330
428
330
429
330
42A
330
42B
330
42C
330
42D
330
42E
330
42F
330
430
330
431
330
432
330
433
330
434
330
435
330
436
330
437
330
438
330
439
330
43A
330
43B
330
43C
330
43D
330
43E
330
43F
330
440
330
441
330
442
330
443
330
444
330
445
330
446
330
447
330
448
330
449
330
44A
330
44B
330
44C
330
44D
330
44E
330
44F
330
450
330
451
330
452
330
453
330
454
330
455
330
456
330
457
330
458
330
459
330
45A
330
45B
330
45C
330
45D
330
45E
330
45F
330
460
330
461
 92
1
 93
6
 72
2
 10
17.0051585288
 20
2.4217179385
 40
0.0086625048
 50
270.0
 51
90.0
 73
1
 72
1
 10
17.0051585288
 20
2.4303804433
 11
16.9637955059
 21
2.4303804433
 72
2
 10
16.963795504
 20
2.4279054437
 40
0.0024749995
 50
89.9999571957
 51
180.0000428043
 73
1
 72
1
 10
16.9613205045
 20
2.4279054419
 11
16.9613205045
 21
2.415530435
 72
2
 10
16.963795504
 20
2.4155304332
 40
0.0024749995
 50
179.9999571957
 51
270.0000428043
 73
1
 72
1
 10
16.9637955059
 20
2.4130554337
 11
17.0051585288
 21
2.4130554337
 97
267
330
357
330
358
330
359
330
35A
330
35B
330
35C
330
35D
330
35E
330
35F
330
360
330
361
330
362
330
363
330
364
330
365
330
366
330
367
330
368
330
369
330
36A
330
36B
330
36C
330
36D
330
36E
330
36F
330
370
330
371
330
372
330
373
330
374
330
375
330
376
330
377
330
378
330
379
330
37A
330
37B
330
37C
330
37D
330
37E
330
37F
330
380
330
381
330
382
330
383
330
384
330
385
330
386
330
387
330
388
330
389
330
38A
330
38B
330
38C
330
38D
330
38E
330
38F
330
390
330
391
330
392
330
393
330
394
330
395
330
396
330
397
330
398
330
399
330
39A
330
39B
330
39C
330
39D
330
39E
330
39F
330
3A0
330
3A1
330
3A2
330
3A3
330
3A4
330
3A5
330
3A6
330
3A7
330
3A8
330
3A9
330
3AA
330
3AB
330
3AC
330
3AD
330
3AE
330
3AF
330
3B0
330
3B1
330
3B2
330
3B3
330
3B4
330
3B5
330
3B6
330
3B7
330
3B8
330
3B9
330
3BA
330
3BB
330
3BC
330
3BD
330
3BE
330
3BF
330
3C0
330
3C1
330
3C2
330
3C3
330
3C4
330
3C5
330
3C6
330
3C7
330
3C8
330
3C9
330
3CA
330
3CB
330
3CC
330
3CD
330
3CE
330
3CF
330
3D0
330
3D1
330
3D2
330
3D3
330
3D4
330
3D5
330
3D6
330
3D7
330
3D8
330
3D9
330
3DA
330
3DB
330
3DC
330
3DD
330
3DE
330
3DF
330
3E0
330
3E1
330
3E2
330
3E3
330
3E4
330
3E5
330
3E6
330
3E7
330
3E8
330
3E9
330
3EA
330
3EB
330
3EC
330
3ED
330
3EE
330
3EF
330
3F0
330
3F1
330
3F2
330
3F3
330
3F4
330
3F5
330
3F6
330
3F7
330
3F8
330
3F9
330
3FA
330
3FB
330
3FC
330
3FD
330
3FE
330
3FF
330
400
330
401
330
402
330
403
330
404
330
405
330
406
330
407
330
408
330
409
330
40A
330
40B
330
40C
330
40D
330
40E
330
40F
330
410
330
411
330
412
330
413
330
414
330
415
330
416
330
417
330
418
330
419
330
41A
330
41B
330
41C
330
41D
330
41E
330
41F
330
420
330
421
330
422
330
423
330
424
330
425
330
426
330
427
330
428
330
429
330
42A
330
42B
330
42C
330
42D
330
42E
330
42F
330
430
330
431
330
432
330
433
330
434
330
435
330
436
330
437
330
438
330
439
330
43A
330
43B
330
43C
330
43D
330
43E
330
43F
330
440
330
441
330
442
330
443
330
444
330
445
330
446
330
447
330
448
330
449
330
44A
330
44B
330
44C
330
44D
330
44E
330
44F
330
450
330
451
330
452
330
453
330
454
330
455
330
456
330
457
330
458
330
459
330
45A
330
45B
330
45C
330
45D
330
45E
330
45F
330
460
330
461
 92
1
 93
8
 72
2
 10
17.2090556207
 20
2.4161446411
 40
0.0024752071
 50
270.0004896793
 51
32.9089806818
 73
1
 72
1
 10
17.211133643
 20
2.4174894361
 11
17.203874639
 21
2.4287054423
 72
2
 10
17.2017960982
 20
2.4273609828
 40
0.0024754602
 50
32.8959418573
 51
89.9875097202
 73
1
 72
1
 10
17.2017966379
 20
2.429836443
 11
17.1956156344
 21
2.429836443
 72
2
 10
17.1956155641
 20
2.4273612427
 40
0.0024752003
 50
89.998372645
 51
147.6021653069
 73
1
 72
1
 10
17.1935256333
 20
2.4286874423
 11
17.1864086293
 21
2.4174704361
 72
2
 10
17.1884985212
 20
2.4161444741
 40
0.0024750401
 50
147.6063258012
 51
270.0025305753
 73
1
 72
1
 10
17.1884986305
 20
2.413669434
 11
17.2090556419
 21
2.413669434
 97
267
330
357
330
358
330
359
330
35A
330
35B
330
35C
330
35D
330
35E
330
35F
330
360
330
361
330
362
330
363
330
364
330
365
330
366
330
367
330
368
330
369
330
36A
330
36B
330
36C
330
36D
330
36E
330
36F
330
370
330
371
330
372
330
373
330
374
330
375
330
376
330
377
330
378
330
379
330
37A
330
37B
330
37C
330
37D
330
37E
330
37F
330
380
330
381
330
382
330
383
330
384
330
385
330
386
330
387
330
388
330
389
330
38A
330
38B
330
38C
330
38D
330
38E
330
38F
330
390
330
391
330
392
330
393
330
394
330
395
330
396
330
397
330
398
330
399
330
39A
330
39B
330
39C
330
39D
330
39E
330
39F
330
3A0
330
3A1
330
3A2
330
3A3
330
3A4
330
3A5
330
3A6
330
3A7
330
3A8
330
3A9
330
3AA
330
3AB
330
3AC
330
3AD
330
3AE
330
3AF
330
3B0
330
3B1
330
3B2
330
3B3
330
3B4
330
3B5
330
3B6
330
3B7
330
3B8
330
3B9
330
3BA
330
3BB
330
3BC
330
3BD
330
3BE
330
3BF
330
3C0
330
3C1
330
3C2
330
3C3
330
3C4
330
3C5
330
3C6
330
3C7
330
3C8
330
3C9
330
3CA
330
3CB
330
3CC
330
3CD
330
3CE
330
3CF
330
3D0
330
3D1
330
3D2
330
3D3
330
3D4
330
3D5
330
3D6
330
3D7
330
3D8
330
3D9
330
3DA
330
3DB
330
3DC
330
3DD
330
3DE
330
3DF
330
3E0
330
3E1
330
3E2
330
3E3
330
3E4
330
3E5
330
3E6
330
3E7
330
3E8
330
3E9
330
3EA
330
3EB
330
3EC
330
3ED
330
3EE
330
3EF
330
3F0
330
3F1
330
3F2
330
3F3
330
3F4
330
3F5
330
3F6
330
3F7
330
3F8
330
3F9
330
3FA
330
3FB
330
3FC
330
3FD
330
3FE
330
3FF
330
400
330
401
330
402
330
403
330
404
330
405
330
406
330
407
330
408
330
409
330
40A
330
40B
330
40C
330
40D
330
40E
330
40F
330
410
330
411
330
412
330
413
330
414
330
415
330
416
330
417
330
418
330
419
330
41A
330
41B
330
41C
330
41D
330
41E
330
41F
330
420
330
421
330
422
330
423
330
424
330
425
330
426
330
427
330
428
330
429
330
42A
330
42B
330
42C
330
42D
330
42E
330
42F
330
430
330
431
330
432
330
433
330
434
330
435
330
436
330
437
330
438
330
439
330
43A
330
43B
330
43C
330
43D
330
43E
330
43F
330
440
330
441
330
442
330
443
330
444
330
445
330
446
330
447
330
448
330
449
330
44A
330
44B
330
44C
330
44D
330
44E
330
44F
330
450
330
451
330
452
330
453
330
454
330
455
330
456
330
457
330
458
330
459
330
45A
330
45B
330
45C
330
45D
330
45E
330
45F
330
460
330
461
 92
1
 93
1
 72
3
 10
17.573550844
 20
2.4034764283
 11
-0.8250004575
 21
0.0
 40
0.218572
 50
0.0
 51
-0.0
 73
1
 97
267
330
357
330
358
330
359
330
35A
330
35B
330
35C
330
35D
330
35E
330
35F
330
360
330
361
330
362
330
363
330
364
330
365
330
366
330
367
330
368
330
369
330
36A
330
36B
330
36C
330
36D
330
36E
330
36F
330
370
330
371
330
372
330
373
330
374
330
375
330
376
330
377
330
378
330
379
330
37A
330
37B
330
37C
330
37D
330
37E
330
37F
330
380
330
381
330
382
330
383
330
384
330
385
330
386
330
387
330
388
330
389
330
38A
330
38B
330
38C
330
38D
330
38E
330
38F
330
390
330
391
330
392
330
393
330
394
330
395
330
396
330
397
330
398
330
399
330
39A
330
39B
330
39C
330
39D
330
39E
330
39F
330
3A0
330
3A1
330
3A2
330
3A3
330
3A4
330
3A5
330
3A6
330
3A7
330
3A8
330
3A9
330
3AA
330
3AB
330
3AC
330
3AD
330
3AE
330
3AF
330
3B0
330
3B1
330
3B2
330
3B3
330
3B4
330
3B5
330
3B6
330
3B7
330
3B8
330
3B9
330
3BA
330
3BB
330
3BC
330
3BD
330
3BE
330
3BF
330
3C0
330
3C1
330
3C2
330
3C3
330
3C4
330
3C5
330
3C6
330
3C7
330
3C8
330
3C9
330
3CA
330
3CB
330
3CC
330
3CD
330
3CE
330
3CF
330
3D0
330
3D1
330
3D2
330
3D3
330
3D4
330
3D5
330
3D6
330
3D7
330
3D8
330
3D9
330
3DA
330
3DB
330
3DC
330
3DD
330
3DE
330
3DF
330
3E0
330
3E1
330
3E2
330
3E3
330
3E4
330
3E5
330
3E6
330
3E7
330
3E8
330
3E9
330
3EA
330
3EB
330
3EC
330
3ED
330
3EE
330
3EF
330
3F0
330
3F1
330
3F2
330
3F3
330
3F4
330
3F5
330
3F6
330
3F7
330
3F8
330
3F9
330
3FA
330
3FB
330
3FC
330
3FD
330
3FE
330
3FF
330
400
330
401
330
402
330
403
330
404
330
405
330
406
330
407
330
408
330
409
330
40A
330
40B
330
40C
330
40D
330
40E
330
40F
330
410
330
411
330
412
330
413
330
414
330
415
330
416
330
417
330
418
330
419
330
41A
330
41B
330
41C
330
41D
330
41E
330
41F
330
420
330
421
330
422
330
423
330
424
330
425
330
426
330
427
330
428
330
429
330
42A
330
42B
330
42C
330
42D
330
42E
330
42F
330
430
330
431
330
432
330
433
330
434
330
435
330
436
330
437
330
438
330
439
330
43A
330
43B
330
43C
330
43D
330
43E
330
43F
330
440
330
441
330
442
330
443
330
444
330
445
330
446
330
447
330
448
330
449
330
44A
330
44B
330
44C
330
44D
330
44E
330
44F
330
450
330
451
330
452
330
453
330
454
330
455
330
456
330
457
330
458
330
459
330
45A
330
45B
330
45C
330
45D
330
45E
330
45F
330
460
330
461
 75
0
 76
1
 98
1
 10
0.0
 20
0.0
  0
LINE
  5
463
100
AcDbEntity
  8
0
100
AcDbLine
 62
7
  6
CONTINUOUS
 10
21.05
 20
2.67
 11
14.7
 21
2.67
  0
LINE
  5
464
100
AcDbEntity
  8
0
100
AcDbLine
 62
7
  6
CONTINUOUS
 10
6.007
 20
0.75
 11
6.007
 21
0.5
  0
LINE
  5
465
100
AcDbEntity
  8
0
100
AcDbLine
 62
7
  6
CONTINUOUS
 10
6.007
 20
15.75
 11
6.007
 21
16.0
  0
LINE
  5
466
100
AcDbEntity
  8
0
100
AcDbLine
 62
7
  6
CONTINUOUS
 10
0.814
 20
8.163397
 11
0.964
 21
8.25
  0
LINE
  5
467
100
AcDbEntity
  8
0
100
AcDbLine
 62
7
  6
CONTINUOUS
 10
0.964
 20
8.25
 11
0.814
 21
8.336603
  0
LINE
  5
468
100
AcDbEntity
  8
0
100
AcDbLine
 62
7
  6
CONTINUOUS
 10
0.964
 20
4.4
 11
0.714
 21
4.4
  0
LINE
  5
469
100
AcDbEntity
  8
0
100
AcDbLine
 62
7
  6
CONTINUOUS
 10
21.05
 20
4.4
 11
21.3
 21
4.4
  0
LINE
  5
46A
100
AcDbEntity
  8
0
100
AcDbLine
 62
7
  6
CONTINUOUS
 10
11.093603
 20
0.6
 11
11.007
 21
0.75
  0
LINE
  5
46B
100
AcDbEntity
  8
0
100
AcDbLine
 62
7
  6
CONTINUOUS
 10
11.007
 20
15.75
 11
11.093603
 21
15.9
  0
LINE
  5
46C
100
AcDbEntity
  8
0
100
AcDbLine
 62
7
  6
CONTINUOUS
 10
8.507
 20
0.75
 11
8.507
 21
0.5
  0
LINE
  5
46D
100
AcDbEntity
  8
0
100
AcDbLine
 62
7
  6
CONTINUOUS
 10
8.507
 20
15.75
 11
8.507
 21
16.0
  0
LINE
  5
46E
100
AcDbEntity
  8
0
100
AcDbLine
 62
7
  6
CONTINUOUS
 10
11.007
 20
0.75
 11
11.007
 21
0.5
  0
LINE
  5
46F
100
AcDbEntity
  8
0
100
AcDbLine
 62
7
  6
CONTINUOUS
 10
11.007
 20
15.75
 11
11.007
 21
16.0
  0
LINE
  5
470
100
AcDbEntity
  8
0
100
AcDbLine
 62
7
  6
CONTINUOUS
 10
0.964
 20
8.25
 11
0.714
 21
8.25
  0
LINE
  5
471
100
AcDbEntity
  8
0
100
AcDbLine
 62
7
  6
CONTINUOUS
 10
21.05
 20
8.25
 11
21.3
 21
8.25
  0
LINE
  5
472
100
AcDbEntity
  8
0
100
AcDbLine
 62
7
  6
CONTINUOUS
 10
13.507
 20
0.75
 11
13.507
 21
0.5
  0
LINE
  5
473
100
AcDbEntity
  8
0
100
AcDbLine
 62
7
  6
CONTINUOUS
 10
13.507
 20
15.75
 11
13.507
 21
16.0
  0
LINE
  5
474
100
AcDbEntity
  8
0
100
AcDbLine
 62
7
  6
CONTINUOUS
 10
14.7
 20
2.67
 11
14.7
 21
0.75
  0
LINE
  5
475
100
AcDbEntity
  8
0
100
AcDbLine
 62
7
  6
CONTINUOUS
 10
11.007
 20
0.75
 11
10.920397
 21
0.6
  0
LINE
  5
476
100
AcDbEntity
  8
0
100
AcDbLine
 62
7
  6
CONTINUOUS
 10
0.964
 20
12.1
 11
0.714
 21
12.1
  0
LINE
  5
477
100
AcDbEntity
  8
0
100
AcDbLine
 62
7
  6
CONTINUOUS
 10
21.05
 20
12.1
 11
21.3
 21
12.1
  0
LINE
  5
478
100
AcDbEntity
  8
0
100
AcDbLine
 62
7
  6
CONTINUOUS
 10
10.920397
 20
15.9
 11
11.007
 21
15.75
  0
LINE
  5
479
100
AcDbEntity
  8
0
100
AcDbLine
 62
7
  6
CONTINUOUS
 10
15.2229827477
 20
1.0139932523
 11
15.2229827477
 21
0.7919022523
  0
LINE
  5
47A
100
AcDbEntity
  8
0
100
AcDbLine
 62
7
  6
CONTINUOUS
 10
15.2229827477
 20
1.0639932523
 11
15.2229827477
 21
1.1639932523
  0
LINE
  5
47B
100
AcDbEntity
  8
0
100
AcDbLine
 62
7
  6
CONTINUOUS
 10
15.2229827477
 20
1.2139932523
 11
15.2229827477
 21
1.4360842523
  0
LINE
  5
47C
100
AcDbEntity
  8
0
100
AcDbLine
 62
7
  6
CONTINUOUS
 10
15.8276527477
 20
0.9312952523
 11
15.8276527477
 21
1.2966912523
  0
LINE
  5
47D
100
AcDbEntity
  8
0
100
AcDbLine
 62
7
  6
CONTINUOUS
 10
16.007
 20
0.75
 11
16.007
 21
0.5
  0
LINE
  5
47E
100
AcDbEntity
  8
0
100
AcDbLine
 62
7
  6
CONTINUOUS
 10
16.007
 20
15.75
 11
16.007
 21
16.0
  0
LINE
  5
47F
100
AcDbEntity
  8
0
100
AcDbLine
 62
7
  6
CONTINUOUS
 10
16.4340437477
 20
1.3660842523
 11
16.4340437477
 21
0.8619022523
  0
LINE
  5
480
100
AcDbEntity
  8
0
100
AcDbLine
 62
7
  6
CONTINUOUS
 10
21.2
 20
8.336603
 11
21.05
 21
8.25
  0
LINE
  5
481
100
AcDbEntity
  8
0
100
AcDbLine
 62
7
  6
CONTINUOUS
 10
21.05
 20
8.25
 11
21.2
 21
8.163397
  0
LINE
  5
482
100
AcDbEntity
  8
0
100
AcDbLine
 62
7
  6
CONTINUOUS
 10
16.7
 20
2.67
 11
16.7
 21
0.75
  0
LINE
  5
483
100
AcDbEntity
  8
0
100
AcDbLine
 62
7
  6
CONTINUOUS
 10
17.5
 20
1.37
 11
17.5
 21
1.0
  0
LINE
  5
484
100
AcDbEntity
  8
0
100
AcDbLine
 62
7
  6
CONTINUOUS
 10
18.507
 20
0.75
 11
18.507
 21
0.5
  0
LINE
  5
485
100
AcDbEntity
  8
0
100
AcDbLine
 62
7
  6
CONTINUOUS
 10
18.507
 20
15.75
 11
18.507
 21
16.0
  0
LINE
  5
486
100
AcDbEntity
  8
0
100
AcDbLine
 62
7
  6
CONTINUOUS
 10
21.05
 20
15.75
 11
0.964
 21
15.75
  0
LINE
  5
487
100
AcDbEntity
  8
0
100
AcDbLine
 62
7
  6
CONTINUOUS
 10
11.093603
 20
15.9
 11
10.920397
 21
15.9
  0
LINE
  5
488
100
AcDbEntity
  8
0
100
AcDbLine
 62
7
  6
CONTINUOUS
 10
18.875
 20
1.0
 11
18.875
 21
0.75
  0
LINE
  5
489
100
AcDbEntity
  8
0
100
AcDbLine
 62
7
  6
CONTINUOUS
 10
20.25
 20
1.37
 11
20.25
 21
1.0
  0
LINE
  5
48A
100
AcDbEntity
  8
0
100
AcDbLine
 62
7
  6
CONTINUOUS
 10
21.05
 20
0.75
 11
21.05
 21
15.75
  0
LINE
  5
48B
100
AcDbEntity
  8
0
100
AcDbLine
 62
7
  6
CONTINUOUS
 10
21.2
 20
8.163397
 11
21.2
 21
8.336603
  0
LWPOLYLINE
  5
48C
100
AcDbEntity
  8
0
100
AcDbPolyline
 62
7
  6
CONTINUOUS
 90
5
 70
0
 10
17.9188598878
 20
9.053029953
 10
17.9399521411
 20
9.0608403198
 10
17.9640170896
 20
9.0617996673
 10
17.9901290803
 20
9.0558706373
 10
18.017284644
 20
9.0432810792
  0
LINE
  5
48D
100
AcDbEntity
  8
0
100
AcDbLine
 62
7
  6
CONTINUOUS
 10
17.9188598878
 20
9.053029953
 11
17.7796662191
 21
8.9726669306
  0
LINE
  5
48E
100
AcDbEntity
  8
0
100
AcDbLine
 62
7
  6
CONTINUOUS
 10
18.017284644
 20
9.0432810792
 11
17.8780909753
 21
8.9629180568
  0
LWPOLYLINE
  5
48F
100
AcDbEntity
  8
0
100
AcDbPolyline
 62
7
  6
CONTINUOUS
 90
4
 70
0
 10
17.7309968261
 20
4.5001970321
 10
17.7084099428
 20
4.5155037649
 10
17.6881841234
 20
4.5352109523
 10
17.6736373933
 20
4.5585394439
  0
LWPOLYLINE
  5
490
100
AcDbEntity
  8
0
100
AcDbPolyline
 62
7
  6
CONTINUOUS
 90
6
 70
0
 10
17.7400476344
 20
4.4801917775
 10
17.7084822988
 20
4.5030171575
 10
17.6860159896
 20
4.5288904507
 10
17.6721915707
 20
4.5571125595
 10
17.6670503075
 20
4.5861644124
 10
17.666999024
 20
4.589435477
  0
LWPOLYLINE
  5
491
100
AcDbEntity
  8
0
100
AcDbPolyline
 62
7
  6
CONTINUOUS
 90
5
 70
0
 10
17.7796662191
 20
8.9726669306
 10
17.7623547058
 20
8.9583042385
 10
17.7494917229
 20
8.9379426253
 10
17.7415707371
 20
8.9123640854
 10
17.7388961475
 20
8.8825515878
  0
LINE
  5
492
100
AcDbEntity
  8
0
100
AcDbLine
 62
7
  6
CONTINUOUS
 10
17.1445639562
 20
7.595630279
 11
17.1446211426
 21
7.5957062588
  0
LWPOLYLINE
  5
493
100
AcDbEntity
  8
0
100
AcDbPolyline
 62
7
  6
CONTINUOUS
 90
11
 70
0
 10
17.1446211426
 20
7.5957062588
 10
17.1477943842
 20
7.5997375747
 10
17.1619832961
 20
7.6141458285
 10
17.1761136793
 20
7.6241797077
 10
17.1898833691
 20
7.6309748691
 10
17.2035118119
 20
7.6354287085
 10
17.2174999066
 20
7.6380566828
 10
17.2322223672
 20
7.6390016318
 10
17.2476411221
 20
7.6382324339
 10
17.2635341825
 20
7.6357482664
 10
17.2796643549
 20
7.6316170388
  0
LINE
  5
494
100
AcDbEntity
  8
AXIS
100
AcDbLine
 62
7
  6
CONTINUOUS
 10
17.14462135
 20
7.5957065341
 11
17.2383949971
 21
7.7129941017
  0
LWPOLYLINE
  5
495
100
AcDbEntity
  8
AXIS
100
AcDbPolyline
 62
7
  6
CONTINUOUS
 90
6
 70
0
 10
17.2383949971
 20
7.7129941017
 10
17.3526188228
 20
7.8393080734
 10
17.4879244396
 20
7.9702219471
 10
17.6349893197
 20
8.0938799821
 10
17.7920461294
 20
8.2081624569
 10
17.957753968
 20
8.3117691486
  0
LINE
  5
496
100
AcDbEntity
  8
02___PRT_ALL_AXES
100
AcDbLine
 62
7
  6
CONTINUOUS
 10
17.2218211438
 20
7.754173895
 11
17.2423245812
 21
7.7680830419
  0
LINE
  5
497
100
AcDbEntity
  8
02___PRT_ALL_AXES
100
AcDbLine
 62
7
  6
CONTINUOUS
 10
17.2423245812
 20
7.7680830419
 11
17.2283947603
 21
7.7600404262
  0
LWPOLYLINE
  5
498
100
AcDbEntity
  8
0
100
AcDbPolyline
 62
7
  6
CONTINUOUS
 90
6
 70
0
 10
17.9577564379
 20
8.3117648708
 10
17.9757312967
 20
8.3208117733
 10
18.017613906
 20
8.3332359669
 10
18.0635608882
 20
8.3361016677
 10
18.1126475189
 20
8.3293512188
 10
18.1638858884
 20
8.3131204952
  0
LWPOLYLINE
  5
499
100
AcDbEntity
  8
0
100
AcDbPolyline
 62
7
  6
CONTINUOUS
 90
12
 70
0
 10
17.1445628291
 20
7.5956286342
 10
17.1319631745
 20
7.5754074332
 10
17.1194770627
 20
7.5431371522
 10
17.1125317313
 20
7.5059656667
 10
17.1112927957
 20
7.4648221696
 10
17.1157659231
 20
7.4207763248
 10
17.1257832447
 20
7.3750192811
 10
17.1410393459
 20
7.3287012576
 10
17.1611323298
 20
7.2829295987
 10
17.185554418
 20
7.2388206956
 10
17.2137077606
 20
7.1974527064
 10
17.2449218257
 20
7.159839057
  0
LWPOLYLINE
  5
49A
100
AcDbEntity
  8
0
100
AcDbPolyline
 62
7
  6
CONTINUOUS
 90
8
 70
0
 10
17.2796644847
 20
7.6316171611
 10
17.3321022934
 20
7.6822614547
 10
17.3852689299
 20
7.7321418803
 10
17.4387725407
 20
7.7809000847
 10
17.4921579831
 20
7.8281550894
 10
17.5456446779
 20
7.8741365848
 10
17.6013558366
 20
7.9206108131
 10
17.6620421831
 20
7.9696185889
  0
LWPOLYLINE
  5
49B
100
AcDbEntity
  8
0
100
AcDbPolyline
 62
7
  6
CONTINUOUS
 90
3
 70
0
 10
18.2652886549
 20
8.2565856077
 10
18.1837410599
 20
8.2045858214
 10
18.1049073898
 20
8.1514385335
  0
LWPOLYLINE
  5
49C
100
AcDbEntity
  8
0
100
AcDbPolyline
 62
7
  6
CONTINUOUS
 90
3
 70
0
 10
17.9975999838
 20
8.2112654232
 10
18.0793314293
 20
8.2627917514
 10
18.1638858884
 20
8.3131204952
  0
LWPOLYLINE
  5
49D
100
AcDbEntity
  8
02___PRT_ALL_AXES
100
AcDbPolyline
 62
7
  6
CONTINUOUS
 90
5
 70
0
 10
17.2423245812
 20
7.7680830419
 10
17.2628320996
 20
7.77785144
 10
17.2827145289
 20
7.7831787828
 10
17.3013697921
 20
7.7839043798
 10
17.3023195381
 20
7.7836848058
  0
LINE
  5
49E
100
AcDbEntity
  8
02___PRT_ALL_AXES
100
AcDbLine
 62
7
  6
CONTINUOUS
 10
17.1242402809
 20
7.5635515427
 11
17.1242401649
 21
7.5796362954
  0
LWPOLYLINE
  5
49F
100
AcDbEntity
  8
02___PRT_ALL_AXES
100
AcDbPolyline
 62
7
  6
CONTINUOUS
 90
10
 70
0
 10
17.1242401649
 20
7.5796362954
 10
17.1258225346
 20
7.6014346778
 10
17.1305215641
 20
7.6243978796
 10
17.1381944759
 20
7.6478281755
 10
17.1486081324
 20
7.6710136479
 10
17.1614461198
 20
7.6932498179
 10
17.1763183625
 20
7.7138610507
 10
17.1927729749
 20
7.7322210845
 10
17.2103099919
 20
7.7477720588
 10
17.2283947603
 20
7.7600404262
  0
LWPOLYLINE
  5
4A0
100
AcDbEntity
  8
02___PRT_ALL_AXES
100
AcDbPolyline
 62
7
  6
CONTINUOUS
 90
9
 70
0
 10
17.1242402809
 20
7.5635515427
 10
17.1260342778
 20
7.5882652553
 10
17.1313617586
 20
7.614299571
 10
17.1400608507
 20
7.6408634503
 10
17.1518672365
 20
7.6671497631
 10
17.166422185
 20
7.6923598133
 10
17.1832834513
 20
7.7157276061
 10
17.2019387145
 20
7.736543123
 10
17.2218211438
 20
7.754173895
  0
LWPOLYLINE
  5
4A1
100
AcDbEntity
  8
0
100
AcDbPolyline
 62
7
  6
CONTINUOUS
 90
4
 70
0
 10
17.4070193029
 20
7.5076088331
 10
17.4002151503
 20
7.490072018
 10
17.3946400621
 20
7.4670402701
 10
17.392754226
 20
7.445233003
  0
LWPOLYLINE
  5
4A2
100
AcDbEntity
  8
0
100
AcDbPolyline
 62
7
  6
CONTINUOUS
 90
12
 70
0
 10
17.6620421831
 20
7.8842303039
 10
17.6629280707
 20
7.8854581747
 10
17.6833614196
 20
7.9046577939
 10
17.7087215833
 20
7.9217870812
 10
17.7383905922
 20
7.9364287118
 10
17.7716456135
 20
7.9482259026
 10
17.8076765042
 20
7.9568910802
 10
17.8456054822
 20
7.9622128739
 10
17.8845084382
 20
7.9640612634
 10
17.9234373766
 20
7.9623907573
 10
17.9614434432
 20
7.9572415242
 10
17.9975999838
 20
7.948738449
  0
LWPOLYLINE
  5
4A3
100
AcDbEntity
  8
0
100
AcDbPolyline
 62
7
  6
CONTINUOUS
 90
7
 70
0
 10
17.412465005
 20
7.5575770995
 10
17.4109346305
 20
7.5557603405
 10
17.409592762
 20
7.5536928295
 10
17.4084965947
 20
7.551473236
 10
17.4076865031
 20
7.5491981544
 10
17.407188444
 20
7.5469552338
 10
17.4070193029
 20
7.5448215937
  0
LWPOLYLINE
  5
4A4
100
AcDbEntity
  8
0
100
AcDbPolyline
 62
7
  6
CONTINUOUS
 90
8
 70
0
 10
17.7812648977
 20
7.9031485803
 10
17.7226815034
 20
7.8528940683
 10
17.6690074979
 20
7.8053684744
 10
17.6174921648
 20
7.7583949656
 10
17.5660045518
 20
7.7100872514
 10
17.5143594418
 20
7.6602315623
 10
17.463038927
 20
7.6092576287
 10
17.412465005
 20
7.5575770995
  0
LINE
  5
4A5
100
AcDbEntity
  8
0
100
AcDbLine
 62
7
  6
CONTINUOUS
 10
18.0165689867
 20
7.9596901425
 11
17.9975999838
 21
7.948738449
  0
LINE
  5
4A6
100
AcDbEntity
  8
0
100
AcDbLine
 62
7
  6
CONTINUOUS
 10
17.6736373933
 20
4.5585394439
 11
17.6671948668
 21
4.5840583851
  0
LINE
  5
4A7
100
AcDbEntity
  8
02___PRT_ALL_AXES
100
AcDbLine
 62
7
  6
CONTINUOUS
 10
17.1242402809
 20
7.5635515427
 11
17.1247732352
 21
7.5568250783
  0
LINE
  5
4A8
100
AcDbEntity
  8
0
100
AcDbLine
 62
7
  6
CONTINUOUS
 10
17.2740182623
 20
7.6189733952
 11
17.2740182623
 21
7.1343889415
  0
LWPOLYLINE
  5
4A9
100
AcDbEntity
  8
0
100
AcDbPolyline
 62
7
  6
CONTINUOUS
 90
7
 70
0
 10
17.2740182623
 20
7.6189733978
 10
17.2741966197
 20
7.6211223148
 10
17.2747218202
 20
7.623375199
 10
17.2755708483
 20
7.6256417455
 10
17.276708945
 20
7.6278294408
 10
17.2780912378
 20
7.6298491141
 10
17.2796644847
 20
7.6316171611
  0
LINE
  5
4AA
100
AcDbEntity
  8
0
100
AcDbLine
 62
7
  6
CONTINUOUS
 10
19.0221243468
 20
8.3024250241
 11
19.1613180156
 21
8.3827880466
  0
LINE
  5
4AB
100
AcDbEntity
  8
0
100
AcDbLine
 62
7
  6
CONTINUOUS
 10
19.0516520288
 20
8.27125468
 11
19.1908456976
 21
8.3516177024
  0
LWPOLYLINE
  5
4AC
100
AcDbEntity
  8
0
100
AcDbPolyline
 62
7
  6
CONTINUOUS
 90
4
 70
0
 10
17.392754226
 20
7.445233003
 10
17.3946400621
 20
7.4256032988
 10
17.4002151503
 20
7.4090090698
 10
17.4070193029
 20
7.3993289665
  0
LWPOLYLINE
  5
4AD
100
AcDbEntity
  8
0
100
AcDbPolyline
 62
7
  6
CONTINUOUS
 90
6
 70
0
 10
17.4070193029
 20
7.0602371334
 10
17.407191327
 20
7.0582976955
 10
17.4076978782
 20
7.0566616545
 10
17.4085167582
 20
7.0553922837
 10
17.4096144423
 20
7.0545412727
 10
17.4104368876
 20
7.0542355909
  0
LINE
  5
4AE
100
AcDbEntity
  8
0
100
AcDbLine
 62
7
  6
CONTINUOUS
 10
17.4070193029
 20
7.060237136
 11
17.4070193029
 21
7.5448215897
  0
LWPOLYLINE
  5
4AF
100
AcDbEntity
  8
0
100
AcDbPolyline
 62
7
  6
CONTINUOUS
 90
14
 70
0
 10
17.6354990146
 20
8.0203945094
 10
17.6387985646
 20
8.038869078
 10
17.6481948993
 20
8.0573866619
 10
17.6633528926
 20
8.0765498145
 10
17.6837929661
 20
8.0963136342
 10
17.7087836762
 20
8.1163268847
 10
17.7375562677
 20
8.1361058113
 10
17.7701065893
 20
8.1554567866
 10
17.8064751556
 20
8.1738512695
 10
17.8455534904
 20
8.1899900736
 10
17.8856125573
 20
8.2024993001
 10
17.925005394
 20
8.2104387331
 10
17.9624328092
 20
8.2133879453
 10
17.9975999838
 20
8.2112654232
  0
LWPOLYLINE
  5
4B0
100
AcDbEntity
  8
0
100
AcDbPolyline
 62
7
  6
CONTINUOUS
 90
3
 70
0
 10
17.6913953202
 20
7.8413502388
 10
17.6880381324
 20
7.8252276429
 10
17.6883128328
 20
7.8224623636
  0
LINE
  5
4B1
100
AcDbEntity
  8
0
100
AcDbLine
 62
7
  6
CONTINUOUS
 10
17.6913935381
 20
7.8413504369
 11
17.6837224973
 21
7.8183978557
  0
LWPOLYLINE
  5
4B2
100
AcDbEntity
  8
0
100
AcDbPolyline
 62
7
  6
CONTINUOUS
 90
6
 70
0
 10
17.6756319196
 20
7.331397322
 10
17.701356765
 20
7.3598266139
 10
17.7274552966
 20
7.3900809644
 10
17.7531821838
 20
7.4214195254
 10
17.777913036
 20
7.4531106169
 10
17.8010642314
 20
7.4843338674
  0
LWPOLYLINE
  5
4B3
100
AcDbEntity
  8
AXIS
100
AcDbPolyline
 62
7
  6
CONTINUOUS
 90
5
 70
0
 10
17.7023531432
 20
7.3609816511
 10
17.7133909515
 20
7.3731509312
 10
17.7261307657
 20
7.3880644644
 10
17.7383403818
 20
7.4032534836
 10
17.7391620599
 20
7.4043412639
  0
LINE
  5
4B4
100
AcDbEntity
  8
AXIS
100
AcDbLine
 62
7
  6
CONTINUOUS
 10
17.7763118058
 20
7.4212249356
 11
17.7905320883
 21
7.4306093773
  0
LINE
  5
4B5
100
AcDbEntity
  8
0
100
AcDbLine
 62
7
  6
CONTINUOUS
 10
19.2485091133
 20
8.2517422911
 11
19.1093154445
 21
8.1713792687
  0
LINE
  5
4B6
100
AcDbEntity
  8
0
100
AcDbLine
 62
7
  6
CONTINUOUS
 10
19.2607398796
 20
8.2105852826
 11
19.1215462109
 21
8.1302222602
  0
LWPOLYLINE
  5
4B7
100
AcDbEntity
  8
AXIS
100
AcDbPolyline
 62
7
  6
CONTINUOUS
 90
13
 70
0
 10
17.7905320883
 20
7.4306093773
 10
17.8047523707
 20
7.4376450054
 10
17.8186831693
 20
7.4421885946
 10
17.832040893
 20
7.4441476506
 10
17.8445536171
 20
7.4434822927
 10
17.8559666187
 20
7.4402060656
 10
17.8660475619
 20
7.4343856639
 10
17.8745912279
 20
7.4261395741
 10
17.8814236922
 20
7.415635663
 10
17.8864058656
 20
7.4030877597
 10
17.8894363253
 20
7.3887513035
 10
17.89045338
 20
7.3729181432
 10
17.8903585713
 20
7.3713327196
  0
LWPOLYLINE
  5
4B8
100
AcDbEntity
  8
0
100
AcDbPolyline
 62
7
  6
CONTINUOUS
 90
4
 70
0
 10
18.0583042569
 20
7.5220039226
 10
18.2139552582
 20
7.5918254748
 10
18.3641447342
 20
7.6669946073
 10
18.5070479091
 20
7.7465997696
  0
LWPOLYLINE
  5
4B9
100
AcDbEntity
  8
0
100
AcDbPolyline
 62
7
  6
CONTINUOUS
 90
4
 70
0
 10
18.5070479091
 20
7.7465997696
 10
18.5106790151
 20
7.7480562706
 10
18.514431569
 20
7.7482132737
 10
18.5177916042
 20
7.7470993362
  0
LINE
  5
4BA
100
AcDbEntity
  8
0
100
AcDbLine
 62
7
  6
CONTINUOUS
 10
17.6671948668
 20
4.5840583851
 11
17.6669990146
 21
4.5893983797
  0
LWPOLYLINE
  5
4BB
100
AcDbEntity
  8
0
100
AcDbPolyline
 62
7
  6
CONTINUOUS
 90
5
 70
0
 10
17.6852169431
 20
7.2430939665
 10
17.6846142737
 20
7.2642783908
 10
17.6828087064
 20
7.2861308107
 10
17.6798092423
 20
7.3085426585
 10
17.6756319196
 20
7.331397322
  0
LINE
  5
4BC
100
AcDbEntity
  8
0
100
AcDbLine
 62
7
  6
CONTINUOUS
 10
17.6620421831
 20
7.9696185889
 11
17.6620421831
 21
7.7990172532
  0
LINE
  5
4BD
100
AcDbEntity
  8
AXIS
100
AcDbLine
 62
7
  6
CONTINUOUS
 10
17.6669990146
 20
7.0862374477
 11
17.6669990146
 21
4.5893983797
  0
LWPOLYLINE
  5
4BE
100
AcDbEntity
  8
AXIS
100
AcDbPolyline
 62
7
  6
CONTINUOUS
 90
11
 70
0
 10
17.6906107965
 20
7.2575396626
 10
17.6916278512
 20
7.2745472094
 10
17.6946583109
 20
7.2923829182
 10
17.6996404843
 20
7.3106837054
 10
17.7064729486
 20
7.3290770197
 10
17.7150166146
 20
7.3471884263
 10
17.7250975578
 20
7.3646492291
 10
17.7365105594
 20
7.3811039766
 10
17.7490232836
 20
7.3962176976
 10
17.7623810073
 20
7.4096827202
 10
17.7763118058
 20
7.4212249356
  0
LWPOLYLINE
  5
4BF
100
AcDbEntity
  8
0
100
AcDbPolyline
 62
7
  6
CONTINUOUS
 90
5
 70
0
 10
17.6756319196
 20
7.1670921474
 10
17.6798081805
 20
7.184584495
 10
17.6828077186
 20
7.203147345
 10
17.684613723
 20
7.2226830121
 10
17.6852169431
 20
7.2430939665
  0
LWPOLYLINE
  5
4C0
100
AcDbEntity
  8
AXIS
100
AcDbPolyline
 62
7
  6
CONTINUOUS
 90
3
 70
0
 10
17.8038011189
 20
7.193830838
 10
17.7968678571
 20
7.1866287468
 10
17.7823379344
 20
7.1724090232
  0
LWPOLYLINE
  5
4C1
100
AcDbEntity
  8
0
100
AcDbPolyline
 62
7
  6
CONTINUOUS
 90
4
 70
0
 10
18.8742304551
 20
8.0430082174
 10
18.8695599513
 20
8.0390179415
 10
18.8654453716
 20
8.0309899365
 10
18.8640357795
 20
8.0204831109
  0
LWPOLYLINE
  5
4C2
100
AcDbEntity
  8
0
100
AcDbPolyline
 62
7
  6
CONTINUOUS
 90
7
 70
0
 10
17.9868391826
 20
7.2772739615
 10
17.9577177298
 20
7.2550692586
 10
17.9277270955
 20
7.2333575147
 10
17.8969594512
 20
7.2122785203
 10
17.8655215294
 20
7.1919755024
 10
17.8335138862
 20
7.1725813324
 10
17.8010642314
 20
7.1542391601
  0
LINE
  5
4C3
100
AcDbEntity
  8
AXIS
100
AcDbLine
 62
7
  6
CONTINUOUS
 10
17.7918601037
 20
7.2007248304
 11
17.7905320883
 21
7.1998484285
  0
LINE
  5
4C4
100
AcDbEntity
  8
02___PRT_ALL_AXES
100
AcDbLine
 62
7
  6
CONTINUOUS
 10
17.869038934
 20
7.2055647011
 11
17.8551091131
 21
7.1975220853
  0
LWPOLYLINE
  5
4C5
100
AcDbEntity
  8
0
100
AcDbPolyline
 62
7
  6
CONTINUOUS
 90
4
 70
0
 10
18.5070479091
 20
7.5055065362
 10
18.3641323717
 20
7.4258948445
 10
18.213949148
 20
7.3507293453
 10
18.0583042569
 20
7.2809106891
  0
LWPOLYLINE
  5
4C6
100
AcDbEntity
  8
02___PRT_ALL_AXES
100
AcDbPolyline
 62
7
  6
CONTINUOUS
 90
9
 70
0
 10
17.8690389339
 20
7.205567592
 10
17.8632136679
 20
7.2025539656
 10
17.8518196114
 20
7.1987722228
 10
17.8411780799
 20
7.1980993034
 10
17.8317541594
 20
7.2005646172
 10
17.8239597203
 20
7.2060604181
 10
17.818135417
 20
7.2143465134
 10
17.8145357997
 20
7.2250607608
 10
17.8133181887
 20
7.2377348963
  0
LWPOLYLINE
  5
4C7
100
AcDbEntity
  8
AXIS
100
AcDbPolyline
 62
7
  6
CONTINUOUS
 90
12
 70
0
 10
17.7905320883
 20
7.1998484285
 10
17.7763118058
 20
7.1928128004
 10
17.7623810073
 20
7.1882692112
 10
17.7490232836
 20
7.1863101552
 10
17.7365105594
 20
7.1869755131
 10
17.7250975578
 20
7.1902517402
 10
17.7150166146
 20
7.1960721419
 10
17.7064729486
 20
7.2043182317
 10
17.6996404843
 20
7.2148221428
 10
17.6946583109
 20
7.2273700461
 10
17.6916278512
 20
7.2417065023
 10
17.6906107965
 20
7.2575396626
  0
LWPOLYLINE
  5
4C8
100
AcDbEntity
  8
02___PRT_ALL_AXES
100
AcDbPolyline
 62
7
  6
CONTINUOUS
 90
5
 70
0
 10
17.8551091131
 20
7.1975220853
 10
17.8415199217
 20
7.191221762
 10
17.8284541126
 20
7.1882549312
 10
17.8164125939
 20
7.1887349116
 10
17.8058587452
 20
7.1926428938
  0
LWPOLYLINE
  5
4C9
100
AcDbEntity
  8
0
100
AcDbPolyline
 62
7
  6
CONTINUOUS
 90
4
 70
0
 10
18.0505773743
 20
7.2850706545
 10
18.2060442529
 20
7.3546917073
 10
18.3561058147
 20
7.4297036305
 10
18.4995349146
 20
7.5095513495
  0
LWPOLYLINE
  5
4CA
100
AcDbEntity
  8
0
100
AcDbPolyline
 62
7
  6
CONTINUOUS
 90
4
 70
0
 10
18.0583042569
 20
7.2809106891
 10
18.0543535889
 20
7.2796132314
 10
18.0509487135
 20
7.2792928168
 10
18.0484044304
 20
7.2799568043
  0
LWPOLYLINE
  5
4CB
100
AcDbEntity
  8
0
100
AcDbPolyline
 62
7
  6
CONTINUOUS
 90
4
 70
0
 10
17.2755499425
 20
7.1295362396
 10
17.2747100263
 20
7.1308248473
 10
17.2741936305
 20
7.1324612657
 10
17.2740182623
 20
7.1343889375
  0
LWPOLYLINE
  5
4CC
100
AcDbEntity
  8
0
100
AcDbPolyline
 62
7
  6
CONTINUOUS
 90
6
 70
0
 10
17.7208823603
 20
7.2750168537
 10
17.7218322918
 20
7.2623276934
 10
17.7246561747
 20
7.2510815402
 10
17.7292769807
 20
7.2415851598
 10
17.7355686664
 20
7.2340975887
 10
17.7412834089
 20
7.2299257579
  0
LINE
  5
4CD
100
AcDbEntity
  8
0
100
AcDbLine
 62
7
  6
CONTINUOUS
 10
17.7388961475
 20
8.169487843
 11
17.7388961475
 21
8.8825515878
  0
LWPOLYLINE
  5
4CE
100
AcDbEntity
  8
0
100
AcDbPolyline
 62
7
  6
CONTINUOUS
 90
4
 70
0
 10
18.9739043122
 20
8.1284353764
 10
18.966161787
 20
8.1212542705
 10
18.9612948193
 20
8.1104964962
 10
18.9596347872
 20
8.0968950064
  0
LWPOLYLINE
  5
4CF
100
AcDbEntity
  8
0
100
AcDbPolyline
 62
7
  6
CONTINUOUS
 90
4
 70
0
 10
19.0428016416
 20
8.0091009891
 10
19.0505441668
 20
8.0162820951
 10
19.0554111346
 20
8.0270398693
 10
19.0570711666
 20
8.0406413591
  0
LWPOLYLINE
  5
4D0
100
AcDbEntity
  8
0
100
AcDbPolyline
 62
7
  6
CONTINUOUS
 90
4
 70
0
 10
18.9234385177
 20
7.9577768279
 10
18.9281090216
 20
7.9617671038
 10
18.9322236012
 20
7.9697951088
 10
18.9336331934
 20
7.9803019343
  0
LWPOLYLINE
  5
4D1
100
AcDbEntity
  8
0
100
AcDbPolyline
 62
7
  6
CONTINUOUS
 90
7
 70
0
 10
18.4995349146
 20
7.5095513495
 10
18.5031643447
 20
7.5120500836
 10
18.506932129
 20
7.5153850881
 10
18.5104496433
 20
7.5192502792
 10
18.5134854712
 20
7.5234059766
 10
18.5158572844
 20
7.5276542533
 10
18.5173173672
 20
7.531590209
  0
LWPOLYLINE
  5
4D2
100
AcDbEntity
  8
AXIS
100
AcDbPolyline
 62
7
  6
CONTINUOUS
 90
7
 70
0
 10
18.4833384963
 20
7.4197106138
 10
18.3164471732
 20
7.3244274999
 10
18.1435302003
 20
7.2414340351
 10
17.9663899392
 20
7.1714920076
 10
17.7884229877
 20
7.1155078561
 10
17.6245834475
 20
7.0760127701
 10
17.4776172528
 20
7.0501438593
  0
LWPOLYLINE
  5
4D3
100
AcDbEntity
  8
0
100
AcDbPolyline
 62
7
  6
CONTINUOUS
 90
27
 70
0
 10
17.2740182623
 20
7.1343889415
 10
17.258714272
 20
7.1489158705
 10
17.2435238103
 20
7.1648447727
 10
17.2288144294
 20
7.1818339479
 10
17.2148121265
 20
7.1996007558
 10
17.2014982354
 20
7.2181368158
 10
17.188466366
 20
7.2380921415
 10
17.1752738569
 20
7.2605032616
 10
17.1617335092
 20
7.2864602473
 10
17.148169907
 20
7.3166384573
 10
17.1353837673
 20
7.3511770375
 10
17.1245407363
 20
7.3896498968
 10
17.1170780741
 20
7.4307673428
 10
17.1143761154
 20
7.4721343722
 10
17.1170788284
 20
7.5102533398
 10
17.1245386569
 20
7.5424363158
 10
17.1353745704
 20
7.5679335655
 10
17.1481529999
 20
7.5871799573
 10
17.1617072528
 20
7.6011385225
 10
17.1752332368
 20
7.6109033777
 10
17.1884149717
 20
7.6175433889
 10
17.2014404432
 20
7.6219225343
 10
17.2147648573
 20
7.6245480598
 10
17.2287735646
 20
7.6255779942
 10
17.2434592601
 20
7.6249858958
 10
17.2586144482
 20
7.6227651738
 10
17.2740182623
 20
7.6189733952
  0
LINE
  5
4D4
100
AcDbEntity
  8
0
100
AcDbLine
 62
7
  6
CONTINUOUS
 10
17.2449218257
 20
7.159839057
 11
17.2758691011
 21
7.1292190367
  0
LINE
  5
4D5
100
AcDbEntity
  8
02___PRT_ALL_AXES
100
AcDbLine
 62
7
  6
CONTINUOUS
 10
17.9247577535
 20
7.302074175
 11
17.9235401426
 21
7.3147483106
  0
LWPOLYLINE
  5
4D6
100
AcDbEntity
  8
02___PRT_ALL_AXES
100
AcDbPolyline
 62
7
  6
CONTINUOUS
 90
5
 70
0
 10
17.9247576375
 20
7.3181589277
 10
17.9234193375
 20
7.3330764988
 10
17.9194558676
 20
7.3458754695
 10
17.9130195418
 20
7.3560639826
 10
17.9043570739
 20
7.3632508632
  0
LINE
  5
4D7
100
AcDbEntity
  8
02___PRT_ALL_AXES
100
AcDbLine
 62
7
  6
CONTINUOUS
 10
17.9247576375
 20
7.3181589277
 11
17.9247577535
 21
7.302074175
  0
LINE
  5
4D8
100
AcDbEntity
  8
0
100
AcDbLine
 62
7
  6
CONTINUOUS
 10
17.9975999838
 20
8.2112654232
 11
17.9975999838
 21
7.948738449
  0
LINE
  5
4D9
100
AcDbEntity
  8
0
100
AcDbLine
 62
7
  6
CONTINUOUS
 10
18.0165689867
 20
7.9596901425
 11
18.0165689867
 21
7.9045293354
  0
LWPOLYLINE
  5
4DA
100
AcDbEntity
  8
0
100
AcDbPolyline
 62
7
  6
CONTINUOUS
 90
14
 70
0
 10
18.1354990145
 20
8.0558659192
 10
18.1335203203
 20
8.0293622867
 10
18.1252724487
 20
7.9960362842
 10
18.1111409034
 20
7.9652588225
 10
18.0920384185
 20
7.9384229414
 10
18.0683684365
 20
7.915808473
 10
18.0401204205
 20
7.8976213849
 10
18.0078400424
 20
7.8844695372
 10
17.9723782067
 20
7.8766365807
 10
17.9345659383
 20
7.8739685772
 10
17.8958978464
 20
7.8759722494
 10
17.8569957447
 20
7.8819336191
 10
17.8184483271
 20
7.8912174699
 10
17.7812648977
 20
7.9031485803
  0
LWPOLYLINE
  5
4DB
100
AcDbEntity
  8
02___PRT_ALL_AXES
100
AcDbPolyline
 62
7
  6
CONTINUOUS
 90
9
 70
0
 10
17.9247577535
 20
7.302074175
 10
17.9235401426
 20
7.2879940718
 10
17.9199405252
 20
7.2731233691
 10
17.914116222
 20
7.2581119879
 10
17.9063217829
 20
7.2436159977
 10
17.8968978623
 20
7.2302689427
 10
17.8862563308
 20
7.2186541533
 10
17.8748622743
 20
7.2092792516
 10
17.8690389339
 20
7.205567592
  0
LWPOLYLINE
  5
4DC
100
AcDbEntity
  8
AXIS
100
AcDbPolyline
 62
7
  6
CONTINUOUS
 90
7
 70
0
 10
17.8929996849
 20
7.4576252377
 10
17.8951166797
 20
7.43985226
 10
17.8966816865
 20
7.4225181021
 10
17.8977148114
 20
7.405569607
 10
17.8982281995
 20
7.388971123
 10
17.8982281995
 20
7.3726914508
 10
17.8980423277
 20
7.3668966012
  0
LWPOLYLINE
  5
4DD
100
AcDbEntity
  8
0
100
AcDbPolyline
 62
7
  6
CONTINUOUS
 90
7
 70
0
 10
18.0466507344
 20
7.4966653963
 10
18.0460971971
 20
7.5017132423
 10
18.0466545536
 20
7.5068391917
 10
18.0482305349
 20
7.5116372289
 10
18.0508041275
 20
7.5160021412
 10
18.0542784384
 20
7.5195892874
 10
18.0583042569
 20
7.5220039226
  0
LINE
  5
4DE
100
AcDbEntity
  8
AXIS
100
AcDbLine
 62
7
  6
CONTINUOUS
 10
18.1039990146
 20
7.2258255492
 11
18.1039990146
 21
4.5893983797
  0
LINE
  5
4DF
100
AcDbEntity
  8
0
100
AcDbLine
 62
7
  6
CONTINUOUS
 10
18.1049073898
 20
7.9565017508
 11
18.1049073898
 21
8.1514385335
  0
LINE
  5
4E0
100
AcDbEntity
  8
0
100
AcDbLine
 62
7
  6
CONTINUOUS
 10
18.1638858884
 20
8.1912000623
 11
18.1638858884
 21
8.3131204952
  0
LINE
  5
4E1
100
AcDbEntity
  8
0
100
AcDbLine
 62
7
  6
CONTINUOUS
 10
18.1039990146
 20
4.5893983797
 11
18.1039990051
 21
4.5893612824
  0
LWPOLYLINE
  5
4E2
100
AcDbEntity
  8
02___PRT_ALL_AXES
100
AcDbPolyline
 62
7
  6
CONTINUOUS
 90
15
 70
0
 10
17.9235401426
 20
7.3147483106
 10
17.9199405252
 20
7.325462558
 10
17.914116222
 20
7.3337486532
 10
17.9063217829
 20
7.3392444542
 10
17.8968978623
 20
7.341709768
 10
17.8862563308
 20
7.3410368485
 10
17.8748622743
 20
7.3372551057
 10
17.8632136679
 20
7.3305298198
 10
17.8518196114
 20
7.321154918
 10
17.8411780799
 20
7.3095401286
 10
17.8317541594
 20
7.2961930736
 10
17.8239597203
 20
7.2816970834
 10
17.818135417
 20
7.2666857022
 10
17.8145357997
 20
7.2518149995
 10
17.8133181887
 20
7.2377348963
  0
LWPOLYLINE
  5
4E3
100
AcDbEntity
  8
0
100
AcDbPolyline
 62
7
  6
CONTINUOUS
 90
7
 70
0
 10
18.0466507344
 20
7.4966653963
 10
18.054015272
 20
7.4584489134
 10
18.0584723097
 20
7.4211001352
 10
18.0599629916
 20
7.3850246668
 10
18.0584723097
 20
7.3505542921
 10
18.054015272
 20
7.318004635
 10
18.0466507344
 20
7.2877179274
  0
LWPOLYLINE
  5
4E4
100
AcDbEntity
  8
0
100
AcDbPolyline
 62
7
  6
CONTINUOUS
 90
9
 70
0
 10
17.9868391826
 20
7.4492438896
 10
17.9912929789
 20
7.4260267285
 10
17.994487379
 20
7.4031301916
 10
17.9964090158
 20
7.3806453657
 10
17.9970505249
 20
7.3586565832
 10
17.996409436
 20
7.3372461615
 10
17.9944881347
 20
7.3164940116
 10
17.9912937949
 20
7.2964774016
 10
17.9868391826
 20
7.2772739615
  0
LWPOLYLINE
  5
4E5
100
AcDbEntity
  8
0
100
AcDbPolyline
 62
7
  6
CONTINUOUS
 90
8
 70
0
 10
18.5173173672
 20
7.531590209
 10
18.5231086074
 20
7.5579261613
 10
18.5269875726
 20
7.5856895903
 10
18.5289320977
 20
7.6147287318
 10
18.5289320977
 20
7.6448929791
 10
18.5269875726
 20
7.6760258904
 10
18.5231086074
 20
7.7079660002
 10
18.5173173672
 20
7.7405376779
  0
LWPOLYLINE
  5
4E6
100
AcDbEntity
  8
0
100
AcDbPolyline
 62
7
  6
CONTINUOUS
 90
7
 70
0
 10
18.5247475772
 20
7.5275899649
 10
18.5233082794
 20
7.5236453183
 10
18.5209572952
 20
7.5193878241
 10
18.517939517
 20
7.5152230972
 10
18.5144363825
 20
7.5113504065
 10
18.5106766546
 20
7.5080090674
 10
18.5070479091
 20
7.5055065362
  0
LWPOLYLINE
  5
4E7
100
AcDbEntity
  8
0
100
AcDbPolyline
 62
7
  6
CONTINUOUS
 90
4
 70
0
 10
18.9739043122
 20
7.3247912651
 10
18.966161787
 20
7.3176101591
 10
18.9612948193
 20
7.3068523849
 10
18.9596347872
 20
7.2932508951
  0
LWPOLYLINE
  5
4E8
100
AcDbEntity
  8
0
100
AcDbPolyline
 62
7
  6
CONTINUOUS
 90
4
 70
0
 10
18.8742304551
 20
7.239364106
 10
18.8695599513
 20
7.2353738301
 10
18.8654453716
 20
7.2273458251
 10
18.8640357795
 20
7.2168389996
  0
LWPOLYLINE
  5
4E9
100
AcDbEntity
  8
0
100
AcDbPolyline
 62
7
  6
CONTINUOUS
 90
4
 70
0
 10
18.9234385177
 20
7.1541327165
 10
18.9281090216
 20
7.1581229924
 10
18.9322236012
 20
7.1661509974
 10
18.9336331934
 20
7.176657823
  0
LWPOLYLINE
  5
4EA
100
AcDbEntity
  8
0
100
AcDbPolyline
 62
7
  6
CONTINUOUS
 90
4
 70
0
 10
17.4104367767
 20
7.0542353384
 10
17.4387022493
 20
7.0493782712
 10
17.4677117018
 20
7.0490409714
 10
17.4776087933
 20
7.0501426554
  0
LWPOLYLINE
  5
4EB
100
AcDbEntity
  8
0
100
AcDbPolyline
 62
7
  6
CONTINUOUS
 90
5
 70
0
 10
18.680893228
 20
6.7047324162
 10
18.6971865662
 20
6.6971786813
 10
18.7128537606
 20
6.6936212633
 10
18.7272927297
 20
6.6941968718
 10
18.7399485919
 20
6.6988833865
  0
LINE
  5
4EC
100
AcDbEntity
  8
02___PRT_ALL_AXES
100
AcDbLine
 62
7
  6
CONTINUOUS
 10
17.8058587452
 20
7.1926428938
 11
17.741282924
 21
7.2299249181
  0
LINE
  5
4ED
100
AcDbEntity
  8
02___PRT_ALL_AXES
100
AcDbLine
 62
7
  6
CONTINUOUS
 10
17.4070193029
 20
7.4229077439
 11
17.3941872971
 21
7.4303161383
  0
LINE
  5
4EE
100
AcDbEntity
  8
0
100
AcDbLine
 62
7
  6
CONTINUOUS
 10
17.7733130592
 20
7.1723096179
 11
17.8010642314
 21
7.1542391601
  0
LWPOLYLINE
  5
4EF
100
AcDbEntity
  8
02___PRT_ALL_AXES
100
AcDbPolyline
 62
7
  6
CONTINUOUS
 90
5
 70
0
 10
17.8058587452
 20
7.1926428938
 10
17.7971962772
 20
7.1998297745
 10
17.7907599514
 20
7.2100182875
 10
17.7867964816
 20
7.2228172583
 10
17.7854581816
 20
7.2377348294
  0
LWPOLYLINE
  5
4F0
100
AcDbEntity
  8
0
100
AcDbPolyline
 62
7
  6
CONTINUOUS
 90
23
 70
0
 10
17.4124649128
 20
7.5575770029
 10
17.4295600077
 20
7.5432307802
 10
17.4465759281
 20
7.5273674179
 10
17.4630874396
 20
7.5103278038
 10
17.4788146614
 20
7.4924183741
 10
17.4937519675
 20
7.4736818491
 10
17.5083230268
 20
7.4535124858
 10
17.5230494431
 20
7.4308324054
 10
17.5381653393
 20
7.4044898972
 10
17.5533387222
 20
7.3737141072
 10
17.567675856
 20
7.3383037451
 10
17.5798635589
 20
7.2986374052
 10
17.5882719261
 20
7.2559964788
 10
17.5913251004
 20
7.2128491131
 10
17.588282941
 20
7.1728862914
 10
17.5798866945
 20
7.1389948927
 10
17.5677121735
 20
7.1120109264
 10
17.5533862737
 20
7.0915157087
 10
17.5382234254
 20
7.0765251772
 10
17.5231231253
 20
7.0659114234
 10
17.5084082773
 20
7.0585511894
 10
17.4938443789
 20
7.0535380784
 10
17.477617269
 20
7.0501438617
  0
LWPOLYLINE
  5
4F1
100
AcDbEntity
  8
0
100
AcDbPolyline
 62
7
  6
CONTINUOUS
 90
27
 70
0
 10
17.4070193029
 20
7.5448215897
 10
17.4233914871
 20
7.5309332913
 10
17.4396422186
 20
7.5156382821
 10
17.4553782906
 20
7.4992629246
 10
17.4703579318
 20
7.4820804282
 10
17.4846011111
 20
7.4640999526
 10
17.4985425839
 20
7.4446884426
 10
17.5126559089
 20
7.4228278417
 10
17.5271413512
 20
7.3974358903
 10
17.541651671
 20
7.367823685
 10
17.5553302627
 20
7.3338186663
 10
17.5669301198
 20
7.2957982831
 10
17.5749136639
 20
7.2549922516
 10
17.5778042148
 20
7.2137379741
 10
17.5749128569
 20
7.1755062231
 10
17.5669323444
 20
7.1430119509
 10
17.5553401015
 20
7.117062522
 10
17.5416697582
 20
7.0972828905
 10
17.5271694403
 20
7.0827587108
 10
17.5126993643
 20
7.0724294206
 10
17.4985975655
 20
7.0652393399
 10
17.484662937
 20
7.0603166458
 10
17.4704085002
 20
7.0571350968
 10
17.4554220077
 20
7.0555205836
 10
17.4397112743
 20
7.0554998526
 10
17.4234982785
 20
7.0570881535
 10
17.4070193029
 20
7.060237136
  0
LWPOLYLINE
  5
4F2
100
AcDbEntity
  8
0
100
AcDbPolyline
 62
7
  6
CONTINUOUS
 90
12
 70
0
 10
18.1039990051
 20
4.5893612824
 10
18.1005363974
 20
4.5629644389
 10
18.0882143845
 20
4.5340022075
 10
18.0661475727
 20
4.5064294087
 10
18.035129645
 20
4.4826706983
 10
17.9971299208
 20
4.4642518289
 10
17.9547929498
 20
4.4519093785
 10
17.9100048788
 20
4.4456486526
 10
17.8645692071
 20
4.4454127649
 10
17.8199979745
 20
4.4511300947
 10
17.7779286922
 20
4.4627470527
 10
17.7400476344
 20
4.4801917775
  0
LWPOLYLINE
  5
4F3
100
AcDbEntity
  8
0
100
AcDbPolyline
 62
7
  6
CONTINUOUS
 90
13
 70
0
 10
18.1039990051
 20
4.5893612824
 10
18.101064603
 20
4.5687934398
 10
18.0891803869
 20
4.5437330402
 10
18.0686550276
 20
4.5206095264
 10
18.0403586119
 20
4.500403856
 10
18.0054920323
 20
4.4839738849
 10
17.965535611
 20
4.472016934
 10
17.9221845653
 20
4.4650399008
 10
17.8772488457
 20
4.4633391058
 10
17.8329531396
 20
4.4669512551
 10
17.7923107852
 20
4.4752974198
 10
17.7578502713
 20
4.48701487
 10
17.7309968261
 20
4.5001970321
  0
LWPOLYLINE
  5
4F4
100
AcDbEntity
  8
0
100
AcDbPolyline
 62
7
  6
CONTINUOUS
 90
4
 70
0
 10
19.0428016416
 20
7.2054568778
 10
19.0505441668
 20
7.2126379837
 10
19.0554111346
 20
7.223395758
 10
19.0570711666
 20
7.2369972478
  0
LINE
  5
4F5
100
AcDbEntity
  8
0
100
AcDbLine
 62
7
  6
CONTINUOUS
 10
19.1215462109
 20
6.9591508084
 11
19.2607398796
 21
7.0395138308
  0
LINE
  5
4F6
100
AcDbEntity
  8
0
100
AcDbLine
 62
7
  6
CONTINUOUS
 10
19.0970846782
 20
6.9050818973
 11
19.2362783469
 21
6.9854449197
  0
LINE
  5
4F7
100
AcDbEntity
  8
0
100
AcDbLine
 62
7
  6
CONTINUOUS
 10
18.7399485919
 20
6.6988833865
 11
19.0970846782
 21
6.9050818973
  0
LINE
  5
4F8
100
AcDbEntity
  8
0
100
AcDbLine
 62
7
  6
CONTINUOUS
 10
18.680893228
 20
6.7047324162
 11
18.1039990146
 21
7.0377949107
  0
LWPOLYLINE
  5
4F9
100
AcDbEntity
  8
0
100
AcDbPolyline
 62
7
  6
CONTINUOUS
 90
4
 70
0
 10
18.0484044304
 20
7.2799568043
 10
18.0466922905
 20
7.2816720295
 10
18.0460973252
 20
7.2843208049
 10
18.0466507344
 20
7.2877179274
  0
LWPOLYLINE
  5
4FA
100
AcDbEntity
  8
0
100
AcDbPolyline
 62
7
  6
CONTINUOUS
 90
5
 70
0
 10
19.0970846782
 20
6.9050818973
 10
19.1074710759
 20
6.913699218
 10
19.1151888657
 20
6.9259161859
 10
19.1199414571
 20
6.9412633099
 10
19.1215462109
 20
6.9591508084
  0
LINE
  5
4FB
100
AcDbEntity
  8
0
100
AcDbLine
 62
7
  6
CONTINUOUS
 10
17.477617269
 20
7.0501438617
 11
17.4776090191
 21
7.0501426614
  0
LWPOLYLINE
  5
4FC
100
AcDbEntity
  8
0
100
AcDbPolyline
 62
7
  6
CONTINUOUS
 90
4
 70
0
 10
17.2796644548
 20
7.1282648333
 10
17.2780777376
 20
7.1282180074
 10
17.2766864665
 20
7.1286514832
 10
17.2758693911
 20
7.129219467
  0
LWPOLYLINE
  5
4FD
100
AcDbEntity
  8
AXIS
100
AcDbPolyline
 62
7
  6
CONTINUOUS
 90
10
 70
0
 10
17.7823379344
 20
7.1724090232
 10
17.7720420012
 20
7.1722956177
 10
17.7612841815
 20
7.1724928469
 10
17.7500534198
 20
7.1729918863
 10
17.7383403818
 20
7.173787643
 10
17.7261307657
 20
7.174878296
 10
17.7133909515
 20
7.1762668488
 10
17.70009394
 20
7.1779588111
 10
17.6862061066
 20
7.1799631137
 10
17.6789815526
 20
7.1811221482
  0
LWPOLYLINE
  5
4FE
100
AcDbEntity
  8
0
100
AcDbPolyline
 62
7
  6
CONTINUOUS
 90
6
 70
0
 10
17.8010642314
 20
7.1542391601
 10
17.7779171345
 20
7.155611909
 10
17.7531609499
 20
7.1576354882
 10
17.7274058908
 20
7.1602852001
 10
17.7013067536
 20
7.1634832172
 10
17.6756319196
 20
7.1670921474
  0
LWPOLYLINE
  5
4FF
100
AcDbEntity
  8
02___PRT_ALL_AXES
100
AcDbPolyline
 62
7
  6
CONTINUOUS
 90
13
 70
0
 10
17.9043570739
 20
7.3632508632
 10
17.8938032251
 20
7.3671588455
 10
17.8817617065
 20
7.3676388259
 10
17.8686958974
 20
7.364671995
 10
17.8551079095
 20
7.3583723666
 10
17.8415199217
 20
7.3489820318
 10
17.8284541126
 20
7.3368618559
 10
17.8164125939
 20
7.3224776104
 10
17.8058581146
 20
7.3063820739
 10
17.7971962772
 20
7.2891937888
 10
17.7907599514
 20
7.2715732912
 10
17.7867964816
 20
7.254197727
 10
17.7854581816
 20
7.2377348294
  0
LINE
  5
500
100
AcDbEntity
  8
0
100
AcDbLine
 62
7
  6
CONTINUOUS
 10
17.9247577071
 20
7.3085135921
 11
17.9868391826
 21
7.2772739615
  0
LWPOLYLINE
  5
501
100
AcDbEntity
  8
0
100
AcDbPolyline
 62
7
  6
CONTINUOUS
 90
16
 70
0
 10
17.8397807676
 20
7.4005320479
 10
17.8377045655
 20
7.4016347374
 10
17.8286268787
 20
7.4045523317
 10
17.8185100653
 20
7.4050334158
 10
17.8076300856
 20
7.4030648669
 10
17.7962837172
 20
7.3987003819
 10
17.7847804593
 20
7.3920590125
 10
17.7734340909
 20
7.383321918
 10
17.7625541112
 20
7.3727274235
 10
17.7524372978
 20
7.3605645193
 10
17.743359611
 20
7.3471649777
 10
17.7355686664
 20
7.3328943032
 10
17.7292769807
 20
7.3181417626
 10
17.7246561747
 20
7.3033097668
 10
17.7218322918
 20
7.2888028939
 10
17.7208823603
 20
7.2750168537
  0
LINE
  5
502
100
AcDbEntity
  8
0
100
AcDbLine
 62
7
  6
CONTINUOUS
 10
18.0583042569
 20
7.2809106891
 11
18.0505773743
 21
7.2850706545
  0
LINE
  5
503
100
AcDbEntity
  8
02___PRT_ALL_AXES
100
AcDbLine
 62
7
  6
CONTINUOUS
 10
17.9043570739
 20
7.3632508632
 11
17.8397812525
 21
7.4005328877
  0
LINE
  5
504
100
AcDbEntity
  8
AXIS
100
AcDbLine
 62
7
  6
CONTINUOUS
 10
17.8929996849
 20
7.4576252377
 11
17.8712884877
 21
7.4701599197
  0
LWPOLYLINE
  5
505
100
AcDbEntity
  8
0
100
AcDbPolyline
 62
7
  6
CONTINUOUS
 90
4
 70
0
 10
17.6620421831
 20
7.9696185889
 10
17.6471456122
 20
7.9867236781
 10
17.6382755841
 20
8.0038761918
 10
17.6354990146
 20
8.0203945094
  0
LWPOLYLINE
  5
506
100
AcDbEntity
  8
0
100
AcDbPolyline
 62
7
  6
CONTINUOUS
 90
6
 70
0
 10
18.5247475772
 20
7.7365374338
 10
18.5321664152
 20
7.6912337018
 10
18.535906674
 20
7.6471833882
 10
18.535906674
 20
7.6049284387
 10
18.5321664152
 20
7.5649054534
 10
18.5247475772
 20
7.5275899649
  0
LWPOLYLINE
  5
507
100
AcDbEntity
  8
DEFAULT_2
100
AcDbPolyline
 62
7
  6
HIDDEN
 90
17
 70
0
 10
18.8570760381
 20
8.0245012286
 10
18.8578713212
 20
8.0334077996
 10
18.8602268786
 20
8.041056829
 10
18.8640529878
 20
8.0471569675
 10
18.8693068044
 20
8.0515356842
 10
18.8756044447
 20
8.0538730366
 10
18.88278691
 20
8.0541733328
 10
18.8905806226
 20
8.0524251348
 10
18.8988344864
 20
8.0486111693
 10
18.9069454115
 20
8.0430101138
 10
18.914747394
 20
8.0357857675
 10
18.9219432588
 20
8.0272133035
 10
18.9283621684
 20
8.0174408252
 10
18.9335351084
 20
8.0071823841
 10
18.9373863126
 20
7.9966653193
 10
18.9397690896
 20
7.9862902226
 10
18.9405929348
 20
7.9762838124
  0
LWPOLYLINE
  5
508
100
AcDbEntity
  8
DEFAULT_2
100
AcDbPolyline
 62
7
  6
HIDDEN
 90
17
 70
0
 10
18.9405929348
 20
7.9762838167
 10
18.9397976516
 20
7.9673772457
 10
18.9374420942
 20
7.9597282163
 10
18.933615985
 20
7.9536280778
 10
18.9283621684
 20
7.9492493611
 10
18.9220645281
 20
7.9469120087
 10
18.9148820628
 20
7.9466117124
 10
18.9070883503
 20
7.9483599105
 10
18.8988344864
 20
7.952173876
 10
18.8907235613
 20
7.9577749315
 10
18.8829215788
 20
7.9649992778
 10
18.875725714
 20
7.9735717418
 10
18.8693068044
 20
7.9833442201
 10
18.8641338644
 20
7.9936026611
 10
18.8602826603
 20
8.0041197259
 10
18.8578998832
 20
8.0144948227
 10
18.8570760381
 20
8.0245012328
  0
LWPOLYLINE
  5
509
100
AcDbEntity
  8
DEFAULT_2
100
AcDbPolyline
 62
7
  6
HIDDEN
 90
17
 70
0
 10
18.9526750458
 20
8.1009131241
 10
18.9537354234
 20
8.1127885521
 10
18.9568761665
 20
8.1229872579
 10
18.9619776455
 20
8.1311207759
 10
18.9689827343
 20
8.1369590648
 10
18.977379588
 20
8.1400755347
 10
18.9869562084
 20
8.1404759297
 10
18.9973478251
 20
8.1381449989
 10
19.0083529769
 20
8.1330597117
 10
19.0191675437
 20
8.1255916377
 10
19.0295701871
 20
8.1159591759
 10
19.0391646735
 20
8.1045292239
 10
19.0477232196
 20
8.0914992529
 10
19.054620473
 20
8.0778213314
 10
19.0597554118
 20
8.0637985784
 10
19.0629324479
 20
8.049965116
 10
19.064030908
 20
8.0366232358
  0
LWPOLYLINE
  5
50A
100
AcDbEntity
  8
0
100
AcDbPolyline
 62
7
  6
CONTINUOUS
 90
4
 70
0
 10
17.4070193029
 20
7.1549747805
 10
17.3853102645
 20
7.1496904113
 10
17.3321003199
 20
7.1381697498
 10
17.2796644548
 20
7.1282648333
  0
LWPOLYLINE
  5
50B
100
AcDbEntity
  8
0
100
AcDbPolyline
 62
7
  6
CONTINUOUS
 90
3
 70
0
 10
18.0462303267
 20
7.2837286845
 10
18.0465519737
 20
7.2837565076
 10
18.0505773743
 20
7.2850706545
  0
LWPOLYLINE
  5
50C
100
AcDbEntity
  8
AXIS
100
AcDbPolyline
 62
7
  6
CONTINUOUS
 90
10
 70
0
 10
17.7879254035
 20
7.4666139653
 10
17.7968678571
 20
7.4651793283
 10
17.8107556906
 20
7.4631750257
 10
17.824052702
 20
7.4614830633
 10
17.8367925162
 20
7.4600945106
 10
17.8490021323
 20
7.4590038576
 10
17.8607151703
 20
7.4582081009
 10
17.871945932
 20
7.4577090615
 10
17.8827037517
 20
7.4575118323
 10
17.8929996849
 20
7.4576252377
  0
LWPOLYLINE
  5
50D
100
AcDbEntity
  8
0
100
AcDbPolyline
 62
7
  6
CONTINUOUS
 90
7
 70
0
 10
17.8010642314
 20
7.4843338674
 10
17.8335255535
 20
7.4776348435
 10
17.865555051
 20
7.4712598339
 10
17.8970117716
 20
7.4652251124
 10
17.9277860895
 20
7.4595393019
 10
17.9577614618
 20
7.4542109422
 10
17.9868391826
 20
7.4492438896
  0
LWPOLYLINE
  5
50E
100
AcDbEntity
  8
0
100
AcDbPolyline
 62
7
  6
CONTINUOUS
 90
5
 70
0
 10
18.1049073898
 20
8.1514385335
 10
18.1205419155
 20
8.1252290144
 10
18.1308359895
 20
8.0956545664
 10
18.1353450562
 20
8.063210889
 10
18.1354990145
 20
8.0558659192
  0
LINE
  5
50F
100
AcDbEntity
  8
0
100
AcDbLine
 62
7
  6
CONTINUOUS
 10
18.5173173672
 20
7.7405376779
 11
18.5158573273
 21
7.7449732555
  0
LWPOLYLINE
  5
510
100
AcDbEntity
  8
0
100
AcDbPolyline
 62
7
  6
CONTINUOUS
 90
10
 70
0
 10
18.9596347872
 20
7.2932508951
 10
18.9612948193
 20
7.2777326087
 10
18.966161787
 20
7.2613550713
 10
18.9739040146
 20
7.2452343851
 10
18.9839938821
 20
7.2304691481
 10
18.9957437816
 20
7.2180655869
 10
19.0083529769
 20
7.2088689836
 10
19.0209621723
 20
7.2035060716
 10
19.0327120718
 20
7.2023423245
 10
19.0428016416
 20
7.2054568778
  0
LWPOLYLINE
  5
511
100
AcDbEntity
  8
DEFAULT_2
100
AcDbPolyline
 62
7
  6
HIDDEN
 90
17
 70
0
 10
18.9526750458
 20
7.2972690127
 10
18.9537354234
 20
7.3091444407
 10
18.9568761665
 20
7.3193431465
 10
18.9619776455
 20
7.3274766646
 10
18.9689827343
 20
7.3333149535
 10
18.977379588
 20
7.3364314234
 10
18.9869562084
 20
7.3368318184
 10
18.9973478251
 20
7.3345008876
 10
19.0083529769
 20
7.3294156003
 10
19.0191675437
 20
7.3219475263
 10
19.0295701871
 20
7.3123150646
 10
19.0391646735
 20
7.3008851126
 10
19.0477232196
 20
7.2878551415
 10
19.054620473
 20
7.2741772201
 10
19.0597554118
 20
7.260154467
 10
19.0629324479
 20
7.2463210047
 10
19.064030908
 20
7.2329791245
  0
LWPOLYLINE
  5
512
100
AcDbEntity
  8
DEFAULT_2
100
AcDbPolyline
 62
7
  6
HIDDEN
 90
17
 70
0
 10
19.064030908
 20
8.0366232415
 10
19.0629705305
 20
8.0247478135
 10
19.0598297873
 20
8.0145491077
 10
19.0547283084
 20
8.0064155896
 10
19.0477232196
 20
8.0005773007
 10
19.0393263659
 20
7.9974608308
 10
19.0297497454
 20
7.9970604358
 10
19.0193581287
 20
7.9993913666
 10
19.0083529769
 20
8.0044766539
 10
18.9975384101
 20
8.0119447279
 10
18.9871357668
 20
8.0215771896
 10
18.9775412804
 20
8.0330071416
 10
18.9689827343
 20
8.0460371127
 10
18.9620854809
 20
8.0597150341
 10
18.956950542
 20
8.0737377872
 10
18.953773506
 20
8.0875712495
 10
18.9526750458
 20
8.1009131297
  0
LWPOLYLINE
  5
513
100
AcDbEntity
  8
DEFAULT_2
100
AcDbPolyline
 62
7
  6
HIDDEN
 90
17
 70
0
 10
19.064030908
 20
7.2329791301
 10
19.0629705305
 20
7.2211037021
 10
19.0598297873
 20
7.2109049963
 10
19.0547283084
 20
7.2027714782
 10
19.0477232196
 20
7.1969331894
 10
19.0393263659
 20
7.1938167195
 10
19.0297497454
 20
7.1934163245
 10
19.0193581287
 20
7.1957472553
 10
19.0083529769
 20
7.2008325425
 10
18.9975384101
 20
7.2083006165
 10
18.9871357668
 20
7.2179330783
 10
18.9775412804
 20
7.2293630303
 10
18.9689827343
 20
7.2423930013
 10
18.9620854809
 20
7.2560709228
 10
18.956950542
 20
7.2700936758
 10
18.953773506
 20
7.2839271382
 10
18.9526750458
 20
7.2972690183
  0
LINE
  5
514
100
AcDbEntity
  8
0
100
AcDbLine
 62
7
  6
CONTINUOUS
 10
18.5070479091
 20
7.5055065362
 11
18.4995349146
 21
7.5095513495
  0
LINE
  5
515
100
AcDbEntity
  8
0
100
AcDbLine
 62
7
  6
CONTINUOUS
 10
18.5247475772
 20
7.5275899649
 11
18.5173173672
 21
7.531590209
  0
LINE
  5
516
100
AcDbEntity
  8
0
100
AcDbLine
 62
7
  6
CONTINUOUS
 10
18.033217461
 20
7.8948089435
 11
18.0252867089
 21
7.9004328738
  0
LINE
  5
517
100
AcDbEntity
  8
0
100
AcDbLine
 62
7
  6
CONTINUOUS
 10
18.5158573273
 20
7.7449732555
 11
18.5137507984
 21
7.748184791
  0
LWPOLYLINE
  5
518
100
AcDbEntity
  8
0
100
AcDbPolyline
 62
7
  6
CONTINUOUS
 90
10
 70
0
 10
18.8640357795
 20
7.2168389996
 10
18.8654453716
 20
7.2047045541
 10
18.8695599513
 20
7.1919255492
 10
18.8760461796
 20
7.1795372639
 10
18.8843785811
 20
7.1685433235
 10
18.8938821141
 20
7.1598343915
 10
18.9037868588
 20
7.1541160138
 10
18.9132903917
 20
7.1518514595
 10
18.9216227932
 20
7.1532241891
 10
18.9234385177
 20
7.1541327165
  0
LWPOLYLINE
  5
519
100
AcDbEntity
  8
0
100
AcDbPolyline
 62
7
  6
CONTINUOUS
 90
10
 70
0
 10
18.9336331934
 20
7.176657823
 10
18.9322236012
 20
7.1887922685
 10
18.9281090216
 20
7.2015712734
 10
18.9216227932
 20
7.2139595586
 10
18.9132903917
 20
7.2249534991
 10
18.9037868588
 20
7.2336624311
 10
18.8938821141
 20
7.2393808088
 10
18.8843785811
 20
7.2416453631
 10
18.8760461796
 20
7.2402726334
 10
18.8742304551
 20
7.239364106
  0
LWPOLYLINE
  5
51A
100
AcDbEntity
  8
0
100
AcDbPolyline
 62
7
  6
CONTINUOUS
 90
10
 70
0
 10
18.8640357795
 20
8.0204831109
 10
18.8654453716
 20
8.0083486654
 10
18.8695599513
 20
7.9955696606
 10
18.8760461796
 20
7.9831813753
 10
18.8843785811
 20
7.9721874348
 10
18.8938821141
 20
7.9634785028
 10
18.9037868588
 20
7.9577601252
 10
18.9132903917
 20
7.9554955708
 10
18.9216227932
 20
7.9568683005
 10
18.9234385177
 20
7.9577768279
  0
LWPOLYLINE
  5
51B
100
AcDbEntity
  8
0
100
AcDbPolyline
 62
7
  6
CONTINUOUS
 90
10
 70
0
 10
18.9596347872
 20
8.0968950064
 10
18.9612948193
 20
8.08137672
 10
18.966161787
 20
8.0649991827
 10
18.9739040146
 20
8.0488784964
 10
18.9839938821
 20
8.0341132595
 10
18.9957437816
 20
8.0217096982
 10
19.0083529769
 20
8.012513095
 10
19.0209621723
 20
8.007150183
 10
19.0327120718
 20
8.0059864358
 10
19.0428016416
 20
8.0091009891
  0
LWPOLYLINE
  5
51C
100
AcDbEntity
  8
0
100
AcDbPolyline
 62
7
  6
CONTINUOUS
 90
10
 70
0
 10
19.0570711666
 20
7.2369972478
 10
19.0554111346
 20
7.2525155342
 10
19.0505441668
 20
7.2688930715
 10
19.0428019392
 20
7.2850137577
 10
19.0327120718
 20
7.2997789947
 10
19.0209621723
 20
7.3121825559
 10
19.0083529769
 20
7.3213791592
 10
18.9957437816
 20
7.3267420712
 10
18.9839938821
 20
7.3279058184
 10
18.9739043122
 20
7.3247912651
  0
LWPOLYLINE
  5
51D
100
AcDbEntity
  8
0
100
AcDbPolyline
 62
7
  6
CONTINUOUS
 90
10
 70
0
 10
19.0570711666
 20
8.0406413591
 10
19.0554111346
 20
8.0561596455
 10
19.0505441668
 20
8.0725371829
 10
19.0428019392
 20
8.0886578691
 10
19.0327120718
 20
8.1034231061
 10
19.0209621723
 20
8.1158266673
 10
19.0083529769
 20
8.1250232706
 10
18.9957437816
 20
8.1303861826
 10
18.9839938821
 20
8.1315499297
 10
18.9739043122
 20
8.1284353764
  0
LINE
  5
51E
100
AcDbEntity
  8
0
100
AcDbLine
 62
7
  6
CONTINUOUS
 10
19.1215462109
 20
8.1302222602
 11
19.1215462109
 21
6.9591508084
  0
LWPOLYLINE
  5
51F
100
AcDbEntity
  8
0
100
AcDbPolyline
 62
7
  6
CONTINUOUS
 90
12
 70
0
 10
18.0252867089
 20
7.9004328738
 10
17.9940232629
 20
7.9151235812
 10
17.957510658
 20
7.9260202877
 10
17.9174454113
 20
7.9323615751
 10
17.875881349
 20
7.9337268777
 10
17.8348232309
 20
7.9300481991
 10
17.7960200625
 20
7.9215013315
 10
17.7611469356
 20
7.9084538377
 10
17.7317655784
 20
7.8914836695
 10
17.7091802348
 20
7.8713440159
 10
17.6943921955
 20
7.8489365796
 10
17.6913953202
 20
7.8413502388
  0
LINE
  5
520
100
AcDbEntity
  8
0
100
AcDbLine
 62
7
  6
CONTINUOUS
 10
18.5247475772
 20
7.7365374338
 11
18.5173173672
 21
7.7405376779
  0
LWPOLYLINE
  5
521
100
AcDbEntity
  8
0
100
AcDbPolyline
 62
7
  6
CONTINUOUS
 90
4
 70
0
 10
18.5177916042
 20
7.7470993362
 10
18.520952328
 20
7.7445730127
 10
18.5233083331
 20
7.7409603318
 10
18.5247475772
 20
7.7365374338
  0
LWPOLYLINE
  5
522
100
AcDbEntity
  8
0
100
AcDbPolyline
 62
7
  6
CONTINUOUS
 90
10
 70
0
 10
18.9336331934
 20
7.9803019343
 10
18.9322236012
 20
7.9924363798
 10
18.9281090216
 20
8.0052153847
 10
18.9216227932
 20
8.01760367
 10
18.9132903917
 20
8.0285976105
 10
18.9037868588
 20
8.0373065425
 10
18.8938821141
 20
8.0430249201
 10
18.8843785811
 20
8.0452894745
 10
18.8760461796
 20
8.0439167448
 10
18.8742304551
 20
8.0430082174
  0
LWPOLYLINE
  5
523
100
AcDbEntity
  8
0
100
AcDbPolyline
 62
7
  6
CONTINUOUS
 90
4
 70
0
 10
19.1215462109
 20
8.1302222602
 10
19.1201233262
 20
8.1435236485
 10
19.1159516396
 20
8.1575615377
 10
19.1093154445
 20
8.1713792687
  0
LINE
  5
524
100
AcDbEntity
  8
0
100
AcDbLine
 62
7
  6
CONTINUOUS
 10
19.2607398796
 20
8.2105852826
 11
19.2607398796
 21
7.0395138308
  0
LWPOLYLINE
  5
525
100
AcDbEntity
  8
0
100
AcDbPolyline
 62
7
  6
CONTINUOUS
 90
5
 70
0
 10
19.2607398796
 20
7.0395138308
 10
19.2591351259
 20
7.0216263323
 10
19.2543825344
 20
7.0062792084
 10
19.2466647446
 20
6.9940622404
 10
19.2362783469
 20
6.9854449197
  0
LWPOLYLINE
  5
526
100
AcDbEntity
  8
0
100
AcDbPolyline
 62
7
  6
CONTINUOUS
 90
17
 70
0
 10
18.2652886549
 20
8.2565856077
 10
18.3182839898
 20
8.2147031164
 10
18.3690538026
 20
8.1657807963
 10
18.4165763084
 20
8.1108032333
 10
18.4598950738
 20
8.0508768828
 10
18.4981382658
 20
7.9872078015
 10
18.530536199
 20
7.9210773757
 10
18.5564368263
 20
7.853816532
 10
18.575318862
 20
7.7867789521
 10
18.5868022745
 20
7.7213138286
 10
18.5906559349
 20
7.6587387114
 10
18.5868022745
 20
7.6003130281
 10
18.575318862
 20
7.5472126839
 10
18.5564368263
 20
7.5005063603
 10
18.530536199
 20
7.4611340505
 10
18.4981382658
 20
7.429888141
 10
18.4833360635
 20
7.4197145437
  0
LWPOLYLINE
  5
527
100
AcDbEntity
  8
AXIS
100
AcDbPolyline
 62
7
  6
CONTINUOUS
 90
3
 70
0
 10
18.1638858884
 20
8.2141602353
 10
18.1823574567
 20
8.2092110518
 10
18.1873014625
 20
8.2068561541
  0
LINE
  5
528
100
AcDbEntity
  8
0
100
AcDbLine
 62
7
  6
CONTINUOUS
 10
19.1093154445
 20
8.1713792687
 11
19.0516520288
 21
8.27125468
  0
LWPOLYLINE
  5
529
100
AcDbEntity
  8
0
100
AcDbPolyline
 62
7
  6
CONTINUOUS
 90
4
 70
0
 10
19.0516520288
 20
8.27125468
 10
19.043003571
 20
8.2839105974
 10
19.0329322286
 20
8.2945422213
 10
19.0221243468
 20
8.3024250241
  0
LINE
  5
52A
100
AcDbEntity
  8
0
100
AcDbLine
 62
7
  6
CONTINUOUS
 10
19.2485091133
 20
8.2517422911
 11
19.1908456976
 21
8.3516177024
  0
LWPOLYLINE
  5
52B
100
AcDbEntity
  8
0
100
AcDbPolyline
 62
7
  6
CONTINUOUS
 90
4
 70
0
 10
19.2485091133
 20
8.2517422911
 10
19.2551453084
 20
8.2379245601
 10
19.259316995
 20
8.2238866709
 10
19.2607398796
 20
8.2105852826
  0
LWPOLYLINE
  5
52C
100
AcDbEntity
  8
0
100
AcDbPolyline
 62
7
  6
CONTINUOUS
 90
5
 70
0
 10
17.8780909753
 20
8.9629180568
 10
17.8509354115
 20
8.9755076149
 10
17.8248234208
 20
8.9814366449
 10
17.8007584724
 20
8.9804772974
 10
17.7796662191
 20
8.9726669306
  0
LINE
  5
52D
100
AcDbEntity
  8
0
100
AcDbLine
 62
7
  6
CONTINUOUS
 10
17.8780909753
 20
8.9629180568
 11
19.0221243468
 21
8.3024250241
  0
LINE
  5
52E
100
AcDbEntity
  8
0
100
AcDbLine
 62
7
  6
CONTINUOUS
 10
18.017284644
 20
9.0432810792
 11
19.1613180156
 21
8.3827880466
  0
LWPOLYLINE
  5
52F
100
AcDbEntity
  8
0
100
AcDbPolyline
 62
7
  6
CONTINUOUS
 90
4
 70
0
 10
19.1613180156
 20
8.3827880466
 10
19.1721258973
 20
8.3749052438
 10
19.1821972397
 20
8.3642736199
 10
19.1908456976
 20
8.3516177024
  0
LINE
  5
530
100
AcDbEntity
  8
0
100
AcDbLine
 62
7
  6
CONTINUOUS
 10
17.123291975
 20
13.9280425198
 11
17.3201490595
 21
14.0416984827
  0
LINE
  5
531
100
AcDbEntity
  8
0
100
AcDbLine
 62
7
  6
CONTINUOUS
 10
17.3496767415
 20
14.0387739679
 11
17.2104830727
 21
13.9584109454
  0
LWPOLYLINE
  5
532
100
AcDbEntity
  8
0
100
AcDbPolyline
 62
7
  6
CONTINUOUS
 90
4
 70
0
 10
17.3201490595
 20
14.0416984827
 10
17.3287975173
 20
14.0443682471
 10
17.3388688597
 20
14.0433707496
 10
17.3496767415
 20
14.0387739679
  0
LWPOLYLINE
  5
533
100
AcDbEntity
  8
0
100
AcDbPolyline
 62
7
  6
CONTINUOUS
 90
4
 70
0
 10
17.123291975
 20
13.9280425198
 10
17.1166557799
 20
13.9218874335
 10
17.1124840933
 20
13.9126664841
 10
17.1110612087
 20
13.9010080643
  0
LWPOLYLINE
  5
534
100
AcDbEntity
  8
0
100
AcDbPolyline
 62
7
  6
CONTINUOUS
 90
10
 70
0
 10
17.189805778
 20
13.7685198492
 10
17.1998953478
 20
13.7716344025
 10
17.2116452473
 20
13.7704706553
 10
17.2242544426
 20
13.7651077433
 10
17.236863638
 20
13.7559111401
 10
17.2486135375
 20
13.7435075788
 10
17.258703405
 20
13.7287423419
 10
17.2664456326
 20
13.7126216556
 10
17.2713126003
 20
13.6962441183
 10
17.2729726324
 20
13.6807258319
  0
LWPOLYLINE
  5
535
100
AcDbEntity
  8
0
100
AcDbPolyline
 62
7
  6
CONTINUOUS
 90
10
 70
0
 10
17.2587031073
 20
13.6491854619
 10
17.2486135375
 20
13.6460709086
 10
17.236863638
 20
13.6472346557
 10
17.2242544426
 20
13.6525975678
 10
17.2116452473
 20
13.661794171
 10
17.1998953478
 20
13.6741977322
 10
17.1898054803
 20
13.6889629692
 10
17.1820632527
 20
13.7050836554
 10
17.177196285
 20
13.7214611928
 10
17.1755362529
 20
13.7369794792
  0
LWPOLYLINE
  5
536
100
AcDbEntity
  8
0
100
AcDbPolyline
 62
7
  6
CONTINUOUS
 90
10
 70
0
 10
17.3091689018
 20
13.5566344911
 10
17.3109846264
 20
13.5575430185
 10
17.3193170278
 20
13.5589157482
 10
17.3288205608
 20
13.5566511938
 10
17.3387253055
 20
13.5509328162
 10
17.3482288384
 20
13.5422238842
 10
17.3565612399
 20
13.5312299437
 10
17.3630474683
 20
13.5188416584
 10
17.3671620479
 20
13.5060626535
 10
17.3685716401
 20
13.493928208
  0
LWPOLYLINE
  5
537
100
AcDbEntity
  8
0
100
AcDbPolyline
 62
7
  6
CONTINUOUS
 90
10
 70
0
 10
17.3583769644
 20
13.4714031016
 10
17.3565612399
 20
13.4704945742
 10
17.3482288384
 20
13.4691218445
 10
17.3387253055
 20
13.4713863989
 10
17.3288205608
 20
13.4771047765
 10
17.3193170278
 20
13.4858137085
 10
17.3109846264
 20
13.496807649
 10
17.304498398
 20
13.5091959343
 10
17.3003838183
 20
13.5219749391
 10
17.2989742262
 20
13.5341093846
  0
LWPOLYLINE
  5
538
100
AcDbEntity
  8
0
100
AcDbPolyline
 62
7
  6
CONTINUOUS
 90
4
 70
0
 10
18.3317998853
 20
9.7213083282
 10
18.309213002
 20
9.736615061
 10
18.2889871825
 20
9.7563222484
 10
18.2744404525
 20
9.7796507399
  0
LWPOLYLINE
  5
539
100
AcDbEntity
  8
0
100
AcDbPolyline
 62
7
  6
CONTINUOUS
 90
6
 70
0
 10
18.3408506936
 20
9.7013030736
 10
18.3092853579
 20
9.7241284536
 10
18.2868190488
 20
9.7500017468
 10
18.2729946299
 20
9.7782238555
 10
18.2678533667
 20
9.8072757085
 10
18.2678020832
 20
9.8105467731
  0
LWPOLYLINE
  5
53A
100
AcDbEntity
  8
0
100
AcDbPolyline
 62
7
  6
CONTINUOUS
 90
8
 70
0
 10
18.5905361905
 20
13.3866432411
 10
18.6491195849
 20
13.4089300483
 10
18.7027935903
 20
13.4278666868
 10
18.7543089235
 20
13.4446824184
 10
18.8057965365
 20
13.4601296199
 10
18.8574416465
 20
13.4742238685
 10
18.9087621613
 20
13.4867979401
 10
18.9593360833
 20
13.4977409421
  0
LWPOLYLINE
  5
53B
100
AcDbEntity
  8
0
100
AcDbPolyline
 62
7
  6
CONTINUOUS
 90
10
 70
0
 10
17.189805778
 20
12.9648757378
 10
17.1998953478
 20
12.9679902911
 10
17.2116452473
 20
12.966826544
 10
17.2242544426
 20
12.961463632
 10
17.236863638
 20
12.9522670287
 10
17.2486135375
 20
12.9398634675
 10
17.258703405
 20
12.9250982305
 10
17.2664456326
 20
12.9089775443
 10
17.2713126003
 20
12.8926000069
 10
17.2729726324
 20
12.8770817206
  0
LWPOLYLINE
  5
53C
100
AcDbEntity
  8
0
100
AcDbPolyline
 62
7
  6
CONTINUOUS
 90
4
 70
0
 10
17.1755362529
 20
13.7369794792
 10
17.177196285
 20
13.750580969
 10
17.1820632527
 20
13.7613387432
 10
17.189805778
 20
13.7685198492
  0
LWPOLYLINE
  5
53D
100
AcDbEntity
  8
0
100
AcDbPolyline
 62
7
  6
CONTINUOUS
 90
4
 70
0
 10
17.1755362529
 20
12.9333353678
 10
17.177196285
 20
12.9469368577
 10
17.1820632527
 20
12.9576946319
 10
17.189805778
 20
12.9648757378
  0
LWPOLYLINE
  5
53E
100
AcDbEntity
  8
0
100
AcDbPolyline
 62
7
  6
CONTINUOUS
 90
4
 70
0
 10
17.2729726324
 20
13.6807258319
 10
17.2713126003
 20
13.6671243421
 10
17.2664456326
 20
13.6563665678
 10
17.2587031073
 20
13.6491854619
  0
LWPOLYLINE
  5
53F
100
AcDbEntity
  8
AXIS
100
AcDbPolyline
 62
7
  6
CONTINUOUS
 90
6
 70
0
 10
17.7656910181
 20
13.016017644
 10
17.738281841
 20
12.9960084996
 10
17.7081044329
 20
12.9600953074
 10
17.6859412231
 20
12.9145471914
 10
17.6723967663
 20
12.8606065856
 10
17.6678405198
 20
12.7997448491
  0
LWPOLYLINE
  5
540
100
AcDbEntity
  8
0
100
AcDbPolyline
 62
7
  6
CONTINUOUS
 90
13
 70
0
 10
17.8282559507
 20
12.9698534992
 10
17.823100727
 20
12.9665160683
 10
17.7965070647
 20
12.9435629103
 10
17.7748173724
 20
12.9140647178
 10
17.75857218
 20
12.8785655177
 10
17.7481946846
 20
12.8377690326
 10
17.7439566085
 20
12.7926359976
 10
17.7459113837
 20
12.7442547098
 10
17.7539420203
 20
12.6936603558
 10
17.7678246162
 20
12.6418782477
 10
17.7872275807
 20
12.5899810967
 10
17.8117101764
 20
12.5390569821
 10
17.8407287884
 20
12.4901789065
  0
LINE
  5
541
100
AcDbEntity
  8
0
100
AcDbLine
 62
7
  6
CONTINUOUS
 10
17.8380000087
 20
12.9758864351
 11
17.8281865554
 21
12.9698106447
  0
LINE
  5
542
100
AcDbEntity
  8
0
100
AcDbLine
 62
7
  6
CONTINUOUS
 10
17.8902396047
 20
12.9954494738
 11
17.879740428
 21
12.9889491306
  0
LINE
  5
543
100
AcDbEntity
  8
0
100
AcDbLine
 62
7
  6
CONTINUOUS
 10
18.3545164442
 20
13.2979179128
 11
18.493710113
 21
13.3782809352
  0
LINE
  5
544
100
AcDbEntity
  8
0
100
AcDbLine
 62
7
  6
CONTINUOUS
 10
17.8380000087
 20
12.9758864351
 11
17.8506742498
 21
12.9828542831
  0
LWPOLYLINE
  5
545
100
AcDbEntity
  8
0
100
AcDbPolyline
 62
7
  6
CONTINUOUS
 90
3
 70
0
 10
17.8282558305
 20
12.9698535061
 10
17.8434893032
 20
12.9779800179
 10
17.8613338744
 20
12.984655765
  0
LWPOLYLINE
  5
546
100
AcDbEntity
  8
0
100
AcDbPolyline
 62
7
  6
CONTINUOUS
 90
10
 70
0
 10
17.3091689018
 20
12.7529903797
 10
17.3109846264
 20
12.7538989071
 10
17.3193170278
 20
12.7552716368
 10
17.3288205608
 20
12.7530070825
 10
17.3387253055
 20
12.7472887048
 10
17.3482288384
 20
12.7385797728
 10
17.3565612399
 20
12.7275858323
 10
17.3630474683
 20
12.7151975471
 10
17.3671620479
 20
12.7024185422
 10
17.3685716401
 20
12.6902840967
  0
LINE
  5
547
100
AcDbEntity
  8
0
100
AcDbLine
 62
7
  6
CONTINUOUS
 10
17.8506742498
 20
12.9828542831
 11
17.8698151765
 21
12.9904776313
  0
LINE
  5
548
100
AcDbEntity
  8
0
100
AcDbLine
 62
7
  6
CONTINUOUS
 10
17.8902396047
 20
12.9954494738
 11
17.8944514011
 21
12.9970966379
  0
LWPOLYLINE
  5
549
100
AcDbEntity
  8
0
100
AcDbPolyline
 62
7
  6
CONTINUOUS
 90
3
 70
0
 10
17.8744809381
 20
12.9923486025
 10
17.8555858977
 20
12.9852461483
 10
17.8380000087
 20
12.9758864351
  0
LWPOLYLINE
  5
54A
100
AcDbEntity
  8
0
100
AcDbPolyline
 62
7
  6
CONTINUOUS
 90
10
 70
0
 10
17.2587031073
 20
12.8455413506
 10
17.2486135375
 20
12.8424267973
 10
17.236863638
 20
12.8435905444
 10
17.2242544426
 20
12.8489534564
 10
17.2116452473
 20
12.8581500597
 10
17.1998953478
 20
12.8705536209
 10
17.1898054803
 20
12.8853188579
 10
17.1820632527
 20
12.9014395441
 10
17.177196285
 20
12.9178170815
 10
17.1755362529
 20
12.9333353678
  0
LWPOLYLINE
  5
54B
100
AcDbEntity
  8
0
100
AcDbPolyline
 62
7
  6
CONTINUOUS
 90
5
 70
0
 10
17.1110612087
 20
12.7299366125
 10
17.1126659624
 20
12.7101961459
 10
17.1174185539
 20
12.6893613262
 10
17.1251363437
 20
12.6682328239
 10
17.1355227414
 20
12.6476225955
  0
LINE
  5
54C
100
AcDbEntity
  8
0
100
AcDbLine
 62
7
  6
CONTINUOUS
 10
17.1110612087
 20
13.9010080643
 11
17.1110612087
 21
12.7299366125
  0
LWPOLYLINE
  5
54D
100
AcDbEntity
  8
0
100
AcDbPolyline
 62
7
  6
CONTINUOUS
 90
4
 70
0
 10
17.2729726324
 20
12.8770817206
 10
17.2713126003
 20
12.8634802307
 10
17.2664456326
 20
12.8527224565
 10
17.2587031073
 20
12.8455413506
  0
LWPOLYLINE
  5
54E
100
AcDbEntity
  8
0
100
AcDbPolyline
 62
7
  6
CONTINUOUS
 90
4
 70
0
 10
17.2989742262
 20
13.5341093846
 10
17.3003838183
 20
13.5446162102
 10
17.304498398
 20
13.5526442152
 10
17.3091689018
 20
13.5566344911
  0
LWPOLYLINE
  5
54F
100
AcDbEntity
  8
0
100
AcDbPolyline
 62
7
  6
CONTINUOUS
 90
4
 70
0
 10
17.3685716401
 20
13.493928208
 10
17.3671620479
 20
13.4834213825
 10
17.3630474683
 20
13.4753933775
 10
17.3583769644
 20
13.4714031016
  0
LWPOLYLINE
  5
550
100
AcDbEntity
  8
0
100
AcDbPolyline
 62
7
  6
CONTINUOUS
 90
4
 70
0
 10
17.2989742262
 20
12.7304652733
 10
17.3003838183
 20
12.7409720988
 10
17.304498398
 20
12.7490001038
 10
17.3091689018
 20
12.7529903797
  0
LWPOLYLINE
  5
551
100
AcDbEntity
  8
AXIS
100
AcDbPolyline
 62
7
  6
CONTINUOUS
 90
5
 70
0
 10
17.802281504
 20
13.0298665558
 10
17.7794100509
 20
13.0053540534
 10
17.7548002215
 20
12.9586216244
 10
17.7397287181
 20
12.9023736175
 10
17.7346534808
 20
12.8383190998
  0
LINE
  5
552
100
AcDbEntity
  8
AXIS
100
AcDbLine
 62
7
  6
CONTINUOUS
 10
17.9121671489
 20
13.0001889528
 11
17.9058706628
 21
12.9934406875
  0
LINE
  5
553
100
AcDbEntity
  8
0
100
AcDbLine
 62
7
  6
CONTINUOUS
 10
17.8797404265
 20
12.9889491314
 11
17.8756110012
 21
12.9853906754
  0
LINE
  5
554
100
AcDbEntity
  8
0
100
AcDbLine
 62
7
  6
CONTINUOUS
 10
17.9425819447
 20
13.0036945567
 11
17.9168328339
 21
12.9877525437
  0
LINE
  5
555
100
AcDbEntity
  8
0
100
AcDbLine
 62
7
  6
CONTINUOUS
 10
17.9253689525
 20
12.9772212617
 11
17.9387940571
 21
12.985533129
  0
LINE
  5
556
100
AcDbEntity
  8
0
100
AcDbLine
 62
7
  6
CONTINUOUS
 10
18.0010817717
 20
12.9917839195
 11
17.9897862004
 21
12.9847905074
  0
LINE
  5
557
100
AcDbEntity
  8
0
100
AcDbLine
 62
7
  6
CONTINUOUS
 10
18.0259618057
 20
12.9660194044
 11
18.0346586079
 21
12.9714038441
  0
LINE
  5
558
100
AcDbEntity
  8
0
100
AcDbLine
 62
7
  6
CONTINUOUS
 10
18.000046896
 20
12.924258129
 11
18.0259618057
 21
12.9403027928
  0
LWPOLYLINE
  5
559
100
AcDbEntity
  8
0
100
AcDbPolyline
 62
7
  6
CONTINUOUS
 90
10
 70
0
 10
17.3583769644
 20
12.6677589902
 10
17.3565612399
 20
12.6668504628
 10
17.3482288384
 20
12.6654777332
 10
17.3387253055
 20
12.6677422875
 10
17.3288205608
 20
12.6734606652
 10
17.3193170278
 20
12.6821695972
 10
17.3109846264
 20
12.6931635376
 10
17.304498398
 20
12.7055518229
 10
17.3003838183
 20
12.7183308278
 10
17.2989742262
 20
12.7304652733
  0
LWPOLYLINE
  5
55A
100
AcDbEntity
  8
DEFAULT_2
100
AcDbPolyline
 62
7
  6
HIDDEN
 90
17
 70
0
 10
17.1685765115
 20
12.9373534855
 10
17.1696368891
 20
12.9242536667
 10
17.1727776323
 20
12.9104284251
 10
17.1778791112
 20
12.8964043598
 10
17.1848842
 20
12.8824774741
 10
17.1932810537
 20
12.8696653721
 10
17.2028576741
 20
12.8582070984
 10
17.2132492909
 20
12.8485390952
 10
17.2242544426
 20
12.8409170153
 10
17.2350690095
 20
12.8358977857
 10
17.2454716528
 20
12.8335185813
 10
17.2550661392
 20
12.8338700253
 10
17.2636246853
 20
12.8370176622
 10
17.2705219387
 20
12.8427315016
 10
17.2756568775
 20
12.8508250721
 10
17.2788339136
 20
12.8609900922
 10
17.2799323738
 20
12.8730636085
  0
LWPOLYLINE
  5
55B
100
AcDbEntity
  8
DEFAULT_2
100
AcDbPolyline
 62
7
  6
HIDDEN
 90
17
 70
0
 10
17.1685765115
 20
13.7409975968
 10
17.1696368891
 20
13.727897778
 10
17.1727776323
 20
13.7140725364
 10
17.1778791112
 20
13.7000484712
 10
17.1848842
 20
13.6861215855
 10
17.1932810537
 20
13.6733094834
 10
17.2028576741
 20
13.6618512098
 10
17.2132492909
 20
13.6521832066
 10
17.2242544426
 20
13.6445611266
 10
17.2350690095
 20
13.639541897
 10
17.2454716528
 20
13.6371626926
 10
17.2550661392
 20
13.6375141367
 10
17.2636246853
 20
13.6406617735
 10
17.2705219387
 20
13.6463756129
 10
17.2756568775
 20
13.6544691835
 10
17.2788339136
 20
13.6646342036
 10
17.2799323738
 20
13.6767077199
  0
LWPOLYLINE
  5
55C
100
AcDbEntity
  8
DEFAULT_2
100
AcDbPolyline
 62
7
  6
HIDDEN
 90
17
 70
0
 10
17.2799323738
 20
12.8730636029
 10
17.2788719962
 20
12.8861634217
 10
17.275731253
 20
12.8999886633
 10
17.2706297741
 20
12.9140127286
 10
17.2636246853
 20
12.9279396143
 10
17.2552278316
 20
12.9407517163
 10
17.2456512111
 20
12.95220999
 10
17.2352595944
 20
12.9618779932
 10
17.2242544426
 20
12.9695000731
 10
17.2134398758
 20
12.9745193027
 10
17.2030372325
 20
12.9768985071
 10
17.1934427461
 20
12.9765470631
 10
17.1848842
 20
12.9733994262
 10
17.1779869466
 20
12.9676855868
 10
17.1728520078
 20
12.9595920163
 10
17.1696749717
 20
12.9494269962
 10
17.1685765115
 20
12.9373534799
  0
LWPOLYLINE
  5
55D
100
AcDbEntity
  8
0
100
AcDbPolyline
 62
7
  6
CONTINUOUS
 90
4
 70
0
 10
17.3685716401
 20
12.6902840967
 10
17.3671620479
 20
12.6797772711
 10
17.3630474683
 20
12.6717492661
 10
17.3583769644
 20
12.6677589902
  0
LWPOLYLINE
  5
55E
100
AcDbEntity
  8
0
100
AcDbPolyline
 62
7
  6
CONTINUOUS
 90
5
 70
0
 10
17.8756110012
 20
12.9853906754
 10
17.8724084622
 20
12.9804090913
 10
17.8703817064
 20
12.9745076446
 10
17.8696968071
 20
12.9683009491
 10
17.8703678159
 20
12.9623900947
  0
LINE
  5
55F
100
AcDbEntity
  8
0
100
AcDbLine
 62
7
  6
CONTINUOUS
 10
18.1243989986
 20
12.8854212958
 11
18.0975299987
 21
12.869908564
  0
LINE
  5
560
100
AcDbEntity
  8
0
100
AcDbLine
 62
7
  6
CONTINUOUS
 10
18.493711272
 20
13.0568267373
 11
18.6329049408
 21
13.1371897597
  0
LWPOLYLINE
  5
561
100
AcDbEntity
  8
DEFAULT_2
100
AcDbPolyline
 62
7
  6
HIDDEN
 90
17
 70
0
 10
17.2799323738
 20
13.6767077142
 10
17.2788719962
 20
13.6898075331
 10
17.275731253
 20
13.7036327747
 10
17.2706297741
 20
13.7176568399
 10
17.2636246853
 20
13.7315837256
 10
17.2552278316
 20
13.7443958277
 10
17.2456512111
 20
13.7558541013
 10
17.2352595944
 20
13.7655221045
 10
17.2242544426
 20
13.7731441845
 10
17.2134398758
 20
13.7781634141
 10
17.2030372325
 20
13.7805426185
 10
17.1934427461
 20
13.7801911744
 10
17.1848842
 20
13.7770435376
 10
17.1779869466
 20
13.7713296982
 10
17.1728520078
 20
13.7632361276
 10
17.1696749717
 20
13.7530711075
 10
17.1685765115
 20
13.7409975912
  0
LWPOLYLINE
  5
562
100
AcDbEntity
  8
DEFAULT_2
100
AcDbPolyline
 62
7
  6
HIDDEN
 90
17
 70
0
 10
17.2920144848
 20
13.5381275023
 10
17.292809768
 20
13.5283026382
 10
17.2951653254
 20
13.517933707
 10
17.2989914345
 20
13.507415658
 10
17.3042452511
 20
13.4969704938
 10
17.3105428914
 20
13.4873614172
 10
17.3177253568
 20
13.478767712
 10
17.3255190693
 20
13.4715167096
 10
17.3337729331
 20
13.4658001497
 10
17.3418838583
 20
13.4620357274
 10
17.3496858408
 20
13.4602513241
 10
17.3568817056
 20
13.4605149072
 10
17.3633006151
 20
13.4628756348
 10
17.3684735552
 20
13.4671610144
 10
17.3723247593
 20
13.4732311923
 10
17.3747075363
 20
13.4808549573
 10
17.3755313815
 20
13.4899100946
  0
LWPOLYLINE
  5
563
100
AcDbEntity
  8
DEFAULT_2
100
AcDbPolyline
 62
7
  6
HIDDEN
 90
17
 70
0
 10
17.3755313815
 20
13.4899100904
 10
17.3747360983
 20
13.4997349545
 10
17.3723805409
 20
13.5101038857
 10
17.3685544317
 20
13.5206219346
 10
17.3633006151
 20
13.5310670989
 10
17.3570029749
 20
13.5406761754
 10
17.3498205095
 20
13.5492698807
 10
17.342026797
 20
13.556520883
 10
17.3337729331
 20
13.562237443
 10
17.325662008
 20
13.5660018652
 10
17.3178600255
 20
13.5677862685
 10
17.3106641607
 20
13.5675226855
 10
17.3042452511
 20
13.5651619579
 10
17.2990723111
 20
13.5608765783
 10
17.295221107
 20
13.5548064004
 10
17.2928383299
 20
13.5471826353
 10
17.2920144848
 20
13.5381274981
  0
LINE
  5
564
100
AcDbEntity
  8
0
100
AcDbLine
 62
7
  6
CONTINUOUS
 10
17.6956794854
 20
13.456001042
 11
17.6956794854
 21
13.5685112176
  0
LINE
  5
565
100
AcDbEntity
  8
0
100
AcDbLine
 62
7
  6
CONTINUOUS
 10
18.0259618057
 20
12.3960692227
 11
18.000046896
 21
12.3800245589
  0
LINE
  5
566
100
AcDbEntity
  8
0
100
AcDbLine
 62
7
  6
CONTINUOUS
 10
18.0836127518
 20
12.4060459654
 11
18.0259618057
 21
12.3703526112
  0
LWPOLYLINE
  5
567
100
AcDbEntity
  8
0
100
AcDbPolyline
 62
7
  6
CONTINUOUS
 90
4
 70
0
 10
18.9492715162
 20
12.9165928278
 10
18.9522948754
 20
12.9184072863
 10
18.9554459074
 20
12.9188692257
 10
18.9585853121
 20
12.9178729417
  0
LWPOLYLINE
  5
568
100
AcDbEntity
  8
0
100
AcDbPolyline
 62
7
  6
CONTINUOUS
 90
5
 70
0
 10
17.4926588276
 20
12.0290481827
 10
17.5053146898
 20
12.0097482677
 10
17.5197536589
 20
11.9925003511
 10
17.5354208533
 20
11.9779672605
 10
17.5517141916
 20
11.9667074945
  0
LINE
  5
569
100
AcDbEntity
  8
0
100
AcDbLine
 62
7
  6
CONTINUOUS
 10
17.4926588276
 20
12.0290481827
 11
17.1355227414
 21
12.6476225955
  0
LWPOLYLINE
  5
56A
100
AcDbEntity
  8
AXIS
100
AcDbPolyline
 62
7
  6
CONTINUOUS
 90
3
 70
0
 10
17.7346534808
 20
12.8383190998
 10
17.7397287181
 20
12.7684043355
 10
17.7502013606
 20
12.7172271378
  0
LWPOLYLINE
  5
56B
100
AcDbEntity
  8
AXIS
100
AcDbPolyline
 62
7
  6
CONTINUOUS
 90
16
 70
0
 10
17.6678405198
 20
12.7997448491
 10
17.6723967663
 20
12.7336221313
 10
17.6859412231
 20
12.6640420877
 10
17.7081044329
 20
12.5929026805
 10
17.738281841
 20
12.5221444072
 10
17.7756502864
 20
12.453697369
 10
17.8191904553
 20
12.3894286229
 10
17.8677146854
 20
12.3310912525
 10
17.9198993623
 20
12.2802765494
 10
17.9743210239
 20
12.2383706061
 10
18.0294951892
 20
12.2065165076
 10
18.0839168508
 20
12.1855831505
 10
18.1361015276
 20
12.1761415424
 10
18.1846257577
 20
12.1784492256
 10
18.2281659266
 20
12.1924432527
 10
18.2381251949
 20
12.1977327586
  0
LINE
  5
56C
100
AcDbEntity
  8
0
100
AcDbLine
 62
7
  6
CONTINUOUS
 10
17.8348743132
 20
11.8808606416
 11
17.8348743132
 21
11.9933708172
  0
LWPOLYLINE
  5
56D
100
AcDbEntity
  8
0
100
AcDbPolyline
 62
7
  6
CONTINUOUS
 90
3
 70
0
 10
17.8703678159
 20
12.4549033769
 10
17.8696968057
 20
12.4512019666
 10
17.8704850042
 20
12.4484234657
  0
LWPOLYLINE
  5
56E
100
AcDbEntity
  8
0
100
AcDbPolyline
 62
7
  6
CONTINUOUS
 90
4
 70
0
 10
18.199868772
 20
12.7786840664
 10
18.2018044915
 20
12.783141596
 10
18.204869473
 20
12.7880213288
 10
18.2072451215
 20
12.790933803
  0
LWPOLYLINE
  5
56F
100
AcDbEntity
  8
0
100
AcDbPolyline
 62
7
  6
CONTINUOUS
 90
4
 70
0
 10
18.6329049408
 20
12.6862514556
 10
18.7089768458
 20
12.7350719385
 10
18.8338472543
 20
12.8243500423
 10
18.9492715162
 20
12.9165928278
  0
LINE
  5
570
100
AcDbEntity
  8
02___PRT_ALL_AXES
100
AcDbLine
 62
7
  6
CONTINUOUS
 10
19.1294765071
 20
12.7838827006
 11
19.143406328
 21
12.7919253163
  0
LINE
  5
571
100
AcDbEntity
  8
0
100
AcDbLine
 62
7
  6
CONTINUOUS
 10
18.2757220345
 20
12.283697311
 11
18.2654743403
 21
12.2777808386
  0
LWPOLYLINE
  5
572
100
AcDbEntity
  8
02___PRT_ALL_AXES
100
AcDbPolyline
 62
7
  6
CONTINUOUS
 90
4
 70
0
 10
19.143406328
 20
12.7919253163
 10
19.1253179599
 20
12.7833092383
 10
19.1077809429
 20
12.7786103305
 10
19.0913263305
 20
12.7779703279
  0
LWPOLYLINE
  5
573
100
AcDbEntity
  8
02___PRT_ALL_AXES
100
AcDbPolyline
 62
7
  6
CONTINUOUS
 90
4
 70
0
 10
19.1294765071
 20
12.7838827006
 10
19.1089689887
 20
12.7741143025
 10
19.0890865594
 20
12.7687869597
 10
19.0704312962
 20
12.7680613627
  0
LWPOLYLINE
  5
574
100
AcDbEntity
  8
0
100
AcDbPolyline
 62
7
  6
CONTINUOUS
 90
5
 70
0
 10
19.0628663183
 20
12.7698103277
 10
19.0521554565
 20
12.7648428072
 10
19.0399009274
 20
12.7602033159
 10
19.0267751648
 20
12.7561375453
 10
19.012898984
 20
12.7526293129
  0
LINE
  5
575
100
AcDbEntity
  8
0
100
AcDbLine
 62
7
  6
CONTINUOUS
 10
18.2744404525
 20
9.7796507399
 11
18.267997926
 21
9.8051696812
  0
LINE
  5
576
100
AcDbEntity
  8
0
100
AcDbLine
 62
7
  6
CONTINUOUS
 10
17.9866238361
 20
12.3877843918
 11
17.9866238361
 21
12.8998770934
  0
LINE
  5
577
100
AcDbEntity
  8
0
100
AcDbLine
 62
7
  6
CONTINUOUS
 10
18.0259618057
 20
12.3703526112
 11
18.0259618057
 21
12.3960692227
  0
LINE
  5
578
100
AcDbEntity
  8
0
100
AcDbLine
 62
7
  6
CONTINUOUS
 10
18.0259618057
 20
12.9403027928
 11
18.0259618057
 21
12.9660194044
  0
LINE
  5
579
100
AcDbEntity
  8
0
100
AcDbLine
 62
7
  6
CONTINUOUS
 10
18.2905706668
 20
12.3350703548
 11
18.2790975335
 21
12.3187023077
  0
LINE
  5
57A
100
AcDbEntity
  8
0
100
AcDbLine
 62
7
  6
CONTINUOUS
 10
18.2790975335
 20
12.3187023077
 11
18.2659174946
 21
12.3044645099
  0
LWPOLYLINE
  5
57B
100
AcDbEntity
  8
0
100
AcDbPolyline
 62
7
  6
CONTINUOUS
 90
5
 70
0
 10
18.2659174946
 20
12.3044645099
 10
18.25109574
 20
12.2924542407
 10
18.2348712499
 20
12.2828536451
 10
18.2176417535
 20
12.2757804905
 10
18.199868772
 20
12.2711973486
  0
LWPOLYLINE
  5
57C
100
AcDbEntity
  8
0
100
AcDbPolyline
 62
7
  6
CONTINUOUS
 90
4
 70
0
 10
18.9492715162
 20
12.6754995944
 10
18.8338424544
 20
12.5832531823
 10
18.7089659748
 20
12.4939713442
 10
18.6329049408
 20
12.445158058
  0
LWPOLYLINE
  5
57D
100
AcDbEntity
  8
0
100
AcDbPolyline
 62
7
  6
CONTINUOUS
 90
3
 70
0
 10
18.2757220345
 20
12.283697311
 10
18.3034445443
 20
12.3044872453
 10
18.3260152692
 20
12.3316217573
  0
LWPOLYLINE
  5
57E
100
AcDbEntity
  8
0
100
AcDbPolyline
 62
7
  6
CONTINUOUS
 90
3
 70
0
 10
18.2863046833
 20
12.2925864724
 10
18.2706953625
 20
12.2809540056
 10
18.2654891499
 20
12.2777893876
  0
LWPOLYLINE
  5
57F
100
AcDbEntity
  8
AXIS
100
AcDbPolyline
 62
7
  6
CONTINUOUS
 90
4
 70
0
 10
18.2381251949
 20
12.1977327586
 10
18.265534372
 20
12.2177419029
 10
18.2957117801
 20
12.2536550952
 10
18.3178749899
 20
12.2992032111
  0
LWPOLYLINE
  5
580
100
AcDbEntity
  8
AXIS
100
AcDbPolyline
 62
7
  6
CONTINUOUS
 90
5
 70
0
 10
18.6329049408
 20
12.3824884774
 10
18.734638607
 20
12.4563862698
 10
18.8817717429
 20
12.5798459468
 10
19.0177696357
 20
12.711193337
 10
19.0694500381
 20
12.7682882221
  0
LWPOLYLINE
  5
581
100
AcDbEntity
  8
0
100
AcDbPolyline
 62
7
  6
CONTINUOUS
 90
4
 70
0
 10
18.6329049408
 20
12.4540395767
 10
18.7021035716
 20
12.498476993
 10
18.8267123842
 20
12.5876795381
 10
18.9418008045
 20
12.6798127142
  0
LWPOLYLINE
  5
582
100
AcDbEntity
  8
0
100
AcDbPolyline
 62
7
  6
CONTINUOUS
 90
5
 70
0
 10
18.4101943754
 20
11.471074942
 10
18.4287786332
 20
11.4627634428
 10
18.4464309988
 20
11.4597044854
 10
18.4622663087
 20
11.4620514587
 10
18.4692457342
 20
11.4652316711
  0
LINE
  5
583
100
AcDbEntity
  8
0
100
AcDbLine
 62
7
  6
CONTINUOUS
 10
17.5517141916
 20
11.9667074945
 11
18.4101943754
 21
11.471074942
  0
LINE
  5
584
100
AcDbEntity
  8
0
100
AcDbLine
 62
7
  6
CONTINUOUS
 10
18.0575860376
 20
11.7522808764
 11
17.8348743132
 21
11.8808606416
  0
LINE
  5
585
100
AcDbEntity
  8
0
100
AcDbLine
 62
7
  6
CONTINUOUS
 10
18.267997926
 20
9.8051696812
 11
18.2678020737
 21
9.8105096758
  0
LINE
  5
586
100
AcDbEntity
  8
0
100
AcDbLine
 62
7
  6
CONTINUOUS
 10
18.0575860376
 20
11.864791052
 11
18.0575860376
 21
11.7522808764
  0
LINE
  5
587
100
AcDbEntity
  8
0
100
AcDbLine
 62
7
  6
CONTINUOUS
 10
18.0836127518
 20
12.8458030515
 11
18.0836127518
 21
12.3337103499
  0
LINE
  5
588
100
AcDbEntity
  8
0
100
AcDbLine
 62
7
  6
CONTINUOUS
 10
18.1132639687
 20
13.3274241578
 11
18.1132639687
 21
13.2149139822
  0
LINE
  5
589
100
AcDbEntity
  8
0
100
AcDbLine
 62
7
  6
CONTINUOUS
 10
18.1243989986
 20
12.8940544594
 11
18.1243989986
 21
12.8854212958
  0
LINE
  5
58A
100
AcDbEntity
  8
AXIS
100
AcDbLine
 62
7
  6
CONTINUOUS
 10
18.3178749899
 20
12.2992032111
 11
18.3314194467
 21
12.3531438169
  0
LWPOLYLINE
  5
58B
100
AcDbEntity
  8
0
100
AcDbPolyline
 62
7
  6
CONTINUOUS
 90
5
 70
0
 10
18.3319782894
 20
12.3606087628
 10
18.3232612761
 20
12.3406826031
 10
18.312663333
 20
12.3225512744
 10
18.3003272611
 20
12.3064924964
 10
18.2863046833
 20
12.2925864724
  0
LWPOLYLINE
  5
58C
100
AcDbEntity
  8
0
100
AcDbPolyline
 62
7
  6
CONTINUOUS
 90
6
 70
0
 10
18.3272884498
 20
12.3366921806
 10
18.3255690417
 20
12.3334259282
 10
18.313486623
 20
12.3162316463
 10
18.299622583
 20
12.3013695638
 10
18.2840767156
 20
12.2889511093
 10
18.2757220345
 20
12.283697311
  0
LWPOLYLINE
  5
58D
100
AcDbEntity
  8
0
100
AcDbPolyline
 62
7
  6
CONTINUOUS
 90
7
 70
0
 10
18.9418008045
 20
12.6798127142
 10
18.94482051
 20
12.6826803715
 10
18.9479829254
 20
12.6862783438
 10
18.9510313544
 20
12.6903390562
 10
18.9537590536
 20
12.6946169101
 10
18.9560078303
 20
12.698932143
 10
18.9575270242
 20
12.7028787353
  0
LWPOLYLINE
  5
58E
100
AcDbEntity
  8
0
100
AcDbPolyline
 62
7
  6
CONTINUOUS
 90
10
 70
0
 10
18.3394890171
 20
11.9331278898
 10
18.3413047416
 20
11.9340364172
 10
18.3496371431
 20
11.9354091469
 10
18.3591406761
 20
11.9331445925
 10
18.3690454208
 20
11.9274262149
 10
18.3785489537
 20
11.9187172829
 10
18.3868813552
 20
11.9077233424
 10
18.3933675836
 20
11.8953350571
 10
18.3974821632
 20
11.8825560522
 10
18.3988917553
 20
11.8704216067
  0
LINE
  5
58F
100
AcDbEntity
  8
0
100
AcDbLine
 62
7
  6
CONTINUOUS
 10
17.8348743132
 20
11.9933708172
 11
18.0575860376
 21
11.864791052
  0
LWPOLYLINE
  5
590
100
AcDbEntity
  8
DEFAULT_2
100
AcDbPolyline
 62
7
  6
HIDDEN
 90
17
 70
0
 10
18.3099740994
 20
11.7447624989
 10
18.3110344769
 20
11.7316626801
 10
18.3141752201
 20
11.7178374385
 10
18.319276699
 20
11.7038133732
 10
18.3262817878
 20
11.6898864875
 10
18.3346786415
 20
11.6770743855
 10
18.344255262
 20
11.6656161118
 10
18.3546468787
 20
11.6559481086
 10
18.3656520305
 20
11.6483260287
 10
18.3764665973
 20
11.643306799
 10
18.3868692406
 20
11.6409275947
 10
18.396463727
 20
11.6412790387
 10
18.4050222731
 20
11.6444266756
 10
18.4119195265
 20
11.650140515
 10
18.4170544653
 20
11.6582340855
 10
18.4202315014
 20
11.6683991056
 10
18.4213299616
 20
11.6804726219
  0
LWPOLYLINE
  5
591
100
AcDbEntity
  8
DEFAULT_2
100
AcDbPolyline
 62
7
  6
HIDDEN
 90
17
 70
0
 10
18.3223346001
 20
11.914620901
 10
18.3231298832
 20
11.9047960369
 10
18.3254854406
 20
11.8944271057
 10
18.3293115498
 20
11.8839090567
 10
18.3345653664
 20
11.8734638925
 10
18.3408630067
 20
11.8638548159
 10
18.348045472
 20
11.8552611107
 10
18.3558391846
 20
11.8480101083
 10
18.3640930484
 20
11.8422935484
 10
18.3722039735
 20
11.8385291261
 10
18.380005956
 20
11.8367447228
 10
18.3872018208
 20
11.8370083059
 10
18.3936207304
 20
11.8393690335
 10
18.3987936704
 20
11.8436544131
 10
18.4026448746
 20
11.849724591
 10
18.4050276516
 20
11.8573483561
 10
18.4058514967
 20
11.8664034933
  0
LINE
  5
592
100
AcDbEntity
  8
AXIS
100
AcDbLine
 62
7
  6
CONTINUOUS
 10
18.2678020737
 20
11.5532833159
 11
18.2678020737
 21
9.8105096758
  0
LINE
  5
593
100
AcDbEntity
  8
AXIS
100
AcDbLine
 62
7
  6
CONTINUOUS
 10
18.3314194467
 20
12.3531438169
 11
18.3359756932
 21
12.4140055535
  0
LWPOLYLINE
  5
594
100
AcDbEntity
  8
0
100
AcDbPolyline
 62
7
  6
CONTINUOUS
 90
4
 70
0
 10
18.3169338407
 20
11.7407443812
 10
18.3185938728
 20
11.7543458711
 10
18.3234608405
 20
11.7651036453
 10
18.3312033658
 20
11.7722847512
  0
LWPOLYLINE
  5
595
100
AcDbEntity
  8
0
100
AcDbPolyline
 62
7
  6
CONTINUOUS
 90
4
 70
0
 10
18.3292943415
 20
11.9106027833
 10
18.3307039336
 20
11.9211096089
 10
18.3348185132
 20
11.9291376139
 10
18.3394890171
 20
11.9331278898
  0
LINE
  5
596
100
AcDbEntity
  8
0
100
AcDbLine
 62
7
  6
CONTINUOUS
 10
19.1434045282
 20
13.0045910297
 11
19.0741083521
 21
12.9183851294
  0
LINE
  5
597
100
AcDbEntity
  8
0
100
AcDbLine
 62
7
  6
CONTINUOUS
 10
19.0741083521
 20
12.9027374526
 11
19.119833627
 21
12.9596206562
  0
LINE
  5
598
100
AcDbEntity
  8
0
100
AcDbLine
 62
7
  6
CONTINUOUS
 10
19.1434045282
 20
12.8197991367
 11
19.2127007042
 21
12.9060050371
  0
LWPOLYLINE
  5
599
100
AcDbEntity
  8
0
100
AcDbPolyline
 62
7
  6
CONTINUOUS
 90
10
 70
0
 10
18.3886970797
 20
11.8478965003
 10
18.3868813552
 20
11.8469879729
 10
18.3785489537
 20
11.8456152432
 10
18.3690454208
 20
11.8478797976
 10
18.3591406761
 20
11.8535981752
 10
18.3496371431
 20
11.8623071072
 10
18.3413047416
 20
11.8733010477
 10
18.3348185132
 20
11.885689333
 10
18.3307039336
 20
11.8984683378
 10
18.3292943415
 20
11.9106027833
  0
LWPOLYLINE
  5
59A
100
AcDbEntity
  8
0
100
AcDbPolyline
 62
7
  6
CONTINUOUS
 90
10
 70
0
 10
18.3312033658
 20
11.7722847512
 10
18.3412929356
 20
11.7753993045
 10
18.3530428351
 20
11.7742355574
 10
18.3656520305
 20
11.7688726454
 10
18.3782612258
 20
11.7596760421
 10
18.3900111253
 20
11.7472724809
 10
18.4001009928
 20
11.7325072439
 10
18.4078432204
 20
11.7163865577
 10
18.4127101881
 20
11.7000090203
 10
18.4143702202
 20
11.684490734
  0
LWPOLYLINE
  5
59B
100
AcDbEntity
  8
0
100
AcDbPolyline
 62
7
  6
CONTINUOUS
 90
24
 70
0
 10
17.8703678159
 20
12.4549033769
 10
17.8522819263
 20
12.4797571199
 10
17.8350158764
 20
12.5061532935
 10
17.8188078252
 20
12.5338849605
 10
17.804011907
 20
12.5624500911
 10
17.7908603472
 20
12.591410792
 10
17.7794224905
 20
12.6205865081
 10
17.7697575182
 20
12.649817373
 10
17.7619404522
 20
12.6788810913
 10
17.7560325137
 20
12.7075509721
 10
17.7520767978
 20
12.7356160621
 10
17.7501026522
 20
12.7628692259
 10
17.7501251932
 20
12.7891056512
 10
17.7521442389
 20
12.8141279756
 10
17.7561445205
 20
12.8377494399
 10
17.7620969779
 20
12.8597969087
 10
17.7699586461
 20
12.8801070455
 10
17.7796659211
 20
12.8985170885
 10
17.7911390543
 20
12.9148851356
 10
17.8043190933
 20
12.9291229334
 10
17.8191408478
 20
12.9411332027
 10
17.835365338
 20
12.9507337982
 10
17.8525948344
 20
12.9578069528
 10
17.8703678159
 20
12.9623900947
  0
LWPOLYLINE
  5
59C
100
AcDbEntity
  8
AXIS
100
AcDbPolyline
 62
7
  6
CONTINUOUS
 90
9
 70
0
 10
17.8723702489
 20
12.4484452676
 10
17.9016872742
 20
12.4078156922
 10
17.9544632236
 20
12.3489291049
 10
18.0107108399
 20
12.2990521382
 10
18.0687210675
 20
12.2597002786
 10
18.1267312951
 20
12.2320692124
 10
18.1829789114
 20
12.2169984957
 10
18.2357548608
 20
12.2149460444
 10
18.2697987739
 20
12.2228168346
  0
LINE
  5
59D
100
AcDbEntity
  8
0
100
AcDbLine
 62
7
  6
CONTINUOUS
 10
17.8407287884
 20
12.4901789065
 11
17.8704839128
 21
12.4484241477
  0
LWPOLYLINE
  5
59E
100
AcDbEntity
  8
DEFAULT_2
100
AcDbPolyline
 62
7
  6
HIDDEN
 90
17
 70
0
 10
18.4058514967
 20
11.8664034891
 10
18.4050562136
 20
11.8762283532
 10
18.4027006562
 20
11.8865972844
 10
18.398874547
 20
11.8971153333
 10
18.3936207304
 20
11.9075604976
 10
18.3873230901
 20
11.9171695741
 10
18.3801406248
 20
11.9257632794
 10
18.3723469122
 20
11.9330142818
 10
18.3640930484
 20
11.9387308417
 10
18.3559821233
 20
11.9424952639
 10
18.3481801408
 20
11.9442796672
 10
18.340984276
 20
11.9440160842
 10
18.3345653664
 20
11.9416553566
 10
18.3293924264
 20
11.937369977
 10
18.3255412222
 20
11.9312997991
 10
18.3231584452
 20
11.923676034
 10
18.3223346001
 20
11.9146208968
  0
LWPOLYLINE
  5
59F
100
AcDbEntity
  8
DEFAULT_2
100
AcDbPolyline
 62
7
  6
HIDDEN
 90
17
 70
0
 10
18.4213299616
 20
11.6804726163
 10
18.420269584
 20
11.6935724351
 10
18.4171288408
 20
11.7073976767
 10
18.4120273619
 20
11.721421742
 10
18.4050222731
 20
11.7353486277
 10
18.3966254194
 20
11.7481607297
 10
18.387048799
 20
11.7596190034
 10
18.3766571823
 20
11.7692870066
 10
18.3656520305
 20
11.7769090865
 10
18.3548374636
 20
11.7819283161
 10
18.3444348203
 20
11.7843075205
 10
18.3348403339
 20
11.7839560765
 10
18.3262817878
 20
11.7808084396
 10
18.3193845344
 20
11.7750946002
 10
18.3142495956
 20
11.7670010297
 10
18.3110725595
 20
11.7568360096
 10
18.3099740994
 20
11.7447624933
  0
LWPOLYLINE
  5
5A0
100
AcDbEntity
  8
AXIS
100
AcDbPolyline
 62
7
  6
CONTINUOUS
 90
8
 70
0
 10
18.3359756932
 20
12.4140055535
 10
18.3314194467
 20
12.4801282712
 10
18.3178749899
 20
12.5497083148
 10
18.2957117801
 20
12.6208477221
 10
18.265534372
 20
12.6916059954
 10
18.2281659266
 20
12.7600530335
 10
18.1846257577
 20
12.8243217797
 10
18.1361015276
 20
12.88265915
  0
LINE
  5
5A1
100
AcDbEntity
  8
0
100
AcDbLine
 62
7
  6
CONTINUOUS
 10
18.493711272
 20
11.5192948234
 11
18.493711272
 21
13.0568267373
  0
LWPOLYLINE
  5
5A2
100
AcDbEntity
  8
0
100
AcDbPolyline
 62
7
  6
CONTINUOUS
 90
4
 70
0
 10
18.4143702202
 20
11.684490734
 10
18.4127101881
 20
11.6708892441
 10
18.4078432204
 20
11.6601314699
 10
18.4001006951
 20
11.652950364
  0
LWPOLYLINE
  5
5A3
100
AcDbEntity
  8
0
100
AcDbPolyline
 62
7
  6
CONTINUOUS
 90
4
 70
0
 10
18.3988917553
 20
11.8704216067
 10
18.3974821632
 20
11.8599147812
 10
18.3933675836
 20
11.8518867762
 10
18.3886970797
 20
11.8478965003
  0
LWPOLYLINE
  5
5A4
100
AcDbEntity
  8
0
100
AcDbPolyline
 62
7
  6
CONTINUOUS
 90
7
 70
0
 10
19.012898984
 20
12.924599241
 10
19.0267951795
 20
12.955292452
 10
19.0399255965
 20
12.9864042401
 10
19.0521752472
 20
13.0178075356
 10
19.0634300271
 20
13.0493632214
 10
19.0735845461
 20
13.0809411212
 10
19.0825311071
 20
13.1123869278
  0
LWPOLYLINE
  5
5A5
100
AcDbEntity
  8
0
100
AcDbPolyline
 62
7
  6
CONTINUOUS
 90
10
 70
0
 10
18.4001006951
 20
11.652950364
 10
18.3900111253
 20
11.6498358107
 10
18.3782612258
 20
11.6509995578
 10
18.3656520305
 20
11.6563624698
 10
18.3530428351
 20
11.6655590731
 10
18.3412929356
 20
11.6779626343
 10
18.3312030682
 20
11.6927278713
 10
18.3234608405
 20
11.7088485575
 10
18.3185938728
 20
11.7252260949
 10
18.3169338407
 20
11.7407443812
  0
LWPOLYLINE
  5
5A6
100
AcDbEntity
  8
0
100
AcDbPolyline
 62
7
  6
CONTINUOUS
 90
4
 70
0
 10
18.2071443072
 20
12.2604629596
 10
18.2048694719
 20
12.2620778225
 10
18.2018044904
 20
12.2660426136
 10
18.199868772
 20
12.2711973486
  0
LINE
  5
5A7
100
AcDbEntity
  8
0
100
AcDbLine
 62
7
  6
CONTINUOUS
 10
17.8704850042
 20
12.4484234657
 11
17.8713246437
 21
12.4476907918
  0
LWPOLYLINE
  5
5A8
100
AcDbEntity
  8
AXIS
100
AcDbPolyline
 62
7
  6
CONTINUOUS
 90
5
 70
0
 10
17.9960886638
 20
12.3783244046
 10
18.0203792111
 20
12.3567850238
 10
18.0687210675
 20
12.3239918075
 10
18.1170629239
 20
12.300965919
 10
18.1464771285
 20
12.293084818
  0
LWPOLYLINE
  5
5A9
100
AcDbEntity
  8
0
100
AcDbPolyline
 62
7
  6
CONTINUOUS
 90
9
 70
0
 10
18.493711272
 20
13.0568267373
 10
18.4910366824
 20
13.089727515
 10
18.4831156967
 20
13.1244522145
 10
18.4702527137
 20
13.159666385
 10
18.4529420509
 20
13.1940167657
 10
18.4318489472
 20
13.2261832907
 10
18.4077839987
 20
13.2549298185
 10
18.381672008
 20
13.2791516361
 10
18.3545164442
 20
13.2979179128
  0
LINE
  5
5AA
100
AcDbEntity
  8
0
100
AcDbLine
 62
7
  6
CONTINUOUS
 10
18.5905361905
 20
13.2768190352
 11
18.5905361905
 21
13.3866432411
  0
LINE
  5
5AB
100
AcDbEntity
  8
0
100
AcDbLine
 62
7
  6
CONTINUOUS
 10
18.6329049408
 20
11.5996578458
 11
18.6329049408
 21
13.1371897597
  0
LWPOLYLINE
  5
5AC
100
AcDbEntity
  8
0
100
AcDbPolyline
 62
7
  6
CONTINUOUS
 90
5
 70
0
 10
18.6329049408
 20
11.5996578458
 10
18.6308109978
 20
11.5794074404
 10
18.624634168
 20
11.5625902973
 10
18.6146841832
 20
11.5500496982
 10
18.608439403
 20
11.5455946935
  0
LWPOLYLINE
  5
5AD
100
AcDbEntity
  8
0
100
AcDbPolyline
 62
7
  6
CONTINUOUS
 90
8
 70
0
 10
18.7363020737
 20
13.2415068022
 10
18.7330025237
 20
13.2132350909
 10
18.723606189
 20
13.1876752002
 10
18.7084481957
 20
13.1652439692
 10
18.6880081222
 20
13.1468805224
 10
18.6630174121
 20
13.1332461304
 10
18.6342448206
 20
13.1245176374
 10
18.6329049408
 20
13.1243517185
  0
LWPOLYLINE
  5
5AE
100
AcDbEntity
  8
0
100
AcDbPolyline
 62
7
  6
CONTINUOUS
 90
7
 70
0
 10
18.9649037315
 20
12.6986198877
 10
18.9634303652
 20
12.6947020974
 10
18.9612678657
 20
12.6904710603
 10
18.958632606
 20
12.6862636005
 10
18.9555957042
 20
12.6821569961
 10
18.9523580674
 20
12.6784378974
 10
18.9492715162
 20
12.6754995944
  0
LWPOLYLINE
  5
5AF
100
AcDbEntity
  8
0
100
AcDbPolyline
 62
7
  6
CONTINUOUS
 90
5
 70
0
 10
18.4692457342
 20
11.4652316711
 10
18.4754905145
 20
11.4696866758
 10
18.4854404992
 20
11.4822272749
 10
18.4916173291
 20
11.499044418
 10
18.493711272
 20
11.5192948234
  0
LINE
  5
5B0
100
AcDbEntity
  8
0
100
AcDbLine
 62
7
  6
CONTINUOUS
 10
18.493711272
 20
11.5192948234
 11
18.6329049408
 21
11.5996578458
  0
LINE
  5
5B1
100
AcDbEntity
  8
0
100
AcDbLine
 62
7
  6
CONTINUOUS
 10
18.4692492291
 20
11.4652256177
 11
18.6084428978
 21
11.5455886401
  0
LWPOLYLINE
  5
5B2
100
AcDbEntity
  8
0
100
AcDbPolyline
 62
7
  6
CONTINUOUS
 90
3
 70
0
 10
18.2136127657
 20
12.2593916311
 10
18.2398952017
 20
12.266080739
 10
18.2654732113
 20
12.2777802401
  0
LWPOLYLINE
  5
5B3
100
AcDbEntity
  8
0
100
AcDbPolyline
 62
7
  6
CONTINUOUS
 90
3
 70
0
 10
18.2136120925
 20
12.2593920353
 10
18.2088119593
 20
12.2597451483
 10
18.2071443072
 20
12.2604629596
  0
LINE
  5
5B4
100
AcDbEntity
  8
0
100
AcDbLine
 62
7
  6
CONTINUOUS
 10
18.0878621121
 20
12.3246031909
 11
18.2071441724
 21
12.2604630322
  0
LINE
  5
5B5
100
AcDbEntity
  8
0
100
AcDbLine
 62
7
  6
CONTINUOUS
 10
18.0836127518
 20
12.3337103499
 11
18.199868772
 21
12.2711973486
  0
LINE
  5
5B6
100
AcDbEntity
  8
0
100
AcDbLine
 62
7
  6
CONTINUOUS
 10
18.004112361
 20
12.3825416049
 11
18.0259618057
 21
12.3703526112
  0
LINE
  5
5B7
100
AcDbEntity
  8
0
100
AcDbLine
 62
7
  6
CONTINUOUS
 10
17.8713243723
 20
12.4476909485
 11
17.9905581227
 21
12.3788528074
  0
LINE
  5
5B8
100
AcDbEntity
  8
0
100
AcDbLine
 62
7
  6
CONTINUOUS
 10
17.8703678159
 20
12.4549033769
 11
17.9866238361
 21
12.3877843918
  0
LINE
  5
5B9
100
AcDbEntity
  8
AXIS
100
AcDbLine
 62
7
  6
CONTINUOUS
 10
18.7048020737
 20
12.4347134644
 11
18.7048020737
 21
9.8105096758
  0
LINE
  5
5BA
100
AcDbEntity
  8
0
100
AcDbLine
 62
7
  6
CONTINUOUS
 10
18.7097589052
 20
13.3201732325
 11
18.7097589052
 21
13.1671835945
  0
LINE
  5
5BB
100
AcDbEntity
  8
0
100
AcDbLine
 62
7
  6
CONTINUOUS
 10
18.7048020737
 20
9.8105096758
 11
18.7048020643
 21
9.8104725785
  0
LWPOLYLINE
  5
5BC
100
AcDbEntity
  8
0
100
AcDbPolyline
 62
7
  6
CONTINUOUS
 90
9
 70
0
 10
19.012898984
 20
12.7526293129
 10
19.0165319928
 20
12.7713378532
 10
19.0191376987
 20
12.7910006683
 10
19.0207051982
 20
12.8115402029
 10
19.0212284839
 20
12.8328795796
 10
19.0207055409
 20
12.8549389817
 10
19.0191383152
 20
12.8776360833
 10
19.0165326584
 20
12.9008863542
 10
19.012898984
 20
12.924599241
  0
LWPOLYLINE
  5
5BD
100
AcDbEntity
  8
0
100
AcDbPolyline
 62
7
  6
CONTINUOUS
 90
7
 70
0
 10
18.9649037315
 20
12.6986198877
 10
18.972024111
 20
12.728760623
 10
18.9763333837
 20
12.7612219372
 10
18.9777746446
 20
12.7956627652
 10
18.9763333837
 20
12.8317677803
 10
18.972024111
 20
12.8692049014
 10
18.9649037315
 20
12.9075673567
  0
LWPOLYLINE
  5
5BE
100
AcDbEntity
  8
0
100
AcDbPolyline
 62
7
  6
CONTINUOUS
 90
8
 70
0
 10
18.9575270242
 20
12.7028787353
 10
18.9639532368
 20
12.7284968379
 10
18.9682638718
 20
12.7558603729
 10
18.9704265643
 20
12.7847729113
 10
18.9704265643
 20
12.8150372594
 10
18.9682638718
 20
12.8464470035
 10
18.9639532368
 20
12.8787879184
 10
18.9575270242
 20
12.9118262043
  0
LWPOLYLINE
  5
5BF
100
AcDbEntity
  8
0
100
AcDbPolyline
 62
7
  6
CONTINUOUS
 90
12
 70
0
 10
19.2470282178
 20
12.9951360612
 10
19.2523043809
 20
13.0087581139
 10
19.2592592252
 20
13.0459021878
 10
19.2605129932
 20
13.0870226188
 10
19.2560571762
 20
13.1310535464
 10
19.2460564022
 20
13.1768061856
 10
19.2308170249
 20
13.2231203985
 10
19.2107445637
 20
13.2688830326
 10
19.1863460575
 20
13.3129833832
 10
19.158217259
 20
13.3543480572
 10
19.1270267637
 20
13.391965894
 10
19.0959320106
 20
13.4227466794
  0
LWPOLYLINE
  5
5C0
100
AcDbEntity
  8
0
100
AcDbPolyline
 62
7
  6
CONTINUOUS
 90
17
 70
0
 10
19.2470678383
 20
12.9946360066
 10
19.2487833284
 20
12.9986239861
 10
19.2566516449
 20
13.0321902046
 10
19.259508759
 20
13.0720424187
 10
19.2566619634
 20
13.115288498
 10
19.2488049874
 20
13.1582415243
 10
19.2374124348
 20
13.1983647954
 10
19.2240067041
 20
13.2343211752
 10
19.2098177922
 20
13.2656761366
 10
19.195687409
 20
13.2925868165
 10
19.1819177192
 20
13.3158279795
 10
19.1682892764
 20
13.3365591118
 10
19.1543011817
 20
13.3558939252
 10
19.1395787211
 20
13.3744227973
 10
19.1241599662
 20
13.3920691315
 10
19.1082669058
 20
13.4085669705
 10
19.0921367334
 20
13.4237009264
  0
LWPOLYLINE
  5
5C1
100
AcDbEntity
  8
0
100
AcDbPolyline
 62
7
  6
CONTINUOUS
 90
5
 70
0
 10
17.9280029429
 20
12.9819565034
 10
17.9287454373
 20
12.9812115757
 10
17.9286235296
 20
12.9801278525
 10
17.927502342
 20
12.9787718989
 10
17.9253689525
 20
12.9772212617
  0
LWPOLYLINE
  5
5C2
100
AcDbEntity
  8
0
100
AcDbPolyline
 62
7
  6
CONTINUOUS
 90
18
 70
0
 10
18.199868772
 20
12.7786840664
 10
18.2179546616
 20
12.7538303234
 10
18.2352207114
 20
12.7274341498
 10
18.2514287627
 20
12.6997024829
 10
18.2662246809
 20
12.6711373522
 10
18.2793762406
 20
12.6421766513
 10
18.2908140974
 20
12.6130009352
 10
18.3004790696
 20
12.5837700703
 10
18.3082961357
 20
12.554706352
 10
18.3142040742
 20
12.5260364712
 10
18.3181597901
 20
12.4979713813
 10
18.3201339356
 20
12.4707182175
 10
18.3201113946
 20
12.4444817922
 10
18.318092349
 20
12.4194594677
 10
18.3140920674
 20
12.3958380034
 10
18.30813961
 20
12.3737905346
 10
18.3002779417
 20
12.3534803978
 10
18.2905706668
 20
12.3350703548
  0
LINE
  5
5C3
100
AcDbEntity
  8
0
100
AcDbLine
 62
7
  6
CONTINUOUS
 10
18.9647817854
 20
13.396991086
 11
18.9647817854
 21
13.491728613
  0
LWPOLYLINE
  5
5C4
100
AcDbEntity
  8
0
100
AcDbPolyline
 62
7
  6
CONTINUOUS
 90
12
 70
0
 10
18.7048020643
 20
9.8104725785
 10
18.7013394566
 20
9.7840757349
 10
18.6890174437
 20
9.7551135036
 10
18.6669506318
 20
9.7275407048
 10
18.6359327042
 20
9.7037819944
 10
18.5979329799
 20
9.685363125
 10
18.555596009
 20
9.6730206746
 10
18.510807938
 20
9.6667599487
 10
18.4653722663
 20
9.666524061
 10
18.4208010336
 20
9.6722413908
 10
18.3787317514
 20
9.6838583488
 10
18.3408506936
 20
9.7013030736
  0
LWPOLYLINE
  5
5C5
100
AcDbEntity
  8
0
100
AcDbPolyline
 62
7
  6
CONTINUOUS
 90
13
 70
0
 10
18.7048020643
 20
9.8104725785
 10
18.7018676622
 20
9.7899047358
 10
18.6899834461
 20
9.7648443363
 10
18.6694580868
 20
9.7417208225
 10
18.641161671
 20
9.721515152
 10
18.6062950915
 20
9.7050851809
 10
18.5663386702
 20
9.6931282301
 10
18.5229876244
 20
9.6861511969
 10
18.4780519049
 20
9.6844504018
 10
18.4337561988
 20
9.6880625512
 10
18.3931138443
 20
9.6964087159
 10
18.3586533305
 20
9.708126166
 10
18.3317998853
 20
9.7213083282
  0
LINE
  5
5C6
100
AcDbEntity
  8
0
100
AcDbLine
 62
7
  6
CONTINUOUS
 10
17.9866238361
 20
12.8998770934
 11
17.8703678159
 21
12.9623900947
  0
LINE
  5
5C7
100
AcDbEntity
  8
0
100
AcDbLine
 62
7
  6
CONTINUOUS
 10
18.199868772
 20
12.7786840664
 11
18.0836127518
 21
12.8458030515
  0
LINE
  5
5C8
100
AcDbEntity
  8
0
100
AcDbLine
 62
7
  6
CONTINUOUS
 10
18.1898518224
 20
12.8166076932
 11
18.0975299987
 21
12.869908564
  0
LWPOLYLINE
  5
5C9
100
AcDbEntity
  8
AXIS
100
AcDbPolyline
 62
7
  6
CONTINUOUS
 90
3
 70
0
 10
18.1361015276
 20
12.88265915
 10
18.0839168508
 20
12.9334738532
 10
18.0294951892
 20
12.9753797965
  0
LINE
  5
5CA
100
AcDbEntity
  8
0
100
AcDbLine
 62
7
  6
CONTINUOUS
 10
19.0741083521
 20
12.9183851294
 11
19.0741083521
 21
12.8259891829
  0
LINE
  5
5CB
100
AcDbEntity
  8
0
100
AcDbLine
 62
7
  6
CONTINUOUS
 10
19.119833627
 20
12.9596206562
 11
19.119833627
 21
12.9752683329
  0
LWPOLYLINE
  5
5CC
100
AcDbEntity
  8
02___PRT_ALL_AXES
100
AcDbPolyline
 62
7
  6
CONTINUOUS
 90
10
 70
0
 10
19.2475609234
 20
12.9723294471
 10
19.2459785537
 20
12.9505310647
 10
19.2412795242
 20
12.9275678629
 10
19.2336066124
 20
12.904137567
 10
19.2231929559
 20
12.8809520946
 10
19.2103549685
 20
12.8587159246
 10
19.1954827258
 20
12.8381046918
 10
19.1790281134
 20
12.819744658
 10
19.1614910964
 20
12.8041936837
 10
19.143406328
 20
12.7919253163
  0
LINE
  5
5CD
100
AcDbEntity
  8
0
100
AcDbLine
 62
7
  6
CONTINUOUS
 10
17.8902396047
 20
12.9954494738
 11
17.9253689525
 21
12.9772212617
  0
LINE
  5
5CE
100
AcDbEntity
  8
0
100
AcDbLine
 62
7
  6
CONTINUOUS
 10
17.9006788427
 20
12.9961346629
 11
17.9280035671
 21
12.9819561796
  0
LINE
  5
5CF
100
AcDbEntity
  8
0
100
AcDbLine
 62
7
  6
CONTINUOUS
 10
17.9387940571
 20
12.985533129
 11
18.0259618057
 21
12.9403027928
  0
LINE
  5
5D0
100
AcDbEntity
  8
0
100
AcDbLine
 62
7
  6
CONTINUOUS
 10
17.9897862004
 20
12.9847905074
 11
18.0259618057
 21
12.9660194044
  0
LINE
  5
5D1
100
AcDbEntity
  8
0
100
AcDbLine
 62
7
  6
CONTINUOUS
 10
18.000046896
 20
12.924258129
 11
17.879740428
 21
12.9889491306
  0
LWPOLYLINE
  5
5D2
100
AcDbEntity
  8
AXIS
100
AcDbPolyline
 62
7
  6
CONTINUOUS
 90
7
 70
0
 10
18.0294951892
 20
12.9753797965
 10
17.9743210239
 20
13.007233895
 10
17.9198993623
 20
13.0281672521
 10
17.8677146854
 20
13.0376088602
 10
17.8191904553
 20
13.0353011769
 10
17.7756502864
 20
13.0213071499
 10
17.7656910181
 20
13.016017644
  0
LINE
  5
5D3
100
AcDbEntity
  8
0
100
AcDbLine
 62
7
  6
CONTINUOUS
 10
18.1243989986
 20
12.8854212958
 11
18.1430963277
 21
12.8742497793
  0
LWPOLYLINE
  5
5D4
100
AcDbEntity
  8
02___PRT_ALL_AXES
100
AcDbPolyline
 62
7
  6
CONTINUOUS
 90
19
 70
0
 10
19.2475609234
 20
12.9723294471
 10
19.2459785537
 20
12.9923006773
 10
19.2412795242
 20
13.0098379395
 10
19.2336066124
 20
13.024408373
 10
19.2231929559
 20
13.0355692624
 10
19.2103549685
 20
13.0429814899
 10
19.1954827258
 20
13.0464198385
 10
19.1790281134
 20
13.0457798359
 10
19.1614910964
 20
13.0410809282
 10
19.1434045282
 20
13.0324658893
 10
19.1253179599
 20
13.0201964828
 10
19.1077809429
 20
13.0046455084
 10
19.0913263305
 20
12.9862854747
 10
19.0764540878
 20
12.9656742419
 10
19.0636161004
 20
12.9434380719
 10
19.0532024439
 20
12.9202525995
 10
19.0455295322
 20
12.8968223036
 10
19.0408305026
 20
12.8738591018
 10
19.0392481329
 20
12.8520607194
  0
LWPOLYLINE
  5
5D5
100
AcDbEntity
  8
02___PRT_ALL_AXES
100
AcDbPolyline
 62
7
  6
CONTINUOUS
 90
6
 70
0
 10
19.2475608074
 20
12.9884141998
 10
19.2457668105
 20
13.0110563956
 10
19.2404393297
 20
13.030939103
 10
19.2317402376
 20
13.0474581959
 10
19.2199338518
 20
13.0601117501
 10
19.2129730498
 20
13.0648644865
  0
LINE
  5
5D6
100
AcDbEntity
  8
0
100
AcDbLine
 62
7
  6
CONTINUOUS
 10
19.2127007042
 20
12.9060050371
 11
19.2127007042
 21
12.9984009836
  0
LINE
  5
5D7
100
AcDbEntity
  8
02___PRT_ALL_AXES
100
AcDbLine
 62
7
  6
CONTINUOUS
 10
19.2475608074
 20
12.9884141998
 11
19.2475609234
 21
12.9723294471
  0
LWPOLYLINE
  5
5D8
100
AcDbEntity
  8
0
100
AcDbPolyline
 62
7
  6
CONTINUOUS
 90
4
 70
0
 10
17.9387940571
 20
12.985533129
 10
17.9552460457
 20
12.9868377829
 10
17.9722682149
 20
12.9865899798
 10
17.9897862004
 20
12.9847905074
  0
LINE
  5
5D9
100
AcDbEntity
  8
AXIS
100
AcDbLine
 62
7
  6
CONTINUOUS
 10
17.9735061976
 20
13.0024919157
 11
17.9295262397
 21
13.0042022917
  0
LWPOLYLINE
  5
5DA
100
AcDbEntity
  8
0
100
AcDbPolyline
 62
7
  6
CONTINUOUS
 90
3
 70
0
 10
17.8944514011
 20
12.9970966379
 10
17.8991005154
 20
12.9967918209
 10
17.9006785329
 20
12.9961348236
  0
LINE
  5
5DB
100
AcDbEntity
  8
0
100
AcDbLine
 62
7
  6
CONTINUOUS
 10
19.0741083521
 20
12.8259891829
 11
19.1434045282
 21
12.8197991367
  0
LWPOLYLINE
  5
5DC
100
AcDbEntity
  8
02___PRT_ALL_AXES
100
AcDbPolyline
 62
7
  6
CONTINUOUS
 90
3
 70
0
 10
19.0704312962
 20
12.7680613627
 10
19.0535700298
 20
12.7719595584
 10
19.0459758833
 20
12.7756103657
  0
LWPOLYLINE
  5
5DD
100
AcDbEntity
  8
02___PRT_ALL_AXES
100
AcDbPolyline
 62
7
  6
CONTINUOUS
 90
7
 70
0
 10
19.0913263305
 20
12.7779703279
 10
19.0764540878
 20
12.7814086766
 10
19.0636161004
 20
12.788820904
 10
19.0532024439
 20
12.7999817935
 10
19.0455295322
 20
12.8145522269
 10
19.0408305026
 20
12.8320894892
 10
19.0392481329
 20
12.8520607194
  0
LINE
  5
5DE
100
AcDbEntity
  8
AXIS
100
AcDbLine
 62
7
  6
CONTINUOUS
 10
17.9903529176
 20
12.9979780862
 11
17.9735061976
 21
13.0024919157
  0
LINE
  5
5DF
100
AcDbEntity
  8
0
100
AcDbLine
 62
7
  6
CONTINUOUS
 10
18.9492715162
 20
12.6754995944
 11
18.9418008045
 21
12.6798127142
  0
LINE
  5
5E0
100
AcDbEntity
  8
0
100
AcDbLine
 62
7
  6
CONTINUOUS
 10
18.9649037315
 20
12.6986198877
 11
18.9575270242
 21
12.7028787353
  0
LINE
  5
5E1
100
AcDbEntity
  8
0
100
AcDbLine
 62
7
  6
CONTINUOUS
 10
18.1132639687
 20
13.2149139822
 11
17.6956794854
 21
13.456001042
  0
LINE
  5
5E2
100
AcDbEntity
  8
0
100
AcDbLine
 62
7
  6
CONTINUOUS
 10
18.9575270242
 20
12.9118262043
 11
18.9560229719
 21
12.916349471
  0
LINE
  5
5E3
100
AcDbEntity
  8
0
100
AcDbLine
 62
7
  6
CONTINUOUS
 10
17.8698151765
 20
12.9904776313
 11
17.8902396047
 21
12.9954494738
  0
LINE
  5
5E4
100
AcDbEntity
  8
0
100
AcDbLine
 62
7
  6
CONTINUOUS
 10
17.8944509724
 20
12.9970968864
 11
17.8744809381
 21
12.9923486025
  0
LINE
  5
5E5
100
AcDbEntity
  8
AXIS
100
AcDbLine
 62
7
  6
CONTINUOUS
 10
17.9295262397
 20
13.0042022917
 11
17.8978328619
 21
12.996874934
  0
LINE
  5
5E6
100
AcDbEntity
  8
0
100
AcDbLine
 62
7
  6
CONTINUOUS
 10
17.8613338744
 20
12.984655765
 11
17.8796185798
 21
12.9888736919
  0
LWPOLYLINE
  5
5E7
100
AcDbEntity
  8
0
100
AcDbPolyline
 62
7
  6
CONTINUOUS
 90
4
 70
0
 10
19.1323953012
 20
13.107897336
 10
19.1563545714
 20
13.1062488268
 10
19.1788592023
 20
13.1050548477
 10
19.1993962543
 20
13.1043103752
  0
LINE
  5
5E8
100
AcDbEntity
  8
0
100
AcDbLine
 62
7
  6
CONTINUOUS
 10
19.2127007042
 20
12.9984009836
 11
19.1434045282
 21
13.0045910297
  0
LINE
  5
5E9
100
AcDbEntity
  8
02___PRT_ALL_AXES
100
AcDbLine
 62
7
  6
CONTINUOUS
 10
19.0191453285
 20
12.7911006433
 11
19.0459758833
 21
12.7756103657
  0
LINE
  5
5EA
100
AcDbEntity
  8
0
100
AcDbLine
 62
7
  6
CONTINUOUS
 10
17.6956794854
 20
13.5685112176
 11
18.1132639687
 21
13.3274241578
  0
LINE
  5
5EB
100
AcDbEntity
  8
0
100
AcDbLine
 62
7
  6
CONTINUOUS
 10
18.9649037315
 20
12.9075673567
 11
18.9575270242
 21
12.9118262043
  0
LINE
  5
5EC
100
AcDbEntity
  8
0
100
AcDbLine
 62
7
  6
CONTINUOUS
 10
19.1434045282
 20
12.8197991367
 11
19.0741083521
 21
12.8598063975
  0
LWPOLYLINE
  5
5ED
100
AcDbEntity
  8
02___PRT_ALL_AXES
100
AcDbPolyline
 62
7
  6
CONTINUOUS
 90
4
 70
0
 10
19.0459758833
 20
12.7756103657
 10
19.0390150814
 20
12.7803631021
 10
19.0272086956
 20
12.7930166563
 10
19.0202936775
 20
12.8061478918
  0
LWPOLYLINE
  5
5EE
100
AcDbEntity
  8
0
100
AcDbPolyline
 62
7
  6
CONTINUOUS
 90
4
 70
0
 10
18.9585853121
 20
12.9178729417
 10
18.9611845665
 20
12.9156636248
 10
18.9634124018
 20
12.9121044785
 10
18.9649037315
 20
12.9075673567
  0
LINE
  5
5EF
100
AcDbEntity
  8
0
100
AcDbLine
 62
7
  6
CONTINUOUS
 10
18.9560229719
 20
12.916349471
 11
18.9545346247
 21
12.9187356322
  0
LWPOLYLINE
  5
5F0
100
AcDbEntity
  8
0
100
AcDbPolyline
 62
7
  6
CONTINUOUS
 90
4
 70
0
 10
18.7097589052
 20
13.3201732325
 10
18.7246554761
 20
13.2949172568
 10
18.7335255042
 20
13.2678910381
 10
18.7363020737
 20
13.2415068022
  0
LWPOLYLINE
  5
5F1
100
AcDbEntity
  8
0
100
AcDbPolyline
 62
7
  6
CONTINUOUS
 90
3
 70
0
 10
19.1993962543
 20
13.1043103752
 10
19.2041773805
 20
13.0818240329
 10
19.2062005063
 20
13.0687745278
  0
LWPOLYLINE
  5
5F2
100
AcDbEntity
  8
0
100
AcDbPolyline
 62
7
  6
CONTINUOUS
 90
8
 70
0
 10
19.0921366036
 20
13.4237009034
 10
19.0396987949
 20
13.4137955925
 10
18.9865321584
 20
13.4022848407
 10
18.9330285476
 20
13.3892627657
 10
18.8796431052
 20
13.3748739393
 10
18.8261564104
 20
13.3590946881
 10
18.7704452517
 20
13.3412395954
 10
18.7097589052
 20
13.3201732325
  0
LWPOLYLINE
  5
5F3
100
AcDbEntity
  8
0
100
AcDbPolyline
 62
7
  6
CONTINUOUS
 90
3
 70
0
 10
19.0825311071
 20
13.1123869278
 10
19.1075543348
 20
13.1099681833
 10
19.1323953012
 20
13.107897336
  0
LINE
  5
5F4
100
AcDbEntity
  8
0
100
AcDbLine
 62
7
  6
CONTINUOUS
 10
18.3545164442
 20
13.2979179128
 11
17.2104830727
 21
13.9584109454
  0
LINE
  5
5F5
100
AcDbEntity
  8
0
100
AcDbLine
 62
7
  6
CONTINUOUS
 10
19.2127007042
 20
12.9060050371
 11
19.119833627
 21
12.9596206562
  0
LINE
  5
5F6
100
AcDbEntity
  8
0
100
AcDbLine
 62
7
  6
CONTINUOUS
 10
18.493710113
 20
13.3782809352
 11
17.3496767415
 21
14.0387739679
  0
LWPOLYLINE
  5
5F7
100
AcDbEntity
  8
0
100
AcDbPolyline
 62
7
  6
CONTINUOUS
 90
9
 70
0
 10
18.493710113
 20
13.3782809352
 10
18.5208656768
 20
13.3595146586
 10
18.5469776675
 20
13.3352928409
 10
18.5710426159
 20
13.3065463131
 10
18.5921357196
 20
13.2743797881
 10
18.6094463825
 20
13.2400294075
 10
18.6223093654
 20
13.204815237
 10
18.6302303512
 20
13.1700905374
 10
18.6329049408
 20
13.1371897597
  0
LWPOLYLINE
  5
5F8
100
AcDbEntity
  8
AXIS
100
AcDbPolyline
 62
7
  6
CONTINUOUS
 90
4
 70
0
 10
18.8941838484
 20
13.5018218851
 10
18.7477566534
 20
13.4760642684
 10
18.5853471083
 20
13.4370001718
 10
18.4600506265
 20
13.3977138091
  0
LWPOLYLINE
  5
5F9
100
AcDbEntity
  8
0
100
AcDbPolyline
 62
7
  6
CONTINUOUS
 90
4
 70
0
 10
18.4803422893
 20
13.3859986772
 10
18.5148053436
 20
13.3898335711
 10
18.5533527612
 20
13.3904235864
 10
18.5905361905
 20
13.3866432411
  0
LWPOLYLINE
  5
5FA
100
AcDbEntity
  8
0
100
AcDbPolyline
 62
7
  6
CONTINUOUS
 90
3
 70
0
 10
18.9593360833
 20
13.4977409421
 10
18.9608664578
 20
13.4978191806
 10
18.9613641478
 20
13.4977300102
  0
LWPOLYLINE
  5
5FB
100
AcDbEntity
  8
0
100
AcDbPolyline
 62
7
  6
CONTINUOUS
 90
4
 70
0
 10
17.2104830727
 20
13.9584109454
 10
17.199675191
 20
13.9630077272
 10
17.1896038486
 20
13.9640052247
 10
17.1809553907
 20
13.9613354603
  0
LWPOLYLINE
  5
5FC
100
AcDbEntity
  8
02___PRT_ALL_AXES
100
AcDbPolyline
 62
7
  6
CONTINUOUS
 90
14
 70
0
 10
19.2129730498
 20
13.0648644865
 10
19.2053789033
 20
13.0685152938
 10
19.188517637
 20
13.0724134895
 10
19.1698623738
 20
13.0716878925
 10
19.1499799445
 20
13.0663605497
 10
19.1294744666
 20
13.0565933298
 10
19.1089689887
 20
13.0426830047
 10
19.0890865594
 20
13.0250522327
 10
19.0704312962
 20
13.0042367158
 10
19.0535700298
 20
12.980868923
 10
19.0390150814
 20
12.9556588728
 10
19.0272086956
 20
12.92937256
 10
19.0185096035
 20
12.9028086807
 10
19.0170930289
 20
12.8958861687
  0
LINE
  5
5FD
100
AcDbEntity
  8
02___PRT_ALL_AXES
100
AcDbLine
 62
7
  6
CONTINUOUS
 10
19.1392536289
 20
13.1074254511
 11
19.2129730498
 21
13.0648644865
  0
LWPOLYLINE
  5
5FE
100
AcDbEntity
  8
0
100
AcDbPolyline
 62
7
  6
CONTINUOUS
 90
4
 70
0
 10
18.961364322
 20
13.4977304066
 10
18.933233871
 20
13.5025743997
 10
18.904175772
 20
13.502931491
 10
18.8941855796
 20
13.5018221096
  0
LWPOLYLINE
  5
5FF
100
AcDbEntity
  8
0
100
AcDbPolyline
 62
7
  6
CONTINUOUS
 90
5
 70
0
 10
18.9593361755
 20
13.4977409632
 10
18.9422410806
 20
13.5011881452
 10
18.9252251602
 20
13.5030357617
 10
18.9087136486
 20
13.5031820978
 10
18.8941856971
 20
13.5018221541
  0
LWPOLYLINE
  5
600
100
AcDbEntity
  8
0
100
AcDbPolyline
 62
7
  6
CONTINUOUS
 90
4
 70
0
 10
19.0959318411
 20
13.4227464277
 10
19.0950921433
 20
13.423325926
 10
19.0937098505
 20
13.4237494745
 10
19.0921366036
 20
13.4237009034
  0
LWPOLYLINE
  5
601
100
AcDbEntity
  8
0
100
AcDbPolyline
 62
7
  6
CONTINUOUS
 90
6
 70
0
 10
18.9613641478
 20
13.4977300102
 10
18.9622083263
 20
13.4974132481
 10
18.9633044936
 20
13.4965509918
 10
18.9641145852
 20
13.4952790121
 10
18.9646126443
 20
13.4936528169
 10
18.9647817854
 20
13.4917286169
  0
LINE
  5
602
100
AcDbEntity
  8
0
100
AcDbLine
 62
7
  6
CONTINUOUS
 10
13.5055871489
 20
3.6166216579
 11
13.1559871489
 21
3.6166216579
  0
LINE
  5
603
100
AcDbEntity
  8
0
100
AcDbLine
 62
7
  6
CONTINUOUS
 10
13.5492871489
 20
3.6603216579
 11
13.1122871489
 21
3.6603216579
  0
LWPOLYLINE
  5
604
100
AcDbEntity
  8
0
100
AcDbPolyline
 62
7
  6
CONTINUOUS
 90
17
 70
0
 10
13.5680633331
 20
7.8794664035
 10
13.5526555282
 20
7.8744750609
 10
13.5318732218
 20
7.8684287193
 10
13.5063767531
 20
7.86212744
 10
13.4766039324
 20
7.8563876888
 10
13.4429674192
 20
7.8520752051
 10
13.40677742
 20
7.8500739383
 10
13.3689756475
 20
7.8509314819
 10
13.3306993513
 20
7.8548376911
 10
13.2928966612
 20
7.8616046236
 10
13.2555616187
 20
7.8709862435
 10
13.2189516304
 20
7.8826212744
 10
13.1845265328
 20
7.8955945676
 10
13.1539294493
 20
7.9086439636
 10
13.1282958085
 20
7.9205888023
 10
13.1081881828
 20
7.9305580894
 10
13.0935109647
 20
7.938147925
  0
LINE
  5
605
100
AcDbEntity
  8
0
100
AcDbLine
 62
7
  6
CONTINUOUS
 10
13.826850141
 20
7.6185800146
 11
13.7604629881
 21
7.580251374
  0
LINE
  5
606
100
AcDbEntity
  8
0
100
AcDbLine
 62
7
  6
CONTINUOUS
 10
13.7278829633
 20
7.5614412879
 11
13.6614958103
 21
7.5231126473
  0
LINE
  5
607
100
AcDbEntity
  8
0
100
AcDbLine
 62
7
  6
CONTINUOUS
 10
13.826850141
 20
7.5408059327
 11
13.728850141
 21
7.4842256063
  0
LWPOLYLINE
  5
608
100
AcDbEntity
  8
0
100
AcDbPolyline
 62
7
  6
CONTINUOUS
 90
7
 70
0
 10
13.6444497913
 20
7.5329541709
 10
13.6752236829
 20
7.549597953
 10
13.7060521572
 20
7.5661583292
 10
13.736785851
 20
7.5825477257
 10
13.7672657445
 20
7.5986740951
 10
13.7973435655
 20
7.6144517542
 10
13.826850141
 20
7.6297847349
  0
LINE
  5
609
100
AcDbEntity
  8
0
100
AcDbLine
 62
7
  6
CONTINUOUS
 10
13.6614958103
 20
7.3321779126
 11
13.6444497913
 21
7.3223363889
  0
LINE
  5
60A
100
AcDbEntity
  8
0
100
AcDbLine
 62
7
  6
CONTINUOUS
 10
13.9922044717
 20
7.5231126473
 11
14.0011208501
 21
7.5282605207
  0
LINE
  5
60B
100
AcDbEntity
  8
0
100
AcDbLine
 62
7
  6
CONTINUOUS
 10
13.826850141
 20
7.3144846271
 11
13.924850141
 21
7.3710649535
  0
LWPOLYLINE
  5
60C
100
AcDbEntity
  8
0
100
AcDbPolyline
 62
7
  6
CONTINUOUS
 90
17
 70
0
 10
13.0935109647
 20
6.9171426348
 10
13.108195466
 20
6.9247361725
 10
13.1283194469
 20
6.9347131752
 10
13.1539775475
 20
6.9466681668
 10
13.1845962248
 20
6.9597241334
 10
13.2190224808
 20
6.9726940129
 10
13.2556215103
 20
6.9843214239
 10
13.2929469567
 20
6.9936968018
 10
13.3307427357
 20
7.000458997
 10
13.3690103565
 20
7.0043612424
 10
13.4068014145
 20
7.0052162092
 10
13.4429794078
 20
7.0032142359
 10
13.4766067152
 20
6.998902418
 10
13.5063760896
 20
6.9931632674
 10
13.5318731322
 20
6.9868618649
 10
13.552655768
 20
6.9808154246
 10
13.5680633331
 20
6.9758241564
  0
LINE
  5
60D
100
AcDbEntity
  8
0
100
AcDbLine
 62
7
  6
CONTINUOUS
 10
12.6457477788
 20
6.3252830752
 11
12.6457477788
 21
8.5233145712
  0
LWPOLYLINE
  5
60E
100
AcDbEntity
  8
0
100
AcDbPolyline
 62
7
  6
CONTINUOUS
 90
5
 70
0
 10
12.8558860104
 20
7.9453131618
 10
12.8533571337
 20
7.9289615952
 10
12.8509344564
 20
7.9025206578
 10
12.8486667368
 20
7.866522475
 10
12.8465996149
 20
7.821691521
  0
LWPOLYLINE
  5
60F
100
AcDbEntity
  8
0
100
AcDbPolyline
 62
7
  6
CONTINUOUS
 90
6
 70
0
 10
14.0011208501
 20
7.3270300391
 10
13.9678600218
 20
7.3074068177
 10
13.932923298
 20
7.2869222773
 10
13.8972043792
 20
7.2661111588
 10
13.8615457468
 20
7.2454667509
 10
13.826850141
 20
7.2255058249
  0
LINE
  5
610
100
AcDbEntity
  8
0
100
AcDbLine
 62
7
  6
CONTINUOUS
 10
13.826850141
 20
7.2367105452
 11
13.893237294
 21
7.2750391859
  0
LINE
  5
611
100
AcDbEntity
  8
0
100
AcDbLine
 62
7
  6
CONTINUOUS
 10
13.9258173188
 20
7.2938492719
 11
13.9922044717
 21
7.3321779126
  0
LWPOLYLINE
  5
612
100
AcDbEntity
  8
0
100
AcDbPolyline
 62
7
  6
CONTINUOUS
 90
6
 70
0
 10
12.8455869115
 20
7.0628779622
 10
12.8465996149
 20
7.0335990388
 10
12.8486667368
 20
6.9887680848
 10
12.8509344564
 20
6.952769902
 10
12.8533571337
 20
6.9263289646
 10
12.8558860104
 20
6.909977398
  0
LINE
  5
613
100
AcDbEntity
  8
0
100
AcDbLine
 62
7
  6
CONTINUOUS
 10
12.8425981725
 20
6.3252830752
 11
12.8425981725
 21
8.5233145712
  0
LINE
  5
614
100
AcDbEntity
  8
0
100
AcDbLine
 62
7
  6
CONTINUOUS
 10
12.8558860104
 20
7.9453131618
 11
12.8558860104
 21
7.7924125976
  0
LINE
  5
615
100
AcDbEntity
  8
0
100
AcDbLine
 62
7
  6
CONTINUOUS
 10
12.8558860104
 20
7.0628779622
 11
12.8558860104
 21
6.909977398
  0
LINE
  5
616
100
AcDbEntity
  8
0
100
AcDbLine
 62
7
  6
CONTINUOUS
 10
12.858346204
 20
6.909977398
 11
12.858346204
 21
7.9453131618
  0
LINE
  5
617
100
AcDbEntity
  8
0
100
AcDbLine
 62
7
  6
CONTINUOUS
 10
12.8465996149
 20
7.821691521
 11
12.8455869115
 21
7.7924125976
  0
LWPOLYLINE
  5
618
100
AcDbEntity
  8
0
100
AcDbPolyline
 62
7
  6
CONTINUOUS
 90
7
 70
0
 10
14.1088293538
 20
7.1194084097
 10
14.1110733202
 20
7.1204730241
 10
14.1130408828
 20
7.121987682
 10
14.1146481772
 20
7.1238749083
 10
14.115836003
 20
7.1260470153
 10
14.1165663
 20
7.1284163383
 10
14.1168143091
 20
7.13090123
  0
LINE
  5
619
100
AcDbEntity
  8
0
100
AcDbLine
 62
7
  6
CONTINUOUS
 10
12.9370863615
 20
7.299692524
 11
12.9370863615
 21
7.5555980358
  0
LINE
  5
61A
100
AcDbEntity
  8
0
100
AcDbLine
 62
7
  6
CONTINUOUS
 10
13.1122871489
 20
6.9267647339
 11
13.1122871489
 21
3.6603216579
  0
LINE
  5
61B
100
AcDbEntity
  8
AXIS
100
AcDbLine
 62
7
  6
CENTER
 10
13.3307871489
 20
3.5603216579
 11
13.3307871489
 21
8.0133367761
  0
LINE
  5
61C
100
AcDbEntity
  8
0
100
AcDbLine
 62
7
  6
CONTINUOUS
 10
13.5492871489
 20
6.9817954809
 11
13.5492871489
 21
3.6603216579
  0
LINE
  5
61D
100
AcDbEntity
  8
0
100
AcDbLine
 62
7
  6
CONTINUOUS
 10
13.565170799
 20
6.9758241564
 11
13.565170799
 21
6.9767611904
  0
LINE
  5
61E
100
AcDbEntity
  8
0
100
AcDbLine
 62
7
  6
CONTINUOUS
 10
13.565170799
 20
7.87852937
 11
13.565170799
 21
7.8794664035
  0
LINE
  5
61F
100
AcDbEntity
  8
0
100
AcDbLine
 62
7
  6
CONTINUOUS
 10
13.5670076213
 20
7.299692524
 11
13.5670076213
 21
7.5555980358
  0
LWPOLYLINE
  5
620
100
AcDbEntity
  8
0
100
AcDbPolyline
 62
7
  6
CONTINUOUS
 90
9
 70
0
 10
13.6444497913
 20
7.3223363889
 10
13.6439571931
 20
7.3483108482
 10
13.6436038865
 20
7.374588363
 10
13.6433913499
 20
7.4010647605
 10
13.6433203978
 20
7.4276408241
 10
13.6433913034
 20
7.4542171012
 10
13.6436038029
 20
7.4806944042
 10
13.6439571029
 20
7.5069741371
 10
13.6444497913
 20
7.5329541709
  0
LINE
  5
621
100
AcDbEntity
  8
0
100
AcDbLine
 62
7
  6
CONTINUOUS
 10
13.6614958103
 20
7.5231126473
 11
13.6614958103
 21
7.446455366
  0
LINE
  5
622
100
AcDbEntity
  8
0
100
AcDbLine
 62
7
  6
CONTINUOUS
 10
13.6614958103
 20
7.4088351938
 11
13.6614958103
 21
7.3321779126
  0
LINE
  5
623
100
AcDbEntity
  8
0
100
AcDbLine
 62
7
  6
CONTINUOUS
 10
13.728850141
 20
7.4842256063
 11
13.728850141
 21
7.3710649535
  0
LINE
  5
624
100
AcDbEntity
  8
0
100
AcDbLine
 62
7
  6
CONTINUOUS
 10
12.6457477788
 20
6.3252830752
 11
12.8425981725
 21
6.3252830752
  0
LINE
  5
625
100
AcDbEntity
  8
DEFAULT_1
100
AcDbLine
 62
7
  6
CENTER
 10
13.826850141
 20
7.4276452799
 11
13.826850141
 21
7.2367105452
  0
LINE
  5
626
100
AcDbEntity
  8
DEFAULT_1
100
AcDbLine
 62
7
  6
CENTER
 10
13.826850141
 20
7.2255058249
 11
13.826850141
 21
7.1956510487
  0
LINE
  5
627
100
AcDbEntity
  8
0
100
AcDbLine
 62
7
  6
CONTINUOUS
 10
13.826850141
 20
7.2367105452
 11
13.826850141
 21
7.2255058249
  0
LINE
  5
628
100
AcDbEntity
  8
0
100
AcDbLine
 62
7
  6
CONTINUOUS
 10
13.826850141
 20
7.6185800146
 11
13.826850141
 21
7.6297847349
  0
LINE
  5
629
100
AcDbEntity
  8
DEFAULT_1
100
AcDbLine
 62
7
  6
CENTER
 10
13.826850141
 20
7.4276452799
 11
13.826850141
 21
7.6185800146
  0
LINE
  5
62A
100
AcDbEntity
  8
DEFAULT_1
100
AcDbLine
 62
7
  6
CENTER
 10
13.826850141
 20
7.6297847349
 11
13.826850141
 21
7.6596395111
  0
LINE
  5
62B
100
AcDbEntity
  8
0
100
AcDbLine
 62
7
  6
CONTINUOUS
 10
12.6457477788
 20
6.4433933114
 11
12.8425981725
 21
6.4433933114
  0
LWPOLYLINE
  5
62C
100
AcDbEntity
  8
0
100
AcDbPolyline
 62
7
  6
CONTINUOUS
 90
9
 70
0
 10
14.0011208501
 20
7.5282605207
 10
14.0016648148
 20
7.5035574005
 10
14.0020555095
 20
7.4784672757
 10
14.0022907444
 20
7.4531229866
 10
14.0023693148
 20
7.4276512458
 10
14.0022908162
 20
7.4021791915
 10
14.0020556381
 20
7.3768336524
 10
14.0016649531
 20
7.3517405268
 10
14.0011208501
 20
7.3270300391
  0
LINE
  5
62D
100
AcDbEntity
  8
0
100
AcDbLine
 62
7
  6
CONTINUOUS
 10
13.924850141
 20
7.3710649535
 11
13.924850141
 21
7.4842256063
  0
LINE
  5
62E
100
AcDbEntity
  8
0
100
AcDbLine
 62
7
  6
CONTINUOUS
 10
13.9922044717
 20
7.3321779126
 11
13.9922044717
 21
7.4088351938
  0
LINE
  5
62F
100
AcDbEntity
  8
0
100
AcDbLine
 62
7
  6
CONTINUOUS
 10
13.9922044717
 20
7.446455366
 11
13.9922044717
 21
7.5231126473
  0
LWPOLYLINE
  5
630
100
AcDbEntity
  8
0
100
AcDbPolyline
 62
7
  6
CONTINUOUS
 90
27
 70
0
 10
14.1168143091
 20
7.1309012348
 10
14.1164298175
 20
7.1374871745
 10
14.1160481782
 20
7.1458732881
 10
14.1156786253
 20
7.1559102078
 10
14.1153268368
 20
7.1674172511
 10
14.1149923437
 20
7.1803704863
 10
14.114664936
 20
7.1952684463
 10
14.1143334925
 20
7.2130564844
 10
14.1139933099
 20
7.2349325818
 10
14.1136525432
 20
7.2619615379
 10
14.1133313091
 20
7.2949000618
 10
14.1130588929
 20
7.3340798004
 10
14.1128714039
 20
7.3789735954
 10
14.1128035209
 20
7.4276588927
 10
14.1128714228
 20
7.476323519
 10
14.1130588407
 20
7.5212013234
 10
14.1133310781
 20
7.5603628763
 10
14.1136521184
 20
7.5932911047
 10
14.1139926503
 20
7.6203112055
 10
14.1143324719
 20
7.6421744196
 10
14.1146636448
 20
7.6599584622
 10
14.1149908918
 20
7.6748591234
 10
14.1153256493
 20
7.6878309513
 10
14.1156775987
 20
7.6993496465
 10
14.1160465565
 20
7.7093774764
 10
14.1164273096
 20
7.7177544386
 10
14.1168143091
 20
7.7243893171
  0
LWPOLYLINE
  5
631
100
AcDbEntity
  8
0
100
AcDbPolyline
 62
7
  6
CONTINUOUS
 90
27
 70
0
 10
14.1088294914
 20
7.119408456
 10
14.1084407461
 20
7.1260826803
 10
14.1080537904
 20
7.1346654754
 10
14.1076782951
 20
7.1450103792
 10
14.1073206265
 20
7.1569204782
 10
14.1069809136
 20
7.1703470359
 10
14.1066495253
 20
7.1857618856
 10
14.1063145981
 20
7.2041526851
 10
14.1059708118
 20
7.2267807466
 10
14.105625717
 20
7.2548017689
 10
14.1052996461
 20
7.2890319221
 10
14.1050224732
 20
7.3298445156
 10
14.1048312632
 20
7.3767090552
 10
14.1047618608
 20
7.4276071265
 10
14.1048310209
 20
7.4784900749
 10
14.105021954
 20
7.5253497136
 10
14.105298827
 20
7.5661577555
 10
14.1056246399
 20
7.6003900272
 10
14.105969494
 20
7.6284139584
 10
14.1063129241
 20
7.6510376263
 10
14.1066475876
 20
7.669430912
 10
14.1069788128
 20
7.6848533843
 10
14.1073187741
 20
7.6983026939
 10
14.1076765742
 20
7.7102278399
 10
14.1080512859
 20
7.7205628591
 10
14.108437514
 20
7.7291443839
 10
14.1088294924
 20
7.7358821033
  0
LINE
  5
632
100
AcDbEntity
  8
0
100
AcDbLine
 62
7
  6
CONTINUOUS
 10
14.1168143091
 20
7.7243893171
 11
14.1168143091
 21
7.1309012348
  0
LINE
  5
633
100
AcDbEntity
  8
0
100
AcDbLine
 62
7
  6
CONTINUOUS
 10
13.5669609532
 20
6.9761812714
 11
13.565170799
 21
6.9758241564
  0
LWPOLYLINE
  5
634
100
AcDbEntity
  8
0
100
AcDbPolyline
 62
7
  6
CONTINUOUS
 90
8
 70
0
 10
13.5680633331
 20
6.9758241564
 10
13.6539633284
 20
6.9929506855
 10
13.7326647568
 20
7.0104576486
 10
13.8082009547
 20
7.028925308
 10
13.883696507
 20
7.0490480365
 10
13.9594229949
 20
7.0709472003
 10
14.0346735336
 20
7.0944620493
 10
14.1088293538
 20
7.1194084097
  0
LINE
  5
635
100
AcDbEntity
  8
0
100
AcDbLine
 62
7
  6
CONTINUOUS
 10
12.858346204
 20
6.9100155072
 11
12.8558860104
 21
6.909977398
  0
LWPOLYLINE
  5
636
100
AcDbEntity
  8
0
100
AcDbPolyline
 62
7
  6
CONTINUOUS
 90
3
 70
0
 10
12.858346204
 20
6.909977398
 10
12.977918279
 20
6.9118283802
 10
13.0935109647
 20
6.9171426348
  0
LWPOLYLINE
  5
637
100
AcDbEntity
  8
0
100
AcDbPolyline
 62
7
  6
CONTINUOUS
 90
7
 70
0
 10
14.1168143091
 20
7.7243893203
 10
14.1165620726
 20
7.7268950605
 10
14.1158193239
 20
7.7292828812
 10
14.1146186118
 20
7.7314584569
 10
14.1130090933
 20
7.733333061
 10
14.1110542279
 20
7.734829212
 10
14.1088293116
 20
7.7358821641
  0
LINE
  5
638
100
AcDbEntity
  8
0
100
AcDbLine
 62
7
  6
CONTINUOUS
 10
12.8425981725
 20
7.0628779622
 11
12.858346204
 21
7.0628779622
  0
LINE
  5
639
100
AcDbEntity
  8
0
100
AcDbLine
 62
7
  6
CONTINUOUS
 10
12.858346204
 20
7.0637413544
 11
12.8425981725
 21
7.0637413544
  0
LINE
  5
63A
100
AcDbEntity
  8
0
100
AcDbLine
 62
7
  6
CONTINUOUS
 10
13.565170799
 20
6.9758241564
 11
13.5492871489
 21
6.9805796612
  0
LINE
  5
63B
100
AcDbEntity
  8
0
100
AcDbLine
 62
7
  6
CONTINUOUS
 10
13.547322582
 20
7.2800074846
 11
12.9567714009
 21
7.2800074846
  0
LINE
  5
63C
100
AcDbEntity
  8
DEFAULT_1
100
AcDbLine
 62
7
  6
CENTER
 10
13.826850141
 20
7.4276452799
 11
13.5948559098
 21
7.4276452799
  0
LINE
  5
63D
100
AcDbEntity
  8
DEFAULT_1
100
AcDbLine
 62
7
  6
CENTER
 10
13.826850141
 20
7.4276452799
 11
14.0588443723
 21
7.4276452799
  0
LWPOLYLINE
  5
63E
100
AcDbEntity
  8
0
100
AcDbPolyline
 62
7
  6
CONTINUOUS
 90
7
 70
0
 10
13.826850141
 20
7.2255058249
 10
13.7973327773
 20
7.2408444388
 10
13.7672337393
 20
7.2566333276
 10
13.7367343493
 20
7.2727701932
 10
13.7059923637
 20
7.2891642363
 10
13.6751780938
 20
7.3057171816
 10
13.6444497913
 20
7.3223363889
  0
LINE
  5
63F
100
AcDbEntity
  8
0
100
AcDbLine
 62
7
  6
CONTINUOUS
 10
13.6614958103
 20
7.3321779126
 11
13.7278829633
 21
7.2938492719
  0
LINE
  5
640
100
AcDbEntity
  8
0
100
AcDbLine
 62
7
  6
CONTINUOUS
 10
13.7604629881
 20
7.2750391859
 11
13.826850141
 21
7.2367105452
  0
LINE
  5
641
100
AcDbEntity
  8
0
100
AcDbLine
 62
7
  6
CONTINUOUS
 10
13.728850141
 20
7.3710649535
 11
13.826850141
 21
7.3144846271
  0
LINE
  5
642
100
AcDbEntity
  8
0
100
AcDbLine
 62
7
  6
CONTINUOUS
 10
12.9567714009
 20
7.5752830752
 11
13.547322582
 21
7.5752830752
  0
LINE
  5
643
100
AcDbEntity
  8
0
100
AcDbLine
 62
7
  6
CONTINUOUS
 10
13.6614958103
 20
7.5231126473
 11
13.6444497913
 21
7.5329541709
  0
LINE
  5
644
100
AcDbEntity
  8
0
100
AcDbLine
 62
7
  6
CONTINUOUS
 10
13.9922044717
 20
7.3321779126
 11
14.0011208501
 21
7.3270300391
  0
LINE
  5
645
100
AcDbEntity
  8
0
100
AcDbLine
 62
7
  6
CONTINUOUS
 10
13.924850141
 20
7.4842256063
 11
13.826850141
 21
7.5408059327
  0
LINE
  5
646
100
AcDbEntity
  8
0
100
AcDbLine
 62
7
  6
CONTINUOUS
 10
12.858346204
 20
7.7915492054
 11
12.8425981725
 21
7.7915492054
  0
LINE
  5
647
100
AcDbEntity
  8
0
100
AcDbLine
 62
7
  6
CONTINUOUS
 10
12.858346204
 20
7.7924125976
 11
12.8425981725
 21
7.7924125976
  0
LWPOLYLINE
  5
648
100
AcDbEntity
  8
0
100
AcDbPolyline
 62
7
  6
CONTINUOUS
 90
6
 70
0
 10
13.826850141
 20
7.6297847349
 10
13.8615397217
 20
7.6098272861
 10
13.8972344185
 20
7.5891619546
 10
13.9329906323
 20
7.5683289257
 10
13.9679257868
 20
7.5478450599
 10
14.0011208501
 20
7.5282605207
  0
LINE
  5
649
100
AcDbEntity
  8
0
100
AcDbLine
 62
7
  6
CONTINUOUS
 10
13.9922044717
 20
7.5231126473
 11
13.9258173188
 21
7.5614412879
  0
LINE
  5
64A
100
AcDbEntity
  8
0
100
AcDbLine
 62
7
  6
CONTINUOUS
 10
13.893237294
 20
7.580251374
 11
13.826850141
 21
7.6185800146
  0
LWPOLYLINE
  5
64B
100
AcDbEntity
  8
0
100
AcDbPolyline
 62
7
  6
CONTINUOUS
 90
7
 70
0
 10
13.4008844829
 20
7.8502076212
 10
13.4351140989
 20
7.8520763239
 10
13.4694309113
 20
7.8563881418
 10
13.5000585325
 20
7.8621272924
 10
13.52656663
 20
7.868428695
 10
13.5484996934
 20
7.8744751352
 10
13.565170799
 20
7.8794664035
  0
LINE
  5
64C
100
AcDbEntity
  8
0
100
AcDbLine
 62
7
  6
CONTINUOUS
 10
12.8558860104
 20
7.9453131618
 11
12.858346204
 21
7.9452750547
  0
LWPOLYLINE
  5
64D
100
AcDbEntity
  8
0
100
AcDbPolyline
 62
7
  6
CONTINUOUS
 90
3
 70
0
 10
13.0935109647
 20
7.938147925
 10
12.9779247648
 20
7.9434619787
 10
12.858346204
 20
7.9453131618
  0
LINE
  5
64E
100
AcDbEntity
  8
0
100
AcDbLine
 62
7
  6
CONTINUOUS
 10
13.565170799
 20
7.8794664035
 11
13.5669609164
 21
7.8791092767
  0
LWPOLYLINE
  5
64F
100
AcDbEntity
  8
0
100
AcDbPolyline
 62
7
  6
CONTINUOUS
 90
8
 70
0
 10
14.1088293116
 20
7.7358821641
 10
14.0346707426
 20
7.7608294158
 10
13.9594814511
 20
7.7843257785
 10
13.8838156041
 20
7.8062094427
 10
13.8083168731
 20
7.8263356405
 10
13.732674949
 20
7.8448305301
 10
13.6538871447
 20
7.8623559747
 10
13.5680633331
 20
7.8794664035
  0
LINE
  5
650
100
AcDbEntity
  8
0
100
AcDbLine
 62
7
  6
CONTINUOUS
 10
12.6457477788
 20
8.3264641775
 11
12.8425981725
 21
8.3264641775
  0
LINE
  5
651
100
AcDbEntity
  8
0
100
AcDbLine
 62
7
  6
CONTINUOUS
 10
12.6457477788
 20
8.5233145712
 11
12.8425981725
 21
8.5233145712
  0
LINE
  5
652
100
AcDbEntity
  8
0
100
AcDbLine
 62
7
  6
CONTINUOUS
 10
7.0374080613
 20
3.6166216579
 11
6.687808095
 21
3.6166216579
  0
LINE
  5
653
100
AcDbEntity
  8
0
100
AcDbLine
 62
7
  6
CONTINUOUS
 10
5.620062419
 20
8.4244696826
 11
5.701610464
 21
8.5060177276
  0
LINE
  5
654
100
AcDbEntity
  8
0
100
AcDbLine
 62
7
  6
CONTINUOUS
 10
7.081108095
 20
3.6603216579
 11
6.644108095
 21
3.6603216579
  0
LWPOLYLINE
  5
655
100
AcDbEntity
  8
0
100
AcDbPolyline
 62
7
  6
CONTINUOUS
 90
4
 70
0
 10
6.6854120545
 20
7.7588361284
 10
6.7078935195
 20
7.7712819015
 10
6.7311541302
 20
7.7822022835
 10
6.7550922685
 20
7.7915492054
  0
LINE
  5
656
100
AcDbEntity
  8
0
100
AcDbLine
 62
7
  6
CONTINUOUS
 10
6.7509702807
 20
7.7915492054
 11
6.6998264756
 21
7.7692379149
  0
LWPOLYLINE
  5
657
100
AcDbEntity
  8
0
100
AcDbPolyline
 62
7
  6
CONTINUOUS
 90
14
 70
0
 10
6.6380833241
 20
7.7579942587
 10
6.5898225367
 20
7.7216962966
 10
6.5477123794
 20
7.6784043224
 10
6.5127553249
 20
7.6291483444
 10
6.485782935
 20
7.575099791
 10
6.4674368647
 20
7.5175442381
 10
6.4581534754
 20
7.4578504559
 10
6.4581536101
 20
7.3974383611
 10
6.4674372338
 20
7.3377447551
 10
6.4857834429
 20
7.2801895181
 10
6.5127558267
 20
7.2261413784
 10
6.5477127218
 20
7.1768858262
 10
6.5898226581
 20
7.1335941563
 10
6.6380833241
 20
7.0972963011
  0
LINE
  5
658
100
AcDbEntity
  8
0
100
AcDbLine
 62
7
  6
CONTINUOUS
 10
6.6998264756
 20
7.7692379149
 11
6.6830114976
 21
7.7587822021
  0
LINE
  5
659
100
AcDbEntity
  8
0
100
AcDbLine
 62
7
  6
CONTINUOUS
 10
5.6027655754
 20
8.3827114081
 11
5.6027655754
 21
6.9484579054
  0
LINE
  5
65A
100
AcDbEntity
  8
DEFAULT_1
100
AcDbLine
 62
7
  6
CENTER
 10
5.7628443155
 20
8.2274090594
 11
5.7628443155
 21
7.3727838118
  0
LINE
  5
65B
100
AcDbEntity
  8
DEFAULT_1
100
AcDbLine
 62
7
  6
CENTER
 10
5.7628443155
 20
7.2431570909
 11
5.7628443155
 21
7.0742594531
  0
LINE
  5
65C
100
AcDbEntity
  8
DEFAULT_1
100
AcDbLine
 62
7
  6
CENTER
 10
5.7628443155
 20
7.2431570909
 11
5.7628443155
 21
7.3727838118
  0
LINE
  5
65D
100
AcDbEntity
  8
DEFAULT_1
100
AcDbLine
 62
7
  6
CENTER
 10
5.7628443155
 20
8.2274090594
 11
5.7628443155
 21
8.3963066972
  0
LINE
  5
65E
100
AcDbEntity
  8
DEFAULT_1
100
AcDbLine
 62
7
  6
CENTER
 10
5.9177262053
 20
8.0662279571
 11
5.9177262053
 21
7.1689976406
  0
LINE
  5
65F
100
AcDbEntity
  8
DEFAULT_1
100
AcDbLine
 62
7
  6
CENTER
 10
5.9177262053
 20
7.0819759886
 11
5.9177262053
 21
6.9327633901
  0
LINE
  5
660
100
AcDbEntity
  8
DEFAULT_1
100
AcDbLine
 62
7
  6
CENTER
 10
5.9177262053
 20
7.0819759886
 11
5.9177262053
 21
7.1689976406
  0
LINE
  5
661
100
AcDbEntity
  8
DEFAULT_1
100
AcDbLine
 62
7
  6
CENTER
 10
5.9177262053
 20
8.0662279571
 11
5.9177262053
 21
8.2154405555
  0
LWPOLYLINE
  5
662
100
AcDbEntity
  8
0
100
AcDbPolyline
 62
7
  6
CONTINUOUS
 90
6
 70
0
 10
6.6449492484
 20
7.1168766238
 10
6.6431217541
 20
7.1109903798
 10
6.6414205551
 20
7.1055742758
 10
6.6400141873
 20
7.1011860175
 10
6.6390505744
 20
7.0983129944
 10
6.6386324481
 20
7.0972928529
  0
LINE
  5
663
100
AcDbEntity
  8
0
100
AcDbLine
 62
7
  6
CONTINUOUS
 10
6.4295372289
 20
8.2510704768
 11
6.4295372289
 21
8.3888657523
  0
LWPOLYLINE
  5
664
100
AcDbEntity
  8
0
100
AcDbPolyline
 62
7
  6
CONTINUOUS
 90
6
 70
0
 10
7.1029378746
 20
7.738413936
 10
7.1047335946
 20
7.74430018
 10
7.1063405822
 20
7.7497162841
 10
7.1075969797
 20
7.7541045423
 10
7.1083683127
 20
7.7569775654
 10
7.1085677815
 20
7.7579977069
  0
LINE
  5
665
100
AcDbEntity
  8
0
100
AcDbLine
 62
7
  6
CONTINUOUS
 10
6.1424238566
 20
6.3598767624
 11
5.6373592626
 21
6.8649413564
  0
LINE
  5
666
100
AcDbEntity
  8
0
100
AcDbLine
 62
7
  6
CONTINUOUS
 10
6.6263876226
 20
6.4203618153
 11
6.6263876226
 21
6.5581570909
  0
LINE
  5
667
100
AcDbEntity
  8
AXIS
100
AcDbLine
 62
7
  6
CONTINUOUS
 10
6.644108095
 20
6.3252830752
 11
6.644108095
 21
3.6603216579
  0
LINE
  5
668
100
AcDbEntity
  8
0
100
AcDbLine
 62
7
  6
CONTINUOUS
 10
6.8004038551
 20
7.8159039015
 11
6.8004038551
 21
7.7924125976
  0
LINE
  5
669
100
AcDbEntity
  8
0
100
AcDbLine
 62
7
  6
CONTINUOUS
 10
6.8004038551
 20
7.0628779622
 11
6.8004038551
 21
7.0393866583
  0
LINE
  5
66A
100
AcDbEntity
  8
0
100
AcDbLine
 62
7
  6
CONTINUOUS
 10
6.8045258429
 20
7.0628779622
 11
6.8045258429
 21
7.0943740252
  0
LINE
  5
66B
100
AcDbEntity
  8
0
100
AcDbLine
 62
7
  6
CONTINUOUS
 10
6.8045258429
 20
7.7609165346
 11
6.8045258429
 21
7.7924125976
  0
LINE
  5
66C
100
AcDbEntity
  8
0
100
AcDbLine
 62
7
  6
CONTINUOUS
 10
6.8065388705
 20
7.1140560664
 11
6.8065388705
 21
7.7412344934
  0
LINE
  5
66D
100
AcDbEntity
  8
AXIS
100
AcDbLine
 62
7
  6
CENTER
 10
6.862608095
 20
7.4276452799
 11
6.862608095
 21
3.4355304771
  0
LINE
  5
66E
100
AcDbEntity
  8
AXIS
100
AcDbLine
 62
7
  6
CENTER
 10
6.862608095
 20
7.4276452799
 11
6.862608095
 21
8.6099724336
  0
LINE
  5
66F
100
AcDbEntity
  8
0
100
AcDbLine
 62
7
  6
CONTINUOUS
 10
6.9413482525
 20
6.5581570909
 11
6.9413482525
 21
6.4203618153
  0
LINE
  5
670
100
AcDbEntity
  8
0
100
AcDbLine
 62
7
  6
CONTINUOUS
 10
6.9413482525
 20
7.0427055935
 11
6.9413482525
 21
7.8125849663
  0
LINE
  5
671
100
AcDbEntity
  8
0
100
AcDbLine
 62
7
  6
CONTINUOUS
 10
6.2259404056
 20
6.3252830752
 11
7.4400096698
 21
6.3252830752
  0
LINE
  5
672
100
AcDbEntity
  8
0
100
AcDbLine
 62
7
  6
CONTINUOUS
 10
6.9413482525
 20
6.4203618153
 11
6.6263876226
 21
6.4203618153
  0
LINE
  5
673
100
AcDbEntity
  8
0
100
AcDbLine
 62
7
  6
CONTINUOUS
 10
7.02008841
 20
8.3888657523
 11
7.02008841
 21
8.2510704768
  0
LINE
  5
674
100
AcDbEntity
  8
AXIS
100
AcDbLine
 62
7
  6
CONTINUOUS
 10
7.081108095
 20
6.3252830752
 11
7.081108095
 21
3.6603216579
  0
LINE
  5
675
100
AcDbEntity
  8
0
100
AcDbLine
 62
7
  6
CONTINUOUS
 10
6.6263876226
 20
6.5581570909
 11
6.9413482525
 21
6.5581570909
  0
LINE
  5
676
100
AcDbEntity
  8
DEFAULT_1
100
AcDbLine
 62
7
  6
CENTER
 10
7.3770175439
 20
6.5896137838
 11
7.2081199061
 21
6.5896137838
  0
LINE
  5
677
100
AcDbEntity
  8
DEFAULT_1
100
AcDbLine
 62
7
  6
CENTER
 10
7.3770175439
 20
6.5896137838
 11
7.5459151817
 21
6.5896137838
  0
LWPOLYLINE
  5
678
100
AcDbEntity
  8
0
100
AcDbPolyline
 62
7
  6
CONTINUOUS
 90
6
 70
0
 10
6.6386324481
 20
7.7579977069
 10
6.6390505774
 20
7.7569775656
 10
6.6400141898
 20
7.7541045428
 10
6.6414205569
 20
7.7497162846
 10
6.6431217558
 20
7.7443001806
 10
6.6449492484
 20
7.738413936
  0
LWPOLYLINE
  5
679
100
AcDbEntity
  8
0
100
AcDbPolyline
 62
7
  6
CONTINUOUS
 90
6
 70
0
 10
7.1085677815
 20
7.0972928529
 10
7.1083683096
 20
7.0983129942
 10
7.1075969772
 20
7.1011860171
 10
7.1063405803
 20
7.1055742752
 10
7.1047335928
 20
7.1109903792
 10
7.1029378746
 20
7.1168766238
  0
LINE
  5
67A
100
AcDbEntity
  8
DEFAULT_1
100
AcDbLine
 62
7
  6
CENTER
 10
7.3748128195
 20
6.8063854374
 11
7.3748128195
 21
6.657172839
  0
LINE
  5
67B
100
AcDbEntity
  8
DEFAULT_1
100
AcDbLine
 62
7
  6
CENTER
 10
7.3748128195
 20
6.8063854374
 11
7.3748128195
 21
6.9555980358
  0
LINE
  5
67C
100
AcDbEntity
  8
DEFAULT_1
100
AcDbLine
 62
7
  6
CENTER
 10
7.3770175439
 20
6.5896137838
 11
7.3770175439
 21
6.420716146
  0
LINE
  5
67D
100
AcDbEntity
  8
DEFAULT_1
100
AcDbLine
 62
7
  6
CENTER
 10
7.3770175439
 20
6.5896137838
 11
7.3770175439
 21
6.7585114216
  0
LINE
  5
67E
100
AcDbEntity
  8
DEFAULT_1
100
AcDbLine
 62
7
  6
CENTER
 10
7.3748128195
 20
6.8063854374
 11
7.225600221
 21
6.8063854374
  0
LINE
  5
67F
100
AcDbEntity
  8
DEFAULT_1
100
AcDbLine
 62
7
  6
CENTER
 10
7.3748128195
 20
6.8063854374
 11
7.5240254179
 21
6.8063854374
  0
LWPOLYLINE
  5
680
100
AcDbEntity
  8
0
100
AcDbPolyline
 62
7
  6
CONTINUOUS
 90
25
 70
0
 10
6.638638685
 20
7.0972928519
 10
6.61267349
 20
7.1153546618
 10
6.5877919849
 20
7.1358622118
 10
6.5642871146
 20
7.158763698
 10
6.5426202642
 20
7.1837548918
 10
6.5231659135
 20
7.2104442722
 10
6.5060680524
 20
7.2386064575
 10
6.4913991857
 20
7.268101039
 10
6.4792559842
 20
7.298735734
 10
6.4697306211
 20
7.330282129
 10
6.4628907039
 20
7.3625149286
 10
6.4587836444
 20
7.3952100082
 10
6.4574388705
 20
7.4281364224
 10
6.4588661882
 20
7.4610592003
 10
6.4630552432
 20
7.4937441141
 10
6.4699765554
 20
7.5259619263
 10
6.4795830695
 20
7.5574896422
 10
6.4918061749
 20
7.5880990914
 10
6.5065490049
 20
7.617554432
 10
6.5237097512
 20
7.6456603669
 10
6.5432166009
 20
7.6722833566
 10
6.5649307736
 20
7.6972072092
 10
6.5884641887
 20
7.7200291237
 10
6.6132458194
 20
7.740368503
 10
6.6386386856
 20
7.7579977083
  0
LWPOLYLINE
  5
681
100
AcDbEntity
  8
0
100
AcDbPolyline
 62
7
  6
CONTINUOUS
 90
24
 70
0
 10
6.6380951775
 20
7.0972928529
 10
6.6103144249
 20
7.116750267
 10
6.5841943907
 20
7.1386557399
 10
6.5600102047
 20
7.1628244783
 10
6.5380086055
 20
7.189033196
 10
6.5183899138
 20
7.2170440185
 10
6.5012969258
 20
7.2466433783
 10
6.4868496853
 20
7.2776172449
 10
6.4751561015
 20
7.3097327485
 10
6.4663047717
 20
7.3427465267
 10
6.4603631662
 20
7.3764077508
 10
6.4573768007
 20
7.4104601162
 10
6.4573686297
 20
7.4446432312
 10
6.4603386967
 20
7.4786968801
 10
6.4662645428
 20
7.5123625103
 10
6.4751014482
 20
7.5453844155
 10
6.486782361
 20
7.5775107279
 10
6.5012170456
 20
7.6084936862
 10
6.5182936858
 20
7.6380954501
 10
6.5378883737
 20
7.6661006441
 10
6.5598600661
 20
7.6923022349
 10
6.5840295467
 20
7.7164837892
 10
6.6101854167
 20
7.7384412955
 10
6.6380951775
 20
7.7579977069
  0
LWPOLYLINE
  5
682
100
AcDbEntity
  8
0
100
AcDbPolyline
 62
7
  6
CONTINUOUS
 90
24
 70
0
 10
6.6449492484
 20
7.1168766238
 10
6.6198108335
 20
7.1349664075
 10
6.5958119519
 20
7.1555050685
 10
6.5732836314
 20
7.178401784
 10
6.5527181
 20
7.2032835121
 10
6.5344381386
 20
7.229772518
 10
6.5185401322
 20
7.2576950195
 10
6.50510634
 20
7.2868956333
 10
6.4942410382
 20
7.3171533327
 10
6.4860293211
 20
7.3482322845
 10
6.4805310885
 20
7.3799035531
 10
6.4777871323
 20
7.4119334916
 10
6.477818463
 20
7.4440815808
 10
6.4806248281
 20
7.4761059797
 10
6.4861850045
 20
7.5077675314
 10
6.4944586005
 20
7.5388343479
 10
6.505385897
 20
7.5690770478
 10
6.5188784877
 20
7.5982528599
 10
6.5348255265
 20
7.6261335377
 10
6.5531450725
 20
7.6525707397
 10
6.573746515
 20
7.677400811
 10
6.5962976847
 20
7.7002374906
 10
6.6202457589
 20
7.720664965
 10
6.6449492484
 20
7.738413936
  0
LINE
  5
683
100
AcDbEntity
  8
0
100
AcDbLine
 62
7
  6
CONTINUOUS
 10
7.5581199061
 20
6.4433933114
 11
7.5581199061
 21
8.3264641775
  0
LINE
  5
684
100
AcDbEntity
  8
0
100
AcDbLine
 62
7
  6
CONTINUOUS
 10
6.9908119589
 20
7.0637413544
 11
6.9413482525
 21
7.0628779622
  0
LINE
  5
685
100
AcDbEntity
  8
0
100
AcDbLine
 62
7
  6
CONTINUOUS
 10
6.9413482525
 20
7.0943740252
 11
7.1085677794
 21
7.0972928529
  0
LINE
  5
686
100
AcDbEntity
  8
0
100
AcDbLine
 62
7
  6
CONTINUOUS
 10
6.9413482525
 20
7.1140560664
 11
7.1029378746
 21
7.1168766238
  0
LINE
  5
687
100
AcDbEntity
  8
0
100
AcDbLine
 62
7
  6
CONTINUOUS
 10
6.7509702807
 20
7.0637413544
 11
6.7550922685
 21
7.0637413544
  0
LINE
  5
688
100
AcDbEntity
  8
DEFAULT_1
100
AcDbLine
 62
7
  6
CENTER
 10
5.9177262053
 20
7.0819759886
 11
5.7685136069
 21
7.0819759886
  0
LINE
  5
689
100
AcDbEntity
  8
DEFAULT_1
100
AcDbLine
 62
7
  6
CENTER
 10
5.9177262053
 20
7.0819759886
 11
6.0669388037
 21
7.0819759886
  0
LINE
  5
68A
100
AcDbEntity
  8
0
100
AcDbLine
 62
7
  6
CONTINUOUS
 10
6.6380951775
 20
7.0972928529
 11
6.6386324497
 21
7.0972928529
  0
LINE
  5
68B
100
AcDbEntity
  8
0
100
AcDbLine
 62
7
  6
CONTINUOUS
 10
6.7550922685
 20
7.0637413544
 11
6.8045258429
 21
7.0628779622
  0
LINE
  5
68C
100
AcDbEntity
  8
0
100
AcDbLine
 62
7
  6
CONTINUOUS
 10
6.6386324497
 20
7.0972928529
 11
6.8058519771
 21
7.0943740252
  0
LINE
  5
68D
100
AcDbEntity
  8
0
100
AcDbLine
 62
7
  6
CONTINUOUS
 10
6.6449492484
 20
7.1168766238
 11
6.8065388705
 21
7.1140560664
  0
LWPOLYLINE
  5
68E
100
AcDbEntity
  8
0
100
AcDbPolyline
 62
7
  6
CONTINUOUS
 90
4
 70
0
 10
6.7550922685
 20
7.0637413544
 10
6.7311541302
 20
7.0730882763
 10
6.7078935195
 20
7.0840086583
 10
6.6854120545
 20
7.0964544314
  0
LWPOLYLINE
  5
68F
100
AcDbEntity
  8
0
100
AcDbPolyline
 62
7
  6
CONTINUOUS
 90
3
 70
0
 10
6.6830115159
 20
7.0965083574
 10
6.6998270892
 20
7.0860523225
 10
6.7509702807
 20
7.0637413544
  0
LINE
  5
690
100
AcDbEntity
  8
DEFAULT_1
100
AcDbLine
 62
7
  6
CENTER
 10
5.7628443155
 20
7.2431570909
 11
5.5939466777
 21
7.2431570909
  0
LINE
  5
691
100
AcDbEntity
  8
DEFAULT_1
100
AcDbLine
 62
7
  6
CENTER
 10
5.7628443155
 20
7.2431570909
 11
5.9317419533
 21
7.2431570909
  0
LINE
  5
692
100
AcDbEntity
  8
AXIS
100
AcDbLine
 62
7
  6
CENTER
 10
6.862608095
 20
7.4276452799
 11
6.2989371355
 21
7.4276452799
  0
LINE
  5
693
100
AcDbEntity
  8
AXIS
100
AcDbLine
 62
7
  6
CENTER
 10
6.862608095
 20
7.4276452799
 11
7.4262790546
 21
7.4276452799
  0
LINE
  5
694
100
AcDbEntity
  8
0
100
AcDbLine
 62
7
  6
CONTINUOUS
 10
6.8065388705
 20
7.6166216579
 11
6.9413482525
 21
7.6166216579
  0
LWPOLYLINE
  5
695
100
AcDbEntity
  8
0
100
AcDbPolyline
 62
7
  6
CONTINUOUS
 90
3
 70
0
 10
6.8065388705
 20
7.5389505354
 10
6.8183107351
 20
7.5389470178
 10
6.862608095
 20
7.5389594577
  0
LWPOLYLINE
  5
696
100
AcDbEntity
  8
0
100
AcDbPolyline
 62
7
  6
CONTINUOUS
 90
3
 70
0
 10
6.862608095
 20
7.5389594577
 10
6.9069591494
 20
7.5389422291
 10
6.9413482525
 20
7.5389557346
  0
LINE
  5
697
100
AcDbEntity
  8
0
100
AcDbLine
 62
7
  6
CONTINUOUS
 10
6.8065388705
 20
7.7412344934
 11
6.6449492484
 21
7.738413936
  0
LINE
  5
698
100
AcDbEntity
  8
0
100
AcDbLine
 62
7
  6
CONTINUOUS
 10
6.8058519771
 20
7.7609165346
 11
6.6386324503
 21
7.7579977069
  0
LINE
  5
699
100
AcDbEntity
  8
0
100
AcDbLine
 62
7
  6
CONTINUOUS
 10
6.7550922685
 20
7.7915492054
 11
6.8045258429
 21
7.7924125976
  0
LINE
  5
69A
100
AcDbEntity
  8
0
100
AcDbLine
 62
7
  6
CONTINUOUS
 10
6.6380951775
 20
7.7579977069
 11
6.6386324503
 21
7.7579977069
  0
LINE
  5
69B
100
AcDbEntity
  8
0
100
AcDbLine
 62
7
  6
CONTINUOUS
 10
6.7509702807
 20
7.7915492054
 11
6.7550922685
 21
7.7915492054
  0
LINE
  5
69C
100
AcDbEntity
  8
0
100
AcDbLine
 62
7
  6
CONTINUOUS
 10
7.1029378746
 20
7.738413936
 11
6.9413482525
 21
7.7412344934
  0
LINE
  5
69D
100
AcDbEntity
  8
0
100
AcDbLine
 62
7
  6
CONTINUOUS
 10
7.10856778
 20
7.7579977069
 11
6.9413482525
 21
7.7609165346
  0
LINE
  5
69E
100
AcDbEntity
  8
0
100
AcDbLine
 62
7
  6
CONTINUOUS
 10
6.9908119589
 20
7.7915492054
 11
6.9413482525
 21
7.7924125976
  0
LWPOLYLINE
  5
69F
100
AcDbEntity
  8
0
100
AcDbPolyline
 62
7
  6
CONTINUOUS
 90
24
 70
0
 10
7.1029378746
 20
7.738413936
 10
7.1280762895
 20
7.7203241523
 10
7.1520751711
 20
7.6997854913
 10
7.1746034916
 20
7.6768887758
 10
7.1951690229
 20
7.6520070477
 10
7.2134489844
 20
7.6255180418
 10
7.2293469908
 20
7.5975955403
 10
7.2427807829
 20
7.5683949265
 10
7.2536460848
 20
7.5381372271
 10
7.2618578019
 20
7.5070582754
 10
7.2673560345
 20
7.4753870068
 10
7.2700999907
 20
7.4433570682
 10
7.27006866
 20
7.411208979
 10
7.2672622949
 20
7.3791845801
 10
7.2617021185
 20
7.3475230284
 10
7.2534285225
 20
7.3164562119
 10
7.242501226
 20
7.2862135121
 10
7.2290086353
 20
7.2570376999
 10
7.2130615965
 20
7.2291570221
 10
7.1947420505
 20
7.2027198201
 10
7.174140608
 20
7.1778897488
 10
7.1515894383
 20
7.1550530692
 10
7.127641364
 20
7.1346255948
 10
7.1029378746
 20
7.1168766238
  0
LINE
  5
6A0
100
AcDbEntity
  8
DEFAULT_1
100
AcDbLine
 62
7
  6
CENTER
 10
5.9177262053
 20
8.0662279571
 11
5.7685136069
 21
8.0662279571
  0
LINE
  5
6A1
100
AcDbEntity
  8
DEFAULT_1
100
AcDbLine
 62
7
  6
CENTER
 10
5.9177262053
 20
8.0662279571
 11
6.0669388037
 21
8.0662279571
  0
LINE
  5
6A2
100
AcDbEntity
  8
DEFAULT_1
100
AcDbLine
 62
7
  6
CENTER
 10
5.7628443155
 20
8.2274090594
 11
5.5939466777
 21
8.2274090594
  0
LINE
  5
6A3
100
AcDbEntity
  8
DEFAULT_1
100
AcDbLine
 62
7
  6
CENTER
 10
5.7628443155
 20
8.2274090594
 11
5.9317419533
 21
8.2274090594
  0
LINE
  5
6A4
100
AcDbEntity
  8
0
100
AcDbLine
 62
7
  6
CONTINUOUS
 10
7.02008841
 20
8.2510704768
 11
6.4295372289
 21
8.2510704768
  0
LINE
  5
6A5
100
AcDbEntity
  8
0
100
AcDbLine
 62
7
  6
CONTINUOUS
 10
6.4295372289
 20
8.3888657523
 11
7.02008841
 21
8.3888657523
  0
LINE
  5
6A6
100
AcDbEntity
  8
0
100
AcDbLine
 62
7
  6
CONTINUOUS
 10
7.3612695124
 20
8.5233145712
 11
5.7433687385
 21
8.5233145712
  0
LINE
  5
6A7
100
AcDbEntity
  8
0
100
AcDbLine
 62
7
  6
CONTINUOUS
 10
5.6027655754
 20
12.7475556705
 11
5.6027655754
 21
12.9444060642
  0
LINE
  5
6A8
100
AcDbEntity
  8
0
100
AcDbLine
 62
7
  6
CONTINUOUS
 10
5.620062419
 20
12.7475556705
 11
5.620062419
 21
12.9444060642
  0
LINE
  5
6A9
100
AcDbEntity
  8
0
100
AcDbLine
 62
7
  6
CONTINUOUS
 10
5.701610464
 20
12.9444060642
 11
5.701610464
 21
12.7475556705
  0
LINE
  5
6AA
100
AcDbEntity
  8
0
100
AcDbLine
 62
7
  6
CONTINUOUS
 10
5.7433687385
 20
12.9444060642
 11
5.7433687385
 21
12.7475556705
  0
LINE
  5
6AB
100
AcDbEntity
  8
0
100
AcDbLine
 62
7
  6
CONTINUOUS
 10
5.6027655754
 20
12.7475556705
 11
7.5581199061
 21
12.7475556705
  0
LINE
  5
6AC
100
AcDbEntity
  8
02___PRT_ALL_AXES
100
AcDbLine
 62
7
  6
CONTINUOUS
 10
6.4095285675
 20
14.0271580327
 11
6.3898285675
 21
14.0074580327
  0
LINE
  5
6AD
100
AcDbEntity
  8
0
100
AcDbLine
 62
7
  6
CONTINUOUS
 10
6.8004038551
 20
12.9576939021
 11
6.4198899638
 21
12.9444060642
  0
LINE
  5
6AE
100
AcDbEntity
  8
0
100
AcDbLine
 62
7
  6
CONTINUOUS
 10
5.6027655754
 20
12.9444060642
 11
7.5581199061
 21
12.9444060642
  0
LINE
  5
6AF
100
AcDbEntity
  8
0
100
AcDbLine
 62
7
  6
CONTINUOUS
 10
7.3862301423
 20
12.9601540957
 11
6.9413482525
 21
12.9601540957
  0
LINE
  5
6B0
100
AcDbEntity
  8
0
100
AcDbLine
 62
7
  6
CONTINUOUS
 10
6.3697270009
 20
13.021442488
 11
6.3538393375
 21
13.0208876786
  0
LINE
  5
6B1
100
AcDbEntity
  8
0
100
AcDbLine
 62
7
  6
CONTINUOUS
 10
7.3854353041
 20
13.0388942532
 11
7.3695379565
 21
13.0388942532
  0
LINE
  5
6B2
100
AcDbEntity
  8
AXIS
100
AcDbLine
 62
7
  6
CONTINUOUS
 10
6.5162848385
 20
14.1949476496
 11
6.4869797303
 21
14.0914693341
  0
LWPOLYLINE
  5
6B3
100
AcDbEntity
  8
0
100
AcDbPolyline
 62
7
  6
CONTINUOUS
 90
7
 70
0
 10
6.498374397
 20
13.9162410841
 10
6.4825548813
 20
13.8861532986
 10
6.4678878343
 20
13.8555237293
 10
6.4543905567
 20
13.8245344132
 10
6.4420603258
 20
13.7933431078
 10
6.4308917325
 20
13.7621200395
 10
6.4208666539
 20
13.7310229232
  0
LINE
  5
6B4
100
AcDbEntity
  8
02___PRT_ALL_AXES
100
AcDbLine
 62
7
  6
CONTINUOUS
 10
6.3898285675
 20
13.8498580327
 11
6.3898285675
 21
14.0074580327
  0
LINE
  5
6B5
100
AcDbEntity
  8
02___PRT_ALL_AXES
100
AcDbLine
 62
7
  6
CONTINUOUS
 10
6.4095285675
 20
13.8301580327
 11
6.4095285675
 21
14.0271580327
  0
LWPOLYLINE
  5
6B6
100
AcDbEntity
  8
0
100
AcDbPolyline
 62
7
  6
CONTINUOUS
 90
7
 70
0
 10
6.3748811477
 20
13.0413195131
 10
6.374739123
 20
13.0363263583
 10
6.3742239
 20
13.0315346509
 10
6.3733879582
 20
13.0274188661
 10
6.3723039052
 20
13.0242328774
 10
6.3710376466
 20
13.0221672384
 10
6.3697270009
 20
13.021442488
  0
LWPOLYLINE
  5
6B7
100
AcDbEntity
  8
0
100
AcDbPolyline
 62
7
  6
CONTINUOUS
 90
4
 70
0
 10
6.4171167493
 20
13.633705561
 10
6.3925688671
 20
13.4381289741
 10
6.3784323703
 20
13.2398647105
 10
6.3748811477
 20
13.0413195131
  0
LINE
  5
6B8
100
AcDbEntity
  8
AXIS
100
AcDbLine
 62
7
  6
CONTINUOUS
 10
6.4080049062
 20
13.7294436992
 11
6.3958178476
 21
13.6526588252
  0
LINE
  5
6B9
100
AcDbEntity
  8
0
100
AcDbLine
 62
7
  6
CONTINUOUS
 10
6.4935043098
 20
12.9469767338
 11
6.4935940796
 21
12.9444060642
  0
LWPOLYLINE
  5
6BA
100
AcDbEntity
  8
0
100
AcDbPolyline
 62
7
  6
CONTINUOUS
 90
6
 70
0
 10
6.5012846257
 20
14.0907196463
 10
6.4982897592
 20
14.057333961
 10
6.4964045753
 20
14.0223101096
 10
6.4957834958
 20
13.98654773
 10
6.4964652001
 20
13.9508911677
 10
6.498374397
 20
13.9162410841
  0
LWPOLYLINE
  5
6BB
100
AcDbEntity
  8
0
100
AcDbPolyline
 62
7
  6
CONTINUOUS
 90
7
 70
0
 10
7.3695379565
 20
13.0388942532
 10
7.3682027778
 20
13.0395728592
 10
7.3668675745
 20
13.0415882316
 10
7.3656728483
 20
13.044731959
 10
7.3646926923
 20
13.0488174577
 10
7.3640091308
 20
13.0535972571
 10
7.3636932513
 20
13.0585792926
  0
LWPOLYLINE
  5
6BC
100
AcDbEntity
  8
0
100
AcDbPolyline
 62
7
  6
CONTINUOUS
 90
7
 70
0
 10
6.4140089035
 20
13.6532940709
 10
6.4154291018
 20
13.6526566839
 10
6.4165787997
 20
13.6507187521
 10
6.417367871
 20
13.6477008908
 10
6.417760337
 20
13.6436687968
 10
6.4176801698
 20
13.6388355266
 10
6.4171167493
 20
13.633705561
  0
LINE
  5
6BD
100
AcDbEntity
  8
0
100
AcDbLine
 62
7
  6
CONTINUOUS
 10
6.7509702807
 20
12.9559676436
 11
6.7513740199
 21
12.9444060642
  0
LINE
  5
6BE
100
AcDbEntity
  8
02___PRT_ALL_AXES
100
AcDbLine
 62
7
  6
CONTINUOUS
 10
6.4095285675
 20
13.8301580327
 11
6.3898285675
 21
13.8498580327
  0
LINE
  5
6BF
100
AcDbEntity
  8
0
100
AcDbLine
 62
7
  6
CONTINUOUS
 10
6.8008678767
 20
12.9444060642
 11
6.7921967233
 21
13.1927154067
  0
LINE
  5
6C0
100
AcDbEntity
  8
0
100
AcDbLine
 62
7
  6
CONTINUOUS
 10
6.7756350845
 20
13.6669786907
 11
6.7564839517
 21
14.2153953825
  0
LINE
  5
6C1
100
AcDbEntity
  8
0
100
AcDbLine
 62
7
  6
CONTINUOUS
 10
6.4140089035
 20
13.6532940709
 11
6.3958178476
 21
13.6526588252
  0
LINE
  5
6C2
100
AcDbEntity
  8
0
100
AcDbLine
 62
7
  6
CONTINUOUS
 10
7.3214338711
 20
13.668815513
 11
7.303231727
 21
13.668815513
  0
LINE
  5
6C3
100
AcDbEntity
  8
02___PRT_ALL_AXES
100
AcDbLine
 62
7
  6
CONTINUOUS
 10
7.2849219601
 20
13.7704514253
 11
7.2958285675
 21
13.7813580327
  0
LINE
  5
6C4
100
AcDbEntity
  8
0
100
AcDbLine
 62
7
  6
CONTINUOUS
 10
6.4208666539
 20
13.7310229232
 11
6.4080049062
 21
13.7294436992
  0
LINE
  5
6C5
100
AcDbEntity
  8
0
100
AcDbLine
 62
7
  6
CONTINUOUS
 10
7.3065744831
 20
13.7451282895
 11
7.2936654563
 21
13.746257683
  0
LINE
  5
6C6
100
AcDbEntity
  8
0
100
AcDbLine
 62
7
  6
CONTINUOUS
 10
6.9413482525
 20
14.2186222008
 11
6.9413482525
 21
13.6698712248
  0
LINE
  5
6C7
100
AcDbEntity
  8
0
100
AcDbLine
 62
7
  6
CONTINUOUS
 10
6.9413482525
 20
13.1953188564
 11
6.9413482525
 21
12.9444060642
  0
LINE
  5
6C8
100
AcDbEntity
  8
0
100
AcDbLine
 62
7
  6
CONTINUOUS
 10
6.9908119589
 20
12.9601540957
 11
6.9908119589
 21
12.9444060642
  0
LINE
  5
6C9
100
AcDbEntity
  8
02___PRT_ALL_AXES
100
AcDbLine
 62
7
  6
CONTINUOUS
 10
6.9413482525
 20
13.8301580327
 11
6.7699367363
 21
13.8301580327
  0
LINE
  5
6CA
100
AcDbEntity
  8
02___PRT_ALL_AXES
100
AcDbLine
 62
7
  6
CONTINUOUS
 10
6.4568399026
 20
13.8301580327
 11
6.4095285675
 21
13.8301580327
  0
LINE
  5
6CB
100
AcDbEntity
  8
0
100
AcDbLine
 62
7
  6
CONTINUOUS
 10
7.2007432383
 20
14.1029287418
 11
7.2150132559
 21
14.1041772065
  0
LINE
  5
6CC
100
AcDbEntity
  8
02___PRT_ALL_AXES
100
AcDbLine
 62
7
  6
CONTINUOUS
 10
6.9413482525
 20
14.0271580327
 11
6.7630573448
 21
14.0271580327
  0
LINE
  5
6CD
100
AcDbEntity
  8
02___PRT_ALL_AXES
100
AcDbLine
 62
7
  6
CONTINUOUS
 10
6.4966655182
 20
14.0271580327
 11
6.4095285675
 21
14.0271580327
  0
LWPOLYLINE
  5
6CE
100
AcDbEntity
  8
0
100
AcDbPolyline
 62
7
  6
CONTINUOUS
 90
6
 70
0
 10
7.2097409082
 20
13.9286580327
 10
7.2104396571
 20
13.9633476134
 10
7.2098755429
 20
13.9990423101
 10
7.2080030105
 20
14.034798524
 10
7.2048943687
 20
14.0697336785
 10
7.2007432383
 20
14.1029287418
  0
LINE
  5
6CF
100
AcDbEntity
  8
02___PRT_ALL_AXES
100
AcDbLine
 62
7
  6
CONTINUOUS
 10
7.2761285675
 20
14.0956580327
 11
7.2016524597
 21
14.0956580327
  0
LINE
  5
6D0
100
AcDbEntity
  8
0
100
AcDbLine
 62
7
  6
CONTINUOUS
 10
6.4869797303
 20
14.0914693341
 11
6.5012846257
 21
14.0907196463
  0
LINE
  5
6D1
100
AcDbEntity
  8
0
100
AcDbLine
 62
7
  6
CONTINUOUS
 10
7.2484348667
 20
12.9601540957
 11
7.2484348667
 21
12.9444060642
  0
LINE
  5
6D2
100
AcDbEntity
  8
02___PRT_ALL_AXES
100
AcDbLine
 62
7
  6
CONTINUOUS
 10
7.2761285675
 20
14.0956580327
 11
7.2761285675
 21
13.7931645745
  0
LINE
  5
6D3
100
AcDbEntity
  8
02___PRT_ALL_AXES
100
AcDbLine
 62
7
  6
CONTINUOUS
 10
7.2958285675
 20
14.0759580327
 11
7.2958285675
 21
13.7813580327
  0
LINE
  5
6D4
100
AcDbEntity
  8
0
100
AcDbLine
 62
7
  6
CONTINUOUS
 10
6.7564839517
 20
14.2153953825
 11
6.5269859967
 21
14.2033679043
  0
LINE
  5
6D5
100
AcDbEntity
  8
0
100
AcDbLine
 62
7
  6
CONTINUOUS
 10
6.7567626157
 20
14.2074154287
 11
6.5162848386
 21
14.1949476497
  0
LINE
  5
6D6
100
AcDbEntity
  8
0
100
AcDbLine
 62
7
  6
CONTINUOUS
 10
7.1821146584
 20
14.2065697524
 11
6.9413482552
 21
14.2106373841
  0
LINE
  5
6D7
100
AcDbEntity
  8
0
100
AcDbLine
 62
7
  6
CONTINUOUS
 10
7.1711261565
 20
14.2146114126
 11
6.9413482525
 21
14.2186222008
  0
LWPOLYLINE
  5
6D8
100
AcDbEntity
  8
0
100
AcDbPolyline
 62
7
  6
CONTINUOUS
 90
7
 70
0
 10
7.3008094035
 20
13.6491304737
 10
7.3000773417
 20
13.6541382351
 10
7.2998185726
 20
13.658853257
 10
7.3000445172
 20
13.6629130158
 10
7.3007231295
 20
13.6660644159
 10
7.3018224705
 20
13.6681157138
 10
7.303231727
 20
13.668815513
  0
LWPOLYLINE
  5
6D9
100
AcDbEntity
  8
0
100
AcDbPolyline
 62
7
  6
CONTINUOUS
 90
4
 70
0
 10
7.3636932513
 20
13.0585792926
 10
7.3532137362
 20
13.256896308
 10
7.3321668087
 20
13.4545375713
 10
7.3008094035
 20
13.6491304737
  0
LINE
  5
6DA
100
AcDbEntity
  8
AXIS
100
AcDbLine
 62
7
  6
CONTINUOUS
 10
7.3854367402
 20
13.0388942532
 11
7.3862301423
 21
12.9601540957
  0
LINE
  5
6DB
100
AcDbEntity
  8
0
100
AcDbLine
 62
7
  6
CONTINUOUS
 10
7.3612695124
 20
12.7475556705
 11
7.3612695124
 21
12.9444060642
  0
LWPOLYLINE
  5
6DC
100
AcDbEntity
  8
0
100
AcDbPolyline
 62
7
  6
CONTINUOUS
 90
7
 70
0
 10
7.2936654563
 20
13.746257683
 10
7.2825439273
 20
13.7770315746
 10
7.2702848461
 20
13.8078600488
 10
7.2568749584
 20
13.8385937427
 10
7.2423119147
 20
13.8690736362
 10
7.2265949429
 20
13.8991514572
 10
7.2097409082
 20
13.9286580327
  0
LINE
  5
6DD
100
AcDbEntity
  8
AXIS
100
AcDbLine
 62
7
  6
CONTINUOUS
 10
7.1821146584
 20
14.2065697523
 11
7.2150132559
 21
14.1041772065
  0
LINE
  5
6DE
100
AcDbEntity
  8
AXIS
100
AcDbLine
 62
7
  6
CONTINUOUS
 10
7.3065744831
 20
13.7451282895
 11
7.3214338711
 21
13.668815513
  0
LINE
  5
6DF
100
AcDbEntity
  8
0
100
AcDbLine
 62
7
  6
CONTINUOUS
 10
7.5581199061
 20
12.7475556705
 11
7.5581199061
 21
12.9444060642
  0
LINE
  5
6E0
100
AcDbEntity
  8
02___PRT_ALL_AXES
100
AcDbLine
 62
7
  6
CONTINUOUS
 10
7.2761285675
 20
14.0956580327
 11
7.2958285675
 21
14.0759580327
  0
CIRCLE
  5
6E1
100
AcDbEntity
  8
0
100
AcDbCircle
 62
7
  6
CONTINUOUS
 10
15.2229827477
 20
1.1139932523
 40
0.252091
  0
CIRCLE
  5
6E2
100
AcDbEntity
  8
0
100
AcDbCircle
 62
7
  6
CONTINUOUS
 10
15.2229827477
 20
1.1139932523
 40
0.182698
  0
CIRCLE
  5
6E3
100
AcDbEntity
  8
0
100
AcDbCircle
 62
7
  6
CONTINUOUS
 10
14.8013422688
 20
1.8652439144
 40
0.0638444824
  0
CIRCLE
  5
6E4
100
AcDbEntity
  8
02___PRT_ALL_AXES
100
AcDbCircle
 62
7
  6
CONTINUOUS
 10
13.826850141
 20
7.4276452799
 40
0.167
  0
CIRCLE
  5
6E5
100
AcDbEntity
  8
02___PRT_ALL_AXES
100
AcDbCircle
 62
7
  6
CONTINUOUS
 10
13.826850141
 20
7.4276452799
 40
0.1473
  0
ARC
  5
6E6
100
AcDbEntity
  8
0
100
AcDbCircle
 62
7
  6
CONTINUOUS
 10
13.5055871489
 20
3.6603216579
 40
0.0437
100
AcDbArc
 50
270.0
 51
360.0
  0
ARC
  5
6E7
100
AcDbEntity
  8
0
100
AcDbCircle
 62
7
  6
CONTINUOUS
 10
13.1559871489
 20
3.6603216579
 40
0.0437
100
AcDbArc
 50
180.0
 51
270.0
  0
ARC
  5
6E8
100
AcDbEntity
  8
0
100
AcDbCircle
 62
7
  6
CONTINUOUS
 10
12.9567714009
 20
7.5555980358
 40
0.0196850394
100
AcDbArc
 50
90.0
 51
180.0
  0
ARC
  5
6E9
100
AcDbEntity
  8
0
100
AcDbCircle
 62
7
  6
CONTINUOUS
 10
12.9567714009
 20
7.299692524
 40
0.0196850394
100
AcDbArc
 50
180.0
 51
270.0
  0
ARC
  5
6EA
100
AcDbEntity
  8
0
100
AcDbCircle
 62
7
  6
CONTINUOUS
 10
13.547322582
 20
7.299692524
 40
0.0196850394
100
AcDbArc
 50
270.0
 51
360.0
  0
ARC
  5
6EB
100
AcDbEntity
  8
0
100
AcDbCircle
 62
7
  6
CONTINUOUS
 10
13.547322582
 20
7.5555980358
 40
0.0196850394
100
AcDbArc
 50
0.0
 51
90.0
  0
ARC
  5
6EC
100
AcDbEntity
  8
0
100
AcDbCircle
 62
7
  6
CONTINUOUS
 10
6.2259404056
 20
6.4433933114
 40
0.1181102362
100
AcDbArc
 50
225.0
 51
270.0
  0
ARC
  5
6ED
100
AcDbEntity
  8
0
100
AcDbCircle
 62
7
  6
CONTINUOUS
 10
5.7208758116
 20
6.9484579054
 40
0.1181102362
100
AcDbArc
 50
180.0
 51
225.0
  0
CIRCLE
  5
6EE
100
AcDbEntity
  8
DEFAULT_2
100
AcDbCircle
 62
7
  6
HIDDEN
 10
5.7628443155
 20
7.2431570909
 40
0.0787401575
  0
CIRCLE
  5
6EF
100
AcDbEntity
  8
DEFAULT_2
100
AcDbCircle
 62
7
  6
HIDDEN
 10
5.7628443155
 20
8.2274090594
 40
0.0787401575
  0
CIRCLE
  5
6F0
100
AcDbEntity
  8
0
100
AcDbCircle
 62
7
  6
CONTINUOUS
 10
5.7628443155
 20
8.2274090594
 40
0.0688976378
  0
CIRCLE
  5
6F1
100
AcDbEntity
  8
0
100
AcDbCircle
 62
7
  6
CONTINUOUS
 10
5.7628443155
 20
7.2431570909
 40
0.0688976378
  0
CIRCLE
  5
6F2
100
AcDbEntity
  8
DEFAULT_2
100
AcDbCircle
 62
7
  6
HIDDEN
 10
5.9177262053
 20
8.0662279571
 40
0.0590551181
  0
ARC
  5
6F3
100
AcDbEntity
  8
0
100
AcDbCircle
 62
7
  6
CONTINUOUS
 10
5.6618206935
 20
8.3827114081
 40
0.0590551181
100
AcDbArc
 50
135.0
 51
180.0
  0
ARC
  5
6F4
100
AcDbEntity
  8
0
100
AcDbCircle
 62
7
  6
CONTINUOUS
 10
5.7433687385
 20
8.4642594531
 40
0.0590551181
100
AcDbArc
 50
90.0
 51
135.0
  0
CIRCLE
  5
6F5
100
AcDbEntity
  8
0
100
AcDbCircle
 62
7
  6
CONTINUOUS
 10
5.9177262053
 20
8.0662279571
 40
0.0492125984
  0
CIRCLE
  5
6F6
100
AcDbEntity
  8
0
100
AcDbCircle
 62
7
  6
CONTINUOUS
 10
5.9177262053
 20
7.0819759886
 40
0.0492125984
  0
ARC
  5
6F7
100
AcDbEntity
  8
0
100
AcDbCircle
 62
7
  6
CONTINUOUS
 10
7.037408095
 20
3.6603216579
 40
0.0437
100
AcDbArc
 50
270.0
 51
360.0
  0
ARC
  5
6F8
100
AcDbEntity
  8
0
100
AcDbCircle
 62
7
  6
CONTINUOUS
 10
6.687808095
 20
3.6603216579
 40
0.0437
100
AcDbArc
 50
180.0
 51
270.0
  0
CIRCLE
  5
6F9
100
AcDbEntity
  8
AXIS
100
AcDbCircle
 62
7
  6
CONTINUOUS
 10
6.862608095
 20
7.4276452799
 40
0.4724409449
  0
ARC
  5
6FA
100
AcDbEntity
  8
AXIS
100
AcDbCircle
 62
7
  6
CONTINUOUS
 10
6.862608095
 20
7.4276452799
 40
0.3937007874
100
AcDbArc
 50
237.3681087349
 51
302.5343168351
  0
ARC
  5
6FB
100
AcDbEntity
  8
AXIS
100
AcDbCircle
 62
7
  6
CONTINUOUS
 10
6.862608095
 20
7.4276452799
 40
0.3937007874
100
AcDbArc
 50
57.4656831649
 51
122.6318912651
  0
ARC
  5
6FC
100
AcDbEntity
  8
0
100
AcDbCircle
 62
7
  6
CONTINUOUS
 10
6.8980411659
 20
7.4276452799
 40
0.3917322835
100
AcDbArc
 50
302.5085003572
 51
57.4914996428
  0
ARC
  5
6FD
100
AcDbEntity
  8
0
100
AcDbCircle
 62
7
  6
CONTINUOUS
 10
6.862608095
 20
7.4276452799
 40
0.3858267717
100
AcDbArc
 50
59.13658117
 51
70.5925675879
  0
ARC
  5
6FE
100
AcDbEntity
  8
0
100
AcDbCircle
 62
7
  6
CONTINUOUS
 10
6.862608095
 20
7.4276452799
 40
0.3858267717
100
AcDbArc
 50
289.4074324121
 51
300.86341883
  0
ARC
  5
6FF
100
AcDbEntity
  8
0
100
AcDbCircle
 62
7
  6
CONTINUOUS
 10
7.3612695124
 20
8.3264641775
 40
0.1968503937
100
AcDbArc
 50
0.0
 51
90.0
  0
ARC
  5
700
100
AcDbEntity
  8
0
100
AcDbCircle
 62
7
  6
CONTINUOUS
 10
7.4400096698
 20
6.4433933114
 40
0.1181102362
100
AcDbArc
 50
270.0
 51
360.0
  0
CIRCLE
  5
701
100
AcDbEntity
  8
DEFAULT_2
100
AcDbCircle
 62
7
  6
HIDDEN
 10
7.3770175439
 20
6.5896137838
 40
0.0787401575
  0
CIRCLE
  5
702
100
AcDbEntity
  8
0
100
AcDbCircle
 62
7
  6
CONTINUOUS
 10
7.3770175439
 20
6.5896137838
 40
0.0688976378
  0
CIRCLE
  5
703
100
AcDbEntity
  8
DEFAULT_2
100
AcDbCircle
 62
7
  6
HIDDEN
 10
7.3748128195
 20
6.8063854374
 40
0.0590551181
  0
CIRCLE
  5
704
100
AcDbEntity
  8
0
100
AcDbCircle
 62
7
  6
CONTINUOUS
 10
7.3748128195
 20
6.8063854374
 40
0.0492125984
  0
ARC
  5
705
100
AcDbEntity
  8
AXIS
100
AcDbCircle
 62
7
  6
CONTINUOUS
 10
10.2610414348
 20
13.0785420293
 40
3.9076288813
100
AcDbArc
 50
180.8453908497
 51
181.9671699156
  0
ARC
  5
706
100
AcDbEntity
  8
0
100
AcDbCircle
 62
7
  6
CONTINUOUS
 10
3.478601261
 20
12.9601540957
 40
3.8977863616
100
AcDbArc
 50
1.1575251151
 51
10.4752779006
  0
ARC
  5
707
100
AcDbEntity
  8
0
100
AcDbCircle
 62
7
  6
CONTINUOUS
 10
10.2610414348
 20
13.0785420293
 40
3.8977863616
100
AcDbArc
 50
171.5247220994
 51
180.8424748849
  0
ARC
  5
708
100
AcDbEntity
  8
0
100
AcDbCircle
 62
7
  6
CONTINUOUS
 10
6.862608095
 20
13.4325950406
 40
0.25
100
AcDbArc
 50
288.3584370753
 51
71.6415629247
  0
ARC
  5
709
100
AcDbEntity
  8
0
100
AcDbCircle
 62
7
  6
CONTINUOUS
 10
6.862608095
 20
13.4325950406
 40
0.25
100
AcDbArc
 50
110.3584370753
 51
253.6415629247
  0
CIRCLE
  5
70A
100
AcDbEntity
  8
0
100
AcDbCircle
 62
7
  6
CONTINUOUS
 10
6.862608095
 20
13.4325950406
 40
0.2184958298
  0
CIRCLE
  5
70B
100
AcDbEntity
  8
0
100
AcDbCircle
 62
7
  6
CONTINUOUS
 10
6.862608095
 20
13.4325950406
 40
0.197686156
  0
ARC
  5
70C
100
AcDbEntity
  8
0
100
AcDbCircle
 62
7
  6
CONTINUOUS
 10
7.170920026
 20
14.2028021878
 40
0.0118110236
100
AcDbArc
 50
18.6007098905
 51
89.0000000007
  0
ARC
  5
70D
100
AcDbEntity
  8
0
100
AcDbCircle
 62
7
  6
CONTINUOUS
 10
6.5276041376
 20
14.1915730672
 40
0.0118110236
100
AcDbArc
 50
93.0
 51
163.3992901102
  0
ELLIPSE
  5
70E
100
AcDbEntity
  8
0
100
AcDbEllipse
 62
7
  6
CONTINUOUS
 10
18.097534239
 20
12.3417527727
 30
0.0
 11
0.0098453511
 21
0.0170530339
 31
0.0
 40
0.5771761654
 41
-3.9268510187
 42
-3.1241444596
  0
ELLIPSE
  5
70F
100
AcDbEntity
  8
0
100
AcDbEllipse
 62
7
  6
CONTINUOUS
 10
18.097534239
 20
12.8538356816
 30
0.0
 11
0.0098423526
 21
0.0170478407
 31
0.0
 40
0.5775278727
 41
0.7855376452
 42
2.3560290847
  0
ELLIPSE
  5
710
100
AcDbEntity
  8
0
100
AcDbEllipse
 62
7
  6
CONTINUOUS
 10
18.0000509857
 20
12.9081853305
 30
0.0
 11
0.0093313765
 21
0.0173328086
 31
0.0
 40
0.5570203618
 41
0.768673478
 42
2.3391649174
  0
ELLIPSE
  5
711
100
AcDbEntity
  8
0
100
AcDbEllipse
 62
7
  6
CONTINUOUS
 10
18.0000509857
 20
12.3961024216
 30
0.0
 11
0.0093345051
 21
0.0173379309
 31
0.0
 40
0.5566813363
 41
-3.943695694
 42
-2.3732042545
  0
ELLIPSE
  5
712
100
AcDbEntity
  8
0
100
AcDbEllipse
 62
7
  6
CONTINUOUS
 10
6.8058517678
 20
7.1140620631
 30
0.0
 11
-0.0000002095
 21
0.019688038
 31
0.0
 40
0.0348994951
 41
-3.141593025
 42
-1.5711015856
  0
ELLIPSE
  5
713
100
AcDbEntity
  8
0
100
AcDbEllipse
 62
7
  6
CONTINUOUS
 10
6.8058517678
 20
7.7412284967
 30
0.0
 11
0.0000002095
 21
0.019688038
 31
0.0
 40
0.0348994951
 41
-1.570491068
 42
0.0000003714
  0
ENDSEC
  0
SECTION
  2
OBJECTS
  0
DICTIONARY
  5
C
100
AcDbDictionary
280
0
281
1
  3
ACAD_GROUP
350
D
  3
ACAD_MLINESTYLE
350
17
  3
ACAD_LAYOUT
350
1A
  3
ACAD_PLOTSETTINGS
350
19
  3
ACAD_PLOTSTYLENAME
350
E
  3
ACAD_TABLESTYLE
350
       714
  0
DICTIONARY
  5
D
102
{ACAD_REACTORS
330
C
102
}
100
AcDbDictionary
280
0
281
1
  0
ACDBDICTIONARYWDFLT
  5
E
102
{ACAD_REACTORS
330
C
102
}
100
AcDbDictionary
281
1
  3
Normal
350
F
100
AcDbDictionaryWithDefault
340
F
  0
DICTIONARY
  5
17
102
{ACAD_REACTORS
330
C
102
}
100
AcDbDictionary
280
0
281
1
  3
Standard
350
18
  0
DICTIONARY
  5
714
330
C
100
AcDbDictionary
281
1
  3
Standard
350
       717
  3
Standard1
350
       718
  0
DICTIONARY
  5
19
102
{ACAD_REACTORS
330
C
102
}
100
AcDbDictionary
281
1
  0
DICTIONARY
  5
1A
102
{ACAD_REACTORS
330
C
102
}
100
AcDbDictionary
281
1
  3
Model
350
715
  3
Layout1
350
716
  0
ACDBPLACEHOLDER
  5
F
102
{ACAD_REACTORS
330
E
102
}
  0
MLINESTYLE
  5
18
102
{ACAD_REACTORS
330
17
102
}
100
AcDbMlineStyle
  2
STANDARD
 70
0
  3

 62
256
 51
90.0
 52
90.0
 71
2
 49
0.5
 62
256
  6
BYLAYER
 49
-0.5
 62
256
  6
BYLAYER
  0
LAYOUT
  5
715
102
{ACAD_REACTORS
330
1A
102
}
100
AcDbPlotSettings
  1

  2
none_device
  4
ANSI_C_(22.00_x_17.00_Inches)
  6

 40
0.0
 41
0.0
 42
0.0
 43
0.0
 44
558.8
 45
431.8
 46
0.0
 47
0.0
 48
0.0
 49
0.0
140
0.0
141
0.0
142
1.0
143
1.0
 70
1024
 72
0
 73
0
 74
0
  7

 75
0
147
1.0
148
0.0
149
0.0
100
AcDbLayout
  1
Model
 70
0
 71
0
 10
0.0
 20
0.0
 11
22.0
 21
17.0
 12
0.0
 22
0.0
 32
0.0
 14
0.0
 24
0.0
 34
0.0
 15
0.0
 25
0.0
 35
0.0
146
0.0
 13
0.0
 23
0.0
 33
0.0
 16
1.0
 26
0.0
 36
0.0
 17
0.0
 27
1.0
 37
0.0
 76
0
330
22A
345
0
346
0
  0
LAYOUT
  5
716
102
{ACAD_REACTORS
330
1A
102
}
100
AcDbPlotSettings
  1

  2
none_device
  4
ANSI_C_(22.00_x_17.00_Inches)
  6

 40
0.0
 41
0.0
 42
0.0
 43
0.0
 44
558.8
 45
431.8
 46
0.0
 47
0.0
 48
0.0
 49
0.0
140
0.0
141
0.0
142
1.0
143
1.0
 70
0
 72
0
 73
0
 74
0
  7

 75
0
147
1.0
148
0.0
149
0.0
100
AcDbLayout
  1
Layout1
 70
0
 71
1
 10
0.0
 20
0.0
 11
22.0
 21
17.0
 12
0.0
 22
0.0
 32
0.0
 14
0.0
 24
0.0
 34
0.0
 15
0.0
 25
0.0
 35
0.0
146
0.0
 13
0.0
 23
0.0
 33
0.0
 16
1.0
 26
0.0
 36
0.0
 17
0.0
 27
1.0
 37
0.0
 76
0
330
22B
345
0
346
0
  0
TABLESTYLE
  5
717
102
{ACAD_REACTORS
330
714
102
}
330
714
100
AcDbTableStyle
  3
Standard
 70
0
 71
0
 40
0.06
 41
0.06
280
1
281
1
  7
Standard
140
0.18
170
1
 62
0
 63
7
283
0
  7
Standard
140
0.18
170
1
 62
0
 63
7
283
0
  7
Standard
140
0.18
170
1
 62
0
 63
7
283
0
  0
TABLESTYLE
  5
718
102
{ACAD_REACTORS
330
714
330
33D
102
}
330
714
100
AcDbTableStyle
  3
Standard1
 70
1
 71
0
 40
0.06
 41
0.06
280
1
281
1
  7
Standard
140
0.18
170
1
 62
0
 63
7
283
0
  7
Standard
140
0.18
170
1
 62
0
 63
7
283
0
  7
Standard
140
0.18
170
1
 62
0
 63
7
283
0
  0
ENDSEC
  0
EOF
