999
DXF file: 202257_1.dxf
999
Pro/ENGINEER 2016260 by Parametric Technology Corporation
  0
SECTION
  2
HEADER
  9
$ACADVER
  1
AC1027
  9
$DWGCODEPAGE
  3
ANSI_1252
  9
$EXTMAX
 10
17.0
 20
11.0
 30
0.0
  9
$EXTMIN
 10
0.0
 20
0.0
 30
0.0
  9
$LIMMIN
 10
0.0
 20
0.0
  9
$LIMMAX
 10
17.0
 20
11.0
  9
$VIEWCTR
 10
8.5
 20
5.5
  9
$VIEWSIZE
 40
11.0
  9
$CLAYER
  8
0
  9
$LTSCALE
 40
0.935
  9
$CELTYPE
  6
BYLAYER
  9
$DIMSCALE
 40
1.0
  9
$DIMASZ
 40
0.1875
  9
$DIMEXO
 40
0.0625
  9
$DIMDLI
 40
0.646
  9
$DIMEXE
 40
0.125
  9
$DIMCEN
 40
0.153
  9
$DIMLFAC
 40
1.0
  9
$DIMBLK
  1
_FILLED
  9
$DIMALT
 70
1
  9
$DIMALTD
 70
2
  9
$DIMALTTD
 70
2
  9
$DIMALTF
 40
1.0
  9
$DIMTXT
 40
0.1
  9
$DIMTOL
 70
1
  9
$DIMLIM
 70
0
  9
$DIMTFAC
 40
1.0
  9
$DIMTP
 40
0.005
  9
$DIMTM
 40
0.005
  9
$DIMGAP
 40
0.09
  9
$DIMDSEP
 70
46
  9
$AUNITS
 70
0
  9
$PDMODE
 70
3
  9
$PDSIZE
 40
0.3125
  9
$HANDSEED
  5
734
  9
$TILEMODE
 70
1
  9
$MEASUREMENT
 70
0
  9
$INSUNITS
 70
1
  0
ENDSEC
  0
SECTION
  2
CLASSES
  0
CLASS
  1
ACDBDICTIONARYWDFLT
  2
AcDbDictionaryWithDefault
  3
AutoCAD 2000
 90
0
 91
1
280
0
281
0
  0
CLASS
  1
ACDBPLACEHOLDER
  2
AcDbPlaceHolder
  3
AutoCAD 2000
 90
0
 91
1
280
0
281
0
  0
CLASS
  1
LAYOUT
  2
AcDbLayout
  3
AutoCAD 2000
 90
0
 91
0
280
0
281
0
  0
CLASS
  1
TABLESTYLE
  2
AcDbTableStyle
  3
ObjectDBX Classes
 90
2047
 91
1
280
0
281
0
  0
CLASS
  1
ACAD_TABLE
  2
AcDbTable
  3
ObjectDBX Classes
 90
1025
 91
1
280
0
281
1
  0
ENDSEC
  0
SECTION
  2
TABLES
  0
TABLE
  2
VPORT
  5
8
100
AcDbSymbolTable
 70
2
  0
VPORT
  5
1F4
100
AcDbSymbolTableRecord
100
AcDbViewportTableRecord
  2
*ACTIVE
 70
0
 10
0.0
 20
0.0
 11
1.0
 21
1.0
 12
8.5
 22
5.5
 13
0.0
 23
0.0
 14
1.0
 24
1.0
 15
0.0
 25
0.0
 16
0.0
 26
0.0
 36
1.0
 17
0.0
 27
0.0
 37
0.0
 40
11.0
 41
1.5454545455
 42
50.0
 43
0.0
 44
0.0
 50
0.0
 51
0.0
 71
0
 72
100
 73
1
 74
1
 75
0
 76
0
 77
0
 78
0
  0
ENDTAB
  0
TABLE
  2
LTYPE
  5
5
100
AcDbSymbolTable
 70
6
  0
LTYPE
  5
14
100
AcDbSymbolTableRecord
100
AcDbLinetypeTableRecord
  2
BYBLOCK
 70
0
  3

 72
65
 73
0
 40
0.0
  0
LTYPE
  5
15
100
AcDbSymbolTableRecord
100
AcDbLinetypeTableRecord
  2
BYLAYER
 70
0
  3

 72
65
 73
0
 40
0.0
  0
LTYPE
  5
16
100
AcDbSymbolTableRecord
100
AcDbLinetypeTableRecord
  2
CONTINUOUS
 70
64
  3
Solid line
 72
65
 73
0
 40
0.0
  0
LTYPE
  5
1F5
100
AcDbSymbolTableRecord
100
AcDbLinetypeTableRecord
  2
CENTER
 70
64
  3
____ _ ____ _ ____ _ ____ _ ____ _ ____ _ ____
 72
65
 73
4
 40
0.6
 49
0.375
 74
0
 49
-0.075
 74
0
 49
0.075
 74
0
 49
-0.075
 74
0
  0
LTYPE
  5
1F6
100
AcDbSymbolTableRecord
100
AcDbLinetypeTableRecord
  2
HIDDEN
 70
64
  3
- - - - - - - - - - - - - - - - - - - -
 72
65
 73
2
 40
0.2
 49
0.1
 74
0
 49
-0.1
 74
0
  0
LTYPE
  5
1F7
100
AcDbSymbolTableRecord
100
AcDbLinetypeTableRecord
  2
PHANTOM
 70
64
  3
_____ _ _ _____ _ _ _____ _ _ _____
 72
65
 73
6
 40
0.8
 49
0.45
 74
0
 49
-0.05
 74
0
 49
0.1
 74
0
 49
-0.05
 74
0
 49
0.1
 74
0
 49
-0.05
 74
0
  0
LTYPE
  5
1F8
100
AcDbSymbolTableRecord
100
AcDbLinetypeTableRecord
  2
DOT
 70
64
  3
. . . . . . . . . . . . . . . . . . . .
 72
65
 73
2
 40
0.2
 49
0.1
 74
0
 49
-0.1
 74
0
  0
LTYPE
  5
1F9
100
AcDbSymbolTableRecord
100
AcDbLinetypeTableRecord
  2
DASHED
 70
64
  3
- - - - - - - - - - - - - - - - - - - -
 72
65
 73
2
 40
0.2
 49
0.1
 74
0
 49
-0.1
 74
0
  0
ENDTAB
  0
TABLE
  2
LAYER
  5
2
100
AcDbSymbolTable
 70
36
  0
LAYER
  5
10
100
AcDbSymbolTableRecord
100
AcDbLayerTableRecord
  2
0
 70
0
 62
7
  6
CONTINUOUS
370
-3
390
F
  0
LAYER
  5
1FA
100
AcDbSymbolTableRecord
100
AcDbLayerTableRecord
  2
DEFAULT_1
 70
0
 62
7
  6
CENTER
370
-3
390
F
  0
LAYER
  5
1FB
100
AcDbSymbolTableRecord
100
AcDbLayerTableRecord
  2
DEFAULT_2
 70
0
 62
7
  6
HIDDEN
370
-3
390
F
  0
LAYER
  5
1FC
100
AcDbSymbolTableRecord
100
AcDbLayerTableRecord
  2
DEFAULT_3
 70
0
 62
7
  6
PHANTOM
370
-3
390
F
  0
LAYER
  5
1FD
100
AcDbSymbolTableRecord
100
AcDbLayerTableRecord
  2
01___PRT_ALL_DTM_PLN
 70
0
 62
7
  6
CONTINUOUS
370
-3
390
F
  0
LAYER
  5
1FE
100
AcDbSymbolTableRecord
100
AcDbLayerTableRecord
  2
01___PRT_DEF_DTM_PLN
 70
0
 62
7
  6
CONTINUOUS
370
-3
390
F
  0
LAYER
  5
1FF
100
AcDbSymbolTableRecord
100
AcDbLayerTableRecord
  2
02___PRT_ALL_AXES
 70
0
 62
7
  6
CONTINUOUS
370
-3
390
F
  0
LAYER
  5
200
100
AcDbSymbolTableRecord
100
AcDbLayerTableRecord
  2
03___PRT_ALL_CURVES
 70
0
 62
7
  6
CONTINUOUS
370
-3
390
F
  0
LAYER
  5
201
100
AcDbSymbolTableRecord
100
AcDbLayerTableRecord
  2
04___PRT_ALL_DTM_PNT
 70
0
 62
7
  6
CONTINUOUS
370
-3
390
F
  0
LAYER
  5
202
100
AcDbSymbolTableRecord
100
AcDbLayerTableRecord
  2
05___PRT_ALL_DTM_CSYS
 70
0
 62
7
  6
CONTINUOUS
370
-3
390
F
  0
LAYER
  5
203
100
AcDbSymbolTableRecord
100
AcDbLayerTableRecord
  2
05___PRT_DEF_DTM_CSYS
 70
0
 62
7
  6
CONTINUOUS
370
-3
390
F
  0
LAYER
  5
204
100
AcDbSymbolTableRecord
100
AcDbLayerTableRecord
  2
06___PRT_ALL_SURFS
 70
0
 62
7
  6
CONTINUOUS
370
-3
390
F
  0
LAYER
  5
205
100
AcDbSymbolTableRecord
100
AcDbLayerTableRecord
  2
1
 70
0
 62
7
  6
CONTINUOUS
370
-3
390
F
  0
LAYER
  5
206
100
AcDbSymbolTableRecord
100
AcDbLayerTableRecord
  2
10
 70
0
 62
7
  6
CONTINUOUS
370
-3
390
F
  0
LAYER
  5
207
100
AcDbSymbolTableRecord
100
AcDbLayerTableRecord
  2
11
 70
0
 62
7
  6
CONTINUOUS
370
-3
390
F
  0
LAYER
  5
208
100
AcDbSymbolTableRecord
100
AcDbLayerTableRecord
  2
12
 70
0
 62
7
  6
CONTINUOUS
370
-3
390
F
  0
LAYER
  5
209
100
AcDbSymbolTableRecord
100
AcDbLayerTableRecord
  2
13
 70
0
 62
7
  6
CONTINUOUS
370
-3
390
F
  0
LAYER
  5
20A
100
AcDbSymbolTableRecord
100
AcDbLayerTableRecord
  2
14
 70
0
 62
7
  6
CONTINUOUS
370
-3
390
F
  0
LAYER
  5
20B
100
AcDbSymbolTableRecord
100
AcDbLayerTableRecord
  2
15
 70
0
 62
7
  6
CONTINUOUS
370
-3
390
F
  0
LAYER
  5
20C
100
AcDbSymbolTableRecord
100
AcDbLayerTableRecord
  2
16
 70
0
 62
7
  6
CONTINUOUS
370
-3
390
F
  0
LAYER
  5
20D
100
AcDbSymbolTableRecord
100
AcDbLayerTableRecord
  2
17
 70
0
 62
7
  6
CONTINUOUS
370
-3
390
F
  0
LAYER
  5
20E
100
AcDbSymbolTableRecord
100
AcDbLayerTableRecord
  2
18
 70
0
 62
7
  6
CONTINUOUS
370
-3
390
F
  0
LAYER
  5
20F
100
AcDbSymbolTableRecord
100
AcDbLayerTableRecord
  2
19
 70
0
 62
7
  6
CONTINUOUS
370
-3
390
F
  0
LAYER
  5
210
100
AcDbSymbolTableRecord
100
AcDbLayerTableRecord
  2
2
 70
0
 62
7
  6
CONTINUOUS
370
-3
390
F
  0
LAYER
  5
211
100
AcDbSymbolTableRecord
100
AcDbLayerTableRecord
  2
20
 70
0
 62
7
  6
CONTINUOUS
370
-3
390
F
  0
LAYER
  5
212
100
AcDbSymbolTableRecord
100
AcDbLayerTableRecord
  2
21
 70
0
 62
7
  6
CONTINUOUS
370
-3
390
F
  0
LAYER
  5
213
100
AcDbSymbolTableRecord
100
AcDbLayerTableRecord
  2
22
 70
0
 62
7
  6
CONTINUOUS
370
-3
390
F
  0
LAYER
  5
214
100
AcDbSymbolTableRecord
100
AcDbLayerTableRecord
  2
23
 70
0
 62
7
  6
CONTINUOUS
370
-3
390
F
  0
LAYER
  5
215
100
AcDbSymbolTableRecord
100
AcDbLayerTableRecord
  2
24
 70
0
 62
7
  6
CONTINUOUS
370
-3
390
F
  0
LAYER
  5
216
100
AcDbSymbolTableRecord
100
AcDbLayerTableRecord
  2
25
 70
0
 62
7
  6
CONTINUOUS
370
-3
390
F
  0
LAYER
  5
217
100
AcDbSymbolTableRecord
100
AcDbLayerTableRecord
  2
26
 70
0
 62
7
  6
CONTINUOUS
370
-3
390
F
  0
LAYER
  5
218
100
AcDbSymbolTableRecord
100
AcDbLayerTableRecord
  2
27
 70
0
 62
7
  6
CONTINUOUS
370
-3
390
F
  0
LAYER
  5
219
100
AcDbSymbolTableRecord
100
AcDbLayerTableRecord
  2
28
 70
0
 62
7
  6
CONTINUOUS
370
-3
390
F
  0
LAYER
  5
21A
100
AcDbSymbolTableRecord
100
AcDbLayerTableRecord
  2
29
 70
0
 62
7
  6
CONTINUOUS
370
-3
390
F
  0
LAYER
  5
21B
100
AcDbSymbolTableRecord
100
AcDbLayerTableRecord
  2
3
 70
0
 62
7
  6
CONTINUOUS
370
-3
390
F
  0
LAYER
  5
21C
100
AcDbSymbolTableRecord
100
AcDbLayerTableRecord
  2
30
 70
0
 62
7
  6
CONTINUOUS
370
-3
390
F
  0
LAYER
  5
21D
100
AcDbSymbolTableRecord
100
AcDbLayerTableRecord
  2
31
 70
0
 62
7
  6
CONTINUOUS
370
-3
390
F
  0
LAYER
  5
21E
100
AcDbSymbolTableRecord
100
AcDbLayerTableRecord
  2
32
 70
0
 62
7
  6
CONTINUOUS
370
-3
390
F
  0
LAYER
  5
21F
100
AcDbSymbolTableRecord
100
AcDbLayerTableRecord
  2
4
 70
0
 62
7
  6
CONTINUOUS
370
-3
390
F
  0
LAYER
  5
220
100
AcDbSymbolTableRecord
100
AcDbLayerTableRecord
  2
5
 70
0
 62
7
  6
CONTINUOUS
370
-3
390
F
  0
LAYER
  5
221
100
AcDbSymbolTableRecord
100
AcDbLayerTableRecord
  2
6
 70
0
 62
7
  6
CONTINUOUS
370
-3
390
F
  0
LAYER
  5
222
100
AcDbSymbolTableRecord
100
AcDbLayerTableRecord
  2
7
 70
0
 62
7
  6
CONTINUOUS
370
-3
390
F
  0
LAYER
  5
223
100
AcDbSymbolTableRecord
100
AcDbLayerTableRecord
  2
8
 70
0
 62
7
  6
CONTINUOUS
370
-3
390
F
  0
LAYER
  5
224
100
AcDbSymbolTableRecord
100
AcDbLayerTableRecord
  2
9
 70
0
 62
7
  6
CONTINUOUS
370
-3
390
F
  0
LAYER
  5
225
100
AcDbSymbolTableRecord
100
AcDbLayerTableRecord
  2
AXIS
 70
0
 62
7
  6
CONTINUOUS
370
-3
390
F
  0
LAYER
  5
226
100
AcDbSymbolTableRecord
100
AcDbLayerTableRecord
  2
AXIS_COSMETIC_THREADS
 70
0
 62
7
  6
CONTINUOUS
370
-3
390
F
  0
LAYER
  5
227
100
AcDbSymbolTableRecord
100
AcDbLayerTableRecord
  2
COSMETIC_THREADS
 70
0
 62
7
  6
CONTINUOUS
370
-3
390
F
  0
LAYER
  5
228
100
AcDbSymbolTableRecord
100
AcDbLayerTableRecord
  2
DATUM_CURVES
 70
0
 62
7
  6
CONTINUOUS
370
-3
390
F
  0
LAYER
  5
229
100
AcDbSymbolTableRecord
100
AcDbLayerTableRecord
  2
DATUM_PLANES
 70
0
 62
7
  6
CONTINUOUS
370
-3
390
F
  0
LAYER
  5
22A
100
AcDbSymbolTableRecord
100
AcDbLayerTableRecord
  2
NOTES
 70
0
 62
7
  6
CONTINUOUS
370
-3
390
F
  0
LAYER
  5
22B
100
AcDbSymbolTableRecord
100
AcDbLayerTableRecord
  2
QUILTS
 70
0
 62
7
  6
CONTINUOUS
370
-3
390
F
  0
LAYER
  5
22C
100
AcDbSymbolTableRecord
100
AcDbLayerTableRecord
  2
SCHEME_DIMS
 70
0
 62
7
  6
CONTINUOUS
370
-3
390
F
  0
LAYER
  5
22D
100
AcDbSymbolTableRecord
100
AcDbLayerTableRecord
  2
SYMBOLS
 70
0
 62
7
  6
CONTINUOUS
370
-3
390
F
  0
ENDTAB
  0
TABLE
  2
STYLE
  5
3
100
AcDbSymbolTable
 70
1
  0
STYLE
  5
11
100
AcDbSymbolTableRecord
100
AcDbTextStyleTableRecord
  2
STANDARD
 70
0
 40
0.0
 41
1.0
 50
0.0
 71
0
 42
0.2
  3
txt
  4

  0
STYLE
  5
22E
100
AcDbSymbolTableRecord
100
AcDbTextStyleTableRecord
  2
TEXTSTYLE_1
 70
0
 40
0.0
 41
0.8
 50
0.0
 71
0
 42
0.2
  3
gdt
  4

  0
STYLE
  5
22F
100
AcDbSymbolTableRecord
100
AcDbTextStyleTableRecord
  2
TEXTSTYLE_2
 70
0
 40
0.0
 41
0.8
 50
0.0
 71
0
 42
0.2
  3
txt
  4

  0
STYLE
  5
230
100
AcDbSymbolTableRecord
100
AcDbTextStyleTableRecord
  2
TEXTSTYLE_3
 70
0
 40
0.0
 41
0.85
 50
0.0
 71
0
 42
0.2
  3
txt
  4

  0
STYLE
  5
231
100
AcDbSymbolTableRecord
100
AcDbTextStyleTableRecord
  2
TEXTSTYLE_4
 70
0
 40
0.0
 41
0.9
 50
0.0
 71
0
 42
0.2
  3
txt
  4

  0
STYLE
  5
232
100
AcDbSymbolTableRecord
100
AcDbTextStyleTableRecord
  2
TEXTSTYLE_5
 70
0
 40
0.0
 41
0.75
 50
0.0
 71
0
 42
0.2
  3
txt
  4

  0
STYLE
  5
233
100
AcDbSymbolTableRecord
100
AcDbTextStyleTableRecord
  2
TEXTSTYLE_6
 70
0
 40
0.0
 41
1.0
 50
0.0
 71
0
 42
0.2
  3
gdt
  4

  0
ENDTAB
  0
TABLE
  2
VIEW
  5
6
100
AcDbSymbolTable
 70
0
  0
ENDTAB
  0
TABLE
  2
UCS
  5
7
100
AcDbSymbolTable
 70
0
  0
ENDTAB
  0
TABLE
  2
APPID
  5
9
100
AcDbSymbolTable
 70
1
  0
APPID
  5
234
100
AcDbSymbolTableRecord
100
AcDbRegAppTableRecord
  2
ACAD
 70
0
  0
ENDTAB
  0
TABLE
  2
BLOCK_RECORD
  5
1
100
AcDbSymbolTable
 70
0
  0
BLOCK_RECORD
  5
235
100
AcDbSymbolTableRecord
100
AcDbBlockTableRecord
  2
*Model_Space
  0
BLOCK_RECORD
  5
236
100
AcDbSymbolTableRecord
100
AcDbBlockTableRecord
  2
*Paper_Space
  0
BLOCK_RECORD
  5
237
100
AcDbSymbolTableRecord
100
AcDbBlockTableRecord
  2
_FILLED
  0
BLOCK_RECORD
  5
238
100
AcDbSymbolTableRecord
100
AcDbBlockTableRecord
  2
*D0
  0
BLOCK_RECORD
  5
239
100
AcDbSymbolTableRecord
100
AcDbBlockTableRecord
  2
*D1
  0
BLOCK_RECORD
  5
23A
100
AcDbSymbolTableRecord
100
AcDbBlockTableRecord
  2
*D2
  0
BLOCK_RECORD
  5
23B
100
AcDbSymbolTableRecord
100
AcDbBlockTableRecord
  2
*D3
  0
BLOCK_RECORD
  5
23C
100
AcDbSymbolTableRecord
100
AcDbBlockTableRecord
  2
*D4
  0
BLOCK_RECORD
  5
23D
100
AcDbSymbolTableRecord
100
AcDbBlockTableRecord
  2
*D5
  0
BLOCK_RECORD
  5
23E
100
AcDbSymbolTableRecord
100
AcDbBlockTableRecord
  2
*D6
  0
BLOCK_RECORD
  5
23F
100
AcDbSymbolTableRecord
100
AcDbBlockTableRecord
  2
*D7
  0
BLOCK_RECORD
  5
240
100
AcDbSymbolTableRecord
100
AcDbBlockTableRecord
  2
*D8
  0
BLOCK_RECORD
  5
241
100
AcDbSymbolTableRecord
100
AcDbBlockTableRecord
  2
*D9
  0
BLOCK_RECORD
  5
242
100
AcDbSymbolTableRecord
100
AcDbBlockTableRecord
  2
*D10
  0
BLOCK_RECORD
  5
243
100
AcDbSymbolTableRecord
100
AcDbBlockTableRecord
  2
*T1
  0
ENDTAB
  0
TABLE
  2
DIMSTYLE
  5
A
100
AcDbSymbolTable
 70
1
100
AcDbDimStyleTable
 71
0
  0
DIMSTYLE
105
244
100
AcDbSymbolTableRecord
100
AcDbDimStyleTableRecord
  2
STANDARD
 70
0
  3

  4

 40
1.0
 41
0.1875
 42
0.0625
 43
0.38
 44
0.125
 45
0.0
 46
0.0
 47
0.005
 48
0.005
140
0.1
141
0.09
142
0.0
143
1.0
144
1.0
145
0.0
146
1.0
147
0.09
 71
1.0
 72
0.0
 73
1
 74
1
 75
0
 76
0
 77
0
 78
4
170
1
171
2
172
0
173
0
174
0
175
0
176
0
177
0
178
0
270
2
271
3
272
3
273
2
274
2
275
0
280
0
281
0
282
0
283
1
284
4
285
0
286
0
287
3
288
0
340
11
278
46
341
237
342
237
343
237
344
237
  0
DIMSTYLE
105
245
100
AcDbSymbolTableRecord
100
AcDbDimStyleTableRecord
  2
DIMSTYLE_1
 70
0
  3

  4

 40
1.0
 41
0.1875
 42
0.0625
 43
0.38
 44
0.125
 45
0.0
 46
0.0
 47
0.1
 48
0.1
140
0.1
141
0.09
142
0.0
143
1.0
144
1.0
145
0.0
146
1.0
147
0.1
 71
0.0
 72
0.0
 73
1
 74
1
 75
0
 76
0
 77
0
 78
4
170
1
171
2
172
0
173
0
174
0
175
0
176
0
177
0
178
0
270
2
271
1
272
3
273
2
274
4
275
0
280
0
281
0
282
0
283
1
284
4
285
0
286
0
287
3
288
0
340
11
278
46
341
237
342
237
343
237
344
237
  0
DIMSTYLE
105
246
100
AcDbSymbolTableRecord
100
AcDbDimStyleTableRecord
  2
DIMSTYLE_2
 70
0
  3

  4

 40
1.0
 41
0.1875
 42
0.0625
 43
0.38
 44
0.125
 45
0.0
 46
0.0
 47
0.1
 48
0.1
140
0.1
141
0.09
142
0.0
143
1.0
144
1.0
145
0.0
146
1.0
147
0.1
 71
0.0
 72
0.0
 73
1
 74
1
 75
0
 76
0
 77
0
 78
4
170
1
171
3
172
0
173
0
174
0
175
0
176
0
177
0
178
0
270
2
271
2
272
3
273
2
274
4
275
0
280
0
281
0
282
0
283
1
284
4
285
0
286
0
287
3
288
0
340
11
278
46
341
237
342
237
343
237
344
237
  0
DIMSTYLE
105
247
100
AcDbSymbolTableRecord
100
AcDbDimStyleTableRecord
  2
DIMSTYLE_3
 70
0
  3

  4

 40
1.0
 41
0.1875
 42
0.0625
 43
0.38
 44
0.125
 45
0.0
 46
0.0
 47
0.5
 48
0.5
140
0.1
141
0.09
142
0.0
143
1.0
144
1.0
145
0.0
146
1.0
147
0.05
 71
0.0
 72
0.0
 73
1
 74
1
 75
0
 76
0
 77
0
 78
4
170
0
171
2
172
0
173
0
174
0
175
0
176
0
177
0
178
0
270
2
271
0
272
0
273
2
274
2
275
0
280
0
281
0
282
0
283
1
284
4
285
0
286
0
287
3
288
0
340
11
278
46
341
237
342
237
343
237
344
237
  0
ENDTAB
  0
ENDSEC
  0
SECTION
  2
BLOCKS
  0
BLOCK
  5
20
100
AcDbEntity
  8
0
100
AcDbBlockBegin
  2
*Model_Space
 70
0
 10
0.0
 20
0.0
 30
0.0
  3
*Model_Space
  1

  0
ENDBLK
  5
21
100
AcDbEntity
  8
0
100
AcDbBlockEnd
  0
BLOCK
  5
1C
100
AcDbEntity
  8
0
100
AcDbBlockBegin
  2
*Paper_Space
 70
0
 10
0.0
 20
0.0
 30
0.0
  3
*Paper_Space
  1

  0
ENDBLK
  5
1D
100
AcDbEntity
  8
0
100
AcDbBlockEnd
  0
BLOCK
  5
248
100
AcDbEntity
  8
0
100
AcDbBlockBegin
  2
_FILLED
 70
64
 10
0.0
 20
0.0
  3
_FILLED
  1

  0
SOLID
  5
249
100
AcDbEntity
  8
0
  6
BYBLOCK
 62
0
100
AcDbTrace
 10
0.0
 20
0.0
 11
-1.0
 21
0.1666666667
 12
-1.0
 22
-0.1666666667
 13
-1.0
 23
-0.1666666667
  0
ENDBLK
  5
24A
100
AcDbEntity
  8
0
  6
BYBLOCK
 62
0
100
AcDbBlockEnd
  0
BLOCK
  5
24B
100
AcDbEntity
  8
SCHEME_DIMS
100
AcDbBlockBegin
 62
7
  6
CONTINUOUS
  2
*D0
 70
65
 10
0.0
 20
0.0
  3
*D0
  1

  0
MTEXT
  5
24C
100
AcDbEntity
  8
SCHEME_DIMS
100
AcDbMText
 62
7
  6
CONTINUOUS
  7
STANDARD
 71
2
 72
1
 10
10.1149962462
 20
4.4882976727
 30
0.0
 11
1.0
 21
0.0
 31
0.0
 44
0.9
  1
40.9\P[1.61]
 40
0.1
 41
0.6
  0
LINE
  5
24D
100
AcDbEntity
  8
SCHEME_DIMS
100
AcDbLine
 62
7
  6
CONTINUOUS
 10
9.2445571626
 20
5.1704783073
 11
10.3399962462
 21
5.1704783073
  0
LINE
  5
24E
100
AcDbEntity
  8
SCHEME_DIMS
100
AcDbLine
 62
7
  6
CONTINUOUS
 10
9.0870768477
 20
3.5588894636
 11
10.3399962462
 21
3.5588894636
  0
LINE
  5
24F
100
AcDbEntity
  8
SCHEME_DIMS
100
AcDbLine
 62
7
  6
CONTINUOUS
 10
10.2149962462
 20
5.1704783073
 11
10.2149962462
 21
4.5882976727
  0
LINE
  5
250
100
AcDbEntity
  8
SCHEME_DIMS
100
AcDbLine
 62
7
  6
CONTINUOUS
 10
10.2149962462
 20
3.5588894636
 11
10.2149962462
 21
4.1382976727
  0
INSERT
  5
251
100
AcDbEntity
  8
SCHEME_DIMS
100
AcDbBlockReference
 62
7
  6
CONTINUOUS
  2
_FILLED
 10
10.2149962462
 20
5.1704783073
 41
0.1875
 42
0.1875
 43
0.1875
 50
90.0
  0
INSERT
  5
252
100
AcDbEntity
  8
SCHEME_DIMS
100
AcDbBlockReference
 62
7
  6
CONTINUOUS
  2
_FILLED
 10
10.2149962462
 20
3.5588894636
 41
0.1875
 42
0.1875
 43
0.1875
 50
270.0
  0
ENDBLK
  5
253
100
AcDbEntity
  8
0
  6
BYBLOCK
 62
0
100
AcDbBlockEnd
  0
BLOCK
  5
254
100
AcDbEntity
  8
SCHEME_DIMS
100
AcDbBlockBegin
 62
7
  6
CONTINUOUS
  2
*D1
 70
65
 10
0.0
 20
0.0
  3
*D1
  1

  0
MTEXT
  5
255
100
AcDbEntity
  8
SCHEME_DIMS
100
AcDbMText
 62
7
  6
CONTINUOUS
  7
STANDARD
 71
2
 72
1
 10
8.5789065852
 20
5.9332247426
 30
0.0
 11
1.0
 21
0.0
 31
0.0
 44
0.9
  1
26.0\P[1.02]
 40
0.1
 41
0.6
  0
LINE
  5
256
100
AcDbEntity
  8
SCHEME_DIMS
100
AcDbLine
 62
7
  6
CONTINUOUS
 10
8.1584351154
 20
5.2329783073
 11
8.1584351154
 21
6.0082247426
  0
LINE
  5
257
100
AcDbEntity
  8
SCHEME_DIMS
100
AcDbLine
 62
7
  6
CONTINUOUS
 10
9.1820571626
 20
5.2329783073
 11
9.1820571626
 21
6.0082247426
  0
LINE
  5
258
100
AcDbEntity
  8
SCHEME_DIMS
100
AcDbLine
 62
7
  6
CONTINUOUS
 10
8.1584351154
 20
5.8832247426
 11
7.7584351154
 21
5.8832247426
  0
LINE
  5
259
100
AcDbEntity
  8
SCHEME_DIMS
100
AcDbLine
 62
7
  6
CONTINUOUS
 10
9.1820571626
 20
5.8832247426
 11
9.5820571626
 21
5.8832247426
  0
INSERT
  5
25A
100
AcDbEntity
  8
SCHEME_DIMS
100
AcDbBlockReference
 62
7
  6
CONTINUOUS
  2
_FILLED
 10
8.1584351154
 20
5.8832247426
 41
0.1875
 42
0.1875
 43
0.1875
  0
INSERT
  5
25B
100
AcDbEntity
  8
SCHEME_DIMS
100
AcDbBlockReference
 62
7
  6
CONTINUOUS
  2
_FILLED
 10
9.1820571626
 20
5.8832247426
 41
0.1875
 42
0.1875
 43
0.1875
 50
180.0
  0
ENDBLK
  5
25C
100
AcDbEntity
  8
0
  6
BYBLOCK
 62
0
100
AcDbBlockEnd
  0
BLOCK
  5
25D
100
AcDbEntity
  8
SCHEME_DIMS
100
AcDbBlockBegin
 62
7
  6
CONTINUOUS
  2
*D2
 70
65
 10
0.0
 20
0.0
  3
*D2
  1

  0
MTEXT
  5
25E
100
AcDbEntity
  8
SCHEME_DIMS
100
AcDbMText
 62
7
  6
CONTINUOUS
  7
STANDARD
 71
2
 72
1
 10
3.6479220292
 20
6.1082569176
 30
0.0
 11
1.0
 21
0.0
 31
0.0
 44
0.9
  1
31.4\P[1.24]
 40
0.1
 41
0.6
  0
LINE
  5
25F
100
AcDbEntity
  8
SCHEME_DIMS
100
AcDbLine
 62
7
  6
CONTINUOUS
 10
3.119344283
 20
4.7455731301
 11
3.119344283
 21
6.1832569176
  0
LINE
  5
260
100
AcDbEntity
  8
SCHEME_DIMS
100
AcDbLine
 62
7
  6
CONTINUOUS
 10
4.3550765664
 20
4.7455731301
 11
4.3550765664
 21
6.1832569176
  0
LINE
  5
261
100
AcDbEntity
  8
SCHEME_DIMS
100
AcDbLine
 62
7
  6
CONTINUOUS
 10
3.119344283
 20
6.0582569176
 11
2.719344283
 21
6.0582569176
  0
LINE
  5
262
100
AcDbEntity
  8
SCHEME_DIMS
100
AcDbLine
 62
7
  6
CONTINUOUS
 10
4.3550765664
 20
6.0582569176
 11
4.7550765664
 21
6.0582569176
  0
INSERT
  5
263
100
AcDbEntity
  8
SCHEME_DIMS
100
AcDbBlockReference
 62
7
  6
CONTINUOUS
  2
_FILLED
 10
3.119344283
 20
6.0582569176
 41
0.1875
 42
0.1875
 43
0.1875
  0
INSERT
  5
264
100
AcDbEntity
  8
SCHEME_DIMS
100
AcDbBlockReference
 62
7
  6
CONTINUOUS
  2
_FILLED
 10
4.3550765664
 20
6.0582569176
 41
0.1875
 42
0.1875
 43
0.1875
 50
180.0
  0
ENDBLK
  5
265
100
AcDbEntity
  8
0
  6
BYBLOCK
 62
0
100
AcDbBlockEnd
  0
BLOCK
  5
266
100
AcDbEntity
  8
SCHEME_DIMS
100
AcDbBlockBegin
 62
7
  6
CONTINUOUS
  2
*D3
 70
65
 10
0.0
 20
0.0
  3
*D3
  1

  0
MTEXT
  5
267
100
AcDbEntity
  8
SCHEME_DIMS
100
AcDbMText
 62
7
  6
CONTINUOUS
  7
STANDARD
 71
2
 72
1
 10
3.6845693908
 20
5.7163489382
 30
0.0
 11
1.0
 21
0.0
 31
0.0
 44
0.9
  1
29.0\P[1.14]
 40
0.1
 41
0.6
  0
LINE
  5
268
100
AcDbEntity
  8
SCHEME_DIMS
100
AcDbLine
 62
7
  6
CONTINUOUS
 10
3.166344283
 20
4.7455731301
 11
3.166344283
 21
5.7913489382
  0
LINE
  5
269
100
AcDbEntity
  8
SCHEME_DIMS
100
AcDbLine
 62
7
  6
CONTINUOUS
 10
4.3080765664
 20
4.7455731301
 11
4.3080765664
 21
5.7913489382
  0
LINE
  5
26A
100
AcDbEntity
  8
SCHEME_DIMS
100
AcDbLine
 62
7
  6
CONTINUOUS
 10
3.166344283
 20
5.6663489382
 11
2.766344283
 21
5.6663489382
  0
LINE
  5
26B
100
AcDbEntity
  8
SCHEME_DIMS
100
AcDbLine
 62
7
  6
CONTINUOUS
 10
4.3080765664
 20
5.6663489382
 11
4.7080765664
 21
5.6663489382
  0
INSERT
  5
26C
100
AcDbEntity
  8
SCHEME_DIMS
100
AcDbBlockReference
 62
7
  6
CONTINUOUS
  2
_FILLED
 10
3.166344283
 20
5.6663489382
 41
0.1875
 42
0.1875
 43
0.1875
  0
INSERT
  5
26D
100
AcDbEntity
  8
SCHEME_DIMS
100
AcDbBlockReference
 62
7
  6
CONTINUOUS
  2
_FILLED
 10
4.3080765664
 20
5.6663489382
 41
0.1875
 42
0.1875
 43
0.1875
 50
180.0
  0
ENDBLK
  5
26E
100
AcDbEntity
  8
0
  6
BYBLOCK
 62
0
100
AcDbBlockEnd
  0
BLOCK
  5
26F
100
AcDbEntity
  8
SCHEME_DIMS
100
AcDbBlockBegin
 62
7
  6
CONTINUOUS
  2
*D4
 70
65
 10
0.0
 20
0.0
  3
*D4
  1

  0
MTEXT
  5
270
100
AcDbEntity
  8
SCHEME_DIMS
100
AcDbMText
 62
7
  6
CONTINUOUS
  7
STANDARD
 71
2
 72
1
 10
3.7372104247
 20
3.2701463865
 30
0.0
 11
1.0
 21
0.0
 31
0.0
 44
0.9
  1
'A'\P28.5\P[1.12]
 40
0.1
 41
0.6
  0
LINE
  5
271
100
AcDbEntity
  8
SCHEME_DIMS
100
AcDbLine
 62
7
  6
CONTINUOUS
 10
3.1761868027
 20
3.6166361222
 11
3.1761868027
 21
2.9451463865
  0
LINE
  5
272
100
AcDbEntity
  8
SCHEME_DIMS
100
AcDbLine
 62
7
  6
CONTINUOUS
 10
4.2982340468
 20
3.6166361222
 11
4.2982340468
 21
2.9451463865
  0
LINE
  5
273
100
AcDbEntity
  8
SCHEME_DIMS
100
AcDbLine
 62
7
  6
CONTINUOUS
 10
3.1761868027
 20
3.0701463865
 11
2.7761868027
 21
3.0701463865
  0
LINE
  5
274
100
AcDbEntity
  8
SCHEME_DIMS
100
AcDbLine
 62
7
  6
CONTINUOUS
 10
4.2982340468
 20
3.0701463865
 11
4.6982340468
 21
3.0701463865
  0
INSERT
  5
275
100
AcDbEntity
  8
SCHEME_DIMS
100
AcDbBlockReference
 62
7
  6
CONTINUOUS
  2
_FILLED
 10
3.1761868027
 20
3.0701463865
 41
0.1875
 42
0.1875
 43
0.1875
  0
INSERT
  5
276
100
AcDbEntity
  8
SCHEME_DIMS
100
AcDbBlockReference
 62
7
  6
CONTINUOUS
  2
_FILLED
 10
4.2982340468
 20
3.0701463865
 41
0.1875
 42
0.1875
 43
0.1875
 50
180.0
  0
ENDBLK
  5
277
100
AcDbEntity
  8
0
  6
BYBLOCK
 62
0
100
AcDbBlockEnd
  0
BLOCK
  5
278
100
AcDbEntity
  8
SCHEME_DIMS
100
AcDbBlockBegin
 62
7
  6
CONTINUOUS
  2
*D5
 70
65
 10
0.0
 20
0.0
  3
*D5
  1

  0
MTEXT
  5
279
100
AcDbEntity
  8
SCHEME_DIMS
100
AcDbMText
 62
7
  6
CONTINUOUS
  7
STANDARD
 71
2
 72
1
 10
8.670246139
 20
3.3706278203
 30
0.0
 11
1.0
 21
0.0
 31
0.0
 44
0.9
  1
'B'\P28.5\P[1.12]
 40
0.1
 41
0.6
  0
LINE
  5
27A
100
AcDbEntity
  8
SCHEME_DIMS
100
AcDbLine
 62
7
  6
CONTINUOUS
 10
9.231269761
 20
3.6166361222
 11
9.231269761
 21
3.0456278203
  0
LINE
  5
27B
100
AcDbEntity
  8
SCHEME_DIMS
100
AcDbLine
 62
7
  6
CONTINUOUS
 10
8.1092225169
 20
3.6166361222
 11
8.1092225169
 21
3.0456278203
  0
LINE
  5
27C
100
AcDbEntity
  8
SCHEME_DIMS
100
AcDbLine
 62
7
  6
CONTINUOUS
 10
9.231269761
 20
3.1706278203
 11
9.631269761
 21
3.1706278203
  0
LINE
  5
27D
100
AcDbEntity
  8
SCHEME_DIMS
100
AcDbLine
 62
7
  6
CONTINUOUS
 10
8.1092225169
 20
3.1706278203
 11
7.7092225169
 21
3.1706278203
  0
INSERT
  5
27E
100
AcDbEntity
  8
SCHEME_DIMS
100
AcDbBlockReference
 62
7
  6
CONTINUOUS
  2
_FILLED
 10
9.231269761
 20
3.1706278203
 41
0.1875
 42
0.1875
 43
0.1875
 50
180.0
  0
INSERT
  5
27F
100
AcDbEntity
  8
SCHEME_DIMS
100
AcDbBlockReference
 62
7
  6
CONTINUOUS
  2
_FILLED
 10
8.1092225169
 20
3.1706278203
 41
0.1875
 42
0.1875
 43
0.1875
  0
ENDBLK
  5
280
100
AcDbEntity
  8
0
  6
BYBLOCK
 62
0
100
AcDbBlockEnd
  0
BLOCK
  5
281
100
AcDbEntity
  8
SCHEME_DIMS
100
AcDbBlockBegin
 62
7
  6
CONTINUOUS
  2
*D6
 70
65
 10
0.0
 20
0.0
  3
*D6
  1

  0
MTEXT
  5
282
100
AcDbEntity
  8
SCHEME_DIMS
100
AcDbMText
 62
7
  6
CONTINUOUS
  7
STANDARD
 71
2
 72
1
 10
3.6372104247
 20
9.4816381163
 30
0.0
 11
1.0
 21
0.0
 31
0.0
 44
0.9
  1
76.0\P[2.99]
 40
0.1
 41
0.6
  0
LINE
  5
283
100
AcDbEntity
  8
SCHEME_DIMS
100
AcDbLine
 62
7
  6
CONTINUOUS
 10
2.2411474326
 20
8.7996728977
 11
2.2411474326
 21
9.5566381163
  0
LINE
  5
284
100
AcDbEntity
  8
SCHEME_DIMS
100
AcDbLine
 62
7
  6
CONTINUOUS
 10
5.2332734168
 20
8.7996728977
 11
5.2332734168
 21
9.5566381163
  0
LINE
  5
285
100
AcDbEntity
  8
SCHEME_DIMS
100
AcDbLine
 62
7
  6
CONTINUOUS
 10
2.2411474326
 20
9.4316381163
 11
3.3372104247
 21
9.4316381163
  0
LINE
  5
286
100
AcDbEntity
  8
SCHEME_DIMS
100
AcDbLine
 62
7
  6
CONTINUOUS
 10
5.2332734168
 20
9.4316381163
 11
4.1372104247
 21
9.4316381163
  0
INSERT
  5
287
100
AcDbEntity
  8
SCHEME_DIMS
100
AcDbBlockReference
 62
7
  6
CONTINUOUS
  2
_FILLED
 10
2.2411474326
 20
9.4316381163
 41
0.1875
 42
0.1875
 43
0.1875
 50
180.0
  0
INSERT
  5
288
100
AcDbEntity
  8
SCHEME_DIMS
100
AcDbBlockReference
 62
7
  6
CONTINUOUS
  2
_FILLED
 10
5.2332734168
 20
9.4316381163
 41
0.1875
 42
0.1875
 43
0.1875
  0
ENDBLK
  5
289
100
AcDbEntity
  8
0
  6
BYBLOCK
 62
0
100
AcDbBlockEnd
  0
BLOCK
  5
28A
100
AcDbEntity
  8
SCHEME_DIMS
100
AcDbBlockBegin
 62
7
  6
CONTINUOUS
  2
*D7
 70
65
 10
0.0
 20
0.0
  3
*D7
  1

  0
MTEXT
  5
28B
100
AcDbEntity
  8
SCHEME_DIMS
100
AcDbMText
 62
7
  6
CONTINUOUS
  7
STANDARD
 71
2
 72
1
 10
5.7097922724
 20
8.2359917954
 30
0.0
 11
1.0
 21
0.0
 31
0.0
 44
0.9
  1
40.0\P[1.57]
 40
0.1
 41
0.6
  0
LINE
  5
28C
100
AcDbEntity
  8
SCHEME_DIMS
100
AcDbLine
 62
7
  6
CONTINUOUS
 10
5.0595529444
 20
8.9733933702
 11
5.9347922724
 21
8.9733933702
  0
LINE
  5
28D
100
AcDbEntity
  8
SCHEME_DIMS
100
AcDbLine
 62
7
  6
CONTINUOUS
 10
5.0595529444
 20
7.3985902206
 11
5.9347922724
 21
7.3985902206
  0
LINE
  5
28E
100
AcDbEntity
  8
SCHEME_DIMS
100
AcDbLine
 62
7
  6
CONTINUOUS
 10
5.8097922724
 20
8.9733933702
 11
5.8097922724
 21
8.3359917954
  0
LINE
  5
28F
100
AcDbEntity
  8
SCHEME_DIMS
100
AcDbLine
 62
7
  6
CONTINUOUS
 10
5.8097922724
 20
7.3985902206
 11
5.8097922724
 21
7.8859917954
  0
INSERT
  5
290
100
AcDbEntity
  8
SCHEME_DIMS
100
AcDbBlockReference
 62
7
  6
CONTINUOUS
  2
_FILLED
 10
5.8097922724
 20
8.9733933702
 41
0.1875
 42
0.1875
 43
0.1875
 50
90.0
  0
INSERT
  5
291
100
AcDbEntity
  8
SCHEME_DIMS
100
AcDbBlockReference
 62
7
  6
CONTINUOUS
  2
_FILLED
 10
5.8097922724
 20
7.3985902206
 41
0.1875
 42
0.1875
 43
0.1875
 50
270.0
  0
ENDBLK
  5
292
100
AcDbEntity
  8
0
  6
BYBLOCK
 62
0
100
AcDbBlockEnd
  0
BLOCK
  5
293
100
AcDbEntity
  8
SCHEME_DIMS
100
AcDbBlockBegin
 62
7
  6
CONTINUOUS
  2
*D8
 70
65
 10
0.0
 20
0.0
  3
*D8
  1

  0
MTEXT
  5
294
100
AcDbEntity
  8
SCHEME_DIMS
100
AcDbMText
 62
7
  6
CONTINUOUS
  7
STANDARD
 71
1
 72
1
 10
5.8018021394
 20
4.4231170953
 30
0.0
 11
1.0
 21
0.0
 31
0.0
 44
0.9
  1
2.65\P[.104]
 40
0.1
 41
0.6
  0
LINE
  5
295
100
AcDbEntity
  8
SCHEME_DIMS
100
AcDbLine
 62
7
  6
CONTINUOUS
 10
5.2957734168
 20
3.9940967521
 11
5.6768021394
 21
3.9940967521
  0
LINE
  5
296
100
AcDbEntity
  8
SCHEME_DIMS
100
AcDbLine
 62
7
  6
CONTINUOUS
 10
5.2957734168
 20
3.8897660435
 11
5.6768021394
 21
3.8897660435
  0
LINE
  5
297
100
AcDbEntity
  8
SCHEME_DIMS
100
AcDbLine
 62
7
  6
CONTINUOUS
 10
5.5518021394
 20
3.9940967521
 11
5.5518021394
 21
4.3731170953
  0
LINE
  5
298
100
AcDbEntity
  8
SCHEME_DIMS
100
AcDbLine
 62
7
  6
CONTINUOUS
 10
5.5518021394
 20
4.3731170953
 11
5.7018021394
 21
4.3731170953
  0
LINE
  5
299
100
AcDbEntity
  8
SCHEME_DIMS
100
AcDbLine
 62
7
  6
CONTINUOUS
 10
5.5518021394
 20
3.8897660435
 11
5.5518021394
 21
3.4897660435
  0
INSERT
  5
29A
100
AcDbEntity
  8
SCHEME_DIMS
100
AcDbBlockReference
 62
7
  6
CONTINUOUS
  2
_FILLED
 10
5.5518021394
 20
3.9940967521
 41
0.1875
 42
0.1875
 43
0.1875
 50
270.0
  0
INSERT
  5
29B
100
AcDbEntity
  8
SCHEME_DIMS
100
AcDbBlockReference
 62
7
  6
CONTINUOUS
  2
_FILLED
 10
5.5518021394
 20
3.8897660435
 41
0.1875
 42
0.1875
 43
0.1875
 50
90.0
  0
ENDBLK
  5
29C
100
AcDbEntity
  8
0
  6
BYBLOCK
 62
0
100
AcDbBlockEnd
  0
BLOCK
  5
29D
100
AcDbEntity
  8
SCHEME_DIMS
100
AcDbBlockBegin
 62
7
  6
CONTINUOUS
  2
*D9
 70
65
 10
0.0
 20
0.0
  3
*D9
  1

  0
MTEXT
  5
29E
100
AcDbEntity
  8
SCHEME_DIMS
100
AcDbMText
 62
7
  6
CONTINUOUS
  7
STANDARD
 71
2
 72
1
 10
3.7160056286
 20
7.090382575
 30
0.0
 11
1.0
 21
0.0
 31
0.0
 44
0.9
  1
52.0\P[2.05]
 40
0.1
 41
0.6
  0
LINE
  5
29F
100
AcDbEntity
  8
SCHEME_DIMS
100
AcDbLine
 62
7
  6
CONTINUOUS
 10
2.7135883775
 20
8.0270739489
 11
2.7135883775
 21
6.915382575
  0
LINE
  5
2A0
100
AcDbEntity
  8
SCHEME_DIMS
100
AcDbLine
 62
7
  6
CONTINUOUS
 10
4.760832472
 20
8.0270739489
 11
4.760832472
 21
6.915382575
  0
LINE
  5
2A1
100
AcDbEntity
  8
SCHEME_DIMS
100
AcDbLine
 62
7
  6
CONTINUOUS
 10
2.7135883775
 20
7.040382575
 11
3.4160056286
 21
7.040382575
  0
LINE
  5
2A2
100
AcDbEntity
  8
SCHEME_DIMS
100
AcDbLine
 62
7
  6
CONTINUOUS
 10
4.760832472
 20
7.040382575
 11
4.2160056286
 21
7.040382575
  0
INSERT
  5
2A3
100
AcDbEntity
  8
SCHEME_DIMS
100
AcDbBlockReference
 62
7
  6
CONTINUOUS
  2
_FILLED
 10
2.7135883775
 20
7.040382575
 41
0.1875
 42
0.1875
 43
0.1875
 50
180.0
  0
INSERT
  5
2A4
100
AcDbEntity
  8
SCHEME_DIMS
100
AcDbBlockReference
 62
7
  6
CONTINUOUS
  2
_FILLED
 10
4.760832472
 20
7.040382575
 41
0.1875
 42
0.1875
 43
0.1875
  0
ENDBLK
  5
2A5
100
AcDbEntity
  8
0
  6
BYBLOCK
 62
0
100
AcDbBlockEnd
  0
BLOCK
  5
2A6
100
AcDbEntity
  8
SCHEME_DIMS
100
AcDbBlockBegin
 62
7
  6
CONTINUOUS
  2
*D10
 70
65
 10
0.0
 20
0.0
  3
*D10
  1

  0
MTEXT
  5
2A7
100
AcDbEntity
  8
SCHEME_DIMS
100
AcDbMText
 62
7
  6
CONTINUOUS
  7
STANDARD
 71
2
 72
1
 10
1.6050063909
 20
8.2359917954
 30
0.0
 11
1.0
 21
0.0
 31
0.0
 44
0.9
  1
2X 30\Fgdt;{\Fgdt;~}
 40
0.1
 41
0.5666666667
  0
LINE
  5
2A8
100
AcDbEntity
  8
SCHEME_DIMS
100
AcDbLine
 62
7
  6
CONTINUOUS
 10
2.5497059184
 20
8.5041826688
 11
1.5569187533
 21
8.770199188
  0
LINE
  5
2A9
100
AcDbEntity
  8
SCHEME_DIMS
100
AcDbLine
 62
7
  6
CONTINUOUS
 10
2.4835978517
 20
7.8500873188
 11
1.5569187533
 21
7.6017844027
  0
ARC
  5
2AA
100
AcDbEntity
  8
SCHEME_DIMS
100
AcDbCircle
 62
7
  6
CONTINUOUS
 10
3.7372104247
 20
8.1859917954
 40
2.1322040338
100
AcDbArc
 50
165.0
 51
175.9659246166
  0
ARC
  5
2AB
100
AcDbEntity
  8
SCHEME_DIMS
100
AcDbCircle
 62
7
  6
CONTINUOUS
 10
3.7372104247
 20
8.1859917954
 40
2.1322040338
100
AcDbArc
 50
184.0340753834
 51
195.0
  0
SOLID
  5
2AC
100
AcDbEntity
  8
SCHEME_DIMS
100
AcDbTrace
 62
7
  6
CONTINUOUS
 10
1.6676499618
 20
8.5480242007
 11
1.6776594816
 21
8.7378468074
 12
1.6066269283
 22
8.5615312128
 13
1.6066269283
 23
8.5615312128
  0
SOLID
  5
2AD
100
AcDbEntity
  8
SCHEME_DIMS
100
AcDbTrace
 62
7
  6
CONTINUOUS
 10
1.6066269283
 20
7.8104523779
 11
1.6776594816
 21
7.6341367834
 12
1.6676499618
 22
7.8239593901
 13
1.6676499618
 23
7.8239593901
  0
ENDBLK
  5
2AE
100
AcDbEntity
  8
0
  6
BYBLOCK
 62
0
100
AcDbBlockEnd
  0
BLOCK
  5
2AF
100
AcDbEntity
  8
0
100
AcDbBlockBegin
  2
*T1
 70
1
 10
0.0
 20
0.0
  3
*T1
  1

  0
LINE
  5
2B0
100
AcDbEntity
  8
0
100
AcDbLine
 62
7
  6
CONTINUOUS
 10
4.35
 20
0.0
 11
0.0
 21
0.0
  0
LINE
  5
2B1
100
AcDbEntity
  8
0
100
AcDbLine
 62
7
  6
CONTINUOUS
 10
4.35
 20
0.0
 11
4.35
 21
1.92
  0
LINE
  5
2B2
100
AcDbEntity
  8
0
100
AcDbLine
 62
7
  6
CONTINUOUS
 10
4.35
 20
1.92
 11
0.0
 21
1.92
  0
LINE
  5
2B3
100
AcDbEntity
  8
0
100
AcDbLine
 62
7
  6
CONTINUOUS
 10
0.0
 20
0.0
 11
0.0
 21
1.92
  0
MTEXT
  5
2B4
100
AcDbEntity
  8
NOTES
100
AcDbMText
 62
7
  6
CONTINUOUS
  7
STANDARD
 71
2
 72
1
 10
4.125
 20
0.48
 30
0.0
 11
1.0
 21
0.0
 31
0.0
 44
0.9
  1
A
 40
0.1
 41
0.2
  0
MTEXT
  5
2B5
100
AcDbEntity
  8
NOTES
100
AcDbMText
 62
7
  6
CONTINUOUS
  7
STANDARD
 71
2
 72
1
 10
2.175
 20
0.93
 30
0.0
 11
1.0
 21
0.0
 31
0.0
 44
0.9
  1
LMBWLB32PM-803694
 40
0.1
 41
3.4
  0
ENDBLK
  5
2B6
100
AcDbEntity
  8
0
  6
BYBLOCK
 62
0
100
AcDbBlockEnd
  0
ENDSEC
  0
SECTION
  2
ENTITIES
  0
MTEXT
  5
2B7
100
AcDbEntity
  8
0
100
AcDbMText
 62
7
  6
CONTINUOUS
  7
TEXTSTYLE_2
 71
2
 72
1
 10
11.0287658475
 20
1.794867839
 30
0.0
 11
1.0
 21
0.0
 31
0.0
 44
0.9
  1
THIRD ANGLE PROJECTION
 40
0.1
 41
1.76
  0
MTEXT
  5
2B8
100
AcDbEntity
  8
0
100
AcDbMText
 62
7
  6
CONTINUOUS
  7
STANDARD
 71
1
 72
1
 10
12.88
 20
1.457
 30
0.0
 11
1.0
 21
0.0
 31
0.0
 44
0.9
  1
DRAWING NO.
 40
0.08
 41
0.88
  0
MTEXT
  5
2B9
100
AcDbEntity
  8
0
100
AcDbMText
 62
7
  6
CONTINUOUS
  7
TEXTSTYLE_2
 71
1
 72
1
 10
12.08
 20
2.217
 30
0.0
 11
1.0
 21
0.0
 31
0.0
 44
0.9
  1
TITLE
 40
0.1
 41
0.4
  0
MTEXT
  5
2BA
100
AcDbEntity
  8
0
100
AcDbMText
 62
7
  6
CONTINUOUS
  7
STANDARD
 71
1
 72
1
 10
12.08
 20
1.457
 30
0.0
 11
1.0
 21
0.0
 31
0.0
 44
0.9
  1
SIZE
 40
0.08
 41
0.32
  0
MTEXT
  5
2BB
100
AcDbEntity
  8
0
100
AcDbMText
 62
7
  6
CONTINUOUS
  7
STANDARD
 71
1
 72
1
 10
12.08
 20
1.087
 30
0.0
 11
1.0
 21
0.0
 31
0.0
 44
0.9
  1
SCALE
 40
0.08
 41
0.4
  0
MTEXT
  5
2BC
100
AcDbEntity
  8
0
100
AcDbMText
 62
7
  6
CONTINUOUS
  7
TEXTSTYLE_2
 71
2
 72
1
 10
12.5
 20
1.337
 30
0.0
 11
1.0
 21
0.0
 31
0.0
 44
0.9
  1
B
 40
0.1
 41
0.08
  0
MTEXT
  5
2BD
100
AcDbEntity
  8
0
100
AcDbMText
 62
7
  6
CONTINUOUS
  7
TEXTSTYLE_3
 71
2
 72
1
 10
11.0340287086
 20
2.7679425959
 30
0.0
 11
1.0
 21
0.0
 31
0.0
 44
0.9
  1
This drawing is the property\Pof BANNER ENGINEERING CORP.\PAny use or reproduction,\Pin any form, without prior\Pwritten permission of\PBanner is prohibited.
 40
0.08
 41
1.904
  0
MTEXT
  5
2BE
100
AcDbEntity
  8
0
100
AcDbMText
 62
7
  6
CONTINUOUS
  7
STANDARD
 71
1
 72
1
 10
14.255
 20
1.087
 30
0.0
 11
1.0
 21
0.0
 31
0.0
 44
0.9
  1
SHEET
 40
0.08
 41
0.4
  0
MTEXT
  5
2BF
100
AcDbEntity
  8
0
100
AcDbMText
 62
7
  6
CONTINUOUS
  7
STANDARD
 71
1
 72
1
 10
15.63
 20
1.457
 30
0.0
 11
1.0
 21
0.0
 31
0.0
 44
0.9
  1
REV.
 40
0.08
 41
0.32
  0
MTEXT
  5
2C0
100
AcDbEntity
  8
0
100
AcDbMText
 62
7
  6
CONTINUOUS
  7
STANDARD
 71
3
 72
1
 10
16.38
 20
0.835443
 30
0.0
 11
1.0
 21
0.0
 31
0.0
 44
0.9
  1
CREO
 40
0.07
 41
0.28
  0
MTEXT
  5
2C1
100
AcDbEntity
  8
0
100
AcDbMText
 62
7
  6
CONTINUOUS
  7
TEXTSTYLE_4
 71
2
 72
1
 10
15.1043392653
 20
2.7174764286
 30
0.0
 11
1.0
 21
0.0
 31
0.0
 44
0.9
  1
BANNER ENGINEERING CORP.
 40
0.12
 41
2.592
  0
MTEXT
  5
2C2
100
AcDbEntity
  8
0
100
AcDbMText
 62
7
  6
CONTINUOUS
  7
TEXTSTYLE_2
 71
2
 72
1
 10
15.0923490612
 20
2.4764783673
 30
0.0
 11
1.0
 21
0.0
 31
0.0
 44
0.9
  1
www.bannerengineering.com
 40
0.1
 41
2.0
  0
MTEXT
  5
2C3
100
AcDbEntity
  8
0
100
AcDbMText
 62
7
  6
CONTINUOUS
  7
TEXTSTYLE_2
 71
2
 72
1
 10
9.485
 20
10.312
 30
0.0
 11
1.0
 21
0.0
 31
0.0
 44
0.9
  1
4
 40
0.1
 41
0.08
  0
MTEXT
  5
2C4
100
AcDbEntity
  8
0
100
AcDbMText
 62
7
  6
CONTINUOUS
  7
TEXTSTYLE_2
 71
2
 72
1
 10
11.455
 20
10.312
 30
0.0
 11
1.0
 21
0.0
 31
0.0
 44
0.9
  1
3
 40
0.1
 41
0.08
  0
MTEXT
  5
2C5
100
AcDbEntity
  8
0
100
AcDbMText
 62
7
  6
CONTINUOUS
  7
TEXTSTYLE_2
 71
2
 72
1
 10
13.425
 20
10.312
 30
0.0
 11
1.0
 21
0.0
 31
0.0
 44
0.9
  1
2
 40
0.1
 41
0.08
  0
MTEXT
  5
2C6
100
AcDbEntity
  8
0
100
AcDbMText
 62
7
  6
CONTINUOUS
  7
TEXTSTYLE_2
 71
2
 72
1
 10
15.395
 20
10.312
 30
0.0
 11
1.0
 21
0.0
 31
0.0
 44
0.9
  1
1
 40
0.1
 41
0.08
  0
MTEXT
  5
2C7
100
AcDbEntity
  8
0
100
AcDbMText
 62
7
  6
CONTINUOUS
  7
TEXTSTYLE_2
 71
2
 72
1
 10
3.575
 20
10.312
 30
0.0
 11
1.0
 21
0.0
 31
0.0
 44
0.9
  1
7
 40
0.1
 41
0.08
  0
MTEXT
  5
2C8
100
AcDbEntity
  8
0
100
AcDbMText
 62
7
  6
CONTINUOUS
  7
TEXTSTYLE_2
 71
2
 72
1
 10
5.545
 20
10.312
 30
0.0
 11
1.0
 21
0.0
 31
0.0
 44
0.9
  1
6
 40
0.1
 41
0.08
  0
MTEXT
  5
2C9
100
AcDbEntity
  8
0
100
AcDbMText
 62
7
  6
CONTINUOUS
  7
TEXTSTYLE_2
 71
2
 72
1
 10
7.515
 20
10.312
 30
0.0
 11
1.0
 21
0.0
 31
0.0
 44
0.9
  1
5
 40
0.1
 41
0.08
  0
MTEXT
  5
2CA
100
AcDbEntity
  8
0
100
AcDbMText
 62
7
  6
CONTINUOUS
  7
TEXTSTYLE_2
 71
2
 72
1
 10
1.605
 20
10.312
 30
0.0
 11
1.0
 21
0.0
 31
0.0
 44
0.9
  1
8
 40
0.1
 41
0.08
  0
MTEXT
  5
2CB
100
AcDbEntity
  8
0
100
AcDbMText
 62
7
  6
CONTINUOUS
  7
TEXTSTYLE_2
 71
2
 72
1
 10
1.605
 20
0.787
 30
0.0
 11
1.0
 21
0.0
 31
0.0
 44
0.9
  1
8
 40
0.1
 41
0.08
  0
MTEXT
  5
2CC
100
AcDbEntity
  8
0
100
AcDbMText
 62
7
  6
CONTINUOUS
  7
TEXTSTYLE_2
 71
2
 72
1
 10
3.575
 20
0.787
 30
0.0
 11
1.0
 21
0.0
 31
0.0
 44
0.9
  1
7
 40
0.1
 41
0.08
  0
MTEXT
  5
2CD
100
AcDbEntity
  8
0
100
AcDbMText
 62
7
  6
CONTINUOUS
  7
TEXTSTYLE_2
 71
2
 72
1
 10
5.545
 20
0.787
 30
0.0
 11
1.0
 21
0.0
 31
0.0
 44
0.9
  1
6
 40
0.1
 41
0.08
  0
MTEXT
  5
2CE
100
AcDbEntity
  8
0
100
AcDbMText
 62
7
  6
CONTINUOUS
  7
TEXTSTYLE_2
 71
2
 72
1
 10
7.515
 20
0.787
 30
0.0
 11
1.0
 21
0.0
 31
0.0
 44
0.9
  1
5
 40
0.1
 41
0.08
  0
MTEXT
  5
2CF
100
AcDbEntity
  8
0
100
AcDbMText
 62
7
  6
CONTINUOUS
  7
TEXTSTYLE_2
 71
2
 72
1
 10
9.485
 20
0.787
 30
0.0
 11
1.0
 21
0.0
 31
0.0
 44
0.9
  1
4
 40
0.1
 41
0.08
  0
MTEXT
  5
2D0
100
AcDbEntity
  8
0
100
AcDbMText
 62
7
  6
CONTINUOUS
  7
TEXTSTYLE_2
 71
2
 72
1
 10
11.455
 20
0.787
 30
0.0
 11
1.0
 21
0.0
 31
0.0
 44
0.9
  1
3
 40
0.1
 41
0.08
  0
MTEXT
  5
2D1
100
AcDbEntity
  8
0
100
AcDbMText
 62
7
  6
CONTINUOUS
  7
TEXTSTYLE_2
 71
2
 72
1
 10
13.425
 20
0.787
 30
0.0
 11
1.0
 21
0.0
 31
0.0
 44
0.9
  1
2
 40
0.1
 41
0.08
  0
MTEXT
  5
2D2
100
AcDbEntity
  8
0
100
AcDbMText
 62
7
  6
CONTINUOUS
  7
TEXTSTYLE_2
 71
2
 72
1
 10
15.395
 20
0.787
 30
0.0
 11
1.0
 21
0.0
 31
0.0
 44
0.9
  1
1
 40
0.1
 41
0.08
  0
MTEXT
  5
2D3
100
AcDbEntity
  8
0
100
AcDbMText
 62
7
  6
CONTINUOUS
  7
TEXTSTYLE_2
 71
3
 72
1
 10
0.52
 20
4.3995
 30
0.0
 11
1.0
 21
0.0
 31
0.0
 44
0.9
  1
B
 40
0.1
 41
0.08
  0
MTEXT
  5
2D4
100
AcDbEntity
  8
0
100
AcDbMText
 62
7
  6
CONTINUOUS
  7
TEXTSTYLE_2
 71
3
 72
1
 10
0.52
 20
2.0995
 30
0.0
 11
1.0
 21
0.0
 31
0.0
 44
0.9
  1
A
 40
0.1
 41
0.08
  0
MTEXT
  5
2D5
100
AcDbEntity
  8
0
100
AcDbMText
 62
7
  6
CONTINUOUS
  7
TEXTSTYLE_2
 71
3
 72
1
 10
0.52
 20
8.9995
 30
0.0
 11
1.0
 21
0.0
 31
0.0
 44
0.9
  1
D
 40
0.1
 41
0.08
  0
MTEXT
  5
2D6
100
AcDbEntity
  8
0
100
AcDbMText
 62
7
  6
CONTINUOUS
  7
TEXTSTYLE_2
 71
3
 72
1
 10
0.52
 20
6.6995
 30
0.0
 11
1.0
 21
0.0
 31
0.0
 44
0.9
  1
C
 40
0.1
 41
0.08
  0
MTEXT
  5
2D7
100
AcDbEntity
  8
0
100
AcDbMText
 62
7
  6
CONTINUOUS
  7
TEXTSTYLE_2
 71
1
 72
1
 10
16.48
 20
8.9995
 30
0.0
 11
1.0
 21
0.0
 31
0.0
 44
0.9
  1
D
 40
0.1
 41
0.08
  0
MTEXT
  5
2D8
100
AcDbEntity
  8
0
100
AcDbMText
 62
7
  6
CONTINUOUS
  7
TEXTSTYLE_2
 71
1
 72
1
 10
16.48
 20
6.6995
 30
0.0
 11
1.0
 21
0.0
 31
0.0
 44
0.9
  1
C
 40
0.1
 41
0.08
  0
MTEXT
  5
2D9
100
AcDbEntity
  8
0
100
AcDbMText
 62
7
  6
CONTINUOUS
  7
TEXTSTYLE_2
 71
1
 72
1
 10
16.48
 20
4.3995
 30
0.0
 11
1.0
 21
0.0
 31
0.0
 44
0.9
  1
B
 40
0.1
 41
0.08
  0
MTEXT
  5
2DA
100
AcDbEntity
  8
0
100
AcDbMText
 62
7
  6
CONTINUOUS
  7
TEXTSTYLE_2
 71
1
 72
1
 10
16.48
 20
2.0995
 30
0.0
 11
1.0
 21
0.0
 31
0.0
 44
0.9
  1
A
 40
0.1
 41
0.08
  0
MTEXT
  5
2DB
100
AcDbEntity
  8
0
100
AcDbMText
 62
7
  6
CONTINUOUS
  7
STANDARD
 71
1
 72
1
 10
14.819264911
 20
1.0627941725
 30
0.0
 11
1.0
 21
0.0
 31
0.0
 44
0.9
  1
1 OF 1
 40
0.1
 41
0.6
  0
MTEXT
  5
2DC
100
AcDbEntity
  8
0
100
AcDbMText
 62
7
  6
CONTINUOUS
  7
STANDARD
 71
1
 72
1
 10
13.8911999818
 20
1.3747321586
 30
0.0
 11
1.0
 21
0.0
 31
0.0
 44
0.9
  1
202257
 40
0.12
 41
0.72
  0
MTEXT
  5
2DD
100
AcDbEntity
  8
0
100
AcDbMText
 62
7
  6
CONTINUOUS
  7
STANDARD
 71
1
 72
1
 10
12.644264911
 20
1.0627941725
 30
0.0
 11
1.0
 21
0.0
 31
0.0
 44
0.9
  1
1:1
 40
0.1
 41
0.3
  0
MTEXT
  5
2DE
100
AcDbEntity
  8
0
100
AcDbMText
 62
7
  6
CONTINUOUS
  7
STANDARD
 71
1
 72
1
 10
0.8489354566
 20
1.4938330621
 30
0.0
 11
1.0
 21
0.0
 31
0.0
 44
0.9
  1
NOTES:\P1. ALL DIMENSIONS ARE MILLIMETERS [INCHES] UNLESS OTHERWISE NOTED.\P2. REFER TO "www.bannerengineering.com" FOR ADDITIONAL DATA AND SPECIFICATIONS.
 40
0.1
 41
7.9
  0
MTEXT
  5
2DF
100
AcDbEntity
  8
0
100
AcDbMText
 62
7
  6
CONTINUOUS
  7
TEXTSTYLE_5
 71
2
 72
1
 10
11.0519651892
 20
2.0334024775
 30
0.0
 11
1.0
 21
0.0
 31
0.0
 44
0.9
  1
C  2015 Banner Engineering Corp.
 40
0.08
 41
1.92
  0
DIMENSION
  5
2E0
100
AcDbEntity
  8
SCHEME_DIMS
100
AcDbDimension
 62
7
  6
CONTINUOUS
  2
*D0
 10
10.2149962462
 20
3.5588894636
 11
10.2149962462
 21
4.3632976727
 70
160
 71
2
 42
40.9343566289
  1
<>\P[]
  3
DIMSTYLE_1
100
AcDbAlignedDimension
 13
9.1820571626
 23
5.1704783073
 14
9.0245768477
 24
3.5588894636
 50
270.0
100
AcDbRotatedDimension
  0
DIMENSION
  5
2E1
100
AcDbEntity
  8
SCHEME_DIMS
100
AcDbDimension
 62
7
  6
CONTINUOUS
  2
*D1
 10
9.1820571626
 20
5.8832247426
 11
8.6789065852
 21
5.8082247426
 70
160
 71
2
 42
26.0
  1
<>\P[]
  3
DIMSTYLE_1
100
AcDbAlignedDimension
 13
8.1584351154
 23
5.1704783073
 14
9.1820571626
 24
5.1704783073
100
AcDbRotatedDimension
  0
DIMENSION
  5
2E2
100
AcDbEntity
  8
SCHEME_DIMS
100
AcDbDimension
 62
7
  6
CONTINUOUS
  2
*D2
 10
4.3550765664
 20
6.0582569176
 11
3.7479220292
 21
5.9832569176
 70
160
 71
2
 42
31.3876
  1
<>\P[]
  3
DIMSTYLE_1
100
AcDbAlignedDimension
 13
3.119344283
 23
4.6830731301
 14
4.3550765664
 24
4.6830731301
100
AcDbRotatedDimension
  0
DIMENSION
  5
2E3
100
AcDbEntity
  8
SCHEME_DIMS
100
AcDbDimension
 62
7
  6
CONTINUOUS
  2
*D3
 10
4.3080765664
 20
5.6663489382
 11
3.7845693908
 21
5.5913489382
 70
160
 71
2
 42
29.0
  1
<>\P[]
  3
DIMSTYLE_1
100
AcDbAlignedDimension
 13
3.166344283
 23
4.6830731301
 14
4.3080765664
 24
4.6830731301
100
AcDbRotatedDimension
  0
DIMENSION
  5
2E4
100
AcDbEntity
  8
SCHEME_DIMS
100
AcDbDimension
 62
7
  6
CONTINUOUS
  2
*D4
 10
4.2982340468
 20
3.0701463865
 11
3.7372104247
 21
3.0701463865
 70
160
 71
2
 42
28.5
  1
'A'\P<>\P[]
  3
DIMSTYLE_1
100
AcDbAlignedDimension
 13
3.1761868027
 23
3.6791361222
 14
4.2982340468
 24
3.6791361222
100
AcDbRotatedDimension
  0
DIMENSION
  5
2E5
100
AcDbEntity
  8
SCHEME_DIMS
100
AcDbDimension
 62
7
  6
CONTINUOUS
  2
*D5
 10
8.1092225169
 20
3.1706278203
 11
8.670246139
 21
3.1706278203
 70
160
 71
2
 42
28.5
  1
'B'\P<>\P[]
  3
DIMSTYLE_1
100
AcDbAlignedDimension
 13
9.231269761
 23
3.6791361222
 14
8.1092225169
 24
3.6791361222
 50
180.0
100
AcDbRotatedDimension
  0
DIMENSION
  5
2E6
100
AcDbEntity
  8
SCHEME_DIMS
100
AcDbDimension
 62
7
  6
CONTINUOUS
  2
*D6
 10
5.2332734168
 20
9.4316381163
 11
3.7372104247
 21
9.3566381163
 70
160
 71
2
 42
76.0
  1
<>\P[]
  3
DIMSTYLE_1
100
AcDbAlignedDimension
 13
2.2411474326
 23
8.7371728977
 14
5.2332734168
 24
8.7371728977
100
AcDbRotatedDimension
  0
DIMENSION
  5
2E7
100
AcDbEntity
  8
SCHEME_DIMS
100
AcDbDimension
 62
7
  6
CONTINUOUS
  2
*D7
 10
5.8097922724
 20
7.3985902206
 11
5.8097922724
 21
8.1109917954
 70
160
 71
2
 42
40.0
  1
<>\P[]
  3
DIMSTYLE_1
100
AcDbAlignedDimension
 13
4.9970529444
 23
8.9733933702
 14
4.9970529444
 24
7.3985902206
 50
270.0
100
AcDbRotatedDimension
  0
DIMENSION
  5
2E8
100
AcDbEntity
  8
SCHEME_DIMS
100
AcDbDimension
 62
7
  6
CONTINUOUS
  2
*D8
 10
5.5518021394
 20
3.8897660435
 11
6.1018021394
 21
4.2981170953
 70
160
 71
1
 42
2.65
  1
<>\P[]
  3
DIMSTYLE_2
100
AcDbAlignedDimension
 13
5.2332734168
 23
3.9940967521
 14
5.2332734168
 24
3.8897660435
 50
270.0
100
AcDbRotatedDimension
  0
DIMENSION
  5
2E9
100
AcDbEntity
  8
SCHEME_DIMS
100
AcDbDimension
 62
7
  6
CONTINUOUS
  2
*D9
 10
4.760832472
 20
7.040382575
 11
3.8160056286
 21
6.965382575
 70
160
 71
2
 42
52.0
  1
<>\P[]
  3
DIMSTYLE_1
100
AcDbAlignedDimension
 13
2.7135883775
 23
8.0895739489
 14
4.760832472
 24
8.0895739489
100
AcDbRotatedDimension
  0
DIMENSION
  5
2EA
100
AcDbEntity
  8
SCHEME_DIMS
100
AcDbDimension
 62
7
  6
CONTINUOUS
  2
*D10
 10
2.5439682158
 20
7.8662635091
 11
1.6050063909
 21
8.1859917954
 70
162
 71
2
 42
0.5235987756
  1
2X <>
  3
DIMSTYLE_3
100
AcDb2LineAngularDimension
 13
2.630671792
 23
8.4824879284
 14
2.6100762825
 24
8.4880064785
 15
2.5645637252
 25
7.8717820592
 16
1.6050063909
 26
8.1859917954
  0
ACAD_TABLE
  5
2EB
100
AcDbEntity
  8
0
 62
7
  6
CONTINUOUS
100
AcDbBlockReference
  2
*T1
 10
12.03
 20
0.887
 30
0.0
100
AcDbTable
342
       733
343
243
 11
1.0
 21
0.0
 31
0.0
 90
6
 91
3
 92
5
 93
4
 94
0
 95
0
 96
0
 70
1
141
0.33
141
0.45
141
1.14
142
0.65
142
1.15
142
1.025
142
1.075
142
0.45
171
1
172
0
173
0
174
0
175
1
176
1
 91
33
178
0
145
0.0
301
CELL_VALUE
 90
4
  1
 
304
ACVALUE_END
170
1
140
0.1
171
1
172
0
173
0
174
0
175
1
176
1
 91
33
178
0
145
0.0
301
CELL_VALUE
 90
4
  1
 
304
ACVALUE_END
170
1
140
0.1
171
1
172
0
173
0
174
0
175
1
176
1
 91
33
178
0
145
0.0
301
CELL_VALUE
 90
4
  1
 
304
ACVALUE_END
170
1
140
0.1
171
1
172
0
173
0
174
0
175
1
176
1
 91
33
178
0
145
0.0
301
CELL_VALUE
 90
4
  1
 
304
ACVALUE_END
170
1
140
0.1
171
1
172
0
173
0
174
0
175
1
176
1
 91
33
178
0
145
0.0
301
CELL_VALUE
 90
4
  1
 
304
ACVALUE_END
170
1
140
0.1
171
1
172
0
173
0
174
0
175
1
176
1
 91
33
178
0
145
0.0
301
CELL_VALUE
 90
4
  1
 
304
ACVALUE_END
170
1
140
0.1
171
1
172
0
173
0
174
0
175
1
176
1
 91
33
178
0
145
0.0
301
CELL_VALUE
 90
4
  1
 
304
ACVALUE_END
170
1
140
0.1
171
1
172
0
173
0
174
0
175
1
176
1
 91
33
178
0
145
0.0
301
CELL_VALUE
 90
4
  1
 
304
ACVALUE_END
170
1
140
0.1
171
1
172
0
173
0
174
0
175
1
176
1
 91
33
178
0
145
0.0
301
CELL_VALUE
 90
4
  1
 
304
ACVALUE_END
170
1
140
0.1
171
1
172
0
173
0
174
0
175
1
176
1
 91
41
178
0
145
0.0
301
CELL_VALUE
 90
4
  1
A
304
ACVALUE_END
170
8
140
0.1
 64
7
171
1
172
0
173
0
174
0
175
5
176
1
 91
33
178
0
145
0.0
301
CELL_VALUE
 90
4
  1
LMBWLB32PM-803694
304
ACVALUE_END
170
8
140
0.1
171
1
172
0
173
1
174
0
175
1
176
1
 91
1
178
0
145
0.0
170
1
171
1
172
0
173
1
174
0
175
1
176
1
 91
1
178
0
145
0.0
170
1
171
1
172
0
173
1
174
0
175
1
176
1
 91
1
178
0
145
0.0
170
1
171
1
172
0
173
1
174
0
175
1
176
1
 91
1
178
0
145
0.0
170
8
  0
LEADER
  5
2EC
100
AcDbEntity
  8
NOTES
100
AcDbLeader
 62
7
  6
CONTINUOUS
  3
STANDARD
 71
1
 72
0
 73
0
 75
0
 40
0.1
 41
0.7
 76
3
 10
3.8090009653
 20
4.4642790112
 30
0.0
 10
4.9685891248
 20
5.1698774668
 30
0.0
 10
5.2185891248
 20
5.1698774668
 30
0.0
340
2ED
1001
ACAD
1000
DSTYLE
1002
{
1070
77
1070
0
1002
}
  0
MTEXT
  5
2ED
102
{ACAD_REACTORS
330
2EC
102
}
100
AcDbEntity
  8
NOTES
100
AcDbMText
 62
7
  6
CONTINUOUS
  7
STANDARD
 71
1
 72
1
 10
5.2185891248
 20
5.2198774668
 30
0.0
 11
1.0
 21
0.0
 31
0.0
 44
0.9
  1
1" PIPE\PMOUNTING
 40
0.1
 41
0.8
  0
MTEXT
  5
2EE
100
AcDbEntity
  8
NOTES
100
AcDbMText
 62
7
  6
CONTINUOUS
  7
STANDARD
 71
2
 72
1
 10
13.6292378688
 20
7.30764724
 30
0.0
 11
1.0
 21
0.0
 31
0.0
 44
0.9
  1
ISOMETRIC VIEW\PLOCATION 'A' OF CLIP\PSCALE  1:1
 40
0.1
 41
2.0
  0
MTEXT
  5
2EF
100
AcDbEntity
  8
NOTES
100
AcDbMText
 62
7
  6
CONTINUOUS
  7
STANDARD
 71
2
 72
1
 10
13.6292378688
 20
4.3338273374
 30
0.0
 11
1.0
 21
0.0
 31
0.0
 44
0.9
  1
ISOMETRIC VIEW\PLOCATION 'B' OF CLIP\PSCALE  1:1
 40
0.1
 41
2.0
  0
LINE
  5
2F0
100
AcDbEntity
  8
0
100
AcDbLine
 62
7
  6
CONTINUOUS
 10
0.47
 20
5.586103
 11
0.47
 21
5.412897
  0
LINE
  5
2F1
100
AcDbEntity
  8
0
100
AcDbLine
 62
7
  6
CONTINUOUS
 10
0.62
 20
10.112
 11
0.62
 21
0.887
  0
LINE
  5
2F2
100
AcDbEntity
  8
0
100
AcDbLine
 62
7
  6
CONTINUOUS
 10
2.59
 20
0.887
 11
2.59
 21
0.637
  0
LINE
  5
2F3
100
AcDbEntity
  8
0
100
AcDbLine
 62
7
  6
CONTINUOUS
 10
2.59
 20
10.112
 11
2.59
 21
10.362
  0
LINE
  5
2F4
100
AcDbEntity
  8
0
100
AcDbLine
 62
7
  6
CONTINUOUS
 10
8.413397
 20
0.737
 11
8.586603
 21
0.737
  0
LINE
  5
2F5
100
AcDbEntity
  8
0
100
AcDbLine
 62
7
  6
CONTINUOUS
 10
11.1389508475
 20
1.425992839
 11
11.7453418475
 21
1.495385839
  0
LINE
  5
2F6
100
AcDbEntity
  8
0
100
AcDbLine
 62
7
  6
CONTINUOUS
 10
0.62
 20
0.887
 11
16.38
 21
0.887
  0
LINE
  5
2F7
100
AcDbEntity
  8
0
100
AcDbLine
 62
7
  6
CONTINUOUS
 10
12.03
 20
1.137
 11
16.38
 21
1.137
  0
LINE
  5
2F8
100
AcDbEntity
  8
0
100
AcDbLine
 62
7
  6
CONTINUOUS
 10
10.2121898475
 20
1.243294839
 11
10.4342808475
 21
1.243294839
  0
LINE
  5
2F9
100
AcDbEntity
  8
0
100
AcDbLine
 62
7
  6
CONTINUOUS
 10
10.4842808475
 20
1.243294839
 11
10.5842808475
 21
1.243294839
  0
LINE
  5
2FA
100
AcDbEntity
  8
0
100
AcDbLine
 62
7
  6
CONTINUOUS
 10
10.6342808475
 20
1.243294839
 11
10.8563718475
 21
1.243294839
  0
LINE
  5
2FB
100
AcDbEntity
  8
0
100
AcDbLine
 62
7
  6
CONTINUOUS
 10
11.0389508475
 20
1.243294839
 11
11.3171028475
 21
1.243294839
  0
LINE
  5
2FC
100
AcDbEntity
  8
0
100
AcDbLine
 62
7
  6
CONTINUOUS
 10
11.3671028475
 20
1.243294839
 11
11.5171888475
 21
1.243294839
  0
LINE
  5
2FD
100
AcDbEntity
  8
0
100
AcDbLine
 62
7
  6
CONTINUOUS
 10
11.5671888475
 20
1.243294839
 11
11.8453418475
 21
1.243294839
  0
LINE
  5
2FE
100
AcDbEntity
  8
0
100
AcDbLine
 62
7
  6
CONTINUOUS
 10
11.7453418475
 20
0.991203839
 11
11.1389508475
 21
1.060596839
  0
LINE
  5
2FF
100
AcDbEntity
  8
0
100
AcDbLine
 62
7
  6
CONTINUOUS
 10
4.56
 20
0.887
 11
4.56
 21
0.637
  0
LINE
  5
300
100
AcDbEntity
  8
0
100
AcDbLine
 62
7
  6
CONTINUOUS
 10
4.56
 20
10.112
 11
4.56
 21
10.362
  0
LINE
  5
301
100
AcDbEntity
  8
0
100
AcDbLine
 62
7
  6
CONTINUOUS
 10
0.47
 20
5.412897
 11
0.62
 21
5.4995
  0
LINE
  5
302
100
AcDbEntity
  8
0
100
AcDbLine
 62
7
  6
CONTINUOUS
 10
12.03
 20
1.507
 11
16.38
 21
1.507
  0
LINE
  5
303
100
AcDbEntity
  8
0
100
AcDbLine
 62
7
  6
CONTINUOUS
 10
10.03
 20
1.907
 11
12.03
 21
1.907
  0
LINE
  5
304
100
AcDbEntity
  8
0
100
AcDbLine
 62
7
  6
CONTINUOUS
 10
0.62
 20
5.4995
 11
0.47
 21
5.586103
  0
LINE
  5
305
100
AcDbEntity
  8
0
100
AcDbLine
 62
7
  6
CONTINUOUS
 10
12.03
 20
2.267
 11
16.38
 21
2.267
  0
LINE
  5
306
100
AcDbEntity
  8
0
100
AcDbLine
 62
7
  6
CONTINUOUS
 10
13.6042588488
 20
2.4912273132
 11
13.5568948225
 21
2.4912273132
  0
LINE
  5
307
100
AcDbEntity
  8
0
100
AcDbLine
 62
7
  6
CONTINUOUS
 10
13.5130037982
 20
2.4912273132
 11
13.3994327352
 21
2.4912273132
  0
LINE
  5
308
100
AcDbEntity
  8
0
100
AcDbLine
 62
7
  6
CONTINUOUS
 10
13.3705287192
 20
2.4912273132
 11
13.1673166065
 21
2.4912273132
  0
LINE
  5
309
100
AcDbEntity
  8
0
100
AcDbLine
 62
7
  6
CONTINUOUS
 10
13.1168435785
 20
2.4912273132
 11
13.0426375373
 21
2.4912273132
  0
LINE
  5
30A
100
AcDbEntity
  8
0
100
AcDbLine
 62
7
  6
CONTINUOUS
 10
12.9962575116
 20
2.4912273132
 11
12.9205934696
 21
2.4912273132
  0
LINE
  5
30B
100
AcDbEntity
  8
0
100
AcDbLine
 62
7
  6
CONTINUOUS
 10
12.8685904408
 20
2.4912273132
 11
12.7943853997
 21
2.4912273132
  0
LINE
  5
30C
100
AcDbEntity
  8
0
100
AcDbLine
 62
7
  6
CONTINUOUS
 10
12.7480043739
 20
2.4912273132
 11
12.672340332
 21
2.4912273132
  0
LINE
  5
30D
100
AcDbEntity
  8
0
100
AcDbLine
 62
7
  6
CONTINUOUS
 10
12.2055050731
 20
2.4912273132
 11
12.3819511709
 21
2.4912273132
  0
LINE
  5
30E
100
AcDbEntity
  8
0
100
AcDbLine
 62
7
  6
CONTINUOUS
 10
12.4394882028
 20
2.4912273132
 11
12.5168642458
 21
2.4912273132
  0
LINE
  5
30F
100
AcDbEntity
  8
0
100
AcDbLine
 62
7
  6
CONTINUOUS
 10
12.537150257
 20
2.4912273132
 11
12.6424313154
 21
2.4912273132
  0
LINE
  5
310
100
AcDbEntity
  8
0
100
AcDbLine
 62
7
  6
CONTINUOUS
 10
13.4883447845
 20
2.5159553269
 11
13.5130037982
 21
2.5159553269
  0
LINE
  5
311
100
AcDbEntity
  8
0
100
AcDbLine
 62
7
  6
CONTINUOUS
 10
12.6424313154
 20
2.515977327
 11
12.6224153043
 21
2.515977327
  0
LINE
  5
312
100
AcDbEntity
  8
0
100
AcDbLine
 62
7
  6
CONTINUOUS
 10
12.551601265
 20
2.515977327
 11
12.537150257
 21
2.515977327
  0
LINE
  5
313
100
AcDbEntity
  8
0
100
AcDbLine
 62
7
  6
CONTINUOUS
 10
12.5168642458
 20
2.515977327
 11
12.5055812395
 21
2.515977327
  0
LINE
  5
314
100
AcDbEntity
  8
0
100
AcDbLine
 62
7
  6
CONTINUOUS
 10
12.4623492155
 20
2.515977327
 11
12.4394882028
 21
2.515977327
  0
LINE
  5
315
100
AcDbEntity
  8
0
100
AcDbLine
 62
7
  6
CONTINUOUS
 10
12.3362731456
 20
2.515977327
 11
12.2949101227
 21
2.515977327
  0
LINE
  5
316
100
AcDbEntity
  8
0
100
AcDbLine
 62
7
  6
CONTINUOUS
 10
12.2294470864
 20
2.515977327
 11
12.2055050731
 21
2.515977327
  0
LINE
  5
317
100
AcDbEntity
  8
0
100
AcDbLine
 62
7
  6
CONTINUOUS
 10
12.672340332
 20
2.515977327
 11
12.6909873423
 21
2.515977327
  0
LINE
  5
318
100
AcDbEntity
  8
0
100
AcDbLine
 62
7
  6
CONTINUOUS
 10
12.7276873627
 20
2.515977327
 11
12.7480043739
 21
2.515977327
  0
LINE
  5
319
100
AcDbEntity
  8
0
100
AcDbLine
 62
7
  6
CONTINUOUS
 10
12.9205934696
 20
2.515977327
 11
12.93923948
 21
2.515977327
  0
LINE
  5
31A
100
AcDbEntity
  8
0
100
AcDbLine
 62
7
  6
CONTINUOUS
 10
12.9759405003
 20
2.515977327
 11
12.9962575116
 21
2.515977327
  0
LINE
  5
31B
100
AcDbEntity
  8
0
100
AcDbLine
 62
7
  6
CONTINUOUS
 10
13.1673166065
 20
2.515977327
 11
13.1912396197
 21
2.515977327
  0
LINE
  5
31C
100
AcDbEntity
  8
0
100
AcDbLine
 62
7
  6
CONTINUOUS
 10
13.2582556569
 20
2.515977327
 11
13.3232596929
 21
2.515977327
  0
LINE
  5
31D
100
AcDbEntity
  8
0
100
AcDbLine
 62
7
  6
CONTINUOUS
 10
13.3994327352
 20
2.515977327
 11
13.4221787478
 21
2.515977327
  0
LINE
  5
31E
100
AcDbEntity
  8
0
100
AcDbLine
 62
7
  6
CONTINUOUS
 10
13.6052818493
 20
2.5163643272
 11
13.60639085
 21
2.5163643272
  0
LINE
  5
31F
100
AcDbEntity
  8
0
100
AcDbLine
 62
7
  6
CONTINUOUS
 10
13.3282096957
 20
2.5291773343
 11
13.3705287192
 21
2.5291773343
  0
LINE
  5
320
100
AcDbEntity
  8
0
100
AcDbLine
 62
7
  6
CONTINUOUS
 10
12.5110972426
 20
2.5296213345
 11
12.5459752619
 21
2.5296213345
  0
LINE
  5
321
100
AcDbEntity
  8
0
100
AcDbLine
 62
7
  6
CONTINUOUS
 10
13.6171458559
 20
2.5301143348
 11
13.6292558626
 21
2.5301143348
  0
LINE
  5
322
100
AcDbEntity
  8
0
100
AcDbLine
 62
7
  6
CONTINUOUS
 10
13.5159517998
 20
2.5306043351
 11
13.4883447845
 21
2.5306043351
  0
LINE
  5
323
100
AcDbEntity
  8
0
100
AcDbLine
 62
7
  6
CONTINUOUS
 10
13.2934226764
 20
2.5324773361
 11
13.2582556569
 21
2.5324773361
  0
LINE
  5
324
100
AcDbEntity
  8
0
100
AcDbLine
 62
7
  6
CONTINUOUS
 10
12.2949101227
 20
2.5333023366
 11
12.3362731456
 21
2.5333023366
  0
LINE
  5
325
100
AcDbEntity
  8
0
100
AcDbLine
 62
7
  6
CONTINUOUS
 10
13.5222818033
 20
2.5496073456
 11
13.4883447845
 21
2.5496073456
  0
LINE
  5
326
100
AcDbEntity
  8
0
100
AcDbLine
 62
7
  6
CONTINUOUS
 10
12.2949101227
 20
2.5499573458
 11
12.3362731456
 21
2.5499573458
  0
LINE
  5
327
100
AcDbEntity
  8
0
100
AcDbLine
 62
7
  6
CONTINUOUS
 10
12.5196132473
 20
2.5505713461
 11
12.5401702587
 21
2.5505713461
  0
LINE
  5
328
100
AcDbEntity
  8
0
100
AcDbLine
 62
7
  6
CONTINUOUS
 10
13.2582556569
 20
2.5507823463
 11
13.2934226764
 21
2.5507823463
  0
LINE
  5
329
100
AcDbEntity
  8
0
100
AcDbLine
 62
7
  6
CONTINUOUS
 10
13.3691097184
 20
2.5540823481
 11
13.3272456952
 21
2.5540823481
  0
LINE
  5
32A
100
AcDbEntity
  8
0
100
AcDbLine
 62
7
  6
CONTINUOUS
 10
12.5329112547
 20
2.5667383551
 11
12.5267302512
 21
2.5667383551
  0
LINE
  5
32B
100
AcDbEntity
  8
0
100
AcDbLine
 62
7
  6
CONTINUOUS
 10
13.4221787478
 20
2.5672823554
 11
13.3994327352
 21
2.5672823554
  0
LINE
  5
32C
100
AcDbEntity
  8
0
100
AcDbLine
 62
7
  6
CONTINUOUS
 10
13.3222956924
 20
2.5672823554
 11
13.2582556569
 21
2.5672823554
  0
LINE
  5
32D
100
AcDbEntity
  8
0
100
AcDbLine
 62
7
  6
CONTINUOUS
 10
13.1912396197
 20
2.5672823554
 11
13.1673166065
 21
2.5672823554
  0
LINE
  5
32E
100
AcDbEntity
  8
0
100
AcDbLine
 62
7
  6
CONTINUOUS
 10
13.1397265912
 20
2.5672823554
 11
13.1217935812
 21
2.5672823554
  0
LINE
  5
32F
100
AcDbEntity
  8
0
100
AcDbLine
 62
7
  6
CONTINUOUS
 10
13.0845015605
 20
2.5672823554
 11
13.0657255501
 21
2.5672823554
  0
LINE
  5
330
100
AcDbEntity
  8
0
100
AcDbLine
 62
7
  6
CONTINUOUS
 10
12.93923948
 20
2.5672823554
 11
12.9205934696
 21
2.5672823554
  0
LINE
  5
331
100
AcDbEntity
  8
0
100
AcDbLine
 62
7
  6
CONTINUOUS
 10
12.8914734535
 20
2.5672823554
 11
12.8735404436
 21
2.5672823554
  0
LINE
  5
332
100
AcDbEntity
  8
0
100
AcDbLine
 62
7
  6
CONTINUOUS
 10
12.8362484229
 20
2.5672823554
 11
12.8174724125
 21
2.5672823554
  0
LINE
  5
333
100
AcDbEntity
  8
0
100
AcDbLine
 62
7
  6
CONTINUOUS
 10
12.6909873423
 20
2.5672823554
 11
12.672340332
 21
2.5672823554
  0
LINE
  5
334
100
AcDbEntity
  8
0
100
AcDbLine
 62
7
  6
CONTINUOUS
 10
12.3362731456
 20
2.5672823554
 11
12.2949101227
 21
2.5672823554
  0
LINE
  5
335
100
AcDbEntity
  8
0
100
AcDbLine
 62
7
  6
CONTINUOUS
 10
12.2055050731
 20
2.5672823554
 11
12.2294470864
 21
2.5672823554
  0
LINE
  5
336
100
AcDbEntity
  8
0
100
AcDbLine
 62
7
  6
CONTINUOUS
 10
13.4883447845
 20
2.5672823554
 11
13.5251458049
 21
2.5672823554
  0
LINE
  5
337
100
AcDbEntity
  8
0
100
AcDbLine
 62
7
  6
CONTINUOUS
 10
12.5705042755
 20
2.5920323691
 11
12.5133292438
 21
2.5920323691
  0
LINE
  5
338
100
AcDbEntity
  8
0
100
AcDbLine
 62
7
  6
CONTINUOUS
 10
12.3715681652
 20
2.5920323691
 11
12.2055050731
 21
2.5920323691
  0
LINE
  5
339
100
AcDbEntity
  8
0
100
AcDbLine
 62
7
  6
CONTINUOUS
 10
12.672340332
 20
2.5920323691
 11
12.7727983877
 21
2.5920323691
  0
LINE
  5
33A
100
AcDbEntity
  8
0
100
AcDbLine
 62
7
  6
CONTINUOUS
 10
12.8174724125
 20
2.5920323691
 11
12.8914734535
 21
2.5920323691
  0
LINE
  5
33B
100
AcDbEntity
  8
0
100
AcDbLine
 62
7
  6
CONTINUOUS
 10
12.9205934696
 20
2.5920323691
 11
13.0210515254
 21
2.5920323691
  0
LINE
  5
33C
100
AcDbEntity
  8
0
100
AcDbLine
 62
7
  6
CONTINUOUS
 10
13.0657255501
 20
2.5920323691
 11
13.1397265912
 21
2.5920323691
  0
LINE
  5
33D
100
AcDbEntity
  8
0
100
AcDbLine
 62
7
  6
CONTINUOUS
 10
13.1673166065
 20
2.5920323691
 11
13.3691097184
 21
2.5920323691
  0
LINE
  5
33E
100
AcDbEntity
  8
0
100
AcDbLine
 62
7
  6
CONTINUOUS
 10
13.3994327352
 20
2.5920323691
 11
13.5490138181
 21
2.5920323691
  0
LINE
  5
33F
100
AcDbEntity
  8
0
100
AcDbLine
 62
7
  6
CONTINUOUS
 10
12.4008351814
 20
2.5375433389
 11
12.3907841758
 21
2.5410923409
  0
LINE
  5
340
100
AcDbEntity
  8
0
100
AcDbLine
 62
7
  6
CONTINUOUS
 10
12.7926763987
 20
2.4919113136
 11
12.7293963636
 21
2.5522893471
  0
LINE
  5
341
100
AcDbEntity
  8
0
100
AcDbLine
 62
7
  6
CONTINUOUS
 10
12.7745063886
 20
2.5913483688
 11
12.8345394219
 21
2.534068337
  0
LINE
  5
342
100
AcDbEntity
  8
0
100
AcDbLine
 62
7
  6
CONTINUOUS
 10
13.0409295364
 20
2.4919113136
 11
12.9776495013
 21
2.5522893471
  0
LINE
  5
343
100
AcDbEntity
  8
0
100
AcDbLine
 62
7
  6
CONTINUOUS
 10
13.0227595263
 20
2.5913483688
 11
13.0827925596
 21
2.534068337
  0
LINE
  5
344
100
AcDbEntity
  8
0
100
AcDbLine
 62
7
  6
CONTINUOUS
 10
12.548053263
 20
2.5284903339
 11
12.5536792662
 21
2.5197973291
  0
LINE
  5
345
100
AcDbEntity
  8
0
100
AcDbLine
 62
7
  6
CONTINUOUS
 10
12.5422482598
 20
2.5543913483
 11
12.5349892558
 21
2.5656073545
  0
LINE
  5
346
100
AcDbEntity
  8
0
100
AcDbLine
 62
7
  6
CONTINUOUS
 10
12.6203383031
 20
2.5171073276
 11
12.5725822767
 21
2.5909023685
  0
LINE
  5
347
100
AcDbEntity
  8
0
100
AcDbLine
 62
7
  6
CONTINUOUS
 10
12.2030300717
 20
2.5895573678
 11
12.2030300717
 21
2.5697573568
  0
LINE
  5
348
100
AcDbEntity
  8
0
100
AcDbLine
 62
7
  6
CONTINUOUS
 10
12.2030300717
 20
2.5135023256
 11
12.2030300717
 21
2.4937023146
  0
LINE
  5
349
100
AcDbEntity
  8
0
100
AcDbLine
 62
7
  6
CONTINUOUS
 10
12.2319220877
 20
2.564807354
 11
12.2319220877
 21
2.5184523283
  0
LINE
  5
34A
100
AcDbEntity
  8
0
100
AcDbLine
 62
7
  6
CONTINUOUS
 10
12.2924351213
 20
2.564807354
 11
12.2924351213
 21
2.5524323472
  0
LINE
  5
34B
100
AcDbEntity
  8
0
100
AcDbLine
 62
7
  6
CONTINUOUS
 10
12.2924351213
 20
2.5184523283
 11
12.2924351213
 21
2.5308273352
  0
LINE
  5
34C
100
AcDbEntity
  8
0
100
AcDbLine
 62
7
  6
CONTINUOUS
 10
12.4370132015
 20
2.5135023256
 11
12.4370132015
 21
2.4937023146
  0
LINE
  5
34D
100
AcDbEntity
  8
0
100
AcDbLine
 62
7
  6
CONTINUOUS
 10
12.5193392471
 20
2.4937023146
 11
12.5193392471
 21
2.5135023256
  0
LINE
  5
34E
100
AcDbEntity
  8
0
100
AcDbLine
 62
7
  6
CONTINUOUS
 10
12.5346752556
 20
2.5135023256
 11
12.5346752556
 21
2.4937023146
  0
LINE
  5
34F
100
AcDbEntity
  8
0
100
AcDbLine
 62
7
  6
CONTINUOUS
 10
12.6449063168
 20
2.4937023146
 11
12.6449063168
 21
2.5135023256
  0
LINE
  5
350
100
AcDbEntity
  8
0
100
AcDbLine
 62
7
  6
CONTINUOUS
 10
12.6698653306
 20
2.4937023146
 11
12.6698653306
 21
2.5135023256
  0
LINE
  5
351
100
AcDbEntity
  8
0
100
AcDbLine
 62
7
  6
CONTINUOUS
 10
12.6698653306
 20
2.5697573568
 11
12.6698653306
 21
2.5895573678
  0
LINE
  5
352
100
AcDbEntity
  8
0
100
AcDbLine
 62
7
  6
CONTINUOUS
 10
12.6934623437
 20
2.5184523283
 11
12.6934623437
 21
2.564807354
  0
LINE
  5
353
100
AcDbEntity
  8
0
100
AcDbLine
 62
7
  6
CONTINUOUS
 10
12.7252123613
 20
2.5504983461
 11
12.7252123613
 21
2.5184523283
  0
LINE
  5
354
100
AcDbEntity
  8
0
100
AcDbLine
 62
7
  6
CONTINUOUS
 10
13.5375908118
 20
2.5092733232
 11
13.5357868108
 21
2.5153423266
  0
LINE
  5
355
100
AcDbEntity
  8
0
100
AcDbLine
 62
7
  6
CONTINUOUS
 10
12.7504793753
 20
2.5135023256
 11
12.7504793753
 21
2.4937023146
  0
LINE
  5
356
100
AcDbEntity
  8
0
100
AcDbLine
 62
7
  6
CONTINUOUS
 10
12.8149974111
 20
2.5697573568
 11
12.8149974111
 21
2.5895573678
  0
LINE
  5
357
100
AcDbEntity
  8
0
100
AcDbLine
 62
7
  6
CONTINUOUS
 10
12.8387234242
 20
2.535859338
 11
12.8387234242
 21
2.564807354
  0
LINE
  5
358
100
AcDbEntity
  8
0
100
AcDbLine
 62
7
  6
CONTINUOUS
 10
12.8710654422
 20
2.564807354
 11
12.8710654422
 21
2.4937023146
  0
LINE
  5
359
100
AcDbEntity
  8
0
100
AcDbLine
 62
7
  6
CONTINUOUS
 10
12.8939484549
 20
2.5895573678
 11
12.8939484549
 21
2.5697573568
  0
LINE
  5
35A
100
AcDbEntity
  8
0
100
AcDbLine
 62
7
  6
CONTINUOUS
 10
12.9181184683
 20
2.4937023146
 11
12.9181184683
 21
2.5135023256
  0
LINE
  5
35B
100
AcDbEntity
  8
0
100
AcDbLine
 62
7
  6
CONTINUOUS
 10
12.9181184683
 20
2.5697573568
 11
12.9181184683
 21
2.5895573678
  0
LINE
  5
35C
100
AcDbEntity
  8
0
100
AcDbLine
 62
7
  6
CONTINUOUS
 10
12.9417144814
 20
2.5184523283
 11
12.9417144814
 21
2.564807354
  0
LINE
  5
35D
100
AcDbEntity
  8
0
100
AcDbLine
 62
7
  6
CONTINUOUS
 10
12.973465499
 20
2.5504983461
 11
12.973465499
 21
2.5184523283
  0
LINE
  5
35E
100
AcDbEntity
  8
0
100
AcDbLine
 62
7
  6
CONTINUOUS
 10
12.998732513
 20
2.5135023256
 11
12.998732513
 21
2.4937023146
  0
LINE
  5
35F
100
AcDbEntity
  8
0
100
AcDbLine
 62
7
  6
CONTINUOUS
 10
13.0632505488
 20
2.5697573568
 11
13.0632505488
 21
2.5895573678
  0
LINE
  5
360
100
AcDbEntity
  8
0
100
AcDbLine
 62
7
  6
CONTINUOUS
 10
13.0869765619
 20
2.535859338
 11
13.0869765619
 21
2.564807354
  0
LINE
  5
361
100
AcDbEntity
  8
0
100
AcDbLine
 62
7
  6
CONTINUOUS
 10
13.1193185799
 20
2.564807354
 11
13.1193185799
 21
2.4937023146
  0
LINE
  5
362
100
AcDbEntity
  8
0
100
AcDbLine
 62
7
  6
CONTINUOUS
 10
13.1422015925
 20
2.5895573678
 11
13.1422015925
 21
2.5697573568
  0
LINE
  5
363
100
AcDbEntity
  8
0
100
AcDbLine
 62
7
  6
CONTINUOUS
 10
13.1648416051
 20
2.4937023146
 11
13.1648416051
 21
2.5135023256
  0
LINE
  5
364
100
AcDbEntity
  8
0
100
AcDbLine
 62
7
  6
CONTINUOUS
 10
13.1648416051
 20
2.5697573568
 11
13.1648416051
 21
2.5895573678
  0
LINE
  5
365
100
AcDbEntity
  8
0
100
AcDbLine
 62
7
  6
CONTINUOUS
 10
13.1937146211
 20
2.5184523283
 11
13.1937146211
 21
2.564807354
  0
LINE
  5
366
100
AcDbEntity
  8
0
100
AcDbLine
 62
7
  6
CONTINUOUS
 10
13.2557806555
 20
2.564807354
 11
13.2557806555
 21
2.5532573476
  0
LINE
  5
367
100
AcDbEntity
  8
0
100
AcDbLine
 62
7
  6
CONTINUOUS
 10
13.2557806555
 20
2.5300023347
 11
13.2557806555
 21
2.5184523283
  0
LINE
  5
368
100
AcDbEntity
  8
0
100
AcDbLine
 62
7
  6
CONTINUOUS
 10
13.2958976778
 20
2.5483073449
 11
13.2958976778
 21
2.5349523375
  0
LINE
  5
369
100
AcDbEntity
  8
0
100
AcDbLine
 62
7
  6
CONTINUOUS
 10
12.3907841758
 20
2.5410923409
 11
12.3990241804
 21
2.5458683435
  0
LINE
  5
36A
100
AcDbEntity
  8
0
100
AcDbLine
 62
7
  6
CONTINUOUS
 10
13.3247706938
 20
2.5565573495
 11
13.3247706938
 21
2.564807354
  0
LINE
  5
36B
100
AcDbEntity
  8
0
100
AcDbLine
 62
7
  6
CONTINUOUS
 10
13.3257346943
 20
2.5184523283
 11
13.3257346943
 21
2.5267023329
  0
LINE
  5
36C
100
AcDbEntity
  8
0
100
AcDbLine
 62
7
  6
CONTINUOUS
 10
13.3715847197
 20
2.5895573678
 11
13.3715847197
 21
2.5565573495
  0
LINE
  5
36D
100
AcDbEntity
  8
0
100
AcDbLine
 62
7
  6
CONTINUOUS
 10
13.3730037205
 20
2.5267023329
 11
13.3730037205
 21
2.4937023146
  0
LINE
  5
36E
100
AcDbEntity
  8
0
100
AcDbLine
 62
7
  6
CONTINUOUS
 10
13.3969577338
 20
2.4937023146
 11
13.3969577338
 21
2.5135023256
  0
LINE
  5
36F
100
AcDbEntity
  8
0
100
AcDbLine
 62
7
  6
CONTINUOUS
 10
13.3969577338
 20
2.5697573568
 11
13.3969577338
 21
2.5895573678
  0
LINE
  5
370
100
AcDbEntity
  8
0
100
AcDbLine
 62
7
  6
CONTINUOUS
 10
13.4246537492
 20
2.5184523283
 11
13.4246537492
 21
2.564807354
  0
LINE
  5
371
100
AcDbEntity
  8
0
100
AcDbLine
 62
7
  6
CONTINUOUS
 10
13.4858697831
 20
2.5281293337
 11
13.4858697831
 21
2.5184303283
  0
LINE
  5
372
100
AcDbEntity
  8
0
100
AcDbLine
 62
7
  6
CONTINUOUS
 10
13.4858697831
 20
2.552082347
 11
13.4858697831
 21
2.564807354
  0
LINE
  5
373
100
AcDbEntity
  8
0
100
AcDbLine
 62
7
  6
CONTINUOUS
 10
13.5154787995
 20
2.5134803256
 11
13.5154787995
 21
2.4937023146
  0
LINE
  5
374
100
AcDbEntity
  8
0
100
AcDbLine
 62
7
  6
CONTINUOUS
 10
13.6146708546
 20
2.525013332
 11
13.6146708546
 21
2.5276393334
  0
LINE
  5
375
100
AcDbEntity
  8
0
100
AcDbLine
 62
7
  6
CONTINUOUS
 10
13.631730864
 20
2.5276393334
 11
13.631730864
 21
2.516087327
  0
LINE
  5
376
100
AcDbEntity
  8
0
100
AcDbLine
 62
7
  6
CONTINUOUS
 10
13.7286871589
 20
2.5350697372
 11
13.7286871589
 21
2.5456869438
  0
LINE
  5
377
100
AcDbEntity
  8
0
100
AcDbLine
 62
7
  6
CONTINUOUS
 10
12.5112392426
 20
2.5908833685
 11
12.4644392167
 21
2.5171263276
  0
LINE
  5
378
100
AcDbEntity
  8
0
100
AcDbLine
 62
7
  6
CONTINUOUS
 10
12.5246402501
 20
2.5655893545
 11
12.5175232461
 21
2.5543723483
  0
LINE
  5
379
100
AcDbEntity
  8
0
100
AcDbLine
 62
7
  6
CONTINUOUS
 10
12.5034912383
 20
2.5197783291
 11
12.5090072414
 21
2.5284723339
  0
ARC
  5
37A
100
AcDbEntity
  8
0
100
AcDbCircle
 62
7
  6
CONTINUOUS
 10
12.7943847649
 20
2.4937027294
 40
0.0024754162
100
AcDbArc
 50
226.3593695813
 51
270.0146919953
  0
ARC
  5
37B
100
AcDbEntity
  8
0
100
AcDbCircle
 62
7
  6
CONTINUOUS
 10
12.2055050712
 20
2.4937023128
 40
0.0024749995
100
AcDbArc
 50
179.9999571957
 51
270.0000428043
  0
ARC
  5
37C
100
AcDbEntity
  8
0
100
AcDbCircle
 62
7
  6
CONTINUOUS
 10
12.8685904427
 20
2.4937023128
 40
0.0024749995
100
AcDbArc
 50
269.9999571957
 51
0.0000428043
  0
ARC
  5
37D
100
AcDbEntity
  8
0
100
AcDbCircle
 62
7
  6
CONTINUOUS
 10
12.7480043758
 20
2.4937023128
 40
0.0024749995
100
AcDbArc
 50
269.9999571957
 51
0.0000428043
  0
ARC
  5
37E
100
AcDbEntity
  8
0
100
AcDbCircle
 62
7
  6
CONTINUOUS
 10
12.6723403301
 20
2.4937023128
 40
0.0024749995
100
AcDbArc
 50
179.9999571957
 51
270.0000428043
  0
ARC
  5
37F
100
AcDbEntity
  8
0
100
AcDbCircle
 62
7
  6
CONTINUOUS
 10
12.5371502552
 20
2.4937023128
 40
0.0024749995
100
AcDbArc
 50
179.9999571957
 51
270.0000428043
  0
ARC
  5
380
100
AcDbEntity
  8
0
100
AcDbCircle
 62
7
  6
CONTINUOUS
 10
12.6424313172
 20
2.4937023128
 40
0.0024749995
100
AcDbArc
 50
269.9999571957
 51
0.0000428043
  0
ARC
  5
381
100
AcDbEntity
  8
0
100
AcDbCircle
 62
7
  6
CONTINUOUS
 10
12.439488201
 20
2.4937023128
 40
0.0024749995
100
AcDbArc
 50
179.9999571957
 51
270.0000428043
  0
ARC
  5
382
100
AcDbEntity
  8
0
100
AcDbCircle
 62
7
  6
CONTINUOUS
 10
12.5168642476
 20
2.4937023128
 40
0.0024749995
100
AcDbArc
 50
269.9999571957
 51
0.0000428043
  0
ARC
  5
383
100
AcDbEntity
  8
0
100
AcDbCircle
 62
7
  6
CONTINUOUS
 10
12.371573659
 20
2.5302846524
 40
0.061747717
100
AcDbArc
 50
59.5385584989
 51
90.0050977555
  0
ARC
  5
384
100
AcDbEntity
  8
0
100
AcDbCircle
 62
7
  6
CONTINUOUS
 10
12.3792298263
 20
2.539634765
 40
0.048483885
100
AcDbArc
 50
273.21763719
 51
303.0749121182
  0
ARC
  5
385
100
AcDbEntity
  8
0
100
AcDbCircle
 62
7
  6
CONTINUOUS
 10
12.3931760319
 20
2.5166878286
 40
0.0222174455
100
AcDbArc
 50
4.0793399388
 51
69.834329283
  0
ARC
  5
386
100
AcDbEntity
  8
0
100
AcDbCircle
 62
7
  6
CONTINUOUS
 10
12.3940692204
 20
2.5168671561
 40
0.0213072145
100
AcDbArc
 50
303.0488228549
 51
355.7263138674
  0
ARC
  5
387
100
AcDbEntity
  8
0
100
AcDbCircle
 62
7
  6
CONTINUOUS
 10
12.400005721
 20
2.5168763464
 40
0.0153945295
100
AcDbArc
 50
354.0454548824
 51
5.1878013979
  0
ARC
  5
388
100
AcDbEntity
  8
0
100
AcDbCircle
 62
7
  6
CONTINUOUS
 10
12.3362731456
 20
2.5246398318
 40
0.0086625048
100
AcDbArc
 50
270.0
 51
90.0
  0
ARC
  5
389
100
AcDbEntity
  8
0
100
AcDbCircle
 62
7
  6
CONTINUOUS
 10
12.5459747223
 20
2.5271458744
 40
0.0024754602
100
AcDbArc
 50
32.8959418573
 51
89.9875097202
  0
ARC
  5
38A
100
AcDbEntity
  8
0
100
AcDbCircle
 62
7
  6
CONTINUOUS
 10
12.4623492858
 20
2.5184525273
 40
0.0024752003
100
AcDbArc
 50
269.9983726451
 51
327.602165307
  0
ARC
  5
38B
100
AcDbEntity
  8
0
100
AcDbCircle
 62
7
  6
CONTINUOUS
 10
12.5110971723
 20
2.5271461342
 40
0.0024752003
100
AcDbArc
 50
89.998372645
 51
147.602165307
  0
ARC
  5
38C
100
AcDbEntity
  8
0
100
AcDbCircle
 62
7
  6
CONTINUOUS
 10
12.5055811302
 20
2.518452367
 40
0.0024750401
100
AcDbArc
 50
147.6063258011
 51
270.0025305754
  0
ARC
  5
38D
100
AcDbEntity
  8
0
100
AcDbCircle
 62
7
  6
CONTINUOUS
 10
12.2294470882
 20
2.5184523265
 40
0.0024749995
100
AcDbArc
 50
269.9999571957
 51
0.0000428043
  0
ARC
  5
38E
100
AcDbEntity
  8
0
100
AcDbCircle
 62
7
  6
CONTINUOUS
 10
12.2055050712
 20
2.5135023274
 40
0.0024749995
100
AcDbArc
 50
89.9999571957
 51
180.0000428043
  0
ARC
  5
38F
100
AcDbEntity
  8
0
100
AcDbCircle
 62
7
  6
CONTINUOUS
 10
12.2949101208
 20
2.530827337
 40
0.0024749995
100
AcDbArc
 50
89.9999571957
 51
180.0000428043
  0
ARC
  5
390
100
AcDbEntity
  8
0
100
AcDbCircle
 62
7
  6
CONTINUOUS
 10
12.2949101208
 20
2.5184523265
 40
0.0024749995
100
AcDbArc
 50
179.9999571957
 51
270.0000428043
  0
ARC
  5
391
100
AcDbEntity
  8
0
100
AcDbCircle
 62
7
  6
CONTINUOUS
 10
12.5371502552
 20
2.5135023274
 40
0.0024749995
100
AcDbArc
 50
89.9999571957
 51
180.0000428043
  0
ARC
  5
392
100
AcDbEntity
  8
0
100
AcDbCircle
 62
7
  6
CONTINUOUS
 10
12.439488201
 20
2.5135023274
 40
0.0024749995
100
AcDbArc
 50
89.9999571957
 51
180.0000428043
  0
ARC
  5
393
100
AcDbEntity
  8
0
100
AcDbCircle
 62
7
  6
CONTINUOUS
 10
12.5168642476
 20
2.5135023274
 40
0.0024749995
100
AcDbArc
 50
359.9999571957
 51
90.0000428043
  0
ARC
  5
394
100
AcDbEntity
  8
0
100
AcDbCircle
 62
7
  6
CONTINUOUS
 10
12.3771587979
 20
2.5826952352
 40
0.0428289026
100
AcDbArc
 50
300.6990502959
 51
319.0591802498
  0
ARC
  5
395
100
AcDbEntity
  8
0
100
AcDbCircle
 62
7
  6
CONTINUOUS
 10
12.3922357827
 20
2.5632132173
 40
0.0229166529
100
AcDbArc
 50
20.6563876465
 51
62.3316896973
  0
ARC
  5
396
100
AcDbEntity
  8
0
100
AcDbCircle
 62
7
  6
CONTINUOUS
 10
12.3971873948
 20
2.5665668817
 40
0.0171568255
100
AcDbArc
 50
315.9145124245
 51
16.0049121282
  0
ARC
  5
397
100
AcDbEntity
  8
0
100
AcDbCircle
 62
7
  6
CONTINUOUS
 10
12.3362731456
 20
2.5586198506
 40
0.0086625048
100
AcDbArc
 50
270.0
 51
90.0
  0
ARC
  5
398
100
AcDbEntity
  8
0
100
AcDbCircle
 62
7
  6
CONTINUOUS
 10
12.532910715
 20
2.564262895
 40
0.0024754602
100
AcDbArc
 50
32.8959418573
 51
89.9875097202
  0
ARC
  5
399
100
AcDbEntity
  8
0
100
AcDbCircle
 62
7
  6
CONTINUOUS
 10
12.5401702375
 20
2.5530465533
 40
0.0024752071
100
AcDbArc
 50
270.0004896793
 51
32.9089806818
  0
ARC
  5
39A
100
AcDbEntity
  8
0
100
AcDbCircle
 62
7
  6
CONTINUOUS
 10
12.5267301809
 20
2.5642631548
 40
0.0024752003
100
AcDbArc
 50
89.998372645
 51
147.602165307
  0
ARC
  5
39B
100
AcDbEntity
  8
0
100
AcDbCircle
 62
7
  6
CONTINUOUS
 10
12.5133291735
 20
2.5895571688
 40
0.0024752003
100
AcDbArc
 50
89.9983726451
 51
147.602165307
  0
ARC
  5
39C
100
AcDbEntity
  8
0
100
AcDbCircle
 62
7
  6
CONTINUOUS
 10
12.519613138
 20
2.5530463862
 40
0.0024750401
100
AcDbArc
 50
147.6063258012
 51
270.0025305754
  0
ARC
  5
39D
100
AcDbEntity
  8
0
100
AcDbCircle
 62
7
  6
CONTINUOUS
 10
12.2055050712
 20
2.5895573696
 40
0.0024749995
100
AcDbArc
 50
89.9999571957
 51
180.0000428043
  0
ARC
  5
39E
100
AcDbEntity
  8
0
100
AcDbCircle
 62
7
  6
CONTINUOUS
 10
12.2055050712
 20
2.5697573549
 40
0.0024749995
100
AcDbArc
 50
179.9999571957
 51
270.0000428043
  0
ARC
  5
39F
100
AcDbEntity
  8
0
100
AcDbCircle
 62
7
  6
CONTINUOUS
 10
12.2294470882
 20
2.5648073559
 40
0.0024749995
100
AcDbArc
 50
359.9999571957
 51
90.0000428043
  0
ARC
  5
3A0
100
AcDbEntity
  8
0
100
AcDbCircle
 62
7
  6
CONTINUOUS
 10
12.2949101208
 20
2.5648073559
 40
0.0024749995
100
AcDbArc
 50
89.9999571957
 51
180.0000428043
  0
ARC
  5
3A1
100
AcDbEntity
  8
0
100
AcDbCircle
 62
7
  6
CONTINUOUS
 10
12.2949101208
 20
2.5524323453
 40
0.0024749995
100
AcDbArc
 50
179.9999571957
 51
270.0000428043
  0
ARC
  5
3A2
100
AcDbEntity
  8
0
100
AcDbCircle
 62
7
  6
CONTINUOUS
 10
12.8362481229
 20
2.5358592748
 40
0.0024753014
100
AcDbArc
 50
226.3461263059
 51
0.0014637321
  0
ARC
  5
3A3
100
AcDbEntity
  8
0
100
AcDbCircle
 62
7
  6
CONTINUOUS
 10
12.7276876627
 20
2.5504984093
 40
0.0024753014
100
AcDbArc
 50
46.3461263059
 51
180.0014637321
  0
ARC
  5
3A4
100
AcDbEntity
  8
0
100
AcDbCircle
 62
7
  6
CONTINUOUS
 10
12.5516012439
 20
2.5184525341
 40
0.0024752071
100
AcDbArc
 50
270.0004896794
 51
32.9089806818
  0
ARC
  5
3A5
100
AcDbEntity
  8
0
100
AcDbCircle
 62
7
  6
CONTINUOUS
 10
12.7276873608
 20
2.5184523265
 40
0.0024749995
100
AcDbArc
 50
179.9999571957
 51
270.0000428043
  0
ARC
  5
3A6
100
AcDbEntity
  8
0
100
AcDbCircle
 62
7
  6
CONTINUOUS
 10
12.7480043758
 20
2.5135023274
 40
0.0024749995
100
AcDbArc
 50
359.9999571957
 51
90.0000428043
  0
ARC
  5
3A7
100
AcDbEntity
  8
0
100
AcDbCircle
 62
7
  6
CONTINUOUS
 10
12.6723403301
 20
2.5135023274
 40
0.0024749995
100
AcDbArc
 50
89.9999571957
 51
180.0000428043
  0
ARC
  5
3A8
100
AcDbEntity
  8
0
100
AcDbCircle
 62
7
  6
CONTINUOUS
 10
12.6909873442
 20
2.5184523265
 40
0.0024749995
100
AcDbArc
 50
269.9999571957
 51
0.0000428043
  0
ARC
  5
3A9
100
AcDbEntity
  8
0
100
AcDbCircle
 62
7
  6
CONTINUOUS
 10
12.6424313172
 20
2.5135023274
 40
0.0024749995
100
AcDbArc
 50
359.9999571957
 51
90.0000428043
  0
ARC
  5
3AA
100
AcDbEntity
  8
0
100
AcDbCircle
 62
7
  6
CONTINUOUS
 10
12.6224154248
 20
2.518451368
 40
0.002474041
100
AcDbArc
 50
212.9056413127
 51
269.9972091756
  0
ARC
  5
3AB
100
AcDbEntity
  8
0
100
AcDbCircle
 62
7
  6
CONTINUOUS
 10
12.8362484247
 20
2.5648073559
 40
0.0024749995
100
AcDbArc
 50
359.9999571957
 51
90.0000428043
  0
ARC
  5
3AC
100
AcDbEntity
  8
0
100
AcDbCircle
 62
7
  6
CONTINUOUS
 10
12.8174724106
 20
2.5697573549
 40
0.0024749995
100
AcDbArc
 50
179.9999571957
 51
270.0000428043
  0
ARC
  5
3AD
100
AcDbEntity
  8
0
100
AcDbCircle
 62
7
  6
CONTINUOUS
 10
12.8174724106
 20
2.5895573696
 40
0.0024749995
100
AcDbArc
 50
89.9999571957
 51
180.0000428043
  0
ARC
  5
3AE
100
AcDbEntity
  8
0
100
AcDbCircle
 62
7
  6
CONTINUOUS
 10
12.8914734553
 20
2.5895573696
 40
0.0024749995
100
AcDbArc
 50
359.9999571957
 51
90.0000428043
  0
ARC
  5
3AF
100
AcDbEntity
  8
0
100
AcDbCircle
 62
7
  6
CONTINUOUS
 10
12.8914734553
 20
2.5697573549
 40
0.0024749995
100
AcDbArc
 50
269.9999571957
 51
0.0000428043
  0
ARC
  5
3B0
100
AcDbEntity
  8
0
100
AcDbCircle
 62
7
  6
CONTINUOUS
 10
12.8735404417
 20
2.5648073559
 40
0.0024749995
100
AcDbArc
 50
89.9999571957
 51
180.0000428043
  0
ARC
  5
3B1
100
AcDbEntity
  8
0
100
AcDbCircle
 62
7
  6
CONTINUOUS
 10
12.6909873442
 20
2.5648073559
 40
0.0024749995
100
AcDbArc
 50
359.9999571957
 51
90.0000428043
  0
ARC
  5
3B2
100
AcDbEntity
  8
0
100
AcDbCircle
 62
7
  6
CONTINUOUS
 10
12.6723403301
 20
2.5697573549
 40
0.0024749995
100
AcDbArc
 50
179.9999571957
 51
270.0000428043
  0
ARC
  5
3B3
100
AcDbEntity
  8
0
100
AcDbCircle
 62
7
  6
CONTINUOUS
 10
12.6723403301
 20
2.5895573696
 40
0.0024749995
100
AcDbArc
 50
89.9999571957
 51
180.0000428043
  0
ARC
  5
3B4
100
AcDbEntity
  8
0
100
AcDbCircle
 62
7
  6
CONTINUOUS
 10
12.570504655
 20
2.589557409
 40
0.0024749602
100
AcDbArc
 50
32.9172174468
 51
90.0087853097
  0
ARC
  5
3B5
100
AcDbEntity
  8
0
100
AcDbCircle
 62
7
  6
CONTINUOUS
 10
12.7727985224
 20
2.5895582013
 40
0.0024741678
100
AcDbArc
 50
46.3477981899
 51
90.0031206038
  0
ARC
  5
3B6
100
AcDbEntity
  8
0
100
AcDbCircle
 62
7
  6
CONTINUOUS
 10
13.5463505148
 20
2.4094934586
 40
0.1825583387
100
AcDbArc
 50
79.8618509324
 51
89.1640948679
  0
ARC
  5
3B7
100
AcDbEntity
  8
0
100
AcDbCircle
 62
7
  6
CONTINUOUS
 10
13.5282557878
 20
2.4386010294
 40
0.117346916
100
AcDbArc
 50
58.614769177
 51
62.3737227606
  0
ARC
  5
3B8
100
AcDbEntity
  8
0
100
AcDbCircle
 62
7
  6
CONTINUOUS
 10
13.5571178432
 20
2.509473798
 40
0.0459185159
100
AcDbArc
 50
15.6740290068
 51
20.9917271228
  0
ARC
  5
3B9
100
AcDbEntity
  8
0
100
AcDbCircle
 62
7
  6
CONTINUOUS
 10
13.4974076135
 20
2.5055452462
 40
0.0396099176
100
AcDbArc
 50
14.3201081283
 51
22.4984722084
  0
ARC
  5
3BA
100
AcDbEntity
  8
0
100
AcDbCircle
 62
7
  6
CONTINUOUS
 10
13.5161192671
 20
2.5062372524
 40
0.0243676582
100
AcDbArc
 50
63.3666028271
 51
90.3937697637
  0
ARC
  5
3BB
100
AcDbEntity
  8
0
100
AcDbCircle
 62
7
  6
CONTINUOUS
 10
13.6036139387
 20
2.5111006186
 40
0.0198837666
100
AcDbArc
 50
271.8586572978
 51
289.4131338543
  0
ARC
  5
3BC
100
AcDbEntity
  8
0
100
AcDbCircle
 62
7
  6
CONTINUOUS
 10
13.5577001432
 20
2.5085494649
 40
0.0173408616
100
AcDbArc
 50
232.4713476722
 51
267.338189944
  0
ARC
  5
3BD
100
AcDbEntity
  8
0
100
AcDbCircle
 62
7
  6
CONTINUOUS
 10
13.5130038
 20
2.4937023128
 40
0.0024749995
100
AcDbArc
 50
269.9999571957
 51
0.0000428043
  0
ARC
  5
3BE
100
AcDbEntity
  8
0
100
AcDbCircle
 62
7
  6
CONTINUOUS
 10
13.3994327333
 20
2.4937023128
 40
0.0024749995
100
AcDbArc
 50
179.9999571957
 51
270.0000428043
  0
ARC
  5
3BF
100
AcDbEntity
  8
0
100
AcDbCircle
 62
7
  6
CONTINUOUS
 10
13.1168435803
 20
2.4937023128
 40
0.0024749995
100
AcDbArc
 50
269.9999571957
 51
0.0000428043
  0
ARC
  5
3C0
100
AcDbEntity
  8
0
100
AcDbCircle
 62
7
  6
CONTINUOUS
 10
12.9962575135
 20
2.4937023128
 40
0.0024749995
100
AcDbArc
 50
269.9999571957
 51
0.0000428043
  0
ARC
  5
3C1
100
AcDbEntity
  8
0
100
AcDbCircle
 62
7
  6
CONTINUOUS
 10
12.9205934678
 20
2.4937023128
 40
0.0024749995
100
AcDbArc
 50
179.9999571957
 51
270.0000428043
  0
ARC
  5
3C2
100
AcDbEntity
  8
0
100
AcDbCircle
 62
7
  6
CONTINUOUS
 10
13.370528721
 20
2.4937023128
 40
0.0024749995
100
AcDbArc
 50
269.9999571957
 51
0.0000428043
  0
ARC
  5
3C3
100
AcDbEntity
  8
0
100
AcDbCircle
 62
7
  6
CONTINUOUS
 10
13.1673166046
 20
2.4937023128
 40
0.0024749995
100
AcDbArc
 50
179.9999571957
 51
270.0000428043
  0
ARC
  5
3C4
100
AcDbEntity
  8
0
100
AcDbCircle
 62
7
  6
CONTINUOUS
 10
13.0426374026
 20
2.493701481
 40
0.0024741678
100
AcDbArc
 50
226.3477981898
 51
270.0031206038
  0
ARC
  5
3C5
100
AcDbEntity
  8
0
100
AcDbCircle
 62
7
  6
CONTINUOUS
 10
13.0845012605
 20
2.5358592748
 40
0.0024753014
100
AcDbArc
 50
226.3461263059
 51
0.0014637321
  0
ARC
  5
3C6
100
AcDbEntity
  8
0
100
AcDbCircle
 62
7
  6
CONTINUOUS
 10
12.9759408003
 20
2.5504984093
 40
0.0024753014
100
AcDbArc
 50
46.3461263059
 51
180.0014637321
  0
ARC
  5
3C7
100
AcDbEntity
  8
0
100
AcDbCircle
 62
7
  6
CONTINUOUS
 10
12.9759404985
 20
2.5184523265
 40
0.0024749995
100
AcDbArc
 50
179.9999571957
 51
270.0000428043
  0
ARC
  5
3C8
100
AcDbEntity
  8
0
100
AcDbCircle
 62
7
  6
CONTINUOUS
 10
12.9962575135
 20
2.5135023274
 40
0.0024749995
100
AcDbArc
 50
359.9999571957
 51
90.0000428043
  0
ARC
  5
3C9
100
AcDbEntity
  8
0
100
AcDbCircle
 62
7
  6
CONTINUOUS
 10
12.9205934678
 20
2.5135023274
 40
0.0024749995
100
AcDbArc
 50
89.9999571957
 51
180.0000428042
  0
ARC
  5
3CA
100
AcDbEntity
  8
0
100
AcDbCircle
 62
7
  6
CONTINUOUS
 10
12.9392394818
 20
2.5184523265
 40
0.0024749995
100
AcDbArc
 50
269.9999571957
 51
0.0000428043
  0
ARC
  5
3CB
100
AcDbEntity
  8
0
100
AcDbCircle
 62
7
  6
CONTINUOUS
 10
13.2582556551
 20
2.5300023366
 40
0.0024749995
100
AcDbArc
 50
89.9999571957
 51
180.0000428043
  0
ARC
  5
3CC
100
AcDbEntity
  8
0
100
AcDbCircle
 62
7
  6
CONTINUOUS
 10
13.2582556551
 20
2.5184523265
 40
0.0024749995
100
AcDbArc
 50
179.9999571957
 51
270.0000428043
  0
ARC
  5
3CD
100
AcDbEntity
  8
0
100
AcDbCircle
 62
7
  6
CONTINUOUS
 10
13.1673166046
 20
2.5135023274
 40
0.0024749995
100
AcDbArc
 50
89.9999571957
 51
180.0000428043
  0
ARC
  5
3CE
100
AcDbEntity
  8
0
100
AcDbCircle
 62
7
  6
CONTINUOUS
 10
13.1912396216
 20
2.5184523265
 40
0.0024749995
100
AcDbArc
 50
269.9999571957
 51
0.0000428042
  0
ARC
  5
3CF
100
AcDbEntity
  8
0
100
AcDbCircle
 62
7
  6
CONTINUOUS
 10
13.2582556551
 20
2.5532573458
 40
0.0024749995
100
AcDbArc
 50
179.9999571957
 51
270.0000428043
  0
ARC
  5
3D0
100
AcDbEntity
  8
0
100
AcDbCircle
 62
7
  6
CONTINUOUS
 10
13.0845015624
 20
2.5648073559
 40
0.0024749995
100
AcDbArc
 50
359.9999571957
 51
90.0000428043
  0
ARC
  5
3D1
100
AcDbEntity
  8
0
100
AcDbCircle
 62
7
  6
CONTINUOUS
 10
13.0657255483
 20
2.5697573549
 40
0.0024749995
100
AcDbArc
 50
179.9999571957
 51
270.0000428043
  0
ARC
  5
3D2
100
AcDbEntity
  8
0
100
AcDbCircle
 62
7
  6
CONTINUOUS
 10
13.0657255483
 20
2.5895573696
 40
0.0024749995
100
AcDbArc
 50
89.9999571957
 51
180.0000428043
  0
ARC
  5
3D3
100
AcDbEntity
  8
0
100
AcDbCircle
 62
7
  6
CONTINUOUS
 10
13.139726593
 20
2.5895573696
 40
0.0024749995
100
AcDbArc
 50
359.9999571957
 51
90.0000428043
  0
ARC
  5
3D4
100
AcDbEntity
  8
0
100
AcDbCircle
 62
7
  6
CONTINUOUS
 10
13.139726593
 20
2.5697573549
 40
0.0024749995
100
AcDbArc
 50
269.9999571957
 51
0.0000428042
  0
ARC
  5
3D5
100
AcDbEntity
  8
0
100
AcDbCircle
 62
7
  6
CONTINUOUS
 10
13.1217935794
 20
2.5648073559
 40
0.0024749995
100
AcDbArc
 50
89.9999571957
 51
180.0000428042
  0
ARC
  5
3D6
100
AcDbEntity
  8
0
100
AcDbCircle
 62
7
  6
CONTINUOUS
 10
12.9392394818
 20
2.5648073559
 40
0.0024749995
100
AcDbArc
 50
359.9999571957
 51
90.0000428043
  0
ARC
  5
3D7
100
AcDbEntity
  8
0
100
AcDbCircle
 62
7
  6
CONTINUOUS
 10
12.9205934678
 20
2.5697573549
 40
0.0024749995
100
AcDbArc
 50
179.9999571957
 51
270.0000428043
  0
ARC
  5
3D8
100
AcDbEntity
  8
0
100
AcDbCircle
 62
7
  6
CONTINUOUS
 10
12.9205934678
 20
2.5895573696
 40
0.0024749995
100
AcDbArc
 50
89.9999571957
 51
180.0000428042
  0
ARC
  5
3D9
100
AcDbEntity
  8
0
100
AcDbCircle
 62
7
  6
CONTINUOUS
 10
13.1912396216
 20
2.5648073559
 40
0.0024749995
100
AcDbArc
 50
359.9999571957
 51
90.0000428043
  0
ARC
  5
3DA
100
AcDbEntity
  8
0
100
AcDbCircle
 62
7
  6
CONTINUOUS
 10
13.1673166046
 20
2.5697573549
 40
0.0024749995
100
AcDbArc
 50
179.9999571957
 51
270.0000428043
  0
ARC
  5
3DB
100
AcDbEntity
  8
0
100
AcDbCircle
 62
7
  6
CONTINUOUS
 10
13.1673166046
 20
2.5895573696
 40
0.0024749995
100
AcDbArc
 50
89.9999571957
 51
180.0000428043
  0
ARC
  5
3DC
100
AcDbEntity
  8
0
100
AcDbCircle
 62
7
  6
CONTINUOUS
 10
13.2582556551
 20
2.5648073559
 40
0.0024749995
100
AcDbArc
 50
89.9999571957
 51
180.0000428043
  0
ARC
  5
3DD
100
AcDbEntity
  8
0
100
AcDbCircle
 62
7
  6
CONTINUOUS
 10
13.0210516601
 20
2.5895582013
 40
0.0024741678
100
AcDbArc
 50
46.3477981899
 51
90.0031206038
  0
ARC
  5
3DE
100
AcDbEntity
  8
0
100
AcDbCircle
 62
7
  6
CONTINUOUS
 10
13.5806801742
 20
2.5212486481
 40
0.044722495
100
AcDbArc
 50
195.531588407
 51
204.7624440448
  0
ARC
  5
3DF
100
AcDbEntity
  8
0
100
AcDbCircle
 62
7
  6
CONTINUOUS
 10
13.5726548052
 20
2.5503169747
 40
0.039319019
100
AcDbArc
 50
59.1202086415
 51
81.4730239328
  0
ARC
  5
3E0
100
AcDbEntity
  8
0
100
AcDbCircle
 62
7
  6
CONTINUOUS
 10
13.5978759713
 20
2.5286873679
 40
0.0383802683
100
AcDbArc
 50
288.7656836787
 51
309.6104317088
  0
ARC
  5
3E1
100
AcDbEntity
  8
0
100
AcDbCircle
 62
7
  6
CONTINUOUS
 10
13.5783142014
 20
2.5566516438
 40
0.0310192946
100
AcDbArc
 50
34.7540871
 51
62.0879016178
  0
ARC
  5
3E2
100
AcDbEntity
  8
0
100
AcDbCircle
 62
7
  6
CONTINUOUS
 10
13.5236009174
 20
2.5388278764
 40
0.0284963867
100
AcDbArc
 50
70.3834917948
 51
86.8922743861
  0
ARC
  5
3E3
100
AcDbEntity
  8
0
100
AcDbCircle
 62
7
  6
CONTINUOUS
 10
13.6048681567
 20
2.5210861501
 40
0.0280715479
100
AcDbArc
 50
308.5071794988
 51
332.24006569
  0
ARC
  5
3E4
100
AcDbEntity
  8
0
100
AcDbCircle
 62
7
  6
CONTINUOUS
 10
13.5750183849
 20
2.5166552064
 40
0.0266349791
100
AcDbArc
 50
20.3630922153
 51
37.9727053099
  0
ARC
  5
3E5
100
AcDbEntity
  8
0
100
AcDbCircle
 62
7
  6
CONTINUOUS
 10
13.5761387404
 20
2.5167282896
 40
0.0257145923
100
AcDbArc
 50
39.3804255939
 51
59.0361096173
  0
ARC
  5
3E6
100
AcDbEntity
  8
0
100
AcDbCircle
 62
7
  6
CONTINUOUS
 10
13.5607987082
 20
2.5143997688
 40
0.0238935861
100
AcDbArc
 50
209.8247607259
 51
235.1255079367
  0
ARC
  5
3E7
100
AcDbEntity
  8
0
100
AcDbCircle
 62
7
  6
CONTINUOUS
 10
13.6141751675
 20
2.5161916447
 40
0.0175560065
100
AcDbArc
 50
332.2279060967
 51
359.6595469939
  0
ARC
  5
3E8
100
AcDbEntity
  8
0
100
AcDbCircle
 62
7
  6
CONTINUOUS
 10
13.5201739219
 20
2.5145168728
 40
0.0151491919
100
AcDbArc
 50
24.098260853
 51
63.0369451818
  0
ARC
  5
3E9
100
AcDbEntity
  8
0
100
AcDbCircle
 62
7
  6
CONTINUOUS
 10
13.6156881783
 20
2.525116781
 40
0.0147197649
100
AcDbArc
 50
192.7054516565
 51
206.0594861022
  0
ARC
  5
3EA
100
AcDbEntity
  8
0
100
AcDbCircle
 62
7
  6
CONTINUOUS
 10
13.5284605274
 20
2.5518696094
 40
0.0145814632
100
AcDbArc
 50
54.6746025112
 51
71.1660573124
  0
ARC
  5
3EB
100
AcDbEntity
  8
0
100
AcDbCircle
 62
7
  6
CONTINUOUS
 10
13.6063292954
 20
2.5296129864
 40
0.0132488022
100
AcDbArc
 50
270.266200055
 51
281.2404888597
  0
ARC
  5
3EC
100
AcDbEntity
  8
0
100
AcDbCircle
 62
7
  6
CONTINUOUS
 10
13.6027235414
 20
2.524769508
 40
0.0119498009
100
AcDbArc
 50
340.7883861657
 51
1.1691452593
  0
ARC
  5
3ED
100
AcDbEntity
  8
0
100
AcDbCircle
 62
7
  6
CONTINUOUS
 10
13.5295131508
 20
2.5629115009
 40
0.0110815393
100
AcDbArc
 50
306.758405961
 51
320.4502234234
  0
ARC
  5
3EE
100
AcDbEntity
  8
0
100
AcDbCircle
 62
7
  6
CONTINUOUS
 10
13.6075235364
 20
2.5238762928
 40
0.0073895522
100
AcDbArc
 50
280.8288201977
 51
305.0837508495
  0
ARC
  5
3EF
100
AcDbEntity
  8
0
100
AcDbCircle
 62
7
  6
CONTINUOUS
 10
13.607924718
 20
2.5230254464
 40
0.0064647042
100
AcDbArc
 50
306.5086174083
 51
340.2162360092
  0
ARC
  5
3F0
100
AcDbEntity
  8
0
100
AcDbCircle
 62
7
  6
CONTINUOUS
 10
13.5335900184
 20
2.5587235346
 40
0.0060275915
100
AcDbArc
 50
20.9055592135
 51
56.7851676243
  0
ARC
  5
3F1
100
AcDbEntity
  8
0
100
AcDbCircle
 62
7
  6
CONTINUOUS
 10
13.533683767
 20
2.559677593
 40
0.0058087709
100
AcDbArc
 50
318.8515287446
 51
353.6422345323
  0
ARC
  5
3F2
100
AcDbEntity
  8
0
100
AcDbCircle
 62
7
  6
CONTINUOUS
 10
13.6071938412
 20
2.5209082945
 40
0.0052403997
100
AcDbArc
 50
205.5232099488
 51
227.5054868079
  0
ARC
  5
3F3
100
AcDbEntity
  8
0
100
AcDbCircle
 62
7
  6
CONTINUOUS
 10
13.5348905773
 20
2.5593838168
 40
0.0045795888
100
AcDbArc
 50
355.6235353944
 51
18.9942678268
  0
ARC
  5
3F4
100
AcDbEntity
  8
0
100
AcDbCircle
 62
7
  6
CONTINUOUS
 10
13.6054655419
 20
2.5190929218
 40
0.0027347709
100
AcDbArc
 50
228.5117626737
 51
266.1485845754
  0
ARC
  5
3F5
100
AcDbEntity
  8
0
100
AcDbCircle
 62
7
  6
CONTINUOUS
 10
13.4883447827
 20
2.5281293355
 40
0.0024749995
100
AcDbArc
 50
89.9999571957
 51
180.0000428043
  0
ARC
  5
3F6
100
AcDbEntity
  8
0
100
AcDbCircle
 62
7
  6
CONTINUOUS
 10
13.4883447827
 20
2.5184303265
 40
0.0024749995
100
AcDbArc
 50
179.9999571957
 51
270.0000428043
  0
ARC
  5
3F7
100
AcDbEntity
  8
0
100
AcDbCircle
 62
7
  6
CONTINUOUS
 10
13.5130038
 20
2.5134803274
 40
0.0024749995
100
AcDbArc
 50
359.9999571957
 51
90.0000428043
  0
ARC
  5
3F8
100
AcDbEntity
  8
0
100
AcDbCircle
 62
7
  6
CONTINUOUS
 10
13.3994327333
 20
2.5135023274
 40
0.0024749995
100
AcDbArc
 50
89.9999571957
 51
180.0000428043
  0
ARC
  5
3F9
100
AcDbEntity
  8
0
100
AcDbCircle
 62
7
  6
CONTINUOUS
 10
13.4221787497
 20
2.5184523265
 40
0.0024749995
100
AcDbArc
 50
269.9999571957
 51
0.0000428042
  0
ARC
  5
3FA
100
AcDbEntity
  8
0
100
AcDbCircle
 62
7
  6
CONTINUOUS
 10
13.6171458541
 20
2.5276393353
 40
0.0024749995
100
AcDbArc
 50
89.9999571957
 51
180.0000428043
  0
ARC
  5
3FB
100
AcDbEntity
  8
0
100
AcDbCircle
 62
7
  6
CONTINUOUS
 10
13.6292558645
 20
2.5276393353
 40
0.0024749995
100
AcDbArc
 50
359.9999571957
 51
90.0000428043
  0
ARC
  5
3FC
100
AcDbEntity
  8
0
100
AcDbCircle
 62
7
  6
CONTINUOUS
 10
13.4883447827
 20
2.5520823451
 40
0.0024749995
100
AcDbArc
 50
179.9999571957
 51
270.0000428043
  0
ARC
  5
3FD
100
AcDbEntity
  8
0
100
AcDbCircle
 62
7
  6
CONTINUOUS
 10
13.3232596948
 20
2.5184523265
 40
0.0024749995
100
AcDbArc
 50
269.9999571957
 51
0.0000428043
  0
ARC
  5
3FE
100
AcDbEntity
  8
0
100
AcDbCircle
 62
7
  6
CONTINUOUS
 10
13.3282096938
 20
2.5267023348
 40
0.0024749995
100
AcDbArc
 50
89.9999571957
 51
180.0000428043
  0
ARC
  5
3FF
100
AcDbEntity
  8
0
100
AcDbCircle
 62
7
  6
CONTINUOUS
 10
13.370528721
 20
2.5267023348
 40
0.0024749995
100
AcDbArc
 50
359.9999571957
 51
90.0000428043
  0
ARC
  5
400
100
AcDbEntity
  8
0
100
AcDbCircle
 62
7
  6
CONTINUOUS
 10
13.3691097202
 20
2.5565573476
 40
0.0024749995
100
AcDbArc
 50
269.9999571957
 51
0.0000428042
  0
ARC
  5
401
100
AcDbEntity
  8
0
100
AcDbCircle
 62
7
  6
CONTINUOUS
 10
13.3272456933
 20
2.5565573476
 40
0.0024749995
100
AcDbArc
 50
179.9999571957
 51
270.0000428043
  0
ARC
  5
402
100
AcDbEntity
  8
0
100
AcDbCircle
 62
7
  6
CONTINUOUS
 10
13.2934226783
 20
2.5483073467
 40
0.0024749995
100
AcDbArc
 50
359.9999571957
 51
90.0000428043
  0
ARC
  5
403
100
AcDbEntity
  8
0
100
AcDbCircle
 62
7
  6
CONTINUOUS
 10
13.2934226783
 20
2.5349523356
 40
0.0024749995
100
AcDbArc
 50
269.9999571957
 51
0.0000428042
  0
ARC
  5
404
100
AcDbEntity
  8
0
100
AcDbCircle
 62
7
  6
CONTINUOUS
 10
13.5519569538
 20
2.6152551345
 40
0.0789082104
100
AcDbArc
 50
292.906155071
 51
305.2574666259
  0
ARC
  5
405
100
AcDbEntity
  8
0
100
AcDbCircle
 62
7
  6
CONTINUOUS
 10
13.5822888914
 20
2.5720482849
 40
0.0261183659
100
AcDbArc
 50
305.6373831893
 51
329.9727629745
  0
ARC
  5
406
100
AcDbEntity
  8
0
100
AcDbCircle
 62
7
  6
CONTINUOUS
 10
13.5219564542
 20
2.5750459767
 40
0.0254407115
100
AcDbArc
 50
270.7327484175
 51
290.441894219
  0
ARC
  5
407
100
AcDbEntity
  8
0
100
AcDbCircle
 62
7
  6
CONTINUOUS
 10
13.5238839599
 20
2.5706523294
 40
0.0206523367
100
AcDbArc
 50
289.6883413472
 51
306.4184925496
  0
ARC
  5
408
100
AcDbEntity
  8
0
100
AcDbCircle
 62
7
  6
CONTINUOUS
 10
13.5900029525
 20
2.565201245
 40
0.0165459396
100
AcDbArc
 50
1.548452892
 51
33.5033152417
  0
ARC
  5
409
100
AcDbEntity
  8
0
100
AcDbCircle
 62
7
  6
CONTINUOUS
 10
13.5932995477
 20
2.5653696972
 40
0.0132462337
100
AcDbArc
 50
331.1510006998
 51
1.205404301
  0
ARC
  5
40A
100
AcDbEntity
  8
0
100
AcDbCircle
 62
7
  6
CONTINUOUS
 10
13.4221787497
 20
2.5648073559
 40
0.0024749995
100
AcDbArc
 50
359.9999571957
 51
90.0000428043
  0
ARC
  5
40B
100
AcDbEntity
  8
0
100
AcDbCircle
 62
7
  6
CONTINUOUS
 10
13.3994327333
 20
2.5697573549
 40
0.0024749995
100
AcDbArc
 50
179.9999571957
 51
270.0000428043
  0
ARC
  5
40C
100
AcDbEntity
  8
0
100
AcDbCircle
 62
7
  6
CONTINUOUS
 10
13.3994327333
 20
2.5895573696
 40
0.0024749995
100
AcDbArc
 50
89.9999571957
 51
180.0000428043
  0
ARC
  5
40D
100
AcDbEntity
  8
0
100
AcDbCircle
 62
7
  6
CONTINUOUS
 10
13.4883447827
 20
2.5648073559
 40
0.0024749995
100
AcDbArc
 50
89.9999571957
 51
180.0000428043
  0
ARC
  5
40E
100
AcDbEntity
  8
0
100
AcDbCircle
 62
7
  6
CONTINUOUS
 10
13.3691097202
 20
2.5895573696
 40
0.0024749995
100
AcDbArc
 50
359.9999571957
 51
90.0000428043
  0
ARC
  5
40F
100
AcDbEntity
  8
0
100
AcDbCircle
 62
7
  6
CONTINUOUS
 10
13.3222956943
 20
2.5648073559
 40
0.0024749995
100
AcDbArc
 50
359.9999571957
 51
90.0000428043
  0
ELLIPSE
  5
410
100
AcDbEntity
  8
0
100
AcDbEllipse
 62
7
  6
CONTINUOUS
 10
12.9046654608
 20
2.5403783405
 30
0.0
 11
-0.8250004575
 21
0.0
 31
0.0
 40
0.218572
 41
0.0
 42
6.2831853072
  0
HATCH
  5
411
100
AcDbEntity
  8
0
100
AcDbHatch
 62
7
  6
CONTINUOUS
 10
0.0
 20
0.0
 30
0.0
210
0.0
220
0.0
230
1.0
  2
XSEC0001
 70
1
 71
1
 91
11
 92
1
 93
57
 72
2
 10
13.5577001432
 20
2.5085494649
 40
0.0173408616
 50
232.4713476722
 51
267.338189944
 73
1
 72
2
 10
13.5607987082
 20
2.5143997688
 40
0.0238935861
 50
209.8247607259
 51
235.1255079367
 73
1
 72
2
 10
13.5806801742
 20
2.5212486481
 40
0.044722495
 50
195.531588407
 51
204.7624440448
 73
1
 72
1
 10
13.5375908118
 20
2.5092733232
 11
13.5357868108
 21
2.5153423266
 72
2
 10
13.4974076135
 20
2.5055452462
 40
0.0396099176
 50
14.3201081283
 51
22.4984722084
 73
1
 72
2
 10
13.5201739219
 20
2.5145168728
 40
0.0151491919
 50
24.098260853
 51
63.0369451818
 73
1
 72
2
 10
13.5161192671
 20
2.5062372524
 40
0.0243676582
 50
63.3666028271
 51
90.3937697637
 73
1
 72
1
 10
13.5159517998
 20
2.5306043351
 11
13.4883447845
 21
2.5306043351
 72
2
 10
13.4883447827
 20
2.5281293355
 40
0.0024749995
 50
89.9999571958
 51
180.0000428043
 73
1
 72
1
 10
13.4858697831
 20
2.5281293337
 11
13.4858697831
 21
2.5184303283
 72
2
 10
13.4883447827
 20
2.5184303265
 40
0.0024749995
 50
179.9999571957
 51
270.0000428042
 73
1
 72
1
 10
13.4883447845
 20
2.5159553269
 11
13.5130037982
 21
2.5159553269
 72
2
 10
13.5130038
 20
2.5134803274
 40
0.0024749995
 50
359.9999571957
 51
90.0000428042
 73
1
 72
1
 10
13.5154787995
 20
2.5134803256
 11
13.5154787995
 21
2.4937023146
 72
2
 10
13.5130038
 20
2.4937023128
 40
0.0024749995
 50
269.9999571958
 51
0.0000428043
 73
1
 72
1
 10
13.5130037982
 20
2.4912273132
 11
13.3994327352
 21
2.4912273132
 72
2
 10
13.3994327333
 20
2.4937023128
 40
0.0024749995
 50
179.9999571957
 51
270.0000428043
 73
1
 72
1
 10
13.3969577338
 20
2.4937023146
 11
13.3969577338
 21
2.5135023256
 72
2
 10
13.3994327333
 20
2.5135023274
 40
0.0024749995
 50
89.9999571957
 51
180.0000428043
 73
1
 72
1
 10
13.3994327352
 20
2.515977327
 11
13.4221787478
 21
2.515977327
 72
2
 10
13.4221787497
 20
2.5184523265
 40
0.0024749995
 50
269.9999571956
 51
0.0000428042
 73
1
 72
1
 10
13.4246537492
 20
2.5184523283
 11
13.4246537492
 21
2.564807354
 72
2
 10
13.4221787497
 20
2.5648073559
 40
0.0024749995
 50
359.9999571957
 51
90.0000428043
 73
1
 72
1
 10
13.4221787478
 20
2.5672823554
 11
13.3994327352
 21
2.5672823554
 72
2
 10
13.3994327333
 20
2.5697573549
 40
0.0024749995
 50
179.9999571957
 51
270.0000428043
 73
1
 72
1
 10
13.3969577338
 20
2.5697573568
 11
13.3969577338
 21
2.5895573678
 72
2
 10
13.3994327333
 20
2.5895573696
 40
0.0024749995
 50
89.9999571957
 51
180.0000428043
 73
1
 72
1
 10
13.3994327352
 20
2.5920323691
 11
13.5490138181
 21
2.5920323691
 72
2
 10
13.5463505148
 20
2.4094934586
 40
0.1825583387
 50
79.8618509324
 51
89.1640948679
 73
1
 72
2
 10
13.5726548052
 20
2.5503169747
 40
0.039319019
 50
59.1202086415
 51
81.4730239328
 73
1
 72
2
 10
13.5783142014
 20
2.5566516438
 40
0.0310192946
 50
34.7540871
 51
62.0879016178
 73
1
 72
2
 10
13.5900029525
 20
2.565201245
 40
0.0165459396
 50
1.548452892
 51
33.5033152417
 73
1
 72
2
 10
13.5932995477
 20
2.5653696972
 40
0.0132462337
 50
331.1510006998
 51
1.205404301
 73
1
 72
2
 10
13.5822888914
 20
2.5720482849
 40
0.0261183659
 50
305.6373831893
 51
329.9727629745
 73
1
 72
2
 10
13.5519569538
 20
2.6152551345
 40
0.0789082104
 50
292.906155071
 51
305.2574666259
 73
1
 72
2
 10
13.5282557878
 20
2.4386010294
 40
0.117346916
 50
58.614769177
 51
62.3737227606
 73
1
 72
2
 10
13.5761387404
 20
2.5167282896
 40
0.0257145923
 50
39.3804255939
 51
59.0361096173
 73
1
 72
2
 10
13.5750183849
 20
2.5166552064
 40
0.0266349791
 50
20.3630922153
 51
37.9727053099
 73
1
 72
2
 10
13.5571178432
 20
2.509473798
 40
0.0459185159
 50
15.6740290068
 51
20.9917271228
 73
1
 72
2
 10
13.6156881783
 20
2.525116781
 40
0.0147197649
 50
192.7054516565
 51
206.0594861022
 73
1
 72
2
 10
13.6071938412
 20
2.5209082945
 40
0.0052403997
 50
205.5232099488
 51
227.5054868079
 73
1
 72
2
 10
13.6054655419
 20
2.5190929218
 40
0.0027347709
 50
228.5117626737
 51
266.1485845754
 73
1
 72
1
 10
13.6052818493
 20
2.5163643272
 11
13.60639085
 21
2.5163643272
 72
2
 10
13.6063292954
 20
2.5296129864
 40
0.0132488022
 50
270.266200055
 51
281.2404888597
 73
1
 72
2
 10
13.6075235364
 20
2.5238762928
 40
0.0073895522
 50
280.8288201977
 51
305.0837508495
 73
1
 72
2
 10
13.607924718
 20
2.5230254464
 40
0.0064647042
 50
306.5086174083
 51
340.2162360092
 73
1
 72
2
 10
13.6027235414
 20
2.524769508
 40
0.0119498009
 50
340.7883861657
 51
1.1691452593
 73
1
 72
1
 10
13.6146708546
 20
2.525013332
 11
13.6146708546
 21
2.5276393334
 72
2
 10
13.6171458541
 20
2.5276393353
 40
0.0024749995
 50
89.9999571958
 51
180.0000428043
 73
1
 72
1
 10
13.6171458559
 20
2.5301143348
 11
13.6292558626
 21
2.5301143348
 72
2
 10
13.6292558645
 20
2.5276393353
 40
0.0024749995
 50
359.9999571957
 51
90.0000428042
 73
1
 72
1
 10
13.631730864
 20
2.5276393334
 11
13.631730864
 21
2.516087327
 72
2
 10
13.6141751675
 20
2.5161916447
 40
0.0175560065
 50
332.2279060967
 51
359.6595469939
 73
1
 72
2
 10
13.6048681567
 20
2.5210861501
 40
0.0280715479
 50
308.5071794988
 51
332.2400656899
 73
1
 72
2
 10
13.5978759713
 20
2.5286873679
 40
0.0383802683
 50
288.7656836787
 51
309.6104317088
 73
1
 72
2
 10
13.6036139387
 20
2.5111006186
 40
0.0198837666
 50
271.8586572978
 51
289.4131338543
 73
1
 72
1
 10
13.6042588488
 20
2.4912273132
 11
13.5568948225
 21
2.4912273132
 97
267
330
306
330
307
330
308
330
309
330
30A
330
30B
330
30C
330
30D
330
30E
330
30F
330
310
330
311
330
312
330
313
330
314
330
315
330
316
330
317
330
318
330
319
330
31A
330
31B
330
31C
330
31D
330
31E
330
31F
330
320
330
321
330
322
330
323
330
324
330
325
330
326
330
327
330
328
330
329
330
32A
330
32B
330
32C
330
32D
330
32E
330
32F
330
330
330
331
330
332
330
333
330
334
330
335
330
336
330
337
330
338
330
339
330
33A
330
33B
330
33C
330
33D
330
33E
330
33F
330
340
330
341
330
342
330
343
330
344
330
345
330
346
330
347
330
348
330
349
330
34A
330
34B
330
34C
330
34D
330
34E
330
34F
330
350
330
351
330
352
330
353
330
354
330
355
330
356
330
357
330
358
330
359
330
35A
330
35B
330
35C
330
35D
330
35E
330
35F
330
360
330
361
330
362
330
363
330
364
330
365
330
366
330
367
330
368
330
369
330
36A
330
36B
330
36C
330
36D
330
36E
330
36F
330
370
330
371
330
372
330
373
330
374
330
375
330
376
330
377
330
378
330
379
330
37A
330
37B
330
37C
330
37D
330
37E
330
37F
330
380
330
381
330
382
330
383
330
384
330
385
330
386
330
387
330
388
330
389
330
38A
330
38B
330
38C
330
38D
330
38E
330
38F
330
390
330
391
330
392
330
393
330
394
330
395
330
396
330
397
330
398
330
399
330
39A
330
39B
330
39C
330
39D
330
39E
330
39F
330
3A0
330
3A1
330
3A2
330
3A3
330
3A4
330
3A5
330
3A6
330
3A7
330
3A8
330
3A9
330
3AA
330
3AB
330
3AC
330
3AD
330
3AE
330
3AF
330
3B0
330
3B1
330
3B2
330
3B3
330
3B4
330
3B5
330
3B6
330
3B7
330
3B8
330
3B9
330
3BA
330
3BB
330
3BC
330
3BD
330
3BE
330
3BF
330
3C0
330
3C1
330
3C2
330
3C3
330
3C4
330
3C5
330
3C6
330
3C7
330
3C8
330
3C9
330
3CA
330
3CB
330
3CC
330
3CD
330
3CE
330
3CF
330
3D0
330
3D1
330
3D2
330
3D3
330
3D4
330
3D5
330
3D6
330
3D7
330
3D8
330
3D9
330
3DA
330
3DB
330
3DC
330
3DD
330
3DE
330
3DF
330
3E0
330
3E1
330
3E2
330
3E3
330
3E4
330
3E5
330
3E6
330
3E7
330
3E8
330
3E9
330
3EA
330
3EB
330
3EC
330
3ED
330
3EE
330
3EF
330
3F0
330
3F1
330
3F2
330
3F3
330
3F4
330
3F5
330
3F6
330
3F7
330
3F8
330
3F9
330
3FA
330
3FB
330
3FC
330
3FD
330
3FE
330
3FF
330
400
330
401
330
402
330
403
330
404
330
405
330
406
330
407
330
408
330
409
330
40A
330
40B
330
40C
330
40D
330
40E
330
40F
330
410
 92
1
 93
40
 72
2
 10
13.1673166046
 20
2.4937023128
 40
0.0024749995
 50
179.9999571957
 51
270.0000428042
 73
1
 72
1
 10
13.1648416051
 20
2.4937023146
 11
13.1648416051
 21
2.5135023256
 72
2
 10
13.1673166046
 20
2.5135023274
 40
0.0024749995
 50
89.9999571958
 51
180.0000428043
 73
1
 72
1
 10
13.1673166065
 20
2.515977327
 11
13.1912396197
 21
2.515977327
 72
2
 10
13.1912396216
 20
2.5184523265
 40
0.0024749995
 50
269.9999571956
 51
0.0000428042
 73
1
 72
1
 10
13.1937146211
 20
2.5184523283
 11
13.1937146211
 21
2.564807354
 72
2
 10
13.1912396216
 20
2.5648073559
 40
0.0024749995
 50
359.9999571957
 51
90.0000428043
 73
1
 72
1
 10
13.1912396197
 20
2.5672823554
 11
13.1673166065
 21
2.5672823554
 72
2
 10
13.1673166046
 20
2.5697573549
 40
0.0024749995
 50
179.9999571957
 51
270.0000428043
 73
1
 72
1
 10
13.1648416051
 20
2.5697573568
 11
13.1648416051
 21
2.5895573678
 72
2
 10
13.1673166046
 20
2.5895573696
 40
0.0024749995
 50
89.9999571958
 51
180.0000428043
 73
1
 72
1
 10
13.1673166065
 20
2.5920323691
 11
13.3691097184
 21
2.5920323691
 72
2
 10
13.3691097202
 20
2.5895573696
 40
0.0024749995
 50
359.9999571957
 51
90.0000428042
 73
1
 72
1
 10
13.3715847197
 20
2.5895573678
 11
13.3715847197
 21
2.5565573495
 72
2
 10
13.3691097202
 20
2.5565573476
 40
0.0024749995
 50
269.9999571956
 51
0.0000428042
 73
1
 72
1
 10
13.3691097184
 20
2.5540823481
 11
13.3272456952
 21
2.5540823481
 72
2
 10
13.3272456933
 20
2.5565573476
 40
0.0024749995
 50
179.9999571957
 51
270.0000428043
 73
1
 72
1
 10
13.3247706938
 20
2.5565573495
 11
13.3247706938
 21
2.564807354
 72
2
 10
13.3222956943
 20
2.5648073559
 40
0.0024749995
 50
359.9999571957
 51
90.0000428043
 73
1
 72
1
 10
13.3222956924
 20
2.5672823554
 11
13.2582556569
 21
2.5672823554
 72
2
 10
13.2582556551
 20
2.5648073559
 40
0.0024749995
 50
89.9999571957
 51
180.0000428043
 73
1
 72
1
 10
13.2557806555
 20
2.564807354
 11
13.2557806555
 21
2.5532573476
 72
2
 10
13.2582556551
 20
2.5532573458
 40
0.0024749995
 50
179.9999571957
 51
270.0000428042
 73
1
 72
1
 10
13.2582556569
 20
2.5507823463
 11
13.2934226764
 21
2.5507823463
 72
2
 10
13.2934226783
 20
2.5483073467
 40
0.0024749995
 50
359.9999571957
 51
90.0000428042
 73
1
 72
1
 10
13.2958976778
 20
2.5483073449
 11
13.2958976778
 21
2.5349523375
 72
2
 10
13.2934226783
 20
2.5349523356
 40
0.0024749995
 50
269.9999571956
 51
0.0000428042
 73
1
 72
1
 10
13.2934226764
 20
2.5324773361
 11
13.2582556569
 21
2.5324773361
 72
2
 10
13.2582556551
 20
2.5300023366
 40
0.0024749995
 50
89.9999571957
 51
180.0000428043
 73
1
 72
1
 10
13.2557806555
 20
2.5300023347
 11
13.2557806555
 21
2.5184523283
 72
2
 10
13.2582556551
 20
2.5184523265
 40
0.0024749995
 50
179.9999571957
 51
270.0000428043
 73
1
 72
1
 10
13.2582556569
 20
2.515977327
 11
13.3232596929
 21
2.515977327
 72
2
 10
13.3232596948
 20
2.5184523265
 40
0.0024749995
 50
269.9999571958
 51
0.0000428043
 73
1
 72
1
 10
13.3257346943
 20
2.5184523283
 11
13.3257346943
 21
2.5267023329
 72
2
 10
13.3282096938
 20
2.5267023348
 40
0.0024749995
 50
89.9999571957
 51
180.0000428043
 73
1
 72
1
 10
13.3282096957
 20
2.5291773343
 11
13.3705287192
 21
2.5291773343
 72
2
 10
13.370528721
 20
2.5267023348
 40
0.0024749995
 50
359.9999571957
 51
90.0000428043
 73
1
 72
1
 10
13.3730037205
 20
2.5267023329
 11
13.3730037205
 21
2.4937023146
 72
2
 10
13.370528721
 20
2.4937023128
 40
0.0024749995
 50
269.9999571957
 51
0.0000428043
 73
1
 72
1
 10
13.3705287192
 20
2.4912273132
 11
13.1673166065
 21
2.4912273132
 97
267
330
306
330
307
330
308
330
309
330
30A
330
30B
330
30C
330
30D
330
30E
330
30F
330
310
330
311
330
312
330
313
330
314
330
315
330
316
330
317
330
318
330
319
330
31A
330
31B
330
31C
330
31D
330
31E
330
31F
330
320
330
321
330
322
330
323
330
324
330
325
330
326
330
327
330
328
330
329
330
32A
330
32B
330
32C
330
32D
330
32E
330
32F
330
330
330
331
330
332
330
333
330
334
330
335
330
336
330
337
330
338
330
339
330
33A
330
33B
330
33C
330
33D
330
33E
330
33F
330
340
330
341
330
342
330
343
330
344
330
345
330
346
330
347
330
348
330
349
330
34A
330
34B
330
34C
330
34D
330
34E
330
34F
330
350
330
351
330
352
330
353
330
354
330
355
330
356
330
357
330
358
330
359
330
35A
330
35B
330
35C
330
35D
330
35E
330
35F
330
360
330
361
330
362
330
363
330
364
330
365
330
366
330
367
330
368
330
369
330
36A
330
36B
330
36C
330
36D
330
36E
330
36F
330
370
330
371
330
372
330
373
330
374
330
375
330
376
330
377
330
378
330
379
330
37A
330
37B
330
37C
330
37D
330
37E
330
37F
330
380
330
381
330
382
330
383
330
384
330
385
330
386
330
387
330
388
330
389
330
38A
330
38B
330
38C
330
38D
330
38E
330
38F
330
390
330
391
330
392
330
393
330
394
330
395
330
396
330
397
330
398
330
399
330
39A
330
39B
330
39C
330
39D
330
39E
330
39F
330
3A0
330
3A1
330
3A2
330
3A3
330
3A4
330
3A5
330
3A6
330
3A7
330
3A8
330
3A9
330
3AA
330
3AB
330
3AC
330
3AD
330
3AE
330
3AF
330
3B0
330
3B1
330
3B2
330
3B3
330
3B4
330
3B5
330
3B6
330
3B7
330
3B8
330
3B9
330
3BA
330
3BB
330
3BC
330
3BD
330
3BE
330
3BF
330
3C0
330
3C1
330
3C2
330
3C3
330
3C4
330
3C5
330
3C6
330
3C7
330
3C8
330
3C9
330
3CA
330
3CB
330
3CC
330
3CD
330
3CE
330
3CF
330
3D0
330
3D1
330
3D2
330
3D3
330
3D4
330
3D5
330
3D6
330
3D7
330
3D8
330
3D9
330
3DA
330
3DB
330
3DC
330
3DD
330
3DE
330
3DF
330
3E0
330
3E1
330
3E2
330
3E3
330
3E4
330
3E5
330
3E6
330
3E7
330
3E8
330
3E9
330
3EA
330
3EB
330
3EC
330
3ED
330
3EE
330
3EF
330
3F0
330
3F1
330
3F2
330
3F3
330
3F4
330
3F5
330
3F6
330
3F7
330
3F8
330
3F9
330
3FA
330
3FB
330
3FC
330
3FD
330
3FE
330
3FF
330
400
330
401
330
402
330
403
330
404
330
405
330
406
330
407
330
408
330
409
330
40A
330
40B
330
40C
330
40D
330
40E
330
40F
330
410
 92
1
 93
40
 72
2
 10
13.0426374026
 20
2.493701481
 40
0.0024741678
 50
226.3477981898
 51
270.0031206038
 73
1
 72
1
 10
13.0409295364
 20
2.4919113136
 11
12.9776495013
 21
2.5522893471
 72
2
 10
12.9759408003
 20
2.5504984093
 40
0.0024753014
 50
46.3461263059
 51
180.0014637321
 73
1
 72
1
 10
12.973465499
 20
2.5504983461
 11
12.973465499
 21
2.5184523283
 72
2
 10
12.9759404985
 20
2.5184523265
 40
0.0024749995
 50
179.9999571957
 51
270.0000428043
 73
1
 72
1
 10
12.9759405003
 20
2.515977327
 11
12.9962575116
 21
2.515977327
 72
2
 10
12.9962575135
 20
2.5135023274
 40
0.0024749995
 50
359.9999571957
 51
90.0000428043
 73
1
 72
1
 10
12.998732513
 20
2.5135023256
 11
12.998732513
 21
2.4937023146
 72
2
 10
12.9962575135
 20
2.4937023128
 40
0.0024749995
 50
269.9999571957
 51
0.0000428043
 73
1
 72
1
 10
12.9962575116
 20
2.4912273132
 11
12.9205934696
 21
2.4912273132
 72
2
 10
12.9205934678
 20
2.4937023128
 40
0.0024749995
 50
179.9999571957
 51
270.0000428043
 73
1
 72
1
 10
12.9181184683
 20
2.4937023146
 11
12.9181184683
 21
2.5135023256
 72
2
 10
12.9205934678
 20
2.5135023274
 40
0.0024749995
 50
89.9999571956
 51
180.0000428042
 73
1
 72
1
 10
12.9205934696
 20
2.515977327
 11
12.93923948
 21
2.515977327
 72
2
 10
12.9392394818
 20
2.5184523265
 40
0.0024749995
 50
269.9999571957
 51
0.0000428043
 73
1
 72
1
 10
12.9417144814
 20
2.5184523283
 11
12.9417144814
 21
2.564807354
 72
2
 10
12.9392394818
 20
2.5648073559
 40
0.0024749995
 50
359.9999571957
 51
90.0000428043
 73
1
 72
1
 10
12.93923948
 20
2.5672823554
 11
12.9205934696
 21
2.5672823554
 72
2
 10
12.9205934678
 20
2.5697573549
 40
0.0024749995
 50
179.9999571957
 51
270.0000428043
 73
1
 72
1
 10
12.9181184683
 20
2.5697573568
 11
12.9181184683
 21
2.5895573678
 72
2
 10
12.9205934678
 20
2.5895573696
 40
0.0024749995
 50
89.9999571956
 51
180.0000428042
 73
1
 72
1
 10
12.9205934696
 20
2.5920323691
 11
13.0210515254
 21
2.5920323691
 72
2
 10
13.0210516601
 20
2.5895582013
 40
0.0024741678
 50
46.3477981898
 51
90.0031206038
 73
1
 72
1
 10
13.0227595263
 20
2.5913483688
 11
13.0827925596
 21
2.534068337
 72
2
 10
13.0845012605
 20
2.5358592748
 40
0.0024753014
 50
226.3461263059
 51
0.0014637321
 73
1
 72
1
 10
13.0869765619
 20
2.535859338
 11
13.0869765619
 21
2.564807354
 72
2
 10
13.0845015624
 20
2.5648073559
 40
0.0024749995
 50
359.9999571957
 51
90.0000428043
 73
1
 72
1
 10
13.0845015605
 20
2.5672823554
 11
13.0657255501
 21
2.5672823554
 72
2
 10
13.0657255483
 20
2.5697573549
 40
0.0024749995
 50
179.9999571957
 51
270.0000428043
 73
1
 72
1
 10
13.0632505488
 20
2.5697573568
 11
13.0632505488
 21
2.5895573678
 72
2
 10
13.0657255483
 20
2.5895573696
 40
0.0024749995
 50
89.9999571957
 51
180.0000428043
 73
1
 72
1
 10
13.0657255501
 20
2.5920323691
 11
13.1397265912
 21
2.5920323691
 72
2
 10
13.139726593
 20
2.5895573696
 40
0.0024749995
 50
359.9999571957
 51
90.0000428043
 73
1
 72
1
 10
13.1422015925
 20
2.5895573678
 11
13.1422015925
 21
2.5697573568
 72
2
 10
13.139726593
 20
2.5697573549
 40
0.0024749995
 50
269.9999571956
 51
0.0000428042
 73
1
 72
1
 10
13.1397265912
 20
2.5672823554
 11
13.1217935812
 21
2.5672823554
 72
2
 10
13.1217935794
 20
2.5648073559
 40
0.0024749995
 50
89.9999571957
 51
180.0000428042
 73
1
 72
1
 10
13.1193185799
 20
2.564807354
 11
13.1193185799
 21
2.4937023146
 72
2
 10
13.1168435803
 20
2.4937023128
 40
0.0024749995
 50
269.9999571957
 51
0.0000428043
 73
1
 72
1
 10
13.1168435785
 20
2.4912273132
 11
13.0426375373
 21
2.4912273132
 97
267
330
306
330
307
330
308
330
309
330
30A
330
30B
330
30C
330
30D
330
30E
330
30F
330
310
330
311
330
312
330
313
330
314
330
315
330
316
330
317
330
318
330
319
330
31A
330
31B
330
31C
330
31D
330
31E
330
31F
330
320
330
321
330
322
330
323
330
324
330
325
330
326
330
327
330
328
330
329
330
32A
330
32B
330
32C
330
32D
330
32E
330
32F
330
330
330
331
330
332
330
333
330
334
330
335
330
336
330
337
330
338
330
339
330
33A
330
33B
330
33C
330
33D
330
33E
330
33F
330
340
330
341
330
342
330
343
330
344
330
345
330
346
330
347
330
348
330
349
330
34A
330
34B
330
34C
330
34D
330
34E
330
34F
330
350
330
351
330
352
330
353
330
354
330
355
330
356
330
357
330
358
330
359
330
35A
330
35B
330
35C
330
35D
330
35E
330
35F
330
360
330
361
330
362
330
363
330
364
330
365
330
366
330
367
330
368
330
369
330
36A
330
36B
330
36C
330
36D
330
36E
330
36F
330
370
330
371
330
372
330
373
330
374
330
375
330
376
330
377
330
378
330
379
330
37A
330
37B
330
37C
330
37D
330
37E
330
37F
330
380
330
381
330
382
330
383
330
384
330
385
330
386
330
387
330
388
330
389
330
38A
330
38B
330
38C
330
38D
330
38E
330
38F
330
390
330
391
330
392
330
393
330
394
330
395
330
396
330
397
330
398
330
399
330
39A
330
39B
330
39C
330
39D
330
39E
330
39F
330
3A0
330
3A1
330
3A2
330
3A3
330
3A4
330
3A5
330
3A6
330
3A7
330
3A8
330
3A9
330
3AA
330
3AB
330
3AC
330
3AD
330
3AE
330
3AF
330
3B0
330
3B1
330
3B2
330
3B3
330
3B4
330
3B5
330
3B6
330
3B7
330
3B8
330
3B9
330
3BA
330
3BB
330
3BC
330
3BD
330
3BE
330
3BF
330
3C0
330
3C1
330
3C2
330
3C3
330
3C4
330
3C5
330
3C6
330
3C7
330
3C8
330
3C9
330
3CA
330
3CB
330
3CC
330
3CD
330
3CE
330
3CF
330
3D0
330
3D1
330
3D2
330
3D3
330
3D4
330
3D5
330
3D6
330
3D7
330
3D8
330
3D9
330
3DA
330
3DB
330
3DC
330
3DD
330
3DE
330
3DF
330
3E0
330
3E1
330
3E2
330
3E3
330
3E4
330
3E5
330
3E6
330
3E7
330
3E8
330
3E9
330
3EA
330
3EB
330
3EC
330
3ED
330
3EE
330
3EF
330
3F0
330
3F1
330
3F2
330
3F3
330
3F4
330
3F5
330
3F6
330
3F7
330
3F8
330
3F9
330
3FA
330
3FB
330
3FC
330
3FD
330
3FE
330
3FF
330
400
330
401
330
402
330
403
330
404
330
405
330
406
330
407
330
408
330
409
330
40A
330
40B
330
40C
330
40D
330
40E
330
40F
330
410
 92
1
 93
40
 72
2
 10
12.7943847649
 20
2.4937027294
 40
0.0024754162
 50
226.3593695813
 51
270.0146919953
 73
1
 72
1
 10
12.7926763987
 20
2.4919113136
 11
12.7293963636
 21
2.5522893471
 72
2
 10
12.7276876627
 20
2.5504984093
 40
0.0024753014
 50
46.3461263059
 51
180.0014637321
 73
1
 72
1
 10
12.7252123613
 20
2.5504983461
 11
12.7252123613
 21
2.5184523283
 72
2
 10
12.7276873608
 20
2.5184523265
 40
0.0024749995
 50
179.9999571957
 51
270.0000428043
 73
1
 72
1
 10
12.7276873627
 20
2.515977327
 11
12.7480043739
 21
2.515977327
 72
2
 10
12.7480043758
 20
2.5135023274
 40
0.0024749995
 50
359.9999571957
 51
90.0000428043
 73
1
 72
1
 10
12.7504793753
 20
2.5135023256
 11
12.7504793753
 21
2.4937023146
 72
2
 10
12.7480043758
 20
2.4937023128
 40
0.0024749995
 50
269.9999571958
 51
0.0000428043
 73
1
 72
1
 10
12.7480043739
 20
2.4912273132
 11
12.672340332
 21
2.4912273132
 72
2
 10
12.6723403301
 20
2.4937023128
 40
0.0024749995
 50
179.9999571957
 51
270.0000428042
 73
1
 72
1
 10
12.6698653306
 20
2.4937023146
 11
12.6698653306
 21
2.5135023256
 72
2
 10
12.6723403301
 20
2.5135023274
 40
0.0024749995
 50
89.9999571957
 51
180.0000428043
 73
1
 72
1
 10
12.672340332
 20
2.515977327
 11
12.6909873423
 21
2.515977327
 72
2
 10
12.6909873442
 20
2.5184523265
 40
0.0024749995
 50
269.9999571957
 51
0.0000428043
 73
1
 72
1
 10
12.6934623437
 20
2.5184523283
 11
12.6934623437
 21
2.564807354
 72
2
 10
12.6909873442
 20
2.5648073559
 40
0.0024749995
 50
359.9999571957
 51
90.0000428043
 73
1
 72
1
 10
12.6909873423
 20
2.5672823554
 11
12.672340332
 21
2.5672823554
 72
2
 10
12.6723403301
 20
2.5697573549
 40
0.0024749995
 50
179.9999571957
 51
270.0000428043
 73
1
 72
1
 10
12.6698653306
 20
2.5697573568
 11
12.6698653306
 21
2.5895573678
 72
2
 10
12.6723403301
 20
2.5895573696
 40
0.0024749995
 50
89.9999571957
 51
180.0000428043
 73
1
 72
1
 10
12.672340332
 20
2.5920323691
 11
12.7727983877
 21
2.5920323691
 72
2
 10
12.7727985224
 20
2.5895582013
 40
0.0024741678
 50
46.3477981899
 51
90.0031206038
 73
1
 72
1
 10
12.7745063886
 20
2.5913483688
 11
12.8345394219
 21
2.534068337
 72
2
 10
12.8362481229
 20
2.5358592748
 40
0.0024753014
 50
226.3461263059
 51
0.0014637321
 73
1
 72
1
 10
12.8387234242
 20
2.535859338
 11
12.8387234242
 21
2.564807354
 72
2
 10
12.8362484247
 20
2.5648073559
 40
0.0024749995
 50
359.9999571957
 51
90.0000428043
 73
1
 72
1
 10
12.8362484229
 20
2.5672823554
 11
12.8174724125
 21
2.5672823554
 72
2
 10
12.8174724106
 20
2.5697573549
 40
0.0024749995
 50
179.9999571957
 51
270.0000428043
 73
1
 72
1
 10
12.8149974111
 20
2.5697573568
 11
12.8149974111
 21
2.5895573678
 72
2
 10
12.8174724106
 20
2.5895573696
 40
0.0024749995
 50
89.9999571958
 51
180.0000428043
 73
1
 72
1
 10
12.8174724125
 20
2.5920323691
 11
12.8914734535
 21
2.5920323691
 72
2
 10
12.8914734553
 20
2.5895573696
 40
0.0024749995
 50
359.9999571957
 51
90.0000428042
 73
1
 72
1
 10
12.8939484549
 20
2.5895573678
 11
12.8939484549
 21
2.5697573568
 72
2
 10
12.8914734553
 20
2.5697573549
 40
0.0024749995
 50
269.9999571958
 51
0.0000428043
 73
1
 72
1
 10
12.8914734535
 20
2.5672823554
 11
12.8735404436
 21
2.5672823554
 72
2
 10
12.8735404417
 20
2.5648073559
 40
0.0024749995
 50
89.9999571957
 51
180.0000428043
 73
1
 72
1
 10
12.8710654422
 20
2.564807354
 11
12.8710654422
 21
2.4937023146
 72
2
 10
12.8685904427
 20
2.4937023128
 40
0.0024749995
 50
269.9999571957
 51
0.0000428043
 73
1
 72
1
 10
12.8685904408
 20
2.4912273132
 11
12.7943853997
 21
2.4912273132
 97
267
330
306
330
307
330
308
330
309
330
30A
330
30B
330
30C
330
30D
330
30E
330
30F
330
310
330
311
330
312
330
313
330
314
330
315
330
316
330
317
330
318
330
319
330
31A
330
31B
330
31C
330
31D
330
31E
330
31F
330
320
330
321
330
322
330
323
330
324
330
325
330
326
330
327
330
328
330
329
330
32A
330
32B
330
32C
330
32D
330
32E
330
32F
330
330
330
331
330
332
330
333
330
334
330
335
330
336
330
337
330
338
330
339
330
33A
330
33B
330
33C
330
33D
330
33E
330
33F
330
340
330
341
330
342
330
343
330
344
330
345
330
346
330
347
330
348
330
349
330
34A
330
34B
330
34C
330
34D
330
34E
330
34F
330
350
330
351
330
352
330
353
330
354
330
355
330
356
330
357
330
358
330
359
330
35A
330
35B
330
35C
330
35D
330
35E
330
35F
330
360
330
361
330
362
330
363
330
364
330
365
330
366
330
367
330
368
330
369
330
36A
330
36B
330
36C
330
36D
330
36E
330
36F
330
370
330
371
330
372
330
373
330
374
330
375
330
376
330
377
330
378
330
379
330
37A
330
37B
330
37C
330
37D
330
37E
330
37F
330
380
330
381
330
382
330
383
330
384
330
385
330
386
330
387
330
388
330
389
330
38A
330
38B
330
38C
330
38D
330
38E
330
38F
330
390
330
391
330
392
330
393
330
394
330
395
330
396
330
397
330
398
330
399
330
39A
330
39B
330
39C
330
39D
330
39E
330
39F
330
3A0
330
3A1
330
3A2
330
3A3
330
3A4
330
3A5
330
3A6
330
3A7
330
3A8
330
3A9
330
3AA
330
3AB
330
3AC
330
3AD
330
3AE
330
3AF
330
3B0
330
3B1
330
3B2
330
3B3
330
3B4
330
3B5
330
3B6
330
3B7
330
3B8
330
3B9
330
3BA
330
3BB
330
3BC
330
3BD
330
3BE
330
3BF
330
3C0
330
3C1
330
3C2
330
3C3
330
3C4
330
3C5
330
3C6
330
3C7
330
3C8
330
3C9
330
3CA
330
3CB
330
3CC
330
3CD
330
3CE
330
3CF
330
3D0
330
3D1
330
3D2
330
3D3
330
3D4
330
3D5
330
3D6
330
3D7
330
3D8
330
3D9
330
3DA
330
3DB
330
3DC
330
3DD
330
3DE
330
3DF
330
3E0
330
3E1
330
3E2
330
3E3
330
3E4
330
3E5
330
3E6
330
3E7
330
3E8
330
3E9
330
3EA
330
3EB
330
3EC
330
3ED
330
3EE
330
3EF
330
3F0
330
3F1
330
3F2
330
3F3
330
3F4
330
3F5
330
3F6
330
3F7
330
3F8
330
3F9
330
3FA
330
3FB
330
3FC
330
3FD
330
3FE
330
3FF
330
400
330
401
330
402
330
403
330
404
330
405
330
406
330
407
330
408
330
409
330
40A
330
40B
330
40C
330
40D
330
40E
330
40F
330
410
 92
1
 93
23
 72
2
 10
12.3792298263
 20
2.539634765
 40
0.048483885
 50
273.21763719
 51
303.0749121182
 73
1
 72
2
 10
12.3940692204
 20
2.5168671561
 40
0.0213072145
 50
303.0488228549
 51
355.7263138674
 73
1
 72
2
 10
12.400005721
 20
2.5168763464
 40
0.0153945295
 50
354.0454548824
 51
5.1878013979
 73
1
 72
2
 10
12.3931760319
 20
2.5166878286
 40
0.0222174455
 50
4.0793399388
 51
69.834329283
 73
1
 72
1
 10
12.4008351814
 20
2.5375433389
 11
12.3907841758
 21
2.5410923409
 72
1
 10
12.3907841758
 20
2.5410923409
 11
12.3990241804
 21
2.5458683435
 72
2
 10
12.3771587979
 20
2.5826952352
 40
0.0428289026
 50
300.6990502959
 51
319.0591802498
 73
1
 72
2
 10
12.3971873948
 20
2.5665668817
 40
0.0171568255
 50
315.9145124245
 51
16.0049121282
 73
1
 72
2
 10
12.3922357827
 20
2.5632132173
 40
0.0229166529
 50
20.6563876465
 51
62.3316896973
 73
1
 72
2
 10
12.371573659
 20
2.5302846524
 40
0.061747717
 50
59.5385584989
 51
90.0050977555
 73
1
 72
1
 10
12.3715681652
 20
2.5920323691
 11
12.2055050731
 21
2.5920323691
 72
2
 10
12.2055050712
 20
2.5895573696
 40
0.0024749995
 50
89.9999571957
 51
180.0000428043
 73
1
 72
1
 10
12.2030300717
 20
2.5895573678
 11
12.2030300717
 21
2.5697573568
 72
2
 10
12.2055050712
 20
2.5697573549
 40
0.0024749995
 50
179.9999571957
 51
270.0000428043
 73
1
 72
1
 10
12.2055050731
 20
2.5672823554
 11
12.2294470864
 21
2.5672823554
 72
2
 10
12.2294470882
 20
2.5648073559
 40
0.0024749995
 50
359.9999571957
 51
90.0000428043
 73
1
 72
1
 10
12.2319220877
 20
2.564807354
 11
12.2319220877
 21
2.5184523283
 72
2
 10
12.2294470882
 20
2.5184523265
 40
0.0024749995
 50
269.9999571957
 51
0.0000428043
 73
1
 72
1
 10
12.2294470864
 20
2.515977327
 11
12.2055050731
 21
2.515977327
 72
2
 10
12.2055050712
 20
2.5135023274
 40
0.0024749995
 50
89.9999571957
 51
180.0000428043
 73
1
 72
1
 10
12.2030300717
 20
2.5135023256
 11
12.2030300717
 21
2.4937023146
 72
2
 10
12.2055050712
 20
2.4937023128
 40
0.0024749995
 50
179.9999571957
 51
270.0000428043
 73
1
 72
1
 10
12.2055050731
 20
2.4912273132
 11
12.3819511709
 21
2.4912273132
 97
267
330
306
330
307
330
308
330
309
330
30A
330
30B
330
30C
330
30D
330
30E
330
30F
330
310
330
311
330
312
330
313
330
314
330
315
330
316
330
317
330
318
330
319
330
31A
330
31B
330
31C
330
31D
330
31E
330
31F
330
320
330
321
330
322
330
323
330
324
330
325
330
326
330
327
330
328
330
329
330
32A
330
32B
330
32C
330
32D
330
32E
330
32F
330
330
330
331
330
332
330
333
330
334
330
335
330
336
330
337
330
338
330
339
330
33A
330
33B
330
33C
330
33D
330
33E
330
33F
330
340
330
341
330
342
330
343
330
344
330
345
330
346
330
347
330
348
330
349
330
34A
330
34B
330
34C
330
34D
330
34E
330
34F
330
350
330
351
330
352
330
353
330
354
330
355
330
356
330
357
330
358
330
359
330
35A
330
35B
330
35C
330
35D
330
35E
330
35F
330
360
330
361
330
362
330
363
330
364
330
365
330
366
330
367
330
368
330
369
330
36A
330
36B
330
36C
330
36D
330
36E
330
36F
330
370
330
371
330
372
330
373
330
374
330
375
330
376
330
377
330
378
330
379
330
37A
330
37B
330
37C
330
37D
330
37E
330
37F
330
380
330
381
330
382
330
383
330
384
330
385
330
386
330
387
330
388
330
389
330
38A
330
38B
330
38C
330
38D
330
38E
330
38F
330
390
330
391
330
392
330
393
330
394
330
395
330
396
330
397
330
398
330
399
330
39A
330
39B
330
39C
330
39D
330
39E
330
39F
330
3A0
330
3A1
330
3A2
330
3A3
330
3A4
330
3A5
330
3A6
330
3A7
330
3A8
330
3A9
330
3AA
330
3AB
330
3AC
330
3AD
330
3AE
330
3AF
330
3B0
330
3B1
330
3B2
330
3B3
330
3B4
330
3B5
330
3B6
330
3B7
330
3B8
330
3B9
330
3BA
330
3BB
330
3BC
330
3BD
330
3BE
330
3BF
330
3C0
330
3C1
330
3C2
330
3C3
330
3C4
330
3C5
330
3C6
330
3C7
330
3C8
330
3C9
330
3CA
330
3CB
330
3CC
330
3CD
330
3CE
330
3CF
330
3D0
330
3D1
330
3D2
330
3D3
330
3D4
330
3D5
330
3D6
330
3D7
330
3D8
330
3D9
330
3DA
330
3DB
330
3DC
330
3DD
330
3DE
330
3DF
330
3E0
330
3E1
330
3E2
330
3E3
330
3E4
330
3E5
330
3E6
330
3E7
330
3E8
330
3E9
330
3EA
330
3EB
330
3EC
330
3ED
330
3EE
330
3EF
330
3F0
330
3F1
330
3F2
330
3F3
330
3F4
330
3F5
330
3F6
330
3F7
330
3F8
330
3F9
330
3FA
330
3FB
330
3FC
330
3FD
330
3FE
330
3FF
330
400
330
401
330
402
330
403
330
404
330
405
330
406
330
407
330
408
330
409
330
40A
330
40B
330
40C
330
40D
330
40E
330
40F
330
410
 92
1
 93
32
 72
2
 10
12.5168642476
 20
2.4937023128
 40
0.0024749995
 50
269.9999571957
 51
0.0000428043
 73
1
 72
1
 10
12.5193392471
 20
2.4937023146
 11
12.5193392471
 21
2.5135023256
 72
2
 10
12.5168642476
 20
2.5135023274
 40
0.0024749995
 50
359.9999571957
 51
90.0000428043
 73
1
 72
1
 10
12.5168642458
 20
2.515977327
 11
12.5055812395
 21
2.515977327
 72
2
 10
12.5055811302
 20
2.518452367
 40
0.0024750401
 50
147.6063258011
 51
270.0025305754
 73
1
 72
1
 10
12.5034912383
 20
2.5197783291
 11
12.5090072414
 21
2.5284723339
 72
2
 10
12.5110971723
 20
2.5271461342
 40
0.0024752003
 50
89.998372645
 51
147.602165307
 73
1
 72
1
 10
12.5110972426
 20
2.5296213345
 11
12.5459752619
 21
2.5296213345
 72
2
 10
12.5459747223
 20
2.5271458744
 40
0.0024754602
 50
32.8959418573
 51
89.9875097202
 73
1
 72
1
 10
12.548053263
 20
2.5284903339
 11
12.5536792662
 21
2.5197973291
 72
2
 10
12.5516012439
 20
2.5184525341
 40
0.0024752071
 50
270.0004896794
 51
32.9089806818
 73
1
 72
1
 10
12.551601265
 20
2.515977327
 11
12.537150257
 21
2.515977327
 72
2
 10
12.5371502552
 20
2.5135023274
 40
0.0024749995
 50
89.9999571958
 51
180.0000428043
 73
1
 72
1
 10
12.5346752556
 20
2.5135023256
 11
12.5346752556
 21
2.4937023146
 72
2
 10
12.5371502552
 20
2.4937023128
 40
0.0024749995
 50
179.9999571957
 51
270.0000428042
 73
1
 72
1
 10
12.537150257
 20
2.4912273132
 11
12.6424313154
 21
2.4912273132
 72
2
 10
12.6424313172
 20
2.4937023128
 40
0.0024749995
 50
269.9999571957
 51
0.0000428043
 73
1
 72
1
 10
12.6449063168
 20
2.4937023146
 11
12.6449063168
 21
2.5135023256
 72
2
 10
12.6424313172
 20
2.5135023274
 40
0.0024749995
 50
359.9999571957
 51
90.0000428043
 73
1
 72
1
 10
12.6424313154
 20
2.515977327
 11
12.6224153043
 21
2.515977327
 72
2
 10
12.6224154248
 20
2.518451368
 40
0.002474041
 50
212.9056413127
 51
269.9972091756
 73
1
 72
1
 10
12.6203383031
 20
2.5171073276
 11
12.5725822767
 21
2.5909023685
 72
2
 10
12.570504655
 20
2.589557409
 40
0.0024749602
 50
32.9172174468
 51
90.0087853097
 73
1
 72
1
 10
12.5705042755
 20
2.5920323691
 11
12.5133292438
 21
2.5920323691
 72
2
 10
12.5133291735
 20
2.5895571688
 40
0.0024752003
 50
89.9983726451
 51
147.602165307
 73
1
 72
1
 10
12.5112392426
 20
2.5908833685
 11
12.4644392167
 21
2.5171263276
 72
2
 10
12.4623492858
 20
2.5184525273
 40
0.0024752003
 50
269.9983726451
 51
327.602165307
 73
1
 72
1
 10
12.4623492155
 20
2.515977327
 11
12.4394882028
 21
2.515977327
 72
2
 10
12.439488201
 20
2.5135023274
 40
0.0024749995
 50
89.9999571958
 51
180.0000428043
 73
1
 72
1
 10
12.4370132015
 20
2.5135023256
 11
12.4370132015
 21
2.4937023146
 72
2
 10
12.439488201
 20
2.4937023128
 40
0.0024749995
 50
179.9999571957
 51
270.0000428042
 73
1
 72
1
 10
12.4394882028
 20
2.4912273132
 11
12.5168642458
 21
2.4912273132
 97
267
330
306
330
307
330
308
330
309
330
30A
330
30B
330
30C
330
30D
330
30E
330
30F
330
310
330
311
330
312
330
313
330
314
330
315
330
316
330
317
330
318
330
319
330
31A
330
31B
330
31C
330
31D
330
31E
330
31F
330
320
330
321
330
322
330
323
330
324
330
325
330
326
330
327
330
328
330
329
330
32A
330
32B
330
32C
330
32D
330
32E
330
32F
330
330
330
331
330
332
330
333
330
334
330
335
330
336
330
337
330
338
330
339
330
33A
330
33B
330
33C
330
33D
330
33E
330
33F
330
340
330
341
330
342
330
343
330
344
330
345
330
346
330
347
330
348
330
349
330
34A
330
34B
330
34C
330
34D
330
34E
330
34F
330
350
330
351
330
352
330
353
330
354
330
355
330
356
330
357
330
358
330
359
330
35A
330
35B
330
35C
330
35D
330
35E
330
35F
330
360
330
361
330
362
330
363
330
364
330
365
330
366
330
367
330
368
330
369
330
36A
330
36B
330
36C
330
36D
330
36E
330
36F
330
370
330
371
330
372
330
373
330
374
330
375
330
376
330
377
330
378
330
379
330
37A
330
37B
330
37C
330
37D
330
37E
330
37F
330
380
330
381
330
382
330
383
330
384
330
385
330
386
330
387
330
388
330
389
330
38A
330
38B
330
38C
330
38D
330
38E
330
38F
330
390
330
391
330
392
330
393
330
394
330
395
330
396
330
397
330
398
330
399
330
39A
330
39B
330
39C
330
39D
330
39E
330
39F
330
3A0
330
3A1
330
3A2
330
3A3
330
3A4
330
3A5
330
3A6
330
3A7
330
3A8
330
3A9
330
3AA
330
3AB
330
3AC
330
3AD
330
3AE
330
3AF
330
3B0
330
3B1
330
3B2
330
3B3
330
3B4
330
3B5
330
3B6
330
3B7
330
3B8
330
3B9
330
3BA
330
3BB
330
3BC
330
3BD
330
3BE
330
3BF
330
3C0
330
3C1
330
3C2
330
3C3
330
3C4
330
3C5
330
3C6
330
3C7
330
3C8
330
3C9
330
3CA
330
3CB
330
3CC
330
3CD
330
3CE
330
3CF
330
3D0
330
3D1
330
3D2
330
3D3
330
3D4
330
3D5
330
3D6
330
3D7
330
3D8
330
3D9
330
3DA
330
3DB
330
3DC
330
3DD
330
3DE
330
3DF
330
3E0
330
3E1
330
3E2
330
3E3
330
3E4
330
3E5
330
3E6
330
3E7
330
3E8
330
3E9
330
3EA
330
3EB
330
3EC
330
3ED
330
3EE
330
3EF
330
3F0
330
3F1
330
3F2
330
3F3
330
3F4
330
3F5
330
3F6
330
3F7
330
3F8
330
3F9
330
3FA
330
3FB
330
3FC
330
3FD
330
3FE
330
3FF
330
400
330
401
330
402
330
403
330
404
330
405
330
406
330
407
330
408
330
409
330
40A
330
40B
330
40C
330
40D
330
40E
330
40F
330
410
 92
1
 93
6
 72
2
 10
12.2949101208
 20
2.5184523265
 40
0.0024749995
 50
179.9999571957
 51
270.0000428043
 73
1
 72
1
 10
12.2924351213
 20
2.5184523283
 11
12.2924351213
 21
2.5308273352
 72
2
 10
12.2949101208
 20
2.530827337
 40
0.0024749995
 50
89.9999571957
 51
180.0000428043
 73
1
 72
1
 10
12.2949101227
 20
2.5333023366
 11
12.3362731456
 21
2.5333023366
 72
2
 10
12.3362731456
 20
2.5246398318
 40
0.0086625048
 50
270.0
 51
90.0
 73
1
 72
1
 10
12.3362731456
 20
2.515977327
 11
12.2949101227
 21
2.515977327
 97
267
330
306
330
307
330
308
330
309
330
30A
330
30B
330
30C
330
30D
330
30E
330
30F
330
310
330
311
330
312
330
313
330
314
330
315
330
316
330
317
330
318
330
319
330
31A
330
31B
330
31C
330
31D
330
31E
330
31F
330
320
330
321
330
322
330
323
330
324
330
325
330
326
330
327
330
328
330
329
330
32A
330
32B
330
32C
330
32D
330
32E
330
32F
330
330
330
331
330
332
330
333
330
334
330
335
330
336
330
337
330
338
330
339
330
33A
330
33B
330
33C
330
33D
330
33E
330
33F
330
340
330
341
330
342
330
343
330
344
330
345
330
346
330
347
330
348
330
349
330
34A
330
34B
330
34C
330
34D
330
34E
330
34F
330
350
330
351
330
352
330
353
330
354
330
355
330
356
330
357
330
358
330
359
330
35A
330
35B
330
35C
330
35D
330
35E
330
35F
330
360
330
361
330
362
330
363
330
364
330
365
330
366
330
367
330
368
330
369
330
36A
330
36B
330
36C
330
36D
330
36E
330
36F
330
370
330
371
330
372
330
373
330
374
330
375
330
376
330
377
330
378
330
379
330
37A
330
37B
330
37C
330
37D
330
37E
330
37F
330
380
330
381
330
382
330
383
330
384
330
385
330
386
330
387
330
388
330
389
330
38A
330
38B
330
38C
330
38D
330
38E
330
38F
330
390
330
391
330
392
330
393
330
394
330
395
330
396
330
397
330
398
330
399
330
39A
330
39B
330
39C
330
39D
330
39E
330
39F
330
3A0
330
3A1
330
3A2
330
3A3
330
3A4
330
3A5
330
3A6
330
3A7
330
3A8
330
3A9
330
3AA
330
3AB
330
3AC
330
3AD
330
3AE
330
3AF
330
3B0
330
3B1
330
3B2
330
3B3
330
3B4
330
3B5
330
3B6
330
3B7
330
3B8
330
3B9
330
3BA
330
3BB
330
3BC
330
3BD
330
3BE
330
3BF
330
3C0
330
3C1
330
3C2
330
3C3
330
3C4
330
3C5
330
3C6
330
3C7
330
3C8
330
3C9
330
3CA
330
3CB
330
3CC
330
3CD
330
3CE
330
3CF
330
3D0
330
3D1
330
3D2
330
3D3
330
3D4
330
3D5
330
3D6
330
3D7
330
3D8
330
3D9
330
3DA
330
3DB
330
3DC
330
3DD
330
3DE
330
3DF
330
3E0
330
3E1
330
3E2
330
3E3
330
3E4
330
3E5
330
3E6
330
3E7
330
3E8
330
3E9
330
3EA
330
3EB
330
3EC
330
3ED
330
3EE
330
3EF
330
3F0
330
3F1
330
3F2
330
3F3
330
3F4
330
3F5
330
3F6
330
3F7
330
3F8
330
3F9
330
3FA
330
3FB
330
3FC
330
3FD
330
3FE
330
3FF
330
400
330
401
330
402
330
403
330
404
330
405
330
406
330
407
330
408
330
409
330
40A
330
40B
330
40C
330
40D
330
40E
330
40F
330
410
 92
1
 93
13
 72
2
 10
13.4883447827
 20
2.5520823451
 40
0.0024749995
 50
179.9999571957
 51
270.0000428042
 73
1
 72
1
 10
13.4858697831
 20
2.552082347
 11
13.4858697831
 21
2.564807354
 72
2
 10
13.4883447827
 20
2.5648073559
 40
0.0024749995
 50
89.9999571958
 51
180.0000428043
 73
1
 72
1
 10
13.4883447845
 20
2.5672823554
 11
13.5251458049
 21
2.5672823554
 72
2
 10
13.5236009174
 20
2.5388278764
 40
0.0284963867
 50
70.3834917948
 51
86.8922743861
 73
1
 72
2
 10
13.5284605274
 20
2.5518696094
 40
0.0145814632
 50
54.6746025112
 51
71.1660573124
 73
1
 72
2
 10
13.5335900184
 20
2.5587235346
 40
0.0060275915
 50
20.9055592135
 51
56.7851676243
 73
1
 72
2
 10
13.5348905773
 20
2.5593838168
 40
0.0045795888
 50
355.6235353944
 51
18.9942678268
 73
1
 72
2
 10
13.533683767
 20
2.559677593
 40
0.0058087709
 50
318.8515287446
 51
353.6422345323
 73
1
 72
2
 10
13.5295131508
 20
2.5629115009
 40
0.0110815393
 50
306.758405961
 51
320.4502234234
 73
1
 72
2
 10
13.5238839599
 20
2.5706523294
 40
0.0206523367
 50
289.6883413472
 51
306.4184925496
 73
1
 72
2
 10
13.5219564542
 20
2.5750459767
 40
0.0254407115
 50
270.7327484175
 51
290.441894219
 73
1
 72
1
 10
13.5222818033
 20
2.5496073456
 11
13.4883447845
 21
2.5496073456
 97
267
330
306
330
307
330
308
330
309
330
30A
330
30B
330
30C
330
30D
330
30E
330
30F
330
310
330
311
330
312
330
313
330
314
330
315
330
316
330
317
330
318
330
319
330
31A
330
31B
330
31C
330
31D
330
31E
330
31F
330
320
330
321
330
322
330
323
330
324
330
325
330
326
330
327
330
328
330
329
330
32A
330
32B
330
32C
330
32D
330
32E
330
32F
330
330
330
331
330
332
330
333
330
334
330
335
330
336
330
337
330
338
330
339
330
33A
330
33B
330
33C
330
33D
330
33E
330
33F
330
340
330
341
330
342
330
343
330
344
330
345
330
346
330
347
330
348
330
349
330
34A
330
34B
330
34C
330
34D
330
34E
330
34F
330
350
330
351
330
352
330
353
330
354
330
355
330
356
330
357
330
358
330
359
330
35A
330
35B
330
35C
330
35D
330
35E
330
35F
330
360
330
361
330
362
330
363
330
364
330
365
330
366
330
367
330
368
330
369
330
36A
330
36B
330
36C
330
36D
330
36E
330
36F
330
370
330
371
330
372
330
373
330
374
330
375
330
376
330
377
330
378
330
379
330
37A
330
37B
330
37C
330
37D
330
37E
330
37F
330
380
330
381
330
382
330
383
330
384
330
385
330
386
330
387
330
388
330
389
330
38A
330
38B
330
38C
330
38D
330
38E
330
38F
330
390
330
391
330
392
330
393
330
394
330
395
330
396
330
397
330
398
330
399
330
39A
330
39B
330
39C
330
39D
330
39E
330
39F
330
3A0
330
3A1
330
3A2
330
3A3
330
3A4
330
3A5
330
3A6
330
3A7
330
3A8
330
3A9
330
3AA
330
3AB
330
3AC
330
3AD
330
3AE
330
3AF
330
3B0
330
3B1
330
3B2
330
3B3
330
3B4
330
3B5
330
3B6
330
3B7
330
3B8
330
3B9
330
3BA
330
3BB
330
3BC
330
3BD
330
3BE
330
3BF
330
3C0
330
3C1
330
3C2
330
3C3
330
3C4
330
3C5
330
3C6
330
3C7
330
3C8
330
3C9
330
3CA
330
3CB
330
3CC
330
3CD
330
3CE
330
3CF
330
3D0
330
3D1
330
3D2
330
3D3
330
3D4
330
3D5
330
3D6
330
3D7
330
3D8
330
3D9
330
3DA
330
3DB
330
3DC
330
3DD
330
3DE
330
3DF
330
3E0
330
3E1
330
3E2
330
3E3
330
3E4
330
3E5
330
3E6
330
3E7
330
3E8
330
3E9
330
3EA
330
3EB
330
3EC
330
3ED
330
3EE
330
3EF
330
3F0
330
3F1
330
3F2
330
3F3
330
3F4
330
3F5
330
3F6
330
3F7
330
3F8
330
3F9
330
3FA
330
3FB
330
3FC
330
3FD
330
3FE
330
3FF
330
400
330
401
330
402
330
403
330
404
330
405
330
406
330
407
330
408
330
409
330
40A
330
40B
330
40C
330
40D
330
40E
330
40F
330
410
 92
1
 93
6
 72
2
 10
12.3362731456
 20
2.5586198506
 40
0.0086625048
 50
270.0
 51
90.0
 73
1
 72
1
 10
12.3362731456
 20
2.5672823554
 11
12.2949101227
 21
2.5672823554
 72
2
 10
12.2949101208
 20
2.5648073559
 40
0.0024749995
 50
89.9999571957
 51
180.0000428043
 73
1
 72
1
 10
12.2924351213
 20
2.564807354
 11
12.2924351213
 21
2.5524323472
 72
2
 10
12.2949101208
 20
2.5524323453
 40
0.0024749995
 50
179.9999571957
 51
270.0000428043
 73
1
 72
1
 10
12.2949101227
 20
2.5499573458
 11
12.3362731456
 21
2.5499573458
 97
267
330
306
330
307
330
308
330
309
330
30A
330
30B
330
30C
330
30D
330
30E
330
30F
330
310
330
311
330
312
330
313
330
314
330
315
330
316
330
317
330
318
330
319
330
31A
330
31B
330
31C
330
31D
330
31E
330
31F
330
320
330
321
330
322
330
323
330
324
330
325
330
326
330
327
330
328
330
329
330
32A
330
32B
330
32C
330
32D
330
32E
330
32F
330
330
330
331
330
332
330
333
330
334
330
335
330
336
330
337
330
338
330
339
330
33A
330
33B
330
33C
330
33D
330
33E
330
33F
330
340
330
341
330
342
330
343
330
344
330
345
330
346
330
347
330
348
330
349
330
34A
330
34B
330
34C
330
34D
330
34E
330
34F
330
350
330
351
330
352
330
353
330
354
330
355
330
356
330
357
330
358
330
359
330
35A
330
35B
330
35C
330
35D
330
35E
330
35F
330
360
330
361
330
362
330
363
330
364
330
365
330
366
330
367
330
368
330
369
330
36A
330
36B
330
36C
330
36D
330
36E
330
36F
330
370
330
371
330
372
330
373
330
374
330
375
330
376
330
377
330
378
330
379
330
37A
330
37B
330
37C
330
37D
330
37E
330
37F
330
380
330
381
330
382
330
383
330
384
330
385
330
386
330
387
330
388
330
389
330
38A
330
38B
330
38C
330
38D
330
38E
330
38F
330
390
330
391
330
392
330
393
330
394
330
395
330
396
330
397
330
398
330
399
330
39A
330
39B
330
39C
330
39D
330
39E
330
39F
330
3A0
330
3A1
330
3A2
330
3A3
330
3A4
330
3A5
330
3A6
330
3A7
330
3A8
330
3A9
330
3AA
330
3AB
330
3AC
330
3AD
330
3AE
330
3AF
330
3B0
330
3B1
330
3B2
330
3B3
330
3B4
330
3B5
330
3B6
330
3B7
330
3B8
330
3B9
330
3BA
330
3BB
330
3BC
330
3BD
330
3BE
330
3BF
330
3C0
330
3C1
330
3C2
330
3C3
330
3C4
330
3C5
330
3C6
330
3C7
330
3C8
330
3C9
330
3CA
330
3CB
330
3CC
330
3CD
330
3CE
330
3CF
330
3D0
330
3D1
330
3D2
330
3D3
330
3D4
330
3D5
330
3D6
330
3D7
330
3D8
330
3D9
330
3DA
330
3DB
330
3DC
330
3DD
330
3DE
330
3DF
330
3E0
330
3E1
330
3E2
330
3E3
330
3E4
330
3E5
330
3E6
330
3E7
330
3E8
330
3E9
330
3EA
330
3EB
330
3EC
330
3ED
330
3EE
330
3EF
330
3F0
330
3F1
330
3F2
330
3F3
330
3F4
330
3F5
330
3F6
330
3F7
330
3F8
330
3F9
330
3FA
330
3FB
330
3FC
330
3FD
330
3FE
330
3FF
330
400
330
401
330
402
330
403
330
404
330
405
330
406
330
407
330
408
330
409
330
40A
330
40B
330
40C
330
40D
330
40E
330
40F
330
410
 92
1
 93
8
 72
2
 10
12.5401702375
 20
2.5530465533
 40
0.0024752071
 50
270.0004896793
 51
32.9089806818
 73
1
 72
1
 10
12.5422482598
 20
2.5543913483
 11
12.5349892558
 21
2.5656073545
 72
2
 10
12.532910715
 20
2.564262895
 40
0.0024754602
 50
32.8959418573
 51
89.9875097202
 73
1
 72
1
 10
12.5329112547
 20
2.5667383551
 11
12.5267302512
 21
2.5667383551
 72
2
 10
12.5267301809
 20
2.5642631548
 40
0.0024752003
 50
89.998372645
 51
147.602165307
 73
1
 72
1
 10
12.5246402501
 20
2.5655893545
 11
12.5175232461
 21
2.5543723483
 72
2
 10
12.519613138
 20
2.5530463862
 40
0.0024750401
 50
147.6063258012
 51
270.0025305754
 73
1
 72
1
 10
12.5196132473
 20
2.5505713461
 11
12.5401702587
 21
2.5505713461
 97
267
330
306
330
307
330
308
330
309
330
30A
330
30B
330
30C
330
30D
330
30E
330
30F
330
310
330
311
330
312
330
313
330
314
330
315
330
316
330
317
330
318
330
319
330
31A
330
31B
330
31C
330
31D
330
31E
330
31F
330
320
330
321
330
322
330
323
330
324
330
325
330
326
330
327
330
328
330
329
330
32A
330
32B
330
32C
330
32D
330
32E
330
32F
330
330
330
331
330
332
330
333
330
334
330
335
330
336
330
337
330
338
330
339
330
33A
330
33B
330
33C
330
33D
330
33E
330
33F
330
340
330
341
330
342
330
343
330
344
330
345
330
346
330
347
330
348
330
349
330
34A
330
34B
330
34C
330
34D
330
34E
330
34F
330
350
330
351
330
352
330
353
330
354
330
355
330
356
330
357
330
358
330
359
330
35A
330
35B
330
35C
330
35D
330
35E
330
35F
330
360
330
361
330
362
330
363
330
364
330
365
330
366
330
367
330
368
330
369
330
36A
330
36B
330
36C
330
36D
330
36E
330
36F
330
370
330
371
330
372
330
373
330
374
330
375
330
376
330
377
330
378
330
379
330
37A
330
37B
330
37C
330
37D
330
37E
330
37F
330
380
330
381
330
382
330
383
330
384
330
385
330
386
330
387
330
388
330
389
330
38A
330
38B
330
38C
330
38D
330
38E
330
38F
330
390
330
391
330
392
330
393
330
394
330
395
330
396
330
397
330
398
330
399
330
39A
330
39B
330
39C
330
39D
330
39E
330
39F
330
3A0
330
3A1
330
3A2
330
3A3
330
3A4
330
3A5
330
3A6
330
3A7
330
3A8
330
3A9
330
3AA
330
3AB
330
3AC
330
3AD
330
3AE
330
3AF
330
3B0
330
3B1
330
3B2
330
3B3
330
3B4
330
3B5
330
3B6
330
3B7
330
3B8
330
3B9
330
3BA
330
3BB
330
3BC
330
3BD
330
3BE
330
3BF
330
3C0
330
3C1
330
3C2
330
3C3
330
3C4
330
3C5
330
3C6
330
3C7
330
3C8
330
3C9
330
3CA
330
3CB
330
3CC
330
3CD
330
3CE
330
3CF
330
3D0
330
3D1
330
3D2
330
3D3
330
3D4
330
3D5
330
3D6
330
3D7
330
3D8
330
3D9
330
3DA
330
3DB
330
3DC
330
3DD
330
3DE
330
3DF
330
3E0
330
3E1
330
3E2
330
3E3
330
3E4
330
3E5
330
3E6
330
3E7
330
3E8
330
3E9
330
3EA
330
3EB
330
3EC
330
3ED
330
3EE
330
3EF
330
3F0
330
3F1
330
3F2
330
3F3
330
3F4
330
3F5
330
3F6
330
3F7
330
3F8
330
3F9
330
3FA
330
3FB
330
3FC
330
3FD
330
3FE
330
3FF
330
400
330
401
330
402
330
403
330
404
330
405
330
406
330
407
330
408
330
409
330
40A
330
40B
330
40C
330
40D
330
40E
330
40F
330
410
 92
1
 93
1
 72
3
 10
12.9046654608
 20
2.5403783405
 11
-0.8250004575
 21
0.0
 40
0.218572
 50
0.0
 51
-0.0
 73
1
 97
267
330
306
330
307
330
308
330
309
330
30A
330
30B
330
30C
330
30D
330
30E
330
30F
330
310
330
311
330
312
330
313
330
314
330
315
330
316
330
317
330
318
330
319
330
31A
330
31B
330
31C
330
31D
330
31E
330
31F
330
320
330
321
330
322
330
323
330
324
330
325
330
326
330
327
330
328
330
329
330
32A
330
32B
330
32C
330
32D
330
32E
330
32F
330
330
330
331
330
332
330
333
330
334
330
335
330
336
330
337
330
338
330
339
330
33A
330
33B
330
33C
330
33D
330
33E
330
33F
330
340
330
341
330
342
330
343
330
344
330
345
330
346
330
347
330
348
330
349
330
34A
330
34B
330
34C
330
34D
330
34E
330
34F
330
350
330
351
330
352
330
353
330
354
330
355
330
356
330
357
330
358
330
359
330
35A
330
35B
330
35C
330
35D
330
35E
330
35F
330
360
330
361
330
362
330
363
330
364
330
365
330
366
330
367
330
368
330
369
330
36A
330
36B
330
36C
330
36D
330
36E
330
36F
330
370
330
371
330
372
330
373
330
374
330
375
330
376
330
377
330
378
330
379
330
37A
330
37B
330
37C
330
37D
330
37E
330
37F
330
380
330
381
330
382
330
383
330
384
330
385
330
386
330
387
330
388
330
389
330
38A
330
38B
330
38C
330
38D
330
38E
330
38F
330
390
330
391
330
392
330
393
330
394
330
395
330
396
330
397
330
398
330
399
330
39A
330
39B
330
39C
330
39D
330
39E
330
39F
330
3A0
330
3A1
330
3A2
330
3A3
330
3A4
330
3A5
330
3A6
330
3A7
330
3A8
330
3A9
330
3AA
330
3AB
330
3AC
330
3AD
330
3AE
330
3AF
330
3B0
330
3B1
330
3B2
330
3B3
330
3B4
330
3B5
330
3B6
330
3B7
330
3B8
330
3B9
330
3BA
330
3BB
330
3BC
330
3BD
330
3BE
330
3BF
330
3C0
330
3C1
330
3C2
330
3C3
330
3C4
330
3C5
330
3C6
330
3C7
330
3C8
330
3C9
330
3CA
330
3CB
330
3CC
330
3CD
330
3CE
330
3CF
330
3D0
330
3D1
330
3D2
330
3D3
330
3D4
330
3D5
330
3D6
330
3D7
330
3D8
330
3D9
330
3DA
330
3DB
330
3DC
330
3DD
330
3DE
330
3DF
330
3E0
330
3E1
330
3E2
330
3E3
330
3E4
330
3E5
330
3E6
330
3E7
330
3E8
330
3E9
330
3EA
330
3EB
330
3EC
330
3ED
330
3EE
330
3EF
330
3F0
330
3F1
330
3F2
330
3F3
330
3F4
330
3F5
330
3F6
330
3F7
330
3F8
330
3F9
330
3FA
330
3FB
330
3FC
330
3FD
330
3FE
330
3FF
330
400
330
401
330
402
330
403
330
404
330
405
330
406
330
407
330
408
330
409
330
40A
330
40B
330
40C
330
40D
330
40E
330
40F
330
410
 75
0
 76
1
 98
1
 10
0.0
 20
0.0
  0
LINE
  5
412
100
AcDbEntity
  8
0
100
AcDbLine
 62
7
  6
CONTINUOUS
 10
8.5
 20
10.112
 11
8.586603
 21
10.262
  0
LINE
  5
413
100
AcDbEntity
  8
0
100
AcDbLine
 62
7
  6
CONTINUOUS
 10
16.38
 20
2.807
 11
10.03
 21
2.807
  0
LINE
  5
414
100
AcDbEntity
  8
0
100
AcDbLine
 62
7
  6
CONTINUOUS
 10
0.62
 20
3.1995
 11
0.37
 21
3.1995
  0
LINE
  5
415
100
AcDbEntity
  8
0
100
AcDbLine
 62
7
  6
CONTINUOUS
 10
16.38
 20
3.1995
 11
16.63
 21
3.1995
  0
LINE
  5
416
100
AcDbEntity
  8
0
100
AcDbLine
 62
7
  6
CONTINUOUS
 10
8.586603
 20
0.737
 11
8.5
 21
0.887
  0
LINE
  5
417
100
AcDbEntity
  8
0
100
AcDbLine
 62
7
  6
CONTINUOUS
 10
6.53
 20
0.887
 11
6.53
 21
0.637
  0
LINE
  5
418
100
AcDbEntity
  8
0
100
AcDbLine
 62
7
  6
CONTINUOUS
 10
6.53
 20
10.112
 11
6.53
 21
10.362
  0
LINE
  5
419
100
AcDbEntity
  8
0
100
AcDbLine
 62
7
  6
CONTINUOUS
 10
8.5
 20
0.887
 11
8.5
 21
0.637
  0
LINE
  5
41A
100
AcDbEntity
  8
0
100
AcDbLine
 62
7
  6
CONTINUOUS
 10
8.5
 20
10.112
 11
8.5
 21
10.362
  0
LINE
  5
41B
100
AcDbEntity
  8
0
100
AcDbLine
 62
7
  6
CONTINUOUS
 10
0.62
 20
5.4995
 11
0.37
 21
5.4995
  0
LINE
  5
41C
100
AcDbEntity
  8
0
100
AcDbLine
 62
7
  6
CONTINUOUS
 10
16.38
 20
5.4995
 11
16.63
 21
5.4995
  0
LINE
  5
41D
100
AcDbEntity
  8
0
100
AcDbLine
 62
7
  6
CONTINUOUS
 10
10.03
 20
2.807
 11
10.03
 21
0.887
  0
LINE
  5
41E
100
AcDbEntity
  8
0
100
AcDbLine
 62
7
  6
CONTINUOUS
 10
10.47
 20
0.887
 11
10.47
 21
0.637
  0
LINE
  5
41F
100
AcDbEntity
  8
0
100
AcDbLine
 62
7
  6
CONTINUOUS
 10
10.47
 20
10.112
 11
10.47
 21
10.362
  0
LINE
  5
420
100
AcDbEntity
  8
0
100
AcDbLine
 62
7
  6
CONTINUOUS
 10
10.5342808475
 20
1.143294839
 11
10.5342808475
 21
0.921203839
  0
LINE
  5
421
100
AcDbEntity
  8
0
100
AcDbLine
 62
7
  6
CONTINUOUS
 10
10.5342808475
 20
1.193294839
 11
10.5342808475
 21
1.293294839
  0
LINE
  5
422
100
AcDbEntity
  8
0
100
AcDbLine
 62
7
  6
CONTINUOUS
 10
10.5342808475
 20
1.343294839
 11
10.5342808475
 21
1.565385839
  0
LINE
  5
423
100
AcDbEntity
  8
0
100
AcDbLine
 62
7
  6
CONTINUOUS
 10
8.5
 20
0.887
 11
8.413397
 21
0.737
  0
LINE
  5
424
100
AcDbEntity
  8
0
100
AcDbLine
 62
7
  6
CONTINUOUS
 10
0.62
 20
7.7995
 11
0.37
 21
7.7995
  0
LINE
  5
425
100
AcDbEntity
  8
0
100
AcDbLine
 62
7
  6
CONTINUOUS
 10
16.38
 20
7.7995
 11
16.63
 21
7.7995
  0
LINE
  5
426
100
AcDbEntity
  8
0
100
AcDbLine
 62
7
  6
CONTINUOUS
 10
8.413397
 20
10.262
 11
8.5
 21
10.112
  0
LINE
  5
427
100
AcDbEntity
  8
0
100
AcDbLine
 62
7
  6
CONTINUOUS
 10
11.1389508475
 20
1.060596839
 11
11.1389508475
 21
1.425992839
  0
LINE
  5
428
100
AcDbEntity
  8
0
100
AcDbLine
 62
7
  6
CONTINUOUS
 10
11.7453418475
 20
1.495385839
 11
11.7453418475
 21
0.991203839
  0
LINE
  5
429
100
AcDbEntity
  8
0
100
AcDbLine
 62
7
  6
CONTINUOUS
 10
12.44
 20
0.887
 11
12.44
 21
0.637
  0
LINE
  5
42A
100
AcDbEntity
  8
0
100
AcDbLine
 62
7
  6
CONTINUOUS
 10
12.44
 20
10.112
 11
12.44
 21
10.362
  0
LINE
  5
42B
100
AcDbEntity
  8
0
100
AcDbLine
 62
7
  6
CONTINUOUS
 10
16.53
 20
5.586103
 11
16.38
 21
5.4995
  0
LINE
  5
42C
100
AcDbEntity
  8
0
100
AcDbLine
 62
7
  6
CONTINUOUS
 10
16.38
 20
5.4995
 11
16.53
 21
5.412897
  0
LINE
  5
42D
100
AcDbEntity
  8
0
100
AcDbLine
 62
7
  6
CONTINUOUS
 10
12.83
 20
1.507
 11
12.83
 21
1.137
  0
LINE
  5
42E
100
AcDbEntity
  8
0
100
AcDbLine
 62
7
  6
CONTINUOUS
 10
16.38
 20
10.112
 11
0.62
 21
10.112
  0
LINE
  5
42F
100
AcDbEntity
  8
0
100
AcDbLine
 62
7
  6
CONTINUOUS
 10
8.586603
 20
10.262
 11
8.413397
 21
10.262
  0
LINE
  5
430
100
AcDbEntity
  8
0
100
AcDbLine
 62
7
  6
CONTINUOUS
 10
14.205
 20
1.137
 11
14.205
 21
0.887
  0
LINE
  5
431
100
AcDbEntity
  8
0
100
AcDbLine
 62
7
  6
CONTINUOUS
 10
14.41
 20
0.887
 11
14.41
 21
0.637
  0
LINE
  5
432
100
AcDbEntity
  8
0
100
AcDbLine
 62
7
  6
CONTINUOUS
 10
14.41
 20
10.112
 11
14.41
 21
10.362
  0
LINE
  5
433
100
AcDbEntity
  8
0
100
AcDbLine
 62
7
  6
CONTINUOUS
 10
15.58
 20
1.507
 11
15.58
 21
1.137
  0
LINE
  5
434
100
AcDbEntity
  8
0
100
AcDbLine
 62
7
  6
CONTINUOUS
 10
16.38
 20
0.887
 11
16.38
 21
10.112
  0
LINE
  5
435
100
AcDbEntity
  8
0
100
AcDbLine
 62
7
  6
CONTINUOUS
 10
16.53
 20
5.412897
 11
16.53
 21
5.586103
  0
LINE
  5
436
100
AcDbEntity
  8
0
100
AcDbLine
 62
7
  6
CONTINUOUS
 10
2.2411474326
 20
3.9940967521
 11
2.2411474326
 21
3.8897660435
  0
LINE
  5
437
100
AcDbEntity
  8
0
100
AcDbLine
 62
7
  6
CONTINUOUS
 10
2.3789427082
 20
4.0410967521
 11
2.3789427082
 21
3.9940967521
  0
LINE
  5
438
100
AcDbEntity
  8
0
100
AcDbLine
 62
7
  6
CONTINUOUS
 10
2.4576828657
 20
4.0410967521
 11
2.4576828657
 21
3.9940967521
  0
LINE
  5
439
100
AcDbEntity
  8
AXIS
100
AcDbLine
 62
7
  6
CONTINUOUS
 10
2.4635883775
 20
4.0410967521
 11
2.4635883775
 21
4.0900967521
  0
LINE
  5
43A
100
AcDbEntity
  8
0
100
AcDbLine
 62
7
  6
CONTINUOUS
 10
2.477367905
 20
3.9940967521
 11
2.477367905
 21
3.8897660435
  0
LINE
  5
43B
100
AcDbEntity
  8
AXIS_COSMETIC_THREADS
100
AcDbLine
 62
7
  6
CONTINUOUS
 10
2.5135883775
 20
4.2318290356
 11
2.5135883775
 21
4.1137187994
  0
LINE
  5
43C
100
AcDbEntity
  8
0
100
AcDbLine
 62
7
  6
CONTINUOUS
 10
2.5167379838
 20
4.0900967521
 11
2.5167379838
 21
4.1137187994
  0
LINE
  5
43D
100
AcDbEntity
  8
AXIS_COSMETIC_THREADS
100
AcDbLine
 62
7
  6
CONTINUOUS
 10
2.6175883775
 20
3.8897660435
 11
2.6175883775
 21
3.8774983269
  0
LINE
  5
43E
100
AcDbEntity
  8
AXIS
100
AcDbLine
 62
7
  6
CONTINUOUS
 10
2.6925844405
 20
4.2632926665
 11
2.6925844405
 21
4.2691466623
  0
LINE
  5
43F
100
AcDbEntity
  8
0
100
AcDbLine
 62
7
  6
CONTINUOUS
 10
3.0483611152
 20
3.5588894636
 11
3.0370702405
 21
3.5750145039
  0
LINE
  5
440
100
AcDbEntity
  8
AXIS
100
AcDbLine
 62
7
  6
CONTINUOUS
 10
2.7345923145
 20
4.2691466623
 11
2.7345923145
 21
4.2632926665
  0
LINE
  5
441
100
AcDbEntity
  8
AXIS_COSMETIC_THREADS
100
AcDbLine
 62
7
  6
CONTINUOUS
 10
2.8095883775
 20
3.8897660435
 11
2.8095883775
 21
3.8774983269
  0
LINE
  5
442
100
AcDbEntity
  8
0
100
AcDbLine
 62
7
  6
CONTINUOUS
 10
3.0806111957
 20
3.5814712131
 11
3.069320321
 21
3.5975962534
  0
LINE
  5
443
100
AcDbEntity
  8
0
100
AcDbLine
 62
7
  6
CONTINUOUS
 10
3.139713434
 20
3.6468860417
 11
3.1510043087
 21
3.6307610015
  0
LINE
  5
444
100
AcDbEntity
  8
0
100
AcDbLine
 62
7
  6
CONTINUOUS
 10
2.9104387712
 20
4.0900967521
 11
2.9104387712
 21
4.1137187994
  0
LINE
  5
445
100
AcDbEntity
  8
AXIS_COSMETIC_THREADS
100
AcDbLine
 62
7
  6
CONTINUOUS
 10
2.9135883775
 20
4.2318290356
 11
2.9135883775
 21
4.1137187994
  0
LWPOLYLINE
  5
446
100
AcDbEntity
  8
0
100
AcDbPolyline
 62
7
  6
CONTINUOUS
 90
7
 70
0
 10
4.0915411334
 20
3.5750145039
 10
4.1017308596
 20
3.5757839583
 10
4.1112261727
 20
3.5780398847
 10
4.119379983
 20
3.5816285452
 10
4.1256366217
 20
3.5863053786
 10
4.1295697092
 20
3.5917516665
 10
4.1309112121
 20
3.5975962534
  0
LINE
  5
447
100
AcDbEntity
  8
0
100
AcDbLine
 62
7
  6
CONTINUOUS
 10
4.0915411334
 20
3.5588894636
 11
3.382879716
 21
3.5588894636
  0
LINE
  5
448
100
AcDbEntity
  8
0
100
AcDbLine
 62
7
  6
CONTINUOUS
 10
4.0915411334
 20
3.5750145039
 11
3.382879716
 21
3.5750145039
  0
LWPOLYLINE
  5
449
100
AcDbEntity
  8
0
100
AcDbPolyline
 62
7
  6
CONTINUOUS
 90
7
 70
0
 10
3.382879716
 20
3.5588894636
 10
3.3726899899
 20
3.5596589181
 10
3.3631946767
 20
3.5619148444
 10
3.3550408664
 20
3.5655035049
 10
3.3487842277
 20
3.5701803384
 10
3.3448511402
 20
3.5756266263
 10
3.3435096373
 20
3.5814712131
  0
LINE
  5
44A
100
AcDbEntity
  8
0
100
AcDbLine
 62
7
  6
CONTINUOUS
 10
3.1129090442
 20
3.7245452473
 11
3.1337701988
 21
3.7148175312
  0
LINE
  5
44B
100
AcDbEntity
  8
0
100
AcDbLine
 62
7
  6
CONTINUOUS
 10
3.1212283013
 20
3.7423859518
 11
3.1420894559
 21
3.7326582356
  0
LINE
  5
44C
100
AcDbEntity
  8
0
100
AcDbLine
 62
7
  6
CONTINUOUS
 10
3.0786938645
 20
3.8897660435
 11
3.0903272947
 21
3.7567953278
  0
LINE
  5
44D
100
AcDbEntity
  8
0
100
AcDbLine
 62
7
  6
CONTINUOUS
 10
3.0984540975
 20
3.8897660435
 11
3.1099374266
 21
3.758510992
  0
LINE
  5
44E
100
AcDbEntity
  8
AXIS
100
AcDbLine
 62
7
  6
CONTINUOUS
 10
2.9635883775
 20
4.0410967521
 11
2.9635883775
 21
4.0900967521
  0
LINE
  5
44F
100
AcDbEntity
  8
02___PRT_ALL_AXES
100
AcDbLine
 62
7
  6
CONTINUOUS
 10
3.1446414933
 20
4.7441459985
 11
3.4534267591
 21
5.0529312642
  0
LINE
  5
450
100
AcDbEntity
  8
0
100
AcDbLine
 62
7
  6
CONTINUOUS
 10
4.1309112121
 20
3.6468860417
 11
3.3435096373
 21
3.6468860417
  0
LINE
  5
451
100
AcDbEntity
  8
0
100
AcDbLine
 62
7
  6
CONTINUOUS
 10
3.1108087941
 20
4.0003266483
 11
3.1108087941
 21
3.9940967521
  0
LINE
  5
452
100
AcDbEntity
  8
0
100
AcDbLine
 62
7
  6
CONTINUOUS
 10
3.119344283
 20
4.0804668309
 11
3.119344283
 21
4.6830731301
  0
LINE
  5
453
100
AcDbEntity
  8
0
100
AcDbLine
 62
7
  6
CONTINUOUS
 10
3.166344283
 20
4.6830731301
 11
3.166344283
 21
4.0804668309
  0
LINE
  5
454
100
AcDbEntity
  8
02___PRT_ALL_AXES
100
AcDbLine
 62
7
  6
CONTINUOUS
 10
3.4866607778
 20
5.0196972455
 11
3.1778755121
 21
4.7109119798
  0
LINE
  5
455
100
AcDbEntity
  8
0
100
AcDbLine
 62
7
  6
CONTINUOUS
 10
4.1309112121
 20
3.7148175312
 11
3.3435096373
 21
3.7148175312
  0
LINE
  5
456
100
AcDbEntity
  8
0
100
AcDbLine
 62
7
  6
CONTINUOUS
 10
4.1309112121
 20
3.7245452473
 11
3.3435096373
 21
3.7245452473
  0
LINE
  5
457
100
AcDbEntity
  8
0
100
AcDbLine
 62
7
  6
CONTINUOUS
 10
4.1309112121
 20
3.7567953278
 11
3.3435096373
 21
3.7567953278
  0
LWPOLYLINE
  5
458
100
AcDbEntity
  8
0
100
AcDbPolyline
 62
7
  6
CONTINUOUS
 90
7
 70
0
 10
3.3435096373
 20
3.5975962534
 10
3.3448511402
 20
3.5917516665
 10
3.3487842277
 20
3.5863053786
 10
3.3550408664
 20
3.5816285452
 10
3.3631946767
 20
3.5780398847
 10
3.3726899899
 20
3.5757839583
 10
3.382879716
 20
3.5750145039
  0
LINE
  5
459
100
AcDbEntity
  8
0
100
AcDbLine
 62
7
  6
CONTINUOUS
 10
3.0903272947
 20
3.7567953278
 11
3.1099374266
 21
3.758510992
  0
LINE
  5
45A
100
AcDbEntity
  8
AXIS_COSMETIC_THREADS
100
AcDbLine
 62
7
  6
CONTINUOUS
 10
4.856832472
 20
3.8774983269
 11
4.664832472
 21
3.8774983269
  0
LINE
  5
45B
100
AcDbEntity
  8
AXIS_COSMETIC_THREADS
100
AcDbLine
 62
7
  6
CONTINUOUS
 10
2.8095883775
 20
3.8774983269
 11
2.6175883775
 21
3.8774983269
  0
LINE
  5
45C
100
AcDbEntity
  8
0
100
AcDbLine
 62
7
  6
CONTINUOUS
 10
2.2411474326
 20
3.8897660435
 11
3.3435096373
 21
3.8897660435
  0
LINE
  5
45D
100
AcDbEntity
  8
0
100
AcDbLine
 62
7
  6
CONTINUOUS
 10
4.1309112121
 20
3.8897660435
 11
5.2332734168
 21
3.8897660435
  0
LINE
  5
45E
100
AcDbEntity
  8
0
100
AcDbLine
 62
7
  6
CONTINUOUS
 10
4.3840935547
 20
3.7567953278
 11
4.3644834228
 21
3.758510992
  0
LINE
  5
45F
100
AcDbEntity
  8
0
100
AcDbLine
 62
7
  6
CONTINUOUS
 10
3.3238245979
 20
3.8897660435
 11
3.3238245979
 21
3.9940967521
  0
LINE
  5
460
100
AcDbEntity
  8
0
100
AcDbLine
 62
7
  6
CONTINUOUS
 10
3.3435096373
 20
4.0137817915
 11
3.3435096373
 21
3.5975962534
  0
LINE
  5
461
100
AcDbEntity
  8
0
100
AcDbLine
 62
7
  6
CONTINUOUS
 10
3.3435096373
 20
3.5814712131
 11
3.3435096373
 21
3.5975962534
  0
LINE
  5
462
100
AcDbEntity
  8
0
100
AcDbLine
 62
7
  6
CONTINUOUS
 10
3.382879716
 20
3.5588894636
 11
3.382879716
 21
3.5750145039
  0
LINE
  5
463
100
AcDbEntity
  8
0
100
AcDbLine
 62
7
  6
CONTINUOUS
 10
4.1309112121
 20
3.9709803843
 11
3.3435096373
 21
3.9709803843
  0
LINE
  5
464
100
AcDbEntity
  8
0
100
AcDbLine
 62
7
  6
CONTINUOUS
 10
2.2411474326
 20
3.9940967521
 11
3.3435096373
 21
3.9940967521
  0
LINE
  5
465
100
AcDbEntity
  8
0
100
AcDbLine
 62
7
  6
CONTINUOUS
 10
4.1309112121
 20
3.9940967521
 11
5.2332734168
 21
3.9940967521
  0
LINE
  5
466
100
AcDbEntity
  8
0
100
AcDbLine
 62
7
  6
CONTINUOUS
 10
3.1346668749
 20
4.0137817915
 11
4.3397539746
 21
4.0137817915
  0
LINE
  5
467
100
AcDbEntity
  8
0
100
AcDbLine
 62
7
  6
CONTINUOUS
 10
3.1129090442
 20
3.7245452473
 11
3.1212283013
 21
3.7423859518
  0
LINE
  5
468
100
AcDbEntity
  8
0
100
AcDbLine
 62
7
  6
CONTINUOUS
 10
3.1337701988
 20
3.7148175312
 11
3.1420894559
 21
3.7326582356
  0
LINE
  5
469
100
AcDbEntity
  8
0
100
AcDbLine
 62
7
  6
CONTINUOUS
 10
2.3789427082
 20
4.0410967521
 11
3.0799742042
 21
4.0410967521
  0
LINE
  5
46A
100
AcDbEntity
  8
0
100
AcDbLine
 62
7
  6
CONTINUOUS
 10
4.3944466452
 20
4.0410967521
 11
5.0954781412
 21
4.0410967521
  0
LINE
  5
46B
100
AcDbEntity
  8
AXIS
100
AcDbLine
 62
7
  6
CONTINUOUS
 10
2.4635883775
 20
4.0900967521
 11
2.9635883775
 21
4.0900967521
  0
LINE
  5
46C
100
AcDbEntity
  8
AXIS
100
AcDbLine
 62
7
  6
CONTINUOUS
 10
4.510832472
 20
4.0900967521
 11
5.010832472
 21
4.0900967521
  0
LINE
  5
46D
100
AcDbEntity
  8
AXIS_COSMETIC_THREADS
100
AcDbLine
 62
7
  6
CONTINUOUS
 10
2.5135883775
 20
4.1137187994
 11
2.9135883775
 21
4.1137187994
  0
LINE
  5
46E
100
AcDbEntity
  8
AXIS_COSMETIC_THREADS
100
AcDbLine
 62
7
  6
CONTINUOUS
 10
4.560832472
 20
4.1137187994
 11
4.960832472
 21
4.1137187994
  0
LINE
  5
46F
100
AcDbEntity
  8
0
100
AcDbLine
 62
7
  6
CONTINUOUS
 10
4.3234165407
 20
3.6307610015
 11
4.4260597342
 21
3.5588894636
  0
LINE
  5
470
100
AcDbEntity
  8
0
100
AcDbLine
 62
7
  6
CONTINUOUS
 10
4.3347074154
 20
3.6468860417
 11
4.4373506089
 21
3.5750145039
  0
LINE
  5
471
100
AcDbEntity
  8
AXIS_COSMETIC_THREADS
100
AcDbLine
 62
7
  6
CONTINUOUS
 10
2.5135883775
 20
4.2318290356
 11
2.9135883775
 21
4.2318290356
  0
LINE
  5
472
100
AcDbEntity
  8
AXIS_COSMETIC_THREADS
100
AcDbLine
 62
7
  6
CONTINUOUS
 10
4.560832472
 20
4.2318290356
 11
4.960832472
 21
4.2318290356
  0
LINE
  5
473
100
AcDbEntity
  8
AXIS
100
AcDbLine
 62
7
  6
CONTINUOUS
 10
2.6225844405
 20
4.2632926665
 11
2.6250414906
 21
4.2632926665
  0
LINE
  5
474
100
AcDbEntity
  8
AXIS
100
AcDbLine
 62
7
  6
CONTINUOUS
 10
2.6925844405
 20
4.2632926665
 11
2.7345923145
 21
4.2632926665
  0
LINE
  5
475
100
AcDbEntity
  8
AXIS
100
AcDbLine
 62
7
  6
CONTINUOUS
 10
2.8021352644
 20
4.2632926665
 11
2.8045923145
 21
4.2632926665
  0
LINE
  5
476
100
AcDbEntity
  8
AXIS
100
AcDbLine
 62
7
  6
CONTINUOUS
 10
4.6698285349
 20
4.2632926665
 11
4.672285585
 21
4.2632926665
  0
LINE
  5
477
100
AcDbEntity
  8
AXIS
100
AcDbLine
 62
7
  6
CONTINUOUS
 10
4.7398285349
 20
4.2632926665
 11
4.781836409
 21
4.2632926665
  0
LINE
  5
478
100
AcDbEntity
  8
AXIS
100
AcDbLine
 62
7
  6
CONTINUOUS
 10
4.8493793589
 20
4.2632926665
 11
4.851836409
 21
4.2632926665
  0
LINE
  5
479
100
AcDbEntity
  8
AXIS
100
AcDbLine
 62
7
  6
CONTINUOUS
 10
2.6721068333
 20
4.2691466623
 11
2.6925844405
 21
4.2691466623
  0
LINE
  5
47A
100
AcDbEntity
  8
AXIS
100
AcDbLine
 62
7
  6
CONTINUOUS
 10
2.7345923145
 20
4.2691466623
 11
2.7550699216
 21
4.2691466623
  0
LINE
  5
47B
100
AcDbEntity
  8
AXIS
100
AcDbLine
 62
7
  6
CONTINUOUS
 10
4.7193509278
 20
4.2691466623
 11
4.7398285349
 21
4.2691466623
  0
LINE
  5
47C
100
AcDbEntity
  8
AXIS
100
AcDbLine
 62
7
  6
CONTINUOUS
 10
4.781836409
 20
4.2691466623
 11
4.8023140161
 21
4.2691466623
  0
LINE
  5
47D
100
AcDbEntity
  8
0
100
AcDbLine
 62
7
  6
CONTINUOUS
 10
4.0915411334
 20
3.5588894636
 11
4.0915411334
 21
3.5750145039
  0
LINE
  5
47E
100
AcDbEntity
  8
0
100
AcDbLine
 62
7
  6
CONTINUOUS
 10
3.0370702405
 20
3.5750145039
 11
3.139713434
 21
3.6468860417
  0
LINE
  5
47F
100
AcDbEntity
  8
0
100
AcDbLine
 62
7
  6
CONTINUOUS
 10
3.1510043087
 20
3.6307610015
 11
3.0483611152
 21
3.5588894636
  0
LINE
  5
480
100
AcDbEntity
  8
0
100
AcDbLine
 62
7
  6
CONTINUOUS
 10
4.3406506506
 20
3.7148175312
 11
4.3323313935
 21
3.7326582356
  0
LINE
  5
481
100
AcDbEntity
  8
0
100
AcDbLine
 62
7
  6
CONTINUOUS
 10
4.3615118052
 20
3.7245452473
 11
4.3531925481
 21
3.7423859518
  0
LINE
  5
482
100
AcDbEntity
  8
0
100
AcDbLine
 62
7
  6
CONTINUOUS
 10
4.1309112121
 20
4.0137817915
 11
4.1309112121
 21
3.5975962534
  0
LINE
  5
483
100
AcDbEntity
  8
0
100
AcDbLine
 62
7
  6
CONTINUOUS
 10
4.1309112121
 20
3.5814712131
 11
4.1309112121
 21
3.5975962534
  0
LINE
  5
484
100
AcDbEntity
  8
0
100
AcDbLine
 62
7
  6
CONTINUOUS
 10
4.1505962515
 20
3.8897660435
 11
4.1505962515
 21
3.9940967521
  0
LINE
  5
485
100
AcDbEntity
  8
0
100
AcDbLine
 62
7
  6
CONTINUOUS
 10
4.3080765664
 20
4.6830731301
 11
4.3080765664
 21
4.0804668309
  0
LWPOLYLINE
  5
486
100
AcDbEntity
  8
0
100
AcDbPolyline
 62
7
  6
CONTINUOUS
 90
7
 70
0
 10
4.1309112121
 20
3.5814712131
 10
4.1295697092
 20
3.5756266263
 10
4.1256366217
 20
3.5701803384
 10
4.119379983
 20
3.5655035049
 10
4.1112261727
 20
3.5619148444
 10
4.1017308596
 20
3.5596589181
 10
4.0915411334
 20
3.5588894636
  0
LINE
  5
487
100
AcDbEntity
  8
0
100
AcDbLine
 62
7
  6
CONTINUOUS
 10
4.3550765664
 20
4.0804668309
 11
4.3550765664
 21
4.6830731301
  0
LINE
  5
488
100
AcDbEntity
  8
0
100
AcDbLine
 62
7
  6
CONTINUOUS
 10
4.3636120553
 20
4.0003266483
 11
4.3636120553
 21
3.9940967521
  0
LINE
  5
489
100
AcDbEntity
  8
0
100
AcDbLine
 62
7
  6
CONTINUOUS
 10
4.3759667519
 20
3.8897660435
 11
4.3644834228
 21
3.758510992
  0
LINE
  5
48A
100
AcDbEntity
  8
02___PRT_ALL_AXES
100
AcDbLine
 62
7
  6
CONTINUOUS
 10
3.9877600716
 20
5.0196972455
 11
4.2965453374
 21
4.7109119798
  0
LINE
  5
48B
100
AcDbEntity
  8
02___PRT_ALL_AXES
100
AcDbLine
 62
7
  6
CONTINUOUS
 10
4.3297793561
 20
4.7441459985
 11
4.0209940903
 21
5.0529312642
  0
LINE
  5
48C
100
AcDbEntity
  8
AXIS
100
AcDbLine
 62
7
  6
CONTINUOUS
 10
4.510832472
 20
4.0410967521
 11
4.510832472
 21
4.0900967521
  0
LINE
  5
48D
100
AcDbEntity
  8
0
100
AcDbLine
 62
7
  6
CONTINUOUS
 10
4.3957269849
 20
3.8897660435
 11
4.3840935547
 21
3.7567953278
  0
LINE
  5
48E
100
AcDbEntity
  8
AXIS_COSMETIC_THREADS
100
AcDbLine
 62
7
  6
CONTINUOUS
 10
4.560832472
 20
4.2318290356
 11
4.560832472
 21
4.1137187994
  0
LINE
  5
48F
100
AcDbEntity
  8
0
100
AcDbLine
 62
7
  6
CONTINUOUS
 10
4.5639820783
 20
4.0900967521
 11
4.5639820783
 21
4.1137187994
  0
LINE
  5
490
100
AcDbEntity
  8
0
100
AcDbLine
 62
7
  6
CONTINUOUS
 10
4.3347074154
 20
3.6468860417
 11
4.3234165407
 21
3.6307610015
  0
LINE
  5
491
100
AcDbEntity
  8
0
100
AcDbLine
 62
7
  6
CONTINUOUS
 10
4.3531925481
 20
3.7423859518
 11
4.3323313935
 21
3.7326582356
  0
LINE
  5
492
100
AcDbEntity
  8
0
100
AcDbLine
 62
7
  6
CONTINUOUS
 10
4.3615118052
 20
3.7245452473
 11
4.3406506506
 21
3.7148175312
  0
LINE
  5
493
100
AcDbEntity
  8
AXIS_COSMETIC_THREADS
100
AcDbLine
 62
7
  6
CONTINUOUS
 10
4.664832472
 20
3.8897660435
 11
4.664832472
 21
3.8774983269
  0
LINE
  5
494
100
AcDbEntity
  8
AXIS
100
AcDbLine
 62
7
  6
CONTINUOUS
 10
4.7398285349
 20
4.2632926665
 11
4.7398285349
 21
4.2691466623
  0
LINE
  5
495
100
AcDbEntity
  8
0
100
AcDbLine
 62
7
  6
CONTINUOUS
 10
4.3938096537
 20
3.5814712131
 11
4.4051005284
 21
3.5975962534
  0
LINE
  5
496
100
AcDbEntity
  8
0
100
AcDbLine
 62
7
  6
CONTINUOUS
 10
4.4260597342
 20
3.5588894636
 11
4.4373506089
 21
3.5750145039
  0
LINE
  5
497
100
AcDbEntity
  8
AXIS
100
AcDbLine
 62
7
  6
CONTINUOUS
 10
4.781836409
 20
4.2691466623
 11
4.781836409
 21
4.2632926665
  0
LINE
  5
498
100
AcDbEntity
  8
AXIS_COSMETIC_THREADS
100
AcDbLine
 62
7
  6
CONTINUOUS
 10
4.856832472
 20
3.8897660435
 11
4.856832472
 21
3.8774983269
  0
LINE
  5
499
100
AcDbEntity
  8
0
100
AcDbLine
 62
7
  6
CONTINUOUS
 10
4.9576828657
 20
4.0900967521
 11
4.9576828657
 21
4.1137187994
  0
LINE
  5
49A
100
AcDbEntity
  8
AXIS_COSMETIC_THREADS
100
AcDbLine
 62
7
  6
CONTINUOUS
 10
4.960832472
 20
4.2318290356
 11
4.960832472
 21
4.1137187994
  0
LINE
  5
49B
100
AcDbEntity
  8
0
100
AcDbLine
 62
7
  6
CONTINUOUS
 10
4.9970529444
 20
3.9940967521
 11
4.9970529444
 21
3.8897660435
  0
LINE
  5
49C
100
AcDbEntity
  8
AXIS
100
AcDbLine
 62
7
  6
CONTINUOUS
 10
5.010832472
 20
4.0410967521
 11
5.010832472
 21
4.0900967521
  0
LINE
  5
49D
100
AcDbEntity
  8
0
100
AcDbLine
 62
7
  6
CONTINUOUS
 10
5.0167379838
 20
3.9940967521
 11
5.0167379838
 21
4.0410967521
  0
LINE
  5
49E
100
AcDbEntity
  8
0
100
AcDbLine
 62
7
  6
CONTINUOUS
 10
5.0954781412
 20
3.9940967521
 11
5.0954781412
 21
4.0410967521
  0
LINE
  5
49F
100
AcDbEntity
  8
0
100
AcDbLine
 62
7
  6
CONTINUOUS
 10
5.2332734168
 20
3.9940967521
 11
5.2332734168
 21
3.8897660435
  0
LINE
  5
4A0
100
AcDbEntity
  8
0
100
AcDbLine
 62
7
  6
CONTINUOUS
 10
7.9813968295
 20
3.5588894636
 11
7.9701059548
 21
3.5750145039
  0
LINE
  5
4A1
100
AcDbEntity
  8
0
100
AcDbLine
 62
7
  6
CONTINUOUS
 10
8.01364691
 20
3.5814712131
 11
8.0023560353
 21
3.5975962534
  0
LINE
  5
4A2
100
AcDbEntity
  8
0
100
AcDbLine
 62
7
  6
CONTINUOUS
 10
8.0727491483
 20
3.6468860417
 11
8.084040023
 21
3.6307610015
  0
LWPOLYLINE
  5
4A3
100
AcDbEntity
  8
0
100
AcDbPolyline
 62
7
  6
CONTINUOUS
 90
7
 70
0
 10
8.3159154303
 20
3.5588894636
 10
8.3057257041
 20
3.5596589181
 10
8.296230391
 20
3.5619148444
 10
8.2880765807
 20
3.5655035049
 10
8.281819942
 20
3.5701803384
 10
8.2778868545
 20
3.5756266263
 10
8.2765453516
 20
3.5814712131
  0
LINE
  5
4A4
100
AcDbEntity
  8
0
100
AcDbLine
 62
7
  6
CONTINUOUS
 10
8.0459447585
 20
3.7245452473
 11
8.0668059131
 21
3.7148175312
  0
LINE
  5
4A5
100
AcDbEntity
  8
0
100
AcDbLine
 62
7
  6
CONTINUOUS
 10
8.0542640156
 20
3.7423859518
 11
8.0751251702
 21
3.7326582356
  0
LINE
  5
4A6
100
AcDbEntity
  8
0
100
AcDbLine
 62
7
  6
CONTINUOUS
 10
7.8828445642
 20
3.9940967521
 11
7.8828445642
 21
3.8897660435
  0
LWPOLYLINE
  5
4A7
100
AcDbEntity
  8
0
100
AcDbPolyline
 62
7
  6
CONTINUOUS
 90
7
 70
0
 10
9.0245768477
 20
3.5750145039
 10
9.0347665738
 20
3.5757839583
 10
9.044261887
 20
3.5780398847
 10
9.0524156973
 20
3.5816285452
 10
9.058672336
 20
3.5863053786
 10
9.0626054235
 20
3.5917516665
 10
9.0639469264
 20
3.5975962534
  0
LINE
  5
4A8
100
AcDbEntity
  8
0
100
AcDbLine
 62
7
  6
CONTINUOUS
 10
9.0245768477
 20
3.5588894636
 11
8.3159154303
 21
3.5588894636
  0
LINE
  5
4A9
100
AcDbEntity
  8
0
100
AcDbLine
 62
7
  6
CONTINUOUS
 10
9.0245768477
 20
3.5750145039
 11
8.3159154303
 21
3.5750145039
  0
LINE
  5
4AA
100
AcDbEntity
  8
0
100
AcDbLine
 62
7
  6
CONTINUOUS
 10
8.0117295788
 20
3.8897660435
 11
8.023363009
 21
3.7567953278
  0
LINE
  5
4AB
100
AcDbEntity
  8
0
100
AcDbLine
 62
7
  6
CONTINUOUS
 10
8.0314898118
 20
3.8897660435
 11
8.0429731409
 21
3.758510992
  0
LINE
  5
4AC
100
AcDbEntity
  8
0
100
AcDbLine
 62
7
  6
CONTINUOUS
 10
9.0639469264
 20
3.6468860417
 11
8.2765453516
 21
3.6468860417
  0
LINE
  5
4AD
100
AcDbEntity
  8
0
100
AcDbLine
 62
7
  6
CONTINUOUS
 10
8.0438445084
 20
4.0137817915
 11
8.0438445084
 21
3.9940967521
  0
LINE
  5
4AE
100
AcDbEntity
  8
0
100
AcDbLine
 62
7
  6
CONTINUOUS
 10
9.0639469264
 20
3.7148175312
 11
8.2765453516
 21
3.7148175312
  0
LINE
  5
4AF
100
AcDbEntity
  8
0
100
AcDbLine
 62
7
  6
CONTINUOUS
 10
9.0639469264
 20
3.7245452473
 11
8.2765453516
 21
3.7245452473
  0
LINE
  5
4B0
100
AcDbEntity
  8
0
100
AcDbLine
 62
7
  6
CONTINUOUS
 10
9.0639469264
 20
3.7567953278
 11
8.2765453516
 21
3.7567953278
  0
LINE
  5
4B1
100
AcDbEntity
  8
0
100
AcDbLine
 62
7
  6
CONTINUOUS
 10
8.1190650366
 20
3.9940967521
 11
8.1190650366
 21
3.8897660435
  0
LINE
  5
4B2
100
AcDbEntity
  8
0
100
AcDbLine
 62
7
  6
CONTINUOUS
 10
8.023363009
 20
3.7567953278
 11
8.0429731409
 21
3.758510992
  0
LINE
  5
4B3
100
AcDbEntity
  8
0
100
AcDbLine
 62
7
  6
CONTINUOUS
 10
9.317129269
 20
3.7567953278
 11
9.2975191371
 21
3.758510992
  0
LWPOLYLINE
  5
4B4
100
AcDbEntity
  8
0
100
AcDbPolyline
 62
7
  6
CONTINUOUS
 90
7
 70
0
 10
8.2765453516
 20
3.5975962534
 10
8.2778868545
 20
3.5917516665
 10
8.281819942
 20
3.5863053786
 10
8.2880765807
 20
3.5816285452
 10
8.296230391
 20
3.5780398847
 10
8.3057257041
 20
3.5757839583
 10
8.3159154303
 20
3.5750145039
  0
LINE
  5
4B5
100
AcDbEntity
  8
0
100
AcDbLine
 62
7
  6
CONTINUOUS
 10
8.1584351154
 20
3.9940967521
 11
8.1584351154
 21
4.6830731301
  0
LINE
  5
4B6
100
AcDbEntity
  8
02___PRT_ALL_AXES
100
AcDbLine
 62
7
  6
CONTINUOUS
 10
8.1584351154
 20
4.6830731301
 11
8.1584351154
 21
5.1704783016
  0
LINE
  5
4B7
100
AcDbEntity
  8
AXIS_COSMETIC_THREADS
100
AcDbLine
 62
7
  6
CONTINUOUS
 10
8.766246139
 20
3.8774983269
 11
8.574246139
 21
3.8774983269
  0
LINE
  5
4B8
100
AcDbEntity
  8
0
100
AcDbLine
 62
7
  6
CONTINUOUS
 10
7.8828445642
 20
3.8897660435
 11
9.4576477138
 21
3.8897660435
  0
LINE
  5
4B9
100
AcDbEntity
  8
0
100
AcDbLine
 62
7
  6
CONTINUOUS
 10
8.2371752729
 20
3.9940967521
 11
8.2371752729
 21
4.0410967521
  0
LINE
  5
4BA
100
AcDbEntity
  8
0
100
AcDbLine
 62
7
  6
CONTINUOUS
 10
8.2765453516
 20
3.8897660435
 11
8.2765453516
 21
3.5975962534
  0
LINE
  5
4BB
100
AcDbEntity
  8
0
100
AcDbLine
 62
7
  6
CONTINUOUS
 10
8.2765453516
 20
3.5814712131
 11
8.2765453516
 21
3.5975962534
  0
LINE
  5
4BC
100
AcDbEntity
  8
0
100
AcDbLine
 62
7
  6
CONTINUOUS
 10
7.8828445642
 20
3.9940967521
 11
9.4576477138
 21
3.9940967521
  0
LINE
  5
4BD
100
AcDbEntity
  8
0
100
AcDbLine
 62
7
  6
CONTINUOUS
 10
8.3159154303
 20
3.5588894636
 11
8.3159154303
 21
3.5750145039
  0
LINE
  5
4BE
100
AcDbEntity
  8
0
100
AcDbLine
 62
7
  6
CONTINUOUS
 10
8.0459447585
 20
3.7245452473
 11
8.0542640156
 21
3.7423859518
  0
LINE
  5
4BF
100
AcDbEntity
  8
0
100
AcDbLine
 62
7
  6
CONTINUOUS
 10
8.0438445084
 20
4.0137817915
 11
8.1584351154
 21
4.0137817915
  0
LINE
  5
4C0
100
AcDbEntity
  8
0
100
AcDbLine
 62
7
  6
CONTINUOUS
 10
9.1820571626
 20
4.0137817915
 11
9.2966477696
 21
4.0137817915
  0
LINE
  5
4C1
100
AcDbEntity
  8
0
100
AcDbLine
 62
7
  6
CONTINUOUS
 10
8.1584351154
 20
4.0410967521
 11
9.1820571626
 21
4.0410967521
  0
LINE
  5
4C2
100
AcDbEntity
  8
AXIS
100
AcDbLine
 62
7
  6
CONTINUOUS
 10
8.420246139
 20
4.0410967521
 11
8.420246139
 21
4.0900967521
  0
LINE
  5
4C3
100
AcDbEntity
  8
0
100
AcDbLine
 62
7
  6
CONTINUOUS
 10
8.0668059131
 20
3.7148175312
 11
8.0751251702
 21
3.7326582356
  0
LINE
  5
4C4
100
AcDbEntity
  8
0
100
AcDbLine
 62
7
  6
CONTINUOUS
 10
9.1820571626
 20
4.0804668309
 11
8.920246139
 21
4.0804668309
  0
LINE
  5
4C5
100
AcDbEntity
  8
0
100
AcDbLine
 62
7
  6
CONTINUOUS
 10
8.420246139
 20
4.0804668309
 11
8.1584351154
 21
4.0804668309
  0
LINE
  5
4C6
100
AcDbEntity
  8
AXIS
100
AcDbLine
 62
7
  6
CONTINUOUS
 10
8.420246139
 20
4.0900967521
 11
8.920246139
 21
4.0900967521
  0
LINE
  5
4C7
100
AcDbEntity
  8
AXIS_COSMETIC_THREADS
100
AcDbLine
 62
7
  6
CONTINUOUS
 10
8.4702469972
 20
4.1137187994
 11
8.8702452808
 21
4.1137187994
  0
LINE
  5
4C8
100
AcDbEntity
  8
0
100
AcDbLine
 62
7
  6
CONTINUOUS
 10
9.256452255
 20
3.6307610015
 11
9.3590954485
 21
3.5588894636
  0
LINE
  5
4C9
100
AcDbEntity
  8
0
100
AcDbLine
 62
7
  6
CONTINUOUS
 10
9.2677431297
 20
3.6468860417
 11
9.3703863232
 21
3.5750145039
  0
LINE
  5
4CA
100
AcDbEntity
  8
AXIS_COSMETIC_THREADS
100
AcDbLine
 62
7
  6
CONTINUOUS
 10
8.470246139
 20
4.1137187994
 11
8.470246139
 21
4.2318290356
  0
LINE
  5
4CB
100
AcDbEntity
  8
0
100
AcDbLine
 62
7
  6
CONTINUOUS
 10
8.4733957453
 20
4.0900967521
 11
8.4733957453
 21
4.1137187994
  0
LINE
  5
4CC
100
AcDbEntity
  8
AXIS_COSMETIC_THREADS
100
AcDbLine
 62
7
  6
CONTINUOUS
 10
8.574246139
 20
3.8897660435
 11
8.574246139
 21
3.8774983269
  0
LINE
  5
4CD
100
AcDbEntity
  8
AXIS_COSMETIC_THREADS
100
AcDbLine
 62
7
  6
CONTINUOUS
 10
8.470246139
 20
4.2318290356
 11
8.870246139
 21
4.2318290356
  0
LINE
  5
4CE
100
AcDbEntity
  8
AXIS
100
AcDbLine
 62
7
  6
CONTINUOUS
 10
8.579242202
 20
4.2632926665
 11
8.5816992521
 21
4.2632926665
  0
LINE
  5
4CF
100
AcDbEntity
  8
AXIS
100
AcDbLine
 62
7
  6
CONTINUOUS
 10
8.649242202
 20
4.2632926665
 11
8.691250076
 21
4.2632926665
  0
LINE
  5
4D0
100
AcDbEntity
  8
AXIS
100
AcDbLine
 62
7
  6
CONTINUOUS
 10
8.7587930259
 20
4.2632926665
 11
8.761250076
 21
4.2632926665
  0
LINE
  5
4D1
100
AcDbEntity
  8
AXIS
100
AcDbLine
 62
7
  6
CONTINUOUS
 10
8.6287645949
 20
4.2691466623
 11
8.649242202
 21
4.2691466623
  0
LINE
  5
4D2
100
AcDbEntity
  8
AXIS
100
AcDbLine
 62
7
  6
CONTINUOUS
 10
8.691250076
 20
4.2691466623
 11
8.7117276831
 21
4.2691466623
  0
LINE
  5
4D3
100
AcDbEntity
  8
AXIS
100
AcDbLine
 62
7
  6
CONTINUOUS
 10
8.649242202
 20
4.2632926665
 11
8.649242202
 21
4.2691466623
  0
LINE
  5
4D4
100
AcDbEntity
  8
AXIS
100
AcDbLine
 62
7
  6
CONTINUOUS
 10
8.691250076
 20
4.2691466623
 11
8.691250076
 21
4.2632926665
  0
LINE
  5
4D5
100
AcDbEntity
  8
AXIS_COSMETIC_THREADS
100
AcDbLine
 62
7
  6
CONTINUOUS
 10
8.766246139
 20
3.8897660435
 11
8.766246139
 21
3.8774983269
  0
LINE
  5
4D6
100
AcDbEntity
  8
0
100
AcDbLine
 62
7
  6
CONTINUOUS
 10
8.8670965327
 20
4.0900967521
 11
8.8670965327
 21
4.1137187994
  0
LINE
  5
4D7
100
AcDbEntity
  8
AXIS_COSMETIC_THREADS
100
AcDbLine
 62
7
  6
CONTINUOUS
 10
8.870246139
 20
4.1137187994
 11
8.870246139
 21
4.2318290356
  0
LINE
  5
4D8
100
AcDbEntity
  8
AXIS
100
AcDbLine
 62
7
  6
CONTINUOUS
 10
8.920246139
 20
4.0410967521
 11
8.920246139
 21
4.0900967521
  0
LINE
  5
4D9
100
AcDbEntity
  8
0
100
AcDbLine
 62
7
  6
CONTINUOUS
 10
7.9701059548
 20
3.5750145039
 11
8.0727491483
 21
3.6468860417
  0
LINE
  5
4DA
100
AcDbEntity
  8
0
100
AcDbLine
 62
7
  6
CONTINUOUS
 10
8.084040023
 20
3.6307610015
 11
7.9813968295
 21
3.5588894636
  0
LINE
  5
4DB
100
AcDbEntity
  8
0
100
AcDbLine
 62
7
  6
CONTINUOUS
 10
9.2736863649
 20
3.7148175312
 11
9.2653671078
 21
3.7326582356
  0
LINE
  5
4DC
100
AcDbEntity
  8
0
100
AcDbLine
 62
7
  6
CONTINUOUS
 10
9.2945475195
 20
3.7245452473
 11
9.2862282624
 21
3.7423859518
  0
LINE
  5
4DD
100
AcDbEntity
  8
0
100
AcDbLine
 62
7
  6
CONTINUOUS
 10
9.0245768477
 20
3.5588894636
 11
9.0245768477
 21
3.5750145039
  0
LINE
  5
4DE
100
AcDbEntity
  8
02___PRT_ALL_AXES
100
AcDbLine
 62
7
  6
CONTINUOUS
 10
9.1820571626
 20
4.6830731301
 11
8.1584351154
 21
4.6830731301
  0
LINE
  5
4DF
100
AcDbEntity
  8
02___PRT_ALL_AXES
100
AcDbLine
 62
7
  6
CONTINUOUS
 10
9.1820571626
 20
4.7441459985
 11
8.1584351154
 21
4.7441459985
  0
LINE
  5
4E0
100
AcDbEntity
  8
0
100
AcDbLine
 62
7
  6
CONTINUOUS
 10
9.0639469264
 20
3.8897660435
 11
9.0639469264
 21
3.5975962534
  0
LINE
  5
4E1
100
AcDbEntity
  8
0
100
AcDbLine
 62
7
  6
CONTINUOUS
 10
9.0639469264
 20
3.5814712131
 11
9.0639469264
 21
3.5975962534
  0
LINE
  5
4E2
100
AcDbEntity
  8
0
100
AcDbLine
 62
7
  6
CONTINUOUS
 10
9.1033170051
 20
4.0410967521
 11
9.1033170051
 21
3.9940967521
  0
LINE
  5
4E3
100
AcDbEntity
  8
0
100
AcDbLine
 62
7
  6
CONTINUOUS
 10
9.1820571626
 20
3.9940967521
 11
9.1820571626
 21
4.6830731301
  0
LINE
  5
4E4
100
AcDbEntity
  8
02___PRT_ALL_AXES
100
AcDbLine
 62
7
  6
CONTINUOUS
 10
9.1820571626
 20
4.6830731301
 11
9.1820571626
 21
5.1704783016
  0
LINE
  5
4E5
100
AcDbEntity
  8
0
100
AcDbLine
 62
7
  6
CONTINUOUS
 10
9.2214272414
 20
3.9940967521
 11
9.2214272414
 21
3.8897660435
  0
LWPOLYLINE
  5
4E6
100
AcDbEntity
  8
0
100
AcDbPolyline
 62
7
  6
CONTINUOUS
 90
7
 70
0
 10
9.0639469264
 20
3.5814712131
 10
9.0626054235
 20
3.5756266263
 10
9.058672336
 20
3.5701803384
 10
9.0524156973
 20
3.5655035049
 10
9.044261887
 20
3.5619148444
 10
9.0347665738
 20
3.5596589181
 10
9.0245768477
 20
3.5588894636
  0
LINE
  5
4E7
100
AcDbEntity
  8
0
100
AcDbLine
 62
7
  6
CONTINUOUS
 10
9.2966477696
 20
4.0137817915
 11
9.2966477696
 21
3.9940967521
  0
LINE
  5
4E8
100
AcDbEntity
  8
0
100
AcDbLine
 62
7
  6
CONTINUOUS
 10
9.3090024662
 20
3.8897660435
 11
9.2975191371
 21
3.758510992
  0
LINE
  5
4E9
100
AcDbEntity
  8
0
100
AcDbLine
 62
7
  6
CONTINUOUS
 10
9.3287626992
 20
3.8897660435
 11
9.317129269
 21
3.7567953278
  0
LINE
  5
4EA
100
AcDbEntity
  8
02___PRT_ALL_AXES
100
AcDbLine
 62
7
  6
CONTINUOUS
 10
9.1820571626
 20
5.0529312642
 11
8.1584351154
 21
5.0529312642
  0
LINE
  5
4EB
100
AcDbEntity
  8
0
100
AcDbLine
 62
7
  6
CONTINUOUS
 10
9.4576477138
 20
3.9940967521
 11
9.4576477138
 21
3.8897660435
  0
LINE
  5
4EC
100
AcDbEntity
  8
0
100
AcDbLine
 62
7
  6
CONTINUOUS
 10
9.2862282624
 20
3.7423859518
 11
9.2653671078
 21
3.7326582356
  0
LINE
  5
4ED
100
AcDbEntity
  8
02___PRT_ALL_AXES
100
AcDbLine
 62
7
  6
CONTINUOUS
 10
9.1820571626
 20
5.1704783073
 11
8.1584351154
 21
5.1704783073
  0
LINE
  5
4EE
100
AcDbEntity
  8
0
100
AcDbLine
 62
7
  6
CONTINUOUS
 10
9.2677431297
 20
3.6468860417
 11
9.256452255
 21
3.6307610015
  0
LINE
  5
4EF
100
AcDbEntity
  8
0
100
AcDbLine
 62
7
  6
CONTINUOUS
 10
9.2945475195
 20
3.7245452473
 11
9.2736863649
 21
3.7148175312
  0
LINE
  5
4F0
100
AcDbEntity
  8
0
100
AcDbLine
 62
7
  6
CONTINUOUS
 10
9.326845368
 20
3.5814712131
 11
9.3381362427
 21
3.5975962534
  0
LINE
  5
4F1
100
AcDbEntity
  8
0
100
AcDbLine
 62
7
  6
CONTINUOUS
 10
9.3590954485
 20
3.5588894636
 11
9.3703863232
 21
3.5750145039
  0
LINE
  5
4F2
100
AcDbEntity
  8
0
100
AcDbLine
 62
7
  6
CONTINUOUS
 10
2.2411474326
 20
8.7371728977
 11
2.2411474326
 21
7.634810693
  0
LINE
  5
4F3
100
AcDbEntity
  8
0
100
AcDbLine
 62
7
  6
CONTINUOUS
 10
2.3789427082
 20
8.6190626615
 11
2.3789427082
 21
7.7529209292
  0
LINE
  5
4F4
100
AcDbEntity
  8
AXIS
100
AcDbLine
 62
7
  6
CONTINUOUS
 10
2.6925844405
 20
8.0974449085
 11
2.6925844405
 21
8.1445102512
  0
LINE
  5
4F5
100
AcDbEntity
  8
AXIS
100
AcDbLine
 62
7
  6
CONTINUOUS
 10
2.6925844405
 20
8.2274733395
 11
2.6925844405
 21
8.2745386823
  0
LINE
  5
4F6
100
AcDbEntity
  8
AXIS
100
AcDbLine
 62
7
  6
CONTINUOUS
 10
2.7345923145
 20
8.2745386823
 11
2.7345923145
 21
8.2274733395
  0
LINE
  5
4F7
100
AcDbEntity
  8
AXIS
100
AcDbLine
 62
7
  6
CONTINUOUS
 10
2.7345923145
 20
8.1445102512
 11
2.7345923145
 21
8.0974449085
  0
LINE
  5
4F8
100
AcDbEntity
  8
0
100
AcDbLine
 62
7
  6
CONTINUOUS
 10
2.477367905
 20
7.3985902206
 11
3.3238245979
 21
7.3985902206
  0
LINE
  5
4F9
100
AcDbEntity
  8
0
100
AcDbLine
 62
7
  6
CONTINUOUS
 10
4.1505962515
 20
7.3985902206
 11
4.9970529444
 21
7.3985902206
  0
LWPOLYLINE
  5
4FA
100
AcDbEntity
  8
0
100
AcDbPolyline
 62
7
  6
CONTINUOUS
 90
7
 70
0
 10
4.0915411334
 20
7.4858516111
 10
4.1017308596
 20
7.486950506
 10
4.1112261727
 20
7.4901723027
 10
4.119379983
 20
7.495297441
 10
4.1256366217
 20
7.5019766514
 10
4.1295697092
 20
7.5097547566
 10
4.1309112121
 20
7.5181016916
  0
LINE
  5
4FB
100
AcDbEntity
  8
0
100
AcDbLine
 62
7
  6
CONTINUOUS
 10
4.0915411334
 20
7.4858516111
 11
3.382879716
 21
7.4858516111
  0
LINE
  5
4FC
100
AcDbEntity
  8
0
100
AcDbLine
 62
7
  6
CONTINUOUS
 10
4.1309112121
 20
7.520220086
 11
3.3435096373
 21
7.520220086
  0
LINE
  5
4FD
100
AcDbEntity
  8
0
100
AcDbLine
 62
7
  6
CONTINUOUS
 10
3.0799742042
 20
7.6741807717
 11
3.0799742042
 21
8.697802819
  0
LINE
  5
4FE
100
AcDbEntity
  8
02___PRT_ALL_AXES
100
AcDbLine
 62
7
  6
CONTINUOUS
 10
3.119344283
 20
8.697802819
 11
3.119344283
 21
7.6741807717
  0
LINE
  5
4FF
100
AcDbEntity
  8
02___PRT_ALL_AXES
100
AcDbLine
 62
7
  6
CONTINUOUS
 10
3.1446414933
 20
8.697802819
 11
3.1446414933
 21
7.6741807717
  0
LINE
  5
500
100
AcDbEntity
  8
0
100
AcDbLine
 62
7
  6
CONTINUOUS
 10
4.1309112121
 20
7.5595901647
 11
3.3435096373
 21
7.5595901647
  0
LINE
  5
501
100
AcDbEntity
  8
0
100
AcDbLine
 62
7
  6
CONTINUOUS
 10
5.0167379838
 20
7.6741807717
 11
4.3550765664
 21
7.6741807717
  0
LINE
  5
502
100
AcDbEntity
  8
0
100
AcDbLine
 62
7
  6
CONTINUOUS
 10
2.4576828657
 20
7.6741807717
 11
3.119344283
 21
7.6741807717
  0
LINE
  5
503
100
AcDbEntity
  8
02___PRT_ALL_AXES
100
AcDbLine
 62
7
  6
CONTINUOUS
 10
3.119344283
 20
7.6741807717
 11
4.3550765664
 21
7.6741807717
  0
LWPOLYLINE
  5
504
100
AcDbEntity
  8
0
100
AcDbPolyline
 62
7
  6
CONTINUOUS
 90
7
 70
0
 10
3.3435096373
 20
7.5181016916
 10
3.3448511402
 20
7.5097547566
 10
3.3487842277
 20
7.5019766514
 10
3.3550408664
 20
7.495297441
 10
3.3631946767
 20
7.4901723027
 10
3.3726899899
 20
7.486950506
 10
3.382879716
 20
7.4858516111
  0
LINE
  5
505
100
AcDbEntity
  8
0
100
AcDbLine
 62
7
  6
CONTINUOUS
 10
3.3238245979
 20
8.9733933702
 11
3.3238245979
 21
8.8159130552
  0
LINE
  5
506
100
AcDbEntity
  8
0
100
AcDbLine
 62
7
  6
CONTINUOUS
 10
3.3238245979
 20
7.3985902206
 11
3.3238245979
 21
7.5560705355
  0
LINE
  5
507
100
AcDbEntity
  8
0
100
AcDbLine
 62
7
  6
CONTINUOUS
 10
3.3435096373
 20
7.6741807717
 11
3.3435096373
 21
7.5202271521
  0
LINE
  5
508
100
AcDbEntity
  8
0
100
AcDbLine
 62
7
  6
CONTINUOUS
 10
3.3435096373
 20
7.520220086
 11
3.3435096373
 21
7.5181016916
  0
LINE
  5
509
100
AcDbEntity
  8
0
100
AcDbLine
 62
7
  6
CONTINUOUS
 10
3.3435096373
 20
8.697802819
 11
3.3435096373
 21
8.8517564386
  0
LINE
  5
50A
100
AcDbEntity
  8
0
100
AcDbLine
 62
7
  6
CONTINUOUS
 10
3.3435096373
 20
8.8517635047
 11
3.3435096373
 21
8.8538818991
  0
LINE
  5
50B
100
AcDbEntity
  8
02___PRT_ALL_AXES
100
AcDbLine
 62
7
  6
CONTINUOUS
 10
3.4534267591
 20
8.697802819
 11
3.4534267591
 21
7.6741807717
  0
LINE
  5
50C
100
AcDbEntity
  8
AXIS
100
AcDbLine
 62
7
  6
CONTINUOUS
 10
4.8493793589
 20
8.1649878584
 11
4.8023140161
 21
8.1649878584
  0
LINE
  5
50D
100
AcDbEntity
  8
AXIS
100
AcDbLine
 62
7
  6
CONTINUOUS
 10
4.7193509278
 20
8.1649878584
 11
4.672285585
 21
8.1649878584
  0
LINE
  5
50E
100
AcDbEntity
  8
AXIS
100
AcDbLine
 62
7
  6
CONTINUOUS
 10
2.8021352644
 20
8.1649878584
 11
2.7550699216
 21
8.1649878584
  0
LINE
  5
50F
100
AcDbEntity
  8
AXIS
100
AcDbLine
 62
7
  6
CONTINUOUS
 10
2.6721068333
 20
8.1649878584
 11
2.6250414906
 21
8.1649878584
  0
LINE
  5
510
100
AcDbEntity
  8
AXIS
100
AcDbLine
 62
7
  6
CONTINUOUS
 10
2.6250414906
 20
8.2069957324
 11
2.6721068333
 21
8.2069957324
  0
LINE
  5
511
100
AcDbEntity
  8
AXIS
100
AcDbLine
 62
7
  6
CONTINUOUS
 10
2.7550699216
 20
8.2069957324
 11
2.8021352644
 21
8.2069957324
  0
LINE
  5
512
100
AcDbEntity
  8
AXIS
100
AcDbLine
 62
7
  6
CONTINUOUS
 10
4.672285585
 20
8.2069957324
 11
4.7193509278
 21
8.2069957324
  0
LINE
  5
513
100
AcDbEntity
  8
AXIS
100
AcDbLine
 62
7
  6
CONTINUOUS
 10
4.8023140161
 20
8.2069957324
 11
4.8493793589
 21
8.2069957324
  0
LINE
  5
514
100
AcDbEntity
  8
02___PRT_ALL_AXES
100
AcDbLine
 62
7
  6
CONTINUOUS
 10
4.0209940903
 20
8.697802819
 11
4.0209940903
 21
7.6741807717
  0
LINE
  5
515
100
AcDbEntity
  8
0
100
AcDbLine
 62
7
  6
CONTINUOUS
 10
4.1309112121
 20
7.520220086
 11
4.1309112121
 21
7.5181016916
  0
LINE
  5
516
100
AcDbEntity
  8
0
100
AcDbLine
 62
7
  6
CONTINUOUS
 10
4.1309112121
 20
7.5202271521
 11
4.1309112121
 21
7.6741807717
  0
LINE
  5
517
100
AcDbEntity
  8
0
100
AcDbLine
 62
7
  6
CONTINUOUS
 10
4.1309112121
 20
8.697802819
 11
4.1309112121
 21
8.8517564386
  0
LINE
  5
518
100
AcDbEntity
  8
0
100
AcDbLine
 62
7
  6
CONTINUOUS
 10
4.1309112121
 20
8.8517635047
 11
4.1309112121
 21
8.8538818991
  0
LINE
  5
519
100
AcDbEntity
  8
0
100
AcDbLine
 62
7
  6
CONTINUOUS
 10
4.1505962515
 20
8.9733933702
 11
4.1505962515
 21
8.8159130552
  0
LINE
  5
51A
100
AcDbEntity
  8
0
100
AcDbLine
 62
7
  6
CONTINUOUS
 10
4.1505962515
 20
7.3985902206
 11
4.1505962515
 21
7.5560705355
  0
LINE
  5
51B
100
AcDbEntity
  8
0
100
AcDbLine
 62
7
  6
CONTINUOUS
 10
2.4576828657
 20
8.697802819
 11
3.119344283
 21
8.697802819
  0
LINE
  5
51C
100
AcDbEntity
  8
02___PRT_ALL_AXES
100
AcDbLine
 62
7
  6
CONTINUOUS
 10
3.119344283
 20
8.697802819
 11
4.3550765664
 21
8.697802819
  0
LINE
  5
51D
100
AcDbEntity
  8
0
100
AcDbLine
 62
7
  6
CONTINUOUS
 10
4.3550765664
 20
8.697802819
 11
5.0167379838
 21
8.697802819
  0
LWPOLYLINE
  5
51E
100
AcDbEntity
  8
0
100
AcDbPolyline
 62
7
  6
CONTINUOUS
 90
7
 70
0
 10
4.1309112121
 20
8.8538818991
 10
4.1295697092
 20
8.8622288341
 10
4.1256366217
 20
8.8700069393
 10
4.119379983
 20
8.8766861497
 10
4.1112261727
 20
8.8818112881
 10
4.1017308596
 20
8.8850330847
 10
4.0915411334
 20
8.8861319796
  0
LINE
  5
51F
100
AcDbEntity
  8
02___PRT_ALL_AXES
100
AcDbLine
 62
7
  6
CONTINUOUS
 10
4.3297793561
 20
8.697802819
 11
4.3297793561
 21
7.6741807717
  0
LINE
  5
520
100
AcDbEntity
  8
02___PRT_ALL_AXES
100
AcDbLine
 62
7
  6
CONTINUOUS
 10
4.3550765664
 20
8.697802819
 11
4.3550765664
 21
7.6741807717
  0
LINE
  5
521
100
AcDbEntity
  8
0
100
AcDbLine
 62
7
  6
CONTINUOUS
 10
4.3944466452
 20
8.697802819
 11
4.3944466452
 21
7.6741807717
  0
LINE
  5
522
100
AcDbEntity
  8
0
100
AcDbLine
 62
7
  6
CONTINUOUS
 10
3.3435096373
 20
8.812393426
 11
4.1309112121
 21
8.812393426
  0
LINE
  5
523
100
AcDbEntity
  8
0
100
AcDbLine
 62
7
  6
CONTINUOUS
 10
3.3435096373
 20
8.8517635047
 11
4.1309112121
 21
8.8517635047
  0
LWPOLYLINE
  5
524
100
AcDbEntity
  8
0
100
AcDbPolyline
 62
7
  6
CONTINUOUS
 90
7
 70
0
 10
3.382879716
 20
8.8861319796
 10
3.3726899899
 20
8.8850330847
 10
3.3631946767
 20
8.8818112881
 10
3.3550408664
 20
8.8766861497
 10
3.3487842277
 20
8.8700069393
 10
3.3448511402
 20
8.8622288341
 10
3.3435096373
 20
8.8538818991
  0
LINE
  5
525
100
AcDbEntity
  8
0
100
AcDbLine
 62
7
  6
CONTINUOUS
 10
3.382879716
 20
8.8861319796
 11
4.0915411334
 21
8.8861319796
  0
LINE
  5
526
100
AcDbEntity
  8
0
100
AcDbLine
 62
7
  6
CONTINUOUS
 10
4.9970529444
 20
8.9733933702
 11
4.1505962515
 21
8.9733933702
  0
LINE
  5
527
100
AcDbEntity
  8
0
100
AcDbLine
 62
7
  6
CONTINUOUS
 10
3.3238245979
 20
8.9733933702
 11
2.477367905
 21
8.9733933702
  0
LINE
  5
528
100
AcDbEntity
  8
AXIS
100
AcDbLine
 62
7
  6
CONTINUOUS
 10
4.7398285349
 20
8.0974449085
 11
4.7398285349
 21
8.1445102512
  0
LINE
  5
529
100
AcDbEntity
  8
AXIS
100
AcDbLine
 62
7
  6
CONTINUOUS
 10
4.7398285349
 20
8.2274733395
 11
4.7398285349
 21
8.2745386823
  0
LINE
  5
52A
100
AcDbEntity
  8
AXIS
100
AcDbLine
 62
7
  6
CONTINUOUS
 10
4.781836409
 20
8.2745386823
 11
4.781836409
 21
8.2274733395
  0
LINE
  5
52B
100
AcDbEntity
  8
AXIS
100
AcDbLine
 62
7
  6
CONTINUOUS
 10
4.781836409
 20
8.1445102512
 11
4.781836409
 21
8.0974449085
  0
LINE
  5
52C
100
AcDbEntity
  8
0
100
AcDbLine
 62
7
  6
CONTINUOUS
 10
5.0954781412
 20
8.6190626615
 11
5.0954781412
 21
7.7529209292
  0
LINE
  5
52D
100
AcDbEntity
  8
0
100
AcDbLine
 62
7
  6
CONTINUOUS
 10
5.2332734168
 20
7.634810693
 11
5.2332734168
 21
8.7371728977
  0
LWPOLYLINE
  5
52E
100
AcDbEntity
  8
0
100
AcDbPolyline
 62
7
  6
CONTINUOUS
 90
5
 70
0
 10
12.5833949413
 20
9.7910368941
 10
12.5626211254
 20
9.7738016635
 10
12.5471855459
 20
9.7493677276
 10
12.5376803629
 20
9.7186734798
 10
12.5344708554
 20
9.6828984827
  0
LINE
  5
52F
100
AcDbEntity
  8
0
100
AcDbLine
 62
7
  6
CONTINUOUS
 10
12.6571675858
 20
9.8336292959
 11
12.5833949413
 21
9.7910368941
  0
LINE
  5
530
100
AcDbEntity
  8
0
100
AcDbLine
 62
7
  6
CONTINUOUS
 10
12.7752772932
 20
9.8219306474
 11
12.7015046488
 21
9.7793382455
  0
LWPOLYLINE
  5
531
100
AcDbEntity
  8
0
100
AcDbPolyline
 62
7
  6
CONTINUOUS
 90
5
 70
0
 10
12.6571675858
 20
9.8336292959
 10
12.6824782897
 20
9.8430017361
 10
12.7113562279
 20
9.8441529531
 10
12.7426906167
 20
9.8370381171
 10
12.7752772932
 20
9.8219306474
  0
LWPOLYLINE
  5
532
100
AcDbEntity
  8
0
100
AcDbPolyline
 62
7
  6
CONTINUOUS
 90
9
 70
0
 10
12.5344708554
 20
8.7828170779
 10
12.5376803629
 20
8.7433361446
 10
12.5471855459
 20
8.7016665052
 10
12.5626211254
 20
8.6594095006
 10
12.5833939208
 20
8.6181890438
 10
12.6087056453
 20
8.5795892138
 10
12.6375835834
 20
8.5450933804
 10
12.6689179723
 20
8.5160271993
 10
12.7015046488
 20
8.4935076673
  0
LINE
  5
533
100
AcDbEntity
  8
0
100
AcDbLine
 62
7
  6
CONTINUOUS
 10
12.5344708554
 20
8.7828170779
 11
12.5344708554
 21
9.6828984827
  0
LWPOLYLINE
  5
534
100
AcDbEntity
  8
0
100
AcDbPolyline
 62
7
  6
CONTINUOUS
 90
6
 70
0
 10
12.8758324933
 20
9.0762985382
 10
12.8799080533
 20
9.0842901507
 10
12.8860696441
 20
9.0903205158
 10
12.8940995856
 20
9.0946116404
 10
12.9034506505
 20
9.0968710915
 10
12.9134855792
 20
9.0969448913
  0
LWPOLYLINE
  5
535
100
AcDbEntity
  8
DEFAULT_2
100
AcDbPolyline
 62
7
  6
HIDDEN
 90
7
 70
0
 10
12.8094027031
 20
9.1165050552
 10
12.8163509655
 20
9.1232878203
 10
12.8247608907
 20
9.127737534
 10
12.8346088428
 20
9.1297444128
 10
12.845217965
 20
9.1291705226
 10
12.8567195851
 20
9.1260087593
 10
12.8685384444
 20
9.1203525423
  0
LWPOLYLINE
  5
536
100
AcDbEntity
  8
02___PRT_ALL_AXES
100
AcDbPolyline
 62
7
  6
CONTINUOUS
 90
4
 70
0
 10
13.716402874
 20
9.6160999537
 10
13.7342906458
 20
9.6240244858
 10
13.755121428
 20
9.629006078
 10
13.777475637
 20
9.6307052429
  0
LINE
  5
537
100
AcDbEntity
  8
0
100
AcDbLine
 62
7
  6
CONTINUOUS
 10
12.8712954015
 20
9.0575537082
 11
12.8712954015
 21
8.478929948
  0
LINE
  5
538
100
AcDbEntity
  8
0
100
AcDbLine
 62
7
  6
CONTINUOUS
 10
12.8724143028
 20
9.0651061896
 11
12.8712954015
 21
9.0575537082
  0
LINE
  5
539
100
AcDbEntity
  8
0
100
AcDbLine
 62
7
  6
CONTINUOUS
 10
12.8724141599
 20
9.0651062331
 11
12.8758323504
 21
9.0762985818
  0
LINE
  5
53A
100
AcDbEntity
  8
0
100
AcDbLine
 62
7
  6
CONTINUOUS
 10
12.9100673887
 20
9.0857525426
 11
12.9134855792
 21
9.0969448913
  0
LWPOLYLINE
  5
53B
100
AcDbEntity
  8
0
100
AcDbPolyline
 62
7
  6
CONTINUOUS
 90
3
 70
0
 10
13.0409100911
 20
9.1533610799
 10
13.0340735979
 20
9.1465246188
 10
13.0316993477
 20
9.1387505896
  0
LWPOLYLINE
  5
53C
100
AcDbEntity
  8
0
100
AcDbPolyline
 62
7
  6
CONTINUOUS
 90
3
 70
0
 10
13.0559897588
 20
9.1460558347
 10
13.0525715122
 20
9.1426376042
 10
13.0513843871
 20
9.1387505896
  0
LWPOLYLINE
  5
53D
100
AcDbEntity
  8
0
100
AcDbPolyline
 62
7
  6
CONTINUOUS
 90
3
 70
0
 10
12.8826514536
 20
9.0791281672
 10
12.8764898628
 20
9.073097802
 10
12.8724143028
 20
9.0651061896
  0
LINE
  5
53E
100
AcDbEntity
  8
0
100
AcDbLine
 62
7
  6
CONTINUOUS
 10
13.1394099779
 20
9.221134443
 11
13.0409100911
 21
9.1533610799
  0
LWPOLYLINE
  5
53F
100
AcDbEntity
  8
AXIS_COSMETIC_THREADS
100
AcDbPolyline
 62
7
  6
CONTINUOUS
 90
18
 70
0
 10
12.8118645746
 20
9.1181176629
 10
12.8085616968
 20
9.1159293312
 10
12.8027574715
 20
9.110327286
 10
12.7981157682
 20
9.1031913855
 10
12.7947310787
 20
9.0946668961
 10
12.7926723054
 20
9.0849273517
 10
12.7919813591
 20
9.0741710214
 10
12.7926723054
 20
9.0626168731
 10
12.7947310787
 20
9.0505001158
 10
12.7981157682
 20
9.038067412
 10
12.8027574715
 20
9.0255718554
 10
12.8085616968
 20
9.0132678198
 10
12.8154102869
 20
9.0014057796
 10
12.8231638242
 20
8.9902272119
 10
12.8316644691
 20
8.97995968
 10
12.8407391729
 20
8.9708122014
 10
12.8502032009
 20
8.9629709922
 10
12.8598638927
 20
8.9565956769
  0
LINE
  5
540
100
AcDbEntity
  8
0
100
AcDbLine
 62
7
  6
CONTINUOUS
 10
13.3000424083
 20
9.4337801265
 11
13.3738150527
 21
9.4763725284
  0
LINE
  5
541
100
AcDbEntity
  8
0
100
AcDbLine
 62
7
  6
CONTINUOUS
 10
13.0216527527
 20
9.2730471885
 11
13.0355723557
 21
9.2810836271
  0
LINE
  5
542
100
AcDbEntity
  8
AXIS_COSMETIC_THREADS
100
AcDbLine
 62
7
  6
CONTINUOUS
 10
12.820538657
 20
9.1231266953
 11
12.8118641076
 21
9.1181184718
  0
LINE
  5
543
100
AcDbEntity
  8
0
100
AcDbLine
 62
7
  6
CONTINUOUS
 10
13.3738150527
 20
9.4183079635
 11
13.716402874
 21
9.6160999537
  0
LINE
  5
544
100
AcDbEntity
  8
0
100
AcDbLine
 62
7
  6
CONTINUOUS
 10
13.7496370311
 20
9.5969126383
 11
13.3738150527
 21
9.3799330131
  0
LWPOLYLINE
  5
545
100
AcDbEntity
  8
0
100
AcDbPolyline
 62
7
  6
CONTINUOUS
 90
4
 70
0
 10
13.0257319885
 20
9.2820548626
 10
13.0273905688
 20
9.2827377686
 10
13.0312708787
 20
9.2827805058
 10
13.0355722355
 20
9.2810838354
  0
LINE
  5
546
100
AcDbEntity
  8
0
100
AcDbLine
 62
7
  6
CONTINUOUS
 10
13.84263019
 20
7.8997142523
 11
13.8620161552
 21
7.9016878105
  0
LINE
  5
547
100
AcDbEntity
  8
0
100
AcDbLine
 62
7
  6
CONTINUOUS
 10
13.8454794933
 20
7.9164972243
 11
13.8648654584
 21
7.9184707825
  0
LWPOLYLINE
  5
548
100
AcDbEntity
  8
0
100
AcDbPolyline
 62
7
  6
CONTINUOUS
 90
7
 70
0
 10
12.8712954015
 20
8.478929948
 10
12.8726165249
 20
8.4704755235
 10
12.8764898628
 20
8.4623282774
 10
12.8826514536
 20
8.4550434309
 10
12.8906813951
 20
8.4491174343
 10
12.90003246
 20
8.4449541346
 10
12.9100673887
 20
8.4428372535
  0
LWPOLYLINE
  5
549
100
AcDbEntity
  8
0
100
AcDbPolyline
 62
7
  6
CONTINUOUS
 90
4
 70
0
 10
13.0216527527
 20
9.2730471885
 10
13.0223340207
 20
9.2776206609
 10
13.0243111373
 20
9.2809598072
 10
13.0257319885
 20
9.2820548626
  0
LWPOLYLINE
  5
54A
100
AcDbEntity
  8
0
100
AcDbPolyline
 62
7
  6
CONTINUOUS
 90
7
 70
0
 10
13.044318404
 20
9.1107145213
 10
13.043103303
 20
9.1051058148
 10
13.0385448282
 20
9.0988623771
 10
13.03100136
 20
9.0936720543
 10
13.0211431686
 20
9.0899960292
 10
13.0098461976
 20
9.0881609329
 10
12.9981142325
 20
9.0883298216
  0
LWPOLYLINE
  5
54B
100
AcDbEntity
  8
0
100
AcDbPolyline
 62
7
  6
CONTINUOUS
 90
7
 70
0
 10
13.0640022992
 20
9.1107145226
 10
13.0621796478
 20
9.1023014627
 10
13.0553419355
 20
9.0929363063
 10
13.0440267332
 20
9.085150822
 10
13.0292394461
 20
9.0796367844
 10
13.0122939897
 20
9.0768841399
 10
12.994696042
 20
9.077137473
  0
LINE
  5
54C
100
AcDbEntity
  8
0
100
AcDbLine
 62
7
  6
CONTINUOUS
 10
12.9981142325
 20
9.0883298216
 11
12.994696042
 21
9.077137473
  0
LINE
  5
54D
100
AcDbEntity
  8
0
100
AcDbLine
 62
7
  6
CONTINUOUS
 10
13.1522748797
 20
9.2123053166
 11
13.0559897588
 21
9.1460558347
  0
LINE
  5
54E
100
AcDbEntity
  8
0
100
AcDbLine
 62
7
  6
CONTINUOUS
 10
13.3000424083
 20
9.3051970687
 11
13.3738150527
 21
9.3477894706
  0
LINE
  5
54F
100
AcDbEntity
  8
0
100
AcDbLine
 62
7
  6
CONTINUOUS
 10
13.313961891
 20
9.2810879511
 11
13.3877345355
 21
9.323680353
  0
LWPOLYLINE
  5
550
100
AcDbEntity
  8
0
100
AcDbPolyline
 62
7
  6
CONTINUOUS
 90
5
 70
0
 10
14.4831984444
 20
7.4648695457
 10
14.515785121
 20
7.4497620759
 10
14.5471195098
 20
7.44264724
 10
14.5759974479
 20
7.443798457
 10
14.6013081519
 20
7.4531708971
  0
LINE
  5
551
100
AcDbEntity
  8
0
100
AcDbLine
 62
7
  6
CONTINUOUS
 10
12.994696042
 20
9.077137473
 11
12.994696042
 21
8.4342221839
  0
LINE
  5
552
100
AcDbEntity
  8
0
100
AcDbLine
 62
7
  6
CONTINUOUS
 10
13.0216527527
 20
9.2730471885
 11
13.0216527527
 21
9.0901860483
  0
LINE
  5
553
100
AcDbEntity
  8
0
100
AcDbLine
 62
7
  6
CONTINUOUS
 10
13.0316993477
 20
9.1387505896
 11
13.0316993477
 21
9.0941523084
  0
LINE
  5
554
100
AcDbEntity
  8
0
100
AcDbLine
 62
7
  6
CONTINUOUS
 10
13.0340737101
 20
9.1309763826
 11
13.0340737101
 21
9.0957860009
  0
LINE
  5
555
100
AcDbEntity
  8
0
100
AcDbLine
 62
7
  6
CONTINUOUS
 10
13.0419463299
 20
9.1184887259
 11
13.0419463299
 21
9.1035211862
  0
LINE
  5
556
100
AcDbEntity
  8
0
100
AcDbLine
 62
7
  6
CONTINUOUS
 10
13.0559897588
 20
9.1460558347
 11
13.0559897588
 21
9.1294415058
  0
LINE
  5
557
100
AcDbEntity
  8
0
100
AcDbLine
 62
7
  6
CONTINUOUS
 10
13.0640057316
 20
9.1107145189
 11
13.0640057316
 21
8.4677992298
  0
LINE
  5
558
100
AcDbEntity
  8
0
100
AcDbLine
 62
7
  6
CONTINUOUS
 10
13.0954253971
 20
9.2465283781
 11
13.0954253971
 21
9.1908706218
  0
LWPOLYLINE
  5
559
100
AcDbEntity
  8
0
100
AcDbPolyline
 62
7
  6
CONTINUOUS
 90
4
 70
0
 10
13.8953432345
 20
7.9828756505
 10
13.8838403013
 20
7.9842181545
 10
13.8721630116
 20
7.9835435083
 10
13.8648654584
 20
7.9817674816
  0
LINE
  5
55A
100
AcDbEntity
  8
0
100
AcDbLine
 62
7
  6
CONTINUOUS
 10
13.9169728652
 20
7.9783305603
 11
13.8953432345
 21
7.9828756505
  0
LINE
  5
55B
100
AcDbEntity
  8
0
100
AcDbLine
 62
7
  6
CONTINUOUS
 10
14.4831984444
 20
7.4648695457
 11
13.884660685
 21
7.8104276647
  0
LINE
  5
55C
100
AcDbEntity
  8
0
100
AcDbLine
 62
7
  6
CONTINUOUS
 10
13.3000424083
 20
8.1479495483
 11
12.7015046488
 21
8.4935076673
  0
LINE
  5
55D
100
AcDbEntity
  8
0
100
AcDbLine
 62
7
  6
CONTINUOUS
 10
13.1608475805
 20
8.5497695461
 11
13.1608475805
 21
9.1926848352
  0
LWPOLYLINE
  5
55E
100
AcDbEntity
  8
0
100
AcDbPolyline
 62
7
  6
CONTINUOUS
 90
4
 70
0
 10
13.1608475805
 20
8.5497695461
 10
13.1601663125
 20
8.5451960737
 10
13.1581891958
 20
8.5418569274
 10
13.1567683447
 20
8.540761872
  0
LWPOLYLINE
  5
55F
100
AcDbEntity
  8
0
100
AcDbPolyline
 62
7
  6
CONTINUOUS
 90
7
 70
0
 10
13.0640022992
 20
8.4677992335
 10
13.0621796478
 20
8.4593861737
 10
13.0553419355
 20
8.4500210172
 10
13.0440267332
 20
8.4422355329
 10
13.0292394461
 20
8.4367214953
 10
13.0122939897
 20
8.4339688508
 10
12.994696042
 20
8.4342221839
  0
LINE
  5
560
100
AcDbEntity
  8
0
100
AcDbLine
 62
7
  6
CONTINUOUS
 10
13.8707412022
 20
7.96311984
 11
13.8648654584
 21
7.9665121255
  0
LINE
  5
561
100
AcDbEntity
  8
0
100
AcDbLine
 62
7
  6
CONTINUOUS
 10
13.8228229105
 20
7.9907848528
 11
13.313961891
 21
8.2845692531
  0
LINE
  5
562
100
AcDbEntity
  8
0
100
AcDbLine
 62
7
  6
CONTINUOUS
 10
13.0316993477
 20
9.1387505896
 11
13.0340737101
 21
9.1309763826
  0
LINE
  5
563
100
AcDbEntity
  8
0
100
AcDbLine
 62
7
  6
CONTINUOUS
 10
13.3000424083
 20
9.4337801265
 11
13.3000424083
 21
9.3051970687
  0
LINE
  5
564
100
AcDbEntity
  8
0
100
AcDbLine
 62
7
  6
CONTINUOUS
 10
13.3000424083
 20
8.1479495483
 11
13.3000424083
 21
8.2765326062
  0
LINE
  5
565
100
AcDbEntity
  8
0
100
AcDbLine
 62
7
  6
CONTINUOUS
 10
13.1279788405
 20
8.5526730105
 11
13.1469280977
 21
8.5417328992
  0
LINE
  5
566
100
AcDbEntity
  8
0
100
AcDbLine
 62
7
  6
CONTINUOUS
 10
14.042857459
 20
8.0244795431
 11
14.1491308577
 21
7.9631239558
  0
LWPOLYLINE
  5
567
100
AcDbEntity
  8
0
100
AcDbPolyline
 62
7
  6
CONTINUOUS
 90
6
 70
0
 10
13.8707412022
 20
7.96311984
 10
13.8750425589
 20
7.9598498439
 10
13.8789228689
 20
7.9553266121
 10
13.8820023003
 20
7.94999291
 10
13.883979417
 20
7.9443708376
 10
13.884660685
 20
7.9390107225
  0
LWPOLYLINE
  5
568
100
AcDbEntity
  8
0
100
AcDbPolyline
 62
7
  6
CONTINUOUS
 90
3
 70
0
 10
13.0419463299
 20
9.1184887259
 10
13.044271744
 20
9.1118476104
 10
13.044318404
 20
9.1107145213
  0
LWPOLYLINE
  5
569
100
AcDbEntity
  8
0
100
AcDbPolyline
 62
7
  6
CONTINUOUS
 90
3
 70
0
 10
13.0604441881
 20
9.1223758294
 10
13.0639323092
 20
9.1124141562
 10
13.0640022992
 20
9.1107145226
  0
LINE
  5
56A
100
AcDbEntity
  8
0
100
AcDbLine
 62
7
  6
CONTINUOUS
 10
13.0513843871
 20
9.1387505896
 11
13.0525715683
 21
9.1348634861
  0
LINE
  5
56B
100
AcDbEntity
  8
0
100
AcDbLine
 62
7
  6
CONTINUOUS
 10
13.3738150527
 20
9.4763725284
 11
13.3738150527
 21
9.3477894706
  0
LINE
  5
56C
100
AcDbEntity
  8
0
100
AcDbLine
 62
7
  6
CONTINUOUS
 10
13.3738150527
 20
8.1905419502
 11
13.3738150527
 21
8.2500137958
  0
LWPOLYLINE
  5
56D
100
AcDbEntity
  8
0
100
AcDbPolyline
 62
7
  6
CONTINUOUS
 90
4
 70
0
 10
13.3000424083
 20
8.2765326062
 10
13.3007236762
 20
8.2811060786
 10
13.3027007929
 20
8.2844452249
 10
13.3041216441
 20
8.2855402803
  0
LINE
  5
56E
100
AcDbEntity
  8
0
100
AcDbLine
 62
7
  6
CONTINUOUS
 10
13.1608475805
 20
8.5752885192
 11
13.0640057316
 21
8.5086559778
  0
LINE
  5
56F
100
AcDbEntity
  8
0
100
AcDbLine
 62
7
  6
CONTINUOUS
 10
13.884660685
 20
9.0962582428
 11
13.9584333294
 21
9.1388506447
  0
LINE
  5
570
100
AcDbEntity
  8
0
100
AcDbLine
 62
7
  6
CONTINUOUS
 10
12.994696042
 20
8.4342221839
 11
12.9100673887
 21
8.4428372535
  0
LINE
  5
571
100
AcDbEntity
  8
0
100
AcDbLine
 62
7
  6
CONTINUOUS
 10
14.1227485807
 20
8.0635395205
 11
14.1630503405
 21
8.0402718149
  0
LWPOLYLINE
  5
572
100
AcDbEntity
  8
AXIS_COSMETIC_THREADS
100
AcDbPolyline
 62
7
  6
CONTINUOUS
 90
3
 70
0
 10
12.8871648668
 20
9.0909057924
 10
12.8789886124
 20
9.0991476165
 10
12.8695245845
 20
9.1069888257
  0
LINE
  5
573
100
AcDbEntity
  8
0
100
AcDbLine
 62
7
  6
CONTINUOUS
 10
13.0340737101
 20
9.1309763826
 11
13.0419463299
 21
9.1184887259
  0
LINE
  5
574
100
AcDbEntity
  8
0
100
AcDbLine
 62
7
  6
CONTINUOUS
 10
13.0525715683
 20
9.1348634861
 11
13.0604441881
 21
9.1223758294
  0
LINE
  5
575
100
AcDbEntity
  8
DATUM_CURVES
100
AcDbLine
 62
7
  6
CONTINUOUS
 10
13.4531567188
 20
8.6703204844
 11
13.4531567188
 21
8.7346120133
  0
LINE
  5
576
100
AcDbEntity
  8
0
100
AcDbLine
 62
7
  6
CONTINUOUS
 10
13.8707412022
 20
8.9596385381
 11
13.8846608052
 21
8.9676749767
  0
LINE
  5
577
100
AcDbEntity
  8
0
100
AcDbLine
 62
7
  6
CONTINUOUS
 10
13.1469280977
 20
8.5417328992
 11
13.1608477007
 21
8.5497693378
  0
LWPOLYLINE
  5
578
100
AcDbEntity
  8
0
100
AcDbPolyline
 62
7
  6
CONTINUOUS
 90
4
 70
0
 10
13.8805814491
 20
8.9586675109
 10
13.8789228689
 20
8.9579846049
 10
13.8750425589
 20
8.9579418677
 10
13.8707412022
 20
8.9596385381
  0
LINE
  5
579
100
AcDbEntity
  8
0
100
AcDbLine
 62
7
  6
CONTINUOUS
 10
13.8454794933
 20
8.4951209844
 11
13.8648654584
 21
8.4970945426
  0
LINE
  5
57A
100
AcDbEntity
  8
0
100
AcDbLine
 62
7
  6
CONTINUOUS
 10
13.8386427894
 20
8.5496514133
 11
13.8580287546
 21
8.5516249715
  0
LWPOLYLINE
  5
57B
100
AcDbEntity
  8
AXIS_COSMETIC_THREADS
100
AcDbPolyline
 62
7
  6
CONTINUOUS
 90
7
 70
0
 10
14.3074901016
 20
8.1208272031
 10
14.3171507934
 20
8.1160475647
 10
14.3266148214
 20
8.1129609029
 10
14.3356895252
 20
8.1116300532
 10
14.3441901701
 20
8.1120821079
 10
14.3519437074
 20
8.1143078645
 10
14.3554894198
 20
8.1160736812
  0
LWPOLYLINE
  5
57C
100
AcDbEntity
  8
0
100
AcDbPolyline
 62
7
  6
CONTINUOUS
 90
6
 70
0
 10
13.3738150527
 20
9.3477894706
 10
13.3744963207
 20
9.3424293554
 10
13.3764734373
 20
9.336807283
 10
13.3795528688
 20
9.331473581
 10
13.3834331787
 20
9.3269503491
 10
13.3877345355
 20
9.323680353
  0
LWPOLYLINE
  5
57D
100
AcDbEntity
  8
0
100
AcDbPolyline
 62
7
  6
CONTINUOUS
 90
4
 70
0
 10
13.1567683447
 20
8.540761872
 10
13.1551097644
 20
8.540078966
 10
13.1512294544
 20
8.5400362288
 10
13.1469280977
 20
8.5417328992
  0
LINE
  5
57E
100
AcDbEntity
  8
0
100
AcDbLine
 62
7
  6
CONTINUOUS
 10
13.8431060983
 20
8.600484577
 11
13.8237201331
 21
8.5985110188
  0
LWPOLYLINE
  5
57F
100
AcDbEntity
  8
0
100
AcDbPolyline
 62
7
  6
CONTINUOUS
 90
8
 70
0
 10
13.8953432345
 20
8.6257909396
 10
13.8838403013
 20
8.6271334435
 10
13.8721630116
 20
8.6264587973
 10
13.8613489437
 20
8.6238269463
 10
13.8523589751
 20
8.6194717419
 10
13.845991904
 20
8.6137801632
 10
13.8428134725
 20
8.607257932
 10
13.8425136326
 20
8.6044316993
  0
LWPOLYLINE
  5
580
100
AcDbEntity
  8
AXIS_COSMETIC_THREADS
100
AcDbPolyline
 62
7
  6
CONTINUOUS
 90
3
 70
0
 10
12.8598638927
 20
8.9565956769
 10
12.8695245845
 20
8.9518160385
 10
12.8712954015
 20
8.9512384924
  0
LWPOLYLINE
  5
581
100
AcDbEntity
  8
AXIS_COSMETIC_THREADS
100
AcDbPolyline
 62
7
  6
CONTINUOUS
 90
7
 70
0
 10
14.3074901016
 20
8.2775956672
 10
14.2978294099
 20
8.2823753055
 10
14.2883653819
 20
8.2854619673
 10
14.2792906781
 20
8.286792817
 10
14.2707900332
 20
8.2863407623
 10
14.2630364959
 20
8.2841150058
 10
14.2594907835
 20
8.2823491891
  0
LINE
  5
582
100
AcDbEntity
  8
DATUM_CURVES
100
AcDbLine
 62
7
  6
CONTINUOUS
 10
13.7315463744
 20
8.5095957779
 11
13.4531567188
 21
8.6703204844
  0
LINE
  5
583
100
AcDbEntity
  8
DATUM_CURVES
100
AcDbLine
 62
7
  6
CONTINUOUS
 10
13.4531567188
 20
8.7346120133
 11
13.7315463744
 21
8.5738873068
  0
LWPOLYLINE
  5
584
100
AcDbEntity
  8
DEFAULT_2
100
AcDbPolyline
 62
7
  6
HIDDEN
 90
7
 70
0
 10
12.8685384421
 20
9.1203525436
 10
12.8733933123
 20
9.1173538828
 10
12.8784650471
 20
9.1137999181
 10
12.8834834656
 20
9.1098495069
 10
12.8884216137
 20
9.1055238671
 10
12.8932529684
 20
9.1008462319
 10
12.8981639092
 20
9.0956043085
  0
LINE
  5
585
100
AcDbEntity
  8
AXIS_COSMETIC_THREADS
100
AcDbLine
 62
7
  6
CONTINUOUS
 10
12.8695245845
 20
9.1069888257
 11
12.8598638927
 21
9.113364141
  0
LWPOLYLINE
  5
586
100
AcDbEntity
  8
0
100
AcDbPolyline
 62
7
  6
CONTINUOUS
 90
4
 70
0
 10
13.8386427894
 20
7.9067361242
 10
13.8404122586
 20
7.9020378871
 10
13.8420611413
 20
7.8998505078
 10
13.8426298027
 20
7.8997180529
  0
LINE
  5
587
100
AcDbEntity
  8
0
100
AcDbLine
 62
7
  6
CONTINUOUS
 10
13.8237201331
 20
7.9555957297
 11
13.8386427894
 21
7.9067361242
  0
LINE
  5
588
100
AcDbEntity
  8
DATUM_CURVES
100
AcDbLine
 62
7
  6
CONTINUOUS
 10
13.7315463744
 20
8.5738873068
 11
13.7315463744
 21
8.5095957779
  0
LINE
  5
589
100
AcDbEntity
  8
02___PRT_ALL_AXES
100
AcDbLine
 62
7
  6
CONTINUOUS
 10
13.7496370311
 20
9.5969126383
 11
13.7496370311
 21
9.1147405766
  0
LINE
  5
58A
100
AcDbEntity
  8
0
100
AcDbLine
 62
7
  6
CONTINUOUS
 10
14.5569670322
 20
9.1308109894
 11
14.264665318
 21
8.9620515234
  0
LINE
  5
58B
100
AcDbEntity
  8
0
100
AcDbLine
 62
7
  6
CONTINUOUS
 10
14.2978994751
 20
8.9428642079
 11
14.5902011893
 21
9.1116236739
  0
LWPOLYLINE
  5
58C
100
AcDbEntity
  8
0
100
AcDbPolyline
 62
7
  6
CONTINUOUS
 90
4
 70
0
 10
14.0279347486
 20
8.7034459192
 10
14.0295933288
 20
8.7041288252
 10
14.0334736388
 20
8.7041715624
 10
14.0377749955
 20
8.7024748919
  0
LWPOLYLINE
  5
58D
100
AcDbEntity
  8
0
100
AcDbPolyline
 62
7
  6
CONTINUOUS
 90
4
 70
0
 10
13.9430914334
 20
8.6338990307
 10
13.9371708282
 20
8.6319255048
 10
13.9304381531
 20
8.6312400953
 10
13.9237054682
 20
8.6319254725
  0
LWPOLYLINE
  5
58E
100
AcDbEntity
  8
0
100
AcDbPolyline
 62
7
  6
CONTINUOUS
 90
4
 70
0
 10
13.9557447955
 20
8.6251929657
 10
13.9439035852
 20
8.6212459141
 10
13.9304382351
 20
8.619875095
 10
13.9169728652
 20
8.6212458494
  0
LWPOLYLINE
  5
58F
100
AcDbEntity
  8
0
100
AcDbPolyline
 62
7
  6
CONTINUOUS
 90
8
 70
0
 10
13.9020758375
 20
8.6364705627
 10
13.8848214377
 20
8.6384843186
 10
13.867305503
 20
8.6374723493
 10
13.8510844013
 20
8.6335245728
 10
13.8375994484
 20
8.6269917662
 10
13.8280488417
 20
8.6184543982
 10
13.8232811945
 20
8.6086710513
 10
13.8228314346
 20
8.6044317023
  0
LINE
  5
590
100
AcDbEntity
  8
0
100
AcDbLine
 62
7
  6
CONTINUOUS
 10
13.9169728652
 20
8.6212458494
 11
13.8953432345
 21
8.6257909396
  0
LINE
  5
591
100
AcDbEntity
  8
0
100
AcDbLine
 62
7
  6
CONTINUOUS
 10
13.9237054682
 20
8.6319254725
 11
13.9020758375
 21
8.6364705627
  0
LWPOLYLINE
  5
592
100
AcDbEntity
  8
AXIS_COSMETIC_THREADS
100
AcDbPolyline
 62
7
  6
CONTINUOUS
 90
7
 70
0
 10
12.8598638927
 20
9.113364141
 10
12.8502032009
 20
9.1181437793
 10
12.8407391729
 20
9.1212304411
 10
12.8316644691
 20
9.1225612908
 10
12.8231638242
 20
9.1221092361
 10
12.8154102869
 20
9.1198834796
 10
12.8118645746
 20
9.1181176629
  0
LINE
  5
593
100
AcDbEntity
  8
AXIS_COSMETIC_THREADS
100
AcDbLine
 62
7
  6
CONTINUOUS
 10
14.3171507934
 20
8.2712203519
 11
14.3074901016
 21
8.2775956672
  0
LWPOLYLINE
  5
594
100
AcDbEntity
  8
DEFAULT_2
100
AcDbPolyline
 62
7
  6
HIDDEN
 90
14
 70
0
 10
14.3161646511
 20
8.2845840698
 10
14.3296828596
 20
8.2752489773
 10
14.3429106117
 20
8.2629714659
 10
14.355083031
 20
8.2483757462
 10
14.3657198225
 20
8.232037731
 10
14.3744012833
 20
8.21460208
 10
14.3807848635
 20
8.1967567631
 10
14.3846186818
 20
8.1792059145
 10
14.385751465
 20
8.1626420495
 10
14.3841385159
 20
8.1477187392
 10
14.3798434778
 20
8.1350248225
 10
14.3730358228
 20
8.1250611715
 10
14.363984165
 20
8.1182209285
 10
14.3528647823
 20
8.1147483543
  0
LINE
  5
595
100
AcDbEntity
  8
0
100
AcDbLine
 62
7
  6
CONTINUOUS
 10
13.8228314346
 20
7.9615164132
 11
13.8237201331
 21
7.9555957297
  0
LWPOLYLINE
  5
596
100
AcDbEntity
  8
0
100
AcDbPolyline
 62
7
  6
CONTINUOUS
 90
7
 70
0
 10
13.8454794933
 20
8.4951209844
 10
13.8452465382
 20
8.5042036594
 10
13.8445635486
 20
8.514192843
 10
13.8434770691
 20
8.5244077889
 10
13.8420611413
 20
8.5341523653
 10
13.8404122586
 20
8.5427624955
 10
13.8386427894
 20
8.5496514133
  0
LINE
  5
597
100
AcDbEntity
  8
02___PRT_ALL_AXES
100
AcDbLine
 62
7
  6
CONTINUOUS
 10
13.7774758327
 20
9.6035701682
 11
13.7774758327
 21
9.0986682006
  0
LINE
  5
598
100
AcDbEntity
  8
0
100
AcDbLine
 62
7
  6
CONTINUOUS
 10
13.8228229105
 20
7.9615164043
 11
13.8228229105
 21
8.6044316934
  0
LINE
  5
599
100
AcDbEntity
  8
0
100
AcDbLine
 62
7
  6
CONTINUOUS
 10
13.8237201331
 20
7.9555957297
 11
13.8237201331
 21
8.5985110188
  0
LINE
  5
59A
100
AcDbEntity
  8
0
100
AcDbLine
 62
7
  6
CONTINUOUS
 10
13.8454794933
 20
7.9164972243
 11
13.8454794933
 21
8.4951209844
  0
LWPOLYLINE
  5
59B
100
AcDbEntity
  8
0
100
AcDbPolyline
 62
7
  6
CONTINUOUS
 90
4
 70
0
 10
13.884660685
 20
8.967675185
 10
13.883979417
 20
8.9631017126
 10
13.8820023003
 20
8.9597625663
 10
13.8805814491
 20
8.9586675109
  0
LWPOLYLINE
  5
59C
100
AcDbEntity
  8
02___PRT_ALL_AXES
100
AcDbPolyline
 62
7
  6
CONTINUOUS
 90
4
 70
0
 10
14.5902011893
 20
9.1116236739
 10
14.6039269288
 20
9.1219511022
 10
14.6125552494
 20
9.1339776294
 10
14.6154981454
 20
9.1468836676
  0
LINE
  5
59D
100
AcDbEntity
  8
0
100
AcDbLine
 62
7
  6
CONTINUOUS
 10
14.0238555127
 20
8.694438245
 11
14.0377751158
 21
8.7024746836
  0
LINE
  5
59E
100
AcDbEntity
  8
0
100
AcDbLine
 62
7
  6
CONTINUOUS
 10
13.3000424083
 20
8.2765326062
 11
13.3139620113
 21
8.2845690447
  0
LINE
  5
59F
100
AcDbEntity
  8
0
100
AcDbLine
 62
7
  6
CONTINUOUS
 10
14.059159909
 20
8.6901285857
 11
13.9430914334
 21
8.6338990307
  0
LINE
  5
5A0
100
AcDbEntity
  8
0
100
AcDbLine
 62
7
  6
CONTINUOUS
 10
14.0731325619
 20
8.6820616533
 11
13.9557447955
 21
8.6251929657
  0
LWPOLYLINE
  5
5A1
100
AcDbEntity
  8
0
100
AcDbPolyline
 62
7
  6
CONTINUOUS
 90
4
 70
0
 10
13.3041216441
 20
8.2855402803
 10
13.3057802243
 20
8.2862231863
 10
13.3096605343
 20
8.2862659235
 10
13.313961891
 20
8.2845692531
  0
LINE
  5
5A2
100
AcDbEntity
  8
0
100
AcDbLine
 62
7
  6
CONTINUOUS
 10
13.0409100911
 20
9.1533610799
 11
13.0559897588
 21
9.1460558347
  0
LINE
  5
5A3
100
AcDbEntity
  8
0
100
AcDbLine
 62
7
  6
CONTINUOUS
 10
13.9557447955
 20
8.6251929657
 11
13.9430914334
 21
8.6338990307
  0
LWPOLYLINE
  5
5A4
100
AcDbEntity
  8
0
100
AcDbPolyline
 62
7
  6
CONTINUOUS
 90
6
 70
0
 10
13.1469280977
 20
9.2167939528
 10
13.1512294544
 20
9.2135239566
 10
13.1551097644
 20
9.2090007248
 10
13.1581891958
 20
9.2036670227
 10
13.1601663125
 20
9.1980449503
 10
13.1608475805
 20
9.1926848352
  0
LINE
  5
5A5
100
AcDbEntity
  8
0
100
AcDbLine
 62
7
  6
CONTINUOUS
 10
13.8237201331
 20
8.5985110188
 11
13.8386427894
 21
8.5496514133
  0
LINE
  5
5A6
100
AcDbEntity
  8
0
100
AcDbLine
 62
7
  6
CONTINUOUS
 10
13.8431060983
 20
8.600484577
 11
13.8580287546
 21
8.5516249715
  0
LWPOLYLINE
  5
5A7
100
AcDbEntity
  8
0
100
AcDbPolyline
 62
7
  6
CONTINUOUS
 90
7
 70
0
 10
13.8580287546
 20
8.5516249715
 10
13.8597982237
 20
8.5447360537
 10
13.8614471065
 20
8.5361259235
 10
13.8628630342
 20
8.5263813471
 10
13.8639495138
 20
8.5161664012
 10
13.8646325034
 20
8.5061772176
 10
13.8648654584
 20
8.4970945426
  0
LINE
  5
5A8
100
AcDbEntity
  8
0
100
AcDbLine
 62
7
  6
CONTINUOUS
 10
13.8228314346
 20
8.6044317023
 11
13.8237201331
 21
8.5985110188
  0
LINE
  5
5A9
100
AcDbEntity
  8
0
100
AcDbLine
 62
7
  6
CONTINUOUS
 10
13.8425136326
 20
8.6044316993
 11
13.8431060983
 21
8.600484577
  0
LINE
  5
5AA
100
AcDbEntity
  8
0
100
AcDbLine
 62
7
  6
CONTINUOUS
 10
13.8648654584
 20
7.9184707825
 11
13.8648654584
 21
8.4970945426
  0
LINE
  5
5AB
100
AcDbEntity
  8
0
100
AcDbLine
 62
7
  6
CONTINUOUS
 10
13.884660685
 20
9.0962582428
 11
13.884660685
 21
8.967675185
  0
LINE
  5
5AC
100
AcDbEntity
  8
0
100
AcDbLine
 62
7
  6
CONTINUOUS
 10
13.884660685
 20
7.8104276647
 11
13.884660685
 21
7.9390107225
  0
LINE
  5
5AD
100
AcDbEntity
  8
0
100
AcDbLine
 62
7
  6
CONTINUOUS
 10
13.8953432345
 20
7.9828756505
 11
13.8953432345
 21
8.6257909396
  0
LINE
  5
5AE
100
AcDbEntity
  8
0
100
AcDbLine
 62
7
  6
CONTINUOUS
 10
13.9169728652
 20
7.9783305603
 11
13.9169728652
 21
8.6212458494
  0
LINE
  5
5AF
100
AcDbEntity
  8
0
100
AcDbLine
 62
7
  6
CONTINUOUS
 10
13.9557447955
 20
7.9822776767
 11
13.9557447955
 21
8.6251929657
  0
LWPOLYLINE
  5
5B0
100
AcDbEntity
  8
0
100
AcDbPolyline
 62
7
  6
CONTINUOUS
 90
5
 70
0
 10
13.8648654584
 20
7.9184707825
 10
13.8646325034
 20
7.9109135853
 10
13.8639495138
 20
7.9053968766
 10
13.8628630342
 20
7.9022966108
 10
13.8620157679
 20
7.9016916111
  0
LINE
  5
5B1
100
AcDbEntity
  8
0
100
AcDbLine
 62
7
  6
CONTINUOUS
 10
13.8953432345
 20
8.6257909396
 11
13.9020758375
 21
8.6364705627
  0
LINE
  5
5B2
100
AcDbEntity
  8
0
100
AcDbLine
 62
7
  6
CONTINUOUS
 10
13.9169728652
 20
8.6212458494
 11
13.9237054682
 21
8.6319254725
  0
LINE
  5
5B3
100
AcDbEntity
  8
0
100
AcDbLine
 62
7
  6
CONTINUOUS
 10
13.3000424083
 20
8.1479495483
 11
13.3738150527
 21
8.1905419502
  0
LINE
  5
5B4
100
AcDbEntity
  8
0
100
AcDbLine
 62
7
  6
CONTINUOUS
 10
14.5569710889
 20
8.7932925257
 11
14.4831984444
 21
8.7507001239
  0
LINE
  5
5B5
100
AcDbEntity
  8
0
100
AcDbLine
 62
7
  6
CONTINUOUS
 10
14.1491308577
 20
8.6381850093
 11
14.0377749955
 21
8.7024748919
  0
LINE
  5
5B6
100
AcDbEntity
  8
0
100
AcDbLine
 62
7
  6
CONTINUOUS
 10
13.1469280977
 20
9.2167939528
 11
13.0355722355
 21
9.2810838354
  0
LWPOLYLINE
  5
5B7
100
AcDbEntity
  8
0
100
AcDbPolyline
 62
7
  6
CONTINUOUS
 90
6
 70
0
 10
14.1491308577
 20
8.6381850093
 10
14.1534322145
 20
8.6349150132
 10
14.1573125244
 20
8.6303917814
 10
14.1603919559
 20
8.6250580793
 10
14.1623690725
 20
8.6194360069
 10
14.1630503405
 20
8.6140758918
  0
LWPOLYLINE
  5
5B8
100
AcDbEntity
  8
0
100
AcDbPolyline
 62
7
  6
CONTINUOUS
 90
6
 70
0
 10
13.313961891
 20
9.2810879511
 10
13.3096605343
 20
9.2843579473
 10
13.3057802243
 20
9.2888811791
 10
13.3027007929
 20
9.2942148812
 10
13.3007236762
 20
9.2998369536
 10
13.3000424083
 20
9.3051970687
  0
LINE
  5
5B9
100
AcDbEntity
  8
0
100
AcDbLine
 62
7
  6
CONTINUOUS
 10
14.0238555127
 20
8.694438245
 11
14.0238555127
 21
8.6730253156
  0
LWPOLYLINE
  5
5BA
100
AcDbEntity
  8
0
100
AcDbPolyline
 62
7
  6
CONTINUOUS
 90
4
 70
0
 10
14.0238555127
 20
8.694438245
 10
14.0245367807
 20
8.6990117174
 10
14.0265138974
 20
8.7023508638
 10
14.0279347486
 20
8.7034459192
  0
LWPOLYLINE
  5
5BB
100
AcDbEntity
  8
0
100
AcDbPolyline
 62
7
  6
CONTINUOUS
 90
4
 70
0
 10
12.9100673887
 20
9.0857525426
 10
12.90003246
 20
9.0856787429
 10
12.8906813951
 20
9.0834192918
 10
12.8826514536
 20
9.0791281672
  0
LINE
  5
5BC
100
AcDbEntity
  8
0
100
AcDbLine
 62
7
  6
CONTINUOUS
 10
12.994696042
 20
9.077137473
 11
12.9100673887
 21
9.0857525426
  0
LINE
  5
5BD
100
AcDbEntity
  8
0
100
AcDbLine
 62
7
  6
CONTINUOUS
 10
12.9981142325
 20
9.0883298216
 11
12.9134855792
 21
9.0969448913
  0
LINE
  5
5BE
100
AcDbEntity
  8
0
100
AcDbLine
 62
7
  6
CONTINUOUS
 10
13.313961891
 20
9.2810879511
 11
13.8707412022
 21
8.9596385381
  0
LINE
  5
5BF
100
AcDbEntity
  8
0
100
AcDbLine
 62
7
  6
CONTINUOUS
 10
14.1204462334
 20
8.0620675465
 11
14.1204462334
 21
8.6547457103
  0
LINE
  5
5C0
100
AcDbEntity
  8
0
100
AcDbLine
 62
7
  6
CONTINUOUS
 10
14.1308623143
 20
8.0703995988
 11
14.1308623143
 21
8.0588551602
  0
LINE
  5
5C1
100
AcDbEntity
  8
0
100
AcDbLine
 62
7
  6
CONTINUOUS
 10
14.1630503405
 20
7.9711606027
 11
14.1630503405
 21
8.6140758918
  0
LWPOLYLINE
  5
5C2
100
AcDbEntity
  8
0
100
AcDbPolyline
 62
7
  6
CONTINUOUS
 90
5
 70
0
 10
14.1345080619
 20
8.0794796751
 10
14.1344721233
 20
8.0784883022
 10
14.1325113182
 20
8.0723301637
 10
14.1277146972
 20
8.0667145384
 10
14.1204462334
 20
8.0620675465
  0
LINE
  5
5C3
100
AcDbEntity
  8
0
100
AcDbLine
 62
7
  6
CONTINUOUS
 10
13.3877345355
 20
9.323680353
 11
13.884660685
 21
9.0367863972
  0
LINE
  5
5C4
100
AcDbEntity
  8
0
100
AcDbLine
 62
7
  6
CONTINUOUS
 10
12.7015046488
 20
9.7793382455
 11
13.3000424083
 21
9.4337801265
  0
LINE
  5
5C5
100
AcDbEntity
  8
0
100
AcDbLine
 62
7
  6
CONTINUOUS
 10
13.884660685
 20
9.0962582428
 11
14.4831984444
 21
8.7507001239
  0
LINE
  5
5C6
100
AcDbEntity
  8
02___PRT_ALL_AXES
100
AcDbLine
 62
7
  6
CONTINUOUS
 10
14.2141641434
 20
9.6035712179
 11
14.2141641434
 21
8.9912077305
  0
LWPOLYLINE
  5
5C7
100
AcDbEntity
  8
0
100
AcDbPolyline
 62
7
  6
CONTINUOUS
 90
4
 70
0
 10
14.1630503405
 20
7.9711606027
 10
14.1623690725
 20
7.9665871303
 10
14.1603919559
 20
7.963247984
 10
14.1589711047
 20
7.9621529286
  0
LWPOLYLINE
  5
5C8
100
AcDbEntity
  8
AXIS_COSMETIC_THREADS
100
AcDbPolyline
 62
7
  6
CONTINUOUS
 90
18
 70
0
 10
14.2594907835
 20
8.2823491891
 10
14.2561879058
 20
8.2801608574
 10
14.2503836804
 20
8.2745588122
 10
14.2457419771
 20
8.2674229117
 10
14.2423572876
 20
8.2588984222
 10
14.2402985143
 20
8.2491588778
 10
14.239607568
 20
8.2384025476
 10
14.2402985143
 20
8.2268483992
 10
14.2423572876
 20
8.214731642
 10
14.2457419771
 20
8.2022989381
 10
14.2503836804
 20
8.1898033816
 10
14.2561879058
 20
8.1774993459
 10
14.2630364959
 20
8.1656373058
 10
14.2707900332
 20
8.1544587381
 10
14.2792906781
 20
8.1441912062
 10
14.2883653819
 20
8.1350437275
 10
14.2978294099
 20
8.1272025184
 10
14.3074901016
 20
8.1208272031
  0
LINE
  5
5C9
100
AcDbEntity
  8
AXIS_COSMETIC_THREADS
100
AcDbLine
 62
7
  6
CONTINUOUS
 10
14.268164866
 20
8.2873582215
 11
14.2594903165
 21
8.2823499979
  0
LINE
  5
5CA
100
AcDbEntity
  8
0
100
AcDbLine
 62
7
  6
CONTINUOUS
 10
13.0419463299
 20
9.1184887259
 11
13.0604441881
 21
9.1223758294
  0
LINE
  5
5CB
100
AcDbEntity
  8
0
100
AcDbLine
 62
7
  6
CONTINUOUS
 10
13.0340737101
 20
9.1309763826
 11
13.0525715683
 21
9.1348634861
  0
LWPOLYLINE
  5
5CC
100
AcDbEntity
  8
0
100
AcDbPolyline
 62
7
  6
CONTINUOUS
 90
5
 70
0
 10
12.7015046488
 20
9.7793382455
 10
12.6689179723
 20
9.7944457152
 10
12.6375835834
 20
9.8015605512
 10
12.6087056453
 20
9.8004093342
 10
12.5833949413
 20
9.7910368941
  0
LINE
  5
5CD
100
AcDbEntity
  8
0
100
AcDbLine
 62
7
  6
CONTINUOUS
 10
12.7752772932
 20
9.8219306474
 11
13.3738150527
 21
9.4763725284
  0
LINE
  5
5CE
100
AcDbEntity
  8
0
100
AcDbLine
 62
7
  6
CONTINUOUS
 10
13.9584333294
 20
9.1388506447
 11
14.5569710889
 21
8.7932925257
  0
LWPOLYLINE
  5
5CF
100
AcDbEntity
  8
0
100
AcDbPolyline
 62
7
  6
CONTINUOUS
 90
9
 70
0
 10
14.5569710889
 20
8.7932925257
 10
14.5895577654
 20
8.7707729938
 10
14.6208921542
 20
8.7417068126
 10
14.6497700924
 20
8.7072109793
 10
14.6750818168
 20
8.6686111493
 10
14.6958546123
 20
8.6273906925
 10
14.7112901918
 20
8.5851336878
 10
14.7207953747
 20
8.5434640484
 10
14.7240048822
 20
8.5039831151
  0
LWPOLYLINE
  5
5D0
100
AcDbEntity
  8
DEFAULT_2
100
AcDbPolyline
 62
7
  6
HIDDEN
 90
7
 70
0
 10
14.2570289121
 20
8.2807365813
 10
14.2639771744
 20
8.2875193465
 10
14.2723870997
 20
8.2919690602
 10
14.2822350518
 20
8.293975939
 10
14.292844174
 20
8.2934020488
 10
14.3043457941
 20
8.2902402854
 10
14.3161646533
 20
8.2845840685
  0
LWPOLYLINE
  5
5D1
100
AcDbEntity
  8
0
100
AcDbPolyline
 62
7
  6
CONTINUOUS
 90
5
 70
0
 10
13.8426298027
 20
7.8997180529
 10
13.8434770691
 20
7.9003230526
 10
13.8445635486
 20
7.9034233184
 10
13.8452465382
 20
7.9089400272
 10
13.8454794933
 20
7.9164972243
  0
LINE
  5
5D2
100
AcDbEntity
  8
0
100
AcDbLine
 62
7
  6
CONTINUOUS
 10
14.7240048822
 20
8.5039831151
 11
14.6502322378
 21
8.4613907132
  0
LINE
  5
5D3
100
AcDbEntity
  8
0
100
AcDbLine
 62
7
  6
CONTINUOUS
 10
14.1204462334
 20
8.0620675465
 11
13.9557447955
 21
7.9822776767
  0
LWPOLYLINE
  5
5D4
100
AcDbEntity
  8
0
100
AcDbPolyline
 62
7
  6
CONTINUOUS
 90
4
 70
0
 10
13.9557447955
 20
7.9822776767
 10
13.9439035852
 20
7.978330625
 10
13.9304382351
 20
7.9769598059
 10
13.9169728652
 20
7.9783305603
  0
LWPOLYLINE
  5
5D5
100
AcDbEntity
  8
02___PRT_ALL_AXES
100
AcDbPolyline
 62
7
  6
CONTINUOUS
 90
4
 70
0
 10
14.5684981454
 20
9.1468835547
 10
14.5671566849
 20
9.1410005944
 10
14.563223637
 20
9.1355185417
 10
14.5569670322
 20
9.1308109894
  0
LWPOLYLINE
  5
5D6
100
AcDbEntity
  8
AXIS_COSMETIC_THREADS
100
AcDbPolyline
 62
7
  6
CONTINUOUS
 90
17
 70
0
 10
14.3554894198
 20
8.1160736812
 10
14.3587922975
 20
8.1182620129
 10
14.3645965229
 20
8.123864058
 10
14.3692382262
 20
8.1309999585
 10
14.3726229157
 20
8.139524448
 10
14.3746816889
 20
8.1492639924
 10
14.3753726353
 20
8.1600203227
 10
14.3746816889
 20
8.171574471
 10
14.3726229157
 20
8.1836912282
 10
14.3692382262
 20
8.1961239321
 10
14.3645965229
 20
8.2086194886
 10
14.3587922975
 20
8.2209235243
 10
14.3519437074
 20
8.2327855645
 10
14.3441901701
 20
8.2439641322
 10
14.3356895252
 20
8.254231664
 10
14.3266148214
 20
8.2633791427
 10
14.3171507934
 20
8.2712203519
  0
LINE
  5
5D7
100
AcDbEntity
  8
AXIS_COSMETIC_THREADS
100
AcDbLine
 62
7
  6
CONTINUOUS
 10
14.3641644362
 20
8.1210810958
 11
14.3554898868
 21
8.1160728723
  0
LINE
  5
5D8
100
AcDbEntity
  8
0
100
AcDbLine
 62
7
  6
CONTINUOUS
 10
14.1491308577
 20
7.9631239558
 11
14.1630504608
 21
7.9711603944
  0
LWPOLYLINE
  5
5D9
100
AcDbEntity
  8
0
100
AcDbPolyline
 62
7
  6
CONTINUOUS
 90
4
 70
0
 10
14.1589711047
 20
7.9621529286
 10
14.1573125244
 20
7.9614700226
 10
14.1534322145
 20
7.9614272854
 10
14.1491308577
 20
7.9631239558
  0
LINE
  5
5DA
100
AcDbEntity
  8
02___PRT_ALL_AXES
100
AcDbLine
 62
7
  6
CONTINUOUS
 10
14.5684963273
 20
9.3990020641
 11
14.5684981454
 21
9.1468835547
  0
LINE
  5
5DB
100
AcDbEntity
  8
02___PRT_ALL_AXES
100
AcDbLine
 62
7
  6
CONTINUOUS
 10
14.5902011893
 20
9.1116236739
 11
14.5902011893
 21
8.7701761455
  0
LINE
  5
5DC
100
AcDbEntity
  8
02___PRT_ALL_AXES
100
AcDbLine
 62
7
  6
CONTINUOUS
 10
14.6154981454
 20
9.1468836676
 11
14.6154981454
 21
8.7467103644
  0
LINE
  5
5DD
100
AcDbEntity
  8
02___PRT_ALL_AXES
100
AcDbLine
 62
7
  6
CONTINUOUS
 10
14.6154981454
 20
9.1468836676
 11
14.6154963273
 21
9.3990021771
  0
LWPOLYLINE
  5
5DE
100
AcDbEntity
  8
02___PRT_ALL_AXES
100
AcDbPolyline
 62
7
  6
CONTINUOUS
 90
4
 70
0
 10
13.7774758327
 20
9.6035701682
 10
13.7672861121
 20
9.6027956377
 10
13.7577908153
 20
9.6005248782
 10
13.7496370311
 20
9.5969126383
  0
LINE
  5
5DF
100
AcDbEntity
  8
02___PRT_ALL_AXES
100
AcDbLine
 62
7
  6
CONTINUOUS
 10
14.2141641434
 20
9.6035712179
 11
13.7774758327
 21
9.6035701682
  0
LINE
  5
5E0
100
AcDbEntity
  8
02___PRT_ALL_AXES
100
AcDbLine
 62
7
  6
CONTINUOUS
 10
13.777475637
 20
9.6307052429
 11
14.2141639477
 21
9.6307062926
  0
LWPOLYLINE
  5
5E1
100
AcDbEntity
  8
02___PRT_ALL_AXES
100
AcDbPolyline
 62
7
  6
CONTINUOUS
 90
11
 70
0
 10
14.2141641434
 20
9.6035712179
 10
14.2696043175
 20
9.6010517836
 10
14.3236635468
 20
9.5935581518
 10
14.3750222824
 20
9.5812762198
 10
14.4224260903
 20
9.5645059731
 10
14.4647142224
 20
9.5436546527
 10
14.5008306371
 20
9.519240111
 10
14.5298783664
 20
9.4918720406
 10
14.5511520283
 20
9.462220587
 10
14.5641320151
 20
9.431009985
 10
14.5684963273
 20
9.3990020641
  0
LWPOLYLINE
  5
5E2
100
AcDbEntity
  8
0
100
AcDbPolyline
 62
7
  6
CONTINUOUS
 90
9
 70
0
 10
14.6502322378
 20
8.4613907132
 10
14.6470227303
 20
8.5008716466
 10
14.6375175473
 20
8.542541286
 10
14.6220819678
 20
8.5847982906
 10
14.6013091724
 20
8.6260187474
 10
14.5759974479
 20
8.6646185774
 10
14.5471195098
 20
8.6991144107
 10
14.515785121
 20
8.7281805919
 10
14.4831984444
 20
8.7507001239
  0
LINE
  5
5E3
100
AcDbEntity
  8
0
100
AcDbLine
 62
7
  6
CONTINUOUS
 10
14.6502322378
 20
8.4613907132
 11
14.6502322378
 21
7.5613093085
  0
LINE
  5
5E4
100
AcDbEntity
  8
0
100
AcDbLine
 62
7
  6
CONTINUOUS
 10
14.7240048822
 20
8.5039831151
 11
14.7240048822
 21
7.6039017104
  0
LWPOLYLINE
  5
5E5
100
AcDbEntity
  8
02___PRT_ALL_AXES
100
AcDbPolyline
 62
7
  6
CONTINUOUS
 90
11
 70
0
 10
14.6154963273
 20
9.3990021771
 10
14.6105502586
 20
9.4352661729
 10
14.5958401183
 20
9.4706263336
 10
14.5717310414
 20
9.5042190127
 10
14.5388122661
 20
9.535223213
 10
14.4978836994
 20
9.562879302
 10
14.4500015934
 20
9.5864798475
 10
14.3963157711
 20
9.6054667084
 10
14.3381473936
 20
9.6193726349
 10
14.2769279334
 20
9.6278554142
 10
14.2141639477
 20
9.6307062926
  0
LWPOLYLINE
  5
5E6
100
AcDbEntity
  8
0
100
AcDbPolyline
 62
7
  6
CONTINUOUS
 90
5
 70
0
 10
14.7240048822
 20
7.6039017104
 10
14.7207953747
 20
7.5681267133
 10
14.7112901918
 20
7.5374324654
 10
14.6958546123
 20
7.5129985296
 10
14.6750807963
 20
7.495763299
  0
LWPOLYLINE
  5
5E7
100
AcDbEntity
  8
0
100
AcDbPolyline
 62
7
  6
CONTINUOUS
 90
5
 70
0
 10
14.6013081519
 20
7.4531708971
 10
14.6220819678
 20
7.4704061277
 10
14.6375175473
 20
7.4948400635
 10
14.6470227303
 20
7.5255343114
 10
14.6502322378
 20
7.5613093085
  0
LINE
  5
5E8
100
AcDbEntity
  8
0
100
AcDbLine
 62
7
  6
CONTINUOUS
 10
14.7240048822
 20
7.6039017104
 11
14.6502322378
 21
7.5613093085
  0
LINE
  5
5E9
100
AcDbEntity
  8
0
100
AcDbLine
 62
7
  6
CONTINUOUS
 10
14.6750807963
 20
7.495763299
 11
14.6013081519
 21
7.4531708971
  0
LINE
  5
5EA
100
AcDbEntity
  8
0
100
AcDbLine
 62
7
  6
CONTINUOUS
 10
12.1124323986
 20
5.1404227951
 11
12.1124323986
 21
5.0552365193
  0
LWPOLYLINE
  5
5EB
100
AcDbEntity
  8
0
100
AcDbPolyline
 62
7
  6
CONTINUOUS
 90
5
 70
0
 10
12.1124323986
 20
5.1404227951
 10
12.1169715006
 20
5.1138158194
 10
12.1304139878
 20
5.0882319026
 10
12.1522432728
 20
5.0646536526
 10
12.1816204686
 20
5.0439871682
  0
LINE
  5
5EC
100
AcDbEntity
  8
0
100
AcDbLine
 62
7
  6
CONTINUOUS
 10
12.1816204686
 20
5.0439871682
 11
12.1816204686
 21
4.9588008924
  0
LWPOLYLINE
  5
5ED
100
AcDbEntity
  8
0
100
AcDbPolyline
 62
7
  6
CONTINUOUS
 90
4
 70
0
 10
12.3395102434
 20
5.1225446945
 10
12.342193334
 20
5.1107785976
 10
12.3500595881
 20
5.09981453
 10
12.3625729334
 20
5.0903994855
  0
LINE
  5
5EE
100
AcDbEntity
  8
0
100
AcDbLine
 62
7
  6
CONTINUOUS
 10
12.3395102434
 20
5.0841690809
 11
12.3395102434
 21
5.1225446945
  0
LINE
  5
5EF
100
AcDbEntity
  8
0
100
AcDbLine
 62
7
  6
CONTINUOUS
 10
12.3625729334
 20
5.0520238719
 11
12.3625729334
 21
5.0903994855
  0
LINE
  5
5F0
100
AcDbEntity
  8
0
100
AcDbLine
 62
7
  6
CONTINUOUS
 10
12.1816204686
 20
4.9588008924
 11
12.9611115042
 21
4.5087717142
  0
LWPOLYLINE
  5
5F1
100
AcDbEntity
  8
0
100
AcDbPolyline
 62
7
  6
CONTINUOUS
 90
5
 70
0
 10
12.1816204686
 20
4.9588008924
 10
12.1522432728
 20
4.9794673768
 10
12.1304139878
 20
5.0030456268
 10
12.1169715006
 20
5.0286295436
 10
12.1124323986
 20
5.0552365193
  0
LWPOLYLINE
  5
5F2
100
AcDbEntity
  8
0
100
AcDbPolyline
 62
7
  6
CONTINUOUS
 90
9
 70
0
 10
12.9611115042
 20
4.59395799
 10
12.9969076615
 20
4.5769974726
 10
13.0377471541
 20
4.5643947056
 10
13.0820605432
 20
4.556634006
 10
13.1281448901
 20
4.5540136132
 10
13.1742291993
 20
4.5566342275
 10
13.2185424765
 20
4.5643951401
 10
13.2593817873
 20
4.5769981036
 10
13.2951777
 20
4.593958793
  0
LINE
  5
5F3
100
AcDbEntity
  8
0
100
AcDbLine
 62
7
  6
CONTINUOUS
 10
12.1816204686
 20
5.0439871682
 11
12.9611115042
 21
4.59395799
  0
LWPOLYLINE
  5
5F4
100
AcDbEntity
  8
0
100
AcDbPolyline
 62
7
  6
CONTINUOUS
 90
4
 70
0
 10
12.3625729334
 20
5.0520238719
 10
12.3500595881
 20
5.0614389164
 10
12.342193334
 20
5.072402984
 10
12.3395102434
 20
5.0841690809
  0
LWPOLYLINE
  5
5F5
100
AcDbEntity
  8
AXIS
100
AcDbPolyline
 62
7
  6
CONTINUOUS
 90
9
 70
0
 10
12.6554332237
 20
5.0502194465
 10
12.656067837
 20
5.0399220701
 10
12.6611442961
 20
5.0195381411
 10
12.6711937238
 20
4.999778795
 10
12.6860115428
 20
4.9810462751
 10
12.7052961049
 20
4.9637219215
 10
12.7286548321
 20
4.948158408
 10
12.755612208
 20
4.934672563
 10
12.7856194582
 20
4.9235389193
  0
LWPOLYLINE
  5
5F6
100
AcDbEntity
  8
AXIS
100
AcDbPolyline
 62
7
  6
CONTINUOUS
 90
18
 70
0
 10
12.6554332237
 20
5.0902280649
 10
12.656067837
 20
5.0799306886
 10
12.6611442961
 20
5.0595467596
 10
12.6711937238
 20
5.0397874134
 10
12.6860115428
 20
5.0210548935
 10
12.7052961049
 20
5.0037305399
 10
12.7286548321
 20
4.9881670264
 10
12.755612208
 20
4.9746811814
 10
12.7856194582
 20
4.9635475377
 10
12.8180657217
 20
4.9549927443
 10
12.852290486
 20
4.9491909519
 10
12.8875970338
 20
4.9462602685
 10
12.9232666254
 20
4.9462603542
 10
12.9585731308
 20
4.9491912074
 10
12.9927978115
 20
4.9549931643
 10
13.0252439516
 20
4.9635481137
 10
13.0552510412
 20
4.9746819017
 10
13.0822082226
 20
4.9881678763
  0
LWPOLYLINE
  5
5F7
100
AcDbEntity
  8
0
100
AcDbPolyline
 62
7
  6
CONTINUOUS
 90
7
 70
0
 10
12.9750301756
 20
4.7368051312
 10
12.9913378483
 20
4.7295807296
 10
13.0103285074
 20
4.725039302
 10
13.0307079709
 20
4.723490339
 10
13.0510874121
 20
4.7250393999
 10
13.0700780058
 20
4.7295809189
 10
13.0863855742
 20
4.7368053989
  0
LINE
  5
5F8
100
AcDbEntity
  8
0
100
AcDbLine
 62
7
  6
CONTINUOUS
 10
12.3625729334
 20
5.0520238719
 11
12.9750301756
 21
4.6984295176
  0
LINE
  5
5F9
100
AcDbEntity
  8
0
100
AcDbLine
 62
7
  6
CONTINUOUS
 10
12.3625729334
 20
5.0903994855
 11
12.9750301756
 21
4.7368051312
  0
LWPOLYLINE
  5
5FA
100
AcDbEntity
  8
02___PRT_ALL_AXES
100
AcDbPolyline
 62
7
  6
CONTINUOUS
 90
4
 70
0
 10
12.6319472322
 20
5.1356785069
 10
12.620489286
 20
5.1508404282
 10
12.6151623687
 20
5.1670942186
 10
12.6148105387
 20
5.1726150221
  0
LWPOLYLINE
  5
5FB
100
AcDbEntity
  8
AXIS_COSMETIC_THREADS
100
AcDbPolyline
 62
7
  6
CONTINUOUS
 90
3
 70
0
 10
12.7095628354
 20
5.0861653126
 10
12.7061919243
 20
5.0994513102
 10
12.7054312744
 20
5.1095155236
  0
LWPOLYLINE
  5
5FC
100
AcDbEntity
  8
0
100
AcDbPolyline
 62
7
  6
CONTINUOUS
 90
14
 70
0
 10
12.7085984428
 20
5.0899663379
 10
12.7090820084
 20
5.0821198946
 10
12.7130792203
 20
5.0660695568
 10
12.7209921555
 20
5.0505110165
 10
12.7326597295
 20
5.0357610008
 10
12.7478444241
 20
5.0221197775
 10
12.7662371226
 20
5.0098650425
 10
12.7874634029
 20
4.9992462669
 10
12.811091159
 20
4.9904796183
 10
12.8366393979
 20
4.9837435605
 10
12.8635880313
 20
4.97917522
 10
12.8913884625
 20
4.9768675953
 10
12.9194747551
 20
4.9768676628
 10
12.9472751531
 20
4.9791754212
  0
LINE
  5
5FD
100
AcDbEntity
  8
AXIS
100
AcDbLine
 62
7
  6
CONTINUOUS
 10
12.6554307914
 20
5.0502194465
 11
12.6554307914
 21
5.0902280649
  0
LINE
  5
5FE
100
AcDbEntity
  8
AXIS_COSMETIC_THREADS
100
AcDbLine
 62
7
  6
CONTINUOUS
 10
12.7054307914
 20
5.1095155236
 11
12.7054307914
 21
5.205952817
  0
LWPOLYLINE
  5
5FF
100
AcDbEntity
  8
AXIS_COSMETIC_THREADS
100
AcDbPolyline
 62
7
  6
CONTINUOUS
 90
22
 70
0
 10
12.7054307914
 20
5.205952817
 10
12.7055153771
 20
5.2093107024
 10
12.707542343
 20
5.2226873916
 10
12.7122454106
 20
5.2358377744
 10
12.7195609791
 20
5.2485840144
 10
12.7293901179
 20
5.2607537406
 10
12.7415999049
 20
5.2721823783
 10
12.7560252235
 20
5.2827153748
 10
12.7724709962
 20
5.2922102894
 10
12.790714822
 20
5.3005387197
 10
12.8105099845
 20
5.3075880378
 10
12.831588788
 20
5.313262914
 10
12.853666178
 20
5.3174866052
 10
12.8764435956
 20
5.3202019932
 10
12.8996130153
 20
5.3213723572
 10
12.9228611104
 20
5.3209818698
 10
12.9458734903
 20
5.3190358118
 10
12.9683389522
 20
5.3155605004
 10
12.989953689
 20
5.310602933
 10
13.0104253987
 20
5.3042301523
 10
13.0294772364
 20
5.2965283393
 10
13.0468515588
 20
5.2876016477
  0
LWPOLYLINE
  5
600
100
AcDbEntity
  8
02___PRT_ALL_AXES
100
AcDbPolyline
 62
7
  6
CONTINUOUS
 90
8
 70
0
 10
12.6148105387
 20
5.1726150221
 10
12.6162335942
 20
5.1836248453
 10
12.6236492468
 20
5.1996033935
 10
12.6370374746
 20
5.2142286323
 10
12.6557269361
 20
5.2267671909
 10
12.6787804636
 20
5.2365903339
 10
12.705042057
 20
5.2432054876
 10
12.7172387384
 20
5.2445378713
  0
LINE
  5
601
100
AcDbEntity
  8
02___PRT_ALL_AXES
100
AcDbLine
 62
7
  6
CONTINUOUS
 10
12.8483235514
 20
6.0091778885
 11
13.0666667977
 21
6.3873615839
  0
LWPOLYLINE
  5
602
100
AcDbEntity
  8
02___PRT_ALL_AXES
100
AcDbPolyline
 62
7
  6
CONTINUOUS
 90
11
 70
0
 10
13.0666667977
 20
6.3873615839
 10
13.1005455611
 20
6.4403306821
 10
13.1385236115
 20
6.4891253263
 10
13.1796704371
 20
6.5325554311
 10
13.2229804101
 20
6.56955958
 10
13.267395712
 20
6.5992292212
 10
13.311775559
 20
6.6208081054
 10
13.3550616722
 20
6.6337909361
 10
13.3961888185
 20
6.6378582172
 10
13.4341448948
 20
6.6329098565
 10
13.4679958355
 20
6.6190676288
  0
LWPOLYLINE
  5
603
100
AcDbEntity
  8
AXIS_COSMETIC_THREADS
100
AcDbPolyline
 62
7
  6
CONTINUOUS
 90
19
 70
0
 10
12.7640100239
 20
5.0278666928
 10
12.7813843463
 20
5.0189400012
 10
12.800436184
 20
5.0112381882
 10
12.8209078937
 20
5.0048654075
 10
12.8425226305
 20
4.9999078402
 10
12.8649880924
 20
4.9964325287
 10
12.8880004723
 20
4.9944864707
 10
12.9112485674
 20
4.9940959834
 10
12.9344179871
 20
4.9952663473
 10
12.9571954047
 20
4.9979817353
 10
12.9792727947
 20
5.0022054265
 10
13.0003515982
 20
5.0078803027
 10
13.0201467607
 20
5.0149296209
 10
13.0383905865
 20
5.0232580511
 10
13.0548363592
 20
5.0327529657
 10
13.0692616778
 20
5.0432859622
 10
13.0814714648
 20
5.0547145999
 10
13.0913006036
 20
5.0668843261
 10
13.0986161721
 20
5.0796305661
  0
LWPOLYLINE
  5
604
100
AcDbEntity
  8
AXIS_COSMETIC_THREADS
100
AcDbPolyline
 62
7
  6
CONTINUOUS
 90
6
 70
0
 10
12.7640100239
 20
5.0278666928
 10
12.7485481748
 20
5.0378975448
 10
12.735207894
 20
5.048896907
 10
12.7241695859
 20
5.0607160321
 10
12.7155825246
 20
5.0731950866
 10
12.7095628354
 20
5.0861653126
  0
LINE
  5
605
100
AcDbEntity
  8
02___PRT_ALL_AXES
100
AcDbLine
 62
7
  6
CONTINUOUS
 10
12.6590008994
 20
5.1123029048
 11
12.6319472322
 21
5.1356785069
  0
LINE
  5
606
100
AcDbEntity
  8
0
100
AcDbLine
 62
7
  6
CONTINUOUS
 10
12.8304357969
 20
5.4569548057
 11
12.8304357969
 21
5.9489843056
  0
LINE
  5
607
100
AcDbEntity
  8
AXIS
100
AcDbLine
 62
7
  6
CONTINUOUS
 10
12.8576703909
 20
5.2763661301
 11
12.8576703909
 21
5.246499685
  0
LINE
  5
608
100
AcDbEntity
  8
AXIS
100
AcDbLine
 62
7
  6
CONTINUOUS
 10
12.8612468236
 20
5.2447824718
 11
12.8612469442
 21
5.1896531826
  0
LINE
  5
609
100
AcDbEntity
  8
AXIS
100
AcDbLine
 62
7
  6
CONTINUOUS
 10
12.8909507525
 20
5.2619319408
 11
12.8909507525
 21
5.2109134884
  0
LWPOLYLINE
  5
60A
100
AcDbEntity
  8
02___PRT_ALL_AXES
100
AcDbPolyline
 62
7
  6
CONTINUOUS
 90
4
 70
0
 10
12.8304357969
 20
5.9489843056
 10
12.8325167957
 20
5.9684380394
 10
12.8386179757
 20
5.9889689496
 10
12.8483235514
 20
6.0091778885
  0
LWPOLYLINE
  5
60B
100
AcDbEntity
  8
02___PRT_ALL_AXES
100
AcDbPolyline
 62
7
  6
CONTINUOUS
 90
6
 70
0
 10
12.6198018882
 20
5.1529378549
 10
12.6236492468
 20
5.1612277799
 10
12.6370374746
 20
5.1758530187
 10
12.6557269361
 20
5.1883915773
 10
12.6787804636
 20
5.1982147203
 10
12.705042057
 20
5.204829874
  0
LINE
  5
60C
100
AcDbEntity
  8
0
100
AcDbLine
 62
7
  6
CONTINUOUS
 10
13.8002198049
 20
4.7958817198
 11
13.7923001089
 21
4.7940507827
  0
LINE
  5
60D
100
AcDbEntity
  8
0
100
AcDbLine
 62
7
  6
CONTINUOUS
 10
13.7923001089
 20
4.7940507827
 11
13.7894866157
 21
4.7941601992
  0
LWPOLYLINE
  5
60E
100
AcDbEntity
  8
AXIS
100
AcDbPolyline
 62
7
  6
CONTINUOUS
 90
7
 70
0
 10
12.7856194582
 20
4.9235389193
 10
12.8180657217
 20
4.9149841258
 10
12.852290486
 20
4.9091823335
 10
12.8875970338
 20
4.9062516501
 10
12.9232666254
 20
4.9062517358
 10
12.9585731308
 20
4.909182589
 10
12.9927978115
 20
4.9149845458
  0
LINE
  5
60F
100
AcDbEntity
  8
02___PRT_ALL_AXES
100
AcDbLine
 62
7
  6
CONTINUOUS
 10
13.0534546194
 20
4.8923266088
 11
12.9939392479
 21
4.915285504
  0
LWPOLYLINE
  5
610
100
AcDbEntity
  8
AXIS_COSMETIC_THREADS
100
AcDbPolyline
 62
7
  6
CONTINUOUS
 90
22
 70
0
 10
12.7640100239
 20
5.1243039862
 10
12.7813843463
 20
5.1153772946
 10
12.800436184
 20
5.1076754816
 10
12.8209078937
 20
5.1013027009
 10
12.8425226305
 20
5.0963451335
 10
12.8649880924
 20
5.0928698221
 10
12.8880004723
 20
5.0909237641
 10
12.9112485674
 20
5.0905332767
 10
12.9344179871
 20
5.0917036407
 10
12.9571954047
 20
5.0944190287
 10
12.9792727947
 20
5.0986427199
 10
13.0003515982
 20
5.1043175961
 10
13.0201467607
 20
5.1113669142
 10
13.0383905865
 20
5.1196953445
 10
13.0548363592
 20
5.1291902591
 10
13.0692616778
 20
5.1397232556
 10
13.0814714648
 20
5.1511518933
 10
13.0913006036
 20
5.1633216195
 10
13.0986161721
 20
5.1760678595
 10
13.1033192398
 20
5.1892182423
 10
13.1053462056
 20
5.2025949315
 10
13.1054307914
 20
5.205952817
  0
LWPOLYLINE
  5
611
100
AcDbEntity
  8
AXIS_COSMETIC_THREADS
100
AcDbPolyline
 62
7
  6
CONTINUOUS
 90
8
 70
0
 10
12.7640100239
 20
5.1243039862
 10
12.7485481748
 20
5.1343348381
 10
12.735207894
 20
5.1453342004
 10
12.7241695859
 20
5.1571533255
 10
12.7155825246
 20
5.1696323799
 10
12.7095628354
 20
5.182602606
 10
12.7061919243
 20
5.1958886036
 10
12.7054307914
 20
5.205952817
  0
LWPOLYLINE
  5
612
100
AcDbEntity
  8
AXIS
100
AcDbPolyline
 62
7
  6
CONTINUOUS
 90
4
 70
0
 10
12.8279668597
 20
5.2040688618
 10
12.8319042958
 20
5.2006833568
 10
12.8362846578
 20
5.1974843534
 10
12.8410815583
 20
5.1944911224
  0
LWPOLYLINE
  5
613
100
AcDbEntity
  8
AXIS
100
AcDbPolyline
 62
7
  6
CONTINUOUS
 90
3
 70
0
 10
12.8589347284
 20
5.2364227494
 10
12.8595164362
 20
5.2321897705
 10
12.8612469442
 20
5.2280628146
  0
LINE
  5
614
100
AcDbEntity
  8
AXIS
100
AcDbLine
 62
7
  6
CONTINUOUS
 10
12.9199104623
 20
5.2619320104
 11
12.9199104623
 21
5.210913558
  0
LINE
  5
615
100
AcDbEntity
  8
AXIS
100
AcDbLine
 62
7
  6
CONTINUOUS
 10
12.9496146385
 20
5.2447826842
 11
12.9496147591
 21
5.1896528719
  0
LINE
  5
616
100
AcDbEntity
  8
AXIS
100
AcDbLine
 62
7
  6
CONTINUOUS
 10
12.9531905467
 20
5.2763663597
 11
12.9531905467
 21
5.2464999161
  0
LINE
  5
617
100
AcDbEntity
  8
0
100
AcDbLine
 62
7
  6
CONTINUOUS
 10
12.9611115042
 20
4.59395799
 11
12.9611115042
 21
4.5087717142
  0
LINE
  5
618
100
AcDbEntity
  8
0
100
AcDbLine
 62
7
  6
CONTINUOUS
 10
12.9750301756
 20
4.7368051312
 11
12.9750301756
 21
4.6984295176
  0
LINE
  5
619
100
AcDbEntity
  8
02___PRT_ALL_AXES
100
AcDbLine
 62
7
  6
CONTINUOUS
 10
13.1814064526
 20
4.9819022295
 11
13.1385917737
 21
4.9984185966
  0
LINE
  5
61A
100
AcDbEntity
  8
02___PRT_ALL_AXES
100
AcDbLine
 62
7
  6
CONTINUOUS
 10
13.1814064526
 20
5.0202778431
 11
13.1526629159
 21
5.0313660684
  0
LWPOLYLINE
  5
61B
100
AcDbEntity
  8
02___PRT_ALL_AXES
100
AcDbPolyline
 62
7
  6
CONTINUOUS
 90
5
 70
0
 10
13.1814064526
 20
4.9819022295
 10
13.2044601218
 20
4.9720791974
 10
13.2231497641
 20
4.9595407286
 10
13.2365382029
 20
4.9449155542
 10
13.2403860054
 20
4.9366249487
  0
LWPOLYLINE
  5
61C
100
AcDbEntity
  8
02___PRT_ALL_AXES
100
AcDbPolyline
 62
7
  6
CONTINUOUS
 90
6
 70
0
 10
13.1814064526
 20
5.0202778431
 10
13.2044601218
 20
5.010454811
 10
13.2231497641
 20
4.9979163422
 10
13.2365382029
 20
4.9832911678
 10
13.2439540859
 20
4.9673126552
 10
13.2453773008
 20
4.9563022238
  0
LWPOLYLINE
  5
61D
100
AcDbEntity
  8
AXIS
100
AcDbPolyline
 62
7
  6
CONTINUOUS
 90
8
 70
0
 10
12.8612468236
 20
5.2447824718
 10
12.8573704517
 20
5.2466436999
 10
12.8532904964
 20
5.2485518019
 10
12.8489884709
 20
5.2505070675
 10
12.8443945946
 20
5.2525304871
 10
12.8394235886
 20
5.2546446478
 10
12.8339867553
 20
5.2568667442
 10
12.827966462
 20
5.2592166611
  0
LWPOLYLINE
  5
61E
100
AcDbEntity
  8
AXIS
100
AcDbPolyline
 62
7
  6
CONTINUOUS
 90
4
 70
0
 10
12.8410815583
 20
5.1944911224
 10
12.8462661005
 20
5.1917216951
 10
12.8518070527
 20
5.1891927547
 10
12.857671036
 20
5.1869195356
  0
LWPOLYLINE
  5
61F
100
AcDbEntity
  8
AXIS
100
AcDbPolyline
 62
7
  6
CONTINUOUS
 90
8
 70
0
 10
12.9496147591
 20
5.228063027
 10
12.953491131
 20
5.2254483077
 10
12.9575710864
 20
5.2226453895
 10
12.9618731119
 20
5.2196332164
 10
12.9664669881
 20
5.2163522046
 10
12.9714379941
 20
5.2127264719
 10
12.9768748275
 20
5.2086707959
 10
12.9828951207
 20
5.2040692342
  0
LWPOLYLINE
  5
620
100
AcDbEntity
  8
AXIS
100
AcDbPolyline
 62
7
  6
CONTINUOUS
 90
8
 70
0
 10
12.9531911918
 20
5.1869197652
 10
12.9470821573
 20
5.1915882839
 10
12.9416037411
 20
5.1956730615
 10
12.9366237356
 20
5.1993032246
 10
12.932048045
 20
5.2025693634
 10
12.9277845597
 20
5.2055531834
 10
12.9237428666
 20
5.2083290102
 10
12.9199108302
 20
5.210913558
  0
LWPOLYLINE
  5
621
100
AcDbEntity
  8
AXIS
100
AcDbPolyline
 62
7
  6
CONTINUOUS
 90
4
 70
0
 10
12.982894723
 20
5.2592170335
 10
12.9789572869
 20
5.2626025385
 10
12.9745769249
 20
5.2658015419
 10
12.9697800244
 20
5.2687947729
  0
LWPOLYLINE
  5
622
100
AcDbEntity
  8
AXIS
100
AcDbPolyline
 62
7
  6
CONTINUOUS
 90
3
 70
0
 10
12.9519268544
 20
5.2364227494
 10
12.9513451465
 20
5.2406557283
 10
12.9496146385
 20
5.2447826842
  0
LWPOLYLINE
  5
623
100
AcDbEntity
  8
AXIS_COSMETIC_THREADS
100
AcDbPolyline
 62
7
  6
CONTINUOUS
 90
8
 70
0
 10
13.1054307914
 20
5.205952817
 10
13.1046696584
 20
5.2160170303
 10
13.1012987473
 20
5.2293030279
 10
13.0952790582
 20
5.242273254
 10
13.0866919969
 20
5.2547523085
 10
13.0756536887
 20
5.2665714335
 10
13.0623134079
 20
5.2775707958
 10
13.0468515588
 20
5.2876016477
  0
LWPOLYLINE
  5
624
100
AcDbEntity
  8
AXIS
100
AcDbPolyline
 62
7
  6
CONTINUOUS
 90
7
 70
0
 10
13.155428359
 20
5.0902280649
 10
13.1547937458
 20
5.1005254413
 10
13.1497172866
 20
5.1209093703
 10
13.1396678589
 20
5.1406687164
 10
13.1248500399
 20
5.1594012363
 10
13.1055654778
 20
5.1767255899
 10
13.1054307914
 20
5.1768153292
  0
LINE
  5
625
100
AcDbEntity
  8
0
100
AcDbLine
 62
7
  6
CONTINUOUS
 10
13.0863855742
 20
4.7368053989
 11
13.0863855742
 21
4.6984297853
  0
LINE
  5
626
100
AcDbEntity
  8
AXIS_COSMETIC_THREADS
100
AcDbLine
 62
7
  6
CONTINUOUS
 10
13.1054307914
 20
5.1095155236
 11
13.1054307914
 21
5.205952817
  0
LWPOLYLINE
  5
627
100
AcDbEntity
  8
AXIS
100
AcDbPolyline
 62
7
  6
CONTINUOUS
 90
3
 70
0
 10
12.8612468236
 20
5.2447824718
 10
12.8595163752
 20
5.2406555076
 10
12.8589347284
 20
5.2364227494
  0
LWPOLYLINE
  5
628
100
AcDbEntity
  8
AXIS
100
AcDbPolyline
 62
7
  6
CONTINUOUS
 90
3
 70
0
 10
12.9496147591
 20
5.228063027
 10
12.9513452075
 20
5.2321899912
 10
12.9519268544
 20
5.2364227494
  0
LWPOLYLINE
  5
629
100
AcDbEntity
  8
0
100
AcDbPolyline
 62
7
  6
CONTINUOUS
 90
5
 70
0
 10
12.1816190777
 20
5.236857619
 10
12.15224218
 20
5.2161909934
 10
12.1304132351
 20
5.1926126384
 10
12.1169711169
 20
5.167028657
 10
12.1124323986
 20
5.1404227951
  0
LWPOLYLINE
  5
62A
100
AcDbEntity
  8
AXIS
100
AcDbPolyline
 62
7
  6
CONTINUOUS
 90
8
 70
0
 10
12.8576703909
 20
5.2763661301
 10
12.8637794254
 20
5.273980703
 10
12.8692578416
 20
5.2717396935
 10
12.8742378471
 20
5.2696195717
 10
12.8788135377
 20
5.2676022775
 10
12.883077023
 20
5.2656631603
 10
12.8871187161
 20
5.2637721473
 10
12.8909507525
 20
5.2619319408
  0
LWPOLYLINE
  5
62B
100
AcDbEntity
  8
AXIS
100
AcDbPolyline
 62
7
  6
CONTINUOUS
 90
4
 70
0
 10
12.9697800244
 20
5.2687947729
 10
12.9645954822
 20
5.2715642002
 10
12.95905453
 20
5.2740931405
 10
12.9531905467
 20
5.2763663597
  0
LINE
  5
62C
100
AcDbEntity
  8
0
100
AcDbLine
 62
7
  6
CONTINUOUS
 10
13.5264101676
 20
4.9908521999
 11
13.0968723051
 21
5.2388403902
  0
LINE
  5
62D
100
AcDbEntity
  8
0
100
AcDbLine
 62
7
  6
CONTINUOUS
 10
12.9623929593
 20
5.3164803202
 11
12.8025970631
 21
5.4087364368
  0
LINE
  5
62E
100
AcDbEntity
  8
0
100
AcDbLine
 62
7
  6
CONTINUOUS
 10
13.5542489014
 20
5.0390705688
 11
12.8304357969
 21
5.4569548057
  0
LINE
  5
62F
100
AcDbEntity
  8
AXIS
100
AcDbLine
 62
7
  6
CONTINUOUS
 10
13.1554307914
 20
5.0502194465
 11
13.1554307914
 21
5.0902280649
  0
LINE
  5
630
100
AcDbEntity
  8
02___PRT_ALL_AXES
100
AcDbLine
 62
7
  6
CONTINUOUS
 10
13.1814064526
 20
5.0202778431
 11
13.1814064526
 21
4.9819022295
  0
LWPOLYLINE
  5
631
100
AcDbEntity
  8
0
100
AcDbPolyline
 62
7
  6
CONTINUOUS
 90
6
 70
0
 10
12.8025970631
 20
5.4087364368
 10
12.811199705
 20
5.4152764704
 10
12.8189602603
 20
5.4243229714
 10
12.8251190718
 20
5.4349904051
 10
12.8290732723
 20
5.4462345689
 10
12.8304357969
 20
5.4569548057
  0
LWPOLYLINE
  5
632
100
AcDbEntity
  8
0
100
AcDbPolyline
 62
7
  6
CONTINUOUS
 90
4
 70
0
 10
12.3625724698
 20
5.1546896358
 10
12.3500592603
 20
5.1452745312
 10
12.3421931643
 20
5.1343104258
 10
12.3395102434
 20
5.1225446945
  0
LINE
  5
633
100
AcDbEntity
  8
0
100
AcDbLine
 62
7
  6
CONTINUOUS
 10
12.7801518533
 20
5.5824186154
 11
12.1816190777
 21
5.236857619
  0
LINE
  5
634
100
AcDbEntity
  8
0
100
AcDbLine
 62
7
  6
CONTINUOUS
 10
14.1858755275
 20
6.2057559683
 11
14.1847640401
 21
6.2052442186
  0
LWPOLYLINE
  5
635
100
AcDbEntity
  8
AXIS
100
AcDbPolyline
 62
7
  6
CONTINUOUS
 90
4
 70
0
 10
12.9927978115
 20
4.9149845458
 10
13.0252439516
 20
4.9235394953
 10
13.0552510412
 20
4.9346732832
 10
13.0822082226
 20
4.9481592578
  0
LWPOLYLINE
  5
636
100
AcDbEntity
  8
0
100
AcDbPolyline
 62
7
  6
CONTINUOUS
 90
5
 70
0
 10
12.9472751531
 20
4.9791754212
 10
12.9742237206
 20
4.9837438912
 10
12.9997718624
 20
4.9904800718
 10
13.023399492
 20
4.999246834
 10
13.0446256191
 20
5.0098657117
  0
LWPOLYLINE
  5
637
100
AcDbEntity
  8
AXIS
100
AcDbPolyline
 62
7
  6
CONTINUOUS
 90
5
 70
0
 10
12.8909511205
 20
5.2109134884
 10
12.8980993343
 20
5.2099144278
 10
12.9054309849
 20
5.2095786187
 10
12.9127626307
 20
5.2099144631
 10
12.9199108302
 20
5.210913558
  0
LWPOLYLINE
  5
638
100
AcDbEntity
  8
AXIS
100
AcDbPolyline
 62
7
  6
CONTINUOUS
 90
5
 70
0
 10
12.9199104623
 20
5.2619320104
 10
12.9127622484
 20
5.2629310709
 10
12.9054305978
 20
5.2632668801
 10
12.898098952
 20
5.2629310357
 10
12.8909507525
 20
5.2619319408
  0
LINE
  5
639
100
AcDbEntity
  8
0
100
AcDbLine
 62
7
  6
CONTINUOUS
 10
13.8937104756
 20
4.9395197894
 11
13.7823546134
 21
5.003809672
  0
LINE
  5
63A
100
AcDbEntity
  8
0
100
AcDbLine
 62
7
  6
CONTINUOUS
 10
12.7801518533
 20
5.5824186154
 11
12.8304357969
 21
5.5533878238
  0
LINE
  5
63B
100
AcDbEntity
  8
0
100
AcDbLine
 62
7
  6
CONTINUOUS
 10
13.5874827817
 20
5.1323889018
 11
13.7937852162
 21
5.0132828303
  0
LINE
  5
63C
100
AcDbEntity
  8
0
100
AcDbLine
 62
7
  6
CONTINUOUS
 10
13.5874827817
 20
5.1484617841
 11
13.7937852162
 21
5.0293557125
  0
LWPOLYLINE
  5
63D
100
AcDbEntity
  8
0
100
AcDbPolyline
 62
7
  6
CONTINUOUS
 90
7
 70
0
 10
13.823122119
 20
4.6726019291
 10
13.8299728998
 20
4.6649699114
 10
13.8382539749
 20
4.6589533246
 10
13.8474010027
 20
4.6549621891
 10
13.8567906285
 20
4.6532684942
 10
13.8657829646
 20
4.6539876623
 10
13.8737651983
 20
4.6570706833
  0
LINE
  5
63E
100
AcDbEntity
  8
0
100
AcDbLine
 62
7
  6
CONTINUOUS
 10
13.7653625769
 20
4.7330277589
 11
13.8151382317
 21
4.6640451899
  0
LINE
  5
63F
100
AcDbEntity
  8
0
100
AcDbLine
 62
7
  6
CONTINUOUS
 10
13.7733464642
 20
4.741584498
 11
13.823122119
 21
4.6726019291
  0
LINE
  5
640
100
AcDbEntity
  8
0
100
AcDbLine
 62
7
  6
CONTINUOUS
 10
13.2951777
 20
4.593958793
 11
13.2951777
 21
4.5087725172
  0
LWPOLYLINE
  5
641
100
AcDbEntity
  8
02___PRT_ALL_AXES
100
AcDbPolyline
 62
7
  6
CONTINUOUS
 90
11
 70
0
 10
13.2453773008
 20
4.9563022238
 10
13.2450255498
 20
4.9507820337
 10
13.239698867
 20
4.9345282177
 10
13.2282411394
 20
4.9193662413
 10
13.2112269055
 20
4.9060563895
 10
13.18950933
 20
4.8952660737
 10
13.1641774228
 20
4.8875363655
 10
13.1365014315
 20
4.8832548646
 10
13.1078691458
 20
4.8826362635
 10
13.0797163082
 20
4.8857115813
 10
13.0534546194
 20
4.8923266088
  0
LWPOLYLINE
  5
642
100
AcDbEntity
  8
AXIS_COSMETIC_THREADS
100
AcDbPolyline
 62
7
  6
CONTINUOUS
 90
4
 70
0
 10
13.0986161721
 20
5.0796305661
 10
13.1033192398
 20
5.0927809489
 10
13.1053462056
 20
5.1061576381
 10
13.1054303083
 20
5.1095155236
  0
LINE
  5
643
100
AcDbEntity
  8
0
100
AcDbLine
 62
7
  6
CONTINUOUS
 10
12.3625724698
 20
5.1546896358
 11
12.8025970631
 21
5.4087364368
  0
LINE
  5
644
100
AcDbEntity
  8
02___PRT_ALL_AXES
100
AcDbLine
 62
7
  6
CONTINUOUS
 10
12.705042057
 20
5.204829874
 11
12.7055474323
 21
5.204885082
  0
LWPOLYLINE
  5
645
100
AcDbEntity
  8
0
100
AcDbPolyline
 62
7
  6
CONTINUOUS
 90
7
 70
0
 10
13.7937852162
 20
5.0132828303
 10
13.7975830078
 20
5.0104804095
 10
13.8010926187
 20
5.0066710108
 10
13.8040477354
 20
5.0021436957
 10
13.8062241203
 20
4.9972420022
 10
13.8074566269
 20
4.9923378764
 10
13.807589903
 20
4.9892404003
  0
LWPOLYLINE
  5
646
100
AcDbEntity
  8
0
100
AcDbPolyline
 62
7
  6
CONTINUOUS
 90
7
 70
0
 10
13.7937852162
 20
5.0293557125
 10
13.8013807995
 20
5.0237508709
 10
13.8084000211
 20
5.0161320735
 10
13.8143102546
 20
5.0070774434
 10
13.8186630245
 20
4.9972740564
 10
13.8211280377
 20
4.9874658048
 10
13.821394608
 20
4.9812704305
  0
LWPOLYLINE
  5
647
100
AcDbEntity
  8
0
100
AcDbPolyline
 62
7
  6
CONTINUOUS
 90
4
 70
0
 10
13.7823546134
 20
5.003809672
 10
13.7787345189
 20
5.0066863299
 10
13.7768313092
 20
5.0100680497
 10
13.7765933982
 20
5.0118459742
  0
LWPOLYLINE
  5
648
100
AcDbEntity
  8
AXIS
100
AcDbPolyline
 62
7
  6
CONTINUOUS
 90
8
 70
0
 10
12.8279668597
 20
5.2040688618
 10
12.8340829267
 20
5.2087427534
 10
12.8395661404
 20
5.2128310019
 10
12.8445447084
 20
5.2164599937
 10
12.8491171545
 20
5.2197237366
 10
12.8533767779
 20
5.2227048266
 10
12.8574132995
 20
5.2254771323
 10
12.8612469442
 20
5.2280628146
  0
LWPOLYLINE
  5
649
100
AcDbEntity
  8
AXIS
100
AcDbPolyline
 62
7
  6
CONTINUOUS
 90
8
 70
0
 10
12.8909511205
 20
5.2109134884
 10
12.8870858112
 20
5.2083062576
 10
12.8829959249
 20
5.2054965515
 10
12.8786598505
 20
5.2024602737
 10
12.8740268456
 20
5.1991504949
 10
12.8690375201
 20
5.1955100556
 10
12.8636232802
 20
5.1914698019
 10
12.857671036
 20
5.1869195356
  0
LWPOLYLINE
  5
64A
100
AcDbEntity
  8
AXIS
100
AcDbPolyline
 62
7
  6
CONTINUOUS
 90
7
 70
0
 10
12.7054307914
 20
5.1768151998
 10
12.7052948574
 20
5.1767246278
 10
12.6860105451
 20
5.1594001815
 10
12.6711929964
 20
5.1406675903
 10
12.6611438536
 20
5.1209081959
 10
12.6560676885
 20
5.1005242425
 10
12.6554332237
 20
5.0902280649
  0
LINE
  5
64B
100
AcDbEntity
  8
0
100
AcDbLine
 62
7
  6
CONTINUOUS
 10
13.8422036371
 20
5.8050250775
 11
13.8501408705
 21
5.809607614
  0
LWPOLYLINE
  5
64C
100
AcDbEntity
  8
AXIS
100
AcDbPolyline
 62
7
  6
CONTINUOUS
 90
8
 70
0
 10
14.3694380716
 20
6.0986262327
 10
14.3713899264
 20
6.0995634607
 10
14.3754798127
 20
6.1014763203
 10
14.3798158871
 20
6.1034468801
 10
14.384448892
 20
6.1054868025
 10
14.3894382176
 20
6.1076075058
 10
14.3948524574
 20
6.1098190404
 10
14.4008047017
 20
6.1121417928
  0
LWPOLYLINE
  5
64D
100
AcDbEntity
  8
AXIS
100
AcDbPolyline
 62
7
  6
CONTINUOUS
 90
8
 70
0
 10
14.4305088779
 20
6.0949924666
 10
14.424392811
 20
6.0926041746
 10
14.4189095973
 20
6.090360991
 10
14.4139310292
 20
6.088241262
 10
14.4093585831
 20
6.0862252304
 10
14.4050989598
 20
6.0842877603
 10
14.4010624381
 20
6.0823991201
 10
14.3991413277
 20
6.0814765595
  0
LWPOLYLINE
  5
64E
100
AcDbEntity
  8
0
100
AcDbPolyline
 62
7
  6
CONTINUOUS
 90
5
 70
0
 10
14.3594469217
 20
5.5155662803
 10
14.3561267639
 20
5.5149434438
 10
14.3499679267
 20
5.514943429
 10
14.3441105165
 20
5.5160422038
 10
14.3391278975
 20
5.5181322124
  0
LINE
  5
64F
100
AcDbEntity
  8
0
100
AcDbLine
 62
7
  6
CONTINUOUS
 10
13.5542489014
 20
5.0390705688
 11
13.5542489014
 21
5.5311000687
  0
LINE
  5
650
100
AcDbEntity
  8
0
100
AcDbLine
 62
7
  6
CONTINUOUS
 10
13.5874827817
 20
5.5502875439
 11
13.5874827817
 21
5.058258044
  0
LWPOLYLINE
  5
651
100
AcDbEntity
  8
02___PRT_ALL_AXES
100
AcDbPolyline
 62
7
  6
CONTINUOUS
 90
4
 70
0
 10
13.5542489014
 20
5.5311000687
 10
13.5563299002
 20
5.5505538025
 10
13.5624310802
 20
5.5710847127
 10
13.5721366559
 20
5.5912936516
  0
LWPOLYLINE
  5
652
100
AcDbEntity
  8
0
100
AcDbPolyline
 62
7
  6
CONTINUOUS
 90
6
 70
0
 10
13.5542489014
 20
5.0390705688
 10
13.5528863767
 20
5.028350332
 10
13.5489321763
 20
5.0171061682
 10
13.5427733647
 20
5.0064387345
 10
13.5350128094
 20
4.9973922335
 10
13.5264101676
 20
4.9908521999
  0
LWPOLYLINE
  5
653
100
AcDbEntity
  8
02___PRT_ALL_AXES
100
AcDbPolyline
 62
7
  6
CONTINUOUS
 90
4
 70
0
 10
13.595636558
 20
5.5777255888
 10
13.5912124648
 20
5.5685137468
 10
13.5884313636
 20
5.5591551407
 10
13.5874827817
 20
5.5502875439
  0
LINE
  5
654
100
AcDbEntity
  8
02___PRT_ALL_AXES
100
AcDbLine
 62
7
  6
CONTINUOUS
 10
13.5721366559
 20
5.5912936516
 11
13.7904799022
 21
5.969477347
  0
LINE
  5
655
100
AcDbEntity
  8
02___PRT_ALL_AXES
100
AcDbLine
 62
7
  6
CONTINUOUS
 10
13.8139798043
 20
5.9559092842
 11
13.595636558
 21
5.5777255888
  0
LWPOLYLINE
  5
656
100
AcDbEntity
  8
02___PRT_ALL_AXES
100
AcDbPolyline
 62
7
  6
CONTINUOUS
 90
11
 70
0
 10
13.8139798043
 20
5.9559092842
 10
13.8438817985
 20
6.0026621017
 10
13.8774011274
 20
6.0457317598
 10
13.9137170238
 20
6.084068449
 10
13.9519424741
 20
6.1167357981
 10
13.9911444211
 20
6.1429322006
 10
14.030346368
 20
6.1620020372
 10
14.0685718183
 20
6.1734733726
 10
14.1048877147
 20
6.1770704182
 10
14.1384070436
 20
6.1727053163
 10
14.1683090378
 20
6.1604801414
  0
LWPOLYLINE
  5
657
100
AcDbEntity
  8
AXIS
100
AcDbPolyline
 62
7
  6
CONTINUOUS
 90
8
 70
0
 10
12.9199104623
 20
5.2619320104
 10
12.9237757715
 20
5.2637880276
 10
12.9278656578
 20
5.2657008872
 10
12.9322017322
 20
5.2676714469
 10
12.9368347371
 20
5.2697113694
 10
12.9418240627
 20
5.2718320727
 10
12.9472383025
 20
5.2740436073
 10
12.9531905467
 20
5.2763663597
  0
LWPOLYLINE
  5
658
100
AcDbEntity
  8
AXIS
100
AcDbPolyline
 62
7
  6
CONTINUOUS
 90
4
 70
0
 10
12.8576703909
 20
5.2763661301
 10
12.8462655248
 20
5.2715639157
 10
12.8362841652
 20
5.2658012095
 10
12.827966462
 20
5.2592166611
  0
LWPOLYLINE
  5
659
100
AcDbEntity
  8
AXIS
100
AcDbPolyline
 62
7
  6
CONTINUOUS
 90
4
 70
0
 10
14.4404119664
 20
5.7507599789
 10
14.4728581065
 20
5.7593149284
 10
14.5028651962
 20
5.7704487163
 10
14.5298223776
 20
5.783934691
  0
LWPOLYLINE
  5
65A
100
AcDbEntity
  8
AXIS
100
AcDbPolyline
 62
7
  6
CONTINUOUS
 90
5
 70
0
 10
13.5874827817
 20
5.527712536
 10
13.6124412424
 20
5.526293378
 10
13.6364443281
 20
5.5220896657
 10
13.65856572
 20
5.5152631669
 10
13.6779553052
 20
5.50607622
  0
LWPOLYLINE
  5
65B
100
AcDbEntity
  8
AXIS
100
AcDbPolyline
 62
7
  6
CONTINUOUS
 90
5
 70
0
 10
13.5874827817
 20
5.5437854182
 10
13.6124412424
 20
5.5423662602
 10
13.6364443281
 20
5.5381625479
 10
13.65856572
 20
5.5313360491
 10
13.6779553052
 20
5.5221491022
  0
LWPOLYLINE
  5
65C
100
AcDbEntity
  8
0
100
AcDbPolyline
 62
7
  6
CONTINUOUS
 90
3
 70
0
 10
14.3593362526
 20
5.3439213213
 10
14.3619854031
 20
5.3434243748
 10
14.3669680221
 20
5.3413343661
  0
LINE
  5
65D
100
AcDbEntity
  8
02___PRT_ALL_AXES
100
AcDbLine
 62
7
  6
CONTINUOUS
 10
12.8304357969
 20
5.9489843056
 11
13.5542489014
 21
5.5311000687
  0
LINE
  5
65E
100
AcDbEntity
  8
AXIS
100
AcDbLine
 62
7
  6
CONTINUOUS
 10
13.7614722018
 20
5.457858808
 11
13.6779553052
 21
5.50607622
  0
LINE
  5
65F
100
AcDbEntity
  8
AXIS
100
AcDbLine
 62
7
  6
CONTINUOUS
 10
13.7614722018
 20
5.4739316903
 11
13.6779553052
 21
5.5221491022
  0
LINE
  5
660
100
AcDbEntity
  8
02___PRT_ALL_AXES
100
AcDbLine
 62
7
  6
CONTINUOUS
 10
12.8483235514
 20
6.0091778885
 11
13.5721366559
 21
5.5912936516
  0
LWPOLYLINE
  5
661
100
AcDbEntity
  8
AXIS
100
AcDbPolyline
 62
7
  6
CONTINUOUS
 90
3
 70
0
 10
13.7614722018
 20
5.457858808
 10
13.7773848495
 20
5.4466644623
 10
13.7892090456
 20
5.4338929102
  0
LWPOLYLINE
  5
662
100
AcDbEntity
  8
AXIS
100
AcDbPolyline
 62
7
  6
CONTINUOUS
 90
5
 70
0
 10
13.7614722018
 20
5.4739316903
 10
13.7773848495
 20
5.4627373445
 10
13.7892090456
 20
5.4499657924
 10
13.7964903928
 20
5.4361078375
 10
13.7989490731
 20
5.4216957257
  0
LINE
  5
663
100
AcDbEntity
  8
0
100
AcDbLine
 62
7
  6
CONTINUOUS
 10
13.7923001089
 20
4.7940507827
 11
13.7918226098
 21
4.7955088779
  0
LWPOLYLINE
  5
664
100
AcDbEntity
  8
0
100
AcDbPolyline
 62
7
  6
CONTINUOUS
 90
4
 70
0
 10
13.7491331826
 20
4.7708622728
 10
13.7502552291
 20
4.7641928714
 10
13.7563441337
 20
4.7481413122
 10
13.7653625769
 20
4.7330277589
  0
LINE
  5
665
100
AcDbEntity
  8
AXIS
100
AcDbLine
 62
7
  6
CONTINUOUS
 10
13.6779553052
 20
5.5221491022
 11
13.6779553052
 21
5.50607622
  0
LINE
  5
666
100
AcDbEntity
  8
AXIS
100
AcDbLine
 62
7
  6
CONTINUOUS
 10
13.7614722018
 20
5.4739316903
 11
13.7614722018
 21
5.457858808
  0
LWPOLYLINE
  5
667
100
AcDbEntity
  8
0
100
AcDbPolyline
 62
7
  6
CONTINUOUS
 90
3
 70
0
 10
13.7765873712
 20
5.8476179277
 10
13.7768252565
 20
5.8493957587
 10
13.7779040288
 20
5.8513126305
  0
LINE
  5
668
100
AcDbEntity
  8
AXIS
100
AcDbLine
 62
7
  6
CONTINUOUS
 10
14.4277829275
 20
6.0376864067
 11
14.4305092756
 21
6.0398446673
  0
LWPOLYLINE
  5
669
100
AcDbEntity
  8
0
100
AcDbPolyline
 62
7
  6
CONTINUOUS
 90
7
 70
0
 10
13.0446256191
 20
5.0098657117
 10
13.063018141
 20
5.0221205351
 10
13.0782026388
 20
5.0357618314
 10
13.08987
 20
5.0505119032
 10
13.0977827108
 20
5.0660704815
 10
13.1017796913
 20
5.0821208385
 10
13.10225284
 20
5.0897991578
  0
LWPOLYLINE
  5
66A
100
AcDbEntity
  8
AXIS
100
AcDbPolyline
 62
7
  6
CONTINUOUS
 90
4
 70
0
 10
12.9531911918
 20
5.1869197652
 10
12.9645960579
 20
5.1917219796
 10
12.9745774175
 20
5.1974846858
 10
12.9828951207
 20
5.2040692342
  0
LWPOLYLINE
  5
66B
100
AcDbEntity
  8
AXIS
100
AcDbPolyline
 62
7
  6
CONTINUOUS
 90
8
 70
0
 10
12.982894723
 20
5.2592170335
 10
12.9767786561
 20
5.2568287414
 10
12.9712954423
 20
5.2545855579
 10
12.9663168743
 20
5.2524658288
 10
12.9617444282
 20
5.2504497972
 10
12.9574848048
 20
5.2485123272
 10
12.9534482832
 20
5.246623687
 10
12.9496146385
 20
5.2447826842
  0
LWPOLYLINE
  5
66C
100
AcDbEntity
  8
AXIS_COSMETIC_THREADS
100
AcDbPolyline
 62
7
  6
CONTINUOUS
 90
9
 70
0
 10
14.4280399408
 20
5.8382912702
 10
14.4479657532
 20
5.8436557358
 10
14.4677609156
 20
5.850705054
 10
14.4860047414
 20
5.8590334843
 10
14.5024505141
 20
5.8685283989
 10
14.5168758327
 20
5.8790613954
 10
14.5290856197
 20
5.8904900331
 10
14.5389147586
 20
5.9026597592
 10
14.5462303271
 20
5.9154059992
  0
LWPOLYLINE
  5
66D
100
AcDbEntity
  8
0
100
AcDbPolyline
 62
7
  6
CONTINUOUS
 90
4
 70
0
 10
14.4280399408
 20
5.8211545991
 10
14.4473860173
 20
5.826255505
 10
14.471013647
 20
5.8350222671
 10
14.4922397741
 20
5.8456411448
  0
LINE
  5
66E
100
AcDbEntity
  8
AXIS
100
AcDbLine
 62
7
  6
CONTINUOUS
 10
14.4280399408
 20
5.7486626048
 11
14.4404119664
 21
5.7507599789
  0
LWPOLYLINE
  5
66F
100
AcDbEntity
  8
AXIS
100
AcDbPolyline
 62
7
  6
CONTINUOUS
 90
5
 70
0
 10
14.4280399408
 20
5.7886712233
 10
14.4404119664
 20
5.7907685974
 10
14.4728581065
 20
5.7993235468
 10
14.5028651962
 20
5.8104573348
 10
14.5298223776
 20
5.8239433094
  0
LINE
  5
670
100
AcDbEntity
  8
0
100
AcDbLine
 62
7
  6
CONTINUOUS
 10
14.4783238843
 20
5.1918582077
 11
14.3744864359
 21
5.2518074302
  0
LINE
  5
671
100
AcDbEntity
  8
AXIS
100
AcDbLine
 62
7
  6
CONTINUOUS
 10
13.7892090456
 20
5.4338929102
 11
13.7964903928
 21
5.4200349553
  0
LINE
  5
672
100
AcDbEntity
  8
0
100
AcDbLine
 62
7
  6
CONTINUOUS
 10
13.7823484705
 20
5.8395816254
 11
13.7823484705
 21
5.8487466889
  0
LINE
  5
673
100
AcDbEntity
  8
0
100
AcDbLine
 62
7
  6
CONTINUOUS
 10
13.7823544975
 20
5.003809672
 11
13.7823544975
 21
5.0198822095
  0
LINE
  5
674
100
AcDbEntity
  8
0
100
AcDbLine
 62
7
  6
CONTINUOUS
 10
13.7937852162
 20
5.0293557125
 11
13.7937852162
 21
5.0132828303
  0
LINE
  5
675
100
AcDbEntity
  8
0
100
AcDbLine
 62
7
  6
CONTINUOUS
 10
13.8937104756
 20
4.8543335135
 11
13.8937104756
 21
4.9395197894
  0
LWPOLYLINE
  5
676
100
AcDbEntity
  8
0
100
AcDbPolyline
 62
7
  6
CONTINUOUS
 90
5
 70
0
 10
13.7619679414
 20
4.77827238
 10
13.7615293389
 20
4.7727367821
 10
13.763274899
 20
4.7623612397
 10
13.7673341688
 20
4.7516602002
 10
13.7733464642
 20
4.741584498
  0
LWPOLYLINE
  5
677
100
AcDbEntity
  8
0
100
AcDbPolyline
 62
7
  6
CONTINUOUS
 90
4
 70
0
 10
13.7765933982
 20
5.0118459742
 10
13.7768312836
 20
5.0136238052
 10
13.7787344445
 20
5.0170055342
 10
13.7823544975
 20
5.0198822095
  0
LWPOLYLINE
  5
678
100
AcDbEntity
  8
AXIS
100
AcDbPolyline
 62
7
  6
CONTINUOUS
 90
13
 70
0
 10
13.7989490731
 20
5.4216957257
 10
13.7964906007
 20
5.4072842171
 10
13.7892094533
 20
5.3934262272
 10
13.7773854415
 20
5.3806546183
 10
13.7614729552
 20
5.3694601961
 10
13.7420835025
 20
5.360273156
 10
13.7199622091
 20
5.3534465508
 10
13.695959184
 20
5.3492427231
 10
13.6709968499
 20
5.3478232237
 10
13.6460344953
 20
5.3492426031
 10
13.6220314095
 20
5.3534463154
 10
13.5999100177
 20
5.3602728142
 10
13.5874827817
 20
5.3661609421
  0
LWPOLYLINE
  5
679
100
AcDbEntity
  8
AXIS
100
AcDbPolyline
 62
7
  6
CONTINUOUS
 90
7
 70
0
 10
13.0822082226
 20
4.9881678763
 10
13.1055667253
 20
5.003731502
 10
13.1248510376
 20
5.0210559484
 10
13.1396685863
 20
5.0397885395
 10
13.1497177291
 20
5.0595479339
 10
13.1547938943
 20
5.0799318874
 10
13.155428359
 20
5.0902280649
  0
LWPOLYLINE
  5
67A
100
AcDbEntity
  8
AXIS
100
AcDbPolyline
 62
7
  6
CONTINUOUS
 90
7
 70
0
 10
13.0822082226
 20
4.9481592578
 10
13.1055667253
 20
4.9637228836
 10
13.1248510376
 20
4.9810473299
 10
13.1396685863
 20
4.9997799211
 10
13.1497177291
 20
5.0195393155
 10
13.1547938943
 20
5.0399232689
 10
13.155428359
 20
5.0502194465
  0
LWPOLYLINE
  5
67B
100
AcDbEntity
  8
0
100
AcDbPolyline
 62
7
  6
CONTINUOUS
 90
7
 70
0
 10
14.4922397741
 20
5.8456411448
 10
14.5106322959
 20
5.8578959682
 10
14.5258167937
 20
5.8715372645
 10
14.5374841549
 20
5.8862873363
 10
14.5453968658
 20
5.9018459146
 10
14.5493938462
 20
5.9178962716
 10
14.5498669949
 20
5.9255745909
  0
LWPOLYLINE
  5
67C
100
AcDbEntity
  8
AXIS_COSMETIC_THREADS
100
AcDbPolyline
 62
7
  6
CONTINUOUS
 90
12
 70
0
 10
14.4280399408
 20
5.9347285635
 10
14.4479657532
 20
5.9400930292
 10
14.4677609156
 20
5.9471423474
 10
14.4860047414
 20
5.9554707776
 10
14.5024505141
 20
5.9649656922
 10
14.5168758327
 20
5.9754986887
 10
14.5290856197
 20
5.9869273264
 10
14.5389147586
 20
5.9990970526
 10
14.5462303271
 20
6.0118432926
 10
14.5509333947
 20
6.0249936754
 10
14.5529603605
 20
6.0383703646
 10
14.5530449463
 20
6.0417282501
  0
LWPOLYLINE
  5
67D
100
AcDbEntity
  8
0
100
AcDbPolyline
 62
7
  6
CONTINUOUS
 90
5
 70
0
 10
14.4126969235
 20
5.484828975
 10
14.4178005225
 20
5.4825035201
 10
14.4293802604
 20
5.4807873124
 10
14.4422887394
 20
5.483024288
 10
14.4558786745
 20
5.4891022757
  0
LINE
  5
67E
100
AcDbEntity
  8
0
100
AcDbLine
 62
7
  6
CONTINUOUS
 10
14.4783238843
 20
5.2770444835
 11
14.3669680221
 21
5.3413343661
  0
LINE
  5
67F
100
AcDbEntity
  8
0
100
AcDbLine
 62
7
  6
CONTINUOUS
 10
14.3505598912
 20
5.3508078022
 11
13.6861049729
 21
5.7344223496
  0
LINE
  5
680
100
AcDbEntity
  8
AXIS
100
AcDbLine
 62
7
  6
CONTINUOUS
 10
13.7964903928
 20
5.4200349553
 11
13.7975781
 21
5.4136591131
  0
LWPOLYLINE
  5
681
100
AcDbEntity
  8
0
100
AcDbPolyline
 62
7
  6
CONTINUOUS
 90
3
 70
0
 10
13.8063150202
 20
4.803876025
 10
13.805765525
 20
4.8018252666
 10
13.8002198049
 20
4.7958817198
  0
LWPOLYLINE
  5
682
100
AcDbEntity
  8
AXIS
100
AcDbPolyline
 62
7
  6
CONTINUOUS
 90
7
 70
0
 10
14.5298223776
 20
5.8239433094
 10
14.5531808803
 20
5.8395069352
 10
14.5724651925
 20
5.8568313815
 10
14.5872827413
 20
5.8755639726
 10
14.597331884
 20
5.8953233671
 10
14.6024080492
 20
5.9157073205
 10
14.603042514
 20
5.926003498
  0
LWPOLYLINE
  5
683
100
AcDbEntity
  8
AXIS
100
AcDbPolyline
 62
7
  6
CONTINUOUS
 90
7
 70
0
 10
14.5298223776
 20
5.783934691
 10
14.5531808803
 20
5.7994983167
 10
14.5724651925
 20
5.816822763
 10
14.5872827413
 20
5.8355553542
 10
14.597331884
 20
5.8553147486
 10
14.6024080492
 20
5.875698702
 10
14.603042514
 20
5.8859948796
  0
LWPOLYLINE
  5
684
100
AcDbEntity
  8
0
100
AcDbPolyline
 62
7
  6
CONTINUOUS
 90
4
 70
0
 10
14.4558786745
 20
5.5274778893
 10
14.44867348
 20
5.5244133335
 10
14.4419593076
 20
5.5237483029
 10
14.4361939691
 20
5.5255279726
  0
LINE
  5
685
100
AcDbEntity
  8
0
100
AcDbLine
 62
7
  6
CONTINUOUS
 10
14.3391278975
 20
5.5181322124
 11
13.7823485864
 21
5.8395816254
  0
LINE
  5
686
100
AcDbEntity
  8
0
100
AcDbLine
 62
7
  6
CONTINUOUS
 10
14.4126943679
 20
5.4848245484
 11
13.7596693038
 21
5.8618402157
  0
LINE
  5
687
100
AcDbEntity
  8
0
100
AcDbLine
 62
7
  6
CONTINUOUS
 10
14.3948060604
 20
5.524363574
 11
13.7723182473
 21
5.8837489501
  0
LWPOLYLINE
  5
688
100
AcDbEntity
  8
0
100
AcDbPolyline
 62
7
  6
CONTINUOUS
 90
7
 70
0
 10
14.3505598912
 20
5.3508078022
 10
14.3581554744
 20
5.3452029605
 10
14.3651746961
 20
5.3375841631
 10
14.3710849296
 20
5.328529533
 10
14.3754376995
 20
5.3187261461
 10
14.3779027126
 20
5.3089178945
 10
14.3782929211
 20
5.2998490397
  0
LWPOLYLINE
  5
689
100
AcDbEntity
  8
0
100
AcDbPolyline
 62
7
  6
CONTINUOUS
 90
4
 70
0
 10
13.7823485864
 20
5.8395816254
 10
13.7787284919
 20
5.8424582833
 10
13.7768252822
 20
5.8458400032
 10
13.7765873712
 20
5.8476179277
  0
LINE
  5
68A
100
AcDbEntity
  8
0
100
AcDbLine
 62
7
  6
CONTINUOUS
 10
14.3301211392
 20
5.0630365877
 11
14.379896794
 21
4.9940540187
  0
LWPOLYLINE
  5
68B
100
AcDbEntity
  8
0
100
AcDbPolyline
 62
7
  6
CONTINUOUS
 90
8
 70
0
 10
13.5264101676
 20
4.9524765863
 10
13.5400001027
 20
4.9620908103
 10
13.5529085818
 20
4.9747591734
 10
13.5644883197
 20
4.9898464309
 10
13.57415866
 20
5.0065960447
 10
13.5814346916
 20
5.0241681192
 10
13.5859515638
 20
5.0416815173
 10
13.5874827817
 20
5.058258044
  0
LINE
  5
68C
100
AcDbEntity
  8
0
100
AcDbLine
 62
7
  6
CONTINUOUS
 10
14.8959032679
 20
5.7815246903
 11
14.4558786745
 21
5.5274778893
  0
LINE
  5
68D
100
AcDbEntity
  8
0
100
AcDbLine
 62
7
  6
CONTINUOUS
 10
13.0863855742
 20
4.7368053989
 11
13.5264101676
 21
4.9908521999
  0
LINE
  5
68E
100
AcDbEntity
  8
0
100
AcDbLine
 62
7
  6
CONTINUOUS
 10
13.5264101676
 20
4.9524765863
 11
13.0863855742
 21
4.6984297853
  0
LINE
  5
68F
100
AcDbEntity
  8
0
100
AcDbLine
 62
7
  6
CONTINUOUS
 10
14.4558786745
 20
5.4891022757
 11
14.8959032679
 21
5.7431490767
  0
LINE
  5
690
100
AcDbEntity
  8
0
100
AcDbLine
 62
7
  6
CONTINUOUS
 10
14.2017615597
 20
6.2101728607
 11
14.1858755275
 21
6.2057559683
  0
LWPOLYLINE
  5
691
100
AcDbEntity
  8
AXIS_COSMETIC_THREADS
100
AcDbPolyline
 62
7
  6
CONTINUOUS
 90
11
 70
0
 10
14.2813971609
 20
6.1494581295
 10
14.301280333
 20
6.1532620383
 10
14.3240577505
 20
6.1559774264
 10
14.3472271702
 20
6.1571477903
 10
14.3704752653
 20
6.1567573029
 10
14.3934876453
 20
6.154811245
 10
14.4159531071
 20
6.1513359335
 10
14.437567844
 20
6.1463783661
 10
14.4580395536
 20
6.1400055855
 10
14.4770913914
 20
6.1323037724
 10
14.4944657137
 20
6.1233770808
  0
LWPOLYLINE
  5
692
100
AcDbEntity
  8
02___PRT_ALL_AXES
100
AcDbPolyline
 62
7
  6
CONTINUOUS
 90
13
 70
0
 10
14.4280399408
 20
5.7103174702
 10
14.4405101228
 20
5.7038350115
 10
14.463675847
 20
5.6961132881
 10
14.489116082
 20
5.6913410273
 10
14.5157189674
 20
5.6897267998
 10
14.5423218296
 20
5.6913411552
 10
14.5677619958
 20
5.6961135383
 10
14.5909276086
 20
5.7038353731
 10
14.6108062196
 20
5.7141691783
 10
14.6265290382
 20
5.7266633172
 10
14.6374089016
 20
5.7407717358
 10
14.6429703077
 20
5.7558778286
 10
14.6436654414
 20
5.7635993018
  0
LINE
  5
693
100
AcDbEntity
  8
0
100
AcDbLine
 62
7
  6
CONTINUOUS
 10
14.4280395843
 20
5.5435504319
 11
14.4558786745
 21
5.5274778893
  0
LINE
  5
694
100
AcDbEntity
  8
02___PRT_ALL_AXES
100
AcDbLine
 62
7
  6
CONTINUOUS
 10
13.0666667977
 20
6.3873615839
 11
13.7904799022
 21
5.969477347
  0
LWPOLYLINE
  5
695
100
AcDbEntity
  8
0
100
AcDbPolyline
 62
7
  6
CONTINUOUS
 90
5
 70
0
 10
14.8959032679
 20
5.7815246903
 10
14.906896708
 20
5.789483613
 10
14.9145469671
 20
5.7986553237
 10
14.9184704294
 20
5.8085799144
 10
14.9189608344
 20
5.8136696316
  0
LINE
  5
696
100
AcDbEntity
  8
0
100
AcDbLine
 62
7
  6
CONTINUOUS
 10
14.3505598912
 20
5.3508078022
 11
13.7937852162
 21
5.0293557125
  0
LINE
  5
697
100
AcDbEntity
  8
0
100
AcDbLine
 62
7
  6
CONTINUOUS
 10
14.3782929211
 20
5.2998490397
 11
13.8239449702
 21
4.9797980115
  0
LWPOLYLINE
  5
698
100
AcDbEntity
  8
0
100
AcDbPolyline
 62
7
  6
CONTINUOUS
 90
7
 70
0
 10
13.0863855742
 20
4.6984297853
 10
13.0700780058
 20
4.6912053053
 10
13.0510874121
 20
4.6866637863
 10
13.0307079709
 20
4.6851147254
 10
13.0103285074
 20
4.6866636884
 10
12.9913378483
 20
4.691205116
 10
12.9750301756
 20
4.6984295176
  0
LWPOLYLINE
  5
699
100
AcDbEntity
  8
0
100
AcDbPolyline
 62
7
  6
CONTINUOUS
 90
4
 70
0
 10
14.4361939691
 20
5.5255279726
 10
14.4317696239
 20
5.5296314877
 10
14.4289885226
 20
5.5357787739
 10
14.4280399408
 20
5.5435510493
  0
LWPOLYLINE
  5
69A
100
AcDbEntity
  8
0
100
AcDbPolyline
 62
7
  6
CONTINUOUS
 90
5
 70
0
 10
14.3948060604
 20
5.524363574
 10
14.3963372784
 20
5.5095551349
 10
14.4008541505
 20
5.4972573405
 10
14.4081301821
 20
5.4880868533
 10
14.4126969235
 20
5.484828975
  0
LINE
  5
69B
100
AcDbEntity
  8
0
100
AcDbLine
 62
7
  6
CONTINUOUS
 10
14.3669680221
 20
5.3348367414
 11
14.3669680221
 21
5.3413343661
  0
LWPOLYLINE
  5
69C
100
AcDbEntity
  8
0
100
AcDbPolyline
 62
7
  6
CONTINUOUS
 90
5
 70
0
 10
14.3183710302
 20
5.0950346834
 10
14.3183040139
 20
5.0941888718
 10
14.320049574
 20
5.0838133293
 10
14.3241088438
 20
5.0731122899
 10
14.3301211392
 20
5.0630365877
  0
LWPOLYLINE
  5
69D
100
AcDbEntity
  8
AXIS_COSMETIC_THREADS
100
AcDbPolyline
 62
7
  6
CONTINUOUS
 90
4
 70
0
 10
14.5462303271
 20
5.9154059992
 10
14.5509333947
 20
5.928556382
 10
14.5529603605
 20
5.9419330712
 10
14.5530444632
 20
5.9452909567
  0
LINE
  5
69E
100
AcDbEntity
  8
0
100
AcDbLine
 62
7
  6
CONTINUOUS
 10
13.7733464642
 20
4.741584498
 11
13.7653625769
 21
4.7330277589
  0
LINE
  5
69F
100
AcDbEntity
  8
0
100
AcDbLine
 62
7
  6
CONTINUOUS
 10
13.8151382317
 20
4.6640451899
 11
13.823122119
 21
4.6726019291
  0
LINE
  5
6A0
100
AcDbEntity
  8
0
100
AcDbLine
 62
7
  6
CONTINUOUS
 10
13.2951777
 20
4.593958793
 11
13.8937104756
 21
4.9395197894
  0
LINE
  5
6A1
100
AcDbEntity
  8
0
100
AcDbLine
 62
7
  6
CONTINUOUS
 10
14.4783238843
 20
5.2770444835
 11
15.0768566599
 21
5.6226054799
  0
LINE
  5
6A2
100
AcDbEntity
  8
0
100
AcDbLine
 62
7
  6
CONTINUOUS
 10
14.3650425585
 20
5.1326163506
 11
13.8937104756
 21
4.86049427
  0
LINE
  5
6A3
100
AcDbEntity
  8
0
100
AcDbLine
 62
7
  6
CONTINUOUS
 10
13.2951777
 20
4.5087725172
 11
13.8937104756
 21
4.8543335135
  0
LINE
  5
6A4
100
AcDbEntity
  8
0
100
AcDbLine
 62
7
  6
CONTINUOUS
 10
14.4783238843
 20
5.1918582077
 11
15.0768566599
 21
5.5374192041
  0
LINE
  5
6A5
100
AcDbEntity
  8
0
100
AcDbLine
 62
7
  6
CONTINUOUS
 10
14.3569944799
 20
5.1173338094
 11
13.8002198049
 21
4.7958817198
  0
LINE
  5
6A6
100
AcDbEntity
  8
0
100
AcDbLine
 62
7
  6
CONTINUOUS
 10
14.3948060604
 20
6.0163930739
 11
14.3948060604
 21
5.524363574
  0
LINE
  5
6A7
100
AcDbEntity
  8
AXIS
100
AcDbLine
 62
7
  6
CONTINUOUS
 10
14.4008047017
 20
6.1121417928
 11
14.4008047017
 21
6.0822753493
  0
LINE
  5
6A8
100
AcDbEntity
  8
0
100
AcDbLine
 62
7
  6
CONTINUOUS
 10
14.4280399408
 20
5.5435510493
 11
14.4280399408
 21
6.0355805492
  0
LINE
  5
6A9
100
AcDbEntity
  8
0
100
AcDbLine
 62
7
  6
CONTINUOUS
 10
14.4783238843
 20
5.1918582077
 11
14.4783238843
 21
5.2770444835
  0
LINE
  5
6AA
100
AcDbEntity
  8
0
100
AcDbLine
 62
7
  6
CONTINUOUS
 10
14.3782929211
 20
5.2998490397
 11
14.3650425585
 21
5.1326163506
  0
LWPOLYLINE
  5
6AB
100
AcDbEntity
  8
0
100
AcDbPolyline
 62
7
  6
CONTINUOUS
 90
3
 70
0
 10
14.3650425585
 20
5.1326163506
 10
14.3625401999
 20
5.1232773562
 10
14.3569944799
 20
5.1173338094
  0
LINE
  5
6AC
100
AcDbEntity
  8
0
100
AcDbLine
 62
7
  6
CONTINUOUS
 10
13.865781311
 20
4.6485139442
 11
13.8737651983
 21
4.6570706833
  0
LWPOLYLINE
  5
6AD
100
AcDbEntity
  8
0
100
AcDbPolyline
 62
7
  6
CONTINUOUS
 90
5
 70
0
 10
15.0768566599
 20
5.6226054799
 10
15.1062335576
 20
5.6432721055
 10
15.1280625026
 20
5.6668504605
 10
15.1415046207
 20
5.6924344419
 10
15.146043339
 20
5.7190403038
  0
LINE
  5
6AE
100
AcDbEntity
  8
0
100
AcDbLine
 62
7
  6
CONTINUOUS
 10
14.3301211392
 20
5.0630365877
 11
13.7733464642
 21
4.741584498
  0
LWPOLYLINE
  5
6AF
100
AcDbEntity
  8
0
100
AcDbPolyline
 62
7
  6
CONTINUOUS
 90
9
 70
0
 10
13.2951777
 20
4.5087725172
 10
13.2593817873
 20
4.4918118278
 10
13.2185424765
 20
4.4792088643
 10
13.1742291993
 20
4.4714479517
 10
13.1281448901
 20
4.4688273374
 10
13.0820605432
 20
4.4714477302
 10
13.0377471541
 20
4.4792084298
 10
12.9969076615
 20
4.4918111968
 10
12.9611115042
 20
4.5087717142
  0
LWPOLYLINE
  5
6B0
100
AcDbEntity
  8
02___PRT_ALL_AXES
100
AcDbPolyline
 62
7
  6
CONTINUOUS
 90
11
 70
0
 10
14.1918089399
 20
6.2011833919
 10
14.1579579993
 20
6.2150256196
 10
14.1200019229
 20
6.2199739803
 10
14.0788747767
 20
6.2159066992
 10
14.0355886635
 20
6.2029238685
 10
13.9912088165
 20
6.1813449843
 10
13.9467935146
 20
6.1516753431
 10
13.9034835416
 20
6.1146711942
 10
13.862336716
 20
6.0712410893
 10
13.8243586656
 20
6.0224464452
 10
13.7904799022
 20
5.969477347
  0
LWPOLYLINE
  5
6B1
100
AcDbEntity
  8
0
100
AcDbPolyline
 62
7
  6
CONTINUOUS
 90
6
 70
0
 10
14.283445562
 20
6.1994091949
 10
14.2696601064
 20
6.2057561697
 10
14.2537740104
 20
6.2101729858
 10
14.2365838692
 20
6.2124381654
 10
14.2189516683
 20
6.212438123
 10
14.2017615597
 20
6.2101728607
  0
LWPOLYLINE
  5
6B2
100
AcDbEntity
  8
AXIS
100
AcDbPolyline
 62
7
  6
CONTINUOUS
 90
4
 70
0
 10
14.4173941793
 20
6.104570206
 10
14.4122096371
 20
6.1073396333
 10
14.4066686849
 20
6.1098685737
 10
14.4008047017
 20
6.1121417928
  0
LINE
  5
6B3
100
AcDbEntity
  8
02___PRT_ALL_AXES
100
AcDbLine
 62
7
  6
CONTINUOUS
 10
14.1198802044
 20
6.1751180001
 11
14.3948060604
 21
6.0163930739
  0
LINE
  5
6B4
100
AcDbEntity
  8
02___PRT_ALL_AXES
100
AcDbLine
 62
7
  6
CONTINUOUS
 10
14.1683090378
 20
6.1604801414
 11
14.3866522841
 21
6.0344160051
  0
LINE
  5
6B5
100
AcDbEntity
  8
02___PRT_ALL_AXES
100
AcDbLine
 62
7
  6
CONTINUOUS
 10
13.4679958355
 20
6.6190676288
 11
14.1918089399
 21
6.2011833919
  0
LINE
  5
6B6
100
AcDbEntity
  8
02___PRT_ALL_AXES
100
AcDbLine
 62
7
  6
CONTINUOUS
 10
14.4101521862
 20
6.0751192556
 11
14.1918089399
 21
6.2011833919
  0
LINE
  5
6B7
100
AcDbEntity
  8
0
100
AcDbLine
 62
7
  6
CONTINUOUS
 10
14.283445562
 20
6.1994091949
 11
14.3569283555
 21
6.156984844
  0
LINE
  5
6B8
100
AcDbEntity
  8
0
100
AcDbLine
 62
7
  6
CONTINUOUS
 10
14.5528843188
 20
6.0438521753
 11
14.8959028043
 21
5.8458148406
  0
LINE
  5
6B9
100
AcDbEntity
  8
AXIS
100
AcDbLine
 62
7
  6
CONTINUOUS
 10
14.4272119233
 20
6.0423649715
 11
14.4305092756
 21
6.0398446673
  0
LINE
  5
6BA
100
AcDbEntity
  8
02___PRT_ALL_AXES
100
AcDbLine
 62
7
  6
CONTINUOUS
 10
14.6265285055
 20
5.7621602055
 11
14.5687731307
 21
5.8135059257
  0
LINE
  5
6BB
100
AcDbEntity
  8
02___PRT_ALL_AXES
100
AcDbLine
 62
7
  6
CONTINUOUS
 10
14.6265285055
 20
5.8005358191
 11
14.5872227197
 21
5.8354794739
  0
LWPOLYLINE
  5
6BC
100
AcDbEntity
  8
02___PRT_ALL_AXES
100
AcDbPolyline
 62
7
  6
CONTINUOUS
 90
4
 70
0
 10
14.3866522841
 20
6.0344160051
 10
14.3910763773
 20
6.0303126355
 10
14.3938574786
 20
6.0241653493
 10
14.3948060604
 20
6.0163930739
  0
LWPOLYLINE
  5
6BD
100
AcDbEntity
  8
02___PRT_ALL_AXES
100
AcDbPolyline
 62
7
  6
CONTINUOUS
 90
4
 70
0
 10
14.4280399408
 20
6.0355805492
 10
14.4259589419
 20
6.0526313668
 10
14.419857762
 20
6.0661172832
 10
14.4101521862
 20
6.0751192556
  0
LWPOLYLINE
  5
6BE
100
AcDbEntity
  8
AXIS_COSMETIC_THREADS
100
AcDbPolyline
 62
7
  6
CONTINUOUS
 90
8
 70
0
 10
14.5530449463
 20
6.0417282501
 10
14.5522838133
 20
6.0517924634
 10
14.5489129023
 20
6.065078461
 10
14.5428932131
 20
6.0780486871
 10
14.5343061518
 20
6.0905277416
 10
14.5232678436
 20
6.1023468666
 10
14.5099275628
 20
6.1133462289
 10
14.4944657137
 20
6.1233770808
  0
LWPOLYLINE
  5
6BF
100
AcDbEntity
  8
AXIS
100
AcDbPolyline
 62
7
  6
CONTINUOUS
 90
7
 70
0
 10
14.603042514
 20
5.926003498
 10
14.6024079007
 20
5.9363008744
 10
14.5973314415
 20
5.9566848034
 10
14.5872820138
 20
5.9764441495
 10
14.5724641948
 20
5.9951766694
 10
14.5531796328
 20
6.0125010231
 10
14.5530449463
 20
6.0125907623
  0
LINE
  5
6C0
100
AcDbEntity
  8
AXIS_COSMETIC_THREADS
100
AcDbLine
 62
7
  6
CONTINUOUS
 10
14.5530449463
 20
5.9452909567
 11
14.5530449463
 21
6.0417282501
  0
LINE
  5
6C1
100
AcDbEntity
  8
AXIS
100
AcDbLine
 62
7
  6
CONTINUOUS
 10
14.6030449463
 20
5.8859948796
 11
14.6030449463
 21
5.926003498
  0
LINE
  5
6C2
100
AcDbEntity
  8
02___PRT_ALL_AXES
100
AcDbLine
 62
7
  6
CONTINUOUS
 10
14.6265285055
 20
5.8005358191
 11
14.6265285055
 21
5.7621602055
  0
LWPOLYLINE
  5
6C3
100
AcDbEntity
  8
0
100
AcDbPolyline
 62
7
  6
CONTINUOUS
 90
6
 70
0
 10
14.3808436859
 20
4.9511229126
 10
14.3857265697
 20
4.9586479793
 10
14.387868125
 20
4.9669991651
 10
14.3875692836
 20
4.9760987729
 10
14.3848504111
 20
4.9853266797
 10
14.379896794
 20
4.9940540187
  0
LINE
  5
6C4
100
AcDbEntity
  8
0
100
AcDbLine
 62
7
  6
CONTINUOUS
 10
14.3668785185
 20
4.9378208249
 11
14.3748624058
 21
4.946377564
  0
LINE
  5
6C5
100
AcDbEntity
  8
0
100
AcDbLine
 62
7
  6
CONTINUOUS
 10
14.3728599076
 20
4.9425660717
 11
14.3808437949
 21
4.9511228108
  0
LINE
  5
6C6
100
AcDbEntity
  8
0
100
AcDbLine
 62
7
  6
CONTINUOUS
 10
14.3748624058
 20
4.946377564
 11
14.3808436859
 21
4.9511229126
  0
LINE
  5
6C7
100
AcDbEntity
  8
0
100
AcDbLine
 62
7
  6
CONTINUOUS
 10
14.3728597986
 20
4.9425661735
 11
14.3668785185
 21
4.9378208249
  0
LINE
  5
6C8
100
AcDbEntity
  8
0
100
AcDbLine
 62
7
  6
CONTINUOUS
 10
14.3748624058
 20
4.946377564
 11
13.8737651983
 21
4.6570706833
  0
LINE
  5
6C9
100
AcDbEntity
  8
0
100
AcDbLine
 62
7
  6
CONTINUOUS
 10
14.3668785185
 20
4.9378208249
 11
13.865781311
 21
4.6485139442
  0
LWPOLYLINE
  5
6CA
100
AcDbEntity
  8
0
100
AcDbPolyline
 62
7
  6
CONTINUOUS
 90
7
 70
0
 10
13.865781311
 20
4.6485139442
 10
13.8577990773
 20
4.6454309232
 10
13.8488067411
 20
4.644711755
 10
13.8394171154
 20
4.64640545
 10
13.8302700876
 20
4.6503965855
 10
13.8219890125
 20
4.6564131723
 10
13.8151382317
 20
4.6640451899
  0
LWPOLYLINE
  5
6CB
100
AcDbEntity
  8
0
100
AcDbPolyline
 62
7
  6
CONTINUOUS
 90
8
 70
0
 10
14.2973642335
 20
6.2655051089
 10
14.2615680762
 20
6.2824656262
 10
14.2207285835
 20
6.2950683933
 10
14.1764151944
 20
6.3028290929
 10
14.1303308475
 20
6.3054494857
 10
14.0842465384
 20
6.3028288713
 10
14.0399332612
 20
6.2950679587
 10
14.0329264996
 20
6.2929056803
  0
LINE
  5
6CC
100
AcDbEntity
  8
0
100
AcDbLine
 62
7
  6
CONTINUOUS
 10
15.0768552691
 20
5.8154759307
 11
14.2973642335
 21
6.2655051089
  0
LWPOLYLINE
  5
6CD
100
AcDbEntity
  8
AXIS
100
AcDbPolyline
 62
7
  6
CONTINUOUS
 90
4
 70
0
 10
14.4305088779
 20
6.0949924666
 10
14.4265714418
 20
6.0983779716
 10
14.4221910798
 20
6.101576975
 10
14.4173941793
 20
6.104570206
  0
LWPOLYLINE
  5
6CE
100
AcDbEntity
  8
02___PRT_ALL_AXES
100
AcDbPolyline
 62
7
  6
CONTINUOUS
 90
4
 70
0
 10
14.6436654414
 20
5.7635993018
 10
14.6429701964
 20
5.7713213868
 10
14.6374085724
 20
5.7864274528
 10
14.6265285055
 20
5.8005358191
  0
LWPOLYLINE
  5
6CF
100
AcDbEntity
  8
02___PRT_ALL_AXES
100
AcDbPolyline
 62
7
  6
CONTINUOUS
 90
3
 70
0
 10
14.6387488731
 20
5.7444114149
 10
14.6374085724
 20
5.7480518392
 10
14.6265285055
 20
5.7621602055
  0
LWPOLYLINE
  5
6D0
100
AcDbEntity
  8
0
100
AcDbPolyline
 62
7
  6
CONTINUOUS
 90
5
 70
0
 10
14.9189608344
 20
5.8136696316
 10
14.918470356
 20
5.8187597249
 10
14.9145467506
 20
5.8286842968
 10
14.9068963592
 20
5.8378559707
 10
14.8959028043
 20
5.8458148406
  0
LINE
  5
6D1
100
AcDbEntity
  8
0
100
AcDbLine
 62
7
  6
CONTINUOUS
 10
14.8959032679
 20
5.7431490767
 11
14.8959032679
 21
5.7815246903
  0
LINE
  5
6D2
100
AcDbEntity
  8
0
100
AcDbLine
 62
7
  6
CONTINUOUS
 10
14.9189654943
 20
5.775294018
 11
14.9189654943
 21
5.8136696316
  0
LWPOLYLINE
  5
6D3
100
AcDbEntity
  8
0
100
AcDbPolyline
 62
7
  6
CONTINUOUS
 90
5
 70
0
 10
14.9189608344
 20
5.775294018
 10
14.9184704294
 20
5.7702043008
 10
14.9145469671
 20
5.7602797101
 10
14.906896708
 20
5.7511079994
 10
14.8959032679
 20
5.7431490767
  0
LINE
  5
6D4
100
AcDbEntity
  8
0
100
AcDbLine
 62
7
  6
CONTINUOUS
 10
15.0768566599
 20
5.6226054799
 11
15.0768566599
 21
5.5374192041
  0
LWPOLYLINE
  5
6D5
100
AcDbEntity
  8
0
100
AcDbPolyline
 62
7
  6
CONTINUOUS
 90
5
 70
0
 10
15.146043339
 20
5.633854028
 10
15.1415046207
 20
5.607248166
 10
15.1280625026
 20
5.5816641847
 10
15.1062335576
 20
5.5580858297
 10
15.0768566599
 20
5.5374192041
  0
LINE
  5
6D6
100
AcDbEntity
  8
0
100
AcDbLine
 62
7
  6
CONTINUOUS
 10
15.146043339
 20
5.7190403038
 11
15.146043339
 21
5.633854028
  0
LWPOLYLINE
  5
6D7
100
AcDbEntity
  8
0
100
AcDbPolyline
 62
7
  6
CONTINUOUS
 90
5
 70
0
 10
15.146043339
 20
5.7190403038
 10
15.141504237
 20
5.7456472795
 10
15.1280617499
 20
5.7712311963
 10
15.1062324648
 20
5.7948094463
 10
15.0768552691
 20
5.8154759307
  0
CIRCLE
  5
6D8
100
AcDbEntity
  8
0
100
AcDbCircle
 62
7
  6
CONTINUOUS
 10
10.5342808475
 20
1.243294839
 40
0.252091
  0
CIRCLE
  5
6D9
100
AcDbEntity
  8
0
100
AcDbCircle
 62
7
  6
CONTINUOUS
 10
10.5342808475
 20
1.243294839
 40
0.182698
  0
CIRCLE
  5
6DA
100
AcDbEntity
  8
0
100
AcDbCircle
 62
7
  6
CONTINUOUS
 10
10.1225539079
 20
1.9935547577
 40
0.0638444824
  0
ARC
  5
6DB
100
AcDbEntity
  8
AXIS
100
AcDbCircle
 62
7
  6
CONTINUOUS
 10
2.7135883775
 20
3.743514075
 40
0.5276850394
100
AcDbArc
 50
99.9308106815
 51
112.2726188624
  0
ARC
  5
6DC
100
AcDbEntity
  8
AXIS
100
AcDbCircle
 62
7
  6
CONTINUOUS
 10
2.7135883775
 20
3.743514075
 40
0.5276850394
100
AcDbArc
 50
67.7273811376
 51
80.0691893185
  0
ARC
  5
6DD
100
AcDbEntity
  8
AXIS
100
AcDbCircle
 62
7
  6
CONTINUOUS
 10
4.760832472
 20
3.743514075
 40
0.5276850394
100
AcDbArc
 50
99.9308106815
 51
112.2726188624
  0
ARC
  5
6DE
100
AcDbEntity
  8
AXIS
100
AcDbCircle
 62
7
  6
CONTINUOUS
 10
4.760832472
 20
3.743514075
 40
0.5276850394
100
AcDbArc
 50
67.7273811376
 51
80.0691893185
  0
ARC
  5
6DF
100
AcDbEntity
  8
AXIS
100
AcDbCircle
 62
7
  6
CONTINUOUS
 10
2.7135883775
 20
3.743514075
 40
0.5272668541
100
AcDbArc
 50
94.5122806158
 51
99.6678133724
  0
ARC
  5
6E0
100
AcDbEntity
  8
AXIS
100
AcDbCircle
 62
7
  6
CONTINUOUS
 10
2.7135883775
 20
3.743514075
 40
0.5272668541
100
AcDbArc
 50
80.3321866276
 51
85.4877193842
  0
ARC
  5
6E1
100
AcDbEntity
  8
AXIS
100
AcDbCircle
 62
7
  6
CONTINUOUS
 10
4.760832472
 20
3.743514075
 40
0.5272668541
100
AcDbArc
 50
94.5122806158
 51
99.6678133724
  0
ARC
  5
6E2
100
AcDbEntity
  8
AXIS
100
AcDbCircle
 62
7
  6
CONTINUOUS
 10
4.760832472
 20
3.743514075
 40
0.5272668541
100
AcDbArc
 50
80.3321866276
 51
85.4877193842
  0
ARC
  5
6E3
100
AcDbEntity
  8
02___PRT_ALL_AXES
100
AcDbCircle
 62
7
  6
CONTINUOUS
 10
3.7372104247
 20
4.7691475986
 40
0.4013307087
100
AcDbArc
 50
45.0
 51
135.0
  0
ARC
  5
6E4
100
AcDbEntity
  8
02___PRT_ALL_AXES
100
AcDbCircle
 62
7
  6
CONTINUOUS
 10
3.7372104247
 20
4.7691475986
 40
0.3543307087
100
AcDbArc
 50
45.0
 51
135.0
  0
ARC
  5
6E5
100
AcDbEntity
  8
02___PRT_ALL_AXES
100
AcDbCircle
 62
7
  6
CONTINUOUS
 10
3.2057143617
 20
4.6830731301
 40
0.0863700787
100
AcDbArc
 50
135.0
 51
180.0
  0
ARC
  5
6E6
100
AcDbEntity
  8
02___PRT_ALL_AXES
100
AcDbCircle
 62
7
  6
CONTINUOUS
 10
4.2687064877
 20
4.6830731301
 40
0.0863700787
100
AcDbArc
 50
0.0
 51
45.0
  0
ARC
  5
6E7
100
AcDbEntity
  8
0
100
AcDbCircle
 62
7
  6
CONTINUOUS
 10
4.3944466452
 20
4.0804668309
 40
0.0863700787
100
AcDbArc
 50
180.0
 51
270.0
  0
ARC
  5
6E8
100
AcDbEntity
  8
0
100
AcDbCircle
 62
7
  6
CONTINUOUS
 10
3.0799742042
 20
4.0804668309
 40
0.0863700787
100
AcDbArc
 50
270.0
 51
360.0
  0
ARC
  5
6E9
100
AcDbEntity
  8
0
100
AcDbCircle
 62
7
  6
CONTINUOUS
 10
4.3572891649
 20
3.6791361222
 40
0.0590551181
100
AcDbArc
 50
115.0
 51
235.0
  0
ARC
  5
6EA
100
AcDbEntity
  8
0
100
AcDbCircle
 62
7
  6
CONTINUOUS
 10
3.1171316846
 20
3.6791361222
 40
0.0590551181
100
AcDbArc
 50
305.0
 51
65.0
  0
ARC
  5
6EB
100
AcDbEntity
  8
0
100
AcDbCircle
 62
7
  6
CONTINUOUS
 10
3.0799742042
 20
4.0804668309
 40
0.0393700787
100
AcDbArc
 50
270.0
 51
360.0
  0
ARC
  5
6EC
100
AcDbEntity
  8
02___PRT_ALL_AXES
100
AcDbCircle
 62
7
  6
CONTINUOUS
 10
4.2687064877
 20
4.6830731301
 40
0.0393700787
100
AcDbArc
 50
0.0
 51
45.0
  0
ARC
  5
6ED
100
AcDbEntity
  8
02___PRT_ALL_AXES
100
AcDbCircle
 62
7
  6
CONTINUOUS
 10
3.2057143617
 20
4.6830731301
 40
0.0393700787
100
AcDbArc
 50
135.0
 51
180.0
  0
ARC
  5
6EE
100
AcDbEntity
  8
0
100
AcDbCircle
 62
7
  6
CONTINUOUS
 10
4.3944466452
 20
4.0804668309
 40
0.0393700787
100
AcDbArc
 50
180.0
 51
270.0
  0
ARC
  5
6EF
100
AcDbEntity
  8
0
100
AcDbCircle
 62
7
  6
CONTINUOUS
 10
4.344873291
 20
3.7602266563
 40
0.0393700787
100
AcDbArc
 50
295.0
 51
355.0
  0
ARC
  5
6F0
100
AcDbEntity
  8
0
100
AcDbCircle
 62
7
  6
CONTINUOUS
 10
3.1171316846
 20
3.6791361222
 40
0.0393700787
100
AcDbArc
 50
305.0
 51
65.0
  0
ARC
  5
6F1
100
AcDbEntity
  8
0
100
AcDbCircle
 62
7
  6
CONTINUOUS
 10
4.3572891649
 20
3.6791361222
 40
0.0393700787
100
AcDbArc
 50
115.0
 51
235.0
  0
ARC
  5
6F2
100
AcDbEntity
  8
0
100
AcDbCircle
 62
7
  6
CONTINUOUS
 10
3.1295475584
 20
3.7602266563
 40
0.0393700787
100
AcDbArc
 50
185.0
 51
245.0
  0
ARC
  5
6F3
100
AcDbEntity
  8
0
100
AcDbCircle
 62
7
  6
CONTINUOUS
 10
4.344873291
 20
3.7602266563
 40
0.0196850394
100
AcDbArc
 50
295.0
 51
355.0
  0
ARC
  5
6F4
100
AcDbEntity
  8
0
100
AcDbCircle
 62
7
  6
CONTINUOUS
 10
3.1295475584
 20
3.7602266563
 40
0.0196850394
100
AcDbArc
 50
185.0
 51
245.0
  0
ARC
  5
6F5
100
AcDbEntity
  8
AXIS_COSMETIC_THREADS
100
AcDbCircle
 62
7
  6
CONTINUOUS
 10
8.670246139
 20
3.743514075
 40
0.5276850394
100
AcDbArc
 50
67.7273811376
 51
80.0691893185
  0
ARC
  5
6F6
100
AcDbEntity
  8
AXIS_COSMETIC_THREADS
100
AcDbCircle
 62
7
  6
CONTINUOUS
 10
8.670246139
 20
3.743514075
 40
0.5276850394
100
AcDbArc
 50
99.9308106815
 51
112.2726188624
  0
ARC
  5
6F7
100
AcDbEntity
  8
AXIS
100
AcDbCircle
 62
7
  6
CONTINUOUS
 10
8.670246139
 20
3.743514075
 40
0.5272668541
100
AcDbArc
 50
94.5122806158
 51
99.6678133724
  0
ARC
  5
6F8
100
AcDbEntity
  8
AXIS
100
AcDbCircle
 62
7
  6
CONTINUOUS
 10
8.670246139
 20
3.743514075
 40
0.5272668541
100
AcDbArc
 50
80.3321866276
 51
85.4877193842
  0
ARC
  5
6F9
100
AcDbEntity
  8
0
100
AcDbCircle
 62
7
  6
CONTINUOUS
 10
9.2903248792
 20
3.6791361222
 40
0.0590551181
100
AcDbArc
 50
115.0
 51
235.0
  0
ARC
  5
6FA
100
AcDbEntity
  8
0
100
AcDbCircle
 62
7
  6
CONTINUOUS
 10
8.0501673988
 20
3.6791361222
 40
0.0590551181
100
AcDbArc
 50
305.0
 51
65.0
  0
ARC
  5
6FB
100
AcDbEntity
  8
0
100
AcDbCircle
 62
7
  6
CONTINUOUS
 10
9.2966477696
 20
3.9744117128
 40
0.0393700787
100
AcDbArc
 50
30.2218323297
 51
90.0
  0
ARC
  5
6FC
100
AcDbEntity
  8
0
100
AcDbCircle
 62
7
  6
CONTINUOUS
 10
9.2779090053
 20
3.7602266563
 40
0.0393700787
100
AcDbArc
 50
295.0
 51
355.0
  0
ARC
  5
6FD
100
AcDbEntity
  8
0
100
AcDbCircle
 62
7
  6
CONTINUOUS
 10
8.0501673988
 20
3.6791361222
 40
0.0393700787
100
AcDbArc
 50
305.0
 51
65.0
  0
ARC
  5
6FE
100
AcDbEntity
  8
0
100
AcDbCircle
 62
7
  6
CONTINUOUS
 10
9.2903248792
 20
3.6791361222
 40
0.0393700787
100
AcDbArc
 50
115.0
 51
235.0
  0
ARC
  5
6FF
100
AcDbEntity
  8
0
100
AcDbCircle
 62
7
  6
CONTINUOUS
 10
8.0625832727
 20
3.7602266563
 40
0.0393700787
100
AcDbArc
 50
185.0
 51
245.0
  0
ARC
  5
700
100
AcDbEntity
  8
0
100
AcDbCircle
 62
7
  6
CONTINUOUS
 10
8.0438445084
 20
3.9744117128
 40
0.0393700787
100
AcDbArc
 50
90.0
 51
149.7781676703
  0
ARC
  5
701
100
AcDbEntity
  8
0
100
AcDbCircle
 62
7
  6
CONTINUOUS
 10
9.2779090053
 20
3.7602266563
 40
0.0196850394
100
AcDbArc
 50
295.0
 51
355.0
  0
ARC
  5
702
100
AcDbEntity
  8
0
100
AcDbCircle
 62
7
  6
CONTINUOUS
 10
8.0625832727
 20
3.7602266563
 40
0.0196850394
100
AcDbArc
 50
185.0
 51
245.0
  0
ARC
  5
703
100
AcDbEntity
  8
0
100
AcDbCircle
 62
7
  6
CONTINUOUS
 10
2.477367905
 20
7.634810693
 40
0.2362204724
100
AcDbArc
 50
180.0
 51
270.0
  0
ARC
  5
704
100
AcDbEntity
  8
02___PRT_ALL_AXES
100
AcDbCircle
 62
7
  6
CONTINUOUS
 10
2.7484674529
 20
7.9210589146
 40
0.1279527559
100
AcDbArc
 50
195.0
 51
15.0
  0
ARC
  5
705
100
AcDbEntity
  8
0
100
AcDbCircle
 62
7
  6
CONTINUOUS
 10
2.4576828657
 20
7.7529209292
 40
0.0787401575
100
AcDbArc
 50
180.0
 51
270.0
  0
ARC
  5
706
100
AcDbEntity
  8
0
100
AcDbCircle
 62
7
  6
CONTINUOUS
 10
3.3435096373
 20
7.5560705355
 40
0.0196850394
100
AcDbArc
 50
90.0
 51
180.0
  0
CIRCLE
  5
707
100
AcDbEntity
  8
AXIS
100
AcDbCircle
 62
7
  6
CONTINUOUS
 10
2.7135883775
 20
8.1859917954
 40
0.25
  0
ARC
  5
708
100
AcDbEntity
  8
0
100
AcDbCircle
 62
7
  6
CONTINUOUS
 10
2.477367905
 20
8.7371728977
 40
0.2362204724
100
AcDbArc
 50
90.0
 51
180.0
  0
CIRCLE
  5
709
100
AcDbEntity
  8
AXIS_COSMETIC_THREADS
100
AcDbCircle
 62
7
  6
CONTINUOUS
 10
2.7135883775
 20
8.1859917954
 40
0.2
  0
ARC
  5
70A
100
AcDbEntity
  8
02___PRT_ALL_AXES
100
AcDbCircle
 62
7
  6
CONTINUOUS
 10
2.7484674529
 20
8.4509246762
 40
0.1279527559
100
AcDbArc
 50
345.0
 51
165.0
  0
ARC
  5
70B
100
AcDbEntity
  8
AXIS
100
AcDbCircle
 62
7
  6
CONTINUOUS
 10
2.7135883775
 20
8.1859917954
 40
0.091003937
100
AcDbArc
 50
76.655676589
 51
103.344323411
  0
ARC
  5
70C
100
AcDbEntity
  8
AXIS
100
AcDbCircle
 62
7
  6
CONTINUOUS
 10
2.7135883775
 20
8.1859917954
 40
0.091003937
100
AcDbArc
 50
256.655676589
 51
283.344323411
  0
ARC
  5
70D
100
AcDbEntity
  8
AXIS
100
AcDbCircle
 62
7
  6
CONTINUOUS
 10
2.7135883775
 20
8.1859917954
 40
0.091003937
100
AcDbArc
 50
346.655676589
 51
13.344323411
  0
ARC
  5
70E
100
AcDbEntity
  8
AXIS
100
AcDbCircle
 62
7
  6
CONTINUOUS
 10
2.7135883775
 20
8.1859917954
 40
0.091003937
100
AcDbArc
 50
166.655676589
 51
193.344323411
  0
ARC
  5
70F
100
AcDbEntity
  8
0
100
AcDbCircle
 62
7
  6
CONTINUOUS
 10
2.4576828657
 20
8.6190626615
 40
0.0787401575
100
AcDbArc
 50
90.0
 51
180.0
  0
ARC
  5
710
100
AcDbEntity
  8
AXIS
100
AcDbCircle
 62
7
  6
CONTINUOUS
 10
2.7135883775
 20
8.1859917954
 40
0.046496063
100
AcDbArc
 50
26.8551068271
 51
63.1448931729
  0
ARC
  5
711
100
AcDbEntity
  8
AXIS
100
AcDbCircle
 62
7
  6
CONTINUOUS
 10
2.7135883775
 20
8.1859917954
 40
0.046496063
100
AcDbArc
 50
206.8551068271
 51
243.1448931729
  0
ARC
  5
712
100
AcDbEntity
  8
AXIS
100
AcDbCircle
 62
7
  6
CONTINUOUS
 10
2.7135883775
 20
8.1859917954
 40
0.046496063
100
AcDbArc
 50
296.8551068271
 51
333.1448931729
  0
ARC
  5
713
100
AcDbEntity
  8
AXIS
100
AcDbCircle
 62
7
  6
CONTINUOUS
 10
2.7135883775
 20
8.1859917954
 40
0.046496063
100
AcDbArc
 50
116.8551068271
 51
153.1448931729
  0
ARC
  5
714
100
AcDbEntity
  8
0
100
AcDbCircle
 62
7
  6
CONTINUOUS
 10
3.3435096373
 20
8.8159130552
 40
0.0196850394
100
AcDbArc
 50
180.0
 51
270.0
  0
ARC
  5
715
100
AcDbEntity
  8
0
100
AcDbCircle
 62
7
  6
CONTINUOUS
 10
4.9970529444
 20
7.634810693
 40
0.2362204724
100
AcDbArc
 50
270.0
 51
360.0
  0
ARC
  5
716
100
AcDbEntity
  8
02___PRT_ALL_AXES
100
AcDbCircle
 62
7
  6
CONTINUOUS
 10
4.7259533965
 20
7.9210589146
 40
0.1279527559
100
AcDbArc
 50
165.0
 51
345.0
  0
ARC
  5
717
100
AcDbEntity
  8
0
100
AcDbCircle
 62
7
  6
CONTINUOUS
 10
5.0167379838
 20
7.7529209292
 40
0.0787401575
100
AcDbArc
 50
270.0
 51
360.0
  0
ARC
  5
718
100
AcDbEntity
  8
0
100
AcDbCircle
 62
7
  6
CONTINUOUS
 10
4.1309112121
 20
7.5560705355
 40
0.0196850394
100
AcDbArc
 50
0.0
 51
90.0
  0
ARC
  5
719
100
AcDbEntity
  8
02___PRT_ALL_AXES
100
AcDbCircle
 62
7
  6
CONTINUOUS
 10
3.7372104247
 20
8.1859917954
 40
1.1515748031
100
AcDbArc
 50
191.4280013684
 51
195.0
  0
ARC
  5
71A
100
AcDbEntity
  8
02___PRT_ALL_AXES
100
AcDbCircle
 62
7
  6
CONTINUOUS
 10
3.7372104247
 20
8.1859917954
 40
1.1515748031
100
AcDbArc
 50
165.0
 51
168.5719986316
  0
ARC
  5
71B
100
AcDbEntity
  8
02___PRT_ALL_AXES
100
AcDbCircle
 62
7
  6
CONTINUOUS
 10
3.7372104247
 20
8.1859917954
 40
1.1515748031
100
AcDbArc
 50
345.0
 51
348.5959984975
  0
ARC
  5
71C
100
AcDbEntity
  8
02___PRT_ALL_AXES
100
AcDbCircle
 62
7
  6
CONTINUOUS
 10
3.7372104247
 20
8.1859917954
 40
1.1515748031
100
AcDbArc
 50
11.4040015025
 51
15.0
  0
ARC
  5
71D
100
AcDbEntity
  8
02___PRT_ALL_AXES
100
AcDbCircle
 62
7
  6
CONTINUOUS
 10
3.7372104247
 20
8.1859917954
 40
0.8956692913
100
AcDbArc
 50
192.7794493017
 51
195.0
  0
ARC
  5
71E
100
AcDbEntity
  8
02___PRT_ALL_AXES
100
AcDbCircle
 62
7
  6
CONTINUOUS
 10
3.7372104247
 20
8.1859917954
 40
0.8956692913
100
AcDbArc
 50
165.0
 51
167.2205506983
  0
ARC
  5
71F
100
AcDbEntity
  8
02___PRT_ALL_AXES
100
AcDbCircle
 62
7
  6
CONTINUOUS
 10
3.7372104247
 20
8.1859917954
 40
0.8956692913
100
AcDbArc
 50
345.0
 51
347.2205506983
  0
ARC
  5
720
100
AcDbEntity
  8
02___PRT_ALL_AXES
100
AcDbCircle
 62
7
  6
CONTINUOUS
 10
3.7372104247
 20
8.1859917954
 40
0.8956692913
100
AcDbArc
 50
12.7794493017
 51
15.0
  0
CIRCLE
  5
721
100
AcDbEntity
  8
AXIS
100
AcDbCircle
 62
7
  6
CONTINUOUS
 10
4.760832472
 20
8.1859917954
 40
0.25
  0
ARC
  5
722
100
AcDbEntity
  8
0
100
AcDbCircle
 62
7
  6
CONTINUOUS
 10
4.9970529444
 20
8.7371728977
 40
0.2362204724
100
AcDbArc
 50
0.0
 51
90.0
  0
CIRCLE
  5
723
100
AcDbEntity
  8
AXIS_COSMETIC_THREADS
100
AcDbCircle
 62
7
  6
CONTINUOUS
 10
4.760832472
 20
8.1859917954
 40
0.2
  0
ARC
  5
724
100
AcDbEntity
  8
02___PRT_ALL_AXES
100
AcDbCircle
 62
7
  6
CONTINUOUS
 10
4.7259533965
 20
8.4509246762
 40
0.1279527559
100
AcDbArc
 50
15.0
 51
195.0
  0
ARC
  5
725
100
AcDbEntity
  8
AXIS
100
AcDbCircle
 62
7
  6
CONTINUOUS
 10
4.760832472
 20
8.1859917954
 40
0.091003937
100
AcDbArc
 50
76.655676589
 51
103.344323411
  0
ARC
  5
726
100
AcDbEntity
  8
AXIS
100
AcDbCircle
 62
7
  6
CONTINUOUS
 10
4.760832472
 20
8.1859917954
 40
0.091003937
100
AcDbArc
 50
256.655676589
 51
283.344323411
  0
ARC
  5
727
100
AcDbEntity
  8
AXIS
100
AcDbCircle
 62
7
  6
CONTINUOUS
 10
4.760832472
 20
8.1859917954
 40
0.091003937
100
AcDbArc
 50
346.655676589
 51
13.344323411
  0
ARC
  5
728
100
AcDbEntity
  8
AXIS
100
AcDbCircle
 62
7
  6
CONTINUOUS
 10
4.760832472
 20
8.1859917954
 40
0.091003937
100
AcDbArc
 50
166.655676589
 51
193.344323411
  0
ARC
  5
729
100
AcDbEntity
  8
0
100
AcDbCircle
 62
7
  6
CONTINUOUS
 10
5.0167379838
 20
8.6190626615
 40
0.0787401575
100
AcDbArc
 50
0.0
 51
90.0
  0
ARC
  5
72A
100
AcDbEntity
  8
AXIS
100
AcDbCircle
 62
7
  6
CONTINUOUS
 10
4.760832472
 20
8.1859917954
 40
0.046496063
100
AcDbArc
 50
26.8551068271
 51
63.1448931729
  0
ARC
  5
72B
100
AcDbEntity
  8
AXIS
100
AcDbCircle
 62
7
  6
CONTINUOUS
 10
4.760832472
 20
8.1859917954
 40
0.046496063
100
AcDbArc
 50
206.8551068271
 51
243.1448931729
  0
ARC
  5
72C
100
AcDbEntity
  8
AXIS
100
AcDbCircle
 62
7
  6
CONTINUOUS
 10
4.760832472
 20
8.1859917954
 40
0.046496063
100
AcDbArc
 50
296.8551068271
 51
333.1448931729
  0
ARC
  5
72D
100
AcDbEntity
  8
AXIS
100
AcDbCircle
 62
7
  6
CONTINUOUS
 10
4.760832472
 20
8.1859917954
 40
0.046496063
100
AcDbArc
 50
116.8551068271
 51
153.1448931729
  0
ARC
  5
72E
100
AcDbEntity
  8
0
100
AcDbCircle
 62
7
  6
CONTINUOUS
 10
4.1309112121
 20
8.8159130552
 40
0.0196850394
100
AcDbArc
 50
270.0
 51
360.0
  0
ENDSEC
  0
SECTION
  2
OBJECTS
  0
DICTIONARY
  5
C
100
AcDbDictionary
280
0
281
1
  3
ACAD_GROUP
350
D
  3
ACAD_MLINESTYLE
350
17
  3
ACAD_LAYOUT
350
1A
  3
ACAD_PLOTSETTINGS
350
19
  3
ACAD_PLOTSTYLENAME
350
E
  3
ACAD_TABLESTYLE
350
       72F
  0
DICTIONARY
  5
D
102
{ACAD_REACTORS
330
C
102
}
100
AcDbDictionary
280
0
281
1
  0
ACDBDICTIONARYWDFLT
  5
E
102
{ACAD_REACTORS
330
C
102
}
100
AcDbDictionary
281
1
  3
Normal
350
F
100
AcDbDictionaryWithDefault
340
F
  0
DICTIONARY
  5
17
102
{ACAD_REACTORS
330
C
102
}
100
AcDbDictionary
280
0
281
1
  3
Standard
350
18
  0
DICTIONARY
  5
72F
330
C
100
AcDbDictionary
281
1
  3
Standard
350
       732
  3
Standard1
350
       733
  0
DICTIONARY
  5
19
102
{ACAD_REACTORS
330
C
102
}
100
AcDbDictionary
281
1
  0
DICTIONARY
  5
1A
102
{ACAD_REACTORS
330
C
102
}
100
AcDbDictionary
281
1
  3
Model
350
730
  3
Layout1
350
731
  0
ACDBPLACEHOLDER
  5
F
102
{ACAD_REACTORS
330
E
102
}
  0
MLINESTYLE
  5
18
102
{ACAD_REACTORS
330
17
102
}
100
AcDbMlineStyle
  2
STANDARD
 70
0
  3

 62
256
 51
90.0
 52
90.0
 71
2
 49
0.5
 62
256
  6
BYLAYER
 49
-0.5
 62
256
  6
BYLAYER
  0
LAYOUT
  5
730
102
{ACAD_REACTORS
330
1A
102
}
100
AcDbPlotSettings
  1

  2
none_device
  4
ANSI_B_(17.00_x_11.00_Inches)
  6

 40
0.0
 41
0.0
 42
0.0
 43
0.0
 44
431.8
 45
279.4
 46
0.0
 47
0.0
 48
0.0
 49
0.0
140
0.0
141
0.0
142
1.0
143
1.0
 70
1024
 72
0
 73
0
 74
0
  7

 75
0
147
1.0
148
0.0
149
0.0
100
AcDbLayout
  1
Model
 70
0
 71
0
 10
0.0
 20
0.0
 11
17.0
 21
11.0
 12
0.0
 22
0.0
 32
0.0
 14
0.0
 24
0.0
 34
0.0
 15
0.0
 25
0.0
 35
0.0
146
0.0
 13
0.0
 23
0.0
 33
0.0
 16
1.0
 26
0.0
 36
0.0
 17
0.0
 27
1.0
 37
0.0
 76
0
330
235
345
0
346
0
  0
LAYOUT
  5
731
102
{ACAD_REACTORS
330
1A
102
}
100
AcDbPlotSettings
  1

  2
none_device
  4
ANSI_B_(17.00_x_11.00_Inches)
  6

 40
0.0
 41
0.0
 42
0.0
 43
0.0
 44
431.8
 45
279.4
 46
0.0
 47
0.0
 48
0.0
 49
0.0
140
0.0
141
0.0
142
1.0
143
1.0
 70
0
 72
0
 73
0
 74
0
  7

 75
0
147
1.0
148
0.0
149
0.0
100
AcDbLayout
  1
Layout1
 70
0
 71
1
 10
0.0
 20
0.0
 11
17.0
 21
11.0
 12
0.0
 22
0.0
 32
0.0
 14
0.0
 24
0.0
 34
0.0
 15
0.0
 25
0.0
 35
0.0
146
0.0
 13
0.0
 23
0.0
 33
0.0
 16
1.0
 26
0.0
 36
0.0
 17
0.0
 27
1.0
 37
0.0
 76
0
330
236
345
0
346
0
  0
TABLESTYLE
  5
732
102
{ACAD_REACTORS
330
72F
102
}
330
72F
100
AcDbTableStyle
  3
Standard
 70
0
 71
0
 40
0.06
 41
0.06
280
1
281
1
  7
Standard
140
0.18
170
1
 62
0
 63
7
283
0
  7
Standard
140
0.18
170
1
 62
0
 63
7
283
0
  7
Standard
140
0.18
170
1
 62
0
 63
7
283
0
  0
TABLESTYLE
  5
733
102
{ACAD_REACTORS
330
72F
330
2EB
102
}
330
72F
100
AcDbTableStyle
  3
Standard1
 70
1
 71
0
 40
0.06
 41
0.06
280
1
281
1
  7
Standard
140
0.18
170
1
 62
0
 63
7
283
0
  7
Standard
140
0.18
170
1
 62
0
 63
7
283
0
  7
Standard
140
0.18
170
1
 62
0
 63
7
283
0
  0
ENDSEC
  0
EOF
