999
DXF file: 202256_1.dxf
999
Pro/ENGINEER 2016260 by Parametric Technology Corporation
  0
SECTION
  2
HEADER
  9
$ACADVER
  1
AC1027
  9
$DWGCODEPAGE
  3
ANSI_1252
  9
$EXTMAX
 10
22.0
 20
17.0
 30
0.0
  9
$EXTMIN
 10
0.0
 20
0.0
 30
0.0
  9
$LIMMIN
 10
0.0
 20
0.0
  9
$LIMMAX
 10
22.0
 20
17.0
  9
$VIEWCTR
 10
11.0
 20
8.5
  9
$VIEWSIZE
 40
17.0
  9
$CLAYER
  8
0
  9
$LTSCALE
 40
1.21
  9
$CELTYPE
  6
BYLAYER
  9
$DIMSCALE
 40
1.0
  9
$DIMASZ
 40
0.1875
  9
$DIMEXO
 40
0.0625
  9
$DIMDLI
 40
0.836
  9
$DIMEXE
 40
0.125
  9
$DIMCEN
 40
0.198
  9
$DIMLFAC
 40
1.0
  9
$DIMBLK
  1
_FILLED
  9
$DIMALT
 70
1
  9
$DIMALTD
 70
2
  9
$DIMALTTD
 70
2
  9
$DIMALTF
 40
1.0
  9
$DIMTXT
 40
0.1
  9
$DIMTOL
 70
1
  9
$DIMLIM
 70
0
  9
$DIMTFAC
 40
1.0
  9
$DIMTP
 40
0.005
  9
$DIMTM
 40
0.005
  9
$DIMGAP
 40
0.09
  9
$DIMDSEP
 70
46
  9
$AUNITS
 70
0
  9
$PDMODE
 70
3
  9
$PDSIZE
 40
0.3125
  9
$HANDSEED
  5
691
  9
$TILEMODE
 70
1
  9
$MEASUREMENT
 70
0
  9
$INSUNITS
 70
1
  0
ENDSEC
  0
SECTION
  2
CLASSES
  0
CLASS
  1
ACDBDICTIONARYWDFLT
  2
AcDbDictionaryWithDefault
  3
AutoCAD 2000
 90
0
 91
1
280
0
281
0
  0
CLASS
  1
ACDBPLACEHOLDER
  2
AcDbPlaceHolder
  3
AutoCAD 2000
 90
0
 91
1
280
0
281
0
  0
CLASS
  1
LAYOUT
  2
AcDbLayout
  3
AutoCAD 2000
 90
0
 91
0
280
0
281
0
  0
CLASS
  1
TABLESTYLE
  2
AcDbTableStyle
  3
ObjectDBX Classes
 90
2047
 91
1
280
0
281
0
  0
CLASS
  1
ACAD_TABLE
  2
AcDbTable
  3
ObjectDBX Classes
 90
1025
 91
1
280
0
281
1
  0
ENDSEC
  0
SECTION
  2
TABLES
  0
TABLE
  2
VPORT
  5
8
100
AcDbSymbolTable
 70
2
  0
VPORT
  5
1F4
100
AcDbSymbolTableRecord
100
AcDbViewportTableRecord
  2
*ACTIVE
 70
0
 10
0.0
 20
0.0
 11
1.0
 21
1.0
 12
11.0
 22
8.5
 13
0.0
 23
0.0
 14
1.0
 24
1.0
 15
0.0
 25
0.0
 16
0.0
 26
0.0
 36
1.0
 17
0.0
 27
0.0
 37
0.0
 40
17.0
 41
1.2941176471
 42
50.0
 43
0.0
 44
0.0
 50
0.0
 51
0.0
 71
0
 72
100
 73
1
 74
1
 75
0
 76
0
 77
0
 78
0
  0
ENDTAB
  0
TABLE
  2
LTYPE
  5
5
100
AcDbSymbolTable
 70
6
  0
LTYPE
  5
14
100
AcDbSymbolTableRecord
100
AcDbLinetypeTableRecord
  2
BYBLOCK
 70
0
  3

 72
65
 73
0
 40
0.0
  0
LTYPE
  5
15
100
AcDbSymbolTableRecord
100
AcDbLinetypeTableRecord
  2
BYLAYER
 70
0
  3

 72
65
 73
0
 40
0.0
  0
LTYPE
  5
16
100
AcDbSymbolTableRecord
100
AcDbLinetypeTableRecord
  2
CONTINUOUS
 70
64
  3
Solid line
 72
65
 73
0
 40
0.0
  0
LTYPE
  5
1F5
100
AcDbSymbolTableRecord
100
AcDbLinetypeTableRecord
  2
CENTER
 70
64
  3
____ _ ____ _ ____ _ ____ _ ____ _ ____ _ ____
 72
65
 73
4
 40
0.6
 49
0.375
 74
0
 49
-0.075
 74
0
 49
0.075
 74
0
 49
-0.075
 74
0
  0
LTYPE
  5
1F6
100
AcDbSymbolTableRecord
100
AcDbLinetypeTableRecord
  2
HIDDEN
 70
64
  3
- - - - - - - - - - - - - - - - - - - -
 72
65
 73
2
 40
0.2
 49
0.1
 74
0
 49
-0.1
 74
0
  0
LTYPE
  5
1F7
100
AcDbSymbolTableRecord
100
AcDbLinetypeTableRecord
  2
PHANTOM
 70
64
  3
_____ _ _ _____ _ _ _____ _ _ _____
 72
65
 73
6
 40
0.8
 49
0.45
 74
0
 49
-0.05
 74
0
 49
0.1
 74
0
 49
-0.05
 74
0
 49
0.1
 74
0
 49
-0.05
 74
0
  0
LTYPE
  5
1F8
100
AcDbSymbolTableRecord
100
AcDbLinetypeTableRecord
  2
DOT
 70
64
  3
. . . . . . . . . . . . . . . . . . . .
 72
65
 73
2
 40
0.2
 49
0.1
 74
0
 49
-0.1
 74
0
  0
LTYPE
  5
1F9
100
AcDbSymbolTableRecord
100
AcDbLinetypeTableRecord
  2
DASHED
 70
64
  3
- - - - - - - - - - - - - - - - - - - -
 72
65
 73
2
 40
0.2
 49
0.1
 74
0
 49
-0.1
 74
0
  0
ENDTAB
  0
TABLE
  2
LAYER
  5
2
100
AcDbSymbolTable
 70
36
  0
LAYER
  5
10
100
AcDbSymbolTableRecord
100
AcDbLayerTableRecord
  2
0
 70
0
 62
7
  6
CONTINUOUS
370
-3
390
F
  0
LAYER
  5
1FA
100
AcDbSymbolTableRecord
100
AcDbLayerTableRecord
  2
DEFAULT_1
 70
0
 62
7
  6
CENTER
370
-3
390
F
  0
LAYER
  5
1FB
100
AcDbSymbolTableRecord
100
AcDbLayerTableRecord
  2
DEFAULT_2
 70
0
 62
7
  6
HIDDEN
370
-3
390
F
  0
LAYER
  5
1FC
100
AcDbSymbolTableRecord
100
AcDbLayerTableRecord
  2
DEFAULT_3
 70
0
 62
7
  6
PHANTOM
370
-3
390
F
  0
LAYER
  5
1FD
100
AcDbSymbolTableRecord
100
AcDbLayerTableRecord
  2
01___PRT_ALL_DTM_PLN
 70
0
 62
7
  6
CONTINUOUS
370
-3
390
F
  0
LAYER
  5
1FE
100
AcDbSymbolTableRecord
100
AcDbLayerTableRecord
  2
01___PRT_DEF_DTM_PLN
 70
0
 62
7
  6
CONTINUOUS
370
-3
390
F
  0
LAYER
  5
1FF
100
AcDbSymbolTableRecord
100
AcDbLayerTableRecord
  2
02___PRT_ALL_AXES
 70
0
 62
7
  6
CONTINUOUS
370
-3
390
F
  0
LAYER
  5
200
100
AcDbSymbolTableRecord
100
AcDbLayerTableRecord
  2
03___PRT_ALL_CURVES
 70
0
 62
7
  6
CONTINUOUS
370
-3
390
F
  0
LAYER
  5
201
100
AcDbSymbolTableRecord
100
AcDbLayerTableRecord
  2
04___PRT_ALL_DTM_PNT
 70
0
 62
7
  6
CONTINUOUS
370
-3
390
F
  0
LAYER
  5
202
100
AcDbSymbolTableRecord
100
AcDbLayerTableRecord
  2
05___PRT_ALL_DTM_CSYS
 70
0
 62
7
  6
CONTINUOUS
370
-3
390
F
  0
LAYER
  5
203
100
AcDbSymbolTableRecord
100
AcDbLayerTableRecord
  2
05___PRT_DEF_DTM_CSYS
 70
0
 62
7
  6
CONTINUOUS
370
-3
390
F
  0
LAYER
  5
204
100
AcDbSymbolTableRecord
100
AcDbLayerTableRecord
  2
06___PRT_ALL_SURFS
 70
0
 62
7
  6
CONTINUOUS
370
-3
390
F
  0
LAYER
  5
205
100
AcDbSymbolTableRecord
100
AcDbLayerTableRecord
  2
1
 70
0
 62
7
  6
CONTINUOUS
370
-3
390
F
  0
LAYER
  5
206
100
AcDbSymbolTableRecord
100
AcDbLayerTableRecord
  2
10
 70
0
 62
7
  6
CONTINUOUS
370
-3
390
F
  0
LAYER
  5
207
100
AcDbSymbolTableRecord
100
AcDbLayerTableRecord
  2
11
 70
0
 62
7
  6
CONTINUOUS
370
-3
390
F
  0
LAYER
  5
208
100
AcDbSymbolTableRecord
100
AcDbLayerTableRecord
  2
12
 70
0
 62
7
  6
CONTINUOUS
370
-3
390
F
  0
LAYER
  5
209
100
AcDbSymbolTableRecord
100
AcDbLayerTableRecord
  2
13
 70
0
 62
7
  6
CONTINUOUS
370
-3
390
F
  0
LAYER
  5
20A
100
AcDbSymbolTableRecord
100
AcDbLayerTableRecord
  2
14
 70
0
 62
7
  6
CONTINUOUS
370
-3
390
F
  0
LAYER
  5
20B
100
AcDbSymbolTableRecord
100
AcDbLayerTableRecord
  2
15
 70
0
 62
7
  6
CONTINUOUS
370
-3
390
F
  0
LAYER
  5
20C
100
AcDbSymbolTableRecord
100
AcDbLayerTableRecord
  2
16
 70
0
 62
7
  6
CONTINUOUS
370
-3
390
F
  0
LAYER
  5
20D
100
AcDbSymbolTableRecord
100
AcDbLayerTableRecord
  2
17
 70
0
 62
7
  6
CONTINUOUS
370
-3
390
F
  0
LAYER
  5
20E
100
AcDbSymbolTableRecord
100
AcDbLayerTableRecord
  2
18
 70
0
 62
7
  6
CONTINUOUS
370
-3
390
F
  0
LAYER
  5
20F
100
AcDbSymbolTableRecord
100
AcDbLayerTableRecord
  2
19
 70
0
 62
7
  6
CONTINUOUS
370
-3
390
F
  0
LAYER
  5
210
100
AcDbSymbolTableRecord
100
AcDbLayerTableRecord
  2
2
 70
0
 62
7
  6
CONTINUOUS
370
-3
390
F
  0
LAYER
  5
211
100
AcDbSymbolTableRecord
100
AcDbLayerTableRecord
  2
20
 70
0
 62
7
  6
CONTINUOUS
370
-3
390
F
  0
LAYER
  5
212
100
AcDbSymbolTableRecord
100
AcDbLayerTableRecord
  2
21
 70
0
 62
7
  6
CONTINUOUS
370
-3
390
F
  0
LAYER
  5
213
100
AcDbSymbolTableRecord
100
AcDbLayerTableRecord
  2
22
 70
0
 62
7
  6
CONTINUOUS
370
-3
390
F
  0
LAYER
  5
214
100
AcDbSymbolTableRecord
100
AcDbLayerTableRecord
  2
23
 70
0
 62
7
  6
CONTINUOUS
370
-3
390
F
  0
LAYER
  5
215
100
AcDbSymbolTableRecord
100
AcDbLayerTableRecord
  2
24
 70
0
 62
7
  6
CONTINUOUS
370
-3
390
F
  0
LAYER
  5
216
100
AcDbSymbolTableRecord
100
AcDbLayerTableRecord
  2
25
 70
0
 62
7
  6
CONTINUOUS
370
-3
390
F
  0
LAYER
  5
217
100
AcDbSymbolTableRecord
100
AcDbLayerTableRecord
  2
26
 70
0
 62
7
  6
CONTINUOUS
370
-3
390
F
  0
LAYER
  5
218
100
AcDbSymbolTableRecord
100
AcDbLayerTableRecord
  2
27
 70
0
 62
7
  6
CONTINUOUS
370
-3
390
F
  0
LAYER
  5
219
100
AcDbSymbolTableRecord
100
AcDbLayerTableRecord
  2
28
 70
0
 62
7
  6
CONTINUOUS
370
-3
390
F
  0
LAYER
  5
21A
100
AcDbSymbolTableRecord
100
AcDbLayerTableRecord
  2
29
 70
0
 62
7
  6
CONTINUOUS
370
-3
390
F
  0
LAYER
  5
21B
100
AcDbSymbolTableRecord
100
AcDbLayerTableRecord
  2
3
 70
0
 62
7
  6
CONTINUOUS
370
-3
390
F
  0
LAYER
  5
21C
100
AcDbSymbolTableRecord
100
AcDbLayerTableRecord
  2
30
 70
0
 62
7
  6
CONTINUOUS
370
-3
390
F
  0
LAYER
  5
21D
100
AcDbSymbolTableRecord
100
AcDbLayerTableRecord
  2
31
 70
0
 62
7
  6
CONTINUOUS
370
-3
390
F
  0
LAYER
  5
21E
100
AcDbSymbolTableRecord
100
AcDbLayerTableRecord
  2
32
 70
0
 62
7
  6
CONTINUOUS
370
-3
390
F
  0
LAYER
  5
21F
100
AcDbSymbolTableRecord
100
AcDbLayerTableRecord
  2
4
 70
0
 62
7
  6
CONTINUOUS
370
-3
390
F
  0
LAYER
  5
220
100
AcDbSymbolTableRecord
100
AcDbLayerTableRecord
  2
5
 70
0
 62
7
  6
CONTINUOUS
370
-3
390
F
  0
LAYER
  5
221
100
AcDbSymbolTableRecord
100
AcDbLayerTableRecord
  2
6
 70
0
 62
7
  6
CONTINUOUS
370
-3
390
F
  0
LAYER
  5
222
100
AcDbSymbolTableRecord
100
AcDbLayerTableRecord
  2
7
 70
0
 62
7
  6
CONTINUOUS
370
-3
390
F
  0
LAYER
  5
223
100
AcDbSymbolTableRecord
100
AcDbLayerTableRecord
  2
8
 70
0
 62
7
  6
CONTINUOUS
370
-3
390
F
  0
LAYER
  5
224
100
AcDbSymbolTableRecord
100
AcDbLayerTableRecord
  2
9
 70
0
 62
7
  6
CONTINUOUS
370
-3
390
F
  0
LAYER
  5
225
100
AcDbSymbolTableRecord
100
AcDbLayerTableRecord
  2
AXIS
 70
0
 62
7
  6
CONTINUOUS
370
-3
390
F
  0
LAYER
  5
226
100
AcDbSymbolTableRecord
100
AcDbLayerTableRecord
  2
AXIS_COSMETIC_THREADS
 70
0
 62
7
  6
CONTINUOUS
370
-3
390
F
  0
LAYER
  5
227
100
AcDbSymbolTableRecord
100
AcDbLayerTableRecord
  2
COSMETIC_THREADS
 70
0
 62
7
  6
CONTINUOUS
370
-3
390
F
  0
LAYER
  5
228
100
AcDbSymbolTableRecord
100
AcDbLayerTableRecord
  2
DATUM_CURVES
 70
0
 62
7
  6
CONTINUOUS
370
-3
390
F
  0
LAYER
  5
229
100
AcDbSymbolTableRecord
100
AcDbLayerTableRecord
  2
DATUM_PLANES
 70
0
 62
7
  6
CONTINUOUS
370
-3
390
F
  0
LAYER
  5
22A
100
AcDbSymbolTableRecord
100
AcDbLayerTableRecord
  2
NOTES
 70
0
 62
7
  6
CONTINUOUS
370
-3
390
F
  0
LAYER
  5
22B
100
AcDbSymbolTableRecord
100
AcDbLayerTableRecord
  2
QUILTS
 70
0
 62
7
  6
CONTINUOUS
370
-3
390
F
  0
LAYER
  5
22C
100
AcDbSymbolTableRecord
100
AcDbLayerTableRecord
  2
SCHEME_DIMS
 70
0
 62
7
  6
CONTINUOUS
370
-3
390
F
  0
LAYER
  5
22D
100
AcDbSymbolTableRecord
100
AcDbLayerTableRecord
  2
SYMBOLS
 70
0
 62
7
  6
CONTINUOUS
370
-3
390
F
  0
ENDTAB
  0
TABLE
  2
STYLE
  5
3
100
AcDbSymbolTable
 70
1
  0
STYLE
  5
11
100
AcDbSymbolTableRecord
100
AcDbTextStyleTableRecord
  2
STANDARD
 70
0
 40
0.0
 41
1.0
 50
0.0
 71
0
 42
0.2
  3
txt
  4

  0
STYLE
  5
22E
100
AcDbSymbolTableRecord
100
AcDbTextStyleTableRecord
  2
TEXTSTYLE_1
 70
0
 40
0.0
 41
0.8
 50
0.0
 71
0
 42
0.2
  3
gdt
  4

  0
STYLE
  5
22F
100
AcDbSymbolTableRecord
100
AcDbTextStyleTableRecord
  2
TEXTSTYLE_2
 70
0
 40
0.0
 41
0.8
 50
0.0
 71
0
 42
0.2
  3
txt
  4

  0
STYLE
  5
230
100
AcDbSymbolTableRecord
100
AcDbTextStyleTableRecord
  2
TEXTSTYLE_3
 70
0
 40
0.0
 41
0.9
 50
0.0
 71
0
 42
0.2
  3
txt
  4

  0
STYLE
  5
231
100
AcDbSymbolTableRecord
100
AcDbTextStyleTableRecord
  2
TEXTSTYLE_4
 70
0
 40
0.0
 41
0.85
 50
0.0
 71
0
 42
0.2
  3
txt
  4

  0
STYLE
  5
232
100
AcDbSymbolTableRecord
100
AcDbTextStyleTableRecord
  2
TEXTSTYLE_5
 70
0
 40
0.0
 41
0.75
 50
0.0
 71
0
 42
0.2
  3
txt
  4

  0
STYLE
  5
233
100
AcDbSymbolTableRecord
100
AcDbTextStyleTableRecord
  2
TEXTSTYLE_6
 70
0
 40
0.0
 41
1.0
 50
0.0
 71
0
 42
0.2
  3
gdt
  4

  0
ENDTAB
  0
TABLE
  2
VIEW
  5
6
100
AcDbSymbolTable
 70
0
  0
ENDTAB
  0
TABLE
  2
UCS
  5
7
100
AcDbSymbolTable
 70
0
  0
ENDTAB
  0
TABLE
  2
APPID
  5
9
100
AcDbSymbolTable
 70
1
  0
APPID
  5
234
100
AcDbSymbolTableRecord
100
AcDbRegAppTableRecord
  2
ACAD
 70
0
  0
ENDTAB
  0
TABLE
  2
BLOCK_RECORD
  5
1
100
AcDbSymbolTable
 70
0
  0
BLOCK_RECORD
  5
235
100
AcDbSymbolTableRecord
100
AcDbBlockTableRecord
  2
*Model_Space
  0
BLOCK_RECORD
  5
236
100
AcDbSymbolTableRecord
100
AcDbBlockTableRecord
  2
*Paper_Space
  0
BLOCK_RECORD
  5
237
100
AcDbSymbolTableRecord
100
AcDbBlockTableRecord
  2
_FILLED
  0
BLOCK_RECORD
  5
238
100
AcDbSymbolTableRecord
100
AcDbBlockTableRecord
  2
*D0
  0
BLOCK_RECORD
  5
239
100
AcDbSymbolTableRecord
100
AcDbBlockTableRecord
  2
*D1
  0
BLOCK_RECORD
  5
23A
100
AcDbSymbolTableRecord
100
AcDbBlockTableRecord
  2
*D2
  0
BLOCK_RECORD
  5
23B
100
AcDbSymbolTableRecord
100
AcDbBlockTableRecord
  2
*D3
  0
BLOCK_RECORD
  5
23C
100
AcDbSymbolTableRecord
100
AcDbBlockTableRecord
  2
*D4
  0
BLOCK_RECORD
  5
23D
100
AcDbSymbolTableRecord
100
AcDbBlockTableRecord
  2
*D5
  0
BLOCK_RECORD
  5
23E
100
AcDbSymbolTableRecord
100
AcDbBlockTableRecord
  2
*D6
  0
BLOCK_RECORD
  5
23F
100
AcDbSymbolTableRecord
100
AcDbBlockTableRecord
  2
*D7
  0
BLOCK_RECORD
  5
240
100
AcDbSymbolTableRecord
100
AcDbBlockTableRecord
  2
*D8
  0
BLOCK_RECORD
  5
241
100
AcDbSymbolTableRecord
100
AcDbBlockTableRecord
  2
*D9
  0
BLOCK_RECORD
  5
242
100
AcDbSymbolTableRecord
100
AcDbBlockTableRecord
  2
*D10
  0
BLOCK_RECORD
  5
243
100
AcDbSymbolTableRecord
100
AcDbBlockTableRecord
  2
*D11
  0
BLOCK_RECORD
  5
244
100
AcDbSymbolTableRecord
100
AcDbBlockTableRecord
  2
*D12
  0
BLOCK_RECORD
  5
245
100
AcDbSymbolTableRecord
100
AcDbBlockTableRecord
  2
*D13
  0
BLOCK_RECORD
  5
246
100
AcDbSymbolTableRecord
100
AcDbBlockTableRecord
  2
*D14
  0
BLOCK_RECORD
  5
247
100
AcDbSymbolTableRecord
100
AcDbBlockTableRecord
  2
*D15
  0
BLOCK_RECORD
  5
248
100
AcDbSymbolTableRecord
100
AcDbBlockTableRecord
  2
*D16
  0
BLOCK_RECORD
  5
249
100
AcDbSymbolTableRecord
100
AcDbBlockTableRecord
  2
*D17
  0
BLOCK_RECORD
  5
24A
100
AcDbSymbolTableRecord
100
AcDbBlockTableRecord
  2
*D18
  0
BLOCK_RECORD
  5
24B
100
AcDbSymbolTableRecord
100
AcDbBlockTableRecord
  2
*D19
  0
BLOCK_RECORD
  5
24C
100
AcDbSymbolTableRecord
100
AcDbBlockTableRecord
  2
*D20
  0
BLOCK_RECORD
  5
24D
100
AcDbSymbolTableRecord
100
AcDbBlockTableRecord
  2
*D21
  0
BLOCK_RECORD
  5
24E
100
AcDbSymbolTableRecord
100
AcDbBlockTableRecord
  2
*D22
  0
BLOCK_RECORD
  5
24F
100
AcDbSymbolTableRecord
100
AcDbBlockTableRecord
  2
*T1
  0
ENDTAB
  0
TABLE
  2
DIMSTYLE
  5
A
100
AcDbSymbolTable
 70
1
100
AcDbDimStyleTable
 71
0
  0
DIMSTYLE
105
250
100
AcDbSymbolTableRecord
100
AcDbDimStyleTableRecord
  2
STANDARD
 70
0
  3

  4

 40
1.0
 41
0.1875
 42
0.0625
 43
0.38
 44
0.125
 45
0.0
 46
0.0
 47
0.005
 48
0.005
140
0.1
141
0.09
142
0.0
143
1.0
144
1.0
145
0.0
146
1.0
147
0.09
 71
1.0
 72
0.0
 73
1
 74
1
 75
0
 76
0
 77
0
 78
4
170
1
171
2
172
0
173
0
174
0
175
0
176
0
177
0
178
0
270
2
271
3
272
3
273
2
274
2
275
0
280
0
281
0
282
0
283
1
284
4
285
0
286
0
287
3
288
0
340
11
278
46
341
237
342
237
343
237
344
237
  0
DIMSTYLE
105
251
100
AcDbSymbolTableRecord
100
AcDbDimStyleTableRecord
  2
DIMSTYLE_1
 70
0
  3

  4

 40
1.0
 41
0.1875
 42
0.0625
 43
0.38
 44
0.125
 45
0.0
 46
0.0
 47
0.1
 48
0.1
140
0.1
141
0.09
142
0.0
143
1.0
144
1.0
145
0.0
146
1.0
147
0.1
 71
0.0
 72
0.0
 73
1
 74
1
 75
0
 76
0
 77
0
 78
4
170
1
171
2
172
0
173
0
174
0
175
0
176
0
177
0
178
0
270
2
271
1
272
3
273
2
274
4
275
0
280
0
281
0
282
0
283
1
284
4
285
0
286
0
287
3
288
0
340
11
278
46
341
237
342
237
343
237
344
237
  0
DIMSTYLE
105
252
100
AcDbSymbolTableRecord
100
AcDbDimStyleTableRecord
  2
DIMSTYLE_2
 70
0
  3
<>
  4

 40
1.0
 41
0.1875
 42
0.0625
 43
0.38
 44
0.125
 45
0.0
 46
0.0
 47
0.1
 48
0.1
140
0.1
141
0.09
142
0.0
143
1.0
144
1.0
145
0.0
146
1.0
147
0.09
 71
0.0
 72
0.0
 73
1
 74
1
 75
0
 76
0
 77
0
 78
4
170
1
171
4
172
0
173
0
174
0
175
0
176
0
177
0
178
0
270
2
271
3
272
3
273
2
274
-1
275
0
280
0
281
0
282
0
283
1
284
4
285
0
286
0
287
3
288
0
340
11
278
46
341
237
342
237
343
237
344
237
  0
DIMSTYLE
105
253
100
AcDbSymbolTableRecord
100
AcDbDimStyleTableRecord
  2
DIMSTYLE_3
 70
0
  3
<>
  4

 40
1.0
 41
0.1875
 42
0.0625
 43
0.38
 44
0.125
 45
0.0
 46
0.0
 47
0.1
 48
0.1
140
0.1
141
0.09
142
0.0
143
1.0
144
1.0
145
0.0
146
1.0
147
0.09
 71
0.0
 72
0.0
 73
1
 74
1
 75
0
 76
0
 77
0
 78
4
170
1
171
2
172
0
173
0
174
0
175
0
176
0
177
0
178
0
270
2
271
1
272
3
273
2
274
4
275
0
280
0
281
0
282
0
283
1
284
4
285
0
286
0
287
3
288
1
340
11
278
46
289
2
341
237
342
237
343
237
344
237
  0
DIMSTYLE
105
254
100
AcDbSymbolTableRecord
100
AcDbDimStyleTableRecord
  2
DIMSTYLE_4
 70
0
  3

  4

 40
1.0
 41
0.1875
 42
0.0625
 43
0.38
 44
0.125
 45
0.0
 46
0.0
 47
0.5
 48
0.5
140
0.1
141
0.09
142
0.0
143
1.0
144
1.0
145
0.0
146
1.0
147
0.05
 71
0.0
 72
0.0
 73
1
 74
1
 75
0
 76
0
 77
0
 78
4
170
0
171
2
172
0
173
0
174
0
175
0
176
0
177
0
178
0
270
2
271
0
272
0
273
2
274
2
275
0
280
0
281
0
282
0
283
1
284
4
285
0
286
0
287
3
288
0
340
11
278
46
341
237
342
237
343
237
344
237
  0
DIMSTYLE
105
255
100
AcDbSymbolTableRecord
100
AcDbDimStyleTableRecord
  2
DIMSTYLE_5
 70
0
  3

  4

 40
1.0
 41
0.1875
 42
0.0625
 43
0.38
 44
0.125
 45
0.0
 46
0.0
 47
0.1
 48
0.1
140
0.1
141
0.09
142
0.0
143
1.0
144
1.0
145
0.0
146
1.0
147
0.1
 71
0.0
 72
0.0
 73
1
 74
1
 75
0
 76
0
 77
0
 78
4
170
1
171
4
172
0
173
0
174
0
175
0
176
0
177
0
178
0
270
2
271
3
272
3
273
2
274
-1
275
0
280
0
281
0
282
0
283
1
284
4
285
0
286
0
287
3
288
0
340
11
278
46
341
237
342
237
343
237
344
237
  0
ENDTAB
  0
ENDSEC
  0
SECTION
  2
BLOCKS
  0
BLOCK
  5
20
100
AcDbEntity
  8
0
100
AcDbBlockBegin
  2
*Model_Space
 70
0
 10
0.0
 20
0.0
 30
0.0
  3
*Model_Space
  1

  0
ENDBLK
  5
21
100
AcDbEntity
  8
0
100
AcDbBlockEnd
  0
BLOCK
  5
1C
100
AcDbEntity
  8
0
100
AcDbBlockBegin
  2
*Paper_Space
 70
0
 10
0.0
 20
0.0
 30
0.0
  3
*Paper_Space
  1

  0
ENDBLK
  5
1D
100
AcDbEntity
  8
0
100
AcDbBlockEnd
  0
BLOCK
  5
256
100
AcDbEntity
  8
0
100
AcDbBlockBegin
  2
_FILLED
 70
64
 10
0.0
 20
0.0
  3
_FILLED
  1

  0
SOLID
  5
257
100
AcDbEntity
  8
0
  6
BYBLOCK
 62
0
100
AcDbTrace
 10
0.0
 20
0.0
 11
-1.0
 21
0.1666666667
 12
-1.0
 22
-0.1666666667
 13
-1.0
 23
-0.1666666667
  0
ENDBLK
  5
258
100
AcDbEntity
  8
0
  6
BYBLOCK
 62
0
100
AcDbBlockEnd
  0
BLOCK
  5
259
100
AcDbEntity
  8
SCHEME_DIMS
100
AcDbBlockBegin
 62
7
  6
CONTINUOUS
  2
*D0
 70
65
 10
0.0
 20
0.0
  3
*D0
  1

  0
MTEXT
  5
25A
100
AcDbEntity
  8
SCHEME_DIMS
100
AcDbMText
 62
7
  6
CONTINUOUS
  7
STANDARD
 71
2
 72
1
 10
8.9709986772
 20
6.0775462963
 30
0.0
 11
1.0
 21
0.0
 31
0.0
 44
0.9
  1
78.6\P[3.09]
 40
0.1
 41
0.6
  0
LINE
  5
25B
100
AcDbEntity
  8
SCHEME_DIMS
100
AcDbLine
 62
7
  6
CONTINUOUS
 10
6.3990685708
 20
4.1324735696
 11
9.1959986772
 21
4.1324735696
  0
LINE
  5
25C
100
AcDbEntity
  8
SCHEME_DIMS
100
AcDbLine
 62
7
  6
CONTINUOUS
 10
6.674659122
 20
7.2269617586
 11
9.1959986772
 21
7.2269617586
  0
LINE
  5
25D
100
AcDbEntity
  8
SCHEME_DIMS
100
AcDbLine
 62
7
  6
CONTINUOUS
 10
9.0709986772
 20
4.1324735696
 11
9.0709986772
 21
5.7275462963
  0
LINE
  5
25E
100
AcDbEntity
  8
SCHEME_DIMS
100
AcDbLine
 62
7
  6
CONTINUOUS
 10
9.0709986772
 20
7.2269617586
 11
9.0709986772
 21
6.1775462963
  0
INSERT
  5
25F
100
AcDbEntity
  8
SCHEME_DIMS
100
AcDbBlockReference
 62
7
  6
CONTINUOUS
  2
_FILLED
 10
9.0709986772
 20
4.1324735696
 41
0.1875
 42
0.1875
 43
0.1875
 50
270.0
  0
INSERT
  5
260
100
AcDbEntity
  8
SCHEME_DIMS
100
AcDbBlockReference
 62
7
  6
CONTINUOUS
  2
_FILLED
 10
9.0709986772
 20
7.2269617586
 41
0.1875
 42
0.1875
 43
0.1875
 50
90.0
  0
ENDBLK
  5
261
100
AcDbEntity
  8
0
  6
BYBLOCK
 62
0
100
AcDbBlockEnd
  0
BLOCK
  5
262
100
AcDbEntity
  8
SCHEME_DIMS
100
AcDbBlockBegin
 62
7
  6
CONTINUOUS
  2
*D1
 70
65
 10
0.0
 20
0.0
  3
*D1
  1

  0
MTEXT
  5
263
100
AcDbEntity
  8
SCHEME_DIMS
100
AcDbMText
 62
7
  6
CONTINUOUS
  7
STANDARD
 71
2
 72
1
 10
5.2523166023
 20
8.4614695052
 30
0.0
 11
1.0
 21
0.0
 31
0.0
 44
0.9
  1
76.0\P[2.99]
 40
0.1
 41
0.6
  0
LINE
  5
264
100
AcDbEntity
  8
SCHEME_DIMS
100
AcDbLine
 62
7
  6
CONTINUOUS
 10
6.8483795944
 20
7.0532412861
 11
6.8483795944
 21
8.5364695052
  0
LINE
  5
265
100
AcDbEntity
  8
SCHEME_DIMS
100
AcDbLine
 62
7
  6
CONTINUOUS
 10
3.8562536102
 20
7.0532412861
 11
3.8562536102
 21
8.5364695052
  0
LINE
  5
266
100
AcDbEntity
  8
SCHEME_DIMS
100
AcDbLine
 62
7
  6
CONTINUOUS
 10
6.8483795944
 20
8.4114695052
 11
5.7523166023
 21
8.4114695052
  0
LINE
  5
267
100
AcDbEntity
  8
SCHEME_DIMS
100
AcDbLine
 62
7
  6
CONTINUOUS
 10
3.8562536102
 20
8.4114695052
 11
4.9523166023
 21
8.4114695052
  0
INSERT
  5
268
100
AcDbEntity
  8
SCHEME_DIMS
100
AcDbBlockReference
 62
7
  6
CONTINUOUS
  2
_FILLED
 10
6.8483795944
 20
8.4114695052
 41
0.1875
 42
0.1875
 43
0.1875
  0
INSERT
  5
269
100
AcDbEntity
  8
SCHEME_DIMS
100
AcDbBlockReference
 62
7
  6
CONTINUOUS
  2
_FILLED
 10
3.8562536102
 20
8.4114695052
 41
0.1875
 42
0.1875
 43
0.1875
 50
180.0
  0
ENDBLK
  5
26A
100
AcDbEntity
  8
0
  6
BYBLOCK
 62
0
100
AcDbBlockEnd
  0
BLOCK
  5
26B
100
AcDbEntity
  8
SCHEME_DIMS
100
AcDbBlockBegin
 62
7
  6
CONTINUOUS
  2
*D2
 70
65
 10
0.0
 20
0.0
  3
*D2
  1

  0
MTEXT
  5
26C
100
AcDbEntity
  8
SCHEME_DIMS
100
AcDbMText
 62
7
  6
CONTINUOUS
  7
STANDARD
 71
2
 72
1
 10
3.2416550479
 20
13.0344928114
 30
0.0
 11
1.0
 21
0.0
 31
0.0
 44
0.9
  1
29.9\P[1.18]
 40
0.1
 41
0.6
  0
LINE
  5
26D
100
AcDbEntity
  8
SCHEME_DIMS
100
AcDbLine
 62
7
  6
CONTINUOUS
 10
4.7780055787
 20
13.572683589
 11
3.2166550479
 21
13.572683589
  0
LINE
  5
26E
100
AcDbEntity
  8
SCHEME_DIMS
100
AcDbLine
 62
7
  6
CONTINUOUS
 10
3.7279577806
 20
12.3963020338
 11
3.2166550479
 21
12.3963020338
  0
LINE
  5
26F
100
AcDbEntity
  8
SCHEME_DIMS
100
AcDbLine
 62
7
  6
CONTINUOUS
 10
3.3416550479
 20
13.572683589
 11
3.3416550479
 21
13.1344928114
  0
LINE
  5
270
100
AcDbEntity
  8
SCHEME_DIMS
100
AcDbLine
 62
7
  6
CONTINUOUS
 10
3.3416550479
 20
12.3963020338
 11
3.3416550479
 21
12.6844928114
  0
INSERT
  5
271
100
AcDbEntity
  8
SCHEME_DIMS
100
AcDbBlockReference
 62
7
  6
CONTINUOUS
  2
_FILLED
 10
3.3416550479
 20
13.572683589
 41
0.1875
 42
0.1875
 43
0.1875
 50
90.0
  0
INSERT
  5
272
100
AcDbEntity
  8
SCHEME_DIMS
100
AcDbBlockReference
 62
7
  6
CONTINUOUS
  2
_FILLED
 10
3.3416550479
 20
12.3963020338
 41
0.1875
 42
0.1875
 43
0.1875
 50
270.0
  0
ENDBLK
  5
273
100
AcDbEntity
  8
0
  6
BYBLOCK
 62
0
100
AcDbBlockEnd
  0
BLOCK
  5
274
100
AcDbEntity
  8
SCHEME_DIMS
100
AcDbBlockBegin
 62
7
  6
CONTINUOUS
  2
*D3
 70
65
 10
0.0
 20
0.0
  3
*D3
  1

  0
MTEXT
  5
275
100
AcDbEntity
  8
SCHEME_DIMS
100
AcDbMText
 62
7
  6
CONTINUOUS
  7
STANDARD
 71
2
 72
1
 10
19.8673457386
 20
11.0289791992
 30
0.0
 11
1.0
 21
0.0
 31
0.0
 44
0.9
  1
32.0\P[1.26]
 40
0.1
 41
0.6
  0
LINE
  5
276
100
AcDbEntity
  8
SCHEME_DIMS
100
AcDbLine
 62
7
  6
CONTINUOUS
 10
17.7152509653
 20
11.608900459
 11
20.0923457386
 21
11.608900459
  0
LINE
  5
277
100
AcDbEntity
  8
SCHEME_DIMS
100
AcDbLine
 62
7
  6
CONTINUOUS
 10
17.7152509653
 20
10.3490579393
 11
20.0923457386
 21
10.3490579393
  0
LINE
  5
278
100
AcDbEntity
  8
SCHEME_DIMS
100
AcDbLine
 62
7
  6
CONTINUOUS
 10
19.9673457386
 20
11.608900459
 11
19.9673457386
 21
11.1289791992
  0
LINE
  5
279
100
AcDbEntity
  8
SCHEME_DIMS
100
AcDbLine
 62
7
  6
CONTINUOUS
 10
19.9673457386
 20
10.3490579393
 11
19.9673457386
 21
10.6789791992
  0
INSERT
  5
27A
100
AcDbEntity
  8
SCHEME_DIMS
100
AcDbBlockReference
 62
7
  6
CONTINUOUS
  2
_FILLED
 10
19.9673457386
 20
11.608900459
 41
0.1875
 42
0.1875
 43
0.1875
 50
90.0
  0
INSERT
  5
27B
100
AcDbEntity
  8
SCHEME_DIMS
100
AcDbBlockReference
 62
7
  6
CONTINUOUS
  2
_FILLED
 10
19.9673457386
 20
10.3490579393
 41
0.1875
 42
0.1875
 43
0.1875
 50
270.0
  0
ENDBLK
  5
27C
100
AcDbEntity
  8
0
  6
BYBLOCK
 62
0
100
AcDbBlockEnd
  0
BLOCK
  5
27D
100
AcDbEntity
  8
SCHEME_DIMS
100
AcDbBlockBegin
 62
7
  6
CONTINUOUS
  2
*D4
 70
65
 10
0.0
 20
0.0
  3
*D4
  1

  0
MTEXT
  5
27E
100
AcDbEntity
  8
SCHEME_DIMS
100
AcDbMText
 62
7
  6
CONTINUOUS
  7
STANDARD
 71
2
 72
1
 10
19.9173457386
 20
12.0667832118
 30
0.0
 11
1.0
 21
0.0
 31
0.0
 44
0.9
  1
20.0\P[.79]
 40
0.1
 41
0.5
  0
LINE
  5
27F
100
AcDbEntity
  8
SCHEME_DIMS
100
AcDbLine
 62
7
  6
CONTINUOUS
 10
19.2113139574
 20
12.3963020338
 11
20.0923457386
 21
12.3963020338
  0
LINE
  5
280
100
AcDbEntity
  8
SCHEME_DIMS
100
AcDbLine
 62
7
  6
CONTINUOUS
 10
17.7152509653
 20
11.608900459
 11
20.0923457386
 21
11.608900459
  0
LINE
  5
281
100
AcDbEntity
  8
SCHEME_DIMS
100
AcDbLine
 62
7
  6
CONTINUOUS
 10
19.9673457386
 20
12.3963020338
 11
19.9673457386
 21
12.7963020338
  0
LINE
  5
282
100
AcDbEntity
  8
SCHEME_DIMS
100
AcDbLine
 62
7
  6
CONTINUOUS
 10
19.9673457386
 20
11.608900459
 11
19.9673457386
 21
11.208900459
  0
INSERT
  5
283
100
AcDbEntity
  8
SCHEME_DIMS
100
AcDbBlockReference
 62
7
  6
CONTINUOUS
  2
_FILLED
 10
19.9673457386
 20
12.3963020338
 41
0.1875
 42
0.1875
 43
0.1875
 50
270.0
  0
INSERT
  5
284
100
AcDbEntity
  8
SCHEME_DIMS
100
AcDbBlockReference
 62
7
  6
CONTINUOUS
  2
_FILLED
 10
19.9673457386
 20
11.608900459
 41
0.1875
 42
0.1875
 43
0.1875
 50
90.0
  0
ENDBLK
  5
285
100
AcDbEntity
  8
0
  6
BYBLOCK
 62
0
100
AcDbBlockEnd
  0
BLOCK
  5
286
100
AcDbEntity
  8
SCHEME_DIMS
100
AcDbBlockBegin
 62
7
  6
CONTINUOUS
  2
*D5
 70
65
 10
0.0
 20
0.0
  3
*D5
  1

  0
MTEXT
  5
287
100
AcDbEntity
  8
SCHEME_DIMS
100
AcDbMText
 62
7
  6
CONTINUOUS
  7
STANDARD
 71
2
 72
1
 10
5.2893078793
 20
14.3690971328
 30
0.0
 11
1.0
 21
0.0
 31
0.0
 44
0.9
  1
26.0\P[1.02]
 40
0.1
 41
0.6
  0
LINE
  5
288
100
AcDbEntity
  8
SCHEME_DIMS
100
AcDbLine
 62
7
  6
CONTINUOUS
 10
4.8405055787
 20
13.6904639544
 11
4.8405055787
 21
14.4440971328
  0
LINE
  5
289
100
AcDbEntity
  8
SCHEME_DIMS
100
AcDbLine
 62
7
  6
CONTINUOUS
 10
5.8641276259
 20
13.7234969875
 11
5.8641276259
 21
14.4440971328
  0
LINE
  5
28A
100
AcDbEntity
  8
SCHEME_DIMS
100
AcDbLine
 62
7
  6
CONTINUOUS
 10
4.8405055787
 20
14.3190971328
 11
4.4405055787
 21
14.3190971328
  0
LINE
  5
28B
100
AcDbEntity
  8
SCHEME_DIMS
100
AcDbLine
 62
7
  6
CONTINUOUS
 10
5.8641276259
 20
14.3190971328
 11
6.2641276259
 21
14.3190971328
  0
INSERT
  5
28C
100
AcDbEntity
  8
SCHEME_DIMS
100
AcDbBlockReference
 62
7
  6
CONTINUOUS
  2
_FILLED
 10
4.8405055787
 20
14.3190971328
 41
0.1875
 42
0.1875
 43
0.1875
  0
INSERT
  5
28D
100
AcDbEntity
  8
SCHEME_DIMS
100
AcDbBlockReference
 62
7
  6
CONTINUOUS
  2
_FILLED
 10
5.8641276259
 20
14.3190971328
 41
0.1875
 42
0.1875
 43
0.1875
 50
180.0
  0
ENDBLK
  5
28E
100
AcDbEntity
  8
0
  6
BYBLOCK
 62
0
100
AcDbBlockEnd
  0
BLOCK
  5
28F
100
AcDbEntity
  8
SCHEME_DIMS
100
AcDbBlockBegin
 62
7
  6
CONTINUOUS
  2
*D6
 70
65
 10
0.0
 20
0.0
  3
*D6
  1

  0
MTEXT
  5
290
100
AcDbEntity
  8
SCHEME_DIMS
100
AcDbMText
 62
7
  6
CONTINUOUS
  7
STANDARD
 71
2
 72
1
 10
5.2652409552
 20
9.6951589089
 30
0.0
 11
1.0
 21
0.0
 31
0.0
 44
0.9
  1
50.0\P[1.97]
 40
0.1
 41
0.6
  0
LINE
  5
291
100
AcDbEntity
  8
SCHEME_DIMS
100
AcDbLine
 62
7
  6
CONTINUOUS
 10
4.3680646338
 20
10.9558492779
 11
4.3680646338
 21
9.5201589089
  0
LINE
  5
292
100
AcDbEntity
  8
SCHEME_DIMS
100
AcDbLine
 62
7
  6
CONTINUOUS
 10
6.3365685708
 20
10.9558492779
 11
6.3365685708
 21
9.5201589089
  0
LINE
  5
293
100
AcDbEntity
  8
SCHEME_DIMS
100
AcDbLine
 62
7
  6
CONTINUOUS
 10
4.3680646338
 20
9.6451589089
 11
4.9652409552
 21
9.6451589089
  0
LINE
  5
294
100
AcDbEntity
  8
SCHEME_DIMS
100
AcDbLine
 62
7
  6
CONTINUOUS
 10
6.3365685708
 20
9.6451589089
 11
5.7652409552
 21
9.6451589089
  0
INSERT
  5
295
100
AcDbEntity
  8
SCHEME_DIMS
100
AcDbBlockReference
 62
7
  6
CONTINUOUS
  2
_FILLED
 10
4.3680646338
 20
9.6451589089
 41
0.1875
 42
0.1875
 43
0.1875
 50
180.0
  0
INSERT
  5
296
100
AcDbEntity
  8
SCHEME_DIMS
100
AcDbBlockReference
 62
7
  6
CONTINUOUS
  2
_FILLED
 10
6.3365685708
 20
9.6451589089
 41
0.1875
 42
0.1875
 43
0.1875
  0
ENDBLK
  5
297
100
AcDbEntity
  8
0
  6
BYBLOCK
 62
0
100
AcDbBlockEnd
  0
BLOCK
  5
298
100
AcDbEntity
  8
SCHEME_DIMS
100
AcDbBlockBegin
 62
7
  6
CONTINUOUS
  2
*D7
 70
65
 10
0.0
 20
0.0
  3
*D7
  1

  0
MTEXT
  5
299
100
AcDbEntity
  8
SCHEME_DIMS
100
AcDbMText
 62
7
  6
CONTINUOUS
  7
STANDARD
 71
2
 72
1
 10
17.556006721
 20
8.9126299514
 30
0.0
 11
1.0
 21
0.0
 31
0.0
 44
0.9
  1
50.0\P[1.97]
 40
0.1
 41
0.6
  0
LINE
  5
29A
100
AcDbEntity
  8
SCHEME_DIMS
100
AcDbLine
 62
7
  6
CONTINUOUS
 10
18.6370029338
 20
10.9558492779
 11
18.6370029338
 21
8.7376299514
  0
LINE
  5
29B
100
AcDbEntity
  8
SCHEME_DIMS
100
AcDbLine
 62
7
  6
CONTINUOUS
 10
16.6684989967
 20
10.9558492779
 11
16.6684989967
 21
8.7376299514
  0
LINE
  5
29C
100
AcDbEntity
  8
SCHEME_DIMS
100
AcDbLine
 62
7
  6
CONTINUOUS
 10
18.6370029338
 20
8.8626299514
 11
18.056006721
 21
8.8626299514
  0
LINE
  5
29D
100
AcDbEntity
  8
SCHEME_DIMS
100
AcDbLine
 62
7
  6
CONTINUOUS
 10
16.6684989967
 20
8.8626299514
 11
17.256006721
 21
8.8626299514
  0
INSERT
  5
29E
100
AcDbEntity
  8
SCHEME_DIMS
100
AcDbBlockReference
 62
7
  6
CONTINUOUS
  2
_FILLED
 10
18.6370029338
 20
8.8626299514
 41
0.1875
 42
0.1875
 43
0.1875
  0
INSERT
  5
29F
100
AcDbEntity
  8
SCHEME_DIMS
100
AcDbBlockReference
 62
7
  6
CONTINUOUS
  2
_FILLED
 10
16.6684989967
 20
8.8626299514
 41
0.1875
 42
0.1875
 43
0.1875
 50
180.0
  0
ENDBLK
  5
2A0
100
AcDbEntity
  8
0
  6
BYBLOCK
 62
0
100
AcDbBlockEnd
  0
BLOCK
  5
2A1
100
AcDbEntity
  8
SCHEME_DIMS
100
AcDbBlockBegin
 62
7
  6
CONTINUOUS
  2
*D8
 70
65
 10
0.0
 20
0.0
  3
*D8
  1

  0
MTEXT
  5
2A2
100
AcDbEntity
  8
SCHEME_DIMS
100
AcDbMText
 62
7
  6
CONTINUOUS
  7
STANDARD
 71
3
 72
1
 10
15.7122978407
 20
9.6425160518
 30
0.0
 11
1.0
 21
0.0
 31
0.0
 44
0.9
  1
R25.000\P[.9843]
 40
0.1
 41
0.7
  0
LINE
  5
2A3
100
AcDbEntity
  8
SCHEME_DIMS
100
AcDbLine
 62
7
  6
CONTINUOUS
 10
16.9198863548
 20
10.361339841
 11
16.0622978407
 21
9.5925160518
  0
LINE
  5
2A4
100
AcDbEntity
  8
SCHEME_DIMS
100
AcDbLine
 62
7
  6
CONTINUOUS
 10
16.0622978407
 20
9.5925160518
 11
15.9122978407
 21
9.5925160518
  0
INSERT
  5
2A5
100
AcDbEntity
  8
SCHEME_DIMS
100
AcDbBlockReference
 62
7
  6
CONTINUOUS
  2
_FILLED
 10
16.9198863548
 20
10.361339841
 41
0.1875
 42
0.1875
 43
0.1875
 50
41.8760667565
  0
ENDBLK
  5
2A6
100
AcDbEntity
  8
0
  6
BYBLOCK
 62
0
100
AcDbBlockEnd
  0
BLOCK
  5
2A7
100
AcDbEntity
  8
SCHEME_DIMS
100
AcDbBlockBegin
 62
7
  6
CONTINUOUS
  2
*D9
 70
65
 10
0.0
 20
0.0
  3
*D9
  1

  0
MTEXT
  5
2A8
100
AcDbEntity
  8
SCHEME_DIMS
100
AcDbMText
 62
7
  6
CONTINUOUS
  7
STANDARD
 71
2
 72
1
 10
2.6478628629
 20
4.5210562468
 30
0.0
 11
1.0
 21
0.0
 31
0.0
 44
0.9
  1
12.0\P[.47]
 40
0.1
 41
0.5
  0
LINE
  5
2A9
100
AcDbEntity
  8
SCHEME_DIMS
100
AcDbLine
 62
7
  6
CONTINUOUS
 10
4.3055646338
 20
4.2348357743
 11
2.5728628629
 21
4.2348357743
  0
LINE
  5
2AA
100
AcDbEntity
  8
SCHEME_DIMS
100
AcDbLine
 62
7
  6
CONTINUOUS
 10
3.1758342285
 20
4.7072767192
 11
2.5728628629
 21
4.7072767192
  0
LINE
  5
2AB
100
AcDbEntity
  8
SCHEME_DIMS
100
AcDbLine
 62
7
  6
CONTINUOUS
 10
2.6978628629
 20
4.2348357743
 11
2.6978628629
 21
3.8348357743
  0
LINE
  5
2AC
100
AcDbEntity
  8
SCHEME_DIMS
100
AcDbLine
 62
7
  6
CONTINUOUS
 10
2.6978628629
 20
4.7072767192
 11
2.6978628629
 21
5.1072767192
  0
INSERT
  5
2AD
100
AcDbEntity
  8
SCHEME_DIMS
100
AcDbBlockReference
 62
7
  6
CONTINUOUS
  2
_FILLED
 10
2.6978628629
 20
4.2348357743
 41
0.1875
 42
0.1875
 43
0.1875
 50
90.0
  0
INSERT
  5
2AE
100
AcDbEntity
  8
SCHEME_DIMS
100
AcDbBlockReference
 62
7
  6
CONTINUOUS
  2
_FILLED
 10
2.6978628629
 20
4.7072767192
 41
0.1875
 42
0.1875
 43
0.1875
 50
270.0
  0
ENDBLK
  5
2AF
100
AcDbEntity
  8
0
  6
BYBLOCK
 62
0
100
AcDbBlockEnd
  0
BLOCK
  5
2B0
100
AcDbEntity
  8
SCHEME_DIMS
100
AcDbBlockBegin
 62
7
  6
CONTINUOUS
  2
*D10
 70
65
 10
0.0
 20
0.0
  3
*D10
  1

  0
MTEXT
  5
2B1
100
AcDbEntity
  8
SCHEME_DIMS
100
AcDbMText
 62
7
  6
CONTINUOUS
  7
STANDARD
 71
2
 72
1
 10
2.5978628629
 20
6.2796918633
 30
0.0
 11
1.0
 21
0.0
 31
0.0
 44
0.9
  1
52.0\P[2.05]
 40
0.1
 41
0.6
  0
LINE
  5
2B2
100
AcDbEntity
  8
SCHEME_DIMS
100
AcDbLine
 62
7
  6
CONTINUOUS
 10
6.3494173354
 20
4.7072767192
 11
5.5634443968
 21
4.7072767192
  0
LINE
  5
2B3
100
AcDbEntity
  8
SCHEME_DIMS
100
AcDbLine
 62
7
  6
CONTINUOUS
 10
5.0585108918
 20
4.7072767192
 11
4.3789742123
 21
4.7072767192
  0
LINE
  5
2B4
100
AcDbEntity
  8
SCHEME_DIMS
100
AcDbLine
 62
7
  6
CONTINUOUS
 10
3.7938176272
 20
4.7072767192
 11
2.5728628629
 21
4.7072767192
  0
LINE
  5
2B5
100
AcDbEntity
  8
SCHEME_DIMS
100
AcDbLine
 62
7
  6
CONTINUOUS
 10
6.493294546
 20
6.7545208137
 11
5.5613470613
 21
6.7545208137
  0
LINE
  5
2B6
100
AcDbEntity
  8
SCHEME_DIMS
100
AcDbLine
 62
7
  6
CONTINUOUS
 10
5.0375375375
 20
6.7545208137
 11
4.3627198627
 21
6.7545208137
  0
LINE
  5
2B7
100
AcDbEntity
  8
SCHEME_DIMS
100
AcDbLine
 62
7
  6
CONTINUOUS
 10
3.7398112398
 20
6.7545208137
 11
2.5728628629
 21
6.7545208137
  0
LINE
  5
2B8
100
AcDbEntity
  8
SCHEME_DIMS
100
AcDbLine
 62
7
  6
CONTINUOUS
 10
2.6978628629
 20
4.7072767192
 11
2.6978628629
 21
5.9296918633
  0
LINE
  5
2B9
100
AcDbEntity
  8
SCHEME_DIMS
100
AcDbLine
 62
7
  6
CONTINUOUS
 10
2.6978628629
 20
6.7545208137
 11
2.6978628629
 21
6.3796918633
  0
INSERT
  5
2BA
100
AcDbEntity
  8
SCHEME_DIMS
100
AcDbBlockReference
 62
7
  6
CONTINUOUS
  2
_FILLED
 10
2.6978628629
 20
4.7072767192
 41
0.1875
 42
0.1875
 43
0.1875
 50
270.0
  0
INSERT
  5
2BB
100
AcDbEntity
  8
SCHEME_DIMS
100
AcDbBlockReference
 62
7
  6
CONTINUOUS
  2
_FILLED
 10
2.6978628629
 20
6.7545208137
 41
0.1875
 42
0.1875
 43
0.1875
 50
90.0
  0
ENDBLK
  5
2BC
100
AcDbEntity
  8
0
  6
BYBLOCK
 62
0
100
AcDbBlockEnd
  0
BLOCK
  5
2BD
100
AcDbEntity
  8
SCHEME_DIMS
100
AcDbBlockBegin
 62
7
  6
CONTINUOUS
  2
*D11
 70
65
 10
0.0
 20
0.0
  3
*D11
  1

  0
MTEXT
  5
2BE
100
AcDbEntity
  8
SCHEME_DIMS
100
AcDbMText
 62
7
  6
CONTINUOUS
  7
STANDARD
 71
3
 72
1
 10
3.1535780066
 20
2.5942813099
 30
0.0
 11
1.0
 21
0.0
 31
0.0
 44
0.9
  1
6.0\P[.24]
 40
0.1
 41
0.5
  0
LINE
  5
2BF
100
AcDbEntity
  8
SCHEME_DIMS
100
AcDbLine
 62
7
  6
CONTINUOUS
 10
3.8562536102
 20
4.4085562468
 11
3.8562536102
 21
2.4192813099
  0
LINE
  5
2C0
100
AcDbEntity
  8
SCHEME_DIMS
100
AcDbLine
 62
7
  6
CONTINUOUS
 10
4.0924740826
 20
3.8189508934
 11
4.0924740826
 21
2.4192813099
  0
LINE
  5
2C1
100
AcDbEntity
  8
SCHEME_DIMS
100
AcDbLine
 62
7
  6
CONTINUOUS
 10
3.8562536102
 20
2.5442813099
 11
3.4535780066
 21
2.5442813099
  0
LINE
  5
2C2
100
AcDbEntity
  8
SCHEME_DIMS
100
AcDbLine
 62
7
  6
CONTINUOUS
 10
4.0924740826
 20
2.5442813099
 11
4.4924740826
 21
2.5442813099
  0
INSERT
  5
2C3
100
AcDbEntity
  8
SCHEME_DIMS
100
AcDbBlockReference
 62
7
  6
CONTINUOUS
  2
_FILLED
 10
3.8562536102
 20
2.5442813099
 41
0.1875
 42
0.1875
 43
0.1875
  0
INSERT
  5
2C4
100
AcDbEntity
  8
SCHEME_DIMS
100
AcDbBlockReference
 62
7
  6
CONTINUOUS
  2
_FILLED
 10
4.0924740826
 20
2.5442813099
 41
0.1875
 42
0.1875
 43
0.1875
 50
180.0
  0
ENDBLK
  5
2C5
100
AcDbEntity
  8
0
  6
BYBLOCK
 62
0
100
AcDbBlockEnd
  0
BLOCK
  5
2C6
100
AcDbEntity
  8
SCHEME_DIMS
100
AcDbBlockBegin
 62
7
  6
CONTINUOUS
  2
*D12
 70
65
 10
0.0
 20
0.0
  3
*D12
  1

  0
MTEXT
  5
2C7
100
AcDbEntity
  8
SCHEME_DIMS
100
AcDbMText
 62
7
  6
CONTINUOUS
  7
STANDARD
 71
2
 72
1
 10
5.2523166023
 20
2.5942813099
 30
0.0
 11
1.0
 21
0.0
 31
0.0
 44
0.9
  1
64.0\P[2.52]
 40
0.1
 41
0.6
  0
LINE
  5
2C8
100
AcDbEntity
  8
SCHEME_DIMS
100
AcDbLine
 62
7
  6
CONTINUOUS
 10
4.0924740826
 20
6.4427175172
 11
4.0924740826
 21
4.9538154226
  0
LINE
  5
2C9
100
AcDbEntity
  8
SCHEME_DIMS
100
AcDbLine
 62
7
  6
CONTINUOUS
 10
4.0924740826
 20
4.5291049979
 11
4.0924740826
 21
2.4192813099
  0
LINE
  5
2CA
100
AcDbEntity
  8
SCHEME_DIMS
100
AcDbLine
 62
7
  6
CONTINUOUS
 10
6.612159122
 20
6.4710315455
 11
6.612159122
 21
4.9868484556
  0
LINE
  5
2CB
100
AcDbEntity
  8
SCHEME_DIMS
100
AcDbLine
 62
7
  6
CONTINUOUS
 10
6.612159122
 20
4.4771959459
 11
6.612159122
 21
2.4192813099
  0
LINE
  5
2CC
100
AcDbEntity
  8
SCHEME_DIMS
100
AcDbLine
 62
7
  6
CONTINUOUS
 10
4.0924740826
 20
2.5442813099
 11
4.9523166023
 21
2.5442813099
  0
LINE
  5
2CD
100
AcDbEntity
  8
SCHEME_DIMS
100
AcDbLine
 62
7
  6
CONTINUOUS
 10
6.612159122
 20
2.5442813099
 11
5.7523166023
 21
2.5442813099
  0
INSERT
  5
2CE
100
AcDbEntity
  8
SCHEME_DIMS
100
AcDbBlockReference
 62
7
  6
CONTINUOUS
  2
_FILLED
 10
4.0924740826
 20
2.5442813099
 41
0.1875
 42
0.1875
 43
0.1875
 50
180.0
  0
INSERT
  5
2CF
100
AcDbEntity
  8
SCHEME_DIMS
100
AcDbBlockReference
 62
7
  6
CONTINUOUS
  2
_FILLED
 10
6.612159122
 20
2.5442813099
 41
0.1875
 42
0.1875
 43
0.1875
  0
ENDBLK
  5
2D0
100
AcDbEntity
  8
0
  6
BYBLOCK
 62
0
100
AcDbBlockEnd
  0
BLOCK
  5
2D1
100
AcDbEntity
  8
SCHEME_DIMS
100
AcDbBlockBegin
 62
7
  6
CONTINUOUS
  2
*D13
 70
65
 10
0.0
 20
0.0
  3
*D13
  1

  0
MTEXT
  5
2D2
100
AcDbEntity
  8
SCHEME_DIMS
100
AcDbMText
 62
7
  6
CONTINUOUS
  7
STANDARD
 71
2
 72
1
 10
8.3355874446
 20
5.0328672704
 30
0.0
 11
1.0
 21
0.0
 31
0.0
 44
0.9
  1
38.0\P[1.50]
 40
0.1
 41
0.6
  0
LINE
  5
2D3
100
AcDbEntity
  8
SCHEME_DIMS
100
AcDbLine
 62
7
  6
CONTINUOUS
 10
6.3990685708
 20
4.2348357743
 11
8.5605874446
 21
4.2348357743
  0
LINE
  5
2D4
100
AcDbEntity
  8
SCHEME_DIMS
100
AcDbLine
 62
7
  6
CONTINUOUS
 10
4.583869795
 20
5.7308987665
 11
6.1339196339
 21
5.7308987665
  0
LINE
  5
2D5
100
AcDbEntity
  8
SCHEME_DIMS
100
AcDbLine
 62
7
  6
CONTINUOUS
 10
6.5539110539
 20
5.7308987665
 11
8.5605874446
 21
5.7308987665
  0
LINE
  5
2D6
100
AcDbEntity
  8
SCHEME_DIMS
100
AcDbLine
 62
7
  6
CONTINUOUS
 10
8.4355874446
 20
4.2348357743
 11
8.4355874446
 21
4.6828672704
  0
LINE
  5
2D7
100
AcDbEntity
  8
SCHEME_DIMS
100
AcDbLine
 62
7
  6
CONTINUOUS
 10
8.4355874446
 20
5.7308987665
 11
8.4355874446
 21
5.1328672704
  0
INSERT
  5
2D8
100
AcDbEntity
  8
SCHEME_DIMS
100
AcDbBlockReference
 62
7
  6
CONTINUOUS
  2
_FILLED
 10
8.4355874446
 20
4.2348357743
 41
0.1875
 42
0.1875
 43
0.1875
 50
270.0
  0
INSERT
  5
2D9
100
AcDbEntity
  8
SCHEME_DIMS
100
AcDbBlockReference
 62
7
  6
CONTINUOUS
  2
_FILLED
 10
8.4355874446
 20
5.7308987665
 41
0.1875
 42
0.1875
 43
0.1875
 50
90.0
  0
ENDBLK
  5
2DA
100
AcDbEntity
  8
0
  6
BYBLOCK
 62
0
100
AcDbBlockEnd
  0
BLOCK
  5
2DB
100
AcDbEntity
  8
SCHEME_DIMS
100
AcDbBlockBegin
 62
7
  6
CONTINUOUS
  2
*D14
 70
65
 10
0.0
 20
0.0
  3
*D14
  1

  0
MTEXT
  5
2DC
100
AcDbEntity
  8
SCHEME_DIMS
100
AcDbMText
 62
7
  6
CONTINUOUS
  7
STANDARD
 71
2
 72
1
 10
7.4285947376
 20
4.8852294751
 30
0.0
 11
1.0
 21
0.0
 31
0.0
 44
0.9
  1
30.5\P[1.20]
 40
0.1
 41
0.6
  0
LINE
  5
2DD
100
AcDbEntity
  8
SCHEME_DIMS
100
AcDbLine
 62
7
  6
CONTINUOUS
 10
6.3990685708
 20
4.2348357743
 11
7.6535947376
 21
4.2348357743
  0
LINE
  5
2DE
100
AcDbEntity
  8
SCHEME_DIMS
100
AcDbLine
 62
7
  6
CONTINUOUS
 10
5.9148166023
 20
5.4356231759
 11
7.6535947376
 21
5.4356231759
  0
LINE
  5
2DF
100
AcDbEntity
  8
SCHEME_DIMS
100
AcDbLine
 62
7
  6
CONTINUOUS
 10
7.5285947376
 20
4.2348357743
 11
7.5285947376
 21
4.5352294751
  0
LINE
  5
2E0
100
AcDbEntity
  8
SCHEME_DIMS
100
AcDbLine
 62
7
  6
CONTINUOUS
 10
7.5285947376
 20
5.4356231759
 11
7.5285947376
 21
4.9852294751
  0
INSERT
  5
2E1
100
AcDbEntity
  8
SCHEME_DIMS
100
AcDbBlockReference
 62
7
  6
CONTINUOUS
  2
_FILLED
 10
7.5285947376
 20
4.2348357743
 41
0.1875
 42
0.1875
 43
0.1875
 50
270.0
  0
INSERT
  5
2E2
100
AcDbEntity
  8
SCHEME_DIMS
100
AcDbBlockReference
 62
7
  6
CONTINUOUS
  2
_FILLED
 10
7.5285947376
 20
5.4356231759
 41
0.1875
 42
0.1875
 43
0.1875
 50
90.0
  0
ENDBLK
  5
2E3
100
AcDbEntity
  8
0
  6
BYBLOCK
 62
0
100
AcDbBlockEnd
  0
BLOCK
  5
2E4
100
AcDbEntity
  8
SCHEME_DIMS
100
AcDbBlockBegin
 62
7
  6
CONTINUOUS
  2
*D15
 70
65
 10
0.0
 20
0.0
  3
*D15
  1

  0
MTEXT
  5
2E5
100
AcDbEntity
  8
SCHEME_DIMS
100
AcDbMText
 62
7
  6
CONTINUOUS
  7
STANDARD
 71
2
 72
1
 10
3.326971686
 20
5.8847168703
 30
0.0
 11
1.0
 21
0.0
 31
0.0
 44
0.9
  1
15.0\P[.59]
 40
0.1
 41
0.5
  0
LINE
  5
2E6
100
AcDbEntity
  8
SCHEME_DIMS
100
AcDbLine
 62
7
  6
CONTINUOUS
 10
5.568452381
 20
5.4356231759
 11
5.1507936508
 21
5.4356231759
  0
LINE
  5
2E7
100
AcDbEntity
  8
SCHEME_DIMS
100
AcDbLine
 62
7
  6
CONTINUOUS
 10
4.5750750751
 20
5.4356231759
 11
3.251971686
 21
5.4356231759
  0
LINE
  5
2E8
100
AcDbEntity
  8
SCHEME_DIMS
100
AcDbLine
 62
7
  6
CONTINUOUS
 10
5.568452381
 20
6.026174357
 11
5.1460746461
 21
6.026174357
  0
LINE
  5
2E9
100
AcDbEntity
  8
SCHEME_DIMS
100
AcDbLine
 62
7
  6
CONTINUOUS
 10
4.5514800515
 20
6.026174357
 11
3.251971686
 21
6.026174357
  0
LINE
  5
2EA
100
AcDbEntity
  8
SCHEME_DIMS
100
AcDbLine
 62
7
  6
CONTINUOUS
 10
3.376971686
 20
5.4356231759
 11
3.376971686
 21
5.0356231759
  0
LINE
  5
2EB
100
AcDbEntity
  8
SCHEME_DIMS
100
AcDbLine
 62
7
  6
CONTINUOUS
 10
3.376971686
 20
6.026174357
 11
3.376971686
 21
6.426174357
  0
INSERT
  5
2EC
100
AcDbEntity
  8
SCHEME_DIMS
100
AcDbBlockReference
 62
7
  6
CONTINUOUS
  2
_FILLED
 10
3.376971686
 20
5.4356231759
 41
0.1875
 42
0.1875
 43
0.1875
 50
90.0
  0
INSERT
  5
2ED
100
AcDbEntity
  8
SCHEME_DIMS
100
AcDbBlockReference
 62
7
  6
CONTINUOUS
  2
_FILLED
 10
3.376971686
 20
6.026174357
 41
0.1875
 42
0.1875
 43
0.1875
 50
270.0
  0
ENDBLK
  5
2EE
100
AcDbEntity
  8
0
  6
BYBLOCK
 62
0
100
AcDbBlockEnd
  0
BLOCK
  5
2EF
100
AcDbEntity
  8
SCHEME_DIMS
100
AcDbBlockBegin
 62
7
  6
CONTINUOUS
  2
*D16
 70
65
 10
0.0
 20
0.0
  3
*D16
  1

  0
MTEXT
  5
2F0
100
AcDbEntity
  8
SCHEME_DIMS
100
AcDbMText
 62
7
  6
CONTINUOUS
  7
STANDARD
 71
3
 72
1
 10
2.8014461604
 20
7.293434749
 30
0.0
 11
1.0
 21
0.0
 31
0.0
 44
0.9
  1
2X \Fgdt;{\Fgdt;n}\Ftxt;7.0\P[.28]
 40
0.1
 41
0.7333333333
  0
LINE
  5
2F1
100
AcDbEntity
  8
SCHEME_DIMS
100
AcDbLine
 62
7
  6
CONTINUOUS
 10
4.7426289834
 20
6.1095779795
 11
3.2514461604
 21
7.243434749
  0
LINE
  5
2F2
100
AcDbEntity
  8
SCHEME_DIMS
100
AcDbLine
 62
7
  6
CONTINUOUS
 10
3.2514461604
 20
7.243434749
 11
3.1014461604
 21
7.243434749
  0
INSERT
  5
2F3
100
AcDbEntity
  8
SCHEME_DIMS
100
AcDbBlockReference
 62
7
  6
CONTINUOUS
  2
_FILLED
 10
4.7426289834
 20
6.1095779795
 41
0.1875
 42
0.1875
 43
0.1875
 50
322.7515824511
  0
ENDBLK
  5
2F4
100
AcDbEntity
  8
0
  6
BYBLOCK
 62
0
100
AcDbBlockEnd
  0
BLOCK
  5
2F5
100
AcDbEntity
  8
SCHEME_DIMS
100
AcDbBlockBegin
 62
7
  6
CONTINUOUS
  2
*D17
 70
65
 10
0.0
 20
0.0
  3
*D17
  1

  0
MTEXT
  5
2F6
100
AcDbEntity
  8
SCHEME_DIMS
100
AcDbMText
 62
7
  6
CONTINUOUS
  7
STANDARD
 71
2
 72
1
 10
5.2523166023
 20
3.1487329043
 30
0.0
 11
1.0
 21
0.0
 31
0.0
 44
0.9
  1
52.0\P[2.05]
 40
0.1
 41
0.6
  0
LINE
  5
2F7
100
AcDbEntity
  8
SCHEME_DIMS
100
AcDbLine
 62
7
  6
CONTINUOUS
 10
4.3286945551
 20
5.5173906154
 11
4.3286945551
 21
2.9737329043
  0
LINE
  5
2F8
100
AcDbEntity
  8
SCHEME_DIMS
100
AcDbLine
 62
7
  6
CONTINUOUS
 10
6.3759386496
 20
5.507952606
 11
6.3759386496
 21
2.9737329043
  0
LINE
  5
2F9
100
AcDbEntity
  8
SCHEME_DIMS
100
AcDbLine
 62
7
  6
CONTINUOUS
 10
4.3286945551
 20
3.0987329043
 11
4.9523166023
 21
3.0987329043
  0
LINE
  5
2FA
100
AcDbEntity
  8
SCHEME_DIMS
100
AcDbLine
 62
7
  6
CONTINUOUS
 10
6.3759386496
 20
3.0987329043
 11
5.7523166023
 21
3.0987329043
  0
INSERT
  5
2FB
100
AcDbEntity
  8
SCHEME_DIMS
100
AcDbBlockReference
 62
7
  6
CONTINUOUS
  2
_FILLED
 10
4.3286945551
 20
3.0987329043
 41
0.1875
 42
0.1875
 43
0.1875
 50
180.0
  0
INSERT
  5
2FC
100
AcDbEntity
  8
SCHEME_DIMS
100
AcDbBlockReference
 62
7
  6
CONTINUOUS
  2
_FILLED
 10
6.3759386496
 20
3.0987329043
 41
0.1875
 42
0.1875
 43
0.1875
  0
ENDBLK
  5
2FD
100
AcDbEntity
  8
0
  6
BYBLOCK
 62
0
100
AcDbBlockEnd
  0
BLOCK
  5
2FE
100
AcDbEntity
  8
SCHEME_DIMS
100
AcDbBlockBegin
 62
7
  6
CONTINUOUS
  2
*D18
 70
65
 10
0.0
 20
0.0
  3
*D18
  1

  0
MTEXT
  5
2FF
100
AcDbEntity
  8
SCHEME_DIMS
100
AcDbMText
 62
7
  6
CONTINUOUS
  7
STANDARD
 71
2
 72
1
 10
4.6223953425
 20
7.7860904524
 30
0.0
 11
1.0
 21
0.0
 31
0.0
 44
0.9
  1
32.0\P[1.26]
 40
0.1
 41
0.6
  0
LINE
  5
300
100
AcDbEntity
  8
SCHEME_DIMS
100
AcDbLine
 62
7
  6
CONTINUOUS
 10
4.0924740826
 20
6.9774669741
 11
4.0924740826
 21
7.8610904524
  0
LINE
  5
301
100
AcDbEntity
  8
SCHEME_DIMS
100
AcDbLine
 62
7
  6
CONTINUOUS
 10
5.3523166023
 20
6.9491529458
 11
5.3523166023
 21
7.8610904524
  0
LINE
  5
302
100
AcDbEntity
  8
SCHEME_DIMS
100
AcDbLine
 62
7
  6
CONTINUOUS
 10
4.0924740826
 20
7.7360904524
 11
3.6924740826
 21
7.7360904524
  0
LINE
  5
303
100
AcDbEntity
  8
SCHEME_DIMS
100
AcDbLine
 62
7
  6
CONTINUOUS
 10
5.3523166023
 20
7.7360904524
 11
5.7523166023
 21
7.7360904524
  0
INSERT
  5
304
100
AcDbEntity
  8
SCHEME_DIMS
100
AcDbBlockReference
 62
7
  6
CONTINUOUS
  2
_FILLED
 10
4.0924740826
 20
7.7360904524
 41
0.1875
 42
0.1875
 43
0.1875
  0
INSERT
  5
305
100
AcDbEntity
  8
SCHEME_DIMS
100
AcDbBlockReference
 62
7
  6
CONTINUOUS
  2
_FILLED
 10
5.3523166023
 20
7.7360904524
 41
0.1875
 42
0.1875
 43
0.1875
 50
180.0
  0
ENDBLK
  5
306
100
AcDbEntity
  8
0
  6
BYBLOCK
 62
0
100
AcDbBlockEnd
  0
BLOCK
  5
307
100
AcDbEntity
  8
SCHEME_DIMS
100
AcDbBlockBegin
 62
7
  6
CONTINUOUS
  2
*D19
 70
65
 10
0.0
 20
0.0
  3
*D19
  1

  0
MTEXT
  5
308
100
AcDbEntity
  8
SCHEME_DIMS
100
AcDbMText
 62
7
  6
CONTINUOUS
  7
STANDARD
 71
1
 72
1
 10
7.4870962232
 20
12.8871476635
 30
0.0
 11
1.0
 21
0.0
 31
0.0
 44
0.9
  1
2.6\P[.10]
 40
0.1
 41
0.5
  0
LINE
  5
309
100
AcDbEntity
  8
SCHEME_DIMS
100
AcDbLine
 62
7
  6
CONTINUOUS
 10
6.9108795944
 20
12.2939398291
 11
7.3620962232
 21
12.2939398291
  0
LINE
  5
30A
100
AcDbEntity
  8
SCHEME_DIMS
100
AcDbLine
 62
7
  6
CONTINUOUS
 10
6.9108795944
 20
12.3963020338
 11
7.3620962232
 21
12.3963020338
  0
LINE
  5
30B
100
AcDbEntity
  8
SCHEME_DIMS
100
AcDbLine
 62
7
  6
CONTINUOUS
 10
7.2370962232
 20
12.2939398291
 11
7.2370962232
 21
11.8939398291
  0
LINE
  5
30C
100
AcDbEntity
  8
SCHEME_DIMS
100
AcDbLine
 62
7
  6
CONTINUOUS
 10
7.2370962232
 20
12.3963020338
 11
7.2370962232
 21
12.8371476635
  0
LINE
  5
30D
100
AcDbEntity
  8
SCHEME_DIMS
100
AcDbLine
 62
7
  6
CONTINUOUS
 10
7.2370962232
 20
12.8371476635
 11
7.3870962232
 21
12.8371476635
  0
INSERT
  5
30E
100
AcDbEntity
  8
SCHEME_DIMS
100
AcDbBlockReference
 62
7
  6
CONTINUOUS
  2
_FILLED
 10
7.2370962232
 20
12.2939398291
 41
0.1875
 42
0.1875
 43
0.1875
 50
90.0
  0
INSERT
  5
30F
100
AcDbEntity
  8
SCHEME_DIMS
100
AcDbBlockReference
 62
7
  6
CONTINUOUS
  2
_FILLED
 10
7.2370962232
 20
12.3963020338
 41
0.1875
 42
0.1875
 43
0.1875
 50
270.0
  0
ENDBLK
  5
310
100
AcDbEntity
  8
0
  6
BYBLOCK
 62
0
100
AcDbBlockEnd
  0
BLOCK
  5
311
100
AcDbEntity
  8
SCHEME_DIMS
100
AcDbBlockBegin
 62
7
  6
CONTINUOUS
  2
*D20
 70
65
 10
0.0
 20
0.0
  3
*D20
  1

  0
MTEXT
  5
312
100
AcDbEntity
  8
SCHEME_DIMS
100
AcDbMText
 62
7
  6
CONTINUOUS
  7
STANDARD
 71
2
 72
1
 10
9.4695216546
 20
11.3077557716
 30
0.0
 11
1.0
 21
0.0
 31
0.0
 44
0.9
  1
57.4\P[2.26]
 40
0.1
 41
0.6
  0
LINE
  5
313
100
AcDbEntity
  8
SCHEME_DIMS
100
AcDbLine
 62
7
  6
CONTINUOUS
 10
10.2606194496
 20
12.2939398291
 11
9.4445216546
 21
12.2939398291
  0
LINE
  5
314
100
AcDbEntity
  8
SCHEME_DIMS
100
AcDbLine
 62
7
  6
CONTINUOUS
 10
13.3232602681
 20
10.0340973094
 11
9.4445216546
 21
10.0340973094
  0
LINE
  5
315
100
AcDbEntity
  8
SCHEME_DIMS
100
AcDbLine
 62
7
  6
CONTINUOUS
 10
9.5695216546
 20
12.2939398291
 11
9.5695216546
 21
11.4077557716
  0
LINE
  5
316
100
AcDbEntity
  8
SCHEME_DIMS
100
AcDbLine
 62
7
  6
CONTINUOUS
 10
9.5695216546
 20
10.0340973094
 11
9.5695216546
 21
10.9577557716
  0
INSERT
  5
317
100
AcDbEntity
  8
SCHEME_DIMS
100
AcDbBlockReference
 62
7
  6
CONTINUOUS
  2
_FILLED
 10
9.5695216546
 20
12.2939398291
 41
0.1875
 42
0.1875
 43
0.1875
 50
90.0
  0
INSERT
  5
318
100
AcDbEntity
  8
SCHEME_DIMS
100
AcDbBlockReference
 62
7
  6
CONTINUOUS
  2
_FILLED
 10
9.5695216546
 20
10.0340973094
 41
0.1875
 42
0.1875
 43
0.1875
 50
270.0
  0
ENDBLK
  5
319
100
AcDbEntity
  8
0
  6
BYBLOCK
 62
0
100
AcDbBlockEnd
  0
BLOCK
  5
31A
100
AcDbEntity
  8
SCHEME_DIMS
100
AcDbBlockBegin
 62
7
  6
CONTINUOUS
  2
*D21
 70
65
 10
0.0
 20
0.0
  3
*D21
  1

  0
MTEXT
  5
31B
100
AcDbEntity
  8
SCHEME_DIMS
100
AcDbMText
 62
7
  6
CONTINUOUS
  7
STANDARD
 71
2
 72
1
 10
15.5361132462
 20
7.8570457886
 30
0.0
 11
1.0
 21
0.0
 31
0.0
 44
0.9
  1
30\Fgdt;{\Fgdt;~}
 40
0.1
 41
0.2666666667
  0
LINE
  5
31C
100
AcDbEntity
  8
SCHEME_DIMS
100
AcDbLine
 62
7
  6
CONTINUOUS
 10
15.3352992162
 20
4.9814506035
 11
15.7332391882
 21
6.4665827976
  0
LINE
  5
31D
100
AcDbEntity
  8
SCHEME_DIMS
100
AcDbLine
 62
7
  6
CONTINUOUS
 10
15.8728113326
 20
6.9874731319
 11
16.1058120166
 21
7.8570435226
  0
LINE
  5
31E
100
AcDbEntity
  8
SCHEME_DIMS
100
AcDbLine
 62
7
  6
CONTINUOUS
 10
15.7386051155
 20
4.9751888221
 11
15.3241964139
 21
6.5217831516
  0
LINE
  5
31F
100
AcDbEntity
  8
SCHEME_DIMS
100
AcDbLine
 62
7
  6
CONTINUOUS
 10
15.2119279512
 20
6.9407747583
 11
14.9664144758
 21
7.8570435226
  0
ARC
  5
320
100
AcDbEntity
  8
SCHEME_DIMS
100
AcDbCircle
 62
7
  6
CONTINUOUS
 10
15.5361132462
 20
5.7308987665
 40
2.0761470222
100
AcDbArc
 50
75.0
 51
83.5470271423
  0
ARC
  5
321
100
AcDbEntity
  8
SCHEME_DIMS
100
AcDbCircle
 62
7
  6
CONTINUOUS
 10
15.5361132462
 20
5.7308987665
 40
2.0761470222
100
AcDbArc
 50
96.4529728577
 51
105.0
  0
SOLID
  5
322
100
AcDbEntity
  8
SCHEME_DIMS
100
AcDbTrace
 62
7
  6
CONTINUOUS
 10
15.88362528
 20
7.7460869546
 11
16.073459636
 21
7.7363027943
 12
15.8970598377
 22
7.8071259803
 13
15.8970598377
 23
7.8071259803
  0
SOLID
  5
323
100
AcDbEntity
  8
SCHEME_DIMS
100
AcDbTrace
 62
7
  6
CONTINUOUS
 10
15.1751666547
 20
7.8071259803
 11
14.9987668564
 21
7.7363027943
 12
15.1886012124
 22
7.7460869546
 13
15.1886012124
 23
7.7460869546
  0
ENDBLK
  5
324
100
AcDbEntity
  8
0
  6
BYBLOCK
 62
0
100
AcDbBlockEnd
  0
BLOCK
  5
325
100
AcDbEntity
  8
SCHEME_DIMS
100
AcDbBlockBegin
 62
7
  6
CONTINUOUS
  2
*D22
 70
65
 10
0.0
 20
0.0
  3
*D22
  1

  0
MTEXT
  5
326
100
AcDbEntity
  8
SCHEME_DIMS
100
AcDbMText
 62
7
  6
CONTINUOUS
  7
STANDARD
 71
2
 72
1
 10
5.2523166023
 20
3.7388272201
 30
0.0
 11
1.0
 21
0.0
 31
0.0
 44
0.9
  1
25.400\P[1.0000]
 40
0.1
 41
0.8
  0
LINE
  5
327
100
AcDbEntity
  8
SCHEME_DIMS
100
AcDbLine
 62
7
  6
CONTINUOUS
 10
4.8523166023
 20
5.3731231759
 11
4.8523166023
 21
3.5638272201
  0
LINE
  5
328
100
AcDbEntity
  8
SCHEME_DIMS
100
AcDbLine
 62
7
  6
CONTINUOUS
 10
5.8523166023
 20
5.3731231759
 11
5.8523166023
 21
3.5638272201
  0
LINE
  5
329
100
AcDbEntity
  8
SCHEME_DIMS
100
AcDbLine
 62
7
  6
CONTINUOUS
 10
4.8523166023
 20
3.6888272201
 11
4.4523166023
 21
3.6888272201
  0
LINE
  5
32A
100
AcDbEntity
  8
SCHEME_DIMS
100
AcDbLine
 62
7
  6
CONTINUOUS
 10
5.8523166023
 20
3.6888272201
 11
6.2523166023
 21
3.6888272201
  0
INSERT
  5
32B
100
AcDbEntity
  8
SCHEME_DIMS
100
AcDbBlockReference
 62
7
  6
CONTINUOUS
  2
_FILLED
 10
4.8523166023
 20
3.6888272201
 41
0.1875
 42
0.1875
 43
0.1875
  0
INSERT
  5
32C
100
AcDbEntity
  8
SCHEME_DIMS
100
AcDbBlockReference
 62
7
  6
CONTINUOUS
  2
_FILLED
 10
5.8523166023
 20
3.6888272201
 41
0.1875
 42
0.1875
 43
0.1875
 50
180.0
  0
ENDBLK
  5
32D
100
AcDbEntity
  8
0
  6
BYBLOCK
 62
0
100
AcDbBlockEnd
  0
BLOCK
  5
32E
100
AcDbEntity
  8
0
100
AcDbBlockBegin
  2
*T1
 70
1
 10
0.0
 20
0.0
  3
*T1
  1

  0
LINE
  5
32F
100
AcDbEntity
  8
0
100
AcDbLine
 62
7
  6
CONTINUOUS
 10
4.35
 20
0.0
 11
0.0
 21
0.0
  0
LINE
  5
330
100
AcDbEntity
  8
0
100
AcDbLine
 62
7
  6
CONTINUOUS
 10
4.35
 20
0.0
 11
4.35
 21
1.92
  0
LINE
  5
331
100
AcDbEntity
  8
0
100
AcDbLine
 62
7
  6
CONTINUOUS
 10
4.35
 20
1.92
 11
0.0
 21
1.92
  0
LINE
  5
332
100
AcDbEntity
  8
0
100
AcDbLine
 62
7
  6
CONTINUOUS
 10
0.0
 20
0.0
 11
0.0
 21
1.92
  0
MTEXT
  5
333
100
AcDbEntity
  8
NOTES
100
AcDbMText
 62
7
  6
CONTINUOUS
  7
STANDARD
 71
2
 72
1
 10
4.125
 20
0.48
 30
0.0
 11
1.0
 21
0.0
 31
0.0
 44
0.9
  1
A
 40
0.1
 41
0.2
  0
MTEXT
  5
334
100
AcDbEntity
  8
NOTES
100
AcDbMText
 62
7
  6
CONTINUOUS
  7
STANDARD
 71
2
 72
1
 10
2.175
 20
1.08
 30
0.0
 11
1.0
 21
0.0
 31
0.0
 44
0.9
  1
LMBWLB92RAS-803668\P 
 40
0.1
 41
3.6
  0
ENDBLK
  5
335
100
AcDbEntity
  8
0
  6
BYBLOCK
 62
0
100
AcDbBlockEnd
  0
ENDSEC
  0
SECTION
  2
ENTITIES
  0
MTEXT
  5
336
100
AcDbEntity
  8
0
100
AcDbMText
 62
7
  6
CONTINUOUS
  7
TEXTSTYLE_2
 71
2
 72
1
 10
15.7174677477
 20
1.6655662523
 30
0.0
 11
1.0
 21
0.0
 31
0.0
 44
0.9
  1
THIRD ANGLE PROJECTION
 40
0.1
 41
1.76
  0
MTEXT
  5
337
100
AcDbEntity
  8
0
100
AcDbMText
 62
7
  6
CONTINUOUS
  7
STANDARD
 71
1
 72
1
 10
17.55
 20
1.32
 30
0.0
 11
1.0
 21
0.0
 31
0.0
 44
0.9
  1
DRAWING NO.
 40
0.08
 41
0.88
  0
MTEXT
  5
338
100
AcDbEntity
  8
0
100
AcDbMText
 62
7
  6
CONTINUOUS
  7
TEXTSTYLE_2
 71
1
 72
1
 10
16.75
 20
2.08
 30
0.0
 11
1.0
 21
0.0
 31
0.0
 44
0.9
  1
TITLE
 40
0.1
 41
0.4
  0
MTEXT
  5
339
100
AcDbEntity
  8
0
100
AcDbMText
 62
7
  6
CONTINUOUS
  7
STANDARD
 71
1
 72
1
 10
16.75
 20
1.32
 30
0.0
 11
1.0
 21
0.0
 31
0.0
 44
0.9
  1
SIZE
 40
0.08
 41
0.32
  0
MTEXT
  5
33A
100
AcDbEntity
  8
0
100
AcDbMText
 62
7
  6
CONTINUOUS
  7
STANDARD
 71
1
 72
1
 10
16.75
 20
0.95
 30
0.0
 11
1.0
 21
0.0
 31
0.0
 44
0.9
  1
SCALE
 40
0.08
 41
0.4
  0
MTEXT
  5
33B
100
AcDbEntity
  8
0
100
AcDbMText
 62
7
  6
CONTINUOUS
  7
TEXTSTYLE_2
 71
2
 72
1
 10
17.17
 20
1.2
 30
0.0
 11
1.0
 21
0.0
 31
0.0
 44
0.9
  1
C
 40
0.1
 41
0.08
  0
MTEXT
  5
33C
100
AcDbEntity
  8
0
100
AcDbMText
 62
7
  6
CONTINUOUS
  7
STANDARD
 71
1
 72
1
 10
18.925
 20
0.95
 30
0.0
 11
1.0
 21
0.0
 31
0.0
 44
0.9
  1
SHEET
 40
0.08
 41
0.4
  0
MTEXT
  5
33D
100
AcDbEntity
  8
0
100
AcDbMText
 62
7
  6
CONTINUOUS
  7
STANDARD
 71
1
 72
1
 10
20.3
 20
1.32
 30
0.0
 11
1.0
 21
0.0
 31
0.0
 44
0.9
  1
REV.
 40
0.08
 41
0.32
  0
MTEXT
  5
33E
100
AcDbEntity
  8
0
100
AcDbMText
 62
7
  6
CONTINUOUS
  7
STANDARD
 71
3
 72
1
 10
21.05
 20
0.698443
 30
0.0
 11
1.0
 21
0.0
 31
0.0
 44
0.9
  1
CREO
 40
0.07
 41
0.28
  0
MTEXT
  5
33F
100
AcDbEntity
  8
0
100
AcDbMText
 62
7
  6
CONTINUOUS
  7
TEXTSTYLE_2
 71
2
 72
1
 10
12.257
 20
15.95
 30
0.0
 11
1.0
 21
0.0
 31
0.0
 44
0.9
  1
4
 40
0.1
 41
0.08
  0
MTEXT
  5
340
100
AcDbEntity
  8
0
100
AcDbMText
 62
7
  6
CONTINUOUS
  7
TEXTSTYLE_2
 71
2
 72
1
 10
12.257
 20
0.65
 30
0.0
 11
1.0
 21
0.0
 31
0.0
 44
0.9
  1
4
 40
0.1
 41
0.08
  0
MTEXT
  5
341
100
AcDbEntity
  8
0
100
AcDbMText
 62
7
  6
CONTINUOUS
  7
TEXTSTYLE_2
 71
3
 72
1
 10
0.864
 20
6.375
 30
0.0
 11
1.0
 21
0.0
 31
0.0
 44
0.9
  1
B
 40
0.1
 41
0.08
  0
MTEXT
  5
342
100
AcDbEntity
  8
0
100
AcDbMText
 62
7
  6
CONTINUOUS
  7
TEXTSTYLE_2
 71
1
 72
1
 10
21.15
 20
6.375
 30
0.0
 11
1.0
 21
0.0
 31
0.0
 44
0.9
  1
B
 40
0.1
 41
0.08
  0
MTEXT
  5
343
100
AcDbEntity
  8
0
100
AcDbMText
 62
7
  6
CONTINUOUS
  7
TEXTSTYLE_2
 71
3
 72
1
 10
0.864
 20
2.525
 30
0.0
 11
1.0
 21
0.0
 31
0.0
 44
0.9
  1
A
 40
0.1
 41
0.08
  0
MTEXT
  5
344
100
AcDbEntity
  8
0
100
AcDbMText
 62
7
  6
CONTINUOUS
  7
TEXTSTYLE_2
 71
1
 72
1
 10
21.15
 20
2.525
 30
0.0
 11
1.0
 21
0.0
 31
0.0
 44
0.9
  1
A
 40
0.1
 41
0.08
  0
MTEXT
  5
345
100
AcDbEntity
  8
0
100
AcDbMText
 62
7
  6
CONTINUOUS
  7
TEXTSTYLE_2
 71
3
 72
1
 10
0.864
 20
14.075
 30
0.0
 11
1.0
 21
0.0
 31
0.0
 44
0.9
  1
D
 40
0.1
 41
0.08
  0
MTEXT
  5
346
100
AcDbEntity
  8
0
100
AcDbMText
 62
7
  6
CONTINUOUS
  7
TEXTSTYLE_2
 71
1
 72
1
 10
21.15
 20
14.075
 30
0.0
 11
1.0
 21
0.0
 31
0.0
 44
0.9
  1
D
 40
0.1
 41
0.08
  0
MTEXT
  5
347
100
AcDbEntity
  8
0
100
AcDbMText
 62
7
  6
CONTINUOUS
  7
TEXTSTYLE_2
 71
3
 72
1
 10
0.864
 20
10.225
 30
0.0
 11
1.0
 21
0.0
 31
0.0
 44
0.9
  1
C
 40
0.1
 41
0.08
  0
MTEXT
  5
348
100
AcDbEntity
  8
0
100
AcDbMText
 62
7
  6
CONTINUOUS
  7
TEXTSTYLE_2
 71
1
 72
1
 10
21.15
 20
10.225
 30
0.0
 11
1.0
 21
0.0
 31
0.0
 44
0.9
  1
C
 40
0.1
 41
0.08
  0
MTEXT
  5
349
100
AcDbEntity
  8
0
100
AcDbMText
 62
7
  6
CONTINUOUS
  7
TEXTSTYLE_2
 71
2
 72
1
 10
14.757
 20
0.65
 30
0.0
 11
1.0
 21
0.0
 31
0.0
 44
0.9
  1
3
 40
0.1
 41
0.08
  0
MTEXT
  5
34A
100
AcDbEntity
  8
0
100
AcDbMText
 62
7
  6
CONTINUOUS
  7
TEXTSTYLE_2
 71
2
 72
1
 10
14.757
 20
15.95
 30
0.0
 11
1.0
 21
0.0
 31
0.0
 44
0.9
  1
3
 40
0.1
 41
0.08
  0
MTEXT
  5
34B
100
AcDbEntity
  8
0
100
AcDbMText
 62
7
  6
CONTINUOUS
  7
TEXTSTYLE_2
 71
2
 72
1
 10
17.257
 20
15.95
 30
0.0
 11
1.0
 21
0.0
 31
0.0
 44
0.9
  1
2
 40
0.1
 41
0.08
  0
MTEXT
  5
34C
100
AcDbEntity
  8
0
100
AcDbMText
 62
7
  6
CONTINUOUS
  7
TEXTSTYLE_2
 71
2
 72
1
 10
17.257
 20
0.65
 30
0.0
 11
1.0
 21
0.0
 31
0.0
 44
0.9
  1
2
 40
0.1
 41
0.08
  0
MTEXT
  5
34D
100
AcDbEntity
  8
0
100
AcDbMText
 62
7
  6
CONTINUOUS
  7
TEXTSTYLE_2
 71
2
 72
1
 10
19.757
 20
0.65
 30
0.0
 11
1.0
 21
0.0
 31
0.0
 44
0.9
  1
1
 40
0.1
 41
0.08
  0
MTEXT
  5
34E
100
AcDbEntity
  8
0
100
AcDbMText
 62
7
  6
CONTINUOUS
  7
TEXTSTYLE_2
 71
2
 72
1
 10
19.757
 20
15.95
 30
0.0
 11
1.0
 21
0.0
 31
0.0
 44
0.9
  1
1
 40
0.1
 41
0.08
  0
MTEXT
  5
34F
100
AcDbEntity
  8
0
100
AcDbMText
 62
7
  6
CONTINUOUS
  7
TEXTSTYLE_2
 71
2
 72
1
 10
2.257
 20
0.65
 30
0.0
 11
1.0
 21
0.0
 31
0.0
 44
0.9
  1
8
 40
0.1
 41
0.08
  0
MTEXT
  5
350
100
AcDbEntity
  8
0
100
AcDbMText
 62
7
  6
CONTINUOUS
  7
TEXTSTYLE_2
 71
2
 72
1
 10
4.757
 20
0.65
 30
0.0
 11
1.0
 21
0.0
 31
0.0
 44
0.9
  1
7
 40
0.1
 41
0.08
  0
MTEXT
  5
351
100
AcDbEntity
  8
0
100
AcDbMText
 62
7
  6
CONTINUOUS
  7
TEXTSTYLE_2
 71
2
 72
1
 10
7.257
 20
0.65
 30
0.0
 11
1.0
 21
0.0
 31
0.0
 44
0.9
  1
6
 40
0.1
 41
0.08
  0
MTEXT
  5
352
100
AcDbEntity
  8
0
100
AcDbMText
 62
7
  6
CONTINUOUS
  7
TEXTSTYLE_2
 71
2
 72
1
 10
9.757
 20
0.65
 30
0.0
 11
1.0
 21
0.0
 31
0.0
 44
0.9
  1
5
 40
0.1
 41
0.08
  0
MTEXT
  5
353
100
AcDbEntity
  8
0
100
AcDbMText
 62
7
  6
CONTINUOUS
  7
TEXTSTYLE_2
 71
2
 72
1
 10
9.757
 20
15.95
 30
0.0
 11
1.0
 21
0.0
 31
0.0
 44
0.9
  1
5
 40
0.1
 41
0.08
  0
MTEXT
  5
354
100
AcDbEntity
  8
0
100
AcDbMText
 62
7
  6
CONTINUOUS
  7
TEXTSTYLE_2
 71
2
 72
1
 10
7.257
 20
15.95
 30
0.0
 11
1.0
 21
0.0
 31
0.0
 44
0.9
  1
6
 40
0.1
 41
0.08
  0
MTEXT
  5
355
100
AcDbEntity
  8
0
100
AcDbMText
 62
7
  6
CONTINUOUS
  7
TEXTSTYLE_2
 71
2
 72
1
 10
4.757
 20
15.95
 30
0.0
 11
1.0
 21
0.0
 31
0.0
 44
0.9
  1
7
 40
0.1
 41
0.08
  0
MTEXT
  5
356
100
AcDbEntity
  8
0
100
AcDbMText
 62
7
  6
CONTINUOUS
  7
TEXTSTYLE_2
 71
2
 72
1
 10
2.257
 20
15.95
 30
0.0
 11
1.0
 21
0.0
 31
0.0
 44
0.9
  1
8
 40
0.1
 41
0.08
  0
MTEXT
  5
357
100
AcDbEntity
  8
0
100
AcDbMText
 62
7
  6
CONTINUOUS
  7
STANDARD
 71
1
 72
1
 10
17.2749123633
 20
0.9184107931
 30
0.0
 11
1.0
 21
0.0
 31
0.0
 44
0.9
  1
1:1
 40
0.1
 41
0.3
  0
MTEXT
  5
358
100
AcDbEntity
  8
0
100
AcDbMText
 62
7
  6
CONTINUOUS
  7
STANDARD
 71
1
 72
1
 10
19.4499123633
 20
0.9184107931
 30
0.0
 11
1.0
 21
0.0
 31
0.0
 44
0.9
  1
1 OF 1
 40
0.1
 41
0.6
  0
MTEXT
  5
359
100
AcDbEntity
  8
0
100
AcDbMText
 62
7
  6
CONTINUOUS
  7
STANDARD
 71
1
 72
1
 10
18.5204017884
 20
1.2400373234
 30
0.0
 11
1.0
 21
0.0
 31
0.0
 44
0.9
  1
202256
 40
0.12
 41
0.72
  0
MTEXT
  5
35A
100
AcDbEntity
  8
0
100
AcDbMText
 62
7
  6
CONTINUOUS
  7
STANDARD
 71
1
 72
1
 10
1.2857894151
 20
1.4458068967
 30
0.0
 11
1.0
 21
0.0
 31
0.0
 44
0.9
  1
NOTES:\P1. ALL DIMENSIONS ARE MILLIMETERS [INCHES] UNLESS OTHERWISE NOTED.\P2. REFER TO "www.bannerengineering.com" FOR ADDITIONAL DATA AND SPECIFICATIONS.
 40
0.1
 41
7.9
  0
MTEXT
  5
35B
100
AcDbEntity
  8
0
100
AcDbMText
 62
7
  6
CONTINUOUS
  7
TEXTSTYLE_3
 71
2
 72
1
 10
19.7555637832
 20
2.555409194
 30
0.0
 11
1.0
 21
0.0
 31
0.0
 44
0.9
  1
BANNER ENGINEERING CORP.
 40
0.12
 41
2.592
  0
MTEXT
  5
35C
100
AcDbEntity
  8
0
100
AcDbMText
 62
7
  6
CONTINUOUS
  7
TEXTSTYLE_2
 71
2
 72
1
 10
19.6690932526
 20
2.3442032634
 30
0.0
 11
1.0
 21
0.0
 31
0.0
 44
0.9
  1
www.bannerengineering.com
 40
0.1
 41
2.0
  0
MTEXT
  5
35D
100
AcDbEntity
  8
0
100
AcDbMText
 62
7
  6
CONTINUOUS
  7
TEXTSTYLE_4
 71
2
 72
1
 10
15.7104628329
 20
2.6377571551
 30
0.0
 11
1.0
 21
0.0
 31
0.0
 44
0.9
  1
This drawing is the property\Pof BANNER ENGINEERING CORP.\PAny use or reproduction,\Pin any form, without prior\Pwritten permission of\PBanner is prohibited.
 40
0.08
 41
1.904
  0
MTEXT
  5
35E
100
AcDbEntity
  8
0
100
AcDbMText
 62
7
  6
CONTINUOUS
  7
TEXTSTYLE_5
 71
2
 72
1
 10
15.7283993136
 20
1.9032170366
 30
0.0
 11
1.0
 21
0.0
 31
0.0
 44
0.9
  1
C  2015 Banner Engineering Corp.
 40
0.08
 41
1.92
  0
DIMENSION
  5
35F
100
AcDbEntity
  8
SCHEME_DIMS
100
AcDbDimension
 62
7
  6
CONTINUOUS
  2
*D0
 10
9.0709986772
 20
7.2269617586
 11
9.0709986772
 21
5.9525462963
 70
160
 71
2
 42
78.6
  1
<>\P[]
  3
DIMSTYLE_1
100
AcDbAlignedDimension
 13
6.3365685708
 23
4.1324735696
 14
6.612159122
 24
7.2269617586
 50
90.0
100
AcDbRotatedDimension
  0
DIMENSION
  5
360
100
AcDbEntity
  8
SCHEME_DIMS
100
AcDbDimension
 62
7
  6
CONTINUOUS
  2
*D1
 10
3.8562536102
 20
8.4114695052
 11
5.3523166023
 21
8.3364695052
 70
160
 71
2
 42
76.0
  1
<>\P[]
  3
DIMSTYLE_1
100
AcDbAlignedDimension
 13
6.8483795944
 23
6.9907412861
 14
3.8562536102
 24
6.9907412861
 50
180.0
100
AcDbRotatedDimension
  0
DIMENSION
  5
361
100
AcDbEntity
  8
SCHEME_DIMS
100
AcDbDimension
 62
7
  6
CONTINUOUS
  2
*D2
 10
3.3416550479
 20
12.3963020338
 11
3.3416550479
 21
12.9094928114
 70
160
 71
2
 42
29.880091501
  1
<>\P[]
  3
DIMSTYLE_1
100
AcDbAlignedDimension
 13
4.8405055787
 23
13.572683589
 14
3.7904577806
 24
12.3963020338
 50
270.0
100
AcDbRotatedDimension
  0
DIMENSION
  5
362
100
AcDbEntity
  8
SCHEME_DIMS
100
AcDbDimension
 62
7
  6
CONTINUOUS
  2
*D3
 10
19.9673457386
 20
10.3490579393
 11
19.9673457386
 21
10.9039791992
 70
160
 71
2
 42
32.0
  1
<>\P[]
  3
DIMSTYLE_1
100
AcDbAlignedDimension
 13
17.6527509653
 23
11.608900459
 14
17.6527509653
 24
10.3490579393
 50
270.0
100
AcDbRotatedDimension
  0
DIMENSION
  5
363
100
AcDbEntity
  8
SCHEME_DIMS
100
AcDbDimension
 62
7
  6
CONTINUOUS
  2
*D4
 10
19.9673457386
 20
11.608900459
 11
19.9673457386
 21
11.9417832118
 70
160
 71
2
 42
20.0
  1
<>\P[]
  3
DIMSTYLE_1
100
AcDbAlignedDimension
 13
19.1488139574
 23
12.3963020338
 14
17.6527509653
 24
11.608900459
 50
270.0
100
AcDbRotatedDimension
  0
DIMENSION
  5
364
100
AcDbEntity
  8
SCHEME_DIMS
100
AcDbDimension
 62
7
  6
CONTINUOUS
  2
*D5
 10
5.8641276259
 20
14.3190971328
 11
5.3893078793
 21
14.2440971328
 70
160
 71
2
 42
26.0
  1
<>\P[]
  3
DIMSTYLE_1
100
AcDbAlignedDimension
 13
4.8405055787
 23
13.6279639544
 14
5.8641276259
 24
13.6609969875
100
AcDbRotatedDimension
  0
DIMENSION
  5
365
100
AcDbEntity
  8
SCHEME_DIMS
100
AcDbDimension
 62
7
  6
CONTINUOUS
  2
*D6
 10
6.3365685708
 20
9.6451589089
 11
5.3652409552
 21
9.5701589089
 70
160
 71
2
 42
50.0
  1
<>\P[]
  3
DIMSTYLE_1
100
AcDbAlignedDimension
 13
4.3680646338
 23
11.0183492779
 14
6.3365685708
 24
11.0183492779
100
AcDbRotatedDimension
  0
DIMENSION
  5
366
100
AcDbEntity
  8
SCHEME_DIMS
100
AcDbDimension
 62
7
  6
CONTINUOUS
  2
*D7
 10
16.6684989967
 20
8.8626299514
 11
17.656006721
 21
8.7876299514
 70
160
 71
2
 42
50.0
  1
<>\P[]
  3
DIMSTYLE_1
100
AcDbAlignedDimension
 13
18.6370029338
 23
11.0183492779
 14
16.6684989967
 24
11.0183492779
 50
180.0
100
AcDbRotatedDimension
  0
DIMENSION
  5
367
100
AcDbEntity
  8
SCHEME_DIMS
100
AcDbDimension
 62
7
  6
CONTINUOUS
  2
*D8
 10
17.6527509653
 20
11.0183492779
 11
15.4122978407
 21
9.5175160518
 70
164
 71
3
 42
25.0
  1
R<>\P[]
  3
DIMSTYLE_2
100
AcDbRadialDimension
 15
16.9198863548
 25
10.361339841
  0
DIMENSION
  5
368
100
AcDbEntity
  8
SCHEME_DIMS
100
AcDbDimension
 62
7
  6
CONTINUOUS
  2
*D9
 10
2.6978628629
 20
4.7072767192
 11
2.6978628629
 21
4.3960562468
 70
160
 71
2
 42
12.0
  1
<>\P[]
  3
DIMSTYLE_1
100
AcDbAlignedDimension
 13
4.3680646338
 23
4.2348357743
 14
3.2383342285
 24
4.7072767192
 50
90.0
100
AcDbRotatedDimension
  0
DIMENSION
  5
369
100
AcDbEntity
  8
SCHEME_DIMS
100
AcDbDimension
 62
7
  6
CONTINUOUS
  2
*D10
 10
2.6978628629
 20
6.7545208137
 11
2.6978628629
 21
6.1546918633
 70
160
 71
2
 42
52.0
  1
<>\P[]
  3
DIMSTYLE_1
100
AcDbAlignedDimension
 13
6.4119173354
 23
4.7072767192
 14
6.555794546
 24
6.7545208137
 50
90.0
100
AcDbRotatedDimension
  0
DIMENSION
  5
36A
100
AcDbEntity
  8
SCHEME_DIMS
100
AcDbDimension
 62
7
  6
CONTINUOUS
  2
*D11
 10
4.0924740826
 20
2.5442813099
 11
3.1035780066
 21
2.4692813099
 70
160
 71
3
 42
6.0
  1
<>\P[]
  3
DIMSTYLE_1
100
AcDbAlignedDimension
 13
3.8562536102
 23
4.4710562468
 14
4.0924740826
 24
3.8814508934
100
AcDbRotatedDimension
  0
DIMENSION
  5
36B
100
AcDbEntity
  8
SCHEME_DIMS
100
AcDbDimension
 62
7
  6
CONTINUOUS
  2
*D12
 10
6.612159122
 20
2.5442813099
 11
5.3523166023
 21
2.4692813099
 70
160
 71
2
 42
64.0
  1
<>\P[]
  3
DIMSTYLE_1
100
AcDbAlignedDimension
 13
4.0924740826
 23
6.5052175172
 14
6.612159122
 24
6.5335315455
100
AcDbRotatedDimension
  0
DIMENSION
  5
36C
100
AcDbEntity
  8
SCHEME_DIMS
100
AcDbDimension
 62
7
  6
CONTINUOUS
  2
*D13
 10
8.4355874446
 20
5.7308987665
 11
8.4355874446
 21
4.9078672704
 70
160
 71
2
 42
38.0
  1
<>\P[]
  3
DIMSTYLE_1
100
AcDbAlignedDimension
 13
6.3365685708
 23
4.2348357743
 14
4.521369795
 24
5.7308987665
 50
90.0
100
AcDbRotatedDimension
  0
DIMENSION
  5
36D
100
AcDbEntity
  8
SCHEME_DIMS
100
AcDbDimension
 62
7
  6
CONTINUOUS
  2
*D14
 10
7.5285947376
 20
5.4356231759
 11
7.5285947376
 21
4.7602294751
 70
160
 71
2
 42
30.5
  1
<>\P[]
  3
DIMSTYLE_1
100
AcDbAlignedDimension
 13
6.3365685708
 23
4.2348357743
 14
5.8523166023
 24
5.4356231759
 50
90.0
100
AcDbRotatedDimension
  0
DIMENSION
  5
36E
100
AcDbEntity
  8
SCHEME_DIMS
100
AcDbDimension
 62
7
  6
CONTINUOUS
  2
*D15
 10
3.376971686
 20
6.026174357
 11
3.376971686
 21
5.7597168703
 70
160
 71
2
 42
15.0
  1
<>\P[]
  3
DIMSTYLE_1
100
AcDbAlignedDimension
 13
5.630952381
 23
5.4356231759
 14
5.630952381
 24
6.026174357
 50
90.0
100
AcDbRotatedDimension
  0
DIMENSION
  5
36F
100
AcDbEntity
  8
SCHEME_DIMS
100
AcDbDimension
 62
7
  6
CONTINUOUS
  2
*D16
 10
4.7426289834
 20
6.1095779795
 11
2.5347794938
 21
7.168434749
 70
163
 71
3
 42
7.0
  1
2X %%c<>\P[]
  3
DIMSTYLE_3
100
AcDbDiametricDimension
 15
4.9620042212
 25
5.9427707345
  0
DIMENSION
  5
370
100
AcDbEntity
  8
SCHEME_DIMS
100
AcDbDimension
 62
7
  6
CONTINUOUS
  2
*D17
 10
6.3759386496
 20
3.0987329043
 11
5.3523166023
 21
3.0237329043
 70
160
 71
2
 42
52.0
  1
<>\P[]
  3
DIMSTYLE_1
100
AcDbAlignedDimension
 13
4.3286945551
 23
5.5798906154
 14
6.3759386496
 24
5.570452606
100
AcDbRotatedDimension
  0
DIMENSION
  5
371
100
AcDbEntity
  8
SCHEME_DIMS
100
AcDbDimension
 62
7
  6
CONTINUOUS
  2
*D18
 10
5.3523166023
 20
7.7360904524
 11
4.7223953425
 21
7.6610904524
 70
160
 71
2
 42
32.0
  1
<>\P[]
  3
DIMSTYLE_1
100
AcDbAlignedDimension
 13
4.0924740826
 23
6.9149669741
 14
5.3523166023
 24
6.8866529458
100
AcDbRotatedDimension
  0
DIMENSION
  5
372
100
AcDbEntity
  8
SCHEME_DIMS
100
AcDbDimension
 62
7
  6
CONTINUOUS
  2
*D19
 10
7.2370962232
 20
12.3963020338
 11
7.7370962232
 21
12.7621476635
 70
160
 71
1
 42
2.6
  1
<>\P[]
  3
DIMSTYLE_1
100
AcDbAlignedDimension
 13
6.8483795944
 23
12.2939398291
 14
6.8483795944
 24
12.3963020338
 50
90.0
100
AcDbRotatedDimension
  0
DIMENSION
  5
373
100
AcDbEntity
  8
SCHEME_DIMS
100
AcDbDimension
 62
7
  6
CONTINUOUS
  2
*D20
 10
9.5695216546
 20
10.0340973094
 11
9.5695216546
 21
11.1827557716
 70
160
 71
2
 42
57.4
  1
<>\P[]
  3
DIMSTYLE_1
100
AcDbAlignedDimension
 13
10.3231194496
 23
12.2939398291
 14
13.3857602681
 24
10.0340973094
 50
270.0
100
AcDbRotatedDimension
  0
DIMENSION
  5
374
100
AcDbEntity
  8
SCHEME_DIMS
100
AcDbDimension
 62
7
  6
CONTINUOUS
  2
*D21
 10
15.7547813058
 20
4.9148184579
 11
15.5361132462
 21
7.8070457886
 70
162
 71
2
 42
0.5235987756
  3
DIMSTYLE_4
100
AcDb2LineAngularDimension
 13
15.3137495619
 23
4.9010261991
 14
15.3191230258
 24
4.9210802394
 15
15.7601547697
 25
4.8947644177
 16
15.5361132462
 26
7.8070457886
  0
DIMENSION
  5
375
100
AcDbEntity
  8
SCHEME_DIMS
100
AcDbDimension
 62
7
  6
CONTINUOUS
  2
*D22
 10
5.8523166023
 20
3.6888272201
 11
5.3523166023
 21
3.6138272201
 70
160
 71
2
 42
25.4
  1
<>\P[]
  3
DIMSTYLE_5
100
AcDbAlignedDimension
 13
4.8523166023
 23
5.4356231759
 14
5.8523166023
 24
5.4356231759
100
AcDbRotatedDimension
  0
ACAD_TABLE
  5
376
100
AcDbEntity
  8
0
 62
7
  6
CONTINUOUS
100
AcDbBlockReference
  2
*T1
 10
16.7
 20
0.75
 30
0.0
100
AcDbTable
342
       690
343
24F
 11
1.0
 21
0.0
 31
0.0
 90
6
 91
3
 92
5
 93
4
 94
0
 95
0
 96
0
 70
1
141
0.33
141
0.45
141
1.14
142
0.65
142
1.15
142
1.025
142
1.075
142
0.45
171
1
172
0
173
0
174
0
175
1
176
1
 91
33
178
0
145
0.0
301
CELL_VALUE
 90
4
  1
 
304
ACVALUE_END
170
1
140
0.1
171
1
172
0
173
0
174
0
175
1
176
1
 91
33
178
0
145
0.0
301
CELL_VALUE
 90
4
  1
 
304
ACVALUE_END
170
1
140
0.1
171
1
172
0
173
0
174
0
175
1
176
1
 91
33
178
0
145
0.0
301
CELL_VALUE
 90
4
  1
 
304
ACVALUE_END
170
1
140
0.1
171
1
172
0
173
0
174
0
175
1
176
1
 91
33
178
0
145
0.0
301
CELL_VALUE
 90
4
  1
 
304
ACVALUE_END
170
1
140
0.1
171
1
172
0
173
0
174
0
175
1
176
1
 91
33
178
0
145
0.0
301
CELL_VALUE
 90
4
  1
 
304
ACVALUE_END
170
1
140
0.1
171
1
172
0
173
0
174
0
175
1
176
1
 91
33
178
0
145
0.0
301
CELL_VALUE
 90
4
  1
 
304
ACVALUE_END
170
1
140
0.1
171
1
172
0
173
0
174
0
175
1
176
1
 91
33
178
0
145
0.0
301
CELL_VALUE
 90
4
  1
 
304
ACVALUE_END
170
1
140
0.1
171
1
172
0
173
0
174
0
175
1
176
1
 91
33
178
0
145
0.0
301
CELL_VALUE
 90
4
  1
 
304
ACVALUE_END
170
1
140
0.1
171
1
172
0
173
0
174
0
175
1
176
1
 91
33
178
0
145
0.0
301
CELL_VALUE
 90
4
  1
 
304
ACVALUE_END
170
1
140
0.1
171
1
172
0
173
0
174
0
175
1
176
1
 91
41
178
0
145
0.0
301
CELL_VALUE
 90
4
  1
A
304
ACVALUE_END
170
8
140
0.1
 64
7
171
1
172
0
173
0
174
0
175
5
176
1
 91
33
178
0
145
0.0
301
CELL_VALUE
 90
4
  1
LMBWLB92RAS-803668\P 
304
ACVALUE_END
170
8
140
0.1
171
1
172
0
173
1
174
0
175
1
176
1
 91
1
178
0
145
0.0
170
1
171
1
172
0
173
1
174
0
175
1
176
1
 91
1
178
0
145
0.0
170
1
171
1
172
0
173
1
174
0
175
1
176
1
 91
1
178
0
145
0.0
170
1
171
1
172
0
173
1
174
0
175
1
176
1
 91
1
178
0
145
0.0
170
8
  0
LEADER
  5
377
100
AcDbEntity
  8
NOTES
100
AcDbLeader
 62
7
  6
CONTINUOUS
  3
STANDARD
 71
1
 72
0
 73
0
 75
0
 40
0.1
 41
0.7
 76
3
 10
11.8431657104
 20
12.9983359476
 30
0.0
 10
10.6541977245
 20
14.0951358725
 30
0.0
 10
10.4041977245
 20
14.0951358725
 30
0.0
340
378
1001
ACAD
1000
DSTYLE
1002
{
1070
77
1070
0
1002
}
  0
MTEXT
  5
378
102
{ACAD_REACTORS
330
377
102
}
100
AcDbEntity
  8
NOTES
100
AcDbMText
 62
7
  6
CONTINUOUS
  7
STANDARD
 71
3
 72
1
 10
10.4041977245
 20
14.1451358725
 30
0.0
 11
1.0
 21
0.0
 31
0.0
 44
0.9
  1
1" PIPE\PMOUNTING
 40
0.1
 41
0.8
  0
LEADER
  5
379
100
AcDbEntity
  8
NOTES
100
AcDbLeader
 62
7
  6
CONTINUOUS
  3
STANDARD
 71
1
 72
0
 73
0
 75
0
 40
0.1
 41
1.0
 76
3
 10
17.5550169911
 20
10.4906500454
 30
0.0
 10
16.1667202917
 20
11.6624705062
 30
0.0
 10
15.9167202917
 20
11.6624705062
 30
0.0
340
37A
1001
ACAD
1000
DSTYLE
1002
{
1070
77
1070
0
1002
}
  0
MTEXT
  5
37A
102
{ACAD_REACTORS
330
379
102
}
100
AcDbEntity
  8
NOTES
100
AcDbMText
 62
7
  6
CONTINUOUS
  7
STANDARD
 71
3
 72
1
 10
15.9167202917
 20
11.7124705062
 30
0.0
 11
1.0
 21
0.0
 31
0.0
 44
0.9
  1
2X SP-M6-1\PPEM NUTS
 40
0.1
 41
1.0
  0
LEADER
  5
37B
100
AcDbEntity
  8
NOTES
100
AcDbLeader
 62
7
  6
CONTINUOUS
  3
STANDARD
 71
1
 72
0
 73
0
 75
0
 40
0.1
 41
1.4
 76
3
 10
6.6784360517
 20
6.8272867945
 30
0.0
 10
7.4382722008
 20
7.7656933719
 30
0.0
 10
7.6882722008
 20
7.7656933719
 30
0.0
340
37C
1001
ACAD
1000
DSTYLE
1002
{
1070
77
1070
0
1002
}
  0
MTEXT
  5
37C
102
{ACAD_REACTORS
330
37B
102
}
100
AcDbEntity
  8
NOTES
100
AcDbMText
 62
7
  6
CONTINUOUS
  7
STANDARD
 71
1
 72
1
 10
7.6882722008
 20
7.8156933719
 30
0.0
 11
1.0
 21
0.0
 31
0.0
 44
0.9
  1
8X M5 X 0.8 6H
 40
0.1
 41
1.4
  0
LINE
  5
37D
100
AcDbEntity
  8
0
100
AcDbLine
 62
7
  6
CONTINUOUS
 10
0.814
 20
8.336603
 11
0.814
 21
8.163397
  0
LINE
  5
37E
100
AcDbEntity
  8
0
100
AcDbLine
 62
7
  6
CONTINUOUS
 10
0.964
 20
15.75
 11
0.964
 21
0.75
  0
LINE
  5
37F
100
AcDbEntity
  8
0
100
AcDbLine
 62
7
  6
CONTINUOUS
 10
15.8276527477
 20
1.2966912523
 11
16.4340437477
 21
1.3660842523
  0
LINE
  5
380
100
AcDbEntity
  8
0
100
AcDbLine
 62
7
  6
CONTINUOUS
 10
10.920397
 20
0.6
 11
11.093603
 21
0.6
  0
LINE
  5
381
100
AcDbEntity
  8
0
100
AcDbLine
 62
7
  6
CONTINUOUS
 10
0.964
 20
0.75
 11
21.05
 21
0.75
  0
LINE
  5
382
100
AcDbEntity
  8
0
100
AcDbLine
 62
7
  6
CONTINUOUS
 10
3.507
 20
0.75
 11
3.507
 21
0.5
  0
LINE
  5
383
100
AcDbEntity
  8
0
100
AcDbLine
 62
7
  6
CONTINUOUS
 10
3.507
 20
15.75
 11
3.507
 21
16.0
  0
LINE
  5
384
100
AcDbEntity
  8
0
100
AcDbLine
 62
7
  6
CONTINUOUS
 10
16.7
 20
1.0
 11
21.05
 21
1.0
  0
LINE
  5
385
100
AcDbEntity
  8
0
100
AcDbLine
 62
7
  6
CONTINUOUS
 10
14.9008917477
 20
1.1139932523
 11
15.1229827477
 21
1.1139932523
  0
LINE
  5
386
100
AcDbEntity
  8
0
100
AcDbLine
 62
7
  6
CONTINUOUS
 10
15.1729827477
 20
1.1139932523
 11
15.2729827477
 21
1.1139932523
  0
LINE
  5
387
100
AcDbEntity
  8
0
100
AcDbLine
 62
7
  6
CONTINUOUS
 10
15.3229827477
 20
1.1139932523
 11
15.5450737477
 21
1.1139932523
  0
LINE
  5
388
100
AcDbEntity
  8
0
100
AcDbLine
 62
7
  6
CONTINUOUS
 10
15.7276527477
 20
1.1139932523
 11
16.0058047477
 21
1.1139932523
  0
LINE
  5
389
100
AcDbEntity
  8
0
100
AcDbLine
 62
7
  6
CONTINUOUS
 10
16.0558047477
 20
1.1139932523
 11
16.2058907477
 21
1.1139932523
  0
LINE
  5
38A
100
AcDbEntity
  8
0
100
AcDbLine
 62
7
  6
CONTINUOUS
 10
16.2558907477
 20
1.1139932523
 11
16.5340437477
 21
1.1139932523
  0
LINE
  5
38B
100
AcDbEntity
  8
0
100
AcDbLine
 62
7
  6
CONTINUOUS
 10
16.7
 20
1.37
 11
21.05
 21
1.37
  0
LINE
  5
38C
100
AcDbEntity
  8
0
100
AcDbLine
 62
7
  6
CONTINUOUS
 10
16.4340437477
 20
0.8619022523
 11
15.8276527477
 21
0.9312952523
  0
LINE
  5
38D
100
AcDbEntity
  8
0
100
AcDbLine
 62
7
  6
CONTINUOUS
 10
14.7
 20
1.77
 11
16.7
 21
1.77
  0
LINE
  5
38E
100
AcDbEntity
  8
0
100
AcDbLine
 62
7
  6
CONTINUOUS
 10
16.7
 20
2.13
 11
21.05
 21
2.13
  0
LINE
  5
38F
100
AcDbEntity
  8
0
100
AcDbLine
 62
7
  6
CONTINUOUS
 10
18.273144232
 20
2.3543254011
 11
18.2257802057
 21
2.3543254011
  0
LINE
  5
390
100
AcDbEntity
  8
0
100
AcDbLine
 62
7
  6
CONTINUOUS
 10
18.1818891814
 20
2.3543254011
 11
18.0683181184
 21
2.3543254011
  0
LINE
  5
391
100
AcDbEntity
  8
0
100
AcDbLine
 62
7
  6
CONTINUOUS
 10
18.0394141024
 20
2.3543254011
 11
17.8362019897
 21
2.3543254011
  0
LINE
  5
392
100
AcDbEntity
  8
0
100
AcDbLine
 62
7
  6
CONTINUOUS
 10
17.7857289617
 20
2.3543254011
 11
17.7115229205
 21
2.3543254011
  0
LINE
  5
393
100
AcDbEntity
  8
0
100
AcDbLine
 62
7
  6
CONTINUOUS
 10
17.6651428948
 20
2.3543254011
 11
17.5894788529
 21
2.3543254011
  0
LINE
  5
394
100
AcDbEntity
  8
0
100
AcDbLine
 62
7
  6
CONTINUOUS
 10
17.537475824
 20
2.3543254011
 11
17.4632707829
 21
2.3543254011
  0
LINE
  5
395
100
AcDbEntity
  8
0
100
AcDbLine
 62
7
  6
CONTINUOUS
 10
17.4168897572
 20
2.3543254011
 11
17.3412257152
 21
2.3543254011
  0
LINE
  5
396
100
AcDbEntity
  8
0
100
AcDbLine
 62
7
  6
CONTINUOUS
 10
16.8743904563
 20
2.3543254011
 11
17.0508365542
 21
2.3543254011
  0
LINE
  5
397
100
AcDbEntity
  8
0
100
AcDbLine
 62
7
  6
CONTINUOUS
 10
17.1083735861
 20
2.3543254011
 11
17.185749629
 21
2.3543254011
  0
LINE
  5
398
100
AcDbEntity
  8
0
100
AcDbLine
 62
7
  6
CONTINUOUS
 10
17.2060356402
 20
2.3543254011
 11
17.3113166986
 21
2.3543254011
  0
LINE
  5
399
100
AcDbEntity
  8
0
100
AcDbLine
 62
7
  6
CONTINUOUS
 10
18.1572301677
 20
2.3790534148
 11
18.1818891814
 21
2.3790534148
  0
LINE
  5
39A
100
AcDbEntity
  8
0
100
AcDbLine
 62
7
  6
CONTINUOUS
 10
17.3113166986
 20
2.3790754148
 11
17.2913006875
 21
2.3790754148
  0
LINE
  5
39B
100
AcDbEntity
  8
0
100
AcDbLine
 62
7
  6
CONTINUOUS
 10
17.2204866482
 20
2.3790754148
 11
17.2060356402
 21
2.3790754148
  0
LINE
  5
39C
100
AcDbEntity
  8
0
100
AcDbLine
 62
7
  6
CONTINUOUS
 10
17.185749629
 20
2.3790754148
 11
17.1744666227
 21
2.3790754148
  0
LINE
  5
39D
100
AcDbEntity
  8
0
100
AcDbLine
 62
7
  6
CONTINUOUS
 10
17.1312345987
 20
2.3790754148
 11
17.1083735861
 21
2.3790754148
  0
LINE
  5
39E
100
AcDbEntity
  8
0
100
AcDbLine
 62
7
  6
CONTINUOUS
 10
17.0051585288
 20
2.3790754148
 11
16.9637955059
 21
2.3790754148
  0
LINE
  5
39F
100
AcDbEntity
  8
0
100
AcDbLine
 62
7
  6
CONTINUOUS
 10
16.8983324696
 20
2.3790754148
 11
16.8743904563
 21
2.3790754148
  0
LINE
  5
3A0
100
AcDbEntity
  8
0
100
AcDbLine
 62
7
  6
CONTINUOUS
 10
17.3412257152
 20
2.3790754148
 11
17.3598727255
 21
2.3790754148
  0
LINE
  5
3A1
100
AcDbEntity
  8
0
100
AcDbLine
 62
7
  6
CONTINUOUS
 10
17.3965727459
 20
2.3790754148
 11
17.4168897572
 21
2.3790754148
  0
LINE
  5
3A2
100
AcDbEntity
  8
0
100
AcDbLine
 62
7
  6
CONTINUOUS
 10
17.5894788529
 20
2.3790754148
 11
17.6081248632
 21
2.3790754148
  0
LINE
  5
3A3
100
AcDbEntity
  8
0
100
AcDbLine
 62
7
  6
CONTINUOUS
 10
17.6448258836
 20
2.3790754148
 11
17.6651428948
 21
2.3790754148
  0
LINE
  5
3A4
100
AcDbEntity
  8
0
100
AcDbLine
 62
7
  6
CONTINUOUS
 10
17.8362019897
 20
2.3790754148
 11
17.860125003
 21
2.3790754148
  0
LINE
  5
3A5
100
AcDbEntity
  8
0
100
AcDbLine
 62
7
  6
CONTINUOUS
 10
17.9271410401
 20
2.3790754148
 11
17.9921450762
 21
2.3790754148
  0
LINE
  5
3A6
100
AcDbEntity
  8
0
100
AcDbLine
 62
7
  6
CONTINUOUS
 10
18.0683181184
 20
2.3790754148
 11
18.091064131
 21
2.3790754148
  0
LINE
  5
3A7
100
AcDbEntity
  8
0
100
AcDbLine
 62
7
  6
CONTINUOUS
 10
18.2741672326
 20
2.379462415
 11
18.2752762332
 21
2.379462415
  0
LINE
  5
3A8
100
AcDbEntity
  8
0
100
AcDbLine
 62
7
  6
CONTINUOUS
 10
17.9970950789
 20
2.3922754221
 11
18.0394141024
 21
2.3922754221
  0
LINE
  5
3A9
100
AcDbEntity
  8
0
100
AcDbLine
 62
7
  6
CONTINUOUS
 10
17.1799826258
 20
2.3927194224
 11
17.2148606451
 21
2.3927194224
  0
LINE
  5
3AA
100
AcDbEntity
  8
0
100
AcDbLine
 62
7
  6
CONTINUOUS
 10
18.2860312391
 20
2.3932124227
 11
18.2981412459
 21
2.3932124227
  0
LINE
  5
3AB
100
AcDbEntity
  8
0
100
AcDbLine
 62
7
  6
CONTINUOUS
 10
18.184837183
 20
2.3937024229
 11
18.1572301677
 21
2.3937024229
  0
LINE
  5
3AC
100
AcDbEntity
  8
0
100
AcDbLine
 62
7
  6
CONTINUOUS
 10
17.9623080596
 20
2.395575424
 11
17.9271410401
 21
2.395575424
  0
LINE
  5
3AD
100
AcDbEntity
  8
0
100
AcDbLine
 62
7
  6
CONTINUOUS
 10
16.9637955059
 20
2.3964004244
 11
17.0051585288
 21
2.3964004244
  0
LINE
  5
3AE
100
AcDbEntity
  8
0
100
AcDbLine
 62
7
  6
CONTINUOUS
 10
18.1911671865
 20
2.4127054335
 11
18.1572301677
 21
2.4127054335
  0
LINE
  5
3AF
100
AcDbEntity
  8
0
100
AcDbLine
 62
7
  6
CONTINUOUS
 10
16.9637955059
 20
2.4130554337
 11
17.0051585288
 21
2.4130554337
  0
LINE
  5
3B0
100
AcDbEntity
  8
0
100
AcDbLine
 62
7
  6
CONTINUOUS
 10
17.1884986305
 20
2.413669434
 11
17.2090556419
 21
2.413669434
  0
LINE
  5
3B1
100
AcDbEntity
  8
0
100
AcDbLine
 62
7
  6
CONTINUOUS
 10
17.9271410401
 20
2.4138804341
 11
17.9623080596
 21
2.4138804341
  0
LINE
  5
3B2
100
AcDbEntity
  8
0
100
AcDbLine
 62
7
  6
CONTINUOUS
 10
18.0379951016
 20
2.4171804359
 11
17.9961310784
 21
2.4171804359
  0
LINE
  5
3B3
100
AcDbEntity
  8
0
100
AcDbLine
 62
7
  6
CONTINUOUS
 10
17.2017966379
 20
2.429836443
 11
17.1956156344
 21
2.429836443
  0
LINE
  5
3B4
100
AcDbEntity
  8
0
100
AcDbLine
 62
7
  6
CONTINUOUS
 10
18.091064131
 20
2.4303804433
 11
18.0683181184
 21
2.4303804433
  0
LINE
  5
3B5
100
AcDbEntity
  8
0
100
AcDbLine
 62
7
  6
CONTINUOUS
 10
17.9911810756
 20
2.4303804433
 11
17.9271410401
 21
2.4303804433
  0
LINE
  5
3B6
100
AcDbEntity
  8
0
100
AcDbLine
 62
7
  6
CONTINUOUS
 10
17.860125003
 20
2.4303804433
 11
17.8362019897
 21
2.4303804433
  0
LINE
  5
3B7
100
AcDbEntity
  8
0
100
AcDbLine
 62
7
  6
CONTINUOUS
 10
17.8086119744
 20
2.4303804433
 11
17.7906789644
 21
2.4303804433
  0
LINE
  5
3B8
100
AcDbEntity
  8
0
100
AcDbLine
 62
7
  6
CONTINUOUS
 10
17.7533869438
 20
2.4303804433
 11
17.7346109333
 21
2.4303804433
  0
LINE
  5
3B9
100
AcDbEntity
  8
0
100
AcDbLine
 62
7
  6
CONTINUOUS
 10
17.6081248632
 20
2.4303804433
 11
17.5894788529
 21
2.4303804433
  0
LINE
  5
3BA
100
AcDbEntity
  8
0
100
AcDbLine
 62
7
  6
CONTINUOUS
 10
17.5603588367
 20
2.4303804433
 11
17.5424258268
 21
2.4303804433
  0
LINE
  5
3BB
100
AcDbEntity
  8
0
100
AcDbLine
 62
7
  6
CONTINUOUS
 10
17.5051338061
 20
2.4303804433
 11
17.4863577957
 21
2.4303804433
  0
LINE
  5
3BC
100
AcDbEntity
  8
0
100
AcDbLine
 62
7
  6
CONTINUOUS
 10
17.3598727255
 20
2.4303804433
 11
17.3412257152
 21
2.4303804433
  0
LINE
  5
3BD
100
AcDbEntity
  8
0
100
AcDbLine
 62
7
  6
CONTINUOUS
 10
17.0051585288
 20
2.4303804433
 11
16.9637955059
 21
2.4303804433
  0
LINE
  5
3BE
100
AcDbEntity
  8
0
100
AcDbLine
 62
7
  6
CONTINUOUS
 10
16.8743904563
 20
2.4303804433
 11
16.8983324696
 21
2.4303804433
  0
LINE
  5
3BF
100
AcDbEntity
  8
0
100
AcDbLine
 62
7
  6
CONTINUOUS
 10
18.1572301677
 20
2.4303804433
 11
18.1940311881
 21
2.4303804433
  0
LINE
  5
3C0
100
AcDbEntity
  8
0
100
AcDbLine
 62
7
  6
CONTINUOUS
 10
17.2393896587
 20
2.455130457
 11
17.182214627
 21
2.455130457
  0
LINE
  5
3C1
100
AcDbEntity
  8
0
100
AcDbLine
 62
7
  6
CONTINUOUS
 10
17.0404535484
 20
2.455130457
 11
16.8743904563
 21
2.455130457
  0
LINE
  5
3C2
100
AcDbEntity
  8
0
100
AcDbLine
 62
7
  6
CONTINUOUS
 10
17.3412257152
 20
2.455130457
 11
17.4416837709
 21
2.455130457
  0
LINE
  5
3C3
100
AcDbEntity
  8
0
100
AcDbLine
 62
7
  6
CONTINUOUS
 10
17.4863577957
 20
2.455130457
 11
17.5603588367
 21
2.455130457
  0
LINE
  5
3C4
100
AcDbEntity
  8
0
100
AcDbLine
 62
7
  6
CONTINUOUS
 10
17.5894788529
 20
2.455130457
 11
17.6899369086
 21
2.455130457
  0
LINE
  5
3C5
100
AcDbEntity
  8
0
100
AcDbLine
 62
7
  6
CONTINUOUS
 10
17.7346109333
 20
2.455130457
 11
17.8086119744
 21
2.455130457
  0
LINE
  5
3C6
100
AcDbEntity
  8
0
100
AcDbLine
 62
7
  6
CONTINUOUS
 10
17.8362019897
 20
2.455130457
 11
18.0379951016
 21
2.455130457
  0
LINE
  5
3C7
100
AcDbEntity
  8
0
100
AcDbLine
 62
7
  6
CONTINUOUS
 10
18.0683181184
 20
2.455130457
 11
18.2178992014
 21
2.455130457
  0
LINE
  5
3C8
100
AcDbEntity
  8
0
100
AcDbLine
 62
7
  6
CONTINUOUS
 10
17.0697205646
 20
2.4006414268
 11
17.059669559
 21
2.4041904287
  0
LINE
  5
3C9
100
AcDbEntity
  8
0
100
AcDbLine
 62
7
  6
CONTINUOUS
 10
17.4615617819
 20
2.3550094015
 11
17.3982817468
 21
2.415387435
  0
LINE
  5
3CA
100
AcDbEntity
  8
0
100
AcDbLine
 62
7
  6
CONTINUOUS
 10
17.4433917718
 20
2.4544464566
 11
17.5034248051
 21
2.3971664249
  0
LINE
  5
3CB
100
AcDbEntity
  8
0
100
AcDbLine
 62
7
  6
CONTINUOUS
 10
17.7098149196
 20
2.3550094015
 11
17.6465348845
 21
2.415387435
  0
LINE
  5
3CC
100
AcDbEntity
  8
0
100
AcDbLine
 62
7
  6
CONTINUOUS
 10
17.6916449095
 20
2.4544464566
 11
17.7516779428
 21
2.3971664249
  0
LINE
  5
3CD
100
AcDbEntity
  8
0
100
AcDbLine
 62
7
  6
CONTINUOUS
 10
17.2169386463
 20
2.3915884218
 11
17.2225646494
 21
2.3828954169
  0
LINE
  5
3CE
100
AcDbEntity
  8
0
100
AcDbLine
 62
7
  6
CONTINUOUS
 10
17.211133643
 20
2.4174894361
 11
17.203874639
 21
2.4287054423
  0
LINE
  5
3CF
100
AcDbEntity
  8
0
100
AcDbLine
 62
7
  6
CONTINUOUS
 10
17.2892236864
 20
2.3802054154
 11
17.2414676599
 21
2.4540004564
  0
LINE
  5
3D0
100
AcDbEntity
  8
0
100
AcDbLine
 62
7
  6
CONTINUOUS
 10
18.206476195
 20
2.3723714111
 11
18.204672194
 21
2.3784404145
  0
LINE
  5
3D1
100
AcDbEntity
  8
0
100
AcDbLine
 62
7
  6
CONTINUOUS
 10
16.8719154549
 20
2.4526554556
 11
16.8719154549
 21
2.4328554446
  0
LINE
  5
3D2
100
AcDbEntity
  8
0
100
AcDbLine
 62
7
  6
CONTINUOUS
 10
16.8719154549
 20
2.3766004134
 11
16.8719154549
 21
2.3568004025
  0
LINE
  5
3D3
100
AcDbEntity
  8
0
100
AcDbLine
 62
7
  6
CONTINUOUS
 10
16.9008074709
 20
2.4279054419
 11
16.9008074709
 21
2.3815504162
  0
LINE
  5
3D4
100
AcDbEntity
  8
0
100
AcDbLine
 62
7
  6
CONTINUOUS
 10
16.9613205045
 20
2.4279054419
 11
16.9613205045
 21
2.415530435
  0
LINE
  5
3D5
100
AcDbEntity
  8
0
100
AcDbLine
 62
7
  6
CONTINUOUS
 10
16.9613205045
 20
2.3815504162
 11
16.9613205045
 21
2.3939254231
  0
LINE
  5
3D6
100
AcDbEntity
  8
0
100
AcDbLine
 62
7
  6
CONTINUOUS
 10
17.1058985847
 20
2.3766004134
 11
17.1058985847
 21
2.3568004025
  0
LINE
  5
3D7
100
AcDbEntity
  8
0
100
AcDbLine
 62
7
  6
CONTINUOUS
 10
17.1882246303
 20
2.3568004025
 11
17.1882246303
 21
2.3766004134
  0
LINE
  5
3D8
100
AcDbEntity
  8
0
100
AcDbLine
 62
7
  6
CONTINUOUS
 10
17.2035606388
 20
2.3766004134
 11
17.2035606388
 21
2.3568004025
  0
LINE
  5
3D9
100
AcDbEntity
  8
0
100
AcDbLine
 62
7
  6
CONTINUOUS
 10
17.3137917
 20
2.3568004025
 11
17.3137917
 21
2.3766004134
  0
LINE
  5
3DA
100
AcDbEntity
  8
0
100
AcDbLine
 62
7
  6
CONTINUOUS
 10
17.3387507138
 20
2.3568004025
 11
17.3387507138
 21
2.3766004134
  0
LINE
  5
3DB
100
AcDbEntity
  8
0
100
AcDbLine
 62
7
  6
CONTINUOUS
 10
17.3387507138
 20
2.4328554446
 11
17.3387507138
 21
2.4526554556
  0
LINE
  5
3DC
100
AcDbEntity
  8
0
100
AcDbLine
 62
7
  6
CONTINUOUS
 10
17.3623477269
 20
2.3815504162
 11
17.3623477269
 21
2.4279054419
  0
LINE
  5
3DD
100
AcDbEntity
  8
0
100
AcDbLine
 62
7
  6
CONTINUOUS
 10
17.3940977445
 20
2.413596434
 11
17.3940977445
 21
2.3815504162
  0
LINE
  5
3DE
100
AcDbEntity
  8
0
100
AcDbLine
 62
7
  6
CONTINUOUS
 10
17.4193647585
 20
2.3766004134
 11
17.4193647585
 21
2.3568004025
  0
LINE
  5
3DF
100
AcDbEntity
  8
0
100
AcDbLine
 62
7
  6
CONTINUOUS
 10
17.4838827943
 20
2.4328554446
 11
17.4838827943
 21
2.4526554556
  0
LINE
  5
3E0
100
AcDbEntity
  8
0
100
AcDbLine
 62
7
  6
CONTINUOUS
 10
17.5076088075
 20
2.3989574258
 11
17.5076088075
 21
2.4279054419
  0
LINE
  5
3E1
100
AcDbEntity
  8
0
100
AcDbLine
 62
7
  6
CONTINUOUS
 10
17.5399508254
 20
2.4279054419
 11
17.5399508254
 21
2.3568004025
  0
LINE
  5
3E2
100
AcDbEntity
  8
0
100
AcDbLine
 62
7
  6
CONTINUOUS
 10
17.5628338381
 20
2.4526554556
 11
17.5628338381
 21
2.4328554446
  0
LINE
  5
3E3
100
AcDbEntity
  8
0
100
AcDbLine
 62
7
  6
CONTINUOUS
 10
17.5870038515
 20
2.3568004025
 11
17.5870038515
 21
2.3766004134
  0
LINE
  5
3E4
100
AcDbEntity
  8
0
100
AcDbLine
 62
7
  6
CONTINUOUS
 10
17.5870038515
 20
2.4328554446
 11
17.5870038515
 21
2.4526554556
  0
LINE
  5
3E5
100
AcDbEntity
  8
0
100
AcDbLine
 62
7
  6
CONTINUOUS
 10
17.6105998646
 20
2.3815504162
 11
17.6105998646
 21
2.4279054419
  0
LINE
  5
3E6
100
AcDbEntity
  8
0
100
AcDbLine
 62
7
  6
CONTINUOUS
 10
17.6423508822
 20
2.413596434
 11
17.6423508822
 21
2.3815504162
  0
LINE
  5
3E7
100
AcDbEntity
  8
0
100
AcDbLine
 62
7
  6
CONTINUOUS
 10
17.6676178962
 20
2.3766004134
 11
17.6676178962
 21
2.3568004025
  0
LINE
  5
3E8
100
AcDbEntity
  8
0
100
AcDbLine
 62
7
  6
CONTINUOUS
 10
17.732135932
 20
2.4328554446
 11
17.732135932
 21
2.4526554556
  0
LINE
  5
3E9
100
AcDbEntity
  8
0
100
AcDbLine
 62
7
  6
CONTINUOUS
 10
17.7558619451
 20
2.3989574258
 11
17.7558619451
 21
2.4279054419
  0
LINE
  5
3EA
100
AcDbEntity
  8
0
100
AcDbLine
 62
7
  6
CONTINUOUS
 10
17.7882039631
 20
2.4279054419
 11
17.7882039631
 21
2.3568004025
  0
LINE
  5
3EB
100
AcDbEntity
  8
0
100
AcDbLine
 62
7
  6
CONTINUOUS
 10
17.8110869758
 20
2.4526554556
 11
17.8110869758
 21
2.4328554446
  0
LINE
  5
3EC
100
AcDbEntity
  8
0
100
AcDbLine
 62
7
  6
CONTINUOUS
 10
17.8337269883
 20
2.3568004025
 11
17.8337269883
 21
2.3766004134
  0
LINE
  5
3ED
100
AcDbEntity
  8
0
100
AcDbLine
 62
7
  6
CONTINUOUS
 10
17.8337269883
 20
2.4328554446
 11
17.8337269883
 21
2.4526554556
  0
LINE
  5
3EE
100
AcDbEntity
  8
0
100
AcDbLine
 62
7
  6
CONTINUOUS
 10
17.8626000043
 20
2.3815504162
 11
17.8626000043
 21
2.4279054419
  0
LINE
  5
3EF
100
AcDbEntity
  8
0
100
AcDbLine
 62
7
  6
CONTINUOUS
 10
17.9246660387
 20
2.4279054419
 11
17.9246660387
 21
2.4163554355
  0
LINE
  5
3F0
100
AcDbEntity
  8
0
100
AcDbLine
 62
7
  6
CONTINUOUS
 10
17.9246660387
 20
2.3931004226
 11
17.9246660387
 21
2.3815504162
  0
LINE
  5
3F1
100
AcDbEntity
  8
0
100
AcDbLine
 62
7
  6
CONTINUOUS
 10
17.964783061
 20
2.4114054327
 11
17.964783061
 21
2.3980504253
  0
LINE
  5
3F2
100
AcDbEntity
  8
0
100
AcDbLine
 62
7
  6
CONTINUOUS
 10
17.993656077
 20
2.4196554373
 11
17.993656077
 21
2.4279054419
  0
LINE
  5
3F3
100
AcDbEntity
  8
0
100
AcDbLine
 62
7
  6
CONTINUOUS
 10
17.9946200775
 20
2.3815504162
 11
17.9946200775
 21
2.3898004208
  0
LINE
  5
3F4
100
AcDbEntity
  8
0
100
AcDbLine
 62
7
  6
CONTINUOUS
 10
18.040470103
 20
2.4526554556
 11
18.040470103
 21
2.4196554373
  0
LINE
  5
3F5
100
AcDbEntity
  8
0
100
AcDbLine
 62
7
  6
CONTINUOUS
 10
18.0418891038
 20
2.3898004208
 11
18.0418891038
 21
2.3568004025
  0
LINE
  5
3F6
100
AcDbEntity
  8
0
100
AcDbLine
 62
7
  6
CONTINUOUS
 10
18.065843117
 20
2.3568004025
 11
18.065843117
 21
2.3766004134
  0
LINE
  5
3F7
100
AcDbEntity
  8
0
100
AcDbLine
 62
7
  6
CONTINUOUS
 10
18.065843117
 20
2.4328554446
 11
18.065843117
 21
2.4526554556
  0
LINE
  5
3F8
100
AcDbEntity
  8
0
100
AcDbLine
 62
7
  6
CONTINUOUS
 10
18.0935391324
 20
2.3815504162
 11
18.0935391324
 21
2.4279054419
  0
LINE
  5
3F9
100
AcDbEntity
  8
0
100
AcDbLine
 62
7
  6
CONTINUOUS
 10
18.1547551663
 20
2.3912274216
 11
18.1547551663
 21
2.3815284162
  0
LINE
  5
3FA
100
AcDbEntity
  8
0
100
AcDbLine
 62
7
  6
CONTINUOUS
 10
18.1547551663
 20
2.4151804348
 11
18.1547551663
 21
2.4279054419
  0
LINE
  5
3FB
100
AcDbEntity
  8
0
100
AcDbLine
 62
7
  6
CONTINUOUS
 10
18.1843641828
 20
2.3765784134
 11
18.1843641828
 21
2.3568004025
  0
LINE
  5
3FC
100
AcDbEntity
  8
0
100
AcDbLine
 62
7
  6
CONTINUOUS
 10
18.2835562378
 20
2.3881114198
 11
18.2835562378
 21
2.3907374213
  0
LINE
  5
3FD
100
AcDbEntity
  8
0
100
AcDbLine
 62
7
  6
CONTINUOUS
 10
18.3006162472
 20
2.3907374213
 11
18.3006162472
 21
2.3791854149
  0
LINE
  5
3FE
100
AcDbEntity
  8
0
100
AcDbLine
 62
7
  6
CONTINUOUS
 10
18.3975725422
 20
2.3981678251
 11
18.3975725422
 21
2.4087850316
  0
LINE
  5
3FF
100
AcDbEntity
  8
0
100
AcDbLine
 62
7
  6
CONTINUOUS
 10
17.1801246258
 20
2.4539814564
 11
17.1333245999
 21
2.3802244155
  0
LINE
  5
400
100
AcDbEntity
  8
0
100
AcDbLine
 62
7
  6
CONTINUOUS
 10
17.1935256333
 20
2.4286874423
 11
17.1864086293
 21
2.4174704361
  0
LINE
  5
401
100
AcDbEntity
  8
0
100
AcDbLine
 62
7
  6
CONTINUOUS
 10
17.1723766216
 20
2.3828764169
 11
17.1778926246
 21
2.3915704217
  0
LINE
  5
402
100
AcDbEntity
  8
0
100
AcDbLine
 62
7
  6
CONTINUOUS
 10
17.059669559
 20
2.4041904287
 11
17.0679095636
 21
2.4089664314
  0
ARC
  5
403
100
AcDbEntity
  8
0
100
AcDbCircle
 62
7
  6
CONTINUOUS
 10
17.4632701481
 20
2.3568008172
 40
0.0024754162
100
AcDbArc
 50
226.3593695814
 51
270.0146919953
  0
ARC
  5
404
100
AcDbEntity
  8
0
100
AcDbCircle
 62
7
  6
CONTINUOUS
 10
16.8743904545
 20
2.3568004006
 40
0.0024749995
100
AcDbArc
 50
179.9999571957
 51
270.0000428043
  0
ARC
  5
405
100
AcDbEntity
  8
0
100
AcDbCircle
 62
7
  6
CONTINUOUS
 10
17.5374758259
 20
2.3568004006
 40
0.0024749995
100
AcDbArc
 50
269.9999571957
 51
0.0000428043
  0
ARC
  5
406
100
AcDbEntity
  8
0
100
AcDbCircle
 62
7
  6
CONTINUOUS
 10
17.416889759
 20
2.3568004006
 40
0.0024749995
100
AcDbArc
 50
269.9999571957
 51
0.0000428043
  0
ARC
  5
407
100
AcDbEntity
  8
0
100
AcDbCircle
 62
7
  6
CONTINUOUS
 10
17.3412257133
 20
2.3568004006
 40
0.0024749995
100
AcDbArc
 50
179.9999571957
 51
270.0000428043
  0
ARC
  5
408
100
AcDbEntity
  8
0
100
AcDbCircle
 62
7
  6
CONTINUOUS
 10
17.2060356384
 20
2.3568004006
 40
0.0024749995
100
AcDbArc
 50
179.9999571957
 51
270.0000428043
  0
ARC
  5
409
100
AcDbEntity
  8
0
100
AcDbCircle
 62
7
  6
CONTINUOUS
 10
17.3113167005
 20
2.3568004006
 40
0.0024749995
100
AcDbArc
 50
269.9999571957
 51
0.0000428043
  0
ARC
  5
40A
100
AcDbEntity
  8
0
100
AcDbCircle
 62
7
  6
CONTINUOUS
 10
17.1083735842
 20
2.3568004006
 40
0.0024749995
100
AcDbArc
 50
179.9999571957
 51
270.0000428043
  0
ARC
  5
40B
100
AcDbEntity
  8
0
100
AcDbCircle
 62
7
  6
CONTINUOUS
 10
17.1857496308
 20
2.3568004006
 40
0.0024749995
100
AcDbArc
 50
269.9999571958
 51
0.0000428044
  0
ARC
  5
40C
100
AcDbEntity
  8
0
100
AcDbCircle
 62
7
  6
CONTINUOUS
 10
17.0404590422
 20
2.3933827403
 40
0.061747717
100
AcDbArc
 50
59.5385584989
 51
90.0050977555
  0
ARC
  5
40D
100
AcDbEntity
  8
0
100
AcDbCircle
 62
7
  6
CONTINUOUS
 10
17.0481152095
 20
2.4027328529
 40
0.048483885
100
AcDbArc
 50
273.21763719
 51
303.0749121182
  0
ARC
  5
40E
100
AcDbEntity
  8
0
100
AcDbCircle
 62
7
  6
CONTINUOUS
 10
17.0620614151
 20
2.3797859164
 40
0.0222174455
100
AcDbArc
 50
4.0793399388
 51
69.834329283
  0
ARC
  5
40F
100
AcDbEntity
  8
0
100
AcDbCircle
 62
7
  6
CONTINUOUS
 10
17.0629546036
 20
2.379965244
 40
0.0213072145
100
AcDbArc
 50
303.0488228549
 51
355.7263138674
  0
ARC
  5
410
100
AcDbEntity
  8
0
100
AcDbCircle
 62
7
  6
CONTINUOUS
 10
17.0688911042
 20
2.3799744343
 40
0.0153945295
100
AcDbArc
 50
354.0454548824
 51
5.1878013979
  0
ARC
  5
411
100
AcDbEntity
  8
0
100
AcDbCircle
 62
7
  6
CONTINUOUS
 10
17.0051585288
 20
2.3877379196
 40
0.0086625048
100
AcDbArc
 50
270.0
 51
90.0
  0
ARC
  5
412
100
AcDbEntity
  8
0
100
AcDbCircle
 62
7
  6
CONTINUOUS
 10
17.2148601055
 20
2.3902439622
 40
0.0024754602
100
AcDbArc
 50
32.8959418573
 51
89.9875097202
  0
ARC
  5
413
100
AcDbEntity
  8
0
100
AcDbCircle
 62
7
  6
CONTINUOUS
 10
17.131234669
 20
2.3815506151
 40
0.0024752003
100
AcDbArc
 50
269.9983726451
 51
327.602165307
  0
ARC
  5
414
100
AcDbEntity
  8
0
100
AcDbCircle
 62
7
  6
CONTINUOUS
 10
17.1799825555
 20
2.3902442221
 40
0.0024752003
100
AcDbArc
 50
89.998372645
 51
147.602165307
  0
ARC
  5
415
100
AcDbEntity
  8
0
100
AcDbCircle
 62
7
  6
CONTINUOUS
 10
17.1744665134
 20
2.3815504549
 40
0.0024750401
100
AcDbArc
 50
147.6063258011
 51
270.0025305754
  0
ARC
  5
416
100
AcDbEntity
  8
0
100
AcDbCircle
 62
7
  6
CONTINUOUS
 10
16.8983324714
 20
2.3815504143
 40
0.0024749995
100
AcDbArc
 50
269.9999571957
 51
0.0000428043
  0
ARC
  5
417
100
AcDbEntity
  8
0
100
AcDbCircle
 62
7
  6
CONTINUOUS
 10
16.8743904545
 20
2.3766004153
 40
0.0024749995
100
AcDbArc
 50
89.9999571957
 51
180.0000428043
  0
ARC
  5
418
100
AcDbEntity
  8
0
100
AcDbCircle
 62
7
  6
CONTINUOUS
 10
16.963795504
 20
2.3939254249
 40
0.0024749995
100
AcDbArc
 50
89.9999571957
 51
180.0000428043
  0
ARC
  5
419
100
AcDbEntity
  8
0
100
AcDbCircle
 62
7
  6
CONTINUOUS
 10
16.963795504
 20
2.3815504143
 40
0.0024749995
100
AcDbArc
 50
179.9999571957
 51
270.0000428043
  0
ARC
  5
41A
100
AcDbEntity
  8
0
100
AcDbCircle
 62
7
  6
CONTINUOUS
 10
17.2060356384
 20
2.3766004153
 40
0.0024749995
100
AcDbArc
 50
89.9999571957
 51
180.0000428043
  0
ARC
  5
41B
100
AcDbEntity
  8
0
100
AcDbCircle
 62
7
  6
CONTINUOUS
 10
17.1083735842
 20
2.3766004153
 40
0.0024749995
100
AcDbArc
 50
89.9999571957
 51
180.0000428043
  0
ARC
  5
41C
100
AcDbEntity
  8
0
100
AcDbCircle
 62
7
  6
CONTINUOUS
 10
17.1857496308
 20
2.3766004153
 40
0.0024749995
100
AcDbArc
 50
359.9999571957
 51
90.0000428043
  0
ARC
  5
41D
100
AcDbEntity
  8
0
100
AcDbCircle
 62
7
  6
CONTINUOUS
 10
17.0460441811
 20
2.445793323
 40
0.0428289026
100
AcDbArc
 50
300.6990502959
 51
319.0591802498
  0
ARC
  5
41E
100
AcDbEntity
  8
0
100
AcDbCircle
 62
7
  6
CONTINUOUS
 10
17.0611211659
 20
2.4263113051
 40
0.0229166529
100
AcDbArc
 50
20.6563876465
 51
62.3316896973
  0
ARC
  5
41F
100
AcDbEntity
  8
0
100
AcDbCircle
 62
7
  6
CONTINUOUS
 10
17.0660727781
 20
2.4296649696
 40
0.0171568255
100
AcDbArc
 50
315.9145124245
 51
16.0049121283
  0
ARC
  5
420
100
AcDbEntity
  8
0
100
AcDbCircle
 62
7
  6
CONTINUOUS
 10
17.0051585288
 20
2.4217179385
 40
0.0086625048
100
AcDbArc
 50
270.0
 51
90.0
  0
ARC
  5
421
100
AcDbEntity
  8
0
100
AcDbCircle
 62
7
  6
CONTINUOUS
 10
17.2017960982
 20
2.4273609828
 40
0.0024754602
100
AcDbArc
 50
32.8959418573
 51
89.9875097202
  0
ARC
  5
422
100
AcDbEntity
  8
0
100
AcDbCircle
 62
7
  6
CONTINUOUS
 10
17.2090556207
 20
2.4161446411
 40
0.0024752071
100
AcDbArc
 50
270.0004896793
 51
32.9089806818
  0
ARC
  5
423
100
AcDbEntity
  8
0
100
AcDbCircle
 62
7
  6
CONTINUOUS
 10
17.1956155641
 20
2.4273612427
 40
0.0024752003
100
AcDbArc
 50
89.998372645
 51
147.602165307
  0
ARC
  5
424
100
AcDbEntity
  8
0
100
AcDbCircle
 62
7
  6
CONTINUOUS
 10
17.1822145567
 20
2.4526552567
 40
0.0024752003
100
AcDbArc
 50
89.998372645
 51
147.602165307
  0
ARC
  5
425
100
AcDbEntity
  8
0
100
AcDbCircle
 62
7
  6
CONTINUOUS
 10
17.1884985212
 20
2.4161444741
 40
0.0024750401
100
AcDbArc
 50
147.6063258012
 51
270.0025305754
  0
ARC
  5
426
100
AcDbEntity
  8
0
100
AcDbCircle
 62
7
  6
CONTINUOUS
 10
16.8743904545
 20
2.4526554575
 40
0.0024749995
100
AcDbArc
 50
89.9999571957
 51
180.0000428043
  0
ARC
  5
427
100
AcDbEntity
  8
0
100
AcDbCircle
 62
7
  6
CONTINUOUS
 10
16.8743904545
 20
2.4328554428
 40
0.0024749995
100
AcDbArc
 50
179.9999571957
 51
270.0000428043
  0
ARC
  5
428
100
AcDbEntity
  8
0
100
AcDbCircle
 62
7
  6
CONTINUOUS
 10
16.8983324714
 20
2.4279054437
 40
0.0024749995
100
AcDbArc
 50
359.9999571957
 51
90.0000428043
  0
ARC
  5
429
100
AcDbEntity
  8
0
100
AcDbCircle
 62
7
  6
CONTINUOUS
 10
16.963795504
 20
2.4279054437
 40
0.0024749995
100
AcDbArc
 50
89.9999571957
 51
180.0000428043
  0
ARC
  5
42A
100
AcDbEntity
  8
0
100
AcDbCircle
 62
7
  6
CONTINUOUS
 10
16.963795504
 20
2.4155304332
 40
0.0024749995
100
AcDbArc
 50
179.9999571957
 51
270.0000428043
  0
ARC
  5
42B
100
AcDbEntity
  8
0
100
AcDbCircle
 62
7
  6
CONTINUOUS
 10
17.5051335061
 20
2.3989573626
 40
0.0024753014
100
AcDbArc
 50
226.3461263059
 51
0.0014637321
  0
ARC
  5
42C
100
AcDbEntity
  8
0
100
AcDbCircle
 62
7
  6
CONTINUOUS
 10
17.3965730459
 20
2.4135964972
 40
0.0024753014
100
AcDbArc
 50
46.3461263059
 51
180.0014637321
  0
ARC
  5
42D
100
AcDbEntity
  8
0
100
AcDbCircle
 62
7
  6
CONTINUOUS
 10
17.2204866271
 20
2.3815506219
 40
0.0024752071
100
AcDbArc
 50
270.0004896793
 51
32.9089806818
  0
ARC
  5
42E
100
AcDbEntity
  8
0
100
AcDbCircle
 62
7
  6
CONTINUOUS
 10
17.396572744
 20
2.3815504143
 40
0.0024749995
100
AcDbArc
 50
179.9999571957
 51
270.0000428043
  0
ARC
  5
42F
100
AcDbEntity
  8
0
100
AcDbCircle
 62
7
  6
CONTINUOUS
 10
17.416889759
 20
2.3766004153
 40
0.0024749995
100
AcDbArc
 50
359.9999571957
 51
90.0000428043
  0
ARC
  5
430
100
AcDbEntity
  8
0
100
AcDbCircle
 62
7
  6
CONTINUOUS
 10
17.3412257133
 20
2.3766004153
 40
0.0024749995
100
AcDbArc
 50
89.9999571957
 51
180.0000428043
  0
ARC
  5
431
100
AcDbEntity
  8
0
100
AcDbCircle
 62
7
  6
CONTINUOUS
 10
17.3598727274
 20
2.3815504143
 40
0.0024749995
100
AcDbArc
 50
269.9999571957
 51
0.0000428043
  0
ARC
  5
432
100
AcDbEntity
  8
0
100
AcDbCircle
 62
7
  6
CONTINUOUS
 10
17.3113167005
 20
2.3766004153
 40
0.0024749995
100
AcDbArc
 50
359.9999571957
 51
90.0000428043
  0
ARC
  5
433
100
AcDbEntity
  8
0
100
AcDbCircle
 62
7
  6
CONTINUOUS
 10
17.291300808
 20
2.3815494558
 40
0.002474041
100
AcDbArc
 50
212.9056413127
 51
269.9972091755
  0
ARC
  5
434
100
AcDbEntity
  8
0
100
AcDbCircle
 62
7
  6
CONTINUOUS
 10
17.5051338079
 20
2.4279054437
 40
0.0024749995
100
AcDbArc
 50
359.9999571957
 51
90.0000428043
  0
ARC
  5
435
100
AcDbEntity
  8
0
100
AcDbCircle
 62
7
  6
CONTINUOUS
 10
17.4863577938
 20
2.4328554428
 40
0.0024749995
100
AcDbArc
 50
179.9999571957
 51
270.0000428043
  0
ARC
  5
436
100
AcDbEntity
  8
0
100
AcDbCircle
 62
7
  6
CONTINUOUS
 10
17.4863577938
 20
2.4526554575
 40
0.0024749995
100
AcDbArc
 50
89.9999571957
 51
180.0000428043
  0
ARC
  5
437
100
AcDbEntity
  8
0
100
AcDbCircle
 62
7
  6
CONTINUOUS
 10
17.5603588386
 20
2.4526554575
 40
0.0024749995
100
AcDbArc
 50
359.9999571957
 51
90.0000428043
  0
ARC
  5
438
100
AcDbEntity
  8
0
100
AcDbCircle
 62
7
  6
CONTINUOUS
 10
17.5603588386
 20
2.4328554428
 40
0.0024749995
100
AcDbArc
 50
269.9999571957
 51
0.0000428043
  0
ARC
  5
439
100
AcDbEntity
  8
0
100
AcDbCircle
 62
7
  6
CONTINUOUS
 10
17.5424258249
 20
2.4279054437
 40
0.0024749995
100
AcDbArc
 50
89.9999571957
 51
180.0000428043
  0
ARC
  5
43A
100
AcDbEntity
  8
0
100
AcDbCircle
 62
7
  6
CONTINUOUS
 10
17.3598727274
 20
2.4279054437
 40
0.0024749995
100
AcDbArc
 50
359.9999571957
 51
90.0000428043
  0
ARC
  5
43B
100
AcDbEntity
  8
0
100
AcDbCircle
 62
7
  6
CONTINUOUS
 10
17.3412257133
 20
2.4328554428
 40
0.0024749995
100
AcDbArc
 50
179.9999571957
 51
270.0000428043
  0
ARC
  5
43C
100
AcDbEntity
  8
0
100
AcDbCircle
 62
7
  6
CONTINUOUS
 10
17.3412257133
 20
2.4526554575
 40
0.0024749995
100
AcDbArc
 50
89.9999571957
 51
180.0000428043
  0
ARC
  5
43D
100
AcDbEntity
  8
0
100
AcDbCircle
 62
7
  6
CONTINUOUS
 10
17.2393900382
 20
2.4526554968
 40
0.0024749602
100
AcDbArc
 50
32.9172174468
 51
90.0087853097
  0
ARC
  5
43E
100
AcDbEntity
  8
0
100
AcDbCircle
 62
7
  6
CONTINUOUS
 10
17.4416839057
 20
2.4526562892
 40
0.0024741678
100
AcDbArc
 50
46.3477981899
 51
90.0031206038
  0
ARC
  5
43F
100
AcDbEntity
  8
0
100
AcDbCircle
 62
7
  6
CONTINUOUS
 10
18.2152358981
 20
2.2725915465
 40
0.1825583387
100
AcDbArc
 50
79.8618509324
 51
89.1640948679
  0
ARC
  5
440
100
AcDbEntity
  8
0
100
AcDbCircle
 62
7
  6
CONTINUOUS
 10
18.197141171
 20
2.3016991173
 40
0.117346916
100
AcDbArc
 50
58.614769177
 51
62.3737227606
  0
ARC
  5
441
100
AcDbEntity
  8
0
100
AcDbCircle
 62
7
  6
CONTINUOUS
 10
18.2260032264
 20
2.3725718859
 40
0.0459185159
100
AcDbArc
 50
15.6740290068
 51
20.9917271228
  0
ARC
  5
442
100
AcDbEntity
  8
0
100
AcDbCircle
 62
7
  6
CONTINUOUS
 10
18.1662929967
 20
2.368643334
 40
0.0396099176
100
AcDbArc
 50
14.3201081283
 51
22.4984722084
  0
ARC
  5
443
100
AcDbEntity
  8
0
100
AcDbCircle
 62
7
  6
CONTINUOUS
 10
18.1850046504
 20
2.3693353402
 40
0.0243676582
100
AcDbArc
 50
63.3666028271
 51
90.3937697637
  0
ARC
  5
444
100
AcDbEntity
  8
0
100
AcDbCircle
 62
7
  6
CONTINUOUS
 10
18.2724993219
 20
2.3741987064
 40
0.0198837666
100
AcDbArc
 50
271.8586572978
 51
289.4131338543
  0
ARC
  5
445
100
AcDbEntity
  8
0
100
AcDbCircle
 62
7
  6
CONTINUOUS
 10
18.2265855264
 20
2.3716475527
 40
0.0173408616
100
AcDbArc
 50
232.4713476722
 51
267.338189944
  0
ARC
  5
446
100
AcDbEntity
  8
0
100
AcDbCircle
 62
7
  6
CONTINUOUS
 10
18.1818891832
 20
2.3568004006
 40
0.0024749995
100
AcDbArc
 50
269.9999571957
 51
0.0000428043
  0
ARC
  5
447
100
AcDbEntity
  8
0
100
AcDbCircle
 62
7
  6
CONTINUOUS
 10
18.0683181166
 20
2.3568004006
 40
0.0024749995
100
AcDbArc
 50
179.9999571957
 51
270.0000428043
  0
ARC
  5
448
100
AcDbEntity
  8
0
100
AcDbCircle
 62
7
  6
CONTINUOUS
 10
17.7857289635
 20
2.3568004006
 40
0.0024749995
100
AcDbArc
 50
269.9999571957
 51
0.0000428043
  0
ARC
  5
449
100
AcDbEntity
  8
0
100
AcDbCircle
 62
7
  6
CONTINUOUS
 10
17.6651428967
 20
2.3568004006
 40
0.0024749995
100
AcDbArc
 50
269.9999571957
 51
0.0000428043
  0
ARC
  5
44A
100
AcDbEntity
  8
0
100
AcDbCircle
 62
7
  6
CONTINUOUS
 10
17.589478851
 20
2.3568004006
 40
0.0024749995
100
AcDbArc
 50
179.9999571957
 51
270.0000428043
  0
ARC
  5
44B
100
AcDbEntity
  8
0
100
AcDbCircle
 62
7
  6
CONTINUOUS
 10
18.0394141042
 20
2.3568004006
 40
0.0024749995
100
AcDbArc
 50
269.9999571957
 51
0.0000428043
  0
ARC
  5
44C
100
AcDbEntity
  8
0
100
AcDbCircle
 62
7
  6
CONTINUOUS
 10
17.8362019878
 20
2.3568004006
 40
0.0024749995
100
AcDbArc
 50
179.9999571957
 51
270.0000428043
  0
ARC
  5
44D
100
AcDbEntity
  8
0
100
AcDbCircle
 62
7
  6
CONTINUOUS
 10
17.7115227858
 20
2.3567995689
 40
0.0024741678
100
AcDbArc
 50
226.3477981898
 51
270.0031206038
  0
ARC
  5
44E
100
AcDbEntity
  8
0
100
AcDbCircle
 62
7
  6
CONTINUOUS
 10
17.7533866437
 20
2.3989573626
 40
0.0024753014
100
AcDbArc
 50
226.3461263059
 51
0.0014637321
  0
ARC
  5
44F
100
AcDbEntity
  8
0
100
AcDbCircle
 62
7
  6
CONTINUOUS
 10
17.6448261836
 20
2.4135964972
 40
0.0024753014
100
AcDbArc
 50
46.3461263058
 51
180.0014637321
  0
ARC
  5
450
100
AcDbEntity
  8
0
100
AcDbCircle
 62
7
  6
CONTINUOUS
 10
17.6448258817
 20
2.3815504143
 40
0.0024749995
100
AcDbArc
 50
179.9999571957
 51
270.0000428043
  0
ARC
  5
451
100
AcDbEntity
  8
0
100
AcDbCircle
 62
7
  6
CONTINUOUS
 10
17.6651428967
 20
2.3766004153
 40
0.0024749995
100
AcDbArc
 50
359.9999571957
 51
90.0000428043
  0
ARC
  5
452
100
AcDbEntity
  8
0
100
AcDbCircle
 62
7
  6
CONTINUOUS
 10
17.589478851
 20
2.3766004153
 40
0.0024749995
100
AcDbArc
 50
89.9999571957
 51
180.0000428043
  0
ARC
  5
453
100
AcDbEntity
  8
0
100
AcDbCircle
 62
7
  6
CONTINUOUS
 10
17.6081248651
 20
2.3815504143
 40
0.0024749995
100
AcDbArc
 50
269.9999571957
 51
0.0000428043
  0
ARC
  5
454
100
AcDbEntity
  8
0
100
AcDbCircle
 62
7
  6
CONTINUOUS
 10
17.9271410383
 20
2.3931004244
 40
0.0024749995
100
AcDbArc
 50
89.9999571957
 51
180.0000428043
  0
ARC
  5
455
100
AcDbEntity
  8
0
100
AcDbCircle
 62
7
  6
CONTINUOUS
 10
17.9271410383
 20
2.3815504143
 40
0.0024749995
100
AcDbArc
 50
179.9999571957
 51
270.0000428043
  0
ARC
  5
456
100
AcDbEntity
  8
0
100
AcDbCircle
 62
7
  6
CONTINUOUS
 10
17.8362019878
 20
2.3766004153
 40
0.0024749995
100
AcDbArc
 50
89.9999571957
 51
180.0000428043
  0
ARC
  5
457
100
AcDbEntity
  8
0
100
AcDbCircle
 62
7
  6
CONTINUOUS
 10
17.8601250048
 20
2.3815504143
 40
0.0024749995
100
AcDbArc
 50
269.9999571956
 51
0.0000428042
  0
ARC
  5
458
100
AcDbEntity
  8
0
100
AcDbCircle
 62
7
  6
CONTINUOUS
 10
17.9271410383
 20
2.4163554336
 40
0.0024749995
100
AcDbArc
 50
179.9999571957
 51
270.0000428043
  0
ARC
  5
459
100
AcDbEntity
  8
0
100
AcDbCircle
 62
7
  6
CONTINUOUS
 10
17.7533869456
 20
2.4279054437
 40
0.0024749995
100
AcDbArc
 50
359.9999571957
 51
90.0000428043
  0
ARC
  5
45A
100
AcDbEntity
  8
0
100
AcDbCircle
 62
7
  6
CONTINUOUS
 10
17.7346109315
 20
2.4328554428
 40
0.0024749995
100
AcDbArc
 50
179.9999571957
 51
270.0000428043
  0
ARC
  5
45B
100
AcDbEntity
  8
0
100
AcDbCircle
 62
7
  6
CONTINUOUS
 10
17.7346109315
 20
2.4526554575
 40
0.0024749995
100
AcDbArc
 50
89.9999571957
 51
180.0000428043
  0
ARC
  5
45C
100
AcDbEntity
  8
0
100
AcDbCircle
 62
7
  6
CONTINUOUS
 10
17.8086119762
 20
2.4526554575
 40
0.0024749995
100
AcDbArc
 50
359.9999571957
 51
90.0000428043
  0
ARC
  5
45D
100
AcDbEntity
  8
0
100
AcDbCircle
 62
7
  6
CONTINUOUS
 10
17.8086119762
 20
2.4328554428
 40
0.0024749995
100
AcDbArc
 50
269.9999571956
 51
0.0000428042
  0
ARC
  5
45E
100
AcDbEntity
  8
0
100
AcDbCircle
 62
7
  6
CONTINUOUS
 10
17.7906789626
 20
2.4279054437
 40
0.0024749995
100
AcDbArc
 50
89.9999571957
 51
180.0000428043
  0
ARC
  5
45F
100
AcDbEntity
  8
0
100
AcDbCircle
 62
7
  6
CONTINUOUS
 10
17.6081248651
 20
2.4279054437
 40
0.0024749995
100
AcDbArc
 50
359.9999571957
 51
90.0000428043
  0
ARC
  5
460
100
AcDbEntity
  8
0
100
AcDbCircle
 62
7
  6
CONTINUOUS
 10
17.589478851
 20
2.4328554428
 40
0.0024749995
100
AcDbArc
 50
179.9999571957
 51
270.0000428043
  0
ARC
  5
461
100
AcDbEntity
  8
0
100
AcDbCircle
 62
7
  6
CONTINUOUS
 10
17.589478851
 20
2.4526554575
 40
0.0024749995
100
AcDbArc
 50
89.9999571957
 51
180.0000428043
  0
ARC
  5
462
100
AcDbEntity
  8
0
100
AcDbCircle
 62
7
  6
CONTINUOUS
 10
17.8601250048
 20
2.4279054437
 40
0.0024749995
100
AcDbArc
 50
359.9999571957
 51
90.0000428043
  0
ARC
  5
463
100
AcDbEntity
  8
0
100
AcDbCircle
 62
7
  6
CONTINUOUS
 10
17.8362019878
 20
2.4328554428
 40
0.0024749995
100
AcDbArc
 50
179.9999571957
 51
270.0000428043
  0
ARC
  5
464
100
AcDbEntity
  8
0
100
AcDbCircle
 62
7
  6
CONTINUOUS
 10
17.8362019878
 20
2.4526554575
 40
0.0024749995
100
AcDbArc
 50
89.9999571957
 51
180.0000428043
  0
ARC
  5
465
100
AcDbEntity
  8
0
100
AcDbCircle
 62
7
  6
CONTINUOUS
 10
17.9271410383
 20
2.4279054437
 40
0.0024749995
100
AcDbArc
 50
89.9999571957
 51
180.0000428043
  0
ARC
  5
466
100
AcDbEntity
  8
0
100
AcDbCircle
 62
7
  6
CONTINUOUS
 10
17.6899370433
 20
2.4526562892
 40
0.0024741678
100
AcDbArc
 50
46.3477981899
 51
90.0031206038
  0
ARC
  5
467
100
AcDbEntity
  8
0
100
AcDbCircle
 62
7
  6
CONTINUOUS
 10
18.2495655574
 20
2.384346736
 40
0.044722495
100
AcDbArc
 50
195.531588407
 51
204.7624440448
  0
ARC
  5
468
100
AcDbEntity
  8
0
100
AcDbCircle
 62
7
  6
CONTINUOUS
 10
18.2415401884
 20
2.4134150625
 40
0.039319019
100
AcDbArc
 50
59.1202086415
 51
81.4730239328
  0
ARC
  5
469
100
AcDbEntity
  8
0
100
AcDbCircle
 62
7
  6
CONTINUOUS
 10
18.2667613545
 20
2.3917854558
 40
0.0383802683
100
AcDbArc
 50
288.7656836787
 51
309.6104317088
  0
ARC
  5
46A
100
AcDbEntity
  8
0
100
AcDbCircle
 62
7
  6
CONTINUOUS
 10
18.2471995846
 20
2.4197497317
 40
0.0310192946
100
AcDbArc
 50
34.7540871
 51
62.0879016178
  0
ARC
  5
46B
100
AcDbEntity
  8
0
100
AcDbCircle
 62
7
  6
CONTINUOUS
 10
18.1924863006
 20
2.4019259643
 40
0.0284963867
100
AcDbArc
 50
70.3834917948
 51
86.8922743861
  0
ARC
  5
46C
100
AcDbEntity
  8
0
100
AcDbCircle
 62
7
  6
CONTINUOUS
 10
18.2737535399
 20
2.384184238
 40
0.0280715479
100
AcDbArc
 50
308.5071794988
 51
332.2400656899
  0
ARC
  5
46D
100
AcDbEntity
  8
0
100
AcDbCircle
 62
7
  6
CONTINUOUS
 10
18.2439037681
 20
2.3797532943
 40
0.0266349791
100
AcDbArc
 50
20.3630922153
 51
37.9727053099
  0
ARC
  5
46E
100
AcDbEntity
  8
0
100
AcDbCircle
 62
7
  6
CONTINUOUS
 10
18.2450241237
 20
2.3798263774
 40
0.0257145923
100
AcDbArc
 50
39.3804255939
 51
59.0361096173
  0
ARC
  5
46F
100
AcDbEntity
  8
0
100
AcDbCircle
 62
7
  6
CONTINUOUS
 10
18.2296840914
 20
2.3774978567
 40
0.0238935861
100
AcDbArc
 50
209.8247607259
 51
235.1255079367
  0
ARC
  5
470
100
AcDbEntity
  8
0
100
AcDbCircle
 62
7
  6
CONTINUOUS
 10
18.2830605507
 20
2.3792897325
 40
0.0175560065
100
AcDbArc
 50
332.2279060967
 51
359.6595469939
  0
ARC
  5
471
100
AcDbEntity
  8
0
100
AcDbCircle
 62
7
  6
CONTINUOUS
 10
18.1890593051
 20
2.3776149607
 40
0.0151491919
100
AcDbArc
 50
24.098260853
 51
63.0369451818
  0
ARC
  5
472
100
AcDbEntity
  8
0
100
AcDbCircle
 62
7
  6
CONTINUOUS
 10
18.2845735615
 20
2.3882148688
 40
0.0147197649
100
AcDbArc
 50
192.7054516565
 51
206.0594861022
  0
ARC
  5
473
100
AcDbEntity
  8
0
100
AcDbCircle
 62
7
  6
CONTINUOUS
 10
18.1973459106
 20
2.4149676972
 40
0.0145814632
100
AcDbArc
 50
54.6746025112
 51
71.1660573124
  0
ARC
  5
474
100
AcDbEntity
  8
0
100
AcDbCircle
 62
7
  6
CONTINUOUS
 10
18.2752146786
 20
2.3927110743
 40
0.0132488022
100
AcDbArc
 50
270.266200055
 51
281.2404888597
  0
ARC
  5
475
100
AcDbEntity
  8
0
100
AcDbCircle
 62
7
  6
CONTINUOUS
 10
18.2716089246
 20
2.3878675959
 40
0.0119498009
100
AcDbArc
 50
340.7883861657
 51
1.1691452593
  0
ARC
  5
476
100
AcDbEntity
  8
0
100
AcDbCircle
 62
7
  6
CONTINUOUS
 10
18.198398534
 20
2.4260095887
 40
0.0110815393
100
AcDbArc
 50
306.758405961
 51
320.4502234234
  0
ARC
  5
477
100
AcDbEntity
  8
0
100
AcDbCircle
 62
7
  6
CONTINUOUS
 10
18.2764089196
 20
2.3869743807
 40
0.0073895522
100
AcDbArc
 50
280.8288201977
 51
305.0837508495
  0
ARC
  5
478
100
AcDbEntity
  8
0
100
AcDbCircle
 62
7
  6
CONTINUOUS
 10
18.2768101012
 20
2.3861235343
 40
0.0064647042
100
AcDbArc
 50
306.5086174083
 51
340.2162360092
  0
ARC
  5
479
100
AcDbEntity
  8
0
100
AcDbCircle
 62
7
  6
CONTINUOUS
 10
18.2024754016
 20
2.4218216224
 40
0.0060275915
100
AcDbArc
 50
20.9055592135
 51
56.7851676243
  0
ARC
  5
47A
100
AcDbEntity
  8
0
100
AcDbCircle
 62
7
  6
CONTINUOUS
 10
18.2025691502
 20
2.4227756809
 40
0.0058087709
100
AcDbArc
 50
318.8515287446
 51
353.6422345323
  0
ARC
  5
47B
100
AcDbEntity
  8
0
100
AcDbCircle
 62
7
  6
CONTINUOUS
 10
18.2760792244
 20
2.3840063824
 40
0.0052403997
100
AcDbArc
 50
205.5232099488
 51
227.5054868079
  0
ARC
  5
47C
100
AcDbEntity
  8
0
100
AcDbCircle
 62
7
  6
CONTINUOUS
 10
18.2037759605
 20
2.4224819047
 40
0.0045795888
100
AcDbArc
 50
355.6235353944
 51
18.9942678268
  0
ARC
  5
47D
100
AcDbEntity
  8
0
100
AcDbCircle
 62
7
  6
CONTINUOUS
 10
18.2743509251
 20
2.3821910097
 40
0.0027347709
100
AcDbArc
 50
228.5117626738
 51
266.1485845754
  0
ARC
  5
47E
100
AcDbEntity
  8
0
100
AcDbCircle
 62
7
  6
CONTINUOUS
 10
18.1572301659
 20
2.3912274234
 40
0.0024749995
100
AcDbArc
 50
89.9999571957
 51
180.0000428043
  0
ARC
  5
47F
100
AcDbEntity
  8
0
100
AcDbCircle
 62
7
  6
CONTINUOUS
 10
18.1572301659
 20
2.3815284143
 40
0.0024749995
100
AcDbArc
 50
179.9999571957
 51
270.0000428043
  0
ARC
  5
480
100
AcDbEntity
  8
0
100
AcDbCircle
 62
7
  6
CONTINUOUS
 10
18.1818891832
 20
2.3765784153
 40
0.0024749995
100
AcDbArc
 50
359.9999571957
 51
90.0000428043
  0
ARC
  5
481
100
AcDbEntity
  8
0
100
AcDbCircle
 62
7
  6
CONTINUOUS
 10
18.0683181166
 20
2.3766004153
 40
0.0024749995
100
AcDbArc
 50
89.9999571957
 51
180.0000428043
  0
ARC
  5
482
100
AcDbEntity
  8
0
100
AcDbCircle
 62
7
  6
CONTINUOUS
 10
18.0910641329
 20
2.3815504143
 40
0.0024749995
100
AcDbArc
 50
269.9999571957
 51
0.0000428043
  0
ARC
  5
483
100
AcDbEntity
  8
0
100
AcDbCircle
 62
7
  6
CONTINUOUS
 10
18.2860312373
 20
2.3907374231
 40
0.0024749995
100
AcDbArc
 50
89.9999571957
 51
180.0000428043
  0
ARC
  5
484
100
AcDbEntity
  8
0
100
AcDbCircle
 62
7
  6
CONTINUOUS
 10
18.2981412477
 20
2.3907374231
 40
0.0024749995
100
AcDbArc
 50
359.9999571957
 51
90.0000428043
  0
ARC
  5
485
100
AcDbEntity
  8
0
100
AcDbCircle
 62
7
  6
CONTINUOUS
 10
18.1572301659
 20
2.415180433
 40
0.0024749995
100
AcDbArc
 50
179.9999571957
 51
270.0000428043
  0
ARC
  5
486
100
AcDbEntity
  8
0
100
AcDbCircle
 62
7
  6
CONTINUOUS
 10
17.992145078
 20
2.3815504143
 40
0.0024749995
100
AcDbArc
 50
269.9999571957
 51
0.0000428043
  0
ARC
  5
487
100
AcDbEntity
  8
0
100
AcDbCircle
 62
7
  6
CONTINUOUS
 10
17.9970950771
 20
2.3898004226
 40
0.0024749995
100
AcDbArc
 50
89.9999571957
 51
180.0000428043
  0
ARC
  5
488
100
AcDbEntity
  8
0
100
AcDbCircle
 62
7
  6
CONTINUOUS
 10
18.0394141042
 20
2.3898004226
 40
0.0024749995
100
AcDbArc
 50
359.9999571957
 51
90.0000428043
  0
ARC
  5
489
100
AcDbEntity
  8
0
100
AcDbCircle
 62
7
  6
CONTINUOUS
 10
18.0379951034
 20
2.4196554355
 40
0.0024749995
100
AcDbArc
 50
269.9999571956
 51
0.0000428042
  0
ARC
  5
48A
100
AcDbEntity
  8
0
100
AcDbCircle
 62
7
  6
CONTINUOUS
 10
17.9961310765
 20
2.4196554355
 40
0.0024749995
100
AcDbArc
 50
179.9999571957
 51
270.0000428043
  0
ARC
  5
48B
100
AcDbEntity
  8
0
100
AcDbCircle
 62
7
  6
CONTINUOUS
 10
17.9623080615
 20
2.4114054346
 40
0.0024749995
100
AcDbArc
 50
359.9999571957
 51
90.0000428043
  0
ARC
  5
48C
100
AcDbEntity
  8
0
100
AcDbCircle
 62
7
  6
CONTINUOUS
 10
17.9623080615
 20
2.3980504235
 40
0.0024749995
100
AcDbArc
 50
269.9999571956
 51
0.0000428042
  0
ARC
  5
48D
100
AcDbEntity
  8
0
100
AcDbCircle
 62
7
  6
CONTINUOUS
 10
18.220842337
 20
2.4783532224
 40
0.0789082104
100
AcDbArc
 50
292.906155071
 51
305.2574666259
  0
ARC
  5
48E
100
AcDbEntity
  8
0
100
AcDbCircle
 62
7
  6
CONTINUOUS
 10
18.2511742746
 20
2.4351463727
 40
0.0261183659
100
AcDbArc
 50
305.6373831893
 51
329.9727629745
  0
ARC
  5
48F
100
AcDbEntity
  8
0
100
AcDbCircle
 62
7
  6
CONTINUOUS
 10
18.1908418374
 20
2.4381440645
 40
0.0254407115
100
AcDbArc
 50
270.7327484175
 51
290.441894219
  0
ARC
  5
490
100
AcDbEntity
  8
0
100
AcDbCircle
 62
7
  6
CONTINUOUS
 10
18.1927693431
 20
2.4337504172
 40
0.0206523367
100
AcDbArc
 50
289.6883413472
 51
306.4184925496
  0
ARC
  5
491
100
AcDbEntity
  8
0
100
AcDbCircle
 62
7
  6
CONTINUOUS
 10
18.2588883357
 20
2.4282993328
 40
0.0165459396
100
AcDbArc
 50
1.548452892
 51
33.5033152417
  0
ARC
  5
492
100
AcDbEntity
  8
0
100
AcDbCircle
 62
7
  6
CONTINUOUS
 10
18.2621849309
 20
2.428467785
 40
0.0132462337
100
AcDbArc
 50
331.1510006998
 51
1.205404301
  0
ARC
  5
493
100
AcDbEntity
  8
0
100
AcDbCircle
 62
7
  6
CONTINUOUS
 10
18.0910641329
 20
2.4279054437
 40
0.0024749995
100
AcDbArc
 50
359.9999571957
 51
90.0000428043
  0
ARC
  5
494
100
AcDbEntity
  8
0
100
AcDbCircle
 62
7
  6
CONTINUOUS
 10
18.0683181166
 20
2.4328554428
 40
0.0024749995
100
AcDbArc
 50
179.9999571957
 51
270.0000428043
  0
ARC
  5
495
100
AcDbEntity
  8
0
100
AcDbCircle
 62
7
  6
CONTINUOUS
 10
18.0683181166
 20
2.4526554575
 40
0.0024749995
100
AcDbArc
 50
89.9999571957
 51
180.0000428043
  0
ARC
  5
496
100
AcDbEntity
  8
0
100
AcDbCircle
 62
7
  6
CONTINUOUS
 10
18.1572301659
 20
2.4279054437
 40
0.0024749995
100
AcDbArc
 50
89.9999571957
 51
180.0000428043
  0
ARC
  5
497
100
AcDbEntity
  8
0
100
AcDbCircle
 62
7
  6
CONTINUOUS
 10
18.0379951034
 20
2.4526554575
 40
0.0024749995
100
AcDbArc
 50
359.9999571957
 51
90.0000428043
  0
ARC
  5
498
100
AcDbEntity
  8
0
100
AcDbCircle
 62
7
  6
CONTINUOUS
 10
17.9911810775
 20
2.4279054437
 40
0.0024749995
100
AcDbArc
 50
359.9999571957
 51
90.0000428043
  0
ELLIPSE
  5
499
100
AcDbEntity
  8
0
100
AcDbEllipse
 62
7
  6
CONTINUOUS
 10
17.573550844
 20
2.4034764283
 30
0.0
 11
-0.8250004575
 21
0.0
 31
0.0
 40
0.218572
 41
0.0
 42
6.2831853072
  0
HATCH
  5
49A
100
AcDbEntity
  8
0
100
AcDbHatch
 62
7
  6
CONTINUOUS
 10
0.0
 20
0.0
 30
0.0
210
0.0
220
0.0
230
1.0
  2
XSEC0002
 70
1
 71
1
 91
11
 92
1
 93
57
 72
2
 10
18.2265855264
 20
2.3716475527
 40
0.0173408616
 50
232.4713476722
 51
267.338189944
 73
1
 72
2
 10
18.2296840914
 20
2.3774978567
 40
0.0238935861
 50
209.8247607259
 51
235.1255079367
 73
1
 72
2
 10
18.2495655574
 20
2.384346736
 40
0.044722495
 50
195.531588407
 51
204.7624440448
 73
1
 72
1
 10
18.206476195
 20
2.3723714111
 11
18.204672194
 21
2.3784404145
 72
2
 10
18.1662929967
 20
2.368643334
 40
0.0396099176
 50
14.3201081283
 51
22.4984722084
 73
1
 72
2
 10
18.1890593051
 20
2.3776149607
 40
0.0151491919
 50
24.098260853
 51
63.0369451818
 73
1
 72
2
 10
18.1850046504
 20
2.3693353402
 40
0.0243676582
 50
63.3666028271
 51
90.3937697637
 73
1
 72
1
 10
18.184837183
 20
2.3937024229
 11
18.1572301677
 21
2.3937024229
 72
2
 10
18.1572301659
 20
2.3912274234
 40
0.0024749995
 50
89.9999571957
 51
180.0000428043
 73
1
 72
1
 10
18.1547551663
 20
2.3912274216
 11
18.1547551663
 21
2.3815284162
 72
2
 10
18.1572301659
 20
2.3815284143
 40
0.0024749995
 50
179.9999571957
 51
270.0000428043
 73
1
 72
1
 10
18.1572301677
 20
2.3790534148
 11
18.1818891814
 21
2.3790534148
 72
2
 10
18.1818891832
 20
2.3765784153
 40
0.0024749995
 50
359.9999571957
 51
90.0000428042
 73
1
 72
1
 10
18.1843641828
 20
2.3765784134
 11
18.1843641828
 21
2.3568004025
 72
2
 10
18.1818891832
 20
2.3568004006
 40
0.0024749995
 50
269.9999571958
 51
0.0000428043
 73
1
 72
1
 10
18.1818891814
 20
2.3543254011
 11
18.0683181184
 21
2.3543254011
 72
2
 10
18.0683181166
 20
2.3568004006
 40
0.0024749995
 50
179.9999571957
 51
270.0000428042
 73
1
 72
1
 10
18.065843117
 20
2.3568004025
 11
18.065843117
 21
2.3766004134
 72
2
 10
18.0683181166
 20
2.3766004153
 40
0.0024749995
 50
89.9999571958
 51
180.0000428043
 73
1
 72
1
 10
18.0683181184
 20
2.3790754148
 11
18.091064131
 21
2.3790754148
 72
2
 10
18.0910641329
 20
2.3815504143
 40
0.0024749995
 50
269.9999571957
 51
0.0000428043
 73
1
 72
1
 10
18.0935391324
 20
2.3815504162
 11
18.0935391324
 21
2.4279054419
 72
2
 10
18.0910641329
 20
2.4279054437
 40
0.0024749995
 50
359.9999571957
 51
90.0000428043
 73
1
 72
1
 10
18.091064131
 20
2.4303804433
 11
18.0683181184
 21
2.4303804433
 72
2
 10
18.0683181166
 20
2.4328554428
 40
0.0024749995
 50
179.9999571957
 51
270.0000428043
 73
1
 72
1
 10
18.065843117
 20
2.4328554446
 11
18.065843117
 21
2.4526554556
 72
2
 10
18.0683181166
 20
2.4526554575
 40
0.0024749995
 50
89.9999571958
 51
180.0000428043
 73
1
 72
1
 10
18.0683181184
 20
2.455130457
 11
18.2178992014
 21
2.455130457
 72
2
 10
18.2152358981
 20
2.2725915465
 40
0.1825583387
 50
79.8618509324
 51
89.1640948679
 73
1
 72
2
 10
18.2415401884
 20
2.4134150625
 40
0.039319019
 50
59.1202086415
 51
81.4730239328
 73
1
 72
2
 10
18.2471995846
 20
2.4197497317
 40
0.0310192946
 50
34.7540871
 51
62.0879016178
 73
1
 72
2
 10
18.2588883357
 20
2.4282993328
 40
0.0165459396
 50
1.548452892
 51
33.5033152417
 73
1
 72
2
 10
18.2621849309
 20
2.428467785
 40
0.0132462337
 50
331.1510006998
 51
1.205404301
 73
1
 72
2
 10
18.2511742746
 20
2.4351463727
 40
0.0261183659
 50
305.6373831893
 51
329.9727629745
 73
1
 72
2
 10
18.220842337
 20
2.4783532224
 40
0.0789082104
 50
292.906155071
 51
305.2574666259
 73
1
 72
2
 10
18.197141171
 20
2.3016991173
 40
0.117346916
 50
58.614769177
 51
62.3737227606
 73
1
 72
2
 10
18.2450241237
 20
2.3798263774
 40
0.0257145923
 50
39.3804255939
 51
59.0361096173
 73
1
 72
2
 10
18.2439037681
 20
2.3797532943
 40
0.0266349791
 50
20.3630922153
 51
37.9727053099
 73
1
 72
2
 10
18.2260032264
 20
2.3725718859
 40
0.0459185159
 50
15.6740290068
 51
20.9917271228
 73
1
 72
2
 10
18.2845735615
 20
2.3882148688
 40
0.0147197649
 50
192.7054516565
 51
206.0594861022
 73
1
 72
2
 10
18.2760792244
 20
2.3840063824
 40
0.0052403997
 50
205.5232099488
 51
227.5054868079
 73
1
 72
2
 10
18.2743509251
 20
2.3821910097
 40
0.0027347709
 50
228.5117626738
 51
266.1485845755
 73
1
 72
1
 10
18.2741672326
 20
2.379462415
 11
18.2752762332
 21
2.379462415
 72
2
 10
18.2752146786
 20
2.3927110743
 40
0.0132488022
 50
270.266200055
 51
281.2404888597
 73
1
 72
2
 10
18.2764089196
 20
2.3869743807
 40
0.0073895522
 50
280.8288201977
 51
305.0837508495
 73
1
 72
2
 10
18.2768101012
 20
2.3861235343
 40
0.0064647042
 50
306.5086174083
 51
340.2162360092
 73
1
 72
2
 10
18.2716089246
 20
2.3878675959
 40
0.0119498009
 50
340.7883861657
 51
1.1691452593
 73
1
 72
1
 10
18.2835562378
 20
2.3881114198
 11
18.2835562378
 21
2.3907374213
 72
2
 10
18.2860312373
 20
2.3907374231
 40
0.0024749995
 50
89.9999571957
 51
180.0000428043
 73
1
 72
1
 10
18.2860312391
 20
2.3932124227
 11
18.2981412459
 21
2.3932124227
 72
2
 10
18.2981412477
 20
2.3907374231
 40
0.0024749995
 50
359.9999571957
 51
90.0000428043
 73
1
 72
1
 10
18.3006162472
 20
2.3907374213
 11
18.3006162472
 21
2.3791854149
 72
2
 10
18.2830605507
 20
2.3792897325
 40
0.0175560065
 50
332.2279060967
 51
359.6595469939
 73
1
 72
2
 10
18.2737535399
 20
2.384184238
 40
0.0280715479
 50
308.5071794988
 51
332.2400656899
 73
1
 72
2
 10
18.2667613545
 20
2.3917854558
 40
0.0383802683
 50
288.7656836787
 51
309.6104317088
 73
1
 72
2
 10
18.2724993219
 20
2.3741987064
 40
0.0198837666
 50
271.8586572978
 51
289.4131338543
 73
1
 72
1
 10
18.273144232
 20
2.3543254011
 11
18.2257802057
 21
2.3543254011
 97
267
330
38F
330
390
330
391
330
392
330
393
330
394
330
395
330
396
330
397
330
398
330
399
330
39A
330
39B
330
39C
330
39D
330
39E
330
39F
330
3A0
330
3A1
330
3A2
330
3A3
330
3A4
330
3A5
330
3A6
330
3A7
330
3A8
330
3A9
330
3AA
330
3AB
330
3AC
330
3AD
330
3AE
330
3AF
330
3B0
330
3B1
330
3B2
330
3B3
330
3B4
330
3B5
330
3B6
330
3B7
330
3B8
330
3B9
330
3BA
330
3BB
330
3BC
330
3BD
330
3BE
330
3BF
330
3C0
330
3C1
330
3C2
330
3C3
330
3C4
330
3C5
330
3C6
330
3C7
330
3C8
330
3C9
330
3CA
330
3CB
330
3CC
330
3CD
330
3CE
330
3CF
330
3D0
330
3D1
330
3D2
330
3D3
330
3D4
330
3D5
330
3D6
330
3D7
330
3D8
330
3D9
330
3DA
330
3DB
330
3DC
330
3DD
330
3DE
330
3DF
330
3E0
330
3E1
330
3E2
330
3E3
330
3E4
330
3E5
330
3E6
330
3E7
330
3E8
330
3E9
330
3EA
330
3EB
330
3EC
330
3ED
330
3EE
330
3EF
330
3F0
330
3F1
330
3F2
330
3F3
330
3F4
330
3F5
330
3F6
330
3F7
330
3F8
330
3F9
330
3FA
330
3FB
330
3FC
330
3FD
330
3FE
330
3FF
330
400
330
401
330
402
330
403
330
404
330
405
330
406
330
407
330
408
330
409
330
40A
330
40B
330
40C
330
40D
330
40E
330
40F
330
410
330
411
330
412
330
413
330
414
330
415
330
416
330
417
330
418
330
419
330
41A
330
41B
330
41C
330
41D
330
41E
330
41F
330
420
330
421
330
422
330
423
330
424
330
425
330
426
330
427
330
428
330
429
330
42A
330
42B
330
42C
330
42D
330
42E
330
42F
330
430
330
431
330
432
330
433
330
434
330
435
330
436
330
437
330
438
330
439
330
43A
330
43B
330
43C
330
43D
330
43E
330
43F
330
440
330
441
330
442
330
443
330
444
330
445
330
446
330
447
330
448
330
449
330
44A
330
44B
330
44C
330
44D
330
44E
330
44F
330
450
330
451
330
452
330
453
330
454
330
455
330
456
330
457
330
458
330
459
330
45A
330
45B
330
45C
330
45D
330
45E
330
45F
330
460
330
461
330
462
330
463
330
464
330
465
330
466
330
467
330
468
330
469
330
46A
330
46B
330
46C
330
46D
330
46E
330
46F
330
470
330
471
330
472
330
473
330
474
330
475
330
476
330
477
330
478
330
479
330
47A
330
47B
330
47C
330
47D
330
47E
330
47F
330
480
330
481
330
482
330
483
330
484
330
485
330
486
330
487
330
488
330
489
330
48A
330
48B
330
48C
330
48D
330
48E
330
48F
330
490
330
491
330
492
330
493
330
494
330
495
330
496
330
497
330
498
330
499
 92
1
 93
40
 72
2
 10
17.8362019878
 20
2.3568004006
 40
0.0024749995
 50
179.9999571957
 51
270.0000428042
 73
1
 72
1
 10
17.8337269883
 20
2.3568004025
 11
17.8337269883
 21
2.3766004134
 72
2
 10
17.8362019878
 20
2.3766004153
 40
0.0024749995
 50
89.9999571958
 51
180.0000428043
 73
1
 72
1
 10
17.8362019897
 20
2.3790754148
 11
17.860125003
 21
2.3790754148
 72
2
 10
17.8601250048
 20
2.3815504143
 40
0.0024749995
 50
269.9999571956
 51
0.0000428042
 73
1
 72
1
 10
17.8626000043
 20
2.3815504162
 11
17.8626000043
 21
2.4279054419
 72
2
 10
17.8601250048
 20
2.4279054437
 40
0.0024749995
 50
359.9999571957
 51
90.0000428043
 73
1
 72
1
 10
17.860125003
 20
2.4303804433
 11
17.8362019897
 21
2.4303804433
 72
2
 10
17.8362019878
 20
2.4328554428
 40
0.0024749995
 50
179.9999571957
 51
270.0000428043
 73
1
 72
1
 10
17.8337269883
 20
2.4328554446
 11
17.8337269883
 21
2.4526554556
 72
2
 10
17.8362019878
 20
2.4526554575
 40
0.0024749995
 50
89.9999571958
 51
180.0000428043
 73
1
 72
1
 10
17.8362019897
 20
2.455130457
 11
18.0379951016
 21
2.455130457
 72
2
 10
18.0379951034
 20
2.4526554575
 40
0.0024749995
 50
359.9999571957
 51
90.0000428042
 73
1
 72
1
 10
18.040470103
 20
2.4526554556
 11
18.040470103
 21
2.4196554373
 72
2
 10
18.0379951034
 20
2.4196554355
 40
0.0024749995
 50
269.9999571956
 51
0.0000428042
 73
1
 72
1
 10
18.0379951016
 20
2.4171804359
 11
17.9961310784
 21
2.4171804359
 72
2
 10
17.9961310765
 20
2.4196554355
 40
0.0024749995
 50
179.9999571957
 51
270.0000428043
 73
1
 72
1
 10
17.993656077
 20
2.4196554373
 11
17.993656077
 21
2.4279054419
 72
2
 10
17.9911810775
 20
2.4279054437
 40
0.0024749995
 50
359.9999571957
 51
90.0000428043
 73
1
 72
1
 10
17.9911810756
 20
2.4303804433
 11
17.9271410401
 21
2.4303804433
 72
2
 10
17.9271410383
 20
2.4279054437
 40
0.0024749995
 50
89.9999571958
 51
180.0000428043
 73
1
 72
1
 10
17.9246660387
 20
2.4279054419
 11
17.9246660387
 21
2.4163554355
 72
2
 10
17.9271410383
 20
2.4163554336
 40
0.0024749995
 50
179.9999571957
 51
270.0000428042
 73
1
 72
1
 10
17.9271410401
 20
2.4138804341
 11
17.9623080596
 21
2.4138804341
 72
2
 10
17.9623080615
 20
2.4114054346
 40
0.0024749995
 50
359.9999571957
 51
90.0000428042
 73
1
 72
1
 10
17.964783061
 20
2.4114054327
 11
17.964783061
 21
2.3980504253
 72
2
 10
17.9623080615
 20
2.3980504235
 40
0.0024749995
 50
269.9999571956
 51
0.0000428042
 73
1
 72
1
 10
17.9623080596
 20
2.395575424
 11
17.9271410401
 21
2.395575424
 72
2
 10
17.9271410383
 20
2.3931004244
 40
0.0024749995
 50
89.9999571958
 51
180.0000428043
 73
1
 72
1
 10
17.9246660387
 20
2.3931004226
 11
17.9246660387
 21
2.3815504162
 72
2
 10
17.9271410383
 20
2.3815504143
 40
0.0024749995
 50
179.9999571957
 51
270.0000428043
 73
1
 72
1
 10
17.9271410401
 20
2.3790754148
 11
17.9921450762
 21
2.3790754148
 72
2
 10
17.992145078
 20
2.3815504143
 40
0.0024749995
 50
269.9999571958
 51
0.0000428043
 73
1
 72
1
 10
17.9946200775
 20
2.3815504162
 11
17.9946200775
 21
2.3898004208
 72
2
 10
17.9970950771
 20
2.3898004226
 40
0.0024749995
 50
89.9999571958
 51
180.0000428043
 73
1
 72
1
 10
17.9970950789
 20
2.3922754221
 11
18.0394141024
 21
2.3922754221
 72
2
 10
18.0394141042
 20
2.3898004226
 40
0.0024749995
 50
359.9999571957
 51
90.0000428043
 73
1
 72
1
 10
18.0418891038
 20
2.3898004208
 11
18.0418891038
 21
2.3568004025
 72
2
 10
18.0394141042
 20
2.3568004006
 40
0.0024749995
 50
269.9999571958
 51
0.0000428043
 73
1
 72
1
 10
18.0394141024
 20
2.3543254011
 11
17.8362019897
 21
2.3543254011
 97
267
330
38F
330
390
330
391
330
392
330
393
330
394
330
395
330
396
330
397
330
398
330
399
330
39A
330
39B
330
39C
330
39D
330
39E
330
39F
330
3A0
330
3A1
330
3A2
330
3A3
330
3A4
330
3A5
330
3A6
330
3A7
330
3A8
330
3A9
330
3AA
330
3AB
330
3AC
330
3AD
330
3AE
330
3AF
330
3B0
330
3B1
330
3B2
330
3B3
330
3B4
330
3B5
330
3B6
330
3B7
330
3B8
330
3B9
330
3BA
330
3BB
330
3BC
330
3BD
330
3BE
330
3BF
330
3C0
330
3C1
330
3C2
330
3C3
330
3C4
330
3C5
330
3C6
330
3C7
330
3C8
330
3C9
330
3CA
330
3CB
330
3CC
330
3CD
330
3CE
330
3CF
330
3D0
330
3D1
330
3D2
330
3D3
330
3D4
330
3D5
330
3D6
330
3D7
330
3D8
330
3D9
330
3DA
330
3DB
330
3DC
330
3DD
330
3DE
330
3DF
330
3E0
330
3E1
330
3E2
330
3E3
330
3E4
330
3E5
330
3E6
330
3E7
330
3E8
330
3E9
330
3EA
330
3EB
330
3EC
330
3ED
330
3EE
330
3EF
330
3F0
330
3F1
330
3F2
330
3F3
330
3F4
330
3F5
330
3F6
330
3F7
330
3F8
330
3F9
330
3FA
330
3FB
330
3FC
330
3FD
330
3FE
330
3FF
330
400
330
401
330
402
330
403
330
404
330
405
330
406
330
407
330
408
330
409
330
40A
330
40B
330
40C
330
40D
330
40E
330
40F
330
410
330
411
330
412
330
413
330
414
330
415
330
416
330
417
330
418
330
419
330
41A
330
41B
330
41C
330
41D
330
41E
330
41F
330
420
330
421
330
422
330
423
330
424
330
425
330
426
330
427
330
428
330
429
330
42A
330
42B
330
42C
330
42D
330
42E
330
42F
330
430
330
431
330
432
330
433
330
434
330
435
330
436
330
437
330
438
330
439
330
43A
330
43B
330
43C
330
43D
330
43E
330
43F
330
440
330
441
330
442
330
443
330
444
330
445
330
446
330
447
330
448
330
449
330
44A
330
44B
330
44C
330
44D
330
44E
330
44F
330
450
330
451
330
452
330
453
330
454
330
455
330
456
330
457
330
458
330
459
330
45A
330
45B
330
45C
330
45D
330
45E
330
45F
330
460
330
461
330
462
330
463
330
464
330
465
330
466
330
467
330
468
330
469
330
46A
330
46B
330
46C
330
46D
330
46E
330
46F
330
470
330
471
330
472
330
473
330
474
330
475
330
476
330
477
330
478
330
479
330
47A
330
47B
330
47C
330
47D
330
47E
330
47F
330
480
330
481
330
482
330
483
330
484
330
485
330
486
330
487
330
488
330
489
330
48A
330
48B
330
48C
330
48D
330
48E
330
48F
330
490
330
491
330
492
330
493
330
494
330
495
330
496
330
497
330
498
330
499
 92
1
 93
40
 72
2
 10
17.7115227858
 20
2.3567995689
 40
0.0024741678
 50
226.3477981898
 51
270.0031206038
 73
1
 72
1
 10
17.7098149196
 20
2.3550094015
 11
17.6465348845
 21
2.415387435
 72
2
 10
17.6448261836
 20
2.4135964972
 40
0.0024753014
 50
46.3461263058
 51
180.0014637321
 73
1
 72
1
 10
17.6423508822
 20
2.413596434
 11
17.6423508822
 21
2.3815504162
 72
2
 10
17.6448258817
 20
2.3815504143
 40
0.0024749995
 50
179.9999571957
 51
270.0000428043
 73
1
 72
1
 10
17.6448258836
 20
2.3790754148
 11
17.6651428948
 21
2.3790754148
 72
2
 10
17.6651428967
 20
2.3766004153
 40
0.0024749995
 50
359.9999571957
 51
90.0000428043
 73
1
 72
1
 10
17.6676178962
 20
2.3766004134
 11
17.6676178962
 21
2.3568004025
 72
2
 10
17.6651428967
 20
2.3568004006
 40
0.0024749995
 50
269.9999571958
 51
0.0000428043
 73
1
 72
1
 10
17.6651428948
 20
2.3543254011
 11
17.5894788529
 21
2.3543254011
 72
2
 10
17.589478851
 20
2.3568004006
 40
0.0024749995
 50
179.9999571957
 51
270.0000428042
 73
1
 72
1
 10
17.5870038515
 20
2.3568004025
 11
17.5870038515
 21
2.3766004134
 72
2
 10
17.589478851
 20
2.3766004153
 40
0.0024749995
 50
89.9999571957
 51
180.0000428043
 73
1
 72
1
 10
17.5894788529
 20
2.3790754148
 11
17.6081248632
 21
2.3790754148
 72
2
 10
17.6081248651
 20
2.3815504143
 40
0.0024749995
 50
269.9999571957
 51
0.0000428043
 73
1
 72
1
 10
17.6105998646
 20
2.3815504162
 11
17.6105998646
 21
2.4279054419
 72
2
 10
17.6081248651
 20
2.4279054437
 40
0.0024749995
 50
359.9999571957
 51
90.0000428043
 73
1
 72
1
 10
17.6081248632
 20
2.4303804433
 11
17.5894788529
 21
2.4303804433
 72
2
 10
17.589478851
 20
2.4328554428
 40
0.0024749995
 50
179.9999571957
 51
270.0000428043
 73
1
 72
1
 10
17.5870038515
 20
2.4328554446
 11
17.5870038515
 21
2.4526554556
 72
2
 10
17.589478851
 20
2.4526554575
 40
0.0024749995
 50
89.9999571957
 51
180.0000428043
 73
1
 72
1
 10
17.5894788529
 20
2.455130457
 11
17.6899369086
 21
2.455130457
 72
2
 10
17.6899370433
 20
2.4526562892
 40
0.0024741678
 50
46.3477981899
 51
90.0031206038
 73
1
 72
1
 10
17.6916449095
 20
2.4544464566
 11
17.7516779428
 21
2.3971664249
 72
2
 10
17.7533866437
 20
2.3989573626
 40
0.0024753014
 50
226.3461263059
 51
0.0014637321
 73
1
 72
1
 10
17.7558619451
 20
2.3989574258
 11
17.7558619451
 21
2.4279054419
 72
2
 10
17.7533869456
 20
2.4279054437
 40
0.0024749995
 50
359.9999571957
 51
90.0000428043
 73
1
 72
1
 10
17.7533869438
 20
2.4303804433
 11
17.7346109333
 21
2.4303804433
 72
2
 10
17.7346109315
 20
2.4328554428
 40
0.0024749995
 50
179.9999571957
 51
270.0000428043
 73
1
 72
1
 10
17.732135932
 20
2.4328554446
 11
17.732135932
 21
2.4526554556
 72
2
 10
17.7346109315
 20
2.4526554575
 40
0.0024749995
 50
89.9999571958
 51
180.0000428043
 73
1
 72
1
 10
17.7346109333
 20
2.455130457
 11
17.8086119744
 21
2.455130457
 72
2
 10
17.8086119762
 20
2.4526554575
 40
0.0024749995
 50
359.9999571957
 51
90.0000428043
 73
1
 72
1
 10
17.8110869758
 20
2.4526554556
 11
17.8110869758
 21
2.4328554446
 72
2
 10
17.8086119762
 20
2.4328554428
 40
0.0024749995
 50
269.9999571956
 51
0.0000428042
 73
1
 72
1
 10
17.8086119744
 20
2.4303804433
 11
17.7906789644
 21
2.4303804433
 72
2
 10
17.7906789626
 20
2.4279054437
 40
0.0024749995
 50
89.9999571957
 51
180.0000428043
 73
1
 72
1
 10
17.7882039631
 20
2.4279054419
 11
17.7882039631
 21
2.3568004025
 72
2
 10
17.7857289635
 20
2.3568004006
 40
0.0024749995
 50
269.9999571957
 51
0.0000428043
 73
1
 72
1
 10
17.7857289617
 20
2.3543254011
 11
17.7115229205
 21
2.3543254011
 97
267
330
38F
330
390
330
391
330
392
330
393
330
394
330
395
330
396
330
397
330
398
330
399
330
39A
330
39B
330
39C
330
39D
330
39E
330
39F
330
3A0
330
3A1
330
3A2
330
3A3
330
3A4
330
3A5
330
3A6
330
3A7
330
3A8
330
3A9
330
3AA
330
3AB
330
3AC
330
3AD
330
3AE
330
3AF
330
3B0
330
3B1
330
3B2
330
3B3
330
3B4
330
3B5
330
3B6
330
3B7
330
3B8
330
3B9
330
3BA
330
3BB
330
3BC
330
3BD
330
3BE
330
3BF
330
3C0
330
3C1
330
3C2
330
3C3
330
3C4
330
3C5
330
3C6
330
3C7
330
3C8
330
3C9
330
3CA
330
3CB
330
3CC
330
3CD
330
3CE
330
3CF
330
3D0
330
3D1
330
3D2
330
3D3
330
3D4
330
3D5
330
3D6
330
3D7
330
3D8
330
3D9
330
3DA
330
3DB
330
3DC
330
3DD
330
3DE
330
3DF
330
3E0
330
3E1
330
3E2
330
3E3
330
3E4
330
3E5
330
3E6
330
3E7
330
3E8
330
3E9
330
3EA
330
3EB
330
3EC
330
3ED
330
3EE
330
3EF
330
3F0
330
3F1
330
3F2
330
3F3
330
3F4
330
3F5
330
3F6
330
3F7
330
3F8
330
3F9
330
3FA
330
3FB
330
3FC
330
3FD
330
3FE
330
3FF
330
400
330
401
330
402
330
403
330
404
330
405
330
406
330
407
330
408
330
409
330
40A
330
40B
330
40C
330
40D
330
40E
330
40F
330
410
330
411
330
412
330
413
330
414
330
415
330
416
330
417
330
418
330
419
330
41A
330
41B
330
41C
330
41D
330
41E
330
41F
330
420
330
421
330
422
330
423
330
424
330
425
330
426
330
427
330
428
330
429
330
42A
330
42B
330
42C
330
42D
330
42E
330
42F
330
430
330
431
330
432
330
433
330
434
330
435
330
436
330
437
330
438
330
439
330
43A
330
43B
330
43C
330
43D
330
43E
330
43F
330
440
330
441
330
442
330
443
330
444
330
445
330
446
330
447
330
448
330
449
330
44A
330
44B
330
44C
330
44D
330
44E
330
44F
330
450
330
451
330
452
330
453
330
454
330
455
330
456
330
457
330
458
330
459
330
45A
330
45B
330
45C
330
45D
330
45E
330
45F
330
460
330
461
330
462
330
463
330
464
330
465
330
466
330
467
330
468
330
469
330
46A
330
46B
330
46C
330
46D
330
46E
330
46F
330
470
330
471
330
472
330
473
330
474
330
475
330
476
330
477
330
478
330
479
330
47A
330
47B
330
47C
330
47D
330
47E
330
47F
330
480
330
481
330
482
330
483
330
484
330
485
330
486
330
487
330
488
330
489
330
48A
330
48B
330
48C
330
48D
330
48E
330
48F
330
490
330
491
330
492
330
493
330
494
330
495
330
496
330
497
330
498
330
499
 92
1
 93
40
 72
2
 10
17.4632701481
 20
2.3568008172
 40
0.0024754162
 50
226.3593695814
 51
270.0146919954
 73
1
 72
1
 10
17.4615617819
 20
2.3550094015
 11
17.3982817468
 21
2.415387435
 72
2
 10
17.3965730459
 20
2.4135964972
 40
0.0024753014
 50
46.3461263058
 51
180.0014637321
 73
1
 72
1
 10
17.3940977445
 20
2.413596434
 11
17.3940977445
 21
2.3815504162
 72
2
 10
17.396572744
 20
2.3815504143
 40
0.0024749995
 50
179.9999571957
 51
270.0000428043
 73
1
 72
1
 10
17.3965727459
 20
2.3790754148
 11
17.4168897572
 21
2.3790754148
 72
2
 10
17.416889759
 20
2.3766004153
 40
0.0024749995
 50
359.9999571957
 51
90.0000428043
 73
1
 72
1
 10
17.4193647585
 20
2.3766004134
 11
17.4193647585
 21
2.3568004025
 72
2
 10
17.416889759
 20
2.3568004006
 40
0.0024749995
 50
269.9999571957
 51
0.0000428043
 73
1
 72
1
 10
17.4168897572
 20
2.3543254011
 11
17.3412257152
 21
2.3543254011
 72
2
 10
17.3412257133
 20
2.3568004006
 40
0.0024749995
 50
179.9999571957
 51
270.0000428043
 73
1
 72
1
 10
17.3387507138
 20
2.3568004025
 11
17.3387507138
 21
2.3766004134
 72
2
 10
17.3412257133
 20
2.3766004153
 40
0.0024749995
 50
89.9999571957
 51
180.0000428043
 73
1
 72
1
 10
17.3412257152
 20
2.3790754148
 11
17.3598727255
 21
2.3790754148
 72
2
 10
17.3598727274
 20
2.3815504143
 40
0.0024749995
 50
269.9999571957
 51
0.0000428043
 73
1
 72
1
 10
17.3623477269
 20
2.3815504162
 11
17.3623477269
 21
2.4279054419
 72
2
 10
17.3598727274
 20
2.4279054437
 40
0.0024749995
 50
359.9999571957
 51
90.0000428044
 73
1
 72
1
 10
17.3598727255
 20
2.4303804433
 11
17.3412257152
 21
2.4303804433
 72
2
 10
17.3412257133
 20
2.4328554428
 40
0.0024749995
 50
179.9999571957
 51
270.0000428043
 73
1
 72
1
 10
17.3387507138
 20
2.4328554446
 11
17.3387507138
 21
2.4526554556
 72
2
 10
17.3412257133
 20
2.4526554575
 40
0.0024749995
 50
89.9999571957
 51
180.0000428043
 73
1
 72
1
 10
17.3412257152
 20
2.455130457
 11
17.4416837709
 21
2.455130457
 72
2
 10
17.4416839057
 20
2.4526562892
 40
0.0024741678
 50
46.3477981899
 51
90.0031206038
 73
1
 72
1
 10
17.4433917718
 20
2.4544464566
 11
17.5034248051
 21
2.3971664249
 72
2
 10
17.5051335061
 20
2.3989573626
 40
0.0024753014
 50
226.3461263059
 51
0.0014637321
 73
1
 72
1
 10
17.5076088075
 20
2.3989574258
 11
17.5076088075
 21
2.4279054419
 72
2
 10
17.5051338079
 20
2.4279054437
 40
0.0024749995
 50
359.9999571957
 51
90.0000428043
 73
1
 72
1
 10
17.5051338061
 20
2.4303804433
 11
17.4863577957
 21
2.4303804433
 72
2
 10
17.4863577938
 20
2.4328554428
 40
0.0024749995
 50
179.9999571957
 51
270.0000428043
 73
1
 72
1
 10
17.4838827943
 20
2.4328554446
 11
17.4838827943
 21
2.4526554556
 72
2
 10
17.4863577938
 20
2.4526554575
 40
0.0024749995
 50
89.9999571957
 51
180.0000428043
 73
1
 72
1
 10
17.4863577957
 20
2.455130457
 11
17.5603588367
 21
2.455130457
 72
2
 10
17.5603588386
 20
2.4526554575
 40
0.0024749995
 50
359.9999571957
 51
90.0000428042
 73
1
 72
1
 10
17.5628338381
 20
2.4526554556
 11
17.5628338381
 21
2.4328554446
 72
2
 10
17.5603588386
 20
2.4328554428
 40
0.0024749995
 50
269.9999571958
 51
0.0000428043
 73
1
 72
1
 10
17.5603588367
 20
2.4303804433
 11
17.5424258268
 21
2.4303804433
 72
2
 10
17.5424258249
 20
2.4279054437
 40
0.0024749995
 50
89.9999571958
 51
180.0000428043
 73
1
 72
1
 10
17.5399508254
 20
2.4279054419
 11
17.5399508254
 21
2.3568004025
 72
2
 10
17.5374758259
 20
2.3568004006
 40
0.0024749995
 50
269.9999571958
 51
0.0000428043
 73
1
 72
1
 10
17.537475824
 20
2.3543254011
 11
17.4632707829
 21
2.3543254011
 97
267
330
38F
330
390
330
391
330
392
330
393
330
394
330
395
330
396
330
397
330
398
330
399
330
39A
330
39B
330
39C
330
39D
330
39E
330
39F
330
3A0
330
3A1
330
3A2
330
3A3
330
3A4
330
3A5
330
3A6
330
3A7
330
3A8
330
3A9
330
3AA
330
3AB
330
3AC
330
3AD
330
3AE
330
3AF
330
3B0
330
3B1
330
3B2
330
3B3
330
3B4
330
3B5
330
3B6
330
3B7
330
3B8
330
3B9
330
3BA
330
3BB
330
3BC
330
3BD
330
3BE
330
3BF
330
3C0
330
3C1
330
3C2
330
3C3
330
3C4
330
3C5
330
3C6
330
3C7
330
3C8
330
3C9
330
3CA
330
3CB
330
3CC
330
3CD
330
3CE
330
3CF
330
3D0
330
3D1
330
3D2
330
3D3
330
3D4
330
3D5
330
3D6
330
3D7
330
3D8
330
3D9
330
3DA
330
3DB
330
3DC
330
3DD
330
3DE
330
3DF
330
3E0
330
3E1
330
3E2
330
3E3
330
3E4
330
3E5
330
3E6
330
3E7
330
3E8
330
3E9
330
3EA
330
3EB
330
3EC
330
3ED
330
3EE
330
3EF
330
3F0
330
3F1
330
3F2
330
3F3
330
3F4
330
3F5
330
3F6
330
3F7
330
3F8
330
3F9
330
3FA
330
3FB
330
3FC
330
3FD
330
3FE
330
3FF
330
400
330
401
330
402
330
403
330
404
330
405
330
406
330
407
330
408
330
409
330
40A
330
40B
330
40C
330
40D
330
40E
330
40F
330
410
330
411
330
412
330
413
330
414
330
415
330
416
330
417
330
418
330
419
330
41A
330
41B
330
41C
330
41D
330
41E
330
41F
330
420
330
421
330
422
330
423
330
424
330
425
330
426
330
427
330
428
330
429
330
42A
330
42B
330
42C
330
42D
330
42E
330
42F
330
430
330
431
330
432
330
433
330
434
330
435
330
436
330
437
330
438
330
439
330
43A
330
43B
330
43C
330
43D
330
43E
330
43F
330
440
330
441
330
442
330
443
330
444
330
445
330
446
330
447
330
448
330
449
330
44A
330
44B
330
44C
330
44D
330
44E
330
44F
330
450
330
451
330
452
330
453
330
454
330
455
330
456
330
457
330
458
330
459
330
45A
330
45B
330
45C
330
45D
330
45E
330
45F
330
460
330
461
330
462
330
463
330
464
330
465
330
466
330
467
330
468
330
469
330
46A
330
46B
330
46C
330
46D
330
46E
330
46F
330
470
330
471
330
472
330
473
330
474
330
475
330
476
330
477
330
478
330
479
330
47A
330
47B
330
47C
330
47D
330
47E
330
47F
330
480
330
481
330
482
330
483
330
484
330
485
330
486
330
487
330
488
330
489
330
48A
330
48B
330
48C
330
48D
330
48E
330
48F
330
490
330
491
330
492
330
493
330
494
330
495
330
496
330
497
330
498
330
499
 92
1
 93
23
 72
2
 10
17.0481152095
 20
2.4027328529
 40
0.048483885
 50
273.21763719
 51
303.0749121182
 73
1
 72
2
 10
17.0629546036
 20
2.379965244
 40
0.0213072145
 50
303.0488228549
 51
355.7263138674
 73
1
 72
2
 10
17.0688911042
 20
2.3799744343
 40
0.0153945295
 50
354.0454548824
 51
5.1878013979
 73
1
 72
2
 10
17.0620614151
 20
2.3797859164
 40
0.0222174455
 50
4.0793399388
 51
69.834329283
 73
1
 72
1
 10
17.0697205646
 20
2.4006414268
 11
17.059669559
 21
2.4041904287
 72
1
 10
17.059669559
 20
2.4041904287
 11
17.0679095636
 21
2.4089664314
 72
2
 10
17.0460441811
 20
2.445793323
 40
0.0428289026
 50
300.6990502959
 51
319.0591802498
 73
1
 72
2
 10
17.0660727781
 20
2.4296649696
 40
0.0171568255
 50
315.9145124245
 51
16.0049121283
 73
1
 72
2
 10
17.0611211659
 20
2.4263113051
 40
0.0229166529
 50
20.6563876465
 51
62.3316896973
 73
1
 72
2
 10
17.0404590422
 20
2.3933827403
 40
0.061747717
 50
59.5385584989
 51
90.0050977555
 73
1
 72
1
 10
17.0404535484
 20
2.455130457
 11
16.8743904563
 21
2.455130457
 72
2
 10
16.8743904545
 20
2.4526554575
 40
0.0024749995
 50
89.9999571958
 51
180.0000428043
 73
1
 72
1
 10
16.8719154549
 20
2.4526554556
 11
16.8719154549
 21
2.4328554446
 72
2
 10
16.8743904545
 20
2.4328554428
 40
0.0024749995
 50
179.9999571957
 51
270.0000428043
 73
1
 72
1
 10
16.8743904563
 20
2.4303804433
 11
16.8983324696
 21
2.4303804433
 72
2
 10
16.8983324714
 20
2.4279054437
 40
0.0024749995
 50
359.9999571957
 51
90.0000428043
 73
1
 72
1
 10
16.9008074709
 20
2.4279054419
 11
16.9008074709
 21
2.3815504162
 72
2
 10
16.8983324714
 20
2.3815504143
 40
0.0024749995
 50
269.9999571958
 51
0.0000428043
 73
1
 72
1
 10
16.8983324696
 20
2.3790754148
 11
16.8743904563
 21
2.3790754148
 72
2
 10
16.8743904545
 20
2.3766004153
 40
0.0024749995
 50
89.9999571958
 51
180.0000428043
 73
1
 72
1
 10
16.8719154549
 20
2.3766004134
 11
16.8719154549
 21
2.3568004025
 72
2
 10
16.8743904545
 20
2.3568004006
 40
0.0024749995
 50
179.9999571957
 51
270.0000428042
 73
1
 72
1
 10
16.8743904563
 20
2.3543254011
 11
17.0508365542
 21
2.3543254011
 97
267
330
38F
330
390
330
391
330
392
330
393
330
394
330
395
330
396
330
397
330
398
330
399
330
39A
330
39B
330
39C
330
39D
330
39E
330
39F
330
3A0
330
3A1
330
3A2
330
3A3
330
3A4
330
3A5
330
3A6
330
3A7
330
3A8
330
3A9
330
3AA
330
3AB
330
3AC
330
3AD
330
3AE
330
3AF
330
3B0
330
3B1
330
3B2
330
3B3
330
3B4
330
3B5
330
3B6
330
3B7
330
3B8
330
3B9
330
3BA
330
3BB
330
3BC
330
3BD
330
3BE
330
3BF
330
3C0
330
3C1
330
3C2
330
3C3
330
3C4
330
3C5
330
3C6
330
3C7
330
3C8
330
3C9
330
3CA
330
3CB
330
3CC
330
3CD
330
3CE
330
3CF
330
3D0
330
3D1
330
3D2
330
3D3
330
3D4
330
3D5
330
3D6
330
3D7
330
3D8
330
3D9
330
3DA
330
3DB
330
3DC
330
3DD
330
3DE
330
3DF
330
3E0
330
3E1
330
3E2
330
3E3
330
3E4
330
3E5
330
3E6
330
3E7
330
3E8
330
3E9
330
3EA
330
3EB
330
3EC
330
3ED
330
3EE
330
3EF
330
3F0
330
3F1
330
3F2
330
3F3
330
3F4
330
3F5
330
3F6
330
3F7
330
3F8
330
3F9
330
3FA
330
3FB
330
3FC
330
3FD
330
3FE
330
3FF
330
400
330
401
330
402
330
403
330
404
330
405
330
406
330
407
330
408
330
409
330
40A
330
40B
330
40C
330
40D
330
40E
330
40F
330
410
330
411
330
412
330
413
330
414
330
415
330
416
330
417
330
418
330
419
330
41A
330
41B
330
41C
330
41D
330
41E
330
41F
330
420
330
421
330
422
330
423
330
424
330
425
330
426
330
427
330
428
330
429
330
42A
330
42B
330
42C
330
42D
330
42E
330
42F
330
430
330
431
330
432
330
433
330
434
330
435
330
436
330
437
330
438
330
439
330
43A
330
43B
330
43C
330
43D
330
43E
330
43F
330
440
330
441
330
442
330
443
330
444
330
445
330
446
330
447
330
448
330
449
330
44A
330
44B
330
44C
330
44D
330
44E
330
44F
330
450
330
451
330
452
330
453
330
454
330
455
330
456
330
457
330
458
330
459
330
45A
330
45B
330
45C
330
45D
330
45E
330
45F
330
460
330
461
330
462
330
463
330
464
330
465
330
466
330
467
330
468
330
469
330
46A
330
46B
330
46C
330
46D
330
46E
330
46F
330
470
330
471
330
472
330
473
330
474
330
475
330
476
330
477
330
478
330
479
330
47A
330
47B
330
47C
330
47D
330
47E
330
47F
330
480
330
481
330
482
330
483
330
484
330
485
330
486
330
487
330
488
330
489
330
48A
330
48B
330
48C
330
48D
330
48E
330
48F
330
490
330
491
330
492
330
493
330
494
330
495
330
496
330
497
330
498
330
499
 92
1
 93
32
 72
2
 10
17.1857496308
 20
2.3568004006
 40
0.0024749995
 50
269.9999571958
 51
0.0000428044
 73
1
 72
1
 10
17.1882246303
 20
2.3568004025
 11
17.1882246303
 21
2.3766004134
 72
2
 10
17.1857496308
 20
2.3766004153
 40
0.0024749995
 50
359.9999571957
 51
90.0000428043
 73
1
 72
1
 10
17.185749629
 20
2.3790754148
 11
17.1744666227
 21
2.3790754148
 72
2
 10
17.1744665134
 20
2.3815504549
 40
0.0024750401
 50
147.6063258011
 51
270.0025305754
 73
1
 72
1
 10
17.1723766216
 20
2.3828764169
 11
17.1778926246
 21
2.3915704217
 72
2
 10
17.1799825555
 20
2.3902442221
 40
0.0024752003
 50
89.998372645
 51
147.602165307
 73
1
 72
1
 10
17.1799826258
 20
2.3927194224
 11
17.2148606451
 21
2.3927194224
 72
2
 10
17.2148601055
 20
2.3902439622
 40
0.0024754602
 50
32.8959418574
 51
89.9875097202
 73
1
 72
1
 10
17.2169386463
 20
2.3915884218
 11
17.2225646494
 21
2.3828954169
 72
2
 10
17.2204866271
 20
2.3815506219
 40
0.0024752071
 50
270.0004896793
 51
32.9089806818
 73
1
 72
1
 10
17.2204866482
 20
2.3790754148
 11
17.2060356402
 21
2.3790754148
 72
2
 10
17.2060356384
 20
2.3766004153
 40
0.0024749995
 50
89.9999571958
 51
180.0000428043
 73
1
 72
1
 10
17.2035606388
 20
2.3766004134
 11
17.2035606388
 21
2.3568004025
 72
2
 10
17.2060356384
 20
2.3568004006
 40
0.0024749995
 50
179.9999571957
 51
270.0000428042
 73
1
 72
1
 10
17.2060356402
 20
2.3543254011
 11
17.3113166986
 21
2.3543254011
 72
2
 10
17.3113167005
 20
2.3568004006
 40
0.0024749995
 50
269.9999571957
 51
0.0000428043
 73
1
 72
1
 10
17.3137917
 20
2.3568004025
 11
17.3137917
 21
2.3766004134
 72
2
 10
17.3113167005
 20
2.3766004153
 40
0.0024749995
 50
359.9999571957
 51
90.0000428043
 73
1
 72
1
 10
17.3113166986
 20
2.3790754148
 11
17.2913006875
 21
2.3790754148
 72
2
 10
17.291300808
 20
2.3815494558
 40
0.002474041
 50
212.9056413127
 51
269.9972091756
 73
1
 72
1
 10
17.2892236864
 20
2.3802054154
 11
17.2414676599
 21
2.4540004564
 72
2
 10
17.2393900382
 20
2.4526554968
 40
0.0024749602
 50
32.9172174468
 51
90.0087853096
 73
1
 72
1
 10
17.2393896587
 20
2.455130457
 11
17.182214627
 21
2.455130457
 72
2
 10
17.1822145567
 20
2.4526552567
 40
0.0024752003
 50
89.998372645
 51
147.602165307
 73
1
 72
1
 10
17.1801246258
 20
2.4539814564
 11
17.1333245999
 21
2.3802244155
 72
2
 10
17.131234669
 20
2.3815506151
 40
0.0024752003
 50
269.998372645
 51
327.602165307
 73
1
 72
1
 10
17.1312345987
 20
2.3790754148
 11
17.1083735861
 21
2.3790754148
 72
2
 10
17.1083735842
 20
2.3766004153
 40
0.0024749995
 50
89.9999571957
 51
180.0000428043
 73
1
 72
1
 10
17.1058985847
 20
2.3766004134
 11
17.1058985847
 21
2.3568004025
 72
2
 10
17.1083735842
 20
2.3568004006
 40
0.0024749995
 50
179.9999571957
 51
270.0000428043
 73
1
 72
1
 10
17.1083735861
 20
2.3543254011
 11
17.185749629
 21
2.3543254011
 97
267
330
38F
330
390
330
391
330
392
330
393
330
394
330
395
330
396
330
397
330
398
330
399
330
39A
330
39B
330
39C
330
39D
330
39E
330
39F
330
3A0
330
3A1
330
3A2
330
3A3
330
3A4
330
3A5
330
3A6
330
3A7
330
3A8
330
3A9
330
3AA
330
3AB
330
3AC
330
3AD
330
3AE
330
3AF
330
3B0
330
3B1
330
3B2
330
3B3
330
3B4
330
3B5
330
3B6
330
3B7
330
3B8
330
3B9
330
3BA
330
3BB
330
3BC
330
3BD
330
3BE
330
3BF
330
3C0
330
3C1
330
3C2
330
3C3
330
3C4
330
3C5
330
3C6
330
3C7
330
3C8
330
3C9
330
3CA
330
3CB
330
3CC
330
3CD
330
3CE
330
3CF
330
3D0
330
3D1
330
3D2
330
3D3
330
3D4
330
3D5
330
3D6
330
3D7
330
3D8
330
3D9
330
3DA
330
3DB
330
3DC
330
3DD
330
3DE
330
3DF
330
3E0
330
3E1
330
3E2
330
3E3
330
3E4
330
3E5
330
3E6
330
3E7
330
3E8
330
3E9
330
3EA
330
3EB
330
3EC
330
3ED
330
3EE
330
3EF
330
3F0
330
3F1
330
3F2
330
3F3
330
3F4
330
3F5
330
3F6
330
3F7
330
3F8
330
3F9
330
3FA
330
3FB
330
3FC
330
3FD
330
3FE
330
3FF
330
400
330
401
330
402
330
403
330
404
330
405
330
406
330
407
330
408
330
409
330
40A
330
40B
330
40C
330
40D
330
40E
330
40F
330
410
330
411
330
412
330
413
330
414
330
415
330
416
330
417
330
418
330
419
330
41A
330
41B
330
41C
330
41D
330
41E
330
41F
330
420
330
421
330
422
330
423
330
424
330
425
330
426
330
427
330
428
330
429
330
42A
330
42B
330
42C
330
42D
330
42E
330
42F
330
430
330
431
330
432
330
433
330
434
330
435
330
436
330
437
330
438
330
439
330
43A
330
43B
330
43C
330
43D
330
43E
330
43F
330
440
330
441
330
442
330
443
330
444
330
445
330
446
330
447
330
448
330
449
330
44A
330
44B
330
44C
330
44D
330
44E
330
44F
330
450
330
451
330
452
330
453
330
454
330
455
330
456
330
457
330
458
330
459
330
45A
330
45B
330
45C
330
45D
330
45E
330
45F
330
460
330
461
330
462
330
463
330
464
330
465
330
466
330
467
330
468
330
469
330
46A
330
46B
330
46C
330
46D
330
46E
330
46F
330
470
330
471
330
472
330
473
330
474
330
475
330
476
330
477
330
478
330
479
330
47A
330
47B
330
47C
330
47D
330
47E
330
47F
330
480
330
481
330
482
330
483
330
484
330
485
330
486
330
487
330
488
330
489
330
48A
330
48B
330
48C
330
48D
330
48E
330
48F
330
490
330
491
330
492
330
493
330
494
330
495
330
496
330
497
330
498
330
499
 92
1
 93
6
 72
2
 10
16.963795504
 20
2.3815504143
 40
0.0024749995
 50
179.9999571957
 51
270.0000428043
 73
1
 72
1
 10
16.9613205045
 20
2.3815504162
 11
16.9613205045
 21
2.3939254231
 72
2
 10
16.963795504
 20
2.3939254249
 40
0.0024749995
 50
89.9999571957
 51
180.0000428043
 73
1
 72
1
 10
16.9637955059
 20
2.3964004244
 11
17.0051585288
 21
2.3964004244
 72
2
 10
17.0051585288
 20
2.3877379196
 40
0.0086625048
 50
270.0
 51
90.0
 73
1
 72
1
 10
17.0051585288
 20
2.3790754148
 11
16.9637955059
 21
2.3790754148
 97
267
330
38F
330
390
330
391
330
392
330
393
330
394
330
395
330
396
330
397
330
398
330
399
330
39A
330
39B
330
39C
330
39D
330
39E
330
39F
330
3A0
330
3A1
330
3A2
330
3A3
330
3A4
330
3A5
330
3A6
330
3A7
330
3A8
330
3A9
330
3AA
330
3AB
330
3AC
330
3AD
330
3AE
330
3AF
330
3B0
330
3B1
330
3B2
330
3B3
330
3B4
330
3B5
330
3B6
330
3B7
330
3B8
330
3B9
330
3BA
330
3BB
330
3BC
330
3BD
330
3BE
330
3BF
330
3C0
330
3C1
330
3C2
330
3C3
330
3C4
330
3C5
330
3C6
330
3C7
330
3C8
330
3C9
330
3CA
330
3CB
330
3CC
330
3CD
330
3CE
330
3CF
330
3D0
330
3D1
330
3D2
330
3D3
330
3D4
330
3D5
330
3D6
330
3D7
330
3D8
330
3D9
330
3DA
330
3DB
330
3DC
330
3DD
330
3DE
330
3DF
330
3E0
330
3E1
330
3E2
330
3E3
330
3E4
330
3E5
330
3E6
330
3E7
330
3E8
330
3E9
330
3EA
330
3EB
330
3EC
330
3ED
330
3EE
330
3EF
330
3F0
330
3F1
330
3F2
330
3F3
330
3F4
330
3F5
330
3F6
330
3F7
330
3F8
330
3F9
330
3FA
330
3FB
330
3FC
330
3FD
330
3FE
330
3FF
330
400
330
401
330
402
330
403
330
404
330
405
330
406
330
407
330
408
330
409
330
40A
330
40B
330
40C
330
40D
330
40E
330
40F
330
410
330
411
330
412
330
413
330
414
330
415
330
416
330
417
330
418
330
419
330
41A
330
41B
330
41C
330
41D
330
41E
330
41F
330
420
330
421
330
422
330
423
330
424
330
425
330
426
330
427
330
428
330
429
330
42A
330
42B
330
42C
330
42D
330
42E
330
42F
330
430
330
431
330
432
330
433
330
434
330
435
330
436
330
437
330
438
330
439
330
43A
330
43B
330
43C
330
43D
330
43E
330
43F
330
440
330
441
330
442
330
443
330
444
330
445
330
446
330
447
330
448
330
449
330
44A
330
44B
330
44C
330
44D
330
44E
330
44F
330
450
330
451
330
452
330
453
330
454
330
455
330
456
330
457
330
458
330
459
330
45A
330
45B
330
45C
330
45D
330
45E
330
45F
330
460
330
461
330
462
330
463
330
464
330
465
330
466
330
467
330
468
330
469
330
46A
330
46B
330
46C
330
46D
330
46E
330
46F
330
470
330
471
330
472
330
473
330
474
330
475
330
476
330
477
330
478
330
479
330
47A
330
47B
330
47C
330
47D
330
47E
330
47F
330
480
330
481
330
482
330
483
330
484
330
485
330
486
330
487
330
488
330
489
330
48A
330
48B
330
48C
330
48D
330
48E
330
48F
330
490
330
491
330
492
330
493
330
494
330
495
330
496
330
497
330
498
330
499
 92
1
 93
13
 72
2
 10
18.1572301659
 20
2.415180433
 40
0.0024749995
 50
179.9999571957
 51
270.0000428043
 73
1
 72
1
 10
18.1547551663
 20
2.4151804348
 11
18.1547551663
 21
2.4279054419
 72
2
 10
18.1572301659
 20
2.4279054437
 40
0.0024749995
 50
89.9999571957
 51
180.0000428043
 73
1
 72
1
 10
18.1572301677
 20
2.4303804433
 11
18.1940311881
 21
2.4303804433
 72
2
 10
18.1924863006
 20
2.4019259643
 40
0.0284963867
 50
70.3834917948
 51
86.8922743861
 73
1
 72
2
 10
18.1973459106
 20
2.4149676972
 40
0.0145814632
 50
54.6746025112
 51
71.1660573124
 73
1
 72
2
 10
18.2024754016
 20
2.4218216224
 40
0.0060275915
 50
20.9055592135
 51
56.7851676243
 73
1
 72
2
 10
18.2037759605
 20
2.4224819047
 40
0.0045795888
 50
355.6235353944
 51
18.9942678268
 73
1
 72
2
 10
18.2025691502
 20
2.4227756809
 40
0.0058087709
 50
318.8515287446
 51
353.6422345323
 73
1
 72
2
 10
18.198398534
 20
2.4260095887
 40
0.0110815393
 50
306.758405961
 51
320.4502234234
 73
1
 72
2
 10
18.1927693431
 20
2.4337504172
 40
0.0206523367
 50
289.6883413472
 51
306.4184925496
 73
1
 72
2
 10
18.1908418374
 20
2.4381440645
 40
0.0254407115
 50
270.7327484175
 51
290.441894219
 73
1
 72
1
 10
18.1911671865
 20
2.4127054335
 11
18.1572301677
 21
2.4127054335
 97
267
330
38F
330
390
330
391
330
392
330
393
330
394
330
395
330
396
330
397
330
398
330
399
330
39A
330
39B
330
39C
330
39D
330
39E
330
39F
330
3A0
330
3A1
330
3A2
330
3A3
330
3A4
330
3A5
330
3A6
330
3A7
330
3A8
330
3A9
330
3AA
330
3AB
330
3AC
330
3AD
330
3AE
330
3AF
330
3B0
330
3B1
330
3B2
330
3B3
330
3B4
330
3B5
330
3B6
330
3B7
330
3B8
330
3B9
330
3BA
330
3BB
330
3BC
330
3BD
330
3BE
330
3BF
330
3C0
330
3C1
330
3C2
330
3C3
330
3C4
330
3C5
330
3C6
330
3C7
330
3C8
330
3C9
330
3CA
330
3CB
330
3CC
330
3CD
330
3CE
330
3CF
330
3D0
330
3D1
330
3D2
330
3D3
330
3D4
330
3D5
330
3D6
330
3D7
330
3D8
330
3D9
330
3DA
330
3DB
330
3DC
330
3DD
330
3DE
330
3DF
330
3E0
330
3E1
330
3E2
330
3E3
330
3E4
330
3E5
330
3E6
330
3E7
330
3E8
330
3E9
330
3EA
330
3EB
330
3EC
330
3ED
330
3EE
330
3EF
330
3F0
330
3F1
330
3F2
330
3F3
330
3F4
330
3F5
330
3F6
330
3F7
330
3F8
330
3F9
330
3FA
330
3FB
330
3FC
330
3FD
330
3FE
330
3FF
330
400
330
401
330
402
330
403
330
404
330
405
330
406
330
407
330
408
330
409
330
40A
330
40B
330
40C
330
40D
330
40E
330
40F
330
410
330
411
330
412
330
413
330
414
330
415
330
416
330
417
330
418
330
419
330
41A
330
41B
330
41C
330
41D
330
41E
330
41F
330
420
330
421
330
422
330
423
330
424
330
425
330
426
330
427
330
428
330
429
330
42A
330
42B
330
42C
330
42D
330
42E
330
42F
330
430
330
431
330
432
330
433
330
434
330
435
330
436
330
437
330
438
330
439
330
43A
330
43B
330
43C
330
43D
330
43E
330
43F
330
440
330
441
330
442
330
443
330
444
330
445
330
446
330
447
330
448
330
449
330
44A
330
44B
330
44C
330
44D
330
44E
330
44F
330
450
330
451
330
452
330
453
330
454
330
455
330
456
330
457
330
458
330
459
330
45A
330
45B
330
45C
330
45D
330
45E
330
45F
330
460
330
461
330
462
330
463
330
464
330
465
330
466
330
467
330
468
330
469
330
46A
330
46B
330
46C
330
46D
330
46E
330
46F
330
470
330
471
330
472
330
473
330
474
330
475
330
476
330
477
330
478
330
479
330
47A
330
47B
330
47C
330
47D
330
47E
330
47F
330
480
330
481
330
482
330
483
330
484
330
485
330
486
330
487
330
488
330
489
330
48A
330
48B
330
48C
330
48D
330
48E
330
48F
330
490
330
491
330
492
330
493
330
494
330
495
330
496
330
497
330
498
330
499
 92
1
 93
6
 72
2
 10
17.0051585288
 20
2.4217179385
 40
0.0086625048
 50
270.0
 51
90.0
 73
1
 72
1
 10
17.0051585288
 20
2.4303804433
 11
16.9637955059
 21
2.4303804433
 72
2
 10
16.963795504
 20
2.4279054437
 40
0.0024749995
 50
89.9999571957
 51
180.0000428043
 73
1
 72
1
 10
16.9613205045
 20
2.4279054419
 11
16.9613205045
 21
2.415530435
 72
2
 10
16.963795504
 20
2.4155304332
 40
0.0024749995
 50
179.9999571957
 51
270.0000428043
 73
1
 72
1
 10
16.9637955059
 20
2.4130554337
 11
17.0051585288
 21
2.4130554337
 97
267
330
38F
330
390
330
391
330
392
330
393
330
394
330
395
330
396
330
397
330
398
330
399
330
39A
330
39B
330
39C
330
39D
330
39E
330
39F
330
3A0
330
3A1
330
3A2
330
3A3
330
3A4
330
3A5
330
3A6
330
3A7
330
3A8
330
3A9
330
3AA
330
3AB
330
3AC
330
3AD
330
3AE
330
3AF
330
3B0
330
3B1
330
3B2
330
3B3
330
3B4
330
3B5
330
3B6
330
3B7
330
3B8
330
3B9
330
3BA
330
3BB
330
3BC
330
3BD
330
3BE
330
3BF
330
3C0
330
3C1
330
3C2
330
3C3
330
3C4
330
3C5
330
3C6
330
3C7
330
3C8
330
3C9
330
3CA
330
3CB
330
3CC
330
3CD
330
3CE
330
3CF
330
3D0
330
3D1
330
3D2
330
3D3
330
3D4
330
3D5
330
3D6
330
3D7
330
3D8
330
3D9
330
3DA
330
3DB
330
3DC
330
3DD
330
3DE
330
3DF
330
3E0
330
3E1
330
3E2
330
3E3
330
3E4
330
3E5
330
3E6
330
3E7
330
3E8
330
3E9
330
3EA
330
3EB
330
3EC
330
3ED
330
3EE
330
3EF
330
3F0
330
3F1
330
3F2
330
3F3
330
3F4
330
3F5
330
3F6
330
3F7
330
3F8
330
3F9
330
3FA
330
3FB
330
3FC
330
3FD
330
3FE
330
3FF
330
400
330
401
330
402
330
403
330
404
330
405
330
406
330
407
330
408
330
409
330
40A
330
40B
330
40C
330
40D
330
40E
330
40F
330
410
330
411
330
412
330
413
330
414
330
415
330
416
330
417
330
418
330
419
330
41A
330
41B
330
41C
330
41D
330
41E
330
41F
330
420
330
421
330
422
330
423
330
424
330
425
330
426
330
427
330
428
330
429
330
42A
330
42B
330
42C
330
42D
330
42E
330
42F
330
430
330
431
330
432
330
433
330
434
330
435
330
436
330
437
330
438
330
439
330
43A
330
43B
330
43C
330
43D
330
43E
330
43F
330
440
330
441
330
442
330
443
330
444
330
445
330
446
330
447
330
448
330
449
330
44A
330
44B
330
44C
330
44D
330
44E
330
44F
330
450
330
451
330
452
330
453
330
454
330
455
330
456
330
457
330
458
330
459
330
45A
330
45B
330
45C
330
45D
330
45E
330
45F
330
460
330
461
330
462
330
463
330
464
330
465
330
466
330
467
330
468
330
469
330
46A
330
46B
330
46C
330
46D
330
46E
330
46F
330
470
330
471
330
472
330
473
330
474
330
475
330
476
330
477
330
478
330
479
330
47A
330
47B
330
47C
330
47D
330
47E
330
47F
330
480
330
481
330
482
330
483
330
484
330
485
330
486
330
487
330
488
330
489
330
48A
330
48B
330
48C
330
48D
330
48E
330
48F
330
490
330
491
330
492
330
493
330
494
330
495
330
496
330
497
330
498
330
499
 92
1
 93
8
 72
2
 10
17.2090556207
 20
2.4161446411
 40
0.0024752071
 50
270.0004896793
 51
32.9089806818
 73
1
 72
1
 10
17.211133643
 20
2.4174894361
 11
17.203874639
 21
2.4287054423
 72
2
 10
17.2017960982
 20
2.4273609828
 40
0.0024754602
 50
32.8959418573
 51
89.9875097202
 73
1
 72
1
 10
17.2017966379
 20
2.429836443
 11
17.1956156344
 21
2.429836443
 72
2
 10
17.1956155641
 20
2.4273612427
 40
0.0024752003
 50
89.998372645
 51
147.6021653069
 73
1
 72
1
 10
17.1935256333
 20
2.4286874423
 11
17.1864086293
 21
2.4174704361
 72
2
 10
17.1884985212
 20
2.4161444741
 40
0.0024750401
 50
147.6063258012
 51
270.0025305753
 73
1
 72
1
 10
17.1884986305
 20
2.413669434
 11
17.2090556419
 21
2.413669434
 97
267
330
38F
330
390
330
391
330
392
330
393
330
394
330
395
330
396
330
397
330
398
330
399
330
39A
330
39B
330
39C
330
39D
330
39E
330
39F
330
3A0
330
3A1
330
3A2
330
3A3
330
3A4
330
3A5
330
3A6
330
3A7
330
3A8
330
3A9
330
3AA
330
3AB
330
3AC
330
3AD
330
3AE
330
3AF
330
3B0
330
3B1
330
3B2
330
3B3
330
3B4
330
3B5
330
3B6
330
3B7
330
3B8
330
3B9
330
3BA
330
3BB
330
3BC
330
3BD
330
3BE
330
3BF
330
3C0
330
3C1
330
3C2
330
3C3
330
3C4
330
3C5
330
3C6
330
3C7
330
3C8
330
3C9
330
3CA
330
3CB
330
3CC
330
3CD
330
3CE
330
3CF
330
3D0
330
3D1
330
3D2
330
3D3
330
3D4
330
3D5
330
3D6
330
3D7
330
3D8
330
3D9
330
3DA
330
3DB
330
3DC
330
3DD
330
3DE
330
3DF
330
3E0
330
3E1
330
3E2
330
3E3
330
3E4
330
3E5
330
3E6
330
3E7
330
3E8
330
3E9
330
3EA
330
3EB
330
3EC
330
3ED
330
3EE
330
3EF
330
3F0
330
3F1
330
3F2
330
3F3
330
3F4
330
3F5
330
3F6
330
3F7
330
3F8
330
3F9
330
3FA
330
3FB
330
3FC
330
3FD
330
3FE
330
3FF
330
400
330
401
330
402
330
403
330
404
330
405
330
406
330
407
330
408
330
409
330
40A
330
40B
330
40C
330
40D
330
40E
330
40F
330
410
330
411
330
412
330
413
330
414
330
415
330
416
330
417
330
418
330
419
330
41A
330
41B
330
41C
330
41D
330
41E
330
41F
330
420
330
421
330
422
330
423
330
424
330
425
330
426
330
427
330
428
330
429
330
42A
330
42B
330
42C
330
42D
330
42E
330
42F
330
430
330
431
330
432
330
433
330
434
330
435
330
436
330
437
330
438
330
439
330
43A
330
43B
330
43C
330
43D
330
43E
330
43F
330
440
330
441
330
442
330
443
330
444
330
445
330
446
330
447
330
448
330
449
330
44A
330
44B
330
44C
330
44D
330
44E
330
44F
330
450
330
451
330
452
330
453
330
454
330
455
330
456
330
457
330
458
330
459
330
45A
330
45B
330
45C
330
45D
330
45E
330
45F
330
460
330
461
330
462
330
463
330
464
330
465
330
466
330
467
330
468
330
469
330
46A
330
46B
330
46C
330
46D
330
46E
330
46F
330
470
330
471
330
472
330
473
330
474
330
475
330
476
330
477
330
478
330
479
330
47A
330
47B
330
47C
330
47D
330
47E
330
47F
330
480
330
481
330
482
330
483
330
484
330
485
330
486
330
487
330
488
330
489
330
48A
330
48B
330
48C
330
48D
330
48E
330
48F
330
490
330
491
330
492
330
493
330
494
330
495
330
496
330
497
330
498
330
499
 92
1
 93
1
 72
3
 10
17.573550844
 20
2.4034764283
 11
-0.8250004575
 21
0.0
 40
0.218572
 50
0.0
 51
-0.0
 73
1
 97
267
330
38F
330
390
330
391
330
392
330
393
330
394
330
395
330
396
330
397
330
398
330
399
330
39A
330
39B
330
39C
330
39D
330
39E
330
39F
330
3A0
330
3A1
330
3A2
330
3A3
330
3A4
330
3A5
330
3A6
330
3A7
330
3A8
330
3A9
330
3AA
330
3AB
330
3AC
330
3AD
330
3AE
330
3AF
330
3B0
330
3B1
330
3B2
330
3B3
330
3B4
330
3B5
330
3B6
330
3B7
330
3B8
330
3B9
330
3BA
330
3BB
330
3BC
330
3BD
330
3BE
330
3BF
330
3C0
330
3C1
330
3C2
330
3C3
330
3C4
330
3C5
330
3C6
330
3C7
330
3C8
330
3C9
330
3CA
330
3CB
330
3CC
330
3CD
330
3CE
330
3CF
330
3D0
330
3D1
330
3D2
330
3D3
330
3D4
330
3D5
330
3D6
330
3D7
330
3D8
330
3D9
330
3DA
330
3DB
330
3DC
330
3DD
330
3DE
330
3DF
330
3E0
330
3E1
330
3E2
330
3E3
330
3E4
330
3E5
330
3E6
330
3E7
330
3E8
330
3E9
330
3EA
330
3EB
330
3EC
330
3ED
330
3EE
330
3EF
330
3F0
330
3F1
330
3F2
330
3F3
330
3F4
330
3F5
330
3F6
330
3F7
330
3F8
330
3F9
330
3FA
330
3FB
330
3FC
330
3FD
330
3FE
330
3FF
330
400
330
401
330
402
330
403
330
404
330
405
330
406
330
407
330
408
330
409
330
40A
330
40B
330
40C
330
40D
330
40E
330
40F
330
410
330
411
330
412
330
413
330
414
330
415
330
416
330
417
330
418
330
419
330
41A
330
41B
330
41C
330
41D
330
41E
330
41F
330
420
330
421
330
422
330
423
330
424
330
425
330
426
330
427
330
428
330
429
330
42A
330
42B
330
42C
330
42D
330
42E
330
42F
330
430
330
431
330
432
330
433
330
434
330
435
330
436
330
437
330
438
330
439
330
43A
330
43B
330
43C
330
43D
330
43E
330
43F
330
440
330
441
330
442
330
443
330
444
330
445
330
446
330
447
330
448
330
449
330
44A
330
44B
330
44C
330
44D
330
44E
330
44F
330
450
330
451
330
452
330
453
330
454
330
455
330
456
330
457
330
458
330
459
330
45A
330
45B
330
45C
330
45D
330
45E
330
45F
330
460
330
461
330
462
330
463
330
464
330
465
330
466
330
467
330
468
330
469
330
46A
330
46B
330
46C
330
46D
330
46E
330
46F
330
470
330
471
330
472
330
473
330
474
330
475
330
476
330
477
330
478
330
479
330
47A
330
47B
330
47C
330
47D
330
47E
330
47F
330
480
330
481
330
482
330
483
330
484
330
485
330
486
330
487
330
488
330
489
330
48A
330
48B
330
48C
330
48D
330
48E
330
48F
330
490
330
491
330
492
330
493
330
494
330
495
330
496
330
497
330
498
330
499
 75
0
 76
1
 98
1
 10
0.0
 20
0.0
  0
LINE
  5
49B
100
AcDbEntity
  8
0
100
AcDbLine
 62
7
  6
CONTINUOUS
 10
21.05
 20
2.67
 11
14.7
 21
2.67
  0
LINE
  5
49C
100
AcDbEntity
  8
0
100
AcDbLine
 62
7
  6
CONTINUOUS
 10
6.007
 20
0.75
 11
6.007
 21
0.5
  0
LINE
  5
49D
100
AcDbEntity
  8
0
100
AcDbLine
 62
7
  6
CONTINUOUS
 10
6.007
 20
15.75
 11
6.007
 21
16.0
  0
LINE
  5
49E
100
AcDbEntity
  8
0
100
AcDbLine
 62
7
  6
CONTINUOUS
 10
0.814
 20
8.163397
 11
0.964
 21
8.25
  0
LINE
  5
49F
100
AcDbEntity
  8
0
100
AcDbLine
 62
7
  6
CONTINUOUS
 10
0.964
 20
8.25
 11
0.814
 21
8.336603
  0
LINE
  5
4A0
100
AcDbEntity
  8
0
100
AcDbLine
 62
7
  6
CONTINUOUS
 10
0.964
 20
4.4
 11
0.714
 21
4.4
  0
LINE
  5
4A1
100
AcDbEntity
  8
0
100
AcDbLine
 62
7
  6
CONTINUOUS
 10
21.05
 20
4.4
 11
21.3
 21
4.4
  0
LINE
  5
4A2
100
AcDbEntity
  8
0
100
AcDbLine
 62
7
  6
CONTINUOUS
 10
11.093603
 20
0.6
 11
11.007
 21
0.75
  0
LINE
  5
4A3
100
AcDbEntity
  8
0
100
AcDbLine
 62
7
  6
CONTINUOUS
 10
11.007
 20
15.75
 11
11.093603
 21
15.9
  0
LINE
  5
4A4
100
AcDbEntity
  8
0
100
AcDbLine
 62
7
  6
CONTINUOUS
 10
8.507
 20
0.75
 11
8.507
 21
0.5
  0
LINE
  5
4A5
100
AcDbEntity
  8
0
100
AcDbLine
 62
7
  6
CONTINUOUS
 10
8.507
 20
15.75
 11
8.507
 21
16.0
  0
LINE
  5
4A6
100
AcDbEntity
  8
0
100
AcDbLine
 62
7
  6
CONTINUOUS
 10
11.007
 20
0.75
 11
11.007
 21
0.5
  0
LINE
  5
4A7
100
AcDbEntity
  8
0
100
AcDbLine
 62
7
  6
CONTINUOUS
 10
11.007
 20
15.75
 11
11.007
 21
16.0
  0
LINE
  5
4A8
100
AcDbEntity
  8
0
100
AcDbLine
 62
7
  6
CONTINUOUS
 10
0.964
 20
8.25
 11
0.714
 21
8.25
  0
LINE
  5
4A9
100
AcDbEntity
  8
0
100
AcDbLine
 62
7
  6
CONTINUOUS
 10
21.05
 20
8.25
 11
21.3
 21
8.25
  0
LINE
  5
4AA
100
AcDbEntity
  8
0
100
AcDbLine
 62
7
  6
CONTINUOUS
 10
13.507
 20
0.75
 11
13.507
 21
0.5
  0
LINE
  5
4AB
100
AcDbEntity
  8
0
100
AcDbLine
 62
7
  6
CONTINUOUS
 10
13.507
 20
15.75
 11
13.507
 21
16.0
  0
LINE
  5
4AC
100
AcDbEntity
  8
0
100
AcDbLine
 62
7
  6
CONTINUOUS
 10
14.7
 20
2.67
 11
14.7
 21
0.75
  0
LINE
  5
4AD
100
AcDbEntity
  8
0
100
AcDbLine
 62
7
  6
CONTINUOUS
 10
11.007
 20
0.75
 11
10.920397
 21
0.6
  0
LINE
  5
4AE
100
AcDbEntity
  8
0
100
AcDbLine
 62
7
  6
CONTINUOUS
 10
0.964
 20
12.1
 11
0.714
 21
12.1
  0
LINE
  5
4AF
100
AcDbEntity
  8
0
100
AcDbLine
 62
7
  6
CONTINUOUS
 10
21.05
 20
12.1
 11
21.3
 21
12.1
  0
LINE
  5
4B0
100
AcDbEntity
  8
0
100
AcDbLine
 62
7
  6
CONTINUOUS
 10
10.920397
 20
15.9
 11
11.007
 21
15.75
  0
LINE
  5
4B1
100
AcDbEntity
  8
0
100
AcDbLine
 62
7
  6
CONTINUOUS
 10
15.2229827477
 20
1.0139932523
 11
15.2229827477
 21
0.7919022523
  0
LINE
  5
4B2
100
AcDbEntity
  8
0
100
AcDbLine
 62
7
  6
CONTINUOUS
 10
15.2229827477
 20
1.0639932523
 11
15.2229827477
 21
1.1639932523
  0
LINE
  5
4B3
100
AcDbEntity
  8
0
100
AcDbLine
 62
7
  6
CONTINUOUS
 10
15.2229827477
 20
1.2139932523
 11
15.2229827477
 21
1.4360842523
  0
LINE
  5
4B4
100
AcDbEntity
  8
0
100
AcDbLine
 62
7
  6
CONTINUOUS
 10
15.8276527477
 20
0.9312952523
 11
15.8276527477
 21
1.2966912523
  0
LINE
  5
4B5
100
AcDbEntity
  8
0
100
AcDbLine
 62
7
  6
CONTINUOUS
 10
16.007
 20
0.75
 11
16.007
 21
0.5
  0
LINE
  5
4B6
100
AcDbEntity
  8
0
100
AcDbLine
 62
7
  6
CONTINUOUS
 10
16.007
 20
15.75
 11
16.007
 21
16.0
  0
LINE
  5
4B7
100
AcDbEntity
  8
0
100
AcDbLine
 62
7
  6
CONTINUOUS
 10
16.4340437477
 20
1.3660842523
 11
16.4340437477
 21
0.8619022523
  0
LINE
  5
4B8
100
AcDbEntity
  8
0
100
AcDbLine
 62
7
  6
CONTINUOUS
 10
21.2
 20
8.336603
 11
21.05
 21
8.25
  0
LINE
  5
4B9
100
AcDbEntity
  8
0
100
AcDbLine
 62
7
  6
CONTINUOUS
 10
21.05
 20
8.25
 11
21.2
 21
8.163397
  0
LINE
  5
4BA
100
AcDbEntity
  8
0
100
AcDbLine
 62
7
  6
CONTINUOUS
 10
16.7
 20
2.67
 11
16.7
 21
0.75
  0
LINE
  5
4BB
100
AcDbEntity
  8
0
100
AcDbLine
 62
7
  6
CONTINUOUS
 10
17.5
 20
1.37
 11
17.5
 21
1.0
  0
LINE
  5
4BC
100
AcDbEntity
  8
0
100
AcDbLine
 62
7
  6
CONTINUOUS
 10
18.507
 20
0.75
 11
18.507
 21
0.5
  0
LINE
  5
4BD
100
AcDbEntity
  8
0
100
AcDbLine
 62
7
  6
CONTINUOUS
 10
18.507
 20
15.75
 11
18.507
 21
16.0
  0
LINE
  5
4BE
100
AcDbEntity
  8
0
100
AcDbLine
 62
7
  6
CONTINUOUS
 10
21.05
 20
15.75
 11
0.964
 21
15.75
  0
LINE
  5
4BF
100
AcDbEntity
  8
0
100
AcDbLine
 62
7
  6
CONTINUOUS
 10
11.093603
 20
15.9
 11
10.920397
 21
15.9
  0
LINE
  5
4C0
100
AcDbEntity
  8
0
100
AcDbLine
 62
7
  6
CONTINUOUS
 10
18.875
 20
1.0
 11
18.875
 21
0.75
  0
LINE
  5
4C1
100
AcDbEntity
  8
0
100
AcDbLine
 62
7
  6
CONTINUOUS
 10
20.25
 20
1.37
 11
20.25
 21
1.0
  0
LINE
  5
4C2
100
AcDbEntity
  8
0
100
AcDbLine
 62
7
  6
CONTINUOUS
 10
21.05
 20
0.75
 11
21.05
 21
15.75
  0
LINE
  5
4C3
100
AcDbEntity
  8
0
100
AcDbLine
 62
7
  6
CONTINUOUS
 10
21.2
 20
8.163397
 11
21.2
 21
8.336603
  0
LINE
  5
4C4
100
AcDbEntity
  8
0
100
AcDbLine
 62
7
  6
CONTINUOUS
 10
13.4881224729
 20
10.0340973094
 11
13.3857602681
 21
10.0340973094
  0
LINE
  5
4C5
100
AcDbEntity
  8
0
100
AcDbLine
 62
7
  6
CONTINUOUS
 10
10.3936342839
 20
12.2939398291
 11
10.3936342839
 21
12.3963020338
  0
LINE
  5
4C6
100
AcDbEntity
  8
0
100
AcDbLine
 62
7
  6
CONTINUOUS
 10
13.3857602681
 20
10.1290579393
 11
13.2157602681
 21
10.1290579393
  0
LINE
  5
4C7
100
AcDbEntity
  8
0
100
AcDbLine
 62
7
  6
CONTINUOUS
 10
10.5314295595
 20
12.4433020338
 11
10.5314295595
 21
12.3963020338
  0
LINE
  5
4C8
100
AcDbEntity
  8
02___PRT_ALL_AXES
100
AcDbLine
 62
7
  6
CONTINUOUS
 10
11.2971283447
 20
13.1463512801
 11
11.6059136104
 21
13.4551365459
  0
LINE
  5
4C9
100
AcDbEntity
  8
0
100
AcDbLine
 62
7
  6
CONTINUOUS
 10
10.610169717
 20
12.4433020338
 11
10.610169717
 21
12.3963020338
  0
LINE
  5
4CA
100
AcDbEntity
  8
AXIS
100
AcDbLine
 62
7
  6
CONTINUOUS
 10
10.6160752288
 20
12.4433020338
 11
10.6160752288
 21
12.4923020338
  0
LINE
  5
4CB
100
AcDbEntity
  8
0
100
AcDbLine
 62
7
  6
CONTINUOUS
 10
10.6298547563
 20
12.2939398291
 11
10.6298547563
 21
12.3963020338
  0
LINE
  5
4CC
100
AcDbEntity
  8
AXIS_COSMETIC_THREADS
100
AcDbLine
 62
7
  6
CONTINUOUS
 10
10.6660752288
 20
12.6340343173
 11
10.6660752288
 21
12.5159240811
  0
LINE
  5
4CD
100
AcDbEntity
  8
0
100
AcDbLine
 62
7
  6
CONTINUOUS
 10
10.6692248351
 20
12.4923020338
 11
10.6692248351
 21
12.5159240811
  0
LINE
  5
4CE
100
AcDbEntity
  8
02___PRT_ALL_AXES
100
AcDbLine
 62
7
  6
CONTINUOUS
 10
11.6391476291
 20
13.4219025272
 11
11.3303623634
 21
13.1131172614
  0
LINE
  5
4CF
100
AcDbEntity
  8
0
100
AcDbLine
 62
7
  6
CONTINUOUS
 10
13.3857602681
 20
10.5690579393
 11
13.2157602681
 21
10.5690579393
  0
LINE
  5
4D0
100
AcDbEntity
  8
AXIS_COSMETIC_THREADS
100
AcDbLine
 62
7
  6
CONTINUOUS
 10
10.7700752288
 20
12.2939398291
 11
10.7700752288
 21
12.2797036086
  0
LINE
  5
4D1
100
AcDbEntity
  8
AXIS
100
AcDbLine
 62
7
  6
CONTINUOUS
 10
10.8450712918
 20
12.6654979482
 11
10.8450712918
 21
12.671351944
  0
LINE
  5
4D2
100
AcDbEntity
  8
AXIS
100
AcDbLine
 62
7
  6
CONTINUOUS
 10
10.8870791658
 20
12.671351944
 11
10.8870791658
 21
12.6654979482
  0
LINE
  5
4D3
100
AcDbEntity
  8
AXIS_COSMETIC_THREADS
100
AcDbLine
 62
7
  6
CONTINUOUS
 10
10.9620752288
 20
12.2939398291
 11
10.9620752288
 21
12.2797036086
  0
LINE
  5
4D4
100
AcDbEntity
  8
0
100
AcDbLine
 62
7
  6
CONTINUOUS
 10
11.0629256225
 20
12.4923020338
 11
11.0629256225
 21
12.5159240811
  0
LINE
  5
4D5
100
AcDbEntity
  8
AXIS_COSMETIC_THREADS
100
AcDbLine
 62
7
  6
CONTINUOUS
 10
11.0660752288
 20
12.6340343173
 11
11.0660752288
 21
12.5159240811
  0
LINE
  5
4D6
100
AcDbEntity
  8
AXIS
100
AcDbLine
 62
7
  6
CONTINUOUS
 10
11.1160752288
 20
12.4433020338
 11
11.1160752288
 21
12.4923020338
  0
LINE
  5
4D7
100
AcDbEntity
  8
0
100
AcDbLine
 62
7
  6
CONTINUOUS
 10
13.4881224729
 20
11.0183492779
 11
13.3857602681
 21
11.0183492779
  0
LINE
  5
4D8
100
AcDbEntity
  8
0
100
AcDbLine
 62
7
  6
CONTINUOUS
 10
11.2718311343
 20
12.4826721125
 11
11.2718311343
 21
13.0852784118
  0
LINE
  5
4D9
100
AcDbEntity
  8
0
100
AcDbLine
 62
7
  6
CONTINUOUS
 10
11.3188311343
 20
13.0852784118
 11
11.3188311343
 21
12.4826721125
  0
LINE
  5
4DA
100
AcDbEntity
  8
0
100
AcDbLine
 62
7
  6
CONTINUOUS
 10
13.3857602681
 20
11.388900459
 11
13.2157602681
 21
11.388900459
  0
LINE
  5
4DB
100
AcDbEntity
  8
0
100
AcDbLine
 62
7
  6
CONTINUOUS
 10
13.3857602681
 20
11.828900459
 11
13.2157602681
 21
11.828900459
  0
LINE
  5
4DC
100
AcDbEntity
  8
0
100
AcDbLine
 62
7
  6
CONTINUOUS
 10
13.4881224729
 20
12.1915776244
 11
13.3857602681
 21
12.1915776244
  0
LINE
  5
4DD
100
AcDbEntity
  8
AXIS_COSMETIC_THREADS
100
AcDbLine
 62
7
  6
CONTINUOUS
 10
13.0093193233
 20
12.2797036086
 11
12.8173193233
 21
12.2797036086
  0
LINE
  5
4DE
100
AcDbEntity
  8
AXIS_COSMETIC_THREADS
100
AcDbLine
 62
7
  6
CONTINUOUS
 10
10.9620752288
 20
12.2797036086
 11
10.7700752288
 21
12.2797036086
  0
LINE
  5
4DF
100
AcDbEntity
  8
0
100
AcDbLine
 62
7
  6
CONTINUOUS
 10
13.3857602681
 20
12.2939398291
 11
10.3936342839
 21
12.2939398291
  0
LINE
  5
4E0
100
AcDbEntity
  8
0
100
AcDbLine
 62
7
  6
CONTINUOUS
 10
12.4605634177
 20
13.0852784118
 11
12.4605634177
 21
12.4826721125
  0
LINE
  5
4E1
100
AcDbEntity
  8
0
100
AcDbLine
 62
7
  6
CONTINUOUS
 10
12.5075634177
 20
12.4826721125
 11
12.5075634177
 21
13.0852784118
  0
LINE
  5
4E2
100
AcDbEntity
  8
0
100
AcDbLine
 62
7
  6
CONTINUOUS
 10
10.3936342839
 20
12.3963020338
 11
13.3857602681
 21
12.3963020338
  0
LINE
  5
4E3
100
AcDbEntity
  8
0
100
AcDbLine
 62
7
  6
CONTINUOUS
 10
10.5314295595
 20
12.4433020338
 11
11.2324610555
 21
12.4433020338
  0
LINE
  5
4E4
100
AcDbEntity
  8
0
100
AcDbLine
 62
7
  6
CONTINUOUS
 10
12.5469334965
 20
12.4433020338
 11
13.2479649926
 21
12.4433020338
  0
LINE
  5
4E5
100
AcDbEntity
  8
AXIS
100
AcDbLine
 62
7
  6
CONTINUOUS
 10
12.6633193233
 20
12.4433020338
 11
12.6633193233
 21
12.4923020338
  0
LINE
  5
4E6
100
AcDbEntity
  8
AXIS_COSMETIC_THREADS
100
AcDbLine
 62
7
  6
CONTINUOUS
 10
12.7133193233
 20
12.6340343173
 11
12.7133193233
 21
12.5159240811
  0
LINE
  5
4E7
100
AcDbEntity
  8
0
100
AcDbLine
 62
7
  6
CONTINUOUS
 10
12.7164689296
 20
12.4923020338
 11
12.7164689296
 21
12.5159240811
  0
LINE
  5
4E8
100
AcDbEntity
  8
AXIS
100
AcDbLine
 62
7
  6
CONTINUOUS
 10
10.6160752288
 20
12.4923020338
 11
11.1160752288
 21
12.4923020338
  0
LINE
  5
4E9
100
AcDbEntity
  8
AXIS
100
AcDbLine
 62
7
  6
CONTINUOUS
 10
12.6633193233
 20
12.4923020338
 11
13.1633193233
 21
12.4923020338
  0
LINE
  5
4EA
100
AcDbEntity
  8
AXIS_COSMETIC_THREADS
100
AcDbLine
 62
7
  6
CONTINUOUS
 10
13.1133193233
 20
12.5159240811
 11
12.7133193233
 21
12.5159240811
  0
LINE
  5
4EB
100
AcDbEntity
  8
AXIS_COSMETIC_THREADS
100
AcDbLine
 62
7
  6
CONTINUOUS
 10
11.0660752288
 20
12.5159240811
 11
10.6660752288
 21
12.5159240811
  0
LINE
  5
4EC
100
AcDbEntity
  8
AXIS_COSMETIC_THREADS
100
AcDbLine
 62
7
  6
CONTINUOUS
 10
12.8173193233
 20
12.2939398291
 11
12.8173193233
 21
12.2797036086
  0
LINE
  5
4ED
100
AcDbEntity
  8
AXIS
100
AcDbLine
 62
7
  6
CONTINUOUS
 10
12.8923153863
 20
12.6654979482
 11
12.8923153863
 21
12.671351944
  0
LINE
  5
4EE
100
AcDbEntity
  8
AXIS_COSMETIC_THREADS
100
AcDbLine
 62
7
  6
CONTINUOUS
 10
13.1133193233
 20
12.6340343173
 11
12.7133193233
 21
12.6340343173
  0
LINE
  5
4EF
100
AcDbEntity
  8
AXIS_COSMETIC_THREADS
100
AcDbLine
 62
7
  6
CONTINUOUS
 10
11.0660752288
 20
12.6340343173
 11
10.6660752288
 21
12.6340343173
  0
LINE
  5
4F0
100
AcDbEntity
  8
AXIS
100
AcDbLine
 62
7
  6
CONTINUOUS
 10
10.7750712918
 20
12.6654979482
 11
10.7775283419
 21
12.6654979482
  0
LINE
  5
4F1
100
AcDbEntity
  8
AXIS
100
AcDbLine
 62
7
  6
CONTINUOUS
 10
10.8450712918
 20
12.6654979482
 11
10.8870791658
 21
12.6654979482
  0
LINE
  5
4F2
100
AcDbEntity
  8
AXIS
100
AcDbLine
 62
7
  6
CONTINUOUS
 10
10.9546221157
 20
12.6654979482
 11
10.9570791658
 21
12.6654979482
  0
LINE
  5
4F3
100
AcDbEntity
  8
AXIS
100
AcDbLine
 62
7
  6
CONTINUOUS
 10
12.8223153863
 20
12.6654979482
 11
12.8247724364
 21
12.6654979482
  0
LINE
  5
4F4
100
AcDbEntity
  8
AXIS
100
AcDbLine
 62
7
  6
CONTINUOUS
 10
12.8923153863
 20
12.6654979482
 11
12.9343232603
 21
12.6654979482
  0
LINE
  5
4F5
100
AcDbEntity
  8
AXIS
100
AcDbLine
 62
7
  6
CONTINUOUS
 10
13.0018662102
 20
12.6654979482
 11
13.0043232603
 21
12.6654979482
  0
LINE
  5
4F6
100
AcDbEntity
  8
AXIS
100
AcDbLine
 62
7
  6
CONTINUOUS
 10
10.8245936846
 20
12.671351944
 11
10.8450712918
 21
12.671351944
  0
LINE
  5
4F7
100
AcDbEntity
  8
AXIS
100
AcDbLine
 62
7
  6
CONTINUOUS
 10
10.8870791658
 20
12.671351944
 11
10.9075567729
 21
12.671351944
  0
LINE
  5
4F8
100
AcDbEntity
  8
AXIS
100
AcDbLine
 62
7
  6
CONTINUOUS
 10
12.8718377791
 20
12.671351944
 11
12.8923153863
 21
12.671351944
  0
LINE
  5
4F9
100
AcDbEntity
  8
AXIS
100
AcDbLine
 62
7
  6
CONTINUOUS
 10
12.9343232603
 20
12.671351944
 11
12.9548008674
 21
12.671351944
  0
LINE
  5
4FA
100
AcDbEntity
  8
AXIS
100
AcDbLine
 62
7
  6
CONTINUOUS
 10
12.9343232603
 20
12.671351944
 11
12.9343232603
 21
12.6654979482
  0
LINE
  5
4FB
100
AcDbEntity
  8
AXIS_COSMETIC_THREADS
100
AcDbLine
 62
7
  6
CONTINUOUS
 10
13.0093193233
 20
12.2939398291
 11
13.0093193233
 21
12.2797036086
  0
LINE
  5
4FC
100
AcDbEntity
  8
0
100
AcDbLine
 62
7
  6
CONTINUOUS
 10
13.3212972289
 20
12.2866653429
 11
13.324196625
 21
12.2939398291
  0
LINE
  5
4FD
100
AcDbEntity
  8
0
100
AcDbLine
 62
7
  6
CONTINUOUS
 10
13.110169717
 20
12.4923020338
 11
13.110169717
 21
12.5159240811
  0
LINE
  5
4FE
100
AcDbEntity
  8
AXIS_COSMETIC_THREADS
100
AcDbLine
 62
7
  6
CONTINUOUS
 10
13.1133193233
 20
12.6340343173
 11
13.1133193233
 21
12.5159240811
  0
LINE
  5
4FF
100
AcDbEntity
  8
0
100
AcDbLine
 62
7
  6
CONTINUOUS
 10
13.1495397957
 20
12.2939398291
 11
13.1495397957
 21
12.3963020338
  0
LINE
  5
500
100
AcDbEntity
  8
AXIS
100
AcDbLine
 62
7
  6
CONTINUOUS
 10
13.1633193233
 20
12.4433020338
 11
13.1633193233
 21
12.4923020338
  0
LINE
  5
501
100
AcDbEntity
  8
0
100
AcDbLine
 62
7
  6
CONTINUOUS
 10
13.1692248351
 20
12.3963020338
 11
13.1692248351
 21
12.4433020338
  0
LINE
  5
502
100
AcDbEntity
  8
0
100
AcDbLine
 62
7
  6
CONTINUOUS
 10
13.2157602681
 20
10.1290586488
 11
13.2157602681
 21
10.5690572299
  0
LINE
  5
503
100
AcDbEntity
  8
0
100
AcDbLine
 62
7
  6
CONTINUOUS
 10
13.2157602681
 20
11.3889011684
 11
13.2157602681
 21
11.8288997496
  0
LINE
  5
504
100
AcDbEntity
  8
0
100
AcDbLine
 62
7
  6
CONTINUOUS
 10
13.2479649926
 20
12.3963020338
 11
13.2479649926
 21
12.4433020338
  0
LINE
  5
505
100
AcDbEntity
  8
02___PRT_ALL_AXES
100
AcDbLine
 62
7
  6
CONTINUOUS
 10
12.1402469229
 20
13.4219025272
 11
12.4490321887
 21
13.1131172614
  0
LINE
  5
506
100
AcDbEntity
  8
02___PRT_ALL_AXES
100
AcDbLine
 62
7
  6
CONTINUOUS
 10
12.4822662074
 20
13.1463512801
 11
12.1734809416
 21
13.4551365459
  0
LINE
  5
507
100
AcDbEntity
  8
0
100
AcDbLine
 62
7
  6
CONTINUOUS
 10
13.3857602681
 20
10.0340973094
 11
13.3857602681
 21
12.1915776244
  0
LINE
  5
508
100
AcDbEntity
  8
0
100
AcDbLine
 62
7
  6
CONTINUOUS
 10
13.3857602681
 20
12.2939398291
 11
13.3857602681
 21
12.3963020338
  0
LINE
  5
509
100
AcDbEntity
  8
0
100
AcDbLine
 62
7
  6
CONTINUOUS
 10
13.4881224729
 20
12.1915776244
 11
13.4881224729
 21
10.0340973094
  0
LINE
  5
50A
100
AcDbEntity
  8
0
100
AcDbLine
 62
7
  6
CONTINUOUS
 10
16.1566879731
 20
12.2939398291
 11
16.1566879731
 21
12.3963020338
  0
LINE
  5
50B
100
AcDbEntity
  8
0
100
AcDbLine
 62
7
  6
CONTINUOUS
 10
16.3929084456
 20
12.2939398291
 11
16.3929084456
 21
12.3963020338
  0
LINE
  5
50C
100
AcDbEntity
  8
0
100
AcDbLine
 62
7
  6
CONTINUOUS
 10
16.4903532054
 20
12.2939398291
 11
16.4903532054
 21
12.3963020338
  0
LINE
  5
50D
100
AcDbEntity
  8
0
100
AcDbLine
 62
7
  6
CONTINUOUS
 10
16.5673015018
 20
12.2939398291
 11
16.5673015018
 21
12.3963020338
  0
LINE
  5
50E
100
AcDbEntity
  8
0
100
AcDbLine
 62
7
  6
CONTINUOUS
 10
16.6173180164
 20
12.2939398291
 11
16.6173180164
 21
12.3963020338
  0
LINE
  5
50F
100
AcDbEntity
  8
0
100
AcDbLine
 62
7
  6
CONTINUOUS
 10
16.6684989967
 20
12.3817530614
 11
16.6684989967
 21
11.0183492779
  0
LINE
  5
510
100
AcDbEntity
  8
0
100
AcDbLine
 62
7
  6
CONTINUOUS
 10
17.1409399416
 20
12.3963020338
 11
17.1409399416
 21
13.0852784118
  0
LINE
  5
511
100
AcDbEntity
  8
02___PRT_ALL_AXES
100
AcDbLine
 62
7
  6
CONTINUOUS
 10
17.1409399416
 20
13.0852784118
 11
17.1409399416
 21
13.5726835833
  0
LINE
  5
512
100
AcDbEntity
  8
0
100
AcDbLine
 62
7
  6
CONTINUOUS
 10
17.2196800991
 20
12.3963020338
 11
17.2196800991
 21
12.4433020338
  0
LINE
  5
513
100
AcDbEntity
  8
AXIS
100
AcDbLine
 62
7
  6
CONTINUOUS
 10
17.4027509653
 20
12.4433020338
 11
17.4027509653
 21
12.4923020338
  0
LINE
  5
514
100
AcDbEntity
  8
AXIS_COSMETIC_THREADS
100
AcDbLine
 62
7
  6
CONTINUOUS
 10
17.4527509653
 20
12.5159240811
 11
17.4527509653
 21
12.6340343173
  0
LINE
  5
515
100
AcDbEntity
  8
0
100
AcDbLine
 62
7
  6
CONTINUOUS
 10
17.4559005716
 20
12.4923020338
 11
17.4559005716
 21
12.5159240811
  0
LINE
  5
516
100
AcDbEntity
  8
AXIS
100
AcDbLine
 62
7
  6
CONTINUOUS
 10
17.6317470282
 20
12.6654979482
 11
17.6317470282
 21
12.671351944
  0
LINE
  5
517
100
AcDbEntity
  8
AXIS
100
AcDbLine
 62
7
  6
CONTINUOUS
 10
17.6737549023
 20
12.671351944
 11
17.6737549023
 21
12.6654979482
  0
LINE
  5
518
100
AcDbEntity
  8
0
100
AcDbLine
 62
7
  6
CONTINUOUS
 10
17.849601359
 20
12.4923020338
 11
17.849601359
 21
12.5159240811
  0
LINE
  5
519
100
AcDbEntity
  8
AXIS_COSMETIC_THREADS
100
AcDbLine
 62
7
  6
CONTINUOUS
 10
17.8527509653
 20
12.5159240811
 11
17.8527509653
 21
12.6340343173
  0
LINE
  5
51A
100
AcDbEntity
  8
AXIS
100
AcDbLine
 62
7
  6
CONTINUOUS
 10
17.9027509653
 20
12.4433020338
 11
17.9027509653
 21
12.4923020338
  0
LINE
  5
51B
100
AcDbEntity
  8
0
100
AcDbLine
 62
7
  6
CONTINUOUS
 10
18.0858218314
 20
12.4433020338
 11
18.0858218314
 21
12.3963020338
  0
LINE
  5
51C
100
AcDbEntity
  8
0
100
AcDbLine
 62
7
  6
CONTINUOUS
 10
18.6370029338
 20
12.1915776244
 11
16.6684989967
 21
12.1915776244
  0
LINE
  5
51D
100
AcDbEntity
  8
0
100
AcDbLine
 62
7
  6
CONTINUOUS
 10
18.1645619889
 20
12.3963020338
 11
18.1645619889
 21
13.0852784118
  0
LINE
  5
51E
100
AcDbEntity
  8
02___PRT_ALL_AXES
100
AcDbLine
 62
7
  6
CONTINUOUS
 10
18.1645619889
 20
13.0852784118
 11
18.1645619889
 21
13.5726835833
  0
LWPOLYLINE
  5
51F
100
AcDbEntity
  8
0
100
AcDbPolyline
 62
7
  6
CONTINUOUS
 90
7
 70
0
 10
18.6881839141
 20
12.2939398291
 10
18.6730071676
 20
12.2939249166
 10
18.6601724529
 20
12.2937438976
 10
18.6499614222
 20
12.2931147157
 10
18.6426680111
 20
12.2917784245
 10
18.6383870964
 20
12.2896139186
 10
18.6370029338
 20
12.2866653429
  0
LWPOLYLINE
  5
520
100
AcDbEntity
  8
0
100
AcDbPolyline
 62
7
  6
CONTINUOUS
 90
7
 70
0
 10
18.6881839141
 20
12.3963020338
 10
18.6760774891
 20
12.3962901291
 10
18.6641816008
 20
12.3961010562
 10
18.653567868
 20
12.3952810607
 10
18.6450320491
 20
12.3931613155
 10
18.6392237386
 20
12.3889501439
 10
18.6370029338
 20
12.3817530614
  0
LINE
  5
521
100
AcDbEntity
  8
0
100
AcDbLine
 62
7
  6
CONTINUOUS
 10
19.1488139574
 20
12.2939398291
 11
18.6881839141
 21
12.2939398291
  0
LINE
  5
522
100
AcDbEntity
  8
0
100
AcDbLine
 62
7
  6
CONTINUOUS
 10
16.1566879731
 20
12.2939398291
 11
16.6173180164
 21
12.2939398291
  0
LINE
  5
523
100
AcDbEntity
  8
0
100
AcDbLine
 62
7
  6
CONTINUOUS
 10
16.1566879731
 20
12.3963020338
 11
19.1488139574
 21
12.3963020338
  0
LWPOLYLINE
  5
524
100
AcDbEntity
  8
0
100
AcDbPolyline
 62
7
  6
CONTINUOUS
 90
7
 70
0
 10
16.6173180164
 20
12.2939398291
 10
16.6324947629
 20
12.2939249166
 10
16.6453294776
 20
12.2937438976
 10
16.6555405083
 20
12.2931147157
 10
16.6628339194
 20
12.2917784245
 10
16.6671148341
 20
12.2896139186
 10
16.6684989967
 20
12.2866653429
  0
LWPOLYLINE
  5
525
100
AcDbEntity
  8
0
100
AcDbPolyline
 62
7
  6
CONTINUOUS
 90
7
 70
0
 10
16.6173180164
 20
12.3963020338
 10
16.6294244414
 20
12.3962901291
 10
16.6413203297
 20
12.3961010562
 10
16.6519340625
 20
12.3952810607
 10
16.6604698814
 20
12.3931613155
 10
16.6662781919
 20
12.3889501439
 10
16.6684989967
 20
12.3817530614
  0
LINE
  5
526
100
AcDbEntity
  8
0
100
AcDbLine
 62
7
  6
CONTINUOUS
 10
17.1409399416
 20
12.4433020338
 11
18.1645619889
 21
12.4433020338
  0
LINE
  5
527
100
AcDbEntity
  8
0
100
AcDbLine
 62
7
  6
CONTINUOUS
 10
18.1645619889
 20
12.4826721125
 11
17.9027509653
 21
12.4826721125
  0
LINE
  5
528
100
AcDbEntity
  8
0
100
AcDbLine
 62
7
  6
CONTINUOUS
 10
17.4027509653
 20
12.4826721125
 11
17.1409399416
 21
12.4826721125
  0
LINE
  5
529
100
AcDbEntity
  8
AXIS
100
AcDbLine
 62
7
  6
CONTINUOUS
 10
17.4027509653
 20
12.4923020338
 11
17.9027509653
 21
12.4923020338
  0
LINE
  5
52A
100
AcDbEntity
  8
AXIS_COSMETIC_THREADS
100
AcDbLine
 62
7
  6
CONTINUOUS
 10
17.4527518235
 20
12.5159240811
 11
17.852750107
 21
12.5159240811
  0
LINE
  5
52B
100
AcDbEntity
  8
AXIS_COSMETIC_THREADS
100
AcDbLine
 62
7
  6
CONTINUOUS
 10
17.4527509653
 20
12.6340343173
 11
17.8527509653
 21
12.6340343173
  0
LINE
  5
52C
100
AcDbEntity
  8
AXIS
100
AcDbLine
 62
7
  6
CONTINUOUS
 10
17.5617470282
 20
12.6654979482
 11
17.5642040783
 21
12.6654979482
  0
LINE
  5
52D
100
AcDbEntity
  8
AXIS
100
AcDbLine
 62
7
  6
CONTINUOUS
 10
17.6317470282
 20
12.6654979482
 11
17.6737549023
 21
12.6654979482
  0
LINE
  5
52E
100
AcDbEntity
  8
AXIS
100
AcDbLine
 62
7
  6
CONTINUOUS
 10
17.7412978522
 20
12.6654979482
 11
17.7437549023
 21
12.6654979482
  0
LINE
  5
52F
100
AcDbEntity
  8
AXIS
100
AcDbLine
 62
7
  6
CONTINUOUS
 10
17.6112694211
 20
12.671351944
 11
17.6317470282
 21
12.671351944
  0
LINE
  5
530
100
AcDbEntity
  8
AXIS
100
AcDbLine
 62
7
  6
CONTINUOUS
 10
17.6737549023
 20
12.671351944
 11
17.6942325094
 21
12.671351944
  0
LINE
  5
531
100
AcDbEntity
  8
0
100
AcDbLine
 62
7
  6
CONTINUOUS
 10
18.6370029338
 20
11.0183492779
 11
18.6370029338
 21
12.3817530614
  0
LINE
  5
532
100
AcDbEntity
  8
0
100
AcDbLine
 62
7
  6
CONTINUOUS
 10
18.6881839141
 20
12.3963020338
 11
18.6881839141
 21
12.2939398291
  0
LINE
  5
533
100
AcDbEntity
  8
0
100
AcDbLine
 62
7
  6
CONTINUOUS
 10
18.7382004287
 20
12.3963020338
 11
18.7382004287
 21
12.2939398291
  0
LINE
  5
534
100
AcDbEntity
  8
0
100
AcDbLine
 62
7
  6
CONTINUOUS
 10
18.8151487251
 20
12.3963020338
 11
18.8151487251
 21
12.2939398291
  0
LINE
  5
535
100
AcDbEntity
  8
0
100
AcDbLine
 62
7
  6
CONTINUOUS
 10
18.9125934849
 20
12.2939398291
 11
18.9125934849
 21
12.3963020338
  0
LINE
  5
536
100
AcDbEntity
  8
02___PRT_ALL_AXES
100
AcDbLine
 62
7
  6
CONTINUOUS
 10
18.1645619889
 20
13.0852784118
 11
17.1409399416
 21
13.0852784118
  0
LINE
  5
537
100
AcDbEntity
  8
02___PRT_ALL_AXES
100
AcDbLine
 62
7
  6
CONTINUOUS
 10
18.1645619889
 20
13.1463512801
 11
17.1409399416
 21
13.1463512801
  0
LINE
  5
538
100
AcDbEntity
  8
0
100
AcDbLine
 62
7
  6
CONTINUOUS
 10
19.1488139574
 20
12.2939398291
 11
19.1488139574
 21
12.3963020338
  0
LINE
  5
539
100
AcDbEntity
  8
02___PRT_ALL_AXES
100
AcDbLine
 62
7
  6
CONTINUOUS
 10
18.1645619889
 20
13.4551365459
 11
17.1409399416
 21
13.4551365459
  0
LINE
  5
53A
100
AcDbEntity
  8
02___PRT_ALL_AXES
100
AcDbLine
 62
7
  6
CONTINUOUS
 10
18.1645619889
 20
13.572683589
 11
17.1409399416
 21
13.572683589
  0
LINE
  5
53B
100
AcDbEntity
  8
0
100
AcDbLine
 62
7
  6
CONTINUOUS
 10
3.8562536102
 20
12.2939398291
 11
3.8562536102
 21
12.3963020338
  0
LINE
  5
53C
100
AcDbEntity
  8
0
100
AcDbLine
 62
7
  6
CONTINUOUS
 10
4.0924740826
 20
12.2939398291
 11
4.0924740826
 21
12.3963020338
  0
LINE
  5
53D
100
AcDbEntity
  8
0
100
AcDbLine
 62
7
  6
CONTINUOUS
 10
4.3680646338
 20
11.0183492779
 11
4.3680646338
 21
12.2866653429
  0
LINE
  5
53E
100
AcDbEntity
  8
0
100
AcDbLine
 62
7
  6
CONTINUOUS
 10
4.8405055787
 20
12.3963020338
 11
4.8405055787
 21
13.0852784118
  0
LINE
  5
53F
100
AcDbEntity
  8
02___PRT_ALL_AXES
100
AcDbLine
 62
7
  6
CONTINUOUS
 10
4.8405055787
 20
13.0852784118
 11
4.8405055787
 21
13.5726835833
  0
LINE
  5
540
100
AcDbEntity
  8
0
100
AcDbLine
 62
7
  6
CONTINUOUS
 10
4.9192457362
 20
12.3963020338
 11
4.9192457362
 21
12.4433020338
  0
LINE
  5
541
100
AcDbEntity
  8
AXIS
100
AcDbLine
 62
7
  6
CONTINUOUS
 10
5.1023166023
 20
12.4433020338
 11
5.1023166023
 21
12.4923020338
  0
LINE
  5
542
100
AcDbEntity
  8
AXIS_COSMETIC_THREADS
100
AcDbLine
 62
7
  6
CONTINUOUS
 10
5.1523166023
 20
12.5159240811
 11
5.1523166023
 21
12.6340343173
  0
LINE
  5
543
100
AcDbEntity
  8
0
100
AcDbLine
 62
7
  6
CONTINUOUS
 10
5.1554662086
 20
12.4923020338
 11
5.1554662086
 21
12.5159240811
  0
LINE
  5
544
100
AcDbEntity
  8
AXIS_COSMETIC_THREADS
100
AcDbLine
 62
7
  6
CONTINUOUS
 10
5.2563166023
 20
12.2939398291
 11
5.2563166023
 21
12.2797036086
  0
LINE
  5
545
100
AcDbEntity
  8
AXIS
100
AcDbLine
 62
7
  6
CONTINUOUS
 10
5.3313126653
 20
12.6654979482
 11
5.3313126653
 21
12.671351944
  0
LINE
  5
546
100
AcDbEntity
  8
AXIS
100
AcDbLine
 62
7
  6
CONTINUOUS
 10
5.3733205393
 20
12.671351944
 11
5.3733205393
 21
12.6654979482
  0
LINE
  5
547
100
AcDbEntity
  8
AXIS_COSMETIC_THREADS
100
AcDbLine
 62
7
  6
CONTINUOUS
 10
5.4483166023
 20
12.2939398291
 11
5.4483166023
 21
12.2797036086
  0
LINE
  5
548
100
AcDbEntity
  8
0
100
AcDbLine
 62
7
  6
CONTINUOUS
 10
5.549166996
 20
12.4923020338
 11
5.549166996
 21
12.5159240811
  0
LINE
  5
549
100
AcDbEntity
  8
AXIS_COSMETIC_THREADS
100
AcDbLine
 62
7
  6
CONTINUOUS
 10
5.5523166023
 20
12.5159240811
 11
5.5523166023
 21
12.6340343173
  0
LINE
  5
54A
100
AcDbEntity
  8
AXIS
100
AcDbLine
 62
7
  6
CONTINUOUS
 10
5.6023166023
 20
12.4433020338
 11
5.6023166023
 21
12.4923020338
  0
LINE
  5
54B
100
AcDbEntity
  8
0
100
AcDbLine
 62
7
  6
CONTINUOUS
 10
5.7853874685
 20
12.4433020338
 11
5.7853874685
 21
12.3963020338
  0
LINE
  5
54C
100
AcDbEntity
  8
0
100
AcDbLine
 62
7
  6
CONTINUOUS
 10
4.3680646338
 20
12.1915776244
 11
6.3365685708
 21
12.1915776244
  0
LINE
  5
54D
100
AcDbEntity
  8
AXIS_COSMETIC_THREADS
100
AcDbLine
 62
7
  6
CONTINUOUS
 10
5.4483166023
 20
12.2797036086
 11
5.2563166023
 21
12.2797036086
  0
LINE
  5
54E
100
AcDbEntity
  8
0
100
AcDbLine
 62
7
  6
CONTINUOUS
 10
5.8641276259
 20
12.3963020338
 11
5.8641276259
 21
13.0852784118
  0
LINE
  5
54F
100
AcDbEntity
  8
02___PRT_ALL_AXES
100
AcDbLine
 62
7
  6
CONTINUOUS
 10
5.8641276259
 20
13.0852784118
 11
5.8641276259
 21
13.5726835833
  0
LINE
  5
550
100
AcDbEntity
  8
0
100
AcDbLine
 62
7
  6
CONTINUOUS
 10
6.8483795944
 20
12.2939398291
 11
3.8562536102
 21
12.2939398291
  0
LINE
  5
551
100
AcDbEntity
  8
0
100
AcDbLine
 62
7
  6
CONTINUOUS
 10
3.8562536102
 20
12.3963020338
 11
6.8483795944
 21
12.3963020338
  0
LINE
  5
552
100
AcDbEntity
  8
0
100
AcDbLine
 62
7
  6
CONTINUOUS
 10
4.8405055787
 20
12.4433020338
 11
5.8641276259
 21
12.4433020338
  0
LINE
  5
553
100
AcDbEntity
  8
0
100
AcDbLine
 62
7
  6
CONTINUOUS
 10
5.8641276259
 20
12.4826721125
 11
5.6023166023
 21
12.4826721125
  0
LINE
  5
554
100
AcDbEntity
  8
0
100
AcDbLine
 62
7
  6
CONTINUOUS
 10
5.1023166023
 20
12.4826721125
 11
4.8405055787
 21
12.4826721125
  0
LINE
  5
555
100
AcDbEntity
  8
AXIS
100
AcDbLine
 62
7
  6
CONTINUOUS
 10
5.1023166023
 20
12.4923020338
 11
5.6023166023
 21
12.4923020338
  0
LINE
  5
556
100
AcDbEntity
  8
AXIS_COSMETIC_THREADS
100
AcDbLine
 62
7
  6
CONTINUOUS
 10
5.1523174605
 20
12.5159240811
 11
5.5523157441
 21
12.5159240811
  0
LINE
  5
557
100
AcDbEntity
  8
AXIS_COSMETIC_THREADS
100
AcDbLine
 62
7
  6
CONTINUOUS
 10
5.1523166023
 20
12.6340343173
 11
5.5523166023
 21
12.6340343173
  0
LINE
  5
558
100
AcDbEntity
  8
AXIS
100
AcDbLine
 62
7
  6
CONTINUOUS
 10
5.2613126653
 20
12.6654979482
 11
5.2637697154
 21
12.6654979482
  0
LINE
  5
559
100
AcDbEntity
  8
AXIS
100
AcDbLine
 62
7
  6
CONTINUOUS
 10
5.3313126653
 20
12.6654979482
 11
5.3733205393
 21
12.6654979482
  0
LINE
  5
55A
100
AcDbEntity
  8
AXIS
100
AcDbLine
 62
7
  6
CONTINUOUS
 10
5.4408634892
 20
12.6654979482
 11
5.4433205393
 21
12.6654979482
  0
LINE
  5
55B
100
AcDbEntity
  8
AXIS
100
AcDbLine
 62
7
  6
CONTINUOUS
 10
5.3108350582
 20
12.671351944
 11
5.3313126653
 21
12.671351944
  0
LINE
  5
55C
100
AcDbEntity
  8
AXIS
100
AcDbLine
 62
7
  6
CONTINUOUS
 10
5.3733205393
 20
12.671351944
 11
5.3937981465
 21
12.671351944
  0
LINE
  5
55D
100
AcDbEntity
  8
0
100
AcDbLine
 62
7
  6
CONTINUOUS
 10
6.3365685708
 20
11.0183492779
 11
6.3365685708
 21
12.2866653429
  0
LINE
  5
55E
100
AcDbEntity
  8
0
100
AcDbLine
 62
7
  6
CONTINUOUS
 10
6.612159122
 20
12.2939398291
 11
6.612159122
 21
12.3963020338
  0
LINE
  5
55F
100
AcDbEntity
  8
02___PRT_ALL_AXES
100
AcDbLine
 62
7
  6
CONTINUOUS
 10
4.8405055787
 20
13.0852784118
 11
5.8641276259
 21
13.0852784118
  0
LINE
  5
560
100
AcDbEntity
  8
02___PRT_ALL_AXES
100
AcDbLine
 62
7
  6
CONTINUOUS
 10
4.8405055787
 20
13.1463512801
 11
5.8641276259
 21
13.1463512801
  0
LINE
  5
561
100
AcDbEntity
  8
0
100
AcDbLine
 62
7
  6
CONTINUOUS
 10
6.8483795944
 20
12.2939398291
 11
6.8483795944
 21
12.3963020338
  0
LINE
  5
562
100
AcDbEntity
  8
02___PRT_ALL_AXES
100
AcDbLine
 62
7
  6
CONTINUOUS
 10
4.8405055787
 20
13.4551365459
 11
5.8641276259
 21
13.4551365459
  0
LINE
  5
563
100
AcDbEntity
  8
02___PRT_ALL_AXES
100
AcDbLine
 62
7
  6
CONTINUOUS
 10
4.8405055787
 20
13.572683589
 11
5.8641276259
 21
13.572683589
  0
LINE
  5
564
100
AcDbEntity
  8
0
100
AcDbLine
 62
7
  6
CONTINUOUS
 10
3.8562536102
 20
6.9907412861
 11
3.8562536102
 21
4.4710562468
  0
LWPOLYLINE
  5
565
100
AcDbEntity
  8
0
100
AcDbPolyline
 62
7
  6
CONTINUOUS
 90
5
 70
0
 10
6.3877495512
 20
4.3371979791
 10
6.3756431262
 20
4.3349902133
 10
6.3637472379
 20
4.3281288195
 10
6.3531335051
 20
4.3167775517
 10
6.3445976861
 20
4.3014754471
  0
LWPOLYLINE
  5
566
100
AcDbEntity
  8
0
100
AcDbPolyline
 62
7
  6
CONTINUOUS
 90
7
 70
0
 10
6.3877495512
 20
4.3371979791
 10
6.3725728047
 20
4.3354507741
 10
6.3597380899
 20
4.3308676099
 10
6.3495270593
 20
4.3242272411
 10
6.3422336482
 20
4.3162738157
 10
6.3379527335
 20
4.3077547123
 10
6.3365685708
 20
4.2992988136
  0
LINE
  5
567
100
AcDbEntity
  8
0
100
AcDbLine
 62
7
  6
CONTINUOUS
 10
6.3365685708
 20
4.1324735696
 11
4.3680646338
 21
4.1324735696
  0
LINE
  5
568
100
AcDbEntity
  8
0
100
AcDbLine
 62
7
  6
CONTINUOUS
 10
4.0924740826
 20
4.2348357743
 11
4.1899188425
 21
4.2348357743
  0
LINE
  5
569
100
AcDbEntity
  8
0
100
AcDbLine
 62
7
  6
CONTINUOUS
 10
4.3680646338
 20
4.2348357743
 11
6.3365685708
 21
4.2348357743
  0
LINE
  5
56A
100
AcDbEntity
  8
0
100
AcDbLine
 62
7
  6
CONTINUOUS
 10
6.5147143621
 20
4.2348357743
 11
6.612159122
 21
4.2348357743
  0
LWPOLYLINE
  5
56B
100
AcDbEntity
  8
0
100
AcDbPolyline
 62
7
  6
CONTINUOUS
 90
7
 70
0
 10
4.3168836534
 20
4.3371979791
 10
4.3320603999
 20
4.3354507741
 10
4.3448951147
 20
4.3308676099
 10
4.3551061453
 20
4.3242272411
 10
4.3623995564
 20
4.3162738157
 10
4.3666804711
 20
4.3077547123
 10
4.3680646338
 20
4.2992988136
  0
LWPOLYLINE
  5
56C
100
AcDbEntity
  8
0
100
AcDbPolyline
 62
7
  6
CONTINUOUS
 90
5
 70
0
 10
4.3168836534
 20
4.3371979791
 10
4.3289900785
 20
4.3349902133
 10
4.3408859668
 20
4.3281288195
 10
4.3514996996
 20
4.3167775517
 10
4.3600355185
 20
4.3014754471
  0
LINE
  5
56D
100
AcDbEntity
  8
0
100
AcDbLine
 62
7
  6
CONTINUOUS
 10
4.3168836534
 20
4.3371979791
 11
5.1323166023
 21
4.3371979791
  0
LINE
  5
56E
100
AcDbEntity
  8
0
100
AcDbLine
 62
7
  6
CONTINUOUS
 10
5.5723166023
 20
4.3371979791
 11
6.3877495512
 21
4.3371979791
  0
LINE
  5
56F
100
AcDbEntity
  8
0
100
AcDbLine
 62
7
  6
CONTINUOUS
 10
5.5723166023
 20
4.4048357743
 11
5.1323166023
 21
4.4048357743
  0
LWPOLYLINE
  5
570
100
AcDbEntity
  8
0
100
AcDbPolyline
 62
7
  6
CONTINUOUS
 90
3
 70
0
 10
4.3600355185
 20
4.3014754471
 10
4.3658438289
 20
4.2828272851
 10
4.3680646338
 20
4.2613996481
  0
LINE
  5
571
100
AcDbEntity
  8
0
100
AcDbLine
 62
7
  6
CONTINUOUS
 10
4.3680646338
 20
4.1324735696
 11
4.3680646338
 21
4.2992988136
  0
LINE
  5
572
100
AcDbEntity
  8
AXIS
100
AcDbLine
 62
7
  6
CONTINUOUS
 10
4.7145213267
 20
6.026174357
 11
4.7145213267
 21
5.4356231759
  0
LINE
  5
573
100
AcDbEntity
  8
02___PRT_ALL_AXES
100
AcDbLine
 62
7
  6
CONTINUOUS
 10
4.8405055787
 20
5.298832583
 11
4.8405055787
 21
6.1629649499
  0
LINE
  5
574
100
AcDbEntity
  8
AXIS
100
AcDbLine
 62
7
  6
CONTINUOUS
 10
4.9901118779
 20
5.4356231759
 11
4.9901118779
 21
6.026174357
  0
LINE
  5
575
100
AcDbEntity
  8
0
100
AcDbLine
 62
7
  6
CONTINUOUS
 10
5.1323166023
 20
4.2348357743
 11
5.1323166023
 21
4.4048357743
  0
LINE
  5
576
100
AcDbEntity
  8
02___PRT_ALL_AXES
100
AcDbLine
 62
7
  6
CONTINUOUS
 10
4.8405055787
 20
5.4803491196
 11
4.9901118779
 21
5.4803491196
  0
LINE
  5
577
100
AcDbEntity
  8
02___PRT_ALL_AXES
100
AcDbLine
 62
7
  6
CONTINUOUS
 10
5.7145213267
 20
5.4803491196
 11
5.8641276259
 21
5.4803491196
  0
LINE
  5
578
100
AcDbEntity
  8
0
100
AcDbLine
 62
7
  6
CONTINUOUS
 10
5.5723166023
 20
4.2348357743
 11
5.5723166023
 21
4.4048357743
  0
LINE
  5
579
100
AcDbEntity
  8
02___PRT_ALL_AXES
100
AcDbLine
 62
7
  6
CONTINUOUS
 10
4.8405055787
 20
5.9814484133
 11
4.9901118779
 21
5.9814484133
  0
LINE
  5
57A
100
AcDbEntity
  8
02___PRT_ALL_AXES
100
AcDbLine
 62
7
  6
CONTINUOUS
 10
5.7145213267
 20
5.9814484133
 11
5.8641276259
 21
5.9814484133
  0
LINE
  5
57B
100
AcDbEntity
  8
AXIS
100
AcDbLine
 62
7
  6
CONTINUOUS
 10
5.7145213267
 20
6.026174357
 11
5.7145213267
 21
5.4356231759
  0
LINE
  5
57C
100
AcDbEntity
  8
02___PRT_ALL_AXES
100
AcDbLine
 62
7
  6
CONTINUOUS
 10
5.8641276259
 20
5.298832583
 11
5.8641276259
 21
6.1629649499
  0
LINE
  5
57D
100
AcDbEntity
  8
AXIS
100
AcDbLine
 62
7
  6
CONTINUOUS
 10
5.9901118779
 20
5.4356231759
 11
5.9901118779
 21
6.026174357
  0
LINE
  5
57E
100
AcDbEntity
  8
0
100
AcDbLine
 62
7
  6
CONTINUOUS
 10
6.3365685708
 20
4.1324735696
 11
6.3365685708
 21
4.2992988136
  0
LWPOLYLINE
  5
57F
100
AcDbEntity
  8
0
100
AcDbPolyline
 62
7
  6
CONTINUOUS
 90
3
 70
0
 10
6.3445976861
 20
4.3014754471
 10
6.3387893757
 20
4.2828272851
 10
6.3365685708
 20
4.2613996481
  0
LINE
  5
580
100
AcDbEntity
  8
0
100
AcDbLine
 62
7
  6
CONTINUOUS
 10
6.8483795944
 20
4.4710562468
 11
6.8483795944
 21
6.9907412861
  0
LINE
  5
581
100
AcDbEntity
  8
0
100
AcDbLine
 62
7
  6
CONTINUOUS
 10
6.612159122
 20
7.2269617586
 11
4.0924740826
 21
7.2269617586
  0
LINE
  5
582
100
AcDbEntity
  8
0
100
AcDbLine
 62
7
  6
CONTINUOUS
 10
9.8316125826
 20
4.1324735696
 11
9.8316125826
 21
4.2348357743
  0
LINE
  5
583
100
AcDbEntity
  8
0
100
AcDbLine
 62
7
  6
CONTINUOUS
 10
9.9265732125
 20
4.2348357743
 11
9.9265732125
 21
4.4048357743
  0
LINE
  5
584
100
AcDbEntity
  8
0
100
AcDbLine
 62
7
  6
CONTINUOUS
 10
11.9890928976
 20
4.1324735696
 11
9.8316125826
 21
4.1324735696
  0
LINE
  5
585
100
AcDbEntity
  8
0
100
AcDbLine
 62
7
  6
CONTINUOUS
 10
9.8316125826
 20
4.2348357743
 11
11.9890928976
 21
4.2348357743
  0
LINE
  5
586
100
AcDbEntity
  8
0
100
AcDbLine
 62
7
  6
CONTINUOUS
 10
12.0914551023
 20
4.2348357743
 11
12.193817307
 21
4.2348357743
  0
LINE
  5
587
100
AcDbEntity
  8
0
100
AcDbLine
 62
7
  6
CONTINUOUS
 10
10.3665732125
 20
4.2348357743
 11
10.3665732125
 21
4.4048357743
  0
LINE
  5
588
100
AcDbEntity
  8
0
100
AcDbLine
 62
7
  6
CONTINUOUS
 10
12.193817307
 20
4.3726310499
 11
12.240817307
 21
4.3726310499
  0
LINE
  5
589
100
AcDbEntity
  8
0
100
AcDbLine
 62
7
  6
CONTINUOUS
 10
9.926573922
 20
4.4048357743
 11
10.3665725031
 21
4.4048357743
  0
LINE
  5
58A
100
AcDbEntity
  8
0
100
AcDbLine
 62
7
  6
CONTINUOUS
 10
11.1864164417
 20
4.4048357743
 11
11.6264150228
 21
4.4048357743
  0
LINE
  5
58B
100
AcDbEntity
  8
0
100
AcDbLine
 62
7
  6
CONTINUOUS
 10
12.193817307
 20
4.4513712074
 11
12.240817307
 21
4.4513712074
  0
LINE
  5
58C
100
AcDbEntity
  8
AXIS
100
AcDbLine
 62
7
  6
CONTINUOUS
 10
12.240817307
 20
4.4572767192
 11
12.289817307
 21
4.4572767192
  0
LINE
  5
58D
100
AcDbEntity
  8
0
100
AcDbLine
 62
7
  6
CONTINUOUS
 10
12.0914551023
 20
4.4710562468
 11
12.193817307
 21
4.4710562468
  0
LINE
  5
58E
100
AcDbEntity
  8
AXIS_COSMETIC_THREADS
100
AcDbLine
 62
7
  6
CONTINUOUS
 10
12.4315495905
 20
4.5072767192
 11
12.3134393543
 21
4.5072767192
  0
LINE
  5
58F
100
AcDbEntity
  8
0
100
AcDbLine
 62
7
  6
CONTINUOUS
 10
12.289817307
 20
4.5104263255
 11
12.3134393543
 21
4.5104263255
  0
LINE
  5
590
100
AcDbEntity
  8
0
100
AcDbLine
 62
7
  6
CONTINUOUS
 10
12.0841806161
 20
4.2992988136
 11
12.0914551023
 21
4.2963994175
  0
LINE
  5
591
100
AcDbEntity
  8
AXIS_COSMETIC_THREADS
100
AcDbLine
 62
7
  6
CONTINUOUS
 10
12.0914551023
 20
4.6112767192
 11
12.0772188818
 21
4.6112767192
  0
LINE
  5
592
100
AcDbEntity
  8
AXIS
100
AcDbLine
 62
7
  6
CONTINUOUS
 10
12.4688672172
 20
4.6862727822
 11
12.4630132214
 21
4.6862727822
  0
LINE
  5
593
100
AcDbEntity
  8
AXIS
100
AcDbLine
 62
7
  6
CONTINUOUS
 10
12.4630132214
 20
4.7282806562
 11
12.4688672172
 21
4.7282806562
  0
LINE
  5
594
100
AcDbEntity
  8
0
100
AcDbLine
 62
7
  6
CONTINUOUS
 10
10.8158645511
 20
4.1324735696
 11
10.8158645511
 21
4.2348357743
  0
LINE
  5
595
100
AcDbEntity
  8
AXIS_COSMETIC_THREADS
100
AcDbLine
 62
7
  6
CONTINUOUS
 10
12.0914551023
 20
4.8032767192
 11
12.0772188818
 21
4.8032767192
  0
LINE
  5
596
100
AcDbEntity
  8
0
100
AcDbLine
 62
7
  6
CONTINUOUS
 10
12.289817307
 20
4.9041271129
 11
12.3134393543
 21
4.9041271129
  0
LINE
  5
597
100
AcDbEntity
  8
AXIS_COSMETIC_THREADS
100
AcDbLine
 62
7
  6
CONTINUOUS
 10
12.4315495905
 20
4.9072767192
 11
12.3134393543
 21
4.9072767192
  0
LINE
  5
598
100
AcDbEntity
  8
AXIS
100
AcDbLine
 62
7
  6
CONTINUOUS
 10
12.240817307
 20
4.9572767192
 11
12.289817307
 21
4.9572767192
  0
LINE
  5
599
100
AcDbEntity
  8
0
100
AcDbLine
 62
7
  6
CONTINUOUS
 10
12.2801873858
 20
5.1130326247
 11
12.882793685
 21
5.1130326247
  0
LINE
  5
59A
100
AcDbEntity
  8
0
100
AcDbLine
 62
7
  6
CONTINUOUS
 10
12.882793685
 20
5.1600326247
 11
12.2801873858
 21
5.1600326247
  0
LINE
  5
59B
100
AcDbEntity
  8
0
100
AcDbLine
 62
7
  6
CONTINUOUS
 10
11.1864157322
 20
4.2348357743
 11
11.1864157322
 21
4.4048357743
  0
LINE
  5
59C
100
AcDbEntity
  8
0
100
AcDbLine
 62
7
  6
CONTINUOUS
 10
11.6264157322
 20
4.2348357743
 11
11.6264157322
 21
4.4048357743
  0
LINE
  5
59D
100
AcDbEntity
  8
0
100
AcDbLine
 62
7
  6
CONTINUOUS
 10
11.9890928976
 20
4.1324735696
 11
11.9890928976
 21
4.2348357743
  0
LINE
  5
59E
100
AcDbEntity
  8
AXIS_COSMETIC_THREADS
100
AcDbLine
 62
7
  6
CONTINUOUS
 10
12.0772188818
 20
4.6112767192
 11
12.0772188818
 21
4.8032767192
  0
LINE
  5
59F
100
AcDbEntity
  8
AXIS_COSMETIC_THREADS
100
AcDbLine
 62
7
  6
CONTINUOUS
 10
12.0772188818
 20
6.6585208137
 11
12.0772188818
 21
6.8505208137
  0
LINE
  5
5A0
100
AcDbEntity
  8
0
100
AcDbLine
 62
7
  6
CONTINUOUS
 10
12.0914551023
 20
4.2348357743
 11
12.0914551023
 21
7.2269617586
  0
LINE
  5
5A1
100
AcDbEntity
  8
0
100
AcDbLine
 62
7
  6
CONTINUOUS
 10
12.193817307
 20
4.2348357743
 11
12.193817307
 21
7.2269617586
  0
LINE
  5
5A2
100
AcDbEntity
  8
0
100
AcDbLine
 62
7
  6
CONTINUOUS
 10
12.240817307
 20
7.089166483
 11
12.240817307
 21
6.3881349869
  0
LINE
  5
5A3
100
AcDbEntity
  8
0
100
AcDbLine
 62
7
  6
CONTINUOUS
 10
12.240817307
 20
4.3726310499
 11
12.240817307
 21
5.073662546
  0
LINE
  5
5A4
100
AcDbEntity
  8
0
100
AcDbLine
 62
7
  6
CONTINUOUS
 10
12.882793685
 20
6.3017649082
 11
12.2801873858
 21
6.3017649082
  0
LINE
  5
5A5
100
AcDbEntity
  8
AXIS
100
AcDbLine
 62
7
  6
CONTINUOUS
 10
12.289817307
 20
7.0045208137
 11
12.289817307
 21
6.5045208137
  0
LINE
  5
5A6
100
AcDbEntity
  8
AXIS
100
AcDbLine
 62
7
  6
CONTINUOUS
 10
12.289817307
 20
4.9572767192
 11
12.289817307
 21
4.4572767192
  0
LINE
  5
5A7
100
AcDbEntity
  8
AXIS_COSMETIC_THREADS
100
AcDbLine
 62
7
  6
CONTINUOUS
 10
12.3134393543
 20
4.5072767192
 11
12.3134393543
 21
4.9072767192
  0
LINE
  5
5A8
100
AcDbEntity
  8
AXIS_COSMETIC_THREADS
100
AcDbLine
 62
7
  6
CONTINUOUS
 10
12.3134393543
 20
6.5545208137
 11
12.3134393543
 21
6.9545208137
  0
LINE
  5
5A9
100
AcDbEntity
  8
0
100
AcDbLine
 62
7
  6
CONTINUOUS
 10
12.2801873858
 20
6.3487649082
 11
12.882793685
 21
6.3487649082
  0
LINE
  5
5AA
100
AcDbEntity
  8
AXIS_COSMETIC_THREADS
100
AcDbLine
 62
7
  6
CONTINUOUS
 10
12.4315495905
 20
4.5072767192
 11
12.4315495905
 21
4.9072767192
  0
LINE
  5
5AB
100
AcDbEntity
  8
AXIS_COSMETIC_THREADS
100
AcDbLine
 62
7
  6
CONTINUOUS
 10
12.4315495905
 20
6.5545208137
 11
12.4315495905
 21
6.9545208137
  0
LINE
  5
5AC
100
AcDbEntity
  8
AXIS
100
AcDbLine
 62
7
  6
CONTINUOUS
 10
12.4630132214
 20
6.8455247507
 11
12.4630132214
 21
6.8430677006
  0
LINE
  5
5AD
100
AcDbEntity
  8
AXIS
100
AcDbLine
 62
7
  6
CONTINUOUS
 10
12.4630132214
 20
6.7755247507
 11
12.4630132214
 21
6.7335168767
  0
LINE
  5
5AE
100
AcDbEntity
  8
AXIS
100
AcDbLine
 62
7
  6
CONTINUOUS
 10
12.4630132214
 20
6.6659739268
 11
12.4630132214
 21
6.6635168767
  0
LINE
  5
5AF
100
AcDbEntity
  8
AXIS
100
AcDbLine
 62
7
  6
CONTINUOUS
 10
12.4630132214
 20
4.7982806562
 11
12.4630132214
 21
4.7958236061
  0
LINE
  5
5B0
100
AcDbEntity
  8
AXIS
100
AcDbLine
 62
7
  6
CONTINUOUS
 10
12.4630132214
 20
4.7282806562
 11
12.4630132214
 21
4.6862727822
  0
LINE
  5
5B1
100
AcDbEntity
  8
AXIS
100
AcDbLine
 62
7
  6
CONTINUOUS
 10
12.4630132214
 20
4.6187298323
 11
12.4630132214
 21
4.6162727822
  0
LINE
  5
5B2
100
AcDbEntity
  8
AXIS
100
AcDbLine
 62
7
  6
CONTINUOUS
 10
12.4688672172
 20
6.7960023578
 11
12.4688672172
 21
6.7755247507
  0
LINE
  5
5B3
100
AcDbEntity
  8
AXIS
100
AcDbLine
 62
7
  6
CONTINUOUS
 10
12.4688672172
 20
6.7335168767
 11
12.4688672172
 21
6.7130392696
  0
LINE
  5
5B4
100
AcDbEntity
  8
AXIS
100
AcDbLine
 62
7
  6
CONTINUOUS
 10
12.4688672172
 20
4.7487582633
 11
12.4688672172
 21
4.7282806562
  0
LINE
  5
5B5
100
AcDbEntity
  8
AXIS
100
AcDbLine
 62
7
  6
CONTINUOUS
 10
12.4688672172
 20
4.6862727822
 11
12.4688672172
 21
4.6657951751
  0
LINE
  5
5B6
100
AcDbEntity
  8
AXIS
100
AcDbLine
 62
7
  6
CONTINUOUS
 10
12.240817307
 20
6.5045208137
 11
12.289817307
 21
6.5045208137
  0
LINE
  5
5B7
100
AcDbEntity
  8
AXIS_COSMETIC_THREADS
100
AcDbLine
 62
7
  6
CONTINUOUS
 10
12.4315495905
 20
6.5545208137
 11
12.3134393543
 21
6.5545208137
  0
LINE
  5
5B8
100
AcDbEntity
  8
0
100
AcDbLine
 62
7
  6
CONTINUOUS
 10
12.289817307
 20
6.55767042
 11
12.3134393543
 21
6.55767042
  0
LINE
  5
5B9
100
AcDbEntity
  8
AXIS_COSMETIC_THREADS
100
AcDbLine
 62
7
  6
CONTINUOUS
 10
12.0914551023
 20
6.6585208137
 11
12.0772188818
 21
6.6585208137
  0
LINE
  5
5BA
100
AcDbEntity
  8
AXIS
100
AcDbLine
 62
7
  6
CONTINUOUS
 10
12.4688672172
 20
6.7335168767
 11
12.4630132214
 21
6.7335168767
  0
LINE
  5
5BB
100
AcDbEntity
  8
AXIS
100
AcDbLine
 62
7
  6
CONTINUOUS
 10
12.4630132214
 20
6.7755247507
 11
12.4688672172
 21
6.7755247507
  0
LINE
  5
5BC
100
AcDbEntity
  8
AXIS_COSMETIC_THREADS
100
AcDbLine
 62
7
  6
CONTINUOUS
 10
12.0914551023
 20
6.8505208137
 11
12.0772188818
 21
6.8505208137
  0
LINE
  5
5BD
100
AcDbEntity
  8
0
100
AcDbLine
 62
7
  6
CONTINUOUS
 10
12.289817307
 20
6.9513712074
 11
12.3134393543
 21
6.9513712074
  0
LINE
  5
5BE
100
AcDbEntity
  8
02___PRT_ALL_AXES
100
AcDbLine
 62
7
  6
CONTINUOUS
 10
13.2194178004
 20
5.4803491196
 11
12.9106325346
 21
5.1715638538
  0
LINE
  5
5BF
100
AcDbEntity
  8
02___PRT_ALL_AXES
100
AcDbLine
 62
7
  6
CONTINUOUS
 10
12.9438665533
 20
5.1383298351
 11
13.2526518191
 21
5.4471151009
  0
LINE
  5
5C0
100
AcDbEntity
  8
AXIS_COSMETIC_THREADS
100
AcDbLine
 62
7
  6
CONTINUOUS
 10
12.4315495905
 20
6.9545208137
 11
12.3134393543
 21
6.9545208137
  0
LINE
  5
5C1
100
AcDbEntity
  8
0
100
AcDbLine
 62
7
  6
CONTINUOUS
 10
12.0914551023
 20
6.9907412861
 11
12.193817307
 21
6.9907412861
  0
LINE
  5
5C2
100
AcDbEntity
  8
AXIS
100
AcDbLine
 62
7
  6
CONTINUOUS
 10
12.240817307
 20
7.0045208137
 11
12.289817307
 21
7.0045208137
  0
LINE
  5
5C3
100
AcDbEntity
  8
0
100
AcDbLine
 62
7
  6
CONTINUOUS
 10
12.240817307
 20
7.0104263255
 11
12.193817307
 21
7.0104263255
  0
LINE
  5
5C4
100
AcDbEntity
  8
0
100
AcDbLine
 62
7
  6
CONTINUOUS
 10
12.240817307
 20
7.089166483
 11
12.193817307
 21
7.089166483
  0
LINE
  5
5C5
100
AcDbEntity
  8
02___PRT_ALL_AXES
100
AcDbLine
 62
7
  6
CONTINUOUS
 10
13.2194178004
 20
5.9814484133
 11
12.9106325346
 21
6.2902336791
  0
LINE
  5
5C6
100
AcDbEntity
  8
02___PRT_ALL_AXES
100
AcDbLine
 62
7
  6
CONTINUOUS
 10
12.9438665533
 20
6.3234676978
 11
13.2526518191
 21
6.014682432
  0
LINE
  5
5C7
100
AcDbEntity
  8
0
100
AcDbLine
 62
7
  6
CONTINUOUS
 10
12.0914551023
 20
7.2269617586
 11
12.193817307
 21
7.2269617586
  0
LINE
  5
5C8
100
AcDbEntity
  8
0
100
AcDbLine
 62
7
  6
CONTINUOUS
 10
14.0400502541
 20
4.4710562468
 11
14.0400502541
 21
6.9907412861
  0
LWPOLYLINE
  5
5C9
100
AcDbEntity
  8
0
100
AcDbPolyline
 62
7
  6
CONTINUOUS
 90
7
 70
0
 10
16.5715461951
 20
4.3371979791
 10
16.55943977
 20
4.3349902133
 10
16.5475438817
 20
4.3281288195
 10
16.5369301489
 20
4.3167775517
 10
16.52839433
 20
4.3014754471
 10
16.5225860196
 20
4.2828272851
 10
16.5203652147
 20
4.2613996481
  0
LINE
  5
5CA
100
AcDbEntity
  8
0
100
AcDbLine
 62
7
  6
CONTINUOUS
 10
16.5203652147
 20
4.1324735696
 11
14.5518612777
 21
4.1324735696
  0
LINE
  5
5CB
100
AcDbEntity
  8
0
100
AcDbLine
 62
7
  6
CONTINUOUS
 10
16.7959557659
 20
4.2348357743
 11
16.698511006
 21
4.2348357743
  0
LINE
  5
5CC
100
AcDbEntity
  8
0
100
AcDbLine
 62
7
  6
CONTINUOUS
 10
14.3737154864
 20
4.2348357743
 11
14.2762707265
 21
4.2348357743
  0
LWPOLYLINE
  5
5CD
100
AcDbEntity
  8
0
100
AcDbPolyline
 62
7
  6
CONTINUOUS
 90
7
 70
0
 10
14.5006802973
 20
4.3371979791
 10
14.5127867223
 20
4.3349902133
 10
14.5246826106
 20
4.3281288195
 10
14.5352963434
 20
4.3167775517
 10
14.5438321624
 20
4.3014754471
 10
14.5496404728
 20
4.2828272851
 10
14.5518612777
 20
4.2613996481
  0
LINE
  5
5CE
100
AcDbEntity
  8
0
100
AcDbLine
 62
7
  6
CONTINUOUS
 10
14.5006802973
 20
4.3371979791
 11
16.5715461951
 21
4.3371979791
  0
LINE
  5
5CF
100
AcDbEntity
  8
0
100
AcDbLine
 62
7
  6
CONTINUOUS
 10
15.9691841123
 20
4.3726310499
 11
15.10304238
 21
4.3726310499
  0
LINE
  5
5D0
100
AcDbEntity
  8
AXIS
100
AcDbLine
 62
7
  6
CONTINUOUS
 10
15.6246601331
 20
4.6862727822
 11
15.5775947903
 21
4.6862727822
  0
LINE
  5
5D1
100
AcDbEntity
  8
AXIS
100
AcDbLine
 62
7
  6
CONTINUOUS
 10
15.494631702
 20
4.6862727822
 11
15.4475663593
 21
4.6862727822
  0
LINE
  5
5D2
100
AcDbEntity
  8
0
100
AcDbLine
 62
7
  6
CONTINUOUS
 10
14.5518612777
 20
4.2613996481
 11
14.5518612777
 21
4.1324735696
  0
LINE
  5
5D3
100
AcDbEntity
  8
AXIS
100
AcDbLine
 62
7
  6
CONTINUOUS
 10
15.4475663593
 20
4.7282806562
 11
15.494631702
 21
4.7282806562
  0
LINE
  5
5D4
100
AcDbEntity
  8
AXIS
100
AcDbLine
 62
7
  6
CONTINUOUS
 10
15.5775947903
 20
4.7282806562
 11
15.6246601331
 21
4.7282806562
  0
LINE
  5
5D5
100
AcDbEntity
  8
AXIS
100
AcDbLine
 62
7
  6
CONTINUOUS
 10
14.8983179706
 20
5.4356231759
 11
14.8983179706
 21
6.026174357
  0
LINE
  5
5D6
100
AcDbEntity
  8
0
100
AcDbLine
 62
7
  6
CONTINUOUS
 10
16.0479242698
 20
5.073662546
 11
15.0243022226
 21
5.073662546
  0
LINE
  5
5D7
100
AcDbEntity
  8
02___PRT_ALL_AXES
100
AcDbLine
 62
7
  6
CONTINUOUS
 10
16.0479242698
 20
5.1130326247
 11
15.0243022226
 21
5.1130326247
  0
LINE
  5
5D8
100
AcDbEntity
  8
0
100
AcDbLine
 62
7
  6
CONTINUOUS
 10
15.0243022226
 20
4.4513712074
 11
15.0243022226
 21
5.1130326247
  0
LINE
  5
5D9
100
AcDbEntity
  8
02___PRT_ALL_AXES
100
AcDbLine
 62
7
  6
CONTINUOUS
 10
15.0243022226
 20
5.1130326247
 11
15.0243022226
 21
6.3487649082
  0
LINE
  5
5DA
100
AcDbEntity
  8
0
100
AcDbLine
 62
7
  6
CONTINUOUS
 10
15.0243022226
 20
6.3487649082
 11
15.0243022226
 21
7.0104263255
  0
LINE
  5
5DB
100
AcDbEntity
  8
02___PRT_ALL_AXES
100
AcDbLine
 62
7
  6
CONTINUOUS
 10
16.0479242698
 20
5.1383298351
 11
15.0243022226
 21
5.1383298351
  0
LINE
  5
5DC
100
AcDbEntity
  8
02___PRT_ALL_AXES
100
AcDbLine
 62
7
  6
CONTINUOUS
 10
16.0479242698
 20
5.4471151009
 11
15.0243022226
 21
5.4471151009
  0
LINE
  5
5DD
100
AcDbEntity
  8
AXIS
100
AcDbLine
 62
7
  6
CONTINUOUS
 10
15.5151093092
 20
4.6187298323
 11
15.5151093092
 21
4.6657951751
  0
LINE
  5
5DE
100
AcDbEntity
  8
AXIS
100
AcDbLine
 62
7
  6
CONTINUOUS
 10
15.5151093092
 20
4.7487582633
 11
15.5151093092
 21
4.7958236061
  0
LINE
  5
5DF
100
AcDbEntity
  8
AXIS
100
AcDbLine
 62
7
  6
CONTINUOUS
 10
15.5151093092
 20
6.6659739268
 11
15.5151093092
 21
6.7130392696
  0
LINE
  5
5E0
100
AcDbEntity
  8
AXIS
100
AcDbLine
 62
7
  6
CONTINUOUS
 10
15.5151093092
 20
6.7960023578
 11
15.5151093092
 21
6.8430677006
  0
LINE
  5
5E1
100
AcDbEntity
  8
AXIS
100
AcDbLine
 62
7
  6
CONTINUOUS
 10
15.5571171832
 20
6.8430677006
 11
15.5571171832
 21
6.7960023578
  0
LINE
  5
5E2
100
AcDbEntity
  8
AXIS
100
AcDbLine
 62
7
  6
CONTINUOUS
 10
15.5571171832
 20
6.7130392696
 11
15.5571171832
 21
6.6659739268
  0
LINE
  5
5E3
100
AcDbEntity
  8
AXIS
100
AcDbLine
 62
7
  6
CONTINUOUS
 10
15.5571171832
 20
4.7958236061
 11
15.5571171832
 21
4.7487582633
  0
LINE
  5
5E4
100
AcDbEntity
  8
AXIS
100
AcDbLine
 62
7
  6
CONTINUOUS
 10
15.5571171832
 20
4.6657951751
 11
15.5571171832
 21
4.6187298323
  0
LINE
  5
5E5
100
AcDbEntity
  8
02___PRT_ALL_AXES
100
AcDbLine
 62
7
  6
CONTINUOUS
 10
16.0479242698
 20
6.014682432
 11
15.0243022226
 21
6.014682432
  0
LINE
  5
5E6
100
AcDbEntity
  8
0
100
AcDbLine
 62
7
  6
CONTINUOUS
 10
16.0479242698
 20
7.0104263255
 11
16.0479242698
 21
6.3487649082
  0
LINE
  5
5E7
100
AcDbEntity
  8
0
100
AcDbLine
 62
7
  6
CONTINUOUS
 10
16.0479242698
 20
4.4513712074
 11
16.0479242698
 21
5.1130326247
  0
LINE
  5
5E8
100
AcDbEntity
  8
02___PRT_ALL_AXES
100
AcDbLine
 62
7
  6
CONTINUOUS
 10
16.0479242698
 20
5.1130326247
 11
16.0479242698
 21
6.3487649082
  0
LINE
  5
5E9
100
AcDbEntity
  8
AXIS
100
AcDbLine
 62
7
  6
CONTINUOUS
 10
16.1739085218
 20
6.026174357
 11
16.1739085218
 21
5.4356231759
  0
LINE
  5
5EA
100
AcDbEntity
  8
02___PRT_ALL_AXES
100
AcDbLine
 62
7
  6
CONTINUOUS
 10
16.0479242698
 20
6.3234676978
 11
15.0243022226
 21
6.3234676978
  0
LINE
  5
5EB
100
AcDbEntity
  8
02___PRT_ALL_AXES
100
AcDbLine
 62
7
  6
CONTINUOUS
 10
16.0479242698
 20
6.3487649082
 11
15.0243022226
 21
6.3487649082
  0
LINE
  5
5EC
100
AcDbEntity
  8
0
100
AcDbLine
 62
7
  6
CONTINUOUS
 10
15.0243022226
 20
6.3881349869
 11
16.0479242698
 21
6.3881349869
  0
LINE
  5
5ED
100
AcDbEntity
  8
0
100
AcDbLine
 62
7
  6
CONTINUOUS
 10
16.5203652147
 20
4.1324735696
 11
16.5203652147
 21
4.2613996481
  0
LINE
  5
5EE
100
AcDbEntity
  8
AXIS
100
AcDbLine
 62
7
  6
CONTINUOUS
 10
15.6246601331
 20
6.7335168767
 11
15.5775947903
 21
6.7335168767
  0
LINE
  5
5EF
100
AcDbEntity
  8
AXIS
100
AcDbLine
 62
7
  6
CONTINUOUS
 10
15.494631702
 20
6.7335168767
 11
15.4475663593
 21
6.7335168767
  0
LINE
  5
5F0
100
AcDbEntity
  8
AXIS
100
AcDbLine
 62
7
  6
CONTINUOUS
 10
15.4475663593
 20
6.7755247507
 11
15.494631702
 21
6.7755247507
  0
LINE
  5
5F1
100
AcDbEntity
  8
AXIS
100
AcDbLine
 62
7
  6
CONTINUOUS
 10
15.5775947903
 20
6.7755247507
 11
15.6246601331
 21
6.7755247507
  0
LINE
  5
5F2
100
AcDbEntity
  8
0
100
AcDbLine
 62
7
  6
CONTINUOUS
 10
15.9691841123
 20
7.089166483
 11
15.10304238
 21
7.089166483
  0
LINE
  5
5F3
100
AcDbEntity
  8
0
100
AcDbLine
 62
7
  6
CONTINUOUS
 10
17.0321762383
 20
6.9907412861
 11
17.0321762383
 21
4.4710562468
  0
LINE
  5
5F4
100
AcDbEntity
  8
0
100
AcDbLine
 62
7
  6
CONTINUOUS
 10
14.2762707265
 20
7.2269617586
 11
16.7959557659
 21
7.2269617586
  0
CIRCLE
  5
5F5
100
AcDbEntity
  8
0
100
AcDbCircle
 62
7
  6
CONTINUOUS
 10
15.2229827477
 20
1.1139932523
 40
0.252091
  0
CIRCLE
  5
5F6
100
AcDbEntity
  8
0
100
AcDbCircle
 62
7
  6
CONTINUOUS
 10
15.2229827477
 20
1.1139932523
 40
0.182698
  0
CIRCLE
  5
5F7
100
AcDbEntity
  8
0
100
AcDbCircle
 62
7
  6
CONTINUOUS
 10
14.8013422688
 20
1.8652439144
 40
0.0638444824
  0
ARC
  5
5F8
100
AcDbEntity
  8
AXIS
100
AcDbCircle
 62
7
  6
CONTINUOUS
 10
10.8660752288
 20
12.1457193566
 40
0.5276850394
100
AcDbArc
 50
67.7273811376
 51
80.0691893185
  0
ARC
  5
5F9
100
AcDbEntity
  8
AXIS
100
AcDbCircle
 62
7
  6
CONTINUOUS
 10
10.8660752288
 20
12.1457193566
 40
0.5276850394
100
AcDbArc
 50
99.9308106815
 51
112.2726188624
  0
ARC
  5
5FA
100
AcDbEntity
  8
AXIS
100
AcDbCircle
 62
7
  6
CONTINUOUS
 10
12.9133193233
 20
12.1457193566
 40
0.5276850394
100
AcDbArc
 50
67.7273811376
 51
80.0691893185
  0
ARC
  5
5FB
100
AcDbEntity
  8
AXIS
100
AcDbCircle
 62
7
  6
CONTINUOUS
 10
12.9133193233
 20
12.1457193566
 40
0.5276850394
100
AcDbArc
 50
99.9308106815
 51
112.2726188624
  0
ARC
  5
5FC
100
AcDbEntity
  8
AXIS
100
AcDbCircle
 62
7
  6
CONTINUOUS
 10
10.8660752288
 20
12.1457193566
 40
0.5272668541
100
AcDbArc
 50
80.3321866276
 51
85.4877193842
  0
ARC
  5
5FD
100
AcDbEntity
  8
AXIS
100
AcDbCircle
 62
7
  6
CONTINUOUS
 10
10.8660752288
 20
12.1457193566
 40
0.5272668541
100
AcDbArc
 50
94.5122806158
 51
99.6678133724
  0
ARC
  5
5FE
100
AcDbEntity
  8
AXIS
100
AcDbCircle
 62
7
  6
CONTINUOUS
 10
12.9133193233
 20
12.1457193566
 40
0.5272668541
100
AcDbArc
 50
80.3321866276
 51
85.4877193842
  0
ARC
  5
5FF
100
AcDbEntity
  8
AXIS
100
AcDbCircle
 62
7
  6
CONTINUOUS
 10
12.9133193233
 20
12.1457193566
 40
0.5272668541
100
AcDbArc
 50
94.5122806158
 51
99.6678133724
  0
ARC
  5
600
100
AcDbEntity
  8
02___PRT_ALL_AXES
100
AcDbCircle
 62
7
  6
CONTINUOUS
 10
11.889697276
 20
13.1713528803
 40
0.4013307087
100
AcDbArc
 50
45.0
 51
135.0
  0
ARC
  5
601
100
AcDbEntity
  8
02___PRT_ALL_AXES
100
AcDbCircle
 62
7
  6
CONTINUOUS
 10
11.889697276
 20
13.1713528803
 40
0.3543307087
100
AcDbArc
 50
45.0
 51
135.0
  0
ARC
  5
602
100
AcDbEntity
  8
0
100
AcDbCircle
 62
7
  6
CONTINUOUS
 10
13.2833980634
 20
12.1915776244
 40
0.2047244094
100
AcDbArc
 50
0.0
 51
59.8622591646
  0
ARC
  5
603
100
AcDbEntity
  8
0
100
AcDbCircle
 62
7
  6
CONTINUOUS
 10
13.2833980634
 20
12.1915776244
 40
0.1023622047
100
AcDbArc
 50
0.0
 51
90.0
  0
ARC
  5
604
100
AcDbEntity
  8
02___PRT_ALL_AXES
100
AcDbCircle
 62
7
  6
CONTINUOUS
 10
11.358201213
 20
13.0852784118
 40
0.0863700787
100
AcDbArc
 50
135.0
 51
180.0
  0
ARC
  5
605
100
AcDbEntity
  8
02___PRT_ALL_AXES
100
AcDbCircle
 62
7
  6
CONTINUOUS
 10
12.421193339
 20
13.0852784118
 40
0.0863700787
100
AcDbArc
 50
0.0
 51
45.0
  0
ARC
  5
606
100
AcDbEntity
  8
0
100
AcDbCircle
 62
7
  6
CONTINUOUS
 10
12.5469334965
 20
12.4826721125
 40
0.0863700787
100
AcDbArc
 50
180.0
 51
270.0
  0
ARC
  5
607
100
AcDbEntity
  8
0
100
AcDbCircle
 62
7
  6
CONTINUOUS
 10
11.2324610555
 20
12.4826721125
 40
0.0863700787
100
AcDbArc
 50
270.0
 51
360.0
  0
ARC
  5
608
100
AcDbEntity
  8
0
100
AcDbCircle
 62
7
  6
CONTINUOUS
 10
11.2324610555
 20
12.4826721125
 40
0.0393700787
100
AcDbArc
 50
270.0
 51
360.0
  0
ARC
  5
609
100
AcDbEntity
  8
02___PRT_ALL_AXES
100
AcDbCircle
 62
7
  6
CONTINUOUS
 10
12.421193339
 20
13.0852784118
 40
0.0393700787
100
AcDbArc
 50
0.0
 51
45.0
  0
ARC
  5
60A
100
AcDbEntity
  8
02___PRT_ALL_AXES
100
AcDbCircle
 62
7
  6
CONTINUOUS
 10
11.358201213
 20
13.0852784118
 40
0.0393700787
100
AcDbArc
 50
135.0
 51
180.0
  0
ARC
  5
60B
100
AcDbEntity
  8
0
100
AcDbCircle
 62
7
  6
CONTINUOUS
 10
12.5469334965
 20
12.4826721125
 40
0.0393700787
100
AcDbArc
 50
180.0
 51
270.0
  0
ARC
  5
60C
100
AcDbEntity
  8
0
100
AcDbCircle
 62
7
  6
CONTINUOUS
 10
17.6527509653
 20
11.0183492779
 40
0.9842519685
100
AcDbArc
 50
180.0
 51
360.0
  0
ARC
  5
60D
100
AcDbEntity
  8
AXIS_COSMETIC_THREADS
100
AcDbCircle
 62
7
  6
CONTINUOUS
 10
17.6527509653
 20
12.1457193566
 40
0.5276850394
100
AcDbArc
 50
99.9308106815
 51
112.2726188624
  0
ARC
  5
60E
100
AcDbEntity
  8
AXIS_COSMETIC_THREADS
100
AcDbCircle
 62
7
  6
CONTINUOUS
 10
17.6527509653
 20
12.1457193566
 40
0.5276850394
100
AcDbArc
 50
67.7273811376
 51
80.0691893185
  0
ARC
  5
60F
100
AcDbEntity
  8
AXIS
100
AcDbCircle
 62
7
  6
CONTINUOUS
 10
17.6527509653
 20
12.1457193566
 40
0.5272668541
100
AcDbArc
 50
80.3321866276
 51
85.4877193842
  0
ARC
  5
610
100
AcDbEntity
  8
AXIS
100
AcDbCircle
 62
7
  6
CONTINUOUS
 10
17.6527509653
 20
12.1457193566
 40
0.5272668541
100
AcDbArc
 50
94.5122806158
 51
99.6678133724
  0
CIRCLE
  5
611
100
AcDbEntity
  8
AXIS
100
AcDbCircle
 62
7
  6
CONTINUOUS
 10
17.6527509653
 20
10.3490579393
 40
0.1720472441
  0
CIRCLE
  5
612
100
AcDbEntity
  8
AXIS
100
AcDbCircle
 62
7
  6
CONTINUOUS
 10
17.6527509653
 20
11.608900459
 40
0.1720472441
  0
CIRCLE
  5
613
100
AcDbEntity
  8
0
100
AcDbCircle
 62
7
  6
CONTINUOUS
 10
17.6527509653
 20
11.608900459
 40
0.1715
  0
CIRCLE
  5
614
100
AcDbEntity
  8
0
100
AcDbCircle
 62
7
  6
CONTINUOUS
 10
17.6527509653
 20
10.3490579393
 40
0.1715
  0
CIRCLE
  5
615
100
AcDbEntity
  8
0
100
AcDbCircle
 62
7
  6
CONTINUOUS
 10
17.6527509653
 20
11.608900459
 40
0.125
  0
CIRCLE
  5
616
100
AcDbEntity
  8
0
100
AcDbCircle
 62
7
  6
CONTINUOUS
 10
17.6527509653
 20
10.3490579393
 40
0.125
  0
ARC
  5
617
100
AcDbEntity
  8
0
100
AcDbCircle
 62
7
  6
CONTINUOUS
 10
5.3523166023
 20
11.0183492779
 40
0.9842519685
100
AcDbArc
 50
180.0
 51
360.0
  0
ARC
  5
618
100
AcDbEntity
  8
AXIS_COSMETIC_THREADS
100
AcDbCircle
 62
7
  6
CONTINUOUS
 10
5.3523166023
 20
12.1457193566
 40
0.5276850394
100
AcDbArc
 50
67.7273811376
 51
80.0691893185
  0
ARC
  5
619
100
AcDbEntity
  8
AXIS_COSMETIC_THREADS
100
AcDbCircle
 62
7
  6
CONTINUOUS
 10
5.3523166023
 20
12.1457193566
 40
0.5276850394
100
AcDbArc
 50
99.9308106815
 51
112.2726188624
  0
ARC
  5
61A
100
AcDbEntity
  8
AXIS
100
AcDbCircle
 62
7
  6
CONTINUOUS
 10
5.3523166023
 20
12.1457193566
 40
0.5272668541
100
AcDbArc
 50
94.5122806158
 51
99.6678133724
  0
ARC
  5
61B
100
AcDbEntity
  8
AXIS
100
AcDbCircle
 62
7
  6
CONTINUOUS
 10
5.3523166023
 20
12.1457193566
 40
0.5272668541
100
AcDbArc
 50
80.3321866276
 51
85.4877193842
  0
CIRCLE
  5
61C
100
AcDbEntity
  8
0
100
AcDbCircle
 62
7
  6
CONTINUOUS
 10
5.3523166023
 20
11.608900459
 40
0.22
  0
CIRCLE
  5
61D
100
AcDbEntity
  8
0
100
AcDbCircle
 62
7
  6
CONTINUOUS
 10
5.3523166023
 20
10.3490579393
 40
0.22
  0
CIRCLE
  5
61E
100
AcDbEntity
  8
0
100
AcDbCircle
 62
7
  6
CONTINUOUS
 10
5.3523166023
 20
11.608900459
 40
0.125
  0
CIRCLE
  5
61F
100
AcDbEntity
  8
0
100
AcDbCircle
 62
7
  6
CONTINUOUS
 10
5.3523166023
 20
10.3490579393
 40
0.125
  0
ARC
  5
620
100
AcDbEntity
  8
0
100
AcDbCircle
 62
7
  6
CONTINUOUS
 10
4.0924740826
 20
4.4710562468
 40
0.2362204724
100
AcDbArc
 50
180.0
 51
270.0
  0
ARC
  5
621
100
AcDbEntity
  8
AXIS
100
AcDbCircle
 62
7
  6
CONTINUOUS
 10
4.8523166023
 20
5.4356231759
 40
0.1377952756
100
AcDbArc
 50
180.0
 51
360.0
  0
CIRCLE
  5
622
100
AcDbEntity
  8
DEFAULT_2
100
AcDbCircle
 62
7
  6
HIDDEN
 10
4.0924740826
 20
4.7072767192
 40
0.0984251969
  0
CIRCLE
  5
623
100
AcDbEntity
  8
AXIS
100
AcDbCircle
 62
7
  6
CONTINUOUS
 10
4.0924740826
 20
4.7072767192
 40
0.0826771654
  0
ARC
  5
624
100
AcDbEntity
  8
0
100
AcDbCircle
 62
7
  6
CONTINUOUS
 10
4.1899188425
 20
4.3135759318
 40
0.0787401575
100
AcDbArc
 50
270.0
 51
347.7533102727
  0
ARC
  5
625
100
AcDbEntity
  8
0
100
AcDbCircle
 62
7
  6
CONTINUOUS
 10
4.3168835315
 20
4.2860168767
 40
0.0511811024
100
AcDbArc
 50
89.999863438
 51
167.7533102727
  0
ARC
  5
626
100
AcDbEntity
  8
0
100
AcDbCircle
 62
7
  6
CONTINUOUS
 10
4.0924740826
 20
6.9907412861
 40
0.2362204724
100
AcDbArc
 50
90.0
 51
180.0
  0
ARC
  5
627
100
AcDbEntity
  8
AXIS
100
AcDbCircle
 62
7
  6
CONTINUOUS
 10
4.8523166023
 20
6.026174357
 40
0.1377952756
100
AcDbArc
 50
0.0
 51
180.0
  0
CIRCLE
  5
628
100
AcDbEntity
  8
DEFAULT_2
100
AcDbCircle
 62
7
  6
HIDDEN
 10
4.3286945551
 20
5.7308987665
 40
0.0984251969
  0
CIRCLE
  5
629
100
AcDbEntity
  8
DEFAULT_2
100
AcDbCircle
 62
7
  6
HIDDEN
 10
4.0924740826
 20
6.7545208137
 40
0.0984251969
  0
CIRCLE
  5
62A
100
AcDbEntity
  8
AXIS
100
AcDbCircle
 62
7
  6
CONTINUOUS
 10
4.0924740826
 20
6.7545208137
 40
0.0826771654
  0
CIRCLE
  5
62B
100
AcDbEntity
  8
AXIS
100
AcDbCircle
 62
7
  6
CONTINUOUS
 10
4.3286945551
 20
5.7308987665
 40
0.0826771654
  0
ARC
  5
62C
100
AcDbEntity
  8
0
100
AcDbCircle
 62
7
  6
CONTINUOUS
 10
6.612159122
 20
4.4710562468
 40
0.2362204724
100
AcDbArc
 50
270.0
 51
360.0
  0
ARC
  5
62D
100
AcDbEntity
  8
AXIS
100
AcDbCircle
 62
7
  6
CONTINUOUS
 10
5.8523166023
 20
5.4356231759
 40
0.1377952756
100
AcDbArc
 50
180.0
 51
360.0
  0
CIRCLE
  5
62E
100
AcDbEntity
  8
DEFAULT_2
100
AcDbCircle
 62
7
  6
HIDDEN
 10
6.612159122
 20
4.7072767192
 40
0.0984251969
  0
CIRCLE
  5
62F
100
AcDbEntity
  8
DEFAULT_2
100
AcDbCircle
 62
7
  6
HIDDEN
 10
5.3523166023
 20
4.7072767192
 40
0.0984251969
  0
CIRCLE
  5
630
100
AcDbEntity
  8
AXIS_COSMETIC_THREADS
100
AcDbCircle
 62
7
  6
CONTINUOUS
 10
5.3523166023
 20
4.7072767192
 40
0.096
  0
CIRCLE
  5
631
100
AcDbEntity
  8
AXIS
100
AcDbCircle
 62
7
  6
CONTINUOUS
 10
6.612159122
 20
4.7072767192
 40
0.0826771654
  0
ARC
  5
632
100
AcDbEntity
  8
0
100
AcDbCircle
 62
7
  6
CONTINUOUS
 10
6.5147143621
 20
4.3135759318
 40
0.0787401575
100
AcDbArc
 50
192.2466897273
 51
270.0
  0
ARC
  5
633
100
AcDbEntity
  8
0
100
AcDbCircle
 62
7
  6
CONTINUOUS
 10
6.3877496732
 20
4.2860168767
 40
0.0511811024
100
AcDbArc
 50
12.2466897273
 51
90.000136558
  0
ARC
  5
634
100
AcDbEntity
  8
0
100
AcDbCircle
 62
7
  6
CONTINUOUS
 10
6.612159122
 20
6.9907412861
 40
0.2362204724
100
AcDbArc
 50
0.0
 51
90.0
  0
ARC
  5
635
100
AcDbEntity
  8
AXIS
100
AcDbCircle
 62
7
  6
CONTINUOUS
 10
5.8523166023
 20
6.026174357
 40
0.1377952756
100
AcDbArc
 50
0.0
 51
180.0
  0
CIRCLE
  5
636
100
AcDbEntity
  8
DEFAULT_2
100
AcDbCircle
 62
7
  6
HIDDEN
 10
6.3759386496
 20
5.7308987665
 40
0.0984251969
  0
CIRCLE
  5
637
100
AcDbEntity
  8
DEFAULT_2
100
AcDbCircle
 62
7
  6
HIDDEN
 10
6.612159122
 20
6.7545208137
 40
0.0984251969
  0
CIRCLE
  5
638
100
AcDbEntity
  8
DEFAULT_2
100
AcDbCircle
 62
7
  6
HIDDEN
 10
5.3523166023
 20
6.7545208137
 40
0.0984251969
  0
CIRCLE
  5
639
100
AcDbEntity
  8
AXIS_COSMETIC_THREADS
100
AcDbCircle
 62
7
  6
CONTINUOUS
 10
5.3523166023
 20
6.7545208137
 40
0.096
  0
CIRCLE
  5
63A
100
AcDbEntity
  8
AXIS
100
AcDbCircle
 62
7
  6
CONTINUOUS
 10
6.612159122
 20
6.7545208137
 40
0.0826771654
  0
CIRCLE
  5
63B
100
AcDbEntity
  8
AXIS
100
AcDbCircle
 62
7
  6
CONTINUOUS
 10
6.3759386496
 20
5.7308987665
 40
0.0826771654
  0
ARC
  5
63C
100
AcDbEntity
  8
AXIS
100
AcDbCircle
 62
7
  6
CONTINUOUS
 10
11.9432346299
 20
6.7545208137
 40
0.5276850394
100
AcDbArc
 50
337.7273811376
 51
350.0691893185
  0
ARC
  5
63D
100
AcDbEntity
  8
AXIS
100
AcDbCircle
 62
7
  6
CONTINUOUS
 10
11.9432346299
 20
6.7545208137
 40
0.5276850394
100
AcDbArc
 50
9.9308106815
 51
22.2726188624
  0
ARC
  5
63E
100
AcDbEntity
  8
AXIS
100
AcDbCircle
 62
7
  6
CONTINUOUS
 10
11.9432346299
 20
4.7072767192
 40
0.5276850394
100
AcDbArc
 50
337.7273811376
 51
350.0691893185
  0
ARC
  5
63F
100
AcDbEntity
  8
AXIS
100
AcDbCircle
 62
7
  6
CONTINUOUS
 10
11.9432346299
 20
4.7072767192
 40
0.5276850394
100
AcDbArc
 50
9.9308106815
 51
22.2726188624
  0
ARC
  5
640
100
AcDbEntity
  8
AXIS
100
AcDbCircle
 62
7
  6
CONTINUOUS
 10
11.9432346299
 20
6.7545208137
 40
0.5272668541
100
AcDbArc
 50
350.3321866276
 51
355.4877193842
  0
ARC
  5
641
100
AcDbEntity
  8
AXIS
100
AcDbCircle
 62
7
  6
CONTINUOUS
 10
11.9432346299
 20
6.7545208137
 40
0.5272668541
100
AcDbArc
 50
4.5122806158
 51
9.6678133724
  0
ARC
  5
642
100
AcDbEntity
  8
AXIS
100
AcDbCircle
 62
7
  6
CONTINUOUS
 10
11.9432346299
 20
4.7072767192
 40
0.5272668541
100
AcDbArc
 50
350.3321866276
 51
355.4877193842
  0
ARC
  5
643
100
AcDbEntity
  8
AXIS
100
AcDbCircle
 62
7
  6
CONTINUOUS
 10
11.9432346299
 20
4.7072767192
 40
0.5272668541
100
AcDbArc
 50
4.5122806158
 51
9.6678133724
  0
ARC
  5
644
100
AcDbEntity
  8
02___PRT_ALL_AXES
100
AcDbCircle
 62
7
  6
CONTINUOUS
 10
12.9688681535
 20
5.7308987665
 40
0.4013307087
100
AcDbArc
 50
315.0
 51
45.0
  0
ARC
  5
645
100
AcDbEntity
  8
02___PRT_ALL_AXES
100
AcDbCircle
 62
7
  6
CONTINUOUS
 10
12.9688681535
 20
5.7308987665
 40
0.3543307087
100
AcDbArc
 50
315.0
 51
45.0
  0
ARC
  5
646
100
AcDbEntity
  8
0
100
AcDbCircle
 62
7
  6
CONTINUOUS
 10
11.9890928976
 20
4.3371979791
 40
0.2047244094
100
AcDbArc
 50
270.0
 51
329.8622591646
  0
ARC
  5
647
100
AcDbEntity
  8
0
100
AcDbCircle
 62
7
  6
CONTINUOUS
 10
11.9890928976
 20
4.3371979791
 40
0.1023622047
100
AcDbArc
 50
270.0
 51
360.0
  0
ARC
  5
648
100
AcDbEntity
  8
02___PRT_ALL_AXES
100
AcDbCircle
 62
7
  6
CONTINUOUS
 10
12.882793685
 20
6.2623948294
 40
0.0863700787
100
AcDbArc
 50
45.0
 51
90.0
  0
ARC
  5
649
100
AcDbEntity
  8
02___PRT_ALL_AXES
100
AcDbCircle
 62
7
  6
CONTINUOUS
 10
12.882793685
 20
5.1994027035
 40
0.0863700787
100
AcDbArc
 50
270.0
 51
315.0
  0
ARC
  5
64A
100
AcDbEntity
  8
0
100
AcDbCircle
 62
7
  6
CONTINUOUS
 10
12.2801873858
 20
5.073662546
 40
0.0863700787
100
AcDbArc
 50
90.0
 51
180.0
  0
ARC
  5
64B
100
AcDbEntity
  8
0
100
AcDbCircle
 62
7
  6
CONTINUOUS
 10
12.2801873858
 20
6.3881349869
 40
0.0863700787
100
AcDbArc
 50
180.0
 51
270.0
  0
ARC
  5
64C
100
AcDbEntity
  8
0
100
AcDbCircle
 62
7
  6
CONTINUOUS
 10
12.2801873858
 20
6.3881349869
 40
0.0393700787
100
AcDbArc
 50
180.0
 51
270.0
  0
ARC
  5
64D
100
AcDbEntity
  8
02___PRT_ALL_AXES
100
AcDbCircle
 62
7
  6
CONTINUOUS
 10
12.882793685
 20
5.1994027035
 40
0.0393700787
100
AcDbArc
 50
270.0
 51
315.0
  0
ARC
  5
64E
100
AcDbEntity
  8
02___PRT_ALL_AXES
100
AcDbCircle
 62
7
  6
CONTINUOUS
 10
12.882793685
 20
6.2623948294
 40
0.0393700787
100
AcDbArc
 50
45.0
 51
90.0
  0
ARC
  5
64F
100
AcDbEntity
  8
0
100
AcDbCircle
 62
7
  6
CONTINUOUS
 10
12.2801873858
 20
5.073662546
 40
0.0393700787
100
AcDbArc
 50
90.0
 51
180.0
  0
ARC
  5
650
100
AcDbEntity
  8
0
100
AcDbCircle
 62
7
  6
CONTINUOUS
 10
14.2762707265
 20
4.4710562468
 40
0.2362204724
100
AcDbArc
 50
180.0
 51
270.0
  0
ARC
  5
651
100
AcDbEntity
  8
AXIS
100
AcDbCircle
 62
7
  6
CONTINUOUS
 10
15.0361132462
 20
5.4356231759
 40
0.1377952756
100
AcDbArc
 50
180.0
 51
265.0651023428
  0
ARC
  5
652
100
AcDbEntity
  8
02___PRT_ALL_AXES
100
AcDbCircle
 62
7
  6
CONTINUOUS
 10
15.2711803654
 20
4.7421557947
 40
0.1279527559
100
AcDbArc
 50
75.0
 51
255.0
  0
CIRCLE
  5
653
100
AcDbEntity
  8
DEFAULT_2
100
AcDbCircle
 62
7
  6
HIDDEN
 10
14.2762707265
 20
4.7072767192
 40
0.0984251969
  0
CIRCLE
  5
654
100
AcDbEntity
  8
AXIS
100
AcDbCircle
 62
7
  6
CONTINUOUS
 10
14.2762707265
 20
4.7072767192
 40
0.0826771654
  0
ARC
  5
655
100
AcDbEntity
  8
0
100
AcDbCircle
 62
7
  6
CONTINUOUS
 10
15.10304238
 20
4.4513712074
 40
0.0787401575
100
AcDbArc
 50
180.0
 51
270.0
  0
ARC
  5
656
100
AcDbEntity
  8
0
100
AcDbCircle
 62
7
  6
CONTINUOUS
 10
14.3737154864
 20
4.3135759318
 40
0.0787401575
100
AcDbArc
 50
270.0
 51
347.7533102727
  0
ARC
  5
657
100
AcDbEntity
  8
0
100
AcDbCircle
 62
7
  6
CONTINUOUS
 10
14.5006801753
 20
4.2860168767
 40
0.0511811024
100
AcDbArc
 50
89.9998634408
 51
167.7533102727
  0
ARC
  5
658
100
AcDbEntity
  8
0
100
AcDbCircle
 62
7
  6
CONTINUOUS
 10
14.2762707265
 20
6.9907412861
 40
0.2362204724
100
AcDbArc
 50
90.0
 51
180.0
  0
ARC
  5
659
100
AcDbEntity
  8
AXIS
100
AcDbCircle
 62
7
  6
CONTINUOUS
 10
15.0361132462
 20
6.026174357
 40
0.1377952756
100
AcDbArc
 50
94.9348976572
 51
180.0
  0
ARC
  5
65A
100
AcDbEntity
  8
02___PRT_ALL_AXES
100
AcDbCircle
 62
7
  6
CONTINUOUS
 10
15.2711803654
 20
6.7196417382
 40
0.1279527559
100
AcDbArc
 50
105.0
 51
285.0
  0
CIRCLE
  5
65B
100
AcDbEntity
  8
DEFAULT_2
100
AcDbCircle
 62
7
  6
HIDDEN
 10
14.5124911989
 20
5.7308987665
 40
0.0984251969
  0
CIRCLE
  5
65C
100
AcDbEntity
  8
DEFAULT_2
100
AcDbCircle
 62
7
  6
HIDDEN
 10
14.2762707265
 20
6.7545208137
 40
0.0984251969
  0
CIRCLE
  5
65D
100
AcDbEntity
  8
AXIS
100
AcDbCircle
 62
7
  6
CONTINUOUS
 10
14.5124911989
 20
5.7308987665
 40
0.0826771654
  0
CIRCLE
  5
65E
100
AcDbEntity
  8
AXIS
100
AcDbCircle
 62
7
  6
CONTINUOUS
 10
14.2762707265
 20
6.7545208137
 40
0.0826771654
  0
ARC
  5
65F
100
AcDbEntity
  8
0
100
AcDbCircle
 62
7
  6
CONTINUOUS
 10
15.10304238
 20
7.0104263255
 40
0.0787401575
100
AcDbArc
 50
90.0
 51
180.0
  0
CIRCLE
  5
660
100
AcDbEntity
  8
AXIS
100
AcDbCircle
 62
7
  6
CONTINUOUS
 10
15.5361132462
 20
4.7072767192
 40
0.25
  0
ARC
  5
661
100
AcDbEntity
  8
0
100
AcDbCircle
 62
7
  6
CONTINUOUS
 10
16.7959557659
 20
4.4710562468
 40
0.2362204724
100
AcDbArc
 50
270.0
 51
360.0
  0
CIRCLE
  5
662
100
AcDbEntity
  8
AXIS_COSMETIC_THREADS
100
AcDbCircle
 62
7
  6
CONTINUOUS
 10
15.5361132462
 20
4.7072767192
 40
0.2
  0
ARC
  5
663
100
AcDbEntity
  8
AXIS
100
AcDbCircle
 62
7
  6
CONTINUOUS
 10
16.0361132462
 20
5.4356231759
 40
0.1377952756
100
AcDbArc
 50
274.9348976572
 51
360.0
  0
ARC
  5
664
100
AcDbEntity
  8
02___PRT_ALL_AXES
100
AcDbCircle
 62
7
  6
CONTINUOUS
 10
15.801046127
 20
4.7421557947
 40
0.1279527559
100
AcDbArc
 50
285.0
 51
105.0
  0
CIRCLE
  5
665
100
AcDbEntity
  8
DEFAULT_2
100
AcDbCircle
 62
7
  6
HIDDEN
 10
16.7959557659
 20
4.7072767192
 40
0.0984251969
  0
ARC
  5
666
100
AcDbEntity
  8
AXIS
100
AcDbCircle
 62
7
  6
CONTINUOUS
 10
15.5361132462
 20
4.7072767192
 40
0.091003937
100
AcDbArc
 50
166.655676589
 51
193.344323411
  0
ARC
  5
667
100
AcDbEntity
  8
AXIS
100
AcDbCircle
 62
7
  6
CONTINUOUS
 10
15.5361132462
 20
4.7072767192
 40
0.091003937
100
AcDbArc
 50
346.655676589
 51
13.344323411
  0
ARC
  5
668
100
AcDbEntity
  8
AXIS
100
AcDbCircle
 62
7
  6
CONTINUOUS
 10
15.5361132462
 20
4.7072767192
 40
0.091003937
100
AcDbArc
 50
76.655676589
 51
103.344323411
  0
ARC
  5
669
100
AcDbEntity
  8
AXIS
100
AcDbCircle
 62
7
  6
CONTINUOUS
 10
15.5361132462
 20
4.7072767192
 40
0.091003937
100
AcDbArc
 50
256.655676589
 51
283.344323411
  0
CIRCLE
  5
66A
100
AcDbEntity
  8
AXIS
100
AcDbCircle
 62
7
  6
CONTINUOUS
 10
16.7959557659
 20
4.7072767192
 40
0.0826771654
  0
ARC
  5
66B
100
AcDbEntity
  8
0
100
AcDbCircle
 62
7
  6
CONTINUOUS
 10
15.9691841123
 20
4.4513712074
 40
0.0787401575
100
AcDbArc
 50
270.0
 51
360.0
  0
ARC
  5
66C
100
AcDbEntity
  8
0
100
AcDbCircle
 62
7
  6
CONTINUOUS
 10
16.698511006
 20
4.3135759318
 40
0.0787401575
100
AcDbArc
 50
192.2466897273
 51
270.0
  0
ARC
  5
66D
100
AcDbEntity
  8
0
100
AcDbCircle
 62
7
  6
CONTINUOUS
 10
16.571546317
 20
4.2860168767
 40
0.0511811024
100
AcDbArc
 50
12.2466897273
 51
90.0001365608
  0
ARC
  5
66E
100
AcDbEntity
  8
AXIS
100
AcDbCircle
 62
7
  6
CONTINUOUS
 10
15.5361132462
 20
4.7072767192
 40
0.046496063
100
AcDbArc
 50
116.8551068271
 51
153.1448931729
  0
ARC
  5
66F
100
AcDbEntity
  8
AXIS
100
AcDbCircle
 62
7
  6
CONTINUOUS
 10
15.5361132462
 20
4.7072767192
 40
0.046496063
100
AcDbArc
 50
296.8551068271
 51
333.1448931729
  0
ARC
  5
670
100
AcDbEntity
  8
AXIS
100
AcDbCircle
 62
7
  6
CONTINUOUS
 10
15.5361132462
 20
4.7072767192
 40
0.046496063
100
AcDbArc
 50
26.8551068271
 51
63.1448931729
  0
ARC
  5
671
100
AcDbEntity
  8
AXIS
100
AcDbCircle
 62
7
  6
CONTINUOUS
 10
15.5361132462
 20
4.7072767192
 40
0.046496063
100
AcDbArc
 50
206.8551068271
 51
243.1448931729
  0
ARC
  5
672
100
AcDbEntity
  8
02___PRT_ALL_AXES
100
AcDbCircle
 62
7
  6
CONTINUOUS
 10
15.5361132462
 20
5.7308987665
 40
1.1515748031
100
AcDbArc
 50
101.4280013684
 51
105.0
  0
ARC
  5
673
100
AcDbEntity
  8
02___PRT_ALL_AXES
100
AcDbCircle
 62
7
  6
CONTINUOUS
 10
15.5361132462
 20
5.7308987665
 40
1.1515748031
100
AcDbArc
 50
75.0
 51
78.5719986316
  0
ARC
  5
674
100
AcDbEntity
  8
02___PRT_ALL_AXES
100
AcDbCircle
 62
7
  6
CONTINUOUS
 10
15.5361132462
 20
5.7308987665
 40
1.1515748031
100
AcDbArc
 50
255.0
 51
258.5959984975
  0
ARC
  5
675
100
AcDbEntity
  8
02___PRT_ALL_AXES
100
AcDbCircle
 62
7
  6
CONTINUOUS
 10
15.5361132462
 20
5.7308987665
 40
1.1515748031
100
AcDbArc
 50
281.4040015025
 51
285.0
  0
ARC
  5
676
100
AcDbEntity
  8
02___PRT_ALL_AXES
100
AcDbCircle
 62
7
  6
CONTINUOUS
 10
15.5361132462
 20
5.7308987665
 40
0.8956692913
100
AcDbArc
 50
102.7794493017
 51
105.0
  0
ARC
  5
677
100
AcDbEntity
  8
02___PRT_ALL_AXES
100
AcDbCircle
 62
7
  6
CONTINUOUS
 10
15.5361132462
 20
5.7308987665
 40
0.8956692913
100
AcDbArc
 50
75.0
 51
77.2205506983
  0
ARC
  5
678
100
AcDbEntity
  8
02___PRT_ALL_AXES
100
AcDbCircle
 62
7
  6
CONTINUOUS
 10
15.5361132462
 20
5.7308987665
 40
0.8956692913
100
AcDbArc
 50
255.0
 51
257.2205506983
  0
ARC
  5
679
100
AcDbEntity
  8
02___PRT_ALL_AXES
100
AcDbCircle
 62
7
  6
CONTINUOUS
 10
15.5361132462
 20
5.7308987665
 40
0.8956692913
100
AcDbArc
 50
282.7794493017
 51
285.0
  0
CIRCLE
  5
67A
100
AcDbEntity
  8
AXIS
100
AcDbCircle
 62
7
  6
CONTINUOUS
 10
15.5361132462
 20
6.7545208137
 40
0.25
  0
ARC
  5
67B
100
AcDbEntity
  8
0
100
AcDbCircle
 62
7
  6
CONTINUOUS
 10
16.7959557659
 20
6.9907412861
 40
0.2362204724
100
AcDbArc
 50
0.0
 51
90.0
  0
CIRCLE
  5
67C
100
AcDbEntity
  8
AXIS_COSMETIC_THREADS
100
AcDbCircle
 62
7
  6
CONTINUOUS
 10
15.5361132462
 20
6.7545208137
 40
0.2
  0
ARC
  5
67D
100
AcDbEntity
  8
AXIS
100
AcDbCircle
 62
7
  6
CONTINUOUS
 10
16.0361132462
 20
6.026174357
 40
0.1377952756
100
AcDbArc
 50
0.0
 51
85.0651023428
  0
ARC
  5
67E
100
AcDbEntity
  8
02___PRT_ALL_AXES
100
AcDbCircle
 62
7
  6
CONTINUOUS
 10
15.801046127
 20
6.7196417382
 40
0.1279527559
100
AcDbArc
 50
255.0
 51
75.0
  0
CIRCLE
  5
67F
100
AcDbEntity
  8
DEFAULT_2
100
AcDbCircle
 62
7
  6
HIDDEN
 10
16.5597352934
 20
5.7308987665
 40
0.0984251969
  0
CIRCLE
  5
680
100
AcDbEntity
  8
DEFAULT_2
100
AcDbCircle
 62
7
  6
HIDDEN
 10
16.7959557659
 20
6.7545208137
 40
0.0984251969
  0
ARC
  5
681
100
AcDbEntity
  8
AXIS
100
AcDbCircle
 62
7
  6
CONTINUOUS
 10
15.5361132462
 20
6.7545208137
 40
0.091003937
100
AcDbArc
 50
166.655676589
 51
193.344323411
  0
ARC
  5
682
100
AcDbEntity
  8
AXIS
100
AcDbCircle
 62
7
  6
CONTINUOUS
 10
15.5361132462
 20
6.7545208137
 40
0.091003937
100
AcDbArc
 50
346.655676589
 51
13.344323411
  0
ARC
  5
683
100
AcDbEntity
  8
AXIS
100
AcDbCircle
 62
7
  6
CONTINUOUS
 10
15.5361132462
 20
6.7545208137
 40
0.091003937
100
AcDbArc
 50
76.655676589
 51
103.344323411
  0
ARC
  5
684
100
AcDbEntity
  8
AXIS
100
AcDbCircle
 62
7
  6
CONTINUOUS
 10
15.5361132462
 20
6.7545208137
 40
0.091003937
100
AcDbArc
 50
256.655676589
 51
283.344323411
  0
CIRCLE
  5
685
100
AcDbEntity
  8
AXIS
100
AcDbCircle
 62
7
  6
CONTINUOUS
 10
16.5597352934
 20
5.7308987665
 40
0.0826771654
  0
CIRCLE
  5
686
100
AcDbEntity
  8
AXIS
100
AcDbCircle
 62
7
  6
CONTINUOUS
 10
16.7959557659
 20
6.7545208137
 40
0.0826771654
  0
ARC
  5
687
100
AcDbEntity
  8
0
100
AcDbCircle
 62
7
  6
CONTINUOUS
 10
15.9691841123
 20
7.0104263255
 40
0.0787401575
100
AcDbArc
 50
0.0
 51
90.0
  0
ARC
  5
688
100
AcDbEntity
  8
AXIS
100
AcDbCircle
 62
7
  6
CONTINUOUS
 10
15.5361132462
 20
6.7545208137
 40
0.046496063
100
AcDbArc
 50
116.8551068271
 51
153.1448931729
  0
ARC
  5
689
100
AcDbEntity
  8
AXIS
100
AcDbCircle
 62
7
  6
CONTINUOUS
 10
15.5361132462
 20
6.7545208137
 40
0.046496063
100
AcDbArc
 50
296.8551068271
 51
333.1448931729
  0
ARC
  5
68A
100
AcDbEntity
  8
AXIS
100
AcDbCircle
 62
7
  6
CONTINUOUS
 10
15.5361132462
 20
6.7545208137
 40
0.046496063
100
AcDbArc
 50
26.8551068271
 51
63.1448931729
  0
ARC
  5
68B
100
AcDbEntity
  8
AXIS
100
AcDbCircle
 62
7
  6
CONTINUOUS
 10
15.5361132462
 20
6.7545208137
 40
0.046496063
100
AcDbArc
 50
206.8551068271
 51
243.1448931729
  0
ENDSEC
  0
SECTION
  2
OBJECTS
  0
DICTIONARY
  5
C
100
AcDbDictionary
280
0
281
1
  3
ACAD_GROUP
350
D
  3
ACAD_MLINESTYLE
350
17
  3
ACAD_LAYOUT
350
1A
  3
ACAD_PLOTSETTINGS
350
19
  3
ACAD_PLOTSTYLENAME
350
E
  3
ACAD_TABLESTYLE
350
       68C
  0
DICTIONARY
  5
D
102
{ACAD_REACTORS
330
C
102
}
100
AcDbDictionary
280
0
281
1
  0
ACDBDICTIONARYWDFLT
  5
E
102
{ACAD_REACTORS
330
C
102
}
100
AcDbDictionary
281
1
  3
Normal
350
F
100
AcDbDictionaryWithDefault
340
F
  0
DICTIONARY
  5
17
102
{ACAD_REACTORS
330
C
102
}
100
AcDbDictionary
280
0
281
1
  3
Standard
350
18
  0
DICTIONARY
  5
68C
330
C
100
AcDbDictionary
281
1
  3
Standard
350
       68F
  3
Standard1
350
       690
  0
DICTIONARY
  5
19
102
{ACAD_REACTORS
330
C
102
}
100
AcDbDictionary
281
1
  0
DICTIONARY
  5
1A
102
{ACAD_REACTORS
330
C
102
}
100
AcDbDictionary
281
1
  3
Model
350
68D
  3
Layout1
350
68E
  0
ACDBPLACEHOLDER
  5
F
102
{ACAD_REACTORS
330
E
102
}
  0
MLINESTYLE
  5
18
102
{ACAD_REACTORS
330
17
102
}
100
AcDbMlineStyle
  2
STANDARD
 70
0
  3

 62
256
 51
90.0
 52
90.0
 71
2
 49
0.5
 62
256
  6
BYLAYER
 49
-0.5
 62
256
  6
BYLAYER
  0
LAYOUT
  5
68D
102
{ACAD_REACTORS
330
1A
102
}
100
AcDbPlotSettings
  1

  2
none_device
  4
ANSI_C_(22.00_x_17.00_Inches)
  6

 40
0.0
 41
0.0
 42
0.0
 43
0.0
 44
558.8
 45
431.8
 46
0.0
 47
0.0
 48
0.0
 49
0.0
140
0.0
141
0.0
142
1.0
143
1.0
 70
1024
 72
0
 73
0
 74
0
  7

 75
0
147
1.0
148
0.0
149
0.0
100
AcDbLayout
  1
Model
 70
0
 71
0
 10
0.0
 20
0.0
 11
22.0
 21
17.0
 12
0.0
 22
0.0
 32
0.0
 14
0.0
 24
0.0
 34
0.0
 15
0.0
 25
0.0
 35
0.0
146
0.0
 13
0.0
 23
0.0
 33
0.0
 16
1.0
 26
0.0
 36
0.0
 17
0.0
 27
1.0
 37
0.0
 76
0
330
235
345
0
346
0
  0
LAYOUT
  5
68E
102
{ACAD_REACTORS
330
1A
102
}
100
AcDbPlotSettings
  1

  2
none_device
  4
ANSI_C_(22.00_x_17.00_Inches)
  6

 40
0.0
 41
0.0
 42
0.0
 43
0.0
 44
558.8
 45
431.8
 46
0.0
 47
0.0
 48
0.0
 49
0.0
140
0.0
141
0.0
142
1.0
143
1.0
 70
0
 72
0
 73
0
 74
0
  7

 75
0
147
1.0
148
0.0
149
0.0
100
AcDbLayout
  1
Layout1
 70
0
 71
1
 10
0.0
 20
0.0
 11
22.0
 21
17.0
 12
0.0
 22
0.0
 32
0.0
 14
0.0
 24
0.0
 34
0.0
 15
0.0
 25
0.0
 35
0.0
146
0.0
 13
0.0
 23
0.0
 33
0.0
 16
1.0
 26
0.0
 36
0.0
 17
0.0
 27
1.0
 37
0.0
 76
0
330
236
345
0
346
0
  0
TABLESTYLE
  5
68F
102
{ACAD_REACTORS
330
68C
102
}
330
68C
100
AcDbTableStyle
  3
Standard
 70
0
 71
0
 40
0.06
 41
0.06
280
1
281
1
  7
Standard
140
0.18
170
1
 62
0
 63
7
283
0
  7
Standard
140
0.18
170
1
 62
0
 63
7
283
0
  7
Standard
140
0.18
170
1
 62
0
 63
7
283
0
  0
TABLESTYLE
  5
690
102
{ACAD_REACTORS
330
68C
330
376
102
}
330
68C
100
AcDbTableStyle
  3
Standard1
 70
1
 71
0
 40
0.06
 41
0.06
280
1
281
1
  7
Standard
140
0.18
170
1
 62
0
 63
7
283
0
  7
Standard
140
0.18
170
1
 62
0
 63
7
283
0
  7
Standard
140
0.18
170
1
 62
0
 63
7
283
0
  0
ENDSEC
  0
EOF
