999
DXF file: 200650_1.dxf
999
Pro/ENGINEER 2016260 by Parametric Technology Corporation
  0
SECTION
  2
HEADER
  9
$ACADVER
  1
AC1027
  9
$DWGCODEPAGE
  3
ANSI_1252
  9
$EXTMAX
 10
17.0
 20
11.0
 30
0.0
  9
$EXTMIN
 10
0.0
 20
0.0
 30
0.0
  9
$LIMMIN
 10
0.0
 20
0.0
  9
$LIMMAX
 10
17.0
 20
11.0
  9
$VIEWCTR
 10
8.5
 20
5.5
  9
$VIEWSIZE
 40
11.0
  9
$CLAYER
  8
0
  9
$LTSCALE
 40
0.935
  9
$CELTYPE
  6
BYLAYER
  9
$DIMSCALE
 40
1.0
  9
$DIMASZ
 40
0.1875
  9
$DIMEXO
 40
0.0625
  9
$DIMDLI
 40
0.646
  9
$DIMEXE
 40
0.125
  9
$DIMCEN
 40
0.153
  9
$DIMLFAC
 40
1.0
  9
$DIMBLK
  1
_FILLED
  9
$DIMALT
 70
1
  9
$DIMALTD
 70
2
  9
$DIMALTTD
 70
2
  9
$DIMALTF
 40
1.0
  9
$DIMTXT
 40
0.1
  9
$DIMTOL
 70
1
  9
$DIMLIM
 70
0
  9
$DIMTFAC
 40
1.0
  9
$DIMTP
 40
0.005
  9
$DIMTM
 40
0.005
  9
$DIMGAP
 40
0.09
  9
$DIMDSEP
 70
46
  9
$AUNITS
 70
0
  9
$PDMODE
 70
3
  9
$PDSIZE
 40
0.3125
  9
$HANDSEED
  5
578
  9
$TILEMODE
 70
1
  9
$MEASUREMENT
 70
0
  9
$INSUNITS
 70
1
  0
ENDSEC
  0
SECTION
  2
CLASSES
  0
CLASS
  1
ACDBDICTIONARYWDFLT
  2
AcDbDictionaryWithDefault
  3
AutoCAD 2000
 90
0
 91
1
280
0
281
0
  0
CLASS
  1
ACDBPLACEHOLDER
  2
AcDbPlaceHolder
  3
AutoCAD 2000
 90
0
 91
1
280
0
281
0
  0
CLASS
  1
LAYOUT
  2
AcDbLayout
  3
AutoCAD 2000
 90
0
 91
0
280
0
281
0
  0
CLASS
  1
TABLESTYLE
  2
AcDbTableStyle
  3
ObjectDBX Classes
 90
2047
 91
1
280
0
281
0
  0
CLASS
  1
ACAD_TABLE
  2
AcDbTable
  3
ObjectDBX Classes
 90
1025
 91
1
280
0
281
1
  0
ENDSEC
  0
SECTION
  2
TABLES
  0
TABLE
  2
VPORT
  5
8
100
AcDbSymbolTable
 70
2
  0
VPORT
  5
1F4
100
AcDbSymbolTableRecord
100
AcDbViewportTableRecord
  2
*ACTIVE
 70
0
 10
0.0
 20
0.0
 11
1.0
 21
1.0
 12
8.5
 22
5.5
 13
0.0
 23
0.0
 14
1.0
 24
1.0
 15
0.0
 25
0.0
 16
0.0
 26
0.0
 36
1.0
 17
0.0
 27
0.0
 37
0.0
 40
11.0
 41
1.5454545455
 42
50.0
 43
0.0
 44
0.0
 50
0.0
 51
0.0
 71
0
 72
100
 73
1
 74
1
 75
0
 76
0
 77
0
 78
0
  0
ENDTAB
  0
TABLE
  2
LTYPE
  5
5
100
AcDbSymbolTable
 70
6
  0
LTYPE
  5
14
100
AcDbSymbolTableRecord
100
AcDbLinetypeTableRecord
  2
BYBLOCK
 70
0
  3

 72
65
 73
0
 40
0.0
  0
LTYPE
  5
15
100
AcDbSymbolTableRecord
100
AcDbLinetypeTableRecord
  2
BYLAYER
 70
0
  3

 72
65
 73
0
 40
0.0
  0
LTYPE
  5
16
100
AcDbSymbolTableRecord
100
AcDbLinetypeTableRecord
  2
CONTINUOUS
 70
64
  3
Solid line
 72
65
 73
0
 40
0.0
  0
LTYPE
  5
1F5
100
AcDbSymbolTableRecord
100
AcDbLinetypeTableRecord
  2
CENTER
 70
64
  3
____ _ ____ _ ____ _ ____ _ ____ _ ____ _ ____
 72
65
 73
4
 40
0.6
 49
0.375
 74
0
 49
-0.075
 74
0
 49
0.075
 74
0
 49
-0.075
 74
0
  0
LTYPE
  5
1F6
100
AcDbSymbolTableRecord
100
AcDbLinetypeTableRecord
  2
HIDDEN
 70
64
  3
- - - - - - - - - - - - - - - - - - - -
 72
65
 73
2
 40
0.2
 49
0.1
 74
0
 49
-0.1
 74
0
  0
LTYPE
  5
1F7
100
AcDbSymbolTableRecord
100
AcDbLinetypeTableRecord
  2
PHANTOM
 70
64
  3
_____ _ _ _____ _ _ _____ _ _ _____
 72
65
 73
6
 40
0.8
 49
0.45
 74
0
 49
-0.05
 74
0
 49
0.1
 74
0
 49
-0.05
 74
0
 49
0.1
 74
0
 49
-0.05
 74
0
  0
LTYPE
  5
1F8
100
AcDbSymbolTableRecord
100
AcDbLinetypeTableRecord
  2
DOT
 70
64
  3
. . . . . . . . . . . . . . . . . . . .
 72
65
 73
2
 40
0.2
 49
0.1
 74
0
 49
-0.1
 74
0
  0
LTYPE
  5
1F9
100
AcDbSymbolTableRecord
100
AcDbLinetypeTableRecord
  2
DASHED
 70
64
  3
- - - - - - - - - - - - - - - - - - - -
 72
65
 73
2
 40
0.2
 49
0.1
 74
0
 49
-0.1
 74
0
  0
ENDTAB
  0
TABLE
  2
LAYER
  5
2
100
AcDbSymbolTable
 70
36
  0
LAYER
  5
10
100
AcDbSymbolTableRecord
100
AcDbLayerTableRecord
  2
0
 70
0
 62
7
  6
CONTINUOUS
370
-3
390
F
  0
LAYER
  5
1FA
100
AcDbSymbolTableRecord
100
AcDbLayerTableRecord
  2
DEFAULT_1
 70
0
 62
7
  6
CENTER
370
-3
390
F
  0
LAYER
  5
1FB
100
AcDbSymbolTableRecord
100
AcDbLayerTableRecord
  2
DEFAULT_2
 70
0
 62
7
  6
HIDDEN
370
-3
390
F
  0
LAYER
  5
1FC
100
AcDbSymbolTableRecord
100
AcDbLayerTableRecord
  2
DEFAULT_3
 70
0
 62
7
  6
PHANTOM
370
-3
390
F
  0
LAYER
  5
1FD
100
AcDbSymbolTableRecord
100
AcDbLayerTableRecord
  2
AXIS
 70
0
 62
7
  6
CONTINUOUS
370
-3
390
F
  0
LAYER
  5
1FE
100
AcDbSymbolTableRecord
100
AcDbLayerTableRecord
  2
DATUM_CURVES
 70
0
 62
7
  6
CONTINUOUS
370
-3
390
F
  0
LAYER
  5
1FF
100
AcDbSymbolTableRecord
100
AcDbLayerTableRecord
  2
DATUM_PLANES
 70
0
 62
7
  6
CONTINUOUS
370
-3
390
F
  0
LAYER
  5
200
100
AcDbSymbolTableRecord
100
AcDbLayerTableRecord
  2
DRIVEN_DIMS
 70
0
 62
7
  6
CONTINUOUS
370
-3
390
F
  0
LAYER
  5
201
100
AcDbSymbolTableRecord
100
AcDbLayerTableRecord
  2
NOTES
 70
0
 62
7
  6
CONTINUOUS
370
-3
390
F
  0
LAYER
  5
202
100
AcDbSymbolTableRecord
100
AcDbLayerTableRecord
  2
SCHEME_DIMS
 70
0
 62
7
  6
CONTINUOUS
370
-3
390
F
  0
LAYER
  5
203
100
AcDbSymbolTableRecord
100
AcDbLayerTableRecord
  2
SYMBOLS
 70
0
 62
7
  6
CONTINUOUS
370
-3
390
F
  0
ENDTAB
  0
TABLE
  2
STYLE
  5
3
100
AcDbSymbolTable
 70
1
  0
STYLE
  5
11
100
AcDbSymbolTableRecord
100
AcDbTextStyleTableRecord
  2
STANDARD
 70
0
 40
0.0
 41
1.0
 50
0.0
 71
0
 42
0.2
  3
txt
  4

  0
STYLE
  5
204
100
AcDbSymbolTableRecord
100
AcDbTextStyleTableRecord
  2
TEXTSTYLE_1
 70
0
 40
0.0
 41
0.8
 50
0.0
 71
0
 42
0.2
  3
gdt
  4

  0
STYLE
  5
205
100
AcDbSymbolTableRecord
100
AcDbTextStyleTableRecord
  2
TEXTSTYLE_2
 70
0
 40
0.0
 41
0.8
 50
0.0
 71
0
 42
0.2
  3
txt
  4

  0
STYLE
  5
206
100
AcDbSymbolTableRecord
100
AcDbTextStyleTableRecord
  2
TEXTSTYLE_3
 70
0
 40
0.0
 41
0.85
 50
0.0
 71
0
 42
0.2
  3
txt
  4

  0
STYLE
  5
207
100
AcDbSymbolTableRecord
100
AcDbTextStyleTableRecord
  2
TEXTSTYLE_4
 70
0
 40
0.0
 41
0.9
 50
0.0
 71
0
 42
0.2
  3
txt
  4

  0
STYLE
  5
208
100
AcDbSymbolTableRecord
100
AcDbTextStyleTableRecord
  2
TEXTSTYLE_5
 70
0
 40
0.0
 41
0.75
 50
0.0
 71
0
 42
0.2
  3
txt
  4

  0
STYLE
  5
209
100
AcDbSymbolTableRecord
100
AcDbTextStyleTableRecord
  2
TEXTSTYLE_6
 70
0
 40
0.0
 41
1.0
 50
0.0
 71
0
 42
0.2
  3
gdt
  4

  0
ENDTAB
  0
TABLE
  2
VIEW
  5
6
100
AcDbSymbolTable
 70
0
  0
ENDTAB
  0
TABLE
  2
UCS
  5
7
100
AcDbSymbolTable
 70
0
  0
ENDTAB
  0
TABLE
  2
APPID
  5
9
100
AcDbSymbolTable
 70
1
  0
APPID
  5
20A
100
AcDbSymbolTableRecord
100
AcDbRegAppTableRecord
  2
ACAD
 70
0
  0
ENDTAB
  0
TABLE
  2
BLOCK_RECORD
  5
1
100
AcDbSymbolTable
 70
0
  0
BLOCK_RECORD
  5
20B
100
AcDbSymbolTableRecord
100
AcDbBlockTableRecord
  2
*Model_Space
  0
BLOCK_RECORD
  5
20C
100
AcDbSymbolTableRecord
100
AcDbBlockTableRecord
  2
*Paper_Space
  0
BLOCK_RECORD
  5
20D
100
AcDbSymbolTableRecord
100
AcDbBlockTableRecord
  2
_FILLED
  0
BLOCK_RECORD
  5
20E
100
AcDbSymbolTableRecord
100
AcDbBlockTableRecord
  2
*D0
  0
BLOCK_RECORD
  5
20F
100
AcDbSymbolTableRecord
100
AcDbBlockTableRecord
  2
*D1
  0
BLOCK_RECORD
  5
210
100
AcDbSymbolTableRecord
100
AcDbBlockTableRecord
  2
*D2
  0
BLOCK_RECORD
  5
211
100
AcDbSymbolTableRecord
100
AcDbBlockTableRecord
  2
*T1
  0
ENDTAB
  0
TABLE
  2
DIMSTYLE
  5
A
100
AcDbSymbolTable
 70
1
100
AcDbDimStyleTable
 71
0
  0
DIMSTYLE
105
212
100
AcDbSymbolTableRecord
100
AcDbDimStyleTableRecord
  2
STANDARD
 70
0
  3

  4

 40
1.0
 41
0.1875
 42
0.0625
 43
0.38
 44
0.125
 45
0.0
 46
0.0
 47
0.005
 48
0.005
140
0.1
141
0.09
142
0.0
143
1.0
144
1.0
145
0.0
146
1.0
147
0.09
 71
1.0
 72
0.0
 73
1
 74
1
 75
0
 76
0
 77
0
 78
4
170
1
171
2
172
0
173
0
174
0
175
0
176
0
177
0
178
0
270
2
271
3
272
3
273
2
274
2
275
0
280
0
281
0
282
0
283
1
284
4
285
0
286
0
287
3
288
0
340
11
278
46
341
20D
342
20D
343
20D
344
20D
  0
DIMSTYLE
105
213
100
AcDbSymbolTableRecord
100
AcDbDimStyleTableRecord
  2
DIMSTYLE_1
 70
0
  3
<>
  4

 40
1.0
 41
0.1875
 42
0.0625
 43
0.38
 44
0.125
 45
0.0
 46
0.0
 47
0.005
 48
0.005
140
0.1
141
0.09
142
0.0
143
1.0
144
1.0
145
0.0
146
1.0
147
0.09
 71
0.0
 72
0.0
 73
1
 74
1
 75
0
 76
0
 77
0
 78
4
170
1
171
2
172
0
173
0
174
0
175
0
176
0
177
0
178
0
270
2
271
1
272
3
273
2
274
4
275
0
280
0
281
0
282
0
283
1
284
4
285
0
286
0
287
3
288
1
340
11
278
46
289
2
341
20D
342
20D
343
20D
344
20D
  0
DIMSTYLE
105
214
100
AcDbSymbolTableRecord
100
AcDbDimStyleTableRecord
  2
DIMSTYLE_2
 70
0
  3

  4

 40
1.0
 41
0.1875
 42
0.0625
 43
0.38
 44
0.125
 45
0.0
 46
0.0
 47
0.1
 48
0.1
140
0.1
141
0.09
142
0.0
143
1.0
144
1.0
145
0.0
146
1.0
147
0.1
 71
0.0
 72
0.0
 73
1
 74
1
 75
0
 76
0
 77
0
 78
4
170
1
171
2
172
0
173
0
174
0
175
0
176
0
177
0
178
0
270
2
271
1
272
3
273
2
274
-14
275
0
280
0
281
0
282
0
283
1
284
4
285
0
286
0
287
3
288
0
340
11
278
46
341
20D
342
20D
343
20D
344
20D
  0
ENDTAB
  0
ENDSEC
  0
SECTION
  2
BLOCKS
  0
BLOCK
  5
20
100
AcDbEntity
  8
0
100
AcDbBlockBegin
  2
*Model_Space
 70
0
 10
0.0
 20
0.0
 30
0.0
  3
*Model_Space
  1

  0
ENDBLK
  5
21
100
AcDbEntity
  8
0
100
AcDbBlockEnd
  0
BLOCK
  5
1C
100
AcDbEntity
  8
0
100
AcDbBlockBegin
  2
*Paper_Space
 70
0
 10
0.0
 20
0.0
 30
0.0
  3
*Paper_Space
  1

  0
ENDBLK
  5
1D
100
AcDbEntity
  8
0
100
AcDbBlockEnd
  0
BLOCK
  5
215
100
AcDbEntity
  8
0
100
AcDbBlockBegin
  2
_FILLED
 70
64
 10
0.0
 20
0.0
  3
_FILLED
  1

  0
SOLID
  5
216
100
AcDbEntity
  8
0
  6
BYBLOCK
 62
0
100
AcDbTrace
 10
0.0
 20
0.0
 11
-1.0
 21
0.1666666667
 12
-1.0
 22
-0.1666666667
 13
-1.0
 23
-0.1666666667
  0
ENDBLK
  5
217
100
AcDbEntity
  8
0
  6
BYBLOCK
 62
0
100
AcDbBlockEnd
  0
BLOCK
  5
218
100
AcDbEntity
  8
DRIVEN_DIMS
100
AcDbBlockBegin
 62
7
  6
CONTINUOUS
  2
*D0
 70
65
 10
0.0
 20
0.0
  3
*D0
  1

  0
MTEXT
  5
219
100
AcDbEntity
  8
DRIVEN_DIMS
100
AcDbMText
 62
7
  6
CONTINUOUS
  7
TEXTSTYLE_6
 71
3
 72
1
 10
1.8899711936
 20
7.165062983
 30
0.0
 11
1.0
 21
0.0
 31
0.0
 44
0.9
  1
{\Fgdt;n}\Ftxt;45.0\P[1.77]
 40
0.1
 41
0.6
  0
LINE
  5
21A
100
AcDbEntity
  8
DRIVEN_DIMS
100
AcDbLine
 62
7
  6
CONTINUOUS
 10
2.7133309844
 20
6.7014047557
 11
2.3399711936
 21
7.115062983
  0
LINE
  5
21B
100
AcDbEntity
  8
DRIVEN_DIMS
100
AcDbLine
 62
7
  6
CONTINUOUS
 10
2.3399711936
 20
7.115062983
 11
2.1899711936
 21
7.115062983
  0
INSERT
  5
21C
100
AcDbEntity
  8
DRIVEN_DIMS
100
AcDbBlockReference
 62
7
  6
CONTINUOUS
  2
_FILLED
 10
2.7133309844
 20
6.7014047557
 41
0.1875
 42
0.1875
 43
0.1875
 50
312.068789327
  0
ENDBLK
  5
21D
100
AcDbEntity
  8
0
  6
BYBLOCK
 62
0
100
AcDbBlockEnd
  0
BLOCK
  5
21E
100
AcDbEntity
  8
SCHEME_DIMS
100
AcDbBlockBegin
 62
7
  6
CONTINUOUS
  2
*D1
 70
65
 10
0.0
 20
0.0
  3
*D1
  1

  0
MTEXT
  5
21F
100
AcDbEntity
  8
SCHEME_DIMS
100
AcDbMText
 62
7
  6
CONTINUOUS
  7
STANDARD
 71
2
 72
1
 10
7.5607505718
 20
7.5256636626
 30
0.0
 11
1.0
 21
0.0
 31
0.0
 44
0.9
  1
24.1\P[.95]
 40
0.1
 41
0.5
  0
LINE
  5
220
100
AcDbEntity
  8
SCHEME_DIMS
100
AcDbLine
 62
7
  6
CONTINUOUS
 10
8.0841757687
 20
6.9803982063
 11
8.0841757687
 21
7.6006636626
  0
LINE
  5
221
100
AcDbEntity
  8
SCHEME_DIMS
100
AcDbLine
 62
7
  6
CONTINUOUS
 10
7.137325375
 20
6.7067129772
 11
7.137325375
 21
7.6006636626
  0
LINE
  5
222
100
AcDbEntity
  8
SCHEME_DIMS
100
AcDbLine
 62
7
  6
CONTINUOUS
 10
8.0841757687
 20
7.4756636626
 11
8.4841757687
 21
7.4756636626
  0
LINE
  5
223
100
AcDbEntity
  8
SCHEME_DIMS
100
AcDbLine
 62
7
  6
CONTINUOUS
 10
7.137325375
 20
7.4756636626
 11
6.737325375
 21
7.4756636626
  0
INSERT
  5
224
100
AcDbEntity
  8
SCHEME_DIMS
100
AcDbBlockReference
 62
7
  6
CONTINUOUS
  2
_FILLED
 10
8.0841757687
 20
7.4756636626
 41
0.1875
 42
0.1875
 43
0.1875
 50
180.0
  0
INSERT
  5
225
100
AcDbEntity
  8
SCHEME_DIMS
100
AcDbBlockReference
 62
7
  6
CONTINUOUS
  2
_FILLED
 10
7.137325375
 20
7.4756636626
 41
0.1875
 42
0.1875
 43
0.1875
  0
ENDBLK
  5
226
100
AcDbEntity
  8
0
  6
BYBLOCK
 62
0
100
AcDbBlockEnd
  0
BLOCK
  5
227
100
AcDbEntity
  8
SCHEME_DIMS
100
AcDbBlockBegin
 62
7
  6
CONTINUOUS
  2
*D2
 70
65
 10
0.0
 20
0.0
  3
*D2
  1

  0
MTEXT
  5
228
100
AcDbEntity
  8
SCHEME_DIMS
100
AcDbMText
 62
7
  6
CONTINUOUS
  7
STANDARD
 71
2
 72
1
 10
7.0776797057
 20
8.0738389819
 30
0.0
 11
1.0
 21
0.0
 31
0.0
 44
0.9
  1
46.1\P[1.81]
 40
0.1
 41
0.6
  0
LINE
  5
229
100
AcDbEntity
  8
SCHEME_DIMS
100
AcDbLine
 62
7
  6
CONTINUOUS
 10
8.0841757687
 20
6.9803982063
 11
8.0841757687
 21
8.1488389819
  0
LINE
  5
22A
100
AcDbEntity
  8
SCHEME_DIMS
100
AcDbLine
 62
7
  6
CONTINUOUS
 10
6.2711836427
 20
6.5315161268
 11
6.2711836427
 21
8.1488389819
  0
LINE
  5
22B
100
AcDbEntity
  8
SCHEME_DIMS
100
AcDbLine
 62
7
  6
CONTINUOUS
 10
8.0841757687
 20
8.0238389819
 11
7.5776797057
 21
8.0238389819
  0
LINE
  5
22C
100
AcDbEntity
  8
SCHEME_DIMS
100
AcDbLine
 62
7
  6
CONTINUOUS
 10
6.2711836427
 20
8.0238389819
 11
6.7776797057
 21
8.0238389819
  0
INSERT
  5
22D
100
AcDbEntity
  8
SCHEME_DIMS
100
AcDbBlockReference
 62
7
  6
CONTINUOUS
  2
_FILLED
 10
8.0841757687
 20
8.0238389819
 41
0.1875
 42
0.1875
 43
0.1875
  0
INSERT
  5
22E
100
AcDbEntity
  8
SCHEME_DIMS
100
AcDbBlockReference
 62
7
  6
CONTINUOUS
  2
_FILLED
 10
6.2711836427
 20
8.0238389819
 41
0.1875
 42
0.1875
 43
0.1875
 50
180.0
  0
ENDBLK
  5
22F
100
AcDbEntity
  8
0
  6
BYBLOCK
 62
0
100
AcDbBlockEnd
  0
BLOCK
  5
230
100
AcDbEntity
  8
0
100
AcDbBlockBegin
  2
*T1
 70
1
 10
0.0
 20
0.0
  3
*T1
  1

  0
LINE
  5
231
100
AcDbEntity
  8
0
100
AcDbLine
 62
7
  6
CONTINUOUS
 10
4.35
 20
0.0
 11
0.0
 21
0.0
  0
LINE
  5
232
100
AcDbEntity
  8
0
100
AcDbLine
 62
7
  6
CONTINUOUS
 10
4.35
 20
0.0
 11
4.35
 21
1.92
  0
LINE
  5
233
100
AcDbEntity
  8
0
100
AcDbLine
 62
7
  6
CONTINUOUS
 10
4.35
 20
1.92
 11
0.0
 21
1.92
  0
LINE
  5
234
100
AcDbEntity
  8
0
100
AcDbLine
 62
7
  6
CONTINUOUS
 10
0.0
 20
0.0
 11
0.0
 21
1.92
  0
MTEXT
  5
235
100
AcDbEntity
  8
NOTES
100
AcDbMText
 62
7
  6
CONTINUOUS
  7
STANDARD
 71
2
 72
1
 10
4.125
 20
0.48
 30
0.0
 11
1.0
 21
0.0
 31
0.0
 44
0.9
  1
A
 40
0.1
 41
0.2
  0
MTEXT
  5
236
100
AcDbEntity
  8
NOTES
100
AcDbMText
 62
7
  6
CONTINUOUS
  7
STANDARD
 71
2
 72
1
 10
2.175
 20
0.93
 30
0.0
 11
1.0
 21
0.0
 31
0.0
 44
0.9
  1
SA-M30TE12-803147
 40
0.1
 41
3.4
  0
ENDBLK
  5
237
100
AcDbEntity
  8
0
  6
BYBLOCK
 62
0
100
AcDbBlockEnd
  0
ENDSEC
  0
SECTION
  2
ENTITIES
  0
MTEXT
  5
238
100
AcDbEntity
  8
0
100
AcDbMText
 62
7
  6
CONTINUOUS
  7
TEXTSTYLE_2
 71
2
 72
1
 10
11.0287658475
 20
1.794867839
 30
0.0
 11
1.0
 21
0.0
 31
0.0
 44
0.9
  1
THIRD ANGLE PROJECTION
 40
0.1
 41
1.76
  0
MTEXT
  5
239
100
AcDbEntity
  8
0
100
AcDbMText
 62
7
  6
CONTINUOUS
  7
STANDARD
 71
1
 72
1
 10
12.88
 20
1.457
 30
0.0
 11
1.0
 21
0.0
 31
0.0
 44
0.9
  1
DRAWING NO.
 40
0.08
 41
0.88
  0
MTEXT
  5
23A
100
AcDbEntity
  8
0
100
AcDbMText
 62
7
  6
CONTINUOUS
  7
TEXTSTYLE_2
 71
1
 72
1
 10
12.08
 20
2.217
 30
0.0
 11
1.0
 21
0.0
 31
0.0
 44
0.9
  1
TITLE
 40
0.1
 41
0.4
  0
MTEXT
  5
23B
100
AcDbEntity
  8
0
100
AcDbMText
 62
7
  6
CONTINUOUS
  7
STANDARD
 71
1
 72
1
 10
12.08
 20
1.457
 30
0.0
 11
1.0
 21
0.0
 31
0.0
 44
0.9
  1
SIZE
 40
0.08
 41
0.32
  0
MTEXT
  5
23C
100
AcDbEntity
  8
0
100
AcDbMText
 62
7
  6
CONTINUOUS
  7
STANDARD
 71
1
 72
1
 10
12.08
 20
1.087
 30
0.0
 11
1.0
 21
0.0
 31
0.0
 44
0.9
  1
SCALE
 40
0.08
 41
0.4
  0
MTEXT
  5
23D
100
AcDbEntity
  8
0
100
AcDbMText
 62
7
  6
CONTINUOUS
  7
TEXTSTYLE_2
 71
2
 72
1
 10
12.5
 20
1.337
 30
0.0
 11
1.0
 21
0.0
 31
0.0
 44
0.9
  1
B
 40
0.1
 41
0.08
  0
MTEXT
  5
23E
100
AcDbEntity
  8
0
100
AcDbMText
 62
7
  6
CONTINUOUS
  7
TEXTSTYLE_3
 71
2
 72
1
 10
11.0340287086
 20
2.7679425959
 30
0.0
 11
1.0
 21
0.0
 31
0.0
 44
0.9
  1
This drawing is the property\Pof BANNER ENGINEERING CORP.\PAny use or reproduction,\Pin any form, without prior\Pwritten permission of\PBanner is prohibited.
 40
0.08
 41
1.904
  0
MTEXT
  5
23F
100
AcDbEntity
  8
0
100
AcDbMText
 62
7
  6
CONTINUOUS
  7
STANDARD
 71
1
 72
1
 10
14.255
 20
1.087
 30
0.0
 11
1.0
 21
0.0
 31
0.0
 44
0.9
  1
SHEET
 40
0.08
 41
0.4
  0
MTEXT
  5
240
100
AcDbEntity
  8
0
100
AcDbMText
 62
7
  6
CONTINUOUS
  7
STANDARD
 71
1
 72
1
 10
15.63
 20
1.457
 30
0.0
 11
1.0
 21
0.0
 31
0.0
 44
0.9
  1
REV.
 40
0.08
 41
0.32
  0
MTEXT
  5
241
100
AcDbEntity
  8
0
100
AcDbMText
 62
7
  6
CONTINUOUS
  7
STANDARD
 71
3
 72
1
 10
16.38
 20
0.835443
 30
0.0
 11
1.0
 21
0.0
 31
0.0
 44
0.9
  1
CREO
 40
0.07
 41
0.28
  0
MTEXT
  5
242
100
AcDbEntity
  8
0
100
AcDbMText
 62
7
  6
CONTINUOUS
  7
TEXTSTYLE_4
 71
2
 72
1
 10
15.1043392653
 20
2.7174764286
 30
0.0
 11
1.0
 21
0.0
 31
0.0
 44
0.9
  1
BANNER ENGINEERING CORP.
 40
0.12
 41
2.592
  0
MTEXT
  5
243
100
AcDbEntity
  8
0
100
AcDbMText
 62
7
  6
CONTINUOUS
  7
TEXTSTYLE_2
 71
2
 72
1
 10
15.0923490612
 20
2.4764783673
 30
0.0
 11
1.0
 21
0.0
 31
0.0
 44
0.9
  1
www.bannerengineering.com
 40
0.1
 41
2.0
  0
MTEXT
  5
244
100
AcDbEntity
  8
0
100
AcDbMText
 62
7
  6
CONTINUOUS
  7
TEXTSTYLE_2
 71
2
 72
1
 10
9.485
 20
10.312
 30
0.0
 11
1.0
 21
0.0
 31
0.0
 44
0.9
  1
4
 40
0.1
 41
0.08
  0
MTEXT
  5
245
100
AcDbEntity
  8
0
100
AcDbMText
 62
7
  6
CONTINUOUS
  7
TEXTSTYLE_2
 71
2
 72
1
 10
11.455
 20
10.312
 30
0.0
 11
1.0
 21
0.0
 31
0.0
 44
0.9
  1
3
 40
0.1
 41
0.08
  0
MTEXT
  5
246
100
AcDbEntity
  8
0
100
AcDbMText
 62
7
  6
CONTINUOUS
  7
TEXTSTYLE_2
 71
2
 72
1
 10
13.425
 20
10.312
 30
0.0
 11
1.0
 21
0.0
 31
0.0
 44
0.9
  1
2
 40
0.1
 41
0.08
  0
MTEXT
  5
247
100
AcDbEntity
  8
0
100
AcDbMText
 62
7
  6
CONTINUOUS
  7
TEXTSTYLE_2
 71
2
 72
1
 10
15.395
 20
10.312
 30
0.0
 11
1.0
 21
0.0
 31
0.0
 44
0.9
  1
1
 40
0.1
 41
0.08
  0
MTEXT
  5
248
100
AcDbEntity
  8
0
100
AcDbMText
 62
7
  6
CONTINUOUS
  7
TEXTSTYLE_2
 71
2
 72
1
 10
3.575
 20
10.312
 30
0.0
 11
1.0
 21
0.0
 31
0.0
 44
0.9
  1
7
 40
0.1
 41
0.08
  0
MTEXT
  5
249
100
AcDbEntity
  8
0
100
AcDbMText
 62
7
  6
CONTINUOUS
  7
TEXTSTYLE_2
 71
2
 72
1
 10
5.545
 20
10.312
 30
0.0
 11
1.0
 21
0.0
 31
0.0
 44
0.9
  1
6
 40
0.1
 41
0.08
  0
MTEXT
  5
24A
100
AcDbEntity
  8
0
100
AcDbMText
 62
7
  6
CONTINUOUS
  7
TEXTSTYLE_2
 71
2
 72
1
 10
7.515
 20
10.312
 30
0.0
 11
1.0
 21
0.0
 31
0.0
 44
0.9
  1
5
 40
0.1
 41
0.08
  0
MTEXT
  5
24B
100
AcDbEntity
  8
0
100
AcDbMText
 62
7
  6
CONTINUOUS
  7
TEXTSTYLE_2
 71
2
 72
1
 10
1.605
 20
10.312
 30
0.0
 11
1.0
 21
0.0
 31
0.0
 44
0.9
  1
8
 40
0.1
 41
0.08
  0
MTEXT
  5
24C
100
AcDbEntity
  8
0
100
AcDbMText
 62
7
  6
CONTINUOUS
  7
TEXTSTYLE_2
 71
2
 72
1
 10
1.605
 20
0.787
 30
0.0
 11
1.0
 21
0.0
 31
0.0
 44
0.9
  1
8
 40
0.1
 41
0.08
  0
MTEXT
  5
24D
100
AcDbEntity
  8
0
100
AcDbMText
 62
7
  6
CONTINUOUS
  7
TEXTSTYLE_2
 71
2
 72
1
 10
3.575
 20
0.787
 30
0.0
 11
1.0
 21
0.0
 31
0.0
 44
0.9
  1
7
 40
0.1
 41
0.08
  0
MTEXT
  5
24E
100
AcDbEntity
  8
0
100
AcDbMText
 62
7
  6
CONTINUOUS
  7
TEXTSTYLE_2
 71
2
 72
1
 10
5.545
 20
0.787
 30
0.0
 11
1.0
 21
0.0
 31
0.0
 44
0.9
  1
6
 40
0.1
 41
0.08
  0
MTEXT
  5
24F
100
AcDbEntity
  8
0
100
AcDbMText
 62
7
  6
CONTINUOUS
  7
TEXTSTYLE_2
 71
2
 72
1
 10
7.515
 20
0.787
 30
0.0
 11
1.0
 21
0.0
 31
0.0
 44
0.9
  1
5
 40
0.1
 41
0.08
  0
MTEXT
  5
250
100
AcDbEntity
  8
0
100
AcDbMText
 62
7
  6
CONTINUOUS
  7
TEXTSTYLE_2
 71
2
 72
1
 10
9.485
 20
0.787
 30
0.0
 11
1.0
 21
0.0
 31
0.0
 44
0.9
  1
4
 40
0.1
 41
0.08
  0
MTEXT
  5
251
100
AcDbEntity
  8
0
100
AcDbMText
 62
7
  6
CONTINUOUS
  7
TEXTSTYLE_2
 71
2
 72
1
 10
11.455
 20
0.787
 30
0.0
 11
1.0
 21
0.0
 31
0.0
 44
0.9
  1
3
 40
0.1
 41
0.08
  0
MTEXT
  5
252
100
AcDbEntity
  8
0
100
AcDbMText
 62
7
  6
CONTINUOUS
  7
TEXTSTYLE_2
 71
2
 72
1
 10
13.425
 20
0.787
 30
0.0
 11
1.0
 21
0.0
 31
0.0
 44
0.9
  1
2
 40
0.1
 41
0.08
  0
MTEXT
  5
253
100
AcDbEntity
  8
0
100
AcDbMText
 62
7
  6
CONTINUOUS
  7
TEXTSTYLE_2
 71
2
 72
1
 10
15.395
 20
0.787
 30
0.0
 11
1.0
 21
0.0
 31
0.0
 44
0.9
  1
1
 40
0.1
 41
0.08
  0
MTEXT
  5
254
100
AcDbEntity
  8
0
100
AcDbMText
 62
7
  6
CONTINUOUS
  7
TEXTSTYLE_2
 71
3
 72
1
 10
0.52
 20
4.3995
 30
0.0
 11
1.0
 21
0.0
 31
0.0
 44
0.9
  1
B
 40
0.1
 41
0.08
  0
MTEXT
  5
255
100
AcDbEntity
  8
0
100
AcDbMText
 62
7
  6
CONTINUOUS
  7
TEXTSTYLE_2
 71
3
 72
1
 10
0.52
 20
2.0995
 30
0.0
 11
1.0
 21
0.0
 31
0.0
 44
0.9
  1
A
 40
0.1
 41
0.08
  0
MTEXT
  5
256
100
AcDbEntity
  8
0
100
AcDbMText
 62
7
  6
CONTINUOUS
  7
TEXTSTYLE_2
 71
3
 72
1
 10
0.52
 20
8.9995
 30
0.0
 11
1.0
 21
0.0
 31
0.0
 44
0.9
  1
D
 40
0.1
 41
0.08
  0
MTEXT
  5
257
100
AcDbEntity
  8
0
100
AcDbMText
 62
7
  6
CONTINUOUS
  7
TEXTSTYLE_2
 71
3
 72
1
 10
0.52
 20
6.6995
 30
0.0
 11
1.0
 21
0.0
 31
0.0
 44
0.9
  1
C
 40
0.1
 41
0.08
  0
MTEXT
  5
258
100
AcDbEntity
  8
0
100
AcDbMText
 62
7
  6
CONTINUOUS
  7
TEXTSTYLE_2
 71
1
 72
1
 10
16.48
 20
8.9995
 30
0.0
 11
1.0
 21
0.0
 31
0.0
 44
0.9
  1
D
 40
0.1
 41
0.08
  0
MTEXT
  5
259
100
AcDbEntity
  8
0
100
AcDbMText
 62
7
  6
CONTINUOUS
  7
TEXTSTYLE_2
 71
1
 72
1
 10
16.48
 20
6.6995
 30
0.0
 11
1.0
 21
0.0
 31
0.0
 44
0.9
  1
C
 40
0.1
 41
0.08
  0
MTEXT
  5
25A
100
AcDbEntity
  8
0
100
AcDbMText
 62
7
  6
CONTINUOUS
  7
TEXTSTYLE_2
 71
1
 72
1
 10
16.48
 20
4.3995
 30
0.0
 11
1.0
 21
0.0
 31
0.0
 44
0.9
  1
B
 40
0.1
 41
0.08
  0
MTEXT
  5
25B
100
AcDbEntity
  8
0
100
AcDbMText
 62
7
  6
CONTINUOUS
  7
TEXTSTYLE_2
 71
1
 72
1
 10
16.48
 20
2.0995
 30
0.0
 11
1.0
 21
0.0
 31
0.0
 44
0.9
  1
A
 40
0.1
 41
0.08
  0
MTEXT
  5
25C
100
AcDbEntity
  8
0
100
AcDbMText
 62
7
  6
CONTINUOUS
  7
STANDARD
 71
1
 72
1
 10
14.819264911
 20
1.0627941725
 30
0.0
 11
1.0
 21
0.0
 31
0.0
 44
0.9
  1
1 OF 1
 40
0.1
 41
0.6
  0
MTEXT
  5
25D
100
AcDbEntity
  8
0
100
AcDbMText
 62
7
  6
CONTINUOUS
  7
STANDARD
 71
1
 72
1
 10
13.8911999818
 20
1.3747321586
 30
0.0
 11
1.0
 21
0.0
 31
0.0
 44
0.9
  1
200650
 40
0.12
 41
0.72
  0
MTEXT
  5
25E
100
AcDbEntity
  8
0
100
AcDbMText
 62
7
  6
CONTINUOUS
  7
STANDARD
 71
1
 72
1
 10
12.644264911
 20
1.0627941725
 30
0.0
 11
1.0
 21
0.0
 31
0.0
 44
0.9
  1
1:1
 40
0.1
 41
0.3
  0
MTEXT
  5
25F
100
AcDbEntity
  8
0
100
AcDbMText
 62
7
  6
CONTINUOUS
  7
STANDARD
 71
1
 72
1
 10
0.8489354566
 20
1.4938330621
 30
0.0
 11
1.0
 21
0.0
 31
0.0
 44
0.9
  1
NOTES:\P1. ALL DIMENSIONS ARE MILLIMETERS [INCHES] UNLESS OTHERWISE NOTED.\P2. REFER TO "www.bannerengineering.com" FOR ADDITIONAL DATA AND SPECIFICATIONS.
 40
0.1
 41
7.9
  0
MTEXT
  5
260
100
AcDbEntity
  8
0
100
AcDbMText
 62
7
  6
CONTINUOUS
  7
TEXTSTYLE_5
 71
2
 72
1
 10
11.0519651892
 20
2.0334024775
 30
0.0
 11
1.0
 21
0.0
 31
0.0
 44
0.9
  1
C  2015 Banner Engineering Corp.
 40
0.08
 41
1.92
  0
HATCH
  5
261
100
AcDbEntity
  8
0
100
AcDbHatch
 62
7
  6
CONTINUOUS
 10
0.0
 20
0.0
 30
0.0
210
0.0
220
0.0
230
1.0
  2
default__1
 70
0
 71
0
 91
2
 92
1
 93
4
 72
1
 10
7.9542545088
 20
6.6481499851
 11
7.9542545088
 21
6.8292523473
 72
1
 10
8.0172466348
 20
6.8292523473
 11
7.9542545088
 21
6.8292523473
 72
1
 10
8.0172466348
 20
6.6481499851
 11
8.0172466348
 21
6.8292523473
 72
1
 10
8.0172466348
 20
6.6481499851
 11
7.9542545088
 21
6.6481499851
 97
0
 92
1
 93
4
 72
1
 10
7.9542545088
 20
5.2583862056
 11
7.9542545088
 21
5.4394885678
 72
1
 10
8.0172466348
 20
5.4394885678
 11
7.9542545088
 21
5.4394885678
 72
1
 10
8.0172466348
 20
5.2583862056
 11
8.0172466348
 21
5.4394885678
 72
1
 10
8.0172466348
 20
5.2583862056
 11
7.9542545088
 21
5.2583862056
 97
0
 75
0
 76
0
 52
285.0
 41
0.0359550612
 77
0
 78
1
 53
285.0
 43
0.0
 44
0.0
 45
0.0347299222
 46
0.0093058546
 79
0
 98
1
 10
0.0
 20
0.0
  0
HATCH
  5
262
100
AcDbEntity
  8
0
100
AcDbHatch
 62
7
  6
CONTINUOUS
 10
0.0
 20
0.0
 30
0.0
210
0.0
220
0.0
230
1.0
  2
default__2
 70
0
 71
0
 91
2
 92
1
 93
77
 72
1
 10
6.2711836427
 20
6.4690161268
 11
6.2711836427
 21
6.482426925
 72
2
 10
6.3105537214
 20
6.482426925
 40
0.0393700787
 50
117.1022040447
 51
180.0000000021
 73
1
 72
2
 10
8.0040885041
 20
3.1732836829
 40
3.7566929134
 50
90.760060351
 51
117.1022040449
 73
1
 72
1
 10
7.9542545088
 20
6.9297092299
 11
8.072364745
 21
6.9297092299
 72
2
 10
8.072364745
 20
6.9178982063
 40
0.0118110236
 50
301.2016442532
 51
90.0
 73
1
 72
2
 10
8.1600663864
 20
6.7730949625
 40
0.157480315
 50
121.2016442532
 51
150.3896191446
 73
1
 72
1
 10
7.9542545088
 20
6.8509058906
 11
8.0231521466
 21
6.8509058906
 72
1
 10
7.9542545088
 20
6.6442129772
 11
7.9542545088
 21
6.8509058906
 72
1
 10
7.6097663199
 20
6.6442129772
 11
7.9542545088
 21
6.6442129772
 72
1
 10
7.5576056887
 20
6.6442129772
 11
7.6097663199
 21
6.6442129772
 72
1
 10
7.5507112017
 20
6.6442129772
 11
7.5576056887
 21
6.6442129772
 72
1
 10
7.5283218311
 20
6.6054334497
 11
7.5507112017
 21
6.6442129772
 72
1
 10
7.5209399413
 20
6.6054334497
 11
7.5283218311
 21
6.6054334497
 72
1
 10
7.4985505706
 20
6.6442129772
 11
7.5209399413
 21
6.6054334497
 72
1
 10
7.4916560836
 20
6.6442129772
 11
7.4985505706
 21
6.6442129772
 72
1
 10
7.469266713
 20
6.6054334497
 11
7.4916560836
 21
6.6442129772
 72
1
 10
7.4618848232
 20
6.6054334497
 11
7.469266713
 21
6.6054334497
 72
1
 10
7.4394954525
 20
6.6442129772
 11
7.4618848232
 21
6.6054334497
 72
1
 10
7.4326009655
 20
6.6442129772
 11
7.4394954525
 21
6.6442129772
 72
1
 10
7.4102115948
 20
6.6054334497
 11
7.4326009655
 21
6.6442129772
 72
1
 10
7.4028297051
 20
6.6054334497
 11
7.4102115948
 21
6.6054334497
 72
1
 10
7.3804403344
 20
6.6442129772
 11
7.4028297051
 21
6.6054334497
 72
1
 10
7.3735458474
 20
6.6442129772
 11
7.3804403344
 21
6.6442129772
 72
1
 10
7.3511564767
 20
6.6054334497
 11
7.3735458474
 21
6.6442129772
 72
1
 10
7.343774587
 20
6.6054334497
 11
7.3511564767
 21
6.6054334497
 72
1
 10
7.3213852163
 20
6.6442129772
 11
7.343774587
 21
6.6054334497
 72
1
 10
7.3144907293
 20
6.6442129772
 11
7.3213852163
 21
6.6442129772
 72
1
 10
7.2921013586
 20
6.6054334497
 11
7.3144907293
 21
6.6442129772
 72
1
 10
7.2847194689
 20
6.6054334497
 11
7.2921013586
 21
6.6054334497
 72
1
 10
7.2623300982
 20
6.6442129772
 11
7.2847194689
 21
6.6054334497
 72
1
 10
7.2554356112
 20
6.6442129772
 11
7.2623300982
 21
6.6442129772
 72
1
 10
7.2330462405
 20
6.6054334497
 11
7.2554356112
 21
6.6442129772
 72
1
 10
7.2256643508
 20
6.6054334497
 11
7.2330462405
 21
6.6054334497
 72
1
 10
7.2032749801
 20
6.6442129772
 11
7.2256643508
 21
6.6054334497
 72
1
 10
7.1963804931
 20
6.6442129772
 11
7.2032749801
 21
6.6442129772
 72
1
 10
7.1739911224
 20
6.6054334497
 11
7.1963804931
 21
6.6442129772
 72
1
 10
7.1666092326
 20
6.6054334497
 11
7.1739911224
 21
6.6054334497
 72
1
 10
7.144219862
 20
6.6442129772
 11
7.1666092326
 21
6.6054334497
 72
1
 10
7.137325375
 20
6.6442129772
 11
7.144219862
 21
6.6442129772
 72
1
 10
7.137325375
 20
6.4690161268
 11
7.137325375
 21
6.6442129772
 72
1
 10
7.1108911792
 20
6.4690161268
 11
7.137325375
 21
6.4690161268
 72
1
 10
7.0827737665
 20
6.4203153394
 11
7.1108911792
 21
6.4690161268
 72
1
 10
7.0738367587
 20
6.4203153394
 11
7.0827737665
 21
6.4203153394
 72
1
 10
7.0457193459
 20
6.4690161268
 11
7.0738367587
 21
6.4203153394
 72
1
 10
7.0394626078
 20
6.4690161268
 11
7.0457193459
 21
6.4690161268
 72
1
 10
7.0113451951
 20
6.4203153394
 11
7.0394626078
 21
6.4690161268
 72
1
 10
7.0024081872
 20
6.4203153394
 11
7.0113451951
 21
6.4203153394
 72
1
 10
6.9742907745
 20
6.4690161268
 11
7.0024081872
 21
6.4203153394
 72
1
 10
6.9680340364
 20
6.4690161268
 11
6.9742907745
 21
6.4690161268
 72
1
 10
6.9399166237
 20
6.4203153394
 11
6.9680340364
 21
6.4690161268
 72
1
 10
6.9309796158
 20
6.4203153394
 11
6.9399166237
 21
6.4203153394
 72
1
 10
6.9028622031
 20
6.4690161268
 11
6.9309796158
 21
6.4203153394
 72
1
 10
6.896605465
 20
6.4690161268
 11
6.9028622031
 21
6.4690161268
 72
1
 10
6.8684880522
 20
6.4203153394
 11
6.896605465
 21
6.4690161268
 72
1
 10
6.8595510444
 20
6.4203153394
 11
6.8684880522
 21
6.4203153394
 72
1
 10
6.8314336317
 20
6.4690161268
 11
6.8595510444
 21
6.4203153394
 72
1
 10
6.8251768935
 20
6.4690161268
 11
6.8314336317
 21
6.4690161268
 72
1
 10
6.7970594808
 20
6.4203153394
 11
6.8251768935
 21
6.4690161268
 72
1
 10
6.7881224729
 20
6.4203153394
 11
6.7970594808
 21
6.4203153394
 72
1
 10
6.7600050602
 20
6.4690161268
 11
6.7881224729
 21
6.4203153394
 72
1
 10
6.7537483221
 20
6.4690161268
 11
6.7600050602
 21
6.4690161268
 72
1
 10
6.7256309094
 20
6.4203153394
 11
6.7537483221
 21
6.4690161268
 72
1
 10
6.7166939015
 20
6.4203153394
 11
6.7256309094
 21
6.4203153394
 72
1
 10
6.6885764888
 20
6.4690161268
 11
6.7166939015
 21
6.4203153394
 72
1
 10
6.6823197507
 20
6.4690161268
 11
6.6885764888
 21
6.4690161268
 72
1
 10
6.654202338
 20
6.4203153394
 11
6.6823197507
 21
6.4690161268
 72
1
 10
6.6452653301
 20
6.4203153394
 11
6.654202338
 21
6.4203153394
 72
1
 10
6.6171479174
 20
6.4690161268
 11
6.6452653301
 21
6.4203153394
 72
1
 10
6.6108911792
 20
6.4690161268
 11
6.6171479174
 21
6.4690161268
 72
1
 10
6.5827737665
 20
6.4203153394
 11
6.6108911792
 21
6.4690161268
 72
1
 10
6.5738367587
 20
6.4203153394
 11
6.5827737665
 21
6.4203153394
 72
1
 10
6.5457193459
 20
6.4690161268
 11
6.5738367587
 21
6.4203153394
 72
1
 10
6.5394626078
 20
6.4690161268
 11
6.5457193459
 21
6.4690161268
 72
1
 10
6.5113451951
 20
6.4203153394
 11
6.5394626078
 21
6.4690161268
 72
1
 10
6.5024081872
 20
6.4203153394
 11
6.5113451951
 21
6.4203153394
 72
1
 10
6.4742907745
 20
6.4690161268
 11
6.5024081872
 21
6.4203153394
 72
1
 10
6.4742907745
 20
6.4690161268
 11
6.2711836427
 21
6.4690161268
 97
0
 92
1
 93
77
 72
1
 10
6.2711836427
 20
5.6052116278
 11
6.2711836427
 21
5.618622426
 72
1
 10
6.2711836427
 20
5.618622426
 11
6.4385764888
 21
5.618622426
 72
1
 10
6.4666939015
 20
5.6673232134
 11
6.4385764888
 21
5.618622426
 72
1
 10
6.4756309094
 20
5.6673232134
 11
6.4666939015
 21
5.6673232134
 72
1
 10
6.5037483221
 20
5.618622426
 11
6.4756309094
 21
5.6673232134
 72
1
 10
6.5037483221
 20
5.618622426
 11
6.5100050602
 21
5.618622426
 72
1
 10
6.5381224729
 20
5.6673232134
 11
6.5100050602
 21
5.618622426
 72
1
 10
6.5470594808
 20
5.6673232134
 11
6.5381224729
 21
5.6673232134
 72
1
 10
6.5751768935
 20
5.618622426
 11
6.5470594808
 21
5.6673232134
 72
1
 10
6.5751768935
 20
5.618622426
 11
6.5814336317
 21
5.618622426
 72
1
 10
6.6095510444
 20
5.6673232134
 11
6.5814336317
 21
5.618622426
 72
1
 10
6.6184880522
 20
5.6673232134
 11
6.6095510444
 21
5.6673232134
 72
1
 10
6.646605465
 20
5.618622426
 11
6.6184880522
 21
5.6673232134
 72
1
 10
6.646605465
 20
5.618622426
 11
6.6528622031
 21
5.618622426
 72
1
 10
6.6809796158
 20
5.6673232134
 11
6.6528622031
 21
5.618622426
 72
1
 10
6.6899166237
 20
5.6673232134
 11
6.6809796158
 21
5.6673232134
 72
1
 10
6.7180340364
 20
5.618622426
 11
6.6899166237
 21
5.6673232134
 72
1
 10
6.7180340364
 20
5.618622426
 11
6.7242907745
 21
5.618622426
 72
1
 10
6.7524081872
 20
5.6673232134
 11
6.7242907745
 21
5.618622426
 72
1
 10
6.7613451951
 20
5.6673232134
 11
6.7524081872
 21
5.6673232134
 72
1
 10
6.7894626078
 20
5.618622426
 11
6.7613451951
 21
5.6673232134
 72
1
 10
6.7894626078
 20
5.618622426
 11
6.7957193459
 21
5.618622426
 72
1
 10
6.8238367587
 20
5.6673232134
 11
6.7957193459
 21
5.618622426
 72
1
 10
6.8327737665
 20
5.6673232134
 11
6.8238367587
 21
5.6673232134
 72
1
 10
6.8608911792
 20
5.618622426
 11
6.8327737665
 21
5.6673232134
 72
1
 10
6.8608911792
 20
5.618622426
 11
6.8671479174
 21
5.618622426
 72
1
 10
6.8952653301
 20
5.6673232134
 11
6.8671479174
 21
5.618622426
 72
1
 10
6.904202338
 20
5.6673232134
 11
6.8952653301
 21
5.6673232134
 72
1
 10
6.9323197507
 20
5.618622426
 11
6.904202338
 21
5.6673232134
 72
1
 10
6.9323197507
 20
5.618622426
 11
6.9385764888
 21
5.618622426
 72
1
 10
6.9666939015
 20
5.6673232134
 11
6.9385764888
 21
5.618622426
 72
1
 10
6.9756309094
 20
5.6673232134
 11
6.9666939015
 21
5.6673232134
 72
1
 10
7.0037483221
 20
5.618622426
 11
6.9756309094
 21
5.6673232134
 72
1
 10
7.0037483221
 20
5.618622426
 11
7.0100050602
 21
5.618622426
 72
1
 10
7.0381224729
 20
5.6673232134
 11
7.0100050602
 21
5.618622426
 72
1
 10
7.0470594808
 20
5.6673232134
 11
7.0381224729
 21
5.6673232134
 72
1
 10
7.0751768935
 20
5.618622426
 11
7.0470594808
 21
5.6673232134
 72
1
 10
7.0751768935
 20
5.618622426
 11
7.137325375
 21
5.618622426
 72
1
 10
7.137325375
 20
5.4822051032
 11
7.137325375
 21
5.618622426
 72
1
 10
7.1444635633
 20
5.4822051032
 11
7.137325375
 21
5.4822051032
 72
1
 10
7.166852934
 20
5.4434255756
 11
7.1444635633
 21
5.4822051032
 72
1
 10
7.166852934
 20
5.4434255756
 11
7.173747421
 21
5.4434255756
 72
1
 10
7.1961367917
 20
5.4822051032
 11
7.173747421
 21
5.4434255756
 72
1
 10
7.2035186815
 20
5.4822051032
 11
7.1961367917
 21
5.4822051032
 72
1
 10
7.2259080521
 20
5.4434255756
 11
7.2035186815
 21
5.4822051032
 72
1
 10
7.2259080521
 20
5.4434255756
 11
7.2328025391
 21
5.4434255756
 72
1
 10
7.2551919098
 20
5.4822051032
 11
7.2328025391
 21
5.4434255756
 72
1
 10
7.2625737996
 20
5.4822051032
 11
7.2551919098
 21
5.4822051032
 72
1
 10
7.2849631702
 20
5.4434255756
 11
7.2625737996
 21
5.4822051032
 72
1
 10
7.2849631702
 20
5.4434255756
 11
7.2918576572
 21
5.4434255756
 72
1
 10
7.3142470279
 20
5.4822051032
 11
7.2918576572
 21
5.4434255756
 72
1
 10
7.3216289177
 20
5.4822051032
 11
7.3142470279
 21
5.4822051032
 72
1
 10
7.3440182884
 20
5.4434255756
 11
7.3216289177
 21
5.4822051032
 72
1
 10
7.3440182884
 20
5.4434255756
 11
7.3509127754
 21
5.4434255756
 72
1
 10
7.373302146
 20
5.4822051032
 11
7.3509127754
 21
5.4434255756
 72
1
 10
7.3806840358
 20
5.4822051032
 11
7.373302146
 21
5.4822051032
 72
1
 10
7.4030734065
 20
5.4434255756
 11
7.3806840358
 21
5.4822051032
 72
1
 10
7.4030734065
 20
5.4434255756
 11
7.4099678935
 21
5.4434255756
 72
1
 10
7.4323572641
 20
5.4822051032
 11
7.4099678935
 21
5.4434255756
 72
1
 10
7.4397391539
 20
5.4822051032
 11
7.4323572641
 21
5.4822051032
 72
1
 10
7.4621285246
 20
5.4434255756
 11
7.4397391539
 21
5.4822051032
 72
1
 10
7.4621285246
 20
5.4434255756
 11
7.4690230116
 21
5.4434255756
 72
1
 10
7.4914123822
 20
5.4822051032
 11
7.4690230116
 21
5.4434255756
 72
1
 10
7.498794272
 20
5.4822051032
 11
7.4914123822
 21
5.4822051032
 72
1
 10
7.5211836427
 20
5.4434255756
 11
7.498794272
 21
5.4822051032
 72
1
 10
7.5211836427
 20
5.4434255756
 11
7.5280781297
 21
5.4434255756
 72
1
 10
7.5504675004
 20
5.4822051032
 11
7.5280781297
 21
5.4434255756
 72
1
 10
7.5578493901
 20
5.4822051032
 11
7.5504675004
 21
5.4822051032
 72
1
 10
7.5802387608
 20
5.4434255756
 11
7.5578493901
 21
5.4822051032
 72
1
 10
7.5802387608
 20
5.4434255756
 11
7.9542545088
 21
5.4434255756
 72
1
 10
7.9542545088
 20
5.2367326623
 11
7.9542545088
 21
5.4434255756
 72
1
 10
7.9542545088
 20
5.2367326623
 11
8.0231521466
 21
5.2367326623
 72
2
 10
8.1600663864
 20
5.3145435904
 40
0.157480315
 50
209.6103808554
 51
238.7983557468
 73
1
 72
2
 10
8.072364745
 20
5.1697403466
 40
0.0118110236
 50
270.0
 51
58.7983557468
 73
1
 72
1
 10
7.9542545088
 20
5.157929323
 11
8.072364745
 21
5.157929323
 72
2
 10
8.0040885041
 20
8.9143548699
 40
3.7566929134
 50
242.8977959551
 51
269.239939649
 73
1
 72
2
 10
6.3105537214
 20
5.6052116278
 40
0.0393700787
 50
179.9999999979
 51
242.8977959553
 73
1
 97
0
 75
0
 76
0
 52
45.0
 41
0.0425
 77
0
 78
1
 53
45.0
 43
0.0
 44
0.0
 45
-0.0300520382
 46
0.0300520382
 79
0
 98
1
 10
0.0
 20
0.0
  0
MTEXT
  5
263
100
AcDbEntity
  8
0
100
AcDbMText
 62
7
  6
CONTINUOUS
  7
STANDARD
 71
1
 72
1
 10
2.5739242023
 20
7.207692133
 30
0.0
 11
1.0
 21
0.0
 31
0.0
 44
0.9
  1
A
 40
0.15
 41
0.15
  0
LEADER
  5
264
100
AcDbEntity
  8
0
100
AcDbLeader
 62
7
  6
CONTINUOUS
  3
STANDARD
 71
1
 72
0
 73
3
 75
0
 76
2
 10
2.7989242023
 20
7.132692133
 30
0.0
 10
3.3068547216
 20
7.132692133
 30
0.0
1001
ACAD
1000
DSTYLE
1002
{
1070
77
1070
0
1070
41
1040
0.32
1002
}
  0
MTEXT
  5
265
100
AcDbEntity
  8
0
100
AcDbMText
 62
7
  6
CONTINUOUS
  7
STANDARD
 71
1
 72
1
 10
2.5739242023
 20
4.9766035254
 30
0.0
 11
1.0
 21
0.0
 31
0.0
 44
0.9
  1
A
 40
0.15
 41
0.15
  0
LEADER
  5
266
100
AcDbEntity
  8
0
100
AcDbLeader
 62
7
  6
CONTINUOUS
  3
STANDARD
 71
1
 72
0
 73
3
 75
0
 76
2
 10
2.7989242023
 20
4.9016035254
 30
0.0
 10
3.3068547216
 20
4.9016035254
 30
0.0
1001
ACAD
1000
DSTYLE
1002
{
1070
77
1070
0
1070
41
1040
0.32
1002
}
  0
DIMENSION
  5
267
100
AcDbEntity
  8
DRIVEN_DIMS
100
AcDbDimension
 62
7
  6
CONTINUOUS
  2
*D0
 10
2.7133309844
 20
6.7014047557
 11
1.723304527
 21
7.040062983
 70
163
 71
3
 42
45.0000005648
  1
%%c<>\P[]
  3
DIMSTYLE_1
100
AcDbDiametricDimension
 15
3.9003784587
 25
5.3862337972
  0
DIMENSION
  5
268
100
AcDbEntity
  8
SCHEME_DIMS
100
AcDbDimension
 62
7
  6
CONTINUOUS
  2
*D1
 10
7.137325375
 20
7.4756636626
 11
7.6107505718
 21
7.4006636626
 70
160
 71
2
 42
24.05
  1
<>\P[]
  3
DIMSTYLE_2
100
AcDbAlignedDimension
 13
8.0841757687
 23
6.9178982063
 14
7.137325375
 24
6.6442129772
 50
180.0
100
AcDbRotatedDimension
  0
DIMENSION
  5
269
100
AcDbEntity
  8
SCHEME_DIMS
100
AcDbDimension
 62
7
  6
CONTINUOUS
  2
*D2
 10
6.2711836427
 20
8.0238389819
 11
7.1776797057
 21
7.9488389819
 70
160
 71
2
 42
46.05
  1
<>\P[]
  3
DIMSTYLE_2
100
AcDbAlignedDimension
 13
8.0841757687
 23
6.9178982063
 14
6.2711836427
 24
6.4690161268
 50
180.0
100
AcDbRotatedDimension
  0
ACAD_TABLE
  5
26A
100
AcDbEntity
  8
0
 62
7
  6
CONTINUOUS
100
AcDbBlockReference
  2
*T1
 10
12.03
 20
0.887
 30
0.0
100
AcDbTable
342
       577
343
211
 11
1.0
 21
0.0
 31
0.0
 90
6
 91
3
 92
5
 93
4
 94
0
 95
0
 96
0
 70
1
141
0.33
141
0.45
141
1.14
142
0.65
142
1.15
142
1.025
142
1.075
142
0.45
171
1
172
0
173
0
174
0
175
1
176
1
 91
33
178
0
145
0.0
301
CELL_VALUE
 90
4
  1
 
304
ACVALUE_END
170
1
140
0.1
171
1
172
0
173
0
174
0
175
1
176
1
 91
33
178
0
145
0.0
301
CELL_VALUE
 90
4
  1
 
304
ACVALUE_END
170
1
140
0.1
171
1
172
0
173
0
174
0
175
1
176
1
 91
33
178
0
145
0.0
301
CELL_VALUE
 90
4
  1
 
304
ACVALUE_END
170
1
140
0.1
171
1
172
0
173
0
174
0
175
1
176
1
 91
33
178
0
145
0.0
301
CELL_VALUE
 90
4
  1
 
304
ACVALUE_END
170
1
140
0.1
171
1
172
0
173
0
174
0
175
1
176
1
 91
33
178
0
145
0.0
301
CELL_VALUE
 90
4
  1
 
304
ACVALUE_END
170
1
140
0.1
171
1
172
0
173
0
174
0
175
1
176
1
 91
33
178
0
145
0.0
301
CELL_VALUE
 90
4
  1
 
304
ACVALUE_END
170
1
140
0.1
171
1
172
0
173
0
174
0
175
1
176
1
 91
33
178
0
145
0.0
301
CELL_VALUE
 90
4
  1
 
304
ACVALUE_END
170
1
140
0.1
171
1
172
0
173
0
174
0
175
1
176
1
 91
33
178
0
145
0.0
301
CELL_VALUE
 90
4
  1
 
304
ACVALUE_END
170
1
140
0.1
171
1
172
0
173
0
174
0
175
1
176
1
 91
33
178
0
145
0.0
301
CELL_VALUE
 90
4
  1
 
304
ACVALUE_END
170
1
140
0.1
171
1
172
0
173
0
174
0
175
1
176
1
 91
41
178
0
145
0.0
301
CELL_VALUE
 90
4
  1
A
304
ACVALUE_END
170
8
140
0.1
 64
7
171
1
172
0
173
0
174
0
175
5
176
1
 91
33
178
0
145
0.0
301
CELL_VALUE
 90
4
  1
SA-M30TE12-803147
304
ACVALUE_END
170
8
140
0.1
171
1
172
0
173
1
174
0
175
1
176
1
 91
1
178
0
145
0.0
170
1
171
1
172
0
173
1
174
0
175
1
176
1
 91
1
178
0
145
0.0
170
1
171
1
172
0
173
1
174
0
175
1
176
1
 91
1
178
0
145
0.0
170
1
171
1
172
0
173
1
174
0
175
1
176
1
 91
1
178
0
145
0.0
170
8
  0
LEADER
  5
26B
100
AcDbEntity
  8
NOTES
100
AcDbLeader
 62
7
  6
CONTINUOUS
  3
STANDARD
 71
1
 72
0
 73
0
 75
0
 40
0.1
 41
0.9
 76
3
 10
7.5397991424
 20
5.4637269651
 30
0.0
 10
8.0338288075
 20
4.5710048196
 30
0.0
 10
8.2838288075
 20
4.5710048196
 30
0.0
340
26C
1001
ACAD
1000
DSTYLE
1002
{
1070
77
1070
0
1002
}
  0
MTEXT
  5
26C
102
{ACAD_REACTORS
330
26B
102
}
100
AcDbEntity
  8
NOTES
100
AcDbMText
 62
7
  6
CONTINUOUS
  7
STANDARD
 71
1
 72
1
 10
8.2838288075
 20
4.6210048196
 30
0.0
 11
1.0
 21
0.0
 31
0.0
 44
0.9
  1
M30 X 1.5
 40
0.1
 41
0.9
  0
LEADER
  5
26D
100
AcDbEntity
  8
NOTES
100
AcDbLeader
 62
7
  6
CONTINUOUS
  3
STANDARD
 71
1
 72
0
 73
0
 75
0
 40
0.1
 41
0.6
 76
3
 10
8.0172466348
 20
6.7498975961
 30
0.0
 10
8.4654234291
 20
6.0842150273
 30
0.0
 10
8.7154234291
 20
6.0842150273
 30
0.0
340
26E
1001
ACAD
1000
DSTYLE
1002
{
1070
77
1070
0
1002
}
  0
MTEXT
  5
26E
102
{ACAD_REACTORS
330
26D
102
}
100
AcDbEntity
  8
NOTES
100
AcDbMText
 62
7
  6
CONTINUOUS
  7
STANDARD
 71
1
 72
1
 10
8.7154234291
 20
6.1342150273
 30
0.0
 11
1.0
 21
0.0
 31
0.0
 44
0.9
  1
WASHER\PBUNA-N 70\PDUROMETER
 40
0.1
 41
0.9
  0
LEADER
  5
26F
100
AcDbEntity
  8
NOTES
100
AcDbLeader
 62
7
  6
CONTINUOUS
  3
STANDARD
 71
1
 72
0
 73
0
 75
0
 40
0.1
 41
1.3
 76
3
 10
6.7180340364
 20
5.618622426
 30
0.0
 10
6.5182862846
 20
4.531625049
 30
0.0
 10
6.2682862846
 20
4.531625049
 30
0.0
340
270
1001
ACAD
1000
DSTYLE
1002
{
1070
77
1070
0
1002
}
  0
MTEXT
  5
270
102
{ACAD_REACTORS
330
26F
102
}
100
AcDbEntity
  8
NOTES
100
AcDbMText
 62
7
  6
CONTINUOUS
  7
STANDARD
 71
3
 72
1
 10
6.2682862846
 20
4.581625049
 30
0.0
 11
1.0
 21
0.0
 31
0.0
 44
0.9
  1
1/2 - 14 NPSM
 40
0.1
 41
1.3
  0
LINE
  5
271
100
AcDbEntity
  8
0
100
AcDbLine
 62
7
  6
CONTINUOUS
 10
0.47
 20
5.586103
 11
0.47
 21
5.412897
  0
LINE
  5
272
100
AcDbEntity
  8
0
100
AcDbLine
 62
7
  6
CONTINUOUS
 10
0.62
 20
10.112
 11
0.62
 21
0.887
  0
LINE
  5
273
100
AcDbEntity
  8
0
100
AcDbLine
 62
7
  6
CONTINUOUS
 10
2.59
 20
0.887
 11
2.59
 21
0.637
  0
LINE
  5
274
100
AcDbEntity
  8
0
100
AcDbLine
 62
7
  6
CONTINUOUS
 10
2.59
 20
10.112
 11
2.59
 21
10.362
  0
LINE
  5
275
100
AcDbEntity
  8
0
100
AcDbLine
 62
7
  6
CONTINUOUS
 10
8.413397
 20
0.737
 11
8.586603
 21
0.737
  0
LINE
  5
276
100
AcDbEntity
  8
0
100
AcDbLine
 62
7
  6
CONTINUOUS
 10
11.1389508475
 20
1.425992839
 11
11.7453418475
 21
1.495385839
  0
LINE
  5
277
100
AcDbEntity
  8
0
100
AcDbLine
 62
7
  6
CONTINUOUS
 10
0.62
 20
0.887
 11
16.38
 21
0.887
  0
LINE
  5
278
100
AcDbEntity
  8
0
100
AcDbLine
 62
7
  6
CONTINUOUS
 10
12.03
 20
1.137
 11
16.38
 21
1.137
  0
LINE
  5
279
100
AcDbEntity
  8
0
100
AcDbLine
 62
7
  6
CONTINUOUS
 10
10.2121898475
 20
1.243294839
 11
10.4342808475
 21
1.243294839
  0
LINE
  5
27A
100
AcDbEntity
  8
0
100
AcDbLine
 62
7
  6
CONTINUOUS
 10
10.4842808475
 20
1.243294839
 11
10.5842808475
 21
1.243294839
  0
LINE
  5
27B
100
AcDbEntity
  8
0
100
AcDbLine
 62
7
  6
CONTINUOUS
 10
10.6342808475
 20
1.243294839
 11
10.8563718475
 21
1.243294839
  0
LINE
  5
27C
100
AcDbEntity
  8
0
100
AcDbLine
 62
7
  6
CONTINUOUS
 10
11.0389508475
 20
1.243294839
 11
11.3171028475
 21
1.243294839
  0
LINE
  5
27D
100
AcDbEntity
  8
0
100
AcDbLine
 62
7
  6
CONTINUOUS
 10
11.3671028475
 20
1.243294839
 11
11.5171888475
 21
1.243294839
  0
LINE
  5
27E
100
AcDbEntity
  8
0
100
AcDbLine
 62
7
  6
CONTINUOUS
 10
11.5671888475
 20
1.243294839
 11
11.8453418475
 21
1.243294839
  0
LINE
  5
27F
100
AcDbEntity
  8
0
100
AcDbLine
 62
7
  6
CONTINUOUS
 10
11.7453418475
 20
0.991203839
 11
11.1389508475
 21
1.060596839
  0
LINE
  5
280
100
AcDbEntity
  8
0
100
AcDbLine
 62
7
  6
CONTINUOUS
 10
4.56
 20
0.887
 11
4.56
 21
0.637
  0
LINE
  5
281
100
AcDbEntity
  8
0
100
AcDbLine
 62
7
  6
CONTINUOUS
 10
4.56
 20
10.112
 11
4.56
 21
10.362
  0
LINE
  5
282
100
AcDbEntity
  8
0
100
AcDbLine
 62
7
  6
CONTINUOUS
 10
0.47
 20
5.412897
 11
0.62
 21
5.4995
  0
LINE
  5
283
100
AcDbEntity
  8
0
100
AcDbLine
 62
7
  6
CONTINUOUS
 10
12.03
 20
1.507
 11
16.38
 21
1.507
  0
LINE
  5
284
100
AcDbEntity
  8
0
100
AcDbLine
 62
7
  6
CONTINUOUS
 10
10.03
 20
1.907
 11
12.03
 21
1.907
  0
LINE
  5
285
100
AcDbEntity
  8
0
100
AcDbLine
 62
7
  6
CONTINUOUS
 10
0.62
 20
5.4995
 11
0.47
 21
5.586103
  0
LINE
  5
286
100
AcDbEntity
  8
0
100
AcDbLine
 62
7
  6
CONTINUOUS
 10
12.03
 20
2.267
 11
16.38
 21
2.267
  0
LINE
  5
287
100
AcDbEntity
  8
0
100
AcDbLine
 62
7
  6
CONTINUOUS
 10
13.6042588488
 20
2.4912273132
 11
13.5568948225
 21
2.4912273132
  0
LINE
  5
288
100
AcDbEntity
  8
0
100
AcDbLine
 62
7
  6
CONTINUOUS
 10
13.5130037982
 20
2.4912273132
 11
13.3994327352
 21
2.4912273132
  0
LINE
  5
289
100
AcDbEntity
  8
0
100
AcDbLine
 62
7
  6
CONTINUOUS
 10
13.3705287192
 20
2.4912273132
 11
13.1673166065
 21
2.4912273132
  0
LINE
  5
28A
100
AcDbEntity
  8
0
100
AcDbLine
 62
7
  6
CONTINUOUS
 10
13.1168435785
 20
2.4912273132
 11
13.0426375373
 21
2.4912273132
  0
LINE
  5
28B
100
AcDbEntity
  8
0
100
AcDbLine
 62
7
  6
CONTINUOUS
 10
12.9962575116
 20
2.4912273132
 11
12.9205934696
 21
2.4912273132
  0
LINE
  5
28C
100
AcDbEntity
  8
0
100
AcDbLine
 62
7
  6
CONTINUOUS
 10
12.8685904408
 20
2.4912273132
 11
12.7943853997
 21
2.4912273132
  0
LINE
  5
28D
100
AcDbEntity
  8
0
100
AcDbLine
 62
7
  6
CONTINUOUS
 10
12.7480043739
 20
2.4912273132
 11
12.672340332
 21
2.4912273132
  0
LINE
  5
28E
100
AcDbEntity
  8
0
100
AcDbLine
 62
7
  6
CONTINUOUS
 10
12.2055050731
 20
2.4912273132
 11
12.3819511709
 21
2.4912273132
  0
LINE
  5
28F
100
AcDbEntity
  8
0
100
AcDbLine
 62
7
  6
CONTINUOUS
 10
12.4394882028
 20
2.4912273132
 11
12.5168642458
 21
2.4912273132
  0
LINE
  5
290
100
AcDbEntity
  8
0
100
AcDbLine
 62
7
  6
CONTINUOUS
 10
12.537150257
 20
2.4912273132
 11
12.6424313154
 21
2.4912273132
  0
LINE
  5
291
100
AcDbEntity
  8
0
100
AcDbLine
 62
7
  6
CONTINUOUS
 10
13.4883447845
 20
2.5159553269
 11
13.5130037982
 21
2.5159553269
  0
LINE
  5
292
100
AcDbEntity
  8
0
100
AcDbLine
 62
7
  6
CONTINUOUS
 10
12.6424313154
 20
2.515977327
 11
12.6224153043
 21
2.515977327
  0
LINE
  5
293
100
AcDbEntity
  8
0
100
AcDbLine
 62
7
  6
CONTINUOUS
 10
12.551601265
 20
2.515977327
 11
12.537150257
 21
2.515977327
  0
LINE
  5
294
100
AcDbEntity
  8
0
100
AcDbLine
 62
7
  6
CONTINUOUS
 10
12.5168642458
 20
2.515977327
 11
12.5055812395
 21
2.515977327
  0
LINE
  5
295
100
AcDbEntity
  8
0
100
AcDbLine
 62
7
  6
CONTINUOUS
 10
12.4623492155
 20
2.515977327
 11
12.4394882028
 21
2.515977327
  0
LINE
  5
296
100
AcDbEntity
  8
0
100
AcDbLine
 62
7
  6
CONTINUOUS
 10
12.3362731456
 20
2.515977327
 11
12.2949101227
 21
2.515977327
  0
LINE
  5
297
100
AcDbEntity
  8
0
100
AcDbLine
 62
7
  6
CONTINUOUS
 10
12.2294470864
 20
2.515977327
 11
12.2055050731
 21
2.515977327
  0
LINE
  5
298
100
AcDbEntity
  8
0
100
AcDbLine
 62
7
  6
CONTINUOUS
 10
12.672340332
 20
2.515977327
 11
12.6909873423
 21
2.515977327
  0
LINE
  5
299
100
AcDbEntity
  8
0
100
AcDbLine
 62
7
  6
CONTINUOUS
 10
12.7276873627
 20
2.515977327
 11
12.7480043739
 21
2.515977327
  0
LINE
  5
29A
100
AcDbEntity
  8
0
100
AcDbLine
 62
7
  6
CONTINUOUS
 10
12.9205934696
 20
2.515977327
 11
12.93923948
 21
2.515977327
  0
LINE
  5
29B
100
AcDbEntity
  8
0
100
AcDbLine
 62
7
  6
CONTINUOUS
 10
12.9759405003
 20
2.515977327
 11
12.9962575116
 21
2.515977327
  0
LINE
  5
29C
100
AcDbEntity
  8
0
100
AcDbLine
 62
7
  6
CONTINUOUS
 10
13.1673166065
 20
2.515977327
 11
13.1912396197
 21
2.515977327
  0
LINE
  5
29D
100
AcDbEntity
  8
0
100
AcDbLine
 62
7
  6
CONTINUOUS
 10
13.2582556569
 20
2.515977327
 11
13.3232596929
 21
2.515977327
  0
LINE
  5
29E
100
AcDbEntity
  8
0
100
AcDbLine
 62
7
  6
CONTINUOUS
 10
13.3994327352
 20
2.515977327
 11
13.4221787478
 21
2.515977327
  0
LINE
  5
29F
100
AcDbEntity
  8
0
100
AcDbLine
 62
7
  6
CONTINUOUS
 10
13.6052818493
 20
2.5163643272
 11
13.60639085
 21
2.5163643272
  0
LINE
  5
2A0
100
AcDbEntity
  8
0
100
AcDbLine
 62
7
  6
CONTINUOUS
 10
13.3282096957
 20
2.5291773343
 11
13.3705287192
 21
2.5291773343
  0
LINE
  5
2A1
100
AcDbEntity
  8
0
100
AcDbLine
 62
7
  6
CONTINUOUS
 10
12.5110972426
 20
2.5296213345
 11
12.5459752619
 21
2.5296213345
  0
LINE
  5
2A2
100
AcDbEntity
  8
0
100
AcDbLine
 62
7
  6
CONTINUOUS
 10
13.6171458559
 20
2.5301143348
 11
13.6292558626
 21
2.5301143348
  0
LINE
  5
2A3
100
AcDbEntity
  8
0
100
AcDbLine
 62
7
  6
CONTINUOUS
 10
13.5159517998
 20
2.5306043351
 11
13.4883447845
 21
2.5306043351
  0
LINE
  5
2A4
100
AcDbEntity
  8
0
100
AcDbLine
 62
7
  6
CONTINUOUS
 10
13.2934226764
 20
2.5324773361
 11
13.2582556569
 21
2.5324773361
  0
LINE
  5
2A5
100
AcDbEntity
  8
0
100
AcDbLine
 62
7
  6
CONTINUOUS
 10
12.2949101227
 20
2.5333023366
 11
12.3362731456
 21
2.5333023366
  0
LINE
  5
2A6
100
AcDbEntity
  8
0
100
AcDbLine
 62
7
  6
CONTINUOUS
 10
13.5222818033
 20
2.5496073456
 11
13.4883447845
 21
2.5496073456
  0
LINE
  5
2A7
100
AcDbEntity
  8
0
100
AcDbLine
 62
7
  6
CONTINUOUS
 10
12.2949101227
 20
2.5499573458
 11
12.3362731456
 21
2.5499573458
  0
LINE
  5
2A8
100
AcDbEntity
  8
0
100
AcDbLine
 62
7
  6
CONTINUOUS
 10
12.5196132473
 20
2.5505713461
 11
12.5401702587
 21
2.5505713461
  0
LINE
  5
2A9
100
AcDbEntity
  8
0
100
AcDbLine
 62
7
  6
CONTINUOUS
 10
13.2582556569
 20
2.5507823463
 11
13.2934226764
 21
2.5507823463
  0
LINE
  5
2AA
100
AcDbEntity
  8
0
100
AcDbLine
 62
7
  6
CONTINUOUS
 10
13.3691097184
 20
2.5540823481
 11
13.3272456952
 21
2.5540823481
  0
LINE
  5
2AB
100
AcDbEntity
  8
0
100
AcDbLine
 62
7
  6
CONTINUOUS
 10
12.5329112547
 20
2.5667383551
 11
12.5267302512
 21
2.5667383551
  0
LINE
  5
2AC
100
AcDbEntity
  8
0
100
AcDbLine
 62
7
  6
CONTINUOUS
 10
13.4221787478
 20
2.5672823554
 11
13.3994327352
 21
2.5672823554
  0
LINE
  5
2AD
100
AcDbEntity
  8
0
100
AcDbLine
 62
7
  6
CONTINUOUS
 10
13.3222956924
 20
2.5672823554
 11
13.2582556569
 21
2.5672823554
  0
LINE
  5
2AE
100
AcDbEntity
  8
0
100
AcDbLine
 62
7
  6
CONTINUOUS
 10
13.1912396197
 20
2.5672823554
 11
13.1673166065
 21
2.5672823554
  0
LINE
  5
2AF
100
AcDbEntity
  8
0
100
AcDbLine
 62
7
  6
CONTINUOUS
 10
13.1397265912
 20
2.5672823554
 11
13.1217935812
 21
2.5672823554
  0
LINE
  5
2B0
100
AcDbEntity
  8
0
100
AcDbLine
 62
7
  6
CONTINUOUS
 10
13.0845015605
 20
2.5672823554
 11
13.0657255501
 21
2.5672823554
  0
LINE
  5
2B1
100
AcDbEntity
  8
0
100
AcDbLine
 62
7
  6
CONTINUOUS
 10
12.93923948
 20
2.5672823554
 11
12.9205934696
 21
2.5672823554
  0
LINE
  5
2B2
100
AcDbEntity
  8
0
100
AcDbLine
 62
7
  6
CONTINUOUS
 10
12.8914734535
 20
2.5672823554
 11
12.8735404436
 21
2.5672823554
  0
LINE
  5
2B3
100
AcDbEntity
  8
0
100
AcDbLine
 62
7
  6
CONTINUOUS
 10
12.8362484229
 20
2.5672823554
 11
12.8174724125
 21
2.5672823554
  0
LINE
  5
2B4
100
AcDbEntity
  8
0
100
AcDbLine
 62
7
  6
CONTINUOUS
 10
12.6909873423
 20
2.5672823554
 11
12.672340332
 21
2.5672823554
  0
LINE
  5
2B5
100
AcDbEntity
  8
0
100
AcDbLine
 62
7
  6
CONTINUOUS
 10
12.3362731456
 20
2.5672823554
 11
12.2949101227
 21
2.5672823554
  0
LINE
  5
2B6
100
AcDbEntity
  8
0
100
AcDbLine
 62
7
  6
CONTINUOUS
 10
12.2055050731
 20
2.5672823554
 11
12.2294470864
 21
2.5672823554
  0
LINE
  5
2B7
100
AcDbEntity
  8
0
100
AcDbLine
 62
7
  6
CONTINUOUS
 10
13.4883447845
 20
2.5672823554
 11
13.5251458049
 21
2.5672823554
  0
LINE
  5
2B8
100
AcDbEntity
  8
0
100
AcDbLine
 62
7
  6
CONTINUOUS
 10
12.5705042755
 20
2.5920323691
 11
12.5133292438
 21
2.5920323691
  0
LINE
  5
2B9
100
AcDbEntity
  8
0
100
AcDbLine
 62
7
  6
CONTINUOUS
 10
12.3715681652
 20
2.5920323691
 11
12.2055050731
 21
2.5920323691
  0
LINE
  5
2BA
100
AcDbEntity
  8
0
100
AcDbLine
 62
7
  6
CONTINUOUS
 10
12.672340332
 20
2.5920323691
 11
12.7727983877
 21
2.5920323691
  0
LINE
  5
2BB
100
AcDbEntity
  8
0
100
AcDbLine
 62
7
  6
CONTINUOUS
 10
12.8174724125
 20
2.5920323691
 11
12.8914734535
 21
2.5920323691
  0
LINE
  5
2BC
100
AcDbEntity
  8
0
100
AcDbLine
 62
7
  6
CONTINUOUS
 10
12.9205934696
 20
2.5920323691
 11
13.0210515254
 21
2.5920323691
  0
LINE
  5
2BD
100
AcDbEntity
  8
0
100
AcDbLine
 62
7
  6
CONTINUOUS
 10
13.0657255501
 20
2.5920323691
 11
13.1397265912
 21
2.5920323691
  0
LINE
  5
2BE
100
AcDbEntity
  8
0
100
AcDbLine
 62
7
  6
CONTINUOUS
 10
13.1673166065
 20
2.5920323691
 11
13.3691097184
 21
2.5920323691
  0
LINE
  5
2BF
100
AcDbEntity
  8
0
100
AcDbLine
 62
7
  6
CONTINUOUS
 10
13.3994327352
 20
2.5920323691
 11
13.5490138181
 21
2.5920323691
  0
LINE
  5
2C0
100
AcDbEntity
  8
0
100
AcDbLine
 62
7
  6
CONTINUOUS
 10
12.4008351814
 20
2.5375433389
 11
12.3907841758
 21
2.5410923409
  0
LINE
  5
2C1
100
AcDbEntity
  8
0
100
AcDbLine
 62
7
  6
CONTINUOUS
 10
12.7926763987
 20
2.4919113136
 11
12.7293963636
 21
2.5522893471
  0
LINE
  5
2C2
100
AcDbEntity
  8
0
100
AcDbLine
 62
7
  6
CONTINUOUS
 10
12.7745063886
 20
2.5913483688
 11
12.8345394219
 21
2.534068337
  0
LINE
  5
2C3
100
AcDbEntity
  8
0
100
AcDbLine
 62
7
  6
CONTINUOUS
 10
13.0409295364
 20
2.4919113136
 11
12.9776495013
 21
2.5522893471
  0
LINE
  5
2C4
100
AcDbEntity
  8
0
100
AcDbLine
 62
7
  6
CONTINUOUS
 10
13.0227595263
 20
2.5913483688
 11
13.0827925596
 21
2.534068337
  0
LINE
  5
2C5
100
AcDbEntity
  8
0
100
AcDbLine
 62
7
  6
CONTINUOUS
 10
12.548053263
 20
2.5284903339
 11
12.5536792662
 21
2.5197973291
  0
LINE
  5
2C6
100
AcDbEntity
  8
0
100
AcDbLine
 62
7
  6
CONTINUOUS
 10
12.5422482598
 20
2.5543913483
 11
12.5349892558
 21
2.5656073545
  0
LINE
  5
2C7
100
AcDbEntity
  8
0
100
AcDbLine
 62
7
  6
CONTINUOUS
 10
12.6203383031
 20
2.5171073276
 11
12.5725822767
 21
2.5909023685
  0
LINE
  5
2C8
100
AcDbEntity
  8
0
100
AcDbLine
 62
7
  6
CONTINUOUS
 10
12.2030300717
 20
2.5895573678
 11
12.2030300717
 21
2.5697573568
  0
LINE
  5
2C9
100
AcDbEntity
  8
0
100
AcDbLine
 62
7
  6
CONTINUOUS
 10
12.2030300717
 20
2.5135023256
 11
12.2030300717
 21
2.4937023146
  0
LINE
  5
2CA
100
AcDbEntity
  8
0
100
AcDbLine
 62
7
  6
CONTINUOUS
 10
12.2319220877
 20
2.564807354
 11
12.2319220877
 21
2.5184523283
  0
LINE
  5
2CB
100
AcDbEntity
  8
0
100
AcDbLine
 62
7
  6
CONTINUOUS
 10
12.2924351213
 20
2.564807354
 11
12.2924351213
 21
2.5524323472
  0
LINE
  5
2CC
100
AcDbEntity
  8
0
100
AcDbLine
 62
7
  6
CONTINUOUS
 10
12.2924351213
 20
2.5184523283
 11
12.2924351213
 21
2.5308273352
  0
LINE
  5
2CD
100
AcDbEntity
  8
0
100
AcDbLine
 62
7
  6
CONTINUOUS
 10
12.4370132015
 20
2.5135023256
 11
12.4370132015
 21
2.4937023146
  0
LINE
  5
2CE
100
AcDbEntity
  8
0
100
AcDbLine
 62
7
  6
CONTINUOUS
 10
12.5193392471
 20
2.4937023146
 11
12.5193392471
 21
2.5135023256
  0
LINE
  5
2CF
100
AcDbEntity
  8
0
100
AcDbLine
 62
7
  6
CONTINUOUS
 10
12.5346752556
 20
2.5135023256
 11
12.5346752556
 21
2.4937023146
  0
LINE
  5
2D0
100
AcDbEntity
  8
0
100
AcDbLine
 62
7
  6
CONTINUOUS
 10
12.6449063168
 20
2.4937023146
 11
12.6449063168
 21
2.5135023256
  0
LINE
  5
2D1
100
AcDbEntity
  8
0
100
AcDbLine
 62
7
  6
CONTINUOUS
 10
12.6698653306
 20
2.4937023146
 11
12.6698653306
 21
2.5135023256
  0
LINE
  5
2D2
100
AcDbEntity
  8
0
100
AcDbLine
 62
7
  6
CONTINUOUS
 10
12.6698653306
 20
2.5697573568
 11
12.6698653306
 21
2.5895573678
  0
LINE
  5
2D3
100
AcDbEntity
  8
0
100
AcDbLine
 62
7
  6
CONTINUOUS
 10
12.6934623437
 20
2.5184523283
 11
12.6934623437
 21
2.564807354
  0
LINE
  5
2D4
100
AcDbEntity
  8
0
100
AcDbLine
 62
7
  6
CONTINUOUS
 10
12.7252123613
 20
2.5504983461
 11
12.7252123613
 21
2.5184523283
  0
LINE
  5
2D5
100
AcDbEntity
  8
0
100
AcDbLine
 62
7
  6
CONTINUOUS
 10
13.5375908118
 20
2.5092733232
 11
13.5357868108
 21
2.5153423266
  0
LINE
  5
2D6
100
AcDbEntity
  8
0
100
AcDbLine
 62
7
  6
CONTINUOUS
 10
12.7504793753
 20
2.5135023256
 11
12.7504793753
 21
2.4937023146
  0
LINE
  5
2D7
100
AcDbEntity
  8
0
100
AcDbLine
 62
7
  6
CONTINUOUS
 10
12.8149974111
 20
2.5697573568
 11
12.8149974111
 21
2.5895573678
  0
LINE
  5
2D8
100
AcDbEntity
  8
0
100
AcDbLine
 62
7
  6
CONTINUOUS
 10
12.8387234242
 20
2.535859338
 11
12.8387234242
 21
2.564807354
  0
LINE
  5
2D9
100
AcDbEntity
  8
0
100
AcDbLine
 62
7
  6
CONTINUOUS
 10
12.8710654422
 20
2.564807354
 11
12.8710654422
 21
2.4937023146
  0
LINE
  5
2DA
100
AcDbEntity
  8
0
100
AcDbLine
 62
7
  6
CONTINUOUS
 10
12.8939484549
 20
2.5895573678
 11
12.8939484549
 21
2.5697573568
  0
LINE
  5
2DB
100
AcDbEntity
  8
0
100
AcDbLine
 62
7
  6
CONTINUOUS
 10
12.9181184683
 20
2.4937023146
 11
12.9181184683
 21
2.5135023256
  0
LINE
  5
2DC
100
AcDbEntity
  8
0
100
AcDbLine
 62
7
  6
CONTINUOUS
 10
12.9181184683
 20
2.5697573568
 11
12.9181184683
 21
2.5895573678
  0
LINE
  5
2DD
100
AcDbEntity
  8
0
100
AcDbLine
 62
7
  6
CONTINUOUS
 10
12.9417144814
 20
2.5184523283
 11
12.9417144814
 21
2.564807354
  0
LINE
  5
2DE
100
AcDbEntity
  8
0
100
AcDbLine
 62
7
  6
CONTINUOUS
 10
12.973465499
 20
2.5504983461
 11
12.973465499
 21
2.5184523283
  0
LINE
  5
2DF
100
AcDbEntity
  8
0
100
AcDbLine
 62
7
  6
CONTINUOUS
 10
12.998732513
 20
2.5135023256
 11
12.998732513
 21
2.4937023146
  0
LINE
  5
2E0
100
AcDbEntity
  8
0
100
AcDbLine
 62
7
  6
CONTINUOUS
 10
13.0632505488
 20
2.5697573568
 11
13.0632505488
 21
2.5895573678
  0
LINE
  5
2E1
100
AcDbEntity
  8
0
100
AcDbLine
 62
7
  6
CONTINUOUS
 10
13.0869765619
 20
2.535859338
 11
13.0869765619
 21
2.564807354
  0
LINE
  5
2E2
100
AcDbEntity
  8
0
100
AcDbLine
 62
7
  6
CONTINUOUS
 10
13.1193185799
 20
2.564807354
 11
13.1193185799
 21
2.4937023146
  0
LINE
  5
2E3
100
AcDbEntity
  8
0
100
AcDbLine
 62
7
  6
CONTINUOUS
 10
13.1422015925
 20
2.5895573678
 11
13.1422015925
 21
2.5697573568
  0
LINE
  5
2E4
100
AcDbEntity
  8
0
100
AcDbLine
 62
7
  6
CONTINUOUS
 10
13.1648416051
 20
2.4937023146
 11
13.1648416051
 21
2.5135023256
  0
LINE
  5
2E5
100
AcDbEntity
  8
0
100
AcDbLine
 62
7
  6
CONTINUOUS
 10
13.1648416051
 20
2.5697573568
 11
13.1648416051
 21
2.5895573678
  0
LINE
  5
2E6
100
AcDbEntity
  8
0
100
AcDbLine
 62
7
  6
CONTINUOUS
 10
13.1937146211
 20
2.5184523283
 11
13.1937146211
 21
2.564807354
  0
LINE
  5
2E7
100
AcDbEntity
  8
0
100
AcDbLine
 62
7
  6
CONTINUOUS
 10
13.2557806555
 20
2.564807354
 11
13.2557806555
 21
2.5532573476
  0
LINE
  5
2E8
100
AcDbEntity
  8
0
100
AcDbLine
 62
7
  6
CONTINUOUS
 10
13.2557806555
 20
2.5300023347
 11
13.2557806555
 21
2.5184523283
  0
LINE
  5
2E9
100
AcDbEntity
  8
0
100
AcDbLine
 62
7
  6
CONTINUOUS
 10
13.2958976778
 20
2.5483073449
 11
13.2958976778
 21
2.5349523375
  0
LINE
  5
2EA
100
AcDbEntity
  8
0
100
AcDbLine
 62
7
  6
CONTINUOUS
 10
12.3907841758
 20
2.5410923409
 11
12.3990241804
 21
2.5458683435
  0
LINE
  5
2EB
100
AcDbEntity
  8
0
100
AcDbLine
 62
7
  6
CONTINUOUS
 10
13.3247706938
 20
2.5565573495
 11
13.3247706938
 21
2.564807354
  0
LINE
  5
2EC
100
AcDbEntity
  8
0
100
AcDbLine
 62
7
  6
CONTINUOUS
 10
13.3257346943
 20
2.5184523283
 11
13.3257346943
 21
2.5267023329
  0
LINE
  5
2ED
100
AcDbEntity
  8
0
100
AcDbLine
 62
7
  6
CONTINUOUS
 10
13.3715847197
 20
2.5895573678
 11
13.3715847197
 21
2.5565573495
  0
LINE
  5
2EE
100
AcDbEntity
  8
0
100
AcDbLine
 62
7
  6
CONTINUOUS
 10
13.3730037205
 20
2.5267023329
 11
13.3730037205
 21
2.4937023146
  0
LINE
  5
2EF
100
AcDbEntity
  8
0
100
AcDbLine
 62
7
  6
CONTINUOUS
 10
13.3969577338
 20
2.4937023146
 11
13.3969577338
 21
2.5135023256
  0
LINE
  5
2F0
100
AcDbEntity
  8
0
100
AcDbLine
 62
7
  6
CONTINUOUS
 10
13.3969577338
 20
2.5697573568
 11
13.3969577338
 21
2.5895573678
  0
LINE
  5
2F1
100
AcDbEntity
  8
0
100
AcDbLine
 62
7
  6
CONTINUOUS
 10
13.4246537492
 20
2.5184523283
 11
13.4246537492
 21
2.564807354
  0
LINE
  5
2F2
100
AcDbEntity
  8
0
100
AcDbLine
 62
7
  6
CONTINUOUS
 10
13.4858697831
 20
2.5281293337
 11
13.4858697831
 21
2.5184303283
  0
LINE
  5
2F3
100
AcDbEntity
  8
0
100
AcDbLine
 62
7
  6
CONTINUOUS
 10
13.4858697831
 20
2.552082347
 11
13.4858697831
 21
2.564807354
  0
LINE
  5
2F4
100
AcDbEntity
  8
0
100
AcDbLine
 62
7
  6
CONTINUOUS
 10
13.5154787995
 20
2.5134803256
 11
13.5154787995
 21
2.4937023146
  0
LINE
  5
2F5
100
AcDbEntity
  8
0
100
AcDbLine
 62
7
  6
CONTINUOUS
 10
13.6146708546
 20
2.525013332
 11
13.6146708546
 21
2.5276393334
  0
LINE
  5
2F6
100
AcDbEntity
  8
0
100
AcDbLine
 62
7
  6
CONTINUOUS
 10
13.631730864
 20
2.5276393334
 11
13.631730864
 21
2.516087327
  0
LINE
  5
2F7
100
AcDbEntity
  8
0
100
AcDbLine
 62
7
  6
CONTINUOUS
 10
13.7286871589
 20
2.5350697372
 11
13.7286871589
 21
2.5456869438
  0
LINE
  5
2F8
100
AcDbEntity
  8
0
100
AcDbLine
 62
7
  6
CONTINUOUS
 10
12.5112392426
 20
2.5908833685
 11
12.4644392167
 21
2.5171263276
  0
LINE
  5
2F9
100
AcDbEntity
  8
0
100
AcDbLine
 62
7
  6
CONTINUOUS
 10
12.5246402501
 20
2.5655893545
 11
12.5175232461
 21
2.5543723483
  0
LINE
  5
2FA
100
AcDbEntity
  8
0
100
AcDbLine
 62
7
  6
CONTINUOUS
 10
12.5034912383
 20
2.5197783291
 11
12.5090072414
 21
2.5284723339
  0
ARC
  5
2FB
100
AcDbEntity
  8
0
100
AcDbCircle
 62
7
  6
CONTINUOUS
 10
12.7943847649
 20
2.4937027294
 40
0.0024754162
100
AcDbArc
 50
226.3593695813
 51
270.0146919953
  0
ARC
  5
2FC
100
AcDbEntity
  8
0
100
AcDbCircle
 62
7
  6
CONTINUOUS
 10
12.2055050712
 20
2.4937023128
 40
0.0024749995
100
AcDbArc
 50
179.9999571957
 51
270.0000428043
  0
ARC
  5
2FD
100
AcDbEntity
  8
0
100
AcDbCircle
 62
7
  6
CONTINUOUS
 10
12.8685904427
 20
2.4937023128
 40
0.0024749995
100
AcDbArc
 50
269.9999571957
 51
0.0000428043
  0
ARC
  5
2FE
100
AcDbEntity
  8
0
100
AcDbCircle
 62
7
  6
CONTINUOUS
 10
12.7480043758
 20
2.4937023128
 40
0.0024749995
100
AcDbArc
 50
269.9999571957
 51
0.0000428043
  0
ARC
  5
2FF
100
AcDbEntity
  8
0
100
AcDbCircle
 62
7
  6
CONTINUOUS
 10
12.6723403301
 20
2.4937023128
 40
0.0024749995
100
AcDbArc
 50
179.9999571957
 51
270.0000428043
  0
ARC
  5
300
100
AcDbEntity
  8
0
100
AcDbCircle
 62
7
  6
CONTINUOUS
 10
12.5371502552
 20
2.4937023128
 40
0.0024749995
100
AcDbArc
 50
179.9999571957
 51
270.0000428043
  0
ARC
  5
301
100
AcDbEntity
  8
0
100
AcDbCircle
 62
7
  6
CONTINUOUS
 10
12.6424313172
 20
2.4937023128
 40
0.0024749995
100
AcDbArc
 50
269.9999571957
 51
0.0000428043
  0
ARC
  5
302
100
AcDbEntity
  8
0
100
AcDbCircle
 62
7
  6
CONTINUOUS
 10
12.439488201
 20
2.4937023128
 40
0.0024749995
100
AcDbArc
 50
179.9999571957
 51
270.0000428043
  0
ARC
  5
303
100
AcDbEntity
  8
0
100
AcDbCircle
 62
7
  6
CONTINUOUS
 10
12.5168642476
 20
2.4937023128
 40
0.0024749995
100
AcDbArc
 50
269.9999571957
 51
0.0000428043
  0
ARC
  5
304
100
AcDbEntity
  8
0
100
AcDbCircle
 62
7
  6
CONTINUOUS
 10
12.371573659
 20
2.5302846524
 40
0.061747717
100
AcDbArc
 50
59.5385584989
 51
90.0050977555
  0
ARC
  5
305
100
AcDbEntity
  8
0
100
AcDbCircle
 62
7
  6
CONTINUOUS
 10
12.3792298263
 20
2.539634765
 40
0.048483885
100
AcDbArc
 50
273.21763719
 51
303.0749121182
  0
ARC
  5
306
100
AcDbEntity
  8
0
100
AcDbCircle
 62
7
  6
CONTINUOUS
 10
12.3931760319
 20
2.5166878286
 40
0.0222174455
100
AcDbArc
 50
4.0793399388
 51
69.834329283
  0
ARC
  5
307
100
AcDbEntity
  8
0
100
AcDbCircle
 62
7
  6
CONTINUOUS
 10
12.3940692204
 20
2.5168671561
 40
0.0213072145
100
AcDbArc
 50
303.0488228549
 51
355.7263138674
  0
ARC
  5
308
100
AcDbEntity
  8
0
100
AcDbCircle
 62
7
  6
CONTINUOUS
 10
12.400005721
 20
2.5168763464
 40
0.0153945295
100
AcDbArc
 50
354.0454548824
 51
5.1878013979
  0
ARC
  5
309
100
AcDbEntity
  8
0
100
AcDbCircle
 62
7
  6
CONTINUOUS
 10
12.3362731456
 20
2.5246398318
 40
0.0086625048
100
AcDbArc
 50
270.0
 51
90.0
  0
ARC
  5
30A
100
AcDbEntity
  8
0
100
AcDbCircle
 62
7
  6
CONTINUOUS
 10
12.5459747223
 20
2.5271458744
 40
0.0024754602
100
AcDbArc
 50
32.8959418573
 51
89.9875097202
  0
ARC
  5
30B
100
AcDbEntity
  8
0
100
AcDbCircle
 62
7
  6
CONTINUOUS
 10
12.4623492858
 20
2.5184525273
 40
0.0024752003
100
AcDbArc
 50
269.9983726451
 51
327.602165307
  0
ARC
  5
30C
100
AcDbEntity
  8
0
100
AcDbCircle
 62
7
  6
CONTINUOUS
 10
12.5110971723
 20
2.5271461342
 40
0.0024752003
100
AcDbArc
 50
89.998372645
 51
147.602165307
  0
ARC
  5
30D
100
AcDbEntity
  8
0
100
AcDbCircle
 62
7
  6
CONTINUOUS
 10
12.5055811302
 20
2.518452367
 40
0.0024750401
100
AcDbArc
 50
147.6063258011
 51
270.0025305754
  0
ARC
  5
30E
100
AcDbEntity
  8
0
100
AcDbCircle
 62
7
  6
CONTINUOUS
 10
12.2294470882
 20
2.5184523265
 40
0.0024749995
100
AcDbArc
 50
269.9999571957
 51
0.0000428043
  0
ARC
  5
30F
100
AcDbEntity
  8
0
100
AcDbCircle
 62
7
  6
CONTINUOUS
 10
12.2055050712
 20
2.5135023274
 40
0.0024749995
100
AcDbArc
 50
89.9999571957
 51
180.0000428043
  0
ARC
  5
310
100
AcDbEntity
  8
0
100
AcDbCircle
 62
7
  6
CONTINUOUS
 10
12.2949101208
 20
2.530827337
 40
0.0024749995
100
AcDbArc
 50
89.9999571957
 51
180.0000428043
  0
ARC
  5
311
100
AcDbEntity
  8
0
100
AcDbCircle
 62
7
  6
CONTINUOUS
 10
12.2949101208
 20
2.5184523265
 40
0.0024749995
100
AcDbArc
 50
179.9999571957
 51
270.0000428043
  0
ARC
  5
312
100
AcDbEntity
  8
0
100
AcDbCircle
 62
7
  6
CONTINUOUS
 10
12.5371502552
 20
2.5135023274
 40
0.0024749995
100
AcDbArc
 50
89.9999571957
 51
180.0000428043
  0
ARC
  5
313
100
AcDbEntity
  8
0
100
AcDbCircle
 62
7
  6
CONTINUOUS
 10
12.439488201
 20
2.5135023274
 40
0.0024749995
100
AcDbArc
 50
89.9999571957
 51
180.0000428043
  0
ARC
  5
314
100
AcDbEntity
  8
0
100
AcDbCircle
 62
7
  6
CONTINUOUS
 10
12.5168642476
 20
2.5135023274
 40
0.0024749995
100
AcDbArc
 50
359.9999571957
 51
90.0000428043
  0
ARC
  5
315
100
AcDbEntity
  8
0
100
AcDbCircle
 62
7
  6
CONTINUOUS
 10
12.3771587979
 20
2.5826952352
 40
0.0428289026
100
AcDbArc
 50
300.6990502959
 51
319.0591802498
  0
ARC
  5
316
100
AcDbEntity
  8
0
100
AcDbCircle
 62
7
  6
CONTINUOUS
 10
12.3922357827
 20
2.5632132173
 40
0.0229166529
100
AcDbArc
 50
20.6563876465
 51
62.3316896973
  0
ARC
  5
317
100
AcDbEntity
  8
0
100
AcDbCircle
 62
7
  6
CONTINUOUS
 10
12.3971873948
 20
2.5665668817
 40
0.0171568255
100
AcDbArc
 50
315.9145124245
 51
16.0049121282
  0
ARC
  5
318
100
AcDbEntity
  8
0
100
AcDbCircle
 62
7
  6
CONTINUOUS
 10
12.3362731456
 20
2.5586198506
 40
0.0086625048
100
AcDbArc
 50
270.0
 51
90.0
  0
ARC
  5
319
100
AcDbEntity
  8
0
100
AcDbCircle
 62
7
  6
CONTINUOUS
 10
12.532910715
 20
2.564262895
 40
0.0024754602
100
AcDbArc
 50
32.8959418573
 51
89.9875097202
  0
ARC
  5
31A
100
AcDbEntity
  8
0
100
AcDbCircle
 62
7
  6
CONTINUOUS
 10
12.5401702375
 20
2.5530465533
 40
0.0024752071
100
AcDbArc
 50
270.0004896793
 51
32.9089806818
  0
ARC
  5
31B
100
AcDbEntity
  8
0
100
AcDbCircle
 62
7
  6
CONTINUOUS
 10
12.5267301809
 20
2.5642631548
 40
0.0024752003
100
AcDbArc
 50
89.998372645
 51
147.602165307
  0
ARC
  5
31C
100
AcDbEntity
  8
0
100
AcDbCircle
 62
7
  6
CONTINUOUS
 10
12.5133291735
 20
2.5895571688
 40
0.0024752003
100
AcDbArc
 50
89.9983726451
 51
147.602165307
  0
ARC
  5
31D
100
AcDbEntity
  8
0
100
AcDbCircle
 62
7
  6
CONTINUOUS
 10
12.519613138
 20
2.5530463862
 40
0.0024750401
100
AcDbArc
 50
147.6063258012
 51
270.0025305754
  0
ARC
  5
31E
100
AcDbEntity
  8
0
100
AcDbCircle
 62
7
  6
CONTINUOUS
 10
12.2055050712
 20
2.5895573696
 40
0.0024749995
100
AcDbArc
 50
89.9999571957
 51
180.0000428043
  0
ARC
  5
31F
100
AcDbEntity
  8
0
100
AcDbCircle
 62
7
  6
CONTINUOUS
 10
12.2055050712
 20
2.5697573549
 40
0.0024749995
100
AcDbArc
 50
179.9999571957
 51
270.0000428043
  0
ARC
  5
320
100
AcDbEntity
  8
0
100
AcDbCircle
 62
7
  6
CONTINUOUS
 10
12.2294470882
 20
2.5648073559
 40
0.0024749995
100
AcDbArc
 50
359.9999571957
 51
90.0000428043
  0
ARC
  5
321
100
AcDbEntity
  8
0
100
AcDbCircle
 62
7
  6
CONTINUOUS
 10
12.2949101208
 20
2.5648073559
 40
0.0024749995
100
AcDbArc
 50
89.9999571957
 51
180.0000428043
  0
ARC
  5
322
100
AcDbEntity
  8
0
100
AcDbCircle
 62
7
  6
CONTINUOUS
 10
12.2949101208
 20
2.5524323453
 40
0.0024749995
100
AcDbArc
 50
179.9999571957
 51
270.0000428043
  0
ARC
  5
323
100
AcDbEntity
  8
0
100
AcDbCircle
 62
7
  6
CONTINUOUS
 10
12.8362481229
 20
2.5358592748
 40
0.0024753014
100
AcDbArc
 50
226.3461263059
 51
0.0014637321
  0
ARC
  5
324
100
AcDbEntity
  8
0
100
AcDbCircle
 62
7
  6
CONTINUOUS
 10
12.7276876627
 20
2.5504984093
 40
0.0024753014
100
AcDbArc
 50
46.3461263059
 51
180.0014637321
  0
ARC
  5
325
100
AcDbEntity
  8
0
100
AcDbCircle
 62
7
  6
CONTINUOUS
 10
12.5516012439
 20
2.5184525341
 40
0.0024752071
100
AcDbArc
 50
270.0004896794
 51
32.9089806818
  0
ARC
  5
326
100
AcDbEntity
  8
0
100
AcDbCircle
 62
7
  6
CONTINUOUS
 10
12.7276873608
 20
2.5184523265
 40
0.0024749995
100
AcDbArc
 50
179.9999571957
 51
270.0000428043
  0
ARC
  5
327
100
AcDbEntity
  8
0
100
AcDbCircle
 62
7
  6
CONTINUOUS
 10
12.7480043758
 20
2.5135023274
 40
0.0024749995
100
AcDbArc
 50
359.9999571957
 51
90.0000428043
  0
ARC
  5
328
100
AcDbEntity
  8
0
100
AcDbCircle
 62
7
  6
CONTINUOUS
 10
12.6723403301
 20
2.5135023274
 40
0.0024749995
100
AcDbArc
 50
89.9999571957
 51
180.0000428043
  0
ARC
  5
329
100
AcDbEntity
  8
0
100
AcDbCircle
 62
7
  6
CONTINUOUS
 10
12.6909873442
 20
2.5184523265
 40
0.0024749995
100
AcDbArc
 50
269.9999571957
 51
0.0000428043
  0
ARC
  5
32A
100
AcDbEntity
  8
0
100
AcDbCircle
 62
7
  6
CONTINUOUS
 10
12.6424313172
 20
2.5135023274
 40
0.0024749995
100
AcDbArc
 50
359.9999571957
 51
90.0000428043
  0
ARC
  5
32B
100
AcDbEntity
  8
0
100
AcDbCircle
 62
7
  6
CONTINUOUS
 10
12.6224154248
 20
2.518451368
 40
0.002474041
100
AcDbArc
 50
212.9056413127
 51
269.9972091756
  0
ARC
  5
32C
100
AcDbEntity
  8
0
100
AcDbCircle
 62
7
  6
CONTINUOUS
 10
12.8362484247
 20
2.5648073559
 40
0.0024749995
100
AcDbArc
 50
359.9999571957
 51
90.0000428043
  0
ARC
  5
32D
100
AcDbEntity
  8
0
100
AcDbCircle
 62
7
  6
CONTINUOUS
 10
12.8174724106
 20
2.5697573549
 40
0.0024749995
100
AcDbArc
 50
179.9999571957
 51
270.0000428043
  0
ARC
  5
32E
100
AcDbEntity
  8
0
100
AcDbCircle
 62
7
  6
CONTINUOUS
 10
12.8174724106
 20
2.5895573696
 40
0.0024749995
100
AcDbArc
 50
89.9999571957
 51
180.0000428043
  0
ARC
  5
32F
100
AcDbEntity
  8
0
100
AcDbCircle
 62
7
  6
CONTINUOUS
 10
12.8914734553
 20
2.5895573696
 40
0.0024749995
100
AcDbArc
 50
359.9999571957
 51
90.0000428043
  0
ARC
  5
330
100
AcDbEntity
  8
0
100
AcDbCircle
 62
7
  6
CONTINUOUS
 10
12.8914734553
 20
2.5697573549
 40
0.0024749995
100
AcDbArc
 50
269.9999571957
 51
0.0000428043
  0
ARC
  5
331
100
AcDbEntity
  8
0
100
AcDbCircle
 62
7
  6
CONTINUOUS
 10
12.8735404417
 20
2.5648073559
 40
0.0024749995
100
AcDbArc
 50
89.9999571957
 51
180.0000428043
  0
ARC
  5
332
100
AcDbEntity
  8
0
100
AcDbCircle
 62
7
  6
CONTINUOUS
 10
12.6909873442
 20
2.5648073559
 40
0.0024749995
100
AcDbArc
 50
359.9999571957
 51
90.0000428043
  0
ARC
  5
333
100
AcDbEntity
  8
0
100
AcDbCircle
 62
7
  6
CONTINUOUS
 10
12.6723403301
 20
2.5697573549
 40
0.0024749995
100
AcDbArc
 50
179.9999571957
 51
270.0000428043
  0
ARC
  5
334
100
AcDbEntity
  8
0
100
AcDbCircle
 62
7
  6
CONTINUOUS
 10
12.6723403301
 20
2.5895573696
 40
0.0024749995
100
AcDbArc
 50
89.9999571957
 51
180.0000428043
  0
ARC
  5
335
100
AcDbEntity
  8
0
100
AcDbCircle
 62
7
  6
CONTINUOUS
 10
12.570504655
 20
2.589557409
 40
0.0024749602
100
AcDbArc
 50
32.9172174468
 51
90.0087853097
  0
ARC
  5
336
100
AcDbEntity
  8
0
100
AcDbCircle
 62
7
  6
CONTINUOUS
 10
12.7727985224
 20
2.5895582013
 40
0.0024741678
100
AcDbArc
 50
46.3477981899
 51
90.0031206038
  0
ARC
  5
337
100
AcDbEntity
  8
0
100
AcDbCircle
 62
7
  6
CONTINUOUS
 10
13.5463505148
 20
2.4094934586
 40
0.1825583387
100
AcDbArc
 50
79.8618509324
 51
89.1640948679
  0
ARC
  5
338
100
AcDbEntity
  8
0
100
AcDbCircle
 62
7
  6
CONTINUOUS
 10
13.5282557878
 20
2.4386010294
 40
0.117346916
100
AcDbArc
 50
58.614769177
 51
62.3737227606
  0
ARC
  5
339
100
AcDbEntity
  8
0
100
AcDbCircle
 62
7
  6
CONTINUOUS
 10
13.5571178432
 20
2.509473798
 40
0.0459185159
100
AcDbArc
 50
15.6740290068
 51
20.9917271228
  0
ARC
  5
33A
100
AcDbEntity
  8
0
100
AcDbCircle
 62
7
  6
CONTINUOUS
 10
13.4974076135
 20
2.5055452462
 40
0.0396099176
100
AcDbArc
 50
14.3201081283
 51
22.4984722084
  0
ARC
  5
33B
100
AcDbEntity
  8
0
100
AcDbCircle
 62
7
  6
CONTINUOUS
 10
13.5161192671
 20
2.5062372524
 40
0.0243676582
100
AcDbArc
 50
63.3666028271
 51
90.3937697637
  0
ARC
  5
33C
100
AcDbEntity
  8
0
100
AcDbCircle
 62
7
  6
CONTINUOUS
 10
13.6036139387
 20
2.5111006186
 40
0.0198837666
100
AcDbArc
 50
271.8586572978
 51
289.4131338543
  0
ARC
  5
33D
100
AcDbEntity
  8
0
100
AcDbCircle
 62
7
  6
CONTINUOUS
 10
13.5577001432
 20
2.5085494649
 40
0.0173408616
100
AcDbArc
 50
232.4713476722
 51
267.338189944
  0
ARC
  5
33E
100
AcDbEntity
  8
0
100
AcDbCircle
 62
7
  6
CONTINUOUS
 10
13.5130038
 20
2.4937023128
 40
0.0024749995
100
AcDbArc
 50
269.9999571957
 51
0.0000428043
  0
ARC
  5
33F
100
AcDbEntity
  8
0
100
AcDbCircle
 62
7
  6
CONTINUOUS
 10
13.3994327333
 20
2.4937023128
 40
0.0024749995
100
AcDbArc
 50
179.9999571957
 51
270.0000428043
  0
ARC
  5
340
100
AcDbEntity
  8
0
100
AcDbCircle
 62
7
  6
CONTINUOUS
 10
13.1168435803
 20
2.4937023128
 40
0.0024749995
100
AcDbArc
 50
269.9999571957
 51
0.0000428043
  0
ARC
  5
341
100
AcDbEntity
  8
0
100
AcDbCircle
 62
7
  6
CONTINUOUS
 10
12.9962575135
 20
2.4937023128
 40
0.0024749995
100
AcDbArc
 50
269.9999571957
 51
0.0000428043
  0
ARC
  5
342
100
AcDbEntity
  8
0
100
AcDbCircle
 62
7
  6
CONTINUOUS
 10
12.9205934678
 20
2.4937023128
 40
0.0024749995
100
AcDbArc
 50
179.9999571957
 51
270.0000428043
  0
ARC
  5
343
100
AcDbEntity
  8
0
100
AcDbCircle
 62
7
  6
CONTINUOUS
 10
13.370528721
 20
2.4937023128
 40
0.0024749995
100
AcDbArc
 50
269.9999571957
 51
0.0000428043
  0
ARC
  5
344
100
AcDbEntity
  8
0
100
AcDbCircle
 62
7
  6
CONTINUOUS
 10
13.1673166046
 20
2.4937023128
 40
0.0024749995
100
AcDbArc
 50
179.9999571957
 51
270.0000428043
  0
ARC
  5
345
100
AcDbEntity
  8
0
100
AcDbCircle
 62
7
  6
CONTINUOUS
 10
13.0426374026
 20
2.493701481
 40
0.0024741678
100
AcDbArc
 50
226.3477981898
 51
270.0031206038
  0
ARC
  5
346
100
AcDbEntity
  8
0
100
AcDbCircle
 62
7
  6
CONTINUOUS
 10
13.0845012605
 20
2.5358592748
 40
0.0024753014
100
AcDbArc
 50
226.3461263059
 51
0.0014637321
  0
ARC
  5
347
100
AcDbEntity
  8
0
100
AcDbCircle
 62
7
  6
CONTINUOUS
 10
12.9759408003
 20
2.5504984093
 40
0.0024753014
100
AcDbArc
 50
46.3461263059
 51
180.0014637321
  0
ARC
  5
348
100
AcDbEntity
  8
0
100
AcDbCircle
 62
7
  6
CONTINUOUS
 10
12.9759404985
 20
2.5184523265
 40
0.0024749995
100
AcDbArc
 50
179.9999571957
 51
270.0000428043
  0
ARC
  5
349
100
AcDbEntity
  8
0
100
AcDbCircle
 62
7
  6
CONTINUOUS
 10
12.9962575135
 20
2.5135023274
 40
0.0024749995
100
AcDbArc
 50
359.9999571957
 51
90.0000428043
  0
ARC
  5
34A
100
AcDbEntity
  8
0
100
AcDbCircle
 62
7
  6
CONTINUOUS
 10
12.9205934678
 20
2.5135023274
 40
0.0024749995
100
AcDbArc
 50
89.9999571957
 51
180.0000428042
  0
ARC
  5
34B
100
AcDbEntity
  8
0
100
AcDbCircle
 62
7
  6
CONTINUOUS
 10
12.9392394818
 20
2.5184523265
 40
0.0024749995
100
AcDbArc
 50
269.9999571957
 51
0.0000428043
  0
ARC
  5
34C
100
AcDbEntity
  8
0
100
AcDbCircle
 62
7
  6
CONTINUOUS
 10
13.2582556551
 20
2.5300023366
 40
0.0024749995
100
AcDbArc
 50
89.9999571957
 51
180.0000428043
  0
ARC
  5
34D
100
AcDbEntity
  8
0
100
AcDbCircle
 62
7
  6
CONTINUOUS
 10
13.2582556551
 20
2.5184523265
 40
0.0024749995
100
AcDbArc
 50
179.9999571957
 51
270.0000428043
  0
ARC
  5
34E
100
AcDbEntity
  8
0
100
AcDbCircle
 62
7
  6
CONTINUOUS
 10
13.1673166046
 20
2.5135023274
 40
0.0024749995
100
AcDbArc
 50
89.9999571957
 51
180.0000428043
  0
ARC
  5
34F
100
AcDbEntity
  8
0
100
AcDbCircle
 62
7
  6
CONTINUOUS
 10
13.1912396216
 20
2.5184523265
 40
0.0024749995
100
AcDbArc
 50
269.9999571957
 51
0.0000428042
  0
ARC
  5
350
100
AcDbEntity
  8
0
100
AcDbCircle
 62
7
  6
CONTINUOUS
 10
13.2582556551
 20
2.5532573458
 40
0.0024749995
100
AcDbArc
 50
179.9999571957
 51
270.0000428043
  0
ARC
  5
351
100
AcDbEntity
  8
0
100
AcDbCircle
 62
7
  6
CONTINUOUS
 10
13.0845015624
 20
2.5648073559
 40
0.0024749995
100
AcDbArc
 50
359.9999571957
 51
90.0000428043
  0
ARC
  5
352
100
AcDbEntity
  8
0
100
AcDbCircle
 62
7
  6
CONTINUOUS
 10
13.0657255483
 20
2.5697573549
 40
0.0024749995
100
AcDbArc
 50
179.9999571957
 51
270.0000428043
  0
ARC
  5
353
100
AcDbEntity
  8
0
100
AcDbCircle
 62
7
  6
CONTINUOUS
 10
13.0657255483
 20
2.5895573696
 40
0.0024749995
100
AcDbArc
 50
89.9999571957
 51
180.0000428043
  0
ARC
  5
354
100
AcDbEntity
  8
0
100
AcDbCircle
 62
7
  6
CONTINUOUS
 10
13.139726593
 20
2.5895573696
 40
0.0024749995
100
AcDbArc
 50
359.9999571957
 51
90.0000428043
  0
ARC
  5
355
100
AcDbEntity
  8
0
100
AcDbCircle
 62
7
  6
CONTINUOUS
 10
13.139726593
 20
2.5697573549
 40
0.0024749995
100
AcDbArc
 50
269.9999571957
 51
0.0000428042
  0
ARC
  5
356
100
AcDbEntity
  8
0
100
AcDbCircle
 62
7
  6
CONTINUOUS
 10
13.1217935794
 20
2.5648073559
 40
0.0024749995
100
AcDbArc
 50
89.9999571957
 51
180.0000428042
  0
ARC
  5
357
100
AcDbEntity
  8
0
100
AcDbCircle
 62
7
  6
CONTINUOUS
 10
12.9392394818
 20
2.5648073559
 40
0.0024749995
100
AcDbArc
 50
359.9999571957
 51
90.0000428043
  0
ARC
  5
358
100
AcDbEntity
  8
0
100
AcDbCircle
 62
7
  6
CONTINUOUS
 10
12.9205934678
 20
2.5697573549
 40
0.0024749995
100
AcDbArc
 50
179.9999571957
 51
270.0000428043
  0
ARC
  5
359
100
AcDbEntity
  8
0
100
AcDbCircle
 62
7
  6
CONTINUOUS
 10
12.9205934678
 20
2.5895573696
 40
0.0024749995
100
AcDbArc
 50
89.9999571957
 51
180.0000428042
  0
ARC
  5
35A
100
AcDbEntity
  8
0
100
AcDbCircle
 62
7
  6
CONTINUOUS
 10
13.1912396216
 20
2.5648073559
 40
0.0024749995
100
AcDbArc
 50
359.9999571957
 51
90.0000428043
  0
ARC
  5
35B
100
AcDbEntity
  8
0
100
AcDbCircle
 62
7
  6
CONTINUOUS
 10
13.1673166046
 20
2.5697573549
 40
0.0024749995
100
AcDbArc
 50
179.9999571957
 51
270.0000428043
  0
ARC
  5
35C
100
AcDbEntity
  8
0
100
AcDbCircle
 62
7
  6
CONTINUOUS
 10
13.1673166046
 20
2.5895573696
 40
0.0024749995
100
AcDbArc
 50
89.9999571957
 51
180.0000428043
  0
ARC
  5
35D
100
AcDbEntity
  8
0
100
AcDbCircle
 62
7
  6
CONTINUOUS
 10
13.2582556551
 20
2.5648073559
 40
0.0024749995
100
AcDbArc
 50
89.9999571957
 51
180.0000428043
  0
ARC
  5
35E
100
AcDbEntity
  8
0
100
AcDbCircle
 62
7
  6
CONTINUOUS
 10
13.0210516601
 20
2.5895582013
 40
0.0024741678
100
AcDbArc
 50
46.3477981899
 51
90.0031206038
  0
ARC
  5
35F
100
AcDbEntity
  8
0
100
AcDbCircle
 62
7
  6
CONTINUOUS
 10
13.5806801742
 20
2.5212486481
 40
0.044722495
100
AcDbArc
 50
195.531588407
 51
204.7624440448
  0
ARC
  5
360
100
AcDbEntity
  8
0
100
AcDbCircle
 62
7
  6
CONTINUOUS
 10
13.5726548052
 20
2.5503169747
 40
0.039319019
100
AcDbArc
 50
59.1202086415
 51
81.4730239328
  0
ARC
  5
361
100
AcDbEntity
  8
0
100
AcDbCircle
 62
7
  6
CONTINUOUS
 10
13.5978759713
 20
2.5286873679
 40
0.0383802683
100
AcDbArc
 50
288.7656836787
 51
309.6104317088
  0
ARC
  5
362
100
AcDbEntity
  8
0
100
AcDbCircle
 62
7
  6
CONTINUOUS
 10
13.5783142014
 20
2.5566516438
 40
0.0310192946
100
AcDbArc
 50
34.7540871
 51
62.0879016178
  0
ARC
  5
363
100
AcDbEntity
  8
0
100
AcDbCircle
 62
7
  6
CONTINUOUS
 10
13.5236009174
 20
2.5388278764
 40
0.0284963867
100
AcDbArc
 50
70.3834917948
 51
86.8922743861
  0
ARC
  5
364
100
AcDbEntity
  8
0
100
AcDbCircle
 62
7
  6
CONTINUOUS
 10
13.6048681567
 20
2.5210861501
 40
0.0280715479
100
AcDbArc
 50
308.5071794988
 51
332.24006569
  0
ARC
  5
365
100
AcDbEntity
  8
0
100
AcDbCircle
 62
7
  6
CONTINUOUS
 10
13.5750183849
 20
2.5166552064
 40
0.0266349791
100
AcDbArc
 50
20.3630922153
 51
37.9727053099
  0
ARC
  5
366
100
AcDbEntity
  8
0
100
AcDbCircle
 62
7
  6
CONTINUOUS
 10
13.5761387404
 20
2.5167282896
 40
0.0257145923
100
AcDbArc
 50
39.3804255939
 51
59.0361096173
  0
ARC
  5
367
100
AcDbEntity
  8
0
100
AcDbCircle
 62
7
  6
CONTINUOUS
 10
13.5607987082
 20
2.5143997688
 40
0.0238935861
100
AcDbArc
 50
209.8247607259
 51
235.1255079367
  0
ARC
  5
368
100
AcDbEntity
  8
0
100
AcDbCircle
 62
7
  6
CONTINUOUS
 10
13.6141751675
 20
2.5161916447
 40
0.0175560065
100
AcDbArc
 50
332.2279060967
 51
359.6595469939
  0
ARC
  5
369
100
AcDbEntity
  8
0
100
AcDbCircle
 62
7
  6
CONTINUOUS
 10
13.5201739219
 20
2.5145168728
 40
0.0151491919
100
AcDbArc
 50
24.098260853
 51
63.0369451818
  0
ARC
  5
36A
100
AcDbEntity
  8
0
100
AcDbCircle
 62
7
  6
CONTINUOUS
 10
13.6156881783
 20
2.525116781
 40
0.0147197649
100
AcDbArc
 50
192.7054516565
 51
206.0594861022
  0
ARC
  5
36B
100
AcDbEntity
  8
0
100
AcDbCircle
 62
7
  6
CONTINUOUS
 10
13.5284605274
 20
2.5518696094
 40
0.0145814632
100
AcDbArc
 50
54.6746025112
 51
71.1660573124
  0
ARC
  5
36C
100
AcDbEntity
  8
0
100
AcDbCircle
 62
7
  6
CONTINUOUS
 10
13.6063292954
 20
2.5296129864
 40
0.0132488022
100
AcDbArc
 50
270.266200055
 51
281.2404888597
  0
ARC
  5
36D
100
AcDbEntity
  8
0
100
AcDbCircle
 62
7
  6
CONTINUOUS
 10
13.6027235414
 20
2.524769508
 40
0.0119498009
100
AcDbArc
 50
340.7883861657
 51
1.1691452593
  0
ARC
  5
36E
100
AcDbEntity
  8
0
100
AcDbCircle
 62
7
  6
CONTINUOUS
 10
13.5295131508
 20
2.5629115009
 40
0.0110815393
100
AcDbArc
 50
306.758405961
 51
320.4502234234
  0
ARC
  5
36F
100
AcDbEntity
  8
0
100
AcDbCircle
 62
7
  6
CONTINUOUS
 10
13.6075235364
 20
2.5238762928
 40
0.0073895522
100
AcDbArc
 50
280.8288201977
 51
305.0837508495
  0
ARC
  5
370
100
AcDbEntity
  8
0
100
AcDbCircle
 62
7
  6
CONTINUOUS
 10
13.607924718
 20
2.5230254464
 40
0.0064647042
100
AcDbArc
 50
306.5086174083
 51
340.2162360092
  0
ARC
  5
371
100
AcDbEntity
  8
0
100
AcDbCircle
 62
7
  6
CONTINUOUS
 10
13.5335900184
 20
2.5587235346
 40
0.0060275915
100
AcDbArc
 50
20.9055592135
 51
56.7851676243
  0
ARC
  5
372
100
AcDbEntity
  8
0
100
AcDbCircle
 62
7
  6
CONTINUOUS
 10
13.533683767
 20
2.559677593
 40
0.0058087709
100
AcDbArc
 50
318.8515287446
 51
353.6422345323
  0
ARC
  5
373
100
AcDbEntity
  8
0
100
AcDbCircle
 62
7
  6
CONTINUOUS
 10
13.6071938412
 20
2.5209082945
 40
0.0052403997
100
AcDbArc
 50
205.5232099488
 51
227.5054868079
  0
ARC
  5
374
100
AcDbEntity
  8
0
100
AcDbCircle
 62
7
  6
CONTINUOUS
 10
13.5348905773
 20
2.5593838168
 40
0.0045795888
100
AcDbArc
 50
355.6235353944
 51
18.9942678268
  0
ARC
  5
375
100
AcDbEntity
  8
0
100
AcDbCircle
 62
7
  6
CONTINUOUS
 10
13.6054655419
 20
2.5190929218
 40
0.0027347709
100
AcDbArc
 50
228.5117626737
 51
266.1485845754
  0
ARC
  5
376
100
AcDbEntity
  8
0
100
AcDbCircle
 62
7
  6
CONTINUOUS
 10
13.4883447827
 20
2.5281293355
 40
0.0024749995
100
AcDbArc
 50
89.9999571957
 51
180.0000428043
  0
ARC
  5
377
100
AcDbEntity
  8
0
100
AcDbCircle
 62
7
  6
CONTINUOUS
 10
13.4883447827
 20
2.5184303265
 40
0.0024749995
100
AcDbArc
 50
179.9999571957
 51
270.0000428043
  0
ARC
  5
378
100
AcDbEntity
  8
0
100
AcDbCircle
 62
7
  6
CONTINUOUS
 10
13.5130038
 20
2.5134803274
 40
0.0024749995
100
AcDbArc
 50
359.9999571957
 51
90.0000428043
  0
ARC
  5
379
100
AcDbEntity
  8
0
100
AcDbCircle
 62
7
  6
CONTINUOUS
 10
13.3994327333
 20
2.5135023274
 40
0.0024749995
100
AcDbArc
 50
89.9999571957
 51
180.0000428043
  0
ARC
  5
37A
100
AcDbEntity
  8
0
100
AcDbCircle
 62
7
  6
CONTINUOUS
 10
13.4221787497
 20
2.5184523265
 40
0.0024749995
100
AcDbArc
 50
269.9999571957
 51
0.0000428042
  0
ARC
  5
37B
100
AcDbEntity
  8
0
100
AcDbCircle
 62
7
  6
CONTINUOUS
 10
13.6171458541
 20
2.5276393353
 40
0.0024749995
100
AcDbArc
 50
89.9999571957
 51
180.0000428043
  0
ARC
  5
37C
100
AcDbEntity
  8
0
100
AcDbCircle
 62
7
  6
CONTINUOUS
 10
13.6292558645
 20
2.5276393353
 40
0.0024749995
100
AcDbArc
 50
359.9999571957
 51
90.0000428043
  0
ARC
  5
37D
100
AcDbEntity
  8
0
100
AcDbCircle
 62
7
  6
CONTINUOUS
 10
13.4883447827
 20
2.5520823451
 40
0.0024749995
100
AcDbArc
 50
179.9999571957
 51
270.0000428043
  0
ARC
  5
37E
100
AcDbEntity
  8
0
100
AcDbCircle
 62
7
  6
CONTINUOUS
 10
13.3232596948
 20
2.5184523265
 40
0.0024749995
100
AcDbArc
 50
269.9999571957
 51
0.0000428043
  0
ARC
  5
37F
100
AcDbEntity
  8
0
100
AcDbCircle
 62
7
  6
CONTINUOUS
 10
13.3282096938
 20
2.5267023348
 40
0.0024749995
100
AcDbArc
 50
89.9999571957
 51
180.0000428043
  0
ARC
  5
380
100
AcDbEntity
  8
0
100
AcDbCircle
 62
7
  6
CONTINUOUS
 10
13.370528721
 20
2.5267023348
 40
0.0024749995
100
AcDbArc
 50
359.9999571957
 51
90.0000428043
  0
ARC
  5
381
100
AcDbEntity
  8
0
100
AcDbCircle
 62
7
  6
CONTINUOUS
 10
13.3691097202
 20
2.5565573476
 40
0.0024749995
100
AcDbArc
 50
269.9999571957
 51
0.0000428042
  0
ARC
  5
382
100
AcDbEntity
  8
0
100
AcDbCircle
 62
7
  6
CONTINUOUS
 10
13.3272456933
 20
2.5565573476
 40
0.0024749995
100
AcDbArc
 50
179.9999571957
 51
270.0000428043
  0
ARC
  5
383
100
AcDbEntity
  8
0
100
AcDbCircle
 62
7
  6
CONTINUOUS
 10
13.2934226783
 20
2.5483073467
 40
0.0024749995
100
AcDbArc
 50
359.9999571957
 51
90.0000428043
  0
ARC
  5
384
100
AcDbEntity
  8
0
100
AcDbCircle
 62
7
  6
CONTINUOUS
 10
13.2934226783
 20
2.5349523356
 40
0.0024749995
100
AcDbArc
 50
269.9999571957
 51
0.0000428042
  0
ARC
  5
385
100
AcDbEntity
  8
0
100
AcDbCircle
 62
7
  6
CONTINUOUS
 10
13.5519569538
 20
2.6152551345
 40
0.0789082104
100
AcDbArc
 50
292.906155071
 51
305.2574666259
  0
ARC
  5
386
100
AcDbEntity
  8
0
100
AcDbCircle
 62
7
  6
CONTINUOUS
 10
13.5822888914
 20
2.5720482849
 40
0.0261183659
100
AcDbArc
 50
305.6373831893
 51
329.9727629745
  0
ARC
  5
387
100
AcDbEntity
  8
0
100
AcDbCircle
 62
7
  6
CONTINUOUS
 10
13.5219564542
 20
2.5750459767
 40
0.0254407115
100
AcDbArc
 50
270.7327484175
 51
290.441894219
  0
ARC
  5
388
100
AcDbEntity
  8
0
100
AcDbCircle
 62
7
  6
CONTINUOUS
 10
13.5238839599
 20
2.5706523294
 40
0.0206523367
100
AcDbArc
 50
289.6883413472
 51
306.4184925496
  0
ARC
  5
389
100
AcDbEntity
  8
0
100
AcDbCircle
 62
7
  6
CONTINUOUS
 10
13.5900029525
 20
2.565201245
 40
0.0165459396
100
AcDbArc
 50
1.548452892
 51
33.5033152417
  0
ARC
  5
38A
100
AcDbEntity
  8
0
100
AcDbCircle
 62
7
  6
CONTINUOUS
 10
13.5932995477
 20
2.5653696972
 40
0.0132462337
100
AcDbArc
 50
331.1510006998
 51
1.205404301
  0
ARC
  5
38B
100
AcDbEntity
  8
0
100
AcDbCircle
 62
7
  6
CONTINUOUS
 10
13.4221787497
 20
2.5648073559
 40
0.0024749995
100
AcDbArc
 50
359.9999571957
 51
90.0000428043
  0
ARC
  5
38C
100
AcDbEntity
  8
0
100
AcDbCircle
 62
7
  6
CONTINUOUS
 10
13.3994327333
 20
2.5697573549
 40
0.0024749995
100
AcDbArc
 50
179.9999571957
 51
270.0000428043
  0
ARC
  5
38D
100
AcDbEntity
  8
0
100
AcDbCircle
 62
7
  6
CONTINUOUS
 10
13.3994327333
 20
2.5895573696
 40
0.0024749995
100
AcDbArc
 50
89.9999571957
 51
180.0000428043
  0
ARC
  5
38E
100
AcDbEntity
  8
0
100
AcDbCircle
 62
7
  6
CONTINUOUS
 10
13.4883447827
 20
2.5648073559
 40
0.0024749995
100
AcDbArc
 50
89.9999571957
 51
180.0000428043
  0
ARC
  5
38F
100
AcDbEntity
  8
0
100
AcDbCircle
 62
7
  6
CONTINUOUS
 10
13.3691097202
 20
2.5895573696
 40
0.0024749995
100
AcDbArc
 50
359.9999571957
 51
90.0000428043
  0
ARC
  5
390
100
AcDbEntity
  8
0
100
AcDbCircle
 62
7
  6
CONTINUOUS
 10
13.3222956943
 20
2.5648073559
 40
0.0024749995
100
AcDbArc
 50
359.9999571957
 51
90.0000428043
  0
ELLIPSE
  5
391
100
AcDbEntity
  8
0
100
AcDbEllipse
 62
7
  6
CONTINUOUS
 10
12.9046654608
 20
2.5403783405
 30
0.0
 11
-0.8250004575
 21
0.0
 31
0.0
 40
0.218572
 41
0.0
 42
6.2831853072
  0
HATCH
  5
392
100
AcDbEntity
  8
0
100
AcDbHatch
 62
7
  6
CONTINUOUS
 10
0.0
 20
0.0
 30
0.0
210
0.0
220
0.0
230
1.0
  2
XSEC0001
 70
1
 71
1
 91
11
 92
1
 93
57
 72
2
 10
13.5577001432
 20
2.5085494649
 40
0.0173408616
 50
232.4713476722
 51
267.338189944
 73
1
 72
2
 10
13.5607987082
 20
2.5143997688
 40
0.0238935861
 50
209.8247607259
 51
235.1255079367
 73
1
 72
2
 10
13.5806801742
 20
2.5212486481
 40
0.044722495
 50
195.531588407
 51
204.7624440448
 73
1
 72
1
 10
13.5375908118
 20
2.5092733232
 11
13.5357868108
 21
2.5153423266
 72
2
 10
13.4974076135
 20
2.5055452462
 40
0.0396099176
 50
14.3201081283
 51
22.4984722084
 73
1
 72
2
 10
13.5201739219
 20
2.5145168728
 40
0.0151491919
 50
24.098260853
 51
63.0369451818
 73
1
 72
2
 10
13.5161192671
 20
2.5062372524
 40
0.0243676582
 50
63.3666028271
 51
90.3937697637
 73
1
 72
1
 10
13.5159517998
 20
2.5306043351
 11
13.4883447845
 21
2.5306043351
 72
2
 10
13.4883447827
 20
2.5281293355
 40
0.0024749995
 50
89.9999571958
 51
180.0000428043
 73
1
 72
1
 10
13.4858697831
 20
2.5281293337
 11
13.4858697831
 21
2.5184303283
 72
2
 10
13.4883447827
 20
2.5184303265
 40
0.0024749995
 50
179.9999571957
 51
270.0000428042
 73
1
 72
1
 10
13.4883447845
 20
2.5159553269
 11
13.5130037982
 21
2.5159553269
 72
2
 10
13.5130038
 20
2.5134803274
 40
0.0024749995
 50
359.9999571957
 51
90.0000428042
 73
1
 72
1
 10
13.5154787995
 20
2.5134803256
 11
13.5154787995
 21
2.4937023146
 72
2
 10
13.5130038
 20
2.4937023128
 40
0.0024749995
 50
269.9999571958
 51
0.0000428043
 73
1
 72
1
 10
13.5130037982
 20
2.4912273132
 11
13.3994327352
 21
2.4912273132
 72
2
 10
13.3994327333
 20
2.4937023128
 40
0.0024749995
 50
179.9999571957
 51
270.0000428043
 73
1
 72
1
 10
13.3969577338
 20
2.4937023146
 11
13.3969577338
 21
2.5135023256
 72
2
 10
13.3994327333
 20
2.5135023274
 40
0.0024749995
 50
89.9999571957
 51
180.0000428043
 73
1
 72
1
 10
13.3994327352
 20
2.515977327
 11
13.4221787478
 21
2.515977327
 72
2
 10
13.4221787497
 20
2.5184523265
 40
0.0024749995
 50
269.9999571956
 51
0.0000428042
 73
1
 72
1
 10
13.4246537492
 20
2.5184523283
 11
13.4246537492
 21
2.564807354
 72
2
 10
13.4221787497
 20
2.5648073559
 40
0.0024749995
 50
359.9999571957
 51
90.0000428043
 73
1
 72
1
 10
13.4221787478
 20
2.5672823554
 11
13.3994327352
 21
2.5672823554
 72
2
 10
13.3994327333
 20
2.5697573549
 40
0.0024749995
 50
179.9999571957
 51
270.0000428043
 73
1
 72
1
 10
13.3969577338
 20
2.5697573568
 11
13.3969577338
 21
2.5895573678
 72
2
 10
13.3994327333
 20
2.5895573696
 40
0.0024749995
 50
89.9999571957
 51
180.0000428043
 73
1
 72
1
 10
13.3994327352
 20
2.5920323691
 11
13.5490138181
 21
2.5920323691
 72
2
 10
13.5463505148
 20
2.4094934586
 40
0.1825583387
 50
79.8618509324
 51
89.1640948679
 73
1
 72
2
 10
13.5726548052
 20
2.5503169747
 40
0.039319019
 50
59.1202086415
 51
81.4730239328
 73
1
 72
2
 10
13.5783142014
 20
2.5566516438
 40
0.0310192946
 50
34.7540871
 51
62.0879016178
 73
1
 72
2
 10
13.5900029525
 20
2.565201245
 40
0.0165459396
 50
1.548452892
 51
33.5033152417
 73
1
 72
2
 10
13.5932995477
 20
2.5653696972
 40
0.0132462337
 50
331.1510006998
 51
1.205404301
 73
1
 72
2
 10
13.5822888914
 20
2.5720482849
 40
0.0261183659
 50
305.6373831893
 51
329.9727629745
 73
1
 72
2
 10
13.5519569538
 20
2.6152551345
 40
0.0789082104
 50
292.906155071
 51
305.2574666259
 73
1
 72
2
 10
13.5282557878
 20
2.4386010294
 40
0.117346916
 50
58.614769177
 51
62.3737227606
 73
1
 72
2
 10
13.5761387404
 20
2.5167282896
 40
0.0257145923
 50
39.3804255939
 51
59.0361096173
 73
1
 72
2
 10
13.5750183849
 20
2.5166552064
 40
0.0266349791
 50
20.3630922153
 51
37.9727053099
 73
1
 72
2
 10
13.5571178432
 20
2.509473798
 40
0.0459185159
 50
15.6740290068
 51
20.9917271228
 73
1
 72
2
 10
13.6156881783
 20
2.525116781
 40
0.0147197649
 50
192.7054516565
 51
206.0594861022
 73
1
 72
2
 10
13.6071938412
 20
2.5209082945
 40
0.0052403997
 50
205.5232099488
 51
227.5054868079
 73
1
 72
2
 10
13.6054655419
 20
2.5190929218
 40
0.0027347709
 50
228.5117626737
 51
266.1485845754
 73
1
 72
1
 10
13.6052818493
 20
2.5163643272
 11
13.60639085
 21
2.5163643272
 72
2
 10
13.6063292954
 20
2.5296129864
 40
0.0132488022
 50
270.266200055
 51
281.2404888597
 73
1
 72
2
 10
13.6075235364
 20
2.5238762928
 40
0.0073895522
 50
280.8288201977
 51
305.0837508495
 73
1
 72
2
 10
13.607924718
 20
2.5230254464
 40
0.0064647042
 50
306.5086174083
 51
340.2162360092
 73
1
 72
2
 10
13.6027235414
 20
2.524769508
 40
0.0119498009
 50
340.7883861657
 51
1.1691452593
 73
1
 72
1
 10
13.6146708546
 20
2.525013332
 11
13.6146708546
 21
2.5276393334
 72
2
 10
13.6171458541
 20
2.5276393353
 40
0.0024749995
 50
89.9999571958
 51
180.0000428043
 73
1
 72
1
 10
13.6171458559
 20
2.5301143348
 11
13.6292558626
 21
2.5301143348
 72
2
 10
13.6292558645
 20
2.5276393353
 40
0.0024749995
 50
359.9999571957
 51
90.0000428042
 73
1
 72
1
 10
13.631730864
 20
2.5276393334
 11
13.631730864
 21
2.516087327
 72
2
 10
13.6141751675
 20
2.5161916447
 40
0.0175560065
 50
332.2279060967
 51
359.6595469939
 73
1
 72
2
 10
13.6048681567
 20
2.5210861501
 40
0.0280715479
 50
308.5071794988
 51
332.2400656899
 73
1
 72
2
 10
13.5978759713
 20
2.5286873679
 40
0.0383802683
 50
288.7656836787
 51
309.6104317088
 73
1
 72
2
 10
13.6036139387
 20
2.5111006186
 40
0.0198837666
 50
271.8586572978
 51
289.4131338543
 73
1
 72
1
 10
13.6042588488
 20
2.4912273132
 11
13.5568948225
 21
2.4912273132
 97
267
330
287
330
288
330
289
330
28A
330
28B
330
28C
330
28D
330
28E
330
28F
330
290
330
291
330
292
330
293
330
294
330
295
330
296
330
297
330
298
330
299
330
29A
330
29B
330
29C
330
29D
330
29E
330
29F
330
2A0
330
2A1
330
2A2
330
2A3
330
2A4
330
2A5
330
2A6
330
2A7
330
2A8
330
2A9
330
2AA
330
2AB
330
2AC
330
2AD
330
2AE
330
2AF
330
2B0
330
2B1
330
2B2
330
2B3
330
2B4
330
2B5
330
2B6
330
2B7
330
2B8
330
2B9
330
2BA
330
2BB
330
2BC
330
2BD
330
2BE
330
2BF
330
2C0
330
2C1
330
2C2
330
2C3
330
2C4
330
2C5
330
2C6
330
2C7
330
2C8
330
2C9
330
2CA
330
2CB
330
2CC
330
2CD
330
2CE
330
2CF
330
2D0
330
2D1
330
2D2
330
2D3
330
2D4
330
2D5
330
2D6
330
2D7
330
2D8
330
2D9
330
2DA
330
2DB
330
2DC
330
2DD
330
2DE
330
2DF
330
2E0
330
2E1
330
2E2
330
2E3
330
2E4
330
2E5
330
2E6
330
2E7
330
2E8
330
2E9
330
2EA
330
2EB
330
2EC
330
2ED
330
2EE
330
2EF
330
2F0
330
2F1
330
2F2
330
2F3
330
2F4
330
2F5
330
2F6
330
2F7
330
2F8
330
2F9
330
2FA
330
2FB
330
2FC
330
2FD
330
2FE
330
2FF
330
300
330
301
330
302
330
303
330
304
330
305
330
306
330
307
330
308
330
309
330
30A
330
30B
330
30C
330
30D
330
30E
330
30F
330
310
330
311
330
312
330
313
330
314
330
315
330
316
330
317
330
318
330
319
330
31A
330
31B
330
31C
330
31D
330
31E
330
31F
330
320
330
321
330
322
330
323
330
324
330
325
330
326
330
327
330
328
330
329
330
32A
330
32B
330
32C
330
32D
330
32E
330
32F
330
330
330
331
330
332
330
333
330
334
330
335
330
336
330
337
330
338
330
339
330
33A
330
33B
330
33C
330
33D
330
33E
330
33F
330
340
330
341
330
342
330
343
330
344
330
345
330
346
330
347
330
348
330
349
330
34A
330
34B
330
34C
330
34D
330
34E
330
34F
330
350
330
351
330
352
330
353
330
354
330
355
330
356
330
357
330
358
330
359
330
35A
330
35B
330
35C
330
35D
330
35E
330
35F
330
360
330
361
330
362
330
363
330
364
330
365
330
366
330
367
330
368
330
369
330
36A
330
36B
330
36C
330
36D
330
36E
330
36F
330
370
330
371
330
372
330
373
330
374
330
375
330
376
330
377
330
378
330
379
330
37A
330
37B
330
37C
330
37D
330
37E
330
37F
330
380
330
381
330
382
330
383
330
384
330
385
330
386
330
387
330
388
330
389
330
38A
330
38B
330
38C
330
38D
330
38E
330
38F
330
390
330
391
 92
1
 93
40
 72
2
 10
13.1673166046
 20
2.4937023128
 40
0.0024749995
 50
179.9999571957
 51
270.0000428042
 73
1
 72
1
 10
13.1648416051
 20
2.4937023146
 11
13.1648416051
 21
2.5135023256
 72
2
 10
13.1673166046
 20
2.5135023274
 40
0.0024749995
 50
89.9999571958
 51
180.0000428043
 73
1
 72
1
 10
13.1673166065
 20
2.515977327
 11
13.1912396197
 21
2.515977327
 72
2
 10
13.1912396216
 20
2.5184523265
 40
0.0024749995
 50
269.9999571956
 51
0.0000428042
 73
1
 72
1
 10
13.1937146211
 20
2.5184523283
 11
13.1937146211
 21
2.564807354
 72
2
 10
13.1912396216
 20
2.5648073559
 40
0.0024749995
 50
359.9999571957
 51
90.0000428043
 73
1
 72
1
 10
13.1912396197
 20
2.5672823554
 11
13.1673166065
 21
2.5672823554
 72
2
 10
13.1673166046
 20
2.5697573549
 40
0.0024749995
 50
179.9999571957
 51
270.0000428043
 73
1
 72
1
 10
13.1648416051
 20
2.5697573568
 11
13.1648416051
 21
2.5895573678
 72
2
 10
13.1673166046
 20
2.5895573696
 40
0.0024749995
 50
89.9999571958
 51
180.0000428043
 73
1
 72
1
 10
13.1673166065
 20
2.5920323691
 11
13.3691097184
 21
2.5920323691
 72
2
 10
13.3691097202
 20
2.5895573696
 40
0.0024749995
 50
359.9999571957
 51
90.0000428042
 73
1
 72
1
 10
13.3715847197
 20
2.5895573678
 11
13.3715847197
 21
2.5565573495
 72
2
 10
13.3691097202
 20
2.5565573476
 40
0.0024749995
 50
269.9999571956
 51
0.0000428042
 73
1
 72
1
 10
13.3691097184
 20
2.5540823481
 11
13.3272456952
 21
2.5540823481
 72
2
 10
13.3272456933
 20
2.5565573476
 40
0.0024749995
 50
179.9999571957
 51
270.0000428043
 73
1
 72
1
 10
13.3247706938
 20
2.5565573495
 11
13.3247706938
 21
2.564807354
 72
2
 10
13.3222956943
 20
2.5648073559
 40
0.0024749995
 50
359.9999571957
 51
90.0000428043
 73
1
 72
1
 10
13.3222956924
 20
2.5672823554
 11
13.2582556569
 21
2.5672823554
 72
2
 10
13.2582556551
 20
2.5648073559
 40
0.0024749995
 50
89.9999571957
 51
180.0000428043
 73
1
 72
1
 10
13.2557806555
 20
2.564807354
 11
13.2557806555
 21
2.5532573476
 72
2
 10
13.2582556551
 20
2.5532573458
 40
0.0024749995
 50
179.9999571957
 51
270.0000428042
 73
1
 72
1
 10
13.2582556569
 20
2.5507823463
 11
13.2934226764
 21
2.5507823463
 72
2
 10
13.2934226783
 20
2.5483073467
 40
0.0024749995
 50
359.9999571957
 51
90.0000428042
 73
1
 72
1
 10
13.2958976778
 20
2.5483073449
 11
13.2958976778
 21
2.5349523375
 72
2
 10
13.2934226783
 20
2.5349523356
 40
0.0024749995
 50
269.9999571956
 51
0.0000428042
 73
1
 72
1
 10
13.2934226764
 20
2.5324773361
 11
13.2582556569
 21
2.5324773361
 72
2
 10
13.2582556551
 20
2.5300023366
 40
0.0024749995
 50
89.9999571957
 51
180.0000428043
 73
1
 72
1
 10
13.2557806555
 20
2.5300023347
 11
13.2557806555
 21
2.5184523283
 72
2
 10
13.2582556551
 20
2.5184523265
 40
0.0024749995
 50
179.9999571957
 51
270.0000428043
 73
1
 72
1
 10
13.2582556569
 20
2.515977327
 11
13.3232596929
 21
2.515977327
 72
2
 10
13.3232596948
 20
2.5184523265
 40
0.0024749995
 50
269.9999571958
 51
0.0000428043
 73
1
 72
1
 10
13.3257346943
 20
2.5184523283
 11
13.3257346943
 21
2.5267023329
 72
2
 10
13.3282096938
 20
2.5267023348
 40
0.0024749995
 50
89.9999571957
 51
180.0000428043
 73
1
 72
1
 10
13.3282096957
 20
2.5291773343
 11
13.3705287192
 21
2.5291773343
 72
2
 10
13.370528721
 20
2.5267023348
 40
0.0024749995
 50
359.9999571957
 51
90.0000428043
 73
1
 72
1
 10
13.3730037205
 20
2.5267023329
 11
13.3730037205
 21
2.4937023146
 72
2
 10
13.370528721
 20
2.4937023128
 40
0.0024749995
 50
269.9999571957
 51
0.0000428043
 73
1
 72
1
 10
13.3705287192
 20
2.4912273132
 11
13.1673166065
 21
2.4912273132
 97
267
330
287
330
288
330
289
330
28A
330
28B
330
28C
330
28D
330
28E
330
28F
330
290
330
291
330
292
330
293
330
294
330
295
330
296
330
297
330
298
330
299
330
29A
330
29B
330
29C
330
29D
330
29E
330
29F
330
2A0
330
2A1
330
2A2
330
2A3
330
2A4
330
2A5
330
2A6
330
2A7
330
2A8
330
2A9
330
2AA
330
2AB
330
2AC
330
2AD
330
2AE
330
2AF
330
2B0
330
2B1
330
2B2
330
2B3
330
2B4
330
2B5
330
2B6
330
2B7
330
2B8
330
2B9
330
2BA
330
2BB
330
2BC
330
2BD
330
2BE
330
2BF
330
2C0
330
2C1
330
2C2
330
2C3
330
2C4
330
2C5
330
2C6
330
2C7
330
2C8
330
2C9
330
2CA
330
2CB
330
2CC
330
2CD
330
2CE
330
2CF
330
2D0
330
2D1
330
2D2
330
2D3
330
2D4
330
2D5
330
2D6
330
2D7
330
2D8
330
2D9
330
2DA
330
2DB
330
2DC
330
2DD
330
2DE
330
2DF
330
2E0
330
2E1
330
2E2
330
2E3
330
2E4
330
2E5
330
2E6
330
2E7
330
2E8
330
2E9
330
2EA
330
2EB
330
2EC
330
2ED
330
2EE
330
2EF
330
2F0
330
2F1
330
2F2
330
2F3
330
2F4
330
2F5
330
2F6
330
2F7
330
2F8
330
2F9
330
2FA
330
2FB
330
2FC
330
2FD
330
2FE
330
2FF
330
300
330
301
330
302
330
303
330
304
330
305
330
306
330
307
330
308
330
309
330
30A
330
30B
330
30C
330
30D
330
30E
330
30F
330
310
330
311
330
312
330
313
330
314
330
315
330
316
330
317
330
318
330
319
330
31A
330
31B
330
31C
330
31D
330
31E
330
31F
330
320
330
321
330
322
330
323
330
324
330
325
330
326
330
327
330
328
330
329
330
32A
330
32B
330
32C
330
32D
330
32E
330
32F
330
330
330
331
330
332
330
333
330
334
330
335
330
336
330
337
330
338
330
339
330
33A
330
33B
330
33C
330
33D
330
33E
330
33F
330
340
330
341
330
342
330
343
330
344
330
345
330
346
330
347
330
348
330
349
330
34A
330
34B
330
34C
330
34D
330
34E
330
34F
330
350
330
351
330
352
330
353
330
354
330
355
330
356
330
357
330
358
330
359
330
35A
330
35B
330
35C
330
35D
330
35E
330
35F
330
360
330
361
330
362
330
363
330
364
330
365
330
366
330
367
330
368
330
369
330
36A
330
36B
330
36C
330
36D
330
36E
330
36F
330
370
330
371
330
372
330
373
330
374
330
375
330
376
330
377
330
378
330
379
330
37A
330
37B
330
37C
330
37D
330
37E
330
37F
330
380
330
381
330
382
330
383
330
384
330
385
330
386
330
387
330
388
330
389
330
38A
330
38B
330
38C
330
38D
330
38E
330
38F
330
390
330
391
 92
1
 93
40
 72
2
 10
13.0426374026
 20
2.493701481
 40
0.0024741678
 50
226.3477981898
 51
270.0031206038
 73
1
 72
1
 10
13.0409295364
 20
2.4919113136
 11
12.9776495013
 21
2.5522893471
 72
2
 10
12.9759408003
 20
2.5504984093
 40
0.0024753014
 50
46.3461263059
 51
180.0014637321
 73
1
 72
1
 10
12.973465499
 20
2.5504983461
 11
12.973465499
 21
2.5184523283
 72
2
 10
12.9759404985
 20
2.5184523265
 40
0.0024749995
 50
179.9999571957
 51
270.0000428043
 73
1
 72
1
 10
12.9759405003
 20
2.515977327
 11
12.9962575116
 21
2.515977327
 72
2
 10
12.9962575135
 20
2.5135023274
 40
0.0024749995
 50
359.9999571957
 51
90.0000428043
 73
1
 72
1
 10
12.998732513
 20
2.5135023256
 11
12.998732513
 21
2.4937023146
 72
2
 10
12.9962575135
 20
2.4937023128
 40
0.0024749995
 50
269.9999571957
 51
0.0000428043
 73
1
 72
1
 10
12.9962575116
 20
2.4912273132
 11
12.9205934696
 21
2.4912273132
 72
2
 10
12.9205934678
 20
2.4937023128
 40
0.0024749995
 50
179.9999571957
 51
270.0000428043
 73
1
 72
1
 10
12.9181184683
 20
2.4937023146
 11
12.9181184683
 21
2.5135023256
 72
2
 10
12.9205934678
 20
2.5135023274
 40
0.0024749995
 50
89.9999571956
 51
180.0000428042
 73
1
 72
1
 10
12.9205934696
 20
2.515977327
 11
12.93923948
 21
2.515977327
 72
2
 10
12.9392394818
 20
2.5184523265
 40
0.0024749995
 50
269.9999571957
 51
0.0000428043
 73
1
 72
1
 10
12.9417144814
 20
2.5184523283
 11
12.9417144814
 21
2.564807354
 72
2
 10
12.9392394818
 20
2.5648073559
 40
0.0024749995
 50
359.9999571957
 51
90.0000428043
 73
1
 72
1
 10
12.93923948
 20
2.5672823554
 11
12.9205934696
 21
2.5672823554
 72
2
 10
12.9205934678
 20
2.5697573549
 40
0.0024749995
 50
179.9999571957
 51
270.0000428043
 73
1
 72
1
 10
12.9181184683
 20
2.5697573568
 11
12.9181184683
 21
2.5895573678
 72
2
 10
12.9205934678
 20
2.5895573696
 40
0.0024749995
 50
89.9999571956
 51
180.0000428042
 73
1
 72
1
 10
12.9205934696
 20
2.5920323691
 11
13.0210515254
 21
2.5920323691
 72
2
 10
13.0210516601
 20
2.5895582013
 40
0.0024741678
 50
46.3477981898
 51
90.0031206038
 73
1
 72
1
 10
13.0227595263
 20
2.5913483688
 11
13.0827925596
 21
2.534068337
 72
2
 10
13.0845012605
 20
2.5358592748
 40
0.0024753014
 50
226.3461263059
 51
0.0014637321
 73
1
 72
1
 10
13.0869765619
 20
2.535859338
 11
13.0869765619
 21
2.564807354
 72
2
 10
13.0845015624
 20
2.5648073559
 40
0.0024749995
 50
359.9999571957
 51
90.0000428043
 73
1
 72
1
 10
13.0845015605
 20
2.5672823554
 11
13.0657255501
 21
2.5672823554
 72
2
 10
13.0657255483
 20
2.5697573549
 40
0.0024749995
 50
179.9999571957
 51
270.0000428043
 73
1
 72
1
 10
13.0632505488
 20
2.5697573568
 11
13.0632505488
 21
2.5895573678
 72
2
 10
13.0657255483
 20
2.5895573696
 40
0.0024749995
 50
89.9999571957
 51
180.0000428043
 73
1
 72
1
 10
13.0657255501
 20
2.5920323691
 11
13.1397265912
 21
2.5920323691
 72
2
 10
13.139726593
 20
2.5895573696
 40
0.0024749995
 50
359.9999571957
 51
90.0000428043
 73
1
 72
1
 10
13.1422015925
 20
2.5895573678
 11
13.1422015925
 21
2.5697573568
 72
2
 10
13.139726593
 20
2.5697573549
 40
0.0024749995
 50
269.9999571956
 51
0.0000428042
 73
1
 72
1
 10
13.1397265912
 20
2.5672823554
 11
13.1217935812
 21
2.5672823554
 72
2
 10
13.1217935794
 20
2.5648073559
 40
0.0024749995
 50
89.9999571957
 51
180.0000428042
 73
1
 72
1
 10
13.1193185799
 20
2.564807354
 11
13.1193185799
 21
2.4937023146
 72
2
 10
13.1168435803
 20
2.4937023128
 40
0.0024749995
 50
269.9999571957
 51
0.0000428043
 73
1
 72
1
 10
13.1168435785
 20
2.4912273132
 11
13.0426375373
 21
2.4912273132
 97
267
330
287
330
288
330
289
330
28A
330
28B
330
28C
330
28D
330
28E
330
28F
330
290
330
291
330
292
330
293
330
294
330
295
330
296
330
297
330
298
330
299
330
29A
330
29B
330
29C
330
29D
330
29E
330
29F
330
2A0
330
2A1
330
2A2
330
2A3
330
2A4
330
2A5
330
2A6
330
2A7
330
2A8
330
2A9
330
2AA
330
2AB
330
2AC
330
2AD
330
2AE
330
2AF
330
2B0
330
2B1
330
2B2
330
2B3
330
2B4
330
2B5
330
2B6
330
2B7
330
2B8
330
2B9
330
2BA
330
2BB
330
2BC
330
2BD
330
2BE
330
2BF
330
2C0
330
2C1
330
2C2
330
2C3
330
2C4
330
2C5
330
2C6
330
2C7
330
2C8
330
2C9
330
2CA
330
2CB
330
2CC
330
2CD
330
2CE
330
2CF
330
2D0
330
2D1
330
2D2
330
2D3
330
2D4
330
2D5
330
2D6
330
2D7
330
2D8
330
2D9
330
2DA
330
2DB
330
2DC
330
2DD
330
2DE
330
2DF
330
2E0
330
2E1
330
2E2
330
2E3
330
2E4
330
2E5
330
2E6
330
2E7
330
2E8
330
2E9
330
2EA
330
2EB
330
2EC
330
2ED
330
2EE
330
2EF
330
2F0
330
2F1
330
2F2
330
2F3
330
2F4
330
2F5
330
2F6
330
2F7
330
2F8
330
2F9
330
2FA
330
2FB
330
2FC
330
2FD
330
2FE
330
2FF
330
300
330
301
330
302
330
303
330
304
330
305
330
306
330
307
330
308
330
309
330
30A
330
30B
330
30C
330
30D
330
30E
330
30F
330
310
330
311
330
312
330
313
330
314
330
315
330
316
330
317
330
318
330
319
330
31A
330
31B
330
31C
330
31D
330
31E
330
31F
330
320
330
321
330
322
330
323
330
324
330
325
330
326
330
327
330
328
330
329
330
32A
330
32B
330
32C
330
32D
330
32E
330
32F
330
330
330
331
330
332
330
333
330
334
330
335
330
336
330
337
330
338
330
339
330
33A
330
33B
330
33C
330
33D
330
33E
330
33F
330
340
330
341
330
342
330
343
330
344
330
345
330
346
330
347
330
348
330
349
330
34A
330
34B
330
34C
330
34D
330
34E
330
34F
330
350
330
351
330
352
330
353
330
354
330
355
330
356
330
357
330
358
330
359
330
35A
330
35B
330
35C
330
35D
330
35E
330
35F
330
360
330
361
330
362
330
363
330
364
330
365
330
366
330
367
330
368
330
369
330
36A
330
36B
330
36C
330
36D
330
36E
330
36F
330
370
330
371
330
372
330
373
330
374
330
375
330
376
330
377
330
378
330
379
330
37A
330
37B
330
37C
330
37D
330
37E
330
37F
330
380
330
381
330
382
330
383
330
384
330
385
330
386
330
387
330
388
330
389
330
38A
330
38B
330
38C
330
38D
330
38E
330
38F
330
390
330
391
 92
1
 93
40
 72
2
 10
12.7943847649
 20
2.4937027294
 40
0.0024754162
 50
226.3593695813
 51
270.0146919953
 73
1
 72
1
 10
12.7926763987
 20
2.4919113136
 11
12.7293963636
 21
2.5522893471
 72
2
 10
12.7276876627
 20
2.5504984093
 40
0.0024753014
 50
46.3461263059
 51
180.0014637321
 73
1
 72
1
 10
12.7252123613
 20
2.5504983461
 11
12.7252123613
 21
2.5184523283
 72
2
 10
12.7276873608
 20
2.5184523265
 40
0.0024749995
 50
179.9999571957
 51
270.0000428043
 73
1
 72
1
 10
12.7276873627
 20
2.515977327
 11
12.7480043739
 21
2.515977327
 72
2
 10
12.7480043758
 20
2.5135023274
 40
0.0024749995
 50
359.9999571957
 51
90.0000428043
 73
1
 72
1
 10
12.7504793753
 20
2.5135023256
 11
12.7504793753
 21
2.4937023146
 72
2
 10
12.7480043758
 20
2.4937023128
 40
0.0024749995
 50
269.9999571958
 51
0.0000428043
 73
1
 72
1
 10
12.7480043739
 20
2.4912273132
 11
12.672340332
 21
2.4912273132
 72
2
 10
12.6723403301
 20
2.4937023128
 40
0.0024749995
 50
179.9999571957
 51
270.0000428042
 73
1
 72
1
 10
12.6698653306
 20
2.4937023146
 11
12.6698653306
 21
2.5135023256
 72
2
 10
12.6723403301
 20
2.5135023274
 40
0.0024749995
 50
89.9999571957
 51
180.0000428043
 73
1
 72
1
 10
12.672340332
 20
2.515977327
 11
12.6909873423
 21
2.515977327
 72
2
 10
12.6909873442
 20
2.5184523265
 40
0.0024749995
 50
269.9999571957
 51
0.0000428043
 73
1
 72
1
 10
12.6934623437
 20
2.5184523283
 11
12.6934623437
 21
2.564807354
 72
2
 10
12.6909873442
 20
2.5648073559
 40
0.0024749995
 50
359.9999571957
 51
90.0000428043
 73
1
 72
1
 10
12.6909873423
 20
2.5672823554
 11
12.672340332
 21
2.5672823554
 72
2
 10
12.6723403301
 20
2.5697573549
 40
0.0024749995
 50
179.9999571957
 51
270.0000428043
 73
1
 72
1
 10
12.6698653306
 20
2.5697573568
 11
12.6698653306
 21
2.5895573678
 72
2
 10
12.6723403301
 20
2.5895573696
 40
0.0024749995
 50
89.9999571957
 51
180.0000428043
 73
1
 72
1
 10
12.672340332
 20
2.5920323691
 11
12.7727983877
 21
2.5920323691
 72
2
 10
12.7727985224
 20
2.5895582013
 40
0.0024741678
 50
46.3477981899
 51
90.0031206038
 73
1
 72
1
 10
12.7745063886
 20
2.5913483688
 11
12.8345394219
 21
2.534068337
 72
2
 10
12.8362481229
 20
2.5358592748
 40
0.0024753014
 50
226.3461263059
 51
0.0014637321
 73
1
 72
1
 10
12.8387234242
 20
2.535859338
 11
12.8387234242
 21
2.564807354
 72
2
 10
12.8362484247
 20
2.5648073559
 40
0.0024749995
 50
359.9999571957
 51
90.0000428043
 73
1
 72
1
 10
12.8362484229
 20
2.5672823554
 11
12.8174724125
 21
2.5672823554
 72
2
 10
12.8174724106
 20
2.5697573549
 40
0.0024749995
 50
179.9999571957
 51
270.0000428043
 73
1
 72
1
 10
12.8149974111
 20
2.5697573568
 11
12.8149974111
 21
2.5895573678
 72
2
 10
12.8174724106
 20
2.5895573696
 40
0.0024749995
 50
89.9999571958
 51
180.0000428043
 73
1
 72
1
 10
12.8174724125
 20
2.5920323691
 11
12.8914734535
 21
2.5920323691
 72
2
 10
12.8914734553
 20
2.5895573696
 40
0.0024749995
 50
359.9999571957
 51
90.0000428042
 73
1
 72
1
 10
12.8939484549
 20
2.5895573678
 11
12.8939484549
 21
2.5697573568
 72
2
 10
12.8914734553
 20
2.5697573549
 40
0.0024749995
 50
269.9999571958
 51
0.0000428043
 73
1
 72
1
 10
12.8914734535
 20
2.5672823554
 11
12.8735404436
 21
2.5672823554
 72
2
 10
12.8735404417
 20
2.5648073559
 40
0.0024749995
 50
89.9999571957
 51
180.0000428043
 73
1
 72
1
 10
12.8710654422
 20
2.564807354
 11
12.8710654422
 21
2.4937023146
 72
2
 10
12.8685904427
 20
2.4937023128
 40
0.0024749995
 50
269.9999571957
 51
0.0000428043
 73
1
 72
1
 10
12.8685904408
 20
2.4912273132
 11
12.7943853997
 21
2.4912273132
 97
267
330
287
330
288
330
289
330
28A
330
28B
330
28C
330
28D
330
28E
330
28F
330
290
330
291
330
292
330
293
330
294
330
295
330
296
330
297
330
298
330
299
330
29A
330
29B
330
29C
330
29D
330
29E
330
29F
330
2A0
330
2A1
330
2A2
330
2A3
330
2A4
330
2A5
330
2A6
330
2A7
330
2A8
330
2A9
330
2AA
330
2AB
330
2AC
330
2AD
330
2AE
330
2AF
330
2B0
330
2B1
330
2B2
330
2B3
330
2B4
330
2B5
330
2B6
330
2B7
330
2B8
330
2B9
330
2BA
330
2BB
330
2BC
330
2BD
330
2BE
330
2BF
330
2C0
330
2C1
330
2C2
330
2C3
330
2C4
330
2C5
330
2C6
330
2C7
330
2C8
330
2C9
330
2CA
330
2CB
330
2CC
330
2CD
330
2CE
330
2CF
330
2D0
330
2D1
330
2D2
330
2D3
330
2D4
330
2D5
330
2D6
330
2D7
330
2D8
330
2D9
330
2DA
330
2DB
330
2DC
330
2DD
330
2DE
330
2DF
330
2E0
330
2E1
330
2E2
330
2E3
330
2E4
330
2E5
330
2E6
330
2E7
330
2E8
330
2E9
330
2EA
330
2EB
330
2EC
330
2ED
330
2EE
330
2EF
330
2F0
330
2F1
330
2F2
330
2F3
330
2F4
330
2F5
330
2F6
330
2F7
330
2F8
330
2F9
330
2FA
330
2FB
330
2FC
330
2FD
330
2FE
330
2FF
330
300
330
301
330
302
330
303
330
304
330
305
330
306
330
307
330
308
330
309
330
30A
330
30B
330
30C
330
30D
330
30E
330
30F
330
310
330
311
330
312
330
313
330
314
330
315
330
316
330
317
330
318
330
319
330
31A
330
31B
330
31C
330
31D
330
31E
330
31F
330
320
330
321
330
322
330
323
330
324
330
325
330
326
330
327
330
328
330
329
330
32A
330
32B
330
32C
330
32D
330
32E
330
32F
330
330
330
331
330
332
330
333
330
334
330
335
330
336
330
337
330
338
330
339
330
33A
330
33B
330
33C
330
33D
330
33E
330
33F
330
340
330
341
330
342
330
343
330
344
330
345
330
346
330
347
330
348
330
349
330
34A
330
34B
330
34C
330
34D
330
34E
330
34F
330
350
330
351
330
352
330
353
330
354
330
355
330
356
330
357
330
358
330
359
330
35A
330
35B
330
35C
330
35D
330
35E
330
35F
330
360
330
361
330
362
330
363
330
364
330
365
330
366
330
367
330
368
330
369
330
36A
330
36B
330
36C
330
36D
330
36E
330
36F
330
370
330
371
330
372
330
373
330
374
330
375
330
376
330
377
330
378
330
379
330
37A
330
37B
330
37C
330
37D
330
37E
330
37F
330
380
330
381
330
382
330
383
330
384
330
385
330
386
330
387
330
388
330
389
330
38A
330
38B
330
38C
330
38D
330
38E
330
38F
330
390
330
391
 92
1
 93
23
 72
2
 10
12.3792298263
 20
2.539634765
 40
0.048483885
 50
273.21763719
 51
303.0749121182
 73
1
 72
2
 10
12.3940692204
 20
2.5168671561
 40
0.0213072145
 50
303.0488228549
 51
355.7263138674
 73
1
 72
2
 10
12.400005721
 20
2.5168763464
 40
0.0153945295
 50
354.0454548824
 51
5.1878013979
 73
1
 72
2
 10
12.3931760319
 20
2.5166878286
 40
0.0222174455
 50
4.0793399388
 51
69.834329283
 73
1
 72
1
 10
12.4008351814
 20
2.5375433389
 11
12.3907841758
 21
2.5410923409
 72
1
 10
12.3907841758
 20
2.5410923409
 11
12.3990241804
 21
2.5458683435
 72
2
 10
12.3771587979
 20
2.5826952352
 40
0.0428289026
 50
300.6990502959
 51
319.0591802498
 73
1
 72
2
 10
12.3971873948
 20
2.5665668817
 40
0.0171568255
 50
315.9145124245
 51
16.0049121282
 73
1
 72
2
 10
12.3922357827
 20
2.5632132173
 40
0.0229166529
 50
20.6563876465
 51
62.3316896973
 73
1
 72
2
 10
12.371573659
 20
2.5302846524
 40
0.061747717
 50
59.5385584989
 51
90.0050977555
 73
1
 72
1
 10
12.3715681652
 20
2.5920323691
 11
12.2055050731
 21
2.5920323691
 72
2
 10
12.2055050712
 20
2.5895573696
 40
0.0024749995
 50
89.9999571957
 51
180.0000428043
 73
1
 72
1
 10
12.2030300717
 20
2.5895573678
 11
12.2030300717
 21
2.5697573568
 72
2
 10
12.2055050712
 20
2.5697573549
 40
0.0024749995
 50
179.9999571957
 51
270.0000428043
 73
1
 72
1
 10
12.2055050731
 20
2.5672823554
 11
12.2294470864
 21
2.5672823554
 72
2
 10
12.2294470882
 20
2.5648073559
 40
0.0024749995
 50
359.9999571957
 51
90.0000428043
 73
1
 72
1
 10
12.2319220877
 20
2.564807354
 11
12.2319220877
 21
2.5184523283
 72
2
 10
12.2294470882
 20
2.5184523265
 40
0.0024749995
 50
269.9999571957
 51
0.0000428043
 73
1
 72
1
 10
12.2294470864
 20
2.515977327
 11
12.2055050731
 21
2.515977327
 72
2
 10
12.2055050712
 20
2.5135023274
 40
0.0024749995
 50
89.9999571957
 51
180.0000428043
 73
1
 72
1
 10
12.2030300717
 20
2.5135023256
 11
12.2030300717
 21
2.4937023146
 72
2
 10
12.2055050712
 20
2.4937023128
 40
0.0024749995
 50
179.9999571957
 51
270.0000428043
 73
1
 72
1
 10
12.2055050731
 20
2.4912273132
 11
12.3819511709
 21
2.4912273132
 97
267
330
287
330
288
330
289
330
28A
330
28B
330
28C
330
28D
330
28E
330
28F
330
290
330
291
330
292
330
293
330
294
330
295
330
296
330
297
330
298
330
299
330
29A
330
29B
330
29C
330
29D
330
29E
330
29F
330
2A0
330
2A1
330
2A2
330
2A3
330
2A4
330
2A5
330
2A6
330
2A7
330
2A8
330
2A9
330
2AA
330
2AB
330
2AC
330
2AD
330
2AE
330
2AF
330
2B0
330
2B1
330
2B2
330
2B3
330
2B4
330
2B5
330
2B6
330
2B7
330
2B8
330
2B9
330
2BA
330
2BB
330
2BC
330
2BD
330
2BE
330
2BF
330
2C0
330
2C1
330
2C2
330
2C3
330
2C4
330
2C5
330
2C6
330
2C7
330
2C8
330
2C9
330
2CA
330
2CB
330
2CC
330
2CD
330
2CE
330
2CF
330
2D0
330
2D1
330
2D2
330
2D3
330
2D4
330
2D5
330
2D6
330
2D7
330
2D8
330
2D9
330
2DA
330
2DB
330
2DC
330
2DD
330
2DE
330
2DF
330
2E0
330
2E1
330
2E2
330
2E3
330
2E4
330
2E5
330
2E6
330
2E7
330
2E8
330
2E9
330
2EA
330
2EB
330
2EC
330
2ED
330
2EE
330
2EF
330
2F0
330
2F1
330
2F2
330
2F3
330
2F4
330
2F5
330
2F6
330
2F7
330
2F8
330
2F9
330
2FA
330
2FB
330
2FC
330
2FD
330
2FE
330
2FF
330
300
330
301
330
302
330
303
330
304
330
305
330
306
330
307
330
308
330
309
330
30A
330
30B
330
30C
330
30D
330
30E
330
30F
330
310
330
311
330
312
330
313
330
314
330
315
330
316
330
317
330
318
330
319
330
31A
330
31B
330
31C
330
31D
330
31E
330
31F
330
320
330
321
330
322
330
323
330
324
330
325
330
326
330
327
330
328
330
329
330
32A
330
32B
330
32C
330
32D
330
32E
330
32F
330
330
330
331
330
332
330
333
330
334
330
335
330
336
330
337
330
338
330
339
330
33A
330
33B
330
33C
330
33D
330
33E
330
33F
330
340
330
341
330
342
330
343
330
344
330
345
330
346
330
347
330
348
330
349
330
34A
330
34B
330
34C
330
34D
330
34E
330
34F
330
350
330
351
330
352
330
353
330
354
330
355
330
356
330
357
330
358
330
359
330
35A
330
35B
330
35C
330
35D
330
35E
330
35F
330
360
330
361
330
362
330
363
330
364
330
365
330
366
330
367
330
368
330
369
330
36A
330
36B
330
36C
330
36D
330
36E
330
36F
330
370
330
371
330
372
330
373
330
374
330
375
330
376
330
377
330
378
330
379
330
37A
330
37B
330
37C
330
37D
330
37E
330
37F
330
380
330
381
330
382
330
383
330
384
330
385
330
386
330
387
330
388
330
389
330
38A
330
38B
330
38C
330
38D
330
38E
330
38F
330
390
330
391
 92
1
 93
32
 72
2
 10
12.5168642476
 20
2.4937023128
 40
0.0024749995
 50
269.9999571957
 51
0.0000428043
 73
1
 72
1
 10
12.5193392471
 20
2.4937023146
 11
12.5193392471
 21
2.5135023256
 72
2
 10
12.5168642476
 20
2.5135023274
 40
0.0024749995
 50
359.9999571957
 51
90.0000428043
 73
1
 72
1
 10
12.5168642458
 20
2.515977327
 11
12.5055812395
 21
2.515977327
 72
2
 10
12.5055811302
 20
2.518452367
 40
0.0024750401
 50
147.6063258011
 51
270.0025305754
 73
1
 72
1
 10
12.5034912383
 20
2.5197783291
 11
12.5090072414
 21
2.5284723339
 72
2
 10
12.5110971723
 20
2.5271461342
 40
0.0024752003
 50
89.998372645
 51
147.602165307
 73
1
 72
1
 10
12.5110972426
 20
2.5296213345
 11
12.5459752619
 21
2.5296213345
 72
2
 10
12.5459747223
 20
2.5271458744
 40
0.0024754602
 50
32.8959418573
 51
89.9875097202
 73
1
 72
1
 10
12.548053263
 20
2.5284903339
 11
12.5536792662
 21
2.5197973291
 72
2
 10
12.5516012439
 20
2.5184525341
 40
0.0024752071
 50
270.0004896794
 51
32.9089806818
 73
1
 72
1
 10
12.551601265
 20
2.515977327
 11
12.537150257
 21
2.515977327
 72
2
 10
12.5371502552
 20
2.5135023274
 40
0.0024749995
 50
89.9999571958
 51
180.0000428043
 73
1
 72
1
 10
12.5346752556
 20
2.5135023256
 11
12.5346752556
 21
2.4937023146
 72
2
 10
12.5371502552
 20
2.4937023128
 40
0.0024749995
 50
179.9999571957
 51
270.0000428042
 73
1
 72
1
 10
12.537150257
 20
2.4912273132
 11
12.6424313154
 21
2.4912273132
 72
2
 10
12.6424313172
 20
2.4937023128
 40
0.0024749995
 50
269.9999571957
 51
0.0000428043
 73
1
 72
1
 10
12.6449063168
 20
2.4937023146
 11
12.6449063168
 21
2.5135023256
 72
2
 10
12.6424313172
 20
2.5135023274
 40
0.0024749995
 50
359.9999571957
 51
90.0000428043
 73
1
 72
1
 10
12.6424313154
 20
2.515977327
 11
12.6224153043
 21
2.515977327
 72
2
 10
12.6224154248
 20
2.518451368
 40
0.002474041
 50
212.9056413127
 51
269.9972091756
 73
1
 72
1
 10
12.6203383031
 20
2.5171073276
 11
12.5725822767
 21
2.5909023685
 72
2
 10
12.570504655
 20
2.589557409
 40
0.0024749602
 50
32.9172174468
 51
90.0087853097
 73
1
 72
1
 10
12.5705042755
 20
2.5920323691
 11
12.5133292438
 21
2.5920323691
 72
2
 10
12.5133291735
 20
2.5895571688
 40
0.0024752003
 50
89.9983726451
 51
147.602165307
 73
1
 72
1
 10
12.5112392426
 20
2.5908833685
 11
12.4644392167
 21
2.5171263276
 72
2
 10
12.4623492858
 20
2.5184525273
 40
0.0024752003
 50
269.9983726451
 51
327.602165307
 73
1
 72
1
 10
12.4623492155
 20
2.515977327
 11
12.4394882028
 21
2.515977327
 72
2
 10
12.439488201
 20
2.5135023274
 40
0.0024749995
 50
89.9999571958
 51
180.0000428043
 73
1
 72
1
 10
12.4370132015
 20
2.5135023256
 11
12.4370132015
 21
2.4937023146
 72
2
 10
12.439488201
 20
2.4937023128
 40
0.0024749995
 50
179.9999571957
 51
270.0000428042
 73
1
 72
1
 10
12.4394882028
 20
2.4912273132
 11
12.5168642458
 21
2.4912273132
 97
267
330
287
330
288
330
289
330
28A
330
28B
330
28C
330
28D
330
28E
330
28F
330
290
330
291
330
292
330
293
330
294
330
295
330
296
330
297
330
298
330
299
330
29A
330
29B
330
29C
330
29D
330
29E
330
29F
330
2A0
330
2A1
330
2A2
330
2A3
330
2A4
330
2A5
330
2A6
330
2A7
330
2A8
330
2A9
330
2AA
330
2AB
330
2AC
330
2AD
330
2AE
330
2AF
330
2B0
330
2B1
330
2B2
330
2B3
330
2B4
330
2B5
330
2B6
330
2B7
330
2B8
330
2B9
330
2BA
330
2BB
330
2BC
330
2BD
330
2BE
330
2BF
330
2C0
330
2C1
330
2C2
330
2C3
330
2C4
330
2C5
330
2C6
330
2C7
330
2C8
330
2C9
330
2CA
330
2CB
330
2CC
330
2CD
330
2CE
330
2CF
330
2D0
330
2D1
330
2D2
330
2D3
330
2D4
330
2D5
330
2D6
330
2D7
330
2D8
330
2D9
330
2DA
330
2DB
330
2DC
330
2DD
330
2DE
330
2DF
330
2E0
330
2E1
330
2E2
330
2E3
330
2E4
330
2E5
330
2E6
330
2E7
330
2E8
330
2E9
330
2EA
330
2EB
330
2EC
330
2ED
330
2EE
330
2EF
330
2F0
330
2F1
330
2F2
330
2F3
330
2F4
330
2F5
330
2F6
330
2F7
330
2F8
330
2F9
330
2FA
330
2FB
330
2FC
330
2FD
330
2FE
330
2FF
330
300
330
301
330
302
330
303
330
304
330
305
330
306
330
307
330
308
330
309
330
30A
330
30B
330
30C
330
30D
330
30E
330
30F
330
310
330
311
330
312
330
313
330
314
330
315
330
316
330
317
330
318
330
319
330
31A
330
31B
330
31C
330
31D
330
31E
330
31F
330
320
330
321
330
322
330
323
330
324
330
325
330
326
330
327
330
328
330
329
330
32A
330
32B
330
32C
330
32D
330
32E
330
32F
330
330
330
331
330
332
330
333
330
334
330
335
330
336
330
337
330
338
330
339
330
33A
330
33B
330
33C
330
33D
330
33E
330
33F
330
340
330
341
330
342
330
343
330
344
330
345
330
346
330
347
330
348
330
349
330
34A
330
34B
330
34C
330
34D
330
34E
330
34F
330
350
330
351
330
352
330
353
330
354
330
355
330
356
330
357
330
358
330
359
330
35A
330
35B
330
35C
330
35D
330
35E
330
35F
330
360
330
361
330
362
330
363
330
364
330
365
330
366
330
367
330
368
330
369
330
36A
330
36B
330
36C
330
36D
330
36E
330
36F
330
370
330
371
330
372
330
373
330
374
330
375
330
376
330
377
330
378
330
379
330
37A
330
37B
330
37C
330
37D
330
37E
330
37F
330
380
330
381
330
382
330
383
330
384
330
385
330
386
330
387
330
388
330
389
330
38A
330
38B
330
38C
330
38D
330
38E
330
38F
330
390
330
391
 92
1
 93
6
 72
2
 10
12.2949101208
 20
2.5184523265
 40
0.0024749995
 50
179.9999571957
 51
270.0000428043
 73
1
 72
1
 10
12.2924351213
 20
2.5184523283
 11
12.2924351213
 21
2.5308273352
 72
2
 10
12.2949101208
 20
2.530827337
 40
0.0024749995
 50
89.9999571957
 51
180.0000428043
 73
1
 72
1
 10
12.2949101227
 20
2.5333023366
 11
12.3362731456
 21
2.5333023366
 72
2
 10
12.3362731456
 20
2.5246398318
 40
0.0086625048
 50
270.0
 51
90.0
 73
1
 72
1
 10
12.3362731456
 20
2.515977327
 11
12.2949101227
 21
2.515977327
 97
267
330
287
330
288
330
289
330
28A
330
28B
330
28C
330
28D
330
28E
330
28F
330
290
330
291
330
292
330
293
330
294
330
295
330
296
330
297
330
298
330
299
330
29A
330
29B
330
29C
330
29D
330
29E
330
29F
330
2A0
330
2A1
330
2A2
330
2A3
330
2A4
330
2A5
330
2A6
330
2A7
330
2A8
330
2A9
330
2AA
330
2AB
330
2AC
330
2AD
330
2AE
330
2AF
330
2B0
330
2B1
330
2B2
330
2B3
330
2B4
330
2B5
330
2B6
330
2B7
330
2B8
330
2B9
330
2BA
330
2BB
330
2BC
330
2BD
330
2BE
330
2BF
330
2C0
330
2C1
330
2C2
330
2C3
330
2C4
330
2C5
330
2C6
330
2C7
330
2C8
330
2C9
330
2CA
330
2CB
330
2CC
330
2CD
330
2CE
330
2CF
330
2D0
330
2D1
330
2D2
330
2D3
330
2D4
330
2D5
330
2D6
330
2D7
330
2D8
330
2D9
330
2DA
330
2DB
330
2DC
330
2DD
330
2DE
330
2DF
330
2E0
330
2E1
330
2E2
330
2E3
330
2E4
330
2E5
330
2E6
330
2E7
330
2E8
330
2E9
330
2EA
330
2EB
330
2EC
330
2ED
330
2EE
330
2EF
330
2F0
330
2F1
330
2F2
330
2F3
330
2F4
330
2F5
330
2F6
330
2F7
330
2F8
330
2F9
330
2FA
330
2FB
330
2FC
330
2FD
330
2FE
330
2FF
330
300
330
301
330
302
330
303
330
304
330
305
330
306
330
307
330
308
330
309
330
30A
330
30B
330
30C
330
30D
330
30E
330
30F
330
310
330
311
330
312
330
313
330
314
330
315
330
316
330
317
330
318
330
319
330
31A
330
31B
330
31C
330
31D
330
31E
330
31F
330
320
330
321
330
322
330
323
330
324
330
325
330
326
330
327
330
328
330
329
330
32A
330
32B
330
32C
330
32D
330
32E
330
32F
330
330
330
331
330
332
330
333
330
334
330
335
330
336
330
337
330
338
330
339
330
33A
330
33B
330
33C
330
33D
330
33E
330
33F
330
340
330
341
330
342
330
343
330
344
330
345
330
346
330
347
330
348
330
349
330
34A
330
34B
330
34C
330
34D
330
34E
330
34F
330
350
330
351
330
352
330
353
330
354
330
355
330
356
330
357
330
358
330
359
330
35A
330
35B
330
35C
330
35D
330
35E
330
35F
330
360
330
361
330
362
330
363
330
364
330
365
330
366
330
367
330
368
330
369
330
36A
330
36B
330
36C
330
36D
330
36E
330
36F
330
370
330
371
330
372
330
373
330
374
330
375
330
376
330
377
330
378
330
379
330
37A
330
37B
330
37C
330
37D
330
37E
330
37F
330
380
330
381
330
382
330
383
330
384
330
385
330
386
330
387
330
388
330
389
330
38A
330
38B
330
38C
330
38D
330
38E
330
38F
330
390
330
391
 92
1
 93
13
 72
2
 10
13.4883447827
 20
2.5520823451
 40
0.0024749995
 50
179.9999571957
 51
270.0000428042
 73
1
 72
1
 10
13.4858697831
 20
2.552082347
 11
13.4858697831
 21
2.564807354
 72
2
 10
13.4883447827
 20
2.5648073559
 40
0.0024749995
 50
89.9999571958
 51
180.0000428043
 73
1
 72
1
 10
13.4883447845
 20
2.5672823554
 11
13.5251458049
 21
2.5672823554
 72
2
 10
13.5236009174
 20
2.5388278764
 40
0.0284963867
 50
70.3834917948
 51
86.8922743861
 73
1
 72
2
 10
13.5284605274
 20
2.5518696094
 40
0.0145814632
 50
54.6746025112
 51
71.1660573124
 73
1
 72
2
 10
13.5335900184
 20
2.5587235346
 40
0.0060275915
 50
20.9055592135
 51
56.7851676243
 73
1
 72
2
 10
13.5348905773
 20
2.5593838168
 40
0.0045795888
 50
355.6235353944
 51
18.9942678268
 73
1
 72
2
 10
13.533683767
 20
2.559677593
 40
0.0058087709
 50
318.8515287446
 51
353.6422345323
 73
1
 72
2
 10
13.5295131508
 20
2.5629115009
 40
0.0110815393
 50
306.758405961
 51
320.4502234234
 73
1
 72
2
 10
13.5238839599
 20
2.5706523294
 40
0.0206523367
 50
289.6883413472
 51
306.4184925496
 73
1
 72
2
 10
13.5219564542
 20
2.5750459767
 40
0.0254407115
 50
270.7327484175
 51
290.441894219
 73
1
 72
1
 10
13.5222818033
 20
2.5496073456
 11
13.4883447845
 21
2.5496073456
 97
267
330
287
330
288
330
289
330
28A
330
28B
330
28C
330
28D
330
28E
330
28F
330
290
330
291
330
292
330
293
330
294
330
295
330
296
330
297
330
298
330
299
330
29A
330
29B
330
29C
330
29D
330
29E
330
29F
330
2A0
330
2A1
330
2A2
330
2A3
330
2A4
330
2A5
330
2A6
330
2A7
330
2A8
330
2A9
330
2AA
330
2AB
330
2AC
330
2AD
330
2AE
330
2AF
330
2B0
330
2B1
330
2B2
330
2B3
330
2B4
330
2B5
330
2B6
330
2B7
330
2B8
330
2B9
330
2BA
330
2BB
330
2BC
330
2BD
330
2BE
330
2BF
330
2C0
330
2C1
330
2C2
330
2C3
330
2C4
330
2C5
330
2C6
330
2C7
330
2C8
330
2C9
330
2CA
330
2CB
330
2CC
330
2CD
330
2CE
330
2CF
330
2D0
330
2D1
330
2D2
330
2D3
330
2D4
330
2D5
330
2D6
330
2D7
330
2D8
330
2D9
330
2DA
330
2DB
330
2DC
330
2DD
330
2DE
330
2DF
330
2E0
330
2E1
330
2E2
330
2E3
330
2E4
330
2E5
330
2E6
330
2E7
330
2E8
330
2E9
330
2EA
330
2EB
330
2EC
330
2ED
330
2EE
330
2EF
330
2F0
330
2F1
330
2F2
330
2F3
330
2F4
330
2F5
330
2F6
330
2F7
330
2F8
330
2F9
330
2FA
330
2FB
330
2FC
330
2FD
330
2FE
330
2FF
330
300
330
301
330
302
330
303
330
304
330
305
330
306
330
307
330
308
330
309
330
30A
330
30B
330
30C
330
30D
330
30E
330
30F
330
310
330
311
330
312
330
313
330
314
330
315
330
316
330
317
330
318
330
319
330
31A
330
31B
330
31C
330
31D
330
31E
330
31F
330
320
330
321
330
322
330
323
330
324
330
325
330
326
330
327
330
328
330
329
330
32A
330
32B
330
32C
330
32D
330
32E
330
32F
330
330
330
331
330
332
330
333
330
334
330
335
330
336
330
337
330
338
330
339
330
33A
330
33B
330
33C
330
33D
330
33E
330
33F
330
340
330
341
330
342
330
343
330
344
330
345
330
346
330
347
330
348
330
349
330
34A
330
34B
330
34C
330
34D
330
34E
330
34F
330
350
330
351
330
352
330
353
330
354
330
355
330
356
330
357
330
358
330
359
330
35A
330
35B
330
35C
330
35D
330
35E
330
35F
330
360
330
361
330
362
330
363
330
364
330
365
330
366
330
367
330
368
330
369
330
36A
330
36B
330
36C
330
36D
330
36E
330
36F
330
370
330
371
330
372
330
373
330
374
330
375
330
376
330
377
330
378
330
379
330
37A
330
37B
330
37C
330
37D
330
37E
330
37F
330
380
330
381
330
382
330
383
330
384
330
385
330
386
330
387
330
388
330
389
330
38A
330
38B
330
38C
330
38D
330
38E
330
38F
330
390
330
391
 92
1
 93
6
 72
2
 10
12.3362731456
 20
2.5586198506
 40
0.0086625048
 50
270.0
 51
90.0
 73
1
 72
1
 10
12.3362731456
 20
2.5672823554
 11
12.2949101227
 21
2.5672823554
 72
2
 10
12.2949101208
 20
2.5648073559
 40
0.0024749995
 50
89.9999571957
 51
180.0000428043
 73
1
 72
1
 10
12.2924351213
 20
2.564807354
 11
12.2924351213
 21
2.5524323472
 72
2
 10
12.2949101208
 20
2.5524323453
 40
0.0024749995
 50
179.9999571957
 51
270.0000428043
 73
1
 72
1
 10
12.2949101227
 20
2.5499573458
 11
12.3362731456
 21
2.5499573458
 97
267
330
287
330
288
330
289
330
28A
330
28B
330
28C
330
28D
330
28E
330
28F
330
290
330
291
330
292
330
293
330
294
330
295
330
296
330
297
330
298
330
299
330
29A
330
29B
330
29C
330
29D
330
29E
330
29F
330
2A0
330
2A1
330
2A2
330
2A3
330
2A4
330
2A5
330
2A6
330
2A7
330
2A8
330
2A9
330
2AA
330
2AB
330
2AC
330
2AD
330
2AE
330
2AF
330
2B0
330
2B1
330
2B2
330
2B3
330
2B4
330
2B5
330
2B6
330
2B7
330
2B8
330
2B9
330
2BA
330
2BB
330
2BC
330
2BD
330
2BE
330
2BF
330
2C0
330
2C1
330
2C2
330
2C3
330
2C4
330
2C5
330
2C6
330
2C7
330
2C8
330
2C9
330
2CA
330
2CB
330
2CC
330
2CD
330
2CE
330
2CF
330
2D0
330
2D1
330
2D2
330
2D3
330
2D4
330
2D5
330
2D6
330
2D7
330
2D8
330
2D9
330
2DA
330
2DB
330
2DC
330
2DD
330
2DE
330
2DF
330
2E0
330
2E1
330
2E2
330
2E3
330
2E4
330
2E5
330
2E6
330
2E7
330
2E8
330
2E9
330
2EA
330
2EB
330
2EC
330
2ED
330
2EE
330
2EF
330
2F0
330
2F1
330
2F2
330
2F3
330
2F4
330
2F5
330
2F6
330
2F7
330
2F8
330
2F9
330
2FA
330
2FB
330
2FC
330
2FD
330
2FE
330
2FF
330
300
330
301
330
302
330
303
330
304
330
305
330
306
330
307
330
308
330
309
330
30A
330
30B
330
30C
330
30D
330
30E
330
30F
330
310
330
311
330
312
330
313
330
314
330
315
330
316
330
317
330
318
330
319
330
31A
330
31B
330
31C
330
31D
330
31E
330
31F
330
320
330
321
330
322
330
323
330
324
330
325
330
326
330
327
330
328
330
329
330
32A
330
32B
330
32C
330
32D
330
32E
330
32F
330
330
330
331
330
332
330
333
330
334
330
335
330
336
330
337
330
338
330
339
330
33A
330
33B
330
33C
330
33D
330
33E
330
33F
330
340
330
341
330
342
330
343
330
344
330
345
330
346
330
347
330
348
330
349
330
34A
330
34B
330
34C
330
34D
330
34E
330
34F
330
350
330
351
330
352
330
353
330
354
330
355
330
356
330
357
330
358
330
359
330
35A
330
35B
330
35C
330
35D
330
35E
330
35F
330
360
330
361
330
362
330
363
330
364
330
365
330
366
330
367
330
368
330
369
330
36A
330
36B
330
36C
330
36D
330
36E
330
36F
330
370
330
371
330
372
330
373
330
374
330
375
330
376
330
377
330
378
330
379
330
37A
330
37B
330
37C
330
37D
330
37E
330
37F
330
380
330
381
330
382
330
383
330
384
330
385
330
386
330
387
330
388
330
389
330
38A
330
38B
330
38C
330
38D
330
38E
330
38F
330
390
330
391
 92
1
 93
8
 72
2
 10
12.5401702375
 20
2.5530465533
 40
0.0024752071
 50
270.0004896793
 51
32.9089806818
 73
1
 72
1
 10
12.5422482598
 20
2.5543913483
 11
12.5349892558
 21
2.5656073545
 72
2
 10
12.532910715
 20
2.564262895
 40
0.0024754602
 50
32.8959418573
 51
89.9875097202
 73
1
 72
1
 10
12.5329112547
 20
2.5667383551
 11
12.5267302512
 21
2.5667383551
 72
2
 10
12.5267301809
 20
2.5642631548
 40
0.0024752003
 50
89.998372645
 51
147.602165307
 73
1
 72
1
 10
12.5246402501
 20
2.5655893545
 11
12.5175232461
 21
2.5543723483
 72
2
 10
12.519613138
 20
2.5530463862
 40
0.0024750401
 50
147.6063258012
 51
270.0025305754
 73
1
 72
1
 10
12.5196132473
 20
2.5505713461
 11
12.5401702587
 21
2.5505713461
 97
267
330
287
330
288
330
289
330
28A
330
28B
330
28C
330
28D
330
28E
330
28F
330
290
330
291
330
292
330
293
330
294
330
295
330
296
330
297
330
298
330
299
330
29A
330
29B
330
29C
330
29D
330
29E
330
29F
330
2A0
330
2A1
330
2A2
330
2A3
330
2A4
330
2A5
330
2A6
330
2A7
330
2A8
330
2A9
330
2AA
330
2AB
330
2AC
330
2AD
330
2AE
330
2AF
330
2B0
330
2B1
330
2B2
330
2B3
330
2B4
330
2B5
330
2B6
330
2B7
330
2B8
330
2B9
330
2BA
330
2BB
330
2BC
330
2BD
330
2BE
330
2BF
330
2C0
330
2C1
330
2C2
330
2C3
330
2C4
330
2C5
330
2C6
330
2C7
330
2C8
330
2C9
330
2CA
330
2CB
330
2CC
330
2CD
330
2CE
330
2CF
330
2D0
330
2D1
330
2D2
330
2D3
330
2D4
330
2D5
330
2D6
330
2D7
330
2D8
330
2D9
330
2DA
330
2DB
330
2DC
330
2DD
330
2DE
330
2DF
330
2E0
330
2E1
330
2E2
330
2E3
330
2E4
330
2E5
330
2E6
330
2E7
330
2E8
330
2E9
330
2EA
330
2EB
330
2EC
330
2ED
330
2EE
330
2EF
330
2F0
330
2F1
330
2F2
330
2F3
330
2F4
330
2F5
330
2F6
330
2F7
330
2F8
330
2F9
330
2FA
330
2FB
330
2FC
330
2FD
330
2FE
330
2FF
330
300
330
301
330
302
330
303
330
304
330
305
330
306
330
307
330
308
330
309
330
30A
330
30B
330
30C
330
30D
330
30E
330
30F
330
310
330
311
330
312
330
313
330
314
330
315
330
316
330
317
330
318
330
319
330
31A
330
31B
330
31C
330
31D
330
31E
330
31F
330
320
330
321
330
322
330
323
330
324
330
325
330
326
330
327
330
328
330
329
330
32A
330
32B
330
32C
330
32D
330
32E
330
32F
330
330
330
331
330
332
330
333
330
334
330
335
330
336
330
337
330
338
330
339
330
33A
330
33B
330
33C
330
33D
330
33E
330
33F
330
340
330
341
330
342
330
343
330
344
330
345
330
346
330
347
330
348
330
349
330
34A
330
34B
330
34C
330
34D
330
34E
330
34F
330
350
330
351
330
352
330
353
330
354
330
355
330
356
330
357
330
358
330
359
330
35A
330
35B
330
35C
330
35D
330
35E
330
35F
330
360
330
361
330
362
330
363
330
364
330
365
330
366
330
367
330
368
330
369
330
36A
330
36B
330
36C
330
36D
330
36E
330
36F
330
370
330
371
330
372
330
373
330
374
330
375
330
376
330
377
330
378
330
379
330
37A
330
37B
330
37C
330
37D
330
37E
330
37F
330
380
330
381
330
382
330
383
330
384
330
385
330
386
330
387
330
388
330
389
330
38A
330
38B
330
38C
330
38D
330
38E
330
38F
330
390
330
391
 92
1
 93
1
 72
3
 10
12.9046654608
 20
2.5403783405
 11
-0.8250004575
 21
0.0
 40
0.218572
 50
0.0
 51
-0.0
 73
1
 97
267
330
287
330
288
330
289
330
28A
330
28B
330
28C
330
28D
330
28E
330
28F
330
290
330
291
330
292
330
293
330
294
330
295
330
296
330
297
330
298
330
299
330
29A
330
29B
330
29C
330
29D
330
29E
330
29F
330
2A0
330
2A1
330
2A2
330
2A3
330
2A4
330
2A5
330
2A6
330
2A7
330
2A8
330
2A9
330
2AA
330
2AB
330
2AC
330
2AD
330
2AE
330
2AF
330
2B0
330
2B1
330
2B2
330
2B3
330
2B4
330
2B5
330
2B6
330
2B7
330
2B8
330
2B9
330
2BA
330
2BB
330
2BC
330
2BD
330
2BE
330
2BF
330
2C0
330
2C1
330
2C2
330
2C3
330
2C4
330
2C5
330
2C6
330
2C7
330
2C8
330
2C9
330
2CA
330
2CB
330
2CC
330
2CD
330
2CE
330
2CF
330
2D0
330
2D1
330
2D2
330
2D3
330
2D4
330
2D5
330
2D6
330
2D7
330
2D8
330
2D9
330
2DA
330
2DB
330
2DC
330
2DD
330
2DE
330
2DF
330
2E0
330
2E1
330
2E2
330
2E3
330
2E4
330
2E5
330
2E6
330
2E7
330
2E8
330
2E9
330
2EA
330
2EB
330
2EC
330
2ED
330
2EE
330
2EF
330
2F0
330
2F1
330
2F2
330
2F3
330
2F4
330
2F5
330
2F6
330
2F7
330
2F8
330
2F9
330
2FA
330
2FB
330
2FC
330
2FD
330
2FE
330
2FF
330
300
330
301
330
302
330
303
330
304
330
305
330
306
330
307
330
308
330
309
330
30A
330
30B
330
30C
330
30D
330
30E
330
30F
330
310
330
311
330
312
330
313
330
314
330
315
330
316
330
317
330
318
330
319
330
31A
330
31B
330
31C
330
31D
330
31E
330
31F
330
320
330
321
330
322
330
323
330
324
330
325
330
326
330
327
330
328
330
329
330
32A
330
32B
330
32C
330
32D
330
32E
330
32F
330
330
330
331
330
332
330
333
330
334
330
335
330
336
330
337
330
338
330
339
330
33A
330
33B
330
33C
330
33D
330
33E
330
33F
330
340
330
341
330
342
330
343
330
344
330
345
330
346
330
347
330
348
330
349
330
34A
330
34B
330
34C
330
34D
330
34E
330
34F
330
350
330
351
330
352
330
353
330
354
330
355
330
356
330
357
330
358
330
359
330
35A
330
35B
330
35C
330
35D
330
35E
330
35F
330
360
330
361
330
362
330
363
330
364
330
365
330
366
330
367
330
368
330
369
330
36A
330
36B
330
36C
330
36D
330
36E
330
36F
330
370
330
371
330
372
330
373
330
374
330
375
330
376
330
377
330
378
330
379
330
37A
330
37B
330
37C
330
37D
330
37E
330
37F
330
380
330
381
330
382
330
383
330
384
330
385
330
386
330
387
330
388
330
389
330
38A
330
38B
330
38C
330
38D
330
38E
330
38F
330
390
330
391
 75
0
 76
1
 98
1
 10
0.0
 20
0.0
  0
LINE
  5
393
100
AcDbEntity
  8
0
100
AcDbLine
 62
7
  6
CONTINUOUS
 10
8.5
 20
10.112
 11
8.586603
 21
10.262
  0
LINE
  5
394
100
AcDbEntity
  8
0
100
AcDbLine
 62
7
  6
CONTINUOUS
 10
16.38
 20
2.807
 11
10.03
 21
2.807
  0
LINE
  5
395
100
AcDbEntity
  8
0
100
AcDbLine
 62
7
  6
CONTINUOUS
 10
0.62
 20
3.1995
 11
0.37
 21
3.1995
  0
LINE
  5
396
100
AcDbEntity
  8
0
100
AcDbLine
 62
7
  6
CONTINUOUS
 10
16.38
 20
3.1995
 11
16.63
 21
3.1995
  0
LINE
  5
397
100
AcDbEntity
  8
0
100
AcDbLine
 62
7
  6
CONTINUOUS
 10
8.586603
 20
0.737
 11
8.5
 21
0.887
  0
LINE
  5
398
100
AcDbEntity
  8
0
100
AcDbLine
 62
7
  6
CONTINUOUS
 10
6.53
 20
0.887
 11
6.53
 21
0.637
  0
LINE
  5
399
100
AcDbEntity
  8
0
100
AcDbLine
 62
7
  6
CONTINUOUS
 10
6.53
 20
10.112
 11
6.53
 21
10.362
  0
LINE
  5
39A
100
AcDbEntity
  8
0
100
AcDbLine
 62
7
  6
CONTINUOUS
 10
8.5
 20
0.887
 11
8.5
 21
0.637
  0
LINE
  5
39B
100
AcDbEntity
  8
0
100
AcDbLine
 62
7
  6
CONTINUOUS
 10
8.5
 20
10.112
 11
8.5
 21
10.362
  0
LINE
  5
39C
100
AcDbEntity
  8
0
100
AcDbLine
 62
7
  6
CONTINUOUS
 10
0.62
 20
5.4995
 11
0.37
 21
5.4995
  0
LINE
  5
39D
100
AcDbEntity
  8
0
100
AcDbLine
 62
7
  6
CONTINUOUS
 10
16.38
 20
5.4995
 11
16.63
 21
5.4995
  0
LINE
  5
39E
100
AcDbEntity
  8
0
100
AcDbLine
 62
7
  6
CONTINUOUS
 10
10.03
 20
2.807
 11
10.03
 21
0.887
  0
LINE
  5
39F
100
AcDbEntity
  8
0
100
AcDbLine
 62
7
  6
CONTINUOUS
 10
10.47
 20
0.887
 11
10.47
 21
0.637
  0
LINE
  5
3A0
100
AcDbEntity
  8
0
100
AcDbLine
 62
7
  6
CONTINUOUS
 10
10.47
 20
10.112
 11
10.47
 21
10.362
  0
LINE
  5
3A1
100
AcDbEntity
  8
0
100
AcDbLine
 62
7
  6
CONTINUOUS
 10
10.5342808475
 20
1.143294839
 11
10.5342808475
 21
0.921203839
  0
LINE
  5
3A2
100
AcDbEntity
  8
0
100
AcDbLine
 62
7
  6
CONTINUOUS
 10
10.5342808475
 20
1.193294839
 11
10.5342808475
 21
1.293294839
  0
LINE
  5
3A3
100
AcDbEntity
  8
0
100
AcDbLine
 62
7
  6
CONTINUOUS
 10
10.5342808475
 20
1.343294839
 11
10.5342808475
 21
1.565385839
  0
LINE
  5
3A4
100
AcDbEntity
  8
0
100
AcDbLine
 62
7
  6
CONTINUOUS
 10
8.5
 20
0.887
 11
8.413397
 21
0.737
  0
LINE
  5
3A5
100
AcDbEntity
  8
0
100
AcDbLine
 62
7
  6
CONTINUOUS
 10
0.62
 20
7.7995
 11
0.37
 21
7.7995
  0
LINE
  5
3A6
100
AcDbEntity
  8
0
100
AcDbLine
 62
7
  6
CONTINUOUS
 10
16.38
 20
7.7995
 11
16.63
 21
7.7995
  0
LINE
  5
3A7
100
AcDbEntity
  8
0
100
AcDbLine
 62
7
  6
CONTINUOUS
 10
8.413397
 20
10.262
 11
8.5
 21
10.112
  0
LINE
  5
3A8
100
AcDbEntity
  8
0
100
AcDbLine
 62
7
  6
CONTINUOUS
 10
11.1389508475
 20
1.060596839
 11
11.1389508475
 21
1.425992839
  0
LINE
  5
3A9
100
AcDbEntity
  8
0
100
AcDbLine
 62
7
  6
CONTINUOUS
 10
11.7453418475
 20
1.495385839
 11
11.7453418475
 21
0.991203839
  0
LINE
  5
3AA
100
AcDbEntity
  8
0
100
AcDbLine
 62
7
  6
CONTINUOUS
 10
12.44
 20
0.887
 11
12.44
 21
0.637
  0
LINE
  5
3AB
100
AcDbEntity
  8
0
100
AcDbLine
 62
7
  6
CONTINUOUS
 10
12.44
 20
10.112
 11
12.44
 21
10.362
  0
LINE
  5
3AC
100
AcDbEntity
  8
0
100
AcDbLine
 62
7
  6
CONTINUOUS
 10
16.53
 20
5.586103
 11
16.38
 21
5.4995
  0
LINE
  5
3AD
100
AcDbEntity
  8
0
100
AcDbLine
 62
7
  6
CONTINUOUS
 10
16.38
 20
5.4995
 11
16.53
 21
5.412897
  0
LINE
  5
3AE
100
AcDbEntity
  8
0
100
AcDbLine
 62
7
  6
CONTINUOUS
 10
12.83
 20
1.507
 11
12.83
 21
1.137
  0
LINE
  5
3AF
100
AcDbEntity
  8
0
100
AcDbLine
 62
7
  6
CONTINUOUS
 10
16.38
 20
10.112
 11
0.62
 21
10.112
  0
LINE
  5
3B0
100
AcDbEntity
  8
0
100
AcDbLine
 62
7
  6
CONTINUOUS
 10
8.586603
 20
10.262
 11
8.413397
 21
10.262
  0
LINE
  5
3B1
100
AcDbEntity
  8
0
100
AcDbLine
 62
7
  6
CONTINUOUS
 10
14.205
 20
1.137
 11
14.205
 21
0.887
  0
LINE
  5
3B2
100
AcDbEntity
  8
0
100
AcDbLine
 62
7
  6
CONTINUOUS
 10
14.41
 20
0.887
 11
14.41
 21
0.637
  0
LINE
  5
3B3
100
AcDbEntity
  8
0
100
AcDbLine
 62
7
  6
CONTINUOUS
 10
14.41
 20
10.112
 11
14.41
 21
10.362
  0
LINE
  5
3B4
100
AcDbEntity
  8
0
100
AcDbLine
 62
7
  6
CONTINUOUS
 10
15.58
 20
1.507
 11
15.58
 21
1.137
  0
LINE
  5
3B5
100
AcDbEntity
  8
0
100
AcDbLine
 62
7
  6
CONTINUOUS
 10
16.38
 20
0.887
 11
16.38
 21
10.112
  0
LINE
  5
3B6
100
AcDbEntity
  8
0
100
AcDbLine
 62
7
  6
CONTINUOUS
 10
16.53
 20
5.412897
 11
16.53
 21
5.586103
  0
LINE
  5
3B7
100
AcDbEntity
  8
0
100
AcDbLine
 62
7
  6
CONTINUOUS
 10
6.2711836427
 20
5.6052116278
 11
6.2711836427
 21
6.482426925
  0
LINE
  5
3B8
100
AcDbEntity
  8
0
100
AcDbLine
 62
7
  6
CONTINUOUS
 10
7.9542545088
 20
5.157929323
 11
8.072364745
 21
5.157929323
  0
LWPOLYLINE
  5
3B9
100
AcDbEntity
  8
0
100
AcDbPolyline
 62
7
  6
CONTINUOUS
 90
9
 70
0
 10
6.4742907745
 20
6.4690161268
 10
6.4724110753
 20
6.463216996
 10
6.470531376
 20
6.4459777886
 10
6.4686516768
 20
6.4177687454
 10
6.4667719775
 20
6.3793593355
 10
6.4648922783
 20
6.3317972675
 10
6.463012579
 20
6.2763799106
 10
6.4611328798
 20
6.2146189058
 10
6.4592531805
 20
6.1481989324
  0
LWPOLYLINE
  5
3BA
100
AcDbEntity
  8
0
100
AcDbPolyline
 62
7
  6
CONTINUOUS
 90
9
 70
0
 10
6.5024081872
 20
6.4203153394
 10
6.5004240602
 20
6.4145955182
 10
6.4984399333
 20
6.3976098486
 10
6.4964558063
 20
6.3698744314
 10
6.4944716793
 20
6.3322319933
 10
6.4924875523
 20
6.2858262808
 10
6.4905034253
 20
6.2320673079
 10
6.4885192983
 20
6.1725885139
 10
6.4825669174
 20
5.9784414212
  0
LINE
  5
3BB
100
AcDbEntity
  8
0
100
AcDbLine
 62
7
  6
CONTINUOUS
 10
6.5113451951
 20
6.4203153394
 11
6.5394626078
 21
6.4690161268
  0
LINE
  5
3BC
100
AcDbEntity
  8
0
100
AcDbLine
 62
7
  6
CONTINUOUS
 10
7.9542545088
 20
5.2367326623
 11
8.0231521466
 21
5.2367326623
  0
LINE
  5
3BD
100
AcDbEntity
  8
0
100
AcDbLine
 62
7
  6
CONTINUOUS
 10
8.0172466348
 20
5.2583862056
 11
7.9542545088
 21
5.2583862056
  0
LINE
  5
3BE
100
AcDbEntity
  8
0
100
AcDbLine
 62
7
  6
CONTINUOUS
 10
6.5037483221
 20
5.618622426
 11
6.4756309094
 21
5.6673232134
  0
LWPOLYLINE
  5
3BF
100
AcDbEntity
  8
0
100
AcDbPolyline
 62
7
  6
CONTINUOUS
 90
9
 70
0
 10
6.4592531805
 20
6.1481989324
 10
6.4536140828
 20
5.9394396205
 10
6.4517343835
 20
5.873019647
 10
6.4498546843
 20
5.8112586423
 10
6.447974985
 20
5.7558412853
 10
6.4460952858
 20
5.7082792173
 10
6.4442155865
 20
5.6698698074
 10
6.4423358873
 20
5.6416607642
 10
6.440456188
 20
5.6244215569
  0
LWPOLYLINE
  5
3C0
100
AcDbEntity
  8
0
100
AcDbPolyline
 62
7
  6
CONTINUOUS
 90
8
 70
0
 10
6.4825669174
 20
5.9784414212
 10
6.4805827904
 20
5.915050039
 10
6.4785986634
 20
5.8555712449
 10
6.4766145364
 20
5.801812272
 10
6.4746304094
 20
5.7554065595
 10
6.4726462825
 20
5.7177641215
 10
6.4706621555
 20
5.6900287043
 10
6.4686780285
 20
5.6730430346
  0
LWPOLYLINE
  5
3C1
100
AcDbEntity
  8
0
100
AcDbPolyline
 62
7
  6
CONTINUOUS
 90
9
 70
0
 10
6.4915039253
 20
5.9784414212
 10
6.4895197983
 20
5.915050039
 10
6.4875356713
 20
5.8555712449
 10
6.4855515443
 20
5.801812272
 10
6.4835674173
 20
5.7554065595
 10
6.4815832903
 20
5.7177641215
 10
6.4795991634
 20
5.6900287043
 10
6.4776150364
 20
5.6730430346
 10
6.4756309094
 20
5.6673232134
  0
LWPOLYLINE
  5
3C2
100
AcDbEntity
  8
0
100
AcDbPolyline
 62
7
  6
CONTINUOUS
 90
8
 70
0
 10
6.5375829086
 20
6.463216996
 10
6.5357032093
 20
6.4459777886
 10
6.5338235101
 20
6.4177687454
 10
6.5319438108
 20
6.3793593355
 10
6.5300641116
 20
6.3317972675
 10
6.5281844123
 20
6.2763799106
 10
6.5263047131
 20
6.2146189058
 10
6.5244250138
 20
6.1481989324
  0
LWPOLYLINE
  5
3C3
100
AcDbEntity
  8
0
100
AcDbPolyline
 62
7
  6
CONTINUOUS
 90
8
 70
0
 10
6.5438396467
 20
6.463216996
 10
6.5419599474
 20
6.4459777886
 10
6.5400802482
 20
6.4177687454
 10
6.5382005489
 20
6.3793593355
 10
6.5363208497
 20
6.3317972675
 10
6.5344411504
 20
6.2763799106
 10
6.5325614512
 20
6.2146189058
 10
6.530681752
 20
6.1481989324
  0
LINE
  5
3C4
100
AcDbEntity
  8
0
100
AcDbLine
 62
7
  6
CONTINUOUS
 10
6.5387307451
 20
6.4677485033
 11
6.5375829086
 21
6.463216996
  0
LWPOLYLINE
  5
3C5
100
AcDbEntity
  8
0
100
AcDbPolyline
 62
7
  6
CONTINUOUS
 90
9
 70
0
 10
6.5107511923
 20
6.4198015036
 10
6.5093610681
 20
6.4145955182
 10
6.5073769411
 20
6.3976098486
 10
6.5053928141
 20
6.3698744314
 10
6.5034086872
 20
6.3322319933
 10
6.5014245602
 20
6.2858262808
 10
6.4994404332
 20
6.2320673079
 10
6.4974563062
 20
6.1725885139
 10
6.4915039253
 20
5.9784414212
  0
LWPOLYLINE
  5
3C6
100
AcDbEntity
  8
0
100
AcDbPolyline
 62
7
  6
CONTINUOUS
 90
9
 70
0
 10
6.5821797638
 20
6.4198015036
 10
6.5807896395
 20
6.4145955182
 10
6.5788055126
 20
6.3976098486
 10
6.5768213856
 20
6.3698744314
 10
6.5748372586
 20
6.3322319933
 10
6.5728531316
 20
6.2858262808
 10
6.5708690046
 20
6.2320673079
 10
6.5688848776
 20
6.1725885139
 10
6.5629324967
 20
5.9784414212
  0
LINE
  5
3C7
100
AcDbEntity
  8
0
100
AcDbLine
 62
7
  6
CONTINUOUS
 10
6.5451244901
 20
6.4671809146
 11
6.5438396467
 21
6.463216996
  0
LWPOLYLINE
  5
3C8
100
AcDbEntity
  8
0
100
AcDbPolyline
 62
7
  6
CONTINUOUS
 90
9
 70
0
 10
6.5738367587
 20
6.4203153394
 10
6.5718526317
 20
6.4145955182
 10
6.5698685047
 20
6.3976098486
 10
6.5678843777
 20
6.3698744314
 10
6.5659002507
 20
6.3322319933
 10
6.5639161237
 20
6.2858262808
 10
6.5619319967
 20
6.2320673079
 10
6.5599478698
 20
6.1725885139
 10
6.5539954888
 20
5.9784414212
  0
LINE
  5
3C9
100
AcDbEntity
  8
0
100
AcDbLine
 62
7
  6
CONTINUOUS
 10
6.5827737665
 20
6.4203153394
 11
6.6108911792
 21
6.4690161268
  0
LINE
  5
3CA
100
AcDbEntity
  8
0
100
AcDbLine
 62
7
  6
CONTINUOUS
 10
6.5751768935
 20
5.618622426
 11
6.5470594808
 21
5.6673232134
  0
LINE
  5
3CB
100
AcDbEntity
  8
0
100
AcDbLine
 62
7
  6
CONTINUOUS
 10
6.646605465
 20
5.618622426
 11
6.6184880522
 21
5.6673232134
  0
LWPOLYLINE
  5
3CC
100
AcDbEntity
  8
0
100
AcDbPolyline
 62
7
  6
CONTINUOUS
 90
9
 70
0
 10
6.5244250138
 20
6.1481989324
 10
6.5187859161
 20
5.9394396205
 10
6.5169062168
 20
5.873019647
 10
6.5150265176
 20
5.8112586423
 10
6.5131468183
 20
5.7558412853
 10
6.5112671191
 20
5.7082792173
 10
6.5093874198
 20
5.6698698074
 10
6.5075077206
 20
5.6416607642
 10
6.5056280213
 20
5.6244215569
  0
LWPOLYLINE
  5
3CD
100
AcDbEntity
  8
0
100
AcDbPolyline
 62
7
  6
CONTINUOUS
 90
9
 70
0
 10
6.530681752
 20
6.1481989324
 10
6.5250426542
 20
5.9394396205
 10
6.523162955
 20
5.873019647
 10
6.5212832557
 20
5.8112586423
 10
6.5194035565
 20
5.7558412853
 10
6.5175238572
 20
5.7082792173
 10
6.515644158
 20
5.6698698074
 10
6.5137644587
 20
5.6416607642
 10
6.5118847595
 20
5.6244215569
  0
LWPOLYLINE
  5
3CE
100
AcDbEntity
  8
0
100
AcDbPolyline
 62
7
  6
CONTINUOUS
 90
9
 70
0
 10
6.5958535853
 20
6.1481989324
 10
6.5902144875
 20
5.9394396205
 10
6.5883347883
 20
5.873019647
 10
6.586455089
 20
5.8112586423
 10
6.5845753898
 20
5.7558412853
 10
6.5826956905
 20
5.7082792173
 10
6.5808159913
 20
5.6698698074
 10
6.578936292
 20
5.6416607642
 10
6.5770565928
 20
5.6244215569
  0
LWPOLYLINE
  5
3CF
100
AcDbEntity
  8
0
100
AcDbPolyline
 62
7
  6
CONTINUOUS
 90
8
 70
0
 10
6.5539954888
 20
5.9784414212
 10
6.5520113618
 20
5.915050039
 10
6.5500272348
 20
5.8555712449
 10
6.5480431079
 20
5.801812272
 10
6.5460589809
 20
5.7554065595
 10
6.5440748539
 20
5.7177641215
 10
6.5420907269
 20
5.6900287043
 10
6.5401065999
 20
5.6730430346
  0
LWPOLYLINE
  5
3D0
100
AcDbEntity
  8
0
100
AcDbPolyline
 62
7
  6
CONTINUOUS
 90
9
 70
0
 10
6.5629324967
 20
5.9784414212
 10
6.5609483697
 20
5.915050039
 10
6.5589642427
 20
5.8555712449
 10
6.5569801157
 20
5.801812272
 10
6.5549959888
 20
5.7554065595
 10
6.5530118618
 20
5.7177641215
 10
6.5510277348
 20
5.6900287043
 10
6.5490436078
 20
5.6730430346
 10
6.5470594808
 20
5.6673232134
  0
LWPOLYLINE
  5
3D1
100
AcDbEntity
  8
0
100
AcDbPolyline
 62
7
  6
CONTINUOUS
 90
8
 70
0
 10
6.60901148
 20
6.463216996
 10
6.6071317807
 20
6.4459777886
 10
6.6052520815
 20
6.4177687454
 10
6.6033723823
 20
6.3793593355
 10
6.601492683
 20
6.3317972675
 10
6.5996129838
 20
6.2763799106
 10
6.5977332845
 20
6.2146189058
 10
6.5958535853
 20
6.1481989324
  0
LWPOLYLINE
  5
3D2
100
AcDbEntity
  8
0
100
AcDbPolyline
 62
7
  6
CONTINUOUS
 90
8
 70
0
 10
6.6152682181
 20
6.463216996
 10
6.6133885189
 20
6.4459777886
 10
6.6115088196
 20
6.4177687454
 10
6.6096291204
 20
6.3793593355
 10
6.6077494211
 20
6.3317972675
 10
6.6058697219
 20
6.2763799106
 10
6.6039900226
 20
6.2146189058
 10
6.6021103234
 20
6.1481989324
  0
LINE
  5
3D3
100
AcDbEntity
  8
0
100
AcDbLine
 62
7
  6
CONTINUOUS
 10
6.6101593165
 20
6.4677485033
 11
6.60901148
 21
6.463216996
  0
LINE
  5
3D4
100
AcDbEntity
  8
0
100
AcDbLine
 62
7
  6
CONTINUOUS
 10
6.6815878879
 20
6.4677485033
 11
6.6804400514
 21
6.463216996
  0
LWPOLYLINE
  5
3D5
100
AcDbEntity
  8
0
100
AcDbPolyline
 62
7
  6
CONTINUOUS
 90
9
 70
0
 10
6.6536083352
 20
6.4198015036
 10
6.652218211
 20
6.4145955182
 10
6.650234084
 20
6.3976098486
 10
6.648249957
 20
6.3698744314
 10
6.64626583
 20
6.3322319933
 10
6.644281703
 20
6.2858262808
 10
6.6422975761
 20
6.2320673079
 10
6.6403134491
 20
6.1725885139
 10
6.6343610681
 20
5.9784414212
  0
LINE
  5
3D6
100
AcDbEntity
  8
0
100
AcDbLine
 62
7
  6
CONTINUOUS
 10
6.4686780285
 20
5.6730430346
 11
6.4672879043
 21
5.6678370493
  0
LINE
  5
3D7
100
AcDbEntity
  8
0
100
AcDbLine
 62
7
  6
CONTINUOUS
 10
6.6880311978
 20
6.4672513604
 11
6.6866041901
 21
6.4626330275
  0
LINE
  5
3D8
100
AcDbEntity
  8
0
100
AcDbLine
 62
7
  6
CONTINUOUS
 10
6.6165530615
 20
6.4671809146
 11
6.6152682181
 21
6.463216996
  0
LWPOLYLINE
  5
3D9
100
AcDbEntity
  8
0
100
AcDbPolyline
 62
7
  6
CONTINUOUS
 90
9
 70
0
 10
6.6452653301
 20
6.4203153394
 10
6.6432812031
 20
6.4145955182
 10
6.6412970761
 20
6.3976098486
 10
6.6393129491
 20
6.3698744314
 10
6.6373288221
 20
6.3322319933
 10
6.6353446952
 20
6.2858262808
 10
6.6333605682
 20
6.2320673079
 10
6.6313764412
 20
6.1725885139
 10
6.6254240602
 20
5.9784414212
  0
LINE
  5
3DA
100
AcDbEntity
  8
0
100
AcDbLine
 62
7
  6
CONTINUOUS
 10
6.654202338
 20
6.4203153394
 11
6.6823197507
 21
6.4690161268
  0
LINE
  5
3DB
100
AcDbEntity
  8
0
100
AcDbLine
 62
7
  6
CONTINUOUS
 10
8.0172466348
 20
5.4394885678
 11
7.9542545088
 21
5.4394885678
  0
LINE
  5
3DC
100
AcDbEntity
  8
0
100
AcDbLine
 62
7
  6
CONTINUOUS
 10
7.166852934
 20
5.4434255756
 11
7.173747421
 21
5.4434255756
  0
LINE
  5
3DD
100
AcDbEntity
  8
0
100
AcDbLine
 62
7
  6
CONTINUOUS
 10
7.2259080521
 20
5.4434255756
 11
7.2328025391
 21
5.4434255756
  0
LINE
  5
3DE
100
AcDbEntity
  8
0
100
AcDbLine
 62
7
  6
CONTINUOUS
 10
7.2849631702
 20
5.4434255756
 11
7.2918576572
 21
5.4434255756
  0
LINE
  5
3DF
100
AcDbEntity
  8
0
100
AcDbLine
 62
7
  6
CONTINUOUS
 10
7.3440182884
 20
5.4434255756
 11
7.3509127754
 21
5.4434255756
  0
LINE
  5
3E0
100
AcDbEntity
  8
0
100
AcDbLine
 62
7
  6
CONTINUOUS
 10
7.4030734065
 20
5.4434255756
 11
7.4099678935
 21
5.4434255756
  0
LINE
  5
3E1
100
AcDbEntity
  8
0
100
AcDbLine
 62
7
  6
CONTINUOUS
 10
7.4621285246
 20
5.4434255756
 11
7.4690230116
 21
5.4434255756
  0
LINE
  5
3E2
100
AcDbEntity
  8
0
100
AcDbLine
 62
7
  6
CONTINUOUS
 10
7.5211836427
 20
5.4434255756
 11
7.5280781297
 21
5.4434255756
  0
LINE
  5
3E3
100
AcDbEntity
  8
0
100
AcDbLine
 62
7
  6
CONTINUOUS
 10
7.5802387608
 20
5.4434255756
 11
7.9542545088
 21
5.4434255756
  0
LINE
  5
3E4
100
AcDbEntity
  8
0
100
AcDbLine
 62
7
  6
CONTINUOUS
 10
6.7180340364
 20
5.618622426
 11
6.6899166237
 21
5.6673232134
  0
LWPOLYLINE
  5
3E5
100
AcDbEntity
  8
0
100
AcDbPolyline
 62
7
  6
CONTINUOUS
 90
9
 70
0
 10
6.6021103234
 20
6.1481989324
 10
6.5964712256
 20
5.9394396205
 10
6.5945915264
 20
5.873019647
 10
6.5927118271
 20
5.8112586423
 10
6.5908321279
 20
5.7558412853
 10
6.5889524286
 20
5.7082792173
 10
6.5870727294
 20
5.6698698074
 10
6.5851930301
 20
5.6416607642
 10
6.5833133309
 20
5.6244215569
  0
LWPOLYLINE
  5
3E6
100
AcDbEntity
  8
0
100
AcDbPolyline
 62
7
  6
CONTINUOUS
 90
9
 70
0
 10
6.6672821567
 20
6.1481989324
 10
6.6616430589
 20
5.9394396205
 10
6.6597633597
 20
5.873019647
 10
6.6578836604
 20
5.8112586423
 10
6.6560039612
 20
5.7558412853
 10
6.654124262
 20
5.7082792173
 10
6.6522445627
 20
5.6698698074
 10
6.6503648635
 20
5.6416607642
 10
6.6484851642
 20
5.6244215569
  0
LWPOLYLINE
  5
3E7
100
AcDbEntity
  8
0
100
AcDbPolyline
 62
7
  6
CONTINUOUS
 90
8
 70
0
 10
6.6687578248
 20
5.9708174271
 10
6.6667834341
 20
5.8995306934
 10
6.6647987069
 20
5.8322498413
 10
6.662803974
 20
5.771114067
 10
6.6608290177
 20
5.7188293735
 10
6.6588589531
 20
5.676420556
 10
6.6568574293
 20
5.6446110955
 10
6.6548480789
 20
5.6250934848
  0
LWPOLYLINE
  5
3E8
100
AcDbEntity
  8
0
100
AcDbPolyline
 62
7
  6
CONTINUOUS
 90
8
 70
0
 10
6.6254240602
 20
5.9784414212
 10
6.6234399333
 20
5.915050039
 10
6.6214558063
 20
5.8555712449
 10
6.6194716793
 20
5.801812272
 10
6.6174875523
 20
5.7554065595
 10
6.6155034253
 20
5.7177641215
 10
6.6135192983
 20
5.6900287043
 10
6.6115351714
 20
5.6730430346
  0
LWPOLYLINE
  5
3E9
100
AcDbEntity
  8
0
100
AcDbPolyline
 62
7
  6
CONTINUOUS
 90
9
 70
0
 10
6.6343610681
 20
5.9784414212
 10
6.6323769411
 20
5.915050039
 10
6.6303928141
 20
5.8555712449
 10
6.6284086872
 20
5.801812272
 10
6.6264245602
 20
5.7554065595
 10
6.6244404332
 20
5.7177641215
 10
6.6224563062
 20
5.6900287043
 10
6.6204721792
 20
5.6730430346
 10
6.6184880522
 20
5.6673232134
  0
LWPOLYLINE
  5
3EA
100
AcDbEntity
  8
0
100
AcDbPolyline
 62
7
  6
CONTINUOUS
 90
8
 70
0
 10
6.6866041901
 20
6.4626330275
 10
6.684631317
 20
6.4436680701
 10
6.6826632253
 20
6.4127799108
 10
6.6806937501
 20
6.3708280163
 10
6.6786957764
 20
6.3182727084
 10
6.6766857311
 20
6.2568711538
 10
6.67469424
 20
6.1894785155
 10
6.6687578248
 20
5.9708174271
  0
LWPOLYLINE
  5
3EB
100
AcDbEntity
  8
0
100
AcDbPolyline
 62
7
  6
CONTINUOUS
 90
8
 70
0
 10
6.6804400514
 20
6.463216996
 10
6.6785603522
 20
6.4459777886
 10
6.6766806529
 20
6.4177687454
 10
6.6748009537
 20
6.3793593355
 10
6.6729212544
 20
6.3317972675
 10
6.6710415552
 20
6.2763799106
 10
6.6691618559
 20
6.2146189058
 10
6.6672821567
 20
6.1481989324
  0
LINE
  5
3EC
100
AcDbEntity
  8
0
100
AcDbLine
 62
7
  6
CONTINUOUS
 10
6.7530164593
 20
6.4677485033
 11
6.7518686229
 21
6.463216996
  0
LWPOLYLINE
  5
3ED
100
AcDbEntity
  8
0
100
AcDbPolyline
 62
7
  6
CONTINUOUS
 90
9
 70
0
 10
6.7250369066
 20
6.4198015036
 10
6.7236467824
 20
6.4145955182
 10
6.7216626554
 20
6.3976098486
 10
6.7196785284
 20
6.3698744314
 10
6.7176944014
 20
6.3322319933
 10
6.7157102745
 20
6.2858262808
 10
6.7137261475
 20
6.2320673079
 10
6.7117420205
 20
6.1725885139
 10
6.7057896395
 20
5.9784414212
  0
LINE
  5
3EE
100
AcDbEntity
  8
0
100
AcDbLine
 62
7
  6
CONTINUOUS
 10
6.5401065999
 20
5.6730430346
 11
6.5387164757
 21
5.6678370493
  0
LINE
  5
3EF
100
AcDbEntity
  8
0
100
AcDbLine
 62
7
  6
CONTINUOUS
 10
6.7600050602
 20
6.4690161268
 11
6.758125361
 21
6.463216996
  0
LINE
  5
3F0
100
AcDbEntity
  8
0
100
AcDbLine
 62
7
  6
CONTINUOUS
 10
6.5056280213
 20
5.6244215569
 11
6.5037483221
 21
5.618622426
  0
LWPOLYLINE
  5
3F1
100
AcDbEntity
  8
0
100
AcDbPolyline
 62
7
  6
CONTINUOUS
 90
9
 70
0
 10
6.7166939015
 20
6.4203153394
 10
6.7147097745
 20
6.4145955182
 10
6.7127256475
 20
6.3976098486
 10
6.7107415206
 20
6.3698744314
 10
6.7087573936
 20
6.3322319933
 10
6.7067732666
 20
6.2858262808
 10
6.7047891396
 20
6.2320673079
 10
6.7028050126
 20
6.1725885139
 10
6.6968526317
 20
5.9784414212
  0
LINE
  5
3F2
100
AcDbEntity
  8
0
100
AcDbLine
 62
7
  6
CONTINUOUS
 10
6.7256309094
 20
6.4203153394
 11
6.7537483221
 21
6.4690161268
  0
LINE
  5
3F3
100
AcDbEntity
  8
0
100
AcDbLine
 62
7
  6
CONTINUOUS
 10
6.7970594808
 20
6.4203153394
 11
6.8251768935
 21
6.4690161268
  0
LINE
  5
3F4
100
AcDbEntity
  8
0
100
AcDbLine
 62
7
  6
CONTINUOUS
 10
7.5578493901
 20
5.4822051032
 11
7.5504675004
 21
5.4822051032
  0
LINE
  5
3F5
100
AcDbEntity
  8
0
100
AcDbLine
 62
7
  6
CONTINUOUS
 10
7.498794272
 20
5.4822051032
 11
7.4914123822
 21
5.4822051032
  0
LINE
  5
3F6
100
AcDbEntity
  8
0
100
AcDbLine
 62
7
  6
CONTINUOUS
 10
7.4397391539
 20
5.4822051032
 11
7.4323572641
 21
5.4822051032
  0
LINE
  5
3F7
100
AcDbEntity
  8
0
100
AcDbLine
 62
7
  6
CONTINUOUS
 10
7.3806840358
 20
5.4822051032
 11
7.373302146
 21
5.4822051032
  0
LINE
  5
3F8
100
AcDbEntity
  8
0
100
AcDbLine
 62
7
  6
CONTINUOUS
 10
7.3216289177
 20
5.4822051032
 11
7.3142470279
 21
5.4822051032
  0
LINE
  5
3F9
100
AcDbEntity
  8
0
100
AcDbLine
 62
7
  6
CONTINUOUS
 10
7.2625737996
 20
5.4822051032
 11
7.2551919098
 21
5.4822051032
  0
LINE
  5
3FA
100
AcDbEntity
  8
0
100
AcDbLine
 62
7
  6
CONTINUOUS
 10
7.2035186815
 20
5.4822051032
 11
7.1961367917
 21
5.4822051032
  0
LINE
  5
3FB
100
AcDbEntity
  8
0
100
AcDbLine
 62
7
  6
CONTINUOUS
 10
7.1444635633
 20
5.4822051032
 11
7.137325375
 21
5.4822051032
  0
LINE
  5
3FC
100
AcDbEntity
  8
0
100
AcDbLine
 62
7
  6
CONTINUOUS
 10
6.7894626078
 20
5.618622426
 11
6.7613451951
 21
5.6673232134
  0
LWPOLYLINE
  5
3FD
100
AcDbEntity
  8
0
100
AcDbPolyline
 62
7
  6
CONTINUOUS
 90
9
 70
0
 10
6.7387107281
 20
6.1481989324
 10
6.7330716304
 20
5.9394396205
 10
6.7311919311
 20
5.873019647
 10
6.7293122319
 20
5.8112586423
 10
6.7274325326
 20
5.7558412853
 10
6.7255528334
 20
5.7082792173
 10
6.7236731341
 20
5.6698698074
 10
6.7217934349
 20
5.6416607642
 10
6.7199137356
 20
5.6244215569
  0
LWPOLYLINE
  5
3FE
100
AcDbEntity
  8
0
100
AcDbPolyline
 62
7
  6
CONTINUOUS
 90
9
 70
0
 10
6.7449674662
 20
6.1481989324
 10
6.7393283685
 20
5.9394396205
 10
6.7374486692
 20
5.873019647
 10
6.73556897
 20
5.8112586423
 10
6.7336892708
 20
5.7558412853
 10
6.7318095715
 20
5.7082792173
 10
6.7299298723
 20
5.6698698074
 10
6.728050173
 20
5.6416607642
 10
6.7261704738
 20
5.6244215569
  0
LWPOLYLINE
  5
3FF
100
AcDbEntity
  8
0
100
AcDbPolyline
 62
7
  6
CONTINUOUS
 90
8
 70
0
 10
6.6968526317
 20
5.9784414212
 10
6.6948685047
 20
5.915050039
 10
6.6928843777
 20
5.8555712449
 10
6.6909002507
 20
5.801812272
 10
6.6889161237
 20
5.7554065595
 10
6.6869319968
 20
5.7177641215
 10
6.6849478698
 20
5.6900287043
 10
6.6829637428
 20
5.6730430346
  0
LWPOLYLINE
  5
400
100
AcDbEntity
  8
0
100
AcDbPolyline
 62
7
  6
CONTINUOUS
 90
9
 70
0
 10
6.7057896395
 20
5.9784414212
 10
6.7038055126
 20
5.915050039
 10
6.7018213856
 20
5.8555712449
 10
6.6998372586
 20
5.801812272
 10
6.6978531316
 20
5.7554065595
 10
6.6958690046
 20
5.7177641215
 10
6.6938848776
 20
5.6900287043
 10
6.6919007507
 20
5.6730430346
 10
6.6899166237
 20
5.6673232134
  0
LWPOLYLINE
  5
401
100
AcDbEntity
  8
0
100
AcDbPolyline
 62
7
  6
CONTINUOUS
 90
8
 70
0
 10
6.7518686229
 20
6.463216996
 10
6.7499889236
 20
6.4459777886
 10
6.7481092244
 20
6.4177687454
 10
6.7462295251
 20
6.3793593355
 10
6.7443498259
 20
6.3317972675
 10
6.7424701266
 20
6.2763799106
 10
6.7405904274
 20
6.2146189058
 10
6.7387107281
 20
6.1481989324
  0
LWPOLYLINE
  5
402
100
AcDbEntity
  8
0
100
AcDbPolyline
 62
7
  6
CONTINUOUS
 90
8
 70
0
 10
6.758125361
 20
6.463216996
 10
6.7562456617
 20
6.4459777886
 10
6.7543659625
 20
6.4177687454
 10
6.7524862632
 20
6.3793593355
 10
6.750606564
 20
6.3317972675
 10
6.7487268647
 20
6.2763799106
 10
6.7468471655
 20
6.2146189058
 10
6.7449674662
 20
6.1481989324
  0
LINE
  5
403
100
AcDbEntity
  8
0
100
AcDbLine
 62
7
  6
CONTINUOUS
 10
6.8244450308
 20
6.4677485033
 11
6.8232971943
 21
6.463216996
  0
LWPOLYLINE
  5
404
100
AcDbEntity
  8
0
100
AcDbPolyline
 62
7
  6
CONTINUOUS
 90
9
 70
0
 10
6.796465478
 20
6.4198015036
 10
6.7950753538
 20
6.4145955182
 10
6.7930912268
 20
6.3976098486
 10
6.7911070999
 20
6.3698744314
 10
6.7891229729
 20
6.3322319933
 10
6.7871388459
 20
6.2858262808
 10
6.7851547189
 20
6.2320673079
 10
6.7831705919
 20
6.1725885139
 10
6.777218211
 20
5.9784414212
  0
LINE
  5
405
100
AcDbEntity
  8
0
100
AcDbLine
 62
7
  6
CONTINUOUS
 10
6.6115351714
 20
5.6730430346
 11
6.6101450472
 21
5.6678370493
  0
LINE
  5
406
100
AcDbEntity
  8
0
100
AcDbLine
 62
7
  6
CONTINUOUS
 10
6.8314336317
 20
6.4690161268
 11
6.8295539324
 21
6.463216996
  0
LINE
  5
407
100
AcDbEntity
  8
0
100
AcDbLine
 62
7
  6
CONTINUOUS
 10
6.5770565928
 20
5.6244215569
 11
6.5757717494
 21
5.6204576383
  0
LWPOLYLINE
  5
408
100
AcDbEntity
  8
0
100
AcDbPolyline
 62
7
  6
CONTINUOUS
 90
9
 70
0
 10
6.7881224729
 20
6.4203153394
 10
6.786138346
 20
6.4145955182
 10
6.784154219
 20
6.3976098486
 10
6.782170092
 20
6.3698744314
 10
6.780185965
 20
6.3322319933
 10
6.778201838
 20
6.2858262808
 10
6.776217711
 20
6.2320673079
 10
6.7742335841
 20
6.1725885139
 10
6.7682812031
 20
5.9784414212
  0
LWPOLYLINE
  5
409
100
AcDbEntity
  8
0
100
AcDbPolyline
 62
7
  6
CONTINUOUS
 90
9
 70
0
 10
6.8595510444
 20
6.4203153394
 10
6.8575669174
 20
6.4145955182
 10
6.8555827904
 20
6.3976098486
 10
6.8535986634
 20
6.3698744314
 10
6.8516145364
 20
6.3322319933
 10
6.8496304094
 20
6.2858262808
 10
6.8476462825
 20
6.2320673079
 10
6.8456621555
 20
6.1725885139
 10
6.8397097745
 20
5.9784414212
  0
LINE
  5
40A
100
AcDbEntity
  8
0
100
AcDbLine
 62
7
  6
CONTINUOUS
 10
6.8684880522
 20
6.4203153394
 11
6.896605465
 21
6.4690161268
  0
LINE
  5
40B
100
AcDbEntity
  8
0
100
AcDbLine
 62
7
  6
CONTINUOUS
 10
6.4666939015
 20
5.6673232134
 11
6.4385764888
 21
5.618622426
  0
LINE
  5
40C
100
AcDbEntity
  8
0
100
AcDbLine
 62
7
  6
CONTINUOUS
 10
6.2711836427
 20
5.618622426
 11
6.4385764888
 21
5.618622426
  0
LINE
  5
40D
100
AcDbEntity
  8
0
100
AcDbLine
 62
7
  6
CONTINUOUS
 10
6.5037483221
 20
5.618622426
 11
6.5100050602
 21
5.618622426
  0
LINE
  5
40E
100
AcDbEntity
  8
0
100
AcDbLine
 62
7
  6
CONTINUOUS
 10
6.5751768935
 20
5.618622426
 11
6.5814336317
 21
5.618622426
  0
LINE
  5
40F
100
AcDbEntity
  8
0
100
AcDbLine
 62
7
  6
CONTINUOUS
 10
6.646605465
 20
5.618622426
 11
6.6528622031
 21
5.618622426
  0
LINE
  5
410
100
AcDbEntity
  8
0
100
AcDbLine
 62
7
  6
CONTINUOUS
 10
6.7180340364
 20
5.618622426
 11
6.7242907745
 21
5.618622426
  0
LINE
  5
411
100
AcDbEntity
  8
0
100
AcDbLine
 62
7
  6
CONTINUOUS
 10
6.7894626078
 20
5.618622426
 11
6.7957193459
 21
5.618622426
  0
LINE
  5
412
100
AcDbEntity
  8
0
100
AcDbLine
 62
7
  6
CONTINUOUS
 10
6.8608911792
 20
5.618622426
 11
6.8671479174
 21
5.618622426
  0
LINE
  5
413
100
AcDbEntity
  8
0
100
AcDbLine
 62
7
  6
CONTINUOUS
 10
6.9323197507
 20
5.618622426
 11
6.9385764888
 21
5.618622426
  0
LINE
  5
414
100
AcDbEntity
  8
0
100
AcDbLine
 62
7
  6
CONTINUOUS
 10
7.0037483221
 20
5.618622426
 11
7.0100050602
 21
5.618622426
  0
LINE
  5
415
100
AcDbEntity
  8
0
100
AcDbLine
 62
7
  6
CONTINUOUS
 10
7.0751768935
 20
5.618622426
 11
7.137325375
 21
5.618622426
  0
LINE
  5
416
100
AcDbEntity
  8
0
100
AcDbLine
 62
7
  6
CONTINUOUS
 10
6.8608911792
 20
5.618622426
 11
6.8327737665
 21
5.6673232134
  0
LINE
  5
417
100
AcDbEntity
  8
0
100
AcDbLine
 62
7
  6
CONTINUOUS
 10
6.9323197507
 20
5.618622426
 11
6.904202338
 21
5.6673232134
  0
LWPOLYLINE
  5
418
100
AcDbEntity
  8
0
100
AcDbPolyline
 62
7
  6
CONTINUOUS
 90
9
 70
0
 10
6.8101392995
 20
6.1481989324
 10
6.8045002018
 20
5.9394396205
 10
6.8026205026
 20
5.873019647
 10
6.8007408033
 20
5.8112586423
 10
6.7988611041
 20
5.7558412853
 10
6.7969814048
 20
5.7082792173
 10
6.7951017056
 20
5.6698698074
 10
6.7932220063
 20
5.6416607642
 10
6.7913423071
 20
5.6244215569
  0
LWPOLYLINE
  5
419
100
AcDbEntity
  8
0
100
AcDbPolyline
 62
7
  6
CONTINUOUS
 90
9
 70
0
 10
6.8163960377
 20
6.1481989324
 10
6.8107569399
 20
5.9394396205
 10
6.8088772407
 20
5.873019647
 10
6.8069975414
 20
5.8112586423
 10
6.8051178422
 20
5.7558412853
 10
6.8032381429
 20
5.7082792173
 10
6.8013584437
 20
5.6698698074
 10
6.7994787444
 20
5.6416607642
 10
6.7975990452
 20
5.6244215569
  0
LWPOLYLINE
  5
41A
100
AcDbEntity
  8
0
100
AcDbPolyline
 62
7
  6
CONTINUOUS
 90
8
 70
0
 10
6.7682812031
 20
5.9784414212
 10
6.7662970761
 20
5.915050039
 10
6.7643129491
 20
5.8555712449
 10
6.7623288221
 20
5.801812272
 10
6.7603446952
 20
5.7554065595
 10
6.7583605682
 20
5.7177641215
 10
6.7563764412
 20
5.6900287043
 10
6.7543923142
 20
5.6730430346
  0
LWPOLYLINE
  5
41B
100
AcDbEntity
  8
0
100
AcDbPolyline
 62
7
  6
CONTINUOUS
 90
9
 70
0
 10
6.777218211
 20
5.9784414212
 10
6.775234084
 20
5.915050039
 10
6.773249957
 20
5.8555712449
 10
6.77126583
 20
5.801812272
 10
6.769281703
 20
5.7554065595
 10
6.7672975761
 20
5.7177641215
 10
6.7653134491
 20
5.6900287043
 10
6.7633293221
 20
5.6730430346
 10
6.7613451951
 20
5.6673232134
  0
LWPOLYLINE
  5
41C
100
AcDbEntity
  8
0
100
AcDbPolyline
 62
7
  6
CONTINUOUS
 90
8
 70
0
 10
6.8397097745
 20
5.9784414212
 10
6.8377256475
 20
5.915050039
 10
6.8357415206
 20
5.8555712449
 10
6.8337573936
 20
5.801812272
 10
6.8317732666
 20
5.7554065595
 10
6.8297891396
 20
5.7177641215
 10
6.8278050126
 20
5.6900287043
 10
6.8258208856
 20
5.6730430346
  0
LWPOLYLINE
  5
41D
100
AcDbEntity
  8
0
100
AcDbPolyline
 62
7
  6
CONTINUOUS
 90
9
 70
0
 10
6.8486467824
 20
5.9784414212
 10
6.8466626554
 20
5.915050039
 10
6.8446785284
 20
5.8555712449
 10
6.8426944014
 20
5.801812272
 10
6.8407102745
 20
5.7554065595
 10
6.8387261475
 20
5.7177641215
 10
6.8367420205
 20
5.6900287043
 10
6.8347578935
 20
5.6730430346
 10
6.8327737665
 20
5.6673232134
  0
LWPOLYLINE
  5
41E
100
AcDbEntity
  8
0
100
AcDbPolyline
 62
7
  6
CONTINUOUS
 90
8
 70
0
 10
6.8232971943
 20
6.463216996
 10
6.821417495
 20
6.4459777886
 10
6.8195377958
 20
6.4177687454
 10
6.8176580965
 20
6.3793593355
 10
6.8157783973
 20
6.3317972675
 10
6.813898698
 20
6.2763799106
 10
6.8120189988
 20
6.2146189058
 10
6.8101392995
 20
6.1481989324
  0
LWPOLYLINE
  5
41F
100
AcDbEntity
  8
0
100
AcDbPolyline
 62
7
  6
CONTINUOUS
 90
8
 70
0
 10
6.8295539324
 20
6.463216996
 10
6.8276742332
 20
6.4459777886
 10
6.8257945339
 20
6.4177687454
 10
6.8239148347
 20
6.3793593355
 10
6.8220351354
 20
6.3317972675
 10
6.8201554362
 20
6.2763799106
 10
6.8182757369
 20
6.2146189058
 10
6.8163960377
 20
6.1481989324
  0
LWPOLYLINE
  5
420
100
AcDbEntity
  8
0
100
AcDbPolyline
 62
7
  6
CONTINUOUS
 90
8
 70
0
 10
6.8947257657
 20
6.463216996
 10
6.8928460665
 20
6.4459777886
 10
6.8909663672
 20
6.4177687454
 10
6.889086668
 20
6.3793593355
 10
6.8872069687
 20
6.3317972675
 10
6.8853272695
 20
6.2763799106
 10
6.8834475702
 20
6.2146189058
 10
6.881567871
 20
6.1481989324
  0
LINE
  5
421
100
AcDbEntity
  8
0
100
AcDbLine
 62
7
  6
CONTINUOUS
 10
6.8958736022
 20
6.4677485033
 11
6.8947257657
 21
6.463216996
  0
LWPOLYLINE
  5
422
100
AcDbEntity
  8
0
100
AcDbPolyline
 62
7
  6
CONTINUOUS
 90
9
 70
0
 10
6.8678940495
 20
6.4198015036
 10
6.8665039253
 20
6.4145955182
 10
6.8645197983
 20
6.3976098486
 10
6.8625356713
 20
6.3698744314
 10
6.8605515443
 20
6.3322319933
 10
6.8585674173
 20
6.2858262808
 10
6.8565832903
 20
6.2320673079
 10
6.8545991634
 20
6.1725885139
 10
6.8486467824
 20
5.9784414212
  0
LINE
  5
423
100
AcDbEntity
  8
0
100
AcDbLine
 62
7
  6
CONTINUOUS
 10
6.6829637428
 20
5.6730430346
 11
6.6815736186
 21
5.6678370493
  0
LWPOLYLINE
  5
424
100
AcDbEntity
  8
0
100
AcDbPolyline
 62
7
  6
CONTINUOUS
 90
9
 70
0
 10
6.9393226209
 20
6.4198015036
 10
6.9379324967
 20
6.4145955182
 10
6.9359483697
 20
6.3976098486
 10
6.9339642427
 20
6.3698744314
 10
6.9319801157
 20
6.3322319933
 10
6.9299959888
 20
6.2858262808
 10
6.9280118618
 20
6.2320673079
 10
6.9260277348
 20
6.1725885139
 10
6.9200753538
 20
5.9784414212
  0
LINE
  5
425
100
AcDbEntity
  8
0
100
AcDbLine
 62
7
  6
CONTINUOUS
 10
6.9028622031
 20
6.4690161268
 11
6.9008789284
 21
6.4625619656
  0
LINE
  5
426
100
AcDbEntity
  8
0
100
AcDbLine
 62
7
  6
CONTINUOUS
 10
6.6484851642
 20
5.6244215569
 11
6.646605465
 21
5.618622426
  0
LWPOLYLINE
  5
427
100
AcDbEntity
  8
0
100
AcDbPolyline
 62
7
  6
CONTINUOUS
 90
9
 70
0
 10
6.9309796158
 20
6.4203153394
 10
6.9289954888
 20
6.4145955182
 10
6.9270113618
 20
6.3976098486
 10
6.9250272348
 20
6.3698744314
 10
6.9230431079
 20
6.3322319933
 10
6.9210589809
 20
6.2858262808
 10
6.9190748539
 20
6.2320673079
 10
6.9170907269
 20
6.1725885139
 10
6.911138346
 20
5.9784414212
  0
LINE
  5
428
100
AcDbEntity
  8
0
100
AcDbLine
 62
7
  6
CONTINUOUS
 10
6.9399166237
 20
6.4203153394
 11
6.9680340364
 21
6.4690161268
  0
LINE
  5
429
100
AcDbEntity
  8
0
100
AcDbLine
 62
7
  6
CONTINUOUS
 10
6.5381224729
 20
5.6673232134
 11
6.5100050602
 21
5.618622426
  0
LINE
  5
42A
100
AcDbEntity
  8
0
100
AcDbLine
 62
7
  6
CONTINUOUS
 10
7.0113451951
 20
6.4203153394
 11
7.0394626078
 21
6.4690161268
  0
LINE
  5
42B
100
AcDbEntity
  8
0
100
AcDbLine
 62
7
  6
CONTINUOUS
 10
7.0470594808
 20
5.6673232134
 11
7.0381224729
 21
5.6673232134
  0
LINE
  5
42C
100
AcDbEntity
  8
0
100
AcDbLine
 62
7
  6
CONTINUOUS
 10
6.9756309094
 20
5.6673232134
 11
6.9666939015
 21
5.6673232134
  0
LINE
  5
42D
100
AcDbEntity
  8
0
100
AcDbLine
 62
7
  6
CONTINUOUS
 10
6.904202338
 20
5.6673232134
 11
6.8952653301
 21
5.6673232134
  0
LINE
  5
42E
100
AcDbEntity
  8
0
100
AcDbLine
 62
7
  6
CONTINUOUS
 10
6.8327737665
 20
5.6673232134
 11
6.8238367587
 21
5.6673232134
  0
LINE
  5
42F
100
AcDbEntity
  8
0
100
AcDbLine
 62
7
  6
CONTINUOUS
 10
6.7613451951
 20
5.6673232134
 11
6.7524081872
 21
5.6673232134
  0
LINE
  5
430
100
AcDbEntity
  8
0
100
AcDbLine
 62
7
  6
CONTINUOUS
 10
6.6899166237
 20
5.6673232134
 11
6.6809796158
 21
5.6673232134
  0
LINE
  5
431
100
AcDbEntity
  8
0
100
AcDbLine
 62
7
  6
CONTINUOUS
 10
6.6184880522
 20
5.6673232134
 11
6.6095510444
 21
5.6673232134
  0
LINE
  5
432
100
AcDbEntity
  8
0
100
AcDbLine
 62
7
  6
CONTINUOUS
 10
6.5470594808
 20
5.6673232134
 11
6.5381224729
 21
5.6673232134
  0
LINE
  5
433
100
AcDbEntity
  8
0
100
AcDbLine
 62
7
  6
CONTINUOUS
 10
6.4756309094
 20
5.6673232134
 11
6.4666939015
 21
5.6673232134
  0
LINE
  5
434
100
AcDbEntity
  8
0
100
AcDbLine
 62
7
  6
CONTINUOUS
 10
6.4742907745
 20
6.4690161268
 11
6.5024081872
 21
6.4203153394
  0
LINE
  5
435
100
AcDbEntity
  8
0
100
AcDbLine
 62
7
  6
CONTINUOUS
 10
7.0037483221
 20
5.618622426
 11
6.9756309094
 21
5.6673232134
  0
LINE
  5
436
100
AcDbEntity
  8
0
100
AcDbLine
 62
7
  6
CONTINUOUS
 10
6.5457193459
 20
6.4690161268
 11
6.5738367587
 21
6.4203153394
  0
LWPOLYLINE
  5
437
100
AcDbEntity
  8
0
100
AcDbPolyline
 62
7
  6
CONTINUOUS
 90
9
 70
0
 10
6.881567871
 20
6.1481989324
 10
6.8759287732
 20
5.9394396205
 10
6.874049074
 20
5.873019647
 10
6.8721693747
 20
5.8112586423
 10
6.8702896755
 20
5.7558412853
 10
6.8684099762
 20
5.7082792173
 10
6.866530277
 20
5.6698698074
 10
6.8646505777
 20
5.6416607642
 10
6.8627708785
 20
5.6244215569
  0
LWPOLYLINE
  5
438
100
AcDbEntity
  8
0
100
AcDbPolyline
 62
7
  6
CONTINUOUS
 90
8
 70
0
 10
6.8830033986
 20
5.969338835
 10
6.8810383586
 20
5.8984479512
 10
6.8790488288
 20
5.8310961423
 10
6.8770407574
 20
5.7697124524
 10
6.8750446465
 20
5.7171452362
 10
6.8730791361
 20
5.6751928827
 10
6.87111039
 20
5.6441910281
 10
6.8691240994
 20
5.6250306226
  0
LWPOLYLINE
  5
439
100
AcDbEntity
  8
0
100
AcDbPolyline
 62
7
  6
CONTINUOUS
 90
8
 70
0
 10
6.911138346
 20
5.9784414212
 10
6.909154219
 20
5.915050039
 10
6.907170092
 20
5.8555712449
 10
6.905185965
 20
5.801812272
 10
6.903201838
 20
5.7554065595
 10
6.901217711
 20
5.7177641215
 10
6.8992335841
 20
5.6900287043
 10
6.8972494571
 20
5.6730430346
  0
LWPOLYLINE
  5
43A
100
AcDbEntity
  8
0
100
AcDbPolyline
 62
7
  6
CONTINUOUS
 90
9
 70
0
 10
6.9200753538
 20
5.9784414212
 10
6.9180912268
 20
5.915050039
 10
6.9161070999
 20
5.8555712449
 10
6.9141229729
 20
5.801812272
 10
6.9121388459
 20
5.7554065595
 10
6.9101547189
 20
5.7177641215
 10
6.9081705919
 20
5.6900287043
 10
6.9061864649
 20
5.6730430346
 10
6.904202338
 20
5.6673232134
  0
LWPOLYLINE
  5
43B
100
AcDbEntity
  8
0
100
AcDbPolyline
 62
7
  6
CONTINUOUS
 90
8
 70
0
 10
6.9008789284
 20
6.4625619656
 10
6.8988736348
 20
6.4431131134
 10
6.8968773703
 20
6.4114421658
 10
6.894907008
 20
6.369089251
 10
6.8929100678
 20
6.316226953
 10
6.8909021422
 20
6.254623987
 10
6.8889136985
 20
6.1871478836
 10
6.8830033986
 20
5.969338835
  0
LWPOLYLINE
  5
43C
100
AcDbEntity
  8
0
100
AcDbPolyline
 62
7
  6
CONTINUOUS
 90
8
 70
0
 10
6.9661543371
 20
6.463216996
 10
6.9642746379
 20
6.4459777886
 10
6.9623949386
 20
6.4177687454
 10
6.9605152394
 20
6.3793593355
 10
6.9586355401
 20
6.3317972675
 10
6.9567558409
 20
6.2763799106
 10
6.9548761417
 20
6.2146189058
 10
6.9529964424
 20
6.1481989324
  0
LWPOLYLINE
  5
43D
100
AcDbEntity
  8
0
100
AcDbPolyline
 62
7
  6
CONTINUOUS
 90
8
 70
0
 10
6.9724110753
 20
6.463216996
 10
6.970531376
 20
6.4459777886
 10
6.9686516768
 20
6.4177687454
 10
6.9667719775
 20
6.3793593355
 10
6.9648922783
 20
6.3317972675
 10
6.963012579
 20
6.2763799106
 10
6.9611328798
 20
6.2146189058
 10
6.9592531805
 20
6.1481989324
  0
LINE
  5
43E
100
AcDbEntity
  8
0
100
AcDbLine
 62
7
  6
CONTINUOUS
 10
6.9673021736
 20
6.4677485033
 11
6.9661543371
 21
6.463216996
  0
LINE
  5
43F
100
AcDbEntity
  8
0
100
AcDbLine
 62
7
  6
CONTINUOUS
 10
6.7543923142
 20
5.6730430346
 11
6.75300219
 21
5.6678370493
  0
LWPOLYLINE
  5
440
100
AcDbEntity
  8
0
100
AcDbPolyline
 62
7
  6
CONTINUOUS
 90
9
 70
0
 10
7.0107511923
 20
6.4198015036
 10
7.0093610681
 20
6.4145955182
 10
7.0073769411
 20
6.3976098486
 10
7.0053928141
 20
6.3698744314
 10
7.0034086872
 20
6.3322319933
 10
7.0014245602
 20
6.2858262808
 10
6.9994404332
 20
6.2320673079
 10
6.9974563062
 20
6.1725885139
 10
6.9915039253
 20
5.9784414212
  0
LINE
  5
441
100
AcDbEntity
  8
0
100
AcDbLine
 62
7
  6
CONTINUOUS
 10
6.8258208856
 20
5.6730430346
 11
6.8244307615
 21
5.6678370493
  0
LINE
  5
442
100
AcDbEntity
  8
0
100
AcDbLine
 62
7
  6
CONTINUOUS
 10
6.9742907745
 20
6.4690161268
 11
6.9724110753
 21
6.463216996
  0
LINE
  5
443
100
AcDbEntity
  8
0
100
AcDbLine
 62
7
  6
CONTINUOUS
 10
6.7199137356
 20
5.6244215569
 11
6.7186288923
 21
5.6204576383
  0
LINE
  5
444
100
AcDbEntity
  8
0
100
AcDbLine
 62
7
  6
CONTINUOUS
 10
7.0451244901
 20
6.4671809146
 11
7.0438396467
 21
6.463216996
  0
LWPOLYLINE
  5
445
100
AcDbEntity
  8
0
100
AcDbPolyline
 62
7
  6
CONTINUOUS
 90
9
 70
0
 10
7.0024081872
 20
6.4203153394
 10
7.0004240602
 20
6.4145955182
 10
6.9984399333
 20
6.3976098486
 10
6.9964558063
 20
6.3698744314
 10
6.9944716793
 20
6.3322319933
 10
6.9924875523
 20
6.2858262808
 10
6.9905034253
 20
6.2320673079
 10
6.9885192983
 20
6.1725885139
 10
6.9825669174
 20
5.9784414212
  0
LINE
  5
446
100
AcDbEntity
  8
0
100
AcDbLine
 62
7
  6
CONTINUOUS
 10
6.6095510444
 20
5.6673232134
 11
6.5814336317
 21
5.618622426
  0
LINE
  5
447
100
AcDbEntity
  8
0
100
AcDbLine
 62
7
  6
CONTINUOUS
 10
7.1739911224
 20
6.6054334497
 11
7.1963804931
 21
6.6442129772
  0
LINE
  5
448
100
AcDbEntity
  8
0
100
AcDbLine
 62
7
  6
CONTINUOUS
 10
7.0827737665
 20
6.4203153394
 11
7.1108911792
 21
6.4690161268
  0
LINE
  5
449
100
AcDbEntity
  8
0
100
AcDbLine
 62
7
  6
CONTINUOUS
 10
7.166852934
 20
5.4434255756
 11
7.1444635633
 21
5.4822051032
  0
LINE
  5
44A
100
AcDbEntity
  8
0
100
AcDbLine
 62
7
  6
CONTINUOUS
 10
7.0751768935
 20
5.618622426
 11
7.0470594808
 21
5.6673232134
  0
LINE
  5
44B
100
AcDbEntity
  8
0
100
AcDbLine
 62
7
  6
CONTINUOUS
 10
6.6171479174
 20
6.4690161268
 11
6.6452653301
 21
6.4203153394
  0
LINE
  5
44C
100
AcDbEntity
  8
0
100
AcDbLine
 62
7
  6
CONTINUOUS
 10
7.2259080521
 20
5.4434255756
 11
7.2035186815
 21
5.4822051032
  0
LWPOLYLINE
  5
44D
100
AcDbEntity
  8
0
100
AcDbPolyline
 62
7
  6
CONTINUOUS
 90
9
 70
0
 10
6.9529964424
 20
6.1481989324
 10
6.9473573447
 20
5.9394396205
 10
6.9454776454
 20
5.873019647
 10
6.9435979462
 20
5.8112586423
 10
6.9417182469
 20
5.7558412853
 10
6.9398385477
 20
5.7082792173
 10
6.9379588484
 20
5.6698698074
 10
6.9360791492
 20
5.6416607642
 10
6.9341994499
 20
5.6244215569
  0
LWPOLYLINE
  5
44E
100
AcDbEntity
  8
0
100
AcDbPolyline
 62
7
  6
CONTINUOUS
 90
9
 70
0
 10
6.9592531805
 20
6.1481989324
 10
6.9536140828
 20
5.9394396205
 10
6.9517343835
 20
5.873019647
 10
6.9498546843
 20
5.8112586423
 10
6.947974985
 20
5.7558412853
 10
6.9460952858
 20
5.7082792173
 10
6.9442155865
 20
5.6698698074
 10
6.9423358873
 20
5.6416607642
 10
6.940456188
 20
5.6244215569
  0
LWPOLYLINE
  5
44F
100
AcDbEntity
  8
0
100
AcDbPolyline
 62
7
  6
CONTINUOUS
 90
8
 70
0
 10
6.9825669174
 20
5.9784414212
 10
6.9805827904
 20
5.915050039
 10
6.9785986634
 20
5.8555712449
 10
6.9766145364
 20
5.801812272
 10
6.9746304094
 20
5.7554065595
 10
6.9726462825
 20
5.7177641215
 10
6.9706621555
 20
5.6900287043
 10
6.9686780285
 20
5.6730430346
  0
LWPOLYLINE
  5
450
100
AcDbEntity
  8
0
100
AcDbPolyline
 62
7
  6
CONTINUOUS
 90
9
 70
0
 10
6.9915039253
 20
5.9784414212
 10
6.9895197983
 20
5.915050039
 10
6.9875356713
 20
5.8555712449
 10
6.9855515443
 20
5.801812272
 10
6.9835674173
 20
5.7554065595
 10
6.9815832903
 20
5.7177641215
 10
6.9795991634
 20
5.6900287043
 10
6.9776150364
 20
5.6730430346
 10
6.9756309094
 20
5.6673232134
  0
LWPOLYLINE
  5
451
100
AcDbEntity
  8
0
100
AcDbPolyline
 62
7
  6
CONTINUOUS
 90
8
 70
0
 10
7.0375829086
 20
6.463216996
 10
7.0357032093
 20
6.4459777886
 10
7.0338235101
 20
6.4177687454
 10
7.0319438108
 20
6.3793593355
 10
7.0300641116
 20
6.3317972675
 10
7.0281844123
 20
6.2763799106
 10
7.0263047131
 20
6.2146189058
 10
7.0244250138
 20
6.1481989324
  0
LWPOLYLINE
  5
452
100
AcDbEntity
  8
0
100
AcDbPolyline
 62
7
  6
CONTINUOUS
 90
8
 70
0
 10
7.0438396467
 20
6.463216996
 10
7.0419599474
 20
6.4459777886
 10
7.0400802482
 20
6.4177687454
 10
7.0382005489
 20
6.3793593355
 10
7.0363208497
 20
6.3317972675
 10
7.0344411504
 20
6.2763799106
 10
7.0325614512
 20
6.2146189058
 10
7.030681752
 20
6.1481989324
  0
LINE
  5
453
100
AcDbEntity
  8
0
100
AcDbLine
 62
7
  6
CONTINUOUS
 10
7.0387307451
 20
6.4677485033
 11
7.0375829086
 21
6.463216996
  0
LINE
  5
454
100
AcDbEntity
  8
0
100
AcDbLine
 62
7
  6
CONTINUOUS
 10
7.1101593208
 20
6.4677485108
 11
7.1090114515
 21
6.4632168205
  0
LWPOLYLINE
  5
455
100
AcDbEntity
  8
0
100
AcDbPolyline
 62
7
  6
CONTINUOUS
 90
9
 70
0
 10
7.0821797638
 20
6.4198015036
 10
7.0807896395
 20
6.4145955182
 10
7.0788055126
 20
6.3976098486
 10
7.0768213856
 20
6.3698744314
 10
7.0748372586
 20
6.3322319933
 10
7.0728531316
 20
6.2858262808
 10
7.0708690046
 20
6.2320673079
 10
7.0688848776
 20
6.1725885139
 10
7.0629324967
 20
5.9784414212
  0
LINE
  5
456
100
AcDbEntity
  8
0
100
AcDbLine
 62
7
  6
CONTINUOUS
 10
6.8972494571
 20
5.6730430346
 11
6.8958593329
 21
5.6678370493
  0
LINE
  5
457
100
AcDbEntity
  8
0
100
AcDbLine
 62
7
  6
CONTINUOUS
 10
6.7913423071
 20
5.6244215569
 11
6.7894626078
 21
5.618622426
  0
LINE
  5
458
100
AcDbEntity
  8
0
100
AcDbLine
 62
7
  6
CONTINUOUS
 10
6.8627708785
 20
5.6244215569
 11
6.8614860351
 21
5.6204576383
  0
LWPOLYLINE
  5
459
100
AcDbEntity
  8
0
100
AcDbPolyline
 62
7
  6
CONTINUOUS
 90
9
 70
0
 10
7.0738367587
 20
6.4203153394
 10
7.0718526317
 20
6.4145955182
 10
7.0698685047
 20
6.3976098486
 10
7.0678843777
 20
6.3698744314
 10
7.0659002507
 20
6.3322319933
 10
7.0639161237
 20
6.2858262808
 10
7.0619319967
 20
6.2320673079
 10
7.0599478698
 20
6.1725885139
 10
7.0539954888
 20
5.9784414212
  0
LINE
  5
45A
100
AcDbEntity
  8
0
100
AcDbLine
 62
7
  6
CONTINUOUS
 10
6.6809796158
 20
5.6673232134
 11
6.6528622031
 21
5.618622426
  0
LINE
  5
45B
100
AcDbEntity
  8
0
100
AcDbLine
 62
7
  6
CONTINUOUS
 10
7.2330462405
 20
6.6054334497
 11
7.2554356112
 21
6.6442129772
  0
LINE
  5
45C
100
AcDbEntity
  8
0
100
AcDbLine
 62
7
  6
CONTINUOUS
 10
7.2921013586
 20
6.6054334497
 11
7.3144907293
 21
6.6442129772
  0
LINE
  5
45D
100
AcDbEntity
  8
0
100
AcDbLine
 62
7
  6
CONTINUOUS
 10
6.7524081872
 20
5.6673232134
 11
6.7242907745
 21
5.618622426
  0
LINE
  5
45E
100
AcDbEntity
  8
0
100
AcDbLine
 62
7
  6
CONTINUOUS
 10
6.6885764888
 20
6.4690161268
 11
6.7166939015
 21
6.4203153394
  0
LINE
  5
45F
100
AcDbEntity
  8
0
100
AcDbLine
 62
7
  6
CONTINUOUS
 10
7.2849631702
 20
5.4434255756
 11
7.2625737996
 21
5.4822051032
  0
LWPOLYLINE
  5
460
100
AcDbEntity
  8
0
100
AcDbPolyline
 62
7
  6
CONTINUOUS
 90
9
 70
0
 10
7.0244250138
 20
6.1481989324
 10
7.0187859161
 20
5.9394396205
 10
7.0169062168
 20
5.873019647
 10
7.0150265176
 20
5.8112586423
 10
7.0131468183
 20
5.7558412853
 10
7.0112671191
 20
5.7082792173
 10
7.0093874198
 20
5.6698698074
 10
7.0075077206
 20
5.6416607642
 10
7.0056280213
 20
5.6244215569
  0
LWPOLYLINE
  5
461
100
AcDbEntity
  8
0
100
AcDbPolyline
 62
7
  6
CONTINUOUS
 90
9
 70
0
 10
7.030681752
 20
6.1481989324
 10
7.0250426542
 20
5.9394396205
 10
7.023162955
 20
5.873019647
 10
7.0212832557
 20
5.8112586423
 10
7.0194035565
 20
5.7558412853
 10
7.0175238572
 20
5.7082792173
 10
7.015644158
 20
5.6698698074
 10
7.0137644587
 20
5.6416607642
 10
7.0118847595
 20
5.6244215569
  0
LWPOLYLINE
  5
462
100
AcDbEntity
  8
0
100
AcDbPolyline
 62
7
  6
CONTINUOUS
 90
10
 70
0
 10
7.0958533749
 20
6.1481913069
 10
7.0902142402
 20
5.9394306542
 10
7.0883345404
 20
5.8730111568
 10
7.0864548479
 20
5.811251091
 10
7.0845751635
 20
5.7558350579
 10
7.0826954881
 20
5.7082745664
 10
7.0808158225
 20
5.6698668035
 10
7.0789361677
 20
5.6416592542
 10
7.0770565244
 20
5.624421136
 10
7.0751768935
 20
5.618622426
  0
LWPOLYLINE
  5
463
100
AcDbEntity
  8
0
100
AcDbPolyline
 62
7
  6
CONTINUOUS
 90
8
 70
0
 10
7.0539954888
 20
5.9784414212
 10
7.0520113618
 20
5.915050039
 10
7.0500272348
 20
5.8555712449
 10
7.0480431079
 20
5.801812272
 10
7.0460589809
 20
5.7554065595
 10
7.0440748539
 20
5.7177641215
 10
7.0420907269
 20
5.6900287043
 10
7.0401065999
 20
5.6730430346
  0
LWPOLYLINE
  5
464
100
AcDbEntity
  8
0
100
AcDbPolyline
 62
7
  6
CONTINUOUS
 90
9
 70
0
 10
7.0629324967
 20
5.9784414212
 10
7.0609483697
 20
5.915050039
 10
7.0589642427
 20
5.8555712449
 10
7.0569801157
 20
5.801812272
 10
7.0549959888
 20
5.7554065595
 10
7.0530118618
 20
5.7177641215
 10
7.0510277348
 20
5.6900287043
 10
7.0490436078
 20
5.6730430346
 10
7.0470594808
 20
5.6673232134
  0
LWPOLYLINE
  5
465
100
AcDbEntity
  8
0
100
AcDbPolyline
 62
7
  6
CONTINUOUS
 90
8
 70
0
 10
7.1090114515
 20
6.4632168205
 10
7.1071317262
 20
6.4459771263
 10
7.1052519991
 20
6.4177672787
 10
7.1033722716
 20
6.3793567941
 10
7.1014925446
 20
6.3317934594
 10
7.0996128189
 20
6.2763747496
 10
7.0977330954
 20
6.2146124293
 10
7.0958533749
 20
6.1481913069
  0
LINE
  5
466
100
AcDbEntity
  8
0
100
AcDbLine
 62
7
  6
CONTINUOUS
 10
7.1960723081
 20
6.6436791852
 11
7.194905624
 21
6.6368362053
  0
LINE
  5
467
100
AcDbEntity
  8
0
100
AcDbLine
 62
7
  6
CONTINUOUS
 10
7.1725147445
 20
6.5985190472
 11
7.1737187543
 21
6.6051976545
  0
LINE
  5
468
100
AcDbEntity
  8
0
100
AcDbLine
 62
7
  6
CONTINUOUS
 10
6.9686780285
 20
5.6730430346
 11
6.9672879043
 21
5.6678370493
  0
LINE
  5
469
100
AcDbEntity
  8
0
100
AcDbLine
 62
7
  6
CONTINUOUS
 10
6.9341994499
 20
5.6244215569
 11
6.9329146065
 21
5.6204576383
  0
LINE
  5
46A
100
AcDbEntity
  8
0
100
AcDbLine
 62
7
  6
CONTINUOUS
 10
7.3511564767
 20
6.6054334497
 11
7.3735458474
 21
6.6442129772
  0
LINE
  5
46B
100
AcDbEntity
  8
0
100
AcDbLine
 62
7
  6
CONTINUOUS
 10
6.8238367587
 20
5.6673232134
 11
6.7957193459
 21
5.618622426
  0
LINE
  5
46C
100
AcDbEntity
  8
0
100
AcDbLine
 62
7
  6
CONTINUOUS
 10
7.4102115948
 20
6.6054334497
 11
7.4326009655
 21
6.6442129772
  0
LINE
  5
46D
100
AcDbEntity
  8
0
100
AcDbLine
 62
7
  6
CONTINUOUS
 10
7.3440182884
 20
5.4434255756
 11
7.3216289177
 21
5.4822051032
  0
LINE
  5
46E
100
AcDbEntity
  8
0
100
AcDbLine
 62
7
  6
CONTINUOUS
 10
6.7600050602
 20
6.4690161268
 11
6.7881224729
 21
6.4203153394
  0
LINE
  5
46F
100
AcDbEntity
  8
0
100
AcDbLine
 62
7
  6
CONTINUOUS
 10
7.4030734065
 20
5.4434255756
 11
7.3806840358
 21
5.4822051032
  0
LINE
  5
470
100
AcDbEntity
  8
0
100
AcDbLine
 62
7
  6
CONTINUOUS
 10
6.8314336317
 20
6.4690161268
 11
6.8595510444
 21
6.4203153394
  0
LINE
  5
471
100
AcDbEntity
  8
0
100
AcDbLine
 62
7
  6
CONTINUOUS
 10
7.137325375
 20
5.4822051032
 11
7.137325375
 21
6.6442129772
  0
LWPOLYLINE
  5
472
100
AcDbEntity
  8
0
100
AcDbPolyline
 62
7
  6
CONTINUOUS
 90
10
 70
0
 10
7.18458687
 20
6.2304079448
 10
7.1786548027
 20
5.8577313206
 10
7.1771865818
 20
5.7711894448
 10
7.1757112973
 20
5.6909216504
 10
7.1742461462
 20
5.6197885536
 10
7.1727851349
 20
5.5590946234
 10
7.1713121974
 20
5.5097410887
 10
7.1698204034
 20
5.4731020735
 10
7.168327719
 20
5.4508015088
 10
7.166852934
 20
5.4434255756
  0
LWPOLYLINE
  5
473
100
AcDbEntity
  8
0
100
AcDbPolyline
 62
7
  6
CONTINUOUS
 90
9
 70
0
 10
7.1914586983
 20
6.2290316567
 10
7.1929273139
 20
6.3156509653
 10
7.1944119143
 20
6.3964738338
 10
7.1958946025
 20
6.4684300325
 10
7.1973577744
 20
6.5291085365
 10
7.1988271734
 20
6.5782314049
 10
7.2003151249
 20
6.6146873181
 10
7.2018039556
 20
6.6368745351
 10
7.2032749801
 20
6.6442129772
  0
LWPOLYLINE
  5
474
100
AcDbEntity
  8
0
100
AcDbPolyline
 62
7
  6
CONTINUOUS
 90
8
 70
0
 10
7.1621800988
 20
6.2173676002
 10
7.1636564767
 20
6.2987867756
 10
7.1651328547
 20
6.3739278049
 10
7.1666092326
 20
6.4409404667
 10
7.1680856106
 20
6.4981746869
 10
7.1695619885
 20
6.5442211689
 10
7.1710383665
 20
6.5779460955
 10
7.1725147445
 20
6.5985190472
  0
LWPOLYLINE
  5
475
100
AcDbEntity
  8
0
100
AcDbPolyline
 62
7
  6
CONTINUOUS
 90
9
 70
0
 10
7.1548956896
 20
6.2228978472
 10
7.1563598825
 20
6.3033173795
 10
7.1578240753
 20
6.3774520326
 10
7.1592882682
 20
6.4435063121
 10
7.1607524611
 20
6.4998804253
 10
7.162216654
 20
6.5452090271
 10
7.1636808469
 20
6.5783942874
 10
7.1651450398
 20
6.5986324803
 10
7.1666092326
 20
6.6054334497
  0
LWPOLYLINE
  5
476
100
AcDbEntity
  8
0
100
AcDbPolyline
 62
7
  6
CONTINUOUS
 90
6
 70
0
 10
7.137325375
 20
6.4897968056
 10
7.1387042089
 20
6.5437640842
 10
7.1400830843
 20
6.5869923107
 10
7.141462006
 20
6.6185518492
 10
7.1428409374
 20
6.6377630819
 10
7.1439185142
 20
6.6428034285
  0
LWPOLYLINE
  5
477
100
AcDbEntity
  8
0
100
AcDbPolyline
 62
7
  6
CONTINUOUS
 90
8
 70
0
 10
7.194905624
 20
6.6368362053
 10
7.1934129037
 20
6.6145340982
 10
7.191921162
 20
6.5778954864
 10
7.1904481913
 20
6.5285401236
 10
7.1889816476
 20
6.4675951642
 10
7.1875117978
 20
6.3961827347
 10
7.1860498432
 20
6.3166197133
 10
7.18458687
 20
6.2304079448
  0
LINE
  5
478
100
AcDbEntity
  8
0
100
AcDbLine
 62
7
  6
CONTINUOUS
 10
7.2551272581
 20
6.643678894
 11
7.2539645867
 21
6.6368745351
  0
LINE
  5
479
100
AcDbEntity
  8
0
100
AcDbLine
 62
7
  6
CONTINUOUS
 10
7.2315698626
 20
6.5985190472
 11
7.2327738724
 21
6.6051976545
  0
LINE
  5
47A
100
AcDbEntity
  8
0
100
AcDbLine
 62
7
  6
CONTINUOUS
 10
7.0401065999
 20
5.6730430346
 11
7.0387164757
 21
5.6678370493
  0
LINE
  5
47B
100
AcDbEntity
  8
0
100
AcDbLine
 62
7
  6
CONTINUOUS
 10
7.0056280213
 20
5.6244215569
 11
7.0037483221
 21
5.618622426
  0
LINE
  5
47C
100
AcDbEntity
  8
0
100
AcDbLine
 62
7
  6
CONTINUOUS
 10
6.8952653301
 20
5.6673232134
 11
6.8671479174
 21
5.618622426
  0
LINE
  5
47D
100
AcDbEntity
  8
0
100
AcDbLine
 62
7
  6
CONTINUOUS
 10
7.469266713
 20
6.6054334497
 11
7.4916560836
 21
6.6442129772
  0
LINE
  5
47E
100
AcDbEntity
  8
0
100
AcDbLine
 62
7
  6
CONTINUOUS
 10
6.9666939015
 20
5.6673232134
 11
6.9385764888
 21
5.618622426
  0
LINE
  5
47F
100
AcDbEntity
  8
0
100
AcDbLine
 62
7
  6
CONTINUOUS
 10
7.4621285246
 20
5.4434255756
 11
7.4397391539
 21
5.4822051032
  0
LINE
  5
480
100
AcDbEntity
  8
0
100
AcDbLine
 62
7
  6
CONTINUOUS
 10
6.9028622031
 20
6.4690161268
 11
6.9309796158
 21
6.4203153394
  0
LINE
  5
481
100
AcDbEntity
  8
0
100
AcDbLine
 62
7
  6
CONTINUOUS
 10
7.5211836427
 20
5.4434255756
 11
7.498794272
 21
5.4822051032
  0
LWPOLYLINE
  5
482
100
AcDbEntity
  8
0
100
AcDbPolyline
 62
7
  6
CONTINUOUS
 90
10
 70
0
 10
7.2436193294
 20
6.2290316567
 10
7.237702387
 20
5.8572738286
 10
7.2362454606
 20
5.7714034989
 10
7.2347721251
 20
5.6912167925
 10
7.2332926158
 20
5.6193976155
 10
7.2318253089
 20
5.5585319366
 10
7.230355785
 20
5.5094049984
 10
7.228867787
 20
5.4729488554
 10
7.2273789926
 20
5.4507631812
 10
7.2261744141
 20
5.4447542894
  0
LWPOLYLINE
  5
483
100
AcDbEntity
  8
0
100
AcDbPolyline
 62
7
  6
CONTINUOUS
 90
9
 70
0
 10
7.2505122591
 20
6.2289370274
 10
7.2519892394
 20
6.3160386235
 10
7.2534847648
 20
6.3973899432
 10
7.2549805444
 20
6.46981981
 10
7.2564576614
 20
6.5307868461
 10
7.2579253381
 20
6.5794790327
 10
7.2593916567
 20
6.6151095173
 10
7.2608614705
 20
6.63689838
 10
7.2620629325
 20
6.642882341
  0
LWPOLYLINE
  5
484
100
AcDbEntity
  8
0
100
AcDbPolyline
 62
7
  6
CONTINUOUS
 90
9
 70
0
 10
7.2138533271
 20
6.2173676002
 10
7.2153297051
 20
6.2987867756
 10
7.216806083
 20
6.3739278049
 10
7.218282461
 20
6.4409404667
 10
7.2197588389
 20
6.4981746869
 10
7.2212352169
 20
6.5442211689
 10
7.2227115948
 20
6.5779460955
 10
7.2241879728
 20
6.5985190472
 10
7.2256643508
 20
6.6054334497
  0
LWPOLYLINE
  5
485
100
AcDbEntity
  8
0
100
AcDbPolyline
 62
7
  6
CONTINUOUS
 90
8
 70
0
 10
7.2212352169
 20
6.2173676002
 10
7.2227115948
 20
6.2987867756
 10
7.2241879728
 20
6.3739278049
 10
7.2256643508
 20
6.4409404667
 10
7.2271407287
 20
6.4981746869
 10
7.2286171067
 20
6.5442211689
 10
7.2300934846
 20
6.5779460955
 10
7.2315698626
 20
6.5985190472
  0
LWPOLYLINE
  5
486
100
AcDbEntity
  8
0
100
AcDbPolyline
 62
7
  6
CONTINUOUS
 90
9
 70
0
 10
7.2729084452
 20
6.2173676002
 10
7.2743848232
 20
6.2987867756
 10
7.2758612011
 20
6.3739278049
 10
7.2773375791
 20
6.4409404667
 10
7.2788139571
 20
6.4981746869
 10
7.280290335
 20
6.5442211689
 10
7.281766713
 20
6.5779460955
 10
7.2832430909
 20
6.5985190472
 10
7.2847194689
 20
6.6054334497
  0
LWPOLYLINE
  5
487
100
AcDbEntity
  8
0
100
AcDbPolyline
 62
7
  6
CONTINUOUS
 90
8
 70
0
 10
7.2539645867
 20
6.6368745351
 10
7.252475756
 20
6.6146873181
 10
7.2509878045
 20
6.5782314049
 10
7.2495184055
 20
6.5291085365
 10
7.2480552336
 20
6.4684300325
 10
7.2465725454
 20
6.3964738338
 10
7.245087945
 20
6.3156509653
 10
7.2436193294
 20
6.2290316567
  0
LWPOLYLINE
  5
488
100
AcDbEntity
  8
0
100
AcDbPolyline
 62
7
  6
CONTINUOUS
 90
9
 70
0
 10
7.1752183615
 20
5.4507631812
 10
7.1767071559
 20
5.4729488554
 10
7.1781951539
 20
5.5094049984
 10
7.1796646777
 20
5.5585319366
 10
7.1811319847
 20
5.6193976155
 10
7.182611494
 20
5.6912167925
 10
7.1840848294
 20
5.7714034989
 10
7.1855417559
 20
5.8572738286
 10
7.1914586983
 20
6.2290316567
  0
LWPOLYLINE
  5
489
100
AcDbEntity
  8
0
100
AcDbPolyline
 62
7
  6
CONTINUOUS
 90
8
 70
0
 10
7.3130221016
 20
6.63689838
 10
7.3115522878
 20
6.6151095173
 10
7.3100859692
 20
6.5794790327
 10
7.3086182925
 20
6.5307868461
 10
7.3071411755
 20
6.46981981
 10
7.305645396
 20
6.3973899432
 10
7.3041498705
 20
6.3160386235
 10
7.3026728902
 20
6.2289370274
  0
LWPOLYLINE
  5
48A
100
AcDbEntity
  8
0
100
AcDbPolyline
 62
7
  6
CONTINUOUS
 90
10
 70
0
 10
7.1374774137
 20
5.483334418
 10
7.1387895679
 20
5.4914516451
 10
7.1402537607
 20
5.5138874055
 10
7.1417179536
 20
5.5491577793
 10
7.1431821465
 20
5.5964085405
 10
7.1446463394
 20
5.6544953057
 10
7.1461105323
 20
5.7220112503
 10
7.1475747252
 20
5.797321181
 10
7.149038918
 20
5.878601139
 10
7.1548956896
 20
6.2228978472
  0
LINE
  5
48B
100
AcDbEntity
  8
0
100
AcDbLine
 62
7
  6
CONTINUOUS
 10
7.3732375192
 20
6.643678937
 11
7.3720742565
 21
6.6368688942
  0
LINE
  5
48C
100
AcDbEntity
  8
0
100
AcDbLine
 62
7
  6
CONTINUOUS
 10
7.3141822708
 20
6.6436787115
 11
7.3130221016
 21
6.63689838
  0
LINE
  5
48D
100
AcDbEntity
  8
0
100
AcDbLine
 62
7
  6
CONTINUOUS
 10
7.2906249807
 20
6.5985190472
 11
7.2918289905
 21
6.6051976545
  0
LINE
  5
48E
100
AcDbEntity
  8
0
100
AcDbLine
 62
7
  6
CONTINUOUS
 10
7.3496800988
 20
6.5985190472
 11
7.3508841086
 21
6.6051976545
  0
LWPOLYLINE
  5
48F
100
AcDbEntity
  8
0
100
AcDbPolyline
 62
7
  6
CONTINUOUS
 90
10
 70
0
 10
7.1444635633
 20
5.4822051032
 10
7.1459399413
 20
5.4891195056
 10
7.1474163193
 20
5.5096924573
 10
7.1488926972
 20
5.543417384
 10
7.1503690752
 20
5.589463866
 10
7.1518454531
 20
5.6466980861
 10
7.1533218311
 20
5.7137107479
 10
7.154798209
 20
5.7888517773
 10
7.156274587
 20
5.8702709526
 10
7.1621800988
 20
6.2173676002
  0
LINE
  5
490
100
AcDbEntity
  8
0
100
AcDbLine
 62
7
  6
CONTINUOUS
 10
7.5283218311
 20
6.6054334497
 11
7.5507112017
 21
6.6442129772
  0
LINE
  5
491
100
AcDbEntity
  8
0
100
AcDbLine
 62
7
  6
CONTINUOUS
 10
7.0381224729
 20
5.6673232134
 11
7.0100050602
 21
5.618622426
  0
LINE
  5
492
100
AcDbEntity
  8
0
100
AcDbLine
 62
7
  6
CONTINUOUS
 10
7.5873769492
 20
6.6054334497
 11
7.6097663199
 21
6.6442129772
  0
LINE
  5
493
100
AcDbEntity
  8
0
100
AcDbLine
 62
7
  6
CONTINUOUS
 10
6.9742907745
 20
6.4690161268
 11
7.0024081872
 21
6.4203153394
  0
LINE
  5
494
100
AcDbEntity
  8
0
100
AcDbLine
 62
7
  6
CONTINUOUS
 10
7.5802387608
 20
5.4434255756
 11
7.5578493901
 21
5.4822051032
  0
LWPOLYLINE
  5
495
100
AcDbEntity
  8
0
100
AcDbPolyline
 62
7
  6
CONTINUOUS
 90
10
 70
0
 10
7.3026728902
 20
6.2289370274
 10
7.2967960476
 20
5.8596155935
 10
7.2953193112
 20
5.7724703898
 10
7.2938238396
 20
5.6910408397
 10
7.2923280067
 20
5.6185072305
 10
7.2908507426
 20
5.557417878
 10
7.2893784726
 20
5.5084640325
 10
7.2878980437
 20
5.4724589752
 10
7.2864273018
 20
5.450695545
 10
7.2849631702
 20
5.4434255756
  0
LWPOLYLINE
  5
496
100
AcDbEntity
  8
0
100
AcDbPolyline
 62
7
  6
CONTINUOUS
 90
9
 70
0
 10
7.3095457031
 20
6.2276194709
 10
7.311015718
 20
6.314406747
 10
7.3125045373
 20
6.3955626375
 10
7.3139940385
 20
6.467941992
 10
7.315465516
 20
6.5290146921
 10
7.3169356118
 20
6.5781790543
 10
7.3184242071
 20
6.6146644807
 10
7.3199136254
 20
6.6368688942
 10
7.3211190798
 20
6.6428848032
  0
LWPOLYLINE
  5
497
100
AcDbEntity
  8
0
100
AcDbPolyline
 62
7
  6
CONTINUOUS
 90
8
 70
0
 10
7.280290335
 20
6.2173676002
 10
7.281766713
 20
6.2987867756
 10
7.2832430909
 20
6.3739278049
 10
7.2847194689
 20
6.4409404667
 10
7.2861958468
 20
6.4981746869
 10
7.2876722248
 20
6.5442211689
 10
7.2891486027
 20
6.5779460955
 10
7.2906249807
 20
6.5985190472
  0
LWPOLYLINE
  5
498
100
AcDbEntity
  8
0
100
AcDbPolyline
 62
7
  6
CONTINUOUS
 90
9
 70
0
 10
7.3319635634
 20
6.2173676002
 10
7.3334399413
 20
6.2987867756
 10
7.3349163193
 20
6.3739278049
 10
7.3363926972
 20
6.4409404667
 10
7.3378690752
 20
6.4981746869
 10
7.3393454531
 20
6.5442211688
 10
7.3408218311
 20
6.5779460955
 10
7.342298209
 20
6.5985190472
 10
7.343774587
 20
6.6054334497
  0
LWPOLYLINE
  5
499
100
AcDbEntity
  8
0
100
AcDbPolyline
 62
7
  6
CONTINUOUS
 90
8
 70
0
 10
7.3393454531
 20
6.2173676002
 10
7.3408218311
 20
6.2987867756
 10
7.342298209
 20
6.3739278049
 10
7.343774587
 20
6.4409404667
 10
7.3452509649
 20
6.4981746869
 10
7.3467273429
 20
6.5442211688
 10
7.3482037208
 20
6.5779460955
 10
7.3496800988
 20
6.5985190472
  0
LWPOLYLINE
  5
49A
100
AcDbEntity
  8
0
100
AcDbPolyline
 62
7
  6
CONTINUOUS
 90
8
 70
0
 10
7.3720742565
 20
6.6368688942
 10
7.3705848382
 20
6.6146644807
 10
7.3690962429
 20
6.5781790543
 10
7.3676261471
 20
6.5290146921
 10
7.3661546696
 20
6.467941992
 10
7.3646651684
 20
6.3955626375
 10
7.3631763491
 20
6.314406747
 10
7.3617063343
 20
6.2276194709
  0
LWPOLYLINE
  5
49B
100
AcDbEntity
  8
0
100
AcDbPolyline
 62
7
  6
CONTINUOUS
 90
9
 70
0
 10
7.293325343
 20
5.4507308118
 10
7.2948037696
 20
5.4726799363
 10
7.2962747597
 20
5.5085160935
 10
7.2977317298
 20
5.5569128338
 10
7.2992023675
 20
5.6176007711
 10
7.3006915554
 20
5.6896585022
 10
7.3021807106
 20
5.7705866517
 10
7.3036517813
 20
5.8572610291
 10
7.3095457031
 20
6.2276194709
  0
LWPOLYLINE
  5
49C
100
AcDbEntity
  8
0
100
AcDbPolyline
 62
7
  6
CONTINUOUS
 90
9
 70
0
 10
7.2342666707
 20
5.450695545
 10
7.2357374126
 20
5.4724589752
 10
7.2372178415
 20
5.5084640325
 10
7.2386901115
 20
5.557417878
 10
7.2401673755
 20
5.6185072305
 10
7.2416632085
 20
5.6910408397
 10
7.2431586801
 20
5.7724703898
 10
7.2446354165
 20
5.8596155935
 10
7.2505122591
 20
6.2289370274
  0
LINE
  5
49D
100
AcDbEntity
  8
0
100
AcDbLine
 62
7
  6
CONTINUOUS
 10
7.4322927806
 20
6.6436791852
 11
7.4311260965
 21
6.6368362053
  0
LINE
  5
49E
100
AcDbEntity
  8
0
100
AcDbLine
 62
7
  6
CONTINUOUS
 10
7.1740557778
 20
5.4439596652
 11
7.1752183615
 21
5.4507631812
  0
LINE
  5
49F
100
AcDbEntity
  8
0
100
AcDbLine
 62
7
  6
CONTINUOUS
 10
7.2331111964
 20
5.4439601857
 11
7.2342666707
 21
5.450695545
  0
LWPOLYLINE
  5
4A0
100
AcDbEntity
  8
0
100
AcDbPolyline
 62
7
  6
CONTINUOUS
 90
10
 70
0
 10
7.1964091598
 20
5.4824408984
 10
7.1976131696
 20
5.4891195056
 10
7.1990895476
 20
5.5096924573
 10
7.2005659256
 20
5.543417384
 10
7.2020423035
 20
5.589463866
 10
7.2035186815
 20
5.6466980861
 10
7.2049950594
 20
5.7137107479
 10
7.2064714374
 20
5.7888517773
 10
7.2079478153
 20
5.8702709526
 10
7.2138533271
 20
6.2173676002
  0
LINE
  5
4A1
100
AcDbEntity
  8
0
100
AcDbLine
 62
7
  6
CONTINUOUS
 10
7.4087352169
 20
6.5985190472
 11
7.4099392267
 21
6.6051976545
  0
LWPOLYLINE
  5
4A2
100
AcDbEntity
  8
0
100
AcDbPolyline
 62
7
  6
CONTINUOUS
 90
10
 70
0
 10
7.2554642779
 20
5.4824408984
 10
7.2566682878
 20
5.4891195056
 10
7.2581446657
 20
5.5096924573
 10
7.2596210437
 20
5.543417384
 10
7.2610974216
 20
5.589463866
 10
7.2625737996
 20
5.6466980861
 10
7.2640501775
 20
5.7137107479
 10
7.2655265555
 20
5.7888517773
 10
7.2670029334
 20
5.8702709526
 10
7.2729084452
 20
6.2173676002
  0
LWPOLYLINE
  5
4A3
100
AcDbEntity
  8
0
100
AcDbPolyline
 62
7
  6
CONTINUOUS
 90
10
 70
0
 10
7.2035186815
 20
5.4822051032
 10
7.2049950594
 20
5.4891195056
 10
7.2064714374
 20
5.5096924573
 10
7.2079478153
 20
5.543417384
 10
7.2094241933
 20
5.589463866
 10
7.2109005712
 20
5.6466980861
 10
7.2123769492
 20
5.7137107479
 10
7.2138533271
 20
5.7888517773
 10
7.2153297051
 20
5.8702709526
 10
7.2212352169
 20
6.2173676002
  0
LINE
  5
4A4
100
AcDbEntity
  8
0
100
AcDbLine
 62
7
  6
CONTINUOUS
 10
7.0457193459
 20
6.4690161268
 11
7.0738367587
 21
6.4203153394
  0
LWPOLYLINE
  5
4A5
100
AcDbEntity
  8
0
100
AcDbPolyline
 62
7
  6
CONTINUOUS
 90
10
 70
0
 10
7.3617063343
 20
6.2276194709
 10
7.3558124124
 20
5.8572610291
 10
7.3543413417
 20
5.7705866517
 10
7.3528521865
 20
5.6896585022
 10
7.3513629986
 20
5.6176007711
 10
7.3498923609
 20
5.5569128338
 10
7.3484353908
 20
5.5085160935
 10
7.3469644007
 20
5.4726799363
 10
7.3454859741
 20
5.4507308118
 10
7.3440182884
 20
5.4434255756
  0
LWPOLYLINE
  5
4A6
100
AcDbEntity
  8
0
100
AcDbPolyline
 62
7
  6
CONTINUOUS
 90
10
 70
0
 10
7.4208073425
 20
6.2304079448
 10
7.4148752751
 20
5.8577313206
 10
7.4134070542
 20
5.7711894448
 10
7.4119317697
 20
5.6909216504
 10
7.4104666187
 20
5.6197885536
 10
7.4090056073
 20
5.5590946234
 10
7.4075326698
 20
5.5097410887
 10
7.4060408758
 20
5.4731020735
 10
7.4045481915
 20
5.4508015088
 10
7.4033384402
 20
5.4447511053
  0
LWPOLYLINE
  5
4A7
100
AcDbEntity
  8
0
100
AcDbPolyline
 62
7
  6
CONTINUOUS
 90
9
 70
0
 10
7.3686467114
 20
6.2304079448
 10
7.3701096845
 20
6.3166197133
 10
7.3715716391
 20
6.3961827347
 10
7.3730414889
 20
6.4675951642
 10
7.3745080326
 20
6.5285401236
 10
7.3759810033
 20
6.5778954864
 10
7.377472745
 20
6.6145340982
 10
7.3789654654
 20
6.6368362053
 10
7.3804403344
 20
6.6442129772
  0
LWPOLYLINE
  5
4A8
100
AcDbEntity
  8
0
100
AcDbPolyline
 62
7
  6
CONTINUOUS
 90
9
 70
0
 10
7.4276791707
 20
6.2290316567
 10
7.4291477863
 20
6.3156509653
 10
7.4306323868
 20
6.3964738338
 10
7.4321150749
 20
6.4684300325
 10
7.4335782468
 20
6.5291085365
 10
7.4350476458
 20
6.5782314049
 10
7.4365355974
 20
6.6146873181
 10
7.4380244281
 20
6.6368745351
 10
7.4394954525
 20
6.6442129772
  0
LWPOLYLINE
  5
4A9
100
AcDbEntity
  8
0
100
AcDbPolyline
 62
7
  6
CONTINUOUS
 90
9
 70
0
 10
7.3910186815
 20
6.2173676002
 10
7.3924950594
 20
6.2987867756
 10
7.3939714374
 20
6.3739278049
 10
7.3954478153
 20
6.4409404667
 10
7.3969241933
 20
6.4981746869
 10
7.3984005712
 20
6.5442211688
 10
7.3998769492
 20
6.5779460955
 10
7.4013533271
 20
6.5985190472
 10
7.4028297051
 20
6.6054334497
  0
LWPOLYLINE
  5
4AA
100
AcDbEntity
  8
0
100
AcDbPolyline
 62
7
  6
CONTINUOUS
 90
8
 70
0
 10
7.3984005712
 20
6.2173676002
 10
7.3998769492
 20
6.2987867756
 10
7.4013533271
 20
6.3739278049
 10
7.4028297051
 20
6.4409404667
 10
7.404306083
 20
6.4981746869
 10
7.405782461
 20
6.5442211688
 10
7.4072588389
 20
6.5779460955
 10
7.4087352169
 20
6.5985190472
  0
LWPOLYLINE
  5
4AB
100
AcDbEntity
  8
0
100
AcDbPolyline
 62
7
  6
CONTINUOUS
 90
8
 70
0
 10
7.4311260965
 20
6.6368362053
 10
7.4296333761
 20
6.6145340982
 10
7.4281416344
 20
6.5778954864
 10
7.4266686637
 20
6.5285401236
 10
7.42520212
 20
6.4675951642
 10
7.4237322703
 20
6.3961827347
 10
7.4222703156
 20
6.3166197133
 10
7.4208073425
 20
6.2304079448
  0
LWPOLYLINE
  5
4AC
100
AcDbEntity
  8
0
100
AcDbPolyline
 62
7
  6
CONTINUOUS
 90
9
 70
0
 10
7.3523875604
 20
5.4508015088
 10
7.3538802447
 20
5.4731020735
 10
7.3553720387
 20
5.5097410887
 10
7.3568449762
 20
5.5590946234
 10
7.3583059875
 20
5.6197885536
 10
7.3597711386
 20
5.6909216504
 10
7.3612464231
 20
5.7711894448
 10
7.362714644
 20
5.8577313206
 10
7.3686467114
 20
6.2304079448
  0
LINE
  5
4AD
100
AcDbEntity
  8
0
100
AcDbLine
 62
7
  6
CONTINUOUS
 10
7.4913477305
 20
6.643678894
 11
7.4901850592
 21
6.6368745351
  0
LINE
  5
4AE
100
AcDbEntity
  8
0
100
AcDbLine
 62
7
  6
CONTINUOUS
 10
7.2921661572
 20
5.4439599133
 11
7.293325343
 21
5.4507308118
  0
LINE
  5
4AF
100
AcDbEntity
  8
0
100
AcDbLine
 62
7
  6
CONTINUOUS
 10
7.467790335
 20
6.5985190472
 11
7.4689943448
 21
6.6051976545
  0
LWPOLYLINE
  5
4B0
100
AcDbEntity
  8
0
100
AcDbPolyline
 62
7
  6
CONTINUOUS
 90
10
 70
0
 10
7.314519396
 20
5.4824408984
 10
7.3157234059
 20
5.4891195056
 10
7.3171997838
 20
5.5096924573
 10
7.3186761618
 20
5.543417384
 10
7.3201525397
 20
5.589463866
 10
7.3216289177
 20
5.6466980861
 10
7.3231052956
 20
5.7137107479
 10
7.3245816736
 20
5.7888517773
 10
7.3260580515
 20
5.8702709526
 10
7.3319635634
 20
6.2173676002
  0
LINE
  5
4B1
100
AcDbEntity
  8
0
100
AcDbLine
 62
7
  6
CONTINUOUS
 10
7.5268454531
 20
6.5985190472
 11
7.5280494629
 21
6.6051976545
  0
LWPOLYLINE
  5
4B2
100
AcDbEntity
  8
0
100
AcDbPolyline
 62
7
  6
CONTINUOUS
 90
10
 70
0
 10
7.2625737996
 20
5.4822051032
 10
7.2640501775
 20
5.4891195056
 10
7.2655265555
 20
5.5096924573
 10
7.2670029334
 20
5.543417384
 10
7.2684793114
 20
5.589463866
 10
7.2699556893
 20
5.6466980861
 10
7.2714320673
 20
5.7137107479
 10
7.2729084452
 20
5.7888517773
 10
7.2743848232
 20
5.8702709526
 10
7.280290335
 20
6.2173676002
  0
LWPOLYLINE
  5
4B3
100
AcDbEntity
  8
0
100
AcDbPolyline
 62
7
  6
CONTINUOUS
 90
10
 70
0
 10
7.3216289177
 20
5.4822051032
 10
7.3231052956
 20
5.4891195056
 10
7.3245816736
 20
5.5096924573
 10
7.3260580515
 20
5.543417384
 10
7.3275344295
 20
5.589463866
 10
7.3290108074
 20
5.6466980861
 10
7.3304871854
 20
5.7137107479
 10
7.3319635633
 20
5.7888517773
 10
7.3334399413
 20
5.8702709526
 10
7.3393454531
 20
6.2173676002
  0
LWPOLYLINE
  5
4B4
100
AcDbEntity
  8
0
100
AcDbPolyline
 62
7
  6
CONTINUOUS
 90
10
 70
0
 10
7.4798398018
 20
6.2290316567
 10
7.4739228595
 20
5.8572738286
 10
7.472465933
 20
5.7714034989
 10
7.4709925976
 20
5.6912167925
 10
7.4695130883
 20
5.6193976155
 10
7.4680457813
 20
5.5585319366
 10
7.4665762574
 20
5.5094049984
 10
7.4650882595
 20
5.4729488554
 10
7.463599465
 20
5.4507631812
 10
7.4621285246
 20
5.4434255756
  0
LWPOLYLINE
  5
4B5
100
AcDbEntity
  8
0
100
AcDbPolyline
 62
7
  6
CONTINUOUS
 90
9
 70
0
 10
7.4867327315
 20
6.2289370274
 10
7.4882097118
 20
6.3160386235
 10
7.4897052373
 20
6.3973899432
 10
7.4912010168
 20
6.46981981
 10
7.4926781338
 20
6.5307868461
 10
7.4941458105
 20
6.5794790327
 10
7.4956121291
 20
6.6151095173
 10
7.4970819429
 20
6.63689838
 10
7.498283405
 20
6.642882341
  0
LWPOLYLINE
  5
4B6
100
AcDbEntity
  8
0
100
AcDbPolyline
 62
7
  6
CONTINUOUS
 90
9
 70
0
 10
7.4500737996
 20
6.2173676002
 10
7.4515501775
 20
6.2987867756
 10
7.4530265555
 20
6.3739278049
 10
7.4545029334
 20
6.4409404667
 10
7.4559793114
 20
6.4981746869
 10
7.4574556893
 20
6.5442211688
 10
7.4589320673
 20
6.5779460955
 10
7.4604084452
 20
6.5985190472
 10
7.4618848232
 20
6.6054334497
  0
LWPOLYLINE
  5
4B7
100
AcDbEntity
  8
0
100
AcDbPolyline
 62
7
  6
CONTINUOUS
 90
8
 70
0
 10
7.4574556893
 20
6.2173676002
 10
7.4589320673
 20
6.2987867756
 10
7.4604084452
 20
6.3739278049
 10
7.4618848232
 20
6.4409404667
 10
7.4633612011
 20
6.4981746869
 10
7.4648375791
 20
6.5442211688
 10
7.4663139571
 20
6.5779460955
 10
7.467790335
 20
6.5985190472
  0
LWPOLYLINE
  5
4B8
100
AcDbEntity
  8
0
100
AcDbPolyline
 62
7
  6
CONTINUOUS
 90
9
 70
0
 10
7.5091289177
 20
6.2173676002
 10
7.5106052956
 20
6.2987867756
 10
7.5120816736
 20
6.3739278049
 10
7.5135580515
 20
6.4409404667
 10
7.5150344295
 20
6.4981746869
 10
7.5165108074
 20
6.5442211689
 10
7.5179871854
 20
6.5779460955
 10
7.5194635633
 20
6.5985190472
 10
7.5209399413
 20
6.6054334497
  0
LWPOLYLINE
  5
4B9
100
AcDbEntity
  8
0
100
AcDbPolyline
 62
7
  6
CONTINUOUS
 90
8
 70
0
 10
7.5165108074
 20
6.2173676002
 10
7.5179871854
 20
6.2987867756
 10
7.5194635633
 20
6.3739278049
 10
7.5209399413
 20
6.4409404667
 10
7.5224163193
 20
6.4981746869
 10
7.5238926972
 20
6.5442211689
 10
7.5253690752
 20
6.5779460955
 10
7.5268454531
 20
6.5985190472
  0
LWPOLYLINE
  5
4BA
100
AcDbEntity
  8
0
100
AcDbPolyline
 62
7
  6
CONTINUOUS
 90
8
 70
0
 10
7.4901850592
 20
6.6368745351
 10
7.4886962285
 20
6.6146873181
 10
7.487208277
 20
6.5782314049
 10
7.485738878
 20
6.5291085365
 10
7.4842757061
 20
6.4684300325
 10
7.4827930179
 20
6.3964738338
 10
7.4813084174
 20
6.3156509653
 10
7.4798398018
 20
6.2290316567
  0
LWPOLYLINE
  5
4BB
100
AcDbEntity
  8
0
100
AcDbPolyline
 62
7
  6
CONTINUOUS
 90
9
 70
0
 10
7.4114388339
 20
5.4507631812
 10
7.4129276283
 20
5.4729488554
 10
7.4144156263
 20
5.5094049984
 10
7.4158851502
 20
5.5585319366
 10
7.4173524571
 20
5.6193976155
 10
7.4188319664
 20
5.6912167925
 10
7.4203053019
 20
5.7714034989
 10
7.4217622283
 20
5.8572738286
 10
7.4276791707
 20
6.2290316567
  0
LWPOLYLINE
  5
4BC
100
AcDbEntity
  8
0
100
AcDbPolyline
 62
7
  6
CONTINUOUS
 90
8
 70
0
 10
7.549242574
 20
6.63689838
 10
7.5477727602
 20
6.6151095173
 10
7.5463064417
 20
6.5794790327
 10
7.5448387649
 20
6.5307868461
 10
7.5433616479
 20
6.46981981
 10
7.5418658684
 20
6.3973899432
 10
7.540370343
 20
6.3160386235
 10
7.5388933627
 20
6.2289370274
  0
LWPOLYLINE
  5
4BD
100
AcDbEntity
  8
0
100
AcDbPolyline
 62
7
  6
CONTINUOUS
 90
9
 70
0
 10
7.4704871431
 20
5.450695545
 10
7.4719578851
 20
5.4724589752
 10
7.473438314
 20
5.5084640325
 10
7.4749105839
 20
5.557417878
 10
7.476387848
 20
5.6185072305
 10
7.4778836809
 20
5.6910408397
 10
7.4793791525
 20
5.7724703898
 10
7.480855889
 20
5.8596155935
 10
7.4867327315
 20
6.2289370274
  0
LINE
  5
4BE
100
AcDbEntity
  8
0
100
AcDbLine
 62
7
  6
CONTINUOUS
 10
7.351220964
 20
5.443959374
 11
7.3523875604
 21
5.4508015088
  0
LINE
  5
4BF
100
AcDbEntity
  8
0
100
AcDbLine
 62
7
  6
CONTINUOUS
 10
7.6094579916
 20
6.643678937
 11
7.608294729
 21
6.6368688942
  0
LINE
  5
4C0
100
AcDbEntity
  8
0
100
AcDbLine
 62
7
  6
CONTINUOUS
 10
7.4102762502
 20
5.4439596652
 11
7.4114388339
 21
5.4507631812
  0
LINE
  5
4C1
100
AcDbEntity
  8
0
100
AcDbLine
 62
7
  6
CONTINUOUS
 10
7.5504027433
 20
6.6436787115
 11
7.549242574
 21
6.63689838
  0
LWPOLYLINE
  5
4C2
100
AcDbEntity
  8
0
100
AcDbPolyline
 62
7
  6
CONTINUOUS
 90
10
 70
0
 10
7.3735745141
 20
5.4824408984
 10
7.374778524
 20
5.4891195056
 10
7.3762549019
 20
5.5096924573
 10
7.3777312799
 20
5.543417384
 10
7.3792076578
 20
5.589463866
 10
7.3806840358
 20
5.6466980861
 10
7.3821604137
 20
5.7137107479
 10
7.3836367917
 20
5.7888517773
 10
7.3851131696
 20
5.8702709526
 10
7.3910186815
 20
6.2173676002
  0
LINE
  5
4C3
100
AcDbEntity
  8
0
100
AcDbLine
 62
7
  6
CONTINUOUS
 10
7.5859005712
 20
6.5985190472
 11
7.5871045811
 21
6.6051976545
  0
LWPOLYLINE
  5
4C4
100
AcDbEntity
  8
0
100
AcDbPolyline
 62
7
  6
CONTINUOUS
 90
10
 70
0
 10
7.3806840358
 20
5.4822051032
 10
7.3821604137
 20
5.4891195056
 10
7.3836367917
 20
5.5096924573
 10
7.3851131696
 20
5.543417384
 10
7.3865895476
 20
5.589463866
 10
7.3880659256
 20
5.6466980861
 10
7.3895423035
 20
5.7137107479
 10
7.3910186815
 20
5.7888517773
 10
7.3924950594
 20
5.8702709526
 10
7.3984005712
 20
6.2173676002
  0
LINE
  5
4C5
100
AcDbEntity
  8
0
100
AcDbLine
 62
7
  6
CONTINUOUS
 10
7.1961367917
 20
5.4822051032
 11
7.173747421
 21
5.4434255756
  0
LINE
  5
4C6
100
AcDbEntity
  8
0
100
AcDbLine
 62
7
  6
CONTINUOUS
 10
7.2551919098
 20
5.4822051032
 11
7.2328025391
 21
5.4434255756
  0
LINE
  5
4C7
100
AcDbEntity
  8
0
100
AcDbLine
 62
7
  6
CONTINUOUS
 10
7.144219862
 20
6.6442129772
 11
7.1666092326
 21
6.6054334497
  0
LINE
  5
4C8
100
AcDbEntity
  8
0
100
AcDbLine
 62
7
  6
CONTINUOUS
 10
7.2032749801
 20
6.6442129772
 11
7.2256643508
 21
6.6054334497
  0
LWPOLYLINE
  5
4C9
100
AcDbEntity
  8
0
100
AcDbPolyline
 62
7
  6
CONTINUOUS
 90
10
 70
0
 10
7.5388933627
 20
6.2289370274
 10
7.5330165201
 20
5.8596155935
 10
7.5315397836
 20
5.7724703898
 10
7.530044312
 20
5.6910408397
 10
7.5285484791
 20
5.6185072305
 10
7.527071215
 20
5.557417878
 10
7.5255989451
 20
5.5084640325
 10
7.5241185162
 20
5.4724589752
 10
7.5226477742
 20
5.450695545
 10
7.5211836427
 20
5.4434255756
  0
LWPOLYLINE
  5
4CA
100
AcDbEntity
  8
0
100
AcDbPolyline
 62
7
  6
CONTINUOUS
 90
10
 70
0
 10
7.5979268067
 20
6.2276194709
 10
7.5920328849
 20
5.8572610291
 10
7.5905618141
 20
5.7705866517
 10
7.589072659
 20
5.6896585022
 10
7.587583471
 20
5.6176007711
 10
7.5861128333
 20
5.5569128338
 10
7.5846558632
 20
5.5085160935
 10
7.5831848732
 20
5.4726799363
 10
7.5817064465
 20
5.4507308118
 10
7.5802387608
 20
5.4434255756
  0
LWPOLYLINE
  5
4CB
100
AcDbEntity
  8
0
100
AcDbPolyline
 62
7
  6
CONTINUOUS
 90
9
 70
0
 10
7.5457661756
 20
6.2276194709
 10
7.5472361904
 20
6.314406747
 10
7.5487250097
 20
6.3955626375
 10
7.5502145109
 20
6.467941992
 10
7.5516859884
 20
6.5290146921
 10
7.5531560842
 20
6.5781790543
 10
7.5546446796
 20
6.6146644807
 10
7.5561340979
 20
6.6368688942
 10
7.5576056887
 20
6.6442129772
  0
LWPOLYLINE
  5
4CC
100
AcDbEntity
  8
0
100
AcDbPolyline
 62
7
  6
CONTINUOUS
 90
9
 70
0
 10
7.5681840358
 20
6.2173676002
 10
7.5696604137
 20
6.2987867756
 10
7.5711367917
 20
6.3739278049
 10
7.5726131696
 20
6.4409404667
 10
7.5740895476
 20
6.4981746869
 10
7.5755659256
 20
6.5442211689
 10
7.5770423035
 20
6.5779460955
 10
7.5785186815
 20
6.5985190472
 10
7.5799950594
 20
6.6054334497
  0
LWPOLYLINE
  5
4CD
100
AcDbEntity
  8
0
100
AcDbPolyline
 62
7
  6
CONTINUOUS
 90
8
 70
0
 10
7.5755659256
 20
6.2173676002
 10
7.5770423035
 20
6.2987867756
 10
7.5785186815
 20
6.3739278049
 10
7.5799950594
 20
6.4409404667
 10
7.5814714374
 20
6.4981746869
 10
7.5829478153
 20
6.5442211689
 10
7.5844241933
 20
6.5779460955
 10
7.5859005712
 20
6.5985190472
  0
LWPOLYLINE
  5
4CE
100
AcDbEntity
  8
0
100
AcDbPolyline
 62
7
  6
CONTINUOUS
 90
8
 70
0
 10
7.608294729
 20
6.6368688942
 10
7.6068053107
 20
6.6146644807
 10
7.6053167154
 20
6.5781790543
 10
7.6038466195
 20
6.5290146921
 10
7.602375142
 20
6.467941992
 10
7.6008856408
 20
6.3955626375
 10
7.5993968215
 20
6.314406747
 10
7.5979268067
 20
6.2276194709
  0
LWPOLYLINE
  5
4CF
100
AcDbEntity
  8
0
100
AcDbPolyline
 62
7
  6
CONTINUOUS
 90
9
 70
0
 10
7.5295458154
 20
5.4507308118
 10
7.5310242421
 20
5.4726799363
 10
7.5324952321
 20
5.5085160935
 10
7.5339522022
 20
5.5569128338
 10
7.5354228399
 20
5.6176007711
 10
7.5369120279
 20
5.6896585022
 10
7.538401183
 20
5.7705866517
 10
7.5398722538
 20
5.8572610291
 10
7.5457661756
 20
6.2276194709
  0
LINE
  5
4D0
100
AcDbEntity
  8
0
100
AcDbLine
 62
7
  6
CONTINUOUS
 10
7.4693316688
 20
5.4439601857
 11
7.4704871431
 21
5.450695545
  0
LWPOLYLINE
  5
4D1
100
AcDbEntity
  8
0
100
AcDbPolyline
 62
7
  6
CONTINUOUS
 90
10
 70
0
 10
7.4326296323
 20
5.4824408984
 10
7.4338336421
 20
5.4891195056
 10
7.43531002
 20
5.5096924573
 10
7.436786398
 20
5.543417384
 10
7.4382627759
 20
5.589463866
 10
7.4397391539
 20
5.6466980861
 10
7.4412155319
 20
5.7137107479
 10
7.4426919098
 20
5.7888517773
 10
7.4441682878
 20
5.8702709526
 10
7.4500737996
 20
6.2173676002
  0
LWPOLYLINE
  5
4D2
100
AcDbEntity
  8
0
100
AcDbPolyline
 62
7
  6
CONTINUOUS
 90
10
 70
0
 10
7.4916847504
 20
5.4824408984
 10
7.4928887602
 20
5.4891195056
 10
7.4943651382
 20
5.5096924573
 10
7.4958415161
 20
5.543417384
 10
7.4973178941
 20
5.589463866
 10
7.498794272
 20
5.6466980861
 10
7.50027065
 20
5.7137107479
 10
7.5017470279
 20
5.7888517773
 10
7.5032234059
 20
5.8702709526
 10
7.5091289177
 20
6.2173676002
  0
LWPOLYLINE
  5
4D3
100
AcDbEntity
  8
0
100
AcDbPolyline
 62
7
  6
CONTINUOUS
 90
10
 70
0
 10
7.4397391539
 20
5.4822051032
 10
7.4412155319
 20
5.4891195056
 10
7.4426919098
 20
5.5096924573
 10
7.4441682878
 20
5.543417384
 10
7.4456446657
 20
5.589463866
 10
7.4471210437
 20
5.6466980861
 10
7.4485974216
 20
5.7137107479
 10
7.4500737996
 20
5.7888517773
 10
7.4515501775
 20
5.8702709526
 10
7.4574556893
 20
6.2173676002
  0
LWPOLYLINE
  5
4D4
100
AcDbEntity
  8
0
100
AcDbPolyline
 62
7
  6
CONTINUOUS
 90
10
 70
0
 10
7.498794272
 20
5.4822051032
 10
7.50027065
 20
5.4891195056
 10
7.5017470279
 20
5.5096924573
 10
7.5032234059
 20
5.543417384
 10
7.5046997838
 20
5.589463866
 10
7.5061761618
 20
5.6466980861
 10
7.5076525397
 20
5.7137107479
 10
7.5091289177
 20
5.7888517773
 10
7.5106052956
 20
5.8702709526
 10
7.5165108074
 20
6.2173676002
  0
LINE
  5
4D5
100
AcDbEntity
  8
0
100
AcDbLine
 62
7
  6
CONTINUOUS
 10
7.3142470279
 20
5.4822051032
 11
7.2918576572
 21
5.4434255756
  0
LINE
  5
4D6
100
AcDbEntity
  8
0
100
AcDbLine
 62
7
  6
CONTINUOUS
 10
6.5024081872
 20
6.4203153394
 11
6.5113451951
 21
6.4203153394
  0
LINE
  5
4D7
100
AcDbEntity
  8
0
100
AcDbLine
 62
7
  6
CONTINUOUS
 10
6.5738367587
 20
6.4203153394
 11
6.5827737665
 21
6.4203153394
  0
LINE
  5
4D8
100
AcDbEntity
  8
0
100
AcDbLine
 62
7
  6
CONTINUOUS
 10
6.6452653301
 20
6.4203153394
 11
6.654202338
 21
6.4203153394
  0
LINE
  5
4D9
100
AcDbEntity
  8
0
100
AcDbLine
 62
7
  6
CONTINUOUS
 10
6.7166939015
 20
6.4203153394
 11
6.7256309094
 21
6.4203153394
  0
LINE
  5
4DA
100
AcDbEntity
  8
0
100
AcDbLine
 62
7
  6
CONTINUOUS
 10
6.7881224729
 20
6.4203153394
 11
6.7970594808
 21
6.4203153394
  0
LINE
  5
4DB
100
AcDbEntity
  8
0
100
AcDbLine
 62
7
  6
CONTINUOUS
 10
6.8595510444
 20
6.4203153394
 11
6.8684880522
 21
6.4203153394
  0
LINE
  5
4DC
100
AcDbEntity
  8
0
100
AcDbLine
 62
7
  6
CONTINUOUS
 10
6.9309796158
 20
6.4203153394
 11
6.9399166237
 21
6.4203153394
  0
LINE
  5
4DD
100
AcDbEntity
  8
0
100
AcDbLine
 62
7
  6
CONTINUOUS
 10
7.0024081872
 20
6.4203153394
 11
7.0113451951
 21
6.4203153394
  0
LINE
  5
4DE
100
AcDbEntity
  8
0
100
AcDbLine
 62
7
  6
CONTINUOUS
 10
7.0738367587
 20
6.4203153394
 11
7.0827737665
 21
6.4203153394
  0
LINE
  5
4DF
100
AcDbEntity
  8
0
100
AcDbLine
 62
7
  6
CONTINUOUS
 10
6.4742907745
 20
6.4690161268
 11
6.2711836427
 21
6.4690161268
  0
LINE
  5
4E0
100
AcDbEntity
  8
0
100
AcDbLine
 62
7
  6
CONTINUOUS
 10
6.5394626078
 20
6.4690161268
 11
6.5457193459
 21
6.4690161268
  0
LINE
  5
4E1
100
AcDbEntity
  8
0
100
AcDbLine
 62
7
  6
CONTINUOUS
 10
6.6108911792
 20
6.4690161268
 11
6.6171479174
 21
6.4690161268
  0
LINE
  5
4E2
100
AcDbEntity
  8
0
100
AcDbLine
 62
7
  6
CONTINUOUS
 10
6.6823197507
 20
6.4690161268
 11
6.6885764888
 21
6.4690161268
  0
LINE
  5
4E3
100
AcDbEntity
  8
0
100
AcDbLine
 62
7
  6
CONTINUOUS
 10
6.7537483221
 20
6.4690161268
 11
6.7600050602
 21
6.4690161268
  0
LINE
  5
4E4
100
AcDbEntity
  8
0
100
AcDbLine
 62
7
  6
CONTINUOUS
 10
6.8251768935
 20
6.4690161268
 11
6.8314336317
 21
6.4690161268
  0
LINE
  5
4E5
100
AcDbEntity
  8
0
100
AcDbLine
 62
7
  6
CONTINUOUS
 10
6.896605465
 20
6.4690161268
 11
6.9028622031
 21
6.4690161268
  0
LINE
  5
4E6
100
AcDbEntity
  8
0
100
AcDbLine
 62
7
  6
CONTINUOUS
 10
6.9680340364
 20
6.4690161268
 11
6.9742907745
 21
6.4690161268
  0
LINE
  5
4E7
100
AcDbEntity
  8
0
100
AcDbLine
 62
7
  6
CONTINUOUS
 10
7.0394626078
 20
6.4690161268
 11
7.0457193459
 21
6.4690161268
  0
LINE
  5
4E8
100
AcDbEntity
  8
0
100
AcDbLine
 62
7
  6
CONTINUOUS
 10
7.1108911792
 20
6.4690161268
 11
7.137325375
 21
6.4690161268
  0
LINE
  5
4E9
100
AcDbEntity
  8
0
100
AcDbLine
 62
7
  6
CONTINUOUS
 10
7.2623300982
 20
6.6442129772
 11
7.2847194689
 21
6.6054334497
  0
LINE
  5
4EA
100
AcDbEntity
  8
0
100
AcDbLine
 62
7
  6
CONTINUOUS
 10
7.3213852163
 20
6.6442129772
 11
7.343774587
 21
6.6054334497
  0
LINE
  5
4EB
100
AcDbEntity
  8
0
100
AcDbLine
 62
7
  6
CONTINUOUS
 10
7.5283866297
 20
5.4439599133
 11
7.5295458154
 21
5.4507308118
  0
LWPOLYLINE
  5
4EC
100
AcDbEntity
  8
0
100
AcDbPolyline
 62
7
  6
CONTINUOUS
 90
10
 70
0
 10
7.5507398685
 20
5.4824408984
 10
7.5519438783
 20
5.4891195056
 10
7.5534202563
 20
5.5096924573
 10
7.5548966342
 20
5.543417384
 10
7.5563730122
 20
5.589463866
 10
7.5578493901
 20
5.6466980861
 10
7.5593257681
 20
5.7137107479
 10
7.560802146
 20
5.7888517773
 10
7.562278524
 20
5.8702709526
 10
7.5681840358
 20
6.2173676002
  0
LWPOLYLINE
  5
4ED
100
AcDbEntity
  8
0
100
AcDbPolyline
 62
7
  6
CONTINUOUS
 90
10
 70
0
 10
7.5578493901
 20
5.4822051032
 10
7.5593257681
 20
5.4891195056
 10
7.560802146
 20
5.5096924573
 10
7.562278524
 20
5.543417384
 10
7.5637549019
 20
5.589463866
 10
7.5652312799
 20
5.6466980861
 10
7.5667076578
 20
5.7137107479
 10
7.5681840358
 20
5.7888517773
 10
7.5696604137
 20
5.8702709526
 10
7.5755659256
 20
6.2173676002
  0
LINE
  5
4EE
100
AcDbEntity
  8
0
100
AcDbLine
 62
7
  6
CONTINUOUS
 10
7.373302146
 20
5.4822051032
 11
7.3509127754
 21
5.4434255756
  0
LINE
  5
4EF
100
AcDbEntity
  8
0
100
AcDbLine
 62
7
  6
CONTINUOUS
 10
7.4323572641
 20
5.4822051032
 11
7.4099678935
 21
5.4434255756
  0
LINE
  5
4F0
100
AcDbEntity
  8
0
100
AcDbLine
 62
7
  6
CONTINUOUS
 10
7.3804403344
 20
6.6442129772
 11
7.4028297051
 21
6.6054334497
  0
LINE
  5
4F1
100
AcDbEntity
  8
0
100
AcDbLine
 62
7
  6
CONTINUOUS
 10
7.4914123822
 20
5.4822051032
 11
7.4690230116
 21
5.4434255756
  0
LINE
  5
4F2
100
AcDbEntity
  8
0
100
AcDbLine
 62
7
  6
CONTINUOUS
 10
7.5873769492
 20
6.6054334497
 11
7.5799950594
 21
6.6054334497
  0
LINE
  5
4F3
100
AcDbEntity
  8
0
100
AcDbLine
 62
7
  6
CONTINUOUS
 10
7.1666092326
 20
6.6054334497
 11
7.1739911224
 21
6.6054334497
  0
LINE
  5
4F4
100
AcDbEntity
  8
0
100
AcDbLine
 62
7
  6
CONTINUOUS
 10
7.2256643508
 20
6.6054334497
 11
7.2330462405
 21
6.6054334497
  0
LINE
  5
4F5
100
AcDbEntity
  8
0
100
AcDbLine
 62
7
  6
CONTINUOUS
 10
7.2847194689
 20
6.6054334497
 11
7.2921013586
 21
6.6054334497
  0
LINE
  5
4F6
100
AcDbEntity
  8
0
100
AcDbLine
 62
7
  6
CONTINUOUS
 10
7.343774587
 20
6.6054334497
 11
7.3511564767
 21
6.6054334497
  0
LINE
  5
4F7
100
AcDbEntity
  8
0
100
AcDbLine
 62
7
  6
CONTINUOUS
 10
7.4028297051
 20
6.6054334497
 11
7.4102115948
 21
6.6054334497
  0
LINE
  5
4F8
100
AcDbEntity
  8
0
100
AcDbLine
 62
7
  6
CONTINUOUS
 10
7.4618848232
 20
6.6054334497
 11
7.469266713
 21
6.6054334497
  0
LINE
  5
4F9
100
AcDbEntity
  8
0
100
AcDbLine
 62
7
  6
CONTINUOUS
 10
7.5209399413
 20
6.6054334497
 11
7.5283218311
 21
6.6054334497
  0
LINE
  5
4FA
100
AcDbEntity
  8
0
100
AcDbLine
 62
7
  6
CONTINUOUS
 10
7.137325375
 20
6.6442129772
 11
7.144219862
 21
6.6442129772
  0
LINE
  5
4FB
100
AcDbEntity
  8
0
100
AcDbLine
 62
7
  6
CONTINUOUS
 10
7.1963804931
 20
6.6442129772
 11
7.2032749801
 21
6.6442129772
  0
LINE
  5
4FC
100
AcDbEntity
  8
0
100
AcDbLine
 62
7
  6
CONTINUOUS
 10
7.2554356112
 20
6.6442129772
 11
7.2623300982
 21
6.6442129772
  0
LINE
  5
4FD
100
AcDbEntity
  8
0
100
AcDbLine
 62
7
  6
CONTINUOUS
 10
7.3144907293
 20
6.6442129772
 11
7.3213852163
 21
6.6442129772
  0
LINE
  5
4FE
100
AcDbEntity
  8
0
100
AcDbLine
 62
7
  6
CONTINUOUS
 10
7.3735458474
 20
6.6442129772
 11
7.3804403344
 21
6.6442129772
  0
LINE
  5
4FF
100
AcDbEntity
  8
0
100
AcDbLine
 62
7
  6
CONTINUOUS
 10
7.4326009655
 20
6.6442129772
 11
7.4394954525
 21
6.6442129772
  0
LINE
  5
500
100
AcDbEntity
  8
0
100
AcDbLine
 62
7
  6
CONTINUOUS
 10
7.4916560836
 20
6.6442129772
 11
7.4985505706
 21
6.6442129772
  0
LINE
  5
501
100
AcDbEntity
  8
0
100
AcDbLine
 62
7
  6
CONTINUOUS
 10
7.5507112017
 20
6.6442129772
 11
7.9542545088
 21
6.6442129772
  0
LINE
  5
502
100
AcDbEntity
  8
0
100
AcDbLine
 62
7
  6
CONTINUOUS
 10
7.4394954525
 20
6.6442129772
 11
7.4618848232
 21
6.6054334497
  0
LINE
  5
503
100
AcDbEntity
  8
0
100
AcDbLine
 62
7
  6
CONTINUOUS
 10
7.4985505706
 20
6.6442129772
 11
7.5209399413
 21
6.6054334497
  0
LINE
  5
504
100
AcDbEntity
  8
0
100
AcDbLine
 62
7
  6
CONTINUOUS
 10
7.5504675004
 20
5.4822051032
 11
7.5280781297
 21
5.4434255756
  0
LINE
  5
505
100
AcDbEntity
  8
0
100
AcDbLine
 62
7
  6
CONTINUOUS
 10
8.0172466348
 20
6.6481499851
 11
7.9542545088
 21
6.6481499851
  0
LINE
  5
506
100
AcDbEntity
  8
0
100
AcDbLine
 62
7
  6
CONTINUOUS
 10
7.5576056887
 20
6.6442129772
 11
7.5799950594
 21
6.6054334497
  0
LINE
  5
507
100
AcDbEntity
  8
0
100
AcDbLine
 62
7
  6
CONTINUOUS
 10
7.9542545088
 20
5.2367326623
 11
7.9542545088
 21
6.8509058906
  0
LINE
  5
508
100
AcDbEntity
  8
0
100
AcDbLine
 62
7
  6
CONTINUOUS
 10
8.0172466348
 20
5.2583862056
 11
8.0172466348
 21
6.8292523473
  0
LINE
  5
509
100
AcDbEntity
  8
0
100
AcDbLine
 62
7
  6
CONTINUOUS
 10
8.0231521466
 20
5.2367326623
 11
8.0231521466
 21
6.8509058906
  0
LINE
  5
50A
100
AcDbEntity
  8
0
100
AcDbLine
 62
7
  6
CONTINUOUS
 10
8.0172466348
 20
6.8292523473
 11
7.9542545088
 21
6.8292523473
  0
LINE
  5
50B
100
AcDbEntity
  8
0
100
AcDbLine
 62
7
  6
CONTINUOUS
 10
7.9542545088
 20
6.8509058906
 11
8.0231521466
 21
6.8509058906
  0
LINE
  5
50C
100
AcDbEntity
  8
0
100
AcDbLine
 62
7
  6
CONTINUOUS
 10
8.0784834642
 20
5.1798428985
 11
8.0784834642
 21
6.9077956544
  0
LINE
  5
50D
100
AcDbEntity
  8
0
100
AcDbLine
 62
7
  6
CONTINUOUS
 10
8.0841757687
 20
6.9178982063
 11
8.0841757687
 21
5.1697403466
  0
LINE
  5
50E
100
AcDbEntity
  8
0
100
AcDbLine
 62
7
  6
CONTINUOUS
 10
8.072364745
 20
6.9297092299
 11
7.9542545088
 21
6.9297092299
  0
LINE
  5
50F
100
AcDbEntity
  8
0
100
AcDbLine
 62
7
  6
CONTINUOUS
 10
3.2695769992
 20
5.6691732343
 11
3.2030911187
 21
5.6819043691
  0
LWPOLYLINE
  5
510
100
AcDbEntity
  8
0
100
AcDbPolyline
 62
7
  6
CONTINUOUS
 90
17
 70
0
 10
3.2030911187
 20
5.6819043691
 10
3.1399596957
 20
5.706335446
 10
3.0822236353
 20
5.7416766602
 10
3.031749422
 20
5.7867855051
 10
2.9901687803
 20
5.8402037073
 10
2.958825924
 20
5.9002043694
 10
2.9387341015
 20
5.9648477972
 10
2.9305428388
 20
6.0320442057
 10
2.9345169419
 20
6.0996212772
 10
2.9505279367
 20
6.1653943883
 10
2.9780582215
 20
6.2272372335
 10
3.0162178006
 20
6.2831505648
 10
3.0637730556
 20
6.3313268226
 10
3.1191866259
 20
6.3702085705
 10
3.1806671081
 20
6.3985388441
 10
3.2462269686
 20
6.4154017854
 10
3.3068946154
 20
6.419760007
  0
LINE
  5
511
100
AcDbEntity
  8
DEFAULT_3
100
AcDbLine
 62
7
  6
PHANTOM
 10
3.3068547216
 20
7.132692133
 11
3.3068547216
 21
6.4690161268
  0
LINE
  5
512
100
AcDbEntity
  8
DEFAULT_3
100
AcDbLine
 62
7
  6
PHANTOM
 10
3.3068547216
 20
6.4203153394
 11
3.3068547216
 21
4.9016035254
  0
LINE
  5
513
100
AcDbEntity
  8
0
100
AcDbLine
 62
7
  6
CONTINUOUS
 10
3.3068547216
 20
6.4690161268
 11
3.3068547216
 21
6.4203153394
  0
LINE
  5
514
100
AcDbEntity
  8
0
100
AcDbLine
 62
7
  6
CONTINUOUS
 10
3.3068547216
 20
6.4203153394
 11
3.374274443
 21
6.4142296794
  0
LWPOLYLINE
  5
515
100
AcDbEntity
  8
0
100
AcDbPolyline
 62
7
  6
CONTINUOUS
 90
18
 70
0
 10
3.374274443
 20
6.4142296794
 10
3.4395146277
 20
6.3961694357
 10
3.5004661986
 20
6.3667184579
 10
3.5551587207
 20
6.3268288337
 10
3.6018241005
 20
6.27779011
 10
3.6389537452
 20
6.221187605
 10
3.6653473321
 20
6.1588511577
 10
3.6801516123
 20
6.0927959733
 10
3.6828879949
 20
6.0251574761
 10
3.6734680185
 20
5.9581222754
 10
3.6521962109
 20
5.8938574771
 10
3.6197602445
 20
5.8344406262
 10
3.5772087055
 20
5.7817925434
 10
3.525917195
 20
5.7376152297
 10
3.4675438588
 20
5.7033368442
 10
3.4039757832
 20
5.6800655344
 10
3.3372679895
 20
5.6685536124
 10
3.2695769992
 20
5.6691732343
  0
LINE
  5
516
100
AcDbEntity
  8
0
100
AcDbLine
 62
7
  6
CONTINUOUS
 10
10.9111833898
 20
5.4850865639
 11
10.8217284569
 21
5.5015879269
  0
LWPOLYLINE
  5
517
100
AcDbEntity
  8
0
100
AcDbPolyline
 62
7
  6
CONTINUOUS
 90
19
 70
0
 10
10.8217284569
 20
5.5015879269
 10
10.7361108375
 20
5.5323141897
 10
10.6565766244
 20
5.5764592793
 10
10.5852123186
 20
5.6328650932
 10
10.5238900916
 20
5.7000518811
 10
10.474218671
 20
5.7762570644
 10
10.4375011371
 20
5.8594814761
 10
10.4147007379
 20
5.9475418065
 10
10.4064156191
 20
6.0381278804
 10
10.4128631326
 20
6.1288632625
 10
10.4338741342
 20
6.2173676002
 10
10.4688974213
 20
6.3013190704
 10
10.5170141928
 20
6.3785152899
 10
10.576962153
 20
6.4469310925
 10
10.647168627
 20
6.5047716579
 10
10.7257918177
 20
6.5505195963
 10
10.810769124
 20
6.5829747562
 10
10.8998712508
 20
6.6012857088
 10
10.9680570139
 20
6.6040512482
  0
LWPOLYLINE
  5
518
100
AcDbEntity
  8
0
100
AcDbPolyline
 62
7
  6
CONTINUOUS
 90
15
 70
0
 10
10.6940519856
 20
5.7863636539
 10
10.7387792527
 20
5.7451443739
 10
10.7959685467
 20
5.7089250595
 10
10.858719284
 20
5.6835321656
 10
10.9250028662
 20
5.6697865907
 10
10.9926764854
 20
5.6681327002
 10
11.059552397
 20
5.6786239607
 10
11.1234686443
 20
5.7009212121
 10
11.1823589506
 20
5.7343036315
 10
11.2343195169
 20
5.7776920359
 10
11.2776705683
 20
5.8296837703
 10
11.3110106571
 20
5.8885980518
 10
11.3332619688
 20
5.9525303067
 10
11.3437051658
 20
6.0194137406
 10
11.3420026415
 20
6.0870861538
  0
LINE
  5
519
100
AcDbEntity
  8
0
100
AcDbLine
 62
7
  6
CONTINUOUS
 10
10.6519325866
 20
5.8392463725
 11
10.6936746773
 21
5.7859542347
  0
LINE
  5
51A
100
AcDbEntity
  8
0
100
AcDbLine
 62
7
  6
CONTINUOUS
 10
10.6204083166
 20
5.8991519189
 11
10.6519325866
 21
5.8392463725
  0
LINE
  5
51B
100
AcDbEntity
  8
0
100
AcDbLine
 62
7
  6
CONTINUOUS
 10
10.6001209801
 20
5.9637342545
 11
10.6204083166
 21
5.8991519189
  0
LINE
  5
51C
100
AcDbEntity
  8
0
100
AcDbLine
 62
7
  6
CONTINUOUS
 10
10.9680009533
 20
6.6442129772
 11
10.9680009533
 21
6.6054334497
  0
LINE
  5
51D
100
AcDbEntity
  8
0
100
AcDbLine
 62
7
  6
CONTINUOUS
 10
10.6936746773
 20
5.7859542347
 11
10.6581898291
 21
5.7525986918
  0
LWPOLYLINE
  5
51E
100
AcDbEntity
  8
0
100
AcDbPolyline
 62
7
  6
CONTINUOUS
 90
17
 70
0
 10
11.3027714514
 20
6.2160923128
 10
11.2665110468
 20
6.2732555628
 10
11.2206004433
 20
6.3230016238
 10
11.1665238335
 20
6.3637223109
 10
11.1060293995
 20
6.3941012107
 10
11.0410727983
 20
6.4131562376
 10
10.9737539391
 20
6.4202713831
 10
10.9062490981
 20
6.4152166295
 10
10.8407405638
 20
6.3981553862
 10
10.7793460882
 20
6.3696392073
 10
10.7240504248
 20
6.3305899602
 10
10.6766411651
 20
6.2822700245
 10
10.6386509501
 20
6.2262414813
 10
10.6113079229
 20
6.1643156146
 10
10.5954960257
 20
6.0984943567
 10
10.5917264237
 20
6.0309055692
 10
10.6001209801
 20
5.9637342545
  0
LINE
  5
51F
100
AcDbEntity
  8
0
100
AcDbLine
 62
7
  6
CONTINUOUS
 10
11.328209435
 20
6.1533598405
 11
11.3027714514
 21
6.2160923128
  0
LINE
  5
520
100
AcDbEntity
  8
0
100
AcDbLine
 62
7
  6
CONTINUOUS
 10
11.3420026415
 20
6.0870861538
 11
11.328209435
 21
6.1533598405
  0
LINE
  5
521
100
AcDbEntity
  8
0
100
AcDbLine
 62
7
  6
CONTINUOUS
 10
10.9680009533
 20
6.6054334497
 11
11.058666337
 21
6.5980667552
  0
LWPOLYLINE
  5
522
100
AcDbEntity
  8
0
100
AcDbPolyline
 62
7
  6
CONTINUOUS
 90
20
 70
0
 10
11.058666337
 20
6.5980667552
 10
11.1469532046
 20
6.5761599299
 10
11.230545438
 20
6.5402876773
 10
11.3072500782
 20
6.4913910705
 10
11.3750548553
 20
6.4307528631
 10
11.4321809783
 20
6.3599638381
 10
11.4771298005
 20
6.2808810753
 10
11.5087221341
 20
6.1955792322
 10
11.5261291858
 20
6.1062961176
 10
11.5288942988
 20
6.0153739853
 10
11.5169449331
 20
5.925198087
 10
11.4905945685
 20
5.8381340974
 10
11.4505344806
 20
5.7564660538
 10
11.3978156059
 20
5.682336436
 10
11.3338209716
 20
5.6176899607
 10
11.2602294133
 20
5.5642225638
 10
11.1789715321
 20
5.5233369094
 10
11.0921790478
 20
5.4961055917
 10
11.0021288748
 20
5.4832429975
 10
10.9111833898
 20
5.4850865639
  0
LWPOLYLINE
  5
523
100
AcDbEntity
  8
0
100
AcDbPolyline
 62
7
  6
CONTINUOUS
 90
4
 70
0
 10
13.1909410652
 20
7.3694811261
 10
13.2391027564
 20
7.345611565
 10
13.286875857
 20
7.3298234956
 10
13.333012423
 20
7.3225014035
  0
LWPOLYLINE
  5
524
100
AcDbEntity
  8
0
100
AcDbPolyline
 62
7
  6
CONTINUOUS
 90
21
 70
0
 10
13.1827870368
 20
7.3875042027
 10
13.1463108668
 20
7.4110487
 10
13.1045688472
 20
7.4442388103
 10
13.0601681739
 20
7.4874745888
 10
13.0160145044
 20
7.5399709945
 10
12.9749731848
 20
7.5997679011
 10
12.9394193049
 20
7.6641381551
 10
12.910831595
 20
7.7304776081
 10
12.8898322138
 20
7.797194169
 10
12.876973314
 20
7.8625525183
 10
12.8726433061
 20
7.9246357223
 10
12.8769588379
 20
7.9817288655
 10
12.8898036853
 20
8.0322517266
 10
12.9107898308
 20
8.0747353126
 10
12.9393650237
 20
8.1080811236
 10
12.9749083711
 20
8.1314160932
 10
13.0159449331
 20
8.1438427085
 10
13.0601026154
 20
8.145372342
 10
13.1045172797
 20
8.1373487911
 10
13.1462829023
 20
8.1223385343
 10
13.1827870368
 20
8.1037526132
  0
LWPOLYLINE
  5
525
100
AcDbEntity
  8
0
100
AcDbPolyline
 62
7
  6
CONTINUOUS
 90
4
 70
0
 10
13.3011511606
 20
7.4667913027
 10
13.3516566975
 20
7.4412338819
 10
13.4012197043
 20
7.4267321055
 10
13.443430362
 20
7.4243386692
  0
LWPOLYLINE
  5
526
100
AcDbEntity
  8
0
100
AcDbPolyline
 62
7
  6
CONTINUOUS
 90
14
 70
0
 10
13.3011511606
 20
7.4667913027
 10
13.2529931574
 20
7.5008644539
 10
13.2061850344
 20
7.543499119
 10
13.162039851
 20
7.5935532676
 10
13.121798028
 20
7.649682485
 10
13.0865935132
 20
7.7103766445
 10
13.0574228494
 20
7.7740010997
 10
13.0351179918
 20
7.8388412733
 10
13.0203236144
 20
7.9031494263
 10
13.0134795247
 20
7.9651923322
 10
13.0148086673
 20
8.0232985541
 10
13.024311042
 20
8.0759040378
 10
13.0417637046
 20
8.1215947749
 10
13.049276655
 20
8.1328960677
  0
LWPOLYLINE
  5
527
100
AcDbEntity
  8
0
100
AcDbPolyline
 62
7
  6
CONTINUOUS
 90
10
 70
0
 10
13.4815357908
 20
7.607944189
 10
13.4392517175
 20
7.6371124628
 10
13.3942512257
 20
7.6781233069
 10
13.3520732643
 20
7.726892879
 10
13.3141281449
 20
7.7818715748
 10
13.2816893399
 20
7.8413090618
 10
13.2558523146
 20
7.9033108646
 10
13.2374991125
 20
7.9658996087
 10
13.227269841
 20
8.0270789452
 10
13.2261784659
 20
8.0635994205
  0
LINE
  5
528
100
AcDbEntity
  8
0
100
AcDbLine
 62
7
  6
CONTINUOUS
 10
13.1748168011
 20
8.050066549
 11
13.1798004102
 21
8.0942411898
  0
LWPOLYLINE
  5
529
100
AcDbEntity
  8
0
100
AcDbPolyline
 62
7
  6
CONTINUOUS
 90
13
 70
0
 10
12.8914627611
 20
8.0872924169
 10
12.8724588954
 20
8.035406918
 10
12.8625247686
 20
7.9757536564
 10
12.8620820522
 20
7.9106232906
 10
12.8708996398
 20
7.8420632598
 10
12.8884758713
 20
7.7718523638
 10
12.9141758518
 20
7.7016781078
 10
12.9472626035
 20
7.6331727685
 10
12.9868969333
 20
7.5679347293
 10
13.0321433871
 20
7.5075107531
 10
13.0819843545
 20
7.4533740562
 10
13.1353173185
 20
7.4069246938
 10
13.1909410652
 20
7.3694811261
  0
LWPOLYLINE
  5
52A
100
AcDbEntity
  8
AXIS
100
AcDbPolyline
 62
7
  6
CONTINUOUS
 90
9
 70
0
 10
13.333012423
 20
7.3225014034
 10
13.4734057193
 20
7.3169636917
 10
13.6240860324
 20
7.3198552733
 10
13.7900107157
 20
7.3333524427
 10
13.9735319959
 20
7.3607563792
 10
14.1779445259
 20
7.4068701017
 10
14.3932804851
 20
7.4738482028
 10
14.6052701775
 20
7.5594165349
 10
14.8116304491
 20
7.6632178479
  0
LWPOLYLINE
  5
52B
100
AcDbEntity
  8
0
100
AcDbPolyline
 62
7
  6
CONTINUOUS
 90
15
 70
0
 10
13.4769573974
 20
7.5093169696
 10
13.4335455636
 20
7.5181472816
 10
13.3876819986
 20
7.537896296
 10
13.3412803557
 20
7.5678744335
 10
13.2958874892
 20
7.6071395768
 10
13.2530176415
 20
7.6544493796
 10
13.2141034912
 20
7.7083014286
 10
13.1804498377
 20
7.7669818137
 10
13.1531914195
 20
7.8286205348
 10
13.133256231
 20
7.8912519552
 10
13.1213355217
 20
7.9528783462
 10
13.1178614503
 20
8.0115344697
 10
13.1229931134
 20
8.06535111
 10
13.1366114025
 20
8.1126155015
 10
13.1376727095
 20
8.1145322373
  0
LWPOLYLINE
  5
52C
100
AcDbEntity
  8
0
100
AcDbPolyline
 62
7
  6
CONTINUOUS
 90
14
 70
0
 10
13.4777111435
 20
7.5140975476
 10
13.4398649562
 20
7.5217957628
 10
13.3940013911
 20
7.5415447772
 10
13.3475997483
 20
7.5715229147
 10
13.3022068818
 20
7.610788058
 10
13.259337034
 20
7.6580978608
 10
13.2204228837
 20
7.7119499098
 10
13.1867692302
 20
7.7706302949
 10
13.1595108121
 20
7.832269016
 10
13.1395756236
 20
7.8949004364
 10
13.1276549143
 20
7.9565268275
 10
13.1241808429
 20
8.015182951
 10
13.129312506
 20
8.0689995912
 10
13.1418518486
 20
8.1125193311
  0
LWPOLYLINE
  5
52D
100
AcDbEntity
  8
0
100
AcDbPolyline
 62
7
  6
CONTINUOUS
 90
13
 70
0
 10
13.4824209557
 20
7.5481540585
 10
13.4794586861
 20
7.5488280874
 10
13.4334698675
 20
7.569650871
 10
13.3871003014
 20
7.6006216568
 10
13.341895805
 20
7.6407662374
 10
13.2993645311
 20
7.6888138359
 10
13.2609282132
 20
7.7432381879
 10
13.227876203
 20
7.8023068819
 10
13.2013237895
 20
7.8641373645
 10
13.1821761432
 20
7.9267577998
 10
13.1710990542
 20
7.9881708143
 10
13.1684974086
 20
8.0464180677
 10
13.1741971004
 20
8.096940056
  0
LWPOLYLINE
  5
52E
100
AcDbEntity
  8
0
100
AcDbPolyline
 62
7
  6
CONTINUOUS
 90
11
 70
0
 10
13.4824209557
 20
7.5539966043
 10
13.43978926
 20
7.5732993522
 10
13.3934196939
 20
7.604270138
 10
13.3482151975
 20
7.6444147186
 10
13.3056839237
 20
7.6924623172
 10
13.2672476057
 20
7.7468866692
 10
13.2341955956
 20
7.8059553631
 10
13.2076431821
 20
7.8677858457
 10
13.1884955357
 20
7.930406281
 10
13.1774184467
 20
7.9918192955
 10
13.1748168011
 20
8.050066549
  0
LWPOLYLINE
  5
52F
100
AcDbEntity
  8
0
100
AcDbPolyline
 62
7
  6
CONTINUOUS
 90
11
 70
0
 10
13.4824209557
 20
7.6000067084
 10
13.4792537893
 20
7.6015106467
 10
13.4329323249
 20
7.6334639816
 10
13.3879318331
 20
7.6744748257
 10
13.3457538718
 20
7.7232443978
 10
13.3078087523
 20
7.7782230935
 10
13.2753699474
 20
7.8376605806
 10
13.2495329221
 20
7.8996623834
 10
13.2311797199
 20
7.9622511275
 10
13.2209504485
 20
8.023430464
 10
13.2196180974
 20
8.0680146712
  0
LWPOLYLINE
  5
530
100
AcDbEntity
  8
0
100
AcDbPolyline
 62
7
  6
CONTINUOUS
 90
8
 70
0
 10
13.4715691519
 20
7.6731394658
 10
13.4339971214
 20
7.708263846
 10
13.3921870928
 20
7.7577393275
 10
13.3547463735
 20
7.8132542218
 10
13.32293213
 20
7.8730408626
 10
13.2978196367
 20
7.9351934868
 10
13.2802675146
 20
7.9977298444
 10
13.2767089196
 20
8.0208498669
  0
LWPOLYLINE
  5
531
100
AcDbEntity
  8
0
100
AcDbPolyline
 62
7
  6
CONTINUOUS
 90
8
 70
0
 10
13.4683901339
 20
7.6856675784
 10
13.440316514
 20
7.7119123272
 10
13.3985064853
 20
7.7613878087
 10
13.3610657661
 20
7.8169027031
 10
13.3292515226
 20
7.8766893438
 10
13.3041390293
 20
7.9388419681
 10
13.2865869072
 20
8.0013783256
 10
13.2848211805
 20
8.0128501676
  0
LWPOLYLINE
  5
532
100
AcDbEntity
  8
0
100
AcDbPolyline
 62
7
  6
CONTINUOUS
 90
3
 70
0
 10
13.4189642527
 20
7.8221945704
 10
13.4017423223
 20
7.8483296338
 10
13.3725138155
 20
7.9046857785
  0
LWPOLYLINE
  5
533
100
AcDbEntity
  8
0
100
AcDbPolyline
 62
7
  6
CONTINUOUS
 90
7
 70
0
 10
12.8914627604
 20
8.0872924154
 10
12.9042057155
 20
8.1097736289
 10
12.9350601583
 20
8.1457842829
 10
12.9734389817
 20
8.1709859506
 10
13.0177503226
 20
8.184409365
 10
13.0654335871
 20
8.1860660069
 10
13.113396424
 20
8.1774058536
  0
LWPOLYLINE
  5
534
100
AcDbEntity
  8
0
100
AcDbPolyline
 62
7
  6
CONTINUOUS
 90
21
 70
0
 10
13.1827870368
 20
8.1037526132
 10
13.2192632068
 20
8.0802081159
 10
13.2610052264
 20
8.0470180057
 10
13.3054058997
 20
8.0037822272
 10
13.3495595693
 20
7.9512858214
 10
13.3906008888
 20
7.8914889149
 10
13.4261547688
 20
7.8271186609
 10
13.4547424786
 20
7.7607792079
 10
13.4757418598
 20
7.694062647
 10
13.4886007596
 20
7.6287042976
 10
13.4929307675
 20
7.5666210937
 10
13.4886152358
 20
7.5095279505
 10
13.4757703883
 20
7.4590050894
 10
13.4547842428
 20
7.4165215033
 10
13.4262090499
 20
7.3831756923
 10
13.3906657025
 20
7.3598407227
 10
13.3496291405
 20
7.3474141075
 10
13.3054714582
 20
7.3458844739
 10
13.2610567939
 20
7.3539080248
 10
13.2192911713
 20
7.3689182817
 10
13.1827870368
 20
7.3875042027
  0
LWPOLYLINE
  5
535
100
AcDbEntity
  8
AXIS
100
AcDbPolyline
 62
7
  6
CONTINUOUS
 90
16
 70
0
 10
13.1827870368
 20
8.0928026641
 10
13.2322741826
 20
8.0594968891
 10
13.2804114481
 20
8.0176296002
 10
13.3258857741
 20
7.9683428279
 10
13.3674567396
 20
7.9129809867
 10
13.403990397
 20
7.8530542034
 10
13.4344902033
 20
7.7901971245
 10
13.4581242035
 20
7.7261243271
 10
13.4742477234
 20
7.6625835503
 10
13.4824209557
 20
7.6013080207
 10
13.4824209557
 20
7.543969175
 10
13.4742477234
 20
7.4921310675
 10
13.4581242035
 20
7.4472077067
 10
13.4344902033
 20
7.4104244846
 10
13.403990397
 20
7.3827847518
 10
13.3953974613
 20
7.3774088886
  0
LWPOLYLINE
  5
536
100
AcDbEntity
  8
0
100
AcDbPolyline
 62
7
  6
CONTINUOUS
 90
17
 70
0
 10
15.0769071454
 20
9.7438210545
 10
15.1403434436
 20
9.7620312919
 10
15.2098922729
 20
9.7657298201
 10
15.2841378197
 20
9.7548413476
 10
15.3615686587
 20
9.7295875326
 10
15.4406085214
 20
9.6904824696
 10
15.5196483842
 20
9.6383222252
 10
15.5970792232
 20
9.5741686314
 10
15.67132477
 20
9.4993276704
 10
15.7408735993
 20
9.4153228884
 10
15.8043098975
 20
9.3238643804
 10
15.8603422845
 20
9.226813978
 10
15.9078301025
 20
9.1261473474
 10
15.9458066365
 20
9.023913771
 10
15.9734987937
 20
8.9221944296
 10
15.9903428417
 20
8.8230600355
 10
15.9959958843
 20
8.7285286793
  0
LWPOLYLINE
  5
537
100
AcDbEntity
  8
0
100
AcDbPolyline
 62
7
  6
CONTINUOUS
 90
17
 70
0
 10
13.4721690132
 20
7.4863393639
 10
13.437432731
 20
7.4834417599
 10
13.3939304002
 20
7.4912273372
 10
13.3482079441
 20
7.5098962439
 10
13.3017902603
 20
7.5388719665
 10
13.2562247212
 20
7.5772447936
 10
13.2130311517
 20
7.6238012256
 10
13.1736526955
 20
7.6770632041
 10
13.139409162
 20
7.7353358947
 10
13.1114543594
 20
7.7967624773
 10
13.0907387946
 20
7.8593841731
 10
13.0779789451
 20
7.9212035677
 10
13.0736340972
 20
7.9802491838
 10
13.0778914978
 20
8.034639214
 10
13.0906603016
 20
8.0826423564
 10
13.1115745073
 20
8.1227337836
 10
13.1116435826
 20
8.1228088853
  0
LWPOLYLINE
  5
538
100
AcDbEntity
  8
AXIS
100
AcDbPolyline
 62
7
  6
CONTINUOUS
 90
6
 70
0
 10
13.1827870368
 20
8.0928026641
 10
13.133299891
 20
8.1166384303
 10
13.0851626255
 20
8.1303540103
 10
13.0396882995
 20
8.1335752788
 10
12.998117334
 20
8.1262143679
 10
12.9701766123
 20
8.1138479273
  0
LINE
  5
539
100
AcDbEntity
  8
0
100
AcDbLine
 62
7
  6
CONTINUOUS
 10
13.1585007559
 20
8.1611992767
 11
13.1979430239
 21
8.141118882
  0
LWPOLYLINE
  5
53A
100
AcDbEntity
  8
0
100
AcDbPolyline
 62
7
  6
CONTINUOUS
 90
18
 70
0
 10
13.1979430239
 20
8.141118882
 10
13.2373534216
 20
8.1156790628
 10
13.2824318908
 20
8.0798327682
 10
13.3303794195
 20
8.0331392371
 10
13.3780583116
 20
7.9764471844
 10
13.4223749581
 20
7.91187369
 10
13.4607654763
 20
7.8423633785
 10
13.4916338261
 20
7.7707275118
 10
13.5143084634
 20
7.6986847909
 10
13.5281932523
 20
7.628108885
 10
13.5328688699
 20
7.5610694851
 10
13.5282093849
 20
7.4994180628
 10
13.5143402423
 20
7.4448607595
 10
13.4916803283
 20
7.3989837068
 10
13.4608258846
 20
7.3629730523
 10
13.4224470567
 20
7.3377713819
 10
13.3781357083
 20
7.3243479632
 10
13.3330124142
 20
7.3225014041
  0
LWPOLYLINE
  5
53B
100
AcDbEntity
  8
AXIS
100
AcDbPolyline
 62
7
  6
CONTINUOUS
 90
8
 70
0
 10
13.9258466095
 20
9.1974496207
 10
13.7106121551
 20
9.054570054
 10
13.509825684
 20
8.8926344848
 10
13.3286616322
 20
8.7165169521
 10
13.1797132785
 20
8.5435315868
 10
13.0621077939
 20
8.3823079568
 10
12.9672448971
 20
8.2299025196
 10
12.8914627612
 20
8.087292417
  0
LINE
  5
53C
100
AcDbEntity
  8
0
100
AcDbLine
 62
7
  6
CONTINUOUS
 10
13.9299499108
 20
9.1999365992
 11
13.9258141368
 21
9.1975038126
  0
LINE
  5
53D
100
AcDbEntity
  8
0
100
AcDbLine
 62
7
  6
CONTINUOUS
 10
14.0134661121
 20
9.2481544126
 11
13.9299499108
 21
9.1999365992
  0
LINE
  5
53E
100
AcDbEntity
  8
0
100
AcDbLine
 62
7
  6
CONTINUOUS
 10
14.0134826768
 20
9.2481639755
 11
14.0134661121
 21
9.2481544126
  0
LWPOLYLINE
  5
53F
100
AcDbEntity
  8
0
100
AcDbPolyline
 62
7
  6
CONTINUOUS
 90
18
 70
0
 10
15.0924395448
 20
9.7550900288
 10
15.1214491194
 20
9.7695372217
 10
15.1848854176
 20
9.7877474591
 10
15.2544342469
 20
9.7914459872
 10
15.3286797937
 20
9.7805575148
 10
15.4061106327
 20
9.7553036997
 10
15.4851504954
 20
9.7161986368
 10
15.5641903582
 20
9.6640383924
 10
15.6416211972
 20
9.5998847986
 10
15.715866744
 20
9.5250438376
 10
15.7854155733
 20
9.4410390556
 10
15.8488518715
 20
9.3495805476
 10
15.9048842585
 20
9.2525301452
 10
15.9523720765
 20
9.1518635146
 10
15.9903486105
 20
9.0496299382
 10
16.0180407677
 20
8.9479105967
 10
16.0348848157
 20
8.8487762027
 10
16.0405378583
 20
8.7542448465
  0
LINE
  5
540
100
AcDbEntity
  8
0
100
AcDbLine
 62
7
  6
CONTINUOUS
 10
13.113396424
 20
8.1774058536
 11
13.1585007559
 21
8.1611992767
  0
LINE
  5
541
100
AcDbEntity
  8
0
100
AcDbLine
 62
7
  6
CONTINUOUS
 10
15.0478937441
 20
9.7293804762
 11
15.0924357181
 21
9.7550966434
  0
LINE
  5
542
100
AcDbEntity
  8
0
100
AcDbLine
 62
7
  6
CONTINUOUS
 10
15.0478975708
 20
9.7293738616
 11
15.0769071454
 21
9.7438210545
  0
LWPOLYLINE
  5
543
100
AcDbEntity
  8
AXIS
100
AcDbPolyline
 62
7
  6
CONTINUOUS
 90
16
 70
0
 10
12.9701766123
 20
8.1138479273
 10
12.9615836766
 20
8.1084720642
 10
12.9310838703
 20
8.0808323313
 10
12.9074498701
 20
8.0440491093
 10
12.8913263502
 20
7.9991257485
 10
12.883153118
 20
7.947287641
 10
12.883153118
 20
7.8899487953
 10
12.8913263502
 20
7.8286732657
 10
12.9074498701
 20
7.7651324888
 10
12.9310838703
 20
7.7010596915
 10
12.9615836766
 20
7.6382026126
 10
12.998117334
 20
7.5782758293
 10
13.0396882995
 20
7.5229139881
 10
13.0851626255
 20
7.4736272157
 10
13.133299891
 20
7.4317599268
 10
13.1827870368
 20
7.3984541519
  0
LWPOLYLINE
  5
544
100
AcDbEntity
  8
0
100
AcDbPolyline
 62
7
  6
CONTINUOUS
 90
7
 70
0
 10
15.1384306832
 20
9.5725284078
 10
15.1273548422
 20
9.565650198
 10
15.0875334583
 20
9.5309810724
 10
15.0555991878
 20
9.4855491833
 10
15.0322653896
 20
9.4303694042
 10
15.0180533022
 20
9.3666743602
 10
15.0132804001
 20
9.2958868933
  0
LWPOLYLINE
  5
545
100
AcDbEntity
  8
0
100
AcDbPolyline
 62
7
  6
CONTINUOUS
 90
6
 70
0
 10
15.1631931304
 20
9.5837887989
 10
15.1320754323
 20
9.5566972395
 10
15.1001411618
 20
9.5112653505
 10
15.0768073636
 20
9.4560855714
 10
15.0625952762
 20
9.3923905274
 10
15.0578223741
 20
9.3216030605
  0
LWPOLYLINE
  5
546
100
AcDbEntity
  8
0
100
AcDbPolyline
 62
7
  6
CONTINUOUS
 90
7
 70
0
 10
14.8852211586
 20
9.3698202583
 10
14.8908742011
 20
9.4578241909
 10
14.9077182491
 20
9.5375091936
 10
14.9354104064
 20
9.6072531096
 10
14.9733869403
 20
9.6656361538
 10
15.0208747583
 20
9.7114698158
 10
15.0478975708
 20
9.7293738616
  0
LWPOLYLINE
  5
547
100
AcDbEntity
  8
0
100
AcDbPolyline
 62
7
  6
CONTINUOUS
 90
7
 70
0
 10
14.3728929046
 20
9.156063538
 10
14.2837438298
 20
9.200170144
 10
14.1964095889
 20
9.2286539188
 10
14.1126680394
 20
9.2409350243
 10
14.0342239174
 20
9.2367634525
 10
13.9626741192
 20
9.2162241245
 10
13.9299499108
 20
9.1999365992
  0
LWPOLYLINE
  5
548
100
AcDbEntity
  8
0
100
AcDbPolyline
 62
7
  6
CONTINUOUS
 90
14
 70
0
 10
14.4564091058
 20
9.2042813514
 10
14.5497723711
 20
9.1423002516
 10
14.6410500553
 20
9.0655456815
 10
14.7282031658
 20
8.9757322113
 10
14.8092848461
 20
8.8748661255
 10
14.8824838655
 20
8.7652006058
 10
14.9461650788
 20
8.6491853986
 10
14.998905953
 20
8.5294120921
 10
15.0395283441
 20
8.4085562239
 10
15.0671248149
 20
8.2893175145
 10
15.081078906
 20
8.1743595595
 10
15.081078906
 20
8.0662503298
 10
15.0671248149
 20
7.9674048068
 10
15.0395283441
 20
7.8800310363
  0
LWPOLYLINE
  5
549
100
AcDbEntity
  8
0
100
AcDbPolyline
 62
7
  6
CONTINUOUS
 90
17
 70
0
 10
15.0132804001
 20
9.2958868933
 10
15.0180533022
 20
9.2195882784
 10
15.0322653896
 20
9.1394829007
 10
15.0555991878
 20
9.0573601818
 10
15.0875334583
 20
8.9750546077
 10
15.1273548422
 20
8.8944047487
 10
15.1741737958
 20
8.8172121895
 10
15.2269444608
 20
8.7452012844
 10
15.2844880279
 20
8.6799806379
 10
15.3455190688
 20
8.6230071715
 10
15.4086742509
 20
8.5755535783
 10
15.4725427919
 20
8.5386798931
 10
15.5356979741
 20
8.5132098133
 10
15.596729015
 20
8.4997122981
 10
15.6542725821
 20
8.4984888599
 10
15.7070432471
 20
8.5095668282
 10
15.7427863596
 20
8.5258205298
  0
LWPOLYLINE
  5
54A
100
AcDbEntity
  8
0
100
AcDbPolyline
 62
7
  6
CONTINUOUS
 90
17
 70
0
 10
15.0578223741
 20
9.3216030605
 10
15.0625952762
 20
9.2453044456
 10
15.0768073636
 20
9.1651990679
 10
15.1001411618
 20
9.083076349
 10
15.1320754323
 20
9.0007707748
 10
15.1718968162
 20
8.9201209159
 10
15.2187157698
 20
8.8429283567
 10
15.2714864348
 20
8.7709174516
 10
15.3290300019
 20
8.7056968051
 10
15.3900610428
 20
8.6487233387
 10
15.4532162249
 20
8.6012697455
 10
15.5170847659
 20
8.5643960603
 10
15.5802399481
 20
8.5389259804
 10
15.641270989
 20
8.5254284653
 10
15.6988145561
 20
8.5242050271
 10
15.7515852211
 20
8.5352829954
 10
15.7625658865
 20
8.5402763059
  0
LWPOLYLINE
  5
54B
100
AcDbEntity
  8
AXIS
100
AcDbPolyline
 62
7
  6
CONTINUOUS
 90
6
 70
0
 10
13.3953974613
 20
7.3774088886
 10
13.3674567396
 20
7.3650424481
 10
13.3258857741
 20
7.3576815372
 10
13.2804114481
 20
7.3609028056
 10
13.2322741826
 20
7.3746183856
 10
13.1827870368
 20
7.3984541519
  0
LWPOLYLINE
  5
54C
100
AcDbEntity
  8
0
100
AcDbPolyline
 62
7
  6
CONTINUOUS
 90
18
 70
0
 10
13.4710234781
 20
7.4831476733
 10
13.4709424186
 20
7.4831157097
 10
13.4311133385
 20
7.4797932787
 10
13.3876110077
 20
7.487578856
 10
13.3418885516
 20
7.5062477627
 10
13.2954708677
 20
7.5352234853
 10
13.2499053287
 20
7.5735963124
 10
13.2067117591
 20
7.6201527444
 10
13.1673333029
 20
7.6734147229
 10
13.1330897694
 20
7.7316874135
 10
13.1051349669
 20
7.7931139961
 10
13.0844194021
 20
7.8557356918
 10
13.0716595526
 20
7.9175550865
 10
13.0673147046
 20
7.9766007025
 10
13.0715721053
 20
8.0309907327
 10
13.084340909
 20
8.0789938752
 10
13.1052551147
 20
8.1190853024
 10
13.1092953027
 20
8.1234779724
  0
LWPOLYLINE
  5
54D
100
AcDbEntity
  8
0
100
AcDbPolyline
 62
7
  6
CONTINUOUS
 90
7
 70
0
 10
14.4564091058
 20
9.2042813514
 10
14.3630458405
 20
9.2501044255
 10
14.2717681563
 20
9.278745862
 10
14.1846150459
 20
9.2895658588
 10
14.1035333655
 20
9.2823227149
 10
14.0303343461
 20
9.2571782301
 10
14.0134826768
 20
9.2481639755
  0
LWPOLYLINE
  5
54E
100
AcDbEntity
  8
0
100
AcDbPolyline
 62
7
  6
CONTINUOUS
 90
7
 70
0
 10
14.4623145174
 20
9.2048663264
 10
14.3725016453
 20
9.249260019
 10
14.2844085519
 20
9.2778940224
 10
14.1999696606
 20
9.2901874574
 10
14.1207690088
 20
9.2859866891
 10
14.048529955
 20
9.2654923681
 10
14.0134826768
 20
9.2481639755
  0
LWPOLYLINE
  5
54F
100
AcDbEntity
  8
0
100
AcDbPolyline
 62
7
  6
CONTINUOUS
 90
7
 70
0
 10
15.7427863596
 20
8.5258205298
 10
15.7538622006
 20
8.5326987396
 10
15.7936835846
 20
8.5673678652
 10
15.8256178551
 20
8.6127997543
 10
15.8489516533
 20
8.6679795333
 10
15.8631637407
 20
8.7316745774
 10
15.8679366427
 20
8.8024620443
  0
LWPOLYLINE
  5
550
100
AcDbEntity
  8
0
100
AcDbPolyline
 62
7
  6
CONTINUOUS
 90
18
 70
0
 10
15.8333194721
 20
8.368975076
 10
15.8043098975
 20
8.3545278831
 10
15.7408735993
 20
8.3363176457
 10
15.67132477
 20
8.3326191175
 10
15.5970792232
 20
8.3435075899
 10
15.5196483842
 20
8.368761405
 10
15.4406085214
 20
8.4078664679
 10
15.3615686587
 20
8.4600267124
 10
15.2841378197
 20
8.5241803062
 10
15.2098922729
 20
8.5990212671
 10
15.1403434436
 20
8.6830260492
 10
15.0769071454
 20
8.7744845571
 10
15.0208747583
 20
8.8715349596
 10
14.9733869403
 20
8.9722015902
 10
14.9354104064
 20
9.0744351666
 10
14.9077182491
 20
9.176154508
 10
14.8908742011
 20
9.275288902
 10
14.8852211586
 20
9.3698202583
  0
LINE
  5
551
100
AcDbEntity
  8
0
100
AcDbLine
 62
7
  6
CONTINUOUS
 10
15.0395283441
 20
7.8800310363
 11
14.998905953
 21
7.8060808038
  0
LINE
  5
552
100
AcDbEntity
  8
0
100
AcDbLine
 62
7
  6
CONTINUOUS
 10
14.998905953
 20
7.8060808038
 11
14.9461650788
 21
7.7472060354
  0
LINE
  5
553
100
AcDbEntity
  8
0
100
AcDbLine
 62
7
  6
CONTINUOUS
 10
14.9461650788
 20
7.7472060354
 11
14.8993520995
 21
7.7137457135
  0
LWPOLYLINE
  5
554
100
AcDbEntity
  8
0
100
AcDbPolyline
 62
7
  6
CONTINUOUS
 90
18
 70
0
 10
14.8158358983
 20
7.6655279001
 10
14.8463106169
 20
7.6857293373
 10
14.8998721248
 20
7.7374251246
 10
14.9427058558
 20
7.8032753593
 10
14.9739398386
 20
7.8819395207
 10
14.9929382396
 20
7.9718162333
 10
14.9993143061
 20
8.0710758666
 10
14.9929382396
 20
8.1776977807
 10
14.9739398386
 20
8.2895114609
 10
14.9427058558
 20
8.4042407032
 10
14.8998721248
 20
8.5195499513
 10
14.8463106169
 20
8.6330918414
 10
14.7831116899
 20
8.7425549881
 10
14.7115618917
 20
8.8457110375
 10
14.6331177698
 20
8.94046003
 10
14.5493762202
 20
9.0248731494
 10
14.4620419793
 20
9.0972319881
 10
14.3728929046
 20
9.156063538
  0
LWPOLYLINE
  5
555
100
AcDbEntity
  8
0
100
AcDbPolyline
 62
7
  6
CONTINUOUS
 90
18
 70
0
 10
14.8993355348
 20
7.7137361507
 10
14.9283083095
 20
7.7327426872
 10
14.9828642426
 20
7.7842543298
 10
15.026764352
 20
7.8499406958
 10
15.0591153133
 20
7.9287106889
 10
15.079091174
 20
8.0188185187
 10
15.0862703181
 20
8.1184135096
 10
15.0805334227
 20
8.2252703658
 10
15.0620526339
 20
8.3372800879
 10
15.0312693687
 20
8.4520793669
 10
14.9888271356
 20
8.5674296233
 10
14.9356210738
 20
8.6809709239
 10
14.8727259064
 20
8.790448867
 10
14.8014059438
 20
8.8936668706
 10
14.7231041763
 20
8.9885260928
 10
14.6393513789
 20
9.0731407052
 10
14.551872299
 20
9.1457298992
 10
14.4623145174
 20
9.2048663264
  0
LINE
  5
556
100
AcDbEntity
  8
0
100
AcDbLine
 62
7
  6
CONTINUOUS
 10
15.8333232987
 20
8.3689684614
 11
15.8778652727
 21
8.3946846286
  0
LINE
  5
557
100
AcDbEntity
  8
0
100
AcDbLine
 62
7
  6
CONTINUOUS
 10
14.8993520995
 20
7.7137457135
 11
14.8158358983
 21
7.6655279001
  0
LINE
  5
558
100
AcDbEntity
  8
0
100
AcDbLine
 62
7
  6
CONTINUOUS
 10
14.8116611441
 20
7.6631626296
 11
14.8158358983
 21
7.6655279001
  0
LWPOLYLINE
  5
559
100
AcDbEntity
  8
0
100
AcDbPolyline
 62
7
  6
CONTINUOUS
 90
3
 70
0
 10
15.9078301025
 20
8.4327127838
 10
15.8603422845
 20
8.3868791218
 10
15.8333194721
 20
8.368975076
  0
LWPOLYLINE
  5
55A
100
AcDbEntity
  8
0
100
AcDbPolyline
 62
7
  6
CONTINUOUS
 90
17
 70
0
 10
15.8679366427
 20
8.8024620443
 10
15.8631637407
 20
8.8787606591
 10
15.8489516533
 20
8.9588660369
 10
15.8256178551
 20
9.0409887557
 10
15.7936835846
 20
9.1232943299
 10
15.7538622006
 20
9.2039441889
 10
15.7070432471
 20
9.281136748
 10
15.6542725821
 20
9.3531476532
 10
15.596729015
 20
9.4183682997
 10
15.5356979741
 20
9.4753417661
 10
15.4725427919
 20
9.5227953593
 10
15.4086742509
 20
9.5596690444
 10
15.3455190688
 20
9.5851391243
 10
15.2844880279
 20
9.5986366395
 10
15.2269444608
 20
9.5998600777
 10
15.1741737958
 20
9.5887821094
 10
15.1384306832
 20
9.5725284078
  0
LWPOLYLINE
  5
55B
100
AcDbEntity
  8
0
100
AcDbPolyline
 62
7
  6
CONTINUOUS
 90
5
 70
0
 10
15.9959958843
 20
8.7285286793
 10
15.9903428417
 20
8.6405247467
 10
15.9734987937
 20
8.560839744
 10
15.9458066365
 20
8.491095828
 10
15.9078301025
 20
8.4327127838
  0
LWPOLYLINE
  5
55C
100
AcDbEntity
  8
0
100
AcDbPolyline
 62
7
  6
CONTINUOUS
 90
7
 70
0
 10
16.0405378583
 20
8.7542448465
 10
16.0348848157
 20
8.6662409139
 10
16.0180407677
 20
8.5865559111
 10
15.9903486105
 20
8.5168119952
 10
15.9523720765
 20
8.458428951
 10
15.9048842585
 20
8.4125952889
 10
15.8778614461
 20
8.3946912432
  0
CIRCLE
  5
55D
100
AcDbEntity
  8
0
100
AcDbCircle
 62
7
  6
CONTINUOUS
 10
10.5342808475
 20
1.243294839
 40
0.252091
  0
CIRCLE
  5
55E
100
AcDbEntity
  8
0
100
AcDbCircle
 62
7
  6
CONTINUOUS
 10
10.5342808475
 20
1.243294839
 40
0.182698
  0
CIRCLE
  5
55F
100
AcDbEntity
  8
0
100
AcDbCircle
 62
7
  6
CONTINUOUS
 10
10.1225539079
 20
1.9935547577
 40
0.0638444824
  0
ARC
  5
560
100
AcDbEntity
  8
0
100
AcDbCircle
 62
7
  6
CONTINUOUS
 10
8.0040885041
 20
8.9143548699
 40
3.7566929134
100
AcDbArc
 50
242.8977959551
 51
269.239939649
  0
ARC
  5
561
100
AcDbEntity
  8
0
100
AcDbCircle
 62
7
  6
CONTINUOUS
 10
8.0040885041
 20
3.1732836829
 40
3.7566929134
100
AcDbArc
 50
90.760060351
 51
117.1022040449
  0
ARC
  5
562
100
AcDbEntity
  8
0
100
AcDbCircle
 62
7
  6
CONTINUOUS
 10
8.1600663864
 20
6.7730949625
 40
0.157480315
100
AcDbArc
 50
121.2016442532
 51
150.3896191446
  0
ARC
  5
563
100
AcDbEntity
  8
0
100
AcDbCircle
 62
7
  6
CONTINUOUS
 10
8.1600663864
 20
5.3145435904
 40
0.157480315
100
AcDbArc
 50
209.6103808554
 51
238.7983557468
  0
ARC
  5
564
100
AcDbEntity
  8
0
100
AcDbCircle
 62
7
  6
CONTINUOUS
 10
6.3105537214
 20
5.6052116278
 40
0.0393700787
100
AcDbArc
 50
180.0000000001
 51
242.8977959553
  0
ARC
  5
565
100
AcDbEntity
  8
0
100
AcDbCircle
 62
7
  6
CONTINUOUS
 10
6.3105537214
 20
6.482426925
 40
0.0393700787
100
AcDbArc
 50
117.1022040447
 51
179.9999999999
  0
ARC
  5
566
100
AcDbEntity
  8
0
100
AcDbCircle
 62
7
  6
CONTINUOUS
 10
8.072364745
 20
5.1697403466
 40
0.0118110236
100
AcDbArc
 50
270.0
 51
58.7983557468
  0
ARC
  5
567
100
AcDbEntity
  8
0
100
AcDbCircle
 62
7
  6
CONTINUOUS
 10
8.072364745
 20
6.9178982063
 40
0.0118110236
100
AcDbArc
 50
301.2016442532
 51
90.0
  0
CIRCLE
  5
568
100
AcDbEntity
  8
0
100
AcDbCircle
 62
7
  6
CONTINUOUS
 10
10.9680009533
 20
6.0438192764
 40
0.8858899535
  0
CIRCLE
  5
569
100
AcDbEntity
  8
0
100
AcDbCircle
 62
7
  6
CONTINUOUS
 10
10.9680009533
 20
6.0438192764
 40
0.863976378
  0
CIRCLE
  5
56A
100
AcDbEntity
  8
0
100
AcDbCircle
 62
7
  6
CONTINUOUS
 10
10.9680009533
 20
6.0438192764
 40
0.8070866142
  0
CIRCLE
  5
56B
100
AcDbEntity
  8
0
100
AcDbCircle
 62
7
  6
CONTINUOUS
 10
10.9680009533
 20
6.0438192764
 40
0.7854330709
  0
CIRCLE
  5
56C
100
AcDbEntity
  8
0
100
AcDbCircle
 62
7
  6
CONTINUOUS
 10
10.9680009533
 20
6.0438192764
 40
0.6043307087
  0
CIRCLE
  5
56D
100
AcDbEntity
  8
AXIS
100
AcDbCircle
 62
7
  6
CONTINUOUS
 10
10.9680009533
 20
6.0438192764
 40
0.6003937008
  0
CIRCLE
  5
56E
100
AcDbEntity
  8
0
100
AcDbCircle
 62
7
  6
CONTINUOUS
 10
10.9680009533
 20
6.0438192764
 40
0.4251968504
  0
CIRCLE
  5
56F
100
AcDbEntity
  8
0
100
AcDbCircle
 62
7
  6
CONTINUOUS
 10
3.3068547216
 20
6.0438192764
 40
0.8858267828
  0
CIRCLE
  5
570
100
AcDbEntity
  8
0
100
AcDbCircle
 62
7
  6
CONTINUOUS
 10
3.3068547216
 20
6.0438192764
 40
0.4736547041
  0
CIRCLE
  5
571
100
AcDbEntity
  8
0
100
AcDbCircle
 62
7
  6
CONTINUOUS
 10
3.3068547216
 20
6.0438192764
 40
0.4386076377
  0
CIRCLE
  5
572
100
AcDbEntity
  8
AXIS
100
AcDbCircle
 62
7
  6
CONTINUOUS
 10
3.3068547216
 20
6.0438192764
 40
0.4251968504
  0
ENDSEC
  0
SECTION
  2
OBJECTS
  0
DICTIONARY
  5
C
100
AcDbDictionary
280
0
281
1
  3
ACAD_GROUP
350
D
  3
ACAD_MLINESTYLE
350
17
  3
ACAD_LAYOUT
350
1A
  3
ACAD_PLOTSETTINGS
350
19
  3
ACAD_PLOTSTYLENAME
350
E
  3
ACAD_TABLESTYLE
350
       573
  0
DICTIONARY
  5
D
102
{ACAD_REACTORS
330
C
102
}
100
AcDbDictionary
280
0
281
1
  0
ACDBDICTIONARYWDFLT
  5
E
102
{ACAD_REACTORS
330
C
102
}
100
AcDbDictionary
281
1
  3
Normal
350
F
100
AcDbDictionaryWithDefault
340
F
  0
DICTIONARY
  5
17
102
{ACAD_REACTORS
330
C
102
}
100
AcDbDictionary
280
0
281
1
  3
Standard
350
18
  0
DICTIONARY
  5
573
330
C
100
AcDbDictionary
281
1
  3
Standard
350
       576
  3
Standard1
350
       577
  0
DICTIONARY
  5
19
102
{ACAD_REACTORS
330
C
102
}
100
AcDbDictionary
281
1
  0
DICTIONARY
  5
1A
102
{ACAD_REACTORS
330
C
102
}
100
AcDbDictionary
281
1
  3
Model
350
574
  3
Layout1
350
575
  0
ACDBPLACEHOLDER
  5
F
102
{ACAD_REACTORS
330
E
102
}
  0
MLINESTYLE
  5
18
102
{ACAD_REACTORS
330
17
102
}
100
AcDbMlineStyle
  2
STANDARD
 70
0
  3

 62
256
 51
90.0
 52
90.0
 71
2
 49
0.5
 62
256
  6
BYLAYER
 49
-0.5
 62
256
  6
BYLAYER
  0
LAYOUT
  5
574
102
{ACAD_REACTORS
330
1A
102
}
100
AcDbPlotSettings
  1

  2
none_device
  4
ANSI_B_(17.00_x_11.00_Inches)
  6

 40
0.0
 41
0.0
 42
0.0
 43
0.0
 44
431.8
 45
279.4
 46
0.0
 47
0.0
 48
0.0
 49
0.0
140
0.0
141
0.0
142
1.0
143
1.0
 70
1024
 72
0
 73
0
 74
0
  7

 75
0
147
1.0
148
0.0
149
0.0
100
AcDbLayout
  1
Model
 70
0
 71
0
 10
0.0
 20
0.0
 11
17.0
 21
11.0
 12
0.0
 22
0.0
 32
0.0
 14
0.0
 24
0.0
 34
0.0
 15
0.0
 25
0.0
 35
0.0
146
0.0
 13
0.0
 23
0.0
 33
0.0
 16
1.0
 26
0.0
 36
0.0
 17
0.0
 27
1.0
 37
0.0
 76
0
330
20B
345
0
346
0
  0
LAYOUT
  5
575
102
{ACAD_REACTORS
330
1A
102
}
100
AcDbPlotSettings
  1

  2
none_device
  4
ANSI_B_(17.00_x_11.00_Inches)
  6

 40
0.0
 41
0.0
 42
0.0
 43
0.0
 44
431.8
 45
279.4
 46
0.0
 47
0.0
 48
0.0
 49
0.0
140
0.0
141
0.0
142
1.0
143
1.0
 70
0
 72
0
 73
0
 74
0
  7

 75
0
147
1.0
148
0.0
149
0.0
100
AcDbLayout
  1
Layout1
 70
0
 71
1
 10
0.0
 20
0.0
 11
17.0
 21
11.0
 12
0.0
 22
0.0
 32
0.0
 14
0.0
 24
0.0
 34
0.0
 15
0.0
 25
0.0
 35
0.0
146
0.0
 13
0.0
 23
0.0
 33
0.0
 16
1.0
 26
0.0
 36
0.0
 17
0.0
 27
1.0
 37
0.0
 76
0
330
20C
345
0
346
0
  0
TABLESTYLE
  5
576
102
{ACAD_REACTORS
330
573
102
}
330
573
100
AcDbTableStyle
  3
Standard
 70
0
 71
0
 40
0.06
 41
0.06
280
1
281
1
  7
Standard
140
0.18
170
1
 62
0
 63
7
283
0
  7
Standard
140
0.18
170
1
 62
0
 63
7
283
0
  7
Standard
140
0.18
170
1
 62
0
 63
7
283
0
  0
TABLESTYLE
  5
577
102
{ACAD_REACTORS
330
573
330
26A
102
}
330
573
100
AcDbTableStyle
  3
Standard1
 70
1
 71
0
 40
0.06
 41
0.06
280
1
281
1
  7
Standard
140
0.18
170
1
 62
0
 63
7
283
0
  7
Standard
140
0.18
170
1
 62
0
 63
7
283
0
  7
Standard
140
0.18
170
1
 62
0
 63
7
283
0
  0
ENDSEC
  0
EOF
