999
DXF file: 200649_1.dxf
999
Pro/ENGINEER 2016260 by Parametric Technology Corporation
  0
SECTION
  2
HEADER
  9
$ACADVER
  1
AC1027
  9
$DWGCODEPAGE
  3
ANSI_1252
  9
$EXTMAX
 10
17.0
 20
11.0
 30
0.0
  9
$EXTMIN
 10
0.0
 20
0.0
 30
0.0
  9
$LIMMIN
 10
0.0
 20
0.0
  9
$LIMMAX
 10
17.0
 20
11.0
  9
$VIEWCTR
 10
8.5
 20
5.5
  9
$VIEWSIZE
 40
11.0
  9
$CLAYER
  8
0
  9
$LTSCALE
 40
0.935
  9
$CELTYPE
  6
BYLAYER
  9
$DIMSCALE
 40
1.0
  9
$DIMASZ
 40
0.1875
  9
$DIMEXO
 40
0.0625
  9
$DIMDLI
 40
0.646
  9
$DIMEXE
 40
0.125
  9
$DIMCEN
 40
0.153
  9
$DIMLFAC
 40
1.0
  9
$DIMBLK
  1
_FILLED
  9
$DIMALT
 70
1
  9
$DIMALTD
 70
2
  9
$DIMALTTD
 70
2
  9
$DIMALTF
 40
1.0
  9
$DIMTXT
 40
0.1
  9
$DIMTOL
 70
1
  9
$DIMLIM
 70
0
  9
$DIMTFAC
 40
1.0
  9
$DIMTP
 40
0.005
  9
$DIMTM
 40
0.005
  9
$DIMGAP
 40
0.09
  9
$DIMDSEP
 70
46
  9
$AUNITS
 70
0
  9
$PDMODE
 70
3
  9
$PDSIZE
 40
0.3125
  9
$HANDSEED
  5
564
  9
$TILEMODE
 70
1
  9
$MEASUREMENT
 70
0
  9
$INSUNITS
 70
1
  0
ENDSEC
  0
SECTION
  2
CLASSES
  0
CLASS
  1
ACDBDICTIONARYWDFLT
  2
AcDbDictionaryWithDefault
  3
AutoCAD 2000
 90
0
 91
1
280
0
281
0
  0
CLASS
  1
ACDBPLACEHOLDER
  2
AcDbPlaceHolder
  3
AutoCAD 2000
 90
0
 91
1
280
0
281
0
  0
CLASS
  1
LAYOUT
  2
AcDbLayout
  3
AutoCAD 2000
 90
0
 91
0
280
0
281
0
  0
CLASS
  1
TABLESTYLE
  2
AcDbTableStyle
  3
ObjectDBX Classes
 90
2047
 91
1
280
0
281
0
  0
CLASS
  1
ACAD_TABLE
  2
AcDbTable
  3
ObjectDBX Classes
 90
1025
 91
1
280
0
281
1
  0
ENDSEC
  0
SECTION
  2
TABLES
  0
TABLE
  2
VPORT
  5
8
100
AcDbSymbolTable
 70
2
  0
VPORT
  5
1F4
100
AcDbSymbolTableRecord
100
AcDbViewportTableRecord
  2
*ACTIVE
 70
0
 10
0.0
 20
0.0
 11
1.0
 21
1.0
 12
8.5
 22
5.5
 13
0.0
 23
0.0
 14
1.0
 24
1.0
 15
0.0
 25
0.0
 16
0.0
 26
0.0
 36
1.0
 17
0.0
 27
0.0
 37
0.0
 40
11.0
 41
1.5454545455
 42
50.0
 43
0.0
 44
0.0
 50
0.0
 51
0.0
 71
0
 72
100
 73
1
 74
1
 75
0
 76
0
 77
0
 78
0
  0
ENDTAB
  0
TABLE
  2
LTYPE
  5
5
100
AcDbSymbolTable
 70
6
  0
LTYPE
  5
14
100
AcDbSymbolTableRecord
100
AcDbLinetypeTableRecord
  2
BYBLOCK
 70
0
  3

 72
65
 73
0
 40
0.0
  0
LTYPE
  5
15
100
AcDbSymbolTableRecord
100
AcDbLinetypeTableRecord
  2
BYLAYER
 70
0
  3

 72
65
 73
0
 40
0.0
  0
LTYPE
  5
16
100
AcDbSymbolTableRecord
100
AcDbLinetypeTableRecord
  2
CONTINUOUS
 70
64
  3
Solid line
 72
65
 73
0
 40
0.0
  0
LTYPE
  5
1F5
100
AcDbSymbolTableRecord
100
AcDbLinetypeTableRecord
  2
CENTER
 70
64
  3
____ _ ____ _ ____ _ ____ _ ____ _ ____ _ ____
 72
65
 73
4
 40
0.6
 49
0.375
 74
0
 49
-0.075
 74
0
 49
0.075
 74
0
 49
-0.075
 74
0
  0
LTYPE
  5
1F6
100
AcDbSymbolTableRecord
100
AcDbLinetypeTableRecord
  2
HIDDEN
 70
64
  3
- - - - - - - - - - - - - - - - - - - -
 72
65
 73
2
 40
0.2
 49
0.1
 74
0
 49
-0.1
 74
0
  0
LTYPE
  5
1F7
100
AcDbSymbolTableRecord
100
AcDbLinetypeTableRecord
  2
PHANTOM
 70
64
  3
_____ _ _ _____ _ _ _____ _ _ _____
 72
65
 73
6
 40
0.8
 49
0.45
 74
0
 49
-0.05
 74
0
 49
0.1
 74
0
 49
-0.05
 74
0
 49
0.1
 74
0
 49
-0.05
 74
0
  0
LTYPE
  5
1F8
100
AcDbSymbolTableRecord
100
AcDbLinetypeTableRecord
  2
DOT
 70
64
  3
. . . . . . . . . . . . . . . . . . . .
 72
65
 73
2
 40
0.2
 49
0.1
 74
0
 49
-0.1
 74
0
  0
LTYPE
  5
1F9
100
AcDbSymbolTableRecord
100
AcDbLinetypeTableRecord
  2
DASHED
 70
64
  3
- - - - - - - - - - - - - - - - - - - -
 72
65
 73
2
 40
0.2
 49
0.1
 74
0
 49
-0.1
 74
0
  0
ENDTAB
  0
TABLE
  2
LAYER
  5
2
100
AcDbSymbolTable
 70
36
  0
LAYER
  5
10
100
AcDbSymbolTableRecord
100
AcDbLayerTableRecord
  2
0
 70
0
 62
7
  6
CONTINUOUS
370
-3
390
F
  0
LAYER
  5
1FA
100
AcDbSymbolTableRecord
100
AcDbLayerTableRecord
  2
DEFAULT_1
 70
0
 62
7
  6
CENTER
370
-3
390
F
  0
LAYER
  5
1FB
100
AcDbSymbolTableRecord
100
AcDbLayerTableRecord
  2
DEFAULT_2
 70
0
 62
7
  6
HIDDEN
370
-3
390
F
  0
LAYER
  5
1FC
100
AcDbSymbolTableRecord
100
AcDbLayerTableRecord
  2
DEFAULT_3
 70
0
 62
7
  6
PHANTOM
370
-3
390
F
  0
LAYER
  5
1FD
100
AcDbSymbolTableRecord
100
AcDbLayerTableRecord
  2
AXIS
 70
0
 62
7
  6
CONTINUOUS
370
-3
390
F
  0
LAYER
  5
1FE
100
AcDbSymbolTableRecord
100
AcDbLayerTableRecord
  2
DATUM_CURVES
 70
0
 62
7
  6
CONTINUOUS
370
-3
390
F
  0
LAYER
  5
1FF
100
AcDbSymbolTableRecord
100
AcDbLayerTableRecord
  2
DATUM_PLANES
 70
0
 62
7
  6
CONTINUOUS
370
-3
390
F
  0
LAYER
  5
200
100
AcDbSymbolTableRecord
100
AcDbLayerTableRecord
  2
DRIVEN_DIMS
 70
0
 62
7
  6
CONTINUOUS
370
-3
390
F
  0
LAYER
  5
201
100
AcDbSymbolTableRecord
100
AcDbLayerTableRecord
  2
NOTES
 70
0
 62
7
  6
CONTINUOUS
370
-3
390
F
  0
LAYER
  5
202
100
AcDbSymbolTableRecord
100
AcDbLayerTableRecord
  2
SCHEME_DIMS
 70
0
 62
7
  6
CONTINUOUS
370
-3
390
F
  0
LAYER
  5
203
100
AcDbSymbolTableRecord
100
AcDbLayerTableRecord
  2
SYMBOLS
 70
0
 62
7
  6
CONTINUOUS
370
-3
390
F
  0
ENDTAB
  0
TABLE
  2
STYLE
  5
3
100
AcDbSymbolTable
 70
1
  0
STYLE
  5
11
100
AcDbSymbolTableRecord
100
AcDbTextStyleTableRecord
  2
STANDARD
 70
0
 40
0.0
 41
1.0
 50
0.0
 71
0
 42
0.2
  3
txt
  4

  0
STYLE
  5
204
100
AcDbSymbolTableRecord
100
AcDbTextStyleTableRecord
  2
TEXTSTYLE_1
 70
0
 40
0.0
 41
0.8
 50
0.0
 71
0
 42
0.2
  3
gdt
  4

  0
STYLE
  5
205
100
AcDbSymbolTableRecord
100
AcDbTextStyleTableRecord
  2
TEXTSTYLE_2
 70
0
 40
0.0
 41
0.8
 50
0.0
 71
0
 42
0.2
  3
txt
  4

  0
STYLE
  5
206
100
AcDbSymbolTableRecord
100
AcDbTextStyleTableRecord
  2
TEXTSTYLE_3
 70
0
 40
0.0
 41
0.85
 50
0.0
 71
0
 42
0.2
  3
txt
  4

  0
STYLE
  5
207
100
AcDbSymbolTableRecord
100
AcDbTextStyleTableRecord
  2
TEXTSTYLE_4
 70
0
 40
0.0
 41
0.9
 50
0.0
 71
0
 42
0.2
  3
txt
  4

  0
STYLE
  5
208
100
AcDbSymbolTableRecord
100
AcDbTextStyleTableRecord
  2
TEXTSTYLE_5
 70
0
 40
0.0
 41
0.75
 50
0.0
 71
0
 42
0.2
  3
txt
  4

  0
STYLE
  5
209
100
AcDbSymbolTableRecord
100
AcDbTextStyleTableRecord
  2
TEXTSTYLE_6
 70
0
 40
0.0
 41
1.0
 50
0.0
 71
0
 42
0.2
  3
gdt
  4

  0
ENDTAB
  0
TABLE
  2
VIEW
  5
6
100
AcDbSymbolTable
 70
0
  0
ENDTAB
  0
TABLE
  2
UCS
  5
7
100
AcDbSymbolTable
 70
0
  0
ENDTAB
  0
TABLE
  2
APPID
  5
9
100
AcDbSymbolTable
 70
1
  0
APPID
  5
20A
100
AcDbSymbolTableRecord
100
AcDbRegAppTableRecord
  2
ACAD
 70
0
  0
ENDTAB
  0
TABLE
  2
BLOCK_RECORD
  5
1
100
AcDbSymbolTable
 70
0
  0
BLOCK_RECORD
  5
20B
100
AcDbSymbolTableRecord
100
AcDbBlockTableRecord
  2
*Model_Space
  0
BLOCK_RECORD
  5
20C
100
AcDbSymbolTableRecord
100
AcDbBlockTableRecord
  2
*Paper_Space
  0
BLOCK_RECORD
  5
20D
100
AcDbSymbolTableRecord
100
AcDbBlockTableRecord
  2
_FILLED
  0
BLOCK_RECORD
  5
20E
100
AcDbSymbolTableRecord
100
AcDbBlockTableRecord
  2
*D0
  0
BLOCK_RECORD
  5
20F
100
AcDbSymbolTableRecord
100
AcDbBlockTableRecord
  2
*D1
  0
BLOCK_RECORD
  5
210
100
AcDbSymbolTableRecord
100
AcDbBlockTableRecord
  2
*D2
  0
BLOCK_RECORD
  5
211
100
AcDbSymbolTableRecord
100
AcDbBlockTableRecord
  2
*T1
  0
ENDTAB
  0
TABLE
  2
DIMSTYLE
  5
A
100
AcDbSymbolTable
 70
1
100
AcDbDimStyleTable
 71
0
  0
DIMSTYLE
105
212
100
AcDbSymbolTableRecord
100
AcDbDimStyleTableRecord
  2
STANDARD
 70
0
  3

  4

 40
1.0
 41
0.1875
 42
0.0625
 43
0.38
 44
0.125
 45
0.0
 46
0.0
 47
0.005
 48
0.005
140
0.1
141
0.09
142
0.0
143
1.0
144
1.0
145
0.0
146
1.0
147
0.09
 71
1.0
 72
0.0
 73
1
 74
1
 75
0
 76
0
 77
0
 78
4
170
1
171
2
172
0
173
0
174
0
175
0
176
0
177
0
178
0
270
2
271
3
272
3
273
2
274
2
275
0
280
0
281
0
282
0
283
1
284
4
285
0
286
0
287
3
288
0
340
11
278
46
341
20D
342
20D
343
20D
344
20D
  0
DIMSTYLE
105
213
100
AcDbSymbolTableRecord
100
AcDbDimStyleTableRecord
  2
DIMSTYLE_1
 70
0
  3
<>
  4

 40
1.0
 41
0.1875
 42
0.0625
 43
0.38
 44
0.125
 45
0.0
 46
0.0
 47
0.005
 48
0.005
140
0.1
141
0.09
142
0.0
143
1.0
144
1.0
145
0.0
146
1.0
147
0.09
 71
0.0
 72
0.0
 73
1
 74
1
 75
0
 76
0
 77
0
 78
4
170
1
171
2
172
0
173
0
174
0
175
0
176
0
177
0
178
0
270
2
271
1
272
3
273
2
274
4
275
0
280
0
281
0
282
0
283
1
284
4
285
0
286
0
287
3
288
1
340
11
278
46
289
2
341
20D
342
20D
343
20D
344
20D
  0
DIMSTYLE
105
214
100
AcDbSymbolTableRecord
100
AcDbDimStyleTableRecord
  2
DIMSTYLE_2
 70
0
  3

  4

 40
1.0
 41
0.1875
 42
0.0625
 43
0.38
 44
0.125
 45
0.0
 46
0.0
 47
0.1
 48
0.1
140
0.1
141
0.09
142
0.0
143
1.0
144
1.0
145
0.0
146
1.0
147
0.1
 71
0.0
 72
0.0
 73
1
 74
1
 75
0
 76
0
 77
0
 78
4
170
1
171
2
172
0
173
0
174
0
175
0
176
0
177
0
178
0
270
2
271
1
272
3
273
2
274
-14
275
0
280
0
281
0
282
0
283
1
284
4
285
0
286
0
287
3
288
0
340
11
278
46
341
20D
342
20D
343
20D
344
20D
  0
ENDTAB
  0
ENDSEC
  0
SECTION
  2
BLOCKS
  0
BLOCK
  5
20
100
AcDbEntity
  8
0
100
AcDbBlockBegin
  2
*Model_Space
 70
0
 10
0.0
 20
0.0
 30
0.0
  3
*Model_Space
  1

  0
ENDBLK
  5
21
100
AcDbEntity
  8
0
100
AcDbBlockEnd
  0
BLOCK
  5
1C
100
AcDbEntity
  8
0
100
AcDbBlockBegin
  2
*Paper_Space
 70
0
 10
0.0
 20
0.0
 30
0.0
  3
*Paper_Space
  1

  0
ENDBLK
  5
1D
100
AcDbEntity
  8
0
100
AcDbBlockEnd
  0
BLOCK
  5
215
100
AcDbEntity
  8
0
100
AcDbBlockBegin
  2
_FILLED
 70
64
 10
0.0
 20
0.0
  3
_FILLED
  1

  0
SOLID
  5
216
100
AcDbEntity
  8
0
  6
BYBLOCK
 62
0
100
AcDbTrace
 10
0.0
 20
0.0
 11
-1.0
 21
0.1666666667
 12
-1.0
 22
-0.1666666667
 13
-1.0
 23
-0.1666666667
  0
ENDBLK
  5
217
100
AcDbEntity
  8
0
  6
BYBLOCK
 62
0
100
AcDbBlockEnd
  0
BLOCK
  5
218
100
AcDbEntity
  8
DRIVEN_DIMS
100
AcDbBlockBegin
 62
7
  6
CONTINUOUS
  2
*D0
 70
65
 10
0.0
 20
0.0
  3
*D0
  1

  0
MTEXT
  5
219
100
AcDbEntity
  8
DRIVEN_DIMS
100
AcDbMText
 62
7
  6
CONTINUOUS
  7
TEXTSTYLE_6
 71
3
 72
1
 10
1.9580812354
 20
7.6385143468
 30
0.0
 11
1.0
 21
0.0
 31
0.0
 44
0.9
  1
{\Fgdt;n}\Ftxt;50.0\P[1.97]
 40
0.1
 41
0.6
  0
LINE
  5
21A
100
AcDbEntity
  8
DRIVEN_DIMS
100
AcDbLine
 62
7
  6
CONTINUOUS
 10
3.043883232
 20
6.8290461923
 11
2.4080812354
 21
7.5885143468
  0
LINE
  5
21B
100
AcDbEntity
  8
DRIVEN_DIMS
100
AcDbLine
 62
7
  6
CONTINUOUS
 10
2.4080812354
 20
7.5885143468
 11
2.2580812354
 21
7.5885143468
  0
INSERT
  5
21C
100
AcDbEntity
  8
DRIVEN_DIMS
100
AcDbBlockReference
 62
7
  6
CONTINUOUS
  2
_FILLED
 10
3.043883232
 20
6.8290461923
 41
0.1875
 42
0.1875
 43
0.1875
 50
309.9349723506
  0
ENDBLK
  5
21D
100
AcDbEntity
  8
0
  6
BYBLOCK
 62
0
100
AcDbBlockEnd
  0
BLOCK
  5
21E
100
AcDbEntity
  8
SCHEME_DIMS
100
AcDbBlockBegin
 62
7
  6
CONTINUOUS
  2
*D1
 70
65
 10
0.0
 20
0.0
  3
*D1
  1

  0
MTEXT
  5
21F
100
AcDbEntity
  8
SCHEME_DIMS
100
AcDbMText
 62
7
  6
CONTINUOUS
  7
STANDARD
 71
2
 72
1
 10
8.0056767073
 20
7.5817319844
 30
0.0
 11
1.0
 21
0.0
 31
0.0
 44
0.9
  1
24.8\P[.98]
 40
0.1
 41
0.5
  0
LINE
  5
220
100
AcDbEntity
  8
SCHEME_DIMS
100
AcDbLine
 62
7
  6
CONTINUOUS
 10
8.544355448
 20
7.0816738616
 11
8.544355448
 21
7.6567319844
  0
LINE
  5
221
100
AcDbEntity
  8
SCHEME_DIMS
100
AcDbLine
 62
7
  6
CONTINUOUS
 10
7.5669979665
 20
6.4372390184
 11
7.5669979665
 21
7.6567319844
  0
LINE
  5
222
100
AcDbEntity
  8
SCHEME_DIMS
100
AcDbLine
 62
7
  6
CONTINUOUS
 10
8.544355448
 20
7.5317319844
 11
8.944355448
 21
7.5317319844
  0
LINE
  5
223
100
AcDbEntity
  8
SCHEME_DIMS
100
AcDbLine
 62
7
  6
CONTINUOUS
 10
7.5669979665
 20
7.5317319844
 11
7.1669979665
 21
7.5317319844
  0
INSERT
  5
224
100
AcDbEntity
  8
SCHEME_DIMS
100
AcDbBlockReference
 62
7
  6
CONTINUOUS
  2
_FILLED
 10
8.544355448
 20
7.5317319844
 41
0.1875
 42
0.1875
 43
0.1875
 50
180.0
  0
INSERT
  5
225
100
AcDbEntity
  8
SCHEME_DIMS
100
AcDbBlockReference
 62
7
  6
CONTINUOUS
  2
_FILLED
 10
7.5669979665
 20
7.5317319844
 41
0.1875
 42
0.1875
 43
0.1875
  0
ENDBLK
  5
226
100
AcDbEntity
  8
0
  6
BYBLOCK
 62
0
100
AcDbBlockEnd
  0
BLOCK
  5
227
100
AcDbEntity
  8
SCHEME_DIMS
100
AcDbBlockBegin
 62
7
  6
CONTINUOUS
  2
*D2
 70
65
 10
0.0
 20
0.0
  3
*D2
  1

  0
MTEXT
  5
228
100
AcDbEntity
  8
SCHEME_DIMS
100
AcDbMText
 62
7
  6
CONTINUOUS
  7
STANDARD
 71
2
 72
1
 10
7.5782137157
 20
8.1931277905
 30
0.0
 11
1.0
 21
0.0
 31
0.0
 44
0.9
  1
44.0\P[1.73]
 40
0.1
 41
0.6
  0
LINE
  5
229
100
AcDbEntity
  8
SCHEME_DIMS
100
AcDbLine
 62
7
  6
CONTINUOUS
 10
8.544355448
 20
7.042553979
 11
8.544355448
 21
8.2681277905
  0
LINE
  5
22A
100
AcDbEntity
  8
SCHEME_DIMS
100
AcDbLine
 62
7
  6
CONTINUOUS
 10
6.8120719835
 20
6.5622390184
 11
6.8120719835
 21
8.2681277905
  0
LINE
  5
22B
100
AcDbEntity
  8
SCHEME_DIMS
100
AcDbLine
 62
7
  6
CONTINUOUS
 10
8.544355448
 20
8.1431277905
 11
8.0782137157
 21
8.1431277905
  0
LINE
  5
22C
100
AcDbEntity
  8
SCHEME_DIMS
100
AcDbLine
 62
7
  6
CONTINUOUS
 10
6.8120719835
 20
8.1431277905
 11
7.2782137157
 21
8.1431277905
  0
INSERT
  5
22D
100
AcDbEntity
  8
SCHEME_DIMS
100
AcDbBlockReference
 62
7
  6
CONTINUOUS
  2
_FILLED
 10
8.544355448
 20
8.1431277905
 41
0.1875
 42
0.1875
 43
0.1875
  0
INSERT
  5
22E
100
AcDbEntity
  8
SCHEME_DIMS
100
AcDbBlockReference
 62
7
  6
CONTINUOUS
  2
_FILLED
 10
6.8120719835
 20
8.1431277905
 41
0.1875
 42
0.1875
 43
0.1875
 50
180.0
  0
ENDBLK
  5
22F
100
AcDbEntity
  8
0
  6
BYBLOCK
 62
0
100
AcDbBlockEnd
  0
BLOCK
  5
230
100
AcDbEntity
  8
0
100
AcDbBlockBegin
  2
*T1
 70
1
 10
0.0
 20
0.0
  3
*T1
  1

  0
LINE
  5
231
100
AcDbEntity
  8
0
100
AcDbLine
 62
7
  6
CONTINUOUS
 10
4.35
 20
0.0
 11
0.0
 21
0.0
  0
LINE
  5
232
100
AcDbEntity
  8
0
100
AcDbLine
 62
7
  6
CONTINUOUS
 10
4.35
 20
0.0
 11
4.35
 21
1.92
  0
LINE
  5
233
100
AcDbEntity
  8
0
100
AcDbLine
 62
7
  6
CONTINUOUS
 10
4.35
 20
1.92
 11
0.0
 21
1.92
  0
LINE
  5
234
100
AcDbEntity
  8
0
100
AcDbLine
 62
7
  6
CONTINUOUS
 10
0.0
 20
0.0
 11
0.0
 21
1.92
  0
MTEXT
  5
235
100
AcDbEntity
  8
NOTES
100
AcDbMText
 62
7
  6
CONTINUOUS
  7
STANDARD
 71
2
 72
1
 10
4.125
 20
0.48
 30
0.0
 11
1.0
 21
0.0
 31
0.0
 44
0.9
  1
A
 40
0.1
 41
0.2
  0
MTEXT
  5
236
100
AcDbEntity
  8
NOTES
100
AcDbMText
 62
7
  6
CONTINUOUS
  7
STANDARD
 71
2
 72
1
 10
2.175
 20
0.93
 30
0.0
 11
1.0
 21
0.0
 31
0.0
 44
0.9
  1
SA-M30E12-803146
 40
0.1
 41
3.2
  0
ENDBLK
  5
237
100
AcDbEntity
  8
0
  6
BYBLOCK
 62
0
100
AcDbBlockEnd
  0
ENDSEC
  0
SECTION
  2
ENTITIES
  0
MTEXT
  5
238
100
AcDbEntity
  8
0
100
AcDbMText
 62
7
  6
CONTINUOUS
  7
TEXTSTYLE_2
 71
2
 72
1
 10
11.0287658475
 20
1.794867839
 30
0.0
 11
1.0
 21
0.0
 31
0.0
 44
0.9
  1
THIRD ANGLE PROJECTION
 40
0.1
 41
1.76
  0
MTEXT
  5
239
100
AcDbEntity
  8
0
100
AcDbMText
 62
7
  6
CONTINUOUS
  7
STANDARD
 71
1
 72
1
 10
12.88
 20
1.457
 30
0.0
 11
1.0
 21
0.0
 31
0.0
 44
0.9
  1
DRAWING NO.
 40
0.08
 41
0.88
  0
MTEXT
  5
23A
100
AcDbEntity
  8
0
100
AcDbMText
 62
7
  6
CONTINUOUS
  7
TEXTSTYLE_2
 71
1
 72
1
 10
12.08
 20
2.217
 30
0.0
 11
1.0
 21
0.0
 31
0.0
 44
0.9
  1
TITLE
 40
0.1
 41
0.4
  0
MTEXT
  5
23B
100
AcDbEntity
  8
0
100
AcDbMText
 62
7
  6
CONTINUOUS
  7
STANDARD
 71
1
 72
1
 10
12.08
 20
1.457
 30
0.0
 11
1.0
 21
0.0
 31
0.0
 44
0.9
  1
SIZE
 40
0.08
 41
0.32
  0
MTEXT
  5
23C
100
AcDbEntity
  8
0
100
AcDbMText
 62
7
  6
CONTINUOUS
  7
STANDARD
 71
1
 72
1
 10
12.08
 20
1.087
 30
0.0
 11
1.0
 21
0.0
 31
0.0
 44
0.9
  1
SCALE
 40
0.08
 41
0.4
  0
MTEXT
  5
23D
100
AcDbEntity
  8
0
100
AcDbMText
 62
7
  6
CONTINUOUS
  7
TEXTSTYLE_2
 71
2
 72
1
 10
12.5
 20
1.337
 30
0.0
 11
1.0
 21
0.0
 31
0.0
 44
0.9
  1
B
 40
0.1
 41
0.08
  0
MTEXT
  5
23E
100
AcDbEntity
  8
0
100
AcDbMText
 62
7
  6
CONTINUOUS
  7
TEXTSTYLE_3
 71
2
 72
1
 10
11.0340287086
 20
2.7679425959
 30
0.0
 11
1.0
 21
0.0
 31
0.0
 44
0.9
  1
This drawing is the property\Pof BANNER ENGINEERING CORP.\PAny use or reproduction,\Pin any form, without prior\Pwritten permission of\PBanner is prohibited.
 40
0.08
 41
1.904
  0
MTEXT
  5
23F
100
AcDbEntity
  8
0
100
AcDbMText
 62
7
  6
CONTINUOUS
  7
STANDARD
 71
1
 72
1
 10
14.255
 20
1.087
 30
0.0
 11
1.0
 21
0.0
 31
0.0
 44
0.9
  1
SHEET
 40
0.08
 41
0.4
  0
MTEXT
  5
240
100
AcDbEntity
  8
0
100
AcDbMText
 62
7
  6
CONTINUOUS
  7
STANDARD
 71
1
 72
1
 10
15.63
 20
1.457
 30
0.0
 11
1.0
 21
0.0
 31
0.0
 44
0.9
  1
REV.
 40
0.08
 41
0.32
  0
MTEXT
  5
241
100
AcDbEntity
  8
0
100
AcDbMText
 62
7
  6
CONTINUOUS
  7
STANDARD
 71
3
 72
1
 10
16.38
 20
0.835443
 30
0.0
 11
1.0
 21
0.0
 31
0.0
 44
0.9
  1
CREO
 40
0.07
 41
0.28
  0
MTEXT
  5
242
100
AcDbEntity
  8
0
100
AcDbMText
 62
7
  6
CONTINUOUS
  7
TEXTSTYLE_4
 71
2
 72
1
 10
15.1043392653
 20
2.7174764286
 30
0.0
 11
1.0
 21
0.0
 31
0.0
 44
0.9
  1
BANNER ENGINEERING CORP.
 40
0.12
 41
2.592
  0
MTEXT
  5
243
100
AcDbEntity
  8
0
100
AcDbMText
 62
7
  6
CONTINUOUS
  7
TEXTSTYLE_2
 71
2
 72
1
 10
15.0923490612
 20
2.4764783673
 30
0.0
 11
1.0
 21
0.0
 31
0.0
 44
0.9
  1
www.bannerengineering.com
 40
0.1
 41
2.0
  0
MTEXT
  5
244
100
AcDbEntity
  8
0
100
AcDbMText
 62
7
  6
CONTINUOUS
  7
TEXTSTYLE_2
 71
2
 72
1
 10
9.485
 20
10.312
 30
0.0
 11
1.0
 21
0.0
 31
0.0
 44
0.9
  1
4
 40
0.1
 41
0.08
  0
MTEXT
  5
245
100
AcDbEntity
  8
0
100
AcDbMText
 62
7
  6
CONTINUOUS
  7
TEXTSTYLE_2
 71
2
 72
1
 10
11.455
 20
10.312
 30
0.0
 11
1.0
 21
0.0
 31
0.0
 44
0.9
  1
3
 40
0.1
 41
0.08
  0
MTEXT
  5
246
100
AcDbEntity
  8
0
100
AcDbMText
 62
7
  6
CONTINUOUS
  7
TEXTSTYLE_2
 71
2
 72
1
 10
13.425
 20
10.312
 30
0.0
 11
1.0
 21
0.0
 31
0.0
 44
0.9
  1
2
 40
0.1
 41
0.08
  0
MTEXT
  5
247
100
AcDbEntity
  8
0
100
AcDbMText
 62
7
  6
CONTINUOUS
  7
TEXTSTYLE_2
 71
2
 72
1
 10
15.395
 20
10.312
 30
0.0
 11
1.0
 21
0.0
 31
0.0
 44
0.9
  1
1
 40
0.1
 41
0.08
  0
MTEXT
  5
248
100
AcDbEntity
  8
0
100
AcDbMText
 62
7
  6
CONTINUOUS
  7
TEXTSTYLE_2
 71
2
 72
1
 10
3.575
 20
10.312
 30
0.0
 11
1.0
 21
0.0
 31
0.0
 44
0.9
  1
7
 40
0.1
 41
0.08
  0
MTEXT
  5
249
100
AcDbEntity
  8
0
100
AcDbMText
 62
7
  6
CONTINUOUS
  7
TEXTSTYLE_2
 71
2
 72
1
 10
5.545
 20
10.312
 30
0.0
 11
1.0
 21
0.0
 31
0.0
 44
0.9
  1
6
 40
0.1
 41
0.08
  0
MTEXT
  5
24A
100
AcDbEntity
  8
0
100
AcDbMText
 62
7
  6
CONTINUOUS
  7
TEXTSTYLE_2
 71
2
 72
1
 10
7.515
 20
10.312
 30
0.0
 11
1.0
 21
0.0
 31
0.0
 44
0.9
  1
5
 40
0.1
 41
0.08
  0
MTEXT
  5
24B
100
AcDbEntity
  8
0
100
AcDbMText
 62
7
  6
CONTINUOUS
  7
TEXTSTYLE_2
 71
2
 72
1
 10
1.605
 20
10.312
 30
0.0
 11
1.0
 21
0.0
 31
0.0
 44
0.9
  1
8
 40
0.1
 41
0.08
  0
MTEXT
  5
24C
100
AcDbEntity
  8
0
100
AcDbMText
 62
7
  6
CONTINUOUS
  7
TEXTSTYLE_2
 71
2
 72
1
 10
1.605
 20
0.787
 30
0.0
 11
1.0
 21
0.0
 31
0.0
 44
0.9
  1
8
 40
0.1
 41
0.08
  0
MTEXT
  5
24D
100
AcDbEntity
  8
0
100
AcDbMText
 62
7
  6
CONTINUOUS
  7
TEXTSTYLE_2
 71
2
 72
1
 10
3.575
 20
0.787
 30
0.0
 11
1.0
 21
0.0
 31
0.0
 44
0.9
  1
7
 40
0.1
 41
0.08
  0
MTEXT
  5
24E
100
AcDbEntity
  8
0
100
AcDbMText
 62
7
  6
CONTINUOUS
  7
TEXTSTYLE_2
 71
2
 72
1
 10
5.545
 20
0.787
 30
0.0
 11
1.0
 21
0.0
 31
0.0
 44
0.9
  1
6
 40
0.1
 41
0.08
  0
MTEXT
  5
24F
100
AcDbEntity
  8
0
100
AcDbMText
 62
7
  6
CONTINUOUS
  7
TEXTSTYLE_2
 71
2
 72
1
 10
7.515
 20
0.787
 30
0.0
 11
1.0
 21
0.0
 31
0.0
 44
0.9
  1
5
 40
0.1
 41
0.08
  0
MTEXT
  5
250
100
AcDbEntity
  8
0
100
AcDbMText
 62
7
  6
CONTINUOUS
  7
TEXTSTYLE_2
 71
2
 72
1
 10
9.485
 20
0.787
 30
0.0
 11
1.0
 21
0.0
 31
0.0
 44
0.9
  1
4
 40
0.1
 41
0.08
  0
MTEXT
  5
251
100
AcDbEntity
  8
0
100
AcDbMText
 62
7
  6
CONTINUOUS
  7
TEXTSTYLE_2
 71
2
 72
1
 10
11.455
 20
0.787
 30
0.0
 11
1.0
 21
0.0
 31
0.0
 44
0.9
  1
3
 40
0.1
 41
0.08
  0
MTEXT
  5
252
100
AcDbEntity
  8
0
100
AcDbMText
 62
7
  6
CONTINUOUS
  7
TEXTSTYLE_2
 71
2
 72
1
 10
13.425
 20
0.787
 30
0.0
 11
1.0
 21
0.0
 31
0.0
 44
0.9
  1
2
 40
0.1
 41
0.08
  0
MTEXT
  5
253
100
AcDbEntity
  8
0
100
AcDbMText
 62
7
  6
CONTINUOUS
  7
TEXTSTYLE_2
 71
2
 72
1
 10
15.395
 20
0.787
 30
0.0
 11
1.0
 21
0.0
 31
0.0
 44
0.9
  1
1
 40
0.1
 41
0.08
  0
MTEXT
  5
254
100
AcDbEntity
  8
0
100
AcDbMText
 62
7
  6
CONTINUOUS
  7
TEXTSTYLE_2
 71
3
 72
1
 10
0.52
 20
4.3995
 30
0.0
 11
1.0
 21
0.0
 31
0.0
 44
0.9
  1
B
 40
0.1
 41
0.08
  0
MTEXT
  5
255
100
AcDbEntity
  8
0
100
AcDbMText
 62
7
  6
CONTINUOUS
  7
TEXTSTYLE_2
 71
3
 72
1
 10
0.52
 20
2.0995
 30
0.0
 11
1.0
 21
0.0
 31
0.0
 44
0.9
  1
A
 40
0.1
 41
0.08
  0
MTEXT
  5
256
100
AcDbEntity
  8
0
100
AcDbMText
 62
7
  6
CONTINUOUS
  7
TEXTSTYLE_2
 71
3
 72
1
 10
0.52
 20
8.9995
 30
0.0
 11
1.0
 21
0.0
 31
0.0
 44
0.9
  1
D
 40
0.1
 41
0.08
  0
MTEXT
  5
257
100
AcDbEntity
  8
0
100
AcDbMText
 62
7
  6
CONTINUOUS
  7
TEXTSTYLE_2
 71
3
 72
1
 10
0.52
 20
6.6995
 30
0.0
 11
1.0
 21
0.0
 31
0.0
 44
0.9
  1
C
 40
0.1
 41
0.08
  0
MTEXT
  5
258
100
AcDbEntity
  8
0
100
AcDbMText
 62
7
  6
CONTINUOUS
  7
TEXTSTYLE_2
 71
1
 72
1
 10
16.48
 20
8.9995
 30
0.0
 11
1.0
 21
0.0
 31
0.0
 44
0.9
  1
D
 40
0.1
 41
0.08
  0
MTEXT
  5
259
100
AcDbEntity
  8
0
100
AcDbMText
 62
7
  6
CONTINUOUS
  7
TEXTSTYLE_2
 71
1
 72
1
 10
16.48
 20
6.6995
 30
0.0
 11
1.0
 21
0.0
 31
0.0
 44
0.9
  1
C
 40
0.1
 41
0.08
  0
MTEXT
  5
25A
100
AcDbEntity
  8
0
100
AcDbMText
 62
7
  6
CONTINUOUS
  7
TEXTSTYLE_2
 71
1
 72
1
 10
16.48
 20
4.3995
 30
0.0
 11
1.0
 21
0.0
 31
0.0
 44
0.9
  1
B
 40
0.1
 41
0.08
  0
MTEXT
  5
25B
100
AcDbEntity
  8
0
100
AcDbMText
 62
7
  6
CONTINUOUS
  7
TEXTSTYLE_2
 71
1
 72
1
 10
16.48
 20
2.0995
 30
0.0
 11
1.0
 21
0.0
 31
0.0
 44
0.9
  1
A
 40
0.1
 41
0.08
  0
MTEXT
  5
25C
100
AcDbEntity
  8
0
100
AcDbMText
 62
7
  6
CONTINUOUS
  7
STANDARD
 71
1
 72
1
 10
14.819264911
 20
1.0627941725
 30
0.0
 11
1.0
 21
0.0
 31
0.0
 44
0.9
  1
1 OF 1
 40
0.1
 41
0.6
  0
MTEXT
  5
25D
100
AcDbEntity
  8
0
100
AcDbMText
 62
7
  6
CONTINUOUS
  7
STANDARD
 71
1
 72
1
 10
13.8911999818
 20
1.3747321586
 30
0.0
 11
1.0
 21
0.0
 31
0.0
 44
0.9
  1
200649
 40
0.12
 41
0.72
  0
MTEXT
  5
25E
100
AcDbEntity
  8
0
100
AcDbMText
 62
7
  6
CONTINUOUS
  7
STANDARD
 71
1
 72
1
 10
12.644264911
 20
1.0627941725
 30
0.0
 11
1.0
 21
0.0
 31
0.0
 44
0.9
  1
1:1
 40
0.1
 41
0.3
  0
MTEXT
  5
25F
100
AcDbEntity
  8
0
100
AcDbMText
 62
7
  6
CONTINUOUS
  7
STANDARD
 71
1
 72
1
 10
0.8489354566
 20
1.4938330621
 30
0.0
 11
1.0
 21
0.0
 31
0.0
 44
0.9
  1
NOTES:\P1. ALL DIMENSIONS ARE MILLIMETERS [INCHES] UNLESS OTHERWISE NOTED.\P2. REFER TO "www.bannerengineering.com" FOR ADDITIONAL DATA AND SPECIFICATIONS.
 40
0.1
 41
7.9
  0
MTEXT
  5
260
100
AcDbEntity
  8
0
100
AcDbMText
 62
7
  6
CONTINUOUS
  7
TEXTSTYLE_5
 71
2
 72
1
 10
11.0519651892
 20
2.0334024775
 30
0.0
 11
1.0
 21
0.0
 31
0.0
 44
0.9
  1
C  2015 Banner Engineering Corp.
 40
0.08
 41
1.92
  0
HATCH
  5
261
100
AcDbEntity
  8
0
100
AcDbHatch
 62
7
  6
CONTINUOUS
 10
0.0
 20
0.0
 30
0.0
210
0.0
220
0.0
230
1.0
  2
default__1
 70
0
 71
0
 91
2
 92
1
 93
4
 72
1
 10
8.5571428496
 20
6.679542168
 11
8.5571428496
 21
6.899542168
 72
1
 10
8.4951428496
 20
6.679542168
 11
8.5571428496
 21
6.679542168
 72
1
 10
8.4951428496
 20
6.679542168
 11
8.4951428496
 21
6.899542168
 72
1
 10
8.4951428496
 20
6.899542168
 11
8.5571428496
 21
6.899542168
 97
0
 92
1
 93
4
 72
1
 10
8.5571428496
 20
5.249542168
 11
8.5571428496
 21
5.469542168
 72
1
 10
8.4951428496
 20
5.249542168
 11
8.5571428496
 21
5.249542168
 72
1
 10
8.4951428496
 20
5.249542168
 11
8.4951428496
 21
5.469542168
 72
1
 10
8.4951428496
 20
5.469542168
 11
8.5571428496
 21
5.469542168
 97
0
 75
0
 76
0
 52
45.0
 41
0.0289812006
 77
0
 78
1
 53
45.0
 43
0.0
 44
0.0
 45
-0.0204928034
 46
0.0204928034
 79
0
 98
1
 10
0.0
 20
0.0
  0
HATCH
  5
262
100
AcDbEntity
  8
0
100
AcDbHatch
 62
7
  6
CONTINUOUS
 10
0.0
 20
0.0
 30
0.0
210
0.0
220
0.0
230
1.0
  2
default__2
 70
0
 71
0
 91
2
 92
1
 93
76
 72
1
 10
6.8120719835
 20
6.4997390184
 11
6.8120719835
 21
6.5159080336
 72
2
 10
6.8514420622
 20
6.5159080336
 40
0.0393700787
 50
123.1276659421
 51
180.0000000008
 73
1
 72
2
 10
8.544355448
 20
3.9217231218
 40
3.1370710147
 50
90.7282175169
 51
123.1276659422
 73
1
 72
2
 10
8.5049853693
 20
7.0191738616
 40
0.0393700787
 50
0.0
 51
90.7282175169
 73
1
 72
1
 10
8.544355448
 20
6.980053979
 11
8.544355448
 21
7.0191738616
 72
1
 10
8.544355448
 20
6.980053979
 11
8.4951428496
 21
6.980053979
 72
1
 10
8.4951428496
 20
6.980053979
 11
8.4951428496
 21
6.6749358688
 72
1
 10
8.1506546606
 20
6.6749358688
 11
8.4951428496
 21
6.6749358688
 72
1
 10
8.0984940295
 20
6.6749358688
 11
8.1506546606
 21
6.6749358688
 72
1
 10
8.0915995425
 20
6.6749358688
 11
8.0984940295
 21
6.6749358688
 72
1
 10
8.0692101718
 20
6.6361563412
 11
8.0915995425
 21
6.6749358688
 72
1
 10
8.0618282821
 20
6.6361563412
 11
8.0692101718
 21
6.6361563412
 72
1
 10
8.0394389114
 20
6.6749358688
 11
8.0618282821
 21
6.6361563412
 72
1
 10
8.0325444244
 20
6.6749358688
 11
8.0394389114
 21
6.6749358688
 72
1
 10
8.0101550537
 20
6.6361563412
 11
8.0325444244
 21
6.6749358688
 72
1
 10
8.002773164
 20
6.6361563412
 11
8.0101550537
 21
6.6361563412
 72
1
 10
7.9803837933
 20
6.6749358688
 11
8.002773164
 21
6.6361563412
 72
1
 10
7.9734893063
 20
6.6749358688
 11
7.9803837933
 21
6.6749358688
 72
1
 10
7.9510999356
 20
6.6361563412
 11
7.9734893063
 21
6.6749358688
 72
1
 10
7.9437180458
 20
6.6361563412
 11
7.9510999356
 21
6.6361563412
 72
1
 10
7.9213286752
 20
6.6749358688
 11
7.9437180458
 21
6.6361563412
 72
1
 10
7.9144341882
 20
6.6749358688
 11
7.9213286752
 21
6.6749358688
 72
1
 10
7.8920448175
 20
6.6361563412
 11
7.9144341882
 21
6.6749358688
 72
1
 10
7.8846629277
 20
6.6361563412
 11
7.8920448175
 21
6.6361563412
 72
1
 10
7.8622735571
 20
6.6749358688
 11
7.8846629277
 21
6.6361563412
 72
1
 10
7.8553790701
 20
6.6749358688
 11
7.8622735571
 21
6.6749358688
 72
1
 10
7.8329896994
 20
6.6361563412
 11
7.8553790701
 21
6.6749358688
 72
1
 10
7.8256078096
 20
6.6361563412
 11
7.8329896994
 21
6.6361563412
 72
1
 10
7.803218439
 20
6.6749358688
 11
7.8256078096
 21
6.6361563412
 72
1
 10
7.796323952
 20
6.6749358688
 11
7.803218439
 21
6.6749358688
 72
1
 10
7.7739345813
 20
6.6361563412
 11
7.796323952
 21
6.6749358688
 72
1
 10
7.7665526915
 20
6.6361563412
 11
7.7739345813
 21
6.6361563412
 72
1
 10
7.7441633208
 20
6.6749358688
 11
7.7665526915
 21
6.6361563412
 72
1
 10
7.7372688338
 20
6.6749358688
 11
7.7441633208
 21
6.6749358688
 72
1
 10
7.7148794632
 20
6.6361563412
 11
7.7372688338
 21
6.6749358688
 72
1
 10
7.7074975734
 20
6.6361563412
 11
7.7148794632
 21
6.6361563412
 72
1
 10
7.6851082027
 20
6.6749358688
 11
7.7074975734
 21
6.6361563412
 72
1
 10
7.6851082027
 20
6.6749358688
 11
7.6782137157
 21
6.6749358688
 72
1
 10
7.6558243451
 20
6.6361563412
 11
7.6782137157
 21
6.6749358688
 72
1
 10
7.6484424553
 20
6.6361563412
 11
7.6558243451
 21
6.6361563412
 72
1
 10
7.6260530846
 20
6.6749358688
 11
7.6484424553
 21
6.6361563412
 72
1
 10
7.6260530846
 20
6.6749358688
 11
7.6191585976
 21
6.6749358688
 72
1
 10
7.5967692269
 20
6.6361563412
 11
7.6191585976
 21
6.6749358688
 72
1
 10
7.5893873372
 20
6.6361563412
 11
7.5967692269
 21
6.6361563412
 72
1
 10
7.5669979665
 20
6.6749358688
 11
7.5893873372
 21
6.6361563412
 72
1
 10
7.5601034795
 20
6.6749358688
 11
7.5669979665
 21
6.6749358688
 72
1
 10
7.5601034795
 20
6.4997390184
 11
7.5601034795
 21
6.6749358688
 72
1
 10
7.5089223772
 20
6.4997390184
 11
7.5601034795
 21
6.4997390184
 72
1
 10
7.4808049644
 20
6.451038231
 11
7.5089223772
 21
6.4997390184
 72
1
 10
7.4718679566
 20
6.451038231
 11
7.4808049644
 21
6.451038231
 72
1
 10
7.4437505438
 20
6.4997390184
 11
7.4718679566
 21
6.451038231
 72
1
 10
7.4374938057
 20
6.4997390184
 11
7.4437505438
 21
6.4997390184
 72
1
 10
7.409376393
 20
6.451038231
 11
7.4374938057
 21
6.4997390184
 72
1
 10
7.4004393851
 20
6.451038231
 11
7.409376393
 21
6.451038231
 72
1
 10
7.3723219724
 20
6.4997390184
 11
7.4004393851
 21
6.451038231
 72
1
 10
7.3660652343
 20
6.4997390184
 11
7.3723219724
 21
6.4997390184
 72
1
 10
7.3379478216
 20
6.451038231
 11
7.3660652343
 21
6.4997390184
 72
1
 10
7.3290108137
 20
6.451038231
 11
7.3379478216
 21
6.451038231
 72
1
 10
7.300893401
 20
6.4997390184
 11
7.3290108137
 21
6.451038231
 72
1
 10
7.2946366629
 20
6.4997390184
 11
7.300893401
 21
6.4997390184
 72
1
 10
7.2665192502
 20
6.451038231
 11
7.2946366629
 21
6.4997390184
 72
1
 10
7.2575822423
 20
6.451038231
 11
7.2665192502
 21
6.451038231
 72
1
 10
7.2294648296
 20
6.4997390184
 11
7.2575822423
 21
6.451038231
 72
1
 10
7.2232080914
 20
6.4997390184
 11
7.2294648296
 21
6.4997390184
 72
1
 10
7.1950906787
 20
6.451038231
 11
7.2232080914
 21
6.4997390184
 72
1
 10
7.1861536708
 20
6.451038231
 11
7.1950906787
 21
6.451038231
 72
1
 10
7.1580362581
 20
6.4997390184
 11
7.1861536708
 21
6.451038231
 72
1
 10
7.15177952
 20
6.4997390184
 11
7.1580362581
 21
6.4997390184
 72
1
 10
7.1236621073
 20
6.451038231
 11
7.15177952
 21
6.4997390184
 72
1
 10
7.1147250994
 20
6.451038231
 11
7.1236621073
 21
6.451038231
 72
1
 10
7.0866076867
 20
6.4997390184
 11
7.1147250994
 21
6.451038231
 72
1
 10
7.0803509486
 20
6.4997390184
 11
7.0866076867
 21
6.4997390184
 72
1
 10
7.0522335359
 20
6.451038231
 11
7.0803509486
 21
6.4997390184
 72
1
 10
7.043296528
 20
6.451038231
 11
7.0522335359
 21
6.451038231
 72
1
 10
7.0151791153
 20
6.4997390184
 11
7.043296528
 21
6.451038231
 72
1
 10
6.8120719835
 20
6.4997390184
 11
7.0151791153
 21
6.4997390184
 97
0
 92
1
 93
80
 72
1
 10
6.8120719835
 20
5.6331763024
 11
6.8120719835
 21
5.6493453176
 72
1
 10
6.8120719835
 20
5.6493453176
 11
6.9794648296
 21
5.6493453176
 72
1
 10
7.0075822423
 20
5.698046105
 11
6.9794648296
 21
5.6493453176
 72
1
 10
7.0165192502
 20
5.698046105
 11
7.0075822423
 21
5.698046105
 72
1
 10
7.0446366629
 20
5.6493453176
 11
7.0165192502
 21
5.698046105
 72
1
 10
7.0446366629
 20
5.6493453176
 11
7.050893401
 21
5.6493453176
 72
1
 10
7.0790108137
 20
5.698046105
 11
7.050893401
 21
5.6493453176
 72
1
 10
7.0879478216
 20
5.698046105
 11
7.0790108137
 21
5.698046105
 72
1
 10
7.1160652343
 20
5.6493453176
 11
7.0879478216
 21
5.698046105
 72
1
 10
7.1160652343
 20
5.6493453176
 11
7.1223219724
 21
5.6493453176
 72
1
 10
7.1504393851
 20
5.698046105
 11
7.1223219724
 21
5.6493453176
 72
1
 10
7.159376393
 20
5.698046105
 11
7.1504393851
 21
5.698046105
 72
1
 10
7.1874938057
 20
5.6493453176
 11
7.159376393
 21
5.698046105
 72
1
 10
7.1874938057
 20
5.6493453176
 11
7.1937505438
 21
5.6493453176
 72
1
 10
7.2218679566
 20
5.698046105
 11
7.1937505438
 21
5.6493453176
 72
1
 10
7.2308049644
 20
5.698046105
 11
7.2218679566
 21
5.698046105
 72
1
 10
7.2589223772
 20
5.6493453176
 11
7.2308049644
 21
5.698046105
 72
1
 10
7.2589223772
 20
5.6493453176
 11
7.2651791153
 21
5.6493453176
 72
1
 10
7.293296528
 20
5.698046105
 11
7.2651791153
 21
5.6493453176
 72
1
 10
7.3022335359
 20
5.698046105
 11
7.293296528
 21
5.698046105
 72
1
 10
7.3303509486
 20
5.6493453176
 11
7.3022335359
 21
5.698046105
 72
1
 10
7.3303509486
 20
5.6493453176
 11
7.3366076867
 21
5.6493453176
 72
1
 10
7.3647250994
 20
5.698046105
 11
7.3366076867
 21
5.6493453176
 72
1
 10
7.3736621073
 20
5.698046105
 11
7.3647250994
 21
5.698046105
 72
1
 10
7.40177952
 20
5.6493453176
 11
7.3736621073
 21
5.698046105
 72
1
 10
7.40177952
 20
5.6493453176
 11
7.4080362581
 21
5.6493453176
 72
1
 10
7.4361536708
 20
5.698046105
 11
7.4080362581
 21
5.6493453176
 72
1
 10
7.4450906787
 20
5.698046105
 11
7.4361536708
 21
5.698046105
 72
1
 10
7.4732080914
 20
5.6493453176
 11
7.4450906787
 21
5.698046105
 72
1
 10
7.4732080914
 20
5.6493453176
 11
7.4794648296
 21
5.6493453176
 72
1
 10
7.5075822423
 20
5.698046105
 11
7.4794648296
 21
5.6493453176
 72
1
 10
7.5165192502
 20
5.698046105
 11
7.5075822423
 21
5.698046105
 72
1
 10
7.5446366629
 20
5.6493453176
 11
7.5165192502
 21
5.698046105
 72
1
 10
7.5446366629
 20
5.6493453176
 11
7.5601034795
 21
5.6493453176
 72
1
 10
7.5601034795
 20
5.5129279948
 11
7.5601034795
 21
5.6493453176
 72
1
 10
7.5672416679
 20
5.5129279948
 11
7.5601034795
 21
5.5129279948
 72
1
 10
7.5896310386
 20
5.4741484672
 11
7.5672416679
 21
5.5129279948
 72
1
 10
7.5896310386
 20
5.4741484672
 11
7.5965255256
 21
5.4741484672
 72
1
 10
7.6189148962
 20
5.5129279948
 11
7.5965255256
 21
5.4741484672
 72
1
 10
7.626296786
 20
5.5129279948
 11
7.6189148962
 21
5.5129279948
 72
1
 10
7.6486861567
 20
5.4741484672
 11
7.626296786
 21
5.5129279948
 72
1
 10
7.6486861567
 20
5.4741484672
 11
7.6555806437
 21
5.4741484672
 72
1
 10
7.6779700144
 20
5.5129279948
 11
7.6555806437
 21
5.4741484672
 72
1
 10
7.6853519041
 20
5.5129279948
 11
7.6779700144
 21
5.5129279948
 72
1
 10
7.7077412748
 20
5.4741484672
 11
7.6853519041
 21
5.5129279948
 72
1
 10
7.7077412748
 20
5.4741484672
 11
7.7146357618
 21
5.4741484672
 72
1
 10
7.7370251325
 20
5.5129279948
 11
7.7146357618
 21
5.4741484672
 72
1
 10
7.7444070222
 20
5.5129279948
 11
7.7370251325
 21
5.5129279948
 72
1
 10
7.7667963929
 20
5.4741484672
 11
7.7444070222
 21
5.5129279948
 72
1
 10
7.7667963929
 20
5.4741484672
 11
7.7736908799
 21
5.4741484672
 72
1
 10
7.7960802506
 20
5.5129279948
 11
7.7736908799
 21
5.4741484672
 72
1
 10
7.8034621403
 20
5.5129279948
 11
7.7960802506
 21
5.5129279948
 72
1
 10
7.825851511
 20
5.4741484672
 11
7.8034621403
 21
5.5129279948
 72
1
 10
7.825851511
 20
5.4741484672
 11
7.832745998
 21
5.4741484672
 72
1
 10
7.8551353687
 20
5.5129279948
 11
7.832745998
 21
5.4741484672
 72
1
 10
7.8625172584
 20
5.5129279948
 11
7.8551353687
 21
5.5129279948
 72
1
 10
7.8849066291
 20
5.4741484672
 11
7.8625172584
 21
5.5129279948
 72
1
 10
7.8849066291
 20
5.4741484672
 11
7.8918011161
 21
5.4741484672
 72
1
 10
7.9141904868
 20
5.5129279948
 11
7.8918011161
 21
5.4741484672
 72
1
 10
7.9215723766
 20
5.5129279948
 11
7.9141904868
 21
5.5129279948
 72
1
 10
7.9439617472
 20
5.4741484672
 11
7.9215723766
 21
5.5129279948
 72
1
 10
7.9439617472
 20
5.4741484672
 11
7.9508562342
 21
5.4741484672
 72
1
 10
7.9732456049
 20
5.5129279948
 11
7.9508562342
 21
5.4741484672
 72
1
 10
7.9806274947
 20
5.5129279948
 11
7.9732456049
 21
5.5129279948
 72
1
 10
8.0030168653
 20
5.4741484672
 11
7.9806274947
 21
5.5129279948
 72
1
 10
8.0030168653
 20
5.4741484672
 11
8.0099113523
 21
5.4741484672
 72
1
 10
8.032300723
 20
5.5129279948
 11
8.0099113523
 21
5.4741484672
 72
1
 10
8.0396826128
 20
5.5129279948
 11
8.032300723
 21
5.5129279948
 72
1
 10
8.0620719835
 20
5.4741484672
 11
8.0396826128
 21
5.5129279948
 72
1
 10
8.0620719835
 20
5.4741484672
 11
8.0689664704
 21
5.4741484672
 72
1
 10
8.0913558411
 20
5.5129279948
 11
8.0689664704
 21
5.4741484672
 72
1
 10
8.0987377309
 20
5.5129279948
 11
8.0913558411
 21
5.5129279948
 72
1
 10
8.1211271016
 20
5.4741484672
 11
8.0987377309
 21
5.5129279948
 72
1
 10
8.1211271016
 20
5.4741484672
 11
8.4951428496
 21
5.4741484672
 72
1
 10
8.4951428496
 20
5.4741484672
 11
8.4951428496
 21
5.169030357
 72
1
 10
8.544355448
 20
5.169030357
 11
8.4951428496
 21
5.169030357
 72
1
 10
8.544355448
 20
5.1299104744
 11
8.544355448
 21
5.169030357
 72
2
 10
8.5049853693
 20
5.1299104744
 40
0.0393700787
 50
269.2717824831
 51
360.0
 73
1
 72
2
 10
8.544355448
 20
8.2273612142
 40
3.1370710147
 50
236.8723340578
 51
269.2717824831
 73
1
 72
2
 10
6.8514420622
 20
5.6331763024
 40
0.0393700787
 50
179.9999999992
 51
236.8723340579
 73
1
 97
0
 75
0
 76
0
 52
135.0
 41
0.085
 77
0
 78
1
 53
135.0
 43
0.0
 44
0.0
 45
-0.0601040764
 46
-0.0601040764
 79
0
 98
1
 10
0.0
 20
0.0
  0
MTEXT
  5
263
100
AcDbEntity
  8
0
100
AcDbMText
 62
7
  6
CONTINUOUS
  7
STANDARD
 71
1
 72
1
 10
2.9425989011
 20
7.3374879884
 30
0.0
 11
1.0
 21
0.0
 31
0.0
 44
0.9
  1
A
 40
0.15
 41
0.15
  0
LEADER
  5
264
100
AcDbEntity
  8
0
100
AcDbLeader
 62
7
  6
CONTINUOUS
  3
STANDARD
 71
1
 72
0
 73
3
 75
0
 76
2
 10
3.1675989011
 20
7.2624879884
 30
0.0
 10
3.6755294204
 20
7.2624879884
 30
0.0
1001
ACAD
1000
DSTYLE
1002
{
1070
77
1070
0
1070
41
1040
0.32
1002
}
  0
MTEXT
  5
265
100
AcDbEntity
  8
0
100
AcDbMText
 62
7
  6
CONTINUOUS
  7
STANDARD
 71
1
 72
1
 10
2.9425989011
 20
4.9082534532
 30
0.0
 11
1.0
 21
0.0
 31
0.0
 44
0.9
  1
A
 40
0.15
 41
0.15
  0
LEADER
  5
266
100
AcDbEntity
  8
0
100
AcDbLeader
 62
7
  6
CONTINUOUS
  3
STANDARD
 71
1
 72
0
 73
3
 75
0
 76
2
 10
3.1675989011
 20
4.8332534532
 30
0.0
 10
3.6755294204
 20
4.8332534532
 30
0.0
1001
ACAD
1000
DSTYLE
1002
{
1070
77
1070
0
1070
41
1040
0.32
1002
}
  0
DIMENSION
  5
267
100
AcDbEntity
  8
DRIVEN_DIMS
100
AcDbDimension
 62
7
  6
CONTINUOUS
  2
*D0
 10
3.043883232
 20
6.8290461923
 11
1.7914145687
 21
7.5135143468
 70
163
 71
3
 42
49.9871284989
  1
%%c<>\P[]
  3
DIMSTYLE_1
100
AcDbDiametricDimension
 15
4.3071756088
 25
5.3200381437
  0
DIMENSION
  5
268
100
AcDbEntity
  8
SCHEME_DIMS
100
AcDbDimension
 62
7
  6
CONTINUOUS
  2
*D1
 10
7.5669979665
 20
7.5317319844
 11
8.0556767073
 21
7.4567319844
 70
160
 71
2
 42
24.8248800303
  1
<>\P[]
  3
DIMSTYLE_2
100
AcDbAlignedDimension
 13
8.544355448
 23
7.0191738616
 14
7.5669979665
 24
6.3747390184
 50
180.0
100
AcDbRotatedDimension
  0
DIMENSION
  5
269
100
AcDbEntity
  8
SCHEME_DIMS
100
AcDbDimension
 62
7
  6
CONTINUOUS
  2
*D2
 10
6.8120719835
 20
8.1431277905
 11
7.6782137157
 21
8.0681277905
 70
160
 71
2
 42
44.0
  1
<>\P[]
  3
DIMSTYLE_2
100
AcDbAlignedDimension
 13
8.544355448
 23
6.980053979
 14
6.8120719835
 24
6.4997390184
 50
180.0
100
AcDbRotatedDimension
  0
ACAD_TABLE
  5
26A
100
AcDbEntity
  8
0
 62
7
  6
CONTINUOUS
100
AcDbBlockReference
  2
*T1
 10
12.03
 20
0.887
 30
0.0
100
AcDbTable
342
       563
343
211
 11
1.0
 21
0.0
 31
0.0
 90
6
 91
3
 92
5
 93
4
 94
0
 95
0
 96
0
 70
1
141
0.33
141
0.45
141
1.14
142
0.65
142
1.15
142
1.025
142
1.075
142
0.45
171
1
172
0
173
0
174
0
175
1
176
1
 91
33
178
0
145
0.0
301
CELL_VALUE
 90
4
  1
 
304
ACVALUE_END
170
1
140
0.1
171
1
172
0
173
0
174
0
175
1
176
1
 91
33
178
0
145
0.0
301
CELL_VALUE
 90
4
  1
 
304
ACVALUE_END
170
1
140
0.1
171
1
172
0
173
0
174
0
175
1
176
1
 91
33
178
0
145
0.0
301
CELL_VALUE
 90
4
  1
 
304
ACVALUE_END
170
1
140
0.1
171
1
172
0
173
0
174
0
175
1
176
1
 91
33
178
0
145
0.0
301
CELL_VALUE
 90
4
  1
 
304
ACVALUE_END
170
1
140
0.1
171
1
172
0
173
0
174
0
175
1
176
1
 91
33
178
0
145
0.0
301
CELL_VALUE
 90
4
  1
 
304
ACVALUE_END
170
1
140
0.1
171
1
172
0
173
0
174
0
175
1
176
1
 91
33
178
0
145
0.0
301
CELL_VALUE
 90
4
  1
 
304
ACVALUE_END
170
1
140
0.1
171
1
172
0
173
0
174
0
175
1
176
1
 91
33
178
0
145
0.0
301
CELL_VALUE
 90
4
  1
 
304
ACVALUE_END
170
1
140
0.1
171
1
172
0
173
0
174
0
175
1
176
1
 91
33
178
0
145
0.0
301
CELL_VALUE
 90
4
  1
 
304
ACVALUE_END
170
1
140
0.1
171
1
172
0
173
0
174
0
175
1
176
1
 91
33
178
0
145
0.0
301
CELL_VALUE
 90
4
  1
 
304
ACVALUE_END
170
1
140
0.1
171
1
172
0
173
0
174
0
175
1
176
1
 91
41
178
0
145
0.0
301
CELL_VALUE
 90
4
  1
A
304
ACVALUE_END
170
8
140
0.1
 64
7
171
1
172
0
173
0
174
0
175
5
176
1
 91
33
178
0
145
0.0
301
CELL_VALUE
 90
4
  1
SA-M30E12-803146
304
ACVALUE_END
170
8
140
0.1
171
1
172
0
173
1
174
0
175
1
176
1
 91
1
178
0
145
0.0
170
1
171
1
172
0
173
1
174
0
175
1
176
1
 91
1
178
0
145
0.0
170
1
171
1
172
0
173
1
174
0
175
1
176
1
 91
1
178
0
145
0.0
170
1
171
1
172
0
173
1
174
0
175
1
176
1
 91
1
178
0
145
0.0
170
8
  0
LEADER
  5
26B
100
AcDbEntity
  8
NOTES
100
AcDbLeader
 62
7
  6
CONTINUOUS
  3
STANDARD
 71
1
 72
0
 73
0
 75
0
 40
0.1
 41
0.9
 76
3
 10
8.0806874831
 20
5.4944498567
 30
0.0
 10
8.5086820681
 20
4.5036190721
 30
0.0
 10
8.7586820681
 20
4.5036190721
 30
0.0
340
26C
1001
ACAD
1000
DSTYLE
1002
{
1070
77
1070
0
1002
}
  0
MTEXT
  5
26C
102
{ACAD_REACTORS
330
26B
102
}
100
AcDbEntity
  8
NOTES
100
AcDbMText
 62
7
  6
CONTINUOUS
  7
STANDARD
 71
1
 72
1
 10
8.7586820681
 20
4.5536190721
 30
0.0
 11
1.0
 21
0.0
 31
0.0
 44
0.9
  1
M30 X 1.5
 40
0.1
 41
0.9
  0
LEADER
  5
26D
100
AcDbEntity
  8
NOTES
100
AcDbLeader
 62
7
  6
CONTINUOUS
  3
STANDARD
 71
1
 72
0
 73
0
 75
0
 40
0.1
 41
0.6
 76
3
 10
8.5571428496
 20
6.7703209036
 30
0.0
 10
8.93839051
 20
6.1194115808
 30
0.0
 10
9.18839051
 20
6.1194115808
 30
0.0
340
26E
1001
ACAD
1000
DSTYLE
1002
{
1070
77
1070
0
1002
}
  0
MTEXT
  5
26E
102
{ACAD_REACTORS
330
26D
102
}
100
AcDbEntity
  8
NOTES
100
AcDbMText
 62
7
  6
CONTINUOUS
  7
STANDARD
 71
1
 72
1
 10
9.18839051
 20
6.1694115808
 30
0.0
 11
1.0
 21
0.0
 31
0.0
 44
0.9
  1
WASHER\PBUNA-N 70\PDUROMETER
 40
0.1
 41
0.9
  0
LEADER
  5
26F
100
AcDbEntity
  8
NOTES
100
AcDbLeader
 62
7
  6
CONTINUOUS
  3
STANDARD
 71
1
 72
0
 73
0
 75
0
 40
0.1
 41
1.3
 76
3
 10
7.1937505438
 20
5.6493453176
 30
0.0
 10
7.0499172643
 20
4.4642393016
 30
0.0
 10
6.7999172643
 20
4.4642393016
 30
0.0
340
270
1001
ACAD
1000
DSTYLE
1002
{
1070
77
1070
0
1002
}
  0
MTEXT
  5
270
102
{ACAD_REACTORS
330
26F
102
}
100
AcDbEntity
  8
NOTES
100
AcDbMText
 62
7
  6
CONTINUOUS
  7
STANDARD
 71
3
 72
1
 10
6.7999172643
 20
4.5142393016
 30
0.0
 11
1.0
 21
0.0
 31
0.0
 44
0.9
  1
1/2 - 14 NPSM
 40
0.1
 41
1.3
  0
LINE
  5
271
100
AcDbEntity
  8
0
100
AcDbLine
 62
7
  6
CONTINUOUS
 10
0.47
 20
5.586103
 11
0.47
 21
5.412897
  0
LINE
  5
272
100
AcDbEntity
  8
0
100
AcDbLine
 62
7
  6
CONTINUOUS
 10
0.62
 20
10.112
 11
0.62
 21
0.887
  0
LINE
  5
273
100
AcDbEntity
  8
0
100
AcDbLine
 62
7
  6
CONTINUOUS
 10
2.59
 20
0.887
 11
2.59
 21
0.637
  0
LINE
  5
274
100
AcDbEntity
  8
0
100
AcDbLine
 62
7
  6
CONTINUOUS
 10
2.59
 20
10.112
 11
2.59
 21
10.362
  0
LINE
  5
275
100
AcDbEntity
  8
0
100
AcDbLine
 62
7
  6
CONTINUOUS
 10
8.413397
 20
0.737
 11
8.586603
 21
0.737
  0
LINE
  5
276
100
AcDbEntity
  8
0
100
AcDbLine
 62
7
  6
CONTINUOUS
 10
11.1389508475
 20
1.425992839
 11
11.7453418475
 21
1.495385839
  0
LINE
  5
277
100
AcDbEntity
  8
0
100
AcDbLine
 62
7
  6
CONTINUOUS
 10
0.62
 20
0.887
 11
16.38
 21
0.887
  0
LINE
  5
278
100
AcDbEntity
  8
0
100
AcDbLine
 62
7
  6
CONTINUOUS
 10
12.03
 20
1.137
 11
16.38
 21
1.137
  0
LINE
  5
279
100
AcDbEntity
  8
0
100
AcDbLine
 62
7
  6
CONTINUOUS
 10
10.2121898475
 20
1.243294839
 11
10.4342808475
 21
1.243294839
  0
LINE
  5
27A
100
AcDbEntity
  8
0
100
AcDbLine
 62
7
  6
CONTINUOUS
 10
10.4842808475
 20
1.243294839
 11
10.5842808475
 21
1.243294839
  0
LINE
  5
27B
100
AcDbEntity
  8
0
100
AcDbLine
 62
7
  6
CONTINUOUS
 10
10.6342808475
 20
1.243294839
 11
10.8563718475
 21
1.243294839
  0
LINE
  5
27C
100
AcDbEntity
  8
0
100
AcDbLine
 62
7
  6
CONTINUOUS
 10
11.0389508475
 20
1.243294839
 11
11.3171028475
 21
1.243294839
  0
LINE
  5
27D
100
AcDbEntity
  8
0
100
AcDbLine
 62
7
  6
CONTINUOUS
 10
11.3671028475
 20
1.243294839
 11
11.5171888475
 21
1.243294839
  0
LINE
  5
27E
100
AcDbEntity
  8
0
100
AcDbLine
 62
7
  6
CONTINUOUS
 10
11.5671888475
 20
1.243294839
 11
11.8453418475
 21
1.243294839
  0
LINE
  5
27F
100
AcDbEntity
  8
0
100
AcDbLine
 62
7
  6
CONTINUOUS
 10
11.7453418475
 20
0.991203839
 11
11.1389508475
 21
1.060596839
  0
LINE
  5
280
100
AcDbEntity
  8
0
100
AcDbLine
 62
7
  6
CONTINUOUS
 10
4.56
 20
0.887
 11
4.56
 21
0.637
  0
LINE
  5
281
100
AcDbEntity
  8
0
100
AcDbLine
 62
7
  6
CONTINUOUS
 10
4.56
 20
10.112
 11
4.56
 21
10.362
  0
LINE
  5
282
100
AcDbEntity
  8
0
100
AcDbLine
 62
7
  6
CONTINUOUS
 10
0.47
 20
5.412897
 11
0.62
 21
5.4995
  0
LINE
  5
283
100
AcDbEntity
  8
0
100
AcDbLine
 62
7
  6
CONTINUOUS
 10
12.03
 20
1.507
 11
16.38
 21
1.507
  0
LINE
  5
284
100
AcDbEntity
  8
0
100
AcDbLine
 62
7
  6
CONTINUOUS
 10
10.03
 20
1.907
 11
12.03
 21
1.907
  0
LINE
  5
285
100
AcDbEntity
  8
0
100
AcDbLine
 62
7
  6
CONTINUOUS
 10
0.62
 20
5.4995
 11
0.47
 21
5.586103
  0
LINE
  5
286
100
AcDbEntity
  8
0
100
AcDbLine
 62
7
  6
CONTINUOUS
 10
12.03
 20
2.267
 11
16.38
 21
2.267
  0
LINE
  5
287
100
AcDbEntity
  8
0
100
AcDbLine
 62
7
  6
CONTINUOUS
 10
13.6042588488
 20
2.4912273132
 11
13.5568948225
 21
2.4912273132
  0
LINE
  5
288
100
AcDbEntity
  8
0
100
AcDbLine
 62
7
  6
CONTINUOUS
 10
13.5130037982
 20
2.4912273132
 11
13.3994327352
 21
2.4912273132
  0
LINE
  5
289
100
AcDbEntity
  8
0
100
AcDbLine
 62
7
  6
CONTINUOUS
 10
13.3705287192
 20
2.4912273132
 11
13.1673166065
 21
2.4912273132
  0
LINE
  5
28A
100
AcDbEntity
  8
0
100
AcDbLine
 62
7
  6
CONTINUOUS
 10
13.1168435785
 20
2.4912273132
 11
13.0426375373
 21
2.4912273132
  0
LINE
  5
28B
100
AcDbEntity
  8
0
100
AcDbLine
 62
7
  6
CONTINUOUS
 10
12.9962575116
 20
2.4912273132
 11
12.9205934696
 21
2.4912273132
  0
LINE
  5
28C
100
AcDbEntity
  8
0
100
AcDbLine
 62
7
  6
CONTINUOUS
 10
12.8685904408
 20
2.4912273132
 11
12.7943853997
 21
2.4912273132
  0
LINE
  5
28D
100
AcDbEntity
  8
0
100
AcDbLine
 62
7
  6
CONTINUOUS
 10
12.7480043739
 20
2.4912273132
 11
12.672340332
 21
2.4912273132
  0
LINE
  5
28E
100
AcDbEntity
  8
0
100
AcDbLine
 62
7
  6
CONTINUOUS
 10
12.2055050731
 20
2.4912273132
 11
12.3819511709
 21
2.4912273132
  0
LINE
  5
28F
100
AcDbEntity
  8
0
100
AcDbLine
 62
7
  6
CONTINUOUS
 10
12.4394882028
 20
2.4912273132
 11
12.5168642458
 21
2.4912273132
  0
LINE
  5
290
100
AcDbEntity
  8
0
100
AcDbLine
 62
7
  6
CONTINUOUS
 10
12.537150257
 20
2.4912273132
 11
12.6424313154
 21
2.4912273132
  0
LINE
  5
291
100
AcDbEntity
  8
0
100
AcDbLine
 62
7
  6
CONTINUOUS
 10
13.4883447845
 20
2.5159553269
 11
13.5130037982
 21
2.5159553269
  0
LINE
  5
292
100
AcDbEntity
  8
0
100
AcDbLine
 62
7
  6
CONTINUOUS
 10
12.6424313154
 20
2.515977327
 11
12.6224153043
 21
2.515977327
  0
LINE
  5
293
100
AcDbEntity
  8
0
100
AcDbLine
 62
7
  6
CONTINUOUS
 10
12.551601265
 20
2.515977327
 11
12.537150257
 21
2.515977327
  0
LINE
  5
294
100
AcDbEntity
  8
0
100
AcDbLine
 62
7
  6
CONTINUOUS
 10
12.5168642458
 20
2.515977327
 11
12.5055812395
 21
2.515977327
  0
LINE
  5
295
100
AcDbEntity
  8
0
100
AcDbLine
 62
7
  6
CONTINUOUS
 10
12.4623492155
 20
2.515977327
 11
12.4394882028
 21
2.515977327
  0
LINE
  5
296
100
AcDbEntity
  8
0
100
AcDbLine
 62
7
  6
CONTINUOUS
 10
12.3362731456
 20
2.515977327
 11
12.2949101227
 21
2.515977327
  0
LINE
  5
297
100
AcDbEntity
  8
0
100
AcDbLine
 62
7
  6
CONTINUOUS
 10
12.2294470864
 20
2.515977327
 11
12.2055050731
 21
2.515977327
  0
LINE
  5
298
100
AcDbEntity
  8
0
100
AcDbLine
 62
7
  6
CONTINUOUS
 10
12.672340332
 20
2.515977327
 11
12.6909873423
 21
2.515977327
  0
LINE
  5
299
100
AcDbEntity
  8
0
100
AcDbLine
 62
7
  6
CONTINUOUS
 10
12.7276873627
 20
2.515977327
 11
12.7480043739
 21
2.515977327
  0
LINE
  5
29A
100
AcDbEntity
  8
0
100
AcDbLine
 62
7
  6
CONTINUOUS
 10
12.9205934696
 20
2.515977327
 11
12.93923948
 21
2.515977327
  0
LINE
  5
29B
100
AcDbEntity
  8
0
100
AcDbLine
 62
7
  6
CONTINUOUS
 10
12.9759405003
 20
2.515977327
 11
12.9962575116
 21
2.515977327
  0
LINE
  5
29C
100
AcDbEntity
  8
0
100
AcDbLine
 62
7
  6
CONTINUOUS
 10
13.1673166065
 20
2.515977327
 11
13.1912396197
 21
2.515977327
  0
LINE
  5
29D
100
AcDbEntity
  8
0
100
AcDbLine
 62
7
  6
CONTINUOUS
 10
13.2582556569
 20
2.515977327
 11
13.3232596929
 21
2.515977327
  0
LINE
  5
29E
100
AcDbEntity
  8
0
100
AcDbLine
 62
7
  6
CONTINUOUS
 10
13.3994327352
 20
2.515977327
 11
13.4221787478
 21
2.515977327
  0
LINE
  5
29F
100
AcDbEntity
  8
0
100
AcDbLine
 62
7
  6
CONTINUOUS
 10
13.6052818493
 20
2.5163643272
 11
13.60639085
 21
2.5163643272
  0
LINE
  5
2A0
100
AcDbEntity
  8
0
100
AcDbLine
 62
7
  6
CONTINUOUS
 10
13.3282096957
 20
2.5291773343
 11
13.3705287192
 21
2.5291773343
  0
LINE
  5
2A1
100
AcDbEntity
  8
0
100
AcDbLine
 62
7
  6
CONTINUOUS
 10
12.5110972426
 20
2.5296213345
 11
12.5459752619
 21
2.5296213345
  0
LINE
  5
2A2
100
AcDbEntity
  8
0
100
AcDbLine
 62
7
  6
CONTINUOUS
 10
13.6171458559
 20
2.5301143348
 11
13.6292558626
 21
2.5301143348
  0
LINE
  5
2A3
100
AcDbEntity
  8
0
100
AcDbLine
 62
7
  6
CONTINUOUS
 10
13.5159517998
 20
2.5306043351
 11
13.4883447845
 21
2.5306043351
  0
LINE
  5
2A4
100
AcDbEntity
  8
0
100
AcDbLine
 62
7
  6
CONTINUOUS
 10
13.2934226764
 20
2.5324773361
 11
13.2582556569
 21
2.5324773361
  0
LINE
  5
2A5
100
AcDbEntity
  8
0
100
AcDbLine
 62
7
  6
CONTINUOUS
 10
12.2949101227
 20
2.5333023366
 11
12.3362731456
 21
2.5333023366
  0
LINE
  5
2A6
100
AcDbEntity
  8
0
100
AcDbLine
 62
7
  6
CONTINUOUS
 10
13.5222818033
 20
2.5496073456
 11
13.4883447845
 21
2.5496073456
  0
LINE
  5
2A7
100
AcDbEntity
  8
0
100
AcDbLine
 62
7
  6
CONTINUOUS
 10
12.2949101227
 20
2.5499573458
 11
12.3362731456
 21
2.5499573458
  0
LINE
  5
2A8
100
AcDbEntity
  8
0
100
AcDbLine
 62
7
  6
CONTINUOUS
 10
12.5196132473
 20
2.5505713461
 11
12.5401702587
 21
2.5505713461
  0
LINE
  5
2A9
100
AcDbEntity
  8
0
100
AcDbLine
 62
7
  6
CONTINUOUS
 10
13.2582556569
 20
2.5507823463
 11
13.2934226764
 21
2.5507823463
  0
LINE
  5
2AA
100
AcDbEntity
  8
0
100
AcDbLine
 62
7
  6
CONTINUOUS
 10
13.3691097184
 20
2.5540823481
 11
13.3272456952
 21
2.5540823481
  0
LINE
  5
2AB
100
AcDbEntity
  8
0
100
AcDbLine
 62
7
  6
CONTINUOUS
 10
12.5329112547
 20
2.5667383551
 11
12.5267302512
 21
2.5667383551
  0
LINE
  5
2AC
100
AcDbEntity
  8
0
100
AcDbLine
 62
7
  6
CONTINUOUS
 10
13.4221787478
 20
2.5672823554
 11
13.3994327352
 21
2.5672823554
  0
LINE
  5
2AD
100
AcDbEntity
  8
0
100
AcDbLine
 62
7
  6
CONTINUOUS
 10
13.3222956924
 20
2.5672823554
 11
13.2582556569
 21
2.5672823554
  0
LINE
  5
2AE
100
AcDbEntity
  8
0
100
AcDbLine
 62
7
  6
CONTINUOUS
 10
13.1912396197
 20
2.5672823554
 11
13.1673166065
 21
2.5672823554
  0
LINE
  5
2AF
100
AcDbEntity
  8
0
100
AcDbLine
 62
7
  6
CONTINUOUS
 10
13.1397265912
 20
2.5672823554
 11
13.1217935812
 21
2.5672823554
  0
LINE
  5
2B0
100
AcDbEntity
  8
0
100
AcDbLine
 62
7
  6
CONTINUOUS
 10
13.0845015605
 20
2.5672823554
 11
13.0657255501
 21
2.5672823554
  0
LINE
  5
2B1
100
AcDbEntity
  8
0
100
AcDbLine
 62
7
  6
CONTINUOUS
 10
12.93923948
 20
2.5672823554
 11
12.9205934696
 21
2.5672823554
  0
LINE
  5
2B2
100
AcDbEntity
  8
0
100
AcDbLine
 62
7
  6
CONTINUOUS
 10
12.8914734535
 20
2.5672823554
 11
12.8735404436
 21
2.5672823554
  0
LINE
  5
2B3
100
AcDbEntity
  8
0
100
AcDbLine
 62
7
  6
CONTINUOUS
 10
12.8362484229
 20
2.5672823554
 11
12.8174724125
 21
2.5672823554
  0
LINE
  5
2B4
100
AcDbEntity
  8
0
100
AcDbLine
 62
7
  6
CONTINUOUS
 10
12.6909873423
 20
2.5672823554
 11
12.672340332
 21
2.5672823554
  0
LINE
  5
2B5
100
AcDbEntity
  8
0
100
AcDbLine
 62
7
  6
CONTINUOUS
 10
12.3362731456
 20
2.5672823554
 11
12.2949101227
 21
2.5672823554
  0
LINE
  5
2B6
100
AcDbEntity
  8
0
100
AcDbLine
 62
7
  6
CONTINUOUS
 10
12.2055050731
 20
2.5672823554
 11
12.2294470864
 21
2.5672823554
  0
LINE
  5
2B7
100
AcDbEntity
  8
0
100
AcDbLine
 62
7
  6
CONTINUOUS
 10
13.4883447845
 20
2.5672823554
 11
13.5251458049
 21
2.5672823554
  0
LINE
  5
2B8
100
AcDbEntity
  8
0
100
AcDbLine
 62
7
  6
CONTINUOUS
 10
12.5705042755
 20
2.5920323691
 11
12.5133292438
 21
2.5920323691
  0
LINE
  5
2B9
100
AcDbEntity
  8
0
100
AcDbLine
 62
7
  6
CONTINUOUS
 10
12.3715681652
 20
2.5920323691
 11
12.2055050731
 21
2.5920323691
  0
LINE
  5
2BA
100
AcDbEntity
  8
0
100
AcDbLine
 62
7
  6
CONTINUOUS
 10
12.672340332
 20
2.5920323691
 11
12.7727983877
 21
2.5920323691
  0
LINE
  5
2BB
100
AcDbEntity
  8
0
100
AcDbLine
 62
7
  6
CONTINUOUS
 10
12.8174724125
 20
2.5920323691
 11
12.8914734535
 21
2.5920323691
  0
LINE
  5
2BC
100
AcDbEntity
  8
0
100
AcDbLine
 62
7
  6
CONTINUOUS
 10
12.9205934696
 20
2.5920323691
 11
13.0210515254
 21
2.5920323691
  0
LINE
  5
2BD
100
AcDbEntity
  8
0
100
AcDbLine
 62
7
  6
CONTINUOUS
 10
13.0657255501
 20
2.5920323691
 11
13.1397265912
 21
2.5920323691
  0
LINE
  5
2BE
100
AcDbEntity
  8
0
100
AcDbLine
 62
7
  6
CONTINUOUS
 10
13.1673166065
 20
2.5920323691
 11
13.3691097184
 21
2.5920323691
  0
LINE
  5
2BF
100
AcDbEntity
  8
0
100
AcDbLine
 62
7
  6
CONTINUOUS
 10
13.3994327352
 20
2.5920323691
 11
13.5490138181
 21
2.5920323691
  0
LINE
  5
2C0
100
AcDbEntity
  8
0
100
AcDbLine
 62
7
  6
CONTINUOUS
 10
12.4008351814
 20
2.5375433389
 11
12.3907841758
 21
2.5410923409
  0
LINE
  5
2C1
100
AcDbEntity
  8
0
100
AcDbLine
 62
7
  6
CONTINUOUS
 10
12.7926763987
 20
2.4919113136
 11
12.7293963636
 21
2.5522893471
  0
LINE
  5
2C2
100
AcDbEntity
  8
0
100
AcDbLine
 62
7
  6
CONTINUOUS
 10
12.7745063886
 20
2.5913483688
 11
12.8345394219
 21
2.534068337
  0
LINE
  5
2C3
100
AcDbEntity
  8
0
100
AcDbLine
 62
7
  6
CONTINUOUS
 10
13.0409295364
 20
2.4919113136
 11
12.9776495013
 21
2.5522893471
  0
LINE
  5
2C4
100
AcDbEntity
  8
0
100
AcDbLine
 62
7
  6
CONTINUOUS
 10
13.0227595263
 20
2.5913483688
 11
13.0827925596
 21
2.534068337
  0
LINE
  5
2C5
100
AcDbEntity
  8
0
100
AcDbLine
 62
7
  6
CONTINUOUS
 10
12.548053263
 20
2.5284903339
 11
12.5536792662
 21
2.5197973291
  0
LINE
  5
2C6
100
AcDbEntity
  8
0
100
AcDbLine
 62
7
  6
CONTINUOUS
 10
12.5422482598
 20
2.5543913483
 11
12.5349892558
 21
2.5656073545
  0
LINE
  5
2C7
100
AcDbEntity
  8
0
100
AcDbLine
 62
7
  6
CONTINUOUS
 10
12.6203383031
 20
2.5171073276
 11
12.5725822767
 21
2.5909023685
  0
LINE
  5
2C8
100
AcDbEntity
  8
0
100
AcDbLine
 62
7
  6
CONTINUOUS
 10
12.2030300717
 20
2.5895573678
 11
12.2030300717
 21
2.5697573568
  0
LINE
  5
2C9
100
AcDbEntity
  8
0
100
AcDbLine
 62
7
  6
CONTINUOUS
 10
12.2030300717
 20
2.5135023256
 11
12.2030300717
 21
2.4937023146
  0
LINE
  5
2CA
100
AcDbEntity
  8
0
100
AcDbLine
 62
7
  6
CONTINUOUS
 10
12.2319220877
 20
2.564807354
 11
12.2319220877
 21
2.5184523283
  0
LINE
  5
2CB
100
AcDbEntity
  8
0
100
AcDbLine
 62
7
  6
CONTINUOUS
 10
12.2924351213
 20
2.564807354
 11
12.2924351213
 21
2.5524323472
  0
LINE
  5
2CC
100
AcDbEntity
  8
0
100
AcDbLine
 62
7
  6
CONTINUOUS
 10
12.2924351213
 20
2.5184523283
 11
12.2924351213
 21
2.5308273352
  0
LINE
  5
2CD
100
AcDbEntity
  8
0
100
AcDbLine
 62
7
  6
CONTINUOUS
 10
12.4370132015
 20
2.5135023256
 11
12.4370132015
 21
2.4937023146
  0
LINE
  5
2CE
100
AcDbEntity
  8
0
100
AcDbLine
 62
7
  6
CONTINUOUS
 10
12.5193392471
 20
2.4937023146
 11
12.5193392471
 21
2.5135023256
  0
LINE
  5
2CF
100
AcDbEntity
  8
0
100
AcDbLine
 62
7
  6
CONTINUOUS
 10
12.5346752556
 20
2.5135023256
 11
12.5346752556
 21
2.4937023146
  0
LINE
  5
2D0
100
AcDbEntity
  8
0
100
AcDbLine
 62
7
  6
CONTINUOUS
 10
12.6449063168
 20
2.4937023146
 11
12.6449063168
 21
2.5135023256
  0
LINE
  5
2D1
100
AcDbEntity
  8
0
100
AcDbLine
 62
7
  6
CONTINUOUS
 10
12.6698653306
 20
2.4937023146
 11
12.6698653306
 21
2.5135023256
  0
LINE
  5
2D2
100
AcDbEntity
  8
0
100
AcDbLine
 62
7
  6
CONTINUOUS
 10
12.6698653306
 20
2.5697573568
 11
12.6698653306
 21
2.5895573678
  0
LINE
  5
2D3
100
AcDbEntity
  8
0
100
AcDbLine
 62
7
  6
CONTINUOUS
 10
12.6934623437
 20
2.5184523283
 11
12.6934623437
 21
2.564807354
  0
LINE
  5
2D4
100
AcDbEntity
  8
0
100
AcDbLine
 62
7
  6
CONTINUOUS
 10
12.7252123613
 20
2.5504983461
 11
12.7252123613
 21
2.5184523283
  0
LINE
  5
2D5
100
AcDbEntity
  8
0
100
AcDbLine
 62
7
  6
CONTINUOUS
 10
13.5375908118
 20
2.5092733232
 11
13.5357868108
 21
2.5153423266
  0
LINE
  5
2D6
100
AcDbEntity
  8
0
100
AcDbLine
 62
7
  6
CONTINUOUS
 10
12.7504793753
 20
2.5135023256
 11
12.7504793753
 21
2.4937023146
  0
LINE
  5
2D7
100
AcDbEntity
  8
0
100
AcDbLine
 62
7
  6
CONTINUOUS
 10
12.8149974111
 20
2.5697573568
 11
12.8149974111
 21
2.5895573678
  0
LINE
  5
2D8
100
AcDbEntity
  8
0
100
AcDbLine
 62
7
  6
CONTINUOUS
 10
12.8387234242
 20
2.535859338
 11
12.8387234242
 21
2.564807354
  0
LINE
  5
2D9
100
AcDbEntity
  8
0
100
AcDbLine
 62
7
  6
CONTINUOUS
 10
12.8710654422
 20
2.564807354
 11
12.8710654422
 21
2.4937023146
  0
LINE
  5
2DA
100
AcDbEntity
  8
0
100
AcDbLine
 62
7
  6
CONTINUOUS
 10
12.8939484549
 20
2.5895573678
 11
12.8939484549
 21
2.5697573568
  0
LINE
  5
2DB
100
AcDbEntity
  8
0
100
AcDbLine
 62
7
  6
CONTINUOUS
 10
12.9181184683
 20
2.4937023146
 11
12.9181184683
 21
2.5135023256
  0
LINE
  5
2DC
100
AcDbEntity
  8
0
100
AcDbLine
 62
7
  6
CONTINUOUS
 10
12.9181184683
 20
2.5697573568
 11
12.9181184683
 21
2.5895573678
  0
LINE
  5
2DD
100
AcDbEntity
  8
0
100
AcDbLine
 62
7
  6
CONTINUOUS
 10
12.9417144814
 20
2.5184523283
 11
12.9417144814
 21
2.564807354
  0
LINE
  5
2DE
100
AcDbEntity
  8
0
100
AcDbLine
 62
7
  6
CONTINUOUS
 10
12.973465499
 20
2.5504983461
 11
12.973465499
 21
2.5184523283
  0
LINE
  5
2DF
100
AcDbEntity
  8
0
100
AcDbLine
 62
7
  6
CONTINUOUS
 10
12.998732513
 20
2.5135023256
 11
12.998732513
 21
2.4937023146
  0
LINE
  5
2E0
100
AcDbEntity
  8
0
100
AcDbLine
 62
7
  6
CONTINUOUS
 10
13.0632505488
 20
2.5697573568
 11
13.0632505488
 21
2.5895573678
  0
LINE
  5
2E1
100
AcDbEntity
  8
0
100
AcDbLine
 62
7
  6
CONTINUOUS
 10
13.0869765619
 20
2.535859338
 11
13.0869765619
 21
2.564807354
  0
LINE
  5
2E2
100
AcDbEntity
  8
0
100
AcDbLine
 62
7
  6
CONTINUOUS
 10
13.1193185799
 20
2.564807354
 11
13.1193185799
 21
2.4937023146
  0
LINE
  5
2E3
100
AcDbEntity
  8
0
100
AcDbLine
 62
7
  6
CONTINUOUS
 10
13.1422015925
 20
2.5895573678
 11
13.1422015925
 21
2.5697573568
  0
LINE
  5
2E4
100
AcDbEntity
  8
0
100
AcDbLine
 62
7
  6
CONTINUOUS
 10
13.1648416051
 20
2.4937023146
 11
13.1648416051
 21
2.5135023256
  0
LINE
  5
2E5
100
AcDbEntity
  8
0
100
AcDbLine
 62
7
  6
CONTINUOUS
 10
13.1648416051
 20
2.5697573568
 11
13.1648416051
 21
2.5895573678
  0
LINE
  5
2E6
100
AcDbEntity
  8
0
100
AcDbLine
 62
7
  6
CONTINUOUS
 10
13.1937146211
 20
2.5184523283
 11
13.1937146211
 21
2.564807354
  0
LINE
  5
2E7
100
AcDbEntity
  8
0
100
AcDbLine
 62
7
  6
CONTINUOUS
 10
13.2557806555
 20
2.564807354
 11
13.2557806555
 21
2.5532573476
  0
LINE
  5
2E8
100
AcDbEntity
  8
0
100
AcDbLine
 62
7
  6
CONTINUOUS
 10
13.2557806555
 20
2.5300023347
 11
13.2557806555
 21
2.5184523283
  0
LINE
  5
2E9
100
AcDbEntity
  8
0
100
AcDbLine
 62
7
  6
CONTINUOUS
 10
13.2958976778
 20
2.5483073449
 11
13.2958976778
 21
2.5349523375
  0
LINE
  5
2EA
100
AcDbEntity
  8
0
100
AcDbLine
 62
7
  6
CONTINUOUS
 10
12.3907841758
 20
2.5410923409
 11
12.3990241804
 21
2.5458683435
  0
LINE
  5
2EB
100
AcDbEntity
  8
0
100
AcDbLine
 62
7
  6
CONTINUOUS
 10
13.3247706938
 20
2.5565573495
 11
13.3247706938
 21
2.564807354
  0
LINE
  5
2EC
100
AcDbEntity
  8
0
100
AcDbLine
 62
7
  6
CONTINUOUS
 10
13.3257346943
 20
2.5184523283
 11
13.3257346943
 21
2.5267023329
  0
LINE
  5
2ED
100
AcDbEntity
  8
0
100
AcDbLine
 62
7
  6
CONTINUOUS
 10
13.3715847197
 20
2.5895573678
 11
13.3715847197
 21
2.5565573495
  0
LINE
  5
2EE
100
AcDbEntity
  8
0
100
AcDbLine
 62
7
  6
CONTINUOUS
 10
13.3730037205
 20
2.5267023329
 11
13.3730037205
 21
2.4937023146
  0
LINE
  5
2EF
100
AcDbEntity
  8
0
100
AcDbLine
 62
7
  6
CONTINUOUS
 10
13.3969577338
 20
2.4937023146
 11
13.3969577338
 21
2.5135023256
  0
LINE
  5
2F0
100
AcDbEntity
  8
0
100
AcDbLine
 62
7
  6
CONTINUOUS
 10
13.3969577338
 20
2.5697573568
 11
13.3969577338
 21
2.5895573678
  0
LINE
  5
2F1
100
AcDbEntity
  8
0
100
AcDbLine
 62
7
  6
CONTINUOUS
 10
13.4246537492
 20
2.5184523283
 11
13.4246537492
 21
2.564807354
  0
LINE
  5
2F2
100
AcDbEntity
  8
0
100
AcDbLine
 62
7
  6
CONTINUOUS
 10
13.4858697831
 20
2.5281293337
 11
13.4858697831
 21
2.5184303283
  0
LINE
  5
2F3
100
AcDbEntity
  8
0
100
AcDbLine
 62
7
  6
CONTINUOUS
 10
13.4858697831
 20
2.552082347
 11
13.4858697831
 21
2.564807354
  0
LINE
  5
2F4
100
AcDbEntity
  8
0
100
AcDbLine
 62
7
  6
CONTINUOUS
 10
13.5154787995
 20
2.5134803256
 11
13.5154787995
 21
2.4937023146
  0
LINE
  5
2F5
100
AcDbEntity
  8
0
100
AcDbLine
 62
7
  6
CONTINUOUS
 10
13.6146708546
 20
2.525013332
 11
13.6146708546
 21
2.5276393334
  0
LINE
  5
2F6
100
AcDbEntity
  8
0
100
AcDbLine
 62
7
  6
CONTINUOUS
 10
13.631730864
 20
2.5276393334
 11
13.631730864
 21
2.516087327
  0
LINE
  5
2F7
100
AcDbEntity
  8
0
100
AcDbLine
 62
7
  6
CONTINUOUS
 10
13.7286871589
 20
2.5350697372
 11
13.7286871589
 21
2.5456869438
  0
LINE
  5
2F8
100
AcDbEntity
  8
0
100
AcDbLine
 62
7
  6
CONTINUOUS
 10
12.5112392426
 20
2.5908833685
 11
12.4644392167
 21
2.5171263276
  0
LINE
  5
2F9
100
AcDbEntity
  8
0
100
AcDbLine
 62
7
  6
CONTINUOUS
 10
12.5246402501
 20
2.5655893545
 11
12.5175232461
 21
2.5543723483
  0
LINE
  5
2FA
100
AcDbEntity
  8
0
100
AcDbLine
 62
7
  6
CONTINUOUS
 10
12.5034912383
 20
2.5197783291
 11
12.5090072414
 21
2.5284723339
  0
ARC
  5
2FB
100
AcDbEntity
  8
0
100
AcDbCircle
 62
7
  6
CONTINUOUS
 10
12.7943847649
 20
2.4937027294
 40
0.0024754162
100
AcDbArc
 50
226.3593695813
 51
270.0146919953
  0
ARC
  5
2FC
100
AcDbEntity
  8
0
100
AcDbCircle
 62
7
  6
CONTINUOUS
 10
12.2055050712
 20
2.4937023128
 40
0.0024749995
100
AcDbArc
 50
179.9999571957
 51
270.0000428043
  0
ARC
  5
2FD
100
AcDbEntity
  8
0
100
AcDbCircle
 62
7
  6
CONTINUOUS
 10
12.8685904427
 20
2.4937023128
 40
0.0024749995
100
AcDbArc
 50
269.9999571957
 51
0.0000428043
  0
ARC
  5
2FE
100
AcDbEntity
  8
0
100
AcDbCircle
 62
7
  6
CONTINUOUS
 10
12.7480043758
 20
2.4937023128
 40
0.0024749995
100
AcDbArc
 50
269.9999571957
 51
0.0000428043
  0
ARC
  5
2FF
100
AcDbEntity
  8
0
100
AcDbCircle
 62
7
  6
CONTINUOUS
 10
12.6723403301
 20
2.4937023128
 40
0.0024749995
100
AcDbArc
 50
179.9999571957
 51
270.0000428043
  0
ARC
  5
300
100
AcDbEntity
  8
0
100
AcDbCircle
 62
7
  6
CONTINUOUS
 10
12.5371502552
 20
2.4937023128
 40
0.0024749995
100
AcDbArc
 50
179.9999571957
 51
270.0000428043
  0
ARC
  5
301
100
AcDbEntity
  8
0
100
AcDbCircle
 62
7
  6
CONTINUOUS
 10
12.6424313172
 20
2.4937023128
 40
0.0024749995
100
AcDbArc
 50
269.9999571957
 51
0.0000428043
  0
ARC
  5
302
100
AcDbEntity
  8
0
100
AcDbCircle
 62
7
  6
CONTINUOUS
 10
12.439488201
 20
2.4937023128
 40
0.0024749995
100
AcDbArc
 50
179.9999571957
 51
270.0000428043
  0
ARC
  5
303
100
AcDbEntity
  8
0
100
AcDbCircle
 62
7
  6
CONTINUOUS
 10
12.5168642476
 20
2.4937023128
 40
0.0024749995
100
AcDbArc
 50
269.9999571957
 51
0.0000428043
  0
ARC
  5
304
100
AcDbEntity
  8
0
100
AcDbCircle
 62
7
  6
CONTINUOUS
 10
12.371573659
 20
2.5302846524
 40
0.061747717
100
AcDbArc
 50
59.5385584989
 51
90.0050977555
  0
ARC
  5
305
100
AcDbEntity
  8
0
100
AcDbCircle
 62
7
  6
CONTINUOUS
 10
12.3792298263
 20
2.539634765
 40
0.048483885
100
AcDbArc
 50
273.21763719
 51
303.0749121182
  0
ARC
  5
306
100
AcDbEntity
  8
0
100
AcDbCircle
 62
7
  6
CONTINUOUS
 10
12.3931760319
 20
2.5166878286
 40
0.0222174455
100
AcDbArc
 50
4.0793399388
 51
69.834329283
  0
ARC
  5
307
100
AcDbEntity
  8
0
100
AcDbCircle
 62
7
  6
CONTINUOUS
 10
12.3940692204
 20
2.5168671561
 40
0.0213072145
100
AcDbArc
 50
303.0488228549
 51
355.7263138674
  0
ARC
  5
308
100
AcDbEntity
  8
0
100
AcDbCircle
 62
7
  6
CONTINUOUS
 10
12.400005721
 20
2.5168763464
 40
0.0153945295
100
AcDbArc
 50
354.0454548824
 51
5.1878013979
  0
ARC
  5
309
100
AcDbEntity
  8
0
100
AcDbCircle
 62
7
  6
CONTINUOUS
 10
12.3362731456
 20
2.5246398318
 40
0.0086625048
100
AcDbArc
 50
270.0
 51
90.0
  0
ARC
  5
30A
100
AcDbEntity
  8
0
100
AcDbCircle
 62
7
  6
CONTINUOUS
 10
12.5459747223
 20
2.5271458744
 40
0.0024754602
100
AcDbArc
 50
32.8959418573
 51
89.9875097202
  0
ARC
  5
30B
100
AcDbEntity
  8
0
100
AcDbCircle
 62
7
  6
CONTINUOUS
 10
12.4623492858
 20
2.5184525273
 40
0.0024752003
100
AcDbArc
 50
269.9983726451
 51
327.602165307
  0
ARC
  5
30C
100
AcDbEntity
  8
0
100
AcDbCircle
 62
7
  6
CONTINUOUS
 10
12.5110971723
 20
2.5271461342
 40
0.0024752003
100
AcDbArc
 50
89.998372645
 51
147.602165307
  0
ARC
  5
30D
100
AcDbEntity
  8
0
100
AcDbCircle
 62
7
  6
CONTINUOUS
 10
12.5055811302
 20
2.518452367
 40
0.0024750401
100
AcDbArc
 50
147.6063258011
 51
270.0025305754
  0
ARC
  5
30E
100
AcDbEntity
  8
0
100
AcDbCircle
 62
7
  6
CONTINUOUS
 10
12.2294470882
 20
2.5184523265
 40
0.0024749995
100
AcDbArc
 50
269.9999571957
 51
0.0000428043
  0
ARC
  5
30F
100
AcDbEntity
  8
0
100
AcDbCircle
 62
7
  6
CONTINUOUS
 10
12.2055050712
 20
2.5135023274
 40
0.0024749995
100
AcDbArc
 50
89.9999571957
 51
180.0000428043
  0
ARC
  5
310
100
AcDbEntity
  8
0
100
AcDbCircle
 62
7
  6
CONTINUOUS
 10
12.2949101208
 20
2.530827337
 40
0.0024749995
100
AcDbArc
 50
89.9999571957
 51
180.0000428043
  0
ARC
  5
311
100
AcDbEntity
  8
0
100
AcDbCircle
 62
7
  6
CONTINUOUS
 10
12.2949101208
 20
2.5184523265
 40
0.0024749995
100
AcDbArc
 50
179.9999571957
 51
270.0000428043
  0
ARC
  5
312
100
AcDbEntity
  8
0
100
AcDbCircle
 62
7
  6
CONTINUOUS
 10
12.5371502552
 20
2.5135023274
 40
0.0024749995
100
AcDbArc
 50
89.9999571957
 51
180.0000428043
  0
ARC
  5
313
100
AcDbEntity
  8
0
100
AcDbCircle
 62
7
  6
CONTINUOUS
 10
12.439488201
 20
2.5135023274
 40
0.0024749995
100
AcDbArc
 50
89.9999571957
 51
180.0000428043
  0
ARC
  5
314
100
AcDbEntity
  8
0
100
AcDbCircle
 62
7
  6
CONTINUOUS
 10
12.5168642476
 20
2.5135023274
 40
0.0024749995
100
AcDbArc
 50
359.9999571957
 51
90.0000428043
  0
ARC
  5
315
100
AcDbEntity
  8
0
100
AcDbCircle
 62
7
  6
CONTINUOUS
 10
12.3771587979
 20
2.5826952352
 40
0.0428289026
100
AcDbArc
 50
300.6990502959
 51
319.0591802498
  0
ARC
  5
316
100
AcDbEntity
  8
0
100
AcDbCircle
 62
7
  6
CONTINUOUS
 10
12.3922357827
 20
2.5632132173
 40
0.0229166529
100
AcDbArc
 50
20.6563876465
 51
62.3316896973
  0
ARC
  5
317
100
AcDbEntity
  8
0
100
AcDbCircle
 62
7
  6
CONTINUOUS
 10
12.3971873948
 20
2.5665668817
 40
0.0171568255
100
AcDbArc
 50
315.9145124245
 51
16.0049121282
  0
ARC
  5
318
100
AcDbEntity
  8
0
100
AcDbCircle
 62
7
  6
CONTINUOUS
 10
12.3362731456
 20
2.5586198506
 40
0.0086625048
100
AcDbArc
 50
270.0
 51
90.0
  0
ARC
  5
319
100
AcDbEntity
  8
0
100
AcDbCircle
 62
7
  6
CONTINUOUS
 10
12.532910715
 20
2.564262895
 40
0.0024754602
100
AcDbArc
 50
32.8959418573
 51
89.9875097202
  0
ARC
  5
31A
100
AcDbEntity
  8
0
100
AcDbCircle
 62
7
  6
CONTINUOUS
 10
12.5401702375
 20
2.5530465533
 40
0.0024752071
100
AcDbArc
 50
270.0004896793
 51
32.9089806818
  0
ARC
  5
31B
100
AcDbEntity
  8
0
100
AcDbCircle
 62
7
  6
CONTINUOUS
 10
12.5267301809
 20
2.5642631548
 40
0.0024752003
100
AcDbArc
 50
89.998372645
 51
147.602165307
  0
ARC
  5
31C
100
AcDbEntity
  8
0
100
AcDbCircle
 62
7
  6
CONTINUOUS
 10
12.5133291735
 20
2.5895571688
 40
0.0024752003
100
AcDbArc
 50
89.9983726451
 51
147.602165307
  0
ARC
  5
31D
100
AcDbEntity
  8
0
100
AcDbCircle
 62
7
  6
CONTINUOUS
 10
12.519613138
 20
2.5530463862
 40
0.0024750401
100
AcDbArc
 50
147.6063258012
 51
270.0025305754
  0
ARC
  5
31E
100
AcDbEntity
  8
0
100
AcDbCircle
 62
7
  6
CONTINUOUS
 10
12.2055050712
 20
2.5895573696
 40
0.0024749995
100
AcDbArc
 50
89.9999571957
 51
180.0000428043
  0
ARC
  5
31F
100
AcDbEntity
  8
0
100
AcDbCircle
 62
7
  6
CONTINUOUS
 10
12.2055050712
 20
2.5697573549
 40
0.0024749995
100
AcDbArc
 50
179.9999571957
 51
270.0000428043
  0
ARC
  5
320
100
AcDbEntity
  8
0
100
AcDbCircle
 62
7
  6
CONTINUOUS
 10
12.2294470882
 20
2.5648073559
 40
0.0024749995
100
AcDbArc
 50
359.9999571957
 51
90.0000428043
  0
ARC
  5
321
100
AcDbEntity
  8
0
100
AcDbCircle
 62
7
  6
CONTINUOUS
 10
12.2949101208
 20
2.5648073559
 40
0.0024749995
100
AcDbArc
 50
89.9999571957
 51
180.0000428043
  0
ARC
  5
322
100
AcDbEntity
  8
0
100
AcDbCircle
 62
7
  6
CONTINUOUS
 10
12.2949101208
 20
2.5524323453
 40
0.0024749995
100
AcDbArc
 50
179.9999571957
 51
270.0000428043
  0
ARC
  5
323
100
AcDbEntity
  8
0
100
AcDbCircle
 62
7
  6
CONTINUOUS
 10
12.8362481229
 20
2.5358592748
 40
0.0024753014
100
AcDbArc
 50
226.3461263059
 51
0.0014637321
  0
ARC
  5
324
100
AcDbEntity
  8
0
100
AcDbCircle
 62
7
  6
CONTINUOUS
 10
12.7276876627
 20
2.5504984093
 40
0.0024753014
100
AcDbArc
 50
46.3461263059
 51
180.0014637321
  0
ARC
  5
325
100
AcDbEntity
  8
0
100
AcDbCircle
 62
7
  6
CONTINUOUS
 10
12.5516012439
 20
2.5184525341
 40
0.0024752071
100
AcDbArc
 50
270.0004896794
 51
32.9089806818
  0
ARC
  5
326
100
AcDbEntity
  8
0
100
AcDbCircle
 62
7
  6
CONTINUOUS
 10
12.7276873608
 20
2.5184523265
 40
0.0024749995
100
AcDbArc
 50
179.9999571957
 51
270.0000428043
  0
ARC
  5
327
100
AcDbEntity
  8
0
100
AcDbCircle
 62
7
  6
CONTINUOUS
 10
12.7480043758
 20
2.5135023274
 40
0.0024749995
100
AcDbArc
 50
359.9999571957
 51
90.0000428043
  0
ARC
  5
328
100
AcDbEntity
  8
0
100
AcDbCircle
 62
7
  6
CONTINUOUS
 10
12.6723403301
 20
2.5135023274
 40
0.0024749995
100
AcDbArc
 50
89.9999571957
 51
180.0000428043
  0
ARC
  5
329
100
AcDbEntity
  8
0
100
AcDbCircle
 62
7
  6
CONTINUOUS
 10
12.6909873442
 20
2.5184523265
 40
0.0024749995
100
AcDbArc
 50
269.9999571957
 51
0.0000428043
  0
ARC
  5
32A
100
AcDbEntity
  8
0
100
AcDbCircle
 62
7
  6
CONTINUOUS
 10
12.6424313172
 20
2.5135023274
 40
0.0024749995
100
AcDbArc
 50
359.9999571957
 51
90.0000428043
  0
ARC
  5
32B
100
AcDbEntity
  8
0
100
AcDbCircle
 62
7
  6
CONTINUOUS
 10
12.6224154248
 20
2.518451368
 40
0.002474041
100
AcDbArc
 50
212.9056413127
 51
269.9972091756
  0
ARC
  5
32C
100
AcDbEntity
  8
0
100
AcDbCircle
 62
7
  6
CONTINUOUS
 10
12.8362484247
 20
2.5648073559
 40
0.0024749995
100
AcDbArc
 50
359.9999571957
 51
90.0000428043
  0
ARC
  5
32D
100
AcDbEntity
  8
0
100
AcDbCircle
 62
7
  6
CONTINUOUS
 10
12.8174724106
 20
2.5697573549
 40
0.0024749995
100
AcDbArc
 50
179.9999571957
 51
270.0000428043
  0
ARC
  5
32E
100
AcDbEntity
  8
0
100
AcDbCircle
 62
7
  6
CONTINUOUS
 10
12.8174724106
 20
2.5895573696
 40
0.0024749995
100
AcDbArc
 50
89.9999571957
 51
180.0000428043
  0
ARC
  5
32F
100
AcDbEntity
  8
0
100
AcDbCircle
 62
7
  6
CONTINUOUS
 10
12.8914734553
 20
2.5895573696
 40
0.0024749995
100
AcDbArc
 50
359.9999571957
 51
90.0000428043
  0
ARC
  5
330
100
AcDbEntity
  8
0
100
AcDbCircle
 62
7
  6
CONTINUOUS
 10
12.8914734553
 20
2.5697573549
 40
0.0024749995
100
AcDbArc
 50
269.9999571957
 51
0.0000428043
  0
ARC
  5
331
100
AcDbEntity
  8
0
100
AcDbCircle
 62
7
  6
CONTINUOUS
 10
12.8735404417
 20
2.5648073559
 40
0.0024749995
100
AcDbArc
 50
89.9999571957
 51
180.0000428043
  0
ARC
  5
332
100
AcDbEntity
  8
0
100
AcDbCircle
 62
7
  6
CONTINUOUS
 10
12.6909873442
 20
2.5648073559
 40
0.0024749995
100
AcDbArc
 50
359.9999571957
 51
90.0000428043
  0
ARC
  5
333
100
AcDbEntity
  8
0
100
AcDbCircle
 62
7
  6
CONTINUOUS
 10
12.6723403301
 20
2.5697573549
 40
0.0024749995
100
AcDbArc
 50
179.9999571957
 51
270.0000428043
  0
ARC
  5
334
100
AcDbEntity
  8
0
100
AcDbCircle
 62
7
  6
CONTINUOUS
 10
12.6723403301
 20
2.5895573696
 40
0.0024749995
100
AcDbArc
 50
89.9999571957
 51
180.0000428043
  0
ARC
  5
335
100
AcDbEntity
  8
0
100
AcDbCircle
 62
7
  6
CONTINUOUS
 10
12.570504655
 20
2.589557409
 40
0.0024749602
100
AcDbArc
 50
32.9172174468
 51
90.0087853097
  0
ARC
  5
336
100
AcDbEntity
  8
0
100
AcDbCircle
 62
7
  6
CONTINUOUS
 10
12.7727985224
 20
2.5895582013
 40
0.0024741678
100
AcDbArc
 50
46.3477981899
 51
90.0031206038
  0
ARC
  5
337
100
AcDbEntity
  8
0
100
AcDbCircle
 62
7
  6
CONTINUOUS
 10
13.5463505148
 20
2.4094934586
 40
0.1825583387
100
AcDbArc
 50
79.8618509324
 51
89.1640948679
  0
ARC
  5
338
100
AcDbEntity
  8
0
100
AcDbCircle
 62
7
  6
CONTINUOUS
 10
13.5282557878
 20
2.4386010294
 40
0.117346916
100
AcDbArc
 50
58.614769177
 51
62.3737227606
  0
ARC
  5
339
100
AcDbEntity
  8
0
100
AcDbCircle
 62
7
  6
CONTINUOUS
 10
13.5571178432
 20
2.509473798
 40
0.0459185159
100
AcDbArc
 50
15.6740290068
 51
20.9917271228
  0
ARC
  5
33A
100
AcDbEntity
  8
0
100
AcDbCircle
 62
7
  6
CONTINUOUS
 10
13.4974076135
 20
2.5055452462
 40
0.0396099176
100
AcDbArc
 50
14.3201081283
 51
22.4984722084
  0
ARC
  5
33B
100
AcDbEntity
  8
0
100
AcDbCircle
 62
7
  6
CONTINUOUS
 10
13.5161192671
 20
2.5062372524
 40
0.0243676582
100
AcDbArc
 50
63.3666028271
 51
90.3937697637
  0
ARC
  5
33C
100
AcDbEntity
  8
0
100
AcDbCircle
 62
7
  6
CONTINUOUS
 10
13.6036139387
 20
2.5111006186
 40
0.0198837666
100
AcDbArc
 50
271.8586572978
 51
289.4131338543
  0
ARC
  5
33D
100
AcDbEntity
  8
0
100
AcDbCircle
 62
7
  6
CONTINUOUS
 10
13.5577001432
 20
2.5085494649
 40
0.0173408616
100
AcDbArc
 50
232.4713476722
 51
267.338189944
  0
ARC
  5
33E
100
AcDbEntity
  8
0
100
AcDbCircle
 62
7
  6
CONTINUOUS
 10
13.5130038
 20
2.4937023128
 40
0.0024749995
100
AcDbArc
 50
269.9999571957
 51
0.0000428043
  0
ARC
  5
33F
100
AcDbEntity
  8
0
100
AcDbCircle
 62
7
  6
CONTINUOUS
 10
13.3994327333
 20
2.4937023128
 40
0.0024749995
100
AcDbArc
 50
179.9999571957
 51
270.0000428043
  0
ARC
  5
340
100
AcDbEntity
  8
0
100
AcDbCircle
 62
7
  6
CONTINUOUS
 10
13.1168435803
 20
2.4937023128
 40
0.0024749995
100
AcDbArc
 50
269.9999571957
 51
0.0000428043
  0
ARC
  5
341
100
AcDbEntity
  8
0
100
AcDbCircle
 62
7
  6
CONTINUOUS
 10
12.9962575135
 20
2.4937023128
 40
0.0024749995
100
AcDbArc
 50
269.9999571957
 51
0.0000428043
  0
ARC
  5
342
100
AcDbEntity
  8
0
100
AcDbCircle
 62
7
  6
CONTINUOUS
 10
12.9205934678
 20
2.4937023128
 40
0.0024749995
100
AcDbArc
 50
179.9999571957
 51
270.0000428043
  0
ARC
  5
343
100
AcDbEntity
  8
0
100
AcDbCircle
 62
7
  6
CONTINUOUS
 10
13.370528721
 20
2.4937023128
 40
0.0024749995
100
AcDbArc
 50
269.9999571957
 51
0.0000428043
  0
ARC
  5
344
100
AcDbEntity
  8
0
100
AcDbCircle
 62
7
  6
CONTINUOUS
 10
13.1673166046
 20
2.4937023128
 40
0.0024749995
100
AcDbArc
 50
179.9999571957
 51
270.0000428043
  0
ARC
  5
345
100
AcDbEntity
  8
0
100
AcDbCircle
 62
7
  6
CONTINUOUS
 10
13.0426374026
 20
2.493701481
 40
0.0024741678
100
AcDbArc
 50
226.3477981898
 51
270.0031206038
  0
ARC
  5
346
100
AcDbEntity
  8
0
100
AcDbCircle
 62
7
  6
CONTINUOUS
 10
13.0845012605
 20
2.5358592748
 40
0.0024753014
100
AcDbArc
 50
226.3461263059
 51
0.0014637321
  0
ARC
  5
347
100
AcDbEntity
  8
0
100
AcDbCircle
 62
7
  6
CONTINUOUS
 10
12.9759408003
 20
2.5504984093
 40
0.0024753014
100
AcDbArc
 50
46.3461263059
 51
180.0014637321
  0
ARC
  5
348
100
AcDbEntity
  8
0
100
AcDbCircle
 62
7
  6
CONTINUOUS
 10
12.9759404985
 20
2.5184523265
 40
0.0024749995
100
AcDbArc
 50
179.9999571957
 51
270.0000428043
  0
ARC
  5
349
100
AcDbEntity
  8
0
100
AcDbCircle
 62
7
  6
CONTINUOUS
 10
12.9962575135
 20
2.5135023274
 40
0.0024749995
100
AcDbArc
 50
359.9999571957
 51
90.0000428043
  0
ARC
  5
34A
100
AcDbEntity
  8
0
100
AcDbCircle
 62
7
  6
CONTINUOUS
 10
12.9205934678
 20
2.5135023274
 40
0.0024749995
100
AcDbArc
 50
89.9999571957
 51
180.0000428042
  0
ARC
  5
34B
100
AcDbEntity
  8
0
100
AcDbCircle
 62
7
  6
CONTINUOUS
 10
12.9392394818
 20
2.5184523265
 40
0.0024749995
100
AcDbArc
 50
269.9999571957
 51
0.0000428043
  0
ARC
  5
34C
100
AcDbEntity
  8
0
100
AcDbCircle
 62
7
  6
CONTINUOUS
 10
13.2582556551
 20
2.5300023366
 40
0.0024749995
100
AcDbArc
 50
89.9999571957
 51
180.0000428043
  0
ARC
  5
34D
100
AcDbEntity
  8
0
100
AcDbCircle
 62
7
  6
CONTINUOUS
 10
13.2582556551
 20
2.5184523265
 40
0.0024749995
100
AcDbArc
 50
179.9999571957
 51
270.0000428043
  0
ARC
  5
34E
100
AcDbEntity
  8
0
100
AcDbCircle
 62
7
  6
CONTINUOUS
 10
13.1673166046
 20
2.5135023274
 40
0.0024749995
100
AcDbArc
 50
89.9999571957
 51
180.0000428043
  0
ARC
  5
34F
100
AcDbEntity
  8
0
100
AcDbCircle
 62
7
  6
CONTINUOUS
 10
13.1912396216
 20
2.5184523265
 40
0.0024749995
100
AcDbArc
 50
269.9999571957
 51
0.0000428042
  0
ARC
  5
350
100
AcDbEntity
  8
0
100
AcDbCircle
 62
7
  6
CONTINUOUS
 10
13.2582556551
 20
2.5532573458
 40
0.0024749995
100
AcDbArc
 50
179.9999571957
 51
270.0000428043
  0
ARC
  5
351
100
AcDbEntity
  8
0
100
AcDbCircle
 62
7
  6
CONTINUOUS
 10
13.0845015624
 20
2.5648073559
 40
0.0024749995
100
AcDbArc
 50
359.9999571957
 51
90.0000428043
  0
ARC
  5
352
100
AcDbEntity
  8
0
100
AcDbCircle
 62
7
  6
CONTINUOUS
 10
13.0657255483
 20
2.5697573549
 40
0.0024749995
100
AcDbArc
 50
179.9999571957
 51
270.0000428043
  0
ARC
  5
353
100
AcDbEntity
  8
0
100
AcDbCircle
 62
7
  6
CONTINUOUS
 10
13.0657255483
 20
2.5895573696
 40
0.0024749995
100
AcDbArc
 50
89.9999571957
 51
180.0000428043
  0
ARC
  5
354
100
AcDbEntity
  8
0
100
AcDbCircle
 62
7
  6
CONTINUOUS
 10
13.139726593
 20
2.5895573696
 40
0.0024749995
100
AcDbArc
 50
359.9999571957
 51
90.0000428043
  0
ARC
  5
355
100
AcDbEntity
  8
0
100
AcDbCircle
 62
7
  6
CONTINUOUS
 10
13.139726593
 20
2.5697573549
 40
0.0024749995
100
AcDbArc
 50
269.9999571957
 51
0.0000428042
  0
ARC
  5
356
100
AcDbEntity
  8
0
100
AcDbCircle
 62
7
  6
CONTINUOUS
 10
13.1217935794
 20
2.5648073559
 40
0.0024749995
100
AcDbArc
 50
89.9999571957
 51
180.0000428042
  0
ARC
  5
357
100
AcDbEntity
  8
0
100
AcDbCircle
 62
7
  6
CONTINUOUS
 10
12.9392394818
 20
2.5648073559
 40
0.0024749995
100
AcDbArc
 50
359.9999571957
 51
90.0000428043
  0
ARC
  5
358
100
AcDbEntity
  8
0
100
AcDbCircle
 62
7
  6
CONTINUOUS
 10
12.9205934678
 20
2.5697573549
 40
0.0024749995
100
AcDbArc
 50
179.9999571957
 51
270.0000428043
  0
ARC
  5
359
100
AcDbEntity
  8
0
100
AcDbCircle
 62
7
  6
CONTINUOUS
 10
12.9205934678
 20
2.5895573696
 40
0.0024749995
100
AcDbArc
 50
89.9999571957
 51
180.0000428042
  0
ARC
  5
35A
100
AcDbEntity
  8
0
100
AcDbCircle
 62
7
  6
CONTINUOUS
 10
13.1912396216
 20
2.5648073559
 40
0.0024749995
100
AcDbArc
 50
359.9999571957
 51
90.0000428043
  0
ARC
  5
35B
100
AcDbEntity
  8
0
100
AcDbCircle
 62
7
  6
CONTINUOUS
 10
13.1673166046
 20
2.5697573549
 40
0.0024749995
100
AcDbArc
 50
179.9999571957
 51
270.0000428043
  0
ARC
  5
35C
100
AcDbEntity
  8
0
100
AcDbCircle
 62
7
  6
CONTINUOUS
 10
13.1673166046
 20
2.5895573696
 40
0.0024749995
100
AcDbArc
 50
89.9999571957
 51
180.0000428043
  0
ARC
  5
35D
100
AcDbEntity
  8
0
100
AcDbCircle
 62
7
  6
CONTINUOUS
 10
13.2582556551
 20
2.5648073559
 40
0.0024749995
100
AcDbArc
 50
89.9999571957
 51
180.0000428043
  0
ARC
  5
35E
100
AcDbEntity
  8
0
100
AcDbCircle
 62
7
  6
CONTINUOUS
 10
13.0210516601
 20
2.5895582013
 40
0.0024741678
100
AcDbArc
 50
46.3477981899
 51
90.0031206038
  0
ARC
  5
35F
100
AcDbEntity
  8
0
100
AcDbCircle
 62
7
  6
CONTINUOUS
 10
13.5806801742
 20
2.5212486481
 40
0.044722495
100
AcDbArc
 50
195.531588407
 51
204.7624440448
  0
ARC
  5
360
100
AcDbEntity
  8
0
100
AcDbCircle
 62
7
  6
CONTINUOUS
 10
13.5726548052
 20
2.5503169747
 40
0.039319019
100
AcDbArc
 50
59.1202086415
 51
81.4730239328
  0
ARC
  5
361
100
AcDbEntity
  8
0
100
AcDbCircle
 62
7
  6
CONTINUOUS
 10
13.5978759713
 20
2.5286873679
 40
0.0383802683
100
AcDbArc
 50
288.7656836787
 51
309.6104317088
  0
ARC
  5
362
100
AcDbEntity
  8
0
100
AcDbCircle
 62
7
  6
CONTINUOUS
 10
13.5783142014
 20
2.5566516438
 40
0.0310192946
100
AcDbArc
 50
34.7540871
 51
62.0879016178
  0
ARC
  5
363
100
AcDbEntity
  8
0
100
AcDbCircle
 62
7
  6
CONTINUOUS
 10
13.5236009174
 20
2.5388278764
 40
0.0284963867
100
AcDbArc
 50
70.3834917948
 51
86.8922743861
  0
ARC
  5
364
100
AcDbEntity
  8
0
100
AcDbCircle
 62
7
  6
CONTINUOUS
 10
13.6048681567
 20
2.5210861501
 40
0.0280715479
100
AcDbArc
 50
308.5071794988
 51
332.24006569
  0
ARC
  5
365
100
AcDbEntity
  8
0
100
AcDbCircle
 62
7
  6
CONTINUOUS
 10
13.5750183849
 20
2.5166552064
 40
0.0266349791
100
AcDbArc
 50
20.3630922153
 51
37.9727053099
  0
ARC
  5
366
100
AcDbEntity
  8
0
100
AcDbCircle
 62
7
  6
CONTINUOUS
 10
13.5761387404
 20
2.5167282896
 40
0.0257145923
100
AcDbArc
 50
39.3804255939
 51
59.0361096173
  0
ARC
  5
367
100
AcDbEntity
  8
0
100
AcDbCircle
 62
7
  6
CONTINUOUS
 10
13.5607987082
 20
2.5143997688
 40
0.0238935861
100
AcDbArc
 50
209.8247607259
 51
235.1255079367
  0
ARC
  5
368
100
AcDbEntity
  8
0
100
AcDbCircle
 62
7
  6
CONTINUOUS
 10
13.6141751675
 20
2.5161916447
 40
0.0175560065
100
AcDbArc
 50
332.2279060967
 51
359.6595469939
  0
ARC
  5
369
100
AcDbEntity
  8
0
100
AcDbCircle
 62
7
  6
CONTINUOUS
 10
13.5201739219
 20
2.5145168728
 40
0.0151491919
100
AcDbArc
 50
24.098260853
 51
63.0369451818
  0
ARC
  5
36A
100
AcDbEntity
  8
0
100
AcDbCircle
 62
7
  6
CONTINUOUS
 10
13.6156881783
 20
2.525116781
 40
0.0147197649
100
AcDbArc
 50
192.7054516565
 51
206.0594861022
  0
ARC
  5
36B
100
AcDbEntity
  8
0
100
AcDbCircle
 62
7
  6
CONTINUOUS
 10
13.5284605274
 20
2.5518696094
 40
0.0145814632
100
AcDbArc
 50
54.6746025112
 51
71.1660573124
  0
ARC
  5
36C
100
AcDbEntity
  8
0
100
AcDbCircle
 62
7
  6
CONTINUOUS
 10
13.6063292954
 20
2.5296129864
 40
0.0132488022
100
AcDbArc
 50
270.266200055
 51
281.2404888597
  0
ARC
  5
36D
100
AcDbEntity
  8
0
100
AcDbCircle
 62
7
  6
CONTINUOUS
 10
13.6027235414
 20
2.524769508
 40
0.0119498009
100
AcDbArc
 50
340.7883861657
 51
1.1691452593
  0
ARC
  5
36E
100
AcDbEntity
  8
0
100
AcDbCircle
 62
7
  6
CONTINUOUS
 10
13.5295131508
 20
2.5629115009
 40
0.0110815393
100
AcDbArc
 50
306.758405961
 51
320.4502234234
  0
ARC
  5
36F
100
AcDbEntity
  8
0
100
AcDbCircle
 62
7
  6
CONTINUOUS
 10
13.6075235364
 20
2.5238762928
 40
0.0073895522
100
AcDbArc
 50
280.8288201977
 51
305.0837508495
  0
ARC
  5
370
100
AcDbEntity
  8
0
100
AcDbCircle
 62
7
  6
CONTINUOUS
 10
13.607924718
 20
2.5230254464
 40
0.0064647042
100
AcDbArc
 50
306.5086174083
 51
340.2162360092
  0
ARC
  5
371
100
AcDbEntity
  8
0
100
AcDbCircle
 62
7
  6
CONTINUOUS
 10
13.5335900184
 20
2.5587235346
 40
0.0060275915
100
AcDbArc
 50
20.9055592135
 51
56.7851676243
  0
ARC
  5
372
100
AcDbEntity
  8
0
100
AcDbCircle
 62
7
  6
CONTINUOUS
 10
13.533683767
 20
2.559677593
 40
0.0058087709
100
AcDbArc
 50
318.8515287446
 51
353.6422345323
  0
ARC
  5
373
100
AcDbEntity
  8
0
100
AcDbCircle
 62
7
  6
CONTINUOUS
 10
13.6071938412
 20
2.5209082945
 40
0.0052403997
100
AcDbArc
 50
205.5232099488
 51
227.5054868079
  0
ARC
  5
374
100
AcDbEntity
  8
0
100
AcDbCircle
 62
7
  6
CONTINUOUS
 10
13.5348905773
 20
2.5593838168
 40
0.0045795888
100
AcDbArc
 50
355.6235353944
 51
18.9942678268
  0
ARC
  5
375
100
AcDbEntity
  8
0
100
AcDbCircle
 62
7
  6
CONTINUOUS
 10
13.6054655419
 20
2.5190929218
 40
0.0027347709
100
AcDbArc
 50
228.5117626737
 51
266.1485845754
  0
ARC
  5
376
100
AcDbEntity
  8
0
100
AcDbCircle
 62
7
  6
CONTINUOUS
 10
13.4883447827
 20
2.5281293355
 40
0.0024749995
100
AcDbArc
 50
89.9999571957
 51
180.0000428043
  0
ARC
  5
377
100
AcDbEntity
  8
0
100
AcDbCircle
 62
7
  6
CONTINUOUS
 10
13.4883447827
 20
2.5184303265
 40
0.0024749995
100
AcDbArc
 50
179.9999571957
 51
270.0000428043
  0
ARC
  5
378
100
AcDbEntity
  8
0
100
AcDbCircle
 62
7
  6
CONTINUOUS
 10
13.5130038
 20
2.5134803274
 40
0.0024749995
100
AcDbArc
 50
359.9999571957
 51
90.0000428043
  0
ARC
  5
379
100
AcDbEntity
  8
0
100
AcDbCircle
 62
7
  6
CONTINUOUS
 10
13.3994327333
 20
2.5135023274
 40
0.0024749995
100
AcDbArc
 50
89.9999571957
 51
180.0000428043
  0
ARC
  5
37A
100
AcDbEntity
  8
0
100
AcDbCircle
 62
7
  6
CONTINUOUS
 10
13.4221787497
 20
2.5184523265
 40
0.0024749995
100
AcDbArc
 50
269.9999571957
 51
0.0000428042
  0
ARC
  5
37B
100
AcDbEntity
  8
0
100
AcDbCircle
 62
7
  6
CONTINUOUS
 10
13.6171458541
 20
2.5276393353
 40
0.0024749995
100
AcDbArc
 50
89.9999571957
 51
180.0000428043
  0
ARC
  5
37C
100
AcDbEntity
  8
0
100
AcDbCircle
 62
7
  6
CONTINUOUS
 10
13.6292558645
 20
2.5276393353
 40
0.0024749995
100
AcDbArc
 50
359.9999571957
 51
90.0000428043
  0
ARC
  5
37D
100
AcDbEntity
  8
0
100
AcDbCircle
 62
7
  6
CONTINUOUS
 10
13.4883447827
 20
2.5520823451
 40
0.0024749995
100
AcDbArc
 50
179.9999571957
 51
270.0000428043
  0
ARC
  5
37E
100
AcDbEntity
  8
0
100
AcDbCircle
 62
7
  6
CONTINUOUS
 10
13.3232596948
 20
2.5184523265
 40
0.0024749995
100
AcDbArc
 50
269.9999571957
 51
0.0000428043
  0
ARC
  5
37F
100
AcDbEntity
  8
0
100
AcDbCircle
 62
7
  6
CONTINUOUS
 10
13.3282096938
 20
2.5267023348
 40
0.0024749995
100
AcDbArc
 50
89.9999571957
 51
180.0000428043
  0
ARC
  5
380
100
AcDbEntity
  8
0
100
AcDbCircle
 62
7
  6
CONTINUOUS
 10
13.370528721
 20
2.5267023348
 40
0.0024749995
100
AcDbArc
 50
359.9999571957
 51
90.0000428043
  0
ARC
  5
381
100
AcDbEntity
  8
0
100
AcDbCircle
 62
7
  6
CONTINUOUS
 10
13.3691097202
 20
2.5565573476
 40
0.0024749995
100
AcDbArc
 50
269.9999571957
 51
0.0000428042
  0
ARC
  5
382
100
AcDbEntity
  8
0
100
AcDbCircle
 62
7
  6
CONTINUOUS
 10
13.3272456933
 20
2.5565573476
 40
0.0024749995
100
AcDbArc
 50
179.9999571957
 51
270.0000428043
  0
ARC
  5
383
100
AcDbEntity
  8
0
100
AcDbCircle
 62
7
  6
CONTINUOUS
 10
13.2934226783
 20
2.5483073467
 40
0.0024749995
100
AcDbArc
 50
359.9999571957
 51
90.0000428043
  0
ARC
  5
384
100
AcDbEntity
  8
0
100
AcDbCircle
 62
7
  6
CONTINUOUS
 10
13.2934226783
 20
2.5349523356
 40
0.0024749995
100
AcDbArc
 50
269.9999571957
 51
0.0000428042
  0
ARC
  5
385
100
AcDbEntity
  8
0
100
AcDbCircle
 62
7
  6
CONTINUOUS
 10
13.5519569538
 20
2.6152551345
 40
0.0789082104
100
AcDbArc
 50
292.906155071
 51
305.2574666259
  0
ARC
  5
386
100
AcDbEntity
  8
0
100
AcDbCircle
 62
7
  6
CONTINUOUS
 10
13.5822888914
 20
2.5720482849
 40
0.0261183659
100
AcDbArc
 50
305.6373831893
 51
329.9727629745
  0
ARC
  5
387
100
AcDbEntity
  8
0
100
AcDbCircle
 62
7
  6
CONTINUOUS
 10
13.5219564542
 20
2.5750459767
 40
0.0254407115
100
AcDbArc
 50
270.7327484175
 51
290.441894219
  0
ARC
  5
388
100
AcDbEntity
  8
0
100
AcDbCircle
 62
7
  6
CONTINUOUS
 10
13.5238839599
 20
2.5706523294
 40
0.0206523367
100
AcDbArc
 50
289.6883413472
 51
306.4184925496
  0
ARC
  5
389
100
AcDbEntity
  8
0
100
AcDbCircle
 62
7
  6
CONTINUOUS
 10
13.5900029525
 20
2.565201245
 40
0.0165459396
100
AcDbArc
 50
1.548452892
 51
33.5033152417
  0
ARC
  5
38A
100
AcDbEntity
  8
0
100
AcDbCircle
 62
7
  6
CONTINUOUS
 10
13.5932995477
 20
2.5653696972
 40
0.0132462337
100
AcDbArc
 50
331.1510006998
 51
1.205404301
  0
ARC
  5
38B
100
AcDbEntity
  8
0
100
AcDbCircle
 62
7
  6
CONTINUOUS
 10
13.4221787497
 20
2.5648073559
 40
0.0024749995
100
AcDbArc
 50
359.9999571957
 51
90.0000428043
  0
ARC
  5
38C
100
AcDbEntity
  8
0
100
AcDbCircle
 62
7
  6
CONTINUOUS
 10
13.3994327333
 20
2.5697573549
 40
0.0024749995
100
AcDbArc
 50
179.9999571957
 51
270.0000428043
  0
ARC
  5
38D
100
AcDbEntity
  8
0
100
AcDbCircle
 62
7
  6
CONTINUOUS
 10
13.3994327333
 20
2.5895573696
 40
0.0024749995
100
AcDbArc
 50
89.9999571957
 51
180.0000428043
  0
ARC
  5
38E
100
AcDbEntity
  8
0
100
AcDbCircle
 62
7
  6
CONTINUOUS
 10
13.4883447827
 20
2.5648073559
 40
0.0024749995
100
AcDbArc
 50
89.9999571957
 51
180.0000428043
  0
ARC
  5
38F
100
AcDbEntity
  8
0
100
AcDbCircle
 62
7
  6
CONTINUOUS
 10
13.3691097202
 20
2.5895573696
 40
0.0024749995
100
AcDbArc
 50
359.9999571957
 51
90.0000428043
  0
ARC
  5
390
100
AcDbEntity
  8
0
100
AcDbCircle
 62
7
  6
CONTINUOUS
 10
13.3222956943
 20
2.5648073559
 40
0.0024749995
100
AcDbArc
 50
359.9999571957
 51
90.0000428043
  0
ELLIPSE
  5
391
100
AcDbEntity
  8
0
100
AcDbEllipse
 62
7
  6
CONTINUOUS
 10
12.9046654608
 20
2.5403783405
 30
0.0
 11
-0.8250004575
 21
0.0
 31
0.0
 40
0.218572
 41
0.0
 42
6.2831853072
  0
HATCH
  5
392
100
AcDbEntity
  8
0
100
AcDbHatch
 62
7
  6
CONTINUOUS
 10
0.0
 20
0.0
 30
0.0
210
0.0
220
0.0
230
1.0
  2
XSEC0001
 70
1
 71
1
 91
11
 92
1
 93
57
 72
2
 10
13.5577001432
 20
2.5085494649
 40
0.0173408616
 50
232.4713476722
 51
267.338189944
 73
1
 72
2
 10
13.5607987082
 20
2.5143997688
 40
0.0238935861
 50
209.8247607259
 51
235.1255079367
 73
1
 72
2
 10
13.5806801742
 20
2.5212486481
 40
0.044722495
 50
195.531588407
 51
204.7624440448
 73
1
 72
1
 10
13.5375908118
 20
2.5092733232
 11
13.5357868108
 21
2.5153423266
 72
2
 10
13.4974076135
 20
2.5055452462
 40
0.0396099176
 50
14.3201081283
 51
22.4984722084
 73
1
 72
2
 10
13.5201739219
 20
2.5145168728
 40
0.0151491919
 50
24.098260853
 51
63.0369451818
 73
1
 72
2
 10
13.5161192671
 20
2.5062372524
 40
0.0243676582
 50
63.3666028271
 51
90.3937697637
 73
1
 72
1
 10
13.5159517998
 20
2.5306043351
 11
13.4883447845
 21
2.5306043351
 72
2
 10
13.4883447827
 20
2.5281293355
 40
0.0024749995
 50
89.9999571958
 51
180.0000428043
 73
1
 72
1
 10
13.4858697831
 20
2.5281293337
 11
13.4858697831
 21
2.5184303283
 72
2
 10
13.4883447827
 20
2.5184303265
 40
0.0024749995
 50
179.9999571957
 51
270.0000428042
 73
1
 72
1
 10
13.4883447845
 20
2.5159553269
 11
13.5130037982
 21
2.5159553269
 72
2
 10
13.5130038
 20
2.5134803274
 40
0.0024749995
 50
359.9999571957
 51
90.0000428042
 73
1
 72
1
 10
13.5154787995
 20
2.5134803256
 11
13.5154787995
 21
2.4937023146
 72
2
 10
13.5130038
 20
2.4937023128
 40
0.0024749995
 50
269.9999571958
 51
0.0000428043
 73
1
 72
1
 10
13.5130037982
 20
2.4912273132
 11
13.3994327352
 21
2.4912273132
 72
2
 10
13.3994327333
 20
2.4937023128
 40
0.0024749995
 50
179.9999571957
 51
270.0000428043
 73
1
 72
1
 10
13.3969577338
 20
2.4937023146
 11
13.3969577338
 21
2.5135023256
 72
2
 10
13.3994327333
 20
2.5135023274
 40
0.0024749995
 50
89.9999571957
 51
180.0000428043
 73
1
 72
1
 10
13.3994327352
 20
2.515977327
 11
13.4221787478
 21
2.515977327
 72
2
 10
13.4221787497
 20
2.5184523265
 40
0.0024749995
 50
269.9999571956
 51
0.0000428042
 73
1
 72
1
 10
13.4246537492
 20
2.5184523283
 11
13.4246537492
 21
2.564807354
 72
2
 10
13.4221787497
 20
2.5648073559
 40
0.0024749995
 50
359.9999571957
 51
90.0000428043
 73
1
 72
1
 10
13.4221787478
 20
2.5672823554
 11
13.3994327352
 21
2.5672823554
 72
2
 10
13.3994327333
 20
2.5697573549
 40
0.0024749995
 50
179.9999571957
 51
270.0000428043
 73
1
 72
1
 10
13.3969577338
 20
2.5697573568
 11
13.3969577338
 21
2.5895573678
 72
2
 10
13.3994327333
 20
2.5895573696
 40
0.0024749995
 50
89.9999571957
 51
180.0000428043
 73
1
 72
1
 10
13.3994327352
 20
2.5920323691
 11
13.5490138181
 21
2.5920323691
 72
2
 10
13.5463505148
 20
2.4094934586
 40
0.1825583387
 50
79.8618509324
 51
89.1640948679
 73
1
 72
2
 10
13.5726548052
 20
2.5503169747
 40
0.039319019
 50
59.1202086415
 51
81.4730239328
 73
1
 72
2
 10
13.5783142014
 20
2.5566516438
 40
0.0310192946
 50
34.7540871
 51
62.0879016178
 73
1
 72
2
 10
13.5900029525
 20
2.565201245
 40
0.0165459396
 50
1.548452892
 51
33.5033152417
 73
1
 72
2
 10
13.5932995477
 20
2.5653696972
 40
0.0132462337
 50
331.1510006998
 51
1.205404301
 73
1
 72
2
 10
13.5822888914
 20
2.5720482849
 40
0.0261183659
 50
305.6373831893
 51
329.9727629745
 73
1
 72
2
 10
13.5519569538
 20
2.6152551345
 40
0.0789082104
 50
292.906155071
 51
305.2574666259
 73
1
 72
2
 10
13.5282557878
 20
2.4386010294
 40
0.117346916
 50
58.614769177
 51
62.3737227606
 73
1
 72
2
 10
13.5761387404
 20
2.5167282896
 40
0.0257145923
 50
39.3804255939
 51
59.0361096173
 73
1
 72
2
 10
13.5750183849
 20
2.5166552064
 40
0.0266349791
 50
20.3630922153
 51
37.9727053099
 73
1
 72
2
 10
13.5571178432
 20
2.509473798
 40
0.0459185159
 50
15.6740290068
 51
20.9917271228
 73
1
 72
2
 10
13.6156881783
 20
2.525116781
 40
0.0147197649
 50
192.7054516565
 51
206.0594861022
 73
1
 72
2
 10
13.6071938412
 20
2.5209082945
 40
0.0052403997
 50
205.5232099488
 51
227.5054868079
 73
1
 72
2
 10
13.6054655419
 20
2.5190929218
 40
0.0027347709
 50
228.5117626737
 51
266.1485845754
 73
1
 72
1
 10
13.6052818493
 20
2.5163643272
 11
13.60639085
 21
2.5163643272
 72
2
 10
13.6063292954
 20
2.5296129864
 40
0.0132488022
 50
270.266200055
 51
281.2404888597
 73
1
 72
2
 10
13.6075235364
 20
2.5238762928
 40
0.0073895522
 50
280.8288201977
 51
305.0837508495
 73
1
 72
2
 10
13.607924718
 20
2.5230254464
 40
0.0064647042
 50
306.5086174083
 51
340.2162360092
 73
1
 72
2
 10
13.6027235414
 20
2.524769508
 40
0.0119498009
 50
340.7883861657
 51
1.1691452593
 73
1
 72
1
 10
13.6146708546
 20
2.525013332
 11
13.6146708546
 21
2.5276393334
 72
2
 10
13.6171458541
 20
2.5276393353
 40
0.0024749995
 50
89.9999571958
 51
180.0000428043
 73
1
 72
1
 10
13.6171458559
 20
2.5301143348
 11
13.6292558626
 21
2.5301143348
 72
2
 10
13.6292558645
 20
2.5276393353
 40
0.0024749995
 50
359.9999571957
 51
90.0000428042
 73
1
 72
1
 10
13.631730864
 20
2.5276393334
 11
13.631730864
 21
2.516087327
 72
2
 10
13.6141751675
 20
2.5161916447
 40
0.0175560065
 50
332.2279060967
 51
359.6595469939
 73
1
 72
2
 10
13.6048681567
 20
2.5210861501
 40
0.0280715479
 50
308.5071794988
 51
332.2400656899
 73
1
 72
2
 10
13.5978759713
 20
2.5286873679
 40
0.0383802683
 50
288.7656836787
 51
309.6104317088
 73
1
 72
2
 10
13.6036139387
 20
2.5111006186
 40
0.0198837666
 50
271.8586572978
 51
289.4131338543
 73
1
 72
1
 10
13.6042588488
 20
2.4912273132
 11
13.5568948225
 21
2.4912273132
 97
267
330
287
330
288
330
289
330
28A
330
28B
330
28C
330
28D
330
28E
330
28F
330
290
330
291
330
292
330
293
330
294
330
295
330
296
330
297
330
298
330
299
330
29A
330
29B
330
29C
330
29D
330
29E
330
29F
330
2A0
330
2A1
330
2A2
330
2A3
330
2A4
330
2A5
330
2A6
330
2A7
330
2A8
330
2A9
330
2AA
330
2AB
330
2AC
330
2AD
330
2AE
330
2AF
330
2B0
330
2B1
330
2B2
330
2B3
330
2B4
330
2B5
330
2B6
330
2B7
330
2B8
330
2B9
330
2BA
330
2BB
330
2BC
330
2BD
330
2BE
330
2BF
330
2C0
330
2C1
330
2C2
330
2C3
330
2C4
330
2C5
330
2C6
330
2C7
330
2C8
330
2C9
330
2CA
330
2CB
330
2CC
330
2CD
330
2CE
330
2CF
330
2D0
330
2D1
330
2D2
330
2D3
330
2D4
330
2D5
330
2D6
330
2D7
330
2D8
330
2D9
330
2DA
330
2DB
330
2DC
330
2DD
330
2DE
330
2DF
330
2E0
330
2E1
330
2E2
330
2E3
330
2E4
330
2E5
330
2E6
330
2E7
330
2E8
330
2E9
330
2EA
330
2EB
330
2EC
330
2ED
330
2EE
330
2EF
330
2F0
330
2F1
330
2F2
330
2F3
330
2F4
330
2F5
330
2F6
330
2F7
330
2F8
330
2F9
330
2FA
330
2FB
330
2FC
330
2FD
330
2FE
330
2FF
330
300
330
301
330
302
330
303
330
304
330
305
330
306
330
307
330
308
330
309
330
30A
330
30B
330
30C
330
30D
330
30E
330
30F
330
310
330
311
330
312
330
313
330
314
330
315
330
316
330
317
330
318
330
319
330
31A
330
31B
330
31C
330
31D
330
31E
330
31F
330
320
330
321
330
322
330
323
330
324
330
325
330
326
330
327
330
328
330
329
330
32A
330
32B
330
32C
330
32D
330
32E
330
32F
330
330
330
331
330
332
330
333
330
334
330
335
330
336
330
337
330
338
330
339
330
33A
330
33B
330
33C
330
33D
330
33E
330
33F
330
340
330
341
330
342
330
343
330
344
330
345
330
346
330
347
330
348
330
349
330
34A
330
34B
330
34C
330
34D
330
34E
330
34F
330
350
330
351
330
352
330
353
330
354
330
355
330
356
330
357
330
358
330
359
330
35A
330
35B
330
35C
330
35D
330
35E
330
35F
330
360
330
361
330
362
330
363
330
364
330
365
330
366
330
367
330
368
330
369
330
36A
330
36B
330
36C
330
36D
330
36E
330
36F
330
370
330
371
330
372
330
373
330
374
330
375
330
376
330
377
330
378
330
379
330
37A
330
37B
330
37C
330
37D
330
37E
330
37F
330
380
330
381
330
382
330
383
330
384
330
385
330
386
330
387
330
388
330
389
330
38A
330
38B
330
38C
330
38D
330
38E
330
38F
330
390
330
391
 92
1
 93
40
 72
2
 10
13.1673166046
 20
2.4937023128
 40
0.0024749995
 50
179.9999571957
 51
270.0000428042
 73
1
 72
1
 10
13.1648416051
 20
2.4937023146
 11
13.1648416051
 21
2.5135023256
 72
2
 10
13.1673166046
 20
2.5135023274
 40
0.0024749995
 50
89.9999571958
 51
180.0000428043
 73
1
 72
1
 10
13.1673166065
 20
2.515977327
 11
13.1912396197
 21
2.515977327
 72
2
 10
13.1912396216
 20
2.5184523265
 40
0.0024749995
 50
269.9999571956
 51
0.0000428042
 73
1
 72
1
 10
13.1937146211
 20
2.5184523283
 11
13.1937146211
 21
2.564807354
 72
2
 10
13.1912396216
 20
2.5648073559
 40
0.0024749995
 50
359.9999571957
 51
90.0000428043
 73
1
 72
1
 10
13.1912396197
 20
2.5672823554
 11
13.1673166065
 21
2.5672823554
 72
2
 10
13.1673166046
 20
2.5697573549
 40
0.0024749995
 50
179.9999571957
 51
270.0000428043
 73
1
 72
1
 10
13.1648416051
 20
2.5697573568
 11
13.1648416051
 21
2.5895573678
 72
2
 10
13.1673166046
 20
2.5895573696
 40
0.0024749995
 50
89.9999571958
 51
180.0000428043
 73
1
 72
1
 10
13.1673166065
 20
2.5920323691
 11
13.3691097184
 21
2.5920323691
 72
2
 10
13.3691097202
 20
2.5895573696
 40
0.0024749995
 50
359.9999571957
 51
90.0000428042
 73
1
 72
1
 10
13.3715847197
 20
2.5895573678
 11
13.3715847197
 21
2.5565573495
 72
2
 10
13.3691097202
 20
2.5565573476
 40
0.0024749995
 50
269.9999571956
 51
0.0000428042
 73
1
 72
1
 10
13.3691097184
 20
2.5540823481
 11
13.3272456952
 21
2.5540823481
 72
2
 10
13.3272456933
 20
2.5565573476
 40
0.0024749995
 50
179.9999571957
 51
270.0000428043
 73
1
 72
1
 10
13.3247706938
 20
2.5565573495
 11
13.3247706938
 21
2.564807354
 72
2
 10
13.3222956943
 20
2.5648073559
 40
0.0024749995
 50
359.9999571957
 51
90.0000428043
 73
1
 72
1
 10
13.3222956924
 20
2.5672823554
 11
13.2582556569
 21
2.5672823554
 72
2
 10
13.2582556551
 20
2.5648073559
 40
0.0024749995
 50
89.9999571957
 51
180.0000428043
 73
1
 72
1
 10
13.2557806555
 20
2.564807354
 11
13.2557806555
 21
2.5532573476
 72
2
 10
13.2582556551
 20
2.5532573458
 40
0.0024749995
 50
179.9999571957
 51
270.0000428042
 73
1
 72
1
 10
13.2582556569
 20
2.5507823463
 11
13.2934226764
 21
2.5507823463
 72
2
 10
13.2934226783
 20
2.5483073467
 40
0.0024749995
 50
359.9999571957
 51
90.0000428042
 73
1
 72
1
 10
13.2958976778
 20
2.5483073449
 11
13.2958976778
 21
2.5349523375
 72
2
 10
13.2934226783
 20
2.5349523356
 40
0.0024749995
 50
269.9999571956
 51
0.0000428042
 73
1
 72
1
 10
13.2934226764
 20
2.5324773361
 11
13.2582556569
 21
2.5324773361
 72
2
 10
13.2582556551
 20
2.5300023366
 40
0.0024749995
 50
89.9999571957
 51
180.0000428043
 73
1
 72
1
 10
13.2557806555
 20
2.5300023347
 11
13.2557806555
 21
2.5184523283
 72
2
 10
13.2582556551
 20
2.5184523265
 40
0.0024749995
 50
179.9999571957
 51
270.0000428043
 73
1
 72
1
 10
13.2582556569
 20
2.515977327
 11
13.3232596929
 21
2.515977327
 72
2
 10
13.3232596948
 20
2.5184523265
 40
0.0024749995
 50
269.9999571958
 51
0.0000428043
 73
1
 72
1
 10
13.3257346943
 20
2.5184523283
 11
13.3257346943
 21
2.5267023329
 72
2
 10
13.3282096938
 20
2.5267023348
 40
0.0024749995
 50
89.9999571957
 51
180.0000428043
 73
1
 72
1
 10
13.3282096957
 20
2.5291773343
 11
13.3705287192
 21
2.5291773343
 72
2
 10
13.370528721
 20
2.5267023348
 40
0.0024749995
 50
359.9999571957
 51
90.0000428043
 73
1
 72
1
 10
13.3730037205
 20
2.5267023329
 11
13.3730037205
 21
2.4937023146
 72
2
 10
13.370528721
 20
2.4937023128
 40
0.0024749995
 50
269.9999571957
 51
0.0000428043
 73
1
 72
1
 10
13.3705287192
 20
2.4912273132
 11
13.1673166065
 21
2.4912273132
 97
267
330
287
330
288
330
289
330
28A
330
28B
330
28C
330
28D
330
28E
330
28F
330
290
330
291
330
292
330
293
330
294
330
295
330
296
330
297
330
298
330
299
330
29A
330
29B
330
29C
330
29D
330
29E
330
29F
330
2A0
330
2A1
330
2A2
330
2A3
330
2A4
330
2A5
330
2A6
330
2A7
330
2A8
330
2A9
330
2AA
330
2AB
330
2AC
330
2AD
330
2AE
330
2AF
330
2B0
330
2B1
330
2B2
330
2B3
330
2B4
330
2B5
330
2B6
330
2B7
330
2B8
330
2B9
330
2BA
330
2BB
330
2BC
330
2BD
330
2BE
330
2BF
330
2C0
330
2C1
330
2C2
330
2C3
330
2C4
330
2C5
330
2C6
330
2C7
330
2C8
330
2C9
330
2CA
330
2CB
330
2CC
330
2CD
330
2CE
330
2CF
330
2D0
330
2D1
330
2D2
330
2D3
330
2D4
330
2D5
330
2D6
330
2D7
330
2D8
330
2D9
330
2DA
330
2DB
330
2DC
330
2DD
330
2DE
330
2DF
330
2E0
330
2E1
330
2E2
330
2E3
330
2E4
330
2E5
330
2E6
330
2E7
330
2E8
330
2E9
330
2EA
330
2EB
330
2EC
330
2ED
330
2EE
330
2EF
330
2F0
330
2F1
330
2F2
330
2F3
330
2F4
330
2F5
330
2F6
330
2F7
330
2F8
330
2F9
330
2FA
330
2FB
330
2FC
330
2FD
330
2FE
330
2FF
330
300
330
301
330
302
330
303
330
304
330
305
330
306
330
307
330
308
330
309
330
30A
330
30B
330
30C
330
30D
330
30E
330
30F
330
310
330
311
330
312
330
313
330
314
330
315
330
316
330
317
330
318
330
319
330
31A
330
31B
330
31C
330
31D
330
31E
330
31F
330
320
330
321
330
322
330
323
330
324
330
325
330
326
330
327
330
328
330
329
330
32A
330
32B
330
32C
330
32D
330
32E
330
32F
330
330
330
331
330
332
330
333
330
334
330
335
330
336
330
337
330
338
330
339
330
33A
330
33B
330
33C
330
33D
330
33E
330
33F
330
340
330
341
330
342
330
343
330
344
330
345
330
346
330
347
330
348
330
349
330
34A
330
34B
330
34C
330
34D
330
34E
330
34F
330
350
330
351
330
352
330
353
330
354
330
355
330
356
330
357
330
358
330
359
330
35A
330
35B
330
35C
330
35D
330
35E
330
35F
330
360
330
361
330
362
330
363
330
364
330
365
330
366
330
367
330
368
330
369
330
36A
330
36B
330
36C
330
36D
330
36E
330
36F
330
370
330
371
330
372
330
373
330
374
330
375
330
376
330
377
330
378
330
379
330
37A
330
37B
330
37C
330
37D
330
37E
330
37F
330
380
330
381
330
382
330
383
330
384
330
385
330
386
330
387
330
388
330
389
330
38A
330
38B
330
38C
330
38D
330
38E
330
38F
330
390
330
391
 92
1
 93
40
 72
2
 10
13.0426374026
 20
2.493701481
 40
0.0024741678
 50
226.3477981898
 51
270.0031206038
 73
1
 72
1
 10
13.0409295364
 20
2.4919113136
 11
12.9776495013
 21
2.5522893471
 72
2
 10
12.9759408003
 20
2.5504984093
 40
0.0024753014
 50
46.3461263059
 51
180.0014637321
 73
1
 72
1
 10
12.973465499
 20
2.5504983461
 11
12.973465499
 21
2.5184523283
 72
2
 10
12.9759404985
 20
2.5184523265
 40
0.0024749995
 50
179.9999571957
 51
270.0000428043
 73
1
 72
1
 10
12.9759405003
 20
2.515977327
 11
12.9962575116
 21
2.515977327
 72
2
 10
12.9962575135
 20
2.5135023274
 40
0.0024749995
 50
359.9999571957
 51
90.0000428043
 73
1
 72
1
 10
12.998732513
 20
2.5135023256
 11
12.998732513
 21
2.4937023146
 72
2
 10
12.9962575135
 20
2.4937023128
 40
0.0024749995
 50
269.9999571957
 51
0.0000428043
 73
1
 72
1
 10
12.9962575116
 20
2.4912273132
 11
12.9205934696
 21
2.4912273132
 72
2
 10
12.9205934678
 20
2.4937023128
 40
0.0024749995
 50
179.9999571957
 51
270.0000428043
 73
1
 72
1
 10
12.9181184683
 20
2.4937023146
 11
12.9181184683
 21
2.5135023256
 72
2
 10
12.9205934678
 20
2.5135023274
 40
0.0024749995
 50
89.9999571956
 51
180.0000428042
 73
1
 72
1
 10
12.9205934696
 20
2.515977327
 11
12.93923948
 21
2.515977327
 72
2
 10
12.9392394818
 20
2.5184523265
 40
0.0024749995
 50
269.9999571957
 51
0.0000428043
 73
1
 72
1
 10
12.9417144814
 20
2.5184523283
 11
12.9417144814
 21
2.564807354
 72
2
 10
12.9392394818
 20
2.5648073559
 40
0.0024749995
 50
359.9999571957
 51
90.0000428043
 73
1
 72
1
 10
12.93923948
 20
2.5672823554
 11
12.9205934696
 21
2.5672823554
 72
2
 10
12.9205934678
 20
2.5697573549
 40
0.0024749995
 50
179.9999571957
 51
270.0000428043
 73
1
 72
1
 10
12.9181184683
 20
2.5697573568
 11
12.9181184683
 21
2.5895573678
 72
2
 10
12.9205934678
 20
2.5895573696
 40
0.0024749995
 50
89.9999571956
 51
180.0000428042
 73
1
 72
1
 10
12.9205934696
 20
2.5920323691
 11
13.0210515254
 21
2.5920323691
 72
2
 10
13.0210516601
 20
2.5895582013
 40
0.0024741678
 50
46.3477981898
 51
90.0031206038
 73
1
 72
1
 10
13.0227595263
 20
2.5913483688
 11
13.0827925596
 21
2.534068337
 72
2
 10
13.0845012605
 20
2.5358592748
 40
0.0024753014
 50
226.3461263059
 51
0.0014637321
 73
1
 72
1
 10
13.0869765619
 20
2.535859338
 11
13.0869765619
 21
2.564807354
 72
2
 10
13.0845015624
 20
2.5648073559
 40
0.0024749995
 50
359.9999571957
 51
90.0000428043
 73
1
 72
1
 10
13.0845015605
 20
2.5672823554
 11
13.0657255501
 21
2.5672823554
 72
2
 10
13.0657255483
 20
2.5697573549
 40
0.0024749995
 50
179.9999571957
 51
270.0000428043
 73
1
 72
1
 10
13.0632505488
 20
2.5697573568
 11
13.0632505488
 21
2.5895573678
 72
2
 10
13.0657255483
 20
2.5895573696
 40
0.0024749995
 50
89.9999571957
 51
180.0000428043
 73
1
 72
1
 10
13.0657255501
 20
2.5920323691
 11
13.1397265912
 21
2.5920323691
 72
2
 10
13.139726593
 20
2.5895573696
 40
0.0024749995
 50
359.9999571957
 51
90.0000428043
 73
1
 72
1
 10
13.1422015925
 20
2.5895573678
 11
13.1422015925
 21
2.5697573568
 72
2
 10
13.139726593
 20
2.5697573549
 40
0.0024749995
 50
269.9999571956
 51
0.0000428042
 73
1
 72
1
 10
13.1397265912
 20
2.5672823554
 11
13.1217935812
 21
2.5672823554
 72
2
 10
13.1217935794
 20
2.5648073559
 40
0.0024749995
 50
89.9999571957
 51
180.0000428042
 73
1
 72
1
 10
13.1193185799
 20
2.564807354
 11
13.1193185799
 21
2.4937023146
 72
2
 10
13.1168435803
 20
2.4937023128
 40
0.0024749995
 50
269.9999571957
 51
0.0000428043
 73
1
 72
1
 10
13.1168435785
 20
2.4912273132
 11
13.0426375373
 21
2.4912273132
 97
267
330
287
330
288
330
289
330
28A
330
28B
330
28C
330
28D
330
28E
330
28F
330
290
330
291
330
292
330
293
330
294
330
295
330
296
330
297
330
298
330
299
330
29A
330
29B
330
29C
330
29D
330
29E
330
29F
330
2A0
330
2A1
330
2A2
330
2A3
330
2A4
330
2A5
330
2A6
330
2A7
330
2A8
330
2A9
330
2AA
330
2AB
330
2AC
330
2AD
330
2AE
330
2AF
330
2B0
330
2B1
330
2B2
330
2B3
330
2B4
330
2B5
330
2B6
330
2B7
330
2B8
330
2B9
330
2BA
330
2BB
330
2BC
330
2BD
330
2BE
330
2BF
330
2C0
330
2C1
330
2C2
330
2C3
330
2C4
330
2C5
330
2C6
330
2C7
330
2C8
330
2C9
330
2CA
330
2CB
330
2CC
330
2CD
330
2CE
330
2CF
330
2D0
330
2D1
330
2D2
330
2D3
330
2D4
330
2D5
330
2D6
330
2D7
330
2D8
330
2D9
330
2DA
330
2DB
330
2DC
330
2DD
330
2DE
330
2DF
330
2E0
330
2E1
330
2E2
330
2E3
330
2E4
330
2E5
330
2E6
330
2E7
330
2E8
330
2E9
330
2EA
330
2EB
330
2EC
330
2ED
330
2EE
330
2EF
330
2F0
330
2F1
330
2F2
330
2F3
330
2F4
330
2F5
330
2F6
330
2F7
330
2F8
330
2F9
330
2FA
330
2FB
330
2FC
330
2FD
330
2FE
330
2FF
330
300
330
301
330
302
330
303
330
304
330
305
330
306
330
307
330
308
330
309
330
30A
330
30B
330
30C
330
30D
330
30E
330
30F
330
310
330
311
330
312
330
313
330
314
330
315
330
316
330
317
330
318
330
319
330
31A
330
31B
330
31C
330
31D
330
31E
330
31F
330
320
330
321
330
322
330
323
330
324
330
325
330
326
330
327
330
328
330
329
330
32A
330
32B
330
32C
330
32D
330
32E
330
32F
330
330
330
331
330
332
330
333
330
334
330
335
330
336
330
337
330
338
330
339
330
33A
330
33B
330
33C
330
33D
330
33E
330
33F
330
340
330
341
330
342
330
343
330
344
330
345
330
346
330
347
330
348
330
349
330
34A
330
34B
330
34C
330
34D
330
34E
330
34F
330
350
330
351
330
352
330
353
330
354
330
355
330
356
330
357
330
358
330
359
330
35A
330
35B
330
35C
330
35D
330
35E
330
35F
330
360
330
361
330
362
330
363
330
364
330
365
330
366
330
367
330
368
330
369
330
36A
330
36B
330
36C
330
36D
330
36E
330
36F
330
370
330
371
330
372
330
373
330
374
330
375
330
376
330
377
330
378
330
379
330
37A
330
37B
330
37C
330
37D
330
37E
330
37F
330
380
330
381
330
382
330
383
330
384
330
385
330
386
330
387
330
388
330
389
330
38A
330
38B
330
38C
330
38D
330
38E
330
38F
330
390
330
391
 92
1
 93
40
 72
2
 10
12.7943847649
 20
2.4937027294
 40
0.0024754162
 50
226.3593695813
 51
270.0146919953
 73
1
 72
1
 10
12.7926763987
 20
2.4919113136
 11
12.7293963636
 21
2.5522893471
 72
2
 10
12.7276876627
 20
2.5504984093
 40
0.0024753014
 50
46.3461263059
 51
180.0014637321
 73
1
 72
1
 10
12.7252123613
 20
2.5504983461
 11
12.7252123613
 21
2.5184523283
 72
2
 10
12.7276873608
 20
2.5184523265
 40
0.0024749995
 50
179.9999571957
 51
270.0000428043
 73
1
 72
1
 10
12.7276873627
 20
2.515977327
 11
12.7480043739
 21
2.515977327
 72
2
 10
12.7480043758
 20
2.5135023274
 40
0.0024749995
 50
359.9999571957
 51
90.0000428043
 73
1
 72
1
 10
12.7504793753
 20
2.5135023256
 11
12.7504793753
 21
2.4937023146
 72
2
 10
12.7480043758
 20
2.4937023128
 40
0.0024749995
 50
269.9999571958
 51
0.0000428043
 73
1
 72
1
 10
12.7480043739
 20
2.4912273132
 11
12.672340332
 21
2.4912273132
 72
2
 10
12.6723403301
 20
2.4937023128
 40
0.0024749995
 50
179.9999571957
 51
270.0000428042
 73
1
 72
1
 10
12.6698653306
 20
2.4937023146
 11
12.6698653306
 21
2.5135023256
 72
2
 10
12.6723403301
 20
2.5135023274
 40
0.0024749995
 50
89.9999571957
 51
180.0000428043
 73
1
 72
1
 10
12.672340332
 20
2.515977327
 11
12.6909873423
 21
2.515977327
 72
2
 10
12.6909873442
 20
2.5184523265
 40
0.0024749995
 50
269.9999571957
 51
0.0000428043
 73
1
 72
1
 10
12.6934623437
 20
2.5184523283
 11
12.6934623437
 21
2.564807354
 72
2
 10
12.6909873442
 20
2.5648073559
 40
0.0024749995
 50
359.9999571957
 51
90.0000428043
 73
1
 72
1
 10
12.6909873423
 20
2.5672823554
 11
12.672340332
 21
2.5672823554
 72
2
 10
12.6723403301
 20
2.5697573549
 40
0.0024749995
 50
179.9999571957
 51
270.0000428043
 73
1
 72
1
 10
12.6698653306
 20
2.5697573568
 11
12.6698653306
 21
2.5895573678
 72
2
 10
12.6723403301
 20
2.5895573696
 40
0.0024749995
 50
89.9999571957
 51
180.0000428043
 73
1
 72
1
 10
12.672340332
 20
2.5920323691
 11
12.7727983877
 21
2.5920323691
 72
2
 10
12.7727985224
 20
2.5895582013
 40
0.0024741678
 50
46.3477981899
 51
90.0031206038
 73
1
 72
1
 10
12.7745063886
 20
2.5913483688
 11
12.8345394219
 21
2.534068337
 72
2
 10
12.8362481229
 20
2.5358592748
 40
0.0024753014
 50
226.3461263059
 51
0.0014637321
 73
1
 72
1
 10
12.8387234242
 20
2.535859338
 11
12.8387234242
 21
2.564807354
 72
2
 10
12.8362484247
 20
2.5648073559
 40
0.0024749995
 50
359.9999571957
 51
90.0000428043
 73
1
 72
1
 10
12.8362484229
 20
2.5672823554
 11
12.8174724125
 21
2.5672823554
 72
2
 10
12.8174724106
 20
2.5697573549
 40
0.0024749995
 50
179.9999571957
 51
270.0000428043
 73
1
 72
1
 10
12.8149974111
 20
2.5697573568
 11
12.8149974111
 21
2.5895573678
 72
2
 10
12.8174724106
 20
2.5895573696
 40
0.0024749995
 50
89.9999571958
 51
180.0000428043
 73
1
 72
1
 10
12.8174724125
 20
2.5920323691
 11
12.8914734535
 21
2.5920323691
 72
2
 10
12.8914734553
 20
2.5895573696
 40
0.0024749995
 50
359.9999571957
 51
90.0000428042
 73
1
 72
1
 10
12.8939484549
 20
2.5895573678
 11
12.8939484549
 21
2.5697573568
 72
2
 10
12.8914734553
 20
2.5697573549
 40
0.0024749995
 50
269.9999571958
 51
0.0000428043
 73
1
 72
1
 10
12.8914734535
 20
2.5672823554
 11
12.8735404436
 21
2.5672823554
 72
2
 10
12.8735404417
 20
2.5648073559
 40
0.0024749995
 50
89.9999571957
 51
180.0000428043
 73
1
 72
1
 10
12.8710654422
 20
2.564807354
 11
12.8710654422
 21
2.4937023146
 72
2
 10
12.8685904427
 20
2.4937023128
 40
0.0024749995
 50
269.9999571957
 51
0.0000428043
 73
1
 72
1
 10
12.8685904408
 20
2.4912273132
 11
12.7943853997
 21
2.4912273132
 97
267
330
287
330
288
330
289
330
28A
330
28B
330
28C
330
28D
330
28E
330
28F
330
290
330
291
330
292
330
293
330
294
330
295
330
296
330
297
330
298
330
299
330
29A
330
29B
330
29C
330
29D
330
29E
330
29F
330
2A0
330
2A1
330
2A2
330
2A3
330
2A4
330
2A5
330
2A6
330
2A7
330
2A8
330
2A9
330
2AA
330
2AB
330
2AC
330
2AD
330
2AE
330
2AF
330
2B0
330
2B1
330
2B2
330
2B3
330
2B4
330
2B5
330
2B6
330
2B7
330
2B8
330
2B9
330
2BA
330
2BB
330
2BC
330
2BD
330
2BE
330
2BF
330
2C0
330
2C1
330
2C2
330
2C3
330
2C4
330
2C5
330
2C6
330
2C7
330
2C8
330
2C9
330
2CA
330
2CB
330
2CC
330
2CD
330
2CE
330
2CF
330
2D0
330
2D1
330
2D2
330
2D3
330
2D4
330
2D5
330
2D6
330
2D7
330
2D8
330
2D9
330
2DA
330
2DB
330
2DC
330
2DD
330
2DE
330
2DF
330
2E0
330
2E1
330
2E2
330
2E3
330
2E4
330
2E5
330
2E6
330
2E7
330
2E8
330
2E9
330
2EA
330
2EB
330
2EC
330
2ED
330
2EE
330
2EF
330
2F0
330
2F1
330
2F2
330
2F3
330
2F4
330
2F5
330
2F6
330
2F7
330
2F8
330
2F9
330
2FA
330
2FB
330
2FC
330
2FD
330
2FE
330
2FF
330
300
330
301
330
302
330
303
330
304
330
305
330
306
330
307
330
308
330
309
330
30A
330
30B
330
30C
330
30D
330
30E
330
30F
330
310
330
311
330
312
330
313
330
314
330
315
330
316
330
317
330
318
330
319
330
31A
330
31B
330
31C
330
31D
330
31E
330
31F
330
320
330
321
330
322
330
323
330
324
330
325
330
326
330
327
330
328
330
329
330
32A
330
32B
330
32C
330
32D
330
32E
330
32F
330
330
330
331
330
332
330
333
330
334
330
335
330
336
330
337
330
338
330
339
330
33A
330
33B
330
33C
330
33D
330
33E
330
33F
330
340
330
341
330
342
330
343
330
344
330
345
330
346
330
347
330
348
330
349
330
34A
330
34B
330
34C
330
34D
330
34E
330
34F
330
350
330
351
330
352
330
353
330
354
330
355
330
356
330
357
330
358
330
359
330
35A
330
35B
330
35C
330
35D
330
35E
330
35F
330
360
330
361
330
362
330
363
330
364
330
365
330
366
330
367
330
368
330
369
330
36A
330
36B
330
36C
330
36D
330
36E
330
36F
330
370
330
371
330
372
330
373
330
374
330
375
330
376
330
377
330
378
330
379
330
37A
330
37B
330
37C
330
37D
330
37E
330
37F
330
380
330
381
330
382
330
383
330
384
330
385
330
386
330
387
330
388
330
389
330
38A
330
38B
330
38C
330
38D
330
38E
330
38F
330
390
330
391
 92
1
 93
23
 72
2
 10
12.3792298263
 20
2.539634765
 40
0.048483885
 50
273.21763719
 51
303.0749121182
 73
1
 72
2
 10
12.3940692204
 20
2.5168671561
 40
0.0213072145
 50
303.0488228549
 51
355.7263138674
 73
1
 72
2
 10
12.400005721
 20
2.5168763464
 40
0.0153945295
 50
354.0454548824
 51
5.1878013979
 73
1
 72
2
 10
12.3931760319
 20
2.5166878286
 40
0.0222174455
 50
4.0793399388
 51
69.834329283
 73
1
 72
1
 10
12.4008351814
 20
2.5375433389
 11
12.3907841758
 21
2.5410923409
 72
1
 10
12.3907841758
 20
2.5410923409
 11
12.3990241804
 21
2.5458683435
 72
2
 10
12.3771587979
 20
2.5826952352
 40
0.0428289026
 50
300.6990502959
 51
319.0591802498
 73
1
 72
2
 10
12.3971873948
 20
2.5665668817
 40
0.0171568255
 50
315.9145124245
 51
16.0049121282
 73
1
 72
2
 10
12.3922357827
 20
2.5632132173
 40
0.0229166529
 50
20.6563876465
 51
62.3316896973
 73
1
 72
2
 10
12.371573659
 20
2.5302846524
 40
0.061747717
 50
59.5385584989
 51
90.0050977555
 73
1
 72
1
 10
12.3715681652
 20
2.5920323691
 11
12.2055050731
 21
2.5920323691
 72
2
 10
12.2055050712
 20
2.5895573696
 40
0.0024749995
 50
89.9999571957
 51
180.0000428043
 73
1
 72
1
 10
12.2030300717
 20
2.5895573678
 11
12.2030300717
 21
2.5697573568
 72
2
 10
12.2055050712
 20
2.5697573549
 40
0.0024749995
 50
179.9999571957
 51
270.0000428043
 73
1
 72
1
 10
12.2055050731
 20
2.5672823554
 11
12.2294470864
 21
2.5672823554
 72
2
 10
12.2294470882
 20
2.5648073559
 40
0.0024749995
 50
359.9999571957
 51
90.0000428043
 73
1
 72
1
 10
12.2319220877
 20
2.564807354
 11
12.2319220877
 21
2.5184523283
 72
2
 10
12.2294470882
 20
2.5184523265
 40
0.0024749995
 50
269.9999571957
 51
0.0000428043
 73
1
 72
1
 10
12.2294470864
 20
2.515977327
 11
12.2055050731
 21
2.515977327
 72
2
 10
12.2055050712
 20
2.5135023274
 40
0.0024749995
 50
89.9999571957
 51
180.0000428043
 73
1
 72
1
 10
12.2030300717
 20
2.5135023256
 11
12.2030300717
 21
2.4937023146
 72
2
 10
12.2055050712
 20
2.4937023128
 40
0.0024749995
 50
179.9999571957
 51
270.0000428043
 73
1
 72
1
 10
12.2055050731
 20
2.4912273132
 11
12.3819511709
 21
2.4912273132
 97
267
330
287
330
288
330
289
330
28A
330
28B
330
28C
330
28D
330
28E
330
28F
330
290
330
291
330
292
330
293
330
294
330
295
330
296
330
297
330
298
330
299
330
29A
330
29B
330
29C
330
29D
330
29E
330
29F
330
2A0
330
2A1
330
2A2
330
2A3
330
2A4
330
2A5
330
2A6
330
2A7
330
2A8
330
2A9
330
2AA
330
2AB
330
2AC
330
2AD
330
2AE
330
2AF
330
2B0
330
2B1
330
2B2
330
2B3
330
2B4
330
2B5
330
2B6
330
2B7
330
2B8
330
2B9
330
2BA
330
2BB
330
2BC
330
2BD
330
2BE
330
2BF
330
2C0
330
2C1
330
2C2
330
2C3
330
2C4
330
2C5
330
2C6
330
2C7
330
2C8
330
2C9
330
2CA
330
2CB
330
2CC
330
2CD
330
2CE
330
2CF
330
2D0
330
2D1
330
2D2
330
2D3
330
2D4
330
2D5
330
2D6
330
2D7
330
2D8
330
2D9
330
2DA
330
2DB
330
2DC
330
2DD
330
2DE
330
2DF
330
2E0
330
2E1
330
2E2
330
2E3
330
2E4
330
2E5
330
2E6
330
2E7
330
2E8
330
2E9
330
2EA
330
2EB
330
2EC
330
2ED
330
2EE
330
2EF
330
2F0
330
2F1
330
2F2
330
2F3
330
2F4
330
2F5
330
2F6
330
2F7
330
2F8
330
2F9
330
2FA
330
2FB
330
2FC
330
2FD
330
2FE
330
2FF
330
300
330
301
330
302
330
303
330
304
330
305
330
306
330
307
330
308
330
309
330
30A
330
30B
330
30C
330
30D
330
30E
330
30F
330
310
330
311
330
312
330
313
330
314
330
315
330
316
330
317
330
318
330
319
330
31A
330
31B
330
31C
330
31D
330
31E
330
31F
330
320
330
321
330
322
330
323
330
324
330
325
330
326
330
327
330
328
330
329
330
32A
330
32B
330
32C
330
32D
330
32E
330
32F
330
330
330
331
330
332
330
333
330
334
330
335
330
336
330
337
330
338
330
339
330
33A
330
33B
330
33C
330
33D
330
33E
330
33F
330
340
330
341
330
342
330
343
330
344
330
345
330
346
330
347
330
348
330
349
330
34A
330
34B
330
34C
330
34D
330
34E
330
34F
330
350
330
351
330
352
330
353
330
354
330
355
330
356
330
357
330
358
330
359
330
35A
330
35B
330
35C
330
35D
330
35E
330
35F
330
360
330
361
330
362
330
363
330
364
330
365
330
366
330
367
330
368
330
369
330
36A
330
36B
330
36C
330
36D
330
36E
330
36F
330
370
330
371
330
372
330
373
330
374
330
375
330
376
330
377
330
378
330
379
330
37A
330
37B
330
37C
330
37D
330
37E
330
37F
330
380
330
381
330
382
330
383
330
384
330
385
330
386
330
387
330
388
330
389
330
38A
330
38B
330
38C
330
38D
330
38E
330
38F
330
390
330
391
 92
1
 93
32
 72
2
 10
12.5168642476
 20
2.4937023128
 40
0.0024749995
 50
269.9999571957
 51
0.0000428043
 73
1
 72
1
 10
12.5193392471
 20
2.4937023146
 11
12.5193392471
 21
2.5135023256
 72
2
 10
12.5168642476
 20
2.5135023274
 40
0.0024749995
 50
359.9999571957
 51
90.0000428043
 73
1
 72
1
 10
12.5168642458
 20
2.515977327
 11
12.5055812395
 21
2.515977327
 72
2
 10
12.5055811302
 20
2.518452367
 40
0.0024750401
 50
147.6063258011
 51
270.0025305754
 73
1
 72
1
 10
12.5034912383
 20
2.5197783291
 11
12.5090072414
 21
2.5284723339
 72
2
 10
12.5110971723
 20
2.5271461342
 40
0.0024752003
 50
89.998372645
 51
147.602165307
 73
1
 72
1
 10
12.5110972426
 20
2.5296213345
 11
12.5459752619
 21
2.5296213345
 72
2
 10
12.5459747223
 20
2.5271458744
 40
0.0024754602
 50
32.8959418573
 51
89.9875097202
 73
1
 72
1
 10
12.548053263
 20
2.5284903339
 11
12.5536792662
 21
2.5197973291
 72
2
 10
12.5516012439
 20
2.5184525341
 40
0.0024752071
 50
270.0004896794
 51
32.9089806818
 73
1
 72
1
 10
12.551601265
 20
2.515977327
 11
12.537150257
 21
2.515977327
 72
2
 10
12.5371502552
 20
2.5135023274
 40
0.0024749995
 50
89.9999571958
 51
180.0000428043
 73
1
 72
1
 10
12.5346752556
 20
2.5135023256
 11
12.5346752556
 21
2.4937023146
 72
2
 10
12.5371502552
 20
2.4937023128
 40
0.0024749995
 50
179.9999571957
 51
270.0000428042
 73
1
 72
1
 10
12.537150257
 20
2.4912273132
 11
12.6424313154
 21
2.4912273132
 72
2
 10
12.6424313172
 20
2.4937023128
 40
0.0024749995
 50
269.9999571957
 51
0.0000428043
 73
1
 72
1
 10
12.6449063168
 20
2.4937023146
 11
12.6449063168
 21
2.5135023256
 72
2
 10
12.6424313172
 20
2.5135023274
 40
0.0024749995
 50
359.9999571957
 51
90.0000428043
 73
1
 72
1
 10
12.6424313154
 20
2.515977327
 11
12.6224153043
 21
2.515977327
 72
2
 10
12.6224154248
 20
2.518451368
 40
0.002474041
 50
212.9056413127
 51
269.9972091756
 73
1
 72
1
 10
12.6203383031
 20
2.5171073276
 11
12.5725822767
 21
2.5909023685
 72
2
 10
12.570504655
 20
2.589557409
 40
0.0024749602
 50
32.9172174468
 51
90.0087853097
 73
1
 72
1
 10
12.5705042755
 20
2.5920323691
 11
12.5133292438
 21
2.5920323691
 72
2
 10
12.5133291735
 20
2.5895571688
 40
0.0024752003
 50
89.9983726451
 51
147.602165307
 73
1
 72
1
 10
12.5112392426
 20
2.5908833685
 11
12.4644392167
 21
2.5171263276
 72
2
 10
12.4623492858
 20
2.5184525273
 40
0.0024752003
 50
269.9983726451
 51
327.602165307
 73
1
 72
1
 10
12.4623492155
 20
2.515977327
 11
12.4394882028
 21
2.515977327
 72
2
 10
12.439488201
 20
2.5135023274
 40
0.0024749995
 50
89.9999571958
 51
180.0000428043
 73
1
 72
1
 10
12.4370132015
 20
2.5135023256
 11
12.4370132015
 21
2.4937023146
 72
2
 10
12.439488201
 20
2.4937023128
 40
0.0024749995
 50
179.9999571957
 51
270.0000428042
 73
1
 72
1
 10
12.4394882028
 20
2.4912273132
 11
12.5168642458
 21
2.4912273132
 97
267
330
287
330
288
330
289
330
28A
330
28B
330
28C
330
28D
330
28E
330
28F
330
290
330
291
330
292
330
293
330
294
330
295
330
296
330
297
330
298
330
299
330
29A
330
29B
330
29C
330
29D
330
29E
330
29F
330
2A0
330
2A1
330
2A2
330
2A3
330
2A4
330
2A5
330
2A6
330
2A7
330
2A8
330
2A9
330
2AA
330
2AB
330
2AC
330
2AD
330
2AE
330
2AF
330
2B0
330
2B1
330
2B2
330
2B3
330
2B4
330
2B5
330
2B6
330
2B7
330
2B8
330
2B9
330
2BA
330
2BB
330
2BC
330
2BD
330
2BE
330
2BF
330
2C0
330
2C1
330
2C2
330
2C3
330
2C4
330
2C5
330
2C6
330
2C7
330
2C8
330
2C9
330
2CA
330
2CB
330
2CC
330
2CD
330
2CE
330
2CF
330
2D0
330
2D1
330
2D2
330
2D3
330
2D4
330
2D5
330
2D6
330
2D7
330
2D8
330
2D9
330
2DA
330
2DB
330
2DC
330
2DD
330
2DE
330
2DF
330
2E0
330
2E1
330
2E2
330
2E3
330
2E4
330
2E5
330
2E6
330
2E7
330
2E8
330
2E9
330
2EA
330
2EB
330
2EC
330
2ED
330
2EE
330
2EF
330
2F0
330
2F1
330
2F2
330
2F3
330
2F4
330
2F5
330
2F6
330
2F7
330
2F8
330
2F9
330
2FA
330
2FB
330
2FC
330
2FD
330
2FE
330
2FF
330
300
330
301
330
302
330
303
330
304
330
305
330
306
330
307
330
308
330
309
330
30A
330
30B
330
30C
330
30D
330
30E
330
30F
330
310
330
311
330
312
330
313
330
314
330
315
330
316
330
317
330
318
330
319
330
31A
330
31B
330
31C
330
31D
330
31E
330
31F
330
320
330
321
330
322
330
323
330
324
330
325
330
326
330
327
330
328
330
329
330
32A
330
32B
330
32C
330
32D
330
32E
330
32F
330
330
330
331
330
332
330
333
330
334
330
335
330
336
330
337
330
338
330
339
330
33A
330
33B
330
33C
330
33D
330
33E
330
33F
330
340
330
341
330
342
330
343
330
344
330
345
330
346
330
347
330
348
330
349
330
34A
330
34B
330
34C
330
34D
330
34E
330
34F
330
350
330
351
330
352
330
353
330
354
330
355
330
356
330
357
330
358
330
359
330
35A
330
35B
330
35C
330
35D
330
35E
330
35F
330
360
330
361
330
362
330
363
330
364
330
365
330
366
330
367
330
368
330
369
330
36A
330
36B
330
36C
330
36D
330
36E
330
36F
330
370
330
371
330
372
330
373
330
374
330
375
330
376
330
377
330
378
330
379
330
37A
330
37B
330
37C
330
37D
330
37E
330
37F
330
380
330
381
330
382
330
383
330
384
330
385
330
386
330
387
330
388
330
389
330
38A
330
38B
330
38C
330
38D
330
38E
330
38F
330
390
330
391
 92
1
 93
6
 72
2
 10
12.2949101208
 20
2.5184523265
 40
0.0024749995
 50
179.9999571957
 51
270.0000428043
 73
1
 72
1
 10
12.2924351213
 20
2.5184523283
 11
12.2924351213
 21
2.5308273352
 72
2
 10
12.2949101208
 20
2.530827337
 40
0.0024749995
 50
89.9999571957
 51
180.0000428043
 73
1
 72
1
 10
12.2949101227
 20
2.5333023366
 11
12.3362731456
 21
2.5333023366
 72
2
 10
12.3362731456
 20
2.5246398318
 40
0.0086625048
 50
270.0
 51
90.0
 73
1
 72
1
 10
12.3362731456
 20
2.515977327
 11
12.2949101227
 21
2.515977327
 97
267
330
287
330
288
330
289
330
28A
330
28B
330
28C
330
28D
330
28E
330
28F
330
290
330
291
330
292
330
293
330
294
330
295
330
296
330
297
330
298
330
299
330
29A
330
29B
330
29C
330
29D
330
29E
330
29F
330
2A0
330
2A1
330
2A2
330
2A3
330
2A4
330
2A5
330
2A6
330
2A7
330
2A8
330
2A9
330
2AA
330
2AB
330
2AC
330
2AD
330
2AE
330
2AF
330
2B0
330
2B1
330
2B2
330
2B3
330
2B4
330
2B5
330
2B6
330
2B7
330
2B8
330
2B9
330
2BA
330
2BB
330
2BC
330
2BD
330
2BE
330
2BF
330
2C0
330
2C1
330
2C2
330
2C3
330
2C4
330
2C5
330
2C6
330
2C7
330
2C8
330
2C9
330
2CA
330
2CB
330
2CC
330
2CD
330
2CE
330
2CF
330
2D0
330
2D1
330
2D2
330
2D3
330
2D4
330
2D5
330
2D6
330
2D7
330
2D8
330
2D9
330
2DA
330
2DB
330
2DC
330
2DD
330
2DE
330
2DF
330
2E0
330
2E1
330
2E2
330
2E3
330
2E4
330
2E5
330
2E6
330
2E7
330
2E8
330
2E9
330
2EA
330
2EB
330
2EC
330
2ED
330
2EE
330
2EF
330
2F0
330
2F1
330
2F2
330
2F3
330
2F4
330
2F5
330
2F6
330
2F7
330
2F8
330
2F9
330
2FA
330
2FB
330
2FC
330
2FD
330
2FE
330
2FF
330
300
330
301
330
302
330
303
330
304
330
305
330
306
330
307
330
308
330
309
330
30A
330
30B
330
30C
330
30D
330
30E
330
30F
330
310
330
311
330
312
330
313
330
314
330
315
330
316
330
317
330
318
330
319
330
31A
330
31B
330
31C
330
31D
330
31E
330
31F
330
320
330
321
330
322
330
323
330
324
330
325
330
326
330
327
330
328
330
329
330
32A
330
32B
330
32C
330
32D
330
32E
330
32F
330
330
330
331
330
332
330
333
330
334
330
335
330
336
330
337
330
338
330
339
330
33A
330
33B
330
33C
330
33D
330
33E
330
33F
330
340
330
341
330
342
330
343
330
344
330
345
330
346
330
347
330
348
330
349
330
34A
330
34B
330
34C
330
34D
330
34E
330
34F
330
350
330
351
330
352
330
353
330
354
330
355
330
356
330
357
330
358
330
359
330
35A
330
35B
330
35C
330
35D
330
35E
330
35F
330
360
330
361
330
362
330
363
330
364
330
365
330
366
330
367
330
368
330
369
330
36A
330
36B
330
36C
330
36D
330
36E
330
36F
330
370
330
371
330
372
330
373
330
374
330
375
330
376
330
377
330
378
330
379
330
37A
330
37B
330
37C
330
37D
330
37E
330
37F
330
380
330
381
330
382
330
383
330
384
330
385
330
386
330
387
330
388
330
389
330
38A
330
38B
330
38C
330
38D
330
38E
330
38F
330
390
330
391
 92
1
 93
13
 72
2
 10
13.4883447827
 20
2.5520823451
 40
0.0024749995
 50
179.9999571957
 51
270.0000428042
 73
1
 72
1
 10
13.4858697831
 20
2.552082347
 11
13.4858697831
 21
2.564807354
 72
2
 10
13.4883447827
 20
2.5648073559
 40
0.0024749995
 50
89.9999571958
 51
180.0000428043
 73
1
 72
1
 10
13.4883447845
 20
2.5672823554
 11
13.5251458049
 21
2.5672823554
 72
2
 10
13.5236009174
 20
2.5388278764
 40
0.0284963867
 50
70.3834917948
 51
86.8922743861
 73
1
 72
2
 10
13.5284605274
 20
2.5518696094
 40
0.0145814632
 50
54.6746025112
 51
71.1660573124
 73
1
 72
2
 10
13.5335900184
 20
2.5587235346
 40
0.0060275915
 50
20.9055592135
 51
56.7851676243
 73
1
 72
2
 10
13.5348905773
 20
2.5593838168
 40
0.0045795888
 50
355.6235353944
 51
18.9942678268
 73
1
 72
2
 10
13.533683767
 20
2.559677593
 40
0.0058087709
 50
318.8515287446
 51
353.6422345323
 73
1
 72
2
 10
13.5295131508
 20
2.5629115009
 40
0.0110815393
 50
306.758405961
 51
320.4502234234
 73
1
 72
2
 10
13.5238839599
 20
2.5706523294
 40
0.0206523367
 50
289.6883413472
 51
306.4184925496
 73
1
 72
2
 10
13.5219564542
 20
2.5750459767
 40
0.0254407115
 50
270.7327484175
 51
290.441894219
 73
1
 72
1
 10
13.5222818033
 20
2.5496073456
 11
13.4883447845
 21
2.5496073456
 97
267
330
287
330
288
330
289
330
28A
330
28B
330
28C
330
28D
330
28E
330
28F
330
290
330
291
330
292
330
293
330
294
330
295
330
296
330
297
330
298
330
299
330
29A
330
29B
330
29C
330
29D
330
29E
330
29F
330
2A0
330
2A1
330
2A2
330
2A3
330
2A4
330
2A5
330
2A6
330
2A7
330
2A8
330
2A9
330
2AA
330
2AB
330
2AC
330
2AD
330
2AE
330
2AF
330
2B0
330
2B1
330
2B2
330
2B3
330
2B4
330
2B5
330
2B6
330
2B7
330
2B8
330
2B9
330
2BA
330
2BB
330
2BC
330
2BD
330
2BE
330
2BF
330
2C0
330
2C1
330
2C2
330
2C3
330
2C4
330
2C5
330
2C6
330
2C7
330
2C8
330
2C9
330
2CA
330
2CB
330
2CC
330
2CD
330
2CE
330
2CF
330
2D0
330
2D1
330
2D2
330
2D3
330
2D4
330
2D5
330
2D6
330
2D7
330
2D8
330
2D9
330
2DA
330
2DB
330
2DC
330
2DD
330
2DE
330
2DF
330
2E0
330
2E1
330
2E2
330
2E3
330
2E4
330
2E5
330
2E6
330
2E7
330
2E8
330
2E9
330
2EA
330
2EB
330
2EC
330
2ED
330
2EE
330
2EF
330
2F0
330
2F1
330
2F2
330
2F3
330
2F4
330
2F5
330
2F6
330
2F7
330
2F8
330
2F9
330
2FA
330
2FB
330
2FC
330
2FD
330
2FE
330
2FF
330
300
330
301
330
302
330
303
330
304
330
305
330
306
330
307
330
308
330
309
330
30A
330
30B
330
30C
330
30D
330
30E
330
30F
330
310
330
311
330
312
330
313
330
314
330
315
330
316
330
317
330
318
330
319
330
31A
330
31B
330
31C
330
31D
330
31E
330
31F
330
320
330
321
330
322
330
323
330
324
330
325
330
326
330
327
330
328
330
329
330
32A
330
32B
330
32C
330
32D
330
32E
330
32F
330
330
330
331
330
332
330
333
330
334
330
335
330
336
330
337
330
338
330
339
330
33A
330
33B
330
33C
330
33D
330
33E
330
33F
330
340
330
341
330
342
330
343
330
344
330
345
330
346
330
347
330
348
330
349
330
34A
330
34B
330
34C
330
34D
330
34E
330
34F
330
350
330
351
330
352
330
353
330
354
330
355
330
356
330
357
330
358
330
359
330
35A
330
35B
330
35C
330
35D
330
35E
330
35F
330
360
330
361
330
362
330
363
330
364
330
365
330
366
330
367
330
368
330
369
330
36A
330
36B
330
36C
330
36D
330
36E
330
36F
330
370
330
371
330
372
330
373
330
374
330
375
330
376
330
377
330
378
330
379
330
37A
330
37B
330
37C
330
37D
330
37E
330
37F
330
380
330
381
330
382
330
383
330
384
330
385
330
386
330
387
330
388
330
389
330
38A
330
38B
330
38C
330
38D
330
38E
330
38F
330
390
330
391
 92
1
 93
6
 72
2
 10
12.3362731456
 20
2.5586198506
 40
0.0086625048
 50
270.0
 51
90.0
 73
1
 72
1
 10
12.3362731456
 20
2.5672823554
 11
12.2949101227
 21
2.5672823554
 72
2
 10
12.2949101208
 20
2.5648073559
 40
0.0024749995
 50
89.9999571957
 51
180.0000428043
 73
1
 72
1
 10
12.2924351213
 20
2.564807354
 11
12.2924351213
 21
2.5524323472
 72
2
 10
12.2949101208
 20
2.5524323453
 40
0.0024749995
 50
179.9999571957
 51
270.0000428043
 73
1
 72
1
 10
12.2949101227
 20
2.5499573458
 11
12.3362731456
 21
2.5499573458
 97
267
330
287
330
288
330
289
330
28A
330
28B
330
28C
330
28D
330
28E
330
28F
330
290
330
291
330
292
330
293
330
294
330
295
330
296
330
297
330
298
330
299
330
29A
330
29B
330
29C
330
29D
330
29E
330
29F
330
2A0
330
2A1
330
2A2
330
2A3
330
2A4
330
2A5
330
2A6
330
2A7
330
2A8
330
2A9
330
2AA
330
2AB
330
2AC
330
2AD
330
2AE
330
2AF
330
2B0
330
2B1
330
2B2
330
2B3
330
2B4
330
2B5
330
2B6
330
2B7
330
2B8
330
2B9
330
2BA
330
2BB
330
2BC
330
2BD
330
2BE
330
2BF
330
2C0
330
2C1
330
2C2
330
2C3
330
2C4
330
2C5
330
2C6
330
2C7
330
2C8
330
2C9
330
2CA
330
2CB
330
2CC
330
2CD
330
2CE
330
2CF
330
2D0
330
2D1
330
2D2
330
2D3
330
2D4
330
2D5
330
2D6
330
2D7
330
2D8
330
2D9
330
2DA
330
2DB
330
2DC
330
2DD
330
2DE
330
2DF
330
2E0
330
2E1
330
2E2
330
2E3
330
2E4
330
2E5
330
2E6
330
2E7
330
2E8
330
2E9
330
2EA
330
2EB
330
2EC
330
2ED
330
2EE
330
2EF
330
2F0
330
2F1
330
2F2
330
2F3
330
2F4
330
2F5
330
2F6
330
2F7
330
2F8
330
2F9
330
2FA
330
2FB
330
2FC
330
2FD
330
2FE
330
2FF
330
300
330
301
330
302
330
303
330
304
330
305
330
306
330
307
330
308
330
309
330
30A
330
30B
330
30C
330
30D
330
30E
330
30F
330
310
330
311
330
312
330
313
330
314
330
315
330
316
330
317
330
318
330
319
330
31A
330
31B
330
31C
330
31D
330
31E
330
31F
330
320
330
321
330
322
330
323
330
324
330
325
330
326
330
327
330
328
330
329
330
32A
330
32B
330
32C
330
32D
330
32E
330
32F
330
330
330
331
330
332
330
333
330
334
330
335
330
336
330
337
330
338
330
339
330
33A
330
33B
330
33C
330
33D
330
33E
330
33F
330
340
330
341
330
342
330
343
330
344
330
345
330
346
330
347
330
348
330
349
330
34A
330
34B
330
34C
330
34D
330
34E
330
34F
330
350
330
351
330
352
330
353
330
354
330
355
330
356
330
357
330
358
330
359
330
35A
330
35B
330
35C
330
35D
330
35E
330
35F
330
360
330
361
330
362
330
363
330
364
330
365
330
366
330
367
330
368
330
369
330
36A
330
36B
330
36C
330
36D
330
36E
330
36F
330
370
330
371
330
372
330
373
330
374
330
375
330
376
330
377
330
378
330
379
330
37A
330
37B
330
37C
330
37D
330
37E
330
37F
330
380
330
381
330
382
330
383
330
384
330
385
330
386
330
387
330
388
330
389
330
38A
330
38B
330
38C
330
38D
330
38E
330
38F
330
390
330
391
 92
1
 93
8
 72
2
 10
12.5401702375
 20
2.5530465533
 40
0.0024752071
 50
270.0004896793
 51
32.9089806818
 73
1
 72
1
 10
12.5422482598
 20
2.5543913483
 11
12.5349892558
 21
2.5656073545
 72
2
 10
12.532910715
 20
2.564262895
 40
0.0024754602
 50
32.8959418573
 51
89.9875097202
 73
1
 72
1
 10
12.5329112547
 20
2.5667383551
 11
12.5267302512
 21
2.5667383551
 72
2
 10
12.5267301809
 20
2.5642631548
 40
0.0024752003
 50
89.998372645
 51
147.602165307
 73
1
 72
1
 10
12.5246402501
 20
2.5655893545
 11
12.5175232461
 21
2.5543723483
 72
2
 10
12.519613138
 20
2.5530463862
 40
0.0024750401
 50
147.6063258012
 51
270.0025305754
 73
1
 72
1
 10
12.5196132473
 20
2.5505713461
 11
12.5401702587
 21
2.5505713461
 97
267
330
287
330
288
330
289
330
28A
330
28B
330
28C
330
28D
330
28E
330
28F
330
290
330
291
330
292
330
293
330
294
330
295
330
296
330
297
330
298
330
299
330
29A
330
29B
330
29C
330
29D
330
29E
330
29F
330
2A0
330
2A1
330
2A2
330
2A3
330
2A4
330
2A5
330
2A6
330
2A7
330
2A8
330
2A9
330
2AA
330
2AB
330
2AC
330
2AD
330
2AE
330
2AF
330
2B0
330
2B1
330
2B2
330
2B3
330
2B4
330
2B5
330
2B6
330
2B7
330
2B8
330
2B9
330
2BA
330
2BB
330
2BC
330
2BD
330
2BE
330
2BF
330
2C0
330
2C1
330
2C2
330
2C3
330
2C4
330
2C5
330
2C6
330
2C7
330
2C8
330
2C9
330
2CA
330
2CB
330
2CC
330
2CD
330
2CE
330
2CF
330
2D0
330
2D1
330
2D2
330
2D3
330
2D4
330
2D5
330
2D6
330
2D7
330
2D8
330
2D9
330
2DA
330
2DB
330
2DC
330
2DD
330
2DE
330
2DF
330
2E0
330
2E1
330
2E2
330
2E3
330
2E4
330
2E5
330
2E6
330
2E7
330
2E8
330
2E9
330
2EA
330
2EB
330
2EC
330
2ED
330
2EE
330
2EF
330
2F0
330
2F1
330
2F2
330
2F3
330
2F4
330
2F5
330
2F6
330
2F7
330
2F8
330
2F9
330
2FA
330
2FB
330
2FC
330
2FD
330
2FE
330
2FF
330
300
330
301
330
302
330
303
330
304
330
305
330
306
330
307
330
308
330
309
330
30A
330
30B
330
30C
330
30D
330
30E
330
30F
330
310
330
311
330
312
330
313
330
314
330
315
330
316
330
317
330
318
330
319
330
31A
330
31B
330
31C
330
31D
330
31E
330
31F
330
320
330
321
330
322
330
323
330
324
330
325
330
326
330
327
330
328
330
329
330
32A
330
32B
330
32C
330
32D
330
32E
330
32F
330
330
330
331
330
332
330
333
330
334
330
335
330
336
330
337
330
338
330
339
330
33A
330
33B
330
33C
330
33D
330
33E
330
33F
330
340
330
341
330
342
330
343
330
344
330
345
330
346
330
347
330
348
330
349
330
34A
330
34B
330
34C
330
34D
330
34E
330
34F
330
350
330
351
330
352
330
353
330
354
330
355
330
356
330
357
330
358
330
359
330
35A
330
35B
330
35C
330
35D
330
35E
330
35F
330
360
330
361
330
362
330
363
330
364
330
365
330
366
330
367
330
368
330
369
330
36A
330
36B
330
36C
330
36D
330
36E
330
36F
330
370
330
371
330
372
330
373
330
374
330
375
330
376
330
377
330
378
330
379
330
37A
330
37B
330
37C
330
37D
330
37E
330
37F
330
380
330
381
330
382
330
383
330
384
330
385
330
386
330
387
330
388
330
389
330
38A
330
38B
330
38C
330
38D
330
38E
330
38F
330
390
330
391
 92
1
 93
1
 72
3
 10
12.9046654608
 20
2.5403783405
 11
-0.8250004575
 21
0.0
 40
0.218572
 50
0.0
 51
-0.0
 73
1
 97
267
330
287
330
288
330
289
330
28A
330
28B
330
28C
330
28D
330
28E
330
28F
330
290
330
291
330
292
330
293
330
294
330
295
330
296
330
297
330
298
330
299
330
29A
330
29B
330
29C
330
29D
330
29E
330
29F
330
2A0
330
2A1
330
2A2
330
2A3
330
2A4
330
2A5
330
2A6
330
2A7
330
2A8
330
2A9
330
2AA
330
2AB
330
2AC
330
2AD
330
2AE
330
2AF
330
2B0
330
2B1
330
2B2
330
2B3
330
2B4
330
2B5
330
2B6
330
2B7
330
2B8
330
2B9
330
2BA
330
2BB
330
2BC
330
2BD
330
2BE
330
2BF
330
2C0
330
2C1
330
2C2
330
2C3
330
2C4
330
2C5
330
2C6
330
2C7
330
2C8
330
2C9
330
2CA
330
2CB
330
2CC
330
2CD
330
2CE
330
2CF
330
2D0
330
2D1
330
2D2
330
2D3
330
2D4
330
2D5
330
2D6
330
2D7
330
2D8
330
2D9
330
2DA
330
2DB
330
2DC
330
2DD
330
2DE
330
2DF
330
2E0
330
2E1
330
2E2
330
2E3
330
2E4
330
2E5
330
2E6
330
2E7
330
2E8
330
2E9
330
2EA
330
2EB
330
2EC
330
2ED
330
2EE
330
2EF
330
2F0
330
2F1
330
2F2
330
2F3
330
2F4
330
2F5
330
2F6
330
2F7
330
2F8
330
2F9
330
2FA
330
2FB
330
2FC
330
2FD
330
2FE
330
2FF
330
300
330
301
330
302
330
303
330
304
330
305
330
306
330
307
330
308
330
309
330
30A
330
30B
330
30C
330
30D
330
30E
330
30F
330
310
330
311
330
312
330
313
330
314
330
315
330
316
330
317
330
318
330
319
330
31A
330
31B
330
31C
330
31D
330
31E
330
31F
330
320
330
321
330
322
330
323
330
324
330
325
330
326
330
327
330
328
330
329
330
32A
330
32B
330
32C
330
32D
330
32E
330
32F
330
330
330
331
330
332
330
333
330
334
330
335
330
336
330
337
330
338
330
339
330
33A
330
33B
330
33C
330
33D
330
33E
330
33F
330
340
330
341
330
342
330
343
330
344
330
345
330
346
330
347
330
348
330
349
330
34A
330
34B
330
34C
330
34D
330
34E
330
34F
330
350
330
351
330
352
330
353
330
354
330
355
330
356
330
357
330
358
330
359
330
35A
330
35B
330
35C
330
35D
330
35E
330
35F
330
360
330
361
330
362
330
363
330
364
330
365
330
366
330
367
330
368
330
369
330
36A
330
36B
330
36C
330
36D
330
36E
330
36F
330
370
330
371
330
372
330
373
330
374
330
375
330
376
330
377
330
378
330
379
330
37A
330
37B
330
37C
330
37D
330
37E
330
37F
330
380
330
381
330
382
330
383
330
384
330
385
330
386
330
387
330
388
330
389
330
38A
330
38B
330
38C
330
38D
330
38E
330
38F
330
390
330
391
 75
0
 76
1
 98
1
 10
0.0
 20
0.0
  0
LINE
  5
393
100
AcDbEntity
  8
0
100
AcDbLine
 62
7
  6
CONTINUOUS
 10
8.5
 20
10.112
 11
8.586603
 21
10.262
  0
LINE
  5
394
100
AcDbEntity
  8
0
100
AcDbLine
 62
7
  6
CONTINUOUS
 10
16.38
 20
2.807
 11
10.03
 21
2.807
  0
LINE
  5
395
100
AcDbEntity
  8
0
100
AcDbLine
 62
7
  6
CONTINUOUS
 10
0.62
 20
3.1995
 11
0.37
 21
3.1995
  0
LINE
  5
396
100
AcDbEntity
  8
0
100
AcDbLine
 62
7
  6
CONTINUOUS
 10
16.38
 20
3.1995
 11
16.63
 21
3.1995
  0
LINE
  5
397
100
AcDbEntity
  8
0
100
AcDbLine
 62
7
  6
CONTINUOUS
 10
8.586603
 20
0.737
 11
8.5
 21
0.887
  0
LINE
  5
398
100
AcDbEntity
  8
0
100
AcDbLine
 62
7
  6
CONTINUOUS
 10
6.53
 20
0.887
 11
6.53
 21
0.637
  0
LINE
  5
399
100
AcDbEntity
  8
0
100
AcDbLine
 62
7
  6
CONTINUOUS
 10
6.53
 20
10.112
 11
6.53
 21
10.362
  0
LINE
  5
39A
100
AcDbEntity
  8
0
100
AcDbLine
 62
7
  6
CONTINUOUS
 10
8.5
 20
0.887
 11
8.5
 21
0.637
  0
LINE
  5
39B
100
AcDbEntity
  8
0
100
AcDbLine
 62
7
  6
CONTINUOUS
 10
8.5
 20
10.112
 11
8.5
 21
10.362
  0
LINE
  5
39C
100
AcDbEntity
  8
0
100
AcDbLine
 62
7
  6
CONTINUOUS
 10
0.62
 20
5.4995
 11
0.37
 21
5.4995
  0
LINE
  5
39D
100
AcDbEntity
  8
0
100
AcDbLine
 62
7
  6
CONTINUOUS
 10
16.38
 20
5.4995
 11
16.63
 21
5.4995
  0
LINE
  5
39E
100
AcDbEntity
  8
0
100
AcDbLine
 62
7
  6
CONTINUOUS
 10
10.03
 20
2.807
 11
10.03
 21
0.887
  0
LINE
  5
39F
100
AcDbEntity
  8
0
100
AcDbLine
 62
7
  6
CONTINUOUS
 10
10.47
 20
0.887
 11
10.47
 21
0.637
  0
LINE
  5
3A0
100
AcDbEntity
  8
0
100
AcDbLine
 62
7
  6
CONTINUOUS
 10
10.47
 20
10.112
 11
10.47
 21
10.362
  0
LINE
  5
3A1
100
AcDbEntity
  8
0
100
AcDbLine
 62
7
  6
CONTINUOUS
 10
10.5342808475
 20
1.143294839
 11
10.5342808475
 21
0.921203839
  0
LINE
  5
3A2
100
AcDbEntity
  8
0
100
AcDbLine
 62
7
  6
CONTINUOUS
 10
10.5342808475
 20
1.193294839
 11
10.5342808475
 21
1.293294839
  0
LINE
  5
3A3
100
AcDbEntity
  8
0
100
AcDbLine
 62
7
  6
CONTINUOUS
 10
10.5342808475
 20
1.343294839
 11
10.5342808475
 21
1.565385839
  0
LINE
  5
3A4
100
AcDbEntity
  8
0
100
AcDbLine
 62
7
  6
CONTINUOUS
 10
8.5
 20
0.887
 11
8.413397
 21
0.737
  0
LINE
  5
3A5
100
AcDbEntity
  8
0
100
AcDbLine
 62
7
  6
CONTINUOUS
 10
0.62
 20
7.7995
 11
0.37
 21
7.7995
  0
LINE
  5
3A6
100
AcDbEntity
  8
0
100
AcDbLine
 62
7
  6
CONTINUOUS
 10
16.38
 20
7.7995
 11
16.63
 21
7.7995
  0
LINE
  5
3A7
100
AcDbEntity
  8
0
100
AcDbLine
 62
7
  6
CONTINUOUS
 10
8.413397
 20
10.262
 11
8.5
 21
10.112
  0
LINE
  5
3A8
100
AcDbEntity
  8
0
100
AcDbLine
 62
7
  6
CONTINUOUS
 10
11.1389508475
 20
1.060596839
 11
11.1389508475
 21
1.425992839
  0
LINE
  5
3A9
100
AcDbEntity
  8
0
100
AcDbLine
 62
7
  6
CONTINUOUS
 10
11.7453418475
 20
1.495385839
 11
11.7453418475
 21
0.991203839
  0
LINE
  5
3AA
100
AcDbEntity
  8
0
100
AcDbLine
 62
7
  6
CONTINUOUS
 10
12.44
 20
0.887
 11
12.44
 21
0.637
  0
LINE
  5
3AB
100
AcDbEntity
  8
0
100
AcDbLine
 62
7
  6
CONTINUOUS
 10
12.44
 20
10.112
 11
12.44
 21
10.362
  0
LINE
  5
3AC
100
AcDbEntity
  8
0
100
AcDbLine
 62
7
  6
CONTINUOUS
 10
16.53
 20
5.586103
 11
16.38
 21
5.4995
  0
LINE
  5
3AD
100
AcDbEntity
  8
0
100
AcDbLine
 62
7
  6
CONTINUOUS
 10
16.38
 20
5.4995
 11
16.53
 21
5.412897
  0
LINE
  5
3AE
100
AcDbEntity
  8
0
100
AcDbLine
 62
7
  6
CONTINUOUS
 10
12.83
 20
1.507
 11
12.83
 21
1.137
  0
LINE
  5
3AF
100
AcDbEntity
  8
0
100
AcDbLine
 62
7
  6
CONTINUOUS
 10
16.38
 20
10.112
 11
0.62
 21
10.112
  0
LINE
  5
3B0
100
AcDbEntity
  8
0
100
AcDbLine
 62
7
  6
CONTINUOUS
 10
8.586603
 20
10.262
 11
8.413397
 21
10.262
  0
LINE
  5
3B1
100
AcDbEntity
  8
0
100
AcDbLine
 62
7
  6
CONTINUOUS
 10
14.205
 20
1.137
 11
14.205
 21
0.887
  0
LINE
  5
3B2
100
AcDbEntity
  8
0
100
AcDbLine
 62
7
  6
CONTINUOUS
 10
14.41
 20
0.887
 11
14.41
 21
0.637
  0
LINE
  5
3B3
100
AcDbEntity
  8
0
100
AcDbLine
 62
7
  6
CONTINUOUS
 10
14.41
 20
10.112
 11
14.41
 21
10.362
  0
LINE
  5
3B4
100
AcDbEntity
  8
0
100
AcDbLine
 62
7
  6
CONTINUOUS
 10
15.58
 20
1.507
 11
15.58
 21
1.137
  0
LINE
  5
3B5
100
AcDbEntity
  8
0
100
AcDbLine
 62
7
  6
CONTINUOUS
 10
16.38
 20
0.887
 11
16.38
 21
10.112
  0
LINE
  5
3B6
100
AcDbEntity
  8
0
100
AcDbLine
 62
7
  6
CONTINUOUS
 10
16.53
 20
5.412897
 11
16.53
 21
5.586103
  0
LINE
  5
3B7
100
AcDbEntity
  8
0
100
AcDbLine
 62
7
  6
CONTINUOUS
 10
6.8120719835
 20
5.6331763024
 11
6.8120719835
 21
6.5159080336
  0
LINE
  5
3B8
100
AcDbEntity
  8
0
100
AcDbLine
 62
7
  6
CONTINUOUS
 10
8.544355448
 20
5.169030357
 11
8.4951428496
 21
5.169030357
  0
LINE
  5
3B9
100
AcDbEntity
  8
0
100
AcDbLine
 62
7
  6
CONTINUOUS
 10
8.4951428496
 20
5.249542168
 11
8.5571428496
 21
5.249542168
  0
LWPOLYLINE
  5
3BA
100
AcDbEntity
  8
0
100
AcDbPolyline
 62
7
  6
CONTINUOUS
 90
19
 70
0
 10
7.0796190859
 20
6.498471395
 10
7.0784712493
 20
6.4939398876
 10
7.0765915501
 20
6.4767006802
 10
7.0747118508
 20
6.448491637
 10
7.0728321516
 20
6.4100822271
 10
7.0709524523
 20
6.3625201591
 10
7.0690727531
 20
6.3071028022
 10
7.0671930538
 20
6.2453417974
 10
7.0653133546
 20
6.1789218239
 10
7.0634336553
 20
6.1096546456
 10
7.0615539561
 20
6.0394296904
 10
7.0596742569
 20
5.970162512
 10
7.0577945576
 20
5.9037425386
 10
7.0559148584
 20
5.8419815338
 10
7.0540351591
 20
5.7865641769
 10
7.0521554599
 20
5.7390021089
 10
7.0502757606
 20
5.700592699
 10
7.0483960614
 20
5.6723836558
 10
7.0465163621
 20
5.6551444484
  0
LWPOLYLINE
  5
3BB
100
AcDbEntity
  8
0
100
AcDbPolyline
 62
7
  6
CONTINUOUS
 90
9
 70
0
 10
7.0516395331
 20
6.4505243952
 10
7.0502494089
 20
6.4453184098
 10
7.0482652819
 20
6.4283327401
 10
7.0462811549
 20
6.400597323
 10
7.0442970279
 20
6.3629548849
 10
7.0423129009
 20
6.3165491724
 10
7.040328774
 20
6.2627901995
 10
7.038344647
 20
6.2033114054
 10
7.03636052
 20
6.1399200232
  0
LWPOLYLINE
  5
3BC
100
AcDbEntity
  8
0
100
AcDbPolyline
 62
7
  6
CONTINUOUS
 90
20
 70
0
 10
7.0151791153
 20
6.4997390184
 10
7.013299416
 20
6.4939398876
 10
7.0114197168
 20
6.4767006802
 10
7.0095400175
 20
6.448491637
 10
7.0076603183
 20
6.4100822271
 10
7.005780619
 20
6.3625201591
 10
7.0039009198
 20
6.3071028022
 10
7.0020212205
 20
6.2453417974
 10
7.0001415213
 20
6.1789218239
 10
6.998261822
 20
6.1096546456
 10
6.9963821228
 20
6.0394296904
 10
6.9945024235
 20
5.970162512
 10
6.9926227243
 20
5.9037425386
 10
6.990743025
 20
5.8419815338
 10
6.9888633258
 20
5.7865641769
 10
6.9869836266
 20
5.7390021089
 10
6.9851039273
 20
5.700592699
 10
6.9832242281
 20
5.6723836558
 10
6.9813445288
 20
5.6551444484
 10
6.9801966923
 20
5.650612941
  0
LINE
  5
3BD
100
AcDbEntity
  8
0
100
AcDbLine
 62
7
  6
CONTINUOUS
 10
7.0866076867
 20
6.4997390184
 11
7.0847279875
 21
6.4939398876
  0
LWPOLYLINE
  5
3BE
100
AcDbEntity
  8
0
100
AcDbPolyline
 62
7
  6
CONTINUOUS
 90
9
 70
0
 10
7.043296528
 20
6.451038231
 10
7.041312401
 20
6.4453184098
 10
7.039328274
 20
6.4283327401
 10
7.037344147
 20
6.400597323
 10
7.0353600201
 20
6.3629548849
 10
7.0333758931
 20
6.3165491724
 10
7.0313917661
 20
6.2627901995
 10
7.0294076391
 20
6.2033114054
 10
7.0274235121
 20
6.1399200232
  0
LINE
  5
3BF
100
AcDbEntity
  8
0
100
AcDbLine
 62
7
  6
CONTINUOUS
 10
7.0522335359
 20
6.451038231
 11
7.0803509486
 21
6.4997390184
  0
LINE
  5
3C0
100
AcDbEntity
  8
0
100
AcDbLine
 62
7
  6
CONTINUOUS
 10
7.0446366629
 20
5.6493453176
 11
7.0165192502
 21
5.698046105
  0
LINE
  5
3C1
100
AcDbEntity
  8
0
100
AcDbLine
 62
7
  6
CONTINUOUS
 10
7.1160652343
 20
5.6493453176
 11
7.0879478216
 21
5.698046105
  0
LWPOLYLINE
  5
3C2
100
AcDbEntity
  8
0
100
AcDbPolyline
 62
7
  6
CONTINUOUS
 90
10
 70
0
 10
7.0274235121
 20
6.1399200232
 10
7.0234552581
 20
6.0091643128
 10
7.0214711312
 20
5.9457729306
 10
7.0194870042
 20
5.8862941365
 10
7.0175028772
 20
5.8325351636
 10
7.0155187502
 20
5.7861294511
 10
7.0135346232
 20
5.748487013
 10
7.0115504962
 20
5.7207515958
 10
7.0095663693
 20
5.7037659262
 10
7.008176245
 20
5.6985599408
  0
LWPOLYLINE
  5
3C3
100
AcDbEntity
  8
0
100
AcDbPolyline
 62
7
  6
CONTINUOUS
 90
10
 70
0
 10
7.03636052
 20
6.1399200232
 10
7.032392266
 20
6.0091643128
 10
7.030408139
 20
5.9457729306
 10
7.0284240121
 20
5.8862941365
 10
7.0264398851
 20
5.8325351636
 10
7.0244557581
 20
5.7861294511
 10
7.0224716311
 20
5.748487013
 10
7.0204875041
 20
5.7207515958
 10
7.0185033771
 20
5.7037659262
 10
7.0165192502
 20
5.698046105
  0
LWPOLYLINE
  5
3C4
100
AcDbEntity
  8
0
100
AcDbPolyline
 62
7
  6
CONTINUOUS
 90
19
 70
0
 10
7.0847279875
 20
6.4939398876
 10
7.0828482882
 20
6.4767006802
 10
7.080968589
 20
6.448491637
 10
7.0790888897
 20
6.4100822271
 10
7.0772091905
 20
6.3625201591
 10
7.0753294912
 20
6.3071028022
 10
7.073449792
 20
6.2453417974
 10
7.0715700927
 20
6.1789218239
 10
7.0696903935
 20
6.1096546456
 10
7.0678106942
 20
6.0394296904
 10
7.065930995
 20
5.970162512
 10
7.0640512957
 20
5.9037425386
 10
7.0621715965
 20
5.8419815338
 10
7.0602918972
 20
5.7865641769
 10
7.058412198
 20
5.7390021089
 10
7.0565324987
 20
5.700592699
 10
7.0546527995
 20
5.6723836558
 10
7.0527731002
 20
5.6551444484
 10
7.0516252637
 20
5.650612941
  0
LWPOLYLINE
  5
3C5
100
AcDbEntity
  8
0
100
AcDbPolyline
 62
7
  6
CONTINUOUS
 90
19
 70
0
 10
7.1510476573
 20
6.498471395
 10
7.1498998208
 20
6.4939398876
 10
7.1480201215
 20
6.4767006802
 10
7.1461404223
 20
6.448491637
 10
7.144260723
 20
6.4100822271
 10
7.1423810238
 20
6.3625201591
 10
7.1405013245
 20
6.3071028022
 10
7.1386216253
 20
6.2453417974
 10
7.136741926
 20
6.1789218239
 10
7.1348622268
 20
6.1096546456
 10
7.1329825275
 20
6.0394296904
 10
7.1311028283
 20
5.970162512
 10
7.129223129
 20
5.9037425386
 10
7.1273434298
 20
5.8419815338
 10
7.1254637305
 20
5.7865641769
 10
7.1235840313
 20
5.7390021089
 10
7.121704332
 20
5.700592699
 10
7.1198246328
 20
5.6723836558
 10
7.1179449335
 20
5.6551444484
  0
LWPOLYLINE
  5
3C6
100
AcDbEntity
  8
0
100
AcDbPolyline
 62
7
  6
CONTINUOUS
 90
9
 70
0
 10
7.1230681045
 20
6.4505243952
 10
7.1216779803
 20
6.4453184098
 10
7.1196938533
 20
6.4283327401
 10
7.1177097263
 20
6.400597323
 10
7.1157255994
 20
6.3629548849
 10
7.1137414724
 20
6.3165491724
 10
7.1117573454
 20
6.2627901995
 10
7.1097732184
 20
6.2033114054
 10
7.1077890914
 20
6.1399200232
  0
LINE
  5
3C7
100
AcDbEntity
  8
0
100
AcDbLine
 62
7
  6
CONTINUOUS
 10
7.1580362581
 20
6.4997390184
 11
7.1561565589
 21
6.4939398876
  0
LWPOLYLINE
  5
3C8
100
AcDbEntity
  8
0
100
AcDbPolyline
 62
7
  6
CONTINUOUS
 90
9
 70
0
 10
7.1147250994
 20
6.451038231
 10
7.1127409724
 20
6.4453184098
 10
7.1107568455
 20
6.4283327401
 10
7.1087727185
 20
6.400597323
 10
7.1067885915
 20
6.3629548849
 10
7.1048044645
 20
6.3165491724
 10
7.1028203375
 20
6.2627901995
 10
7.1008362105
 20
6.2033114054
 10
7.0988520835
 20
6.1399200232
  0
LINE
  5
3C9
100
AcDbEntity
  8
0
100
AcDbLine
 62
7
  6
CONTINUOUS
 10
7.1236621073
 20
6.451038231
 11
7.15177952
 21
6.4997390184
  0
LINE
  5
3CA
100
AcDbEntity
  8
0
100
AcDbLine
 62
7
  6
CONTINUOUS
 10
7.1950906787
 20
6.451038231
 11
7.2232080914
 21
6.4997390184
  0
LINE
  5
3CB
100
AcDbEntity
  8
0
100
AcDbLine
 62
7
  6
CONTINUOUS
 10
8.4951428496
 20
5.469542168
 11
8.5571428496
 21
5.469542168
  0
LINE
  5
3CC
100
AcDbEntity
  8
0
100
AcDbLine
 62
7
  6
CONTINUOUS
 10
7.1874938057
 20
5.6493453176
 11
7.159376393
 21
5.698046105
  0
LWPOLYLINE
  5
3CD
100
AcDbEntity
  8
0
100
AcDbPolyline
 62
7
  6
CONTINUOUS
 90
10
 70
0
 10
7.0988520835
 20
6.1399200232
 10
7.0948838296
 20
6.0091643128
 10
7.0928997026
 20
5.9457729306
 10
7.0909155756
 20
5.8862941365
 10
7.0889314486
 20
5.8325351636
 10
7.0869473216
 20
5.7861294511
 10
7.0849631947
 20
5.748487013
 10
7.0829790677
 20
5.7207515958
 10
7.0809949407
 20
5.7037659262
 10
7.0796048165
 20
5.6985599408
  0
LWPOLYLINE
  5
3CE
100
AcDbEntity
  8
0
100
AcDbPolyline
 62
7
  6
CONTINUOUS
 90
10
 70
0
 10
7.1077890914
 20
6.1399200232
 10
7.1038208375
 20
6.0091643128
 10
7.1018367105
 20
5.9457729306
 10
7.0998525835
 20
5.8862941365
 10
7.0978684565
 20
5.8325351636
 10
7.0958843295
 20
5.7861294511
 10
7.0939002025
 20
5.748487013
 10
7.0919160755
 20
5.7207515958
 10
7.0899319486
 20
5.7037659262
 10
7.0879478216
 20
5.698046105
  0
LWPOLYLINE
  5
3CF
100
AcDbEntity
  8
0
100
AcDbPolyline
 62
7
  6
CONTINUOUS
 90
10
 70
0
 10
7.170280655
 20
6.1399200232
 10
7.166312401
 20
6.0091643128
 10
7.164328274
 20
5.9457729306
 10
7.162344147
 20
5.8862941365
 10
7.1603600201
 20
5.8325351636
 10
7.1583758931
 20
5.7861294511
 10
7.1563917661
 20
5.748487013
 10
7.1544076391
 20
5.7207515958
 10
7.1524235121
 20
5.7037659262
 10
7.1510333879
 20
5.6985599408
  0
LWPOLYLINE
  5
3D0
100
AcDbEntity
  8
0
100
AcDbPolyline
 62
7
  6
CONTINUOUS
 90
19
 70
0
 10
7.1561565589
 20
6.4939398876
 10
7.1542768596
 20
6.4767006802
 10
7.1523971604
 20
6.448491637
 10
7.1505174611
 20
6.4100822271
 10
7.1486377619
 20
6.3625201591
 10
7.1467580626
 20
6.3071028022
 10
7.1448783634
 20
6.2453417974
 10
7.1429986641
 20
6.1789218239
 10
7.1411189649
 20
6.1096546456
 10
7.1392392657
 20
6.0394296904
 10
7.1373595664
 20
5.970162512
 10
7.1354798672
 20
5.9037425386
 10
7.1336001679
 20
5.8419815338
 10
7.1317204687
 20
5.7865641769
 10
7.1298407694
 20
5.7390021089
 10
7.1279610702
 20
5.700592699
 10
7.1260813709
 20
5.6723836558
 10
7.1242016717
 20
5.6551444484
 10
7.1230538351
 20
5.650612941
  0
LWPOLYLINE
  5
3D1
100
AcDbEntity
  8
0
100
AcDbPolyline
 62
7
  6
CONTINUOUS
 90
19
 70
0
 10
7.2224762287
 20
6.498471395
 10
7.2213283922
 20
6.4939398876
 10
7.2194486929
 20
6.4767006802
 10
7.2175689937
 20
6.448491637
 10
7.2156892944
 20
6.4100822271
 10
7.2138095952
 20
6.3625201591
 10
7.2119298959
 20
6.3071028022
 10
7.2100501967
 20
6.2453417974
 10
7.2081704975
 20
6.1789218239
 10
7.2062907982
 20
6.1096546456
 10
7.204411099
 20
6.0394296904
 10
7.2025313997
 20
5.970162512
 10
7.2006517005
 20
5.9037425386
 10
7.1987720012
 20
5.8419815338
 10
7.196892302
 20
5.7865641769
 10
7.1950126027
 20
5.7390021089
 10
7.1931329035
 20
5.700592699
 10
7.1912532042
 20
5.6723836558
 10
7.189373505
 20
5.6551444484
  0
LWPOLYLINE
  5
3D2
100
AcDbEntity
  8
0
100
AcDbPolyline
 62
7
  6
CONTINUOUS
 90
9
 70
0
 10
7.194496676
 20
6.4505243952
 10
7.1931065517
 20
6.4453184098
 10
7.1911224248
 20
6.4283327401
 10
7.1891382978
 20
6.400597323
 10
7.1871541708
 20
6.3629548849
 10
7.1851700438
 20
6.3165491724
 10
7.1831859168
 20
6.2627901995
 10
7.1812017898
 20
6.2033114054
 10
7.1792176628
 20
6.1399200232
  0
LWPOLYLINE
  5
3D3
100
AcDbEntity
  8
0
100
AcDbPolyline
 62
7
  6
CONTINUOUS
 90
6
 70
0
 10
7.2575822423
 20
6.451038231
 10
7.2555574954
 20
6.4450824408
 10
7.2535327485
 20
6.4274034996
 10
7.2515080016
 20
6.3985607336
 10
7.2494832546
 20
6.3594666701
 10
7.2474585077
 20
6.3113581667
  0
LWPOLYLINE
  5
3D4
100
AcDbEntity
  8
0
100
AcDbPolyline
 62
7
  6
CONTINUOUS
 90
9
 70
0
 10
7.1861536708
 20
6.451038231
 10
7.1841695439
 20
6.4453184098
 10
7.1821854169
 20
6.4283327401
 10
7.1802012899
 20
6.400597323
 10
7.1782171629
 20
6.3629548849
 10
7.1762330359
 20
6.3165491724
 10
7.1742489089
 20
6.2627901995
 10
7.172264782
 20
6.2033114054
 10
7.170280655
 20
6.1399200232
  0
LINE
  5
3D5
100
AcDbEntity
  8
0
100
AcDbLine
 62
7
  6
CONTINUOUS
 10
7.2277804287
 20
6.4950802399
 11
7.2294648296
 21
6.4997390184
  0
LINE
  5
3D6
100
AcDbEntity
  8
0
100
AcDbLine
 62
7
  6
CONTINUOUS
 10
7.2665192502
 20
6.451038231
 11
7.2946366629
 21
6.4997390184
  0
LINE
  5
3D7
100
AcDbEntity
  8
0
100
AcDbLine
 62
7
  6
CONTINUOUS
 10
7.5896310386
 20
5.4741484672
 11
7.5965255256
 21
5.4741484672
  0
LINE
  5
3D8
100
AcDbEntity
  8
0
100
AcDbLine
 62
7
  6
CONTINUOUS
 10
7.6486861567
 20
5.4741484672
 11
7.6555806437
 21
5.4741484672
  0
LINE
  5
3D9
100
AcDbEntity
  8
0
100
AcDbLine
 62
7
  6
CONTINUOUS
 10
7.7077412748
 20
5.4741484672
 11
7.7146357618
 21
5.4741484672
  0
LINE
  5
3DA
100
AcDbEntity
  8
0
100
AcDbLine
 62
7
  6
CONTINUOUS
 10
7.7667963929
 20
5.4741484672
 11
7.7736908799
 21
5.4741484672
  0
LINE
  5
3DB
100
AcDbEntity
  8
0
100
AcDbLine
 62
7
  6
CONTINUOUS
 10
7.825851511
 20
5.4741484672
 11
7.832745998
 21
5.4741484672
  0
LINE
  5
3DC
100
AcDbEntity
  8
0
100
AcDbLine
 62
7
  6
CONTINUOUS
 10
7.8849066291
 20
5.4741484672
 11
7.8918011161
 21
5.4741484672
  0
LINE
  5
3DD
100
AcDbEntity
  8
0
100
AcDbLine
 62
7
  6
CONTINUOUS
 10
7.9439617472
 20
5.4741484672
 11
7.9508562342
 21
5.4741484672
  0
LINE
  5
3DE
100
AcDbEntity
  8
0
100
AcDbLine
 62
7
  6
CONTINUOUS
 10
8.0030168653
 20
5.4741484672
 11
8.0099113523
 21
5.4741484672
  0
LINE
  5
3DF
100
AcDbEntity
  8
0
100
AcDbLine
 62
7
  6
CONTINUOUS
 10
8.0620719835
 20
5.4741484672
 11
8.0689664704
 21
5.4741484672
  0
LINE
  5
3E0
100
AcDbEntity
  8
0
100
AcDbLine
 62
7
  6
CONTINUOUS
 10
8.1211271016
 20
5.4741484672
 11
8.4951428496
 21
5.4741484672
  0
LINE
  5
3E1
100
AcDbEntity
  8
0
100
AcDbLine
 62
7
  6
CONTINUOUS
 10
8.0987377309
 20
5.5129279948
 11
8.0913558411
 21
5.5129279948
  0
LINE
  5
3E2
100
AcDbEntity
  8
0
100
AcDbLine
 62
7
  6
CONTINUOUS
 10
8.0396826128
 20
5.5129279948
 11
8.032300723
 21
5.5129279948
  0
LINE
  5
3E3
100
AcDbEntity
  8
0
100
AcDbLine
 62
7
  6
CONTINUOUS
 10
7.9806274947
 20
5.5129279948
 11
7.9732456049
 21
5.5129279948
  0
LINE
  5
3E4
100
AcDbEntity
  8
0
100
AcDbLine
 62
7
  6
CONTINUOUS
 10
7.9215723766
 20
5.5129279948
 11
7.9141904868
 21
5.5129279948
  0
LINE
  5
3E5
100
AcDbEntity
  8
0
100
AcDbLine
 62
7
  6
CONTINUOUS
 10
7.8625172584
 20
5.5129279948
 11
7.8551353687
 21
5.5129279948
  0
LINE
  5
3E6
100
AcDbEntity
  8
0
100
AcDbLine
 62
7
  6
CONTINUOUS
 10
7.8034621403
 20
5.5129279948
 11
7.7960802506
 21
5.5129279948
  0
LINE
  5
3E7
100
AcDbEntity
  8
0
100
AcDbLine
 62
7
  6
CONTINUOUS
 10
7.7444070222
 20
5.5129279948
 11
7.7370251325
 21
5.5129279948
  0
LINE
  5
3E8
100
AcDbEntity
  8
0
100
AcDbLine
 62
7
  6
CONTINUOUS
 10
7.6853519041
 20
5.5129279948
 11
7.6779700144
 21
5.5129279948
  0
LINE
  5
3E9
100
AcDbEntity
  8
0
100
AcDbLine
 62
7
  6
CONTINUOUS
 10
7.626296786
 20
5.5129279948
 11
7.6189148962
 21
5.5129279948
  0
LINE
  5
3EA
100
AcDbEntity
  8
0
100
AcDbLine
 62
7
  6
CONTINUOUS
 10
7.5672416679
 20
5.5129279948
 11
7.5601034795
 21
5.5129279948
  0
LINE
  5
3EB
100
AcDbEntity
  8
0
100
AcDbLine
 62
7
  6
CONTINUOUS
 10
7.2589223772
 20
5.6493453176
 11
7.2308049644
 21
5.698046105
  0
LINE
  5
3EC
100
AcDbEntity
  8
0
100
AcDbLine
 62
7
  6
CONTINUOUS
 10
7.3303509486
 20
5.6493453176
 11
7.3022335359
 21
5.698046105
  0
LWPOLYLINE
  5
3ED
100
AcDbEntity
  8
0
100
AcDbPolyline
 62
7
  6
CONTINUOUS
 90
10
 70
0
 10
7.1792176628
 20
6.1399200232
 10
7.1752494089
 20
6.0091643128
 10
7.1732652819
 20
5.9457729306
 10
7.1712811549
 20
5.8862941365
 10
7.1692970279
 20
5.8325351636
 10
7.1673129009
 20
5.7861294511
 10
7.165328774
 20
5.748487013
 10
7.163344647
 20
5.7207515958
 10
7.16136052
 20
5.7037659262
 10
7.159376393
 20
5.698046105
  0
LWPOLYLINE
  5
3EE
100
AcDbEntity
  8
0
100
AcDbPolyline
 62
7
  6
CONTINUOUS
 90
15
 70
0
 10
7.219341095
 20
6.3419909588
 10
7.2175131985
 20
6.2856206375
 10
7.215685302
 20
6.2238049502
 10
7.2138574055
 20
6.1581386073
 10
7.212029509
 20
6.0903156577
 10
7.2102016125
 20
6.0220857864
 10
7.2083737159
 20
5.9552091759
 10
7.2065458194
 20
5.8914110973
 10
7.2047179229
 20
5.8323374027
 10
7.2028900264
 20
5.7795120649
 10
7.2010621299
 20
5.7342978631
 10
7.1992342334
 20
5.6978612254
 10
7.1974063369
 20
5.671142138
 10
7.1955784404
 20
5.6548298953
 10
7.1944905685
 20
5.6506270779
  0
LWPOLYLINE
  5
3EF
100
AcDbEntity
  8
0
100
AcDbPolyline
 62
7
  6
CONTINUOUS
 90
14
 70
0
 10
7.2474585077
 20
6.3113581667
 10
7.2454900038
 20
6.2573877722
 10
7.2435214999
 20
6.197948635
 10
7.2415529959
 20
6.1348185248
 10
7.239584492
 20
6.0698856046
 10
7.2376159881
 20
6.0050919579
 10
7.2356474841
 20
5.9423755026
 10
7.2336789802
 20
5.8836120298
 10
7.2317104762
 20
5.8305591005
 10
7.2297419723
 20
5.7848034787
 10
7.2277734684
 20
5.7477136726
 10
7.2258049644
 20
5.720399004
 10
7.2238364605
 20
5.7036764292
 10
7.2224619593
 20
5.6985599408
  0
LWPOLYLINE
  5
3F0
100
AcDbEntity
  8
0
100
AcDbPolyline
 62
7
  6
CONTINUOUS
 90
14
 70
0
 10
7.2563955156
 20
6.3113581667
 10
7.2544270117
 20
6.2573877722
 10
7.2524585077
 20
6.197948635
 10
7.2504900038
 20
6.1348185248
 10
7.2485214999
 20
6.0698856046
 10
7.2465529959
 20
6.0050919579
 10
7.244584492
 20
5.9423755026
 10
7.2426159881
 20
5.8836120298
 10
7.2406474841
 20
5.8305591005
 10
7.2386789802
 20
5.7848034787
 10
7.2367104762
 20
5.7477136726
 10
7.2347419723
 20
5.720399004
 10
7.2327734684
 20
5.7036764292
 10
7.2308049644
 20
5.698046105
  0
LWPOLYLINE
  5
3F1
100
AcDbEntity
  8
0
100
AcDbPolyline
 62
7
  6
CONTINUOUS
 90
6
 70
0
 10
7.219341095
 20
6.3419909588
 10
7.2210125094
 20
6.38752987
 10
7.2226834093
 20
6.4263044717
 10
7.2243705558
 20
6.4577572493
 10
7.2260758716
 20
6.4809852059
 10
7.2277804287
 20
6.4950802399
  0
LWPOLYLINE
  5
3F2
100
AcDbEntity
  8
0
100
AcDbPolyline
 62
7
  6
CONTINUOUS
 90
19
 70
0
 10
7.2990137017
 20
6.4939398876
 10
7.2971340025
 20
6.4767006802
 10
7.2952543032
 20
6.448491637
 10
7.293374604
 20
6.4100822271
 10
7.2914949047
 20
6.3625201591
 10
7.2896152055
 20
6.3071028022
 10
7.2877355063
 20
6.2453417974
 10
7.285855807
 20
6.1789218239
 10
7.2839761078
 20
6.1096546456
 10
7.2820964085
 20
6.0394296904
 10
7.2802167093
 20
5.970162512
 10
7.27833701
 20
5.9037425386
 10
7.2764573108
 20
5.8419815338
 10
7.2745776115
 20
5.7865641769
 10
7.2726979123
 20
5.7390021089
 10
7.270818213
 20
5.700592699
 10
7.2689385138
 20
5.6723836558
 10
7.2670588145
 20
5.6551444484
 10
7.265910978
 20
5.650612941
  0
LWPOLYLINE
  5
3F3
100
AcDbEntity
  8
0
100
AcDbPolyline
 62
7
  6
CONTINUOUS
 90
6
 70
0
 10
7.2659252474
 20
6.4505243952
 10
7.2644945032
 20
6.4450824408
 10
7.2624697563
 20
6.4274034996
 10
7.2604450094
 20
6.3985607336
 10
7.2584202625
 20
6.3594666701
 10
7.2563955156
 20
6.3113581667
  0
LWPOLYLINE
  5
3F4
100
AcDbEntity
  8
0
100
AcDbPolyline
 62
7
  6
CONTINUOUS
 90
9
 70
0
 10
7.3373538188
 20
6.4505243952
 10
7.3359636946
 20
6.4453184098
 10
7.3339795676
 20
6.4283327401
 10
7.3319954406
 20
6.400597323
 10
7.3300113136
 20
6.3629548849
 10
7.3280271867
 20
6.3165491724
 10
7.3260430597
 20
6.2627901995
 10
7.3240589327
 20
6.2033114054
 10
7.3220748057
 20
6.1399200232
  0
LWPOLYLINE
  5
3F5
100
AcDbEntity
  8
0
100
AcDbPolyline
 62
7
  6
CONTINUOUS
 90
7
 70
0
 10
7.2938708056
 20
6.4984125147
 10
7.2929493738
 20
6.4950642786
 10
7.2912620847
 20
6.48114285
 10
7.2895747956
 20
6.4582808454
 10
7.2878875065
 20
6.4269809679
 10
7.2862002174
 20
6.3879314578
 10
7.2845129283
 20
6.3419909588
  0
LINE
  5
3F6
100
AcDbEntity
  8
0
100
AcDbLine
 62
7
  6
CONTINUOUS
 10
7.300893401
 20
6.4997390184
 11
7.2990137017
 21
6.4939398876
  0
LINE
  5
3F7
100
AcDbEntity
  8
0
100
AcDbLine
 62
7
  6
CONTINUOUS
 10
7.0465163621
 20
5.6551444484
 11
7.0446366629
 21
5.6493453176
  0
LINE
  5
3F8
100
AcDbEntity
  8
0
100
AcDbLine
 62
7
  6
CONTINUOUS
 10
7.3723219724
 20
6.4997390184
 11
7.3704422732
 21
6.4939398876
  0
LWPOLYLINE
  5
3F9
100
AcDbEntity
  8
0
100
AcDbPolyline
 62
7
  6
CONTINUOUS
 90
9
 70
0
 10
7.3290108137
 20
6.451038231
 10
7.3270266867
 20
6.4453184098
 10
7.3250425597
 20
6.4283327401
 10
7.3230584328
 20
6.400597323
 10
7.3210743058
 20
6.3629548849
 10
7.3190901788
 20
6.3165491724
 10
7.3171060518
 20
6.2627901995
 10
7.3151219248
 20
6.2033114054
 10
7.3131377978
 20
6.1399200232
  0
LINE
  5
3FA
100
AcDbEntity
  8
0
100
AcDbLine
 62
7
  6
CONTINUOUS
 10
7.3379478216
 20
6.451038231
 11
7.3660652343
 21
6.4997390184
  0
LINE
  5
3FB
100
AcDbEntity
  8
0
100
AcDbLine
 62
7
  6
CONTINUOUS
 10
7.40177952
 20
5.6493453176
 11
7.3736621073
 21
5.698046105
  0
LWPOLYLINE
  5
3FC
100
AcDbEntity
  8
0
100
AcDbPolyline
 62
7
  6
CONTINUOUS
 90
10
 70
0
 10
7.3131377978
 20
6.1399200232
 10
7.3091695439
 20
6.0091643128
 10
7.3071854169
 20
5.9457729306
 10
7.3052012899
 20
5.8862941365
 10
7.3032171629
 20
5.8325351636
 10
7.3012330359
 20
5.7861294511
 10
7.2992489089
 20
5.748487013
 10
7.297264782
 20
5.7207515958
 10
7.295280655
 20
5.7037659262
 10
7.2938905308
 20
5.6985599408
  0
LWPOLYLINE
  5
3FD
100
AcDbEntity
  8
0
100
AcDbPolyline
 62
7
  6
CONTINUOUS
 90
10
 70
0
 10
7.3220748057
 20
6.1399200232
 10
7.3181065517
 20
6.0091643128
 10
7.3161224248
 20
5.9457729306
 10
7.3141382978
 20
5.8862941365
 10
7.3121541708
 20
5.8325351636
 10
7.3101700438
 20
5.7861294511
 10
7.3081859168
 20
5.748487013
 10
7.3062017898
 20
5.7207515958
 10
7.3042176628
 20
5.7037659262
 10
7.3022335359
 20
5.698046105
  0
LWPOLYLINE
  5
3FE
100
AcDbEntity
  8
0
100
AcDbPolyline
 62
7
  6
CONTINUOUS
 90
14
 70
0
 10
7.2845129283
 20
6.3419909588
 10
7.2826850318
 20
6.2856206375
 10
7.2808571353
 20
6.2238049502
 10
7.2790292388
 20
6.1581386073
 10
7.2772013423
 20
6.0903156577
 10
7.2753734458
 20
6.0220857864
 10
7.2735455493
 20
5.9552091759
 10
7.2717176527
 20
5.8914110973
 10
7.2698897562
 20
5.8323374027
 10
7.2680618597
 20
5.7795120649
 10
7.2662339632
 20
5.7342978631
 10
7.2644060667
 20
5.6978612254
 10
7.2625781702
 20
5.671142138
 10
7.2607502737
 20
5.6548298953
  0
LWPOLYLINE
  5
3FF
100
AcDbEntity
  8
0
100
AcDbPolyline
 62
7
  6
CONTINUOUS
 90
19
 70
0
 10
7.3704422732
 20
6.4939398876
 10
7.3685625739
 20
6.4767006802
 10
7.3666828747
 20
6.448491637
 10
7.3648031754
 20
6.4100822271
 10
7.3629234762
 20
6.3625201591
 10
7.3610437769
 20
6.3071028022
 10
7.3591640777
 20
6.2453417974
 10
7.3572843784
 20
6.1789218239
 10
7.3554046792
 20
6.1096546456
 10
7.3535249799
 20
6.0394296904
 10
7.3516452807
 20
5.970162512
 10
7.3497655814
 20
5.9037425386
 10
7.3478858822
 20
5.8419815338
 10
7.3460061829
 20
5.7865641769
 10
7.3441264837
 20
5.7390021089
 10
7.3422467844
 20
5.700592699
 10
7.3403670852
 20
5.6723836558
 10
7.338487386
 20
5.6551444484
 10
7.3373395494
 20
5.650612941
  0
LWPOLYLINE
  5
400
100
AcDbEntity
  8
0
100
AcDbPolyline
 62
7
  6
CONTINUOUS
 90
19
 70
0
 10
7.3653333716
 20
6.498471395
 10
7.364185535
 20
6.4939398876
 10
7.3623058358
 20
6.4767006802
 10
7.3604261366
 20
6.448491637
 10
7.3585464373
 20
6.4100822271
 10
7.3566667381
 20
6.3625201591
 10
7.3547870388
 20
6.3071028022
 10
7.3529073396
 20
6.2453417974
 10
7.3510276403
 20
6.1789218239
 10
7.3491479411
 20
6.1096546456
 10
7.3472682418
 20
6.0394296904
 10
7.3453885426
 20
5.970162512
 10
7.3435088433
 20
5.9037425386
 10
7.3416291441
 20
5.8419815338
 10
7.3397494448
 20
5.7865641769
 10
7.3378697456
 20
5.7390021089
 10
7.3359900463
 20
5.700592699
 10
7.3341103471
 20
5.6723836558
 10
7.3322306478
 20
5.6551444484
  0
LWPOLYLINE
  5
401
100
AcDbEntity
  8
0
100
AcDbPolyline
 62
7
  6
CONTINUOUS
 90
19
 70
0
 10
7.436761943
 20
6.498471395
 10
7.4356141065
 20
6.4939398876
 10
7.4337344072
 20
6.4767006802
 10
7.431854708
 20
6.448491637
 10
7.4299750087
 20
6.4100822271
 10
7.4280953095
 20
6.3625201591
 10
7.4262156102
 20
6.3071028022
 10
7.424335911
 20
6.2453417974
 10
7.4224562117
 20
6.1789218239
 10
7.4205765125
 20
6.1096546456
 10
7.4186968132
 20
6.0394296904
 10
7.416817114
 20
5.970162512
 10
7.4149374147
 20
5.9037425386
 10
7.4130577155
 20
5.8419815338
 10
7.4111780162
 20
5.7865641769
 10
7.409298317
 20
5.7390021089
 10
7.4074186178
 20
5.700592699
 10
7.4055389185
 20
5.6723836558
 10
7.4036592193
 20
5.6551444484
  0
LWPOLYLINE
  5
402
100
AcDbEntity
  8
0
100
AcDbPolyline
 62
7
  6
CONTINUOUS
 90
9
 70
0
 10
7.4087823903
 20
6.4505243952
 10
7.407392266
 20
6.4453184098
 10
7.405408139
 20
6.4283327401
 10
7.4034240121
 20
6.400597323
 10
7.4014398851
 20
6.3629548849
 10
7.3994557581
 20
6.3165491724
 10
7.3974716311
 20
6.2627901995
 10
7.3954875041
 20
6.2033114054
 10
7.3935033771
 20
6.1399200232
  0
LINE
  5
403
100
AcDbEntity
  8
0
100
AcDbLine
 62
7
  6
CONTINUOUS
 10
7.1179449335
 20
5.6551444484
 11
7.1160652343
 21
5.6493453176
  0
LINE
  5
404
100
AcDbEntity
  8
0
100
AcDbLine
 62
7
  6
CONTINUOUS
 10
7.4437505438
 20
6.4997390184
 11
7.4418708446
 21
6.4939398876
  0
LINE
  5
405
100
AcDbEntity
  8
0
100
AcDbLine
 62
7
  6
CONTINUOUS
 10
7.189373505
 20
5.6551444484
 11
7.1874938057
 21
5.6493453176
  0
LWPOLYLINE
  5
406
100
AcDbEntity
  8
0
100
AcDbPolyline
 62
7
  6
CONTINUOUS
 90
9
 70
0
 10
7.4004393851
 20
6.451038231
 10
7.3984552581
 20
6.4453184098
 10
7.3964711312
 20
6.4283327401
 10
7.3944870042
 20
6.400597323
 10
7.3925028772
 20
6.3629548849
 10
7.3905187502
 20
6.3165491724
 10
7.3885346232
 20
6.2627901995
 10
7.3865504962
 20
6.2033114054
 10
7.3845663693
 20
6.1399200232
  0
LINE
  5
407
100
AcDbEntity
  8
0
100
AcDbLine
 62
7
  6
CONTINUOUS
 10
7.409376393
 20
6.451038231
 11
7.4374938057
 21
6.4997390184
  0
LINE
  5
408
100
AcDbEntity
  8
0
100
AcDbLine
 62
7
  6
CONTINUOUS
 10
7.0075822423
 20
5.698046105
 11
6.9794648296
 21
5.6493453176
  0
LINE
  5
409
100
AcDbEntity
  8
0
100
AcDbLine
 62
7
  6
CONTINUOUS
 10
7.4808049644
 20
6.451038231
 11
7.5089223772
 21
6.4997390184
  0
LINE
  5
40A
100
AcDbEntity
  8
0
100
AcDbLine
 62
7
  6
CONTINUOUS
 10
7.5967692269
 20
6.6361563412
 11
7.6191585976
 21
6.6749358688
  0
LINE
  5
40B
100
AcDbEntity
  8
0
100
AcDbLine
 62
7
  6
CONTINUOUS
 10
6.8120719835
 20
5.6493453176
 11
6.9794648296
 21
5.6493453176
  0
LINE
  5
40C
100
AcDbEntity
  8
0
100
AcDbLine
 62
7
  6
CONTINUOUS
 10
7.0446366629
 20
5.6493453176
 11
7.050893401
 21
5.6493453176
  0
LINE
  5
40D
100
AcDbEntity
  8
0
100
AcDbLine
 62
7
  6
CONTINUOUS
 10
7.1160652343
 20
5.6493453176
 11
7.1223219724
 21
5.6493453176
  0
LINE
  5
40E
100
AcDbEntity
  8
0
100
AcDbLine
 62
7
  6
CONTINUOUS
 10
7.1874938057
 20
5.6493453176
 11
7.1937505438
 21
5.6493453176
  0
LINE
  5
40F
100
AcDbEntity
  8
0
100
AcDbLine
 62
7
  6
CONTINUOUS
 10
7.2589223772
 20
5.6493453176
 11
7.2651791153
 21
5.6493453176
  0
LINE
  5
410
100
AcDbEntity
  8
0
100
AcDbLine
 62
7
  6
CONTINUOUS
 10
7.3303509486
 20
5.6493453176
 11
7.3366076867
 21
5.6493453176
  0
LINE
  5
411
100
AcDbEntity
  8
0
100
AcDbLine
 62
7
  6
CONTINUOUS
 10
7.40177952
 20
5.6493453176
 11
7.4080362581
 21
5.6493453176
  0
LINE
  5
412
100
AcDbEntity
  8
0
100
AcDbLine
 62
7
  6
CONTINUOUS
 10
7.4732080914
 20
5.6493453176
 11
7.4794648296
 21
5.6493453176
  0
LINE
  5
413
100
AcDbEntity
  8
0
100
AcDbLine
 62
7
  6
CONTINUOUS
 10
7.5446366629
 20
5.6493453176
 11
7.5601034795
 21
5.6493453176
  0
LINE
  5
414
100
AcDbEntity
  8
0
100
AcDbLine
 62
7
  6
CONTINUOUS
 10
7.5165192502
 20
5.698046105
 11
7.5075822423
 21
5.698046105
  0
LINE
  5
415
100
AcDbEntity
  8
0
100
AcDbLine
 62
7
  6
CONTINUOUS
 10
7.4450906787
 20
5.698046105
 11
7.4361536708
 21
5.698046105
  0
LINE
  5
416
100
AcDbEntity
  8
0
100
AcDbLine
 62
7
  6
CONTINUOUS
 10
7.3736621073
 20
5.698046105
 11
7.3647250994
 21
5.698046105
  0
LINE
  5
417
100
AcDbEntity
  8
0
100
AcDbLine
 62
7
  6
CONTINUOUS
 10
7.3022335359
 20
5.698046105
 11
7.293296528
 21
5.698046105
  0
LINE
  5
418
100
AcDbEntity
  8
0
100
AcDbLine
 62
7
  6
CONTINUOUS
 10
7.2308049644
 20
5.698046105
 11
7.2218679566
 21
5.698046105
  0
LINE
  5
419
100
AcDbEntity
  8
0
100
AcDbLine
 62
7
  6
CONTINUOUS
 10
7.159376393
 20
5.698046105
 11
7.1504393851
 21
5.698046105
  0
LINE
  5
41A
100
AcDbEntity
  8
0
100
AcDbLine
 62
7
  6
CONTINUOUS
 10
7.0879478216
 20
5.698046105
 11
7.0790108137
 21
5.698046105
  0
LINE
  5
41B
100
AcDbEntity
  8
0
100
AcDbLine
 62
7
  6
CONTINUOUS
 10
7.0165192502
 20
5.698046105
 11
7.0075822423
 21
5.698046105
  0
LINE
  5
41C
100
AcDbEntity
  8
0
100
AcDbLine
 62
7
  6
CONTINUOUS
 10
7.4732080914
 20
5.6493453176
 11
7.4450906787
 21
5.698046105
  0
LINE
  5
41D
100
AcDbEntity
  8
0
100
AcDbLine
 62
7
  6
CONTINUOUS
 10
7.5896310386
 20
5.4741484672
 11
7.5672416679
 21
5.5129279948
  0
LINE
  5
41E
100
AcDbEntity
  8
0
100
AcDbLine
 62
7
  6
CONTINUOUS
 10
7.0151791153
 20
6.4997390184
 11
7.043296528
 21
6.451038231
  0
LWPOLYLINE
  5
41F
100
AcDbEntity
  8
0
100
AcDbPolyline
 62
7
  6
CONTINUOUS
 90
10
 70
0
 10
7.3845663693
 20
6.1399200232
 10
7.3805981153
 20
6.0091643128
 10
7.3786139883
 20
5.9457729306
 10
7.3766298613
 20
5.8862941365
 10
7.3746457343
 20
5.8325351636
 10
7.3726616074
 20
5.7861294511
 10
7.3706774804
 20
5.748487013
 10
7.3686933534
 20
5.7207515958
 10
7.3667092264
 20
5.7037659262
 10
7.3653191022
 20
5.6985599408
  0
LWPOLYLINE
  5
420
100
AcDbEntity
  8
0
100
AcDbPolyline
 62
7
  6
CONTINUOUS
 90
10
 70
0
 10
7.3935033771
 20
6.1399200232
 10
7.3895351232
 20
6.0091643128
 10
7.3875509962
 20
5.9457729306
 10
7.3855668692
 20
5.8862941365
 10
7.3835827422
 20
5.8325351636
 10
7.3815986152
 20
5.7861294511
 10
7.3796144882
 20
5.748487013
 10
7.3776303613
 20
5.7207515958
 10
7.3756462343
 20
5.7037659262
 10
7.3736621073
 20
5.698046105
  0
LWPOLYLINE
  5
421
100
AcDbEntity
  8
0
100
AcDbPolyline
 62
7
  6
CONTINUOUS
 90
19
 70
0
 10
7.4418708446
 20
6.4939398876
 10
7.4399911453
 20
6.4767006802
 10
7.4381114461
 20
6.448491637
 10
7.4362317469
 20
6.4100822271
 10
7.4343520476
 20
6.3625201591
 10
7.4324723484
 20
6.3071028022
 10
7.4305926491
 20
6.2453417974
 10
7.4287129499
 20
6.1789218239
 10
7.4268332506
 20
6.1096546456
 10
7.4249535514
 20
6.0394296904
 10
7.4230738521
 20
5.970162512
 10
7.4211941529
 20
5.9037425386
 10
7.4193144536
 20
5.8419815338
 10
7.4174347544
 20
5.7865641769
 10
7.4155550551
 20
5.7390021089
 10
7.4136753559
 20
5.700592699
 10
7.4117956566
 20
5.6723836558
 10
7.4099159574
 20
5.6551444484
 10
7.4087681208
 20
5.650612941
  0
LWPOLYLINE
  5
422
100
AcDbEntity
  8
0
100
AcDbPolyline
 62
7
  6
CONTINUOUS
 90
19
 70
0
 10
7.5081905144
 20
6.498471395
 10
7.5070426779
 20
6.4939398876
 10
7.5051629787
 20
6.4767006802
 10
7.5032832794
 20
6.448491637
 10
7.5014035802
 20
6.4100822271
 10
7.4995238809
 20
6.3625201591
 10
7.4976441817
 20
6.3071028022
 10
7.4957644824
 20
6.2453417974
 10
7.4938847832
 20
6.1789218239
 10
7.4920050839
 20
6.1096546456
 10
7.4901253847
 20
6.0394296904
 10
7.4882456854
 20
5.970162512
 10
7.4863659862
 20
5.9037425386
 10
7.4844862869
 20
5.8419815338
 10
7.4826065877
 20
5.7865641769
 10
7.4807268884
 20
5.7390021089
 10
7.4788471892
 20
5.700592699
 10
7.4769674899
 20
5.6723836558
 10
7.4750877907
 20
5.6551444484
  0
LWPOLYLINE
  5
423
100
AcDbEntity
  8
0
100
AcDbPolyline
 62
7
  6
CONTINUOUS
 90
9
 70
0
 10
7.4802109617
 20
6.4505243952
 10
7.4788208375
 20
6.4453184098
 10
7.4768367105
 20
6.4283327401
 10
7.4748525835
 20
6.400597323
 10
7.4728684565
 20
6.3629548849
 10
7.4708843295
 20
6.3165491724
 10
7.4689002025
 20
6.2627901995
 10
7.4669160755
 20
6.2033114054
 10
7.4649319486
 20
6.1399200232
  0
LINE
  5
424
100
AcDbEntity
  8
0
100
AcDbLine
 62
7
  6
CONTINUOUS
 10
7.2607502737
 20
5.6548298953
 11
7.2589223772
 21
5.6493453176
  0
LWPOLYLINE
  5
425
100
AcDbEntity
  8
0
100
AcDbPolyline
 62
7
  6
CONTINUOUS
 90
9
 70
0
 10
7.4718679566
 20
6.451038231
 10
7.4698838296
 20
6.4453184098
 10
7.4678997026
 20
6.4283327401
 10
7.4659155756
 20
6.400597323
 10
7.4639314486
 20
6.3629548849
 10
7.4619473216
 20
6.3165491724
 10
7.4599631947
 20
6.2627901995
 10
7.4579790677
 20
6.2033114054
 10
7.4559949407
 20
6.1399200232
  0
LINE
  5
426
100
AcDbEntity
  8
0
100
AcDbLine
 62
7
  6
CONTINUOUS
 10
7.0790108137
 20
5.698046105
 11
7.050893401
 21
5.6493453176
  0
LINE
  5
427
100
AcDbEntity
  8
0
100
AcDbLine
 62
7
  6
CONTINUOUS
 10
7.6558243451
 20
6.6361563412
 11
7.6782137157
 21
6.6749358688
  0
LINE
  5
428
100
AcDbEntity
  8
0
100
AcDbLine
 62
7
  6
CONTINUOUS
 10
7.1504393851
 20
5.698046105
 11
7.1223219724
 21
5.6493453176
  0
LINE
  5
429
100
AcDbEntity
  8
0
100
AcDbLine
 62
7
  6
CONTINUOUS
 10
7.7148794632
 20
6.6361563412
 11
7.7372688338
 21
6.6749358688
  0
LINE
  5
42A
100
AcDbEntity
  8
0
100
AcDbLine
 62
7
  6
CONTINUOUS
 10
7.5446366629
 20
5.6493453176
 11
7.5165192502
 21
5.698046105
  0
LINE
  5
42B
100
AcDbEntity
  8
0
100
AcDbLine
 62
7
  6
CONTINUOUS
 10
7.6486861567
 20
5.4741484672
 11
7.626296786
 21
5.5129279948
  0
LINE
  5
42C
100
AcDbEntity
  8
0
100
AcDbLine
 62
7
  6
CONTINUOUS
 10
7.0866076867
 20
6.4997390184
 11
7.1147250994
 21
6.451038231
  0
LINE
  5
42D
100
AcDbEntity
  8
0
100
AcDbLine
 62
7
  6
CONTINUOUS
 10
7.7077412748
 20
5.4741484672
 11
7.6853519041
 21
5.5129279948
  0
LWPOLYLINE
  5
42E
100
AcDbEntity
  8
0
100
AcDbPolyline
 62
7
  6
CONTINUOUS
 90
10
 70
0
 10
7.4559949407
 20
6.1399200232
 10
7.4520266867
 20
6.0091643128
 10
7.4500425597
 20
5.9457729306
 10
7.4480584328
 20
5.8862941365
 10
7.4460743058
 20
5.8325351636
 10
7.4440901788
 20
5.7861294511
 10
7.4421060518
 20
5.748487013
 10
7.4401219248
 20
5.7207515958
 10
7.4381377978
 20
5.7037659262
 10
7.4367476736
 20
5.6985599408
  0
LWPOLYLINE
  5
42F
100
AcDbEntity
  8
0
100
AcDbPolyline
 62
7
  6
CONTINUOUS
 90
10
 70
0
 10
7.4649319486
 20
6.1399200232
 10
7.4609636946
 20
6.0091643128
 10
7.4589795676
 20
5.9457729306
 10
7.4569954406
 20
5.8862941365
 10
7.4550113136
 20
5.8325351636
 10
7.4530271867
 20
5.7861294511
 10
7.4510430597
 20
5.748487013
 10
7.4490589327
 20
5.7207515958
 10
7.4470748057
 20
5.7037659262
 10
7.4450906787
 20
5.698046105
  0
LWPOLYLINE
  5
430
100
AcDbEntity
  8
0
100
AcDbPolyline
 62
7
  6
CONTINUOUS
 90
10
 70
0
 10
7.6188503687
 20
6.6744020006
 10
7.6176847374
 20
6.6675691636
 10
7.616193062
 20
6.6452977147
 10
7.6147023828
 20
6.6087092926
 10
7.6132305631
 20
6.5594238182
 10
7.611771657
 20
6.4988564196
 10
7.6103029813
 20
6.4275817372
 10
7.6088255248
 20
6.3472047194
 10
7.6073572823
 20
6.2606637309
 10
7.6058846189
 20
6.1693112245
  0
LINE
  5
431
100
AcDbEntity
  8
0
100
AcDbLine
 62
7
  6
CONTINUOUS
 10
7.3322306478
 20
5.6551444484
 11
7.3303509486
 21
5.6493453176
  0
LINE
  5
432
100
AcDbEntity
  8
0
100
AcDbLine
 62
7
  6
CONTINUOUS
 10
7.2218679566
 20
5.698046105
 11
7.1937505438
 21
5.6493453176
  0
LINE
  5
433
100
AcDbEntity
  8
0
100
AcDbLine
 62
7
  6
CONTINUOUS
 10
7.7739345813
 20
6.6361563412
 11
7.796323952
 21
6.6749358688
  0
LINE
  5
434
100
AcDbEntity
  8
0
100
AcDbLine
 62
7
  6
CONTINUOUS
 10
7.1580362581
 20
6.4997390184
 11
7.1861536708
 21
6.451038231
  0
LINE
  5
435
100
AcDbEntity
  8
0
100
AcDbLine
 62
7
  6
CONTINUOUS
 10
7.7667963929
 20
5.4741484672
 11
7.7444070222
 21
5.5129279948
  0
LINE
  5
436
100
AcDbEntity
  8
0
100
AcDbLine
 62
7
  6
CONTINUOUS
 10
7.2294648296
 20
6.4997390184
 11
7.2575822423
 21
6.451038231
  0
LINE
  5
437
100
AcDbEntity
  8
0
100
AcDbLine
 62
7
  6
CONTINUOUS
 10
7.825851511
 20
5.4741484672
 11
7.8034621403
 21
5.5129279948
  0
LINE
  5
438
100
AcDbEntity
  8
0
100
AcDbLine
 62
7
  6
CONTINUOUS
 10
7.5601034795
 20
5.5129279948
 11
7.5601034795
 21
6.6749358688
  0
LWPOLYLINE
  5
439
100
AcDbEntity
  8
0
100
AcDbPolyline
 62
7
  6
CONTINUOUS
 90
11
 70
0
 10
7.6058846189
 20
6.1693112245
 10
7.6029030446
 20
5.9796486835
 10
7.6014311193
 20
5.8883456295
 10
7.599958184
 20
5.8015423324
 10
7.5984670097
 20
5.7204883267
 10
7.5969757582
 20
5.6483240848
 10
7.5955032213
 20
5.587565105
 10
7.5940349351
 20
5.5388574985
 10
7.5925581245
 20
5.5030292385
 10
7.5910906088
 20
5.481373301
 10
7.5896310386
 20
5.4741484672
  0
LWPOLYLINE
  5
43A
100
AcDbEntity
  8
0
100
AcDbPolyline
 62
7
  6
CONTINUOUS
 90
11
 70
0
 10
7.5805290695
 20
5.9866863552
 10
7.5834818254
 20
6.1623979807
 10
7.5849582033
 20
6.2480904918
 10
7.5864345813
 20
6.3295096672
 10
7.5879109592
 20
6.4046506965
 10
7.5893873372
 20
6.4716633583
 10
7.5908637151
 20
6.5288975784
 10
7.5923400931
 20
6.5749440604
 10
7.593816471
 20
6.6086689871
 10
7.595292849
 20
6.6292419388
 10
7.5964968588
 20
6.6359205461
  0
LWPOLYLINE
  5
43B
100
AcDbEntity
  8
0
100
AcDbPolyline
 62
7
  6
CONTINUOUS
 90
6
 70
0
 10
7.5601034795
 20
6.5205196972
 10
7.5614822597
 20
6.5744850731
 10
7.5628611223
 20
6.6177133892
 10
7.5642400474
 20
6.6492735735
 10
7.5656189908
 20
6.6684854957
 10
7.5669979665
 20
6.6749358688
  0
LWPOLYLINE
  5
43C
100
AcDbEntity
  8
0
100
AcDbPolyline
 62
7
  6
CONTINUOUS
 90
9
 70
0
 10
7.5601034795
 20
5.9857958611
 10
7.5581702518
 20
5.9167017361
 10
7.5562368814
 20
5.8521566433
 10
7.5543034252
 20
5.7940257481
 10
7.5523699404
 20
5.7439887829
 10
7.5504364839
 20
5.7034910934
 10
7.5485031129
 20
5.6737015546
 10
7.5465698943
 20
5.6554786524
 10
7.5446366629
 20
5.6493453176
  0
LWPOLYLINE
  5
43D
100
AcDbEntity
  8
0
100
AcDbPolyline
 62
7
  6
CONTINUOUS
 90
9
 70
0
 10
7.5230490589
 20
5.9959606001
 10
7.5211157068
 20
5.9347764864
 10
7.5191823548
 20
5.8776250294
 10
7.5172490027
 20
5.8261552191
 10
7.5153156506
 20
5.7818521132
 10
7.5133822985
 20
5.7459939882
 10
7.5114489464
 20
5.7196154581
 10
7.5095155944
 20
5.7034776221
 10
7.508176245
 20
5.6985599408
  0
LWPOLYLINE
  5
43E
100
AcDbEntity
  8
0
100
AcDbPolyline
 62
7
  6
CONTINUOUS
 90
9
 70
0
 10
7.5319860668
 20
5.9959606001
 10
7.5300527147
 20
5.9347764864
 10
7.5281193626
 20
5.8776250294
 10
7.5261860106
 20
5.8261552191
 10
7.5242526585
 20
5.7818521132
 10
7.5223193064
 20
5.7459939882
 10
7.5203859543
 20
5.7196154581
 10
7.5184526022
 20
5.7034776221
 10
7.5165192502
 20
5.698046105
  0
LWPOLYLINE
  5
43F
100
AcDbEntity
  8
0
100
AcDbPolyline
 62
7
  6
CONTINUOUS
 90
10
 70
0
 10
7.6779053785
 20
6.6744018131
 10
7.6767423293
 20
6.667593822
 10
7.6752636078
 20
6.6456027568
 10
7.6737951984
 20
6.6098044163
 10
7.672331921
 20
6.5611598362
 10
7.6708554896
 20
6.500152147
 10
7.6693605788
 20
6.4277098313
 10
7.6678660427
 20
6.3463734665
 10
7.6663901422
 20
6.2593114229
 10
7.6649238605
 20
6.1683096229
  0
LWPOLYLINE
  5
440
100
AcDbEntity
  8
0
100
AcDbPolyline
 62
7
  6
CONTINUOUS
 90
10
 70
0
 10
7.4802244187
 20
5.6506609647
 10
7.4811833647
 20
5.6541944662
 10
7.4829018999
 20
5.6686313079
 10
7.4846204351
 20
5.6923265535
 10
7.4863389703
 20
5.724739739
 10
7.4880575055
 20
5.7651315534
 10
7.4897760407
 20
5.8125807017
 10
7.4914945758
 20
5.866004918
 10
7.493213111
 20
5.9241856518
 10
7.4949316462
 20
5.9857958611
  0
LINE
  5
441
100
AcDbEntity
  8
0
100
AcDbLine
 62
7
  6
CONTINUOUS
 10
7.4036592193
 20
5.6551444484
 11
7.40177952
 21
5.6493453176
  0
LINE
  5
442
100
AcDbEntity
  8
0
100
AcDbLine
 62
7
  6
CONTINUOUS
 10
7.8329896994
 20
6.6361563412
 11
7.8553790701
 21
6.6749358688
  0
LINE
  5
443
100
AcDbEntity
  8
0
100
AcDbLine
 62
7
  6
CONTINUOUS
 10
7.293296528
 20
5.698046105
 11
7.2651791153
 21
5.6493453176
  0
LINE
  5
444
100
AcDbEntity
  8
0
100
AcDbLine
 62
7
  6
CONTINUOUS
 10
7.8920448175
 20
6.6361563412
 11
7.9144341882
 21
6.6749358688
  0
LINE
  5
445
100
AcDbEntity
  8
0
100
AcDbLine
 62
7
  6
CONTINUOUS
 10
7.3647250994
 20
5.698046105
 11
7.3366076867
 21
5.6493453176
  0
LINE
  5
446
100
AcDbEntity
  8
0
100
AcDbLine
 62
7
  6
CONTINUOUS
 10
7.5230490589
 20
5.9959606001
 11
7.5319860668
 21
5.9959606001
  0
LINE
  5
447
100
AcDbEntity
  8
0
100
AcDbLine
 62
7
  6
CONTINUOUS
 10
7.5319860668
 20
5.9959606001
 11
7.5601034795
 21
5.9857958611
  0
LINE
  5
448
100
AcDbEntity
  8
0
100
AcDbLine
 62
7
  6
CONTINUOUS
 10
7.8849066291
 20
5.4741484672
 11
7.8625172584
 21
5.5129279948
  0
LINE
  5
449
100
AcDbEntity
  8
0
100
AcDbLine
 62
7
  6
CONTINUOUS
 10
7.300893401
 20
6.4997390184
 11
7.3290108137
 21
6.451038231
  0
LWPOLYLINE
  5
44A
100
AcDbEntity
  8
0
100
AcDbPolyline
 62
7
  6
CONTINUOUS
 90
11
 70
0
 10
7.6098287622
 20
5.9816191099
 10
7.6127632294
 20
6.1683096229
 10
7.6142295111
 20
6.2593114229
 10
7.6157054115
 20
6.3463734665
 10
7.6171999476
 20
6.4277098313
 10
7.6186948585
 20
6.500152147
 10
7.6201712899
 20
6.5611598362
 10
7.6216345673
 20
6.6098044163
 10
7.6231029767
 20
6.6456027568
 10
7.6245816982
 20
6.667593822
 10
7.6260530846
 20
6.6749358688
  0
LWPOLYLINE
  5
44B
100
AcDbEntity
  8
0
100
AcDbPolyline
 62
7
  6
CONTINUOUS
 90
11
 70
0
 10
7.6649238605
 20
6.1683096229
 10
7.6619893933
 20
5.9816191099
 10
7.6605215222
 20
5.8904897663
 10
7.6590457691
 20
5.8033911178
 10
7.6575512636
 20
5.7219931434
 10
7.6560563221
 20
5.6494704626
 10
7.6545797333
 20
5.5883657185
 10
7.653117511
 20
5.5396518723
 10
7.6516423567
 20
5.5036018508
 10
7.6501591243
 20
5.4815062698
 10
7.6486861567
 20
5.4741484672
  0
LWPOLYLINE
  5
44C
100
AcDbEntity
  8
0
100
AcDbPolyline
 62
7
  6
CONTINUOUS
 90
11
 70
0
 10
7.6688513636
 20
5.9795675594
 10
7.6718353139
 20
6.1693799719
 10
7.6733088254
 20
6.260781425
 10
7.6747744903
 20
6.3471683181
 10
7.6762595057
 20
6.4279391512
 10
7.6777474927
 20
6.5000402206
 10
7.6792196878
 20
6.5609082671
 10
7.6806899373
 20
6.6098117034
 10
7.6821717747
 20
6.6458719556
 10
7.6836475137
 20
6.6676999778
 10
7.6851082027
 20
6.6749358688
  0
LWPOLYLINE
  5
44D
100
AcDbEntity
  8
0
100
AcDbPolyline
 62
7
  6
CONTINUOUS
 90
11
 70
0
 10
7.6322022978
 20
5.9866863552
 10
7.6351550537
 20
6.1623979807
 10
7.6366314317
 20
6.2480904918
 10
7.6381078096
 20
6.3295096672
 10
7.6395841876
 20
6.4046506965
 10
7.6410605655
 20
6.4716633583
 10
7.6425369435
 20
6.5288975784
 10
7.6440133214
 20
6.5749440604
 10
7.6454896994
 20
6.6086689871
 10
7.6469660773
 20
6.6292419388
 10
7.6484424553
 20
6.6361563412
  0
LWPOLYLINE
  5
44E
100
AcDbEntity
  8
0
100
AcDbPolyline
 62
7
  6
CONTINUOUS
 90
11
 70
0
 10
7.6395841876
 20
5.9866863552
 10
7.6425369435
 20
6.1623979807
 10
7.6440133214
 20
6.2480904918
 10
7.6454896994
 20
6.3295096672
 10
7.6469660773
 20
6.4046506965
 10
7.6484424553
 20
6.4716633583
 10
7.6499188332
 20
6.5288975784
 10
7.6513952112
 20
6.5749440604
 10
7.6528715892
 20
6.6086689871
 10
7.6543479671
 20
6.6292419388
 10
7.6555519769
 20
6.6359205461
  0
LWPOLYLINE
  5
44F
100
AcDbEntity
  8
0
100
AcDbPolyline
 62
7
  6
CONTINUOUS
 90
11
 70
0
 10
7.6912574159
 20
5.9866863552
 10
7.6942101718
 20
6.1623979807
 10
7.6956865498
 20
6.2480904918
 10
7.6971629277
 20
6.3295096672
 10
7.6986393057
 20
6.4046506965
 10
7.7001156836
 20
6.4716633583
 10
7.7015920616
 20
6.5288975784
 10
7.7030684395
 20
6.5749440604
 10
7.7045448175
 20
6.6086689871
 10
7.7060211955
 20
6.6292419388
 10
7.7074975734
 20
6.6361563412
  0
LWPOLYLINE
  5
450
100
AcDbEntity
  8
0
100
AcDbPolyline
 62
7
  6
CONTINUOUS
 90
20
 70
0
 10
7.5601034795
 20
5.5131167697
 10
7.5616447352
 20
5.5230252326
 10
7.5631859908
 20
5.547730893
 10
7.5647272465
 20
5.5865708981
 10
7.5662685022
 20
5.6385031707
 10
7.5678097578
 20
5.7021343681
 10
7.5693510135
 20
5.7757572656
 10
7.5708922692
 20
5.8573965609
 10
7.5724335248
 20
5.9448618722
 10
7.5739747805
 20
6.0358065053
 10
7.5755160362
 20
6.1277904162
 10
7.5770572919
 20
6.2183456767
 10
7.5785985475
 20
6.3050426896
 10
7.5801398032
 20
6.3855553743
 10
7.5816810589
 20
6.4577235757
 10
7.5832223145
 20
6.5196110212
 10
7.5847635702
 20
6.5695572709
 10
7.5863048259
 20
6.6062222671
 10
7.5878460815
 20
6.628622288
 10
7.5893873372
 20
6.6361563412
  0
LWPOLYLINE
  5
451
100
AcDbEntity
  8
0
100
AcDbPolyline
 62
7
  6
CONTINUOUS
 90
10
 70
0
 10
7.7960157737
 20
6.6744020883
 10
7.7948489308
 20
6.6675575777
 10
7.793356081
 20
6.6452514041
 10
7.7918642601
 20
6.6086078495
 10
7.7903912923
 20
6.559249527
 10
7.788928036
 20
6.4984505982
 10
7.7874657443
 20
6.4274478326
 10
7.7859969051
 20
6.3475476136
 10
7.784530694
 20
6.2611530014
 10
7.7830568881
 20
6.1697473724
  0
LWPOLYLINE
  5
452
100
AcDbEntity
  8
0
100
AcDbPolyline
 62
7
  6
CONTINUOUS
 90
10
 70
0
 10
7.7369600234
 20
6.6744009934
 10
7.7358081449
 20
6.6676999778
 10
7.7343324058
 20
6.6458719556
 10
7.7328505684
 20
6.6098117034
 10
7.731380319
 20
6.5609082671
 10
7.7299081238
 20
6.5000402206
 10
7.7284201368
 20
6.4279391512
 10
7.7269351214
 20
6.3471683181
 10
7.7254694565
 20
6.260781425
 10
7.723995945
 20
6.1693799719
  0
LWPOLYLINE
  5
453
100
AcDbEntity
  8
0
100
AcDbPolyline
 62
7
  6
CONTINUOUS
 90
10
 70
0
 10
7.5672416679
 20
5.5129279948
 10
7.5687180458
 20
5.5198423972
 10
7.5701944238
 20
5.5404153489
 10
7.5716708018
 20
5.5741402756
 10
7.5731471797
 20
5.6201867576
 10
7.5746235577
 20
5.6774209777
 10
7.5760999356
 20
5.7444336395
 10
7.5775763136
 20
5.8195746688
 10
7.5790526915
 20
5.9009938442
 10
7.5805290695
 20
5.9866863552
  0
LINE
  5
454
100
AcDbEntity
  8
0
100
AcDbLine
 62
7
  6
CONTINUOUS
 10
7.4750877907
 20
5.6551444484
 11
7.4732080914
 21
5.6493453176
  0
LINE
  5
455
100
AcDbEntity
  8
0
100
AcDbLine
 62
7
  6
CONTINUOUS
 10
7.9510999356
 20
6.6361563412
 11
7.9734893063
 21
6.6749358688
  0
LINE
  5
456
100
AcDbEntity
  8
0
100
AcDbLine
 62
7
  6
CONTINUOUS
 10
7.4361536708
 20
5.698046105
 11
7.4080362581
 21
5.6493453176
  0
LINE
  5
457
100
AcDbEntity
  8
0
100
AcDbLine
 62
7
  6
CONTINUOUS
 10
8.0101550537
 20
6.6361563412
 11
8.0325444244
 21
6.6749358688
  0
LINE
  5
458
100
AcDbEntity
  8
0
100
AcDbLine
 62
7
  6
CONTINUOUS
 10
7.9439617472
 20
5.4741484672
 11
7.9215723766
 21
5.5129279948
  0
LINE
  5
459
100
AcDbEntity
  8
0
100
AcDbLine
 62
7
  6
CONTINUOUS
 10
7.3723219724
 20
6.4997390184
 11
7.4004393851
 21
6.451038231
  0
LINE
  5
45A
100
AcDbEntity
  8
0
100
AcDbLine
 62
7
  6
CONTINUOUS
 10
8.0030168653
 20
5.4741484672
 11
7.9806274947
 21
5.5129279948
  0
LINE
  5
45B
100
AcDbEntity
  8
0
100
AcDbLine
 62
7
  6
CONTINUOUS
 10
7.4437505438
 20
6.4997390184
 11
7.4718679566
 21
6.451038231
  0
LWPOLYLINE
  5
45C
100
AcDbEntity
  8
0
100
AcDbPolyline
 62
7
  6
CONTINUOUS
 90
11
 70
0
 10
7.723995945
 20
6.1693799719
 10
7.7210119947
 20
5.9795675594
 10
7.7195385836
 20
5.8881772998
 10
7.7180709975
 20
5.8016889706
 10
7.7165971185
 20
5.7215143477
 10
7.7151333657
 20
5.6504607387
 10
7.7136723141
 20
5.5897737358
 10
7.7121996873
 20
5.5404391517
 10
7.7107082094
 20
5.5038143597
 10
7.7092158045
 20
5.4815218519
 10
7.7077412748
 20
5.4741484672
  0
LWPOLYLINE
  5
45D
100
AcDbEntity
  8
0
100
AcDbPolyline
 62
7
  6
CONTINUOUS
 90
11
 70
0
 10
7.727911502
 20
5.9798842298
 10
7.730896257
 20
6.1697473724
 10
7.7323700629
 20
6.2611530014
 10
7.733836274
 20
6.3475476136
 10
7.7353051131
 20
6.4274478326
 10
7.7367674049
 20
6.4984505982
 10
7.7382306612
 20
6.559249527
 10
7.739703629
 20
6.6086078495
 10
7.7411954499
 20
6.6452514041
 10
7.7426882996
 20
6.6675575777
 10
7.7441633208
 20
6.6749358688
  0
LWPOLYLINE
  5
45E
100
AcDbEntity
  8
0
100
AcDbPolyline
 62
7
  6
CONTINUOUS
 90
11
 70
0
 10
7.7830568881
 20
6.1697473724
 10
7.7800721331
 20
5.9798842298
 10
7.7785982092
 20
5.8884510335
 10
7.7771377666
 20
5.802352139
 10
7.7756615219
 20
5.7219942843
 10
7.7741786694
 20
5.6500171781
 10
7.7727077118
 20
5.589031594
 10
7.7712356262
 20
5.53988066
 10
7.7697480584
 20
5.5035123069
 10
7.7682627397
 20
5.4814404071
 10
7.7667963929
 20
5.4741484672
  0
LWPOLYLINE
  5
45F
100
AcDbEntity
  8
0
100
AcDbPolyline
 62
7
  6
CONTINUOUS
 90
11
 70
0
 10
7.6986393057
 20
5.9866863552
 10
7.7015920616
 20
6.1623979807
 10
7.7030684395
 20
6.2480904918
 10
7.7045448175
 20
6.3295096672
 10
7.7060211955
 20
6.4046506965
 10
7.7074975734
 20
6.4716633583
 10
7.7089739514
 20
6.5288975784
 10
7.7104503293
 20
6.5749440604
 10
7.7119267073
 20
6.6086689871
 10
7.7134030852
 20
6.6292419388
 10
7.7146070951
 20
6.6359205461
  0
LWPOLYLINE
  5
460
100
AcDbEntity
  8
0
100
AcDbPolyline
 62
7
  6
CONTINUOUS
 90
11
 70
0
 10
7.750312534
 20
5.9866863552
 10
7.7532652899
 20
6.1623979807
 10
7.7547416679
 20
6.2480904918
 10
7.7562180458
 20
6.3295096672
 10
7.7576944238
 20
6.4046506965
 10
7.7591708018
 20
6.4716633583
 10
7.7606471797
 20
6.5288975784
 10
7.7621235577
 20
6.5749440604
 10
7.7635999356
 20
6.6086689871
 10
7.7650763136
 20
6.6292419388
 10
7.7665526915
 20
6.6361563412
  0
LWPOLYLINE
  5
461
100
AcDbEntity
  8
0
100
AcDbPolyline
 62
7
  6
CONTINUOUS
 90
11
 70
0
 10
7.7576944238
 20
5.9866863552
 10
7.7606471797
 20
6.1623979807
 10
7.7621235577
 20
6.2480904918
 10
7.7635999356
 20
6.3295096672
 10
7.7650763136
 20
6.4046506965
 10
7.7665526915
 20
6.4716633583
 10
7.7680290695
 20
6.5288975784
 10
7.7695054474
 20
6.5749440604
 10
7.7709818254
 20
6.6086689871
 10
7.7724582033
 20
6.6292419388
 10
7.7736622132
 20
6.6359205461
  0
LWPOLYLINE
  5
462
100
AcDbEntity
  8
0
100
AcDbPolyline
 62
7
  6
CONTINUOUS
 90
10
 70
0
 10
7.8550708601
 20
6.6744020334
 10
7.8539047752
 20
6.6675648273
 10
7.8524166458
 20
6.6453593575
 10
7.8509333552
 20
6.6090151828
 10
7.8494686353
 20
6.5600859654
 10
7.8479924953
 20
6.4988729534
 10
7.8464982142
 20
6.4262763742
 10
7.8450046493
 20
6.3448489027
 10
7.8435299832
 20
6.257760068
 10
7.8420608752
 20
6.1665211092
  0
LWPOLYLINE
  5
463
100
AcDbEntity
  8
0
100
AcDbPolyline
 62
7
  6
CONTINUOUS
 90
10
 70
0
 10
7.6558888434
 20
5.4746822848
 10
7.6570551734
 20
5.4815218519
 10
7.6585475783
 20
5.5038143597
 10
7.6600390562
 20
5.5404391517
 10
7.661511683
 20
5.5897737358
 10
7.6629727346
 20
5.6504607387
 10
7.6644364874
 20
5.7215143477
 10
7.6659103664
 20
5.8016889706
 10
7.6673779525
 20
5.8881772998
 10
7.6688513636
 20
5.9795675594
  0
LWPOLYLINE
  5
464
100
AcDbEntity
  8
0
100
AcDbPolyline
 62
7
  6
CONTINUOUS
 90
10
 70
0
 10
7.5968337935
 20
5.474682403
 10
7.5979984932
 20
5.4815062698
 10
7.5994817256
 20
5.5036018508
 10
7.6009568799
 20
5.5396518723
 10
7.6024191021
 20
5.5883657185
 10
7.603895691
 20
5.6494704626
 10
7.6053906325
 20
5.7219931434
 10
7.606885138
 20
5.8033911178
 10
7.6083608911
 20
5.8904897663
 10
7.6098287622
 20
5.9816191099
  0
LWPOLYLINE
  5
465
100
AcDbEntity
  8
0
100
AcDbPolyline
 62
7
  6
CONTINUOUS
 90
10
 70
0
 10
7.6191872644
 20
5.5131637899
 10
7.6203912742
 20
5.5198423972
 10
7.6218676521
 20
5.5404153489
 10
7.6233440301
 20
5.5741402756
 10
7.6248204081
 20
5.6201867576
 10
7.626296786
 20
5.6774209777
 10
7.627773164
 20
5.7444336395
 10
7.6292495419
 20
5.8195746688
 10
7.6307259199
 20
5.9009938442
 10
7.6322022978
 20
5.9866863552
  0
LWPOLYLINE
  5
466
100
AcDbEntity
  8
0
100
AcDbPolyline
 62
7
  6
CONTINUOUS
 90
10
 70
0
 10
7.6782423825
 20
5.5131637899
 10
7.6794463923
 20
5.5198423972
 10
7.6809227703
 20
5.5404153489
 10
7.6823991482
 20
5.5741402756
 10
7.6838755262
 20
5.6201867576
 10
7.6853519041
 20
5.6774209777
 10
7.6868282821
 20
5.7444336395
 10
7.68830466
 20
5.8195746688
 10
7.689781038
 20
5.9009938442
 10
7.6912574159
 20
5.9866863552
  0
LWPOLYLINE
  5
467
100
AcDbEntity
  8
0
100
AcDbPolyline
 62
7
  6
CONTINUOUS
 90
10
 70
0
 10
7.626296786
 20
5.5129279948
 10
7.627773164
 20
5.5198423972
 10
7.6292495419
 20
5.5404153489
 10
7.6307259199
 20
5.5741402756
 10
7.6322022978
 20
5.6201867576
 10
7.6336786758
 20
5.6774209777
 10
7.6351550537
 20
5.7444336395
 10
7.6366314317
 20
5.8195746688
 10
7.6381078096
 20
5.9009938442
 10
7.6395841876
 20
5.9866863552
  0
LINE
  5
468
100
AcDbEntity
  8
0
100
AcDbLine
 62
7
  6
CONTINUOUS
 10
7.5075822423
 20
5.698046105
 11
7.4794648296
 21
5.6493453176
  0
LINE
  5
469
100
AcDbEntity
  8
0
100
AcDbLine
 62
7
  6
CONTINUOUS
 10
8.0692101718
 20
6.6361563412
 11
8.0915995425
 21
6.6749358688
  0
LINE
  5
46A
100
AcDbEntity
  8
0
100
AcDbLine
 62
7
  6
CONTINUOUS
 10
7.4949316462
 20
5.9857958611
 11
7.5230490589
 21
5.9959606001
  0
LINE
  5
46B
100
AcDbEntity
  8
0
100
AcDbLine
 62
7
  6
CONTINUOUS
 10
8.0620719835
 20
5.4741484672
 11
8.0396826128
 21
5.5129279948
  0
LINE
  5
46C
100
AcDbEntity
  8
0
100
AcDbLine
 62
7
  6
CONTINUOUS
 10
8.1211271016
 20
5.4741484672
 11
8.0987377309
 21
5.5129279948
  0
LWPOLYLINE
  5
46D
100
AcDbEntity
  8
0
100
AcDbPolyline
 62
7
  6
CONTINUOUS
 90
11
 70
0
 10
7.7869623171
 20
5.9796128023
 10
7.7899002441
 20
6.1665211092
 10
7.7913693521
 20
6.257760068
 10
7.7928440181
 20
6.3448489027
 10
7.7943375831
 20
6.4262763742
 10
7.7958318642
 20
6.4988729534
 10
7.7973080042
 20
6.5600859654
 10
7.7987727241
 20
6.6090151828
 10
7.8002560147
 20
6.6453593575
 10
7.8017441441
 20
6.6675648273
 10
7.803218439
 20
6.6749358688
  0
LWPOLYLINE
  5
46E
100
AcDbEntity
  8
0
100
AcDbPolyline
 62
7
  6
CONTINUOUS
 90
11
 70
0
 10
7.8420608752
 20
6.1665211092
 10
7.8391229482
 20
5.9796128023
 10
7.8376592957
 20
5.8888135457
 10
7.836183832
 20
5.8018368291
 10
7.8346899472
 20
5.7206155115
 10
7.8331959557
 20
5.6483117145
 10
7.8317206524
 20
5.587451496
 10
7.8302562242
 20
5.5388810596
 10
7.8287925524
 20
5.5033030293
 10
7.8273200649
 20
5.4814623309
 10
7.825851511
 20
5.4741484672
  0
LWPOLYLINE
  5
46F
100
AcDbEntity
  8
0
100
AcDbPolyline
 62
7
  6
CONTINUOUS
 90
10
 70
0
 10
7.8490137271
 20
6.1702035936
 10
7.8504770445
 20
6.260955386
 10
7.851950936
 20
6.3477993793
 10
7.8534431029
 20
6.4288805675
 10
7.8549353643
 20
6.5010537942
 10
7.8564088569
 20
6.5617986524
 10
7.8578763876
 20
6.610420759
 10
7.859348755
 20
6.6460997847
 10
7.8608115884
 20
6.6676873197
 10
7.8622735571
 20
6.6749358688
  0
LWPOLYLINE
  5
470
100
AcDbEntity
  8
0
100
AcDbPolyline
 62
7
  6
CONTINUOUS
 90
11
 70
0
 10
7.8093676521
 20
5.9866863552
 10
7.8123204081
 20
6.1623979807
 10
7.813796786
 20
6.2480904918
 10
7.815273164
 20
6.3295096672
 10
7.8167495419
 20
6.4046506965
 10
7.8182259199
 20
6.4716633583
 10
7.8197022978
 20
6.5288975784
 10
7.8211786758
 20
6.5749440604
 10
7.8226550537
 20
6.6086689871
 10
7.8241314317
 20
6.6292419388
 10
7.8256078096
 20
6.6361563412
  0
LWPOLYLINE
  5
471
100
AcDbEntity
  8
0
100
AcDbPolyline
 62
7
  6
CONTINUOUS
 90
11
 70
0
 10
7.8167495419
 20
5.9866863552
 10
7.8197022978
 20
6.1623979807
 10
7.8211786758
 20
6.2480904918
 10
7.8226550537
 20
6.3295096672
 10
7.8241314317
 20
6.4046506965
 10
7.8256078096
 20
6.4716633583
 10
7.8270841876
 20
6.5288975784
 10
7.8285605655
 20
6.5749440604
 10
7.8300369435
 20
6.6086689871
 10
7.8315133214
 20
6.6292419388
 10
7.8327173313
 20
6.6359205461
  0
LWPOLYLINE
  5
472
100
AcDbEntity
  8
0
100
AcDbPolyline
 62
7
  6
CONTINUOUS
 90
11
 70
0
 10
7.8684227703
 20
5.9866863552
 10
7.8713755262
 20
6.1623979807
 10
7.8728519041
 20
6.2480904918
 10
7.8743282821
 20
6.3295096672
 10
7.87580466
 20
6.4046506965
 10
7.877281038
 20
6.4716633583
 10
7.8787574159
 20
6.5288975784
 10
7.8802337939
 20
6.5749440604
 10
7.8817101718
 20
6.6086689871
 10
7.8831865498
 20
6.6292419388
 10
7.8846629277
 20
6.6361563412
  0
LWPOLYLINE
  5
473
100
AcDbEntity
  8
0
100
AcDbPolyline
 62
7
  6
CONTINUOUS
 90
14
 70
0
 10
7.9731827675
 20
6.674404928
 10
7.9719754739
 20
6.6671650405
 10
7.9704433667
 20
6.6436830574
 10
7.9689133313
 20
6.6051732956
 10
7.9674043303
 20
6.5534443723
 10
7.9658976679
 20
6.4895055017
 10
7.9643902174
 20
6.4148848049
 10
7.9628898893
 20
6.3319391559
 10
7.9613894379
 20
6.2424411135
 10
7.9598709252
 20
6.1475281682
 10
7.9583378742
 20
6.0497863134
 10
7.9568099673
 20
5.9530233998
 10
7.9553046776
 20
5.8608142304
 10
7.9538042669
 20
5.7743453176
  0
LWPOLYLINE
  5
474
100
AcDbEntity
  8
0
100
AcDbPolyline
 62
7
  6
CONTINUOUS
 90
10
 70
0
 10
7.7149443209
 20
5.4746829073
 10
7.7161021085
 20
5.4814404071
 10
7.7175874273
 20
5.5035123069
 10
7.7190749951
 20
5.53988066
 10
7.7205470807
 20
5.589031594
 10
7.7220180382
 20
5.6500171781
 10
7.7235008908
 20
5.7219942843
 10
7.7249771355
 20
5.802352139
 10
7.7264375781
 20
5.8884510335
 10
7.727911502
 20
5.9798842298
  0
LWPOLYLINE
  5
475
100
AcDbEntity
  8
0
100
AcDbPolyline
 62
7
  6
CONTINUOUS
 90
10
 70
0
 10
7.9141254348
 20
6.6744010922
 10
7.9129722195
 20
6.6676873197
 10
7.9115093862
 20
6.6460997847
 10
7.9100370187
 20
6.610420759
 10
7.908569488
 20
6.5617986524
 10
7.9070959954
 20
6.5010537942
 10
7.905603734
 20
6.4288805675
 10
7.9041115671
 20
6.3477993793
 10
7.9026376756
 20
6.260955386
 10
7.9011743582
 20
6.1702035936
  0
LWPOLYLINE
  5
476
100
AcDbEntity
  8
0
100
AcDbPolyline
 62
7
  6
CONTINUOUS
 90
10
 70
0
 10
7.7372975006
 20
5.5131637899
 10
7.7385015104
 20
5.5198423972
 10
7.7399778884
 20
5.5404153489
 10
7.7414542663
 20
5.5741402756
 10
7.7429306443
 20
5.6201867576
 10
7.7444070222
 20
5.6774209777
 10
7.7458834002
 20
5.7444336395
 10
7.7473597781
 20
5.8195746688
 10
7.7488361561
 20
5.9009938442
 10
7.750312534
 20
5.9866863552
  0
LWPOLYLINE
  5
477
100
AcDbEntity
  8
0
100
AcDbPolyline
 62
7
  6
CONTINUOUS
 90
10
 70
0
 10
7.6853519041
 20
5.5129279948
 10
7.6868282821
 20
5.5198423972
 10
7.68830466
 20
5.5404153489
 10
7.689781038
 20
5.5741402756
 10
7.6912574159
 20
5.6201867576
 10
7.6927337939
 20
5.6774209777
 10
7.6942101718
 20
5.7444336395
 10
7.6956865498
 20
5.8195746688
 10
7.6971629277
 20
5.9009938442
 10
7.6986393057
 20
5.9866863552
  0
LWPOLYLINE
  5
478
100
AcDbEntity
  8
0
100
AcDbPolyline
 62
7
  6
CONTINUOUS
 90
10
 70
0
 10
7.7444070222
 20
5.5129279948
 10
7.7458834002
 20
5.5198423972
 10
7.7473597781
 20
5.5404153489
 10
7.7488361561
 20
5.5741402756
 10
7.750312534
 20
5.6201867576
 10
7.751788912
 20
5.6774209777
 10
7.7532652899
 20
5.7444336395
 10
7.7547416679
 20
5.8195746688
 10
7.7562180458
 20
5.9009938442
 10
7.7576944238
 20
5.9866863552
  0
LINE
  5
479
100
AcDbEntity
  8
0
100
AcDbLine
 62
7
  6
CONTINUOUS
 10
8.1282652899
 20
6.6361563412
 11
8.1506546606
 21
6.6749358688
  0
LWPOLYLINE
  5
47A
100
AcDbEntity
  8
0
100
AcDbPolyline
 62
7
  6
CONTINUOUS
 90
11
 70
0
 10
7.9011743582
 20
6.1702035936
 10
7.8982054897
 20
5.9813429492
 10
7.8967333506
 20
5.8899642572
 10
7.8952626435
 20
5.8031860703
 10
7.8937788235
 20
5.7223597121
 10
7.89229995
 20
5.6505163584
 10
7.890838615
 20
5.5898094106
 10
7.8893657716
 20
5.5404604542
 10
7.8878740537
 20
5.5038240767
 10
7.8863814024
 20
5.4815242828
 10
7.8849066291
 20
5.4741484672
  0
LWPOLYLINE
  5
47B
100
AcDbEntity
  8
0
100
AcDbPolyline
 62
7
  6
CONTINUOUS
 90
11
 70
0
 10
7.87580466
 20
5.9866863552
 10
7.8787574159
 20
6.1623979807
 10
7.8802337939
 20
6.2480904918
 10
7.8817101718
 20
6.3295096672
 10
7.8831865498
 20
6.4046506965
 10
7.8846629277
 20
6.4716633583
 10
7.8861393057
 20
6.5288975784
 10
7.8876156836
 20
6.5749440604
 10
7.8890920616
 20
6.6086689871
 10
7.8905684395
 20
6.6292419388
 10
7.8917724494
 20
6.6359205461
  0
LWPOLYLINE
  5
47C
100
AcDbEntity
  8
0
100
AcDbPolyline
 62
7
  6
CONTINUOUS
 90
14
 70
0
 10
7.9016436358
 20
5.7743453176
 10
7.9031440465
 20
5.8608142304
 10
7.9046493362
 20
5.9530233998
 10
7.9061772431
 20
6.0497863134
 10
7.9077102941
 20
6.1475281682
 10
7.9092288068
 20
6.2424411135
 10
7.9107292582
 20
6.3319391559
 10
7.9122295863
 20
6.4148848049
 10
7.9137370368
 20
6.4895055017
 10
7.9152436992
 20
6.5534443723
 10
7.9167527002
 20
6.6051732956
 10
7.9182827356
 20
6.6436830574
 10
7.9198148428
 20
6.6671650405
 10
7.9213286752
 20
6.6749358688
  0
LWPOLYLINE
  5
47D
100
AcDbEntity
  8
0
100
AcDbPolyline
 62
7
  6
CONTINUOUS
 90
14
 70
0
 10
7.9240330065
 20
5.7937350814
 10
7.9255472403
 20
5.8753910375
 10
7.9270614741
 20
5.9622049034
 10
7.9285757079
 20
6.0519282453
 10
7.9300899417
 20
6.142237276
 10
7.9316041755
 20
6.230793039
 10
7.9331184093
 20
6.3153019864
 10
7.9346326431
 20
6.3935753811
 10
7.9361468769
 20
6.4635859831
 10
7.9376611107
 20
6.5235205546
 10
7.9391753445
 20
6.5718268218
 10
7.9406895783
 20
6.6072536776
 10
7.942203812
 20
6.6288835852
 10
7.9437180458
 20
6.6361563412
  0
LWPOLYLINE
  5
47E
100
AcDbEntity
  8
0
100
AcDbPolyline
 62
7
  6
CONTINUOUS
 90
14
 70
0
 10
7.9314148962
 20
5.7937350814
 10
7.93292913
 20
5.8753910375
 10
7.9344433638
 20
5.9622049034
 10
7.9359575976
 20
6.0519282453
 10
7.9374718314
 20
6.142237276
 10
7.9389860652
 20
6.230793039
 10
7.940500299
 20
6.3153019864
 10
7.9420145328
 20
6.3935753811
 10
7.9435287666
 20
6.4635859831
 10
7.9450430004
 20
6.5235205546
 10
7.9465572342
 20
6.5718268218
 10
7.948071468
 20
6.6072536776
 10
7.9495857018
 20
6.6288835852
 10
7.9508275675
 20
6.6359205461
  0
LWPOLYLINE
  5
47F
100
AcDbEntity
  8
0
100
AcDbPolyline
 62
7
  6
CONTINUOUS
 90
11
 70
0
 10
8.0322362465
 20
6.674402089
 10
8.0310693938
 20
6.6675574839
 10
8.0295765345
 20
6.6452510291
 10
8.028084707
 20
6.6086071048
 10
8.0266116804
 20
6.5592463453
 10
8.0251447388
 20
6.498280038
 10
8.0236583081
 20
6.4260039888
 10
8.0221701074
 20
6.3448548222
 10
8.0206981568
 20
6.2579315625
 10
8.0192270941
 20
6.1665756817
 10
8.0162698063
 20
5.9784463294
  0
LWPOLYLINE
  5
480
100
AcDbEntity
  8
0
100
AcDbPolyline
 62
7
  6
CONTINUOUS
 90
11
 70
0
 10
7.8330541871
 20
5.4746822664
 10
7.8342207712
 20
5.4815242828
 10
7.8357134226
 20
5.5038240767
 10
7.8372051405
 20
5.5404604542
 10
7.8386779838
 20
5.5898094106
 10
7.8401393188
 20
5.6505163584
 10
7.8416181924
 20
5.7223597121
 10
7.8431020124
 20
5.8031860703
 10
7.8445727195
 20
5.8899642572
 10
7.8460448586
 20
5.9813429492
 10
7.8490137271
 20
6.1702035936
  0
LWPOLYLINE
  5
481
100
AcDbEntity
  8
0
100
AcDbPolyline
 62
7
  6
CONTINUOUS
 90
10
 70
0
 10
7.7739993416
 20
5.4746827386
 10
7.7751594338
 20
5.4814623309
 10
7.7766319213
 20
5.5033030293
 10
7.7780955931
 20
5.5388810596
 10
7.7795600213
 20
5.587451496
 10
7.7810353245
 20
5.6483117145
 10
7.7825293161
 20
5.7206155115
 10
7.7840232009
 20
5.8018368291
 10
7.7854986645
 20
5.8888135457
 10
7.7869623171
 20
5.9796128023
  0
LWPOLYLINE
  5
482
100
AcDbEntity
  8
0
100
AcDbPolyline
 62
7
  6
CONTINUOUS
 90
10
 70
0
 10
7.7963526187
 20
5.5131637899
 10
7.7975566285
 20
5.5198423972
 10
7.7990330065
 20
5.5404153489
 10
7.8005093844
 20
5.5741402756
 10
7.8019857624
 20
5.6201867576
 10
7.8034621403
 20
5.6774209777
 10
7.8049385183
 20
5.7444336395
 10
7.8064148962
 20
5.8195746688
 10
7.8078912742
 20
5.9009938442
 10
7.8093676521
 20
5.9866863552
  0
LWPOLYLINE
  5
483
100
AcDbEntity
  8
0
100
AcDbPolyline
 62
7
  6
CONTINUOUS
 90
10
 70
0
 10
7.8554077368
 20
5.5131637899
 10
7.8566117466
 20
5.5198423972
 10
7.8580881246
 20
5.5404153489
 10
7.8595645025
 20
5.5741402756
 10
7.8610408805
 20
5.6201867576
 10
7.8625172584
 20
5.6774209777
 10
7.8639936364
 20
5.7444336395
 10
7.8654700144
 20
5.8195746688
 10
7.8669463923
 20
5.9009938442
 10
7.8684227703
 20
5.9866863552
  0
LWPOLYLINE
  5
484
100
AcDbEntity
  8
0
100
AcDbPolyline
 62
7
  6
CONTINUOUS
 90
10
 70
0
 10
7.8034621403
 20
5.5129279948
 10
7.8049385183
 20
5.5198423972
 10
7.8064148962
 20
5.5404153489
 10
7.8078912742
 20
5.5741402756
 10
7.8093676521
 20
5.6201867576
 10
7.8108440301
 20
5.6774209777
 10
7.8123204081
 20
5.7444336395
 10
7.813796786
 20
5.8195746688
 10
7.815273164
 20
5.9009938442
 10
7.8167495419
 20
5.9866863552
  0
LINE
  5
485
100
AcDbEntity
  8
0
100
AcDbLine
 62
7
  6
CONTINUOUS
 10
7.6189148962
 20
5.5129279948
 11
7.5965255256
 21
5.4741484672
  0
LINE
  5
486
100
AcDbEntity
  8
0
100
AcDbLine
 62
7
  6
CONTINUOUS
 10
7.5669979665
 20
6.6749358688
 11
7.5893873372
 21
6.6361563412
  0
LINE
  5
487
100
AcDbEntity
  8
0
100
AcDbLine
 62
7
  6
CONTINUOUS
 10
7.6260530846
 20
6.6749358688
 11
7.6484424553
 21
6.6361563412
  0
LWPOLYLINE
  5
488
100
AcDbEntity
  8
0
100
AcDbPolyline
 62
7
  6
CONTINUOUS
 90
11
 70
0
 10
7.9641091752
 20
5.9784463294
 10
7.967066463
 20
6.1665756817
 10
7.9685375257
 20
6.2579315625
 10
7.9700094763
 20
6.3448548222
 10
7.971497677
 20
6.4260039888
 10
7.9729841077
 20
6.498280038
 10
7.9744510493
 20
6.5592463453
 10
7.9759240759
 20
6.6086071048
 10
7.9774159034
 20
6.6452510291
 10
7.9789087627
 20
6.6675574839
 10
7.9803837933
 20
6.6749358688
  0
LWPOLYLINE
  5
489
100
AcDbEntity
  8
0
100
AcDbPolyline
 62
7
  6
CONTINUOUS
 90
10
 70
0
 10
8.0162698063
 20
5.9784463294
 10
8.0148097483
 20
5.8879085643
 10
8.0133355689
 20
5.8010621529
 10
8.0118431634
 20
5.7199894816
 10
8.0103508009
 20
5.647839189
 10
8.0088772596
 20
5.5871250271
 10
8.0074109976
 20
5.538576113
 10
8.0059428973
 20
5.5030086119
 10
8.0044803495
 20
5.481412022
 10
8.0030168653
 20
5.4741484672
  0
LWPOLYLINE
  5
48A
100
AcDbEntity
  8
0
100
AcDbPolyline
 62
7
  6
CONTINUOUS
 90
10
 70
0
 10
8.0261836129
 20
6.1704893524
 10
8.0276445719
 20
6.2610873354
 10
8.0291189418
 20
6.347950182
 10
8.0306115852
 20
6.4290418499
 10
8.0321042842
 20
6.501214066
 10
8.0335782151
 20
6.5619480438
 10
8.0350429556
 20
6.6104557172
 10
8.0365062139
 20
6.6459451554
 10
8.0379732006
 20
6.6676502397
 10
8.0394389114
 20
6.6749358688
  0
LWPOLYLINE
  5
48B
100
AcDbEntity
  8
0
100
AcDbPolyline
 62
7
  6
CONTINUOUS
 90
11
 70
0
 10
7.9865330065
 20
5.9866863552
 10
7.9894857624
 20
6.1623979807
 10
7.9909621403
 20
6.2480904918
 10
7.9924385183
 20
6.3295096672
 10
7.9939148962
 20
6.4046506965
 10
7.9953912742
 20
6.4716633583
 10
7.9968676521
 20
6.5288975784
 10
7.9983440301
 20
6.5749440604
 10
7.9998204081
 20
6.6086689871
 10
8.001296786
 20
6.6292419388
 10
8.002773164
 20
6.6361563412
  0
LWPOLYLINE
  5
48C
100
AcDbEntity
  8
0
100
AcDbPolyline
 62
7
  6
CONTINUOUS
 90
11
 70
0
 10
7.9939148962
 20
5.9866863552
 10
7.9968676521
 20
6.1623979807
 10
7.9983440301
 20
6.2480904918
 10
7.9998204081
 20
6.3295096672
 10
8.001296786
 20
6.4046506965
 10
8.002773164
 20
6.4716633583
 10
8.0042495419
 20
6.5288975784
 10
8.0057259199
 20
6.5749440604
 10
8.0072022978
 20
6.6086689871
 10
8.0086786758
 20
6.6292419388
 10
8.0098826856
 20
6.6359205461
  0
LWPOLYLINE
  5
48D
100
AcDbEntity
  8
0
100
AcDbPolyline
 62
7
  6
CONTINUOUS
 90
11
 70
0
 10
8.0455881246
 20
5.9866863552
 10
8.0485408805
 20
6.1623979807
 10
8.0500172584
 20
6.2480904918
 10
8.0514936364
 20
6.3295096672
 10
8.0529700144
 20
6.4046506965
 10
8.0544463923
 20
6.4716633583
 10
8.0559227703
 20
6.5288975784
 10
8.0573991482
 20
6.5749440604
 10
8.0588755262
 20
6.6086689871
 10
8.0603519041
 20
6.6292419388
 10
8.0618282821
 20
6.6361563412
  0
LWPOLYLINE
  5
48E
100
AcDbEntity
  8
0
100
AcDbPolyline
 62
7
  6
CONTINUOUS
 90
8
 70
0
 10
7.9538042669
 20
5.7743453176
 10
7.9524076058
 20
5.7006731226
 10
7.9510044333
 20
5.6349578858
 10
7.9496098402
 20
5.5793314861
 10
7.9482044909
 20
5.5342876007
 10
7.9467840532
 20
5.5010138613
 10
7.9453644003
 20
5.480821836
 10
7.9439617472
 20
5.4741484672
  0
LWPOLYLINE
  5
48F
100
AcDbEntity
  8
0
100
AcDbPolyline
 62
7
  6
CONTINUOUS
 90
10
 70
0
 10
8.1503464608
 20
6.674402051
 10
8.1491801331
 20
6.6675625062
 10
8.1476877667
 20
6.6452707831
 10
8.1461963408
 20
6.6086478881
 10
8.1447236604
 20
6.5593120744
 10
8.1432542092
 20
6.4982453815
 10
8.1417761133
 20
6.426395878
 10
8.1403076397
 20
6.3464106119
 10
8.1388477466
 20
6.2603236789
 10
8.1373738901
 20
6.1688827845
  0
LWPOLYLINE
  5
490
100
AcDbEntity
  8
0
100
AcDbPolyline
 62
7
  6
CONTINUOUS
 90
10
 70
0
 10
8.0912909552
 20
6.67440138
 10
8.0901338317
 20
6.6676502397
 10
8.088666845
 20
6.6459451554
 10
8.0872035867
 20
6.6104557172
 10
8.0857388462
 20
6.5619480438
 10
8.0842649153
 20
6.501214066
 10
8.0827722163
 20
6.4290418499
 10
8.0812795729
 20
6.347950182
 10
8.079805203
 20
6.2610873354
 10
8.078344244
 20
6.1704893524
  0
LWPOLYLINE
  5
491
100
AcDbEntity
  8
0
100
AcDbPolyline
 62
7
  6
CONTINUOUS
 90
8
 70
0
 10
7.8921126481
 20
5.4746880564
 10
7.8932037692
 20
5.480821836
 10
7.8946234221
 20
5.5010138613
 10
7.8960438598
 20
5.5342876007
 10
7.8974492091
 20
5.5793314861
 10
7.8988438022
 20
5.6349578858
 10
7.9002469747
 20
5.7006731226
 10
7.9016436358
 20
5.7743453176
  0
LWPOLYLINE
  5
492
100
AcDbEntity
  8
0
100
AcDbPolyline
 62
7
  6
CONTINUOUS
 90
8
 70
0
 10
7.9144628549
 20
5.5131637899
 10
7.915596561
 20
5.5192007611
 10
7.9170026353
 20
5.5378789367
 10
7.9184087095
 20
5.5685452821
 10
7.9198147838
 20
5.6105147619
 10
7.921220858
 20
5.6628498471
 10
7.9226269322
 20
5.7243814584
 10
7.9240330065
 20
5.7937350814
  0
LWPOLYLINE
  5
493
100
AcDbEntity
  8
0
100
AcDbPolyline
 62
7
  6
CONTINUOUS
 90
10
 70
0
 10
7.8625172584
 20
5.5129279948
 10
7.8639936364
 20
5.5198423972
 10
7.8654700144
 20
5.5404153489
 10
7.8669463923
 20
5.5741402756
 10
7.8684227703
 20
5.6201867576
 10
7.8698991482
 20
5.6774209777
 10
7.8713755262
 20
5.7444336395
 10
7.8728519041
 20
5.8195746688
 10
7.8743282821
 20
5.9009938442
 10
7.87580466
 20
5.9866863552
  0
LWPOLYLINE
  5
494
100
AcDbEntity
  8
0
100
AcDbPolyline
 62
7
  6
CONTINUOUS
 90
8
 70
0
 10
7.9215723766
 20
5.5129279948
 10
7.9229784508
 20
5.5192007611
 10
7.924384525
 20
5.5378789367
 10
7.9257905993
 20
5.5685452821
 10
7.9271966735
 20
5.6105147619
 10
7.9286027478
 20
5.6628498471
 10
7.930008822
 20
5.7243814584
 10
7.9314148962
 20
5.7937350814
  0
LINE
  5
495
100
AcDbEntity
  8
0
100
AcDbLine
 62
7
  6
CONTINUOUS
 10
7.6779700144
 20
5.5129279948
 11
7.6555806437
 21
5.4741484672
  0
LINE
  5
496
100
AcDbEntity
  8
0
100
AcDbLine
 62
7
  6
CONTINUOUS
 10
7.7370251325
 20
5.5129279948
 11
7.7146357618
 21
5.4741484672
  0
LINE
  5
497
100
AcDbEntity
  8
0
100
AcDbLine
 62
7
  6
CONTINUOUS
 10
7.6851082027
 20
6.6749358688
 11
7.7074975734
 21
6.6361563412
  0
LINE
  5
498
100
AcDbEntity
  8
0
100
AcDbLine
 62
7
  6
CONTINUOUS
 10
7.7441633208
 20
6.6749358688
 11
7.7665526915
 21
6.6361563412
  0
LWPOLYLINE
  5
499
100
AcDbEntity
  8
0
100
AcDbPolyline
 62
7
  6
CONTINUOUS
 90
11
 70
0
 10
8.078344244
 20
6.1704893524
 10
8.0754006969
 20
5.9832272734
 10
8.0739311765
 20
5.89193915
 10
8.0724578938
 20
5.8048909855
 10
8.0709656309
 20
5.7234705004
 10
8.0694725824
 20
5.6508456315
 10
8.0679975919
 20
5.5895691412
 10
8.0665274404
 20
5.5403529437
 10
8.0650380117
 20
5.503796388
 10
8.0635465982
 20
5.4815227011
 10
8.0620719835
 20
5.4741484672
  0
LWPOLYLINE
  5
49A
100
AcDbEntity
  8
0
100
AcDbPolyline
 62
7
  6
CONTINUOUS
 90
11
 70
0
 10
8.0822291025
 20
5.9790574523
 10
8.085213259
 20
6.1688827845
 10
8.0866871155
 20
6.2603236789
 10
8.0881470086
 20
6.3464106119
 10
8.0896154822
 20
6.426395878
 10
8.0910935781
 20
6.4982453815
 10
8.0925630293
 20
6.5593120744
 10
8.0940357097
 20
6.6086478881
 10
8.0955271356
 20
6.6452707831
 10
8.097019502
 20
6.6675625062
 10
8.0984940295
 20
6.6749358688
  0
LWPOLYLINE
  5
49B
100
AcDbEntity
  8
0
100
AcDbPolyline
 62
7
  6
CONTINUOUS
 90
11
 70
0
 10
8.0529700144
 20
5.9866863552
 10
8.0559227703
 20
6.1623979807
 10
8.0573991482
 20
6.2480904918
 10
8.0588755262
 20
6.3295096672
 10
8.0603519041
 20
6.4046506965
 10
8.0618282821
 20
6.4716633583
 10
8.06330466
 20
6.5288975784
 10
8.064781038
 20
6.5749440604
 10
8.0662574159
 20
6.6086689871
 10
8.0677337939
 20
6.6292419388
 10
8.0689378037
 20
6.6359205461
  0
LWPOLYLINE
  5
49C
100
AcDbEntity
  8
0
100
AcDbPolyline
 62
7
  6
CONTINUOUS
 90
11
 70
0
 10
8.1046432427
 20
5.9866863552
 10
8.1075959986
 20
6.1623979807
 10
8.1090723766
 20
6.2480904918
 10
8.1105487545
 20
6.3295096672
 10
8.1120251325
 20
6.4046506965
 10
8.1135015104
 20
6.4716633583
 10
8.1149778884
 20
6.5288975784
 10
8.1164542663
 20
6.5749440604
 10
8.1179306443
 20
6.6086689871
 10
8.1194070222
 20
6.6292419388
 10
8.1208834002
 20
6.6361563412
  0
LWPOLYLINE
  5
49D
100
AcDbEntity
  8
0
100
AcDbPolyline
 62
7
  6
CONTINUOUS
 90
11
 70
0
 10
8.1120251325
 20
5.9866863552
 10
8.1149778884
 20
6.1623979807
 10
8.1164542663
 20
6.2480904918
 10
8.1179306443
 20
6.3295096672
 10
8.1194070222
 20
6.4046506965
 10
8.1208834002
 20
6.4716633583
 10
8.1223597781
 20
6.5288975784
 10
8.1238361561
 20
6.5749440604
 10
8.125312534
 20
6.6086689871
 10
8.126788912
 20
6.6292419388
 10
8.1279929218
 20
6.6359205461
  0
LWPOLYLINE
  5
49E
100
AcDbEntity
  8
0
100
AcDbPolyline
 62
7
  6
CONTINUOUS
 90
11
 70
0
 10
8.0102195484
 20
5.4746822784
 10
8.0113859671
 20
5.4815227011
 10
8.0128773806
 20
5.503796388
 10
8.0143668093
 20
5.5403529437
 10
8.0158369608
 20
5.5895691412
 10
8.0173119513
 20
5.6508456315
 10
8.0188049998
 20
5.7234705004
 10
8.0202972627
 20
5.8048909855
 10
8.0217705453
 20
5.89193915
 10
8.0232400658
 20
5.9832272734
 10
8.0261836129
 20
6.1704893524
  0
LWPOLYLINE
  5
49F
100
AcDbEntity
  8
0
100
AcDbPolyline
 62
7
  6
CONTINUOUS
 90
10
 70
0
 10
7.9511649202
 20
5.474683127
 10
7.9523197184
 20
5.481412022
 10
7.9537822662
 20
5.5030086119
 10
7.9552503665
 20
5.538576113
 10
7.9567166285
 20
5.5871250271
 10
7.9581901698
 20
5.647839189
 10
7.9596825323
 20
5.7199894816
 10
7.9611749378
 20
5.8010621529
 10
7.9626491172
 20
5.8879085643
 10
7.9641091752
 20
5.9784463294
  0
LWPOLYLINE
  5
4A0
100
AcDbEntity
  8
0
100
AcDbPolyline
 62
7
  6
CONTINUOUS
 90
10
 70
0
 10
7.973517973
 20
5.5131637899
 10
7.9747219829
 20
5.5198423972
 10
7.9761983608
 20
5.5404153489
 10
7.9776747388
 20
5.5741402756
 10
7.9791511167
 20
5.6201867576
 10
7.9806274947
 20
5.6774209777
 10
7.9821038726
 20
5.7444336395
 10
7.9835802506
 20
5.8195746688
 10
7.9850566285
 20
5.9009938442
 10
7.9865330065
 20
5.9866863552
  0
LWPOLYLINE
  5
4A1
100
AcDbEntity
  8
0
100
AcDbPolyline
 62
7
  6
CONTINUOUS
 90
10
 70
0
 10
8.0325730911
 20
5.5131637899
 10
8.033777101
 20
5.5198423972
 10
8.0352534789
 20
5.5404153489
 10
8.0367298569
 20
5.5741402756
 10
8.0382062348
 20
5.6201867576
 10
8.0396826128
 20
5.6774209777
 10
8.0411589907
 20
5.7444336395
 10
8.0426353687
 20
5.8195746688
 10
8.0441117466
 20
5.9009938442
 10
8.0455881246
 20
5.9866863552
  0
LWPOLYLINE
  5
4A2
100
AcDbEntity
  8
0
100
AcDbPolyline
 62
7
  6
CONTINUOUS
 90
10
 70
0
 10
7.9806274947
 20
5.5129279948
 10
7.9821038726
 20
5.5198423972
 10
7.9835802506
 20
5.5404153489
 10
7.9850566285
 20
5.5741402756
 10
7.9865330065
 20
5.6201867576
 10
7.9880093844
 20
5.6774209777
 10
7.9894857624
 20
5.7444336395
 10
7.9909621403
 20
5.8195746688
 10
7.9924385183
 20
5.9009938442
 10
7.9939148962
 20
5.9866863552
  0
LINE
  5
4A3
100
AcDbEntity
  8
0
100
AcDbLine
 62
7
  6
CONTINUOUS
 10
7.7960802506
 20
5.5129279948
 11
7.7736908799
 21
5.4741484672
  0
LINE
  5
4A4
100
AcDbEntity
  8
0
100
AcDbLine
 62
7
  6
CONTINUOUS
 10
7.8551353687
 20
5.5129279948
 11
7.832745998
 21
5.4741484672
  0
LINE
  5
4A5
100
AcDbEntity
  8
0
100
AcDbLine
 62
7
  6
CONTINUOUS
 10
7.043296528
 20
6.451038231
 11
7.0522335359
 21
6.451038231
  0
LINE
  5
4A6
100
AcDbEntity
  8
0
100
AcDbLine
 62
7
  6
CONTINUOUS
 10
7.1147250994
 20
6.451038231
 11
7.1236621073
 21
6.451038231
  0
LINE
  5
4A7
100
AcDbEntity
  8
0
100
AcDbLine
 62
7
  6
CONTINUOUS
 10
7.1861536708
 20
6.451038231
 11
7.1950906787
 21
6.451038231
  0
LINE
  5
4A8
100
AcDbEntity
  8
0
100
AcDbLine
 62
7
  6
CONTINUOUS
 10
7.2575822423
 20
6.451038231
 11
7.2665192502
 21
6.451038231
  0
LINE
  5
4A9
100
AcDbEntity
  8
0
100
AcDbLine
 62
7
  6
CONTINUOUS
 10
7.3290108137
 20
6.451038231
 11
7.3379478216
 21
6.451038231
  0
LINE
  5
4AA
100
AcDbEntity
  8
0
100
AcDbLine
 62
7
  6
CONTINUOUS
 10
7.4004393851
 20
6.451038231
 11
7.409376393
 21
6.451038231
  0
LINE
  5
4AB
100
AcDbEntity
  8
0
100
AcDbLine
 62
7
  6
CONTINUOUS
 10
7.4718679566
 20
6.451038231
 11
7.4808049644
 21
6.451038231
  0
LINE
  5
4AC
100
AcDbEntity
  8
0
100
AcDbLine
 62
7
  6
CONTINUOUS
 10
6.8120719835
 20
6.4997390184
 11
7.0151791153
 21
6.4997390184
  0
LINE
  5
4AD
100
AcDbEntity
  8
0
100
AcDbLine
 62
7
  6
CONTINUOUS
 10
7.0803509486
 20
6.4997390184
 11
7.0866076867
 21
6.4997390184
  0
LINE
  5
4AE
100
AcDbEntity
  8
0
100
AcDbLine
 62
7
  6
CONTINUOUS
 10
7.15177952
 20
6.4997390184
 11
7.1580362581
 21
6.4997390184
  0
LINE
  5
4AF
100
AcDbEntity
  8
0
100
AcDbLine
 62
7
  6
CONTINUOUS
 10
7.2232080914
 20
6.4997390184
 11
7.2294648296
 21
6.4997390184
  0
LINE
  5
4B0
100
AcDbEntity
  8
0
100
AcDbLine
 62
7
  6
CONTINUOUS
 10
7.2946366629
 20
6.4997390184
 11
7.300893401
 21
6.4997390184
  0
LINE
  5
4B1
100
AcDbEntity
  8
0
100
AcDbLine
 62
7
  6
CONTINUOUS
 10
7.3660652343
 20
6.4997390184
 11
7.3723219724
 21
6.4997390184
  0
LINE
  5
4B2
100
AcDbEntity
  8
0
100
AcDbLine
 62
7
  6
CONTINUOUS
 10
7.4374938057
 20
6.4997390184
 11
7.4437505438
 21
6.4997390184
  0
LINE
  5
4B3
100
AcDbEntity
  8
0
100
AcDbLine
 62
7
  6
CONTINUOUS
 10
7.5089223772
 20
6.4997390184
 11
7.5601034795
 21
6.4997390184
  0
LINE
  5
4B4
100
AcDbEntity
  8
0
100
AcDbLine
 62
7
  6
CONTINUOUS
 10
7.803218439
 20
6.6749358688
 11
7.8256078096
 21
6.6361563412
  0
LWPOLYLINE
  5
4B5
100
AcDbEntity
  8
0
100
AcDbPolyline
 62
7
  6
CONTINUOUS
 90
11
 70
0
 10
8.1373738901
 20
6.1688827845
 10
8.1343897336
 20
5.9790574523
 10
8.1329164002
 20
5.887690961
 10
8.1314518828
 20
5.801407833
 10
8.1299877519
 20
5.7217627469
 10
8.1285231129
 20
5.6506380519
 10
8.1270586252
 20
5.5897919907
 10
8.1255858226
 20
5.5404481549
 10
8.1240942456
 20
5.5038185136
 10
8.1226017356
 20
5.4815228933
 10
8.1211271016
 20
5.4741484672
  0
LWPOLYLINE
  5
4B6
100
AcDbEntity
  8
0
100
AcDbPolyline
 62
7
  6
CONTINUOUS
 90
10
 70
0
 10
8.0692746656
 20
5.4746822769
 10
8.0704411045
 20
5.4815228933
 10
8.0719336145
 20
5.5038185136
 10
8.0734251915
 20
5.5404481549
 10
8.0748979941
 20
5.5897919907
 10
8.0763624818
 20
5.6506380519
 10
8.0778271208
 20
5.7217627469
 10
8.0792912517
 20
5.801407833
 10
8.0807557691
 20
5.887690961
 10
8.0822291025
 20
5.9790574523
  0
LWPOLYLINE
  5
4B7
100
AcDbEntity
  8
0
100
AcDbPolyline
 62
7
  6
CONTINUOUS
 90
10
 70
0
 10
8.0916282092
 20
5.5131637899
 10
8.0928322191
 20
5.5198423972
 10
8.094308597
 20
5.5404153489
 10
8.095784975
 20
5.5741402756
 10
8.0972613529
 20
5.6201867576
 10
8.0987377309
 20
5.6774209777
 10
8.1002141088
 20
5.7444336395
 10
8.1016904868
 20
5.8195746688
 10
8.1031668647
 20
5.9009938442
 10
8.1046432427
 20
5.9866863552
  0
LWPOLYLINE
  5
4B8
100
AcDbEntity
  8
0
100
AcDbPolyline
 62
7
  6
CONTINUOUS
 90
10
 70
0
 10
8.0396826128
 20
5.5129279948
 10
8.0411589907
 20
5.5198423972
 10
8.0426353687
 20
5.5404153489
 10
8.0441117466
 20
5.5741402756
 10
8.0455881246
 20
5.6201867576
 10
8.0470645025
 20
5.6774209777
 10
8.0485408805
 20
5.7444336395
 10
8.0500172584
 20
5.8195746688
 10
8.0514936364
 20
5.9009938442
 10
8.0529700144
 20
5.9866863552
  0
LWPOLYLINE
  5
4B9
100
AcDbEntity
  8
0
100
AcDbPolyline
 62
7
  6
CONTINUOUS
 90
10
 70
0
 10
8.0987377309
 20
5.5129279948
 10
8.1002141088
 20
5.5198423972
 10
8.1016904868
 20
5.5404153489
 10
8.1031668647
 20
5.5741402756
 10
8.1046432427
 20
5.6201867576
 10
8.1061196206
 20
5.6774209777
 10
8.1075959986
 20
5.7444336395
 10
8.1090723766
 20
5.8195746688
 10
8.1105487545
 20
5.9009938442
 10
8.1120251325
 20
5.9866863552
  0
LINE
  5
4BA
100
AcDbEntity
  8
0
100
AcDbLine
 62
7
  6
CONTINUOUS
 10
7.9141904868
 20
5.5129279948
 11
7.8918011161
 21
5.4741484672
  0
LINE
  5
4BB
100
AcDbEntity
  8
0
100
AcDbLine
 62
7
  6
CONTINUOUS
 10
7.9732456049
 20
5.5129279948
 11
7.9508562342
 21
5.4741484672
  0
LINE
  5
4BC
100
AcDbEntity
  8
0
100
AcDbLine
 62
7
  6
CONTINUOUS
 10
7.8622735571
 20
6.6749358688
 11
7.8846629277
 21
6.6361563412
  0
LINE
  5
4BD
100
AcDbEntity
  8
0
100
AcDbLine
 62
7
  6
CONTINUOUS
 10
7.9213286752
 20
6.6749358688
 11
7.9437180458
 21
6.6361563412
  0
LINE
  5
4BE
100
AcDbEntity
  8
0
100
AcDbLine
 62
7
  6
CONTINUOUS
 10
8.032300723
 20
5.5129279948
 11
8.0099113523
 21
5.4741484672
  0
LINE
  5
4BF
100
AcDbEntity
  8
0
100
AcDbLine
 62
7
  6
CONTINUOUS
 10
8.1282652899
 20
6.6361563412
 11
8.1208834002
 21
6.6361563412
  0
LINE
  5
4C0
100
AcDbEntity
  8
0
100
AcDbLine
 62
7
  6
CONTINUOUS
 10
7.5893873372
 20
6.6361563412
 11
7.5967692269
 21
6.6361563412
  0
LINE
  5
4C1
100
AcDbEntity
  8
0
100
AcDbLine
 62
7
  6
CONTINUOUS
 10
7.6484424553
 20
6.6361563412
 11
7.6558243451
 21
6.6361563412
  0
LINE
  5
4C2
100
AcDbEntity
  8
0
100
AcDbLine
 62
7
  6
CONTINUOUS
 10
7.7074975734
 20
6.6361563412
 11
7.7148794632
 21
6.6361563412
  0
LINE
  5
4C3
100
AcDbEntity
  8
0
100
AcDbLine
 62
7
  6
CONTINUOUS
 10
7.7665526915
 20
6.6361563412
 11
7.7739345813
 21
6.6361563412
  0
LINE
  5
4C4
100
AcDbEntity
  8
0
100
AcDbLine
 62
7
  6
CONTINUOUS
 10
7.8256078096
 20
6.6361563412
 11
7.8329896994
 21
6.6361563412
  0
LINE
  5
4C5
100
AcDbEntity
  8
0
100
AcDbLine
 62
7
  6
CONTINUOUS
 10
7.8846629277
 20
6.6361563412
 11
7.8920448175
 21
6.6361563412
  0
LINE
  5
4C6
100
AcDbEntity
  8
0
100
AcDbLine
 62
7
  6
CONTINUOUS
 10
7.9437180458
 20
6.6361563412
 11
7.9510999356
 21
6.6361563412
  0
LINE
  5
4C7
100
AcDbEntity
  8
0
100
AcDbLine
 62
7
  6
CONTINUOUS
 10
8.002773164
 20
6.6361563412
 11
8.0101550537
 21
6.6361563412
  0
LINE
  5
4C8
100
AcDbEntity
  8
0
100
AcDbLine
 62
7
  6
CONTINUOUS
 10
8.0618282821
 20
6.6361563412
 11
8.0692101718
 21
6.6361563412
  0
LINE
  5
4C9
100
AcDbEntity
  8
0
100
AcDbLine
 62
7
  6
CONTINUOUS
 10
7.6851082027
 20
6.6749358688
 11
7.6782137157
 21
6.6749358688
  0
LINE
  5
4CA
100
AcDbEntity
  8
0
100
AcDbLine
 62
7
  6
CONTINUOUS
 10
7.6260530846
 20
6.6749358688
 11
7.6191585976
 21
6.6749358688
  0
LINE
  5
4CB
100
AcDbEntity
  8
0
100
AcDbLine
 62
7
  6
CONTINUOUS
 10
7.5601034795
 20
6.6749358688
 11
7.5669979665
 21
6.6749358688
  0
LINE
  5
4CC
100
AcDbEntity
  8
0
100
AcDbLine
 62
7
  6
CONTINUOUS
 10
7.7372688338
 20
6.6749358688
 11
7.7441633208
 21
6.6749358688
  0
LINE
  5
4CD
100
AcDbEntity
  8
0
100
AcDbLine
 62
7
  6
CONTINUOUS
 10
7.796323952
 20
6.6749358688
 11
7.803218439
 21
6.6749358688
  0
LINE
  5
4CE
100
AcDbEntity
  8
0
100
AcDbLine
 62
7
  6
CONTINUOUS
 10
7.8553790701
 20
6.6749358688
 11
7.8622735571
 21
6.6749358688
  0
LINE
  5
4CF
100
AcDbEntity
  8
0
100
AcDbLine
 62
7
  6
CONTINUOUS
 10
7.9144341882
 20
6.6749358688
 11
7.9213286752
 21
6.6749358688
  0
LINE
  5
4D0
100
AcDbEntity
  8
0
100
AcDbLine
 62
7
  6
CONTINUOUS
 10
7.9734893063
 20
6.6749358688
 11
7.9803837933
 21
6.6749358688
  0
LINE
  5
4D1
100
AcDbEntity
  8
0
100
AcDbLine
 62
7
  6
CONTINUOUS
 10
8.0325444244
 20
6.6749358688
 11
8.0394389114
 21
6.6749358688
  0
LINE
  5
4D2
100
AcDbEntity
  8
0
100
AcDbLine
 62
7
  6
CONTINUOUS
 10
8.0915995425
 20
6.6749358688
 11
8.4951428496
 21
6.6749358688
  0
LINE
  5
4D3
100
AcDbEntity
  8
0
100
AcDbLine
 62
7
  6
CONTINUOUS
 10
8.4951428496
 20
6.679542168
 11
8.5571428496
 21
6.679542168
  0
LINE
  5
4D4
100
AcDbEntity
  8
0
100
AcDbLine
 62
7
  6
CONTINUOUS
 10
7.9803837933
 20
6.6749358688
 11
8.002773164
 21
6.6361563412
  0
LINE
  5
4D5
100
AcDbEntity
  8
0
100
AcDbLine
 62
7
  6
CONTINUOUS
 10
8.0394389114
 20
6.6749358688
 11
8.0618282821
 21
6.6361563412
  0
LINE
  5
4D6
100
AcDbEntity
  8
0
100
AcDbLine
 62
7
  6
CONTINUOUS
 10
8.0913558411
 20
5.5129279948
 11
8.0689664704
 21
5.4741484672
  0
LINE
  5
4D7
100
AcDbEntity
  8
0
100
AcDbLine
 62
7
  6
CONTINUOUS
 10
8.0984940295
 20
6.6749358688
 11
8.1208834002
 21
6.6361563412
  0
LINE
  5
4D8
100
AcDbEntity
  8
0
100
AcDbLine
 62
7
  6
CONTINUOUS
 10
8.4951428496
 20
5.169030357
 11
8.4951428496
 21
6.980053979
  0
LINE
  5
4D9
100
AcDbEntity
  8
0
100
AcDbLine
 62
7
  6
CONTINUOUS
 10
8.544355448
 20
5.1299104744
 11
8.544355448
 21
5.249542168
  0
LINE
  5
4DA
100
AcDbEntity
  8
0
100
AcDbLine
 62
7
  6
CONTINUOUS
 10
8.544355448
 20
6.899542168
 11
8.544355448
 21
7.0191738616
  0
LINE
  5
4DB
100
AcDbEntity
  8
0
100
AcDbLine
 62
7
  6
CONTINUOUS
 10
8.5571428496
 20
5.249542168
 11
8.5571428496
 21
6.899542168
  0
LINE
  5
4DC
100
AcDbEntity
  8
0
100
AcDbLine
 62
7
  6
CONTINUOUS
 10
8.5571428496
 20
6.899542168
 11
8.4951428496
 21
6.899542168
  0
LINE
  5
4DD
100
AcDbEntity
  8
0
100
AcDbLine
 62
7
  6
CONTINUOUS
 10
8.544355448
 20
6.980053979
 11
8.4951428496
 21
6.980053979
  0
LWPOLYLINE
  5
4DE
100
AcDbEntity
  8
0
100
AcDbPolyline
 62
7
  6
CONTINUOUS
 90
7
 70
0
 10
3.3592714104
 20
6.2788217719
 10
3.4015391029
 20
6.3327641488
 10
3.4528844502
 20
6.3781512962
 10
3.5116063144
 20
6.413479479
 10
3.575759164
 20
6.4375782287
 10
3.6432175316
 20
6.4496491225
 10
3.67552131
 20
6.44948089
  0
LINE
  5
4DF
100
AcDbEntity
  8
0
100
AcDbLine
 62
7
  6
CONTINUOUS
 10
3.6917002876
 20
5.6983935424
 11
3.6232499534
 21
5.7016934818
  0
LINE
  5
4E0
100
AcDbEntity
  8
0
100
AcDbLine
 62
7
  6
CONTINUOUS
 10
3.6232499534
 20
5.7016934818
 11
3.5565317059
 21
5.7173463822
  0
LINE
  5
4E1
100
AcDbEntity
  8
0
100
AcDbLine
 62
7
  6
CONTINUOUS
 10
3.5565317059
 20
5.7173463822
 11
3.4937560072
 21
5.7448336426
  0
LINE
  5
4E2
100
AcDbEntity
  8
0
100
AcDbLine
 62
7
  6
CONTINUOUS
 10
3.4937560072
 20
5.7448336426
 11
3.4370026976
 21
5.7832445746
  0
LINE
  5
4E3
100
AcDbEntity
  8
0
100
AcDbLine
 62
7
  6
CONTINUOUS
 10
3.4370026976
 20
5.7832445746
 11
3.3881520879
 21
5.8313065739
  0
LWPOLYLINE
  5
4E4
100
AcDbEntity
  8
0
100
AcDbPolyline
 62
7
  6
CONTINUOUS
 90
8
 70
0
 10
3.3881520879
 20
5.8313065739
 10
3.3488226624
 20
5.8874272842
 10
3.3203174559
 20
5.9497473536
 10
3.3035808829
 20
6.0162020371
 10
3.2991674477
 20
6.0845896049
 10
3.3072233734
 20
6.1526442881
 10
3.3274817564
 20
6.2181113467
 10
3.3592714104
 20
6.2788217719
  0
LINE
  5
4E5
100
AcDbEntity
  8
DEFAULT_3
100
AcDbLine
 62
7
  6
PHANTOM
 10
3.6755294204
 20
7.2624879884
 11
3.6755294204
 21
6.4997390184
  0
LINE
  5
4E6
100
AcDbEntity
  8
DEFAULT_3
100
AcDbLine
 62
7
  6
PHANTOM
 10
3.6755294204
 20
6.451038231
 11
3.6755294204
 21
4.8332534532
  0
LINE
  5
4E7
100
AcDbEntity
  8
0
100
AcDbLine
 62
7
  6
CONTINUOUS
 10
3.6755294204
 20
6.4997390184
 11
3.6755294204
 21
6.451038231
  0
LINE
  5
4E8
100
AcDbEntity
  8
0
100
AcDbLine
 62
7
  6
CONTINUOUS
 10
3.6755294204
 20
6.451038231
 11
3.7437748517
 21
6.4448013293
  0
LINE
  5
4E9
100
AcDbEntity
  8
0
100
AcDbLine
 62
7
  6
CONTINUOUS
 10
3.7437748517
 20
6.4448013293
 11
3.8097592233
 21
6.426297261
  0
LINE
  5
4EA
100
AcDbEntity
  8
0
100
AcDbLine
 62
7
  6
CONTINUOUS
 10
3.8097592233
 20
6.426297261
 11
3.8712963873
 21
6.3961390898
  0
LINE
  5
4EB
100
AcDbEntity
  8
0
100
AcDbLine
 62
7
  6
CONTINUOUS
 10
3.8712963873
 20
6.3961390898
 11
3.9263475375
 21
6.3553259951
  0
LWPOLYLINE
  5
4EC
100
AcDbEntity
  8
0
100
AcDbPolyline
 62
7
  6
CONTINUOUS
 90
14
 70
0
 10
3.9263475375
 20
6.3553259951
 10
3.973088758
 20
6.3052101677
 10
4.0099714512
 20
6.24745201
 10
4.0357736458
 20
6.1839651248
 10
4.0496404816
 20
6.116852915
 10
4.0511125323
 20
6.0483388952
 10
4.0401410269
 20
5.9806930238
 10
4.0170894656
 20
5.9161564965
 10
3.9827215767
 20
5.856867492
 10
3.9381760128
 20
5.8047903321
 10
3.8849286264
 20
5.7616504008
 10
3.8247435724
 20
5.7288769798
 10
3.7596148598
 20
5.7075558953
 10
3.6917002876
 20
5.6983935424
  0
LWPOLYLINE
  5
4ED
100
AcDbEntity
  8
0
100
AcDbPolyline
 62
7
  6
CONTINUOUS
 90
3
 70
0
 10
11.2273709998
 20
6.3751572269
 10
11.283158076
 20
6.4489567947
 10
11.3503036866
 20
6.5125967276
  0
LINE
  5
4EE
100
AcDbEntity
  8
0
100
AcDbLine
 62
7
  6
CONTINUOUS
 10
11.3503036866
 20
6.5125967276
 11
11.4269858544
 21
6.5643501741
  0
LINE
  5
4EF
100
AcDbEntity
  8
0
100
AcDbLine
 62
7
  6
CONTINUOUS
 10
11.4269858544
 20
6.5643501741
 11
11.5111238306
 21
6.6028128189
  0
LINE
  5
4F0
100
AcDbEntity
  8
0
100
AcDbLine
 62
7
  6
CONTINUOUS
 10
11.8880256717
 20
5.5447176079
 11
11.7985190333
 21
5.5213266745
  0
LINE
  5
4F1
100
AcDbEntity
  8
0
100
AcDbLine
 62
7
  6
CONTINUOUS
 10
11.7985190333
 20
5.5213266745
 11
11.7063867556
 21
5.5129470869
  0
LINE
  5
4F2
100
AcDbEntity
  8
0
100
AcDbLine
 62
7
  6
CONTINUOUS
 10
11.7063867556
 20
5.5129470869
 11
11.6141288219
 21
5.5198062229
  0
LINE
  5
4F3
100
AcDbEntity
  8
0
100
AcDbLine
 62
7
  6
CONTINUOUS
 10
11.6141288219
 20
5.5198062229
 11
11.5242486251
 21
5.5417179617
  0
LINE
  5
4F4
100
AcDbEntity
  8
0
100
AcDbLine
 62
7
  6
CONTINUOUS
 10
11.5242486251
 20
5.5417179617
 11
11.4391850388
 21
5.5780877346
  0
LINE
  5
4F5
100
AcDbEntity
  8
0
100
AcDbLine
 62
7
  6
CONTINUOUS
 10
11.4391850388
 20
5.5780877346
 11
11.3612462395
 21
5.6279286579
  0
LWPOLYLINE
  5
4F6
100
AcDbEntity
  8
0
100
AcDbPolyline
 62
7
  6
CONTINUOUS
 90
10
 70
0
 10
11.3612462395
 20
5.6279286579
 10
11.2925470744
 20
5.6898883124
 10
11.2349516758
 20
5.7622854404
 10
11.1900228786
 20
5.8431555663
 10
11.1589798131
 20
5.9303043022
 10
11.1426648239
 20
6.0213668917
 10
11.1415206138
 20
6.1138723773
 10
11.1555782305
 20
6.2053106488
 10
11.1844562246
 20
6.2932005546
 10
11.2273709998
 20
6.3751572269
  0
LWPOLYLINE
  5
4F7
100
AcDbEntity
  8
0
100
AcDbPolyline
 62
7
  6
CONTINUOUS
 90
7
 70
0
 10
11.7335794272
 20
5.6993934632
 10
11.8010534533
 20
5.7113765196
 10
11.8652376237
 20
5.7353917255
 10
11.9240054335
 20
5.7706434258
 10
11.9754098288
 20
5.8159636859
 10
12.0177477154
 20
5.8698509868
 10
12.0496163841
 20
5.9305199723
  0
LINE
  5
4F8
100
AcDbEntity
  8
0
100
AcDbLine
 62
7
  6
CONTINUOUS
 10
11.6650510474
 20
5.6998395703
 11
11.7335794272
 21
5.6993934632
  0
LINE
  5
4F9
100
AcDbEntity
  8
0
100
AcDbLine
 62
7
  6
CONTINUOUS
 10
11.5977387482
 20
5.7127000609
 11
11.6650510474
 21
5.6998395703
  0
LINE
  5
4FA
100
AcDbEntity
  8
0
100
AcDbLine
 62
7
  6
CONTINUOUS
 10
11.5338726735
 20
5.7375488502
 11
11.5977387482
 21
5.7127000609
  0
LINE
  5
4FB
100
AcDbEntity
  8
0
100
AcDbLine
 62
7
  6
CONTINUOUS
 10
11.475568789
 20
5.7735626657
 11
11.5338726735
 21
5.7375488502
  0
LINE
  5
4FC
100
AcDbEntity
  8
0
100
AcDbLine
 62
7
  6
CONTINUOUS
 10
11.4247587784
 20
5.8195483227
 11
11.475568789
 21
5.7735626657
  0
LINE
  5
4FD
100
AcDbEntity
  8
0
100
AcDbLine
 62
7
  6
CONTINUOUS
 10
11.7017559342
 20
6.6749358688
 11
11.7017559342
 21
6.6361563412
  0
LINE
  5
4FE
100
AcDbEntity
  8
0
100
AcDbLine
 62
7
  6
CONTINUOUS
 10
12.0699599844
 20
5.9959606001
 11
12.1175881775
 21
5.9857958611
  0
LWPOLYLINE
  5
4FF
100
AcDbEntity
  8
0
100
AcDbPolyline
 62
7
  6
CONTINUOUS
 90
6
 70
0
 10
12.0684386354
 20
5.9962935772
 10
12.0753455481
 20
6.0278507786
 10
12.0776202925
 20
6.0963428466
 10
12.0674421628
 20
6.1641126298
 10
12.0451483737
 20
6.2289148273
 10
12.0114775472
 20
6.2886024583
  0
LINE
  5
500
100
AcDbEntity
  8
0
100
AcDbLine
 62
7
  6
CONTINUOUS
 10
12.0496163841
 20
5.9305199723
 11
12.0699599844
 21
5.9959606001
  0
LWPOLYLINE
  5
501
100
AcDbEntity
  8
0
100
AcDbPolyline
 62
7
  6
CONTINUOUS
 90
14
 70
0
 10
11.7223331129
 20
6.4504754934
 10
11.6538488116
 20
6.4479778292
 10
11.5869517356
 20
6.4331077567
 10
11.5238582716
 20
6.4063579408
 10
11.4666587882
 20
6.3686146377
 10
11.4172483784
 20
6.3211283318
 10
11.3772640733
 20
6.2654723062
 10
11.3480306048
 20
6.2034905173
 10
11.3305165156
 20
6.1372365021
 10
11.3253020703
 20
6.0689053423
 10
11.3325600302
 20
6.0007609379
 10
11.3520499297
 20
5.9350610013
 10
11.383126043
 20
5.8739822569
 10
11.4247587784
 20
5.8195483227
  0
LINE
  5
502
100
AcDbEntity
  8
0
100
AcDbLine
 62
7
  6
CONTINUOUS
 10
11.7901356655
 20
6.4405179985
 11
11.7223331129
 21
6.4504754934
  0
LINE
  5
503
100
AcDbEntity
  8
0
100
AcDbLine
 62
7
  6
CONTINUOUS
 10
11.8550100828
 20
6.4184352493
 11
11.7901356655
 21
6.4405179985
  0
LINE
  5
504
100
AcDbEntity
  8
0
100
AcDbLine
 62
7
  6
CONTINUOUS
 10
11.9148069913
 20
6.3849588759
 11
11.8550100828
 21
6.4184352493
  0
LINE
  5
505
100
AcDbEntity
  8
0
100
AcDbLine
 62
7
  6
CONTINUOUS
 10
11.9675452416
 20
6.3411979939
 11
11.9148069913
 21
6.3849588759
  0
LINE
  5
506
100
AcDbEntity
  8
0
100
AcDbLine
 62
7
  6
CONTINUOUS
 10
12.0114775472
 20
6.2886024583
 11
11.9675452416
 21
6.3411979939
  0
LWPOLYLINE
  5
507
100
AcDbEntity
  8
0
100
AcDbPolyline
 62
7
  6
CONTINUOUS
 90
3
 70
0
 10
12.217235098
 20
5.8516257907
 10
12.1736460032
 20
5.7700257607
 10
12.117252305
 20
5.6966886972
  0
LINE
  5
508
100
AcDbEntity
  8
0
100
AcDbLine
 62
7
  6
CONTINUOUS
 10
12.117252305
 20
5.6966886972
 11
12.0495842304
 21
5.6336045807
  0
LINE
  5
509
100
AcDbEntity
  8
0
100
AcDbLine
 62
7
  6
CONTINUOUS
 10
12.0495842304
 20
5.6336045807
 11
11.9724779335
 21
5.5824851808
  0
LINE
  5
50A
100
AcDbEntity
  8
0
100
AcDbLine
 62
7
  6
CONTINUOUS
 10
11.9724779335
 20
5.5824851808
 11
11.8880256717
 21
5.5447176079
  0
LINE
  5
50B
100
AcDbEntity
  8
0
100
AcDbLine
 62
7
  6
CONTINUOUS
 10
11.5111238306
 20
6.6028128189
 11
11.6004345549
 21
6.6269409892
  0
LWPOLYLINE
  5
50C
100
AcDbEntity
  8
0
100
AcDbPolyline
 62
7
  6
CONTINUOUS
 90
3
 70
0
 10
11.6004345549
 20
6.6269409892
 10
11.6924946062
 20
6.6360799738
 10
11.7017106698
 20
6.635471151
  0
LINE
  5
50D
100
AcDbEntity
  8
0
100
AcDbLine
 62
7
  6
CONTINUOUS
 10
11.7017559342
 20
6.6361563412
 11
11.7939541742
 21
6.6285367204
  0
LINE
  5
50E
100
AcDbEntity
  8
0
100
AcDbLine
 62
7
  6
CONTINUOUS
 10
11.7939541742
 20
6.6285367204
 11
11.883650641
 21
6.6058846142
  0
LINE
  5
50F
100
AcDbEntity
  8
0
100
AcDbLine
 62
7
  6
CONTINUOUS
 10
11.883650641
 20
6.6058846142
 11
11.9684114465
 21
6.5688146812
  0
LINE
  5
510
100
AcDbEntity
  8
0
100
AcDbLine
 62
7
  6
CONTINUOUS
 10
11.9684114465
 20
6.5688146812
 11
12.0459366301
 21
6.5183328034
  0
LINE
  5
511
100
AcDbEntity
  8
0
100
AcDbLine
 62
7
  6
CONTINUOUS
 10
12.0459366301
 20
6.5183328034
 11
12.114122568
 21
6.4558087924
  0
LWPOLYLINE
  5
512
100
AcDbEntity
  8
0
100
AcDbPolyline
 62
7
  6
CONTINUOUS
 90
8
 70
0
 10
12.114122568
 20
6.4558087924
 10
12.171119054
 20
6.3829392194
 10
12.2153795046
 20
6.3017013798
 10
12.245702925
 20
6.2142996392
 10
12.2612664978
 20
6.1231056192
 10
12.2616479098
 20
6.0305938437
 10
12.2468368115
 20
5.9392745936
 10
12.217235098
 20
5.8516257907
  0
LWPOLYLINE
  5
513
100
AcDbEntity
  8
0
100
AcDbPolyline
 62
7
  6
CONTINUOUS
 90
4
 70
0
 10
13.2994918802
 20
7.4372733031
 10
13.3348279106
 20
7.4189783456
 10
13.3701273065
 20
7.4049298053
 10
13.4049259869
 20
7.3953379056
  0
LWPOLYLINE
  5
514
100
AcDbEntity
  8
0
100
AcDbPolyline
 62
7
  6
CONTINUOUS
 90
22
 70
0
 10
13.2913378518
 20
7.4552963798
 10
13.2605255327
 20
7.4748460954
 10
13.2250399438
 20
7.5017977185
 10
13.1858383669
 20
7.5374195643
 10
13.144317318
 20
7.5826681584
 10
13.102424581
 20
7.6378831388
 10
13.0634839183
 20
7.7009542224
 10
13.0310309935
 20
7.767150269
 10
13.0060944196
 20
7.8341170568
 10
12.9890129313
 20
7.900755475
 10
12.9803367997
 20
7.9650904704
 10
12.9803258
 20
8.025214439
 10
12.9889802145
 20
8.0795480628
 10
13.0060411129
 20
8.1264836427
 10
13.030958071
 20
8.1646794819
 10
13.0633924541
 20
8.1934281553
 10
13.1023232474
 20
8.2115650123
 10
13.1442223728
 20
8.2184342784
 10
13.1857610079
 20
8.2157559044
 10
13.2249856332
 20
8.206117845
 10
13.2604979125
 20
8.1920902327
 10
13.2913378518
 20
8.176048972
  0
LINE
  5
515
100
AcDbEntity
  8
0
100
AcDbLine
 62
7
  6
CONTINUOUS
 10
13.2419840815
 20
7.4761422269
 11
13.2994918802
 21
7.4372733031
  0
LWPOLYLINE
  5
516
100
AcDbEntity
  8
0
100
AcDbPolyline
 62
7
  6
CONTINUOUS
 90
14
 70
0
 10
13.4097019756
 20
7.5368355706
 10
13.3615439723
 20
7.5709087218
 10
13.3147358494
 20
7.6135433869
 10
13.270590666
 20
7.6635975355
 10
13.230348843
 20
7.7197267529
 10
13.1951443282
 20
7.7804209124
 10
13.1659736644
 20
7.8440453676
 10
13.1436688068
 20
7.9088855412
 10
13.1288744294
 20
7.9731936942
 10
13.1220303397
 20
8.0352366001
 10
13.1233594822
 20
8.093342822
 10
13.132861857
 20
8.1459483057
 10
13.1503145195
 20
8.1916390428
 10
13.15782747
 20
8.2029403356
  0
LWPOLYLINE
  5
517
100
AcDbEntity
  8
0
100
AcDbPolyline
 62
7
  6
CONTINUOUS
 90
11
 70
0
 10
12.984112925
 20
8.1242118594
 10
12.9710064289
 20
8.0648535659
 10
12.9678982133
 20
7.9988222096
 10
12.9747386591
 20
7.9285934124
 10
12.9910334675
 20
7.8561816276
 10
13.0161178345
 20
7.7834466661
 10
13.0492062331
 20
7.7121879278
 10
13.089397008
 20
7.644164816
 10
13.135678084
 20
7.5810810562
 10
13.1869400756
 20
7.5245618106
 10
13.2419840815
 20
7.4761422269
  0
LWPOLYLINE
  5
518
100
AcDbEntity
  8
AXIS
100
AcDbPolyline
 62
7
  6
CONTINUOUS
 90
10
 70
0
 10
13.404925987
 20
7.3953379056
 10
13.5250488202
 20
7.37367627
 10
13.6540682004
 20
7.3586612525
 10
13.7970749888
 20
7.3513831159
 10
13.955452132
 20
7.354304262
 10
14.1321430052
 20
7.3708396388
 10
14.3316364802
 20
7.4062982047
 10
14.5478337912
 20
7.4653745442
 10
14.7650772256
 20
7.547746797
 10
14.9756047527
 20
7.6519027045
  0
LWPOLYLINE
  5
519
100
AcDbEntity
  8
0
100
AcDbPolyline
 62
7
  6
CONTINUOUS
 90
4
 70
0
 10
13.4097019756
 20
7.5368355706
 10
13.4602772272
 20
7.5112501665
 10
13.509800457
 20
7.4967710359
 10
13.5519686043
 20
7.4943633694
  0
LWPOLYLINE
  5
51A
100
AcDbEntity
  8
0
100
AcDbPolyline
 62
7
  6
CONTINUOUS
 90
8
 70
0
 10
12.9841129247
 20
8.1242118585
 10
12.9973497949
 20
8.1569825452
 10
13.0241248656
 20
8.1980312614
 10
13.0589781641
 20
8.2289285489
 10
13.1008136009
 20
8.2484231597
 10
13.1458410145
 20
8.2558093396
 10
13.1904825137
 20
8.2529341958
 10
13.2326380242
 20
8.2425786102
  0
LWPOLYLINE
  5
51B
100
AcDbEntity
  8
0
100
AcDbPolyline
 62
7
  6
CONTINUOUS
 90
3
 70
0
 10
13.462084038
 20
7.3901136435
 10
13.4174425483
 20
7.3929887929
 10
13.4049259756
 20
7.395337908
  0
LWPOLYLINE
  5
51C
100
AcDbEntity
  8
0
100
AcDbPolyline
 62
7
  6
CONTINUOUS
 90
11
 70
0
 10
13.5909717706
 20
7.6238039879
 10
13.5453201846
 20
7.6450576164
 10
13.498410413
 20
7.6771085879
 10
13.4528163274
 20
7.7184709103
 10
13.410097063
 20
7.7678022229
 10
13.3717165083
 20
7.8234961419
 10
13.3389948048
 20
7.883735482
 10
13.3130646088
 20
7.9465524624
 10
13.2948335653
 20
8.0098939017
 10
13.2849542362
 20
8.0716892422
 10
13.2838024805
 20
8.129919151
  0
LWPOLYLINE
  5
51D
100
AcDbEntity
  8
0
100
AcDbPolyline
 62
7
  6
CONTINUOUS
 90
11
 70
0
 10
13.5909717706
 20
7.6709903542
 10
13.5646466539
 20
7.6862797102
 10
13.5182341656
 20
7.723401718
 10
13.4739702422
 20
7.7691613788
 10
13.4333699487
 20
7.8220706424
 10
13.3978269696
 20
7.8804045828
 10
13.3685674337
 20
7.9422585475
 10
13.3466092913
 20
8.005611261
 10
13.332728588
 20
8.0683917923
 10
13.3274337533
 20
8.1285481676
 10
13.3280408273
 20
8.1381451428
  0
LWPOLYLINE
  5
51E
100
AcDbEntity
  8
0
100
AcDbPolyline
 62
7
  6
CONTINUOUS
 90
11
 70
0
 10
13.5899659184
 20
7.6788932619
 10
13.5709660465
 20
7.6899281915
 10
13.5245535581
 20
7.7270501992
 10
13.4802896347
 20
7.77280986
 10
13.4396893413
 20
7.8257191236
 10
13.4041463622
 20
7.884053064
 10
13.3748868263
 20
7.9459070287
 10
13.3529286839
 20
8.0092597422
 10
13.3390479805
 20
8.0720402735
 10
13.3337531459
 20
8.1321966488
 10
13.3338808032
 20
8.1342147298
  0
LWPOLYLINE
  5
51F
100
AcDbEntity
  8
0
100
AcDbPolyline
 62
7
  6
CONTINUOUS
 90
8
 70
0
 10
13.5800438464
 20
7.7434837152
 10
13.5449787927
 20
7.7757614049
 10
13.5024691677
 20
7.8255018305
 10
13.4643780015
 20
7.8815061591
 10
13.4320158478
 20
7.9419469213
 10
13.4065034505
 20
8.0048496628
 10
13.3887346124
 20
8.0681583607
 10
13.3852740453
 20
8.090881688
  0
LWPOLYLINE
  5
520
100
AcDbEntity
  8
0
100
AcDbPolyline
 62
7
  6
CONTINUOUS
 90
8
 70
0
 10
13.5769099425
 20
7.7558340388
 10
13.5512981853
 20
7.7794098861
 10
13.5087885603
 20
7.8291503117
 10
13.4706973941
 20
7.8851546403
 10
13.4383352403
 20
7.9455954025
 10
13.4128228431
 20
8.008498144
 10
13.395054005
 20
8.0718068419
 10
13.393364168
 20
8.0829029192
  0
LWPOLYLINE
  5
521
100
AcDbEntity
  8
0
100
AcDbPolyline
 62
7
  6
CONTINUOUS
 90
3
 70
0
 10
13.5296306176
 20
7.8878788996
 10
13.4969898679
 20
7.9421836373
 10
13.4843253679
 20
7.969381403
  0
LINE
  5
522
100
AcDbEntity
  8
0
100
AcDbLine
 62
7
  6
CONTINUOUS
 10
13.2774830879
 20
8.1262706698
 11
13.283353359
 21
8.1666927085
  0
LINE
  5
523
100
AcDbEntity
  8
0
100
AcDbLine
 62
7
  6
CONTINUOUS
 10
13.2838024805
 20
8.129919151
 11
13.2887644093
 21
8.1640864452
  0
LWPOLYLINE
  5
524
100
AcDbEntity
  8
0
100
AcDbPolyline
 62
7
  6
CONTINUOUS
 90
15
 70
0
 10
13.5857053067
 20
7.5806112935
 10
13.5590992215
 20
7.5834991021
 10
13.5132745747
 20
7.5994346606
 10
13.4663161962
 20
7.62612517
 10
13.419828422
 20
7.6627143657
 10
13.3753999962
 20
7.7080180267
 10
13.3345514341
 20
7.7605632106
 10
13.2986846454
 20
7.818637054
 10
13.2690364874
 20
7.8803435215
 10
13.2466377858
 20
7.9436662246
 10
13.2322791825
 20
8.0065352264
 10
13.2264849406
 20
8.066895622
 10
13.2294955746
 20
8.1227756198
 10
13.2412598823
 20
8.1723518695
 10
13.2469997217
 20
8.1842026454
  0
LWPOLYLINE
  5
525
100
AcDbEntity
  8
0
100
AcDbPolyline
 62
7
  6
CONTINUOUS
 90
15
 70
0
 10
13.5863772039
 20
7.5848727505
 10
13.565418614
 20
7.5871475833
 10
13.5195939672
 20
7.6030831418
 10
13.4726355888
 20
7.6297736512
 10
13.4261478145
 20
7.6663628469
 10
13.3817193887
 20
7.7116665079
 10
13.3408708266
 20
7.7642116919
 10
13.305004038
 20
7.8222855352
 10
13.27535588
 20
7.8839920027
 10
13.2529571783
 20
7.9473147058
 10
13.238598575
 20
8.0101837076
 10
13.2328043331
 20
8.0705441032
 10
13.2358149672
 20
8.126424101
 10
13.2475792749
 20
8.1760003507
 10
13.2506908968
 20
8.1824247699
  0
LWPOLYLINE
  5
526
100
AcDbEntity
  8
0
100
AcDbPolyline
 62
7
  6
CONTINUOUS
 90
12
 70
0
 10
13.5909717706
 20
7.6184280189
 10
13.5856235242
 20
7.6197033783
 10
13.539000792
 20
7.6414091352
 10
13.4920910204
 20
7.6734601067
 10
13.4464969349
 20
7.7148224291
 10
13.4037776704
 20
7.7641537417
 10
13.3653971157
 20
7.8198476607
 10
13.3326754122
 20
7.8800870008
 10
13.3067452162
 20
7.9429039812
 10
13.2885141727
 20
8.0062454204
 10
13.2786348437
 20
8.068040761
 10
13.2774830879
 20
8.1262706698
  0
LWPOLYLINE
  5
527
100
AcDbEntity
  8
AXIS
100
AcDbPolyline
 62
7
  6
CONTINUOUS
 90
10
 70
0
 10
13.9916503102
 20
9.3561719643
 10
13.8026296433
 20
9.2306753973
 10
13.6258930342
 20
9.0876389565
 10
13.4665690361
 20
8.9316787829
 10
13.3342583228
 20
8.7762629787
 10
13.2292537477
 20
8.6297583162
 10
13.1453287008
 20
8.491563046
 10
13.0782917756
 20
8.3612232256
 10
13.0252661938
 20
8.2386937815
 10
12.9841129252
 20
8.1242118599
  0
LINE
  5
528
100
AcDbEntity
  8
0
100
AcDbLine
 62
7
  6
CONTINUOUS
 10
13.9916503102
 20
9.3561719643
 11
14.0312522517
 21
9.3763621288
  0
LINE
  5
529
100
AcDbEntity
  8
0
100
AcDbLine
 62
7
  6
CONTINUOUS
 10
14.0312522517
 20
9.3763621288
 11
14.0733853662
 21
9.3911644197
  0
LWPOLYLINE
  5
52A
100
AcDbEntity
  8
0
100
AcDbPolyline
 62
7
  6
CONTINUOUS
 90
3
 70
0
 10
14.9913402309
 20
9.7280214189
 10
14.9247082695
 20
9.7088938237
 10
14.8942373104
 20
9.6937188399
  0
LWPOLYLINE
  5
52B
100
AcDbEntity
  8
0
100
AcDbPolyline
 62
7
  6
CONTINUOUS
 90
22
 70
0
 10
13.2913378518
 20
8.176048972
 10
13.3221501708
 20
8.1564992563
 10
13.3576357598
 20
8.1295476333
 10
13.3968373367
 20
8.0939257875
 10
13.4383583856
 20
8.0486771933
 10
13.4802511225
 20
7.9934622129
 10
13.5191917852
 20
7.9303911293
 10
13.55164471
 20
7.8641950827
 10
13.576581284
 20
7.797228295
 10
13.5936627723
 20
7.7305898767
 10
13.6023389038
 20
7.6662548813
 10
13.6023499035
 20
7.6061309128
 10
13.5936954891
 20
7.551797289
 10
13.5766345906
 20
7.504861709
 10
13.5517176325
 20
7.4666658698
 10
13.5192832494
 20
7.4379171965
 10
13.4803524561
 20
7.4197803395
 10
13.4384533308
 20
7.4129110733
 10
13.3969146957
 20
7.4155894473
 10
13.3576900704
 20
7.4252275068
 10
13.3221777911
 20
7.4392551191
 10
13.2913378518
 20
7.4552963798
  0
LWPOLYLINE
  5
52C
100
AcDbEntity
  8
0
100
AcDbPolyline
 62
7
  6
CONTINUOUS
 90
18
 70
0
 10
13.3039625394
 20
8.2102584241
 10
13.337089736
 20
8.1892392145
 10
13.3752273357
 20
8.1602714923
 10
13.4173578312
 20
8.1219857934
 10
13.4619801784
 20
8.0733545248
 10
13.507000594
 20
8.0140136998
 10
13.5488467982
 20
7.9462327289
 10
13.5837203617
 20
7.875095435
 10
13.6105168906
 20
7.8031303232
 10
13.6288724757
 20
7.7315182743
 10
13.6381958414
 20
7.6623816494
 10
13.6382078989
 20
7.5977700983
 10
13.6289083251
 20
7.5393805253
 10
13.6105752793
 20
7.4889404504
 10
13.5838002079
 20
7.4478917339
 10
13.5489469084
 20
7.4169944458
 10
13.507111454
 20
7.3974998247
 10
13.462084038
 20
7.3901136435
  0
LWPOLYLINE
  5
52D
100
AcDbEntity
  8
AXIS
100
AcDbPolyline
 62
7
  6
CONTINUOUS
 90
16
 70
0
 10
13.2913378518
 20
8.162846932
 10
13.3408249976
 20
8.129541157
 10
13.3889622631
 20
8.0876738681
 10
13.4344365891
 20
8.0383870958
 10
13.4760075546
 20
7.9830252546
 10
13.512541212
 20
7.9230984713
 10
13.5430410183
 20
7.8602413924
 10
13.5666750184
 20
7.796168595
 10
13.5827985384
 20
7.7326278182
 10
13.5909717706
 20
7.6713522886
 10
13.5909717706
 20
7.6140134429
 10
13.5827985384
 20
7.5621753354
 10
13.5666750184
 20
7.5172519746
 10
13.5430410183
 20
7.4804687525
 10
13.512541212
 20
7.4528290197
 10
13.5039482763
 20
7.4474531565
  0
LINE
  5
52E
100
AcDbEntity
  8
0
100
AcDbLine
 62
7
  6
CONTINUOUS
 10
14.9380737289
 20
9.7190369252
 11
14.894233291
 21
9.6937257877
  0
LWPOLYLINE
  5
52F
100
AcDbEntity
  8
AXIS
100
AcDbPolyline
 62
7
  6
CONTINUOUS
 90
6
 70
0
 10
13.2913378518
 20
8.162846932
 10
13.241850706
 20
8.1866826982
 10
13.1937134405
 20
8.2003982782
 10
13.1482391145
 20
8.2036195467
 10
13.106668149
 20
8.1962586358
 10
13.0787274273
 20
8.1838921952
  0
LWPOLYLINE
  5
530
100
AcDbEntity
  8
0
100
AcDbPolyline
 62
7
  6
CONTINUOUS
 90
7
 70
0
 10
14.8942373104
 20
9.6937188399
 10
14.8658531984
 20
9.674912861
 10
14.8159731369
 20
9.6267702851
 10
14.7760834993
 20
9.5654461402
 10
14.7469963237
 20
9.4921888089
 10
14.7293037409
 20
9.4084895993
 10
14.723365921
 20
9.3160523859
  0
LWPOLYLINE
  5
531
100
AcDbEntity
  8
0
100
AcDbPolyline
 62
7
  6
CONTINUOUS
 90
17
 70
0
 10
15.0042189466
 20
9.5031873126
 10
15.0400016443
 20
9.519459015
 10
15.0928307524
 20
9.5305492521
 10
15.1504380485
 20
9.5293244589
 10
15.2115366808
 20
9.5158119954
 10
15.2747618068
 20
9.4903137076
 10
15.3387010817
 20
9.4533991852
 10
15.4019262077
 20
9.4058930375
 10
15.46302484
 20
9.3488564734
 10
15.5206321361
 20
9.2835635956
 10
15.5734612442
 20
9.211472939
 10
15.6203320494
 20
9.1341948897
 10
15.6601975352
 20
9.0534557116
 10
15.6921671726
 20
8.9710589847
 10
15.7155268128
 20
8.8888453156
 10
15.72975464
 20
8.8086512218
 10
15.734532828
 20
8.7322681069
  0
LWPOLYLINE
  5
532
100
AcDbEntity
  8
0
100
AcDbPolyline
 62
7
  6
CONTINUOUS
 90
3
 70
0
 10
13.2326380242
 20
8.2425786102
 10
13.2708045831
 20
8.2275045716
 10
13.3039625394
 20
8.2102584241
  0
LWPOLYLINE
  5
533
100
AcDbEntity
  8
AXIS
100
AcDbPolyline
 62
7
  6
CONTINUOUS
 90
16
 70
0
 10
13.0787274273
 20
8.1838921952
 10
13.0701344916
 20
8.1785163321
 10
13.0396346852
 20
8.1508765992
 10
13.0160006851
 20
8.1140933772
 10
12.9998771651
 20
8.0691700163
 10
12.9917039329
 20
8.0173319089
 10
12.9917039329
 20
7.9599930632
 10
12.9998771651
 20
7.8987175336
 10
13.0160006851
 20
7.8351767567
 10
13.0396346852
 20
7.7711039594
 10
13.0701344916
 20
7.7082468805
 10
13.106668149
 20
7.6483200972
 10
13.1482391145
 20
7.592958256
 10
13.1937134405
 20
7.5436714836
 10
13.241850706
 20
7.5018041947
 10
13.2913378518
 20
7.4684984198
  0
LINE
  5
534
100
AcDbEntity
  8
0
100
AcDbLine
 62
7
  6
CONTINUOUS
 10
14.9971057912
 20
9.4869051014
 11
15.0284793236
 21
9.514219394
  0
LWPOLYLINE
  5
535
100
AcDbEntity
  8
0
100
AcDbPolyline
 62
7
  6
CONTINUOUS
 90
3
 70
0
 10
14.723365921
 20
9.3160523859
 10
14.7293037409
 20
9.2167589237
 10
14.7448457282
 20
9.1252877114
  0
LWPOLYLINE
  5
536
100
AcDbEntity
  8
0
100
AcDbPolyline
 62
7
  6
CONTINUOUS
 90
7
 70
0
 10
14.8789300605
 20
9.2262394199
 10
14.8837082485
 20
9.2971052833
 10
14.8979360757
 20
9.3608708691
 10
14.9212957159
 20
9.4161117593
 10
14.9532653533
 20
9.4615939638
 10
14.9931308392
 20
9.4963014853
 10
15.0042189466
 20
9.5031873126
  0
LWPOLYLINE
  5
537
100
AcDbEntity
  8
0
100
AcDbPolyline
 62
7
  6
CONTINUOUS
 90
9
 70
0
 10
15.1525380739
 20
8.4193949419
 10
15.2237098742
 20
8.360427135
 10
15.3067314443
 20
8.3056392692
 10
15.3897530144
 20
8.264564252
 10
15.4710845047
 20
8.2380382523
 10
15.5490702407
 20
8.2266012628
 10
15.6221226576
 20
8.2304861078
 10
15.688754619
 20
8.249613703
 10
15.7192255782
 20
8.2647886869
  0
LWPOLYLINE
  5
538
100
AcDbEntity
  8
0
100
AcDbPolyline
 62
7
  6
CONTINUOUS
 90
5
 70
0
 10
14.9227704984
 20
9.2515505574
 10
14.9275486864
 20
9.3224164209
 10
14.9417765136
 20
9.3861820067
 10
14.9651361538
 20
9.4414228969
 10
14.9971057912
 20
9.4869051014
  0
LWPOLYLINE
  5
539
100
AcDbEntity
  8
0
100
AcDbPolyline
 62
7
  6
CONTINUOUS
 90
17
 70
0
 10
15.6288240028
 20
8.4695992703
 10
15.6173016821
 20
8.4643596493
 10
15.564472574
 20
8.4532694122
 10
15.5068652779
 20
8.4544942054
 10
15.4457666456
 20
8.4680066689
 10
15.3825415196
 20
8.4935049567
 10
15.3186022447
 20
8.5304194791
 10
15.2553771187
 20
8.5779256268
 10
15.1942784864
 20
8.6349621908
 10
15.1366711903
 20
8.7002550687
 10
15.0838420822
 20
8.7723457253
 10
15.0369712771
 20
8.8496237746
 10
14.9971057912
 20
8.9303629526
 10
14.9651361538
 20
9.0127596796
 10
14.9417765136
 20
9.0949733487
 10
14.9275486864
 20
9.1751674425
 10
14.9227704984
 20
9.2515505574
  0
LWPOLYLINE
  5
53A
100
AcDbEntity
  8
0
100
AcDbPolyline
 62
7
  6
CONTINUOUS
 90
17
 70
0
 10
15.609243942
 20
8.4553202142
 10
15.5734612442
 20
8.4390485117
 10
15.5206321361
 20
8.4279582747
 10
15.46302484
 20
8.4291830678
 10
15.4019262077
 20
8.4426955313
 10
15.3387010817
 20
8.4681938191
 10
15.2747618068
 20
8.5051083416
 10
15.2115366808
 20
8.5526144892
 10
15.1504380485
 20
8.6096510533
 10
15.0928307524
 20
8.6749439311
 10
15.0400016443
 20
8.7470345878
 10
14.9931308392
 20
8.8243126371
 10
14.9532653533
 20
8.9050518151
 10
14.9212957159
 20
8.987448542
 10
14.8979360757
 20
9.0696622111
 10
14.8837082485
 20
9.1498563049
 10
14.8789300605
 20
9.2262394199
  0
LWPOLYLINE
  5
53B
100
AcDbEntity
  8
AXIS
100
AcDbPolyline
 62
7
  6
CONTINUOUS
 90
6
 70
0
 10
13.5039482763
 20
7.4474531565
 10
13.4760075546
 20
7.435086716
 10
13.4344365891
 20
7.4277258051
 10
13.3889622631
 20
7.4309470735
 10
13.3408249976
 20
7.4446626535
 10
13.2913378518
 20
7.4684984198
  0
LWPOLYLINE
  5
53C
100
AcDbEntity
  8
0
100
AcDbPolyline
 62
7
  6
CONTINUOUS
 90
17
 70
0
 10
13.5805523517
 20
7.5559170085
 10
13.5792305563
 20
7.5554377266
 10
13.5381383158
 20
7.5540940676
 10
13.4935503663
 20
7.5641194718
 10
13.4469925083
 20
7.5852098113
 10
13.4000558078
 20
7.6166943624
 10
13.3543438827
 20
7.6575580277
 10
13.3114197721
 20
7.7064749674
 10
13.2727541515
 20
7.7618525267
 10
13.2396766068
 20
7.8218840016
 10
13.2133315841
 20
7.8846084981
 10
13.1946404718
 20
7.9479758989
 10
13.1842710748
 20
8.0099147864
 10
13.1826154884
 20
8.0684010715
 10
13.1897771083
 20
8.1215250542
 10
13.2055672045
 20
8.1675546947
 10
13.2215077163
 20
8.192478954
  0
LWPOLYLINE
  5
53D
100
AcDbEntity
  8
0
100
AcDbPolyline
 62
7
  6
CONTINUOUS
 90
17
 70
0
 10
13.5799924103
 20
7.5543568996
 10
13.5729111637
 20
7.5517892454
 10
13.5318189232
 20
7.5504455864
 10
13.4872309737
 20
7.5604709906
 10
13.4406731157
 20
7.5815613301
 10
13.3937364153
 20
7.6130458812
 10
13.3480244901
 20
7.6539095464
 10
13.3051003795
 20
7.7028264862
 10
13.2664347589
 20
7.7582040455
 10
13.2333572143
 20
7.8182355204
 10
13.2070121915
 20
7.8809600169
 10
13.1883210793
 20
7.9443274177
 10
13.1779516822
 20
8.0062663052
 10
13.1762960958
 20
8.0647525903
 10
13.1834577157
 20
8.117876573
 10
13.1992478119
 20
8.1639062135
 10
13.218136133
 20
8.1934396072
  0
LWPOLYLINE
  5
53E
100
AcDbEntity
  8
0
100
AcDbPolyline
 62
7
  6
CONTINUOUS
 90
7
 70
0
 10
14.5080881084
 20
9.3121844109
 10
14.4126607827
 20
9.359728694
 10
14.3184268176
 20
9.391550731
 10
14.2273856159
 20
9.4069646001
 10
14.1415768956
 20
9.405846542
 10
14.0626550689
 20
9.3886769906
 10
13.9916503101
 20
9.3561719642
  0
LWPOLYLINE
  5
53F
100
AcDbEntity
  8
0
100
AcDbPolyline
 62
7
  6
CONTINUOUS
 90
32
 70
0
 10
14.4880495879
 20
9.3100276239
 10
14.5479810283
 20
9.2724410648
 10
14.6050096504
 20
9.2310698789
 10
14.6594891839
 20
9.186279025
 10
14.711767292
 20
9.1382045556
 10
14.7621814964
 20
9.0867769877
 10
14.8109713453
 20
9.0318245345
 10
14.8579108633
 20
8.9735803753
 10
14.9025862027
 20
8.9125452521
 10
14.9447303363
 20
8.8490943845
 10
14.9841173787
 20
8.7835732387
 10
15.0205075351
 20
8.7163806742
 10
15.0536774319
 20
8.647930914
 10
15.0834281037
 20
8.5786379672
 10
15.109581845
 20
8.5089194182
 10
15.1319824694
 20
8.4391954776
 10
15.1504970733
 20
8.3698833178
 10
15.1650157433
 20
8.3013961202
 10
15.1754512412
 20
8.2341447913
 10
15.1817402693
 20
8.168535214
 10
15.1838445586
 20
8.1049644124
 10
15.1817513719
 20
8.0438169696
 10
15.1754732639
 20
7.9854605238
 10
15.1650477217
 20
7.9302462593
 10
15.1505375626
 20
7.878508506
 10
15.1320305677
 20
7.8305604317
 10
15.1096390405
 20
7.7866922231
 10
15.0834969876
 20
7.7471662597
 10
15.0537584295
 20
7.7122176942
 10
15.0206001448
 20
7.6820582291
 10
14.9842219455
 20
7.6568731846
 10
14.9756047526
 20
7.6519027044
  0
LWPOLYLINE
  5
540
100
AcDbEntity
  8
0
100
AcDbPolyline
 62
7
  6
CONTINUOUS
 90
3
 70
0
 10
15.6601975352
 20
8.4969135629
 10
15.6203320494
 20
8.4622060415
 10
15.609243942
 20
8.4553202142
  0
LINE
  5
541
100
AcDbEntity
  8
0
100
AcDbLine
 62
7
  6
CONTINUOUS
 10
15.7630700354
 20
8.2900928766
 11
15.7192295975
 21
8.2647817391
  0
LWPOLYLINE
  5
542
100
AcDbEntity
  8
0
100
AcDbPolyline
 62
7
  6
CONTINUOUS
 90
9
 70
0
 10
14.0733853662
 20
9.3911644197
 10
14.118049186
 20
9.4006292042
 10
14.1649729482
 20
9.4046897119
 10
14.2137443922
 20
9.4033243304
 10
14.2641491923
 20
9.3965594756
 10
14.3164381215
 20
9.384284686
 10
14.3709514691
 20
9.3661731759
 10
14.4280390759
 20
9.3416801176
 10
14.4880495879
 20
9.3100276239
  0
LINE
  5
543
100
AcDbEntity
  8
0
100
AcDbLine
 62
7
  6
CONTINUOUS
 10
15.7192255782
 20
8.2647886869
 11
15.7476096901
 21
8.2835946658
  0
LWPOLYLINE
  5
544
100
AcDbEntity
  8
0
100
AcDbPolyline
 62
7
  6
CONTINUOUS
 90
7
 70
0
 10
15.7630660161
 20
8.2900998244
 10
15.791450128
 20
8.3089058033
 10
15.8413301895
 20
8.3570483791
 10
15.8812198271
 20
8.4183725241
 10
15.9103070028
 20
8.4916298554
 10
15.9279995855
 20
8.575329065
 10
15.9339374054
 20
8.6677662784
  0
LWPOLYLINE
  5
545
100
AcDbEntity
  8
0
100
AcDbPolyline
 62
7
  6
CONTINUOUS
 90
6
 70
0
 10
15.7476096901
 20
8.2835946658
 10
15.7974897516
 20
8.3317372416
 10
15.8373793892
 20
8.3930613865
 10
15.8664665649
 20
8.4663187178
 10
15.8841591476
 20
8.5500179275
 10
15.8900969675
 20
8.6424551409
  0
LWPOLYLINE
  5
546
100
AcDbEntity
  8
0
100
AcDbPolyline
 62
7
  6
CONTINUOUS
 90
18
 70
0
 10
14.9756047526
 20
7.6519027044
 10
15.0410797095
 20
7.698771583
 10
15.096726402
 20
7.7612199951
 10
15.1409774171
 20
7.8382214331
 10
15.172734812
 20
7.9286635776
 10
15.1910398384
 20
8.0304828333
 10
15.1955138005
 20
8.1414100592
 10
15.1862101434
 20
8.2590664056
 10
15.1635028552
 20
8.3810864774
 10
15.1279582883
 20
8.5052711502
 10
15.0803596142
 20
8.6292840647
 10
15.0216550713
 20
8.7508714318
 10
14.9529489501
 20
8.8678334331
 10
14.8755227351
 20
8.977999179
 10
14.7907462267
 20
9.0793668006
 10
14.7001827172
 20
9.1699705843
 10
14.6054228926
 20
9.2480868319
 10
14.5080881084
 20
9.3121844109
  0
LWPOLYLINE
  5
547
100
AcDbEntity
  8
0
100
AcDbPolyline
 62
7
  6
CONTINUOUS
 90
5
 70
0
 10
15.734532828
 20
8.7322681069
 10
15.72975464
 20
8.6614022434
 10
15.7155268128
 20
8.5976366576
 10
15.6921671726
 20
8.5423957674
 10
15.6601975352
 20
8.4969135629
  0
LWPOLYLINE
  5
548
100
AcDbEntity
  8
0
100
AcDbPolyline
 62
7
  6
CONTINUOUS
 90
16
 70
0
 10
15.8900969675
 20
8.6424551409
 10
15.8841591476
 20
8.741748603
 10
15.8664665649
 20
8.8458769853
 10
15.8373793892
 20
8.9527205342
 10
15.7974897516
 20
9.0601042231
 10
15.7476096901
 20
9.1658420298
 10
15.688754619
 20
9.2677814375
 10
15.6221226576
 20
9.3638472538
 10
15.5490702407
 20
9.4520838556
 10
15.4710845047
 20
9.5306950004
 10
15.3897530144
 20
9.5980803917
 10
15.3067314443
 20
9.6528682575
 10
15.2237098742
 20
9.6939432747
 10
15.1423783838
 20
9.7204692745
 10
15.0643926478
 20
9.7319062639
 10
14.9913402309
 20
9.7280214189
  0
LWPOLYLINE
  5
549
100
AcDbEntity
  8
0
100
AcDbPolyline
 62
7
  6
CONTINUOUS
 90
18
 70
0
 10
15.9339374054
 20
8.6677662784
 10
15.9279995855
 20
8.7670597406
 10
15.9103070028
 20
8.8711881229
 10
15.8812198271
 20
8.9780316718
 10
15.8413301895
 20
9.0854153607
 10
15.791450128
 20
9.1911531674
 10
15.7325950569
 20
9.293092575
 10
15.6659630955
 20
9.3891583913
 10
15.5929106786
 20
9.4773949932
 10
15.5149249426
 20
9.5560061379
 10
15.4335934523
 20
9.6233915293
 10
15.3505718822
 20
9.678179395
 10
15.2675503121
 20
9.7192544123
 10
15.1862188217
 20
9.745780412
 10
15.1082330857
 20
9.7572174014
 10
15.0351806688
 20
9.7533325564
 10
14.9685487075
 20
9.7342049612
 10
14.9380777483
 20
9.7190299774
  0
CIRCLE
  5
54A
100
AcDbEntity
  8
0
100
AcDbCircle
 62
7
  6
CONTINUOUS
 10
10.5342808475
 20
1.243294839
 40
0.252091
  0
CIRCLE
  5
54B
100
AcDbEntity
  8
0
100
AcDbCircle
 62
7
  6
CONTINUOUS
 10
10.5342808475
 20
1.243294839
 40
0.182698
  0
CIRCLE
  5
54C
100
AcDbEntity
  8
0
100
AcDbCircle
 62
7
  6
CONTINUOUS
 10
10.1225539079
 20
1.9935547577
 40
0.0638444824
  0
ARC
  5
54D
100
AcDbEntity
  8
0
100
AcDbCircle
 62
7
  6
CONTINUOUS
 10
6.8514420622
 20
5.6331763024
 40
0.0393700787
100
AcDbArc
 50
180.0
 51
236.8723340579
  0
ARC
  5
54E
100
AcDbEntity
  8
0
100
AcDbCircle
 62
7
  6
CONTINUOUS
 10
6.8514420622
 20
6.5159080336
 40
0.0393700787
100
AcDbArc
 50
123.1276659421
 51
180.0
  0
ARC
  5
54F
100
AcDbEntity
  8
0
100
AcDbCircle
 62
7
  6
CONTINUOUS
 10
8.544355448
 20
3.9217231218
 40
3.1370710147
100
AcDbArc
 50
90.7282175169
 51
123.1276659422
  0
ARC
  5
550
100
AcDbEntity
  8
0
100
AcDbCircle
 62
7
  6
CONTINUOUS
 10
8.5049853693
 20
5.1299104744
 40
0.0393700787
100
AcDbArc
 50
269.2717824831
 51
359.9999999999
  0
ARC
  5
551
100
AcDbEntity
  8
0
100
AcDbCircle
 62
7
  6
CONTINUOUS
 10
8.544355448
 20
8.2273612142
 40
3.1370710147
100
AcDbArc
 50
236.8723340578
 51
269.2717824831
  0
ARC
  5
552
100
AcDbEntity
  8
0
100
AcDbCircle
 62
7
  6
CONTINUOUS
 10
8.5049853693
 20
7.0191738616
 40
0.0393700787
100
AcDbArc
 50
0.0000000001
 51
90.7282175169
  0
CIRCLE
  5
553
100
AcDbEntity
  8
0
100
AcDbCircle
 62
7
  6
CONTINUOUS
 10
11.7017559342
 20
6.074542168
 40
0.9840017724
  0
CIRCLE
  5
554
100
AcDbEntity
  8
0
100
AcDbCircle
 62
7
  6
CONTINUOUS
 10
11.7017559342
 20
6.074542168
 40
0.9446316921
  0
CIRCLE
  5
555
100
AcDbEntity
  8
0
100
AcDbCircle
 62
7
  6
CONTINUOUS
 10
11.7017559342
 20
6.074542168
 40
0.905511811
  0
CIRCLE
  5
556
100
AcDbEntity
  8
0
100
AcDbCircle
 62
7
  6
CONTINUOUS
 10
11.7017559342
 20
6.074542168
 40
0.825
  0
CIRCLE
  5
557
100
AcDbEntity
  8
0
100
AcDbCircle
 62
7
  6
CONTINUOUS
 10
11.7017559342
 20
6.074542168
 40
0.605
  0
CIRCLE
  5
558
100
AcDbEntity
  8
0
100
AcDbCircle
 62
7
  6
CONTINUOUS
 10
11.7017559342
 20
6.074542168
 40
0.6003937008
  0
CIRCLE
  5
559
100
AcDbEntity
  8
0
100
AcDbCircle
 62
7
  6
CONTINUOUS
 10
11.7017559342
 20
6.074542168
 40
0.4251968504
  0
CIRCLE
  5
55A
100
AcDbEntity
  8
0
100
AcDbCircle
 62
7
  6
CONTINUOUS
 10
3.6755294204
 20
6.074542168
 40
0.9840017724
  0
CIRCLE
  5
55B
100
AcDbEntity
  8
0
100
AcDbCircle
 62
7
  6
CONTINUOUS
 10
3.6755294204
 20
6.074542168
 40
0.9839985925
  0
CIRCLE
  5
55C
100
AcDbEntity
  8
0
100
AcDbCircle
 62
7
  6
CONTINUOUS
 10
3.6755294204
 20
6.074542168
 40
0.4743365277
  0
CIRCLE
  5
55D
100
AcDbEntity
  8
0
100
AcDbCircle
 62
7
  6
CONTINUOUS
 10
3.6755294204
 20
6.074542168
 40
0.4413658533
  0
CIRCLE
  5
55E
100
AcDbEntity
  8
AXIS
100
AcDbCircle
 62
7
  6
CONTINUOUS
 10
3.6755294204
 20
6.074542168
 40
0.4251968504
  0
ENDSEC
  0
SECTION
  2
OBJECTS
  0
DICTIONARY
  5
C
100
AcDbDictionary
280
0
281
1
  3
ACAD_GROUP
350
D
  3
ACAD_MLINESTYLE
350
17
  3
ACAD_LAYOUT
350
1A
  3
ACAD_PLOTSETTINGS
350
19
  3
ACAD_PLOTSTYLENAME
350
E
  3
ACAD_TABLESTYLE
350
       55F
  0
DICTIONARY
  5
D
102
{ACAD_REACTORS
330
C
102
}
100
AcDbDictionary
280
0
281
1
  0
ACDBDICTIONARYWDFLT
  5
E
102
{ACAD_REACTORS
330
C
102
}
100
AcDbDictionary
281
1
  3
Normal
350
F
100
AcDbDictionaryWithDefault
340
F
  0
DICTIONARY
  5
17
102
{ACAD_REACTORS
330
C
102
}
100
AcDbDictionary
280
0
281
1
  3
Standard
350
18
  0
DICTIONARY
  5
55F
330
C
100
AcDbDictionary
281
1
  3
Standard
350
       562
  3
Standard1
350
       563
  0
DICTIONARY
  5
19
102
{ACAD_REACTORS
330
C
102
}
100
AcDbDictionary
281
1
  0
DICTIONARY
  5
1A
102
{ACAD_REACTORS
330
C
102
}
100
AcDbDictionary
281
1
  3
Model
350
560
  3
Layout1
350
561
  0
ACDBPLACEHOLDER
  5
F
102
{ACAD_REACTORS
330
E
102
}
  0
MLINESTYLE
  5
18
102
{ACAD_REACTORS
330
17
102
}
100
AcDbMlineStyle
  2
STANDARD
 70
0
  3

 62
256
 51
90.0
 52
90.0
 71
2
 49
0.5
 62
256
  6
BYLAYER
 49
-0.5
 62
256
  6
BYLAYER
  0
LAYOUT
  5
560
102
{ACAD_REACTORS
330
1A
102
}
100
AcDbPlotSettings
  1

  2
none_device
  4
ANSI_B_(17.00_x_11.00_Inches)
  6

 40
0.0
 41
0.0
 42
0.0
 43
0.0
 44
431.8
 45
279.4
 46
0.0
 47
0.0
 48
0.0
 49
0.0
140
0.0
141
0.0
142
1.0
143
1.0
 70
1024
 72
0
 73
0
 74
0
  7

 75
0
147
1.0
148
0.0
149
0.0
100
AcDbLayout
  1
Model
 70
0
 71
0
 10
0.0
 20
0.0
 11
17.0
 21
11.0
 12
0.0
 22
0.0
 32
0.0
 14
0.0
 24
0.0
 34
0.0
 15
0.0
 25
0.0
 35
0.0
146
0.0
 13
0.0
 23
0.0
 33
0.0
 16
1.0
 26
0.0
 36
0.0
 17
0.0
 27
1.0
 37
0.0
 76
0
330
20B
345
0
346
0
  0
LAYOUT
  5
561
102
{ACAD_REACTORS
330
1A
102
}
100
AcDbPlotSettings
  1

  2
none_device
  4
ANSI_B_(17.00_x_11.00_Inches)
  6

 40
0.0
 41
0.0
 42
0.0
 43
0.0
 44
431.8
 45
279.4
 46
0.0
 47
0.0
 48
0.0
 49
0.0
140
0.0
141
0.0
142
1.0
143
1.0
 70
0
 72
0
 73
0
 74
0
  7

 75
0
147
1.0
148
0.0
149
0.0
100
AcDbLayout
  1
Layout1
 70
0
 71
1
 10
0.0
 20
0.0
 11
17.0
 21
11.0
 12
0.0
 22
0.0
 32
0.0
 14
0.0
 24
0.0
 34
0.0
 15
0.0
 25
0.0
 35
0.0
146
0.0
 13
0.0
 23
0.0
 33
0.0
 16
1.0
 26
0.0
 36
0.0
 17
0.0
 27
1.0
 37
0.0
 76
0
330
20C
345
0
346
0
  0
TABLESTYLE
  5
562
102
{ACAD_REACTORS
330
55F
102
}
330
55F
100
AcDbTableStyle
  3
Standard
 70
0
 71
0
 40
0.06
 41
0.06
280
1
281
1
  7
Standard
140
0.18
170
1
 62
0
 63
7
283
0
  7
Standard
140
0.18
170
1
 62
0
 63
7
283
0
  7
Standard
140
0.18
170
1
 62
0
 63
7
283
0
  0
TABLESTYLE
  5
563
102
{ACAD_REACTORS
330
55F
330
26A
102
}
330
55F
100
AcDbTableStyle
  3
Standard1
 70
1
 71
0
 40
0.06
 41
0.06
280
1
281
1
  7
Standard
140
0.18
170
1
 62
0
 63
7
283
0
  7
Standard
140
0.18
170
1
 62
0
 63
7
283
0
  7
Standard
140
0.18
170
1
 62
0
 63
7
283
0
  0
ENDSEC
  0
EOF
