999
DXF file: 199778_1.dxf
999
Pro/ENGINEER 2016260 by Parametric Technology Corporation
  0
SECTION
  2
HEADER
  9
$ACADVER
  1
AC1027
  9
$DWGCODEPAGE
  3
ANSI_1252
  9
$EXTMAX
 10
17.0
 20
11.0
 30
0.0
  9
$EXTMIN
 10
0.0
 20
0.0
 30
0.0
  9
$LIMMIN
 10
0.0
 20
0.0
  9
$LIMMAX
 10
17.0
 20
11.0
  9
$VIEWCTR
 10
8.5
 20
5.5
  9
$VIEWSIZE
 40
11.0
  9
$CLAYER
  8
0
  9
$LTSCALE
 40
0.935
  9
$CELTYPE
  6
BYLAYER
  9
$DIMSCALE
 40
1.0
  9
$DIMASZ
 40
0.1875
  9
$DIMEXO
 40
0.0625
  9
$DIMDLI
 40
0.646
  9
$DIMEXE
 40
0.125
  9
$DIMCEN
 40
0.153
  9
$DIMLFAC
 40
1.0
  9
$DIMBLK
  1
_FILLED
  9
$DIMALT
 70
1
  9
$DIMALTD
 70
2
  9
$DIMALTTD
 70
2
  9
$DIMALTF
 40
1.0
  9
$DIMTXT
 40
0.1
  9
$DIMTOL
 70
1
  9
$DIMLIM
 70
0
  9
$DIMTFAC
 40
1.0
  9
$DIMTP
 40
0.001
  9
$DIMTM
 40
0.001
  9
$DIMGAP
 40
0.09
  9
$DIMDSEP
 70
46
  9
$AUNITS
 70
0
  9
$PDMODE
 70
3
  9
$PDSIZE
 40
0.3125
  9
$HANDSEED
  5
493
  9
$TILEMODE
 70
1
  9
$MEASUREMENT
 70
0
  9
$INSUNITS
 70
1
  0
ENDSEC
  0
SECTION
  2
CLASSES
  0
CLASS
  1
ACDBDICTIONARYWDFLT
  2
AcDbDictionaryWithDefault
  3
AutoCAD 2000
 90
0
 91
1
280
0
281
0
  0
CLASS
  1
ACDBPLACEHOLDER
  2
AcDbPlaceHolder
  3
AutoCAD 2000
 90
0
 91
1
280
0
281
0
  0
CLASS
  1
LAYOUT
  2
AcDbLayout
  3
AutoCAD 2000
 90
0
 91
0
280
0
281
0
  0
CLASS
  1
TABLESTYLE
  2
AcDbTableStyle
  3
ObjectDBX Classes
 90
2047
 91
1
280
0
281
0
  0
CLASS
  1
ACAD_TABLE
  2
AcDbTable
  3
ObjectDBX Classes
 90
1025
 91
1
280
0
281
1
  0
ENDSEC
  0
SECTION
  2
TABLES
  0
TABLE
  2
VPORT
  5
8
100
AcDbSymbolTable
 70
2
  0
VPORT
  5
1F4
100
AcDbSymbolTableRecord
100
AcDbViewportTableRecord
  2
*ACTIVE
 70
0
 10
0.0
 20
0.0
 11
1.0
 21
1.0
 12
8.5
 22
5.5
 13
0.0
 23
0.0
 14
1.0
 24
1.0
 15
0.0
 25
0.0
 16
0.0
 26
0.0
 36
1.0
 17
0.0
 27
0.0
 37
0.0
 40
11.0
 41
1.5454545455
 42
50.0
 43
0.0
 44
0.0
 50
0.0
 51
0.0
 71
0
 72
100
 73
1
 74
1
 75
0
 76
0
 77
0
 78
0
  0
ENDTAB
  0
TABLE
  2
LTYPE
  5
5
100
AcDbSymbolTable
 70
6
  0
LTYPE
  5
14
100
AcDbSymbolTableRecord
100
AcDbLinetypeTableRecord
  2
BYBLOCK
 70
0
  3

 72
65
 73
0
 40
0.0
  0
LTYPE
  5
15
100
AcDbSymbolTableRecord
100
AcDbLinetypeTableRecord
  2
BYLAYER
 70
0
  3

 72
65
 73
0
 40
0.0
  0
LTYPE
  5
16
100
AcDbSymbolTableRecord
100
AcDbLinetypeTableRecord
  2
CONTINUOUS
 70
64
  3
Solid line
 72
65
 73
0
 40
0.0
  0
LTYPE
  5
1F5
100
AcDbSymbolTableRecord
100
AcDbLinetypeTableRecord
  2
CENTER
 70
64
  3
____ _ ____ _ ____ _ ____ _ ____ _ ____ _ ____
 72
65
 73
4
 40
0.6
 49
0.375
 74
0
 49
-0.075
 74
0
 49
0.075
 74
0
 49
-0.075
 74
0
  0
LTYPE
  5
1F6
100
AcDbSymbolTableRecord
100
AcDbLinetypeTableRecord
  2
HIDDEN
 70
64
  3
- - - - - - - - - - - - - - - - - - - -
 72
65
 73
2
 40
0.2
 49
0.1
 74
0
 49
-0.1
 74
0
  0
LTYPE
  5
1F7
100
AcDbSymbolTableRecord
100
AcDbLinetypeTableRecord
  2
PHANTOM
 70
64
  3
_____ _ _ _____ _ _ _____ _ _ _____
 72
65
 73
6
 40
0.8
 49
0.45
 74
0
 49
-0.05
 74
0
 49
0.1
 74
0
 49
-0.05
 74
0
 49
0.1
 74
0
 49
-0.05
 74
0
  0
LTYPE
  5
1F8
100
AcDbSymbolTableRecord
100
AcDbLinetypeTableRecord
  2
DOT
 70
64
  3
. . . . . . . . . . . . . . . . . . . .
 72
65
 73
2
 40
0.2
 49
0.1
 74
0
 49
-0.1
 74
0
  0
LTYPE
  5
1F9
100
AcDbSymbolTableRecord
100
AcDbLinetypeTableRecord
  2
DASHED
 70
64
  3
- - - - - - - - - - - - - - - - - - - -
 72
65
 73
2
 40
0.2
 49
0.1
 74
0
 49
-0.1
 74
0
  0
ENDTAB
  0
TABLE
  2
LAYER
  5
2
100
AcDbSymbolTable
 70
36
  0
LAYER
  5
10
100
AcDbSymbolTableRecord
100
AcDbLayerTableRecord
  2
0
 70
0
 62
7
  6
CONTINUOUS
370
-3
390
F
  0
LAYER
  5
1FA
100
AcDbSymbolTableRecord
100
AcDbLayerTableRecord
  2
DEFAULT_1
 70
0
 62
7
  6
CENTER
370
-3
390
F
  0
LAYER
  5
1FB
100
AcDbSymbolTableRecord
100
AcDbLayerTableRecord
  2
DEFAULT_2
 70
0
 62
7
  6
HIDDEN
370
-3
390
F
  0
LAYER
  5
1FC
100
AcDbSymbolTableRecord
100
AcDbLayerTableRecord
  2
DEFAULT_3
 70
0
 62
7
  6
PHANTOM
370
-3
390
F
  0
LAYER
  5
1FD
100
AcDbSymbolTableRecord
100
AcDbLayerTableRecord
  2
01___PRT_ALL_DTM_PLN
 70
0
 62
7
  6
CONTINUOUS
370
-3
390
F
  0
LAYER
  5
1FE
100
AcDbSymbolTableRecord
100
AcDbLayerTableRecord
  2
01___PRT_DEF_DTM_PLN
 70
0
 62
7
  6
CONTINUOUS
370
-3
390
F
  0
LAYER
  5
1FF
100
AcDbSymbolTableRecord
100
AcDbLayerTableRecord
  2
02___PRT_ALL_AXES
 70
0
 62
7
  6
CONTINUOUS
370
-3
390
F
  0
LAYER
  5
200
100
AcDbSymbolTableRecord
100
AcDbLayerTableRecord
  2
03___PRT_ALL_CURVES
 70
0
 62
7
  6
CONTINUOUS
370
-3
390
F
  0
LAYER
  5
201
100
AcDbSymbolTableRecord
100
AcDbLayerTableRecord
  2
04___PRT_ALL_DTM_PNT
 70
0
 62
7
  6
CONTINUOUS
370
-3
390
F
  0
LAYER
  5
202
100
AcDbSymbolTableRecord
100
AcDbLayerTableRecord
  2
05___PRT_ALL_DTM_CSYS
 70
0
 62
7
  6
CONTINUOUS
370
-3
390
F
  0
LAYER
  5
203
100
AcDbSymbolTableRecord
100
AcDbLayerTableRecord
  2
05___PRT_DEF_DTM_CSYS
 70
0
 62
7
  6
CONTINUOUS
370
-3
390
F
  0
LAYER
  5
204
100
AcDbSymbolTableRecord
100
AcDbLayerTableRecord
  2
06___PRT_ALL_SURFS
 70
0
 62
7
  6
CONTINUOUS
370
-3
390
F
  0
LAYER
  5
205
100
AcDbSymbolTableRecord
100
AcDbLayerTableRecord
  2
AXIS
 70
0
 62
7
  6
CONTINUOUS
370
-3
390
F
  0
LAYER
  5
206
100
AcDbSymbolTableRecord
100
AcDbLayerTableRecord
  2
AXIS_COSMETIC_THREADS
 70
0
 62
7
  6
CONTINUOUS
370
-3
390
F
  0
LAYER
  5
207
100
AcDbSymbolTableRecord
100
AcDbLayerTableRecord
  2
DATUM_CURVES
 70
0
 62
7
  6
CONTINUOUS
370
-3
390
F
  0
LAYER
  5
208
100
AcDbSymbolTableRecord
100
AcDbLayerTableRecord
  2
DATUM_PLANES
 70
0
 62
7
  6
CONTINUOUS
370
-3
390
F
  0
LAYER
  5
209
100
AcDbSymbolTableRecord
100
AcDbLayerTableRecord
  2
DRIVEN_DIMS
 70
0
 62
7
  6
CONTINUOUS
370
-3
390
F
  0
LAYER
  5
20A
100
AcDbSymbolTableRecord
100
AcDbLayerTableRecord
  2
NOTES
 70
0
 62
7
  6
CONTINUOUS
370
-3
390
F
  0
LAYER
  5
20B
100
AcDbSymbolTableRecord
100
AcDbLayerTableRecord
  2
SCHEME_DIMS
 70
0
 62
7
  6
CONTINUOUS
370
-3
390
F
  0
ENDTAB
  0
TABLE
  2
STYLE
  5
3
100
AcDbSymbolTable
 70
1
  0
STYLE
  5
11
100
AcDbSymbolTableRecord
100
AcDbTextStyleTableRecord
  2
STANDARD
 70
0
 40
0.0
 41
1.0
 50
0.0
 71
0
 42
0.2
  3
txt
  4

  0
STYLE
  5
20C
100
AcDbSymbolTableRecord
100
AcDbTextStyleTableRecord
  2
TEXTSTYLE_1
 70
0
 40
0.0
 41
0.8
 50
0.0
 71
0
 42
0.2
  3
gdt
  4

  0
STYLE
  5
20D
100
AcDbSymbolTableRecord
100
AcDbTextStyleTableRecord
  2
TEXTSTYLE_2
 70
0
 40
0.0
 41
0.8
 50
0.0
 71
0
 42
0.2
  3
txt
  4

  0
STYLE
  5
20E
100
AcDbSymbolTableRecord
100
AcDbTextStyleTableRecord
  2
TEXTSTYLE_3
 70
0
 40
0.0
 41
0.85
 50
0.0
 71
0
 42
0.2
  3
txt
  4

  0
STYLE
  5
20F
100
AcDbSymbolTableRecord
100
AcDbTextStyleTableRecord
  2
TEXTSTYLE_4
 70
0
 40
0.0
 41
0.9
 50
0.0
 71
0
 42
0.2
  3
txt
  4

  0
STYLE
  5
210
100
AcDbSymbolTableRecord
100
AcDbTextStyleTableRecord
  2
TEXTSTYLE_5
 70
0
 40
0.0
 41
0.75
 50
0.0
 71
0
 42
0.2
  3
txt
  4

  0
STYLE
  5
211
100
AcDbSymbolTableRecord
100
AcDbTextStyleTableRecord
  2
TEXTSTYLE_6
 70
0
 40
0.0
 41
1.0
 50
0.0
 71
0
 42
0.2
  3
gdt
  4

  0
ENDTAB
  0
TABLE
  2
VIEW
  5
6
100
AcDbSymbolTable
 70
0
  0
ENDTAB
  0
TABLE
  2
UCS
  5
7
100
AcDbSymbolTable
 70
0
  0
ENDTAB
  0
TABLE
  2
APPID
  5
9
100
AcDbSymbolTable
 70
1
  0
APPID
  5
212
100
AcDbSymbolTableRecord
100
AcDbRegAppTableRecord
  2
ACAD
 70
0
  0
ENDTAB
  0
TABLE
  2
BLOCK_RECORD
  5
1
100
AcDbSymbolTable
 70
0
  0
BLOCK_RECORD
  5
213
100
AcDbSymbolTableRecord
100
AcDbBlockTableRecord
  2
*Model_Space
  0
BLOCK_RECORD
  5
214
100
AcDbSymbolTableRecord
100
AcDbBlockTableRecord
  2
*Paper_Space
  0
BLOCK_RECORD
  5
215
100
AcDbSymbolTableRecord
100
AcDbBlockTableRecord
  2
_FILLED
  0
BLOCK_RECORD
  5
216
100
AcDbSymbolTableRecord
100
AcDbBlockTableRecord
  2
*D0
  0
BLOCK_RECORD
  5
217
100
AcDbSymbolTableRecord
100
AcDbBlockTableRecord
  2
*D1
  0
BLOCK_RECORD
  5
218
100
AcDbSymbolTableRecord
100
AcDbBlockTableRecord
  2
*T1
  0
ENDTAB
  0
TABLE
  2
DIMSTYLE
  5
A
100
AcDbSymbolTable
 70
1
100
AcDbDimStyleTable
 71
0
  0
DIMSTYLE
105
219
100
AcDbSymbolTableRecord
100
AcDbDimStyleTableRecord
  2
STANDARD
 70
0
  3

  4

 40
1.0
 41
0.1875
 42
0.0625
 43
0.38
 44
0.125
 45
0.0
 46
0.0
 47
0.001
 48
0.001
140
0.1
141
0.09
142
0.0
143
1.0
144
1.0
145
0.0
146
1.0
147
0.09
 71
1.0
 72
0.0
 73
1
 74
1
 75
0
 76
0
 77
0
 78
4
170
1
171
2
172
0
173
0
174
0
175
0
176
0
177
0
178
0
270
2
271
3
272
3
273
2
274
2
275
0
280
0
281
0
282
0
283
1
284
4
285
0
286
0
287
3
288
0
340
11
278
46
341
215
342
215
343
215
344
215
  0
DIMSTYLE
105
21A
100
AcDbSymbolTableRecord
100
AcDbDimStyleTableRecord
  2
DIMSTYLE_1
 70
0
  3
<>
  4

 40
1.0
 41
0.1875
 42
0.0625
 43
0.38
 44
0.125
 45
0.0
 46
0.0
 47
0.001
 48
0.001
140
0.1
141
0.09
142
0.0
143
1.0
144
1.0
145
0.0
146
1.0
147
0.09
 71
0.0
 72
0.0
 73
1
 74
1
 75
0
 76
0
 77
0
 78
4
170
1
171
2
172
0
173
0
174
0
175
0
176
0
177
0
178
0
270
2
271
1
272
1
273
2
274
2
275
0
280
0
281
0
282
0
283
1
284
4
285
0
286
0
287
3
288
1
340
11
278
46
289
2
341
215
342
215
343
215
344
215
  0
DIMSTYLE
105
21B
100
AcDbSymbolTableRecord
100
AcDbDimStyleTableRecord
  2
DIMSTYLE_2
 70
0
  3

  4

 40
1.0
 41
0.1875
 42
0.0625
 43
0.38
 44
0.125
 45
0.0
 46
0.0
 47
0.001
 48
0.001
140
0.1
141
0.09
142
0.0
143
1.0
144
1.0
145
0.0
146
1.0
147
0.1
 71
0.0
 72
0.0
 73
1
 74
1
 75
0
 76
0
 77
0
 78
4
170
1
171
2
172
0
173
0
174
0
175
0
176
0
177
0
178
0
270
2
271
1
272
1
273
2
274
2
275
0
280
0
281
0
282
0
283
1
284
4
285
0
286
0
287
3
288
0
340
11
278
46
341
215
342
215
343
215
344
215
  0
ENDTAB
  0
ENDSEC
  0
SECTION
  2
BLOCKS
  0
BLOCK
  5
20
100
AcDbEntity
  8
0
100
AcDbBlockBegin
  2
*Model_Space
 70
0
 10
0.0
 20
0.0
 30
0.0
  3
*Model_Space
  1

  0
ENDBLK
  5
21
100
AcDbEntity
  8
0
100
AcDbBlockEnd
  0
BLOCK
  5
1C
100
AcDbEntity
  8
0
100
AcDbBlockBegin
  2
*Paper_Space
 70
0
 10
0.0
 20
0.0
 30
0.0
  3
*Paper_Space
  1

  0
ENDBLK
  5
1D
100
AcDbEntity
  8
0
100
AcDbBlockEnd
  0
BLOCK
  5
21C
100
AcDbEntity
  8
0
100
AcDbBlockBegin
  2
_FILLED
 70
64
 10
0.0
 20
0.0
  3
_FILLED
  1

  0
SOLID
  5
21D
100
AcDbEntity
  8
0
  6
BYBLOCK
 62
0
100
AcDbTrace
 10
0.0
 20
0.0
 11
-1.0
 21
0.1666666667
 12
-1.0
 22
-0.1666666667
 13
-1.0
 23
-0.1666666667
  0
ENDBLK
  5
21E
100
AcDbEntity
  8
0
  6
BYBLOCK
 62
0
100
AcDbBlockEnd
  0
BLOCK
  5
21F
100
AcDbEntity
  8
DRIVEN_DIMS
100
AcDbBlockBegin
 62
7
  6
CONTINUOUS
  2
*D0
 70
65
 10
0.0
 20
0.0
  3
*D0
  1

  0
MTEXT
  5
220
100
AcDbEntity
  8
DRIVEN_DIMS
100
AcDbMText
 62
7
  6
CONTINUOUS
  7
TEXTSTYLE_6
 71
3
 72
1
 10
3.3567421234
 20
7.3063924757
 30
0.0
 11
1.0
 21
0.0
 31
0.0
 44
0.9
  1
{\Fgdt;n}\Ftxt;50.0\P[1.97]
 40
0.1
 41
0.6
  0
LINE
  5
221
100
AcDbEntity
  8
DRIVEN_DIMS
100
AcDbLine
 62
7
  6
CONTINUOUS
 10
4.0366180384
 20
6.4379575625
 11
3.8067421234
 21
7.2563924757
  0
LINE
  5
222
100
AcDbEntity
  8
DRIVEN_DIMS
100
AcDbLine
 62
7
  6
CONTINUOUS
 10
3.8067421234
 20
7.2563924757
 11
3.6567421234
 21
7.2563924757
  0
INSERT
  5
223
100
AcDbEntity
  8
DRIVEN_DIMS
100
AcDbBlockReference
 62
7
  6
CONTINUOUS
  2
_FILLED
 10
4.0366180384
 20
6.4379575625
 41
0.1875
 42
0.1875
 43
0.1875
 50
285.6885957426
  0
ENDBLK
  5
224
100
AcDbEntity
  8
0
  6
BYBLOCK
 62
0
100
AcDbBlockEnd
  0
BLOCK
  5
225
100
AcDbEntity
  8
DRIVEN_DIMS
100
AcDbBlockBegin
 62
7
  6
CONTINUOUS
  2
*D1
 70
65
 10
0.0
 20
0.0
  3
*D1
  1

  0
MTEXT
  5
226
100
AcDbEntity
  8
DRIVEN_DIMS
100
AcDbMText
 62
7
  6
CONTINUOUS
  7
STANDARD
 71
2
 72
1
 10
8.2885242166
 20
7.25898458
 30
0.0
 11
1.0
 21
0.0
 31
0.0
 44
0.9
  1
82.1\P[3.23]
 40
0.1
 41
0.6
  0
LINE
  5
227
100
AcDbEntity
  8
DRIVEN_DIMS
100
AcDbLine
 62
7
  6
CONTINUOUS
 10
6.7723824843
 20
5.5528733221
 11
6.7723824843
 21
7.33398458
  0
LINE
  5
228
100
AcDbEntity
  8
DRIVEN_DIMS
100
AcDbLine
 62
7
  6
CONTINUOUS
 10
10.0046659488
 20
6.0136862785
 11
10.0046659488
 21
7.33398458
  0
LINE
  5
229
100
AcDbEntity
  8
DRIVEN_DIMS
100
AcDbLine
 62
7
  6
CONTINUOUS
 10
6.7723824843
 20
7.20898458
 11
7.9885242166
 21
7.20898458
  0
LINE
  5
22A
100
AcDbEntity
  8
DRIVEN_DIMS
100
AcDbLine
 62
7
  6
CONTINUOUS
 10
10.0046659488
 20
7.20898458
 11
8.7885242166
 21
7.20898458
  0
INSERT
  5
22B
100
AcDbEntity
  8
DRIVEN_DIMS
100
AcDbBlockReference
 62
7
  6
CONTINUOUS
  2
_FILLED
 10
6.7723824843
 20
7.20898458
 41
0.1875
 42
0.1875
 43
0.1875
 50
180.0
  0
INSERT
  5
22C
100
AcDbEntity
  8
DRIVEN_DIMS
100
AcDbBlockReference
 62
7
  6
CONTINUOUS
  2
_FILLED
 10
10.0046659488
 20
7.20898458
 41
0.1875
 42
0.1875
 43
0.1875
  0
ENDBLK
  5
22D
100
AcDbEntity
  8
0
  6
BYBLOCK
 62
0
100
AcDbBlockEnd
  0
BLOCK
  5
22E
100
AcDbEntity
  8
0
100
AcDbBlockBegin
  2
*T1
 70
1
 10
0.0
 20
0.0
  3
*T1
  1

  0
LINE
  5
22F
100
AcDbEntity
  8
0
100
AcDbLine
 62
7
  6
CONTINUOUS
 10
4.35
 20
0.0
 11
0.0
 21
0.0
  0
LINE
  5
230
100
AcDbEntity
  8
0
100
AcDbLine
 62
7
  6
CONTINUOUS
 10
4.35
 20
0.0
 11
4.35
 21
1.92
  0
LINE
  5
231
100
AcDbEntity
  8
0
100
AcDbLine
 62
7
  6
CONTINUOUS
 10
4.35
 20
1.92
 11
0.0
 21
1.92
  0
LINE
  5
232
100
AcDbEntity
  8
0
100
AcDbLine
 62
7
  6
CONTINUOUS
 10
0.0
 20
0.0
 11
0.0
 21
1.92
  0
MTEXT
  5
233
100
AcDbEntity
  8
NOTES
100
AcDbMText
 62
7
  6
CONTINUOUS
  7
STANDARD
 71
2
 72
1
 10
4.125
 20
0.48
 30
0.0
 11
1.0
 21
0.0
 31
0.0
 44
0.9
  1
A
 40
0.1
 41
0.2
  0
MTEXT
  5
234
100
AcDbEntity
  8
NOTES
100
AcDbMText
 62
7
  6
CONTINUOUS
  7
STANDARD
 71
2
 72
1
 10
2.175
 20
0.93
 30
0.0
 11
1.0
 21
0.0
 31
0.0
 44
0.9
  1
K50LGRYBWP-94486
 40
0.1
 41
3.2
  0
ENDBLK
  5
235
100
AcDbEntity
  8
0
  6
BYBLOCK
 62
0
100
AcDbBlockEnd
  0
ENDSEC
  0
SECTION
  2
ENTITIES
  0
MTEXT
  5
236
100
AcDbEntity
  8
0
100
AcDbMText
 62
7
  6
CONTINUOUS
  7
TEXTSTYLE_2
 71
2
 72
1
 10
11.0287658475
 20
1.794867839
 30
0.0
 11
1.0
 21
0.0
 31
0.0
 44
0.9
  1
THIRD ANGLE PROJECTION
 40
0.1
 41
1.76
  0
MTEXT
  5
237
100
AcDbEntity
  8
0
100
AcDbMText
 62
7
  6
CONTINUOUS
  7
STANDARD
 71
1
 72
1
 10
12.88
 20
1.457
 30
0.0
 11
1.0
 21
0.0
 31
0.0
 44
0.9
  1
DRAWING NO.
 40
0.08
 41
0.88
  0
MTEXT
  5
238
100
AcDbEntity
  8
0
100
AcDbMText
 62
7
  6
CONTINUOUS
  7
TEXTSTYLE_2
 71
1
 72
1
 10
12.08
 20
2.217
 30
0.0
 11
1.0
 21
0.0
 31
0.0
 44
0.9
  1
TITLE
 40
0.1
 41
0.4
  0
MTEXT
  5
239
100
AcDbEntity
  8
0
100
AcDbMText
 62
7
  6
CONTINUOUS
  7
STANDARD
 71
1
 72
1
 10
12.08
 20
1.457
 30
0.0
 11
1.0
 21
0.0
 31
0.0
 44
0.9
  1
SIZE
 40
0.08
 41
0.32
  0
MTEXT
  5
23A
100
AcDbEntity
  8
0
100
AcDbMText
 62
7
  6
CONTINUOUS
  7
STANDARD
 71
1
 72
1
 10
12.08
 20
1.087
 30
0.0
 11
1.0
 21
0.0
 31
0.0
 44
0.9
  1
SCALE
 40
0.08
 41
0.4
  0
MTEXT
  5
23B
100
AcDbEntity
  8
0
100
AcDbMText
 62
7
  6
CONTINUOUS
  7
TEXTSTYLE_2
 71
2
 72
1
 10
12.5
 20
1.337
 30
0.0
 11
1.0
 21
0.0
 31
0.0
 44
0.9
  1
B
 40
0.1
 41
0.08
  0
MTEXT
  5
23C
100
AcDbEntity
  8
0
100
AcDbMText
 62
7
  6
CONTINUOUS
  7
TEXTSTYLE_3
 71
2
 72
1
 10
11.0340287086
 20
2.7679425959
 30
0.0
 11
1.0
 21
0.0
 31
0.0
 44
0.9
  1
This drawing is the property\Pof BANNER ENGINEERING CORP.\PAny use or reproduction,\Pin any form, without prior\Pwritten permission of\PBanner is prohibited.
 40
0.08
 41
1.904
  0
MTEXT
  5
23D
100
AcDbEntity
  8
0
100
AcDbMText
 62
7
  6
CONTINUOUS
  7
STANDARD
 71
1
 72
1
 10
14.255
 20
1.087
 30
0.0
 11
1.0
 21
0.0
 31
0.0
 44
0.9
  1
SHEET
 40
0.08
 41
0.4
  0
MTEXT
  5
23E
100
AcDbEntity
  8
0
100
AcDbMText
 62
7
  6
CONTINUOUS
  7
STANDARD
 71
1
 72
1
 10
15.63
 20
1.457
 30
0.0
 11
1.0
 21
0.0
 31
0.0
 44
0.9
  1
REV.
 40
0.08
 41
0.32
  0
MTEXT
  5
23F
100
AcDbEntity
  8
0
100
AcDbMText
 62
7
  6
CONTINUOUS
  7
STANDARD
 71
3
 72
1
 10
16.38
 20
0.835443
 30
0.0
 11
1.0
 21
0.0
 31
0.0
 44
0.9
  1
CREO
 40
0.07
 41
0.28
  0
MTEXT
  5
240
100
AcDbEntity
  8
0
100
AcDbMText
 62
7
  6
CONTINUOUS
  7
TEXTSTYLE_4
 71
2
 72
1
 10
15.1043392653
 20
2.7174764286
 30
0.0
 11
1.0
 21
0.0
 31
0.0
 44
0.9
  1
BANNER ENGINEERING CORP.
 40
0.12
 41
2.592
  0
MTEXT
  5
241
100
AcDbEntity
  8
0
100
AcDbMText
 62
7
  6
CONTINUOUS
  7
TEXTSTYLE_2
 71
2
 72
1
 10
15.0923490612
 20
2.4764783673
 30
0.0
 11
1.0
 21
0.0
 31
0.0
 44
0.9
  1
www.bannerengineering.com
 40
0.1
 41
2.0
  0
MTEXT
  5
242
100
AcDbEntity
  8
0
100
AcDbMText
 62
7
  6
CONTINUOUS
  7
TEXTSTYLE_2
 71
2
 72
1
 10
9.485
 20
10.312
 30
0.0
 11
1.0
 21
0.0
 31
0.0
 44
0.9
  1
4
 40
0.1
 41
0.08
  0
MTEXT
  5
243
100
AcDbEntity
  8
0
100
AcDbMText
 62
7
  6
CONTINUOUS
  7
TEXTSTYLE_2
 71
2
 72
1
 10
11.455
 20
10.312
 30
0.0
 11
1.0
 21
0.0
 31
0.0
 44
0.9
  1
3
 40
0.1
 41
0.08
  0
MTEXT
  5
244
100
AcDbEntity
  8
0
100
AcDbMText
 62
7
  6
CONTINUOUS
  7
TEXTSTYLE_2
 71
2
 72
1
 10
13.425
 20
10.312
 30
0.0
 11
1.0
 21
0.0
 31
0.0
 44
0.9
  1
2
 40
0.1
 41
0.08
  0
MTEXT
  5
245
100
AcDbEntity
  8
0
100
AcDbMText
 62
7
  6
CONTINUOUS
  7
TEXTSTYLE_2
 71
2
 72
1
 10
15.395
 20
10.312
 30
0.0
 11
1.0
 21
0.0
 31
0.0
 44
0.9
  1
1
 40
0.1
 41
0.08
  0
MTEXT
  5
246
100
AcDbEntity
  8
0
100
AcDbMText
 62
7
  6
CONTINUOUS
  7
TEXTSTYLE_2
 71
2
 72
1
 10
3.575
 20
10.312
 30
0.0
 11
1.0
 21
0.0
 31
0.0
 44
0.9
  1
7
 40
0.1
 41
0.08
  0
MTEXT
  5
247
100
AcDbEntity
  8
0
100
AcDbMText
 62
7
  6
CONTINUOUS
  7
TEXTSTYLE_2
 71
2
 72
1
 10
5.545
 20
10.312
 30
0.0
 11
1.0
 21
0.0
 31
0.0
 44
0.9
  1
6
 40
0.1
 41
0.08
  0
MTEXT
  5
248
100
AcDbEntity
  8
0
100
AcDbMText
 62
7
  6
CONTINUOUS
  7
TEXTSTYLE_2
 71
2
 72
1
 10
7.515
 20
10.312
 30
0.0
 11
1.0
 21
0.0
 31
0.0
 44
0.9
  1
5
 40
0.1
 41
0.08
  0
MTEXT
  5
249
100
AcDbEntity
  8
0
100
AcDbMText
 62
7
  6
CONTINUOUS
  7
TEXTSTYLE_2
 71
2
 72
1
 10
1.605
 20
10.312
 30
0.0
 11
1.0
 21
0.0
 31
0.0
 44
0.9
  1
8
 40
0.1
 41
0.08
  0
MTEXT
  5
24A
100
AcDbEntity
  8
0
100
AcDbMText
 62
7
  6
CONTINUOUS
  7
TEXTSTYLE_2
 71
2
 72
1
 10
1.605
 20
0.787
 30
0.0
 11
1.0
 21
0.0
 31
0.0
 44
0.9
  1
8
 40
0.1
 41
0.08
  0
MTEXT
  5
24B
100
AcDbEntity
  8
0
100
AcDbMText
 62
7
  6
CONTINUOUS
  7
TEXTSTYLE_2
 71
2
 72
1
 10
3.575
 20
0.787
 30
0.0
 11
1.0
 21
0.0
 31
0.0
 44
0.9
  1
7
 40
0.1
 41
0.08
  0
MTEXT
  5
24C
100
AcDbEntity
  8
0
100
AcDbMText
 62
7
  6
CONTINUOUS
  7
TEXTSTYLE_2
 71
2
 72
1
 10
5.545
 20
0.787
 30
0.0
 11
1.0
 21
0.0
 31
0.0
 44
0.9
  1
6
 40
0.1
 41
0.08
  0
MTEXT
  5
24D
100
AcDbEntity
  8
0
100
AcDbMText
 62
7
  6
CONTINUOUS
  7
TEXTSTYLE_2
 71
2
 72
1
 10
7.515
 20
0.787
 30
0.0
 11
1.0
 21
0.0
 31
0.0
 44
0.9
  1
5
 40
0.1
 41
0.08
  0
MTEXT
  5
24E
100
AcDbEntity
  8
0
100
AcDbMText
 62
7
  6
CONTINUOUS
  7
TEXTSTYLE_2
 71
2
 72
1
 10
9.485
 20
0.787
 30
0.0
 11
1.0
 21
0.0
 31
0.0
 44
0.9
  1
4
 40
0.1
 41
0.08
  0
MTEXT
  5
24F
100
AcDbEntity
  8
0
100
AcDbMText
 62
7
  6
CONTINUOUS
  7
TEXTSTYLE_2
 71
2
 72
1
 10
11.455
 20
0.787
 30
0.0
 11
1.0
 21
0.0
 31
0.0
 44
0.9
  1
3
 40
0.1
 41
0.08
  0
MTEXT
  5
250
100
AcDbEntity
  8
0
100
AcDbMText
 62
7
  6
CONTINUOUS
  7
TEXTSTYLE_2
 71
2
 72
1
 10
13.425
 20
0.787
 30
0.0
 11
1.0
 21
0.0
 31
0.0
 44
0.9
  1
2
 40
0.1
 41
0.08
  0
MTEXT
  5
251
100
AcDbEntity
  8
0
100
AcDbMText
 62
7
  6
CONTINUOUS
  7
TEXTSTYLE_2
 71
2
 72
1
 10
15.395
 20
0.787
 30
0.0
 11
1.0
 21
0.0
 31
0.0
 44
0.9
  1
1
 40
0.1
 41
0.08
  0
MTEXT
  5
252
100
AcDbEntity
  8
0
100
AcDbMText
 62
7
  6
CONTINUOUS
  7
TEXTSTYLE_2
 71
3
 72
1
 10
0.52
 20
4.3995
 30
0.0
 11
1.0
 21
0.0
 31
0.0
 44
0.9
  1
B
 40
0.1
 41
0.08
  0
MTEXT
  5
253
100
AcDbEntity
  8
0
100
AcDbMText
 62
7
  6
CONTINUOUS
  7
TEXTSTYLE_2
 71
3
 72
1
 10
0.52
 20
2.0995
 30
0.0
 11
1.0
 21
0.0
 31
0.0
 44
0.9
  1
A
 40
0.1
 41
0.08
  0
MTEXT
  5
254
100
AcDbEntity
  8
0
100
AcDbMText
 62
7
  6
CONTINUOUS
  7
TEXTSTYLE_2
 71
3
 72
1
 10
0.52
 20
8.9995
 30
0.0
 11
1.0
 21
0.0
 31
0.0
 44
0.9
  1
D
 40
0.1
 41
0.08
  0
MTEXT
  5
255
100
AcDbEntity
  8
0
100
AcDbMText
 62
7
  6
CONTINUOUS
  7
TEXTSTYLE_2
 71
3
 72
1
 10
0.52
 20
6.6995
 30
0.0
 11
1.0
 21
0.0
 31
0.0
 44
0.9
  1
C
 40
0.1
 41
0.08
  0
MTEXT
  5
256
100
AcDbEntity
  8
0
100
AcDbMText
 62
7
  6
CONTINUOUS
  7
TEXTSTYLE_2
 71
1
 72
1
 10
16.48
 20
8.9995
 30
0.0
 11
1.0
 21
0.0
 31
0.0
 44
0.9
  1
D
 40
0.1
 41
0.08
  0
MTEXT
  5
257
100
AcDbEntity
  8
0
100
AcDbMText
 62
7
  6
CONTINUOUS
  7
TEXTSTYLE_2
 71
1
 72
1
 10
16.48
 20
6.6995
 30
0.0
 11
1.0
 21
0.0
 31
0.0
 44
0.9
  1
C
 40
0.1
 41
0.08
  0
MTEXT
  5
258
100
AcDbEntity
  8
0
100
AcDbMText
 62
7
  6
CONTINUOUS
  7
TEXTSTYLE_2
 71
1
 72
1
 10
16.48
 20
4.3995
 30
0.0
 11
1.0
 21
0.0
 31
0.0
 44
0.9
  1
B
 40
0.1
 41
0.08
  0
MTEXT
  5
259
100
AcDbEntity
  8
0
100
AcDbMText
 62
7
  6
CONTINUOUS
  7
TEXTSTYLE_2
 71
1
 72
1
 10
16.48
 20
2.0995
 30
0.0
 11
1.0
 21
0.0
 31
0.0
 44
0.9
  1
A
 40
0.1
 41
0.08
  0
MTEXT
  5
25A
100
AcDbEntity
  8
0
100
AcDbMText
 62
7
  6
CONTINUOUS
  7
STANDARD
 71
1
 72
1
 10
14.819264911
 20
1.0627941725
 30
0.0
 11
1.0
 21
0.0
 31
0.0
 44
0.9
  1
1 OF 1
 40
0.1
 41
0.6
  0
MTEXT
  5
25B
100
AcDbEntity
  8
0
100
AcDbMText
 62
7
  6
CONTINUOUS
  7
STANDARD
 71
1
 72
1
 10
13.8911999818
 20
1.3747321586
 30
0.0
 11
1.0
 21
0.0
 31
0.0
 44
0.9
  1
199778
 40
0.12
 41
0.72
  0
MTEXT
  5
25C
100
AcDbEntity
  8
0
100
AcDbMText
 62
7
  6
CONTINUOUS
  7
STANDARD
 71
1
 72
1
 10
12.644264911
 20
1.0627941725
 30
0.0
 11
1.0
 21
0.0
 31
0.0
 44
0.9
  1
1:1
 40
0.1
 41
0.3
  0
MTEXT
  5
25D
100
AcDbEntity
  8
0
100
AcDbMText
 62
7
  6
CONTINUOUS
  7
STANDARD
 71
1
 72
1
 10
0.8489354566
 20
1.4938330621
 30
0.0
 11
1.0
 21
0.0
 31
0.0
 44
0.9
  1
NOTES:\P1. ALL DIMENSIONS ARE MILLIMETERS [INCHES] UNLESS OTHERWISE NOTED.\P2. REFER TO "www.bannerengineering.com" FOR ADDITIONAL DATA AND SPECIFICATIONS.
 40
0.1
 41
7.9
  0
MTEXT
  5
25E
100
AcDbEntity
  8
0
100
AcDbMText
 62
7
  6
CONTINUOUS
  7
TEXTSTYLE_5
 71
2
 72
1
 10
11.0519651892
 20
2.0334024775
 30
0.0
 11
1.0
 21
0.0
 31
0.0
 44
0.9
  1
C  2015 Banner Engineering Corp.
 40
0.08
 41
1.92
  0
DIMENSION
  5
25F
100
AcDbEntity
  8
DRIVEN_DIMS
100
AcDbDimension
 62
7
  6
CONTINUOUS
  2
*D0
 10
4.0366180384
 20
6.4379575625
 11
3.1900754567
 21
7.1813924757
 70
163
 71
3
 42
50.0
  1
%%c<>\P[]
  3
DIMSTYLE_1
100
AcDbDiametricDimension
 15
4.5689188744
 25
4.5427890818
  0
DIMENSION
  5
260
100
AcDbEntity
  8
DRIVEN_DIMS
100
AcDbDimension
 62
7
  6
CONTINUOUS
  2
*D1
 10
10.0046659488
 20
7.20898458
 11
8.3885242166
 21
7.13398458
 70
160
 71
2
 42
82.1
  1
<>\P[]
  3
DIMSTYLE_2
100
AcDbAlignedDimension
 13
6.7723824843
 23
5.4903733221
 14
10.0046659488
 24
5.9511862785
100
AcDbRotatedDimension
  0
ACAD_TABLE
  5
261
100
AcDbEntity
  8
0
 62
7
  6
CONTINUOUS
100
AcDbBlockReference
  2
*T1
 10
12.03
 20
0.887
 30
0.0
100
AcDbTable
342
       492
343
218
 11
1.0
 21
0.0
 31
0.0
 90
6
 91
3
 92
5
 93
4
 94
0
 95
0
 96
0
 70
1
141
0.33
141
0.45
141
1.14
142
0.65
142
1.15
142
1.025
142
1.075
142
0.45
171
1
172
0
173
0
174
0
175
1
176
1
 91
33
178
0
145
0.0
301
CELL_VALUE
 90
4
  1
 
304
ACVALUE_END
170
1
140
0.1
171
1
172
0
173
0
174
0
175
1
176
1
 91
33
178
0
145
0.0
301
CELL_VALUE
 90
4
  1
 
304
ACVALUE_END
170
1
140
0.1
171
1
172
0
173
0
174
0
175
1
176
1
 91
33
178
0
145
0.0
301
CELL_VALUE
 90
4
  1
 
304
ACVALUE_END
170
1
140
0.1
171
1
172
0
173
0
174
0
175
1
176
1
 91
33
178
0
145
0.0
301
CELL_VALUE
 90
4
  1
 
304
ACVALUE_END
170
1
140
0.1
171
1
172
0
173
0
174
0
175
1
176
1
 91
33
178
0
145
0.0
301
CELL_VALUE
 90
4
  1
 
304
ACVALUE_END
170
1
140
0.1
171
1
172
0
173
0
174
0
175
1
176
1
 91
33
178
0
145
0.0
301
CELL_VALUE
 90
4
  1
 
304
ACVALUE_END
170
1
140
0.1
171
1
172
0
173
0
174
0
175
1
176
1
 91
33
178
0
145
0.0
301
CELL_VALUE
 90
4
  1
 
304
ACVALUE_END
170
1
140
0.1
171
1
172
0
173
0
174
0
175
1
176
1
 91
33
178
0
145
0.0
301
CELL_VALUE
 90
4
  1
 
304
ACVALUE_END
170
1
140
0.1
171
1
172
0
173
0
174
0
175
1
176
1
 91
33
178
0
145
0.0
301
CELL_VALUE
 90
4
  1
 
304
ACVALUE_END
170
1
140
0.1
171
1
172
0
173
0
174
0
175
1
176
1
 91
41
178
0
145
0.0
301
CELL_VALUE
 90
4
  1
A
304
ACVALUE_END
170
8
140
0.1
 64
7
171
1
172
0
173
0
174
0
175
5
176
1
 91
33
178
0
145
0.0
301
CELL_VALUE
 90
4
  1
K50LGRYBWP-94486
304
ACVALUE_END
170
8
140
0.1
171
1
172
0
173
1
174
0
175
1
176
1
 91
1
178
0
145
0.0
170
1
171
1
172
0
173
1
174
0
175
1
176
1
 91
1
178
0
145
0.0
170
1
171
1
172
0
173
1
174
0
175
1
176
1
 91
1
178
0
145
0.0
170
1
171
1
172
0
173
1
174
0
175
1
176
1
 91
1
178
0
145
0.0
170
8
  0
LINE
  5
262
100
AcDbEntity
  8
0
100
AcDbLine
 62
7
  6
CONTINUOUS
 10
0.47
 20
5.586103
 11
0.47
 21
5.412897
  0
LINE
  5
263
100
AcDbEntity
  8
0
100
AcDbLine
 62
7
  6
CONTINUOUS
 10
0.62
 20
10.112
 11
0.62
 21
0.887
  0
LINE
  5
264
100
AcDbEntity
  8
0
100
AcDbLine
 62
7
  6
CONTINUOUS
 10
2.59
 20
0.887
 11
2.59
 21
0.637
  0
LINE
  5
265
100
AcDbEntity
  8
0
100
AcDbLine
 62
7
  6
CONTINUOUS
 10
2.59
 20
10.112
 11
2.59
 21
10.362
  0
LINE
  5
266
100
AcDbEntity
  8
0
100
AcDbLine
 62
7
  6
CONTINUOUS
 10
8.413397
 20
0.737
 11
8.586603
 21
0.737
  0
LINE
  5
267
100
AcDbEntity
  8
0
100
AcDbLine
 62
7
  6
CONTINUOUS
 10
11.1389508475
 20
1.425992839
 11
11.7453418475
 21
1.495385839
  0
LINE
  5
268
100
AcDbEntity
  8
0
100
AcDbLine
 62
7
  6
CONTINUOUS
 10
0.62
 20
0.887
 11
16.38
 21
0.887
  0
LINE
  5
269
100
AcDbEntity
  8
0
100
AcDbLine
 62
7
  6
CONTINUOUS
 10
12.03
 20
1.137
 11
16.38
 21
1.137
  0
LINE
  5
26A
100
AcDbEntity
  8
0
100
AcDbLine
 62
7
  6
CONTINUOUS
 10
10.2121898475
 20
1.243294839
 11
10.4342808475
 21
1.243294839
  0
LINE
  5
26B
100
AcDbEntity
  8
0
100
AcDbLine
 62
7
  6
CONTINUOUS
 10
10.4842808475
 20
1.243294839
 11
10.5842808475
 21
1.243294839
  0
LINE
  5
26C
100
AcDbEntity
  8
0
100
AcDbLine
 62
7
  6
CONTINUOUS
 10
10.6342808475
 20
1.243294839
 11
10.8563718475
 21
1.243294839
  0
LINE
  5
26D
100
AcDbEntity
  8
0
100
AcDbLine
 62
7
  6
CONTINUOUS
 10
11.0389508475
 20
1.243294839
 11
11.3171028475
 21
1.243294839
  0
LINE
  5
26E
100
AcDbEntity
  8
0
100
AcDbLine
 62
7
  6
CONTINUOUS
 10
11.3671028475
 20
1.243294839
 11
11.5171888475
 21
1.243294839
  0
LINE
  5
26F
100
AcDbEntity
  8
0
100
AcDbLine
 62
7
  6
CONTINUOUS
 10
11.5671888475
 20
1.243294839
 11
11.8453418475
 21
1.243294839
  0
LINE
  5
270
100
AcDbEntity
  8
0
100
AcDbLine
 62
7
  6
CONTINUOUS
 10
11.7453418475
 20
0.991203839
 11
11.1389508475
 21
1.060596839
  0
LINE
  5
271
100
AcDbEntity
  8
0
100
AcDbLine
 62
7
  6
CONTINUOUS
 10
4.56
 20
0.887
 11
4.56
 21
0.637
  0
LINE
  5
272
100
AcDbEntity
  8
0
100
AcDbLine
 62
7
  6
CONTINUOUS
 10
4.56
 20
10.112
 11
4.56
 21
10.362
  0
LINE
  5
273
100
AcDbEntity
  8
0
100
AcDbLine
 62
7
  6
CONTINUOUS
 10
0.47
 20
5.412897
 11
0.62
 21
5.4995
  0
LINE
  5
274
100
AcDbEntity
  8
0
100
AcDbLine
 62
7
  6
CONTINUOUS
 10
12.03
 20
1.507
 11
16.38
 21
1.507
  0
LINE
  5
275
100
AcDbEntity
  8
0
100
AcDbLine
 62
7
  6
CONTINUOUS
 10
10.03
 20
1.907
 11
12.03
 21
1.907
  0
LINE
  5
276
100
AcDbEntity
  8
0
100
AcDbLine
 62
7
  6
CONTINUOUS
 10
0.62
 20
5.4995
 11
0.47
 21
5.586103
  0
LINE
  5
277
100
AcDbEntity
  8
0
100
AcDbLine
 62
7
  6
CONTINUOUS
 10
12.03
 20
2.267
 11
16.38
 21
2.267
  0
LINE
  5
278
100
AcDbEntity
  8
0
100
AcDbLine
 62
7
  6
CONTINUOUS
 10
13.6042588488
 20
2.4912273132
 11
13.5568948225
 21
2.4912273132
  0
LINE
  5
279
100
AcDbEntity
  8
0
100
AcDbLine
 62
7
  6
CONTINUOUS
 10
13.5130037982
 20
2.4912273132
 11
13.3994327352
 21
2.4912273132
  0
LINE
  5
27A
100
AcDbEntity
  8
0
100
AcDbLine
 62
7
  6
CONTINUOUS
 10
13.3705287192
 20
2.4912273132
 11
13.1673166065
 21
2.4912273132
  0
LINE
  5
27B
100
AcDbEntity
  8
0
100
AcDbLine
 62
7
  6
CONTINUOUS
 10
13.1168435785
 20
2.4912273132
 11
13.0426375373
 21
2.4912273132
  0
LINE
  5
27C
100
AcDbEntity
  8
0
100
AcDbLine
 62
7
  6
CONTINUOUS
 10
12.9962575116
 20
2.4912273132
 11
12.9205934696
 21
2.4912273132
  0
LINE
  5
27D
100
AcDbEntity
  8
0
100
AcDbLine
 62
7
  6
CONTINUOUS
 10
12.8685904408
 20
2.4912273132
 11
12.7943853997
 21
2.4912273132
  0
LINE
  5
27E
100
AcDbEntity
  8
0
100
AcDbLine
 62
7
  6
CONTINUOUS
 10
12.7480043739
 20
2.4912273132
 11
12.672340332
 21
2.4912273132
  0
LINE
  5
27F
100
AcDbEntity
  8
0
100
AcDbLine
 62
7
  6
CONTINUOUS
 10
12.2055050731
 20
2.4912273132
 11
12.3819511709
 21
2.4912273132
  0
LINE
  5
280
100
AcDbEntity
  8
0
100
AcDbLine
 62
7
  6
CONTINUOUS
 10
12.4394882028
 20
2.4912273132
 11
12.5168642458
 21
2.4912273132
  0
LINE
  5
281
100
AcDbEntity
  8
0
100
AcDbLine
 62
7
  6
CONTINUOUS
 10
12.537150257
 20
2.4912273132
 11
12.6424313154
 21
2.4912273132
  0
LINE
  5
282
100
AcDbEntity
  8
0
100
AcDbLine
 62
7
  6
CONTINUOUS
 10
13.4883447845
 20
2.5159553269
 11
13.5130037982
 21
2.5159553269
  0
LINE
  5
283
100
AcDbEntity
  8
0
100
AcDbLine
 62
7
  6
CONTINUOUS
 10
12.6424313154
 20
2.515977327
 11
12.6224153043
 21
2.515977327
  0
LINE
  5
284
100
AcDbEntity
  8
0
100
AcDbLine
 62
7
  6
CONTINUOUS
 10
12.551601265
 20
2.515977327
 11
12.537150257
 21
2.515977327
  0
LINE
  5
285
100
AcDbEntity
  8
0
100
AcDbLine
 62
7
  6
CONTINUOUS
 10
12.5168642458
 20
2.515977327
 11
12.5055812395
 21
2.515977327
  0
LINE
  5
286
100
AcDbEntity
  8
0
100
AcDbLine
 62
7
  6
CONTINUOUS
 10
12.4623492155
 20
2.515977327
 11
12.4394882028
 21
2.515977327
  0
LINE
  5
287
100
AcDbEntity
  8
0
100
AcDbLine
 62
7
  6
CONTINUOUS
 10
12.3362731456
 20
2.515977327
 11
12.2949101227
 21
2.515977327
  0
LINE
  5
288
100
AcDbEntity
  8
0
100
AcDbLine
 62
7
  6
CONTINUOUS
 10
12.2294470864
 20
2.515977327
 11
12.2055050731
 21
2.515977327
  0
LINE
  5
289
100
AcDbEntity
  8
0
100
AcDbLine
 62
7
  6
CONTINUOUS
 10
12.672340332
 20
2.515977327
 11
12.6909873423
 21
2.515977327
  0
LINE
  5
28A
100
AcDbEntity
  8
0
100
AcDbLine
 62
7
  6
CONTINUOUS
 10
12.7276873627
 20
2.515977327
 11
12.7480043739
 21
2.515977327
  0
LINE
  5
28B
100
AcDbEntity
  8
0
100
AcDbLine
 62
7
  6
CONTINUOUS
 10
12.9205934696
 20
2.515977327
 11
12.93923948
 21
2.515977327
  0
LINE
  5
28C
100
AcDbEntity
  8
0
100
AcDbLine
 62
7
  6
CONTINUOUS
 10
12.9759405003
 20
2.515977327
 11
12.9962575116
 21
2.515977327
  0
LINE
  5
28D
100
AcDbEntity
  8
0
100
AcDbLine
 62
7
  6
CONTINUOUS
 10
13.1673166065
 20
2.515977327
 11
13.1912396197
 21
2.515977327
  0
LINE
  5
28E
100
AcDbEntity
  8
0
100
AcDbLine
 62
7
  6
CONTINUOUS
 10
13.2582556569
 20
2.515977327
 11
13.3232596929
 21
2.515977327
  0
LINE
  5
28F
100
AcDbEntity
  8
0
100
AcDbLine
 62
7
  6
CONTINUOUS
 10
13.3994327352
 20
2.515977327
 11
13.4221787478
 21
2.515977327
  0
LINE
  5
290
100
AcDbEntity
  8
0
100
AcDbLine
 62
7
  6
CONTINUOUS
 10
13.6052818493
 20
2.5163643272
 11
13.60639085
 21
2.5163643272
  0
LINE
  5
291
100
AcDbEntity
  8
0
100
AcDbLine
 62
7
  6
CONTINUOUS
 10
13.3282096957
 20
2.5291773343
 11
13.3705287192
 21
2.5291773343
  0
LINE
  5
292
100
AcDbEntity
  8
0
100
AcDbLine
 62
7
  6
CONTINUOUS
 10
12.5110972426
 20
2.5296213345
 11
12.5459752619
 21
2.5296213345
  0
LINE
  5
293
100
AcDbEntity
  8
0
100
AcDbLine
 62
7
  6
CONTINUOUS
 10
13.6171458559
 20
2.5301143348
 11
13.6292558626
 21
2.5301143348
  0
LINE
  5
294
100
AcDbEntity
  8
0
100
AcDbLine
 62
7
  6
CONTINUOUS
 10
13.5159517998
 20
2.5306043351
 11
13.4883447845
 21
2.5306043351
  0
LINE
  5
295
100
AcDbEntity
  8
0
100
AcDbLine
 62
7
  6
CONTINUOUS
 10
13.2934226764
 20
2.5324773361
 11
13.2582556569
 21
2.5324773361
  0
LINE
  5
296
100
AcDbEntity
  8
0
100
AcDbLine
 62
7
  6
CONTINUOUS
 10
12.2949101227
 20
2.5333023366
 11
12.3362731456
 21
2.5333023366
  0
LINE
  5
297
100
AcDbEntity
  8
0
100
AcDbLine
 62
7
  6
CONTINUOUS
 10
13.5222818033
 20
2.5496073456
 11
13.4883447845
 21
2.5496073456
  0
LINE
  5
298
100
AcDbEntity
  8
0
100
AcDbLine
 62
7
  6
CONTINUOUS
 10
12.2949101227
 20
2.5499573458
 11
12.3362731456
 21
2.5499573458
  0
LINE
  5
299
100
AcDbEntity
  8
0
100
AcDbLine
 62
7
  6
CONTINUOUS
 10
12.5196132473
 20
2.5505713461
 11
12.5401702587
 21
2.5505713461
  0
LINE
  5
29A
100
AcDbEntity
  8
0
100
AcDbLine
 62
7
  6
CONTINUOUS
 10
13.2582556569
 20
2.5507823463
 11
13.2934226764
 21
2.5507823463
  0
LINE
  5
29B
100
AcDbEntity
  8
0
100
AcDbLine
 62
7
  6
CONTINUOUS
 10
13.3691097184
 20
2.5540823481
 11
13.3272456952
 21
2.5540823481
  0
LINE
  5
29C
100
AcDbEntity
  8
0
100
AcDbLine
 62
7
  6
CONTINUOUS
 10
12.5329112547
 20
2.5667383551
 11
12.5267302512
 21
2.5667383551
  0
LINE
  5
29D
100
AcDbEntity
  8
0
100
AcDbLine
 62
7
  6
CONTINUOUS
 10
13.4221787478
 20
2.5672823554
 11
13.3994327352
 21
2.5672823554
  0
LINE
  5
29E
100
AcDbEntity
  8
0
100
AcDbLine
 62
7
  6
CONTINUOUS
 10
13.3222956924
 20
2.5672823554
 11
13.2582556569
 21
2.5672823554
  0
LINE
  5
29F
100
AcDbEntity
  8
0
100
AcDbLine
 62
7
  6
CONTINUOUS
 10
13.1912396197
 20
2.5672823554
 11
13.1673166065
 21
2.5672823554
  0
LINE
  5
2A0
100
AcDbEntity
  8
0
100
AcDbLine
 62
7
  6
CONTINUOUS
 10
13.1397265912
 20
2.5672823554
 11
13.1217935812
 21
2.5672823554
  0
LINE
  5
2A1
100
AcDbEntity
  8
0
100
AcDbLine
 62
7
  6
CONTINUOUS
 10
13.0845015605
 20
2.5672823554
 11
13.0657255501
 21
2.5672823554
  0
LINE
  5
2A2
100
AcDbEntity
  8
0
100
AcDbLine
 62
7
  6
CONTINUOUS
 10
12.93923948
 20
2.5672823554
 11
12.9205934696
 21
2.5672823554
  0
LINE
  5
2A3
100
AcDbEntity
  8
0
100
AcDbLine
 62
7
  6
CONTINUOUS
 10
12.8914734535
 20
2.5672823554
 11
12.8735404436
 21
2.5672823554
  0
LINE
  5
2A4
100
AcDbEntity
  8
0
100
AcDbLine
 62
7
  6
CONTINUOUS
 10
12.8362484229
 20
2.5672823554
 11
12.8174724125
 21
2.5672823554
  0
LINE
  5
2A5
100
AcDbEntity
  8
0
100
AcDbLine
 62
7
  6
CONTINUOUS
 10
12.6909873423
 20
2.5672823554
 11
12.672340332
 21
2.5672823554
  0
LINE
  5
2A6
100
AcDbEntity
  8
0
100
AcDbLine
 62
7
  6
CONTINUOUS
 10
12.3362731456
 20
2.5672823554
 11
12.2949101227
 21
2.5672823554
  0
LINE
  5
2A7
100
AcDbEntity
  8
0
100
AcDbLine
 62
7
  6
CONTINUOUS
 10
12.2055050731
 20
2.5672823554
 11
12.2294470864
 21
2.5672823554
  0
LINE
  5
2A8
100
AcDbEntity
  8
0
100
AcDbLine
 62
7
  6
CONTINUOUS
 10
13.4883447845
 20
2.5672823554
 11
13.5251458049
 21
2.5672823554
  0
LINE
  5
2A9
100
AcDbEntity
  8
0
100
AcDbLine
 62
7
  6
CONTINUOUS
 10
12.5705042755
 20
2.5920323691
 11
12.5133292438
 21
2.5920323691
  0
LINE
  5
2AA
100
AcDbEntity
  8
0
100
AcDbLine
 62
7
  6
CONTINUOUS
 10
12.3715681652
 20
2.5920323691
 11
12.2055050731
 21
2.5920323691
  0
LINE
  5
2AB
100
AcDbEntity
  8
0
100
AcDbLine
 62
7
  6
CONTINUOUS
 10
12.672340332
 20
2.5920323691
 11
12.7727983877
 21
2.5920323691
  0
LINE
  5
2AC
100
AcDbEntity
  8
0
100
AcDbLine
 62
7
  6
CONTINUOUS
 10
12.8174724125
 20
2.5920323691
 11
12.8914734535
 21
2.5920323691
  0
LINE
  5
2AD
100
AcDbEntity
  8
0
100
AcDbLine
 62
7
  6
CONTINUOUS
 10
12.9205934696
 20
2.5920323691
 11
13.0210515254
 21
2.5920323691
  0
LINE
  5
2AE
100
AcDbEntity
  8
0
100
AcDbLine
 62
7
  6
CONTINUOUS
 10
13.0657255501
 20
2.5920323691
 11
13.1397265912
 21
2.5920323691
  0
LINE
  5
2AF
100
AcDbEntity
  8
0
100
AcDbLine
 62
7
  6
CONTINUOUS
 10
13.1673166065
 20
2.5920323691
 11
13.3691097184
 21
2.5920323691
  0
LINE
  5
2B0
100
AcDbEntity
  8
0
100
AcDbLine
 62
7
  6
CONTINUOUS
 10
13.3994327352
 20
2.5920323691
 11
13.5490138181
 21
2.5920323691
  0
LINE
  5
2B1
100
AcDbEntity
  8
0
100
AcDbLine
 62
7
  6
CONTINUOUS
 10
12.4008351814
 20
2.5375433389
 11
12.3907841758
 21
2.5410923409
  0
LINE
  5
2B2
100
AcDbEntity
  8
0
100
AcDbLine
 62
7
  6
CONTINUOUS
 10
12.7926763987
 20
2.4919113136
 11
12.7293963636
 21
2.5522893471
  0
LINE
  5
2B3
100
AcDbEntity
  8
0
100
AcDbLine
 62
7
  6
CONTINUOUS
 10
12.7745063886
 20
2.5913483688
 11
12.8345394219
 21
2.534068337
  0
LINE
  5
2B4
100
AcDbEntity
  8
0
100
AcDbLine
 62
7
  6
CONTINUOUS
 10
13.0409295364
 20
2.4919113136
 11
12.9776495013
 21
2.5522893471
  0
LINE
  5
2B5
100
AcDbEntity
  8
0
100
AcDbLine
 62
7
  6
CONTINUOUS
 10
13.0227595263
 20
2.5913483688
 11
13.0827925596
 21
2.534068337
  0
LINE
  5
2B6
100
AcDbEntity
  8
0
100
AcDbLine
 62
7
  6
CONTINUOUS
 10
12.548053263
 20
2.5284903339
 11
12.5536792662
 21
2.5197973291
  0
LINE
  5
2B7
100
AcDbEntity
  8
0
100
AcDbLine
 62
7
  6
CONTINUOUS
 10
12.5422482598
 20
2.5543913483
 11
12.5349892558
 21
2.5656073545
  0
LINE
  5
2B8
100
AcDbEntity
  8
0
100
AcDbLine
 62
7
  6
CONTINUOUS
 10
12.6203383031
 20
2.5171073276
 11
12.5725822767
 21
2.5909023685
  0
LINE
  5
2B9
100
AcDbEntity
  8
0
100
AcDbLine
 62
7
  6
CONTINUOUS
 10
12.2030300717
 20
2.5895573678
 11
12.2030300717
 21
2.5697573568
  0
LINE
  5
2BA
100
AcDbEntity
  8
0
100
AcDbLine
 62
7
  6
CONTINUOUS
 10
12.2030300717
 20
2.5135023256
 11
12.2030300717
 21
2.4937023146
  0
LINE
  5
2BB
100
AcDbEntity
  8
0
100
AcDbLine
 62
7
  6
CONTINUOUS
 10
12.2319220877
 20
2.564807354
 11
12.2319220877
 21
2.5184523283
  0
LINE
  5
2BC
100
AcDbEntity
  8
0
100
AcDbLine
 62
7
  6
CONTINUOUS
 10
12.2924351213
 20
2.564807354
 11
12.2924351213
 21
2.5524323472
  0
LINE
  5
2BD
100
AcDbEntity
  8
0
100
AcDbLine
 62
7
  6
CONTINUOUS
 10
12.2924351213
 20
2.5184523283
 11
12.2924351213
 21
2.5308273352
  0
LINE
  5
2BE
100
AcDbEntity
  8
0
100
AcDbLine
 62
7
  6
CONTINUOUS
 10
12.4370132015
 20
2.5135023256
 11
12.4370132015
 21
2.4937023146
  0
LINE
  5
2BF
100
AcDbEntity
  8
0
100
AcDbLine
 62
7
  6
CONTINUOUS
 10
12.5193392471
 20
2.4937023146
 11
12.5193392471
 21
2.5135023256
  0
LINE
  5
2C0
100
AcDbEntity
  8
0
100
AcDbLine
 62
7
  6
CONTINUOUS
 10
12.5346752556
 20
2.5135023256
 11
12.5346752556
 21
2.4937023146
  0
LINE
  5
2C1
100
AcDbEntity
  8
0
100
AcDbLine
 62
7
  6
CONTINUOUS
 10
12.6449063168
 20
2.4937023146
 11
12.6449063168
 21
2.5135023256
  0
LINE
  5
2C2
100
AcDbEntity
  8
0
100
AcDbLine
 62
7
  6
CONTINUOUS
 10
12.6698653306
 20
2.4937023146
 11
12.6698653306
 21
2.5135023256
  0
LINE
  5
2C3
100
AcDbEntity
  8
0
100
AcDbLine
 62
7
  6
CONTINUOUS
 10
12.6698653306
 20
2.5697573568
 11
12.6698653306
 21
2.5895573678
  0
LINE
  5
2C4
100
AcDbEntity
  8
0
100
AcDbLine
 62
7
  6
CONTINUOUS
 10
12.6934623437
 20
2.5184523283
 11
12.6934623437
 21
2.564807354
  0
LINE
  5
2C5
100
AcDbEntity
  8
0
100
AcDbLine
 62
7
  6
CONTINUOUS
 10
12.7252123613
 20
2.5504983461
 11
12.7252123613
 21
2.5184523283
  0
LINE
  5
2C6
100
AcDbEntity
  8
0
100
AcDbLine
 62
7
  6
CONTINUOUS
 10
13.5375908118
 20
2.5092733232
 11
13.5357868108
 21
2.5153423266
  0
LINE
  5
2C7
100
AcDbEntity
  8
0
100
AcDbLine
 62
7
  6
CONTINUOUS
 10
12.7504793753
 20
2.5135023256
 11
12.7504793753
 21
2.4937023146
  0
LINE
  5
2C8
100
AcDbEntity
  8
0
100
AcDbLine
 62
7
  6
CONTINUOUS
 10
12.8149974111
 20
2.5697573568
 11
12.8149974111
 21
2.5895573678
  0
LINE
  5
2C9
100
AcDbEntity
  8
0
100
AcDbLine
 62
7
  6
CONTINUOUS
 10
12.8387234242
 20
2.535859338
 11
12.8387234242
 21
2.564807354
  0
LINE
  5
2CA
100
AcDbEntity
  8
0
100
AcDbLine
 62
7
  6
CONTINUOUS
 10
12.8710654422
 20
2.564807354
 11
12.8710654422
 21
2.4937023146
  0
LINE
  5
2CB
100
AcDbEntity
  8
0
100
AcDbLine
 62
7
  6
CONTINUOUS
 10
12.8939484549
 20
2.5895573678
 11
12.8939484549
 21
2.5697573568
  0
LINE
  5
2CC
100
AcDbEntity
  8
0
100
AcDbLine
 62
7
  6
CONTINUOUS
 10
12.9181184683
 20
2.4937023146
 11
12.9181184683
 21
2.5135023256
  0
LINE
  5
2CD
100
AcDbEntity
  8
0
100
AcDbLine
 62
7
  6
CONTINUOUS
 10
12.9181184683
 20
2.5697573568
 11
12.9181184683
 21
2.5895573678
  0
LINE
  5
2CE
100
AcDbEntity
  8
0
100
AcDbLine
 62
7
  6
CONTINUOUS
 10
12.9417144814
 20
2.5184523283
 11
12.9417144814
 21
2.564807354
  0
LINE
  5
2CF
100
AcDbEntity
  8
0
100
AcDbLine
 62
7
  6
CONTINUOUS
 10
12.973465499
 20
2.5504983461
 11
12.973465499
 21
2.5184523283
  0
LINE
  5
2D0
100
AcDbEntity
  8
0
100
AcDbLine
 62
7
  6
CONTINUOUS
 10
12.998732513
 20
2.5135023256
 11
12.998732513
 21
2.4937023146
  0
LINE
  5
2D1
100
AcDbEntity
  8
0
100
AcDbLine
 62
7
  6
CONTINUOUS
 10
13.0632505488
 20
2.5697573568
 11
13.0632505488
 21
2.5895573678
  0
LINE
  5
2D2
100
AcDbEntity
  8
0
100
AcDbLine
 62
7
  6
CONTINUOUS
 10
13.0869765619
 20
2.535859338
 11
13.0869765619
 21
2.564807354
  0
LINE
  5
2D3
100
AcDbEntity
  8
0
100
AcDbLine
 62
7
  6
CONTINUOUS
 10
13.1193185799
 20
2.564807354
 11
13.1193185799
 21
2.4937023146
  0
LINE
  5
2D4
100
AcDbEntity
  8
0
100
AcDbLine
 62
7
  6
CONTINUOUS
 10
13.1422015925
 20
2.5895573678
 11
13.1422015925
 21
2.5697573568
  0
LINE
  5
2D5
100
AcDbEntity
  8
0
100
AcDbLine
 62
7
  6
CONTINUOUS
 10
13.1648416051
 20
2.4937023146
 11
13.1648416051
 21
2.5135023256
  0
LINE
  5
2D6
100
AcDbEntity
  8
0
100
AcDbLine
 62
7
  6
CONTINUOUS
 10
13.1648416051
 20
2.5697573568
 11
13.1648416051
 21
2.5895573678
  0
LINE
  5
2D7
100
AcDbEntity
  8
0
100
AcDbLine
 62
7
  6
CONTINUOUS
 10
13.1937146211
 20
2.5184523283
 11
13.1937146211
 21
2.564807354
  0
LINE
  5
2D8
100
AcDbEntity
  8
0
100
AcDbLine
 62
7
  6
CONTINUOUS
 10
13.2557806555
 20
2.564807354
 11
13.2557806555
 21
2.5532573476
  0
LINE
  5
2D9
100
AcDbEntity
  8
0
100
AcDbLine
 62
7
  6
CONTINUOUS
 10
13.2557806555
 20
2.5300023347
 11
13.2557806555
 21
2.5184523283
  0
LINE
  5
2DA
100
AcDbEntity
  8
0
100
AcDbLine
 62
7
  6
CONTINUOUS
 10
13.2958976778
 20
2.5483073449
 11
13.2958976778
 21
2.5349523375
  0
LINE
  5
2DB
100
AcDbEntity
  8
0
100
AcDbLine
 62
7
  6
CONTINUOUS
 10
12.3907841758
 20
2.5410923409
 11
12.3990241804
 21
2.5458683435
  0
LINE
  5
2DC
100
AcDbEntity
  8
0
100
AcDbLine
 62
7
  6
CONTINUOUS
 10
13.3247706938
 20
2.5565573495
 11
13.3247706938
 21
2.564807354
  0
LINE
  5
2DD
100
AcDbEntity
  8
0
100
AcDbLine
 62
7
  6
CONTINUOUS
 10
13.3257346943
 20
2.5184523283
 11
13.3257346943
 21
2.5267023329
  0
LINE
  5
2DE
100
AcDbEntity
  8
0
100
AcDbLine
 62
7
  6
CONTINUOUS
 10
13.3715847197
 20
2.5895573678
 11
13.3715847197
 21
2.5565573495
  0
LINE
  5
2DF
100
AcDbEntity
  8
0
100
AcDbLine
 62
7
  6
CONTINUOUS
 10
13.3730037205
 20
2.5267023329
 11
13.3730037205
 21
2.4937023146
  0
LINE
  5
2E0
100
AcDbEntity
  8
0
100
AcDbLine
 62
7
  6
CONTINUOUS
 10
13.3969577338
 20
2.4937023146
 11
13.3969577338
 21
2.5135023256
  0
LINE
  5
2E1
100
AcDbEntity
  8
0
100
AcDbLine
 62
7
  6
CONTINUOUS
 10
13.3969577338
 20
2.5697573568
 11
13.3969577338
 21
2.5895573678
  0
LINE
  5
2E2
100
AcDbEntity
  8
0
100
AcDbLine
 62
7
  6
CONTINUOUS
 10
13.4246537492
 20
2.5184523283
 11
13.4246537492
 21
2.564807354
  0
LINE
  5
2E3
100
AcDbEntity
  8
0
100
AcDbLine
 62
7
  6
CONTINUOUS
 10
13.4858697831
 20
2.5281293337
 11
13.4858697831
 21
2.5184303283
  0
LINE
  5
2E4
100
AcDbEntity
  8
0
100
AcDbLine
 62
7
  6
CONTINUOUS
 10
13.4858697831
 20
2.552082347
 11
13.4858697831
 21
2.564807354
  0
LINE
  5
2E5
100
AcDbEntity
  8
0
100
AcDbLine
 62
7
  6
CONTINUOUS
 10
13.5154787995
 20
2.5134803256
 11
13.5154787995
 21
2.4937023146
  0
LINE
  5
2E6
100
AcDbEntity
  8
0
100
AcDbLine
 62
7
  6
CONTINUOUS
 10
13.6146708546
 20
2.525013332
 11
13.6146708546
 21
2.5276393334
  0
LINE
  5
2E7
100
AcDbEntity
  8
0
100
AcDbLine
 62
7
  6
CONTINUOUS
 10
13.631730864
 20
2.5276393334
 11
13.631730864
 21
2.516087327
  0
LINE
  5
2E8
100
AcDbEntity
  8
0
100
AcDbLine
 62
7
  6
CONTINUOUS
 10
13.7286871589
 20
2.5350697372
 11
13.7286871589
 21
2.5456869438
  0
LINE
  5
2E9
100
AcDbEntity
  8
0
100
AcDbLine
 62
7
  6
CONTINUOUS
 10
12.5112392426
 20
2.5908833685
 11
12.4644392167
 21
2.5171263276
  0
LINE
  5
2EA
100
AcDbEntity
  8
0
100
AcDbLine
 62
7
  6
CONTINUOUS
 10
12.5246402501
 20
2.5655893545
 11
12.5175232461
 21
2.5543723483
  0
LINE
  5
2EB
100
AcDbEntity
  8
0
100
AcDbLine
 62
7
  6
CONTINUOUS
 10
12.5034912383
 20
2.5197783291
 11
12.5090072414
 21
2.5284723339
  0
ARC
  5
2EC
100
AcDbEntity
  8
0
100
AcDbCircle
 62
7
  6
CONTINUOUS
 10
12.7943847649
 20
2.4937027294
 40
0.0024754162
100
AcDbArc
 50
226.3593695813
 51
270.0146919953
  0
ARC
  5
2ED
100
AcDbEntity
  8
0
100
AcDbCircle
 62
7
  6
CONTINUOUS
 10
12.2055050712
 20
2.4937023128
 40
0.0024749995
100
AcDbArc
 50
179.9999571957
 51
270.0000428043
  0
ARC
  5
2EE
100
AcDbEntity
  8
0
100
AcDbCircle
 62
7
  6
CONTINUOUS
 10
12.8685904427
 20
2.4937023128
 40
0.0024749995
100
AcDbArc
 50
269.9999571957
 51
0.0000428043
  0
ARC
  5
2EF
100
AcDbEntity
  8
0
100
AcDbCircle
 62
7
  6
CONTINUOUS
 10
12.7480043758
 20
2.4937023128
 40
0.0024749995
100
AcDbArc
 50
269.9999571957
 51
0.0000428043
  0
ARC
  5
2F0
100
AcDbEntity
  8
0
100
AcDbCircle
 62
7
  6
CONTINUOUS
 10
12.6723403301
 20
2.4937023128
 40
0.0024749995
100
AcDbArc
 50
179.9999571957
 51
270.0000428043
  0
ARC
  5
2F1
100
AcDbEntity
  8
0
100
AcDbCircle
 62
7
  6
CONTINUOUS
 10
12.5371502552
 20
2.4937023128
 40
0.0024749995
100
AcDbArc
 50
179.9999571957
 51
270.0000428043
  0
ARC
  5
2F2
100
AcDbEntity
  8
0
100
AcDbCircle
 62
7
  6
CONTINUOUS
 10
12.6424313172
 20
2.4937023128
 40
0.0024749995
100
AcDbArc
 50
269.9999571957
 51
0.0000428043
  0
ARC
  5
2F3
100
AcDbEntity
  8
0
100
AcDbCircle
 62
7
  6
CONTINUOUS
 10
12.439488201
 20
2.4937023128
 40
0.0024749995
100
AcDbArc
 50
179.9999571957
 51
270.0000428043
  0
ARC
  5
2F4
100
AcDbEntity
  8
0
100
AcDbCircle
 62
7
  6
CONTINUOUS
 10
12.5168642476
 20
2.4937023128
 40
0.0024749995
100
AcDbArc
 50
269.9999571957
 51
0.0000428043
  0
ARC
  5
2F5
100
AcDbEntity
  8
0
100
AcDbCircle
 62
7
  6
CONTINUOUS
 10
12.371573659
 20
2.5302846524
 40
0.061747717
100
AcDbArc
 50
59.5385584989
 51
90.0050977555
  0
ARC
  5
2F6
100
AcDbEntity
  8
0
100
AcDbCircle
 62
7
  6
CONTINUOUS
 10
12.3792298263
 20
2.539634765
 40
0.048483885
100
AcDbArc
 50
273.21763719
 51
303.0749121182
  0
ARC
  5
2F7
100
AcDbEntity
  8
0
100
AcDbCircle
 62
7
  6
CONTINUOUS
 10
12.3931760319
 20
2.5166878286
 40
0.0222174455
100
AcDbArc
 50
4.0793399388
 51
69.834329283
  0
ARC
  5
2F8
100
AcDbEntity
  8
0
100
AcDbCircle
 62
7
  6
CONTINUOUS
 10
12.3940692204
 20
2.5168671561
 40
0.0213072145
100
AcDbArc
 50
303.0488228549
 51
355.7263138674
  0
ARC
  5
2F9
100
AcDbEntity
  8
0
100
AcDbCircle
 62
7
  6
CONTINUOUS
 10
12.400005721
 20
2.5168763464
 40
0.0153945295
100
AcDbArc
 50
354.0454548824
 51
5.1878013979
  0
ARC
  5
2FA
100
AcDbEntity
  8
0
100
AcDbCircle
 62
7
  6
CONTINUOUS
 10
12.3362731456
 20
2.5246398318
 40
0.0086625048
100
AcDbArc
 50
270.0
 51
90.0
  0
ARC
  5
2FB
100
AcDbEntity
  8
0
100
AcDbCircle
 62
7
  6
CONTINUOUS
 10
12.5459747223
 20
2.5271458744
 40
0.0024754602
100
AcDbArc
 50
32.8959418573
 51
89.9875097202
  0
ARC
  5
2FC
100
AcDbEntity
  8
0
100
AcDbCircle
 62
7
  6
CONTINUOUS
 10
12.4623492858
 20
2.5184525273
 40
0.0024752003
100
AcDbArc
 50
269.9983726451
 51
327.602165307
  0
ARC
  5
2FD
100
AcDbEntity
  8
0
100
AcDbCircle
 62
7
  6
CONTINUOUS
 10
12.5110971723
 20
2.5271461342
 40
0.0024752003
100
AcDbArc
 50
89.998372645
 51
147.602165307
  0
ARC
  5
2FE
100
AcDbEntity
  8
0
100
AcDbCircle
 62
7
  6
CONTINUOUS
 10
12.5055811302
 20
2.518452367
 40
0.0024750401
100
AcDbArc
 50
147.6063258011
 51
270.0025305754
  0
ARC
  5
2FF
100
AcDbEntity
  8
0
100
AcDbCircle
 62
7
  6
CONTINUOUS
 10
12.2294470882
 20
2.5184523265
 40
0.0024749995
100
AcDbArc
 50
269.9999571957
 51
0.0000428043
  0
ARC
  5
300
100
AcDbEntity
  8
0
100
AcDbCircle
 62
7
  6
CONTINUOUS
 10
12.2055050712
 20
2.5135023274
 40
0.0024749995
100
AcDbArc
 50
89.9999571957
 51
180.0000428043
  0
ARC
  5
301
100
AcDbEntity
  8
0
100
AcDbCircle
 62
7
  6
CONTINUOUS
 10
12.2949101208
 20
2.530827337
 40
0.0024749995
100
AcDbArc
 50
89.9999571957
 51
180.0000428043
  0
ARC
  5
302
100
AcDbEntity
  8
0
100
AcDbCircle
 62
7
  6
CONTINUOUS
 10
12.2949101208
 20
2.5184523265
 40
0.0024749995
100
AcDbArc
 50
179.9999571957
 51
270.0000428043
  0
ARC
  5
303
100
AcDbEntity
  8
0
100
AcDbCircle
 62
7
  6
CONTINUOUS
 10
12.5371502552
 20
2.5135023274
 40
0.0024749995
100
AcDbArc
 50
89.9999571957
 51
180.0000428043
  0
ARC
  5
304
100
AcDbEntity
  8
0
100
AcDbCircle
 62
7
  6
CONTINUOUS
 10
12.439488201
 20
2.5135023274
 40
0.0024749995
100
AcDbArc
 50
89.9999571957
 51
180.0000428043
  0
ARC
  5
305
100
AcDbEntity
  8
0
100
AcDbCircle
 62
7
  6
CONTINUOUS
 10
12.5168642476
 20
2.5135023274
 40
0.0024749995
100
AcDbArc
 50
359.9999571957
 51
90.0000428043
  0
ARC
  5
306
100
AcDbEntity
  8
0
100
AcDbCircle
 62
7
  6
CONTINUOUS
 10
12.3771587979
 20
2.5826952352
 40
0.0428289026
100
AcDbArc
 50
300.6990502959
 51
319.0591802498
  0
ARC
  5
307
100
AcDbEntity
  8
0
100
AcDbCircle
 62
7
  6
CONTINUOUS
 10
12.3922357827
 20
2.5632132173
 40
0.0229166529
100
AcDbArc
 50
20.6563876465
 51
62.3316896973
  0
ARC
  5
308
100
AcDbEntity
  8
0
100
AcDbCircle
 62
7
  6
CONTINUOUS
 10
12.3971873948
 20
2.5665668817
 40
0.0171568255
100
AcDbArc
 50
315.9145124245
 51
16.0049121282
  0
ARC
  5
309
100
AcDbEntity
  8
0
100
AcDbCircle
 62
7
  6
CONTINUOUS
 10
12.3362731456
 20
2.5586198506
 40
0.0086625048
100
AcDbArc
 50
270.0
 51
90.0
  0
ARC
  5
30A
100
AcDbEntity
  8
0
100
AcDbCircle
 62
7
  6
CONTINUOUS
 10
12.532910715
 20
2.564262895
 40
0.0024754602
100
AcDbArc
 50
32.8959418573
 51
89.9875097202
  0
ARC
  5
30B
100
AcDbEntity
  8
0
100
AcDbCircle
 62
7
  6
CONTINUOUS
 10
12.5401702375
 20
2.5530465533
 40
0.0024752071
100
AcDbArc
 50
270.0004896793
 51
32.9089806818
  0
ARC
  5
30C
100
AcDbEntity
  8
0
100
AcDbCircle
 62
7
  6
CONTINUOUS
 10
12.5267301809
 20
2.5642631548
 40
0.0024752003
100
AcDbArc
 50
89.998372645
 51
147.602165307
  0
ARC
  5
30D
100
AcDbEntity
  8
0
100
AcDbCircle
 62
7
  6
CONTINUOUS
 10
12.5133291735
 20
2.5895571688
 40
0.0024752003
100
AcDbArc
 50
89.9983726451
 51
147.602165307
  0
ARC
  5
30E
100
AcDbEntity
  8
0
100
AcDbCircle
 62
7
  6
CONTINUOUS
 10
12.519613138
 20
2.5530463862
 40
0.0024750401
100
AcDbArc
 50
147.6063258012
 51
270.0025305754
  0
ARC
  5
30F
100
AcDbEntity
  8
0
100
AcDbCircle
 62
7
  6
CONTINUOUS
 10
12.2055050712
 20
2.5895573696
 40
0.0024749995
100
AcDbArc
 50
89.9999571957
 51
180.0000428043
  0
ARC
  5
310
100
AcDbEntity
  8
0
100
AcDbCircle
 62
7
  6
CONTINUOUS
 10
12.2055050712
 20
2.5697573549
 40
0.0024749995
100
AcDbArc
 50
179.9999571957
 51
270.0000428043
  0
ARC
  5
311
100
AcDbEntity
  8
0
100
AcDbCircle
 62
7
  6
CONTINUOUS
 10
12.2294470882
 20
2.5648073559
 40
0.0024749995
100
AcDbArc
 50
359.9999571957
 51
90.0000428043
  0
ARC
  5
312
100
AcDbEntity
  8
0
100
AcDbCircle
 62
7
  6
CONTINUOUS
 10
12.2949101208
 20
2.5648073559
 40
0.0024749995
100
AcDbArc
 50
89.9999571957
 51
180.0000428043
  0
ARC
  5
313
100
AcDbEntity
  8
0
100
AcDbCircle
 62
7
  6
CONTINUOUS
 10
12.2949101208
 20
2.5524323453
 40
0.0024749995
100
AcDbArc
 50
179.9999571957
 51
270.0000428043
  0
ARC
  5
314
100
AcDbEntity
  8
0
100
AcDbCircle
 62
7
  6
CONTINUOUS
 10
12.8362481229
 20
2.5358592748
 40
0.0024753014
100
AcDbArc
 50
226.3461263059
 51
0.0014637321
  0
ARC
  5
315
100
AcDbEntity
  8
0
100
AcDbCircle
 62
7
  6
CONTINUOUS
 10
12.7276876627
 20
2.5504984093
 40
0.0024753014
100
AcDbArc
 50
46.3461263059
 51
180.0014637321
  0
ARC
  5
316
100
AcDbEntity
  8
0
100
AcDbCircle
 62
7
  6
CONTINUOUS
 10
12.5516012439
 20
2.5184525341
 40
0.0024752071
100
AcDbArc
 50
270.0004896794
 51
32.9089806818
  0
ARC
  5
317
100
AcDbEntity
  8
0
100
AcDbCircle
 62
7
  6
CONTINUOUS
 10
12.7276873608
 20
2.5184523265
 40
0.0024749995
100
AcDbArc
 50
179.9999571957
 51
270.0000428043
  0
ARC
  5
318
100
AcDbEntity
  8
0
100
AcDbCircle
 62
7
  6
CONTINUOUS
 10
12.7480043758
 20
2.5135023274
 40
0.0024749995
100
AcDbArc
 50
359.9999571957
 51
90.0000428043
  0
ARC
  5
319
100
AcDbEntity
  8
0
100
AcDbCircle
 62
7
  6
CONTINUOUS
 10
12.6723403301
 20
2.5135023274
 40
0.0024749995
100
AcDbArc
 50
89.9999571957
 51
180.0000428043
  0
ARC
  5
31A
100
AcDbEntity
  8
0
100
AcDbCircle
 62
7
  6
CONTINUOUS
 10
12.6909873442
 20
2.5184523265
 40
0.0024749995
100
AcDbArc
 50
269.9999571957
 51
0.0000428043
  0
ARC
  5
31B
100
AcDbEntity
  8
0
100
AcDbCircle
 62
7
  6
CONTINUOUS
 10
12.6424313172
 20
2.5135023274
 40
0.0024749995
100
AcDbArc
 50
359.9999571957
 51
90.0000428043
  0
ARC
  5
31C
100
AcDbEntity
  8
0
100
AcDbCircle
 62
7
  6
CONTINUOUS
 10
12.6224154248
 20
2.518451368
 40
0.002474041
100
AcDbArc
 50
212.9056413127
 51
269.9972091756
  0
ARC
  5
31D
100
AcDbEntity
  8
0
100
AcDbCircle
 62
7
  6
CONTINUOUS
 10
12.8362484247
 20
2.5648073559
 40
0.0024749995
100
AcDbArc
 50
359.9999571957
 51
90.0000428043
  0
ARC
  5
31E
100
AcDbEntity
  8
0
100
AcDbCircle
 62
7
  6
CONTINUOUS
 10
12.8174724106
 20
2.5697573549
 40
0.0024749995
100
AcDbArc
 50
179.9999571957
 51
270.0000428043
  0
ARC
  5
31F
100
AcDbEntity
  8
0
100
AcDbCircle
 62
7
  6
CONTINUOUS
 10
12.8174724106
 20
2.5895573696
 40
0.0024749995
100
AcDbArc
 50
89.9999571957
 51
180.0000428043
  0
ARC
  5
320
100
AcDbEntity
  8
0
100
AcDbCircle
 62
7
  6
CONTINUOUS
 10
12.8914734553
 20
2.5895573696
 40
0.0024749995
100
AcDbArc
 50
359.9999571957
 51
90.0000428043
  0
ARC
  5
321
100
AcDbEntity
  8
0
100
AcDbCircle
 62
7
  6
CONTINUOUS
 10
12.8914734553
 20
2.5697573549
 40
0.0024749995
100
AcDbArc
 50
269.9999571957
 51
0.0000428043
  0
ARC
  5
322
100
AcDbEntity
  8
0
100
AcDbCircle
 62
7
  6
CONTINUOUS
 10
12.8735404417
 20
2.5648073559
 40
0.0024749995
100
AcDbArc
 50
89.9999571957
 51
180.0000428043
  0
ARC
  5
323
100
AcDbEntity
  8
0
100
AcDbCircle
 62
7
  6
CONTINUOUS
 10
12.6909873442
 20
2.5648073559
 40
0.0024749995
100
AcDbArc
 50
359.9999571957
 51
90.0000428043
  0
ARC
  5
324
100
AcDbEntity
  8
0
100
AcDbCircle
 62
7
  6
CONTINUOUS
 10
12.6723403301
 20
2.5697573549
 40
0.0024749995
100
AcDbArc
 50
179.9999571957
 51
270.0000428043
  0
ARC
  5
325
100
AcDbEntity
  8
0
100
AcDbCircle
 62
7
  6
CONTINUOUS
 10
12.6723403301
 20
2.5895573696
 40
0.0024749995
100
AcDbArc
 50
89.9999571957
 51
180.0000428043
  0
ARC
  5
326
100
AcDbEntity
  8
0
100
AcDbCircle
 62
7
  6
CONTINUOUS
 10
12.570504655
 20
2.589557409
 40
0.0024749602
100
AcDbArc
 50
32.9172174468
 51
90.0087853097
  0
ARC
  5
327
100
AcDbEntity
  8
0
100
AcDbCircle
 62
7
  6
CONTINUOUS
 10
12.7727985224
 20
2.5895582013
 40
0.0024741678
100
AcDbArc
 50
46.3477981899
 51
90.0031206038
  0
ARC
  5
328
100
AcDbEntity
  8
0
100
AcDbCircle
 62
7
  6
CONTINUOUS
 10
13.5463505148
 20
2.4094934586
 40
0.1825583387
100
AcDbArc
 50
79.8618509324
 51
89.1640948679
  0
ARC
  5
329
100
AcDbEntity
  8
0
100
AcDbCircle
 62
7
  6
CONTINUOUS
 10
13.5282557878
 20
2.4386010294
 40
0.117346916
100
AcDbArc
 50
58.614769177
 51
62.3737227606
  0
ARC
  5
32A
100
AcDbEntity
  8
0
100
AcDbCircle
 62
7
  6
CONTINUOUS
 10
13.5571178432
 20
2.509473798
 40
0.0459185159
100
AcDbArc
 50
15.6740290068
 51
20.9917271228
  0
ARC
  5
32B
100
AcDbEntity
  8
0
100
AcDbCircle
 62
7
  6
CONTINUOUS
 10
13.4974076135
 20
2.5055452462
 40
0.0396099176
100
AcDbArc
 50
14.3201081283
 51
22.4984722084
  0
ARC
  5
32C
100
AcDbEntity
  8
0
100
AcDbCircle
 62
7
  6
CONTINUOUS
 10
13.5161192671
 20
2.5062372524
 40
0.0243676582
100
AcDbArc
 50
63.3666028271
 51
90.3937697637
  0
ARC
  5
32D
100
AcDbEntity
  8
0
100
AcDbCircle
 62
7
  6
CONTINUOUS
 10
13.6036139387
 20
2.5111006186
 40
0.0198837666
100
AcDbArc
 50
271.8586572978
 51
289.4131338543
  0
ARC
  5
32E
100
AcDbEntity
  8
0
100
AcDbCircle
 62
7
  6
CONTINUOUS
 10
13.5577001432
 20
2.5085494649
 40
0.0173408616
100
AcDbArc
 50
232.4713476722
 51
267.338189944
  0
ARC
  5
32F
100
AcDbEntity
  8
0
100
AcDbCircle
 62
7
  6
CONTINUOUS
 10
13.5130038
 20
2.4937023128
 40
0.0024749995
100
AcDbArc
 50
269.9999571957
 51
0.0000428043
  0
ARC
  5
330
100
AcDbEntity
  8
0
100
AcDbCircle
 62
7
  6
CONTINUOUS
 10
13.3994327333
 20
2.4937023128
 40
0.0024749995
100
AcDbArc
 50
179.9999571957
 51
270.0000428043
  0
ARC
  5
331
100
AcDbEntity
  8
0
100
AcDbCircle
 62
7
  6
CONTINUOUS
 10
13.1168435803
 20
2.4937023128
 40
0.0024749995
100
AcDbArc
 50
269.9999571957
 51
0.0000428043
  0
ARC
  5
332
100
AcDbEntity
  8
0
100
AcDbCircle
 62
7
  6
CONTINUOUS
 10
12.9962575135
 20
2.4937023128
 40
0.0024749995
100
AcDbArc
 50
269.9999571957
 51
0.0000428043
  0
ARC
  5
333
100
AcDbEntity
  8
0
100
AcDbCircle
 62
7
  6
CONTINUOUS
 10
12.9205934678
 20
2.4937023128
 40
0.0024749995
100
AcDbArc
 50
179.9999571957
 51
270.0000428043
  0
ARC
  5
334
100
AcDbEntity
  8
0
100
AcDbCircle
 62
7
  6
CONTINUOUS
 10
13.370528721
 20
2.4937023128
 40
0.0024749995
100
AcDbArc
 50
269.9999571957
 51
0.0000428043
  0
ARC
  5
335
100
AcDbEntity
  8
0
100
AcDbCircle
 62
7
  6
CONTINUOUS
 10
13.1673166046
 20
2.4937023128
 40
0.0024749995
100
AcDbArc
 50
179.9999571957
 51
270.0000428043
  0
ARC
  5
336
100
AcDbEntity
  8
0
100
AcDbCircle
 62
7
  6
CONTINUOUS
 10
13.0426374026
 20
2.493701481
 40
0.0024741678
100
AcDbArc
 50
226.3477981898
 51
270.0031206038
  0
ARC
  5
337
100
AcDbEntity
  8
0
100
AcDbCircle
 62
7
  6
CONTINUOUS
 10
13.0845012605
 20
2.5358592748
 40
0.0024753014
100
AcDbArc
 50
226.3461263059
 51
0.0014637321
  0
ARC
  5
338
100
AcDbEntity
  8
0
100
AcDbCircle
 62
7
  6
CONTINUOUS
 10
12.9759408003
 20
2.5504984093
 40
0.0024753014
100
AcDbArc
 50
46.3461263059
 51
180.0014637321
  0
ARC
  5
339
100
AcDbEntity
  8
0
100
AcDbCircle
 62
7
  6
CONTINUOUS
 10
12.9759404985
 20
2.5184523265
 40
0.0024749995
100
AcDbArc
 50
179.9999571957
 51
270.0000428043
  0
ARC
  5
33A
100
AcDbEntity
  8
0
100
AcDbCircle
 62
7
  6
CONTINUOUS
 10
12.9962575135
 20
2.5135023274
 40
0.0024749995
100
AcDbArc
 50
359.9999571957
 51
90.0000428043
  0
ARC
  5
33B
100
AcDbEntity
  8
0
100
AcDbCircle
 62
7
  6
CONTINUOUS
 10
12.9205934678
 20
2.5135023274
 40
0.0024749995
100
AcDbArc
 50
89.9999571957
 51
180.0000428042
  0
ARC
  5
33C
100
AcDbEntity
  8
0
100
AcDbCircle
 62
7
  6
CONTINUOUS
 10
12.9392394818
 20
2.5184523265
 40
0.0024749995
100
AcDbArc
 50
269.9999571957
 51
0.0000428043
  0
ARC
  5
33D
100
AcDbEntity
  8
0
100
AcDbCircle
 62
7
  6
CONTINUOUS
 10
13.2582556551
 20
2.5300023366
 40
0.0024749995
100
AcDbArc
 50
89.9999571957
 51
180.0000428043
  0
ARC
  5
33E
100
AcDbEntity
  8
0
100
AcDbCircle
 62
7
  6
CONTINUOUS
 10
13.2582556551
 20
2.5184523265
 40
0.0024749995
100
AcDbArc
 50
179.9999571957
 51
270.0000428043
  0
ARC
  5
33F
100
AcDbEntity
  8
0
100
AcDbCircle
 62
7
  6
CONTINUOUS
 10
13.1673166046
 20
2.5135023274
 40
0.0024749995
100
AcDbArc
 50
89.9999571957
 51
180.0000428043
  0
ARC
  5
340
100
AcDbEntity
  8
0
100
AcDbCircle
 62
7
  6
CONTINUOUS
 10
13.1912396216
 20
2.5184523265
 40
0.0024749995
100
AcDbArc
 50
269.9999571957
 51
0.0000428042
  0
ARC
  5
341
100
AcDbEntity
  8
0
100
AcDbCircle
 62
7
  6
CONTINUOUS
 10
13.2582556551
 20
2.5532573458
 40
0.0024749995
100
AcDbArc
 50
179.9999571957
 51
270.0000428043
  0
ARC
  5
342
100
AcDbEntity
  8
0
100
AcDbCircle
 62
7
  6
CONTINUOUS
 10
13.0845015624
 20
2.5648073559
 40
0.0024749995
100
AcDbArc
 50
359.9999571957
 51
90.0000428043
  0
ARC
  5
343
100
AcDbEntity
  8
0
100
AcDbCircle
 62
7
  6
CONTINUOUS
 10
13.0657255483
 20
2.5697573549
 40
0.0024749995
100
AcDbArc
 50
179.9999571957
 51
270.0000428043
  0
ARC
  5
344
100
AcDbEntity
  8
0
100
AcDbCircle
 62
7
  6
CONTINUOUS
 10
13.0657255483
 20
2.5895573696
 40
0.0024749995
100
AcDbArc
 50
89.9999571957
 51
180.0000428043
  0
ARC
  5
345
100
AcDbEntity
  8
0
100
AcDbCircle
 62
7
  6
CONTINUOUS
 10
13.139726593
 20
2.5895573696
 40
0.0024749995
100
AcDbArc
 50
359.9999571957
 51
90.0000428043
  0
ARC
  5
346
100
AcDbEntity
  8
0
100
AcDbCircle
 62
7
  6
CONTINUOUS
 10
13.139726593
 20
2.5697573549
 40
0.0024749995
100
AcDbArc
 50
269.9999571957
 51
0.0000428042
  0
ARC
  5
347
100
AcDbEntity
  8
0
100
AcDbCircle
 62
7
  6
CONTINUOUS
 10
13.1217935794
 20
2.5648073559
 40
0.0024749995
100
AcDbArc
 50
89.9999571957
 51
180.0000428042
  0
ARC
  5
348
100
AcDbEntity
  8
0
100
AcDbCircle
 62
7
  6
CONTINUOUS
 10
12.9392394818
 20
2.5648073559
 40
0.0024749995
100
AcDbArc
 50
359.9999571957
 51
90.0000428043
  0
ARC
  5
349
100
AcDbEntity
  8
0
100
AcDbCircle
 62
7
  6
CONTINUOUS
 10
12.9205934678
 20
2.5697573549
 40
0.0024749995
100
AcDbArc
 50
179.9999571957
 51
270.0000428043
  0
ARC
  5
34A
100
AcDbEntity
  8
0
100
AcDbCircle
 62
7
  6
CONTINUOUS
 10
12.9205934678
 20
2.5895573696
 40
0.0024749995
100
AcDbArc
 50
89.9999571957
 51
180.0000428042
  0
ARC
  5
34B
100
AcDbEntity
  8
0
100
AcDbCircle
 62
7
  6
CONTINUOUS
 10
13.1912396216
 20
2.5648073559
 40
0.0024749995
100
AcDbArc
 50
359.9999571957
 51
90.0000428043
  0
ARC
  5
34C
100
AcDbEntity
  8
0
100
AcDbCircle
 62
7
  6
CONTINUOUS
 10
13.1673166046
 20
2.5697573549
 40
0.0024749995
100
AcDbArc
 50
179.9999571957
 51
270.0000428043
  0
ARC
  5
34D
100
AcDbEntity
  8
0
100
AcDbCircle
 62
7
  6
CONTINUOUS
 10
13.1673166046
 20
2.5895573696
 40
0.0024749995
100
AcDbArc
 50
89.9999571957
 51
180.0000428043
  0
ARC
  5
34E
100
AcDbEntity
  8
0
100
AcDbCircle
 62
7
  6
CONTINUOUS
 10
13.2582556551
 20
2.5648073559
 40
0.0024749995
100
AcDbArc
 50
89.9999571957
 51
180.0000428043
  0
ARC
  5
34F
100
AcDbEntity
  8
0
100
AcDbCircle
 62
7
  6
CONTINUOUS
 10
13.0210516601
 20
2.5895582013
 40
0.0024741678
100
AcDbArc
 50
46.3477981899
 51
90.0031206038
  0
ARC
  5
350
100
AcDbEntity
  8
0
100
AcDbCircle
 62
7
  6
CONTINUOUS
 10
13.5806801742
 20
2.5212486481
 40
0.044722495
100
AcDbArc
 50
195.531588407
 51
204.7624440448
  0
ARC
  5
351
100
AcDbEntity
  8
0
100
AcDbCircle
 62
7
  6
CONTINUOUS
 10
13.5726548052
 20
2.5503169747
 40
0.039319019
100
AcDbArc
 50
59.1202086415
 51
81.4730239328
  0
ARC
  5
352
100
AcDbEntity
  8
0
100
AcDbCircle
 62
7
  6
CONTINUOUS
 10
13.5978759713
 20
2.5286873679
 40
0.0383802683
100
AcDbArc
 50
288.7656836787
 51
309.6104317088
  0
ARC
  5
353
100
AcDbEntity
  8
0
100
AcDbCircle
 62
7
  6
CONTINUOUS
 10
13.5783142014
 20
2.5566516438
 40
0.0310192946
100
AcDbArc
 50
34.7540871
 51
62.0879016178
  0
ARC
  5
354
100
AcDbEntity
  8
0
100
AcDbCircle
 62
7
  6
CONTINUOUS
 10
13.5236009174
 20
2.5388278764
 40
0.0284963867
100
AcDbArc
 50
70.3834917948
 51
86.8922743861
  0
ARC
  5
355
100
AcDbEntity
  8
0
100
AcDbCircle
 62
7
  6
CONTINUOUS
 10
13.6048681567
 20
2.5210861501
 40
0.0280715479
100
AcDbArc
 50
308.5071794988
 51
332.24006569
  0
ARC
  5
356
100
AcDbEntity
  8
0
100
AcDbCircle
 62
7
  6
CONTINUOUS
 10
13.5750183849
 20
2.5166552064
 40
0.0266349791
100
AcDbArc
 50
20.3630922153
 51
37.9727053099
  0
ARC
  5
357
100
AcDbEntity
  8
0
100
AcDbCircle
 62
7
  6
CONTINUOUS
 10
13.5761387404
 20
2.5167282896
 40
0.0257145923
100
AcDbArc
 50
39.3804255939
 51
59.0361096173
  0
ARC
  5
358
100
AcDbEntity
  8
0
100
AcDbCircle
 62
7
  6
CONTINUOUS
 10
13.5607987082
 20
2.5143997688
 40
0.0238935861
100
AcDbArc
 50
209.8247607259
 51
235.1255079367
  0
ARC
  5
359
100
AcDbEntity
  8
0
100
AcDbCircle
 62
7
  6
CONTINUOUS
 10
13.6141751675
 20
2.5161916447
 40
0.0175560065
100
AcDbArc
 50
332.2279060967
 51
359.6595469939
  0
ARC
  5
35A
100
AcDbEntity
  8
0
100
AcDbCircle
 62
7
  6
CONTINUOUS
 10
13.5201739219
 20
2.5145168728
 40
0.0151491919
100
AcDbArc
 50
24.098260853
 51
63.0369451818
  0
ARC
  5
35B
100
AcDbEntity
  8
0
100
AcDbCircle
 62
7
  6
CONTINUOUS
 10
13.6156881783
 20
2.525116781
 40
0.0147197649
100
AcDbArc
 50
192.7054516565
 51
206.0594861022
  0
ARC
  5
35C
100
AcDbEntity
  8
0
100
AcDbCircle
 62
7
  6
CONTINUOUS
 10
13.5284605274
 20
2.5518696094
 40
0.0145814632
100
AcDbArc
 50
54.6746025112
 51
71.1660573124
  0
ARC
  5
35D
100
AcDbEntity
  8
0
100
AcDbCircle
 62
7
  6
CONTINUOUS
 10
13.6063292954
 20
2.5296129864
 40
0.0132488022
100
AcDbArc
 50
270.266200055
 51
281.2404888597
  0
ARC
  5
35E
100
AcDbEntity
  8
0
100
AcDbCircle
 62
7
  6
CONTINUOUS
 10
13.6027235414
 20
2.524769508
 40
0.0119498009
100
AcDbArc
 50
340.7883861657
 51
1.1691452593
  0
ARC
  5
35F
100
AcDbEntity
  8
0
100
AcDbCircle
 62
7
  6
CONTINUOUS
 10
13.5295131508
 20
2.5629115009
 40
0.0110815393
100
AcDbArc
 50
306.758405961
 51
320.4502234234
  0
ARC
  5
360
100
AcDbEntity
  8
0
100
AcDbCircle
 62
7
  6
CONTINUOUS
 10
13.6075235364
 20
2.5238762928
 40
0.0073895522
100
AcDbArc
 50
280.8288201977
 51
305.0837508495
  0
ARC
  5
361
100
AcDbEntity
  8
0
100
AcDbCircle
 62
7
  6
CONTINUOUS
 10
13.607924718
 20
2.5230254464
 40
0.0064647042
100
AcDbArc
 50
306.5086174083
 51
340.2162360092
  0
ARC
  5
362
100
AcDbEntity
  8
0
100
AcDbCircle
 62
7
  6
CONTINUOUS
 10
13.5335900184
 20
2.5587235346
 40
0.0060275915
100
AcDbArc
 50
20.9055592135
 51
56.7851676243
  0
ARC
  5
363
100
AcDbEntity
  8
0
100
AcDbCircle
 62
7
  6
CONTINUOUS
 10
13.533683767
 20
2.559677593
 40
0.0058087709
100
AcDbArc
 50
318.8515287446
 51
353.6422345323
  0
ARC
  5
364
100
AcDbEntity
  8
0
100
AcDbCircle
 62
7
  6
CONTINUOUS
 10
13.6071938412
 20
2.5209082945
 40
0.0052403997
100
AcDbArc
 50
205.5232099488
 51
227.5054868079
  0
ARC
  5
365
100
AcDbEntity
  8
0
100
AcDbCircle
 62
7
  6
CONTINUOUS
 10
13.5348905773
 20
2.5593838168
 40
0.0045795888
100
AcDbArc
 50
355.6235353944
 51
18.9942678268
  0
ARC
  5
366
100
AcDbEntity
  8
0
100
AcDbCircle
 62
7
  6
CONTINUOUS
 10
13.6054655419
 20
2.5190929218
 40
0.0027347709
100
AcDbArc
 50
228.5117626737
 51
266.1485845754
  0
ARC
  5
367
100
AcDbEntity
  8
0
100
AcDbCircle
 62
7
  6
CONTINUOUS
 10
13.4883447827
 20
2.5281293355
 40
0.0024749995
100
AcDbArc
 50
89.9999571957
 51
180.0000428043
  0
ARC
  5
368
100
AcDbEntity
  8
0
100
AcDbCircle
 62
7
  6
CONTINUOUS
 10
13.4883447827
 20
2.5184303265
 40
0.0024749995
100
AcDbArc
 50
179.9999571957
 51
270.0000428043
  0
ARC
  5
369
100
AcDbEntity
  8
0
100
AcDbCircle
 62
7
  6
CONTINUOUS
 10
13.5130038
 20
2.5134803274
 40
0.0024749995
100
AcDbArc
 50
359.9999571957
 51
90.0000428043
  0
ARC
  5
36A
100
AcDbEntity
  8
0
100
AcDbCircle
 62
7
  6
CONTINUOUS
 10
13.3994327333
 20
2.5135023274
 40
0.0024749995
100
AcDbArc
 50
89.9999571957
 51
180.0000428043
  0
ARC
  5
36B
100
AcDbEntity
  8
0
100
AcDbCircle
 62
7
  6
CONTINUOUS
 10
13.4221787497
 20
2.5184523265
 40
0.0024749995
100
AcDbArc
 50
269.9999571957
 51
0.0000428042
  0
ARC
  5
36C
100
AcDbEntity
  8
0
100
AcDbCircle
 62
7
  6
CONTINUOUS
 10
13.6171458541
 20
2.5276393353
 40
0.0024749995
100
AcDbArc
 50
89.9999571957
 51
180.0000428043
  0
ARC
  5
36D
100
AcDbEntity
  8
0
100
AcDbCircle
 62
7
  6
CONTINUOUS
 10
13.6292558645
 20
2.5276393353
 40
0.0024749995
100
AcDbArc
 50
359.9999571957
 51
90.0000428043
  0
ARC
  5
36E
100
AcDbEntity
  8
0
100
AcDbCircle
 62
7
  6
CONTINUOUS
 10
13.4883447827
 20
2.5520823451
 40
0.0024749995
100
AcDbArc
 50
179.9999571957
 51
270.0000428043
  0
ARC
  5
36F
100
AcDbEntity
  8
0
100
AcDbCircle
 62
7
  6
CONTINUOUS
 10
13.3232596948
 20
2.5184523265
 40
0.0024749995
100
AcDbArc
 50
269.9999571957
 51
0.0000428043
  0
ARC
  5
370
100
AcDbEntity
  8
0
100
AcDbCircle
 62
7
  6
CONTINUOUS
 10
13.3282096938
 20
2.5267023348
 40
0.0024749995
100
AcDbArc
 50
89.9999571957
 51
180.0000428043
  0
ARC
  5
371
100
AcDbEntity
  8
0
100
AcDbCircle
 62
7
  6
CONTINUOUS
 10
13.370528721
 20
2.5267023348
 40
0.0024749995
100
AcDbArc
 50
359.9999571957
 51
90.0000428043
  0
ARC
  5
372
100
AcDbEntity
  8
0
100
AcDbCircle
 62
7
  6
CONTINUOUS
 10
13.3691097202
 20
2.5565573476
 40
0.0024749995
100
AcDbArc
 50
269.9999571957
 51
0.0000428042
  0
ARC
  5
373
100
AcDbEntity
  8
0
100
AcDbCircle
 62
7
  6
CONTINUOUS
 10
13.3272456933
 20
2.5565573476
 40
0.0024749995
100
AcDbArc
 50
179.9999571957
 51
270.0000428043
  0
ARC
  5
374
100
AcDbEntity
  8
0
100
AcDbCircle
 62
7
  6
CONTINUOUS
 10
13.2934226783
 20
2.5483073467
 40
0.0024749995
100
AcDbArc
 50
359.9999571957
 51
90.0000428043
  0
ARC
  5
375
100
AcDbEntity
  8
0
100
AcDbCircle
 62
7
  6
CONTINUOUS
 10
13.2934226783
 20
2.5349523356
 40
0.0024749995
100
AcDbArc
 50
269.9999571957
 51
0.0000428042
  0
ARC
  5
376
100
AcDbEntity
  8
0
100
AcDbCircle
 62
7
  6
CONTINUOUS
 10
13.5519569538
 20
2.6152551345
 40
0.0789082104
100
AcDbArc
 50
292.906155071
 51
305.2574666259
  0
ARC
  5
377
100
AcDbEntity
  8
0
100
AcDbCircle
 62
7
  6
CONTINUOUS
 10
13.5822888914
 20
2.5720482849
 40
0.0261183659
100
AcDbArc
 50
305.6373831893
 51
329.9727629745
  0
ARC
  5
378
100
AcDbEntity
  8
0
100
AcDbCircle
 62
7
  6
CONTINUOUS
 10
13.5219564542
 20
2.5750459767
 40
0.0254407115
100
AcDbArc
 50
270.7327484175
 51
290.441894219
  0
ARC
  5
379
100
AcDbEntity
  8
0
100
AcDbCircle
 62
7
  6
CONTINUOUS
 10
13.5238839599
 20
2.5706523294
 40
0.0206523367
100
AcDbArc
 50
289.6883413472
 51
306.4184925496
  0
ARC
  5
37A
100
AcDbEntity
  8
0
100
AcDbCircle
 62
7
  6
CONTINUOUS
 10
13.5900029525
 20
2.565201245
 40
0.0165459396
100
AcDbArc
 50
1.548452892
 51
33.5033152417
  0
ARC
  5
37B
100
AcDbEntity
  8
0
100
AcDbCircle
 62
7
  6
CONTINUOUS
 10
13.5932995477
 20
2.5653696972
 40
0.0132462337
100
AcDbArc
 50
331.1510006998
 51
1.205404301
  0
ARC
  5
37C
100
AcDbEntity
  8
0
100
AcDbCircle
 62
7
  6
CONTINUOUS
 10
13.4221787497
 20
2.5648073559
 40
0.0024749995
100
AcDbArc
 50
359.9999571957
 51
90.0000428043
  0
ARC
  5
37D
100
AcDbEntity
  8
0
100
AcDbCircle
 62
7
  6
CONTINUOUS
 10
13.3994327333
 20
2.5697573549
 40
0.0024749995
100
AcDbArc
 50
179.9999571957
 51
270.0000428043
  0
ARC
  5
37E
100
AcDbEntity
  8
0
100
AcDbCircle
 62
7
  6
CONTINUOUS
 10
13.3994327333
 20
2.5895573696
 40
0.0024749995
100
AcDbArc
 50
89.9999571957
 51
180.0000428043
  0
ARC
  5
37F
100
AcDbEntity
  8
0
100
AcDbCircle
 62
7
  6
CONTINUOUS
 10
13.4883447827
 20
2.5648073559
 40
0.0024749995
100
AcDbArc
 50
89.9999571957
 51
180.0000428043
  0
ARC
  5
380
100
AcDbEntity
  8
0
100
AcDbCircle
 62
7
  6
CONTINUOUS
 10
13.3691097202
 20
2.5895573696
 40
0.0024749995
100
AcDbArc
 50
359.9999571957
 51
90.0000428043
  0
ARC
  5
381
100
AcDbEntity
  8
0
100
AcDbCircle
 62
7
  6
CONTINUOUS
 10
13.3222956943
 20
2.5648073559
 40
0.0024749995
100
AcDbArc
 50
359.9999571957
 51
90.0000428043
  0
ELLIPSE
  5
382
100
AcDbEntity
  8
0
100
AcDbEllipse
 62
7
  6
CONTINUOUS
 10
12.9046654608
 20
2.5403783405
 30
0.0
 11
-0.8250004575
 21
0.0
 31
0.0
 40
0.218572
 41
0.0
 42
6.2831853072
  0
HATCH
  5
383
100
AcDbEntity
  8
0
100
AcDbHatch
 62
7
  6
CONTINUOUS
 10
0.0
 20
0.0
 30
0.0
210
0.0
220
0.0
230
1.0
  2
XSEC0001
 70
1
 71
1
 91
11
 92
1
 93
57
 72
2
 10
13.5577001432
 20
2.5085494649
 40
0.0173408616
 50
232.4713476722
 51
267.338189944
 73
1
 72
2
 10
13.5607987082
 20
2.5143997688
 40
0.0238935861
 50
209.8247607259
 51
235.1255079367
 73
1
 72
2
 10
13.5806801742
 20
2.5212486481
 40
0.044722495
 50
195.531588407
 51
204.7624440448
 73
1
 72
1
 10
13.5375908118
 20
2.5092733232
 11
13.5357868108
 21
2.5153423266
 72
2
 10
13.4974076135
 20
2.5055452462
 40
0.0396099176
 50
14.3201081283
 51
22.4984722084
 73
1
 72
2
 10
13.5201739219
 20
2.5145168728
 40
0.0151491919
 50
24.098260853
 51
63.0369451818
 73
1
 72
2
 10
13.5161192671
 20
2.5062372524
 40
0.0243676582
 50
63.3666028271
 51
90.3937697637
 73
1
 72
1
 10
13.5159517998
 20
2.5306043351
 11
13.4883447845
 21
2.5306043351
 72
2
 10
13.4883447827
 20
2.5281293355
 40
0.0024749995
 50
89.9999571958
 51
180.0000428043
 73
1
 72
1
 10
13.4858697831
 20
2.5281293337
 11
13.4858697831
 21
2.5184303283
 72
2
 10
13.4883447827
 20
2.5184303265
 40
0.0024749995
 50
179.9999571957
 51
270.0000428042
 73
1
 72
1
 10
13.4883447845
 20
2.5159553269
 11
13.5130037982
 21
2.5159553269
 72
2
 10
13.5130038
 20
2.5134803274
 40
0.0024749995
 50
359.9999571957
 51
90.0000428042
 73
1
 72
1
 10
13.5154787995
 20
2.5134803256
 11
13.5154787995
 21
2.4937023146
 72
2
 10
13.5130038
 20
2.4937023128
 40
0.0024749995
 50
269.9999571958
 51
0.0000428043
 73
1
 72
1
 10
13.5130037982
 20
2.4912273132
 11
13.3994327352
 21
2.4912273132
 72
2
 10
13.3994327333
 20
2.4937023128
 40
0.0024749995
 50
179.9999571957
 51
270.0000428043
 73
1
 72
1
 10
13.3969577338
 20
2.4937023146
 11
13.3969577338
 21
2.5135023256
 72
2
 10
13.3994327333
 20
2.5135023274
 40
0.0024749995
 50
89.9999571957
 51
180.0000428043
 73
1
 72
1
 10
13.3994327352
 20
2.515977327
 11
13.4221787478
 21
2.515977327
 72
2
 10
13.4221787497
 20
2.5184523265
 40
0.0024749995
 50
269.9999571956
 51
0.0000428042
 73
1
 72
1
 10
13.4246537492
 20
2.5184523283
 11
13.4246537492
 21
2.564807354
 72
2
 10
13.4221787497
 20
2.5648073559
 40
0.0024749995
 50
359.9999571957
 51
90.0000428043
 73
1
 72
1
 10
13.4221787478
 20
2.5672823554
 11
13.3994327352
 21
2.5672823554
 72
2
 10
13.3994327333
 20
2.5697573549
 40
0.0024749995
 50
179.9999571957
 51
270.0000428043
 73
1
 72
1
 10
13.3969577338
 20
2.5697573568
 11
13.3969577338
 21
2.5895573678
 72
2
 10
13.3994327333
 20
2.5895573696
 40
0.0024749995
 50
89.9999571957
 51
180.0000428043
 73
1
 72
1
 10
13.3994327352
 20
2.5920323691
 11
13.5490138181
 21
2.5920323691
 72
2
 10
13.5463505148
 20
2.4094934586
 40
0.1825583387
 50
79.8618509324
 51
89.1640948679
 73
1
 72
2
 10
13.5726548052
 20
2.5503169747
 40
0.039319019
 50
59.1202086415
 51
81.4730239328
 73
1
 72
2
 10
13.5783142014
 20
2.5566516438
 40
0.0310192946
 50
34.7540871
 51
62.0879016178
 73
1
 72
2
 10
13.5900029525
 20
2.565201245
 40
0.0165459396
 50
1.548452892
 51
33.5033152417
 73
1
 72
2
 10
13.5932995477
 20
2.5653696972
 40
0.0132462337
 50
331.1510006998
 51
1.205404301
 73
1
 72
2
 10
13.5822888914
 20
2.5720482849
 40
0.0261183659
 50
305.6373831893
 51
329.9727629745
 73
1
 72
2
 10
13.5519569538
 20
2.6152551345
 40
0.0789082104
 50
292.906155071
 51
305.2574666259
 73
1
 72
2
 10
13.5282557878
 20
2.4386010294
 40
0.117346916
 50
58.614769177
 51
62.3737227606
 73
1
 72
2
 10
13.5761387404
 20
2.5167282896
 40
0.0257145923
 50
39.3804255939
 51
59.0361096173
 73
1
 72
2
 10
13.5750183849
 20
2.5166552064
 40
0.0266349791
 50
20.3630922153
 51
37.9727053099
 73
1
 72
2
 10
13.5571178432
 20
2.509473798
 40
0.0459185159
 50
15.6740290068
 51
20.9917271228
 73
1
 72
2
 10
13.6156881783
 20
2.525116781
 40
0.0147197649
 50
192.7054516565
 51
206.0594861022
 73
1
 72
2
 10
13.6071938412
 20
2.5209082945
 40
0.0052403997
 50
205.5232099488
 51
227.5054868079
 73
1
 72
2
 10
13.6054655419
 20
2.5190929218
 40
0.0027347709
 50
228.5117626737
 51
266.1485845754
 73
1
 72
1
 10
13.6052818493
 20
2.5163643272
 11
13.60639085
 21
2.5163643272
 72
2
 10
13.6063292954
 20
2.5296129864
 40
0.0132488022
 50
270.266200055
 51
281.2404888597
 73
1
 72
2
 10
13.6075235364
 20
2.5238762928
 40
0.0073895522
 50
280.8288201977
 51
305.0837508495
 73
1
 72
2
 10
13.607924718
 20
2.5230254464
 40
0.0064647042
 50
306.5086174083
 51
340.2162360092
 73
1
 72
2
 10
13.6027235414
 20
2.524769508
 40
0.0119498009
 50
340.7883861657
 51
1.1691452593
 73
1
 72
1
 10
13.6146708546
 20
2.525013332
 11
13.6146708546
 21
2.5276393334
 72
2
 10
13.6171458541
 20
2.5276393353
 40
0.0024749995
 50
89.9999571958
 51
180.0000428043
 73
1
 72
1
 10
13.6171458559
 20
2.5301143348
 11
13.6292558626
 21
2.5301143348
 72
2
 10
13.6292558645
 20
2.5276393353
 40
0.0024749995
 50
359.9999571957
 51
90.0000428042
 73
1
 72
1
 10
13.631730864
 20
2.5276393334
 11
13.631730864
 21
2.516087327
 72
2
 10
13.6141751675
 20
2.5161916447
 40
0.0175560065
 50
332.2279060967
 51
359.6595469939
 73
1
 72
2
 10
13.6048681567
 20
2.5210861501
 40
0.0280715479
 50
308.5071794988
 51
332.2400656899
 73
1
 72
2
 10
13.5978759713
 20
2.5286873679
 40
0.0383802683
 50
288.7656836787
 51
309.6104317088
 73
1
 72
2
 10
13.6036139387
 20
2.5111006186
 40
0.0198837666
 50
271.8586572978
 51
289.4131338543
 73
1
 72
1
 10
13.6042588488
 20
2.4912273132
 11
13.5568948225
 21
2.4912273132
 97
267
330
278
330
279
330
27A
330
27B
330
27C
330
27D
330
27E
330
27F
330
280
330
281
330
282
330
283
330
284
330
285
330
286
330
287
330
288
330
289
330
28A
330
28B
330
28C
330
28D
330
28E
330
28F
330
290
330
291
330
292
330
293
330
294
330
295
330
296
330
297
330
298
330
299
330
29A
330
29B
330
29C
330
29D
330
29E
330
29F
330
2A0
330
2A1
330
2A2
330
2A3
330
2A4
330
2A5
330
2A6
330
2A7
330
2A8
330
2A9
330
2AA
330
2AB
330
2AC
330
2AD
330
2AE
330
2AF
330
2B0
330
2B1
330
2B2
330
2B3
330
2B4
330
2B5
330
2B6
330
2B7
330
2B8
330
2B9
330
2BA
330
2BB
330
2BC
330
2BD
330
2BE
330
2BF
330
2C0
330
2C1
330
2C2
330
2C3
330
2C4
330
2C5
330
2C6
330
2C7
330
2C8
330
2C9
330
2CA
330
2CB
330
2CC
330
2CD
330
2CE
330
2CF
330
2D0
330
2D1
330
2D2
330
2D3
330
2D4
330
2D5
330
2D6
330
2D7
330
2D8
330
2D9
330
2DA
330
2DB
330
2DC
330
2DD
330
2DE
330
2DF
330
2E0
330
2E1
330
2E2
330
2E3
330
2E4
330
2E5
330
2E6
330
2E7
330
2E8
330
2E9
330
2EA
330
2EB
330
2EC
330
2ED
330
2EE
330
2EF
330
2F0
330
2F1
330
2F2
330
2F3
330
2F4
330
2F5
330
2F6
330
2F7
330
2F8
330
2F9
330
2FA
330
2FB
330
2FC
330
2FD
330
2FE
330
2FF
330
300
330
301
330
302
330
303
330
304
330
305
330
306
330
307
330
308
330
309
330
30A
330
30B
330
30C
330
30D
330
30E
330
30F
330
310
330
311
330
312
330
313
330
314
330
315
330
316
330
317
330
318
330
319
330
31A
330
31B
330
31C
330
31D
330
31E
330
31F
330
320
330
321
330
322
330
323
330
324
330
325
330
326
330
327
330
328
330
329
330
32A
330
32B
330
32C
330
32D
330
32E
330
32F
330
330
330
331
330
332
330
333
330
334
330
335
330
336
330
337
330
338
330
339
330
33A
330
33B
330
33C
330
33D
330
33E
330
33F
330
340
330
341
330
342
330
343
330
344
330
345
330
346
330
347
330
348
330
349
330
34A
330
34B
330
34C
330
34D
330
34E
330
34F
330
350
330
351
330
352
330
353
330
354
330
355
330
356
330
357
330
358
330
359
330
35A
330
35B
330
35C
330
35D
330
35E
330
35F
330
360
330
361
330
362
330
363
330
364
330
365
330
366
330
367
330
368
330
369
330
36A
330
36B
330
36C
330
36D
330
36E
330
36F
330
370
330
371
330
372
330
373
330
374
330
375
330
376
330
377
330
378
330
379
330
37A
330
37B
330
37C
330
37D
330
37E
330
37F
330
380
330
381
330
382
 92
1
 93
40
 72
2
 10
13.1673166046
 20
2.4937023128
 40
0.0024749995
 50
179.9999571957
 51
270.0000428042
 73
1
 72
1
 10
13.1648416051
 20
2.4937023146
 11
13.1648416051
 21
2.5135023256
 72
2
 10
13.1673166046
 20
2.5135023274
 40
0.0024749995
 50
89.9999571958
 51
180.0000428043
 73
1
 72
1
 10
13.1673166065
 20
2.515977327
 11
13.1912396197
 21
2.515977327
 72
2
 10
13.1912396216
 20
2.5184523265
 40
0.0024749995
 50
269.9999571956
 51
0.0000428042
 73
1
 72
1
 10
13.1937146211
 20
2.5184523283
 11
13.1937146211
 21
2.564807354
 72
2
 10
13.1912396216
 20
2.5648073559
 40
0.0024749995
 50
359.9999571957
 51
90.0000428043
 73
1
 72
1
 10
13.1912396197
 20
2.5672823554
 11
13.1673166065
 21
2.5672823554
 72
2
 10
13.1673166046
 20
2.5697573549
 40
0.0024749995
 50
179.9999571957
 51
270.0000428043
 73
1
 72
1
 10
13.1648416051
 20
2.5697573568
 11
13.1648416051
 21
2.5895573678
 72
2
 10
13.1673166046
 20
2.5895573696
 40
0.0024749995
 50
89.9999571958
 51
180.0000428043
 73
1
 72
1
 10
13.1673166065
 20
2.5920323691
 11
13.3691097184
 21
2.5920323691
 72
2
 10
13.3691097202
 20
2.5895573696
 40
0.0024749995
 50
359.9999571957
 51
90.0000428042
 73
1
 72
1
 10
13.3715847197
 20
2.5895573678
 11
13.3715847197
 21
2.5565573495
 72
2
 10
13.3691097202
 20
2.5565573476
 40
0.0024749995
 50
269.9999571956
 51
0.0000428042
 73
1
 72
1
 10
13.3691097184
 20
2.5540823481
 11
13.3272456952
 21
2.5540823481
 72
2
 10
13.3272456933
 20
2.5565573476
 40
0.0024749995
 50
179.9999571957
 51
270.0000428043
 73
1
 72
1
 10
13.3247706938
 20
2.5565573495
 11
13.3247706938
 21
2.564807354
 72
2
 10
13.3222956943
 20
2.5648073559
 40
0.0024749995
 50
359.9999571957
 51
90.0000428043
 73
1
 72
1
 10
13.3222956924
 20
2.5672823554
 11
13.2582556569
 21
2.5672823554
 72
2
 10
13.2582556551
 20
2.5648073559
 40
0.0024749995
 50
89.9999571957
 51
180.0000428043
 73
1
 72
1
 10
13.2557806555
 20
2.564807354
 11
13.2557806555
 21
2.5532573476
 72
2
 10
13.2582556551
 20
2.5532573458
 40
0.0024749995
 50
179.9999571957
 51
270.0000428042
 73
1
 72
1
 10
13.2582556569
 20
2.5507823463
 11
13.2934226764
 21
2.5507823463
 72
2
 10
13.2934226783
 20
2.5483073467
 40
0.0024749995
 50
359.9999571957
 51
90.0000428042
 73
1
 72
1
 10
13.2958976778
 20
2.5483073449
 11
13.2958976778
 21
2.5349523375
 72
2
 10
13.2934226783
 20
2.5349523356
 40
0.0024749995
 50
269.9999571956
 51
0.0000428042
 73
1
 72
1
 10
13.2934226764
 20
2.5324773361
 11
13.2582556569
 21
2.5324773361
 72
2
 10
13.2582556551
 20
2.5300023366
 40
0.0024749995
 50
89.9999571957
 51
180.0000428043
 73
1
 72
1
 10
13.2557806555
 20
2.5300023347
 11
13.2557806555
 21
2.5184523283
 72
2
 10
13.2582556551
 20
2.5184523265
 40
0.0024749995
 50
179.9999571957
 51
270.0000428043
 73
1
 72
1
 10
13.2582556569
 20
2.515977327
 11
13.3232596929
 21
2.515977327
 72
2
 10
13.3232596948
 20
2.5184523265
 40
0.0024749995
 50
269.9999571958
 51
0.0000428043
 73
1
 72
1
 10
13.3257346943
 20
2.5184523283
 11
13.3257346943
 21
2.5267023329
 72
2
 10
13.3282096938
 20
2.5267023348
 40
0.0024749995
 50
89.9999571957
 51
180.0000428043
 73
1
 72
1
 10
13.3282096957
 20
2.5291773343
 11
13.3705287192
 21
2.5291773343
 72
2
 10
13.370528721
 20
2.5267023348
 40
0.0024749995
 50
359.9999571957
 51
90.0000428043
 73
1
 72
1
 10
13.3730037205
 20
2.5267023329
 11
13.3730037205
 21
2.4937023146
 72
2
 10
13.370528721
 20
2.4937023128
 40
0.0024749995
 50
269.9999571957
 51
0.0000428043
 73
1
 72
1
 10
13.3705287192
 20
2.4912273132
 11
13.1673166065
 21
2.4912273132
 97
267
330
278
330
279
330
27A
330
27B
330
27C
330
27D
330
27E
330
27F
330
280
330
281
330
282
330
283
330
284
330
285
330
286
330
287
330
288
330
289
330
28A
330
28B
330
28C
330
28D
330
28E
330
28F
330
290
330
291
330
292
330
293
330
294
330
295
330
296
330
297
330
298
330
299
330
29A
330
29B
330
29C
330
29D
330
29E
330
29F
330
2A0
330
2A1
330
2A2
330
2A3
330
2A4
330
2A5
330
2A6
330
2A7
330
2A8
330
2A9
330
2AA
330
2AB
330
2AC
330
2AD
330
2AE
330
2AF
330
2B0
330
2B1
330
2B2
330
2B3
330
2B4
330
2B5
330
2B6
330
2B7
330
2B8
330
2B9
330
2BA
330
2BB
330
2BC
330
2BD
330
2BE
330
2BF
330
2C0
330
2C1
330
2C2
330
2C3
330
2C4
330
2C5
330
2C6
330
2C7
330
2C8
330
2C9
330
2CA
330
2CB
330
2CC
330
2CD
330
2CE
330
2CF
330
2D0
330
2D1
330
2D2
330
2D3
330
2D4
330
2D5
330
2D6
330
2D7
330
2D8
330
2D9
330
2DA
330
2DB
330
2DC
330
2DD
330
2DE
330
2DF
330
2E0
330
2E1
330
2E2
330
2E3
330
2E4
330
2E5
330
2E6
330
2E7
330
2E8
330
2E9
330
2EA
330
2EB
330
2EC
330
2ED
330
2EE
330
2EF
330
2F0
330
2F1
330
2F2
330
2F3
330
2F4
330
2F5
330
2F6
330
2F7
330
2F8
330
2F9
330
2FA
330
2FB
330
2FC
330
2FD
330
2FE
330
2FF
330
300
330
301
330
302
330
303
330
304
330
305
330
306
330
307
330
308
330
309
330
30A
330
30B
330
30C
330
30D
330
30E
330
30F
330
310
330
311
330
312
330
313
330
314
330
315
330
316
330
317
330
318
330
319
330
31A
330
31B
330
31C
330
31D
330
31E
330
31F
330
320
330
321
330
322
330
323
330
324
330
325
330
326
330
327
330
328
330
329
330
32A
330
32B
330
32C
330
32D
330
32E
330
32F
330
330
330
331
330
332
330
333
330
334
330
335
330
336
330
337
330
338
330
339
330
33A
330
33B
330
33C
330
33D
330
33E
330
33F
330
340
330
341
330
342
330
343
330
344
330
345
330
346
330
347
330
348
330
349
330
34A
330
34B
330
34C
330
34D
330
34E
330
34F
330
350
330
351
330
352
330
353
330
354
330
355
330
356
330
357
330
358
330
359
330
35A
330
35B
330
35C
330
35D
330
35E
330
35F
330
360
330
361
330
362
330
363
330
364
330
365
330
366
330
367
330
368
330
369
330
36A
330
36B
330
36C
330
36D
330
36E
330
36F
330
370
330
371
330
372
330
373
330
374
330
375
330
376
330
377
330
378
330
379
330
37A
330
37B
330
37C
330
37D
330
37E
330
37F
330
380
330
381
330
382
 92
1
 93
40
 72
2
 10
13.0426374026
 20
2.493701481
 40
0.0024741678
 50
226.3477981898
 51
270.0031206038
 73
1
 72
1
 10
13.0409295364
 20
2.4919113136
 11
12.9776495013
 21
2.5522893471
 72
2
 10
12.9759408003
 20
2.5504984093
 40
0.0024753014
 50
46.3461263059
 51
180.0014637321
 73
1
 72
1
 10
12.973465499
 20
2.5504983461
 11
12.973465499
 21
2.5184523283
 72
2
 10
12.9759404985
 20
2.5184523265
 40
0.0024749995
 50
179.9999571957
 51
270.0000428043
 73
1
 72
1
 10
12.9759405003
 20
2.515977327
 11
12.9962575116
 21
2.515977327
 72
2
 10
12.9962575135
 20
2.5135023274
 40
0.0024749995
 50
359.9999571957
 51
90.0000428043
 73
1
 72
1
 10
12.998732513
 20
2.5135023256
 11
12.998732513
 21
2.4937023146
 72
2
 10
12.9962575135
 20
2.4937023128
 40
0.0024749995
 50
269.9999571957
 51
0.0000428043
 73
1
 72
1
 10
12.9962575116
 20
2.4912273132
 11
12.9205934696
 21
2.4912273132
 72
2
 10
12.9205934678
 20
2.4937023128
 40
0.0024749995
 50
179.9999571957
 51
270.0000428043
 73
1
 72
1
 10
12.9181184683
 20
2.4937023146
 11
12.9181184683
 21
2.5135023256
 72
2
 10
12.9205934678
 20
2.5135023274
 40
0.0024749995
 50
89.9999571956
 51
180.0000428042
 73
1
 72
1
 10
12.9205934696
 20
2.515977327
 11
12.93923948
 21
2.515977327
 72
2
 10
12.9392394818
 20
2.5184523265
 40
0.0024749995
 50
269.9999571957
 51
0.0000428043
 73
1
 72
1
 10
12.9417144814
 20
2.5184523283
 11
12.9417144814
 21
2.564807354
 72
2
 10
12.9392394818
 20
2.5648073559
 40
0.0024749995
 50
359.9999571957
 51
90.0000428043
 73
1
 72
1
 10
12.93923948
 20
2.5672823554
 11
12.9205934696
 21
2.5672823554
 72
2
 10
12.9205934678
 20
2.5697573549
 40
0.0024749995
 50
179.9999571957
 51
270.0000428043
 73
1
 72
1
 10
12.9181184683
 20
2.5697573568
 11
12.9181184683
 21
2.5895573678
 72
2
 10
12.9205934678
 20
2.5895573696
 40
0.0024749995
 50
89.9999571956
 51
180.0000428042
 73
1
 72
1
 10
12.9205934696
 20
2.5920323691
 11
13.0210515254
 21
2.5920323691
 72
2
 10
13.0210516601
 20
2.5895582013
 40
0.0024741678
 50
46.3477981898
 51
90.0031206038
 73
1
 72
1
 10
13.0227595263
 20
2.5913483688
 11
13.0827925596
 21
2.534068337
 72
2
 10
13.0845012605
 20
2.5358592748
 40
0.0024753014
 50
226.3461263059
 51
0.0014637321
 73
1
 72
1
 10
13.0869765619
 20
2.535859338
 11
13.0869765619
 21
2.564807354
 72
2
 10
13.0845015624
 20
2.5648073559
 40
0.0024749995
 50
359.9999571957
 51
90.0000428043
 73
1
 72
1
 10
13.0845015605
 20
2.5672823554
 11
13.0657255501
 21
2.5672823554
 72
2
 10
13.0657255483
 20
2.5697573549
 40
0.0024749995
 50
179.9999571957
 51
270.0000428043
 73
1
 72
1
 10
13.0632505488
 20
2.5697573568
 11
13.0632505488
 21
2.5895573678
 72
2
 10
13.0657255483
 20
2.5895573696
 40
0.0024749995
 50
89.9999571957
 51
180.0000428043
 73
1
 72
1
 10
13.0657255501
 20
2.5920323691
 11
13.1397265912
 21
2.5920323691
 72
2
 10
13.139726593
 20
2.5895573696
 40
0.0024749995
 50
359.9999571957
 51
90.0000428043
 73
1
 72
1
 10
13.1422015925
 20
2.5895573678
 11
13.1422015925
 21
2.5697573568
 72
2
 10
13.139726593
 20
2.5697573549
 40
0.0024749995
 50
269.9999571956
 51
0.0000428042
 73
1
 72
1
 10
13.1397265912
 20
2.5672823554
 11
13.1217935812
 21
2.5672823554
 72
2
 10
13.1217935794
 20
2.5648073559
 40
0.0024749995
 50
89.9999571957
 51
180.0000428042
 73
1
 72
1
 10
13.1193185799
 20
2.564807354
 11
13.1193185799
 21
2.4937023146
 72
2
 10
13.1168435803
 20
2.4937023128
 40
0.0024749995
 50
269.9999571957
 51
0.0000428043
 73
1
 72
1
 10
13.1168435785
 20
2.4912273132
 11
13.0426375373
 21
2.4912273132
 97
267
330
278
330
279
330
27A
330
27B
330
27C
330
27D
330
27E
330
27F
330
280
330
281
330
282
330
283
330
284
330
285
330
286
330
287
330
288
330
289
330
28A
330
28B
330
28C
330
28D
330
28E
330
28F
330
290
330
291
330
292
330
293
330
294
330
295
330
296
330
297
330
298
330
299
330
29A
330
29B
330
29C
330
29D
330
29E
330
29F
330
2A0
330
2A1
330
2A2
330
2A3
330
2A4
330
2A5
330
2A6
330
2A7
330
2A8
330
2A9
330
2AA
330
2AB
330
2AC
330
2AD
330
2AE
330
2AF
330
2B0
330
2B1
330
2B2
330
2B3
330
2B4
330
2B5
330
2B6
330
2B7
330
2B8
330
2B9
330
2BA
330
2BB
330
2BC
330
2BD
330
2BE
330
2BF
330
2C0
330
2C1
330
2C2
330
2C3
330
2C4
330
2C5
330
2C6
330
2C7
330
2C8
330
2C9
330
2CA
330
2CB
330
2CC
330
2CD
330
2CE
330
2CF
330
2D0
330
2D1
330
2D2
330
2D3
330
2D4
330
2D5
330
2D6
330
2D7
330
2D8
330
2D9
330
2DA
330
2DB
330
2DC
330
2DD
330
2DE
330
2DF
330
2E0
330
2E1
330
2E2
330
2E3
330
2E4
330
2E5
330
2E6
330
2E7
330
2E8
330
2E9
330
2EA
330
2EB
330
2EC
330
2ED
330
2EE
330
2EF
330
2F0
330
2F1
330
2F2
330
2F3
330
2F4
330
2F5
330
2F6
330
2F7
330
2F8
330
2F9
330
2FA
330
2FB
330
2FC
330
2FD
330
2FE
330
2FF
330
300
330
301
330
302
330
303
330
304
330
305
330
306
330
307
330
308
330
309
330
30A
330
30B
330
30C
330
30D
330
30E
330
30F
330
310
330
311
330
312
330
313
330
314
330
315
330
316
330
317
330
318
330
319
330
31A
330
31B
330
31C
330
31D
330
31E
330
31F
330
320
330
321
330
322
330
323
330
324
330
325
330
326
330
327
330
328
330
329
330
32A
330
32B
330
32C
330
32D
330
32E
330
32F
330
330
330
331
330
332
330
333
330
334
330
335
330
336
330
337
330
338
330
339
330
33A
330
33B
330
33C
330
33D
330
33E
330
33F
330
340
330
341
330
342
330
343
330
344
330
345
330
346
330
347
330
348
330
349
330
34A
330
34B
330
34C
330
34D
330
34E
330
34F
330
350
330
351
330
352
330
353
330
354
330
355
330
356
330
357
330
358
330
359
330
35A
330
35B
330
35C
330
35D
330
35E
330
35F
330
360
330
361
330
362
330
363
330
364
330
365
330
366
330
367
330
368
330
369
330
36A
330
36B
330
36C
330
36D
330
36E
330
36F
330
370
330
371
330
372
330
373
330
374
330
375
330
376
330
377
330
378
330
379
330
37A
330
37B
330
37C
330
37D
330
37E
330
37F
330
380
330
381
330
382
 92
1
 93
40
 72
2
 10
12.7943847649
 20
2.4937027294
 40
0.0024754162
 50
226.3593695813
 51
270.0146919953
 73
1
 72
1
 10
12.7926763987
 20
2.4919113136
 11
12.7293963636
 21
2.5522893471
 72
2
 10
12.7276876627
 20
2.5504984093
 40
0.0024753014
 50
46.3461263059
 51
180.0014637321
 73
1
 72
1
 10
12.7252123613
 20
2.5504983461
 11
12.7252123613
 21
2.5184523283
 72
2
 10
12.7276873608
 20
2.5184523265
 40
0.0024749995
 50
179.9999571957
 51
270.0000428043
 73
1
 72
1
 10
12.7276873627
 20
2.515977327
 11
12.7480043739
 21
2.515977327
 72
2
 10
12.7480043758
 20
2.5135023274
 40
0.0024749995
 50
359.9999571957
 51
90.0000428043
 73
1
 72
1
 10
12.7504793753
 20
2.5135023256
 11
12.7504793753
 21
2.4937023146
 72
2
 10
12.7480043758
 20
2.4937023128
 40
0.0024749995
 50
269.9999571958
 51
0.0000428043
 73
1
 72
1
 10
12.7480043739
 20
2.4912273132
 11
12.672340332
 21
2.4912273132
 72
2
 10
12.6723403301
 20
2.4937023128
 40
0.0024749995
 50
179.9999571957
 51
270.0000428042
 73
1
 72
1
 10
12.6698653306
 20
2.4937023146
 11
12.6698653306
 21
2.5135023256
 72
2
 10
12.6723403301
 20
2.5135023274
 40
0.0024749995
 50
89.9999571957
 51
180.0000428043
 73
1
 72
1
 10
12.672340332
 20
2.515977327
 11
12.6909873423
 21
2.515977327
 72
2
 10
12.6909873442
 20
2.5184523265
 40
0.0024749995
 50
269.9999571957
 51
0.0000428043
 73
1
 72
1
 10
12.6934623437
 20
2.5184523283
 11
12.6934623437
 21
2.564807354
 72
2
 10
12.6909873442
 20
2.5648073559
 40
0.0024749995
 50
359.9999571957
 51
90.0000428043
 73
1
 72
1
 10
12.6909873423
 20
2.5672823554
 11
12.672340332
 21
2.5672823554
 72
2
 10
12.6723403301
 20
2.5697573549
 40
0.0024749995
 50
179.9999571957
 51
270.0000428043
 73
1
 72
1
 10
12.6698653306
 20
2.5697573568
 11
12.6698653306
 21
2.5895573678
 72
2
 10
12.6723403301
 20
2.5895573696
 40
0.0024749995
 50
89.9999571957
 51
180.0000428043
 73
1
 72
1
 10
12.672340332
 20
2.5920323691
 11
12.7727983877
 21
2.5920323691
 72
2
 10
12.7727985224
 20
2.5895582013
 40
0.0024741678
 50
46.3477981899
 51
90.0031206038
 73
1
 72
1
 10
12.7745063886
 20
2.5913483688
 11
12.8345394219
 21
2.534068337
 72
2
 10
12.8362481229
 20
2.5358592748
 40
0.0024753014
 50
226.3461263059
 51
0.0014637321
 73
1
 72
1
 10
12.8387234242
 20
2.535859338
 11
12.8387234242
 21
2.564807354
 72
2
 10
12.8362484247
 20
2.5648073559
 40
0.0024749995
 50
359.9999571957
 51
90.0000428043
 73
1
 72
1
 10
12.8362484229
 20
2.5672823554
 11
12.8174724125
 21
2.5672823554
 72
2
 10
12.8174724106
 20
2.5697573549
 40
0.0024749995
 50
179.9999571957
 51
270.0000428043
 73
1
 72
1
 10
12.8149974111
 20
2.5697573568
 11
12.8149974111
 21
2.5895573678
 72
2
 10
12.8174724106
 20
2.5895573696
 40
0.0024749995
 50
89.9999571958
 51
180.0000428043
 73
1
 72
1
 10
12.8174724125
 20
2.5920323691
 11
12.8914734535
 21
2.5920323691
 72
2
 10
12.8914734553
 20
2.5895573696
 40
0.0024749995
 50
359.9999571957
 51
90.0000428042
 73
1
 72
1
 10
12.8939484549
 20
2.5895573678
 11
12.8939484549
 21
2.5697573568
 72
2
 10
12.8914734553
 20
2.5697573549
 40
0.0024749995
 50
269.9999571958
 51
0.0000428043
 73
1
 72
1
 10
12.8914734535
 20
2.5672823554
 11
12.8735404436
 21
2.5672823554
 72
2
 10
12.8735404417
 20
2.5648073559
 40
0.0024749995
 50
89.9999571957
 51
180.0000428043
 73
1
 72
1
 10
12.8710654422
 20
2.564807354
 11
12.8710654422
 21
2.4937023146
 72
2
 10
12.8685904427
 20
2.4937023128
 40
0.0024749995
 50
269.9999571957
 51
0.0000428043
 73
1
 72
1
 10
12.8685904408
 20
2.4912273132
 11
12.7943853997
 21
2.4912273132
 97
267
330
278
330
279
330
27A
330
27B
330
27C
330
27D
330
27E
330
27F
330
280
330
281
330
282
330
283
330
284
330
285
330
286
330
287
330
288
330
289
330
28A
330
28B
330
28C
330
28D
330
28E
330
28F
330
290
330
291
330
292
330
293
330
294
330
295
330
296
330
297
330
298
330
299
330
29A
330
29B
330
29C
330
29D
330
29E
330
29F
330
2A0
330
2A1
330
2A2
330
2A3
330
2A4
330
2A5
330
2A6
330
2A7
330
2A8
330
2A9
330
2AA
330
2AB
330
2AC
330
2AD
330
2AE
330
2AF
330
2B0
330
2B1
330
2B2
330
2B3
330
2B4
330
2B5
330
2B6
330
2B7
330
2B8
330
2B9
330
2BA
330
2BB
330
2BC
330
2BD
330
2BE
330
2BF
330
2C0
330
2C1
330
2C2
330
2C3
330
2C4
330
2C5
330
2C6
330
2C7
330
2C8
330
2C9
330
2CA
330
2CB
330
2CC
330
2CD
330
2CE
330
2CF
330
2D0
330
2D1
330
2D2
330
2D3
330
2D4
330
2D5
330
2D6
330
2D7
330
2D8
330
2D9
330
2DA
330
2DB
330
2DC
330
2DD
330
2DE
330
2DF
330
2E0
330
2E1
330
2E2
330
2E3
330
2E4
330
2E5
330
2E6
330
2E7
330
2E8
330
2E9
330
2EA
330
2EB
330
2EC
330
2ED
330
2EE
330
2EF
330
2F0
330
2F1
330
2F2
330
2F3
330
2F4
330
2F5
330
2F6
330
2F7
330
2F8
330
2F9
330
2FA
330
2FB
330
2FC
330
2FD
330
2FE
330
2FF
330
300
330
301
330
302
330
303
330
304
330
305
330
306
330
307
330
308
330
309
330
30A
330
30B
330
30C
330
30D
330
30E
330
30F
330
310
330
311
330
312
330
313
330
314
330
315
330
316
330
317
330
318
330
319
330
31A
330
31B
330
31C
330
31D
330
31E
330
31F
330
320
330
321
330
322
330
323
330
324
330
325
330
326
330
327
330
328
330
329
330
32A
330
32B
330
32C
330
32D
330
32E
330
32F
330
330
330
331
330
332
330
333
330
334
330
335
330
336
330
337
330
338
330
339
330
33A
330
33B
330
33C
330
33D
330
33E
330
33F
330
340
330
341
330
342
330
343
330
344
330
345
330
346
330
347
330
348
330
349
330
34A
330
34B
330
34C
330
34D
330
34E
330
34F
330
350
330
351
330
352
330
353
330
354
330
355
330
356
330
357
330
358
330
359
330
35A
330
35B
330
35C
330
35D
330
35E
330
35F
330
360
330
361
330
362
330
363
330
364
330
365
330
366
330
367
330
368
330
369
330
36A
330
36B
330
36C
330
36D
330
36E
330
36F
330
370
330
371
330
372
330
373
330
374
330
375
330
376
330
377
330
378
330
379
330
37A
330
37B
330
37C
330
37D
330
37E
330
37F
330
380
330
381
330
382
 92
1
 93
23
 72
2
 10
12.3792298263
 20
2.539634765
 40
0.048483885
 50
273.21763719
 51
303.0749121182
 73
1
 72
2
 10
12.3940692204
 20
2.5168671561
 40
0.0213072145
 50
303.0488228549
 51
355.7263138674
 73
1
 72
2
 10
12.400005721
 20
2.5168763464
 40
0.0153945295
 50
354.0454548824
 51
5.1878013979
 73
1
 72
2
 10
12.3931760319
 20
2.5166878286
 40
0.0222174455
 50
4.0793399388
 51
69.834329283
 73
1
 72
1
 10
12.4008351814
 20
2.5375433389
 11
12.3907841758
 21
2.5410923409
 72
1
 10
12.3907841758
 20
2.5410923409
 11
12.3990241804
 21
2.5458683435
 72
2
 10
12.3771587979
 20
2.5826952352
 40
0.0428289026
 50
300.6990502959
 51
319.0591802498
 73
1
 72
2
 10
12.3971873948
 20
2.5665668817
 40
0.0171568255
 50
315.9145124245
 51
16.0049121282
 73
1
 72
2
 10
12.3922357827
 20
2.5632132173
 40
0.0229166529
 50
20.6563876465
 51
62.3316896973
 73
1
 72
2
 10
12.371573659
 20
2.5302846524
 40
0.061747717
 50
59.5385584989
 51
90.0050977555
 73
1
 72
1
 10
12.3715681652
 20
2.5920323691
 11
12.2055050731
 21
2.5920323691
 72
2
 10
12.2055050712
 20
2.5895573696
 40
0.0024749995
 50
89.9999571957
 51
180.0000428043
 73
1
 72
1
 10
12.2030300717
 20
2.5895573678
 11
12.2030300717
 21
2.5697573568
 72
2
 10
12.2055050712
 20
2.5697573549
 40
0.0024749995
 50
179.9999571957
 51
270.0000428043
 73
1
 72
1
 10
12.2055050731
 20
2.5672823554
 11
12.2294470864
 21
2.5672823554
 72
2
 10
12.2294470882
 20
2.5648073559
 40
0.0024749995
 50
359.9999571957
 51
90.0000428043
 73
1
 72
1
 10
12.2319220877
 20
2.564807354
 11
12.2319220877
 21
2.5184523283
 72
2
 10
12.2294470882
 20
2.5184523265
 40
0.0024749995
 50
269.9999571957
 51
0.0000428043
 73
1
 72
1
 10
12.2294470864
 20
2.515977327
 11
12.2055050731
 21
2.515977327
 72
2
 10
12.2055050712
 20
2.5135023274
 40
0.0024749995
 50
89.9999571957
 51
180.0000428043
 73
1
 72
1
 10
12.2030300717
 20
2.5135023256
 11
12.2030300717
 21
2.4937023146
 72
2
 10
12.2055050712
 20
2.4937023128
 40
0.0024749995
 50
179.9999571957
 51
270.0000428043
 73
1
 72
1
 10
12.2055050731
 20
2.4912273132
 11
12.3819511709
 21
2.4912273132
 97
267
330
278
330
279
330
27A
330
27B
330
27C
330
27D
330
27E
330
27F
330
280
330
281
330
282
330
283
330
284
330
285
330
286
330
287
330
288
330
289
330
28A
330
28B
330
28C
330
28D
330
28E
330
28F
330
290
330
291
330
292
330
293
330
294
330
295
330
296
330
297
330
298
330
299
330
29A
330
29B
330
29C
330
29D
330
29E
330
29F
330
2A0
330
2A1
330
2A2
330
2A3
330
2A4
330
2A5
330
2A6
330
2A7
330
2A8
330
2A9
330
2AA
330
2AB
330
2AC
330
2AD
330
2AE
330
2AF
330
2B0
330
2B1
330
2B2
330
2B3
330
2B4
330
2B5
330
2B6
330
2B7
330
2B8
330
2B9
330
2BA
330
2BB
330
2BC
330
2BD
330
2BE
330
2BF
330
2C0
330
2C1
330
2C2
330
2C3
330
2C4
330
2C5
330
2C6
330
2C7
330
2C8
330
2C9
330
2CA
330
2CB
330
2CC
330
2CD
330
2CE
330
2CF
330
2D0
330
2D1
330
2D2
330
2D3
330
2D4
330
2D5
330
2D6
330
2D7
330
2D8
330
2D9
330
2DA
330
2DB
330
2DC
330
2DD
330
2DE
330
2DF
330
2E0
330
2E1
330
2E2
330
2E3
330
2E4
330
2E5
330
2E6
330
2E7
330
2E8
330
2E9
330
2EA
330
2EB
330
2EC
330
2ED
330
2EE
330
2EF
330
2F0
330
2F1
330
2F2
330
2F3
330
2F4
330
2F5
330
2F6
330
2F7
330
2F8
330
2F9
330
2FA
330
2FB
330
2FC
330
2FD
330
2FE
330
2FF
330
300
330
301
330
302
330
303
330
304
330
305
330
306
330
307
330
308
330
309
330
30A
330
30B
330
30C
330
30D
330
30E
330
30F
330
310
330
311
330
312
330
313
330
314
330
315
330
316
330
317
330
318
330
319
330
31A
330
31B
330
31C
330
31D
330
31E
330
31F
330
320
330
321
330
322
330
323
330
324
330
325
330
326
330
327
330
328
330
329
330
32A
330
32B
330
32C
330
32D
330
32E
330
32F
330
330
330
331
330
332
330
333
330
334
330
335
330
336
330
337
330
338
330
339
330
33A
330
33B
330
33C
330
33D
330
33E
330
33F
330
340
330
341
330
342
330
343
330
344
330
345
330
346
330
347
330
348
330
349
330
34A
330
34B
330
34C
330
34D
330
34E
330
34F
330
350
330
351
330
352
330
353
330
354
330
355
330
356
330
357
330
358
330
359
330
35A
330
35B
330
35C
330
35D
330
35E
330
35F
330
360
330
361
330
362
330
363
330
364
330
365
330
366
330
367
330
368
330
369
330
36A
330
36B
330
36C
330
36D
330
36E
330
36F
330
370
330
371
330
372
330
373
330
374
330
375
330
376
330
377
330
378
330
379
330
37A
330
37B
330
37C
330
37D
330
37E
330
37F
330
380
330
381
330
382
 92
1
 93
32
 72
2
 10
12.5168642476
 20
2.4937023128
 40
0.0024749995
 50
269.9999571957
 51
0.0000428043
 73
1
 72
1
 10
12.5193392471
 20
2.4937023146
 11
12.5193392471
 21
2.5135023256
 72
2
 10
12.5168642476
 20
2.5135023274
 40
0.0024749995
 50
359.9999571957
 51
90.0000428043
 73
1
 72
1
 10
12.5168642458
 20
2.515977327
 11
12.5055812395
 21
2.515977327
 72
2
 10
12.5055811302
 20
2.518452367
 40
0.0024750401
 50
147.6063258011
 51
270.0025305754
 73
1
 72
1
 10
12.5034912383
 20
2.5197783291
 11
12.5090072414
 21
2.5284723339
 72
2
 10
12.5110971723
 20
2.5271461342
 40
0.0024752003
 50
89.998372645
 51
147.602165307
 73
1
 72
1
 10
12.5110972426
 20
2.5296213345
 11
12.5459752619
 21
2.5296213345
 72
2
 10
12.5459747223
 20
2.5271458744
 40
0.0024754602
 50
32.8959418573
 51
89.9875097202
 73
1
 72
1
 10
12.548053263
 20
2.5284903339
 11
12.5536792662
 21
2.5197973291
 72
2
 10
12.5516012439
 20
2.5184525341
 40
0.0024752071
 50
270.0004896794
 51
32.9089806818
 73
1
 72
1
 10
12.551601265
 20
2.515977327
 11
12.537150257
 21
2.515977327
 72
2
 10
12.5371502552
 20
2.5135023274
 40
0.0024749995
 50
89.9999571958
 51
180.0000428043
 73
1
 72
1
 10
12.5346752556
 20
2.5135023256
 11
12.5346752556
 21
2.4937023146
 72
2
 10
12.5371502552
 20
2.4937023128
 40
0.0024749995
 50
179.9999571957
 51
270.0000428042
 73
1
 72
1
 10
12.537150257
 20
2.4912273132
 11
12.6424313154
 21
2.4912273132
 72
2
 10
12.6424313172
 20
2.4937023128
 40
0.0024749995
 50
269.9999571957
 51
0.0000428043
 73
1
 72
1
 10
12.6449063168
 20
2.4937023146
 11
12.6449063168
 21
2.5135023256
 72
2
 10
12.6424313172
 20
2.5135023274
 40
0.0024749995
 50
359.9999571957
 51
90.0000428043
 73
1
 72
1
 10
12.6424313154
 20
2.515977327
 11
12.6224153043
 21
2.515977327
 72
2
 10
12.6224154248
 20
2.518451368
 40
0.002474041
 50
212.9056413127
 51
269.9972091756
 73
1
 72
1
 10
12.6203383031
 20
2.5171073276
 11
12.5725822767
 21
2.5909023685
 72
2
 10
12.570504655
 20
2.589557409
 40
0.0024749602
 50
32.9172174468
 51
90.0087853097
 73
1
 72
1
 10
12.5705042755
 20
2.5920323691
 11
12.5133292438
 21
2.5920323691
 72
2
 10
12.5133291735
 20
2.5895571688
 40
0.0024752003
 50
89.9983726451
 51
147.602165307
 73
1
 72
1
 10
12.5112392426
 20
2.5908833685
 11
12.4644392167
 21
2.5171263276
 72
2
 10
12.4623492858
 20
2.5184525273
 40
0.0024752003
 50
269.9983726451
 51
327.602165307
 73
1
 72
1
 10
12.4623492155
 20
2.515977327
 11
12.4394882028
 21
2.515977327
 72
2
 10
12.439488201
 20
2.5135023274
 40
0.0024749995
 50
89.9999571958
 51
180.0000428043
 73
1
 72
1
 10
12.4370132015
 20
2.5135023256
 11
12.4370132015
 21
2.4937023146
 72
2
 10
12.439488201
 20
2.4937023128
 40
0.0024749995
 50
179.9999571957
 51
270.0000428042
 73
1
 72
1
 10
12.4394882028
 20
2.4912273132
 11
12.5168642458
 21
2.4912273132
 97
267
330
278
330
279
330
27A
330
27B
330
27C
330
27D
330
27E
330
27F
330
280
330
281
330
282
330
283
330
284
330
285
330
286
330
287
330
288
330
289
330
28A
330
28B
330
28C
330
28D
330
28E
330
28F
330
290
330
291
330
292
330
293
330
294
330
295
330
296
330
297
330
298
330
299
330
29A
330
29B
330
29C
330
29D
330
29E
330
29F
330
2A0
330
2A1
330
2A2
330
2A3
330
2A4
330
2A5
330
2A6
330
2A7
330
2A8
330
2A9
330
2AA
330
2AB
330
2AC
330
2AD
330
2AE
330
2AF
330
2B0
330
2B1
330
2B2
330
2B3
330
2B4
330
2B5
330
2B6
330
2B7
330
2B8
330
2B9
330
2BA
330
2BB
330
2BC
330
2BD
330
2BE
330
2BF
330
2C0
330
2C1
330
2C2
330
2C3
330
2C4
330
2C5
330
2C6
330
2C7
330
2C8
330
2C9
330
2CA
330
2CB
330
2CC
330
2CD
330
2CE
330
2CF
330
2D0
330
2D1
330
2D2
330
2D3
330
2D4
330
2D5
330
2D6
330
2D7
330
2D8
330
2D9
330
2DA
330
2DB
330
2DC
330
2DD
330
2DE
330
2DF
330
2E0
330
2E1
330
2E2
330
2E3
330
2E4
330
2E5
330
2E6
330
2E7
330
2E8
330
2E9
330
2EA
330
2EB
330
2EC
330
2ED
330
2EE
330
2EF
330
2F0
330
2F1
330
2F2
330
2F3
330
2F4
330
2F5
330
2F6
330
2F7
330
2F8
330
2F9
330
2FA
330
2FB
330
2FC
330
2FD
330
2FE
330
2FF
330
300
330
301
330
302
330
303
330
304
330
305
330
306
330
307
330
308
330
309
330
30A
330
30B
330
30C
330
30D
330
30E
330
30F
330
310
330
311
330
312
330
313
330
314
330
315
330
316
330
317
330
318
330
319
330
31A
330
31B
330
31C
330
31D
330
31E
330
31F
330
320
330
321
330
322
330
323
330
324
330
325
330
326
330
327
330
328
330
329
330
32A
330
32B
330
32C
330
32D
330
32E
330
32F
330
330
330
331
330
332
330
333
330
334
330
335
330
336
330
337
330
338
330
339
330
33A
330
33B
330
33C
330
33D
330
33E
330
33F
330
340
330
341
330
342
330
343
330
344
330
345
330
346
330
347
330
348
330
349
330
34A
330
34B
330
34C
330
34D
330
34E
330
34F
330
350
330
351
330
352
330
353
330
354
330
355
330
356
330
357
330
358
330
359
330
35A
330
35B
330
35C
330
35D
330
35E
330
35F
330
360
330
361
330
362
330
363
330
364
330
365
330
366
330
367
330
368
330
369
330
36A
330
36B
330
36C
330
36D
330
36E
330
36F
330
370
330
371
330
372
330
373
330
374
330
375
330
376
330
377
330
378
330
379
330
37A
330
37B
330
37C
330
37D
330
37E
330
37F
330
380
330
381
330
382
 92
1
 93
6
 72
2
 10
12.2949101208
 20
2.5184523265
 40
0.0024749995
 50
179.9999571957
 51
270.0000428043
 73
1
 72
1
 10
12.2924351213
 20
2.5184523283
 11
12.2924351213
 21
2.5308273352
 72
2
 10
12.2949101208
 20
2.530827337
 40
0.0024749995
 50
89.9999571957
 51
180.0000428043
 73
1
 72
1
 10
12.2949101227
 20
2.5333023366
 11
12.3362731456
 21
2.5333023366
 72
2
 10
12.3362731456
 20
2.5246398318
 40
0.0086625048
 50
270.0
 51
90.0
 73
1
 72
1
 10
12.3362731456
 20
2.515977327
 11
12.2949101227
 21
2.515977327
 97
267
330
278
330
279
330
27A
330
27B
330
27C
330
27D
330
27E
330
27F
330
280
330
281
330
282
330
283
330
284
330
285
330
286
330
287
330
288
330
289
330
28A
330
28B
330
28C
330
28D
330
28E
330
28F
330
290
330
291
330
292
330
293
330
294
330
295
330
296
330
297
330
298
330
299
330
29A
330
29B
330
29C
330
29D
330
29E
330
29F
330
2A0
330
2A1
330
2A2
330
2A3
330
2A4
330
2A5
330
2A6
330
2A7
330
2A8
330
2A9
330
2AA
330
2AB
330
2AC
330
2AD
330
2AE
330
2AF
330
2B0
330
2B1
330
2B2
330
2B3
330
2B4
330
2B5
330
2B6
330
2B7
330
2B8
330
2B9
330
2BA
330
2BB
330
2BC
330
2BD
330
2BE
330
2BF
330
2C0
330
2C1
330
2C2
330
2C3
330
2C4
330
2C5
330
2C6
330
2C7
330
2C8
330
2C9
330
2CA
330
2CB
330
2CC
330
2CD
330
2CE
330
2CF
330
2D0
330
2D1
330
2D2
330
2D3
330
2D4
330
2D5
330
2D6
330
2D7
330
2D8
330
2D9
330
2DA
330
2DB
330
2DC
330
2DD
330
2DE
330
2DF
330
2E0
330
2E1
330
2E2
330
2E3
330
2E4
330
2E5
330
2E6
330
2E7
330
2E8
330
2E9
330
2EA
330
2EB
330
2EC
330
2ED
330
2EE
330
2EF
330
2F0
330
2F1
330
2F2
330
2F3
330
2F4
330
2F5
330
2F6
330
2F7
330
2F8
330
2F9
330
2FA
330
2FB
330
2FC
330
2FD
330
2FE
330
2FF
330
300
330
301
330
302
330
303
330
304
330
305
330
306
330
307
330
308
330
309
330
30A
330
30B
330
30C
330
30D
330
30E
330
30F
330
310
330
311
330
312
330
313
330
314
330
315
330
316
330
317
330
318
330
319
330
31A
330
31B
330
31C
330
31D
330
31E
330
31F
330
320
330
321
330
322
330
323
330
324
330
325
330
326
330
327
330
328
330
329
330
32A
330
32B
330
32C
330
32D
330
32E
330
32F
330
330
330
331
330
332
330
333
330
334
330
335
330
336
330
337
330
338
330
339
330
33A
330
33B
330
33C
330
33D
330
33E
330
33F
330
340
330
341
330
342
330
343
330
344
330
345
330
346
330
347
330
348
330
349
330
34A
330
34B
330
34C
330
34D
330
34E
330
34F
330
350
330
351
330
352
330
353
330
354
330
355
330
356
330
357
330
358
330
359
330
35A
330
35B
330
35C
330
35D
330
35E
330
35F
330
360
330
361
330
362
330
363
330
364
330
365
330
366
330
367
330
368
330
369
330
36A
330
36B
330
36C
330
36D
330
36E
330
36F
330
370
330
371
330
372
330
373
330
374
330
375
330
376
330
377
330
378
330
379
330
37A
330
37B
330
37C
330
37D
330
37E
330
37F
330
380
330
381
330
382
 92
1
 93
13
 72
2
 10
13.4883447827
 20
2.5520823451
 40
0.0024749995
 50
179.9999571957
 51
270.0000428042
 73
1
 72
1
 10
13.4858697831
 20
2.552082347
 11
13.4858697831
 21
2.564807354
 72
2
 10
13.4883447827
 20
2.5648073559
 40
0.0024749995
 50
89.9999571958
 51
180.0000428043
 73
1
 72
1
 10
13.4883447845
 20
2.5672823554
 11
13.5251458049
 21
2.5672823554
 72
2
 10
13.5236009174
 20
2.5388278764
 40
0.0284963867
 50
70.3834917948
 51
86.8922743861
 73
1
 72
2
 10
13.5284605274
 20
2.5518696094
 40
0.0145814632
 50
54.6746025112
 51
71.1660573124
 73
1
 72
2
 10
13.5335900184
 20
2.5587235346
 40
0.0060275915
 50
20.9055592135
 51
56.7851676243
 73
1
 72
2
 10
13.5348905773
 20
2.5593838168
 40
0.0045795888
 50
355.6235353944
 51
18.9942678268
 73
1
 72
2
 10
13.533683767
 20
2.559677593
 40
0.0058087709
 50
318.8515287446
 51
353.6422345323
 73
1
 72
2
 10
13.5295131508
 20
2.5629115009
 40
0.0110815393
 50
306.758405961
 51
320.4502234234
 73
1
 72
2
 10
13.5238839599
 20
2.5706523294
 40
0.0206523367
 50
289.6883413472
 51
306.4184925496
 73
1
 72
2
 10
13.5219564542
 20
2.5750459767
 40
0.0254407115
 50
270.7327484175
 51
290.441894219
 73
1
 72
1
 10
13.5222818033
 20
2.5496073456
 11
13.4883447845
 21
2.5496073456
 97
267
330
278
330
279
330
27A
330
27B
330
27C
330
27D
330
27E
330
27F
330
280
330
281
330
282
330
283
330
284
330
285
330
286
330
287
330
288
330
289
330
28A
330
28B
330
28C
330
28D
330
28E
330
28F
330
290
330
291
330
292
330
293
330
294
330
295
330
296
330
297
330
298
330
299
330
29A
330
29B
330
29C
330
29D
330
29E
330
29F
330
2A0
330
2A1
330
2A2
330
2A3
330
2A4
330
2A5
330
2A6
330
2A7
330
2A8
330
2A9
330
2AA
330
2AB
330
2AC
330
2AD
330
2AE
330
2AF
330
2B0
330
2B1
330
2B2
330
2B3
330
2B4
330
2B5
330
2B6
330
2B7
330
2B8
330
2B9
330
2BA
330
2BB
330
2BC
330
2BD
330
2BE
330
2BF
330
2C0
330
2C1
330
2C2
330
2C3
330
2C4
330
2C5
330
2C6
330
2C7
330
2C8
330
2C9
330
2CA
330
2CB
330
2CC
330
2CD
330
2CE
330
2CF
330
2D0
330
2D1
330
2D2
330
2D3
330
2D4
330
2D5
330
2D6
330
2D7
330
2D8
330
2D9
330
2DA
330
2DB
330
2DC
330
2DD
330
2DE
330
2DF
330
2E0
330
2E1
330
2E2
330
2E3
330
2E4
330
2E5
330
2E6
330
2E7
330
2E8
330
2E9
330
2EA
330
2EB
330
2EC
330
2ED
330
2EE
330
2EF
330
2F0
330
2F1
330
2F2
330
2F3
330
2F4
330
2F5
330
2F6
330
2F7
330
2F8
330
2F9
330
2FA
330
2FB
330
2FC
330
2FD
330
2FE
330
2FF
330
300
330
301
330
302
330
303
330
304
330
305
330
306
330
307
330
308
330
309
330
30A
330
30B
330
30C
330
30D
330
30E
330
30F
330
310
330
311
330
312
330
313
330
314
330
315
330
316
330
317
330
318
330
319
330
31A
330
31B
330
31C
330
31D
330
31E
330
31F
330
320
330
321
330
322
330
323
330
324
330
325
330
326
330
327
330
328
330
329
330
32A
330
32B
330
32C
330
32D
330
32E
330
32F
330
330
330
331
330
332
330
333
330
334
330
335
330
336
330
337
330
338
330
339
330
33A
330
33B
330
33C
330
33D
330
33E
330
33F
330
340
330
341
330
342
330
343
330
344
330
345
330
346
330
347
330
348
330
349
330
34A
330
34B
330
34C
330
34D
330
34E
330
34F
330
350
330
351
330
352
330
353
330
354
330
355
330
356
330
357
330
358
330
359
330
35A
330
35B
330
35C
330
35D
330
35E
330
35F
330
360
330
361
330
362
330
363
330
364
330
365
330
366
330
367
330
368
330
369
330
36A
330
36B
330
36C
330
36D
330
36E
330
36F
330
370
330
371
330
372
330
373
330
374
330
375
330
376
330
377
330
378
330
379
330
37A
330
37B
330
37C
330
37D
330
37E
330
37F
330
380
330
381
330
382
 92
1
 93
6
 72
2
 10
12.3362731456
 20
2.5586198506
 40
0.0086625048
 50
270.0
 51
90.0
 73
1
 72
1
 10
12.3362731456
 20
2.5672823554
 11
12.2949101227
 21
2.5672823554
 72
2
 10
12.2949101208
 20
2.5648073559
 40
0.0024749995
 50
89.9999571957
 51
180.0000428043
 73
1
 72
1
 10
12.2924351213
 20
2.564807354
 11
12.2924351213
 21
2.5524323472
 72
2
 10
12.2949101208
 20
2.5524323453
 40
0.0024749995
 50
179.9999571957
 51
270.0000428043
 73
1
 72
1
 10
12.2949101227
 20
2.5499573458
 11
12.3362731456
 21
2.5499573458
 97
267
330
278
330
279
330
27A
330
27B
330
27C
330
27D
330
27E
330
27F
330
280
330
281
330
282
330
283
330
284
330
285
330
286
330
287
330
288
330
289
330
28A
330
28B
330
28C
330
28D
330
28E
330
28F
330
290
330
291
330
292
330
293
330
294
330
295
330
296
330
297
330
298
330
299
330
29A
330
29B
330
29C
330
29D
330
29E
330
29F
330
2A0
330
2A1
330
2A2
330
2A3
330
2A4
330
2A5
330
2A6
330
2A7
330
2A8
330
2A9
330
2AA
330
2AB
330
2AC
330
2AD
330
2AE
330
2AF
330
2B0
330
2B1
330
2B2
330
2B3
330
2B4
330
2B5
330
2B6
330
2B7
330
2B8
330
2B9
330
2BA
330
2BB
330
2BC
330
2BD
330
2BE
330
2BF
330
2C0
330
2C1
330
2C2
330
2C3
330
2C4
330
2C5
330
2C6
330
2C7
330
2C8
330
2C9
330
2CA
330
2CB
330
2CC
330
2CD
330
2CE
330
2CF
330
2D0
330
2D1
330
2D2
330
2D3
330
2D4
330
2D5
330
2D6
330
2D7
330
2D8
330
2D9
330
2DA
330
2DB
330
2DC
330
2DD
330
2DE
330
2DF
330
2E0
330
2E1
330
2E2
330
2E3
330
2E4
330
2E5
330
2E6
330
2E7
330
2E8
330
2E9
330
2EA
330
2EB
330
2EC
330
2ED
330
2EE
330
2EF
330
2F0
330
2F1
330
2F2
330
2F3
330
2F4
330
2F5
330
2F6
330
2F7
330
2F8
330
2F9
330
2FA
330
2FB
330
2FC
330
2FD
330
2FE
330
2FF
330
300
330
301
330
302
330
303
330
304
330
305
330
306
330
307
330
308
330
309
330
30A
330
30B
330
30C
330
30D
330
30E
330
30F
330
310
330
311
330
312
330
313
330
314
330
315
330
316
330
317
330
318
330
319
330
31A
330
31B
330
31C
330
31D
330
31E
330
31F
330
320
330
321
330
322
330
323
330
324
330
325
330
326
330
327
330
328
330
329
330
32A
330
32B
330
32C
330
32D
330
32E
330
32F
330
330
330
331
330
332
330
333
330
334
330
335
330
336
330
337
330
338
330
339
330
33A
330
33B
330
33C
330
33D
330
33E
330
33F
330
340
330
341
330
342
330
343
330
344
330
345
330
346
330
347
330
348
330
349
330
34A
330
34B
330
34C
330
34D
330
34E
330
34F
330
350
330
351
330
352
330
353
330
354
330
355
330
356
330
357
330
358
330
359
330
35A
330
35B
330
35C
330
35D
330
35E
330
35F
330
360
330
361
330
362
330
363
330
364
330
365
330
366
330
367
330
368
330
369
330
36A
330
36B
330
36C
330
36D
330
36E
330
36F
330
370
330
371
330
372
330
373
330
374
330
375
330
376
330
377
330
378
330
379
330
37A
330
37B
330
37C
330
37D
330
37E
330
37F
330
380
330
381
330
382
 92
1
 93
8
 72
2
 10
12.5401702375
 20
2.5530465533
 40
0.0024752071
 50
270.0004896793
 51
32.9089806818
 73
1
 72
1
 10
12.5422482598
 20
2.5543913483
 11
12.5349892558
 21
2.5656073545
 72
2
 10
12.532910715
 20
2.564262895
 40
0.0024754602
 50
32.8959418573
 51
89.9875097202
 73
1
 72
1
 10
12.5329112547
 20
2.5667383551
 11
12.5267302512
 21
2.5667383551
 72
2
 10
12.5267301809
 20
2.5642631548
 40
0.0024752003
 50
89.998372645
 51
147.602165307
 73
1
 72
1
 10
12.5246402501
 20
2.5655893545
 11
12.5175232461
 21
2.5543723483
 72
2
 10
12.519613138
 20
2.5530463862
 40
0.0024750401
 50
147.6063258012
 51
270.0025305754
 73
1
 72
1
 10
12.5196132473
 20
2.5505713461
 11
12.5401702587
 21
2.5505713461
 97
267
330
278
330
279
330
27A
330
27B
330
27C
330
27D
330
27E
330
27F
330
280
330
281
330
282
330
283
330
284
330
285
330
286
330
287
330
288
330
289
330
28A
330
28B
330
28C
330
28D
330
28E
330
28F
330
290
330
291
330
292
330
293
330
294
330
295
330
296
330
297
330
298
330
299
330
29A
330
29B
330
29C
330
29D
330
29E
330
29F
330
2A0
330
2A1
330
2A2
330
2A3
330
2A4
330
2A5
330
2A6
330
2A7
330
2A8
330
2A9
330
2AA
330
2AB
330
2AC
330
2AD
330
2AE
330
2AF
330
2B0
330
2B1
330
2B2
330
2B3
330
2B4
330
2B5
330
2B6
330
2B7
330
2B8
330
2B9
330
2BA
330
2BB
330
2BC
330
2BD
330
2BE
330
2BF
330
2C0
330
2C1
330
2C2
330
2C3
330
2C4
330
2C5
330
2C6
330
2C7
330
2C8
330
2C9
330
2CA
330
2CB
330
2CC
330
2CD
330
2CE
330
2CF
330
2D0
330
2D1
330
2D2
330
2D3
330
2D4
330
2D5
330
2D6
330
2D7
330
2D8
330
2D9
330
2DA
330
2DB
330
2DC
330
2DD
330
2DE
330
2DF
330
2E0
330
2E1
330
2E2
330
2E3
330
2E4
330
2E5
330
2E6
330
2E7
330
2E8
330
2E9
330
2EA
330
2EB
330
2EC
330
2ED
330
2EE
330
2EF
330
2F0
330
2F1
330
2F2
330
2F3
330
2F4
330
2F5
330
2F6
330
2F7
330
2F8
330
2F9
330
2FA
330
2FB
330
2FC
330
2FD
330
2FE
330
2FF
330
300
330
301
330
302
330
303
330
304
330
305
330
306
330
307
330
308
330
309
330
30A
330
30B
330
30C
330
30D
330
30E
330
30F
330
310
330
311
330
312
330
313
330
314
330
315
330
316
330
317
330
318
330
319
330
31A
330
31B
330
31C
330
31D
330
31E
330
31F
330
320
330
321
330
322
330
323
330
324
330
325
330
326
330
327
330
328
330
329
330
32A
330
32B
330
32C
330
32D
330
32E
330
32F
330
330
330
331
330
332
330
333
330
334
330
335
330
336
330
337
330
338
330
339
330
33A
330
33B
330
33C
330
33D
330
33E
330
33F
330
340
330
341
330
342
330
343
330
344
330
345
330
346
330
347
330
348
330
349
330
34A
330
34B
330
34C
330
34D
330
34E
330
34F
330
350
330
351
330
352
330
353
330
354
330
355
330
356
330
357
330
358
330
359
330
35A
330
35B
330
35C
330
35D
330
35E
330
35F
330
360
330
361
330
362
330
363
330
364
330
365
330
366
330
367
330
368
330
369
330
36A
330
36B
330
36C
330
36D
330
36E
330
36F
330
370
330
371
330
372
330
373
330
374
330
375
330
376
330
377
330
378
330
379
330
37A
330
37B
330
37C
330
37D
330
37E
330
37F
330
380
330
381
330
382
 92
1
 93
1
 72
3
 10
12.9046654608
 20
2.5403783405
 11
-0.8250004575
 21
0.0
 40
0.218572
 50
0.0
 51
-0.0
 73
1
 97
267
330
278
330
279
330
27A
330
27B
330
27C
330
27D
330
27E
330
27F
330
280
330
281
330
282
330
283
330
284
330
285
330
286
330
287
330
288
330
289
330
28A
330
28B
330
28C
330
28D
330
28E
330
28F
330
290
330
291
330
292
330
293
330
294
330
295
330
296
330
297
330
298
330
299
330
29A
330
29B
330
29C
330
29D
330
29E
330
29F
330
2A0
330
2A1
330
2A2
330
2A3
330
2A4
330
2A5
330
2A6
330
2A7
330
2A8
330
2A9
330
2AA
330
2AB
330
2AC
330
2AD
330
2AE
330
2AF
330
2B0
330
2B1
330
2B2
330
2B3
330
2B4
330
2B5
330
2B6
330
2B7
330
2B8
330
2B9
330
2BA
330
2BB
330
2BC
330
2BD
330
2BE
330
2BF
330
2C0
330
2C1
330
2C2
330
2C3
330
2C4
330
2C5
330
2C6
330
2C7
330
2C8
330
2C9
330
2CA
330
2CB
330
2CC
330
2CD
330
2CE
330
2CF
330
2D0
330
2D1
330
2D2
330
2D3
330
2D4
330
2D5
330
2D6
330
2D7
330
2D8
330
2D9
330
2DA
330
2DB
330
2DC
330
2DD
330
2DE
330
2DF
330
2E0
330
2E1
330
2E2
330
2E3
330
2E4
330
2E5
330
2E6
330
2E7
330
2E8
330
2E9
330
2EA
330
2EB
330
2EC
330
2ED
330
2EE
330
2EF
330
2F0
330
2F1
330
2F2
330
2F3
330
2F4
330
2F5
330
2F6
330
2F7
330
2F8
330
2F9
330
2FA
330
2FB
330
2FC
330
2FD
330
2FE
330
2FF
330
300
330
301
330
302
330
303
330
304
330
305
330
306
330
307
330
308
330
309
330
30A
330
30B
330
30C
330
30D
330
30E
330
30F
330
310
330
311
330
312
330
313
330
314
330
315
330
316
330
317
330
318
330
319
330
31A
330
31B
330
31C
330
31D
330
31E
330
31F
330
320
330
321
330
322
330
323
330
324
330
325
330
326
330
327
330
328
330
329
330
32A
330
32B
330
32C
330
32D
330
32E
330
32F
330
330
330
331
330
332
330
333
330
334
330
335
330
336
330
337
330
338
330
339
330
33A
330
33B
330
33C
330
33D
330
33E
330
33F
330
340
330
341
330
342
330
343
330
344
330
345
330
346
330
347
330
348
330
349
330
34A
330
34B
330
34C
330
34D
330
34E
330
34F
330
350
330
351
330
352
330
353
330
354
330
355
330
356
330
357
330
358
330
359
330
35A
330
35B
330
35C
330
35D
330
35E
330
35F
330
360
330
361
330
362
330
363
330
364
330
365
330
366
330
367
330
368
330
369
330
36A
330
36B
330
36C
330
36D
330
36E
330
36F
330
370
330
371
330
372
330
373
330
374
330
375
330
376
330
377
330
378
330
379
330
37A
330
37B
330
37C
330
37D
330
37E
330
37F
330
380
330
381
330
382
 75
0
 76
1
 98
1
 10
0.0
 20
0.0
  0
LINE
  5
384
100
AcDbEntity
  8
0
100
AcDbLine
 62
7
  6
CONTINUOUS
 10
8.5
 20
10.112
 11
8.586603
 21
10.262
  0
LINE
  5
385
100
AcDbEntity
  8
0
100
AcDbLine
 62
7
  6
CONTINUOUS
 10
16.38
 20
2.807
 11
10.03
 21
2.807
  0
LINE
  5
386
100
AcDbEntity
  8
0
100
AcDbLine
 62
7
  6
CONTINUOUS
 10
0.62
 20
3.1995
 11
0.37
 21
3.1995
  0
LINE
  5
387
100
AcDbEntity
  8
0
100
AcDbLine
 62
7
  6
CONTINUOUS
 10
16.38
 20
3.1995
 11
16.63
 21
3.1995
  0
LINE
  5
388
100
AcDbEntity
  8
0
100
AcDbLine
 62
7
  6
CONTINUOUS
 10
8.586603
 20
0.737
 11
8.5
 21
0.887
  0
LINE
  5
389
100
AcDbEntity
  8
0
100
AcDbLine
 62
7
  6
CONTINUOUS
 10
6.53
 20
0.887
 11
6.53
 21
0.637
  0
LINE
  5
38A
100
AcDbEntity
  8
0
100
AcDbLine
 62
7
  6
CONTINUOUS
 10
6.53
 20
10.112
 11
6.53
 21
10.362
  0
LINE
  5
38B
100
AcDbEntity
  8
0
100
AcDbLine
 62
7
  6
CONTINUOUS
 10
8.5
 20
0.887
 11
8.5
 21
0.637
  0
LINE
  5
38C
100
AcDbEntity
  8
0
100
AcDbLine
 62
7
  6
CONTINUOUS
 10
8.5
 20
10.112
 11
8.5
 21
10.362
  0
LINE
  5
38D
100
AcDbEntity
  8
0
100
AcDbLine
 62
7
  6
CONTINUOUS
 10
0.62
 20
5.4995
 11
0.37
 21
5.4995
  0
LINE
  5
38E
100
AcDbEntity
  8
0
100
AcDbLine
 62
7
  6
CONTINUOUS
 10
16.38
 20
5.4995
 11
16.63
 21
5.4995
  0
LINE
  5
38F
100
AcDbEntity
  8
0
100
AcDbLine
 62
7
  6
CONTINUOUS
 10
10.03
 20
2.807
 11
10.03
 21
0.887
  0
LINE
  5
390
100
AcDbEntity
  8
0
100
AcDbLine
 62
7
  6
CONTINUOUS
 10
10.47
 20
0.887
 11
10.47
 21
0.637
  0
LINE
  5
391
100
AcDbEntity
  8
0
100
AcDbLine
 62
7
  6
CONTINUOUS
 10
10.47
 20
10.112
 11
10.47
 21
10.362
  0
LINE
  5
392
100
AcDbEntity
  8
0
100
AcDbLine
 62
7
  6
CONTINUOUS
 10
10.5342808475
 20
1.143294839
 11
10.5342808475
 21
0.921203839
  0
LINE
  5
393
100
AcDbEntity
  8
0
100
AcDbLine
 62
7
  6
CONTINUOUS
 10
10.5342808475
 20
1.193294839
 11
10.5342808475
 21
1.293294839
  0
LINE
  5
394
100
AcDbEntity
  8
0
100
AcDbLine
 62
7
  6
CONTINUOUS
 10
10.5342808475
 20
1.343294839
 11
10.5342808475
 21
1.565385839
  0
LINE
  5
395
100
AcDbEntity
  8
0
100
AcDbLine
 62
7
  6
CONTINUOUS
 10
8.5
 20
0.887
 11
8.413397
 21
0.737
  0
LINE
  5
396
100
AcDbEntity
  8
0
100
AcDbLine
 62
7
  6
CONTINUOUS
 10
0.62
 20
7.7995
 11
0.37
 21
7.7995
  0
LINE
  5
397
100
AcDbEntity
  8
0
100
AcDbLine
 62
7
  6
CONTINUOUS
 10
16.38
 20
7.7995
 11
16.63
 21
7.7995
  0
LINE
  5
398
100
AcDbEntity
  8
0
100
AcDbLine
 62
7
  6
CONTINUOUS
 10
8.413397
 20
10.262
 11
8.5
 21
10.112
  0
LINE
  5
399
100
AcDbEntity
  8
0
100
AcDbLine
 62
7
  6
CONTINUOUS
 10
11.1389508475
 20
1.060596839
 11
11.1389508475
 21
1.425992839
  0
LINE
  5
39A
100
AcDbEntity
  8
0
100
AcDbLine
 62
7
  6
CONTINUOUS
 10
11.7453418475
 20
1.495385839
 11
11.7453418475
 21
0.991203839
  0
LINE
  5
39B
100
AcDbEntity
  8
0
100
AcDbLine
 62
7
  6
CONTINUOUS
 10
12.44
 20
0.887
 11
12.44
 21
0.637
  0
LINE
  5
39C
100
AcDbEntity
  8
0
100
AcDbLine
 62
7
  6
CONTINUOUS
 10
12.44
 20
10.112
 11
12.44
 21
10.362
  0
LINE
  5
39D
100
AcDbEntity
  8
0
100
AcDbLine
 62
7
  6
CONTINUOUS
 10
16.53
 20
5.586103
 11
16.38
 21
5.4995
  0
LINE
  5
39E
100
AcDbEntity
  8
0
100
AcDbLine
 62
7
  6
CONTINUOUS
 10
16.38
 20
5.4995
 11
16.53
 21
5.412897
  0
LINE
  5
39F
100
AcDbEntity
  8
0
100
AcDbLine
 62
7
  6
CONTINUOUS
 10
12.83
 20
1.507
 11
12.83
 21
1.137
  0
LINE
  5
3A0
100
AcDbEntity
  8
0
100
AcDbLine
 62
7
  6
CONTINUOUS
 10
16.38
 20
10.112
 11
0.62
 21
10.112
  0
LINE
  5
3A1
100
AcDbEntity
  8
0
100
AcDbLine
 62
7
  6
CONTINUOUS
 10
8.586603
 20
10.262
 11
8.413397
 21
10.262
  0
LINE
  5
3A2
100
AcDbEntity
  8
0
100
AcDbLine
 62
7
  6
CONTINUOUS
 10
14.205
 20
1.137
 11
14.205
 21
0.887
  0
LINE
  5
3A3
100
AcDbEntity
  8
0
100
AcDbLine
 62
7
  6
CONTINUOUS
 10
14.41
 20
0.887
 11
14.41
 21
0.637
  0
LINE
  5
3A4
100
AcDbEntity
  8
0
100
AcDbLine
 62
7
  6
CONTINUOUS
 10
14.41
 20
10.112
 11
14.41
 21
10.362
  0
LINE
  5
3A5
100
AcDbEntity
  8
0
100
AcDbLine
 62
7
  6
CONTINUOUS
 10
15.58
 20
1.507
 11
15.58
 21
1.137
  0
LINE
  5
3A6
100
AcDbEntity
  8
0
100
AcDbLine
 62
7
  6
CONTINUOUS
 10
16.38
 20
0.887
 11
16.38
 21
10.112
  0
LINE
  5
3A7
100
AcDbEntity
  8
0
100
AcDbLine
 62
7
  6
CONTINUOUS
 10
16.53
 20
5.412897
 11
16.53
 21
5.586103
  0
LINE
  5
3A8
100
AcDbEntity
  8
02___PRT_ALL_AXES
100
AcDbLine
 62
7
  6
CONTINUOUS
 10
7.7566344528
 20
4.5061213536
 11
7.7566344528
 21
6.4746252907
  0
LINE
  5
3A9
100
AcDbEntity
  8
0
100
AcDbLine
 62
7
  6
CONTINUOUS
 10
8.2290753977
 20
4.5061213536
 11
8.2290753977
 21
6.4746252907
  0
LINE
  5
3AA
100
AcDbEntity
  8
AXIS
100
AcDbLine
 62
7
  6
CONTINUOUS
 10
8.2684454764
 20
6.4747351458
 11
8.2684454764
 21
4.5060114985
  0
LINE
  5
3AB
100
AcDbEntity
  8
0
100
AcDbLine
 62
7
  6
CONTINUOUS
 10
8.2290753977
 20
4.5061213536
 11
7.7566344528
 21
4.5061213536
  0
LWPOLYLINE
  5
3AC
100
AcDbEntity
  8
0
100
AcDbPolyline
 62
7
  6
CONTINUOUS
 90
5
 70
0
 10
9.6092655169
 20
4.828631195
 10
9.6446901945
 20
4.8375114089
 10
9.6823708955
 20
4.849395368
 10
9.7221296974
 20
4.8649484745
 10
9.7636030963
 20
4.8848675664
  0
LWPOLYLINE
  5
3AD
100
AcDbEntity
  8
0
100
AcDbPolyline
 62
7
  6
CONTINUOUS
 90
4
 70
0
 10
9.5274979942
 20
4.8841024482
 10
9.5235940308
 20
4.8831585007
 10
9.519504492
 20
4.8828135151
 10
9.5151348423
 20
4.8829819728
  0
LWPOLYLINE
  5
3AE
100
AcDbEntity
  8
0
100
AcDbPolyline
 62
7
  6
CONTINUOUS
 90
5
 70
0
 10
9.6092655152
 20
4.9874311107
 10
9.6446901964
 20
4.9943095783
 10
9.6823708977
 20
5.0021851308
 10
9.7221296981
 20
5.0118770957
 10
9.7636030963
 20
5.0242626026
  0
LWPOLYLINE
  5
3AF
100
AcDbEntity
  8
0
100
AcDbPolyline
 62
7
  6
CONTINUOUS
 90
3
 70
0
 10
9.6092655129
 20
4.8286311935
 10
9.5389639021
 20
4.8174791028
 10
9.5381305172
 20
4.817448857
  0
LWPOLYLINE
  5
3B0
100
AcDbEntity
  8
0
100
AcDbPolyline
 62
7
  6
CONTINUOUS
 90
3
 70
0
 10
9.609265515
 20
4.9874311106
 10
9.5389639074
 20
4.9773268182
 10
9.5381305172
 20
4.9772895213
  0
LWPOLYLINE
  5
3B1
100
AcDbEntity
  8
0
100
AcDbPolyline
 62
7
  6
CONTINUOUS
 90
3
 70
0
 10
9.5381305172
 20
5.3264438004
 10
9.5708842499
 20
5.3318306528
 10
9.6092655151
 20
5.3383378572
  0
LWPOLYLINE
  5
3B2
100
AcDbEntity
  8
0
100
AcDbPolyline
 62
7
  6
CONTINUOUS
 90
5
 70
0
 10
9.5151348423
 20
5.2979035464
 10
9.5783595634
 20
5.308246627
 10
9.6404284788
 20
5.3189194582
 10
9.7033496818
 20
5.3302823249
 10
9.7636030963
 20
5.341696091
  0
LWPOLYLINE
  5
3B3
100
AcDbEntity
  8
0
100
AcDbPolyline
 62
7
  6
CONTINUOUS
 90
4
 70
0
 10
9.7636030963
 20
5.2648274158
 10
9.6924371677
 20
5.25512593
 10
9.6102128705
 20
5.2447842368
 10
9.5151348423
 20
5.2339376871
  0
LWPOLYLINE
  5
3B4
100
AcDbEntity
  8
0
100
AcDbPolyline
 62
7
  6
CONTINUOUS
 90
8
 70
0
 10
9.5365528228
 20
5.223749009
 10
9.5362803636
 20
5.2237160367
 10
9.5337662786
 20
5.2240860285
 10
9.530785219
 20
5.2251778387
 10
9.5273803894
 20
5.2268097908
 10
9.5235940307
 20
5.2288756453
 10
9.5195044927
 20
5.2312722329
 10
9.5151348423
 20
5.2339376871
  0
LWPOLYLINE
  5
3B5
100
AcDbEntity
  8
0
100
AcDbPolyline
 62
7
  6
CONTINUOUS
 90
3
 70
0
 10
9.5365515515
 20
5.223737149
 10
9.5919090412
 20
5.2301547691
 10
9.6410473587
 20
5.2361939066
  0
LWPOLYLINE
  5
3B6
100
AcDbEntity
  8
0
100
AcDbPolyline
 62
7
  6
CONTINUOUS
 90
3
 70
0
 10
9.6092655151
 20
5.3383378572
 10
9.5389639076
 20
5.3331408598
 10
9.5381305172
 20
5.3331107582
  0
LWPOLYLINE
  5
3B7
100
AcDbEntity
  8
0
100
AcDbPolyline
 62
7
  6
CONTINUOUS
 90
5
 70
0
 10
9.6092655151
 20
5.3383378572
 10
9.6446901954
 20
5.3405872367
 10
9.6823708962
 20
5.3414461896
 10
9.7221296965
 20
5.3415750095
 10
9.7636030963
 20
5.341696091
  0
LWPOLYLINE
  5
3B8
100
AcDbEntity
  8
0
100
AcDbPolyline
 62
7
  6
CONTINUOUS
 90
8
 70
0
 10
9.5151309234
 20
5.7468093803
 10
9.519500009
 20
5.749471719
 10
9.5235846858
 20
5.7518656809
 10
9.5273668865
 20
5.7539298652
 10
9.5307712924
 20
5.7555627826
 10
9.5337561317
 20
5.7566577644
 10
9.5362760737
 20
5.7570307999
 10
9.5365528465
 20
5.7569974126
  0
LINE
  5
3B9
100
AcDbEntity
  8
AXIS_COSMETIC_THREADS
100
AcDbLine
 62
7
  6
CONTINUOUS
 10
10.0046659488
 20
5.3738733221
 11
11.5834061063
 21
5.3738733221
  0
LINE
  5
3BA
100
AcDbEntity
  8
AXIS
100
AcDbLine
 62
7
  6
CONTINUOUS
 10
11.5834061063
 20
5.4253733221
 11
11.8834061063
 21
5.4253733221
  0
LINE
  5
3BB
100
AcDbEntity
  8
AXIS
100
AcDbLine
 62
7
  6
CONTINUOUS
 10
11.5834061063
 20
5.4753733221
 11
11.8834061063
 21
5.4753733221
  0
LINE
  5
3BC
100
AcDbEntity
  8
AXIS
100
AcDbLine
 62
7
  6
CONTINUOUS
 10
11.5834061063
 20
5.5053733221
 11
11.8834061063
 21
5.5053733221
  0
LINE
  5
3BD
100
AcDbEntity
  8
0
100
AcDbLine
 62
7
  6
CONTINUOUS
 10
9.515144096
 20
4.7640331155
 11
9.5151348423
 21
4.7750204133
  0
LINE
  5
3BE
100
AcDbEntity
  8
0
100
AcDbLine
 62
7
  6
CONTINUOUS
 10
9.5151309234
 20
5.7468093803
 11
9.5151348423
 21
5.8353850483
  0
LINE
  5
3BF
100
AcDbEntity
  8
0
100
AcDbLine
 62
7
  6
CONTINUOUS
 10
9.5151348423
 20
4.7750204133
 11
9.5151348423
 21
4.8829819728
  0
LINE
  5
3C0
100
AcDbEntity
  8
0
100
AcDbLine
 62
7
  6
CONTINUOUS
 10
9.5151348423
 20
4.922515048
 11
9.5151348423
 21
5.2339376871
  0
LINE
  5
3C1
100
AcDbEntity
  8
0
100
AcDbLine
 62
7
  6
CONTINUOUS
 10
9.5151348423
 20
5.2979035464
 11
9.5151348423
 21
5.682843098
  0
LINE
  5
3C2
100
AcDbEntity
  8
0
100
AcDbLine
 62
7
  6
CONTINUOUS
 10
9.5151348423
 20
5.8353850483
 11
9.5151348423
 21
6.0582315963
  0
LINE
  5
3C3
100
AcDbEntity
  8
0
100
AcDbLine
 62
7
  6
CONTINUOUS
 10
9.5151348423
 20
6.0977646714
 11
9.5151348423
 21
6.2167175347
  0
LINE
  5
3C4
100
AcDbEntity
  8
AXIS
100
AcDbLine
 62
7
  6
CONTINUOUS
 10
11.5834061063
 20
5.5553733221
 11
11.8834061063
 21
5.5553733221
  0
LINE
  5
3C5
100
AcDbEntity
  8
AXIS_COSMETIC_THREADS
100
AcDbLine
 62
7
  6
CONTINUOUS
 10
10.0046659488
 20
5.6068733221
 11
11.5834061063
 21
5.6068733221
  0
LWPOLYLINE
  5
3C6
100
AcDbEntity
  8
0
100
AcDbPolyline
 62
7
  6
CONTINUOUS
 90
9
 70
0
 10
9.7636030963
 20
5.6390505532
 10
9.7459238077
 20
5.6391546836
 10
9.7277982191
 20
5.6391728379
 10
9.7093479094
 20
5.6391741058
 10
9.6907439938
 20
5.639233689
 10
9.6720441365
 20
5.6394323453
 10
9.652794426
 20
5.6398748377
 10
9.6321685314
 20
5.6407446257
 10
9.6092655149
 20
5.6424087871
  0
LWPOLYLINE
  5
3C7
100
AcDbEntity
  8
0
100
AcDbPolyline
 62
7
  6
CONTINUOUS
 90
3
 70
0
 10
9.5381305172
 20
5.647635886
 10
9.5389639115
 20
5.6476057843
 10
9.6092655153
 20
5.6424087871
  0
LWPOLYLINE
  5
3C8
100
AcDbEntity
  8
0
100
AcDbPolyline
 62
7
  6
CONTINUOUS
 90
3
 70
0
 10
9.6092655153
 20
5.6424087871
 10
9.5720688906
 20
5.648718087
 10
9.5381305172
 20
5.6543024224
  0
LINE
  5
3C9
100
AcDbEntity
  8
0
100
AcDbLine
 62
7
  6
CONTINUOUS
 10
9.5381305172
 20
6.1871655789
 11
9.5381305172
 21
6.0929126359
  0
LINE
  5
3CA
100
AcDbEntity
  8
0
100
AcDbLine
 62
7
  6
CONTINUOUS
 10
9.5381305172
 20
6.022830076
 11
9.5381305172
 21
5.7568264866
  0
LINE
  5
3CB
100
AcDbEntity
  8
0
100
AcDbLine
 62
7
  6
CONTINUOUS
 10
9.5381305172
 20
5.6551141908
 11
9.5381305172
 21
5.3256324538
  0
LINE
  5
3CC
100
AcDbEntity
  8
0
100
AcDbLine
 62
7
  6
CONTINUOUS
 10
9.5381305172
 20
5.2239201992
 11
9.5381305172
 21
4.9579165684
  0
LINE
  5
3CD
100
AcDbEntity
  8
0
100
AcDbLine
 62
7
  6
CONTINUOUS
 10
9.5381305172
 20
4.8878347344
 11
9.5381305172
 21
4.7935810654
  0
LWPOLYLINE
  5
3CE
100
AcDbEntity
  8
0
100
AcDbPolyline
 62
7
  6
CONTINUOUS
 90
8
 70
0
 10
9.5151348423
 20
5.2979035464
 10
9.519502084
 20
5.3020454884
 10
9.5235862941
 20
5.306262297
 10
9.5273680632
 20
5.3105029249
 10
9.5307720773
 20
5.3146556636
 10
9.5337565836
 20
5.3186448946
 10
9.5362762553
 20
5.3224023446
 10
9.5381305172
 20
5.3256324538
  0
LWPOLYLINE
  5
3CF
100
AcDbEntity
  8
0
100
AcDbPolyline
 62
7
  6
CONTINUOUS
 90
4
 70
0
 10
9.7636030963
 20
5.2648274158
 10
9.7221297002
 20
5.2526378196
 10
9.6823708993
 20
5.2431542948
 10
9.6410472287
 20
5.2362009292
  0
LWPOLYLINE
  5
3D0
100
AcDbEntity
  8
0
100
AcDbPolyline
 62
7
  6
CONTINUOUS
 90
5
 70
0
 10
9.5151309235
 20
5.7468093804
 10
9.5854410652
 20
5.7389012842
 10
9.6512298193
 20
5.7309175003
 10
9.7106991499
 20
5.7231988215
 10
9.7636030963
 20
5.7159192284
  0
LINE
  5
3D1
100
AcDbEntity
  8
0
100
AcDbLine
 62
7
  6
CONTINUOUS
 10
9.5915112021
 20
5.7506394438
 11
9.5365515515
 21
5.7570094952
  0
LINE
  5
3D2
100
AcDbEntity
  8
0
100
AcDbLine
 62
7
  6
CONTINUOUS
 10
9.6410473542
 20
5.744552738
 11
9.5915112021
 21
5.7506394438
  0
LWPOLYLINE
  5
3D3
100
AcDbEntity
  8
0
100
AcDbPolyline
 62
7
  6
CONTINUOUS
 90
4
 70
0
 10
9.6410472242
 20
5.7445457154
 10
9.6823708982
 20
5.7375923509
 10
9.7221296987
 20
5.7281088232
 10
9.7636030963
 20
5.7159192284
  0
LWPOLYLINE
  5
3D4
100
AcDbEntity
  8
0
100
AcDbPolyline
 62
7
  6
CONTINUOUS
 90
4
 70
0
 10
9.7636030963
 20
5.6390505532
 10
9.6902330707
 20
5.6528791888
 10
9.608016171
 20
5.6674657353
 10
9.5151348423
 20
5.682843098
  0
LWPOLYLINE
  5
3D5
100
AcDbEntity
  8
0
100
AcDbPolyline
 62
7
  6
CONTINUOUS
 90
8
 70
0
 10
9.5381305172
 20
5.6551141908
 10
9.5362803639
 20
5.6583377382
 10
9.5337662791
 20
5.662088107
 10
9.5307852197
 20
5.6660742147
 10
9.5273803901
 20
5.6702293008
 10
9.5235940314
 20
5.6744760149
 10
9.5195044929
 20
5.6786987593
 10
9.5151348423
 20
5.682843098
  0
LWPOLYLINE
  5
3D6
100
AcDbEntity
  8
0
100
AcDbPolyline
 62
7
  6
CONTINUOUS
 90
8
 70
0
 10
9.5381305172
 20
6.022830076
 10
9.536280364
 20
6.0288027405
 10
9.5337662791
 20
6.0345009726
 10
9.5307852196
 20
6.0398588201
 10
9.5273803899
 20
6.0449499383
 10
9.5235940312
 20
6.049755412
 10
9.519504494
 20
6.05419137
 10
9.5151348423
 20
6.0582315963
  0
LINE
  5
3D7
100
AcDbEntity
  8
0
100
AcDbLine
 62
7
  6
CONTINUOUS
 10
9.7636030963
 20
6.0958790779
 11
9.7636030963
 21
6.0039914957
  0
LINE
  5
3D8
100
AcDbEntity
  8
0
100
AcDbLine
 62
7
  6
CONTINUOUS
 10
9.7636030963
 20
5.9564840418
 11
9.7636030963
 21
5.7159192284
  0
LINE
  5
3D9
100
AcDbEntity
  8
0
100
AcDbLine
 62
7
  6
CONTINUOUS
 10
9.7636030963
 20
5.6390505532
 11
9.7636030963
 21
5.341696091
  0
LINE
  5
3DA
100
AcDbEntity
  8
0
100
AcDbLine
 62
7
  6
CONTINUOUS
 10
9.7636030963
 20
5.2648274158
 11
9.7636030963
 21
5.0242626026
  0
LINE
  5
3DB
100
AcDbEntity
  8
0
100
AcDbLine
 62
7
  6
CONTINUOUS
 10
9.7636030963
 20
4.9767551486
 11
9.7636030963
 21
4.8848675664
  0
LWPOLYLINE
  5
3DC
100
AcDbEntity
  8
0
100
AcDbPolyline
 62
7
  6
CONTINUOUS
 90
8
 70
0
 10
9.5151348423
 20
4.922515048
 10
9.5195020839
 20
4.9265528529
 10
9.5235862935
 20
4.930982156
 10
9.5273680627
 20
4.9357797554
 10
9.5307720769
 20
4.9408663782
 10
9.5337565833
 20
4.9462263194
 10
9.5362762552
 20
4.951933101
 10
9.5381305172
 20
4.9579165684
  0
LWPOLYLINE
  5
3DD
100
AcDbEntity
  8
0
100
AcDbPolyline
 62
7
  6
CONTINUOUS
 90
3
 70
0
 10
9.5381305172
 20
4.9598359629
 10
9.5717042258
 20
4.9726244802
 10
9.609265515
 20
4.9874311106
  0
LWPOLYLINE
  5
3DE
100
AcDbEntity
  8
0
100
AcDbPolyline
 62
7
  6
CONTINUOUS
 90
3
 70
0
 10
9.5381305172
 20
6.0034571229
 10
9.5389639085
 20
6.003419826
 10
9.6092655141
 20
5.993315534
  0
LWPOLYLINE
  5
3DF
100
AcDbEntity
  8
0
100
AcDbPolyline
 62
7
  6
CONTINUOUS
 90
5
 70
0
 10
9.7636030963
 20
5.9564840418
 10
9.7221403242
 20
5.9688667068
 10
9.6823460562
 20
5.9785670541
 10
9.6446425358
 20
5.9864465011
 10
9.6092655159
 20
5.9933155335
  0
LWPOLYLINE
  5
3E0
100
AcDbEntity
  8
0
100
AcDbPolyline
 62
7
  6
CONTINUOUS
 90
3
 70
0
 10
9.6092655141
 20
5.993315534
 10
9.5721767219
 20
6.0079389674
 10
9.5381305172
 20
6.0209102409
  0
LWPOLYLINE
  5
3E1
100
AcDbEntity
  8
0
100
AcDbPolyline
 62
7
  6
CONTINUOUS
 90
8
 70
0
 10
9.5381305172
 20
6.1871655789
 10
9.5362803644
 20
6.1936060052
 10
9.5337662801
 20
6.1990755694
 10
9.5307852212
 20
6.2037586409
 10
9.5273803927
 20
6.2078411567
 10
9.5235940369
 20
6.2113698604
 10
9.5195045086
 20
6.2143246411
 10
9.5151348423
 20
6.2167175347
  0
LINE
  5
3E2
100
AcDbEntity
  8
0
100
AcDbLine
 62
7
  6
CONTINUOUS
 10
9.986774989
 20
5.0160414063
 11
9.986774989
 21
5.964705238
  0
LINE
  5
3E3
100
AcDbEntity
  8
0
100
AcDbLine
 62
7
  6
CONTINUOUS
 10
10.0046659488
 20
5.0490361112
 11
10.0046659488
 21
5.9317105331
  0
LWPOLYLINE
  5
3E4
100
AcDbEntity
  8
0
100
AcDbPolyline
 62
7
  6
CONTINUOUS
 90
8
 70
0
 10
9.515144096
 20
4.7640331155
 10
9.5195069776
 20
4.7664235638
 10
9.5235900899
 20
4.7693735431
 10
9.5273708418
 20
4.7728954091
 10
9.5307739314
 20
4.7769725973
 10
9.5337576514
 20
4.7816553497
 10
9.5362766846
 20
4.7871308615
 10
9.5381305172
 20
4.7935810654
  0
LWPOLYLINE
  5
3E5
100
AcDbEntity
  8
0
100
AcDbPolyline
 62
7
  6
CONTINUOUS
 90
4
 70
0
 10
9.7636030963
 20
4.9767551486
 10
9.7459238079
 20
4.9678363722
 10
9.7277982177
 20
4.9594012704
 10
9.7085478005
 20
4.9512312529
  0
LINE
  5
3E6
100
AcDbEntity
  8
AXIS
100
AcDbLine
 62
7
  6
CONTINUOUS
 10
9.5151348423
 20
4.7632510393
 11
9.7635833302
 21
4.8835098203
  0
LWPOLYLINE
  5
3E7
100
AcDbEntity
  8
0
100
AcDbPolyline
 62
7
  6
CONTINUOUS
 90
3
 70
0
 10
9.5381305172
 20
4.7958751199
 10
9.5717456194
 20
4.8110628464
 10
9.6092655129
 20
4.8286311935
  0
LWPOLYLINE
  5
3E8
100
AcDbEntity
  8
0
100
AcDbPolyline
 62
7
  6
CONTINUOUS
 90
5
 70
0
 10
9.5151440965
 20
4.7640331143
 10
9.583933778
 20
4.7947907707
 10
9.6494603261
 20
4.8259707299
 10
9.70965522
 20
4.8562876273
 10
9.7636030963
 20
4.8848675664
  0
LWPOLYLINE
  5
3E9
100
AcDbEntity
  8
0
100
AcDbPolyline
 62
7
  6
CONTINUOUS
 90
3
 70
0
 10
9.7636030963
 20
4.9767551486
 10
9.6920530518
 20
4.9474811596
 10
9.6097345014
 20
4.916111684
  0
LWPOLYLINE
  5
3EA
100
AcDbEntity
  8
0
100
AcDbPolyline
 62
7
  6
CONTINUOUS
 90
5
 70
0
 10
9.5151348423
 20
4.922515048
 10
9.5839435947
 20
4.9485022355
 10
9.6493530217
 20
4.9747283175
 10
9.7095484078
 20
5.0002216127
 10
9.7636030963
 20
5.0242626026
  0
LWPOLYLINE
  5
3EB
100
AcDbEntity
  8
0
100
AcDbPolyline
 62
7
  6
CONTINUOUS
 90
4
 70
0
 10
9.5274977879
 20
4.8841020368
 10
9.5962951799
 20
4.9082538656
 10
9.6821421445
 20
4.940712046
 10
9.7085478336
 20
4.9512310582
  0
LINE
  5
3EC
100
AcDbEntity
  8
0
100
AcDbLine
 62
7
  6
CONTINUOUS
 10
9.6097345014
 20
4.916111684
 11
9.5151348423
 21
4.8829819728
  0
LWPOLYLINE
  5
3ED
100
AcDbEntity
  8
0
100
AcDbPolyline
 62
7
  6
CONTINUOUS
 90
4
 70
0
 10
9.5151348423
 20
6.0977646714
 10
9.5195020801
 20
6.0979331741
 10
9.5235862928
 20
6.0975893476
 10
9.5274980149
 20
6.0966441565
  0
LWPOLYLINE
  5
3EE
100
AcDbEntity
  8
0
100
AcDbPolyline
 62
7
  6
CONTINUOUS
 90
3
 70
0
 10
9.5381305172
 20
6.1632977872
 10
9.5389639041
 20
6.1632675413
 10
9.6092655123
 20
6.152115451
  0
LWPOLYLINE
  5
3EF
100
AcDbEntity
  8
0
100
AcDbPolyline
 62
7
  6
CONTINUOUS
 90
3
 70
0
 10
9.5151348423
 20
6.0977646714
 10
9.5827789909
 20
6.074387256
 10
9.6475825556
 20
6.0505124439
  0
LINE
  5
3F0
100
AcDbEntity
  8
0
100
AcDbLine
 62
7
  6
CONTINUOUS
 10
9.5958984679
 20
6.0726367243
 11
9.5274977896
 21
6.0966446057
  0
LWPOLYLINE
  5
3F1
100
AcDbEntity
  8
0
100
AcDbPolyline
 62
7
  6
CONTINUOUS
 90
3
 70
0
 10
9.6475825556
 20
6.0505124439
 10
9.7077524518
 20
6.0270051497
 10
9.7636030963
 20
6.0039914957
  0
LWPOLYLINE
  5
3F2
100
AcDbEntity
  8
0
100
AcDbPolyline
 62
7
  6
CONTINUOUS
 90
3
 70
0
 10
9.7085478413
 20
6.0295155836
 10
9.6817512649
 20
6.0401883898
 10
9.5958984679
 20
6.0726367243
  0
LWPOLYLINE
  5
3F3
100
AcDbEntity
  8
0
100
AcDbPolyline
 62
7
  6
CONTINUOUS
 90
3
 70
0
 10
9.7085472159
 20
6.0295119372
 10
9.7221296991
 20
6.0238357551
 10
9.7636030963
 20
6.0039914957
  0
LWPOLYLINE
  5
3F4
100
AcDbEntity
  8
0
100
AcDbPolyline
 62
7
  6
CONTINUOUS
 90
4
 70
0
 10
9.7636030963
 20
5.9564840418
 10
9.6918178398
 20
5.9881720775
 10
9.6095348833
 20
6.0221631562
 10
9.5151348423
 20
6.0582315963
  0
LWPOLYLINE
  5
3F5
100
AcDbEntity
  8
0
100
AcDbPolyline
 62
7
  6
CONTINUOUS
 90
3
 70
0
 10
9.6092655123
 20
6.152115451
 10
9.5721805383
 20
6.1694836325
 10
9.5381305172
 20
6.1848710232
  0
LINE
  5
3F6
100
AcDbEntity
  8
AXIS
100
AcDbLine
 62
7
  6
CONTINUOUS
 10
9.5151348423
 20
6.217495605
 11
9.7635833302
 21
6.0972368239
  0
LWPOLYLINE
  5
3F7
100
AcDbEntity
  8
0
100
AcDbPolyline
 62
7
  6
CONTINUOUS
 90
9
 70
0
 10
9.7636030963
 20
6.0958790779
 10
9.7459238086
 20
6.1048622048
 10
9.7277982188
 20
6.1133085311
 10
9.709347909
 20
6.1211562068
 10
9.6907439936
 20
6.1283439151
 10
9.672044136
 20
6.1348722804
 10
9.6527944253
 20
6.1408996113
 10
9.6321685307
 20
6.1466167936
 10
9.6092655187
 20
6.1521154489
  0
LWPOLYLINE
  5
3F8
100
AcDbEntity
  8
0
100
AcDbPolyline
 62
7
  6
CONTINUOUS
 90
4
 70
0
 10
9.7636030963
 20
6.0958790779
 10
9.6919518992
 20
6.1335449647
 10
9.6097016861
 20
6.1739170825
 10
9.5151348423
 20
6.2167175347
  0
LINE
  5
3F9
100
AcDbEntity
  8
0
100
AcDbLine
 62
7
  6
CONTINUOUS
 10
8.2290753977
 20
6.4746252907
 11
7.7566344528
 21
6.4746252907
  0
LINE
  5
3FA
100
AcDbEntity
  8
AXIS_COSMETIC_THREADS
100
AcDbLine
 62
7
  6
CONTINUOUS
 10
11.5834061063
 20
5.6068733221
 11
11.5834061063
 21
5.3738733221
  0
LINE
  5
3FB
100
AcDbEntity
  8
AXIS
100
AcDbLine
 62
7
  6
CONTINUOUS
 10
11.8834061063
 20
5.5553733221
 11
11.8834061063
 21
5.5053733221
  0
LINE
  5
3FC
100
AcDbEntity
  8
AXIS
100
AcDbLine
 62
7
  6
CONTINUOUS
 10
11.8834061063
 20
5.4753733221
 11
11.8834061063
 21
5.4253733221
  0
LWPOLYLINE
  5
3FD
100
AcDbEntity
  8
02___PRT_ALL_AXES
100
AcDbPolyline
 62
7
  6
CONTINUOUS
 90
18
 70
0
 10
11.9468583085
 20
6.9665881566
 10
11.8473302742
 20
7.0324006665
 10
11.7562786995
 20
7.1099834218
 10
11.6781893005
 20
7.1945159176
 10
11.6139469383
 20
7.2822501985
 10
11.5609859924
 20
7.37413686
 10
11.5188392242
 20
7.4695515715
 10
11.4875858192
 20
7.5667723943
 10
11.46620265
 20
7.6691000393
 10
11.4555448142
 20
7.7787912216
 10
11.4569940743
 20
7.8857899705
 10
11.4705813054
 20
7.9949454204
 10
11.4960894346
 20
8.1013221241
 10
11.5364111
 20
8.2115723942
 10
11.5875545597
 20
8.3127752505
 10
11.6582457719
 20
8.4183234411
 10
11.7399896042
 20
8.5119232109
 10
11.8358932574
 20
8.5968254224
  0
LINE
  5
3FE
100
AcDbEntity
  8
AXIS
100
AcDbLine
 62
7
  6
CONTINUOUS
 10
12.3087007732
 20
8.880407662
 11
12.2955681332
 21
8.8706981909
  0
LINE
  5
3FF
100
AcDbEntity
  8
02___PRT_ALL_AXES
100
AcDbLine
 62
7
  6
CONTINUOUS
 10
11.8358932574
 20
8.5968254224
 11
11.9468521618
 21
8.6713686663
  0
LINE
  5
400
100
AcDbEntity
  8
02___PRT_ALL_AXES
100
AcDbLine
 62
7
  6
CONTINUOUS
 10
11.9468521618
 20
8.6713686663
 11
12.2809169667
 21
8.8642399201
  0
LWPOLYLINE
  5
401
100
AcDbEntity
  8
AXIS
100
AcDbPolyline
 62
7
  6
CONTINUOUS
 90
7
 70
0
 10
12.3087007732
 20
8.880407662
 10
12.5142349092
 20
8.9863514333
 10
12.7293279413
 20
9.0723291386
 10
12.9486632441
 20
9.1364353829
 10
13.1557115983
 20
9.1765634937
 10
13.3403718123
 20
9.1961864163
 10
13.4469662684
 20
9.2005997285
  0
LINE
  5
402
100
AcDbEntity
  8
02___PRT_ALL_AXES
100
AcDbLine
 62
7
  6
CONTINUOUS
 10
11.946853351
 20
8.6713666062
 11
11.9916123897
 21
8.6928869163
  0
LWPOLYLINE
  5
403
100
AcDbEntity
  8
02___PRT_ALL_AXES
100
AcDbPolyline
 62
7
  6
CONTINUOUS
 90
8
 70
0
 10
11.9468521618
 20
8.6713686663
 10
12.0050431648
 20
8.6978199913
 10
12.0686953765
 20
8.7132218508
 10
12.1370040811
 20
8.7173781026
 10
12.2091102571
 20
8.7102364793
 10
12.2841071274
 20
8.6918867909
 10
12.361051563
 20
8.6625597956
 10
12.4389759428
 20
8.6226242972
  0
LWPOLYLINE
  5
404
100
AcDbEntity
  8
0
100
AcDbPolyline
 62
7
  6
CONTINUOUS
 90
7
 70
0
 10
12.2809169667
 20
8.8642399201
 10
12.3515756333
 20
8.8953864373
 10
12.4299687241
 20
8.9115440723
 10
12.5150613407
 20
8.9119903881
 10
12.6052098903
 20
8.8962685237
 10
12.6984197819
 20
8.8645209955
 10
12.7927254532
 20
8.8174454677
  0
LINE
  5
405
100
AcDbEntity
  8
0
100
AcDbLine
 62
7
  6
CONTINUOUS
 10
13.7594292929
 20
9.0825587474
 11
13.7879780522
 21
9.0931041253
  0
LWPOLYLINE
  5
406
100
AcDbEntity
  8
AXIS_COSMETIC_THREADS
100
AcDbPolyline
 62
7
  6
CONTINUOUS
 90
7
 70
0
 10
15.0866516907
 20
9.4821284701
 10
15.0909545603
 20
9.4842713622
 10
15.1003638009
 20
9.4869724105
 10
15.1106796877
 20
9.4875209977
 10
15.1216922189
 20
9.4859059562
 10
15.1331772112
 20
9.4821601635
 10
15.1449008632
 20
9.4763598732
  0
LWPOLYLINE
  5
407
100
AcDbEntity
  8
0
100
AcDbPolyline
 62
7
  6
CONTINUOUS
 90
5
 70
0
 10
13.9650699509
 20
8.8696288885
 10
13.9992880507
 20
8.8860159867
 10
14.0313027574
 20
8.9009497757
 10
14.0603329549
 20
8.9141234076
 10
14.0866583356
 20
8.9257351002
  0
LWPOLYLINE
  5
408
100
AcDbEntity
  8
0
100
AcDbPolyline
 62
7
  6
CONTINUOUS
 90
3
 70
0
 10
14.0051841463
 20
8.9047794199
 10
13.9854940684
 20
8.8956473873
 10
13.9610249837
 20
8.8840772123
  0
LWPOLYLINE
  5
409
100
AcDbEntity
  8
0
100
AcDbPolyline
 62
7
  6
CONTINUOUS
 90
5
 70
0
 10
14.0052005233
 20
8.9047585127
 10
14.0141218085
 20
8.9086298119
 10
14.0375189279
 20
8.9166175493
 10
14.0619816559
 20
8.9223224895
 10
14.0866583356
 20
8.9257351002
  0
LWPOLYLINE
  5
40A
100
AcDbEntity
  8
0
100
AcDbPolyline
 62
7
  6
CONTINUOUS
 90
3
 70
0
 10
14.0555687962
 20
8.8089535176
 10
14.0360070218
 20
8.8019050135
 10
14.0219933499
 20
8.7967388852
  0
LWPOLYLINE
  5
40B
100
AcDbEntity
  8
0
100
AcDbPolyline
 62
7
  6
CONTINUOUS
 90
4
 70
0
 10
14.1328951096
 20
8.8602509393
 10
14.0966894417
 20
8.8484158418
 10
14.0540056055
 20
8.8336300939
 10
14.0035456366
 20
8.8151365921
  0
LWPOLYLINE
  5
40C
100
AcDbEntity
  8
0
100
AcDbPolyline
 62
7
  6
CONTINUOUS
 90
4
 70
0
 10
13.6586390345
 20
9.1436681586
 10
13.6591987268
 20
9.1449626619
 10
13.6596307024
 20
9.1456396887
 10
13.6598008072
 20
9.1457330923
  0
LINE
  5
40D
100
AcDbEntity
  8
AXIS_COSMETIC_THREADS
100
AcDbLine
 62
7
  6
CONTINUOUS
 10
14.1895033922
 20
8.9641640591
 11
15.086651124
 21
9.4821294517
  0
LINE
  5
40E
100
AcDbEntity
  8
AXIS
100
AcDbLine
 62
7
  6
CONTINUOUS
 10
15.1456569085
 20
9.4758609413
 11
15.3162476813
 21
9.574350982
  0
LINE
  5
40F
100
AcDbEntity
  8
AXIS
100
AcDbLine
 62
7
  6
CONTINUOUS
 10
15.1850371709
 20
9.4408620699
 11
15.3412475694
 21
9.5310496472
  0
LINE
  5
410
100
AcDbEntity
  8
AXIS
100
AcDbLine
 62
7
  6
CONTINUOUS
 10
15.1892855036
 20
9.4357307074
 11
15.3728164593
 21
9.5416917216
  0
LINE
  5
411
100
AcDbEntity
  8
0
100
AcDbLine
 62
7
  6
CONTINUOUS
 10
14.0239116726
 20
8.7934997989
 11
14.0555687962
 21
8.8089535176
  0
LWPOLYLINE
  5
412
100
AcDbEntity
  8
0
100
AcDbPolyline
 62
7
  6
CONTINUOUS
 90
5
 70
0
 10
14.1328951096
 20
8.8602509393
 10
14.1154824279
 20
8.8465608176
 10
14.0966293721
 20
8.8328744612
 10
14.0766024792
 20
8.8200860919
 10
14.0555687972
 20
8.8089535181
  0
LINE
  5
413
100
AcDbEntity
  8
AXIS
100
AcDbLine
 62
7
  6
CONTINUOUS
 10
15.2142854625
 20
9.3924294135
 11
15.3978163474
 21
9.4983903868
  0
LINE
  5
414
100
AcDbEntity
  8
AXIS
100
AcDbLine
 62
7
  6
CONTINUOUS
 10
15.2166055611
 20
9.3861836625
 11
15.3728164593
 21
9.4763715283
  0
LINE
  5
415
100
AcDbEntity
  8
AXIS
100
AcDbLine
 62
7
  6
CONTINUOUS
 10
15.2272251686
 20
9.3345799184
 11
15.3978163474
 21
9.4330701935
  0
LINE
  5
416
100
AcDbEntity
  8
AXIS_COSMETIC_THREADS
100
AcDbLine
 62
7
  6
CONTINUOUS
 10
14.3060859585
 20
8.7624278094
 11
15.2031506024
 21
9.2803452315
  0
LINE
  5
417
100
AcDbEntity
  8
02___PRT_ALL_AXES
100
AcDbLine
 62
7
  6
CONTINUOUS
 10
12.3581782769
 20
8.663837842
 11
12.4389759428
 21
8.6226242972
  0
LINE
  5
418
100
AcDbEntity
  8
0
100
AcDbLine
 62
7
  6
CONTINUOUS
 10
13.0954412477
 20
8.5379350088
 11
13.0096235152
 21
8.6310509885
  0
LINE
  5
419
100
AcDbEntity
  8
0
100
AcDbLine
 62
7
  6
CONTINUOUS
 10
13.0750960849
 20
8.5849621196
 11
13.1597838844
 21
8.4837877185
  0
LWPOLYLINE
  5
41A
100
AcDbEntity
  8
0
100
AcDbPolyline
 62
7
  6
CONTINUOUS
 90
14
 70
0
 10
13.1597838844
 20
8.4837877185
 10
13.2371096417
 20
8.373897994
 10
13.3057339653
 20
8.2572793008
 10
13.3643950788
 20
8.1360967217
 10
13.4120113731
 20
8.0125378389
 10
13.4476603798
 20
7.8888337195
 10
13.470583172
 20
7.7673002763
 10
13.4802409094
 20
7.6501027981
 10
13.4762842647
 20
7.5395537097
 10
13.4586725879
 20
7.4379702954
 10
13.4277659079
 20
7.3475327555
 10
13.3844598306
 20
7.2702407022
 10
13.3297729998
 20
7.2071999265
 10
13.2651645289
 20
7.1594629592
  0
LWPOLYLINE
  5
41B
100
AcDbEntity
  8
0
100
AcDbPolyline
 62
7
  6
CONTINUOUS
 90
7
 70
0
 10
13.4434104955
 20
7.840799238
 10
13.4118314026
 20
7.962066798
 10
13.3684204406
 20
8.0842957163
 10
13.3140175598
 20
8.2051276591
 10
13.2497059286
 20
8.3222279391
 10
13.1764946381
 20
8.4337577232
 10
13.0954412477
 20
8.5379350088
  0
LINE
  5
41C
100
AcDbEntity
  8
AXIS
100
AcDbLine
 62
7
  6
CONTINUOUS
 10
13.4732139095
 20
7.8477819793
 11
13.4909764803
 21
7.7344136831
  0
LWPOLYLINE
  5
41D
100
AcDbEntity
  8
AXIS
100
AcDbPolyline
 62
7
  6
CONTINUOUS
 90
8
 70
0
 10
13.4909764803
 20
7.7344136831
 10
13.4969313001
 20
7.6260674305
 10
13.4909764803
 20
7.524597056
 10
13.4732139095
 20
7.4317387458
 10
13.4439475103
 20
7.3490813313
 10
13.4036780388
 20
7.2780391039
 10
13.3530945168
 20
7.2198276157
 10
13.2930581899
 20
7.1754404262
  0
LINE
  5
41E
100
AcDbEntity
  8
02___PRT_ALL_AXES
100
AcDbLine
 62
7
  6
CONTINUOUS
 10
12.2784732608
 20
8.6936261365
 11
12.3581782769
 21
8.663837842
  0
LINE
  5
41F
100
AcDbEntity
  8
0
100
AcDbLine
 62
7
  6
CONTINUOUS
 10
12.8434639055
 20
8.7707129214
 11
12.7730407478
 21
8.815495551
  0
LWPOLYLINE
  5
420
100
AcDbEntity
  8
AXIS
100
AcDbPolyline
 62
7
  6
CONTINUOUS
 90
11
 70
0
 10
12.8008794816
 20
8.8316578524
 10
12.891732475
 20
8.7723289847
 10
12.9810309486
 20
8.700263142
 10
13.0672469806
 20
8.616693391
 10
13.1489053908
 20
8.5230496332
 10
13.2246089813
 20
8.4209341393
 10
13.2930624425
 20
8.3120941337
 10
13.3530945168
 20
8.1983918991
 10
13.4036780388
 20
8.0817729122
 10
13.4439475103
 20
7.9642325563
 10
13.4732139095
 20
7.8477819793
  0
LINE
  5
421
100
AcDbEntity
  8
0
100
AcDbLine
 62
7
  6
CONTINUOUS
 10
12.7927254532
 20
8.8174454677
 11
12.8898973259
 21
8.7534705671
  0
LWPOLYLINE
  5
422
100
AcDbEntity
  8
0
100
AcDbPolyline
 62
7
  6
CONTINUOUS
 90
3
 70
0
 10
12.8898973259
 20
8.7534705671
 10
12.9845873271
 20
8.6754518593
 10
13.0750960849
 20
8.5849621196
  0
LWPOLYLINE
  5
423
100
AcDbEntity
  8
0
100
AcDbPolyline
 62
7
  6
CONTINUOUS
 90
3
 70
0
 10
13.0096235152
 20
8.6310509885
 10
12.9239287611
 20
8.7092682383
 10
12.8434639055
 20
8.7707129214
  0
LWPOLYLINE
  5
424
100
AcDbEntity
  8
0
100
AcDbPolyline
 62
7
  6
CONTINUOUS
 90
5
 70
0
 10
14.1819493924
 20
8.5351308871
 10
14.201140037
 20
8.5503304455
 10
14.2204386151
 20
8.5646586339
 10
14.2391673713
 20
8.5785648282
 10
14.2564841488
 20
8.5924766369
  0
LINE
  5
425
100
AcDbEntity
  8
0
100
AcDbLine
 62
7
  6
CONTINUOUS
 10
14.1819493923
 20
8.535130887
 11
14.155047513
 21
8.5146187688
  0
LINE
  5
426
100
AcDbEntity
  8
02___PRT_ALL_AXES
100
AcDbLine
 62
7
  6
CONTINUOUS
 10
12.2009387681
 20
8.7115863449
 11
12.2784732608
 21
8.6936261365
  0
LWPOLYLINE
  5
427
100
AcDbEntity
  8
AXIS
100
AcDbPolyline
 62
7
  6
CONTINUOUS
 90
7
 70
0
 10
12.8008794816
 20
8.8316578524
 10
12.7100264881
 20
8.8772346119
 10
12.6207280145
 20
8.908279432
 10
12.5345119825
 20
8.9242611274
 10
12.4528535723
 20
8.9249062468
 10
12.3771499818
 20
8.910203752
 10
12.3087007732
 20
8.880407662
  0
LWPOLYLINE
  5
428
100
AcDbEntity
  8
0
100
AcDbPolyline
 62
7
  6
CONTINUOUS
 90
8
 70
0
 10
12.7730407478
 20
8.815495551
 10
12.7026674002
 20
8.8520058305
 10
12.6222422395
 20
8.883466038
 10
12.5365698966
 20
8.9042091423
 10
12.4507570244
 20
8.9102056644
 10
12.3696956254
 20
8.8996421465
 10
12.2964719749
 20
8.8726699858
 10
12.2809169667
 20
8.8642399201
  0
LINE
  5
429
100
AcDbEntity
  8
0
100
AcDbLine
 62
7
  6
CONTINUOUS
 10
14.2741450249
 20
8.5195168968
 11
14.2477424126
 21
8.4861459525
  0
LWPOLYLINE
  5
42A
100
AcDbEntity
  8
0
100
AcDbPolyline
 62
7
  6
CONTINUOUS
 90
3
 70
0
 10
14.1580870701
 20
8.5049222655
 10
14.1674886983
 20
8.5165892596
 10
14.1819493923
 20
8.535130887
  0
LWPOLYLINE
  5
42B
100
AcDbEntity
  8
0
100
AcDbPolyline
 62
7
  6
CONTINUOUS
 90
5
 70
0
 10
14.1635359423
 20
8.468488044
 10
14.1916791624
 20
8.5031898669
 10
14.2167230182
 20
8.5359276395
 10
14.2382505366
 20
8.5657522909
 10
14.2564841488
 20
8.5924766369
  0
LWPOLYLINE
  5
42C
100
AcDbEntity
  8
0
100
AcDbPolyline
 62
7
  6
CONTINUOUS
 90
3
 70
0
 10
14.2477424126
 20
8.4861459525
 10
14.2162136003
 20
8.4491300811
 10
14.1782339539
 20
8.4077769105
  0
LWPOLYLINE
  5
42D
100
AcDbEntity
  8
0
100
AcDbPolyline
 62
7
  6
CONTINUOUS
 90
3
 70
0
 10
14.1835515123
 20
8.4036678666
 10
14.2088396469
 20
8.4313849232
 10
14.242460849
 20
8.4706806237
  0
LINE
  5
42E
100
AcDbEntity
  8
02___PRT_ALL_AXES
100
AcDbLine
 62
7
  6
CONTINUOUS
 10
12.1266233198
 20
8.7174755862
 11
12.2009387681
 21
8.7115863449
  0
LWPOLYLINE
  5
42F
100
AcDbEntity
  8
0
100
AcDbPolyline
 62
7
  6
CONTINUOUS
 90
6
 70
0
 10
13.9650699509
 20
8.8696288885
 10
13.9651172213
 20
8.8733049493
 10
13.9647909974
 20
8.8765472395
 10
13.9641051449
 20
8.8792951206
 10
13.9630774082
 20
8.8814340041
 10
13.9628246104
 20
8.8817885556
  0
LWPOLYLINE
  5
430
100
AcDbEntity
  8
0
100
AcDbPolyline
 62
7
  6
CONTINUOUS
 90
6
 70
0
 10
14.2741450249
 20
8.5195168968
 10
14.2682989559
 20
8.5085422605
 10
14.2617579472
 20
8.4975342433
 10
14.2545461114
 20
8.486634603
 10
14.2467215771
 20
8.4760108945
 10
14.2424611249
 20
8.4706794055
  0
LINE
  5
431
100
AcDbEntity
  8
0
100
AcDbLine
 62
7
  6
CONTINUOUS
 10
14.1640387949
 20
8.0503108626
 11
14.1635375497
 21
8.0497293384
  0
LWPOLYLINE
  5
432
100
AcDbEntity
  8
0
100
AcDbPolyline
 62
7
  6
CONTINUOUS
 90
8
 70
0
 10
13.3139342947
 20
7.1938524423
 10
13.3683517037
 20
7.2518460636
 10
13.4117787018
 20
7.323930613
 10
13.4433748392
 20
7.4087179186
 10
13.4625699052
 20
7.5046453931
 10
13.4690148836
 20
7.6099630935
 10
13.4625878994
 20
7.722713698
 10
13.4434104955
 20
7.840799238
  0
LWPOLYLINE
  5
433
100
AcDbEntity
  8
0
100
AcDbPolyline
 62
7
  6
CONTINUOUS
 90
5
 70
0
 10
14.2060524573
 20
8.1872828454
 10
14.2250157562
 20
8.2070948475
 10
14.2430215584
 20
8.2281663606
 10
14.2596010343
 20
8.2511619192
 10
14.2741450249
 20
8.2767262597
  0
LINE
  5
434
100
AcDbEntity
  8
0
100
AcDbLine
 62
7
  6
CONTINUOUS
 10
14.2060524573
 20
8.1872828454
 11
14.1937143187
 21
8.176557945
  0
LINE
  5
435
100
AcDbEntity
  8
02___PRT_ALL_AXES
100
AcDbLine
 62
7
  6
CONTINUOUS
 10
12.056531905
 20
8.7112142186
 11
12.1266233198
 21
8.7174755862
  0
LWPOLYLINE
  5
436
100
AcDbEntity
  8
0
100
AcDbPolyline
 62
7
  6
CONTINUOUS
 90
5
 70
0
 10
14.1635359421
 20
8.468488044
 10
14.1642353932
 20
8.4738253085
 10
14.1643803806
 20
8.4790313406
 10
14.1639618341
 20
8.4840464914
 10
14.1629697999
 20
8.4887099879
  0
LWPOLYLINE
  5
437
100
AcDbEntity
  8
0
100
AcDbPolyline
 62
7
  6
CONTINUOUS
 90
5
 70
0
 10
14.1782339539
 20
8.0934728362
 10
14.1919677394
 20
8.1634071643
 10
14.1965735535
 20
8.2400304855
 10
14.1919693372
 20
8.3219699168
 10
14.1782339539
 20
8.4077769105
  0
LWPOLYLINE
  5
438
100
AcDbEntity
  8
0
100
AcDbPolyline
 62
7
  6
CONTINUOUS
 90
13
 70
0
 10
14.3356349414
 20
8.4277799855
 10
14.3410583252
 20
8.446631079
 10
14.3501760126
 20
8.5044594456
 10
14.3501760125
 20
8.5684241223
 10
14.3410583253
 20
8.6367804487
 10
14.3230716286
 20
8.7076638644
 10
14.2967066985
 20
8.7791404543
 10
14.2626825682
 20
8.8492609836
 10
14.2219266683
 20
8.9161136587
 10
14.1755515764
 20
8.9778733171
 10
14.1248224055
 20
9.0328554297
 10
14.0711224556
 20
9.0795608095
 10
14.0159168735
 20
9.1167151779
  0
LINE
  5
439
100
AcDbEntity
  8
AXIS
100
AcDbLine
 62
7
  6
CONTINUOUS
 10
14.3356349414
 20
8.4277799855
 11
14.2932206791
 21
8.3105868231
  0
LWPOLYLINE
  5
43A
100
AcDbEntity
  8
0
100
AcDbPolyline
 62
7
  6
CONTINUOUS
 90
3
 70
0
 10
14.1782339539
 20
8.0934728362
 10
14.1804956977
 20
8.0991147251
 10
14.1817060846
 20
8.1031007606
  0
LINE
  5
43B
100
AcDbEntity
  8
AXIS
100
AcDbLine
 62
7
  6
CONTINUOUS
 10
14.2932206791
 20
8.3105868231
 11
14.2543259726
 21
8.2192983833
  0
LINE
  5
43C
100
AcDbEntity
  8
0
100
AcDbLine
 62
7
  6
CONTINUOUS
 10
14.2564841487
 20
8.2241590815
 11
14.2543271475
 21
8.2193009672
  0
LINE
  5
43D
100
AcDbEntity
  8
0
100
AcDbLine
 62
7
  6
CONTINUOUS
 10
14.2564841487
 20
8.2241590815
 11
14.2559630304
 21
8.2230129776
  0
LINE
  5
43E
100
AcDbEntity
  8
0
100
AcDbLine
 62
7
  6
CONTINUOUS
 10
14.2564841487
 20
8.2241590815
 11
14.2317542892
 21
8.1724095982
  0
LINE
  5
43F
100
AcDbEntity
  8
0
100
AcDbLine
 62
7
  6
CONTINUOUS
 10
14.2283755623
 20
8.1656482427
 11
14.2559641953
 21
8.2230156853
  0
LINE
  5
440
100
AcDbEntity
  8
0
100
AcDbLine
 62
7
  6
CONTINUOUS
 10
14.1395302156
 20
8.0011743468
 11
14.1635375497
 21
8.0497293384
  0
LINE
  5
441
100
AcDbEntity
  8
0
100
AcDbLine
 62
7
  6
CONTINUOUS
 10
14.1642069617
 20
8.0506434581
 11
14.1395302156
 21
8.0011743468
  0
LWPOLYLINE
  5
442
100
AcDbEntity
  8
0
100
AcDbPolyline
 62
7
  6
CONTINUOUS
 90
3
 70
0
 10
14.2288826906
 20
8.1836909161
 10
14.2525847162
 20
8.2306586617
 10
14.2741450249
 20
8.2767262597
  0
LINE
  5
443
100
AcDbEntity
  8
0
100
AcDbLine
 62
7
  6
CONTINUOUS
 10
14.2317542892
 20
8.1724095982
 11
14.2012578033
 21
8.1144377185
  0
LINE
  5
444
100
AcDbEntity
  8
0
100
AcDbLine
 62
7
  6
CONTINUOUS
 10
14.2543271475
 20
8.2193009672
 11
14.2528582215
 21
8.2165571639
  0
LINE
  5
445
100
AcDbEntity
  8
0
100
AcDbLine
 62
7
  6
CONTINUOUS
 10
14.1918027868
 20
8.1613258065
 11
14.2060524573
 21
8.1872828454
  0
LWPOLYLINE
  5
446
100
AcDbEntity
  8
0
100
AcDbPolyline
 62
7
  6
CONTINUOUS
 90
3
 70
0
 10
14.1782339539
 20
8.0934728362
 10
14.204353901
 20
8.1384597849
 10
14.2288826906
 20
8.1836909161
  0
LINE
  5
447
100
AcDbEntity
  8
0
100
AcDbLine
 62
7
  6
CONTINUOUS
 10
14.2012578033
 20
8.1144377185
 11
14.1635375497
 21
8.0497293384
  0
LWPOLYLINE
  5
448
100
AcDbEntity
  8
0
100
AcDbPolyline
 62
7
  6
CONTINUOUS
 90
3
 70
0
 10
14.1640403995
 20
8.0503145456
 10
14.1960351279
 20
8.1049254709
 10
14.2283755623
 20
8.1656482427
  0
LINE
  5
449
100
AcDbEntity
  8
0
100
AcDbLine
 62
7
  6
CONTINUOUS
 10
14.1394895088
 20
8.0011065852
 11
14.1395302156
 21
8.0011743468
  0
LWPOLYLINE
  5
44A
100
AcDbEntity
  8
AXIS
100
AcDbPolyline
 62
7
  6
CONTINUOUS
 90
7
 70
0
 10
14.1394895088
 20
8.0011065852
 10
14.0882570385
 20
7.9198620606
 10
13.981494238
 20
7.7716244274
 10
13.8452209623
 20
7.6127184212
 10
13.6799369909
 20
7.4527949207
 10
13.4943803247
 20
7.3053301261
 10
13.2930581899
 20
7.1754404262
  0
LWPOLYLINE
  5
44B
100
AcDbEntity
  8
02___PRT_ALL_AXES
100
AcDbPolyline
 62
7
  6
CONTINUOUS
 90
22
 70
0
 10
12.9310997239
 20
6.9665917054
 10
12.9831104356
 20
7.0037671892
 10
13.0282740883
 20
7.0511919944
 10
13.0660269749
 20
7.1082721817
 10
13.0958943309
 20
7.1742899345
 10
13.117500557
 20
7.2484150412
 10
13.1305739424
 20
7.3297153357
 10
13.1349500817
 20
7.4171684196
 10
13.1305739424
 20
7.5096745195
 10
13.117500557
 20
7.6060703177
 10
13.0958943309
 20
7.705143581
 10
13.0660269749
 20
7.8056484056
 10
13.0282740883
 20
7.9063208851
 10
12.9831104356
 20
8.0058950047
 10
12.931103976
 20
8.1031185619
 10
12.8729087208
 20
8.1967689142
 10
12.8092565092
 20
8.2856683541
 10
12.7409478046
 20
8.3686989194
 10
12.6688416286
 20
8.4448164528
 10
12.5938447582
 20
8.5130637319
 10
12.5169003227
 20
8.5725825078
 10
12.4389759428
 20
8.6226242972
  0
LINE
  5
44C
100
AcDbEntity
  8
0
100
AcDbLine
 62
7
  6
CONTINUOUS
 10
13.2651645289
 20
7.1594629592
 11
13.3139342947
 21
7.1938524423
  0
LWPOLYLINE
  5
44D
100
AcDbEntity
  8
02___PRT_ALL_AXES
100
AcDbPolyline
 62
7
  6
CONTINUOUS
 90
22
 70
0
 10
12.9310985347
 20
6.9665937654
 10
12.9452091867
 20
6.9752188469
 10
12.9972329412
 20
7.0167746632
 10
13.0417072275
 20
7.069178933
 10
13.0780306072
 20
7.1317229785
 10
13.1057118688
 20
7.2035609987
 10
13.1243766707
 20
7.2837215077
 10
13.1337726037
 20
7.3711204721
 10
13.1337726037
 20
7.4645759708
 10
13.1243766707
 20
7.5628241786
 10
13.1057118688
 20
7.6645364569
 10
13.0780306072
 20
7.7683373217
 10
13.0417072275
 20
7.8728230444
 10
12.9972329412
 20
7.9765806347
 10
12.9452091867
 20
8.0782069494
 10
12.886339496
 20
8.1763276668
 10
12.8214199807
 20
8.2696158725
 10
12.7513285658
 20
8.3568100036
 10
12.6770131176
 20
8.4367309091
 10
12.5994786249
 20
8.5082977958
 10
12.5197736088
 20
8.5705428443
 10
12.4389759428
 20
8.6226242972
  0
LINE
  5
44E
100
AcDbEntity
  8
0
100
AcDbLine
 62
7
  6
CONTINUOUS
 10
14.0542977826
 20
8.7321567352
 11
14.0035456366
 21
8.8151365921
  0
LWPOLYLINE
  5
44F
100
AcDbEntity
  8
0
100
AcDbPolyline
 62
7
  6
CONTINUOUS
 90
5
 70
0
 10
14.0174522479
 20
8.8044065324
 10
14.0689087243
 20
8.7175223127
 10
14.1175042284
 20
8.6163657099
 10
14.1556962002
 20
8.5128607464
 10
14.1629698277
 20
8.4887098915
  0
LWPOLYLINE
  5
450
100
AcDbEntity
  8
0
100
AcDbPolyline
 62
7
  6
CONTINUOUS
 90
5
 70
0
 10
14.1835058912
 20
8.4039937032
 10
14.1831913187
 20
8.4046139068
 10
14.1821618601
 20
8.405584212
 10
14.18049682
 20
8.40665435
 10
14.1782339539
 20
8.4077769105
  0
LWPOLYLINE
  5
451
100
AcDbEntity
  8
0
100
AcDbPolyline
 62
7
  6
CONTINUOUS
 90
4
 70
0
 10
14.1635359421
 20
8.468488044
 10
14.135009265
 20
8.5572830029
 10
14.0983775715
 20
8.6456970345
 10
14.0542977826
 20
8.7321567352
  0
LWPOLYLINE
  5
452
100
AcDbEntity
  8
0
100
AcDbPolyline
 62
7
  6
CONTINUOUS
 90
5
 70
0
 10
14.1835053289
 20
8.4039965771
 10
14.1967698683
 20
8.3095862849
 10
14.1985198254
 20
8.2148508672
 10
14.1876649894
 20
8.128353559
 10
14.1817060291
 20
8.1031005507
  0
LINE
  5
453
100
AcDbEntity
  8
02___PRT_ALL_AXES
100
AcDbLine
 62
7
  6
CONTINUOUS
 10
12.9310997239
 20
6.9665917054
 11
13.2651645289
 21
7.1594629592
  0
LWPOLYLINE
  5
454
100
AcDbEntity
  8
02___PRT_ALL_AXES
100
AcDbPolyline
 62
7
  6
CONTINUOUS
 90
9
 70
0
 10
12.9310997239
 20
6.9665917054
 10
12.8138995651
 20
6.908933915
 10
12.6885563892
 20
6.8668974487
 10
12.5573532945
 20
6.8418728529
 10
12.4229884869
 20
6.83485807
 10
12.2913501351
 20
6.8458622287
 10
12.1678858859
 20
6.8727972656
 10
12.054156157
 20
6.9130741918
 10
11.9468583085
 20
6.9665881566
  0
LINE
  5
455
100
AcDbEntity
  8
AXIS
100
AcDbLine
 62
7
  6
CONTINUOUS
 10
13.2930581899
 20
7.1754404262
 11
13.2777987827
 21
7.1687979729
  0
LINE
  5
456
100
AcDbEntity
  8
02___PRT_ALL_AXES
100
AcDbLine
 62
7
  6
CONTINUOUS
 10
11.9916123897
 20
8.6928869163
 11
12.056531905
 21
8.7112142186
  0
LWPOLYLINE
  5
457
100
AcDbEntity
  8
AXIS
100
AcDbPolyline
 62
7
  6
CONTINUOUS
 90
3
 70
0
 10
15.3728164593
 20
9.4763715283
 10
15.3785514239
 20
9.477485282
 10
15.3853164034
 20
9.4751334213
  0
LWPOLYLINE
  5
458
100
AcDbEntity
  8
AXIS
100
AcDbPolyline
 62
7
  6
CONTINUOUS
 90
3
 70
0
 10
15.3728164593
 20
9.5416917216
 10
15.3785514239
 20
9.5428054754
 10
15.3853164034
 20
9.5404536147
  0
LWPOLYLINE
  5
459
100
AcDbEntity
  8
0
100
AcDbPolyline
 62
7
  6
CONTINUOUS
 90
9
 70
0
 10
13.8866870696
 20
9.1162123856
 10
13.8761724699
 20
9.1151827886
 10
13.8652828676
 20
9.1135669982
 10
13.8540386739
 20
9.1114019989
 10
13.842490879
 20
9.1087479988
 10
13.8306203555
 20
9.1056636319
 10
13.8180646212
 20
9.1021168218
 10
13.8041468296
 20
9.0979795124
 10
13.7879780568
 20
9.0931041261
  0
LWPOLYLINE
  5
45A
100
AcDbEntity
  8
0
100
AcDbPolyline
 62
7
  6
CONTINUOUS
 90
4
 70
0
 10
13.6586390345
 20
9.1436681586
 10
13.704118436
 20
9.1472844175
 10
13.7487095366
 20
9.14935356
 10
13.7909028195
 20
9.1499192152
  0
LINE
  5
45B
100
AcDbEntity
  8
0
100
AcDbLine
 62
7
  6
CONTINUOUS
 10
13.5544567669
 20
9.1890590936
 11
13.6109591606
 21
9.193549748
  0
LWPOLYLINE
  5
45C
100
AcDbEntity
  8
0
100
AcDbPolyline
 62
7
  6
CONTINUOUS
 90
3
 70
0
 10
13.7879780522
 20
9.0931041253
 10
13.7610684475
 20
9.0925420079
 10
13.7465807697
 20
9.0919715398
  0
LWPOLYLINE
  5
45D
100
AcDbEntity
  8
0
100
AcDbPolyline
 62
7
  6
CONTINUOUS
 90
4
 70
0
 10
13.7991817272
 20
9.1511000243
 10
13.7687061743
 20
9.1511785968
 10
13.7090476159
 20
9.149278585
 10
13.6598010452
 20
9.145732977
  0
LINE
  5
45E
100
AcDbEntity
  8
0
100
AcDbLine
 62
7
  6
CONTINUOUS
 10
13.7909028195
 20
9.1499192152
 11
13.8295352739
 21
9.1492082437
  0
LWPOLYLINE
  5
45F
100
AcDbEntity
  8
0
100
AcDbPolyline
 62
7
  6
CONTINUOUS
 90
3
 70
0
 10
13.7991821307
 20
9.1510998034
 10
13.8150415103
 20
9.1504727961
 10
13.8295352739
 20
9.1492082437
  0
LWPOLYLINE
  5
460
100
AcDbEntity
  8
0
100
AcDbPolyline
 62
7
  6
CONTINUOUS
 90
4
 70
0
 10
13.8866870696
 20
9.1162123856
 10
13.8346287777
 20
9.1185199846
 10
13.7748810416
 20
9.1188227294
 10
13.7061975976
 20
9.1162108306
  0
LWPOLYLINE
  5
461
100
AcDbEntity
  8
0
100
AcDbPolyline
 62
7
  6
CONTINUOUS
 90
3
 70
0
 10
13.5075467897
 20
9.1964769287
 10
13.5861420656
 20
9.1770571409
 10
13.6598864064
 20
9.1457160537
  0
LWPOLYLINE
  5
462
100
AcDbEntity
  8
0
100
AcDbPolyline
 62
7
  6
CONTINUOUS
 90
5
 70
0
 10
13.6586390345
 20
9.1436681586
 10
13.5902639501
 20
9.1741648282
 10
13.5235407614
 20
9.193245043
 10
13.4596646031
 20
9.2005675751
 10
13.4470395322
 20
9.2006010007
  0
LWPOLYLINE
  5
463
100
AcDbEntity
  8
0
100
AcDbPolyline
 62
7
  6
CONTINUOUS
 90
5
 70
0
 10
13.7232753419
 20
9.1090449935
 10
13.7221954378
 20
9.1097253635
 10
13.7171713922
 20
9.1124156376
 10
13.7118189258
 20
9.114579377
 10
13.7061975976
 20
9.1162108306
  0
LINE
  5
464
100
AcDbEntity
  8
0
100
AcDbLine
 62
7
  6
CONTINUOUS
 10
13.7745844533
 20
9.0677472671
 11
13.7061975976
 21
9.1162108306
  0
LWPOLYLINE
  5
465
100
AcDbEntity
  8
0
100
AcDbPolyline
 62
7
  6
CONTINUOUS
 90
4
 70
0
 10
13.7232757986
 20
9.1090446968
 10
13.7958728176
 20
9.0558603226
 10
13.8731581093
 20
8.9851691317
 10
13.945352812
 20
8.904007894
  0
LWPOLYLINE
  5
466
100
AcDbEntity
  8
0
100
AcDbPolyline
 62
7
  6
CONTINUOUS
 90
4
 70
0
 10
13.9650699509
 20
8.8696288885
 10
13.9051828128
 20
8.9433473498
 10
13.8413061737
 20
9.0097833815
 10
13.7745844533
 20
9.0677472671
  0
LINE
  5
467
100
AcDbEntity
  8
0
100
AcDbLine
 62
7
  6
CONTINUOUS
 10
13.945352812
 20
8.904007894
 11
13.962823748
 21
8.8817896801
  0
LWPOLYLINE
  5
468
100
AcDbEntity
  8
0
100
AcDbPolyline
 62
7
  6
CONTINUOUS
 90
6
 70
0
 10
14.0174519384
 20
8.8044070092
 10
14.0169038022
 20
8.8052012536
 10
14.0144525831
 20
8.8079933634
 10
14.0113433491
 20
8.8106206289
 10
14.007688938
 20
8.8130133953
 10
14.0035456366
 20
8.8151365921
  0
LWPOLYLINE
  5
469
100
AcDbEntity
  8
0
100
AcDbPolyline
 62
7
  6
CONTINUOUS
 90
5
 70
0
 10
14.1328951096
 20
8.8602509393
 10
14.1714849286
 20
8.7958860149
 10
14.2052801288
 20
8.7291089954
 10
14.233752226
 20
8.6609713099
 10
14.2564841488
 20
8.5924766369
  0
LWPOLYLINE
  5
46A
100
AcDbEntity
  8
0
100
AcDbPolyline
 62
7
  6
CONTINUOUS
 90
5
 70
0
 10
14.2741450249
 20
8.5195168968
 10
14.2839417895
 20
8.4536213021
 10
14.2872227169
 20
8.3905508611
 10
14.2839401557
 20
8.3312955585
 10
14.2741450249
 20
8.2767262597
  0
LWPOLYLINE
  5
46B
100
AcDbEntity
  8
AXIS
100
AcDbPolyline
 62
7
  6
CONTINUOUS
 90
3
 70
0
 10
15.3162476813
 20
9.574350982
 10
15.3219826459
 20
9.5754647357
 10
15.3287476253
 20
9.573112875
  0
LINE
  5
46C
100
AcDbEntity
  8
0
100
AcDbLine
 62
7
  6
CONTINUOUS
 10
13.4470395322
 20
9.2006010007
 11
13.4469662684
 21
9.2005997285
  0
LINE
  5
46D
100
AcDbEntity
  8
0
100
AcDbLine
 62
7
  6
CONTINUOUS
 10
13.5558361535
 20
9.1944589349
 11
13.5105981715
 21
9.1957229752
  0
LINE
  5
46E
100
AcDbEntity
  8
0
100
AcDbLine
 62
7
  6
CONTINUOUS
 10
13.6109591606
 20
9.193549748
 11
13.6933466039
 21
9.1909535707
  0
LINE
  5
46F
100
AcDbEntity
  8
0
100
AcDbLine
 62
7
  6
CONTINUOUS
 10
13.5936940415
 20
9.192177564
 11
13.5558361535
 21
9.1944589349
  0
LINE
  5
470
100
AcDbEntity
  8
0
100
AcDbLine
 62
7
  6
CONTINUOUS
 10
13.4470395322
 20
9.2006010007
 11
13.5075467897
 21
9.1964769287
  0
LWPOLYLINE
  5
471
100
AcDbEntity
  8
AXIS
100
AcDbPolyline
 62
7
  6
CONTINUOUS
 90
3
 70
0
 10
13.6933462375
 20
9.1909536063
 10
13.7921884167
 20
9.17894333
 10
13.914548452
 20
9.1571275331
  0
LWPOLYLINE
  5
472
100
AcDbEntity
  8
0
100
AcDbPolyline
 62
7
  6
CONTINUOUS
 90
4
 70
0
 10
13.6933466039
 20
9.1909535707
 10
13.7255252791
 20
9.1861119699
 10
13.7769053956
 20
9.1717399725
 10
13.8295352739
 20
9.1492082437
  0
LWPOLYLINE
  5
473
100
AcDbEntity
  8
0
100
AcDbPolyline
 62
7
  6
CONTINUOUS
 90
4
 70
0
 10
13.914548452
 20
9.1571275331
 10
13.9494865399
 20
9.1475430805
 10
13.9849357067
 20
9.1334616729
 10
14.0204136115
 20
9.115101878
  0
LINE
  5
474
100
AcDbEntity
  8
0
100
AcDbLine
 62
7
  6
CONTINUOUS
 10
13.9607112865
 20
9.1433052847
 11
13.914548452
 21
9.1571275331
  0
LINE
  5
475
100
AcDbEntity
  8
0
100
AcDbLine
 62
7
  6
CONTINUOUS
 10
14.0159168735
 20
9.1167151779
 11
13.9607112865
 21
9.1433052847
  0
LWPOLYLINE
  5
476
100
AcDbEntity
  8
0
100
AcDbPolyline
 62
7
  6
CONTINUOUS
 90
12
 70
0
 10
14.0204136115
 20
9.115101878
 10
14.0781334421
 20
9.0760678826
 10
14.1334404143
 20
9.0273421757
 10
14.1848526486
 20
8.9705226139
 10
14.2311817813
 20
8.9071808441
 10
14.2713314643
 20
8.8389710795
 10
14.3043068343
 20
8.7676191263
 10
14.3292282672
 20
8.6949007331
 10
14.3453390487
 20
8.6226249579
 10
14.3520124427
 20
8.5526516793
 10
14.3488026766
 20
8.4869732301
 10
14.3356349414
 20
8.4277799855
  0
LWPOLYLINE
  5
477
100
AcDbEntity
  8
0
100
AcDbPolyline
 62
7
  6
CONTINUOUS
 90
5
 70
0
 10
13.8866870696
 20
9.1162123856
 10
13.9393299439
 20
9.077963345
 10
13.9907307989
 20
9.0329862988
 10
14.0400821811
 20
8.9819925104
 10
14.0866583356
 20
8.9257351002
  0
LWPOLYLINE
  5
478
100
AcDbEntity
  8
AXIS_COSMETIC_THREADS
100
AcDbPolyline
 62
7
  6
CONTINUOUS
 90
7
 70
0
 10
15.2272791462
 20
9.3336772937
 10
15.226440654
 20
9.3206240387
 10
15.2239422469
 20
9.3088046957
 10
15.2198347851
 20
9.2984598726
 10
15.2142018848
 20
9.28980016
 10
15.2071582155
 20
9.2830018448
 10
15.2031500357
 20
9.2803462131
  0
LINE
  5
479
100
AcDbEntity
  8
AXIS_COSMETIC_THREADS
100
AcDbLine
 62
7
  6
CONTINUOUS
 10
15.226440654
 20
9.3476987341
 11
15.2272791462
 21
9.3336772937
  0
LWPOLYLINE
  5
47A
100
AcDbEntity
  8
AXIS_COSMETIC_THREADS
100
AcDbPolyline
 62
7
  6
CONTINUOUS
 90
4
 70
0
 10
15.1449008632
 20
9.4763598732
 10
15.1566245152
 20
9.4686231624
 10
15.1681095075
 20
9.4591075284
 10
15.1791220387
 20
9.4480066819
  0
LWPOLYLINE
  5
47B
100
AcDbEntity
  8
AXIS_COSMETIC_THREADS
100
AcDbPolyline
 62
7
  6
CONTINUOUS
 90
4
 70
0
 10
15.2142018848
 20
9.3926544065
 10
15.2198347851
 20
9.377490528
 10
15.2239422469
 20
9.3624029238
 10
15.226440654
 20
9.3476987341
  0
LWPOLYLINE
  5
47C
100
AcDbEntity
  8
AXIS
100
AcDbPolyline
 62
7
  6
CONTINUOUS
 90
7
 70
0
 10
15.3853164034
 20
9.4751334213
 10
15.3920813828
 20
9.4696739333
 10
15.3978164554
 20
9.4619379756
 10
15.4016485084
 20
9.4531032776
 10
15.4029941465
 20
9.444514842
 10
15.4016485084
 20
9.4374801802
 10
15.3978163474
 20
9.4330701935
  0
LWPOLYLINE
  5
47D
100
AcDbEntity
  8
AXIS
100
AcDbPolyline
 62
7
  6
CONTINUOUS
 90
7
 70
0
 10
15.3287476253
 20
9.573112875
 10
15.3355126048
 20
9.5676533871
 10
15.3412476774
 20
9.5599174294
 10
15.3450797304
 20
9.5510827314
 10
15.3464253685
 20
9.5424942957
 10
15.3450797304
 20
9.535459634
 10
15.3412475694
 20
9.5310496472
  0
LWPOLYLINE
  5
47E
100
AcDbEntity
  8
AXIS
100
AcDbPolyline
 62
7
  6
CONTINUOUS
 90
7
 70
0
 10
15.3853164034
 20
9.5404536147
 10
15.3920813828
 20
9.5349941267
 10
15.3978164554
 20
9.527258169
 10
15.4016485084
 20
9.518423471
 10
15.4029941465
 20
9.5098350354
 10
15.4016485084
 20
9.5028003736
 10
15.3978163474
 20
9.4983903868
  0
LWPOLYLINE
  5
47F
100
AcDbEntity
  8
AXIS_COSMETIC_THREADS
100
AcDbPolyline
 62
7
  6
CONTINUOUS
 90
5
 70
0
 10
15.1791220387
 20
9.4480066819
 10
15.1894379254
 20
9.4355466042
 10
15.198847166
 20
9.4219809465
 10
15.2071582155
 20
9.4075858665
 10
15.2142018848
 20
9.3926544065
  0
CIRCLE
  5
480
100
AcDbEntity
  8
0
100
AcDbCircle
 62
7
  6
CONTINUOUS
 10
10.5342808475
 20
1.243294839
 40
0.252091
  0
CIRCLE
  5
481
100
AcDbEntity
  8
0
100
AcDbCircle
 62
7
  6
CONTINUOUS
 10
10.5342808475
 20
1.243294839
 40
0.182698
  0
CIRCLE
  5
482
100
AcDbEntity
  8
0
100
AcDbCircle
 62
7
  6
CONTINUOUS
 10
10.1225539079
 20
1.9935547577
 40
0.0638444824
  0
CIRCLE
  5
483
100
AcDbEntity
  8
02___PRT_ALL_AXES
100
AcDbCircle
 62
7
  6
CONTINUOUS
 10
4.3027684564
 20
5.4903733221
 40
0.9842519685
  0
ARC
  5
484
100
AcDbEntity
  8
DRIVEN_DIMS
100
AcDbCircle
 62
7
  6
CONTINUOUS
 10
4.3027684564
 20
5.4903733221
 40
0.9842519685
100
AcDbArc
 50
90.0
 51
109.3219993845
  0
ARC
  5
485
100
AcDbEntity
  8
0
100
AcDbCircle
 62
7
  6
CONTINUOUS
 10
8.2684454764
 20
7.6556177977
 40
3.1496062992
100
AcDbArc
 50
270.0
 51
293.3173668614
  0
ARC
  5
486
100
AcDbEntity
  8
0
100
AcDbCircle
 62
7
  6
CONTINUOUS
 10
8.2684454764
 20
3.3251288466
 40
3.1496062992
100
AcDbArc
 50
66.6826331386
 51
90.0
  0
ARC
  5
487
100
AcDbEntity
  8
0
100
AcDbCircle
 62
7
  6
CONTINUOUS
 10
8.2684454764
 20
3.3251288466
 40
3.1496062992
100
AcDbArc
 50
56.9364019156
 51
61.6593645317
  0
ARC
  5
488
100
AcDbEntity
  8
0
100
AcDbCircle
 62
7
  6
CONTINUOUS
 10
8.2684454764
 20
7.6556177977
 40
3.1496062992
100
AcDbArc
 50
298.3406354683
 51
303.0635980844
  0
ARC
  5
489
100
AcDbEntity
  8
02___PRT_ALL_AXES
100
AcDbCircle
 62
7
  6
CONTINUOUS
 10
7.7566344528
 20
5.4903733221
 40
0.9842519685
100
AcDbArc
 50
90.0
 51
270.0
  0
ARC
  5
48A
100
AcDbEntity
  8
0
100
AcDbCircle
 62
7
  6
CONTINUOUS
 10
8.2290753977
 20
4.5454914324
 40
0.0393700787
100
AcDbArc
 50
270.0
 51
360.0
  0
ARC
  5
48B
100
AcDbEntity
  8
0
100
AcDbCircle
 62
7
  6
CONTINUOUS
 10
8.2290753977
 20
6.4352552119
 40
0.0393700787
100
AcDbArc
 50
0.0
 51
90.0
  0
ARC
  5
48C
100
AcDbEntity
  8
0
100
AcDbCircle
 62
7
  6
CONTINUOUS
 10
9.9652958701
 20
5.9317105331
 40
0.0393700787
100
AcDbArc
 50
0.0
 51
56.9364019156
  0
ARC
  5
48D
100
AcDbEntity
  8
0
100
AcDbCircle
 62
7
  6
CONTINUOUS
 10
9.9652958701
 20
5.0490361112
 40
0.0393700787
100
AcDbArc
 50
303.0635980844
 51
360.0
  0
ENDSEC
  0
SECTION
  2
OBJECTS
  0
DICTIONARY
  5
C
100
AcDbDictionary
280
0
281
1
  3
ACAD_GROUP
350
D
  3
ACAD_MLINESTYLE
350
17
  3
ACAD_LAYOUT
350
1A
  3
ACAD_PLOTSETTINGS
350
19
  3
ACAD_PLOTSTYLENAME
350
E
  3
ACAD_TABLESTYLE
350
       48E
  0
DICTIONARY
  5
D
102
{ACAD_REACTORS
330
C
102
}
100
AcDbDictionary
280
0
281
1
  0
ACDBDICTIONARYWDFLT
  5
E
102
{ACAD_REACTORS
330
C
102
}
100
AcDbDictionary
281
1
  3
Normal
350
F
100
AcDbDictionaryWithDefault
340
F
  0
DICTIONARY
  5
17
102
{ACAD_REACTORS
330
C
102
}
100
AcDbDictionary
280
0
281
1
  3
Standard
350
18
  0
DICTIONARY
  5
48E
330
C
100
AcDbDictionary
281
1
  3
Standard
350
       491
  3
Standard1
350
       492
  0
DICTIONARY
  5
19
102
{ACAD_REACTORS
330
C
102
}
100
AcDbDictionary
281
1
  0
DICTIONARY
  5
1A
102
{ACAD_REACTORS
330
C
102
}
100
AcDbDictionary
281
1
  3
Model
350
48F
  3
Layout1
350
490
  0
ACDBPLACEHOLDER
  5
F
102
{ACAD_REACTORS
330
E
102
}
  0
MLINESTYLE
  5
18
102
{ACAD_REACTORS
330
17
102
}
100
AcDbMlineStyle
  2
STANDARD
 70
0
  3

 62
256
 51
90.0
 52
90.0
 71
2
 49
0.5
 62
256
  6
BYLAYER
 49
-0.5
 62
256
  6
BYLAYER
  0
LAYOUT
  5
48F
102
{ACAD_REACTORS
330
1A
102
}
100
AcDbPlotSettings
  1

  2
none_device
  4
ANSI_B_(17.00_x_11.00_Inches)
  6

 40
0.0
 41
0.0
 42
0.0
 43
0.0
 44
431.8
 45
279.4
 46
0.0
 47
0.0
 48
0.0
 49
0.0
140
0.0
141
0.0
142
1.0
143
1.0
 70
1024
 72
0
 73
0
 74
0
  7

 75
0
147
1.0
148
0.0
149
0.0
100
AcDbLayout
  1
Model
 70
0
 71
0
 10
0.0
 20
0.0
 11
17.0
 21
11.0
 12
0.0
 22
0.0
 32
0.0
 14
0.0
 24
0.0
 34
0.0
 15
0.0
 25
0.0
 35
0.0
146
0.0
 13
0.0
 23
0.0
 33
0.0
 16
1.0
 26
0.0
 36
0.0
 17
0.0
 27
1.0
 37
0.0
 76
0
330
213
345
0
346
0
  0
LAYOUT
  5
490
102
{ACAD_REACTORS
330
1A
102
}
100
AcDbPlotSettings
  1

  2
none_device
  4
ANSI_B_(17.00_x_11.00_Inches)
  6

 40
0.0
 41
0.0
 42
0.0
 43
0.0
 44
431.8
 45
279.4
 46
0.0
 47
0.0
 48
0.0
 49
0.0
140
0.0
141
0.0
142
1.0
143
1.0
 70
0
 72
0
 73
0
 74
0
  7

 75
0
147
1.0
148
0.0
149
0.0
100
AcDbLayout
  1
Layout1
 70
0
 71
1
 10
0.0
 20
0.0
 11
17.0
 21
11.0
 12
0.0
 22
0.0
 32
0.0
 14
0.0
 24
0.0
 34
0.0
 15
0.0
 25
0.0
 35
0.0
146
0.0
 13
0.0
 23
0.0
 33
0.0
 16
1.0
 26
0.0
 36
0.0
 17
0.0
 27
1.0
 37
0.0
 76
0
330
214
345
0
346
0
  0
TABLESTYLE
  5
491
102
{ACAD_REACTORS
330
48E
102
}
330
48E
100
AcDbTableStyle
  3
Standard
 70
0
 71
0
 40
0.06
 41
0.06
280
1
281
1
  7
Standard
140
0.18
170
1
 62
0
 63
7
283
0
  7
Standard
140
0.18
170
1
 62
0
 63
7
283
0
  7
Standard
140
0.18
170
1
 62
0
 63
7
283
0
  0
TABLESTYLE
  5
492
102
{ACAD_REACTORS
330
48E
330
261
102
}
330
48E
100
AcDbTableStyle
  3
Standard1
 70
1
 71
0
 40
0.06
 41
0.06
280
1
281
1
  7
Standard
140
0.18
170
1
 62
0
 63
7
283
0
  7
Standard
140
0.18
170
1
 62
0
 63
7
283
0
  7
Standard
140
0.18
170
1
 62
0
 63
7
283
0
  0
ENDSEC
  0
EOF
