999
DXF file: 193982_1.dxf
999
Pro/ENGINEER 2019292 by Parametric Technology Corporation
  0
SECTION
  2
HEADER
  9
$ACADVER
  1
AC1027
  9
$DWGCODEPAGE
  3
ANSI_1252
  9
$EXTMAX
 10
22.0
 20
17.0
 30
0.0
  9
$EXTMIN
 10
0.0
 20
0.0
 30
0.0
  9
$LIMMIN
 10
0.0
 20
0.0
  9
$LIMMAX
 10
22.0
 20
17.0
  9
$VIEWCTR
 10
11.0
 20
8.5
  9
$VIEWSIZE
 40
17.0
  9
$CLAYER
  8
0
  9
$LTSCALE
 40
1.21
  9
$CELTYPE
  6
BYLAYER
  9
$DIMSCALE
 40
1.0
  9
$DIMASZ
 40
0.1875
  9
$DIMEXO
 40
0.0625
  9
$DIMDLI
 40
0.836
  9
$DIMEXE
 40
0.125
  9
$DIMCEN
 40
0.198
  9
$DIMLFAC
 40
1.0
  9
$DIMBLK
  1
_FILLED
  9
$DIMALT
 70
1
  9
$DIMALTD
 70
2
  9
$DIMALTTD
 70
2
  9
$DIMALTF
 40
25.4
  9
$DIMTXT
 40
0.1
  9
$DIMTOL
 70
1
  9
$DIMLIM
 70
0
  9
$DIMTFAC
 40
1.0
  9
$DIMTP
 40
0.005
  9
$DIMTM
 40
0.005
  9
$DIMGAP
 40
0.09
  9
$DIMDSEP
 70
46
  9
$AUNITS
 70
0
  9
$PDMODE
 70
3
  9
$PDSIZE
 40
0.3125
  9
$HANDSEED
  5
6DD
  9
$TILEMODE
 70
1
  9
$MEASUREMENT
 70
0
  9
$INSUNITS
 70
1
  0
ENDSEC
  0
SECTION
  2
CLASSES
  0
CLASS
  1
ACDBDICTIONARYWDFLT
  2
AcDbDictionaryWithDefault
  3
AutoCAD 2000
 90
0
 91
1
280
0
281
0
  0
CLASS
  1
ACDBPLACEHOLDER
  2
AcDbPlaceHolder
  3
AutoCAD 2000
 90
0
 91
1
280
0
281
0
  0
CLASS
  1
LAYOUT
  2
AcDbLayout
  3
AutoCAD 2000
 90
0
 91
0
280
0
281
0
  0
CLASS
  1
TABLESTYLE
  2
AcDbTableStyle
  3
ObjectDBX Classes
 90
2047
 91
1
280
0
281
0
  0
CLASS
  1
ACAD_TABLE
  2
AcDbTable
  3
ObjectDBX Classes
 90
1025
 91
1
280
0
281
1
  0
ENDSEC
  0
SECTION
  2
TABLES
  0
TABLE
  2
VPORT
  5
8
100
AcDbSymbolTable
 70
2
  0
VPORT
  5
1F4
100
AcDbSymbolTableRecord
100
AcDbViewportTableRecord
  2
*ACTIVE
 70
0
 10
0.0
 20
0.0
 11
1.0
 21
1.0
 12
11.0
 22
8.5
 13
0.0
 23
0.0
 14
1.0
 24
1.0
 15
0.0
 25
0.0
 16
0.0
 26
0.0
 36
1.0
 17
0.0
 27
0.0
 37
0.0
 40
17.0
 41
1.2941176471
 42
50.0
 43
0.0
 44
0.0
 50
0.0
 51
0.0
 71
0
 72
100
 73
1
 74
1
 75
0
 76
0
 77
0
 78
0
  0
ENDTAB
  0
TABLE
  2
LTYPE
  5
5
100
AcDbSymbolTable
 70
6
  0
LTYPE
  5
14
100
AcDbSymbolTableRecord
100
AcDbLinetypeTableRecord
  2
BYBLOCK
 70
0
  3

 72
65
 73
0
 40
0.0
  0
LTYPE
  5
15
100
AcDbSymbolTableRecord
100
AcDbLinetypeTableRecord
  2
BYLAYER
 70
0
  3

 72
65
 73
0
 40
0.0
  0
LTYPE
  5
16
100
AcDbSymbolTableRecord
100
AcDbLinetypeTableRecord
  2
CONTINUOUS
 70
64
  3
Solid line
 72
65
 73
0
 40
0.0
  0
LTYPE
  5
1F5
100
AcDbSymbolTableRecord
100
AcDbLinetypeTableRecord
  2
CENTER
 70
64
  3
____ _ ____ _ ____ _ ____ _ ____ _ ____ _ ____
 72
65
 73
4
 40
0.6
 49
0.375
 74
0
 49
-0.075
 74
0
 49
0.075
 74
0
 49
-0.075
 74
0
  0
LTYPE
  5
1F6
100
AcDbSymbolTableRecord
100
AcDbLinetypeTableRecord
  2
HIDDEN
 70
64
  3
- - - - - - - - - - - - - - - - - - - -
 72
65
 73
2
 40
0.2
 49
0.1
 74
0
 49
-0.1
 74
0
  0
LTYPE
  5
1F7
100
AcDbSymbolTableRecord
100
AcDbLinetypeTableRecord
  2
PHANTOM
 70
64
  3
_____ _ _ _____ _ _ _____ _ _ _____
 72
65
 73
6
 40
0.8
 49
0.45
 74
0
 49
-0.05
 74
0
 49
0.1
 74
0
 49
-0.05
 74
0
 49
0.1
 74
0
 49
-0.05
 74
0
  0
LTYPE
  5
1F8
100
AcDbSymbolTableRecord
100
AcDbLinetypeTableRecord
  2
DOT
 70
64
  3
. . . . . . . . . . . . . . . . . . . .
 72
65
 73
2
 40
0.2
 49
0.1
 74
0
 49
-0.1
 74
0
  0
LTYPE
  5
1F9
100
AcDbSymbolTableRecord
100
AcDbLinetypeTableRecord
  2
DASHED
 70
64
  3
- - - - - - - - - - - - - - - - - - - -
 72
65
 73
2
 40
0.2
 49
0.1
 74
0
 49
-0.1
 74
0
  0
ENDTAB
  0
TABLE
  2
LAYER
  5
2
100
AcDbSymbolTable
 70
36
  0
LAYER
  5
10
100
AcDbSymbolTableRecord
100
AcDbLayerTableRecord
  2
0
 70
0
 62
7
  6
CONTINUOUS
370
-3
390
F
  0
LAYER
  5
1FA
100
AcDbSymbolTableRecord
100
AcDbLayerTableRecord
  2
DEFAULT_1
 70
0
 62
7
  6
CENTER
370
-3
390
F
  0
LAYER
  5
1FB
100
AcDbSymbolTableRecord
100
AcDbLayerTableRecord
  2
DEFAULT_2
 70
0
 62
7
  6
HIDDEN
370
-3
390
F
  0
LAYER
  5
1FC
100
AcDbSymbolTableRecord
100
AcDbLayerTableRecord
  2
DEFAULT_3
 70
0
 62
7
  6
PHANTOM
370
-3
390
F
  0
LAYER
  5
1FD
100
AcDbSymbolTableRecord
100
AcDbLayerTableRecord
  2
AXIS
 70
0
 62
7
  6
CONTINUOUS
370
-3
390
F
  0
LAYER
  5
1FE
100
AcDbSymbolTableRecord
100
AcDbLayerTableRecord
  2
AXIS_COSMETIC_THREADS
 70
0
 62
7
  6
CONTINUOUS
370
-3
390
F
  0
LAYER
  5
1FF
100
AcDbSymbolTableRecord
100
AcDbLayerTableRecord
  2
DATUM_CURVES
 70
0
 62
7
  6
CONTINUOUS
370
-3
390
F
  0
LAYER
  5
200
100
AcDbSymbolTableRecord
100
AcDbLayerTableRecord
  2
DATUM_PLANES
 70
0
 62
7
  6
CONTINUOUS
370
-3
390
F
  0
LAYER
  5
201
100
AcDbSymbolTableRecord
100
AcDbLayerTableRecord
  2
DRIVEN_DIMS
 70
0
 62
7
  6
CONTINUOUS
370
-3
390
F
  0
LAYER
  5
202
100
AcDbSymbolTableRecord
100
AcDbLayerTableRecord
  2
NOTES
 70
0
 62
7
  6
CONTINUOUS
370
-3
390
F
  0
LAYER
  5
203
100
AcDbSymbolTableRecord
100
AcDbLayerTableRecord
  2
SCHEME_DIMS
 70
0
 62
7
  6
CONTINUOUS
370
-3
390
F
  0
LAYER
  5
204
100
AcDbSymbolTableRecord
100
AcDbLayerTableRecord
  2
SYMBOLS
 70
0
 62
7
  6
CONTINUOUS
370
-3
390
F
  0
LAYER
  5
205
100
AcDbSymbolTableRecord
100
AcDbLayerTableRecord
  2
XSEC_DATUMS
 70
0
 62
7
  6
CONTINUOUS
370
-3
390
F
  0
ENDTAB
  0
TABLE
  2
STYLE
  5
3
100
AcDbSymbolTable
 70
1
  0
STYLE
  5
11
100
AcDbSymbolTableRecord
100
AcDbTextStyleTableRecord
  2
STANDARD
 70
0
 40
0.0
 41
1.0
 50
0.0
 71
0
 42
0.2
  3
txt
  4

  0
STYLE
  5
206
100
AcDbSymbolTableRecord
100
AcDbTextStyleTableRecord
  2
TEXTSTYLE_1
 70
0
 40
0.0
 41
0.8
 50
0.0
 71
0
 42
0.2
  3
gdt
  4

  0
STYLE
  5
207
100
AcDbSymbolTableRecord
100
AcDbTextStyleTableRecord
  2
TEXTSTYLE_2
 70
0
 40
0.0
 41
0.8
 50
0.0
 71
0
 42
0.2
  3
txt
  4

  0
STYLE
  5
208
100
AcDbSymbolTableRecord
100
AcDbTextStyleTableRecord
  2
TEXTSTYLE_3
 70
0
 40
0.0
 41
0.9
 50
0.0
 71
0
 42
0.2
  3
txt
  4

  0
STYLE
  5
209
100
AcDbSymbolTableRecord
100
AcDbTextStyleTableRecord
  2
TEXTSTYLE_4
 70
0
 40
0.0
 41
0.85
 50
0.0
 71
0
 42
0.2
  3
txt
  4

  0
STYLE
  5
20A
100
AcDbSymbolTableRecord
100
AcDbTextStyleTableRecord
  2
TEXTSTYLE_5
 70
0
 40
0.0
 41
0.75
 50
0.0
 71
0
 42
0.2
  3
txt
  4

  0
ENDTAB
  0
TABLE
  2
VIEW
  5
6
100
AcDbSymbolTable
 70
0
  0
ENDTAB
  0
TABLE
  2
UCS
  5
7
100
AcDbSymbolTable
 70
0
  0
ENDTAB
  0
TABLE
  2
APPID
  5
9
100
AcDbSymbolTable
 70
1
  0
APPID
  5
20B
100
AcDbSymbolTableRecord
100
AcDbRegAppTableRecord
  2
ACAD
 70
0
  0
ENDTAB
  0
TABLE
  2
BLOCK_RECORD
  5
1
100
AcDbSymbolTable
 70
0
  0
BLOCK_RECORD
  5
20C
100
AcDbSymbolTableRecord
100
AcDbBlockTableRecord
  2
*Model_Space
  0
BLOCK_RECORD
  5
20D
100
AcDbSymbolTableRecord
100
AcDbBlockTableRecord
  2
*Paper_Space
  0
BLOCK_RECORD
  5
20E
100
AcDbSymbolTableRecord
100
AcDbBlockTableRecord
  2
_FILLED
  0
BLOCK_RECORD
  5
20F
100
AcDbSymbolTableRecord
100
AcDbBlockTableRecord
  2
*D0
  0
BLOCK_RECORD
  5
210
100
AcDbSymbolTableRecord
100
AcDbBlockTableRecord
  2
*D1
  0
BLOCK_RECORD
  5
211
100
AcDbSymbolTableRecord
100
AcDbBlockTableRecord
  2
*D2
  0
BLOCK_RECORD
  5
212
100
AcDbSymbolTableRecord
100
AcDbBlockTableRecord
  2
*D3
  0
BLOCK_RECORD
  5
213
100
AcDbSymbolTableRecord
100
AcDbBlockTableRecord
  2
*D4
  0
BLOCK_RECORD
  5
214
100
AcDbSymbolTableRecord
100
AcDbBlockTableRecord
  2
*D5
  0
BLOCK_RECORD
  5
215
100
AcDbSymbolTableRecord
100
AcDbBlockTableRecord
  2
*T1
  0
ENDTAB
  0
TABLE
  2
DIMSTYLE
  5
A
100
AcDbSymbolTable
 70
1
100
AcDbDimStyleTable
 71
0
  0
DIMSTYLE
105
216
100
AcDbSymbolTableRecord
100
AcDbDimStyleTableRecord
  2
STANDARD
 70
0
  3

  4

 40
1.0
 41
0.1875
 42
0.0625
 43
0.38
 44
0.125
 45
0.0
 46
0.0
 47
0.005
 48
0.005
140
0.1
141
0.09
142
0.0
143
1.0
144
1.0
145
0.0
146
1.0
147
0.09
 71
1.0
 72
0.0
 73
1
 74
1
 75
0
 76
0
 77
0
 78
4
 79
1
170
1
171
2
172
0
173
0
174
0
175
0
176
0
177
0
178
0
270
2
179
3
271
3
272
3
273
2
274
2
275
0
280
0
281
0
282
0
283
1
284
4
285
0
286
0
287
3
288
0
340
11
278
46
341
20E
342
20E
343
20E
344
20E
  0
DIMSTYLE
105
217
100
AcDbSymbolTableRecord
100
AcDbDimStyleTableRecord
  2
DIMSTYLE_1
 70
0
  3

  4

 40
1.0
 41
0.1875
 42
0.0625
 43
0.38
 44
0.125
 45
0.0
 46
0.0
 47
0.005
 48
0.005
140
0.1
141
0.09
142
0.0
143
1.0
144
1.0
145
0.0
146
1.0
147
0.1
 71
0.0
 72
0.0
 73
1
 74
1
 75
0
 76
0
 77
0
 78
4
 79
1
170
1
171
2
172
0
173
0
174
0
175
0
176
0
177
0
178
0
270
2
179
3
271
1
272
3
273
2
274
4
275
0
280
0
281
0
282
0
283
1
284
4
285
0
286
0
287
3
288
0
340
11
278
46
341
20E
342
20E
343
20E
344
20E
  0
ENDTAB
  0
ENDSEC
  0
SECTION
  2
BLOCKS
  0
BLOCK
  5
20
100
AcDbEntity
  8
0
100
AcDbBlockBegin
  2
*Model_Space
 70
0
 10
0.0
 20
0.0
 30
0.0
  3
*Model_Space
  1

  0
ENDBLK
  5
21
100
AcDbEntity
  8
0
100
AcDbBlockEnd
  0
BLOCK
  5
1C
100
AcDbEntity
  8
0
100
AcDbBlockBegin
  2
*Paper_Space
 70
0
 10
0.0
 20
0.0
 30
0.0
  3
*Paper_Space
  1

  0
ENDBLK
  5
1D
100
AcDbEntity
  8
0
100
AcDbBlockEnd
  0
BLOCK
  5
218
100
AcDbEntity
  8
0
100
AcDbBlockBegin
  2
_FILLED
 70
64
 10
0.0
 20
0.0
  3
_FILLED
  1

  0
SOLID
  5
219
100
AcDbEntity
  8
0
  6
BYBLOCK
 62
0
100
AcDbTrace
 10
0.0
 20
0.0
 11
-1.0
 21
0.1666666667
 12
-1.0
 22
-0.1666666667
 13
-1.0
 23
-0.1666666667
  0
ENDBLK
  5
21A
100
AcDbEntity
  8
0
  6
BYBLOCK
 62
0
100
AcDbBlockEnd
  0
BLOCK
  5
21B
100
AcDbEntity
  8
DRIVEN_DIMS
100
AcDbBlockBegin
 62
7
  6
CONTINUOUS
  2
*D0
 70
65
 10
0.0
 20
0.0
  3
*D0
  1

  0
MTEXT
  5
21C
100
AcDbEntity
  8
DRIVEN_DIMS
100
AcDbMText
 62
7
  6
CONTINUOUS
  7
STANDARD
 71
2
 72
1
 10
6.8377993039
 20
13.9020924079
 30
0.0
 11
1.0
 21
0.0
 31
0.0
 73
2
 44
0.9
  1
45.0\P[1.77]
 40
0.1
 41
0.6
  0
LINE
  5
21D
100
AcDbEntity
  8
DRIVEN_DIMS
100
AcDbLine
 62
7
  6
CONTINUOUS
 10
7.684209139
 20
14.7379191795
 11
6.8127993039
 21
14.7379191795
  0
LINE
  5
21E
100
AcDbEntity
  8
DRIVEN_DIMS
100
AcDbLine
 62
7
  6
CONTINUOUS
 10
7.684209139
 20
12.9662656362
 11
6.8127993039
 21
12.9662656362
  0
LINE
  5
21F
100
AcDbEntity
  8
DRIVEN_DIMS
100
AcDbLine
 62
7
  6
CONTINUOUS
 10
6.9377993039
 20
14.7379191795
 11
6.9377993039
 21
14.0020924079
  0
LINE
  5
220
100
AcDbEntity
  8
DRIVEN_DIMS
100
AcDbLine
 62
7
  6
CONTINUOUS
 10
6.9377993039
 20
12.9662656362
 11
6.9377993039
 21
13.5520924079
  0
INSERT
  5
221
100
AcDbEntity
  8
DRIVEN_DIMS
100
AcDbBlockReference
 62
7
  6
CONTINUOUS
  2
_FILLED
 10
6.9377993039
 20
14.7379191795
 41
0.1875
 42
0.1875
 43
0.1875
 50
90.0
  0
INSERT
  5
222
100
AcDbEntity
  8
DRIVEN_DIMS
100
AcDbBlockReference
 62
7
  6
CONTINUOUS
  2
_FILLED
 10
6.9377993039
 20
12.9662656362
 41
0.1875
 42
0.1875
 43
0.1875
 50
270.0
  0
ENDBLK
  5
223
100
AcDbEntity
  8
0
  6
BYBLOCK
 62
0
100
AcDbBlockEnd
  0
BLOCK
  5
224
100
AcDbEntity
  8
DRIVEN_DIMS
100
AcDbBlockBegin
 62
7
  6
CONTINUOUS
  2
*D1
 70
65
 10
0.0
 20
0.0
  3
*D1
  1

  0
MTEXT
  5
225
100
AcDbEntity
  8
DRIVEN_DIMS
100
AcDbMText
 62
7
  6
CONTINUOUS
  7
STANDARD
 71
2
 72
1
 10
9.0640319737
 20
11.6961198276
 30
0.0
 11
1.0
 21
0.0
 31
0.0
 73
2
 44
0.9
  1
75.0\P[2.95]
 40
0.1
 41
0.6
  0
LINE
  5
226
100
AcDbEntity
  8
DRIVEN_DIMS
100
AcDbLine
 62
7
  6
CONTINUOUS
 10
10.6404099264
 20
10.8714557847
 11
10.6404099264
 21
11.7711198276
  0
LINE
  5
227
100
AcDbEntity
  8
DRIVEN_DIMS
100
AcDbLine
 62
7
  6
CONTINUOUS
 10
7.6876540209
 20
10.8714557847
 11
7.6876540209
 21
11.7711198276
  0
LINE
  5
228
100
AcDbEntity
  8
DRIVEN_DIMS
100
AcDbLine
 62
7
  6
CONTINUOUS
 10
10.6404099264
 20
11.6461198276
 11
9.5640319737
 21
11.6461198276
  0
LINE
  5
229
100
AcDbEntity
  8
DRIVEN_DIMS
100
AcDbLine
 62
7
  6
CONTINUOUS
 10
7.6876540209
 20
11.6461198276
 11
8.7640319737
 21
11.6461198276
  0
INSERT
  5
22A
100
AcDbEntity
  8
DRIVEN_DIMS
100
AcDbBlockReference
 62
7
  6
CONTINUOUS
  2
_FILLED
 10
10.6404099264
 20
11.6461198276
 41
0.1875
 42
0.1875
 43
0.1875
  0
INSERT
  5
22B
100
AcDbEntity
  8
DRIVEN_DIMS
100
AcDbBlockReference
 62
7
  6
CONTINUOUS
  2
_FILLED
 10
7.6876540209
 20
11.6461198276
 41
0.1875
 42
0.1875
 43
0.1875
 50
180.0
  0
ENDBLK
  5
22C
100
AcDbEntity
  8
0
  6
BYBLOCK
 62
0
100
AcDbBlockEnd
  0
BLOCK
  5
22D
100
AcDbEntity
  8
DRIVEN_DIMS
100
AcDbBlockBegin
 62
7
  6
CONTINUOUS
  2
*D2
 70
65
 10
0.0
 20
0.0
  3
*D2
  1

  0
MTEXT
  5
22E
100
AcDbEntity
  8
DRIVEN_DIMS
100
AcDbMText
 62
7
  6
CONTINUOUS
  7
STANDARD
 71
2
 72
1
 10
11.1937875886
 20
8.6936014539
 30
0.0
 11
1.0
 21
0.0
 31
0.0
 73
2
 44
0.9
  1
110.0\P[4.33]
 40
0.1
 41
0.6
  0
LINE
  5
22F
100
AcDbEntity
  8
DRIVEN_DIMS
100
AcDbLine
 62
7
  6
CONTINUOUS
 10
10.7029099264
 20
10.8089557847
 11
11.3687875886
 21
10.8089557847
  0
LINE
  5
230
100
AcDbEntity
  8
DRIVEN_DIMS
100
AcDbLine
 62
7
  6
CONTINUOUS
 10
10.7029099264
 20
6.4782471232
 11
11.3687875886
 21
6.4782471232
  0
LINE
  5
231
100
AcDbEntity
  8
DRIVEN_DIMS
100
AcDbLine
 62
7
  6
CONTINUOUS
 10
11.2437875886
 20
10.8089557847
 11
11.2437875886
 21
8.7936014539
  0
LINE
  5
232
100
AcDbEntity
  8
DRIVEN_DIMS
100
AcDbLine
 62
7
  6
CONTINUOUS
 10
11.2437875886
 20
6.4782471232
 11
11.2437875886
 21
8.3436014539
  0
INSERT
  5
233
100
AcDbEntity
  8
DRIVEN_DIMS
100
AcDbBlockReference
 62
7
  6
CONTINUOUS
  2
_FILLED
 10
11.2437875886
 20
10.8089557847
 41
0.1875
 42
0.1875
 43
0.1875
 50
90.0
  0
INSERT
  5
234
100
AcDbEntity
  8
DRIVEN_DIMS
100
AcDbBlockReference
 62
7
  6
CONTINUOUS
  2
_FILLED
 10
11.2437875886
 20
6.4782471232
 41
0.1875
 42
0.1875
 43
0.1875
 50
270.0
  0
ENDBLK
  5
235
100
AcDbEntity
  8
0
  6
BYBLOCK
 62
0
100
AcDbBlockEnd
  0
BLOCK
  5
236
100
AcDbEntity
  8
DRIVEN_DIMS
100
AcDbBlockBegin
 62
7
  6
CONTINUOUS
  2
*D3
 70
65
 10
0.0
 20
0.0
  3
*D3
  1

  0
MTEXT
  5
237
100
AcDbEntity
  8
DRIVEN_DIMS
100
AcDbMText
 62
7
  6
CONTINUOUS
  7
STANDARD
 71
3
 72
1
 10
6.7380646345
 20
7.2952476087
 30
0.0
 11
1.0
 21
0.0
 31
0.0
 73
2
 44
0.9
  1
4.8\P[.19]
 40
0.1
 41
0.5
  0
LINE
  5
238
100
AcDbEntity
  8
DRIVEN_DIMS
100
AcDbLine
 62
7
  6
CONTINUOUS
 10
8.4204296115
 20
6.6672235012
 11
7.0630646345
 21
6.6672235012
  0
LINE
  5
239
100
AcDbEntity
  8
DRIVEN_DIMS
100
AcDbLine
 62
7
  6
CONTINUOUS
 10
7.6251540209
 20
6.4782471232
 11
7.0630646345
 21
6.4782471232
  0
LINE
  5
23A
100
AcDbEntity
  8
DRIVEN_DIMS
100
AcDbLine
 62
7
  6
CONTINUOUS
 10
7.1880646345
 20
6.6672235012
 11
7.1880646345
 21
7.2452476087
  0
LINE
  5
23B
100
AcDbEntity
  8
DRIVEN_DIMS
100
AcDbLine
 62
7
  6
CONTINUOUS
 10
7.1880646345
 20
7.2452476087
 11
7.0380646345
 21
7.2452476087
  0
LINE
  5
23C
100
AcDbEntity
  8
DRIVEN_DIMS
100
AcDbLine
 62
7
  6
CONTINUOUS
 10
7.1880646345
 20
6.4782471232
 11
7.1880646345
 21
6.0782471232
  0
INSERT
  5
23D
100
AcDbEntity
  8
DRIVEN_DIMS
100
AcDbBlockReference
 62
7
  6
CONTINUOUS
  2
_FILLED
 10
7.1880646345
 20
6.6672235012
 41
0.1875
 42
0.1875
 43
0.1875
 50
270.0
  0
INSERT
  5
23E
100
AcDbEntity
  8
DRIVEN_DIMS
100
AcDbBlockReference
 62
7
  6
CONTINUOUS
  2
_FILLED
 10
7.1880646345
 20
6.4782471232
 41
0.1875
 42
0.1875
 43
0.1875
 50
90.0
  0
ENDBLK
  5
23F
100
AcDbEntity
  8
0
  6
BYBLOCK
 62
0
100
AcDbBlockEnd
  0
BLOCK
  5
240
100
AcDbEntity
  8
DRIVEN_DIMS
100
AcDbBlockBegin
 62
7
  6
CONTINUOUS
  2
*D4
 70
65
 10
0.0
 20
0.0
  3
*D4
  1

  0
MTEXT
  5
241
100
AcDbEntity
  8
DRIVEN_DIMS
100
AcDbMText
 62
7
  6
CONTINUOUS
  7
STANDARD
 71
2
 72
1
 10
8.0352918162
 20
6.0390316233
 30
0.0
 11
1.0
 21
0.0
 31
0.0
 73
2
 44
0.9
  1
20.2\P[.80]
 40
0.1
 41
0.5
  0
LINE
  5
242
100
AcDbEntity
  8
DRIVEN_DIMS
100
AcDbLine
 62
7
  6
CONTINUOUS
 10
7.6876540209
 20
6.4157471232
 11
7.6876540209
 21
5.8640316233
  0
LINE
  5
243
100
AcDbEntity
  8
DRIVEN_DIMS
100
AcDbLine
 62
7
  6
CONTINUOUS
 10
8.4829296115
 20
6.518109328
 11
8.4829296115
 21
5.8640316233
  0
LINE
  5
244
100
AcDbEntity
  8
DRIVEN_DIMS
100
AcDbLine
 62
7
  6
CONTINUOUS
 10
7.6876540209
 20
5.9890316233
 11
7.2876540209
 21
5.9890316233
  0
LINE
  5
245
100
AcDbEntity
  8
DRIVEN_DIMS
100
AcDbLine
 62
7
  6
CONTINUOUS
 10
8.4829296115
 20
5.9890316233
 11
8.8829296115
 21
5.9890316233
  0
INSERT
  5
246
100
AcDbEntity
  8
DRIVEN_DIMS
100
AcDbBlockReference
 62
7
  6
CONTINUOUS
  2
_FILLED
 10
7.6876540209
 20
5.9890316233
 41
0.1875
 42
0.1875
 43
0.1875
  0
INSERT
  5
247
100
AcDbEntity
  8
DRIVEN_DIMS
100
AcDbBlockReference
 62
7
  6
CONTINUOUS
  2
_FILLED
 10
8.4829296115
 20
5.9890316233
 41
0.1875
 42
0.1875
 43
0.1875
 50
180.0
  0
ENDBLK
  5
248
100
AcDbEntity
  8
0
  6
BYBLOCK
 62
0
100
AcDbBlockEnd
  0
BLOCK
  5
249
100
AcDbEntity
  8
DRIVEN_DIMS
100
AcDbBlockBegin
 62
7
  6
CONTINUOUS
  2
*D5
 70
65
 10
0.0
 20
0.0
  3
*D5
  1

  0
MTEXT
  5
24A
100
AcDbEntity
  8
DRIVEN_DIMS
100
AcDbMText
 62
7
  6
CONTINUOUS
  7
STANDARD
 71
2
 72
1
 10
9.0689532335
 20
5.4906843574
 30
0.0
 11
1.0
 21
0.0
 31
0.0
 73
2
 44
0.9
  1
34.9\P[1.37]
 40
0.1
 41
0.6
  0
LINE
  5
24B
100
AcDbEntity
  8
DRIVEN_DIMS
100
AcDbLine
 62
7
  6
CONTINUOUS
 10
9.8549768556
 20
6.5598416114
 11
9.8549768556
 21
5.3156843574
  0
LINE
  5
24C
100
AcDbEntity
  8
DRIVEN_DIMS
100
AcDbLine
 62
7
  6
CONTINUOUS
 10
8.4829296115
 20
6.518109328
 11
8.4829296115
 21
5.3156843574
  0
LINE
  5
24D
100
AcDbEntity
  8
DRIVEN_DIMS
100
AcDbLine
 62
7
  6
CONTINUOUS
 10
9.8549768556
 20
5.4406843574
 11
9.5689532335
 21
5.4406843574
  0
LINE
  5
24E
100
AcDbEntity
  8
DRIVEN_DIMS
100
AcDbLine
 62
7
  6
CONTINUOUS
 10
8.4829296115
 20
5.4406843574
 11
8.7689532335
 21
5.4406843574
  0
INSERT
  5
24F
100
AcDbEntity
  8
DRIVEN_DIMS
100
AcDbBlockReference
 62
7
  6
CONTINUOUS
  2
_FILLED
 10
9.8549768556
 20
5.4406843574
 41
0.1875
 42
0.1875
 43
0.1875
  0
INSERT
  5
250
100
AcDbEntity
  8
DRIVEN_DIMS
100
AcDbBlockReference
 62
7
  6
CONTINUOUS
  2
_FILLED
 10
8.4829296115
 20
5.4406843574
 41
0.1875
 42
0.1875
 43
0.1875
 50
180.0
  0
ENDBLK
  5
251
100
AcDbEntity
  8
0
  6
BYBLOCK
 62
0
100
AcDbBlockEnd
  0
BLOCK
  5
252
100
AcDbEntity
  8
0
100
AcDbBlockBegin
  2
*T1
 70
1
 10
0.0
 20
0.0
  3
*T1
  1

  0
LINE
  5
253
100
AcDbEntity
  8
0
100
AcDbLine
 62
7
  6
CONTINUOUS
 10
4.35
 20
0.0
 11
0.0
 21
0.0
  0
LINE
  5
254
100
AcDbEntity
  8
0
100
AcDbLine
 62
7
  6
CONTINUOUS
 10
4.35
 20
0.0
 11
4.35
 21
1.92
  0
LINE
  5
255
100
AcDbEntity
  8
0
100
AcDbLine
 62
7
  6
CONTINUOUS
 10
4.35
 20
1.92
 11
0.0
 21
1.92
  0
LINE
  5
256
100
AcDbEntity
  8
0
100
AcDbLine
 62
7
  6
CONTINUOUS
 10
0.0
 20
0.0
 11
0.0
 21
1.92
  0
MTEXT
  5
257
100
AcDbEntity
  8
NOTES
100
AcDbMText
 62
7
  6
CONTINUOUS
  7
STANDARD
 71
2
 72
1
 10
4.125
 20
0.48
 30
0.0
 11
1.0
 21
0.0
 31
0.0
 73
2
 44
0.9
  1
A
 40
0.1
 41
0.2
  0
MTEXT
  5
258
100
AcDbEntity
  8
NOTES
100
AcDbMText
 62
7
  6
CONTINUOUS
  7
STANDARD
 71
2
 72
1
 10
2.175
 20
1.08
 30
0.0
 11
1.0
 21
0.0
 31
0.0
 73
2
 44
0.9
  1
AT-FM/MM-FM/ES-FL 2A\P 
 40
0.1
 41
4.0
  0
ENDBLK
  5
259
100
AcDbEntity
  8
0
  6
BYBLOCK
 62
0
100
AcDbBlockEnd
  0
ENDSEC
  0
SECTION
  2
ENTITIES
  0
MTEXT
  5
25A
100
AcDbEntity
  8
0
100
AcDbMText
 62
7
  6
CONTINUOUS
  7
TEXTSTYLE_2
 71
2
 72
1
 10
15.7174677477
 20
1.6655662523
 30
0.0
 11
1.0
 21
0.0
 31
0.0
 73
2
 44
0.9
  1
\LTHIRD ANGLE PROJECTION\l
 40
0.1
 41
1.76
  0
MTEXT
  5
25B
100
AcDbEntity
  8
0
100
AcDbMText
 62
7
  6
CONTINUOUS
  7
STANDARD
 71
1
 72
1
 10
17.55
 20
1.32
 30
0.0
 11
1.0
 21
0.0
 31
0.0
 73
2
 44
0.9
  1
DRAWING NO.
 40
0.08
 41
0.88
  0
MTEXT
  5
25C
100
AcDbEntity
  8
0
100
AcDbMText
 62
7
  6
CONTINUOUS
  7
TEXTSTYLE_2
 71
1
 72
1
 10
16.75
 20
2.08
 30
0.0
 11
1.0
 21
0.0
 31
0.0
 73
2
 44
0.9
  1
TITLE
 40
0.1
 41
0.4
  0
MTEXT
  5
25D
100
AcDbEntity
  8
0
100
AcDbMText
 62
7
  6
CONTINUOUS
  7
STANDARD
 71
1
 72
1
 10
16.75
 20
1.32
 30
0.0
 11
1.0
 21
0.0
 31
0.0
 73
2
 44
0.9
  1
SIZE
 40
0.08
 41
0.32
  0
MTEXT
  5
25E
100
AcDbEntity
  8
0
100
AcDbMText
 62
7
  6
CONTINUOUS
  7
STANDARD
 71
1
 72
1
 10
16.75
 20
0.95
 30
0.0
 11
1.0
 21
0.0
 31
0.0
 73
2
 44
0.9
  1
SCALE
 40
0.08
 41
0.4
  0
MTEXT
  5
25F
100
AcDbEntity
  8
0
100
AcDbMText
 62
7
  6
CONTINUOUS
  7
TEXTSTYLE_2
 71
2
 72
1
 10
17.17
 20
1.2
 30
0.0
 11
1.0
 21
0.0
 31
0.0
 73
2
 44
0.9
  1
C
 40
0.1
 41
0.08
  0
MTEXT
  5
260
100
AcDbEntity
  8
0
100
AcDbMText
 62
7
  6
CONTINUOUS
  7
STANDARD
 71
1
 72
1
 10
18.925
 20
0.95
 30
0.0
 11
1.0
 21
0.0
 31
0.0
 73
2
 44
0.9
  1
SHEET
 40
0.08
 41
0.4
  0
MTEXT
  5
261
100
AcDbEntity
  8
0
100
AcDbMText
 62
7
  6
CONTINUOUS
  7
STANDARD
 71
1
 72
1
 10
20.3
 20
1.32
 30
0.0
 11
1.0
 21
0.0
 31
0.0
 73
2
 44
0.9
  1
REV.
 40
0.08
 41
0.32
  0
MTEXT
  5
262
100
AcDbEntity
  8
0
100
AcDbMText
 62
7
  6
CONTINUOUS
  7
STANDARD
 71
3
 72
1
 10
21.05
 20
0.698443
 30
0.0
 11
1.0
 21
0.0
 31
0.0
 73
2
 44
0.9
  1
CREO
 40
0.07
 41
0.28
  0
MTEXT
  5
263
100
AcDbEntity
  8
0
100
AcDbMText
 62
7
  6
CONTINUOUS
  7
TEXTSTYLE_2
 71
2
 72
1
 10
12.257
 20
15.95
 30
0.0
 11
1.0
 21
0.0
 31
0.0
 73
2
 44
0.9
  1
4
 40
0.1
 41
0.08
  0
MTEXT
  5
264
100
AcDbEntity
  8
0
100
AcDbMText
 62
7
  6
CONTINUOUS
  7
TEXTSTYLE_2
 71
2
 72
1
 10
12.257
 20
0.65
 30
0.0
 11
1.0
 21
0.0
 31
0.0
 73
2
 44
0.9
  1
4
 40
0.1
 41
0.08
  0
MTEXT
  5
265
100
AcDbEntity
  8
0
100
AcDbMText
 62
7
  6
CONTINUOUS
  7
TEXTSTYLE_2
 71
3
 72
1
 10
0.864
 20
6.375
 30
0.0
 11
1.0
 21
0.0
 31
0.0
 73
2
 44
0.9
  1
B
 40
0.1
 41
0.08
  0
MTEXT
  5
266
100
AcDbEntity
  8
0
100
AcDbMText
 62
7
  6
CONTINUOUS
  7
TEXTSTYLE_2
 71
1
 72
1
 10
21.15
 20
6.375
 30
0.0
 11
1.0
 21
0.0
 31
0.0
 73
2
 44
0.9
  1
B
 40
0.1
 41
0.08
  0
MTEXT
  5
267
100
AcDbEntity
  8
0
100
AcDbMText
 62
7
  6
CONTINUOUS
  7
TEXTSTYLE_2
 71
3
 72
1
 10
0.864
 20
2.525
 30
0.0
 11
1.0
 21
0.0
 31
0.0
 73
2
 44
0.9
  1
A
 40
0.1
 41
0.08
  0
MTEXT
  5
268
100
AcDbEntity
  8
0
100
AcDbMText
 62
7
  6
CONTINUOUS
  7
TEXTSTYLE_2
 71
1
 72
1
 10
21.15
 20
2.525
 30
0.0
 11
1.0
 21
0.0
 31
0.0
 73
2
 44
0.9
  1
A
 40
0.1
 41
0.08
  0
MTEXT
  5
269
100
AcDbEntity
  8
0
100
AcDbMText
 62
7
  6
CONTINUOUS
  7
TEXTSTYLE_2
 71
3
 72
1
 10
0.864
 20
14.075
 30
0.0
 11
1.0
 21
0.0
 31
0.0
 73
2
 44
0.9
  1
D
 40
0.1
 41
0.08
  0
MTEXT
  5
26A
100
AcDbEntity
  8
0
100
AcDbMText
 62
7
  6
CONTINUOUS
  7
TEXTSTYLE_2
 71
1
 72
1
 10
21.15
 20
14.075
 30
0.0
 11
1.0
 21
0.0
 31
0.0
 73
2
 44
0.9
  1
D
 40
0.1
 41
0.08
  0
MTEXT
  5
26B
100
AcDbEntity
  8
0
100
AcDbMText
 62
7
  6
CONTINUOUS
  7
TEXTSTYLE_2
 71
3
 72
1
 10
0.864
 20
10.225
 30
0.0
 11
1.0
 21
0.0
 31
0.0
 73
2
 44
0.9
  1
C
 40
0.1
 41
0.08
  0
MTEXT
  5
26C
100
AcDbEntity
  8
0
100
AcDbMText
 62
7
  6
CONTINUOUS
  7
TEXTSTYLE_2
 71
1
 72
1
 10
21.15
 20
10.225
 30
0.0
 11
1.0
 21
0.0
 31
0.0
 73
2
 44
0.9
  1
C
 40
0.1
 41
0.08
  0
MTEXT
  5
26D
100
AcDbEntity
  8
0
100
AcDbMText
 62
7
  6
CONTINUOUS
  7
TEXTSTYLE_2
 71
2
 72
1
 10
14.757
 20
0.65
 30
0.0
 11
1.0
 21
0.0
 31
0.0
 73
2
 44
0.9
  1
3
 40
0.1
 41
0.08
  0
MTEXT
  5
26E
100
AcDbEntity
  8
0
100
AcDbMText
 62
7
  6
CONTINUOUS
  7
TEXTSTYLE_2
 71
2
 72
1
 10
14.757
 20
15.95
 30
0.0
 11
1.0
 21
0.0
 31
0.0
 73
2
 44
0.9
  1
3
 40
0.1
 41
0.08
  0
MTEXT
  5
26F
100
AcDbEntity
  8
0
100
AcDbMText
 62
7
  6
CONTINUOUS
  7
TEXTSTYLE_2
 71
2
 72
1
 10
17.257
 20
15.95
 30
0.0
 11
1.0
 21
0.0
 31
0.0
 73
2
 44
0.9
  1
2
 40
0.1
 41
0.08
  0
MTEXT
  5
270
100
AcDbEntity
  8
0
100
AcDbMText
 62
7
  6
CONTINUOUS
  7
TEXTSTYLE_2
 71
2
 72
1
 10
17.257
 20
0.65
 30
0.0
 11
1.0
 21
0.0
 31
0.0
 73
2
 44
0.9
  1
2
 40
0.1
 41
0.08
  0
MTEXT
  5
271
100
AcDbEntity
  8
0
100
AcDbMText
 62
7
  6
CONTINUOUS
  7
TEXTSTYLE_2
 71
2
 72
1
 10
19.757
 20
0.65
 30
0.0
 11
1.0
 21
0.0
 31
0.0
 73
2
 44
0.9
  1
1
 40
0.1
 41
0.08
  0
MTEXT
  5
272
100
AcDbEntity
  8
0
100
AcDbMText
 62
7
  6
CONTINUOUS
  7
TEXTSTYLE_2
 71
2
 72
1
 10
19.757
 20
15.95
 30
0.0
 11
1.0
 21
0.0
 31
0.0
 73
2
 44
0.9
  1
1
 40
0.1
 41
0.08
  0
MTEXT
  5
273
100
AcDbEntity
  8
0
100
AcDbMText
 62
7
  6
CONTINUOUS
  7
TEXTSTYLE_2
 71
2
 72
1
 10
2.257
 20
0.65
 30
0.0
 11
1.0
 21
0.0
 31
0.0
 73
2
 44
0.9
  1
8
 40
0.1
 41
0.08
  0
MTEXT
  5
274
100
AcDbEntity
  8
0
100
AcDbMText
 62
7
  6
CONTINUOUS
  7
TEXTSTYLE_2
 71
2
 72
1
 10
4.757
 20
0.65
 30
0.0
 11
1.0
 21
0.0
 31
0.0
 73
2
 44
0.9
  1
7
 40
0.1
 41
0.08
  0
MTEXT
  5
275
100
AcDbEntity
  8
0
100
AcDbMText
 62
7
  6
CONTINUOUS
  7
TEXTSTYLE_2
 71
2
 72
1
 10
7.257
 20
0.65
 30
0.0
 11
1.0
 21
0.0
 31
0.0
 73
2
 44
0.9
  1
6
 40
0.1
 41
0.08
  0
MTEXT
  5
276
100
AcDbEntity
  8
0
100
AcDbMText
 62
7
  6
CONTINUOUS
  7
TEXTSTYLE_2
 71
2
 72
1
 10
9.757
 20
0.65
 30
0.0
 11
1.0
 21
0.0
 31
0.0
 73
2
 44
0.9
  1
5
 40
0.1
 41
0.08
  0
MTEXT
  5
277
100
AcDbEntity
  8
0
100
AcDbMText
 62
7
  6
CONTINUOUS
  7
TEXTSTYLE_2
 71
2
 72
1
 10
9.757
 20
15.95
 30
0.0
 11
1.0
 21
0.0
 31
0.0
 73
2
 44
0.9
  1
5
 40
0.1
 41
0.08
  0
MTEXT
  5
278
100
AcDbEntity
  8
0
100
AcDbMText
 62
7
  6
CONTINUOUS
  7
TEXTSTYLE_2
 71
2
 72
1
 10
7.257
 20
15.95
 30
0.0
 11
1.0
 21
0.0
 31
0.0
 73
2
 44
0.9
  1
6
 40
0.1
 41
0.08
  0
MTEXT
  5
279
100
AcDbEntity
  8
0
100
AcDbMText
 62
7
  6
CONTINUOUS
  7
TEXTSTYLE_2
 71
2
 72
1
 10
4.757
 20
15.95
 30
0.0
 11
1.0
 21
0.0
 31
0.0
 73
2
 44
0.9
  1
7
 40
0.1
 41
0.08
  0
MTEXT
  5
27A
100
AcDbEntity
  8
0
100
AcDbMText
 62
7
  6
CONTINUOUS
  7
TEXTSTYLE_2
 71
2
 72
1
 10
2.257
 20
15.95
 30
0.0
 11
1.0
 21
0.0
 31
0.0
 73
2
 44
0.9
  1
8
 40
0.1
 41
0.08
  0
MTEXT
  5
27B
100
AcDbEntity
  8
0
100
AcDbMText
 62
7
  6
CONTINUOUS
  7
STANDARD
 71
1
 72
1
 10
17.2749123633
 20
0.9184107931
 30
0.0
 11
1.0
 21
0.0
 31
0.0
 73
2
 44
0.9
  1
1:1
 40
0.1
 41
0.3
  0
MTEXT
  5
27C
100
AcDbEntity
  8
0
100
AcDbMText
 62
7
  6
CONTINUOUS
  7
STANDARD
 71
1
 72
1
 10
19.4499123633
 20
0.9184107931
 30
0.0
 11
1.0
 21
0.0
 31
0.0
 73
2
 44
0.9
  1
1 OF 1
 40
0.1
 41
0.6
  0
MTEXT
  5
27D
100
AcDbEntity
  8
0
100
AcDbMText
 62
7
  6
CONTINUOUS
  7
STANDARD
 71
1
 72
1
 10
18.5204017884
 20
1.2400373234
 30
0.0
 11
1.0
 21
0.0
 31
0.0
 73
2
 44
0.9
  1
193982
 40
0.12
 41
0.72
  0
MTEXT
  5
27E
100
AcDbEntity
  8
0
100
AcDbMText
 62
7
  6
CONTINUOUS
  7
STANDARD
 71
1
 72
1
 10
1.2857894151
 20
1.4458068967
 30
0.0
 11
1.0
 21
0.0
 31
0.0
 73
2
 44
0.9
  1
NOTES:\P1. ALL DIMENSIONS ARE MILLIMETERS [INCHES] UNLESS OTHERWISE NOTED.\P2. REFER TO "www.bannerengineering.com" FOR ADDITIONAL DATA AND SPECIFICATIONS.
 40
0.1
 41
7.9
  0
MTEXT
  5
27F
100
AcDbEntity
  8
0
100
AcDbMText
 62
7
  6
CONTINUOUS
  7
TEXTSTYLE_3
 71
2
 72
1
 10
19.7555637832
 20
2.555409194
 30
0.0
 11
1.0
 21
0.0
 31
0.0
 73
2
 44
0.9
  1
BANNER ENGINEERING CORP.
 40
0.12
 41
2.592
  0
MTEXT
  5
280
100
AcDbEntity
  8
0
100
AcDbMText
 62
7
  6
CONTINUOUS
  7
TEXTSTYLE_2
 71
2
 72
1
 10
19.6690932526
 20
2.3442032634
 30
0.0
 11
1.0
 21
0.0
 31
0.0
 73
2
 44
0.9
  1
www.bannerengineering.com
 40
0.1
 41
2.0
  0
MTEXT
  5
281
100
AcDbEntity
  8
0
100
AcDbMText
 62
7
  6
CONTINUOUS
  7
TEXTSTYLE_4
 71
2
 72
1
 10
15.7104628329
 20
2.6377571551
 30
0.0
 11
1.0
 21
0.0
 31
0.0
 73
2
 44
0.9
  1
This drawing is the property\Pof BANNER ENGINEERING CORP.\PAny use or reproduction,\Pin any form, without prior\Pwritten permission of\PBanner is prohibited.
 40
0.08
 41
1.904
  0
MTEXT
  5
282
100
AcDbEntity
  8
0
100
AcDbMText
 62
7
  6
CONTINUOUS
  7
TEXTSTYLE_5
 71
2
 72
1
 10
15.7283993136
 20
1.9032170366
 30
0.0
 11
1.0
 21
0.0
 31
0.0
 73
2
 44
0.9
  1
C  2015 Banner Engineering Corp.
 40
0.08
 41
1.92
  0
DIMENSION
  5
283
100
AcDbEntity
  8
DRIVEN_DIMS
100
AcDbDimension
 62
7
  6
CONTINUOUS
  2
*D0
 10
6.9377993039
 20
12.9662656362
 11
6.9377993039
 21
13.7770924079
 70
160
 71
2
 72
2
 41
0.9
 42
45.0
  1
<>\P[]
  3
DIMSTYLE_1
100
AcDbAlignedDimension
 13
7.746709139
 23
14.7379191795
 14
7.746709139
 24
12.9662656362
 50
270.0
100
AcDbRotatedDimension
  0
DIMENSION
  5
284
100
AcDbEntity
  8
DRIVEN_DIMS
100
AcDbDimension
 62
7
  6
CONTINUOUS
  2
*D1
 10
7.6876540209
 20
11.6461198276
 11
9.1640319737
 21
11.5711198276
 70
160
 71
2
 72
2
 41
0.9
 42
75.0
  1
<>\P[]
  3
DIMSTYLE_1
100
AcDbAlignedDimension
 13
10.6404099264
 23
10.8089557847
 14
7.6876540209
 24
10.8089557847
 50
180.0
100
AcDbRotatedDimension
  0
DIMENSION
  5
285
100
AcDbEntity
  8
DRIVEN_DIMS
100
AcDbDimension
 62
7
  6
CONTINUOUS
  2
*D2
 10
11.2437875886
 20
6.4782471232
 11
11.2437875886
 21
8.5686014539
 70
160
 71
2
 72
2
 41
0.9
 42
110.0
  1
<>\P[]
  3
DIMSTYLE_1
100
AcDbAlignedDimension
 13
10.6404099264
 23
10.8089557847
 14
10.6404099264
 24
6.4782471232
 50
270.0
100
AcDbRotatedDimension
  0
DIMENSION
  5
286
100
AcDbEntity
  8
DRIVEN_DIMS
100
AcDbDimension
 62
7
  6
CONTINUOUS
  2
*D3
 10
7.1880646345
 20
6.4782471232
 11
6.6880646345
 21
7.1702476087
 70
160
 71
3
 72
2
 41
0.9
 42
4.8
  1
<>\P[]
  3
DIMSTYLE_1
100
AcDbAlignedDimension
 13
8.4829296115
 23
6.6672235012
 14
7.6876540209
 24
6.4782471232
 50
270.0
100
AcDbRotatedDimension
  0
DIMENSION
  5
287
100
AcDbEntity
  8
DRIVEN_DIMS
100
AcDbDimension
 62
7
  6
CONTINUOUS
  2
*D4
 10
8.4829296115
 20
5.9890316233
 11
8.0852918162
 21
5.9140316233
 70
160
 71
2
 72
2
 41
0.9
 42
20.2
  1
<>\P[]
  3
DIMSTYLE_1
100
AcDbAlignedDimension
 13
7.6876540209
 23
6.4782471232
 14
8.4829296115
 24
6.580609328
100
AcDbRotatedDimension
  0
DIMENSION
  5
288
100
AcDbEntity
  8
DRIVEN_DIMS
100
AcDbDimension
 62
7
  6
CONTINUOUS
  2
*D5
 10
8.4829296115
 20
5.4406843574
 11
9.1689532335
 21
5.3656843574
 70
160
 71
2
 72
2
 41
0.9
 42
34.85
  1
<>\P[]
  3
DIMSTYLE_1
100
AcDbAlignedDimension
 13
9.8549768556
 23
6.6223416114
 14
8.4829296115
 24
6.580609328
 50
180.0
100
AcDbRotatedDimension
  0
ACAD_TABLE
  5
289
100
AcDbEntity
  8
0
 62
7
  6
CONTINUOUS
100
AcDbBlockReference
  2
*T1
 10
16.7
 20
0.75
 30
0.0
100
AcDbTable
342
       6DC
343
215
 11
1.0
 21
0.0
 31
0.0
 90
6
 91
3
 92
5
 93
4
 94
0
 95
0
 96
0
 70
1
141
0.33
141
0.45
141
1.14
142
0.65
142
1.15
142
1.025
142
1.075
142
0.45
171
1
172
0
173
0
174
0
175
1
176
1
 91
33
178
0
145
0.0
301
CELL_VALUE
 90
4
  1
 
304
ACVALUE_END
170
1
140
0.1
171
1
172
0
173
0
174
0
175
1
176
1
 91
33
178
0
145
0.0
301
CELL_VALUE
 90
4
  1
 
304
ACVALUE_END
170
1
140
0.1
171
1
172
0
173
0
174
0
175
1
176
1
 91
33
178
0
145
0.0
301
CELL_VALUE
 90
4
  1
 
304
ACVALUE_END
170
1
140
0.1
171
1
172
0
173
0
174
0
175
1
176
1
 91
33
178
0
145
0.0
301
CELL_VALUE
 90
4
  1
 
304
ACVALUE_END
170
1
140
0.1
171
1
172
0
173
0
174
0
175
1
176
1
 91
33
178
0
145
0.0
301
CELL_VALUE
 90
4
  1
 
304
ACVALUE_END
170
1
140
0.1
171
1
172
0
173
0
174
0
175
1
176
1
 91
33
178
0
145
0.0
301
CELL_VALUE
 90
4
  1
 
304
ACVALUE_END
170
1
140
0.1
171
1
172
0
173
0
174
0
175
1
176
1
 91
33
178
0
145
0.0
301
CELL_VALUE
 90
4
  1
 
304
ACVALUE_END
170
1
140
0.1
171
1
172
0
173
0
174
0
175
1
176
1
 91
33
178
0
145
0.0
301
CELL_VALUE
 90
4
  1
 
304
ACVALUE_END
170
1
140
0.1
171
1
172
0
173
0
174
0
175
1
176
1
 91
33
178
0
145
0.0
301
CELL_VALUE
 90
4
  1
 
304
ACVALUE_END
170
1
140
0.1
171
1
172
0
173
0
174
0
175
1
176
1
 91
41
178
0
145
0.0
301
CELL_VALUE
 90
4
  1
A
304
ACVALUE_END
170
8
140
0.1
 64
7
171
1
172
0
173
0
174
0
175
5
176
1
 91
33
178
0
145
0.0
301
CELL_VALUE
 90
4
  1
AT-FM/MM-FM/ES-FL 2A\P 
304
ACVALUE_END
170
8
140
0.1
171
1
172
0
173
1
174
0
175
1
176
1
 91
1
178
0
145
0.0
170
1
171
1
172
0
173
1
174
0
175
1
176
1
 91
1
178
0
145
0.0
170
1
171
1
172
0
173
1
174
0
175
1
176
1
 91
1
178
0
145
0.0
170
1
171
1
172
0
173
1
174
0
175
1
176
1
 91
1
178
0
145
0.0
170
8
  0
LINE
  5
28A
100
AcDbEntity
  8
0
100
AcDbLine
 62
7
  6
CONTINUOUS
 10
0.814
 20
8.336603
 11
0.814
 21
8.163397
  0
LINE
  5
28B
100
AcDbEntity
  8
0
100
AcDbLine
 62
7
  6
CONTINUOUS
 10
0.964
 20
15.75
 11
0.964
 21
0.75
  0
LINE
  5
28C
100
AcDbEntity
  8
0
100
AcDbLine
 62
7
  6
CONTINUOUS
 10
15.8276527477
 20
1.2966912523
 11
16.4340437477
 21
1.3660842523
  0
LINE
  5
28D
100
AcDbEntity
  8
0
100
AcDbLine
 62
7
  6
CONTINUOUS
 10
10.920397
 20
0.6
 11
11.093603
 21
0.6
  0
LINE
  5
28E
100
AcDbEntity
  8
0
100
AcDbLine
 62
7
  6
CONTINUOUS
 10
0.964
 20
0.75
 11
21.05
 21
0.75
  0
LINE
  5
28F
100
AcDbEntity
  8
0
100
AcDbLine
 62
7
  6
CONTINUOUS
 10
3.507
 20
0.75
 11
3.507
 21
0.5
  0
LINE
  5
290
100
AcDbEntity
  8
0
100
AcDbLine
 62
7
  6
CONTINUOUS
 10
3.507
 20
15.75
 11
3.507
 21
16.0
  0
LINE
  5
291
100
AcDbEntity
  8
0
100
AcDbLine
 62
7
  6
CONTINUOUS
 10
16.7
 20
1.0
 11
21.05
 21
1.0
  0
LINE
  5
292
100
AcDbEntity
  8
0
100
AcDbLine
 62
7
  6
CONTINUOUS
 10
14.9008917477
 20
1.1139932523
 11
15.1229827477
 21
1.1139932523
  0
LINE
  5
293
100
AcDbEntity
  8
0
100
AcDbLine
 62
7
  6
CONTINUOUS
 10
15.1729827477
 20
1.1139932523
 11
15.2729827477
 21
1.1139932523
  0
LINE
  5
294
100
AcDbEntity
  8
0
100
AcDbLine
 62
7
  6
CONTINUOUS
 10
15.3229827477
 20
1.1139932523
 11
15.5450737477
 21
1.1139932523
  0
LINE
  5
295
100
AcDbEntity
  8
0
100
AcDbLine
 62
7
  6
CONTINUOUS
 10
15.7276527477
 20
1.1139932523
 11
16.0058047477
 21
1.1139932523
  0
LINE
  5
296
100
AcDbEntity
  8
0
100
AcDbLine
 62
7
  6
CONTINUOUS
 10
16.0558047477
 20
1.1139932523
 11
16.2058907477
 21
1.1139932523
  0
LINE
  5
297
100
AcDbEntity
  8
0
100
AcDbLine
 62
7
  6
CONTINUOUS
 10
16.2558907477
 20
1.1139932523
 11
16.5340437477
 21
1.1139932523
  0
LINE
  5
298
100
AcDbEntity
  8
0
100
AcDbLine
 62
7
  6
CONTINUOUS
 10
16.7
 20
1.37
 11
21.05
 21
1.37
  0
LINE
  5
299
100
AcDbEntity
  8
0
100
AcDbLine
 62
7
  6
CONTINUOUS
 10
16.4340437477
 20
0.8619022523
 11
15.8276527477
 21
0.9312952523
  0
LINE
  5
29A
100
AcDbEntity
  8
0
100
AcDbLine
 62
7
  6
CONTINUOUS
 10
14.7
 20
1.77
 11
16.7
 21
1.77
  0
LINE
  5
29B
100
AcDbEntity
  8
0
100
AcDbLine
 62
7
  6
CONTINUOUS
 10
16.7
 20
2.13
 11
21.05
 21
2.13
  0
LINE
  5
29C
100
AcDbEntity
  8
0
100
AcDbLine
 62
7
  6
CONTINUOUS
 10
18.273144232
 20
2.3543254011
 11
18.2257802057
 21
2.3543254011
  0
LINE
  5
29D
100
AcDbEntity
  8
0
100
AcDbLine
 62
7
  6
CONTINUOUS
 10
18.1818891814
 20
2.3543254011
 11
18.0683181184
 21
2.3543254011
  0
LINE
  5
29E
100
AcDbEntity
  8
0
100
AcDbLine
 62
7
  6
CONTINUOUS
 10
18.0394141024
 20
2.3543254011
 11
17.8362019897
 21
2.3543254011
  0
LINE
  5
29F
100
AcDbEntity
  8
0
100
AcDbLine
 62
7
  6
CONTINUOUS
 10
17.7857289617
 20
2.3543254011
 11
17.7115229205
 21
2.3543254011
  0
LINE
  5
2A0
100
AcDbEntity
  8
0
100
AcDbLine
 62
7
  6
CONTINUOUS
 10
17.6651428948
 20
2.3543254011
 11
17.5894788529
 21
2.3543254011
  0
LINE
  5
2A1
100
AcDbEntity
  8
0
100
AcDbLine
 62
7
  6
CONTINUOUS
 10
17.537475824
 20
2.3543254011
 11
17.4632707829
 21
2.3543254011
  0
LINE
  5
2A2
100
AcDbEntity
  8
0
100
AcDbLine
 62
7
  6
CONTINUOUS
 10
17.4168897572
 20
2.3543254011
 11
17.3412257152
 21
2.3543254011
  0
LINE
  5
2A3
100
AcDbEntity
  8
0
100
AcDbLine
 62
7
  6
CONTINUOUS
 10
16.8743904563
 20
2.3543254011
 11
17.0508365542
 21
2.3543254011
  0
LINE
  5
2A4
100
AcDbEntity
  8
0
100
AcDbLine
 62
7
  6
CONTINUOUS
 10
17.1083735861
 20
2.3543254011
 11
17.185749629
 21
2.3543254011
  0
LINE
  5
2A5
100
AcDbEntity
  8
0
100
AcDbLine
 62
7
  6
CONTINUOUS
 10
17.2060356402
 20
2.3543254011
 11
17.3113166986
 21
2.3543254011
  0
LINE
  5
2A6
100
AcDbEntity
  8
0
100
AcDbLine
 62
7
  6
CONTINUOUS
 10
18.1572301677
 20
2.3790534148
 11
18.1818891814
 21
2.3790534148
  0
LINE
  5
2A7
100
AcDbEntity
  8
0
100
AcDbLine
 62
7
  6
CONTINUOUS
 10
17.3113166986
 20
2.3790754148
 11
17.2913006875
 21
2.3790754148
  0
LINE
  5
2A8
100
AcDbEntity
  8
0
100
AcDbLine
 62
7
  6
CONTINUOUS
 10
17.2204866482
 20
2.3790754148
 11
17.2060356402
 21
2.3790754148
  0
LINE
  5
2A9
100
AcDbEntity
  8
0
100
AcDbLine
 62
7
  6
CONTINUOUS
 10
17.185749629
 20
2.3790754148
 11
17.1744666227
 21
2.3790754148
  0
LINE
  5
2AA
100
AcDbEntity
  8
0
100
AcDbLine
 62
7
  6
CONTINUOUS
 10
17.1312345987
 20
2.3790754148
 11
17.1083735861
 21
2.3790754148
  0
LINE
  5
2AB
100
AcDbEntity
  8
0
100
AcDbLine
 62
7
  6
CONTINUOUS
 10
17.0051585288
 20
2.3790754148
 11
16.9637955059
 21
2.3790754148
  0
LINE
  5
2AC
100
AcDbEntity
  8
0
100
AcDbLine
 62
7
  6
CONTINUOUS
 10
16.8983324696
 20
2.3790754148
 11
16.8743904563
 21
2.3790754148
  0
LINE
  5
2AD
100
AcDbEntity
  8
0
100
AcDbLine
 62
7
  6
CONTINUOUS
 10
17.3412257152
 20
2.3790754148
 11
17.3598727255
 21
2.3790754148
  0
LINE
  5
2AE
100
AcDbEntity
  8
0
100
AcDbLine
 62
7
  6
CONTINUOUS
 10
17.3965727459
 20
2.3790754148
 11
17.4168897572
 21
2.3790754148
  0
LINE
  5
2AF
100
AcDbEntity
  8
0
100
AcDbLine
 62
7
  6
CONTINUOUS
 10
17.5894788529
 20
2.3790754148
 11
17.6081248632
 21
2.3790754148
  0
LINE
  5
2B0
100
AcDbEntity
  8
0
100
AcDbLine
 62
7
  6
CONTINUOUS
 10
17.6448258836
 20
2.3790754148
 11
17.6651428948
 21
2.3790754148
  0
LINE
  5
2B1
100
AcDbEntity
  8
0
100
AcDbLine
 62
7
  6
CONTINUOUS
 10
17.8362019897
 20
2.3790754148
 11
17.860125003
 21
2.3790754148
  0
LINE
  5
2B2
100
AcDbEntity
  8
0
100
AcDbLine
 62
7
  6
CONTINUOUS
 10
17.9271410401
 20
2.3790754148
 11
17.9921450762
 21
2.3790754148
  0
LINE
  5
2B3
100
AcDbEntity
  8
0
100
AcDbLine
 62
7
  6
CONTINUOUS
 10
18.0683181184
 20
2.3790754148
 11
18.091064131
 21
2.3790754148
  0
LINE
  5
2B4
100
AcDbEntity
  8
0
100
AcDbLine
 62
7
  6
CONTINUOUS
 10
18.2741672326
 20
2.379462415
 11
18.2752762332
 21
2.379462415
  0
LINE
  5
2B5
100
AcDbEntity
  8
0
100
AcDbLine
 62
7
  6
CONTINUOUS
 10
17.9970950789
 20
2.3922754221
 11
18.0394141024
 21
2.3922754221
  0
LINE
  5
2B6
100
AcDbEntity
  8
0
100
AcDbLine
 62
7
  6
CONTINUOUS
 10
17.1799826258
 20
2.3927194224
 11
17.2148606451
 21
2.3927194224
  0
LINE
  5
2B7
100
AcDbEntity
  8
0
100
AcDbLine
 62
7
  6
CONTINUOUS
 10
18.2860312391
 20
2.3932124227
 11
18.2981412459
 21
2.3932124227
  0
LINE
  5
2B8
100
AcDbEntity
  8
0
100
AcDbLine
 62
7
  6
CONTINUOUS
 10
18.184837183
 20
2.3937024229
 11
18.1572301677
 21
2.3937024229
  0
LINE
  5
2B9
100
AcDbEntity
  8
0
100
AcDbLine
 62
7
  6
CONTINUOUS
 10
17.9623080596
 20
2.395575424
 11
17.9271410401
 21
2.395575424
  0
LINE
  5
2BA
100
AcDbEntity
  8
0
100
AcDbLine
 62
7
  6
CONTINUOUS
 10
16.9637955059
 20
2.3964004244
 11
17.0051585288
 21
2.3964004244
  0
LINE
  5
2BB
100
AcDbEntity
  8
0
100
AcDbLine
 62
7
  6
CONTINUOUS
 10
18.1911671865
 20
2.4127054335
 11
18.1572301677
 21
2.4127054335
  0
LINE
  5
2BC
100
AcDbEntity
  8
0
100
AcDbLine
 62
7
  6
CONTINUOUS
 10
16.9637955059
 20
2.4130554337
 11
17.0051585288
 21
2.4130554337
  0
LINE
  5
2BD
100
AcDbEntity
  8
0
100
AcDbLine
 62
7
  6
CONTINUOUS
 10
17.1884986305
 20
2.413669434
 11
17.2090556419
 21
2.413669434
  0
LINE
  5
2BE
100
AcDbEntity
  8
0
100
AcDbLine
 62
7
  6
CONTINUOUS
 10
17.9271410401
 20
2.4138804341
 11
17.9623080596
 21
2.4138804341
  0
LINE
  5
2BF
100
AcDbEntity
  8
0
100
AcDbLine
 62
7
  6
CONTINUOUS
 10
18.0379951016
 20
2.4171804359
 11
17.9961310784
 21
2.4171804359
  0
LINE
  5
2C0
100
AcDbEntity
  8
0
100
AcDbLine
 62
7
  6
CONTINUOUS
 10
17.2017966379
 20
2.429836443
 11
17.1956156344
 21
2.429836443
  0
LINE
  5
2C1
100
AcDbEntity
  8
0
100
AcDbLine
 62
7
  6
CONTINUOUS
 10
18.091064131
 20
2.4303804433
 11
18.0683181184
 21
2.4303804433
  0
LINE
  5
2C2
100
AcDbEntity
  8
0
100
AcDbLine
 62
7
  6
CONTINUOUS
 10
17.9911810756
 20
2.4303804433
 11
17.9271410401
 21
2.4303804433
  0
LINE
  5
2C3
100
AcDbEntity
  8
0
100
AcDbLine
 62
7
  6
CONTINUOUS
 10
17.860125003
 20
2.4303804433
 11
17.8362019897
 21
2.4303804433
  0
LINE
  5
2C4
100
AcDbEntity
  8
0
100
AcDbLine
 62
7
  6
CONTINUOUS
 10
17.8086119744
 20
2.4303804433
 11
17.7906789644
 21
2.4303804433
  0
LINE
  5
2C5
100
AcDbEntity
  8
0
100
AcDbLine
 62
7
  6
CONTINUOUS
 10
17.7533869438
 20
2.4303804433
 11
17.7346109333
 21
2.4303804433
  0
LINE
  5
2C6
100
AcDbEntity
  8
0
100
AcDbLine
 62
7
  6
CONTINUOUS
 10
17.6081248632
 20
2.4303804433
 11
17.5894788529
 21
2.4303804433
  0
LINE
  5
2C7
100
AcDbEntity
  8
0
100
AcDbLine
 62
7
  6
CONTINUOUS
 10
17.5603588367
 20
2.4303804433
 11
17.5424258268
 21
2.4303804433
  0
LINE
  5
2C8
100
AcDbEntity
  8
0
100
AcDbLine
 62
7
  6
CONTINUOUS
 10
17.5051338061
 20
2.4303804433
 11
17.4863577957
 21
2.4303804433
  0
LINE
  5
2C9
100
AcDbEntity
  8
0
100
AcDbLine
 62
7
  6
CONTINUOUS
 10
17.3598727255
 20
2.4303804433
 11
17.3412257152
 21
2.4303804433
  0
LINE
  5
2CA
100
AcDbEntity
  8
0
100
AcDbLine
 62
7
  6
CONTINUOUS
 10
17.0051585288
 20
2.4303804433
 11
16.9637955059
 21
2.4303804433
  0
LINE
  5
2CB
100
AcDbEntity
  8
0
100
AcDbLine
 62
7
  6
CONTINUOUS
 10
16.8743904563
 20
2.4303804433
 11
16.8983324696
 21
2.4303804433
  0
LINE
  5
2CC
100
AcDbEntity
  8
0
100
AcDbLine
 62
7
  6
CONTINUOUS
 10
18.1572301677
 20
2.4303804433
 11
18.1940311881
 21
2.4303804433
  0
LINE
  5
2CD
100
AcDbEntity
  8
0
100
AcDbLine
 62
7
  6
CONTINUOUS
 10
17.2393896587
 20
2.455130457
 11
17.182214627
 21
2.455130457
  0
LINE
  5
2CE
100
AcDbEntity
  8
0
100
AcDbLine
 62
7
  6
CONTINUOUS
 10
17.0404535484
 20
2.455130457
 11
16.8743904563
 21
2.455130457
  0
LINE
  5
2CF
100
AcDbEntity
  8
0
100
AcDbLine
 62
7
  6
CONTINUOUS
 10
17.3412257152
 20
2.455130457
 11
17.4416837709
 21
2.455130457
  0
LINE
  5
2D0
100
AcDbEntity
  8
0
100
AcDbLine
 62
7
  6
CONTINUOUS
 10
17.4863577957
 20
2.455130457
 11
17.5603588367
 21
2.455130457
  0
LINE
  5
2D1
100
AcDbEntity
  8
0
100
AcDbLine
 62
7
  6
CONTINUOUS
 10
17.5894788529
 20
2.455130457
 11
17.6899369086
 21
2.455130457
  0
LINE
  5
2D2
100
AcDbEntity
  8
0
100
AcDbLine
 62
7
  6
CONTINUOUS
 10
17.7346109333
 20
2.455130457
 11
17.8086119744
 21
2.455130457
  0
LINE
  5
2D3
100
AcDbEntity
  8
0
100
AcDbLine
 62
7
  6
CONTINUOUS
 10
17.8362019897
 20
2.455130457
 11
18.0379951016
 21
2.455130457
  0
LINE
  5
2D4
100
AcDbEntity
  8
0
100
AcDbLine
 62
7
  6
CONTINUOUS
 10
18.0683181184
 20
2.455130457
 11
18.2178992014
 21
2.455130457
  0
LINE
  5
2D5
100
AcDbEntity
  8
0
100
AcDbLine
 62
7
  6
CONTINUOUS
 10
17.0697205646
 20
2.4006414268
 11
17.059669559
 21
2.4041904287
  0
LINE
  5
2D6
100
AcDbEntity
  8
0
100
AcDbLine
 62
7
  6
CONTINUOUS
 10
17.4615617819
 20
2.3550094015
 11
17.3982817468
 21
2.415387435
  0
LINE
  5
2D7
100
AcDbEntity
  8
0
100
AcDbLine
 62
7
  6
CONTINUOUS
 10
17.4433917718
 20
2.4544464566
 11
17.5034248051
 21
2.3971664249
  0
LINE
  5
2D8
100
AcDbEntity
  8
0
100
AcDbLine
 62
7
  6
CONTINUOUS
 10
17.7098149196
 20
2.3550094015
 11
17.6465348845
 21
2.415387435
  0
LINE
  5
2D9
100
AcDbEntity
  8
0
100
AcDbLine
 62
7
  6
CONTINUOUS
 10
17.6916449095
 20
2.4544464566
 11
17.7516779428
 21
2.3971664249
  0
LINE
  5
2DA
100
AcDbEntity
  8
0
100
AcDbLine
 62
7
  6
CONTINUOUS
 10
17.2169386463
 20
2.3915884218
 11
17.2225646494
 21
2.3828954169
  0
LINE
  5
2DB
100
AcDbEntity
  8
0
100
AcDbLine
 62
7
  6
CONTINUOUS
 10
17.211133643
 20
2.4174894361
 11
17.203874639
 21
2.4287054423
  0
LINE
  5
2DC
100
AcDbEntity
  8
0
100
AcDbLine
 62
7
  6
CONTINUOUS
 10
17.2892236864
 20
2.3802054154
 11
17.2414676599
 21
2.4540004564
  0
LINE
  5
2DD
100
AcDbEntity
  8
0
100
AcDbLine
 62
7
  6
CONTINUOUS
 10
18.206476195
 20
2.3723714111
 11
18.204672194
 21
2.3784404145
  0
LINE
  5
2DE
100
AcDbEntity
  8
0
100
AcDbLine
 62
7
  6
CONTINUOUS
 10
16.8719154549
 20
2.4526554556
 11
16.8719154549
 21
2.4328554446
  0
LINE
  5
2DF
100
AcDbEntity
  8
0
100
AcDbLine
 62
7
  6
CONTINUOUS
 10
16.8719154549
 20
2.3766004134
 11
16.8719154549
 21
2.3568004025
  0
LINE
  5
2E0
100
AcDbEntity
  8
0
100
AcDbLine
 62
7
  6
CONTINUOUS
 10
16.9008074709
 20
2.4279054419
 11
16.9008074709
 21
2.3815504162
  0
LINE
  5
2E1
100
AcDbEntity
  8
0
100
AcDbLine
 62
7
  6
CONTINUOUS
 10
16.9613205045
 20
2.4279054419
 11
16.9613205045
 21
2.415530435
  0
LINE
  5
2E2
100
AcDbEntity
  8
0
100
AcDbLine
 62
7
  6
CONTINUOUS
 10
16.9613205045
 20
2.3815504162
 11
16.9613205045
 21
2.3939254231
  0
LINE
  5
2E3
100
AcDbEntity
  8
0
100
AcDbLine
 62
7
  6
CONTINUOUS
 10
17.1058985847
 20
2.3766004134
 11
17.1058985847
 21
2.3568004025
  0
LINE
  5
2E4
100
AcDbEntity
  8
0
100
AcDbLine
 62
7
  6
CONTINUOUS
 10
17.1882246303
 20
2.3568004025
 11
17.1882246303
 21
2.3766004134
  0
LINE
  5
2E5
100
AcDbEntity
  8
0
100
AcDbLine
 62
7
  6
CONTINUOUS
 10
17.2035606388
 20
2.3766004134
 11
17.2035606388
 21
2.3568004025
  0
LINE
  5
2E6
100
AcDbEntity
  8
0
100
AcDbLine
 62
7
  6
CONTINUOUS
 10
17.3137917
 20
2.3568004025
 11
17.3137917
 21
2.3766004134
  0
LINE
  5
2E7
100
AcDbEntity
  8
0
100
AcDbLine
 62
7
  6
CONTINUOUS
 10
17.3387507138
 20
2.3568004025
 11
17.3387507138
 21
2.3766004134
  0
LINE
  5
2E8
100
AcDbEntity
  8
0
100
AcDbLine
 62
7
  6
CONTINUOUS
 10
17.3387507138
 20
2.4328554446
 11
17.3387507138
 21
2.4526554556
  0
LINE
  5
2E9
100
AcDbEntity
  8
0
100
AcDbLine
 62
7
  6
CONTINUOUS
 10
17.3623477269
 20
2.3815504162
 11
17.3623477269
 21
2.4279054419
  0
LINE
  5
2EA
100
AcDbEntity
  8
0
100
AcDbLine
 62
7
  6
CONTINUOUS
 10
17.3940977445
 20
2.413596434
 11
17.3940977445
 21
2.3815504162
  0
LINE
  5
2EB
100
AcDbEntity
  8
0
100
AcDbLine
 62
7
  6
CONTINUOUS
 10
17.4193647585
 20
2.3766004134
 11
17.4193647585
 21
2.3568004025
  0
LINE
  5
2EC
100
AcDbEntity
  8
0
100
AcDbLine
 62
7
  6
CONTINUOUS
 10
17.4838827943
 20
2.4328554446
 11
17.4838827943
 21
2.4526554556
  0
LINE
  5
2ED
100
AcDbEntity
  8
0
100
AcDbLine
 62
7
  6
CONTINUOUS
 10
17.5076088075
 20
2.3989574258
 11
17.5076088075
 21
2.4279054419
  0
LINE
  5
2EE
100
AcDbEntity
  8
0
100
AcDbLine
 62
7
  6
CONTINUOUS
 10
17.5399508254
 20
2.4279054419
 11
17.5399508254
 21
2.3568004025
  0
LINE
  5
2EF
100
AcDbEntity
  8
0
100
AcDbLine
 62
7
  6
CONTINUOUS
 10
17.5628338381
 20
2.4526554556
 11
17.5628338381
 21
2.4328554446
  0
LINE
  5
2F0
100
AcDbEntity
  8
0
100
AcDbLine
 62
7
  6
CONTINUOUS
 10
17.5870038515
 20
2.3568004025
 11
17.5870038515
 21
2.3766004134
  0
LINE
  5
2F1
100
AcDbEntity
  8
0
100
AcDbLine
 62
7
  6
CONTINUOUS
 10
17.5870038515
 20
2.4328554446
 11
17.5870038515
 21
2.4526554556
  0
LINE
  5
2F2
100
AcDbEntity
  8
0
100
AcDbLine
 62
7
  6
CONTINUOUS
 10
17.6105998646
 20
2.3815504162
 11
17.6105998646
 21
2.4279054419
  0
LINE
  5
2F3
100
AcDbEntity
  8
0
100
AcDbLine
 62
7
  6
CONTINUOUS
 10
17.6423508822
 20
2.413596434
 11
17.6423508822
 21
2.3815504162
  0
LINE
  5
2F4
100
AcDbEntity
  8
0
100
AcDbLine
 62
7
  6
CONTINUOUS
 10
17.6676178962
 20
2.3766004134
 11
17.6676178962
 21
2.3568004025
  0
LINE
  5
2F5
100
AcDbEntity
  8
0
100
AcDbLine
 62
7
  6
CONTINUOUS
 10
17.732135932
 20
2.4328554446
 11
17.732135932
 21
2.4526554556
  0
LINE
  5
2F6
100
AcDbEntity
  8
0
100
AcDbLine
 62
7
  6
CONTINUOUS
 10
17.7558619451
 20
2.3989574258
 11
17.7558619451
 21
2.4279054419
  0
LINE
  5
2F7
100
AcDbEntity
  8
0
100
AcDbLine
 62
7
  6
CONTINUOUS
 10
17.7882039631
 20
2.4279054419
 11
17.7882039631
 21
2.3568004025
  0
LINE
  5
2F8
100
AcDbEntity
  8
0
100
AcDbLine
 62
7
  6
CONTINUOUS
 10
17.8110869758
 20
2.4526554556
 11
17.8110869758
 21
2.4328554446
  0
LINE
  5
2F9
100
AcDbEntity
  8
0
100
AcDbLine
 62
7
  6
CONTINUOUS
 10
17.8337269883
 20
2.3568004025
 11
17.8337269883
 21
2.3766004134
  0
LINE
  5
2FA
100
AcDbEntity
  8
0
100
AcDbLine
 62
7
  6
CONTINUOUS
 10
17.8337269883
 20
2.4328554446
 11
17.8337269883
 21
2.4526554556
  0
LINE
  5
2FB
100
AcDbEntity
  8
0
100
AcDbLine
 62
7
  6
CONTINUOUS
 10
17.8626000043
 20
2.3815504162
 11
17.8626000043
 21
2.4279054419
  0
LINE
  5
2FC
100
AcDbEntity
  8
0
100
AcDbLine
 62
7
  6
CONTINUOUS
 10
17.9246660387
 20
2.4279054419
 11
17.9246660387
 21
2.4163554355
  0
LINE
  5
2FD
100
AcDbEntity
  8
0
100
AcDbLine
 62
7
  6
CONTINUOUS
 10
17.9246660387
 20
2.3931004226
 11
17.9246660387
 21
2.3815504162
  0
LINE
  5
2FE
100
AcDbEntity
  8
0
100
AcDbLine
 62
7
  6
CONTINUOUS
 10
17.964783061
 20
2.4114054327
 11
17.964783061
 21
2.3980504253
  0
LINE
  5
2FF
100
AcDbEntity
  8
0
100
AcDbLine
 62
7
  6
CONTINUOUS
 10
17.993656077
 20
2.4196554373
 11
17.993656077
 21
2.4279054419
  0
LINE
  5
300
100
AcDbEntity
  8
0
100
AcDbLine
 62
7
  6
CONTINUOUS
 10
17.9946200775
 20
2.3815504162
 11
17.9946200775
 21
2.3898004208
  0
LINE
  5
301
100
AcDbEntity
  8
0
100
AcDbLine
 62
7
  6
CONTINUOUS
 10
18.040470103
 20
2.4526554556
 11
18.040470103
 21
2.4196554373
  0
LINE
  5
302
100
AcDbEntity
  8
0
100
AcDbLine
 62
7
  6
CONTINUOUS
 10
18.0418891038
 20
2.3898004208
 11
18.0418891038
 21
2.3568004025
  0
LINE
  5
303
100
AcDbEntity
  8
0
100
AcDbLine
 62
7
  6
CONTINUOUS
 10
18.065843117
 20
2.3568004025
 11
18.065843117
 21
2.3766004134
  0
LINE
  5
304
100
AcDbEntity
  8
0
100
AcDbLine
 62
7
  6
CONTINUOUS
 10
18.065843117
 20
2.4328554446
 11
18.065843117
 21
2.4526554556
  0
LINE
  5
305
100
AcDbEntity
  8
0
100
AcDbLine
 62
7
  6
CONTINUOUS
 10
18.0935391324
 20
2.3815504162
 11
18.0935391324
 21
2.4279054419
  0
LINE
  5
306
100
AcDbEntity
  8
0
100
AcDbLine
 62
7
  6
CONTINUOUS
 10
18.1547551663
 20
2.3912274216
 11
18.1547551663
 21
2.3815284162
  0
LINE
  5
307
100
AcDbEntity
  8
0
100
AcDbLine
 62
7
  6
CONTINUOUS
 10
18.1547551663
 20
2.4151804348
 11
18.1547551663
 21
2.4279054419
  0
LINE
  5
308
100
AcDbEntity
  8
0
100
AcDbLine
 62
7
  6
CONTINUOUS
 10
18.1843641828
 20
2.3765784134
 11
18.1843641828
 21
2.3568004025
  0
LINE
  5
309
100
AcDbEntity
  8
0
100
AcDbLine
 62
7
  6
CONTINUOUS
 10
18.2835562378
 20
2.3881114198
 11
18.2835562378
 21
2.3907374213
  0
LINE
  5
30A
100
AcDbEntity
  8
0
100
AcDbLine
 62
7
  6
CONTINUOUS
 10
18.3006162472
 20
2.3907374213
 11
18.3006162472
 21
2.3791854149
  0
LINE
  5
30B
100
AcDbEntity
  8
0
100
AcDbLine
 62
7
  6
CONTINUOUS
 10
18.3975725422
 20
2.3981678251
 11
18.3975725422
 21
2.4087850316
  0
LINE
  5
30C
100
AcDbEntity
  8
0
100
AcDbLine
 62
7
  6
CONTINUOUS
 10
17.1801246258
 20
2.4539814564
 11
17.1333245999
 21
2.3802244155
  0
LINE
  5
30D
100
AcDbEntity
  8
0
100
AcDbLine
 62
7
  6
CONTINUOUS
 10
17.1935256333
 20
2.4286874423
 11
17.1864086293
 21
2.4174704361
  0
LINE
  5
30E
100
AcDbEntity
  8
0
100
AcDbLine
 62
7
  6
CONTINUOUS
 10
17.1723766216
 20
2.3828764169
 11
17.1778926246
 21
2.3915704217
  0
LINE
  5
30F
100
AcDbEntity
  8
0
100
AcDbLine
 62
7
  6
CONTINUOUS
 10
17.059669559
 20
2.4041904287
 11
17.0679095636
 21
2.4089664314
  0
ARC
  5
310
100
AcDbEntity
  8
0
100
AcDbCircle
 62
7
  6
CONTINUOUS
 10
17.4632701481
 20
2.3568008172
 40
0.0024754162
100
AcDbArc
 50
226.3593695814
 51
270.0146919953
  0
ARC
  5
311
100
AcDbEntity
  8
0
100
AcDbCircle
 62
7
  6
CONTINUOUS
 10
16.8743904545
 20
2.3568004006
 40
0.0024749995
100
AcDbArc
 50
179.9999571957
 51
270.0000428043
  0
ARC
  5
312
100
AcDbEntity
  8
0
100
AcDbCircle
 62
7
  6
CONTINUOUS
 10
17.5374758259
 20
2.3568004006
 40
0.0024749995
100
AcDbArc
 50
269.9999571957
 51
0.0000428043
  0
ARC
  5
313
100
AcDbEntity
  8
0
100
AcDbCircle
 62
7
  6
CONTINUOUS
 10
17.416889759
 20
2.3568004006
 40
0.0024749995
100
AcDbArc
 50
269.9999571957
 51
0.0000428043
  0
ARC
  5
314
100
AcDbEntity
  8
0
100
AcDbCircle
 62
7
  6
CONTINUOUS
 10
17.3412257133
 20
2.3568004006
 40
0.0024749995
100
AcDbArc
 50
179.9999571957
 51
270.0000428043
  0
ARC
  5
315
100
AcDbEntity
  8
0
100
AcDbCircle
 62
7
  6
CONTINUOUS
 10
17.2060356384
 20
2.3568004006
 40
0.0024749995
100
AcDbArc
 50
179.9999571957
 51
270.0000428043
  0
ARC
  5
316
100
AcDbEntity
  8
0
100
AcDbCircle
 62
7
  6
CONTINUOUS
 10
17.3113167005
 20
2.3568004006
 40
0.0024749995
100
AcDbArc
 50
269.9999571957
 51
0.0000428043
  0
ARC
  5
317
100
AcDbEntity
  8
0
100
AcDbCircle
 62
7
  6
CONTINUOUS
 10
17.1083735842
 20
2.3568004006
 40
0.0024749995
100
AcDbArc
 50
179.9999571957
 51
270.0000428043
  0
ARC
  5
318
100
AcDbEntity
  8
0
100
AcDbCircle
 62
7
  6
CONTINUOUS
 10
17.1857496308
 20
2.3568004006
 40
0.0024749995
100
AcDbArc
 50
269.9999571958
 51
0.0000428044
  0
ARC
  5
319
100
AcDbEntity
  8
0
100
AcDbCircle
 62
7
  6
CONTINUOUS
 10
17.0404590422
 20
2.3933827403
 40
0.061747717
100
AcDbArc
 50
59.5385584989
 51
90.0050977555
  0
ARC
  5
31A
100
AcDbEntity
  8
0
100
AcDbCircle
 62
7
  6
CONTINUOUS
 10
17.0481152095
 20
2.4027328529
 40
0.048483885
100
AcDbArc
 50
273.21763719
 51
303.0749121182
  0
ARC
  5
31B
100
AcDbEntity
  8
0
100
AcDbCircle
 62
7
  6
CONTINUOUS
 10
17.0620614151
 20
2.3797859164
 40
0.0222174455
100
AcDbArc
 50
4.0793399388
 51
69.834329283
  0
ARC
  5
31C
100
AcDbEntity
  8
0
100
AcDbCircle
 62
7
  6
CONTINUOUS
 10
17.0629546036
 20
2.379965244
 40
0.0213072145
100
AcDbArc
 50
303.0488228549
 51
355.7263138674
  0
ARC
  5
31D
100
AcDbEntity
  8
0
100
AcDbCircle
 62
7
  6
CONTINUOUS
 10
17.0688911042
 20
2.3799744343
 40
0.0153945295
100
AcDbArc
 50
354.0454548824
 51
5.1878013979
  0
ARC
  5
31E
100
AcDbEntity
  8
0
100
AcDbCircle
 62
7
  6
CONTINUOUS
 10
17.0051585288
 20
2.3877379196
 40
0.0086625048
100
AcDbArc
 50
270.0
 51
90.0
  0
ARC
  5
31F
100
AcDbEntity
  8
0
100
AcDbCircle
 62
7
  6
CONTINUOUS
 10
17.2148601055
 20
2.3902439622
 40
0.0024754602
100
AcDbArc
 50
32.8959418573
 51
89.9875097202
  0
ARC
  5
320
100
AcDbEntity
  8
0
100
AcDbCircle
 62
7
  6
CONTINUOUS
 10
17.131234669
 20
2.3815506151
 40
0.0024752003
100
AcDbArc
 50
269.9983726451
 51
327.602165307
  0
ARC
  5
321
100
AcDbEntity
  8
0
100
AcDbCircle
 62
7
  6
CONTINUOUS
 10
17.1799825555
 20
2.3902442221
 40
0.0024752003
100
AcDbArc
 50
89.998372645
 51
147.602165307
  0
ARC
  5
322
100
AcDbEntity
  8
0
100
AcDbCircle
 62
7
  6
CONTINUOUS
 10
17.1744665134
 20
2.3815504549
 40
0.0024750401
100
AcDbArc
 50
147.6063258011
 51
270.0025305754
  0
ARC
  5
323
100
AcDbEntity
  8
0
100
AcDbCircle
 62
7
  6
CONTINUOUS
 10
16.8983324714
 20
2.3815504143
 40
0.0024749995
100
AcDbArc
 50
269.9999571957
 51
0.0000428043
  0
ARC
  5
324
100
AcDbEntity
  8
0
100
AcDbCircle
 62
7
  6
CONTINUOUS
 10
16.8743904545
 20
2.3766004153
 40
0.0024749995
100
AcDbArc
 50
89.9999571957
 51
180.0000428043
  0
ARC
  5
325
100
AcDbEntity
  8
0
100
AcDbCircle
 62
7
  6
CONTINUOUS
 10
16.963795504
 20
2.3939254249
 40
0.0024749995
100
AcDbArc
 50
89.9999571957
 51
180.0000428043
  0
ARC
  5
326
100
AcDbEntity
  8
0
100
AcDbCircle
 62
7
  6
CONTINUOUS
 10
16.963795504
 20
2.3815504143
 40
0.0024749995
100
AcDbArc
 50
179.9999571957
 51
270.0000428043
  0
ARC
  5
327
100
AcDbEntity
  8
0
100
AcDbCircle
 62
7
  6
CONTINUOUS
 10
17.2060356384
 20
2.3766004153
 40
0.0024749995
100
AcDbArc
 50
89.9999571957
 51
180.0000428043
  0
ARC
  5
328
100
AcDbEntity
  8
0
100
AcDbCircle
 62
7
  6
CONTINUOUS
 10
17.1083735842
 20
2.3766004153
 40
0.0024749995
100
AcDbArc
 50
89.9999571957
 51
180.0000428043
  0
ARC
  5
329
100
AcDbEntity
  8
0
100
AcDbCircle
 62
7
  6
CONTINUOUS
 10
17.1857496308
 20
2.3766004153
 40
0.0024749995
100
AcDbArc
 50
359.9999571957
 51
90.0000428043
  0
ARC
  5
32A
100
AcDbEntity
  8
0
100
AcDbCircle
 62
7
  6
CONTINUOUS
 10
17.0460441811
 20
2.445793323
 40
0.0428289026
100
AcDbArc
 50
300.6990502959
 51
319.0591802498
  0
ARC
  5
32B
100
AcDbEntity
  8
0
100
AcDbCircle
 62
7
  6
CONTINUOUS
 10
17.0611211659
 20
2.4263113051
 40
0.0229166529
100
AcDbArc
 50
20.6563876465
 51
62.3316896973
  0
ARC
  5
32C
100
AcDbEntity
  8
0
100
AcDbCircle
 62
7
  6
CONTINUOUS
 10
17.0660727781
 20
2.4296649696
 40
0.0171568255
100
AcDbArc
 50
315.9145124245
 51
16.0049121283
  0
ARC
  5
32D
100
AcDbEntity
  8
0
100
AcDbCircle
 62
7
  6
CONTINUOUS
 10
17.0051585288
 20
2.4217179385
 40
0.0086625048
100
AcDbArc
 50
270.0
 51
90.0
  0
ARC
  5
32E
100
AcDbEntity
  8
0
100
AcDbCircle
 62
7
  6
CONTINUOUS
 10
17.2017960982
 20
2.4273609828
 40
0.0024754602
100
AcDbArc
 50
32.8959418573
 51
89.9875097202
  0
ARC
  5
32F
100
AcDbEntity
  8
0
100
AcDbCircle
 62
7
  6
CONTINUOUS
 10
17.2090556207
 20
2.4161446411
 40
0.0024752071
100
AcDbArc
 50
270.0004896793
 51
32.9089806818
  0
ARC
  5
330
100
AcDbEntity
  8
0
100
AcDbCircle
 62
7
  6
CONTINUOUS
 10
17.1956155641
 20
2.4273612427
 40
0.0024752003
100
AcDbArc
 50
89.998372645
 51
147.602165307
  0
ARC
  5
331
100
AcDbEntity
  8
0
100
AcDbCircle
 62
7
  6
CONTINUOUS
 10
17.1822145567
 20
2.4526552567
 40
0.0024752003
100
AcDbArc
 50
89.998372645
 51
147.602165307
  0
ARC
  5
332
100
AcDbEntity
  8
0
100
AcDbCircle
 62
7
  6
CONTINUOUS
 10
17.1884985212
 20
2.4161444741
 40
0.0024750401
100
AcDbArc
 50
147.6063258012
 51
270.0025305754
  0
ARC
  5
333
100
AcDbEntity
  8
0
100
AcDbCircle
 62
7
  6
CONTINUOUS
 10
16.8743904545
 20
2.4526554575
 40
0.0024749995
100
AcDbArc
 50
89.9999571957
 51
180.0000428043
  0
ARC
  5
334
100
AcDbEntity
  8
0
100
AcDbCircle
 62
7
  6
CONTINUOUS
 10
16.8743904545
 20
2.4328554428
 40
0.0024749995
100
AcDbArc
 50
179.9999571957
 51
270.0000428043
  0
ARC
  5
335
100
AcDbEntity
  8
0
100
AcDbCircle
 62
7
  6
CONTINUOUS
 10
16.8983324714
 20
2.4279054437
 40
0.0024749995
100
AcDbArc
 50
359.9999571957
 51
90.0000428043
  0
ARC
  5
336
100
AcDbEntity
  8
0
100
AcDbCircle
 62
7
  6
CONTINUOUS
 10
16.963795504
 20
2.4279054437
 40
0.0024749995
100
AcDbArc
 50
89.9999571957
 51
180.0000428043
  0
ARC
  5
337
100
AcDbEntity
  8
0
100
AcDbCircle
 62
7
  6
CONTINUOUS
 10
16.963795504
 20
2.4155304332
 40
0.0024749995
100
AcDbArc
 50
179.9999571957
 51
270.0000428043
  0
ARC
  5
338
100
AcDbEntity
  8
0
100
AcDbCircle
 62
7
  6
CONTINUOUS
 10
17.5051335061
 20
2.3989573626
 40
0.0024753014
100
AcDbArc
 50
226.3461263059
 51
0.0014637321
  0
ARC
  5
339
100
AcDbEntity
  8
0
100
AcDbCircle
 62
7
  6
CONTINUOUS
 10
17.3965730459
 20
2.4135964972
 40
0.0024753014
100
AcDbArc
 50
46.3461263059
 51
180.0014637321
  0
ARC
  5
33A
100
AcDbEntity
  8
0
100
AcDbCircle
 62
7
  6
CONTINUOUS
 10
17.2204866271
 20
2.3815506219
 40
0.0024752071
100
AcDbArc
 50
270.0004896793
 51
32.9089806818
  0
ARC
  5
33B
100
AcDbEntity
  8
0
100
AcDbCircle
 62
7
  6
CONTINUOUS
 10
17.396572744
 20
2.3815504143
 40
0.0024749995
100
AcDbArc
 50
179.9999571957
 51
270.0000428043
  0
ARC
  5
33C
100
AcDbEntity
  8
0
100
AcDbCircle
 62
7
  6
CONTINUOUS
 10
17.416889759
 20
2.3766004153
 40
0.0024749995
100
AcDbArc
 50
359.9999571957
 51
90.0000428043
  0
ARC
  5
33D
100
AcDbEntity
  8
0
100
AcDbCircle
 62
7
  6
CONTINUOUS
 10
17.3412257133
 20
2.3766004153
 40
0.0024749995
100
AcDbArc
 50
89.9999571957
 51
180.0000428043
  0
ARC
  5
33E
100
AcDbEntity
  8
0
100
AcDbCircle
 62
7
  6
CONTINUOUS
 10
17.3598727274
 20
2.3815504143
 40
0.0024749995
100
AcDbArc
 50
269.9999571957
 51
0.0000428043
  0
ARC
  5
33F
100
AcDbEntity
  8
0
100
AcDbCircle
 62
7
  6
CONTINUOUS
 10
17.3113167005
 20
2.3766004153
 40
0.0024749995
100
AcDbArc
 50
359.9999571957
 51
90.0000428043
  0
ARC
  5
340
100
AcDbEntity
  8
0
100
AcDbCircle
 62
7
  6
CONTINUOUS
 10
17.291300808
 20
2.3815494558
 40
0.002474041
100
AcDbArc
 50
212.9056413127
 51
269.9972091755
  0
ARC
  5
341
100
AcDbEntity
  8
0
100
AcDbCircle
 62
7
  6
CONTINUOUS
 10
17.5051338079
 20
2.4279054437
 40
0.0024749995
100
AcDbArc
 50
359.9999571957
 51
90.0000428043
  0
ARC
  5
342
100
AcDbEntity
  8
0
100
AcDbCircle
 62
7
  6
CONTINUOUS
 10
17.4863577938
 20
2.4328554428
 40
0.0024749995
100
AcDbArc
 50
179.9999571957
 51
270.0000428043
  0
ARC
  5
343
100
AcDbEntity
  8
0
100
AcDbCircle
 62
7
  6
CONTINUOUS
 10
17.4863577938
 20
2.4526554575
 40
0.0024749995
100
AcDbArc
 50
89.9999571957
 51
180.0000428043
  0
ARC
  5
344
100
AcDbEntity
  8
0
100
AcDbCircle
 62
7
  6
CONTINUOUS
 10
17.5603588386
 20
2.4526554575
 40
0.0024749995
100
AcDbArc
 50
359.9999571957
 51
90.0000428043
  0
ARC
  5
345
100
AcDbEntity
  8
0
100
AcDbCircle
 62
7
  6
CONTINUOUS
 10
17.5603588386
 20
2.4328554428
 40
0.0024749995
100
AcDbArc
 50
269.9999571957
 51
0.0000428043
  0
ARC
  5
346
100
AcDbEntity
  8
0
100
AcDbCircle
 62
7
  6
CONTINUOUS
 10
17.5424258249
 20
2.4279054437
 40
0.0024749995
100
AcDbArc
 50
89.9999571957
 51
180.0000428043
  0
ARC
  5
347
100
AcDbEntity
  8
0
100
AcDbCircle
 62
7
  6
CONTINUOUS
 10
17.3598727274
 20
2.4279054437
 40
0.0024749995
100
AcDbArc
 50
359.9999571957
 51
90.0000428043
  0
ARC
  5
348
100
AcDbEntity
  8
0
100
AcDbCircle
 62
7
  6
CONTINUOUS
 10
17.3412257133
 20
2.4328554428
 40
0.0024749995
100
AcDbArc
 50
179.9999571957
 51
270.0000428043
  0
ARC
  5
349
100
AcDbEntity
  8
0
100
AcDbCircle
 62
7
  6
CONTINUOUS
 10
17.3412257133
 20
2.4526554575
 40
0.0024749995
100
AcDbArc
 50
89.9999571957
 51
180.0000428043
  0
ARC
  5
34A
100
AcDbEntity
  8
0
100
AcDbCircle
 62
7
  6
CONTINUOUS
 10
17.2393900382
 20
2.4526554968
 40
0.0024749602
100
AcDbArc
 50
32.9172174468
 51
90.0087853097
  0
ARC
  5
34B
100
AcDbEntity
  8
0
100
AcDbCircle
 62
7
  6
CONTINUOUS
 10
17.4416839057
 20
2.4526562892
 40
0.0024741678
100
AcDbArc
 50
46.3477981899
 51
90.0031206038
  0
ARC
  5
34C
100
AcDbEntity
  8
0
100
AcDbCircle
 62
7
  6
CONTINUOUS
 10
18.2152358981
 20
2.2725915465
 40
0.1825583387
100
AcDbArc
 50
79.8618509324
 51
89.1640948679
  0
ARC
  5
34D
100
AcDbEntity
  8
0
100
AcDbCircle
 62
7
  6
CONTINUOUS
 10
18.197141171
 20
2.3016991173
 40
0.117346916
100
AcDbArc
 50
58.614769177
 51
62.3737227606
  0
ARC
  5
34E
100
AcDbEntity
  8
0
100
AcDbCircle
 62
7
  6
CONTINUOUS
 10
18.2260032264
 20
2.3725718859
 40
0.0459185159
100
AcDbArc
 50
15.6740290068
 51
20.9917271228
  0
ARC
  5
34F
100
AcDbEntity
  8
0
100
AcDbCircle
 62
7
  6
CONTINUOUS
 10
18.1662929967
 20
2.368643334
 40
0.0396099176
100
AcDbArc
 50
14.3201081283
 51
22.4984722084
  0
ARC
  5
350
100
AcDbEntity
  8
0
100
AcDbCircle
 62
7
  6
CONTINUOUS
 10
18.1850046504
 20
2.3693353402
 40
0.0243676582
100
AcDbArc
 50
63.3666028271
 51
90.3937697637
  0
ARC
  5
351
100
AcDbEntity
  8
0
100
AcDbCircle
 62
7
  6
CONTINUOUS
 10
18.2724993219
 20
2.3741987064
 40
0.0198837666
100
AcDbArc
 50
271.8586572978
 51
289.4131338543
  0
ARC
  5
352
100
AcDbEntity
  8
0
100
AcDbCircle
 62
7
  6
CONTINUOUS
 10
18.2265855264
 20
2.3716475527
 40
0.0173408616
100
AcDbArc
 50
232.4713476722
 51
267.338189944
  0
ARC
  5
353
100
AcDbEntity
  8
0
100
AcDbCircle
 62
7
  6
CONTINUOUS
 10
18.1818891832
 20
2.3568004006
 40
0.0024749995
100
AcDbArc
 50
269.9999571957
 51
0.0000428043
  0
ARC
  5
354
100
AcDbEntity
  8
0
100
AcDbCircle
 62
7
  6
CONTINUOUS
 10
18.0683181166
 20
2.3568004006
 40
0.0024749995
100
AcDbArc
 50
179.9999571957
 51
270.0000428043
  0
ARC
  5
355
100
AcDbEntity
  8
0
100
AcDbCircle
 62
7
  6
CONTINUOUS
 10
17.7857289635
 20
2.3568004006
 40
0.0024749995
100
AcDbArc
 50
269.9999571957
 51
0.0000428043
  0
ARC
  5
356
100
AcDbEntity
  8
0
100
AcDbCircle
 62
7
  6
CONTINUOUS
 10
17.6651428967
 20
2.3568004006
 40
0.0024749995
100
AcDbArc
 50
269.9999571957
 51
0.0000428043
  0
ARC
  5
357
100
AcDbEntity
  8
0
100
AcDbCircle
 62
7
  6
CONTINUOUS
 10
17.589478851
 20
2.3568004006
 40
0.0024749995
100
AcDbArc
 50
179.9999571957
 51
270.0000428043
  0
ARC
  5
358
100
AcDbEntity
  8
0
100
AcDbCircle
 62
7
  6
CONTINUOUS
 10
18.0394141042
 20
2.3568004006
 40
0.0024749995
100
AcDbArc
 50
269.9999571957
 51
0.0000428043
  0
ARC
  5
359
100
AcDbEntity
  8
0
100
AcDbCircle
 62
7
  6
CONTINUOUS
 10
17.8362019878
 20
2.3568004006
 40
0.0024749995
100
AcDbArc
 50
179.9999571957
 51
270.0000428043
  0
ARC
  5
35A
100
AcDbEntity
  8
0
100
AcDbCircle
 62
7
  6
CONTINUOUS
 10
17.7115227858
 20
2.3567995689
 40
0.0024741678
100
AcDbArc
 50
226.3477981898
 51
270.0031206038
  0
ARC
  5
35B
100
AcDbEntity
  8
0
100
AcDbCircle
 62
7
  6
CONTINUOUS
 10
17.7533866437
 20
2.3989573626
 40
0.0024753014
100
AcDbArc
 50
226.3461263059
 51
0.0014637321
  0
ARC
  5
35C
100
AcDbEntity
  8
0
100
AcDbCircle
 62
7
  6
CONTINUOUS
 10
17.6448261836
 20
2.4135964972
 40
0.0024753014
100
AcDbArc
 50
46.3461263058
 51
180.0014637321
  0
ARC
  5
35D
100
AcDbEntity
  8
0
100
AcDbCircle
 62
7
  6
CONTINUOUS
 10
17.6448258817
 20
2.3815504143
 40
0.0024749995
100
AcDbArc
 50
179.9999571957
 51
270.0000428043
  0
ARC
  5
35E
100
AcDbEntity
  8
0
100
AcDbCircle
 62
7
  6
CONTINUOUS
 10
17.6651428967
 20
2.3766004153
 40
0.0024749995
100
AcDbArc
 50
359.9999571957
 51
90.0000428043
  0
ARC
  5
35F
100
AcDbEntity
  8
0
100
AcDbCircle
 62
7
  6
CONTINUOUS
 10
17.589478851
 20
2.3766004153
 40
0.0024749995
100
AcDbArc
 50
89.9999571957
 51
180.0000428043
  0
ARC
  5
360
100
AcDbEntity
  8
0
100
AcDbCircle
 62
7
  6
CONTINUOUS
 10
17.6081248651
 20
2.3815504143
 40
0.0024749995
100
AcDbArc
 50
269.9999571957
 51
0.0000428043
  0
ARC
  5
361
100
AcDbEntity
  8
0
100
AcDbCircle
 62
7
  6
CONTINUOUS
 10
17.9271410383
 20
2.3931004244
 40
0.0024749995
100
AcDbArc
 50
89.9999571957
 51
180.0000428043
  0
ARC
  5
362
100
AcDbEntity
  8
0
100
AcDbCircle
 62
7
  6
CONTINUOUS
 10
17.9271410383
 20
2.3815504143
 40
0.0024749995
100
AcDbArc
 50
179.9999571957
 51
270.0000428043
  0
ARC
  5
363
100
AcDbEntity
  8
0
100
AcDbCircle
 62
7
  6
CONTINUOUS
 10
17.8362019878
 20
2.3766004153
 40
0.0024749995
100
AcDbArc
 50
89.9999571957
 51
180.0000428043
  0
ARC
  5
364
100
AcDbEntity
  8
0
100
AcDbCircle
 62
7
  6
CONTINUOUS
 10
17.8601250048
 20
2.3815504143
 40
0.0024749995
100
AcDbArc
 50
269.9999571956
 51
0.0000428042
  0
ARC
  5
365
100
AcDbEntity
  8
0
100
AcDbCircle
 62
7
  6
CONTINUOUS
 10
17.9271410383
 20
2.4163554336
 40
0.0024749995
100
AcDbArc
 50
179.9999571957
 51
270.0000428043
  0
ARC
  5
366
100
AcDbEntity
  8
0
100
AcDbCircle
 62
7
  6
CONTINUOUS
 10
17.7533869456
 20
2.4279054437
 40
0.0024749995
100
AcDbArc
 50
359.9999571957
 51
90.0000428043
  0
ARC
  5
367
100
AcDbEntity
  8
0
100
AcDbCircle
 62
7
  6
CONTINUOUS
 10
17.7346109315
 20
2.4328554428
 40
0.0024749995
100
AcDbArc
 50
179.9999571957
 51
270.0000428043
  0
ARC
  5
368
100
AcDbEntity
  8
0
100
AcDbCircle
 62
7
  6
CONTINUOUS
 10
17.7346109315
 20
2.4526554575
 40
0.0024749995
100
AcDbArc
 50
89.9999571957
 51
180.0000428043
  0
ARC
  5
369
100
AcDbEntity
  8
0
100
AcDbCircle
 62
7
  6
CONTINUOUS
 10
17.8086119762
 20
2.4526554575
 40
0.0024749995
100
AcDbArc
 50
359.9999571957
 51
90.0000428043
  0
ARC
  5
36A
100
AcDbEntity
  8
0
100
AcDbCircle
 62
7
  6
CONTINUOUS
 10
17.8086119762
 20
2.4328554428
 40
0.0024749995
100
AcDbArc
 50
269.9999571956
 51
0.0000428042
  0
ARC
  5
36B
100
AcDbEntity
  8
0
100
AcDbCircle
 62
7
  6
CONTINUOUS
 10
17.7906789626
 20
2.4279054437
 40
0.0024749995
100
AcDbArc
 50
89.9999571957
 51
180.0000428043
  0
ARC
  5
36C
100
AcDbEntity
  8
0
100
AcDbCircle
 62
7
  6
CONTINUOUS
 10
17.6081248651
 20
2.4279054437
 40
0.0024749995
100
AcDbArc
 50
359.9999571957
 51
90.0000428043
  0
ARC
  5
36D
100
AcDbEntity
  8
0
100
AcDbCircle
 62
7
  6
CONTINUOUS
 10
17.589478851
 20
2.4328554428
 40
0.0024749995
100
AcDbArc
 50
179.9999571957
 51
270.0000428043
  0
ARC
  5
36E
100
AcDbEntity
  8
0
100
AcDbCircle
 62
7
  6
CONTINUOUS
 10
17.589478851
 20
2.4526554575
 40
0.0024749995
100
AcDbArc
 50
89.9999571957
 51
180.0000428043
  0
ARC
  5
36F
100
AcDbEntity
  8
0
100
AcDbCircle
 62
7
  6
CONTINUOUS
 10
17.8601250048
 20
2.4279054437
 40
0.0024749995
100
AcDbArc
 50
359.9999571957
 51
90.0000428043
  0
ARC
  5
370
100
AcDbEntity
  8
0
100
AcDbCircle
 62
7
  6
CONTINUOUS
 10
17.8362019878
 20
2.4328554428
 40
0.0024749995
100
AcDbArc
 50
179.9999571957
 51
270.0000428043
  0
ARC
  5
371
100
AcDbEntity
  8
0
100
AcDbCircle
 62
7
  6
CONTINUOUS
 10
17.8362019878
 20
2.4526554575
 40
0.0024749995
100
AcDbArc
 50
89.9999571957
 51
180.0000428043
  0
ARC
  5
372
100
AcDbEntity
  8
0
100
AcDbCircle
 62
7
  6
CONTINUOUS
 10
17.9271410383
 20
2.4279054437
 40
0.0024749995
100
AcDbArc
 50
89.9999571957
 51
180.0000428043
  0
ARC
  5
373
100
AcDbEntity
  8
0
100
AcDbCircle
 62
7
  6
CONTINUOUS
 10
17.6899370433
 20
2.4526562892
 40
0.0024741678
100
AcDbArc
 50
46.3477981899
 51
90.0031206038
  0
ARC
  5
374
100
AcDbEntity
  8
0
100
AcDbCircle
 62
7
  6
CONTINUOUS
 10
18.2495655574
 20
2.384346736
 40
0.044722495
100
AcDbArc
 50
195.531588407
 51
204.7624440448
  0
ARC
  5
375
100
AcDbEntity
  8
0
100
AcDbCircle
 62
7
  6
CONTINUOUS
 10
18.2415401884
 20
2.4134150625
 40
0.039319019
100
AcDbArc
 50
59.1202086415
 51
81.4730239328
  0
ARC
  5
376
100
AcDbEntity
  8
0
100
AcDbCircle
 62
7
  6
CONTINUOUS
 10
18.2667613545
 20
2.3917854558
 40
0.0383802683
100
AcDbArc
 50
288.7656836787
 51
309.6104317088
  0
ARC
  5
377
100
AcDbEntity
  8
0
100
AcDbCircle
 62
7
  6
CONTINUOUS
 10
18.2471995846
 20
2.4197497317
 40
0.0310192946
100
AcDbArc
 50
34.7540871
 51
62.0879016178
  0
ARC
  5
378
100
AcDbEntity
  8
0
100
AcDbCircle
 62
7
  6
CONTINUOUS
 10
18.1924863006
 20
2.4019259643
 40
0.0284963867
100
AcDbArc
 50
70.3834917948
 51
86.8922743861
  0
ARC
  5
379
100
AcDbEntity
  8
0
100
AcDbCircle
 62
7
  6
CONTINUOUS
 10
18.2737535399
 20
2.384184238
 40
0.0280715479
100
AcDbArc
 50
308.5071794988
 51
332.2400656899
  0
ARC
  5
37A
100
AcDbEntity
  8
0
100
AcDbCircle
 62
7
  6
CONTINUOUS
 10
18.2439037681
 20
2.3797532943
 40
0.0266349791
100
AcDbArc
 50
20.3630922153
 51
37.9727053099
  0
ARC
  5
37B
100
AcDbEntity
  8
0
100
AcDbCircle
 62
7
  6
CONTINUOUS
 10
18.2450241237
 20
2.3798263774
 40
0.0257145923
100
AcDbArc
 50
39.3804255939
 51
59.0361096173
  0
ARC
  5
37C
100
AcDbEntity
  8
0
100
AcDbCircle
 62
7
  6
CONTINUOUS
 10
18.2296840914
 20
2.3774978567
 40
0.0238935861
100
AcDbArc
 50
209.8247607259
 51
235.1255079367
  0
ARC
  5
37D
100
AcDbEntity
  8
0
100
AcDbCircle
 62
7
  6
CONTINUOUS
 10
18.2830605507
 20
2.3792897325
 40
0.0175560065
100
AcDbArc
 50
332.2279060967
 51
359.6595469939
  0
ARC
  5
37E
100
AcDbEntity
  8
0
100
AcDbCircle
 62
7
  6
CONTINUOUS
 10
18.1890593051
 20
2.3776149607
 40
0.0151491919
100
AcDbArc
 50
24.098260853
 51
63.0369451818
  0
ARC
  5
37F
100
AcDbEntity
  8
0
100
AcDbCircle
 62
7
  6
CONTINUOUS
 10
18.2845735615
 20
2.3882148688
 40
0.0147197649
100
AcDbArc
 50
192.7054516565
 51
206.0594861022
  0
ARC
  5
380
100
AcDbEntity
  8
0
100
AcDbCircle
 62
7
  6
CONTINUOUS
 10
18.1973459106
 20
2.4149676972
 40
0.0145814632
100
AcDbArc
 50
54.6746025112
 51
71.1660573124
  0
ARC
  5
381
100
AcDbEntity
  8
0
100
AcDbCircle
 62
7
  6
CONTINUOUS
 10
18.2752146786
 20
2.3927110743
 40
0.0132488022
100
AcDbArc
 50
270.266200055
 51
281.2404888597
  0
ARC
  5
382
100
AcDbEntity
  8
0
100
AcDbCircle
 62
7
  6
CONTINUOUS
 10
18.2716089246
 20
2.3878675959
 40
0.0119498009
100
AcDbArc
 50
340.7883861657
 51
1.1691452593
  0
ARC
  5
383
100
AcDbEntity
  8
0
100
AcDbCircle
 62
7
  6
CONTINUOUS
 10
18.198398534
 20
2.4260095887
 40
0.0110815393
100
AcDbArc
 50
306.758405961
 51
320.4502234234
  0
ARC
  5
384
100
AcDbEntity
  8
0
100
AcDbCircle
 62
7
  6
CONTINUOUS
 10
18.2764089196
 20
2.3869743807
 40
0.0073895522
100
AcDbArc
 50
280.8288201977
 51
305.0837508495
  0
ARC
  5
385
100
AcDbEntity
  8
0
100
AcDbCircle
 62
7
  6
CONTINUOUS
 10
18.2768101012
 20
2.3861235343
 40
0.0064647042
100
AcDbArc
 50
306.5086174083
 51
340.2162360092
  0
ARC
  5
386
100
AcDbEntity
  8
0
100
AcDbCircle
 62
7
  6
CONTINUOUS
 10
18.2024754016
 20
2.4218216224
 40
0.0060275915
100
AcDbArc
 50
20.9055592135
 51
56.7851676243
  0
ARC
  5
387
100
AcDbEntity
  8
0
100
AcDbCircle
 62
7
  6
CONTINUOUS
 10
18.2025691502
 20
2.4227756809
 40
0.0058087709
100
AcDbArc
 50
318.8515287446
 51
353.6422345323
  0
ARC
  5
388
100
AcDbEntity
  8
0
100
AcDbCircle
 62
7
  6
CONTINUOUS
 10
18.2760792244
 20
2.3840063824
 40
0.0052403997
100
AcDbArc
 50
205.5232099488
 51
227.5054868079
  0
ARC
  5
389
100
AcDbEntity
  8
0
100
AcDbCircle
 62
7
  6
CONTINUOUS
 10
18.2037759605
 20
2.4224819047
 40
0.0045795888
100
AcDbArc
 50
355.6235353944
 51
18.9942678268
  0
ARC
  5
38A
100
AcDbEntity
  8
0
100
AcDbCircle
 62
7
  6
CONTINUOUS
 10
18.2743509251
 20
2.3821910097
 40
0.0027347709
100
AcDbArc
 50
228.5117626738
 51
266.1485845754
  0
ARC
  5
38B
100
AcDbEntity
  8
0
100
AcDbCircle
 62
7
  6
CONTINUOUS
 10
18.1572301659
 20
2.3912274234
 40
0.0024749995
100
AcDbArc
 50
89.9999571957
 51
180.0000428043
  0
ARC
  5
38C
100
AcDbEntity
  8
0
100
AcDbCircle
 62
7
  6
CONTINUOUS
 10
18.1572301659
 20
2.3815284143
 40
0.0024749995
100
AcDbArc
 50
179.9999571957
 51
270.0000428043
  0
ARC
  5
38D
100
AcDbEntity
  8
0
100
AcDbCircle
 62
7
  6
CONTINUOUS
 10
18.1818891832
 20
2.3765784153
 40
0.0024749995
100
AcDbArc
 50
359.9999571957
 51
90.0000428043
  0
ARC
  5
38E
100
AcDbEntity
  8
0
100
AcDbCircle
 62
7
  6
CONTINUOUS
 10
18.0683181166
 20
2.3766004153
 40
0.0024749995
100
AcDbArc
 50
89.9999571957
 51
180.0000428043
  0
ARC
  5
38F
100
AcDbEntity
  8
0
100
AcDbCircle
 62
7
  6
CONTINUOUS
 10
18.0910641329
 20
2.3815504143
 40
0.0024749995
100
AcDbArc
 50
269.9999571957
 51
0.0000428043
  0
ARC
  5
390
100
AcDbEntity
  8
0
100
AcDbCircle
 62
7
  6
CONTINUOUS
 10
18.2860312373
 20
2.3907374231
 40
0.0024749995
100
AcDbArc
 50
89.9999571957
 51
180.0000428043
  0
ARC
  5
391
100
AcDbEntity
  8
0
100
AcDbCircle
 62
7
  6
CONTINUOUS
 10
18.2981412477
 20
2.3907374231
 40
0.0024749995
100
AcDbArc
 50
359.9999571957
 51
90.0000428043
  0
ARC
  5
392
100
AcDbEntity
  8
0
100
AcDbCircle
 62
7
  6
CONTINUOUS
 10
18.1572301659
 20
2.415180433
 40
0.0024749995
100
AcDbArc
 50
179.9999571957
 51
270.0000428043
  0
ARC
  5
393
100
AcDbEntity
  8
0
100
AcDbCircle
 62
7
  6
CONTINUOUS
 10
17.992145078
 20
2.3815504143
 40
0.0024749995
100
AcDbArc
 50
269.9999571957
 51
0.0000428043
  0
ARC
  5
394
100
AcDbEntity
  8
0
100
AcDbCircle
 62
7
  6
CONTINUOUS
 10
17.9970950771
 20
2.3898004226
 40
0.0024749995
100
AcDbArc
 50
89.9999571957
 51
180.0000428043
  0
ARC
  5
395
100
AcDbEntity
  8
0
100
AcDbCircle
 62
7
  6
CONTINUOUS
 10
18.0394141042
 20
2.3898004226
 40
0.0024749995
100
AcDbArc
 50
359.9999571957
 51
90.0000428043
  0
ARC
  5
396
100
AcDbEntity
  8
0
100
AcDbCircle
 62
7
  6
CONTINUOUS
 10
18.0379951034
 20
2.4196554355
 40
0.0024749995
100
AcDbArc
 50
269.9999571956
 51
0.0000428042
  0
ARC
  5
397
100
AcDbEntity
  8
0
100
AcDbCircle
 62
7
  6
CONTINUOUS
 10
17.9961310765
 20
2.4196554355
 40
0.0024749995
100
AcDbArc
 50
179.9999571957
 51
270.0000428043
  0
ARC
  5
398
100
AcDbEntity
  8
0
100
AcDbCircle
 62
7
  6
CONTINUOUS
 10
17.9623080615
 20
2.4114054346
 40
0.0024749995
100
AcDbArc
 50
359.9999571957
 51
90.0000428043
  0
ARC
  5
399
100
AcDbEntity
  8
0
100
AcDbCircle
 62
7
  6
CONTINUOUS
 10
17.9623080615
 20
2.3980504235
 40
0.0024749995
100
AcDbArc
 50
269.9999571956
 51
0.0000428042
  0
ARC
  5
39A
100
AcDbEntity
  8
0
100
AcDbCircle
 62
7
  6
CONTINUOUS
 10
18.220842337
 20
2.4783532224
 40
0.0789082104
100
AcDbArc
 50
292.906155071
 51
305.2574666259
  0
ARC
  5
39B
100
AcDbEntity
  8
0
100
AcDbCircle
 62
7
  6
CONTINUOUS
 10
18.2511742746
 20
2.4351463727
 40
0.0261183659
100
AcDbArc
 50
305.6373831893
 51
329.9727629745
  0
ARC
  5
39C
100
AcDbEntity
  8
0
100
AcDbCircle
 62
7
  6
CONTINUOUS
 10
18.1908418374
 20
2.4381440645
 40
0.0254407115
100
AcDbArc
 50
270.7327484175
 51
290.441894219
  0
ARC
  5
39D
100
AcDbEntity
  8
0
100
AcDbCircle
 62
7
  6
CONTINUOUS
 10
18.1927693431
 20
2.4337504172
 40
0.0206523367
100
AcDbArc
 50
289.6883413472
 51
306.4184925496
  0
ARC
  5
39E
100
AcDbEntity
  8
0
100
AcDbCircle
 62
7
  6
CONTINUOUS
 10
18.2588883357
 20
2.4282993328
 40
0.0165459396
100
AcDbArc
 50
1.548452892
 51
33.5033152417
  0
ARC
  5
39F
100
AcDbEntity
  8
0
100
AcDbCircle
 62
7
  6
CONTINUOUS
 10
18.2621849309
 20
2.428467785
 40
0.0132462337
100
AcDbArc
 50
331.1510006998
 51
1.205404301
  0
ARC
  5
3A0
100
AcDbEntity
  8
0
100
AcDbCircle
 62
7
  6
CONTINUOUS
 10
18.0910641329
 20
2.4279054437
 40
0.0024749995
100
AcDbArc
 50
359.9999571957
 51
90.0000428043
  0
ARC
  5
3A1
100
AcDbEntity
  8
0
100
AcDbCircle
 62
7
  6
CONTINUOUS
 10
18.0683181166
 20
2.4328554428
 40
0.0024749995
100
AcDbArc
 50
179.9999571957
 51
270.0000428043
  0
ARC
  5
3A2
100
AcDbEntity
  8
0
100
AcDbCircle
 62
7
  6
CONTINUOUS
 10
18.0683181166
 20
2.4526554575
 40
0.0024749995
100
AcDbArc
 50
89.9999571957
 51
180.0000428043
  0
ARC
  5
3A3
100
AcDbEntity
  8
0
100
AcDbCircle
 62
7
  6
CONTINUOUS
 10
18.1572301659
 20
2.4279054437
 40
0.0024749995
100
AcDbArc
 50
89.9999571957
 51
180.0000428043
  0
ARC
  5
3A4
100
AcDbEntity
  8
0
100
AcDbCircle
 62
7
  6
CONTINUOUS
 10
18.0379951034
 20
2.4526554575
 40
0.0024749995
100
AcDbArc
 50
359.9999571957
 51
90.0000428043
  0
ARC
  5
3A5
100
AcDbEntity
  8
0
100
AcDbCircle
 62
7
  6
CONTINUOUS
 10
17.9911810775
 20
2.4279054437
 40
0.0024749995
100
AcDbArc
 50
359.9999571957
 51
90.0000428043
  0
ELLIPSE
  5
3A6
100
AcDbEntity
  8
0
100
AcDbEllipse
 62
7
  6
CONTINUOUS
 10
17.573550844
 20
2.4034764283
 30
0.0
 11
-0.8250004575
 21
0.0
 31
0.0
 40
0.218572
 41
0.0
 42
6.2831853072
  0
HATCH
  5
3A7
100
AcDbEntity
  8
0
100
AcDbHatch
 62
7
  6
CONTINUOUS
 10
0.0
 20
0.0
 30
0.0
210
0.0
220
0.0
230
1.0
  2
XSEC0002
 70
1
 71
1
 91
11
 92
1
 93
57
 72
2
 10
18.2265855264
 20
2.3716475527
 40
0.0173408616
 50
232.4713476722
 51
267.338189944
 73
1
 72
2
 10
18.2296840914
 20
2.3774978567
 40
0.0238935861
 50
209.8247607259
 51
235.1255079367
 73
1
 72
2
 10
18.2495655574
 20
2.384346736
 40
0.044722495
 50
195.531588407
 51
204.7624440448
 73
1
 72
1
 10
18.206476195
 20
2.3723714111
 11
18.204672194
 21
2.3784404145
 72
2
 10
18.1662929967
 20
2.368643334
 40
0.0396099176
 50
14.3201081283
 51
22.4984722084
 73
1
 72
2
 10
18.1890593051
 20
2.3776149607
 40
0.0151491919
 50
24.098260853
 51
63.0369451818
 73
1
 72
2
 10
18.1850046504
 20
2.3693353402
 40
0.0243676582
 50
63.3666028271
 51
90.3937697637
 73
1
 72
1
 10
18.184837183
 20
2.3937024229
 11
18.1572301677
 21
2.3937024229
 72
2
 10
18.1572301659
 20
2.3912274234
 40
0.0024749995
 50
89.9999571957
 51
180.0000428043
 73
1
 72
1
 10
18.1547551663
 20
2.3912274216
 11
18.1547551663
 21
2.3815284162
 72
2
 10
18.1572301659
 20
2.3815284143
 40
0.0024749995
 50
179.9999571957
 51
270.0000428043
 73
1
 72
1
 10
18.1572301677
 20
2.3790534148
 11
18.1818891814
 21
2.3790534148
 72
2
 10
18.1818891832
 20
2.3765784153
 40
0.0024749995
 50
359.9999571957
 51
90.0000428042
 73
1
 72
1
 10
18.1843641828
 20
2.3765784134
 11
18.1843641828
 21
2.3568004025
 72
2
 10
18.1818891832
 20
2.3568004006
 40
0.0024749995
 50
269.9999571958
 51
0.0000428043
 73
1
 72
1
 10
18.1818891814
 20
2.3543254011
 11
18.0683181184
 21
2.3543254011
 72
2
 10
18.0683181166
 20
2.3568004006
 40
0.0024749995
 50
179.9999571957
 51
270.0000428042
 73
1
 72
1
 10
18.065843117
 20
2.3568004025
 11
18.065843117
 21
2.3766004134
 72
2
 10
18.0683181166
 20
2.3766004153
 40
0.0024749995
 50
89.9999571958
 51
180.0000428043
 73
1
 72
1
 10
18.0683181184
 20
2.3790754148
 11
18.091064131
 21
2.3790754148
 72
2
 10
18.0910641329
 20
2.3815504143
 40
0.0024749995
 50
269.9999571957
 51
0.0000428043
 73
1
 72
1
 10
18.0935391324
 20
2.3815504162
 11
18.0935391324
 21
2.4279054419
 72
2
 10
18.0910641329
 20
2.4279054437
 40
0.0024749995
 50
359.9999571957
 51
90.0000428043
 73
1
 72
1
 10
18.091064131
 20
2.4303804433
 11
18.0683181184
 21
2.4303804433
 72
2
 10
18.0683181166
 20
2.4328554428
 40
0.0024749995
 50
179.9999571957
 51
270.0000428043
 73
1
 72
1
 10
18.065843117
 20
2.4328554446
 11
18.065843117
 21
2.4526554556
 72
2
 10
18.0683181166
 20
2.4526554575
 40
0.0024749995
 50
89.9999571958
 51
180.0000428043
 73
1
 72
1
 10
18.0683181184
 20
2.455130457
 11
18.2178992014
 21
2.455130457
 72
2
 10
18.2152358981
 20
2.2725915465
 40
0.1825583387
 50
79.8618509324
 51
89.1640948679
 73
1
 72
2
 10
18.2415401884
 20
2.4134150625
 40
0.039319019
 50
59.1202086415
 51
81.4730239328
 73
1
 72
2
 10
18.2471995846
 20
2.4197497317
 40
0.0310192946
 50
34.7540871
 51
62.0879016178
 73
1
 72
2
 10
18.2588883357
 20
2.4282993328
 40
0.0165459396
 50
1.548452892
 51
33.5033152417
 73
1
 72
2
 10
18.2621849309
 20
2.428467785
 40
0.0132462337
 50
331.1510006998
 51
1.205404301
 73
1
 72
2
 10
18.2511742746
 20
2.4351463727
 40
0.0261183659
 50
305.6373831893
 51
329.9727629745
 73
1
 72
2
 10
18.220842337
 20
2.4783532224
 40
0.0789082104
 50
292.906155071
 51
305.2574666259
 73
1
 72
2
 10
18.197141171
 20
2.3016991173
 40
0.117346916
 50
58.614769177
 51
62.3737227606
 73
1
 72
2
 10
18.2450241237
 20
2.3798263774
 40
0.0257145923
 50
39.3804255939
 51
59.0361096173
 73
1
 72
2
 10
18.2439037681
 20
2.3797532943
 40
0.0266349791
 50
20.3630922153
 51
37.9727053099
 73
1
 72
2
 10
18.2260032264
 20
2.3725718859
 40
0.0459185159
 50
15.6740290068
 51
20.9917271228
 73
1
 72
2
 10
18.2845735615
 20
2.3882148688
 40
0.0147197649
 50
192.7054516565
 51
206.0594861022
 73
1
 72
2
 10
18.2760792244
 20
2.3840063824
 40
0.0052403997
 50
205.5232099488
 51
227.5054868079
 73
1
 72
2
 10
18.2743509251
 20
2.3821910097
 40
0.0027347709
 50
228.5117626738
 51
266.1485845755
 73
1
 72
1
 10
18.2741672326
 20
2.379462415
 11
18.2752762332
 21
2.379462415
 72
2
 10
18.2752146786
 20
2.3927110743
 40
0.0132488022
 50
270.266200055
 51
281.2404888597
 73
1
 72
2
 10
18.2764089196
 20
2.3869743807
 40
0.0073895522
 50
280.8288201977
 51
305.0837508495
 73
1
 72
2
 10
18.2768101012
 20
2.3861235343
 40
0.0064647042
 50
306.5086174083
 51
340.2162360092
 73
1
 72
2
 10
18.2716089246
 20
2.3878675959
 40
0.0119498009
 50
340.7883861657
 51
1.1691452593
 73
1
 72
1
 10
18.2835562378
 20
2.3881114198
 11
18.2835562378
 21
2.3907374213
 72
2
 10
18.2860312373
 20
2.3907374231
 40
0.0024749995
 50
89.9999571957
 51
180.0000428043
 73
1
 72
1
 10
18.2860312391
 20
2.3932124227
 11
18.2981412459
 21
2.3932124227
 72
2
 10
18.2981412477
 20
2.3907374231
 40
0.0024749995
 50
359.9999571957
 51
90.0000428043
 73
1
 72
1
 10
18.3006162472
 20
2.3907374213
 11
18.3006162472
 21
2.3791854149
 72
2
 10
18.2830605507
 20
2.3792897325
 40
0.0175560065
 50
332.2279060967
 51
359.6595469939
 73
1
 72
2
 10
18.2737535399
 20
2.384184238
 40
0.0280715479
 50
308.5071794988
 51
332.2400656899
 73
1
 72
2
 10
18.2667613545
 20
2.3917854558
 40
0.0383802683
 50
288.7656836787
 51
309.6104317088
 73
1
 72
2
 10
18.2724993219
 20
2.3741987064
 40
0.0198837666
 50
271.8586572978
 51
289.4131338543
 73
1
 72
1
 10
18.273144232
 20
2.3543254011
 11
18.2257802057
 21
2.3543254011
 97
267
330
29C
330
29D
330
29E
330
29F
330
2A0
330
2A1
330
2A2
330
2A3
330
2A4
330
2A5
330
2A6
330
2A7
330
2A8
330
2A9
330
2AA
330
2AB
330
2AC
330
2AD
330
2AE
330
2AF
330
2B0
330
2B1
330
2B2
330
2B3
330
2B4
330
2B5
330
2B6
330
2B7
330
2B8
330
2B9
330
2BA
330
2BB
330
2BC
330
2BD
330
2BE
330
2BF
330
2C0
330
2C1
330
2C2
330
2C3
330
2C4
330
2C5
330
2C6
330
2C7
330
2C8
330
2C9
330
2CA
330
2CB
330
2CC
330
2CD
330
2CE
330
2CF
330
2D0
330
2D1
330
2D2
330
2D3
330
2D4
330
2D5
330
2D6
330
2D7
330
2D8
330
2D9
330
2DA
330
2DB
330
2DC
330
2DD
330
2DE
330
2DF
330
2E0
330
2E1
330
2E2
330
2E3
330
2E4
330
2E5
330
2E6
330
2E7
330
2E8
330
2E9
330
2EA
330
2EB
330
2EC
330
2ED
330
2EE
330
2EF
330
2F0
330
2F1
330
2F2
330
2F3
330
2F4
330
2F5
330
2F6
330
2F7
330
2F8
330
2F9
330
2FA
330
2FB
330
2FC
330
2FD
330
2FE
330
2FF
330
300
330
301
330
302
330
303
330
304
330
305
330
306
330
307
330
308
330
309
330
30A
330
30B
330
30C
330
30D
330
30E
330
30F
330
310
330
311
330
312
330
313
330
314
330
315
330
316
330
317
330
318
330
319
330
31A
330
31B
330
31C
330
31D
330
31E
330
31F
330
320
330
321
330
322
330
323
330
324
330
325
330
326
330
327
330
328
330
329
330
32A
330
32B
330
32C
330
32D
330
32E
330
32F
330
330
330
331
330
332
330
333
330
334
330
335
330
336
330
337
330
338
330
339
330
33A
330
33B
330
33C
330
33D
330
33E
330
33F
330
340
330
341
330
342
330
343
330
344
330
345
330
346
330
347
330
348
330
349
330
34A
330
34B
330
34C
330
34D
330
34E
330
34F
330
350
330
351
330
352
330
353
330
354
330
355
330
356
330
357
330
358
330
359
330
35A
330
35B
330
35C
330
35D
330
35E
330
35F
330
360
330
361
330
362
330
363
330
364
330
365
330
366
330
367
330
368
330
369
330
36A
330
36B
330
36C
330
36D
330
36E
330
36F
330
370
330
371
330
372
330
373
330
374
330
375
330
376
330
377
330
378
330
379
330
37A
330
37B
330
37C
330
37D
330
37E
330
37F
330
380
330
381
330
382
330
383
330
384
330
385
330
386
330
387
330
388
330
389
330
38A
330
38B
330
38C
330
38D
330
38E
330
38F
330
390
330
391
330
392
330
393
330
394
330
395
330
396
330
397
330
398
330
399
330
39A
330
39B
330
39C
330
39D
330
39E
330
39F
330
3A0
330
3A1
330
3A2
330
3A3
330
3A4
330
3A5
330
3A6
 92
1
 93
40
 72
2
 10
17.8362019878
 20
2.3568004006
 40
0.0024749995
 50
179.9999571957
 51
270.0000428042
 73
1
 72
1
 10
17.8337269883
 20
2.3568004025
 11
17.8337269883
 21
2.3766004134
 72
2
 10
17.8362019878
 20
2.3766004153
 40
0.0024749995
 50
89.9999571958
 51
180.0000428043
 73
1
 72
1
 10
17.8362019897
 20
2.3790754148
 11
17.860125003
 21
2.3790754148
 72
2
 10
17.8601250048
 20
2.3815504143
 40
0.0024749995
 50
269.9999571956
 51
0.0000428042
 73
1
 72
1
 10
17.8626000043
 20
2.3815504162
 11
17.8626000043
 21
2.4279054419
 72
2
 10
17.8601250048
 20
2.4279054437
 40
0.0024749995
 50
359.9999571957
 51
90.0000428043
 73
1
 72
1
 10
17.860125003
 20
2.4303804433
 11
17.8362019897
 21
2.4303804433
 72
2
 10
17.8362019878
 20
2.4328554428
 40
0.0024749995
 50
179.9999571957
 51
270.0000428043
 73
1
 72
1
 10
17.8337269883
 20
2.4328554446
 11
17.8337269883
 21
2.4526554556
 72
2
 10
17.8362019878
 20
2.4526554575
 40
0.0024749995
 50
89.9999571958
 51
180.0000428043
 73
1
 72
1
 10
17.8362019897
 20
2.455130457
 11
18.0379951016
 21
2.455130457
 72
2
 10
18.0379951034
 20
2.4526554575
 40
0.0024749995
 50
359.9999571957
 51
90.0000428042
 73
1
 72
1
 10
18.040470103
 20
2.4526554556
 11
18.040470103
 21
2.4196554373
 72
2
 10
18.0379951034
 20
2.4196554355
 40
0.0024749995
 50
269.9999571956
 51
0.0000428042
 73
1
 72
1
 10
18.0379951016
 20
2.4171804359
 11
17.9961310784
 21
2.4171804359
 72
2
 10
17.9961310765
 20
2.4196554355
 40
0.0024749995
 50
179.9999571957
 51
270.0000428043
 73
1
 72
1
 10
17.993656077
 20
2.4196554373
 11
17.993656077
 21
2.4279054419
 72
2
 10
17.9911810775
 20
2.4279054437
 40
0.0024749995
 50
359.9999571957
 51
90.0000428043
 73
1
 72
1
 10
17.9911810756
 20
2.4303804433
 11
17.9271410401
 21
2.4303804433
 72
2
 10
17.9271410383
 20
2.4279054437
 40
0.0024749995
 50
89.9999571958
 51
180.0000428043
 73
1
 72
1
 10
17.9246660387
 20
2.4279054419
 11
17.9246660387
 21
2.4163554355
 72
2
 10
17.9271410383
 20
2.4163554336
 40
0.0024749995
 50
179.9999571957
 51
270.0000428042
 73
1
 72
1
 10
17.9271410401
 20
2.4138804341
 11
17.9623080596
 21
2.4138804341
 72
2
 10
17.9623080615
 20
2.4114054346
 40
0.0024749995
 50
359.9999571957
 51
90.0000428042
 73
1
 72
1
 10
17.964783061
 20
2.4114054327
 11
17.964783061
 21
2.3980504253
 72
2
 10
17.9623080615
 20
2.3980504235
 40
0.0024749995
 50
269.9999571956
 51
0.0000428042
 73
1
 72
1
 10
17.9623080596
 20
2.395575424
 11
17.9271410401
 21
2.395575424
 72
2
 10
17.9271410383
 20
2.3931004244
 40
0.0024749995
 50
89.9999571958
 51
180.0000428043
 73
1
 72
1
 10
17.9246660387
 20
2.3931004226
 11
17.9246660387
 21
2.3815504162
 72
2
 10
17.9271410383
 20
2.3815504143
 40
0.0024749995
 50
179.9999571957
 51
270.0000428043
 73
1
 72
1
 10
17.9271410401
 20
2.3790754148
 11
17.9921450762
 21
2.3790754148
 72
2
 10
17.992145078
 20
2.3815504143
 40
0.0024749995
 50
269.9999571958
 51
0.0000428043
 73
1
 72
1
 10
17.9946200775
 20
2.3815504162
 11
17.9946200775
 21
2.3898004208
 72
2
 10
17.9970950771
 20
2.3898004226
 40
0.0024749995
 50
89.9999571958
 51
180.0000428043
 73
1
 72
1
 10
17.9970950789
 20
2.3922754221
 11
18.0394141024
 21
2.3922754221
 72
2
 10
18.0394141042
 20
2.3898004226
 40
0.0024749995
 50
359.9999571957
 51
90.0000428043
 73
1
 72
1
 10
18.0418891038
 20
2.3898004208
 11
18.0418891038
 21
2.3568004025
 72
2
 10
18.0394141042
 20
2.3568004006
 40
0.0024749995
 50
269.9999571958
 51
0.0000428043
 73
1
 72
1
 10
18.0394141024
 20
2.3543254011
 11
17.8362019897
 21
2.3543254011
 97
267
330
29C
330
29D
330
29E
330
29F
330
2A0
330
2A1
330
2A2
330
2A3
330
2A4
330
2A5
330
2A6
330
2A7
330
2A8
330
2A9
330
2AA
330
2AB
330
2AC
330
2AD
330
2AE
330
2AF
330
2B0
330
2B1
330
2B2
330
2B3
330
2B4
330
2B5
330
2B6
330
2B7
330
2B8
330
2B9
330
2BA
330
2BB
330
2BC
330
2BD
330
2BE
330
2BF
330
2C0
330
2C1
330
2C2
330
2C3
330
2C4
330
2C5
330
2C6
330
2C7
330
2C8
330
2C9
330
2CA
330
2CB
330
2CC
330
2CD
330
2CE
330
2CF
330
2D0
330
2D1
330
2D2
330
2D3
330
2D4
330
2D5
330
2D6
330
2D7
330
2D8
330
2D9
330
2DA
330
2DB
330
2DC
330
2DD
330
2DE
330
2DF
330
2E0
330
2E1
330
2E2
330
2E3
330
2E4
330
2E5
330
2E6
330
2E7
330
2E8
330
2E9
330
2EA
330
2EB
330
2EC
330
2ED
330
2EE
330
2EF
330
2F0
330
2F1
330
2F2
330
2F3
330
2F4
330
2F5
330
2F6
330
2F7
330
2F8
330
2F9
330
2FA
330
2FB
330
2FC
330
2FD
330
2FE
330
2FF
330
300
330
301
330
302
330
303
330
304
330
305
330
306
330
307
330
308
330
309
330
30A
330
30B
330
30C
330
30D
330
30E
330
30F
330
310
330
311
330
312
330
313
330
314
330
315
330
316
330
317
330
318
330
319
330
31A
330
31B
330
31C
330
31D
330
31E
330
31F
330
320
330
321
330
322
330
323
330
324
330
325
330
326
330
327
330
328
330
329
330
32A
330
32B
330
32C
330
32D
330
32E
330
32F
330
330
330
331
330
332
330
333
330
334
330
335
330
336
330
337
330
338
330
339
330
33A
330
33B
330
33C
330
33D
330
33E
330
33F
330
340
330
341
330
342
330
343
330
344
330
345
330
346
330
347
330
348
330
349
330
34A
330
34B
330
34C
330
34D
330
34E
330
34F
330
350
330
351
330
352
330
353
330
354
330
355
330
356
330
357
330
358
330
359
330
35A
330
35B
330
35C
330
35D
330
35E
330
35F
330
360
330
361
330
362
330
363
330
364
330
365
330
366
330
367
330
368
330
369
330
36A
330
36B
330
36C
330
36D
330
36E
330
36F
330
370
330
371
330
372
330
373
330
374
330
375
330
376
330
377
330
378
330
379
330
37A
330
37B
330
37C
330
37D
330
37E
330
37F
330
380
330
381
330
382
330
383
330
384
330
385
330
386
330
387
330
388
330
389
330
38A
330
38B
330
38C
330
38D
330
38E
330
38F
330
390
330
391
330
392
330
393
330
394
330
395
330
396
330
397
330
398
330
399
330
39A
330
39B
330
39C
330
39D
330
39E
330
39F
330
3A0
330
3A1
330
3A2
330
3A3
330
3A4
330
3A5
330
3A6
 92
1
 93
40
 72
2
 10
17.7115227858
 20
2.3567995689
 40
0.0024741678
 50
226.3477981898
 51
270.0031206038
 73
1
 72
1
 10
17.7098149196
 20
2.3550094015
 11
17.6465348845
 21
2.415387435
 72
2
 10
17.6448261836
 20
2.4135964972
 40
0.0024753014
 50
46.3461263058
 51
180.0014637321
 73
1
 72
1
 10
17.6423508822
 20
2.413596434
 11
17.6423508822
 21
2.3815504162
 72
2
 10
17.6448258817
 20
2.3815504143
 40
0.0024749995
 50
179.9999571957
 51
270.0000428043
 73
1
 72
1
 10
17.6448258836
 20
2.3790754148
 11
17.6651428948
 21
2.3790754148
 72
2
 10
17.6651428967
 20
2.3766004153
 40
0.0024749995
 50
359.9999571957
 51
90.0000428043
 73
1
 72
1
 10
17.6676178962
 20
2.3766004134
 11
17.6676178962
 21
2.3568004025
 72
2
 10
17.6651428967
 20
2.3568004006
 40
0.0024749995
 50
269.9999571958
 51
0.0000428043
 73
1
 72
1
 10
17.6651428948
 20
2.3543254011
 11
17.5894788529
 21
2.3543254011
 72
2
 10
17.589478851
 20
2.3568004006
 40
0.0024749995
 50
179.9999571957
 51
270.0000428042
 73
1
 72
1
 10
17.5870038515
 20
2.3568004025
 11
17.5870038515
 21
2.3766004134
 72
2
 10
17.589478851
 20
2.3766004153
 40
0.0024749995
 50
89.9999571957
 51
180.0000428043
 73
1
 72
1
 10
17.5894788529
 20
2.3790754148
 11
17.6081248632
 21
2.3790754148
 72
2
 10
17.6081248651
 20
2.3815504143
 40
0.0024749995
 50
269.9999571957
 51
0.0000428043
 73
1
 72
1
 10
17.6105998646
 20
2.3815504162
 11
17.6105998646
 21
2.4279054419
 72
2
 10
17.6081248651
 20
2.4279054437
 40
0.0024749995
 50
359.9999571957
 51
90.0000428043
 73
1
 72
1
 10
17.6081248632
 20
2.4303804433
 11
17.5894788529
 21
2.4303804433
 72
2
 10
17.589478851
 20
2.4328554428
 40
0.0024749995
 50
179.9999571957
 51
270.0000428043
 73
1
 72
1
 10
17.5870038515
 20
2.4328554446
 11
17.5870038515
 21
2.4526554556
 72
2
 10
17.589478851
 20
2.4526554575
 40
0.0024749995
 50
89.9999571957
 51
180.0000428043
 73
1
 72
1
 10
17.5894788529
 20
2.455130457
 11
17.6899369086
 21
2.455130457
 72
2
 10
17.6899370433
 20
2.4526562892
 40
0.0024741678
 50
46.3477981899
 51
90.0031206038
 73
1
 72
1
 10
17.6916449095
 20
2.4544464566
 11
17.7516779428
 21
2.3971664249
 72
2
 10
17.7533866437
 20
2.3989573626
 40
0.0024753014
 50
226.3461263059
 51
0.0014637321
 73
1
 72
1
 10
17.7558619451
 20
2.3989574258
 11
17.7558619451
 21
2.4279054419
 72
2
 10
17.7533869456
 20
2.4279054437
 40
0.0024749995
 50
359.9999571957
 51
90.0000428043
 73
1
 72
1
 10
17.7533869438
 20
2.4303804433
 11
17.7346109333
 21
2.4303804433
 72
2
 10
17.7346109315
 20
2.4328554428
 40
0.0024749995
 50
179.9999571957
 51
270.0000428043
 73
1
 72
1
 10
17.732135932
 20
2.4328554446
 11
17.732135932
 21
2.4526554556
 72
2
 10
17.7346109315
 20
2.4526554575
 40
0.0024749995
 50
89.9999571958
 51
180.0000428043
 73
1
 72
1
 10
17.7346109333
 20
2.455130457
 11
17.8086119744
 21
2.455130457
 72
2
 10
17.8086119762
 20
2.4526554575
 40
0.0024749995
 50
359.9999571957
 51
90.0000428043
 73
1
 72
1
 10
17.8110869758
 20
2.4526554556
 11
17.8110869758
 21
2.4328554446
 72
2
 10
17.8086119762
 20
2.4328554428
 40
0.0024749995
 50
269.9999571956
 51
0.0000428042
 73
1
 72
1
 10
17.8086119744
 20
2.4303804433
 11
17.7906789644
 21
2.4303804433
 72
2
 10
17.7906789626
 20
2.4279054437
 40
0.0024749995
 50
89.9999571957
 51
180.0000428043
 73
1
 72
1
 10
17.7882039631
 20
2.4279054419
 11
17.7882039631
 21
2.3568004025
 72
2
 10
17.7857289635
 20
2.3568004006
 40
0.0024749995
 50
269.9999571957
 51
0.0000428043
 73
1
 72
1
 10
17.7857289617
 20
2.3543254011
 11
17.7115229205
 21
2.3543254011
 97
267
330
29C
330
29D
330
29E
330
29F
330
2A0
330
2A1
330
2A2
330
2A3
330
2A4
330
2A5
330
2A6
330
2A7
330
2A8
330
2A9
330
2AA
330
2AB
330
2AC
330
2AD
330
2AE
330
2AF
330
2B0
330
2B1
330
2B2
330
2B3
330
2B4
330
2B5
330
2B6
330
2B7
330
2B8
330
2B9
330
2BA
330
2BB
330
2BC
330
2BD
330
2BE
330
2BF
330
2C0
330
2C1
330
2C2
330
2C3
330
2C4
330
2C5
330
2C6
330
2C7
330
2C8
330
2C9
330
2CA
330
2CB
330
2CC
330
2CD
330
2CE
330
2CF
330
2D0
330
2D1
330
2D2
330
2D3
330
2D4
330
2D5
330
2D6
330
2D7
330
2D8
330
2D9
330
2DA
330
2DB
330
2DC
330
2DD
330
2DE
330
2DF
330
2E0
330
2E1
330
2E2
330
2E3
330
2E4
330
2E5
330
2E6
330
2E7
330
2E8
330
2E9
330
2EA
330
2EB
330
2EC
330
2ED
330
2EE
330
2EF
330
2F0
330
2F1
330
2F2
330
2F3
330
2F4
330
2F5
330
2F6
330
2F7
330
2F8
330
2F9
330
2FA
330
2FB
330
2FC
330
2FD
330
2FE
330
2FF
330
300
330
301
330
302
330
303
330
304
330
305
330
306
330
307
330
308
330
309
330
30A
330
30B
330
30C
330
30D
330
30E
330
30F
330
310
330
311
330
312
330
313
330
314
330
315
330
316
330
317
330
318
330
319
330
31A
330
31B
330
31C
330
31D
330
31E
330
31F
330
320
330
321
330
322
330
323
330
324
330
325
330
326
330
327
330
328
330
329
330
32A
330
32B
330
32C
330
32D
330
32E
330
32F
330
330
330
331
330
332
330
333
330
334
330
335
330
336
330
337
330
338
330
339
330
33A
330
33B
330
33C
330
33D
330
33E
330
33F
330
340
330
341
330
342
330
343
330
344
330
345
330
346
330
347
330
348
330
349
330
34A
330
34B
330
34C
330
34D
330
34E
330
34F
330
350
330
351
330
352
330
353
330
354
330
355
330
356
330
357
330
358
330
359
330
35A
330
35B
330
35C
330
35D
330
35E
330
35F
330
360
330
361
330
362
330
363
330
364
330
365
330
366
330
367
330
368
330
369
330
36A
330
36B
330
36C
330
36D
330
36E
330
36F
330
370
330
371
330
372
330
373
330
374
330
375
330
376
330
377
330
378
330
379
330
37A
330
37B
330
37C
330
37D
330
37E
330
37F
330
380
330
381
330
382
330
383
330
384
330
385
330
386
330
387
330
388
330
389
330
38A
330
38B
330
38C
330
38D
330
38E
330
38F
330
390
330
391
330
392
330
393
330
394
330
395
330
396
330
397
330
398
330
399
330
39A
330
39B
330
39C
330
39D
330
39E
330
39F
330
3A0
330
3A1
330
3A2
330
3A3
330
3A4
330
3A5
330
3A6
 92
1
 93
40
 72
2
 10
17.4632701481
 20
2.3568008172
 40
0.0024754162
 50
226.3593695814
 51
270.0146919954
 73
1
 72
1
 10
17.4615617819
 20
2.3550094015
 11
17.3982817468
 21
2.415387435
 72
2
 10
17.3965730459
 20
2.4135964972
 40
0.0024753014
 50
46.3461263058
 51
180.0014637321
 73
1
 72
1
 10
17.3940977445
 20
2.413596434
 11
17.3940977445
 21
2.3815504162
 72
2
 10
17.396572744
 20
2.3815504143
 40
0.0024749995
 50
179.9999571957
 51
270.0000428043
 73
1
 72
1
 10
17.3965727459
 20
2.3790754148
 11
17.4168897572
 21
2.3790754148
 72
2
 10
17.416889759
 20
2.3766004153
 40
0.0024749995
 50
359.9999571957
 51
90.0000428043
 73
1
 72
1
 10
17.4193647585
 20
2.3766004134
 11
17.4193647585
 21
2.3568004025
 72
2
 10
17.416889759
 20
2.3568004006
 40
0.0024749995
 50
269.9999571957
 51
0.0000428043
 73
1
 72
1
 10
17.4168897572
 20
2.3543254011
 11
17.3412257152
 21
2.3543254011
 72
2
 10
17.3412257133
 20
2.3568004006
 40
0.0024749995
 50
179.9999571957
 51
270.0000428043
 73
1
 72
1
 10
17.3387507138
 20
2.3568004025
 11
17.3387507138
 21
2.3766004134
 72
2
 10
17.3412257133
 20
2.3766004153
 40
0.0024749995
 50
89.9999571957
 51
180.0000428043
 73
1
 72
1
 10
17.3412257152
 20
2.3790754148
 11
17.3598727255
 21
2.3790754148
 72
2
 10
17.3598727274
 20
2.3815504143
 40
0.0024749995
 50
269.9999571957
 51
0.0000428043
 73
1
 72
1
 10
17.3623477269
 20
2.3815504162
 11
17.3623477269
 21
2.4279054419
 72
2
 10
17.3598727274
 20
2.4279054437
 40
0.0024749995
 50
359.9999571957
 51
90.0000428044
 73
1
 72
1
 10
17.3598727255
 20
2.4303804433
 11
17.3412257152
 21
2.4303804433
 72
2
 10
17.3412257133
 20
2.4328554428
 40
0.0024749995
 50
179.9999571957
 51
270.0000428043
 73
1
 72
1
 10
17.3387507138
 20
2.4328554446
 11
17.3387507138
 21
2.4526554556
 72
2
 10
17.3412257133
 20
2.4526554575
 40
0.0024749995
 50
89.9999571957
 51
180.0000428043
 73
1
 72
1
 10
17.3412257152
 20
2.455130457
 11
17.4416837709
 21
2.455130457
 72
2
 10
17.4416839057
 20
2.4526562892
 40
0.0024741678
 50
46.3477981899
 51
90.0031206038
 73
1
 72
1
 10
17.4433917718
 20
2.4544464566
 11
17.5034248051
 21
2.3971664249
 72
2
 10
17.5051335061
 20
2.3989573626
 40
0.0024753014
 50
226.3461263059
 51
0.0014637321
 73
1
 72
1
 10
17.5076088075
 20
2.3989574258
 11
17.5076088075
 21
2.4279054419
 72
2
 10
17.5051338079
 20
2.4279054437
 40
0.0024749995
 50
359.9999571957
 51
90.0000428043
 73
1
 72
1
 10
17.5051338061
 20
2.4303804433
 11
17.4863577957
 21
2.4303804433
 72
2
 10
17.4863577938
 20
2.4328554428
 40
0.0024749995
 50
179.9999571957
 51
270.0000428043
 73
1
 72
1
 10
17.4838827943
 20
2.4328554446
 11
17.4838827943
 21
2.4526554556
 72
2
 10
17.4863577938
 20
2.4526554575
 40
0.0024749995
 50
89.9999571957
 51
180.0000428043
 73
1
 72
1
 10
17.4863577957
 20
2.455130457
 11
17.5603588367
 21
2.455130457
 72
2
 10
17.5603588386
 20
2.4526554575
 40
0.0024749995
 50
359.9999571957
 51
90.0000428042
 73
1
 72
1
 10
17.5628338381
 20
2.4526554556
 11
17.5628338381
 21
2.4328554446
 72
2
 10
17.5603588386
 20
2.4328554428
 40
0.0024749995
 50
269.9999571958
 51
0.0000428043
 73
1
 72
1
 10
17.5603588367
 20
2.4303804433
 11
17.5424258268
 21
2.4303804433
 72
2
 10
17.5424258249
 20
2.4279054437
 40
0.0024749995
 50
89.9999571958
 51
180.0000428043
 73
1
 72
1
 10
17.5399508254
 20
2.4279054419
 11
17.5399508254
 21
2.3568004025
 72
2
 10
17.5374758259
 20
2.3568004006
 40
0.0024749995
 50
269.9999571958
 51
0.0000428043
 73
1
 72
1
 10
17.537475824
 20
2.3543254011
 11
17.4632707829
 21
2.3543254011
 97
267
330
29C
330
29D
330
29E
330
29F
330
2A0
330
2A1
330
2A2
330
2A3
330
2A4
330
2A5
330
2A6
330
2A7
330
2A8
330
2A9
330
2AA
330
2AB
330
2AC
330
2AD
330
2AE
330
2AF
330
2B0
330
2B1
330
2B2
330
2B3
330
2B4
330
2B5
330
2B6
330
2B7
330
2B8
330
2B9
330
2BA
330
2BB
330
2BC
330
2BD
330
2BE
330
2BF
330
2C0
330
2C1
330
2C2
330
2C3
330
2C4
330
2C5
330
2C6
330
2C7
330
2C8
330
2C9
330
2CA
330
2CB
330
2CC
330
2CD
330
2CE
330
2CF
330
2D0
330
2D1
330
2D2
330
2D3
330
2D4
330
2D5
330
2D6
330
2D7
330
2D8
330
2D9
330
2DA
330
2DB
330
2DC
330
2DD
330
2DE
330
2DF
330
2E0
330
2E1
330
2E2
330
2E3
330
2E4
330
2E5
330
2E6
330
2E7
330
2E8
330
2E9
330
2EA
330
2EB
330
2EC
330
2ED
330
2EE
330
2EF
330
2F0
330
2F1
330
2F2
330
2F3
330
2F4
330
2F5
330
2F6
330
2F7
330
2F8
330
2F9
330
2FA
330
2FB
330
2FC
330
2FD
330
2FE
330
2FF
330
300
330
301
330
302
330
303
330
304
330
305
330
306
330
307
330
308
330
309
330
30A
330
30B
330
30C
330
30D
330
30E
330
30F
330
310
330
311
330
312
330
313
330
314
330
315
330
316
330
317
330
318
330
319
330
31A
330
31B
330
31C
330
31D
330
31E
330
31F
330
320
330
321
330
322
330
323
330
324
330
325
330
326
330
327
330
328
330
329
330
32A
330
32B
330
32C
330
32D
330
32E
330
32F
330
330
330
331
330
332
330
333
330
334
330
335
330
336
330
337
330
338
330
339
330
33A
330
33B
330
33C
330
33D
330
33E
330
33F
330
340
330
341
330
342
330
343
330
344
330
345
330
346
330
347
330
348
330
349
330
34A
330
34B
330
34C
330
34D
330
34E
330
34F
330
350
330
351
330
352
330
353
330
354
330
355
330
356
330
357
330
358
330
359
330
35A
330
35B
330
35C
330
35D
330
35E
330
35F
330
360
330
361
330
362
330
363
330
364
330
365
330
366
330
367
330
368
330
369
330
36A
330
36B
330
36C
330
36D
330
36E
330
36F
330
370
330
371
330
372
330
373
330
374
330
375
330
376
330
377
330
378
330
379
330
37A
330
37B
330
37C
330
37D
330
37E
330
37F
330
380
330
381
330
382
330
383
330
384
330
385
330
386
330
387
330
388
330
389
330
38A
330
38B
330
38C
330
38D
330
38E
330
38F
330
390
330
391
330
392
330
393
330
394
330
395
330
396
330
397
330
398
330
399
330
39A
330
39B
330
39C
330
39D
330
39E
330
39F
330
3A0
330
3A1
330
3A2
330
3A3
330
3A4
330
3A5
330
3A6
 92
1
 93
23
 72
2
 10
17.0481152095
 20
2.4027328529
 40
0.048483885
 50
273.21763719
 51
303.0749121182
 73
1
 72
2
 10
17.0629546036
 20
2.379965244
 40
0.0213072145
 50
303.0488228549
 51
355.7263138674
 73
1
 72
2
 10
17.0688911042
 20
2.3799744343
 40
0.0153945295
 50
354.0454548824
 51
5.1878013979
 73
1
 72
2
 10
17.0620614151
 20
2.3797859164
 40
0.0222174455
 50
4.0793399388
 51
69.834329283
 73
1
 72
1
 10
17.0697205646
 20
2.4006414268
 11
17.059669559
 21
2.4041904287
 72
1
 10
17.059669559
 20
2.4041904287
 11
17.0679095636
 21
2.4089664314
 72
2
 10
17.0460441811
 20
2.445793323
 40
0.0428289026
 50
300.6990502959
 51
319.0591802498
 73
1
 72
2
 10
17.0660727781
 20
2.4296649696
 40
0.0171568255
 50
315.9145124245
 51
16.0049121283
 73
1
 72
2
 10
17.0611211659
 20
2.4263113051
 40
0.0229166529
 50
20.6563876465
 51
62.3316896973
 73
1
 72
2
 10
17.0404590422
 20
2.3933827403
 40
0.061747717
 50
59.5385584989
 51
90.0050977555
 73
1
 72
1
 10
17.0404535484
 20
2.455130457
 11
16.8743904563
 21
2.455130457
 72
2
 10
16.8743904545
 20
2.4526554575
 40
0.0024749995
 50
89.9999571958
 51
180.0000428043
 73
1
 72
1
 10
16.8719154549
 20
2.4526554556
 11
16.8719154549
 21
2.4328554446
 72
2
 10
16.8743904545
 20
2.4328554428
 40
0.0024749995
 50
179.9999571957
 51
270.0000428043
 73
1
 72
1
 10
16.8743904563
 20
2.4303804433
 11
16.8983324696
 21
2.4303804433
 72
2
 10
16.8983324714
 20
2.4279054437
 40
0.0024749995
 50
359.9999571957
 51
90.0000428043
 73
1
 72
1
 10
16.9008074709
 20
2.4279054419
 11
16.9008074709
 21
2.3815504162
 72
2
 10
16.8983324714
 20
2.3815504143
 40
0.0024749995
 50
269.9999571958
 51
0.0000428043
 73
1
 72
1
 10
16.8983324696
 20
2.3790754148
 11
16.8743904563
 21
2.3790754148
 72
2
 10
16.8743904545
 20
2.3766004153
 40
0.0024749995
 50
89.9999571958
 51
180.0000428043
 73
1
 72
1
 10
16.8719154549
 20
2.3766004134
 11
16.8719154549
 21
2.3568004025
 72
2
 10
16.8743904545
 20
2.3568004006
 40
0.0024749995
 50
179.9999571957
 51
270.0000428042
 73
1
 72
1
 10
16.8743904563
 20
2.3543254011
 11
17.0508365542
 21
2.3543254011
 97
267
330
29C
330
29D
330
29E
330
29F
330
2A0
330
2A1
330
2A2
330
2A3
330
2A4
330
2A5
330
2A6
330
2A7
330
2A8
330
2A9
330
2AA
330
2AB
330
2AC
330
2AD
330
2AE
330
2AF
330
2B0
330
2B1
330
2B2
330
2B3
330
2B4
330
2B5
330
2B6
330
2B7
330
2B8
330
2B9
330
2BA
330
2BB
330
2BC
330
2BD
330
2BE
330
2BF
330
2C0
330
2C1
330
2C2
330
2C3
330
2C4
330
2C5
330
2C6
330
2C7
330
2C8
330
2C9
330
2CA
330
2CB
330
2CC
330
2CD
330
2CE
330
2CF
330
2D0
330
2D1
330
2D2
330
2D3
330
2D4
330
2D5
330
2D6
330
2D7
330
2D8
330
2D9
330
2DA
330
2DB
330
2DC
330
2DD
330
2DE
330
2DF
330
2E0
330
2E1
330
2E2
330
2E3
330
2E4
330
2E5
330
2E6
330
2E7
330
2E8
330
2E9
330
2EA
330
2EB
330
2EC
330
2ED
330
2EE
330
2EF
330
2F0
330
2F1
330
2F2
330
2F3
330
2F4
330
2F5
330
2F6
330
2F7
330
2F8
330
2F9
330
2FA
330
2FB
330
2FC
330
2FD
330
2FE
330
2FF
330
300
330
301
330
302
330
303
330
304
330
305
330
306
330
307
330
308
330
309
330
30A
330
30B
330
30C
330
30D
330
30E
330
30F
330
310
330
311
330
312
330
313
330
314
330
315
330
316
330
317
330
318
330
319
330
31A
330
31B
330
31C
330
31D
330
31E
330
31F
330
320
330
321
330
322
330
323
330
324
330
325
330
326
330
327
330
328
330
329
330
32A
330
32B
330
32C
330
32D
330
32E
330
32F
330
330
330
331
330
332
330
333
330
334
330
335
330
336
330
337
330
338
330
339
330
33A
330
33B
330
33C
330
33D
330
33E
330
33F
330
340
330
341
330
342
330
343
330
344
330
345
330
346
330
347
330
348
330
349
330
34A
330
34B
330
34C
330
34D
330
34E
330
34F
330
350
330
351
330
352
330
353
330
354
330
355
330
356
330
357
330
358
330
359
330
35A
330
35B
330
35C
330
35D
330
35E
330
35F
330
360
330
361
330
362
330
363
330
364
330
365
330
366
330
367
330
368
330
369
330
36A
330
36B
330
36C
330
36D
330
36E
330
36F
330
370
330
371
330
372
330
373
330
374
330
375
330
376
330
377
330
378
330
379
330
37A
330
37B
330
37C
330
37D
330
37E
330
37F
330
380
330
381
330
382
330
383
330
384
330
385
330
386
330
387
330
388
330
389
330
38A
330
38B
330
38C
330
38D
330
38E
330
38F
330
390
330
391
330
392
330
393
330
394
330
395
330
396
330
397
330
398
330
399
330
39A
330
39B
330
39C
330
39D
330
39E
330
39F
330
3A0
330
3A1
330
3A2
330
3A3
330
3A4
330
3A5
330
3A6
 92
1
 93
32
 72
2
 10
17.1857496308
 20
2.3568004006
 40
0.0024749995
 50
269.9999571958
 51
0.0000428044
 73
1
 72
1
 10
17.1882246303
 20
2.3568004025
 11
17.1882246303
 21
2.3766004134
 72
2
 10
17.1857496308
 20
2.3766004153
 40
0.0024749995
 50
359.9999571957
 51
90.0000428043
 73
1
 72
1
 10
17.185749629
 20
2.3790754148
 11
17.1744666227
 21
2.3790754148
 72
2
 10
17.1744665134
 20
2.3815504549
 40
0.0024750401
 50
147.6063258011
 51
270.0025305754
 73
1
 72
1
 10
17.1723766216
 20
2.3828764169
 11
17.1778926246
 21
2.3915704217
 72
2
 10
17.1799825555
 20
2.3902442221
 40
0.0024752003
 50
89.998372645
 51
147.602165307
 73
1
 72
1
 10
17.1799826258
 20
2.3927194224
 11
17.2148606451
 21
2.3927194224
 72
2
 10
17.2148601055
 20
2.3902439622
 40
0.0024754602
 50
32.8959418574
 51
89.9875097202
 73
1
 72
1
 10
17.2169386463
 20
2.3915884218
 11
17.2225646494
 21
2.3828954169
 72
2
 10
17.2204866271
 20
2.3815506219
 40
0.0024752071
 50
270.0004896793
 51
32.9089806818
 73
1
 72
1
 10
17.2204866482
 20
2.3790754148
 11
17.2060356402
 21
2.3790754148
 72
2
 10
17.2060356384
 20
2.3766004153
 40
0.0024749995
 50
89.9999571958
 51
180.0000428043
 73
1
 72
1
 10
17.2035606388
 20
2.3766004134
 11
17.2035606388
 21
2.3568004025
 72
2
 10
17.2060356384
 20
2.3568004006
 40
0.0024749995
 50
179.9999571957
 51
270.0000428042
 73
1
 72
1
 10
17.2060356402
 20
2.3543254011
 11
17.3113166986
 21
2.3543254011
 72
2
 10
17.3113167005
 20
2.3568004006
 40
0.0024749995
 50
269.9999571957
 51
0.0000428043
 73
1
 72
1
 10
17.3137917
 20
2.3568004025
 11
17.3137917
 21
2.3766004134
 72
2
 10
17.3113167005
 20
2.3766004153
 40
0.0024749995
 50
359.9999571957
 51
90.0000428043
 73
1
 72
1
 10
17.3113166986
 20
2.3790754148
 11
17.2913006875
 21
2.3790754148
 72
2
 10
17.291300808
 20
2.3815494558
 40
0.002474041
 50
212.9056413127
 51
269.9972091756
 73
1
 72
1
 10
17.2892236864
 20
2.3802054154
 11
17.2414676599
 21
2.4540004564
 72
2
 10
17.2393900382
 20
2.4526554968
 40
0.0024749602
 50
32.9172174468
 51
90.0087853096
 73
1
 72
1
 10
17.2393896587
 20
2.455130457
 11
17.182214627
 21
2.455130457
 72
2
 10
17.1822145567
 20
2.4526552567
 40
0.0024752003
 50
89.998372645
 51
147.602165307
 73
1
 72
1
 10
17.1801246258
 20
2.4539814564
 11
17.1333245999
 21
2.3802244155
 72
2
 10
17.131234669
 20
2.3815506151
 40
0.0024752003
 50
269.998372645
 51
327.602165307
 73
1
 72
1
 10
17.1312345987
 20
2.3790754148
 11
17.1083735861
 21
2.3790754148
 72
2
 10
17.1083735842
 20
2.3766004153
 40
0.0024749995
 50
89.9999571957
 51
180.0000428043
 73
1
 72
1
 10
17.1058985847
 20
2.3766004134
 11
17.1058985847
 21
2.3568004025
 72
2
 10
17.1083735842
 20
2.3568004006
 40
0.0024749995
 50
179.9999571957
 51
270.0000428043
 73
1
 72
1
 10
17.1083735861
 20
2.3543254011
 11
17.185749629
 21
2.3543254011
 97
267
330
29C
330
29D
330
29E
330
29F
330
2A0
330
2A1
330
2A2
330
2A3
330
2A4
330
2A5
330
2A6
330
2A7
330
2A8
330
2A9
330
2AA
330
2AB
330
2AC
330
2AD
330
2AE
330
2AF
330
2B0
330
2B1
330
2B2
330
2B3
330
2B4
330
2B5
330
2B6
330
2B7
330
2B8
330
2B9
330
2BA
330
2BB
330
2BC
330
2BD
330
2BE
330
2BF
330
2C0
330
2C1
330
2C2
330
2C3
330
2C4
330
2C5
330
2C6
330
2C7
330
2C8
330
2C9
330
2CA
330
2CB
330
2CC
330
2CD
330
2CE
330
2CF
330
2D0
330
2D1
330
2D2
330
2D3
330
2D4
330
2D5
330
2D6
330
2D7
330
2D8
330
2D9
330
2DA
330
2DB
330
2DC
330
2DD
330
2DE
330
2DF
330
2E0
330
2E1
330
2E2
330
2E3
330
2E4
330
2E5
330
2E6
330
2E7
330
2E8
330
2E9
330
2EA
330
2EB
330
2EC
330
2ED
330
2EE
330
2EF
330
2F0
330
2F1
330
2F2
330
2F3
330
2F4
330
2F5
330
2F6
330
2F7
330
2F8
330
2F9
330
2FA
330
2FB
330
2FC
330
2FD
330
2FE
330
2FF
330
300
330
301
330
302
330
303
330
304
330
305
330
306
330
307
330
308
330
309
330
30A
330
30B
330
30C
330
30D
330
30E
330
30F
330
310
330
311
330
312
330
313
330
314
330
315
330
316
330
317
330
318
330
319
330
31A
330
31B
330
31C
330
31D
330
31E
330
31F
330
320
330
321
330
322
330
323
330
324
330
325
330
326
330
327
330
328
330
329
330
32A
330
32B
330
32C
330
32D
330
32E
330
32F
330
330
330
331
330
332
330
333
330
334
330
335
330
336
330
337
330
338
330
339
330
33A
330
33B
330
33C
330
33D
330
33E
330
33F
330
340
330
341
330
342
330
343
330
344
330
345
330
346
330
347
330
348
330
349
330
34A
330
34B
330
34C
330
34D
330
34E
330
34F
330
350
330
351
330
352
330
353
330
354
330
355
330
356
330
357
330
358
330
359
330
35A
330
35B
330
35C
330
35D
330
35E
330
35F
330
360
330
361
330
362
330
363
330
364
330
365
330
366
330
367
330
368
330
369
330
36A
330
36B
330
36C
330
36D
330
36E
330
36F
330
370
330
371
330
372
330
373
330
374
330
375
330
376
330
377
330
378
330
379
330
37A
330
37B
330
37C
330
37D
330
37E
330
37F
330
380
330
381
330
382
330
383
330
384
330
385
330
386
330
387
330
388
330
389
330
38A
330
38B
330
38C
330
38D
330
38E
330
38F
330
390
330
391
330
392
330
393
330
394
330
395
330
396
330
397
330
398
330
399
330
39A
330
39B
330
39C
330
39D
330
39E
330
39F
330
3A0
330
3A1
330
3A2
330
3A3
330
3A4
330
3A5
330
3A6
 92
1
 93
6
 72
2
 10
16.963795504
 20
2.3815504143
 40
0.0024749995
 50
179.9999571957
 51
270.0000428043
 73
1
 72
1
 10
16.9613205045
 20
2.3815504162
 11
16.9613205045
 21
2.3939254231
 72
2
 10
16.963795504
 20
2.3939254249
 40
0.0024749995
 50
89.9999571957
 51
180.0000428043
 73
1
 72
1
 10
16.9637955059
 20
2.3964004244
 11
17.0051585288
 21
2.3964004244
 72
2
 10
17.0051585288
 20
2.3877379196
 40
0.0086625048
 50
270.0
 51
90.0
 73
1
 72
1
 10
17.0051585288
 20
2.3790754148
 11
16.9637955059
 21
2.3790754148
 97
267
330
29C
330
29D
330
29E
330
29F
330
2A0
330
2A1
330
2A2
330
2A3
330
2A4
330
2A5
330
2A6
330
2A7
330
2A8
330
2A9
330
2AA
330
2AB
330
2AC
330
2AD
330
2AE
330
2AF
330
2B0
330
2B1
330
2B2
330
2B3
330
2B4
330
2B5
330
2B6
330
2B7
330
2B8
330
2B9
330
2BA
330
2BB
330
2BC
330
2BD
330
2BE
330
2BF
330
2C0
330
2C1
330
2C2
330
2C3
330
2C4
330
2C5
330
2C6
330
2C7
330
2C8
330
2C9
330
2CA
330
2CB
330
2CC
330
2CD
330
2CE
330
2CF
330
2D0
330
2D1
330
2D2
330
2D3
330
2D4
330
2D5
330
2D6
330
2D7
330
2D8
330
2D9
330
2DA
330
2DB
330
2DC
330
2DD
330
2DE
330
2DF
330
2E0
330
2E1
330
2E2
330
2E3
330
2E4
330
2E5
330
2E6
330
2E7
330
2E8
330
2E9
330
2EA
330
2EB
330
2EC
330
2ED
330
2EE
330
2EF
330
2F0
330
2F1
330
2F2
330
2F3
330
2F4
330
2F5
330
2F6
330
2F7
330
2F8
330
2F9
330
2FA
330
2FB
330
2FC
330
2FD
330
2FE
330
2FF
330
300
330
301
330
302
330
303
330
304
330
305
330
306
330
307
330
308
330
309
330
30A
330
30B
330
30C
330
30D
330
30E
330
30F
330
310
330
311
330
312
330
313
330
314
330
315
330
316
330
317
330
318
330
319
330
31A
330
31B
330
31C
330
31D
330
31E
330
31F
330
320
330
321
330
322
330
323
330
324
330
325
330
326
330
327
330
328
330
329
330
32A
330
32B
330
32C
330
32D
330
32E
330
32F
330
330
330
331
330
332
330
333
330
334
330
335
330
336
330
337
330
338
330
339
330
33A
330
33B
330
33C
330
33D
330
33E
330
33F
330
340
330
341
330
342
330
343
330
344
330
345
330
346
330
347
330
348
330
349
330
34A
330
34B
330
34C
330
34D
330
34E
330
34F
330
350
330
351
330
352
330
353
330
354
330
355
330
356
330
357
330
358
330
359
330
35A
330
35B
330
35C
330
35D
330
35E
330
35F
330
360
330
361
330
362
330
363
330
364
330
365
330
366
330
367
330
368
330
369
330
36A
330
36B
330
36C
330
36D
330
36E
330
36F
330
370
330
371
330
372
330
373
330
374
330
375
330
376
330
377
330
378
330
379
330
37A
330
37B
330
37C
330
37D
330
37E
330
37F
330
380
330
381
330
382
330
383
330
384
330
385
330
386
330
387
330
388
330
389
330
38A
330
38B
330
38C
330
38D
330
38E
330
38F
330
390
330
391
330
392
330
393
330
394
330
395
330
396
330
397
330
398
330
399
330
39A
330
39B
330
39C
330
39D
330
39E
330
39F
330
3A0
330
3A1
330
3A2
330
3A3
330
3A4
330
3A5
330
3A6
 92
1
 93
13
 72
2
 10
18.1572301659
 20
2.415180433
 40
0.0024749995
 50
179.9999571957
 51
270.0000428043
 73
1
 72
1
 10
18.1547551663
 20
2.4151804348
 11
18.1547551663
 21
2.4279054419
 72
2
 10
18.1572301659
 20
2.4279054437
 40
0.0024749995
 50
89.9999571957
 51
180.0000428043
 73
1
 72
1
 10
18.1572301677
 20
2.4303804433
 11
18.1940311881
 21
2.4303804433
 72
2
 10
18.1924863006
 20
2.4019259643
 40
0.0284963867
 50
70.3834917948
 51
86.8922743861
 73
1
 72
2
 10
18.1973459106
 20
2.4149676972
 40
0.0145814632
 50
54.6746025112
 51
71.1660573124
 73
1
 72
2
 10
18.2024754016
 20
2.4218216224
 40
0.0060275915
 50
20.9055592135
 51
56.7851676243
 73
1
 72
2
 10
18.2037759605
 20
2.4224819047
 40
0.0045795888
 50
355.6235353944
 51
18.9942678268
 73
1
 72
2
 10
18.2025691502
 20
2.4227756809
 40
0.0058087709
 50
318.8515287446
 51
353.6422345323
 73
1
 72
2
 10
18.198398534
 20
2.4260095887
 40
0.0110815393
 50
306.758405961
 51
320.4502234234
 73
1
 72
2
 10
18.1927693431
 20
2.4337504172
 40
0.0206523367
 50
289.6883413472
 51
306.4184925496
 73
1
 72
2
 10
18.1908418374
 20
2.4381440645
 40
0.0254407115
 50
270.7327484175
 51
290.441894219
 73
1
 72
1
 10
18.1911671865
 20
2.4127054335
 11
18.1572301677
 21
2.4127054335
 97
267
330
29C
330
29D
330
29E
330
29F
330
2A0
330
2A1
330
2A2
330
2A3
330
2A4
330
2A5
330
2A6
330
2A7
330
2A8
330
2A9
330
2AA
330
2AB
330
2AC
330
2AD
330
2AE
330
2AF
330
2B0
330
2B1
330
2B2
330
2B3
330
2B4
330
2B5
330
2B6
330
2B7
330
2B8
330
2B9
330
2BA
330
2BB
330
2BC
330
2BD
330
2BE
330
2BF
330
2C0
330
2C1
330
2C2
330
2C3
330
2C4
330
2C5
330
2C6
330
2C7
330
2C8
330
2C9
330
2CA
330
2CB
330
2CC
330
2CD
330
2CE
330
2CF
330
2D0
330
2D1
330
2D2
330
2D3
330
2D4
330
2D5
330
2D6
330
2D7
330
2D8
330
2D9
330
2DA
330
2DB
330
2DC
330
2DD
330
2DE
330
2DF
330
2E0
330
2E1
330
2E2
330
2E3
330
2E4
330
2E5
330
2E6
330
2E7
330
2E8
330
2E9
330
2EA
330
2EB
330
2EC
330
2ED
330
2EE
330
2EF
330
2F0
330
2F1
330
2F2
330
2F3
330
2F4
330
2F5
330
2F6
330
2F7
330
2F8
330
2F9
330
2FA
330
2FB
330
2FC
330
2FD
330
2FE
330
2FF
330
300
330
301
330
302
330
303
330
304
330
305
330
306
330
307
330
308
330
309
330
30A
330
30B
330
30C
330
30D
330
30E
330
30F
330
310
330
311
330
312
330
313
330
314
330
315
330
316
330
317
330
318
330
319
330
31A
330
31B
330
31C
330
31D
330
31E
330
31F
330
320
330
321
330
322
330
323
330
324
330
325
330
326
330
327
330
328
330
329
330
32A
330
32B
330
32C
330
32D
330
32E
330
32F
330
330
330
331
330
332
330
333
330
334
330
335
330
336
330
337
330
338
330
339
330
33A
330
33B
330
33C
330
33D
330
33E
330
33F
330
340
330
341
330
342
330
343
330
344
330
345
330
346
330
347
330
348
330
349
330
34A
330
34B
330
34C
330
34D
330
34E
330
34F
330
350
330
351
330
352
330
353
330
354
330
355
330
356
330
357
330
358
330
359
330
35A
330
35B
330
35C
330
35D
330
35E
330
35F
330
360
330
361
330
362
330
363
330
364
330
365
330
366
330
367
330
368
330
369
330
36A
330
36B
330
36C
330
36D
330
36E
330
36F
330
370
330
371
330
372
330
373
330
374
330
375
330
376
330
377
330
378
330
379
330
37A
330
37B
330
37C
330
37D
330
37E
330
37F
330
380
330
381
330
382
330
383
330
384
330
385
330
386
330
387
330
388
330
389
330
38A
330
38B
330
38C
330
38D
330
38E
330
38F
330
390
330
391
330
392
330
393
330
394
330
395
330
396
330
397
330
398
330
399
330
39A
330
39B
330
39C
330
39D
330
39E
330
39F
330
3A0
330
3A1
330
3A2
330
3A3
330
3A4
330
3A5
330
3A6
 92
1
 93
6
 72
2
 10
17.0051585288
 20
2.4217179385
 40
0.0086625048
 50
270.0
 51
90.0
 73
1
 72
1
 10
17.0051585288
 20
2.4303804433
 11
16.9637955059
 21
2.4303804433
 72
2
 10
16.963795504
 20
2.4279054437
 40
0.0024749995
 50
89.9999571957
 51
180.0000428043
 73
1
 72
1
 10
16.9613205045
 20
2.4279054419
 11
16.9613205045
 21
2.415530435
 72
2
 10
16.963795504
 20
2.4155304332
 40
0.0024749995
 50
179.9999571957
 51
270.0000428043
 73
1
 72
1
 10
16.9637955059
 20
2.4130554337
 11
17.0051585288
 21
2.4130554337
 97
267
330
29C
330
29D
330
29E
330
29F
330
2A0
330
2A1
330
2A2
330
2A3
330
2A4
330
2A5
330
2A6
330
2A7
330
2A8
330
2A9
330
2AA
330
2AB
330
2AC
330
2AD
330
2AE
330
2AF
330
2B0
330
2B1
330
2B2
330
2B3
330
2B4
330
2B5
330
2B6
330
2B7
330
2B8
330
2B9
330
2BA
330
2BB
330
2BC
330
2BD
330
2BE
330
2BF
330
2C0
330
2C1
330
2C2
330
2C3
330
2C4
330
2C5
330
2C6
330
2C7
330
2C8
330
2C9
330
2CA
330
2CB
330
2CC
330
2CD
330
2CE
330
2CF
330
2D0
330
2D1
330
2D2
330
2D3
330
2D4
330
2D5
330
2D6
330
2D7
330
2D8
330
2D9
330
2DA
330
2DB
330
2DC
330
2DD
330
2DE
330
2DF
330
2E0
330
2E1
330
2E2
330
2E3
330
2E4
330
2E5
330
2E6
330
2E7
330
2E8
330
2E9
330
2EA
330
2EB
330
2EC
330
2ED
330
2EE
330
2EF
330
2F0
330
2F1
330
2F2
330
2F3
330
2F4
330
2F5
330
2F6
330
2F7
330
2F8
330
2F9
330
2FA
330
2FB
330
2FC
330
2FD
330
2FE
330
2FF
330
300
330
301
330
302
330
303
330
304
330
305
330
306
330
307
330
308
330
309
330
30A
330
30B
330
30C
330
30D
330
30E
330
30F
330
310
330
311
330
312
330
313
330
314
330
315
330
316
330
317
330
318
330
319
330
31A
330
31B
330
31C
330
31D
330
31E
330
31F
330
320
330
321
330
322
330
323
330
324
330
325
330
326
330
327
330
328
330
329
330
32A
330
32B
330
32C
330
32D
330
32E
330
32F
330
330
330
331
330
332
330
333
330
334
330
335
330
336
330
337
330
338
330
339
330
33A
330
33B
330
33C
330
33D
330
33E
330
33F
330
340
330
341
330
342
330
343
330
344
330
345
330
346
330
347
330
348
330
349
330
34A
330
34B
330
34C
330
34D
330
34E
330
34F
330
350
330
351
330
352
330
353
330
354
330
355
330
356
330
357
330
358
330
359
330
35A
330
35B
330
35C
330
35D
330
35E
330
35F
330
360
330
361
330
362
330
363
330
364
330
365
330
366
330
367
330
368
330
369
330
36A
330
36B
330
36C
330
36D
330
36E
330
36F
330
370
330
371
330
372
330
373
330
374
330
375
330
376
330
377
330
378
330
379
330
37A
330
37B
330
37C
330
37D
330
37E
330
37F
330
380
330
381
330
382
330
383
330
384
330
385
330
386
330
387
330
388
330
389
330
38A
330
38B
330
38C
330
38D
330
38E
330
38F
330
390
330
391
330
392
330
393
330
394
330
395
330
396
330
397
330
398
330
399
330
39A
330
39B
330
39C
330
39D
330
39E
330
39F
330
3A0
330
3A1
330
3A2
330
3A3
330
3A4
330
3A5
330
3A6
 92
1
 93
8
 72
2
 10
17.2090556207
 20
2.4161446411
 40
0.0024752071
 50
270.0004896793
 51
32.9089806818
 73
1
 72
1
 10
17.211133643
 20
2.4174894361
 11
17.203874639
 21
2.4287054423
 72
2
 10
17.2017960982
 20
2.4273609828
 40
0.0024754602
 50
32.8959418573
 51
89.9875097202
 73
1
 72
1
 10
17.2017966379
 20
2.429836443
 11
17.1956156344
 21
2.429836443
 72
2
 10
17.1956155641
 20
2.4273612427
 40
0.0024752003
 50
89.998372645
 51
147.6021653069
 73
1
 72
1
 10
17.1935256333
 20
2.4286874423
 11
17.1864086293
 21
2.4174704361
 72
2
 10
17.1884985212
 20
2.4161444741
 40
0.0024750401
 50
147.6063258012
 51
270.0025305753
 73
1
 72
1
 10
17.1884986305
 20
2.413669434
 11
17.2090556419
 21
2.413669434
 97
267
330
29C
330
29D
330
29E
330
29F
330
2A0
330
2A1
330
2A2
330
2A3
330
2A4
330
2A5
330
2A6
330
2A7
330
2A8
330
2A9
330
2AA
330
2AB
330
2AC
330
2AD
330
2AE
330
2AF
330
2B0
330
2B1
330
2B2
330
2B3
330
2B4
330
2B5
330
2B6
330
2B7
330
2B8
330
2B9
330
2BA
330
2BB
330
2BC
330
2BD
330
2BE
330
2BF
330
2C0
330
2C1
330
2C2
330
2C3
330
2C4
330
2C5
330
2C6
330
2C7
330
2C8
330
2C9
330
2CA
330
2CB
330
2CC
330
2CD
330
2CE
330
2CF
330
2D0
330
2D1
330
2D2
330
2D3
330
2D4
330
2D5
330
2D6
330
2D7
330
2D8
330
2D9
330
2DA
330
2DB
330
2DC
330
2DD
330
2DE
330
2DF
330
2E0
330
2E1
330
2E2
330
2E3
330
2E4
330
2E5
330
2E6
330
2E7
330
2E8
330
2E9
330
2EA
330
2EB
330
2EC
330
2ED
330
2EE
330
2EF
330
2F0
330
2F1
330
2F2
330
2F3
330
2F4
330
2F5
330
2F6
330
2F7
330
2F8
330
2F9
330
2FA
330
2FB
330
2FC
330
2FD
330
2FE
330
2FF
330
300
330
301
330
302
330
303
330
304
330
305
330
306
330
307
330
308
330
309
330
30A
330
30B
330
30C
330
30D
330
30E
330
30F
330
310
330
311
330
312
330
313
330
314
330
315
330
316
330
317
330
318
330
319
330
31A
330
31B
330
31C
330
31D
330
31E
330
31F
330
320
330
321
330
322
330
323
330
324
330
325
330
326
330
327
330
328
330
329
330
32A
330
32B
330
32C
330
32D
330
32E
330
32F
330
330
330
331
330
332
330
333
330
334
330
335
330
336
330
337
330
338
330
339
330
33A
330
33B
330
33C
330
33D
330
33E
330
33F
330
340
330
341
330
342
330
343
330
344
330
345
330
346
330
347
330
348
330
349
330
34A
330
34B
330
34C
330
34D
330
34E
330
34F
330
350
330
351
330
352
330
353
330
354
330
355
330
356
330
357
330
358
330
359
330
35A
330
35B
330
35C
330
35D
330
35E
330
35F
330
360
330
361
330
362
330
363
330
364
330
365
330
366
330
367
330
368
330
369
330
36A
330
36B
330
36C
330
36D
330
36E
330
36F
330
370
330
371
330
372
330
373
330
374
330
375
330
376
330
377
330
378
330
379
330
37A
330
37B
330
37C
330
37D
330
37E
330
37F
330
380
330
381
330
382
330
383
330
384
330
385
330
386
330
387
330
388
330
389
330
38A
330
38B
330
38C
330
38D
330
38E
330
38F
330
390
330
391
330
392
330
393
330
394
330
395
330
396
330
397
330
398
330
399
330
39A
330
39B
330
39C
330
39D
330
39E
330
39F
330
3A0
330
3A1
330
3A2
330
3A3
330
3A4
330
3A5
330
3A6
 92
1
 93
1
 72
3
 10
17.573550844
 20
2.4034764283
 11
-0.8250004575
 21
0.0
 40
0.218572
 50
0.0
 51
-0.0
 73
1
 97
267
330
29C
330
29D
330
29E
330
29F
330
2A0
330
2A1
330
2A2
330
2A3
330
2A4
330
2A5
330
2A6
330
2A7
330
2A8
330
2A9
330
2AA
330
2AB
330
2AC
330
2AD
330
2AE
330
2AF
330
2B0
330
2B1
330
2B2
330
2B3
330
2B4
330
2B5
330
2B6
330
2B7
330
2B8
330
2B9
330
2BA
330
2BB
330
2BC
330
2BD
330
2BE
330
2BF
330
2C0
330
2C1
330
2C2
330
2C3
330
2C4
330
2C5
330
2C6
330
2C7
330
2C8
330
2C9
330
2CA
330
2CB
330
2CC
330
2CD
330
2CE
330
2CF
330
2D0
330
2D1
330
2D2
330
2D3
330
2D4
330
2D5
330
2D6
330
2D7
330
2D8
330
2D9
330
2DA
330
2DB
330
2DC
330
2DD
330
2DE
330
2DF
330
2E0
330
2E1
330
2E2
330
2E3
330
2E4
330
2E5
330
2E6
330
2E7
330
2E8
330
2E9
330
2EA
330
2EB
330
2EC
330
2ED
330
2EE
330
2EF
330
2F0
330
2F1
330
2F2
330
2F3
330
2F4
330
2F5
330
2F6
330
2F7
330
2F8
330
2F9
330
2FA
330
2FB
330
2FC
330
2FD
330
2FE
330
2FF
330
300
330
301
330
302
330
303
330
304
330
305
330
306
330
307
330
308
330
309
330
30A
330
30B
330
30C
330
30D
330
30E
330
30F
330
310
330
311
330
312
330
313
330
314
330
315
330
316
330
317
330
318
330
319
330
31A
330
31B
330
31C
330
31D
330
31E
330
31F
330
320
330
321
330
322
330
323
330
324
330
325
330
326
330
327
330
328
330
329
330
32A
330
32B
330
32C
330
32D
330
32E
330
32F
330
330
330
331
330
332
330
333
330
334
330
335
330
336
330
337
330
338
330
339
330
33A
330
33B
330
33C
330
33D
330
33E
330
33F
330
340
330
341
330
342
330
343
330
344
330
345
330
346
330
347
330
348
330
349
330
34A
330
34B
330
34C
330
34D
330
34E
330
34F
330
350
330
351
330
352
330
353
330
354
330
355
330
356
330
357
330
358
330
359
330
35A
330
35B
330
35C
330
35D
330
35E
330
35F
330
360
330
361
330
362
330
363
330
364
330
365
330
366
330
367
330
368
330
369
330
36A
330
36B
330
36C
330
36D
330
36E
330
36F
330
370
330
371
330
372
330
373
330
374
330
375
330
376
330
377
330
378
330
379
330
37A
330
37B
330
37C
330
37D
330
37E
330
37F
330
380
330
381
330
382
330
383
330
384
330
385
330
386
330
387
330
388
330
389
330
38A
330
38B
330
38C
330
38D
330
38E
330
38F
330
390
330
391
330
392
330
393
330
394
330
395
330
396
330
397
330
398
330
399
330
39A
330
39B
330
39C
330
39D
330
39E
330
39F
330
3A0
330
3A1
330
3A2
330
3A3
330
3A4
330
3A5
330
3A6
 75
0
 76
1
 98
1
 10
0.0
 20
0.0
  0
LINE
  5
3A8
100
AcDbEntity
  8
0
100
AcDbLine
 62
7
  6
CONTINUOUS
 10
21.05
 20
2.67
 11
14.7
 21
2.67
  0
LINE
  5
3A9
100
AcDbEntity
  8
0
100
AcDbLine
 62
7
  6
CONTINUOUS
 10
6.007
 20
0.75
 11
6.007
 21
0.5
  0
LINE
  5
3AA
100
AcDbEntity
  8
0
100
AcDbLine
 62
7
  6
CONTINUOUS
 10
6.007
 20
15.75
 11
6.007
 21
16.0
  0
LINE
  5
3AB
100
AcDbEntity
  8
0
100
AcDbLine
 62
7
  6
CONTINUOUS
 10
0.814
 20
8.163397
 11
0.964
 21
8.25
  0
LINE
  5
3AC
100
AcDbEntity
  8
0
100
AcDbLine
 62
7
  6
CONTINUOUS
 10
0.964
 20
8.25
 11
0.814
 21
8.336603
  0
LINE
  5
3AD
100
AcDbEntity
  8
0
100
AcDbLine
 62
7
  6
CONTINUOUS
 10
0.964
 20
4.4
 11
0.714
 21
4.4
  0
LINE
  5
3AE
100
AcDbEntity
  8
0
100
AcDbLine
 62
7
  6
CONTINUOUS
 10
21.05
 20
4.4
 11
21.3
 21
4.4
  0
LINE
  5
3AF
100
AcDbEntity
  8
0
100
AcDbLine
 62
7
  6
CONTINUOUS
 10
11.093603
 20
0.6
 11
11.007
 21
0.75
  0
LINE
  5
3B0
100
AcDbEntity
  8
0
100
AcDbLine
 62
7
  6
CONTINUOUS
 10
11.007
 20
15.75
 11
11.093603
 21
15.9
  0
LINE
  5
3B1
100
AcDbEntity
  8
0
100
AcDbLine
 62
7
  6
CONTINUOUS
 10
8.507
 20
0.75
 11
8.507
 21
0.5
  0
LINE
  5
3B2
100
AcDbEntity
  8
0
100
AcDbLine
 62
7
  6
CONTINUOUS
 10
8.507
 20
15.75
 11
8.507
 21
16.0
  0
LINE
  5
3B3
100
AcDbEntity
  8
0
100
AcDbLine
 62
7
  6
CONTINUOUS
 10
11.007
 20
0.75
 11
11.007
 21
0.5
  0
LINE
  5
3B4
100
AcDbEntity
  8
0
100
AcDbLine
 62
7
  6
CONTINUOUS
 10
11.007
 20
15.75
 11
11.007
 21
16.0
  0
LINE
  5
3B5
100
AcDbEntity
  8
0
100
AcDbLine
 62
7
  6
CONTINUOUS
 10
0.964
 20
8.25
 11
0.714
 21
8.25
  0
LINE
  5
3B6
100
AcDbEntity
  8
0
100
AcDbLine
 62
7
  6
CONTINUOUS
 10
21.05
 20
8.25
 11
21.3
 21
8.25
  0
LINE
  5
3B7
100
AcDbEntity
  8
0
100
AcDbLine
 62
7
  6
CONTINUOUS
 10
13.507
 20
0.75
 11
13.507
 21
0.5
  0
LINE
  5
3B8
100
AcDbEntity
  8
0
100
AcDbLine
 62
7
  6
CONTINUOUS
 10
13.507
 20
15.75
 11
13.507
 21
16.0
  0
LINE
  5
3B9
100
AcDbEntity
  8
0
100
AcDbLine
 62
7
  6
CONTINUOUS
 10
14.7
 20
2.67
 11
14.7
 21
0.75
  0
LINE
  5
3BA
100
AcDbEntity
  8
0
100
AcDbLine
 62
7
  6
CONTINUOUS
 10
11.007
 20
0.75
 11
10.920397
 21
0.6
  0
LINE
  5
3BB
100
AcDbEntity
  8
0
100
AcDbLine
 62
7
  6
CONTINUOUS
 10
0.964
 20
12.1
 11
0.714
 21
12.1
  0
LINE
  5
3BC
100
AcDbEntity
  8
0
100
AcDbLine
 62
7
  6
CONTINUOUS
 10
21.05
 20
12.1
 11
21.3
 21
12.1
  0
LINE
  5
3BD
100
AcDbEntity
  8
0
100
AcDbLine
 62
7
  6
CONTINUOUS
 10
10.920397
 20
15.9
 11
11.007
 21
15.75
  0
LINE
  5
3BE
100
AcDbEntity
  8
0
100
AcDbLine
 62
7
  6
CONTINUOUS
 10
15.2229827477
 20
1.0139932523
 11
15.2229827477
 21
0.7919022523
  0
LINE
  5
3BF
100
AcDbEntity
  8
0
100
AcDbLine
 62
7
  6
CONTINUOUS
 10
15.2229827477
 20
1.0639932523
 11
15.2229827477
 21
1.1639932523
  0
LINE
  5
3C0
100
AcDbEntity
  8
0
100
AcDbLine
 62
7
  6
CONTINUOUS
 10
15.2229827477
 20
1.2139932523
 11
15.2229827477
 21
1.4360842523
  0
LINE
  5
3C1
100
AcDbEntity
  8
0
100
AcDbLine
 62
7
  6
CONTINUOUS
 10
15.8276527477
 20
0.9312952523
 11
15.8276527477
 21
1.2966912523
  0
LINE
  5
3C2
100
AcDbEntity
  8
0
100
AcDbLine
 62
7
  6
CONTINUOUS
 10
16.007
 20
0.75
 11
16.007
 21
0.5
  0
LINE
  5
3C3
100
AcDbEntity
  8
0
100
AcDbLine
 62
7
  6
CONTINUOUS
 10
16.007
 20
15.75
 11
16.007
 21
16.0
  0
LINE
  5
3C4
100
AcDbEntity
  8
0
100
AcDbLine
 62
7
  6
CONTINUOUS
 10
16.4340437477
 20
1.3660842523
 11
16.4340437477
 21
0.8619022523
  0
LINE
  5
3C5
100
AcDbEntity
  8
0
100
AcDbLine
 62
7
  6
CONTINUOUS
 10
21.2
 20
8.336603
 11
21.05
 21
8.25
  0
LINE
  5
3C6
100
AcDbEntity
  8
0
100
AcDbLine
 62
7
  6
CONTINUOUS
 10
21.05
 20
8.25
 11
21.2
 21
8.163397
  0
LINE
  5
3C7
100
AcDbEntity
  8
0
100
AcDbLine
 62
7
  6
CONTINUOUS
 10
16.7
 20
2.67
 11
16.7
 21
0.75
  0
LINE
  5
3C8
100
AcDbEntity
  8
0
100
AcDbLine
 62
7
  6
CONTINUOUS
 10
17.5
 20
1.37
 11
17.5
 21
1.0
  0
LINE
  5
3C9
100
AcDbEntity
  8
0
100
AcDbLine
 62
7
  6
CONTINUOUS
 10
18.507
 20
0.75
 11
18.507
 21
0.5
  0
LINE
  5
3CA
100
AcDbEntity
  8
0
100
AcDbLine
 62
7
  6
CONTINUOUS
 10
18.507
 20
15.75
 11
18.507
 21
16.0
  0
LINE
  5
3CB
100
AcDbEntity
  8
0
100
AcDbLine
 62
7
  6
CONTINUOUS
 10
21.05
 20
15.75
 11
0.964
 21
15.75
  0
LINE
  5
3CC
100
AcDbEntity
  8
0
100
AcDbLine
 62
7
  6
CONTINUOUS
 10
11.093603
 20
15.9
 11
10.920397
 21
15.9
  0
LINE
  5
3CD
100
AcDbEntity
  8
0
100
AcDbLine
 62
7
  6
CONTINUOUS
 10
18.875
 20
1.0
 11
18.875
 21
0.75
  0
LINE
  5
3CE
100
AcDbEntity
  8
0
100
AcDbLine
 62
7
  6
CONTINUOUS
 10
20.25
 20
1.37
 11
20.25
 21
1.0
  0
LINE
  5
3CF
100
AcDbEntity
  8
0
100
AcDbLine
 62
7
  6
CONTINUOUS
 10
21.05
 20
0.75
 11
21.05
 21
15.75
  0
LINE
  5
3D0
100
AcDbEntity
  8
0
100
AcDbLine
 62
7
  6
CONTINUOUS
 10
21.2
 20
8.163397
 11
21.2
 21
8.336603
  0
LINE
  5
3D1
100
AcDbEntity
  8
0
100
AcDbLine
 62
7
  6
CONTINUOUS
 10
7.6876540209
 20
6.4782471232
 11
8.4534020524
 21
6.4782471232
  0
LINE
  5
3D2
100
AcDbEntity
  8
0
100
AcDbLine
 62
7
  6
CONTINUOUS
 10
9.8549768556
 20
6.4782471232
 11
10.6404099264
 21
6.4782471232
  0
LINE
  5
3D3
100
AcDbEntity
  8
0
100
AcDbLine
 62
7
  6
CONTINUOUS
 10
8.4900162257
 20
6.4853337374
 11
8.4554462681
 21
6.4853337374
  0
LINE
  5
3D4
100
AcDbEntity
  8
0
100
AcDbLine
 62
7
  6
CONTINUOUS
 10
8.5498628751
 20
6.5778534225
 11
8.4821346387
 21
6.5778534225
  0
LINE
  5
3D5
100
AcDbEntity
  8
0
100
AcDbLine
 62
7
  6
CONTINUOUS
 10
8.4841107138
 20
6.6278534225
 11
8.5628508713
 21
6.6278534225
  0
LINE
  5
3D6
100
AcDbEntity
  8
0
100
AcDbLine
 62
7
  6
CONTINUOUS
 10
9.8549768556
 20
6.6672235012
 11
8.4829296115
 21
6.6672235012
  0
LINE
  5
3D7
100
AcDbEntity
  8
0
100
AcDbLine
 62
7
  6
CONTINUOUS
 10
7.6876540209
 20
10.8089557847
 11
7.6876540209
 21
6.4782471232
  0
LINE
  5
3D8
100
AcDbEntity
  8
0
100
AcDbLine
 62
7
  6
CONTINUOUS
 10
7.746709139
 20
10.8089557847
 11
7.746709139
 21
6.4782471232
  0
LINE
  5
3D9
100
AcDbEntity
  8
0
100
AcDbLine
 62
7
  6
CONTINUOUS
 10
7.9974965406
 20
10.4128927925
 11
7.9974965406
 21
10.2002943673
  0
LINE
  5
3DA
100
AcDbEntity
  8
0
100
AcDbLine
 62
7
  6
CONTINUOUS
 10
8.004189454
 20
10.2061998791
 11
8.004189454
 21
10.4054124776
  0
LINE
  5
3DB
100
AcDbEntity
  8
0
100
AcDbLine
 62
7
  6
CONTINUOUS
 10
8.0770240997
 20
10.2061998791
 11
8.0770240997
 21
10.4054124776
  0
LINE
  5
3DC
100
AcDbEntity
  8
0
100
AcDbLine
 62
7
  6
CONTINUOUS
 10
8.0841107138
 20
10.2002943673
 11
8.0841107138
 21
10.4128927925
  0
LINE
  5
3DD
100
AcDbEntity
  8
0
100
AcDbLine
 62
7
  6
CONTINUOUS
 10
8.4829296115
 20
6.6672235012
 11
8.4829296115
 21
6.580609328
  0
LINE
  5
3DE
100
AcDbEntity
  8
0
100
AcDbLine
 62
7
  6
CONTINUOUS
 10
8.4841107138
 20
6.6672235012
 11
8.4841107138
 21
6.6278534225
  0
LINE
  5
3DF
100
AcDbEntity
  8
0
100
AcDbLine
 62
7
  6
CONTINUOUS
 10
8.5234807926
 20
6.6278534225
 11
8.5234807926
 21
6.5778534225
  0
LINE
  5
3E0
100
AcDbEntity
  8
0
100
AcDbLine
 62
7
  6
CONTINUOUS
 10
8.5628508713
 20
6.6278534225
 11
8.5628508713
 21
6.5979321626
  0
LINE
  5
3E1
100
AcDbEntity
  8
0
100
AcDbLine
 62
7
  6
CONTINUOUS
 10
9.7959217375
 20
6.5648612965
 11
9.8549768556
 21
6.4782471232
  0
LINE
  5
3E2
100
AcDbEntity
  8
0
100
AcDbLine
 62
7
  6
CONTINUOUS
 10
8.4829296115
 20
6.580609328
 11
8.4534020524
 21
6.4782471232
  0
LINE
  5
3E3
100
AcDbEntity
  8
0
100
AcDbLine
 62
7
  6
CONTINUOUS
 10
9.7959217375
 20
6.6002943673
 11
9.7959217375
 21
6.5648612965
  0
LINE
  5
3E4
100
AcDbEntity
  8
0
100
AcDbLine
 62
7
  6
CONTINUOUS
 10
9.8549768556
 20
6.6223416114
 11
9.8549768556
 21
6.6672235012
  0
LINE
  5
3E5
100
AcDbEntity
  8
0
100
AcDbLine
 62
7
  6
CONTINUOUS
 10
8.5628508713
 20
6.5979321626
 11
8.4900162257
 21
6.4853337374
  0
LINE
  5
3E6
100
AcDbEntity
  8
0
100
AcDbLine
 62
7
  6
CONTINUOUS
 10
10.2439532335
 20
10.4128927925
 11
10.2439532335
 21
10.2002943673
  0
LINE
  5
3E7
100
AcDbEntity
  8
0
100
AcDbLine
 62
7
  6
CONTINUOUS
 10
10.2510398477
 20
10.4054124776
 11
10.2510398477
 21
10.2061998791
  0
LINE
  5
3E8
100
AcDbEntity
  8
0
100
AcDbLine
 62
7
  6
CONTINUOUS
 10
10.3238744934
 20
10.4054124776
 11
10.3238744934
 21
10.2061998791
  0
LINE
  5
3E9
100
AcDbEntity
  8
0
100
AcDbLine
 62
7
  6
CONTINUOUS
 10
10.3305674068
 20
10.2002943673
 11
10.3305674068
 21
10.4128927925
  0
LINE
  5
3EA
100
AcDbEntity
  8
0
100
AcDbLine
 62
7
  6
CONTINUOUS
 10
10.5813548083
 20
10.8089557847
 11
10.5813548083
 21
6.4782471232
  0
LINE
  5
3EB
100
AcDbEntity
  8
0
100
AcDbLine
 62
7
  6
CONTINUOUS
 10
10.6404099264
 20
10.8089557847
 11
10.6404099264
 21
6.4782471232
  0
LINE
  5
3EC
100
AcDbEntity
  8
0
100
AcDbLine
 62
7
  6
CONTINUOUS
 10
7.9974965406
 20
10.2002943673
 11
8.0841107138
 21
10.2002943673
  0
LINE
  5
3ED
100
AcDbEntity
  8
0
100
AcDbLine
 62
7
  6
CONTINUOUS
 10
10.2439532335
 20
10.2002943673
 11
10.3305674068
 21
10.2002943673
  0
LINE
  5
3EE
100
AcDbEntity
  8
0
100
AcDbLine
 62
7
  6
CONTINUOUS
 10
8.0770240997
 20
10.2061998791
 11
8.004189454
 21
10.2061998791
  0
LINE
  5
3EF
100
AcDbEntity
  8
0
100
AcDbLine
 62
7
  6
CONTINUOUS
 10
10.2510398477
 20
10.2061998791
 11
10.3238744934
 21
10.2061998791
  0
LINE
  5
3F0
100
AcDbEntity
  8
0
100
AcDbLine
 62
7
  6
CONTINUOUS
 10
10.3238744934
 20
10.3483258634
 11
10.2510398477
 21
10.3483258634
  0
LINE
  5
3F1
100
AcDbEntity
  8
0
100
AcDbLine
 62
7
  6
CONTINUOUS
 10
8.004189454
 20
10.3483258634
 11
8.0770240997
 21
10.3483258634
  0
LINE
  5
3F2
100
AcDbEntity
  8
0
100
AcDbLine
 62
7
  6
CONTINUOUS
 10
10.3238744934
 20
10.4054124776
 11
10.2510398477
 21
10.4054124776
  0
LINE
  5
3F3
100
AcDbEntity
  8
0
100
AcDbLine
 62
7
  6
CONTINUOUS
 10
8.004189454
 20
10.4054124776
 11
8.0770240997
 21
10.4054124776
  0
LINE
  5
3F4
100
AcDbEntity
  8
0
100
AcDbLine
 62
7
  6
CONTINUOUS
 10
10.3305674068
 20
10.4128927925
 11
10.2439532335
 21
10.4128927925
  0
LINE
  5
3F5
100
AcDbEntity
  8
0
100
AcDbLine
 62
7
  6
CONTINUOUS
 10
8.0841107138
 20
10.4128927925
 11
7.9974965406
 21
10.4128927925
  0
LINE
  5
3F6
100
AcDbEntity
  8
0
100
AcDbLine
 62
7
  6
CONTINUOUS
 10
9.8549768556
 20
6.6223416114
 11
9.7959217375
 21
6.6002943673
  0
LINE
  5
3F7
100
AcDbEntity
  8
0
100
AcDbLine
 62
7
  6
CONTINUOUS
 10
7.6876540209
 20
10.8089557847
 11
10.6404099264
 21
10.8089557847
  0
LINE
  5
3F8
100
AcDbEntity
  8
0
100
AcDbLine
 62
7
  6
CONTINUOUS
 10
13.5172265836
 20
6.4782471232
 11
15.2888801269
 21
6.4782471232
  0
LINE
  5
3F9
100
AcDbEntity
  8
0
100
AcDbLine
 62
7
  6
CONTINUOUS
 10
13.773919497
 20
9.9502943673
 11
13.8065966623
 21
9.9829715327
  0
LINE
  5
3FA
100
AcDbEntity
  8
0
100
AcDbLine
 62
7
  6
CONTINUOUS
 10
14.0046281584
 20
9.9502943673
 11
14.0373053238
 21
9.9829715327
  0
LINE
  5
3FB
100
AcDbEntity
  8
0
100
AcDbLine
 62
7
  6
CONTINUOUS
 10
13.8786439064
 20
9.7810030288
 11
13.8459667411
 21
9.7483258634
  0
LINE
  5
3FC
100
AcDbEntity
  8
0
100
AcDbLine
 62
7
  6
CONTINUOUS
 10
14.2353368198
 20
9.9502943673
 11
14.2680139852
 21
9.9829715327
  0
LINE
  5
3FD
100
AcDbEntity
  8
0
100
AcDbLine
 62
7
  6
CONTINUOUS
 10
14.1093525679
 20
9.7810030288
 11
14.0766754025
 21
9.7483258634
  0
LINE
  5
3FE
100
AcDbEntity
  8
0
100
AcDbLine
 62
7
  6
CONTINUOUS
 10
13.5172265836
 20
10.8089557847
 11
13.5172265836
 21
6.4782471232
  0
LINE
  5
3FF
100
AcDbEntity
  8
0
100
AcDbLine
 62
7
  6
CONTINUOUS
 10
13.5762817017
 20
10.8089557847
 11
13.5762817017
 21
6.4782471232
  0
LINE
  5
400
100
AcDbEntity
  8
0
100
AcDbLine
 62
7
  6
CONTINUOUS
 10
13.6156517805
 20
10.8089557847
 11
13.6156517805
 21
9.6396644461
  0
LINE
  5
401
100
AcDbEntity
  8
0
100
AcDbLine
 62
7
  6
CONTINUOUS
 10
13.6215572923
 20
9.6475384618
 11
13.6215572923
 21
10.8089557847
  0
LINE
  5
402
100
AcDbEntity
  8
0
100
AcDbLine
 62
7
  6
CONTINUOUS
 10
14.4660454812
 20
9.9502943673
 11
14.4987226466
 21
9.9829715327
  0
LINE
  5
403
100
AcDbEntity
  8
0
100
AcDbLine
 62
7
  6
CONTINUOUS
 10
14.3400612293
 20
9.7810030288
 11
14.3073840639
 21
9.7483258634
  0
LINE
  5
404
100
AcDbEntity
  8
0
100
AcDbLine
 62
7
  6
CONTINUOUS
 10
13.647935245
 20
9.7483258634
 11
13.647935245
 21
9.9829715327
  0
LINE
  5
405
100
AcDbEntity
  8
0
100
AcDbLine
 62
7
  6
CONTINUOUS
 10
13.6918328828
 20
10.5924203516
 11
13.6918328828
 21
10.1396644461
  0
LINE
  5
406
100
AcDbEntity
  8
0
100
AcDbLine
 62
7
  6
CONTINUOUS
 10
13.773919497
 20
9.9502943673
 11
13.773919497
 21
9.7810030288
  0
LINE
  5
407
100
AcDbEntity
  8
0
100
AcDbLine
 62
7
  6
CONTINUOUS
 10
14.6967541427
 20
9.9502943673
 11
14.729431308
 21
9.9829715327
  0
LINE
  5
408
100
AcDbEntity
  8
0
100
AcDbLine
 62
7
  6
CONTINUOUS
 10
14.5707698907
 20
9.7810030288
 11
14.5380927253
 21
9.7483258634
  0
LINE
  5
409
100
AcDbEntity
  8
0
100
AcDbLine
 62
7
  6
CONTINUOUS
 10
13.8065966623
 20
9.9829715327
 11
13.8065966623
 21
9.7483258634
  0
LINE
  5
40A
100
AcDbEntity
  8
0
100
AcDbLine
 62
7
  6
CONTINUOUS
 10
13.8459667411
 20
9.7483258634
 11
13.8459667411
 21
9.9829715327
  0
LINE
  5
40B
100
AcDbEntity
  8
0
100
AcDbLine
 62
7
  6
CONTINUOUS
 10
13.8786439064
 20
9.7810030288
 11
13.8786439064
 21
9.9502943673
  0
LINE
  5
40C
100
AcDbEntity
  8
0
100
AcDbLine
 62
7
  6
CONTINUOUS
 10
14.9274628041
 20
9.9502943673
 11
14.9601399694
 21
9.9829715327
  0
LINE
  5
40D
100
AcDbEntity
  8
0
100
AcDbLine
 62
7
  6
CONTINUOUS
 10
14.8014785521
 20
9.7810030288
 11
14.7688013868
 21
9.7483258634
  0
LINE
  5
40E
100
AcDbEntity
  8
0
100
AcDbLine
 62
7
  6
CONTINUOUS
 10
14.0046281584
 20
9.9502943673
 11
14.0046281584
 21
9.7810030288
  0
LINE
  5
40F
100
AcDbEntity
  8
0
100
AcDbLine
 62
7
  6
CONTINUOUS
 10
14.0373053238
 20
9.9829715327
 11
14.0373053238
 21
9.7483258634
  0
LINE
  5
410
100
AcDbEntity
  8
0
100
AcDbLine
 62
7
  6
CONTINUOUS
 10
14.0766754025
 20
9.7483258634
 11
14.0766754025
 21
9.9829715327
  0
LINE
  5
411
100
AcDbEntity
  8
0
100
AcDbLine
 62
7
  6
CONTINUOUS
 10
14.1093525679
 20
9.7810030288
 11
14.1093525679
 21
9.9502943673
  0
LINE
  5
412
100
AcDbEntity
  8
0
100
AcDbLine
 62
7
  6
CONTINUOUS
 10
15.0321872135
 20
9.7810030288
 11
14.9995100482
 21
9.7483258634
  0
LINE
  5
413
100
AcDbEntity
  8
0
100
AcDbLine
 62
7
  6
CONTINUOUS
 10
14.2353368198
 20
9.9502943673
 11
14.2353368198
 21
9.7810030288
  0
LINE
  5
414
100
AcDbEntity
  8
0
100
AcDbLine
 62
7
  6
CONTINUOUS
 10
14.2680139852
 20
9.9829715327
 11
14.2680139852
 21
9.7483258634
  0
LINE
  5
415
100
AcDbEntity
  8
0
100
AcDbLine
 62
7
  6
CONTINUOUS
 10
14.3073840639
 20
9.7483258634
 11
14.3073840639
 21
9.9829715327
  0
LINE
  5
416
100
AcDbEntity
  8
0
100
AcDbLine
 62
7
  6
CONTINUOUS
 10
14.3400612293
 20
9.7810030288
 11
14.3400612293
 21
9.9502943673
  0
LINE
  5
417
100
AcDbEntity
  8
0
100
AcDbLine
 62
7
  6
CONTINUOUS
 10
14.4660454812
 20
9.9502943673
 11
14.4660454812
 21
9.7810030288
  0
LINE
  5
418
100
AcDbEntity
  8
0
100
AcDbLine
 62
7
  6
CONTINUOUS
 10
14.4987226466
 20
9.9829715327
 11
14.4987226466
 21
9.7483258634
  0
LINE
  5
419
100
AcDbEntity
  8
0
100
AcDbLine
 62
7
  6
CONTINUOUS
 10
14.5380927253
 20
9.7483258634
 11
14.5380927253
 21
9.9829715327
  0
LINE
  5
41A
100
AcDbEntity
  8
0
100
AcDbLine
 62
7
  6
CONTINUOUS
 10
14.5707698907
 20
9.7810030288
 11
14.5707698907
 21
9.9502943673
  0
LINE
  5
41B
100
AcDbEntity
  8
0
100
AcDbLine
 62
7
  6
CONTINUOUS
 10
14.6967541427
 20
9.9502943673
 11
14.6967541427
 21
9.7810030288
  0
LINE
  5
41C
100
AcDbEntity
  8
0
100
AcDbLine
 62
7
  6
CONTINUOUS
 10
14.729431308
 20
9.9829715327
 11
14.729431308
 21
9.7483258634
  0
LINE
  5
41D
100
AcDbEntity
  8
0
100
AcDbLine
 62
7
  6
CONTINUOUS
 10
14.7688013868
 20
9.7483258634
 11
14.7688013868
 21
9.9829715327
  0
LINE
  5
41E
100
AcDbEntity
  8
0
100
AcDbLine
 62
7
  6
CONTINUOUS
 10
14.8014785521
 20
9.7810030288
 11
14.8014785521
 21
9.9502943673
  0
LINE
  5
41F
100
AcDbEntity
  8
0
100
AcDbLine
 62
7
  6
CONTINUOUS
 10
13.773919497
 20
9.7810030288
 11
13.8065966623
 21
9.7483258634
  0
LINE
  5
420
100
AcDbEntity
  8
0
100
AcDbLine
 62
7
  6
CONTINUOUS
 10
14.9274628041
 20
9.9502943673
 11
14.9274628041
 21
9.7810030288
  0
LINE
  5
421
100
AcDbEntity
  8
0
100
AcDbLine
 62
7
  6
CONTINUOUS
 10
14.9601399694
 20
9.9829715327
 11
14.9601399694
 21
9.7483258634
  0
LINE
  5
422
100
AcDbEntity
  8
0
100
AcDbLine
 62
7
  6
CONTINUOUS
 10
14.9995100482
 20
9.7483258634
 11
14.9995100482
 21
9.9829715327
  0
LINE
  5
423
100
AcDbEntity
  8
0
100
AcDbLine
 62
7
  6
CONTINUOUS
 10
15.0321872135
 20
9.7810030288
 11
15.0321872135
 21
9.9502943673
  0
LINE
  5
424
100
AcDbEntity
  8
0
100
AcDbLine
 62
7
  6
CONTINUOUS
 10
14.0046281584
 20
9.7810030288
 11
14.0373053238
 21
9.7483258634
  0
LINE
  5
425
100
AcDbEntity
  8
0
100
AcDbLine
 62
7
  6
CONTINUOUS
 10
13.8786439064
 20
9.9502943673
 11
13.8459667411
 21
9.9829715327
  0
LINE
  5
426
100
AcDbEntity
  8
0
100
AcDbLine
 62
7
  6
CONTINUOUS
 10
15.1142738277
 20
10.1396644461
 11
15.1142738277
 21
10.5924203516
  0
LINE
  5
427
100
AcDbEntity
  8
0
100
AcDbLine
 62
7
  6
CONTINUOUS
 10
15.1581714655
 20
9.9829715327
 11
15.1581714655
 21
9.7483258634
  0
LINE
  5
428
100
AcDbEntity
  8
0
100
AcDbLine
 62
7
  6
CONTINUOUS
 10
15.1845494183
 20
10.8089557847
 11
15.1845494183
 21
9.6475384618
  0
LINE
  5
429
100
AcDbEntity
  8
0
100
AcDbLine
 62
7
  6
CONTINUOUS
 10
15.1904549301
 20
10.8089557847
 11
15.1904549301
 21
9.6396644461
  0
LINE
  5
42A
100
AcDbEntity
  8
0
100
AcDbLine
 62
7
  6
CONTINUOUS
 10
14.2353368198
 20
9.7810030288
 11
14.2680139852
 21
9.7483258634
  0
LINE
  5
42B
100
AcDbEntity
  8
0
100
AcDbLine
 62
7
  6
CONTINUOUS
 10
14.1093525679
 20
9.9502943673
 11
14.0766754025
 21
9.9829715327
  0
LINE
  5
42C
100
AcDbEntity
  8
0
100
AcDbLine
 62
7
  6
CONTINUOUS
 10
15.2298250088
 20
10.8089557847
 11
15.2298250088
 21
6.4782471232
  0
LINE
  5
42D
100
AcDbEntity
  8
0
100
AcDbLine
 62
7
  6
CONTINUOUS
 10
15.2888801269
 20
10.8089557847
 11
15.2888801269
 21
6.4782471232
  0
LINE
  5
42E
100
AcDbEntity
  8
0
100
AcDbLine
 62
7
  6
CONTINUOUS
 10
14.4660454812
 20
9.7810030288
 11
14.4987226466
 21
9.7483258634
  0
LINE
  5
42F
100
AcDbEntity
  8
0
100
AcDbLine
 62
7
  6
CONTINUOUS
 10
14.3400612293
 20
9.9502943673
 11
14.3073840639
 21
9.9829715327
  0
LINE
  5
430
100
AcDbEntity
  8
0
100
AcDbLine
 62
7
  6
CONTINUOUS
 10
15.1904549301
 20
9.6396644461
 11
13.6156517805
 21
9.6396644461
  0
LINE
  5
431
100
AcDbEntity
  8
0
100
AcDbLine
 62
7
  6
CONTINUOUS
 10
15.1845494183
 20
9.6475384618
 11
13.6215572923
 21
9.6475384618
  0
LINE
  5
432
100
AcDbEntity
  8
0
100
AcDbLine
 62
7
  6
CONTINUOUS
 10
15.1581714655
 20
9.7483258634
 11
14.9995100482
 21
9.7483258634
  0
LINE
  5
433
100
AcDbEntity
  8
0
100
AcDbLine
 62
7
  6
CONTINUOUS
 10
14.9601399694
 20
9.7483258634
 11
14.7688013868
 21
9.7483258634
  0
LINE
  5
434
100
AcDbEntity
  8
0
100
AcDbLine
 62
7
  6
CONTINUOUS
 10
14.729431308
 20
9.7483258634
 11
14.5380927253
 21
9.7483258634
  0
LINE
  5
435
100
AcDbEntity
  8
0
100
AcDbLine
 62
7
  6
CONTINUOUS
 10
14.4987226466
 20
9.7483258634
 11
14.3073840639
 21
9.7483258634
  0
LINE
  5
436
100
AcDbEntity
  8
0
100
AcDbLine
 62
7
  6
CONTINUOUS
 10
14.2680139852
 20
9.7483258634
 11
14.0766754025
 21
9.7483258634
  0
LINE
  5
437
100
AcDbEntity
  8
0
100
AcDbLine
 62
7
  6
CONTINUOUS
 10
14.0373053238
 20
9.7483258634
 11
13.8459667411
 21
9.7483258634
  0
LINE
  5
438
100
AcDbEntity
  8
0
100
AcDbLine
 62
7
  6
CONTINUOUS
 10
13.8065966623
 20
9.7483258634
 11
13.647935245
 21
9.7483258634
  0
LINE
  5
439
100
AcDbEntity
  8
0
100
AcDbLine
 62
7
  6
CONTINUOUS
 10
14.6967541427
 20
9.7810030288
 11
14.729431308
 21
9.7483258634
  0
LINE
  5
43A
100
AcDbEntity
  8
0
100
AcDbLine
 62
7
  6
CONTINUOUS
 10
14.5707698907
 20
9.9502943673
 11
14.5380927253
 21
9.9829715327
  0
LINE
  5
43B
100
AcDbEntity
  8
0
100
AcDbLine
 62
7
  6
CONTINUOUS
 10
15.1581714655
 20
9.7810030288
 11
15.0321872135
 21
9.7810030288
  0
LINE
  5
43C
100
AcDbEntity
  8
0
100
AcDbLine
 62
7
  6
CONTINUOUS
 10
14.9274628041
 20
9.7810030288
 11
14.8014785521
 21
9.7810030288
  0
LINE
  5
43D
100
AcDbEntity
  8
0
100
AcDbLine
 62
7
  6
CONTINUOUS
 10
14.6967541427
 20
9.7810030288
 11
14.5707698907
 21
9.7810030288
  0
LINE
  5
43E
100
AcDbEntity
  8
0
100
AcDbLine
 62
7
  6
CONTINUOUS
 10
14.4660454812
 20
9.7810030288
 11
14.3400612293
 21
9.7810030288
  0
LINE
  5
43F
100
AcDbEntity
  8
0
100
AcDbLine
 62
7
  6
CONTINUOUS
 10
14.2353368198
 20
9.7810030288
 11
14.1093525679
 21
9.7810030288
  0
LINE
  5
440
100
AcDbEntity
  8
0
100
AcDbLine
 62
7
  6
CONTINUOUS
 10
14.0046281584
 20
9.7810030288
 11
13.8786439064
 21
9.7810030288
  0
LINE
  5
441
100
AcDbEntity
  8
0
100
AcDbLine
 62
7
  6
CONTINUOUS
 10
13.773919497
 20
9.7810030288
 11
13.647935245
 21
9.7810030288
  0
LINE
  5
442
100
AcDbEntity
  8
0
100
AcDbLine
 62
7
  6
CONTINUOUS
 10
14.9274628041
 20
9.7810030288
 11
14.9601399694
 21
9.7483258634
  0
LINE
  5
443
100
AcDbEntity
  8
0
100
AcDbLine
 62
7
  6
CONTINUOUS
 10
14.8014785521
 20
9.9502943673
 11
14.7688013868
 21
9.9829715327
  0
LINE
  5
444
100
AcDbEntity
  8
0
100
AcDbLine
 62
7
  6
CONTINUOUS
 10
13.647935245
 20
9.9502943673
 11
13.773919497
 21
9.9502943673
  0
LINE
  5
445
100
AcDbEntity
  8
0
100
AcDbLine
 62
7
  6
CONTINUOUS
 10
13.8786439064
 20
9.9502943673
 11
14.0046281584
 21
9.9502943673
  0
LINE
  5
446
100
AcDbEntity
  8
0
100
AcDbLine
 62
7
  6
CONTINUOUS
 10
14.1093525679
 20
9.9502943673
 11
14.2353368198
 21
9.9502943673
  0
LINE
  5
447
100
AcDbEntity
  8
0
100
AcDbLine
 62
7
  6
CONTINUOUS
 10
14.3400612293
 20
9.9502943673
 11
14.4660454812
 21
9.9502943673
  0
LINE
  5
448
100
AcDbEntity
  8
0
100
AcDbLine
 62
7
  6
CONTINUOUS
 10
14.5707698907
 20
9.9502943673
 11
14.6967541427
 21
9.9502943673
  0
LINE
  5
449
100
AcDbEntity
  8
0
100
AcDbLine
 62
7
  6
CONTINUOUS
 10
14.8014785521
 20
9.9502943673
 11
14.9274628041
 21
9.9502943673
  0
LINE
  5
44A
100
AcDbEntity
  8
0
100
AcDbLine
 62
7
  6
CONTINUOUS
 10
15.0321872135
 20
9.9502943673
 11
15.1581714655
 21
9.9502943673
  0
LINE
  5
44B
100
AcDbEntity
  8
0
100
AcDbLine
 62
7
  6
CONTINUOUS
 10
13.647935245
 20
9.9829715327
 11
13.8065966623
 21
9.9829715327
  0
LINE
  5
44C
100
AcDbEntity
  8
0
100
AcDbLine
 62
7
  6
CONTINUOUS
 10
13.8459667411
 20
9.9829715327
 11
14.0373053238
 21
9.9829715327
  0
LINE
  5
44D
100
AcDbEntity
  8
0
100
AcDbLine
 62
7
  6
CONTINUOUS
 10
14.0766754025
 20
9.9829715327
 11
14.2680139852
 21
9.9829715327
  0
LINE
  5
44E
100
AcDbEntity
  8
0
100
AcDbLine
 62
7
  6
CONTINUOUS
 10
14.3073840639
 20
9.9829715327
 11
14.4987226466
 21
9.9829715327
  0
LINE
  5
44F
100
AcDbEntity
  8
0
100
AcDbLine
 62
7
  6
CONTINUOUS
 10
14.5380927253
 20
9.9829715327
 11
14.729431308
 21
9.9829715327
  0
LINE
  5
450
100
AcDbEntity
  8
0
100
AcDbLine
 62
7
  6
CONTINUOUS
 10
14.7688013868
 20
9.9829715327
 11
14.9601399694
 21
9.9829715327
  0
LINE
  5
451
100
AcDbEntity
  8
0
100
AcDbLine
 62
7
  6
CONTINUOUS
 10
14.9995100482
 20
9.9829715327
 11
15.1581714655
 21
9.9829715327
  0
LINE
  5
452
100
AcDbEntity
  8
0
100
AcDbLine
 62
7
  6
CONTINUOUS
 10
15.0321872135
 20
9.9502943673
 11
14.9995100482
 21
9.9829715327
  0
LINE
  5
453
100
AcDbEntity
  8
0
100
AcDbLine
 62
7
  6
CONTINUOUS
 10
13.7115179222
 20
10.1199794067
 11
15.0945887883
 21
10.1199794067
  0
LINE
  5
454
100
AcDbEntity
  8
0
100
AcDbLine
 62
7
  6
CONTINUOUS
 10
15.0945887883
 20
10.612105391
 11
13.7115179222
 21
10.612105391
  0
LINE
  5
455
100
AcDbEntity
  8
0
100
AcDbLine
 62
7
  6
CONTINUOUS
 10
15.1845494183
 20
10.7695857059
 11
13.6215572923
 21
10.7695857059
  0
LINE
  5
456
100
AcDbEntity
  8
0
100
AcDbLine
 62
7
  6
CONTINUOUS
 10
13.5172265836
 20
10.8089557847
 11
15.2888801269
 21
10.8089557847
  0
LINE
  5
457
100
AcDbEntity
  8
0
100
AcDbLine
 62
7
  6
CONTINUOUS
 10
3.100335886
 20
6.4782471232
 11
4.8719894293
 21
6.4782471232
  0
LINE
  5
458
100
AcDbEntity
  8
0
100
AcDbLine
 62
7
  6
CONTINUOUS
 10
4.2784854923
 20
6.4853337374
 11
3.693839823
 21
6.4853337374
  0
LINE
  5
459
100
AcDbEntity
  8
0
100
AcDbLine
 62
7
  6
CONTINUOUS
 10
3.6865563584
 20
6.5648612965
 11
3.6908870671
 21
6.5648612965
  0
LINE
  5
45A
100
AcDbEntity
  8
0
100
AcDbLine
 62
7
  6
CONTINUOUS
 10
4.2814382482
 20
6.5648612965
 11
4.2857689568
 21
6.5648612965
  0
LINE
  5
45B
100
AcDbEntity
  8
0
100
AcDbLine
 62
7
  6
CONTINUOUS
 10
3.6247453348
 20
6.5668298004
 11
3.6865563584
 21
6.5668298004
  0
LINE
  5
45C
100
AcDbEntity
  8
0
100
AcDbLine
 62
7
  6
CONTINUOUS
 10
4.2857689568
 20
6.5668298004
 11
4.3475799805
 21
6.5668298004
  0
LINE
  5
45D
100
AcDbEntity
  8
0
100
AcDbLine
 62
7
  6
CONTINUOUS
 10
4.3316350986
 20
6.5778534225
 11
4.2784854923
 21
6.5778534225
  0
LINE
  5
45E
100
AcDbEntity
  8
0
100
AcDbLine
 62
7
  6
CONTINUOUS
 10
3.693839823
 20
6.5778534225
 11
3.6406902167
 21
6.5778534225
  0
LINE
  5
45F
100
AcDbEntity
  8
0
100
AcDbLine
 62
7
  6
CONTINUOUS
 10
3.6247453348
 20
6.6002943673
 11
3.6406902167
 21
6.6002943673
  0
LINE
  5
460
100
AcDbEntity
  8
0
100
AcDbLine
 62
7
  6
CONTINUOUS
 10
4.3316350986
 20
6.6002943673
 11
4.3475799805
 21
6.6002943673
  0
LINE
  5
461
100
AcDbEntity
  8
0
100
AcDbLine
 62
7
  6
CONTINUOUS
 10
3.6247453348
 20
6.6223416114
 11
3.6406902167
 21
6.6223416114
  0
LINE
  5
462
100
AcDbEntity
  8
0
100
AcDbLine
 62
7
  6
CONTINUOUS
 10
4.3316350986
 20
6.6223416114
 11
4.3475799805
 21
6.6223416114
  0
LINE
  5
463
100
AcDbEntity
  8
0
100
AcDbLine
 62
7
  6
CONTINUOUS
 10
3.6247453348
 20
6.6672235012
 11
4.3475799805
 21
6.6672235012
  0
LINE
  5
464
100
AcDbEntity
  8
0
100
AcDbLine
 62
7
  6
CONTINUOUS
 10
3.8893122639
 20
6.737443767
 11
4.0830130513
 21
6.737443767
  0
LINE
  5
465
100
AcDbEntity
  8
0
100
AcDbLine
 62
7
  6
CONTINUOUS
 10
3.8893122639
 20
6.8091610535
 11
4.0830130513
 21
6.8091610535
  0
LINE
  5
466
100
AcDbEntity
  8
0
100
AcDbLine
 62
7
  6
CONTINUOUS
 10
3.3570287994
 20
9.9502943673
 11
3.3897059647
 21
9.9829715327
  0
LINE
  5
467
100
AcDbEntity
  8
0
100
AcDbLine
 62
7
  6
CONTINUOUS
 10
3.5877374608
 20
9.9502943673
 11
3.6204146261
 21
9.9829715327
  0
LINE
  5
468
100
AcDbEntity
  8
0
100
AcDbLine
 62
7
  6
CONTINUOUS
 10
3.4617532088
 20
9.7810030288
 11
3.4290760435
 21
9.7483258634
  0
LINE
  5
469
100
AcDbEntity
  8
0
100
AcDbLine
 62
7
  6
CONTINUOUS
 10
3.8184461222
 20
9.9502943673
 11
3.8511232876
 21
9.9829715327
  0
LINE
  5
46A
100
AcDbEntity
  8
0
100
AcDbLine
 62
7
  6
CONTINUOUS
 10
3.6924618702
 20
9.7810030288
 11
3.6597847049
 21
9.7483258634
  0
LINE
  5
46B
100
AcDbEntity
  8
0
100
AcDbLine
 62
7
  6
CONTINUOUS
 10
3.8893122639
 20
7.597144761
 11
4.0830130513
 21
7.597144761
  0
LINE
  5
46C
100
AcDbEntity
  8
0
100
AcDbLine
 62
7
  6
CONTINUOUS
 10
3.100335886
 20
10.8089557847
 11
3.100335886
 21
6.4782471232
  0
LINE
  5
46D
100
AcDbEntity
  8
0
100
AcDbLine
 62
7
  6
CONTINUOUS
 10
3.1593910041
 20
10.8089557847
 11
3.1593910041
 21
6.4782471232
  0
LINE
  5
46E
100
AcDbEntity
  8
0
100
AcDbLine
 62
7
  6
CONTINUOUS
 10
3.1987610828
 20
10.8089557847
 11
3.1987610828
 21
9.6396644461
  0
LINE
  5
46F
100
AcDbEntity
  8
0
100
AcDbLine
 62
7
  6
CONTINUOUS
 10
3.2046665946
 20
9.6475384618
 11
3.2046665946
 21
10.8089557847
  0
LINE
  5
470
100
AcDbEntity
  8
0
100
AcDbLine
 62
7
  6
CONTINUOUS
 10
4.0491547836
 20
9.9502943673
 11
4.081831949
 21
9.9829715327
  0
LINE
  5
471
100
AcDbEntity
  8
0
100
AcDbLine
 62
7
  6
CONTINUOUS
 10
3.9231705316
 20
9.7810030288
 11
3.8904933663
 21
9.7483258634
  0
LINE
  5
472
100
AcDbEntity
  8
0
100
AcDbLine
 62
7
  6
CONTINUOUS
 10
3.2310445474
 20
9.7483258634
 11
3.2310445474
 21
9.9829715327
  0
LINE
  5
473
100
AcDbEntity
  8
0
100
AcDbLine
 62
7
  6
CONTINUOUS
 10
3.2749421852
 20
10.5924203516
 11
3.2749421852
 21
10.1396644461
  0
LINE
  5
474
100
AcDbEntity
  8
0
100
AcDbLine
 62
7
  6
CONTINUOUS
 10
3.3570287994
 20
9.9502943673
 11
3.3570287994
 21
9.7810030288
  0
LINE
  5
475
100
AcDbEntity
  8
0
100
AcDbLine
 62
7
  6
CONTINUOUS
 10
4.279863445
 20
9.9502943673
 11
4.3125406104
 21
9.9829715327
  0
LINE
  5
476
100
AcDbEntity
  8
0
100
AcDbLine
 62
7
  6
CONTINUOUS
 10
4.1538791931
 20
9.7810030288
 11
4.1212020277
 21
9.7483258634
  0
LINE
  5
477
100
AcDbEntity
  8
0
100
AcDbLine
 62
7
  6
CONTINUOUS
 10
3.3897059647
 20
9.9829715327
 11
3.3897059647
 21
9.7483258634
  0
LINE
  5
478
100
AcDbEntity
  8
0
100
AcDbLine
 62
7
  6
CONTINUOUS
 10
3.4290760435
 20
9.7483258634
 11
3.4290760435
 21
9.9829715327
  0
LINE
  5
479
100
AcDbEntity
  8
0
100
AcDbLine
 62
7
  6
CONTINUOUS
 10
3.4617532088
 20
9.7810030288
 11
3.4617532088
 21
9.9502943673
  0
LINE
  5
47A
100
AcDbEntity
  8
0
100
AcDbLine
 62
7
  6
CONTINUOUS
 10
4.5105721065
 20
9.9502943673
 11
4.5432492718
 21
9.9829715327
  0
LINE
  5
47B
100
AcDbEntity
  8
0
100
AcDbLine
 62
7
  6
CONTINUOUS
 10
4.3845878545
 20
9.7810030288
 11
4.3519106891
 21
9.7483258634
  0
LINE
  5
47C
100
AcDbEntity
  8
0
100
AcDbLine
 62
7
  6
CONTINUOUS
 10
3.5877374608
 20
9.9502943673
 11
3.5877374608
 21
9.7810030288
  0
LINE
  5
47D
100
AcDbEntity
  8
0
100
AcDbLine
 62
7
  6
CONTINUOUS
 10
3.6204146261
 20
9.9829715327
 11
3.6204146261
 21
9.7483258634
  0
LINE
  5
47E
100
AcDbEntity
  8
0
100
AcDbLine
 62
7
  6
CONTINUOUS
 10
3.6247453348
 20
6.6672235012
 11
3.6247453348
 21
6.5668298004
  0
LINE
  5
47F
100
AcDbEntity
  8
0
100
AcDbLine
 62
7
  6
CONTINUOUS
 10
3.6406902167
 20
6.6672235012
 11
3.6406902167
 21
6.5778534225
  0
LINE
  5
480
100
AcDbEntity
  8
0
100
AcDbLine
 62
7
  6
CONTINUOUS
 10
3.6597847049
 20
9.7483258634
 11
3.6597847049
 21
9.9829715327
  0
LINE
  5
481
100
AcDbEntity
  8
0
100
AcDbLine
 62
7
  6
CONTINUOUS
 10
3.6800602954
 20
6.6672235012
 11
3.6800602954
 21
6.5778534225
  0
LINE
  5
482
100
AcDbEntity
  8
0
100
AcDbLine
 62
7
  6
CONTINUOUS
 10
3.6865563584
 20
6.4782471232
 11
3.6865563584
 21
6.5668298004
  0
LINE
  5
483
100
AcDbEntity
  8
0
100
AcDbLine
 62
7
  6
CONTINUOUS
 10
3.6908870671
 20
6.5778534225
 11
3.6908870671
 21
6.4782471232
  0
LINE
  5
484
100
AcDbEntity
  8
0
100
AcDbLine
 62
7
  6
CONTINUOUS
 10
3.6924618702
 20
9.7810030288
 11
3.6924618702
 21
9.9502943673
  0
LINE
  5
485
100
AcDbEntity
  8
0
100
AcDbLine
 62
7
  6
CONTINUOUS
 10
3.693839823
 20
6.4853337374
 11
3.693839823
 21
6.5778534225
  0
LINE
  5
486
100
AcDbEntity
  8
0
100
AcDbLine
 62
7
  6
CONTINUOUS
 10
4.6152965159
 20
9.7810030288
 11
4.5826193505
 21
9.7483258634
  0
LINE
  5
487
100
AcDbEntity
  8
0
100
AcDbLine
 62
7
  6
CONTINUOUS
 10
3.8184461222
 20
9.9502943673
 11
3.8184461222
 21
9.7810030288
  0
LINE
  5
488
100
AcDbEntity
  8
0
100
AcDbLine
 62
7
  6
CONTINUOUS
 10
3.8511232876
 20
9.9829715327
 11
3.8511232876
 21
9.7483258634
  0
LINE
  5
489
100
AcDbEntity
  8
0
100
AcDbLine
 62
7
  6
CONTINUOUS
 10
3.8893122639
 20
6.6672235012
 11
3.8893122639
 21
7.597144761
  0
LINE
  5
48A
100
AcDbEntity
  8
0
100
AcDbLine
 62
7
  6
CONTINUOUS
 10
3.8904933663
 20
9.7483258634
 11
3.8904933663
 21
9.9829715327
  0
LINE
  5
48B
100
AcDbEntity
  8
0
100
AcDbLine
 62
7
  6
CONTINUOUS
 10
3.9231705316
 20
9.7810030288
 11
3.9231705316
 21
9.9502943673
  0
LINE
  5
48C
100
AcDbEntity
  8
DATUM_CURVES
100
AcDbLine
 62
7
  6
CONTINUOUS
 10
3.9861626576
 20
6.6672235012
 11
3.9861626576
 21
7.597144761
  0
LINE
  5
48D
100
AcDbEntity
  8
0
100
AcDbLine
 62
7
  6
CONTINUOUS
 10
4.0491547836
 20
9.9502943673
 11
4.0491547836
 21
9.7810030288
  0
LINE
  5
48E
100
AcDbEntity
  8
0
100
AcDbLine
 62
7
  6
CONTINUOUS
 10
4.081831949
 20
9.9829715327
 11
4.081831949
 21
9.7483258634
  0
LINE
  5
48F
100
AcDbEntity
  8
0
100
AcDbLine
 62
7
  6
CONTINUOUS
 10
4.0830130513
 20
6.6672235012
 11
4.0830130513
 21
7.597144761
  0
LINE
  5
490
100
AcDbEntity
  8
0
100
AcDbLine
 62
7
  6
CONTINUOUS
 10
4.1212020277
 20
9.7483258634
 11
4.1212020277
 21
9.9829715327
  0
LINE
  5
491
100
AcDbEntity
  8
0
100
AcDbLine
 62
7
  6
CONTINUOUS
 10
4.1538791931
 20
9.7810030288
 11
4.1538791931
 21
9.9502943673
  0
LINE
  5
492
100
AcDbEntity
  8
0
100
AcDbLine
 62
7
  6
CONTINUOUS
 10
4.2784854923
 20
6.5778534225
 11
4.2784854923
 21
6.4853337374
  0
LINE
  5
493
100
AcDbEntity
  8
0
100
AcDbLine
 62
7
  6
CONTINUOUS
 10
4.279863445
 20
9.9502943673
 11
4.279863445
 21
9.7810030288
  0
LINE
  5
494
100
AcDbEntity
  8
0
100
AcDbLine
 62
7
  6
CONTINUOUS
 10
4.2814382482
 20
6.5778534225
 11
4.2814382482
 21
6.4782471232
  0
LINE
  5
495
100
AcDbEntity
  8
0
100
AcDbLine
 62
7
  6
CONTINUOUS
 10
4.2857689568
 20
6.4782471232
 11
4.2857689568
 21
6.5668298004
  0
LINE
  5
496
100
AcDbEntity
  8
0
100
AcDbLine
 62
7
  6
CONTINUOUS
 10
4.2922650198
 20
6.5778534225
 11
4.2922650198
 21
6.6672235012
  0
LINE
  5
497
100
AcDbEntity
  8
0
100
AcDbLine
 62
7
  6
CONTINUOUS
 10
4.3125406104
 20
9.9829715327
 11
4.3125406104
 21
9.7483258634
  0
LINE
  5
498
100
AcDbEntity
  8
0
100
AcDbLine
 62
7
  6
CONTINUOUS
 10
4.3316350986
 20
6.5778534225
 11
4.3316350986
 21
6.6672235012
  0
LINE
  5
499
100
AcDbEntity
  8
0
100
AcDbLine
 62
7
  6
CONTINUOUS
 10
4.3475799805
 20
6.5668298004
 11
4.3475799805
 21
6.6672235012
  0
LINE
  5
49A
100
AcDbEntity
  8
0
100
AcDbLine
 62
7
  6
CONTINUOUS
 10
4.3519106891
 20
9.7483258634
 11
4.3519106891
 21
9.9829715327
  0
LINE
  5
49B
100
AcDbEntity
  8
0
100
AcDbLine
 62
7
  6
CONTINUOUS
 10
4.3845878545
 20
9.7810030288
 11
4.3845878545
 21
9.9502943673
  0
LINE
  5
49C
100
AcDbEntity
  8
0
100
AcDbLine
 62
7
  6
CONTINUOUS
 10
3.3570287994
 20
9.7810030288
 11
3.3897059647
 21
9.7483258634
  0
LINE
  5
49D
100
AcDbEntity
  8
0
100
AcDbLine
 62
7
  6
CONTINUOUS
 10
4.5105721065
 20
9.9502943673
 11
4.5105721065
 21
9.7810030288
  0
LINE
  5
49E
100
AcDbEntity
  8
0
100
AcDbLine
 62
7
  6
CONTINUOUS
 10
4.5432492718
 20
9.9829715327
 11
4.5432492718
 21
9.7483258634
  0
LINE
  5
49F
100
AcDbEntity
  8
0
100
AcDbLine
 62
7
  6
CONTINUOUS
 10
4.5826193505
 20
9.7483258634
 11
4.5826193505
 21
9.9829715327
  0
LINE
  5
4A0
100
AcDbEntity
  8
0
100
AcDbLine
 62
7
  6
CONTINUOUS
 10
4.6152965159
 20
9.7810030288
 11
4.6152965159
 21
9.9502943673
  0
LINE
  5
4A1
100
AcDbEntity
  8
0
100
AcDbLine
 62
7
  6
CONTINUOUS
 10
3.5877374608
 20
9.7810030288
 11
3.6204146261
 21
9.7483258634
  0
LINE
  5
4A2
100
AcDbEntity
  8
0
100
AcDbLine
 62
7
  6
CONTINUOUS
 10
3.4617532088
 20
9.9502943673
 11
3.4290760435
 21
9.9829715327
  0
LINE
  5
4A3
100
AcDbEntity
  8
0
100
AcDbLine
 62
7
  6
CONTINUOUS
 10
4.6973831301
 20
10.1396644461
 11
4.6973831301
 21
10.5924203516
  0
LINE
  5
4A4
100
AcDbEntity
  8
0
100
AcDbLine
 62
7
  6
CONTINUOUS
 10
4.7412807679
 20
9.9829715327
 11
4.7412807679
 21
9.7483258634
  0
LINE
  5
4A5
100
AcDbEntity
  8
0
100
AcDbLine
 62
7
  6
CONTINUOUS
 10
4.7676587206
 20
10.8089557847
 11
4.7676587206
 21
9.6475384618
  0
LINE
  5
4A6
100
AcDbEntity
  8
0
100
AcDbLine
 62
7
  6
CONTINUOUS
 10
4.7735642324
 20
10.8089557847
 11
4.7735642324
 21
9.6396644461
  0
LINE
  5
4A7
100
AcDbEntity
  8
0
100
AcDbLine
 62
7
  6
CONTINUOUS
 10
3.8184461222
 20
9.7810030288
 11
3.8511232876
 21
9.7483258634
  0
LINE
  5
4A8
100
AcDbEntity
  8
0
100
AcDbLine
 62
7
  6
CONTINUOUS
 10
3.6924618702
 20
9.9502943673
 11
3.6597847049
 21
9.9829715327
  0
LINE
  5
4A9
100
AcDbEntity
  8
0
100
AcDbLine
 62
7
  6
CONTINUOUS
 10
4.8129343112
 20
10.8089557847
 11
4.8129343112
 21
6.4782471232
  0
LINE
  5
4AA
100
AcDbEntity
  8
0
100
AcDbLine
 62
7
  6
CONTINUOUS
 10
4.8719894293
 20
10.8089557847
 11
4.8719894293
 21
6.4782471232
  0
LINE
  5
4AB
100
AcDbEntity
  8
0
100
AcDbLine
 62
7
  6
CONTINUOUS
 10
4.0491547836
 20
9.7810030288
 11
4.081831949
 21
9.7483258634
  0
LINE
  5
4AC
100
AcDbEntity
  8
0
100
AcDbLine
 62
7
  6
CONTINUOUS
 10
3.9231705316
 20
9.9502943673
 11
3.8904933663
 21
9.9829715327
  0
LINE
  5
4AD
100
AcDbEntity
  8
0
100
AcDbLine
 62
7
  6
CONTINUOUS
 10
3.1987610828
 20
9.6396644461
 11
4.7735642324
 21
9.6396644461
  0
LINE
  5
4AE
100
AcDbEntity
  8
0
100
AcDbLine
 62
7
  6
CONTINUOUS
 10
4.7676587206
 20
9.6475384618
 11
3.2046665946
 21
9.6475384618
  0
LINE
  5
4AF
100
AcDbEntity
  8
0
100
AcDbLine
 62
7
  6
CONTINUOUS
 10
4.7412807679
 20
9.7483258634
 11
4.5826193505
 21
9.7483258634
  0
LINE
  5
4B0
100
AcDbEntity
  8
0
100
AcDbLine
 62
7
  6
CONTINUOUS
 10
4.5432492718
 20
9.7483258634
 11
4.3519106891
 21
9.7483258634
  0
LINE
  5
4B1
100
AcDbEntity
  8
0
100
AcDbLine
 62
7
  6
CONTINUOUS
 10
4.3125406104
 20
9.7483258634
 11
4.1212020277
 21
9.7483258634
  0
LINE
  5
4B2
100
AcDbEntity
  8
0
100
AcDbLine
 62
7
  6
CONTINUOUS
 10
4.081831949
 20
9.7483258634
 11
3.8904933663
 21
9.7483258634
  0
LINE
  5
4B3
100
AcDbEntity
  8
0
100
AcDbLine
 62
7
  6
CONTINUOUS
 10
3.8511232876
 20
9.7483258634
 11
3.6597847049
 21
9.7483258634
  0
LINE
  5
4B4
100
AcDbEntity
  8
0
100
AcDbLine
 62
7
  6
CONTINUOUS
 10
3.6204146261
 20
9.7483258634
 11
3.4290760435
 21
9.7483258634
  0
LINE
  5
4B5
100
AcDbEntity
  8
0
100
AcDbLine
 62
7
  6
CONTINUOUS
 10
3.3897059647
 20
9.7483258634
 11
3.2310445474
 21
9.7483258634
  0
LINE
  5
4B6
100
AcDbEntity
  8
0
100
AcDbLine
 62
7
  6
CONTINUOUS
 10
4.279863445
 20
9.7810030288
 11
4.3125406104
 21
9.7483258634
  0
LINE
  5
4B7
100
AcDbEntity
  8
0
100
AcDbLine
 62
7
  6
CONTINUOUS
 10
4.1538791931
 20
9.9502943673
 11
4.1212020277
 21
9.9829715327
  0
LINE
  5
4B8
100
AcDbEntity
  8
0
100
AcDbLine
 62
7
  6
CONTINUOUS
 10
4.7412807679
 20
9.7810030288
 11
4.6152965159
 21
9.7810030288
  0
LINE
  5
4B9
100
AcDbEntity
  8
0
100
AcDbLine
 62
7
  6
CONTINUOUS
 10
4.5105721065
 20
9.7810030288
 11
4.3845878545
 21
9.7810030288
  0
LINE
  5
4BA
100
AcDbEntity
  8
0
100
AcDbLine
 62
7
  6
CONTINUOUS
 10
4.279863445
 20
9.7810030288
 11
4.1538791931
 21
9.7810030288
  0
LINE
  5
4BB
100
AcDbEntity
  8
0
100
AcDbLine
 62
7
  6
CONTINUOUS
 10
4.0491547836
 20
9.7810030288
 11
3.9231705316
 21
9.7810030288
  0
LINE
  5
4BC
100
AcDbEntity
  8
0
100
AcDbLine
 62
7
  6
CONTINUOUS
 10
3.8184461222
 20
9.7810030288
 11
3.6924618702
 21
9.7810030288
  0
LINE
  5
4BD
100
AcDbEntity
  8
0
100
AcDbLine
 62
7
  6
CONTINUOUS
 10
3.5877374608
 20
9.7810030288
 11
3.4617532088
 21
9.7810030288
  0
LINE
  5
4BE
100
AcDbEntity
  8
0
100
AcDbLine
 62
7
  6
CONTINUOUS
 10
3.3570287994
 20
9.7810030288
 11
3.2310445474
 21
9.7810030288
  0
LINE
  5
4BF
100
AcDbEntity
  8
0
100
AcDbLine
 62
7
  6
CONTINUOUS
 10
4.5105721065
 20
9.7810030288
 11
4.5432492718
 21
9.7483258634
  0
LINE
  5
4C0
100
AcDbEntity
  8
0
100
AcDbLine
 62
7
  6
CONTINUOUS
 10
4.3845878545
 20
9.9502943673
 11
4.3519106891
 21
9.9829715327
  0
LINE
  5
4C1
100
AcDbEntity
  8
0
100
AcDbLine
 62
7
  6
CONTINUOUS
 10
3.2310445474
 20
9.9502943673
 11
3.3570287994
 21
9.9502943673
  0
LINE
  5
4C2
100
AcDbEntity
  8
0
100
AcDbLine
 62
7
  6
CONTINUOUS
 10
3.4617532088
 20
9.9502943673
 11
3.5877374608
 21
9.9502943673
  0
LINE
  5
4C3
100
AcDbEntity
  8
0
100
AcDbLine
 62
7
  6
CONTINUOUS
 10
3.6924618702
 20
9.9502943673
 11
3.8184461222
 21
9.9502943673
  0
LINE
  5
4C4
100
AcDbEntity
  8
0
100
AcDbLine
 62
7
  6
CONTINUOUS
 10
3.9231705316
 20
9.9502943673
 11
4.0491547836
 21
9.9502943673
  0
LINE
  5
4C5
100
AcDbEntity
  8
0
100
AcDbLine
 62
7
  6
CONTINUOUS
 10
4.1538791931
 20
9.9502943673
 11
4.279863445
 21
9.9502943673
  0
LINE
  5
4C6
100
AcDbEntity
  8
0
100
AcDbLine
 62
7
  6
CONTINUOUS
 10
4.3845878545
 20
9.9502943673
 11
4.5105721065
 21
9.9502943673
  0
LINE
  5
4C7
100
AcDbEntity
  8
0
100
AcDbLine
 62
7
  6
CONTINUOUS
 10
4.6152965159
 20
9.9502943673
 11
4.7412807679
 21
9.9502943673
  0
LINE
  5
4C8
100
AcDbEntity
  8
0
100
AcDbLine
 62
7
  6
CONTINUOUS
 10
3.2310445474
 20
9.9829715327
 11
3.3897059647
 21
9.9829715327
  0
LINE
  5
4C9
100
AcDbEntity
  8
0
100
AcDbLine
 62
7
  6
CONTINUOUS
 10
3.4290760435
 20
9.9829715327
 11
3.6204146261
 21
9.9829715327
  0
LINE
  5
4CA
100
AcDbEntity
  8
0
100
AcDbLine
 62
7
  6
CONTINUOUS
 10
3.6597847049
 20
9.9829715327
 11
3.8511232876
 21
9.9829715327
  0
LINE
  5
4CB
100
AcDbEntity
  8
0
100
AcDbLine
 62
7
  6
CONTINUOUS
 10
3.8904933663
 20
9.9829715327
 11
4.081831949
 21
9.9829715327
  0
LINE
  5
4CC
100
AcDbEntity
  8
0
100
AcDbLine
 62
7
  6
CONTINUOUS
 10
4.1212020277
 20
9.9829715327
 11
4.3125406104
 21
9.9829715327
  0
LINE
  5
4CD
100
AcDbEntity
  8
0
100
AcDbLine
 62
7
  6
CONTINUOUS
 10
4.3519106891
 20
9.9829715327
 11
4.5432492718
 21
9.9829715327
  0
LINE
  5
4CE
100
AcDbEntity
  8
0
100
AcDbLine
 62
7
  6
CONTINUOUS
 10
4.5826193505
 20
9.9829715327
 11
4.7412807679
 21
9.9829715327
  0
LINE
  5
4CF
100
AcDbEntity
  8
0
100
AcDbLine
 62
7
  6
CONTINUOUS
 10
4.6152965159
 20
9.9502943673
 11
4.5826193505
 21
9.9829715327
  0
LINE
  5
4D0
100
AcDbEntity
  8
0
100
AcDbLine
 62
7
  6
CONTINUOUS
 10
3.2946272246
 20
10.1199794067
 11
4.6776980907
 21
10.1199794067
  0
LINE
  5
4D1
100
AcDbEntity
  8
0
100
AcDbLine
 62
7
  6
CONTINUOUS
 10
4.6776980907
 20
10.612105391
 11
3.2946272246
 21
10.612105391
  0
LINE
  5
4D2
100
AcDbEntity
  8
0
100
AcDbLine
 62
7
  6
CONTINUOUS
 10
4.7676587206
 20
10.7695857059
 11
3.2046665946
 21
10.7695857059
  0
LINE
  5
4D3
100
AcDbEntity
  8
0
100
AcDbLine
 62
7
  6
CONTINUOUS
 10
3.100335886
 20
10.8089557847
 11
4.8719894293
 21
10.8089557847
  0
LINE
  5
4D4
100
AcDbEntity
  8
0
100
AcDbLine
 62
7
  6
CONTINUOUS
 10
7.6876540209
 20
2.5839145044
 11
7.6876540209
 21
4.2374578114
  0
LINE
  5
4D5
100
AcDbEntity
  8
AXIS
100
AcDbLine
 62
7
  6
CONTINUOUS
 10
7.7439532335
 20
4.2374578114
 11
7.7439532335
 21
3.8224971815
  0
LINE
  5
4D6
100
AcDbEntity
  8
AXIS
100
AcDbLine
 62
7
  6
CONTINUOUS
 10
7.7439532335
 20
2.9988751343
 11
7.7439532335
 21
2.5839145044
  0
LINE
  5
4D7
100
AcDbEntity
  8
0
100
AcDbLine
 62
7
  6
CONTINUOUS
 10
7.8207248871
 20
3.7102924571
 11
7.8207248871
 21
3.1110798587
  0
LINE
  5
4D8
100
AcDbEntity
  8
0
100
AcDbLine
 62
7
  6
CONTINUOUS
 10
7.8679689816
 20
3.3043869453
 11
7.8679689816
 21
3.5169853705
  0
LINE
  5
4D9
100
AcDbEntity
  8
0
100
AcDbLine
 62
7
  6
CONTINUOUS
 10
7.898793619
 20
3.3138357642
 11
7.898793619
 21
3.5075365516
  0
LINE
  5
4DA
100
AcDbEntity
  8
0
100
AcDbLine
 62
7
  6
CONTINUOUS
 10
7.9285989028
 20
3.5169853705
 11
7.9285989028
 21
3.3043869453
  0
LINE
  5
4DB
100
AcDbEntity
  8
0
100
AcDbLine
 62
7
  6
CONTINUOUS
 10
7.9632445721
 20
3.2165916697
 11
7.9632445721
 21
3.6047806461
  0
LINE
  5
4DC
100
AcDbEntity
  8
AXIS
100
AcDbLine
 62
7
  6
CONTINUOUS
 10
7.9876540209
 20
3.3319460004
 11
7.9876540209
 21
3.3870641107
  0
LINE
  5
4DD
100
AcDbEntity
  8
AXIS
100
AcDbLine
 62
7
  6
CONTINUOUS
 10
8.0348981154
 20
3.3910011185
 11
8.0348981154
 21
3.3319460004
  0
LINE
  5
4DE
100
AcDbEntity
  8
0
100
AcDbLine
 62
7
  6
CONTINUOUS
 10
8.0754492965
 20
3.3138357642
 11
8.0754492965
 21
3.5075365516
  0
LINE
  5
4DF
100
AcDbEntity
  8
AXIS
100
AcDbLine
 62
7
  6
CONTINUOUS
 10
8.1719059894
 20
3.3319460004
 11
8.1719059894
 21
3.3563465346
  0
LINE
  5
4E0
100
AcDbEntity
  8
AXIS
100
AcDbLine
 62
7
  6
CONTINUOUS
 10
8.1719059894
 20
3.4650257812
 11
8.1719059894
 21
3.4894263154
  0
LINE
  5
4E1
100
AcDbEntity
  8
AXIS
100
AcDbLine
 62
7
  6
CONTINUOUS
 10
8.2191500839
 20
3.4894263154
 11
8.2191500839
 21
3.4650257812
  0
LINE
  5
4E2
100
AcDbEntity
  8
AXIS
100
AcDbLine
 62
7
  6
CONTINUOUS
 10
8.2191500839
 20
3.3563465346
 11
8.2191500839
 21
3.3319460004
  0
LINE
  5
4E3
100
AcDbEntity
  8
AXIS
100
AcDbLine
 62
7
  6
CONTINUOUS
 10
8.3561579579
 20
3.4303711973
 11
8.3561579579
 21
3.4894263154
  0
LINE
  5
4E4
100
AcDbEntity
  8
AXIS
100
AcDbLine
 62
7
  6
CONTINUOUS
 10
8.3738744934
 20
2.5839145044
 11
8.3738744934
 21
2.9988751343
  0
LINE
  5
4E5
100
AcDbEntity
  8
AXIS
100
AcDbLine
 62
7
  6
CONTINUOUS
 10
8.3738744934
 20
3.8224971815
 11
8.3738744934
 21
4.2374578114
  0
LINE
  5
4E6
100
AcDbEntity
  8
0
100
AcDbLine
 62
7
  6
CONTINUOUS
 10
7.746709139
 20
2.5248593862
 11
10.5813548083
 21
2.5248593862
  0
LINE
  5
4E7
100
AcDbEntity
  8
AXIS
100
AcDbLine
 62
7
  6
CONTINUOUS
 10
7.7439532335
 20
2.5839145044
 11
8.3738744934
 21
2.5839145044
  0
LINE
  5
4E8
100
AcDbEntity
  8
0
100
AcDbLine
 62
7
  6
CONTINUOUS
 10
9.9329296115
 20
2.5839145044
 11
10.5841107138
 21
2.5839145044
  0
LINE
  5
4E9
100
AcDbEntity
  8
AXIS
100
AcDbLine
 62
7
  6
CONTINUOUS
 10
8.4034020524
 20
3.4894263154
 11
8.4034020524
 21
3.4343082051
  0
LINE
  5
4EA
100
AcDbEntity
  8
0
100
AcDbLine
 62
7
  6
CONTINUOUS
 10
8.4278115012
 20
3.6047806461
 11
8.4278115012
 21
3.2165916697
  0
LINE
  5
4EB
100
AcDbEntity
  8
0
100
AcDbLine
 62
7
  6
CONTINUOUS
 10
8.4534020524
 20
2.5248593862
 11
8.4534020524
 21
3.1110798587
  0
LINE
  5
4EC
100
AcDbEntity
  8
0
100
AcDbLine
 62
7
  6
CONTINUOUS
 10
8.4534020524
 20
3.7102924571
 11
8.4534020524
 21
4.2965129295
  0
LINE
  5
4ED
100
AcDbEntity
  8
0
100
AcDbLine
 62
7
  6
CONTINUOUS
 10
8.4789547478
 20
3.0492688351
 11
8.4789547478
 21
3.1110798587
  0
LINE
  5
4EE
100
AcDbEntity
  8
0
100
AcDbLine
 62
7
  6
CONTINUOUS
 10
8.4789547478
 20
3.7102924571
 11
8.4789547478
 21
3.7721034807
  0
LINE
  5
4EF
100
AcDbEntity
  8
0
100
AcDbLine
 62
7
  6
CONTINUOUS
 10
8.4829296115
 20
4.2965129295
 11
8.4829296115
 21
3.7721034807
  0
LINE
  5
4F0
100
AcDbEntity
  8
0
100
AcDbLine
 62
7
  6
CONTINUOUS
 10
8.4829296115
 20
3.0492688351
 11
8.4829296115
 21
2.5248593862
  0
LINE
  5
4F1
100
AcDbEntity
  8
0
100
AcDbLine
 62
7
  6
CONTINUOUS
 10
8.4900162257
 20
3.1183633232
 11
8.4900162257
 21
3.7030089925
  0
LINE
  5
4F2
100
AcDbEntity
  8
0
100
AcDbLine
 62
7
  6
CONTINUOUS
 10
8.5498628751
 20
3.0753607085
 11
8.5498628751
 21
3.1183633232
  0
LINE
  5
4F3
100
AcDbEntity
  8
0
100
AcDbLine
 62
7
  6
CONTINUOUS
 10
8.5498628751
 20
3.7030089925
 11
8.5498628751
 21
3.7460116073
  0
LINE
  5
4F4
100
AcDbEntity
  8
0
100
AcDbLine
 62
7
  6
CONTINUOUS
 10
8.5628508713
 20
3.1045837957
 11
8.5628508713
 21
3.7167885201
  0
LINE
  5
4F5
100
AcDbEntity
  8
AXIS
100
AcDbLine
 62
7
  6
CONTINUOUS
 10
8.3738744934
 20
2.9988751343
 11
7.7439532335
 21
2.9988751343
  0
LINE
  5
4F6
100
AcDbEntity
  8
0
100
AcDbLine
 62
7
  6
CONTINUOUS
 10
8.4829296115
 20
3.0492688351
 11
8.4789547478
 21
3.0492688351
  0
LINE
  5
4F7
100
AcDbEntity
  8
0
100
AcDbLine
 62
7
  6
CONTINUOUS
 10
8.5234807926
 20
3.0652137169
 11
8.4789547478
 21
3.0652137169
  0
LINE
  5
4F8
100
AcDbEntity
  8
0
100
AcDbLine
 62
7
  6
CONTINUOUS
 10
7.6876540209
 20
3.1110798587
 11
8.4789547478
 21
3.1110798587
  0
LINE
  5
4F9
100
AcDbEntity
  8
0
100
AcDbLine
 62
7
  6
CONTINUOUS
 10
9.7959217375
 20
3.1154105673
 11
9.8549768556
 21
3.1154105673
  0
LINE
  5
4FA
100
AcDbEntity
  8
0
100
AcDbLine
 62
7
  6
CONTINUOUS
 10
8.5498628751
 20
3.1183633232
 11
7.8207248871
 21
3.1183633232
  0
LINE
  5
4FB
100
AcDbEntity
  8
0
100
AcDbLine
 62
7
  6
CONTINUOUS
 10
8.3884414225
 20
3.177221591
 11
8.0026146508
 21
3.177221591
  0
LINE
  5
4FC
100
AcDbEntity
  8
0
100
AcDbLine
 62
7
  6
CONTINUOUS
 10
7.9285989028
 20
3.3043869453
 11
7.8679689816
 21
3.3043869453
  0
LINE
  5
4FD
100
AcDbEntity
  8
0
100
AcDbLine
 62
7
  6
CONTINUOUS
 10
7.6876540209
 20
3.3138357642
 11
7.8207248871
 21
3.3138357642
  0
LINE
  5
4FE
100
AcDbEntity
  8
0
100
AcDbLine
 62
7
  6
CONTINUOUS
 10
7.8679689816
 20
3.3138357642
 11
7.9285989028
 21
3.3138357642
  0
LINE
  5
4FF
100
AcDbEntity
  8
0
100
AcDbLine
 62
7
  6
CONTINUOUS
 10
7.9632445721
 20
3.3138357642
 11
7.9893318374
 21
3.3138357642
  0
LINE
  5
500
100
AcDbEntity
  8
0
100
AcDbLine
 62
7
  6
CONTINUOUS
 10
8.0376524869
 20
3.3138357642
 11
8.0754492965
 21
3.3138357642
  0
LINE
  5
501
100
AcDbEntity
  8
AXIS
100
AcDbLine
 62
7
  6
CONTINUOUS
 10
8.4278115012
 20
3.3870641107
 11
8.3994650446
 21
3.3870641107
  0
LINE
  5
502
100
AcDbEntity
  8
AXIS
100
AcDbLine
 62
7
  6
CONTINUOUS
 10
7.9876540209
 20
3.3870641107
 11
7.9632445721
 21
3.3870641107
  0
LINE
  5
503
100
AcDbEntity
  8
DATUM_CURVES
100
AcDbLine
 62
7
  6
CONTINUOUS
 10
8.0754492965
 20
3.4106861579
 11
8.0300593979
 21
3.4106861579
  0
LINE
  5
504
100
AcDbEntity
  8
DATUM_CURVES
100
AcDbLine
 62
7
  6
CONTINUOUS
 10
7.6876540209
 20
3.4106861579
 11
7.8207248871
 21
3.4106861579
  0
LINE
  5
505
100
AcDbEntity
  8
DATUM_CURVES
100
AcDbLine
 62
7
  6
CONTINUOUS
 10
7.8679689816
 20
3.4106861579
 11
7.9285978852
 21
3.4106861579
  0
LINE
  5
506
100
AcDbEntity
  8
AXIS
100
AcDbLine
 62
7
  6
CONTINUOUS
 10
7.9632445721
 20
3.4343082051
 11
7.9915910288
 21
3.4343082051
  0
LINE
  5
507
100
AcDbEntity
  8
AXIS
100
AcDbLine
 62
7
  6
CONTINUOUS
 10
8.4034020524
 20
3.4343082051
 11
8.4278115012
 21
3.4343082051
  0
LINE
  5
508
100
AcDbEntity
  8
0
100
AcDbLine
 62
7
  6
CONTINUOUS
 10
7.6876540209
 20
3.5075365516
 11
7.8207248871
 21
3.5075365516
  0
LINE
  5
509
100
AcDbEntity
  8
0
100
AcDbLine
 62
7
  6
CONTINUOUS
 10
7.8679689816
 20
3.5075365516
 11
7.9285989028
 21
3.5075365516
  0
LINE
  5
50A
100
AcDbEntity
  8
0
100
AcDbLine
 62
7
  6
CONTINUOUS
 10
7.9632445721
 20
3.5075365516
 11
8.0754492965
 21
3.5075365516
  0
LINE
  5
50B
100
AcDbEntity
  8
0
100
AcDbLine
 62
7
  6
CONTINUOUS
 10
7.8679689816
 20
3.5169853705
 11
7.9285989028
 21
3.5169853705
  0
LINE
  5
50C
100
AcDbEntity
  8
0
100
AcDbLine
 62
7
  6
CONTINUOUS
 10
8.0026146508
 20
3.6441507248
 11
8.3884414225
 21
3.6441507248
  0
LINE
  5
50D
100
AcDbEntity
  8
0
100
AcDbLine
 62
7
  6
CONTINUOUS
 10
8.5498628751
 20
3.7030089925
 11
7.8207248871
 21
3.7030089925
  0
LINE
  5
50E
100
AcDbEntity
  8
0
100
AcDbLine
 62
7
  6
CONTINUOUS
 10
9.7959217375
 20
3.7059617484
 11
9.8549768556
 21
3.7059617484
  0
LINE
  5
50F
100
AcDbEntity
  8
0
100
AcDbLine
 62
7
  6
CONTINUOUS
 10
7.6876540209
 20
3.7102924571
 11
8.4789547478
 21
3.7102924571
  0
LINE
  5
510
100
AcDbEntity
  8
0
100
AcDbLine
 62
7
  6
CONTINUOUS
 10
8.5234807926
 20
3.7561585988
 11
8.4789547478
 21
3.7561585988
  0
LINE
  5
511
100
AcDbEntity
  8
0
100
AcDbLine
 62
7
  6
CONTINUOUS
 10
8.4829296115
 20
3.7721034807
 11
8.4789547478
 21
3.7721034807
  0
LINE
  5
512
100
AcDbEntity
  8
AXIS
100
AcDbLine
 62
7
  6
CONTINUOUS
 10
7.7439532335
 20
3.8224971815
 11
8.3738744934
 21
3.8224971815
  0
LINE
  5
513
100
AcDbEntity
  8
0
100
AcDbLine
 62
7
  6
CONTINUOUS
 10
9.7959217375
 20
2.5248593862
 11
9.7959217375
 21
3.1154105673
  0
LINE
  5
514
100
AcDbEntity
  8
0
100
AcDbLine
 62
7
  6
CONTINUOUS
 10
9.7959217375
 20
3.7059617484
 11
9.7959217375
 21
4.2965129295
  0
LINE
  5
515
100
AcDbEntity
  8
0
100
AcDbLine
 62
7
  6
CONTINUOUS
 10
9.8549768556
 20
2.5248593862
 11
9.8549768556
 21
4.2965129295
  0
LINE
  5
516
100
AcDbEntity
  8
0
100
AcDbLine
 62
7
  6
CONTINUOUS
 10
9.9329296115
 20
4.2374578114
 11
9.9329296115
 21
2.5839145044
  0
LINE
  5
517
100
AcDbEntity
  8
0
100
AcDbLine
 62
7
  6
CONTINUOUS
 10
10.5841107138
 20
4.2374578114
 11
9.9329296115
 21
4.2374578114
  0
LINE
  5
518
100
AcDbEntity
  8
AXIS
100
AcDbLine
 62
7
  6
CONTINUOUS
 10
8.3738744934
 20
4.2374578114
 11
7.7439532335
 21
4.2374578114
  0
LINE
  5
519
100
AcDbEntity
  8
0
100
AcDbLine
 62
7
  6
CONTINUOUS
 10
7.746709139
 20
4.2965129295
 11
10.5813548083
 21
4.2965129295
  0
LINE
  5
51A
100
AcDbEntity
  8
0
100
AcDbLine
 62
7
  6
CONTINUOUS
 10
10.5841107138
 20
2.5839145044
 11
10.5841107138
 21
4.2374578114
  0
LINE
  5
51B
100
AcDbEntity
  8
0
100
AcDbLine
 62
7
  6
CONTINUOUS
 10
10.6404099264
 20
4.2374578114
 11
10.6404099264
 21
2.5839145044
  0
LINE
  5
51C
100
AcDbEntity
  8
0
100
AcDbLine
 62
7
  6
CONTINUOUS
 10
7.6876540209
 20
13.0253207544
 11
7.6876540209
 21
14.6788640614
  0
LINE
  5
51D
100
AcDbEntity
  8
0
100
AcDbLine
 62
7
  6
CONTINUOUS
 10
7.7270240997
 20
13.0705963449
 11
7.7270240997
 21
14.6335884709
  0
LINE
  5
51E
100
AcDbEntity
  8
0
100
AcDbLine
 62
7
  6
CONTINUOUS
 10
7.7522209501
 20
14.6837853213
 11
7.7522209501
 21
14.6335884709
  0
LINE
  5
51F
100
AcDbEntity
  8
0
100
AcDbLine
 62
7
  6
CONTINUOUS
 10
7.7522209501
 20
13.0705963449
 11
7.7522209501
 21
13.0203994945
  0
LINE
  5
520
100
AcDbEntity
  8
0
100
AcDbLine
 62
7
  6
CONTINUOUS
 10
7.9056614951
 20
13.1678516011
 11
8.0160001585
 21
13.1163998373
  0
LINE
  5
521
100
AcDbEntity
  8
0
100
AcDbLine
 62
7
  6
CONTINUOUS
 10
8.0813548083
 20
14.4839821717
 11
8.0813548083
 21
13.2202026441
  0
LINE
  5
522
100
AcDbEntity
  8
0
100
AcDbLine
 62
7
  6
CONTINUOUS
 10
8.1026146508
 20
13.2202026441
 11
8.1026146508
 21
14.4839821717
  0
LINE
  5
523
100
AcDbEntity
  8
0
100
AcDbLine
 62
7
  6
CONTINUOUS
 10
8.0326386728
 20
13.1520812462
 11
7.9223000093
 21
13.20353301
  0
LINE
  5
524
100
AcDbEntity
  8
0
100
AcDbLine
 62
7
  6
CONTINUOUS
 10
8.1740713438
 20
13.2202026441
 11
8.1740713438
 21
14.4839821717
  0
LINE
  5
525
100
AcDbEntity
  8
AXIS
100
AcDbLine
 62
7
  6
CONTINUOUS
 10
8.1876540209
 20
14.6837853213
 11
8.1876540209
 21
14.4839821717
  0
LINE
  5
526
100
AcDbEntity
  8
AXIS
100
AcDbLine
 62
7
  6
CONTINUOUS
 10
8.1876540209
 20
13.2202026441
 11
8.1876540209
 21
13.0203994945
  0
LINE
  5
527
100
AcDbEntity
  8
0
100
AcDbLine
 62
7
  6
CONTINUOUS
 10
8.1886165729
 20
13.0223679984
 11
8.1886165729
 21
14.6818168173
  0
LINE
  5
528
100
AcDbEntity
  8
0
100
AcDbLine
 62
7
  6
CONTINUOUS
 10
8.19218158
 20
13.0223679984
 11
8.19218158
 21
14.6818168173
  0
LINE
  5
529
100
AcDbEntity
  8
0
100
AcDbLine
 62
7
  6
CONTINUOUS
 10
7.9056614951
 20
13.3985602625
 11
8.0160001585
 21
13.3471084987
  0
LINE
  5
52A
100
AcDbEntity
  8
0
100
AcDbLine
 62
7
  6
CONTINUOUS
 10
8.0326386728
 20
13.3827899077
 11
7.9223000093
 21
13.4342416714
  0
LINE
  5
52B
100
AcDbEntity
  8
AXIS
100
AcDbLine
 62
7
  6
CONTINUOUS
 10
8.2675752808
 20
14.6837853213
 11
8.2675752808
 21
14.6818168173
  0
LINE
  5
52C
100
AcDbEntity
  8
AXIS
100
AcDbLine
 62
7
  6
CONTINUOUS
 10
8.2675752808
 20
13.0223679984
 11
8.2675752808
 21
13.0203994945
  0
LINE
  5
52D
100
AcDbEntity
  8
0
100
AcDbLine
 62
7
  6
CONTINUOUS
 10
8.3234807926
 20
14.6837853213
 11
8.3234807926
 21
14.6818168173
  0
LINE
  5
52E
100
AcDbEntity
  8
0
100
AcDbLine
 62
7
  6
CONTINUOUS
 10
8.3234807926
 20
13.0203994945
 11
8.3234807926
 21
13.0223679984
  0
LINE
  5
52F
100
AcDbEntity
  8
0
100
AcDbLine
 62
7
  6
CONTINUOUS
 10
7.746709139
 20
12.9662656362
 11
10.5813548083
 21
12.9662656362
  0
LINE
  5
530
100
AcDbEntity
  8
AXIS
100
AcDbLine
 62
7
  6
CONTINUOUS
 10
8.1876540209
 20
13.0203994945
 11
7.7522209501
 21
13.0203994945
  0
LINE
  5
531
100
AcDbEntity
  8
AXIS
100
AcDbLine
 62
7
  6
CONTINUOUS
 10
10.1404099264
 20
13.0203994945
 11
10.5758429973
 21
13.0203994945
  0
LINE
  5
532
100
AcDbEntity
  8
0
100
AcDbLine
 62
7
  6
CONTINUOUS
 10
7.7522209501
 20
13.0203994945
 11
10.5758429973
 21
13.0203994945
  0
LINE
  5
533
100
AcDbEntity
  8
0
100
AcDbLine
 62
7
  6
CONTINUOUS
 10
8.1876540209
 20
13.0223679984
 11
10.1404099264
 21
13.0223679984
  0
LINE
  5
534
100
AcDbEntity
  8
0
100
AcDbLine
 62
7
  6
CONTINUOUS
 10
7.6876540209
 20
13.0646908331
 11
7.7522209501
 21
13.0646908331
  0
LINE
  5
535
100
AcDbEntity
  8
0
100
AcDbLine
 62
7
  6
CONTINUOUS
 10
10.5758429973
 20
13.0646908331
 11
10.6404099264
 21
13.0646908331
  0
LINE
  5
536
100
AcDbEntity
  8
0
100
AcDbLine
 62
7
  6
CONTINUOUS
 10
10.6404099264
 20
13.0705963449
 11
10.5758429973
 21
13.0705963449
  0
LINE
  5
537
100
AcDbEntity
  8
0
100
AcDbLine
 62
7
  6
CONTINUOUS
 10
7.6876540209
 20
13.0705963449
 11
7.7522209501
 21
13.0705963449
  0
LINE
  5
538
100
AcDbEntity
  8
0
100
AcDbLine
 62
7
  6
CONTINUOUS
 10
7.9056614951
 20
13.6292689239
 11
8.0160001585
 21
13.5778171601
  0
LINE
  5
539
100
AcDbEntity
  8
0
100
AcDbLine
 62
7
  6
CONTINUOUS
 10
8.0326386728
 20
13.6134985691
 11
7.9223000093
 21
13.6649503328
  0
LINE
  5
53A
100
AcDbEntity
  8
AXIS
100
AcDbLine
 62
7
  6
CONTINUOUS
 10
8.1876540209
 20
13.2202026441
 11
8.0813548083
 21
13.2202026441
  0
LINE
  5
53B
100
AcDbEntity
  8
AXIS
100
AcDbLine
 62
7
  6
CONTINUOUS
 10
10.1404099264
 20
13.2202026441
 11
10.246709139
 21
13.2202026441
  0
LINE
  5
53C
100
AcDbEntity
  8
0
100
AcDbLine
 62
7
  6
CONTINUOUS
 10
7.9056614951
 20
13.8599775853
 11
8.0160001585
 21
13.8085258215
  0
LINE
  5
53D
100
AcDbEntity
  8
0
100
AcDbLine
 62
7
  6
CONTINUOUS
 10
8.0326386728
 20
13.8442072305
 11
7.9223000093
 21
13.8956589942
  0
LINE
  5
53E
100
AcDbEntity
  8
0
100
AcDbLine
 62
7
  6
CONTINUOUS
 10
7.9056614951
 20
14.0906862467
 11
8.0160001585
 21
14.039234483
  0
LINE
  5
53F
100
AcDbEntity
  8
0
100
AcDbLine
 62
7
  6
CONTINUOUS
 10
8.0326386728
 20
14.0749158919
 11
7.9223000093
 21
14.1263676557
  0
LINE
  5
540
100
AcDbEntity
  8
0
100
AcDbLine
 62
7
  6
CONTINUOUS
 10
10.2954252746
 20
13.1678516011
 11
10.405763938
 21
13.1163998373
  0
LINE
  5
541
100
AcDbEntity
  8
0
100
AcDbLine
 62
7
  6
CONTINUOUS
 10
7.9056614951
 20
14.3213949081
 11
8.0160001585
 21
14.2699431444
  0
LINE
  5
542
100
AcDbEntity
  8
0
100
AcDbLine
 62
7
  6
CONTINUOUS
 10
10.4224024523
 20
13.1520812462
 11
10.3120637888
 21
13.20353301
  0
LINE
  5
543
100
AcDbEntity
  8
0
100
AcDbLine
 62
7
  6
CONTINUOUS
 10
8.0326386728
 20
14.3056245533
 11
7.9223000093
 21
14.3570763171
  0
LINE
  5
544
100
AcDbEntity
  8
0
100
AcDbLine
 62
7
  6
CONTINUOUS
 10
10.2954252746
 20
13.3985602625
 11
10.405763938
 21
13.3471084987
  0
LINE
  5
545
100
AcDbEntity
  8
0
100
AcDbLine
 62
7
  6
CONTINUOUS
 10
7.9056614951
 20
14.5521035696
 11
8.0160001585
 21
14.5006518058
  0
LINE
  5
546
100
AcDbEntity
  8
0
100
AcDbLine
 62
7
  6
CONTINUOUS
 10
10.4224024523
 20
13.3827899077
 11
10.3120637888
 21
13.4342416714
  0
LINE
  5
547
100
AcDbEntity
  8
0
100
AcDbLine
 62
7
  6
CONTINUOUS
 10
8.0326386728
 20
14.5363332147
 11
7.9223000093
 21
14.5877849785
  0
LINE
  5
548
100
AcDbEntity
  8
0
100
AcDbLine
 62
7
  6
CONTINUOUS
 10
10.2954252746
 20
13.6292689239
 11
10.405763938
 21
13.5778171601
  0
LINE
  5
549
100
AcDbEntity
  8
0
100
AcDbLine
 62
7
  6
CONTINUOUS
 10
10.4224024523
 20
13.6134985691
 11
10.3120637888
 21
13.6649503328
  0
LINE
  5
54A
100
AcDbEntity
  8
0
100
AcDbLine
 62
7
  6
CONTINUOUS
 10
10.2954252746
 20
13.8599775853
 11
10.405763938
 21
13.8085258215
  0
LINE
  5
54B
100
AcDbEntity
  8
0
100
AcDbLine
 62
7
  6
CONTINUOUS
 10
10.4224024523
 20
13.8442072305
 11
10.3120637888
 21
13.8956589942
  0
LINE
  5
54C
100
AcDbEntity
  8
AXIS
100
AcDbLine
 62
7
  6
CONTINUOUS
 10
8.1876540209
 20
14.4839821717
 11
8.0813548083
 21
14.4839821717
  0
LINE
  5
54D
100
AcDbEntity
  8
AXIS
100
AcDbLine
 62
7
  6
CONTINUOUS
 10
10.1404099264
 20
14.4839821717
 11
10.246709139
 21
14.4839821717
  0
LINE
  5
54E
100
AcDbEntity
  8
0
100
AcDbLine
 62
7
  6
CONTINUOUS
 10
10.2954252746
 20
14.0906862467
 11
10.405763938
 21
14.039234483
  0
LINE
  5
54F
100
AcDbEntity
  8
0
100
AcDbLine
 62
7
  6
CONTINUOUS
 10
7.6876540209
 20
14.6335884709
 11
7.7522209501
 21
14.6335884709
  0
LINE
  5
550
100
AcDbEntity
  8
0
100
AcDbLine
 62
7
  6
CONTINUOUS
 10
10.5758429973
 20
14.6335884709
 11
10.6404099264
 21
14.6335884709
  0
LINE
  5
551
100
AcDbEntity
  8
0
100
AcDbLine
 62
7
  6
CONTINUOUS
 10
7.6876540209
 20
14.6394939827
 11
7.7522209501
 21
14.6394939827
  0
LINE
  5
552
100
AcDbEntity
  8
0
100
AcDbLine
 62
7
  6
CONTINUOUS
 10
10.5758429973
 20
14.6394939827
 11
10.6404099264
 21
14.6394939827
  0
LINE
  5
553
100
AcDbEntity
  8
0
100
AcDbLine
 62
7
  6
CONTINUOUS
 10
10.4224024523
 20
14.0749158919
 11
10.3120637888
 21
14.1263676557
  0
LINE
  5
554
100
AcDbEntity
  8
0
100
AcDbLine
 62
7
  6
CONTINUOUS
 10
10.0045831548
 20
14.6837853213
 11
10.0045831548
 21
14.6818168173
  0
LINE
  5
555
100
AcDbEntity
  8
0
100
AcDbLine
 62
7
  6
CONTINUOUS
 10
10.0045831548
 20
13.0203994945
 11
10.0045831548
 21
13.0223679984
  0
LINE
  5
556
100
AcDbEntity
  8
AXIS
100
AcDbLine
 62
7
  6
CONTINUOUS
 10
10.0604886666
 20
13.0203994945
 11
10.0604886666
 21
13.0223679984
  0
LINE
  5
557
100
AcDbEntity
  8
AXIS
100
AcDbLine
 62
7
  6
CONTINUOUS
 10
10.0604886666
 20
14.6818168173
 11
10.0604886666
 21
14.6837853213
  0
LINE
  5
558
100
AcDbEntity
  8
0
100
AcDbLine
 62
7
  6
CONTINUOUS
 10
8.1876540209
 20
14.6818168173
 11
10.1404099264
 21
14.6818168173
  0
LINE
  5
559
100
AcDbEntity
  8
AXIS
100
AcDbLine
 62
7
  6
CONTINUOUS
 10
8.1876540209
 20
14.6837853213
 11
7.7522209501
 21
14.6837853213
  0
LINE
  5
55A
100
AcDbEntity
  8
0
100
AcDbLine
 62
7
  6
CONTINUOUS
 10
10.5758429973
 20
14.6837853213
 11
7.7522209501
 21
14.6837853213
  0
LINE
  5
55B
100
AcDbEntity
  8
AXIS
100
AcDbLine
 62
7
  6
CONTINUOUS
 10
10.1404099264
 20
14.6837853213
 11
10.5758429973
 21
14.6837853213
  0
LINE
  5
55C
100
AcDbEntity
  8
0
100
AcDbLine
 62
7
  6
CONTINUOUS
 10
10.5813548083
 20
14.7379191795
 11
7.746709139
 21
14.7379191795
  0
LINE
  5
55D
100
AcDbEntity
  8
0
100
AcDbLine
 62
7
  6
CONTINUOUS
 10
10.2954252746
 20
14.3213949081
 11
10.405763938
 21
14.2699431444
  0
LINE
  5
55E
100
AcDbEntity
  8
0
100
AcDbLine
 62
7
  6
CONTINUOUS
 10
10.1358823674
 20
13.0223679984
 11
10.1358823674
 21
14.6818168173
  0
LINE
  5
55F
100
AcDbEntity
  8
0
100
AcDbLine
 62
7
  6
CONTINUOUS
 10
10.1394473745
 20
13.0223679984
 11
10.1394473745
 21
14.6818168173
  0
LINE
  5
560
100
AcDbEntity
  8
AXIS
100
AcDbLine
 62
7
  6
CONTINUOUS
 10
10.1404099264
 20
13.0203994945
 11
10.1404099264
 21
13.2202026441
  0
LINE
  5
561
100
AcDbEntity
  8
AXIS
100
AcDbLine
 62
7
  6
CONTINUOUS
 10
10.1404099264
 20
14.4839821717
 11
10.1404099264
 21
14.6837853213
  0
LINE
  5
562
100
AcDbEntity
  8
0
100
AcDbLine
 62
7
  6
CONTINUOUS
 10
10.1539926036
 20
13.2202026441
 11
10.1539926036
 21
14.4839821717
  0
LINE
  5
563
100
AcDbEntity
  8
0
100
AcDbLine
 62
7
  6
CONTINUOUS
 10
10.4224024523
 20
14.3056245533
 11
10.3120637888
 21
14.3570763171
  0
LINE
  5
564
100
AcDbEntity
  8
0
100
AcDbLine
 62
7
  6
CONTINUOUS
 10
10.2254492965
 20
14.4839821717
 11
10.2254492965
 21
13.2202026441
  0
LINE
  5
565
100
AcDbEntity
  8
0
100
AcDbLine
 62
7
  6
CONTINUOUS
 10
10.246709139
 20
13.2202026441
 11
10.246709139
 21
14.4839821717
  0
LINE
  5
566
100
AcDbEntity
  8
0
100
AcDbLine
 62
7
  6
CONTINUOUS
 10
10.2954252746
 20
14.5521035696
 11
10.405763938
 21
14.5006518058
  0
LINE
  5
567
100
AcDbEntity
  8
0
100
AcDbLine
 62
7
  6
CONTINUOUS
 10
10.4224024523
 20
14.5363332147
 11
10.3120637888
 21
14.5877849785
  0
LINE
  5
568
100
AcDbEntity
  8
0
100
AcDbLine
 62
7
  6
CONTINUOUS
 10
10.5758429973
 20
13.0203994945
 11
10.5758429973
 21
13.0705963449
  0
LINE
  5
569
100
AcDbEntity
  8
0
100
AcDbLine
 62
7
  6
CONTINUOUS
 10
10.5758429973
 20
14.6335884709
 11
10.5758429973
 21
14.6837853213
  0
LINE
  5
56A
100
AcDbEntity
  8
0
100
AcDbLine
 62
7
  6
CONTINUOUS
 10
10.6010398477
 20
14.6335884709
 11
10.6010398477
 21
13.0705963449
  0
LINE
  5
56B
100
AcDbEntity
  8
0
100
AcDbLine
 62
7
  6
CONTINUOUS
 10
10.6404099264
 20
13.0253207544
 11
10.6404099264
 21
14.6788640614
  0
LINE
  5
56C
100
AcDbEntity
  8
0
100
AcDbLine
 62
7
  6
CONTINUOUS
 10
17.3174101946
 20
10.5671270456
 11
17.6901739434
 21
10.3519166636
  0
LINE
  5
56D
100
AcDbEntity
  8
0
100
AcDbLine
 62
7
  6
CONTINUOUS
 10
18.1138829992
 20
10.1072936603
 11
18.486646748
 21
9.8920832783
  0
LWPOLYLINE
  5
56E
100
AcDbEntity
  8
0
100
AcDbPolyline
 62
7
  6
CONTINUOUS
 90
4
 70
0
 10
17.3174101946
 20
10.5671270456
 10
17.3065499113
 20
10.5757570193
 10
17.3008402821
 20
10.5859021789
 10
17.3001265491
 20
10.5912359535
  0
LINE
  5
56F
100
AcDbEntity
  8
0
100
AcDbLine
 62
7
  6
CONTINUOUS
 10
17.6464667675
 20
10.4494784125
 11
17.6901739434
 21
10.4242446336
  0
LINE
  5
570
100
AcDbEntity
  8
0
100
AcDbLine
 62
7
  6
CONTINUOUS
 10
18.1138829992
 20
10.1796216303
 11
18.1575901751
 21
10.1543878514
  0
LINE
  5
571
100
AcDbEntity
  8
0
100
AcDbLine
 62
7
  6
CONTINUOUS
 10
18.1503502647
 20
10.2006758902
 11
17.7894190721
 21
10.4090548973
  0
LINE
  5
572
100
AcDbEntity
  8
0
100
AcDbLine
 62
7
  6
CONTINUOUS
 10
18.1575901751
 20
10.2363595507
 11
17.9705123265
 21
10.3443665535
  0
LINE
  5
573
100
AcDbEntity
  8
0
100
AcDbLine
 62
7
  6
CONTINUOUS
 10
17.833544616
 20
10.4234431091
 11
17.6464667675
 21
10.5314501119
  0
LINE
  5
574
100
AcDbEntity
  8
0
100
AcDbLine
 62
7
  6
CONTINUOUS
 10
17.9276395361
 20
10.4777685122
 11
17.9705123265
 21
10.4530164551
  0
LINE
  5
575
100
AcDbEntity
  8
0
100
AcDbLine
 62
7
  6
CONTINUOUS
 10
17.9610460166
 20
10.4970556376
 11
17.9705123265
 21
10.4915903847
  0
LWPOLYLINE
  5
576
100
AcDbEntity
  8
0
100
AcDbPolyline
 62
7
  6
CONTINUOUS
 90
4
 70
0
 10
17.3174098469
 20
14.1513787482
 10
17.3065496881
 20
14.1427487223
 10
17.3008402051
 20
14.1326035353
 10
17.3001265491
 20
14.1272700434
  0
LWPOLYLINE
  5
577
100
AcDbEntity
  8
AXIS
100
AcDbPolyline
 62
7
  6
CONTINUOUS
 90
5
 70
0
 10
17.555988472
 20
14.1952573492
 10
17.5442818813
 20
14.1866304236
 10
17.5364914342
 20
14.1766367164
 10
17.533069883
 20
14.1658570256
 10
17.5329297661
 20
14.163122469
  0
LINE
  5
578
100
AcDbEntity
  8
0
100
AcDbLine
 62
7
  6
CONTINUOUS
 10
19.3217986768
 20
15.308606271
 11
17.3174098469
 21
14.1513787482
  0
LINE
  5
579
100
AcDbEntity
  8
AXIS
100
AcDbLine
 62
7
  6
CONTINUOUS
 10
17.6674822425
 20
14.3092922713
 11
17.3595858472
 21
14.1315292657
  0
LINE
  5
57A
100
AcDbEntity
  8
0
100
AcDbLine
 62
7
  6
CONTINUOUS
 10
19.3561798317
 20
15.2842564592
 11
17.3595858472
 21
14.1315292657
  0
LINE
  5
57B
100
AcDbEntity
  8
AXIS
100
AcDbLine
 62
7
  6
CONTINUOUS
 10
19.0482834364
 20
15.1064934536
 11
19.3561798317
 21
15.2842564592
  0
LINE
  5
57C
100
AcDbEntity
  8
0
100
AcDbLine
 62
7
  6
CONTINUOUS
 10
17.6720756451
 20
14.3103369973
 11
19.0464739303
 21
15.1038414806
  0
LWPOLYLINE
  5
57D
100
AcDbEntity
  8
0
100
AcDbPolyline
 62
7
  6
CONTINUOUS
 90
4
 70
0
 10
19.4094913024
 20
15.274050526
 10
19.4166964968
 20
15.2771150818
 10
19.4234106692
 20
15.2777801124
 10
19.4291760106
 20
15.2760004411
  0
LWPOLYLINE
  5
57E
100
AcDbEntity
  8
AXIS
100
AcDbPolyline
 62
7
  6
CONTINUOUS
 90
5
 70
0
 10
17.6673443342
 20
14.1309674666
 10
17.6790509248
 20
14.1395943922
 10
17.686841372
 20
14.1495880994
 10
17.6902629232
 20
14.1603677903
 10
17.69040304
 20
14.1631023468
  0
LWPOLYLINE
  5
57F
100
AcDbEntity
  8
AXIS
100
AcDbPolyline
 62
7
  6
CONTINUOUS
 90
5
 70
0
 10
17.7191248101
 20
14.1010726712
 10
17.7074182195
 20
14.0924457456
 10
17.6996277723
 20
14.0824520384
 10
17.6962062211
 20
14.0716723476
 10
17.6960661043
 20
14.068937791
  0
LWPOLYLINE
  5
580
100
AcDbEntity
  8
AXIS
100
AcDbPolyline
 62
7
  6
CONTINUOUS
 90
5
 70
0
 10
19.2457996105
 20
15.1708644414
 10
19.2340930199
 20
15.1622375158
 10
19.2263025727
 20
15.1522438086
 10
19.2228810215
 20
15.1414641177
 10
19.2227409047
 20
15.1387295612
  0
LINE
  5
581
100
AcDbEntity
  8
0
100
AcDbLine
 62
7
  6
CONTINUOUS
 10
17.3452491601
 20
14.0870886649
 11
17.3909046835
 21
14.1134477362
  0
LINE
  5
582
100
AcDbEntity
  8
0
100
AcDbLine
 62
7
  6
CONTINUOUS
 10
19.3874986679
 20
15.2661749297
 11
19.4331541913
 21
15.2925340011
  0
LINE
  5
583
100
AcDbEntity
  8
0
100
AcDbLine
 62
7
  6
CONTINUOUS
 10
19.4094913024
 20
15.274050526
 11
19.3916745128
 21
15.2637640591
  0
LINE
  5
584
100
AcDbEntity
  8
0
100
AcDbLine
 62
7
  6
CONTINUOUS
 10
17.3772637387
 20
14.1007503987
 11
17.3950805283
 21
14.1110368656
  0
LINE
  5
585
100
AcDbEntity
  8
AXIS
100
AcDbLine
 62
7
  6
CONTINUOUS
 10
17.8087649927
 20
14.2277244827
 11
17.7336004116
 21
14.1843284506
  0
LINE
  5
586
100
AcDbEntity
  8
AXIS
100
AcDbLine
 62
7
  6
CONTINUOUS
 10
19.1895661866
 20
15.0249256651
 11
19.2647307677
 21
15.0683216972
  0
LINE
  5
587
100
AcDbEntity
  8
0
100
AcDbLine
 62
7
  6
CONTINUOUS
 10
17.3991175585
 20
13.8791867297
 11
17.410253052
 21
13.8856157714
  0
LWPOLYLINE
  5
588
100
AcDbEntity
  8
0
100
AcDbPolyline
 62
7
  6
CONTINUOUS
 90
7
 70
0
 10
17.349425005
 20
14.0525320298
 10
17.3503735868
 20
14.0613996266
 10
17.3531546881
 20
14.0707582327
 10
17.3575787813
 20
14.0799700747
 10
17.3633443718
 20
14.0884073807
 10
17.3700585442
 20
14.0954951622
 10
17.3772637387
 20
14.1007503987
  0
LWPOLYLINE
  5
589
100
AcDbEntity
  8
0
100
AcDbPolyline
 62
7
  6
CONTINUOUS
 90
4
 70
0
 10
17.3991175585
 20
13.8791867297
 10
17.3997988265
 20
13.8837602021
 10
17.4017759431
 20
13.8870993484
 10
17.403196795
 20
13.8881944042
  0
LINE
  5
58A
100
AcDbEntity
  8
0
100
AcDbLine
 62
7
  6
CONTINUOUS
 10
17.4106337346
 20
13.888171361
 11
17.410253052
 21
13.8856157714
  0
LWPOLYLINE
  5
58B
100
AcDbEntity
  8
AXIS
100
AcDbPolyline
 62
7
  6
CONTINUOUS
 90
6
 70
0
 10
17.8087649927
 20
14.2117266286
 10
17.8026057703
 20
14.2013716722
 10
17.7982351028
 20
14.1904021387
 10
17.7959680572
 20
14.1796087854
 10
17.7959680572
 20
14.169769669
 10
17.7982351028
 20
14.1615940587
  0
LWPOLYLINE
  5
58C
100
AcDbEntity
  8
AXIS
100
AcDbPolyline
 62
7
  6
CONTINUOUS
 90
5
 70
0
 10
17.8304806724
 20
14.0367827886
 10
17.842187263
 20
14.0454097142
 10
17.8499777102
 20
14.0554034214
 10
17.8533992614
 20
14.0661831123
 10
17.8535393782
 20
14.0689176688
  0
LWPOLYLINE
  5
58D
100
AcDbEntity
  8
AXIS
100
AcDbPolyline
 62
7
  6
CONTINUOUS
 90
5
 70
0
 10
19.3571554727
 20
15.1065745588
 10
19.3688620634
 20
15.1152014844
 10
19.3766525105
 20
15.1251951916
 10
19.3800740617
 20
15.1359748824
 10
19.3802141786
 20
15.138709439
  0
LWPOLYLINE
  5
58E
100
AcDbEntity
  8
AXIS
100
AcDbPolyline
 62
7
  6
CONTINUOUS
 90
5
 70
0
 10
17.8822611483
 20
14.0068879932
 10
17.8705545577
 20
13.9982610676
 10
17.8627641105
 20
13.9882673604
 10
17.8593425593
 20
13.9774876696
 10
17.8592024425
 20
13.974753113
  0
LWPOLYLINE
  5
58F
100
AcDbEntity
  8
AXIS
100
AcDbPolyline
 62
7
  6
CONTINUOUS
 90
5
 70
0
 10
19.4089359487
 20
15.0766797634
 10
19.397229358
 20
15.0680528377
 10
19.3894389109
 20
15.0580591305
 10
19.3860173597
 20
15.0472794397
 10
19.3858772428
 20
15.0445448832
  0
LWPOLYLINE
  5
590
100
AcDbEntity
  8
0
100
AcDbPolyline
 62
7
  6
CONTINUOUS
 90
4
 70
0
 10
17.403196795
 20
13.8881944042
 10
17.4048553746
 20
13.8888773098
 10
17.4087356845
 20
13.888920047
 10
17.4130370413
 20
13.8872233766
  0
LINE
  5
591
100
AcDbEntity
  8
0
100
AcDbLine
 62
7
  6
CONTINUOUS
 10
17.833544616
 20
11.1827260655
 11
17.9705123265
 21
11.1036495099
  0
LINE
  5
592
100
AcDbEntity
  8
0
100
AcDbLine
 62
7
  6
CONTINUOUS
 10
17.3001131771
 20
14.1272700422
 11
17.3001131771
 21
10.5912359523
  0
LINE
  5
593
100
AcDbEntity
  8
0
100
AcDbLine
 62
7
  6
CONTINUOUS
 10
17.3174101946
 20
14.1031611355
 11
17.3174101946
 21
10.5671270456
  0
LINE
  5
594
100
AcDbEntity
  8
0
100
AcDbLine
 62
7
  6
CONTINUOUS
 10
17.3452491601
 20
14.0870886649
 11
17.3452491601
 21
13.1323594606
  0
LINE
  5
595
100
AcDbEntity
  8
0
100
AcDbLine
 62
7
  6
CONTINUOUS
 10
17.349425005
 20
14.0525320298
 11
17.349425005
 21
13.1363777429
  0
LINE
  5
596
100
AcDbEntity
  8
0
100
AcDbLine
 62
7
  6
CONTINUOUS
 10
17.3680771119
 20
13.2079023445
 11
17.3680771119
 21
13.3994911007
  0
LINE
  5
597
100
AcDbEntity
  8
0
100
AcDbLine
 62
7
  6
CONTINUOUS
 10
17.3909046835
 20
14.1134477362
 11
17.3909046835
 21
14.1086259549
  0
LINE
  5
598
100
AcDbEntity
  8
0
100
AcDbLine
 62
7
  6
CONTINUOUS
 10
17.3991175585
 20
13.8791867297
 11
17.3991175585
 21
13.5095104384
  0
LINE
  5
599
100
AcDbEntity
  8
0
100
AcDbLine
 62
7
  6
CONTINUOUS
 10
17.410253052
 20
13.8856157714
 11
17.410253052
 21
13.5159394802
  0
LINE
  5
59A
100
AcDbEntity
  8
0
100
AcDbLine
 62
7
  6
CONTINUOUS
 10
17.4404578196
 20
13.357703025
 11
17.4404578196
 21
13.2763721007
  0
LINE
  5
59B
100
AcDbEntity
  8
0
100
AcDbLine
 62
7
  6
CONTINUOUS
 10
17.4802681431
 20
13.334719044
 11
17.4802681431
 21
13.1431302878
  0
LINE
  5
59C
100
AcDbEntity
  8
0
100
AcDbLine
 62
7
  6
CONTINUOUS
 10
17.3680771119
 20
13.2079023445
 11
17.4195787693
 21
13.2643176473
  0
LWPOLYLINE
  5
59D
100
AcDbEntity
  8
AXIS
100
AcDbPolyline
 62
7
  6
CONTINUOUS
 90
5
 70
0
 10
17.9936170105
 20
13.9425981106
 10
18.0053236012
 20
13.9512250362
 10
18.0131140483
 20
13.9612187434
 10
18.0165355995
 20
13.9719984343
 10
18.0166757163
 20
13.9747329908
  0
LWPOLYLINE
  5
59E
100
AcDbEntity
  8
AXIS
100
AcDbPolyline
 62
7
  6
CONTINUOUS
 90
5
 70
0
 10
19.5202918109
 20
15.0123898808
 10
19.5319984015
 20
15.0210168064
 10
19.5397888487
 20
15.0310105136
 10
19.5432103999
 20
15.0417902044
 10
19.5433505167
 20
15.0445247609
  0
LWPOLYLINE
  5
59F
100
AcDbEntity
  8
AXIS
100
AcDbPolyline
 62
7
  6
CONTINUOUS
 90
5
 70
0
 10
18.0453974865
 20
13.9127033152
 10
18.0336908958
 20
13.9040763896
 10
18.0259004487
 20
13.8940826824
 10
18.0224788974
 20
13.8833029915
 10
18.0223387806
 20
13.880568435
  0
LWPOLYLINE
  5
5A0
100
AcDbEntity
  8
AXIS
100
AcDbPolyline
 62
7
  6
CONTINUOUS
 90
5
 70
0
 10
19.5720722868
 20
14.9824950853
 10
19.5603656962
 20
14.9738681597
 10
19.552575249
 20
14.9638744525
 10
19.5491536978
 20
14.9530947617
 10
19.549013581
 20
14.9503602052
  0
LWPOLYLINE
  5
5A1
100
AcDbEntity
  8
AXIS
100
AcDbPolyline
 62
7
  6
CONTINUOUS
 90
5
 70
0
 10
18.1567533487
 20
13.8484134326
 10
18.1684599393
 20
13.8570403582
 10
18.1762503865
 20
13.8670340654
 10
18.1796719377
 20
13.8778137563
 10
18.1798120545
 20
13.8805483128
  0
LINE
  5
5A2
100
AcDbEntity
  8
0
100
AcDbLine
 62
7
  6
CONTINUOUS
 10
17.3991175585
 20
13.5095104384
 11
17.410253052
 21
13.5159394802
  0
LINE
  5
5A3
100
AcDbEntity
  8
0
100
AcDbLine
 62
7
  6
CONTINUOUS
 10
17.4130370413
 20
13.4854013209
 11
17.4241725348
 21
13.4918303627
  0
LINE
  5
5A4
100
AcDbEntity
  8
0
100
AcDbLine
 62
7
  6
CONTINUOUS
 10
17.5081071086
 20
13.1270578172
 11
17.5081071086
 21
13.3186465733
  0
LINE
  5
5A5
100
AcDbEntity
  8
0
100
AcDbLine
 62
7
  6
CONTINUOUS
 10
17.5827151075
 20
13.1701329693
 11
17.5827151075
 21
13.2755725996
  0
LINE
  5
5A6
100
AcDbEntity
  8
0
100
AcDbLine
 62
7
  6
CONTINUOUS
 10
17.6035941578
 20
13.2635183469
 11
17.6035941578
 21
13.1821874227
  0
LINE
  5
5A7
100
AcDbEntity
  8
0
100
AcDbLine
 62
7
  6
CONTINUOUS
 10
17.6434044812
 20
13.2405343659
 11
17.6434044812
 21
13.0489456098
  0
LINE
  5
5A8
100
AcDbEntity
  8
0
100
AcDbLine
 62
7
  6
CONTINUOUS
 10
17.6464667675
 20
10.5314501119
 11
17.6464667675
 21
10.4494784125
  0
LINE
  5
5A9
100
AcDbEntity
  8
0
100
AcDbLine
 62
7
  6
CONTINUOUS
 10
17.6712434468
 20
13.0328731392
 11
17.6712434468
 21
13.2244618953
  0
LINE
  5
5AA
100
AcDbEntity
  8
0
100
AcDbLine
 62
7
  6
CONTINUOUS
 10
17.6720756451
 20
14.306640329
 11
17.6720756451
 21
14.3103369973
  0
LINE
  5
5AB
100
AcDbEntity
  8
0
100
AcDbLine
 62
7
  6
CONTINUOUS
 10
17.6901739434
 20
10.3519166636
 11
17.6901739434
 21
10.4242446336
  0
LWPOLYLINE
  5
5AC
100
AcDbEntity
  8
AXIS
100
AcDbPolyline
 62
7
  6
CONTINUOUS
 90
5
 70
0
 10
19.6834281491
 20
14.9182052027
 10
19.6951347397
 20
14.9268321283
 10
19.7029251869
 20
14.9368258355
 10
19.7063467381
 20
14.9476055264
 10
19.7064868549
 20
14.9503400829
  0
LWPOLYLINE
  5
5AD
100
AcDbEntity
  8
AXIS
100
AcDbPolyline
 62
7
  6
CONTINUOUS
 90
5
 70
0
 10
18.2085338246
 20
13.8185186372
 10
18.196827234
 20
13.8098917116
 10
18.1890367868
 20
13.7998980044
 10
18.1856152356
 20
13.7891183135
 10
18.1854751188
 20
13.786383757
  0
LWPOLYLINE
  5
5AE
100
AcDbEntity
  8
AXIS
100
AcDbPolyline
 62
7
  6
CONTINUOUS
 90
5
 70
0
 10
19.735208625
 20
14.8883104073
 10
19.7235020344
 20
14.8796834817
 10
19.7157115872
 20
14.8696897745
 10
19.712290036
 20
14.8589100837
 10
19.7121499192
 20
14.8561755271
  0
LWPOLYLINE
  5
5AF
100
AcDbEntity
  8
AXIS
100
AcDbPolyline
 62
7
  6
CONTINUOUS
 90
5
 70
0
 10
18.3198896869
 20
13.7542287546
 10
18.3315962775
 20
13.7628556802
 10
18.3393867246
 20
13.7728493874
 10
18.3428082759
 20
13.7836290782
 10
18.3429483927
 20
13.7863636348
  0
LWPOLYLINE
  5
5B0
100
AcDbEntity
  8
AXIS
100
AcDbPolyline
 62
7
  6
CONTINUOUS
 90
5
 70
0
 10
19.8465644872
 20
14.8240205247
 10
19.8582710779
 20
14.8326474503
 10
19.866061525
 20
14.8426411575
 10
19.8694830762
 20
14.8534208484
 10
19.8696231931
 20
14.8561554049
  0
LWPOLYLINE
  5
5B1
100
AcDbEntity
  8
AXIS
100
AcDbPolyline
 62
7
  6
CONTINUOUS
 90
5
 70
0
 10
18.3716701628
 20
13.7243339592
 10
18.3599635722
 20
13.7157070336
 10
18.352173125
 20
13.7057133264
 10
18.3487515738
 20
13.6949336355
 10
18.348611457
 20
13.692199079
  0
LINE
  5
5B2
100
AcDbEntity
  8
0
100
AcDbLine
 62
7
  6
CONTINUOUS
 10
17.4195787693
 20
13.2643176473
 11
17.4404578196
 21
13.2763721007
  0
LINE
  5
5B3
100
AcDbEntity
  8
0
100
AcDbLine
 62
7
  6
CONTINUOUS
 10
17.3452491601
 20
13.1323594606
 11
17.3508170495
 21
13.1355740638
  0
LINE
  5
5B4
100
AcDbEntity
  8
0
100
AcDbLine
 62
7
  6
CONTINUOUS
 10
17.9705123265
 20
10.6715484622
 11
17.833544616
 21
11.1827260655
  0
LINE
  5
5B5
100
AcDbEntity
  8
DATUM_CURVES
100
AcDbLine
 62
7
  6
CONTINUOUS
 10
17.9020284713
 20
11.1431877877
 11
17.9705123265
 21
10.8875989861
  0
LWPOLYLINE
  5
5B6
100
AcDbEntity
  8
0
100
AcDbPolyline
 62
7
  6
CONTINUOUS
 90
4
 70
0
 10
17.3001265491
 20
14.1272700434
 10
17.3008402821
 20
14.1219362688
 10
17.3065499113
 20
14.1117911092
 10
17.3174101946
 20
14.1031611355
  0
LWPOLYLINE
  5
5B7
100
AcDbEntity
  8
0
100
AcDbPolyline
 62
7
  6
CONTINUOUS
 90
6
 70
0
 10
17.410253052
 20
13.5159394802
 10
17.41093432
 20
13.5105793651
 10
17.4129114366
 20
13.5049572927
 10
17.4159908681
 20
13.4996235906
 10
17.419871178
 20
13.4951003588
 10
17.4241725348
 20
13.4918303627
  0
LINE
  5
5B8
100
AcDbEntity
  8
0
100
AcDbLine
 62
7
  6
CONTINUOUS
 10
17.7458514457
 20
13.0759482913
 11
17.7458514457
 21
13.1813879215
  0
LINE
  5
5B9
100
AcDbEntity
  8
0
100
AcDbLine
 62
7
  6
CONTINUOUS
 10
17.766730496
 20
13.1693336689
 11
17.766730496
 21
13.0880027447
  0
LINE
  5
5BA
100
AcDbEntity
  8
0
100
AcDbLine
 62
7
  6
CONTINUOUS
 10
17.7894190721
 20
10.4090548973
 11
17.7894190721
 21
10.4489184274
  0
LINE
  5
5BB
100
AcDbEntity
  8
0
100
AcDbLine
 62
7
  6
CONTINUOUS
 10
17.8065408194
 20
13.1463496879
 11
17.8065408194
 21
12.9547609318
  0
LINE
  5
5BC
100
AcDbEntity
  8
AXIS
100
AcDbLine
 62
7
  6
CONTINUOUS
 10
17.8087649927
 20
14.2277244827
 11
17.8087649927
 21
14.2117266286
  0
LINE
  5
5BD
100
AcDbEntity
  8
AXIS
100
AcDbLine
 62
7
  6
CONTINUOUS
 10
17.8087649927
 20
14.1409331412
 11
17.8087649927
 21
14.1524283658
  0
LINE
  5
5BE
100
AcDbEntity
  8
0
100
AcDbLine
 62
7
  6
CONTINUOUS
 10
17.833544616
 20
10.4234431091
 11
17.833544616
 21
11.1827260655
  0
LINE
  5
5BF
100
AcDbEntity
  8
0
100
AcDbLine
 62
7
  6
CONTINUOUS
 10
17.834379785
 20
12.9386884611
 11
17.834379785
 21
13.1302772173
  0
LINE
  5
5C0
100
AcDbEntity
  8
0
100
AcDbLine
 62
7
  6
CONTINUOUS
 10
17.9089877838
 20
12.9817636133
 11
17.9089877838
 21
13.0872032435
  0
LWPOLYLINE
  5
5C1
100
AcDbEntity
  8
AXIS
100
AcDbPolyline
 62
7
  6
CONTINUOUS
 90
5
 70
0
 10
19.8983449632
 20
14.7941257293
 10
19.8866383725
 20
14.7854988037
 10
19.8788479254
 20
14.7755050965
 10
19.8754263741
 20
14.7647254057
 10
19.8752862573
 20
14.7619908491
  0
LWPOLYLINE
  5
5C2
100
AcDbEntity
  8
AXIS
100
AcDbPolyline
 62
7
  6
CONTINUOUS
 90
5
 70
0
 10
18.483026025
 20
13.6600440766
 10
18.4947326156
 20
13.6686710022
 10
18.5025230628
 20
13.6786647094
 10
18.505944614
 20
13.6894444002
 10
18.5060847308
 20
13.6921789568
  0
LWPOLYLINE
  5
5C3
100
AcDbEntity
  8
AXIS
100
AcDbPolyline
 62
7
  6
CONTINUOUS
 90
5
 70
0
 10
20.0097008254
 20
14.7298358467
 10
20.021407416
 20
14.7384627723
 10
20.0291978632
 20
14.7484564795
 10
20.0326194144
 20
14.7592361704
 10
20.0327595312
 20
14.7619707269
  0
LWPOLYLINE
  5
5C4
100
AcDbEntity
  8
AXIS
100
AcDbPolyline
 62
7
  6
CONTINUOUS
 90
5
 70
0
 10
18.534806501
 20
13.6301492812
 10
18.5230999103
 20
13.6215223556
 10
18.5153094632
 20
13.6115286484
 10
18.5118879119
 20
13.6007489575
 10
18.5117477951
 20
13.598014401
  0
LINE
  5
5C5
100
AcDbEntity
  8
0
100
AcDbLine
 62
7
  6
CONTINUOUS
 10
17.5081071086
 20
13.1270578172
 11
17.6035941578
 21
13.1821874227
  0
LINE
  5
5C6
100
AcDbEntity
  8
AXIS
100
AcDbLine
 62
7
  6
CONTINUOUS
 10
18.7023957871
 20
13.7117981748
 11
18.6272312059
 21
13.6684021427
  0
LINE
  5
5C7
100
AcDbEntity
  8
AXIS
100
AcDbLine
 62
7
  6
CONTINUOUS
 10
20.083196981
 20
14.5089993572
 11
20.1583615621
 21
14.5523953893
  0
LINE
  5
5C8
100
AcDbEntity
  8
0
100
AcDbLine
 62
7
  6
CONTINUOUS
 10
19.9272981453
 20
10.8299206414
 11
20.0609274892
 21
10.7527714491
  0
LWPOLYLINE
  5
5C9
100
AcDbEntity
  8
AXIS
100
AcDbPolyline
 62
7
  6
CONTINUOUS
 90
11
 70
0
 10
17.5329297661
 20
14.163122469
 10
17.5342160758
 20
14.1549178275
 10
17.5398634001
 20
14.1444548687
 10
17.549683654
 20
14.1350762182
 10
17.56310612
 20
14.1273269292
 10
17.5793507331
 20
14.1216573621
 10
17.5974734155
 20
14.1183970117
 10
17.6164209427
 20
14.1177353575
 10
17.6350921534
 20
14.1197108525
 10
17.6524019446
 20
14.1242086882
 10
17.6673443342
 20
14.1309674666
  0
LINE
  5
5CA
100
AcDbEntity
  8
0
100
AcDbLine
 62
7
  6
CONTINUOUS
 10
17.9298668341
 20
13.0751489909
 11
17.9298668341
 21
12.9938180667
  0
LINE
  5
5CB
100
AcDbEntity
  8
0
100
AcDbLine
 62
7
  6
CONTINUOUS
 10
17.9696771576
 20
13.0521650099
 11
17.9696771576
 21
12.8605762538
  0
LINE
  5
5CC
100
AcDbEntity
  8
0
100
AcDbLine
 62
7
  6
CONTINUOUS
 10
17.9705123265
 20
10.3443665535
 11
17.9705123265
 21
11.1036495099
  0
LINE
  5
5CD
100
AcDbEntity
  8
0
100
AcDbLine
 62
7
  6
CONTINUOUS
 10
17.9975161231
 20
12.8445037831
 11
17.9975161231
 21
13.0360925393
  0
LINE
  5
5CE
100
AcDbEntity
  8
0
100
AcDbLine
 62
7
  6
CONTINUOUS
 10
18.072124122
 20
12.8875789353
 11
18.072124122
 21
12.9930185655
  0
LINE
  5
5CF
100
AcDbEntity
  8
0
100
AcDbLine
 62
7
  6
CONTINUOUS
 10
18.0930031723
 20
12.9809643129
 11
18.0930031723
 21
12.8996333886
  0
LINE
  5
5D0
100
AcDbEntity
  8
0
100
AcDbLine
 62
7
  6
CONTINUOUS
 10
18.1138829992
 20
10.1072936603
 11
18.1138829992
 21
10.1796216303
  0
LWPOLYLINE
  5
5D1
100
AcDbEntity
  8
AXIS
100
AcDbPolyline
 62
7
  6
CONTINUOUS
 90
5
 70
0
 10
20.0614813013
 20
14.6999410513
 10
20.0497747107
 20
14.6913141257
 10
20.0419842635
 20
14.6813204185
 10
20.0385627123
 20
14.6705407276
 10
20.0384225955
 20
14.6678061711
  0
LWPOLYLINE
  5
5D2
100
AcDbEntity
  8
AXIS
100
AcDbPolyline
 62
7
  6
CONTINUOUS
 90
5
 70
0
 10
18.6461623632
 20
13.5658593986
 10
18.6578689538
 20
13.5744863242
 10
18.665659401
 20
13.5844800314
 10
18.6690809522
 20
13.5952597222
 10
18.669221069
 20
13.5979942788
  0
LWPOLYLINE
  5
5D3
100
AcDbEntity
  8
AXIS
100
AcDbPolyline
 62
7
  6
CONTINUOUS
 90
5
 70
0
 10
20.1728371636
 20
14.6356511687
 10
20.1845437542
 20
14.6442780943
 10
20.1923342013
 20
14.6542718015
 10
20.1957557526
 20
14.6650514924
 10
20.1958958694
 20
14.6677860489
  0
LWPOLYLINE
  5
5D4
100
AcDbEntity
  8
AXIS
100
AcDbPolyline
 62
7
  6
CONTINUOUS
 90
5
 70
0
 10
20.2246176395
 20
14.6057563733
 10
20.2129110489
 20
14.5971294477
 10
20.2051206017
 20
14.5871357405
 10
20.2016990505
 20
14.5763560496
 10
20.2015589337
 20
14.5736214931
  0
LWPOLYLINE
  5
5D5
100
AcDbEntity
  8
0
100
AcDbPolyline
 62
7
  6
CONTINUOUS
 90
4
 70
0
 10
18.4824706713
 20
13.4626733139
 10
18.4752654768
 20
13.4574180774
 10
18.4685513045
 20
13.4503302959
 10
18.4679699945
 20
13.4494796129
  0
LINE
  5
5D6
100
AcDbEntity
  8
0
100
AcDbLine
 62
7
  6
CONTINUOUS
 10
17.6712434468
 20
13.0328731392
 11
17.766730496
 21
13.0880027447
  0
LINE
  5
5D7
100
AcDbEntity
  8
0
100
AcDbLine
 62
7
  6
CONTINUOUS
 10
20.514698235
 20
14.6359734412
 11
20.4968814454
 21
14.6256869743
  0
LINE
  5
5D8
100
AcDbEntity
  8
0
100
AcDbLine
 62
7
  6
CONTINUOUS
 10
18.4824706713
 20
13.4626733139
 11
18.5002874609
 21
13.4729597808
  0
LINE
  5
5D9
100
AcDbEntity
  8
0
100
AcDbLine
 62
7
  6
CONTINUOUS
 10
18.4588077824
 20
13.4441898388
 11
18.5044633058
 21
13.4705489102
  0
LINE
  5
5DA
100
AcDbEntity
  8
0
100
AcDbLine
 62
7
  6
CONTINUOUS
 10
20.5010572902
 20
14.6232761037
 11
20.5467128136
 21
14.6496351751
  0
LINE
  5
5DB
100
AcDbEntity
  8
0
100
AcDbLine
 62
7
  6
CONTINUOUS
 10
18.8454880434
 20
13.6328823593
 11
20.2198863285
 21
14.4263868427
  0
LINE
  5
5DC
100
AcDbEntity
  8
AXIS
100
AcDbLine
 62
7
  6
CONTINUOUS
 10
18.8436785373
 20
13.6302303863
 11
18.535782142
 21
13.4524673807
  0
LINE
  5
5DD
100
AcDbEntity
  8
AXIS
100
AcDbLine
 62
7
  6
CONTINUOUS
 10
20.2244797312
 20
14.4274315687
 11
20.5323761265
 21
14.6051945742
  0
LINE
  5
5DE
100
AcDbEntity
  8
0
100
AcDbLine
 62
7
  6
CONTINUOUS
 10
18.535782142
 20
13.4524673807
 11
20.5323761265
 21
14.6051945742
  0
LINE
  5
5DF
100
AcDbEntity
  8
0
100
AcDbLine
 62
7
  6
CONTINUOUS
 10
18.5701632969
 20
13.4281175689
 11
20.5745521268
 21
14.5853450917
  0
LINE
  5
5E0
100
AcDbEntity
  8
0
100
AcDbLine
 62
7
  6
CONTINUOUS
 10
17.834379785
 20
12.9386884611
 11
17.9298668341
 21
12.9938180667
  0
LINE
  5
5E1
100
AcDbEntity
  8
0
100
AcDbLine
 62
7
  6
CONTINUOUS
 10
19.9467868273
 20
10.84117237
 11
20.0191693885
 21
10.7993832242
  0
LINE
  5
5E2
100
AcDbEntity
  8
0
100
AcDbLine
 62
7
  6
CONTINUOUS
 10
19.9718423293
 20
10.8556380844
 11
20.0191693885
 21
10.8283144122
  0
LINE
  5
5E3
100
AcDbEntity
  8
0
100
AcDbLine
 62
7
  6
CONTINUOUS
 10
20.02919052
 20
10.8887478801
 11
20.0609274892
 21
10.870424947
  0
LWPOLYLINE
  5
5E4
100
AcDbEntity
  8
AXIS
100
AcDbPolyline
 62
7
  6
CONTINUOUS
 90
11
 70
0
 10
17.6960661043
 20
14.068937791
 10
17.697352414
 20
14.0607331495
 10
17.7029997383
 20
14.0502701907
 10
17.7128199922
 20
14.0408915402
 10
17.7262424582
 20
14.0331422512
 10
17.7424870713
 20
14.0274726841
 10
17.7606097536
 20
14.0242123336
 10
17.7795572809
 20
14.0235506794
 10
17.7982284915
 20
14.0255261745
 10
17.8155382828
 20
14.0300240102
 10
17.8304806724
 20
14.0367827886
  0
LWPOLYLINE
  5
5E5
100
AcDbEntity
  8
AXIS
100
AcDbPolyline
 62
7
  6
CONTINUOUS
 90
11
 70
0
 10
17.69040304
 20
14.1631023468
 10
17.6891167304
 20
14.1713069883
 10
17.683469406
 20
14.1817699472
 10
17.6736491521
 20
14.1911485976
 10
17.6602266862
 20
14.1988978866
 10
17.6439820731
 20
14.2045674537
 10
17.6258593907
 20
14.2078278042
 10
17.6069118635
 20
14.2084894584
 10
17.5882406528
 20
14.2065139634
 10
17.5709308616
 20
14.2020161277
 10
17.555988472
 20
14.1952573492
  0
LWPOLYLINE
  5
5E6
100
AcDbEntity
  8
AXIS
100
AcDbPolyline
 62
7
  6
CONTINUOUS
 90
11
 70
0
 10
17.8592024425
 20
13.974753113
 10
17.8604887521
 20
13.9665484715
 10
17.8661360765
 20
13.9560855127
 10
17.8759563304
 20
13.9467068622
 10
17.8893787963
 20
13.9389575732
 10
17.9056234094
 20
13.9332880061
 10
17.9237460918
 20
13.9300276556
 10
17.942693619
 20
13.9293660014
 10
17.9613648297
 20
13.9313414965
 10
17.9786746209
 20
13.9358393321
 10
17.9936170105
 20
13.9425981106
  0
LWPOLYLINE
  5
5E7
100
AcDbEntity
  8
AXIS
100
AcDbPolyline
 62
7
  6
CONTINUOUS
 90
11
 70
0
 10
17.8535393782
 20
14.0689176688
 10
17.8522530685
 20
14.0771223103
 10
17.8466057442
 20
14.0875852692
 10
17.8367854903
 20
14.0969639196
 10
17.8233630243
 20
14.1047132086
 10
17.8071184112
 20
14.1103827757
 10
17.7889957289
 20
14.1136431262
 10
17.7700482016
 20
14.1143047804
 10
17.751376991
 20
14.1123292854
 10
17.7340671997
 20
14.1078314497
 10
17.7191248101
 20
14.1010726712
  0
LINE
  5
5E8
100
AcDbEntity
  8
0
100
AcDbLine
 62
7
  6
CONTINUOUS
 10
18.1328134957
 20
12.9579803319
 11
18.1328134957
 21
12.7663915758
  0
LINE
  5
5E9
100
AcDbEntity
  8
0
100
AcDbLine
 62
7
  6
CONTINUOUS
 10
18.1575901751
 20
10.1543878514
 11
18.1575901751
 21
10.2363595507
  0
LINE
  5
5EA
100
AcDbEntity
  8
0
100
AcDbLine
 62
7
  6
CONTINUOUS
 10
18.1606524613
 20
12.7503191051
 11
18.1606524613
 21
12.9419078613
  0
LINE
  5
5EB
100
AcDbEntity
  8
0
100
AcDbLine
 62
7
  6
CONTINUOUS
 10
18.2352604601
 20
12.7933942573
 11
18.2352604601
 21
12.8988338875
  0
LINE
  5
5EC
100
AcDbEntity
  8
0
100
AcDbLine
 62
7
  6
CONTINUOUS
 10
18.2561395105
 20
12.8867796349
 11
18.2561395105
 21
12.8054487106
  0
LINE
  5
5ED
100
AcDbEntity
  8
0
100
AcDbLine
 62
7
  6
CONTINUOUS
 10
18.2959498339
 20
12.8637956539
 11
18.2959498339
 21
12.6722068978
  0
LINE
  5
5EE
100
AcDbEntity
  8
0
100
AcDbLine
 62
7
  6
CONTINUOUS
 10
18.3237887995
 20
12.6561344271
 11
18.3237887995
 21
12.8477231833
  0
LWPOLYLINE
  5
5EF
100
AcDbEntity
  8
0
100
AcDbPolyline
 62
7
  6
CONTINUOUS
 90
4
 70
0
 10
18.4588077824
 20
13.4336101453
 10
18.4583616207
 20
13.4326811479
 10
18.4555805194
 20
13.4233225418
 10
18.4546319376
 20
13.414454945
  0
LWPOLYLINE
  5
5F0
100
AcDbEntity
  8
AXIS
100
AcDbPolyline
 62
7
  6
CONTINUOUS
 90
5
 70
0
 10
20.3359735017
 20
14.5414664907
 10
20.3476800923
 20
14.5500934163
 10
20.3554705395
 20
14.5600871235
 10
20.3588920907
 20
14.5708668144
 10
20.3590322075
 20
14.5736013709
  0
LINE
  5
5F1
100
AcDbEntity
  8
0
100
AcDbLine
 62
7
  6
CONTINUOUS
 10
17.9975161231
 20
12.8445037831
 11
18.0930031723
 21
12.8996333886
  0
LINE
  5
5F2
100
AcDbEntity
  8
0
100
AcDbLine
 62
7
  6
CONTINUOUS
 10
20.3972193928
 20
14.1595762108
 11
20.3359741786
 21
14.1242164809
  0
LINE
  5
5F3
100
AcDbEntity
  8
0
100
AcDbLine
 62
7
  6
CONTINUOUS
 10
18.8087412452
 20
13.242473399
 11
18.7474960309
 21
13.2071136691
  0
LWPOLYLINE
  5
5F4
100
AcDbEntity
  8
AXIS
100
AcDbPolyline
 62
7
  6
CONTINUOUS
 90
11
 70
0
 10
18.0223387806
 20
13.880568435
 10
18.0236250903
 20
13.8723637935
 10
18.0292724146
 20
13.8619008347
 10
18.0390926685
 20
13.8525221842
 10
18.0525151345
 20
13.8447728952
 10
18.0687597476
 20
13.8391033281
 10
18.08688243
 20
13.8358429776
 10
18.1058299572
 20
13.8351813234
 10
18.1245011679
 20
13.8371568185
 10
18.1418109591
 20
13.8416546541
 10
18.1567533487
 20
13.8484134326
  0
LWPOLYLINE
  5
5F5
100
AcDbEntity
  8
AXIS
100
AcDbPolyline
 62
7
  6
CONTINUOUS
 90
11
 70
0
 10
18.0166757163
 20
13.9747329908
 10
18.0153894067
 20
13.9829376323
 10
18.0097420823
 20
13.9934005911
 10
17.9999218285
 20
14.0027792416
 10
17.9864993625
 20
14.0105285306
 10
17.9702547494
 20
14.0161980977
 10
17.952132067
 20
14.0194584482
 10
17.9331845398
 20
14.0201201024
 10
17.9145133291
 20
14.0181446074
 10
17.8972035379
 20
14.0136467717
 10
17.8822611483
 20
14.0068879932
  0
LINE
  5
5F6
100
AcDbEntity
  8
0
100
AcDbLine
 62
7
  6
CONTINUOUS
 10
18.3983967983
 20
12.6992095793
 11
18.3983967983
 21
12.8046492095
  0
LINE
  5
5F7
100
AcDbEntity
  8
0
100
AcDbLine
 62
7
  6
CONTINUOUS
 10
18.4049393841
 20
12.9288120738
 11
18.4049393841
 21
13.2984883651
  0
LINE
  5
5F8
100
AcDbEntity
  8
0
100
AcDbLine
 62
7
  6
CONTINUOUS
 10
18.4192758486
 20
12.7925949569
 11
18.4192758486
 21
12.7112640326
  0
LINE
  5
5F9
100
AcDbEntity
  8
0
100
AcDbLine
 62
7
  6
CONTINUOUS
 10
18.4359798307
 20
12.7829511265
 11
18.4359798307
 21
12.5913623704
  0
LINE
  5
5FA
100
AcDbEntity
  8
0
100
AcDbLine
 62
7
  6
CONTINUOUS
 10
18.4546319376
 20
13.414454945
 11
18.4546319376
 21
12.498300658
  0
LINE
  5
5FB
100
AcDbEntity
  8
0
100
AcDbLine
 62
7
  6
CONTINUOUS
 10
18.4588077824
 20
13.4441898388
 11
18.4588077824
 21
12.4894606346
  0
LINE
  5
5FC
100
AcDbEntity
  8
0
100
AcDbLine
 62
7
  6
CONTINUOUS
 10
18.486646748
 20
13.4281173682
 11
18.486646748
 21
9.8920832783
  0
LINE
  5
5FD
100
AcDbEntity
  8
0
100
AcDbLine
 62
7
  6
CONTINUOUS
 10
18.5002874609
 20
13.4729597808
 11
18.5002874609
 21
13.4681379994
  0
LWPOLYLINE
  5
5FE
100
AcDbEntity
  8
0
100
AcDbPolyline
 62
7
  6
CONTINUOUS
 90
4
 70
0
 10
18.4049393841
 20
12.9288120738
 10
18.4042581161
 20
12.9242386014
 10
18.4022809994
 20
12.9208994551
 10
18.4008601475
 20
12.9198043993
  0
LWPOLYLINE
  5
5FF
100
AcDbEntity
  8
0
100
AcDbPolyline
 62
7
  6
CONTINUOUS
 90
4
 70
0
 10
20.5745521268
 20
14.5853450917
 10
20.5854122856
 20
14.5939751177
 10
20.5911217686
 20
14.6041203047
 10
20.5918354246
 20
14.6094537965
  0
LINE
  5
600
100
AcDbEntity
  8
0
100
AcDbLine
 62
7
  6
CONTINUOUS
 10
20.3817688064
 20
14.1103127155
 11
20.3359741786
 21
14.0838733326
  0
LINE
  5
601
100
AcDbEntity
  8
0
100
AcDbLine
 62
7
  6
CONTINUOUS
 10
18.7474960309
 20
13.1667705208
 11
18.7930122713
 21
13.1930491776
  0
LINE
  5
602
100
AcDbEntity
  8
0
100
AcDbLine
 62
7
  6
CONTINUOUS
 10
18.3910199013
 20
12.9207754269
 11
18.4021553948
 21
12.9272044687
  0
LINE
  5
603
100
AcDbEntity
  8
0
100
AcDbLine
 62
7
  6
CONTINUOUS
 10
18.1606524613
 20
12.7503191051
 11
18.2561395105
 21
12.8054487106
  0
LINE
  5
604
100
AcDbEntity
  8
0
100
AcDbLine
 62
7
  6
CONTINUOUS
 10
18.7654516954
 20
13.0929147139
 11
18.7474960309
 21
13.082548068
  0
LINE
  5
605
100
AcDbEntity
  8
0
100
AcDbLine
 62
7
  6
CONTINUOUS
 10
20.3359741786
 20
13.9996508798
 11
20.3542082305
 21
14.0101782518
  0
LINE
  5
606
100
AcDbEntity
  8
0
100
AcDbLine
 62
7
  6
CONTINUOUS
 10
18.7474960309
 20
13.0777262034
 11
18.7704626675
 21
13.090985918
  0
LINE
  5
607
100
AcDbEntity
  8
0
100
AcDbLine
 62
7
  6
CONTINUOUS
 10
20.3359741786
 20
13.9948290152
 11
20.3589408152
 21
14.0080887299
  0
LINE
  5
608
100
AcDbEntity
  8
0
100
AcDbLine
 62
7
  6
CONTINUOUS
 10
18.7474960309
 20
13.033526541
 11
18.8087412452
 21
13.0688862709
  0
LINE
  5
609
100
AcDbEntity
  8
0
100
AcDbLine
 62
7
  6
CONTINUOUS
 10
20.3359741786
 20
13.9506293528
 11
20.3972193928
 21
13.9859890827
  0
LWPOLYLINE
  5
60A
100
AcDbEntity
  8
0
100
AcDbPolyline
 62
7
  6
CONTINUOUS
 90
4
 70
0
 10
18.4008601475
 20
12.9198043993
 10
18.399201568
 20
12.9191214937
 10
18.395321258
 20
12.9190787565
 10
18.3910199013
 20
12.9207754269
  0
LINE
  5
60B
100
AcDbEntity
  8
0
100
AcDbLine
 62
7
  6
CONTINUOUS
 10
20.0191693885
 20
10.7993832242
 11
20.0609274892
 21
10.7527714491
  0
LWPOLYLINE
  5
60C
100
AcDbEntity
  8
AXIS
100
AcDbPolyline
 62
7
  6
CONTINUOUS
 90
11
 70
0
 10
18.1854751188
 20
13.786383757
 10
18.1867614285
 20
13.7781791155
 10
18.1924087528
 20
13.7677161567
 10
18.2022290067
 20
13.7583375062
 10
18.2156514726
 20
13.7505882172
 10
18.2318960857
 20
13.7449186501
 10
18.2500187681
 20
13.7416582996
 10
18.2689662954
 20
13.7409966454
 10
18.287637506
 20
13.7429721404
 10
18.3049472972
 20
13.7474699761
 10
18.3198896869
 20
13.7542287546
  0
LWPOLYLINE
  5
60D
100
AcDbEntity
  8
AXIS
100
AcDbPolyline
 62
7
  6
CONTINUOUS
 90
11
 70
0
 10
18.1798120545
 20
13.8805483128
 10
18.1785257449
 20
13.8887529543
 10
18.1728784205
 20
13.8992159131
 10
18.1630581666
 20
13.9085945636
 10
18.1496357007
 20
13.9163438526
 10
18.1333910876
 20
13.9220134197
 10
18.1152684052
 20
13.9252737702
 10
18.0963208779
 20
13.9259354244
 10
18.0776496673
 20
13.9239599293
 10
18.0603398761
 20
13.9194620937
 10
18.0453974865
 20
13.9127033152
  0
LWPOLYLINE
  5
60E
100
AcDbEntity
  8
AXIS
100
AcDbPolyline
 62
7
  6
CONTINUOUS
 90
11
 70
0
 10
18.348611457
 20
13.692199079
 10
18.3498977666
 20
13.6839944375
 10
18.355545091
 20
13.6735314787
 10
18.3653653448
 20
13.6641528282
 10
18.3787878108
 20
13.6564035392
 10
18.3950324239
 20
13.6507339721
 10
18.4131551063
 20
13.6474736216
 10
18.4321026335
 20
13.6468119674
 10
18.4507738442
 20
13.6487874624
 10
18.4680836354
 20
13.6532852981
 10
18.483026025
 20
13.6600440766
  0
LWPOLYLINE
  5
60F
100
AcDbEntity
  8
AXIS
100
AcDbPolyline
 62
7
  6
CONTINUOUS
 90
11
 70
0
 10
18.3429483927
 20
13.7863636348
 10
18.341662083
 20
13.7945682763
 10
18.3360147587
 20
13.8050312351
 10
18.3261945048
 20
13.8144098856
 10
18.3127720388
 20
13.8221591746
 10
18.2965274257
 20
13.8278287417
 10
18.2784047433
 20
13.8310890922
 10
18.2594572161
 20
13.8317507464
 10
18.2407860054
 20
13.8297752513
 10
18.2234762142
 20
13.8252774157
 10
18.2085338246
 20
13.8185186372
  0
LINE
  5
610
100
AcDbEntity
  8
0
100
AcDbLine
 62
7
  6
CONTINUOUS
 10
18.5701632969
 20
13.4281175689
 11
18.5701632969
 21
9.892083479
  0
LINE
  5
611
100
AcDbEntity
  8
0
100
AcDbLine
 62
7
  6
CONTINUOUS
 10
18.7474960309
 20
13.2071136691
 11
18.7474960309
 21
13.033526541
  0
LINE
  5
612
100
AcDbEntity
  8
0
100
AcDbLine
 62
7
  6
CONTINUOUS
 10
18.7654516954
 20
13.0929147139
 11
18.7930122713
 21
13.1930491776
  0
LINE
  5
613
100
AcDbEntity
  8
0
100
AcDbLine
 62
7
  6
CONTINUOUS
 10
18.3237887995
 20
12.6561344271
 11
18.4192758486
 21
12.7112640326
  0
LINE
  5
614
100
AcDbEntity
  8
0
100
AcDbLine
 62
7
  6
CONTINUOUS
 10
17.3452491601
 20
13.1323594606
 11
18.4588077824
 21
12.4894606346
  0
LINE
  5
615
100
AcDbEntity
  8
0
100
AcDbLine
 62
7
  6
CONTINUOUS
 10
18.4546319376
 20
12.498300658
 11
17.349425005
 21
13.1363777429
  0
LINE
  5
616
100
AcDbEntity
  8
0
100
AcDbLine
 62
7
  6
CONTINUOUS
 10
18.4359798307
 20
12.5913623704
 11
18.3237887995
 21
12.6561344271
  0
LINE
  5
617
100
AcDbEntity
  8
0
100
AcDbLine
 62
7
  6
CONTINUOUS
 10
18.2959498339
 20
12.6722068978
 11
18.1606524613
 21
12.7503191051
  0
LINE
  5
618
100
AcDbEntity
  8
0
100
AcDbLine
 62
7
  6
CONTINUOUS
 10
18.1328134957
 20
12.7663915758
 11
17.9975161231
 21
12.8445037831
  0
LINE
  5
619
100
AcDbEntity
  8
0
100
AcDbLine
 62
7
  6
CONTINUOUS
 10
17.9696771576
 20
12.8605762538
 11
17.834379785
 21
12.9386884611
  0
LINE
  5
61A
100
AcDbEntity
  8
0
100
AcDbLine
 62
7
  6
CONTINUOUS
 10
17.8065408194
 20
12.9547609318
 11
17.6712434468
 21
13.0328731392
  0
LINE
  5
61B
100
AcDbEntity
  8
0
100
AcDbLine
 62
7
  6
CONTINUOUS
 10
17.6434044812
 20
13.0489456098
 11
17.5081071086
 21
13.1270578172
  0
LINE
  5
61C
100
AcDbEntity
  8
0
100
AcDbLine
 62
7
  6
CONTINUOUS
 10
17.4802681431
 20
13.1431302878
 11
17.3680771119
 21
13.2079023445
  0
LINE
  5
61D
100
AcDbEntity
  8
0
100
AcDbLine
 62
7
  6
CONTINUOUS
 10
18.4359798307
 20
12.6775114963
 11
18.3983967983
 21
12.6992095793
  0
LINE
  5
61E
100
AcDbEntity
  8
0
100
AcDbLine
 62
7
  6
CONTINUOUS
 10
18.2959498339
 20
12.7583560237
 11
18.2352604601
 21
12.7933942573
  0
LINE
  5
61F
100
AcDbEntity
  8
0
100
AcDbLine
 62
7
  6
CONTINUOUS
 10
18.1328134957
 20
12.8525407017
 11
18.072124122
 21
12.8875789353
  0
LINE
  5
620
100
AcDbEntity
  8
0
100
AcDbLine
 62
7
  6
CONTINUOUS
 10
17.9696771576
 20
12.9467253797
 11
17.9089877838
 21
12.9817636133
  0
LINE
  5
621
100
AcDbEntity
  8
0
100
AcDbLine
 62
7
  6
CONTINUOUS
 10
17.8065408194
 20
13.0409100577
 11
17.7458514457
 21
13.0759482913
  0
LINE
  5
622
100
AcDbEntity
  8
0
100
AcDbLine
 62
7
  6
CONTINUOUS
 10
17.6434044812
 20
13.1350947357
 11
17.5827151075
 21
13.1701329693
  0
LINE
  5
623
100
AcDbEntity
  8
0
100
AcDbLine
 62
7
  6
CONTINUOUS
 10
17.4802681431
 20
13.2292794137
 11
17.4195787693
 21
13.2643176473
  0
LWPOLYLINE
  5
624
100
AcDbEntity
  8
0
100
AcDbPolyline
 62
7
  6
CONTINUOUS
 90
6
 70
0
 10
17.4130370413
 20
13.4854013209
 10
17.4087356845
 20
13.488671317
 10
17.4048553746
 20
13.4931945488
 10
17.4017759431
 20
13.4985282509
 10
17.3997988265
 20
13.5041503233
 10
17.3991175585
 20
13.5095104384
  0
LWPOLYLINE
  5
625
100
AcDbEntity
  8
AXIS
100
AcDbPolyline
 62
7
  6
CONTINUOUS
 90
11
 70
0
 10
18.5117477951
 20
13.598014401
 10
18.5130341048
 20
13.5898097595
 10
18.5186814291
 20
13.5793468006
 10
18.528501683
 20
13.5699681502
 10
18.541924149
 20
13.5622188612
 10
18.5581687621
 20
13.5565492941
 10
18.5762914445
 20
13.5532889436
 10
18.5952389717
 20
13.5526272894
 10
18.6139101824
 20
13.5546027844
 10
18.6312199736
 20
13.5591006201
 10
18.6461623632
 20
13.5658593986
  0
LWPOLYLINE
  5
626
100
AcDbEntity
  8
AXIS
100
AcDbPolyline
 62
7
  6
CONTINUOUS
 90
11
 70
0
 10
18.5060847308
 20
13.6921789568
 10
18.5047984212
 20
13.7003835983
 10
18.4991510968
 20
13.7108465571
 10
18.489330843
 20
13.7202252076
 10
18.475908377
 20
13.7279744966
 10
18.4596637639
 20
13.7336440637
 10
18.4415410815
 20
13.7369044142
 10
18.4225935543
 20
13.7375660684
 10
18.4039223436
 20
13.7355905733
 10
18.3866125524
 20
13.7310927376
 10
18.3716701628
 20
13.7243339592
  0
LINE
  5
627
100
AcDbEntity
  8
0
100
AcDbLine
 62
7
  6
CONTINUOUS
 10
18.7704626675
 20
13.090985918
 11
18.7704626675
 21
13.1111208284
  0
LINE
  5
628
100
AcDbEntity
  8
0
100
AcDbLine
 62
7
  6
CONTINUOUS
 10
18.7930122713
 20
13.1930491776
 11
18.7930122713
 21
13.2333923259
  0
LINE
  5
629
100
AcDbEntity
  8
0
100
AcDbLine
 62
7
  6
CONTINUOUS
 10
18.8087412452
 20
13.0688862709
 11
18.8087412452
 21
13.242473399
  0
LINE
  5
62A
100
AcDbEntity
  8
0
100
AcDbLine
 62
7
  6
CONTINUOUS
 10
18.8454880434
 20
13.6312750989
 11
18.8454880434
 21
13.6328823593
  0
LINE
  5
62B
100
AcDbEntity
  8
0
100
AcDbLine
 62
7
  6
CONTINUOUS
 10
19.2647307677
 20
15.0683216972
 11
19.2522110196
 21
14.9850618039
  0
LINE
  5
62C
100
AcDbEntity
  8
0
100
AcDbLine
 62
7
  6
CONTINUOUS
 10
18.4546319376
 20
12.498300658
 11
18.4588077824
 21
12.5007115688
  0
LINE
  5
62D
100
AcDbEntity
  8
0
100
AcDbLine
 62
7
  6
CONTINUOUS
 10
17.4404578196
 20
13.2763721007
 11
17.4802681431
 21
13.2533881197
  0
LINE
  5
62E
100
AcDbEntity
  8
0
100
AcDbLine
 62
7
  6
CONTINUOUS
 10
17.6035941578
 20
13.1821874227
 11
17.6434044812
 21
13.1592034417
  0
LINE
  5
62F
100
AcDbEntity
  8
0
100
AcDbLine
 62
7
  6
CONTINUOUS
 10
17.766730496
 20
13.0880027447
 11
17.8065408194
 21
13.0650187637
  0
LINE
  5
630
100
AcDbEntity
  8
0
100
AcDbLine
 62
7
  6
CONTINUOUS
 10
17.9298668341
 20
12.9938180667
 11
17.9696771576
 21
12.9708340857
  0
LINE
  5
631
100
AcDbEntity
  8
0
100
AcDbLine
 62
7
  6
CONTINUOUS
 10
18.0930031723
 20
12.8996333886
 11
18.1328134957
 21
12.8766494076
  0
LINE
  5
632
100
AcDbEntity
  8
0
100
AcDbLine
 62
7
  6
CONTINUOUS
 10
18.2561395105
 20
12.8054487106
 11
18.2959498339
 21
12.7824647296
  0
LINE
  5
633
100
AcDbEntity
  8
0
100
AcDbLine
 62
7
  6
CONTINUOUS
 10
18.4192758486
 20
12.7112640326
 11
18.4359798307
 21
12.7016202023
  0
LINE
  5
634
100
AcDbEntity
  8
0
100
AcDbLine
 62
7
  6
CONTINUOUS
 10
17.3680771119
 20
13.3994911007
 11
17.4802681431
 21
13.334719044
  0
LINE
  5
635
100
AcDbEntity
  8
0
100
AcDbLine
 62
7
  6
CONTINUOUS
 10
17.5081071086
 20
13.3186465733
 11
17.6434044812
 21
13.2405343659
  0
LINE
  5
636
100
AcDbEntity
  8
0
100
AcDbLine
 62
7
  6
CONTINUOUS
 10
17.6712434468
 20
13.2244618953
 11
17.8065408194
 21
13.1463496879
  0
LINE
  5
637
100
AcDbEntity
  8
0
100
AcDbLine
 62
7
  6
CONTINUOUS
 10
17.834379785
 20
13.1302772173
 11
17.9696771576
 21
13.0521650099
  0
LINE
  5
638
100
AcDbEntity
  8
0
100
AcDbLine
 62
7
  6
CONTINUOUS
 10
17.9975161231
 20
13.0360925393
 11
18.1328134957
 21
12.9579803319
  0
LINE
  5
639
100
AcDbEntity
  8
0
100
AcDbLine
 62
7
  6
CONTINUOUS
 10
18.1606524613
 20
12.9419078613
 11
18.2959498339
 21
12.8637956539
  0
LINE
  5
63A
100
AcDbEntity
  8
0
100
AcDbLine
 62
7
  6
CONTINUOUS
 10
18.3237887995
 20
12.8477231833
 11
18.4359798307
 21
12.7829511265
  0
LINE
  5
63B
100
AcDbEntity
  8
0
100
AcDbLine
 62
7
  6
CONTINUOUS
 10
17.4130370413
 20
13.4854013209
 11
18.3910199013
 21
12.9207754269
  0
LINE
  5
63C
100
AcDbEntity
  8
0
100
AcDbLine
 62
7
  6
CONTINUOUS
 10
17.4241725348
 20
13.4918303627
 11
18.4021553948
 21
12.9272044687
  0
LWPOLYLINE
  5
63D
100
AcDbEntity
  8
AXIS
100
AcDbPolyline
 62
7
  6
CONTINUOUS
 90
3
 70
0
 10
17.7982351028
 20
14.1615940587
 10
17.8026057703
 20
14.1556713072
 10
17.8049535235
 20
14.1539951199
  0
LWPOLYLINE
  5
63E
100
AcDbEntity
  8
AXIS
100
AcDbPolyline
 62
7
  6
CONTINUOUS
 90
11
 70
0
 10
18.669221069
 20
13.5979942788
 10
18.6679347593
 20
13.6061989203
 10
18.662287435
 20
13.6166618791
 10
18.6524671811
 20
13.6260405296
 10
18.6390447152
 20
13.6337898186
 10
18.6228001021
 20
13.6394593857
 10
18.6046774197
 20
13.6427197362
 10
18.5857298924
 20
13.6433813904
 10
18.5670586818
 20
13.6414058953
 10
18.5497488906
 20
13.6369080596
 10
18.534806501
 20
13.6301492812
  0
LINE
  5
63F
100
AcDbEntity
  8
AXIS
100
AcDbLine
 62
7
  6
CONTINUOUS
 10
19.0482834364
 20
15.1064934536
 11
19.0482834364
 21
15.1027967854
  0
LINE
  5
640
100
AcDbEntity
  8
0
100
AcDbLine
 62
7
  6
CONTINUOUS
 10
19.090747618
 20
10.3469408522
 11
19.090747618
 21
10.2762201704
  0
LINE
  5
641
100
AcDbEntity
  8
0
100
AcDbLine
 62
7
  6
CONTINUOUS
 10
18.4021553948
 20
12.9272044687
 11
18.4045587015
 21
12.9262564842
  0
LWPOLYLINE
  5
642
100
AcDbEntity
  8
0
100
AcDbPolyline
 62
7
  6
CONTINUOUS
 90
6
 70
0
 10
18.3910199013
 20
13.3225974826
 10
18.395321258
 20
13.3193274865
 10
18.399201568
 20
13.3148042546
 10
18.4022809994
 20
13.3094705526
 10
18.4042581161
 20
13.3038484802
 10
18.4049393841
 20
13.2984883651
  0
LINE
  5
643
100
AcDbEntity
  8
AXIS
100
AcDbLine
 62
7
  6
CONTINUOUS
 10
19.1895661866
 20
15.0249256651
 11
19.1895661866
 21
15.0212289968
  0
LINE
  5
644
100
AcDbEntity
  8
0
100
AcDbLine
 62
7
  6
CONTINUOUS
 10
18.8087412452
 20
13.0688862709
 11
18.7704626675
 21
13.090985918
  0
LINE
  5
645
100
AcDbEntity
  8
0
100
AcDbLine
 62
7
  6
CONTINUOUS
 10
18.3910199013
 20
13.3225974826
 11
17.4130370413
 21
13.8872233766
  0
LINE
  5
646
100
AcDbEntity
  8
0
100
AcDbLine
 62
7
  6
CONTINUOUS
 10
19.4331541913
 20
15.2925340011
 11
19.4331541913
 21
15.2737036893
  0
LINE
  5
647
100
AcDbEntity
  8
0
100
AcDbLine
 62
7
  6
CONTINUOUS
 10
19.090747618
 20
10.2762201704
 11
19.0698685677
 21
10.1805867295
  0
LWPOLYLINE
  5
648
100
AcDbEntity
  8
0
100
AcDbPolyline
 62
7
  6
CONTINUOUS
 90
6
 70
0
 10
18.486646748
 20
13.4281173682
 10
18.5015946051
 20
13.4218473422
 10
18.5191668356
 20
13.4185510178
 10
18.5376433472
 20
13.4185510622
 10
18.5552155302
 20
13.4218474711
 10
18.5701632969
 20
13.4281175689
  0
LINE
  5
649
100
AcDbEntity
  8
0
100
AcDbLine
 62
7
  6
CONTINUOUS
 10
18.4546319376
 20
13.414454945
 11
17.349425005
 21
14.0525320298
  0
LINE
  5
64A
100
AcDbEntity
  8
0
100
AcDbLine
 62
7
  6
CONTINUOUS
 10
17.3174101946
 20
14.1031611355
 11
17.3452491601
 21
14.0870886649
  0
LINE
  5
64B
100
AcDbEntity
  8
0
100
AcDbLine
 62
7
  6
CONTINUOUS
 10
18.4588077824
 20
13.4441898388
 11
18.486646748
 21
13.4281173682
  0
LINE
  5
64C
100
AcDbEntity
  8
0
100
AcDbLine
 62
7
  6
CONTINUOUS
 10
18.4824706713
 20
13.4626733139
 11
17.3772637387
 21
14.1007503987
  0
LINE
  5
64D
100
AcDbEntity
  8
0
100
AcDbLine
 62
7
  6
CONTINUOUS
 10
17.3595858472
 20
14.1315292657
 11
17.3950805283
 21
14.1110368656
  0
LINE
  5
64E
100
AcDbEntity
  8
0
100
AcDbLine
 62
7
  6
CONTINUOUS
 10
18.5002874609
 20
13.4729597808
 11
18.535782142
 21
13.4524673807
  0
LINE
  5
64F
100
AcDbEntity
  8
0
100
AcDbLine
 62
7
  6
CONTINUOUS
 10
17.7336004116
 20
14.1843284506
 11
18.6272312059
 21
13.6684021427
  0
LINE
  5
650
100
AcDbEntity
  8
AXIS
100
AcDbLine
 62
7
  6
CONTINUOUS
 10
17.8087649927
 20
14.1524283658
 11
17.8022033322
 21
14.1562166566
  0
LINE
  5
651
100
AcDbEntity
  8
0
100
AcDbLine
 62
7
  6
CONTINUOUS
 10
18.6388337512
 20
13.6751008354
 11
17.7997578366
 21
14.1595305813
  0
LINE
  5
652
100
AcDbEntity
  8
0
100
AcDbLine
 62
7
  6
CONTINUOUS
 10
18.6414970908
 20
13.6766385061
 11
17.7976108036
 21
14.1638454591
  0
LINE
  5
653
100
AcDbEntity
  8
0
100
AcDbLine
 62
7
  6
CONTINUOUS
 10
18.6854153463
 20
13.7019945713
 11
17.8072021854
 21
14.2090197057
  0
LINE
  5
654
100
AcDbEntity
  8
0
100
AcDbLine
 62
7
  6
CONTINUOUS
 10
18.6932967032
 20
13.7065448477
 11
17.8087649927
 21
14.2172179159
  0
LINE
  5
655
100
AcDbEntity
  8
AXIS
100
AcDbLine
 62
7
  6
CONTINUOUS
 10
17.6674822425
 20
14.3092922713
 11
17.8087649927
 21
14.2277244827
  0
LINE
  5
656
100
AcDbEntity
  8
AXIS
100
AcDbLine
 62
7
  6
CONTINUOUS
 10
18.7023957871
 20
13.7117981748
 11
18.8436785373
 21
13.6302303863
  0
LINE
  5
657
100
AcDbEntity
  8
0
100
AcDbLine
 62
7
  6
CONTINUOUS
 10
18.8454880434
 20
13.6328823593
 11
17.6720756451
 21
14.3103369973
  0
LWPOLYLINE
  5
658
100
AcDbEntity
  8
AXIS
100
AcDbPolyline
 62
7
  6
CONTINUOUS
 90
11
 70
0
 10
19.2227409047
 20
15.1387295612
 10
19.2240272143
 20
15.1305249197
 10
19.2296745387
 20
15.1200619608
 10
19.2394947926
 20
15.1106833104
 10
19.2529172585
 20
15.1029340214
 10
19.2691618716
 20
15.0972644543
 10
19.287284554
 20
15.0940041038
 10
19.3062320812
 20
15.0933424496
 10
19.3249032919
 20
15.0953179446
 10
19.3422130831
 20
15.0998157803
 10
19.3571554727
 20
15.1065745588
  0
LWPOLYLINE
  5
659
100
AcDbEntity
  8
AXIS
100
AcDbPolyline
 62
7
  6
CONTINUOUS
 90
11
 70
0
 10
19.3858772428
 20
15.0445448832
 10
19.3871635525
 20
15.0363402416
 10
19.3928108768
 20
15.0258772828
 10
19.4026311307
 20
15.0164986324
 10
19.4160535967
 20
15.0087493433
 10
19.4322982098
 20
15.0030797763
 10
19.4504208922
 20
14.9998194258
 10
19.4693684194
 20
14.9991577716
 10
19.4880396301
 20
15.0011332666
 10
19.5053494213
 20
15.0056311023
 10
19.5202918109
 20
15.0123898808
  0
LWPOLYLINE
  5
65A
100
AcDbEntity
  8
AXIS
100
AcDbPolyline
 62
7
  6
CONTINUOUS
 90
11
 70
0
 10
19.3802141786
 20
15.138709439
 10
19.3789278689
 20
15.1469140805
 10
19.3732805446
 20
15.1573770393
 10
19.3634602907
 20
15.1667556898
 10
19.3500378247
 20
15.1745049788
 10
19.3337932116
 20
15.1801745458
 10
19.3156705292
 20
15.1834348963
 10
19.296723002
 20
15.1840965505
 10
19.2780517913
 20
15.1821210555
 10
19.2607420001
 20
15.1776232198
 10
19.2457996105
 20
15.1708644414
  0
LINE
  5
65B
100
AcDbEntity
  8
0
100
AcDbLine
 62
7
  6
CONTINUOUS
 10
20.0191693885
 20
10.8283144122
 11
20.0191693885
 21
10.7993832242
  0
LINE
  5
65C
100
AcDbEntity
  8
0
100
AcDbLine
 62
7
  6
CONTINUOUS
 10
20.3817688064
 20
14.1103127155
 11
20.3542082305
 21
14.0101782518
  0
LWPOLYLINE
  5
65D
100
AcDbEntity
  8
0
100
AcDbPolyline
 62
7
  6
CONTINUOUS
 90
5
 70
0
 10
18.6149006277
 20
13.5548601452
 10
18.60213188
 20
13.557173466
 10
18.5867157457
 20
13.5577266144
 10
18.5715158484
 20
13.5561299122
 10
18.5670031463
 20
13.5549599494
  0
LWPOLYLINE
  5
65E
100
AcDbEntity
  8
0
100
AcDbPolyline
 62
7
  6
CONTINUOUS
 90
5
 70
0
 10
18.4517642896
 20
13.6490448232
 10
18.4389955418
 20
13.651358144
 10
18.4235794076
 20
13.6519112924
 10
18.4083795102
 20
13.6503145903
 10
18.4038668081
 20
13.6491446274
  0
LWPOLYLINE
  5
65F
100
AcDbEntity
  8
0
100
AcDbPolyline
 62
7
  6
CONTINUOUS
 90
5
 70
0
 10
18.2886279514
 20
13.7432295012
 10
18.2758592037
 20
13.745542822
 10
18.2604430694
 20
13.7460959704
 10
18.245243172
 20
13.7444992683
 10
18.24073047
 20
13.7433293054
  0
LWPOLYLINE
  5
660
100
AcDbEntity
  8
0
100
AcDbPolyline
 62
7
  6
CONTINUOUS
 90
5
 70
0
 10
18.1254916133
 20
13.8374141792
 10
18.1127228655
 20
13.8397275
 10
18.0973067312
 20
13.8402806485
 10
18.0821068339
 20
13.8386839463
 10
18.0775941318
 20
13.8375139834
  0
LINE
  5
661
100
AcDbEntity
  8
AXIS
100
AcDbLine
 62
7
  6
CONTINUOUS
 10
17.8049535235
 20
14.1539951199
 11
17.8087649927
 21
14.1524283658
  0
LWPOLYLINE
  5
662
100
AcDbEntity
  8
AXIS
100
AcDbPolyline
 62
7
  6
CONTINUOUS
 90
11
 70
0
 10
19.549013581
 20
14.9503602052
 10
19.5502998907
 20
14.9421555636
 10
19.555947215
 20
14.9316926048
 10
19.5657674689
 20
14.9223139544
 10
19.5791899349
 20
14.9145646653
 10
19.595434548
 20
14.9088950983
 10
19.6135572303
 20
14.9056347478
 10
19.6325047576
 20
14.9049730936
 10
19.6511759682
 20
14.9069485886
 10
19.6684857595
 20
14.9114464243
 10
19.6834281491
 20
14.9182052027
  0
LWPOLYLINE
  5
663
100
AcDbEntity
  8
AXIS
100
AcDbPolyline
 62
7
  6
CONTINUOUS
 90
11
 70
0
 10
19.5433505167
 20
15.0445247609
 10
19.5420642071
 20
15.0527294025
 10
19.5364168827
 20
15.0631923613
 10
19.5265966288
 20
15.0725710117
 10
19.5131741629
 20
15.0803203008
 10
19.4969295498
 20
15.0859898678
 10
19.4788068674
 20
15.0892502183
 10
19.4598593402
 20
15.0899118725
 10
19.4411881295
 20
15.0879363775
 10
19.4238783383
 20
15.0834385418
 10
19.4089359487
 20
15.0766797634
  0
LINE
  5
664
100
AcDbEntity
  8
0
100
AcDbLine
 62
7
  6
CONTINUOUS
 10
20.0609274892
 20
10.870424947
 11
20.0609274892
 21
10.9070711185
  0
LINE
  5
665
100
AcDbEntity
  8
AXIS
100
AcDbLine
 62
7
  6
CONTINUOUS
 10
20.083196981
 20
14.5089993572
 11
20.083196981
 21
14.505302689
  0
LINE
  5
666
100
AcDbEntity
  8
0
100
AcDbLine
 62
7
  6
CONTINUOUS
 10
20.2198863285
 20
14.4263868427
 11
20.2198863285
 21
14.4247795822
  0
LINE
  5
667
100
AcDbEntity
  8
0
100
AcDbLine
 62
7
  6
CONTINUOUS
 10
17.6464667675
 20
10.4494784125
 11
17.7174573564
 21
10.4904646035
  0
LINE
  5
668
100
AcDbEntity
  8
0
100
AcDbLine
 62
7
  6
CONTINUOUS
 10
17.6901739434
 20
10.4242446336
 11
17.7611645323
 21
10.4652308245
  0
LWPOLYLINE
  5
669
100
AcDbEntity
  8
0
100
AcDbPolyline
 62
7
  6
CONTINUOUS
 90
5
 70
0
 10
17.9623552751
 20
13.9315988572
 10
17.9495865274
 20
13.9339121781
 10
17.9341703931
 20
13.9344653265
 10
17.9189704957
 20
13.9328686243
 10
17.9144577936
 20
13.9316986614
  0
LWPOLYLINE
  5
66A
100
AcDbEntity
  8
0
100
AcDbPolyline
 62
7
  6
CONTINUOUS
 90
5
 70
0
 10
17.7992189369
 20
14.0257835352
 10
17.7864501892
 20
14.0280968561
 10
17.7710340549
 20
14.0286500045
 10
17.7558341576
 20
14.0270533023
 10
17.7513214555
 20
14.0258833395
  0
LWPOLYLINE
  5
66B
100
AcDbEntity
  8
0
100
AcDbPolyline
 62
7
  6
CONTINUOUS
 90
5
 70
0
 10
17.6360825988
 20
14.1199682132
 10
17.623313851
 20
14.1222815341
 10
17.6078977167
 20
14.1228346825
 10
17.5926978194
 20
14.1212379803
 10
17.5881851173
 20
14.1200680175
  0
LWPOLYLINE
  5
66C
100
AcDbEntity
  8
AXIS
100
AcDbPolyline
 62
7
  6
CONTINUOUS
 90
11
 70
0
 10
19.7121499192
 20
14.8561755271
 10
19.7134362288
 20
14.8479708856
 10
19.7190835532
 20
14.8375079268
 10
19.7289038071
 20
14.8281292763
 10
19.742326273
 20
14.8203799873
 10
19.7585708861
 20
14.8147104202
 10
19.7766935685
 20
14.8114500697
 10
19.7956410957
 20
14.8107884155
 10
19.8143123064
 20
14.8127639106
 10
19.8316220976
 20
14.8172617463
 10
19.8465644872
 20
14.8240205247
  0
LWPOLYLINE
  5
66D
100
AcDbEntity
  8
AXIS
100
AcDbPolyline
 62
7
  6
CONTINUOUS
 90
11
 70
0
 10
19.7064868549
 20
14.9503400829
 10
19.7052005452
 20
14.9585447244
 10
19.6995532209
 20
14.9690076833
 10
19.689732967
 20
14.9783863337
 10
19.676310501
 20
14.9861356228
 10
19.6600658879
 20
14.9918051898
 10
19.6419432056
 20
14.9950655403
 10
19.6229956783
 20
14.9957271945
 10
19.6043244677
 20
14.9937516995
 10
19.5870146764
 20
14.9892538638
 10
19.5720722868
 20
14.9824950853
  0
LWPOLYLINE
  5
66E
100
AcDbEntity
  8
AXIS
100
AcDbPolyline
 62
7
  6
CONTINUOUS
 90
11
 70
0
 10
19.8752862573
 20
14.7619908491
 10
19.876572567
 20
14.7537862076
 10
19.8822198913
 20
14.7433232488
 10
19.8920401452
 20
14.7339445983
 10
19.9054626112
 20
14.7261953093
 10
19.9217072243
 20
14.7205257422
 10
19.9398299067
 20
14.7172653917
 10
19.9587774339
 20
14.7166037375
 10
19.9774486446
 20
14.7185792326
 10
19.9947584358
 20
14.7230770683
 10
20.0097008254
 20
14.7298358467
  0
LWPOLYLINE
  5
66F
100
AcDbEntity
  8
AXIS
100
AcDbPolyline
 62
7
  6
CONTINUOUS
 90
11
 70
0
 10
19.8696231931
 20
14.8561554049
 10
19.8683368834
 20
14.8643600464
 10
19.862689559
 20
14.8748230053
 10
19.8528693052
 20
14.8842016557
 10
19.8394468392
 20
14.8919509447
 10
19.8232022261
 20
14.8976205118
 10
19.8050795437
 20
14.9008808623
 10
19.7861320165
 20
14.9015425165
 10
19.7674608058
 20
14.8995670215
 10
19.7501510146
 20
14.8950691858
 10
19.735208625
 20
14.8883104073
  0
LINE
  5
670
100
AcDbEntity
  8
0
100
AcDbLine
 62
7
  6
CONTINUOUS
 10
20.3359741786
 20
14.1242164809
 11
20.3359741786
 21
13.9506293528
  0
LINE
  5
671
100
AcDbEntity
  8
0
100
AcDbLine
 62
7
  6
CONTINUOUS
 10
20.3589408152
 20
14.0080887299
 11
20.3589408152
 21
14.0273729155
  0
LINE
  5
672
100
AcDbEntity
  8
0
100
AcDbLine
 62
7
  6
CONTINUOUS
 10
20.3817688064
 20
14.1506558637
 11
20.3817688064
 21
14.1103127155
  0
LINE
  5
673
100
AcDbEntity
  8
0
100
AcDbLine
 62
7
  6
CONTINUOUS
 10
20.3972193928
 20
13.9859890827
 11
20.3972193928
 21
14.1595762108
  0
LINE
  5
674
100
AcDbEntity
  8
0
100
AcDbLine
 62
7
  6
CONTINUOUS
 10
17.6901739434
 20
10.3519166636
 11
17.7893495192
 21
10.4091753672
  0
LINE
  5
675
100
AcDbEntity
  8
0
100
AcDbLine
 62
7
  6
CONTINUOUS
 10
17.833544616
 20
10.4234431091
 11
17.9705123265
 21
10.5025209816
  0
LWPOLYLINE
  5
676
100
AcDbEntity
  8
AXIS
100
AcDbPolyline
 62
7
  6
CONTINUOUS
 90
11
 70
0
 10
20.0384225955
 20
14.6678061711
 10
20.0397089052
 20
14.6596015296
 10
20.0453562295
 20
14.6491385708
 10
20.0551764834
 20
14.6397599203
 10
20.0685989493
 20
14.6320106313
 10
20.0848435625
 20
14.6263410642
 10
20.1029662448
 20
14.6230807137
 10
20.1219137721
 20
14.6224190595
 10
20.1405849827
 20
14.6243945546
 10
20.1578947739
 20
14.6288923902
 10
20.1728371636
 20
14.6356511687
  0
LWPOLYLINE
  5
677
100
AcDbEntity
  8
AXIS
100
AcDbPolyline
 62
7
  6
CONTINUOUS
 90
11
 70
0
 10
20.0327595312
 20
14.7619707269
 10
20.0314732216
 20
14.7701753684
 10
20.0258258972
 20
14.7806383272
 10
20.0160056433
 20
14.7900169777
 10
20.0025831774
 20
14.7977662667
 10
19.9863385643
 20
14.8034358338
 10
19.9682158819
 20
14.8066961843
 10
19.9492683547
 20
14.8073578385
 10
19.930597144
 20
14.8053823435
 10
19.9132873528
 20
14.8008845078
 10
19.8983449632
 20
14.7941257293
  0
LINE
  5
678
100
AcDbEntity
  8
0
100
AcDbLine
 62
7
  6
CONTINUOUS
 10
20.5745521268
 20
14.5853450917
 11
20.5745521268
 21
11.0493110018
  0
LINE
  5
679
100
AcDbEntity
  8
0
100
AcDbLine
 62
7
  6
CONTINUOUS
 10
20.5918487966
 20
14.6094537977
 11
20.5918487966
 21
11.0734197078
  0
LINE
  5
67A
100
AcDbEntity
  8
0
100
AcDbLine
 62
7
  6
CONTINUOUS
 10
18.1138829992
 20
10.1796216303
 11
18.1575901751
 21
10.2048558294
  0
LWPOLYLINE
  5
67B
100
AcDbEntity
  8
AXIS
100
AcDbPolyline
 62
7
  6
CONTINUOUS
 90
11
 70
0
 10
20.2015589337
 20
14.5736214931
 10
20.2028452433
 20
14.5654168516
 10
20.2084925677
 20
14.5549538928
 10
20.2183128216
 20
14.5455752423
 10
20.2317352875
 20
14.5378259533
 10
20.2479799006
 20
14.5321563862
 10
20.266102583
 20
14.5288960357
 10
20.2850501102
 20
14.5282343815
 10
20.3037213209
 20
14.5302098765
 10
20.3210311121
 20
14.5347077122
 10
20.3359735017
 20
14.5414664907
  0
LWPOLYLINE
  5
67C
100
AcDbEntity
  8
AXIS
100
AcDbPolyline
 62
7
  6
CONTINUOUS
 90
11
 70
0
 10
20.1958958694
 20
14.6677860489
 10
20.1946095597
 20
14.6759906904
 10
20.1889622354
 20
14.6864536492
 10
20.1791419815
 20
14.6958322997
 10
20.1657195155
 20
14.7035815887
 10
20.1494749024
 20
14.7092511558
 10
20.13135222
 20
14.7125115063
 10
20.1124046928
 20
14.7131731605
 10
20.0937334821
 20
14.7111976655
 10
20.0764236909
 20
14.7066998298
 10
20.0614813013
 20
14.6999410513
  0
LWPOLYLINE
  5
67D
100
AcDbEntity
  8
AXIS
100
AcDbPolyline
 62
7
  6
CONTINUOUS
 90
11
 70
0
 10
20.3590322075
 20
14.5736013709
 10
20.3577458979
 20
14.5818060124
 10
20.3520985735
 20
14.5922689712
 10
20.3422783197
 20
14.6016476217
 10
20.3288558537
 20
14.6093969107
 10
20.3126112406
 20
14.6150664778
 10
20.2944885582
 20
14.6183268283
 10
20.275541031
 20
14.6189884825
 10
20.2568698203
 20
14.6170129874
 10
20.2395600291
 20
14.6125151518
 10
20.2246176395
 20
14.6057563733
  0
LWPOLYLINE
  5
67E
100
AcDbEntity
  8
0
100
AcDbPolyline
 62
7
  6
CONTINUOUS
 90
4
 70
0
 10
20.5918354246
 20
11.0734197066
 10
20.5911217686
 20
11.0680862147
 10
20.5854122856
 20
11.0579410277
 10
20.5745521268
 20
11.0493110018
  0
LINE
  5
67F
100
AcDbEntity
  8
0
100
AcDbLine
 62
7
  6
CONTINUOUS
 10
20.3972193928
 20
13.9859890827
 11
20.3589408152
 21
14.0080887299
  0
LWPOLYLINE
  5
680
100
AcDbEntity
  8
0
100
AcDbPolyline
 62
7
  6
CONTINUOUS
 90
4
 70
0
 10
20.5918354246
 20
14.6094537965
 10
20.5911216916
 20
14.6147875711
 10
20.5854120624
 20
14.6249327307
 10
20.5745517791
 20
14.6335627044
  0
LINE
  5
681
100
AcDbEntity
  8
0
100
AcDbLine
 62
7
  6
CONTINUOUS
 10
20.0609274892
 20
10.870424947
 11
20.0191693885
 21
10.8283144122
  0
LINE
  5
682
100
AcDbEntity
  8
0
100
AcDbLine
 62
7
  6
CONTINUOUS
 10
20.0609274892
 20
10.9070711185
 11
19.090747618
 21
10.3469408522
  0
LWPOLYLINE
  5
683
100
AcDbEntity
  8
0
100
AcDbPolyline
 62
7
  6
CONTINUOUS
 90
5
 70
0
 10
20.3047117663
 20
14.5304672373
 10
20.2919430186
 20
14.5327805581
 10
20.2765268843
 20
14.5333337066
 10
20.2613269869
 20
14.5317370044
 10
20.2568142848
 20
14.5305670415
  0
LINE
  5
684
100
AcDbEntity
  8
0
100
AcDbLine
 62
7
  6
CONTINUOUS
 10
18.5701632969
 20
9.892083479
 11
19.0698685677
 21
10.1805867295
  0
LINE
  5
685
100
AcDbEntity
  8
0
100
AcDbLine
 62
7
  6
CONTINUOUS
 10
20.0609274892
 20
10.7527714491
 11
20.5745521268
 21
11.0493110018
  0
LWPOLYLINE
  5
686
100
AcDbEntity
  8
0
100
AcDbPolyline
 62
7
  6
CONTINUOUS
 90
6
 70
0
 10
18.5701632969
 20
9.892083479
 10
18.5552155302
 20
9.8858133812
 10
18.5376433472
 20
9.8825169723
 10
18.5191668356
 20
9.8825169279
 10
18.5015946051
 20
9.8858132523
 10
18.486646748
 20
9.8920832783
  0
LWPOLYLINE
  5
687
100
AcDbEntity
  8
0
100
AcDbPolyline
 62
7
  6
CONTINUOUS
 90
5
 70
0
 10
20.1415754281
 20
14.6246519153
 10
20.1288066804
 20
14.6269652361
 10
20.1133905461
 20
14.6275183846
 10
20.0981906487
 20
14.6259216824
 10
20.0936779467
 20
14.6247517195
  0
LWPOLYLINE
  5
688
100
AcDbEntity
  8
0
100
AcDbPolyline
 62
7
  6
CONTINUOUS
 90
5
 70
0
 10
19.97843909
 20
14.7188365933
 10
19.9656703422
 20
14.7211499142
 10
19.9502542079
 20
14.7217030626
 10
19.9350543106
 20
14.7201063604
 10
19.9305416085
 20
14.7189363975
  0
LWPOLYLINE
  5
689
100
AcDbEntity
  8
0
100
AcDbPolyline
 62
7
  6
CONTINUOUS
 90
5
 70
0
 10
19.8153027518
 20
14.8130212713
 10
19.8025340041
 20
14.8153345922
 10
19.7871178698
 20
14.8158877406
 10
19.7719179724
 20
14.8142910384
 10
19.7674052703
 20
14.8131210756
  0
LINE
  5
68A
100
AcDbEntity
  8
0
100
AcDbLine
 62
7
  6
CONTINUOUS
 10
20.2198863285
 20
14.4263868427
 11
19.0464739303
 21
15.1038414806
  0
LINE
  5
68B
100
AcDbEntity
  8
AXIS
100
AcDbLine
 62
7
  6
CONTINUOUS
 10
20.2244797312
 20
14.4274315687
 11
20.083196981
 21
14.5089993572
  0
LINE
  5
68C
100
AcDbEntity
  8
AXIS
100
AcDbLine
 62
7
  6
CONTINUOUS
 10
19.1895661866
 20
15.0249256651
 11
19.0482834364
 21
15.1064934536
  0
LINE
  5
68D
100
AcDbEntity
  8
0
100
AcDbLine
 62
7
  6
CONTINUOUS
 10
20.1583615621
 20
14.5523953893
 11
19.2647307677
 21
15.0683216972
  0
LWPOLYLINE
  5
68E
100
AcDbEntity
  8
0
100
AcDbPolyline
 62
7
  6
CONTINUOUS
 90
5
 70
0
 10
19.6521664136
 20
14.9072059493
 10
19.6393976659
 20
14.9095192702
 10
19.6239815316
 20
14.9100724186
 10
19.6087816343
 20
14.9084757164
 10
19.6042689322
 20
14.9073057536
  0
LWPOLYLINE
  5
68F
100
AcDbEntity
  8
0
100
AcDbPolyline
 62
7
  6
CONTINUOUS
 90
5
 70
0
 10
19.4890300755
 20
15.0013906273
 10
19.4762613277
 20
15.0037039482
 10
19.4608451934
 20
15.0042570966
 10
19.4456452961
 20
15.0026603944
 10
19.441132594
 20
15.0014904316
  0
LWPOLYLINE
  5
690
100
AcDbEntity
  8
0
100
AcDbPolyline
 62
7
  6
CONTINUOUS
 90
5
 70
0
 10
19.3258937373
 20
15.0955753054
 10
19.3131249896
 20
15.0978886262
 10
19.2977088553
 20
15.0984417746
 10
19.2825089579
 20
15.0968450724
 10
19.2779962558
 20
15.0956751096
  0
LWPOLYLINE
  5
691
100
AcDbEntity
  8
0
100
AcDbPolyline
 62
7
  6
CONTINUOUS
 90
4
 70
0
 10
20.5291989194
 20
14.6395235839
 10
20.5286176018
 20
14.6397030276
 10
20.5219034295
 20
14.639037997
 10
20.514698235
 20
14.6359734412
  0
LINE
  5
692
100
AcDbEntity
  8
0
100
AcDbLine
 62
7
  6
CONTINUOUS
 10
20.5323761265
 20
14.6051945742
 11
20.4968814454
 21
14.6256869743
  0
LINE
  5
693
100
AcDbEntity
  8
0
100
AcDbLine
 62
7
  6
CONTINUOUS
 10
19.3916745128
 20
15.2637640591
 11
19.3561798317
 21
15.2842564592
  0
LINE
  5
694
100
AcDbEntity
  8
0
100
AcDbLine
 62
7
  6
CONTINUOUS
 10
19.4094913024
 20
15.274050526
 11
20.514698235
 21
14.6359734412
  0
LINE
  5
695
100
AcDbEntity
  8
0
100
AcDbLine
 62
7
  6
CONTINUOUS
 10
19.4291760077
 20
15.2760004427
 11
20.5304050521
 21
14.6402199408
  0
LWPOLYLINE
  5
696
100
AcDbEntity
  8
0
100
AcDbPolyline
 62
7
  6
CONTINUOUS
 90
6
 70
0
 10
19.4053152257
 20
15.3086064717
 10
19.3903673686
 20
15.3148764977
 10
19.3727951381
 20
15.3181728221
 10
19.3543186264
 20
15.3181727777
 10
19.3367464434
 20
15.3148763688
 10
19.3217986768
 20
15.308606271
  0
LINE
  5
697
100
AcDbEntity
  8
0
100
AcDbLine
 62
7
  6
CONTINUOUS
 10
20.5745517791
 20
14.6335627044
 11
20.5467128136
 21
14.6496351751
  0
LINE
  5
698
100
AcDbEntity
  8
0
100
AcDbLine
 62
7
  6
CONTINUOUS
 10
19.4331541913
 20
15.2925340011
 11
19.4053152257
 21
15.3086064717
  0
CIRCLE
  5
699
100
AcDbEntity
  8
0
100
AcDbCircle
 62
7
  6
CONTINUOUS
 10
15.2229827477
 20
1.1139932523
 40
0.252091
  0
CIRCLE
  5
69A
100
AcDbEntity
  8
0
100
AcDbCircle
 62
7
  6
CONTINUOUS
 10
15.2229827477
 20
1.1139932523
 40
0.182698
  0
CIRCLE
  5
69B
100
AcDbEntity
  8
0
100
AcDbCircle
 62
7
  6
CONTINUOUS
 10
14.8013422688
 20
1.8652439144
 40
0.0638444824
  0
ARC
  5
69C
100
AcDbEntity
  8
0
100
AcDbCircle
 62
7
  6
CONTINUOUS
 10
13.7115179222
 20
10.5924203516
 40
0.0196850394
100
AcDbArc
 50
90.0
 51
180.0
  0
ARC
  5
69D
100
AcDbEntity
  8
0
100
AcDbCircle
 62
7
  6
CONTINUOUS
 10
13.7115179222
 20
10.1396644461
 40
0.0196850394
100
AcDbArc
 50
180.0
 51
270.0
  0
ARC
  5
69E
100
AcDbEntity
  8
0
100
AcDbCircle
 62
7
  6
CONTINUOUS
 10
15.0945887883
 20
10.1396644461
 40
0.0196850394
100
AcDbArc
 50
270.0
 51
360.0
  0
ARC
  5
69F
100
AcDbEntity
  8
0
100
AcDbCircle
 62
7
  6
CONTINUOUS
 10
15.0945887883
 20
10.5924203516
 40
0.0196850394
100
AcDbArc
 50
0.0
 51
90.0
  0
ARC
  5
6A0
100
AcDbEntity
  8
0
100
AcDbCircle
 62
7
  6
CONTINUOUS
 10
3.2946272246
 20
10.5924203516
 40
0.0196850394
100
AcDbArc
 50
90.0
 51
180.0
  0
ARC
  5
6A1
100
AcDbEntity
  8
0
100
AcDbCircle
 62
7
  6
CONTINUOUS
 10
3.2946272246
 20
10.1396644461
 40
0.0196850394
100
AcDbArc
 50
180.0
 51
270.0
  0
ARC
  5
6A2
100
AcDbEntity
  8
0
100
AcDbCircle
 62
7
  6
CONTINUOUS
 10
4.6776980907
 20
10.1396644461
 40
0.0196850394
100
AcDbArc
 50
270.0
 51
360.0
  0
ARC
  5
6A3
100
AcDbEntity
  8
0
100
AcDbCircle
 62
7
  6
CONTINUOUS
 10
4.6776980907
 20
10.5924203516
 40
0.0196850394
100
AcDbArc
 50
0.0
 51
90.0
  0
ARC
  5
6A4
100
AcDbEntity
  8
AXIS
100
AcDbCircle
 62
7
  6
CONTINUOUS
 10
8.1034020524
 20
3.3319460004
 40
0.1157480315
100
AcDbArc
 50
180.0
 51
360.0
  0
ARC
  5
6A5
100
AcDbEntity
  8
AXIS
100
AcDbCircle
 62
7
  6
CONTINUOUS
 10
8.2876540209
 20
3.4894263154
 40
0.1157480315
100
AcDbArc
 50
0.0
 51
180.0
  0
ARC
  5
6A6
100
AcDbEntity
  8
AXIS
100
AcDbCircle
 62
7
  6
CONTINUOUS
 10
8.1034020524
 20
3.3319460004
 40
0.068503937
100
AcDbArc
 50
180.0
 51
360.0
  0
ARC
  5
6A7
100
AcDbEntity
  8
AXIS
100
AcDbCircle
 62
7
  6
CONTINUOUS
 10
8.2876540209
 20
3.4894263154
 40
0.068503937
100
AcDbArc
 50
0.0
 51
180.0
  0
ARC
  5
6A8
100
AcDbEntity
  8
AXIS
100
AcDbCircle
 62
7
  6
CONTINUOUS
 10
8.1955280367
 20
3.4106861579
 40
0.0625984252
100
AcDbArc
 50
112.3846981028
 51
247.6153018972
  0
ARC
  5
6A9
100
AcDbEntity
  8
AXIS
100
AcDbCircle
 62
7
  6
CONTINUOUS
 10
8.1955280367
 20
3.4106861579
 40
0.0625984252
100
AcDbArc
 50
292.3846981028
 51
67.6153018972
  0
ARC
  5
6AA
100
AcDbEntity
  8
AXIS
100
AcDbCircle
 62
7
  6
CONTINUOUS
 10
8.1955280367
 20
3.4106861579
 40
0.0592519685
100
AcDbArc
 50
293.4951285447
 51
66.5048714553
  0
ARC
  5
6AB
100
AcDbEntity
  8
AXIS
100
AcDbCircle
 62
7
  6
CONTINUOUS
 10
8.1955280367
 20
3.4106861579
 40
0.0592519685
100
AcDbArc
 50
113.4951285447
 51
246.5048714553
  0
ARC
  5
6AC
100
AcDbEntity
  8
0
100
AcDbCircle
 62
7
  6
CONTINUOUS
 10
10.5813548083
 20
4.2374578114
 40
0.0590551181
100
AcDbArc
 50
0.0
 51
90.0
  0
ARC
  5
6AD
100
AcDbEntity
  8
0
100
AcDbCircle
 62
7
  6
CONTINUOUS
 10
10.5813548083
 20
2.5839145044
 40
0.0590551181
100
AcDbArc
 50
270.0
 51
360.0
  0
ARC
  5
6AE
100
AcDbEntity
  8
0
100
AcDbCircle
 62
7
  6
CONTINUOUS
 10
7.746709139
 20
4.2374578114
 40
0.0590551181
100
AcDbArc
 50
90.0
 51
180.0
  0
ARC
  5
6AF
100
AcDbEntity
  8
0
100
AcDbCircle
 62
7
  6
CONTINUOUS
 10
7.746709139
 20
2.5839145044
 40
0.0590551181
100
AcDbArc
 50
180.0
 51
270.0
  0
ARC
  5
6B0
100
AcDbEntity
  8
AXIS
100
AcDbCircle
 62
7
  6
CONTINUOUS
 10
7.9915910288
 20
3.3910011185
 40
0.0433070866
100
AcDbArc
 50
0.0
 51
90.0
  0
ARC
  5
6B1
100
AcDbEntity
  8
AXIS
100
AcDbCircle
 62
7
  6
CONTINUOUS
 10
8.3994650446
 20
3.4303711973
 40
0.0433070866
100
AcDbArc
 50
180.0
 51
270.0
  0
ARC
  5
6B2
100
AcDbEntity
  8
0
100
AcDbCircle
 62
7
  6
CONTINUOUS
 10
8.0026146508
 20
3.6047806461
 40
0.0393700787
100
AcDbArc
 50
90.0
 51
180.0
  0
ARC
  5
6B3
100
AcDbEntity
  8
0
100
AcDbCircle
 62
7
  6
CONTINUOUS
 10
8.0026146508
 20
3.2165916697
 40
0.0393700787
100
AcDbArc
 50
180.0
 51
270.0
  0
ARC
  5
6B4
100
AcDbEntity
  8
0
100
AcDbCircle
 62
7
  6
CONTINUOUS
 10
8.3884414225
 20
3.2165916697
 40
0.0393700787
100
AcDbArc
 50
270.0
 51
360.0
  0
ARC
  5
6B5
100
AcDbEntity
  8
0
100
AcDbCircle
 62
7
  6
CONTINUOUS
 10
8.3884414225
 20
3.6047806461
 40
0.0393700787
100
AcDbArc
 50
0.0
 51
90.0
  0
ARC
  5
6B6
100
AcDbEntity
  8
0
100
AcDbCircle
 62
7
  6
CONTINUOUS
 10
8.5234807926
 20
3.7167885201
 40
0.0393700787
100
AcDbArc
 50
0.0
 51
90.0
  0
ARC
  5
6B7
100
AcDbEntity
  8
0
100
AcDbCircle
 62
7
  6
CONTINUOUS
 10
8.5234807926
 20
3.1045837957
 40
0.0393700787
100
AcDbArc
 50
270.0
 51
360.0
  0
CIRCLE
  5
6B8
100
AcDbEntity
  8
AXIS
100
AcDbCircle
 62
7
  6
CONTINUOUS
 10
7.9691500839
 20
13.6213837465
 40
0.0787401575
  0
CIRCLE
  5
6B9
100
AcDbEntity
  8
AXIS
100
AcDbCircle
 62
7
  6
CONTINUOUS
 10
7.9691500839
 20
13.3906750851
 40
0.0787401575
  0
CIRCLE
  5
6BA
100
AcDbEntity
  8
AXIS
100
AcDbCircle
 62
7
  6
CONTINUOUS
 10
7.9691500839
 20
13.1599664236
 40
0.0787401575
  0
CIRCLE
  5
6BB
100
AcDbEntity
  8
0
100
AcDbCircle
 62
7
  6
CONTINUOUS
 10
7.9691500839
 20
13.6213837465
 40
0.063976378
  0
CIRCLE
  5
6BC
100
AcDbEntity
  8
0
100
AcDbCircle
 62
7
  6
CONTINUOUS
 10
7.9691500839
 20
13.3906750851
 40
0.063976378
  0
CIRCLE
  5
6BD
100
AcDbEntity
  8
0
100
AcDbCircle
 62
7
  6
CONTINUOUS
 10
7.9691500839
 20
13.1599664236
 40
0.063976378
  0
ARC
  5
6BE
100
AcDbEntity
  8
0
100
AcDbCircle
 62
7
  6
CONTINUOUS
 10
7.746709139
 20
13.0253207544
 40
0.0590551181
100
AcDbArc
 50
180.0
 51
270.0
  0
CIRCLE
  5
6BF
100
AcDbEntity
  8
AXIS
100
AcDbCircle
 62
7
  6
CONTINUOUS
 10
7.9691500839
 20
14.5442183921
 40
0.0787401575
  0
CIRCLE
  5
6C0
100
AcDbEntity
  8
AXIS
100
AcDbCircle
 62
7
  6
CONTINUOUS
 10
7.9691500839
 20
14.3135097307
 40
0.0787401575
  0
CIRCLE
  5
6C1
100
AcDbEntity
  8
AXIS
100
AcDbCircle
 62
7
  6
CONTINUOUS
 10
7.9691500839
 20
14.0828010693
 40
0.0787401575
  0
CIRCLE
  5
6C2
100
AcDbEntity
  8
AXIS
100
AcDbCircle
 62
7
  6
CONTINUOUS
 10
7.9691500839
 20
13.8520924079
 40
0.0787401575
  0
CIRCLE
  5
6C3
100
AcDbEntity
  8
0
100
AcDbCircle
 62
7
  6
CONTINUOUS
 10
7.9691500839
 20
14.5442183921
 40
0.063976378
  0
CIRCLE
  5
6C4
100
AcDbEntity
  8
0
100
AcDbCircle
 62
7
  6
CONTINUOUS
 10
7.9691500839
 20
14.3135097307
 40
0.063976378
  0
CIRCLE
  5
6C5
100
AcDbEntity
  8
0
100
AcDbCircle
 62
7
  6
CONTINUOUS
 10
7.9691500839
 20
14.0828010693
 40
0.063976378
  0
CIRCLE
  5
6C6
100
AcDbEntity
  8
0
100
AcDbCircle
 62
7
  6
CONTINUOUS
 10
7.9691500839
 20
13.8520924079
 40
0.063976378
  0
ARC
  5
6C7
100
AcDbEntity
  8
0
100
AcDbCircle
 62
7
  6
CONTINUOUS
 10
7.746709139
 20
14.6788640614
 40
0.0590551181
100
AcDbArc
 50
90.0
 51
180.0
  0
CIRCLE
  5
6C8
100
AcDbEntity
  8
AXIS
100
AcDbCircle
 62
7
  6
CONTINUOUS
 10
10.3589138634
 20
13.1599664236
 40
0.0787401575
  0
CIRCLE
  5
6C9
100
AcDbEntity
  8
AXIS
100
AcDbCircle
 62
7
  6
CONTINUOUS
 10
10.3589138634
 20
13.3906750851
 40
0.0787401575
  0
CIRCLE
  5
6CA
100
AcDbEntity
  8
AXIS
100
AcDbCircle
 62
7
  6
CONTINUOUS
 10
10.3589138634
 20
13.6213837465
 40
0.0787401575
  0
CIRCLE
  5
6CB
100
AcDbEntity
  8
0
100
AcDbCircle
 62
7
  6
CONTINUOUS
 10
10.3589138634
 20
13.1599664236
 40
0.063976378
  0
CIRCLE
  5
6CC
100
AcDbEntity
  8
0
100
AcDbCircle
 62
7
  6
CONTINUOUS
 10
10.3589138634
 20
13.3906750851
 40
0.063976378
  0
CIRCLE
  5
6CD
100
AcDbEntity
  8
0
100
AcDbCircle
 62
7
  6
CONTINUOUS
 10
10.3589138634
 20
13.6213837465
 40
0.063976378
  0
ARC
  5
6CE
100
AcDbEntity
  8
0
100
AcDbCircle
 62
7
  6
CONTINUOUS
 10
10.5813548083
 20
13.0253207544
 40
0.0590551181
100
AcDbArc
 50
270.0
 51
360.0
  0
CIRCLE
  5
6CF
100
AcDbEntity
  8
AXIS
100
AcDbCircle
 62
7
  6
CONTINUOUS
 10
10.3589138634
 20
13.8520924079
 40
0.0787401575
  0
CIRCLE
  5
6D0
100
AcDbEntity
  8
AXIS
100
AcDbCircle
 62
7
  6
CONTINUOUS
 10
10.3589138634
 20
14.0828010693
 40
0.0787401575
  0
CIRCLE
  5
6D1
100
AcDbEntity
  8
AXIS
100
AcDbCircle
 62
7
  6
CONTINUOUS
 10
10.3589138634
 20
14.3135097307
 40
0.0787401575
  0
CIRCLE
  5
6D2
100
AcDbEntity
  8
AXIS
100
AcDbCircle
 62
7
  6
CONTINUOUS
 10
10.3589138634
 20
14.5442183921
 40
0.0787401575
  0
CIRCLE
  5
6D3
100
AcDbEntity
  8
0
100
AcDbCircle
 62
7
  6
CONTINUOUS
 10
10.3589138634
 20
13.8520924079
 40
0.063976378
  0
CIRCLE
  5
6D4
100
AcDbEntity
  8
0
100
AcDbCircle
 62
7
  6
CONTINUOUS
 10
10.3589138634
 20
14.0828010693
 40
0.063976378
  0
CIRCLE
  5
6D5
100
AcDbEntity
  8
0
100
AcDbCircle
 62
7
  6
CONTINUOUS
 10
10.3589138634
 20
14.3135097307
 40
0.063976378
  0
CIRCLE
  5
6D6
100
AcDbEntity
  8
0
100
AcDbCircle
 62
7
  6
CONTINUOUS
 10
10.3589138634
 20
14.5442183921
 40
0.063976378
  0
ARC
  5
6D7
100
AcDbEntity
  8
0
100
AcDbCircle
 62
7
  6
CONTINUOUS
 10
10.5813548083
 20
14.6788640614
 40
0.0590551181
100
AcDbArc
 50
0.0
 51
90.0
  0
ENDSEC
  0
SECTION
  2
OBJECTS
  0
DICTIONARY
  5
C
100
AcDbDictionary
280
0
281
1
  3
ACAD_GROUP
350
D
  3
ACAD_MLINESTYLE
350
17
  3
ACAD_LAYOUT
350
1A
  3
ACAD_PLOTSETTINGS
350
19
  3
ACAD_PLOTSTYLENAME
350
E
  3
ACAD_TABLESTYLE
350
       6D8
  0
DICTIONARY
  5
D
102
{ACAD_REACTORS
330
C
102
}
100
AcDbDictionary
280
0
281
1
  0
ACDBDICTIONARYWDFLT
  5
E
102
{ACAD_REACTORS
330
C
102
}
100
AcDbDictionary
281
1
  3
Normal
350
F
100
AcDbDictionaryWithDefault
340
F
  0
DICTIONARY
  5
17
102
{ACAD_REACTORS
330
C
102
}
100
AcDbDictionary
280
0
281
1
  3
Standard
350
18
  0
DICTIONARY
  5
6D8
330
C
100
AcDbDictionary
281
1
  3
Standard
350
       6DB
  3
Standard1
350
       6DC
  0
DICTIONARY
  5
19
102
{ACAD_REACTORS
330
C
102
}
100
AcDbDictionary
281
1
  0
DICTIONARY
  5
1A
102
{ACAD_REACTORS
330
C
102
}
100
AcDbDictionary
281
1
  3
Model
350
6D9
  3
Layout1
350
6DA
  0
ACDBPLACEHOLDER
  5
F
102
{ACAD_REACTORS
330
E
102
}
  0
MLINESTYLE
  5
18
102
{ACAD_REACTORS
330
17
102
}
100
AcDbMlineStyle
  2
STANDARD
 70
0
  3

 62
256
 51
90.0
 52
90.0
 71
2
 49
0.5
 62
256
  6
BYLAYER
 49
-0.5
 62
256
  6
BYLAYER
  0
LAYOUT
  5
6D9
102
{ACAD_REACTORS
330
1A
102
}
100
AcDbPlotSettings
  1

  2
none_device
  4
ANSI_C_(22.00_x_17.00_Inches)
  6

 40
0.0
 41
0.0
 42
0.0
 43
0.0
 44
558.8
 45
431.8
 46
0.0
 47
0.0
 48
0.0
 49
0.0
140
0.0
141
0.0
142
1.0
143
1.0
 70
1024
 72
0
 73
0
 74
0
  7

 75
0
147
1.0
148
0.0
149
0.0
100
AcDbLayout
  1
Model
 70
0
 71
0
 10
0.0
 20
0.0
 11
22.0
 21
17.0
 12
0.0
 22
0.0
 32
0.0
 14
0.0
 24
0.0
 34
0.0
 15
0.0
 25
0.0
 35
0.0
146
0.0
 13
0.0
 23
0.0
 33
0.0
 16
1.0
 26
0.0
 36
0.0
 17
0.0
 27
1.0
 37
0.0
 76
0
330
20C
345
0
346
0
  0
LAYOUT
  5
6DA
102
{ACAD_REACTORS
330
1A
102
}
100
AcDbPlotSettings
  1

  2
none_device
  4
ANSI_C_(22.00_x_17.00_Inches)
  6

 40
0.0
 41
0.0
 42
0.0
 43
0.0
 44
558.8
 45
431.8
 46
0.0
 47
0.0
 48
0.0
 49
0.0
140
0.0
141
0.0
142
1.0
143
1.0
 70
0
 72
0
 73
0
 74
0
  7

 75
0
147
1.0
148
0.0
149
0.0
100
AcDbLayout
  1
Layout1
 70
0
 71
1
 10
0.0
 20
0.0
 11
22.0
 21
17.0
 12
0.0
 22
0.0
 32
0.0
 14
0.0
 24
0.0
 34
0.0
 15
0.0
 25
0.0
 35
0.0
146
0.0
 13
0.0
 23
0.0
 33
0.0
 16
1.0
 26
0.0
 36
0.0
 17
0.0
 27
1.0
 37
0.0
 76
0
330
20D
345
0
346
0
  0
TABLESTYLE
  5
6DB
102
{ACAD_REACTORS
330
6D8
102
}
330
6D8
100
AcDbTableStyle
  3
Standard
 70
0
 71
0
 40
0.06
 41
0.06
280
1
281
1
  7
Standard
140
0.18
170
1
 62
0
 63
7
283
0
  7
Standard
140
0.18
170
1
 62
0
 63
7
283
0
  7
Standard
140
0.18
170
1
 62
0
 63
7
283
0
  0
TABLESTYLE
  5
6DC
102
{ACAD_REACTORS
330
6D8
330
289
102
}
330
6D8
100
AcDbTableStyle
  3
Standard1
 70
1
 71
0
 40
0.06
 41
0.06
280
1
281
1
  7
Standard
140
0.18
170
1
 62
0
 63
7
283
0
  7
Standard
140
0.18
170
1
 62
0
 63
7
283
0
  7
Standard
140
0.18
170
1
 62
0
 63
7
283
0
  0
ENDSEC
  0
EOF
