999
DXF file: 193066_1.dxf
999
Pro/ENGINEER 2013230 by Parametric Technology Corporation
  0
SECTION
  2
HEADER
  9
$ACADVER
  1
AC1018
  9
$DWGCODEPAGE
  3
ANSI_1252
  9
$EXTMAX
 10
17.0
 20
11.0
 30
0.0
  9
$EXTMIN
 10
0.0
 20
0.0
 30
0.0
  9
$LIMMIN
 10
0.0
 20
0.0
  9
$LIMMAX
 10
17.0
 20
11.0
  9
$VIEWCTR
 10
8.5
 20
5.5
  9
$VIEWSIZE
 40
11.0
  9
$CLAYER
  8
0
  9
$LTSCALE
 40
0.935
  9
$CELTYPE
  6
BYLAYER
  9
$DIMSCALE
 40
1.0
  9
$DIMASZ
 40
0.1875
  9
$DIMEXO
 40
0.0625
  9
$DIMDLI
 40
0.646
  9
$DIMEXE
 40
0.125
  9
$DIMCEN
 40
0.153
  9
$DIMLFAC
 40
1.0
  9
$DIMBLK
  1
_FILLED
  9
$DIMTXT
 40
0.1
  9
$DIMTOL
 70
1
  9
$DIMLIM
 70
0
  9
$DIMTFAC
 40
1.0
  9
$DIMTP
 40
0.01
  9
$DIMTM
 40
0.01
  9
$DIMGAP
 40
0.09
  9
$DIMDSEP
 70
46
  9
$PDMODE
 70
3
  9
$PDSIZE
 40
0.3125
  9
$HANDSEED
  5
452
  9
$TILEMODE
 70
1
  9
$MEASUREMENT
 70
0
  9
$INSUNITS
 70
1
  0
ENDSEC
  0
SECTION
  2
CLASSES
  0
CLASS
  1
ACDBDICTIONARYWDFLT
  2
AcDbDictionaryWithDefault
  3
AutoCAD 2000
 90
0
 91
1
280
0
281
0
  0
CLASS
  1
ACDBPLACEHOLDER
  2
AcDbPlaceHolder
  3
AutoCAD 2000
 90
0
 91
1
280
0
281
0
  0
CLASS
  1
LAYOUT
  2
AcDbLayout
  3
AutoCAD 2000
 90
0
 91
0
280
0
281
0
  0
CLASS
  1
TABLESTYLE
  2
AcDbTableStyle
  3
ObjectDBX Classes
 90
2047
 91
1
280
0
281
0
  0
CLASS
  1
ACAD_TABLE
  2
AcDbTable
  3
ObjectDBX Classes
 90
1025
 91
1
280
0
281
1
  0
ENDSEC
  0
SECTION
  2
TABLES
  0
TABLE
  2
VPORT
  5
8
100
AcDbSymbolTable
 70
2
  0
VPORT
  5
1F4
100
AcDbSymbolTableRecord
100
AcDbViewportTableRecord
  2
*ACTIVE
 70
0
 10
0.0
 20
0.0
 11
1.0
 21
1.0
 12
8.5
 22
5.5
 13
0.0
 23
0.0
 14
1.0
 24
1.0
 15
0.0
 25
0.0
 16
0.0
 26
0.0
 36
1.0
 17
0.0
 27
0.0
 37
0.0
 40
11.0
 41
1.5454545455
 42
50.0
 43
0.0
 44
0.0
 50
0.0
 51
0.0
 71
0
 72
100
 73
1
 74
1
 75
0
 76
0
 77
0
 78
0
  0
ENDTAB
  0
TABLE
  2
LTYPE
  5
5
100
AcDbSymbolTable
 70
6
  0
LTYPE
  5
14
100
AcDbSymbolTableRecord
100
AcDbLinetypeTableRecord
  2
BYBLOCK
 70
0
  3

 72
65
 73
0
 40
0.0
  0
LTYPE
  5
15
100
AcDbSymbolTableRecord
100
AcDbLinetypeTableRecord
  2
BYLAYER
 70
0
  3

 72
65
 73
0
 40
0.0
  0
LTYPE
  5
16
100
AcDbSymbolTableRecord
100
AcDbLinetypeTableRecord
  2
CONTINUOUS
 70
64
  3
Solid line
 72
65
 73
0
 40
0.0
  0
LTYPE
  5
1F5
100
AcDbSymbolTableRecord
100
AcDbLinetypeTableRecord
  2
CENTER
 70
64
  3
____ _ ____ _ ____ _ ____ _ ____ _ ____ _ ____
 72
65
 73
4
 40
0.6
 49
0.375
 74
0
 49
-0.075
 74
0
 49
0.075
 74
0
 49
-0.075
 74
0
  0
LTYPE
  5
1F6
100
AcDbSymbolTableRecord
100
AcDbLinetypeTableRecord
  2
HIDDEN
 70
64
  3
- - - - - - - - - - - - - - - - - - - -
 72
65
 73
2
 40
0.2
 49
0.1
 74
0
 49
-0.1
 74
0
  0
LTYPE
  5
1F7
100
AcDbSymbolTableRecord
100
AcDbLinetypeTableRecord
  2
PHANTOM
 70
64
  3
_____ _ _ _____ _ _ _____ _ _ _____
 72
65
 73
6
 40
0.8
 49
0.45
 74
0
 49
-0.05
 74
0
 49
0.1
 74
0
 49
-0.05
 74
0
 49
0.1
 74
0
 49
-0.05
 74
0
  0
LTYPE
  5
1F8
100
AcDbSymbolTableRecord
100
AcDbLinetypeTableRecord
  2
DOT
 70
64
  3
. . . . . . . . . . . . . . . . . . . .
 72
65
 73
2
 40
0.2
 49
0.1
 74
0
 49
-0.1
 74
0
  0
LTYPE
  5
1F9
100
AcDbSymbolTableRecord
100
AcDbLinetypeTableRecord
  2
DASHED
 70
64
  3
- - - - - - - - - - - - - - - - - - - -
 72
65
 73
2
 40
0.2
 49
0.1
 74
0
 49
-0.1
 74
0
  0
ENDTAB
  0
TABLE
  2
LAYER
  5
2
100
AcDbSymbolTable
 70
36
  0
LAYER
  5
10
100
AcDbSymbolTableRecord
100
AcDbLayerTableRecord
  2
0
 70
0
 62
7
  6
CONTINUOUS
370
-3
390
F
  0
LAYER
  5
1FA
100
AcDbSymbolTableRecord
100
AcDbLayerTableRecord
  2
DEFAULT_1
 70
0
 62
7
  6
CENTER
370
-3
390
F
  0
LAYER
  5
1FB
100
AcDbSymbolTableRecord
100
AcDbLayerTableRecord
  2
DEFAULT_2
 70
0
 62
7
  6
HIDDEN
370
-3
390
F
  0
LAYER
  5
1FC
100
AcDbSymbolTableRecord
100
AcDbLayerTableRecord
  2
DEFAULT_3
 70
0
 62
7
  6
PHANTOM
370
-3
390
F
  0
LAYER
  5
1FD
100
AcDbSymbolTableRecord
100
AcDbLayerTableRecord
  2
01_ALL_DTM_PLN
 70
0
 62
7
  6
CONTINUOUS
370
-3
390
F
  0
LAYER
  5
1FE
100
AcDbSymbolTableRecord
100
AcDbLayerTableRecord
  2
01__ASM_ALL_DTM_PLN
 70
0
 62
7
  6
CONTINUOUS
370
-3
390
F
  0
LAYER
  5
1FF
100
AcDbSymbolTableRecord
100
AcDbLayerTableRecord
  2
01__ASM_DEF_DTM_PLN
 70
0
 62
7
  6
CONTINUOUS
370
-3
390
F
  0
LAYER
  5
200
100
AcDbSymbolTableRecord
100
AcDbLayerTableRecord
  2
01___PRT_ALL_DTM_PLN
 70
0
 62
7
  6
CONTINUOUS
370
-3
390
F
  0
LAYER
  5
201
100
AcDbSymbolTableRecord
100
AcDbLayerTableRecord
  2
01___PRT_DEF_DTM_PLN
 70
0
 62
7
  6
CONTINUOUS
370
-3
390
F
  0
LAYER
  5
202
100
AcDbSymbolTableRecord
100
AcDbLayerTableRecord
  2
02_ALL_AXES
 70
0
 62
7
  6
CONTINUOUS
370
-3
390
F
  0
LAYER
  5
203
100
AcDbSymbolTableRecord
100
AcDbLayerTableRecord
  2
02__ASM_ALL_AXES
 70
0
 62
7
  6
CONTINUOUS
370
-3
390
F
  0
LAYER
  5
204
100
AcDbSymbolTableRecord
100
AcDbLayerTableRecord
  2
02___PRT_ALL_AXES
 70
0
 62
7
  6
CONTINUOUS
370
-3
390
F
  0
LAYER
  5
205
100
AcDbSymbolTableRecord
100
AcDbLayerTableRecord
  2
03_ALL_CURVES
 70
0
 62
7
  6
CONTINUOUS
370
-3
390
F
  0
LAYER
  5
206
100
AcDbSymbolTableRecord
100
AcDbLayerTableRecord
  2
03__ASM_ALL_CURVES
 70
0
 62
7
  6
CONTINUOUS
370
-3
390
F
  0
LAYER
  5
207
100
AcDbSymbolTableRecord
100
AcDbLayerTableRecord
  2
03___PRT_ALL_CURVES
 70
0
 62
7
  6
CONTINUOUS
370
-3
390
F
  0
LAYER
  5
208
100
AcDbSymbolTableRecord
100
AcDbLayerTableRecord
  2
04_ALL_DTM_PNT
 70
0
 62
7
  6
CONTINUOUS
370
-3
390
F
  0
LAYER
  5
209
100
AcDbSymbolTableRecord
100
AcDbLayerTableRecord
  2
04__ASM_ALL_DTM_PNT
 70
0
 62
7
  6
CONTINUOUS
370
-3
390
F
  0
LAYER
  5
20A
100
AcDbSymbolTableRecord
100
AcDbLayerTableRecord
  2
04___PRT_ALL_DTM_PNT
 70
0
 62
7
  6
CONTINUOUS
370
-3
390
F
  0
LAYER
  5
20B
100
AcDbSymbolTableRecord
100
AcDbLayerTableRecord
  2
05_ALL_DTM_CSYS
 70
0
 62
7
  6
CONTINUOUS
370
-3
390
F
  0
LAYER
  5
20C
100
AcDbSymbolTableRecord
100
AcDbLayerTableRecord
  2
05__ASM_ALL_DTM_CSYS
 70
0
 62
7
  6
CONTINUOUS
370
-3
390
F
  0
LAYER
  5
20D
100
AcDbSymbolTableRecord
100
AcDbLayerTableRecord
  2
05__ASM_DEF_DTM_CSYS
 70
0
 62
7
  6
CONTINUOUS
370
-3
390
F
  0
LAYER
  5
20E
100
AcDbSymbolTableRecord
100
AcDbLayerTableRecord
  2
05___PRT_ALL_DTM_CSYS
 70
0
 62
7
  6
CONTINUOUS
370
-3
390
F
  0
LAYER
  5
20F
100
AcDbSymbolTableRecord
100
AcDbLayerTableRecord
  2
05___PRT_DEF_DTM_CSYS
 70
0
 62
7
  6
CONTINUOUS
370
-3
390
F
  0
LAYER
  5
210
100
AcDbSymbolTableRecord
100
AcDbLayerTableRecord
  2
06_ALL_SURFS
 70
0
 62
7
  6
CONTINUOUS
370
-3
390
F
  0
LAYER
  5
211
100
AcDbSymbolTableRecord
100
AcDbLayerTableRecord
  2
06__ASM_ALL_SURFS
 70
0
 62
7
  6
CONTINUOUS
370
-3
390
F
  0
LAYER
  5
212
100
AcDbSymbolTableRecord
100
AcDbLayerTableRecord
  2
06___PRT_ALL_SURFS
 70
0
 62
7
  6
CONTINUOUS
370
-3
390
F
  0
LAYER
  5
213
100
AcDbSymbolTableRecord
100
AcDbLayerTableRecord
  2
07__ASM_ALL_SKELETONS
 70
0
 62
7
  6
CONTINUOUS
370
-3
390
F
  0
LAYER
  5
214
100
AcDbSymbolTableRecord
100
AcDbLayerTableRecord
  2
AXIS
 70
0
 62
7
  6
CONTINUOUS
370
-3
390
F
  0
LAYER
  5
215
100
AcDbSymbolTableRecord
100
AcDbLayerTableRecord
  2
AXIS_COSMETIC_THREADS
 70
0
 62
7
  6
CONTINUOUS
370
-3
390
F
  0
LAYER
  5
216
100
AcDbSymbolTableRecord
100
AcDbLayerTableRecord
  2
COSMETIC_THREADS
 70
0
 62
7
  6
CONTINUOUS
370
-3
390
F
  0
LAYER
  5
217
100
AcDbSymbolTableRecord
100
AcDbLayerTableRecord
  2
DATUM_CURVES
 70
0
 62
7
  6
CONTINUOUS
370
-3
390
F
  0
LAYER
  5
218
100
AcDbSymbolTableRecord
100
AcDbLayerTableRecord
  2
DATUM_PLANES
 70
0
 62
7
  6
CONTINUOUS
370
-3
390
F
  0
LAYER
  5
219
100
AcDbSymbolTableRecord
100
AcDbLayerTableRecord
  2
DRIVEN_DIMS
 70
0
 62
7
  6
CONTINUOUS
370
-3
390
F
  0
LAYER
  5
21A
100
AcDbSymbolTableRecord
100
AcDbLayerTableRecord
  2
NOTES
 70
0
 62
7
  6
CONTINUOUS
370
-3
390
F
  0
LAYER
  5
21B
100
AcDbSymbolTableRecord
100
AcDbLayerTableRecord
  2
QUILTS
 70
0
 62
7
  6
CONTINUOUS
370
-3
390
F
  0
LAYER
  5
21C
100
AcDbSymbolTableRecord
100
AcDbLayerTableRecord
  2
SCHEME_DIMS
 70
0
 62
7
  6
CONTINUOUS
370
-3
390
F
  0
LAYER
  5
21D
100
AcDbSymbolTableRecord
100
AcDbLayerTableRecord
  2
SYMBOLS
 70
0
 62
7
  6
CONTINUOUS
370
-3
390
F
  0
ENDTAB
  0
TABLE
  2
STYLE
  5
3
100
AcDbSymbolTable
 70
1
  0
STYLE
  5
11
100
AcDbSymbolTableRecord
100
AcDbTextStyleTableRecord
  2
STANDARD
 70
0
 40
0.0
 41
1.0
 50
0.0
 71
0
 42
0.2
  3
txt
  4

  0
STYLE
  5
21E
100
AcDbSymbolTableRecord
100
AcDbTextStyleTableRecord
  2
TEXTSTYLE_1
 70
0
 40
0.0
 41
0.8
 50
0.0
 71
0
 42
0.2
  3
gdt
  4

  0
STYLE
  5
21F
100
AcDbSymbolTableRecord
100
AcDbTextStyleTableRecord
  2
TEXTSTYLE_2
 70
0
 40
0.0
 41
0.8
 50
0.0
 71
0
 42
0.2
  3
txt
  4

  0
STYLE
  5
220
100
AcDbSymbolTableRecord
100
AcDbTextStyleTableRecord
  2
TEXTSTYLE_3
 70
0
 40
0.0
 41
0.85
 50
0.0
 71
0
 42
0.2
  3
txt
  4

  0
STYLE
  5
221
100
AcDbSymbolTableRecord
100
AcDbTextStyleTableRecord
  2
TEXTSTYLE_4
 70
0
 40
0.0
 41
0.9
 50
0.0
 71
0
 42
0.2
  3
txt
  4

  0
STYLE
  5
222
100
AcDbSymbolTableRecord
100
AcDbTextStyleTableRecord
  2
TEXTSTYLE_5
 70
0
 40
0.0
 41
0.75
 50
0.0
 71
0
 42
0.2
  3
txt
  4

  0
ENDTAB
  0
TABLE
  2
VIEW
  5
6
100
AcDbSymbolTable
 70
0
  0
ENDTAB
  0
TABLE
  2
UCS
  5
7
100
AcDbSymbolTable
 70
0
  0
ENDTAB
  0
TABLE
  2
APPID
  5
9
100
AcDbSymbolTable
 70
1
  0
APPID
  5
223
100
AcDbSymbolTableRecord
100
AcDbRegAppTableRecord
  2
ACAD
 70
0
  0
ENDTAB
  0
TABLE
  2
BLOCK_RECORD
  5
1
100
AcDbSymbolTable
 70
0
  0
BLOCK_RECORD
  5
224
100
AcDbSymbolTableRecord
100
AcDbBlockTableRecord
  2
*Model_Space
  0
BLOCK_RECORD
  5
225
100
AcDbSymbolTableRecord
100
AcDbBlockTableRecord
  2
*Paper_Space
  0
BLOCK_RECORD
  5
226
100
AcDbSymbolTableRecord
100
AcDbBlockTableRecord
  2
_FILLED
  0
BLOCK_RECORD
  5
227
100
AcDbSymbolTableRecord
100
AcDbBlockTableRecord
  2
*D0
  0
BLOCK_RECORD
  5
228
100
AcDbSymbolTableRecord
100
AcDbBlockTableRecord
  2
*D1
  0
BLOCK_RECORD
  5
229
100
AcDbSymbolTableRecord
100
AcDbBlockTableRecord
  2
*D2
  0
BLOCK_RECORD
  5
22A
100
AcDbSymbolTableRecord
100
AcDbBlockTableRecord
  2
*T1
  0
ENDTAB
  0
TABLE
  2
DIMSTYLE
  5
A
100
AcDbSymbolTable
 70
1
100
AcDbDimStyleTable
 71
0
  0
DIMSTYLE
105
22B
100
AcDbSymbolTableRecord
100
AcDbDimStyleTableRecord
  2
STANDARD
 70
0
  3

  4

 40
1.0
 41
0.1875
 42
0.0625
 43
0.38
 44
0.125
 45
0.0
 46
0.0
 47
0.01
 48
0.01
140
0.1
141
0.09
142
0.0
143
25.4
144
1.0
145
0.0
146
1.0
147
0.09
 71
1.0
 72
0.0
 73
1
 74
1
 75
0
 76
0
 77
0
 78
4
170
0
171
2
172
0
173
0
174
0
175
0
176
0
177
0
178
0
270
2
271
2
272
2
273
2
274
2
275
0
280
0
281
0
282
0
283
1
284
4
285
0
286
0
287
3
288
0
340
11
278
46
341
226
342
226
343
226
344
226
  0
DIMSTYLE
105
22C
100
AcDbSymbolTableRecord
100
AcDbDimStyleTableRecord
  2
DIMSTYLE_1
 70
0
  3

  4

 40
1.0
 41
0.1875
 42
0.0625
 43
0.38
 44
0.125
 45
0.0
 46
0.0
 47
0.005
 48
0.005
140
0.1
141
0.09
142
0.0
143
25.4
144
1.0
145
0.0
146
1.0
147
0.1
 71
0.0
 72
0.0
 73
1
 74
1
 75
0
 76
0
 77
0
 78
4
170
0
171
2
172
0
173
0
174
0
175
0
176
0
177
0
178
0
270
2
271
1
272
1
273
2
274
2
275
0
280
0
281
0
282
0
283
1
284
4
285
0
286
0
287
3
288
0
340
11
278
46
341
226
342
226
343
226
344
226
  0
ENDTAB
  0
ENDSEC
  0
SECTION
  2
BLOCKS
  0
BLOCK
  5
20
100
AcDbEntity
  8
0
100
AcDbBlockBegin
  2
*Model_Space
 70
0
 10
0.0
 20
0.0
 30
0.0
  3
*Model_Space
  1

  0
ENDBLK
  5
21
100
AcDbEntity
  8
0
100
AcDbBlockEnd
  0
BLOCK
  5
1C
100
AcDbEntity
  8
0
100
AcDbBlockBegin
  2
*Paper_Space
 70
0
 10
0.0
 20
0.0
 30
0.0
  3
*Paper_Space
  1

  0
ENDBLK
  5
1D
100
AcDbEntity
  8
0
100
AcDbBlockEnd
  0
BLOCK
  5
22D
100
AcDbEntity
  8
0
100
AcDbBlockBegin
  2
_FILLED
 70
64
 10
0.0
 20
0.0
  3
_FILLED
  1

  0
SOLID
  5
22E
100
AcDbEntity
  8
0
  6
BYBLOCK
 62
0
100
AcDbTrace
 10
0.0
 20
0.0
 11
-1.0
 21
0.1666666667
 12
-1.0
 22
-0.1666666667
 13
-1.0
 23
-0.1666666667
  0
ENDBLK
  5
22F
100
AcDbEntity
  8
0
  6
BYBLOCK
 62
0
100
AcDbBlockEnd
  0
BLOCK
  5
230
100
AcDbEntity
  8
DRIVEN_DIMS
100
AcDbBlockBegin
 62
7
  6
CONTINUOUS
  2
*D0
 70
65
 10
0.0
 20
0.0
  3
*D0
  1

  0
MTEXT
  5
231
100
AcDbEntity
  8
DRIVEN_DIMS
100
AcDbMText
 62
7
  6
CONTINUOUS
  7
STANDARD
 71
2
 72
1
 10
6.9487228503
 20
4.927067765
 30
0.0
 11
1.0
 21
0.0
 31
0.0
 44
0.9
  1
29.5\P[1.16]
 40
0.1
 41
0.6
  0
LINE
  5
232
100
AcDbEntity
  8
DRIVEN_DIMS
100
AcDbLine
 62
7
  6
CONTINUOUS
 10
8.0368201717
 20
5.457067765
 11
6.9237228503
 21
5.457067765
  0
LINE
  5
233
100
AcDbEntity
  8
DRIVEN_DIMS
100
AcDbLine
 62
7
  6
CONTINUOUS
 10
8.0368201717
 20
4.297067765
 11
6.9237228503
 21
4.297067765
  0
LINE
  5
234
100
AcDbEntity
  8
DRIVEN_DIMS
100
AcDbLine
 62
7
  6
CONTINUOUS
 10
7.0487228503
 20
5.457067765
 11
7.0487228503
 21
5.027067765
  0
LINE
  5
235
100
AcDbEntity
  8
DRIVEN_DIMS
100
AcDbLine
 62
7
  6
CONTINUOUS
 10
7.0487228503
 20
4.297067765
 11
7.0487228503
 21
4.577067765
  0
INSERT
  5
236
100
AcDbEntity
  8
DRIVEN_DIMS
100
AcDbBlockReference
 62
7
  6
CONTINUOUS
  2
_FILLED
 10
7.0487228503
 20
5.457067765
 41
0.1875
 42
0.1875
 43
0.1875
 50
90.0
  0
INSERT
  5
237
100
AcDbEntity
  8
DRIVEN_DIMS
100
AcDbBlockReference
 62
7
  6
CONTINUOUS
  2
_FILLED
 10
7.0487228503
 20
4.297067765
 41
0.1875
 42
0.1875
 43
0.1875
 50
270.0
  0
ENDBLK
  5
238
100
AcDbEntity
  8
0
  6
BYBLOCK
 62
0
100
AcDbBlockEnd
  0
BLOCK
  5
239
100
AcDbEntity
  8
DRIVEN_DIMS
100
AcDbBlockBegin
 62
7
  6
CONTINUOUS
  2
*D1
 70
65
 10
0.0
 20
0.0
  3
*D1
  1

  0
MTEXT
  5
23A
100
AcDbEntity
  8
DRIVEN_DIMS
100
AcDbMText
 62
7
  6
CONTINUOUS
  7
STANDARD
 71
2
 72
1
 10
9.5922886756
 20
3.847067765
 30
0.0
 11
1.0
 21
0.0
 31
0.0
 44
0.9
  1
95.7\P[3.77]
 40
0.1
 41
0.6
  0
LINE
  5
23B
100
AcDbEntity
  8
DRIVEN_DIMS
100
AcDbLine
 62
7
  6
CONTINUOUS
 10
11.5753201717
 20
4.4390389848
 11
11.5753201717
 21
3.672067765
  0
LINE
  5
23C
100
AcDbEntity
  8
DRIVEN_DIMS
100
AcDbLine
 62
7
  6
CONTINUOUS
 10
7.8092571796
 20
4.6525654285
 11
7.8092571796
 21
3.672067765
  0
LINE
  5
23D
100
AcDbEntity
  8
DRIVEN_DIMS
100
AcDbLine
 62
7
  6
CONTINUOUS
 10
11.5753201717
 20
3.797067765
 11
10.0922886756
 21
3.797067765
  0
LINE
  5
23E
100
AcDbEntity
  8
DRIVEN_DIMS
100
AcDbLine
 62
7
  6
CONTINUOUS
 10
7.8092571796
 20
3.797067765
 11
9.2922886756
 21
3.797067765
  0
INSERT
  5
23F
100
AcDbEntity
  8
DRIVEN_DIMS
100
AcDbBlockReference
 62
7
  6
CONTINUOUS
  2
_FILLED
 10
11.5753201717
 20
3.797067765
 41
0.1875
 42
0.1875
 43
0.1875
  0
INSERT
  5
240
100
AcDbEntity
  8
DRIVEN_DIMS
100
AcDbBlockReference
 62
7
  6
CONTINUOUS
  2
_FILLED
 10
7.8092571796
 20
3.797067765
 41
0.1875
 42
0.1875
 43
0.1875
 50
180.0
  0
ENDBLK
  5
241
100
AcDbEntity
  8
0
  6
BYBLOCK
 62
0
100
AcDbBlockEnd
  0
BLOCK
  5
242
100
AcDbEntity
  8
DRIVEN_DIMS
100
AcDbBlockBegin
 62
7
  6
CONTINUOUS
  2
*D2
 70
65
 10
0.0
 20
0.0
  3
*D2
  1

  0
MTEXT
  5
243
100
AcDbEntity
  8
DRIVEN_DIMS
100
AcDbMText
 62
7
  6
CONTINUOUS
  7
STANDARD
 71
2
 72
1
 10
15.2821868629
 20
5.014623743
 30
0.0
 11
1.0
 21
0.0
 31
0.0
 44
0.9
  1
26.1\P[1.03]
 40
0.1
 41
0.6
  0
LINE
  5
244
100
AcDbEntity
  8
DRIVEN_DIMS
100
AcDbLine
 62
7
  6
CONTINUOUS
 10
11.2101911384
 20
4.363067765
 11
15.5071868629
 21
4.363067765
  0
LINE
  5
245
100
AcDbEntity
  8
DRIVEN_DIMS
100
AcDbLine
 62
7
  6
CONTINUOUS
 10
11.2101911384
 20
5.391067765
 11
15.5071868629
 21
5.391067765
  0
LINE
  5
246
100
AcDbEntity
  8
DRIVEN_DIMS
100
AcDbLine
 62
7
  6
CONTINUOUS
 10
15.3821868629
 20
4.363067765
 11
15.3821868629
 21
4.664623743
  0
LINE
  5
247
100
AcDbEntity
  8
DRIVEN_DIMS
100
AcDbLine
 62
7
  6
CONTINUOUS
 10
15.3821868629
 20
5.391067765
 11
15.3821868629
 21
5.114623743
  0
INSERT
  5
248
100
AcDbEntity
  8
DRIVEN_DIMS
100
AcDbBlockReference
 62
7
  6
CONTINUOUS
  2
_FILLED
 10
15.3821868629
 20
4.363067765
 41
0.1875
 42
0.1875
 43
0.1875
 50
270.0
  0
INSERT
  5
249
100
AcDbEntity
  8
DRIVEN_DIMS
100
AcDbBlockReference
 62
7
  6
CONTINUOUS
  2
_FILLED
 10
15.3821868629
 20
5.391067765
 41
0.1875
 42
0.1875
 43
0.1875
 50
90.0
  0
ENDBLK
  5
24A
100
AcDbEntity
  8
0
  6
BYBLOCK
 62
0
100
AcDbBlockEnd
  0
BLOCK
  5
24B
100
AcDbEntity
  8
0
100
AcDbBlockBegin
  2
*T1
 70
1
 10
0.0
 20
0.0
  3
*T1
  1

  0
LINE
  5
24C
100
AcDbEntity
  8
0
100
AcDbLine
 62
7
  6
CONTINUOUS
 10
4.35
 20
0.0
 11
0.0
 21
0.0
  0
LINE
  5
24D
100
AcDbEntity
  8
0
100
AcDbLine
 62
7
  6
CONTINUOUS
 10
4.35
 20
0.0
 11
4.35
 21
1.92
  0
LINE
  5
24E
100
AcDbEntity
  8
0
100
AcDbLine
 62
7
  6
CONTINUOUS
 10
4.35
 20
1.92
 11
0.0
 21
1.92
  0
LINE
  5
24F
100
AcDbEntity
  8
0
100
AcDbLine
 62
7
  6
CONTINUOUS
 10
0.0
 20
0.0
 11
0.0
 21
1.92
  0
MTEXT
  5
250
100
AcDbEntity
  8
NOTES
100
AcDbMText
 62
7
  6
CONTINUOUS
  7
STANDARD
 71
2
 72
1
 10
4.125
 20
0.48
 30
0.0
 11
1.0
 21
0.0
 31
0.0
 44
0.9
  1
A
 40
0.1
 41
0.2
  0
MTEXT
  5
251
100
AcDbEntity
  8
NOTES
100
AcDbMText
 62
7
  6
CONTINUOUS
  7
STANDARD
 71
2
 72
1
 10
2.175
 20
0.93
 30
0.0
 11
1.0
 21
0.0
 31
0.0
 44
0.9
  1
LEDGSM
 40
0.1
 41
1.2
  0
ENDBLK
  5
252
100
AcDbEntity
  8
0
  6
BYBLOCK
 62
0
100
AcDbBlockEnd
  0
ENDSEC
  0
SECTION
  2
ENTITIES
  0
MTEXT
  5
253
100
AcDbEntity
  8
0
100
AcDbMText
 62
7
  6
CONTINUOUS
  7
TEXTSTYLE_2
 71
2
 72
1
 10
11.0287658475
 20
1.794867839
 30
0.0
 11
1.0
 21
0.0
 31
0.0
 44
0.9
  1
THIRD ANGLE PROJECTION
 40
0.1
 41
1.76
  0
MTEXT
  5
254
100
AcDbEntity
  8
0
100
AcDbMText
 62
7
  6
CONTINUOUS
  7
STANDARD
 71
1
 72
1
 10
12.88
 20
1.457
 30
0.0
 11
1.0
 21
0.0
 31
0.0
 44
0.9
  1
DRAWING NO.
 40
0.08
 41
0.88
  0
MTEXT
  5
255
100
AcDbEntity
  8
0
100
AcDbMText
 62
7
  6
CONTINUOUS
  7
TEXTSTYLE_2
 71
1
 72
1
 10
12.08
 20
2.217
 30
0.0
 11
1.0
 21
0.0
 31
0.0
 44
0.9
  1
TITLE
 40
0.1
 41
0.4
  0
MTEXT
  5
256
100
AcDbEntity
  8
0
100
AcDbMText
 62
7
  6
CONTINUOUS
  7
STANDARD
 71
1
 72
1
 10
12.08
 20
1.457
 30
0.0
 11
1.0
 21
0.0
 31
0.0
 44
0.9
  1
SIZE
 40
0.08
 41
0.32
  0
MTEXT
  5
257
100
AcDbEntity
  8
0
100
AcDbMText
 62
7
  6
CONTINUOUS
  7
STANDARD
 71
1
 72
1
 10
12.08
 20
1.087
 30
0.0
 11
1.0
 21
0.0
 31
0.0
 44
0.9
  1
SCALE
 40
0.08
 41
0.4
  0
MTEXT
  5
258
100
AcDbEntity
  8
0
100
AcDbMText
 62
7
  6
CONTINUOUS
  7
TEXTSTYLE_2
 71
2
 72
1
 10
12.5
 20
1.337
 30
0.0
 11
1.0
 21
0.0
 31
0.0
 44
0.9
  1
B
 40
0.1
 41
0.08
  0
MTEXT
  5
259
100
AcDbEntity
  8
0
100
AcDbMText
 62
7
  6
CONTINUOUS
  7
TEXTSTYLE_3
 71
2
 72
1
 10
11.0340287086
 20
2.7679425959
 30
0.0
 11
1.0
 21
0.0
 31
0.0
 44
0.9
  1
This drawing is the property\Pof BANNER ENGINEERING CORP.\PAny use or reproduction,\Pin any form, without prior\Pwritten permission of\PBanner is prohibited.
 40
0.08
 41
1.904
  0
MTEXT
  5
25A
100
AcDbEntity
  8
0
100
AcDbMText
 62
7
  6
CONTINUOUS
  7
STANDARD
 71
1
 72
1
 10
14.255
 20
1.087
 30
0.0
 11
1.0
 21
0.0
 31
0.0
 44
0.9
  1
SHEET
 40
0.08
 41
0.4
  0
MTEXT
  5
25B
100
AcDbEntity
  8
0
100
AcDbMText
 62
7
  6
CONTINUOUS
  7
STANDARD
 71
1
 72
1
 10
15.63
 20
1.457
 30
0.0
 11
1.0
 21
0.0
 31
0.0
 44
0.9
  1
REV.
 40
0.08
 41
0.32
  0
MTEXT
  5
25C
100
AcDbEntity
  8
0
100
AcDbMText
 62
7
  6
CONTINUOUS
  7
STANDARD
 71
3
 72
1
 10
16.38
 20
0.835443
 30
0.0
 11
1.0
 21
0.0
 31
0.0
 44
0.9
  1
CREO
 40
0.07
 41
0.28
  0
MTEXT
  5
25D
100
AcDbEntity
  8
0
100
AcDbMText
 62
7
  6
CONTINUOUS
  7
TEXTSTYLE_4
 71
2
 72
1
 10
15.1043392653
 20
2.7174764286
 30
0.0
 11
1.0
 21
0.0
 31
0.0
 44
0.9
  1
BANNER ENGINEERING CORP.
 40
0.12
 41
2.592
  0
MTEXT
  5
25E
100
AcDbEntity
  8
0
100
AcDbMText
 62
7
  6
CONTINUOUS
  7
TEXTSTYLE_2
 71
2
 72
1
 10
15.0923490612
 20
2.4764783673
 30
0.0
 11
1.0
 21
0.0
 31
0.0
 44
0.9
  1
www.bannerengineering.com
 40
0.1
 41
2.0
  0
MTEXT
  5
25F
100
AcDbEntity
  8
0
100
AcDbMText
 62
7
  6
CONTINUOUS
  7
TEXTSTYLE_2
 71
2
 72
1
 10
9.485
 20
10.312
 30
0.0
 11
1.0
 21
0.0
 31
0.0
 44
0.9
  1
4
 40
0.1
 41
0.08
  0
MTEXT
  5
260
100
AcDbEntity
  8
0
100
AcDbMText
 62
7
  6
CONTINUOUS
  7
TEXTSTYLE_2
 71
2
 72
1
 10
11.455
 20
10.312
 30
0.0
 11
1.0
 21
0.0
 31
0.0
 44
0.9
  1
3
 40
0.1
 41
0.08
  0
MTEXT
  5
261
100
AcDbEntity
  8
0
100
AcDbMText
 62
7
  6
CONTINUOUS
  7
TEXTSTYLE_2
 71
2
 72
1
 10
13.425
 20
10.312
 30
0.0
 11
1.0
 21
0.0
 31
0.0
 44
0.9
  1
2
 40
0.1
 41
0.08
  0
MTEXT
  5
262
100
AcDbEntity
  8
0
100
AcDbMText
 62
7
  6
CONTINUOUS
  7
TEXTSTYLE_2
 71
2
 72
1
 10
15.395
 20
10.312
 30
0.0
 11
1.0
 21
0.0
 31
0.0
 44
0.9
  1
1
 40
0.1
 41
0.08
  0
MTEXT
  5
263
100
AcDbEntity
  8
0
100
AcDbMText
 62
7
  6
CONTINUOUS
  7
TEXTSTYLE_2
 71
2
 72
1
 10
3.575
 20
10.312
 30
0.0
 11
1.0
 21
0.0
 31
0.0
 44
0.9
  1
7
 40
0.1
 41
0.08
  0
MTEXT
  5
264
100
AcDbEntity
  8
0
100
AcDbMText
 62
7
  6
CONTINUOUS
  7
TEXTSTYLE_2
 71
2
 72
1
 10
5.545
 20
10.312
 30
0.0
 11
1.0
 21
0.0
 31
0.0
 44
0.9
  1
6
 40
0.1
 41
0.08
  0
MTEXT
  5
265
100
AcDbEntity
  8
0
100
AcDbMText
 62
7
  6
CONTINUOUS
  7
TEXTSTYLE_2
 71
2
 72
1
 10
7.515
 20
10.312
 30
0.0
 11
1.0
 21
0.0
 31
0.0
 44
0.9
  1
5
 40
0.1
 41
0.08
  0
MTEXT
  5
266
100
AcDbEntity
  8
0
100
AcDbMText
 62
7
  6
CONTINUOUS
  7
TEXTSTYLE_2
 71
2
 72
1
 10
1.605
 20
10.312
 30
0.0
 11
1.0
 21
0.0
 31
0.0
 44
0.9
  1
8
 40
0.1
 41
0.08
  0
MTEXT
  5
267
100
AcDbEntity
  8
0
100
AcDbMText
 62
7
  6
CONTINUOUS
  7
TEXTSTYLE_2
 71
2
 72
1
 10
1.605
 20
0.787
 30
0.0
 11
1.0
 21
0.0
 31
0.0
 44
0.9
  1
8
 40
0.1
 41
0.08
  0
MTEXT
  5
268
100
AcDbEntity
  8
0
100
AcDbMText
 62
7
  6
CONTINUOUS
  7
TEXTSTYLE_2
 71
2
 72
1
 10
3.575
 20
0.787
 30
0.0
 11
1.0
 21
0.0
 31
0.0
 44
0.9
  1
7
 40
0.1
 41
0.08
  0
MTEXT
  5
269
100
AcDbEntity
  8
0
100
AcDbMText
 62
7
  6
CONTINUOUS
  7
TEXTSTYLE_2
 71
2
 72
1
 10
5.545
 20
0.787
 30
0.0
 11
1.0
 21
0.0
 31
0.0
 44
0.9
  1
6
 40
0.1
 41
0.08
  0
MTEXT
  5
26A
100
AcDbEntity
  8
0
100
AcDbMText
 62
7
  6
CONTINUOUS
  7
TEXTSTYLE_2
 71
2
 72
1
 10
7.515
 20
0.787
 30
0.0
 11
1.0
 21
0.0
 31
0.0
 44
0.9
  1
5
 40
0.1
 41
0.08
  0
MTEXT
  5
26B
100
AcDbEntity
  8
0
100
AcDbMText
 62
7
  6
CONTINUOUS
  7
TEXTSTYLE_2
 71
2
 72
1
 10
9.485
 20
0.787
 30
0.0
 11
1.0
 21
0.0
 31
0.0
 44
0.9
  1
4
 40
0.1
 41
0.08
  0
MTEXT
  5
26C
100
AcDbEntity
  8
0
100
AcDbMText
 62
7
  6
CONTINUOUS
  7
TEXTSTYLE_2
 71
2
 72
1
 10
11.455
 20
0.787
 30
0.0
 11
1.0
 21
0.0
 31
0.0
 44
0.9
  1
3
 40
0.1
 41
0.08
  0
MTEXT
  5
26D
100
AcDbEntity
  8
0
100
AcDbMText
 62
7
  6
CONTINUOUS
  7
TEXTSTYLE_2
 71
2
 72
1
 10
13.425
 20
0.787
 30
0.0
 11
1.0
 21
0.0
 31
0.0
 44
0.9
  1
2
 40
0.1
 41
0.08
  0
MTEXT
  5
26E
100
AcDbEntity
  8
0
100
AcDbMText
 62
7
  6
CONTINUOUS
  7
TEXTSTYLE_2
 71
2
 72
1
 10
15.395
 20
0.787
 30
0.0
 11
1.0
 21
0.0
 31
0.0
 44
0.9
  1
1
 40
0.1
 41
0.08
  0
MTEXT
  5
26F
100
AcDbEntity
  8
0
100
AcDbMText
 62
7
  6
CONTINUOUS
  7
TEXTSTYLE_2
 71
3
 72
1
 10
0.52
 20
4.3995
 30
0.0
 11
1.0
 21
0.0
 31
0.0
 44
0.9
  1
B
 40
0.1
 41
0.08
  0
MTEXT
  5
270
100
AcDbEntity
  8
0
100
AcDbMText
 62
7
  6
CONTINUOUS
  7
TEXTSTYLE_2
 71
3
 72
1
 10
0.52
 20
2.0995
 30
0.0
 11
1.0
 21
0.0
 31
0.0
 44
0.9
  1
A
 40
0.1
 41
0.08
  0
MTEXT
  5
271
100
AcDbEntity
  8
0
100
AcDbMText
 62
7
  6
CONTINUOUS
  7
TEXTSTYLE_2
 71
3
 72
1
 10
0.52
 20
8.9995
 30
0.0
 11
1.0
 21
0.0
 31
0.0
 44
0.9
  1
D
 40
0.1
 41
0.08
  0
MTEXT
  5
272
100
AcDbEntity
  8
0
100
AcDbMText
 62
7
  6
CONTINUOUS
  7
TEXTSTYLE_2
 71
3
 72
1
 10
0.52
 20
6.6995
 30
0.0
 11
1.0
 21
0.0
 31
0.0
 44
0.9
  1
C
 40
0.1
 41
0.08
  0
MTEXT
  5
273
100
AcDbEntity
  8
0
100
AcDbMText
 62
7
  6
CONTINUOUS
  7
TEXTSTYLE_2
 71
1
 72
1
 10
16.48
 20
8.9995
 30
0.0
 11
1.0
 21
0.0
 31
0.0
 44
0.9
  1
D
 40
0.1
 41
0.08
  0
MTEXT
  5
274
100
AcDbEntity
  8
0
100
AcDbMText
 62
7
  6
CONTINUOUS
  7
TEXTSTYLE_2
 71
1
 72
1
 10
16.48
 20
6.6995
 30
0.0
 11
1.0
 21
0.0
 31
0.0
 44
0.9
  1
C
 40
0.1
 41
0.08
  0
MTEXT
  5
275
100
AcDbEntity
  8
0
100
AcDbMText
 62
7
  6
CONTINUOUS
  7
TEXTSTYLE_2
 71
1
 72
1
 10
16.48
 20
4.3995
 30
0.0
 11
1.0
 21
0.0
 31
0.0
 44
0.9
  1
B
 40
0.1
 41
0.08
  0
MTEXT
  5
276
100
AcDbEntity
  8
0
100
AcDbMText
 62
7
  6
CONTINUOUS
  7
TEXTSTYLE_2
 71
1
 72
1
 10
16.48
 20
2.0995
 30
0.0
 11
1.0
 21
0.0
 31
0.0
 44
0.9
  1
A
 40
0.1
 41
0.08
  0
MTEXT
  5
277
100
AcDbEntity
  8
0
100
AcDbMText
 62
7
  6
CONTINUOUS
  7
STANDARD
 71
1
 72
1
 10
14.819264911
 20
1.0627941725
 30
0.0
 11
1.0
 21
0.0
 31
0.0
 44
0.9
  1
1 OF 1
 40
0.1
 41
0.6
  0
MTEXT
  5
278
100
AcDbEntity
  8
0
100
AcDbMText
 62
7
  6
CONTINUOUS
  7
STANDARD
 71
1
 72
1
 10
13.8911999818
 20
1.3747321586
 30
0.0
 11
1.0
 21
0.0
 31
0.0
 44
0.9
  1
193066
 40
0.12
 41
0.72
  0
MTEXT
  5
279
100
AcDbEntity
  8
0
100
AcDbMText
 62
7
  6
CONTINUOUS
  7
STANDARD
 71
1
 72
1
 10
12.644264911
 20
1.0627941725
 30
0.0
 11
1.0
 21
0.0
 31
0.0
 44
0.9
  1
1:1
 40
0.1
 41
0.3
  0
MTEXT
  5
27A
100
AcDbEntity
  8
0
100
AcDbMText
 62
7
  6
CONTINUOUS
  7
STANDARD
 71
1
 72
1
 10
0.8489354566
 20
1.4938330621
 30
0.0
 11
1.0
 21
0.0
 31
0.0
 44
0.9
  1
NOTES:\P1. ALL DIMENSIONS ARE MILLIMETERS [INCHES] UNLESS OTHERWISE NOTED.\P2. REFER TO "www.bannerengineering.com" FOR ADDITIONAL DATA AND SPECIFICATIONS.
 40
0.1
 41
7.9
  0
MTEXT
  5
27B
100
AcDbEntity
  8
0
100
AcDbMText
 62
7
  6
CONTINUOUS
  7
TEXTSTYLE_5
 71
2
 72
1
 10
11.0519651892
 20
2.0334024775
 30
0.0
 11
1.0
 21
0.0
 31
0.0
 44
0.9
  1
C  2015 Banner Engineering Corp.
 40
0.08
 41
1.92
  0
DIMENSION
  5
27C
100
AcDbEntity
  8
DRIVEN_DIMS
100
AcDbDimension
 62
7
  6
CONTINUOUS
  2
*D0
 10
7.0487228503
 20
4.297067765
 11
7.0487228503
 21
4.802067765
 70
160
 71
2
 42
29.464
  3
DIMSTYLE_1
100
AcDbAlignedDimension
 13
8.0993201717
 23
5.457067765
 14
8.0993201717
 24
4.297067765
 50
270.0
100
AcDbRotatedDimension
  0
DIMENSION
  5
27D
100
AcDbEntity
  8
DRIVEN_DIMS
100
AcDbDimension
 62
7
  6
CONTINUOUS
  2
*D1
 10
7.8092571796
 20
3.797067765
 11
9.6922886756
 21
3.722067765
 70
160
 71
2
 42
95.658
  3
DIMSTYLE_1
100
AcDbAlignedDimension
 13
11.5753201717
 23
4.5015389848
 14
7.8092571796
 24
4.7150654285
 50
180.0
100
AcDbRotatedDimension
  0
DIMENSION
  5
27E
100
AcDbEntity
  8
DRIVEN_DIMS
100
AcDbDimension
 62
7
  6
CONTINUOUS
  2
*D2
 10
15.3821868629
 20
5.391067765
 11
15.3821868629
 21
4.889623743
 70
160
 71
2
 42
26.1112
  3
DIMSTYLE_1
100
AcDbAlignedDimension
 13
11.1476911384
 23
4.363067765
 14
11.1476911384
 24
5.391067765
 50
90.0
100
AcDbRotatedDimension
  0
ACAD_TABLE
  5
27F
100
AcDbEntity
  8
0
 62
7
  6
CONTINUOUS
100
AcDbBlockReference
  2
*T1
 10
12.03
 20
0.887
 30
0.0
100
AcDbTable
342
       451
343
22A
 11
1.0
 21
0.0
 31
0.0
 90
6
 91
3
 92
5
 93
4
 94
0
 95
0
 96
0
 70
1
141
0.33
141
0.45
141
1.14
142
0.65
142
1.15
142
1.025
142
1.075
142
0.45
171
1
172
0
173
0
174
0
175
1
176
1
177
33
178
0
145
0.0
  1
 
170
1
140
0.1
171
1
172
0
173
0
174
0
175
1
176
1
177
33
178
0
145
0.0
  1
 
170
1
140
0.1
171
1
172
0
173
0
174
0
175
1
176
1
177
33
178
0
145
0.0
  1
 
170
1
140
0.1
171
1
172
0
173
0
174
0
175
1
176
1
177
33
178
0
145
0.0
  1
 
170
1
140
0.1
171
1
172
0
173
0
174
0
175
1
176
1
177
33
178
0
145
0.0
  1
 
170
1
140
0.1
171
1
172
0
173
0
174
0
175
1
176
1
177
33
178
0
145
0.0
  1
 
170
1
140
0.1
171
1
172
0
173
0
174
0
175
1
176
1
177
33
178
0
145
0.0
  1
 
170
1
140
0.1
171
1
172
0
173
0
174
0
175
1
176
1
177
33
178
0
145
0.0
  1
 
170
1
140
0.1
171
1
172
0
173
0
174
0
175
1
176
1
177
33
178
0
145
0.0
  1
 
170
1
140
0.1
171
1
172
0
173
0
174
0
175
1
176
1
177
41
178
0
145
0.0
  1
A
170
8
140
0.1
 64
7
171
1
172
0
173
0
174
0
175
5
176
1
177
33
178
0
145
0.0
  1
LEDGSM
170
8
140
0.1
171
1
172
0
173
1
174
0
175
1
176
1
177
1
178
0
145
0.0
170
1
171
1
172
0
173
1
174
0
175
1
176
1
177
1
178
0
145
0.0
170
1
171
1
172
0
173
1
174
0
175
1
176
1
177
1
178
0
145
0.0
170
1
171
1
172
0
173
1
174
0
175
1
176
1
177
1
178
0
145
0.0
170
8
  0
LEADER
  5
280
100
AcDbEntity
  8
NOTES
100
AcDbLeader
 62
7
  6
CONTINUOUS
  3
STANDARD
 71
1
 72
0
 73
0
 75
0
 40
0.1
 41
1.3
 76
3
 10
11.3967587871
 20
4.9644316553
 30
0.0
 10
11.8086035866
 20
5.826523406
 30
0.0
 10
12.0586035866
 20
5.826523406
 30
0.0
340
281
1001
ACAD
1000
DSTYLE
1002
{
1070
77
1070
0
1002
}
  0
MTEXT
  5
281
102
{ACAD_REACTORS
330
280
102
}
100
AcDbEntity
  8
NOTES
100
AcDbMText
 62
7
  6
CONTINUOUS
  7
STANDARD
 71
1
 72
1
 10
12.0586035866
 20
5.876523406
 30
0.0
 11
1.0
 21
0.0
 31
0.0
 44
0.9
  1
1/4-20 UNC-2B\PTAPPED HOLE
 40
0.1
 41
1.3
  0
MTEXT
  5
282
100
AcDbEntity
  8
NOTES
100
AcDbMText
 62
7
  6
CONTINUOUS
  7
STANDARD
 71
2
 72
1
 10
9.3502088365
 20
7.0737387692
 30
0.0
 11
1.0
 21
0.0
 31
0.0
 44
0.9
  1
ISOMETRIC VIEW\P\H0.1;SCALE  1:1
 40
0.125
 41
1.75
  0
LINE
  5
283
100
AcDbEntity
  8
0
100
AcDbLine
 62
7
  6
CONTINUOUS
 10
0.47
 20
5.586103
 11
0.47
 21
5.412897
  0
LINE
  5
284
100
AcDbEntity
  8
0
100
AcDbLine
 62
7
  6
CONTINUOUS
 10
0.62
 20
10.112
 11
0.62
 21
0.887
  0
LINE
  5
285
100
AcDbEntity
  8
0
100
AcDbLine
 62
7
  6
CONTINUOUS
 10
2.59
 20
0.887
 11
2.59
 21
0.637
  0
LINE
  5
286
100
AcDbEntity
  8
0
100
AcDbLine
 62
7
  6
CONTINUOUS
 10
2.59
 20
10.112
 11
2.59
 21
10.362
  0
LINE
  5
287
100
AcDbEntity
  8
0
100
AcDbLine
 62
7
  6
CONTINUOUS
 10
8.413397
 20
0.737
 11
8.586603
 21
0.737
  0
LINE
  5
288
100
AcDbEntity
  8
0
100
AcDbLine
 62
7
  6
CONTINUOUS
 10
11.1389508475
 20
1.425992839
 11
11.7453418475
 21
1.495385839
  0
LINE
  5
289
100
AcDbEntity
  8
0
100
AcDbLine
 62
7
  6
CONTINUOUS
 10
0.62
 20
0.887
 11
16.38
 21
0.887
  0
LINE
  5
28A
100
AcDbEntity
  8
0
100
AcDbLine
 62
7
  6
CONTINUOUS
 10
12.03
 20
1.137
 11
16.38
 21
1.137
  0
LINE
  5
28B
100
AcDbEntity
  8
0
100
AcDbLine
 62
7
  6
CONTINUOUS
 10
10.2121898475
 20
1.243294839
 11
10.4342808475
 21
1.243294839
  0
LINE
  5
28C
100
AcDbEntity
  8
0
100
AcDbLine
 62
7
  6
CONTINUOUS
 10
10.4842808475
 20
1.243294839
 11
10.5842808475
 21
1.243294839
  0
LINE
  5
28D
100
AcDbEntity
  8
0
100
AcDbLine
 62
7
  6
CONTINUOUS
 10
10.6342808475
 20
1.243294839
 11
10.8563718475
 21
1.243294839
  0
LINE
  5
28E
100
AcDbEntity
  8
0
100
AcDbLine
 62
7
  6
CONTINUOUS
 10
11.0389508475
 20
1.243294839
 11
11.3171028475
 21
1.243294839
  0
LINE
  5
28F
100
AcDbEntity
  8
0
100
AcDbLine
 62
7
  6
CONTINUOUS
 10
11.3671028475
 20
1.243294839
 11
11.5171888475
 21
1.243294839
  0
LINE
  5
290
100
AcDbEntity
  8
0
100
AcDbLine
 62
7
  6
CONTINUOUS
 10
11.5671888475
 20
1.243294839
 11
11.8453418475
 21
1.243294839
  0
LINE
  5
291
100
AcDbEntity
  8
0
100
AcDbLine
 62
7
  6
CONTINUOUS
 10
11.7453418475
 20
0.991203839
 11
11.1389508475
 21
1.060596839
  0
LINE
  5
292
100
AcDbEntity
  8
0
100
AcDbLine
 62
7
  6
CONTINUOUS
 10
4.56
 20
0.887
 11
4.56
 21
0.637
  0
LINE
  5
293
100
AcDbEntity
  8
0
100
AcDbLine
 62
7
  6
CONTINUOUS
 10
4.56
 20
10.112
 11
4.56
 21
10.362
  0
LINE
  5
294
100
AcDbEntity
  8
0
100
AcDbLine
 62
7
  6
CONTINUOUS
 10
0.47
 20
5.412897
 11
0.62
 21
5.4995
  0
LINE
  5
295
100
AcDbEntity
  8
0
100
AcDbLine
 62
7
  6
CONTINUOUS
 10
12.03
 20
1.507
 11
16.38
 21
1.507
  0
LINE
  5
296
100
AcDbEntity
  8
0
100
AcDbLine
 62
7
  6
CONTINUOUS
 10
10.03
 20
1.907
 11
12.03
 21
1.907
  0
LINE
  5
297
100
AcDbEntity
  8
0
100
AcDbLine
 62
7
  6
CONTINUOUS
 10
0.62
 20
5.4995
 11
0.47
 21
5.586103
  0
LINE
  5
298
100
AcDbEntity
  8
0
100
AcDbLine
 62
7
  6
CONTINUOUS
 10
12.03
 20
2.267
 11
16.38
 21
2.267
  0
LINE
  5
299
100
AcDbEntity
  8
0
100
AcDbLine
 62
7
  6
CONTINUOUS
 10
13.6042588488
 20
2.4912273132
 11
13.5568948225
 21
2.4912273132
  0
LINE
  5
29A
100
AcDbEntity
  8
0
100
AcDbLine
 62
7
  6
CONTINUOUS
 10
13.5130037982
 20
2.4912273132
 11
13.3994327352
 21
2.4912273132
  0
LINE
  5
29B
100
AcDbEntity
  8
0
100
AcDbLine
 62
7
  6
CONTINUOUS
 10
13.3705287192
 20
2.4912273132
 11
13.1673166065
 21
2.4912273132
  0
LINE
  5
29C
100
AcDbEntity
  8
0
100
AcDbLine
 62
7
  6
CONTINUOUS
 10
13.1168435785
 20
2.4912273132
 11
13.0426375373
 21
2.4912273132
  0
LINE
  5
29D
100
AcDbEntity
  8
0
100
AcDbLine
 62
7
  6
CONTINUOUS
 10
12.9962575116
 20
2.4912273132
 11
12.9205934696
 21
2.4912273132
  0
LINE
  5
29E
100
AcDbEntity
  8
0
100
AcDbLine
 62
7
  6
CONTINUOUS
 10
12.8685904408
 20
2.4912273132
 11
12.7943853997
 21
2.4912273132
  0
LINE
  5
29F
100
AcDbEntity
  8
0
100
AcDbLine
 62
7
  6
CONTINUOUS
 10
12.7480043739
 20
2.4912273132
 11
12.672340332
 21
2.4912273132
  0
LINE
  5
2A0
100
AcDbEntity
  8
0
100
AcDbLine
 62
7
  6
CONTINUOUS
 10
12.2055050731
 20
2.4912273132
 11
12.3819511709
 21
2.4912273132
  0
LINE
  5
2A1
100
AcDbEntity
  8
0
100
AcDbLine
 62
7
  6
CONTINUOUS
 10
12.4394882028
 20
2.4912273132
 11
12.5168642458
 21
2.4912273132
  0
LINE
  5
2A2
100
AcDbEntity
  8
0
100
AcDbLine
 62
7
  6
CONTINUOUS
 10
12.537150257
 20
2.4912273132
 11
12.6424313154
 21
2.4912273132
  0
LINE
  5
2A3
100
AcDbEntity
  8
0
100
AcDbLine
 62
7
  6
CONTINUOUS
 10
13.4883447845
 20
2.5159553269
 11
13.5130037982
 21
2.5159553269
  0
LINE
  5
2A4
100
AcDbEntity
  8
0
100
AcDbLine
 62
7
  6
CONTINUOUS
 10
12.6424313154
 20
2.515977327
 11
12.6224153043
 21
2.515977327
  0
LINE
  5
2A5
100
AcDbEntity
  8
0
100
AcDbLine
 62
7
  6
CONTINUOUS
 10
12.551601265
 20
2.515977327
 11
12.537150257
 21
2.515977327
  0
LINE
  5
2A6
100
AcDbEntity
  8
0
100
AcDbLine
 62
7
  6
CONTINUOUS
 10
12.5168642458
 20
2.515977327
 11
12.5055812395
 21
2.515977327
  0
LINE
  5
2A7
100
AcDbEntity
  8
0
100
AcDbLine
 62
7
  6
CONTINUOUS
 10
12.4623492155
 20
2.515977327
 11
12.4394882028
 21
2.515977327
  0
LINE
  5
2A8
100
AcDbEntity
  8
0
100
AcDbLine
 62
7
  6
CONTINUOUS
 10
12.3362731456
 20
2.515977327
 11
12.2949101227
 21
2.515977327
  0
LINE
  5
2A9
100
AcDbEntity
  8
0
100
AcDbLine
 62
7
  6
CONTINUOUS
 10
12.2294470864
 20
2.515977327
 11
12.2055050731
 21
2.515977327
  0
LINE
  5
2AA
100
AcDbEntity
  8
0
100
AcDbLine
 62
7
  6
CONTINUOUS
 10
12.672340332
 20
2.515977327
 11
12.6909873423
 21
2.515977327
  0
LINE
  5
2AB
100
AcDbEntity
  8
0
100
AcDbLine
 62
7
  6
CONTINUOUS
 10
12.7276873627
 20
2.515977327
 11
12.7480043739
 21
2.515977327
  0
LINE
  5
2AC
100
AcDbEntity
  8
0
100
AcDbLine
 62
7
  6
CONTINUOUS
 10
12.9205934696
 20
2.515977327
 11
12.93923948
 21
2.515977327
  0
LINE
  5
2AD
100
AcDbEntity
  8
0
100
AcDbLine
 62
7
  6
CONTINUOUS
 10
12.9759405003
 20
2.515977327
 11
12.9962575116
 21
2.515977327
  0
LINE
  5
2AE
100
AcDbEntity
  8
0
100
AcDbLine
 62
7
  6
CONTINUOUS
 10
13.1673166065
 20
2.515977327
 11
13.1912396197
 21
2.515977327
  0
LINE
  5
2AF
100
AcDbEntity
  8
0
100
AcDbLine
 62
7
  6
CONTINUOUS
 10
13.2582556569
 20
2.515977327
 11
13.3232596929
 21
2.515977327
  0
LINE
  5
2B0
100
AcDbEntity
  8
0
100
AcDbLine
 62
7
  6
CONTINUOUS
 10
13.3994327352
 20
2.515977327
 11
13.4221787478
 21
2.515977327
  0
LINE
  5
2B1
100
AcDbEntity
  8
0
100
AcDbLine
 62
7
  6
CONTINUOUS
 10
13.6052818493
 20
2.5163643272
 11
13.60639085
 21
2.5163643272
  0
LINE
  5
2B2
100
AcDbEntity
  8
0
100
AcDbLine
 62
7
  6
CONTINUOUS
 10
13.3282096957
 20
2.5291773343
 11
13.3705287192
 21
2.5291773343
  0
LINE
  5
2B3
100
AcDbEntity
  8
0
100
AcDbLine
 62
7
  6
CONTINUOUS
 10
12.5110972426
 20
2.5296213345
 11
12.5459752619
 21
2.5296213345
  0
LINE
  5
2B4
100
AcDbEntity
  8
0
100
AcDbLine
 62
7
  6
CONTINUOUS
 10
13.6171458559
 20
2.5301143348
 11
13.6292558626
 21
2.5301143348
  0
LINE
  5
2B5
100
AcDbEntity
  8
0
100
AcDbLine
 62
7
  6
CONTINUOUS
 10
13.5159517998
 20
2.5306043351
 11
13.4883447845
 21
2.5306043351
  0
LINE
  5
2B6
100
AcDbEntity
  8
0
100
AcDbLine
 62
7
  6
CONTINUOUS
 10
13.2934226764
 20
2.5324773361
 11
13.2582556569
 21
2.5324773361
  0
LINE
  5
2B7
100
AcDbEntity
  8
0
100
AcDbLine
 62
7
  6
CONTINUOUS
 10
12.2949101227
 20
2.5333023366
 11
12.3362731456
 21
2.5333023366
  0
LINE
  5
2B8
100
AcDbEntity
  8
0
100
AcDbLine
 62
7
  6
CONTINUOUS
 10
13.5222818033
 20
2.5496073456
 11
13.4883447845
 21
2.5496073456
  0
LINE
  5
2B9
100
AcDbEntity
  8
0
100
AcDbLine
 62
7
  6
CONTINUOUS
 10
12.2949101227
 20
2.5499573458
 11
12.3362731456
 21
2.5499573458
  0
LINE
  5
2BA
100
AcDbEntity
  8
0
100
AcDbLine
 62
7
  6
CONTINUOUS
 10
12.5196132473
 20
2.5505713461
 11
12.5401702587
 21
2.5505713461
  0
LINE
  5
2BB
100
AcDbEntity
  8
0
100
AcDbLine
 62
7
  6
CONTINUOUS
 10
13.2582556569
 20
2.5507823463
 11
13.2934226764
 21
2.5507823463
  0
LINE
  5
2BC
100
AcDbEntity
  8
0
100
AcDbLine
 62
7
  6
CONTINUOUS
 10
13.3691097184
 20
2.5540823481
 11
13.3272456952
 21
2.5540823481
  0
LINE
  5
2BD
100
AcDbEntity
  8
0
100
AcDbLine
 62
7
  6
CONTINUOUS
 10
12.5329112547
 20
2.5667383551
 11
12.5267302512
 21
2.5667383551
  0
LINE
  5
2BE
100
AcDbEntity
  8
0
100
AcDbLine
 62
7
  6
CONTINUOUS
 10
13.4221787478
 20
2.5672823554
 11
13.3994327352
 21
2.5672823554
  0
LINE
  5
2BF
100
AcDbEntity
  8
0
100
AcDbLine
 62
7
  6
CONTINUOUS
 10
13.3222956924
 20
2.5672823554
 11
13.2582556569
 21
2.5672823554
  0
LINE
  5
2C0
100
AcDbEntity
  8
0
100
AcDbLine
 62
7
  6
CONTINUOUS
 10
13.1912396197
 20
2.5672823554
 11
13.1673166065
 21
2.5672823554
  0
LINE
  5
2C1
100
AcDbEntity
  8
0
100
AcDbLine
 62
7
  6
CONTINUOUS
 10
13.1397265912
 20
2.5672823554
 11
13.1217935812
 21
2.5672823554
  0
LINE
  5
2C2
100
AcDbEntity
  8
0
100
AcDbLine
 62
7
  6
CONTINUOUS
 10
13.0845015605
 20
2.5672823554
 11
13.0657255501
 21
2.5672823554
  0
LINE
  5
2C3
100
AcDbEntity
  8
0
100
AcDbLine
 62
7
  6
CONTINUOUS
 10
12.93923948
 20
2.5672823554
 11
12.9205934696
 21
2.5672823554
  0
LINE
  5
2C4
100
AcDbEntity
  8
0
100
AcDbLine
 62
7
  6
CONTINUOUS
 10
12.8914734535
 20
2.5672823554
 11
12.8735404436
 21
2.5672823554
  0
LINE
  5
2C5
100
AcDbEntity
  8
0
100
AcDbLine
 62
7
  6
CONTINUOUS
 10
12.8362484229
 20
2.5672823554
 11
12.8174724125
 21
2.5672823554
  0
LINE
  5
2C6
100
AcDbEntity
  8
0
100
AcDbLine
 62
7
  6
CONTINUOUS
 10
12.6909873423
 20
2.5672823554
 11
12.672340332
 21
2.5672823554
  0
LINE
  5
2C7
100
AcDbEntity
  8
0
100
AcDbLine
 62
7
  6
CONTINUOUS
 10
12.3362731456
 20
2.5672823554
 11
12.2949101227
 21
2.5672823554
  0
LINE
  5
2C8
100
AcDbEntity
  8
0
100
AcDbLine
 62
7
  6
CONTINUOUS
 10
12.2055050731
 20
2.5672823554
 11
12.2294470864
 21
2.5672823554
  0
LINE
  5
2C9
100
AcDbEntity
  8
0
100
AcDbLine
 62
7
  6
CONTINUOUS
 10
13.4883447845
 20
2.5672823554
 11
13.5251458049
 21
2.5672823554
  0
LINE
  5
2CA
100
AcDbEntity
  8
0
100
AcDbLine
 62
7
  6
CONTINUOUS
 10
12.5705042755
 20
2.5920323691
 11
12.5133292438
 21
2.5920323691
  0
LINE
  5
2CB
100
AcDbEntity
  8
0
100
AcDbLine
 62
7
  6
CONTINUOUS
 10
12.3715681652
 20
2.5920323691
 11
12.2055050731
 21
2.5920323691
  0
LINE
  5
2CC
100
AcDbEntity
  8
0
100
AcDbLine
 62
7
  6
CONTINUOUS
 10
12.672340332
 20
2.5920323691
 11
12.7727983877
 21
2.5920323691
  0
LINE
  5
2CD
100
AcDbEntity
  8
0
100
AcDbLine
 62
7
  6
CONTINUOUS
 10
12.8174724125
 20
2.5920323691
 11
12.8914734535
 21
2.5920323691
  0
LINE
  5
2CE
100
AcDbEntity
  8
0
100
AcDbLine
 62
7
  6
CONTINUOUS
 10
12.9205934696
 20
2.5920323691
 11
13.0210515254
 21
2.5920323691
  0
LINE
  5
2CF
100
AcDbEntity
  8
0
100
AcDbLine
 62
7
  6
CONTINUOUS
 10
13.0657255501
 20
2.5920323691
 11
13.1397265912
 21
2.5920323691
  0
LINE
  5
2D0
100
AcDbEntity
  8
0
100
AcDbLine
 62
7
  6
CONTINUOUS
 10
13.1673166065
 20
2.5920323691
 11
13.3691097184
 21
2.5920323691
  0
LINE
  5
2D1
100
AcDbEntity
  8
0
100
AcDbLine
 62
7
  6
CONTINUOUS
 10
13.3994327352
 20
2.5920323691
 11
13.5490138181
 21
2.5920323691
  0
LINE
  5
2D2
100
AcDbEntity
  8
0
100
AcDbLine
 62
7
  6
CONTINUOUS
 10
12.4008351814
 20
2.5375433389
 11
12.3907841758
 21
2.5410923409
  0
LINE
  5
2D3
100
AcDbEntity
  8
0
100
AcDbLine
 62
7
  6
CONTINUOUS
 10
12.7926763987
 20
2.4919113136
 11
12.7293963636
 21
2.5522893471
  0
LINE
  5
2D4
100
AcDbEntity
  8
0
100
AcDbLine
 62
7
  6
CONTINUOUS
 10
12.7745063886
 20
2.5913483688
 11
12.8345394219
 21
2.534068337
  0
LINE
  5
2D5
100
AcDbEntity
  8
0
100
AcDbLine
 62
7
  6
CONTINUOUS
 10
13.0409295364
 20
2.4919113136
 11
12.9776495013
 21
2.5522893471
  0
LINE
  5
2D6
100
AcDbEntity
  8
0
100
AcDbLine
 62
7
  6
CONTINUOUS
 10
13.0227595263
 20
2.5913483688
 11
13.0827925596
 21
2.534068337
  0
LINE
  5
2D7
100
AcDbEntity
  8
0
100
AcDbLine
 62
7
  6
CONTINUOUS
 10
12.548053263
 20
2.5284903339
 11
12.5536792662
 21
2.5197973291
  0
LINE
  5
2D8
100
AcDbEntity
  8
0
100
AcDbLine
 62
7
  6
CONTINUOUS
 10
12.5422482598
 20
2.5543913483
 11
12.5349892558
 21
2.5656073545
  0
LINE
  5
2D9
100
AcDbEntity
  8
0
100
AcDbLine
 62
7
  6
CONTINUOUS
 10
12.6203383031
 20
2.5171073276
 11
12.5725822767
 21
2.5909023685
  0
LINE
  5
2DA
100
AcDbEntity
  8
0
100
AcDbLine
 62
7
  6
CONTINUOUS
 10
12.2030300717
 20
2.5895573678
 11
12.2030300717
 21
2.5697573568
  0
LINE
  5
2DB
100
AcDbEntity
  8
0
100
AcDbLine
 62
7
  6
CONTINUOUS
 10
12.2030300717
 20
2.5135023256
 11
12.2030300717
 21
2.4937023146
  0
LINE
  5
2DC
100
AcDbEntity
  8
0
100
AcDbLine
 62
7
  6
CONTINUOUS
 10
12.2319220877
 20
2.564807354
 11
12.2319220877
 21
2.5184523283
  0
LINE
  5
2DD
100
AcDbEntity
  8
0
100
AcDbLine
 62
7
  6
CONTINUOUS
 10
12.2924351213
 20
2.564807354
 11
12.2924351213
 21
2.5524323472
  0
LINE
  5
2DE
100
AcDbEntity
  8
0
100
AcDbLine
 62
7
  6
CONTINUOUS
 10
12.2924351213
 20
2.5184523283
 11
12.2924351213
 21
2.5308273352
  0
LINE
  5
2DF
100
AcDbEntity
  8
0
100
AcDbLine
 62
7
  6
CONTINUOUS
 10
12.4370132015
 20
2.5135023256
 11
12.4370132015
 21
2.4937023146
  0
LINE
  5
2E0
100
AcDbEntity
  8
0
100
AcDbLine
 62
7
  6
CONTINUOUS
 10
12.5193392471
 20
2.4937023146
 11
12.5193392471
 21
2.5135023256
  0
LINE
  5
2E1
100
AcDbEntity
  8
0
100
AcDbLine
 62
7
  6
CONTINUOUS
 10
12.5346752556
 20
2.5135023256
 11
12.5346752556
 21
2.4937023146
  0
LINE
  5
2E2
100
AcDbEntity
  8
0
100
AcDbLine
 62
7
  6
CONTINUOUS
 10
12.6449063168
 20
2.4937023146
 11
12.6449063168
 21
2.5135023256
  0
LINE
  5
2E3
100
AcDbEntity
  8
0
100
AcDbLine
 62
7
  6
CONTINUOUS
 10
12.6698653306
 20
2.4937023146
 11
12.6698653306
 21
2.5135023256
  0
LINE
  5
2E4
100
AcDbEntity
  8
0
100
AcDbLine
 62
7
  6
CONTINUOUS
 10
12.6698653306
 20
2.5697573568
 11
12.6698653306
 21
2.5895573678
  0
LINE
  5
2E5
100
AcDbEntity
  8
0
100
AcDbLine
 62
7
  6
CONTINUOUS
 10
12.6934623437
 20
2.5184523283
 11
12.6934623437
 21
2.564807354
  0
LINE
  5
2E6
100
AcDbEntity
  8
0
100
AcDbLine
 62
7
  6
CONTINUOUS
 10
12.7252123613
 20
2.5504983461
 11
12.7252123613
 21
2.5184523283
  0
LINE
  5
2E7
100
AcDbEntity
  8
0
100
AcDbLine
 62
7
  6
CONTINUOUS
 10
13.5375908118
 20
2.5092733232
 11
13.5357868108
 21
2.5153423266
  0
LINE
  5
2E8
100
AcDbEntity
  8
0
100
AcDbLine
 62
7
  6
CONTINUOUS
 10
12.7504793753
 20
2.5135023256
 11
12.7504793753
 21
2.4937023146
  0
LINE
  5
2E9
100
AcDbEntity
  8
0
100
AcDbLine
 62
7
  6
CONTINUOUS
 10
12.8149974111
 20
2.5697573568
 11
12.8149974111
 21
2.5895573678
  0
LINE
  5
2EA
100
AcDbEntity
  8
0
100
AcDbLine
 62
7
  6
CONTINUOUS
 10
12.8387234242
 20
2.535859338
 11
12.8387234242
 21
2.564807354
  0
LINE
  5
2EB
100
AcDbEntity
  8
0
100
AcDbLine
 62
7
  6
CONTINUOUS
 10
12.8710654422
 20
2.564807354
 11
12.8710654422
 21
2.4937023146
  0
LINE
  5
2EC
100
AcDbEntity
  8
0
100
AcDbLine
 62
7
  6
CONTINUOUS
 10
12.8939484549
 20
2.5895573678
 11
12.8939484549
 21
2.5697573568
  0
LINE
  5
2ED
100
AcDbEntity
  8
0
100
AcDbLine
 62
7
  6
CONTINUOUS
 10
12.9181184683
 20
2.4937023146
 11
12.9181184683
 21
2.5135023256
  0
LINE
  5
2EE
100
AcDbEntity
  8
0
100
AcDbLine
 62
7
  6
CONTINUOUS
 10
12.9181184683
 20
2.5697573568
 11
12.9181184683
 21
2.5895573678
  0
LINE
  5
2EF
100
AcDbEntity
  8
0
100
AcDbLine
 62
7
  6
CONTINUOUS
 10
12.9417144814
 20
2.5184523283
 11
12.9417144814
 21
2.564807354
  0
LINE
  5
2F0
100
AcDbEntity
  8
0
100
AcDbLine
 62
7
  6
CONTINUOUS
 10
12.973465499
 20
2.5504983461
 11
12.973465499
 21
2.5184523283
  0
LINE
  5
2F1
100
AcDbEntity
  8
0
100
AcDbLine
 62
7
  6
CONTINUOUS
 10
12.998732513
 20
2.5135023256
 11
12.998732513
 21
2.4937023146
  0
LINE
  5
2F2
100
AcDbEntity
  8
0
100
AcDbLine
 62
7
  6
CONTINUOUS
 10
13.0632505488
 20
2.5697573568
 11
13.0632505488
 21
2.5895573678
  0
LINE
  5
2F3
100
AcDbEntity
  8
0
100
AcDbLine
 62
7
  6
CONTINUOUS
 10
13.0869765619
 20
2.535859338
 11
13.0869765619
 21
2.564807354
  0
LINE
  5
2F4
100
AcDbEntity
  8
0
100
AcDbLine
 62
7
  6
CONTINUOUS
 10
13.1193185799
 20
2.564807354
 11
13.1193185799
 21
2.4937023146
  0
LINE
  5
2F5
100
AcDbEntity
  8
0
100
AcDbLine
 62
7
  6
CONTINUOUS
 10
13.1422015925
 20
2.5895573678
 11
13.1422015925
 21
2.5697573568
  0
LINE
  5
2F6
100
AcDbEntity
  8
0
100
AcDbLine
 62
7
  6
CONTINUOUS
 10
13.1648416051
 20
2.4937023146
 11
13.1648416051
 21
2.5135023256
  0
LINE
  5
2F7
100
AcDbEntity
  8
0
100
AcDbLine
 62
7
  6
CONTINUOUS
 10
13.1648416051
 20
2.5697573568
 11
13.1648416051
 21
2.5895573678
  0
LINE
  5
2F8
100
AcDbEntity
  8
0
100
AcDbLine
 62
7
  6
CONTINUOUS
 10
13.1937146211
 20
2.5184523283
 11
13.1937146211
 21
2.564807354
  0
LINE
  5
2F9
100
AcDbEntity
  8
0
100
AcDbLine
 62
7
  6
CONTINUOUS
 10
13.2557806555
 20
2.564807354
 11
13.2557806555
 21
2.5532573476
  0
LINE
  5
2FA
100
AcDbEntity
  8
0
100
AcDbLine
 62
7
  6
CONTINUOUS
 10
13.2557806555
 20
2.5300023347
 11
13.2557806555
 21
2.5184523283
  0
LINE
  5
2FB
100
AcDbEntity
  8
0
100
AcDbLine
 62
7
  6
CONTINUOUS
 10
13.2958976778
 20
2.5483073449
 11
13.2958976778
 21
2.5349523375
  0
LINE
  5
2FC
100
AcDbEntity
  8
0
100
AcDbLine
 62
7
  6
CONTINUOUS
 10
12.3907841758
 20
2.5410923409
 11
12.3990241804
 21
2.5458683435
  0
LINE
  5
2FD
100
AcDbEntity
  8
0
100
AcDbLine
 62
7
  6
CONTINUOUS
 10
13.3247706938
 20
2.5565573495
 11
13.3247706938
 21
2.564807354
  0
LINE
  5
2FE
100
AcDbEntity
  8
0
100
AcDbLine
 62
7
  6
CONTINUOUS
 10
13.3257346943
 20
2.5184523283
 11
13.3257346943
 21
2.5267023329
  0
LINE
  5
2FF
100
AcDbEntity
  8
0
100
AcDbLine
 62
7
  6
CONTINUOUS
 10
13.3715847197
 20
2.5895573678
 11
13.3715847197
 21
2.5565573495
  0
LINE
  5
300
100
AcDbEntity
  8
0
100
AcDbLine
 62
7
  6
CONTINUOUS
 10
13.3730037205
 20
2.5267023329
 11
13.3730037205
 21
2.4937023146
  0
LINE
  5
301
100
AcDbEntity
  8
0
100
AcDbLine
 62
7
  6
CONTINUOUS
 10
13.3969577338
 20
2.4937023146
 11
13.3969577338
 21
2.5135023256
  0
LINE
  5
302
100
AcDbEntity
  8
0
100
AcDbLine
 62
7
  6
CONTINUOUS
 10
13.3969577338
 20
2.5697573568
 11
13.3969577338
 21
2.5895573678
  0
LINE
  5
303
100
AcDbEntity
  8
0
100
AcDbLine
 62
7
  6
CONTINUOUS
 10
13.4246537492
 20
2.5184523283
 11
13.4246537492
 21
2.564807354
  0
LINE
  5
304
100
AcDbEntity
  8
0
100
AcDbLine
 62
7
  6
CONTINUOUS
 10
13.4858697831
 20
2.5281293337
 11
13.4858697831
 21
2.5184303283
  0
LINE
  5
305
100
AcDbEntity
  8
0
100
AcDbLine
 62
7
  6
CONTINUOUS
 10
13.4858697831
 20
2.552082347
 11
13.4858697831
 21
2.564807354
  0
LINE
  5
306
100
AcDbEntity
  8
0
100
AcDbLine
 62
7
  6
CONTINUOUS
 10
13.5154787995
 20
2.5134803256
 11
13.5154787995
 21
2.4937023146
  0
LINE
  5
307
100
AcDbEntity
  8
0
100
AcDbLine
 62
7
  6
CONTINUOUS
 10
13.6146708546
 20
2.525013332
 11
13.6146708546
 21
2.5276393334
  0
LINE
  5
308
100
AcDbEntity
  8
0
100
AcDbLine
 62
7
  6
CONTINUOUS
 10
13.631730864
 20
2.5276393334
 11
13.631730864
 21
2.516087327
  0
LINE
  5
309
100
AcDbEntity
  8
0
100
AcDbLine
 62
7
  6
CONTINUOUS
 10
13.7286871589
 20
2.5350697372
 11
13.7286871589
 21
2.5456869438
  0
LINE
  5
30A
100
AcDbEntity
  8
0
100
AcDbLine
 62
7
  6
CONTINUOUS
 10
12.5112392426
 20
2.5908833685
 11
12.4644392167
 21
2.5171263276
  0
LINE
  5
30B
100
AcDbEntity
  8
0
100
AcDbLine
 62
7
  6
CONTINUOUS
 10
12.5246402501
 20
2.5655893545
 11
12.5175232461
 21
2.5543723483
  0
LINE
  5
30C
100
AcDbEntity
  8
0
100
AcDbLine
 62
7
  6
CONTINUOUS
 10
12.5034912383
 20
2.5197783291
 11
12.5090072414
 21
2.5284723339
  0
ARC
  5
30D
100
AcDbEntity
  8
0
100
AcDbCircle
 62
7
  6
CONTINUOUS
 10
12.7943847649
 20
2.4937027294
 40
0.0024754162
100
AcDbArc
 50
226.3593695813
 51
270.0146919953
  0
ARC
  5
30E
100
AcDbEntity
  8
0
100
AcDbCircle
 62
7
  6
CONTINUOUS
 10
12.2055050712
 20
2.4937023128
 40
0.0024749995
100
AcDbArc
 50
179.9999571957
 51
270.0000428043
  0
ARC
  5
30F
100
AcDbEntity
  8
0
100
AcDbCircle
 62
7
  6
CONTINUOUS
 10
12.8685904427
 20
2.4937023128
 40
0.0024749995
100
AcDbArc
 50
269.9999571957
 51
0.0000428043
  0
ARC
  5
310
100
AcDbEntity
  8
0
100
AcDbCircle
 62
7
  6
CONTINUOUS
 10
12.7480043758
 20
2.4937023128
 40
0.0024749995
100
AcDbArc
 50
269.9999571957
 51
0.0000428043
  0
ARC
  5
311
100
AcDbEntity
  8
0
100
AcDbCircle
 62
7
  6
CONTINUOUS
 10
12.6723403301
 20
2.4937023128
 40
0.0024749995
100
AcDbArc
 50
179.9999571957
 51
270.0000428043
  0
ARC
  5
312
100
AcDbEntity
  8
0
100
AcDbCircle
 62
7
  6
CONTINUOUS
 10
12.5371502552
 20
2.4937023128
 40
0.0024749995
100
AcDbArc
 50
179.9999571957
 51
270.0000428043
  0
ARC
  5
313
100
AcDbEntity
  8
0
100
AcDbCircle
 62
7
  6
CONTINUOUS
 10
12.6424313172
 20
2.4937023128
 40
0.0024749995
100
AcDbArc
 50
269.9999571957
 51
0.0000428043
  0
ARC
  5
314
100
AcDbEntity
  8
0
100
AcDbCircle
 62
7
  6
CONTINUOUS
 10
12.439488201
 20
2.4937023128
 40
0.0024749995
100
AcDbArc
 50
179.9999571957
 51
270.0000428043
  0
ARC
  5
315
100
AcDbEntity
  8
0
100
AcDbCircle
 62
7
  6
CONTINUOUS
 10
12.5168642476
 20
2.4937023128
 40
0.0024749995
100
AcDbArc
 50
269.9999571957
 51
0.0000428043
  0
ARC
  5
316
100
AcDbEntity
  8
0
100
AcDbCircle
 62
7
  6
CONTINUOUS
 10
12.371573659
 20
2.5302846524
 40
0.061747717
100
AcDbArc
 50
59.5385584989
 51
90.0050977555
  0
ARC
  5
317
100
AcDbEntity
  8
0
100
AcDbCircle
 62
7
  6
CONTINUOUS
 10
12.3792298263
 20
2.539634765
 40
0.048483885
100
AcDbArc
 50
273.21763719
 51
303.0749121182
  0
ARC
  5
318
100
AcDbEntity
  8
0
100
AcDbCircle
 62
7
  6
CONTINUOUS
 10
12.3931760319
 20
2.5166878286
 40
0.0222174455
100
AcDbArc
 50
4.0793399388
 51
69.834329283
  0
ARC
  5
319
100
AcDbEntity
  8
0
100
AcDbCircle
 62
7
  6
CONTINUOUS
 10
12.3940692204
 20
2.5168671561
 40
0.0213072145
100
AcDbArc
 50
303.0488228549
 51
355.7263138674
  0
ARC
  5
31A
100
AcDbEntity
  8
0
100
AcDbCircle
 62
7
  6
CONTINUOUS
 10
12.400005721
 20
2.5168763464
 40
0.0153945295
100
AcDbArc
 50
354.0454548824
 51
5.1878013979
  0
ARC
  5
31B
100
AcDbEntity
  8
0
100
AcDbCircle
 62
7
  6
CONTINUOUS
 10
12.3362731456
 20
2.5246398318
 40
0.0086625048
100
AcDbArc
 50
270.0
 51
90.0
  0
ARC
  5
31C
100
AcDbEntity
  8
0
100
AcDbCircle
 62
7
  6
CONTINUOUS
 10
12.5459747223
 20
2.5271458744
 40
0.0024754602
100
AcDbArc
 50
32.8959418573
 51
89.9875097202
  0
ARC
  5
31D
100
AcDbEntity
  8
0
100
AcDbCircle
 62
7
  6
CONTINUOUS
 10
12.4623492858
 20
2.5184525273
 40
0.0024752003
100
AcDbArc
 50
269.9983726451
 51
327.602165307
  0
ARC
  5
31E
100
AcDbEntity
  8
0
100
AcDbCircle
 62
7
  6
CONTINUOUS
 10
12.5110971723
 20
2.5271461342
 40
0.0024752003
100
AcDbArc
 50
89.998372645
 51
147.602165307
  0
ARC
  5
31F
100
AcDbEntity
  8
0
100
AcDbCircle
 62
7
  6
CONTINUOUS
 10
12.5055811302
 20
2.518452367
 40
0.0024750401
100
AcDbArc
 50
147.6063258011
 51
270.0025305754
  0
ARC
  5
320
100
AcDbEntity
  8
0
100
AcDbCircle
 62
7
  6
CONTINUOUS
 10
12.2294470882
 20
2.5184523265
 40
0.0024749995
100
AcDbArc
 50
269.9999571957
 51
0.0000428043
  0
ARC
  5
321
100
AcDbEntity
  8
0
100
AcDbCircle
 62
7
  6
CONTINUOUS
 10
12.2055050712
 20
2.5135023274
 40
0.0024749995
100
AcDbArc
 50
89.9999571957
 51
180.0000428043
  0
ARC
  5
322
100
AcDbEntity
  8
0
100
AcDbCircle
 62
7
  6
CONTINUOUS
 10
12.2949101208
 20
2.530827337
 40
0.0024749995
100
AcDbArc
 50
89.9999571957
 51
180.0000428043
  0
ARC
  5
323
100
AcDbEntity
  8
0
100
AcDbCircle
 62
7
  6
CONTINUOUS
 10
12.2949101208
 20
2.5184523265
 40
0.0024749995
100
AcDbArc
 50
179.9999571957
 51
270.0000428043
  0
ARC
  5
324
100
AcDbEntity
  8
0
100
AcDbCircle
 62
7
  6
CONTINUOUS
 10
12.5371502552
 20
2.5135023274
 40
0.0024749995
100
AcDbArc
 50
89.9999571957
 51
180.0000428043
  0
ARC
  5
325
100
AcDbEntity
  8
0
100
AcDbCircle
 62
7
  6
CONTINUOUS
 10
12.439488201
 20
2.5135023274
 40
0.0024749995
100
AcDbArc
 50
89.9999571957
 51
180.0000428043
  0
ARC
  5
326
100
AcDbEntity
  8
0
100
AcDbCircle
 62
7
  6
CONTINUOUS
 10
12.5168642476
 20
2.5135023274
 40
0.0024749995
100
AcDbArc
 50
359.9999571957
 51
90.0000428043
  0
ARC
  5
327
100
AcDbEntity
  8
0
100
AcDbCircle
 62
7
  6
CONTINUOUS
 10
12.3771587979
 20
2.5826952352
 40
0.0428289026
100
AcDbArc
 50
300.6990502959
 51
319.0591802498
  0
ARC
  5
328
100
AcDbEntity
  8
0
100
AcDbCircle
 62
7
  6
CONTINUOUS
 10
12.3922357827
 20
2.5632132173
 40
0.0229166529
100
AcDbArc
 50
20.6563876465
 51
62.3316896973
  0
ARC
  5
329
100
AcDbEntity
  8
0
100
AcDbCircle
 62
7
  6
CONTINUOUS
 10
12.3971873948
 20
2.5665668817
 40
0.0171568255
100
AcDbArc
 50
315.9145124245
 51
16.0049121282
  0
ARC
  5
32A
100
AcDbEntity
  8
0
100
AcDbCircle
 62
7
  6
CONTINUOUS
 10
12.3362731456
 20
2.5586198506
 40
0.0086625048
100
AcDbArc
 50
270.0
 51
90.0
  0
ARC
  5
32B
100
AcDbEntity
  8
0
100
AcDbCircle
 62
7
  6
CONTINUOUS
 10
12.532910715
 20
2.564262895
 40
0.0024754602
100
AcDbArc
 50
32.8959418573
 51
89.9875097202
  0
ARC
  5
32C
100
AcDbEntity
  8
0
100
AcDbCircle
 62
7
  6
CONTINUOUS
 10
12.5401702375
 20
2.5530465533
 40
0.0024752071
100
AcDbArc
 50
270.0004896793
 51
32.9089806818
  0
ARC
  5
32D
100
AcDbEntity
  8
0
100
AcDbCircle
 62
7
  6
CONTINUOUS
 10
12.5267301809
 20
2.5642631548
 40
0.0024752003
100
AcDbArc
 50
89.998372645
 51
147.602165307
  0
ARC
  5
32E
100
AcDbEntity
  8
0
100
AcDbCircle
 62
7
  6
CONTINUOUS
 10
12.5133291735
 20
2.5895571688
 40
0.0024752003
100
AcDbArc
 50
89.9983726451
 51
147.602165307
  0
ARC
  5
32F
100
AcDbEntity
  8
0
100
AcDbCircle
 62
7
  6
CONTINUOUS
 10
12.519613138
 20
2.5530463862
 40
0.0024750401
100
AcDbArc
 50
147.6063258012
 51
270.0025305754
  0
ARC
  5
330
100
AcDbEntity
  8
0
100
AcDbCircle
 62
7
  6
CONTINUOUS
 10
12.2055050712
 20
2.5895573696
 40
0.0024749995
100
AcDbArc
 50
89.9999571957
 51
180.0000428043
  0
ARC
  5
331
100
AcDbEntity
  8
0
100
AcDbCircle
 62
7
  6
CONTINUOUS
 10
12.2055050712
 20
2.5697573549
 40
0.0024749995
100
AcDbArc
 50
179.9999571957
 51
270.0000428043
  0
ARC
  5
332
100
AcDbEntity
  8
0
100
AcDbCircle
 62
7
  6
CONTINUOUS
 10
12.2294470882
 20
2.5648073559
 40
0.0024749995
100
AcDbArc
 50
359.9999571957
 51
90.0000428043
  0
ARC
  5
333
100
AcDbEntity
  8
0
100
AcDbCircle
 62
7
  6
CONTINUOUS
 10
12.2949101208
 20
2.5648073559
 40
0.0024749995
100
AcDbArc
 50
89.9999571957
 51
180.0000428043
  0
ARC
  5
334
100
AcDbEntity
  8
0
100
AcDbCircle
 62
7
  6
CONTINUOUS
 10
12.2949101208
 20
2.5524323453
 40
0.0024749995
100
AcDbArc
 50
179.9999571957
 51
270.0000428043
  0
ARC
  5
335
100
AcDbEntity
  8
0
100
AcDbCircle
 62
7
  6
CONTINUOUS
 10
12.8362481229
 20
2.5358592748
 40
0.0024753014
100
AcDbArc
 50
226.3461263059
 51
0.0014637321
  0
ARC
  5
336
100
AcDbEntity
  8
0
100
AcDbCircle
 62
7
  6
CONTINUOUS
 10
12.7276876627
 20
2.5504984093
 40
0.0024753014
100
AcDbArc
 50
46.3461263059
 51
180.0014637321
  0
ARC
  5
337
100
AcDbEntity
  8
0
100
AcDbCircle
 62
7
  6
CONTINUOUS
 10
12.5516012439
 20
2.5184525341
 40
0.0024752071
100
AcDbArc
 50
270.0004896794
 51
32.9089806818
  0
ARC
  5
338
100
AcDbEntity
  8
0
100
AcDbCircle
 62
7
  6
CONTINUOUS
 10
12.7276873608
 20
2.5184523265
 40
0.0024749995
100
AcDbArc
 50
179.9999571957
 51
270.0000428043
  0
ARC
  5
339
100
AcDbEntity
  8
0
100
AcDbCircle
 62
7
  6
CONTINUOUS
 10
12.7480043758
 20
2.5135023274
 40
0.0024749995
100
AcDbArc
 50
359.9999571957
 51
90.0000428043
  0
ARC
  5
33A
100
AcDbEntity
  8
0
100
AcDbCircle
 62
7
  6
CONTINUOUS
 10
12.6723403301
 20
2.5135023274
 40
0.0024749995
100
AcDbArc
 50
89.9999571957
 51
180.0000428043
  0
ARC
  5
33B
100
AcDbEntity
  8
0
100
AcDbCircle
 62
7
  6
CONTINUOUS
 10
12.6909873442
 20
2.5184523265
 40
0.0024749995
100
AcDbArc
 50
269.9999571957
 51
0.0000428043
  0
ARC
  5
33C
100
AcDbEntity
  8
0
100
AcDbCircle
 62
7
  6
CONTINUOUS
 10
12.6424313172
 20
2.5135023274
 40
0.0024749995
100
AcDbArc
 50
359.9999571957
 51
90.0000428043
  0
ARC
  5
33D
100
AcDbEntity
  8
0
100
AcDbCircle
 62
7
  6
CONTINUOUS
 10
12.6224154248
 20
2.518451368
 40
0.002474041
100
AcDbArc
 50
212.9056413127
 51
269.9972091756
  0
ARC
  5
33E
100
AcDbEntity
  8
0
100
AcDbCircle
 62
7
  6
CONTINUOUS
 10
12.8362484247
 20
2.5648073559
 40
0.0024749995
100
AcDbArc
 50
359.9999571957
 51
90.0000428043
  0
ARC
  5
33F
100
AcDbEntity
  8
0
100
AcDbCircle
 62
7
  6
CONTINUOUS
 10
12.8174724106
 20
2.5697573549
 40
0.0024749995
100
AcDbArc
 50
179.9999571957
 51
270.0000428043
  0
ARC
  5
340
100
AcDbEntity
  8
0
100
AcDbCircle
 62
7
  6
CONTINUOUS
 10
12.8174724106
 20
2.5895573696
 40
0.0024749995
100
AcDbArc
 50
89.9999571957
 51
180.0000428043
  0
ARC
  5
341
100
AcDbEntity
  8
0
100
AcDbCircle
 62
7
  6
CONTINUOUS
 10
12.8914734553
 20
2.5895573696
 40
0.0024749995
100
AcDbArc
 50
359.9999571957
 51
90.0000428043
  0
ARC
  5
342
100
AcDbEntity
  8
0
100
AcDbCircle
 62
7
  6
CONTINUOUS
 10
12.8914734553
 20
2.5697573549
 40
0.0024749995
100
AcDbArc
 50
269.9999571957
 51
0.0000428043
  0
ARC
  5
343
100
AcDbEntity
  8
0
100
AcDbCircle
 62
7
  6
CONTINUOUS
 10
12.8735404417
 20
2.5648073559
 40
0.0024749995
100
AcDbArc
 50
89.9999571957
 51
180.0000428043
  0
ARC
  5
344
100
AcDbEntity
  8
0
100
AcDbCircle
 62
7
  6
CONTINUOUS
 10
12.6909873442
 20
2.5648073559
 40
0.0024749995
100
AcDbArc
 50
359.9999571957
 51
90.0000428043
  0
ARC
  5
345
100
AcDbEntity
  8
0
100
AcDbCircle
 62
7
  6
CONTINUOUS
 10
12.6723403301
 20
2.5697573549
 40
0.0024749995
100
AcDbArc
 50
179.9999571957
 51
270.0000428043
  0
ARC
  5
346
100
AcDbEntity
  8
0
100
AcDbCircle
 62
7
  6
CONTINUOUS
 10
12.6723403301
 20
2.5895573696
 40
0.0024749995
100
AcDbArc
 50
89.9999571957
 51
180.0000428043
  0
ARC
  5
347
100
AcDbEntity
  8
0
100
AcDbCircle
 62
7
  6
CONTINUOUS
 10
12.570504655
 20
2.589557409
 40
0.0024749602
100
AcDbArc
 50
32.9172174468
 51
90.0087853097
  0
ARC
  5
348
100
AcDbEntity
  8
0
100
AcDbCircle
 62
7
  6
CONTINUOUS
 10
12.7727985224
 20
2.5895582013
 40
0.0024741678
100
AcDbArc
 50
46.3477981899
 51
90.0031206038
  0
ARC
  5
349
100
AcDbEntity
  8
0
100
AcDbCircle
 62
7
  6
CONTINUOUS
 10
13.5463505148
 20
2.4094934586
 40
0.1825583387
100
AcDbArc
 50
79.8618509324
 51
89.1640948679
  0
ARC
  5
34A
100
AcDbEntity
  8
0
100
AcDbCircle
 62
7
  6
CONTINUOUS
 10
13.5282557878
 20
2.4386010294
 40
0.117346916
100
AcDbArc
 50
58.614769177
 51
62.3737227606
  0
ARC
  5
34B
100
AcDbEntity
  8
0
100
AcDbCircle
 62
7
  6
CONTINUOUS
 10
13.5571178432
 20
2.509473798
 40
0.0459185159
100
AcDbArc
 50
15.6740290068
 51
20.9917271228
  0
ARC
  5
34C
100
AcDbEntity
  8
0
100
AcDbCircle
 62
7
  6
CONTINUOUS
 10
13.4974076135
 20
2.5055452462
 40
0.0396099176
100
AcDbArc
 50
14.3201081283
 51
22.4984722084
  0
ARC
  5
34D
100
AcDbEntity
  8
0
100
AcDbCircle
 62
7
  6
CONTINUOUS
 10
13.5161192671
 20
2.5062372524
 40
0.0243676582
100
AcDbArc
 50
63.3666028271
 51
90.3937697637
  0
ARC
  5
34E
100
AcDbEntity
  8
0
100
AcDbCircle
 62
7
  6
CONTINUOUS
 10
13.6036139387
 20
2.5111006186
 40
0.0198837666
100
AcDbArc
 50
271.8586572978
 51
289.4131338543
  0
ARC
  5
34F
100
AcDbEntity
  8
0
100
AcDbCircle
 62
7
  6
CONTINUOUS
 10
13.5577001432
 20
2.5085494649
 40
0.0173408616
100
AcDbArc
 50
232.4713476722
 51
267.338189944
  0
ARC
  5
350
100
AcDbEntity
  8
0
100
AcDbCircle
 62
7
  6
CONTINUOUS
 10
13.5130038
 20
2.4937023128
 40
0.0024749995
100
AcDbArc
 50
269.9999571957
 51
0.0000428043
  0
ARC
  5
351
100
AcDbEntity
  8
0
100
AcDbCircle
 62
7
  6
CONTINUOUS
 10
13.3994327333
 20
2.4937023128
 40
0.0024749995
100
AcDbArc
 50
179.9999571957
 51
270.0000428043
  0
ARC
  5
352
100
AcDbEntity
  8
0
100
AcDbCircle
 62
7
  6
CONTINUOUS
 10
13.1168435803
 20
2.4937023128
 40
0.0024749995
100
AcDbArc
 50
269.9999571957
 51
0.0000428043
  0
ARC
  5
353
100
AcDbEntity
  8
0
100
AcDbCircle
 62
7
  6
CONTINUOUS
 10
12.9962575135
 20
2.4937023128
 40
0.0024749995
100
AcDbArc
 50
269.9999571957
 51
0.0000428043
  0
ARC
  5
354
100
AcDbEntity
  8
0
100
AcDbCircle
 62
7
  6
CONTINUOUS
 10
12.9205934678
 20
2.4937023128
 40
0.0024749995
100
AcDbArc
 50
179.9999571957
 51
270.0000428043
  0
ARC
  5
355
100
AcDbEntity
  8
0
100
AcDbCircle
 62
7
  6
CONTINUOUS
 10
13.370528721
 20
2.4937023128
 40
0.0024749995
100
AcDbArc
 50
269.9999571957
 51
0.0000428043
  0
ARC
  5
356
100
AcDbEntity
  8
0
100
AcDbCircle
 62
7
  6
CONTINUOUS
 10
13.1673166046
 20
2.4937023128
 40
0.0024749995
100
AcDbArc
 50
179.9999571957
 51
270.0000428043
  0
ARC
  5
357
100
AcDbEntity
  8
0
100
AcDbCircle
 62
7
  6
CONTINUOUS
 10
13.0426374026
 20
2.493701481
 40
0.0024741678
100
AcDbArc
 50
226.3477981898
 51
270.0031206038
  0
ARC
  5
358
100
AcDbEntity
  8
0
100
AcDbCircle
 62
7
  6
CONTINUOUS
 10
13.0845012605
 20
2.5358592748
 40
0.0024753014
100
AcDbArc
 50
226.3461263059
 51
0.0014637321
  0
ARC
  5
359
100
AcDbEntity
  8
0
100
AcDbCircle
 62
7
  6
CONTINUOUS
 10
12.9759408003
 20
2.5504984093
 40
0.0024753014
100
AcDbArc
 50
46.3461263059
 51
180.0014637321
  0
ARC
  5
35A
100
AcDbEntity
  8
0
100
AcDbCircle
 62
7
  6
CONTINUOUS
 10
12.9759404985
 20
2.5184523265
 40
0.0024749995
100
AcDbArc
 50
179.9999571957
 51
270.0000428043
  0
ARC
  5
35B
100
AcDbEntity
  8
0
100
AcDbCircle
 62
7
  6
CONTINUOUS
 10
12.9962575135
 20
2.5135023274
 40
0.0024749995
100
AcDbArc
 50
359.9999571957
 51
90.0000428043
  0
ARC
  5
35C
100
AcDbEntity
  8
0
100
AcDbCircle
 62
7
  6
CONTINUOUS
 10
12.9205934678
 20
2.5135023274
 40
0.0024749995
100
AcDbArc
 50
89.9999571957
 51
180.0000428042
  0
ARC
  5
35D
100
AcDbEntity
  8
0
100
AcDbCircle
 62
7
  6
CONTINUOUS
 10
12.9392394818
 20
2.5184523265
 40
0.0024749995
100
AcDbArc
 50
269.9999571957
 51
0.0000428043
  0
ARC
  5
35E
100
AcDbEntity
  8
0
100
AcDbCircle
 62
7
  6
CONTINUOUS
 10
13.2582556551
 20
2.5300023366
 40
0.0024749995
100
AcDbArc
 50
89.9999571957
 51
180.0000428043
  0
ARC
  5
35F
100
AcDbEntity
  8
0
100
AcDbCircle
 62
7
  6
CONTINUOUS
 10
13.2582556551
 20
2.5184523265
 40
0.0024749995
100
AcDbArc
 50
179.9999571957
 51
270.0000428043
  0
ARC
  5
360
100
AcDbEntity
  8
0
100
AcDbCircle
 62
7
  6
CONTINUOUS
 10
13.1673166046
 20
2.5135023274
 40
0.0024749995
100
AcDbArc
 50
89.9999571957
 51
180.0000428043
  0
ARC
  5
361
100
AcDbEntity
  8
0
100
AcDbCircle
 62
7
  6
CONTINUOUS
 10
13.1912396216
 20
2.5184523265
 40
0.0024749995
100
AcDbArc
 50
269.9999571957
 51
0.0000428042
  0
ARC
  5
362
100
AcDbEntity
  8
0
100
AcDbCircle
 62
7
  6
CONTINUOUS
 10
13.2582556551
 20
2.5532573458
 40
0.0024749995
100
AcDbArc
 50
179.9999571957
 51
270.0000428043
  0
ARC
  5
363
100
AcDbEntity
  8
0
100
AcDbCircle
 62
7
  6
CONTINUOUS
 10
13.0845015624
 20
2.5648073559
 40
0.0024749995
100
AcDbArc
 50
359.9999571957
 51
90.0000428043
  0
ARC
  5
364
100
AcDbEntity
  8
0
100
AcDbCircle
 62
7
  6
CONTINUOUS
 10
13.0657255483
 20
2.5697573549
 40
0.0024749995
100
AcDbArc
 50
179.9999571957
 51
270.0000428043
  0
ARC
  5
365
100
AcDbEntity
  8
0
100
AcDbCircle
 62
7
  6
CONTINUOUS
 10
13.0657255483
 20
2.5895573696
 40
0.0024749995
100
AcDbArc
 50
89.9999571957
 51
180.0000428043
  0
ARC
  5
366
100
AcDbEntity
  8
0
100
AcDbCircle
 62
7
  6
CONTINUOUS
 10
13.139726593
 20
2.5895573696
 40
0.0024749995
100
AcDbArc
 50
359.9999571957
 51
90.0000428043
  0
ARC
  5
367
100
AcDbEntity
  8
0
100
AcDbCircle
 62
7
  6
CONTINUOUS
 10
13.139726593
 20
2.5697573549
 40
0.0024749995
100
AcDbArc
 50
269.9999571957
 51
0.0000428042
  0
ARC
  5
368
100
AcDbEntity
  8
0
100
AcDbCircle
 62
7
  6
CONTINUOUS
 10
13.1217935794
 20
2.5648073559
 40
0.0024749995
100
AcDbArc
 50
89.9999571957
 51
180.0000428042
  0
ARC
  5
369
100
AcDbEntity
  8
0
100
AcDbCircle
 62
7
  6
CONTINUOUS
 10
12.9392394818
 20
2.5648073559
 40
0.0024749995
100
AcDbArc
 50
359.9999571957
 51
90.0000428043
  0
ARC
  5
36A
100
AcDbEntity
  8
0
100
AcDbCircle
 62
7
  6
CONTINUOUS
 10
12.9205934678
 20
2.5697573549
 40
0.0024749995
100
AcDbArc
 50
179.9999571957
 51
270.0000428043
  0
ARC
  5
36B
100
AcDbEntity
  8
0
100
AcDbCircle
 62
7
  6
CONTINUOUS
 10
12.9205934678
 20
2.5895573696
 40
0.0024749995
100
AcDbArc
 50
89.9999571957
 51
180.0000428042
  0
ARC
  5
36C
100
AcDbEntity
  8
0
100
AcDbCircle
 62
7
  6
CONTINUOUS
 10
13.1912396216
 20
2.5648073559
 40
0.0024749995
100
AcDbArc
 50
359.9999571957
 51
90.0000428043
  0
ARC
  5
36D
100
AcDbEntity
  8
0
100
AcDbCircle
 62
7
  6
CONTINUOUS
 10
13.1673166046
 20
2.5697573549
 40
0.0024749995
100
AcDbArc
 50
179.9999571957
 51
270.0000428043
  0
ARC
  5
36E
100
AcDbEntity
  8
0
100
AcDbCircle
 62
7
  6
CONTINUOUS
 10
13.1673166046
 20
2.5895573696
 40
0.0024749995
100
AcDbArc
 50
89.9999571957
 51
180.0000428043
  0
ARC
  5
36F
100
AcDbEntity
  8
0
100
AcDbCircle
 62
7
  6
CONTINUOUS
 10
13.2582556551
 20
2.5648073559
 40
0.0024749995
100
AcDbArc
 50
89.9999571957
 51
180.0000428043
  0
ARC
  5
370
100
AcDbEntity
  8
0
100
AcDbCircle
 62
7
  6
CONTINUOUS
 10
13.0210516601
 20
2.5895582013
 40
0.0024741678
100
AcDbArc
 50
46.3477981899
 51
90.0031206038
  0
ARC
  5
371
100
AcDbEntity
  8
0
100
AcDbCircle
 62
7
  6
CONTINUOUS
 10
13.5806801742
 20
2.5212486481
 40
0.044722495
100
AcDbArc
 50
195.531588407
 51
204.7624440448
  0
ARC
  5
372
100
AcDbEntity
  8
0
100
AcDbCircle
 62
7
  6
CONTINUOUS
 10
13.5726548052
 20
2.5503169747
 40
0.039319019
100
AcDbArc
 50
59.1202086415
 51
81.4730239328
  0
ARC
  5
373
100
AcDbEntity
  8
0
100
AcDbCircle
 62
7
  6
CONTINUOUS
 10
13.5978759713
 20
2.5286873679
 40
0.0383802683
100
AcDbArc
 50
288.7656836787
 51
309.6104317088
  0
ARC
  5
374
100
AcDbEntity
  8
0
100
AcDbCircle
 62
7
  6
CONTINUOUS
 10
13.5783142014
 20
2.5566516438
 40
0.0310192946
100
AcDbArc
 50
34.7540871
 51
62.0879016178
  0
ARC
  5
375
100
AcDbEntity
  8
0
100
AcDbCircle
 62
7
  6
CONTINUOUS
 10
13.5236009174
 20
2.5388278764
 40
0.0284963867
100
AcDbArc
 50
70.3834917948
 51
86.8922743861
  0
ARC
  5
376
100
AcDbEntity
  8
0
100
AcDbCircle
 62
7
  6
CONTINUOUS
 10
13.6048681567
 20
2.5210861501
 40
0.0280715479
100
AcDbArc
 50
308.5071794988
 51
332.24006569
  0
ARC
  5
377
100
AcDbEntity
  8
0
100
AcDbCircle
 62
7
  6
CONTINUOUS
 10
13.5750183849
 20
2.5166552064
 40
0.0266349791
100
AcDbArc
 50
20.3630922153
 51
37.9727053099
  0
ARC
  5
378
100
AcDbEntity
  8
0
100
AcDbCircle
 62
7
  6
CONTINUOUS
 10
13.5761387404
 20
2.5167282896
 40
0.0257145923
100
AcDbArc
 50
39.3804255939
 51
59.0361096173
  0
ARC
  5
379
100
AcDbEntity
  8
0
100
AcDbCircle
 62
7
  6
CONTINUOUS
 10
13.5607987082
 20
2.5143997688
 40
0.0238935861
100
AcDbArc
 50
209.8247607259
 51
235.1255079367
  0
ARC
  5
37A
100
AcDbEntity
  8
0
100
AcDbCircle
 62
7
  6
CONTINUOUS
 10
13.6141751675
 20
2.5161916447
 40
0.0175560065
100
AcDbArc
 50
332.2279060967
 51
359.6595469939
  0
ARC
  5
37B
100
AcDbEntity
  8
0
100
AcDbCircle
 62
7
  6
CONTINUOUS
 10
13.5201739219
 20
2.5145168728
 40
0.0151491919
100
AcDbArc
 50
24.098260853
 51
63.0369451818
  0
ARC
  5
37C
100
AcDbEntity
  8
0
100
AcDbCircle
 62
7
  6
CONTINUOUS
 10
13.6156881783
 20
2.525116781
 40
0.0147197649
100
AcDbArc
 50
192.7054516565
 51
206.0594861022
  0
ARC
  5
37D
100
AcDbEntity
  8
0
100
AcDbCircle
 62
7
  6
CONTINUOUS
 10
13.5284605274
 20
2.5518696094
 40
0.0145814632
100
AcDbArc
 50
54.6746025112
 51
71.1660573124
  0
ARC
  5
37E
100
AcDbEntity
  8
0
100
AcDbCircle
 62
7
  6
CONTINUOUS
 10
13.6063292954
 20
2.5296129864
 40
0.0132488022
100
AcDbArc
 50
270.266200055
 51
281.2404888597
  0
ARC
  5
37F
100
AcDbEntity
  8
0
100
AcDbCircle
 62
7
  6
CONTINUOUS
 10
13.6027235414
 20
2.524769508
 40
0.0119498009
100
AcDbArc
 50
340.7883861657
 51
1.1691452593
  0
ARC
  5
380
100
AcDbEntity
  8
0
100
AcDbCircle
 62
7
  6
CONTINUOUS
 10
13.5295131508
 20
2.5629115009
 40
0.0110815393
100
AcDbArc
 50
306.758405961
 51
320.4502234234
  0
ARC
  5
381
100
AcDbEntity
  8
0
100
AcDbCircle
 62
7
  6
CONTINUOUS
 10
13.6075235364
 20
2.5238762928
 40
0.0073895522
100
AcDbArc
 50
280.8288201977
 51
305.0837508495
  0
ARC
  5
382
100
AcDbEntity
  8
0
100
AcDbCircle
 62
7
  6
CONTINUOUS
 10
13.607924718
 20
2.5230254464
 40
0.0064647042
100
AcDbArc
 50
306.5086174083
 51
340.2162360092
  0
ARC
  5
383
100
AcDbEntity
  8
0
100
AcDbCircle
 62
7
  6
CONTINUOUS
 10
13.5335900184
 20
2.5587235346
 40
0.0060275915
100
AcDbArc
 50
20.9055592135
 51
56.7851676243
  0
ARC
  5
384
100
AcDbEntity
  8
0
100
AcDbCircle
 62
7
  6
CONTINUOUS
 10
13.533683767
 20
2.559677593
 40
0.0058087709
100
AcDbArc
 50
318.8515287446
 51
353.6422345323
  0
ARC
  5
385
100
AcDbEntity
  8
0
100
AcDbCircle
 62
7
  6
CONTINUOUS
 10
13.6071938412
 20
2.5209082945
 40
0.0052403997
100
AcDbArc
 50
205.5232099488
 51
227.5054868079
  0
ARC
  5
386
100
AcDbEntity
  8
0
100
AcDbCircle
 62
7
  6
CONTINUOUS
 10
13.5348905773
 20
2.5593838168
 40
0.0045795888
100
AcDbArc
 50
355.6235353944
 51
18.9942678268
  0
ARC
  5
387
100
AcDbEntity
  8
0
100
AcDbCircle
 62
7
  6
CONTINUOUS
 10
13.6054655419
 20
2.5190929218
 40
0.0027347709
100
AcDbArc
 50
228.5117626737
 51
266.1485845754
  0
ARC
  5
388
100
AcDbEntity
  8
0
100
AcDbCircle
 62
7
  6
CONTINUOUS
 10
13.4883447827
 20
2.5281293355
 40
0.0024749995
100
AcDbArc
 50
89.9999571957
 51
180.0000428043
  0
ARC
  5
389
100
AcDbEntity
  8
0
100
AcDbCircle
 62
7
  6
CONTINUOUS
 10
13.4883447827
 20
2.5184303265
 40
0.0024749995
100
AcDbArc
 50
179.9999571957
 51
270.0000428043
  0
ARC
  5
38A
100
AcDbEntity
  8
0
100
AcDbCircle
 62
7
  6
CONTINUOUS
 10
13.5130038
 20
2.5134803274
 40
0.0024749995
100
AcDbArc
 50
359.9999571957
 51
90.0000428043
  0
ARC
  5
38B
100
AcDbEntity
  8
0
100
AcDbCircle
 62
7
  6
CONTINUOUS
 10
13.3994327333
 20
2.5135023274
 40
0.0024749995
100
AcDbArc
 50
89.9999571957
 51
180.0000428043
  0
ARC
  5
38C
100
AcDbEntity
  8
0
100
AcDbCircle
 62
7
  6
CONTINUOUS
 10
13.4221787497
 20
2.5184523265
 40
0.0024749995
100
AcDbArc
 50
269.9999571957
 51
0.0000428042
  0
ARC
  5
38D
100
AcDbEntity
  8
0
100
AcDbCircle
 62
7
  6
CONTINUOUS
 10
13.6171458541
 20
2.5276393353
 40
0.0024749995
100
AcDbArc
 50
89.9999571957
 51
180.0000428043
  0
ARC
  5
38E
100
AcDbEntity
  8
0
100
AcDbCircle
 62
7
  6
CONTINUOUS
 10
13.6292558645
 20
2.5276393353
 40
0.0024749995
100
AcDbArc
 50
359.9999571957
 51
90.0000428043
  0
ARC
  5
38F
100
AcDbEntity
  8
0
100
AcDbCircle
 62
7
  6
CONTINUOUS
 10
13.4883447827
 20
2.5520823451
 40
0.0024749995
100
AcDbArc
 50
179.9999571957
 51
270.0000428043
  0
ARC
  5
390
100
AcDbEntity
  8
0
100
AcDbCircle
 62
7
  6
CONTINUOUS
 10
13.3232596948
 20
2.5184523265
 40
0.0024749995
100
AcDbArc
 50
269.9999571957
 51
0.0000428043
  0
ARC
  5
391
100
AcDbEntity
  8
0
100
AcDbCircle
 62
7
  6
CONTINUOUS
 10
13.3282096938
 20
2.5267023348
 40
0.0024749995
100
AcDbArc
 50
89.9999571957
 51
180.0000428043
  0
ARC
  5
392
100
AcDbEntity
  8
0
100
AcDbCircle
 62
7
  6
CONTINUOUS
 10
13.370528721
 20
2.5267023348
 40
0.0024749995
100
AcDbArc
 50
359.9999571957
 51
90.0000428043
  0
ARC
  5
393
100
AcDbEntity
  8
0
100
AcDbCircle
 62
7
  6
CONTINUOUS
 10
13.3691097202
 20
2.5565573476
 40
0.0024749995
100
AcDbArc
 50
269.9999571957
 51
0.0000428042
  0
ARC
  5
394
100
AcDbEntity
  8
0
100
AcDbCircle
 62
7
  6
CONTINUOUS
 10
13.3272456933
 20
2.5565573476
 40
0.0024749995
100
AcDbArc
 50
179.9999571957
 51
270.0000428043
  0
ARC
  5
395
100
AcDbEntity
  8
0
100
AcDbCircle
 62
7
  6
CONTINUOUS
 10
13.2934226783
 20
2.5483073467
 40
0.0024749995
100
AcDbArc
 50
359.9999571957
 51
90.0000428043
  0
ARC
  5
396
100
AcDbEntity
  8
0
100
AcDbCircle
 62
7
  6
CONTINUOUS
 10
13.2934226783
 20
2.5349523356
 40
0.0024749995
100
AcDbArc
 50
269.9999571957
 51
0.0000428042
  0
ARC
  5
397
100
AcDbEntity
  8
0
100
AcDbCircle
 62
7
  6
CONTINUOUS
 10
13.5519569538
 20
2.6152551345
 40
0.0789082104
100
AcDbArc
 50
292.906155071
 51
305.2574666259
  0
ARC
  5
398
100
AcDbEntity
  8
0
100
AcDbCircle
 62
7
  6
CONTINUOUS
 10
13.5822888914
 20
2.5720482849
 40
0.0261183659
100
AcDbArc
 50
305.6373831893
 51
329.9727629745
  0
ARC
  5
399
100
AcDbEntity
  8
0
100
AcDbCircle
 62
7
  6
CONTINUOUS
 10
13.5219564542
 20
2.5750459767
 40
0.0254407115
100
AcDbArc
 50
270.7327484175
 51
290.441894219
  0
ARC
  5
39A
100
AcDbEntity
  8
0
100
AcDbCircle
 62
7
  6
CONTINUOUS
 10
13.5238839599
 20
2.5706523294
 40
0.0206523367
100
AcDbArc
 50
289.6883413472
 51
306.4184925496
  0
ARC
  5
39B
100
AcDbEntity
  8
0
100
AcDbCircle
 62
7
  6
CONTINUOUS
 10
13.5900029525
 20
2.565201245
 40
0.0165459396
100
AcDbArc
 50
1.548452892
 51
33.5033152417
  0
ARC
  5
39C
100
AcDbEntity
  8
0
100
AcDbCircle
 62
7
  6
CONTINUOUS
 10
13.5932995477
 20
2.5653696972
 40
0.0132462337
100
AcDbArc
 50
331.1510006998
 51
1.205404301
  0
ARC
  5
39D
100
AcDbEntity
  8
0
100
AcDbCircle
 62
7
  6
CONTINUOUS
 10
13.4221787497
 20
2.5648073559
 40
0.0024749995
100
AcDbArc
 50
359.9999571957
 51
90.0000428043
  0
ARC
  5
39E
100
AcDbEntity
  8
0
100
AcDbCircle
 62
7
  6
CONTINUOUS
 10
13.3994327333
 20
2.5697573549
 40
0.0024749995
100
AcDbArc
 50
179.9999571957
 51
270.0000428043
  0
ARC
  5
39F
100
AcDbEntity
  8
0
100
AcDbCircle
 62
7
  6
CONTINUOUS
 10
13.3994327333
 20
2.5895573696
 40
0.0024749995
100
AcDbArc
 50
89.9999571957
 51
180.0000428043
  0
ARC
  5
3A0
100
AcDbEntity
  8
0
100
AcDbCircle
 62
7
  6
CONTINUOUS
 10
13.4883447827
 20
2.5648073559
 40
0.0024749995
100
AcDbArc
 50
89.9999571957
 51
180.0000428043
  0
ARC
  5
3A1
100
AcDbEntity
  8
0
100
AcDbCircle
 62
7
  6
CONTINUOUS
 10
13.3691097202
 20
2.5895573696
 40
0.0024749995
100
AcDbArc
 50
359.9999571957
 51
90.0000428043
  0
ARC
  5
3A2
100
AcDbEntity
  8
0
100
AcDbCircle
 62
7
  6
CONTINUOUS
 10
13.3222956943
 20
2.5648073559
 40
0.0024749995
100
AcDbArc
 50
359.9999571957
 51
90.0000428043
  0
ELLIPSE
  5
3A3
100
AcDbEntity
  8
0
100
AcDbEllipse
 62
7
  6
CONTINUOUS
 10
12.9046654608
 20
2.5403783405
 30
0.0
 11
-0.8250004575
 21
0.0
 31
0.0
 40
0.218572
 41
0.0
 42
6.2831853072
  0
HATCH
  5
3A4
100
AcDbEntity
  8
0
100
AcDbHatch
 62
7
  6
CONTINUOUS
 10
0.0
 20
0.0
 30
0.0
210
0.0
220
0.0
230
1.0
  2
XSEC0001
 70
1
 71
1
 91
11
 92
1
 93
57
 72
2
 10
13.5577001432
 20
2.5085494649
 40
0.0173408616
 50
232.4713476722
 51
267.338189944
 73
1
 72
2
 10
13.5607987082
 20
2.5143997688
 40
0.0238935861
 50
209.8247607259
 51
235.1255079367
 73
1
 72
2
 10
13.5806801742
 20
2.5212486481
 40
0.044722495
 50
195.531588407
 51
204.7624440448
 73
1
 72
1
 10
13.5375908118
 20
2.5092733232
 11
13.5357868108
 21
2.5153423266
 72
2
 10
13.4974076135
 20
2.5055452462
 40
0.0396099176
 50
14.3201081283
 51
22.4984722084
 73
1
 72
2
 10
13.5201739219
 20
2.5145168728
 40
0.0151491919
 50
24.098260853
 51
63.0369451818
 73
1
 72
2
 10
13.5161192671
 20
2.5062372524
 40
0.0243676582
 50
63.3666028271
 51
90.3937697637
 73
1
 72
1
 10
13.5159517998
 20
2.5306043351
 11
13.4883447845
 21
2.5306043351
 72
2
 10
13.4883447827
 20
2.5281293355
 40
0.0024749995
 50
89.9999571958
 51
180.0000428043
 73
1
 72
1
 10
13.4858697831
 20
2.5281293337
 11
13.4858697831
 21
2.5184303283
 72
2
 10
13.4883447827
 20
2.5184303265
 40
0.0024749995
 50
179.9999571957
 51
270.0000428042
 73
1
 72
1
 10
13.4883447845
 20
2.5159553269
 11
13.5130037982
 21
2.5159553269
 72
2
 10
13.5130038
 20
2.5134803274
 40
0.0024749995
 50
359.9999571957
 51
90.0000428042
 73
1
 72
1
 10
13.5154787995
 20
2.5134803256
 11
13.5154787995
 21
2.4937023146
 72
2
 10
13.5130038
 20
2.4937023128
 40
0.0024749995
 50
269.9999571958
 51
0.0000428043
 73
1
 72
1
 10
13.5130037982
 20
2.4912273132
 11
13.3994327352
 21
2.4912273132
 72
2
 10
13.3994327333
 20
2.4937023128
 40
0.0024749995
 50
179.9999571957
 51
270.0000428043
 73
1
 72
1
 10
13.3969577338
 20
2.4937023146
 11
13.3969577338
 21
2.5135023256
 72
2
 10
13.3994327333
 20
2.5135023274
 40
0.0024749995
 50
89.9999571957
 51
180.0000428043
 73
1
 72
1
 10
13.3994327352
 20
2.515977327
 11
13.4221787478
 21
2.515977327
 72
2
 10
13.4221787497
 20
2.5184523265
 40
0.0024749995
 50
269.9999571956
 51
0.0000428042
 73
1
 72
1
 10
13.4246537492
 20
2.5184523283
 11
13.4246537492
 21
2.564807354
 72
2
 10
13.4221787497
 20
2.5648073559
 40
0.0024749995
 50
359.9999571957
 51
90.0000428043
 73
1
 72
1
 10
13.4221787478
 20
2.5672823554
 11
13.3994327352
 21
2.5672823554
 72
2
 10
13.3994327333
 20
2.5697573549
 40
0.0024749995
 50
179.9999571957
 51
270.0000428043
 73
1
 72
1
 10
13.3969577338
 20
2.5697573568
 11
13.3969577338
 21
2.5895573678
 72
2
 10
13.3994327333
 20
2.5895573696
 40
0.0024749995
 50
89.9999571957
 51
180.0000428043
 73
1
 72
1
 10
13.3994327352
 20
2.5920323691
 11
13.5490138181
 21
2.5920323691
 72
2
 10
13.5463505148
 20
2.4094934586
 40
0.1825583387
 50
79.8618509324
 51
89.1640948679
 73
1
 72
2
 10
13.5726548052
 20
2.5503169747
 40
0.039319019
 50
59.1202086415
 51
81.4730239328
 73
1
 72
2
 10
13.5783142014
 20
2.5566516438
 40
0.0310192946
 50
34.7540871
 51
62.0879016178
 73
1
 72
2
 10
13.5900029525
 20
2.565201245
 40
0.0165459396
 50
1.548452892
 51
33.5033152417
 73
1
 72
2
 10
13.5932995477
 20
2.5653696972
 40
0.0132462337
 50
331.1510006998
 51
1.205404301
 73
1
 72
2
 10
13.5822888914
 20
2.5720482849
 40
0.0261183659
 50
305.6373831893
 51
329.9727629745
 73
1
 72
2
 10
13.5519569538
 20
2.6152551345
 40
0.0789082104
 50
292.906155071
 51
305.2574666259
 73
1
 72
2
 10
13.5282557878
 20
2.4386010294
 40
0.117346916
 50
58.614769177
 51
62.3737227606
 73
1
 72
2
 10
13.5761387404
 20
2.5167282896
 40
0.0257145923
 50
39.3804255939
 51
59.0361096173
 73
1
 72
2
 10
13.5750183849
 20
2.5166552064
 40
0.0266349791
 50
20.3630922153
 51
37.9727053099
 73
1
 72
2
 10
13.5571178432
 20
2.509473798
 40
0.0459185159
 50
15.6740290068
 51
20.9917271228
 73
1
 72
2
 10
13.6156881783
 20
2.525116781
 40
0.0147197649
 50
192.7054516565
 51
206.0594861022
 73
1
 72
2
 10
13.6071938412
 20
2.5209082945
 40
0.0052403997
 50
205.5232099488
 51
227.5054868079
 73
1
 72
2
 10
13.6054655419
 20
2.5190929218
 40
0.0027347709
 50
228.5117626737
 51
266.1485845754
 73
1
 72
1
 10
13.6052818493
 20
2.5163643272
 11
13.60639085
 21
2.5163643272
 72
2
 10
13.6063292954
 20
2.5296129864
 40
0.0132488022
 50
270.266200055
 51
281.2404888597
 73
1
 72
2
 10
13.6075235364
 20
2.5238762928
 40
0.0073895522
 50
280.8288201977
 51
305.0837508495
 73
1
 72
2
 10
13.607924718
 20
2.5230254464
 40
0.0064647042
 50
306.5086174083
 51
340.2162360092
 73
1
 72
2
 10
13.6027235414
 20
2.524769508
 40
0.0119498009
 50
340.7883861657
 51
1.1691452593
 73
1
 72
1
 10
13.6146708546
 20
2.525013332
 11
13.6146708546
 21
2.5276393334
 72
2
 10
13.6171458541
 20
2.5276393353
 40
0.0024749995
 50
89.9999571958
 51
180.0000428043
 73
1
 72
1
 10
13.6171458559
 20
2.5301143348
 11
13.6292558626
 21
2.5301143348
 72
2
 10
13.6292558645
 20
2.5276393353
 40
0.0024749995
 50
359.9999571957
 51
90.0000428042
 73
1
 72
1
 10
13.631730864
 20
2.5276393334
 11
13.631730864
 21
2.516087327
 72
2
 10
13.6141751675
 20
2.5161916447
 40
0.0175560065
 50
332.2279060967
 51
359.6595469939
 73
1
 72
2
 10
13.6048681567
 20
2.5210861501
 40
0.0280715479
 50
308.5071794988
 51
332.2400656899
 73
1
 72
2
 10
13.5978759713
 20
2.5286873679
 40
0.0383802683
 50
288.7656836787
 51
309.6104317088
 73
1
 72
2
 10
13.6036139387
 20
2.5111006186
 40
0.0198837666
 50
271.8586572978
 51
289.4131338543
 73
1
 72
1
 10
13.6042588488
 20
2.4912273132
 11
13.5568948225
 21
2.4912273132
 97
267
330
299
330
29A
330
29B
330
29C
330
29D
330
29E
330
29F
330
2A0
330
2A1
330
2A2
330
2A3
330
2A4
330
2A5
330
2A6
330
2A7
330
2A8
330
2A9
330
2AA
330
2AB
330
2AC
330
2AD
330
2AE
330
2AF
330
2B0
330
2B1
330
2B2
330
2B3
330
2B4
330
2B5
330
2B6
330
2B7
330
2B8
330
2B9
330
2BA
330
2BB
330
2BC
330
2BD
330
2BE
330
2BF
330
2C0
330
2C1
330
2C2
330
2C3
330
2C4
330
2C5
330
2C6
330
2C7
330
2C8
330
2C9
330
2CA
330
2CB
330
2CC
330
2CD
330
2CE
330
2CF
330
2D0
330
2D1
330
2D2
330
2D3
330
2D4
330
2D5
330
2D6
330
2D7
330
2D8
330
2D9
330
2DA
330
2DB
330
2DC
330
2DD
330
2DE
330
2DF
330
2E0
330
2E1
330
2E2
330
2E3
330
2E4
330
2E5
330
2E6
330
2E7
330
2E8
330
2E9
330
2EA
330
2EB
330
2EC
330
2ED
330
2EE
330
2EF
330
2F0
330
2F1
330
2F2
330
2F3
330
2F4
330
2F5
330
2F6
330
2F7
330
2F8
330
2F9
330
2FA
330
2FB
330
2FC
330
2FD
330
2FE
330
2FF
330
300
330
301
330
302
330
303
330
304
330
305
330
306
330
307
330
308
330
309
330
30A
330
30B
330
30C
330
30D
330
30E
330
30F
330
310
330
311
330
312
330
313
330
314
330
315
330
316
330
317
330
318
330
319
330
31A
330
31B
330
31C
330
31D
330
31E
330
31F
330
320
330
321
330
322
330
323
330
324
330
325
330
326
330
327
330
328
330
329
330
32A
330
32B
330
32C
330
32D
330
32E
330
32F
330
330
330
331
330
332
330
333
330
334
330
335
330
336
330
337
330
338
330
339
330
33A
330
33B
330
33C
330
33D
330
33E
330
33F
330
340
330
341
330
342
330
343
330
344
330
345
330
346
330
347
330
348
330
349
330
34A
330
34B
330
34C
330
34D
330
34E
330
34F
330
350
330
351
330
352
330
353
330
354
330
355
330
356
330
357
330
358
330
359
330
35A
330
35B
330
35C
330
35D
330
35E
330
35F
330
360
330
361
330
362
330
363
330
364
330
365
330
366
330
367
330
368
330
369
330
36A
330
36B
330
36C
330
36D
330
36E
330
36F
330
370
330
371
330
372
330
373
330
374
330
375
330
376
330
377
330
378
330
379
330
37A
330
37B
330
37C
330
37D
330
37E
330
37F
330
380
330
381
330
382
330
383
330
384
330
385
330
386
330
387
330
388
330
389
330
38A
330
38B
330
38C
330
38D
330
38E
330
38F
330
390
330
391
330
392
330
393
330
394
330
395
330
396
330
397
330
398
330
399
330
39A
330
39B
330
39C
330
39D
330
39E
330
39F
330
3A0
330
3A1
330
3A2
330
3A3
 92
1
 93
40
 72
2
 10
13.1673166046
 20
2.4937023128
 40
0.0024749995
 50
179.9999571957
 51
270.0000428042
 73
1
 72
1
 10
13.1648416051
 20
2.4937023146
 11
13.1648416051
 21
2.5135023256
 72
2
 10
13.1673166046
 20
2.5135023274
 40
0.0024749995
 50
89.9999571958
 51
180.0000428043
 73
1
 72
1
 10
13.1673166065
 20
2.515977327
 11
13.1912396197
 21
2.515977327
 72
2
 10
13.1912396216
 20
2.5184523265
 40
0.0024749995
 50
269.9999571956
 51
0.0000428042
 73
1
 72
1
 10
13.1937146211
 20
2.5184523283
 11
13.1937146211
 21
2.564807354
 72
2
 10
13.1912396216
 20
2.5648073559
 40
0.0024749995
 50
359.9999571957
 51
90.0000428043
 73
1
 72
1
 10
13.1912396197
 20
2.5672823554
 11
13.1673166065
 21
2.5672823554
 72
2
 10
13.1673166046
 20
2.5697573549
 40
0.0024749995
 50
179.9999571957
 51
270.0000428043
 73
1
 72
1
 10
13.1648416051
 20
2.5697573568
 11
13.1648416051
 21
2.5895573678
 72
2
 10
13.1673166046
 20
2.5895573696
 40
0.0024749995
 50
89.9999571958
 51
180.0000428043
 73
1
 72
1
 10
13.1673166065
 20
2.5920323691
 11
13.3691097184
 21
2.5920323691
 72
2
 10
13.3691097202
 20
2.5895573696
 40
0.0024749995
 50
359.9999571957
 51
90.0000428042
 73
1
 72
1
 10
13.3715847197
 20
2.5895573678
 11
13.3715847197
 21
2.5565573495
 72
2
 10
13.3691097202
 20
2.5565573476
 40
0.0024749995
 50
269.9999571956
 51
0.0000428042
 73
1
 72
1
 10
13.3691097184
 20
2.5540823481
 11
13.3272456952
 21
2.5540823481
 72
2
 10
13.3272456933
 20
2.5565573476
 40
0.0024749995
 50
179.9999571957
 51
270.0000428043
 73
1
 72
1
 10
13.3247706938
 20
2.5565573495
 11
13.3247706938
 21
2.564807354
 72
2
 10
13.3222956943
 20
2.5648073559
 40
0.0024749995
 50
359.9999571957
 51
90.0000428043
 73
1
 72
1
 10
13.3222956924
 20
2.5672823554
 11
13.2582556569
 21
2.5672823554
 72
2
 10
13.2582556551
 20
2.5648073559
 40
0.0024749995
 50
89.9999571957
 51
180.0000428043
 73
1
 72
1
 10
13.2557806555
 20
2.564807354
 11
13.2557806555
 21
2.5532573476
 72
2
 10
13.2582556551
 20
2.5532573458
 40
0.0024749995
 50
179.9999571957
 51
270.0000428042
 73
1
 72
1
 10
13.2582556569
 20
2.5507823463
 11
13.2934226764
 21
2.5507823463
 72
2
 10
13.2934226783
 20
2.5483073467
 40
0.0024749995
 50
359.9999571957
 51
90.0000428042
 73
1
 72
1
 10
13.2958976778
 20
2.5483073449
 11
13.2958976778
 21
2.5349523375
 72
2
 10
13.2934226783
 20
2.5349523356
 40
0.0024749995
 50
269.9999571956
 51
0.0000428042
 73
1
 72
1
 10
13.2934226764
 20
2.5324773361
 11
13.2582556569
 21
2.5324773361
 72
2
 10
13.2582556551
 20
2.5300023366
 40
0.0024749995
 50
89.9999571957
 51
180.0000428043
 73
1
 72
1
 10
13.2557806555
 20
2.5300023347
 11
13.2557806555
 21
2.5184523283
 72
2
 10
13.2582556551
 20
2.5184523265
 40
0.0024749995
 50
179.9999571957
 51
270.0000428043
 73
1
 72
1
 10
13.2582556569
 20
2.515977327
 11
13.3232596929
 21
2.515977327
 72
2
 10
13.3232596948
 20
2.5184523265
 40
0.0024749995
 50
269.9999571958
 51
0.0000428043
 73
1
 72
1
 10
13.3257346943
 20
2.5184523283
 11
13.3257346943
 21
2.5267023329
 72
2
 10
13.3282096938
 20
2.5267023348
 40
0.0024749995
 50
89.9999571957
 51
180.0000428043
 73
1
 72
1
 10
13.3282096957
 20
2.5291773343
 11
13.3705287192
 21
2.5291773343
 72
2
 10
13.370528721
 20
2.5267023348
 40
0.0024749995
 50
359.9999571957
 51
90.0000428043
 73
1
 72
1
 10
13.3730037205
 20
2.5267023329
 11
13.3730037205
 21
2.4937023146
 72
2
 10
13.370528721
 20
2.4937023128
 40
0.0024749995
 50
269.9999571957
 51
0.0000428043
 73
1
 72
1
 10
13.3705287192
 20
2.4912273132
 11
13.1673166065
 21
2.4912273132
 97
267
330
299
330
29A
330
29B
330
29C
330
29D
330
29E
330
29F
330
2A0
330
2A1
330
2A2
330
2A3
330
2A4
330
2A5
330
2A6
330
2A7
330
2A8
330
2A9
330
2AA
330
2AB
330
2AC
330
2AD
330
2AE
330
2AF
330
2B0
330
2B1
330
2B2
330
2B3
330
2B4
330
2B5
330
2B6
330
2B7
330
2B8
330
2B9
330
2BA
330
2BB
330
2BC
330
2BD
330
2BE
330
2BF
330
2C0
330
2C1
330
2C2
330
2C3
330
2C4
330
2C5
330
2C6
330
2C7
330
2C8
330
2C9
330
2CA
330
2CB
330
2CC
330
2CD
330
2CE
330
2CF
330
2D0
330
2D1
330
2D2
330
2D3
330
2D4
330
2D5
330
2D6
330
2D7
330
2D8
330
2D9
330
2DA
330
2DB
330
2DC
330
2DD
330
2DE
330
2DF
330
2E0
330
2E1
330
2E2
330
2E3
330
2E4
330
2E5
330
2E6
330
2E7
330
2E8
330
2E9
330
2EA
330
2EB
330
2EC
330
2ED
330
2EE
330
2EF
330
2F0
330
2F1
330
2F2
330
2F3
330
2F4
330
2F5
330
2F6
330
2F7
330
2F8
330
2F9
330
2FA
330
2FB
330
2FC
330
2FD
330
2FE
330
2FF
330
300
330
301
330
302
330
303
330
304
330
305
330
306
330
307
330
308
330
309
330
30A
330
30B
330
30C
330
30D
330
30E
330
30F
330
310
330
311
330
312
330
313
330
314
330
315
330
316
330
317
330
318
330
319
330
31A
330
31B
330
31C
330
31D
330
31E
330
31F
330
320
330
321
330
322
330
323
330
324
330
325
330
326
330
327
330
328
330
329
330
32A
330
32B
330
32C
330
32D
330
32E
330
32F
330
330
330
331
330
332
330
333
330
334
330
335
330
336
330
337
330
338
330
339
330
33A
330
33B
330
33C
330
33D
330
33E
330
33F
330
340
330
341
330
342
330
343
330
344
330
345
330
346
330
347
330
348
330
349
330
34A
330
34B
330
34C
330
34D
330
34E
330
34F
330
350
330
351
330
352
330
353
330
354
330
355
330
356
330
357
330
358
330
359
330
35A
330
35B
330
35C
330
35D
330
35E
330
35F
330
360
330
361
330
362
330
363
330
364
330
365
330
366
330
367
330
368
330
369
330
36A
330
36B
330
36C
330
36D
330
36E
330
36F
330
370
330
371
330
372
330
373
330
374
330
375
330
376
330
377
330
378
330
379
330
37A
330
37B
330
37C
330
37D
330
37E
330
37F
330
380
330
381
330
382
330
383
330
384
330
385
330
386
330
387
330
388
330
389
330
38A
330
38B
330
38C
330
38D
330
38E
330
38F
330
390
330
391
330
392
330
393
330
394
330
395
330
396
330
397
330
398
330
399
330
39A
330
39B
330
39C
330
39D
330
39E
330
39F
330
3A0
330
3A1
330
3A2
330
3A3
 92
1
 93
40
 72
2
 10
13.0426374026
 20
2.493701481
 40
0.0024741678
 50
226.3477981898
 51
270.0031206038
 73
1
 72
1
 10
13.0409295364
 20
2.4919113136
 11
12.9776495013
 21
2.5522893471
 72
2
 10
12.9759408003
 20
2.5504984093
 40
0.0024753014
 50
46.3461263059
 51
180.0014637321
 73
1
 72
1
 10
12.973465499
 20
2.5504983461
 11
12.973465499
 21
2.5184523283
 72
2
 10
12.9759404985
 20
2.5184523265
 40
0.0024749995
 50
179.9999571957
 51
270.0000428043
 73
1
 72
1
 10
12.9759405003
 20
2.515977327
 11
12.9962575116
 21
2.515977327
 72
2
 10
12.9962575135
 20
2.5135023274
 40
0.0024749995
 50
359.9999571957
 51
90.0000428043
 73
1
 72
1
 10
12.998732513
 20
2.5135023256
 11
12.998732513
 21
2.4937023146
 72
2
 10
12.9962575135
 20
2.4937023128
 40
0.0024749995
 50
269.9999571957
 51
0.0000428043
 73
1
 72
1
 10
12.9962575116
 20
2.4912273132
 11
12.9205934696
 21
2.4912273132
 72
2
 10
12.9205934678
 20
2.4937023128
 40
0.0024749995
 50
179.9999571957
 51
270.0000428043
 73
1
 72
1
 10
12.9181184683
 20
2.4937023146
 11
12.9181184683
 21
2.5135023256
 72
2
 10
12.9205934678
 20
2.5135023274
 40
0.0024749995
 50
89.9999571956
 51
180.0000428042
 73
1
 72
1
 10
12.9205934696
 20
2.515977327
 11
12.93923948
 21
2.515977327
 72
2
 10
12.9392394818
 20
2.5184523265
 40
0.0024749995
 50
269.9999571957
 51
0.0000428043
 73
1
 72
1
 10
12.9417144814
 20
2.5184523283
 11
12.9417144814
 21
2.564807354
 72
2
 10
12.9392394818
 20
2.5648073559
 40
0.0024749995
 50
359.9999571957
 51
90.0000428043
 73
1
 72
1
 10
12.93923948
 20
2.5672823554
 11
12.9205934696
 21
2.5672823554
 72
2
 10
12.9205934678
 20
2.5697573549
 40
0.0024749995
 50
179.9999571957
 51
270.0000428043
 73
1
 72
1
 10
12.9181184683
 20
2.5697573568
 11
12.9181184683
 21
2.5895573678
 72
2
 10
12.9205934678
 20
2.5895573696
 40
0.0024749995
 50
89.9999571956
 51
180.0000428042
 73
1
 72
1
 10
12.9205934696
 20
2.5920323691
 11
13.0210515254
 21
2.5920323691
 72
2
 10
13.0210516601
 20
2.5895582013
 40
0.0024741678
 50
46.3477981898
 51
90.0031206038
 73
1
 72
1
 10
13.0227595263
 20
2.5913483688
 11
13.0827925596
 21
2.534068337
 72
2
 10
13.0845012605
 20
2.5358592748
 40
0.0024753014
 50
226.3461263059
 51
0.0014637321
 73
1
 72
1
 10
13.0869765619
 20
2.535859338
 11
13.0869765619
 21
2.564807354
 72
2
 10
13.0845015624
 20
2.5648073559
 40
0.0024749995
 50
359.9999571957
 51
90.0000428043
 73
1
 72
1
 10
13.0845015605
 20
2.5672823554
 11
13.0657255501
 21
2.5672823554
 72
2
 10
13.0657255483
 20
2.5697573549
 40
0.0024749995
 50
179.9999571957
 51
270.0000428043
 73
1
 72
1
 10
13.0632505488
 20
2.5697573568
 11
13.0632505488
 21
2.5895573678
 72
2
 10
13.0657255483
 20
2.5895573696
 40
0.0024749995
 50
89.9999571957
 51
180.0000428043
 73
1
 72
1
 10
13.0657255501
 20
2.5920323691
 11
13.1397265912
 21
2.5920323691
 72
2
 10
13.139726593
 20
2.5895573696
 40
0.0024749995
 50
359.9999571957
 51
90.0000428043
 73
1
 72
1
 10
13.1422015925
 20
2.5895573678
 11
13.1422015925
 21
2.5697573568
 72
2
 10
13.139726593
 20
2.5697573549
 40
0.0024749995
 50
269.9999571956
 51
0.0000428042
 73
1
 72
1
 10
13.1397265912
 20
2.5672823554
 11
13.1217935812
 21
2.5672823554
 72
2
 10
13.1217935794
 20
2.5648073559
 40
0.0024749995
 50
89.9999571957
 51
180.0000428042
 73
1
 72
1
 10
13.1193185799
 20
2.564807354
 11
13.1193185799
 21
2.4937023146
 72
2
 10
13.1168435803
 20
2.4937023128
 40
0.0024749995
 50
269.9999571957
 51
0.0000428043
 73
1
 72
1
 10
13.1168435785
 20
2.4912273132
 11
13.0426375373
 21
2.4912273132
 97
267
330
299
330
29A
330
29B
330
29C
330
29D
330
29E
330
29F
330
2A0
330
2A1
330
2A2
330
2A3
330
2A4
330
2A5
330
2A6
330
2A7
330
2A8
330
2A9
330
2AA
330
2AB
330
2AC
330
2AD
330
2AE
330
2AF
330
2B0
330
2B1
330
2B2
330
2B3
330
2B4
330
2B5
330
2B6
330
2B7
330
2B8
330
2B9
330
2BA
330
2BB
330
2BC
330
2BD
330
2BE
330
2BF
330
2C0
330
2C1
330
2C2
330
2C3
330
2C4
330
2C5
330
2C6
330
2C7
330
2C8
330
2C9
330
2CA
330
2CB
330
2CC
330
2CD
330
2CE
330
2CF
330
2D0
330
2D1
330
2D2
330
2D3
330
2D4
330
2D5
330
2D6
330
2D7
330
2D8
330
2D9
330
2DA
330
2DB
330
2DC
330
2DD
330
2DE
330
2DF
330
2E0
330
2E1
330
2E2
330
2E3
330
2E4
330
2E5
330
2E6
330
2E7
330
2E8
330
2E9
330
2EA
330
2EB
330
2EC
330
2ED
330
2EE
330
2EF
330
2F0
330
2F1
330
2F2
330
2F3
330
2F4
330
2F5
330
2F6
330
2F7
330
2F8
330
2F9
330
2FA
330
2FB
330
2FC
330
2FD
330
2FE
330
2FF
330
300
330
301
330
302
330
303
330
304
330
305
330
306
330
307
330
308
330
309
330
30A
330
30B
330
30C
330
30D
330
30E
330
30F
330
310
330
311
330
312
330
313
330
314
330
315
330
316
330
317
330
318
330
319
330
31A
330
31B
330
31C
330
31D
330
31E
330
31F
330
320
330
321
330
322
330
323
330
324
330
325
330
326
330
327
330
328
330
329
330
32A
330
32B
330
32C
330
32D
330
32E
330
32F
330
330
330
331
330
332
330
333
330
334
330
335
330
336
330
337
330
338
330
339
330
33A
330
33B
330
33C
330
33D
330
33E
330
33F
330
340
330
341
330
342
330
343
330
344
330
345
330
346
330
347
330
348
330
349
330
34A
330
34B
330
34C
330
34D
330
34E
330
34F
330
350
330
351
330
352
330
353
330
354
330
355
330
356
330
357
330
358
330
359
330
35A
330
35B
330
35C
330
35D
330
35E
330
35F
330
360
330
361
330
362
330
363
330
364
330
365
330
366
330
367
330
368
330
369
330
36A
330
36B
330
36C
330
36D
330
36E
330
36F
330
370
330
371
330
372
330
373
330
374
330
375
330
376
330
377
330
378
330
379
330
37A
330
37B
330
37C
330
37D
330
37E
330
37F
330
380
330
381
330
382
330
383
330
384
330
385
330
386
330
387
330
388
330
389
330
38A
330
38B
330
38C
330
38D
330
38E
330
38F
330
390
330
391
330
392
330
393
330
394
330
395
330
396
330
397
330
398
330
399
330
39A
330
39B
330
39C
330
39D
330
39E
330
39F
330
3A0
330
3A1
330
3A2
330
3A3
 92
1
 93
40
 72
2
 10
12.7943847649
 20
2.4937027294
 40
0.0024754162
 50
226.3593695813
 51
270.0146919953
 73
1
 72
1
 10
12.7926763987
 20
2.4919113136
 11
12.7293963636
 21
2.5522893471
 72
2
 10
12.7276876627
 20
2.5504984093
 40
0.0024753014
 50
46.3461263059
 51
180.0014637321
 73
1
 72
1
 10
12.7252123613
 20
2.5504983461
 11
12.7252123613
 21
2.5184523283
 72
2
 10
12.7276873608
 20
2.5184523265
 40
0.0024749995
 50
179.9999571957
 51
270.0000428043
 73
1
 72
1
 10
12.7276873627
 20
2.515977327
 11
12.7480043739
 21
2.515977327
 72
2
 10
12.7480043758
 20
2.5135023274
 40
0.0024749995
 50
359.9999571957
 51
90.0000428043
 73
1
 72
1
 10
12.7504793753
 20
2.5135023256
 11
12.7504793753
 21
2.4937023146
 72
2
 10
12.7480043758
 20
2.4937023128
 40
0.0024749995
 50
269.9999571958
 51
0.0000428043
 73
1
 72
1
 10
12.7480043739
 20
2.4912273132
 11
12.672340332
 21
2.4912273132
 72
2
 10
12.6723403301
 20
2.4937023128
 40
0.0024749995
 50
179.9999571957
 51
270.0000428042
 73
1
 72
1
 10
12.6698653306
 20
2.4937023146
 11
12.6698653306
 21
2.5135023256
 72
2
 10
12.6723403301
 20
2.5135023274
 40
0.0024749995
 50
89.9999571957
 51
180.0000428043
 73
1
 72
1
 10
12.672340332
 20
2.515977327
 11
12.6909873423
 21
2.515977327
 72
2
 10
12.6909873442
 20
2.5184523265
 40
0.0024749995
 50
269.9999571957
 51
0.0000428043
 73
1
 72
1
 10
12.6934623437
 20
2.5184523283
 11
12.6934623437
 21
2.564807354
 72
2
 10
12.6909873442
 20
2.5648073559
 40
0.0024749995
 50
359.9999571957
 51
90.0000428043
 73
1
 72
1
 10
12.6909873423
 20
2.5672823554
 11
12.672340332
 21
2.5672823554
 72
2
 10
12.6723403301
 20
2.5697573549
 40
0.0024749995
 50
179.9999571957
 51
270.0000428043
 73
1
 72
1
 10
12.6698653306
 20
2.5697573568
 11
12.6698653306
 21
2.5895573678
 72
2
 10
12.6723403301
 20
2.5895573696
 40
0.0024749995
 50
89.9999571957
 51
180.0000428043
 73
1
 72
1
 10
12.672340332
 20
2.5920323691
 11
12.7727983877
 21
2.5920323691
 72
2
 10
12.7727985224
 20
2.5895582013
 40
0.0024741678
 50
46.3477981899
 51
90.0031206038
 73
1
 72
1
 10
12.7745063886
 20
2.5913483688
 11
12.8345394219
 21
2.534068337
 72
2
 10
12.8362481229
 20
2.5358592748
 40
0.0024753014
 50
226.3461263059
 51
0.0014637321
 73
1
 72
1
 10
12.8387234242
 20
2.535859338
 11
12.8387234242
 21
2.564807354
 72
2
 10
12.8362484247
 20
2.5648073559
 40
0.0024749995
 50
359.9999571957
 51
90.0000428043
 73
1
 72
1
 10
12.8362484229
 20
2.5672823554
 11
12.8174724125
 21
2.5672823554
 72
2
 10
12.8174724106
 20
2.5697573549
 40
0.0024749995
 50
179.9999571957
 51
270.0000428043
 73
1
 72
1
 10
12.8149974111
 20
2.5697573568
 11
12.8149974111
 21
2.5895573678
 72
2
 10
12.8174724106
 20
2.5895573696
 40
0.0024749995
 50
89.9999571958
 51
180.0000428043
 73
1
 72
1
 10
12.8174724125
 20
2.5920323691
 11
12.8914734535
 21
2.5920323691
 72
2
 10
12.8914734553
 20
2.5895573696
 40
0.0024749995
 50
359.9999571957
 51
90.0000428042
 73
1
 72
1
 10
12.8939484549
 20
2.5895573678
 11
12.8939484549
 21
2.5697573568
 72
2
 10
12.8914734553
 20
2.5697573549
 40
0.0024749995
 50
269.9999571958
 51
0.0000428043
 73
1
 72
1
 10
12.8914734535
 20
2.5672823554
 11
12.8735404436
 21
2.5672823554
 72
2
 10
12.8735404417
 20
2.5648073559
 40
0.0024749995
 50
89.9999571957
 51
180.0000428043
 73
1
 72
1
 10
12.8710654422
 20
2.564807354
 11
12.8710654422
 21
2.4937023146
 72
2
 10
12.8685904427
 20
2.4937023128
 40
0.0024749995
 50
269.9999571957
 51
0.0000428043
 73
1
 72
1
 10
12.8685904408
 20
2.4912273132
 11
12.7943853997
 21
2.4912273132
 97
267
330
299
330
29A
330
29B
330
29C
330
29D
330
29E
330
29F
330
2A0
330
2A1
330
2A2
330
2A3
330
2A4
330
2A5
330
2A6
330
2A7
330
2A8
330
2A9
330
2AA
330
2AB
330
2AC
330
2AD
330
2AE
330
2AF
330
2B0
330
2B1
330
2B2
330
2B3
330
2B4
330
2B5
330
2B6
330
2B7
330
2B8
330
2B9
330
2BA
330
2BB
330
2BC
330
2BD
330
2BE
330
2BF
330
2C0
330
2C1
330
2C2
330
2C3
330
2C4
330
2C5
330
2C6
330
2C7
330
2C8
330
2C9
330
2CA
330
2CB
330
2CC
330
2CD
330
2CE
330
2CF
330
2D0
330
2D1
330
2D2
330
2D3
330
2D4
330
2D5
330
2D6
330
2D7
330
2D8
330
2D9
330
2DA
330
2DB
330
2DC
330
2DD
330
2DE
330
2DF
330
2E0
330
2E1
330
2E2
330
2E3
330
2E4
330
2E5
330
2E6
330
2E7
330
2E8
330
2E9
330
2EA
330
2EB
330
2EC
330
2ED
330
2EE
330
2EF
330
2F0
330
2F1
330
2F2
330
2F3
330
2F4
330
2F5
330
2F6
330
2F7
330
2F8
330
2F9
330
2FA
330
2FB
330
2FC
330
2FD
330
2FE
330
2FF
330
300
330
301
330
302
330
303
330
304
330
305
330
306
330
307
330
308
330
309
330
30A
330
30B
330
30C
330
30D
330
30E
330
30F
330
310
330
311
330
312
330
313
330
314
330
315
330
316
330
317
330
318
330
319
330
31A
330
31B
330
31C
330
31D
330
31E
330
31F
330
320
330
321
330
322
330
323
330
324
330
325
330
326
330
327
330
328
330
329
330
32A
330
32B
330
32C
330
32D
330
32E
330
32F
330
330
330
331
330
332
330
333
330
334
330
335
330
336
330
337
330
338
330
339
330
33A
330
33B
330
33C
330
33D
330
33E
330
33F
330
340
330
341
330
342
330
343
330
344
330
345
330
346
330
347
330
348
330
349
330
34A
330
34B
330
34C
330
34D
330
34E
330
34F
330
350
330
351
330
352
330
353
330
354
330
355
330
356
330
357
330
358
330
359
330
35A
330
35B
330
35C
330
35D
330
35E
330
35F
330
360
330
361
330
362
330
363
330
364
330
365
330
366
330
367
330
368
330
369
330
36A
330
36B
330
36C
330
36D
330
36E
330
36F
330
370
330
371
330
372
330
373
330
374
330
375
330
376
330
377
330
378
330
379
330
37A
330
37B
330
37C
330
37D
330
37E
330
37F
330
380
330
381
330
382
330
383
330
384
330
385
330
386
330
387
330
388
330
389
330
38A
330
38B
330
38C
330
38D
330
38E
330
38F
330
390
330
391
330
392
330
393
330
394
330
395
330
396
330
397
330
398
330
399
330
39A
330
39B
330
39C
330
39D
330
39E
330
39F
330
3A0
330
3A1
330
3A2
330
3A3
 92
1
 93
23
 72
2
 10
12.3792298263
 20
2.539634765
 40
0.048483885
 50
273.21763719
 51
303.0749121182
 73
1
 72
2
 10
12.3940692204
 20
2.5168671561
 40
0.0213072145
 50
303.0488228549
 51
355.7263138674
 73
1
 72
2
 10
12.400005721
 20
2.5168763464
 40
0.0153945295
 50
354.0454548824
 51
5.1878013979
 73
1
 72
2
 10
12.3931760319
 20
2.5166878286
 40
0.0222174455
 50
4.0793399388
 51
69.834329283
 73
1
 72
1
 10
12.4008351814
 20
2.5375433389
 11
12.3907841758
 21
2.5410923409
 72
1
 10
12.3907841758
 20
2.5410923409
 11
12.3990241804
 21
2.5458683435
 72
2
 10
12.3771587979
 20
2.5826952352
 40
0.0428289026
 50
300.6990502959
 51
319.0591802498
 73
1
 72
2
 10
12.3971873948
 20
2.5665668817
 40
0.0171568255
 50
315.9145124245
 51
16.0049121282
 73
1
 72
2
 10
12.3922357827
 20
2.5632132173
 40
0.0229166529
 50
20.6563876465
 51
62.3316896973
 73
1
 72
2
 10
12.371573659
 20
2.5302846524
 40
0.061747717
 50
59.5385584989
 51
90.0050977555
 73
1
 72
1
 10
12.3715681652
 20
2.5920323691
 11
12.2055050731
 21
2.5920323691
 72
2
 10
12.2055050712
 20
2.5895573696
 40
0.0024749995
 50
89.9999571957
 51
180.0000428043
 73
1
 72
1
 10
12.2030300717
 20
2.5895573678
 11
12.2030300717
 21
2.5697573568
 72
2
 10
12.2055050712
 20
2.5697573549
 40
0.0024749995
 50
179.9999571957
 51
270.0000428043
 73
1
 72
1
 10
12.2055050731
 20
2.5672823554
 11
12.2294470864
 21
2.5672823554
 72
2
 10
12.2294470882
 20
2.5648073559
 40
0.0024749995
 50
359.9999571957
 51
90.0000428043
 73
1
 72
1
 10
12.2319220877
 20
2.564807354
 11
12.2319220877
 21
2.5184523283
 72
2
 10
12.2294470882
 20
2.5184523265
 40
0.0024749995
 50
269.9999571957
 51
0.0000428043
 73
1
 72
1
 10
12.2294470864
 20
2.515977327
 11
12.2055050731
 21
2.515977327
 72
2
 10
12.2055050712
 20
2.5135023274
 40
0.0024749995
 50
89.9999571957
 51
180.0000428043
 73
1
 72
1
 10
12.2030300717
 20
2.5135023256
 11
12.2030300717
 21
2.4937023146
 72
2
 10
12.2055050712
 20
2.4937023128
 40
0.0024749995
 50
179.9999571957
 51
270.0000428043
 73
1
 72
1
 10
12.2055050731
 20
2.4912273132
 11
12.3819511709
 21
2.4912273132
 97
267
330
299
330
29A
330
29B
330
29C
330
29D
330
29E
330
29F
330
2A0
330
2A1
330
2A2
330
2A3
330
2A4
330
2A5
330
2A6
330
2A7
330
2A8
330
2A9
330
2AA
330
2AB
330
2AC
330
2AD
330
2AE
330
2AF
330
2B0
330
2B1
330
2B2
330
2B3
330
2B4
330
2B5
330
2B6
330
2B7
330
2B8
330
2B9
330
2BA
330
2BB
330
2BC
330
2BD
330
2BE
330
2BF
330
2C0
330
2C1
330
2C2
330
2C3
330
2C4
330
2C5
330
2C6
330
2C7
330
2C8
330
2C9
330
2CA
330
2CB
330
2CC
330
2CD
330
2CE
330
2CF
330
2D0
330
2D1
330
2D2
330
2D3
330
2D4
330
2D5
330
2D6
330
2D7
330
2D8
330
2D9
330
2DA
330
2DB
330
2DC
330
2DD
330
2DE
330
2DF
330
2E0
330
2E1
330
2E2
330
2E3
330
2E4
330
2E5
330
2E6
330
2E7
330
2E8
330
2E9
330
2EA
330
2EB
330
2EC
330
2ED
330
2EE
330
2EF
330
2F0
330
2F1
330
2F2
330
2F3
330
2F4
330
2F5
330
2F6
330
2F7
330
2F8
330
2F9
330
2FA
330
2FB
330
2FC
330
2FD
330
2FE
330
2FF
330
300
330
301
330
302
330
303
330
304
330
305
330
306
330
307
330
308
330
309
330
30A
330
30B
330
30C
330
30D
330
30E
330
30F
330
310
330
311
330
312
330
313
330
314
330
315
330
316
330
317
330
318
330
319
330
31A
330
31B
330
31C
330
31D
330
31E
330
31F
330
320
330
321
330
322
330
323
330
324
330
325
330
326
330
327
330
328
330
329
330
32A
330
32B
330
32C
330
32D
330
32E
330
32F
330
330
330
331
330
332
330
333
330
334
330
335
330
336
330
337
330
338
330
339
330
33A
330
33B
330
33C
330
33D
330
33E
330
33F
330
340
330
341
330
342
330
343
330
344
330
345
330
346
330
347
330
348
330
349
330
34A
330
34B
330
34C
330
34D
330
34E
330
34F
330
350
330
351
330
352
330
353
330
354
330
355
330
356
330
357
330
358
330
359
330
35A
330
35B
330
35C
330
35D
330
35E
330
35F
330
360
330
361
330
362
330
363
330
364
330
365
330
366
330
367
330
368
330
369
330
36A
330
36B
330
36C
330
36D
330
36E
330
36F
330
370
330
371
330
372
330
373
330
374
330
375
330
376
330
377
330
378
330
379
330
37A
330
37B
330
37C
330
37D
330
37E
330
37F
330
380
330
381
330
382
330
383
330
384
330
385
330
386
330
387
330
388
330
389
330
38A
330
38B
330
38C
330
38D
330
38E
330
38F
330
390
330
391
330
392
330
393
330
394
330
395
330
396
330
397
330
398
330
399
330
39A
330
39B
330
39C
330
39D
330
39E
330
39F
330
3A0
330
3A1
330
3A2
330
3A3
 92
1
 93
32
 72
2
 10
12.5168642476
 20
2.4937023128
 40
0.0024749995
 50
269.9999571957
 51
0.0000428043
 73
1
 72
1
 10
12.5193392471
 20
2.4937023146
 11
12.5193392471
 21
2.5135023256
 72
2
 10
12.5168642476
 20
2.5135023274
 40
0.0024749995
 50
359.9999571957
 51
90.0000428043
 73
1
 72
1
 10
12.5168642458
 20
2.515977327
 11
12.5055812395
 21
2.515977327
 72
2
 10
12.5055811302
 20
2.518452367
 40
0.0024750401
 50
147.6063258011
 51
270.0025305754
 73
1
 72
1
 10
12.5034912383
 20
2.5197783291
 11
12.5090072414
 21
2.5284723339
 72
2
 10
12.5110971723
 20
2.5271461342
 40
0.0024752003
 50
89.998372645
 51
147.602165307
 73
1
 72
1
 10
12.5110972426
 20
2.5296213345
 11
12.5459752619
 21
2.5296213345
 72
2
 10
12.5459747223
 20
2.5271458744
 40
0.0024754602
 50
32.8959418573
 51
89.9875097202
 73
1
 72
1
 10
12.548053263
 20
2.5284903339
 11
12.5536792662
 21
2.5197973291
 72
2
 10
12.5516012439
 20
2.5184525341
 40
0.0024752071
 50
270.0004896794
 51
32.9089806818
 73
1
 72
1
 10
12.551601265
 20
2.515977327
 11
12.537150257
 21
2.515977327
 72
2
 10
12.5371502552
 20
2.5135023274
 40
0.0024749995
 50
89.9999571958
 51
180.0000428043
 73
1
 72
1
 10
12.5346752556
 20
2.5135023256
 11
12.5346752556
 21
2.4937023146
 72
2
 10
12.5371502552
 20
2.4937023128
 40
0.0024749995
 50
179.9999571957
 51
270.0000428042
 73
1
 72
1
 10
12.537150257
 20
2.4912273132
 11
12.6424313154
 21
2.4912273132
 72
2
 10
12.6424313172
 20
2.4937023128
 40
0.0024749995
 50
269.9999571957
 51
0.0000428043
 73
1
 72
1
 10
12.6449063168
 20
2.4937023146
 11
12.6449063168
 21
2.5135023256
 72
2
 10
12.6424313172
 20
2.5135023274
 40
0.0024749995
 50
359.9999571957
 51
90.0000428043
 73
1
 72
1
 10
12.6424313154
 20
2.515977327
 11
12.6224153043
 21
2.515977327
 72
2
 10
12.6224154248
 20
2.518451368
 40
0.002474041
 50
212.9056413127
 51
269.9972091756
 73
1
 72
1
 10
12.6203383031
 20
2.5171073276
 11
12.5725822767
 21
2.5909023685
 72
2
 10
12.570504655
 20
2.589557409
 40
0.0024749602
 50
32.9172174468
 51
90.0087853097
 73
1
 72
1
 10
12.5705042755
 20
2.5920323691
 11
12.5133292438
 21
2.5920323691
 72
2
 10
12.5133291735
 20
2.5895571688
 40
0.0024752003
 50
89.9983726451
 51
147.602165307
 73
1
 72
1
 10
12.5112392426
 20
2.5908833685
 11
12.4644392167
 21
2.5171263276
 72
2
 10
12.4623492858
 20
2.5184525273
 40
0.0024752003
 50
269.9983726451
 51
327.602165307
 73
1
 72
1
 10
12.4623492155
 20
2.515977327
 11
12.4394882028
 21
2.515977327
 72
2
 10
12.439488201
 20
2.5135023274
 40
0.0024749995
 50
89.9999571958
 51
180.0000428043
 73
1
 72
1
 10
12.4370132015
 20
2.5135023256
 11
12.4370132015
 21
2.4937023146
 72
2
 10
12.439488201
 20
2.4937023128
 40
0.0024749995
 50
179.9999571957
 51
270.0000428042
 73
1
 72
1
 10
12.4394882028
 20
2.4912273132
 11
12.5168642458
 21
2.4912273132
 97
267
330
299
330
29A
330
29B
330
29C
330
29D
330
29E
330
29F
330
2A0
330
2A1
330
2A2
330
2A3
330
2A4
330
2A5
330
2A6
330
2A7
330
2A8
330
2A9
330
2AA
330
2AB
330
2AC
330
2AD
330
2AE
330
2AF
330
2B0
330
2B1
330
2B2
330
2B3
330
2B4
330
2B5
330
2B6
330
2B7
330
2B8
330
2B9
330
2BA
330
2BB
330
2BC
330
2BD
330
2BE
330
2BF
330
2C0
330
2C1
330
2C2
330
2C3
330
2C4
330
2C5
330
2C6
330
2C7
330
2C8
330
2C9
330
2CA
330
2CB
330
2CC
330
2CD
330
2CE
330
2CF
330
2D0
330
2D1
330
2D2
330
2D3
330
2D4
330
2D5
330
2D6
330
2D7
330
2D8
330
2D9
330
2DA
330
2DB
330
2DC
330
2DD
330
2DE
330
2DF
330
2E0
330
2E1
330
2E2
330
2E3
330
2E4
330
2E5
330
2E6
330
2E7
330
2E8
330
2E9
330
2EA
330
2EB
330
2EC
330
2ED
330
2EE
330
2EF
330
2F0
330
2F1
330
2F2
330
2F3
330
2F4
330
2F5
330
2F6
330
2F7
330
2F8
330
2F9
330
2FA
330
2FB
330
2FC
330
2FD
330
2FE
330
2FF
330
300
330
301
330
302
330
303
330
304
330
305
330
306
330
307
330
308
330
309
330
30A
330
30B
330
30C
330
30D
330
30E
330
30F
330
310
330
311
330
312
330
313
330
314
330
315
330
316
330
317
330
318
330
319
330
31A
330
31B
330
31C
330
31D
330
31E
330
31F
330
320
330
321
330
322
330
323
330
324
330
325
330
326
330
327
330
328
330
329
330
32A
330
32B
330
32C
330
32D
330
32E
330
32F
330
330
330
331
330
332
330
333
330
334
330
335
330
336
330
337
330
338
330
339
330
33A
330
33B
330
33C
330
33D
330
33E
330
33F
330
340
330
341
330
342
330
343
330
344
330
345
330
346
330
347
330
348
330
349
330
34A
330
34B
330
34C
330
34D
330
34E
330
34F
330
350
330
351
330
352
330
353
330
354
330
355
330
356
330
357
330
358
330
359
330
35A
330
35B
330
35C
330
35D
330
35E
330
35F
330
360
330
361
330
362
330
363
330
364
330
365
330
366
330
367
330
368
330
369
330
36A
330
36B
330
36C
330
36D
330
36E
330
36F
330
370
330
371
330
372
330
373
330
374
330
375
330
376
330
377
330
378
330
379
330
37A
330
37B
330
37C
330
37D
330
37E
330
37F
330
380
330
381
330
382
330
383
330
384
330
385
330
386
330
387
330
388
330
389
330
38A
330
38B
330
38C
330
38D
330
38E
330
38F
330
390
330
391
330
392
330
393
330
394
330
395
330
396
330
397
330
398
330
399
330
39A
330
39B
330
39C
330
39D
330
39E
330
39F
330
3A0
330
3A1
330
3A2
330
3A3
 92
1
 93
6
 72
2
 10
12.2949101208
 20
2.5184523265
 40
0.0024749995
 50
179.9999571957
 51
270.0000428043
 73
1
 72
1
 10
12.2924351213
 20
2.5184523283
 11
12.2924351213
 21
2.5308273352
 72
2
 10
12.2949101208
 20
2.530827337
 40
0.0024749995
 50
89.9999571957
 51
180.0000428043
 73
1
 72
1
 10
12.2949101227
 20
2.5333023366
 11
12.3362731456
 21
2.5333023366
 72
2
 10
12.3362731456
 20
2.5246398318
 40
0.0086625048
 50
270.0
 51
90.0
 73
1
 72
1
 10
12.3362731456
 20
2.515977327
 11
12.2949101227
 21
2.515977327
 97
267
330
299
330
29A
330
29B
330
29C
330
29D
330
29E
330
29F
330
2A0
330
2A1
330
2A2
330
2A3
330
2A4
330
2A5
330
2A6
330
2A7
330
2A8
330
2A9
330
2AA
330
2AB
330
2AC
330
2AD
330
2AE
330
2AF
330
2B0
330
2B1
330
2B2
330
2B3
330
2B4
330
2B5
330
2B6
330
2B7
330
2B8
330
2B9
330
2BA
330
2BB
330
2BC
330
2BD
330
2BE
330
2BF
330
2C0
330
2C1
330
2C2
330
2C3
330
2C4
330
2C5
330
2C6
330
2C7
330
2C8
330
2C9
330
2CA
330
2CB
330
2CC
330
2CD
330
2CE
330
2CF
330
2D0
330
2D1
330
2D2
330
2D3
330
2D4
330
2D5
330
2D6
330
2D7
330
2D8
330
2D9
330
2DA
330
2DB
330
2DC
330
2DD
330
2DE
330
2DF
330
2E0
330
2E1
330
2E2
330
2E3
330
2E4
330
2E5
330
2E6
330
2E7
330
2E8
330
2E9
330
2EA
330
2EB
330
2EC
330
2ED
330
2EE
330
2EF
330
2F0
330
2F1
330
2F2
330
2F3
330
2F4
330
2F5
330
2F6
330
2F7
330
2F8
330
2F9
330
2FA
330
2FB
330
2FC
330
2FD
330
2FE
330
2FF
330
300
330
301
330
302
330
303
330
304
330
305
330
306
330
307
330
308
330
309
330
30A
330
30B
330
30C
330
30D
330
30E
330
30F
330
310
330
311
330
312
330
313
330
314
330
315
330
316
330
317
330
318
330
319
330
31A
330
31B
330
31C
330
31D
330
31E
330
31F
330
320
330
321
330
322
330
323
330
324
330
325
330
326
330
327
330
328
330
329
330
32A
330
32B
330
32C
330
32D
330
32E
330
32F
330
330
330
331
330
332
330
333
330
334
330
335
330
336
330
337
330
338
330
339
330
33A
330
33B
330
33C
330
33D
330
33E
330
33F
330
340
330
341
330
342
330
343
330
344
330
345
330
346
330
347
330
348
330
349
330
34A
330
34B
330
34C
330
34D
330
34E
330
34F
330
350
330
351
330
352
330
353
330
354
330
355
330
356
330
357
330
358
330
359
330
35A
330
35B
330
35C
330
35D
330
35E
330
35F
330
360
330
361
330
362
330
363
330
364
330
365
330
366
330
367
330
368
330
369
330
36A
330
36B
330
36C
330
36D
330
36E
330
36F
330
370
330
371
330
372
330
373
330
374
330
375
330
376
330
377
330
378
330
379
330
37A
330
37B
330
37C
330
37D
330
37E
330
37F
330
380
330
381
330
382
330
383
330
384
330
385
330
386
330
387
330
388
330
389
330
38A
330
38B
330
38C
330
38D
330
38E
330
38F
330
390
330
391
330
392
330
393
330
394
330
395
330
396
330
397
330
398
330
399
330
39A
330
39B
330
39C
330
39D
330
39E
330
39F
330
3A0
330
3A1
330
3A2
330
3A3
 92
1
 93
13
 72
2
 10
13.4883447827
 20
2.5520823451
 40
0.0024749995
 50
179.9999571957
 51
270.0000428042
 73
1
 72
1
 10
13.4858697831
 20
2.552082347
 11
13.4858697831
 21
2.564807354
 72
2
 10
13.4883447827
 20
2.5648073559
 40
0.0024749995
 50
89.9999571958
 51
180.0000428043
 73
1
 72
1
 10
13.4883447845
 20
2.5672823554
 11
13.5251458049
 21
2.5672823554
 72
2
 10
13.5236009174
 20
2.5388278764
 40
0.0284963867
 50
70.3834917948
 51
86.8922743861
 73
1
 72
2
 10
13.5284605274
 20
2.5518696094
 40
0.0145814632
 50
54.6746025112
 51
71.1660573124
 73
1
 72
2
 10
13.5335900184
 20
2.5587235346
 40
0.0060275915
 50
20.9055592135
 51
56.7851676243
 73
1
 72
2
 10
13.5348905773
 20
2.5593838168
 40
0.0045795888
 50
355.6235353944
 51
18.9942678268
 73
1
 72
2
 10
13.533683767
 20
2.559677593
 40
0.0058087709
 50
318.8515287446
 51
353.6422345323
 73
1
 72
2
 10
13.5295131508
 20
2.5629115009
 40
0.0110815393
 50
306.758405961
 51
320.4502234234
 73
1
 72
2
 10
13.5238839599
 20
2.5706523294
 40
0.0206523367
 50
289.6883413472
 51
306.4184925496
 73
1
 72
2
 10
13.5219564542
 20
2.5750459767
 40
0.0254407115
 50
270.7327484175
 51
290.441894219
 73
1
 72
1
 10
13.5222818033
 20
2.5496073456
 11
13.4883447845
 21
2.5496073456
 97
267
330
299
330
29A
330
29B
330
29C
330
29D
330
29E
330
29F
330
2A0
330
2A1
330
2A2
330
2A3
330
2A4
330
2A5
330
2A6
330
2A7
330
2A8
330
2A9
330
2AA
330
2AB
330
2AC
330
2AD
330
2AE
330
2AF
330
2B0
330
2B1
330
2B2
330
2B3
330
2B4
330
2B5
330
2B6
330
2B7
330
2B8
330
2B9
330
2BA
330
2BB
330
2BC
330
2BD
330
2BE
330
2BF
330
2C0
330
2C1
330
2C2
330
2C3
330
2C4
330
2C5
330
2C6
330
2C7
330
2C8
330
2C9
330
2CA
330
2CB
330
2CC
330
2CD
330
2CE
330
2CF
330
2D0
330
2D1
330
2D2
330
2D3
330
2D4
330
2D5
330
2D6
330
2D7
330
2D8
330
2D9
330
2DA
330
2DB
330
2DC
330
2DD
330
2DE
330
2DF
330
2E0
330
2E1
330
2E2
330
2E3
330
2E4
330
2E5
330
2E6
330
2E7
330
2E8
330
2E9
330
2EA
330
2EB
330
2EC
330
2ED
330
2EE
330
2EF
330
2F0
330
2F1
330
2F2
330
2F3
330
2F4
330
2F5
330
2F6
330
2F7
330
2F8
330
2F9
330
2FA
330
2FB
330
2FC
330
2FD
330
2FE
330
2FF
330
300
330
301
330
302
330
303
330
304
330
305
330
306
330
307
330
308
330
309
330
30A
330
30B
330
30C
330
30D
330
30E
330
30F
330
310
330
311
330
312
330
313
330
314
330
315
330
316
330
317
330
318
330
319
330
31A
330
31B
330
31C
330
31D
330
31E
330
31F
330
320
330
321
330
322
330
323
330
324
330
325
330
326
330
327
330
328
330
329
330
32A
330
32B
330
32C
330
32D
330
32E
330
32F
330
330
330
331
330
332
330
333
330
334
330
335
330
336
330
337
330
338
330
339
330
33A
330
33B
330
33C
330
33D
330
33E
330
33F
330
340
330
341
330
342
330
343
330
344
330
345
330
346
330
347
330
348
330
349
330
34A
330
34B
330
34C
330
34D
330
34E
330
34F
330
350
330
351
330
352
330
353
330
354
330
355
330
356
330
357
330
358
330
359
330
35A
330
35B
330
35C
330
35D
330
35E
330
35F
330
360
330
361
330
362
330
363
330
364
330
365
330
366
330
367
330
368
330
369
330
36A
330
36B
330
36C
330
36D
330
36E
330
36F
330
370
330
371
330
372
330
373
330
374
330
375
330
376
330
377
330
378
330
379
330
37A
330
37B
330
37C
330
37D
330
37E
330
37F
330
380
330
381
330
382
330
383
330
384
330
385
330
386
330
387
330
388
330
389
330
38A
330
38B
330
38C
330
38D
330
38E
330
38F
330
390
330
391
330
392
330
393
330
394
330
395
330
396
330
397
330
398
330
399
330
39A
330
39B
330
39C
330
39D
330
39E
330
39F
330
3A0
330
3A1
330
3A2
330
3A3
 92
1
 93
6
 72
2
 10
12.3362731456
 20
2.5586198506
 40
0.0086625048
 50
270.0
 51
90.0
 73
1
 72
1
 10
12.3362731456
 20
2.5672823554
 11
12.2949101227
 21
2.5672823554
 72
2
 10
12.2949101208
 20
2.5648073559
 40
0.0024749995
 50
89.9999571957
 51
180.0000428043
 73
1
 72
1
 10
12.2924351213
 20
2.564807354
 11
12.2924351213
 21
2.5524323472
 72
2
 10
12.2949101208
 20
2.5524323453
 40
0.0024749995
 50
179.9999571957
 51
270.0000428043
 73
1
 72
1
 10
12.2949101227
 20
2.5499573458
 11
12.3362731456
 21
2.5499573458
 97
267
330
299
330
29A
330
29B
330
29C
330
29D
330
29E
330
29F
330
2A0
330
2A1
330
2A2
330
2A3
330
2A4
330
2A5
330
2A6
330
2A7
330
2A8
330
2A9
330
2AA
330
2AB
330
2AC
330
2AD
330
2AE
330
2AF
330
2B0
330
2B1
330
2B2
330
2B3
330
2B4
330
2B5
330
2B6
330
2B7
330
2B8
330
2B9
330
2BA
330
2BB
330
2BC
330
2BD
330
2BE
330
2BF
330
2C0
330
2C1
330
2C2
330
2C3
330
2C4
330
2C5
330
2C6
330
2C7
330
2C8
330
2C9
330
2CA
330
2CB
330
2CC
330
2CD
330
2CE
330
2CF
330
2D0
330
2D1
330
2D2
330
2D3
330
2D4
330
2D5
330
2D6
330
2D7
330
2D8
330
2D9
330
2DA
330
2DB
330
2DC
330
2DD
330
2DE
330
2DF
330
2E0
330
2E1
330
2E2
330
2E3
330
2E4
330
2E5
330
2E6
330
2E7
330
2E8
330
2E9
330
2EA
330
2EB
330
2EC
330
2ED
330
2EE
330
2EF
330
2F0
330
2F1
330
2F2
330
2F3
330
2F4
330
2F5
330
2F6
330
2F7
330
2F8
330
2F9
330
2FA
330
2FB
330
2FC
330
2FD
330
2FE
330
2FF
330
300
330
301
330
302
330
303
330
304
330
305
330
306
330
307
330
308
330
309
330
30A
330
30B
330
30C
330
30D
330
30E
330
30F
330
310
330
311
330
312
330
313
330
314
330
315
330
316
330
317
330
318
330
319
330
31A
330
31B
330
31C
330
31D
330
31E
330
31F
330
320
330
321
330
322
330
323
330
324
330
325
330
326
330
327
330
328
330
329
330
32A
330
32B
330
32C
330
32D
330
32E
330
32F
330
330
330
331
330
332
330
333
330
334
330
335
330
336
330
337
330
338
330
339
330
33A
330
33B
330
33C
330
33D
330
33E
330
33F
330
340
330
341
330
342
330
343
330
344
330
345
330
346
330
347
330
348
330
349
330
34A
330
34B
330
34C
330
34D
330
34E
330
34F
330
350
330
351
330
352
330
353
330
354
330
355
330
356
330
357
330
358
330
359
330
35A
330
35B
330
35C
330
35D
330
35E
330
35F
330
360
330
361
330
362
330
363
330
364
330
365
330
366
330
367
330
368
330
369
330
36A
330
36B
330
36C
330
36D
330
36E
330
36F
330
370
330
371
330
372
330
373
330
374
330
375
330
376
330
377
330
378
330
379
330
37A
330
37B
330
37C
330
37D
330
37E
330
37F
330
380
330
381
330
382
330
383
330
384
330
385
330
386
330
387
330
388
330
389
330
38A
330
38B
330
38C
330
38D
330
38E
330
38F
330
390
330
391
330
392
330
393
330
394
330
395
330
396
330
397
330
398
330
399
330
39A
330
39B
330
39C
330
39D
330
39E
330
39F
330
3A0
330
3A1
330
3A2
330
3A3
 92
1
 93
8
 72
2
 10
12.5401702375
 20
2.5530465533
 40
0.0024752071
 50
270.0004896793
 51
32.9089806818
 73
1
 72
1
 10
12.5422482598
 20
2.5543913483
 11
12.5349892558
 21
2.5656073545
 72
2
 10
12.532910715
 20
2.564262895
 40
0.0024754602
 50
32.8959418573
 51
89.9875097202
 73
1
 72
1
 10
12.5329112547
 20
2.5667383551
 11
12.5267302512
 21
2.5667383551
 72
2
 10
12.5267301809
 20
2.5642631548
 40
0.0024752003
 50
89.998372645
 51
147.602165307
 73
1
 72
1
 10
12.5246402501
 20
2.5655893545
 11
12.5175232461
 21
2.5543723483
 72
2
 10
12.519613138
 20
2.5530463862
 40
0.0024750401
 50
147.6063258012
 51
270.0025305754
 73
1
 72
1
 10
12.5196132473
 20
2.5505713461
 11
12.5401702587
 21
2.5505713461
 97
267
330
299
330
29A
330
29B
330
29C
330
29D
330
29E
330
29F
330
2A0
330
2A1
330
2A2
330
2A3
330
2A4
330
2A5
330
2A6
330
2A7
330
2A8
330
2A9
330
2AA
330
2AB
330
2AC
330
2AD
330
2AE
330
2AF
330
2B0
330
2B1
330
2B2
330
2B3
330
2B4
330
2B5
330
2B6
330
2B7
330
2B8
330
2B9
330
2BA
330
2BB
330
2BC
330
2BD
330
2BE
330
2BF
330
2C0
330
2C1
330
2C2
330
2C3
330
2C4
330
2C5
330
2C6
330
2C7
330
2C8
330
2C9
330
2CA
330
2CB
330
2CC
330
2CD
330
2CE
330
2CF
330
2D0
330
2D1
330
2D2
330
2D3
330
2D4
330
2D5
330
2D6
330
2D7
330
2D8
330
2D9
330
2DA
330
2DB
330
2DC
330
2DD
330
2DE
330
2DF
330
2E0
330
2E1
330
2E2
330
2E3
330
2E4
330
2E5
330
2E6
330
2E7
330
2E8
330
2E9
330
2EA
330
2EB
330
2EC
330
2ED
330
2EE
330
2EF
330
2F0
330
2F1
330
2F2
330
2F3
330
2F4
330
2F5
330
2F6
330
2F7
330
2F8
330
2F9
330
2FA
330
2FB
330
2FC
330
2FD
330
2FE
330
2FF
330
300
330
301
330
302
330
303
330
304
330
305
330
306
330
307
330
308
330
309
330
30A
330
30B
330
30C
330
30D
330
30E
330
30F
330
310
330
311
330
312
330
313
330
314
330
315
330
316
330
317
330
318
330
319
330
31A
330
31B
330
31C
330
31D
330
31E
330
31F
330
320
330
321
330
322
330
323
330
324
330
325
330
326
330
327
330
328
330
329
330
32A
330
32B
330
32C
330
32D
330
32E
330
32F
330
330
330
331
330
332
330
333
330
334
330
335
330
336
330
337
330
338
330
339
330
33A
330
33B
330
33C
330
33D
330
33E
330
33F
330
340
330
341
330
342
330
343
330
344
330
345
330
346
330
347
330
348
330
349
330
34A
330
34B
330
34C
330
34D
330
34E
330
34F
330
350
330
351
330
352
330
353
330
354
330
355
330
356
330
357
330
358
330
359
330
35A
330
35B
330
35C
330
35D
330
35E
330
35F
330
360
330
361
330
362
330
363
330
364
330
365
330
366
330
367
330
368
330
369
330
36A
330
36B
330
36C
330
36D
330
36E
330
36F
330
370
330
371
330
372
330
373
330
374
330
375
330
376
330
377
330
378
330
379
330
37A
330
37B
330
37C
330
37D
330
37E
330
37F
330
380
330
381
330
382
330
383
330
384
330
385
330
386
330
387
330
388
330
389
330
38A
330
38B
330
38C
330
38D
330
38E
330
38F
330
390
330
391
330
392
330
393
330
394
330
395
330
396
330
397
330
398
330
399
330
39A
330
39B
330
39C
330
39D
330
39E
330
39F
330
3A0
330
3A1
330
3A2
330
3A3
 92
1
 93
1
 72
3
 10
12.9046654608
 20
2.5403783405
 11
-0.8250004575
 21
0.0
 40
0.218572
 50
0.0
 51
360.0
 73
1
 97
267
330
299
330
29A
330
29B
330
29C
330
29D
330
29E
330
29F
330
2A0
330
2A1
330
2A2
330
2A3
330
2A4
330
2A5
330
2A6
330
2A7
330
2A8
330
2A9
330
2AA
330
2AB
330
2AC
330
2AD
330
2AE
330
2AF
330
2B0
330
2B1
330
2B2
330
2B3
330
2B4
330
2B5
330
2B6
330
2B7
330
2B8
330
2B9
330
2BA
330
2BB
330
2BC
330
2BD
330
2BE
330
2BF
330
2C0
330
2C1
330
2C2
330
2C3
330
2C4
330
2C5
330
2C6
330
2C7
330
2C8
330
2C9
330
2CA
330
2CB
330
2CC
330
2CD
330
2CE
330
2CF
330
2D0
330
2D1
330
2D2
330
2D3
330
2D4
330
2D5
330
2D6
330
2D7
330
2D8
330
2D9
330
2DA
330
2DB
330
2DC
330
2DD
330
2DE
330
2DF
330
2E0
330
2E1
330
2E2
330
2E3
330
2E4
330
2E5
330
2E6
330
2E7
330
2E8
330
2E9
330
2EA
330
2EB
330
2EC
330
2ED
330
2EE
330
2EF
330
2F0
330
2F1
330
2F2
330
2F3
330
2F4
330
2F5
330
2F6
330
2F7
330
2F8
330
2F9
330
2FA
330
2FB
330
2FC
330
2FD
330
2FE
330
2FF
330
300
330
301
330
302
330
303
330
304
330
305
330
306
330
307
330
308
330
309
330
30A
330
30B
330
30C
330
30D
330
30E
330
30F
330
310
330
311
330
312
330
313
330
314
330
315
330
316
330
317
330
318
330
319
330
31A
330
31B
330
31C
330
31D
330
31E
330
31F
330
320
330
321
330
322
330
323
330
324
330
325
330
326
330
327
330
328
330
329
330
32A
330
32B
330
32C
330
32D
330
32E
330
32F
330
330
330
331
330
332
330
333
330
334
330
335
330
336
330
337
330
338
330
339
330
33A
330
33B
330
33C
330
33D
330
33E
330
33F
330
340
330
341
330
342
330
343
330
344
330
345
330
346
330
347
330
348
330
349
330
34A
330
34B
330
34C
330
34D
330
34E
330
34F
330
350
330
351
330
352
330
353
330
354
330
355
330
356
330
357
330
358
330
359
330
35A
330
35B
330
35C
330
35D
330
35E
330
35F
330
360
330
361
330
362
330
363
330
364
330
365
330
366
330
367
330
368
330
369
330
36A
330
36B
330
36C
330
36D
330
36E
330
36F
330
370
330
371
330
372
330
373
330
374
330
375
330
376
330
377
330
378
330
379
330
37A
330
37B
330
37C
330
37D
330
37E
330
37F
330
380
330
381
330
382
330
383
330
384
330
385
330
386
330
387
330
388
330
389
330
38A
330
38B
330
38C
330
38D
330
38E
330
38F
330
390
330
391
330
392
330
393
330
394
330
395
330
396
330
397
330
398
330
399
330
39A
330
39B
330
39C
330
39D
330
39E
330
39F
330
3A0
330
3A1
330
3A2
330
3A3
 75
0
 76
1
 98
1
 10
0.0
 20
0.0
  0
LINE
  5
3A5
100
AcDbEntity
  8
0
100
AcDbLine
 62
7
  6
CONTINUOUS
 10
8.5
 20
10.112
 11
8.586603
 21
10.262
  0
LINE
  5
3A6
100
AcDbEntity
  8
0
100
AcDbLine
 62
7
  6
CONTINUOUS
 10
16.38
 20
2.807
 11
10.03
 21
2.807
  0
LINE
  5
3A7
100
AcDbEntity
  8
0
100
AcDbLine
 62
7
  6
CONTINUOUS
 10
0.62
 20
3.1995
 11
0.37
 21
3.1995
  0
LINE
  5
3A8
100
AcDbEntity
  8
0
100
AcDbLine
 62
7
  6
CONTINUOUS
 10
16.38
 20
3.1995
 11
16.63
 21
3.1995
  0
LINE
  5
3A9
100
AcDbEntity
  8
0
100
AcDbLine
 62
7
  6
CONTINUOUS
 10
8.586603
 20
0.737
 11
8.5
 21
0.887
  0
LINE
  5
3AA
100
AcDbEntity
  8
0
100
AcDbLine
 62
7
  6
CONTINUOUS
 10
6.53
 20
0.887
 11
6.53
 21
0.637
  0
LINE
  5
3AB
100
AcDbEntity
  8
0
100
AcDbLine
 62
7
  6
CONTINUOUS
 10
6.53
 20
10.112
 11
6.53
 21
10.362
  0
LINE
  5
3AC
100
AcDbEntity
  8
0
100
AcDbLine
 62
7
  6
CONTINUOUS
 10
8.5
 20
0.887
 11
8.5
 21
0.637
  0
LINE
  5
3AD
100
AcDbEntity
  8
0
100
AcDbLine
 62
7
  6
CONTINUOUS
 10
8.5
 20
10.112
 11
8.5
 21
10.362
  0
LINE
  5
3AE
100
AcDbEntity
  8
0
100
AcDbLine
 62
7
  6
CONTINUOUS
 10
0.62
 20
5.4995
 11
0.37
 21
5.4995
  0
LINE
  5
3AF
100
AcDbEntity
  8
0
100
AcDbLine
 62
7
  6
CONTINUOUS
 10
16.38
 20
5.4995
 11
16.63
 21
5.4995
  0
LINE
  5
3B0
100
AcDbEntity
  8
0
100
AcDbLine
 62
7
  6
CONTINUOUS
 10
10.03
 20
2.807
 11
10.03
 21
0.887
  0
LINE
  5
3B1
100
AcDbEntity
  8
0
100
AcDbLine
 62
7
  6
CONTINUOUS
 10
10.47
 20
0.887
 11
10.47
 21
0.637
  0
LINE
  5
3B2
100
AcDbEntity
  8
0
100
AcDbLine
 62
7
  6
CONTINUOUS
 10
10.47
 20
10.112
 11
10.47
 21
10.362
  0
LINE
  5
3B3
100
AcDbEntity
  8
0
100
AcDbLine
 62
7
  6
CONTINUOUS
 10
10.5342808475
 20
1.143294839
 11
10.5342808475
 21
0.921203839
  0
LINE
  5
3B4
100
AcDbEntity
  8
0
100
AcDbLine
 62
7
  6
CONTINUOUS
 10
10.5342808475
 20
1.193294839
 11
10.5342808475
 21
1.293294839
  0
LINE
  5
3B5
100
AcDbEntity
  8
0
100
AcDbLine
 62
7
  6
CONTINUOUS
 10
10.5342808475
 20
1.343294839
 11
10.5342808475
 21
1.565385839
  0
LINE
  5
3B6
100
AcDbEntity
  8
0
100
AcDbLine
 62
7
  6
CONTINUOUS
 10
8.5
 20
0.887
 11
8.413397
 21
0.737
  0
LINE
  5
3B7
100
AcDbEntity
  8
0
100
AcDbLine
 62
7
  6
CONTINUOUS
 10
0.62
 20
7.7995
 11
0.37
 21
7.7995
  0
LINE
  5
3B8
100
AcDbEntity
  8
0
100
AcDbLine
 62
7
  6
CONTINUOUS
 10
16.38
 20
7.7995
 11
16.63
 21
7.7995
  0
LINE
  5
3B9
100
AcDbEntity
  8
0
100
AcDbLine
 62
7
  6
CONTINUOUS
 10
8.413397
 20
10.262
 11
8.5
 21
10.112
  0
LINE
  5
3BA
100
AcDbEntity
  8
0
100
AcDbLine
 62
7
  6
CONTINUOUS
 10
11.1389508475
 20
1.060596839
 11
11.1389508475
 21
1.425992839
  0
LINE
  5
3BB
100
AcDbEntity
  8
0
100
AcDbLine
 62
7
  6
CONTINUOUS
 10
11.7453418475
 20
1.495385839
 11
11.7453418475
 21
0.991203839
  0
LINE
  5
3BC
100
AcDbEntity
  8
0
100
AcDbLine
 62
7
  6
CONTINUOUS
 10
12.44
 20
0.887
 11
12.44
 21
0.637
  0
LINE
  5
3BD
100
AcDbEntity
  8
0
100
AcDbLine
 62
7
  6
CONTINUOUS
 10
12.44
 20
10.112
 11
12.44
 21
10.362
  0
LINE
  5
3BE
100
AcDbEntity
  8
0
100
AcDbLine
 62
7
  6
CONTINUOUS
 10
16.53
 20
5.586103
 11
16.38
 21
5.4995
  0
LINE
  5
3BF
100
AcDbEntity
  8
0
100
AcDbLine
 62
7
  6
CONTINUOUS
 10
16.38
 20
5.4995
 11
16.53
 21
5.412897
  0
LINE
  5
3C0
100
AcDbEntity
  8
0
100
AcDbLine
 62
7
  6
CONTINUOUS
 10
12.83
 20
1.507
 11
12.83
 21
1.137
  0
LINE
  5
3C1
100
AcDbEntity
  8
0
100
AcDbLine
 62
7
  6
CONTINUOUS
 10
16.38
 20
10.112
 11
0.62
 21
10.112
  0
LINE
  5
3C2
100
AcDbEntity
  8
0
100
AcDbLine
 62
7
  6
CONTINUOUS
 10
8.586603
 20
10.262
 11
8.413397
 21
10.262
  0
LINE
  5
3C3
100
AcDbEntity
  8
0
100
AcDbLine
 62
7
  6
CONTINUOUS
 10
14.205
 20
1.137
 11
14.205
 21
0.887
  0
LINE
  5
3C4
100
AcDbEntity
  8
0
100
AcDbLine
 62
7
  6
CONTINUOUS
 10
14.41
 20
0.887
 11
14.41
 21
0.637
  0
LINE
  5
3C5
100
AcDbEntity
  8
0
100
AcDbLine
 62
7
  6
CONTINUOUS
 10
14.41
 20
10.112
 11
14.41
 21
10.362
  0
LINE
  5
3C6
100
AcDbEntity
  8
0
100
AcDbLine
 62
7
  6
CONTINUOUS
 10
15.58
 20
1.507
 11
15.58
 21
1.137
  0
LINE
  5
3C7
100
AcDbEntity
  8
0
100
AcDbLine
 62
7
  6
CONTINUOUS
 10
16.38
 20
0.887
 11
16.38
 21
10.112
  0
LINE
  5
3C8
100
AcDbEntity
  8
0
100
AcDbLine
 62
7
  6
CONTINUOUS
 10
16.53
 20
5.412897
 11
16.53
 21
5.586103
  0
LINE
  5
3C9
100
AcDbEntity
  8
02___PRT_ALL_AXES
100
AcDbLine
 62
7
  6
CONTINUOUS
 10
7.9102910903
 20
5.3345330709
 11
7.9102910903
 21
4.419602459
  0
LINE
  5
3CA
100
AcDbEntity
  8
02___PRT_ALL_AXES
100
AcDbLine
 62
7
  6
CONTINUOUS
 10
7.949997067
 20
5.4010945869
 11
7.949997067
 21
4.353040943
  0
LINE
  5
3CB
100
AcDbEntity
  8
02___PRT_ALL_AXES
100
AcDbLine
 62
7
  6
CONTINUOUS
 10
7.9693201717
 20
4.342067765
 11
7.9693201717
 21
5.412067765
  0
LINE
  5
3CC
100
AcDbEntity
  8
02___PRT_ALL_AXES
100
AcDbLine
 62
7
  6
CONTINUOUS
 10
8.0213778853
 20
5.412067765
 11
8.0213778853
 21
4.342067765
  0
LINE
  5
3CD
100
AcDbEntity
  8
02___PRT_ALL_AXES
100
AcDbLine
 62
7
  6
CONTINUOUS
 10
8.0993201717
 20
5.457067765
 11
8.0993201717
 21
4.297067765
  0
LINE
  5
3CE
100
AcDbEntity
  8
02___PRT_ALL_AXES
100
AcDbLine
 62
7
  6
CONTINUOUS
 10
7.949997067
 20
5.4010945869
 11
7.9102910903
 21
5.3345330709
  0
LINE
  5
3CF
100
AcDbEntity
  8
02___PRT_ALL_AXES
100
AcDbLine
 62
7
  6
CONTINUOUS
 10
7.949997067
 20
4.353040943
 11
7.9102910903
 21
4.419602459
  0
LINE
  5
3D0
100
AcDbEntity
  8
02___PRT_ALL_AXES
100
AcDbLine
 62
7
  6
CONTINUOUS
 10
8.0993201717
 20
5.457067765
 11
8.0213778853
 21
5.412067765
  0
LINE
  5
3D1
100
AcDbEntity
  8
02___PRT_ALL_AXES
100
AcDbLine
 62
7
  6
CONTINUOUS
 10
8.0993201717
 20
4.297067765
 11
8.0213778853
 21
4.342067765
  0
LINE
  5
3D2
100
AcDbEntity
  8
02___PRT_ALL_AXES
100
AcDbLine
 62
7
  6
CONTINUOUS
 10
10.1443201717
 20
4.297067765
 11
10.1443201717
 21
5.457067765
  0
LINE
  5
3D3
100
AcDbEntity
  8
02___PRT_ALL_AXES
100
AcDbLine
 62
7
  6
CONTINUOUS
 10
10.2191472012
 20
4.3383099236
 11
10.2191472012
 21
5.4158256063
  0
LINE
  5
3D4
100
AcDbEntity
  8
02___PRT_ALL_AXES
100
AcDbLine
 62
7
  6
CONTINUOUS
 10
10.2243201717
 20
4.347067765
 11
10.2243201717
 21
5.407067765
  0
LINE
  5
3D5
100
AcDbEntity
  8
02___PRT_ALL_AXES
100
AcDbLine
 62
7
  6
CONTINUOUS
 10
11.225336852
 20
4.3732900171
 11
11.5012020762
 21
4.4472078811
  0
LINE
  5
3D6
100
AcDbEntity
  8
02___PRT_ALL_AXES
100
AcDbLine
 62
7
  6
CONTINUOUS
 10
10.1443201717
 20
4.297067765
 11
8.0993201717
 21
4.297067765
  0
LINE
  5
3D7
100
AcDbEntity
  8
02___PRT_ALL_AXES
100
AcDbLine
 62
7
  6
CONTINUOUS
 10
8.0213778853
 20
4.342067765
 11
7.9693201717
 21
4.342067765
  0
LINE
  5
3D8
100
AcDbEntity
  8
02___PRT_ALL_AXES
100
AcDbLine
 62
7
  6
CONTINUOUS
 10
11.1476911384
 20
4.363067765
 11
10.2243201717
 21
4.363067765
  0
LINE
  5
3D9
100
AcDbEntity
  8
02___PRT_ALL_AXES
100
AcDbLine
 62
7
  6
CONTINUOUS
 10
11.5753201717
 20
4.7904535917
 11
14.3753201717
 21
4.7904535917
  0
LINE
  5
3DA
100
AcDbEntity
  8
02___PRT_ALL_AXES
100
AcDbLine
 62
7
  6
CENTER
 10
7.603134212
 20
4.877067765
 11
14.5782886366
 21
4.877067765
  0
LINE
  5
3DB
100
AcDbEntity
  8
0
100
AcDbLine
 62
7
  6
CONTINUOUS
 10
11.1476911384
 20
4.363067765
 11
11.1476911384
 21
5.391067765
  0
LINE
  5
3DC
100
AcDbEntity
  8
0
100
AcDbLine
 62
7
  6
CONTINUOUS
 10
11.225336852
 20
4.3732900171
 11
11.225336852
 21
5.3808455128
  0
LINE
  5
3DD
100
AcDbEntity
  8
02___PRT_ALL_AXES
100
AcDbLine
 62
7
  6
CONTINUOUS
 10
10.2191472012
 20
4.3383099236
 11
10.1443201717
 21
4.297067765
  0
LINE
  5
3DE
100
AcDbEntity
  8
02___PRT_ALL_AXES
100
AcDbLine
 62
7
  6
CONTINUOUS
 10
11.5753201717
 20
4.9636819382
 11
14.3753201717
 21
4.9636819382
  0
LINE
  5
3DF
100
AcDbEntity
  8
02___PRT_ALL_AXES
100
AcDbLine
 62
7
  6
CONTINUOUS
 10
10.2191472012
 20
5.4158256063
 11
10.1443201717
 21
5.457067765
  0
LINE
  5
3E0
100
AcDbEntity
  8
0
100
AcDbLine
 62
7
  6
CONTINUOUS
 10
11.5012020762
 20
4.4472078811
 11
11.5012020762
 21
5.3069276488
  0
LINE
  5
3E1
100
AcDbEntity
  8
0
100
AcDbLine
 62
7
  6
CONTINUOUS
 10
11.5753201717
 20
5.2103350662
 11
11.5753201717
 21
4.5438004638
  0
LINE
  5
3E2
100
AcDbEntity
  8
02___PRT_ALL_AXES
100
AcDbLine
 62
7
  6
CONTINUOUS
 10
11.1476911384
 20
5.391067765
 11
10.2243201717
 21
5.391067765
  0
LINE
  5
3E3
100
AcDbEntity
  8
02___PRT_ALL_AXES
100
AcDbLine
 62
7
  6
CONTINUOUS
 10
8.0213778853
 20
5.412067765
 11
7.9693201717
 21
5.412067765
  0
LINE
  5
3E4
100
AcDbEntity
  8
02___PRT_ALL_AXES
100
AcDbLine
 62
7
  6
CONTINUOUS
 10
10.1443201717
 20
5.457067765
 11
8.0993201717
 21
5.457067765
  0
LINE
  5
3E5
100
AcDbEntity
  8
0
100
AcDbLine
 62
7
  6
CONTINUOUS
 10
11.5012020762
 20
5.3069276488
 11
11.225336852
 21
5.3808455128
  0
LINE
  5
3E6
100
AcDbEntity
  8
02___PRT_ALL_AXES
100
AcDbLine
 62
7
  6
CONTINUOUS
 10
11.225336852
 20
5.3808455128
 11
11.5012020762
 21
5.3069276488
  0
LINE
  5
3E7
100
AcDbEntity
  8
02___PRT_ALL_AXES
100
AcDbLine
 62
7
  6
CONTINUOUS
 10
14.3753201717
 20
4.9636819382
 11
14.3753201717
 21
4.7904535917
  0
LINE
  5
3E8
100
AcDbEntity
  8
02___PRT_ALL_AXES
100
AcDbLine
 62
7
  6
CONTINUOUS
 10
7.9785886443
 20
8.5866105395
 11
6.5325552767
 21
7.8635938557
  0
LINE
  5
3E9
100
AcDbEntity
  8
02___PRT_ALL_AXES
100
AcDbLine
 62
7
  6
CONTINUOUS
 10
6.4975663693
 20
7.7957878725
 11
6.460756007
 21
7.7773826914
  0
LINE
  5
3EA
100
AcDbEntity
  8
02___PRT_ALL_AXES
100
AcDbLine
 62
7
  6
CONTINUOUS
 10
8.1558955719
 20
8.6014737601
 11
8.7175951564
 21
8.8823235523
  0
LINE
  5
3EB
100
AcDbEntity
  8
02___PRT_ALL_AXES
100
AcDbLine
 62
7
  6
CONTINUOUS
 10
9.4067927166
 20
8.7490904518
 11
11.191006285
 21
9.641197236
  0
LINE
  5
3EC
100
AcDbEntity
  8
02___PRT_ALL_AXES
100
AcDbLine
 62
7
  6
CONTINUOUS
 10
9.4845181841
 20
8.5942780064
 11
11.2684763567
 21
9.4862570927
  0
LINE
  5
3ED
100
AcDbEntity
  8
02___PRT_ALL_AXES
100
AcDbLine
 62
7
  6
CONTINUOUS
 10
8.6347486369
 20
7.7215424053
 11
8.6347444521
 21
7.7215337496
  0
LINE
  5
3EE
100
AcDbEntity
  8
02___PRT_ALL_AXES
100
AcDbLine
 62
7
  6
CONTINUOUS
 10
8.6347444521
 20
7.7215337496
 11
8.6081564856
 21
7.6665431171
  0
LINE
  5
3EF
100
AcDbEntity
  8
02___PRT_ALL_AXES
100
AcDbLine
 62
7
  6
CONTINUOUS
 10
8.6156311481
 20
7.6820026077
 11
9.1773307325
 21
7.9628523999
  0
LINE
  5
3F0
100
AcDbEntity
  8
02___PRT_ALL_AXES
100
AcDbLine
 62
7
  6
CONTINUOUS
 10
8.1989924847
 20
8.5930449325
 11
8.1989884679
 21
8.5930457181
  0
LINE
  5
3F1
100
AcDbEntity
  8
02___PRT_ALL_AXES
100
AcDbLine
 62
7
  6
CONTINUOUS
 10
8.1989884679
 20
8.5930457181
 11
8.1390431819
 21
8.6047697245
  0
LINE
  5
3F2
100
AcDbEntity
  8
02___PRT_ALL_AXES
100
AcDbLine
 62
7
  6
CONTINUOUS
 10
9.2800269984
 20
8.0378945602
 11
9.4343528781
 21
8.1959005467
  0
LINE
  5
3F3
100
AcDbEntity
  8
0
100
AcDbLine
 62
7
  6
CONTINUOUS
 10
9.2800269984
 20
8.0378945602
 11
9.2800297982
 21
8.0378974269
  0
LINE
  5
3F4
100
AcDbEntity
  8
02___PRT_ALL_AXES
100
AcDbLine
 62
7
  6
CONTINUOUS
 10
6.9760849165
 20
6.8387507782
 11
6.9392745542
 21
6.820345597
  0
LINE
  5
3F5
100
AcDbEntity
  8
02___PRT_ALL_AXES
100
AcDbLine
 62
7
  6
CONTINUOUS
 10
8.497356415
 20
7.549074998
 11
7.0513230475
 21
6.8260583142
  0
LINE
  5
3F6
100
AcDbEntity
  8
02___PRT_ALL_AXES
100
AcDbLine
 62
7
  6
CONTINUOUS
 10
8.839246644
 20
8.9194552688
 11
9.0582469608
 21
8.9481123807
  0
LINE
  5
3F7
100
AcDbEntity
  8
02___PRT_ALL_AXES
100
AcDbLine
 62
7
  6
CENTER
 10
3.8529913141
 20
4.877067765
 11
3.8529913141
 21
4.1575177917
  0
LINE
  5
3F8
100
AcDbEntity
  8
02___PRT_ALL_AXES
100
AcDbLine
 62
7
  6
CENTER
 10
3.8529913141
 20
4.877067765
 11
3.8529913141
 21
5.5966177382
  0
LINE
  5
3F9
100
AcDbEntity
  8
02___PRT_ALL_AXES
100
AcDbLine
 62
7
  6
CENTER
 10
3.8529913141
 20
4.877067765
 11
3.1334413409
 21
4.877067765
  0
LINE
  5
3FA
100
AcDbEntity
  8
02___PRT_ALL_AXES
100
AcDbLine
 62
7
  6
CENTER
 10
3.8529913141
 20
4.877067765
 11
4.5725412874
 21
4.877067765
  0
CIRCLE
  5
3FB
100
AcDbEntity
  8
0
100
AcDbCircle
 62
7
  6
CONTINUOUS
 10
10.5342808475
 20
1.243294839
 40
0.252091
  0
CIRCLE
  5
3FC
100
AcDbEntity
  8
0
100
AcDbCircle
 62
7
  6
CONTINUOUS
 10
10.5342808475
 20
1.243294839
 40
0.182698
  0
CIRCLE
  5
3FD
100
AcDbEntity
  8
0
100
AcDbCircle
 62
7
  6
CONTINUOUS
 10
10.1225539079
 20
1.9935547577
 40
0.0638444824
  0
ARC
  5
3FE
100
AcDbEntity
  8
02___PRT_ALL_AXES
100
AcDbCircle
 62
7
  6
CONTINUOUS
 10
7.9693201717
 20
4.364567765
 40
0.0225
100
AcDbArc
 50
210.8173668141
 51
270.0
  0
ARC
  5
3FF
100
AcDbEntity
  8
0
100
AcDbCircle
 62
7
  6
CONTINUOUS
 10
8.6781548174
 20
4.877067765
 40
0.8688976378
100
AcDbArc
 50
152.2383493083
 51
207.7616506917
  0
ARC
  5
400
100
AcDbEntity
  8
02___PRT_ALL_AXES
100
AcDbCircle
 62
7
  6
CONTINUOUS
 10
7.9693201717
 20
5.389567765
 40
0.0225
100
AcDbArc
 50
90.0
 51
149.1826331859
  0
ARC
  5
401
100
AcDbEntity
  8
0
100
AcDbCircle
 62
7
  6
CONTINUOUS
 10
11.1476911384
 20
4.663067765
 40
0.3
100
AcDbArc
 50
270.0
 51
285.0
  0
ARC
  5
402
100
AcDbEntity
  8
0
100
AcDbCircle
 62
7
  6
CONTINUOUS
 10
11.4753201717
 20
4.5438004638
 40
0.1
100
AcDbArc
 50
285.0
 51
360.0
  0
ARC
  5
403
100
AcDbEntity
  8
02___PRT_ALL_AXES
100
AcDbCircle
 62
7
  6
CONTINUOUS
 10
10.2143201717
 20
4.347067765
 40
0.01
100
AcDbArc
 50
298.8620856259
 51
360.0
  0
ARC
  5
404
100
AcDbEntity
  8
0
100
AcDbCircle
 62
7
  6
CONTINUOUS
 10
11.1476911384
 20
5.091067765
 40
0.3
100
AcDbArc
 50
75.0
 51
90.0
  0
ARC
  5
405
100
AcDbEntity
  8
0
100
AcDbCircle
 62
7
  6
CONTINUOUS
 10
11.4753201717
 20
5.2103350662
 40
0.1
100
AcDbArc
 50
0.0
 51
75.0
  0
ARC
  5
406
100
AcDbEntity
  8
02___PRT_ALL_AXES
100
AcDbCircle
 62
7
  6
CONTINUOUS
 10
10.2143201717
 20
5.407067765
 40
0.01
100
AcDbArc
 50
0.0
 51
61.1379143741
  0
CIRCLE
  5
407
100
AcDbEntity
  8
02___PRT_ALL_AXES
100
AcDbCircle
 62
7
  6
CONTINUOUS
 10
3.8529913141
 20
4.877067765
 40
0.58
  0
CIRCLE
  5
408
100
AcDbEntity
  8
02___PRT_ALL_AXES
100
AcDbCircle
 62
7
  6
CONTINUOUS
 10
3.8529913141
 20
4.877067765
 40
0.535
  0
CIRCLE
  5
409
100
AcDbEntity
  8
02___PRT_ALL_AXES
100
AcDbCircle
 62
7
  6
CONTINUOUS
 10
3.8529913141
 20
4.877067765
 40
0.524026822
  0
CIRCLE
  5
40A
100
AcDbEntity
  8
02___PRT_ALL_AXES
100
AcDbCircle
 62
7
  6
CONTINUOUS
 10
3.8529913141
 20
4.877067765
 40
0.457465306
  0
CIRCLE
  5
40B
100
AcDbEntity
  8
02___PRT_ALL_AXES
100
AcDbCircle
 62
7
  6
CONTINUOUS
 10
3.8529913141
 20
4.877067765
 40
0.4485
  0
ARC
  5
40C
100
AcDbEntity
  8
02___PRT_ALL_AXES
100
AcDbCircle
 62
7
  6
CONTINUOUS
 10
8.1003617093
 20
7.903818032
 40
0.5714808434
100
AcDbArc
 50
0.000042632
 51
0.1347007802
  0
ARC
  5
40D
100
AcDbEntity
  8
02___PRT_ALL_AXES
100
AcDbCircle
 62
7
  6
CONTINUOUS
 10
8.1020342874
 20
7.9052078003
 40
0.570202311
100
AcDbArc
 50
359.8561520299
 51
0.0000410781
  0
ARC
  5
40E
100
AcDbEntity
  8
02___PRT_ALL_AXES
100
AcDbCircle
 62
7
  6
CONTINUOUS
 10
6.8820080941
 20
7.4800611053
 40
0.5668850389
100
AcDbArc
 50
180.0000857528
 51
180.2760871719
  0
ARC
  5
40F
100
AcDbEntity
  8
02___PRT_ALL_AXES
100
AcDbCircle
 62
7
  6
CONTINUOUS
 10
6.8689367132
 20
7.477304658
 40
0.5531278503
100
AcDbArc
 50
179.7122470675
 51
180.0000832137
  0
ARC
  5
410
100
AcDbEntity
  8
02___PRT_ALL_AXES
100
AcDbCircle
 62
7
  6
CONTINUOUS
 10
6.7275778006
 20
7.0830194022
 40
0.2527808839
100
AcDbArc
 50
334.2304057518
 51
335.3092815954
  0
ARC
  5
411
100
AcDbEntity
  8
02___PRT_ALL_AXES
100
AcDbCircle
 62
7
  6
CONTINUOUS
 10
6.5439401571
 20
7.450711482
 40
0.2524836319
100
AcDbArc
 50
77.9389541061
 51
78.9208949465
  0
ARC
  5
412
100
AcDbEntity
  8
02___PRT_ALL_AXES
100
AcDbCircle
 62
7
  6
CONTINUOUS
 10
6.7306257936
 20
7.0815517579
 40
0.2493979519
100
AcDbArc
 50
333.9216624281
 51
334.2296158477
  0
SPLINE
  5
413
100
AcDbEntity
  8
DEFAULT_2
100
AcDbSpline
 62
7
  6
HIDDEN
 70
0
 71
3
 72
28
 73
24
 74
0
 42
0.0000001
 43
0.0000001
 44
0.0000000001
 40
0.0
 40
0.0
 40
0.0
 40
0.0
 40
0.0476190476
 40
0.0952380952
 40
0.1428571429
 40
0.1904761905
 40
0.2380952381
 40
0.2857142857
 40
0.3333333333
 40
0.380952381
 40
0.4285714286
 40
0.4761904762
 40
0.5238095238
 40
0.5714285714
 40
0.619047619
 40
0.6666666667
 40
0.7142857143
 40
0.7619047619
 40
0.8095238095
 40
0.8571428571
 40
0.9047619048
 40
0.9523809524
 40
1.0
 40
1.0
 40
1.0
 40
1.0
 10
11.4835572182
 20
4.877067765
 30
0.0
 10
11.4835557054
 20
4.8708380414
 30
0.0
 10
11.48259056
 20
4.8583779794
 30
0.0
 10
11.47825578
 20
4.8400651744
 30
0.0
 10
11.4711914887
 20
4.8226562237
 30
0.0
 10
11.4616609504
 20
4.8065819599
 30
0.0
 10
11.4500205519
 20
4.792206356
 30
0.0
 10
11.4365619708
 20
4.779725498
 30
0.0
 10
11.4216978633
 20
4.7693825371
 30
0.0
 10
11.4055351267
 20
4.7612191493
 30
0.0
 10
11.3885354081
 20
4.7554736002
 30
0.0
 10
11.3706871242
 20
4.7522403409
 30
0.0
 10
11.352752877
 20
4.7517429681
 30
0.0
 10
11.3347522758
 20
4.754075095
 30
0.0
 10
11.3175003681
 20
4.7592233095
 30
0.0
 10
11.3011534286
 20
4.7671648211
 30
0.0
 10
11.2862606477
 20
4.7776824324
 30
0.0
 10
11.273051965
 20
4.7906130329
 30
0.0
 10
11.2619352943
 20
4.8055503497
 30
0.0
 10
11.2531252217
 20
4.822083917
 30
0.0
 10
11.2467633984
 20
4.8397893594
 30
0.0
 10
11.2429247512
 20
4.8582763186
 30
0.0
 10
11.2420749189
 20
4.8708148352
 30
0.0
 10
11.2420757616
 20
4.877067765
 30
0.0
  0
SPLINE
  5
414
100
AcDbEntity
  8
DEFAULT_2
100
AcDbSpline
 62
7
  6
HIDDEN
 70
0
 71
3
 72
28
 73
24
 74
0
 42
0.0000001
 43
0.0000001
 44
0.0000000001
 40
0.0
 40
0.0
 40
0.0
 40
0.0
 40
0.0476190476
 40
0.0952380952
 40
0.1428571429
 40
0.1904761905
 40
0.2380952381
 40
0.2857142857
 40
0.3333333333
 40
0.380952381
 40
0.4285714286
 40
0.4761904762
 40
0.5238095238
 40
0.5714285714
 40
0.619047619
 40
0.6666666667
 40
0.7142857143
 40
0.7619047619
 40
0.8095238095
 40
0.8571428571
 40
0.9047619048
 40
0.9523809524
 40
1.0
 40
1.0
 40
1.0
 40
1.0
 10
11.2420757616
 20
4.877067765
 30
0.0
 10
11.2420749975
 20
4.8833195636
 30
0.0
 10
11.2429222018
 20
4.8958595234
 30
0.0
 10
11.2467804524
 20
4.9144069473
 30
0.0
 10
11.253136084
 20
4.9320795009
 30
0.0
 10
11.2619875678
 20
4.9486672606
 30
0.0
 10
11.2730720955
 20
4.9635451908
 30
0.0
 10
11.2863330132
 20
4.9765152265
 30
0.0
 10
11.3012006878
 20
4.98699694
 30
0.0
 10
11.3175653525
 20
4.9949380103
 30
0.0
 10
11.3347960982
 20
5.0000675435
 30
0.0
 10
11.3527721606
 20
5.0023934851
 30
0.0
 10
11.3707148617
 20
5.0018918829
 30
0.0
 10
11.3885300636
 20
4.9986612656
 30
0.0
 10
11.4055088433
 20
4.9929274872
 30
0.0
 10
11.4216734296
 20
4.9847657432
 30
0.0
 10
11.4365122115
 20
4.9744516098
 30
0.0
 10
11.4500148439
 20
4.9619346436
 30
0.0
 10
11.461624928
 20
4.9476063359
 30
0.0
 10
11.4711965863
 20
4.9314707797
 30
0.0
 10
11.4782409472
 20
4.9141131604
 30
0.0
 10
11.4825928748
 20
4.8957574751
 30
0.0
 10
11.4835557501
 20
4.8832975519
 30
0.0
 10
11.4835572182
 20
4.877067765
 30
0.0
  0
SPLINE
  5
415
100
AcDbEntity
  8
02___PRT_ALL_AXES
100
AcDbSpline
 62
7
  6
CONTINUOUS
 70
0
 71
3
 72
23
 73
19
 74
0
 42
0.0000001
 43
0.0000001
 44
0.0000000001
 40
0.0
 40
0.0
 40
0.0
 40
0.0
 40
0.0644134689
 40
0.12874035
 40
0.1928187485
 40
0.2565790046
 40
0.3199581943
 40
0.3829136271
 40
0.4454417445
 40
0.5075699508
 40
0.5693529452
 40
0.6308696613
 40
0.6922162626
 40
0.7534989975
 40
0.8148255828
 40
0.8762984755
 40
0.9380019831
 40
1.0
 40
1.0
 40
1.0
 40
1.0
 10
11.2710535364
 20
4.877067765
 30
0.0
 10
11.2710535364
 20
4.8801814987
 30
0.0
 10
11.2713351111
 20
4.8864084119
 30
0.0
 10
11.2725954167
 20
4.8956558891
 30
0.0
 10
11.2746845009
 20
4.9047206468
 30
0.0
 10
11.27758205
 20
4.9135119809
 30
0.0
 10
11.2812613965
 20
4.9219470554
 30
0.0
 10
11.2856916653
 20
4.9299454707
 30
0.0
 10
11.2908345168
 20
4.9374326149
 30
0.0
 10
11.2966468786
 20
4.9443394271
 30
0.0
 10
11.303081577
 20
4.9506011506
 30
0.0
 10
11.3100849645
 20
4.9561595956
 30
0.0
 10
11.3175990484
 20
4.9609613069
 30
0.0
 10
11.325560095
 20
4.9649587662
 30
0.0
 10
11.3338980967
 20
4.9681124479
 30
0.0
 10
11.3425384616
 20
4.9703884305
 30
0.0
 10
11.3513989677
 20
4.9717630269
 30
0.0
 10
11.3573833081
 20
4.9720677315
 30
0.0
 10
11.3603802794
 20
4.9720677483
 30
0.0
  0
SPLINE
  5
416
100
AcDbEntity
  8
02___PRT_ALL_AXES
100
AcDbSpline
 62
7
  6
CONTINUOUS
 70
0
 71
3
 72
24
 73
20
 74
0
 42
0.0000001
 43
0.0000001
 44
0.0000000001
 40
0.0
 40
0.0
 40
0.0
 40
0.0
 40
0.0619964693
 40
0.1236984615
 40
0.1851700015
 40
0.246495405
 40
0.3077771296
 40
0.3691228619
 40
0.4306386935
 40
0.4924207694
 40
0.5545480361
 40
0.6170752152
 40
0.6800297122
 40
0.7434079903
 40
0.8071672709
 40
0.8391785076
 40
0.8712614838
 40
0.9355875415
 40
1.0
 40
1.0
 40
1.0
 40
1.0
 10
11.3603802892
 20
4.782067783
 30
0.0
 10
11.3573833423
 20
4.7820678015
 30
0.0
 10
11.3513990484
 20
4.7823724829
 30
0.0
 10
11.3425386066
 20
4.7837470817
 30
0.0
 10
11.3338982779
 20
4.7860230171
 30
0.0
 10
11.32556029
 20
4.7891766765
 30
0.0
 10
11.317599238
 20
4.7931741261
 30
0.0
 10
11.3100851189
 20
4.7979758123
 30
0.0
 10
11.303081712
 20
4.8035342678
 30
0.0
 10
11.2966469852
 20
4.8097959853
 30
0.0
 10
11.2908345984
 20
4.8167028057
 30
0.0
 10
11.2856917401
 20
4.8241899387
 30
0.0
 10
11.2812614167
 20
4.8321884395
 30
0.0
 10
11.2775821705
 20
4.8406232355
 30
0.0
 10
11.2751701747
 20
4.8479412212
 30
0.0
 10
11.2736435979
 20
4.8539321257
 30
0.0
 10
11.2723863523
 20
4.8600133847
 30
0.0
 10
11.2713350964
 20
4.8677273457
 30
0.0
 10
11.2710535364
 20
4.8739540277
 30
0.0
 10
11.2710535364
 20
4.877067765
 30
0.0
  0
SPLINE
  5
417
100
AcDbEntity
  8
02___PRT_ALL_AXES
100
AcDbSpline
 62
7
  6
CONTINUOUS
 70
0
 71
3
 72
23
 73
19
 74
0
 42
0.0000001
 43
0.0000001
 44
0.0000000001
 40
0.0
 40
0.0
 40
0.0
 40
0.0
 40
0.0630404033
 40
0.1261088293
 40
0.1891514013
 40
0.2521840852
 40
0.3152018708
 40
0.3781879398
 40
0.4411264367
 40
0.5039947584
 40
0.5667625354
 40
0.6293929081
 40
0.6918440122
 40
0.754071399
 40
0.8160310585
 40
0.8776865233
 40
0.9390120985
 40
1.0
 40
1.0
 40
1.0
 40
1.0
 10
11.4545794434
 20
4.877067765
 30
0.0
 10
11.4545794434
 20
4.8739530444
 30
0.0
 10
11.4542657089
 20
4.867717753
 30
0.0
 10
11.4528638196
 20
4.8584628391
 30
0.0
 10
11.4505455225
 20
4.8493934896
 30
0.0
 10
11.4473411031
 20
4.8406013163
 30
0.0
 10
11.4432901706
 20
4.8321689217
 30
0.0
 10
11.4384384395
 20
4.8241761431
 30
0.0
 10
11.4328407799
 20
4.816696348
 30
0.0
 10
11.4265574487
 20
4.8097973109
 30
0.0
 10
11.4196532586
 20
4.8035424275
 30
0.0
 10
11.4121988571
 20
4.7979891389
 30
0.0
 10
11.4042690853
 20
4.7931899941
 30
0.0
 10
11.3959429732
 20
4.7891926486
 30
0.0
 10
11.3873044948
 20
4.7860371073
 30
0.0
 10
11.3784402624
 20
4.7837569982
 30
0.0
 10
11.3694412497
 20
4.7823779649
 30
0.0
 10
11.363393599
 20
4.7820677643
 30
0.0
 10
11.3603802892
 20
4.782067783
 30
0.0
  0
SPLINE
  5
418
100
AcDbEntity
  8
02___PRT_ALL_AXES
100
AcDbSpline
 62
7
  6
CONTINUOUS
 70
0
 71
3
 72
18
 73
14
 74
0
 42
0.0000001
 43
0.0000001
 44
0.0000000001
 40
0.0
 40
0.0
 40
0.0
 40
0.0
 40
0.1266430448
 40
0.253069923
 40
0.3790802595
 40
0.5045216491
 40
0.6292956447
 40
0.6914719152
 40
0.7534769028
 40
0.8153178674
 40
0.8770074939
 40
0.9385613953
 40
1.0
 40
1.0
 40
1.0
 40
1.0
 10
11.4028156344
 20
4.877067765
 30
0.0
 10
11.4028156344
 20
4.8821922739
 30
0.0
 10
11.402012318
 20
4.8924506668
 30
0.0
 10
11.3984279082
 20
4.9074269616
 30
0.0
 10
11.3925562074
 20
4.9216155376
 30
0.0
 10
11.384551534
 20
4.9346388106
 30
0.0
 10
11.3762573708
 20
4.9442573559
 30
0.0
 10
11.368793356
 20
4.9510363188
 30
0.0
 10
11.3628211364
 20
4.9556324327
 30
0.0
 10
11.3565089047
 20
4.9597121731
 30
0.0
 10
11.3498983208
 20
4.9632504669
 30
0.0
 10
11.3430328461
 20
4.9662225595
 30
0.0
 10
11.3383108003
 20
4.9678158337
 30
0.0
 10
11.3359241055
 20
4.9685116791
 30
0.0
  0
SPLINE
  5
419
100
AcDbEntity
  8
02___PRT_ALL_AXES
100
AcDbSpline
 62
7
  6
CONTINUOUS
 70
0
 71
3
 72
18
 73
14
 74
0
 42
0.0000001
 43
0.0000001
 44
0.0000000001
 40
0.0
 40
0.0
 40
0.0
 40
0.0
 40
0.0614385556
 40
0.1229923855
 40
0.1846819269
 40
0.2465228037
 40
0.308527708
 40
0.3707039085
 40
0.4954778017
 40
0.6209191912
 40
0.74692964
 40
0.8733567067
 40
1.0
 40
1.0
 40
1.0
 40
1.0
 10
11.3359112816
 20
4.785620113
 30
0.0
 10
11.3382983405
 20
4.7863156772
 30
0.0
 10
11.3430211315
 20
4.7879084439
 30
0.0
 10
11.3498877554
 20
4.7908799328
 30
0.0
 10
11.3564994991
 20
4.794417787
 30
0.0
 10
11.3628128872
 20
4.7984972427
 30
0.0
 10
11.3687862396
 20
4.8030932286
 30
0.0
 10
11.376251717
 20
4.8098722151
 30
0.0
 10
11.3845475759
 20
4.8194911487
 30
0.0
 10
11.3925539494
 20
4.8325153641
 30
0.0
 10
11.3984269315
 20
4.8467052634
 30
0.0
 10
11.4020121383
 20
4.8616831426
 30
0.0
 10
11.4028156344
 20
4.8719426834
 30
0.0
 10
11.4028156344
 20
4.877067765
 30
0.0
  0
SPLINE
  5
41A
100
AcDbEntity
  8
02___PRT_ALL_AXES
100
AcDbSpline
 62
7
  6
CONTINUOUS
 70
0
 71
3
 72
23
 73
19
 74
0
 42
0.0000001
 43
0.0000001
 44
0.0000000001
 40
0.0
 40
0.0
 40
0.0
 40
0.0
 40
0.0609882906
 40
0.1223142119
 40
0.1839700255
 40
0.2459300491
 40
0.3081577771
 40
0.3706090782
 40
0.4332394691
 40
0.4960070811
 40
0.5588751286
 40
0.6218133536
 40
0.6847992067
 40
0.7478167887
 40
0.8108493246
 40
0.8738916882
 40
0.9369597793
 40
1.0
 40
1.0
 40
1.0
 40
1.0
 10
11.3603802794
 20
4.9720677483
 30
0.0
 10
11.3633936087
 20
4.9720677652
 30
0.0
 10
11.3694412958
 20
4.9717575585
 30
0.0
 10
11.3784403617
 20
4.9703785136
 30
0.0
 10
11.3873046421
 20
4.9680983766
 30
0.0
 10
11.3959431638
 20
4.9649428006
 30
0.0
 10
11.4042693094
 20
4.9609454193
 30
0.0
 10
11.4121990869
 20
4.9561462298
 30
0.0
 10
11.4196534811
 20
4.9505929264
 30
0.0
 10
11.4265576326
 20
4.94433803
 30
0.0
 10
11.4328409249
 20
4.9374390051
 30
0.0
 10
11.4384385484
 20
4.929959229
 30
0.0
 10
11.4432902422
 20
4.9219664673
 30
0.0
 10
11.4473411555
 20
4.9135340942
 30
0.0
 10
11.4505455525
 20
4.9047419413
 30
0.0
 10
11.452863829
 20
4.8956726217
 30
0.0
 10
11.4542657174
 20
4.8864177434
 30
0.0
 10
11.4545794434
 20
4.8801824767
 30
0.0
 10
11.4545794434
 20
4.877067765
 30
0.0
  0
SPLINE
  5
41B
100
AcDbEntity
  8
DEFAULT_2
100
AcDbSpline
 62
7
  6
HIDDEN
 70
0
 71
3
 72
28
 73
24
 74
0
 42
0.0000001
 43
0.0000001
 44
0.0000000001
 40
0.0
 40
0.0
 40
0.0
 40
0.0
 40
0.0476190476
 40
0.0952380952
 40
0.1428571429
 40
0.1904761905
 40
0.2380952381
 40
0.2857142857
 40
0.3333333333
 40
0.380952381
 40
0.4285714286
 40
0.4761904762
 40
0.5238095238
 40
0.5714285714
 40
0.619047619
 40
0.6666666667
 40
0.7142857143
 40
0.7619047619
 40
0.8095238095
 40
0.8571428571
 40
0.9047619048
 40
0.9523809524
 40
1.0
 40
1.0
 40
1.0
 40
1.0
 10
9.1849561269
 20
8.9176986503
 30
0.0
 10
9.1893601369
 20
8.9154906862
 30
0.0
 10
9.1974882704
 20
8.9107422934
 30
0.0
 10
9.2073722266
 20
8.9027153956
 30
0.0
 10
9.2146870054
 20
8.8941121228
 30
0.0
 10
9.2193141182
 20
8.8852762828
 30
0.0
 10
9.2212482004
 20
8.8765816272
 30
0.0
 10
9.2205568458
 20
8.8683250404
 30
0.0
 10
9.2173599124
 20
8.8608409184
 30
0.0
 10
9.2117035186
 20
8.8542999612
 30
0.0
 10
9.203745619
 20
8.8489983876
 30
0.0
 10
9.1934112361
 20
8.8450643188
 30
0.0
 10
9.1810815039
 20
8.8427489313
 30
0.0
 10
9.166704094
 20
8.8420961152
 30
0.0
 10
9.1508648157
 20
8.8431294837
 30
0.0
 10
9.1336902872
 20
8.8457512835
 30
0.0
 10
9.1157224266
 20
8.8497705808
 30
0.0
 10
9.0972391621
 20
8.854977057
 30
0.0
 10
9.0788162109
 20
8.8610574371
 30
0.0
 10
9.0608955512
 20
8.8677049757
 30
0.0
 10
9.0438774245
 20
8.8746348448
 30
0.0
 10
9.0280908368
 20
8.8816140628
 30
0.0
 10
9.0186238446
 20
8.8861442635
 30
0.0
 10
9.0142029514
 20
8.8883580296
 30
0.0
  0
SPLINE
  5
41C
100
AcDbEntity
  8
DEFAULT_2
100
AcDbSpline
 62
7
  6
HIDDEN
 70
0
 71
3
 72
28
 73
24
 74
0
 42
0.0000001
 43
0.0000001
 44
0.0000000001
 40
0.0
 40
0.0
 40
0.0
 40
0.0
 40
0.0476190476
 40
0.0952380952
 40
0.1428571429
 40
0.1904761905
 40
0.2380952381
 40
0.2857142857
 40
0.3333333333
 40
0.380952381
 40
0.4285714286
 40
0.4761904762
 40
0.5238095238
 40
0.5714285714
 40
0.619047619
 40
0.6666666667
 40
0.7142857143
 40
0.7619047619
 40
0.8095238095
 40
0.8571428571
 40
0.9047619048
 40
0.9523809524
 40
1.0
 40
1.0
 40
1.0
 40
1.0
 10
9.0142029514
 20
8.8883580296
 30
0.0
 10
9.0097817218
 20
8.8905656344
 30
0.0
 10
9.0015136952
 20
8.8949018537
 30
0.0
 10
8.9911268811
 20
8.9010143405
 30
0.0
 10
8.9831246089
 20
8.9065930474
 30
0.0
 10
8.9776542356
 20
8.9116527274
 30
0.0
 10
8.9749718951
 20
8.9161164807
 30
0.0
 10
8.9751775797
 20
8.9200659815
 30
0.0
 10
8.9782789225
 20
8.9234735845
 30
0.0
 10
8.9842353032
 20
8.9264689817
 30
0.0
 10
8.9927921526
 20
8.929070812
 30
0.0
 10
9.0038584592
 20
8.9313692283
 30
0.0
 10
9.0169005511
 20
8.9333333964
 30
0.0
 10
9.0317821926
 20
8.9349777366
 30
0.0
 10
9.0478423964
 20
8.936215732
 30
0.0
 10
9.0650437095
 20
8.936984689
 30
0.0
 10
9.0828295065
 20
8.9371574714
 30
0.0
 10
9.1012281412
 20
8.936587861
 30
0.0
 10
9.1195693539
 20
8.9351244186
 30
0.0
 10
9.1377470996
 20
8.9325854668
 30
0.0
 10
9.1550019053
 20
8.9288901836
 30
0.0
 10
9.1710586123
 20
8.9239586542
 30
0.0
 10
9.1805499642
 20
8.9198959487
 30
0.0
 10
9.1849561269
 20
8.9176986503
 30
0.0
  0
SPLINE
  5
41D
100
AcDbEntity
  8
0
100
AcDbSpline
 62
7
  6
CONTINUOUS
 70
0
 71
3
 72
9
 73
5
 74
0
 42
0.0000001
 43
0.0000001
 44
0.0000000001
 40
0.0
 40
0.0
 40
0.0
 40
0.0
 40
0.500043177
 40
1.0
 40
1.0
 40
1.0
 40
1.0
 10
6.4873764729
 20
7.0554319578
 30
0.0
 10
6.4636676503
 20
7.0891095808
 30
0.0
 10
6.421410807
 20
7.1602090907
 30
0.0
 10
6.3899903553
 20
7.2367179862
 30
0.0
 10
6.3773329787
 20
7.275903386
 30
0.0
  0
SPLINE
  5
41E
100
AcDbEntity
  8
02___PRT_ALL_AXES
100
AcDbSpline
 62
7
  6
CONTINUOUS
 70
0
 71
3
 72
17
 73
13
 74
0
 42
0.0000001
 43
0.0000001
 44
0.0000000001
 40
0.0
 40
0.0
 40
0.0
 40
0.0
 40
0.1236310451
 40
0.2613127185
 40
0.406329089
 40
0.5503691085
 40
0.6853234891
 40
0.8051223724
 40
0.8587378729
 40
0.9084212363
 40
0.9550525915
 40
1.0
 40
1.0
 40
1.0
 40
1.0
 10
11.2297413209
 20
9.6387372387
 30
0.0
 10
11.2364463421
 20
9.6353847281
 30
0.0
 10
11.249515768
 20
9.626048009
 30
0.0
 10
11.265966332
 20
9.6075043256
 30
0.0
 10
11.2792230421
 20
9.5851045035
 30
0.0
 10
11.2881023857
 20
9.5608109548
 30
0.0
 10
11.2918376602
 20
9.5367545401
 30
0.0
 10
11.2902790263
 20
9.5178463857
 30
0.0
 10
11.2858990491
 20
9.5049787751
 30
0.0
 10
11.2813768291
 20
9.4970185214
 30
0.0
 10
11.2755841776
 20
9.4906095415
 30
0.0
 10
11.2709161927
 20
9.4874771689
 30
0.0
 10
11.2684785538
 20
9.4862582386
 30
0.0
  0
SPLINE
  5
41F
100
AcDbEntity
  8
02___PRT_ALL_AXES
100
AcDbSpline
 62
7
  6
CONTINUOUS
 70
0
 71
3
 72
11
 73
7
 74
0
 42
0.0000001
 43
0.0000001
 44
0.0000000001
 40
0.0
 40
0.0
 40
0.0
 40
0.0
 40
0.2271110858
 40
0.4646762788
 40
0.7207645402
 40
1.0
 40
1.0
 40
1.0
 40
1.0
 10
11.1910040879
 20
9.6411960901
 30
0.0
 10
11.1937242672
 20
9.6425563034
 30
0.0
 10
11.1997186718
 20
9.6445516539
 30
0.0
 10
11.2094582471
 20
9.6450390014
 30
0.0
 10
11.2197086866
 20
9.6431136559
 30
0.0
 10
11.2263967711
 20
9.6404095136
 30
0.0
 10
11.2297413209
 20
9.6387372387
 30
0.0
  0
SPLINE
  5
420
100
AcDbEntity
  8
02___PRT_ALL_AXES
100
AcDbSpline
 62
7
  6
CONTINUOUS
 70
0
 71
3
 72
23
 73
19
 74
0
 42
0.0000001
 43
0.0000001
 44
0.0000000001
 40
0.0
 40
0.0
 40
0.0
 40
0.0
 40
0.195788794
 40
0.2867022462
 40
0.3725839439
 40
0.4532577578
 40
0.5285764564
 40
0.5984236423
 40
0.6627362594
 40
0.7214915465
 40
0.7747423929
 40
0.8226556034
 40
0.8655148677
 40
0.9037902782
 40
0.9382097787
 40
0.9698072665
 40
0.984988521
 40
1.0
 40
1.0
 40
1.0
 40
1.0
 10
9.0346933324
 20
8.8918789041
 30
0.0
 10
9.0323678587
 20
8.893041641
 30
0.0
 10
9.0289883619
 20
8.8947973829
 30
0.0
 10
9.0246689788
 20
8.8972110025
 30
0.0
 10
9.0217222389
 20
8.8989456007
 30
0.0
 10
9.0189965642
 20
8.90064556
 30
0.0
 10
9.0164996242
 20
8.9023076238
 30
0.0
 10
9.0142384297
 20
8.903928983
 30
0.0
 10
9.0122194328
 20
8.9055072533
 30
0.0
 10
9.0104483816
 20
8.9070405939
 30
0.0
 10
9.0089302594
 20
8.9085279067
 30
0.0
 10
9.0076689588
 20
8.9099686842
 30
0.0
 10
9.0066679334
 20
8.9113637031
 30
0.0
 10
9.0059308929
 20
8.9127152078
 30
0.0
 10
9.0054620555
 20
8.9140254786
 30
0.0
 10
9.005300026
 20
8.9151004547
 30
0.0
 10
9.0053169812
 20
8.9159223445
 30
0.0
 10
9.005371442
 20
8.9163206681
 30
0.0
 10
9.005409906
 20
8.9165162655
 30
0.0
  0
SPLINE
  5
421
100
AcDbEntity
  8
0
100
AcDbSpline
 62
7
  6
CONTINUOUS
 70
0
 71
3
 72
11
 73
7
 74
0
 42
0.0000001
 43
0.0000001
 44
0.0000000001
 40
0.0
 40
0.0
 40
0.0
 40
0.0
 40
0.250148257
 40
0.5002196145
 40
0.7501764876
 40
1.0
 40
1.0
 40
1.0
 40
1.0
 10
8.7175951562
 20
8.8823235522
 30
0.0
 10
8.7271225399
 20
8.8870872441
 30
0.0
 10
8.746584704
 20
8.8958166228
 30
0.0
 10
8.7767598608
 20
8.906409421
 30
0.0
 10
8.807699376
 20
8.9144459975
 30
0.0
 10
8.8286984576
 20
8.9180749943
 30
0.0
 10
8.839246644
 20
8.9194552688
 30
0.0
  0
SPLINE
  5
422
100
AcDbEntity
  8
02___PRT_ALL_AXES
100
AcDbSpline
 62
7
  6
CONTINUOUS
 70
0
 71
3
 72
36
 73
32
 74
0
 42
0.0000001
 43
0.0000001
 44
0.0000000001
 40
0.0
 40
0.0
 40
0.0
 40
0.0
 40
0.0082577912
 40
0.0165313477
 40
0.0248630632
 40
0.0332946885
 40
0.0506027429
 40
0.0687645494
 40
0.0782507237
 40
0.0880393409
 40
0.1086058076
 40
0.1306218199
 40
0.1541887286
 40
0.1793655207
 40
0.2061726955
 40
0.2346001422
 40
0.2646063632
 40
0.29612834
 40
0.329079537
 40
0.3633572427
 40
0.3988425456
 40
0.4354039854
 40
0.4728987173
 40
0.5500627813
 40
0.6290312439
 40
0.7083956433
 40
0.7866805844
 40
0.8623676806
 40
0.9339563828
 40
0.9677668353
 40
1.0
 40
1.0
 40
1.0
 40
1.0
 10
9.1917508053
 20
8.879406931
 30
0.0
 10
9.1916600361
 20
8.8789468685
 30
0.0
 10
9.1914391662
 20
8.8780330853
 30
0.0
 10
9.1909913988
 20
8.8766923871
 30
0.0
 10
9.1904278563
 20
8.8753851818
 30
0.0
 10
9.1895162354
 20
8.8736764647
 30
0.0
 10
9.1880756724
 20
8.8716280663
 30
0.0
 10
9.1863021978
 20
8.8697790818
 30
0.0
 10
9.1846826336
 20
8.8684000948
 30
0.0
 10
9.1828677993
 20
8.867046743
 30
0.0
 10
9.1803224678
 20
8.8654946135
 30
0.0
 10
9.1769185242
 20
8.8638916805
 30
0.0
 10
9.1731324501
 20
8.862529812
 30
0.0
 10
9.1689843491
 20
8.8614176869
 30
0.0
 10
9.1644954362
 20
8.8605610483
 30
0.0
 10
9.1596887395
 20
8.8599647781
 30
0.0
 10
9.1545890709
 20
8.8596279498
 30
0.0
 10
9.1492223593
 20
8.8595507519
 30
0.0
 10
9.1436156474
 20
8.8597268919
 30
0.0
 10
9.1377968052
 20
8.8601509839
 30
0.0
 10
9.1317941678
 20
8.8608130499
 30
0.0
 10
9.1256365262
 20
8.861702623
 30
0.0
 10
9.1171778591
 20
8.863189547
 30
0.0
 10
9.1064325785
 20
8.8655466544
 30
0.0
 10
9.093513755
 20
8.8690175155
 30
0.0
 10
9.0806847856
 20
8.8730237453
 30
0.0
 10
9.0681841541
 20
8.8774255874
 30
0.0
 10
9.0562498667
 20
8.882083473
 30
0.0
 10
9.0467981486
 20
8.8861402805
 30
0.0
 10
9.0397035649
 20
8.8894201147
 30
0.0
 10
9.0363305004
 20
8.8910603201
 30
0.0
 10
9.0346933324
 20
8.8918789041
 30
0.0
  0
SPLINE
  5
423
100
AcDbEntity
  8
0
100
AcDbSpline
 62
7
  6
CONTINUOUS
 70
0
 71
3
 72
20
 73
16
 74
0
 42
0.0000001
 43
0.0000001
 44
0.0000000001
 40
0.0
 40
0.0
 40
0.0
 40
0.0
 40
0.1324002027
 40
0.1976219013
 40
0.262183234
 40
0.3894328531
 40
0.5144673987
 40
0.5762763004
 40
0.6376664281
 40
0.6986897484
 40
0.7593995098
 40
0.8198454435
 40
0.8800554393
 40
0.9400768667
 40
1.0
 40
1.0
 40
1.0
 40
1.0
 10
9.514787224
 20
8.4205945473
 30
0.0
 10
9.514787224
 20
8.4097960958
 30
0.0
 10
9.5142112575
 20
8.39366873
 30
0.0
 10
9.5122082232
 20
8.3723749888
 30
0.0
 10
9.5094114128
 20
8.3515940097
 30
0.0
 10
9.5043824331
 20
8.3262128863
 30
0.0
 10
9.4971726426
 20
8.3015896091
 30
0.0
 10
9.4900911181
 20
8.2826152564
 30
0.0
 10
9.4841400541
 20
8.2688117719
 30
0.0
 10
9.4775239887
 20
8.2554141273
 30
0.0
 10
9.4702387081
 20
8.2424559505
 30
0.0
 10
9.4622844261
 20
8.2299754953
 30
0.0
 10
9.4536664596
 20
8.2180121313
 30
0.0
 10
9.4443898084
 20
8.2066070481
 30
0.0
 10
9.4377677517
 20
8.1993968524
 30
0.0
 10
9.4343528778
 20
8.1959005463
 30
0.0
  0
SPLINE
  5
424
100
AcDbEntity
  8
0
100
AcDbSpline
 62
7
  6
CONTINUOUS
 70
0
 71
3
 72
39
 73
35
 74
0
 42
0.0000001
 43
0.0000001
 44
0.0000000001
 40
0.0
 40
0.0
 40
0.0
 40
0.0
 40
0.0275123301
 40
0.0551118192
 40
0.082868314
 40
0.1108135246
 40
0.1248740462
 40
0.1390000105
 40
0.167467668
 40
0.1962687335
 40
0.2254428634
 40
0.2550241822
 40
0.2850370151
 40
0.3154968118
 40
0.3464075536
 40
0.3777632594
 40
0.4095470944
 40
0.4417335942
 40
0.4742874395
 40
0.5071663528
 40
0.5403205319
 40
0.5736951834
 40
0.6072307713
 40
0.640864769
 40
0.6745325464
 40
0.7416957219
 40
0.7750775956
 40
0.8082411448
 40
0.8411318912
 40
0.8736993588
 40
0.9058982629
 40
0.9376985814
 40
0.9690796433
 40
1.0
 40
1.0
 40
1.0
 40
1.0
 10
9.0582469606
 20
8.9481123807
 30
0.0
 10
9.065272281
 20
8.9490316734
 30
0.0
 10
9.0794346928
 20
8.9502469079
 30
0.0
 10
9.1007997882
 20
8.9502335137
 30
0.0
 10
9.1222011193
 20
8.9484467647
 30
0.0
 10
9.1399491945
 20
8.9455371807
 30
0.0
 10
9.1540622526
 20
8.9423965766
 30
0.0
 10
9.1681807757
 20
8.9387058579
 30
0.0
 10
9.1857087231
 20
8.9331001704
 30
0.0
 10
9.2064180072
 20
8.9248903986
 30
0.0
 10
9.2268152795
 20
8.9152443028
 30
0.0
 10
9.2468593358
 20
8.9042241373
 30
0.0
 10
9.266512637
 20
8.8918887629
 30
0.0
 10
9.2857373819
 20
8.8782953419
 30
0.0
 10
9.3044950671
 20
8.8635005679
 30
0.0
 10
9.3227450196
 20
8.8475616775
 30
0.0
 10
9.3404450581
 20
8.8305376679
 30
0.0
 10
9.3575506261
 20
8.8124896063
 30
0.0
 10
9.3740163094
 20
8.7934817762
 30
0.0
 10
9.3897949298
 20
8.7735812682
 30
0.0
 10
9.4048395348
 20
8.7528587768
 30
0.0
 10
9.4191028398
 20
8.731387829
 30
0.0
 10
9.4325383661
 20
8.7092451288
 30
0.0
 10
9.4451015041
 20
8.6865091439
 30
0.0
 10
9.4606151273
 20
8.6555423522
 30
0.0
 10
9.4742205669
 20
8.6237194681
 30
0.0
 10
9.4857888733
 20
8.5912792018
 30
0.0
 10
9.4933824856
 20
8.5668149853
 30
0.0
 10
9.4998789602
 20
8.5422540524
 30
0.0
 10
9.5052500934
 20
8.5176764412
 30
0.0
 10
9.5094709063
 20
8.4931599437
 30
0.0
 10
9.5125167226
 20
8.4687770641
 30
0.0
 10
9.5143641674
 20
8.4446045542
 30
0.0
 10
9.514787224
 20
8.4285574234
 30
0.0
 10
9.514787224
 20
8.4205945473
 30
0.0
  0
SPLINE
  5
425
100
AcDbEntity
  8
0
100
AcDbSpline
 62
7
  6
CONTINUOUS
 70
0
 71
3
 72
11
 73
7
 74
0
 42
0.0000001
 43
0.0000001
 44
0.0000000001
 40
0.0
 40
0.0
 40
0.0
 40
0.0
 40
0.2498227127
 40
0.4997796009
 40
0.7498511657
 40
1.0
 40
1.0
 40
1.0
 40
1.0
 10
9.2800269983
 20
8.0378945601
 30
0.0
 10
9.2725938907
 20
8.0302842001
 30
0.0
 10
9.2570912653
 20
8.0156623606
 30
0.0
 10
9.2320983337
 20
7.9957326844
 30
0.0
 10
9.2055189609
 20
7.9779482362
 30
0.0
 10
9.1868581381
 20
7.9676161027
 30
0.0
 10
9.1773307324
 20
7.9628523999
 30
0.0
  0
SPLINE
  5
426
100
AcDbEntity
  8
0
100
AcDbSpline
 62
7
  6
CONTINUOUS
 70
0
 71
3
 72
43
 73
39
 74
0
 42
0.0000001
 43
0.0000001
 44
0.0000000001
 40
0.0
 40
0.0
 40
0.0
 40
0.0
 40
0.0319437812
 40
0.0647403889
 40
0.0983097854
 40
0.1325767437
 40
0.1674514733
 40
0.2028370532
 40
0.2386317759
 40
0.2747289726
 40
0.311018704
 40
0.3473889815
 40
0.3837270457
 40
0.4199204435
 40
0.4558581343
 40
0.4914320188
 40
0.5265379488
 40
0.5610768496
 40
0.5949564703
 40
0.6280925494
 40
0.6604100602
 40
0.6918452539
 40
0.7223471988
 40
0.7518792742
 40
0.7804215493
 40
0.8079727745
 40
0.8345520348
 40
0.8602010471
 40
0.884985865
 40
0.9089974556
 40
0.9207525332
 40
0.9323598844
 40
0.9438377485
 40
0.9552055053
 40
0.9664837568
 40
0.9776940295
 40
0.988858518
 40
1.0
 40
1.0
 40
1.0
 40
1.0
 10
9.3109158298
 20
8.2408615333
 30
0.0
 10
9.3109158298
 20
8.2514651988
 30
0.0
 10
9.3102890065
 20
8.2729598301
 30
0.0
 10
9.3075659337
 20
8.3054941612
 30
0.0
 10
9.3030590324
 20
8.3386082567
 30
0.0
 10
9.2967917895
 20
8.3721355566
 30
0.0
 10
9.2887952398
 20
8.405912196
 30
0.0
 10
9.2791089752
 20
8.4397708135
 30
0.0
 10
9.2677807032
 20
8.4735438433
 30
0.0
 10
9.254866753
 20
8.5070644105
 30
0.0
 10
9.2404311846
 20
8.540166719
 30
0.0
 10
9.2245450059
 20
8.5726867718
 30
0.0
 10
9.2072871005
 20
8.6044637625
 30
0.0
 10
9.1887430472
 20
8.6353405499
 30
0.0
 10
9.1690041608
 20
8.6651640869
 30
0.0
 10
9.1481682772
 20
8.6937869403
 30
0.0
 10
9.1263386046
 20
8.7210676921
 30
0.0
 10
9.1036225983
 20
8.7468711013
 30
0.0
 10
9.0801325578
 20
8.7710696922
 30
0.0
 10
9.0559845414
 20
8.7935440702
 30
0.0
 10
9.0312971357
 20
8.8141827363
 30
0.0
 10
9.0061918602
 20
8.8328836873
 30
0.0
 10
8.980792163
 20
8.8495546282
 30
0.0
 10
8.955222191
 20
8.8641123299
 30
0.0
 10
8.9296070628
 20
8.8764841637
 30
0.0
 10
8.9040719522
 20
8.8866081841
 30
0.0
 10
8.8787413876
 20
8.8944319828
 30
0.0
 10
8.8537386594
 20
8.8999140452
 30
0.0
 10
8.8291884656
 20
8.9030243415
 30
0.0
 10
8.809061183
 20
8.9036262118
 30
0.0
 10
8.7933469604
 20
8.9028847162
 30
0.0
 10
8.7818334577
 20
8.9017349891
 30
0.0
 10
8.7705252237
 20
8.8999896199
 30
0.0
 10
8.759436218
 20
8.8976499564
 30
0.0
 10
8.7485805473
 20
8.8947189388
 30
0.0
 10
8.7379715721
 20
8.891200687
 30
0.0
 10
8.7276233525
 20
8.8870990512
 30
0.0
 10
8.7209037035
 20
8.8839776274
 30
0.0
 10
8.717595754
 20
8.8823236759
 30
0.0
  0
SPLINE
  5
427
100
AcDbEntity
  8
0
100
AcDbSpline
 62
7
  6
CONTINUOUS
 70
0
 71
3
 72
38
 73
34
 74
0
 42
0.0000001
 43
0.0000001
 44
0.0000000001
 40
0.0
 40
0.0
 40
0.0
 40
0.0
 40
0.031020473
 40
0.0628014965
 40
0.0952756732
 40
0.1283844724
 40
0.1620602266
 40
0.1962269521
 40
0.2308050203
 40
0.2657115171
 40
0.3008600125
 40
0.3361621062
 40
0.3715280282
 40
0.4068674725
 40
0.4420903365
 40
0.477107538
 40
0.5118318676
 40
0.5461786007
 40
0.5800667009
 40
0.6134191536
 40
0.646164442
 40
0.6782370334
 40
0.7095785152
 40
0.7401389279
 40
0.769877215
 40
0.7987633499
 40
0.8267787156
 40
0.853918007
 40
0.9055862444
 40
0.9302169401
 40
0.9541075591
 40
0.9773364473
 40
1.0
 40
1.0
 40
1.0
 40
1.0
 10
9.5013897644
 20
8.3955945473
 30
0.0
 10
9.5013897644
 20
8.4036301949
 30
0.0
 10
9.5009595437
 20
8.4199011709
 30
0.0
 10
9.4990853878
 20
8.4445195566
 30
0.0
 10
9.4959800348
 20
8.4695584369
 30
0.0
 10
9.49165719
 20
8.494913368
 30
0.0
 10
9.4861350324
 20
8.520482745
 30
0.0
 10
9.4794350218
 20
8.5461622186
 30
0.0
 10
9.4715854512
 20
8.5718472111
 30
0.0
 10
9.4626176888
 20
8.5974329185
 30
0.0
 10
9.4525686179
 20
8.6228152321
 30
0.0
 10
9.4414792853
 20
8.6478907118
 30
0.0
 10
9.4293944276
 20
8.6725569179
 30
0.0
 10
9.4163640304
 20
8.6967136577
 30
0.0
 10
9.4024404774
 20
8.7202620635
 30
0.0
 10
9.387681031
 20
8.7431064316
 30
0.0
 10
9.372145699
 20
8.7651535733
 30
0.0
 10
9.3558974956
 20
8.7863134413
 30
0.0
 10
9.3390031597
 20
8.8065002376
 30
0.0
 10
9.321530746
 20
8.8256311588
 30
0.0
 10
9.3035519195
 20
8.8436287775
 30
0.0
 10
9.2851394345
 20
8.8604195123
 30
0.0
 10
9.2663679702
 20
8.8759348795
 30
0.0
 10
9.2473140934
 20
8.8901120841
 30
0.0
 10
9.2280541583
 20
8.902892617
 30
0.0
 10
9.2086674154
 20
8.9142247748
 30
0.0
 10
9.1892289497
 20
8.9240624233
 30
0.0
 10
9.1637761154
 20
8.9349501784
 30
0.0
 10
9.1380919336
 20
8.9429818591
 30
0.0
 10
9.1125535722
 20
8.9477376374
 30
0.0
 10
9.0940376703
 20
8.9496105276
 30
0.0
 10
9.0759389553
 20
8.9498357141
 30
0.0
 10
9.0640682038
 20
8.9488740188
 30
0.0
 10
9.0582469778
 20
8.9481123601
 30
0.0
  0
SPLINE
  5
428
100
AcDbEntity
  8
02___PRT_ALL_AXES
100
AcDbSpline
 62
7
  6
CONTINUOUS
 70
0
 71
3
 72
21
 73
17
 74
0
 42
0.0000001
 43
0.0000001
 44
0.0000000001
 40
0.0
 40
0.0
 40
0.0
 40
0.0
 40
0.0849150137
 40
0.1667777512
 40
0.3208049901
 40
0.3929114933
 40
0.4617389374
 40
0.5273316091
 40
0.5897668588
 40
0.7055589703
 40
0.759396127
 40
0.8108323836
 40
0.8601961156
 40
0.9078751606
 40
0.9543116824
 40
1.0
 40
1.0
 40
1.0
 40
1.0
 10
9.1644657458
 20
8.9141777759
 30
0.0
 10
9.1656599749
 20
8.9135806613
 30
0.0
 10
9.1679821469
 20
8.9123599871
 30
0.0
 10
9.1723403128
 20
8.9098183343
 30
0.0
 10
9.1763529787
 20
8.9070885924
 30
0.0
 10
9.1799559672
 20
8.9041646321
 30
0.0
 10
9.1823522969
 20
8.9019699743
 30
0.0
 10
9.1844961273
 20
8.8997335101
 30
0.0
 10
9.1869490564
 20
8.8967848323
 30
0.0
 10
9.1889649925
 20
8.8937184774
 30
0.0
 10
9.1904526946
 20
8.8905717928
 30
0.0
 10
9.1912701002
 20
8.8882770861
 30
0.0
 10
9.1918139771
 20
8.8860017548
 30
0.0
 10
9.192083657
 20
8.8837564646
 30
0.0
 10
9.1920779818
 20
8.8815527899
 30
0.0
 10
9.1918898623
 20
8.8801117392
 30
0.0
 10
9.1917508053
 20
8.879406931
 30
0.0
  0
SPLINE
  5
429
100
AcDbEntity
  8
0
100
AcDbSpline
 62
7
  6
CONTINUOUS
 70
0
 71
3
 72
39
 73
35
 74
0
 42
0.0000001
 43
0.0000001
 44
0.0000000001
 40
0.0
 40
0.0
 40
0.0
 40
0.0
 40
0.0310197287
 40
0.0627989256
 40
0.0952715803
 40
0.1283794404
 40
0.1620540336
 40
0.1962195183
 40
0.2307964122
 40
0.2657016607
 40
0.300848974
 40
0.3361498449
 40
0.3715145292
 40
0.4068527441
 40
0.4420744452
 40
0.477090415
 40
0.5118135251
 40
0.5461591585
 40
0.5800460317
 40
0.6133974061
 40
0.6461415493
 40
0.6782130664
 40
0.7095535386
 40
0.7401128072
 40
0.7698502383
 40
0.7987353203
 40
0.8267497542
 40
0.8538882106
 40
0.880159733
 40
0.9055894943
 40
0.9302192801
 40
0.9541091159
 40
0.9773372915
 40
1.0
 40
1.0
 40
1.0
 40
1.0
 10
9.3585914166
 20
8.2719275505
 30
0.0
 10
9.3585914166
 20
8.2813450852
 30
0.0
 10
9.358087309
 20
8.3004138552
 30
0.0
 10
9.3558907698
 20
8.3292652989
 30
0.0
 10
9.3522515391
 20
8.3586095243
 30
0.0
 10
9.3471853835
 20
8.3883243676
 30
0.0
 10
9.3407136589
 20
8.4182906292
 30
0.0
 10
9.3328616385
 20
8.4483858927
 30
0.0
 10
9.3236621348
 20
8.4784875335
 30
0.0
 10
9.3131525634
 20
8.5084729834
 30
0.0
 10
9.301375335
 20
8.538219911
 30
0.0
 10
9.2883791709
 20
8.5676073254
 30
0.0
 10
9.2742163989
 20
8.5965151416
 30
0.0
 10
9.2589450845
 20
8.6248256813
 30
0.0
 10
9.2426276194
 20
8.6524236164
 30
0.0
 10
9.2253299813
 20
8.6791961216
 30
0.0
 10
9.2071233048
 20
8.7050344841
 30
0.0
 10
9.1880812752
 20
8.7298330894
 30
0.0
 10
9.1682815485
 20
8.7534909453
 30
0.0
 10
9.1478050067
 20
8.7759119152
 30
0.0
 10
9.1267343419
 20
8.7970041549
 30
0.0
 10
9.1051557726
 20
8.8166822902
 30
0.0
 10
9.0831565908
 20
8.8348658549
 30
0.0
 10
9.0608259207
 20
8.8514806121
 30
0.0
 10
9.0382546013
 20
8.8664593315
 30
0.0
 10
9.0155333643
 20
8.8797400183
 30
0.0
 10
8.9927543762
 20
8.8912688075
 30
0.0
 10
8.9700093518
 20
8.9009979761
 30
0.0
 10
8.9473897923
 20
8.9088864402
 30
0.0
 10
8.9249871456
 20
8.9149015601
 30
0.0
 10
8.9028917961
 20
8.9190159742
 30
0.0
 10
8.8811928501
 20
8.9212109288
 30
0.0
 10
8.8599816666
 20
8.9214751979
 30
0.0
 10
8.8460697072
 20
8.9203478994
 30
0.0
 10
8.8392475027
 20
8.9194552316
 30
0.0
  0
SPLINE
  5
42A
100
AcDbEntity
  8
0
100
AcDbSpline
 62
7
  6
CONTINUOUS
 70
0
 71
3
 72
19
 73
15
 74
0
 42
0.0000001
 43
0.0000001
 44
0.0000000001
 40
0.0
 40
0.0
 40
0.0
 40
0.0
 40
0.0537975946
 40
0.1084297588
 40
0.1640059411
 40
0.2206238995
 40
0.2783690975
 40
0.3373132634
 40
0.4589895371
 40
0.5860284284
 40
0.7185712652
 40
0.856616973
 40
0.9276697927
 40
1.0
 40
1.0
 40
1.0
 40
1.0
 10
9.2800297123
 20
8.0378975544
 30
0.0
 10
9.2831988309
 20
8.041142356
 30
0.0
 10
9.2893756661
 20
8.0478914543
 30
0.0
 10
9.2980584398
 20
8.0586632513
 30
0.0
 10
9.3062104967
 20
8.0701352528
 30
0.0
 10
9.3138166555
 20
8.0822862263
 30
0.0
 10
9.3208635149
 20
8.0950947898
 30
0.0
 10
9.3295892462
 20
8.113207189
 30
0.0
 10
9.3389951904
 20
8.1374311268
 30
0.0
 10
9.3477447994
 20
8.1684055115
 30
0.0
 10
9.3540229987
 20
8.2013755357
 30
0.0
 10
9.3571300859
 20
8.23004186
 30
0.0
 10
9.3583841931
 20
8.2537395306
 30
0.0
 10
9.3585914166
 20
8.2658294351
 30
0.0
 10
9.3585914166
 20
8.2719275505
 30
0.0
  0
SPLINE
  5
42B
100
AcDbEntity
  8
02___PRT_ALL_AXES
100
AcDbSpline
 62
7
  6
CONTINUOUS
 70
0
 71
3
 72
38
 73
34
 74
0
 42
0.0000001
 43
0.0000001
 44
0.0000000001
 40
0.0
 40
0.0
 40
0.0
 40
0.0
 40
0.0047727839
 40
0.0096682233
 40
0.0201980376
 40
0.0260116691
 40
0.0322657946
 40
0.0390055028
 40
0.0462646031
 40
0.0540666327
 40
0.062428539
 40
0.0808727406
 40
0.101641924
 40
0.1247189457
 40
0.1500517588
 40
0.1775488791
 40
0.2071015372
 40
0.2385721074
 40
0.2718108389
 40
0.3066520455
 40
0.3429199343
 40
0.3804320722
 40
0.458428811
 40
0.5391221175
 40
0.6210011928
 40
0.7026020421
 40
0.7825315851
 40
0.8214636919
 40
0.8594967296
 40
0.8964905603
 40
0.9323213875
 40
0.9668679318
 40
1.0
 40
1.0
 40
1.0
 40
1.0
 10
9.005409906
 20
8.9165162655
 30
0.0
 10
9.0054605869
 20
8.9167739889
 30
0.0
 10
9.0056037448
 20
8.9172889816
 30
0.0
 10
9.0060585943
 20
8.9183069371
 30
0.0
 10
9.006758969
 20
8.9192606515
 30
0.0
 10
9.007643563
 20
8.9201358743
 30
0.0
 10
9.0084446581
 20
8.9207937112
 30
0.0
 10
9.0093603513
 20
8.9214307549
 30
0.0
 10
9.0103901623
 20
8.9220478844
 30
0.0
 10
9.0115330154
 20
8.9226454546
 30
0.0
 10
9.0132634453
 20
8.923442652
 30
0.0
 10
9.0157114937
 20
8.9243790954
 30
0.0
 10
9.0189874503
 20
8.9253943539
 30
0.0
 10
9.0226779646
 20
8.9263348699
 30
0.0
 10
9.026765783
 20
8.9271997204
 30
0.0
 10
9.031231418
 20
8.9279868509
 30
0.0
 10
9.036051963
 20
8.9286937452
 30
0.0
 10
9.0412024488
 20
8.9293163762
 30
0.0
 10
9.0466553204
 20
8.929850468
 30
0.0
 10
9.0523813801
 20
8.9302904105
 30
0.0
 10
9.0583498406
 20
8.9306300581
 30
0.0
 10
9.0666970456
 20
8.93094399
 30
0.0
 10
9.077497085
 20
8.9310381737
 30
0.0
 10
9.0907336478
 20
8.9306337142
 30
0.0
 10
9.1041396139
 20
8.9296467179
 30
0.0
 10
9.1174412976
 20
8.9280169123
 30
0.0
 10
9.1283072333
 20
8.92606697
 30
0.0
 10
9.1367220957
 20
8.9241260054
 30
0.0
 10
9.1427810711
 20
8.9225017129
 30
0.0
 10
9.1486105854
 20
8.9206973062
 30
0.0
 10
9.1541798483
 20
8.9187171164
 30
0.0
 10
9.1594569352
 20
8.9165668257
 30
0.0
 10
9.1628348939
 20
8.9149932018
 30
0.0
 10
9.1644657458
 20
8.9141777759
 30
0.0
  0
SPLINE
  5
42C
100
AcDbEntity
  8
0
100
AcDbSpline
 62
7
  6
CONTINUOUS
 70
0
 71
3
 72
19
 73
15
 74
0
 42
0.0000001
 43
0.0000001
 44
0.0000000001
 40
0.0
 40
0.0
 40
0.0
 40
0.0
 40
0.0537978121
 40
0.1084301827
 40
0.1640063583
 40
0.2206246901
 40
0.3372715776
 40
0.3974754874
 40
0.4589859515
 40
0.5860256761
 40
0.7185686053
 40
0.8566174312
 40
0.9276708472
 40
1.0
 40
1.0
 40
1.0
 40
1.0
 10
9.4343528299
 20
8.1959006182
 30
0.0
 10
9.4370570824
 20
8.1986692728
 30
0.0
 10
9.4423276864
 20
8.2044282091
 30
0.0
 10
9.4497366537
 20
8.2136194243
 30
0.0
 10
9.4566931603
 20
8.2234083457
 30
0.0
 10
9.4654320256
 20
8.2373689597
 30
0.0
 10
9.4731171416
 20
8.2523474342
 30
0.0
 10
9.4797501314
 20
8.2681657034
 30
0.0
 10
9.4858454808
 20
8.2849981562
 30
0.0
 10
9.4921346178
 20
8.3072615855
 30
0.0
 10
9.4974914454
 20
8.3353930851
 30
0.0
 10
9.5001427835
 20
8.3598542038
 30
0.0
 10
9.5012129162
 20
8.3800751361
 30
0.0
 10
9.5013897644
 20
8.3903912107
 30
0.0
 10
9.5013897644
 20
8.3955945473
 30
0.0
  0
SPLINE
  5
42D
100
AcDbEntity
  8
0
100
AcDbSpline
 62
7
  6
CONTINUOUS
 70
0
 71
3
 72
23
 73
19
 74
0
 42
0.0000001
 43
0.0000001
 44
0.0000000001
 40
0.0
 40
0.0
 40
0.0
 40
0.0
 40
0.0537203402
 40
0.1077136778
 40
0.1622451905
 40
0.2175663028
 40
0.2739080138
 40
0.3314774828
 40
0.3904538581
 40
0.4509875365
 40
0.5131989116
 40
0.5771797263
 40
0.6429940441
 40
0.7106766759
 40
0.7802378337
 40
0.851672634
 40
0.9249542714
 40
1.0
 40
1.0
 40
1.0
 40
1.0
 10
9.1773306625
 20
7.9628525401
 30
0.0
 10
9.1825303401
 20
7.9654523622
 30
0.0
 10
9.1927258809
 20
7.9711409852
 30
0.0
 10
9.2072435603
 20
7.9810550858
 30
0.0
 10
9.2209599071
 20
7.992327253
 30
0.0
 10
9.2338296649
 20
8.0049212366
 30
0.0
 10
9.2458146959
 20
8.0187958772
 30
0.0
 10
9.2568779949
 20
8.0339075081
 30
0.0
 10
9.2669870598
 20
8.0502081182
 30
0.0
 10
9.2761117093
 20
8.0676469526
 30
0.0
 10
9.2842251876
 20
8.0861699394
 30
0.0
 10
9.2913039384
 20
8.1057200812
 30
0.0
 10
9.2973266297
 20
8.1262375478
 30
0.0
 10
9.3022764962
 20
8.1476591035
 30
0.0
 10
9.3061384096
 20
8.169919855
 30
0.0
 10
9.3089017066
 20
8.192953159
 30
0.0
 10
9.3105568659
 20
8.2166862522
 30
0.0
 10
9.3109158298
 20
8.2327403728
 30
0.0
 10
9.3109158298
 20
8.2408615333
 30
0.0
  0
SPLINE
  5
42E
100
AcDbEntity
  8
02___PRT_ALL_AXES
100
AcDbSpline
 62
7
  6
CONTINUOUS
 70
0
 71
3
 72
38
 73
34
 74
0
 42
0.0000001
 43
0.0000001
 44
0.0000000001
 40
0.0
 40
0.0
 40
0.0
 40
0.0
 40
0.0500103758
 40
0.0761067514
 40
0.1029356003
 40
0.1304955442
 40
0.1587761741
 40
0.1877598314
 40
0.2174212483
 40
0.2477293141
 40
0.2786466358
 40
0.3101312216
 40
0.3421360126
 40
0.3746104368
 40
0.4074999771
 40
0.4407475573
 40
0.4742932116
 40
0.5080752696
 40
0.5420301874
 40
0.5760934989
 40
0.6101998531
 40
0.6442837252
 40
0.6782797192
 40
0.7121229639
 40
0.7457496359
 40
0.7790972558
 40
0.812105748
 40
0.8447168355
 40
0.8768744762
 40
0.9085263387
 40
0.9396281759
 40
0.9701366592
 40
1.0
 40
1.0
 40
1.0
 40
1.0
 10
6.5926191605
 20
7.6987523844
 30
0.0
 10
6.6046616598
 20
7.695788211
 30
0.0
 10
6.6226992454
 20
7.6900138212
 30
0.0
 10
6.646237994
 20
7.6801180556
 30
0.0
 10
6.6641830244
 20
7.6713541519
 30
0.0
 10
6.6821056191
 20
7.6613825627
 30
0.0
 10
6.6999539073
 20
7.6502341207
 30
0.0
 10
6.7176722716
 20
7.6379425838
 30
0.0
 10
6.7352074153
 20
7.6245464567
 30
0.0
 10
6.7525050467
 20
7.6100861293
 30
0.0
 10
6.7695129924
 20
7.5946067304
 30
0.0
 10
6.7861784435
 20
7.5781550232
 30
0.0
 10
6.8024511589
 20
7.560782204
 30
0.0
 10
6.8182804433
 20
7.542540875
 30
0.0
 10
6.833618642
 20
7.5234876951
 30
0.0
 10
6.8484178096
 20
7.5036804677
 30
0.0
 10
6.8626334898
 20
7.4831806339
 30
0.0
 10
6.8762210857
 20
7.4620504851
 30
0.0
 10
6.889139908
 20
7.4403554966
 30
0.0
 10
6.9013492565
 20
7.4181616758
 30
0.0
 10
6.9128127336
 20
7.3955377337
 30
0.0
 10
6.9234940345
 20
7.3725525683
 30
0.0
 10
6.9333615104
 20
7.3492772674
 30
0.0
 10
6.9423836731
 20
7.3257827819
 30
0.0
 10
6.950534064
 20
7.3021417392
 30
0.0
 10
6.9577864207
 20
7.2784261926
 30
0.0
 10
6.964119712
 20
7.2547092558
 30
0.0
 10
6.969513081
 20
7.231063464
 30
0.0
 10
6.9739515027
 20
7.2075620065
 30
0.0
 10
6.9774200526
 20
7.1842760451
 30
0.0
 10
6.9799090288
 20
7.1612759515
 30
0.0
 10
6.9814091199
 20
7.138634866
 30
0.0
 10
6.9817522368
 20
7.1236615327
 30
0.0
 10
6.9817522368
 20
7.1162558023
 30
0.0
  0
SPLINE
  5
42F
100
AcDbEntity
  8
02___PRT_ALL_AXES
100
AcDbSpline
 62
7
  6
CONTINUOUS
 70
0
 71
3
 72
24
 73
20
 74
0
 42
0.0000001
 43
0.0000001
 44
0.0000000001
 40
0.0
 40
0.0
 40
0.0
 40
0.0
 40
0.0553697064
 40
0.1109338829
 40
0.1669110753
 40
0.1951210281
 40
0.2235043837
 40
0.28087295
 40
0.3392039492
 40
0.3986565701
 40
0.4593690202
 40
0.5214608368
 40
0.5850285265
 40
0.6501471549
 40
0.7168664691
 40
0.7852123406
 40
0.8551974124
 40
0.9268154232
 40
1.0
 40
1.0
 40
1.0
 40
1.0
 10
6.460756007
 20
7.7773826914
 30
0.0
 10
6.4550011184
 20
7.7745052471
 30
0.0
 10
6.4437242875
 20
7.768217039
 30
0.0
 10
6.4276775127
 20
7.7572800045
 30
0.0
 10
6.4150999499
 20
7.7469715267
 30
0.0
 10
6.4055349474
 20
7.7380433519
 30
0.0
 10
6.3962440387
 20
7.7286017862
 30
0.0
 10
6.3852590316
 20
7.715939134
 30
0.0
 10
6.3731865058
 20
7.6995275115
 30
0.0
 10
6.3622024445
 20
7.6819096746
 30
0.0
 10
6.35233188
 20
7.6631513496
 30
0.0
 10
6.3435918164
 20
7.6433182173
 30
0.0
 10
6.3359971018
 20
7.6224745665
 30
0.0
 10
6.3295584756
 20
7.6006853163
 30
0.0
 10
6.3242845874
 20
7.5780159567
 30
0.0
 10
6.3201813552
 20
7.5545325579
 30
0.0
 10
6.3172530115
 20
7.5303011871
 30
0.0
 10
6.3155025011
 20
7.505394026
 30
0.0
 10
6.3151230552
 20
7.4885645706
 30
0.0
 10
6.3151230552
 20
7.4800602569
 30
0.0
  0
SPLINE
  5
430
100
AcDbEntity
  8
02___PRT_ALL_AXES
100
AcDbSpline
 62
7
  6
CONTINUOUS
 70
0
 71
3
 72
15
 73
11
 74
0
 42
0.0000001
 43
0.0000001
 44
0.0000000001
 40
0.0
 40
0.0
 40
0.0
 40
0.0
 40
0.1143080847
 40
0.2316107039
 40
0.3519786429
 40
0.4754451779
 40
0.6020199895
 40
0.7316912876
 40
0.864398471
 40
1.0
 40
1.0
 40
1.0
 40
1.0
 10
6.9554881501
 20
6.9730143559
 30
0.0
 10
6.957674304
 20
6.9781540732
 30
0.0
 10
6.9617830025
 20
6.9887074196
 30
0.0
 10
6.9670851635
 20
7.0050771966
 30
0.0
 10
6.9715930059
 20
7.0221465098
 30
0.0
 10
6.9752950528
 20
7.039870803
 30
0.0
 10
6.9781818584
 20
7.058205764
 30
0.0
 10
6.9802466119
 20
7.0771052354
 30
0.0
 10
6.9814833166
 20
7.096518066
 30
0.0
 10
6.9817522368
 20
7.109630025
 30
0.0
 10
6.9817522368
 20
7.1162558023
 30
0.0
  0
SPLINE
  5
431
100
AcDbEntity
  8
02___PRT_ALL_AXES
100
AcDbSpline
 62
7
  6
CONTINUOUS
 70
0
 71
3
 72
42
 73
38
 74
0
 42
0.0000001
 43
0.0000001
 44
0.0000000001
 40
0.0
 40
0.0
 40
0.0
 40
0.0
 40
0.031870914
 40
0.0645164729
 40
0.0978673255
 40
0.1318575629
 40
0.1664051928
 40
0.2014211215
 40
0.2368109484
 40
0.2724747996
 40
0.3083094202
 40
0.3442095068
 40
0.3800688232
 40
0.4157817185
 40
0.4512443608
 40
0.4863560126
 40
0.5210206433
 40
0.5551480778
 40
0.5886553854
 40
0.6214687946
 40
0.6535247931
 40
0.6847716552
 40
0.7151716259
 40
0.7447019486
 40
0.7733563983
 40
0.8011471032
 40
0.8281049924
 40
0.8542806262
 40
0.8797440483
 40
0.9045831352
 40
0.9289028013
 40
0.9409089075
 40
0.9528304611
 40
0.9646828772
 40
0.9764827331
 40
0.9882485953
 40
1.0
 40
1.0
 40
1.0
 40
1.0
 10
6.3151296365
 20
7.4773295065
 30
0.0
 10
6.3151826197
 20
7.4663238955
 30
0.0
 10
6.3159347085
 20
7.4440439248
 30
0.0
 10
6.3189013094
 20
7.4103637639
 30
0.0
 10
6.323702522
 20
7.3761565398
 30
0.0
 10
6.3303101654
 20
7.3415841675
 30
0.0
 10
6.3386902612
 20
7.3068070444
 30
0.0
 10
6.3488003125
 20
7.2719899294
 30
0.0
 10
6.3605903832
 20
7.2372983245
 30
0.0
 10
6.3740027619
 20
7.2028977919
 30
0.0
 10
6.3889719216
 20
7.1689530927
 30
0.0
 10
6.4054257025
 20
7.1356274326
 30
0.0
 10
6.4232849226
 20
7.1030812375
 30
0.0
 10
6.4424636554
 20
7.0714711016
 30
0.0
 10
6.4628706381
 20
7.0409494027
 30
0.0
 10
6.4844093034
 20
7.0116631835
 30
0.0
 10
6.5069780104
 20
6.9837530458
 30
0.0
 10
6.5304716387
 20
6.9573531389
 30
0.0
 10
6.5547820008
 20
6.9325903755
 30
0.0
 10
6.5797980319
 20
6.9095833856
 30
0.0
 10
6.6054073927
 20
6.8884430073
 30
0.0
 10
6.6314970266
 20
6.8692720948
 30
0.0
 10
6.6579532006
 20
6.8521648019
 30
0.0
 10
6.6846626444
 20
6.8372077322
 30
0.0
 10
6.7115125314
 20
6.8244805256
 30
0.0
 10
6.7383896539
 20
6.8140556883
 30
0.0
 10
6.7651799447
 20
6.8059998706
 30
0.0
 10
6.7917663344
 20
6.8003743685
 30
0.0
 10
6.8180268443
 20
6.7972343772
 30
0.0
 10
6.8438286612
 20
6.7966257969
 30
0.0
 10
6.8649282932
 20
6.7982664253
 30
0.0
 10
6.8813894741
 20
6.8008817721
 30
0.0
 10
6.8934756548
 20
6.8034786645
 30
0.0
 10
6.9053321396
 20
6.8067164813
 30
0.0
 10
6.9169388855
 20
6.8105936273
 30
0.0
 10
6.9282764255
 20
6.8151044577
 30
0.0
 10
6.9356449485
 20
6.8185307942
 30
0.0
 10
6.9392745542
 20
6.820345597
 30
0.0
  0
SPLINE
  5
432
100
AcDbEntity
  8
02___PRT_ALL_AXES
100
AcDbSpline
 62
7
  6
CONTINUOUS
 70
0
 71
3
 72
54
 73
50
 74
0
 42
0.0000001
 43
0.0000001
 44
0.0000000001
 40
0.0
 40
0.0
 40
0.0
 40
0.0
 40
0.0165609517
 40
0.0333993481
 40
0.067837454
 40
0.1032009077
 40
0.1393693603
 40
0.1762013878
 40
0.2135463792
 40
0.2512457381
 40
0.2891351739
 40
0.3270475781
 40
0.3648154599
 40
0.402273582
 40
0.4392614325
 40
0.4756257913
 40
0.5112236371
 40
0.5459249723
 40
0.5629052608
 40
0.5796202572
 40
0.5960585971
 40
0.6122107312
 40
0.6436193495
 40
0.6738063494
 40
0.6884394947
 40
0.7027650378
 40
0.7167866468
 40
0.7305108851
 40
0.7439465894
 40
0.7571053423
 40
0.7700017152
 40
0.7826527477
 40
0.7950785565
 40
0.8073019337
 40
0.8193481377
 40
0.8312450823
 40
0.8430226231
 40
0.8547124527
 40
0.8663476409
 40
0.8779620412
 40
0.8895899037
 40
0.9012651968
 40
0.9130212388
 40
0.9248899936
 40
0.9369017975
 40
0.9490849983
 40
0.9614653829
 40
0.9740664177
 40
1.0
 40
1.0
 40
1.0
 40
1.0
 10
6.3517651908
 20
7.4418764907
 30
0.0
 10
6.3517651908
 20
7.4363843277
 30
0.0
 10
6.3519573054
 20
7.4253070647
 30
0.0
 10
6.3530932275
 20
7.4028353859
 30
0.0
 10
6.3559374615
 20
7.3742229471
 30
0.0
 10
6.3615309825
 20
7.3395077444
 30
0.0
 10
6.3692895475
 20
7.3043983545
 30
0.0
 10
6.3791595202
 20
7.2691415017
 30
0.0
 10
6.391070791
 20
7.2339851754
 30
0.0
 10
6.4049393376
 20
7.1991767274
 30
0.0
 10
6.4206676563
 20
7.1649611864
 30
0.0
 10
6.4381451591
 20
7.1315796068
 30
0.0
 10
6.4572485611
 20
7.0992669507
 30
0.0
 10
6.4778433438
 20
7.068250661
 30
0.0
 10
6.499784633
 20
7.0387491803
 30
0.0
 10
6.5229185799
 20
7.0109700807
 30
0.0
 10
6.5470818397
 20
6.9851094356
 30
0.0
 10
6.568086023
 20
6.9651647275
 30
0.0
 10
6.5852642177
 20
6.9503471089
 30
0.0
 10
6.5982034459
 20
6.9399018822
 30
0.0
 10
6.6112684156
 20
6.9300640481
 30
0.0
 10
6.6286609234
 20
6.917893671
 30
0.0
 10
6.650570177
 20
6.9042527142
 30
0.0
 10
6.67303246
 20
6.8925881123
 30
0.0
 10
6.6909885549
 20
6.884680798
 30
0.0
 10
6.7042789192
 20
6.8795159026
 30
0.0
 10
6.7175079128
 20
6.8750658666
 30
0.0
 10
6.7306520921
 20
6.8713376782
 30
0.0
 10
6.7436884376
 20
6.8683384951
 30
0.0
 10
6.7565940533
 20
6.866074341
 30
0.0
 10
6.7693459704
 20
6.8645484233
 30
0.0
 10
6.7819218121
 20
6.8637648065
 30
0.0
 10
6.7942991632
 20
6.863724771
 30
0.0
 10
6.8064560589
 20
6.8644282143
 30
0.0
 10
6.8183706826
 20
6.8658754282
 30
0.0
 10
6.8300217452
 20
6.8680629338
 30
0.0
 10
6.8413882609
 20
6.8709875579
 30
0.0
 10
6.8524494613
 20
6.8746447544
 30
0.0
 10
6.8631857088
 20
6.8790269373
 30
0.0
 10
6.8735771119
 20
6.8841273942
 30
0.0
 10
6.8836049869
 20
6.8899363853
 30
0.0
 10
6.893251547
 20
6.8964429436
 30
0.0
 10
6.902498699
 20
6.9036361906
 30
0.0
 10
6.9113306412
 20
6.9115019451
 30
0.0
 10
6.91973142
 20
6.9200263396
 30
0.0
 10
6.9276857016
 20
6.9291939667
 30
0.0
 10
6.9351807874
 20
6.938988196
 30
0.0
 10
6.9446311606
 20
6.9529895532
 30
0.0
 10
6.9508527375
 20
6.964191659
 30
0.0
 10
6.9546334987
 20
6.9719165151
 30
0.0
  0
SPLINE
  5
433
100
AcDbEntity
  8
02___PRT_ALL_AXES
100
AcDbSpline
 62
7
  6
CONTINUOUS
 70
0
 71
3
 72
36
 73
32
 74
0
 42
0.0000001
 43
0.0000001
 44
0.0000000001
 40
0.0
 40
0.0
 40
0.0
 40
0.0
 40
0.0389005127
 40
0.0771300401
 40
0.1514542192
 40
0.2228753829
 40
0.2575034025
 40
0.2914107284
 40
0.324607605
 40
0.3571117602
 40
0.3889466406
 40
0.4201416743
 40
0.4507332411
 40
0.4807633592
 40
0.510280848
 40
0.5393409184
 40
0.5680041002
 40
0.5963367884
 40
0.6244097595
 40
0.6522975115
 40
0.6800775465
 40
0.7078287954
 40
0.7356307983
 40
0.763562149
 40
0.7916996453
 40
0.8201169426
 40
0.8488834854
 40
0.8780643237
 40
0.9077184623
 40
0.9378992069
 40
1.0
 40
1.0
 40
1.0
 40
1.0
 10
6.3517651908
 20
7.4418764907
 30
0.0
 10
6.3517651908
 20
7.4471993752
 30
0.0
 10
6.3519426272
 20
7.457754456
 30
0.0
 10
6.3530161026
 20
7.478453878
 30
0.0
 10
6.3556758514
 20
7.5035117775
 30
0.0
 10
6.3602002614
 20
7.5278051343
 30
0.0
 10
6.3649136058
 20
7.5463722391
 30
0.0
 10
6.3689351983
 20
7.5597041456
 30
0.0
 10
6.3734737461
 20
7.5725614063
 30
0.0
 10
6.3785208785
 20
7.584922274
 30
0.0
 10
6.3840681512
 20
7.5967655072
 30
0.0
 10
6.3901069665
 20
7.6080703583
 30
0.0
 10
6.3966261674
 20
7.6188177732
 30
0.0
 10
6.4036154513
 20
7.6289887346
 30
0.0
 10
6.4110630483
 20
7.6385653683
 30
0.0
 10
6.4189555973
 20
7.6475315004
 30
0.0
 10
6.4272805423
 20
7.6558705805
 30
0.0
 10
6.4360230126
 20
7.6635683336
 30
0.0
 10
6.4451677963
 20
7.670611368
 30
0.0
 10
6.4546996382
 20
7.6769862584
 30
0.0
 10
6.4646011468
 20
7.6826827166
 30
0.0
 10
6.4748553128
 20
7.6876901983
 30
0.0
 10
6.4854441884
 20
7.6919994858
 30
0.0
 10
6.4963487292
 20
7.6956041552
 30
0.0
 10
6.5075501367
 20
7.6984969357
 30
0.0
 10
6.5190285219
 20
7.7006734196
 30
0.0
 10
6.5307638332
 20
7.7021305866
 30
0.0
 10
6.5427355225
 20
7.7028650231
 30
0.0
 10
6.5549234199
 20
7.7028767693
 30
0.0
 10
6.5715876262
 20
7.7019203289
 30
0.0
 10
6.5841193353
 20
7.7001223155
 30
0.0
 10
6.5924584446
 20
7.6984895282
 30
0.0
  0
SPLINE
  5
434
100
AcDbEntity
  8
02___PRT_ALL_AXES
100
AcDbSpline
 62
7
  6
CONTINUOUS
 70
0
 71
3
 72
15
 73
11
 74
0
 42
0.0000001
 43
0.0000001
 44
0.0000000001
 40
0.0
 40
0.0
 40
0.0
 40
0.0
 40
0.1191624411
 40
0.238924821
 40
0.3598709733
 40
0.4825539827
 40
0.6074825481
 40
0.7351133376
 40
0.8658413493
 40
1.0
 40
1.0
 40
1.0
 40
1.0
 10
8.4973563735
 20
7.5490750811
 30
0.0
 10
8.5031979292
 20
7.5519959553
 30
0.0
 10
8.5146529453
 20
7.5583844163
 30
0.0
 10
8.5309684704
 20
7.5695118468
 30
0.0
 10
8.5463879955
 20
7.5821588524
 30
0.0
 10
8.5608613177
 20
7.5962848619
 30
0.0
 10
8.5743459883
 20
7.6118439913
 30
0.0
 10
8.5868003684
 20
7.6287883605
 30
0.0
 10
8.5981884394
 20
7.6470628693
 30
0.0
 10
8.6049556521
 20
7.6599233913
 30
0.0
 10
8.6081563871
 20
7.6665432239
 30
0.0
  0
SPLINE
  5
435
100
AcDbEntity
  8
02___PRT_ALL_AXES
100
AcDbSpline
 62
7
  6
CONTINUOUS
 70
0
 71
3
 72
15
 73
11
 74
0
 42
0.0000001
 43
0.0000001
 44
0.0000000001
 40
0.0
 40
0.0
 40
0.0
 40
0.0
 40
0.1331809371
 40
0.263273803
 40
0.390594298
 40
0.5155097444
 40
0.6384351138
 40
0.7598272975
 40
0.8801773416
 40
1.0
 40
1.0
 40
1.0
 40
1.0
 10
6.9023203699
 20
6.8058752809
 30
0.0
 10
6.909021016
 20
6.804818395
 30
0.0
 10
6.9223403277
 20
6.80316265
 30
0.0
 10
6.9422221575
 20
6.8020884073
 30
0.0
 10
6.9617105073
 20
6.8024579375
 30
0.0
 10
6.9807520151
 20
6.804271276
 30
0.0
 10
6.999295358
 20
6.807524918
 30
0.0
 10
7.017290423
 20
6.8122110254
 30
0.0
 10
7.0346863139
 20
6.8183170829
 30
0.0
 10
7.0458642728
 20
6.8233289407
 30
0.0
 10
7.0513230059
 20
6.8260583974
 30
0.0
  0
SPLINE
  5
436
100
AcDbEntity
  8
02___PRT_ALL_AXES
100
AcDbSpline
 62
7
  6
CONTINUOUS
 70
0
 71
3
 72
15
 73
11
 74
0
 42
0.0000001
 43
0.0000001
 44
0.0000000001
 40
0.0
 40
0.0
 40
0.0
 40
0.0
 40
0.1140467442
 40
0.23108052
 40
0.3512284884
 40
0.4745688604
 40
0.6011340212
 40
0.7309302054
 40
0.8639292413
 40
1.0
 40
1.0
 40
1.0
 40
1.0
 10
8.6347486173
 20
7.7215426147
 30
0.0
 10
8.6378522469
 20
7.7279621406
 30
0.0
 10
8.6436876538
 20
7.7411929949
 30
0.0
 10
8.6512224813
 20
7.7618341145
 30
0.0
 10
8.6576333348
 20
7.7834581271
 30
0.0
 10
8.6629056609
 20
7.8059985562
 30
0.0
 10
8.6670286094
 20
7.8293890758
 30
0.0
 10
8.6699937743
 20
7.8535621251
 30
0.0
 10
8.6717944218
 20
7.8784442813
 30
0.0
 10
8.6722134364
 20
7.8952688684
 30
0.0
 10
8.6722348013
 20
7.90377624
 30
0.0
  0
SPLINE
  5
437
100
AcDbEntity
  8
02___PRT_ALL_AXES
100
AcDbSpline
 62
7
  6
CONTINUOUS
 70
0
 71
3
 72
15
 73
11
 74
0
 42
0.0000001
 43
0.0000001
 44
0.0000000001
 40
0.0
 40
0.0
 40
0.0
 40
0.0
 40
0.1331811092
 40
0.2632737928
 40
0.3905942864
 40
0.5155096871
 40
0.6384350325
 40
0.759827265
 40
0.8801772478
 40
1.0
 40
1.0
 40
1.0
 40
1.0
 10
6.4270076078
 20
7.7565020902
 30
0.0
 10
6.4301823721
 20
7.762496776
 30
0.0
 10
6.4368493446
 20
7.7741456282
 30
0.0
 10
6.4479192011
 20
7.7906954207
 30
0.0
 10
6.4599076286
 20
7.8060644245
 30
0.0
 10
6.4727833146
 20
7.8202094101
 30
0.0
 10
6.4865120731
 20
7.8330919495
 30
0.0
 10
6.5010580307
 20
7.8446761595
 30
0.0
 10
6.5163802665
 20
7.8549293338
 30
0.0
 10
6.5270966045
 20
7.8608643256
 30
0.0
 10
6.5325553183
 20
7.8635937726
 30
0.0
  0
SPLINE
  5
438
100
AcDbEntity
  8
02___PRT_ALL_AXES
100
AcDbSpline
 62
7
  6
CONTINUOUS
 70
0
 71
3
 72
16
 73
12
 74
0
 42
0.0000001
 43
0.0000001
 44
0.0000000001
 40
0.0
 40
0.0
 40
0.0
 40
0.0
 40
0.1341539811
 40
0.2648786633
 40
0.3925051705
 40
0.517430421
 40
0.6401095372
 40
0.7610521972
 40
0.8808110308
 40
0.9404431959
 40
1.0
 40
1.0
 40
1.0
 40
1.0
 10
8.1390431852
 20
8.6047697066
 30
0.0
 10
8.1318269327
 20
8.6061811074
 30
0.0
 10
8.1174780984
 20
8.6084829959
 30
0.0
 10
8.0960257558
 20
8.6103381177
 30
0.0
 10
8.0749975787
 20
8.6105403677
 30
0.0
 10
8.0544595024
 20
8.6090889632
 30
0.0
 10
8.0344745373
 20
8.605985059
 30
0.0
 10
8.015106014
 20
8.6012387148
 30
0.0
 10
7.9995038705
 20
8.5959155197
 30
0.0
 10
7.9874181721
 20
8.5908607958
 30
0.0
 10
7.9815083539
 20
8.5880703385
 30
0.0
 10
7.9785886859
 20
8.5866104563
 30
0.0
  0
SPLINE
  5
439
100
AcDbEntity
  8
02___PRT_ALL_AXES
100
AcDbSpline
 62
7
  6
CONTINUOUS
 70
0
 71
3
 72
37
 73
33
 74
0
 42
0.0000001
 43
0.0000001
 44
0.0000000001
 40
0.0
 40
0.0
 40
0.0
 40
0.0
 40
0.0300525448
 40
0.0607414873
 40
0.0920170426
 40
0.123838361
 40
0.1561593893
 40
0.188926383
 40
0.2220826387
 40
0.2555690318
 40
0.323271325
 40
0.3915263209
 40
0.4256994429
 40
0.4598099655
 40
0.4937911052
 40
0.5275771547
 40
0.5611037031
 40
0.5943085365
 40
0.6271316889
 40
0.6595165014
 40
0.6914096502
 40
0.7227621513
 40
0.7535297047
 40
0.7836733604
 40
0.8131603804
 40
0.8419644095
 40
0.8700668793
 40
0.897456848
 40
0.9241326132
 40
0.9501015486
 40
0.9753813345
 40
1.0
 40
1.0
 40
1.0
 40
1.0
 10
8.6722365984
 20
7.9052082091
 30
0.0
 10
8.6722365984
 20
7.914127533
 30
0.0
 10
8.6718148246
 20
7.9321574325
 30
0.0
 10
8.6699705776
 20
7.9594129818
 30
0.0
 10
8.6669130507
 20
7.9870875648
 30
0.0
 10
8.6626541587
 20
8.0150923221
 30
0.0
 10
8.6572082347
 20
8.0433412796
 30
0.0
 10
8.6505928372
 20
8.0717460036
 30
0.0
 10
8.6428296388
 20
8.1002174537
 30
0.0
 10
8.6309387472
 20
8.1382832446
 30
0.0
 10
8.6133608897
 20
8.185448553
 30
0.0
 10
8.5924484581
 20
8.231455021
 30
0.0
 10
8.5737811534
 20
8.2674304469
 30
0.0
 10
8.5588699631
 20
8.2938737095
 30
0.0
 10
8.5431026274
 20
8.3196807273
 30
0.0
 10
8.5265289823
 20
8.3447702614
 30
0.0
 10
8.5092007163
 20
8.3690623597
 30
0.0
 10
8.4911729455
 20
8.3924805838
 30
0.0
 10
8.4725013344
 20
8.4149502226
 30
0.0
 10
8.4532448945
 20
8.4364007487
 30
0.0
 10
8.4334628569
 20
8.4567637894
 30
0.0
 10
8.4132168632
 20
8.4759752878
 30
0.0
 10
8.3925690546
 20
8.4939742425
 30
0.0
 10
8.371582597
 20
8.5107034991
 30
0.0
 10
8.3503216299
 20
8.5261101213
 30
0.0
 10
8.3288500222
 20
8.5401441912
 30
0.0
 10
8.3072328927
 20
8.5527610206
 30
0.0
 10
8.2855343148
 20
8.5639182322
 30
0.0
 10
8.2638195834
 20
8.5735790055
 30
0.0
 10
8.2421525564
 20
8.5817088267
 30
0.0
 10
8.2205997414
 20
8.5882778439
 30
0.0
 10
8.206163266
 20
8.5916422763
 30
0.0
 10
8.1989925563
 20
8.5930448779
 30
0.0
  0
SPLINE
  5
43A
100
AcDbEntity
  8
02___PRT_ALL_AXES
100
AcDbSpline
 62
7
  6
CONTINUOUS
 70
0
 71
3
 72
35
 73
31
 74
0
 42
0.0000001
 43
0.0000001
 44
0.0000000001
 40
0.0
 40
0.0
 40
0.0
 40
0.0
 40
0.0300529931
 40
0.0607619103
 40
0.0920748362
 40
0.1239480552
 40
0.1563331547
 40
0.1891741962
 40
0.2224124131
 40
0.2559867539
 40
0.3238764992
 40
0.3923240986
 40
0.4607838996
 40
0.5287098654
 40
0.5623110909
 40
0.595581778
 40
0.6284603385
 40
0.660888193
 40
0.692809983
 40
0.7241746082
 40
0.7549351531
 40
0.7850503129
 40
0.8144841035
 40
0.8432075554
 40
0.8711984344
 40
0.898442926
 40
0.9249356623
 40
0.9506810795
 40
0.9756939197
 40
1.0
 40
1.0
 40
1.0
 40
1.0
 10
8.6718409734
 20
7.9051615663
 30
0.0
 10
8.671820026
 20
7.9140744752
 30
0.0
 10
8.6713574087
 20
7.932096188
 30
0.0
 10
8.6694556018
 20
7.9593448844
 30
0.0
 10
8.6663421392
 20
7.9870252936
 30
0.0
 10
8.6620283868
 20
8.0150466635
 30
0.0
 10
8.6565279333
 20
8.0433209951
 30
0.0
 10
8.6498584028
 20
8.0717581516
 30
0.0
 10
8.6420409875
 20
8.1002674041
 30
0.0
 10
8.6300773896
 20
8.1383907623
 30
0.0
 10
8.6124098065
 20
8.1856323055
 30
0.0
 10
8.5872051735
 20
8.2409455321
 30
0.0
 10
8.55823656
 20
8.2943959715
 30
0.0
 10
8.5311649167
 20
8.3369785746
 30
0.0
 10
8.5079320535
 20
8.3695211064
 30
0.0
 10
8.4898741219
 20
8.3929624977
 30
0.0
 10
8.4711799189
 20
8.4154488132
 30
0.0
 10
8.4519090157
 20
8.4369086795
 30
0.0
 10
8.4321225864
 20
8.4572731117
 30
0.0
 10
8.4118843107
 20
8.4764776061
 30
0.0
 10
8.3912579591
 20
8.4944600813
 30
0.0
 10
8.3703100649
 20
8.5111639598
 30
0.0
 10
8.3491064166
 20
8.5265348466
 30
0.0
 10
8.3277152664
 20
8.5405246151
 30
0.0
 10
8.3062038083
 20
8.5530874108
 30
0.0
 10
8.2846408743
 20
8.5641838092
 30
0.0
 10
8.263094483
 20
8.5737772373
 30
0.0
 10
8.2416327495
 20
8.5818371243
 30
0.0
 10
8.2203250306
 20
8.5883364503
 30
0.0
 10
8.2060670164
 20
8.5916611573
 30
0.0
 10
8.1989925071
 20
8.5930448114
 30
0.0
  0
SPLINE
  5
43B
100
AcDbEntity
  8
02___PRT_ALL_AXES
100
AcDbSpline
 62
7
  6
CONTINUOUS
 70
0
 71
3
 72
14
 73
10
 74
0
 42
0.0000001
 43
0.0000001
 44
0.0000000001
 40
0.0
 40
0.0
 40
0.0
 40
0.0
 40
0.1367650283
 40
0.2703004097
 40
0.4004546794
 40
0.527179104
 40
0.6504651166
 40
0.7703322259
 40
1.0
 40
1.0
 40
1.0
 40
1.0
 10
8.6718425527
 20
7.9038184572
 30
0.0
 10
8.6718425527
 20
7.8952697462
 30
0.0
 10
8.671463099
 20
7.8783713184
 30
0.0
 10
8.669713278
 20
7.8533920489
 30
0.0
 10
8.6667918726
 20
7.8291530818
 30
0.0
 10
8.6627093086
 20
7.8057324032
 30
0.0
 10
8.6574759339
 20
7.7831979684
 30
0.0
 10
8.6491093297
 20
7.7548426433
 30
0.0
 10
8.6409972228
 20
7.7344669369
 30
0.0
 10
8.634748571
 20
7.7215424768
 30
0.0
  0
SPLINE
  5
43C
100
AcDbEntity
  8
02___PRT_ALL_AXES
100
AcDbSpline
 62
7
  6
CONTINUOUS
 70
0
 71
3
 72
15
 73
11
 74
0
 42
0.0000001
 43
0.0000001
 44
0.0000000001
 40
0.0
 40
0.0
 40
0.0
 40
0.0
 40
0.1176028694
 40
0.2376777446
 40
0.3600332107
 40
0.4845098491
 40
0.6109442844
 40
0.7391432407
 40
0.8689001247
 40
1.0
 40
1.0
 40
1.0
 40
1.0
 10
6.3158088629
 20
7.4773038547
 30
0.0
 10
6.3158088629
 20
7.4690620729
 30
0.0
 10
6.3161797058
 20
7.4524032762
 30
0.0
 10
6.3178024955
 20
7.4272170795
 30
0.0
 10
6.3204954883
 20
7.4016381748
 30
0.0
 10
6.3242491848
 20
7.3757433495
 30
0.0
 10
6.3290536403
 20
7.349606539
 30
0.0
 10
6.3348936583
 20
7.3233024455
 30
0.0
 10
6.3417537211
 20
7.2969083529
 30
0.0
 10
6.3469693389
 20
7.2793824202
 30
0.0
 10
6.3497401868
 20
7.2706225279
 30
0.0
  0
SPLINE
  5
43D
100
AcDbEntity
  8
02___PRT_ALL_AXES
100
AcDbSpline
 62
7
  6
CONTINUOUS
 70
0
 71
3
 72
17
 73
13
 74
0
 42
0.0000001
 43
0.0000001
 44
0.0000000001
 40
0.0
 40
0.0
 40
0.0
 40
0.0
 40
0.1258305077
 40
0.2528516578
 40
0.3803461446
 40
0.5075875573
 40
0.6338543687
 40
0.7584442534
 40
0.8199073141
 40
0.8807041167
 40
0.9407588319
 40
1.0
 40
1.0
 40
1.0
 40
1.0
 10
6.3497401868
 20
7.2706225279
 30
0.0
 10
6.354706659
 20
7.2549212834
 30
0.0
 10
6.3656553418
 20
7.2236681692
 30
0.0
 10
6.3848786975
 20
7.1777227495
 30
0.0
 10
6.4068381681
 20
7.132813045
 30
0.0
 10
6.4313340439
 20
7.0893482805
 30
0.0
 10
6.4581437313
 20
7.0477230723
 30
0.0
 10
6.4823217775
 20
7.0147312817
 30
0.0
 10
6.5026223051
 20
6.9895941485
 30
0.0
 10
6.5181990862
 20
6.9715141541
 30
0.0
 10
6.5341592794
 20
6.9541652867
 30
0.0
 10
6.5451099031
 20
6.9430318247
 30
0.0
 10
6.5506416398
 20
6.9375993948
 30
0.0
  0
SPLINE
  5
43E
100
AcDbEntity
  8
02___PRT_ALL_AXES
100
AcDbSpline
 62
7
  6
CONTINUOUS
 70
0
 71
3
 72
25
 73
21
 74
0
 42
0.0000001
 43
0.0000001
 44
0.0000000001
 40
0.0
 40
0.0
 40
0.0
 40
0.0
 40
0.075101955
 40
0.1487028703
 40
0.2206984768
 40
0.2910007226
 40
0.3595382553
 40
0.4262592584
 40
0.4911332493
 40
0.5541528406
 40
0.6153369431
 40
0.6747312474
 40
0.7324122695
 40
0.7606472655
 40
0.7884967463
 40
0.8431039656
 40
0.8964150499
 40
0.922653135
 40
0.9486455099
 40
1.0
 40
1.0
 40
1.0
 40
1.0
 10
6.5506416398
 20
6.9375993948
 30
0.0
 10
6.5572720192
 20
6.9310880452
 30
0.0
 10
6.5706698469
 20
6.9184662755
 30
0.0
 10
6.5913494861
 20
6.9006170334
 30
0.0
 10
6.612352477
 20
6.8840918685
 30
0.0
 10
6.633607048
 20
6.8689464115
 30
0.0
 10
6.6550422743
 20
6.8552323792
 30
0.0
 10
6.6765858937
 20
6.8429960379
 30
0.0
 10
6.6981656684
 20
6.8322790273
 30
0.0
 10
6.7197093482
 20
6.8231183566
 30
0.0
 10
6.7411446894
 20
6.815544924
 30
0.0
 10
6.7623993964
 20
6.8095863892
 30
0.0
 10
6.7800274964
 20
6.805957554
 30
0.0
 10
6.7939564641
 20
6.8038994261
 30
0.0
 10
6.807575752
 20
6.802417624
 30
0.0
 10
6.8243737975
 20
6.8015814163
 30
0.0
 10
6.8409862645
 20
6.8021339995
 30
0.0
 10
6.8539863289
 20
6.8034197871
 30
0.0
 10
6.8666761567
 20
6.8052440423
 30
0.0
 10
6.8760535615
 20
6.8072438391
 30
0.0
 10
6.882199793
 20
6.8088574428
 30
0.0
  0
SPLINE
  5
43F
100
AcDbEntity
  8
02___PRT_ALL_AXES
100
AcDbSpline
 62
7
  6
CONTINUOUS
 70
0
 71
3
 72
30
 73
26
 74
0
 42
0.0000001
 43
0.0000001
 44
0.0000000001
 40
0.0
 40
0.0
 40
0.0
 40
0.0
 40
0.0275998765
 40
0.0550629288
 40
0.0824336236
 40
0.1097571398
 40
0.1370790466
 40
0.1644450355
 40
0.1919002907
 40
0.21948921
 40
0.2472551916
 40
0.2752398983
 40
0.303483116
 40
0.3320228039
 40
0.3901156606
 40
0.449787403
 40
0.5112469888
 40
0.574658613
 40
0.6071408493
 40
0.6401525049
 40
0.7077848622
 40
0.7775994647
 40
0.8496010241
 40
0.9237664602
 40
1.0
 40
1.0
 40
1.0
 40
1.0
 10
6.882199793
 20
6.8088574428
 30
0.0
 10
6.8855117222
 20
6.8097269417
 30
0.0
 10
6.8920768586
 20
6.8116279017
 30
0.0
 10
6.9017465641
 20
6.8149711636
 30
0.0
 10
6.9112001532
 20
6.8187942494
 30
0.0
 10
6.9204278425
 20
6.8230928921
 30
0.0
 10
6.9294201542
 20
6.8278631774
 30
0.0
 10
6.9381677783
 20
6.833100419
 30
0.0
 10
6.9466621652
 20
6.8387987153
 30
0.0
 10
6.9548946804
 20
6.8449523604
 30
0.0
 10
6.962856608
 20
6.8515555798
 30
0.0
 10
6.9705402189
 20
6.8586011041
 30
0.0
 10
6.9779381002
 20
6.8660818134
 30
0.0
 10
6.9874653538
 20
6.8766875124
 30
0.0
 10
6.9986273041
 20
6.8910364089
 30
0.0
 10
7.0106758053
 20
6.909756784
 30
0.0
 10
7.0214149033
 20
6.9300057759
 30
0.0
 10
7.0291753212
 20
6.9479413658
 30
0.0
 10
7.034706412
 20
6.9629500885
 30
0.0
 10
7.039856979
 20
6.9786460464
 30
0.0
 10
7.0453877677
 20
6.9990761697
 30
0.0
 10
7.0505305147
 20
7.0245643717
 30
0.0
 10
7.0542124082
 20
7.0511221316
 30
0.0
 10
7.0564182064
 20
7.0786396792
 30
0.0
 10
7.0568947016
 20
7.0973030599
 30
0.0
 10
7.0568947016
 20
7.1067609353
 30
0.0
  0
SPLINE
  5
440
100
AcDbEntity
  8
02___PRT_ALL_AXES
100
AcDbSpline
 62
7
  6
CONTINUOUS
 70
0
 71
3
 72
51
 73
47
 74
0
 42
0.0000001
 43
0.0000001
 44
0.0000000001
 40
0.0
 40
0.0
 40
0.0
 40
0.0
 40
0.0166012718
 40
0.0334847998
 40
0.068025286
 40
0.1035044671
 40
0.1397967995
 40
0.1767552817
 40
0.2142235094
 40
0.2520367235
 40
0.2900245372
 40
0.3280139102
 40
0.3658317021
 40
0.4033075226
 40
0.4402764269
 40
0.4765816457
 40
0.512077586
 40
0.5466330613
 40
0.5801345007
 40
0.5964626552
 40
0.6124947536
 40
0.6282230118
 40
0.6436418948
 40
0.6735316527
 40
0.702166178
 40
0.729580189
 40
0.7428566744
 40
0.7558610717
 40
0.7686101983
 40
0.7811239123
 40
0.7934251197
 40
0.8055392529
 40
0.8174945848
 40
0.8293215863
 40
0.8410526539
 40
0.852721794
 40
0.864363906
 40
0.8760144071
 40
0.887708509
 40
0.8994807989
 40
0.9113645349
 40
0.9233912669
 40
0.9355905209
 40
0.9479891425
 40
0.973468255
 40
1.0
 40
1.0
 40
1.0
 40
1.0
 10
6.3347985968
 20
7.4397326223
 30
0.0
 10
6.3347985968
 20
7.4340403451
 30
0.0
 10
6.3350009424
 20
7.4225580202
 30
0.0
 10
6.3361970699
 20
7.3992606253
 30
0.0
 10
6.3391919753
 20
7.3695916903
 30
0.0
 10
6.3450797838
 20
7.3335965118
 30
0.0
 10
6.3532443748
 20
7.2971988274
 30
0.0
 10
6.3636274561
 20
7.2606627045
 30
0.0
 10
6.3761529838
 20
7.2242533694
 30
0.0
 10
6.390729776
 20
7.1882351959
 30
0.0
 10
6.4072519723
 20
7.1528698381
 30
0.0
 10
6.4255996527
 20
7.1184144101
 30
0.0
 10
6.4456394517
 20
7.0851193041
 30
0.0
 10
6.4672256326
 20
7.0532263648
 30
0.0
 10
6.4902015147
 20
7.0229672461
 30
0.0
 10
6.5144005213
 20
6.9945618978
 30
0.0
 10
6.5396476537
 20
6.9682163402
 30
0.0
 10
6.5657592171
 20
6.9441225294
 30
0.0
 10
6.5882740753
 20
6.9259108317
 30
0.0
 10
6.6065585991
 20
6.9126502211
 30
0.0
 10
6.6202501344
 20
6.9034555098
 30
0.0
 10
6.6340121241
 20
6.8949445685
 30
0.0
 10
6.6522304914
 20
6.884636178
 30
0.0
 10
6.6750373575
 20
6.8734861297
 30
0.0
 10
6.7025829579
 20
6.8629104346
 30
0.0
 10
6.7255329536
 20
6.8565500357
 30
0.0
 10
6.7436176513
 20
6.8530582162
 30
0.0
 10
6.7568839406
 20
6.8512431985
 30
0.0
 10
6.7699716155
 20
6.8502085404
 30
0.0
 10
6.7828570397
 20
6.8499568607
 30
0.0
 10
6.7955164654
 20
6.8504878621
 30
0.0
 10
6.8079265646
 20
6.8518022327
 30
0.0
 10
6.8200643487
 20
6.8538971252
 30
0.0
 10
6.8319073839
 20
6.8567687791
 30
0.0
 10
6.8434332456
 20
6.8604131982
 30
0.0
 10
6.8546207741
 20
6.864822422
 30
0.0
 10
6.8654487343
 20
6.8699892365
 30
0.0
 10
6.8758967651
 20
6.875903934
 30
0.0
 10
6.8859458862
 20
6.8825546208
 30
0.0
 10
6.8955766104
 20
6.8899299049
 30
0.0
 10
6.9047718029
 20
6.8980149203
 30
0.0
 10
6.9135144397
 20
6.9067945854
 30
0.0
 10
6.921788163
 20
6.9162531889
 30
0.0
 10
6.9322691976
 20
6.9298658833
 30
0.0
 10
6.9441137603
 20
6.9485692159
 30
0.0
 10
6.9519273955
 20
6.9646429089
 30
0.0
 10
6.9554881501
 20
6.9730143559
 30
0.0
  0
SPLINE
  5
441
100
AcDbEntity
  8
02___PRT_ALL_AXES
100
AcDbSpline
 62
7
  6
CONTINUOUS
 70
0
 71
3
 72
15
 73
11
 74
0
 42
0.0000001
 43
0.0000001
 44
0.0000000001
 40
0.0
 40
0.0
 40
0.0
 40
0.0
 40
0.1132640958
 40
0.229762608
 40
0.3496139758
 40
0.4728851724
 40
0.5995944257
 40
0.7297314285
 40
0.8632490918
 40
1.0
 40
1.0
 40
1.0
 40
1.0
 10
8.6081563871
 20
7.6665432239
 30
0.0
 10
8.611474664
 20
7.6734061594
 30
0.0
 10
8.6177161762
 20
7.6875697928
 30
0.0
 10
8.6257718552
 20
7.7096941507
 30
0.0
 10
8.6326270246
 20
7.7329223961
 30
0.0
 10
8.6382607077
 20
7.7571812069
 30
0.0
 10
8.6426566095
 20
7.7823965064
 30
0.0
 10
8.6458018818
 20
7.8084920527
 30
0.0
 10
8.6476859817
 20
7.8353849553
 30
0.0
 10
8.6480944627
 20
7.8535780153
 30
0.0
 10
8.6480944627
 20
7.8627818022
 30
0.0
  0
SPLINE
  5
442
100
AcDbEntity
  8
02___PRT_ALL_AXES
100
AcDbSpline
 62
7
  6
CONTINUOUS
 70
0
 71
3
 72
22
 73
18
 74
0
 42
0.0000001
 43
0.0000001
 44
0.0000000001
 40
0.0
 40
0.0
 40
0.0
 40
0.0
 40
0.0733940853
 40
0.1453289555
 40
0.2157392607
 40
0.2845969744
 40
0.3518948304
 40
0.4176344713
 40
0.5444549121
 40
0.6056510399
 40
0.6654318431
 40
0.7238762196
 40
0.78107923
 40
0.8371545614
 40
0.8922328366
 40
0.9464607169
 40
1.0
 40
1.0
 40
1.0
 40
1.0
 10
6.3158158386
 20
7.480082585
 30
0.0
 10
6.3158511135
 20
7.4871001436
 30
0.0
 10
6.3161863403
 20
7.5009960752
 30
0.0
 10
6.3175089279
 20
7.5215872488
 30
0.0
 10
6.3196454359
 20
7.5416745826
 30
0.0
 10
6.3225902529
 20
7.5612112177
 30
0.0
 10
6.3263377978
 20
7.5801563176
 30
0.0
 10
6.332320372
 20
7.6042783972
 30
0.0
 10
6.3399094184
 20
7.6273809097
 30
0.0
 10
6.3491640036
 20
7.6492035107
 30
0.0
 10
6.3567697714
 20
7.6645925855
 30
0.0
 10
6.3651040972
 20
7.6791615289
 30
0.0
 10
6.3741503025
 20
7.692878034
 30
0.0
 10
6.3838883683
 20
7.705711288
 30
0.0
 10
6.3942972535
 20
7.7176328289
 30
0.0
 10
6.4053540293
 20
7.7286141889
 30
0.0
 10
6.4131840123
 20
7.7353297499
 30
0.0
 10
6.4171922841
 20
7.7385140988
 30
0.0
  0
LINE
  5
443
100
AcDbEntity
  8
02___PRT_ALL_AXES
100
AcDbLine
 62
7
  6
CONTINUOUS
 10
6.4171922841
 20
7.7385140988
 11
6.4173392932
 21
7.7386307794
  0
SPLINE
  5
444
100
AcDbEntity
  8
02___PRT_ALL_AXES
100
AcDbSpline
 62
7
  6
CONTINUOUS
 70
0
 71
3
 72
46
 73
42
 74
0
 42
0.0000001
 43
0.0000001
 44
0.0000000001
 40
0.0
 40
0.0
 40
0.0
 40
0.0
 40
0.0114220607
 40
0.0227814034
 40
0.0341035131
 40
0.0454143671
 40
0.0567400855
 40
0.0681065767
 40
0.0795393143
 40
0.0910628713
 40
0.1027008077
 40
0.1144754338
 40
0.1264073806
 40
0.1385157693
 40
0.1633213424
 40
0.1890167792
 40
0.2156876907
 40
0.2294106579
 40
0.2433961337
 40
0.2721593516
 40
0.3019862266
 40
0.3328575058
 40
0.3647337881
 40
0.3975578103
 40
0.4312571962
 40
0.4657464182
 40
0.5009285525
 40
0.5366975116
 40
0.5729396821
 40
0.6095354008
 40
0.6463608067
 40
0.6832893041
 40
0.7201929883
 40
0.7569443648
 40
0.7934176665
 40
0.8294903513
 40
0.8650453726
 40
0.8999712373
 40
0.9341643034
 40
0.9675376132
 40
1.0
 40
1.0
 40
1.0
 40
1.0
 10
6.4173392932
 20
7.7386307794
 30
0.0
 10
6.4204909536
 20
7.7411298806
 30
0.0
 10
6.4269259449
 20
7.7459298941
 30
0.0
 10
6.4369715186
 20
7.752523845
 30
0.0
 10
6.447364216
 20
7.7584785488
 30
0.0
 10
6.458089346
 20
7.7637844372
 30
0.0
 10
6.4691313876
 20
7.7684350385
 30
0.0
 10
6.4804748913
 20
7.772423576
 30
0.0
 10
6.4921040145
 20
7.7757438338
 30
0.0
 10
6.5040020393
 20
7.7783922814
 30
0.0
 10
6.516152406
 20
7.7803649145
 30
0.0
 10
6.528537971
 20
7.7816586589
 30
0.0
 10
6.5411416465
 20
7.7822728796
 30
0.0
 10
6.558349316
 20
7.7821835559
 30
0.0
 10
6.5803605176
 20
7.7803253911
 30
0.0
 10
6.6071253308
 20
7.7754011612
 30
0.0
 10
6.6295695801
 20
7.7691250117
 30
0.0
 10
6.6476573379
 20
7.7628241614
 30
0.0
 10
6.6661612365
 20
7.7555257616
 30
0.0
 10
6.6893651153
 20
7.7447502824
 30
0.0
 10
6.7169258225
 20
7.7294388594
 30
0.0
 10
6.7443117992
 20
7.7117110063
 30
0.0
 10
6.7713720749
 20
7.6916654594
 30
0.0
 10
6.7979592415
 20
7.6694133361
 30
0.0
 10
6.8239273497
 20
7.6450774115
 30
0.0
 10
6.8491334222
 20
7.6187916014
 30
0.0
 10
6.8734391117
 20
7.5907012891
 30
0.0
 10
6.896710592
 20
7.560961492
 30
0.0
 10
6.9188191618
 20
7.5297360464
 30
0.0
 10
6.9396431078
 20
7.4971975443
 30
0.0
 10
6.9590676786
 20
7.4635257579
 30
0.0
 10
6.9769852314
 20
7.4289064103
 30
0.0
 10
6.9932969204
 20
7.3935307605
 30
0.0
 10
7.007912965
 20
7.3575943023
 30
0.0
 10
7.0207522992
 20
7.3212953474
 30
0.0
 10
7.0317439917
 20
7.2848341932
 30
0.0
 10
7.0408275149
 20
7.2484121385
 30
0.0
 10
7.0479525131
 20
7.2122305222
 30
0.0
 10
7.0530798781
 20
7.1764867667
 30
0.0
 10
7.0561797023
 20
7.1413813383
 30
0.0
 10
7.0568947016
 20
7.1181924745
 30
0.0
 10
7.0568947016
 20
7.1067609353
 30
0.0
  0
SPLINE
  5
445
100
AcDbEntity
  8
02___PRT_ALL_AXES
100
AcDbSpline
 62
7
  6
CONTINUOUS
 70
0
 71
3
 72
36
 73
32
 74
0
 42
0.0000001
 43
0.0000001
 44
0.0000000001
 40
0.0
 40
0.0
 40
0.0
 40
0.0
 40
0.0388645194
 40
0.0770378487
 40
0.1511837625
 40
0.2223416513
 40
0.2568079661
 40
0.290534571
 40
0.323533939
 40
0.3558265886
 40
0.3874389107
 40
0.4184044443
 40
0.4487637777
 40
0.4785638499
 40
0.5078593128
 40
0.5367109931
 40
0.565185853
 40
0.5933566739
 40
0.6213004323
 40
0.6490979743
 40
0.6768323528
 40
0.7045876928
 40
0.7324477562
 40
0.760494587
 40
0.7888074233
 40
0.8174610411
 40
0.8465255998
 40
0.8760650794
 40
0.9061370086
 40
0.9367926645
 40
1.0
 40
1.0
 40
1.0
 40
1.0
 10
6.3347985968
 20
7.4397326223
 30
0.0
 10
6.3347985968
 20
7.4453202261
 30
0.0
 10
6.33499023
 20
7.4563973165
 30
0.0
 10
6.3361498797
 20
7.4781058857
 30
0.0
 10
6.3390222448
 20
7.504355625
 30
0.0
 10
6.3439111323
 20
7.5297691532
 30
0.0
 10
6.3490034238
 20
7.5491520302
 30
0.0
 10
6.353346125
 20
7.5630431252
 30
0.0
 10
6.358245801
 20
7.5764155077
 30
0.0
 10
6.3636926567
 20
7.589245368
 30
0.0
 10
6.3696777126
 20
7.6015090589
 30
0.0
 10
6.3761903754
 20
7.6131840868
 30
0.0
 10
6.3832182899
 20
7.6242494578
 30
0.0
 10
6.3907500245
 20
7.6346840587
 30
0.0
 10
6.3987712152
 20
7.6444690744
 30
0.0
 10
6.4072675485
 20
7.6535862928
 30
0.0
 10
6.4162241933
 20
7.6620180303
 30
0.0
 10
6.4256238699
 20
7.6697494301
 30
0.0
 10
6.4354500764
 20
7.6767650802
 30
0.0
 10
6.4456843535
 20
7.6830519723
 30
0.0
 10
6.4563073988
 20
7.6885988992
 30
0.0
 10
6.4672999923
 20
7.6933942509
 30
0.0
 10
6.4786410182
 20
7.6974303379
 30
0.0
 10
6.4903095582
 20
7.700699305
 30
0.0
 10
6.502283886
 20
7.7031948196
 30
0.0
 10
6.5145415368
 20
7.7049137489
 30
0.0
 10
6.5270600572
 20
7.7058519485
 30
0.0
 10
6.5398160515
 20
7.7060088246
 30
0.0
 10
6.5527869407
 20
7.7053845381
 30
0.0
 10
6.5705117778
 20
7.7034928643
 30
0.0
 10
6.5837951343
 20
7.7009243542
 30
0.0
 10
6.5926191605
 20
7.6987523844
 30
0.0
  0
SPLINE
  5
446
100
AcDbEntity
  8
02___PRT_ALL_AXES
100
AcDbSpline
 62
7
  6
CONTINUOUS
 70
0
 71
3
 72
23
 73
19
 74
0
 42
0.0000001
 43
0.0000001
 44
0.0000000001
 40
0.0
 40
0.0
 40
0.0
 40
0.0
 40
0.0537203344
 40
0.1077135029
 40
0.162244947
 40
0.2175660181
 40
0.2739077117
 40
0.331477206
 40
0.3904534577
 40
0.4509872384
 40
0.5131985689
 40
0.5771794495
 40
0.6429935701
 40
0.7106766228
 40
0.7802381257
 40
0.8516722632
 40
0.9249530907
 40
1.0
 40
1.0
 40
1.0
 40
1.0
 10
7.0513230059
 20
6.8260583974
 30
0.0
 10
7.0571902998
 20
6.828992141
 30
0.0
 10
7.0686949252
 20
6.8354112719
 30
0.0
 10
7.0850768336
 20
6.8465982059
 30
0.0
 10
7.1005543485
 20
6.8593178218
 30
0.0
 10
7.1150766069
 20
6.8735289349
 30
0.0
 10
7.1286007029
 20
6.889185036
 30
0.0
 10
7.1410843824
 20
6.9062371947
 30
0.0
 10
7.1524917579
 20
6.9246307213
 30
0.0
 10
7.1627877818
 20
6.9443089199
 30
0.0
 10
7.1719433391
 20
6.9652102407
 30
0.0
 10
7.1799307916
 20
6.9872707807
 30
0.0
 10
7.1867270869
 20
7.0104227436
 30
0.0
 10
7.1923123394
 20
7.0345950501
 30
0.0
 10
7.1966702559
 20
7.0597141755
 30
0.0
 10
7.1997883172
 20
7.0857049338
 30
0.0
 10
7.2016561001
 20
7.1124854253
 30
0.0
 10
7.2020610952
 20
7.1306010186
 30
0.0
 10
7.2020610952
 20
7.1397651184
 30
0.0
  0
SPLINE
  5
447
100
AcDbEntity
  8
02___PRT_ALL_AXES
100
AcDbSpline
 62
7
  6
CONTINUOUS
 70
0
 71
3
 72
38
 73
34
 74
0
 42
0.0000001
 43
0.0000001
 44
0.0000000001
 40
0.0
 40
0.0
 40
0.0
 40
0.0
 40
0.0300206482
 40
0.0607002385
 40
0.0919870917
 40
0.1238376701
 40
0.1562032255
 40
0.1890278245
 40
0.2222527291
 40
0.2558168702
 40
0.3236946928
 40
0.3578858889
 40
0.3921511084
 40
0.4264215426
 40
0.4606284444
 40
0.4947034037
 40
0.5285790436
 40
0.5621892163
 40
0.5954698402
 40
0.6283590089
 40
0.6607978891
 40
0.692730948
 40
0.7241066668
 40
0.7548781787
 40
0.7850035847
 40
0.8144471531
 40
0.8431792547
 40
0.8711779694
 40
0.8984289776
 40
0.9249271001
 40
0.9506766113
 40
0.9756922265
 40
1.0
 40
1.0
 40
1.0
 40
1.0
 10
8.6480944627
 20
7.8627818022
 30
0.0
 10
8.6480944627
 20
7.872381507
 30
0.0
 10
8.6476399151
 20
7.8917941794
 30
0.0
 10
8.6456526133
 20
7.9211503751
 30
0.0
 10
8.6423564426
 20
7.9509774965
 30
0.0
 10
8.6377632803
 20
7.9811773575
 30
0.0
 10
8.6318879217
 20
8.0116547975
 30
0.0
 10
8.6247488438
 20
8.042312122
 30
0.0
 10
8.6163692465
 20
8.0730515743
 30
0.0
 10
8.603531107
 20
8.1141633526
 30
0.0
 10
8.5883755462
 20
8.1548470921
 30
0.0
 10
8.5710401328
 20
8.1948547885
 30
0.0
 10
8.5569365929
 20
8.224529891
 30
0.0
 10
8.5418102959
 20
8.2537018742
 30
0.0
 10
8.52570938
 20
8.2822778984
 30
0.0
 10
8.5086852685
 20
8.310165968
 30
0.0
 10
8.4907930949
 20
8.3372770508
 30
0.0
 10
8.4720894408
 20
8.3635237081
 30
0.0
 10
8.4526351129
 20
8.38882238
 30
0.0
 10
8.4324916145
 20
8.4130913652
 30
0.0
 10
8.4117241367
 20
8.4362533922
 30
0.0
 10
8.3903987299
 20
8.4582338717
 30
0.0
 10
8.3685837718
 20
8.4789624766
 30
0.0
 10
8.3463491712
 20
8.4983729358
 30
0.0
 10
8.3237655494
 20
8.5164025716
 30
0.0
 10
8.3009056241
 20
8.5329942878
 30
0.0
 10
8.277841574
 20
8.5480939161
 30
0.0
 10
8.2546476114
 20
8.5616539084
 30
0.0
 10
8.2313969132
 20
8.5736296572
 30
0.0
 10
8.2081639651
 20
8.5839830798
 30
0.0
 10
8.1850219366
 20
8.5926801533
 30
0.0
 10
8.1620459936
 20
8.5996918956
 30
0.0
 10
8.1466715452
 20
8.6032777033
 30
0.0
 10
8.1390431852
 20
8.6047697066
 30
0.0
  0
SPLINE
  5
448
100
AcDbEntity
  8
02___PRT_ALL_AXES
100
AcDbSpline
 62
7
  6
CONTINUOUS
 70
0
 71
3
 72
44
 73
40
 74
0
 42
0.0000001
 43
0.0000001
 44
0.0000000001
 40
0.0
 40
0.0
 40
0.0
 40
0.0
 40
0.0111414006
 40
0.0223058171
 40
0.0335159751
 40
0.0447941266
 40
0.0561618169
 40
0.0676395552
 40
0.079246836
 40
0.0910018502
 40
0.1029212935
 40
0.115020552
 40
0.1398051213
 40
0.1654540074
 40
0.19203301
 40
0.2195839199
 40
0.2481260465
 40
0.2776578793
 40
0.3081594705
 40
0.3395944687
 40
0.3719117528
 40
0.4050474711
 40
0.4389268485
 40
0.4734655266
 40
0.5085711085
 40
0.5441447214
 40
0.5800821801
 40
0.6162752516
 40
0.6526130397
 40
0.6889830715
 40
0.7252725013
 40
0.7613694256
 40
0.7971639093
 40
0.8325492187
 40
0.8674236247
 40
0.9016904574
 40
0.9352597463
 40
0.9680559499
 40
1.0
 40
1.0
 40
1.0
 40
1.0
 10
6.5325553183
 20
7.8635937726
 30
0.0
 10
6.5362879914
 20
7.8654601707
 30
0.0
 10
6.5438705031
 20
7.8689823818
 30
0.0
 10
6.5555475844
 20
7.8736104019
 30
0.0
 10
6.5675186337
 20
7.8775808827
 30
0.0
 10
6.5797682684
 20
7.8808881434
 30
0.0
 10
6.592281175
 20
7.883527968
 30
0.0
 10
6.6050414171
 20
7.885497969
 30
0.0
 10
6.6180331391
 20
7.8867951299
 30
0.0
 10
6.6312399201
 20
7.887418047
 30
0.0
 10
6.6446455753
 20
7.8873667438
 30
0.0
 10
6.6629062309
 20
7.8863910494
 30
0.0
 10
6.6861808247
 20
7.8834434907
 30
0.0
 10
6.7143923522
 20
7.8772570888
 30
0.0
 10
6.7429759181
 20
7.8684288094
 30
0.0
 10
6.7717898737
 20
7.8570052143
 30
0.0
 10
6.8006940134
 20
7.843044517
 30
0.0
 10
6.829547246
 20
7.8266175393
 30
0.0
 10
6.858208599
 20
7.807806333
 30
0.0
 10
6.8865373995
 20
7.786703946
 30
0.0
 10
6.9143947018
 20
7.7634151021
 30
0.0
 10
6.9416436758
 20
7.7380551886
 30
0.0
 10
6.9681499049
 20
7.7107493417
 30
0.0
 10
6.993782619
 20
7.6816325385
 30
0.0
 10
7.0184155546
 20
7.6508490013
 30
0.0
 10
7.0419268987
 20
7.6185508579
 30
0.0
 10
7.064200185
 20
7.5848977205
 30
0.0
 10
7.0851255814
 20
7.5500563211
 30
0.0
 10
7.1045995727
 20
7.5141990503
 30
0.0
 10
7.1225254535
 20
7.4775031762
 30
0.0
 10
7.1388147699
 20
7.4401504286
 30
0.0
 10
7.1533870429
 20
7.4023256826
 30
0.0
 10
7.1661698035
 20
7.3642159707
 30
0.0
 10
7.1770999257
 20
7.3260097751
 30
0.0
 10
7.1861233988
 20
7.2878960411
 30
0.0
 10
7.1931953052
 20
7.2500635639
 30
0.0
 10
7.1982809871
 20
7.2126974146
 30
0.0
 10
7.2013538316
 20
7.1759853275
 30
0.0
 10
7.2020610952
 20
7.1517305402
 30
0.0
 10
7.2020610952
 20
7.1397651184
 30
0.0
  0
SPLINE
  5
449
100
AcDbEntity
  8
02___PRT_ALL_AXES
100
AcDbSpline
 62
7
  6
CONTINUOUS
 70
0
 71
3
 72
23
 73
19
 74
0
 42
0.0000001
 43
0.0000001
 44
0.0000000001
 40
0.0
 40
0.0
 40
0.0
 40
0.0
 40
0.0537203012
 40
0.1077135182
 40
0.1622449294
 40
0.2175660171
 40
0.2739077287
 40
0.3314771724
 40
0.3904535266
 40
0.4509871807
 40
0.5131985691
 40
0.577179417
 40
0.6429937931
 40
0.7106764655
 40
0.7802376871
 40
0.8516725841
 40
0.9249542871
 40
1.0
 40
1.0
 40
1.0
 40
1.0
 10
6.9760848422
 20
6.8387509267
 30
0.0
 10
6.9814969553
 20
6.8414569629
 30
0.0
 10
6.9921090277
 20
6.8473779948
 30
0.0
 10
7.0072198288
 20
6.8576971137
 30
0.0
 10
7.0214965394
 20
6.8694298116
 30
0.0
 10
7.0348921103
 20
6.8825383085
 30
0.0
 10
7.0473667952
 20
6.8969798107
 30
0.0
 10
7.0588821128
 20
6.9127088247
 30
0.0
 10
7.0694041819
 20
6.9296754112
 30
0.0
 10
7.0789016484
 20
6.9478267124
 30
0.0
 10
7.0873466064
 20
6.96710648
 30
0.0
 10
7.09471459
 20
6.987455367
 30
0.0
 10
7.1009833416
 20
7.0088111125
 30
0.0
 10
7.1061354561
 20
7.0311078828
 30
0.0
 10
7.110155156
 20
7.0542781427
 30
0.0
 10
7.1130313611
 20
7.0782525204
 30
0.0
 10
7.1147541409
 20
7.1029552705
 30
0.0
 10
7.1151277709
 20
7.1196653043
 30
0.0
 10
7.1151277709
 20
7.1281182614
 30
0.0
  0
SPLINE
  5
44A
100
AcDbEntity
  8
02___PRT_ALL_AXES
100
AcDbSpline
 62
7
  6
CONTINUOUS
 70
0
 71
3
 72
23
 73
19
 74
0
 42
0.0000001
 43
0.0000001
 44
0.0000000001
 40
0.0
 40
0.0
 40
0.0
 40
0.0
 40
0.0537203344
 40
0.1077135029
 40
0.162244947
 40
0.2175660181
 40
0.2739077117
 40
0.331477206
 40
0.3904534577
 40
0.4509872384
 40
0.5131985689
 40
0.5771794495
 40
0.6429935701
 40
0.7106766228
 40
0.7802381257
 40
0.8516722632
 40
0.9249530907
 40
1.0
 40
1.0
 40
1.0
 40
1.0
 10
6.9392745158
 20
6.8203456737
 30
0.0
 10
6.9446865886
 20
6.8230517994
 30
0.0
 10
6.9552986137
 20
6.8289728942
 30
0.0
 10
6.970409512
 20
6.8392918764
 30
0.0
 10
6.9846861852
 20
6.8510246256
 30
0.0
 10
6.9980817167
 20
6.8641331523
 30
0.0
 10
7.0105565294
 20
6.8785745559
 30
0.0
 10
7.0220716476
 20
6.8943037023
 30
0.0
 10
7.032593968
 20
6.9112701449
 30
0.0
 10
7.0420911625
 20
6.9294215868
 30
0.0
 10
7.0505363749
 20
6.9487012533
 30
0.0
 10
7.0579041112
 20
6.9690501997
 30
0.0
 10
7.0641731078
 20
6.9904058897
 30
0.0
 10
7.0693250217
 20
7.0127027586
 30
0.0
 10
7.073344824
 20
7.0358729863
 30
0.0
 10
7.0762209667
 20
7.0598472203
 30
0.0
 10
7.0779438355
 20
7.084549915
 30
0.0
 10
7.0783174085
 20
7.1012599881
 30
0.0
 10
7.0783174085
 20
7.1097130802
 30
0.0
  0
SPLINE
  5
44B
100
AcDbEntity
  8
02___PRT_ALL_AXES
100
AcDbSpline
 62
7
  6
CONTINUOUS
 70
0
 71
3
 72
44
 73
40
 74
0
 42
0.0000001
 43
0.0000001
 44
0.0000000001
 40
0.0
 40
0.0
 40
0.0
 40
0.0
 40
0.0319440501
 40
0.0647402537
 40
0.0983095426
 40
0.1325763753
 40
0.1674507813
 40
0.2028360907
 40
0.2386305744
 40
0.2747274987
 40
0.3110169285
 40
0.3473869603
 40
0.3837247484
 40
0.4199178199
 40
0.4558552786
 40
0.4914288915
 40
0.5265344734
 40
0.5610731515
 40
0.5949525289
 40
0.6280882472
 40
0.6604055313
 40
0.6918405295
 40
0.7223421207
 40
0.7518739535
 40
0.7804160801
 40
0.80796699
 40
0.8345459926
 40
0.8601948787
 40
0.884979448
 40
0.8970787065
 40
0.9089981498
 40
0.920753164
 40
0.9323604448
 40
0.9438381831
 40
0.9552058734
 40
0.9664840249
 40
0.9776941829
 40
0.9888585994
 40
1.0
 40
1.0
 40
1.0
 40
1.0
 10
7.0783174085
 20
7.1097130802
 30
0.0
 10
7.0783174085
 20
7.1207501503
 30
0.0
 10
7.0776650188
 20
7.1431231007
 30
0.0
 10
7.0748305846
 20
7.1769868362
 30
0.0
 10
7.0701394815
 20
7.2114538877
 30
0.0
 10
7.0636162575
 20
7.2463510865
 30
0.0
 10
7.0552928815
 20
7.2815077204
 30
0.0
 10
7.045210786
 20
7.3167496423
 30
0.0
 10
7.0334197913
 20
7.3519025662
 30
0.0
 10
7.0199781256
 20
7.3867926336
 30
0.0
 10
7.0049526355
 20
7.4212473232
 30
0.0
 10
6.9884175559
 20
7.4550961036
 30
0.0
 10
6.9704544776
 20
7.4881713448
 30
0.0
 10
6.9511526034
 20
7.5203095322
 30
0.0
 10
6.9306074169
 20
7.5513516503
 30
0.0
 10
6.9089202288
 20
7.5811439032
 30
0.0
 10
6.8861984692
 20
7.6095390626
 30
0.0
 10
6.8625545002
 20
7.6363968034
 30
0.0
 10
6.8381047889
 20
7.6615840932
 30
0.0
 10
6.8129699594
 20
7.6849764272
 30
0.0
 10
6.7872739996
 20
7.7064583781
 30
0.0
 10
6.7611431232
 20
7.7259235109
 30
0.0
 10
6.7347054959
 20
7.7432752271
 30
0.0
 10
6.7080908761
 20
7.7584276979
 30
0.0
 10
6.681429299
 20
7.7713052377
 30
0.0
 10
6.6548509089
 20
7.7818425193
 30
0.0
 10
6.6284850335
 20
7.789985846
 30
0.0
 10
6.6024623314
 20
7.7956922684
 30
0.0
 10
6.580993525
 20
7.7984111373
 30
0.0
 10
6.5641496444
 20
7.7993111312
 30
0.0
 10
6.5517840832
 20
7.799358454
 30
0.0
 10
6.5396019662
 20
7.7987838667
 30
0.0
 10
6.5276182226
 20
7.7975873476
 30
0.0
 10
6.5158479994
 20
7.7957701914
 30
0.0
 10
6.5043059217
 20
7.7933351809
 30
0.0
 10
6.4930066897
 20
7.790284518
 30
0.0
 10
6.4819644287
 20
7.7866220917
 30
0.0
 10
6.4711933278
 20
7.7823531421
 30
0.0
 10
6.4641991145
 20
7.779104206
 30
0.0
 10
6.4607560453
 20
7.7773826147
 30
0.0
  0
SPLINE
  5
44C
100
AcDbEntity
  8
02___PRT_ALL_AXES
100
AcDbSpline
 62
7
  6
CONTINUOUS
 70
0
 71
3
 72
43
 73
39
 74
0
 42
0.0000001
 43
0.0000001
 44
0.0000000001
 40
0.0
 40
0.0
 40
0.0
 40
0.0
 40
0.0111414892
 40
0.0223059739
 40
0.0335162308
 40
0.0447944647
 40
0.0561622109
 40
0.0676400742
 40
0.0792474249
 40
0.0910024915
 40
0.115014041
 40
0.1397988344
 40
0.1654478255
 40
0.1920270456
 40
0.219578235
 40
0.2481204834
 40
0.2776525295
 40
0.3081544309
 40
0.3395895959
 40
0.3719070936
 40
0.4050431267
 40
0.4389227195
 40
0.4734616233
 40
0.5085675088
 40
0.5441413686
 40
0.5800790752
 40
0.6162724342
 40
0.6526104784
 40
0.6889807796
 40
0.7252704821
 40
0.7613676633
 40
0.7971624112
 40
0.8325479808
 40
0.8674226944
 40
0.9016896619
 40
0.9352591859
 40
0.9680560781
 40
1.0
 40
1.0
 40
1.0
 40
1.0
 10
6.4975664436
 20
7.795787724
 30
0.0
 10
6.5010095426
 20
7.7975092605
 30
0.0
 10
6.5080037263
 20
7.8007582336
 30
0.0
 10
6.5187747174
 20
7.8050274926
 30
0.0
 10
6.5298171174
 20
7.8086895161
 30
0.0
 10
6.5411162924
 20
7.8117403077
 30
0.0
 10
6.5526583402
 20
7.8141755961
 30
0.0
 10
6.5644285825
 20
7.8159923033
 30
0.0
 10
6.5764124809
 20
7.8171890343
 30
0.0
 10
6.5927687132
 20
7.8179608797
 30
0.0
 10
6.6137183046
 20
7.8173344626
 30
0.0
 10
6.639271514
 20
7.8140971523
 30
0.0
 10
6.6652957545
 20
7.8083911785
 30
0.0
 10
6.6916612241
 20
7.8002477839
 30
0.0
 10
6.7182396003
 20
7.7897101922
 30
0.0
 10
6.7449012696
 20
7.7768329447
 30
0.0
 10
6.7715159382
 20
7.7616805217
 30
0.0
 10
6.7979533795
 20
7.7443285222
 30
0.0
 10
6.8240843709
 20
7.7248635604
 30
0.0
 10
6.8497804263
 20
7.7033817211
 30
0.0
 10
6.8749150589
 20
7.6799891691
 30
0.0
 10
6.8993648269
 20
7.654801942
 30
0.0
 10
6.9230089493
 20
7.6279443386
 30
0.0
 10
6.9457305282
 20
7.599549031
 30
0.0
 10
6.967417703
 20
7.5697567715
 30
0.0
 10
6.98796308
 20
7.538714782
 30
0.0
 10
7.007264808
 20
7.5065765056
 30
0.0
 10
7.0252278232
 20
7.4735012328
 30
0.0
 10
7.0417630914
 20
7.439652546
 30
0.0
 10
7.0567884812
 20
7.4051978097
 30
0.0
 10
7.0702300638
 20
7.3703077162
 30
0.0
 10
7.0820212102
 20
7.3351548473
 30
0.0
 10
7.0921032591
 20
7.2999128905
 30
0.0
 10
7.1004265328
 20
7.2647562598
 30
0.0
 10
7.1069498845
 20
7.2298591143
 30
0.0
 10
7.1116409755
 20
7.1953919474
 30
0.0
 10
7.1144753173
 20
7.161528182
 30
0.0
 10
7.1151277709
 20
7.1391552058
 30
0.0
 10
7.1151277709
 20
7.1281182614
 30
0.0
  0
ENDSEC
  0
SECTION
  2
OBJECTS
  0
DICTIONARY
  5
C
100
AcDbDictionary
280
0
281
1
  3
ACAD_GROUP
350
D
  3
ACAD_MLINESTYLE
350
17
  3
ACAD_LAYOUT
350
1A
  3
ACAD_PLOTSETTINGS
350
19
  3
ACAD_PLOTSTYLENAME
350
E
  3
ACAD_TABLESTYLE
350
       44D
  0
DICTIONARY
  5
D
102
{ACAD_REACTORS
330
C
102
}
100
AcDbDictionary
280
0
281
1
  0
ACDBDICTIONARYWDFLT
  5
E
102
{ACAD_REACTORS
330
C
102
}
100
AcDbDictionary
281
1
  3
Normal
350
F
100
AcDbDictionaryWithDefault
340
F
  0
DICTIONARY
  5
17
102
{ACAD_REACTORS
330
C
102
}
100
AcDbDictionary
280
0
281
1
  3
Standard
350
18
  0
DICTIONARY
  5
44D
330
C
100
AcDbDictionary
281
1
  3
Standard
350
       450
  3
Standard1
350
       451
  0
DICTIONARY
  5
19
102
{ACAD_REACTORS
330
C
102
}
100
AcDbDictionary
281
1
  0
DICTIONARY
  5
1A
102
{ACAD_REACTORS
330
C
102
}
100
AcDbDictionary
281
1
  3
Model
350
44E
  3
Layout1
350
44F
  0
ACDBPLACEHOLDER
  5
F
102
{ACAD_REACTORS
330
E
102
}
  0
MLINESTYLE
  5
18
102
{ACAD_REACTORS
330
17
102
}
100
AcDbMlineStyle
  2
STANDARD
 70
0
  3

 62
256
 51
90.0
 52
90.0
 71
2
 49
0.5
 62
256
  6
BYLAYER
 49
-0.5
 62
256
  6
BYLAYER
  0
LAYOUT
  5
44E
102
{ACAD_REACTORS
330
1A
102
}
100
AcDbPlotSettings
  1

  2
none_device
  4
ANSI_B_(17.00_x_11.00_Inches)
  6

 40
0.0
 41
0.0
 42
0.0
 43
0.0
 44
431.8
 45
279.4
 46
0.0
 47
0.0
 48
0.0
 49
0.0
140
0.0
141
0.0
142
1.0
143
1.0
 70
1024
 72
0
 73
0
 74
0
  7

 75
0
147
1.0
148
0.0
149
0.0
100
AcDbLayout
  1
Model
 70
0
 71
0
 10
0.0
 20
0.0
 11
17.0
 21
11.0
 12
0.0
 22
0.0
 32
0.0
 14
0.0
 24
0.0
 34
0.0
 15
0.0
 25
0.0
 35
0.0
146
0.0
 13
0.0
 23
0.0
 33
0.0
 16
1.0
 26
0.0
 36
0.0
 17
0.0
 27
1.0
 37
0.0
 76
0
330
224
345
0
346
0
  0
LAYOUT
  5
44F
102
{ACAD_REACTORS
330
1A
102
}
100
AcDbPlotSettings
  1

  2
none_device
  4
ANSI_B_(17.00_x_11.00_Inches)
  6

 40
0.0
 41
0.0
 42
0.0
 43
0.0
 44
431.8
 45
279.4
 46
0.0
 47
0.0
 48
0.0
 49
0.0
140
0.0
141
0.0
142
1.0
143
1.0
 70
0
 72
0
 73
0
 74
0
  7

 75
0
147
1.0
148
0.0
149
0.0
100
AcDbLayout
  1
Layout1
 70
0
 71
1
 10
0.0
 20
0.0
 11
17.0
 21
11.0
 12
0.0
 22
0.0
 32
0.0
 14
0.0
 24
0.0
 34
0.0
 15
0.0
 25
0.0
 35
0.0
146
0.0
 13
0.0
 23
0.0
 33
0.0
 16
1.0
 26
0.0
 36
0.0
 17
0.0
 27
1.0
 37
0.0
 76
0
330
225
345
0
346
0
  0
TABLESTYLE
  5
450
102
{ACAD_REACTORS
330
44D
102
}
330
44D
100
AcDbTableStyle
  3
Standard
 70
0
 71
0
 40
0.06
 41
0.06
280
1
281
1
  7
Standard
140
0.18
170
1
 62
0
 63
7
283
0
  7
Standard
140
0.18
170
1
 62
0
 63
7
283
0
  7
Standard
140
0.18
170
1
 62
0
 63
7
283
0
  0
TABLESTYLE
  5
451
102
{ACAD_REACTORS
330
44D
330
27F
102
}
330
44D
100
AcDbTableStyle
  3
Standard1
 70
1
 71
0
 40
0.06
 41
0.06
280
1
281
1
  7
Standard
140
0.18
170
1
 62
0
 63
7
283
0
  7
Standard
140
0.18
170
1
 62
0
 63
7
283
0
  7
Standard
140
0.18
170
1
 62
0
 63
7
283
0
  0
ENDSEC
  0
EOF
