999
DXF file: 193061_1.dxf
999
Pro/ENGINEER 2013230 by Parametric Technology Corporation
  0
SECTION
  2
HEADER
  9
$ACADVER
  1
AC1018
  9
$DWGCODEPAGE
  3
ANSI_1252
  9
$EXTMAX
 10
22.0
 20
17.0
 30
0.0
  9
$EXTMIN
 10
0.0
 20
0.0
 30
0.0
  9
$LIMMIN
 10
0.0
 20
0.0
  9
$LIMMAX
 10
22.0
 20
17.0
  9
$VIEWCTR
 10
11.0
 20
8.5
  9
$VIEWSIZE
 40
17.0
  9
$CLAYER
  8
0
  9
$LTSCALE
 40
1.21
  9
$CELTYPE
  6
BYLAYER
  9
$DIMSCALE
 40
1.0
  9
$DIMASZ
 40
0.1875
  9
$DIMEXO
 40
0.0625
  9
$DIMDLI
 40
0.836
  9
$DIMEXE
 40
0.125
  9
$DIMCEN
 40
0.198
  9
$DIMLFAC
 40
1.0
  9
$DIMBLK
  1
_FILLED
  9
$DIMTXT
 40
0.1
  9
$DIMTOL
 70
1
  9
$DIMLIM
 70
0
  9
$DIMTFAC
 40
1.0
  9
$DIMTP
 40
0.01
  9
$DIMTM
 40
0.01
  9
$DIMGAP
 40
0.09
  9
$DIMDSEP
 70
46
  9
$PDMODE
 70
3
  9
$PDSIZE
 40
0.3125
  9
$HANDSEED
  5
62D
  9
$TILEMODE
 70
1
  9
$MEASUREMENT
 70
0
  9
$INSUNITS
 70
1
  0
ENDSEC
  0
SECTION
  2
CLASSES
  0
CLASS
  1
ACDBDICTIONARYWDFLT
  2
AcDbDictionaryWithDefault
  3
AutoCAD 2000
 90
0
 91
1
280
0
281
0
  0
CLASS
  1
ACDBPLACEHOLDER
  2
AcDbPlaceHolder
  3
AutoCAD 2000
 90
0
 91
1
280
0
281
0
  0
CLASS
  1
LAYOUT
  2
AcDbLayout
  3
AutoCAD 2000
 90
0
 91
0
280
0
281
0
  0
CLASS
  1
TABLESTYLE
  2
AcDbTableStyle
  3
ObjectDBX Classes
 90
2047
 91
1
280
0
281
0
  0
CLASS
  1
ACAD_TABLE
  2
AcDbTable
  3
ObjectDBX Classes
 90
1025
 91
1
280
0
281
1
  0
ENDSEC
  0
SECTION
  2
TABLES
  0
TABLE
  2
VPORT
  5
8
100
AcDbSymbolTable
 70
2
  0
VPORT
  5
1F4
100
AcDbSymbolTableRecord
100
AcDbViewportTableRecord
  2
*ACTIVE
 70
0
 10
0.0
 20
0.0
 11
1.0
 21
1.0
 12
11.0
 22
8.5
 13
0.0
 23
0.0
 14
1.0
 24
1.0
 15
0.0
 25
0.0
 16
0.0
 26
0.0
 36
1.0
 17
0.0
 27
0.0
 37
0.0
 40
17.0
 41
1.2941176471
 42
50.0
 43
0.0
 44
0.0
 50
0.0
 51
0.0
 71
0
 72
100
 73
1
 74
1
 75
0
 76
0
 77
0
 78
0
  0
ENDTAB
  0
TABLE
  2
LTYPE
  5
5
100
AcDbSymbolTable
 70
6
  0
LTYPE
  5
14
100
AcDbSymbolTableRecord
100
AcDbLinetypeTableRecord
  2
BYBLOCK
 70
0
  3

 72
65
 73
0
 40
0.0
  0
LTYPE
  5
15
100
AcDbSymbolTableRecord
100
AcDbLinetypeTableRecord
  2
BYLAYER
 70
0
  3

 72
65
 73
0
 40
0.0
  0
LTYPE
  5
16
100
AcDbSymbolTableRecord
100
AcDbLinetypeTableRecord
  2
CONTINUOUS
 70
64
  3
Solid line
 72
65
 73
0
 40
0.0
  0
LTYPE
  5
1F5
100
AcDbSymbolTableRecord
100
AcDbLinetypeTableRecord
  2
CENTER
 70
64
  3
____ _ ____ _ ____ _ ____ _ ____ _ ____ _ ____
 72
65
 73
4
 40
0.6
 49
0.375
 74
0
 49
-0.075
 74
0
 49
0.075
 74
0
 49
-0.075
 74
0
  0
LTYPE
  5
1F6
100
AcDbSymbolTableRecord
100
AcDbLinetypeTableRecord
  2
HIDDEN
 70
64
  3
- - - - - - - - - - - - - - - - - - - -
 72
65
 73
2
 40
0.2
 49
0.1
 74
0
 49
-0.1
 74
0
  0
LTYPE
  5
1F7
100
AcDbSymbolTableRecord
100
AcDbLinetypeTableRecord
  2
PHANTOM
 70
64
  3
_____ _ _ _____ _ _ _____ _ _ _____
 72
65
 73
6
 40
0.8
 49
0.45
 74
0
 49
-0.05
 74
0
 49
0.1
 74
0
 49
-0.05
 74
0
 49
0.1
 74
0
 49
-0.05
 74
0
  0
LTYPE
  5
1F8
100
AcDbSymbolTableRecord
100
AcDbLinetypeTableRecord
  2
DOT
 70
64
  3
. . . . . . . . . . . . . . . . . . . .
 72
65
 73
2
 40
0.2
 49
0.1
 74
0
 49
-0.1
 74
0
  0
LTYPE
  5
1F9
100
AcDbSymbolTableRecord
100
AcDbLinetypeTableRecord
  2
DASHED
 70
64
  3
- - - - - - - - - - - - - - - - - - - -
 72
65
 73
2
 40
0.2
 49
0.1
 74
0
 49
-0.1
 74
0
  0
ENDTAB
  0
TABLE
  2
LAYER
  5
2
100
AcDbSymbolTable
 70
36
  0
LAYER
  5
10
100
AcDbSymbolTableRecord
100
AcDbLayerTableRecord
  2
0
 70
0
 62
7
  6
CONTINUOUS
370
-3
390
F
  0
LAYER
  5
1FA
100
AcDbSymbolTableRecord
100
AcDbLayerTableRecord
  2
DEFAULT_1
 70
0
 62
7
  6
CENTER
370
-3
390
F
  0
LAYER
  5
1FB
100
AcDbSymbolTableRecord
100
AcDbLayerTableRecord
  2
DEFAULT_2
 70
0
 62
7
  6
HIDDEN
370
-3
390
F
  0
LAYER
  5
1FC
100
AcDbSymbolTableRecord
100
AcDbLayerTableRecord
  2
DEFAULT_3
 70
0
 62
7
  6
PHANTOM
370
-3
390
F
  0
LAYER
  5
1FD
100
AcDbSymbolTableRecord
100
AcDbLayerTableRecord
  2
01_ALL_DTM_PLN
 70
0
 62
7
  6
CONTINUOUS
370
-3
390
F
  0
LAYER
  5
1FE
100
AcDbSymbolTableRecord
100
AcDbLayerTableRecord
  2
01__ASM_ALL_DTM_PLN
 70
0
 62
7
  6
CONTINUOUS
370
-3
390
F
  0
LAYER
  5
1FF
100
AcDbSymbolTableRecord
100
AcDbLayerTableRecord
  2
01__ASM_DEF_DTM_PLN
 70
0
 62
7
  6
CONTINUOUS
370
-3
390
F
  0
LAYER
  5
200
100
AcDbSymbolTableRecord
100
AcDbLayerTableRecord
  2
01___PRT_ALL_DTM_PLN
 70
0
 62
7
  6
CONTINUOUS
370
-3
390
F
  0
LAYER
  5
201
100
AcDbSymbolTableRecord
100
AcDbLayerTableRecord
  2
01___PRT_DEF_DTM_PLN
 70
0
 62
7
  6
CONTINUOUS
370
-3
390
F
  0
LAYER
  5
202
100
AcDbSymbolTableRecord
100
AcDbLayerTableRecord
  2
02_ALL_AXES
 70
0
 62
7
  6
CONTINUOUS
370
-3
390
F
  0
LAYER
  5
203
100
AcDbSymbolTableRecord
100
AcDbLayerTableRecord
  2
02__ASM_ALL_AXES
 70
0
 62
7
  6
CONTINUOUS
370
-3
390
F
  0
LAYER
  5
204
100
AcDbSymbolTableRecord
100
AcDbLayerTableRecord
  2
02___PRT_ALL_AXES
 70
0
 62
7
  6
CONTINUOUS
370
-3
390
F
  0
LAYER
  5
205
100
AcDbSymbolTableRecord
100
AcDbLayerTableRecord
  2
03_ALL_CURVES
 70
0
 62
7
  6
CONTINUOUS
370
-3
390
F
  0
LAYER
  5
206
100
AcDbSymbolTableRecord
100
AcDbLayerTableRecord
  2
03__ASM_ALL_CURVES
 70
0
 62
7
  6
CONTINUOUS
370
-3
390
F
  0
LAYER
  5
207
100
AcDbSymbolTableRecord
100
AcDbLayerTableRecord
  2
03___PRT_ALL_CURVES
 70
0
 62
7
  6
CONTINUOUS
370
-3
390
F
  0
LAYER
  5
208
100
AcDbSymbolTableRecord
100
AcDbLayerTableRecord
  2
04_ALL_DTM_PNT
 70
0
 62
7
  6
CONTINUOUS
370
-3
390
F
  0
LAYER
  5
209
100
AcDbSymbolTableRecord
100
AcDbLayerTableRecord
  2
04__ASM_ALL_DTM_PNT
 70
0
 62
7
  6
CONTINUOUS
370
-3
390
F
  0
LAYER
  5
20A
100
AcDbSymbolTableRecord
100
AcDbLayerTableRecord
  2
04___PRT_ALL_DTM_PNT
 70
0
 62
7
  6
CONTINUOUS
370
-3
390
F
  0
LAYER
  5
20B
100
AcDbSymbolTableRecord
100
AcDbLayerTableRecord
  2
05_ALL_DTM_CSYS
 70
0
 62
7
  6
CONTINUOUS
370
-3
390
F
  0
LAYER
  5
20C
100
AcDbSymbolTableRecord
100
AcDbLayerTableRecord
  2
05__ASM_ALL_DTM_CSYS
 70
0
 62
7
  6
CONTINUOUS
370
-3
390
F
  0
LAYER
  5
20D
100
AcDbSymbolTableRecord
100
AcDbLayerTableRecord
  2
05__ASM_DEF_DTM_CSYS
 70
0
 62
7
  6
CONTINUOUS
370
-3
390
F
  0
LAYER
  5
20E
100
AcDbSymbolTableRecord
100
AcDbLayerTableRecord
  2
05___PRT_ALL_DTM_CSYS
 70
0
 62
7
  6
CONTINUOUS
370
-3
390
F
  0
LAYER
  5
20F
100
AcDbSymbolTableRecord
100
AcDbLayerTableRecord
  2
05___PRT_DEF_DTM_CSYS
 70
0
 62
7
  6
CONTINUOUS
370
-3
390
F
  0
LAYER
  5
210
100
AcDbSymbolTableRecord
100
AcDbLayerTableRecord
  2
06_ALL_SURFS
 70
0
 62
7
  6
CONTINUOUS
370
-3
390
F
  0
LAYER
  5
211
100
AcDbSymbolTableRecord
100
AcDbLayerTableRecord
  2
06__ASM_ALL_SURFS
 70
0
 62
7
  6
CONTINUOUS
370
-3
390
F
  0
LAYER
  5
212
100
AcDbSymbolTableRecord
100
AcDbLayerTableRecord
  2
06___PRT_ALL_SURFS
 70
0
 62
7
  6
CONTINUOUS
370
-3
390
F
  0
LAYER
  5
213
100
AcDbSymbolTableRecord
100
AcDbLayerTableRecord
  2
07__ASM_ALL_SKELETONS
 70
0
 62
7
  6
CONTINUOUS
370
-3
390
F
  0
LAYER
  5
214
100
AcDbSymbolTableRecord
100
AcDbLayerTableRecord
  2
AXIS
 70
0
 62
7
  6
CONTINUOUS
370
-3
390
F
  0
LAYER
  5
215
100
AcDbSymbolTableRecord
100
AcDbLayerTableRecord
  2
AXIS_COSMETIC_THREADS
 70
0
 62
7
  6
CONTINUOUS
370
-3
390
F
  0
LAYER
  5
216
100
AcDbSymbolTableRecord
100
AcDbLayerTableRecord
  2
COSMETIC_THREADS
 70
0
 62
7
  6
CONTINUOUS
370
-3
390
F
  0
LAYER
  5
217
100
AcDbSymbolTableRecord
100
AcDbLayerTableRecord
  2
CSY
 70
0
 62
7
  6
CONTINUOUS
370
-3
390
F
  0
LAYER
  5
218
100
AcDbSymbolTableRecord
100
AcDbLayerTableRecord
  2
CYS
 70
0
 62
7
  6
CONTINUOUS
370
-3
390
F
  0
LAYER
  5
219
100
AcDbSymbolTableRecord
100
AcDbLayerTableRecord
  2
DATUM
 70
0
 62
7
  6
CONTINUOUS
370
-3
390
F
  0
LAYER
  5
21A
100
AcDbSymbolTableRecord
100
AcDbLayerTableRecord
  2
DATUM_CURVES
 70
0
 62
7
  6
CONTINUOUS
370
-3
390
F
  0
LAYER
  5
21B
100
AcDbSymbolTableRecord
100
AcDbLayerTableRecord
  2
DATUM_PLANES
 70
0
 62
7
  6
CONTINUOUS
370
-3
390
F
  0
LAYER
  5
21C
100
AcDbSymbolTableRecord
100
AcDbLayerTableRecord
  2
DEFAULT
 70
0
 62
7
  6
CONTINUOUS
370
-3
390
F
  0
LAYER
  5
21D
100
AcDbSymbolTableRecord
100
AcDbLayerTableRecord
  2
DRIVEN_DIMS
 70
0
 62
7
  6
CONTINUOUS
370
-3
390
F
  0
LAYER
  5
21E
100
AcDbSymbolTableRecord
100
AcDbLayerTableRecord
  2
ECAD_0603
 70
0
 62
7
  6
CONTINUOUS
370
-3
390
F
  0
LAYER
  5
21F
100
AcDbSymbolTableRecord
100
AcDbLayerTableRecord
  2
ECAD_0805
 70
0
 62
7
  6
CONTINUOUS
370
-3
390
F
  0
LAYER
  5
220
100
AcDbSymbolTableRecord
100
AcDbLayerTableRecord
  2
ECAD_0805C
 70
0
 62
7
  6
CONTINUOUS
370
-3
390
F
  0
LAYER
  5
221
100
AcDbSymbolTableRecord
100
AcDbLayerTableRecord
  2
ECAD_1206
 70
0
 62
7
  6
CONTINUOUS
370
-3
390
F
  0
LAYER
  5
222
100
AcDbSymbolTableRecord
100
AcDbLayerTableRecord
  2
ECAD_DPAK
 70
0
 62
7
  6
CONTINUOUS
370
-3
390
F
  0
LAYER
  5
223
100
AcDbSymbolTableRecord
100
AcDbLayerTableRecord
  2
ECAD_SMLEDP
 70
0
 62
7
  6
CONTINUOUS
370
-3
390
F
  0
LAYER
  5
224
100
AcDbSymbolTableRecord
100
AcDbLayerTableRecord
  2
ECAD_SO14
 70
0
 62
7
  6
CONTINUOUS
370
-3
390
F
  0
LAYER
  5
225
100
AcDbSymbolTableRecord
100
AcDbLayerTableRecord
  2
ECAD_SOD87
 70
0
 62
7
  6
CONTINUOUS
370
-3
390
F
  0
LAYER
  5
226
100
AcDbSymbolTableRecord
100
AcDbLayerTableRecord
  2
ECAD_SOT223
 70
0
 62
7
  6
CONTINUOUS
370
-3
390
F
  0
LAYER
  5
227
100
AcDbSymbolTableRecord
100
AcDbLayerTableRecord
  2
ECAD_SOT23
 70
0
 62
7
  6
CONTINUOUS
370
-3
390
F
  0
LAYER
  5
228
100
AcDbSymbolTableRecord
100
AcDbLayerTableRecord
  2
ECAD_TVS1
 70
0
 62
7
  6
CONTINUOUS
370
-3
390
F
  0
LAYER
  5
229
100
AcDbSymbolTableRecord
100
AcDbLayerTableRecord
  2
ECAD_WIRE24
 70
0
 62
7
  6
CONTINUOUS
370
-3
390
F
  0
LAYER
  5
22A
100
AcDbSymbolTableRecord
100
AcDbLayerTableRecord
  2
ECAD_WIRE24_SQ
 70
0
 62
7
  6
CONTINUOUS
370
-3
390
F
  0
LAYER
  5
22B
100
AcDbSymbolTableRecord
100
AcDbLayerTableRecord
  2
HIDDEN
 70
0
 62
7
  6
CONTINUOUS
370
-3
390
F
  0
LAYER
  5
22C
100
AcDbSymbolTableRecord
100
AcDbLayerTableRecord
  2
NOTES
 70
0
 62
7
  6
CONTINUOUS
370
-3
390
F
  0
LAYER
  5
22D
100
AcDbSymbolTableRecord
100
AcDbLayerTableRecord
  2
QUILTS
 70
0
 62
7
  6
CONTINUOUS
370
-3
390
F
  0
LAYER
  5
22E
100
AcDbSymbolTableRecord
100
AcDbLayerTableRecord
  2
SCHEME_DIMS
 70
0
 62
7
  6
CONTINUOUS
370
-3
390
F
  0
LAYER
  5
22F
100
AcDbSymbolTableRecord
100
AcDbLayerTableRecord
  2
SKETCHED_ENT
 70
0
 62
7
  6
CONTINUOUS
370
-3
390
F
  0
LAYER
  5
230
100
AcDbSymbolTableRecord
100
AcDbLayerTableRecord
  2
SURFACE_FINISH
 70
0
 62
7
  6
CONTINUOUS
370
-3
390
F
  0
LAYER
  5
231
100
AcDbSymbolTableRecord
100
AcDbLayerTableRecord
  2
SYMBOLS
 70
0
 62
7
  6
CONTINUOUS
370
-3
390
F
  0
LAYER
  5
232
100
AcDbSymbolTableRecord
100
AcDbLayerTableRecord
  2
WHITE
 70
0
 62
7
  6
CONTINUOUS
370
-3
390
F
  0
LAYER
  5
233
100
AcDbSymbolTableRecord
100
AcDbLayerTableRecord
  2
XSEC_DATUMS
 70
0
 62
7
  6
CONTINUOUS
370
-3
390
F
  0
LAYER
  5
234
100
AcDbSymbolTableRecord
100
AcDbLayerTableRecord
  2
YELLOW
 70
0
 62
7
  6
CONTINUOUS
370
-3
390
F
  0
ENDTAB
  0
TABLE
  2
STYLE
  5
3
100
AcDbSymbolTable
 70
1
  0
STYLE
  5
11
100
AcDbSymbolTableRecord
100
AcDbTextStyleTableRecord
  2
STANDARD
 70
0
 40
0.0
 41
1.0
 50
0.0
 71
0
 42
0.2
  3
txt
  4

  0
STYLE
  5
235
100
AcDbSymbolTableRecord
100
AcDbTextStyleTableRecord
  2
TEXTSTYLE_1
 70
0
 40
0.0
 41
0.8
 50
0.0
 71
0
 42
0.2
  3
gdt
  4

  0
STYLE
  5
236
100
AcDbSymbolTableRecord
100
AcDbTextStyleTableRecord
  2
TEXTSTYLE_2
 70
0
 40
0.0
 41
0.8
 50
0.0
 71
0
 42
0.2
  3
txt
  4

  0
STYLE
  5
237
100
AcDbSymbolTableRecord
100
AcDbTextStyleTableRecord
  2
TEXTSTYLE_3
 70
0
 40
0.0
 41
0.9
 50
0.0
 71
0
 42
0.2
  3
txt
  4

  0
STYLE
  5
238
100
AcDbSymbolTableRecord
100
AcDbTextStyleTableRecord
  2
TEXTSTYLE_4
 70
0
 40
0.0
 41
0.85
 50
0.0
 71
0
 42
0.2
  3
txt
  4

  0
STYLE
  5
239
100
AcDbSymbolTableRecord
100
AcDbTextStyleTableRecord
  2
TEXTSTYLE_5
 70
0
 40
0.0
 41
0.75
 50
0.0
 71
0
 42
0.2
  3
txt
  4

  0
STYLE
  5
23A
100
AcDbSymbolTableRecord
100
AcDbTextStyleTableRecord
  2
TEXTSTYLE_6
 70
0
 40
0.0
 41
1.0
 50
0.0
 71
0
 42
0.2
  3
gdt
  4

  0
ENDTAB
  0
TABLE
  2
VIEW
  5
6
100
AcDbSymbolTable
 70
0
  0
ENDTAB
  0
TABLE
  2
UCS
  5
7
100
AcDbSymbolTable
 70
0
  0
ENDTAB
  0
TABLE
  2
APPID
  5
9
100
AcDbSymbolTable
 70
1
  0
APPID
  5
23B
100
AcDbSymbolTableRecord
100
AcDbRegAppTableRecord
  2
ACAD
 70
0
  0
ENDTAB
  0
TABLE
  2
BLOCK_RECORD
  5
1
100
AcDbSymbolTable
 70
0
  0
BLOCK_RECORD
  5
23C
100
AcDbSymbolTableRecord
100
AcDbBlockTableRecord
  2
*Model_Space
  0
BLOCK_RECORD
  5
23D
100
AcDbSymbolTableRecord
100
AcDbBlockTableRecord
  2
*Paper_Space
  0
BLOCK_RECORD
  5
23E
100
AcDbSymbolTableRecord
100
AcDbBlockTableRecord
  2
_FILLED
  0
BLOCK_RECORD
  5
23F
100
AcDbSymbolTableRecord
100
AcDbBlockTableRecord
  2
*D0
  0
BLOCK_RECORD
  5
240
100
AcDbSymbolTableRecord
100
AcDbBlockTableRecord
  2
*D1
  0
BLOCK_RECORD
  5
241
100
AcDbSymbolTableRecord
100
AcDbBlockTableRecord
  2
*D2
  0
BLOCK_RECORD
  5
242
100
AcDbSymbolTableRecord
100
AcDbBlockTableRecord
  2
*D3
  0
BLOCK_RECORD
  5
243
100
AcDbSymbolTableRecord
100
AcDbBlockTableRecord
  2
*D4
  0
BLOCK_RECORD
  5
244
100
AcDbSymbolTableRecord
100
AcDbBlockTableRecord
  2
*D5
  0
BLOCK_RECORD
  5
245
100
AcDbSymbolTableRecord
100
AcDbBlockTableRecord
  2
*D6
  0
BLOCK_RECORD
  5
246
100
AcDbSymbolTableRecord
100
AcDbBlockTableRecord
  2
*T1
  0
ENDTAB
  0
TABLE
  2
DIMSTYLE
  5
A
100
AcDbSymbolTable
 70
1
100
AcDbDimStyleTable
 71
0
  0
DIMSTYLE
105
247
100
AcDbSymbolTableRecord
100
AcDbDimStyleTableRecord
  2
STANDARD
 70
0
  3

  4

 40
1.0
 41
0.1875
 42
0.0625
 43
0.38
 44
0.125
 45
0.0
 46
0.0
 47
0.01
 48
0.01
140
0.1
141
0.09
142
0.0
143
25.4
144
1.0
145
0.0
146
1.0
147
0.09
 71
1.0
 72
0.0
 73
1
 74
1
 75
0
 76
0
 77
0
 78
4
170
0
171
2
172
0
173
0
174
0
175
0
176
0
177
0
178
0
270
2
271
2
272
2
273
2
274
2
275
0
280
0
281
0
282
0
283
1
284
4
285
0
286
0
287
3
288
0
340
11
278
46
341
23E
342
23E
343
23E
344
23E
  0
DIMSTYLE
105
248
100
AcDbSymbolTableRecord
100
AcDbDimStyleTableRecord
  2
DIMSTYLE_1
 70
0
  3

  4

 40
1.0
 41
0.1875
 42
0.0625
 43
0.38
 44
0.125
 45
0.0
 46
0.0
 47
0.005
 48
0.005
140
0.1
141
0.09
142
0.0
143
25.4
144
1.0
145
0.0
146
1.0
147
0.1
 71
0.0
 72
0.0
 73
1
 74
1
 75
0
 76
0
 77
0
 78
4
170
0
171
2
172
0
173
0
174
0
175
0
176
0
177
0
178
0
270
2
271
1
272
1
273
2
274
2
275
0
280
0
281
0
282
0
283
1
284
4
285
0
286
0
287
3
288
0
340
11
278
46
341
23E
342
23E
343
23E
344
23E
  0
DIMSTYLE
105
249
100
AcDbSymbolTableRecord
100
AcDbDimStyleTableRecord
  2
DIMSTYLE_2
 70
0
  3
<>
  4

 40
1.0
 41
0.1875
 42
0.0625
 43
0.38
 44
0.125
 45
0.0
 46
0.0
 47
0.005
 48
0.005
140
0.1
141
0.09
142
0.0
143
25.4
144
1.0
145
0.0
146
1.0
147
0.09
 71
0.0
 72
0.0
 73
1
 74
1
 75
0
 76
0
 77
0
 78
4
170
0
171
2
172
1
173
0
174
0
175
0
176
0
177
0
178
0
270
2
271
1
272
1
273
2
274
2
275
0
280
0
281
0
282
0
283
1
284
4
285
0
286
0
287
3
288
1
340
11
278
46
289
2
341
23E
342
23E
343
23E
344
23E
  0
ENDTAB
  0
ENDSEC
  0
SECTION
  2
BLOCKS
  0
BLOCK
  5
20
100
AcDbEntity
  8
0
100
AcDbBlockBegin
  2
*Model_Space
 70
0
 10
0.0
 20
0.0
 30
0.0
  3
*Model_Space
  1

  0
ENDBLK
  5
21
100
AcDbEntity
  8
0
100
AcDbBlockEnd
  0
BLOCK
  5
1C
100
AcDbEntity
  8
0
100
AcDbBlockBegin
  2
*Paper_Space
 70
0
 10
0.0
 20
0.0
 30
0.0
  3
*Paper_Space
  1

  0
ENDBLK
  5
1D
100
AcDbEntity
  8
0
100
AcDbBlockEnd
  0
BLOCK
  5
24A
100
AcDbEntity
  8
0
100
AcDbBlockBegin
  2
_FILLED
 70
64
 10
0.0
 20
0.0
  3
_FILLED
  1

  0
SOLID
  5
24B
100
AcDbEntity
  8
0
  6
BYBLOCK
 62
0
100
AcDbTrace
 10
0.0
 20
0.0
 11
-1.0
 21
0.1666666667
 12
-1.0
 22
-0.1666666667
 13
-1.0
 23
-0.1666666667
  0
ENDBLK
  5
24C
100
AcDbEntity
  8
0
  6
BYBLOCK
 62
0
100
AcDbBlockEnd
  0
BLOCK
  5
24D
100
AcDbEntity
  8
DRIVEN_DIMS
100
AcDbBlockBegin
 62
7
  6
CONTINUOUS
  2
*D0
 70
65
 10
0.0
 20
0.0
  3
*D0
  1

  0
MTEXT
  5
24E
100
AcDbEntity
  8
DRIVEN_DIMS
100
AcDbMText
 62
7
  6
CONTINUOUS
  7
STANDARD
 71
2
 72
1
 10
9.1391793969
 20
9.3706322925
 30
0.0
 11
1.0
 21
0.0
 31
0.0
 44
0.9
  1
57.5\P[2.26]
 40
0.1
 41
0.6
  0
LINE
  5
24F
100
AcDbEntity
  8
DRIVEN_DIMS
100
AcDbLine
 62
7
  6
CONTINUOUS
 10
10.3710691607
 20
7.3057210142
 11
10.3710691607
 21
9.4456322925
  0
LINE
  5
250
100
AcDbEntity
  8
DRIVEN_DIMS
100
AcDbLine
 62
7
  6
CONTINUOUS
 10
8.1072896331
 20
8.3286206631
 11
8.1072896331
 21
9.4456322925
  0
LINE
  5
251
100
AcDbEntity
  8
DRIVEN_DIMS
100
AcDbLine
 62
7
  6
CONTINUOUS
 10
10.3710691607
 20
9.3206322925
 11
9.6391793969
 21
9.3206322925
  0
LINE
  5
252
100
AcDbEntity
  8
DRIVEN_DIMS
100
AcDbLine
 62
7
  6
CONTINUOUS
 10
8.1072896331
 20
9.3206322925
 11
8.8391793969
 21
9.3206322925
  0
INSERT
  5
253
100
AcDbEntity
  8
DRIVEN_DIMS
100
AcDbBlockReference
 62
7
  6
CONTINUOUS
  2
_FILLED
 10
10.3710691607
 20
9.3206322925
 41
0.1875
 42
0.1875
 43
0.1875
  0
INSERT
  5
254
100
AcDbEntity
  8
DRIVEN_DIMS
100
AcDbBlockReference
 62
7
  6
CONTINUOUS
  2
_FILLED
 10
8.1072896331
 20
9.3206322925
 41
0.1875
 42
0.1875
 43
0.1875
 50
180.0
  0
ENDBLK
  5
255
100
AcDbEntity
  8
0
  6
BYBLOCK
 62
0
100
AcDbBlockEnd
  0
BLOCK
  5
256
100
AcDbEntity
  8
DRIVEN_DIMS
100
AcDbBlockBegin
 62
7
  6
CONTINUOUS
  2
*D1
 70
65
 10
0.0
 20
0.0
  3
*D1
  1

  0
MTEXT
  5
257
100
AcDbEntity
  8
DRIVEN_DIMS
100
AcDbMText
 62
7
  6
CONTINUOUS
  7
STANDARD
 71
2
 72
1
 10
8.4952817591
 20
8.8699903382
 30
0.0
 11
1.0
 21
0.0
 31
0.0
 44
0.9
  1
22.3\P[.88]
 40
0.1
 41
0.5
  0
LINE
  5
258
100
AcDbEntity
  8
DRIVEN_DIMS
100
AcDbLine
 62
7
  6
CONTINUOUS
 10
8.9832738851
 20
7.8313115654
 11
8.9832738851
 21
8.9449903382
  0
LINE
  5
259
100
AcDbEntity
  8
DRIVEN_DIMS
100
AcDbLine
 62
7
  6
CONTINUOUS
 10
8.1072896331
 20
8.3286206631
 11
8.1072896331
 21
8.9449903382
  0
LINE
  5
25A
100
AcDbEntity
  8
DRIVEN_DIMS
100
AcDbLine
 62
7
  6
CONTINUOUS
 10
8.9832738851
 20
8.8199903382
 11
9.3832738851
 21
8.8199903382
  0
LINE
  5
25B
100
AcDbEntity
  8
DRIVEN_DIMS
100
AcDbLine
 62
7
  6
CONTINUOUS
 10
8.1072896331
 20
8.8199903382
 11
7.7072896331
 21
8.8199903382
  0
INSERT
  5
25C
100
AcDbEntity
  8
DRIVEN_DIMS
100
AcDbBlockReference
 62
7
  6
CONTINUOUS
  2
_FILLED
 10
8.9832738851
 20
8.8199903382
 41
0.1875
 42
0.1875
 43
0.1875
 50
180.0
  0
INSERT
  5
25D
100
AcDbEntity
  8
DRIVEN_DIMS
100
AcDbBlockReference
 62
7
  6
CONTINUOUS
  2
_FILLED
 10
8.1072896331
 20
8.8199903382
 41
0.1875
 42
0.1875
 43
0.1875
  0
ENDBLK
  5
25E
100
AcDbEntity
  8
0
  6
BYBLOCK
 62
0
100
AcDbBlockEnd
  0
BLOCK
  5
25F
100
AcDbEntity
  8
DRIVEN_DIMS
100
AcDbBlockBegin
 62
7
  6
CONTINUOUS
  2
*D2
 70
65
 10
0.0
 20
0.0
  3
*D2
  1

  0
MTEXT
  5
260
100
AcDbEntity
  8
DRIVEN_DIMS
100
AcDbMText
 62
7
  6
CONTINUOUS
  7
TEXTSTYLE_6
 71
3
 72
1
 10
2.7298839844
 20
8.7761809688
 30
0.0
 11
1.0
 21
0.0
 31
0.0
 44
0.9
  1
{\Fgdt;n}\Ftxt;104.0\P[4.09]
 40
0.1
 41
0.6333333333
  0
LINE
  5
261
100
AcDbEntity
  8
DRIVEN_DIMS
100
AcDbLine
 62
7
  6
CONTINUOUS
 10
3.3281189906
 20
8.1519319368
 11
4.140447907
 21
6.2727485733
  0
LINE
  5
262
100
AcDbEntity
  8
DRIVEN_DIMS
100
AcDbLine
 62
7
  6
CONTINUOUS
 10
4.140447907
 20
6.2727485733
 11
3.0798839844
 21
8.7261809688
  0
LINE
  5
263
100
AcDbEntity
  8
DRIVEN_DIMS
100
AcDbLine
 62
7
  6
CONTINUOUS
 10
3.0798839844
 20
8.7261809688
 11
2.9298839844
 21
8.7261809688
  0
LINE
  5
264
100
AcDbEntity
  8
DRIVEN_DIMS
100
AcDbLine
 62
7
  6
CONTINUOUS
 10
4.9527768235
 20
4.3935652097
 11
4.140447907
 21
6.2727485733
  0
INSERT
  5
265
100
AcDbEntity
  8
DRIVEN_DIMS
100
AcDbBlockReference
 62
7
  6
CONTINUOUS
  2
_FILLED
 10
3.3281189906
 20
8.1519319368
 41
0.1875
 42
0.1875
 43
0.1875
 50
113.377748035
  0
INSERT
  5
266
100
AcDbEntity
  8
DRIVEN_DIMS
100
AcDbBlockReference
 62
7
  6
CONTINUOUS
  2
_FILLED
 10
4.9527768235
 20
4.3935652097
 41
0.1875
 42
0.1875
 43
0.1875
 50
293.377748035
  0
ENDBLK
  5
267
100
AcDbEntity
  8
0
  6
BYBLOCK
 62
0
100
AcDbBlockEnd
  0
BLOCK
  5
268
100
AcDbEntity
  8
DRIVEN_DIMS
100
AcDbBlockBegin
 62
7
  6
CONTINUOUS
  2
*D3
 70
65
 10
0.0
 20
0.0
  3
*D3
  1

  0
MTEXT
  5
269
100
AcDbEntity
  8
DRIVEN_DIMS
100
AcDbMText
 62
7
  6
CONTINUOUS
  7
STANDARD
 71
2
 72
1
 10
15.628750404
 20
5.6300499295
 30
0.0
 11
1.0
 21
0.0
 31
0.0
 44
0.9
  1
35.2\P[1.39]
 40
0.1
 41
0.6
  0
LINE
  5
26A
100
AcDbEntity
  8
DRIVEN_DIMS
100
AcDbLine
 62
7
  6
CONTINUOUS
 10
15.8958830143
 20
6.2727485733
 11
15.603750404
 21
6.2727485733
  0
LINE
  5
26B
100
AcDbEntity
  8
DRIVEN_DIMS
100
AcDbLine
 62
7
  6
CONTINUOUS
 10
18.2585230705
 20
4.8873512858
 11
15.603750404
 21
4.8873512858
  0
LINE
  5
26C
100
AcDbEntity
  8
DRIVEN_DIMS
100
AcDbLine
 62
7
  6
CONTINUOUS
 10
15.728750404
 20
6.2727485733
 11
15.728750404
 21
5.7300499295
  0
LINE
  5
26D
100
AcDbEntity
  8
DRIVEN_DIMS
100
AcDbLine
 62
7
  6
CONTINUOUS
 10
15.728750404
 20
4.8873512858
 11
15.728750404
 21
5.2800499295
  0
INSERT
  5
26E
100
AcDbEntity
  8
DRIVEN_DIMS
100
AcDbBlockReference
 62
7
  6
CONTINUOUS
  2
_FILLED
 10
15.728750404
 20
6.2727485733
 41
0.1875
 42
0.1875
 43
0.1875
 50
90.0
  0
INSERT
  5
26F
100
AcDbEntity
  8
DRIVEN_DIMS
100
AcDbBlockReference
 62
7
  6
CONTINUOUS
  2
_FILLED
 10
15.728750404
 20
4.8873512858
 41
0.1875
 42
0.1875
 43
0.1875
 50
270.0
  0
ENDBLK
  5
270
100
AcDbEntity
  8
0
  6
BYBLOCK
 62
0
100
AcDbBlockEnd
  0
BLOCK
  5
271
100
AcDbEntity
  8
DRIVEN_DIMS
100
AcDbBlockBegin
 62
7
  6
CONTINUOUS
  2
*D4
 70
65
 10
0.0
 20
0.0
  3
*D4
  1

  0
MTEXT
  5
272
100
AcDbEntity
  8
DRIVEN_DIMS
100
AcDbMText
 62
7
  6
CONTINUOUS
  7
STANDARD
 71
1
 72
1
 10
19.1900829701
 20
3.7755068084
 30
0.0
 11
1.0
 21
0.0
 31
0.0
 44
0.9
  1
11.4\P[.45]
 40
0.1
 41
0.5
  0
LINE
  5
273
100
AcDbEntity
  8
DRIVEN_DIMS
100
AcDbLine
 62
7
  6
CONTINUOUS
 10
18.2759983149
 20
3.8926332727
 11
18.2759983149
 21
3.6005068084
  0
LINE
  5
274
100
AcDbEntity
  8
DRIVEN_DIMS
100
AcDbLine
 62
7
  6
CONTINUOUS
 10
18.7261411807
 20
4.4197331755
 11
18.7261411807
 21
3.6005068084
  0
LINE
  5
275
100
AcDbEntity
  8
DRIVEN_DIMS
100
AcDbLine
 62
7
  6
CONTINUOUS
 10
18.2759983149
 20
3.7255068084
 11
17.8759983149
 21
3.7255068084
  0
LINE
  5
276
100
AcDbEntity
  8
DRIVEN_DIMS
100
AcDbLine
 62
7
  6
CONTINUOUS
 10
18.7261411807
 20
3.7255068084
 11
19.0900829701
 21
3.7255068084
  0
INSERT
  5
277
100
AcDbEntity
  8
DRIVEN_DIMS
100
AcDbBlockReference
 62
7
  6
CONTINUOUS
  2
_FILLED
 10
18.2759983149
 20
3.7255068084
 41
0.1875
 42
0.1875
 43
0.1875
  0
INSERT
  5
278
100
AcDbEntity
  8
DRIVEN_DIMS
100
AcDbBlockReference
 62
7
  6
CONTINUOUS
  2
_FILLED
 10
18.7261411807
 20
3.7255068084
 41
0.1875
 42
0.1875
 43
0.1875
 50
180.0
  0
ENDBLK
  5
279
100
AcDbEntity
  8
0
  6
BYBLOCK
 62
0
100
AcDbBlockEnd
  0
BLOCK
  5
27A
100
AcDbEntity
  8
DRIVEN_DIMS
100
AcDbBlockBegin
 62
7
  6
CONTINUOUS
  2
*D5
 70
65
 10
0.0
 20
0.0
  3
*D5
  1

  0
MTEXT
  5
27B
100
AcDbEntity
  8
DRIVEN_DIMS
100
AcDbMText
 62
7
  6
CONTINUOUS
  7
TEXTSTYLE_6
 71
1
 72
1
 10
19.9897765652
 20
8.2680147126
 30
0.0
 11
1.0
 21
0.0
 31
0.0
 44
0.9
  1
{\Fgdt;n}\Ftxt;50.5\P[1.99]
 40
0.1
 41
0.6
  0
LINE
  5
27C
100
AcDbEntity
  8
DRIVEN_DIMS
100
AcDbLine
 62
7
  6
CONTINUOUS
 10
18.8737161608
 20
7.0670767348
 11
18.2759983149
 21
6.2727485733
  0
LINE
  5
27D
100
AcDbEntity
  8
DRIVEN_DIMS
100
AcDbLine
 62
7
  6
CONTINUOUS
 10
18.2759983149
 20
6.2727485733
 11
19.7397765652
 21
8.2180147126
  0
LINE
  5
27E
100
AcDbEntity
  8
DRIVEN_DIMS
100
AcDbLine
 62
7
  6
CONTINUOUS
 10
19.7397765652
 20
8.2180147126
 11
19.8897765652
 21
8.2180147126
  0
LINE
  5
27F
100
AcDbEntity
  8
DRIVEN_DIMS
100
AcDbLine
 62
7
  6
CONTINUOUS
 10
17.6782804691
 20
5.4784204118
 11
18.2759983149
 21
6.2727485733
  0
INSERT
  5
280
100
AcDbEntity
  8
DRIVEN_DIMS
100
AcDbBlockReference
 62
7
  6
CONTINUOUS
  2
_FILLED
 10
18.8737161608
 20
7.0670767348
 41
0.1875
 42
0.1875
 43
0.1875
 50
53.0391882182
  0
INSERT
  5
281
100
AcDbEntity
  8
DRIVEN_DIMS
100
AcDbBlockReference
 62
7
  6
CONTINUOUS
  2
_FILLED
 10
17.6782804691
 20
5.4784204118
 41
0.1875
 42
0.1875
 43
0.1875
 50
233.0391882182
  0
ENDBLK
  5
282
100
AcDbEntity
  8
0
  6
BYBLOCK
 62
0
100
AcDbBlockEnd
  0
BLOCK
  5
283
100
AcDbEntity
  8
DRIVEN_DIMS
100
AcDbBlockBegin
 62
7
  6
CONTINUOUS
  2
*D6
 70
65
 10
0.0
 20
0.0
  3
*D6
  1

  0
MTEXT
  5
284
100
AcDbEntity
  8
DRIVEN_DIMS
100
AcDbMText
 62
7
  6
CONTINUOUS
  7
STANDARD
 71
3
 72
1
 10
17.2431869408
 20
3.7755068084
 30
0.0
 11
1.0
 21
0.0
 31
0.0
 44
0.9
  1
REF \Fgdt;{\Fgdt;n}\Ftxt;74.0\P[2.91]
 40
0.1
 41
0.9333333333
  0
LINE
  5
285
100
AcDbEntity
  8
DRIVEN_DIMS
100
AcDbLine
 62
7
  6
CONTINUOUS
 10
17.9510398069
 20
4.8524813648
 11
17.6931869408
 21
3.7255068084
  0
LINE
  5
286
100
AcDbEntity
  8
DRIVEN_DIMS
100
AcDbLine
 62
7
  6
CONTINUOUS
 10
17.6931869408
 20
3.7255068084
 11
17.5431869408
 21
3.7255068084
  0
INSERT
  5
287
100
AcDbEntity
  8
DRIVEN_DIMS
100
AcDbBlockReference
 62
7
  6
CONTINUOUS
  2
_FILLED
 10
17.9510398069
 20
4.8524813648
 41
0.1875
 42
0.1875
 43
0.1875
 50
77.1125005721
  0
ENDBLK
  5
288
100
AcDbEntity
  8
0
  6
BYBLOCK
 62
0
100
AcDbBlockEnd
  0
BLOCK
  5
289
100
AcDbEntity
  8
0
100
AcDbBlockBegin
  2
*T1
 70
1
 10
0.0
 20
0.0
  3
*T1
  1

  0
LINE
  5
28A
100
AcDbEntity
  8
0
100
AcDbLine
 62
7
  6
CONTINUOUS
 10
4.35
 20
0.0
 11
0.0
 21
0.0
  0
LINE
  5
28B
100
AcDbEntity
  8
0
100
AcDbLine
 62
7
  6
CONTINUOUS
 10
4.35
 20
0.0
 11
4.35
 21
1.92
  0
LINE
  5
28C
100
AcDbEntity
  8
0
100
AcDbLine
 62
7
  6
CONTINUOUS
 10
4.35
 20
1.92
 11
0.0
 21
1.92
  0
LINE
  5
28D
100
AcDbEntity
  8
0
100
AcDbLine
 62
7
  6
CONTINUOUS
 10
0.0
 20
0.0
 11
0.0
 21
1.92
  0
MTEXT
  5
28E
100
AcDbEntity
  8
NOTES
100
AcDbMText
 62
7
  6
CONTINUOUS
  7
STANDARD
 71
2
 72
1
 10
4.125
 20
0.48
 30
0.0
 11
1.0
 21
0.0
 31
0.0
 44
0.9
  1
A
 40
0.1
 41
0.2
  0
MTEXT
  5
28F
100
AcDbEntity
  8
NOTES
100
AcDbMText
 62
7
  6
CONTINUOUS
  7
STANDARD
 71
2
 72
1
 10
2.175
 20
0.93
 30
0.0
 11
1.0
 21
0.0
 31
0.0
 44
0.9
  1
LEDRR90S-P
 40
0.1
 41
2.0
  0
ENDBLK
  5
290
100
AcDbEntity
  8
0
  6
BYBLOCK
 62
0
100
AcDbBlockEnd
  0
ENDSEC
  0
SECTION
  2
ENTITIES
  0
MTEXT
  5
291
100
AcDbEntity
  8
0
100
AcDbMText
 62
7
  6
CONTINUOUS
  7
TEXTSTYLE_2
 71
2
 72
1
 10
15.7174677477
 20
1.6655662523
 30
0.0
 11
1.0
 21
0.0
 31
0.0
 44
0.9
  1
THIRD ANGLE PROJECTION
 40
0.1
 41
1.76
  0
MTEXT
  5
292
100
AcDbEntity
  8
0
100
AcDbMText
 62
7
  6
CONTINUOUS
  7
STANDARD
 71
1
 72
1
 10
17.55
 20
1.32
 30
0.0
 11
1.0
 21
0.0
 31
0.0
 44
0.9
  1
DRAWING NO.
 40
0.08
 41
0.88
  0
MTEXT
  5
293
100
AcDbEntity
  8
0
100
AcDbMText
 62
7
  6
CONTINUOUS
  7
TEXTSTYLE_2
 71
1
 72
1
 10
16.75
 20
2.08
 30
0.0
 11
1.0
 21
0.0
 31
0.0
 44
0.9
  1
TITLE
 40
0.1
 41
0.4
  0
MTEXT
  5
294
100
AcDbEntity
  8
0
100
AcDbMText
 62
7
  6
CONTINUOUS
  7
STANDARD
 71
1
 72
1
 10
16.75
 20
1.32
 30
0.0
 11
1.0
 21
0.0
 31
0.0
 44
0.9
  1
SIZE
 40
0.08
 41
0.32
  0
MTEXT
  5
295
100
AcDbEntity
  8
0
100
AcDbMText
 62
7
  6
CONTINUOUS
  7
STANDARD
 71
1
 72
1
 10
16.75
 20
0.95
 30
0.0
 11
1.0
 21
0.0
 31
0.0
 44
0.9
  1
SCALE
 40
0.08
 41
0.4
  0
MTEXT
  5
296
100
AcDbEntity
  8
0
100
AcDbMText
 62
7
  6
CONTINUOUS
  7
TEXTSTYLE_2
 71
2
 72
1
 10
17.17
 20
1.2
 30
0.0
 11
1.0
 21
0.0
 31
0.0
 44
0.9
  1
C
 40
0.1
 41
0.08
  0
MTEXT
  5
297
100
AcDbEntity
  8
0
100
AcDbMText
 62
7
  6
CONTINUOUS
  7
STANDARD
 71
1
 72
1
 10
18.925
 20
0.95
 30
0.0
 11
1.0
 21
0.0
 31
0.0
 44
0.9
  1
SHEET
 40
0.08
 41
0.4
  0
MTEXT
  5
298
100
AcDbEntity
  8
0
100
AcDbMText
 62
7
  6
CONTINUOUS
  7
STANDARD
 71
1
 72
1
 10
20.3
 20
1.32
 30
0.0
 11
1.0
 21
0.0
 31
0.0
 44
0.9
  1
REV.
 40
0.08
 41
0.32
  0
MTEXT
  5
299
100
AcDbEntity
  8
0
100
AcDbMText
 62
7
  6
CONTINUOUS
  7
STANDARD
 71
3
 72
1
 10
21.05
 20
0.698443
 30
0.0
 11
1.0
 21
0.0
 31
0.0
 44
0.9
  1
CREO
 40
0.07
 41
0.28
  0
MTEXT
  5
29A
100
AcDbEntity
  8
0
100
AcDbMText
 62
7
  6
CONTINUOUS
  7
TEXTSTYLE_2
 71
2
 72
1
 10
12.257
 20
15.95
 30
0.0
 11
1.0
 21
0.0
 31
0.0
 44
0.9
  1
4
 40
0.1
 41
0.08
  0
MTEXT
  5
29B
100
AcDbEntity
  8
0
100
AcDbMText
 62
7
  6
CONTINUOUS
  7
TEXTSTYLE_2
 71
2
 72
1
 10
12.257
 20
0.65
 30
0.0
 11
1.0
 21
0.0
 31
0.0
 44
0.9
  1
4
 40
0.1
 41
0.08
  0
MTEXT
  5
29C
100
AcDbEntity
  8
0
100
AcDbMText
 62
7
  6
CONTINUOUS
  7
TEXTSTYLE_2
 71
3
 72
1
 10
0.864
 20
6.375
 30
0.0
 11
1.0
 21
0.0
 31
0.0
 44
0.9
  1
B
 40
0.1
 41
0.08
  0
MTEXT
  5
29D
100
AcDbEntity
  8
0
100
AcDbMText
 62
7
  6
CONTINUOUS
  7
TEXTSTYLE_2
 71
1
 72
1
 10
21.15
 20
6.375
 30
0.0
 11
1.0
 21
0.0
 31
0.0
 44
0.9
  1
B
 40
0.1
 41
0.08
  0
MTEXT
  5
29E
100
AcDbEntity
  8
0
100
AcDbMText
 62
7
  6
CONTINUOUS
  7
TEXTSTYLE_2
 71
3
 72
1
 10
0.864
 20
2.525
 30
0.0
 11
1.0
 21
0.0
 31
0.0
 44
0.9
  1
A
 40
0.1
 41
0.08
  0
MTEXT
  5
29F
100
AcDbEntity
  8
0
100
AcDbMText
 62
7
  6
CONTINUOUS
  7
TEXTSTYLE_2
 71
1
 72
1
 10
21.15
 20
2.525
 30
0.0
 11
1.0
 21
0.0
 31
0.0
 44
0.9
  1
A
 40
0.1
 41
0.08
  0
MTEXT
  5
2A0
100
AcDbEntity
  8
0
100
AcDbMText
 62
7
  6
CONTINUOUS
  7
TEXTSTYLE_2
 71
3
 72
1
 10
0.864
 20
14.075
 30
0.0
 11
1.0
 21
0.0
 31
0.0
 44
0.9
  1
D
 40
0.1
 41
0.08
  0
MTEXT
  5
2A1
100
AcDbEntity
  8
0
100
AcDbMText
 62
7
  6
CONTINUOUS
  7
TEXTSTYLE_2
 71
1
 72
1
 10
21.15
 20
14.075
 30
0.0
 11
1.0
 21
0.0
 31
0.0
 44
0.9
  1
D
 40
0.1
 41
0.08
  0
MTEXT
  5
2A2
100
AcDbEntity
  8
0
100
AcDbMText
 62
7
  6
CONTINUOUS
  7
TEXTSTYLE_2
 71
3
 72
1
 10
0.864
 20
10.225
 30
0.0
 11
1.0
 21
0.0
 31
0.0
 44
0.9
  1
C
 40
0.1
 41
0.08
  0
MTEXT
  5
2A3
100
AcDbEntity
  8
0
100
AcDbMText
 62
7
  6
CONTINUOUS
  7
TEXTSTYLE_2
 71
1
 72
1
 10
21.15
 20
10.225
 30
0.0
 11
1.0
 21
0.0
 31
0.0
 44
0.9
  1
C
 40
0.1
 41
0.08
  0
MTEXT
  5
2A4
100
AcDbEntity
  8
0
100
AcDbMText
 62
7
  6
CONTINUOUS
  7
TEXTSTYLE_2
 71
2
 72
1
 10
14.757
 20
0.65
 30
0.0
 11
1.0
 21
0.0
 31
0.0
 44
0.9
  1
3
 40
0.1
 41
0.08
  0
MTEXT
  5
2A5
100
AcDbEntity
  8
0
100
AcDbMText
 62
7
  6
CONTINUOUS
  7
TEXTSTYLE_2
 71
2
 72
1
 10
14.757
 20
15.95
 30
0.0
 11
1.0
 21
0.0
 31
0.0
 44
0.9
  1
3
 40
0.1
 41
0.08
  0
MTEXT
  5
2A6
100
AcDbEntity
  8
0
100
AcDbMText
 62
7
  6
CONTINUOUS
  7
TEXTSTYLE_2
 71
2
 72
1
 10
17.257
 20
15.95
 30
0.0
 11
1.0
 21
0.0
 31
0.0
 44
0.9
  1
2
 40
0.1
 41
0.08
  0
MTEXT
  5
2A7
100
AcDbEntity
  8
0
100
AcDbMText
 62
7
  6
CONTINUOUS
  7
TEXTSTYLE_2
 71
2
 72
1
 10
17.257
 20
0.65
 30
0.0
 11
1.0
 21
0.0
 31
0.0
 44
0.9
  1
2
 40
0.1
 41
0.08
  0
MTEXT
  5
2A8
100
AcDbEntity
  8
0
100
AcDbMText
 62
7
  6
CONTINUOUS
  7
TEXTSTYLE_2
 71
2
 72
1
 10
19.757
 20
0.65
 30
0.0
 11
1.0
 21
0.0
 31
0.0
 44
0.9
  1
1
 40
0.1
 41
0.08
  0
MTEXT
  5
2A9
100
AcDbEntity
  8
0
100
AcDbMText
 62
7
  6
CONTINUOUS
  7
TEXTSTYLE_2
 71
2
 72
1
 10
19.757
 20
15.95
 30
0.0
 11
1.0
 21
0.0
 31
0.0
 44
0.9
  1
1
 40
0.1
 41
0.08
  0
MTEXT
  5
2AA
100
AcDbEntity
  8
0
100
AcDbMText
 62
7
  6
CONTINUOUS
  7
TEXTSTYLE_2
 71
2
 72
1
 10
2.257
 20
0.65
 30
0.0
 11
1.0
 21
0.0
 31
0.0
 44
0.9
  1
8
 40
0.1
 41
0.08
  0
MTEXT
  5
2AB
100
AcDbEntity
  8
0
100
AcDbMText
 62
7
  6
CONTINUOUS
  7
TEXTSTYLE_2
 71
2
 72
1
 10
4.757
 20
0.65
 30
0.0
 11
1.0
 21
0.0
 31
0.0
 44
0.9
  1
7
 40
0.1
 41
0.08
  0
MTEXT
  5
2AC
100
AcDbEntity
  8
0
100
AcDbMText
 62
7
  6
CONTINUOUS
  7
TEXTSTYLE_2
 71
2
 72
1
 10
7.257
 20
0.65
 30
0.0
 11
1.0
 21
0.0
 31
0.0
 44
0.9
  1
6
 40
0.1
 41
0.08
  0
MTEXT
  5
2AD
100
AcDbEntity
  8
0
100
AcDbMText
 62
7
  6
CONTINUOUS
  7
TEXTSTYLE_2
 71
2
 72
1
 10
9.757
 20
0.65
 30
0.0
 11
1.0
 21
0.0
 31
0.0
 44
0.9
  1
5
 40
0.1
 41
0.08
  0
MTEXT
  5
2AE
100
AcDbEntity
  8
0
100
AcDbMText
 62
7
  6
CONTINUOUS
  7
TEXTSTYLE_2
 71
2
 72
1
 10
9.757
 20
15.95
 30
0.0
 11
1.0
 21
0.0
 31
0.0
 44
0.9
  1
5
 40
0.1
 41
0.08
  0
MTEXT
  5
2AF
100
AcDbEntity
  8
0
100
AcDbMText
 62
7
  6
CONTINUOUS
  7
TEXTSTYLE_2
 71
2
 72
1
 10
7.257
 20
15.95
 30
0.0
 11
1.0
 21
0.0
 31
0.0
 44
0.9
  1
6
 40
0.1
 41
0.08
  0
MTEXT
  5
2B0
100
AcDbEntity
  8
0
100
AcDbMText
 62
7
  6
CONTINUOUS
  7
TEXTSTYLE_2
 71
2
 72
1
 10
4.757
 20
15.95
 30
0.0
 11
1.0
 21
0.0
 31
0.0
 44
0.9
  1
7
 40
0.1
 41
0.08
  0
MTEXT
  5
2B1
100
AcDbEntity
  8
0
100
AcDbMText
 62
7
  6
CONTINUOUS
  7
TEXTSTYLE_2
 71
2
 72
1
 10
2.257
 20
15.95
 30
0.0
 11
1.0
 21
0.0
 31
0.0
 44
0.9
  1
8
 40
0.1
 41
0.08
  0
MTEXT
  5
2B2
100
AcDbEntity
  8
0
100
AcDbMText
 62
7
  6
CONTINUOUS
  7
STANDARD
 71
1
 72
1
 10
17.2749123633
 20
0.9184107931
 30
0.0
 11
1.0
 21
0.0
 31
0.0
 44
0.9
  1
1:1
 40
0.1
 41
0.3
  0
MTEXT
  5
2B3
100
AcDbEntity
  8
0
100
AcDbMText
 62
7
  6
CONTINUOUS
  7
STANDARD
 71
1
 72
1
 10
19.4499123633
 20
0.9184107931
 30
0.0
 11
1.0
 21
0.0
 31
0.0
 44
0.9
  1
1 OF 1
 40
0.1
 41
0.6
  0
MTEXT
  5
2B4
100
AcDbEntity
  8
0
100
AcDbMText
 62
7
  6
CONTINUOUS
  7
STANDARD
 71
1
 72
1
 10
18.5204017884
 20
1.2400373234
 30
0.0
 11
1.0
 21
0.0
 31
0.0
 44
0.9
  1
193061
 40
0.12
 41
0.72
  0
MTEXT
  5
2B5
100
AcDbEntity
  8
0
100
AcDbMText
 62
7
  6
CONTINUOUS
  7
STANDARD
 71
1
 72
1
 10
1.2857894151
 20
1.4458068967
 30
0.0
 11
1.0
 21
0.0
 31
0.0
 44
0.9
  1
NOTES:\P1. ALL DIMENSIONS ARE MILLIMETERS [INCHES] UNLESS OTHERWISE NOTED.\P2. REFER TO "www.bannerengineering.com" FOR ADDITIONAL DATA AND SPECIFICATIONS.
 40
0.1
 41
7.9
  0
MTEXT
  5
2B6
100
AcDbEntity
  8
0
100
AcDbMText
 62
7
  6
CONTINUOUS
  7
TEXTSTYLE_3
 71
2
 72
1
 10
19.7555637832
 20
2.555409194
 30
0.0
 11
1.0
 21
0.0
 31
0.0
 44
0.9
  1
BANNER ENGINEERING CORP.
 40
0.12
 41
2.592
  0
MTEXT
  5
2B7
100
AcDbEntity
  8
0
100
AcDbMText
 62
7
  6
CONTINUOUS
  7
TEXTSTYLE_2
 71
2
 72
1
 10
19.6690932526
 20
2.3442032634
 30
0.0
 11
1.0
 21
0.0
 31
0.0
 44
0.9
  1
www.bannerengineering.com
 40
0.1
 41
2.0
  0
MTEXT
  5
2B8
100
AcDbEntity
  8
0
100
AcDbMText
 62
7
  6
CONTINUOUS
  7
TEXTSTYLE_4
 71
2
 72
1
 10
15.7104628329
 20
2.6377571551
 30
0.0
 11
1.0
 21
0.0
 31
0.0
 44
0.9
  1
This drawing is the property\Pof BANNER ENGINEERING CORP.\PAny use or reproduction,\Pin any form, without prior\Pwritten permission of\PBanner is prohibited.
 40
0.08
 41
1.904
  0
MTEXT
  5
2B9
100
AcDbEntity
  8
0
100
AcDbMText
 62
7
  6
CONTINUOUS
  7
TEXTSTYLE_5
 71
2
 72
1
 10
15.7283993136
 20
1.9032170366
 30
0.0
 11
1.0
 21
0.0
 31
0.0
 44
0.9
  1
C  2015 Banner Engineering Corp.
 40
0.08
 41
1.92
  0
DIMENSION
  5
2BA
100
AcDbEntity
  8
DRIVEN_DIMS
100
AcDbDimension
 62
7
  6
CONTINUOUS
  2
*D0
 10
8.1072896331
 20
9.3206322925
 11
9.2391793969
 21
9.2456322925
 70
160
 71
2
 42
57.5
  3
DIMSTYLE_1
100
AcDbAlignedDimension
 13
10.3710691607
 23
7.2432210142
 14
8.1072896331
 24
8.2661206631
 50
180.0
100
AcDbRotatedDimension
  0
DIMENSION
  5
2BB
100
AcDbEntity
  8
DRIVEN_DIMS
100
AcDbDimension
 62
7
  6
CONTINUOUS
  2
*D1
 10
8.1072896331
 20
8.8199903382
 11
8.5452817591
 21
8.7449903382
 70
160
 71
2
 42
22.25
  3
DIMSTYLE_1
100
AcDbAlignedDimension
 13
8.9832738851
 23
7.7688115654
 14
8.1072896331
 24
8.2661206631
 50
180.0
100
AcDbRotatedDimension
  0
DIMENSION
  5
2BC
100
AcDbEntity
  8
DRIVEN_DIMS
100
AcDbDimension
 62
7
  6
CONTINUOUS
  2
*D2
 10
3.3281189906
 20
8.1519319368
 11
2.4632173177
 21
8.6511809688
 70
163
 71
3
 42
104.0
  1
%%c<>
  3
DIMSTYLE_2
100
AcDbDiametricDimension
 15
4.9527768235
 25
4.3935652097
  0
DIMENSION
  5
2BD
100
AcDbEntity
  8
DRIVEN_DIMS
100
AcDbDimension
 62
7
  6
CONTINUOUS
  2
*D3
 10
15.728750404
 20
4.8873512858
 11
15.728750404
 21
5.5050499295
 70
160
 71
2
 42
35.1890911029
  3
DIMSTYLE_1
100
AcDbAlignedDimension
 13
15.9583830143
 23
6.2727485733
 14
18.3210230705
 24
4.8873512858
 50
270.0
100
AcDbRotatedDimension
  0
DIMENSION
  5
2BE
100
AcDbEntity
  8
DRIVEN_DIMS
100
AcDbDimension
 62
7
  6
CONTINUOUS
  2
*D4
 10
18.7261411807
 20
3.7255068084
 11
19.4400829701
 21
3.6505068084
 70
160
 71
1
 42
11.4336287919
  3
DIMSTYLE_1
100
AcDbAlignedDimension
 13
18.2759983149
 23
3.9551332727
 14
18.7261411807
 24
4.4822331755
100
AcDbRotatedDimension
  0
DIMENSION
  5
2BF
100
AcDbEntity
  8
DRIVEN_DIMS
100
AcDbDimension
 62
7
  6
CONTINUOUS
  2
*D5
 10
18.8737161608
 20
7.0670767348
 11
20.3564432319
 21
8.1430147126
 70
163
 71
1
 42
50.5
  1
%%c<>
  3
DIMSTYLE_2
100
AcDbDiametricDimension
 15
17.6782804691
 25
5.4784204118
  0
DIMENSION
  5
2C0
100
AcDbEntity
  8
DRIVEN_DIMS
100
AcDbDimension
 62
7
  6
CONTINUOUS
  2
*D6
 10
17.9510398069
 20
4.8524813648
 11
16.8765202741
 21
3.6505068084
 70
163
 71
3
 42
74.0139957121
  1
REF %%c<>
  3
DIMSTYLE_2
100
AcDbDiametricDimension
 15
18.6009568229
 25
7.6930157818
  0
ACAD_TABLE
  5
2C1
100
AcDbEntity
  8
0
 62
7
  6
CONTINUOUS
100
AcDbBlockReference
  2
*T1
 10
16.7
 20
0.75
 30
0.0
100
AcDbTable
342
       62C
343
246
 11
1.0
 21
0.0
 31
0.0
 90
6
 91
3
 92
5
 93
4
 94
0
 95
0
 96
0
 70
1
141
0.33
141
0.45
141
1.14
142
0.65
142
1.15
142
1.025
142
1.075
142
0.45
171
1
172
0
173
0
174
0
175
1
176
1
177
33
178
0
145
0.0
  1
 
170
1
140
0.1
171
1
172
0
173
0
174
0
175
1
176
1
177
33
178
0
145
0.0
  1
 
170
1
140
0.1
171
1
172
0
173
0
174
0
175
1
176
1
177
33
178
0
145
0.0
  1
 
170
1
140
0.1
171
1
172
0
173
0
174
0
175
1
176
1
177
33
178
0
145
0.0
  1
 
170
1
140
0.1
171
1
172
0
173
0
174
0
175
1
176
1
177
33
178
0
145
0.0
  1
 
170
1
140
0.1
171
1
172
0
173
0
174
0
175
1
176
1
177
33
178
0
145
0.0
  1
 
170
1
140
0.1
171
1
172
0
173
0
174
0
175
1
176
1
177
33
178
0
145
0.0
  1
 
170
1
140
0.1
171
1
172
0
173
0
174
0
175
1
176
1
177
33
178
0
145
0.0
  1
 
170
1
140
0.1
171
1
172
0
173
0
174
0
175
1
176
1
177
33
178
0
145
0.0
  1
 
170
1
140
0.1
171
1
172
0
173
0
174
0
175
1
176
1
177
41
178
0
145
0.0
  1
A
170
8
140
0.1
 64
7
171
1
172
0
173
0
174
0
175
5
176
1
177
33
178
0
145
0.0
  1
LEDRR90S-P
170
8
140
0.1
171
1
172
0
173
1
174
0
175
1
176
1
177
1
178
0
145
0.0
170
1
171
1
172
0
173
1
174
0
175
1
176
1
177
1
178
0
145
0.0
170
1
171
1
172
0
173
1
174
0
175
1
176
1
177
1
178
0
145
0.0
170
1
171
1
172
0
173
1
174
0
175
1
176
1
177
1
178
0
145
0.0
170
8
  0
LEADER
  5
2C2
100
AcDbEntity
  8
NOTES
100
AcDbLeader
 62
7
  6
CONTINUOUS
  3
STANDARD
 71
1
 72
0
 73
0
 75
0
 40
0.1
 41
0.9
 76
3
 10
17.4021946933
 20
7.0811674526
 30
0.0
 10
16.8102852003
 20
8.2195003169
 30
0.0
 10
16.6615518975
 20
8.2195003169
 30
0.0
340
2C3
1001
ACAD
1000
DSTYLE
1002
{
1070
77
1070
0
1002
}
  0
MTEXT
  5
2C3
102
{ACAD_REACTORS
330
2C2
102
}
100
AcDbEntity
  8
NOTES
100
AcDbMText
 62
7
  6
CONTINUOUS
  7
STANDARD
 71
3
 72
1
 10
16.6615518975
 20
8.2695003169
 30
0.0
 11
1.0
 21
0.0
 31
0.0
 44
0.9
  1
SET SCREW
 40
0.1
 41
0.9
  0
MTEXT
  5
2C4
100
AcDbEntity
  8
NOTES
100
AcDbMText
 62
7
  6
CONTINUOUS
  7
STANDARD
 71
2
 72
1
 10
12.7391494436
 20
11.7650292735
 30
0.0
 11
1.0
 21
0.0
 31
0.0
 44
0.9
  1
ISOMETRIC VIEW\P\H0.1;SCALE  1:1
 40
0.125
 41
1.75
  0
LINE
  5
2C5
100
AcDbEntity
  8
0
100
AcDbLine
 62
7
  6
CONTINUOUS
 10
0.814
 20
8.336603
 11
0.814
 21
8.163397
  0
LINE
  5
2C6
100
AcDbEntity
  8
0
100
AcDbLine
 62
7
  6
CONTINUOUS
 10
0.964
 20
15.75
 11
0.964
 21
0.75
  0
LINE
  5
2C7
100
AcDbEntity
  8
0
100
AcDbLine
 62
7
  6
CONTINUOUS
 10
15.8276527477
 20
1.2966912523
 11
16.4340437477
 21
1.3660842523
  0
LINE
  5
2C8
100
AcDbEntity
  8
0
100
AcDbLine
 62
7
  6
CONTINUOUS
 10
10.920397
 20
0.6
 11
11.093603
 21
0.6
  0
LINE
  5
2C9
100
AcDbEntity
  8
0
100
AcDbLine
 62
7
  6
CONTINUOUS
 10
0.964
 20
0.75
 11
21.05
 21
0.75
  0
LINE
  5
2CA
100
AcDbEntity
  8
0
100
AcDbLine
 62
7
  6
CONTINUOUS
 10
3.507
 20
0.75
 11
3.507
 21
0.5
  0
LINE
  5
2CB
100
AcDbEntity
  8
0
100
AcDbLine
 62
7
  6
CONTINUOUS
 10
3.507
 20
15.75
 11
3.507
 21
16.0
  0
LINE
  5
2CC
100
AcDbEntity
  8
0
100
AcDbLine
 62
7
  6
CONTINUOUS
 10
16.7
 20
1.0
 11
21.05
 21
1.0
  0
LINE
  5
2CD
100
AcDbEntity
  8
0
100
AcDbLine
 62
7
  6
CONTINUOUS
 10
14.9008917477
 20
1.1139932523
 11
15.1229827477
 21
1.1139932523
  0
LINE
  5
2CE
100
AcDbEntity
  8
0
100
AcDbLine
 62
7
  6
CONTINUOUS
 10
15.1729827477
 20
1.1139932523
 11
15.2729827477
 21
1.1139932523
  0
LINE
  5
2CF
100
AcDbEntity
  8
0
100
AcDbLine
 62
7
  6
CONTINUOUS
 10
15.3229827477
 20
1.1139932523
 11
15.5450737477
 21
1.1139932523
  0
LINE
  5
2D0
100
AcDbEntity
  8
0
100
AcDbLine
 62
7
  6
CONTINUOUS
 10
15.7276527477
 20
1.1139932523
 11
16.0058047477
 21
1.1139932523
  0
LINE
  5
2D1
100
AcDbEntity
  8
0
100
AcDbLine
 62
7
  6
CONTINUOUS
 10
16.0558047477
 20
1.1139932523
 11
16.2058907477
 21
1.1139932523
  0
LINE
  5
2D2
100
AcDbEntity
  8
0
100
AcDbLine
 62
7
  6
CONTINUOUS
 10
16.2558907477
 20
1.1139932523
 11
16.5340437477
 21
1.1139932523
  0
LINE
  5
2D3
100
AcDbEntity
  8
0
100
AcDbLine
 62
7
  6
CONTINUOUS
 10
16.7
 20
1.37
 11
21.05
 21
1.37
  0
LINE
  5
2D4
100
AcDbEntity
  8
0
100
AcDbLine
 62
7
  6
CONTINUOUS
 10
16.4340437477
 20
0.8619022523
 11
15.8276527477
 21
0.9312952523
  0
LINE
  5
2D5
100
AcDbEntity
  8
0
100
AcDbLine
 62
7
  6
CONTINUOUS
 10
14.7
 20
1.77
 11
16.7
 21
1.77
  0
LINE
  5
2D6
100
AcDbEntity
  8
0
100
AcDbLine
 62
7
  6
CONTINUOUS
 10
16.7
 20
2.13
 11
21.05
 21
2.13
  0
LINE
  5
2D7
100
AcDbEntity
  8
0
100
AcDbLine
 62
7
  6
CONTINUOUS
 10
18.273144232
 20
2.3543254011
 11
18.2257802057
 21
2.3543254011
  0
LINE
  5
2D8
100
AcDbEntity
  8
0
100
AcDbLine
 62
7
  6
CONTINUOUS
 10
18.1818891814
 20
2.3543254011
 11
18.0683181184
 21
2.3543254011
  0
LINE
  5
2D9
100
AcDbEntity
  8
0
100
AcDbLine
 62
7
  6
CONTINUOUS
 10
18.0394141024
 20
2.3543254011
 11
17.8362019897
 21
2.3543254011
  0
LINE
  5
2DA
100
AcDbEntity
  8
0
100
AcDbLine
 62
7
  6
CONTINUOUS
 10
17.7857289617
 20
2.3543254011
 11
17.7115229205
 21
2.3543254011
  0
LINE
  5
2DB
100
AcDbEntity
  8
0
100
AcDbLine
 62
7
  6
CONTINUOUS
 10
17.6651428948
 20
2.3543254011
 11
17.5894788529
 21
2.3543254011
  0
LINE
  5
2DC
100
AcDbEntity
  8
0
100
AcDbLine
 62
7
  6
CONTINUOUS
 10
17.537475824
 20
2.3543254011
 11
17.4632707829
 21
2.3543254011
  0
LINE
  5
2DD
100
AcDbEntity
  8
0
100
AcDbLine
 62
7
  6
CONTINUOUS
 10
17.4168897572
 20
2.3543254011
 11
17.3412257152
 21
2.3543254011
  0
LINE
  5
2DE
100
AcDbEntity
  8
0
100
AcDbLine
 62
7
  6
CONTINUOUS
 10
16.8743904563
 20
2.3543254011
 11
17.0508365542
 21
2.3543254011
  0
LINE
  5
2DF
100
AcDbEntity
  8
0
100
AcDbLine
 62
7
  6
CONTINUOUS
 10
17.1083735861
 20
2.3543254011
 11
17.185749629
 21
2.3543254011
  0
LINE
  5
2E0
100
AcDbEntity
  8
0
100
AcDbLine
 62
7
  6
CONTINUOUS
 10
17.2060356402
 20
2.3543254011
 11
17.3113166986
 21
2.3543254011
  0
LINE
  5
2E1
100
AcDbEntity
  8
0
100
AcDbLine
 62
7
  6
CONTINUOUS
 10
18.1572301677
 20
2.3790534148
 11
18.1818891814
 21
2.3790534148
  0
LINE
  5
2E2
100
AcDbEntity
  8
0
100
AcDbLine
 62
7
  6
CONTINUOUS
 10
17.3113166986
 20
2.3790754148
 11
17.2913006875
 21
2.3790754148
  0
LINE
  5
2E3
100
AcDbEntity
  8
0
100
AcDbLine
 62
7
  6
CONTINUOUS
 10
17.2204866482
 20
2.3790754148
 11
17.2060356402
 21
2.3790754148
  0
LINE
  5
2E4
100
AcDbEntity
  8
0
100
AcDbLine
 62
7
  6
CONTINUOUS
 10
17.185749629
 20
2.3790754148
 11
17.1744666227
 21
2.3790754148
  0
LINE
  5
2E5
100
AcDbEntity
  8
0
100
AcDbLine
 62
7
  6
CONTINUOUS
 10
17.1312345987
 20
2.3790754148
 11
17.1083735861
 21
2.3790754148
  0
LINE
  5
2E6
100
AcDbEntity
  8
0
100
AcDbLine
 62
7
  6
CONTINUOUS
 10
17.0051585288
 20
2.3790754148
 11
16.9637955059
 21
2.3790754148
  0
LINE
  5
2E7
100
AcDbEntity
  8
0
100
AcDbLine
 62
7
  6
CONTINUOUS
 10
16.8983324696
 20
2.3790754148
 11
16.8743904563
 21
2.3790754148
  0
LINE
  5
2E8
100
AcDbEntity
  8
0
100
AcDbLine
 62
7
  6
CONTINUOUS
 10
17.3412257152
 20
2.3790754148
 11
17.3598727255
 21
2.3790754148
  0
LINE
  5
2E9
100
AcDbEntity
  8
0
100
AcDbLine
 62
7
  6
CONTINUOUS
 10
17.3965727459
 20
2.3790754148
 11
17.4168897572
 21
2.3790754148
  0
LINE
  5
2EA
100
AcDbEntity
  8
0
100
AcDbLine
 62
7
  6
CONTINUOUS
 10
17.5894788529
 20
2.3790754148
 11
17.6081248632
 21
2.3790754148
  0
LINE
  5
2EB
100
AcDbEntity
  8
0
100
AcDbLine
 62
7
  6
CONTINUOUS
 10
17.6448258836
 20
2.3790754148
 11
17.6651428948
 21
2.3790754148
  0
LINE
  5
2EC
100
AcDbEntity
  8
0
100
AcDbLine
 62
7
  6
CONTINUOUS
 10
17.8362019897
 20
2.3790754148
 11
17.860125003
 21
2.3790754148
  0
LINE
  5
2ED
100
AcDbEntity
  8
0
100
AcDbLine
 62
7
  6
CONTINUOUS
 10
17.9271410401
 20
2.3790754148
 11
17.9921450762
 21
2.3790754148
  0
LINE
  5
2EE
100
AcDbEntity
  8
0
100
AcDbLine
 62
7
  6
CONTINUOUS
 10
18.0683181184
 20
2.3790754148
 11
18.091064131
 21
2.3790754148
  0
LINE
  5
2EF
100
AcDbEntity
  8
0
100
AcDbLine
 62
7
  6
CONTINUOUS
 10
18.2741672326
 20
2.379462415
 11
18.2752762332
 21
2.379462415
  0
LINE
  5
2F0
100
AcDbEntity
  8
0
100
AcDbLine
 62
7
  6
CONTINUOUS
 10
17.9970950789
 20
2.3922754221
 11
18.0394141024
 21
2.3922754221
  0
LINE
  5
2F1
100
AcDbEntity
  8
0
100
AcDbLine
 62
7
  6
CONTINUOUS
 10
17.1799826258
 20
2.3927194224
 11
17.2148606451
 21
2.3927194224
  0
LINE
  5
2F2
100
AcDbEntity
  8
0
100
AcDbLine
 62
7
  6
CONTINUOUS
 10
18.2860312391
 20
2.3932124227
 11
18.2981412459
 21
2.3932124227
  0
LINE
  5
2F3
100
AcDbEntity
  8
0
100
AcDbLine
 62
7
  6
CONTINUOUS
 10
18.184837183
 20
2.3937024229
 11
18.1572301677
 21
2.3937024229
  0
LINE
  5
2F4
100
AcDbEntity
  8
0
100
AcDbLine
 62
7
  6
CONTINUOUS
 10
17.9623080596
 20
2.395575424
 11
17.9271410401
 21
2.395575424
  0
LINE
  5
2F5
100
AcDbEntity
  8
0
100
AcDbLine
 62
7
  6
CONTINUOUS
 10
16.9637955059
 20
2.3964004244
 11
17.0051585288
 21
2.3964004244
  0
LINE
  5
2F6
100
AcDbEntity
  8
0
100
AcDbLine
 62
7
  6
CONTINUOUS
 10
18.1911671865
 20
2.4127054335
 11
18.1572301677
 21
2.4127054335
  0
LINE
  5
2F7
100
AcDbEntity
  8
0
100
AcDbLine
 62
7
  6
CONTINUOUS
 10
16.9637955059
 20
2.4130554337
 11
17.0051585288
 21
2.4130554337
  0
LINE
  5
2F8
100
AcDbEntity
  8
0
100
AcDbLine
 62
7
  6
CONTINUOUS
 10
17.1884986305
 20
2.413669434
 11
17.2090556419
 21
2.413669434
  0
LINE
  5
2F9
100
AcDbEntity
  8
0
100
AcDbLine
 62
7
  6
CONTINUOUS
 10
17.9271410401
 20
2.4138804341
 11
17.9623080596
 21
2.4138804341
  0
LINE
  5
2FA
100
AcDbEntity
  8
0
100
AcDbLine
 62
7
  6
CONTINUOUS
 10
18.0379951016
 20
2.4171804359
 11
17.9961310784
 21
2.4171804359
  0
LINE
  5
2FB
100
AcDbEntity
  8
0
100
AcDbLine
 62
7
  6
CONTINUOUS
 10
17.2017966379
 20
2.429836443
 11
17.1956156344
 21
2.429836443
  0
LINE
  5
2FC
100
AcDbEntity
  8
0
100
AcDbLine
 62
7
  6
CONTINUOUS
 10
18.091064131
 20
2.4303804433
 11
18.0683181184
 21
2.4303804433
  0
LINE
  5
2FD
100
AcDbEntity
  8
0
100
AcDbLine
 62
7
  6
CONTINUOUS
 10
17.9911810756
 20
2.4303804433
 11
17.9271410401
 21
2.4303804433
  0
LINE
  5
2FE
100
AcDbEntity
  8
0
100
AcDbLine
 62
7
  6
CONTINUOUS
 10
17.860125003
 20
2.4303804433
 11
17.8362019897
 21
2.4303804433
  0
LINE
  5
2FF
100
AcDbEntity
  8
0
100
AcDbLine
 62
7
  6
CONTINUOUS
 10
17.8086119744
 20
2.4303804433
 11
17.7906789644
 21
2.4303804433
  0
LINE
  5
300
100
AcDbEntity
  8
0
100
AcDbLine
 62
7
  6
CONTINUOUS
 10
17.7533869438
 20
2.4303804433
 11
17.7346109333
 21
2.4303804433
  0
LINE
  5
301
100
AcDbEntity
  8
0
100
AcDbLine
 62
7
  6
CONTINUOUS
 10
17.6081248632
 20
2.4303804433
 11
17.5894788529
 21
2.4303804433
  0
LINE
  5
302
100
AcDbEntity
  8
0
100
AcDbLine
 62
7
  6
CONTINUOUS
 10
17.5603588367
 20
2.4303804433
 11
17.5424258268
 21
2.4303804433
  0
LINE
  5
303
100
AcDbEntity
  8
0
100
AcDbLine
 62
7
  6
CONTINUOUS
 10
17.5051338061
 20
2.4303804433
 11
17.4863577957
 21
2.4303804433
  0
LINE
  5
304
100
AcDbEntity
  8
0
100
AcDbLine
 62
7
  6
CONTINUOUS
 10
17.3598727255
 20
2.4303804433
 11
17.3412257152
 21
2.4303804433
  0
LINE
  5
305
100
AcDbEntity
  8
0
100
AcDbLine
 62
7
  6
CONTINUOUS
 10
17.0051585288
 20
2.4303804433
 11
16.9637955059
 21
2.4303804433
  0
LINE
  5
306
100
AcDbEntity
  8
0
100
AcDbLine
 62
7
  6
CONTINUOUS
 10
16.8743904563
 20
2.4303804433
 11
16.8983324696
 21
2.4303804433
  0
LINE
  5
307
100
AcDbEntity
  8
0
100
AcDbLine
 62
7
  6
CONTINUOUS
 10
18.1572301677
 20
2.4303804433
 11
18.1940311881
 21
2.4303804433
  0
LINE
  5
308
100
AcDbEntity
  8
0
100
AcDbLine
 62
7
  6
CONTINUOUS
 10
17.2393896587
 20
2.455130457
 11
17.182214627
 21
2.455130457
  0
LINE
  5
309
100
AcDbEntity
  8
0
100
AcDbLine
 62
7
  6
CONTINUOUS
 10
17.0404535484
 20
2.455130457
 11
16.8743904563
 21
2.455130457
  0
LINE
  5
30A
100
AcDbEntity
  8
0
100
AcDbLine
 62
7
  6
CONTINUOUS
 10
17.3412257152
 20
2.455130457
 11
17.4416837709
 21
2.455130457
  0
LINE
  5
30B
100
AcDbEntity
  8
0
100
AcDbLine
 62
7
  6
CONTINUOUS
 10
17.4863577957
 20
2.455130457
 11
17.5603588367
 21
2.455130457
  0
LINE
  5
30C
100
AcDbEntity
  8
0
100
AcDbLine
 62
7
  6
CONTINUOUS
 10
17.5894788529
 20
2.455130457
 11
17.6899369086
 21
2.455130457
  0
LINE
  5
30D
100
AcDbEntity
  8
0
100
AcDbLine
 62
7
  6
CONTINUOUS
 10
17.7346109333
 20
2.455130457
 11
17.8086119744
 21
2.455130457
  0
LINE
  5
30E
100
AcDbEntity
  8
0
100
AcDbLine
 62
7
  6
CONTINUOUS
 10
17.8362019897
 20
2.455130457
 11
18.0379951016
 21
2.455130457
  0
LINE
  5
30F
100
AcDbEntity
  8
0
100
AcDbLine
 62
7
  6
CONTINUOUS
 10
18.0683181184
 20
2.455130457
 11
18.2178992014
 21
2.455130457
  0
LINE
  5
310
100
AcDbEntity
  8
0
100
AcDbLine
 62
7
  6
CONTINUOUS
 10
17.0697205646
 20
2.4006414268
 11
17.059669559
 21
2.4041904287
  0
LINE
  5
311
100
AcDbEntity
  8
0
100
AcDbLine
 62
7
  6
CONTINUOUS
 10
17.4615617819
 20
2.3550094015
 11
17.3982817468
 21
2.415387435
  0
LINE
  5
312
100
AcDbEntity
  8
0
100
AcDbLine
 62
7
  6
CONTINUOUS
 10
17.4433917718
 20
2.4544464566
 11
17.5034248051
 21
2.3971664249
  0
LINE
  5
313
100
AcDbEntity
  8
0
100
AcDbLine
 62
7
  6
CONTINUOUS
 10
17.7098149196
 20
2.3550094015
 11
17.6465348845
 21
2.415387435
  0
LINE
  5
314
100
AcDbEntity
  8
0
100
AcDbLine
 62
7
  6
CONTINUOUS
 10
17.6916449095
 20
2.4544464566
 11
17.7516779428
 21
2.3971664249
  0
LINE
  5
315
100
AcDbEntity
  8
0
100
AcDbLine
 62
7
  6
CONTINUOUS
 10
17.2169386463
 20
2.3915884218
 11
17.2225646494
 21
2.3828954169
  0
LINE
  5
316
100
AcDbEntity
  8
0
100
AcDbLine
 62
7
  6
CONTINUOUS
 10
17.211133643
 20
2.4174894361
 11
17.203874639
 21
2.4287054423
  0
LINE
  5
317
100
AcDbEntity
  8
0
100
AcDbLine
 62
7
  6
CONTINUOUS
 10
17.2892236864
 20
2.3802054154
 11
17.2414676599
 21
2.4540004564
  0
LINE
  5
318
100
AcDbEntity
  8
0
100
AcDbLine
 62
7
  6
CONTINUOUS
 10
18.206476195
 20
2.3723714111
 11
18.204672194
 21
2.3784404145
  0
LINE
  5
319
100
AcDbEntity
  8
0
100
AcDbLine
 62
7
  6
CONTINUOUS
 10
16.8719154549
 20
2.4526554556
 11
16.8719154549
 21
2.4328554446
  0
LINE
  5
31A
100
AcDbEntity
  8
0
100
AcDbLine
 62
7
  6
CONTINUOUS
 10
16.8719154549
 20
2.3766004134
 11
16.8719154549
 21
2.3568004025
  0
LINE
  5
31B
100
AcDbEntity
  8
0
100
AcDbLine
 62
7
  6
CONTINUOUS
 10
16.9008074709
 20
2.4279054419
 11
16.9008074709
 21
2.3815504162
  0
LINE
  5
31C
100
AcDbEntity
  8
0
100
AcDbLine
 62
7
  6
CONTINUOUS
 10
16.9613205045
 20
2.4279054419
 11
16.9613205045
 21
2.415530435
  0
LINE
  5
31D
100
AcDbEntity
  8
0
100
AcDbLine
 62
7
  6
CONTINUOUS
 10
16.9613205045
 20
2.3815504162
 11
16.9613205045
 21
2.3939254231
  0
LINE
  5
31E
100
AcDbEntity
  8
0
100
AcDbLine
 62
7
  6
CONTINUOUS
 10
17.1058985847
 20
2.3766004134
 11
17.1058985847
 21
2.3568004025
  0
LINE
  5
31F
100
AcDbEntity
  8
0
100
AcDbLine
 62
7
  6
CONTINUOUS
 10
17.1882246303
 20
2.3568004025
 11
17.1882246303
 21
2.3766004134
  0
LINE
  5
320
100
AcDbEntity
  8
0
100
AcDbLine
 62
7
  6
CONTINUOUS
 10
17.2035606388
 20
2.3766004134
 11
17.2035606388
 21
2.3568004025
  0
LINE
  5
321
100
AcDbEntity
  8
0
100
AcDbLine
 62
7
  6
CONTINUOUS
 10
17.3137917
 20
2.3568004025
 11
17.3137917
 21
2.3766004134
  0
LINE
  5
322
100
AcDbEntity
  8
0
100
AcDbLine
 62
7
  6
CONTINUOUS
 10
17.3387507138
 20
2.3568004025
 11
17.3387507138
 21
2.3766004134
  0
LINE
  5
323
100
AcDbEntity
  8
0
100
AcDbLine
 62
7
  6
CONTINUOUS
 10
17.3387507138
 20
2.4328554446
 11
17.3387507138
 21
2.4526554556
  0
LINE
  5
324
100
AcDbEntity
  8
0
100
AcDbLine
 62
7
  6
CONTINUOUS
 10
17.3623477269
 20
2.3815504162
 11
17.3623477269
 21
2.4279054419
  0
LINE
  5
325
100
AcDbEntity
  8
0
100
AcDbLine
 62
7
  6
CONTINUOUS
 10
17.3940977445
 20
2.413596434
 11
17.3940977445
 21
2.3815504162
  0
LINE
  5
326
100
AcDbEntity
  8
0
100
AcDbLine
 62
7
  6
CONTINUOUS
 10
17.4193647585
 20
2.3766004134
 11
17.4193647585
 21
2.3568004025
  0
LINE
  5
327
100
AcDbEntity
  8
0
100
AcDbLine
 62
7
  6
CONTINUOUS
 10
17.4838827943
 20
2.4328554446
 11
17.4838827943
 21
2.4526554556
  0
LINE
  5
328
100
AcDbEntity
  8
0
100
AcDbLine
 62
7
  6
CONTINUOUS
 10
17.5076088075
 20
2.3989574258
 11
17.5076088075
 21
2.4279054419
  0
LINE
  5
329
100
AcDbEntity
  8
0
100
AcDbLine
 62
7
  6
CONTINUOUS
 10
17.5399508254
 20
2.4279054419
 11
17.5399508254
 21
2.3568004025
  0
LINE
  5
32A
100
AcDbEntity
  8
0
100
AcDbLine
 62
7
  6
CONTINUOUS
 10
17.5628338381
 20
2.4526554556
 11
17.5628338381
 21
2.4328554446
  0
LINE
  5
32B
100
AcDbEntity
  8
0
100
AcDbLine
 62
7
  6
CONTINUOUS
 10
17.5870038515
 20
2.3568004025
 11
17.5870038515
 21
2.3766004134
  0
LINE
  5
32C
100
AcDbEntity
  8
0
100
AcDbLine
 62
7
  6
CONTINUOUS
 10
17.5870038515
 20
2.4328554446
 11
17.5870038515
 21
2.4526554556
  0
LINE
  5
32D
100
AcDbEntity
  8
0
100
AcDbLine
 62
7
  6
CONTINUOUS
 10
17.6105998646
 20
2.3815504162
 11
17.6105998646
 21
2.4279054419
  0
LINE
  5
32E
100
AcDbEntity
  8
0
100
AcDbLine
 62
7
  6
CONTINUOUS
 10
17.6423508822
 20
2.413596434
 11
17.6423508822
 21
2.3815504162
  0
LINE
  5
32F
100
AcDbEntity
  8
0
100
AcDbLine
 62
7
  6
CONTINUOUS
 10
17.6676178962
 20
2.3766004134
 11
17.6676178962
 21
2.3568004025
  0
LINE
  5
330
100
AcDbEntity
  8
0
100
AcDbLine
 62
7
  6
CONTINUOUS
 10
17.732135932
 20
2.4328554446
 11
17.732135932
 21
2.4526554556
  0
LINE
  5
331
100
AcDbEntity
  8
0
100
AcDbLine
 62
7
  6
CONTINUOUS
 10
17.7558619451
 20
2.3989574258
 11
17.7558619451
 21
2.4279054419
  0
LINE
  5
332
100
AcDbEntity
  8
0
100
AcDbLine
 62
7
  6
CONTINUOUS
 10
17.7882039631
 20
2.4279054419
 11
17.7882039631
 21
2.3568004025
  0
LINE
  5
333
100
AcDbEntity
  8
0
100
AcDbLine
 62
7
  6
CONTINUOUS
 10
17.8110869758
 20
2.4526554556
 11
17.8110869758
 21
2.4328554446
  0
LINE
  5
334
100
AcDbEntity
  8
0
100
AcDbLine
 62
7
  6
CONTINUOUS
 10
17.8337269883
 20
2.3568004025
 11
17.8337269883
 21
2.3766004134
  0
LINE
  5
335
100
AcDbEntity
  8
0
100
AcDbLine
 62
7
  6
CONTINUOUS
 10
17.8337269883
 20
2.4328554446
 11
17.8337269883
 21
2.4526554556
  0
LINE
  5
336
100
AcDbEntity
  8
0
100
AcDbLine
 62
7
  6
CONTINUOUS
 10
17.8626000043
 20
2.3815504162
 11
17.8626000043
 21
2.4279054419
  0
LINE
  5
337
100
AcDbEntity
  8
0
100
AcDbLine
 62
7
  6
CONTINUOUS
 10
17.9246660387
 20
2.4279054419
 11
17.9246660387
 21
2.4163554355
  0
LINE
  5
338
100
AcDbEntity
  8
0
100
AcDbLine
 62
7
  6
CONTINUOUS
 10
17.9246660387
 20
2.3931004226
 11
17.9246660387
 21
2.3815504162
  0
LINE
  5
339
100
AcDbEntity
  8
0
100
AcDbLine
 62
7
  6
CONTINUOUS
 10
17.964783061
 20
2.4114054327
 11
17.964783061
 21
2.3980504253
  0
LINE
  5
33A
100
AcDbEntity
  8
0
100
AcDbLine
 62
7
  6
CONTINUOUS
 10
17.993656077
 20
2.4196554373
 11
17.993656077
 21
2.4279054419
  0
LINE
  5
33B
100
AcDbEntity
  8
0
100
AcDbLine
 62
7
  6
CONTINUOUS
 10
17.9946200775
 20
2.3815504162
 11
17.9946200775
 21
2.3898004208
  0
LINE
  5
33C
100
AcDbEntity
  8
0
100
AcDbLine
 62
7
  6
CONTINUOUS
 10
18.040470103
 20
2.4526554556
 11
18.040470103
 21
2.4196554373
  0
LINE
  5
33D
100
AcDbEntity
  8
0
100
AcDbLine
 62
7
  6
CONTINUOUS
 10
18.0418891038
 20
2.3898004208
 11
18.0418891038
 21
2.3568004025
  0
LINE
  5
33E
100
AcDbEntity
  8
0
100
AcDbLine
 62
7
  6
CONTINUOUS
 10
18.065843117
 20
2.3568004025
 11
18.065843117
 21
2.3766004134
  0
LINE
  5
33F
100
AcDbEntity
  8
0
100
AcDbLine
 62
7
  6
CONTINUOUS
 10
18.065843117
 20
2.4328554446
 11
18.065843117
 21
2.4526554556
  0
LINE
  5
340
100
AcDbEntity
  8
0
100
AcDbLine
 62
7
  6
CONTINUOUS
 10
18.0935391324
 20
2.3815504162
 11
18.0935391324
 21
2.4279054419
  0
LINE
  5
341
100
AcDbEntity
  8
0
100
AcDbLine
 62
7
  6
CONTINUOUS
 10
18.1547551663
 20
2.3912274216
 11
18.1547551663
 21
2.3815284162
  0
LINE
  5
342
100
AcDbEntity
  8
0
100
AcDbLine
 62
7
  6
CONTINUOUS
 10
18.1547551663
 20
2.4151804348
 11
18.1547551663
 21
2.4279054419
  0
LINE
  5
343
100
AcDbEntity
  8
0
100
AcDbLine
 62
7
  6
CONTINUOUS
 10
18.1843641828
 20
2.3765784134
 11
18.1843641828
 21
2.3568004025
  0
LINE
  5
344
100
AcDbEntity
  8
0
100
AcDbLine
 62
7
  6
CONTINUOUS
 10
18.2835562378
 20
2.3881114198
 11
18.2835562378
 21
2.3907374213
  0
LINE
  5
345
100
AcDbEntity
  8
0
100
AcDbLine
 62
7
  6
CONTINUOUS
 10
18.3006162472
 20
2.3907374213
 11
18.3006162472
 21
2.3791854149
  0
LINE
  5
346
100
AcDbEntity
  8
0
100
AcDbLine
 62
7
  6
CONTINUOUS
 10
18.3975725422
 20
2.3981678251
 11
18.3975725422
 21
2.4087850316
  0
LINE
  5
347
100
AcDbEntity
  8
0
100
AcDbLine
 62
7
  6
CONTINUOUS
 10
17.1801246258
 20
2.4539814564
 11
17.1333245999
 21
2.3802244155
  0
LINE
  5
348
100
AcDbEntity
  8
0
100
AcDbLine
 62
7
  6
CONTINUOUS
 10
17.1935256333
 20
2.4286874423
 11
17.1864086293
 21
2.4174704361
  0
LINE
  5
349
100
AcDbEntity
  8
0
100
AcDbLine
 62
7
  6
CONTINUOUS
 10
17.1723766216
 20
2.3828764169
 11
17.1778926246
 21
2.3915704217
  0
LINE
  5
34A
100
AcDbEntity
  8
0
100
AcDbLine
 62
7
  6
CONTINUOUS
 10
17.059669559
 20
2.4041904287
 11
17.0679095636
 21
2.4089664314
  0
ARC
  5
34B
100
AcDbEntity
  8
0
100
AcDbCircle
 62
7
  6
CONTINUOUS
 10
17.4632701481
 20
2.3568008172
 40
0.0024754162
100
AcDbArc
 50
226.3593695814
 51
270.0146919953
  0
ARC
  5
34C
100
AcDbEntity
  8
0
100
AcDbCircle
 62
7
  6
CONTINUOUS
 10
16.8743904545
 20
2.3568004006
 40
0.0024749995
100
AcDbArc
 50
179.9999571957
 51
270.0000428043
  0
ARC
  5
34D
100
AcDbEntity
  8
0
100
AcDbCircle
 62
7
  6
CONTINUOUS
 10
17.5374758259
 20
2.3568004006
 40
0.0024749995
100
AcDbArc
 50
269.9999571957
 51
0.0000428043
  0
ARC
  5
34E
100
AcDbEntity
  8
0
100
AcDbCircle
 62
7
  6
CONTINUOUS
 10
17.416889759
 20
2.3568004006
 40
0.0024749995
100
AcDbArc
 50
269.9999571957
 51
0.0000428043
  0
ARC
  5
34F
100
AcDbEntity
  8
0
100
AcDbCircle
 62
7
  6
CONTINUOUS
 10
17.3412257133
 20
2.3568004006
 40
0.0024749995
100
AcDbArc
 50
179.9999571957
 51
270.0000428043
  0
ARC
  5
350
100
AcDbEntity
  8
0
100
AcDbCircle
 62
7
  6
CONTINUOUS
 10
17.2060356384
 20
2.3568004006
 40
0.0024749995
100
AcDbArc
 50
179.9999571957
 51
270.0000428043
  0
ARC
  5
351
100
AcDbEntity
  8
0
100
AcDbCircle
 62
7
  6
CONTINUOUS
 10
17.3113167005
 20
2.3568004006
 40
0.0024749995
100
AcDbArc
 50
269.9999571957
 51
0.0000428043
  0
ARC
  5
352
100
AcDbEntity
  8
0
100
AcDbCircle
 62
7
  6
CONTINUOUS
 10
17.1083735842
 20
2.3568004006
 40
0.0024749995
100
AcDbArc
 50
179.9999571957
 51
270.0000428043
  0
ARC
  5
353
100
AcDbEntity
  8
0
100
AcDbCircle
 62
7
  6
CONTINUOUS
 10
17.1857496308
 20
2.3568004006
 40
0.0024749995
100
AcDbArc
 50
269.9999571958
 51
0.0000428044
  0
ARC
  5
354
100
AcDbEntity
  8
0
100
AcDbCircle
 62
7
  6
CONTINUOUS
 10
17.0404590422
 20
2.3933827403
 40
0.061747717
100
AcDbArc
 50
59.5385584989
 51
90.0050977555
  0
ARC
  5
355
100
AcDbEntity
  8
0
100
AcDbCircle
 62
7
  6
CONTINUOUS
 10
17.0481152095
 20
2.4027328529
 40
0.048483885
100
AcDbArc
 50
273.21763719
 51
303.0749121182
  0
ARC
  5
356
100
AcDbEntity
  8
0
100
AcDbCircle
 62
7
  6
CONTINUOUS
 10
17.0620614151
 20
2.3797859164
 40
0.0222174455
100
AcDbArc
 50
4.0793399388
 51
69.834329283
  0
ARC
  5
357
100
AcDbEntity
  8
0
100
AcDbCircle
 62
7
  6
CONTINUOUS
 10
17.0629546036
 20
2.379965244
 40
0.0213072145
100
AcDbArc
 50
303.0488228549
 51
355.7263138674
  0
ARC
  5
358
100
AcDbEntity
  8
0
100
AcDbCircle
 62
7
  6
CONTINUOUS
 10
17.0688911042
 20
2.3799744343
 40
0.0153945295
100
AcDbArc
 50
354.0454548824
 51
5.1878013979
  0
ARC
  5
359
100
AcDbEntity
  8
0
100
AcDbCircle
 62
7
  6
CONTINUOUS
 10
17.0051585288
 20
2.3877379196
 40
0.0086625048
100
AcDbArc
 50
270.0
 51
90.0
  0
ARC
  5
35A
100
AcDbEntity
  8
0
100
AcDbCircle
 62
7
  6
CONTINUOUS
 10
17.2148601055
 20
2.3902439622
 40
0.0024754602
100
AcDbArc
 50
32.8959418573
 51
89.9875097202
  0
ARC
  5
35B
100
AcDbEntity
  8
0
100
AcDbCircle
 62
7
  6
CONTINUOUS
 10
17.131234669
 20
2.3815506151
 40
0.0024752003
100
AcDbArc
 50
269.9983726451
 51
327.602165307
  0
ARC
  5
35C
100
AcDbEntity
  8
0
100
AcDbCircle
 62
7
  6
CONTINUOUS
 10
17.1799825555
 20
2.3902442221
 40
0.0024752003
100
AcDbArc
 50
89.998372645
 51
147.602165307
  0
ARC
  5
35D
100
AcDbEntity
  8
0
100
AcDbCircle
 62
7
  6
CONTINUOUS
 10
17.1744665134
 20
2.3815504549
 40
0.0024750401
100
AcDbArc
 50
147.6063258011
 51
270.0025305754
  0
ARC
  5
35E
100
AcDbEntity
  8
0
100
AcDbCircle
 62
7
  6
CONTINUOUS
 10
16.8983324714
 20
2.3815504143
 40
0.0024749995
100
AcDbArc
 50
269.9999571957
 51
0.0000428043
  0
ARC
  5
35F
100
AcDbEntity
  8
0
100
AcDbCircle
 62
7
  6
CONTINUOUS
 10
16.8743904545
 20
2.3766004153
 40
0.0024749995
100
AcDbArc
 50
89.9999571957
 51
180.0000428043
  0
ARC
  5
360
100
AcDbEntity
  8
0
100
AcDbCircle
 62
7
  6
CONTINUOUS
 10
16.963795504
 20
2.3939254249
 40
0.0024749995
100
AcDbArc
 50
89.9999571957
 51
180.0000428043
  0
ARC
  5
361
100
AcDbEntity
  8
0
100
AcDbCircle
 62
7
  6
CONTINUOUS
 10
16.963795504
 20
2.3815504143
 40
0.0024749995
100
AcDbArc
 50
179.9999571957
 51
270.0000428043
  0
ARC
  5
362
100
AcDbEntity
  8
0
100
AcDbCircle
 62
7
  6
CONTINUOUS
 10
17.2060356384
 20
2.3766004153
 40
0.0024749995
100
AcDbArc
 50
89.9999571957
 51
180.0000428043
  0
ARC
  5
363
100
AcDbEntity
  8
0
100
AcDbCircle
 62
7
  6
CONTINUOUS
 10
17.1083735842
 20
2.3766004153
 40
0.0024749995
100
AcDbArc
 50
89.9999571957
 51
180.0000428043
  0
ARC
  5
364
100
AcDbEntity
  8
0
100
AcDbCircle
 62
7
  6
CONTINUOUS
 10
17.1857496308
 20
2.3766004153
 40
0.0024749995
100
AcDbArc
 50
359.9999571957
 51
90.0000428043
  0
ARC
  5
365
100
AcDbEntity
  8
0
100
AcDbCircle
 62
7
  6
CONTINUOUS
 10
17.0460441811
 20
2.445793323
 40
0.0428289026
100
AcDbArc
 50
300.6990502959
 51
319.0591802498
  0
ARC
  5
366
100
AcDbEntity
  8
0
100
AcDbCircle
 62
7
  6
CONTINUOUS
 10
17.0611211659
 20
2.4263113051
 40
0.0229166529
100
AcDbArc
 50
20.6563876465
 51
62.3316896973
  0
ARC
  5
367
100
AcDbEntity
  8
0
100
AcDbCircle
 62
7
  6
CONTINUOUS
 10
17.0660727781
 20
2.4296649696
 40
0.0171568255
100
AcDbArc
 50
315.9145124245
 51
16.0049121283
  0
ARC
  5
368
100
AcDbEntity
  8
0
100
AcDbCircle
 62
7
  6
CONTINUOUS
 10
17.0051585288
 20
2.4217179385
 40
0.0086625048
100
AcDbArc
 50
270.0
 51
90.0
  0
ARC
  5
369
100
AcDbEntity
  8
0
100
AcDbCircle
 62
7
  6
CONTINUOUS
 10
17.2017960982
 20
2.4273609828
 40
0.0024754602
100
AcDbArc
 50
32.8959418573
 51
89.9875097202
  0
ARC
  5
36A
100
AcDbEntity
  8
0
100
AcDbCircle
 62
7
  6
CONTINUOUS
 10
17.2090556207
 20
2.4161446411
 40
0.0024752071
100
AcDbArc
 50
270.0004896793
 51
32.9089806818
  0
ARC
  5
36B
100
AcDbEntity
  8
0
100
AcDbCircle
 62
7
  6
CONTINUOUS
 10
17.1956155641
 20
2.4273612427
 40
0.0024752003
100
AcDbArc
 50
89.998372645
 51
147.602165307
  0
ARC
  5
36C
100
AcDbEntity
  8
0
100
AcDbCircle
 62
7
  6
CONTINUOUS
 10
17.1822145567
 20
2.4526552567
 40
0.0024752003
100
AcDbArc
 50
89.998372645
 51
147.602165307
  0
ARC
  5
36D
100
AcDbEntity
  8
0
100
AcDbCircle
 62
7
  6
CONTINUOUS
 10
17.1884985212
 20
2.4161444741
 40
0.0024750401
100
AcDbArc
 50
147.6063258012
 51
270.0025305754
  0
ARC
  5
36E
100
AcDbEntity
  8
0
100
AcDbCircle
 62
7
  6
CONTINUOUS
 10
16.8743904545
 20
2.4526554575
 40
0.0024749995
100
AcDbArc
 50
89.9999571957
 51
180.0000428043
  0
ARC
  5
36F
100
AcDbEntity
  8
0
100
AcDbCircle
 62
7
  6
CONTINUOUS
 10
16.8743904545
 20
2.4328554428
 40
0.0024749995
100
AcDbArc
 50
179.9999571957
 51
270.0000428043
  0
ARC
  5
370
100
AcDbEntity
  8
0
100
AcDbCircle
 62
7
  6
CONTINUOUS
 10
16.8983324714
 20
2.4279054437
 40
0.0024749995
100
AcDbArc
 50
359.9999571957
 51
90.0000428043
  0
ARC
  5
371
100
AcDbEntity
  8
0
100
AcDbCircle
 62
7
  6
CONTINUOUS
 10
16.963795504
 20
2.4279054437
 40
0.0024749995
100
AcDbArc
 50
89.9999571957
 51
180.0000428043
  0
ARC
  5
372
100
AcDbEntity
  8
0
100
AcDbCircle
 62
7
  6
CONTINUOUS
 10
16.963795504
 20
2.4155304332
 40
0.0024749995
100
AcDbArc
 50
179.9999571957
 51
270.0000428043
  0
ARC
  5
373
100
AcDbEntity
  8
0
100
AcDbCircle
 62
7
  6
CONTINUOUS
 10
17.5051335061
 20
2.3989573626
 40
0.0024753014
100
AcDbArc
 50
226.3461263059
 51
0.0014637321
  0
ARC
  5
374
100
AcDbEntity
  8
0
100
AcDbCircle
 62
7
  6
CONTINUOUS
 10
17.3965730459
 20
2.4135964972
 40
0.0024753014
100
AcDbArc
 50
46.3461263059
 51
180.0014637321
  0
ARC
  5
375
100
AcDbEntity
  8
0
100
AcDbCircle
 62
7
  6
CONTINUOUS
 10
17.2204866271
 20
2.3815506219
 40
0.0024752071
100
AcDbArc
 50
270.0004896793
 51
32.9089806818
  0
ARC
  5
376
100
AcDbEntity
  8
0
100
AcDbCircle
 62
7
  6
CONTINUOUS
 10
17.396572744
 20
2.3815504143
 40
0.0024749995
100
AcDbArc
 50
179.9999571957
 51
270.0000428043
  0
ARC
  5
377
100
AcDbEntity
  8
0
100
AcDbCircle
 62
7
  6
CONTINUOUS
 10
17.416889759
 20
2.3766004153
 40
0.0024749995
100
AcDbArc
 50
359.9999571957
 51
90.0000428043
  0
ARC
  5
378
100
AcDbEntity
  8
0
100
AcDbCircle
 62
7
  6
CONTINUOUS
 10
17.3412257133
 20
2.3766004153
 40
0.0024749995
100
AcDbArc
 50
89.9999571957
 51
180.0000428043
  0
ARC
  5
379
100
AcDbEntity
  8
0
100
AcDbCircle
 62
7
  6
CONTINUOUS
 10
17.3598727274
 20
2.3815504143
 40
0.0024749995
100
AcDbArc
 50
269.9999571957
 51
0.0000428043
  0
ARC
  5
37A
100
AcDbEntity
  8
0
100
AcDbCircle
 62
7
  6
CONTINUOUS
 10
17.3113167005
 20
2.3766004153
 40
0.0024749995
100
AcDbArc
 50
359.9999571957
 51
90.0000428043
  0
ARC
  5
37B
100
AcDbEntity
  8
0
100
AcDbCircle
 62
7
  6
CONTINUOUS
 10
17.291300808
 20
2.3815494558
 40
0.002474041
100
AcDbArc
 50
212.9056413127
 51
269.9972091755
  0
ARC
  5
37C
100
AcDbEntity
  8
0
100
AcDbCircle
 62
7
  6
CONTINUOUS
 10
17.5051338079
 20
2.4279054437
 40
0.0024749995
100
AcDbArc
 50
359.9999571957
 51
90.0000428043
  0
ARC
  5
37D
100
AcDbEntity
  8
0
100
AcDbCircle
 62
7
  6
CONTINUOUS
 10
17.4863577938
 20
2.4328554428
 40
0.0024749995
100
AcDbArc
 50
179.9999571957
 51
270.0000428043
  0
ARC
  5
37E
100
AcDbEntity
  8
0
100
AcDbCircle
 62
7
  6
CONTINUOUS
 10
17.4863577938
 20
2.4526554575
 40
0.0024749995
100
AcDbArc
 50
89.9999571957
 51
180.0000428043
  0
ARC
  5
37F
100
AcDbEntity
  8
0
100
AcDbCircle
 62
7
  6
CONTINUOUS
 10
17.5603588386
 20
2.4526554575
 40
0.0024749995
100
AcDbArc
 50
359.9999571957
 51
90.0000428043
  0
ARC
  5
380
100
AcDbEntity
  8
0
100
AcDbCircle
 62
7
  6
CONTINUOUS
 10
17.5603588386
 20
2.4328554428
 40
0.0024749995
100
AcDbArc
 50
269.9999571957
 51
0.0000428043
  0
ARC
  5
381
100
AcDbEntity
  8
0
100
AcDbCircle
 62
7
  6
CONTINUOUS
 10
17.5424258249
 20
2.4279054437
 40
0.0024749995
100
AcDbArc
 50
89.9999571957
 51
180.0000428043
  0
ARC
  5
382
100
AcDbEntity
  8
0
100
AcDbCircle
 62
7
  6
CONTINUOUS
 10
17.3598727274
 20
2.4279054437
 40
0.0024749995
100
AcDbArc
 50
359.9999571957
 51
90.0000428043
  0
ARC
  5
383
100
AcDbEntity
  8
0
100
AcDbCircle
 62
7
  6
CONTINUOUS
 10
17.3412257133
 20
2.4328554428
 40
0.0024749995
100
AcDbArc
 50
179.9999571957
 51
270.0000428043
  0
ARC
  5
384
100
AcDbEntity
  8
0
100
AcDbCircle
 62
7
  6
CONTINUOUS
 10
17.3412257133
 20
2.4526554575
 40
0.0024749995
100
AcDbArc
 50
89.9999571957
 51
180.0000428043
  0
ARC
  5
385
100
AcDbEntity
  8
0
100
AcDbCircle
 62
7
  6
CONTINUOUS
 10
17.2393900382
 20
2.4526554968
 40
0.0024749602
100
AcDbArc
 50
32.9172174468
 51
90.0087853097
  0
ARC
  5
386
100
AcDbEntity
  8
0
100
AcDbCircle
 62
7
  6
CONTINUOUS
 10
17.4416839057
 20
2.4526562892
 40
0.0024741678
100
AcDbArc
 50
46.3477981899
 51
90.0031206038
  0
ARC
  5
387
100
AcDbEntity
  8
0
100
AcDbCircle
 62
7
  6
CONTINUOUS
 10
18.2152358981
 20
2.2725915465
 40
0.1825583387
100
AcDbArc
 50
79.8618509324
 51
89.1640948679
  0
ARC
  5
388
100
AcDbEntity
  8
0
100
AcDbCircle
 62
7
  6
CONTINUOUS
 10
18.197141171
 20
2.3016991173
 40
0.117346916
100
AcDbArc
 50
58.614769177
 51
62.3737227606
  0
ARC
  5
389
100
AcDbEntity
  8
0
100
AcDbCircle
 62
7
  6
CONTINUOUS
 10
18.2260032264
 20
2.3725718859
 40
0.0459185159
100
AcDbArc
 50
15.6740290068
 51
20.9917271228
  0
ARC
  5
38A
100
AcDbEntity
  8
0
100
AcDbCircle
 62
7
  6
CONTINUOUS
 10
18.1662929967
 20
2.368643334
 40
0.0396099176
100
AcDbArc
 50
14.3201081283
 51
22.4984722084
  0
ARC
  5
38B
100
AcDbEntity
  8
0
100
AcDbCircle
 62
7
  6
CONTINUOUS
 10
18.1850046504
 20
2.3693353402
 40
0.0243676582
100
AcDbArc
 50
63.3666028271
 51
90.3937697637
  0
ARC
  5
38C
100
AcDbEntity
  8
0
100
AcDbCircle
 62
7
  6
CONTINUOUS
 10
18.2724993219
 20
2.3741987064
 40
0.0198837666
100
AcDbArc
 50
271.8586572978
 51
289.4131338543
  0
ARC
  5
38D
100
AcDbEntity
  8
0
100
AcDbCircle
 62
7
  6
CONTINUOUS
 10
18.2265855264
 20
2.3716475527
 40
0.0173408616
100
AcDbArc
 50
232.4713476722
 51
267.338189944
  0
ARC
  5
38E
100
AcDbEntity
  8
0
100
AcDbCircle
 62
7
  6
CONTINUOUS
 10
18.1818891832
 20
2.3568004006
 40
0.0024749995
100
AcDbArc
 50
269.9999571957
 51
0.0000428043
  0
ARC
  5
38F
100
AcDbEntity
  8
0
100
AcDbCircle
 62
7
  6
CONTINUOUS
 10
18.0683181166
 20
2.3568004006
 40
0.0024749995
100
AcDbArc
 50
179.9999571957
 51
270.0000428043
  0
ARC
  5
390
100
AcDbEntity
  8
0
100
AcDbCircle
 62
7
  6
CONTINUOUS
 10
17.7857289635
 20
2.3568004006
 40
0.0024749995
100
AcDbArc
 50
269.9999571957
 51
0.0000428043
  0
ARC
  5
391
100
AcDbEntity
  8
0
100
AcDbCircle
 62
7
  6
CONTINUOUS
 10
17.6651428967
 20
2.3568004006
 40
0.0024749995
100
AcDbArc
 50
269.9999571957
 51
0.0000428043
  0
ARC
  5
392
100
AcDbEntity
  8
0
100
AcDbCircle
 62
7
  6
CONTINUOUS
 10
17.589478851
 20
2.3568004006
 40
0.0024749995
100
AcDbArc
 50
179.9999571957
 51
270.0000428043
  0
ARC
  5
393
100
AcDbEntity
  8
0
100
AcDbCircle
 62
7
  6
CONTINUOUS
 10
18.0394141042
 20
2.3568004006
 40
0.0024749995
100
AcDbArc
 50
269.9999571957
 51
0.0000428043
  0
ARC
  5
394
100
AcDbEntity
  8
0
100
AcDbCircle
 62
7
  6
CONTINUOUS
 10
17.8362019878
 20
2.3568004006
 40
0.0024749995
100
AcDbArc
 50
179.9999571957
 51
270.0000428043
  0
ARC
  5
395
100
AcDbEntity
  8
0
100
AcDbCircle
 62
7
  6
CONTINUOUS
 10
17.7115227858
 20
2.3567995689
 40
0.0024741678
100
AcDbArc
 50
226.3477981898
 51
270.0031206038
  0
ARC
  5
396
100
AcDbEntity
  8
0
100
AcDbCircle
 62
7
  6
CONTINUOUS
 10
17.7533866437
 20
2.3989573626
 40
0.0024753014
100
AcDbArc
 50
226.3461263059
 51
0.0014637321
  0
ARC
  5
397
100
AcDbEntity
  8
0
100
AcDbCircle
 62
7
  6
CONTINUOUS
 10
17.6448261836
 20
2.4135964972
 40
0.0024753014
100
AcDbArc
 50
46.3461263058
 51
180.0014637321
  0
ARC
  5
398
100
AcDbEntity
  8
0
100
AcDbCircle
 62
7
  6
CONTINUOUS
 10
17.6448258817
 20
2.3815504143
 40
0.0024749995
100
AcDbArc
 50
179.9999571957
 51
270.0000428043
  0
ARC
  5
399
100
AcDbEntity
  8
0
100
AcDbCircle
 62
7
  6
CONTINUOUS
 10
17.6651428967
 20
2.3766004153
 40
0.0024749995
100
AcDbArc
 50
359.9999571957
 51
90.0000428043
  0
ARC
  5
39A
100
AcDbEntity
  8
0
100
AcDbCircle
 62
7
  6
CONTINUOUS
 10
17.589478851
 20
2.3766004153
 40
0.0024749995
100
AcDbArc
 50
89.9999571957
 51
180.0000428043
  0
ARC
  5
39B
100
AcDbEntity
  8
0
100
AcDbCircle
 62
7
  6
CONTINUOUS
 10
17.6081248651
 20
2.3815504143
 40
0.0024749995
100
AcDbArc
 50
269.9999571957
 51
0.0000428043
  0
ARC
  5
39C
100
AcDbEntity
  8
0
100
AcDbCircle
 62
7
  6
CONTINUOUS
 10
17.9271410383
 20
2.3931004244
 40
0.0024749995
100
AcDbArc
 50
89.9999571957
 51
180.0000428043
  0
ARC
  5
39D
100
AcDbEntity
  8
0
100
AcDbCircle
 62
7
  6
CONTINUOUS
 10
17.9271410383
 20
2.3815504143
 40
0.0024749995
100
AcDbArc
 50
179.9999571957
 51
270.0000428043
  0
ARC
  5
39E
100
AcDbEntity
  8
0
100
AcDbCircle
 62
7
  6
CONTINUOUS
 10
17.8362019878
 20
2.3766004153
 40
0.0024749995
100
AcDbArc
 50
89.9999571957
 51
180.0000428043
  0
ARC
  5
39F
100
AcDbEntity
  8
0
100
AcDbCircle
 62
7
  6
CONTINUOUS
 10
17.8601250048
 20
2.3815504143
 40
0.0024749995
100
AcDbArc
 50
269.9999571956
 51
0.0000428042
  0
ARC
  5
3A0
100
AcDbEntity
  8
0
100
AcDbCircle
 62
7
  6
CONTINUOUS
 10
17.9271410383
 20
2.4163554336
 40
0.0024749995
100
AcDbArc
 50
179.9999571957
 51
270.0000428043
  0
ARC
  5
3A1
100
AcDbEntity
  8
0
100
AcDbCircle
 62
7
  6
CONTINUOUS
 10
17.7533869456
 20
2.4279054437
 40
0.0024749995
100
AcDbArc
 50
359.9999571957
 51
90.0000428043
  0
ARC
  5
3A2
100
AcDbEntity
  8
0
100
AcDbCircle
 62
7
  6
CONTINUOUS
 10
17.7346109315
 20
2.4328554428
 40
0.0024749995
100
AcDbArc
 50
179.9999571957
 51
270.0000428043
  0
ARC
  5
3A3
100
AcDbEntity
  8
0
100
AcDbCircle
 62
7
  6
CONTINUOUS
 10
17.7346109315
 20
2.4526554575
 40
0.0024749995
100
AcDbArc
 50
89.9999571957
 51
180.0000428043
  0
ARC
  5
3A4
100
AcDbEntity
  8
0
100
AcDbCircle
 62
7
  6
CONTINUOUS
 10
17.8086119762
 20
2.4526554575
 40
0.0024749995
100
AcDbArc
 50
359.9999571957
 51
90.0000428043
  0
ARC
  5
3A5
100
AcDbEntity
  8
0
100
AcDbCircle
 62
7
  6
CONTINUOUS
 10
17.8086119762
 20
2.4328554428
 40
0.0024749995
100
AcDbArc
 50
269.9999571956
 51
0.0000428042
  0
ARC
  5
3A6
100
AcDbEntity
  8
0
100
AcDbCircle
 62
7
  6
CONTINUOUS
 10
17.7906789626
 20
2.4279054437
 40
0.0024749995
100
AcDbArc
 50
89.9999571957
 51
180.0000428043
  0
ARC
  5
3A7
100
AcDbEntity
  8
0
100
AcDbCircle
 62
7
  6
CONTINUOUS
 10
17.6081248651
 20
2.4279054437
 40
0.0024749995
100
AcDbArc
 50
359.9999571957
 51
90.0000428043
  0
ARC
  5
3A8
100
AcDbEntity
  8
0
100
AcDbCircle
 62
7
  6
CONTINUOUS
 10
17.589478851
 20
2.4328554428
 40
0.0024749995
100
AcDbArc
 50
179.9999571957
 51
270.0000428043
  0
ARC
  5
3A9
100
AcDbEntity
  8
0
100
AcDbCircle
 62
7
  6
CONTINUOUS
 10
17.589478851
 20
2.4526554575
 40
0.0024749995
100
AcDbArc
 50
89.9999571957
 51
180.0000428043
  0
ARC
  5
3AA
100
AcDbEntity
  8
0
100
AcDbCircle
 62
7
  6
CONTINUOUS
 10
17.8601250048
 20
2.4279054437
 40
0.0024749995
100
AcDbArc
 50
359.9999571957
 51
90.0000428043
  0
ARC
  5
3AB
100
AcDbEntity
  8
0
100
AcDbCircle
 62
7
  6
CONTINUOUS
 10
17.8362019878
 20
2.4328554428
 40
0.0024749995
100
AcDbArc
 50
179.9999571957
 51
270.0000428043
  0
ARC
  5
3AC
100
AcDbEntity
  8
0
100
AcDbCircle
 62
7
  6
CONTINUOUS
 10
17.8362019878
 20
2.4526554575
 40
0.0024749995
100
AcDbArc
 50
89.9999571957
 51
180.0000428043
  0
ARC
  5
3AD
100
AcDbEntity
  8
0
100
AcDbCircle
 62
7
  6
CONTINUOUS
 10
17.9271410383
 20
2.4279054437
 40
0.0024749995
100
AcDbArc
 50
89.9999571957
 51
180.0000428043
  0
ARC
  5
3AE
100
AcDbEntity
  8
0
100
AcDbCircle
 62
7
  6
CONTINUOUS
 10
17.6899370433
 20
2.4526562892
 40
0.0024741678
100
AcDbArc
 50
46.3477981899
 51
90.0031206038
  0
ARC
  5
3AF
100
AcDbEntity
  8
0
100
AcDbCircle
 62
7
  6
CONTINUOUS
 10
18.2495655574
 20
2.384346736
 40
0.044722495
100
AcDbArc
 50
195.531588407
 51
204.7624440448
  0
ARC
  5
3B0
100
AcDbEntity
  8
0
100
AcDbCircle
 62
7
  6
CONTINUOUS
 10
18.2415401884
 20
2.4134150625
 40
0.039319019
100
AcDbArc
 50
59.1202086415
 51
81.4730239328
  0
ARC
  5
3B1
100
AcDbEntity
  8
0
100
AcDbCircle
 62
7
  6
CONTINUOUS
 10
18.2667613545
 20
2.3917854558
 40
0.0383802683
100
AcDbArc
 50
288.7656836787
 51
309.6104317088
  0
ARC
  5
3B2
100
AcDbEntity
  8
0
100
AcDbCircle
 62
7
  6
CONTINUOUS
 10
18.2471995846
 20
2.4197497317
 40
0.0310192946
100
AcDbArc
 50
34.7540871
 51
62.0879016178
  0
ARC
  5
3B3
100
AcDbEntity
  8
0
100
AcDbCircle
 62
7
  6
CONTINUOUS
 10
18.1924863006
 20
2.4019259643
 40
0.0284963867
100
AcDbArc
 50
70.3834917948
 51
86.8922743861
  0
ARC
  5
3B4
100
AcDbEntity
  8
0
100
AcDbCircle
 62
7
  6
CONTINUOUS
 10
18.2737535399
 20
2.384184238
 40
0.0280715479
100
AcDbArc
 50
308.5071794988
 51
332.2400656899
  0
ARC
  5
3B5
100
AcDbEntity
  8
0
100
AcDbCircle
 62
7
  6
CONTINUOUS
 10
18.2439037681
 20
2.3797532943
 40
0.0266349791
100
AcDbArc
 50
20.3630922153
 51
37.9727053099
  0
ARC
  5
3B6
100
AcDbEntity
  8
0
100
AcDbCircle
 62
7
  6
CONTINUOUS
 10
18.2450241237
 20
2.3798263774
 40
0.0257145923
100
AcDbArc
 50
39.3804255939
 51
59.0361096173
  0
ARC
  5
3B7
100
AcDbEntity
  8
0
100
AcDbCircle
 62
7
  6
CONTINUOUS
 10
18.2296840914
 20
2.3774978567
 40
0.0238935861
100
AcDbArc
 50
209.8247607259
 51
235.1255079367
  0
ARC
  5
3B8
100
AcDbEntity
  8
0
100
AcDbCircle
 62
7
  6
CONTINUOUS
 10
18.2830605507
 20
2.3792897325
 40
0.0175560065
100
AcDbArc
 50
332.2279060967
 51
359.6595469939
  0
ARC
  5
3B9
100
AcDbEntity
  8
0
100
AcDbCircle
 62
7
  6
CONTINUOUS
 10
18.1890593051
 20
2.3776149607
 40
0.0151491919
100
AcDbArc
 50
24.098260853
 51
63.0369451818
  0
ARC
  5
3BA
100
AcDbEntity
  8
0
100
AcDbCircle
 62
7
  6
CONTINUOUS
 10
18.2845735615
 20
2.3882148688
 40
0.0147197649
100
AcDbArc
 50
192.7054516565
 51
206.0594861022
  0
ARC
  5
3BB
100
AcDbEntity
  8
0
100
AcDbCircle
 62
7
  6
CONTINUOUS
 10
18.1973459106
 20
2.4149676972
 40
0.0145814632
100
AcDbArc
 50
54.6746025112
 51
71.1660573124
  0
ARC
  5
3BC
100
AcDbEntity
  8
0
100
AcDbCircle
 62
7
  6
CONTINUOUS
 10
18.2752146786
 20
2.3927110743
 40
0.0132488022
100
AcDbArc
 50
270.266200055
 51
281.2404888597
  0
ARC
  5
3BD
100
AcDbEntity
  8
0
100
AcDbCircle
 62
7
  6
CONTINUOUS
 10
18.2716089246
 20
2.3878675959
 40
0.0119498009
100
AcDbArc
 50
340.7883861657
 51
1.1691452593
  0
ARC
  5
3BE
100
AcDbEntity
  8
0
100
AcDbCircle
 62
7
  6
CONTINUOUS
 10
18.198398534
 20
2.4260095887
 40
0.0110815393
100
AcDbArc
 50
306.758405961
 51
320.4502234234
  0
ARC
  5
3BF
100
AcDbEntity
  8
0
100
AcDbCircle
 62
7
  6
CONTINUOUS
 10
18.2764089196
 20
2.3869743807
 40
0.0073895522
100
AcDbArc
 50
280.8288201977
 51
305.0837508495
  0
ARC
  5
3C0
100
AcDbEntity
  8
0
100
AcDbCircle
 62
7
  6
CONTINUOUS
 10
18.2768101012
 20
2.3861235343
 40
0.0064647042
100
AcDbArc
 50
306.5086174083
 51
340.2162360092
  0
ARC
  5
3C1
100
AcDbEntity
  8
0
100
AcDbCircle
 62
7
  6
CONTINUOUS
 10
18.2024754016
 20
2.4218216224
 40
0.0060275915
100
AcDbArc
 50
20.9055592135
 51
56.7851676243
  0
ARC
  5
3C2
100
AcDbEntity
  8
0
100
AcDbCircle
 62
7
  6
CONTINUOUS
 10
18.2025691502
 20
2.4227756809
 40
0.0058087709
100
AcDbArc
 50
318.8515287446
 51
353.6422345323
  0
ARC
  5
3C3
100
AcDbEntity
  8
0
100
AcDbCircle
 62
7
  6
CONTINUOUS
 10
18.2760792244
 20
2.3840063824
 40
0.0052403997
100
AcDbArc
 50
205.5232099488
 51
227.5054868079
  0
ARC
  5
3C4
100
AcDbEntity
  8
0
100
AcDbCircle
 62
7
  6
CONTINUOUS
 10
18.2037759605
 20
2.4224819047
 40
0.0045795888
100
AcDbArc
 50
355.6235353944
 51
18.9942678268
  0
ARC
  5
3C5
100
AcDbEntity
  8
0
100
AcDbCircle
 62
7
  6
CONTINUOUS
 10
18.2743509251
 20
2.3821910097
 40
0.0027347709
100
AcDbArc
 50
228.5117626738
 51
266.1485845754
  0
ARC
  5
3C6
100
AcDbEntity
  8
0
100
AcDbCircle
 62
7
  6
CONTINUOUS
 10
18.1572301659
 20
2.3912274234
 40
0.0024749995
100
AcDbArc
 50
89.9999571957
 51
180.0000428043
  0
ARC
  5
3C7
100
AcDbEntity
  8
0
100
AcDbCircle
 62
7
  6
CONTINUOUS
 10
18.1572301659
 20
2.3815284143
 40
0.0024749995
100
AcDbArc
 50
179.9999571957
 51
270.0000428043
  0
ARC
  5
3C8
100
AcDbEntity
  8
0
100
AcDbCircle
 62
7
  6
CONTINUOUS
 10
18.1818891832
 20
2.3765784153
 40
0.0024749995
100
AcDbArc
 50
359.9999571957
 51
90.0000428043
  0
ARC
  5
3C9
100
AcDbEntity
  8
0
100
AcDbCircle
 62
7
  6
CONTINUOUS
 10
18.0683181166
 20
2.3766004153
 40
0.0024749995
100
AcDbArc
 50
89.9999571957
 51
180.0000428043
  0
ARC
  5
3CA
100
AcDbEntity
  8
0
100
AcDbCircle
 62
7
  6
CONTINUOUS
 10
18.0910641329
 20
2.3815504143
 40
0.0024749995
100
AcDbArc
 50
269.9999571957
 51
0.0000428043
  0
ARC
  5
3CB
100
AcDbEntity
  8
0
100
AcDbCircle
 62
7
  6
CONTINUOUS
 10
18.2860312373
 20
2.3907374231
 40
0.0024749995
100
AcDbArc
 50
89.9999571957
 51
180.0000428043
  0
ARC
  5
3CC
100
AcDbEntity
  8
0
100
AcDbCircle
 62
7
  6
CONTINUOUS
 10
18.2981412477
 20
2.3907374231
 40
0.0024749995
100
AcDbArc
 50
359.9999571957
 51
90.0000428043
  0
ARC
  5
3CD
100
AcDbEntity
  8
0
100
AcDbCircle
 62
7
  6
CONTINUOUS
 10
18.1572301659
 20
2.415180433
 40
0.0024749995
100
AcDbArc
 50
179.9999571957
 51
270.0000428043
  0
ARC
  5
3CE
100
AcDbEntity
  8
0
100
AcDbCircle
 62
7
  6
CONTINUOUS
 10
17.992145078
 20
2.3815504143
 40
0.0024749995
100
AcDbArc
 50
269.9999571957
 51
0.0000428043
  0
ARC
  5
3CF
100
AcDbEntity
  8
0
100
AcDbCircle
 62
7
  6
CONTINUOUS
 10
17.9970950771
 20
2.3898004226
 40
0.0024749995
100
AcDbArc
 50
89.9999571957
 51
180.0000428043
  0
ARC
  5
3D0
100
AcDbEntity
  8
0
100
AcDbCircle
 62
7
  6
CONTINUOUS
 10
18.0394141042
 20
2.3898004226
 40
0.0024749995
100
AcDbArc
 50
359.9999571957
 51
90.0000428043
  0
ARC
  5
3D1
100
AcDbEntity
  8
0
100
AcDbCircle
 62
7
  6
CONTINUOUS
 10
18.0379951034
 20
2.4196554355
 40
0.0024749995
100
AcDbArc
 50
269.9999571956
 51
0.0000428042
  0
ARC
  5
3D2
100
AcDbEntity
  8
0
100
AcDbCircle
 62
7
  6
CONTINUOUS
 10
17.9961310765
 20
2.4196554355
 40
0.0024749995
100
AcDbArc
 50
179.9999571957
 51
270.0000428043
  0
ARC
  5
3D3
100
AcDbEntity
  8
0
100
AcDbCircle
 62
7
  6
CONTINUOUS
 10
17.9623080615
 20
2.4114054346
 40
0.0024749995
100
AcDbArc
 50
359.9999571957
 51
90.0000428043
  0
ARC
  5
3D4
100
AcDbEntity
  8
0
100
AcDbCircle
 62
7
  6
CONTINUOUS
 10
17.9623080615
 20
2.3980504235
 40
0.0024749995
100
AcDbArc
 50
269.9999571956
 51
0.0000428042
  0
ARC
  5
3D5
100
AcDbEntity
  8
0
100
AcDbCircle
 62
7
  6
CONTINUOUS
 10
18.220842337
 20
2.4783532224
 40
0.0789082104
100
AcDbArc
 50
292.906155071
 51
305.2574666259
  0
ARC
  5
3D6
100
AcDbEntity
  8
0
100
AcDbCircle
 62
7
  6
CONTINUOUS
 10
18.2511742746
 20
2.4351463727
 40
0.0261183659
100
AcDbArc
 50
305.6373831893
 51
329.9727629745
  0
ARC
  5
3D7
100
AcDbEntity
  8
0
100
AcDbCircle
 62
7
  6
CONTINUOUS
 10
18.1908418374
 20
2.4381440645
 40
0.0254407115
100
AcDbArc
 50
270.7327484175
 51
290.441894219
  0
ARC
  5
3D8
100
AcDbEntity
  8
0
100
AcDbCircle
 62
7
  6
CONTINUOUS
 10
18.1927693431
 20
2.4337504172
 40
0.0206523367
100
AcDbArc
 50
289.6883413472
 51
306.4184925496
  0
ARC
  5
3D9
100
AcDbEntity
  8
0
100
AcDbCircle
 62
7
  6
CONTINUOUS
 10
18.2588883357
 20
2.4282993328
 40
0.0165459396
100
AcDbArc
 50
1.548452892
 51
33.5033152417
  0
ARC
  5
3DA
100
AcDbEntity
  8
0
100
AcDbCircle
 62
7
  6
CONTINUOUS
 10
18.2621849309
 20
2.428467785
 40
0.0132462337
100
AcDbArc
 50
331.1510006998
 51
1.205404301
  0
ARC
  5
3DB
100
AcDbEntity
  8
0
100
AcDbCircle
 62
7
  6
CONTINUOUS
 10
18.0910641329
 20
2.4279054437
 40
0.0024749995
100
AcDbArc
 50
359.9999571957
 51
90.0000428043
  0
ARC
  5
3DC
100
AcDbEntity
  8
0
100
AcDbCircle
 62
7
  6
CONTINUOUS
 10
18.0683181166
 20
2.4328554428
 40
0.0024749995
100
AcDbArc
 50
179.9999571957
 51
270.0000428043
  0
ARC
  5
3DD
100
AcDbEntity
  8
0
100
AcDbCircle
 62
7
  6
CONTINUOUS
 10
18.0683181166
 20
2.4526554575
 40
0.0024749995
100
AcDbArc
 50
89.9999571957
 51
180.0000428043
  0
ARC
  5
3DE
100
AcDbEntity
  8
0
100
AcDbCircle
 62
7
  6
CONTINUOUS
 10
18.1572301659
 20
2.4279054437
 40
0.0024749995
100
AcDbArc
 50
89.9999571957
 51
180.0000428043
  0
ARC
  5
3DF
100
AcDbEntity
  8
0
100
AcDbCircle
 62
7
  6
CONTINUOUS
 10
18.0379951034
 20
2.4526554575
 40
0.0024749995
100
AcDbArc
 50
359.9999571957
 51
90.0000428043
  0
ARC
  5
3E0
100
AcDbEntity
  8
0
100
AcDbCircle
 62
7
  6
CONTINUOUS
 10
17.9911810775
 20
2.4279054437
 40
0.0024749995
100
AcDbArc
 50
359.9999571957
 51
90.0000428043
  0
ELLIPSE
  5
3E1
100
AcDbEntity
  8
0
100
AcDbEllipse
 62
7
  6
CONTINUOUS
 10
17.573550844
 20
2.4034764283
 30
0.0
 11
-0.8250004575
 21
0.0
 31
0.0
 40
0.218572
 41
0.0
 42
6.2831853072
  0
HATCH
  5
3E2
100
AcDbEntity
  8
0
100
AcDbHatch
 62
7
  6
CONTINUOUS
 10
0.0
 20
0.0
 30
0.0
210
0.0
220
0.0
230
1.0
  2
XSEC0002
 70
1
 71
1
 91
11
 92
1
 93
57
 72
2
 10
18.2265855264
 20
2.3716475527
 40
0.0173408616
 50
232.4713476722
 51
267.338189944
 73
1
 72
2
 10
18.2296840914
 20
2.3774978567
 40
0.0238935861
 50
209.8247607259
 51
235.1255079367
 73
1
 72
2
 10
18.2495655574
 20
2.384346736
 40
0.044722495
 50
195.531588407
 51
204.7624440448
 73
1
 72
1
 10
18.206476195
 20
2.3723714111
 11
18.204672194
 21
2.3784404145
 72
2
 10
18.1662929967
 20
2.368643334
 40
0.0396099176
 50
14.3201081283
 51
22.4984722084
 73
1
 72
2
 10
18.1890593051
 20
2.3776149607
 40
0.0151491919
 50
24.098260853
 51
63.0369451818
 73
1
 72
2
 10
18.1850046504
 20
2.3693353402
 40
0.0243676582
 50
63.3666028271
 51
90.3937697637
 73
1
 72
1
 10
18.184837183
 20
2.3937024229
 11
18.1572301677
 21
2.3937024229
 72
2
 10
18.1572301659
 20
2.3912274234
 40
0.0024749995
 50
89.9999571957
 51
180.0000428043
 73
1
 72
1
 10
18.1547551663
 20
2.3912274216
 11
18.1547551663
 21
2.3815284162
 72
2
 10
18.1572301659
 20
2.3815284143
 40
0.0024749995
 50
179.9999571957
 51
270.0000428043
 73
1
 72
1
 10
18.1572301677
 20
2.3790534148
 11
18.1818891814
 21
2.3790534148
 72
2
 10
18.1818891832
 20
2.3765784153
 40
0.0024749995
 50
359.9999571957
 51
90.0000428042
 73
1
 72
1
 10
18.1843641828
 20
2.3765784134
 11
18.1843641828
 21
2.3568004025
 72
2
 10
18.1818891832
 20
2.3568004006
 40
0.0024749995
 50
269.9999571958
 51
0.0000428043
 73
1
 72
1
 10
18.1818891814
 20
2.3543254011
 11
18.0683181184
 21
2.3543254011
 72
2
 10
18.0683181166
 20
2.3568004006
 40
0.0024749995
 50
179.9999571957
 51
270.0000428042
 73
1
 72
1
 10
18.065843117
 20
2.3568004025
 11
18.065843117
 21
2.3766004134
 72
2
 10
18.0683181166
 20
2.3766004153
 40
0.0024749995
 50
89.9999571958
 51
180.0000428043
 73
1
 72
1
 10
18.0683181184
 20
2.3790754148
 11
18.091064131
 21
2.3790754148
 72
2
 10
18.0910641329
 20
2.3815504143
 40
0.0024749995
 50
269.9999571957
 51
0.0000428043
 73
1
 72
1
 10
18.0935391324
 20
2.3815504162
 11
18.0935391324
 21
2.4279054419
 72
2
 10
18.0910641329
 20
2.4279054437
 40
0.0024749995
 50
359.9999571957
 51
90.0000428043
 73
1
 72
1
 10
18.091064131
 20
2.4303804433
 11
18.0683181184
 21
2.4303804433
 72
2
 10
18.0683181166
 20
2.4328554428
 40
0.0024749995
 50
179.9999571957
 51
270.0000428043
 73
1
 72
1
 10
18.065843117
 20
2.4328554446
 11
18.065843117
 21
2.4526554556
 72
2
 10
18.0683181166
 20
2.4526554575
 40
0.0024749995
 50
89.9999571958
 51
180.0000428043
 73
1
 72
1
 10
18.0683181184
 20
2.455130457
 11
18.2178992014
 21
2.455130457
 72
2
 10
18.2152358981
 20
2.2725915465
 40
0.1825583387
 50
79.8618509324
 51
89.1640948679
 73
1
 72
2
 10
18.2415401884
 20
2.4134150625
 40
0.039319019
 50
59.1202086415
 51
81.4730239328
 73
1
 72
2
 10
18.2471995846
 20
2.4197497317
 40
0.0310192946
 50
34.7540871
 51
62.0879016178
 73
1
 72
2
 10
18.2588883357
 20
2.4282993328
 40
0.0165459396
 50
1.548452892
 51
33.5033152417
 73
1
 72
2
 10
18.2621849309
 20
2.428467785
 40
0.0132462337
 50
331.1510006998
 51
1.205404301
 73
1
 72
2
 10
18.2511742746
 20
2.4351463727
 40
0.0261183659
 50
305.6373831893
 51
329.9727629745
 73
1
 72
2
 10
18.220842337
 20
2.4783532224
 40
0.0789082104
 50
292.906155071
 51
305.2574666259
 73
1
 72
2
 10
18.197141171
 20
2.3016991173
 40
0.117346916
 50
58.614769177
 51
62.3737227606
 73
1
 72
2
 10
18.2450241237
 20
2.3798263774
 40
0.0257145923
 50
39.3804255939
 51
59.0361096173
 73
1
 72
2
 10
18.2439037681
 20
2.3797532943
 40
0.0266349791
 50
20.3630922153
 51
37.9727053099
 73
1
 72
2
 10
18.2260032264
 20
2.3725718859
 40
0.0459185159
 50
15.6740290068
 51
20.9917271228
 73
1
 72
2
 10
18.2845735615
 20
2.3882148688
 40
0.0147197649
 50
192.7054516565
 51
206.0594861022
 73
1
 72
2
 10
18.2760792244
 20
2.3840063824
 40
0.0052403997
 50
205.5232099488
 51
227.5054868079
 73
1
 72
2
 10
18.2743509251
 20
2.3821910097
 40
0.0027347709
 50
228.5117626738
 51
266.1485845755
 73
1
 72
1
 10
18.2741672326
 20
2.379462415
 11
18.2752762332
 21
2.379462415
 72
2
 10
18.2752146786
 20
2.3927110743
 40
0.0132488022
 50
270.266200055
 51
281.2404888597
 73
1
 72
2
 10
18.2764089196
 20
2.3869743807
 40
0.0073895522
 50
280.8288201977
 51
305.0837508495
 73
1
 72
2
 10
18.2768101012
 20
2.3861235343
 40
0.0064647042
 50
306.5086174083
 51
340.2162360092
 73
1
 72
2
 10
18.2716089246
 20
2.3878675959
 40
0.0119498009
 50
340.7883861657
 51
1.1691452593
 73
1
 72
1
 10
18.2835562378
 20
2.3881114198
 11
18.2835562378
 21
2.3907374213
 72
2
 10
18.2860312373
 20
2.3907374231
 40
0.0024749995
 50
89.9999571957
 51
180.0000428043
 73
1
 72
1
 10
18.2860312391
 20
2.3932124227
 11
18.2981412459
 21
2.3932124227
 72
2
 10
18.2981412477
 20
2.3907374231
 40
0.0024749995
 50
359.9999571957
 51
90.0000428043
 73
1
 72
1
 10
18.3006162472
 20
2.3907374213
 11
18.3006162472
 21
2.3791854149
 72
2
 10
18.2830605507
 20
2.3792897325
 40
0.0175560065
 50
332.2279060967
 51
359.6595469939
 73
1
 72
2
 10
18.2737535399
 20
2.384184238
 40
0.0280715479
 50
308.5071794988
 51
332.2400656899
 73
1
 72
2
 10
18.2667613545
 20
2.3917854558
 40
0.0383802683
 50
288.7656836787
 51
309.6104317088
 73
1
 72
2
 10
18.2724993219
 20
2.3741987064
 40
0.0198837666
 50
271.8586572978
 51
289.4131338543
 73
1
 72
1
 10
18.273144232
 20
2.3543254011
 11
18.2257802057
 21
2.3543254011
 97
267
330
2D7
330
2D8
330
2D9
330
2DA
330
2DB
330
2DC
330
2DD
330
2DE
330
2DF
330
2E0
330
2E1
330
2E2
330
2E3
330
2E4
330
2E5
330
2E6
330
2E7
330
2E8
330
2E9
330
2EA
330
2EB
330
2EC
330
2ED
330
2EE
330
2EF
330
2F0
330
2F1
330
2F2
330
2F3
330
2F4
330
2F5
330
2F6
330
2F7
330
2F8
330
2F9
330
2FA
330
2FB
330
2FC
330
2FD
330
2FE
330
2FF
330
300
330
301
330
302
330
303
330
304
330
305
330
306
330
307
330
308
330
309
330
30A
330
30B
330
30C
330
30D
330
30E
330
30F
330
310
330
311
330
312
330
313
330
314
330
315
330
316
330
317
330
318
330
319
330
31A
330
31B
330
31C
330
31D
330
31E
330
31F
330
320
330
321
330
322
330
323
330
324
330
325
330
326
330
327
330
328
330
329
330
32A
330
32B
330
32C
330
32D
330
32E
330
32F
330
330
330
331
330
332
330
333
330
334
330
335
330
336
330
337
330
338
330
339
330
33A
330
33B
330
33C
330
33D
330
33E
330
33F
330
340
330
341
330
342
330
343
330
344
330
345
330
346
330
347
330
348
330
349
330
34A
330
34B
330
34C
330
34D
330
34E
330
34F
330
350
330
351
330
352
330
353
330
354
330
355
330
356
330
357
330
358
330
359
330
35A
330
35B
330
35C
330
35D
330
35E
330
35F
330
360
330
361
330
362
330
363
330
364
330
365
330
366
330
367
330
368
330
369
330
36A
330
36B
330
36C
330
36D
330
36E
330
36F
330
370
330
371
330
372
330
373
330
374
330
375
330
376
330
377
330
378
330
379
330
37A
330
37B
330
37C
330
37D
330
37E
330
37F
330
380
330
381
330
382
330
383
330
384
330
385
330
386
330
387
330
388
330
389
330
38A
330
38B
330
38C
330
38D
330
38E
330
38F
330
390
330
391
330
392
330
393
330
394
330
395
330
396
330
397
330
398
330
399
330
39A
330
39B
330
39C
330
39D
330
39E
330
39F
330
3A0
330
3A1
330
3A2
330
3A3
330
3A4
330
3A5
330
3A6
330
3A7
330
3A8
330
3A9
330
3AA
330
3AB
330
3AC
330
3AD
330
3AE
330
3AF
330
3B0
330
3B1
330
3B2
330
3B3
330
3B4
330
3B5
330
3B6
330
3B7
330
3B8
330
3B9
330
3BA
330
3BB
330
3BC
330
3BD
330
3BE
330
3BF
330
3C0
330
3C1
330
3C2
330
3C3
330
3C4
330
3C5
330
3C6
330
3C7
330
3C8
330
3C9
330
3CA
330
3CB
330
3CC
330
3CD
330
3CE
330
3CF
330
3D0
330
3D1
330
3D2
330
3D3
330
3D4
330
3D5
330
3D6
330
3D7
330
3D8
330
3D9
330
3DA
330
3DB
330
3DC
330
3DD
330
3DE
330
3DF
330
3E0
330
3E1
 92
1
 93
40
 72
2
 10
17.8362019878
 20
2.3568004006
 40
0.0024749995
 50
179.9999571957
 51
270.0000428042
 73
1
 72
1
 10
17.8337269883
 20
2.3568004025
 11
17.8337269883
 21
2.3766004134
 72
2
 10
17.8362019878
 20
2.3766004153
 40
0.0024749995
 50
89.9999571958
 51
180.0000428043
 73
1
 72
1
 10
17.8362019897
 20
2.3790754148
 11
17.860125003
 21
2.3790754148
 72
2
 10
17.8601250048
 20
2.3815504143
 40
0.0024749995
 50
269.9999571956
 51
0.0000428042
 73
1
 72
1
 10
17.8626000043
 20
2.3815504162
 11
17.8626000043
 21
2.4279054419
 72
2
 10
17.8601250048
 20
2.4279054437
 40
0.0024749995
 50
359.9999571957
 51
90.0000428043
 73
1
 72
1
 10
17.860125003
 20
2.4303804433
 11
17.8362019897
 21
2.4303804433
 72
2
 10
17.8362019878
 20
2.4328554428
 40
0.0024749995
 50
179.9999571957
 51
270.0000428043
 73
1
 72
1
 10
17.8337269883
 20
2.4328554446
 11
17.8337269883
 21
2.4526554556
 72
2
 10
17.8362019878
 20
2.4526554575
 40
0.0024749995
 50
89.9999571958
 51
180.0000428043
 73
1
 72
1
 10
17.8362019897
 20
2.455130457
 11
18.0379951016
 21
2.455130457
 72
2
 10
18.0379951034
 20
2.4526554575
 40
0.0024749995
 50
359.9999571957
 51
90.0000428042
 73
1
 72
1
 10
18.040470103
 20
2.4526554556
 11
18.040470103
 21
2.4196554373
 72
2
 10
18.0379951034
 20
2.4196554355
 40
0.0024749995
 50
269.9999571956
 51
0.0000428042
 73
1
 72
1
 10
18.0379951016
 20
2.4171804359
 11
17.9961310784
 21
2.4171804359
 72
2
 10
17.9961310765
 20
2.4196554355
 40
0.0024749995
 50
179.9999571957
 51
270.0000428043
 73
1
 72
1
 10
17.993656077
 20
2.4196554373
 11
17.993656077
 21
2.4279054419
 72
2
 10
17.9911810775
 20
2.4279054437
 40
0.0024749995
 50
359.9999571957
 51
90.0000428043
 73
1
 72
1
 10
17.9911810756
 20
2.4303804433
 11
17.9271410401
 21
2.4303804433
 72
2
 10
17.9271410383
 20
2.4279054437
 40
0.0024749995
 50
89.9999571958
 51
180.0000428043
 73
1
 72
1
 10
17.9246660387
 20
2.4279054419
 11
17.9246660387
 21
2.4163554355
 72
2
 10
17.9271410383
 20
2.4163554336
 40
0.0024749995
 50
179.9999571957
 51
270.0000428042
 73
1
 72
1
 10
17.9271410401
 20
2.4138804341
 11
17.9623080596
 21
2.4138804341
 72
2
 10
17.9623080615
 20
2.4114054346
 40
0.0024749995
 50
359.9999571957
 51
90.0000428042
 73
1
 72
1
 10
17.964783061
 20
2.4114054327
 11
17.964783061
 21
2.3980504253
 72
2
 10
17.9623080615
 20
2.3980504235
 40
0.0024749995
 50
269.9999571956
 51
0.0000428042
 73
1
 72
1
 10
17.9623080596
 20
2.395575424
 11
17.9271410401
 21
2.395575424
 72
2
 10
17.9271410383
 20
2.3931004244
 40
0.0024749995
 50
89.9999571958
 51
180.0000428043
 73
1
 72
1
 10
17.9246660387
 20
2.3931004226
 11
17.9246660387
 21
2.3815504162
 72
2
 10
17.9271410383
 20
2.3815504143
 40
0.0024749995
 50
179.9999571957
 51
270.0000428043
 73
1
 72
1
 10
17.9271410401
 20
2.3790754148
 11
17.9921450762
 21
2.3790754148
 72
2
 10
17.992145078
 20
2.3815504143
 40
0.0024749995
 50
269.9999571958
 51
0.0000428043
 73
1
 72
1
 10
17.9946200775
 20
2.3815504162
 11
17.9946200775
 21
2.3898004208
 72
2
 10
17.9970950771
 20
2.3898004226
 40
0.0024749995
 50
89.9999571958
 51
180.0000428043
 73
1
 72
1
 10
17.9970950789
 20
2.3922754221
 11
18.0394141024
 21
2.3922754221
 72
2
 10
18.0394141042
 20
2.3898004226
 40
0.0024749995
 50
359.9999571957
 51
90.0000428043
 73
1
 72
1
 10
18.0418891038
 20
2.3898004208
 11
18.0418891038
 21
2.3568004025
 72
2
 10
18.0394141042
 20
2.3568004006
 40
0.0024749995
 50
269.9999571958
 51
0.0000428043
 73
1
 72
1
 10
18.0394141024
 20
2.3543254011
 11
17.8362019897
 21
2.3543254011
 97
267
330
2D7
330
2D8
330
2D9
330
2DA
330
2DB
330
2DC
330
2DD
330
2DE
330
2DF
330
2E0
330
2E1
330
2E2
330
2E3
330
2E4
330
2E5
330
2E6
330
2E7
330
2E8
330
2E9
330
2EA
330
2EB
330
2EC
330
2ED
330
2EE
330
2EF
330
2F0
330
2F1
330
2F2
330
2F3
330
2F4
330
2F5
330
2F6
330
2F7
330
2F8
330
2F9
330
2FA
330
2FB
330
2FC
330
2FD
330
2FE
330
2FF
330
300
330
301
330
302
330
303
330
304
330
305
330
306
330
307
330
308
330
309
330
30A
330
30B
330
30C
330
30D
330
30E
330
30F
330
310
330
311
330
312
330
313
330
314
330
315
330
316
330
317
330
318
330
319
330
31A
330
31B
330
31C
330
31D
330
31E
330
31F
330
320
330
321
330
322
330
323
330
324
330
325
330
326
330
327
330
328
330
329
330
32A
330
32B
330
32C
330
32D
330
32E
330
32F
330
330
330
331
330
332
330
333
330
334
330
335
330
336
330
337
330
338
330
339
330
33A
330
33B
330
33C
330
33D
330
33E
330
33F
330
340
330
341
330
342
330
343
330
344
330
345
330
346
330
347
330
348
330
349
330
34A
330
34B
330
34C
330
34D
330
34E
330
34F
330
350
330
351
330
352
330
353
330
354
330
355
330
356
330
357
330
358
330
359
330
35A
330
35B
330
35C
330
35D
330
35E
330
35F
330
360
330
361
330
362
330
363
330
364
330
365
330
366
330
367
330
368
330
369
330
36A
330
36B
330
36C
330
36D
330
36E
330
36F
330
370
330
371
330
372
330
373
330
374
330
375
330
376
330
377
330
378
330
379
330
37A
330
37B
330
37C
330
37D
330
37E
330
37F
330
380
330
381
330
382
330
383
330
384
330
385
330
386
330
387
330
388
330
389
330
38A
330
38B
330
38C
330
38D
330
38E
330
38F
330
390
330
391
330
392
330
393
330
394
330
395
330
396
330
397
330
398
330
399
330
39A
330
39B
330
39C
330
39D
330
39E
330
39F
330
3A0
330
3A1
330
3A2
330
3A3
330
3A4
330
3A5
330
3A6
330
3A7
330
3A8
330
3A9
330
3AA
330
3AB
330
3AC
330
3AD
330
3AE
330
3AF
330
3B0
330
3B1
330
3B2
330
3B3
330
3B4
330
3B5
330
3B6
330
3B7
330
3B8
330
3B9
330
3BA
330
3BB
330
3BC
330
3BD
330
3BE
330
3BF
330
3C0
330
3C1
330
3C2
330
3C3
330
3C4
330
3C5
330
3C6
330
3C7
330
3C8
330
3C9
330
3CA
330
3CB
330
3CC
330
3CD
330
3CE
330
3CF
330
3D0
330
3D1
330
3D2
330
3D3
330
3D4
330
3D5
330
3D6
330
3D7
330
3D8
330
3D9
330
3DA
330
3DB
330
3DC
330
3DD
330
3DE
330
3DF
330
3E0
330
3E1
 92
1
 93
40
 72
2
 10
17.7115227858
 20
2.3567995689
 40
0.0024741678
 50
226.3477981898
 51
270.0031206038
 73
1
 72
1
 10
17.7098149196
 20
2.3550094015
 11
17.6465348845
 21
2.415387435
 72
2
 10
17.6448261836
 20
2.4135964972
 40
0.0024753014
 50
46.3461263058
 51
180.0014637321
 73
1
 72
1
 10
17.6423508822
 20
2.413596434
 11
17.6423508822
 21
2.3815504162
 72
2
 10
17.6448258817
 20
2.3815504143
 40
0.0024749995
 50
179.9999571957
 51
270.0000428043
 73
1
 72
1
 10
17.6448258836
 20
2.3790754148
 11
17.6651428948
 21
2.3790754148
 72
2
 10
17.6651428967
 20
2.3766004153
 40
0.0024749995
 50
359.9999571957
 51
90.0000428043
 73
1
 72
1
 10
17.6676178962
 20
2.3766004134
 11
17.6676178962
 21
2.3568004025
 72
2
 10
17.6651428967
 20
2.3568004006
 40
0.0024749995
 50
269.9999571958
 51
0.0000428043
 73
1
 72
1
 10
17.6651428948
 20
2.3543254011
 11
17.5894788529
 21
2.3543254011
 72
2
 10
17.589478851
 20
2.3568004006
 40
0.0024749995
 50
179.9999571957
 51
270.0000428042
 73
1
 72
1
 10
17.5870038515
 20
2.3568004025
 11
17.5870038515
 21
2.3766004134
 72
2
 10
17.589478851
 20
2.3766004153
 40
0.0024749995
 50
89.9999571957
 51
180.0000428043
 73
1
 72
1
 10
17.5894788529
 20
2.3790754148
 11
17.6081248632
 21
2.3790754148
 72
2
 10
17.6081248651
 20
2.3815504143
 40
0.0024749995
 50
269.9999571957
 51
0.0000428043
 73
1
 72
1
 10
17.6105998646
 20
2.3815504162
 11
17.6105998646
 21
2.4279054419
 72
2
 10
17.6081248651
 20
2.4279054437
 40
0.0024749995
 50
359.9999571957
 51
90.0000428043
 73
1
 72
1
 10
17.6081248632
 20
2.4303804433
 11
17.5894788529
 21
2.4303804433
 72
2
 10
17.589478851
 20
2.4328554428
 40
0.0024749995
 50
179.9999571957
 51
270.0000428043
 73
1
 72
1
 10
17.5870038515
 20
2.4328554446
 11
17.5870038515
 21
2.4526554556
 72
2
 10
17.589478851
 20
2.4526554575
 40
0.0024749995
 50
89.9999571957
 51
180.0000428043
 73
1
 72
1
 10
17.5894788529
 20
2.455130457
 11
17.6899369086
 21
2.455130457
 72
2
 10
17.6899370433
 20
2.4526562892
 40
0.0024741678
 50
46.3477981899
 51
90.0031206038
 73
1
 72
1
 10
17.6916449095
 20
2.4544464566
 11
17.7516779428
 21
2.3971664249
 72
2
 10
17.7533866437
 20
2.3989573626
 40
0.0024753014
 50
226.3461263059
 51
0.0014637321
 73
1
 72
1
 10
17.7558619451
 20
2.3989574258
 11
17.7558619451
 21
2.4279054419
 72
2
 10
17.7533869456
 20
2.4279054437
 40
0.0024749995
 50
359.9999571957
 51
90.0000428043
 73
1
 72
1
 10
17.7533869438
 20
2.4303804433
 11
17.7346109333
 21
2.4303804433
 72
2
 10
17.7346109315
 20
2.4328554428
 40
0.0024749995
 50
179.9999571957
 51
270.0000428043
 73
1
 72
1
 10
17.732135932
 20
2.4328554446
 11
17.732135932
 21
2.4526554556
 72
2
 10
17.7346109315
 20
2.4526554575
 40
0.0024749995
 50
89.9999571958
 51
180.0000428043
 73
1
 72
1
 10
17.7346109333
 20
2.455130457
 11
17.8086119744
 21
2.455130457
 72
2
 10
17.8086119762
 20
2.4526554575
 40
0.0024749995
 50
359.9999571957
 51
90.0000428043
 73
1
 72
1
 10
17.8110869758
 20
2.4526554556
 11
17.8110869758
 21
2.4328554446
 72
2
 10
17.8086119762
 20
2.4328554428
 40
0.0024749995
 50
269.9999571956
 51
0.0000428042
 73
1
 72
1
 10
17.8086119744
 20
2.4303804433
 11
17.7906789644
 21
2.4303804433
 72
2
 10
17.7906789626
 20
2.4279054437
 40
0.0024749995
 50
89.9999571957
 51
180.0000428043
 73
1
 72
1
 10
17.7882039631
 20
2.4279054419
 11
17.7882039631
 21
2.3568004025
 72
2
 10
17.7857289635
 20
2.3568004006
 40
0.0024749995
 50
269.9999571957
 51
0.0000428043
 73
1
 72
1
 10
17.7857289617
 20
2.3543254011
 11
17.7115229205
 21
2.3543254011
 97
267
330
2D7
330
2D8
330
2D9
330
2DA
330
2DB
330
2DC
330
2DD
330
2DE
330
2DF
330
2E0
330
2E1
330
2E2
330
2E3
330
2E4
330
2E5
330
2E6
330
2E7
330
2E8
330
2E9
330
2EA
330
2EB
330
2EC
330
2ED
330
2EE
330
2EF
330
2F0
330
2F1
330
2F2
330
2F3
330
2F4
330
2F5
330
2F6
330
2F7
330
2F8
330
2F9
330
2FA
330
2FB
330
2FC
330
2FD
330
2FE
330
2FF
330
300
330
301
330
302
330
303
330
304
330
305
330
306
330
307
330
308
330
309
330
30A
330
30B
330
30C
330
30D
330
30E
330
30F
330
310
330
311
330
312
330
313
330
314
330
315
330
316
330
317
330
318
330
319
330
31A
330
31B
330
31C
330
31D
330
31E
330
31F
330
320
330
321
330
322
330
323
330
324
330
325
330
326
330
327
330
328
330
329
330
32A
330
32B
330
32C
330
32D
330
32E
330
32F
330
330
330
331
330
332
330
333
330
334
330
335
330
336
330
337
330
338
330
339
330
33A
330
33B
330
33C
330
33D
330
33E
330
33F
330
340
330
341
330
342
330
343
330
344
330
345
330
346
330
347
330
348
330
349
330
34A
330
34B
330
34C
330
34D
330
34E
330
34F
330
350
330
351
330
352
330
353
330
354
330
355
330
356
330
357
330
358
330
359
330
35A
330
35B
330
35C
330
35D
330
35E
330
35F
330
360
330
361
330
362
330
363
330
364
330
365
330
366
330
367
330
368
330
369
330
36A
330
36B
330
36C
330
36D
330
36E
330
36F
330
370
330
371
330
372
330
373
330
374
330
375
330
376
330
377
330
378
330
379
330
37A
330
37B
330
37C
330
37D
330
37E
330
37F
330
380
330
381
330
382
330
383
330
384
330
385
330
386
330
387
330
388
330
389
330
38A
330
38B
330
38C
330
38D
330
38E
330
38F
330
390
330
391
330
392
330
393
330
394
330
395
330
396
330
397
330
398
330
399
330
39A
330
39B
330
39C
330
39D
330
39E
330
39F
330
3A0
330
3A1
330
3A2
330
3A3
330
3A4
330
3A5
330
3A6
330
3A7
330
3A8
330
3A9
330
3AA
330
3AB
330
3AC
330
3AD
330
3AE
330
3AF
330
3B0
330
3B1
330
3B2
330
3B3
330
3B4
330
3B5
330
3B6
330
3B7
330
3B8
330
3B9
330
3BA
330
3BB
330
3BC
330
3BD
330
3BE
330
3BF
330
3C0
330
3C1
330
3C2
330
3C3
330
3C4
330
3C5
330
3C6
330
3C7
330
3C8
330
3C9
330
3CA
330
3CB
330
3CC
330
3CD
330
3CE
330
3CF
330
3D0
330
3D1
330
3D2
330
3D3
330
3D4
330
3D5
330
3D6
330
3D7
330
3D8
330
3D9
330
3DA
330
3DB
330
3DC
330
3DD
330
3DE
330
3DF
330
3E0
330
3E1
 92
1
 93
40
 72
2
 10
17.4632701481
 20
2.3568008172
 40
0.0024754162
 50
226.3593695814
 51
270.0146919954
 73
1
 72
1
 10
17.4615617819
 20
2.3550094015
 11
17.3982817468
 21
2.415387435
 72
2
 10
17.3965730459
 20
2.4135964972
 40
0.0024753014
 50
46.3461263058
 51
180.0014637321
 73
1
 72
1
 10
17.3940977445
 20
2.413596434
 11
17.3940977445
 21
2.3815504162
 72
2
 10
17.396572744
 20
2.3815504143
 40
0.0024749995
 50
179.9999571957
 51
270.0000428043
 73
1
 72
1
 10
17.3965727459
 20
2.3790754148
 11
17.4168897572
 21
2.3790754148
 72
2
 10
17.416889759
 20
2.3766004153
 40
0.0024749995
 50
359.9999571957
 51
90.0000428043
 73
1
 72
1
 10
17.4193647585
 20
2.3766004134
 11
17.4193647585
 21
2.3568004025
 72
2
 10
17.416889759
 20
2.3568004006
 40
0.0024749995
 50
269.9999571957
 51
0.0000428043
 73
1
 72
1
 10
17.4168897572
 20
2.3543254011
 11
17.3412257152
 21
2.3543254011
 72
2
 10
17.3412257133
 20
2.3568004006
 40
0.0024749995
 50
179.9999571957
 51
270.0000428043
 73
1
 72
1
 10
17.3387507138
 20
2.3568004025
 11
17.3387507138
 21
2.3766004134
 72
2
 10
17.3412257133
 20
2.3766004153
 40
0.0024749995
 50
89.9999571957
 51
180.0000428043
 73
1
 72
1
 10
17.3412257152
 20
2.3790754148
 11
17.3598727255
 21
2.3790754148
 72
2
 10
17.3598727274
 20
2.3815504143
 40
0.0024749995
 50
269.9999571957
 51
0.0000428043
 73
1
 72
1
 10
17.3623477269
 20
2.3815504162
 11
17.3623477269
 21
2.4279054419
 72
2
 10
17.3598727274
 20
2.4279054437
 40
0.0024749995
 50
359.9999571957
 51
90.0000428044
 73
1
 72
1
 10
17.3598727255
 20
2.4303804433
 11
17.3412257152
 21
2.4303804433
 72
2
 10
17.3412257133
 20
2.4328554428
 40
0.0024749995
 50
179.9999571957
 51
270.0000428043
 73
1
 72
1
 10
17.3387507138
 20
2.4328554446
 11
17.3387507138
 21
2.4526554556
 72
2
 10
17.3412257133
 20
2.4526554575
 40
0.0024749995
 50
89.9999571957
 51
180.0000428043
 73
1
 72
1
 10
17.3412257152
 20
2.455130457
 11
17.4416837709
 21
2.455130457
 72
2
 10
17.4416839057
 20
2.4526562892
 40
0.0024741678
 50
46.3477981899
 51
90.0031206038
 73
1
 72
1
 10
17.4433917718
 20
2.4544464566
 11
17.5034248051
 21
2.3971664249
 72
2
 10
17.5051335061
 20
2.3989573626
 40
0.0024753014
 50
226.3461263059
 51
0.0014637321
 73
1
 72
1
 10
17.5076088075
 20
2.3989574258
 11
17.5076088075
 21
2.4279054419
 72
2
 10
17.5051338079
 20
2.4279054437
 40
0.0024749995
 50
359.9999571957
 51
90.0000428043
 73
1
 72
1
 10
17.5051338061
 20
2.4303804433
 11
17.4863577957
 21
2.4303804433
 72
2
 10
17.4863577938
 20
2.4328554428
 40
0.0024749995
 50
179.9999571957
 51
270.0000428043
 73
1
 72
1
 10
17.4838827943
 20
2.4328554446
 11
17.4838827943
 21
2.4526554556
 72
2
 10
17.4863577938
 20
2.4526554575
 40
0.0024749995
 50
89.9999571957
 51
180.0000428043
 73
1
 72
1
 10
17.4863577957
 20
2.455130457
 11
17.5603588367
 21
2.455130457
 72
2
 10
17.5603588386
 20
2.4526554575
 40
0.0024749995
 50
359.9999571957
 51
90.0000428042
 73
1
 72
1
 10
17.5628338381
 20
2.4526554556
 11
17.5628338381
 21
2.4328554446
 72
2
 10
17.5603588386
 20
2.4328554428
 40
0.0024749995
 50
269.9999571958
 51
0.0000428043
 73
1
 72
1
 10
17.5603588367
 20
2.4303804433
 11
17.5424258268
 21
2.4303804433
 72
2
 10
17.5424258249
 20
2.4279054437
 40
0.0024749995
 50
89.9999571958
 51
180.0000428043
 73
1
 72
1
 10
17.5399508254
 20
2.4279054419
 11
17.5399508254
 21
2.3568004025
 72
2
 10
17.5374758259
 20
2.3568004006
 40
0.0024749995
 50
269.9999571958
 51
0.0000428043
 73
1
 72
1
 10
17.537475824
 20
2.3543254011
 11
17.4632707829
 21
2.3543254011
 97
267
330
2D7
330
2D8
330
2D9
330
2DA
330
2DB
330
2DC
330
2DD
330
2DE
330
2DF
330
2E0
330
2E1
330
2E2
330
2E3
330
2E4
330
2E5
330
2E6
330
2E7
330
2E8
330
2E9
330
2EA
330
2EB
330
2EC
330
2ED
330
2EE
330
2EF
330
2F0
330
2F1
330
2F2
330
2F3
330
2F4
330
2F5
330
2F6
330
2F7
330
2F8
330
2F9
330
2FA
330
2FB
330
2FC
330
2FD
330
2FE
330
2FF
330
300
330
301
330
302
330
303
330
304
330
305
330
306
330
307
330
308
330
309
330
30A
330
30B
330
30C
330
30D
330
30E
330
30F
330
310
330
311
330
312
330
313
330
314
330
315
330
316
330
317
330
318
330
319
330
31A
330
31B
330
31C
330
31D
330
31E
330
31F
330
320
330
321
330
322
330
323
330
324
330
325
330
326
330
327
330
328
330
329
330
32A
330
32B
330
32C
330
32D
330
32E
330
32F
330
330
330
331
330
332
330
333
330
334
330
335
330
336
330
337
330
338
330
339
330
33A
330
33B
330
33C
330
33D
330
33E
330
33F
330
340
330
341
330
342
330
343
330
344
330
345
330
346
330
347
330
348
330
349
330
34A
330
34B
330
34C
330
34D
330
34E
330
34F
330
350
330
351
330
352
330
353
330
354
330
355
330
356
330
357
330
358
330
359
330
35A
330
35B
330
35C
330
35D
330
35E
330
35F
330
360
330
361
330
362
330
363
330
364
330
365
330
366
330
367
330
368
330
369
330
36A
330
36B
330
36C
330
36D
330
36E
330
36F
330
370
330
371
330
372
330
373
330
374
330
375
330
376
330
377
330
378
330
379
330
37A
330
37B
330
37C
330
37D
330
37E
330
37F
330
380
330
381
330
382
330
383
330
384
330
385
330
386
330
387
330
388
330
389
330
38A
330
38B
330
38C
330
38D
330
38E
330
38F
330
390
330
391
330
392
330
393
330
394
330
395
330
396
330
397
330
398
330
399
330
39A
330
39B
330
39C
330
39D
330
39E
330
39F
330
3A0
330
3A1
330
3A2
330
3A3
330
3A4
330
3A5
330
3A6
330
3A7
330
3A8
330
3A9
330
3AA
330
3AB
330
3AC
330
3AD
330
3AE
330
3AF
330
3B0
330
3B1
330
3B2
330
3B3
330
3B4
330
3B5
330
3B6
330
3B7
330
3B8
330
3B9
330
3BA
330
3BB
330
3BC
330
3BD
330
3BE
330
3BF
330
3C0
330
3C1
330
3C2
330
3C3
330
3C4
330
3C5
330
3C6
330
3C7
330
3C8
330
3C9
330
3CA
330
3CB
330
3CC
330
3CD
330
3CE
330
3CF
330
3D0
330
3D1
330
3D2
330
3D3
330
3D4
330
3D5
330
3D6
330
3D7
330
3D8
330
3D9
330
3DA
330
3DB
330
3DC
330
3DD
330
3DE
330
3DF
330
3E0
330
3E1
 92
1
 93
23
 72
2
 10
17.0481152095
 20
2.4027328529
 40
0.048483885
 50
273.21763719
 51
303.0749121182
 73
1
 72
2
 10
17.0629546036
 20
2.379965244
 40
0.0213072145
 50
303.0488228549
 51
355.7263138674
 73
1
 72
2
 10
17.0688911042
 20
2.3799744343
 40
0.0153945295
 50
354.0454548824
 51
5.1878013979
 73
1
 72
2
 10
17.0620614151
 20
2.3797859164
 40
0.0222174455
 50
4.0793399388
 51
69.834329283
 73
1
 72
1
 10
17.0697205646
 20
2.4006414268
 11
17.059669559
 21
2.4041904287
 72
1
 10
17.059669559
 20
2.4041904287
 11
17.0679095636
 21
2.4089664314
 72
2
 10
17.0460441811
 20
2.445793323
 40
0.0428289026
 50
300.6990502959
 51
319.0591802498
 73
1
 72
2
 10
17.0660727781
 20
2.4296649696
 40
0.0171568255
 50
315.9145124245
 51
16.0049121283
 73
1
 72
2
 10
17.0611211659
 20
2.4263113051
 40
0.0229166529
 50
20.6563876465
 51
62.3316896973
 73
1
 72
2
 10
17.0404590422
 20
2.3933827403
 40
0.061747717
 50
59.5385584989
 51
90.0050977555
 73
1
 72
1
 10
17.0404535484
 20
2.455130457
 11
16.8743904563
 21
2.455130457
 72
2
 10
16.8743904545
 20
2.4526554575
 40
0.0024749995
 50
89.9999571958
 51
180.0000428043
 73
1
 72
1
 10
16.8719154549
 20
2.4526554556
 11
16.8719154549
 21
2.4328554446
 72
2
 10
16.8743904545
 20
2.4328554428
 40
0.0024749995
 50
179.9999571957
 51
270.0000428043
 73
1
 72
1
 10
16.8743904563
 20
2.4303804433
 11
16.8983324696
 21
2.4303804433
 72
2
 10
16.8983324714
 20
2.4279054437
 40
0.0024749995
 50
359.9999571957
 51
90.0000428043
 73
1
 72
1
 10
16.9008074709
 20
2.4279054419
 11
16.9008074709
 21
2.3815504162
 72
2
 10
16.8983324714
 20
2.3815504143
 40
0.0024749995
 50
269.9999571958
 51
0.0000428043
 73
1
 72
1
 10
16.8983324696
 20
2.3790754148
 11
16.8743904563
 21
2.3790754148
 72
2
 10
16.8743904545
 20
2.3766004153
 40
0.0024749995
 50
89.9999571958
 51
180.0000428043
 73
1
 72
1
 10
16.8719154549
 20
2.3766004134
 11
16.8719154549
 21
2.3568004025
 72
2
 10
16.8743904545
 20
2.3568004006
 40
0.0024749995
 50
179.9999571957
 51
270.0000428042
 73
1
 72
1
 10
16.8743904563
 20
2.3543254011
 11
17.0508365542
 21
2.3543254011
 97
267
330
2D7
330
2D8
330
2D9
330
2DA
330
2DB
330
2DC
330
2DD
330
2DE
330
2DF
330
2E0
330
2E1
330
2E2
330
2E3
330
2E4
330
2E5
330
2E6
330
2E7
330
2E8
330
2E9
330
2EA
330
2EB
330
2EC
330
2ED
330
2EE
330
2EF
330
2F0
330
2F1
330
2F2
330
2F3
330
2F4
330
2F5
330
2F6
330
2F7
330
2F8
330
2F9
330
2FA
330
2FB
330
2FC
330
2FD
330
2FE
330
2FF
330
300
330
301
330
302
330
303
330
304
330
305
330
306
330
307
330
308
330
309
330
30A
330
30B
330
30C
330
30D
330
30E
330
30F
330
310
330
311
330
312
330
313
330
314
330
315
330
316
330
317
330
318
330
319
330
31A
330
31B
330
31C
330
31D
330
31E
330
31F
330
320
330
321
330
322
330
323
330
324
330
325
330
326
330
327
330
328
330
329
330
32A
330
32B
330
32C
330
32D
330
32E
330
32F
330
330
330
331
330
332
330
333
330
334
330
335
330
336
330
337
330
338
330
339
330
33A
330
33B
330
33C
330
33D
330
33E
330
33F
330
340
330
341
330
342
330
343
330
344
330
345
330
346
330
347
330
348
330
349
330
34A
330
34B
330
34C
330
34D
330
34E
330
34F
330
350
330
351
330
352
330
353
330
354
330
355
330
356
330
357
330
358
330
359
330
35A
330
35B
330
35C
330
35D
330
35E
330
35F
330
360
330
361
330
362
330
363
330
364
330
365
330
366
330
367
330
368
330
369
330
36A
330
36B
330
36C
330
36D
330
36E
330
36F
330
370
330
371
330
372
330
373
330
374
330
375
330
376
330
377
330
378
330
379
330
37A
330
37B
330
37C
330
37D
330
37E
330
37F
330
380
330
381
330
382
330
383
330
384
330
385
330
386
330
387
330
388
330
389
330
38A
330
38B
330
38C
330
38D
330
38E
330
38F
330
390
330
391
330
392
330
393
330
394
330
395
330
396
330
397
330
398
330
399
330
39A
330
39B
330
39C
330
39D
330
39E
330
39F
330
3A0
330
3A1
330
3A2
330
3A3
330
3A4
330
3A5
330
3A6
330
3A7
330
3A8
330
3A9
330
3AA
330
3AB
330
3AC
330
3AD
330
3AE
330
3AF
330
3B0
330
3B1
330
3B2
330
3B3
330
3B4
330
3B5
330
3B6
330
3B7
330
3B8
330
3B9
330
3BA
330
3BB
330
3BC
330
3BD
330
3BE
330
3BF
330
3C0
330
3C1
330
3C2
330
3C3
330
3C4
330
3C5
330
3C6
330
3C7
330
3C8
330
3C9
330
3CA
330
3CB
330
3CC
330
3CD
330
3CE
330
3CF
330
3D0
330
3D1
330
3D2
330
3D3
330
3D4
330
3D5
330
3D6
330
3D7
330
3D8
330
3D9
330
3DA
330
3DB
330
3DC
330
3DD
330
3DE
330
3DF
330
3E0
330
3E1
 92
1
 93
32
 72
2
 10
17.1857496308
 20
2.3568004006
 40
0.0024749995
 50
269.9999571958
 51
0.0000428044
 73
1
 72
1
 10
17.1882246303
 20
2.3568004025
 11
17.1882246303
 21
2.3766004134
 72
2
 10
17.1857496308
 20
2.3766004153
 40
0.0024749995
 50
359.9999571957
 51
90.0000428043
 73
1
 72
1
 10
17.185749629
 20
2.3790754148
 11
17.1744666227
 21
2.3790754148
 72
2
 10
17.1744665134
 20
2.3815504549
 40
0.0024750401
 50
147.6063258011
 51
270.0025305754
 73
1
 72
1
 10
17.1723766216
 20
2.3828764169
 11
17.1778926246
 21
2.3915704217
 72
2
 10
17.1799825555
 20
2.3902442221
 40
0.0024752003
 50
89.998372645
 51
147.602165307
 73
1
 72
1
 10
17.1799826258
 20
2.3927194224
 11
17.2148606451
 21
2.3927194224
 72
2
 10
17.2148601055
 20
2.3902439622
 40
0.0024754602
 50
32.8959418574
 51
89.9875097202
 73
1
 72
1
 10
17.2169386463
 20
2.3915884218
 11
17.2225646494
 21
2.3828954169
 72
2
 10
17.2204866271
 20
2.3815506219
 40
0.0024752071
 50
270.0004896793
 51
32.9089806818
 73
1
 72
1
 10
17.2204866482
 20
2.3790754148
 11
17.2060356402
 21
2.3790754148
 72
2
 10
17.2060356384
 20
2.3766004153
 40
0.0024749995
 50
89.9999571958
 51
180.0000428043
 73
1
 72
1
 10
17.2035606388
 20
2.3766004134
 11
17.2035606388
 21
2.3568004025
 72
2
 10
17.2060356384
 20
2.3568004006
 40
0.0024749995
 50
179.9999571957
 51
270.0000428042
 73
1
 72
1
 10
17.2060356402
 20
2.3543254011
 11
17.3113166986
 21
2.3543254011
 72
2
 10
17.3113167005
 20
2.3568004006
 40
0.0024749995
 50
269.9999571957
 51
0.0000428043
 73
1
 72
1
 10
17.3137917
 20
2.3568004025
 11
17.3137917
 21
2.3766004134
 72
2
 10
17.3113167005
 20
2.3766004153
 40
0.0024749995
 50
359.9999571957
 51
90.0000428043
 73
1
 72
1
 10
17.3113166986
 20
2.3790754148
 11
17.2913006875
 21
2.3790754148
 72
2
 10
17.291300808
 20
2.3815494558
 40
0.002474041
 50
212.9056413127
 51
269.9972091756
 73
1
 72
1
 10
17.2892236864
 20
2.3802054154
 11
17.2414676599
 21
2.4540004564
 72
2
 10
17.2393900382
 20
2.4526554968
 40
0.0024749602
 50
32.9172174468
 51
90.0087853096
 73
1
 72
1
 10
17.2393896587
 20
2.455130457
 11
17.182214627
 21
2.455130457
 72
2
 10
17.1822145567
 20
2.4526552567
 40
0.0024752003
 50
89.998372645
 51
147.602165307
 73
1
 72
1
 10
17.1801246258
 20
2.4539814564
 11
17.1333245999
 21
2.3802244155
 72
2
 10
17.131234669
 20
2.3815506151
 40
0.0024752003
 50
269.998372645
 51
327.602165307
 73
1
 72
1
 10
17.1312345987
 20
2.3790754148
 11
17.1083735861
 21
2.3790754148
 72
2
 10
17.1083735842
 20
2.3766004153
 40
0.0024749995
 50
89.9999571957
 51
180.0000428043
 73
1
 72
1
 10
17.1058985847
 20
2.3766004134
 11
17.1058985847
 21
2.3568004025
 72
2
 10
17.1083735842
 20
2.3568004006
 40
0.0024749995
 50
179.9999571957
 51
270.0000428043
 73
1
 72
1
 10
17.1083735861
 20
2.3543254011
 11
17.185749629
 21
2.3543254011
 97
267
330
2D7
330
2D8
330
2D9
330
2DA
330
2DB
330
2DC
330
2DD
330
2DE
330
2DF
330
2E0
330
2E1
330
2E2
330
2E3
330
2E4
330
2E5
330
2E6
330
2E7
330
2E8
330
2E9
330
2EA
330
2EB
330
2EC
330
2ED
330
2EE
330
2EF
330
2F0
330
2F1
330
2F2
330
2F3
330
2F4
330
2F5
330
2F6
330
2F7
330
2F8
330
2F9
330
2FA
330
2FB
330
2FC
330
2FD
330
2FE
330
2FF
330
300
330
301
330
302
330
303
330
304
330
305
330
306
330
307
330
308
330
309
330
30A
330
30B
330
30C
330
30D
330
30E
330
30F
330
310
330
311
330
312
330
313
330
314
330
315
330
316
330
317
330
318
330
319
330
31A
330
31B
330
31C
330
31D
330
31E
330
31F
330
320
330
321
330
322
330
323
330
324
330
325
330
326
330
327
330
328
330
329
330
32A
330
32B
330
32C
330
32D
330
32E
330
32F
330
330
330
331
330
332
330
333
330
334
330
335
330
336
330
337
330
338
330
339
330
33A
330
33B
330
33C
330
33D
330
33E
330
33F
330
340
330
341
330
342
330
343
330
344
330
345
330
346
330
347
330
348
330
349
330
34A
330
34B
330
34C
330
34D
330
34E
330
34F
330
350
330
351
330
352
330
353
330
354
330
355
330
356
330
357
330
358
330
359
330
35A
330
35B
330
35C
330
35D
330
35E
330
35F
330
360
330
361
330
362
330
363
330
364
330
365
330
366
330
367
330
368
330
369
330
36A
330
36B
330
36C
330
36D
330
36E
330
36F
330
370
330
371
330
372
330
373
330
374
330
375
330
376
330
377
330
378
330
379
330
37A
330
37B
330
37C
330
37D
330
37E
330
37F
330
380
330
381
330
382
330
383
330
384
330
385
330
386
330
387
330
388
330
389
330
38A
330
38B
330
38C
330
38D
330
38E
330
38F
330
390
330
391
330
392
330
393
330
394
330
395
330
396
330
397
330
398
330
399
330
39A
330
39B
330
39C
330
39D
330
39E
330
39F
330
3A0
330
3A1
330
3A2
330
3A3
330
3A4
330
3A5
330
3A6
330
3A7
330
3A8
330
3A9
330
3AA
330
3AB
330
3AC
330
3AD
330
3AE
330
3AF
330
3B0
330
3B1
330
3B2
330
3B3
330
3B4
330
3B5
330
3B6
330
3B7
330
3B8
330
3B9
330
3BA
330
3BB
330
3BC
330
3BD
330
3BE
330
3BF
330
3C0
330
3C1
330
3C2
330
3C3
330
3C4
330
3C5
330
3C6
330
3C7
330
3C8
330
3C9
330
3CA
330
3CB
330
3CC
330
3CD
330
3CE
330
3CF
330
3D0
330
3D1
330
3D2
330
3D3
330
3D4
330
3D5
330
3D6
330
3D7
330
3D8
330
3D9
330
3DA
330
3DB
330
3DC
330
3DD
330
3DE
330
3DF
330
3E0
330
3E1
 92
1
 93
6
 72
2
 10
16.963795504
 20
2.3815504143
 40
0.0024749995
 50
179.9999571957
 51
270.0000428043
 73
1
 72
1
 10
16.9613205045
 20
2.3815504162
 11
16.9613205045
 21
2.3939254231
 72
2
 10
16.963795504
 20
2.3939254249
 40
0.0024749995
 50
89.9999571957
 51
180.0000428043
 73
1
 72
1
 10
16.9637955059
 20
2.3964004244
 11
17.0051585288
 21
2.3964004244
 72
2
 10
17.0051585288
 20
2.3877379196
 40
0.0086625048
 50
270.0
 51
90.0
 73
1
 72
1
 10
17.0051585288
 20
2.3790754148
 11
16.9637955059
 21
2.3790754148
 97
267
330
2D7
330
2D8
330
2D9
330
2DA
330
2DB
330
2DC
330
2DD
330
2DE
330
2DF
330
2E0
330
2E1
330
2E2
330
2E3
330
2E4
330
2E5
330
2E6
330
2E7
330
2E8
330
2E9
330
2EA
330
2EB
330
2EC
330
2ED
330
2EE
330
2EF
330
2F0
330
2F1
330
2F2
330
2F3
330
2F4
330
2F5
330
2F6
330
2F7
330
2F8
330
2F9
330
2FA
330
2FB
330
2FC
330
2FD
330
2FE
330
2FF
330
300
330
301
330
302
330
303
330
304
330
305
330
306
330
307
330
308
330
309
330
30A
330
30B
330
30C
330
30D
330
30E
330
30F
330
310
330
311
330
312
330
313
330
314
330
315
330
316
330
317
330
318
330
319
330
31A
330
31B
330
31C
330
31D
330
31E
330
31F
330
320
330
321
330
322
330
323
330
324
330
325
330
326
330
327
330
328
330
329
330
32A
330
32B
330
32C
330
32D
330
32E
330
32F
330
330
330
331
330
332
330
333
330
334
330
335
330
336
330
337
330
338
330
339
330
33A
330
33B
330
33C
330
33D
330
33E
330
33F
330
340
330
341
330
342
330
343
330
344
330
345
330
346
330
347
330
348
330
349
330
34A
330
34B
330
34C
330
34D
330
34E
330
34F
330
350
330
351
330
352
330
353
330
354
330
355
330
356
330
357
330
358
330
359
330
35A
330
35B
330
35C
330
35D
330
35E
330
35F
330
360
330
361
330
362
330
363
330
364
330
365
330
366
330
367
330
368
330
369
330
36A
330
36B
330
36C
330
36D
330
36E
330
36F
330
370
330
371
330
372
330
373
330
374
330
375
330
376
330
377
330
378
330
379
330
37A
330
37B
330
37C
330
37D
330
37E
330
37F
330
380
330
381
330
382
330
383
330
384
330
385
330
386
330
387
330
388
330
389
330
38A
330
38B
330
38C
330
38D
330
38E
330
38F
330
390
330
391
330
392
330
393
330
394
330
395
330
396
330
397
330
398
330
399
330
39A
330
39B
330
39C
330
39D
330
39E
330
39F
330
3A0
330
3A1
330
3A2
330
3A3
330
3A4
330
3A5
330
3A6
330
3A7
330
3A8
330
3A9
330
3AA
330
3AB
330
3AC
330
3AD
330
3AE
330
3AF
330
3B0
330
3B1
330
3B2
330
3B3
330
3B4
330
3B5
330
3B6
330
3B7
330
3B8
330
3B9
330
3BA
330
3BB
330
3BC
330
3BD
330
3BE
330
3BF
330
3C0
330
3C1
330
3C2
330
3C3
330
3C4
330
3C5
330
3C6
330
3C7
330
3C8
330
3C9
330
3CA
330
3CB
330
3CC
330
3CD
330
3CE
330
3CF
330
3D0
330
3D1
330
3D2
330
3D3
330
3D4
330
3D5
330
3D6
330
3D7
330
3D8
330
3D9
330
3DA
330
3DB
330
3DC
330
3DD
330
3DE
330
3DF
330
3E0
330
3E1
 92
1
 93
13
 72
2
 10
18.1572301659
 20
2.415180433
 40
0.0024749995
 50
179.9999571957
 51
270.0000428043
 73
1
 72
1
 10
18.1547551663
 20
2.4151804348
 11
18.1547551663
 21
2.4279054419
 72
2
 10
18.1572301659
 20
2.4279054437
 40
0.0024749995
 50
89.9999571957
 51
180.0000428043
 73
1
 72
1
 10
18.1572301677
 20
2.4303804433
 11
18.1940311881
 21
2.4303804433
 72
2
 10
18.1924863006
 20
2.4019259643
 40
0.0284963867
 50
70.3834917948
 51
86.8922743861
 73
1
 72
2
 10
18.1973459106
 20
2.4149676972
 40
0.0145814632
 50
54.6746025112
 51
71.1660573124
 73
1
 72
2
 10
18.2024754016
 20
2.4218216224
 40
0.0060275915
 50
20.9055592135
 51
56.7851676243
 73
1
 72
2
 10
18.2037759605
 20
2.4224819047
 40
0.0045795888
 50
355.6235353944
 51
18.9942678268
 73
1
 72
2
 10
18.2025691502
 20
2.4227756809
 40
0.0058087709
 50
318.8515287446
 51
353.6422345323
 73
1
 72
2
 10
18.198398534
 20
2.4260095887
 40
0.0110815393
 50
306.758405961
 51
320.4502234234
 73
1
 72
2
 10
18.1927693431
 20
2.4337504172
 40
0.0206523367
 50
289.6883413472
 51
306.4184925496
 73
1
 72
2
 10
18.1908418374
 20
2.4381440645
 40
0.0254407115
 50
270.7327484175
 51
290.441894219
 73
1
 72
1
 10
18.1911671865
 20
2.4127054335
 11
18.1572301677
 21
2.4127054335
 97
267
330
2D7
330
2D8
330
2D9
330
2DA
330
2DB
330
2DC
330
2DD
330
2DE
330
2DF
330
2E0
330
2E1
330
2E2
330
2E3
330
2E4
330
2E5
330
2E6
330
2E7
330
2E8
330
2E9
330
2EA
330
2EB
330
2EC
330
2ED
330
2EE
330
2EF
330
2F0
330
2F1
330
2F2
330
2F3
330
2F4
330
2F5
330
2F6
330
2F7
330
2F8
330
2F9
330
2FA
330
2FB
330
2FC
330
2FD
330
2FE
330
2FF
330
300
330
301
330
302
330
303
330
304
330
305
330
306
330
307
330
308
330
309
330
30A
330
30B
330
30C
330
30D
330
30E
330
30F
330
310
330
311
330
312
330
313
330
314
330
315
330
316
330
317
330
318
330
319
330
31A
330
31B
330
31C
330
31D
330
31E
330
31F
330
320
330
321
330
322
330
323
330
324
330
325
330
326
330
327
330
328
330
329
330
32A
330
32B
330
32C
330
32D
330
32E
330
32F
330
330
330
331
330
332
330
333
330
334
330
335
330
336
330
337
330
338
330
339
330
33A
330
33B
330
33C
330
33D
330
33E
330
33F
330
340
330
341
330
342
330
343
330
344
330
345
330
346
330
347
330
348
330
349
330
34A
330
34B
330
34C
330
34D
330
34E
330
34F
330
350
330
351
330
352
330
353
330
354
330
355
330
356
330
357
330
358
330
359
330
35A
330
35B
330
35C
330
35D
330
35E
330
35F
330
360
330
361
330
362
330
363
330
364
330
365
330
366
330
367
330
368
330
369
330
36A
330
36B
330
36C
330
36D
330
36E
330
36F
330
370
330
371
330
372
330
373
330
374
330
375
330
376
330
377
330
378
330
379
330
37A
330
37B
330
37C
330
37D
330
37E
330
37F
330
380
330
381
330
382
330
383
330
384
330
385
330
386
330
387
330
388
330
389
330
38A
330
38B
330
38C
330
38D
330
38E
330
38F
330
390
330
391
330
392
330
393
330
394
330
395
330
396
330
397
330
398
330
399
330
39A
330
39B
330
39C
330
39D
330
39E
330
39F
330
3A0
330
3A1
330
3A2
330
3A3
330
3A4
330
3A5
330
3A6
330
3A7
330
3A8
330
3A9
330
3AA
330
3AB
330
3AC
330
3AD
330
3AE
330
3AF
330
3B0
330
3B1
330
3B2
330
3B3
330
3B4
330
3B5
330
3B6
330
3B7
330
3B8
330
3B9
330
3BA
330
3BB
330
3BC
330
3BD
330
3BE
330
3BF
330
3C0
330
3C1
330
3C2
330
3C3
330
3C4
330
3C5
330
3C6
330
3C7
330
3C8
330
3C9
330
3CA
330
3CB
330
3CC
330
3CD
330
3CE
330
3CF
330
3D0
330
3D1
330
3D2
330
3D3
330
3D4
330
3D5
330
3D6
330
3D7
330
3D8
330
3D9
330
3DA
330
3DB
330
3DC
330
3DD
330
3DE
330
3DF
330
3E0
330
3E1
 92
1
 93
6
 72
2
 10
17.0051585288
 20
2.4217179385
 40
0.0086625048
 50
270.0
 51
90.0
 73
1
 72
1
 10
17.0051585288
 20
2.4303804433
 11
16.9637955059
 21
2.4303804433
 72
2
 10
16.963795504
 20
2.4279054437
 40
0.0024749995
 50
89.9999571957
 51
180.0000428043
 73
1
 72
1
 10
16.9613205045
 20
2.4279054419
 11
16.9613205045
 21
2.415530435
 72
2
 10
16.963795504
 20
2.4155304332
 40
0.0024749995
 50
179.9999571957
 51
270.0000428043
 73
1
 72
1
 10
16.9637955059
 20
2.4130554337
 11
17.0051585288
 21
2.4130554337
 97
267
330
2D7
330
2D8
330
2D9
330
2DA
330
2DB
330
2DC
330
2DD
330
2DE
330
2DF
330
2E0
330
2E1
330
2E2
330
2E3
330
2E4
330
2E5
330
2E6
330
2E7
330
2E8
330
2E9
330
2EA
330
2EB
330
2EC
330
2ED
330
2EE
330
2EF
330
2F0
330
2F1
330
2F2
330
2F3
330
2F4
330
2F5
330
2F6
330
2F7
330
2F8
330
2F9
330
2FA
330
2FB
330
2FC
330
2FD
330
2FE
330
2FF
330
300
330
301
330
302
330
303
330
304
330
305
330
306
330
307
330
308
330
309
330
30A
330
30B
330
30C
330
30D
330
30E
330
30F
330
310
330
311
330
312
330
313
330
314
330
315
330
316
330
317
330
318
330
319
330
31A
330
31B
330
31C
330
31D
330
31E
330
31F
330
320
330
321
330
322
330
323
330
324
330
325
330
326
330
327
330
328
330
329
330
32A
330
32B
330
32C
330
32D
330
32E
330
32F
330
330
330
331
330
332
330
333
330
334
330
335
330
336
330
337
330
338
330
339
330
33A
330
33B
330
33C
330
33D
330
33E
330
33F
330
340
330
341
330
342
330
343
330
344
330
345
330
346
330
347
330
348
330
349
330
34A
330
34B
330
34C
330
34D
330
34E
330
34F
330
350
330
351
330
352
330
353
330
354
330
355
330
356
330
357
330
358
330
359
330
35A
330
35B
330
35C
330
35D
330
35E
330
35F
330
360
330
361
330
362
330
363
330
364
330
365
330
366
330
367
330
368
330
369
330
36A
330
36B
330
36C
330
36D
330
36E
330
36F
330
370
330
371
330
372
330
373
330
374
330
375
330
376
330
377
330
378
330
379
330
37A
330
37B
330
37C
330
37D
330
37E
330
37F
330
380
330
381
330
382
330
383
330
384
330
385
330
386
330
387
330
388
330
389
330
38A
330
38B
330
38C
330
38D
330
38E
330
38F
330
390
330
391
330
392
330
393
330
394
330
395
330
396
330
397
330
398
330
399
330
39A
330
39B
330
39C
330
39D
330
39E
330
39F
330
3A0
330
3A1
330
3A2
330
3A3
330
3A4
330
3A5
330
3A6
330
3A7
330
3A8
330
3A9
330
3AA
330
3AB
330
3AC
330
3AD
330
3AE
330
3AF
330
3B0
330
3B1
330
3B2
330
3B3
330
3B4
330
3B5
330
3B6
330
3B7
330
3B8
330
3B9
330
3BA
330
3BB
330
3BC
330
3BD
330
3BE
330
3BF
330
3C0
330
3C1
330
3C2
330
3C3
330
3C4
330
3C5
330
3C6
330
3C7
330
3C8
330
3C9
330
3CA
330
3CB
330
3CC
330
3CD
330
3CE
330
3CF
330
3D0
330
3D1
330
3D2
330
3D3
330
3D4
330
3D5
330
3D6
330
3D7
330
3D8
330
3D9
330
3DA
330
3DB
330
3DC
330
3DD
330
3DE
330
3DF
330
3E0
330
3E1
 92
1
 93
8
 72
2
 10
17.2090556207
 20
2.4161446411
 40
0.0024752071
 50
270.0004896793
 51
32.9089806818
 73
1
 72
1
 10
17.211133643
 20
2.4174894361
 11
17.203874639
 21
2.4287054423
 72
2
 10
17.2017960982
 20
2.4273609828
 40
0.0024754602
 50
32.8959418573
 51
89.9875097202
 73
1
 72
1
 10
17.2017966379
 20
2.429836443
 11
17.1956156344
 21
2.429836443
 72
2
 10
17.1956155641
 20
2.4273612427
 40
0.0024752003
 50
89.998372645
 51
147.6021653069
 73
1
 72
1
 10
17.1935256333
 20
2.4286874423
 11
17.1864086293
 21
2.4174704361
 72
2
 10
17.1884985212
 20
2.4161444741
 40
0.0024750401
 50
147.6063258012
 51
270.0025305753
 73
1
 72
1
 10
17.1884986305
 20
2.413669434
 11
17.2090556419
 21
2.413669434
 97
267
330
2D7
330
2D8
330
2D9
330
2DA
330
2DB
330
2DC
330
2DD
330
2DE
330
2DF
330
2E0
330
2E1
330
2E2
330
2E3
330
2E4
330
2E5
330
2E6
330
2E7
330
2E8
330
2E9
330
2EA
330
2EB
330
2EC
330
2ED
330
2EE
330
2EF
330
2F0
330
2F1
330
2F2
330
2F3
330
2F4
330
2F5
330
2F6
330
2F7
330
2F8
330
2F9
330
2FA
330
2FB
330
2FC
330
2FD
330
2FE
330
2FF
330
300
330
301
330
302
330
303
330
304
330
305
330
306
330
307
330
308
330
309
330
30A
330
30B
330
30C
330
30D
330
30E
330
30F
330
310
330
311
330
312
330
313
330
314
330
315
330
316
330
317
330
318
330
319
330
31A
330
31B
330
31C
330
31D
330
31E
330
31F
330
320
330
321
330
322
330
323
330
324
330
325
330
326
330
327
330
328
330
329
330
32A
330
32B
330
32C
330
32D
330
32E
330
32F
330
330
330
331
330
332
330
333
330
334
330
335
330
336
330
337
330
338
330
339
330
33A
330
33B
330
33C
330
33D
330
33E
330
33F
330
340
330
341
330
342
330
343
330
344
330
345
330
346
330
347
330
348
330
349
330
34A
330
34B
330
34C
330
34D
330
34E
330
34F
330
350
330
351
330
352
330
353
330
354
330
355
330
356
330
357
330
358
330
359
330
35A
330
35B
330
35C
330
35D
330
35E
330
35F
330
360
330
361
330
362
330
363
330
364
330
365
330
366
330
367
330
368
330
369
330
36A
330
36B
330
36C
330
36D
330
36E
330
36F
330
370
330
371
330
372
330
373
330
374
330
375
330
376
330
377
330
378
330
379
330
37A
330
37B
330
37C
330
37D
330
37E
330
37F
330
380
330
381
330
382
330
383
330
384
330
385
330
386
330
387
330
388
330
389
330
38A
330
38B
330
38C
330
38D
330
38E
330
38F
330
390
330
391
330
392
330
393
330
394
330
395
330
396
330
397
330
398
330
399
330
39A
330
39B
330
39C
330
39D
330
39E
330
39F
330
3A0
330
3A1
330
3A2
330
3A3
330
3A4
330
3A5
330
3A6
330
3A7
330
3A8
330
3A9
330
3AA
330
3AB
330
3AC
330
3AD
330
3AE
330
3AF
330
3B0
330
3B1
330
3B2
330
3B3
330
3B4
330
3B5
330
3B6
330
3B7
330
3B8
330
3B9
330
3BA
330
3BB
330
3BC
330
3BD
330
3BE
330
3BF
330
3C0
330
3C1
330
3C2
330
3C3
330
3C4
330
3C5
330
3C6
330
3C7
330
3C8
330
3C9
330
3CA
330
3CB
330
3CC
330
3CD
330
3CE
330
3CF
330
3D0
330
3D1
330
3D2
330
3D3
330
3D4
330
3D5
330
3D6
330
3D7
330
3D8
330
3D9
330
3DA
330
3DB
330
3DC
330
3DD
330
3DE
330
3DF
330
3E0
330
3E1
 92
1
 93
1
 72
3
 10
17.573550844
 20
2.4034764283
 11
-0.8250004575
 21
0.0
 40
0.218572
 50
0.0
 51
360.0
 73
1
 97
267
330
2D7
330
2D8
330
2D9
330
2DA
330
2DB
330
2DC
330
2DD
330
2DE
330
2DF
330
2E0
330
2E1
330
2E2
330
2E3
330
2E4
330
2E5
330
2E6
330
2E7
330
2E8
330
2E9
330
2EA
330
2EB
330
2EC
330
2ED
330
2EE
330
2EF
330
2F0
330
2F1
330
2F2
330
2F3
330
2F4
330
2F5
330
2F6
330
2F7
330
2F8
330
2F9
330
2FA
330
2FB
330
2FC
330
2FD
330
2FE
330
2FF
330
300
330
301
330
302
330
303
330
304
330
305
330
306
330
307
330
308
330
309
330
30A
330
30B
330
30C
330
30D
330
30E
330
30F
330
310
330
311
330
312
330
313
330
314
330
315
330
316
330
317
330
318
330
319
330
31A
330
31B
330
31C
330
31D
330
31E
330
31F
330
320
330
321
330
322
330
323
330
324
330
325
330
326
330
327
330
328
330
329
330
32A
330
32B
330
32C
330
32D
330
32E
330
32F
330
330
330
331
330
332
330
333
330
334
330
335
330
336
330
337
330
338
330
339
330
33A
330
33B
330
33C
330
33D
330
33E
330
33F
330
340
330
341
330
342
330
343
330
344
330
345
330
346
330
347
330
348
330
349
330
34A
330
34B
330
34C
330
34D
330
34E
330
34F
330
350
330
351
330
352
330
353
330
354
330
355
330
356
330
357
330
358
330
359
330
35A
330
35B
330
35C
330
35D
330
35E
330
35F
330
360
330
361
330
362
330
363
330
364
330
365
330
366
330
367
330
368
330
369
330
36A
330
36B
330
36C
330
36D
330
36E
330
36F
330
370
330
371
330
372
330
373
330
374
330
375
330
376
330
377
330
378
330
379
330
37A
330
37B
330
37C
330
37D
330
37E
330
37F
330
380
330
381
330
382
330
383
330
384
330
385
330
386
330
387
330
388
330
389
330
38A
330
38B
330
38C
330
38D
330
38E
330
38F
330
390
330
391
330
392
330
393
330
394
330
395
330
396
330
397
330
398
330
399
330
39A
330
39B
330
39C
330
39D
330
39E
330
39F
330
3A0
330
3A1
330
3A2
330
3A3
330
3A4
330
3A5
330
3A6
330
3A7
330
3A8
330
3A9
330
3AA
330
3AB
330
3AC
330
3AD
330
3AE
330
3AF
330
3B0
330
3B1
330
3B2
330
3B3
330
3B4
330
3B5
330
3B6
330
3B7
330
3B8
330
3B9
330
3BA
330
3BB
330
3BC
330
3BD
330
3BE
330
3BF
330
3C0
330
3C1
330
3C2
330
3C3
330
3C4
330
3C5
330
3C6
330
3C7
330
3C8
330
3C9
330
3CA
330
3CB
330
3CC
330
3CD
330
3CE
330
3CF
330
3D0
330
3D1
330
3D2
330
3D3
330
3D4
330
3D5
330
3D6
330
3D7
330
3D8
330
3D9
330
3DA
330
3DB
330
3DC
330
3DD
330
3DE
330
3DF
330
3E0
330
3E1
 75
0
 76
1
 98
1
 10
0.0
 20
0.0
  0
LINE
  5
3E3
100
AcDbEntity
  8
0
100
AcDbLine
 62
7
  6
CONTINUOUS
 10
21.05
 20
2.67
 11
14.7
 21
2.67
  0
LINE
  5
3E4
100
AcDbEntity
  8
0
100
AcDbLine
 62
7
  6
CONTINUOUS
 10
6.007
 20
0.75
 11
6.007
 21
0.5
  0
LINE
  5
3E5
100
AcDbEntity
  8
0
100
AcDbLine
 62
7
  6
CONTINUOUS
 10
6.007
 20
15.75
 11
6.007
 21
16.0
  0
LINE
  5
3E6
100
AcDbEntity
  8
0
100
AcDbLine
 62
7
  6
CONTINUOUS
 10
0.814
 20
8.163397
 11
0.964
 21
8.25
  0
LINE
  5
3E7
100
AcDbEntity
  8
0
100
AcDbLine
 62
7
  6
CONTINUOUS
 10
0.964
 20
8.25
 11
0.814
 21
8.336603
  0
LINE
  5
3E8
100
AcDbEntity
  8
0
100
AcDbLine
 62
7
  6
CONTINUOUS
 10
0.964
 20
4.4
 11
0.714
 21
4.4
  0
LINE
  5
3E9
100
AcDbEntity
  8
0
100
AcDbLine
 62
7
  6
CONTINUOUS
 10
21.05
 20
4.4
 11
21.3
 21
4.4
  0
LINE
  5
3EA
100
AcDbEntity
  8
0
100
AcDbLine
 62
7
  6
CONTINUOUS
 10
11.093603
 20
0.6
 11
11.007
 21
0.75
  0
LINE
  5
3EB
100
AcDbEntity
  8
0
100
AcDbLine
 62
7
  6
CONTINUOUS
 10
11.007
 20
15.75
 11
11.093603
 21
15.9
  0
LINE
  5
3EC
100
AcDbEntity
  8
0
100
AcDbLine
 62
7
  6
CONTINUOUS
 10
8.507
 20
0.75
 11
8.507
 21
0.5
  0
LINE
  5
3ED
100
AcDbEntity
  8
0
100
AcDbLine
 62
7
  6
CONTINUOUS
 10
8.507
 20
15.75
 11
8.507
 21
16.0
  0
LINE
  5
3EE
100
AcDbEntity
  8
0
100
AcDbLine
 62
7
  6
CONTINUOUS
 10
11.007
 20
0.75
 11
11.007
 21
0.5
  0
LINE
  5
3EF
100
AcDbEntity
  8
0
100
AcDbLine
 62
7
  6
CONTINUOUS
 10
11.007
 20
15.75
 11
11.007
 21
16.0
  0
LINE
  5
3F0
100
AcDbEntity
  8
0
100
AcDbLine
 62
7
  6
CONTINUOUS
 10
0.964
 20
8.25
 11
0.714
 21
8.25
  0
LINE
  5
3F1
100
AcDbEntity
  8
0
100
AcDbLine
 62
7
  6
CONTINUOUS
 10
21.05
 20
8.25
 11
21.3
 21
8.25
  0
LINE
  5
3F2
100
AcDbEntity
  8
0
100
AcDbLine
 62
7
  6
CONTINUOUS
 10
13.507
 20
0.75
 11
13.507
 21
0.5
  0
LINE
  5
3F3
100
AcDbEntity
  8
0
100
AcDbLine
 62
7
  6
CONTINUOUS
 10
13.507
 20
15.75
 11
13.507
 21
16.0
  0
LINE
  5
3F4
100
AcDbEntity
  8
0
100
AcDbLine
 62
7
  6
CONTINUOUS
 10
14.7
 20
2.67
 11
14.7
 21
0.75
  0
LINE
  5
3F5
100
AcDbEntity
  8
0
100
AcDbLine
 62
7
  6
CONTINUOUS
 10
11.007
 20
0.75
 11
10.920397
 21
0.6
  0
LINE
  5
3F6
100
AcDbEntity
  8
0
100
AcDbLine
 62
7
  6
CONTINUOUS
 10
0.964
 20
12.1
 11
0.714
 21
12.1
  0
LINE
  5
3F7
100
AcDbEntity
  8
0
100
AcDbLine
 62
7
  6
CONTINUOUS
 10
21.05
 20
12.1
 11
21.3
 21
12.1
  0
LINE
  5
3F8
100
AcDbEntity
  8
0
100
AcDbLine
 62
7
  6
CONTINUOUS
 10
10.920397
 20
15.9
 11
11.007
 21
15.75
  0
LINE
  5
3F9
100
AcDbEntity
  8
0
100
AcDbLine
 62
7
  6
CONTINUOUS
 10
15.2229827477
 20
1.0139932523
 11
15.2229827477
 21
0.7919022523
  0
LINE
  5
3FA
100
AcDbEntity
  8
0
100
AcDbLine
 62
7
  6
CONTINUOUS
 10
15.2229827477
 20
1.0639932523
 11
15.2229827477
 21
1.1639932523
  0
LINE
  5
3FB
100
AcDbEntity
  8
0
100
AcDbLine
 62
7
  6
CONTINUOUS
 10
15.2229827477
 20
1.2139932523
 11
15.2229827477
 21
1.4360842523
  0
LINE
  5
3FC
100
AcDbEntity
  8
0
100
AcDbLine
 62
7
  6
CONTINUOUS
 10
15.8276527477
 20
0.9312952523
 11
15.8276527477
 21
1.2966912523
  0
LINE
  5
3FD
100
AcDbEntity
  8
0
100
AcDbLine
 62
7
  6
CONTINUOUS
 10
16.007
 20
0.75
 11
16.007
 21
0.5
  0
LINE
  5
3FE
100
AcDbEntity
  8
0
100
AcDbLine
 62
7
  6
CONTINUOUS
 10
16.007
 20
15.75
 11
16.007
 21
16.0
  0
LINE
  5
3FF
100
AcDbEntity
  8
0
100
AcDbLine
 62
7
  6
CONTINUOUS
 10
16.4340437477
 20
1.3660842523
 11
16.4340437477
 21
0.8619022523
  0
LINE
  5
400
100
AcDbEntity
  8
0
100
AcDbLine
 62
7
  6
CONTINUOUS
 10
21.2
 20
8.336603
 11
21.05
 21
8.25
  0
LINE
  5
401
100
AcDbEntity
  8
0
100
AcDbLine
 62
7
  6
CONTINUOUS
 10
21.05
 20
8.25
 11
21.2
 21
8.163397
  0
LINE
  5
402
100
AcDbEntity
  8
0
100
AcDbLine
 62
7
  6
CONTINUOUS
 10
16.7
 20
2.67
 11
16.7
 21
0.75
  0
LINE
  5
403
100
AcDbEntity
  8
0
100
AcDbLine
 62
7
  6
CONTINUOUS
 10
17.5
 20
1.37
 11
17.5
 21
1.0
  0
LINE
  5
404
100
AcDbEntity
  8
0
100
AcDbLine
 62
7
  6
CONTINUOUS
 10
18.507
 20
0.75
 11
18.507
 21
0.5
  0
LINE
  5
405
100
AcDbEntity
  8
0
100
AcDbLine
 62
7
  6
CONTINUOUS
 10
18.507
 20
15.75
 11
18.507
 21
16.0
  0
LINE
  5
406
100
AcDbEntity
  8
0
100
AcDbLine
 62
7
  6
CONTINUOUS
 10
21.05
 20
15.75
 11
0.964
 21
15.75
  0
LINE
  5
407
100
AcDbEntity
  8
0
100
AcDbLine
 62
7
  6
CONTINUOUS
 10
11.093603
 20
15.9
 11
10.920397
 21
15.9
  0
LINE
  5
408
100
AcDbEntity
  8
0
100
AcDbLine
 62
7
  6
CONTINUOUS
 10
18.875
 20
1.0
 11
18.875
 21
0.75
  0
LINE
  5
409
100
AcDbEntity
  8
0
100
AcDbLine
 62
7
  6
CONTINUOUS
 10
20.25
 20
1.37
 11
20.25
 21
1.0
  0
LINE
  5
40A
100
AcDbEntity
  8
0
100
AcDbLine
 62
7
  6
CONTINUOUS
 10
21.05
 20
0.75
 11
21.05
 21
15.75
  0
LINE
  5
40B
100
AcDbEntity
  8
0
100
AcDbLine
 62
7
  6
CONTINUOUS
 10
21.2
 20
8.163397
 11
21.2
 21
8.336603
  0
LINE
  5
40C
100
AcDbEntity
  8
02___PRT_ALL_AXES
100
AcDbLine
 62
7
  6
CENTER
 10
4.140447907
 20
6.2727485733
 11
4.140447907
 21
3.9269308619
  0
LINE
  5
40D
100
AcDbEntity
  8
02___PRT_ALL_AXES
100
AcDbLine
 62
7
  6
CENTER
 10
4.140447907
 20
6.2727485733
 11
4.140447907
 21
8.6185662847
  0
LINE
  5
40E
100
AcDbEntity
  8
02___PRT_ALL_AXES
100
AcDbLine
 62
7
  6
CENTER
 10
4.140447907
 20
6.2727485733
 11
1.7946301957
 21
6.2727485733
  0
LINE
  5
40F
100
AcDbEntity
  8
02___PRT_ALL_AXES
100
AcDbLine
 62
7
  6
CENTER
 10
4.140447907
 20
6.2727485733
 11
6.4862656184
 21
6.2727485733
  0
LINE
  5
410
100
AcDbEntity
  8
0
100
AcDbLine
 62
7
  6
CONTINUOUS
 10
6.187695818
 20
6.2727485776
 11
6.1384794031
 21
6.2727485788
  0
LINE
  5
411
100
AcDbEntity
  8
0
100
AcDbLine
 62
7
  6
CONTINUOUS
 10
2.0931999961
 20
6.2727485661
 11
2.142416411
 21
6.2727485678
  0
LWPOLYLINE
  5
412
100
AcDbEntity
  8
0
100
AcDbPolyline
 62
7
  6
CONTINUOUS
 90
14
 70
0
 10
8.1072896331
 20
4.2747189441
 10
8.1098306169
 20
4.2641716949
 10
8.1172202891
 20
4.2550947636
 10
8.1276381165
 20
4.2481611574
 10
8.1399584511
 20
4.2427898267
 10
8.1536444414
 20
4.2385453458
 10
8.1685653983
 20
4.2351239931
 10
8.1847285629
 20
4.232345654
 10
8.2021952452
 20
4.2301039535
 10
8.2210795494
 20
4.2283340039
 10
8.2415381287
 20
4.2269993969
 10
8.2637829551
 20
4.2260844542
 10
8.288109254
 20
4.2255914862
 10
8.3041400268
 20
4.2255063916
  0
LINE
  5
413
100
AcDbEntity
  8
0
100
AcDbLine
 62
7
  6
CONTINUOUS
 10
8.1072896331
 20
8.2707637914
 11
8.1072896331
 21
4.2747333552
  0
LINE
  5
414
100
AcDbEntity
  8
0
100
AcDbLine
 62
7
  6
CONTINUOUS
 10
8.3041400268
 20
8.3199926678
 11
8.3041400268
 21
4.2255044788
  0
LINE
  5
415
100
AcDbEntity
  8
02___PRT_ALL_AXES
100
AcDbLine
 62
7
  6
CONTINUOUS
 10
8.6387856961
 20
4.2255075913
 11
8.6387856961
 21
8.3199895552
  0
LINE
  5
416
100
AcDbEntity
  8
0
100
AcDbLine
 62
7
  6
CONTINUOUS
 10
8.7667128978
 20
4.2255044788
 11
8.7667128978
 21
8.3199926678
  0
LINE
  5
417
100
AcDbEntity
  8
0
100
AcDbLine
 62
7
  6
CONTINUOUS
 10
8.7984361833
 20
4.2415585489
 11
8.7984361833
 21
8.3039385976
  0
LINE
  5
418
100
AcDbEntity
  8
0
100
AcDbLine
 62
7
  6
CONTINUOUS
 10
9.1939038063
 20
4.7259339629
 11
9.1998093181
 21
4.7200284511
  0
LINE
  5
419
100
AcDbEntity
  8
0
100
AcDbLine
 62
7
  6
CONTINUOUS
 10
9.2332738851
 20
4.7200284511
 11
9.2431164047
 21
4.7101859314
  0
LINE
  5
41A
100
AcDbEntity
  8
02___PRT_ALL_AXES
100
AcDbLine
 62
7
  6
CONTINUOUS
 10
8.9832738851
 20
4.7766855812
 11
8.9832738851
 21
7.7688115654
  0
LINE
  5
41B
100
AcDbEntity
  8
DEFAULT_2
100
AcDbLine
 62
7
  6
HIDDEN
 10
9.0225416016
 20
7.1170723159
 11
9.0225416016
 21
7.1357529125
  0
LINE
  5
41C
100
AcDbEntity
  8
0
100
AcDbLine
 62
7
  6
CONTINUOUS
 10
9.0226439638
 20
7.11680983
 11
9.0226439638
 21
6.2727485733
  0
LINE
  5
41D
100
AcDbEntity
  8
02___PRT_ALL_AXES
100
AcDbLine
 62
7
  6
CONTINUOUS
 10
9.0226439638
 20
5.0522761323
 11
9.0226439638
 21
6.2727485733
  0
LINE
  5
41E
100
AcDbEntity
  8
02___PRT_ALL_AXES
100
AcDbLine
 62
7
  6
CONTINUOUS
 10
9.0226439638
 20
7.1542890284
 11
9.0226439638
 21
7.4932210142
  0
LINE
  5
41F
100
AcDbEntity
  8
AXIS
100
AcDbLine
 62
7
  6
CONTINUOUS
 10
9.0423290032
 20
5.0522761323
 11
9.0423290032
 21
4.6600480302
  0
LINE
  5
420
100
AcDbEntity
  8
02___PRT_ALL_AXES
100
AcDbLine
 62
7
  6
CONTINUOUS
 10
9.0620140425
 20
7.4932210142
 11
9.0620140425
 21
7.1822660121
  0
LINE
  5
421
100
AcDbEntity
  8
02___PRT_ALL_AXES
100
AcDbLine
 62
7
  6
CONTINUOUS
 10
9.0620140425
 20
5.0522761323
 11
9.0620140425
 21
7.0865857853
  0
LINE
  5
422
100
AcDbEntity
  8
DEFAULT_2
100
AcDbLine
 62
7
  6
HIDDEN
 10
9.1605416016
 20
7.0897216263
 11
9.1605416016
 21
7.1357529125
  0
LINE
  5
423
100
AcDbEntity
  8
0
100
AcDbLine
 62
7
  6
CONTINUOUS
 10
9.1939038063
 20
4.7259382278
 11
9.1939038063
 21
5.0487643437
  0
LINE
  5
424
100
AcDbEntity
  8
0
100
AcDbLine
 62
7
  6
CONTINUOUS
 10
9.1998093181
 20
4.7200284511
 11
9.1998093181
 21
5.0546741204
  0
LINE
  5
425
100
AcDbEntity
  8
0
100
AcDbLine
 62
7
  6
CONTINUOUS
 10
9.2332738851
 20
5.0546741204
 11
9.2332738851
 21
4.7200284511
  0
LINE
  5
426
100
AcDbEntity
  8
02___PRT_ALL_AXES
100
AcDbLine
 62
7
  6
CONTINUOUS
 10
9.2391793969
 20
7.2668430615
 11
9.2391793969
 21
5.2786540851
  0
LINE
  5
427
100
AcDbEntity
  8
0
100
AcDbLine
 62
7
  6
CONTINUOUS
 10
9.2431164047
 20
4.7101859314
 11
9.2431164047
 21
5.0645166401
  0
LINE
  5
428
100
AcDbEntity
  8
02___PRT_ALL_AXES
100
AcDbLine
 62
7
  6
CONTINUOUS
 10
8.3041400268
 20
4.2255044788
 11
8.7667128978
 21
4.2255044788
  0
LINE
  5
429
100
AcDbEntity
  8
0
100
AcDbLine
 62
7
  6
CONTINUOUS
 10
9.5890610005
 20
4.8782599178
 11
9.5914177875
 21
4.8771167439
  0
LINE
  5
42A
100
AcDbEntity
  8
0
100
AcDbLine
 62
7
  6
CONTINUOUS
 10
9.6624007812
 20
4.8912395265
 11
9.6628228891
 21
4.8910109023
  0
LINE
  5
42B
100
AcDbEntity
  8
0
100
AcDbLine
 62
7
  6
CONTINUOUS
 10
9.7108296496
 20
4.8827291969
 11
9.7101515859
 21
4.8831141594
  0
LWPOLYLINE
  5
42C
100
AcDbEntity
  8
0
100
AcDbPolyline
 62
7
  6
CONTINUOUS
 90
3
 70
0
 10
9.6508752666
 20
4.9317174271
 10
9.6414906441
 20
4.9373732779
 10
9.6349753998
 20
4.9457505703
  0
LINE
  5
42D
100
AcDbEntity
  8
0
100
AcDbLine
 62
7
  6
CONTINUOUS
 10
9.693155831
 20
4.8788032235
 11
9.6947446453
 21
4.8778378099
  0
LINE
  5
42E
100
AcDbEntity
  8
0
100
AcDbLine
 62
7
  6
CONTINUOUS
 10
9.6628228891
 20
4.8910109023
 11
9.6632449971
 21
4.8907470848
  0
LINE
  5
42F
100
AcDbEntity
  8
0
100
AcDbLine
 62
7
  6
CONTINUOUS
 10
9.7163639598
 20
4.8910990174
 11
9.7171163672
 21
4.8906063646
  0
LINE
  5
430
100
AcDbEntity
  8
0
100
AcDbLine
 62
7
  6
CONTINUOUS
 10
9.5867394067
 20
4.8797900592
 11
9.5890610005
 21
4.8782599178
  0
LINE
  5
431
100
AcDbEntity
  8
0
100
AcDbLine
 62
7
  6
CONTINUOUS
 10
9.6632449971
 20
4.8907470848
 11
9.6636671051
 21
4.8904480741
  0
LINE
  5
432
100
AcDbEntity
  8
0
100
AcDbLine
 62
7
  6
CONTINUOUS
 10
9.7355229652
 20
4.8940147809
 11
9.7343700301
 21
4.8948810519
  0
LINE
  5
433
100
AcDbEntity
  8
0
100
AcDbLine
 62
7
  6
CONTINUOUS
 10
9.6917429829
 20
4.8798975384
 11
9.693155831
 21
4.8788032235
  0
LINE
  5
434
100
AcDbEntity
  8
0
100
AcDbLine
 62
7
  6
CONTINUOUS
 10
9.682775141
 20
4.8968774115
 11
9.6812820923
 21
4.8980362562
  0
LINE
  5
435
100
AcDbEntity
  8
0
100
AcDbLine
 62
7
  6
CONTINUOUS
 10
9.7101515859
 20
4.8831141594
 11
9.7097743797
 21
4.8834170746
  0
LINE
  5
436
100
AcDbEntity
  8
0
100
AcDbLine
 62
7
  6
CONTINUOUS
 10
9.6051929114
 20
4.8857347639
 11
9.6041296215
 21
4.8866492608
  0
LINE
  5
437
100
AcDbEntity
  8
0
100
AcDbLine
 62
7
  6
CONTINUOUS
 10
9.7366290464
 20
4.8930198724
 11
9.7355229652
 21
4.8940147809
  0
LINE
  5
438
100
AcDbEntity
  8
0
100
AcDbLine
 62
7
  6
CONTINUOUS
 10
9.7097743797
 20
4.8834170746
 11
9.7094558464
 21
4.8837082763
  0
LINE
  5
439
100
AcDbEntity
  8
0
100
AcDbLine
 62
7
  6
CONTINUOUS
 10
9.7171163672
 20
4.8906063646
 11
9.7177495292
 21
4.8900103482
  0
LINE
  5
43A
100
AcDbEntity
  8
0
100
AcDbLine
 62
7
  6
CONTINUOUS
 10
9.6885185529
 20
4.8744081827
 11
9.6866190671
 21
4.8762021415
  0
LINE
  5
43B
100
AcDbEntity
  8
0
100
AcDbLine
 62
7
  6
CONTINUOUS
 10
9.6904708022
 20
4.8811091466
 11
9.6917429829
 21
4.8798975384
  0
LINE
  5
43C
100
AcDbEntity
  8
0
100
AcDbLine
 62
7
  6
CONTINUOUS
 10
9.7177495292
 20
4.8900103482
 11
9.7183826911
 21
4.889390852
  0
LINE
  5
43D
100
AcDbEntity
  8
0
100
AcDbLine
 62
7
  6
CONTINUOUS
 10
9.6570716682
 20
4.881900599
 11
9.6647222167
 21
4.8744081827
  0
LINE
  5
43E
100
AcDbEntity
  8
0
100
AcDbLine
 62
7
  6
CONTINUOUS
 10
9.7094558464
 20
4.8837082763
 11
9.7091490795
 21
4.8840111388
  0
LINE
  5
43F
100
AcDbEntity
  8
0
100
AcDbLine
 62
7
  6
CONTINUOUS
 10
9.7183826911
 20
4.889390852
 11
9.7190158531
 21
4.8887596423
  0
LINE
  5
440
100
AcDbEntity
  8
0
100
AcDbLine
 62
7
  6
CONTINUOUS
 10
9.4301242788
 20
5.0546741204
 11
9.4202817591
 21
5.0645166401
  0
LINE
  5
441
100
AcDbEntity
  8
0
100
AcDbLine
 62
7
  6
CONTINUOUS
 10
9.4694943575
 20
5.034989081
 11
9.4498093181
 21
5.0546741204
  0
LINE
  5
442
100
AcDbEntity
  8
0
100
AcDbLine
 62
7
  6
CONTINUOUS
 10
9.6866190671
 20
4.8762021415
 11
9.6787045428
 21
4.8841166658
  0
LINE
  5
443
100
AcDbEntity
  8
0
100
AcDbLine
 62
7
  6
CONTINUOUS
 10
9.7629678444
 20
4.8845915372
 11
9.773045672
 21
4.8744081827
  0
LINE
  5
444
100
AcDbEntity
  8
0
100
AcDbLine
 62
7
  6
CONTINUOUS
 10
9.794573178
 20
4.8744081827
 11
9.783176263
 21
4.8866491025
  0
LINE
  5
445
100
AcDbEntity
  8
0
100
AcDbLine
 62
7
  6
CONTINUOUS
 10
9.6839281289
 20
4.8955661331
 11
9.682775141
 21
4.8968774115
  0
LINE
  5
446
100
AcDbEntity
  8
0
100
AcDbLine
 62
7
  6
CONTINUOUS
 10
9.6636671051
 20
4.8904480741
 11
9.6643021665
 21
4.8897231037
  0
LINE
  5
447
100
AcDbEntity
  8
0
100
AcDbLine
 62
7
  6
CONTINUOUS
 10
9.5855922755
 20
4.8811814853
 11
9.5867394067
 21
4.8797900592
  0
LINE
  5
448
100
AcDbEntity
  8
0
100
AcDbLine
 62
7
  6
CONTINUOUS
 10
9.7376413668
 20
4.8917671615
 11
9.7366290464
 21
4.8930198724
  0
LINE
  5
449
100
AcDbEntity
  8
0
100
AcDbLine
 62
7
  6
CONTINUOUS
 10
9.5847382984
 20
4.8825142384
 11
9.5855922755
 21
4.8811814853
  0
LINE
  5
44A
100
AcDbEntity
  8
0
100
AcDbLine
 62
7
  6
CONTINUOUS
 10
9.6895308206
 20
4.8826334312
 11
9.6904708022
 21
4.8811091466
  0
LINE
  5
44B
100
AcDbEntity
  8
0
100
AcDbLine
 62
7
  6
CONTINUOUS
 10
9.6643021665
 20
4.8897231037
 11
9.6647378874
 21
4.889009794
  0
LINE
  5
44C
100
AcDbEntity
  8
0
100
AcDbLine
 62
7
  6
CONTINUOUS
 10
9.7091490795
 20
4.8840111388
 11
9.7089321688
 21
4.8844215332
  0
LINE
  5
44D
100
AcDbEntity
  8
0
100
AcDbLine
 62
7
  6
CONTINUOUS
 10
9.5839429414
 20
4.8841166658
 11
9.5847382984
 21
4.8825142384
  0
LINE
  5
44E
100
AcDbEntity
  8
0
100
AcDbLine
 62
7
  6
CONTINUOUS
 10
9.7380419473
 20
4.8909405686
 11
9.7376413668
 21
4.8917671615
  0
LINE
  5
44F
100
AcDbEntity
  8
0
100
AcDbLine
 62
7
  6
CONTINUOUS
 10
9.6847061794
 20
4.8939287236
 11
9.6839281289
 21
4.8955661331
  0
LINE
  5
450
100
AcDbEntity
  8
0
100
AcDbLine
 62
7
  6
CONTINUOUS
 10
9.6888957064
 20
4.884087382
 11
9.6895308206
 21
4.8826334312
  0
LINE
  5
451
100
AcDbEntity
  8
0
100
AcDbLine
 62
7
  6
CONTINUOUS
 10
9.6647378874
 20
4.889009794
 11
9.6649860341
 21
4.8882847708
  0
LINE
  5
452
100
AcDbEntity
  8
0
100
AcDbLine
 62
7
  6
CONTINUOUS
 10
9.6041296215
 20
4.8866492608
 11
9.6036756444
 21
4.8881264803
  0
LWPOLYLINE
  5
453
100
AcDbEntity
  8
0
100
AcDbPolyline
 62
7
  6
CONTINUOUS
 90
3
 70
0
 10
9.5267197411
 20
4.9457290597
 10
9.5239243249
 20
4.9552828238
 10
9.5238250658
 20
4.9574645187
  0
LINE
  5
454
100
AcDbEntity
  8
0
100
AcDbLine
 62
7
  6
CONTINUOUS
 10
9.5837318875
 20
4.8851191722
 11
9.5838217964
 21
4.884800639
  0
LINE
  5
455
100
AcDbEntity
  8
0
100
AcDbLine
 62
7
  6
CONTINUOUS
 10
9.4202817591
 20
5.0645166401
 11
9.4202817591
 21
4.7101859314
  0
LINE
  5
456
100
AcDbEntity
  8
0
100
AcDbLine
 62
7
  6
CONTINUOUS
 10
9.4301242788
 20
4.7200284511
 11
9.4301242788
 21
5.0546741204
  0
LINE
  5
457
100
AcDbEntity
  8
0
100
AcDbLine
 62
7
  6
CONTINUOUS
 10
9.4498093181
 20
5.0546741204
 11
9.4498093181
 21
4.7200284511
  0
LINE
  5
458
100
AcDbEntity
  8
0
100
AcDbLine
 62
7
  6
CONTINUOUS
 10
9.4694943575
 20
5.0349889482
 11
9.4694943575
 21
4.7397136234
  0
LINE
  5
459
100
AcDbEntity
  8
0
100
AcDbLine
 62
7
  6
CONTINUOUS
 10
9.488335007
 20
5.016277647
 11
9.488335007
 21
4.7584249245
  0
LINE
  5
45A
100
AcDbEntity
  8
0
100
AcDbLine
 62
7
  6
CONTINUOUS
 10
9.4891793969
 20
4.7318394747
 11
9.4891793969
 21
5.0428630968
  0
LINE
  5
45B
100
AcDbEntity
  8
0
100
AcDbLine
 62
7
  6
CONTINUOUS
 10
9.5009904205
 20
4.7200284511
 11
9.5009904205
 21
5.0546741204
  0
LINE
  5
45C
100
AcDbEntity
  8
0
100
AcDbLine
 62
7
  6
CONTINUOUS
 10
9.5198880583
 20
5.0546741204
 11
9.5198880583
 21
4.9591532376
  0
LINE
  5
45D
100
AcDbEntity
  8
0
100
AcDbLine
 62
7
  6
CONTINUOUS
 10
9.5198880583
 20
4.7200284517
 11
9.5198880583
 21
4.815549334
  0
LINE
  5
45E
100
AcDbEntity
  8
0
100
AcDbLine
 62
7
  6
CONTINUOUS
 10
9.5238250662
 20
4.9021150653
 11
9.5238250662
 21
4.8725875062
  0
LINE
  5
45F
100
AcDbEntity
  8
0
100
AcDbLine
 62
7
  6
CONTINUOUS
 10
9.5238250662
 20
4.723965459
 11
9.5238250662
 21
4.8172387916
  0
LINE
  5
460
100
AcDbEntity
  8
0
100
AcDbLine
 62
7
  6
CONTINUOUS
 10
9.5238250662
 20
4.9574637799
 11
9.5238250662
 21
5.0507371125
  0
LINE
  5
461
100
AcDbEntity
  8
0
100
AcDbLine
 62
7
  6
CONTINUOUS
 10
9.5337120942
 20
4.8987847063
 11
9.5337120942
 21
4.8871239739
  0
LINE
  5
462
100
AcDbEntity
  8
0
100
AcDbLine
 62
7
  6
CONTINUOUS
 10
9.5470604142
 20
4.8871239739
 11
9.5470604142
 21
4.8744081827
  0
LINE
  5
463
100
AcDbEntity
  8
0
100
AcDbLine
 62
7
  6
CONTINUOUS
 10
9.698015982
 20
4.8765109135
 11
9.7013928457
 21
4.8756295521
  0
LINE
  5
464
100
AcDbEntity
  8
0
100
AcDbLine
 62
7
  6
CONTINUOUS
 10
9.594020769
 20
4.876149378
 11
9.5968289477
 21
4.8753696391
  0
LINE
  5
465
100
AcDbEntity
  8
0
100
AcDbLine
 62
7
  6
CONTINUOUS
 10
9.7299378965
 20
4.896832457
 11
9.7266196531
 21
4.8977568207
  0
LINE
  5
466
100
AcDbEntity
  8
0
100
AcDbLine
 62
7
  6
CONTINUOUS
 10
9.6067367713
 20
4.8852774627
 11
9.6051929114
 21
4.8857347639
  0
LINE
  5
467
100
AcDbEntity
  8
0
100
AcDbLine
 62
7
  6
CONTINUOUS
 10
9.7123148892
 20
4.8822171799
 11
9.7114960525
 21
4.8824614749
  0
LINE
  5
468
100
AcDbEntity
  8
0
100
AcDbLine
 62
7
  6
CONTINUOUS
 10
9.7315090351
 20
4.8962912091
 11
9.7299378965
 21
4.896832457
  0
LINE
  5
469
100
AcDbEntity
  8
0
100
AcDbLine
 62
7
  6
CONTINUOUS
 10
9.5914177875
 20
4.8771167439
 11
9.594020769
 21
4.876149378
  0
LINE
  5
46A
100
AcDbEntity
  8
0
100
AcDbLine
 62
7
  6
CONTINUOUS
 10
9.7114960525
 20
4.8824614749
 11
9.7108296496
 21
4.8827291969
  0
LINE
  5
46B
100
AcDbEntity
  8
0
100
AcDbLine
 62
7
  6
CONTINUOUS
 10
9.6947446453
 20
4.8778378099
 11
9.698015982
 21
4.8765109135
  0
LINE
  5
46C
100
AcDbEntity
  8
0
100
AcDbLine
 62
7
  6
CONTINUOUS
 10
9.6812820923
 20
4.8980362562
 11
9.6797070493
 21
4.8986791793
  0
LINE
  5
46D
100
AcDbEntity
  8
0
100
AcDbLine
 62
7
  6
CONTINUOUS
 10
9.7155295051
 20
4.8914509499
 11
9.7163639598
 21
4.8910990174
  0
LINE
  5
46E
100
AcDbEntity
  8
0
100
AcDbLine
 62
7
  6
CONTINUOUS
 10
9.7329395062
 20
4.8956680194
 11
9.7315090351
 21
4.8962912091
  0
LINE
  5
46F
100
AcDbEntity
  8
0
100
AcDbLine
 62
7
  6
CONTINUOUS
 10
9.7343700301
 20
4.8948810519
 11
9.7329395062
 21
4.8956680194
  0
LINE
  5
470
100
AcDbEntity
  8
0
100
AcDbLine
 62
7
  6
CONTINUOUS
 10
9.8387856961
 20
5.0468001047
 11
9.8309116803
 21
5.0546741204
  0
LINE
  5
471
100
AcDbEntity
  8
0
100
AcDbLine
 62
7
  6
CONTINUOUS
 10
9.7089321688
 20
4.8844215332
 11
9.7087857501
 21
4.8848319277
  0
LWPOLYLINE
  5
472
100
AcDbEntity
  8
0
100
AcDbPolyline
 62
7
  6
CONTINUOUS
 90
3
 70
0
 10
9.6349753998
 20
4.9457505703
 10
9.6321903221
 20
4.9552917949
 10
9.6320927827
 20
4.9574639792
  0
LWPOLYLINE
  5
473
100
AcDbEntity
  8
0
100
AcDbPolyline
 62
7
  6
CONTINUOUS
 90
3
 70
0
 10
9.6886438585
 20
4.8281790589
 10
9.6910956156
 20
4.8188226439
 10
9.6911479014
 20
4.8172397206
  0
LINE
  5
474
100
AcDbEntity
  8
0
100
AcDbLine
 62
7
  6
CONTINUOUS
 10
9.7087857501
 20
4.8848319277
 11
9.7086747884
 21
4.8852774627
  0
LINE
  5
475
100
AcDbEntity
  8
0
100
AcDbLine
 62
7
  6
CONTINUOUS
 10
9.6885185529
 20
4.8858578611
 11
9.6888957064
 21
4.884087382
  0
LINE
  5
476
100
AcDbEntity
  8
0
100
AcDbLine
 62
7
  6
CONTINUOUS
 10
9.5838217964
 20
4.884800639
 11
9.5838882257
 21
4.8844703922
  0
LINE
  5
477
100
AcDbEntity
  8
0
100
AcDbLine
 62
7
  6
CONTINUOUS
 10
9.73824324
 20
4.8899028689
 11
9.7380419473
 21
4.8909405686
  0
LINE
  5
478
100
AcDbEntity
  8
0
100
AcDbLine
 62
7
  6
CONTINUOUS
 10
9.5838882257
 20
4.8844703922
 11
9.5839429414
 21
4.8841166658
  0
LINE
  5
479
100
AcDbEntity
  8
0
100
AcDbLine
 62
7
  6
CONTINUOUS
 10
9.684909266
 20
4.892420268
 11
9.6847061794
 21
4.8939287236
  0
LINE
  5
47A
100
AcDbEntity
  8
0
100
AcDbLine
 62
7
  6
CONTINUOUS
 10
9.7383272922
 20
4.8887596423
 11
9.73824324
 21
4.8899028689
  0
LINE
  5
47B
100
AcDbEntity
  8
0
100
AcDbLine
 62
7
  6
CONTINUOUS
 10
9.6884794552
 20
4.8871239739
 11
9.6885048344
 21
4.8864908648
  0
LINE
  5
47C
100
AcDbEntity
  8
0
100
AcDbLine
 62
7
  6
CONTINUOUS
 10
9.6885048344
 20
4.8864908648
 11
9.6885185529
 21
4.8858578611
  0
LINE
  5
47D
100
AcDbEntity
  8
0
100
AcDbLine
 62
7
  6
CONTINUOUS
 10
9.6884657894
 20
4.8877571359
 11
9.6884794552
 21
4.8871239739
  0
LINE
  5
47E
100
AcDbEntity
  8
0
100
AcDbLine
 62
7
  6
CONTINUOUS
 10
9.636231565
 20
4.8986791793
 11
9.6362843285
 21
4.8744081827
  0
LINE
  5
47F
100
AcDbEntity
  8
0
100
AcDbLine
 62
7
  6
CONTINUOUS
 10
9.566847569
 20
4.8744081827
 11
9.566847569
 21
4.8871239739
  0
LINE
  5
480
100
AcDbEntity
  8
0
100
AcDbLine
 62
7
  6
CONTINUOUS
 10
9.5806188412
 20
4.8871239739
 11
9.5806188412
 21
4.8986791793
  0
LINE
  5
481
100
AcDbEntity
  8
0
100
AcDbLine
 62
7
  6
CONTINUOUS
 10
9.5828801843
 20
5.0507371125
 11
9.5828801843
 21
4.9574637799
  0
LINE
  5
482
100
AcDbEntity
  8
0
100
AcDbLine
 62
7
  6
CONTINUOUS
 10
9.5828801843
 20
4.8172387916
 11
9.5828801843
 21
4.723965459
  0
LINE
  5
483
100
AcDbEntity
  8
0
100
AcDbLine
 62
7
  6
CONTINUOUS
 10
9.5837318875
 20
4.8986791793
 11
9.5837318875
 21
4.8851191722
  0
LINE
  5
484
100
AcDbEntity
  8
0
100
AcDbLine
 62
7
  6
CONTINUOUS
 10
9.5868171921
 20
5.0546741199
 11
9.5868171921
 21
4.9591532376
  0
LINE
  5
485
100
AcDbEntity
  8
0
100
AcDbLine
 62
7
  6
CONTINUOUS
 10
9.5868171921
 20
4.7200284511
 11
9.5868171921
 21
4.815549334
  0
LINE
  5
486
100
AcDbEntity
  8
0
100
AcDbLine
 62
7
  6
CONTINUOUS
 10
9.6036756444
 20
4.8881264803
 11
9.6036756444
 21
4.8986791793
  0
LINE
  5
487
100
AcDbEntity
  8
0
100
AcDbLine
 62
7
  6
CONTINUOUS
 10
9.6126990462
 20
4.8986791793
 11
9.6126990462
 21
4.8881264803
  0
LINE
  5
488
100
AcDbEntity
  8
0
100
AcDbLine
 62
7
  6
CONTINUOUS
 10
9.6281557748
 20
5.0546741204
 11
9.6281557748
 21
4.9591532376
  0
LINE
  5
489
100
AcDbEntity
  8
0
100
AcDbLine
 62
7
  6
CONTINUOUS
 10
9.6281557748
 20
4.7200284517
 11
9.6281557748
 21
4.815549334
  0
LINE
  5
48A
100
AcDbEntity
  8
0
100
AcDbLine
 62
7
  6
CONTINUOUS
 10
9.6320632489
 20
4.8846443007
 11
9.6320632489
 21
4.8986791793
  0
LINE
  5
48B
100
AcDbEntity
  8
0
100
AcDbLine
 62
7
  6
CONTINUOUS
 10
9.6320927827
 20
4.723965459
 11
9.6320927827
 21
4.8172387916
  0
LINE
  5
48C
100
AcDbEntity
  8
0
100
AcDbLine
 62
7
  6
CONTINUOUS
 10
9.6320927827
 20
4.9574637799
 11
9.6320927827
 21
5.0507371125
  0
LINE
  5
48D
100
AcDbEntity
  8
0
100
AcDbLine
 62
7
  6
CONTINUOUS
 10
9.6561219253
 20
4.8744081827
 11
9.6561219253
 21
4.8908701821
  0
LINE
  5
48E
100
AcDbEntity
  8
0
100
AcDbLine
 62
7
  6
CONTINUOUS
 10
9.6570716682
 20
4.8830613959
 11
9.6570716682
 21
4.881900599
  0
LINE
  5
48F
100
AcDbEntity
  8
0
100
AcDbLine
 62
7
  6
CONTINUOUS
 10
9.6649860341
 20
4.8882847708
 11
9.6649860341
 21
4.8859633881
  0
LINE
  5
490
100
AcDbEntity
  8
0
100
AcDbLine
 62
7
  6
CONTINUOUS
 10
9.6787045428
 20
4.8841166658
 11
9.6787045428
 21
4.8850136452
  0
LINE
  5
491
100
AcDbEntity
  8
0
100
AcDbLine
 62
7
  6
CONTINUOUS
 10
9.6911479008
 20
5.0507371125
 11
9.6911479008
 21
4.9574637799
  0
LINE
  5
492
100
AcDbEntity
  8
0
100
AcDbLine
 62
7
  6
CONTINUOUS
 10
9.6911479008
 20
4.8172387916
 11
9.6911479008
 21
4.723965459
  0
LINE
  5
493
100
AcDbEntity
  8
0
100
AcDbLine
 62
7
  6
CONTINUOUS
 10
9.6950849087
 20
5.0546741199
 11
9.6950849087
 21
4.9591532376
  0
LINE
  5
494
100
AcDbEntity
  8
0
100
AcDbLine
 62
7
  6
CONTINUOUS
 10
9.6950849087
 20
4.7200284511
 11
9.6950849087
 21
4.815549334
  0
LINE
  5
495
100
AcDbEntity
  8
0
100
AcDbLine
 62
7
  6
CONTINUOUS
 10
9.7086747884
 20
4.8852774627
 11
9.7086747884
 21
4.8883902978
  0
LINE
  5
496
100
AcDbEntity
  8
0
100
AcDbLine
 62
7
  6
CONTINUOUS
 10
9.7364234914
 20
5.0546741204
 11
9.7364234914
 21
4.9591532376
  0
LINE
  5
497
100
AcDbEntity
  8
0
100
AcDbLine
 62
7
  6
CONTINUOUS
 10
9.7364234914
 20
4.7200284517
 11
9.7364234914
 21
4.815549334
  0
LINE
  5
498
100
AcDbEntity
  8
0
100
AcDbLine
 62
7
  6
CONTINUOUS
 10
9.7403604992
 20
4.723965459
 11
9.7403604992
 21
4.8172387916
  0
LINE
  5
499
100
AcDbEntity
  8
0
100
AcDbLine
 62
7
  6
CONTINUOUS
 10
9.7403604992
 20
4.9574637799
 11
9.7403604992
 21
5.0507371125
  0
LINE
  5
49A
100
AcDbEntity
  8
0
100
AcDbLine
 62
7
  6
CONTINUOUS
 10
9.7417569194
 20
4.8986791793
 11
9.7417569194
 21
4.8744081827
  0
LINE
  5
49B
100
AcDbEntity
  8
0
100
AcDbLine
 62
7
  6
CONTINUOUS
 10
9.761648757
 20
4.8744081827
 11
9.761648757
 21
4.8847498277
  0
LINE
  5
49C
100
AcDbEntity
  8
0
100
AcDbLine
 62
7
  6
CONTINUOUS
 10
9.761648757
 20
4.8897093852
 11
9.761648757
 21
4.8986791793
  0
LINE
  5
49D
100
AcDbEntity
  8
0
100
AcDbLine
 62
7
  6
CONTINUOUS
 10
9.783176263
 20
4.8866491025
 11
9.783176263
 21
4.8880209533
  0
LINE
  5
49E
100
AcDbEntity
  8
0
100
AcDbLine
 62
7
  6
CONTINUOUS
 10
9.7994156173
 20
5.0507371125
 11
9.7994156173
 21
4.9574637799
  0
LINE
  5
49F
100
AcDbEntity
  8
0
100
AcDbLine
 62
7
  6
CONTINUOUS
 10
9.7994156173
 20
4.8172387916
 11
9.7994156173
 21
4.723965459
  0
LINE
  5
4A0
100
AcDbEntity
  8
0
100
AcDbLine
 62
7
  6
CONTINUOUS
 10
9.8033526252
 20
5.0546741199
 11
9.8033526252
 21
4.9591532376
  0
LINE
  5
4A1
100
AcDbEntity
  8
0
100
AcDbLine
 62
7
  6
CONTINUOUS
 10
9.8033526252
 20
4.7200284511
 11
9.8033526252
 21
4.815549334
  0
LINE
  5
4A2
100
AcDbEntity
  8
0
100
AcDbLine
 62
7
  6
CONTINUOUS
 10
9.6911479025
 20
4.9574622238
 11
9.6910439237
 21
4.9552285638
  0
LINE
  5
4A3
100
AcDbEntity
  8
0
100
AcDbLine
 62
7
  6
CONTINUOUS
 10
9.6885165479
 20
4.8888045968
 11
9.6884657894
 21
4.8877571359
  0
LWPOLYLINE
  5
4A4
100
AcDbEntity
  8
0
100
AcDbPolyline
 62
7
  6
CONTINUOUS
 90
9
 70
0
 10
9.5828801856
 20
4.9574624007
 10
9.5827647817
 20
4.9551073947
 10
9.5800154886
 20
4.9457799286
 10
9.5735647181
 20
4.9374439598
 10
9.564240365
 20
4.9317668221
 10
9.5534054209
 20
4.9297575647
 10
9.5425640255
 20
4.9317384214
 10
9.5332182792
 20
4.9373770992
 10
9.5267197411
 20
4.9457290597
  0
LWPOLYLINE
  5
4A5
100
AcDbEntity
  8
0
100
AcDbPolyline
 62
7
  6
CONTINUOUS
 90
11
 70
0
 10
9.5238250638
 20
4.8172369384
 10
9.5240058392
 20
4.8201957045
 10
9.5271175802
 20
4.829724971
 10
9.5338270416
 20
4.837856247
 10
9.543236457
 20
4.843214042
 10
9.5540905713
 20
4.8449330453
 10
9.564898325
 20
4.8426694597
 10
9.5741241938
 20
4.8367435021
 10
9.5803767227
 20
4.8281776824
 10
9.582827975
 20
4.8188214131
 10
9.5828801849
 20
4.8172397214
  0
LWPOLYLINE
  5
4A6
100
AcDbEntity
  8
0
100
AcDbPolyline
 62
7
  6
CONTINUOUS
 90
4
 70
0
 10
9.6320927803
 20
4.817236939
 10
9.6322735533
 20
4.8201956894
 10
9.6353852093
 20
4.8297247951
 10
9.6420944695
 20
4.8378559438
  0
LINE
  5
4A7
100
AcDbEntity
  8
AXIS
100
AcDbLine
 62
7
  6
CONTINUOUS
 10
8.9635888457
 20
4.6600480302
 11
9.0423290032
 21
4.6600480302
  0
LINE
  5
4A8
100
AcDbEntity
  8
0
100
AcDbLine
 62
7
  6
CONTINUOUS
 10
9.4202817591
 20
4.7101859314
 11
9.2431164047
 21
4.7101859314
  0
LINE
  5
4A9
100
AcDbEntity
  8
0
100
AcDbLine
 62
7
  6
CONTINUOUS
 10
9.8309116803
 20
4.7200284511
 11
9.8033526252
 21
4.7200284511
  0
LINE
  5
4AA
100
AcDbEntity
  8
0
100
AcDbLine
 62
7
  6
CONTINUOUS
 10
9.7364234914
 20
4.7200284511
 11
9.6950849087
 21
4.7200284511
  0
LINE
  5
4AB
100
AcDbEntity
  8
0
100
AcDbLine
 62
7
  6
CONTINUOUS
 10
9.6281557748
 20
4.7200284511
 11
9.5868171921
 21
4.7200284511
  0
LINE
  5
4AC
100
AcDbEntity
  8
0
100
AcDbLine
 62
7
  6
CONTINUOUS
 10
9.5198880583
 20
4.7200284511
 11
9.5009904205
 21
4.7200284511
  0
LINE
  5
4AD
100
AcDbEntity
  8
0
100
AcDbLine
 62
7
  6
CONTINUOUS
 10
9.4498093181
 20
4.7200284511
 11
9.4301242788
 21
4.7200284511
  0
LINE
  5
4AE
100
AcDbEntity
  8
0
100
AcDbLine
 62
7
  6
CONTINUOUS
 10
9.2332738851
 20
4.7200284511
 11
9.1998093181
 21
4.7200284511
  0
LINE
  5
4AF
100
AcDbEntity
  8
0
100
AcDbLine
 62
7
  6
CONTINUOUS
 10
9.5238250662
 20
4.7279024669
 11
9.5828801843
 21
4.7279024669
  0
LINE
  5
4B0
100
AcDbEntity
  8
0
100
AcDbLine
 62
7
  6
CONTINUOUS
 10
9.6320927827
 20
4.7279024669
 11
9.6911479008
 21
4.7279024669
  0
LINE
  5
4B1
100
AcDbEntity
  8
0
100
AcDbLine
 62
7
  6
CONTINUOUS
 10
9.7403604992
 20
4.7279024669
 11
9.7994156173
 21
4.7279024669
  0
LINE
  5
4B2
100
AcDbEntity
  8
0
100
AcDbLine
 62
7
  6
CONTINUOUS
 10
9.9175258536
 20
4.7298159103
 11
9.8387856961
 21
4.7298159103
  0
LINE
  5
4B3
100
AcDbEntity
  8
0
100
AcDbLine
 62
7
  6
CONTINUOUS
 10
9.1939038063
 20
4.7298709708
 11
9.0423290032
 21
4.7298709708
  0
LINE
  5
4B4
100
AcDbEntity
  8
AXIS
100
AcDbLine
 62
7
  6
CONTINUOUS
 10
9.1939038063
 20
4.7298709708
 11
9.0423290032
 21
4.7298709708
  0
LINE
  5
4B5
100
AcDbEntity
  8
0
100
AcDbLine
 62
7
  6
CONTINUOUS
 10
10.5403604992
 20
4.7623566551
 11
10.5206754599
 21
4.7623566551
  0
LINE
  5
4B6
100
AcDbEntity
  8
0
100
AcDbLine
 62
7
  6
CONTINUOUS
 10
10.5009904205
 20
4.7623566551
 11
10.4813053811
 21
4.7623566551
  0
LINE
  5
4B7
100
AcDbEntity
  8
0
100
AcDbLine
 62
7
  6
CONTINUOUS
 10
10.4616203418
 20
4.7623566551
 11
10.4419353024
 21
4.7623566551
  0
LINE
  5
4B8
100
AcDbEntity
  8
0
100
AcDbLine
 62
7
  6
CONTINUOUS
 10
10.422250263
 20
4.7623566551
 11
10.3828801843
 21
4.7623566551
  0
LINE
  5
4B9
100
AcDbEntity
  8
AXIS
100
AcDbLine
 62
7
  6
CONTINUOUS
 10
8.9830687663
 20
4.773699658
 11
9.0423290032
 21
4.773699658
  0
LINE
  5
4BA
100
AcDbEntity
  8
0
100
AcDbLine
 62
7
  6
CONTINUOUS
 10
9.7066124745
 20
4.8746837137
 11
9.708396672
 21
4.8745371894
  0
LINE
  5
4BB
100
AcDbEntity
  8
0
100
AcDbLine
 62
7
  6
CONTINUOUS
 10
9.7233014097
 20
4.8983880304
 11
9.7198073055
 21
4.8986791793
  0
LINE
  5
4BC
100
AcDbEntity
  8
0
100
AcDbLine
 62
7
  6
CONTINUOUS
 10
9.714530956
 20
4.8915561075
 11
9.7155295051
 21
4.8914509499
  0
LINE
  5
4BD
100
AcDbEntity
  8
0
100
AcDbLine
 62
7
  6
CONTINUOUS
 10
9.761648757
 20
4.8847498277
 11
9.7629678444
 21
4.8845915372
  0
LINE
  5
4BE
100
AcDbEntity
  8
0
100
AcDbLine
 62
7
  6
CONTINUOUS
 10
9.7629678444
 20
4.8895510947
 11
9.761648757
 21
4.8897093852
  0
LINE
  5
4BF
100
AcDbEntity
  8
0
100
AcDbLine
 62
7
  6
CONTINUOUS
 10
9.5995315995
 20
4.8748010069
 11
9.6024101647
 21
4.8744081827
  0
LINE
  5
4C0
100
AcDbEntity
  8
0
100
AcDbLine
 62
7
  6
CONTINUOUS
 10
9.488335007
 20
5.016277647
 11
9.4694943575
 21
5.0189952211
  0
LINE
  5
4C1
100
AcDbEntity
  8
0
100
AcDbLine
 62
7
  6
CONTINUOUS
 10
9.7048752364
 20
4.8749358176
 11
9.7066124745
 21
4.8746837137
  0
LWPOLYLINE
  5
4C2
100
AcDbEntity
  8
0
100
AcDbPolyline
 62
7
  6
CONTINUOUS
 90
6
 70
0
 10
9.769930853
 20
4.9297608247
 10
9.7590488818
 20
4.9317555927
 10
9.7496736073
 20
4.9374546217
 10
9.7431839666
 20
4.9458706455
 10
9.7404482975
 20
4.9554097586
 10
9.7403604992
 20
4.9574636044
  0
LINE
  5
4C3
100
AcDbEntity
  8
0
100
AcDbLine
 62
7
  6
CONTINUOUS
 10
9.7266196531
 20
4.8977568207
 11
9.7233014097
 21
4.8983880304
  0
LINE
  5
4C4
100
AcDbEntity
  8
0
100
AcDbLine
 62
7
  6
CONTINUOUS
 10
9.7013928457
 20
4.8756295521
 11
9.7048752364
 21
4.8749358176
  0
LINE
  5
4C5
100
AcDbEntity
  8
0
100
AcDbLine
 62
7
  6
CONTINUOUS
 10
9.5968289477
 20
4.8753696391
 11
9.5995315995
 21
4.8748010069
  0
LINE
  5
4C6
100
AcDbEntity
  8
0
100
AcDbLine
 62
7
  6
CONTINUOUS
 10
9.8191006567
 20
4.8725875062
 11
9.8191006567
 21
4.9021150653
  0
LINE
  5
4C7
100
AcDbEntity
  8
0
100
AcDbLine
 62
7
  6
CONTINUOUS
 10
9.8309116803
 20
5.0546741204
 11
9.8309116803
 21
4.7200284511
  0
LINE
  5
4C8
100
AcDbEntity
  8
0
100
AcDbLine
 62
7
  6
CONTINUOUS
 10
9.8387856961
 20
5.0467960175
 11
9.8387856961
 21
4.727906554
  0
LINE
  5
4C9
100
AcDbEntity
  8
0
100
AcDbLine
 62
7
  6
CONTINUOUS
 10
9.9175258536
 20
5.0448866612
 11
9.9175258536
 21
4.7298159103
  0
LWPOLYLINE
  5
4CA
100
AcDbEntity
  8
0
100
AcDbPolyline
 62
7
  6
CONTINUOUS
 90
6
 70
0
 10
9.7994156187
 20
4.9574623908
 10
9.7993058244
 20
4.9551707506
 10
9.796572149
 20
4.9458291597
 10
9.79011136
 20
4.9374623601
 10
9.780782465
 20
4.9317765134
 10
9.769930853
 20
4.9297608247
  0
LWPOLYLINE
  5
4CB
100
AcDbEntity
  8
0
100
AcDbPolyline
 62
7
  6
CONTINUOUS
 90
5
 70
0
 10
9.7403604992
 20
4.817239085
 10
9.7405132956
 20
4.819952618
 10
9.7435146513
 20
4.8294644821
 10
9.7502339179
 20
4.8377367421
 10
9.7597815065
 20
4.8432156721
  0
LINE
  5
4CC
100
AcDbEntity
  8
0
100
AcDbLine
 62
7
  6
CONTINUOUS
 10
9.7383272922
 20
4.8829031054
 11
9.7384328192
 21
4.8843277197
  0
LINE
  5
4CD
100
AcDbEntity
  8
0
100
AcDbLine
 62
7
  6
CONTINUOUS
 10
9.6846668178
 20
4.8906063646
 11
9.684909266
 21
4.892420268
  0
LINE
  5
4CE
100
AcDbEntity
  8
0
100
AcDbLine
 62
7
  6
CONTINUOUS
 10
9.6317877179
 20
4.8832548796
 11
9.6320632489
 21
4.8846443007
  0
LINE
  5
4CF
100
AcDbEntity
  8
0
100
AcDbLine
 62
7
  6
CONTINUOUS
 10
9.6887315592
 20
4.8898754847
 11
9.6885165479
 21
4.8888045968
  0
LINE
  5
4D0
100
AcDbEntity
  8
0
100
AcDbLine
 62
7
  6
CONTINUOUS
 10
9.488335007
 20
4.7584249245
 11
9.4694943575
 21
4.7557073504
  0
LINE
  5
4D1
100
AcDbEntity
  8
0
100
AcDbLine
 62
7
  6
CONTINUOUS
 10
10.3828801843
 20
4.7623566551
 11
9.9175258536
 21
4.7298159103
  0
LINE
  5
4D2
100
AcDbEntity
  8
0
100
AcDbLine
 62
7
  6
CONTINUOUS
 10
9.7161138608
 20
4.8744609462
 11
9.7207960934
 21
4.8747364771
  0
LINE
  5
4D3
100
AcDbEntity
  8
0
100
AcDbLine
 62
7
  6
CONTINUOUS
 10
9.7066164317
 20
4.8986791793
 11
9.7051918174
 21
4.8986264158
  0
LINE
  5
4D4
100
AcDbEntity
  8
AXIS
100
AcDbLine
 62
7
  6
CONTINUOUS
 10
10.5600455386
 20
4.8046741204
 11
14.4970534126
 21
4.8046741204
  0
LINE
  5
4D5
100
AcDbEntity
  8
0
100
AcDbLine
 62
7
  6
CONTINUOUS
 10
9.809258137
 20
4.8627449866
 11
9.5336675858
 21
4.8627449866
  0
LINE
  5
4D6
100
AcDbEntity
  8
0
100
AcDbLine
 62
7
  6
CONTINUOUS
 10
9.5470604142
 20
4.8744081827
 11
9.566847569
 21
4.8744081827
  0
LINE
  5
4D7
100
AcDbEntity
  8
0
100
AcDbLine
 62
7
  6
CONTINUOUS
 10
9.6024101647
 20
4.8744081827
 11
9.6140181336
 21
4.8744081827
  0
LINE
  5
4D8
100
AcDbEntity
  8
0
100
AcDbLine
 62
7
  6
CONTINUOUS
 10
9.6362843285
 20
4.8744081827
 11
9.6561219253
 21
4.8744081827
  0
LINE
  5
4D9
100
AcDbEntity
  8
0
100
AcDbLine
 62
7
  6
CONTINUOUS
 10
9.6647222167
 20
4.8744081827
 11
9.6885185529
 21
4.8744081827
  0
LINE
  5
4DA
100
AcDbEntity
  8
0
100
AcDbLine
 62
7
  6
CONTINUOUS
 10
9.7417569194
 20
4.8744081827
 11
9.761648757
 21
4.8744081827
  0
LINE
  5
4DB
100
AcDbEntity
  8
0
100
AcDbLine
 62
7
  6
CONTINUOUS
 10
9.773045672
 20
4.8744081827
 11
9.794573178
 21
4.8744081827
  0
LINE
  5
4DC
100
AcDbEntity
  8
0
100
AcDbLine
 62
7
  6
CONTINUOUS
 10
9.7106264573
 20
4.8744609462
 11
9.7161138608
 21
4.8744609462
  0
LINE
  5
4DD
100
AcDbEntity
  8
0
100
AcDbLine
 62
7
  6
CONTINUOUS
 10
9.7152702253
 20
4.8822171799
 11
9.7123148892
 21
4.8822171799
  0
LINE
  5
4DE
100
AcDbEntity
  8
0
100
AcDbLine
 62
7
  6
CONTINUOUS
 10
9.6620842002
 20
4.8830613959
 11
9.6570716682
 21
4.8830613959
  0
LINE
  5
4DF
100
AcDbEntity
  8
0
100
AcDbLine
 62
7
  6
CONTINUOUS
 10
9.7384328192
 20
4.8843277197
 11
9.7188047991
 21
4.8843277197
  0
LINE
  5
4E0
100
AcDbEntity
  8
0
100
AcDbLine
 62
7
  6
CONTINUOUS
 10
9.609374946
 20
4.8852774627
 11
9.6067367713
 21
4.8852774627
  0
LINE
  5
4E1
100
AcDbEntity
  8
0
100
AcDbLine
 62
7
  6
CONTINUOUS
 10
9.5337120942
 20
4.8871239739
 11
9.5470604142
 21
4.8871239739
  0
LINE
  5
4E2
100
AcDbEntity
  8
0
100
AcDbLine
 62
7
  6
CONTINUOUS
 10
9.566847569
 20
4.8871239739
 11
9.5806188412
 21
4.8871239739
  0
LINE
  5
4E3
100
AcDbEntity
  8
0
100
AcDbLine
 62
7
  6
CONTINUOUS
 10
9.7190158531
 20
4.8887596423
 11
9.7383272922
 21
4.8887596423
  0
LINE
  5
4E4
100
AcDbEntity
  8
0
100
AcDbLine
 62
7
  6
CONTINUOUS
 10
9.6564385062
 20
4.8912395265
 11
9.6624007812
 21
4.8912395265
  0
LINE
  5
4E5
100
AcDbEntity
  8
0
100
AcDbLine
 62
7
  6
CONTINUOUS
 10
9.7125265236
 20
4.8915561075
 11
9.714530956
 21
4.8915561075
  0
LINE
  5
4E6
100
AcDbEntity
  8
0
100
AcDbLine
 62
7
  6
CONTINUOUS
 10
9.7932540906
 20
4.8986791793
 11
9.7718321116
 21
4.8986791793
  0
LINE
  5
4E7
100
AcDbEntity
  8
0
100
AcDbLine
 62
7
  6
CONTINUOUS
 10
9.761648757
 20
4.8986791793
 11
9.7417569194
 21
4.8986791793
  0
LINE
  5
4E8
100
AcDbEntity
  8
0
100
AcDbLine
 62
7
  6
CONTINUOUS
 10
9.7198073055
 20
4.8986791793
 11
9.7066164317
 21
4.8986791793
  0
LINE
  5
4E9
100
AcDbEntity
  8
0
100
AcDbLine
 62
7
  6
CONTINUOUS
 10
9.6797070493
 20
4.8986791793
 11
9.636231565
 21
4.8986791793
  0
LINE
  5
4EA
100
AcDbEntity
  8
0
100
AcDbLine
 62
7
  6
CONTINUOUS
 10
9.6320632489
 20
4.8986791793
 11
9.6126990462
 21
4.8986791793
  0
LINE
  5
4EB
100
AcDbEntity
  8
0
100
AcDbLine
 62
7
  6
CONTINUOUS
 10
9.6036756444
 20
4.8986791793
 11
9.5837318875
 21
4.8986791793
  0
LINE
  5
4EC
100
AcDbEntity
  8
0
100
AcDbLine
 62
7
  6
CONTINUOUS
 10
9.5336675858
 20
4.911957585
 11
9.809258137
 21
4.911957585
  0
LINE
  5
4ED
100
AcDbEntity
  8
AXIS
100
AcDbLine
 62
7
  6
CONTINUOUS
 10
10.5600455386
 20
4.9700284511
 11
14.4970534126
 21
4.9700284511
  0
LINE
  5
4EE
100
AcDbEntity
  8
AXIS
100
AcDbLine
 62
7
  6
CONTINUOUS
 10
8.9832738851
 20
5.0010029136
 11
9.0423290032
 21
5.0010029136
  0
LINE
  5
4EF
100
AcDbEntity
  8
0
100
AcDbLine
 62
7
  6
CONTINUOUS
 10
10.5403604992
 20
5.0123459164
 11
10.5206754599
 21
5.0123459164
  0
LINE
  5
4F0
100
AcDbEntity
  8
0
100
AcDbLine
 62
7
  6
CONTINUOUS
 10
10.5009904205
 20
5.0123459164
 11
10.4813053811
 21
5.0123459164
  0
LINE
  5
4F1
100
AcDbEntity
  8
0
100
AcDbLine
 62
7
  6
CONTINUOUS
 10
10.4616203418
 20
5.0123459164
 11
10.4419353024
 21
5.0123459164
  0
LINE
  5
4F2
100
AcDbEntity
  8
0
100
AcDbLine
 62
7
  6
CONTINUOUS
 10
10.422250263
 20
5.0123459164
 11
10.3828801843
 21
5.0123459164
  0
LINE
  5
4F3
100
AcDbEntity
  8
0
100
AcDbLine
 62
7
  6
CONTINUOUS
 10
9.5806188412
 20
4.8986791793
 11
9.5337120942
 21
4.8987847063
  0
LINE
  5
4F4
100
AcDbEntity
  8
0
100
AcDbLine
 62
7
  6
CONTINUOUS
 10
9.708396672
 20
4.8745371894
 11
9.7106264573
 21
4.8744609462
  0
LINE
  5
4F5
100
AcDbEntity
  8
0
100
AcDbLine
 62
7
  6
CONTINUOUS
 10
10.3828801843
 20
5.0123459164
 11
9.9175258536
 21
5.0448866612
  0
LINE
  5
4F6
100
AcDbEntity
  8
0
100
AcDbLine
 62
7
  6
CONTINUOUS
 10
10.5600455386
 20
5.0009797747
 11
10.5403604992
 21
5.0123459164
  0
LWPOLYLINE
  5
4F7
100
AcDbEntity
  8
0
100
AcDbPolyline
 62
7
  6
CONTINUOUS
 90
6
 70
0
 10
9.6910439237
 20
4.9552285638
 10
9.6883603784
 20
4.9459395857
 10
9.6819561776
 20
4.9375537146
 10
9.672637455
 20
4.9318227744
 10
9.66178718
 20
4.9297624724
 10
9.6508752666
 20
4.9317174271
  0
LINE
  5
4F8
100
AcDbEntity
  8
0
100
AcDbLine
 62
7
  6
CONTINUOUS
 10
9.7086747884
 20
4.8883902978
 11
9.7088658978
 21
4.8888925535
  0
LINE
  5
4F9
100
AcDbEntity
  8
0
100
AcDbLine
 62
7
  6
CONTINUOUS
 10
9.6839007446
 20
4.8886463063
 11
9.6846668178
 21
4.8906063646
  0
LINE
  5
4FA
100
AcDbEntity
  8
0
100
AcDbLine
 62
7
  6
CONTINUOUS
 10
9.631301133
 20
4.8820413192
 11
9.6317877179
 21
4.8832548796
  0
LINE
  5
4FB
100
AcDbEntity
  8
0
100
AcDbLine
 62
7
  6
CONTINUOUS
 10
9.6126990462
 20
4.8881264803
 11
9.6120600275
 21
4.8866258338
  0
LINE
  5
4FC
100
AcDbEntity
  8
0
100
AcDbLine
 62
7
  6
CONTINUOUS
 10
9.7252556112
 20
4.8753286419
 11
9.7295157886
 21
4.8762021415
  0
LINE
  5
4FD
100
AcDbEntity
  8
0
100
AcDbLine
 62
7
  6
CONTINUOUS
 10
9.6171858956
 20
4.8747482434
 11
9.62004879
 21
4.8752993053
  0
LINE
  5
4FE
100
AcDbEntity
  8
0
100
AcDbLine
 62
7
  6
CONTINUOUS
 10
9.7032668995
 20
4.8984370477
 11
9.7014357952
 21
4.898130439
  0
LWPOLYLINE
  5
4FF
100
AcDbEntity
  8
0
100
AcDbPolyline
 62
7
  6
CONTINUOUS
 90
7
 70
0
 10
9.7597815065
 20
4.8432156721
 10
9.7707407736
 20
4.8449295483
 10
9.7815259079
 20
4.8426300601
 10
9.7906878052
 20
4.8367085232
 10
9.7969070272
 20
4.8281906077
 10
9.7993619897
 20
4.8188374441
 10
9.7994156181
 20
4.817239801
  0
LINE
  5
500
100
AcDbEntity
  8
0
100
AcDbLine
 62
7
  6
CONTINUOUS
 10
9.7207960934
 20
4.8747364771
 11
9.7252556112
 21
4.8753286419
  0
LINE
  5
501
100
AcDbEntity
  8
0
100
AcDbLine
 62
7
  6
CONTINUOUS
 10
9.6140181336
 20
4.8744081827
 11
9.6171858956
 21
4.8747482434
  0
LINE
  5
502
100
AcDbEntity
  8
0
100
AcDbLine
 62
7
  6
CONTINUOUS
 10
9.7051918174
 20
4.8986264158
 11
9.7032668995
 21
4.8984370477
  0
LINE
  5
503
100
AcDbEntity
  8
0
100
AcDbLine
 62
7
  6
CONTINUOUS
 10
9.1939038063
 20
5.0448316007
 11
9.0423290032
 21
5.0448316007
  0
LINE
  5
504
100
AcDbEntity
  8
AXIS
100
AcDbLine
 62
7
  6
CONTINUOUS
 10
9.0423290032
 20
5.0448316007
 11
9.1939038063
 21
5.0448316007
  0
LINE
  5
505
100
AcDbEntity
  8
0
100
AcDbLine
 62
7
  6
CONTINUOUS
 10
9.9175258536
 20
5.0448866612
 11
9.8387856961
 21
5.0448866612
  0
LINE
  5
506
100
AcDbEntity
  8
0
100
AcDbLine
 62
7
  6
CONTINUOUS
 10
9.5238250662
 20
5.0468001047
 11
9.5828801843
 21
5.0468001047
  0
LINE
  5
507
100
AcDbEntity
  8
0
100
AcDbLine
 62
7
  6
CONTINUOUS
 10
9.6320927827
 20
5.0468001047
 11
9.6911479008
 21
5.0468001047
  0
LINE
  5
508
100
AcDbEntity
  8
0
100
AcDbLine
 62
7
  6
CONTINUOUS
 10
9.7403604992
 20
5.0468001047
 11
9.7994156173
 21
5.0468001047
  0
LINE
  5
509
100
AcDbEntity
  8
02___PRT_ALL_AXES
100
AcDbLine
 62
7
  6
CONTINUOUS
 10
9.0226439638
 20
5.0522761323
 11
9.0620140425
 21
5.0522761323
  0
LINE
  5
50A
100
AcDbEntity
  8
0
100
AcDbLine
 62
7
  6
CONTINUOUS
 10
9.8309116803
 20
5.0546741204
 11
9.8033526252
 21
5.0546741204
  0
LINE
  5
50B
100
AcDbEntity
  8
0
100
AcDbLine
 62
7
  6
CONTINUOUS
 10
9.7364234914
 20
5.0546741204
 11
9.6950849087
 21
5.0546741204
  0
LINE
  5
50C
100
AcDbEntity
  8
0
100
AcDbLine
 62
7
  6
CONTINUOUS
 10
9.6281557748
 20
5.0546741204
 11
9.5868171921
 21
5.0546741204
  0
LINE
  5
50D
100
AcDbEntity
  8
0
100
AcDbLine
 62
7
  6
CONTINUOUS
 10
9.5198880583
 20
5.0546741204
 11
9.5009904205
 21
5.0546741204
  0
LINE
  5
50E
100
AcDbEntity
  8
0
100
AcDbLine
 62
7
  6
CONTINUOUS
 10
9.4498093181
 20
5.0546741204
 11
9.4301242788
 21
5.0546741204
  0
LINE
  5
50F
100
AcDbEntity
  8
0
100
AcDbLine
 62
7
  6
CONTINUOUS
 10
9.2332738851
 20
5.0546741204
 11
9.1998093181
 21
5.0546741204
  0
LINE
  5
510
100
AcDbEntity
  8
0
100
AcDbLine
 62
7
  6
CONTINUOUS
 10
9.4202817591
 20
5.0645166401
 11
9.2431164047
 21
5.0645166401
  0
LINE
  5
511
100
AcDbEntity
  8
02___PRT_ALL_AXES
100
AcDbLine
 62
7
  6
CONTINUOUS
 10
10.3710691607
 20
5.3022761323
 11
10.3710691607
 21
7.2432210142
  0
LINE
  5
512
100
AcDbEntity
  8
0
100
AcDbLine
 62
7
  6
CONTINUOUS
 10
10.3828801843
 20
4.7623566551
 11
10.3828801843
 21
5.0123459164
  0
LINE
  5
513
100
AcDbEntity
  8
0
100
AcDbLine
 62
7
  6
CONTINUOUS
 10
10.422250263
 20
5.0123459164
 11
10.422250263
 21
4.7623566551
  0
LINE
  5
514
100
AcDbEntity
  8
0
100
AcDbLine
 62
7
  6
CONTINUOUS
 10
10.4419353024
 20
4.7623566551
 11
10.4419353024
 21
5.0123459164
  0
LINE
  5
515
100
AcDbEntity
  8
0
100
AcDbLine
 62
7
  6
CONTINUOUS
 10
10.4616203418
 20
5.0123459164
 11
10.4616203418
 21
4.7623566551
  0
LINE
  5
516
100
AcDbEntity
  8
0
100
AcDbLine
 62
7
  6
CONTINUOUS
 10
10.4813053811
 20
4.7623566551
 11
10.4813053811
 21
5.0123459164
  0
LINE
  5
517
100
AcDbEntity
  8
0
100
AcDbLine
 62
7
  6
CONTINUOUS
 10
10.5009904205
 20
5.0123459164
 11
10.5009904205
 21
4.7623566551
  0
LINE
  5
518
100
AcDbEntity
  8
0
100
AcDbLine
 62
7
  6
CONTINUOUS
 10
10.5206754599
 20
4.7623566551
 11
10.5206754599
 21
5.0123459164
  0
LINE
  5
519
100
AcDbEntity
  8
0
100
AcDbLine
 62
7
  6
CONTINUOUS
 10
10.5403604992
 20
5.0123459164
 11
10.5403604992
 21
4.7623566551
  0
LINE
  5
51A
100
AcDbEntity
  8
0
100
AcDbLine
 62
7
  6
CONTINUOUS
 10
10.5600455386
 20
5.0009795576
 11
10.5600455386
 21
4.773723014
  0
LINE
  5
51B
100
AcDbEntity
  8
0
100
AcDbLine
 62
7
  6
CONTINUOUS
 10
9.6892044784
 20
4.8910284726
 11
9.6887315592
 21
4.8898754847
  0
LINE
  5
51C
100
AcDbEntity
  8
0
100
AcDbLine
 62
7
  6
CONTINUOUS
 10
9.7088658978
 20
4.8888925535
 11
9.709080698
 21
4.889383043
  0
LINE
  5
51D
100
AcDbEntity
  8
0
100
AcDbLine
 62
7
  6
CONTINUOUS
 10
9.6649860341
 20
4.8859633881
 11
9.6645580694
 21
4.8850546952
  0
LINE
  5
51E
100
AcDbEntity
  8
0
100
AcDbLine
 62
7
  6
CONTINUOUS
 10
9.7375631713
 20
4.8814159663
 11
9.7383272922
 21
4.8829031054
  0
LINE
  5
51F
100
AcDbEntity
  8
0
100
AcDbLine
 62
7
  6
CONTINUOUS
 10
9.7159010129
 20
4.8823793749
 11
9.7152702253
 21
4.8822171799
  0
LINE
  5
520
100
AcDbEntity
  8
0
100
AcDbLine
 62
7
  6
CONTINUOUS
 10
9.7014357952
 20
4.898130439
 11
9.6994405964
 21
4.8976239094
  0
LINE
  5
521
100
AcDbEntity
  8
0
100
AcDbLine
 62
7
  6
CONTINUOUS
 10
9.7113086366
 20
4.891261054
 11
9.7125265236
 21
4.8915561075
  0
LINE
  5
522
100
AcDbEntity
  8
02___PRT_ALL_AXES
100
AcDbLine
 62
7
  6
CONTINUOUS
 10
10.3710691607
 20
5.3022761323
 11
9.2391793969
 21
5.3022761323
  0
LINE
  5
523
100
AcDbEntity
  8
0
100
AcDbLine
 62
7
  6
CONTINUOUS
 10
9.709080698
 20
4.889383043
 11
9.709412897
 21
4.8899204392
  0
LINE
  5
524
100
AcDbEntity
  8
0
100
AcDbLine
 62
7
  6
CONTINUOUS
 10
9.690036928
 20
4.8923338942
 11
9.6892044784
 21
4.8910284726
  0
LINE
  5
525
100
AcDbEntity
  8
0
100
AcDbLine
 62
7
  6
CONTINUOUS
 10
9.6306386345
 20
4.8810036196
 11
9.631301133
 21
4.8820413192
  0
LINE
  5
526
100
AcDbEntity
  8
0
100
AcDbLine
 62
7
  6
CONTINUOUS
 10
9.1939038063
 20
5.0487686086
 11
9.1998093181
 21
5.0546741204
  0
LINE
  5
527
100
AcDbEntity
  8
0
100
AcDbLine
 62
7
  6
CONTINUOUS
 10
9.2332738851
 20
5.0546741204
 11
9.2431164047
 21
5.0645166401
  0
LINE
  5
528
100
AcDbEntity
  8
0
100
AcDbLine
 62
7
  6
CONTINUOUS
 10
9.6645580694
 20
4.8850546952
 11
9.6639543495
 21
4.8842866697
  0
LINE
  5
529
100
AcDbEntity
  8
0
100
AcDbLine
 62
7
  6
CONTINUOUS
 10
9.7365411424
 20
4.8801515946
 11
9.7375631713
 21
4.8814159663
  0
LINE
  5
52A
100
AcDbEntity
  8
0
100
AcDbLine
 62
7
  6
CONTINUOUS
 10
9.6561219253
 20
4.8908701821
 11
9.6564385062
 21
4.8912395265
  0
LINE
  5
52B
100
AcDbEntity
  8
0
100
AcDbLine
 62
7
  6
CONTINUOUS
 10
9.6908694304
 20
4.8932758281
 11
9.690036928
 21
4.8923338942
  0
LINE
  5
52C
100
AcDbEntity
  8
0
100
AcDbLine
 62
7
  6
CONTINUOUS
 10
9.6826539432
 20
4.8872374154
 11
9.6839007446
 21
4.8886463063
  0
LINE
  5
52D
100
AcDbEntity
  8
0
100
AcDbLine
 62
7
  6
CONTINUOUS
 10
9.4301242788
 20
4.7200284511
 11
9.4202817591
 21
4.7101859314
  0
LINE
  5
52E
100
AcDbEntity
  8
0
100
AcDbLine
 62
7
  6
CONTINUOUS
 10
9.783176263
 20
4.8880209533
 11
9.7932540906
 21
4.8986791793
  0
LINE
  5
52F
100
AcDbEntity
  8
0
100
AcDbLine
 62
7
  6
CONTINUOUS
 10
9.7718321116
 20
4.8986791793
 11
9.7629678444
 21
4.8895510947
  0
LINE
  5
530
100
AcDbEntity
  8
0
100
AcDbLine
 62
7
  6
CONTINUOUS
 10
9.4694943575
 20
4.7397134905
 11
9.4498093181
 21
4.7200284511
  0
LINE
  5
531
100
AcDbEntity
  8
0
100
AcDbLine
 62
7
  6
CONTINUOUS
 10
9.6639543495
 20
4.8842866697
 11
9.6632449971
 21
4.8835890308
  0
LINE
  5
532
100
AcDbEntity
  8
0
100
AcDbLine
 62
7
  6
CONTINUOUS
 10
9.735108719
 20
4.8788403163
 11
9.7365411424
 21
4.8801515946
  0
LINE
  5
533
100
AcDbEntity
  8
0
100
AcDbLine
 62
7
  6
CONTINUOUS
 10
9.7188047991
 20
4.8843277197
 11
9.7171163672
 21
4.8827975784
  0
LINE
  5
534
100
AcDbEntity
  8
0
100
AcDbLine
 62
7
  6
CONTINUOUS
 10
9.6282662295
 20
4.878977132
 11
9.6306386345
 21
4.8810036196
  0
LINE
  5
535
100
AcDbEntity
  8
0
100
AcDbLine
 62
7
  6
CONTINUOUS
 10
9.709412897
 20
4.8899204392
 11
9.7103841146
 21
4.8907431803
  0
LINE
  5
536
100
AcDbEntity
  8
0
100
AcDbLine
 62
7
  6
CONTINUOUS
 10
8.3041400268
 20
6.2727485776
 11
8.1072896334
 21
6.2727485788
  0
LINE
  5
537
100
AcDbEntity
  8
02___PRT_ALL_AXES
100
AcDbLine
 62
7
  6
CENTER
 10
7.9827254777
 20
6.2727485733
 11
10.668001693
 21
6.2727485733
  0
LINE
  5
538
100
AcDbEntity
  8
0
100
AcDbLine
 62
7
  6
CONTINUOUS
 10
9.8387856961
 20
4.7279024669
 11
9.8309116803
 21
4.7200284511
  0
LINE
  5
539
100
AcDbEntity
  8
0
100
AcDbLine
 62
7
  6
CONTINUOUS
 10
9.6917371261
 20
4.8939832283
 11
9.6908694304
 21
4.8932758281
  0
LINE
  5
53A
100
AcDbEntity
  8
0
100
AcDbLine
 62
7
  6
CONTINUOUS
 10
9.6120600275
 20
4.8866258338
 11
9.6109989009
 21
4.8858285774
  0
LINE
  5
53B
100
AcDbEntity
  8
0
100
AcDbLine
 62
7
  6
CONTINUOUS
 10
9.6932672675
 20
4.8950393424
 11
9.6917371261
 21
4.8939832283
  0
LINE
  5
53C
100
AcDbEntity
  8
0
100
AcDbLine
 62
7
  6
CONTINUOUS
 10
9.6807623192
 20
4.8861216786
 11
9.6826539432
 21
4.8872374154
  0
LINE
  5
53D
100
AcDbEntity
  8
0
100
AcDbLine
 62
7
  6
CONTINUOUS
 10
9.6258352042
 20
4.8775603266
 11
9.6282662295
 21
4.878977132
  0
LINE
  5
53E
100
AcDbEntity
  8
0
100
AcDbLine
 62
7
  6
CONTINUOUS
 10
9.7333068985
 20
4.8778046216
 11
9.735108719
 21
4.8788403163
  0
LWPOLYLINE
  5
53F
100
AcDbEntity
  8
0
100
AcDbPolyline
 62
7
  6
CONTINUOUS
 90
6
 70
0
 10
9.6420944695
 20
4.8378559438
 10
9.6515036749
 20
4.8432137812
 10
9.662357589
 20
4.8449330074
 10
9.6731652444
 20
4.842669784
 10
9.6823910671
 20
4.8367443622
 10
9.6886438585
 20
4.8281790589
  0
LINE
  5
540
100
AcDbEntity
  8
0
100
AcDbLine
 62
7
  6
CONTINUOUS
 10
9.7103841146
 20
4.8907431803
 11
9.7113086366
 21
4.891261054
  0
LINE
  5
541
100
AcDbEntity
  8
0
100
AcDbLine
 62
7
  6
CONTINUOUS
 10
9.6787045428
 20
4.8850136452
 11
9.6807623192
 21
4.8861216786
  0
LINE
  5
542
100
AcDbEntity
  8
0
100
AcDbLine
 62
7
  6
CONTINUOUS
 10
9.6953132775
 20
4.8961194111
 11
9.6932672675
 21
4.8950393424
  0
LINE
  5
543
100
AcDbEntity
  8
0
100
AcDbLine
 62
7
  6
CONTINUOUS
 10
9.6624672632
 20
4.8832568319
 11
9.6620842002
 21
4.8830613959
  0
LINE
  5
544
100
AcDbEntity
  8
0
100
AcDbLine
 62
7
  6
CONTINUOUS
 10
9.7315286104
 20
4.8769565012
 11
9.7333068985
 21
4.8778046216
  0
LINE
  5
545
100
AcDbEntity
  8
0
100
AcDbLine
 62
7
  6
CONTINUOUS
 10
9.6628619869
 20
4.8834287881
 11
9.6624672632
 21
4.8832568319
  0
LINE
  5
546
100
AcDbEntity
  8
0
100
AcDbLine
 62
7
  6
CONTINUOUS
 10
9.6229351643
 20
4.8763076685
 11
9.6258352042
 21
4.8775603266
  0
LINE
  5
547
100
AcDbEntity
  8
0
100
AcDbLine
 62
7
  6
CONTINUOUS
 10
9.6973241471
 20
4.8969653683
 11
9.6953132775
 21
4.8961194111
  0
LINE
  5
548
100
AcDbEntity
  8
0
100
AcDbLine
 62
7
  6
CONTINUOUS
 10
9.6632449971
 20
4.8835890308
 11
9.6628619869
 21
4.8834287881
  0
LINE
  5
549
100
AcDbEntity
  8
0
100
AcDbLine
 62
7
  6
CONTINUOUS
 10
9.7171163672
 20
4.8827975784
 11
9.7165203508
 21
4.8825650497
  0
LINE
  5
54A
100
AcDbEntity
  8
0
100
AcDbLine
 62
7
  6
CONTINUOUS
 10
9.7295157886
 20
4.8762021415
 11
9.7315286104
 21
4.8769565012
  0
LINE
  5
54B
100
AcDbEntity
  8
0
100
AcDbLine
 62
7
  6
CONTINUOUS
 10
9.62004879
 20
4.8752993053
 11
9.6229351643
 21
4.8763076685
  0
LINE
  5
54C
100
AcDbEntity
  8
0
100
AcDbLine
 62
7
  6
CONTINUOUS
 10
9.6109989009
 20
4.8858285774
 11
9.609374946
 21
4.8852774627
  0
LINE
  5
54D
100
AcDbEntity
  8
0
100
AcDbLine
 62
7
  6
CONTINUOUS
 10
10.5600455386
 20
4.7737227968
 11
10.5403604992
 21
4.7623566551
  0
LINE
  5
54E
100
AcDbEntity
  8
0
100
AcDbLine
 62
7
  6
CONTINUOUS
 10
9.6994405964
 20
4.8976239094
 11
9.6973241471
 21
4.8969653683
  0
LINE
  5
54F
100
AcDbEntity
  8
0
100
AcDbLine
 62
7
  6
CONTINUOUS
 10
9.7165203508
 20
4.8825650497
 11
9.7159010129
 21
4.8823793749
  0
LINE
  5
550
100
AcDbEntity
  8
02___PRT_ALL_AXES
100
AcDbLine
 62
7
  6
CONTINUOUS
 10
10.3710691607
 20
7.2432210142
 11
9.2391793969
 21
7.2432210142
  0
LINE
  5
551
100
AcDbEntity
  8
02___PRT_ALL_AXES
100
AcDbLine
 62
7
  6
CONTINUOUS
 10
9.0226439638
 20
7.4932210142
 11
9.0620140425
 21
7.4932210142
  0
LINE
  5
552
100
AcDbEntity
  8
02___PRT_ALL_AXES
100
AcDbLine
 62
7
  6
CONTINUOUS
 10
8.3041400268
 20
8.3199926678
 11
8.7667128978
 21
8.3199926678
  0
LWPOLYLINE
  5
553
100
AcDbEntity
  8
0
100
AcDbPolyline
 62
7
  6
CONTINUOUS
 90
14
 70
0
 10
8.3041400268
 20
8.3199907549
 10
8.288109254
 20
8.3199056604
 10
8.2637829551
 20
8.3194126924
 10
8.2415381287
 20
8.3184977497
 10
8.2210795494
 20
8.3171631427
 10
8.2021952452
 20
8.3153931931
 10
8.1847285629
 20
8.3131514925
 10
8.1685653983
 20
8.3103731535
 10
8.1536444414
 20
8.3069518008
 10
8.1399584511
 20
8.3027073199
 10
8.1276381165
 20
8.2973359892
 10
8.1172202891
 20
8.290402383
 10
8.1098306169
 20
8.2813254516
 10
8.1072896331
 20
8.2707782025
  0
LINE
  5
554
100
AcDbEntity
  8
AXIS
100
AcDbLine
 62
7
  6
CONTINUOUS
 10
14.4970534126
 20
4.9700284511
 11
14.4970534126
 21
4.8046741204
  0
LINE
  5
555
100
AcDbEntity
  8
02___PRT_ALL_AXES
100
AcDbLine
 62
7
  6
CENTER
 10
18.7261411807
 20
4.8873512858
 11
18.3210230705
 21
4.8873512858
  0
LINE
  5
556
100
AcDbEntity
  8
02___PRT_ALL_AXES
100
AcDbLine
 62
7
  6
CENTER
 10
18.7261411807
 20
4.8873512858
 11
19.131259291
 21
4.8873512858
  0
LINE
  5
557
100
AcDbEntity
  8
0
100
AcDbLine
 62
7
  6
CONTINUOUS
 10
17.3642036078
 20
7.0869625446
 11
17.4617843436
 21
7.1845432804
  0
LINE
  5
558
100
AcDbEntity
  8
AXIS
100
AcDbLine
 62
7
  6
CONTINUOUS
 10
18.529290787
 20
4.773699658
 11
18.7261411807
 21
4.6600480302
  0
LINE
  5
559
100
AcDbEntity
  8
0
100
AcDbLine
 62
7
  6
CONTINUOUS
 10
17.540206383
 20
6.9109597693
 11
17.6377871189
 21
7.0085405051
  0
LINE
  5
55A
100
AcDbEntity
  8
AXIS
100
AcDbLine
 62
7
  6
CONTINUOUS
 10
18.9229915744
 20
5.0010029136
 11
18.7261411807
 21
5.1146545414
  0
LINE
  5
55B
100
AcDbEntity
  8
0
100
AcDbLine
 62
7
  6
CONTINUOUS
 10
17.6377871189
 20
7.0034958063
 11
17.6377871189
 21
7.0085405051
  0
LINE
  5
55C
100
AcDbEntity
  8
02___PRT_ALL_AXES
100
AcDbLine
 62
7
  6
CENTER
 10
18.2759983149
 20
6.2727485733
 11
18.2759983149
 21
3.9551332727
  0
LINE
  5
55D
100
AcDbEntity
  8
02___PRT_ALL_AXES
100
AcDbLine
 62
7
  6
CENTER
 10
18.2759983149
 20
6.2727485733
 11
18.2759983149
 21
8.5903638739
  0
LINE
  5
55E
100
AcDbEntity
  8
02___PRT_ALL_AXES
100
AcDbLine
 62
7
  6
CENTER
 10
18.2759983149
 20
6.2727485733
 11
15.9583830143
 21
6.2727485733
  0
LINE
  5
55F
100
AcDbEntity
  8
02___PRT_ALL_AXES
100
AcDbLine
 62
7
  6
CENTER
 10
18.2759983149
 20
6.2727485733
 11
20.5936136155
 21
6.2727485733
  0
LINE
  5
560
100
AcDbEntity
  8
DEFAULT_2
100
AcDbLine
 62
7
  6
HIDDEN
 10
17.5427287325
 20
6.9084374199
 11
17.540818315
 21
6.9103478374
  0
LINE
  5
561
100
AcDbEntity
  8
DEFAULT_2
100
AcDbLine
 62
7
  6
HIDDEN
 10
17.3730847494
 20
7.078081403
 11
17.3642036078
 21
7.0869625446
  0
LINE
  5
562
100
AcDbEntity
  8
DEFAULT_2
100
AcDbLine
 62
7
  6
HIDDEN
 10
17.6403094683
 20
7.0060181557
 11
17.6383990508
 21
7.0079285732
  0
LINE
  5
563
100
AcDbEntity
  8
DEFAULT_2
100
AcDbLine
 62
7
  6
HIDDEN
 10
17.4708860381
 20
7.1754415859
 11
17.4617843436
 21
7.1845432804
  0
LINE
  5
564
100
AcDbEntity
  8
AXIS
100
AcDbLine
 62
7
  6
CONTINUOUS
 10
18.529290787
 20
5.0010029136
 11
18.529290787
 21
4.773699658
  0
LINE
  5
565
100
AcDbEntity
  8
02___PRT_ALL_AXES
100
AcDbLine
 62
7
  6
CENTER
 10
18.7261411807
 20
4.8873512858
 11
18.7261411807
 21
4.4822331755
  0
LINE
  5
566
100
AcDbEntity
  8
02___PRT_ALL_AXES
100
AcDbLine
 62
7
  6
CENTER
 10
18.7261411807
 20
4.8873512858
 11
18.7261411807
 21
5.292469396
  0
LINE
  5
567
100
AcDbEntity
  8
AXIS
100
AcDbLine
 62
7
  6
CONTINUOUS
 10
18.9229915744
 20
4.773699658
 11
18.9229915744
 21
5.0010029136
  0
LINE
  5
568
100
AcDbEntity
  8
0
100
AcDbLine
 62
7
  6
CONTINUOUS
 10
17.5452510819
 20
6.9109597693
 11
17.540206383
 21
6.9109597693
  0
LINE
  5
569
100
AcDbEntity
  8
AXIS
100
AcDbLine
 62
7
  6
CONTINUOUS
 10
18.7261411807
 20
5.1146545414
 11
18.529290787
 21
5.0010029136
  0
LINE
  5
56A
100
AcDbEntity
  8
AXIS
100
AcDbLine
 62
7
  6
CONTINUOUS
 10
18.7261411807
 20
4.6600480302
 11
18.9229915744
 21
4.773699658
  0
LWPOLYLINE
  5
56B
100
AcDbEntity
  8
0
100
AcDbPolyline
 62
7
  6
CONTINUOUS
 90
26
 70
0
 10
7.9655890114
 20
14.0279887515
 10
7.978272125
 20
13.8010698856
 10
8.0179219172
 20
13.5550235646
 10
8.0835376326
 20
13.3032986497
 10
8.1728030736
 20
13.0526761455
 10
8.2822663952
 20
12.8097448592
 10
8.4075791292
 20
12.5804601191
 10
8.5438141389
 20
12.3697452508
 10
8.68656953
 20
12.1802796065
 10
8.8330134215
 20
12.0122210285
 10
8.9810358007
 20
11.8651255539
 10
9.129039671
 20
11.7383124606
 10
9.2749387224
 20
11.6316142785
 10
9.4157208151
 20
11.5451529494
 10
9.5486519595
 20
11.4781876233
 10
9.6723455924
 20
11.4288437
 10
9.7878696581
 20
11.3944412433
 10
9.8962546754
 20
11.3729532404
 10
9.9983568599
 20
11.3629012194
 10
10.0953989178
 20
11.3632016166
 10
10.1889800523
 20
11.373316931
 10
10.2784798901
 20
11.3926616537
 10
10.3602391531
 20
11.4189664623
 10
10.4318016689
 20
11.4487099647
 10
10.4972232432
 20
11.481035004
 10
10.5482537146
 20
11.5092891577
  0
LINE
  5
56C
100
AcDbEntity
  8
0
100
AcDbLine
 62
7
  6
CONTINUOUS
 10
7.9655888053
 20
14.0279887511
 11
7.9655888048
 21
14.0279782842
  0
LWPOLYLINE
  5
56D
100
AcDbEntity
  8
0
100
AcDbPolyline
 62
7
  6
CONTINUOUS
 90
14
 70
0
 10
8.5010641409
 20
15.0552494121
 10
8.4509009838
 20
15.0250710654
 10
8.3898995747
 20
14.9843560855
 10
8.3282870595
 20
14.9371468218
 10
8.2701468599
 20
14.8848570356
 10
8.2162847961
 20
14.8272332518
 10
8.1654654492
 20
14.7617318575
 10
8.1179266301
 20
14.6866205548
 10
8.0754263686
 20
14.6025940486
 10
8.0387132795
 20
14.5092395329
 10
8.0083430365
 20
14.4053751503
 10
7.985208769
 20
14.2899097449
 10
7.9704710877
 20
14.1618573692
 10
7.9655888048
 20
14.0279782842
  0
LINE
  5
56E
100
AcDbEntity
  8
02___PRT_ALL_AXES
100
AcDbLine
 62
7
  6
CONTINUOUS
 10
8.500954955
 20
15.0551873792
 11
8.8280420073
 21
15.2440300496
  0
LINE
  5
56F
100
AcDbEntity
  8
0
100
AcDbLine
 62
7
  6
CONTINUOUS
 10
8.8280545507
 20
15.2440372914
 11
8.8280420073
 21
15.2440300496
  0
LINE
  5
570
100
AcDbEntity
  8
0
100
AcDbLine
 62
7
  6
CONTINUOUS
 10
8.5009552008
 20
15.0551875211
 11
8.501063656
 21
15.055250124
  0
LINE
  5
571
100
AcDbEntity
  8
0
100
AcDbLine
 62
7
  6
CONTINUOUS
 10
8.5068575559
 20
14.7858308005
 11
8.5077097274
 21
14.7863237259
  0
LINE
  5
572
100
AcDbEntity
  8
02___PRT_ALL_AXES
100
AcDbLine
 62
7
  6
CONTINUOUS
 10
10.5008718933
 20
14.9664861169
 11
10.2791204186
 21
14.8384586076
  0
LINE
  5
573
100
AcDbEntity
  8
AXIS
100
AcDbLine
 62
7
  6
CONTINUOUS
 10
11.6648304352
 20
13.849713883
 11
13.5439664425
 21
14.9346270866
  0
LINE
  5
574
100
AcDbEntity
  8
AXIS
100
AcDbLine
 62
7
  6
CONTINUOUS
 10
11.6678847521
 20
13.6605428334
 11
13.6266432377
 21
14.7914258219
  0
LINE
  5
575
100
AcDbEntity
  8
02___PRT_ALL_AXES
100
AcDbLine
 62
7
  6
CONTINUOUS
 10
11.4713399895
 20
13.2855760335
 11
11.2508808113
 21
13.1582946273
  0
LINE
  5
576
100
AcDbEntity
  8
0
100
AcDbLine
 62
7
  6
CONTINUOUS
 10
11.1281714513
 20
13.5684154636
 11
11.1278512082
 21
13.5692623716
  0
LINE
  5
577
100
AcDbEntity
  8
0
100
AcDbLine
 62
7
  6
CONTINUOUS
 10
10.5748020299
 20
14.5271759508
 11
10.5739941702
 21
14.5281633204
  0
LINE
  5
578
100
AcDbEntity
  8
0
100
AcDbLine
 62
7
  6
CONTINUOUS
 10
10.5482542033
 20
11.5092884395
 11
10.5481896383
 21
11.5092511585
  0
LINE
  5
579
100
AcDbEntity
  8
02___PRT_ALL_AXES
100
AcDbLine
 62
7
  6
CONTINUOUS
 10
10.5481898842
 20
11.5092513005
 11
10.8752769365
 21
11.6980939709
  0
CIRCLE
  5
57A
100
AcDbEntity
  8
0
100
AcDbCircle
 62
7
  6
CONTINUOUS
 10
15.2229827477
 20
1.1139932523
 40
0.252091
  0
CIRCLE
  5
57B
100
AcDbEntity
  8
0
100
AcDbCircle
 62
7
  6
CONTINUOUS
 10
15.2229827477
 20
1.1139932523
 40
0.182698
  0
CIRCLE
  5
57C
100
AcDbEntity
  8
0
100
AcDbCircle
 62
7
  6
CONTINUOUS
 10
14.8013422688
 20
1.8652439144
 40
0.0638444824
  0
CIRCLE
  5
57D
100
AcDbEntity
  8
SKETCHED_ENT
100
AcDbCircle
 62
7
  6
CENTER
 10
18.2759983149
 20
6.2727485733
 40
1.4569684195
  0
ARC
  5
57E
100
AcDbEntity
  8
02___PRT_ALL_AXES
100
AcDbCircle
 62
7
  6
CONTINUOUS
 10
4.140447907
 20
6.2727485733
 40
2.0472440945
100
AcDbArc
 50
7.8140998247
 51
172.1858105903
  0
ARC
  5
57F
100
AcDbEntity
  8
02___PRT_ALL_AXES
100
AcDbCircle
 62
7
  6
CONTINUOUS
 10
4.140447907
 20
6.2727485733
 40
2.0472440945
100
AcDbArc
 50
187.8140998247
 51
352.1858105903
  0
CIRCLE
  5
580
100
AcDbEntity
  8
0
100
AcDbCircle
 62
7
  6
CONTINUOUS
 10
4.140447907
 20
6.2727485733
 40
2.0472440945
  0
CIRCLE
  5
581
100
AcDbEntity
  8
0
100
AcDbCircle
 62
7
  6
CONTINUOUS
 10
4.140447907
 20
6.2727485733
 40
1.8503936676
  0
CIRCLE
  5
582
100
AcDbEntity
  8
0
100
AcDbCircle
 62
7
  6
CONTINUOUS
 10
4.140447907
 20
6.2727485733
 40
1.811023622
  0
ARC
  5
583
100
AcDbEntity
  8
0
100
AcDbCircle
 62
7
  6
CONTINUOUS
 10
8.7667128978
 20
4.2648745575
 40
0.0393700787
100
AcDbArc
 50
270.0
 51
323.6848245161
  0
ARC
  5
584
100
AcDbEntity
  8
0
100
AcDbCircle
 62
7
  6
CONTINUOUS
 10
9.0226439638
 20
5.0129060536
 40
0.0393700787
100
AcDbArc
 50
90.0
 51
180.0
  0
ARC
  5
585
100
AcDbEntity
  8
0
100
AcDbCircle
 62
7
  6
CONTINUOUS
 10
9.5009904205
 20
5.0428630968
 40
0.0118110236
100
AcDbArc
 50
90.0
 51
180.0
  0
ARC
  5
586
100
AcDbEntity
  8
0
100
AcDbCircle
 62
7
  6
CONTINUOUS
 10
9.5009904205
 20
4.7318394747
 40
0.0118110236
100
AcDbArc
 50
180.0
 51
270.0
  0
ARC
  5
587
100
AcDbEntity
  8
0
100
AcDbCircle
 62
7
  6
CONTINUOUS
 10
9.5336675858
 20
4.9021150653
 40
0.0098425197
100
AcDbArc
 50
90.0
 51
180.0
  0
ARC
  5
588
100
AcDbEntity
  8
0
100
AcDbCircle
 62
7
  6
CONTINUOUS
 10
9.5336675858
 20
4.8725875062
 40
0.0098425197
100
AcDbArc
 50
180.0
 51
270.0
  0
ARC
  5
589
100
AcDbEntity
  8
0
100
AcDbCircle
 62
7
  6
CONTINUOUS
 10
9.4872108929
 20
5.008484285
 40
0.0078740157
100
AcDbArc
 50
75.2812002953
 51
81.7922691855
  0
ARC
  5
58A
100
AcDbEntity
  8
0
100
AcDbCircle
 62
7
  6
CONTINUOUS
 10
9.4872108929
 20
4.7662182865
 40
0.0078740157
100
AcDbArc
 50
278.2077308145
 51
284.7187997022
  0
ARC
  5
58B
100
AcDbEntity
  8
0
100
AcDbCircle
 62
7
  6
CONTINUOUS
 10
9.6281557748
 20
5.0507371125
 40
0.0039370079
100
AcDbArc
 50
0.0
 51
90.0
  0
ARC
  5
58C
100
AcDbEntity
  8
0
100
AcDbCircle
 62
7
  6
CONTINUOUS
 10
9.5198880583
 20
5.0507371125
 40
0.0039370079
100
AcDbArc
 50
0.0
 51
90.0
  0
ARC
  5
58D
100
AcDbEntity
  8
0
100
AcDbCircle
 62
7
  6
CONTINUOUS
 10
9.5868171921
 20
5.0507371125
 40
0.0039370079
100
AcDbArc
 50
90.0
 51
180.0
  0
ARC
  5
58E
100
AcDbEntity
  8
0
100
AcDbCircle
 62
7
  6
CONTINUOUS
 10
9.6281557748
 20
4.723965459
 40
0.0039370079
100
AcDbArc
 50
270.0
 51
360.0
  0
ARC
  5
58F
100
AcDbEntity
  8
0
100
AcDbCircle
 62
7
  6
CONTINUOUS
 10
9.5198880583
 20
4.723965459
 40
0.0039370079
100
AcDbArc
 50
270.0
 51
360.0
  0
ARC
  5
590
100
AcDbEntity
  8
0
100
AcDbCircle
 62
7
  6
CONTINUOUS
 10
9.5868171921
 20
4.723965459
 40
0.0039370079
100
AcDbArc
 50
180.0
 51
270.0
  0
ARC
  5
591
100
AcDbEntity
  8
02___PRT_ALL_AXES
100
AcDbCircle
 62
7
  6
CONTINUOUS
 10
9.0815504538
 20
7.113821692
 40
0.071239312
100
AcDbArc
 50
77.0299874857
 51
91.8326547028
  0
ARC
  5
592
100
AcDbEntity
  8
02___PRT_ALL_AXES
100
AcDbCircle
 62
7
  6
CONTINUOUS
 10
9.0816333188
 20
7.1148880229
 40
0.070176274
100
AcDbArc
 50
91.9281181659
 51
106.2346237166
  0
ARC
  5
593
100
AcDbEntity
  8
02___PRT_ALL_AXES
100
AcDbCircle
 62
7
  6
CONTINUOUS
 10
9.0724926442
 20
7.0706829849
 40
0.0582811302
100
AcDbArc
 50
130.0477704222
 51
136.8526011749
  0
ARC
  5
594
100
AcDbEntity
  8
02___PRT_ALL_AXES
100
AcDbCircle
 62
7
  6
CONTINUOUS
 10
9.0692600008
 20
7.0737837411
 40
0.053802091
100
AcDbArc
 50
136.907519274
 51
139.7580757415
  0
ARC
  5
595
100
AcDbEntity
  8
0
100
AcDbCircle
 62
7
  6
CONTINUOUS
 10
8.7667128978
 20
8.280622589
 40
0.0393700787
100
AcDbArc
 50
36.3151754839
 51
90.0
  0
ARC
  5
596
100
AcDbEntity
  8
0
100
AcDbCircle
 62
7
  6
CONTINUOUS
 10
9.0226439638
 20
7.532591093
 40
0.0393700787
100
AcDbArc
 50
180.0
 51
270.0
  0
ARC
  5
597
100
AcDbEntity
  8
02___PRT_ALL_AXES
100
AcDbCircle
 62
7
  6
CONTINUOUS
 10
9.1182946719
 20
7.0817465238
 40
0.0264949613
100
AcDbArc
 50
356.9628792587
 51
359.9978816743
  0
ARC
  5
598
100
AcDbEntity
  8
0
100
AcDbCircle
 62
7
  6
CONTINUOUS
 10
9.809258137
 20
4.8725875062
 40
0.0098425197
100
AcDbArc
 50
270.0
 51
360.0
  0
ARC
  5
599
100
AcDbEntity
  8
0
100
AcDbCircle
 62
7
  6
CONTINUOUS
 10
9.7364234914
 20
4.723965459
 40
0.0039370079
100
AcDbArc
 50
270.0
 51
360.0
  0
ARC
  5
59A
100
AcDbEntity
  8
0
100
AcDbCircle
 62
7
  6
CONTINUOUS
 10
9.8033526252
 20
4.723965459
 40
0.0039370079
100
AcDbArc
 50
180.0
 51
270.0
  0
ARC
  5
59B
100
AcDbEntity
  8
0
100
AcDbCircle
 62
7
  6
CONTINUOUS
 10
9.6950849087
 20
4.723965459
 40
0.0039370079
100
AcDbArc
 50
180.0
 51
270.0
  0
ARC
  5
59C
100
AcDbEntity
  8
0
100
AcDbCircle
 62
7
  6
CONTINUOUS
 10
9.809258137
 20
4.9021150653
 40
0.0098425197
100
AcDbArc
 50
0.0
 51
90.0
  0
ARC
  5
59D
100
AcDbEntity
  8
0
100
AcDbCircle
 62
7
  6
CONTINUOUS
 10
9.6950849087
 20
5.0507371125
 40
0.0039370079
100
AcDbArc
 50
90.0
 51
180.0
  0
ARC
  5
59E
100
AcDbEntity
  8
0
100
AcDbCircle
 62
7
  6
CONTINUOUS
 10
9.7364234914
 20
5.0507371125
 40
0.0039370079
100
AcDbArc
 50
0.0
 51
90.0
  0
ARC
  5
59F
100
AcDbEntity
  8
0
100
AcDbCircle
 62
7
  6
CONTINUOUS
 10
9.8033526252
 20
5.0507371125
 40
0.0039370079
100
AcDbArc
 50
90.0
 51
180.0
  0
ARC
  5
5A0
100
AcDbEntity
  8
0
100
AcDbCircle
 62
7
  6
CONTINUOUS
 10
10.4320927827
 20
4.7623566551
 40
0.0098425197
100
AcDbArc
 50
180.0
 51
360.0
  0
ARC
  5
5A1
100
AcDbEntity
  8
0
100
AcDbCircle
 62
7
  6
CONTINUOUS
 10
10.4714628614
 20
4.7623566551
 40
0.0098425197
100
AcDbArc
 50
180.0
 51
360.0
  0
ARC
  5
5A2
100
AcDbEntity
  8
0
100
AcDbCircle
 62
7
  6
CONTINUOUS
 10
10.5108329402
 20
4.7623566551
 40
0.0098425197
100
AcDbArc
 50
180.0
 51
360.0
  0
ARC
  5
5A3
100
AcDbEntity
  8
0
100
AcDbCircle
 62
7
  6
CONTINUOUS
 10
10.4320927827
 20
5.0123459164
 40
0.0098425197
100
AcDbArc
 50
0.0
 51
180.0
  0
ARC
  5
5A4
100
AcDbEntity
  8
0
100
AcDbCircle
 62
7
  6
CONTINUOUS
 10
10.4714628614
 20
5.0123459164
 40
0.0098425197
100
AcDbArc
 50
0.0
 51
180.0
  0
ARC
  5
5A5
100
AcDbEntity
  8
0
100
AcDbCircle
 62
7
  6
CONTINUOUS
 10
10.5108329402
 20
5.0123459164
 40
0.0098425197
100
AcDbArc
 50
0.0
 51
180.0
  0
ARC
  5
5A6
100
AcDbEntity
  8
02___PRT_ALL_AXES
100
AcDbCircle
 62
7
  6
CONTINUOUS
 10
18.2759983149
 20
6.2727485733
 40
2.0472440945
100
AcDbArc
 50
6.9586858508
 51
173.0413141492
  0
CIRCLE
  5
5A7
100
AcDbEntity
  8
0
100
AcDbCircle
 62
7
  6
CONTINUOUS
 10
18.2759983149
 20
6.2727485733
 40
2.0472440945
  0
CIRCLE
  5
5A8
100
AcDbEntity
  8
0
100
AcDbCircle
 62
7
  6
CONTINUOUS
 10
18.2759983149
 20
6.2727485733
 40
2.0311900126
  0
ARC
  5
5A9
100
AcDbEntity
  8
02___PRT_ALL_AXES
100
AcDbCircle
 62
7
  6
CONTINUOUS
 10
18.2759983149
 20
6.2727485733
 40
1.4960629921
100
AcDbArc
 50
295.6855701785
 51
279.7589920895
  0
ARC
  5
5AA
100
AcDbEntity
  8
0
100
AcDbCircle
 62
7
  6
CONTINUOUS
 10
18.2759983149
 20
6.2727485733
 40
1.2598425197
100
AcDbArc
 50
291.7786499483
 51
287.7330796095
  0
ARC
  5
5AB
100
AcDbEntity
  8
02___PRT_ALL_AXES
100
AcDbCircle
 62
7
  6
CONTINUOUS
 10
18.2759983149
 20
6.2727485733
 40
1.2204724409
100
AcDbArc
 50
136.2442397902
 51
133.7557602098
  0
CIRCLE
  5
5AC
100
AcDbEntity
  8
02___PRT_ALL_AXES
100
AcDbCircle
 62
7
  6
CONTINUOUS
 10
18.2759983149
 20
6.2727485733
 40
0.9940944882
  0
ARC
  5
5AD
100
AcDbEntity
  8
DRIVEN_DIMS
100
AcDbCircle
 62
7
  6
CONTINUOUS
 10
18.2759983149
 20
6.2727485733
 40
0.9940944882
100
AcDbArc
 50
179.9999999693
 51
236.6367125129
  0
CIRCLE
  5
5AE
100
AcDbEntity
  8
02___PRT_ALL_AXES
100
AcDbCircle
 62
7
  6
CONTINUOUS
 10
18.2759983149
 20
6.2727485733
 40
0.9744094488
  0
CIRCLE
  5
5AF
100
AcDbEntity
  8
02___PRT_ALL_AXES
100
AcDbCircle
 62
7
  6
CONTINUOUS
 10
18.2759983149
 20
6.2727485733
 40
0.9704724409
  0
CIRCLE
  5
5B0
100
AcDbEntity
  8
0
100
AcDbCircle
 62
7
  6
CONTINUOUS
 10
18.2759983149
 20
6.2727485733
 40
0.9086613984
  0
CIRCLE
  5
5B1
100
AcDbEntity
  8
0
100
AcDbCircle
 62
7
  6
CONTINUOUS
 10
18.2759983149
 20
6.2727485733
 40
0.8692913386
  0
CIRCLE
  5
5B2
100
AcDbEntity
  8
0
100
AcDbCircle
 62
7
  6
CONTINUOUS
 10
18.2759983149
 20
6.2727485733
 40
0.849015748
  0
CIRCLE
  5
5B3
100
AcDbEntity
  8
0
100
AcDbCircle
 62
7
  6
CONTINUOUS
 10
18.7261411807
 20
4.8873512858
 40
0.1771653543
  0
CIRCLE
  5
5B4
100
AcDbEntity
  8
0
100
AcDbCircle
 62
7
  6
CONTINUOUS
 10
18.7261411807
 20
4.8873512858
 40
0.1673228346
  0
CIRCLE
  5
5B5
100
AcDbEntity
  8
0
100
AcDbCircle
 62
7
  6
CONTINUOUS
 10
18.7261411807
 20
4.8873512858
 40
0.1594488189
  0
CIRCLE
  5
5B6
100
AcDbEntity
  8
0
100
AcDbCircle
 62
7
  6
CONTINUOUS
 10
18.7261411807
 20
4.8873512858
 40
0.1575353754
  0
CIRCLE
  5
5B7
100
AcDbEntity
  8
0
100
AcDbCircle
 62
7
  6
CONTINUOUS
 10
18.7261411807
 20
4.8873512858
 40
0.1348371504
  0
CIRCLE
  5
5B8
100
AcDbEntity
  8
0
100
AcDbCircle
 62
7
  6
CONTINUOUS
 10
18.7261411807
 20
4.8873512858
 40
0.1249946307
  0
CIRCLE
  5
5B9
100
AcDbEntity
  8
0
100
AcDbCircle
 62
7
  6
CONTINUOUS
 10
18.7261411807
 20
4.8873512858
 40
0.1136284889
  0
CIRCLE
  5
5BA
100
AcDbEntity
  8
AXIS
100
AcDbCircle
 62
7
  6
CONTINUOUS
 10
18.7261411807
 20
4.8873512858
 40
0.0826771654
  0
ARC
  5
5BB
100
AcDbEntity
  8
02___PRT_ALL_AXES
100
AcDbCircle
 62
7
  6
CONTINUOUS
 10
7.8943673233
 20
12.3410255944
 40
3.4588981797
100
AcDbArc
 50
20.7992662812
 51
39.2005105539
  0
ARC
  5
5BC
100
AcDbEntity
  8
0
100
AcDbCircle
 62
7
  6
CONTINUOUS
 10
9.0385214299
 20
12.4470358193
 40
1.9336797767
100
AcDbArc
 50
359.9826249547
 51
0.7634746739
  0
ARC
  5
5BD
100
AcDbEntity
  8
02___PRT_ALL_AXES
100
AcDbCircle
 62
7
  6
CONTINUOUS
 10
9.6493885556
 20
12.5608851733
 40
1.5585383399
100
AcDbArc
 50
351.9004054687
 51
353.5833761095
  0
ARC
  5
5BE
100
AcDbEntity
  8
0
100
AcDbCircle
 62
7
  6
CONTINUOUS
 10
10.2448234462
 20
13.7062648599
 40
1.4547212096
100
AcDbArc
 50
299.7859567086
 51
300.0007857086
  0
ARC
  5
5BF
100
AcDbEntity
  8
0
100
AcDbCircle
 62
7
  6
CONTINUOUS
 10
9.7172704519
 20
12.3656024793
 40
1.2481838171
100
AcDbArc
 50
343.0201935316
 51
345.9640452275
  0
ARC
  5
5C0
100
AcDbEntity
  8
02___PRT_ALL_AXES
100
AcDbCircle
 62
7
  6
CONTINUOUS
 10
9.978151887
 20
12.4952181828
 40
1.2229615676
100
AcDbArc
 50
343.8294810064
 51
344.3443711739
  0
ARC
  5
5C1
100
AcDbEntity
  8
0
100
AcDbCircle
 62
7
  6
CONTINUOUS
 10
8.8475446295
 20
13.9940206233
 40
1.1592080106
100
AcDbArc
 50
77.0255877152
 51
78.936279485
  0
ARC
  5
5C2
100
AcDbEntity
  8
0
100
AcDbCircle
 62
7
  6
CONTINUOUS
 10
9.8147914419
 20
12.3360933601
 40
1.146296331
100
AcDbArc
 50
339.1255490516
 51
343.0073599185
  0
ARC
  5
5C3
100
AcDbEntity
  8
02___PRT_ALL_AXES
100
AcDbCircle
 62
7
  6
CONTINUOUS
 10
10.2053484761
 20
12.4109753197
 40
0.9803838819
100
AcDbArc
 50
333.2964951065
 51
335.5690854908
  0
ARC
  5
5C4
100
AcDbEntity
  8
02___PRT_ALL_AXES
100
AcDbCircle
 62
7
  6
CONTINUOUS
 10
10.3634445028
 20
12.3164616395
 40
0.7958658181
100
AcDbArc
 50
321.9684358031
 51
323.1565711279
  0
ARC
  5
5C5
100
AcDbEntity
  8
0
100
AcDbCircle
 62
7
  6
CONTINUOUS
 10
9.1973389456
 20
14.5500860772
 40
0.7895442383
100
AcDbArc
 50
96.5208072402
 51
100.1799784882
  0
ARC
  5
5C6
100
AcDbEntity
  8
02___PRT_ALL_AXES
100
AcDbCircle
 62
7
  6
CONTINUOUS
 10
10.4308300582
 20
12.2540346805
 40
0.7038429544
100
AcDbArc
 50
308.6768031153
 51
311.6894563222
  0
ARC
  5
5C7
100
AcDbEntity
  8
0
100
AcDbCircle
 62
7
  6
CONTINUOUS
 10
9.1739165107
 20
14.643806535
 40
0.6927449833
100
AcDbArc
 50
108.6340611655
 51
119.9511909428
  0
ARC
  5
5C8
100
AcDbEntity
  8
02___PRT_ALL_AXES
100
AcDbCircle
 62
7
  6
CONTINUOUS
 10
10.4402487801
 20
12.2421426019
 40
0.6886727492
100
AcDbArc
 50
300.0185083495
 51
308.573247155
  0
ARC
  5
5C9
100
AcDbEntity
  8
02___PRT_ALL_AXES
100
AcDbCircle
 62
7
  6
CONTINUOUS
 10
9.0816231413
 20
14.5953772386
 40
0.6885405117
100
AcDbArc
 50
111.3383265562
 51
119.9766558365
  0
ARC
  5
5CA
100
AcDbEntity
  8
02___PRT_ALL_AXES
100
AcDbCircle
 62
7
  6
CONTINUOUS
 10
10.4404462178
 20
12.2418453959
 40
0.6883174814
100
AcDbArc
 50
300.019464874
 51
308.6046340269
  0
ARC
  5
5CB
100
AcDbEntity
  8
02___PRT_ALL_AXES
100
AcDbCircle
 62
7
  6
CONTINUOUS
 10
9.0811880848
 20
14.5961607953
 40
0.6876505877
100
AcDbArc
 50
111.4061957722
 51
117.5100219803
  0
ARC
  5
5CC
100
AcDbEntity
  8
02___PRT_ALL_AXES
100
AcDbCircle
 62
7
  6
CONTINUOUS
 10
9.0789532776
 20
14.6005720644
 40
0.682705837
100
AcDbArc
 50
117.5146767822
 51
119.9975619847
  0
ARC
  5
5CD
100
AcDbEntity
  8
0
100
AcDbCircle
 62
7
  6
CONTINUOUS
 10
10.0305964428
 20
12.1485816313
 40
0.5762522238
100
AcDbArc
 50
300.0003085025
 51
301.6635435311
  0
ARC
  5
5CE
100
AcDbEntity
  8
0
100
AcDbCircle
 62
7
  6
CONTINUOUS
 10
8.795634608
 20
14.2876141431
 40
0.5758576081
100
AcDbArc
 50
118.6373906651
 51
119.9995492403
  0
SPLINE
  5
5CF
100
AcDbEntity
  8
0
100
AcDbSpline
 62
7
  6
CONTINUOUS
 70
0
 71
3
 72
27
 73
23
 74
0
 42
0.0000001
 43
0.0000001
 44
0.0000000001
 40
0.0
 40
0.0
 40
0.0
 40
0.0
 40
0.062479528
 40
0.0937576342
 40
0.1250355521
 40
0.1875171256
 40
0.249998614
 40
0.2812769393
 40
0.312555327
 40
0.3750369115
 40
0.4375184494
 40
0.5000000029
 40
0.5624815561
 40
0.6249630944
 40
0.6874446788
 40
0.7187230661
 40
0.7500013916
 40
0.8124828802
 40
0.8749644538
 40
0.9062423699
 40
0.9375204752
 40
1.0
 40
1.0
 40
1.0
 40
1.0
 10
2.1424126862
 20
6.2727485719
 30
0.0
 10
2.1423631483
 20
6.4033058548
 30
0.0
 10
2.161792444
 20
6.5999304287
 30
0.0
 10
2.2254053826
 20
6.8536473501
 30
0.0
 10
2.3134881428
 20
7.1000390808
 30
0.0
 10
2.4684161989
 20
7.3899511089
 30
0.0
 10
2.6769821678
 20
7.6440312179
 30
0.0
 10
2.8708803397
 20
7.8197110064
 30
0.0
 10
3.0810041588
 20
7.9756088438
 30
0.0
 10
3.370939658
 20
8.1306122234
 30
0.0
 10
3.748127021
 20
8.2450136991
 30
0.0
 10
4.1404479063
 20
8.2836604505
 30
0.0
 10
4.5327688006
 20
8.24501372
 30
0.0
 10
4.9099561443
 20
8.1306121937
 30
0.0
 10
5.1998916713
 20
7.9756088682
 30
0.0
 10
5.4100154749
 20
7.8197110074
 30
0.0
 10
5.6039136256
 20
7.6440311976
 30
0.0
 10
5.8124796281
 20
7.3899511203
 30
0.0
 10
5.9674076997
 20
7.1000390954
 30
0.0
 10
6.0554903676
 20
6.8536473316
 30
0.0
 10
6.1191033185
 20
6.5999304564
 30
0.0
 10
6.1385329647
 20
6.4033058481
 30
0.0
 10
6.138482839
 20
6.272748572
 30
0.0
  0
SPLINE
  5
5D0
100
AcDbEntity
  8
0
100
AcDbSpline
 62
7
  6
CONTINUOUS
 70
0
 71
3
 72
27
 73
23
 74
0
 42
0.0000001
 43
0.0000001
 44
0.0000000001
 40
0.0
 40
0.0
 40
0.0
 40
0.0
 40
0.062479528
 40
0.0937576342
 40
0.1250355521
 40
0.1875171256
 40
0.249998614
 40
0.2812769393
 40
0.312555327
 40
0.3750369115
 40
0.4375184494
 40
0.5000000029
 40
0.5624815561
 40
0.6249630944
 40
0.6874446788
 40
0.7187230661
 40
0.7500013916
 40
0.8124828802
 40
0.8749644538
 40
0.9062423699
 40
0.9375204752
 40
1.0
 40
1.0
 40
1.0
 40
1.0
 10
6.1384831278
 20
6.2727485747
 30
0.0
 10
6.1385326658
 20
6.1421912917
 30
0.0
 10
6.1191033701
 20
5.9455667179
 30
0.0
 10
6.0554904315
 20
5.6918497965
 30
0.0
 10
5.9674076713
 20
5.4454580658
 30
0.0
 10
5.8124796152
 20
5.1555460377
 30
0.0
 10
5.6039136463
 20
4.9014659287
 30
0.0
 10
5.4100154744
 20
4.7257861402
 30
0.0
 10
5.1998916553
 20
4.5698883028
 30
0.0
 10
4.909956156
 20
4.4148849232
 30
0.0
 10
4.5327687931
 20
4.3004834474
 30
0.0
 10
4.1404479077
 20
4.261836696
 30
0.0
 10
3.7481270135
 20
4.3004834266
 30
0.0
 10
3.3709396698
 20
4.4148849528
 30
0.0
 10
3.0810041428
 20
4.5698882783
 30
0.0
 10
2.8708803392
 20
4.7257861391
 30
0.0
 10
2.6769821885
 20
4.9014659489
 30
0.0
 10
2.468416186
 20
5.1555460263
 30
0.0
 10
2.3134881144
 20
5.4454580512
 30
0.0
 10
2.2254054465
 20
5.691849815
 30
0.0
 10
2.1617924956
 20
5.9455666901
 30
0.0
 10
2.1423628493
 20
6.1421912985
 30
0.0
 10
2.1424129751
 20
6.2727485746
 30
0.0
  0
SPLINE
  5
5D1
100
AcDbEntity
  8
DEFAULT_2
100
AcDbSpline
 62
7
  6
HIDDEN
 70
0
 71
3
 72
479
 73
475
 74
0
 42
0.0000001
 43
0.0000001
 44
0.0000000001
 40
0.0
 40
0.0
 40
0.0
 40
0.0
 40
0.015625
 40
0.0234375
 40
0.03125
 40
0.0390625
 40
0.04296875
 40
0.046875
 40
0.05078125
 40
0.052734375
 40
0.0546875
 40
0.056640625
 40
0.05859375
 40
0.0595703125
 40
0.060546875
 40
0.0615234375
 40
0.0620117188
 40
0.0622558594
 40
0.0625
 40
0.0627441406
 40
0.0629882812
 40
0.0634765625
 40
0.064453125
 40
0.0654296875
 40
0.06640625
 40
0.068359375
 40
0.0703125
 40
0.072265625
 40
0.07421875
 40
0.078125
 40
0.08203125
 40
0.0859375
 40
0.09375
 40
0.1015625
 40
0.10546875
 40
0.109375
 40
0.11328125
 40
0.115234375
 40
0.1171875
 40
0.119140625
 40
0.12109375
 40
0.1220703125
 40
0.123046875
 40
0.1235351562
 40
0.1240234375
 40
0.1245117188
 40
0.1247558594
 40
0.125
 40
0.1252441406
 40
0.1254882812
 40
0.1259765625
 40
0.1264648438
 40
0.126953125
 40
0.1279296875
 40
0.12890625
 40
0.130859375
 40
0.1328125
 40
0.134765625
 40
0.13671875
 40
0.140625
 40
0.14453125
 40
0.1484375
 40
0.15625
 40
0.1640625
 40
0.16796875
 40
0.171875
 40
0.17578125
 40
0.177734375
 40
0.1796875
 40
0.181640625
 40
0.18359375
 40
0.1845703125
 40
0.185546875
 40
0.1860351562
 40
0.1865234375
 40
0.1870117188
 40
0.1872558594
 40
0.1875
 40
0.1877441406
 40
0.1879882812
 40
0.1884765625
 40
0.1889648438
 40
0.189453125
 40
0.1904296875
 40
0.19140625
 40
0.193359375
 40
0.1953125
 40
0.197265625
 40
0.19921875
 40
0.203125
 40
0.20703125
 40
0.2109375
 40
0.21875
 40
0.2265625
 40
0.23046875
 40
0.234375
 40
0.23828125
 40
0.240234375
 40
0.2421875
 40
0.244140625
 40
0.24609375
 40
0.2470703125
 40
0.248046875
 40
0.2485351562
 40
0.2490234375
 40
0.2495117188
 40
0.2497558594
 40
0.2498779297
 40
0.25
 40
0.2501220703
 40
0.2502441406
 40
0.2504882812
 40
0.2509765625
 40
0.2514648438
 40
0.251953125
 40
0.2529296875
 40
0.25390625
 40
0.255859375
 40
0.2578125
 40
0.259765625
 40
0.26171875
 40
0.265625
 40
0.26953125
 40
0.2734375
 40
0.28125
 40
0.2890625
 40
0.29296875
 40
0.296875
 40
0.30078125
 40
0.302734375
 40
0.3046875
 40
0.306640625
 40
0.30859375
 40
0.3095703125
 40
0.310546875
 40
0.3110351562
 40
0.3115234375
 40
0.3120117188
 40
0.3122558594
 40
0.3123779297
 40
0.3125
 40
0.3126220703
 40
0.3127441406
 40
0.3129882812
 40
0.3134765625
 40
0.3139648438
 40
0.314453125
 40
0.3154296875
 40
0.31640625
 40
0.318359375
 40
0.3203125
 40
0.322265625
 40
0.32421875
 40
0.328125
 40
0.33203125
 40
0.3359375
 40
0.34375
 40
0.3515625
 40
0.35546875
 40
0.359375
 40
0.36328125
 40
0.365234375
 40
0.3671875
 40
0.369140625
 40
0.37109375
 40
0.3720703125
 40
0.373046875
 40
0.3735351562
 40
0.3740234375
 40
0.3745117188
 40
0.3747558594
 40
0.3748779297
 40
0.375
 40
0.3751220703
 40
0.3752441406
 40
0.3754882812
 40
0.3759765625
 40
0.3764648438
 40
0.376953125
 40
0.3779296875
 40
0.37890625
 40
0.380859375
 40
0.3828125
 40
0.384765625
 40
0.38671875
 40
0.390625
 40
0.39453125
 40
0.3984375
 40
0.40625
 40
0.4140625
 40
0.41796875
 40
0.421875
 40
0.42578125
 40
0.427734375
 40
0.4296875
 40
0.431640625
 40
0.43359375
 40
0.4345703125
 40
0.435546875
 40
0.4360351562
 40
0.4365234375
 40
0.4370117188
 40
0.4372558594
 40
0.4373779297
 40
0.4375
 40
0.4376220703
 40
0.4377441406
 40
0.4379882812
 40
0.4384765625
 40
0.4389648438
 40
0.439453125
 40
0.4404296875
 40
0.44140625
 40
0.443359375
 40
0.4453125
 40
0.447265625
 40
0.44921875
 40
0.453125
 40
0.45703125
 40
0.4609375
 40
0.46875
 40
0.4765625
 40
0.48046875
 40
0.484375
 40
0.48828125
 40
0.490234375
 40
0.4921875
 40
0.494140625
 40
0.49609375
 40
0.4970703125
 40
0.498046875
 40
0.4985351562
 40
0.4990234375
 40
0.4995117188
 40
0.4997558594
 40
0.4998779297
 40
0.5
 40
0.5001220703
 40
0.5002441406
 40
0.5004882812
 40
0.5009765625
 40
0.5014648438
 40
0.501953125
 40
0.5029296875
 40
0.50390625
 40
0.505859375
 40
0.5078125
 40
0.509765625
 40
0.51171875
 40
0.515625
 40
0.51953125
 40
0.5234375
 40
0.53125
 40
0.5390625
 40
0.54296875
 40
0.546875
 40
0.55078125
 40
0.552734375
 40
0.5546875
 40
0.556640625
 40
0.55859375
 40
0.5595703125
 40
0.560546875
 40
0.5610351562
 40
0.5615234375
 40
0.5620117188
 40
0.5622558594
 40
0.5623779297
 40
0.5625
 40
0.5626220703
 40
0.5627441406
 40
0.5629882812
 40
0.5634765625
 40
0.5639648438
 40
0.564453125
 40
0.5654296875
 40
0.56640625
 40
0.568359375
 40
0.5703125
 40
0.572265625
 40
0.57421875
 40
0.578125
 40
0.58203125
 40
0.5859375
 40
0.59375
 40
0.6015625
 40
0.60546875
 40
0.609375
 40
0.61328125
 40
0.615234375
 40
0.6171875
 40
0.619140625
 40
0.62109375
 40
0.6220703125
 40
0.623046875
 40
0.6235351562
 40
0.6240234375
 40
0.6245117188
 40
0.6247558594
 40
0.6248779297
 40
0.625
 40
0.6251220703
 40
0.6252441406
 40
0.6254882812
 40
0.6259765625
 40
0.6264648438
 40
0.626953125
 40
0.6279296875
 40
0.62890625
 40
0.630859375
 40
0.6328125
 40
0.634765625
 40
0.63671875
 40
0.640625
 40
0.64453125
 40
0.6484375
 40
0.65625
 40
0.6640625
 40
0.66796875
 40
0.671875
 40
0.67578125
 40
0.677734375
 40
0.6796875
 40
0.681640625
 40
0.68359375
 40
0.6845703125
 40
0.685546875
 40
0.6860351562
 40
0.6865234375
 40
0.6870117188
 40
0.6872558594
 40
0.6873779297
 40
0.6875
 40
0.6876220703
 40
0.6877441406
 40
0.6879882812
 40
0.6884765625
 40
0.6889648438
 40
0.689453125
 40
0.6904296875
 40
0.69140625
 40
0.693359375
 40
0.6953125
 40
0.697265625
 40
0.69921875
 40
0.703125
 40
0.70703125
 40
0.7109375
 40
0.71875
 40
0.7265625
 40
0.73046875
 40
0.734375
 40
0.73828125
 40
0.740234375
 40
0.7421875
 40
0.744140625
 40
0.74609375
 40
0.7470703125
 40
0.748046875
 40
0.7485351562
 40
0.7490234375
 40
0.7495117188
 40
0.7497558594
 40
0.7498779297
 40
0.75
 40
0.7501220703
 40
0.7502441406
 40
0.7504882812
 40
0.7509765625
 40
0.7514648438
 40
0.751953125
 40
0.7529296875
 40
0.75390625
 40
0.755859375
 40
0.7578125
 40
0.759765625
 40
0.76171875
 40
0.765625
 40
0.76953125
 40
0.7734375
 40
0.78125
 40
0.7890625
 40
0.79296875
 40
0.796875
 40
0.80078125
 40
0.802734375
 40
0.8046875
 40
0.806640625
 40
0.80859375
 40
0.8095703125
 40
0.810546875
 40
0.8110351562
 40
0.8115234375
 40
0.8120117188
 40
0.8122558594
 40
0.8123779297
 40
0.8125
 40
0.8126220703
 40
0.8127441406
 40
0.8129882812
 40
0.8134765625
 40
0.8139648438
 40
0.814453125
 40
0.8154296875
 40
0.81640625
 40
0.818359375
 40
0.8203125
 40
0.822265625
 40
0.82421875
 40
0.828125
 40
0.83203125
 40
0.8359375
 40
0.84375
 40
0.8515625
 40
0.85546875
 40
0.859375
 40
0.86328125
 40
0.865234375
 40
0.8671875
 40
0.869140625
 40
0.87109375
 40
0.8720703125
 40
0.873046875
 40
0.8735351562
 40
0.8740234375
 40
0.8745117188
 40
0.8747558594
 40
0.875
 40
0.8752441406
 40
0.8754882812
 40
0.8759765625
 40
0.8764648438
 40
0.876953125
 40
0.8779296875
 40
0.87890625
 40
0.880859375
 40
0.8828125
 40
0.884765625
 40
0.88671875
 40
0.890625
 40
0.89453125
 40
0.8984375
 40
0.90625
 40
0.9140625
 40
0.91796875
 40
0.921875
 40
0.92578125
 40
0.927734375
 40
0.9296875
 40
0.931640625
 40
0.93359375
 40
0.9345703125
 40
0.935546875
 40
0.9365234375
 40
0.9370117188
 40
0.9372558594
 40
0.9375
 40
0.9377441406
 40
0.9379882812
 40
0.9384765625
 40
0.939453125
 40
0.9404296875
 40
0.94140625
 40
0.943359375
 40
0.9453125
 40
0.947265625
 40
0.94921875
 40
0.953125
 40
0.95703125
 40
0.9609375
 40
0.96875
 40
0.9765625
 40
0.984375
 40
1.0
 40
1.0
 40
1.0
 40
1.0
 10
9.0915416016
 20
7.0869625446
 30
0.0
 10
9.0904247541
 20
7.0870399784
 30
0.0
 10
9.0887494828
 20
7.087156129
 30
0.0
 10
9.0865157878
 20
7.0873109965
 30
0.0
 10
9.0848405165
 20
7.0874271471
 30
0.0
 10
9.0834444571
 20
7.0875239393
 30
0.0
 10
9.0823276096
 20
7.087601373
 30
0.0
 10
9.0814899739
 20
7.0876594484
 30
0.0
 10
9.0807919442
 20
7.0877078443
 30
0.0
 10
9.0802335205
 20
7.0877465616
 30
0.0
 10
9.0798147024
 20
7.087775598
 30
0.0
 10
9.0793958859
 20
7.0878046405
 30
0.0
 10
9.0790468668
 20
7.0878288234
 30
0.0
 10
9.0787676636
 20
7.0878482126
 30
0.0
 10
9.0785582283
 20
7.0878626375
 30
0.0
 10
9.0783838033
 20
7.0878750306
 30
0.0
 10
9.078261501
 20
7.0878829749
 30
0.0
 10
9.0781919336
 20
7.0878886557
 30
0.0
 10
9.0781388578
 20
7.0878897014
 30
0.0
 10
9.0780892233
 20
7.0879030363
 30
0.0
 10
9.0780218435
 20
7.0879165295
 30
0.0
 10
9.0779044882
 20
7.0879421399
 30
0.0
 10
9.0777365453
 20
7.087977682
 30
0.0
 10
9.0775351391
 20
7.0880207795
 30
0.0
 10
9.0772665537
 20
7.0880780867
 30
0.0
 10
9.0769308369
 20
7.0881497742
 30
0.0
 10
9.0765279704
 20
7.0882357763
 30
0.0
 10
9.0761251055
 20
7.0883217845
 30
0.0
 10
9.0755879519
 20
7.08843646
 30
0.0
 10
9.0749165099
 20
7.0885798051
 30
0.0
 10
9.0741107796
 20
7.0887518189
 30
0.0
 10
9.0730364724
 20
7.0889811707
 30
0.0
 10
9.0716935885
 20
7.0892678605
 30
0.0
 10
9.0703507046
 20
7.0895545503
 30
0.0
 10
9.0692763974
 20
7.0897839021
 30
0.0
 10
9.0684706671
 20
7.0899559159
 30
0.0
 10
9.0677992251
 20
7.0900992609
 30
0.0
 10
9.0672620715
 20
7.0902139367
 30
0.0
 10
9.0668592065
 20
7.0902999439
 30
0.0
 10
9.0664563406
 20
7.0903859496
 30
0.0
 10
9.0661206219
 20
7.0904576259
 30
0.0
 10
9.0658520405
 20
7.090514956
 30
0.0
 10
9.0656841916
 20
7.0905508122
 30
0.0
 10
9.0655498794
 20
7.0905794403
 30
0.0
 10
9.065449236
 20
7.090601067
 30
0.0
 10
9.0653650777
 20
7.090618594
 30
0.0
 10
9.0652983986
 20
7.0906337264
 30
0.0
 10
9.0652466201
 20
7.0906420406
 30
0.0
 10
9.0652015945
 20
7.0906619398
 30
0.0
 10
9.0651392015
 20
7.0906844253
 30
0.0
 10
9.0650620196
 20
7.0907139206
 30
0.0
 10
9.0649690549
 20
7.0907487206
 30
0.0
 10
9.0648452229
 20
7.0907953283
 30
0.0
 10
9.0646903914
 20
7.0908535168
 30
0.0
 10
9.0644426843
 20
7.0909466581
 30
0.0
 10
9.0641330425
 20
7.0910630711
 30
0.0
 10
9.0637614757
 20
7.0912027726
 30
0.0
 10
9.0633899079
 20
7.0913424725
 30
0.0
 10
9.0628944846
 20
7.0915287396
 30
0.0
 10
9.0622752054
 20
7.0917615732
 30
0.0
 10
9.0615320703
 20
7.0920409737
 30
0.0
 10
9.0605412236
 20
7.0924135076
 30
0.0
 10
9.0593026652
 20
7.0928791751
 30
0.0
 10
9.0580641067
 20
7.0933448425
 30
0.0
 10
9.05707326
 20
7.0937173765
 30
0.0
 10
9.0563301249
 20
7.0939967769
 30
0.0
 10
9.0557108457
 20
7.0942296107
 30
0.0
 10
9.0552154223
 20
7.0944158775
 30
0.0
 10
9.054843855
 20
7.0945555781
 30
0.0
 10
9.0544722866
 20
7.0946952771
 30
0.0
 10
9.0541626498
 20
7.0948116977
 30
0.0
 10
9.0539149323
 20
7.0949048236
 30
0.0
 10
9.0537601274
 20
7.0949630514
 30
0.0
 10
9.053636241
 20
7.0950095784
 30
0.0
 10
9.0535434425
 20
7.0950446248
 30
0.0
 10
9.0534657404
 20
7.0950733493
 30
0.0
 10
9.0534044086
 20
7.0950974073
 30
0.0
 10
9.053356142
 20
7.0951125042
 30
0.0
 10
9.0533165316
 20
7.0951388485
 30
0.0
 10
9.053260694
 20
7.0951700454
 30
0.0
 10
9.0531919345
 20
7.0952103895
 30
0.0
 10
9.053108979
 20
7.0952582255
 30
0.0
 10
9.0529985267
 20
7.0953222082
 30
0.0
 10
9.0528604083
 20
7.0954021177
 30
0.0
 10
9.0526394485
 20
7.0955300114
 30
0.0
 10
9.0523632386
 20
7.0956898654
 30
0.0
 10
9.052031791
 20
7.0958816957
 30
0.0
 10
9.0517003423
 20
7.0960735246
 30
0.0
 10
9.0512584111
 20
7.0963292969
 30
0.0
 10
9.0507059969
 20
7.0966490122
 30
0.0
 10
9.0500431
 20
7.0970326706
 30
0.0
 10
9.0491592374
 20
7.097544215
 30
0.0
 10
9.0480544092
 20
7.0981836456
 30
0.0
 10
9.046949581
 20
7.0988230762
 30
0.0
 10
9.0460657184
 20
7.0993346207
 30
0.0
 10
9.0454028215
 20
7.0997182791
 30
0.0
 10
9.0448504073
 20
7.1000379944
 30
0.0
 10
9.0444084761
 20
7.1002937666
 30
0.0
 10
9.0440770275
 20
7.1004855957
 30
0.0
 10
9.0437455795
 20
7.1006774252
 30
0.0
 10
9.0434693708
 20
7.1008372819
 30
0.0
 10
9.0432484085
 20
7.10096517
 30
0.0
 10
9.0431102965
 20
7.1010450938
 30
0.0
 10
9.0429998311
 20
7.1011090472
 30
0.0
 10
9.0429169159
 20
7.101156973
 30
0.0
 10
9.0428480302
 20
7.1011970358
 30
0.0
 10
9.0427993975
 20
7.1012248353
 30
0.0
 10
9.0427722518
 20
7.1012411024
 30
0.0
 10
9.0427500771
 20
7.1012522274
 30
0.0
 10
9.0427348418
 20
7.1012674631
 30
0.0
 10
9.0427121075
 20
7.1012863435
 30
0.0
 10
9.0426734503
 20
7.1013200523
 30
0.0
 10
9.042617636
 20
7.1013678584
 30
0.0
 10
9.0425509113
 20
7.1014253753
 30
0.0
 10
9.0424618568
 20
7.1015020122
 30
0.0
 10
9.0423505689
 20
7.1015978262
 30
0.0
 10
9.0421724914
 20
7.1017511187
 30
0.0
 10
9.0419499003
 20
7.1019427377
 30
0.0
 10
9.0416827885
 20
7.102172679
 30
0.0
 10
9.0414156774
 20
7.1024026207
 30
0.0
 10
9.041059529
 20
7.1027092095
 30
0.0
 10
9.0406143436
 20
7.1030924456
 30
0.0
 10
9.040080121
 20
7.1035523289
 30
0.0
 10
9.0393678243
 20
7.1041655065
 30
0.0
 10
9.0384774535
 20
7.1049319787
 30
0.0
 10
9.0375870826
 20
7.1056984508
 30
0.0
 10
9.0368747859
 20
7.1063116285
 30
0.0
 10
9.0363405633
 20
7.1067715117
 30
0.0
 10
9.0358953779
 20
7.1071547478
 30
0.0
 10
9.0355392296
 20
7.1074613366
 30
0.0
 10
9.0352721182
 20
7.1076912782
 30
0.0
 10
9.0350050075
 20
7.1079212201
 30
0.0
 10
9.034782413
 20
7.1081128373
 30
0.0
 10
9.0346043424
 20
7.1082661334
 30
0.0
 10
9.034493037
 20
7.1083619382
 30
0.0
 10
9.0344040184
 20
7.1084385941
 30
0.0
 10
9.0343371842
 20
7.1084960528
 30
0.0
 10
9.0342817122
 20
7.1085440407
 30
0.0
 10
9.034242444
 20
7.108577425
 30
0.0
 10
9.0342206886
 20
7.1085968254
 30
0.0
 10
9.0342024463
 20
7.108610464
 30
0.0
 10
9.0341915653
 20
7.1086275873
 30
0.0
 10
9.0341744896
 20
7.1086492028
 30
0.0
 10
9.0341458034
 20
7.1086875963
 30
0.0
 10
9.0341041977
 20
7.108742148
 30
0.0
 10
9.0340545386
 20
7.1088077368
 30
0.0
 10
9.0339882329
 20
7.1088951443
 30
0.0
 10
9.0339053828
 20
7.1090044189
 30
0.0
 10
9.0337728048
 20
7.1091792496
 30
0.0
 10
9.0336070883
 20
7.109397791
 30
0.0
 10
9.033408226
 20
7.1096600394
 30
0.0
 10
9.0332093644
 20
7.1099222882
 30
0.0
 10
9.0329442153
 20
7.110271953
 30
0.0
 10
9.0326127791
 20
7.1107090342
 30
0.0
 10
9.0322150555
 20
7.1112335315
 30
0.0
 10
9.0316847575
 20
7.1119328613
 30
0.0
 10
9.0310218849
 20
7.1128070236
 30
0.0
 10
9.0303590124
 20
7.1136811858
 30
0.0
 10
9.0298287143
 20
7.1143805156
 30
0.0
 10
9.0294309908
 20
7.114905013
 30
0.0
 10
9.0290995545
 20
7.1153420941
 30
0.0
 10
9.0288344055
 20
7.115691759
 30
0.0
 10
9.0286355436
 20
7.1159540076
 30
0.0
 10
9.0284366824
 20
7.1162162565
 30
0.0
 10
9.0282709623
 20
7.1164347965
 30
0.0
 10
9.0281383918
 20
7.1166096301
 30
0.0
 10
9.0280555227
 20
7.1167188974
 30
0.0
 10
9.0279892559
 20
7.1168063197
 30
0.0
 10
9.0279394779
 20
7.1168718634
 30
0.0
 10
9.0278982441
 20
7.1169265562
 30
0.0
 10
9.027868894
 20
7.1169646979
 30
0.0
 10
9.0278528821
 20
7.1169867168
 30
0.0
 10
9.0278387336
 20
7.1170026012
 30
0.0
 10
9.0278327633
 20
7.1170208927
 30
0.0
 10
9.0278219504
 20
7.1170444418
 30
0.0
 10
9.0278043568
 20
7.117086044
 30
0.0
 10
9.0277785282
 20
7.1171452711
 30
0.0
 10
9.0277478313
 20
7.1172164312
 30
0.0
 10
9.0277067983
 20
7.1173112808
 30
0.0
 10
9.0276555426
 20
7.1174298532
 30
0.0
 10
9.0275735135
 20
7.1176195632
 30
0.0
 10
9.027470984
 20
7.1178567027
 30
0.0
 10
9.0273479457
 20
7.1181412693
 30
0.0
 10
9.0272249082
 20
7.1184258361
 30
0.0
 10
9.0270608579
 20
7.1188052584
 30
0.0
 10
9.0268557951
 20
7.1192795363
 30
0.0
 10
9.0266097197
 20
7.1198486698
 30
0.0
 10
9.0262816192
 20
7.1206075144
 30
0.0
 10
9.0258714936
 20
7.1215560703
 30
0.0
 10
9.025461368
 20
7.1225046261
 30
0.0
 10
9.0251332674
 20
7.1232634707
 30
0.0
 10
9.0248871921
 20
7.1238326042
 30
0.0
 10
9.0246821292
 20
7.1243068821
 30
0.0
 10
9.024518079
 20
7.1246863045
 30
0.0
 10
9.0243950412
 20
7.1249708712
 30
0.0
 10
9.0242720041
 20
7.125255438
 30
0.0
 10
9.0241694707
 20
7.1254925766
 30
0.0
 10
9.0240874497
 20
7.1256822886
 30
0.0
 10
9.0240361734
 20
7.1258008559
 30
0.0
 10
9.0239951826
 20
7.125895716
 30
0.0
 10
9.0239643568
 20
7.1259668438
 30
0.0
 10
9.0239389317
 20
7.1260261719
 30
0.0
 10
9.0239206178
 20
7.1260675938
 30
0.0
 10
9.023910959
 20
7.1260914318
 30
0.0
 10
9.0239014435
 20
7.1261088361
 30
0.0
 10
9.0239006103
 20
7.1261280527
 30
0.0
 10
9.023896471
 20
7.1261530426
 30
0.0
 10
9.0238906381
 20
7.1261970695
 30
0.0
 10
9.0238815678
 20
7.1262598112
 30
0.0
 10
9.0238709991
 20
7.126335167
 30
0.0
 10
9.0238567973
 20
7.1264356185
 30
0.0
 10
9.0238390828
 20
7.1265611906
 30
0.0
 10
9.0238107184
 20
7.1267621017
 30
0.0
 10
9.0237752702
 20
7.1270132421
 30
0.0
 10
9.0237327293
 20
7.1273146099
 30
0.0
 10
9.0236901892
 20
7.1276159779
 30
0.0
 10
9.0236334688
 20
7.1280178018
 30
0.0
 10
9.0235625683
 20
7.1285200818
 30
0.0
 10
9.0234774877
 20
7.1291228177
 30
0.0
 10
9.023364047
 20
7.1299264655
 30
0.0
 10
9.0232222461
 20
7.1309310253
 30
0.0
 10
9.0230804451
 20
7.1319355852
 30
0.0
 10
9.0229670044
 20
7.132739233
 30
0.0
 10
9.0228819238
 20
7.1333419689
 30
0.0
 10
9.0228110233
 20
7.1338442489
 30
0.0
 10
9.022754303
 20
7.1342460728
 30
0.0
 10
9.0227117626
 20
7.1345474407
 30
0.0
 10
9.022669223
 20
7.1348488086
 30
0.0
 10
9.0226337706
 20
7.1350999487
 30
0.0
 10
9.0226054148
 20
7.1353008604
 30
0.0
 10
9.0225876786
 20
7.1354264311
 30
0.0
 10
9.0225735211
 20
7.1355268857
 30
0.0
 10
9.0225628171
 20
7.135602232
 30
0.0
 10
9.0225541703
 20
7.1356650035
 30
0.0
 10
9.0225475813
 20
7.135708977
 30
0.0
 10
9.0225446535
 20
7.1357340525
 30
0.0
 10
9.0225400987
 20
7.1357530063
 30
0.0
 10
9.0225445614
 20
7.1357713973
 30
0.0
 10
9.0225473662
 20
7.1357961149
 30
0.0
 10
9.0225537402
 20
7.1358392792
 30
0.0
 10
9.0225620797
 20
7.1359009904
 30
0.0
 10
9.022572415
 20
7.1359750233
 30
0.0
 10
9.0225860809
 20
7.136073741
 30
0.0
 10
9.0226032025
 20
7.1361971357
 30
0.0
 10
9.0226305751
 20
7.1363945686
 30
0.0
 10
9.0226647985
 20
7.1366413593
 30
0.0
 10
9.0227058632
 20
7.1369375082
 30
0.0
 10
9.0227469289
 20
7.1372336571
 30
0.0
 10
9.0228016827
 20
7.1376285224
 30
0.0
 10
9.0228701252
 20
7.1381221039
 30
0.0
 10
9.0229522561
 20
7.1387144017
 30
0.0
 10
9.0230617639
 20
7.1395041322
 30
0.0
 10
9.0231986487
 20
7.1404912953
 30
0.0
 10
9.0233355336
 20
7.1414784583
 30
0.0
 10
9.0234450414
 20
7.1422681888
 30
0.0
 10
9.0235271723
 20
7.1428604866
 30
0.0
 10
9.0235956147
 20
7.1433540682
 30
0.0
 10
9.0236503687
 20
7.1437489334
 30
0.0
 10
9.023691434
 20
7.1440450823
 30
0.0
 10
9.0237325001
 20
7.1443412311
 30
0.0
 10
9.0237667192
 20
7.1445880222
 30
0.0
 10
9.0237941003
 20
7.1447854542
 30
0.0
 10
9.0238112004
 20
7.1449088511
 30
0.0
 10
9.0238249106
 20
7.1450075644
 30
0.0
 10
9.0238351105
 20
7.1450816109
 30
0.0
 10
9.0238438738
 20
7.1451432795
 30
0.0
 10
9.0238494912
 20
7.1451865198
 30
0.0
 10
9.0238535082
 20
7.1452111156
 30
0.0
 10
9.0238542476
 20
7.1452298808
 30
0.0
 10
9.0238636768
 20
7.1452474292
 30
0.0
 10
9.0238732179
 20
7.1452712516
 30
0.0
 10
9.0238913272
 20
7.1453127429
 30
0.0
 10
9.0239164593
 20
7.1453721197
 30
0.0
 10
9.0239469338
 20
7.1454433276
 30
0.0
 10
9.0239874561
 20
7.1455382869
 30
0.0
 10
9.0240381468
 20
7.1456569807
 30
0.0
 10
9.0241192307
 20
7.1458468937
 30
0.0
 10
9.0242205929
 20
7.146084284
 30
0.0
 10
9.0243422244
 20
7.1463691528
 30
0.0
 10
9.0244638568
 20
7.1466540215
 30
0.0
 10
9.0246260329
 20
7.1470338464
 30
0.0
 10
9.0248287532
 20
7.1475086276
 30
0.0
 10
9.0250720176
 20
7.148078365
 30
0.0
 10
9.02539637
 20
7.1488380148
 30
0.0
 10
9.0258018106
 20
7.1497875772
 30
0.0
 10
9.0262072511
 20
7.1507371395
 30
0.0
 10
9.0265316036
 20
7.1514967894
 30
0.0
 10
9.0267748679
 20
7.1520665268
 30
0.0
 10
9.0269775882
 20
7.152541308
 30
0.0
 10
9.0271397645
 20
7.1529211329
 30
0.0
 10
9.0272613965
 20
7.1532060016
 30
0.0
 10
9.0273830293
 20
7.1534908701
 30
0.0
 10
9.0274843875
 20
7.1537282613
 30
0.0
 10
9.0275654795
 20
7.1539181726
 30
0.0
 10
9.0276161496
 20
7.1540368708
 30
0.0
 10
9.0276567142
 20
7.1541318211
 30
0.0
 10
9.0276870596
 20
7.1542030565
 30
0.0
 10
9.0277125956
 20
7.154262347
 30
0.0
 10
9.0277299837
 20
7.1543039924
 30
0.0
 10
9.0277406804
 20
7.154327568
 30
0.0
 10
9.0277465603
 20
7.1543458742
 30
0.0
 10
9.0277606303
 20
7.1543617934
 30
0.0
 10
9.0277765334
 20
7.1543838517
 30
0.0
 10
9.027805695
 20
7.1544220656
 30
0.0
 10
9.0278466586
 20
7.1544768598
 30
0.0
 10
9.0278961128
 20
7.154542526
 30
0.0
 10
9.0279619476
 20
7.1546301113
 30
0.0
 10
9.0280442767
 20
7.1547395825
 30
0.0
 10
9.0281759834
 20
7.1549147423
 30
0.0
 10
9.0283406236
 20
7.15513369
 30
0.0
 10
9.028538189
 20
7.1553964281
 30
0.0
 10
9.0287357551
 20
7.155659166
 30
0.0
 10
9.0289991763
 20
7.1560094832
 30
0.0
 10
9.029328453
 20
7.1564473797
 30
0.0
 10
9.0297235849
 20
7.1569728556
 30
0.0
 10
9.0302504274
 20
7.15767349
 30
0.0
 10
9.0309089806
 20
7.1585492831
 30
0.0
 10
9.0315675338
 20
7.1594250762
 30
0.0
 10
9.0320943764
 20
7.1601257106
 30
0.0
 10
9.0324895083
 20
7.1606511864
 30
0.0
 10
9.0328187849
 20
7.161089083
 30
0.0
 10
9.0330822062
 20
7.1614394002
 30
0.0
 10
9.033279772
 20
7.1617021382
 30
0.0
 10
9.0334773386
 20
7.1619648759
 30
0.0
 10
9.033641975
 20
7.1621838249
 30
0.0
 10
9.0337736895
 20
7.162358982
 30
0.0
 10
9.0338559989
 20
7.1624684599
 30
0.0
 10
9.0339218741
 20
7.1625560315
 30
0.0
 10
9.0339712048
 20
7.1626217394
 30
0.0
 10
9.0340125547
 20
7.1626764032
 30
0.0
 10
9.0340410267
 20
7.1627148499
 30
0.0
 10
9.0340580348
 20
7.1627365353
 30
0.0
 10
9.0340687107
 20
7.1627535998
 30
0.0
 10
9.0340873381
 20
7.1627676045
 30
0.0
 10
9.0341094011
 20
7.1627873447
 30
0.0
 10
9.0341493036
 20
7.1628213929
 30
0.0
 10
9.0342056315
 20
7.1628702931
 30
0.0
 10
9.0342735142
 20
7.162928862
 30
0.0
 10
9.0343639234
 20
7.1630069929
 30
0.0
 10
9.0344769695
 20
7.1631046431
 30
0.0
 10
9.034657824
 20
7.1632608908
 30
0.0
 10
9.0348838987
 20
7.163456198
 30
0.0
 10
9.0351551856
 20
7.1636905677
 30
0.0
 10
9.0354264732
 20
7.1639249371
 30
0.0
 10
9.0357881897
 20
7.1642374297
 30
0.0
 10
9.0362403354
 20
7.1646280455
 30
0.0
 10
9.0367829103
 20
7.1650967844
 30
0.0
 10
9.0375063434
 20
7.1657217696
 30
0.0
 10
9.0384106348
 20
7.1665030012
 30
0.0
 10
9.0393149263
 20
7.1672842327
 30
0.0
 10
9.0400383594
 20
7.1679092179
 30
0.0
 10
9.0405809343
 20
7.1683779568
 30
0.0
 10
9.04103308
 20
7.1687685726
 30
0.0
 10
9.0413947966
 20
7.1690810652
 30
0.0
 10
9.0416660839
 20
7.1693154348
 30
0.0
 10
9.0419373718
 20
7.1695498039
 30
0.0
 10
9.0421634432
 20
7.1697451129
 30
0.0
 10
9.0423443043
 20
7.1699013568
 30
0.0
 10
9.0424573337
 20
7.1699990168
 30
0.0
 10
9.0425477774
 20
7.1700771276
 30
0.0
 10
9.0426155547
 20
7.1701357575
 30
0.0
 10
9.0426722121
 20
7.1701844671
 30
0.0
 10
9.0427115265
 20
7.1702188556
 30
0.0
 10
9.0427345317
 20
7.1702380505
 30
0.0
 10
9.0427502648
 20
7.1702537303
 30
0.0
 10
9.0427718113
 20
7.1702645033
 30
0.0
 10
9.0427985123
 20
7.1702805789
 30
0.0
 10
9.0428461837
 20
7.1703079137
 30
0.0
 10
9.0429137917
 20
7.1703473804
 30
0.0
 10
9.0429951329
 20
7.1703945619
 30
0.0
 10
9.0431035138
 20
7.1704575329
 30
0.0
 10
9.0432390153
 20
7.1705362253
 30
0.0
 10
9.0434558036
 20
7.1706621451
 30
0.0
 10
9.0437267938
 20
7.1708195408
 30
0.0
 10
9.0440519799
 20
7.1710084173
 30
0.0
 10
9.0443771666
 20
7.1711972934
 30
0.0
 10
9.0448107487
 20
7.1714491284
 30
0.0
 10
9.0453527263
 20
7.171763922
 30
0.0
 10
9.0460030995
 20
7.1721416744
 30
0.0
 10
9.0468702637
 20
7.1726453442
 30
0.0
 10
9.0479542189
 20
7.1732749315
 30
0.0
 10
9.0490381742
 20
7.1739045188
 30
0.0
 10
9.0499053384
 20
7.1744081886
 30
0.0
 10
9.0505557115
 20
7.174785941
 30
0.0
 10
9.0510976891
 20
7.1751007347
 30
0.0
 10
9.0515312713
 20
7.1753525695
 30
0.0
 10
9.0518564577
 20
7.1755414458
 30
0.0
 10
9.0521816447
 20
7.1757303216
 30
0.0
 10
9.0524526323
 20
7.1758877197
 30
0.0
 10
9.0526694258
 20
7.1760136346
 30
0.0
 10
9.0528049142
 20
7.1760923394
 30
0.0
 10
9.052913322
 20
7.1761552851
 30
0.0
 10
9.052994581
 20
7.176202544
 30
0.0
 10
9.0530624461
 20
7.1762417686
 30
0.0
 10
9.0531096586
 20
7.1762695354
 30
0.0
 10
9.0531370948
 20
7.1762849188
 30
0.0
 10
9.0531563828
 20
7.176297818
 30
0.0
 10
9.0531805987
 20
7.1763055121
 30
0.0
 10
9.0532111677
 20
7.1763175864
 30
0.0
 10
9.0532654643
 20
7.1763378706
 30
0.0
 10
9.0533426121
 20
7.1763672903
 30
0.0
 10
9.0534353687
 20
7.1764024046
 30
0.0
 10
9.0535589815
 20
7.1764492898
 30
0.0
 10
9.0537135191
 20
7.1765078737
 30
0.0
 10
9.0539607671
 20
7.1766016205
 30
0.0
 10
9.0542698313
 20
7.1767187997
 30
0.0
 10
9.0546407066
 20
7.1768594166
 30
0.0
 10
9.0550115823
 20
7.177000033
 30
0.0
 10
9.0555060831
 20
7.1771875217
 30
0.0
 10
9.0561242092
 20
7.1774218825
 30
0.0
 10
9.0568659604
 20
7.1777031156
 30
0.0
 10
9.0578549621
 20
7.1780780929
 30
0.0
 10
9.0590912142
 20
7.1785468146
 30
0.0
 10
9.0603274663
 20
7.1790155363
 30
0.0
 10
9.061316468
 20
7.1793905136
 30
0.0
 10
9.0620582193
 20
7.1796717466
 30
0.0
 10
9.0626763454
 20
7.1799061074
 30
0.0
 10
9.0631708461
 20
7.1800935962
 30
0.0
 10
9.063541722
 20
7.1802342124
 30
0.0
 10
9.0639125969
 20
7.1803748301
 30
0.0
 10
9.0642216622
 20
7.1804920067
 30
0.0
 10
9.064468908
 20
7.1805857589
 30
0.0
 10
9.0646234512
 20
7.1806443292
 30
0.0
 10
9.0647470524
 20
7.1806912422
 30
0.0
 10
9.0648398447
 20
7.1807262715
 30
0.0
 10
9.0649168806
 20
7.1807559571
 30
0.0
 10
9.0649791622
 20
7.1807785965
 30
0.0
 10
9.0650240893
 20
7.1807986067
 30
0.0
 10
9.0650758265
 20
7.1808070486
 30
0.0
 10
9.0651424305
 20
7.1808223455
 30
0.0
 10
9.0652265016
 20
7.1808400802
 30
0.0
 10
9.0653270377
 20
7.1808619552
 30
0.0
 10
9.0654612078
 20
7.1808909146
 30
0.0
 10
9.0656288786
 20
7.1809271848
 30
0.0
 10
9.0658971753
 20
7.1809851775
 30
0.0
 10
9.0662325382
 20
7.181057682
 30
0.0
 10
9.0666349771
 20
7.1811446815
 30
0.0
 10
9.067037415
 20
7.1812316827
 30
0.0
 10
9.0675739993
 20
7.1813476836
 30
0.0
 10
9.0682447295
 20
7.181492685
 30
0.0
 10
9.0690496058
 20
7.1816666865
 30
0.0
 10
9.0701227742
 20
7.1818986886
 30
0.0
 10
9.0714642347
 20
7.1821886912
 30
0.0
 10
9.0728056952
 20
7.1824786938
 30
0.0
 10
9.0738788636
 20
7.1827106959
 30
0.0
 10
9.0746837399
 20
7.1828846974
 30
0.0
 10
9.0753544701
 20
7.183029699
 30
0.0
 10
9.0758910545
 20
7.1831456996
 30
0.0
 10
9.0762934921
 20
7.1832327017
 30
0.0
 10
9.0766959323
 20
7.1833196976
 30
0.0
 10
9.0770312911
 20
7.1833922133
 30
0.0
 10
9.077299596
 20
7.1834501831
 30
0.0
 10
9.0775007759
 20
7.1834937774
 30
0.0
 10
9.0776685811
 20
7.1835297339
 30
0.0
 10
9.0777857399
 20
7.1835556337
 30
0.0
 10
9.0778531638
 20
7.1835692933
 30
0.0
 10
9.0779023908
 20
7.1835827502
 30
0.0
 10
9.0779567434
 20
7.1835839285
 30
0.0
 10
9.0780274257
 20
7.1835897824
 30
0.0
 10
9.0781519527
 20
7.1835980313
 30
0.0
 10
9.0783294129
 20
7.1836108587
 30
0.0
 10
9.0785425515
 20
7.1836258051
 30
0.0
 10
9.0788266712
 20
7.1836458895
 30
0.0
 10
9.0791818432
 20
7.1836709415
 30
0.0
 10
9.07960804
 20
7.1837010269
 30
0.0
 10
9.0800342394
 20
7.1837311061
 30
0.0
 10
9.0806025043
 20
7.1837712139
 30
0.0
 10
9.0813128358
 20
7.1838213479
 30
0.0
 10
9.0821652334
 20
7.183881509
 30
0.0
 10
9.0833017636
 20
7.1839617237
 30
0.0
 10
9.0847224264
 20
7.1840619921
 30
0.0
 10
9.0864272217
 20
7.1841823142
 30
0.0
 10
9.0887002821
 20
7.1843427436
 30
0.0
 10
9.0904050774
 20
7.1844630657
 30
0.0
 10
9.0915416076
 20
7.1845432804
 30
0.0
  0
SPLINE
  5
5D2
100
AcDbEntity
  8
DEFAULT_2
100
AcDbSpline
 62
7
  6
HIDDEN
 70
0
 71
3
 72
479
 73
475
 74
0
 42
0.0000001
 43
0.0000001
 44
0.0000000001
 40
0.0
 40
0.0
 40
0.0
 40
0.0
 40
0.015625
 40
0.0234375
 40
0.03125
 40
0.0390625
 40
0.04296875
 40
0.046875
 40
0.05078125
 40
0.052734375
 40
0.0546875
 40
0.056640625
 40
0.05859375
 40
0.0595703125
 40
0.060546875
 40
0.0615234375
 40
0.0620117188
 40
0.0622558594
 40
0.0625
 40
0.0627441406
 40
0.0629882812
 40
0.0634765625
 40
0.064453125
 40
0.0654296875
 40
0.06640625
 40
0.068359375
 40
0.0703125
 40
0.072265625
 40
0.07421875
 40
0.078125
 40
0.08203125
 40
0.0859375
 40
0.09375
 40
0.1015625
 40
0.10546875
 40
0.109375
 40
0.11328125
 40
0.115234375
 40
0.1171875
 40
0.119140625
 40
0.12109375
 40
0.1220703125
 40
0.123046875
 40
0.1235351562
 40
0.1240234375
 40
0.1245117188
 40
0.1247558594
 40
0.125
 40
0.1252441406
 40
0.1254882812
 40
0.1259765625
 40
0.1264648438
 40
0.126953125
 40
0.1279296875
 40
0.12890625
 40
0.130859375
 40
0.1328125
 40
0.134765625
 40
0.13671875
 40
0.140625
 40
0.14453125
 40
0.1484375
 40
0.15625
 40
0.1640625
 40
0.16796875
 40
0.171875
 40
0.17578125
 40
0.177734375
 40
0.1796875
 40
0.181640625
 40
0.18359375
 40
0.1845703125
 40
0.185546875
 40
0.1860351562
 40
0.1865234375
 40
0.1870117188
 40
0.1872558594
 40
0.1875
 40
0.1877441406
 40
0.1879882812
 40
0.1884765625
 40
0.1889648438
 40
0.189453125
 40
0.1904296875
 40
0.19140625
 40
0.193359375
 40
0.1953125
 40
0.197265625
 40
0.19921875
 40
0.203125
 40
0.20703125
 40
0.2109375
 40
0.21875
 40
0.2265625
 40
0.23046875
 40
0.234375
 40
0.23828125
 40
0.240234375
 40
0.2421875
 40
0.244140625
 40
0.24609375
 40
0.2470703125
 40
0.248046875
 40
0.2485351562
 40
0.2490234375
 40
0.2495117188
 40
0.2497558594
 40
0.2498779297
 40
0.25
 40
0.2501220703
 40
0.2502441406
 40
0.2504882812
 40
0.2509765625
 40
0.2514648438
 40
0.251953125
 40
0.2529296875
 40
0.25390625
 40
0.255859375
 40
0.2578125
 40
0.259765625
 40
0.26171875
 40
0.265625
 40
0.26953125
 40
0.2734375
 40
0.28125
 40
0.2890625
 40
0.29296875
 40
0.296875
 40
0.30078125
 40
0.302734375
 40
0.3046875
 40
0.306640625
 40
0.30859375
 40
0.3095703125
 40
0.310546875
 40
0.3110351562
 40
0.3115234375
 40
0.3120117188
 40
0.3122558594
 40
0.3123779297
 40
0.3125
 40
0.3126220703
 40
0.3127441406
 40
0.3129882812
 40
0.3134765625
 40
0.3139648438
 40
0.314453125
 40
0.3154296875
 40
0.31640625
 40
0.318359375
 40
0.3203125
 40
0.322265625
 40
0.32421875
 40
0.328125
 40
0.33203125
 40
0.3359375
 40
0.34375
 40
0.3515625
 40
0.35546875
 40
0.359375
 40
0.36328125
 40
0.365234375
 40
0.3671875
 40
0.369140625
 40
0.37109375
 40
0.3720703125
 40
0.373046875
 40
0.3735351562
 40
0.3740234375
 40
0.3745117188
 40
0.3747558594
 40
0.3748779297
 40
0.375
 40
0.3751220703
 40
0.3752441406
 40
0.3754882812
 40
0.3759765625
 40
0.3764648438
 40
0.376953125
 40
0.3779296875
 40
0.37890625
 40
0.380859375
 40
0.3828125
 40
0.384765625
 40
0.38671875
 40
0.390625
 40
0.39453125
 40
0.3984375
 40
0.40625
 40
0.4140625
 40
0.41796875
 40
0.421875
 40
0.42578125
 40
0.427734375
 40
0.4296875
 40
0.431640625
 40
0.43359375
 40
0.4345703125
 40
0.435546875
 40
0.4360351562
 40
0.4365234375
 40
0.4370117188
 40
0.4372558594
 40
0.4373779297
 40
0.4375
 40
0.4376220703
 40
0.4377441406
 40
0.4379882812
 40
0.4384765625
 40
0.4389648438
 40
0.439453125
 40
0.4404296875
 40
0.44140625
 40
0.443359375
 40
0.4453125
 40
0.447265625
 40
0.44921875
 40
0.453125
 40
0.45703125
 40
0.4609375
 40
0.46875
 40
0.4765625
 40
0.48046875
 40
0.484375
 40
0.48828125
 40
0.490234375
 40
0.4921875
 40
0.494140625
 40
0.49609375
 40
0.4970703125
 40
0.498046875
 40
0.4985351562
 40
0.4990234375
 40
0.4995117188
 40
0.4997558594
 40
0.4998779297
 40
0.5
 40
0.5001220703
 40
0.5002441406
 40
0.5004882812
 40
0.5009765625
 40
0.5014648438
 40
0.501953125
 40
0.5029296875
 40
0.50390625
 40
0.505859375
 40
0.5078125
 40
0.509765625
 40
0.51171875
 40
0.515625
 40
0.51953125
 40
0.5234375
 40
0.53125
 40
0.5390625
 40
0.54296875
 40
0.546875
 40
0.55078125
 40
0.552734375
 40
0.5546875
 40
0.556640625
 40
0.55859375
 40
0.5595703125
 40
0.560546875
 40
0.5610351562
 40
0.5615234375
 40
0.5620117188
 40
0.5622558594
 40
0.5623779297
 40
0.5625
 40
0.5626220703
 40
0.5627441406
 40
0.5629882812
 40
0.5634765625
 40
0.5639648438
 40
0.564453125
 40
0.5654296875
 40
0.56640625
 40
0.568359375
 40
0.5703125
 40
0.572265625
 40
0.57421875
 40
0.578125
 40
0.58203125
 40
0.5859375
 40
0.59375
 40
0.6015625
 40
0.60546875
 40
0.609375
 40
0.61328125
 40
0.615234375
 40
0.6171875
 40
0.619140625
 40
0.62109375
 40
0.6220703125
 40
0.623046875
 40
0.6235351562
 40
0.6240234375
 40
0.6245117188
 40
0.6247558594
 40
0.6248779297
 40
0.625
 40
0.6251220703
 40
0.6252441406
 40
0.6254882812
 40
0.6259765625
 40
0.6264648438
 40
0.626953125
 40
0.6279296875
 40
0.62890625
 40
0.630859375
 40
0.6328125
 40
0.634765625
 40
0.63671875
 40
0.640625
 40
0.64453125
 40
0.6484375
 40
0.65625
 40
0.6640625
 40
0.66796875
 40
0.671875
 40
0.67578125
 40
0.677734375
 40
0.6796875
 40
0.681640625
 40
0.68359375
 40
0.6845703125
 40
0.685546875
 40
0.6860351562
 40
0.6865234375
 40
0.6870117188
 40
0.6872558594
 40
0.6873779297
 40
0.6875
 40
0.6876220703
 40
0.6877441406
 40
0.6879882812
 40
0.6884765625
 40
0.6889648438
 40
0.689453125
 40
0.6904296875
 40
0.69140625
 40
0.693359375
 40
0.6953125
 40
0.697265625
 40
0.69921875
 40
0.703125
 40
0.70703125
 40
0.7109375
 40
0.71875
 40
0.7265625
 40
0.73046875
 40
0.734375
 40
0.73828125
 40
0.740234375
 40
0.7421875
 40
0.744140625
 40
0.74609375
 40
0.7470703125
 40
0.748046875
 40
0.7485351562
 40
0.7490234375
 40
0.7495117188
 40
0.7497558594
 40
0.7498779297
 40
0.75
 40
0.7501220703
 40
0.7502441406
 40
0.7504882812
 40
0.7509765625
 40
0.7514648438
 40
0.751953125
 40
0.7529296875
 40
0.75390625
 40
0.755859375
 40
0.7578125
 40
0.759765625
 40
0.76171875
 40
0.765625
 40
0.76953125
 40
0.7734375
 40
0.78125
 40
0.7890625
 40
0.79296875
 40
0.796875
 40
0.80078125
 40
0.802734375
 40
0.8046875
 40
0.806640625
 40
0.80859375
 40
0.8095703125
 40
0.810546875
 40
0.8110351562
 40
0.8115234375
 40
0.8120117188
 40
0.8122558594
 40
0.8123779297
 40
0.8125
 40
0.8126220703
 40
0.8127441406
 40
0.8129882812
 40
0.8134765625
 40
0.8139648438
 40
0.814453125
 40
0.8154296875
 40
0.81640625
 40
0.818359375
 40
0.8203125
 40
0.822265625
 40
0.82421875
 40
0.828125
 40
0.83203125
 40
0.8359375
 40
0.84375
 40
0.8515625
 40
0.85546875
 40
0.859375
 40
0.86328125
 40
0.865234375
 40
0.8671875
 40
0.869140625
 40
0.87109375
 40
0.8720703125
 40
0.873046875
 40
0.8735351562
 40
0.8740234375
 40
0.8745117188
 40
0.8747558594
 40
0.875
 40
0.8752441406
 40
0.8754882812
 40
0.8759765625
 40
0.8764648438
 40
0.876953125
 40
0.8779296875
 40
0.87890625
 40
0.880859375
 40
0.8828125
 40
0.884765625
 40
0.88671875
 40
0.890625
 40
0.89453125
 40
0.8984375
 40
0.90625
 40
0.9140625
 40
0.91796875
 40
0.921875
 40
0.92578125
 40
0.927734375
 40
0.9296875
 40
0.931640625
 40
0.93359375
 40
0.9345703125
 40
0.935546875
 40
0.9365234375
 40
0.9370117188
 40
0.9372558594
 40
0.9375
 40
0.9377441406
 40
0.9379882812
 40
0.9384765625
 40
0.939453125
 40
0.9404296875
 40
0.94140625
 40
0.943359375
 40
0.9453125
 40
0.947265625
 40
0.94921875
 40
0.953125
 40
0.95703125
 40
0.9609375
 40
0.96875
 40
0.9765625
 40
0.984375
 40
1.0
 40
1.0
 40
1.0
 40
1.0
 10
9.0915416016
 20
7.0869625446
 30
0.0
 10
9.0926584491
 20
7.0870399784
 30
0.0
 10
9.0943337204
 20
7.087156129
 30
0.0
 10
9.0965674154
 20
7.0873109965
 30
0.0
 10
9.0982426867
 20
7.0874271471
 30
0.0
 10
9.0996387461
 20
7.0875239393
 30
0.0
 10
9.1007555936
 20
7.087601373
 30
0.0
 10
9.1015932293
 20
7.0876594484
 30
0.0
 10
9.102291259
 20
7.0877078443
 30
0.0
 10
9.1028496827
 20
7.0877465616
 30
0.0
 10
9.1032685008
 20
7.087775598
 30
0.0
 10
9.1036873173
 20
7.0878046405
 30
0.0
 10
9.1040363364
 20
7.0878288234
 30
0.0
 10
9.1043155396
 20
7.0878482126
 30
0.0
 10
9.1045249749
 20
7.0878626375
 30
0.0
 10
9.1046993999
 20
7.0878750306
 30
0.0
 10
9.1048217022
 20
7.0878829749
 30
0.0
 10
9.1048912696
 20
7.0878886557
 30
0.0
 10
9.1049443454
 20
7.0878897014
 30
0.0
 10
9.1049939799
 20
7.0879030363
 30
0.0
 10
9.1050613597
 20
7.0879165295
 30
0.0
 10
9.105178715
 20
7.0879421399
 30
0.0
 10
9.1053466579
 20
7.087977682
 30
0.0
 10
9.1055480641
 20
7.0880207795
 30
0.0
 10
9.1058166495
 20
7.0880780867
 30
0.0
 10
9.1061523663
 20
7.0881497742
 30
0.0
 10
9.1065552328
 20
7.0882357763
 30
0.0
 10
9.1069580977
 20
7.0883217845
 30
0.0
 10
9.1074952513
 20
7.08843646
 30
0.0
 10
9.1081666933
 20
7.0885798051
 30
0.0
 10
9.1089724236
 20
7.0887518189
 30
0.0
 10
9.1100467308
 20
7.0889811707
 30
0.0
 10
9.1113896147
 20
7.0892678605
 30
0.0
 10
9.1127324986
 20
7.0895545503
 30
0.0
 10
9.1138068058
 20
7.0897839021
 30
0.0
 10
9.1146125361
 20
7.0899559159
 30
0.0
 10
9.1152839781
 20
7.0900992609
 30
0.0
 10
9.1158211317
 20
7.0902139367
 30
0.0
 10
9.1162239967
 20
7.0902999439
 30
0.0
 10
9.1166268626
 20
7.0903859496
 30
0.0
 10
9.1169625813
 20
7.0904576259
 30
0.0
 10
9.1172311627
 20
7.090514956
 30
0.0
 10
9.1173990116
 20
7.0905508122
 30
0.0
 10
9.1175333238
 20
7.0905794403
 30
0.0
 10
9.1176339672
 20
7.090601067
 30
0.0
 10
9.1177181254
 20
7.090618594
 30
0.0
 10
9.1177848046
 20
7.0906337264
 30
0.0
 10
9.117836583
 20
7.0906420406
 30
0.0
 10
9.1178816086
 20
7.0906619398
 30
0.0
 10
9.1179440017
 20
7.0906844253
 30
0.0
 10
9.1180211836
 20
7.0907139206
 30
0.0
 10
9.1181141483
 20
7.0907487206
 30
0.0
 10
9.1182379803
 20
7.0907953283
 30
0.0
 10
9.1183928118
 20
7.0908535168
 30
0.0
 10
9.1186405189
 20
7.0909466581
 30
0.0
 10
9.1189501607
 20
7.0910630711
 30
0.0
 10
9.1193217275
 20
7.0912027726
 30
0.0
 10
9.1196932953
 20
7.0913424725
 30
0.0
 10
9.1201887186
 20
7.0915287396
 30
0.0
 10
9.1208079978
 20
7.0917615732
 30
0.0
 10
9.1215511329
 20
7.0920409737
 30
0.0
 10
9.1225419796
 20
7.0924135076
 30
0.0
 10
9.123780538
 20
7.0928791751
 30
0.0
 10
9.1250190965
 20
7.0933448425
 30
0.0
 10
9.1260099432
 20
7.0937173765
 30
0.0
 10
9.1267530783
 20
7.0939967769
 30
0.0
 10
9.1273723574
 20
7.0942296107
 30
0.0
 10
9.1278677809
 20
7.0944158775
 30
0.0
 10
9.1282393482
 20
7.0945555781
 30
0.0
 10
9.1286109166
 20
7.0946952771
 30
0.0
 10
9.1289205534
 20
7.0948116977
 30
0.0
 10
9.1291682709
 20
7.0949048236
 30
0.0
 10
9.1293230758
 20
7.0949630514
 30
0.0
 10
9.1294469622
 20
7.0950095784
 30
0.0
 10
9.1295397607
 20
7.0950446248
 30
0.0
 10
9.1296174628
 20
7.0950733493
 30
0.0
 10
9.1296787946
 20
7.0950974073
 30
0.0
 10
9.1297270612
 20
7.0951125042
 30
0.0
 10
9.1297666716
 20
7.0951388485
 30
0.0
 10
9.1298225092
 20
7.0951700454
 30
0.0
 10
9.1298912687
 20
7.0952103895
 30
0.0
 10
9.1299742242
 20
7.0952582255
 30
0.0
 10
9.1300846765
 20
7.0953222082
 30
0.0
 10
9.1302227949
 20
7.0954021177
 30
0.0
 10
9.1304437547
 20
7.0955300114
 30
0.0
 10
9.1307199646
 20
7.0956898654
 30
0.0
 10
9.1310514122
 20
7.0958816957
 30
0.0
 10
9.1313828609
 20
7.0960735246
 30
0.0
 10
9.1318247921
 20
7.0963292969
 30
0.0
 10
9.1323772063
 20
7.0966490122
 30
0.0
 10
9.1330401032
 20
7.0970326706
 30
0.0
 10
9.1339239658
 20
7.097544215
 30
0.0
 10
9.135028794
 20
7.0981836456
 30
0.0
 10
9.1361336222
 20
7.0988230762
 30
0.0
 10
9.1370174848
 20
7.0993346207
 30
0.0
 10
9.1376803817
 20
7.0997182791
 30
0.0
 10
9.1382327959
 20
7.1000379944
 30
0.0
 10
9.1386747271
 20
7.1002937666
 30
0.0
 10
9.1390061757
 20
7.1004855957
 30
0.0
 10
9.1393376237
 20
7.1006774252
 30
0.0
 10
9.1396138324
 20
7.1008372819
 30
0.0
 10
9.1398347947
 20
7.10096517
 30
0.0
 10
9.1399729067
 20
7.1010450938
 30
0.0
 10
9.1400833721
 20
7.1011090472
 30
0.0
 10
9.1401662873
 20
7.101156973
 30
0.0
 10
9.140235173
 20
7.1011970358
 30
0.0
 10
9.1402838057
 20
7.1012248353
 30
0.0
 10
9.1403109514
 20
7.1012411024
 30
0.0
 10
9.140333126
 20
7.1012522274
 30
0.0
 10
9.1403483614
 20
7.1012674631
 30
0.0
 10
9.1403710957
 20
7.1012863435
 30
0.0
 10
9.1404097529
 20
7.1013200523
 30
0.0
 10
9.1404655672
 20
7.1013678584
 30
0.0
 10
9.1405322919
 20
7.1014253753
 30
0.0
 10
9.1406213464
 20
7.1015020122
 30
0.0
 10
9.1407326343
 20
7.1015978262
 30
0.0
 10
9.1409107118
 20
7.1017511187
 30
0.0
 10
9.1411333029
 20
7.1019427377
 30
0.0
 10
9.1414004147
 20
7.102172679
 30
0.0
 10
9.1416675258
 20
7.1024026207
 30
0.0
 10
9.1420236742
 20
7.1027092095
 30
0.0
 10
9.1424688596
 20
7.1030924456
 30
0.0
 10
9.1430030822
 20
7.1035523289
 30
0.0
 10
9.1437153789
 20
7.1041655065
 30
0.0
 10
9.1446057497
 20
7.1049319787
 30
0.0
 10
9.1454961206
 20
7.1056984508
 30
0.0
 10
9.1462084173
 20
7.1063116285
 30
0.0
 10
9.1467426399
 20
7.1067715117
 30
0.0
 10
9.1471878253
 20
7.1071547478
 30
0.0
 10
9.1475439736
 20
7.1074613366
 30
0.0
 10
9.147811085
 20
7.1076912782
 30
0.0
 10
9.1480781957
 20
7.1079212201
 30
0.0
 10
9.1483007902
 20
7.1081128373
 30
0.0
 10
9.1484788608
 20
7.1082661334
 30
0.0
 10
9.1485901662
 20
7.1083619382
 30
0.0
 10
9.1486791848
 20
7.1084385941
 30
0.0
 10
9.148746019
 20
7.1084960528
 30
0.0
 10
9.148801491
 20
7.1085440407
 30
0.0
 10
9.1488407592
 20
7.108577425
 30
0.0
 10
9.1488625146
 20
7.1085968254
 30
0.0
 10
9.1488807569
 20
7.108610464
 30
0.0
 10
9.1488916379
 20
7.1086275873
 30
0.0
 10
9.1489087136
 20
7.1086492028
 30
0.0
 10
9.1489373998
 20
7.1086875963
 30
0.0
 10
9.1489790055
 20
7.108742148
 30
0.0
 10
9.1490286646
 20
7.1088077368
 30
0.0
 10
9.1490949703
 20
7.1088951443
 30
0.0
 10
9.1491778204
 20
7.1090044189
 30
0.0
 10
9.1493103984
 20
7.1091792496
 30
0.0
 10
9.1494761148
 20
7.109397791
 30
0.0
 10
9.1496749772
 20
7.1096600394
 30
0.0
 10
9.1498738388
 20
7.1099222882
 30
0.0
 10
9.1501389879
 20
7.110271953
 30
0.0
 10
9.1504704241
 20
7.1107090342
 30
0.0
 10
9.1508681477
 20
7.1112335315
 30
0.0
 10
9.1513984457
 20
7.1119328613
 30
0.0
 10
9.1520613183
 20
7.1128070236
 30
0.0
 10
9.1527241908
 20
7.1136811858
 30
0.0
 10
9.1532544889
 20
7.1143805156
 30
0.0
 10
9.1536522124
 20
7.114905013
 30
0.0
 10
9.1539836487
 20
7.1153420941
 30
0.0
 10
9.1542487977
 20
7.115691759
 30
0.0
 10
9.1544476596
 20
7.1159540076
 30
0.0
 10
9.1546465208
 20
7.1162162565
 30
0.0
 10
9.1548122408
 20
7.1164347965
 30
0.0
 10
9.1549448114
 20
7.1166096301
 30
0.0
 10
9.1550276805
 20
7.1167188974
 30
0.0
 10
9.1550939473
 20
7.1168063197
 30
0.0
 10
9.1551437253
 20
7.1168718634
 30
0.0
 10
9.1551849591
 20
7.1169265562
 30
0.0
 10
9.1552143092
 20
7.1169646979
 30
0.0
 10
9.1552303211
 20
7.1169867168
 30
0.0
 10
9.1552444696
 20
7.1170026012
 30
0.0
 10
9.1552504399
 20
7.1170208927
 30
0.0
 10
9.1552612528
 20
7.1170444418
 30
0.0
 10
9.1552788464
 20
7.117086044
 30
0.0
 10
9.155304675
 20
7.1171452711
 30
0.0
 10
9.1553353719
 20
7.1172164312
 30
0.0
 10
9.1553764049
 20
7.1173112808
 30
0.0
 10
9.1554276606
 20
7.1174298532
 30
0.0
 10
9.1555096897
 20
7.1176195632
 30
0.0
 10
9.1556122192
 20
7.1178567027
 30
0.0
 10
9.1557352575
 20
7.1181412693
 30
0.0
 10
9.155858295
 20
7.1184258361
 30
0.0
 10
9.1560223453
 20
7.1188052584
 30
0.0
 10
9.1562274081
 20
7.1192795363
 30
0.0
 10
9.1564734835
 20
7.1198486698
 30
0.0
 10
9.156801584
 20
7.1206075144
 30
0.0
 10
9.1572117096
 20
7.1215560703
 30
0.0
 10
9.1576218352
 20
7.1225046261
 30
0.0
 10
9.1579499358
 20
7.1232634707
 30
0.0
 10
9.1581960111
 20
7.1238326042
 30
0.0
 10
9.158401074
 20
7.1243068821
 30
0.0
 10
9.1585651242
 20
7.1246863045
 30
0.0
 10
9.158688162
 20
7.1249708712
 30
0.0
 10
9.1588111991
 20
7.125255438
 30
0.0
 10
9.1589137325
 20
7.1254925766
 30
0.0
 10
9.1589957535
 20
7.1256822886
 30
0.0
 10
9.1590470298
 20
7.1258008559
 30
0.0
 10
9.1590880206
 20
7.125895716
 30
0.0
 10
9.1591188464
 20
7.1259668438
 30
0.0
 10
9.1591442715
 20
7.1260261719
 30
0.0
 10
9.1591625854
 20
7.1260675938
 30
0.0
 10
9.1591722442
 20
7.1260914318
 30
0.0
 10
9.1591817597
 20
7.1261088361
 30
0.0
 10
9.1591825929
 20
7.1261280527
 30
0.0
 10
9.1591867322
 20
7.1261530426
 30
0.0
 10
9.1591925651
 20
7.1261970695
 30
0.0
 10
9.1592016354
 20
7.1262598112
 30
0.0
 10
9.1592122041
 20
7.126335167
 30
0.0
 10
9.1592264059
 20
7.1264356185
 30
0.0
 10
9.1592441204
 20
7.1265611906
 30
0.0
 10
9.1592724848
 20
7.1267621017
 30
0.0
 10
9.159307933
 20
7.1270132421
 30
0.0
 10
9.1593504739
 20
7.1273146099
 30
0.0
 10
9.159393014
 20
7.1276159779
 30
0.0
 10
9.1594497344
 20
7.1280178018
 30
0.0
 10
9.1595206349
 20
7.1285200818
 30
0.0
 10
9.1596057154
 20
7.1291228177
 30
0.0
 10
9.1597191562
 20
7.1299264655
 30
0.0
 10
9.1598609571
 20
7.1309310253
 30
0.0
 10
9.1600027581
 20
7.1319355852
 30
0.0
 10
9.1601161988
 20
7.132739233
 30
0.0
 10
9.1602012794
 20
7.1333419689
 30
0.0
 10
9.1602721798
 20
7.1338442489
 30
0.0
 10
9.1603289002
 20
7.1342460728
 30
0.0
 10
9.1603714406
 20
7.1345474407
 30
0.0
 10
9.1604139802
 20
7.1348488086
 30
0.0
 10
9.1604494326
 20
7.1350999487
 30
0.0
 10
9.1604777884
 20
7.1353008604
 30
0.0
 10
9.1604955246
 20
7.1354264311
 30
0.0
 10
9.1605096821
 20
7.1355268857
 30
0.0
 10
9.1605203861
 20
7.135602232
 30
0.0
 10
9.1605290329
 20
7.1356650035
 30
0.0
 10
9.1605356219
 20
7.135708977
 30
0.0
 10
9.1605385497
 20
7.1357340525
 30
0.0
 10
9.1605431045
 20
7.1357530063
 30
0.0
 10
9.1605386418
 20
7.1357713973
 30
0.0
 10
9.160535837
 20
7.1357961149
 30
0.0
 10
9.160529463
 20
7.1358392792
 30
0.0
 10
9.1605211235
 20
7.1359009904
 30
0.0
 10
9.1605107882
 20
7.1359750233
 30
0.0
 10
9.1604971223
 20
7.136073741
 30
0.0
 10
9.1604800007
 20
7.1361971357
 30
0.0
 10
9.160452628
 20
7.1363945686
 30
0.0
 10
9.1604184047
 20
7.1366413593
 30
0.0
 10
9.16037734
 20
7.1369375082
 30
0.0
 10
9.1603362743
 20
7.1372336571
 30
0.0
 10
9.1602815205
 20
7.1376285224
 30
0.0
 10
9.160213078
 20
7.1381221039
 30
0.0
 10
9.1601309471
 20
7.1387144017
 30
0.0
 10
9.1600214393
 20
7.1395041322
 30
0.0
 10
9.1598845545
 20
7.1404912953
 30
0.0
 10
9.1597476696
 20
7.1414784583
 30
0.0
 10
9.1596381618
 20
7.1422681888
 30
0.0
 10
9.1595560309
 20
7.1428604866
 30
0.0
 10
9.1594875885
 20
7.1433540682
 30
0.0
 10
9.1594328345
 20
7.1437489334
 30
0.0
 10
9.1593917692
 20
7.1440450823
 30
0.0
 10
9.1593507031
 20
7.1443412311
 30
0.0
 10
9.159316484
 20
7.1445880222
 30
0.0
 10
9.1592891028
 20
7.1447854542
 30
0.0
 10
9.1592720028
 20
7.1449088511
 30
0.0
 10
9.1592582926
 20
7.1450075644
 30
0.0
 10
9.1592480927
 20
7.1450816109
 30
0.0
 10
9.1592393294
 20
7.1451432795
 30
0.0
 10
9.159233712
 20
7.1451865198
 30
0.0
 10
9.159229695
 20
7.1452111156
 30
0.0
 10
9.1592289556
 20
7.1452298808
 30
0.0
 10
9.1592195264
 20
7.1452474292
 30
0.0
 10
9.1592099853
 20
7.1452712516
 30
0.0
 10
9.159191876
 20
7.1453127429
 30
0.0
 10
9.1591667439
 20
7.1453721197
 30
0.0
 10
9.1591362694
 20
7.1454433276
 30
0.0
 10
9.1590957471
 20
7.1455382869
 30
0.0
 10
9.1590450564
 20
7.1456569807
 30
0.0
 10
9.1589639725
 20
7.1458468937
 30
0.0
 10
9.1588626103
 20
7.146084284
 30
0.0
 10
9.1587409788
 20
7.1463691528
 30
0.0
 10
9.1586193464
 20
7.1466540215
 30
0.0
 10
9.1584571703
 20
7.1470338464
 30
0.0
 10
9.15825445
 20
7.1475086276
 30
0.0
 10
9.1580111856
 20
7.148078365
 30
0.0
 10
9.1576868332
 20
7.1488380148
 30
0.0
 10
9.1572813926
 20
7.1497875772
 30
0.0
 10
9.1568759521
 20
7.1507371395
 30
0.0
 10
9.1565515996
 20
7.1514967894
 30
0.0
 10
9.1563083353
 20
7.1520665268
 30
0.0
 10
9.156105615
 20
7.152541308
 30
0.0
 10
9.1559434387
 20
7.1529211329
 30
0.0
 10
9.1558218067
 20
7.1532060016
 30
0.0
 10
9.1557001739
 20
7.1534908701
 30
0.0
 10
9.1555988157
 20
7.1537282613
 30
0.0
 10
9.1555177237
 20
7.1539181726
 30
0.0
 10
9.1554670536
 20
7.1540368708
 30
0.0
 10
9.155426489
 20
7.1541318211
 30
0.0
 10
9.1553961436
 20
7.1542030565
 30
0.0
 10
9.1553706076
 20
7.154262347
 30
0.0
 10
9.1553532195
 20
7.1543039924
 30
0.0
 10
9.1553425228
 20
7.154327568
 30
0.0
 10
9.1553366429
 20
7.1543458742
 30
0.0
 10
9.1553225729
 20
7.1543617934
 30
0.0
 10
9.1553066698
 20
7.1543838517
 30
0.0
 10
9.1552775081
 20
7.1544220656
 30
0.0
 10
9.1552365446
 20
7.1544768598
 30
0.0
 10
9.1551870904
 20
7.154542526
 30
0.0
 10
9.1551212556
 20
7.1546301113
 30
0.0
 10
9.1550389265
 20
7.1547395825
 30
0.0
 10
9.1549072198
 20
7.1549147423
 30
0.0
 10
9.1547425795
 20
7.15513369
 30
0.0
 10
9.1545450142
 20
7.1553964281
 30
0.0
 10
9.1543474481
 20
7.155659166
 30
0.0
 10
9.1540840269
 20
7.1560094832
 30
0.0
 10
9.1537547502
 20
7.1564473797
 30
0.0
 10
9.1533596183
 20
7.1569728556
 30
0.0
 10
9.1528327758
 20
7.15767349
 30
0.0
 10
9.1521742226
 20
7.1585492831
 30
0.0
 10
9.1515156694
 20
7.1594250762
 30
0.0
 10
9.1509888268
 20
7.1601257106
 30
0.0
 10
9.1505936949
 20
7.1606511864
 30
0.0
 10
9.1502644183
 20
7.161089083
 30
0.0
 10
9.150000997
 20
7.1614394002
 30
0.0
 10
9.1498034312
 20
7.1617021382
 30
0.0
 10
9.1496058646
 20
7.1619648759
 30
0.0
 10
9.1494412282
 20
7.1621838249
 30
0.0
 10
9.1493095137
 20
7.162358982
 30
0.0
 10
9.1492272043
 20
7.1624684599
 30
0.0
 10
9.1491613291
 20
7.1625560315
 30
0.0
 10
9.1491119984
 20
7.1626217394
 30
0.0
 10
9.1490706485
 20
7.1626764032
 30
0.0
 10
9.1490421765
 20
7.1627148499
 30
0.0
 10
9.1490251684
 20
7.1627365353
 30
0.0
 10
9.1490144925
 20
7.1627535998
 30
0.0
 10
9.148995865
 20
7.1627676045
 30
0.0
 10
9.1489738021
 20
7.1627873447
 30
0.0
 10
9.1489338996
 20
7.1628213929
 30
0.0
 10
9.1488775717
 20
7.1628702931
 30
0.0
 10
9.148809689
 20
7.162928862
 30
0.0
 10
9.1487192798
 20
7.1630069929
 30
0.0
 10
9.1486062336
 20
7.1631046431
 30
0.0
 10
9.1484253792
 20
7.1632608908
 30
0.0
 10
9.1481993044
 20
7.163456198
 30
0.0
 10
9.1479280176
 20
7.1636905677
 30
0.0
 10
9.14765673
 20
7.1639249371
 30
0.0
 10
9.1472950135
 20
7.1642374297
 30
0.0
 10
9.1468428678
 20
7.1646280455
 30
0.0
 10
9.1463002929
 20
7.1650967844
 30
0.0
 10
9.1455768598
 20
7.1657217696
 30
0.0
 10
9.1446725684
 20
7.1665030012
 30
0.0
 10
9.1437682769
 20
7.1672842327
 30
0.0
 10
9.1430448438
 20
7.1679092179
 30
0.0
 10
9.1425022689
 20
7.1683779568
 30
0.0
 10
9.1420501232
 20
7.1687685726
 30
0.0
 10
9.1416884066
 20
7.1690810652
 30
0.0
 10
9.1414171193
 20
7.1693154348
 30
0.0
 10
9.1411458314
 20
7.1695498039
 30
0.0
 10
9.1409197599
 20
7.1697451129
 30
0.0
 10
9.1407388989
 20
7.1699013568
 30
0.0
 10
9.1406258695
 20
7.1699990168
 30
0.0
 10
9.1405354258
 20
7.1700771276
 30
0.0
 10
9.1404676485
 20
7.1701357575
 30
0.0
 10
9.1404109911
 20
7.1701844671
 30
0.0
 10
9.1403716767
 20
7.1702188556
 30
0.0
 10
9.1403486715
 20
7.1702380505
 30
0.0
 10
9.1403329384
 20
7.1702537303
 30
0.0
 10
9.1403113919
 20
7.1702645033
 30
0.0
 10
9.1402846909
 20
7.1702805789
 30
0.0
 10
9.1402370195
 20
7.1703079137
 30
0.0
 10
9.1401694114
 20
7.1703473804
 30
0.0
 10
9.1400880703
 20
7.1703945619
 30
0.0
 10
9.1399796894
 20
7.1704575329
 30
0.0
 10
9.1398441879
 20
7.1705362253
 30
0.0
 10
9.1396273996
 20
7.1706621451
 30
0.0
 10
9.1393564094
 20
7.1708195408
 30
0.0
 10
9.1390312233
 20
7.1710084173
 30
0.0
 10
9.1387060366
 20
7.1711972934
 30
0.0
 10
9.1382724545
 20
7.1714491284
 30
0.0
 10
9.1377304769
 20
7.171763922
 30
0.0
 10
9.1370801037
 20
7.1721416744
 30
0.0
 10
9.1362129395
 20
7.1726453442
 30
0.0
 10
9.1351289843
 20
7.1732749315
 30
0.0
 10
9.134045029
 20
7.1739045188
 30
0.0
 10
9.1331778648
 20
7.1744081886
 30
0.0
 10
9.1325274917
 20
7.174785941
 30
0.0
 10
9.1319855141
 20
7.1751007347
 30
0.0
 10
9.1315519319
 20
7.1753525695
 30
0.0
 10
9.1312267454
 20
7.1755414458
 30
0.0
 10
9.1309015585
 20
7.1757303216
 30
0.0
 10
9.1306305708
 20
7.1758877197
 30
0.0
 10
9.1304137774
 20
7.1760136346
 30
0.0
 10
9.130278289
 20
7.1760923394
 30
0.0
 10
9.1301698812
 20
7.1761552851
 30
0.0
 10
9.1300886222
 20
7.176202544
 30
0.0
 10
9.1300207571
 20
7.1762417686
 30
0.0
 10
9.1299735446
 20
7.1762695354
 30
0.0
 10
9.1299461084
 20
7.1762849188
 30
0.0
 10
9.1299268204
 20
7.176297818
 30
0.0
 10
9.1299026045
 20
7.1763055121
 30
0.0
 10
9.1298720355
 20
7.1763175864
 30
0.0
 10
9.1298177389
 20
7.1763378706
 30
0.0
 10
9.1297405911
 20
7.1763672903
 30
0.0
 10
9.1296478345
 20
7.1764024046
 30
0.0
 10
9.1295242216
 20
7.1764492898
 30
0.0
 10
9.1293696841
 20
7.1765078737
 30
0.0
 10
9.1291224361
 20
7.1766016205
 30
0.0
 10
9.1288133719
 20
7.1767187997
 30
0.0
 10
9.1284424966
 20
7.1768594166
 30
0.0
 10
9.1280716209
 20
7.177000033
 30
0.0
 10
9.1275771201
 20
7.1771875217
 30
0.0
 10
9.126958994
 20
7.1774218825
 30
0.0
 10
9.1262172428
 20
7.1777031156
 30
0.0
 10
9.1252282411
 20
7.1780780929
 30
0.0
 10
9.123991989
 20
7.1785468146
 30
0.0
 10
9.1227557369
 20
7.1790155363
 30
0.0
 10
9.1217667352
 20
7.1793905136
 30
0.0
 10
9.1210249839
 20
7.1796717466
 30
0.0
 10
9.1204068578
 20
7.1799061074
 30
0.0
 10
9.1199123571
 20
7.1800935962
 30
0.0
 10
9.1195414812
 20
7.1802342124
 30
0.0
 10
9.1191706063
 20
7.1803748301
 30
0.0
 10
9.118861541
 20
7.1804920067
 30
0.0
 10
9.1186142952
 20
7.1805857589
 30
0.0
 10
9.118459752
 20
7.1806443292
 30
0.0
 10
9.1183361508
 20
7.1806912422
 30
0.0
 10
9.1182433585
 20
7.1807262715
 30
0.0
 10
9.1181663226
 20
7.1807559571
 30
0.0
 10
9.118104041
 20
7.1807785965
 30
0.0
 10
9.1180591139
 20
7.1807986067
 30
0.0
 10
9.1180073767
 20
7.1808070486
 30
0.0
 10
9.1179407727
 20
7.1808223455
 30
0.0
 10
9.1178567016
 20
7.1808400802
 30
0.0
 10
9.1177561655
 20
7.1808619552
 30
0.0
 10
9.1176219954
 20
7.1808909146
 30
0.0
 10
9.1174543246
 20
7.1809271848
 30
0.0
 10
9.1171860279
 20
7.1809851775
 30
0.0
 10
9.116850665
 20
7.181057682
 30
0.0
 10
9.1164482261
 20
7.1811446815
 30
0.0
 10
9.1160457882
 20
7.1812316827
 30
0.0
 10
9.1155092039
 20
7.1813476836
 30
0.0
 10
9.1148384737
 20
7.181492685
 30
0.0
 10
9.1140335974
 20
7.1816666865
 30
0.0
 10
9.112960429
 20
7.1818986886
 30
0.0
 10
9.1116189685
 20
7.1821886912
 30
0.0
 10
9.110277508
 20
7.1824786938
 30
0.0
 10
9.1092043396
 20
7.1827106959
 30
0.0
 10
9.1083994633
 20
7.1828846974
 30
0.0
 10
9.1077287331
 20
7.183029699
 30
0.0
 10
9.1071921487
 20
7.1831456996
 30
0.0
 10
9.1067897111
 20
7.1832327017
 30
0.0
 10
9.1063872709
 20
7.1833196976
 30
0.0
 10
9.1060519121
 20
7.1833922133
 30
0.0
 10
9.1057836072
 20
7.1834501831
 30
0.0
 10
9.1055824273
 20
7.1834937774
 30
0.0
 10
9.1054146221
 20
7.1835297339
 30
0.0
 10
9.1052974633
 20
7.1835556337
 30
0.0
 10
9.1052300394
 20
7.1835692933
 30
0.0
 10
9.1051808123
 20
7.1835827502
 30
0.0
 10
9.1051264597
 20
7.1835839285
 30
0.0
 10
9.1050557775
 20
7.1835897824
 30
0.0
 10
9.1049312505
 20
7.1835980313
 30
0.0
 10
9.1047537903
 20
7.1836108587
 30
0.0
 10
9.1045406517
 20
7.1836258051
 30
0.0
 10
9.104256532
 20
7.1836458895
 30
0.0
 10
9.10390136
 20
7.1836709415
 30
0.0
 10
9.1034751632
 20
7.1837010269
 30
0.0
 10
9.1030489638
 20
7.1837311061
 30
0.0
 10
9.1024806989
 20
7.1837712139
 30
0.0
 10
9.1017703674
 20
7.1838213479
 30
0.0
 10
9.1009179698
 20
7.183881509
 30
0.0
 10
9.0997814396
 20
7.1839617237
 30
0.0
 10
9.0983607768
 20
7.1840619921
 30
0.0
 10
9.0966559815
 20
7.1841823142
 30
0.0
 10
9.0943829211
 20
7.1843427436
 30
0.0
 10
9.0926781258
 20
7.1844630657
 30
0.0
 10
9.0915415956
 20
7.1845432804
 30
0.0
  0
SPLINE
  5
5D3
100
AcDbEntity
  8
0
100
AcDbSpline
 62
7
  6
CONTINUOUS
 70
0
 71
3
 72
15
 73
11
 74
0
 42
0.0000001
 43
0.0000001
 44
0.0000000001
 40
0.0
 40
0.0
 40
0.0
 40
0.0
 40
0.120648482
 40
0.2456378503
 40
0.3726480649
 40
0.5003909932
 40
0.6278771664
 40
0.7550792178
 40
0.8800361496
 40
1.0
 40
1.0
 40
1.0
 40
1.0
 10
9.8033526252
 20
4.9591532376
 30
0.0
 10
9.8033526252
 20
4.9550278674
 30
0.0
 10
9.8015463364
 20
4.9465459032
 30
0.0
 10
9.7941121081
 20
4.9358211957
 30
0.0
 10
9.7830094883
 20
4.9284817892
 30
0.0
 10
9.7698546007
 20
4.925876633
 30
0.0
 10
9.7567013405
 20
4.9285108028
 30
0.0
 10
9.7456118999
 20
4.9358668659
 30
0.0
 10
9.7382150941
 20
4.9465957326
 30
0.0
 10
9.7364234914
 20
4.9550512772
 30
0.0
 10
9.7364234914
 20
4.9591532376
 30
0.0
  0
SPLINE
  5
5D4
100
AcDbEntity
  8
0
100
AcDbSpline
 62
7
  6
CONTINUOUS
 70
0
 71
3
 72
9
 73
5
 74
0
 42
0.0000001
 43
0.0000001
 44
0.0000000001
 40
0.0
 40
0.0
 40
0.0
 40
0.0
 40
0.6300374085
 40
1.0
 40
1.0
 40
1.0
 40
1.0
 10
9.8033526252
 20
4.9591532376
 30
0.0
 10
9.8024101272
 20
4.9591532376
 30
0.0
 10
9.8010100709
 20
4.959058858
 30
0.0
 10
9.7994156173
 20
4.9580172216
 30
0.0
 10
9.7994156173
 20
4.9574637799
 30
0.0
  0
SPLINE
  5
5D5
100
AcDbEntity
  8
0
100
AcDbSpline
 62
7
  6
CONTINUOUS
 70
0
 71
3
 72
9
 73
5
 74
0
 42
0.0000001
 43
0.0000001
 44
0.0000000001
 40
0.0
 40
0.0
 40
0.0
 40
0.0
 40
0.3699798656
 40
1.0
 40
1.0
 40
1.0
 40
1.0
 10
9.6320927827
 20
4.9574639798
 30
0.0
 10
9.6320926293
 20
4.9580174283
 30
0.0
 10
9.6304982338
 20
4.9590587764
 30
0.0
 10
9.6290982144
 20
4.9591532376
 30
0.0
 10
9.6281557748
 20
4.9591532376
 30
0.0
  0
SPLINE
  5
5D6
100
AcDbEntity
  8
0
100
AcDbSpline
 62
7
  6
CONTINUOUS
 70
0
 71
3
 72
15
 73
11
 74
0
 42
0.0000001
 43
0.0000001
 44
0.0000000001
 40
0.0
 40
0.0
 40
0.0
 40
0.0
 40
0.1200057847
 40
0.2449429862
 40
0.3719185088
 40
0.4997211574
 40
0.6273109428
 40
0.7544307003
 40
0.8793903121
 40
1.0
 40
1.0
 40
1.0
 40
1.0
 10
9.5198880583
 20
4.815549334
 30
0.0
 10
9.5198880583
 20
4.8196530207
 30
0.0
 10
9.5216781696
 20
4.8281100348
 30
0.0
 10
9.5290695858
 20
4.8388357126
 30
0.0
 10
9.5401603645
 20
4.8461943916
 30
0.0
 10
9.5533150114
 20
4.8488262025
 30
0.0
 10
9.5664768959
 20
4.8462190511
 30
0.0
 10
9.5775870846
 20
4.8388888881
 30
0.0
 10
9.5850072735
 20
4.8281513896
 30
0.0
 10
9.5868171921
 20
4.8196736716
 30
0.0
 10
9.5868171921
 20
4.815549334
 30
0.0
  0
SPLINE
  5
5D7
100
AcDbEntity
  8
0
100
AcDbSpline
 62
7
  6
CONTINUOUS
 70
0
 71
3
 72
9
 73
5
 74
0
 42
0.0000001
 43
0.0000001
 44
0.0000000001
 40
0.0
 40
0.0
 40
0.0
 40
0.0
 40
0.3699625915
 40
1.0
 40
1.0
 40
1.0
 40
1.0
 10
9.7994156173
 20
4.8172387916
 30
0.0
 10
9.7994156173
 20
4.8166853499
 30
0.0
 10
9.8010100709
 20
4.8156437135
 30
0.0
 10
9.8024101272
 20
4.815549334
 30
0.0
 10
9.8033526252
 20
4.815549334
 30
0.0
  0
SPLINE
  5
5D8
100
AcDbEntity
  8
0
100
AcDbSpline
 62
7
  6
CONTINUOUS
 70
0
 71
3
 72
9
 73
5
 74
0
 42
0.0000001
 43
0.0000001
 44
0.0000000001
 40
0.0
 40
0.0
 40
0.0
 40
0.0
 40
0.3699624649
 40
1.0
 40
1.0
 40
1.0
 40
1.0
 10
9.6911479008
 20
4.8172387916
 30
0.0
 10
9.6911479008
 20
4.8166853503
 30
0.0
 10
9.6927423576
 20
4.8156437188
 30
0.0
 10
9.6941424109
 20
4.815549334
 30
0.0
 10
9.6950849087
 20
4.815549334
 30
0.0
  0
SPLINE
  5
5D9
100
AcDbEntity
  8
0
100
AcDbSpline
 62
7
  6
CONTINUOUS
 70
0
 71
3
 72
15
 73
11
 74
0
 42
0.0000001
 43
0.0000001
 44
0.0000000001
 40
0.0
 40
0.0
 40
0.0
 40
0.0
 40
0.1200055124
 40
0.2449426397
 40
0.3719189012
 40
0.4997219322
 40
0.6273124268
 40
0.7544319835
 40
0.8793910322
 40
1.0
 40
1.0
 40
1.0
 40
1.0
 10
9.6281557748
 20
4.815549334
 30
0.0
 10
9.6281557748
 20
4.8196530105
 30
0.0
 10
9.6299458761
 20
4.8281100124
 30
0.0
 10
9.6373373221
 20
4.8388356926
 30
0.0
 10
9.6484281705
 20
4.8461943249
 30
0.0
 10
9.6615828683
 20
4.8488261512
 30
0.0
 10
9.6747447852
 20
4.8462189837
 30
0.0
 10
9.6858549561
 20
4.8388888131
 30
0.0
 10
9.6932751118
 20
4.828151336
 30
0.0
 10
9.6950849087
 20
4.8196736461
 30
0.0
 10
9.6950849087
 20
4.815549334
 30
0.0
  0
SPLINE
  5
5DA
100
AcDbEntity
  8
0
100
AcDbSpline
 62
7
  6
CONTINUOUS
 70
0
 71
3
 72
15
 73
11
 74
0
 42
0.0000001
 43
0.0000001
 44
0.0000000001
 40
0.0
 40
0.0
 40
0.0
 40
0.0
 40
0.1199638504
 40
0.2449207823
 40
0.3721228337
 40
0.4996090069
 40
0.6273519352
 40
0.7543621498
 40
0.879351518
 40
1.0
 40
1.0
 40
1.0
 40
1.0
 10
9.7364234914
 20
4.815549334
 30
0.0
 10
9.7364234914
 20
4.8196512943
 30
0.0
 10
9.7382150941
 20
4.8281068389
 30
0.0
 10
9.7456118999
 20
4.8388357056
 30
0.0
 10
9.7567013405
 20
4.8461917688
 30
0.0
 10
9.7698546007
 20
4.8488259385
 30
0.0
 10
9.7830094883
 20
4.8462207823
 30
0.0
 10
9.7941121081
 20
4.8388813758
 30
0.0
 10
9.8015463364
 20
4.8281566684
 30
0.0
 10
9.8033526252
 20
4.8196747041
 30
0.0
 10
9.8033526252
 20
4.815549334
 30
0.0
  0
SPLINE
  5
5DB
100
AcDbEntity
  8
0
100
AcDbSpline
 62
7
  6
CONTINUOUS
 70
0
 71
3
 72
9
 73
5
 74
0
 42
0.0000001
 43
0.0000001
 44
0.0000000001
 40
0.0
 40
0.0
 40
0.0
 40
0.0
 40
0.3700268515
 40
1.0
 40
1.0
 40
1.0
 40
1.0
 10
9.5238250658
 20
4.9574645208
 30
0.0
 10
9.5238244976
 20
4.958017988
 30
0.0
 10
9.5222302659
 20
4.9590585663
 30
0.0
 10
9.5208303403
 20
4.9591532376
 30
0.0
 10
9.5198880583
 20
4.9591532376
 30
0.0
  0
SPLINE
  5
5DC
100
AcDbEntity
  8
0
100
AcDbSpline
 62
7
  6
CONTINUOUS
 70
0
 71
3
 72
9
 73
5
 74
0
 42
0.0000001
 43
0.0000001
 44
0.0000000001
 40
0.0
 40
0.0
 40
0.0
 40
0.0
 40
0.3699623719
 40
1.0
 40
1.0
 40
1.0
 40
1.0
 10
9.5828801843
 20
4.8172387916
 30
0.0
 10
9.5828801843
 20
4.8166853506
 30
0.0
 10
9.5844746433
 20
4.8156437227
 30
0.0
 10
9.5858746945
 20
4.815549334
 30
0.0
 10
9.5868171921
 20
4.815549334
 30
0.0
  0
SPLINE
  5
5DD
100
AcDbEntity
  8
0
100
AcDbSpline
 62
7
  6
CONTINUOUS
 70
0
 71
3
 72
15
 73
11
 74
0
 42
0.0000001
 43
0.0000001
 44
0.0000000001
 40
0.0
 40
0.0
 40
0.0
 40
0.0
 40
0.1206242351
 40
0.2455277433
 40
0.3726318457
 40
0.5003294773
 40
0.6279963685
 40
0.7551174443
 40
0.8800273569
 40
1.0
 40
1.0
 40
1.0
 40
1.0
 10
9.5868171921
 20
4.9591532376
 30
0.0
 10
9.5868171921
 20
4.9550283188
 30
0.0
 10
9.5850154578
 20
4.9465490559
 30
0.0
 10
9.5775863371
 20
4.9358201319
 30
0.0
 10
9.5664856175
 20
4.928476695
 30
0.0
 10
9.5533201377
 20
4.9258703017
 30
0.0
 10
9.5401674254
 20
4.9285170702
 30
0.0
 10
9.5290677892
 20
4.9358628236
 30
0.0
 10
9.5216823791
 20
4.9465974594
 30
0.0
 10
9.5198880583
 20
4.955050601
 30
0.0
 10
9.5198880583
 20
4.9591532376
 30
0.0
  0
SPLINE
  5
5DE
100
AcDbEntity
  8
0
100
AcDbSpline
 62
7
  6
CONTINUOUS
 70
0
 71
3
 72
9
 73
5
 74
0
 42
0.0000001
 43
0.0000001
 44
0.0000000001
 40
0.0
 40
0.0
 40
0.0
 40
0.0
 40
0.6300375351
 40
1.0
 40
1.0
 40
1.0
 40
1.0
 10
9.6950849087
 20
4.9591532376
 30
0.0
 10
9.6941424109
 20
4.9591532376
 30
0.0
 10
9.6927423576
 20
4.9590588527
 30
0.0
 10
9.6911479008
 20
4.9580172212
 30
0.0
 10
9.6911479008
 20
4.9574637799
 30
0.0
  0
SPLINE
  5
5DF
100
AcDbEntity
  8
0
100
AcDbSpline
 62
7
  6
CONTINUOUS
 70
0
 71
3
 72
15
 73
11
 74
0
 42
0.0000001
 43
0.0000001
 44
0.0000000001
 40
0.0
 40
0.0
 40
0.0
 40
0.0
 40
0.1206066627
 40
0.2456290743
 40
0.3726941061
 40
0.5003129326
 40
0.6279630426
 40
0.7551027164
 40
0.8800199009
 40
1.0
 40
1.0
 40
1.0
 40
1.0
 10
9.6950849087
 20
4.9591532376
 30
0.0
 10
9.6950849087
 20
4.9550290175
 30
0.0
 10
9.693275633
 20
4.9465494034
 30
0.0
 10
9.6858559258
 20
4.9358103004
 30
0.0
 10
9.674741839
 20
4.9284837314
 30
0.0
 10
9.66158634
 20
4.9258797414
 30
0.0
 10
9.6484300795
 20
4.9285059899
 30
0.0
 10
9.6373384361
 20
4.9358656942
 30
0.0
 10
9.6299469645
 20
4.9465953673
 30
0.0
 10
9.6281557748
 20
4.9550504432
 30
0.0
 10
9.6281557748
 20
4.9591532376
 30
0.0
  0
SPLINE
  5
5E0
100
AcDbEntity
  8
0
100
AcDbSpline
 62
7
  6
CONTINUOUS
 70
0
 71
3
 72
9
 73
5
 74
0
 42
0.0000001
 43
0.0000001
 44
0.0000000001
 40
0.0
 40
0.0
 40
0.0
 40
0.0
 40
0.6300376281
 40
1.0
 40
1.0
 40
1.0
 40
1.0
 10
9.5868171921
 20
4.9591532376
 30
0.0
 10
9.5858746945
 20
4.9591532376
 30
0.0
 10
9.5844746433
 20
4.9590588488
 30
0.0
 10
9.5828801843
 20
4.9580172209
 30
0.0
 10
9.5828801843
 20
4.9574637799
 30
0.0
  0
SPLINE
  5
5E1
100
AcDbEntity
  8
0
100
AcDbSpline
 62
7
  6
CONTINUOUS
 70
0
 71
3
 72
9
 73
5
 74
0
 42
0.0000001
 43
0.0000001
 44
0.0000000001
 40
0.0
 40
0.0
 40
0.0
 40
0.0
 40
0.3699625915
 40
1.0
 40
1.0
 40
1.0
 40
1.0
 10
9.7403604992
 20
4.9574637799
 30
0.0
 10
9.7403604992
 20
4.9580172216
 30
0.0
 10
9.7387660457
 20
4.959058858
 30
0.0
 10
9.7373659893
 20
4.9591532376
 30
0.0
 10
9.7364234914
 20
4.9591532376
 30
0.0
  0
SPLINE
  5
5E2
100
AcDbEntity
  8
0
100
AcDbSpline
 62
7
  6
CONTINUOUS
 70
0
 71
3
 72
9
 73
5
 74
0
 42
0.0000001
 43
0.0000001
 44
0.0000000001
 40
0.0
 40
0.0
 40
0.0
 40
0.0
 40
0.6300374085
 40
1.0
 40
1.0
 40
1.0
 40
1.0
 10
9.7364234914
 20
4.815549334
 30
0.0
 10
9.7373659893
 20
4.815549334
 30
0.0
 10
9.7387660457
 20
4.8156437135
 30
0.0
 10
9.7403604992
 20
4.8166853499
 30
0.0
 10
9.7403604992
 20
4.8172387916
 30
0.0
  0
SPLINE
  5
5E3
100
AcDbEntity
  8
0
100
AcDbSpline
 62
7
  6
CONTINUOUS
 70
0
 71
3
 72
9
 73
5
 74
0
 42
0.0000001
 43
0.0000001
 44
0.0000000001
 40
0.0
 40
0.0
 40
0.0
 40
0.0
 40
0.6298758418
 40
1.0
 40
1.0
 40
1.0
 40
1.0
 10
9.6281557748
 20
4.815549334
 30
0.0
 10
9.6290977318
 20
4.815549334
 30
0.0
 10
9.6304974711
 20
4.8156444258
 30
0.0
 10
9.6320913556
 20
4.8166834281
 30
0.0
 10
9.6320927803
 20
4.8172369338
 30
0.0
  0
SPLINE
  5
5E4
100
AcDbEntity
  8
0
100
AcDbSpline
 62
7
  6
CONTINUOUS
 70
0
 71
3
 72
9
 73
5
 74
0
 42
0.0000001
 43
0.0000001
 44
0.0000000001
 40
0.0
 40
0.0
 40
0.0
 40
0.0
 40
0.6298758821
 40
1.0
 40
1.0
 40
1.0
 40
1.0
 10
9.5198880583
 20
4.815549334
 30
0.0
 10
9.5208300149
 20
4.815549334
 30
0.0
 10
9.522229752
 20
4.8156444299
 30
0.0
 10
9.5238236386
 20
4.8166834278
 30
0.0
 10
9.5238250638
 20
4.8172369332
 30
0.0
  0
SPLINE
  5
5E5
100
AcDbEntity
  8
02___PRT_ALL_AXES
100
AcDbSpline
 62
7
  6
CONTINUOUS
 70
0
 71
3
 72
9
 73
5
 74
0
 42
0.0000001
 43
0.0000001
 44
0.0000000001
 40
0.0
 40
0.0
 40
0.0
 40
0.0
 40
0.530725244
 40
1.0
 40
1.0
 40
1.0
 40
1.0
 10
9.0620140425
 20
7.0865857853
 30
0.0
 10
9.0535148461
 20
7.0893543175
 30
0.0
 10
9.0381254064
 20
7.0969673791
 30
0.0
 10
9.0263584189
 20
7.109833278
 30
0.0
 10
9.0226439638
 20
7.11680983
 30
0.0
  0
SPLINE
  5
5E6
100
AcDbEntity
  8
02___PRT_ALL_AXES
100
AcDbSpline
 62
7
  6
CONTINUOUS
 70
0
 71
3
 72
9
 73
5
 74
0
 42
0.0000001
 43
0.0000001
 44
0.0000000001
 40
0.0
 40
0.0
 40
0.0
 40
0.0
 40
0.2455102006
 40
1.0
 40
1.0
 40
1.0
 40
1.0
 10
9.0620140425
 20
7.0865857853
 30
0.0
 10
9.0635745559
 20
7.0860774629
 30
0.0
 10
9.0699697102
 20
7.0841269795
 30
0.0
 10
9.0764917642
 20
7.0826056455
 30
0.0
 10
9.0814438778
 20
7.0816488004
 30
0.0
  0
SPLINE
  5
5E7
100
AcDbEntity
  8
02___PRT_ALL_AXES
100
AcDbSpline
 62
7
  6
CONTINUOUS
 70
0
 71
3
 72
10
 73
6
 74
0
 42
0.0000001
 43
0.0000001
 44
0.0000000001
 40
0.0
 40
0.0
 40
0.0
 40
0.0
 40
0.5491246828
 40
0.7903953142
 40
1.0
 40
1.0
 40
1.0
 40
1.0
 10
9.0814438778
 20
7.0816488004
 30
0.0
 10
9.0921327329
 20
7.0795835049
 30
0.0
 10
9.1077818031
 20
7.0778075506
 30
0.0
 10
9.1276134292
 20
7.0776563978
 30
0.0
 10
9.1365473139
 20
7.0784295659
 30
0.0
 10
9.1406450856
 20
7.0791196552
 30
0.0
  0
LINE
  5
5E8
100
AcDbEntity
  8
02___PRT_ALL_AXES
100
AcDbLine
 62
7
  6
CONTINUOUS
 10
9.1406450856
 20
7.0791196552
 11
9.1449211257
 21
7.0799835842
  0
SPLINE
  5
5E9
100
AcDbEntity
  8
02___PRT_ALL_AXES
100
AcDbSpline
 62
7
  6
CONTINUOUS
 70
0
 71
3
 72
11
 73
7
 74
0
 42
0.0000001
 43
0.0000001
 44
0.0000000001
 40
0.0
 40
0.0
 40
0.0
 40
0.0
 40
0.2581190678
 40
0.4897883663
 40
0.7241033392
 40
1.0
 40
1.0
 40
1.0
 40
1.0
 10
9.1449211257
 20
7.0799835842
 30
0.0
 10
9.1477847117
 20
7.0806706777
 30
0.0
 10
9.1531407039
 20
7.0824058552
 30
0.0
 10
9.1601477399
 20
7.0871287499
 30
0.0
 10
9.1646269814
 20
7.094631163
 30
0.0
 10
9.1653604992
 20
7.1005494037
 30
0.0
 10
9.1653604992
 20
7.1036970908
 30
0.0
  0
SPLINE
  5
5EA
100
AcDbEntity
  8
0
100
AcDbSpline
 62
7
  6
CONTINUOUS
 70
0
 71
3
 72
9
 73
5
 74
0
 42
0.0000001
 43
0.0000001
 44
0.0000000001
 40
0.0
 40
0.0
 40
0.0
 40
0.0
 40
0.2581594109
 40
1.0
 40
1.0
 40
1.0
 40
1.0
 10
9.0226439638
 20
7.11680983
 30
0.0
 10
9.0218394789
 20
7.1183208224
 30
0.0
 10
9.0190743678
 20
7.1243510646
 30
0.0
 10
9.017722704
 20
7.1310522441
 30
0.0
 10
9.017722704
 20
7.1359712598
 30
0.0
  0
SPLINE
  5
5EB
100
AcDbEntity
  8
02___PRT_ALL_AXES
100
AcDbSpline
 62
7
  6
CONTINUOUS
 70
0
 71
3
 72
11
 73
7
 74
0
 42
0.0000001
 43
0.0000001
 44
0.0000000001
 40
0.0
 40
0.0
 40
0.0
 40
0.0
 40
0.2537946081
 40
0.5010046377
 40
0.7473538071
 40
1.0
 40
1.0
 40
1.0
 40
1.0
 10
8.7984361833
 20
8.3039385976
 30
0.0
 10
8.8272695882
 20
8.2647084555
 30
0.0
 10
8.8794066776
 20
8.1835481147
 30
0.0
 10
8.9384458959
 20
8.0522699004
 30
0.0
 10
8.9752018577
 20
7.9132326025
 30
0.0
 10
8.9832738851
 20
7.8172776988
 30
0.0
 10
8.9832738851
 20
7.7688115654
 30
0.0
  0
SPLINE
  5
5EC
100
AcDbEntity
  8
02___PRT_ALL_AXES
100
AcDbSpline
 62
7
  6
CONTINUOUS
 70
0
 71
3
 72
11
 73
7
 74
0
 42
0.0000001
 43
0.0000001
 44
0.0000000001
 40
0.0
 40
0.0
 40
0.0
 40
0.0
 40
0.2537946081
 40
0.5010046377
 40
0.7473538071
 40
1.0
 40
1.0
 40
1.0
 40
1.0
 10
8.7984361833
 20
4.241558549
 30
0.0
 10
8.8272695882
 20
4.2807886911
 30
0.0
 10
8.8794066776
 20
4.3619490319
 30
0.0
 10
8.9384458959
 20
4.4932272461
 30
0.0
 10
8.9752018577
 20
4.632264544
 30
0.0
 10
8.9832738851
 20
4.7282194478
 30
0.0
 10
8.9832738851
 20
4.7766855812
 30
0.0
  0
SPLINE
  5
5ED
100
AcDbEntity
  8
02___PRT_ALL_AXES
100
AcDbSpline
 62
7
  6
CONTINUOUS
 70
0
 71
3
 72
14
 73
10
 74
0
 42
0.0000001
 43
0.0000001
 44
0.0000000001
 40
0.0
 40
0.0
 40
0.0
 40
0.0
 40
0.2773562525
 40
0.4047979975
 40
0.5250492565
 40
0.6395415216
 40
0.7515465921
 40
0.8677777169
 40
1.0
 40
1.0
 40
1.0
 40
1.0
 10
9.2391793969
 20
7.2668430615
 30
0.0
 10
9.2341405338
 20
7.2954198743
 30
0.0
 10
9.2245492056
 20
7.3368931899
 30
0.0
 10
9.2047041885
 20
7.3882185895
 30
0.0
 10
9.1867197311
 20
7.421708465
 30
0.0
 10
9.1645633084
 20
7.4506999467
 30
0.0
 10
9.1368266881
 20
7.47399132
 30
0.0
 10
9.1020783221
 20
7.489899362
 30
0.0
 10
9.0758474453
 20
7.4932210142
 30
0.0
 10
9.0620140425
 20
7.4932210142
 30
0.0
  0
SPLINE
  5
5EE
100
AcDbEntity
  8
02___PRT_ALL_AXES
100
AcDbSpline
 62
7
  6
CONTINUOUS
 70
0
 71
3
 72
14
 73
10
 74
0
 42
0.0000001
 43
0.0000001
 44
0.0000000001
 40
0.0
 40
0.0
 40
0.0
 40
0.0
 40
0.2773562525
 40
0.4047979975
 40
0.5250492565
 40
0.6395415216
 40
0.7515465921
 40
0.8677777169
 40
1.0
 40
1.0
 40
1.0
 40
1.0
 10
9.2391793969
 20
5.2786540851
 30
0.0
 10
9.2341405338
 20
5.2500772723
 30
0.0
 10
9.2245492056
 20
5.2086039566
 30
0.0
 10
9.2047041885
 20
5.1572785571
 30
0.0
 10
9.1867197311
 20
5.1237886816
 30
0.0
 10
9.1645633084
 20
5.0947971999
 30
0.0
 10
9.1368266881
 20
5.0715058265
 30
0.0
 10
9.1020783221
 20
5.0555977846
 30
0.0
 10
9.0758474453
 20
5.0522761323
 30
0.0
 10
9.0620140425
 20
5.0522761323
 30
0.0
  0
SPLINE
  5
5EF
100
AcDbEntity
  8
0
100
AcDbSpline
 62
7
  6
CONTINUOUS
 70
0
 71
3
 72
9
 73
5
 74
0
 42
0.0000001
 43
0.0000001
 44
0.0000000001
 40
0.0
 40
0.0
 40
0.0
 40
0.0
 40
0.4947784377
 40
1.0
 40
1.0
 40
1.0
 40
1.0
 10
9.017722704
 20
7.1359718572
 30
0.0
 10
9.017722704
 20
7.1391264137
 30
0.0
 10
9.0185620954
 20
7.1455364034
 30
0.0
 10
9.0210785557
 20
7.1514738496
 30
0.0
 10
9.0226439638
 20
7.1542890284
 30
0.0
  0
SPLINE
  5
5F0
100
AcDbEntity
  8
02___PRT_ALL_AXES
100
AcDbSpline
 62
7
  6
CONTINUOUS
 70
0
 71
3
 72
9
 73
5
 74
0
 42
0.0000001
 43
0.0000001
 44
0.0000000001
 40
0.0
 40
0.0
 40
0.0
 40
0.0
 40
0.4652502348
 40
1.0
 40
1.0
 40
1.0
 40
1.0
 10
9.0226439638
 20
7.1542890284
 30
0.0
 10
9.0263520714
 20
7.160957553
 30
0.0
 10
9.0383116977
 20
7.1731018506
 30
0.0
 10
9.0535944462
 20
7.1798119277
 30
0.0
 10
9.0620140425
 20
7.1822660121
 30
0.0
  0
SPLINE
  5
5F1
100
AcDbEntity
  8
02___PRT_ALL_AXES
100
AcDbSpline
 62
7
  6
CONTINUOUS
 70
0
 71
3
 72
10
 73
6
 74
0
 42
0.0000001
 43
0.0000001
 44
0.0000000001
 40
0.0
 40
0.0
 40
0.0
 40
0.0
 40
0.2758950736
 40
0.5403692979
 40
1.0
 40
1.0
 40
1.0
 40
1.0
 10
9.0915416016
 20
7.1193975884
 30
0.0
 10
9.0863636522
 20
7.1193975884
 30
0.0
 10
9.0761660375
 20
7.1183351759
 30
0.0
 10
9.058302119
 20
7.1125707798
 30
0.0
 10
9.0467251338
 20
7.1036115901
 30
0.0
 10
9.0423581414
 20
7.0961723795
 30
0.0
  0
SPLINE
  5
5F2
100
AcDbEntity
  8
02___PRT_ALL_AXES
100
AcDbSpline
 62
7
  6
CONTINUOUS
 70
0
 71
3
 72
11
 73
7
 74
0
 42
0.0000001
 43
0.0000001
 44
0.0000000001
 40
0.0
 40
0.0
 40
0.0
 40
0.0
 40
0.209467371
 40
0.4446665809
 40
0.7119933023
 40
1.0
 40
1.0
 40
1.0
 40
1.0
 10
9.1447896331
 20
7.0817455442
 30
0.0
 10
9.1447896331
 20
7.086734853
 30
0.0
 10
9.1415487648
 20
7.0974519504
 30
0.0
 10
9.1291402528
 20
7.1097218106
 30
0.0
 10
9.1117129028
 20
7.1176051904
 30
0.0
 10
9.0984016406
 20
7.1193975884
 30
0.0
 10
9.0915416016
 20
7.1193975884
 30
0.0
  0
SPLINE
  5
5F3
100
AcDbEntity
  8
02___PRT_ALL_AXES
100
AcDbSpline
 62
7
  6
CONTINUOUS
 70
0
 71
3
 72
8
 73
4
 74
0
 42
0.0000001
 43
0.0000001
 44
0.0000000001
 40
0.0
 40
0.0
 40
0.0
 40
0.0
 40
1.0
 40
1.0
 40
1.0
 40
1.0
 10
9.1638638444
 20
7.0921804519
 30
0.0
 10
9.1631264795
 20
7.0947378705
 30
0.0
 10
9.1621254176
 20
7.0972310582
 30
0.0
 10
9.160908675
 20
7.099598258
 30
0.0
  0
SPLINE
  5
5F4
100
AcDbEntity
  8
02___PRT_ALL_AXES
100
AcDbSpline
 62
7
  6
CONTINUOUS
 70
0
 71
3
 72
13
 73
9
 74
0
 42
0.0000001
 43
0.0000001
 44
0.0000000001
 40
0.0
 40
0.0
 40
0.0
 40
0.0
 40
0.2208545846
 40
0.3472419026
 40
0.4807532411
 40
0.617326546
 40
0.7523463685
 40
1.0
 40
1.0
 40
1.0
 40
1.0
 10
9.160908675
 20
7.099598258
 30
0.0
 10
9.1561622426
 20
7.1088325477
 30
0.0
 10
9.1433460583
 20
7.120639371
 30
0.0
 10
9.122625195
 20
7.1297211016
 30
0.0
 10
9.1042865041
 20
7.1337625112
 30
0.0
 10
9.0851310349
 20
7.1343262318
 30
0.0
 10
9.0609571954
 20
7.1306263292
 30
0.0
 10
9.0438977166
 20
7.1227980998
 30
0.0
 10
9.0349930453
 20
7.115297671
 30
0.0
  0
SPLINE
  5
5F5
100
AcDbEntity
  8
02___PRT_ALL_AXES
100
AcDbSpline
 62
7
  6
CONTINUOUS
 70
0
 71
3
 72
9
 73
5
 74
0
 42
0.0000001
 43
0.0000001
 44
0.0000000001
 40
0.0
 40
0.0
 40
0.0
 40
0.0
 40
0.4646522209
 40
1.0
 40
1.0
 40
1.0
 40
1.0
 10
9.1653604992
 20
7.1036970908
 30
0.0
 10
9.1653604992
 20
7.108244799
 30
0.0
 10
9.1636407432
 20
7.1180185905
 30
0.0
 10
9.1600462733
 20
7.1271660032
 30
0.0
 10
9.1577631317
 20
7.1318820377
 30
0.0
  0
SPLINE
  5
5F6
100
AcDbEntity
  8
02___PRT_ALL_AXES
100
AcDbSpline
 62
7
  6
CONTINUOUS
 70
0
 71
3
 72
11
 73
7
 74
0
 42
0.0000001
 43
0.0000001
 44
0.0000000001
 40
0.0
 40
0.0
 40
0.0
 40
0.0
 40
0.2446377333
 40
0.4955087857
 40
0.748047888
 40
1.0
 40
1.0
 40
1.0
 40
1.0
 10
9.1577631317
 20
7.1318820377
 30
0.0
 10
9.1548639721
 20
7.1378705132
 30
0.0
 10
9.1477818329
 20
7.149444664
 30
0.0
 10
9.1340425451
 20
7.1646202665
 30
0.0
 10
9.117203764
 20
7.1766935151
 30
0.0
 10
9.1042173146
 20
7.1817072525
 30
0.0
 10
9.0975394804
 20
7.1832435229
 30
0.0
  0
SPLINE
  5
5F7
100
AcDbEntity
  8
02___PRT_ALL_AXES
100
AcDbSpline
 62
7
  6
CONTINUOUS
 70
0
 71
3
 72
14
 73
10
 74
0
 42
0.0000001
 43
0.0000001
 44
0.0000000001
 40
0.0
 40
0.0
 40
0.0
 40
0.0
 40
0.3431282283
 40
0.5011883519
 40
0.645354244
 40
0.7720020906
 40
0.8764578218
 40
0.9533191029
 40
1.0
 40
1.0
 40
1.0
 40
1.0
 10
17.4450497974
 20
7.1036970908
 30
0.0
 10
17.4521087726
 20
7.110756066
 30
0.0
 10
17.4602157382
 20
7.1234232786
 30
0.0
 10
17.4663832031
 20
7.1411638661
 30
0.0
 10
17.4691778659
 20
7.1533578958
 30
0.0
 10
17.47066498
 20
7.1641651287
 30
0.0
 10
17.4711366323
 20
7.1731814055
 30
0.0
 10
17.4707552818
 20
7.1796909933
 30
0.0
 10
17.4697396953
 20
7.1834122869
 30
0.0
 10
17.4687740083
 20
7.1843672472
 30
0.0
  0
SPLINE
  5
5F8
100
AcDbEntity
  8
02___PRT_ALL_AXES
100
AcDbSpline
 62
7
  6
CONTINUOUS
 70
0
 71
3
 72
14
 73
10
 74
0
 42
0.0000001
 43
0.0000001
 44
0.0000000001
 40
0.0
 40
0.0
 40
0.0
 40
0.0
 40
0.0466217188
 40
0.123496882
 40
0.2278650835
 40
0.3544911934
 40
0.4985602016
 40
0.6567747091
 40
1.0
 40
1.0
 40
1.0
 40
1.0
 10
17.3643813337
 20
7.079972905
 30
0.0
 10
17.3653359932
 20
7.0790093461
 30
0.0
 10
17.3690528841
 20
7.0779892492
 30
0.0
 10
17.3755605421
 20
7.0776133185
 30
0.0
 10
17.384573419
 20
7.0780769856
 30
0.0
 10
17.3953748603
 20
7.0795671975
 30
0.0
 10
17.4075692263
 20
7.0823618235
 30
0.0
 10
17.4253196662
 20
7.0885163211
 30
0.0
 10
17.4379888379
 20
7.0966361312
 30
0.0
 10
17.4450497974
 20
7.1036970908
 30
0.0
  0
SPLINE
  5
5F9
100
AcDbEntity
  8
02___PRT_ALL_AXES
100
AcDbSpline
 62
7
  6
CONTINUOUS
 70
0
 71
3
 72
11
 73
7
 74
0
 42
0.0000001
 43
0.0000001
 44
0.0000000001
 40
0.0
 40
0.0
 40
0.0
 40
0.0
 40
0.3544584254
 40
0.6212709635
 40
0.8192595035
 40
1.0
 40
1.0
 40
1.0
 40
1.0
 10
17.3664808761
 20
7.0865857853
 30
0.0
 10
17.3658821542
 20
7.0859166735
 30
0.0
 10
17.3648802381
 20
7.0846957094
 30
0.0
 10
17.3638333625
 20
7.082892173
 30
0.0
 10
17.3635447875
 20
7.0811986597
 30
0.0
 10
17.3640591033
 20
7.0802981393
 30
0.0
 10
17.3643813337
 20
7.079972905
 30
0.0
  0
LINE
  5
5FA
100
AcDbEntity
  8
0
100
AcDbLine
 62
7
  6
CONTINUOUS
 10
17.3944578598
 20
7.11680983
 11
17.4127756284
 21
7.1359712598
  0
SPLINE
  5
5FB
100
AcDbEntity
  8
02___PRT_ALL_AXES
100
AcDbSpline
 62
7
  6
CONTINUOUS
 70
0
 71
3
 72
11
 73
7
 74
0
 42
0.0000001
 43
0.0000001
 44
0.0000000001
 40
0.0
 40
0.0
 40
0.0
 40
0.0
 40
0.1805382423
 40
0.3783646582
 40
0.6452190353
 40
1.0
 40
1.0
 40
1.0
 40
1.0
 10
17.4687740083
 20
7.1843672472
 30
0.0
 10
17.4684488564
 20
7.1846887874
 30
0.0
 10
17.4675485751
 20
7.1852001342
 30
0.0
 10
17.4658560629
 20
7.1849161485
 30
0.0
 10
17.4640520219
 20
7.1838675933
 30
0.0
 10
17.4628307771
 20
7.1828652373
 30
0.0
 10
17.4621611029
 20
7.1822660121
 30
0.0
  0
LINE
  5
5FC
100
AcDbEntity
  8
0
100
AcDbLine
 62
7
  6
CONTINUOUS
 10
17.412775031
 20
7.1359718572
 11
17.4319370582
 21
7.1542890284
  0
SPLINE
  5
5FD
100
AcDbEntity
  8
02___PRT_ALL_AXES
100
AcDbSpline
 62
7
  6
CONTINUOUS
 70
0
 71
3
 72
23
 73
19
 74
0
 42
0.0000001
 43
0.0000001
 44
0.0000000001
 40
0.0
 40
0.0
 40
0.0
 40
0.0
 40
0.0623940866
 40
0.1287427057
 40
0.198346754
 40
0.2703347073
 40
0.3437235658
 40
0.4174668485
 40
0.4905027773
 40
0.5618006171
 40
0.6304088082
 40
0.6955068745
 40
0.7564644248
 40
0.8129110917
 40
0.8648203985
 40
0.912603375
 40
0.9571854598
 40
1.0
 40
1.0
 40
1.0
 40
1.0
 10
11.6723364424
 20
13.7298446737
 30
0.0
 10
11.6723364424
 20
13.7701064118
 30
0.0
 10
11.6668823479
 20
13.8532371786
 30
0.0
 10
11.644437262
 20
13.9794599224
 30
0.0
 10
11.6079478974
 20
14.108797362
 30
0.0
 10
11.5581920306
 20
14.2384839019
 30
0.0
 10
11.4962305745
 20
14.3657703259
 30
0.0
 10
11.4233842969
 20
14.4879406263
 30
0.0
 10
11.3412073953
 20
14.6023892828
 30
0.0
 10
11.2514502937
 20
14.7066771252
 30
0.0
 10
11.1560173142
 20
14.7985871448
 30
0.0
 10
11.0569168354
 20
14.8761710792
 30
0.0
 10
10.9562065684
 20
14.9377849257
 30
0.0
 10
10.8559321652
 20
14.982101619
 30
0.0
 10
10.7580896614
 20
15.0080974537
 30
0.0
 10
10.6646003685
 20
15.0149792827
 30
0.0
 10
10.5775395284
 20
15.0022198606
 30
0.0
 10
10.5247985084
 20
14.9802988657
 30
0.0
 10
10.5008724194
 20
14.966485222
 30
0.0
  0
SPLINE
  5
5FE
100
AcDbEntity
  8
02___PRT_ALL_AXES
100
AcDbSpline
 62
7
  6
CONTINUOUS
 70
0
 71
3
 72
14
 73
10
 74
0
 42
0.0000001
 43
0.0000001
 44
0.0000000001
 40
0.0
 40
0.0
 40
0.0
 40
0.0
 40
0.1080475004
 40
0.2181321514
 40
0.3321065227
 40
0.4515042487
 40
0.577463997
 40
0.7107213584
 40
1.0
 40
1.0
 40
1.0
 40
1.0
 10
11.4713394633
 20
13.2855769283
 30
0.0
 10
11.4872509343
 20
13.2947633604
 30
0.0
 10
11.5178434147
 20
13.3161095037
 30
0.0
 10
11.5582651492
 20
13.3558907213
 30
0.0
 10
11.5930289869
 20
13.4031066418
 30
0.0
 10
11.6218130585
 20
13.4572237015
 30
0.0
 10
11.6443958538
 20
13.5176977917
 30
0.0
 10
11.6665936297
 20
13.6084507613
 30
0.0
 10
11.6723364424
 20
13.6806542419
 30
0.0
 10
11.6723364424
 20
13.7298446737
 30
0.0
  0
SPLINE
  5
5FF
100
AcDbEntity
  8
AXIS
100
AcDbSpline
 62
7
  6
CONTINUOUS
 70
0
 71
3
 72
15
 73
11
 74
0
 42
0.0000001
 43
0.0000001
 44
0.0000000001
 40
0.0
 40
0.0
 40
0.0
 40
0.0
 40
0.0869345284
 40
0.1864061896
 40
0.30379958
 40
0.4376147933
 40
0.5821172556
 40
0.729433964
 40
0.8711709067
 40
1.0
 40
1.0
 40
1.0
 40
1.0
 10
13.5439666788
 20
14.9346266809
 30
0.0
 10
13.548096591
 20
14.9370110325
 30
0.0
 10
13.5584722597
 20
14.9396777771
 30
0.0
 10
13.5751734723
 20
14.9363329722
 30
0.0
 10
13.5922352159
 20
14.9270125003
 30
0.0
 10
13.6085960477
 20
14.9125253658
 30
0.0
 10
13.623039654
 20
14.8940352255
 30
0.0
 10
13.634410991
 20
14.8730169639
 30
0.0
 10
13.6417896553
 20
14.8512000485
 30
0.0
 10
13.6437666678
 20
14.8363411728
 30
0.0
 10
13.6437666678
 20
14.8292742659
 30
0.0
  0
SPLINE
  5
600
100
AcDbEntity
  8
AXIS
100
AcDbSpline
 62
7
  6
CONTINUOUS
 70
0
 71
3
 72
11
 73
7
 74
0
 42
0.0000001
 43
0.0000001
 44
0.0000000001
 40
0.0
 40
0.0
 40
0.0
 40
0.0
 40
0.2897715793
 40
0.5490633323
 40
0.7822221824
 40
1.0
 40
1.0
 40
1.0
 40
1.0
 10
13.6437666678
 20
14.8292742659
 30
0.0
 10
13.6437666678
 20
14.8250841372
 30
0.0
 10
13.6431331945
 20
14.8171173547
 30
0.0
 10
13.6399045035
 20
14.8061719901
 30
0.0
 10
13.6344738023
 20
14.7972900235
 30
0.0
 10
13.6293702098
 20
14.7930007463
 30
0.0
 10
13.6266430014
 20
14.7914262277
 30
0.0
  0
SPLINE
  5
601
100
AcDbEntity
  8
0
100
AcDbSpline
 62
7
  6
CONTINUOUS
 70
0
 71
3
 72
14
 73
10
 74
0
 42
0.0000001
 43
0.0000001
 44
0.0000000001
 40
0.0
 40
0.0
 40
0.0
 40
0.0
 40
0.2858867847
 40
0.4182647563
 40
0.543967158
 40
0.6637434091
 40
0.7786967503
 40
0.8902308094
 40
1.0
 40
1.0
 40
1.0
 40
1.0
 10
11.3108167938
 20
12.651366007
 30
0.0
 10
11.3108167938
 20
12.5468612814
 30
0.0
 10
11.2985125371
 20
12.3932150482
 30
0.0
 10
11.251031778
 20
12.1997717172
 30
0.0
 10
11.2024561027
 20
12.0700772689
 30
0.0
 10
11.1402578012
 20
11.9534551708
 30
0.0
 10
11.0648017568
 20
11.8512106703
 30
0.0
 10
10.9767573579
 20
11.7646935062
 30
0.0
 10
10.9100268388
 20
11.7181567166
 30
0.0
 10
10.8752769363
 20
11.6980939708
 30
0.0
  0
SPLINE
  5
602
100
AcDbEntity
  8
0
100
AcDbSpline
 62
7
  6
CONTINUOUS
 70
0
 71
3
 72
10
 73
6
 74
0
 42
0.0000001
 43
0.0000001
 44
0.0000000001
 40
0.0
 40
0.0
 40
0.0
 40
0.0
 40
0.5212526616
 40
0.7669202293
 40
1.0
 40
1.0
 40
1.0
 40
1.0
 10
11.1281706575
 20
13.5684154593
 30
0.0
 10
11.1858731104
 20
13.4157491528
 30
0.0
 10
11.2543760624
 20
13.1840695752
 30
0.0
 10
11.3023556265
 20
12.8743400902
 30
0.0
 10
11.3108167938
 20
12.7243445991
 30
0.0
 10
11.3108167938
 20
12.651366007
 30
0.0
  0
SPLINE
  5
603
100
AcDbEntity
  8
0
100
AcDbSpline
 62
7
  6
CONTINUOUS
 70
0
 71
3
 72
17
 73
13
 74
0
 42
0.0000001
 43
0.0000001
 44
0.0000000001
 40
0.0
 40
0.0
 40
0.0
 40
0.0
 40
0.0486149157
 40
0.0977588199
 40
0.1479460143
 40
0.1996312532
 40
0.3088198122
 40
0.4276593725
 40
0.556964335
 40
0.6963972667
 40
0.8447137537
 40
1.0
 40
1.0
 40
1.0
 40
1.0
 10
8.8280420071
 20
15.2440300495
 30
0.0
 10
8.8566105932
 20
15.2605240319
 30
0.0
 10
8.9164704837
 20
15.2896956217
 30
0.0
 10
9.0121954131
 20
15.3209042096
 30
0.0
 10
9.1132700819
 20
15.3394926376
 30
0.0
 10
9.256581237
 20
15.347582153
 30
0.0
 10
9.4466037646
 20
15.3243789434
 30
0.0
 10
9.6781759285
 20
15.248582131
 30
0.0
 10
9.9126456157
 20
15.1273450894
 30
0.0
 10
10.1446990392
 20
14.9640594139
 30
0.0
 10
10.3689573313
 20
14.7629564327
 30
0.0
 10
10.5072526918
 20
14.6097022169
 30
0.0
 10
10.5739934731
 20
14.5281626154
 30
0.0
  0
SPLINE
  5
604
100
AcDbEntity
  8
02___PRT_ALL_AXES
100
AcDbSpline
 62
7
  6
CONTINUOUS
 70
0
 71
3
 72
9
 73
5
 74
0
 42
0.0000001
 43
0.0000001
 44
0.0000000001
 40
0.0
 40
0.0
 40
0.0
 40
0.0
 40
0.2559185222
 40
1.0
 40
1.0
 40
1.0
 40
1.0
 10
11.2088278654
 20
12.5830680041
 30
0.0
 10
11.2088278654
 20
12.5662876821
 30
0.0
 10
11.2079698944
 20
12.5007233979
 30
0.0
 10
11.2036190061
 20
12.4351899013
 30
0.0
 10
11.1981634874
 20
12.3867071974
 30
0.0
  0
SPLINE
  5
605
100
AcDbEntity
  8
02___PRT_ALL_AXES
100
AcDbSpline
 62
7
  6
CONTINUOUS
 70
0
 71
3
 72
9
 73
5
 74
0
 42
0.0000001
 43
0.0000001
 44
0.0000000001
 40
0.0
 40
0.0
 40
0.0
 40
0.0
 40
0.2565995317
 40
1.0
 40
1.0
 40
1.0
 40
1.0
 10
11.1923799375
 20
12.3412961206
 30
0.0
 10
11.190208638
 20
12.3260589918
 30
0.0
 10
11.1808428776
 20
12.2668129819
 30
0.0
 10
11.1677760064
 20
12.2081315294
 30
0.0
 10
11.1557428241
 20
12.1651960917
 30
0.0
  0
SPLINE
  5
606
100
AcDbEntity
  8
02___PRT_ALL_AXES
100
AcDbSpline
 62
7
  6
CONTINUOUS
 70
0
 71
3
 72
9
 73
5
 74
0
 42
0.0000001
 43
0.0000001
 44
0.0000000001
 40
0.0
 40
0.0
 40
0.0
 40
0.0
 40
0.2562249374
 40
1.0
 40
1.0
 40
1.0
 40
1.0
 10
11.1527295616
 20
12.1546271052
 30
0.0
 10
11.1489485809
 20
12.1415883157
 30
0.0
 10
11.1333417549
 20
12.0909533575
 30
0.0
 10
11.1142514824
 20
12.0413712873
 30
0.0
 10
11.0979494063
 20
12.0054927245
 30
0.0
  0
SPLINE
  5
607
100
AcDbEntity
  8
02___PRT_ALL_AXES
100
AcDbSpline
 62
7
  6
CONTINUOUS
 70
0
 71
3
 72
9
 73
5
 74
0
 42
0.0000001
 43
0.0000001
 44
0.0000000001
 40
0.0
 40
0.0
 40
0.0
 40
0.0
 40
0.255681286
 40
1.0
 40
1.0
 40
1.0
 40
1.0
 10
11.0811684375
 20
11.9704166393
 30
0.0
 10
11.0752605883
 20
11.958678839
 30
0.0
 10
11.051211896
 20
11.9132549123
 30
0.0
 10
11.0232968979
 20
11.8698496884
 30
0.0
 10
11.0003576878
 20
11.8392363307
 30
0.0
  0
SPLINE
  5
608
100
AcDbEntity
  8
02___PRT_ALL_AXES
100
AcDbSpline
 62
7
  6
CONTINUOUS
 70
0
 71
3
 72
9
 73
5
 74
0
 42
0.0000001
 43
0.0000001
 44
0.0000000001
 40
0.0
 40
0.0
 40
0.0
 40
0.0
 40
0.2535882158
 40
1.0
 40
1.0
 40
1.0
 40
1.0
 10
10.9903252991
 20
11.8261322932
 30
0.0
 10
10.9833533148
 20
11.817219189
 30
0.0
 10
10.9551105298
 20
11.7826660331
 30
0.0
 10
10.923825531
 20
11.7505831726
 30
0.0
 10
10.8989510419
 20
11.728432503
 30
0.0
  0
LINE
  5
609
100
AcDbEntity
  8
02___PRT_ALL_AXES
100
AcDbLine
 62
7
  6
CONTINUOUS
 10
10.8706802696
 20
11.7045561132
 11
10.8696463056
 21
11.7037301943
  0
SPLINE
  5
60A
100
AcDbEntity
  8
02___PRT_ALL_AXES
100
AcDbSpline
 62
7
  6
CONTINUOUS
 70
0
 71
3
 72
23
 73
19
 74
0
 42
0.0000001
 43
0.0000001
 44
0.0000000001
 40
0.0
 40
0.0
 40
0.0
 40
0.0
 40
0.0430046586
 40
0.0883003789
 40
0.1368814085
 40
0.1893461026
 40
0.2459223037
 40
0.3065272521
 40
0.3708311921
 40
0.4383135657
 40
0.5083104798
 40
0.5800552939
 40
0.6527145551
 40
0.7254212309
 40
0.7973064495
 40
0.8675318674
 40
0.9353208276
 40
1.0
 40
1.0
 40
1.0
 40
1.0
 10
8.8302111175
 20
15.2363747382
 30
0.0
 10
8.8805543778
 20
15.2561291926
 30
0.0
 10
8.9890153099
 20
15.2846102582
 30
0.0
 10
9.1620842532
 20
15.2919888298
 30
0.0
 10
9.3451261152
 20
15.2653538003
 30
0.0
 10
9.534874815
 20
15.2055968
 30
0.0
 10
9.7282006653
 20
15.1140326372
 30
0.0
 10
9.9218449739
 20
14.9923680698
 30
0.0
 10
10.1124957471
 20
14.8427774079
 30
0.0
 10
10.2968376688
 20
14.6679049328
 30
0.0
 10
10.471632318
 20
14.4708425262
 30
0.0
 10
10.6337887778
 20
14.255081906
 30
0.0
 10
10.780429547
 20
14.0244541243
 30
0.0
 10
10.9089481068
 20
13.7830576736
 30
0.0
 10
11.0170601906
 20
13.5351864113
 30
0.0
 10
11.1028452554
 20
13.2852306552
 30
0.0
 10
11.1647774609
 20
13.0376515632
 30
0.0
 10
11.1901033373
 20
12.8726793749
 30
0.0
 10
11.1981634874
 20
12.7917426952
 30
0.0
  0
SPLINE
  5
60B
100
AcDbEntity
  8
02___PRT_ALL_AXES
100
AcDbSpline
 62
7
  6
CONTINUOUS
 70
0
 71
3
 72
9
 73
5
 74
0
 42
0.0000001
 43
0.0000001
 44
0.0000000001
 40
0.0
 40
0.0
 40
0.0
 40
0.0
 40
0.2553975648
 40
1.0
 40
1.0
 40
1.0
 40
1.0
 10
11.1981634874
 20
12.7917426952
 30
0.0
 10
11.1999266205
 20
12.7740380454
 30
0.0
 10
11.2060205769
 20
12.7046393591
 30
0.0
 10
11.2088278654
 20
12.634940597
 30
0.0
 10
11.2088278654
 20
12.5830680041
 30
0.0
  0
SPLINE
  5
60C
100
AcDbEntity
  8
0
100
AcDbSpline
 62
7
  6
CONTINUOUS
 70
0
 71
3
 72
14
 73
10
 74
0
 42
0.0000001
 43
0.0000001
 44
0.0000000001
 40
0.0
 40
0.0
 40
0.0
 40
0.0
 40
0.1108343086
 40
0.2281118087
 40
0.3508748277
 40
0.4779125382
 40
0.6078576739
 40
0.7392357662
 40
1.0
 40
1.0
 40
1.0
 40
1.0
 10
11.2992856806
 20
12.6352935363
 30
0.0
 10
11.2992856806
 20
12.7112838888
 30
0.0
 10
11.2900895369
 20
12.8677723674
 30
0.0
 10
11.2518761246
 20
13.1056258781
 30
0.0
 10
11.1895002093
 20
13.349788259
 30
0.0
 10
11.1040362886
 20
13.5960186613
 30
0.0
 10
10.996944225
 20
13.8401249037
 30
0.0
 10
10.8283123833
 20
14.156112303
 30
0.0
 10
10.6750093852
 20
14.3787141807
 30
0.0
 10
10.5620992889
 20
14.5173343855
 30
0.0
  0
LINE
  5
60D
100
AcDbEntity
  8
0
100
AcDbLine
 62
7
  6
CONTINUOUS
 10
10.5620992889
 20
14.5173343855
 11
10.5612878807
 21
14.5183301581
  0
SPLINE
  5
60E
100
AcDbEntity
  8
0
100
AcDbSpline
 62
7
  6
CONTINUOUS
 70
0
 71
3
 72
15
 73
11
 74
0
 42
0.0000001
 43
0.0000001
 44
0.0000000001
 40
0.0
 40
0.0
 40
0.0
 40
0.0
 40
0.1496458311
 40
0.2940916068
 40
0.4319627519
 40
0.5621683112
 40
0.6839916564
 40
0.7971998059
 40
0.9021678933
 40
1.0
 40
1.0
 40
1.0
 40
1.0
 10
10.5612878807
 20
14.5183301581
 30
0.0
 10
10.5067511
 20
14.5852318826
 30
0.0
 10
10.3943582477
 20
14.712577723
 30
0.0
 10
10.2141419776
 20
14.8850602501
 30
0.0
 10
10.0276730821
 20
15.0334476224
 30
0.0
 10
9.8380797175
 20
15.1552034638
 30
0.0
 10
9.6484940792
 20
15.2482496323
 30
0.0
 10
9.4619584527
 20
15.3109257187
 30
0.0
 10
9.2815673072
 20
15.34199181
 30
0.0
 10
9.1637376437
 20
15.3409381074
 30
0.0
 10
9.1076751226
 20
15.3345225011
 30
0.0
  0
SPLINE
  5
60F
100
AcDbEntity
  8
0
100
AcDbSpline
 62
7
  6
CONTINUOUS
 70
0
 71
3
 72
9
 73
5
 74
0
 42
0.0000001
 43
0.0000001
 44
0.0000000001
 40
0.0
 40
0.0
 40
0.0
 40
0.0
 40
0.2527056867
 40
1.0
 40
1.0
 40
1.0
 40
1.0
 10
9.0577942567
 20
15.327200859
 30
0.0
 10
9.048784248
 20
15.3255795164
 30
0.0
 10
9.0132479856
 20
15.3185285382
 30
0.0
 10
8.9782180647
 20
15.3088978686
 30
0.0
 10
8.9525687759
 20
15.3002368756
 30
0.0
  0
SPLINE
  5
610
100
AcDbEntity
  8
0
100
AcDbSpline
 62
7
  6
CONTINUOUS
 70
0
 71
3
 72
14
 73
10
 74
0
 42
0.0000001
 43
0.0000001
 44
0.0000000001
 40
0.0
 40
0.0
 40
0.0
 40
0.0
 40
0.108060693
 40
0.2181588919
 40
0.332147247
 40
0.4515556787
 40
0.5775252896
 40
0.7107880207
 40
1.0
 40
1.0
 40
1.0
 40
1.0
 10
10.8752762711
 20
11.6980951235
 30
0.0
 10
10.908846764
 20
11.717475527
 30
0.0
 10
10.9733875152
 20
11.7625162051
 30
0.0
 10
11.0586684979
 20
11.8464463392
 30
0.0
 10
11.1320084388
 20
11.9460641876
 30
0.0
 10
11.192728328
 20
12.0602406859
 30
0.0
 10
11.2403617748
 20
12.1878248487
 30
0.0
 10
11.2871763238
 20
12.3792552389
 30
0.0
 10
11.2992856806
 20
12.5315485669
 30
0.0
 10
11.2992856806
 20
12.6352935363
 30
0.0
  0
SPLINE
  5
611
100
AcDbEntity
  8
0
100
AcDbSpline
 62
7
  6
CONTINUOUS
 70
0
 71
3
 72
9
 73
5
 74
0
 42
0.0000001
 43
0.0000001
 44
0.0000000001
 40
0.0
 40
0.0
 40
0.0
 40
0.0
 40
0.4999978105
 40
1.0
 40
1.0
 40
1.0
 40
1.0
 10
11.1278503586
 20
13.5692623148
 30
0.0
 10
11.0624129096
 20
13.7422385324
 30
0.0
 10
10.9022449447
 20
14.0776154116
 30
0.0
 10
10.6918881213
 20
14.3840173982
 30
0.0
 10
10.5748015443
 20
14.5271752277
 30
0.0
  0
SPLINE
  5
612
100
AcDbEntity
  8
02___PRT_ALL_AXES
100
AcDbSpline
 62
7
  6
CONTINUOUS
 70
0
 71
3
 72
13
 73
9
 74
0
 42
0.0000001
 43
0.0000001
 44
0.0000000001
 40
0.0
 40
0.0
 40
0.0
 40
0.0
 40
0.2862746052
 40
0.4194212427
 40
0.5460348051
 40
0.7813305243
 40
0.8921962292
 40
1.0
 40
1.0
 40
1.0
 40
1.0
 10
11.2088278654
 20
12.5830680041
 30
0.0
 10
11.2088278654
 20
12.4902234615
 30
0.0
 10
11.1990925389
 20
12.3537128792
 30
0.0
 10
11.162054018
 20
12.180272627
 30
0.0
 10
11.1129175716
 20
12.0272477725
 30
0.0
 10
11.0420759593
 20
11.8891765256
 30
0.0
 10
10.9494070883
 20
11.7742566424
 30
0.0
 10
10.8972435842
 20
11.7257555603
 30
0.0
 10
10.8699169567
 20
11.7039459261
 30
0.0
  0
SPLINE
  5
613
100
AcDbEntity
  8
02___PRT_ALL_AXES
100
AcDbSpline
 62
7
  6
CONTINUOUS
 70
0
 71
3
 72
23
 73
19
 74
0
 42
0.0000001
 43
0.0000001
 44
0.0000000001
 40
0.0
 40
0.0
 40
0.0
 40
0.0
 40
0.0615600981
 40
0.1269030667
 40
0.1953983953
 40
0.2662604744
 40
0.3385991448
 40
0.4114625121
 40
0.4838773711
 40
0.5548886883
 40
0.6235999914
 40
0.6892161748
 40
0.7510913308
 40
0.8087845449
 40
0.8621260518
 40
0.911294999
 40
0.9568960517
 40
1.0
 40
1.0
 40
1.0
 40
1.0
 10
11.2088278654
 20
12.5830680041
 30
0.0
 10
11.2088278654
 20
12.6647455285
 30
0.0
 10
11.1981929869
 20
12.8332265235
 30
0.0
 10
11.1542776276
 20
13.0891458748
 30
0.0
 10
11.0827777995
 20
13.3515675159
 30
0.0
 10
10.9851112977
 20
13.6152842315
 30
0.0
 10
10.8632095466
 20
13.8751084696
 30
0.0
 10
10.7194838682
 20
14.1258950807
 30
0.0
 10
10.556781524
 20
14.3626806916
 30
0.0
 10
10.37831969
 20
14.5807784645
 30
0.0
 10
10.1876200179
 20
14.7758818568
 30
0.0
 10
9.9884210647
 20
14.9441470295
 30
0.0
 10
9.7845897534
 20
15.0822650477
 30
0.0
 10
9.5800154107
 20
15.1875025652
 30
0.0
 10
9.3785320406
 20
15.2577029015
 30
0.0
 10
9.1838117441
 20
15.2912001578
 30
0.0
 10
8.999671042
 20
15.2868178408
 30
0.0
 10
8.8843462849
 20
15.2575375343
 30
0.0
 10
8.8310808892
 20
15.2367169428
 30
0.0
  0
SPLINE
  5
614
100
AcDbEntity
  8
0
100
AcDbSpline
 62
7
  6
CONTINUOUS
 70
0
 71
3
 72
23
 73
19
 74
0
 42
0.0000001
 43
0.0000001
 44
0.0000000001
 40
0.0
 40
0.0
 40
0.0
 40
0.0
 40
0.0413289215
 40
0.0848048561
 40
0.1319413873
 40
0.1836091802
 40
0.2401205204
 40
0.3013468628
 40
0.3668344031
 40
0.4358909579
 40
0.5076529473
 40
0.5811397633
 40
0.6553007936
 40
0.7290590411
 40
0.8013529862
 40
0.8711806999
 40
0.9376425998
 40
1.0
 40
1.0
 40
1.0
 40
1.0
 10
8.5196463732
 20
14.7930273198
 30
0.0
 10
8.5631144153
 20
14.8167639286
 30
0.0
 10
8.6590720229
 20
14.853956004
 30
0.0
 10
8.8173233113
 20
14.8735414963
 30
0.0
 10
8.9882329997
 20
14.8577176474
 30
0.0
 10
9.1681887255
 20
14.806940411
 30
0.0
 10
9.3534652503
 20
14.7223343098
 30
0.0
 10
9.5400870813
 20
14.6056367103
 30
0.0
 10
9.724016344
 20
14.4592927677
 30
0.0
 10
9.9012627553
 20
14.2863936451
 30
0.0
 10
10.067993521
 20
14.0906132185
 30
0.0
 10
10.2206171564
 20
13.8761211673
 30
0.0
 10
10.3558596476
 20
13.6474925746
 30
0.0
 10
10.4708304422
 20
13.4096083414
 30
0.0
 10
10.5630851582
 20
13.1675604489
 30
0.0
 10
10.6306727807
 20
12.9265208444
 30
0.0
 10
10.6721890841
 20
12.6917214191
 30
0.0
 10
10.682278787
 20
12.5372491235
 30
0.0
 10
10.682278787
 20
12.4625228013
 30
0.0
  0
SPLINE
  5
615
100
AcDbEntity
  8
0
100
AcDbSpline
 62
7
  6
CONTINUOUS
 70
0
 71
3
 72
14
 73
10
 74
0
 42
0.0000001
 43
0.0000001
 44
0.0000000001
 40
0.0
 40
0.0
 40
0.0
 40
0.0
 40
0.2927396326
 40
0.4270461634
 40
0.5534749918
 40
0.672668717
 40
0.7857003593
 40
0.8941733442
 40
1.0
 40
1.0
 40
1.0
 40
1.0
 10
10.682278787
 20
12.4625228013
 30
0.0
 10
10.682278787
 20
12.3732541449
 30
0.0
 10
10.6721518163
 20
12.242421879
 30
0.0
 10
10.6330591434
 20
12.0779554568
 30
0.0
 10
10.5935297694
 20
11.9687423984
 30
0.0
 10
10.5433919707
 20
11.871178624
 30
0.0
 10
10.4831585666
 20
11.7860557714
 30
0.0
 10
10.4133835785
 20
11.7141151483
 30
0.0
 10
10.3605560563
 20
11.6750471167
 30
0.0
 10
10.3330886298
 20
11.6581072668
 30
0.0
  0
SPLINE
  5
616
100
AcDbEntity
  8
0
100
AcDbSpline
 62
7
  6
CONTINUOUS
 70
0
 71
3
 72
9
 73
5
 74
0
 42
0.0000001
 43
0.0000001
 44
0.0000000001
 40
0.0
 40
0.0
 40
0.0
 40
0.0
 40
0.2566416236
 40
1.0
 40
1.0
 40
1.0
 40
1.0
 10
10.9722013269
 20
12.446449309
 30
0.0
 10
10.9722073274
 20
12.4281850266
 30
0.0
 10
10.9712104448
 20
12.357024476
 30
0.0
 10
10.9660551188
 20
12.285901834
 30
0.0
 10
10.9595719594
 20
12.2333983861
 30
0.0
  0
SPLINE
  5
617
100
AcDbEntity
  8
0
100
AcDbSpline
 62
7
  6
CONTINUOUS
 70
0
 71
3
 72
9
 73
5
 74
0
 42
0.0000001
 43
0.0000001
 44
0.0000000001
 40
0.0
 40
0.0
 40
0.0
 40
0.0
 40
0.2562079217
 40
1.0
 40
1.0
 40
1.0
 40
1.0
 10
10.9595719594
 20
12.2333983861
 30
0.0
 10
10.9577566944
 20
12.2186975805
 30
0.0
 10
10.9498580283
 20
12.1614245747
 30
0.0
 10
10.9386241686
 20
12.1045957174
 30
0.0
 10
10.9281881462
 20
12.0628795385
 30
0.0
  0
SPLINE
  5
618
100
AcDbEntity
  8
0
100
AcDbSpline
 62
7
  6
CONTINUOUS
 70
0
 71
3
 72
11
 73
7
 74
0
 42
0.0000001
 43
0.0000001
 44
0.0000000001
 40
0.0
 40
0.0
 40
0.0
 40
0.0
 40
0.2673686835
 40
0.5204002235
 40
0.7629675845
 40
1.0
 40
1.0
 40
1.0
 40
1.0
 10
10.8858488436
 20
11.9276434604
 30
0.0
 10
10.8684186101
 20
11.8820514021
 30
0.0
 10
10.8284021496
 20
11.7954427014
 30
0.0
 10
10.750556828
 20
11.679184237
 30
0.0
 10
10.6575082583
 20
11.5821345971
 30
0.0
 10
10.5857261157
 20
11.5309295859
 30
0.0
 10
10.5482537706
 20
11.5092891882
 30
0.0
  0
SPLINE
  5
619
100
AcDbEntity
  8
0
100
AcDbSpline
 62
7
  6
CONTINUOUS
 70
0
 71
3
 72
24
 73
20
 74
0
 42
0.0000001
 43
0.0000001
 44
0.0000000001
 40
0.0
 40
0.0
 40
0.0
 40
0.0
 40
0.0213356057
 40
0.0429006305
 40
0.0874864276
 40
0.1352742424
 40
0.1871889133
 40
0.2436420468
 40
0.3046070069
 40
0.3697126485
 40
0.4383286399
 40
0.5096348972
 40
0.5826770153
 40
0.6564198152
 40
0.7297979415
 40
0.8017632003
 40
0.8713343484
 40
0.9376453924
 40
1.0
 40
1.0
 40
1.0
 40
1.0
 10
10.3187246144
 20
11.6495352044
 30
0.0
 10
10.2964726261
 20
11.6366887445
 30
0.0
 10
10.2500160802
 20
11.6136982874
 30
0.0
 10
10.1502241017
 20
11.5791870892
 30
0.0
 10
10.0130933669
 20
11.5590047551
 30
0.0
 10
9.8386625971
 20
11.5719030075
 30
0.0
 10
9.656026176
 20
11.6204272347
 30
0.0
 10
9.4688777914
 20
11.7031655666
 30
0.0
 10
9.280911203
 20
11.8181854643
 30
0.0
 10
9.0959550818
 20
11.9630153488
 30
0.0
 10
8.917847309
 20
12.1345843763
 30
0.0
 10
8.7503393596
 20
12.3292546895
 30
0.0
 10
8.5969895875
 20
12.5428808341
 30
0.0
 10
8.461069897
 20
12.7708976301
 30
0.0
 10
8.3454812232
 20
13.0084287826
 30
0.0
 10
8.2526819965
 20
13.2503978197
 30
0.0
 10
8.1846386082
 20
13.4916772385
 30
0.0
 10
8.1427928243
 20
13.72711753
 30
0.0
 10
8.132625069
 20
13.8821702412
 30
0.0
 10
8.132625069
 20
13.9572625718
 30
0.0
  0
SPLINE
  5
61A
100
AcDbEntity
  8
0
100
AcDbSpline
 62
7
  6
CONTINUOUS
 70
0
 71
3
 72
14
 73
10
 74
0
 42
0.0000001
 43
0.0000001
 44
0.0000000001
 40
0.0
 40
0.0
 40
0.0
 40
0.0
 40
0.2342727006
 40
0.4750412939
 40
0.5994583072
 40
0.7284015885
 40
0.8646116443
 40
0.9353376904
 40
1.0
 40
1.0
 40
1.0
 40
1.0
 10
10.9674725805
 20
12.4437308895
 30
0.0
 10
10.9550622299
 20
12.4366277223
 30
0.0
 10
10.9296801758
 20
12.422599574
 30
0.0
 10
10.8968822957
 20
12.4063286139
 30
0.0
 10
10.8690812549
 20
12.3945842597
 30
0.0
 10
10.8466234697
 20
12.3867682324
 30
0.0
 10
10.8264846559
 20
12.3821846668
 30
0.0
 10
10.8098366771
 20
12.3819400939
 30
0.0
 10
10.8016240514
 20
12.3842046169
 30
0.0
 10
10.798206253
 20
12.3861784365
 30
0.0
  0
SPLINE
  5
61B
100
AcDbEntity
  8
0
100
AcDbSpline
 62
7
  6
CONTINUOUS
 70
0
 71
3
 72
9
 73
5
 74
0
 42
0.0000001
 43
0.0000001
 44
0.0000000001
 40
0.0
 40
0.0
 40
0.0
 40
0.0
 40
0.4495044124
 40
1.0
 40
1.0
 40
1.0
 40
1.0
 10
7.9655874692
 20
14.0279782829
 30
0.0
 10
7.9655928875
 20
14.026022492
 30
0.0
 10
7.9668635072
 20
14.0215568417
 30
0.0
 10
7.9704767658
 20
14.0187315123
 30
0.0
 10
7.972551249
 20
14.0175341985
 30
0.0
  0
SPLINE
  5
61C
100
AcDbEntity
  8
0
100
AcDbSpline
 62
7
  6
CONTINUOUS
 70
0
 71
3
 72
11
 73
7
 74
0
 42
0.0000001
 43
0.0000001
 44
0.0000000001
 40
0.0
 40
0.0
 40
0.0
 40
0.0
 40
0.235593297
 40
0.4773842862
 40
0.7308055497
 40
1.0
 40
1.0
 40
1.0
 40
1.0
 10
8.5010640872
 20
15.0552493764
 30
0.0
 10
8.5409200734
 20
15.0782507266
 30
0.0
 10
8.626688294
 20
15.1166942216
 30
0.0
 10
8.7667114171
 20
15.1484523706
 30
0.0
 10
8.9166361301
 20
15.1544284386
 30
0.0
 10
9.018393806
 20
15.1417707609
 30
0.0
 10
9.0699973155
 20
15.1316840245
 30
0.0
  0
SPLINE
  5
61D
100
AcDbEntity
  8
0
100
AcDbSpline
 62
7
  6
CONTINUOUS
 70
0
 71
3
 72
9
 73
5
 74
0
 42
0.0000001
 43
0.0000001
 44
0.0000000001
 40
0.0
 40
0.0
 40
0.0
 40
0.0
 40
0.2452812309
 40
1.0
 40
1.0
 40
1.0
 40
1.0
 10
9.1078052455
 20
15.1236345501
 30
0.0
 10
9.1180851777
 20
15.1212682004
 30
0.0
 10
9.159866755
 20
15.1110645058
 30
0.0
 10
9.2011108079
 20
15.0986851436
 30
0.0
 10
9.2318515437
 20
15.0882671814
 30
0.0
  0
SPLINE
  5
61E
100
AcDbEntity
  8
0
100
AcDbSpline
 62
7
  6
CONTINUOUS
 70
0
 71
3
 72
9
 73
5
 74
0
 42
0.0000001
 43
0.0000001
 44
0.0000000001
 40
0.0
 40
0.0
 40
0.0
 40
0.0
 40
0.2451987735
 40
1.0
 40
1.0
 40
1.0
 40
1.0
 10
9.2318515437
 20
15.0882671814
 30
0.0
 10
9.2427555422
 20
15.0845718423
 30
0.0
 10
9.2870361394
 20
15.0689454055
 30
0.0
 10
9.3305466564
 20
15.0511555079
 30
0.0
 10
9.3628953077
 20
15.0366763995
 30
0.0
  0
SPLINE
  5
61F
100
AcDbEntity
  8
0
100
AcDbSpline
 62
7
  6
CONTINUOUS
 70
0
 71
3
 72
9
 73
5
 74
0
 42
0.0000001
 43
0.0000001
 44
0.0000000001
 40
0.0
 40
0.0
 40
0.0
 40
0.0
 40
0.2401899512
 40
1.0
 40
1.0
 40
1.0
 40
1.0
 10
9.3628953077
 20
15.0366763995
 30
0.0
 10
9.3883321916
 20
15.0252909667
 30
0.0
 10
9.4930081302
 20
14.9751613769
 30
0.0
 10
9.592641658
 20
14.9147642389
 30
0.0
 10
9.6652022408
 20
14.8646946152
 30
0.0
  0
SPLINE
  5
620
100
AcDbEntity
  8
0
100
AcDbSpline
 62
7
  6
CONTINUOUS
 70
0
 71
3
 72
15
 73
11
 74
0
 42
0.0000001
 43
0.0000001
 44
0.0000000001
 40
0.0
 40
0.0
 40
0.0
 40
0.0
 40
0.1175814275
 40
0.2425591253
 40
0.3725418171
 40
0.5047768345
 40
0.6363588441
 40
0.7644248712
 40
0.8863557752
 40
1.0
 40
1.0
 40
1.0
 40
1.0
 10
9.6652022408
 20
14.8646946152
 30
0.0
 10
9.756007892
 20
14.8020351849
 30
0.0
 10
9.9339040943
 20
14.6587898721
 30
0.0
 10
10.1776418653
 20
14.4072132531
 30
0.0
 10
10.4002542208
 20
14.1191841752
 30
0.0
 10
10.5944758257
 20
13.8040579083
 30
0.0
 10
10.7540438928
 20
13.4720308302
 30
0.0
 10
10.8737994692
 20
13.1338109921
 30
0.0
 10
10.9498233864
 20
12.8003899342
 30
0.0
 10
10.9706118015
 20
12.5794241368
 30
0.0
 10
10.9720295375
 20
12.4728016237
 30
0.0
  0
SPLINE
  5
621
100
AcDbEntity
  8
0
100
AcDbSpline
 62
7
  6
CONTINUOUS
 70
0
 71
3
 72
30
 73
26
 74
0
 42
0.0000001
 43
0.0000001
 44
0.0000000001
 40
0.0
 40
0.0
 40
0.0
 40
0.0
 40
0.060327306
 40
0.0881199021
 40
0.1143911837
 40
0.139291992
 40
0.1630628492
 40
0.1860217571
 40
0.208556042
 40
0.2310902926
 40
0.2540490335
 40
0.2778196885
 40
0.3027201811
 40
0.3289906012
 40
0.3567833339
 40
0.3861778913
 40
0.4171799027
 40
0.4837113611
 40
0.5554984151
 40
0.6310612115
 40
0.7085907257
 40
0.786120294
 40
0.8616832983
 40
0.9334693659
 40
1.0
 40
1.0
 40
1.0
 40
1.0
 10
7.972548615
 20
14.0175357223
 30
0.0
 10
7.9725153452
 20
14.1188022959
 30
0.0
 10
7.9843747895
 20
14.2674521341
 30
0.0
 10
8.0300937736
 20
14.4542827681
 30
0.0
 10
8.0765536898
 20
14.5788028784
 30
0.0
 10
8.1358335077
 20
14.6902139291
 30
0.0
 10
8.2073853815
 20
14.787428798
 30
0.0
 10
8.2906427183
 20
14.8693299103
 30
0.0
 10
8.3847242347
 20
14.9350215826
 30
0.0
 10
8.4886526989
 20
14.9836583775
 30
0.0
 10
8.6012085791
 20
15.0148143845
 30
0.0
 10
8.7211734329
 20
15.0281712686
 30
0.0
 10
8.8472982319
 20
15.0238076459
 30
0.0
 10
8.9783552697
 20
15.0018031733
 30
0.0
 10
9.1131292505
 20
14.962532944
 30
0.0
 10
9.2503589742
 20
14.9063563014
 30
0.0
 10
9.4393477803
 20
14.8074146298
 30
0.0
 10
9.6731119126
 20
14.6435052486
 30
0.0
 10
9.936003102
 20
14.3975749639
 30
0.0
 10
10.1782342384
 20
14.1068775415
 30
0.0
 10
10.3907329056
 20
13.7823040871
 30
0.0
 10
10.5655692738
 20
13.4359907338
 30
0.0
 10
10.6962149595
 20
13.0808569956
 30
0.0
 10
10.7777235102
 20
12.7302533842
 30
0.0
 10
10.7982458228
 20
12.4978566271
 30
0.0
 10
10.7982086824
 20
12.3861770281
 30
0.0
  0
SPLINE
  5
622
100
AcDbEntity
  8
0
100
AcDbSpline
 62
7
  6
CONTINUOUS
 70
0
 71
3
 72
11
 73
7
 74
0
 42
0.0000001
 43
0.0000001
 44
0.0000000001
 40
0.0
 40
0.0
 40
0.0
 40
0.0
 40
0.2770951978
 40
0.5355072754
 40
0.7758301818
 40
1.0
 40
1.0
 40
1.0
 40
1.0
 10
10.7982088866
 20
12.3861769125
 30
0.0
 10
10.7982307217
 20
12.3197154428
 30
0.0
 10
10.7914488461
 20
12.1911157593
 30
0.0
 10
10.7585678323
 20
12.0074087882
 30
0.0
 10
10.7037839233
 20
11.8422227275
 30
0.0
 10
10.6512818366
 20
11.7431557108
 30
0.0
 10
10.6215891923
 20
11.6983308543
 30
0.0
  0
SPLINE
  5
623
100
AcDbEntity
  8
0
100
AcDbSpline
 62
7
  6
CONTINUOUS
 70
0
 71
3
 72
26
 73
22
 74
0
 42
0.0000001
 43
0.0000001
 44
0.0000000001
 40
0.0
 40
0.0
 40
0.0
 40
0.0
 40
0.0232105307
 40
0.0457492214
 40
0.0678804912
 40
0.0898927467
 40
0.1120835783
 40
0.1347375184
 40
0.1823322355
 40
0.2343088648
 40
0.2914361735
 40
0.3538110027
 40
0.4210076951
 40
0.4922167773
 40
0.566356916
 40
0.6421699283
 40
0.7183030732
 40
0.793387617
 40
0.8661097697
 40
0.9352982368
 40
1.0
 40
1.0
 40
1.0
 40
1.0
 10
10.6215891923
 20
11.6983308543
 30
0.0
 10
10.6031470348
 20
11.6704900511
 30
0.0
 10
10.563407614
 20
11.6177494536
 30
0.0
 10
10.4945840649
 20
11.5480433332
 30
0.0
 10
10.4180912383
 20
11.4895967602
 30
0.0
 10
10.3344675295
 20
11.4429226403
 30
0.0
 10
10.2443513161
 20
11.4083586064
 30
0.0
 10
10.1144309606
 20
11.3782088344
 30
0.0
 10
9.936679922
 20
11.3733650704
 30
0.0
 10
9.7141513919
 20
11.4178604821
 30
0.0
 10
9.4840738189
 20
11.510111422
 30
0.0
 10
9.2521267671
 20
11.6473215307
 30
0.0
 10
9.02405251
 20
11.8257624203
 30
0.0
 10
8.8057237281
 20
12.0407363917
 30
0.0
 10
8.6028504841
 20
12.2865665074
 30
0.0
 10
8.420803952
 20
12.5567400002
 30
0.0
 10
8.2644213618
 20
12.844077808
 30
0.0
 10
8.1378491953
 20
13.1409242221
 30
0.0
 10
8.0444679404
 20
13.439442643
 30
0.0
 10
7.9867497297
 20
13.7316555838
 30
0.0
 10
7.9725178604
 20
13.9244436892
 30
0.0
 10
7.9725488192
 20
14.0175356067
 30
0.0
  0
SPLINE
  5
624
100
AcDbEntity
  8
0
100
AcDbSpline
 62
7
  6
CONTINUOUS
 70
0
 71
3
 72
29
 73
25
 74
0
 42
0.0000001
 43
0.0000001
 44
0.0000000001
 40
0.0
 40
0.0
 40
0.0
 40
0.0
 40
0.060308553
 40
0.0880955768
 40
0.1143618362
 40
0.1392617135
 40
0.1630330242
 40
0.1859948114
 40
0.2085329504
 40
0.2310718542
 40
0.2540362483
 40
0.2778123803
 40
0.3027194169
 40
0.328995678
 40
0.3567961514
 40
0.417141658
 40
0.4836926242
 40
0.5555011149
 40
0.6310877536
 40
0.7086372839
 40
0.7861746884
 40
0.8617287435
 40
0.933494414
 40
1.0
 40
1.0
 40
1.0
 40
1.0
 10
8.0769473697
 20
13.957262438
 30
0.0
 10
8.0769473697
 20
14.051010994
 30
0.0
 10
8.0878883234
 20
14.1886264015
 30
0.0
 10
8.1301766278
 20
14.3616090954
 30
0.0
 10
8.1732040836
 20
14.4768989339
 30
0.0
 10
8.2280570178
 20
14.5800837993
 30
0.0
 10
8.2943082542
 20
14.6701201224
 30
0.0
 10
8.3713807778
 20
14.7460093724
 30
0.0
 10
8.4585142467
 20
14.8068601301
 30
0.0
 10
8.5547550186
 20
14.8519565703
 30
0.0
 10
8.6590104326
 20
14.8808194124
 30
0.0
 10
8.770126686
 20
14.8932307532
 30
0.0
 10
8.8869516988
 20
14.889187213
 30
0.0
 10
9.0083568661
 20
14.868835436
 30
0.0
 10
9.1794415474
 20
14.8189511361
 30
0.0
 10
9.3980428222
 20
14.714944751
 30
0.0
 10
9.6518539335
 20
14.5369734371
 30
0.0
 10
9.8954390104
 20
14.3091032516
 30
0.0
 10
10.1197832866
 20
14.0398235386
 30
0.0
 10
10.31659067
 20
13.7391647012
 30
0.0
 10
10.4784823225
 20
13.4184216855
 30
0.0
 10
10.5994124278
 20
13.0895693706
 30
0.0
 10
10.674882324
 20
12.7649727863
 30
0.0
 10
10.693810132
 20
12.5498319287
 30
0.0
 10
10.693810132
 20
12.4464501968
 30
0.0
  0
SPLINE
  5
625
100
AcDbEntity
  8
0
100
AcDbSpline
 62
7
  6
CONTINUOUS
 70
0
 71
3
 72
29
 73
25
 74
0
 42
0.0000001
 43
0.0000001
 44
0.0000000001
 40
0.0
 40
0.0
 40
0.0
 40
0.0
 40
0.060308553
 40
0.0880955768
 40
0.1143618362
 40
0.1392617135
 40
0.1630330242
 40
0.1859948114
 40
0.2085329504
 40
0.2310718542
 40
0.2540362483
 40
0.2778123803
 40
0.3027194169
 40
0.328995678
 40
0.3567961514
 40
0.417141658
 40
0.4836926242
 40
0.5555011149
 40
0.6310877536
 40
0.7086372839
 40
0.7861746884
 40
0.8617287435
 40
0.933494414
 40
1.0
 40
1.0
 40
1.0
 40
1.0
 10
10.693810132
 20
12.4464501968
 30
0.0
 10
10.693810132
 20
12.3527016408
 30
0.0
 10
10.6828691783
 20
12.2150862333
 30
0.0
 10
10.6405808739
 20
12.0421035394
 30
0.0
 10
10.5975534181
 20
11.9268137009
 30
0.0
 10
10.5427004838
 20
11.8236288355
 30
0.0
 10
10.4764492475
 20
11.7335925124
 30
0.0
 10
10.3993767239
 20
11.6577032624
 30
0.0
 10
10.312243255
 20
11.5968525047
 30
0.0
 10
10.216002483
 20
11.5517560645
 30
0.0
 10
10.1117470691
 20
11.5228932224
 30
0.0
 10
10.0006308156
 20
11.5104818816
 30
0.0
 10
9.8838058029
 20
11.5145254218
 30
0.0
 10
9.7624006356
 20
11.5348771988
 30
0.0
 10
9.5913159543
 20
11.5847614987
 30
0.0
 10
9.3727146795
 20
11.6887678838
 30
0.0
 10
9.1189035682
 20
11.8667391977
 30
0.0
 10
8.8753184913
 20
12.0946093832
 30
0.0
 10
8.6509742151
 20
12.3638890962
 30
0.0
 10
8.4541668317
 20
12.6645479336
 30
0.0
 10
8.2922751792
 20
12.9852909494
 30
0.0
 10
8.1713450739
 20
13.3141432642
 30
0.0
 10
8.0958751777
 20
13.6387398485
 30
0.0
 10
8.0769473697
 20
13.8538807061
 30
0.0
 10
8.0769473697
 20
13.957262438
 30
0.0
  0
SPLINE
  5
626
100
AcDbEntity
  8
0
100
AcDbSpline
 62
7
  6
CONTINUOUS
 70
0
 71
3
 72
11
 73
7
 74
0
 42
0.0000001
 43
0.0000001
 44
0.0000000001
 40
0.0
 40
0.0
 40
0.0
 40
0.0
 40
0.2813003137
 40
0.5405300327
 40
0.7789043918
 40
1.0
 40
1.0
 40
1.0
 40
1.0
 10
8.132625069
 20
13.9572625718
 30
0.0
 10
8.132625069
 20
14.0267826113
 30
0.0
 10
8.1407324785
 20
14.160596912
 30
0.0
 10
8.1806294182
 20
14.3497457586
 30
0.0
 10
8.2472516015
 20
14.5154752125
 30
0.0
 10
8.3110213599
 20
14.6107817198
 30
0.0
 10
8.3466974214
 20
14.6521686137
 30
0.0
  0
SPLINE
  5
627
100
AcDbEntity
  8
0
100
AcDbSpline
 62
7
  6
CONTINUOUS
 70
0
 71
3
 72
9
 73
5
 74
0
 42
0.0000001
 43
0.0000001
 44
0.0000000001
 40
0.0
 40
0.0
 40
0.0
 40
0.0
 40
0.5047600592
 40
1.0
 40
1.0
 40
1.0
 40
1.0
 10
8.3466974214
 20
14.6521686137
 30
0.0
 10
8.369694823
 20
14.6788473157
 30
0.0
 10
8.4195055123
 20
14.7282176942
 30
0.0
 10
8.476957576
 20
14.7685025619
 30
0.0
 10
8.5068581727
 20
14.7858297335
 30
0.0
  0
ENDSEC
  0
SECTION
  2
OBJECTS
  0
DICTIONARY
  5
C
100
AcDbDictionary
280
0
281
1
  3
ACAD_GROUP
350
D
  3
ACAD_MLINESTYLE
350
17
  3
ACAD_LAYOUT
350
1A
  3
ACAD_PLOTSETTINGS
350
19
  3
ACAD_PLOTSTYLENAME
350
E
  3
ACAD_TABLESTYLE
350
       628
  0
DICTIONARY
  5
D
102
{ACAD_REACTORS
330
C
102
}
100
AcDbDictionary
280
0
281
1
  0
ACDBDICTIONARYWDFLT
  5
E
102
{ACAD_REACTORS
330
C
102
}
100
AcDbDictionary
281
1
  3
Normal
350
F
100
AcDbDictionaryWithDefault
340
F
  0
DICTIONARY
  5
17
102
{ACAD_REACTORS
330
C
102
}
100
AcDbDictionary
280
0
281
1
  3
Standard
350
18
  0
DICTIONARY
  5
628
330
C
100
AcDbDictionary
281
1
  3
Standard
350
       62B
  3
Standard1
350
       62C
  0
DICTIONARY
  5
19
102
{ACAD_REACTORS
330
C
102
}
100
AcDbDictionary
281
1
  0
DICTIONARY
  5
1A
102
{ACAD_REACTORS
330
C
102
}
100
AcDbDictionary
281
1
  3
Model
350
629
  3
Layout1
350
62A
  0
ACDBPLACEHOLDER
  5
F
102
{ACAD_REACTORS
330
E
102
}
  0
MLINESTYLE
  5
18
102
{ACAD_REACTORS
330
17
102
}
100
AcDbMlineStyle
  2
STANDARD
 70
0
  3

 62
256
 51
90.0
 52
90.0
 71
2
 49
0.5
 62
256
  6
BYLAYER
 49
-0.5
 62
256
  6
BYLAYER
  0
LAYOUT
  5
629
102
{ACAD_REACTORS
330
1A
102
}
100
AcDbPlotSettings
  1

  2
none_device
  4
ANSI_C_(22.00_x_17.00_Inches)
  6

 40
0.0
 41
0.0
 42
0.0
 43
0.0
 44
558.8
 45
431.8
 46
0.0
 47
0.0
 48
0.0
 49
0.0
140
0.0
141
0.0
142
1.0
143
1.0
 70
1024
 72
0
 73
0
 74
0
  7

 75
0
147
1.0
148
0.0
149
0.0
100
AcDbLayout
  1
Model
 70
0
 71
0
 10
0.0
 20
0.0
 11
22.0
 21
17.0
 12
0.0
 22
0.0
 32
0.0
 14
0.0
 24
0.0
 34
0.0
 15
0.0
 25
0.0
 35
0.0
146
0.0
 13
0.0
 23
0.0
 33
0.0
 16
1.0
 26
0.0
 36
0.0
 17
0.0
 27
1.0
 37
0.0
 76
0
330
23C
345
0
346
0
  0
LAYOUT
  5
62A
102
{ACAD_REACTORS
330
1A
102
}
100
AcDbPlotSettings
  1

  2
none_device
  4
ANSI_C_(22.00_x_17.00_Inches)
  6

 40
0.0
 41
0.0
 42
0.0
 43
0.0
 44
558.8
 45
431.8
 46
0.0
 47
0.0
 48
0.0
 49
0.0
140
0.0
141
0.0
142
1.0
143
1.0
 70
0
 72
0
 73
0
 74
0
  7

 75
0
147
1.0
148
0.0
149
0.0
100
AcDbLayout
  1
Layout1
 70
0
 71
1
 10
0.0
 20
0.0
 11
22.0
 21
17.0
 12
0.0
 22
0.0
 32
0.0
 14
0.0
 24
0.0
 34
0.0
 15
0.0
 25
0.0
 35
0.0
146
0.0
 13
0.0
 23
0.0
 33
0.0
 16
1.0
 26
0.0
 36
0.0
 17
0.0
 27
1.0
 37
0.0
 76
0
330
23D
345
0
346
0
  0
TABLESTYLE
  5
62B
102
{ACAD_REACTORS
330
628
102
}
330
628
100
AcDbTableStyle
  3
Standard
 70
0
 71
0
 40
0.06
 41
0.06
280
1
281
1
  7
Standard
140
0.18
170
1
 62
0
 63
7
283
0
  7
Standard
140
0.18
170
1
 62
0
 63
7
283
0
  7
Standard
140
0.18
170
1
 62
0
 63
7
283
0
  0
TABLESTYLE
  5
62C
102
{ACAD_REACTORS
330
628
330
2C1
102
}
330
628
100
AcDbTableStyle
  3
Standard1
 70
1
 71
0
 40
0.06
 41
0.06
280
1
281
1
  7
Standard
140
0.18
170
1
 62
0
 63
7
283
0
  7
Standard
140
0.18
170
1
 62
0
 63
7
283
0
  7
Standard
140
0.18
170
1
 62
0
 63
7
283
0
  0
ENDSEC
  0
EOF
