999
DXF file: 192819_1.dxf
999
Pro/ENGINEER 2013230 by Parametric Technology Corporation
  0
SECTION
  2
HEADER
  9
$ACADVER
  1
AC1018
  9
$DWGCODEPAGE
  3
ANSI_1252
  9
$EXTMAX
 10
22.0
 20
17.0
 30
0.0
  9
$EXTMIN
 10
0.0
 20
0.0
 30
0.0
  9
$LIMMIN
 10
0.0
 20
0.0
  9
$LIMMAX
 10
22.0
 20
17.0
  9
$VIEWCTR
 10
11.0
 20
8.5
  9
$VIEWSIZE
 40
17.0
  9
$CLAYER
  8
0
  9
$LTSCALE
 40
1.21
  9
$CELTYPE
  6
BYLAYER
  9
$DIMSCALE
 40
1.0
  9
$DIMASZ
 40
0.1875
  9
$DIMEXO
 40
0.0625
  9
$DIMDLI
 40
0.836
  9
$DIMEXE
 40
0.125
  9
$DIMCEN
 40
0.198
  9
$DIMLFAC
 40
1.0
  9
$DIMBLK
  1
_FILLED
  9
$DIMTXT
 40
0.1
  9
$DIMTOL
 70
1
  9
$DIMLIM
 70
0
  9
$DIMTFAC
 40
1.0
  9
$DIMTP
 40
0.01
  9
$DIMTM
 40
0.01
  9
$DIMGAP
 40
0.09
  9
$DIMDSEP
 70
46
  9
$PDMODE
 70
3
  9
$PDSIZE
 40
0.3125
  9
$HANDSEED
  5
5F4
  9
$TILEMODE
 70
1
  9
$MEASUREMENT
 70
0
  9
$INSUNITS
 70
1
  0
ENDSEC
  0
SECTION
  2
CLASSES
  0
CLASS
  1
ACDBDICTIONARYWDFLT
  2
AcDbDictionaryWithDefault
  3
AutoCAD 2000
 90
0
 91
1
280
0
281
0
  0
CLASS
  1
ACDBPLACEHOLDER
  2
AcDbPlaceHolder
  3
AutoCAD 2000
 90
0
 91
1
280
0
281
0
  0
CLASS
  1
LAYOUT
  2
AcDbLayout
  3
AutoCAD 2000
 90
0
 91
0
280
0
281
0
  0
CLASS
  1
TABLESTYLE
  2
AcDbTableStyle
  3
ObjectDBX Classes
 90
2047
 91
1
280
0
281
0
  0
CLASS
  1
ACAD_TABLE
  2
AcDbTable
  3
ObjectDBX Classes
 90
1025
 91
1
280
0
281
1
  0
ENDSEC
  0
SECTION
  2
TABLES
  0
TABLE
  2
VPORT
  5
8
100
AcDbSymbolTable
 70
2
  0
VPORT
  5
1F4
100
AcDbSymbolTableRecord
100
AcDbViewportTableRecord
  2
*ACTIVE
 70
0
 10
0.0
 20
0.0
 11
1.0
 21
1.0
 12
11.0
 22
8.5
 13
0.0
 23
0.0
 14
1.0
 24
1.0
 15
0.0
 25
0.0
 16
0.0
 26
0.0
 36
1.0
 17
0.0
 27
0.0
 37
0.0
 40
17.0
 41
1.2941176471
 42
50.0
 43
0.0
 44
0.0
 50
0.0
 51
0.0
 71
0
 72
100
 73
1
 74
1
 75
0
 76
0
 77
0
 78
0
  0
ENDTAB
  0
TABLE
  2
LTYPE
  5
5
100
AcDbSymbolTable
 70
6
  0
LTYPE
  5
14
100
AcDbSymbolTableRecord
100
AcDbLinetypeTableRecord
  2
BYBLOCK
 70
0
  3

 72
65
 73
0
 40
0.0
  0
LTYPE
  5
15
100
AcDbSymbolTableRecord
100
AcDbLinetypeTableRecord
  2
BYLAYER
 70
0
  3

 72
65
 73
0
 40
0.0
  0
LTYPE
  5
16
100
AcDbSymbolTableRecord
100
AcDbLinetypeTableRecord
  2
CONTINUOUS
 70
64
  3
Solid line
 72
65
 73
0
 40
0.0
  0
LTYPE
  5
1F5
100
AcDbSymbolTableRecord
100
AcDbLinetypeTableRecord
  2
CENTER
 70
64
  3
____ _ ____ _ ____ _ ____ _ ____ _ ____ _ ____
 72
65
 73
4
 40
0.6
 49
0.375
 74
0
 49
-0.075
 74
0
 49
0.075
 74
0
 49
-0.075
 74
0
  0
LTYPE
  5
1F6
100
AcDbSymbolTableRecord
100
AcDbLinetypeTableRecord
  2
HIDDEN
 70
64
  3
- - - - - - - - - - - - - - - - - - - -
 72
65
 73
2
 40
0.2
 49
0.1
 74
0
 49
-0.1
 74
0
  0
LTYPE
  5
1F7
100
AcDbSymbolTableRecord
100
AcDbLinetypeTableRecord
  2
PHANTOM
 70
64
  3
_____ _ _ _____ _ _ _____ _ _ _____
 72
65
 73
6
 40
0.8
 49
0.45
 74
0
 49
-0.05
 74
0
 49
0.1
 74
0
 49
-0.05
 74
0
 49
0.1
 74
0
 49
-0.05
 74
0
  0
LTYPE
  5
1F8
100
AcDbSymbolTableRecord
100
AcDbLinetypeTableRecord
  2
DOT
 70
64
  3
. . . . . . . . . . . . . . . . . . . .
 72
65
 73
2
 40
0.2
 49
0.1
 74
0
 49
-0.1
 74
0
  0
LTYPE
  5
1F9
100
AcDbSymbolTableRecord
100
AcDbLinetypeTableRecord
  2
DASHED
 70
64
  3
- - - - - - - - - - - - - - - - - - - -
 72
65
 73
2
 40
0.2
 49
0.1
 74
0
 49
-0.1
 74
0
  0
ENDTAB
  0
TABLE
  2
LAYER
  5
2
100
AcDbSymbolTable
 70
36
  0
LAYER
  5
10
100
AcDbSymbolTableRecord
100
AcDbLayerTableRecord
  2
0
 70
0
 62
7
  6
CONTINUOUS
370
-3
390
F
  0
LAYER
  5
1FA
100
AcDbSymbolTableRecord
100
AcDbLayerTableRecord
  2
DEFAULT_1
 70
0
 62
7
  6
CENTER
370
-3
390
F
  0
LAYER
  5
1FB
100
AcDbSymbolTableRecord
100
AcDbLayerTableRecord
  2
DEFAULT_2
 70
0
 62
7
  6
HIDDEN
370
-3
390
F
  0
LAYER
  5
1FC
100
AcDbSymbolTableRecord
100
AcDbLayerTableRecord
  2
DEFAULT_3
 70
0
 62
7
  6
PHANTOM
370
-3
390
F
  0
LAYER
  5
1FD
100
AcDbSymbolTableRecord
100
AcDbLayerTableRecord
  2
01___PRT_ALL_DTM_PLN
 70
0
 62
7
  6
CONTINUOUS
370
-3
390
F
  0
LAYER
  5
1FE
100
AcDbSymbolTableRecord
100
AcDbLayerTableRecord
  2
01___PRT_DEF_DTM_PLN
 70
0
 62
7
  6
CONTINUOUS
370
-3
390
F
  0
LAYER
  5
1FF
100
AcDbSymbolTableRecord
100
AcDbLayerTableRecord
  2
02___PRT_ALL_AXES
 70
0
 62
7
  6
CONTINUOUS
370
-3
390
F
  0
LAYER
  5
200
100
AcDbSymbolTableRecord
100
AcDbLayerTableRecord
  2
03___PRT_ALL_CURVES
 70
0
 62
7
  6
CONTINUOUS
370
-3
390
F
  0
LAYER
  5
201
100
AcDbSymbolTableRecord
100
AcDbLayerTableRecord
  2
04___PRT_ALL_DTM_PNT
 70
0
 62
7
  6
CONTINUOUS
370
-3
390
F
  0
LAYER
  5
202
100
AcDbSymbolTableRecord
100
AcDbLayerTableRecord
  2
05___PRT_ALL_DTM_CSYS
 70
0
 62
7
  6
CONTINUOUS
370
-3
390
F
  0
LAYER
  5
203
100
AcDbSymbolTableRecord
100
AcDbLayerTableRecord
  2
05___PRT_DEF_DTM_CSYS
 70
0
 62
7
  6
CONTINUOUS
370
-3
390
F
  0
LAYER
  5
204
100
AcDbSymbolTableRecord
100
AcDbLayerTableRecord
  2
06___PRT_ALL_SURFS
 70
0
 62
7
  6
CONTINUOUS
370
-3
390
F
  0
LAYER
  5
205
100
AcDbSymbolTableRecord
100
AcDbLayerTableRecord
  2
61501
 70
0
 62
7
  6
CONTINUOUS
370
-3
390
F
  0
LAYER
  5
206
100
AcDbSymbolTableRecord
100
AcDbLayerTableRecord
  2
61584
 70
0
 62
7
  6
CONTINUOUS
370
-3
390
F
  0
LAYER
  5
207
100
AcDbSymbolTableRecord
100
AcDbLayerTableRecord
  2
61585
 70
0
 62
7
  6
CONTINUOUS
370
-3
390
F
  0
LAYER
  5
208
100
AcDbSymbolTableRecord
100
AcDbLayerTableRecord
  2
AXIS
 70
0
 62
7
  6
CONTINUOUS
370
-3
390
F
  0
LAYER
  5
209
100
AcDbSymbolTableRecord
100
AcDbLayerTableRecord
  2
AXIS_COSMETIC_THREADS
 70
0
 62
7
  6
CONTINUOUS
370
-3
390
F
  0
LAYER
  5
20A
100
AcDbSymbolTableRecord
100
AcDbLayerTableRecord
  2
DATUM_PLANES
 70
0
 62
7
  6
CONTINUOUS
370
-3
390
F
  0
LAYER
  5
20B
100
AcDbSymbolTableRecord
100
AcDbLayerTableRecord
  2
DRIVEN_DIMS
 70
0
 62
7
  6
CONTINUOUS
370
-3
390
F
  0
LAYER
  5
20C
100
AcDbSymbolTableRecord
100
AcDbLayerTableRecord
  2
G_DATUM
 70
0
 62
7
  6
CONTINUOUS
370
-3
390
F
  0
LAYER
  5
20D
100
AcDbSymbolTableRecord
100
AcDbLayerTableRecord
  2
NOTES
 70
0
 62
7
  6
CONTINUOUS
370
-3
390
F
  0
LAYER
  5
20E
100
AcDbSymbolTableRecord
100
AcDbLayerTableRecord
  2
QUILTS
 70
0
 62
7
  6
CONTINUOUS
370
-3
390
F
  0
LAYER
  5
20F
100
AcDbSymbolTableRecord
100
AcDbLayerTableRecord
  2
SCHEME_DIMS
 70
0
 62
7
  6
CONTINUOUS
370
-3
390
F
  0
LAYER
  5
210
100
AcDbSymbolTableRecord
100
AcDbLayerTableRecord
  2
SURFACE
 70
0
 62
7
  6
CONTINUOUS
370
-3
390
F
  0
LAYER
  5
211
100
AcDbSymbolTableRecord
100
AcDbLayerTableRecord
  2
SYMBOLS
 70
0
 62
7
  6
CONTINUOUS
370
-3
390
F
  0
LAYER
  5
212
100
AcDbSymbolTableRecord
100
AcDbLayerTableRecord
  2
XSEC_DATUMS
 70
0
 62
7
  6
CONTINUOUS
370
-3
390
F
  0
ENDTAB
  0
TABLE
  2
STYLE
  5
3
100
AcDbSymbolTable
 70
1
  0
STYLE
  5
11
100
AcDbSymbolTableRecord
100
AcDbTextStyleTableRecord
  2
STANDARD
 70
0
 40
0.0
 41
1.0
 50
0.0
 71
0
 42
0.2
  3
txt
  4

  0
STYLE
  5
213
100
AcDbSymbolTableRecord
100
AcDbTextStyleTableRecord
  2
TEXTSTYLE_1
 70
0
 40
0.0
 41
0.8
 50
0.0
 71
0
 42
0.2
  3
gdt
  4

  0
STYLE
  5
214
100
AcDbSymbolTableRecord
100
AcDbTextStyleTableRecord
  2
TEXTSTYLE_2
 70
0
 40
0.0
 41
0.8
 50
0.0
 71
0
 42
0.2
  3
txt
  4

  0
STYLE
  5
215
100
AcDbSymbolTableRecord
100
AcDbTextStyleTableRecord
  2
TEXTSTYLE_3
 70
0
 40
0.0
 41
0.9
 50
0.0
 71
0
 42
0.2
  3
txt
  4

  0
STYLE
  5
216
100
AcDbSymbolTableRecord
100
AcDbTextStyleTableRecord
  2
TEXTSTYLE_4
 70
0
 40
0.0
 41
0.85
 50
0.0
 71
0
 42
0.2
  3
txt
  4

  0
STYLE
  5
217
100
AcDbSymbolTableRecord
100
AcDbTextStyleTableRecord
  2
TEXTSTYLE_5
 70
0
 40
0.0
 41
0.75
 50
0.0
 71
0
 42
0.2
  3
txt
  4

  0
ENDTAB
  0
TABLE
  2
VIEW
  5
6
100
AcDbSymbolTable
 70
0
  0
ENDTAB
  0
TABLE
  2
UCS
  5
7
100
AcDbSymbolTable
 70
0
  0
ENDTAB
  0
TABLE
  2
APPID
  5
9
100
AcDbSymbolTable
 70
1
  0
APPID
  5
218
100
AcDbSymbolTableRecord
100
AcDbRegAppTableRecord
  2
ACAD
 70
0
  0
ENDTAB
  0
TABLE
  2
BLOCK_RECORD
  5
1
100
AcDbSymbolTable
 70
0
  0
BLOCK_RECORD
  5
219
100
AcDbSymbolTableRecord
100
AcDbBlockTableRecord
  2
*Model_Space
  0
BLOCK_RECORD
  5
21A
100
AcDbSymbolTableRecord
100
AcDbBlockTableRecord
  2
*Paper_Space
  0
BLOCK_RECORD
  5
21B
100
AcDbSymbolTableRecord
100
AcDbBlockTableRecord
  2
_FILLED
  0
BLOCK_RECORD
  5
21C
100
AcDbSymbolTableRecord
100
AcDbBlockTableRecord
  2
*D0
  0
BLOCK_RECORD
  5
21D
100
AcDbSymbolTableRecord
100
AcDbBlockTableRecord
  2
*D1
  0
BLOCK_RECORD
  5
21E
100
AcDbSymbolTableRecord
100
AcDbBlockTableRecord
  2
*D2
  0
BLOCK_RECORD
  5
21F
100
AcDbSymbolTableRecord
100
AcDbBlockTableRecord
  2
*D3
  0
BLOCK_RECORD
  5
220
100
AcDbSymbolTableRecord
100
AcDbBlockTableRecord
  2
*D4
  0
BLOCK_RECORD
  5
221
100
AcDbSymbolTableRecord
100
AcDbBlockTableRecord
  2
*D5
  0
BLOCK_RECORD
  5
222
100
AcDbSymbolTableRecord
100
AcDbBlockTableRecord
  2
*D6
  0
BLOCK_RECORD
  5
223
100
AcDbSymbolTableRecord
100
AcDbBlockTableRecord
  2
*D7
  0
BLOCK_RECORD
  5
224
100
AcDbSymbolTableRecord
100
AcDbBlockTableRecord
  2
*D8
  0
BLOCK_RECORD
  5
225
100
AcDbSymbolTableRecord
100
AcDbBlockTableRecord
  2
*T1
  0
ENDTAB
  0
TABLE
  2
DIMSTYLE
  5
A
100
AcDbSymbolTable
 70
1
100
AcDbDimStyleTable
 71
0
  0
DIMSTYLE
105
226
100
AcDbSymbolTableRecord
100
AcDbDimStyleTableRecord
  2
STANDARD
 70
0
  3

  4

 40
1.0
 41
0.1875
 42
0.0625
 43
0.38
 44
0.125
 45
0.0
 46
0.0
 47
0.01
 48
0.01
140
0.1
141
0.09
142
0.0
143
25.4
144
1.0
145
0.0
146
1.0
147
0.09
 71
1.0
 72
0.0
 73
1
 74
1
 75
0
 76
0
 77
0
 78
4
170
0
171
2
172
0
173
0
174
0
175
0
176
0
177
0
178
0
270
2
271
2
272
2
273
2
274
2
275
0
280
0
281
0
282
0
283
1
284
4
285
0
286
0
287
3
288
0
340
11
278
46
341
21B
342
21B
343
21B
344
21B
  0
DIMSTYLE
105
227
100
AcDbSymbolTableRecord
100
AcDbDimStyleTableRecord
  2
DIMSTYLE_1
 70
0
  3

  4

 40
1.0
 41
0.1875
 42
0.0625
 43
0.38
 44
0.125
 45
0.0
 46
0.0
 47
0.005
 48
0.005
140
0.1
141
0.09
142
0.0
143
25.4
144
1.0
145
0.0
146
1.0
147
0.1
 71
0.0
 72
0.0
 73
1
 74
1
 75
0
 76
0
 77
0
 78
4
170
0
171
2
172
0
173
0
174
0
175
0
176
0
177
0
178
0
270
2
271
1
272
1
273
2
274
2
275
0
280
0
281
0
282
0
283
1
284
4
285
0
286
0
287
3
288
0
340
11
278
46
341
21B
342
21B
343
21B
344
21B
  0
ENDTAB
  0
ENDSEC
  0
SECTION
  2
BLOCKS
  0
BLOCK
  5
20
100
AcDbEntity
  8
0
100
AcDbBlockBegin
  2
*Model_Space
 70
0
 10
0.0
 20
0.0
 30
0.0
  3
*Model_Space
  1

  0
ENDBLK
  5
21
100
AcDbEntity
  8
0
100
AcDbBlockEnd
  0
BLOCK
  5
1C
100
AcDbEntity
  8
0
100
AcDbBlockBegin
  2
*Paper_Space
 70
0
 10
0.0
 20
0.0
 30
0.0
  3
*Paper_Space
  1

  0
ENDBLK
  5
1D
100
AcDbEntity
  8
0
100
AcDbBlockEnd
  0
BLOCK
  5
228
100
AcDbEntity
  8
0
100
AcDbBlockBegin
  2
_FILLED
 70
64
 10
0.0
 20
0.0
  3
_FILLED
  1

  0
SOLID
  5
229
100
AcDbEntity
  8
0
  6
BYBLOCK
 62
0
100
AcDbTrace
 10
0.0
 20
0.0
 11
-1.0
 21
0.1666666667
 12
-1.0
 22
-0.1666666667
 13
-1.0
 23
-0.1666666667
  0
ENDBLK
  5
22A
100
AcDbEntity
  8
0
  6
BYBLOCK
 62
0
100
AcDbBlockEnd
  0
BLOCK
  5
22B
100
AcDbEntity
  8
DRIVEN_DIMS
100
AcDbBlockBegin
 62
7
  6
CONTINUOUS
  2
*D0
 70
65
 10
0.0
 20
0.0
  3
*D0
  1

  0
MTEXT
  5
22C
100
AcDbEntity
  8
DRIVEN_DIMS
100
AcDbMText
 62
7
  6
CONTINUOUS
  7
STANDARD
 71
2
 72
1
 10
13.2544863638
 20
8.1522114015
 30
0.0
 11
1.0
 21
0.0
 31
0.0
 44
0.9
  1
11.2\P[.44]
 40
0.1
 41
0.5
  0
LINE
  5
22D
100
AcDbEntity
  8
DRIVEN_DIMS
100
AcDbLine
 62
7
  6
CONTINUOUS
 10
15.2649863638
 20
8.2509908614
 11
13.1794863638
 21
8.2509908614
  0
LINE
  5
22E
100
AcDbEntity
  8
DRIVEN_DIMS
100
AcDbLine
 62
7
  6
CONTINUOUS
 10
13.8259863638
 20
7.8109908614
 11
13.1794863638
 21
7.8109908614
  0
LINE
  5
22F
100
AcDbEntity
  8
DRIVEN_DIMS
100
AcDbLine
 62
7
  6
CONTINUOUS
 10
13.3044863638
 20
8.2509908614
 11
13.3044863638
 21
8.6509908614
  0
LINE
  5
230
100
AcDbEntity
  8
DRIVEN_DIMS
100
AcDbLine
 62
7
  6
CONTINUOUS
 10
13.3044863638
 20
7.8109908614
 11
13.3044863638
 21
7.4109908614
  0
INSERT
  5
231
100
AcDbEntity
  8
DRIVEN_DIMS
100
AcDbBlockReference
 62
7
  6
CONTINUOUS
  2
_FILLED
 10
13.3044863638
 20
8.2509908614
 41
0.1875
 42
0.1875
 43
0.1875
 50
270.0
  0
INSERT
  5
232
100
AcDbEntity
  8
DRIVEN_DIMS
100
AcDbBlockReference
 62
7
  6
CONTINUOUS
  2
_FILLED
 10
13.3044863638
 20
7.8109908614
 41
0.1875
 42
0.1875
 43
0.1875
 50
90.0
  0
ENDBLK
  5
233
100
AcDbEntity
  8
0
  6
BYBLOCK
 62
0
100
AcDbBlockEnd
  0
BLOCK
  5
234
100
AcDbEntity
  8
DRIVEN_DIMS
100
AcDbBlockBegin
 62
7
  6
CONTINUOUS
  2
*D1
 70
65
 10
0.0
 20
0.0
  3
*D1
  1

  0
MTEXT
  5
235
100
AcDbEntity
  8
DRIVEN_DIMS
100
AcDbMText
 62
7
  6
CONTINUOUS
  7
STANDARD
 71
2
 72
1
 10
14.6159863638
 20
7.3609908614
 30
0.0
 11
1.0
 21
0.0
 31
0.0
 44
0.9
  1
46.3\P[1.82]
 40
0.1
 41
0.6
  0
LINE
  5
236
100
AcDbEntity
  8
DRIVEN_DIMS
100
AcDbLine
 62
7
  6
CONTINUOUS
 10
15.6274863638
 20
7.8884908614
 11
15.6274863638
 21
7.1859908614
  0
LINE
  5
237
100
AcDbEntity
  8
DRIVEN_DIMS
100
AcDbLine
 62
7
  6
CONTINUOUS
 10
13.8044863638
 20
7.8464908614
 11
13.8044863638
 21
7.1859908614
  0
LINE
  5
238
100
AcDbEntity
  8
DRIVEN_DIMS
100
AcDbLine
 62
7
  6
CONTINUOUS
 10
15.6274863638
 20
7.3109908614
 11
15.1159863638
 21
7.3109908614
  0
LINE
  5
239
100
AcDbEntity
  8
DRIVEN_DIMS
100
AcDbLine
 62
7
  6
CONTINUOUS
 10
13.8044863638
 20
7.3109908614
 11
14.3159863638
 21
7.3109908614
  0
INSERT
  5
23A
100
AcDbEntity
  8
DRIVEN_DIMS
100
AcDbBlockReference
 62
7
  6
CONTINUOUS
  2
_FILLED
 10
15.6274863638
 20
7.3109908614
 41
0.1875
 42
0.1875
 43
0.1875
  0
INSERT
  5
23B
100
AcDbEntity
  8
DRIVEN_DIMS
100
AcDbBlockReference
 62
7
  6
CONTINUOUS
  2
_FILLED
 10
13.8044863638
 20
7.3109908614
 41
0.1875
 42
0.1875
 43
0.1875
 50
180.0
  0
ENDBLK
  5
23C
100
AcDbEntity
  8
0
  6
BYBLOCK
 62
0
100
AcDbBlockEnd
  0
BLOCK
  5
23D
100
AcDbEntity
  8
DRIVEN_DIMS
100
AcDbBlockBegin
 62
7
  6
CONTINUOUS
  2
*D2
 70
65
 10
0.0
 20
0.0
  3
*D2
  1

  0
MTEXT
  5
23E
100
AcDbEntity
  8
DRIVEN_DIMS
100
AcDbMText
 62
7
  6
CONTINUOUS
  7
STANDARD
 71
2
 72
1
 10
2.2239656097
 20
8.4284908614
 30
0.0
 11
1.0
 21
0.0
 31
0.0
 44
0.9
  1
25.0\P[.99]
 40
0.1
 41
0.5
  0
LINE
  5
23F
100
AcDbEntity
  8
DRIVEN_DIMS
100
AcDbLine
 62
7
  6
CONTINUOUS
 10
2.7114656097
 20
8.7959908614
 11
2.1489656097
 21
8.7959908614
  0
LINE
  5
240
100
AcDbEntity
  8
DRIVEN_DIMS
100
AcDbLine
 62
7
  6
CONTINUOUS
 10
2.8014656097
 20
7.8109908614
 11
2.1489656097
 21
7.8109908614
  0
LINE
  5
241
100
AcDbEntity
  8
DRIVEN_DIMS
100
AcDbLine
 62
7
  6
CONTINUOUS
 10
2.2739656097
 20
8.7959908614
 11
2.2739656097
 21
8.5284908614
  0
LINE
  5
242
100
AcDbEntity
  8
DRIVEN_DIMS
100
AcDbLine
 62
7
  6
CONTINUOUS
 10
2.2739656097
 20
7.8109908614
 11
2.2739656097
 21
8.0784908614
  0
INSERT
  5
243
100
AcDbEntity
  8
DRIVEN_DIMS
100
AcDbBlockReference
 62
7
  6
CONTINUOUS
  2
_FILLED
 10
2.2739656097
 20
8.7959908614
 41
0.1875
 42
0.1875
 43
0.1875
 50
90.0
  0
INSERT
  5
244
100
AcDbEntity
  8
DRIVEN_DIMS
100
AcDbBlockReference
 62
7
  6
CONTINUOUS
  2
_FILLED
 10
2.2739656097
 20
7.8109908614
 41
0.1875
 42
0.1875
 43
0.1875
 50
270.0
  0
ENDBLK
  5
245
100
AcDbEntity
  8
0
  6
BYBLOCK
 62
0
100
AcDbBlockEnd
  0
BLOCK
  5
246
100
AcDbEntity
  8
DRIVEN_DIMS
100
AcDbBlockBegin
 62
7
  6
CONTINUOUS
  2
*D3
 70
65
 10
0.0
 20
0.0
  3
*D3
  1

  0
MTEXT
  5
247
100
AcDbEntity
  8
DRIVEN_DIMS
100
AcDbMText
 62
7
  6
CONTINUOUS
  7
STANDARD
 71
2
 72
1
 10
2.1739656097
 20
4.5321548626
 30
0.0
 11
1.0
 21
0.0
 31
0.0
 44
0.9
  1
61.0\P[2.40]
 40
0.1
 41
0.6
  0
LINE
  5
248
100
AcDbEntity
  8
DRIVEN_DIMS
100
AcDbLine
 62
7
  6
CONTINUOUS
 10
2.7779695467
 20
5.6821548626
 11
2.1489656097
 21
5.6821548626
  0
LINE
  5
249
100
AcDbEntity
  8
DRIVEN_DIMS
100
AcDbLine
 62
7
  6
CONTINUOUS
 10
2.7779695467
 20
3.2821548626
 11
2.1489656097
 21
3.2821548626
  0
LINE
  5
24A
100
AcDbEntity
  8
DRIVEN_DIMS
100
AcDbLine
 62
7
  6
CONTINUOUS
 10
2.2739656097
 20
5.6821548626
 11
2.2739656097
 21
4.6321548626
  0
LINE
  5
24B
100
AcDbEntity
  8
DRIVEN_DIMS
100
AcDbLine
 62
7
  6
CONTINUOUS
 10
2.2739656097
 20
3.2821548626
 11
2.2739656097
 21
4.1821548626
  0
INSERT
  5
24C
100
AcDbEntity
  8
DRIVEN_DIMS
100
AcDbBlockReference
 62
7
  6
CONTINUOUS
  2
_FILLED
 10
2.2739656097
 20
5.6821548626
 41
0.1875
 42
0.1875
 43
0.1875
 50
90.0
  0
INSERT
  5
24D
100
AcDbEntity
  8
DRIVEN_DIMS
100
AcDbBlockReference
 62
7
  6
CONTINUOUS
  2
_FILLED
 10
2.2739656097
 20
3.2821548626
 41
0.1875
 42
0.1875
 43
0.1875
 50
270.0
  0
ENDBLK
  5
24E
100
AcDbEntity
  8
0
  6
BYBLOCK
 62
0
100
AcDbBlockEnd
  0
BLOCK
  5
24F
100
AcDbEntity
  8
DRIVEN_DIMS
100
AcDbBlockBegin
 62
7
  6
CONTINUOUS
  2
*D4
 70
65
 10
0.0
 20
0.0
  3
*D4
  1

  0
MTEXT
  5
250
100
AcDbEntity
  8
DRIVEN_DIMS
100
AcDbMText
 62
7
  6
CONTINUOUS
  7
STANDARD
 71
2
 72
1
 10
2.2239656097
 20
3.0956548626
 30
0.0
 11
1.0
 21
0.0
 31
0.0
 44
0.9
  1
15.8\P[.62]
 40
0.1
 41
0.5
  0
LINE
  5
251
100
AcDbEntity
  8
DRIVEN_DIMS
100
AcDbLine
 62
7
  6
CONTINUOUS
 10
2.7779695467
 20
3.2821548626
 11
2.1489656097
 21
3.2821548626
  0
LINE
  5
252
100
AcDbEntity
  8
DRIVEN_DIMS
100
AcDbLine
 62
7
  6
CONTINUOUS
 10
2.7019716644
 20
2.6591548626
 11
2.1489656097
 21
2.6591548626
  0
LINE
  5
253
100
AcDbEntity
  8
DRIVEN_DIMS
100
AcDbLine
 62
7
  6
CONTINUOUS
 10
2.2739656097
 20
3.2821548626
 11
2.2739656097
 21
3.6821548626
  0
LINE
  5
254
100
AcDbEntity
  8
DRIVEN_DIMS
100
AcDbLine
 62
7
  6
CONTINUOUS
 10
2.2739656097
 20
2.6591548626
 11
2.2739656097
 21
2.2591548626
  0
INSERT
  5
255
100
AcDbEntity
  8
DRIVEN_DIMS
100
AcDbBlockReference
 62
7
  6
CONTINUOUS
  2
_FILLED
 10
2.2739656097
 20
3.2821548626
 41
0.1875
 42
0.1875
 43
0.1875
 50
270.0
  0
INSERT
  5
256
100
AcDbEntity
  8
DRIVEN_DIMS
100
AcDbBlockReference
 62
7
  6
CONTINUOUS
  2
_FILLED
 10
2.2739656097
 20
2.6591548626
 41
0.1875
 42
0.1875
 43
0.1875
 50
90.0
  0
ENDBLK
  5
257
100
AcDbEntity
  8
0
  6
BYBLOCK
 62
0
100
AcDbBlockEnd
  0
BLOCK
  5
258
100
AcDbEntity
  8
DRIVEN_DIMS
100
AcDbBlockBegin
 62
7
  6
CONTINUOUS
  2
*D5
 70
65
 10
0.0
 20
0.0
  3
*D5
  1

  0
MTEXT
  5
259
100
AcDbEntity
  8
DRIVEN_DIMS
100
AcDbMText
 62
7
  6
CONTINUOUS
  7
STANDARD
 71
2
 72
1
 10
4.8469656097
 20
2.2091548626
 30
0.0
 11
1.0
 21
0.0
 31
0.0
 44
0.9
  1
94.0\P[3.70]
 40
0.1
 41
0.6
  0
LINE
  5
25A
100
AcDbEntity
  8
DRIVEN_DIMS
100
AcDbLine
 62
7
  6
CONTINUOUS
 10
3.0969656097
 20
2.9631587996
 11
3.0969656097
 21
2.0341548626
  0
LINE
  5
25B
100
AcDbEntity
  8
DRIVEN_DIMS
100
AcDbLine
 62
7
  6
CONTINUOUS
 10
6.7969656097
 20
2.9631587996
 11
6.7969656097
 21
2.0341548626
  0
LINE
  5
25C
100
AcDbEntity
  8
DRIVEN_DIMS
100
AcDbLine
 62
7
  6
CONTINUOUS
 10
3.0969656097
 20
2.1591548626
 11
4.5469656097
 21
2.1591548626
  0
LINE
  5
25D
100
AcDbEntity
  8
DRIVEN_DIMS
100
AcDbLine
 62
7
  6
CONTINUOUS
 10
6.7969656097
 20
2.1591548626
 11
5.3469656097
 21
2.1591548626
  0
INSERT
  5
25E
100
AcDbEntity
  8
DRIVEN_DIMS
100
AcDbBlockReference
 62
7
  6
CONTINUOUS
  2
_FILLED
 10
3.0969656097
 20
2.1591548626
 41
0.1875
 42
0.1875
 43
0.1875
 50
180.0
  0
INSERT
  5
25F
100
AcDbEntity
  8
DRIVEN_DIMS
100
AcDbBlockReference
 62
7
  6
CONTINUOUS
  2
_FILLED
 10
6.7969656097
 20
2.1591548626
 41
0.1875
 42
0.1875
 43
0.1875
  0
ENDBLK
  5
260
100
AcDbEntity
  8
0
  6
BYBLOCK
 62
0
100
AcDbBlockEnd
  0
BLOCK
  5
261
100
AcDbEntity
  8
DRIVEN_DIMS
100
AcDbBlockBegin
 62
7
  6
CONTINUOUS
  2
*D6
 70
65
 10
0.0
 20
0.0
  3
*D6
  1

  0
MTEXT
  5
262
100
AcDbEntity
  8
DRIVEN_DIMS
100
AcDbMText
 62
7
  6
CONTINUOUS
  7
STANDARD
 71
1
 72
1
 10
7.6513687333
 20
2.2091548626
 30
0.0
 11
1.0
 21
0.0
 31
0.0
 44
0.9
  1
8.2\P[.32]
 40
0.1
 41
0.5
  0
LINE
  5
263
100
AcDbEntity
  8
DRIVEN_DIMS
100
AcDbLine
 62
7
  6
CONTINUOUS
 10
6.7969656097
 20
2.9631587996
 11
6.7969656097
 21
2.0341548626
  0
LINE
  5
264
100
AcDbEntity
  8
DRIVEN_DIMS
100
AcDbLine
 62
7
  6
CONTINUOUS
 10
7.1199656097
 20
2.59490789
 11
7.1199656097
 21
2.0341548626
  0
LINE
  5
265
100
AcDbEntity
  8
DRIVEN_DIMS
100
AcDbLine
 62
7
  6
CONTINUOUS
 10
6.7969656097
 20
2.1591548626
 11
6.3969656097
 21
2.1591548626
  0
LINE
  5
266
100
AcDbEntity
  8
DRIVEN_DIMS
100
AcDbLine
 62
7
  6
CONTINUOUS
 10
7.1199656097
 20
2.1591548626
 11
7.5513687333
 21
2.1591548626
  0
INSERT
  5
267
100
AcDbEntity
  8
DRIVEN_DIMS
100
AcDbBlockReference
 62
7
  6
CONTINUOUS
  2
_FILLED
 10
6.7969656097
 20
2.1591548626
 41
0.1875
 42
0.1875
 43
0.1875
  0
INSERT
  5
268
100
AcDbEntity
  8
DRIVEN_DIMS
100
AcDbBlockReference
 62
7
  6
CONTINUOUS
  2
_FILLED
 10
7.1199656097
 20
2.1591548626
 41
0.1875
 42
0.1875
 43
0.1875
 50
180.0
  0
ENDBLK
  5
269
100
AcDbEntity
  8
0
  6
BYBLOCK
 62
0
100
AcDbBlockEnd
  0
BLOCK
  5
26A
100
AcDbEntity
  8
DRIVEN_DIMS
100
AcDbBlockBegin
 62
7
  6
CONTINUOUS
  2
*D7
 70
65
 10
0.0
 20
0.0
  3
*D7
  1

  0
MTEXT
  5
26B
100
AcDbEntity
  8
DRIVEN_DIMS
100
AcDbMText
 62
7
  6
CONTINUOUS
  7
STANDARD
 71
2
 72
1
 10
2.1739656097
 20
12.2810444246
 30
0.0
 11
1.0
 21
0.0
 31
0.0
 44
0.9
  1
92.6\P[3.65]
 40
0.1
 41
0.6
  0
LINE
  5
26C
100
AcDbEntity
  8
DRIVEN_DIMS
100
AcDbLine
 62
7
  6
CONTINUOUS
 10
2.7114656097
 20
10.3330444246
 11
2.1489656097
 21
10.3330444246
  0
LINE
  5
26D
100
AcDbEntity
  8
DRIVEN_DIMS
100
AcDbLine
 62
7
  6
CONTINUOUS
 10
2.7114656097
 20
13.9790444246
 11
2.1489656097
 21
13.9790444246
  0
LINE
  5
26E
100
AcDbEntity
  8
DRIVEN_DIMS
100
AcDbLine
 62
7
  6
CONTINUOUS
 10
2.2739656097
 20
10.3330444246
 11
2.2739656097
 21
11.9310444246
  0
LINE
  5
26F
100
AcDbEntity
  8
DRIVEN_DIMS
100
AcDbLine
 62
7
  6
CONTINUOUS
 10
2.2739656097
 20
13.9790444246
 11
2.2739656097
 21
12.3810444246
  0
INSERT
  5
270
100
AcDbEntity
  8
DRIVEN_DIMS
100
AcDbBlockReference
 62
7
  6
CONTINUOUS
  2
_FILLED
 10
2.2739656097
 20
10.3330444246
 41
0.1875
 42
0.1875
 43
0.1875
 50
270.0
  0
INSERT
  5
271
100
AcDbEntity
  8
DRIVEN_DIMS
100
AcDbBlockReference
 62
7
  6
CONTINUOUS
  2
_FILLED
 10
2.2739656097
 20
13.9790444246
 41
0.1875
 42
0.1875
 43
0.1875
 50
90.0
  0
ENDBLK
  5
272
100
AcDbEntity
  8
0
  6
BYBLOCK
 62
0
100
AcDbBlockEnd
  0
BLOCK
  5
273
100
AcDbEntity
  8
DRIVEN_DIMS
100
AcDbBlockBegin
 62
7
  6
CONTINUOUS
  2
*D8
 70
65
 10
0.0
 20
0.0
  3
*D8
  1

  0
MTEXT
  5
274
100
AcDbEntity
  8
DRIVEN_DIMS
100
AcDbMText
 62
7
  6
CONTINUOUS
  7
STANDARD
 71
2
 72
1
 10
4.8969656097
 20
14.5290444246
 30
0.0
 11
1.0
 21
0.0
 31
0.0
 44
0.9
  1
110.4\P[4.35]
 40
0.1
 41
0.6
  0
LINE
  5
275
100
AcDbEntity
  8
DRIVEN_DIMS
100
AcDbLine
 62
7
  6
CONTINUOUS
 10
2.7739656097
 20
13.9935444246
 11
2.7739656097
 21
14.6040444246
  0
LINE
  5
276
100
AcDbEntity
  8
DRIVEN_DIMS
100
AcDbLine
 62
7
  6
CONTINUOUS
 10
7.1199656097
 20
13.9935444246
 11
7.1199656097
 21
14.6040444246
  0
LINE
  5
277
100
AcDbEntity
  8
DRIVEN_DIMS
100
AcDbLine
 62
7
  6
CONTINUOUS
 10
2.7739656097
 20
14.4790444246
 11
4.5469656097
 21
14.4790444246
  0
LINE
  5
278
100
AcDbEntity
  8
DRIVEN_DIMS
100
AcDbLine
 62
7
  6
CONTINUOUS
 10
7.1199656097
 20
14.4790444246
 11
5.3469656097
 21
14.4790444246
  0
INSERT
  5
279
100
AcDbEntity
  8
DRIVEN_DIMS
100
AcDbBlockReference
 62
7
  6
CONTINUOUS
  2
_FILLED
 10
2.7739656097
 20
14.4790444246
 41
0.1875
 42
0.1875
 43
0.1875
 50
180.0
  0
INSERT
  5
27A
100
AcDbEntity
  8
DRIVEN_DIMS
100
AcDbBlockReference
 62
7
  6
CONTINUOUS
  2
_FILLED
 10
7.1199656097
 20
14.4790444246
 41
0.1875
 42
0.1875
 43
0.1875
  0
ENDBLK
  5
27B
100
AcDbEntity
  8
0
  6
BYBLOCK
 62
0
100
AcDbBlockEnd
  0
BLOCK
  5
27C
100
AcDbEntity
  8
0
100
AcDbBlockBegin
  2
*T1
 70
1
 10
0.0
 20
0.0
  3
*T1
  1

  0
LINE
  5
27D
100
AcDbEntity
  8
0
100
AcDbLine
 62
7
  6
CONTINUOUS
 10
4.35
 20
0.0
 11
0.0
 21
0.0
  0
LINE
  5
27E
100
AcDbEntity
  8
0
100
AcDbLine
 62
7
  6
CONTINUOUS
 10
4.35
 20
0.0
 11
4.35
 21
1.92
  0
LINE
  5
27F
100
AcDbEntity
  8
0
100
AcDbLine
 62
7
  6
CONTINUOUS
 10
4.35
 20
1.92
 11
0.0
 21
1.92
  0
LINE
  5
280
100
AcDbEntity
  8
0
100
AcDbLine
 62
7
  6
CONTINUOUS
 10
0.0
 20
0.0
 11
0.0
 21
1.92
  0
MTEXT
  5
281
100
AcDbEntity
  8
NOTES
100
AcDbMText
 62
7
  6
CONTINUOUS
  7
STANDARD
 71
2
 72
1
 10
4.125
 20
0.48
 30
0.0
 11
1.0
 21
0.0
 31
0.0
 44
0.9
  1
A
 40
0.1
 41
0.2
  0
MTEXT
  5
282
100
AcDbEntity
  8
NOTES
100
AcDbMText
 62
7
  6
CONTINUOUS
  7
STANDARD
 71
2
 72
1
 10
2.175
 20
1.08
 30
0.0
 11
1.0
 21
0.0
 31
0.0
 44
0.9
  1
LED(N)B70X70M SERIES\P 
 40
0.1
 41
4.0
  0
ENDBLK
  5
283
100
AcDbEntity
  8
0
  6
BYBLOCK
 62
0
100
AcDbBlockEnd
  0
ENDSEC
  0
SECTION
  2
ENTITIES
  0
MTEXT
  5
284
100
AcDbEntity
  8
0
100
AcDbMText
 62
7
  6
CONTINUOUS
  7
TEXTSTYLE_2
 71
2
 72
1
 10
15.7174677477
 20
1.6655662523
 30
0.0
 11
1.0
 21
0.0
 31
0.0
 44
0.9
  1
THIRD ANGLE PROJECTION
 40
0.1
 41
1.76
  0
MTEXT
  5
285
100
AcDbEntity
  8
0
100
AcDbMText
 62
7
  6
CONTINUOUS
  7
STANDARD
 71
1
 72
1
 10
17.55
 20
1.32
 30
0.0
 11
1.0
 21
0.0
 31
0.0
 44
0.9
  1
DRAWING NO.
 40
0.08
 41
0.88
  0
MTEXT
  5
286
100
AcDbEntity
  8
0
100
AcDbMText
 62
7
  6
CONTINUOUS
  7
TEXTSTYLE_2
 71
1
 72
1
 10
16.75
 20
2.08
 30
0.0
 11
1.0
 21
0.0
 31
0.0
 44
0.9
  1
TITLE
 40
0.1
 41
0.4
  0
MTEXT
  5
287
100
AcDbEntity
  8
0
100
AcDbMText
 62
7
  6
CONTINUOUS
  7
STANDARD
 71
1
 72
1
 10
16.75
 20
1.32
 30
0.0
 11
1.0
 21
0.0
 31
0.0
 44
0.9
  1
SIZE
 40
0.08
 41
0.32
  0
MTEXT
  5
288
100
AcDbEntity
  8
0
100
AcDbMText
 62
7
  6
CONTINUOUS
  7
STANDARD
 71
1
 72
1
 10
16.75
 20
0.95
 30
0.0
 11
1.0
 21
0.0
 31
0.0
 44
0.9
  1
SCALE
 40
0.08
 41
0.4
  0
MTEXT
  5
289
100
AcDbEntity
  8
0
100
AcDbMText
 62
7
  6
CONTINUOUS
  7
TEXTSTYLE_2
 71
2
 72
1
 10
17.17
 20
1.2
 30
0.0
 11
1.0
 21
0.0
 31
0.0
 44
0.9
  1
C
 40
0.1
 41
0.08
  0
MTEXT
  5
28A
100
AcDbEntity
  8
0
100
AcDbMText
 62
7
  6
CONTINUOUS
  7
STANDARD
 71
1
 72
1
 10
18.925
 20
0.95
 30
0.0
 11
1.0
 21
0.0
 31
0.0
 44
0.9
  1
SHEET
 40
0.08
 41
0.4
  0
MTEXT
  5
28B
100
AcDbEntity
  8
0
100
AcDbMText
 62
7
  6
CONTINUOUS
  7
STANDARD
 71
1
 72
1
 10
20.3
 20
1.32
 30
0.0
 11
1.0
 21
0.0
 31
0.0
 44
0.9
  1
REV.
 40
0.08
 41
0.32
  0
MTEXT
  5
28C
100
AcDbEntity
  8
0
100
AcDbMText
 62
7
  6
CONTINUOUS
  7
STANDARD
 71
3
 72
1
 10
21.05
 20
0.698443
 30
0.0
 11
1.0
 21
0.0
 31
0.0
 44
0.9
  1
CREO
 40
0.07
 41
0.28
  0
MTEXT
  5
28D
100
AcDbEntity
  8
0
100
AcDbMText
 62
7
  6
CONTINUOUS
  7
TEXTSTYLE_2
 71
2
 72
1
 10
12.257
 20
15.95
 30
0.0
 11
1.0
 21
0.0
 31
0.0
 44
0.9
  1
4
 40
0.1
 41
0.08
  0
MTEXT
  5
28E
100
AcDbEntity
  8
0
100
AcDbMText
 62
7
  6
CONTINUOUS
  7
TEXTSTYLE_2
 71
2
 72
1
 10
12.257
 20
0.65
 30
0.0
 11
1.0
 21
0.0
 31
0.0
 44
0.9
  1
4
 40
0.1
 41
0.08
  0
MTEXT
  5
28F
100
AcDbEntity
  8
0
100
AcDbMText
 62
7
  6
CONTINUOUS
  7
TEXTSTYLE_2
 71
3
 72
1
 10
0.864
 20
6.375
 30
0.0
 11
1.0
 21
0.0
 31
0.0
 44
0.9
  1
B
 40
0.1
 41
0.08
  0
MTEXT
  5
290
100
AcDbEntity
  8
0
100
AcDbMText
 62
7
  6
CONTINUOUS
  7
TEXTSTYLE_2
 71
1
 72
1
 10
21.15
 20
6.375
 30
0.0
 11
1.0
 21
0.0
 31
0.0
 44
0.9
  1
B
 40
0.1
 41
0.08
  0
MTEXT
  5
291
100
AcDbEntity
  8
0
100
AcDbMText
 62
7
  6
CONTINUOUS
  7
TEXTSTYLE_2
 71
3
 72
1
 10
0.864
 20
2.525
 30
0.0
 11
1.0
 21
0.0
 31
0.0
 44
0.9
  1
A
 40
0.1
 41
0.08
  0
MTEXT
  5
292
100
AcDbEntity
  8
0
100
AcDbMText
 62
7
  6
CONTINUOUS
  7
TEXTSTYLE_2
 71
1
 72
1
 10
21.15
 20
2.525
 30
0.0
 11
1.0
 21
0.0
 31
0.0
 44
0.9
  1
A
 40
0.1
 41
0.08
  0
MTEXT
  5
293
100
AcDbEntity
  8
0
100
AcDbMText
 62
7
  6
CONTINUOUS
  7
TEXTSTYLE_2
 71
3
 72
1
 10
0.864
 20
14.075
 30
0.0
 11
1.0
 21
0.0
 31
0.0
 44
0.9
  1
D
 40
0.1
 41
0.08
  0
MTEXT
  5
294
100
AcDbEntity
  8
0
100
AcDbMText
 62
7
  6
CONTINUOUS
  7
TEXTSTYLE_2
 71
1
 72
1
 10
21.15
 20
14.075
 30
0.0
 11
1.0
 21
0.0
 31
0.0
 44
0.9
  1
D
 40
0.1
 41
0.08
  0
MTEXT
  5
295
100
AcDbEntity
  8
0
100
AcDbMText
 62
7
  6
CONTINUOUS
  7
TEXTSTYLE_2
 71
3
 72
1
 10
0.864
 20
10.225
 30
0.0
 11
1.0
 21
0.0
 31
0.0
 44
0.9
  1
C
 40
0.1
 41
0.08
  0
MTEXT
  5
296
100
AcDbEntity
  8
0
100
AcDbMText
 62
7
  6
CONTINUOUS
  7
TEXTSTYLE_2
 71
1
 72
1
 10
21.15
 20
10.225
 30
0.0
 11
1.0
 21
0.0
 31
0.0
 44
0.9
  1
C
 40
0.1
 41
0.08
  0
MTEXT
  5
297
100
AcDbEntity
  8
0
100
AcDbMText
 62
7
  6
CONTINUOUS
  7
TEXTSTYLE_2
 71
2
 72
1
 10
14.757
 20
0.65
 30
0.0
 11
1.0
 21
0.0
 31
0.0
 44
0.9
  1
3
 40
0.1
 41
0.08
  0
MTEXT
  5
298
100
AcDbEntity
  8
0
100
AcDbMText
 62
7
  6
CONTINUOUS
  7
TEXTSTYLE_2
 71
2
 72
1
 10
14.757
 20
15.95
 30
0.0
 11
1.0
 21
0.0
 31
0.0
 44
0.9
  1
3
 40
0.1
 41
0.08
  0
MTEXT
  5
299
100
AcDbEntity
  8
0
100
AcDbMText
 62
7
  6
CONTINUOUS
  7
TEXTSTYLE_2
 71
2
 72
1
 10
17.257
 20
15.95
 30
0.0
 11
1.0
 21
0.0
 31
0.0
 44
0.9
  1
2
 40
0.1
 41
0.08
  0
MTEXT
  5
29A
100
AcDbEntity
  8
0
100
AcDbMText
 62
7
  6
CONTINUOUS
  7
TEXTSTYLE_2
 71
2
 72
1
 10
17.257
 20
0.65
 30
0.0
 11
1.0
 21
0.0
 31
0.0
 44
0.9
  1
2
 40
0.1
 41
0.08
  0
MTEXT
  5
29B
100
AcDbEntity
  8
0
100
AcDbMText
 62
7
  6
CONTINUOUS
  7
TEXTSTYLE_2
 71
2
 72
1
 10
19.757
 20
0.65
 30
0.0
 11
1.0
 21
0.0
 31
0.0
 44
0.9
  1
1
 40
0.1
 41
0.08
  0
MTEXT
  5
29C
100
AcDbEntity
  8
0
100
AcDbMText
 62
7
  6
CONTINUOUS
  7
TEXTSTYLE_2
 71
2
 72
1
 10
19.757
 20
15.95
 30
0.0
 11
1.0
 21
0.0
 31
0.0
 44
0.9
  1
1
 40
0.1
 41
0.08
  0
MTEXT
  5
29D
100
AcDbEntity
  8
0
100
AcDbMText
 62
7
  6
CONTINUOUS
  7
TEXTSTYLE_2
 71
2
 72
1
 10
2.257
 20
0.65
 30
0.0
 11
1.0
 21
0.0
 31
0.0
 44
0.9
  1
8
 40
0.1
 41
0.08
  0
MTEXT
  5
29E
100
AcDbEntity
  8
0
100
AcDbMText
 62
7
  6
CONTINUOUS
  7
TEXTSTYLE_2
 71
2
 72
1
 10
4.757
 20
0.65
 30
0.0
 11
1.0
 21
0.0
 31
0.0
 44
0.9
  1
7
 40
0.1
 41
0.08
  0
MTEXT
  5
29F
100
AcDbEntity
  8
0
100
AcDbMText
 62
7
  6
CONTINUOUS
  7
TEXTSTYLE_2
 71
2
 72
1
 10
7.257
 20
0.65
 30
0.0
 11
1.0
 21
0.0
 31
0.0
 44
0.9
  1
6
 40
0.1
 41
0.08
  0
MTEXT
  5
2A0
100
AcDbEntity
  8
0
100
AcDbMText
 62
7
  6
CONTINUOUS
  7
TEXTSTYLE_2
 71
2
 72
1
 10
9.757
 20
0.65
 30
0.0
 11
1.0
 21
0.0
 31
0.0
 44
0.9
  1
5
 40
0.1
 41
0.08
  0
MTEXT
  5
2A1
100
AcDbEntity
  8
0
100
AcDbMText
 62
7
  6
CONTINUOUS
  7
TEXTSTYLE_2
 71
2
 72
1
 10
9.757
 20
15.95
 30
0.0
 11
1.0
 21
0.0
 31
0.0
 44
0.9
  1
5
 40
0.1
 41
0.08
  0
MTEXT
  5
2A2
100
AcDbEntity
  8
0
100
AcDbMText
 62
7
  6
CONTINUOUS
  7
TEXTSTYLE_2
 71
2
 72
1
 10
7.257
 20
15.95
 30
0.0
 11
1.0
 21
0.0
 31
0.0
 44
0.9
  1
6
 40
0.1
 41
0.08
  0
MTEXT
  5
2A3
100
AcDbEntity
  8
0
100
AcDbMText
 62
7
  6
CONTINUOUS
  7
TEXTSTYLE_2
 71
2
 72
1
 10
4.757
 20
15.95
 30
0.0
 11
1.0
 21
0.0
 31
0.0
 44
0.9
  1
7
 40
0.1
 41
0.08
  0
MTEXT
  5
2A4
100
AcDbEntity
  8
0
100
AcDbMText
 62
7
  6
CONTINUOUS
  7
TEXTSTYLE_2
 71
2
 72
1
 10
2.257
 20
15.95
 30
0.0
 11
1.0
 21
0.0
 31
0.0
 44
0.9
  1
8
 40
0.1
 41
0.08
  0
MTEXT
  5
2A5
100
AcDbEntity
  8
0
100
AcDbMText
 62
7
  6
CONTINUOUS
  7
STANDARD
 71
1
 72
1
 10
17.2749123633
 20
0.9184107931
 30
0.0
 11
1.0
 21
0.0
 31
0.0
 44
0.9
  1
1:1
 40
0.1
 41
0.3
  0
MTEXT
  5
2A6
100
AcDbEntity
  8
0
100
AcDbMText
 62
7
  6
CONTINUOUS
  7
STANDARD
 71
1
 72
1
 10
19.4499123633
 20
0.9184107931
 30
0.0
 11
1.0
 21
0.0
 31
0.0
 44
0.9
  1
1 OF 1
 40
0.1
 41
0.6
  0
MTEXT
  5
2A7
100
AcDbEntity
  8
0
100
AcDbMText
 62
7
  6
CONTINUOUS
  7
STANDARD
 71
1
 72
1
 10
18.5204017884
 20
1.2400373234
 30
0.0
 11
1.0
 21
0.0
 31
0.0
 44
0.9
  1
192819
 40
0.12
 41
0.72
  0
MTEXT
  5
2A8
100
AcDbEntity
  8
0
100
AcDbMText
 62
7
  6
CONTINUOUS
  7
STANDARD
 71
1
 72
1
 10
1.2857894151
 20
1.4458068967
 30
0.0
 11
1.0
 21
0.0
 31
0.0
 44
0.9
  1
NOTES:\P1. ALL DIMENSIONS ARE MILLIMETERS [INCHES] UNLESS OTHERWISE NOTED.\P2. REFER TO "www.bannerengineering.com" FOR ADDITIONAL DATA AND SPECIFICATIONS.
 40
0.1
 41
7.9
  0
MTEXT
  5
2A9
100
AcDbEntity
  8
0
100
AcDbMText
 62
7
  6
CONTINUOUS
  7
TEXTSTYLE_3
 71
2
 72
1
 10
19.7555637832
 20
2.555409194
 30
0.0
 11
1.0
 21
0.0
 31
0.0
 44
0.9
  1
BANNER ENGINEERING CORP.
 40
0.12
 41
2.592
  0
MTEXT
  5
2AA
100
AcDbEntity
  8
0
100
AcDbMText
 62
7
  6
CONTINUOUS
  7
TEXTSTYLE_2
 71
2
 72
1
 10
19.6690932526
 20
2.3442032634
 30
0.0
 11
1.0
 21
0.0
 31
0.0
 44
0.9
  1
www.bannerengineering.com
 40
0.1
 41
2.0
  0
MTEXT
  5
2AB
100
AcDbEntity
  8
0
100
AcDbMText
 62
7
  6
CONTINUOUS
  7
TEXTSTYLE_4
 71
2
 72
1
 10
15.7104628329
 20
2.6377571551
 30
0.0
 11
1.0
 21
0.0
 31
0.0
 44
0.9
  1
This drawing is the property\Pof BANNER ENGINEERING CORP.\PAny use or reproduction,\Pin any form, without prior\Pwritten permission of\PBanner is prohibited.
 40
0.08
 41
1.904
  0
MTEXT
  5
2AC
100
AcDbEntity
  8
0
100
AcDbMText
 62
7
  6
CONTINUOUS
  7
TEXTSTYLE_5
 71
2
 72
1
 10
15.7283993136
 20
1.9032170366
 30
0.0
 11
1.0
 21
0.0
 31
0.0
 44
0.9
  1
C  2015 Banner Engineering Corp.
 40
0.08
 41
1.92
  0
DIMENSION
  5
2AD
100
AcDbEntity
  8
DRIVEN_DIMS
100
AcDbDimension
 62
7
  6
CONTINUOUS
  2
*D0
 10
13.3044863638
 20
7.8109908614
 11
13.3044863638
 21
8.0272114015
 70
160
 71
2
 42
11.176
  3
DIMSTYLE_1
100
AcDbAlignedDimension
 13
15.3274863638
 23
8.2509908614
 14
13.8884863638
 24
7.8109908614
 50
270.0
100
AcDbRotatedDimension
  0
DIMENSION
  5
2AE
100
AcDbEntity
  8
DRIVEN_DIMS
100
AcDbDimension
 62
7
  6
CONTINUOUS
  2
*D1
 10
13.8044863638
 20
7.3109908614
 11
14.7159863638
 21
7.2359908614
 70
160
 71
2
 42
46.3042
  3
DIMSTYLE_1
100
AcDbAlignedDimension
 13
15.6274863638
 23
7.9509908614
 14
13.8044863638
 24
7.9089908614
 50
180.0
100
AcDbRotatedDimension
  0
DIMENSION
  5
2AF
100
AcDbEntity
  8
DRIVEN_DIMS
100
AcDbDimension
 62
7
  6
CONTINUOUS
  2
*D2
 10
2.2739656097
 20
7.8109908614
 11
2.2739656097
 21
8.3034908614
 70
160
 71
2
 42
25.019
  3
DIMSTYLE_1
100
AcDbAlignedDimension
 13
2.7739656097
 23
8.7959908614
 14
2.8639656097
 24
7.8109908614
 50
270.0
100
AcDbRotatedDimension
  0
DIMENSION
  5
2B0
100
AcDbEntity
  8
DRIVEN_DIMS
100
AcDbDimension
 62
7
  6
CONTINUOUS
  2
*D3
 10
2.2739656097
 20
3.2821548626
 11
2.2739656097
 21
4.4071548626
 70
160
 71
2
 42
60.96
  3
DIMSTYLE_1
100
AcDbAlignedDimension
 13
2.8404695467
 23
5.6821548626
 14
2.8404695467
 24
3.2821548626
 50
270.0
100
AcDbRotatedDimension
  0
DIMENSION
  5
2B1
100
AcDbEntity
  8
DRIVEN_DIMS
100
AcDbDimension
 62
7
  6
CONTINUOUS
  2
*D4
 10
2.2739656097
 20
2.6591548626
 11
2.2739656097
 21
2.9706548626
 70
160
 71
2
 42
15.8242
  3
DIMSTYLE_1
100
AcDbAlignedDimension
 13
2.8404695467
 23
3.2821548626
 14
2.7644716644
 24
2.6591548626
 50
270.0
100
AcDbRotatedDimension
  0
DIMENSION
  5
2B2
100
AcDbEntity
  8
DRIVEN_DIMS
100
AcDbDimension
 62
7
  6
CONTINUOUS
  2
*D5
 10
6.7969656097
 20
2.1591548626
 11
4.9469656097
 21
2.0841548626
 70
160
 71
2
 42
93.98
  3
DIMSTYLE_1
100
AcDbAlignedDimension
 13
3.0969656097
 23
3.0256587996
 14
6.7969656097
 24
3.0256587996
100
AcDbRotatedDimension
  0
DIMENSION
  5
2B3
100
AcDbEntity
  8
DRIVEN_DIMS
100
AcDbDimension
 62
7
  6
CONTINUOUS
  2
*D6
 10
7.1199656097
 20
2.1591548626
 11
7.9013687333
 21
2.0841548626
 70
160
 71
1
 42
8.2042
  3
DIMSTYLE_1
100
AcDbAlignedDimension
 13
6.7969656097
 23
3.0256587996
 14
7.1199656097
 24
2.65740789
100
AcDbRotatedDimension
  0
DIMENSION
  5
2B4
100
AcDbEntity
  8
DRIVEN_DIMS
100
AcDbDimension
 62
7
  6
CONTINUOUS
  2
*D7
 10
2.2739656097
 20
13.9790444246
 11
2.2739656097
 21
12.1560444246
 70
160
 71
2
 42
92.6084
  3
DIMSTYLE_1
100
AcDbAlignedDimension
 13
2.7739656097
 23
10.3330444246
 14
2.7739656097
 24
13.9790444246
 50
90.0
100
AcDbRotatedDimension
  0
DIMENSION
  5
2B5
100
AcDbEntity
  8
DRIVEN_DIMS
100
AcDbDimension
 62
7
  6
CONTINUOUS
  2
*D8
 10
7.1199656097
 20
14.4790444246
 11
4.9469656097
 21
14.4040444246
 70
160
 71
2
 42
110.3884
  3
DIMSTYLE_1
100
AcDbAlignedDimension
 13
2.7739656097
 23
13.9310444246
 14
7.1199656097
 24
13.9310444246
100
AcDbRotatedDimension
  0
ACAD_TABLE
  5
2B6
100
AcDbEntity
  8
0
 62
7
  6
CONTINUOUS
100
AcDbBlockReference
  2
*T1
 10
16.7
 20
0.75
 30
0.0
100
AcDbTable
342
       5F3
343
225
 11
1.0
 21
0.0
 31
0.0
 90
6
 91
3
 92
5
 93
4
 94
0
 95
0
 96
0
 70
1
141
0.33
141
0.45
141
1.14
142
0.65
142
1.15
142
1.025
142
1.075
142
0.45
171
1
172
0
173
0
174
0
175
1
176
1
177
33
178
0
145
0.0
  1
 
170
1
140
0.1
171
1
172
0
173
0
174
0
175
1
176
1
177
33
178
0
145
0.0
  1
 
170
1
140
0.1
171
1
172
0
173
0
174
0
175
1
176
1
177
33
178
0
145
0.0
  1
 
170
1
140
0.1
171
1
172
0
173
0
174
0
175
1
176
1
177
33
178
0
145
0.0
  1
 
170
1
140
0.1
171
1
172
0
173
0
174
0
175
1
176
1
177
33
178
0
145
0.0
  1
 
170
1
140
0.1
171
1
172
0
173
0
174
0
175
1
176
1
177
33
178
0
145
0.0
  1
 
170
1
140
0.1
171
1
172
0
173
0
174
0
175
1
176
1
177
33
178
0
145
0.0
  1
 
170
1
140
0.1
171
1
172
0
173
0
174
0
175
1
176
1
177
33
178
0
145
0.0
  1
 
170
1
140
0.1
171
1
172
0
173
0
174
0
175
1
176
1
177
33
178
0
145
0.0
  1
 
170
1
140
0.1
171
1
172
0
173
0
174
0
175
1
176
1
177
41
178
0
145
0.0
  1
A
170
8
140
0.1
 64
7
171
1
172
0
173
0
174
0
175
5
176
1
177
33
178
0
145
0.0
  1
LED(N)B70X70M SERIES\P 
170
8
140
0.1
171
1
172
0
173
1
174
0
175
1
176
1
177
1
178
0
145
0.0
170
1
171
1
172
0
173
1
174
0
175
1
176
1
177
1
178
0
145
0.0
170
1
171
1
172
0
173
1
174
0
175
1
176
1
177
1
178
0
145
0.0
170
1
171
1
172
0
173
1
174
0
175
1
176
1
177
1
178
0
145
0.0
170
8
  0
LEADER
  5
2B7
100
AcDbEntity
  8
NOTES
100
AcDbLeader
 62
7
  6
CONTINUOUS
  3
STANDARD
 71
1
 72
0
 73
0
 75
0
 40
0.1
 41
1.6
 76
3
 10
6.9056961417
 20
5.7995169883
 30
0.0
 10
7.3962959645
 20
6.4360797688
 30
0.0
 10
7.6462959645
 20
6.4360797688
 30
0.0
340
2B8
1001
ACAD
1000
DSTYLE
1002
{
1070
77
1070
0
1002
}
  0
MTEXT
  5
2B8
102
{ACAD_REACTORS
330
2B7
102
}
100
AcDbEntity
  8
NOTES
100
AcDbMText
 62
7
  6
CONTINUOUS
  7
STANDARD
 71
1
 72
1
 10
7.6462959645
 20
6.4860797688
 30
0.0
 11
1.0
 21
0.0
 31
0.0
 44
0.9
  1
4X M4-1 PEM STUD
 40
0.1
 41
1.6
  0
MTEXT
  5
2B9
100
AcDbEntity
  8
NOTES
100
AcDbMText
 62
7
  6
CONTINUOUS
  7
STANDARD
 71
2
 72
1
 10
15.6537852618
 20
11.7658151321
 30
0.0
 11
1.0
 21
0.0
 31
0.0
 44
0.9
  1
ISOMETRIC VIEW\P\H0.1;SCALE  1:1
 40
0.125
 41
1.75
  0
LINE
  5
2BA
100
AcDbEntity
  8
0
100
AcDbLine
 62
7
  6
CONTINUOUS
 10
0.814
 20
8.336603
 11
0.814
 21
8.163397
  0
LINE
  5
2BB
100
AcDbEntity
  8
0
100
AcDbLine
 62
7
  6
CONTINUOUS
 10
0.964
 20
15.75
 11
0.964
 21
0.75
  0
LINE
  5
2BC
100
AcDbEntity
  8
0
100
AcDbLine
 62
7
  6
CONTINUOUS
 10
15.8276527477
 20
1.2966912523
 11
16.4340437477
 21
1.3660842523
  0
LINE
  5
2BD
100
AcDbEntity
  8
0
100
AcDbLine
 62
7
  6
CONTINUOUS
 10
10.920397
 20
0.6
 11
11.093603
 21
0.6
  0
LINE
  5
2BE
100
AcDbEntity
  8
0
100
AcDbLine
 62
7
  6
CONTINUOUS
 10
0.964
 20
0.75
 11
21.05
 21
0.75
  0
LINE
  5
2BF
100
AcDbEntity
  8
0
100
AcDbLine
 62
7
  6
CONTINUOUS
 10
3.507
 20
0.75
 11
3.507
 21
0.5
  0
LINE
  5
2C0
100
AcDbEntity
  8
0
100
AcDbLine
 62
7
  6
CONTINUOUS
 10
3.507
 20
15.75
 11
3.507
 21
16.0
  0
LINE
  5
2C1
100
AcDbEntity
  8
0
100
AcDbLine
 62
7
  6
CONTINUOUS
 10
16.7
 20
1.0
 11
21.05
 21
1.0
  0
LINE
  5
2C2
100
AcDbEntity
  8
0
100
AcDbLine
 62
7
  6
CONTINUOUS
 10
14.9008917477
 20
1.1139932523
 11
15.1229827477
 21
1.1139932523
  0
LINE
  5
2C3
100
AcDbEntity
  8
0
100
AcDbLine
 62
7
  6
CONTINUOUS
 10
15.1729827477
 20
1.1139932523
 11
15.2729827477
 21
1.1139932523
  0
LINE
  5
2C4
100
AcDbEntity
  8
0
100
AcDbLine
 62
7
  6
CONTINUOUS
 10
15.3229827477
 20
1.1139932523
 11
15.5450737477
 21
1.1139932523
  0
LINE
  5
2C5
100
AcDbEntity
  8
0
100
AcDbLine
 62
7
  6
CONTINUOUS
 10
15.7276527477
 20
1.1139932523
 11
16.0058047477
 21
1.1139932523
  0
LINE
  5
2C6
100
AcDbEntity
  8
0
100
AcDbLine
 62
7
  6
CONTINUOUS
 10
16.0558047477
 20
1.1139932523
 11
16.2058907477
 21
1.1139932523
  0
LINE
  5
2C7
100
AcDbEntity
  8
0
100
AcDbLine
 62
7
  6
CONTINUOUS
 10
16.2558907477
 20
1.1139932523
 11
16.5340437477
 21
1.1139932523
  0
LINE
  5
2C8
100
AcDbEntity
  8
0
100
AcDbLine
 62
7
  6
CONTINUOUS
 10
16.7
 20
1.37
 11
21.05
 21
1.37
  0
LINE
  5
2C9
100
AcDbEntity
  8
0
100
AcDbLine
 62
7
  6
CONTINUOUS
 10
16.4340437477
 20
0.8619022523
 11
15.8276527477
 21
0.9312952523
  0
LINE
  5
2CA
100
AcDbEntity
  8
0
100
AcDbLine
 62
7
  6
CONTINUOUS
 10
14.7
 20
1.77
 11
16.7
 21
1.77
  0
LINE
  5
2CB
100
AcDbEntity
  8
0
100
AcDbLine
 62
7
  6
CONTINUOUS
 10
16.7
 20
2.13
 11
21.05
 21
2.13
  0
LINE
  5
2CC
100
AcDbEntity
  8
0
100
AcDbLine
 62
7
  6
CONTINUOUS
 10
18.273144232
 20
2.3543254011
 11
18.2257802057
 21
2.3543254011
  0
LINE
  5
2CD
100
AcDbEntity
  8
0
100
AcDbLine
 62
7
  6
CONTINUOUS
 10
18.1818891814
 20
2.3543254011
 11
18.0683181184
 21
2.3543254011
  0
LINE
  5
2CE
100
AcDbEntity
  8
0
100
AcDbLine
 62
7
  6
CONTINUOUS
 10
18.0394141024
 20
2.3543254011
 11
17.8362019897
 21
2.3543254011
  0
LINE
  5
2CF
100
AcDbEntity
  8
0
100
AcDbLine
 62
7
  6
CONTINUOUS
 10
17.7857289617
 20
2.3543254011
 11
17.7115229205
 21
2.3543254011
  0
LINE
  5
2D0
100
AcDbEntity
  8
0
100
AcDbLine
 62
7
  6
CONTINUOUS
 10
17.6651428948
 20
2.3543254011
 11
17.5894788529
 21
2.3543254011
  0
LINE
  5
2D1
100
AcDbEntity
  8
0
100
AcDbLine
 62
7
  6
CONTINUOUS
 10
17.537475824
 20
2.3543254011
 11
17.4632707829
 21
2.3543254011
  0
LINE
  5
2D2
100
AcDbEntity
  8
0
100
AcDbLine
 62
7
  6
CONTINUOUS
 10
17.4168897572
 20
2.3543254011
 11
17.3412257152
 21
2.3543254011
  0
LINE
  5
2D3
100
AcDbEntity
  8
0
100
AcDbLine
 62
7
  6
CONTINUOUS
 10
16.8743904563
 20
2.3543254011
 11
17.0508365542
 21
2.3543254011
  0
LINE
  5
2D4
100
AcDbEntity
  8
0
100
AcDbLine
 62
7
  6
CONTINUOUS
 10
17.1083735861
 20
2.3543254011
 11
17.185749629
 21
2.3543254011
  0
LINE
  5
2D5
100
AcDbEntity
  8
0
100
AcDbLine
 62
7
  6
CONTINUOUS
 10
17.2060356402
 20
2.3543254011
 11
17.3113166986
 21
2.3543254011
  0
LINE
  5
2D6
100
AcDbEntity
  8
0
100
AcDbLine
 62
7
  6
CONTINUOUS
 10
18.1572301677
 20
2.3790534148
 11
18.1818891814
 21
2.3790534148
  0
LINE
  5
2D7
100
AcDbEntity
  8
0
100
AcDbLine
 62
7
  6
CONTINUOUS
 10
17.3113166986
 20
2.3790754148
 11
17.2913006875
 21
2.3790754148
  0
LINE
  5
2D8
100
AcDbEntity
  8
0
100
AcDbLine
 62
7
  6
CONTINUOUS
 10
17.2204866482
 20
2.3790754148
 11
17.2060356402
 21
2.3790754148
  0
LINE
  5
2D9
100
AcDbEntity
  8
0
100
AcDbLine
 62
7
  6
CONTINUOUS
 10
17.185749629
 20
2.3790754148
 11
17.1744666227
 21
2.3790754148
  0
LINE
  5
2DA
100
AcDbEntity
  8
0
100
AcDbLine
 62
7
  6
CONTINUOUS
 10
17.1312345987
 20
2.3790754148
 11
17.1083735861
 21
2.3790754148
  0
LINE
  5
2DB
100
AcDbEntity
  8
0
100
AcDbLine
 62
7
  6
CONTINUOUS
 10
17.0051585288
 20
2.3790754148
 11
16.9637955059
 21
2.3790754148
  0
LINE
  5
2DC
100
AcDbEntity
  8
0
100
AcDbLine
 62
7
  6
CONTINUOUS
 10
16.8983324696
 20
2.3790754148
 11
16.8743904563
 21
2.3790754148
  0
LINE
  5
2DD
100
AcDbEntity
  8
0
100
AcDbLine
 62
7
  6
CONTINUOUS
 10
17.3412257152
 20
2.3790754148
 11
17.3598727255
 21
2.3790754148
  0
LINE
  5
2DE
100
AcDbEntity
  8
0
100
AcDbLine
 62
7
  6
CONTINUOUS
 10
17.3965727459
 20
2.3790754148
 11
17.4168897572
 21
2.3790754148
  0
LINE
  5
2DF
100
AcDbEntity
  8
0
100
AcDbLine
 62
7
  6
CONTINUOUS
 10
17.5894788529
 20
2.3790754148
 11
17.6081248632
 21
2.3790754148
  0
LINE
  5
2E0
100
AcDbEntity
  8
0
100
AcDbLine
 62
7
  6
CONTINUOUS
 10
17.6448258836
 20
2.3790754148
 11
17.6651428948
 21
2.3790754148
  0
LINE
  5
2E1
100
AcDbEntity
  8
0
100
AcDbLine
 62
7
  6
CONTINUOUS
 10
17.8362019897
 20
2.3790754148
 11
17.860125003
 21
2.3790754148
  0
LINE
  5
2E2
100
AcDbEntity
  8
0
100
AcDbLine
 62
7
  6
CONTINUOUS
 10
17.9271410401
 20
2.3790754148
 11
17.9921450762
 21
2.3790754148
  0
LINE
  5
2E3
100
AcDbEntity
  8
0
100
AcDbLine
 62
7
  6
CONTINUOUS
 10
18.0683181184
 20
2.3790754148
 11
18.091064131
 21
2.3790754148
  0
LINE
  5
2E4
100
AcDbEntity
  8
0
100
AcDbLine
 62
7
  6
CONTINUOUS
 10
18.2741672326
 20
2.379462415
 11
18.2752762332
 21
2.379462415
  0
LINE
  5
2E5
100
AcDbEntity
  8
0
100
AcDbLine
 62
7
  6
CONTINUOUS
 10
17.9970950789
 20
2.3922754221
 11
18.0394141024
 21
2.3922754221
  0
LINE
  5
2E6
100
AcDbEntity
  8
0
100
AcDbLine
 62
7
  6
CONTINUOUS
 10
17.1799826258
 20
2.3927194224
 11
17.2148606451
 21
2.3927194224
  0
LINE
  5
2E7
100
AcDbEntity
  8
0
100
AcDbLine
 62
7
  6
CONTINUOUS
 10
18.2860312391
 20
2.3932124227
 11
18.2981412459
 21
2.3932124227
  0
LINE
  5
2E8
100
AcDbEntity
  8
0
100
AcDbLine
 62
7
  6
CONTINUOUS
 10
18.184837183
 20
2.3937024229
 11
18.1572301677
 21
2.3937024229
  0
LINE
  5
2E9
100
AcDbEntity
  8
0
100
AcDbLine
 62
7
  6
CONTINUOUS
 10
17.9623080596
 20
2.395575424
 11
17.9271410401
 21
2.395575424
  0
LINE
  5
2EA
100
AcDbEntity
  8
0
100
AcDbLine
 62
7
  6
CONTINUOUS
 10
16.9637955059
 20
2.3964004244
 11
17.0051585288
 21
2.3964004244
  0
LINE
  5
2EB
100
AcDbEntity
  8
0
100
AcDbLine
 62
7
  6
CONTINUOUS
 10
18.1911671865
 20
2.4127054335
 11
18.1572301677
 21
2.4127054335
  0
LINE
  5
2EC
100
AcDbEntity
  8
0
100
AcDbLine
 62
7
  6
CONTINUOUS
 10
16.9637955059
 20
2.4130554337
 11
17.0051585288
 21
2.4130554337
  0
LINE
  5
2ED
100
AcDbEntity
  8
0
100
AcDbLine
 62
7
  6
CONTINUOUS
 10
17.1884986305
 20
2.413669434
 11
17.2090556419
 21
2.413669434
  0
LINE
  5
2EE
100
AcDbEntity
  8
0
100
AcDbLine
 62
7
  6
CONTINUOUS
 10
17.9271410401
 20
2.4138804341
 11
17.9623080596
 21
2.4138804341
  0
LINE
  5
2EF
100
AcDbEntity
  8
0
100
AcDbLine
 62
7
  6
CONTINUOUS
 10
18.0379951016
 20
2.4171804359
 11
17.9961310784
 21
2.4171804359
  0
LINE
  5
2F0
100
AcDbEntity
  8
0
100
AcDbLine
 62
7
  6
CONTINUOUS
 10
17.2017966379
 20
2.429836443
 11
17.1956156344
 21
2.429836443
  0
LINE
  5
2F1
100
AcDbEntity
  8
0
100
AcDbLine
 62
7
  6
CONTINUOUS
 10
18.091064131
 20
2.4303804433
 11
18.0683181184
 21
2.4303804433
  0
LINE
  5
2F2
100
AcDbEntity
  8
0
100
AcDbLine
 62
7
  6
CONTINUOUS
 10
17.9911810756
 20
2.4303804433
 11
17.9271410401
 21
2.4303804433
  0
LINE
  5
2F3
100
AcDbEntity
  8
0
100
AcDbLine
 62
7
  6
CONTINUOUS
 10
17.860125003
 20
2.4303804433
 11
17.8362019897
 21
2.4303804433
  0
LINE
  5
2F4
100
AcDbEntity
  8
0
100
AcDbLine
 62
7
  6
CONTINUOUS
 10
17.8086119744
 20
2.4303804433
 11
17.7906789644
 21
2.4303804433
  0
LINE
  5
2F5
100
AcDbEntity
  8
0
100
AcDbLine
 62
7
  6
CONTINUOUS
 10
17.7533869438
 20
2.4303804433
 11
17.7346109333
 21
2.4303804433
  0
LINE
  5
2F6
100
AcDbEntity
  8
0
100
AcDbLine
 62
7
  6
CONTINUOUS
 10
17.6081248632
 20
2.4303804433
 11
17.5894788529
 21
2.4303804433
  0
LINE
  5
2F7
100
AcDbEntity
  8
0
100
AcDbLine
 62
7
  6
CONTINUOUS
 10
17.5603588367
 20
2.4303804433
 11
17.5424258268
 21
2.4303804433
  0
LINE
  5
2F8
100
AcDbEntity
  8
0
100
AcDbLine
 62
7
  6
CONTINUOUS
 10
17.5051338061
 20
2.4303804433
 11
17.4863577957
 21
2.4303804433
  0
LINE
  5
2F9
100
AcDbEntity
  8
0
100
AcDbLine
 62
7
  6
CONTINUOUS
 10
17.3598727255
 20
2.4303804433
 11
17.3412257152
 21
2.4303804433
  0
LINE
  5
2FA
100
AcDbEntity
  8
0
100
AcDbLine
 62
7
  6
CONTINUOUS
 10
17.0051585288
 20
2.4303804433
 11
16.9637955059
 21
2.4303804433
  0
LINE
  5
2FB
100
AcDbEntity
  8
0
100
AcDbLine
 62
7
  6
CONTINUOUS
 10
16.8743904563
 20
2.4303804433
 11
16.8983324696
 21
2.4303804433
  0
LINE
  5
2FC
100
AcDbEntity
  8
0
100
AcDbLine
 62
7
  6
CONTINUOUS
 10
18.1572301677
 20
2.4303804433
 11
18.1940311881
 21
2.4303804433
  0
LINE
  5
2FD
100
AcDbEntity
  8
0
100
AcDbLine
 62
7
  6
CONTINUOUS
 10
17.2393896587
 20
2.455130457
 11
17.182214627
 21
2.455130457
  0
LINE
  5
2FE
100
AcDbEntity
  8
0
100
AcDbLine
 62
7
  6
CONTINUOUS
 10
17.0404535484
 20
2.455130457
 11
16.8743904563
 21
2.455130457
  0
LINE
  5
2FF
100
AcDbEntity
  8
0
100
AcDbLine
 62
7
  6
CONTINUOUS
 10
17.3412257152
 20
2.455130457
 11
17.4416837709
 21
2.455130457
  0
LINE
  5
300
100
AcDbEntity
  8
0
100
AcDbLine
 62
7
  6
CONTINUOUS
 10
17.4863577957
 20
2.455130457
 11
17.5603588367
 21
2.455130457
  0
LINE
  5
301
100
AcDbEntity
  8
0
100
AcDbLine
 62
7
  6
CONTINUOUS
 10
17.5894788529
 20
2.455130457
 11
17.6899369086
 21
2.455130457
  0
LINE
  5
302
100
AcDbEntity
  8
0
100
AcDbLine
 62
7
  6
CONTINUOUS
 10
17.7346109333
 20
2.455130457
 11
17.8086119744
 21
2.455130457
  0
LINE
  5
303
100
AcDbEntity
  8
0
100
AcDbLine
 62
7
  6
CONTINUOUS
 10
17.8362019897
 20
2.455130457
 11
18.0379951016
 21
2.455130457
  0
LINE
  5
304
100
AcDbEntity
  8
0
100
AcDbLine
 62
7
  6
CONTINUOUS
 10
18.0683181184
 20
2.455130457
 11
18.2178992014
 21
2.455130457
  0
LINE
  5
305
100
AcDbEntity
  8
0
100
AcDbLine
 62
7
  6
CONTINUOUS
 10
17.0697205646
 20
2.4006414268
 11
17.059669559
 21
2.4041904287
  0
LINE
  5
306
100
AcDbEntity
  8
0
100
AcDbLine
 62
7
  6
CONTINUOUS
 10
17.4615617819
 20
2.3550094015
 11
17.3982817468
 21
2.415387435
  0
LINE
  5
307
100
AcDbEntity
  8
0
100
AcDbLine
 62
7
  6
CONTINUOUS
 10
17.4433917718
 20
2.4544464566
 11
17.5034248051
 21
2.3971664249
  0
LINE
  5
308
100
AcDbEntity
  8
0
100
AcDbLine
 62
7
  6
CONTINUOUS
 10
17.7098149196
 20
2.3550094015
 11
17.6465348845
 21
2.415387435
  0
LINE
  5
309
100
AcDbEntity
  8
0
100
AcDbLine
 62
7
  6
CONTINUOUS
 10
17.6916449095
 20
2.4544464566
 11
17.7516779428
 21
2.3971664249
  0
LINE
  5
30A
100
AcDbEntity
  8
0
100
AcDbLine
 62
7
  6
CONTINUOUS
 10
17.2169386463
 20
2.3915884218
 11
17.2225646494
 21
2.3828954169
  0
LINE
  5
30B
100
AcDbEntity
  8
0
100
AcDbLine
 62
7
  6
CONTINUOUS
 10
17.211133643
 20
2.4174894361
 11
17.203874639
 21
2.4287054423
  0
LINE
  5
30C
100
AcDbEntity
  8
0
100
AcDbLine
 62
7
  6
CONTINUOUS
 10
17.2892236864
 20
2.3802054154
 11
17.2414676599
 21
2.4540004564
  0
LINE
  5
30D
100
AcDbEntity
  8
0
100
AcDbLine
 62
7
  6
CONTINUOUS
 10
18.206476195
 20
2.3723714111
 11
18.204672194
 21
2.3784404145
  0
LINE
  5
30E
100
AcDbEntity
  8
0
100
AcDbLine
 62
7
  6
CONTINUOUS
 10
16.8719154549
 20
2.4526554556
 11
16.8719154549
 21
2.4328554446
  0
LINE
  5
30F
100
AcDbEntity
  8
0
100
AcDbLine
 62
7
  6
CONTINUOUS
 10
16.8719154549
 20
2.3766004134
 11
16.8719154549
 21
2.3568004025
  0
LINE
  5
310
100
AcDbEntity
  8
0
100
AcDbLine
 62
7
  6
CONTINUOUS
 10
16.9008074709
 20
2.4279054419
 11
16.9008074709
 21
2.3815504162
  0
LINE
  5
311
100
AcDbEntity
  8
0
100
AcDbLine
 62
7
  6
CONTINUOUS
 10
16.9613205045
 20
2.4279054419
 11
16.9613205045
 21
2.415530435
  0
LINE
  5
312
100
AcDbEntity
  8
0
100
AcDbLine
 62
7
  6
CONTINUOUS
 10
16.9613205045
 20
2.3815504162
 11
16.9613205045
 21
2.3939254231
  0
LINE
  5
313
100
AcDbEntity
  8
0
100
AcDbLine
 62
7
  6
CONTINUOUS
 10
17.1058985847
 20
2.3766004134
 11
17.1058985847
 21
2.3568004025
  0
LINE
  5
314
100
AcDbEntity
  8
0
100
AcDbLine
 62
7
  6
CONTINUOUS
 10
17.1882246303
 20
2.3568004025
 11
17.1882246303
 21
2.3766004134
  0
LINE
  5
315
100
AcDbEntity
  8
0
100
AcDbLine
 62
7
  6
CONTINUOUS
 10
17.2035606388
 20
2.3766004134
 11
17.2035606388
 21
2.3568004025
  0
LINE
  5
316
100
AcDbEntity
  8
0
100
AcDbLine
 62
7
  6
CONTINUOUS
 10
17.3137917
 20
2.3568004025
 11
17.3137917
 21
2.3766004134
  0
LINE
  5
317
100
AcDbEntity
  8
0
100
AcDbLine
 62
7
  6
CONTINUOUS
 10
17.3387507138
 20
2.3568004025
 11
17.3387507138
 21
2.3766004134
  0
LINE
  5
318
100
AcDbEntity
  8
0
100
AcDbLine
 62
7
  6
CONTINUOUS
 10
17.3387507138
 20
2.4328554446
 11
17.3387507138
 21
2.4526554556
  0
LINE
  5
319
100
AcDbEntity
  8
0
100
AcDbLine
 62
7
  6
CONTINUOUS
 10
17.3623477269
 20
2.3815504162
 11
17.3623477269
 21
2.4279054419
  0
LINE
  5
31A
100
AcDbEntity
  8
0
100
AcDbLine
 62
7
  6
CONTINUOUS
 10
17.3940977445
 20
2.413596434
 11
17.3940977445
 21
2.3815504162
  0
LINE
  5
31B
100
AcDbEntity
  8
0
100
AcDbLine
 62
7
  6
CONTINUOUS
 10
17.4193647585
 20
2.3766004134
 11
17.4193647585
 21
2.3568004025
  0
LINE
  5
31C
100
AcDbEntity
  8
0
100
AcDbLine
 62
7
  6
CONTINUOUS
 10
17.4838827943
 20
2.4328554446
 11
17.4838827943
 21
2.4526554556
  0
LINE
  5
31D
100
AcDbEntity
  8
0
100
AcDbLine
 62
7
  6
CONTINUOUS
 10
17.5076088075
 20
2.3989574258
 11
17.5076088075
 21
2.4279054419
  0
LINE
  5
31E
100
AcDbEntity
  8
0
100
AcDbLine
 62
7
  6
CONTINUOUS
 10
17.5399508254
 20
2.4279054419
 11
17.5399508254
 21
2.3568004025
  0
LINE
  5
31F
100
AcDbEntity
  8
0
100
AcDbLine
 62
7
  6
CONTINUOUS
 10
17.5628338381
 20
2.4526554556
 11
17.5628338381
 21
2.4328554446
  0
LINE
  5
320
100
AcDbEntity
  8
0
100
AcDbLine
 62
7
  6
CONTINUOUS
 10
17.5870038515
 20
2.3568004025
 11
17.5870038515
 21
2.3766004134
  0
LINE
  5
321
100
AcDbEntity
  8
0
100
AcDbLine
 62
7
  6
CONTINUOUS
 10
17.5870038515
 20
2.4328554446
 11
17.5870038515
 21
2.4526554556
  0
LINE
  5
322
100
AcDbEntity
  8
0
100
AcDbLine
 62
7
  6
CONTINUOUS
 10
17.6105998646
 20
2.3815504162
 11
17.6105998646
 21
2.4279054419
  0
LINE
  5
323
100
AcDbEntity
  8
0
100
AcDbLine
 62
7
  6
CONTINUOUS
 10
17.6423508822
 20
2.413596434
 11
17.6423508822
 21
2.3815504162
  0
LINE
  5
324
100
AcDbEntity
  8
0
100
AcDbLine
 62
7
  6
CONTINUOUS
 10
17.6676178962
 20
2.3766004134
 11
17.6676178962
 21
2.3568004025
  0
LINE
  5
325
100
AcDbEntity
  8
0
100
AcDbLine
 62
7
  6
CONTINUOUS
 10
17.732135932
 20
2.4328554446
 11
17.732135932
 21
2.4526554556
  0
LINE
  5
326
100
AcDbEntity
  8
0
100
AcDbLine
 62
7
  6
CONTINUOUS
 10
17.7558619451
 20
2.3989574258
 11
17.7558619451
 21
2.4279054419
  0
LINE
  5
327
100
AcDbEntity
  8
0
100
AcDbLine
 62
7
  6
CONTINUOUS
 10
17.7882039631
 20
2.4279054419
 11
17.7882039631
 21
2.3568004025
  0
LINE
  5
328
100
AcDbEntity
  8
0
100
AcDbLine
 62
7
  6
CONTINUOUS
 10
17.8110869758
 20
2.4526554556
 11
17.8110869758
 21
2.4328554446
  0
LINE
  5
329
100
AcDbEntity
  8
0
100
AcDbLine
 62
7
  6
CONTINUOUS
 10
17.8337269883
 20
2.3568004025
 11
17.8337269883
 21
2.3766004134
  0
LINE
  5
32A
100
AcDbEntity
  8
0
100
AcDbLine
 62
7
  6
CONTINUOUS
 10
17.8337269883
 20
2.4328554446
 11
17.8337269883
 21
2.4526554556
  0
LINE
  5
32B
100
AcDbEntity
  8
0
100
AcDbLine
 62
7
  6
CONTINUOUS
 10
17.8626000043
 20
2.3815504162
 11
17.8626000043
 21
2.4279054419
  0
LINE
  5
32C
100
AcDbEntity
  8
0
100
AcDbLine
 62
7
  6
CONTINUOUS
 10
17.9246660387
 20
2.4279054419
 11
17.9246660387
 21
2.4163554355
  0
LINE
  5
32D
100
AcDbEntity
  8
0
100
AcDbLine
 62
7
  6
CONTINUOUS
 10
17.9246660387
 20
2.3931004226
 11
17.9246660387
 21
2.3815504162
  0
LINE
  5
32E
100
AcDbEntity
  8
0
100
AcDbLine
 62
7
  6
CONTINUOUS
 10
17.964783061
 20
2.4114054327
 11
17.964783061
 21
2.3980504253
  0
LINE
  5
32F
100
AcDbEntity
  8
0
100
AcDbLine
 62
7
  6
CONTINUOUS
 10
17.993656077
 20
2.4196554373
 11
17.993656077
 21
2.4279054419
  0
LINE
  5
330
100
AcDbEntity
  8
0
100
AcDbLine
 62
7
  6
CONTINUOUS
 10
17.9946200775
 20
2.3815504162
 11
17.9946200775
 21
2.3898004208
  0
LINE
  5
331
100
AcDbEntity
  8
0
100
AcDbLine
 62
7
  6
CONTINUOUS
 10
18.040470103
 20
2.4526554556
 11
18.040470103
 21
2.4196554373
  0
LINE
  5
332
100
AcDbEntity
  8
0
100
AcDbLine
 62
7
  6
CONTINUOUS
 10
18.0418891038
 20
2.3898004208
 11
18.0418891038
 21
2.3568004025
  0
LINE
  5
333
100
AcDbEntity
  8
0
100
AcDbLine
 62
7
  6
CONTINUOUS
 10
18.065843117
 20
2.3568004025
 11
18.065843117
 21
2.3766004134
  0
LINE
  5
334
100
AcDbEntity
  8
0
100
AcDbLine
 62
7
  6
CONTINUOUS
 10
18.065843117
 20
2.4328554446
 11
18.065843117
 21
2.4526554556
  0
LINE
  5
335
100
AcDbEntity
  8
0
100
AcDbLine
 62
7
  6
CONTINUOUS
 10
18.0935391324
 20
2.3815504162
 11
18.0935391324
 21
2.4279054419
  0
LINE
  5
336
100
AcDbEntity
  8
0
100
AcDbLine
 62
7
  6
CONTINUOUS
 10
18.1547551663
 20
2.3912274216
 11
18.1547551663
 21
2.3815284162
  0
LINE
  5
337
100
AcDbEntity
  8
0
100
AcDbLine
 62
7
  6
CONTINUOUS
 10
18.1547551663
 20
2.4151804348
 11
18.1547551663
 21
2.4279054419
  0
LINE
  5
338
100
AcDbEntity
  8
0
100
AcDbLine
 62
7
  6
CONTINUOUS
 10
18.1843641828
 20
2.3765784134
 11
18.1843641828
 21
2.3568004025
  0
LINE
  5
339
100
AcDbEntity
  8
0
100
AcDbLine
 62
7
  6
CONTINUOUS
 10
18.2835562378
 20
2.3881114198
 11
18.2835562378
 21
2.3907374213
  0
LINE
  5
33A
100
AcDbEntity
  8
0
100
AcDbLine
 62
7
  6
CONTINUOUS
 10
18.3006162472
 20
2.3907374213
 11
18.3006162472
 21
2.3791854149
  0
LINE
  5
33B
100
AcDbEntity
  8
0
100
AcDbLine
 62
7
  6
CONTINUOUS
 10
18.3975725422
 20
2.3981678251
 11
18.3975725422
 21
2.4087850316
  0
LINE
  5
33C
100
AcDbEntity
  8
0
100
AcDbLine
 62
7
  6
CONTINUOUS
 10
17.1801246258
 20
2.4539814564
 11
17.1333245999
 21
2.3802244155
  0
LINE
  5
33D
100
AcDbEntity
  8
0
100
AcDbLine
 62
7
  6
CONTINUOUS
 10
17.1935256333
 20
2.4286874423
 11
17.1864086293
 21
2.4174704361
  0
LINE
  5
33E
100
AcDbEntity
  8
0
100
AcDbLine
 62
7
  6
CONTINUOUS
 10
17.1723766216
 20
2.3828764169
 11
17.1778926246
 21
2.3915704217
  0
LINE
  5
33F
100
AcDbEntity
  8
0
100
AcDbLine
 62
7
  6
CONTINUOUS
 10
17.059669559
 20
2.4041904287
 11
17.0679095636
 21
2.4089664314
  0
ARC
  5
340
100
AcDbEntity
  8
0
100
AcDbCircle
 62
7
  6
CONTINUOUS
 10
17.4632701481
 20
2.3568008172
 40
0.0024754162
100
AcDbArc
 50
226.3593695814
 51
270.0146919953
  0
ARC
  5
341
100
AcDbEntity
  8
0
100
AcDbCircle
 62
7
  6
CONTINUOUS
 10
16.8743904545
 20
2.3568004006
 40
0.0024749995
100
AcDbArc
 50
179.9999571957
 51
270.0000428043
  0
ARC
  5
342
100
AcDbEntity
  8
0
100
AcDbCircle
 62
7
  6
CONTINUOUS
 10
17.5374758259
 20
2.3568004006
 40
0.0024749995
100
AcDbArc
 50
269.9999571957
 51
0.0000428043
  0
ARC
  5
343
100
AcDbEntity
  8
0
100
AcDbCircle
 62
7
  6
CONTINUOUS
 10
17.416889759
 20
2.3568004006
 40
0.0024749995
100
AcDbArc
 50
269.9999571957
 51
0.0000428043
  0
ARC
  5
344
100
AcDbEntity
  8
0
100
AcDbCircle
 62
7
  6
CONTINUOUS
 10
17.3412257133
 20
2.3568004006
 40
0.0024749995
100
AcDbArc
 50
179.9999571957
 51
270.0000428043
  0
ARC
  5
345
100
AcDbEntity
  8
0
100
AcDbCircle
 62
7
  6
CONTINUOUS
 10
17.2060356384
 20
2.3568004006
 40
0.0024749995
100
AcDbArc
 50
179.9999571957
 51
270.0000428043
  0
ARC
  5
346
100
AcDbEntity
  8
0
100
AcDbCircle
 62
7
  6
CONTINUOUS
 10
17.3113167005
 20
2.3568004006
 40
0.0024749995
100
AcDbArc
 50
269.9999571957
 51
0.0000428043
  0
ARC
  5
347
100
AcDbEntity
  8
0
100
AcDbCircle
 62
7
  6
CONTINUOUS
 10
17.1083735842
 20
2.3568004006
 40
0.0024749995
100
AcDbArc
 50
179.9999571957
 51
270.0000428043
  0
ARC
  5
348
100
AcDbEntity
  8
0
100
AcDbCircle
 62
7
  6
CONTINUOUS
 10
17.1857496308
 20
2.3568004006
 40
0.0024749995
100
AcDbArc
 50
269.9999571958
 51
0.0000428044
  0
ARC
  5
349
100
AcDbEntity
  8
0
100
AcDbCircle
 62
7
  6
CONTINUOUS
 10
17.0404590422
 20
2.3933827403
 40
0.061747717
100
AcDbArc
 50
59.5385584989
 51
90.0050977555
  0
ARC
  5
34A
100
AcDbEntity
  8
0
100
AcDbCircle
 62
7
  6
CONTINUOUS
 10
17.0481152095
 20
2.4027328529
 40
0.048483885
100
AcDbArc
 50
273.21763719
 51
303.0749121182
  0
ARC
  5
34B
100
AcDbEntity
  8
0
100
AcDbCircle
 62
7
  6
CONTINUOUS
 10
17.0620614151
 20
2.3797859164
 40
0.0222174455
100
AcDbArc
 50
4.0793399388
 51
69.834329283
  0
ARC
  5
34C
100
AcDbEntity
  8
0
100
AcDbCircle
 62
7
  6
CONTINUOUS
 10
17.0629546036
 20
2.379965244
 40
0.0213072145
100
AcDbArc
 50
303.0488228549
 51
355.7263138674
  0
ARC
  5
34D
100
AcDbEntity
  8
0
100
AcDbCircle
 62
7
  6
CONTINUOUS
 10
17.0688911042
 20
2.3799744343
 40
0.0153945295
100
AcDbArc
 50
354.0454548824
 51
5.1878013979
  0
ARC
  5
34E
100
AcDbEntity
  8
0
100
AcDbCircle
 62
7
  6
CONTINUOUS
 10
17.0051585288
 20
2.3877379196
 40
0.0086625048
100
AcDbArc
 50
270.0
 51
90.0
  0
ARC
  5
34F
100
AcDbEntity
  8
0
100
AcDbCircle
 62
7
  6
CONTINUOUS
 10
17.2148601055
 20
2.3902439622
 40
0.0024754602
100
AcDbArc
 50
32.8959418573
 51
89.9875097202
  0
ARC
  5
350
100
AcDbEntity
  8
0
100
AcDbCircle
 62
7
  6
CONTINUOUS
 10
17.131234669
 20
2.3815506151
 40
0.0024752003
100
AcDbArc
 50
269.9983726451
 51
327.602165307
  0
ARC
  5
351
100
AcDbEntity
  8
0
100
AcDbCircle
 62
7
  6
CONTINUOUS
 10
17.1799825555
 20
2.3902442221
 40
0.0024752003
100
AcDbArc
 50
89.998372645
 51
147.602165307
  0
ARC
  5
352
100
AcDbEntity
  8
0
100
AcDbCircle
 62
7
  6
CONTINUOUS
 10
17.1744665134
 20
2.3815504549
 40
0.0024750401
100
AcDbArc
 50
147.6063258011
 51
270.0025305754
  0
ARC
  5
353
100
AcDbEntity
  8
0
100
AcDbCircle
 62
7
  6
CONTINUOUS
 10
16.8983324714
 20
2.3815504143
 40
0.0024749995
100
AcDbArc
 50
269.9999571957
 51
0.0000428043
  0
ARC
  5
354
100
AcDbEntity
  8
0
100
AcDbCircle
 62
7
  6
CONTINUOUS
 10
16.8743904545
 20
2.3766004153
 40
0.0024749995
100
AcDbArc
 50
89.9999571957
 51
180.0000428043
  0
ARC
  5
355
100
AcDbEntity
  8
0
100
AcDbCircle
 62
7
  6
CONTINUOUS
 10
16.963795504
 20
2.3939254249
 40
0.0024749995
100
AcDbArc
 50
89.9999571957
 51
180.0000428043
  0
ARC
  5
356
100
AcDbEntity
  8
0
100
AcDbCircle
 62
7
  6
CONTINUOUS
 10
16.963795504
 20
2.3815504143
 40
0.0024749995
100
AcDbArc
 50
179.9999571957
 51
270.0000428043
  0
ARC
  5
357
100
AcDbEntity
  8
0
100
AcDbCircle
 62
7
  6
CONTINUOUS
 10
17.2060356384
 20
2.3766004153
 40
0.0024749995
100
AcDbArc
 50
89.9999571957
 51
180.0000428043
  0
ARC
  5
358
100
AcDbEntity
  8
0
100
AcDbCircle
 62
7
  6
CONTINUOUS
 10
17.1083735842
 20
2.3766004153
 40
0.0024749995
100
AcDbArc
 50
89.9999571957
 51
180.0000428043
  0
ARC
  5
359
100
AcDbEntity
  8
0
100
AcDbCircle
 62
7
  6
CONTINUOUS
 10
17.1857496308
 20
2.3766004153
 40
0.0024749995
100
AcDbArc
 50
359.9999571957
 51
90.0000428043
  0
ARC
  5
35A
100
AcDbEntity
  8
0
100
AcDbCircle
 62
7
  6
CONTINUOUS
 10
17.0460441811
 20
2.445793323
 40
0.0428289026
100
AcDbArc
 50
300.6990502959
 51
319.0591802498
  0
ARC
  5
35B
100
AcDbEntity
  8
0
100
AcDbCircle
 62
7
  6
CONTINUOUS
 10
17.0611211659
 20
2.4263113051
 40
0.0229166529
100
AcDbArc
 50
20.6563876465
 51
62.3316896973
  0
ARC
  5
35C
100
AcDbEntity
  8
0
100
AcDbCircle
 62
7
  6
CONTINUOUS
 10
17.0660727781
 20
2.4296649696
 40
0.0171568255
100
AcDbArc
 50
315.9145124245
 51
16.0049121283
  0
ARC
  5
35D
100
AcDbEntity
  8
0
100
AcDbCircle
 62
7
  6
CONTINUOUS
 10
17.0051585288
 20
2.4217179385
 40
0.0086625048
100
AcDbArc
 50
270.0
 51
90.0
  0
ARC
  5
35E
100
AcDbEntity
  8
0
100
AcDbCircle
 62
7
  6
CONTINUOUS
 10
17.2017960982
 20
2.4273609828
 40
0.0024754602
100
AcDbArc
 50
32.8959418573
 51
89.9875097202
  0
ARC
  5
35F
100
AcDbEntity
  8
0
100
AcDbCircle
 62
7
  6
CONTINUOUS
 10
17.2090556207
 20
2.4161446411
 40
0.0024752071
100
AcDbArc
 50
270.0004896793
 51
32.9089806818
  0
ARC
  5
360
100
AcDbEntity
  8
0
100
AcDbCircle
 62
7
  6
CONTINUOUS
 10
17.1956155641
 20
2.4273612427
 40
0.0024752003
100
AcDbArc
 50
89.998372645
 51
147.602165307
  0
ARC
  5
361
100
AcDbEntity
  8
0
100
AcDbCircle
 62
7
  6
CONTINUOUS
 10
17.1822145567
 20
2.4526552567
 40
0.0024752003
100
AcDbArc
 50
89.998372645
 51
147.602165307
  0
ARC
  5
362
100
AcDbEntity
  8
0
100
AcDbCircle
 62
7
  6
CONTINUOUS
 10
17.1884985212
 20
2.4161444741
 40
0.0024750401
100
AcDbArc
 50
147.6063258012
 51
270.0025305754
  0
ARC
  5
363
100
AcDbEntity
  8
0
100
AcDbCircle
 62
7
  6
CONTINUOUS
 10
16.8743904545
 20
2.4526554575
 40
0.0024749995
100
AcDbArc
 50
89.9999571957
 51
180.0000428043
  0
ARC
  5
364
100
AcDbEntity
  8
0
100
AcDbCircle
 62
7
  6
CONTINUOUS
 10
16.8743904545
 20
2.4328554428
 40
0.0024749995
100
AcDbArc
 50
179.9999571957
 51
270.0000428043
  0
ARC
  5
365
100
AcDbEntity
  8
0
100
AcDbCircle
 62
7
  6
CONTINUOUS
 10
16.8983324714
 20
2.4279054437
 40
0.0024749995
100
AcDbArc
 50
359.9999571957
 51
90.0000428043
  0
ARC
  5
366
100
AcDbEntity
  8
0
100
AcDbCircle
 62
7
  6
CONTINUOUS
 10
16.963795504
 20
2.4279054437
 40
0.0024749995
100
AcDbArc
 50
89.9999571957
 51
180.0000428043
  0
ARC
  5
367
100
AcDbEntity
  8
0
100
AcDbCircle
 62
7
  6
CONTINUOUS
 10
16.963795504
 20
2.4155304332
 40
0.0024749995
100
AcDbArc
 50
179.9999571957
 51
270.0000428043
  0
ARC
  5
368
100
AcDbEntity
  8
0
100
AcDbCircle
 62
7
  6
CONTINUOUS
 10
17.5051335061
 20
2.3989573626
 40
0.0024753014
100
AcDbArc
 50
226.3461263059
 51
0.0014637321
  0
ARC
  5
369
100
AcDbEntity
  8
0
100
AcDbCircle
 62
7
  6
CONTINUOUS
 10
17.3965730459
 20
2.4135964972
 40
0.0024753014
100
AcDbArc
 50
46.3461263059
 51
180.0014637321
  0
ARC
  5
36A
100
AcDbEntity
  8
0
100
AcDbCircle
 62
7
  6
CONTINUOUS
 10
17.2204866271
 20
2.3815506219
 40
0.0024752071
100
AcDbArc
 50
270.0004896793
 51
32.9089806818
  0
ARC
  5
36B
100
AcDbEntity
  8
0
100
AcDbCircle
 62
7
  6
CONTINUOUS
 10
17.396572744
 20
2.3815504143
 40
0.0024749995
100
AcDbArc
 50
179.9999571957
 51
270.0000428043
  0
ARC
  5
36C
100
AcDbEntity
  8
0
100
AcDbCircle
 62
7
  6
CONTINUOUS
 10
17.416889759
 20
2.3766004153
 40
0.0024749995
100
AcDbArc
 50
359.9999571957
 51
90.0000428043
  0
ARC
  5
36D
100
AcDbEntity
  8
0
100
AcDbCircle
 62
7
  6
CONTINUOUS
 10
17.3412257133
 20
2.3766004153
 40
0.0024749995
100
AcDbArc
 50
89.9999571957
 51
180.0000428043
  0
ARC
  5
36E
100
AcDbEntity
  8
0
100
AcDbCircle
 62
7
  6
CONTINUOUS
 10
17.3598727274
 20
2.3815504143
 40
0.0024749995
100
AcDbArc
 50
269.9999571957
 51
0.0000428043
  0
ARC
  5
36F
100
AcDbEntity
  8
0
100
AcDbCircle
 62
7
  6
CONTINUOUS
 10
17.3113167005
 20
2.3766004153
 40
0.0024749995
100
AcDbArc
 50
359.9999571957
 51
90.0000428043
  0
ARC
  5
370
100
AcDbEntity
  8
0
100
AcDbCircle
 62
7
  6
CONTINUOUS
 10
17.291300808
 20
2.3815494558
 40
0.002474041
100
AcDbArc
 50
212.9056413127
 51
269.9972091755
  0
ARC
  5
371
100
AcDbEntity
  8
0
100
AcDbCircle
 62
7
  6
CONTINUOUS
 10
17.5051338079
 20
2.4279054437
 40
0.0024749995
100
AcDbArc
 50
359.9999571957
 51
90.0000428043
  0
ARC
  5
372
100
AcDbEntity
  8
0
100
AcDbCircle
 62
7
  6
CONTINUOUS
 10
17.4863577938
 20
2.4328554428
 40
0.0024749995
100
AcDbArc
 50
179.9999571957
 51
270.0000428043
  0
ARC
  5
373
100
AcDbEntity
  8
0
100
AcDbCircle
 62
7
  6
CONTINUOUS
 10
17.4863577938
 20
2.4526554575
 40
0.0024749995
100
AcDbArc
 50
89.9999571957
 51
180.0000428043
  0
ARC
  5
374
100
AcDbEntity
  8
0
100
AcDbCircle
 62
7
  6
CONTINUOUS
 10
17.5603588386
 20
2.4526554575
 40
0.0024749995
100
AcDbArc
 50
359.9999571957
 51
90.0000428043
  0
ARC
  5
375
100
AcDbEntity
  8
0
100
AcDbCircle
 62
7
  6
CONTINUOUS
 10
17.5603588386
 20
2.4328554428
 40
0.0024749995
100
AcDbArc
 50
269.9999571957
 51
0.0000428043
  0
ARC
  5
376
100
AcDbEntity
  8
0
100
AcDbCircle
 62
7
  6
CONTINUOUS
 10
17.5424258249
 20
2.4279054437
 40
0.0024749995
100
AcDbArc
 50
89.9999571957
 51
180.0000428043
  0
ARC
  5
377
100
AcDbEntity
  8
0
100
AcDbCircle
 62
7
  6
CONTINUOUS
 10
17.3598727274
 20
2.4279054437
 40
0.0024749995
100
AcDbArc
 50
359.9999571957
 51
90.0000428043
  0
ARC
  5
378
100
AcDbEntity
  8
0
100
AcDbCircle
 62
7
  6
CONTINUOUS
 10
17.3412257133
 20
2.4328554428
 40
0.0024749995
100
AcDbArc
 50
179.9999571957
 51
270.0000428043
  0
ARC
  5
379
100
AcDbEntity
  8
0
100
AcDbCircle
 62
7
  6
CONTINUOUS
 10
17.3412257133
 20
2.4526554575
 40
0.0024749995
100
AcDbArc
 50
89.9999571957
 51
180.0000428043
  0
ARC
  5
37A
100
AcDbEntity
  8
0
100
AcDbCircle
 62
7
  6
CONTINUOUS
 10
17.2393900382
 20
2.4526554968
 40
0.0024749602
100
AcDbArc
 50
32.9172174468
 51
90.0087853097
  0
ARC
  5
37B
100
AcDbEntity
  8
0
100
AcDbCircle
 62
7
  6
CONTINUOUS
 10
17.4416839057
 20
2.4526562892
 40
0.0024741678
100
AcDbArc
 50
46.3477981899
 51
90.0031206038
  0
ARC
  5
37C
100
AcDbEntity
  8
0
100
AcDbCircle
 62
7
  6
CONTINUOUS
 10
18.2152358981
 20
2.2725915465
 40
0.1825583387
100
AcDbArc
 50
79.8618509324
 51
89.1640948679
  0
ARC
  5
37D
100
AcDbEntity
  8
0
100
AcDbCircle
 62
7
  6
CONTINUOUS
 10
18.197141171
 20
2.3016991173
 40
0.117346916
100
AcDbArc
 50
58.614769177
 51
62.3737227606
  0
ARC
  5
37E
100
AcDbEntity
  8
0
100
AcDbCircle
 62
7
  6
CONTINUOUS
 10
18.2260032264
 20
2.3725718859
 40
0.0459185159
100
AcDbArc
 50
15.6740290068
 51
20.9917271228
  0
ARC
  5
37F
100
AcDbEntity
  8
0
100
AcDbCircle
 62
7
  6
CONTINUOUS
 10
18.1662929967
 20
2.368643334
 40
0.0396099176
100
AcDbArc
 50
14.3201081283
 51
22.4984722084
  0
ARC
  5
380
100
AcDbEntity
  8
0
100
AcDbCircle
 62
7
  6
CONTINUOUS
 10
18.1850046504
 20
2.3693353402
 40
0.0243676582
100
AcDbArc
 50
63.3666028271
 51
90.3937697637
  0
ARC
  5
381
100
AcDbEntity
  8
0
100
AcDbCircle
 62
7
  6
CONTINUOUS
 10
18.2724993219
 20
2.3741987064
 40
0.0198837666
100
AcDbArc
 50
271.8586572978
 51
289.4131338543
  0
ARC
  5
382
100
AcDbEntity
  8
0
100
AcDbCircle
 62
7
  6
CONTINUOUS
 10
18.2265855264
 20
2.3716475527
 40
0.0173408616
100
AcDbArc
 50
232.4713476722
 51
267.338189944
  0
ARC
  5
383
100
AcDbEntity
  8
0
100
AcDbCircle
 62
7
  6
CONTINUOUS
 10
18.1818891832
 20
2.3568004006
 40
0.0024749995
100
AcDbArc
 50
269.9999571957
 51
0.0000428043
  0
ARC
  5
384
100
AcDbEntity
  8
0
100
AcDbCircle
 62
7
  6
CONTINUOUS
 10
18.0683181166
 20
2.3568004006
 40
0.0024749995
100
AcDbArc
 50
179.9999571957
 51
270.0000428043
  0
ARC
  5
385
100
AcDbEntity
  8
0
100
AcDbCircle
 62
7
  6
CONTINUOUS
 10
17.7857289635
 20
2.3568004006
 40
0.0024749995
100
AcDbArc
 50
269.9999571957
 51
0.0000428043
  0
ARC
  5
386
100
AcDbEntity
  8
0
100
AcDbCircle
 62
7
  6
CONTINUOUS
 10
17.6651428967
 20
2.3568004006
 40
0.0024749995
100
AcDbArc
 50
269.9999571957
 51
0.0000428043
  0
ARC
  5
387
100
AcDbEntity
  8
0
100
AcDbCircle
 62
7
  6
CONTINUOUS
 10
17.589478851
 20
2.3568004006
 40
0.0024749995
100
AcDbArc
 50
179.9999571957
 51
270.0000428043
  0
ARC
  5
388
100
AcDbEntity
  8
0
100
AcDbCircle
 62
7
  6
CONTINUOUS
 10
18.0394141042
 20
2.3568004006
 40
0.0024749995
100
AcDbArc
 50
269.9999571957
 51
0.0000428043
  0
ARC
  5
389
100
AcDbEntity
  8
0
100
AcDbCircle
 62
7
  6
CONTINUOUS
 10
17.8362019878
 20
2.3568004006
 40
0.0024749995
100
AcDbArc
 50
179.9999571957
 51
270.0000428043
  0
ARC
  5
38A
100
AcDbEntity
  8
0
100
AcDbCircle
 62
7
  6
CONTINUOUS
 10
17.7115227858
 20
2.3567995689
 40
0.0024741678
100
AcDbArc
 50
226.3477981898
 51
270.0031206038
  0
ARC
  5
38B
100
AcDbEntity
  8
0
100
AcDbCircle
 62
7
  6
CONTINUOUS
 10
17.7533866437
 20
2.3989573626
 40
0.0024753014
100
AcDbArc
 50
226.3461263059
 51
0.0014637321
  0
ARC
  5
38C
100
AcDbEntity
  8
0
100
AcDbCircle
 62
7
  6
CONTINUOUS
 10
17.6448261836
 20
2.4135964972
 40
0.0024753014
100
AcDbArc
 50
46.3461263058
 51
180.0014637321
  0
ARC
  5
38D
100
AcDbEntity
  8
0
100
AcDbCircle
 62
7
  6
CONTINUOUS
 10
17.6448258817
 20
2.3815504143
 40
0.0024749995
100
AcDbArc
 50
179.9999571957
 51
270.0000428043
  0
ARC
  5
38E
100
AcDbEntity
  8
0
100
AcDbCircle
 62
7
  6
CONTINUOUS
 10
17.6651428967
 20
2.3766004153
 40
0.0024749995
100
AcDbArc
 50
359.9999571957
 51
90.0000428043
  0
ARC
  5
38F
100
AcDbEntity
  8
0
100
AcDbCircle
 62
7
  6
CONTINUOUS
 10
17.589478851
 20
2.3766004153
 40
0.0024749995
100
AcDbArc
 50
89.9999571957
 51
180.0000428043
  0
ARC
  5
390
100
AcDbEntity
  8
0
100
AcDbCircle
 62
7
  6
CONTINUOUS
 10
17.6081248651
 20
2.3815504143
 40
0.0024749995
100
AcDbArc
 50
269.9999571957
 51
0.0000428043
  0
ARC
  5
391
100
AcDbEntity
  8
0
100
AcDbCircle
 62
7
  6
CONTINUOUS
 10
17.9271410383
 20
2.3931004244
 40
0.0024749995
100
AcDbArc
 50
89.9999571957
 51
180.0000428043
  0
ARC
  5
392
100
AcDbEntity
  8
0
100
AcDbCircle
 62
7
  6
CONTINUOUS
 10
17.9271410383
 20
2.3815504143
 40
0.0024749995
100
AcDbArc
 50
179.9999571957
 51
270.0000428043
  0
ARC
  5
393
100
AcDbEntity
  8
0
100
AcDbCircle
 62
7
  6
CONTINUOUS
 10
17.8362019878
 20
2.3766004153
 40
0.0024749995
100
AcDbArc
 50
89.9999571957
 51
180.0000428043
  0
ARC
  5
394
100
AcDbEntity
  8
0
100
AcDbCircle
 62
7
  6
CONTINUOUS
 10
17.8601250048
 20
2.3815504143
 40
0.0024749995
100
AcDbArc
 50
269.9999571956
 51
0.0000428042
  0
ARC
  5
395
100
AcDbEntity
  8
0
100
AcDbCircle
 62
7
  6
CONTINUOUS
 10
17.9271410383
 20
2.4163554336
 40
0.0024749995
100
AcDbArc
 50
179.9999571957
 51
270.0000428043
  0
ARC
  5
396
100
AcDbEntity
  8
0
100
AcDbCircle
 62
7
  6
CONTINUOUS
 10
17.7533869456
 20
2.4279054437
 40
0.0024749995
100
AcDbArc
 50
359.9999571957
 51
90.0000428043
  0
ARC
  5
397
100
AcDbEntity
  8
0
100
AcDbCircle
 62
7
  6
CONTINUOUS
 10
17.7346109315
 20
2.4328554428
 40
0.0024749995
100
AcDbArc
 50
179.9999571957
 51
270.0000428043
  0
ARC
  5
398
100
AcDbEntity
  8
0
100
AcDbCircle
 62
7
  6
CONTINUOUS
 10
17.7346109315
 20
2.4526554575
 40
0.0024749995
100
AcDbArc
 50
89.9999571957
 51
180.0000428043
  0
ARC
  5
399
100
AcDbEntity
  8
0
100
AcDbCircle
 62
7
  6
CONTINUOUS
 10
17.8086119762
 20
2.4526554575
 40
0.0024749995
100
AcDbArc
 50
359.9999571957
 51
90.0000428043
  0
ARC
  5
39A
100
AcDbEntity
  8
0
100
AcDbCircle
 62
7
  6
CONTINUOUS
 10
17.8086119762
 20
2.4328554428
 40
0.0024749995
100
AcDbArc
 50
269.9999571956
 51
0.0000428042
  0
ARC
  5
39B
100
AcDbEntity
  8
0
100
AcDbCircle
 62
7
  6
CONTINUOUS
 10
17.7906789626
 20
2.4279054437
 40
0.0024749995
100
AcDbArc
 50
89.9999571957
 51
180.0000428043
  0
ARC
  5
39C
100
AcDbEntity
  8
0
100
AcDbCircle
 62
7
  6
CONTINUOUS
 10
17.6081248651
 20
2.4279054437
 40
0.0024749995
100
AcDbArc
 50
359.9999571957
 51
90.0000428043
  0
ARC
  5
39D
100
AcDbEntity
  8
0
100
AcDbCircle
 62
7
  6
CONTINUOUS
 10
17.589478851
 20
2.4328554428
 40
0.0024749995
100
AcDbArc
 50
179.9999571957
 51
270.0000428043
  0
ARC
  5
39E
100
AcDbEntity
  8
0
100
AcDbCircle
 62
7
  6
CONTINUOUS
 10
17.589478851
 20
2.4526554575
 40
0.0024749995
100
AcDbArc
 50
89.9999571957
 51
180.0000428043
  0
ARC
  5
39F
100
AcDbEntity
  8
0
100
AcDbCircle
 62
7
  6
CONTINUOUS
 10
17.8601250048
 20
2.4279054437
 40
0.0024749995
100
AcDbArc
 50
359.9999571957
 51
90.0000428043
  0
ARC
  5
3A0
100
AcDbEntity
  8
0
100
AcDbCircle
 62
7
  6
CONTINUOUS
 10
17.8362019878
 20
2.4328554428
 40
0.0024749995
100
AcDbArc
 50
179.9999571957
 51
270.0000428043
  0
ARC
  5
3A1
100
AcDbEntity
  8
0
100
AcDbCircle
 62
7
  6
CONTINUOUS
 10
17.8362019878
 20
2.4526554575
 40
0.0024749995
100
AcDbArc
 50
89.9999571957
 51
180.0000428043
  0
ARC
  5
3A2
100
AcDbEntity
  8
0
100
AcDbCircle
 62
7
  6
CONTINUOUS
 10
17.9271410383
 20
2.4279054437
 40
0.0024749995
100
AcDbArc
 50
89.9999571957
 51
180.0000428043
  0
ARC
  5
3A3
100
AcDbEntity
  8
0
100
AcDbCircle
 62
7
  6
CONTINUOUS
 10
17.6899370433
 20
2.4526562892
 40
0.0024741678
100
AcDbArc
 50
46.3477981899
 51
90.0031206038
  0
ARC
  5
3A4
100
AcDbEntity
  8
0
100
AcDbCircle
 62
7
  6
CONTINUOUS
 10
18.2495655574
 20
2.384346736
 40
0.044722495
100
AcDbArc
 50
195.531588407
 51
204.7624440448
  0
ARC
  5
3A5
100
AcDbEntity
  8
0
100
AcDbCircle
 62
7
  6
CONTINUOUS
 10
18.2415401884
 20
2.4134150625
 40
0.039319019
100
AcDbArc
 50
59.1202086415
 51
81.4730239328
  0
ARC
  5
3A6
100
AcDbEntity
  8
0
100
AcDbCircle
 62
7
  6
CONTINUOUS
 10
18.2667613545
 20
2.3917854558
 40
0.0383802683
100
AcDbArc
 50
288.7656836787
 51
309.6104317088
  0
ARC
  5
3A7
100
AcDbEntity
  8
0
100
AcDbCircle
 62
7
  6
CONTINUOUS
 10
18.2471995846
 20
2.4197497317
 40
0.0310192946
100
AcDbArc
 50
34.7540871
 51
62.0879016178
  0
ARC
  5
3A8
100
AcDbEntity
  8
0
100
AcDbCircle
 62
7
  6
CONTINUOUS
 10
18.1924863006
 20
2.4019259643
 40
0.0284963867
100
AcDbArc
 50
70.3834917948
 51
86.8922743861
  0
ARC
  5
3A9
100
AcDbEntity
  8
0
100
AcDbCircle
 62
7
  6
CONTINUOUS
 10
18.2737535399
 20
2.384184238
 40
0.0280715479
100
AcDbArc
 50
308.5071794988
 51
332.2400656899
  0
ARC
  5
3AA
100
AcDbEntity
  8
0
100
AcDbCircle
 62
7
  6
CONTINUOUS
 10
18.2439037681
 20
2.3797532943
 40
0.0266349791
100
AcDbArc
 50
20.3630922153
 51
37.9727053099
  0
ARC
  5
3AB
100
AcDbEntity
  8
0
100
AcDbCircle
 62
7
  6
CONTINUOUS
 10
18.2450241237
 20
2.3798263774
 40
0.0257145923
100
AcDbArc
 50
39.3804255939
 51
59.0361096173
  0
ARC
  5
3AC
100
AcDbEntity
  8
0
100
AcDbCircle
 62
7
  6
CONTINUOUS
 10
18.2296840914
 20
2.3774978567
 40
0.0238935861
100
AcDbArc
 50
209.8247607259
 51
235.1255079367
  0
ARC
  5
3AD
100
AcDbEntity
  8
0
100
AcDbCircle
 62
7
  6
CONTINUOUS
 10
18.2830605507
 20
2.3792897325
 40
0.0175560065
100
AcDbArc
 50
332.2279060967
 51
359.6595469939
  0
ARC
  5
3AE
100
AcDbEntity
  8
0
100
AcDbCircle
 62
7
  6
CONTINUOUS
 10
18.1890593051
 20
2.3776149607
 40
0.0151491919
100
AcDbArc
 50
24.098260853
 51
63.0369451818
  0
ARC
  5
3AF
100
AcDbEntity
  8
0
100
AcDbCircle
 62
7
  6
CONTINUOUS
 10
18.2845735615
 20
2.3882148688
 40
0.0147197649
100
AcDbArc
 50
192.7054516565
 51
206.0594861022
  0
ARC
  5
3B0
100
AcDbEntity
  8
0
100
AcDbCircle
 62
7
  6
CONTINUOUS
 10
18.1973459106
 20
2.4149676972
 40
0.0145814632
100
AcDbArc
 50
54.6746025112
 51
71.1660573124
  0
ARC
  5
3B1
100
AcDbEntity
  8
0
100
AcDbCircle
 62
7
  6
CONTINUOUS
 10
18.2752146786
 20
2.3927110743
 40
0.0132488022
100
AcDbArc
 50
270.266200055
 51
281.2404888597
  0
ARC
  5
3B2
100
AcDbEntity
  8
0
100
AcDbCircle
 62
7
  6
CONTINUOUS
 10
18.2716089246
 20
2.3878675959
 40
0.0119498009
100
AcDbArc
 50
340.7883861657
 51
1.1691452593
  0
ARC
  5
3B3
100
AcDbEntity
  8
0
100
AcDbCircle
 62
7
  6
CONTINUOUS
 10
18.198398534
 20
2.4260095887
 40
0.0110815393
100
AcDbArc
 50
306.758405961
 51
320.4502234234
  0
ARC
  5
3B4
100
AcDbEntity
  8
0
100
AcDbCircle
 62
7
  6
CONTINUOUS
 10
18.2764089196
 20
2.3869743807
 40
0.0073895522
100
AcDbArc
 50
280.8288201977
 51
305.0837508495
  0
ARC
  5
3B5
100
AcDbEntity
  8
0
100
AcDbCircle
 62
7
  6
CONTINUOUS
 10
18.2768101012
 20
2.3861235343
 40
0.0064647042
100
AcDbArc
 50
306.5086174083
 51
340.2162360092
  0
ARC
  5
3B6
100
AcDbEntity
  8
0
100
AcDbCircle
 62
7
  6
CONTINUOUS
 10
18.2024754016
 20
2.4218216224
 40
0.0060275915
100
AcDbArc
 50
20.9055592135
 51
56.7851676243
  0
ARC
  5
3B7
100
AcDbEntity
  8
0
100
AcDbCircle
 62
7
  6
CONTINUOUS
 10
18.2025691502
 20
2.4227756809
 40
0.0058087709
100
AcDbArc
 50
318.8515287446
 51
353.6422345323
  0
ARC
  5
3B8
100
AcDbEntity
  8
0
100
AcDbCircle
 62
7
  6
CONTINUOUS
 10
18.2760792244
 20
2.3840063824
 40
0.0052403997
100
AcDbArc
 50
205.5232099488
 51
227.5054868079
  0
ARC
  5
3B9
100
AcDbEntity
  8
0
100
AcDbCircle
 62
7
  6
CONTINUOUS
 10
18.2037759605
 20
2.4224819047
 40
0.0045795888
100
AcDbArc
 50
355.6235353944
 51
18.9942678268
  0
ARC
  5
3BA
100
AcDbEntity
  8
0
100
AcDbCircle
 62
7
  6
CONTINUOUS
 10
18.2743509251
 20
2.3821910097
 40
0.0027347709
100
AcDbArc
 50
228.5117626738
 51
266.1485845754
  0
ARC
  5
3BB
100
AcDbEntity
  8
0
100
AcDbCircle
 62
7
  6
CONTINUOUS
 10
18.1572301659
 20
2.3912274234
 40
0.0024749995
100
AcDbArc
 50
89.9999571957
 51
180.0000428043
  0
ARC
  5
3BC
100
AcDbEntity
  8
0
100
AcDbCircle
 62
7
  6
CONTINUOUS
 10
18.1572301659
 20
2.3815284143
 40
0.0024749995
100
AcDbArc
 50
179.9999571957
 51
270.0000428043
  0
ARC
  5
3BD
100
AcDbEntity
  8
0
100
AcDbCircle
 62
7
  6
CONTINUOUS
 10
18.1818891832
 20
2.3765784153
 40
0.0024749995
100
AcDbArc
 50
359.9999571957
 51
90.0000428043
  0
ARC
  5
3BE
100
AcDbEntity
  8
0
100
AcDbCircle
 62
7
  6
CONTINUOUS
 10
18.0683181166
 20
2.3766004153
 40
0.0024749995
100
AcDbArc
 50
89.9999571957
 51
180.0000428043
  0
ARC
  5
3BF
100
AcDbEntity
  8
0
100
AcDbCircle
 62
7
  6
CONTINUOUS
 10
18.0910641329
 20
2.3815504143
 40
0.0024749995
100
AcDbArc
 50
269.9999571957
 51
0.0000428043
  0
ARC
  5
3C0
100
AcDbEntity
  8
0
100
AcDbCircle
 62
7
  6
CONTINUOUS
 10
18.2860312373
 20
2.3907374231
 40
0.0024749995
100
AcDbArc
 50
89.9999571957
 51
180.0000428043
  0
ARC
  5
3C1
100
AcDbEntity
  8
0
100
AcDbCircle
 62
7
  6
CONTINUOUS
 10
18.2981412477
 20
2.3907374231
 40
0.0024749995
100
AcDbArc
 50
359.9999571957
 51
90.0000428043
  0
ARC
  5
3C2
100
AcDbEntity
  8
0
100
AcDbCircle
 62
7
  6
CONTINUOUS
 10
18.1572301659
 20
2.415180433
 40
0.0024749995
100
AcDbArc
 50
179.9999571957
 51
270.0000428043
  0
ARC
  5
3C3
100
AcDbEntity
  8
0
100
AcDbCircle
 62
7
  6
CONTINUOUS
 10
17.992145078
 20
2.3815504143
 40
0.0024749995
100
AcDbArc
 50
269.9999571957
 51
0.0000428043
  0
ARC
  5
3C4
100
AcDbEntity
  8
0
100
AcDbCircle
 62
7
  6
CONTINUOUS
 10
17.9970950771
 20
2.3898004226
 40
0.0024749995
100
AcDbArc
 50
89.9999571957
 51
180.0000428043
  0
ARC
  5
3C5
100
AcDbEntity
  8
0
100
AcDbCircle
 62
7
  6
CONTINUOUS
 10
18.0394141042
 20
2.3898004226
 40
0.0024749995
100
AcDbArc
 50
359.9999571957
 51
90.0000428043
  0
ARC
  5
3C6
100
AcDbEntity
  8
0
100
AcDbCircle
 62
7
  6
CONTINUOUS
 10
18.0379951034
 20
2.4196554355
 40
0.0024749995
100
AcDbArc
 50
269.9999571956
 51
0.0000428042
  0
ARC
  5
3C7
100
AcDbEntity
  8
0
100
AcDbCircle
 62
7
  6
CONTINUOUS
 10
17.9961310765
 20
2.4196554355
 40
0.0024749995
100
AcDbArc
 50
179.9999571957
 51
270.0000428043
  0
ARC
  5
3C8
100
AcDbEntity
  8
0
100
AcDbCircle
 62
7
  6
CONTINUOUS
 10
17.9623080615
 20
2.4114054346
 40
0.0024749995
100
AcDbArc
 50
359.9999571957
 51
90.0000428043
  0
ARC
  5
3C9
100
AcDbEntity
  8
0
100
AcDbCircle
 62
7
  6
CONTINUOUS
 10
17.9623080615
 20
2.3980504235
 40
0.0024749995
100
AcDbArc
 50
269.9999571956
 51
0.0000428042
  0
ARC
  5
3CA
100
AcDbEntity
  8
0
100
AcDbCircle
 62
7
  6
CONTINUOUS
 10
18.220842337
 20
2.4783532224
 40
0.0789082104
100
AcDbArc
 50
292.906155071
 51
305.2574666259
  0
ARC
  5
3CB
100
AcDbEntity
  8
0
100
AcDbCircle
 62
7
  6
CONTINUOUS
 10
18.2511742746
 20
2.4351463727
 40
0.0261183659
100
AcDbArc
 50
305.6373831893
 51
329.9727629745
  0
ARC
  5
3CC
100
AcDbEntity
  8
0
100
AcDbCircle
 62
7
  6
CONTINUOUS
 10
18.1908418374
 20
2.4381440645
 40
0.0254407115
100
AcDbArc
 50
270.7327484175
 51
290.441894219
  0
ARC
  5
3CD
100
AcDbEntity
  8
0
100
AcDbCircle
 62
7
  6
CONTINUOUS
 10
18.1927693431
 20
2.4337504172
 40
0.0206523367
100
AcDbArc
 50
289.6883413472
 51
306.4184925496
  0
ARC
  5
3CE
100
AcDbEntity
  8
0
100
AcDbCircle
 62
7
  6
CONTINUOUS
 10
18.2588883357
 20
2.4282993328
 40
0.0165459396
100
AcDbArc
 50
1.548452892
 51
33.5033152417
  0
ARC
  5
3CF
100
AcDbEntity
  8
0
100
AcDbCircle
 62
7
  6
CONTINUOUS
 10
18.2621849309
 20
2.428467785
 40
0.0132462337
100
AcDbArc
 50
331.1510006998
 51
1.205404301
  0
ARC
  5
3D0
100
AcDbEntity
  8
0
100
AcDbCircle
 62
7
  6
CONTINUOUS
 10
18.0910641329
 20
2.4279054437
 40
0.0024749995
100
AcDbArc
 50
359.9999571957
 51
90.0000428043
  0
ARC
  5
3D1
100
AcDbEntity
  8
0
100
AcDbCircle
 62
7
  6
CONTINUOUS
 10
18.0683181166
 20
2.4328554428
 40
0.0024749995
100
AcDbArc
 50
179.9999571957
 51
270.0000428043
  0
ARC
  5
3D2
100
AcDbEntity
  8
0
100
AcDbCircle
 62
7
  6
CONTINUOUS
 10
18.0683181166
 20
2.4526554575
 40
0.0024749995
100
AcDbArc
 50
89.9999571957
 51
180.0000428043
  0
ARC
  5
3D3
100
AcDbEntity
  8
0
100
AcDbCircle
 62
7
  6
CONTINUOUS
 10
18.1572301659
 20
2.4279054437
 40
0.0024749995
100
AcDbArc
 50
89.9999571957
 51
180.0000428043
  0
ARC
  5
3D4
100
AcDbEntity
  8
0
100
AcDbCircle
 62
7
  6
CONTINUOUS
 10
18.0379951034
 20
2.4526554575
 40
0.0024749995
100
AcDbArc
 50
359.9999571957
 51
90.0000428043
  0
ARC
  5
3D5
100
AcDbEntity
  8
0
100
AcDbCircle
 62
7
  6
CONTINUOUS
 10
17.9911810775
 20
2.4279054437
 40
0.0024749995
100
AcDbArc
 50
359.9999571957
 51
90.0000428043
  0
ELLIPSE
  5
3D6
100
AcDbEntity
  8
0
100
AcDbEllipse
 62
7
  6
CONTINUOUS
 10
17.573550844
 20
2.4034764283
 30
0.0
 11
-0.8250004575
 21
0.0
 31
0.0
 40
0.218572
 41
0.0
 42
6.2831853072
  0
HATCH
  5
3D7
100
AcDbEntity
  8
0
100
AcDbHatch
 62
7
  6
CONTINUOUS
 10
0.0
 20
0.0
 30
0.0
210
0.0
220
0.0
230
1.0
  2
XSEC0002
 70
1
 71
1
 91
11
 92
1
 93
57
 72
2
 10
18.2265855264
 20
2.3716475527
 40
0.0173408616
 50
232.4713476722
 51
267.338189944
 73
1
 72
2
 10
18.2296840914
 20
2.3774978567
 40
0.0238935861
 50
209.8247607259
 51
235.1255079367
 73
1
 72
2
 10
18.2495655574
 20
2.384346736
 40
0.044722495
 50
195.531588407
 51
204.7624440448
 73
1
 72
1
 10
18.206476195
 20
2.3723714111
 11
18.204672194
 21
2.3784404145
 72
2
 10
18.1662929967
 20
2.368643334
 40
0.0396099176
 50
14.3201081283
 51
22.4984722084
 73
1
 72
2
 10
18.1890593051
 20
2.3776149607
 40
0.0151491919
 50
24.098260853
 51
63.0369451818
 73
1
 72
2
 10
18.1850046504
 20
2.3693353402
 40
0.0243676582
 50
63.3666028271
 51
90.3937697637
 73
1
 72
1
 10
18.184837183
 20
2.3937024229
 11
18.1572301677
 21
2.3937024229
 72
2
 10
18.1572301659
 20
2.3912274234
 40
0.0024749995
 50
89.9999571957
 51
180.0000428043
 73
1
 72
1
 10
18.1547551663
 20
2.3912274216
 11
18.1547551663
 21
2.3815284162
 72
2
 10
18.1572301659
 20
2.3815284143
 40
0.0024749995
 50
179.9999571957
 51
270.0000428043
 73
1
 72
1
 10
18.1572301677
 20
2.3790534148
 11
18.1818891814
 21
2.3790534148
 72
2
 10
18.1818891832
 20
2.3765784153
 40
0.0024749995
 50
359.9999571957
 51
90.0000428042
 73
1
 72
1
 10
18.1843641828
 20
2.3765784134
 11
18.1843641828
 21
2.3568004025
 72
2
 10
18.1818891832
 20
2.3568004006
 40
0.0024749995
 50
269.9999571958
 51
0.0000428043
 73
1
 72
1
 10
18.1818891814
 20
2.3543254011
 11
18.0683181184
 21
2.3543254011
 72
2
 10
18.0683181166
 20
2.3568004006
 40
0.0024749995
 50
179.9999571957
 51
270.0000428042
 73
1
 72
1
 10
18.065843117
 20
2.3568004025
 11
18.065843117
 21
2.3766004134
 72
2
 10
18.0683181166
 20
2.3766004153
 40
0.0024749995
 50
89.9999571958
 51
180.0000428043
 73
1
 72
1
 10
18.0683181184
 20
2.3790754148
 11
18.091064131
 21
2.3790754148
 72
2
 10
18.0910641329
 20
2.3815504143
 40
0.0024749995
 50
269.9999571957
 51
0.0000428043
 73
1
 72
1
 10
18.0935391324
 20
2.3815504162
 11
18.0935391324
 21
2.4279054419
 72
2
 10
18.0910641329
 20
2.4279054437
 40
0.0024749995
 50
359.9999571957
 51
90.0000428043
 73
1
 72
1
 10
18.091064131
 20
2.4303804433
 11
18.0683181184
 21
2.4303804433
 72
2
 10
18.0683181166
 20
2.4328554428
 40
0.0024749995
 50
179.9999571957
 51
270.0000428043
 73
1
 72
1
 10
18.065843117
 20
2.4328554446
 11
18.065843117
 21
2.4526554556
 72
2
 10
18.0683181166
 20
2.4526554575
 40
0.0024749995
 50
89.9999571958
 51
180.0000428043
 73
1
 72
1
 10
18.0683181184
 20
2.455130457
 11
18.2178992014
 21
2.455130457
 72
2
 10
18.2152358981
 20
2.2725915465
 40
0.1825583387
 50
79.8618509324
 51
89.1640948679
 73
1
 72
2
 10
18.2415401884
 20
2.4134150625
 40
0.039319019
 50
59.1202086415
 51
81.4730239328
 73
1
 72
2
 10
18.2471995846
 20
2.4197497317
 40
0.0310192946
 50
34.7540871
 51
62.0879016178
 73
1
 72
2
 10
18.2588883357
 20
2.4282993328
 40
0.0165459396
 50
1.548452892
 51
33.5033152417
 73
1
 72
2
 10
18.2621849309
 20
2.428467785
 40
0.0132462337
 50
331.1510006998
 51
1.205404301
 73
1
 72
2
 10
18.2511742746
 20
2.4351463727
 40
0.0261183659
 50
305.6373831893
 51
329.9727629745
 73
1
 72
2
 10
18.220842337
 20
2.4783532224
 40
0.0789082104
 50
292.906155071
 51
305.2574666259
 73
1
 72
2
 10
18.197141171
 20
2.3016991173
 40
0.117346916
 50
58.614769177
 51
62.3737227606
 73
1
 72
2
 10
18.2450241237
 20
2.3798263774
 40
0.0257145923
 50
39.3804255939
 51
59.0361096173
 73
1
 72
2
 10
18.2439037681
 20
2.3797532943
 40
0.0266349791
 50
20.3630922153
 51
37.9727053099
 73
1
 72
2
 10
18.2260032264
 20
2.3725718859
 40
0.0459185159
 50
15.6740290068
 51
20.9917271228
 73
1
 72
2
 10
18.2845735615
 20
2.3882148688
 40
0.0147197649
 50
192.7054516565
 51
206.0594861022
 73
1
 72
2
 10
18.2760792244
 20
2.3840063824
 40
0.0052403997
 50
205.5232099488
 51
227.5054868079
 73
1
 72
2
 10
18.2743509251
 20
2.3821910097
 40
0.0027347709
 50
228.5117626738
 51
266.1485845755
 73
1
 72
1
 10
18.2741672326
 20
2.379462415
 11
18.2752762332
 21
2.379462415
 72
2
 10
18.2752146786
 20
2.3927110743
 40
0.0132488022
 50
270.266200055
 51
281.2404888597
 73
1
 72
2
 10
18.2764089196
 20
2.3869743807
 40
0.0073895522
 50
280.8288201977
 51
305.0837508495
 73
1
 72
2
 10
18.2768101012
 20
2.3861235343
 40
0.0064647042
 50
306.5086174083
 51
340.2162360092
 73
1
 72
2
 10
18.2716089246
 20
2.3878675959
 40
0.0119498009
 50
340.7883861657
 51
1.1691452593
 73
1
 72
1
 10
18.2835562378
 20
2.3881114198
 11
18.2835562378
 21
2.3907374213
 72
2
 10
18.2860312373
 20
2.3907374231
 40
0.0024749995
 50
89.9999571957
 51
180.0000428043
 73
1
 72
1
 10
18.2860312391
 20
2.3932124227
 11
18.2981412459
 21
2.3932124227
 72
2
 10
18.2981412477
 20
2.3907374231
 40
0.0024749995
 50
359.9999571957
 51
90.0000428043
 73
1
 72
1
 10
18.3006162472
 20
2.3907374213
 11
18.3006162472
 21
2.3791854149
 72
2
 10
18.2830605507
 20
2.3792897325
 40
0.0175560065
 50
332.2279060967
 51
359.6595469939
 73
1
 72
2
 10
18.2737535399
 20
2.384184238
 40
0.0280715479
 50
308.5071794988
 51
332.2400656899
 73
1
 72
2
 10
18.2667613545
 20
2.3917854558
 40
0.0383802683
 50
288.7656836787
 51
309.6104317088
 73
1
 72
2
 10
18.2724993219
 20
2.3741987064
 40
0.0198837666
 50
271.8586572978
 51
289.4131338543
 73
1
 72
1
 10
18.273144232
 20
2.3543254011
 11
18.2257802057
 21
2.3543254011
 97
267
330
2CC
330
2CD
330
2CE
330
2CF
330
2D0
330
2D1
330
2D2
330
2D3
330
2D4
330
2D5
330
2D6
330
2D7
330
2D8
330
2D9
330
2DA
330
2DB
330
2DC
330
2DD
330
2DE
330
2DF
330
2E0
330
2E1
330
2E2
330
2E3
330
2E4
330
2E5
330
2E6
330
2E7
330
2E8
330
2E9
330
2EA
330
2EB
330
2EC
330
2ED
330
2EE
330
2EF
330
2F0
330
2F1
330
2F2
330
2F3
330
2F4
330
2F5
330
2F6
330
2F7
330
2F8
330
2F9
330
2FA
330
2FB
330
2FC
330
2FD
330
2FE
330
2FF
330
300
330
301
330
302
330
303
330
304
330
305
330
306
330
307
330
308
330
309
330
30A
330
30B
330
30C
330
30D
330
30E
330
30F
330
310
330
311
330
312
330
313
330
314
330
315
330
316
330
317
330
318
330
319
330
31A
330
31B
330
31C
330
31D
330
31E
330
31F
330
320
330
321
330
322
330
323
330
324
330
325
330
326
330
327
330
328
330
329
330
32A
330
32B
330
32C
330
32D
330
32E
330
32F
330
330
330
331
330
332
330
333
330
334
330
335
330
336
330
337
330
338
330
339
330
33A
330
33B
330
33C
330
33D
330
33E
330
33F
330
340
330
341
330
342
330
343
330
344
330
345
330
346
330
347
330
348
330
349
330
34A
330
34B
330
34C
330
34D
330
34E
330
34F
330
350
330
351
330
352
330
353
330
354
330
355
330
356
330
357
330
358
330
359
330
35A
330
35B
330
35C
330
35D
330
35E
330
35F
330
360
330
361
330
362
330
363
330
364
330
365
330
366
330
367
330
368
330
369
330
36A
330
36B
330
36C
330
36D
330
36E
330
36F
330
370
330
371
330
372
330
373
330
374
330
375
330
376
330
377
330
378
330
379
330
37A
330
37B
330
37C
330
37D
330
37E
330
37F
330
380
330
381
330
382
330
383
330
384
330
385
330
386
330
387
330
388
330
389
330
38A
330
38B
330
38C
330
38D
330
38E
330
38F
330
390
330
391
330
392
330
393
330
394
330
395
330
396
330
397
330
398
330
399
330
39A
330
39B
330
39C
330
39D
330
39E
330
39F
330
3A0
330
3A1
330
3A2
330
3A3
330
3A4
330
3A5
330
3A6
330
3A7
330
3A8
330
3A9
330
3AA
330
3AB
330
3AC
330
3AD
330
3AE
330
3AF
330
3B0
330
3B1
330
3B2
330
3B3
330
3B4
330
3B5
330
3B6
330
3B7
330
3B8
330
3B9
330
3BA
330
3BB
330
3BC
330
3BD
330
3BE
330
3BF
330
3C0
330
3C1
330
3C2
330
3C3
330
3C4
330
3C5
330
3C6
330
3C7
330
3C8
330
3C9
330
3CA
330
3CB
330
3CC
330
3CD
330
3CE
330
3CF
330
3D0
330
3D1
330
3D2
330
3D3
330
3D4
330
3D5
330
3D6
 92
1
 93
40
 72
2
 10
17.8362019878
 20
2.3568004006
 40
0.0024749995
 50
179.9999571957
 51
270.0000428042
 73
1
 72
1
 10
17.8337269883
 20
2.3568004025
 11
17.8337269883
 21
2.3766004134
 72
2
 10
17.8362019878
 20
2.3766004153
 40
0.0024749995
 50
89.9999571958
 51
180.0000428043
 73
1
 72
1
 10
17.8362019897
 20
2.3790754148
 11
17.860125003
 21
2.3790754148
 72
2
 10
17.8601250048
 20
2.3815504143
 40
0.0024749995
 50
269.9999571956
 51
0.0000428042
 73
1
 72
1
 10
17.8626000043
 20
2.3815504162
 11
17.8626000043
 21
2.4279054419
 72
2
 10
17.8601250048
 20
2.4279054437
 40
0.0024749995
 50
359.9999571957
 51
90.0000428043
 73
1
 72
1
 10
17.860125003
 20
2.4303804433
 11
17.8362019897
 21
2.4303804433
 72
2
 10
17.8362019878
 20
2.4328554428
 40
0.0024749995
 50
179.9999571957
 51
270.0000428043
 73
1
 72
1
 10
17.8337269883
 20
2.4328554446
 11
17.8337269883
 21
2.4526554556
 72
2
 10
17.8362019878
 20
2.4526554575
 40
0.0024749995
 50
89.9999571958
 51
180.0000428043
 73
1
 72
1
 10
17.8362019897
 20
2.455130457
 11
18.0379951016
 21
2.455130457
 72
2
 10
18.0379951034
 20
2.4526554575
 40
0.0024749995
 50
359.9999571957
 51
90.0000428042
 73
1
 72
1
 10
18.040470103
 20
2.4526554556
 11
18.040470103
 21
2.4196554373
 72
2
 10
18.0379951034
 20
2.4196554355
 40
0.0024749995
 50
269.9999571956
 51
0.0000428042
 73
1
 72
1
 10
18.0379951016
 20
2.4171804359
 11
17.9961310784
 21
2.4171804359
 72
2
 10
17.9961310765
 20
2.4196554355
 40
0.0024749995
 50
179.9999571957
 51
270.0000428043
 73
1
 72
1
 10
17.993656077
 20
2.4196554373
 11
17.993656077
 21
2.4279054419
 72
2
 10
17.9911810775
 20
2.4279054437
 40
0.0024749995
 50
359.9999571957
 51
90.0000428043
 73
1
 72
1
 10
17.9911810756
 20
2.4303804433
 11
17.9271410401
 21
2.4303804433
 72
2
 10
17.9271410383
 20
2.4279054437
 40
0.0024749995
 50
89.9999571958
 51
180.0000428043
 73
1
 72
1
 10
17.9246660387
 20
2.4279054419
 11
17.9246660387
 21
2.4163554355
 72
2
 10
17.9271410383
 20
2.4163554336
 40
0.0024749995
 50
179.9999571957
 51
270.0000428042
 73
1
 72
1
 10
17.9271410401
 20
2.4138804341
 11
17.9623080596
 21
2.4138804341
 72
2
 10
17.9623080615
 20
2.4114054346
 40
0.0024749995
 50
359.9999571957
 51
90.0000428042
 73
1
 72
1
 10
17.964783061
 20
2.4114054327
 11
17.964783061
 21
2.3980504253
 72
2
 10
17.9623080615
 20
2.3980504235
 40
0.0024749995
 50
269.9999571956
 51
0.0000428042
 73
1
 72
1
 10
17.9623080596
 20
2.395575424
 11
17.9271410401
 21
2.395575424
 72
2
 10
17.9271410383
 20
2.3931004244
 40
0.0024749995
 50
89.9999571958
 51
180.0000428043
 73
1
 72
1
 10
17.9246660387
 20
2.3931004226
 11
17.9246660387
 21
2.3815504162
 72
2
 10
17.9271410383
 20
2.3815504143
 40
0.0024749995
 50
179.9999571957
 51
270.0000428043
 73
1
 72
1
 10
17.9271410401
 20
2.3790754148
 11
17.9921450762
 21
2.3790754148
 72
2
 10
17.992145078
 20
2.3815504143
 40
0.0024749995
 50
269.9999571958
 51
0.0000428043
 73
1
 72
1
 10
17.9946200775
 20
2.3815504162
 11
17.9946200775
 21
2.3898004208
 72
2
 10
17.9970950771
 20
2.3898004226
 40
0.0024749995
 50
89.9999571958
 51
180.0000428043
 73
1
 72
1
 10
17.9970950789
 20
2.3922754221
 11
18.0394141024
 21
2.3922754221
 72
2
 10
18.0394141042
 20
2.3898004226
 40
0.0024749995
 50
359.9999571957
 51
90.0000428043
 73
1
 72
1
 10
18.0418891038
 20
2.3898004208
 11
18.0418891038
 21
2.3568004025
 72
2
 10
18.0394141042
 20
2.3568004006
 40
0.0024749995
 50
269.9999571958
 51
0.0000428043
 73
1
 72
1
 10
18.0394141024
 20
2.3543254011
 11
17.8362019897
 21
2.3543254011
 97
267
330
2CC
330
2CD
330
2CE
330
2CF
330
2D0
330
2D1
330
2D2
330
2D3
330
2D4
330
2D5
330
2D6
330
2D7
330
2D8
330
2D9
330
2DA
330
2DB
330
2DC
330
2DD
330
2DE
330
2DF
330
2E0
330
2E1
330
2E2
330
2E3
330
2E4
330
2E5
330
2E6
330
2E7
330
2E8
330
2E9
330
2EA
330
2EB
330
2EC
330
2ED
330
2EE
330
2EF
330
2F0
330
2F1
330
2F2
330
2F3
330
2F4
330
2F5
330
2F6
330
2F7
330
2F8
330
2F9
330
2FA
330
2FB
330
2FC
330
2FD
330
2FE
330
2FF
330
300
330
301
330
302
330
303
330
304
330
305
330
306
330
307
330
308
330
309
330
30A
330
30B
330
30C
330
30D
330
30E
330
30F
330
310
330
311
330
312
330
313
330
314
330
315
330
316
330
317
330
318
330
319
330
31A
330
31B
330
31C
330
31D
330
31E
330
31F
330
320
330
321
330
322
330
323
330
324
330
325
330
326
330
327
330
328
330
329
330
32A
330
32B
330
32C
330
32D
330
32E
330
32F
330
330
330
331
330
332
330
333
330
334
330
335
330
336
330
337
330
338
330
339
330
33A
330
33B
330
33C
330
33D
330
33E
330
33F
330
340
330
341
330
342
330
343
330
344
330
345
330
346
330
347
330
348
330
349
330
34A
330
34B
330
34C
330
34D
330
34E
330
34F
330
350
330
351
330
352
330
353
330
354
330
355
330
356
330
357
330
358
330
359
330
35A
330
35B
330
35C
330
35D
330
35E
330
35F
330
360
330
361
330
362
330
363
330
364
330
365
330
366
330
367
330
368
330
369
330
36A
330
36B
330
36C
330
36D
330
36E
330
36F
330
370
330
371
330
372
330
373
330
374
330
375
330
376
330
377
330
378
330
379
330
37A
330
37B
330
37C
330
37D
330
37E
330
37F
330
380
330
381
330
382
330
383
330
384
330
385
330
386
330
387
330
388
330
389
330
38A
330
38B
330
38C
330
38D
330
38E
330
38F
330
390
330
391
330
392
330
393
330
394
330
395
330
396
330
397
330
398
330
399
330
39A
330
39B
330
39C
330
39D
330
39E
330
39F
330
3A0
330
3A1
330
3A2
330
3A3
330
3A4
330
3A5
330
3A6
330
3A7
330
3A8
330
3A9
330
3AA
330
3AB
330
3AC
330
3AD
330
3AE
330
3AF
330
3B0
330
3B1
330
3B2
330
3B3
330
3B4
330
3B5
330
3B6
330
3B7
330
3B8
330
3B9
330
3BA
330
3BB
330
3BC
330
3BD
330
3BE
330
3BF
330
3C0
330
3C1
330
3C2
330
3C3
330
3C4
330
3C5
330
3C6
330
3C7
330
3C8
330
3C9
330
3CA
330
3CB
330
3CC
330
3CD
330
3CE
330
3CF
330
3D0
330
3D1
330
3D2
330
3D3
330
3D4
330
3D5
330
3D6
 92
1
 93
40
 72
2
 10
17.7115227858
 20
2.3567995689
 40
0.0024741678
 50
226.3477981898
 51
270.0031206038
 73
1
 72
1
 10
17.7098149196
 20
2.3550094015
 11
17.6465348845
 21
2.415387435
 72
2
 10
17.6448261836
 20
2.4135964972
 40
0.0024753014
 50
46.3461263058
 51
180.0014637321
 73
1
 72
1
 10
17.6423508822
 20
2.413596434
 11
17.6423508822
 21
2.3815504162
 72
2
 10
17.6448258817
 20
2.3815504143
 40
0.0024749995
 50
179.9999571957
 51
270.0000428043
 73
1
 72
1
 10
17.6448258836
 20
2.3790754148
 11
17.6651428948
 21
2.3790754148
 72
2
 10
17.6651428967
 20
2.3766004153
 40
0.0024749995
 50
359.9999571957
 51
90.0000428043
 73
1
 72
1
 10
17.6676178962
 20
2.3766004134
 11
17.6676178962
 21
2.3568004025
 72
2
 10
17.6651428967
 20
2.3568004006
 40
0.0024749995
 50
269.9999571958
 51
0.0000428043
 73
1
 72
1
 10
17.6651428948
 20
2.3543254011
 11
17.5894788529
 21
2.3543254011
 72
2
 10
17.589478851
 20
2.3568004006
 40
0.0024749995
 50
179.9999571957
 51
270.0000428042
 73
1
 72
1
 10
17.5870038515
 20
2.3568004025
 11
17.5870038515
 21
2.3766004134
 72
2
 10
17.589478851
 20
2.3766004153
 40
0.0024749995
 50
89.9999571957
 51
180.0000428043
 73
1
 72
1
 10
17.5894788529
 20
2.3790754148
 11
17.6081248632
 21
2.3790754148
 72
2
 10
17.6081248651
 20
2.3815504143
 40
0.0024749995
 50
269.9999571957
 51
0.0000428043
 73
1
 72
1
 10
17.6105998646
 20
2.3815504162
 11
17.6105998646
 21
2.4279054419
 72
2
 10
17.6081248651
 20
2.4279054437
 40
0.0024749995
 50
359.9999571957
 51
90.0000428043
 73
1
 72
1
 10
17.6081248632
 20
2.4303804433
 11
17.5894788529
 21
2.4303804433
 72
2
 10
17.589478851
 20
2.4328554428
 40
0.0024749995
 50
179.9999571957
 51
270.0000428043
 73
1
 72
1
 10
17.5870038515
 20
2.4328554446
 11
17.5870038515
 21
2.4526554556
 72
2
 10
17.589478851
 20
2.4526554575
 40
0.0024749995
 50
89.9999571957
 51
180.0000428043
 73
1
 72
1
 10
17.5894788529
 20
2.455130457
 11
17.6899369086
 21
2.455130457
 72
2
 10
17.6899370433
 20
2.4526562892
 40
0.0024741678
 50
46.3477981899
 51
90.0031206038
 73
1
 72
1
 10
17.6916449095
 20
2.4544464566
 11
17.7516779428
 21
2.3971664249
 72
2
 10
17.7533866437
 20
2.3989573626
 40
0.0024753014
 50
226.3461263059
 51
0.0014637321
 73
1
 72
1
 10
17.7558619451
 20
2.3989574258
 11
17.7558619451
 21
2.4279054419
 72
2
 10
17.7533869456
 20
2.4279054437
 40
0.0024749995
 50
359.9999571957
 51
90.0000428043
 73
1
 72
1
 10
17.7533869438
 20
2.4303804433
 11
17.7346109333
 21
2.4303804433
 72
2
 10
17.7346109315
 20
2.4328554428
 40
0.0024749995
 50
179.9999571957
 51
270.0000428043
 73
1
 72
1
 10
17.732135932
 20
2.4328554446
 11
17.732135932
 21
2.4526554556
 72
2
 10
17.7346109315
 20
2.4526554575
 40
0.0024749995
 50
89.9999571958
 51
180.0000428043
 73
1
 72
1
 10
17.7346109333
 20
2.455130457
 11
17.8086119744
 21
2.455130457
 72
2
 10
17.8086119762
 20
2.4526554575
 40
0.0024749995
 50
359.9999571957
 51
90.0000428043
 73
1
 72
1
 10
17.8110869758
 20
2.4526554556
 11
17.8110869758
 21
2.4328554446
 72
2
 10
17.8086119762
 20
2.4328554428
 40
0.0024749995
 50
269.9999571956
 51
0.0000428042
 73
1
 72
1
 10
17.8086119744
 20
2.4303804433
 11
17.7906789644
 21
2.4303804433
 72
2
 10
17.7906789626
 20
2.4279054437
 40
0.0024749995
 50
89.9999571957
 51
180.0000428043
 73
1
 72
1
 10
17.7882039631
 20
2.4279054419
 11
17.7882039631
 21
2.3568004025
 72
2
 10
17.7857289635
 20
2.3568004006
 40
0.0024749995
 50
269.9999571957
 51
0.0000428043
 73
1
 72
1
 10
17.7857289617
 20
2.3543254011
 11
17.7115229205
 21
2.3543254011
 97
267
330
2CC
330
2CD
330
2CE
330
2CF
330
2D0
330
2D1
330
2D2
330
2D3
330
2D4
330
2D5
330
2D6
330
2D7
330
2D8
330
2D9
330
2DA
330
2DB
330
2DC
330
2DD
330
2DE
330
2DF
330
2E0
330
2E1
330
2E2
330
2E3
330
2E4
330
2E5
330
2E6
330
2E7
330
2E8
330
2E9
330
2EA
330
2EB
330
2EC
330
2ED
330
2EE
330
2EF
330
2F0
330
2F1
330
2F2
330
2F3
330
2F4
330
2F5
330
2F6
330
2F7
330
2F8
330
2F9
330
2FA
330
2FB
330
2FC
330
2FD
330
2FE
330
2FF
330
300
330
301
330
302
330
303
330
304
330
305
330
306
330
307
330
308
330
309
330
30A
330
30B
330
30C
330
30D
330
30E
330
30F
330
310
330
311
330
312
330
313
330
314
330
315
330
316
330
317
330
318
330
319
330
31A
330
31B
330
31C
330
31D
330
31E
330
31F
330
320
330
321
330
322
330
323
330
324
330
325
330
326
330
327
330
328
330
329
330
32A
330
32B
330
32C
330
32D
330
32E
330
32F
330
330
330
331
330
332
330
333
330
334
330
335
330
336
330
337
330
338
330
339
330
33A
330
33B
330
33C
330
33D
330
33E
330
33F
330
340
330
341
330
342
330
343
330
344
330
345
330
346
330
347
330
348
330
349
330
34A
330
34B
330
34C
330
34D
330
34E
330
34F
330
350
330
351
330
352
330
353
330
354
330
355
330
356
330
357
330
358
330
359
330
35A
330
35B
330
35C
330
35D
330
35E
330
35F
330
360
330
361
330
362
330
363
330
364
330
365
330
366
330
367
330
368
330
369
330
36A
330
36B
330
36C
330
36D
330
36E
330
36F
330
370
330
371
330
372
330
373
330
374
330
375
330
376
330
377
330
378
330
379
330
37A
330
37B
330
37C
330
37D
330
37E
330
37F
330
380
330
381
330
382
330
383
330
384
330
385
330
386
330
387
330
388
330
389
330
38A
330
38B
330
38C
330
38D
330
38E
330
38F
330
390
330
391
330
392
330
393
330
394
330
395
330
396
330
397
330
398
330
399
330
39A
330
39B
330
39C
330
39D
330
39E
330
39F
330
3A0
330
3A1
330
3A2
330
3A3
330
3A4
330
3A5
330
3A6
330
3A7
330
3A8
330
3A9
330
3AA
330
3AB
330
3AC
330
3AD
330
3AE
330
3AF
330
3B0
330
3B1
330
3B2
330
3B3
330
3B4
330
3B5
330
3B6
330
3B7
330
3B8
330
3B9
330
3BA
330
3BB
330
3BC
330
3BD
330
3BE
330
3BF
330
3C0
330
3C1
330
3C2
330
3C3
330
3C4
330
3C5
330
3C6
330
3C7
330
3C8
330
3C9
330
3CA
330
3CB
330
3CC
330
3CD
330
3CE
330
3CF
330
3D0
330
3D1
330
3D2
330
3D3
330
3D4
330
3D5
330
3D6
 92
1
 93
40
 72
2
 10
17.4632701481
 20
2.3568008172
 40
0.0024754162
 50
226.3593695814
 51
270.0146919954
 73
1
 72
1
 10
17.4615617819
 20
2.3550094015
 11
17.3982817468
 21
2.415387435
 72
2
 10
17.3965730459
 20
2.4135964972
 40
0.0024753014
 50
46.3461263058
 51
180.0014637321
 73
1
 72
1
 10
17.3940977445
 20
2.413596434
 11
17.3940977445
 21
2.3815504162
 72
2
 10
17.396572744
 20
2.3815504143
 40
0.0024749995
 50
179.9999571957
 51
270.0000428043
 73
1
 72
1
 10
17.3965727459
 20
2.3790754148
 11
17.4168897572
 21
2.3790754148
 72
2
 10
17.416889759
 20
2.3766004153
 40
0.0024749995
 50
359.9999571957
 51
90.0000428043
 73
1
 72
1
 10
17.4193647585
 20
2.3766004134
 11
17.4193647585
 21
2.3568004025
 72
2
 10
17.416889759
 20
2.3568004006
 40
0.0024749995
 50
269.9999571957
 51
0.0000428043
 73
1
 72
1
 10
17.4168897572
 20
2.3543254011
 11
17.3412257152
 21
2.3543254011
 72
2
 10
17.3412257133
 20
2.3568004006
 40
0.0024749995
 50
179.9999571957
 51
270.0000428043
 73
1
 72
1
 10
17.3387507138
 20
2.3568004025
 11
17.3387507138
 21
2.3766004134
 72
2
 10
17.3412257133
 20
2.3766004153
 40
0.0024749995
 50
89.9999571957
 51
180.0000428043
 73
1
 72
1
 10
17.3412257152
 20
2.3790754148
 11
17.3598727255
 21
2.3790754148
 72
2
 10
17.3598727274
 20
2.3815504143
 40
0.0024749995
 50
269.9999571957
 51
0.0000428043
 73
1
 72
1
 10
17.3623477269
 20
2.3815504162
 11
17.3623477269
 21
2.4279054419
 72
2
 10
17.3598727274
 20
2.4279054437
 40
0.0024749995
 50
359.9999571957
 51
90.0000428044
 73
1
 72
1
 10
17.3598727255
 20
2.4303804433
 11
17.3412257152
 21
2.4303804433
 72
2
 10
17.3412257133
 20
2.4328554428
 40
0.0024749995
 50
179.9999571957
 51
270.0000428043
 73
1
 72
1
 10
17.3387507138
 20
2.4328554446
 11
17.3387507138
 21
2.4526554556
 72
2
 10
17.3412257133
 20
2.4526554575
 40
0.0024749995
 50
89.9999571957
 51
180.0000428043
 73
1
 72
1
 10
17.3412257152
 20
2.455130457
 11
17.4416837709
 21
2.455130457
 72
2
 10
17.4416839057
 20
2.4526562892
 40
0.0024741678
 50
46.3477981899
 51
90.0031206038
 73
1
 72
1
 10
17.4433917718
 20
2.4544464566
 11
17.5034248051
 21
2.3971664249
 72
2
 10
17.5051335061
 20
2.3989573626
 40
0.0024753014
 50
226.3461263059
 51
0.0014637321
 73
1
 72
1
 10
17.5076088075
 20
2.3989574258
 11
17.5076088075
 21
2.4279054419
 72
2
 10
17.5051338079
 20
2.4279054437
 40
0.0024749995
 50
359.9999571957
 51
90.0000428043
 73
1
 72
1
 10
17.5051338061
 20
2.4303804433
 11
17.4863577957
 21
2.4303804433
 72
2
 10
17.4863577938
 20
2.4328554428
 40
0.0024749995
 50
179.9999571957
 51
270.0000428043
 73
1
 72
1
 10
17.4838827943
 20
2.4328554446
 11
17.4838827943
 21
2.4526554556
 72
2
 10
17.4863577938
 20
2.4526554575
 40
0.0024749995
 50
89.9999571957
 51
180.0000428043
 73
1
 72
1
 10
17.4863577957
 20
2.455130457
 11
17.5603588367
 21
2.455130457
 72
2
 10
17.5603588386
 20
2.4526554575
 40
0.0024749995
 50
359.9999571957
 51
90.0000428042
 73
1
 72
1
 10
17.5628338381
 20
2.4526554556
 11
17.5628338381
 21
2.4328554446
 72
2
 10
17.5603588386
 20
2.4328554428
 40
0.0024749995
 50
269.9999571958
 51
0.0000428043
 73
1
 72
1
 10
17.5603588367
 20
2.4303804433
 11
17.5424258268
 21
2.4303804433
 72
2
 10
17.5424258249
 20
2.4279054437
 40
0.0024749995
 50
89.9999571958
 51
180.0000428043
 73
1
 72
1
 10
17.5399508254
 20
2.4279054419
 11
17.5399508254
 21
2.3568004025
 72
2
 10
17.5374758259
 20
2.3568004006
 40
0.0024749995
 50
269.9999571958
 51
0.0000428043
 73
1
 72
1
 10
17.537475824
 20
2.3543254011
 11
17.4632707829
 21
2.3543254011
 97
267
330
2CC
330
2CD
330
2CE
330
2CF
330
2D0
330
2D1
330
2D2
330
2D3
330
2D4
330
2D5
330
2D6
330
2D7
330
2D8
330
2D9
330
2DA
330
2DB
330
2DC
330
2DD
330
2DE
330
2DF
330
2E0
330
2E1
330
2E2
330
2E3
330
2E4
330
2E5
330
2E6
330
2E7
330
2E8
330
2E9
330
2EA
330
2EB
330
2EC
330
2ED
330
2EE
330
2EF
330
2F0
330
2F1
330
2F2
330
2F3
330
2F4
330
2F5
330
2F6
330
2F7
330
2F8
330
2F9
330
2FA
330
2FB
330
2FC
330
2FD
330
2FE
330
2FF
330
300
330
301
330
302
330
303
330
304
330
305
330
306
330
307
330
308
330
309
330
30A
330
30B
330
30C
330
30D
330
30E
330
30F
330
310
330
311
330
312
330
313
330
314
330
315
330
316
330
317
330
318
330
319
330
31A
330
31B
330
31C
330
31D
330
31E
330
31F
330
320
330
321
330
322
330
323
330
324
330
325
330
326
330
327
330
328
330
329
330
32A
330
32B
330
32C
330
32D
330
32E
330
32F
330
330
330
331
330
332
330
333
330
334
330
335
330
336
330
337
330
338
330
339
330
33A
330
33B
330
33C
330
33D
330
33E
330
33F
330
340
330
341
330
342
330
343
330
344
330
345
330
346
330
347
330
348
330
349
330
34A
330
34B
330
34C
330
34D
330
34E
330
34F
330
350
330
351
330
352
330
353
330
354
330
355
330
356
330
357
330
358
330
359
330
35A
330
35B
330
35C
330
35D
330
35E
330
35F
330
360
330
361
330
362
330
363
330
364
330
365
330
366
330
367
330
368
330
369
330
36A
330
36B
330
36C
330
36D
330
36E
330
36F
330
370
330
371
330
372
330
373
330
374
330
375
330
376
330
377
330
378
330
379
330
37A
330
37B
330
37C
330
37D
330
37E
330
37F
330
380
330
381
330
382
330
383
330
384
330
385
330
386
330
387
330
388
330
389
330
38A
330
38B
330
38C
330
38D
330
38E
330
38F
330
390
330
391
330
392
330
393
330
394
330
395
330
396
330
397
330
398
330
399
330
39A
330
39B
330
39C
330
39D
330
39E
330
39F
330
3A0
330
3A1
330
3A2
330
3A3
330
3A4
330
3A5
330
3A6
330
3A7
330
3A8
330
3A9
330
3AA
330
3AB
330
3AC
330
3AD
330
3AE
330
3AF
330
3B0
330
3B1
330
3B2
330
3B3
330
3B4
330
3B5
330
3B6
330
3B7
330
3B8
330
3B9
330
3BA
330
3BB
330
3BC
330
3BD
330
3BE
330
3BF
330
3C0
330
3C1
330
3C2
330
3C3
330
3C4
330
3C5
330
3C6
330
3C7
330
3C8
330
3C9
330
3CA
330
3CB
330
3CC
330
3CD
330
3CE
330
3CF
330
3D0
330
3D1
330
3D2
330
3D3
330
3D4
330
3D5
330
3D6
 92
1
 93
23
 72
2
 10
17.0481152095
 20
2.4027328529
 40
0.048483885
 50
273.21763719
 51
303.0749121182
 73
1
 72
2
 10
17.0629546036
 20
2.379965244
 40
0.0213072145
 50
303.0488228549
 51
355.7263138674
 73
1
 72
2
 10
17.0688911042
 20
2.3799744343
 40
0.0153945295
 50
354.0454548824
 51
5.1878013979
 73
1
 72
2
 10
17.0620614151
 20
2.3797859164
 40
0.0222174455
 50
4.0793399388
 51
69.834329283
 73
1
 72
1
 10
17.0697205646
 20
2.4006414268
 11
17.059669559
 21
2.4041904287
 72
1
 10
17.059669559
 20
2.4041904287
 11
17.0679095636
 21
2.4089664314
 72
2
 10
17.0460441811
 20
2.445793323
 40
0.0428289026
 50
300.6990502959
 51
319.0591802498
 73
1
 72
2
 10
17.0660727781
 20
2.4296649696
 40
0.0171568255
 50
315.9145124245
 51
16.0049121283
 73
1
 72
2
 10
17.0611211659
 20
2.4263113051
 40
0.0229166529
 50
20.6563876465
 51
62.3316896973
 73
1
 72
2
 10
17.0404590422
 20
2.3933827403
 40
0.061747717
 50
59.5385584989
 51
90.0050977555
 73
1
 72
1
 10
17.0404535484
 20
2.455130457
 11
16.8743904563
 21
2.455130457
 72
2
 10
16.8743904545
 20
2.4526554575
 40
0.0024749995
 50
89.9999571958
 51
180.0000428043
 73
1
 72
1
 10
16.8719154549
 20
2.4526554556
 11
16.8719154549
 21
2.4328554446
 72
2
 10
16.8743904545
 20
2.4328554428
 40
0.0024749995
 50
179.9999571957
 51
270.0000428043
 73
1
 72
1
 10
16.8743904563
 20
2.4303804433
 11
16.8983324696
 21
2.4303804433
 72
2
 10
16.8983324714
 20
2.4279054437
 40
0.0024749995
 50
359.9999571957
 51
90.0000428043
 73
1
 72
1
 10
16.9008074709
 20
2.4279054419
 11
16.9008074709
 21
2.3815504162
 72
2
 10
16.8983324714
 20
2.3815504143
 40
0.0024749995
 50
269.9999571958
 51
0.0000428043
 73
1
 72
1
 10
16.8983324696
 20
2.3790754148
 11
16.8743904563
 21
2.3790754148
 72
2
 10
16.8743904545
 20
2.3766004153
 40
0.0024749995
 50
89.9999571958
 51
180.0000428043
 73
1
 72
1
 10
16.8719154549
 20
2.3766004134
 11
16.8719154549
 21
2.3568004025
 72
2
 10
16.8743904545
 20
2.3568004006
 40
0.0024749995
 50
179.9999571957
 51
270.0000428042
 73
1
 72
1
 10
16.8743904563
 20
2.3543254011
 11
17.0508365542
 21
2.3543254011
 97
267
330
2CC
330
2CD
330
2CE
330
2CF
330
2D0
330
2D1
330
2D2
330
2D3
330
2D4
330
2D5
330
2D6
330
2D7
330
2D8
330
2D9
330
2DA
330
2DB
330
2DC
330
2DD
330
2DE
330
2DF
330
2E0
330
2E1
330
2E2
330
2E3
330
2E4
330
2E5
330
2E6
330
2E7
330
2E8
330
2E9
330
2EA
330
2EB
330
2EC
330
2ED
330
2EE
330
2EF
330
2F0
330
2F1
330
2F2
330
2F3
330
2F4
330
2F5
330
2F6
330
2F7
330
2F8
330
2F9
330
2FA
330
2FB
330
2FC
330
2FD
330
2FE
330
2FF
330
300
330
301
330
302
330
303
330
304
330
305
330
306
330
307
330
308
330
309
330
30A
330
30B
330
30C
330
30D
330
30E
330
30F
330
310
330
311
330
312
330
313
330
314
330
315
330
316
330
317
330
318
330
319
330
31A
330
31B
330
31C
330
31D
330
31E
330
31F
330
320
330
321
330
322
330
323
330
324
330
325
330
326
330
327
330
328
330
329
330
32A
330
32B
330
32C
330
32D
330
32E
330
32F
330
330
330
331
330
332
330
333
330
334
330
335
330
336
330
337
330
338
330
339
330
33A
330
33B
330
33C
330
33D
330
33E
330
33F
330
340
330
341
330
342
330
343
330
344
330
345
330
346
330
347
330
348
330
349
330
34A
330
34B
330
34C
330
34D
330
34E
330
34F
330
350
330
351
330
352
330
353
330
354
330
355
330
356
330
357
330
358
330
359
330
35A
330
35B
330
35C
330
35D
330
35E
330
35F
330
360
330
361
330
362
330
363
330
364
330
365
330
366
330
367
330
368
330
369
330
36A
330
36B
330
36C
330
36D
330
36E
330
36F
330
370
330
371
330
372
330
373
330
374
330
375
330
376
330
377
330
378
330
379
330
37A
330
37B
330
37C
330
37D
330
37E
330
37F
330
380
330
381
330
382
330
383
330
384
330
385
330
386
330
387
330
388
330
389
330
38A
330
38B
330
38C
330
38D
330
38E
330
38F
330
390
330
391
330
392
330
393
330
394
330
395
330
396
330
397
330
398
330
399
330
39A
330
39B
330
39C
330
39D
330
39E
330
39F
330
3A0
330
3A1
330
3A2
330
3A3
330
3A4
330
3A5
330
3A6
330
3A7
330
3A8
330
3A9
330
3AA
330
3AB
330
3AC
330
3AD
330
3AE
330
3AF
330
3B0
330
3B1
330
3B2
330
3B3
330
3B4
330
3B5
330
3B6
330
3B7
330
3B8
330
3B9
330
3BA
330
3BB
330
3BC
330
3BD
330
3BE
330
3BF
330
3C0
330
3C1
330
3C2
330
3C3
330
3C4
330
3C5
330
3C6
330
3C7
330
3C8
330
3C9
330
3CA
330
3CB
330
3CC
330
3CD
330
3CE
330
3CF
330
3D0
330
3D1
330
3D2
330
3D3
330
3D4
330
3D5
330
3D6
 92
1
 93
32
 72
2
 10
17.1857496308
 20
2.3568004006
 40
0.0024749995
 50
269.9999571958
 51
0.0000428044
 73
1
 72
1
 10
17.1882246303
 20
2.3568004025
 11
17.1882246303
 21
2.3766004134
 72
2
 10
17.1857496308
 20
2.3766004153
 40
0.0024749995
 50
359.9999571957
 51
90.0000428043
 73
1
 72
1
 10
17.185749629
 20
2.3790754148
 11
17.1744666227
 21
2.3790754148
 72
2
 10
17.1744665134
 20
2.3815504549
 40
0.0024750401
 50
147.6063258011
 51
270.0025305754
 73
1
 72
1
 10
17.1723766216
 20
2.3828764169
 11
17.1778926246
 21
2.3915704217
 72
2
 10
17.1799825555
 20
2.3902442221
 40
0.0024752003
 50
89.998372645
 51
147.602165307
 73
1
 72
1
 10
17.1799826258
 20
2.3927194224
 11
17.2148606451
 21
2.3927194224
 72
2
 10
17.2148601055
 20
2.3902439622
 40
0.0024754602
 50
32.8959418574
 51
89.9875097202
 73
1
 72
1
 10
17.2169386463
 20
2.3915884218
 11
17.2225646494
 21
2.3828954169
 72
2
 10
17.2204866271
 20
2.3815506219
 40
0.0024752071
 50
270.0004896793
 51
32.9089806818
 73
1
 72
1
 10
17.2204866482
 20
2.3790754148
 11
17.2060356402
 21
2.3790754148
 72
2
 10
17.2060356384
 20
2.3766004153
 40
0.0024749995
 50
89.9999571958
 51
180.0000428043
 73
1
 72
1
 10
17.2035606388
 20
2.3766004134
 11
17.2035606388
 21
2.3568004025
 72
2
 10
17.2060356384
 20
2.3568004006
 40
0.0024749995
 50
179.9999571957
 51
270.0000428042
 73
1
 72
1
 10
17.2060356402
 20
2.3543254011
 11
17.3113166986
 21
2.3543254011
 72
2
 10
17.3113167005
 20
2.3568004006
 40
0.0024749995
 50
269.9999571957
 51
0.0000428043
 73
1
 72
1
 10
17.3137917
 20
2.3568004025
 11
17.3137917
 21
2.3766004134
 72
2
 10
17.3113167005
 20
2.3766004153
 40
0.0024749995
 50
359.9999571957
 51
90.0000428043
 73
1
 72
1
 10
17.3113166986
 20
2.3790754148
 11
17.2913006875
 21
2.3790754148
 72
2
 10
17.291300808
 20
2.3815494558
 40
0.002474041
 50
212.9056413127
 51
269.9972091756
 73
1
 72
1
 10
17.2892236864
 20
2.3802054154
 11
17.2414676599
 21
2.4540004564
 72
2
 10
17.2393900382
 20
2.4526554968
 40
0.0024749602
 50
32.9172174468
 51
90.0087853096
 73
1
 72
1
 10
17.2393896587
 20
2.455130457
 11
17.182214627
 21
2.455130457
 72
2
 10
17.1822145567
 20
2.4526552567
 40
0.0024752003
 50
89.998372645
 51
147.602165307
 73
1
 72
1
 10
17.1801246258
 20
2.4539814564
 11
17.1333245999
 21
2.3802244155
 72
2
 10
17.131234669
 20
2.3815506151
 40
0.0024752003
 50
269.998372645
 51
327.602165307
 73
1
 72
1
 10
17.1312345987
 20
2.3790754148
 11
17.1083735861
 21
2.3790754148
 72
2
 10
17.1083735842
 20
2.3766004153
 40
0.0024749995
 50
89.9999571957
 51
180.0000428043
 73
1
 72
1
 10
17.1058985847
 20
2.3766004134
 11
17.1058985847
 21
2.3568004025
 72
2
 10
17.1083735842
 20
2.3568004006
 40
0.0024749995
 50
179.9999571957
 51
270.0000428043
 73
1
 72
1
 10
17.1083735861
 20
2.3543254011
 11
17.185749629
 21
2.3543254011
 97
267
330
2CC
330
2CD
330
2CE
330
2CF
330
2D0
330
2D1
330
2D2
330
2D3
330
2D4
330
2D5
330
2D6
330
2D7
330
2D8
330
2D9
330
2DA
330
2DB
330
2DC
330
2DD
330
2DE
330
2DF
330
2E0
330
2E1
330
2E2
330
2E3
330
2E4
330
2E5
330
2E6
330
2E7
330
2E8
330
2E9
330
2EA
330
2EB
330
2EC
330
2ED
330
2EE
330
2EF
330
2F0
330
2F1
330
2F2
330
2F3
330
2F4
330
2F5
330
2F6
330
2F7
330
2F8
330
2F9
330
2FA
330
2FB
330
2FC
330
2FD
330
2FE
330
2FF
330
300
330
301
330
302
330
303
330
304
330
305
330
306
330
307
330
308
330
309
330
30A
330
30B
330
30C
330
30D
330
30E
330
30F
330
310
330
311
330
312
330
313
330
314
330
315
330
316
330
317
330
318
330
319
330
31A
330
31B
330
31C
330
31D
330
31E
330
31F
330
320
330
321
330
322
330
323
330
324
330
325
330
326
330
327
330
328
330
329
330
32A
330
32B
330
32C
330
32D
330
32E
330
32F
330
330
330
331
330
332
330
333
330
334
330
335
330
336
330
337
330
338
330
339
330
33A
330
33B
330
33C
330
33D
330
33E
330
33F
330
340
330
341
330
342
330
343
330
344
330
345
330
346
330
347
330
348
330
349
330
34A
330
34B
330
34C
330
34D
330
34E
330
34F
330
350
330
351
330
352
330
353
330
354
330
355
330
356
330
357
330
358
330
359
330
35A
330
35B
330
35C
330
35D
330
35E
330
35F
330
360
330
361
330
362
330
363
330
364
330
365
330
366
330
367
330
368
330
369
330
36A
330
36B
330
36C
330
36D
330
36E
330
36F
330
370
330
371
330
372
330
373
330
374
330
375
330
376
330
377
330
378
330
379
330
37A
330
37B
330
37C
330
37D
330
37E
330
37F
330
380
330
381
330
382
330
383
330
384
330
385
330
386
330
387
330
388
330
389
330
38A
330
38B
330
38C
330
38D
330
38E
330
38F
330
390
330
391
330
392
330
393
330
394
330
395
330
396
330
397
330
398
330
399
330
39A
330
39B
330
39C
330
39D
330
39E
330
39F
330
3A0
330
3A1
330
3A2
330
3A3
330
3A4
330
3A5
330
3A6
330
3A7
330
3A8
330
3A9
330
3AA
330
3AB
330
3AC
330
3AD
330
3AE
330
3AF
330
3B0
330
3B1
330
3B2
330
3B3
330
3B4
330
3B5
330
3B6
330
3B7
330
3B8
330
3B9
330
3BA
330
3BB
330
3BC
330
3BD
330
3BE
330
3BF
330
3C0
330
3C1
330
3C2
330
3C3
330
3C4
330
3C5
330
3C6
330
3C7
330
3C8
330
3C9
330
3CA
330
3CB
330
3CC
330
3CD
330
3CE
330
3CF
330
3D0
330
3D1
330
3D2
330
3D3
330
3D4
330
3D5
330
3D6
 92
1
 93
6
 72
2
 10
16.963795504
 20
2.3815504143
 40
0.0024749995
 50
179.9999571957
 51
270.0000428043
 73
1
 72
1
 10
16.9613205045
 20
2.3815504162
 11
16.9613205045
 21
2.3939254231
 72
2
 10
16.963795504
 20
2.3939254249
 40
0.0024749995
 50
89.9999571957
 51
180.0000428043
 73
1
 72
1
 10
16.9637955059
 20
2.3964004244
 11
17.0051585288
 21
2.3964004244
 72
2
 10
17.0051585288
 20
2.3877379196
 40
0.0086625048
 50
270.0
 51
90.0
 73
1
 72
1
 10
17.0051585288
 20
2.3790754148
 11
16.9637955059
 21
2.3790754148
 97
267
330
2CC
330
2CD
330
2CE
330
2CF
330
2D0
330
2D1
330
2D2
330
2D3
330
2D4
330
2D5
330
2D6
330
2D7
330
2D8
330
2D9
330
2DA
330
2DB
330
2DC
330
2DD
330
2DE
330
2DF
330
2E0
330
2E1
330
2E2
330
2E3
330
2E4
330
2E5
330
2E6
330
2E7
330
2E8
330
2E9
330
2EA
330
2EB
330
2EC
330
2ED
330
2EE
330
2EF
330
2F0
330
2F1
330
2F2
330
2F3
330
2F4
330
2F5
330
2F6
330
2F7
330
2F8
330
2F9
330
2FA
330
2FB
330
2FC
330
2FD
330
2FE
330
2FF
330
300
330
301
330
302
330
303
330
304
330
305
330
306
330
307
330
308
330
309
330
30A
330
30B
330
30C
330
30D
330
30E
330
30F
330
310
330
311
330
312
330
313
330
314
330
315
330
316
330
317
330
318
330
319
330
31A
330
31B
330
31C
330
31D
330
31E
330
31F
330
320
330
321
330
322
330
323
330
324
330
325
330
326
330
327
330
328
330
329
330
32A
330
32B
330
32C
330
32D
330
32E
330
32F
330
330
330
331
330
332
330
333
330
334
330
335
330
336
330
337
330
338
330
339
330
33A
330
33B
330
33C
330
33D
330
33E
330
33F
330
340
330
341
330
342
330
343
330
344
330
345
330
346
330
347
330
348
330
349
330
34A
330
34B
330
34C
330
34D
330
34E
330
34F
330
350
330
351
330
352
330
353
330
354
330
355
330
356
330
357
330
358
330
359
330
35A
330
35B
330
35C
330
35D
330
35E
330
35F
330
360
330
361
330
362
330
363
330
364
330
365
330
366
330
367
330
368
330
369
330
36A
330
36B
330
36C
330
36D
330
36E
330
36F
330
370
330
371
330
372
330
373
330
374
330
375
330
376
330
377
330
378
330
379
330
37A
330
37B
330
37C
330
37D
330
37E
330
37F
330
380
330
381
330
382
330
383
330
384
330
385
330
386
330
387
330
388
330
389
330
38A
330
38B
330
38C
330
38D
330
38E
330
38F
330
390
330
391
330
392
330
393
330
394
330
395
330
396
330
397
330
398
330
399
330
39A
330
39B
330
39C
330
39D
330
39E
330
39F
330
3A0
330
3A1
330
3A2
330
3A3
330
3A4
330
3A5
330
3A6
330
3A7
330
3A8
330
3A9
330
3AA
330
3AB
330
3AC
330
3AD
330
3AE
330
3AF
330
3B0
330
3B1
330
3B2
330
3B3
330
3B4
330
3B5
330
3B6
330
3B7
330
3B8
330
3B9
330
3BA
330
3BB
330
3BC
330
3BD
330
3BE
330
3BF
330
3C0
330
3C1
330
3C2
330
3C3
330
3C4
330
3C5
330
3C6
330
3C7
330
3C8
330
3C9
330
3CA
330
3CB
330
3CC
330
3CD
330
3CE
330
3CF
330
3D0
330
3D1
330
3D2
330
3D3
330
3D4
330
3D5
330
3D6
 92
1
 93
13
 72
2
 10
18.1572301659
 20
2.415180433
 40
0.0024749995
 50
179.9999571957
 51
270.0000428043
 73
1
 72
1
 10
18.1547551663
 20
2.4151804348
 11
18.1547551663
 21
2.4279054419
 72
2
 10
18.1572301659
 20
2.4279054437
 40
0.0024749995
 50
89.9999571957
 51
180.0000428043
 73
1
 72
1
 10
18.1572301677
 20
2.4303804433
 11
18.1940311881
 21
2.4303804433
 72
2
 10
18.1924863006
 20
2.4019259643
 40
0.0284963867
 50
70.3834917948
 51
86.8922743861
 73
1
 72
2
 10
18.1973459106
 20
2.4149676972
 40
0.0145814632
 50
54.6746025112
 51
71.1660573124
 73
1
 72
2
 10
18.2024754016
 20
2.4218216224
 40
0.0060275915
 50
20.9055592135
 51
56.7851676243
 73
1
 72
2
 10
18.2037759605
 20
2.4224819047
 40
0.0045795888
 50
355.6235353944
 51
18.9942678268
 73
1
 72
2
 10
18.2025691502
 20
2.4227756809
 40
0.0058087709
 50
318.8515287446
 51
353.6422345323
 73
1
 72
2
 10
18.198398534
 20
2.4260095887
 40
0.0110815393
 50
306.758405961
 51
320.4502234234
 73
1
 72
2
 10
18.1927693431
 20
2.4337504172
 40
0.0206523367
 50
289.6883413472
 51
306.4184925496
 73
1
 72
2
 10
18.1908418374
 20
2.4381440645
 40
0.0254407115
 50
270.7327484175
 51
290.441894219
 73
1
 72
1
 10
18.1911671865
 20
2.4127054335
 11
18.1572301677
 21
2.4127054335
 97
267
330
2CC
330
2CD
330
2CE
330
2CF
330
2D0
330
2D1
330
2D2
330
2D3
330
2D4
330
2D5
330
2D6
330
2D7
330
2D8
330
2D9
330
2DA
330
2DB
330
2DC
330
2DD
330
2DE
330
2DF
330
2E0
330
2E1
330
2E2
330
2E3
330
2E4
330
2E5
330
2E6
330
2E7
330
2E8
330
2E9
330
2EA
330
2EB
330
2EC
330
2ED
330
2EE
330
2EF
330
2F0
330
2F1
330
2F2
330
2F3
330
2F4
330
2F5
330
2F6
330
2F7
330
2F8
330
2F9
330
2FA
330
2FB
330
2FC
330
2FD
330
2FE
330
2FF
330
300
330
301
330
302
330
303
330
304
330
305
330
306
330
307
330
308
330
309
330
30A
330
30B
330
30C
330
30D
330
30E
330
30F
330
310
330
311
330
312
330
313
330
314
330
315
330
316
330
317
330
318
330
319
330
31A
330
31B
330
31C
330
31D
330
31E
330
31F
330
320
330
321
330
322
330
323
330
324
330
325
330
326
330
327
330
328
330
329
330
32A
330
32B
330
32C
330
32D
330
32E
330
32F
330
330
330
331
330
332
330
333
330
334
330
335
330
336
330
337
330
338
330
339
330
33A
330
33B
330
33C
330
33D
330
33E
330
33F
330
340
330
341
330
342
330
343
330
344
330
345
330
346
330
347
330
348
330
349
330
34A
330
34B
330
34C
330
34D
330
34E
330
34F
330
350
330
351
330
352
330
353
330
354
330
355
330
356
330
357
330
358
330
359
330
35A
330
35B
330
35C
330
35D
330
35E
330
35F
330
360
330
361
330
362
330
363
330
364
330
365
330
366
330
367
330
368
330
369
330
36A
330
36B
330
36C
330
36D
330
36E
330
36F
330
370
330
371
330
372
330
373
330
374
330
375
330
376
330
377
330
378
330
379
330
37A
330
37B
330
37C
330
37D
330
37E
330
37F
330
380
330
381
330
382
330
383
330
384
330
385
330
386
330
387
330
388
330
389
330
38A
330
38B
330
38C
330
38D
330
38E
330
38F
330
390
330
391
330
392
330
393
330
394
330
395
330
396
330
397
330
398
330
399
330
39A
330
39B
330
39C
330
39D
330
39E
330
39F
330
3A0
330
3A1
330
3A2
330
3A3
330
3A4
330
3A5
330
3A6
330
3A7
330
3A8
330
3A9
330
3AA
330
3AB
330
3AC
330
3AD
330
3AE
330
3AF
330
3B0
330
3B1
330
3B2
330
3B3
330
3B4
330
3B5
330
3B6
330
3B7
330
3B8
330
3B9
330
3BA
330
3BB
330
3BC
330
3BD
330
3BE
330
3BF
330
3C0
330
3C1
330
3C2
330
3C3
330
3C4
330
3C5
330
3C6
330
3C7
330
3C8
330
3C9
330
3CA
330
3CB
330
3CC
330
3CD
330
3CE
330
3CF
330
3D0
330
3D1
330
3D2
330
3D3
330
3D4
330
3D5
330
3D6
 92
1
 93
6
 72
2
 10
17.0051585288
 20
2.4217179385
 40
0.0086625048
 50
270.0
 51
90.0
 73
1
 72
1
 10
17.0051585288
 20
2.4303804433
 11
16.9637955059
 21
2.4303804433
 72
2
 10
16.963795504
 20
2.4279054437
 40
0.0024749995
 50
89.9999571957
 51
180.0000428043
 73
1
 72
1
 10
16.9613205045
 20
2.4279054419
 11
16.9613205045
 21
2.415530435
 72
2
 10
16.963795504
 20
2.4155304332
 40
0.0024749995
 50
179.9999571957
 51
270.0000428043
 73
1
 72
1
 10
16.9637955059
 20
2.4130554337
 11
17.0051585288
 21
2.4130554337
 97
267
330
2CC
330
2CD
330
2CE
330
2CF
330
2D0
330
2D1
330
2D2
330
2D3
330
2D4
330
2D5
330
2D6
330
2D7
330
2D8
330
2D9
330
2DA
330
2DB
330
2DC
330
2DD
330
2DE
330
2DF
330
2E0
330
2E1
330
2E2
330
2E3
330
2E4
330
2E5
330
2E6
330
2E7
330
2E8
330
2E9
330
2EA
330
2EB
330
2EC
330
2ED
330
2EE
330
2EF
330
2F0
330
2F1
330
2F2
330
2F3
330
2F4
330
2F5
330
2F6
330
2F7
330
2F8
330
2F9
330
2FA
330
2FB
330
2FC
330
2FD
330
2FE
330
2FF
330
300
330
301
330
302
330
303
330
304
330
305
330
306
330
307
330
308
330
309
330
30A
330
30B
330
30C
330
30D
330
30E
330
30F
330
310
330
311
330
312
330
313
330
314
330
315
330
316
330
317
330
318
330
319
330
31A
330
31B
330
31C
330
31D
330
31E
330
31F
330
320
330
321
330
322
330
323
330
324
330
325
330
326
330
327
330
328
330
329
330
32A
330
32B
330
32C
330
32D
330
32E
330
32F
330
330
330
331
330
332
330
333
330
334
330
335
330
336
330
337
330
338
330
339
330
33A
330
33B
330
33C
330
33D
330
33E
330
33F
330
340
330
341
330
342
330
343
330
344
330
345
330
346
330
347
330
348
330
349
330
34A
330
34B
330
34C
330
34D
330
34E
330
34F
330
350
330
351
330
352
330
353
330
354
330
355
330
356
330
357
330
358
330
359
330
35A
330
35B
330
35C
330
35D
330
35E
330
35F
330
360
330
361
330
362
330
363
330
364
330
365
330
366
330
367
330
368
330
369
330
36A
330
36B
330
36C
330
36D
330
36E
330
36F
330
370
330
371
330
372
330
373
330
374
330
375
330
376
330
377
330
378
330
379
330
37A
330
37B
330
37C
330
37D
330
37E
330
37F
330
380
330
381
330
382
330
383
330
384
330
385
330
386
330
387
330
388
330
389
330
38A
330
38B
330
38C
330
38D
330
38E
330
38F
330
390
330
391
330
392
330
393
330
394
330
395
330
396
330
397
330
398
330
399
330
39A
330
39B
330
39C
330
39D
330
39E
330
39F
330
3A0
330
3A1
330
3A2
330
3A3
330
3A4
330
3A5
330
3A6
330
3A7
330
3A8
330
3A9
330
3AA
330
3AB
330
3AC
330
3AD
330
3AE
330
3AF
330
3B0
330
3B1
330
3B2
330
3B3
330
3B4
330
3B5
330
3B6
330
3B7
330
3B8
330
3B9
330
3BA
330
3BB
330
3BC
330
3BD
330
3BE
330
3BF
330
3C0
330
3C1
330
3C2
330
3C3
330
3C4
330
3C5
330
3C6
330
3C7
330
3C8
330
3C9
330
3CA
330
3CB
330
3CC
330
3CD
330
3CE
330
3CF
330
3D0
330
3D1
330
3D2
330
3D3
330
3D4
330
3D5
330
3D6
 92
1
 93
8
 72
2
 10
17.2090556207
 20
2.4161446411
 40
0.0024752071
 50
270.0004896793
 51
32.9089806818
 73
1
 72
1
 10
17.211133643
 20
2.4174894361
 11
17.203874639
 21
2.4287054423
 72
2
 10
17.2017960982
 20
2.4273609828
 40
0.0024754602
 50
32.8959418573
 51
89.9875097202
 73
1
 72
1
 10
17.2017966379
 20
2.429836443
 11
17.1956156344
 21
2.429836443
 72
2
 10
17.1956155641
 20
2.4273612427
 40
0.0024752003
 50
89.998372645
 51
147.6021653069
 73
1
 72
1
 10
17.1935256333
 20
2.4286874423
 11
17.1864086293
 21
2.4174704361
 72
2
 10
17.1884985212
 20
2.4161444741
 40
0.0024750401
 50
147.6063258012
 51
270.0025305753
 73
1
 72
1
 10
17.1884986305
 20
2.413669434
 11
17.2090556419
 21
2.413669434
 97
267
330
2CC
330
2CD
330
2CE
330
2CF
330
2D0
330
2D1
330
2D2
330
2D3
330
2D4
330
2D5
330
2D6
330
2D7
330
2D8
330
2D9
330
2DA
330
2DB
330
2DC
330
2DD
330
2DE
330
2DF
330
2E0
330
2E1
330
2E2
330
2E3
330
2E4
330
2E5
330
2E6
330
2E7
330
2E8
330
2E9
330
2EA
330
2EB
330
2EC
330
2ED
330
2EE
330
2EF
330
2F0
330
2F1
330
2F2
330
2F3
330
2F4
330
2F5
330
2F6
330
2F7
330
2F8
330
2F9
330
2FA
330
2FB
330
2FC
330
2FD
330
2FE
330
2FF
330
300
330
301
330
302
330
303
330
304
330
305
330
306
330
307
330
308
330
309
330
30A
330
30B
330
30C
330
30D
330
30E
330
30F
330
310
330
311
330
312
330
313
330
314
330
315
330
316
330
317
330
318
330
319
330
31A
330
31B
330
31C
330
31D
330
31E
330
31F
330
320
330
321
330
322
330
323
330
324
330
325
330
326
330
327
330
328
330
329
330
32A
330
32B
330
32C
330
32D
330
32E
330
32F
330
330
330
331
330
332
330
333
330
334
330
335
330
336
330
337
330
338
330
339
330
33A
330
33B
330
33C
330
33D
330
33E
330
33F
330
340
330
341
330
342
330
343
330
344
330
345
330
346
330
347
330
348
330
349
330
34A
330
34B
330
34C
330
34D
330
34E
330
34F
330
350
330
351
330
352
330
353
330
354
330
355
330
356
330
357
330
358
330
359
330
35A
330
35B
330
35C
330
35D
330
35E
330
35F
330
360
330
361
330
362
330
363
330
364
330
365
330
366
330
367
330
368
330
369
330
36A
330
36B
330
36C
330
36D
330
36E
330
36F
330
370
330
371
330
372
330
373
330
374
330
375
330
376
330
377
330
378
330
379
330
37A
330
37B
330
37C
330
37D
330
37E
330
37F
330
380
330
381
330
382
330
383
330
384
330
385
330
386
330
387
330
388
330
389
330
38A
330
38B
330
38C
330
38D
330
38E
330
38F
330
390
330
391
330
392
330
393
330
394
330
395
330
396
330
397
330
398
330
399
330
39A
330
39B
330
39C
330
39D
330
39E
330
39F
330
3A0
330
3A1
330
3A2
330
3A3
330
3A4
330
3A5
330
3A6
330
3A7
330
3A8
330
3A9
330
3AA
330
3AB
330
3AC
330
3AD
330
3AE
330
3AF
330
3B0
330
3B1
330
3B2
330
3B3
330
3B4
330
3B5
330
3B6
330
3B7
330
3B8
330
3B9
330
3BA
330
3BB
330
3BC
330
3BD
330
3BE
330
3BF
330
3C0
330
3C1
330
3C2
330
3C3
330
3C4
330
3C5
330
3C6
330
3C7
330
3C8
330
3C9
330
3CA
330
3CB
330
3CC
330
3CD
330
3CE
330
3CF
330
3D0
330
3D1
330
3D2
330
3D3
330
3D4
330
3D5
330
3D6
 92
1
 93
1
 72
3
 10
17.573550844
 20
2.4034764283
 11
-0.8250004575
 21
0.0
 40
0.218572
 50
0.0
 51
360.0
 73
1
 97
267
330
2CC
330
2CD
330
2CE
330
2CF
330
2D0
330
2D1
330
2D2
330
2D3
330
2D4
330
2D5
330
2D6
330
2D7
330
2D8
330
2D9
330
2DA
330
2DB
330
2DC
330
2DD
330
2DE
330
2DF
330
2E0
330
2E1
330
2E2
330
2E3
330
2E4
330
2E5
330
2E6
330
2E7
330
2E8
330
2E9
330
2EA
330
2EB
330
2EC
330
2ED
330
2EE
330
2EF
330
2F0
330
2F1
330
2F2
330
2F3
330
2F4
330
2F5
330
2F6
330
2F7
330
2F8
330
2F9
330
2FA
330
2FB
330
2FC
330
2FD
330
2FE
330
2FF
330
300
330
301
330
302
330
303
330
304
330
305
330
306
330
307
330
308
330
309
330
30A
330
30B
330
30C
330
30D
330
30E
330
30F
330
310
330
311
330
312
330
313
330
314
330
315
330
316
330
317
330
318
330
319
330
31A
330
31B
330
31C
330
31D
330
31E
330
31F
330
320
330
321
330
322
330
323
330
324
330
325
330
326
330
327
330
328
330
329
330
32A
330
32B
330
32C
330
32D
330
32E
330
32F
330
330
330
331
330
332
330
333
330
334
330
335
330
336
330
337
330
338
330
339
330
33A
330
33B
330
33C
330
33D
330
33E
330
33F
330
340
330
341
330
342
330
343
330
344
330
345
330
346
330
347
330
348
330
349
330
34A
330
34B
330
34C
330
34D
330
34E
330
34F
330
350
330
351
330
352
330
353
330
354
330
355
330
356
330
357
330
358
330
359
330
35A
330
35B
330
35C
330
35D
330
35E
330
35F
330
360
330
361
330
362
330
363
330
364
330
365
330
366
330
367
330
368
330
369
330
36A
330
36B
330
36C
330
36D
330
36E
330
36F
330
370
330
371
330
372
330
373
330
374
330
375
330
376
330
377
330
378
330
379
330
37A
330
37B
330
37C
330
37D
330
37E
330
37F
330
380
330
381
330
382
330
383
330
384
330
385
330
386
330
387
330
388
330
389
330
38A
330
38B
330
38C
330
38D
330
38E
330
38F
330
390
330
391
330
392
330
393
330
394
330
395
330
396
330
397
330
398
330
399
330
39A
330
39B
330
39C
330
39D
330
39E
330
39F
330
3A0
330
3A1
330
3A2
330
3A3
330
3A4
330
3A5
330
3A6
330
3A7
330
3A8
330
3A9
330
3AA
330
3AB
330
3AC
330
3AD
330
3AE
330
3AF
330
3B0
330
3B1
330
3B2
330
3B3
330
3B4
330
3B5
330
3B6
330
3B7
330
3B8
330
3B9
330
3BA
330
3BB
330
3BC
330
3BD
330
3BE
330
3BF
330
3C0
330
3C1
330
3C2
330
3C3
330
3C4
330
3C5
330
3C6
330
3C7
330
3C8
330
3C9
330
3CA
330
3CB
330
3CC
330
3CD
330
3CE
330
3CF
330
3D0
330
3D1
330
3D2
330
3D3
330
3D4
330
3D5
330
3D6
 75
0
 76
1
 98
1
 10
0.0
 20
0.0
  0
LINE
  5
3D8
100
AcDbEntity
  8
0
100
AcDbLine
 62
7
  6
CONTINUOUS
 10
21.05
 20
2.67
 11
14.7
 21
2.67
  0
LINE
  5
3D9
100
AcDbEntity
  8
0
100
AcDbLine
 62
7
  6
CONTINUOUS
 10
6.007
 20
0.75
 11
6.007
 21
0.5
  0
LINE
  5
3DA
100
AcDbEntity
  8
0
100
AcDbLine
 62
7
  6
CONTINUOUS
 10
6.007
 20
15.75
 11
6.007
 21
16.0
  0
LINE
  5
3DB
100
AcDbEntity
  8
0
100
AcDbLine
 62
7
  6
CONTINUOUS
 10
0.814
 20
8.163397
 11
0.964
 21
8.25
  0
LINE
  5
3DC
100
AcDbEntity
  8
0
100
AcDbLine
 62
7
  6
CONTINUOUS
 10
0.964
 20
8.25
 11
0.814
 21
8.336603
  0
LINE
  5
3DD
100
AcDbEntity
  8
0
100
AcDbLine
 62
7
  6
CONTINUOUS
 10
0.964
 20
4.4
 11
0.714
 21
4.4
  0
LINE
  5
3DE
100
AcDbEntity
  8
0
100
AcDbLine
 62
7
  6
CONTINUOUS
 10
21.05
 20
4.4
 11
21.3
 21
4.4
  0
LINE
  5
3DF
100
AcDbEntity
  8
0
100
AcDbLine
 62
7
  6
CONTINUOUS
 10
11.093603
 20
0.6
 11
11.007
 21
0.75
  0
LINE
  5
3E0
100
AcDbEntity
  8
0
100
AcDbLine
 62
7
  6
CONTINUOUS
 10
11.007
 20
15.75
 11
11.093603
 21
15.9
  0
LINE
  5
3E1
100
AcDbEntity
  8
0
100
AcDbLine
 62
7
  6
CONTINUOUS
 10
8.507
 20
0.75
 11
8.507
 21
0.5
  0
LINE
  5
3E2
100
AcDbEntity
  8
0
100
AcDbLine
 62
7
  6
CONTINUOUS
 10
8.507
 20
15.75
 11
8.507
 21
16.0
  0
LINE
  5
3E3
100
AcDbEntity
  8
0
100
AcDbLine
 62
7
  6
CONTINUOUS
 10
11.007
 20
0.75
 11
11.007
 21
0.5
  0
LINE
  5
3E4
100
AcDbEntity
  8
0
100
AcDbLine
 62
7
  6
CONTINUOUS
 10
11.007
 20
15.75
 11
11.007
 21
16.0
  0
LINE
  5
3E5
100
AcDbEntity
  8
0
100
AcDbLine
 62
7
  6
CONTINUOUS
 10
0.964
 20
8.25
 11
0.714
 21
8.25
  0
LINE
  5
3E6
100
AcDbEntity
  8
0
100
AcDbLine
 62
7
  6
CONTINUOUS
 10
21.05
 20
8.25
 11
21.3
 21
8.25
  0
LINE
  5
3E7
100
AcDbEntity
  8
0
100
AcDbLine
 62
7
  6
CONTINUOUS
 10
13.507
 20
0.75
 11
13.507
 21
0.5
  0
LINE
  5
3E8
100
AcDbEntity
  8
0
100
AcDbLine
 62
7
  6
CONTINUOUS
 10
13.507
 20
15.75
 11
13.507
 21
16.0
  0
LINE
  5
3E9
100
AcDbEntity
  8
0
100
AcDbLine
 62
7
  6
CONTINUOUS
 10
14.7
 20
2.67
 11
14.7
 21
0.75
  0
LINE
  5
3EA
100
AcDbEntity
  8
0
100
AcDbLine
 62
7
  6
CONTINUOUS
 10
11.007
 20
0.75
 11
10.920397
 21
0.6
  0
LINE
  5
3EB
100
AcDbEntity
  8
0
100
AcDbLine
 62
7
  6
CONTINUOUS
 10
0.964
 20
12.1
 11
0.714
 21
12.1
  0
LINE
  5
3EC
100
AcDbEntity
  8
0
100
AcDbLine
 62
7
  6
CONTINUOUS
 10
21.05
 20
12.1
 11
21.3
 21
12.1
  0
LINE
  5
3ED
100
AcDbEntity
  8
0
100
AcDbLine
 62
7
  6
CONTINUOUS
 10
10.920397
 20
15.9
 11
11.007
 21
15.75
  0
LINE
  5
3EE
100
AcDbEntity
  8
0
100
AcDbLine
 62
7
  6
CONTINUOUS
 10
15.2229827477
 20
1.0139932523
 11
15.2229827477
 21
0.7919022523
  0
LINE
  5
3EF
100
AcDbEntity
  8
0
100
AcDbLine
 62
7
  6
CONTINUOUS
 10
15.2229827477
 20
1.0639932523
 11
15.2229827477
 21
1.1639932523
  0
LINE
  5
3F0
100
AcDbEntity
  8
0
100
AcDbLine
 62
7
  6
CONTINUOUS
 10
15.2229827477
 20
1.2139932523
 11
15.2229827477
 21
1.4360842523
  0
LINE
  5
3F1
100
AcDbEntity
  8
0
100
AcDbLine
 62
7
  6
CONTINUOUS
 10
15.8276527477
 20
0.9312952523
 11
15.8276527477
 21
1.2966912523
  0
LINE
  5
3F2
100
AcDbEntity
  8
0
100
AcDbLine
 62
7
  6
CONTINUOUS
 10
16.007
 20
0.75
 11
16.007
 21
0.5
  0
LINE
  5
3F3
100
AcDbEntity
  8
0
100
AcDbLine
 62
7
  6
CONTINUOUS
 10
16.007
 20
15.75
 11
16.007
 21
16.0
  0
LINE
  5
3F4
100
AcDbEntity
  8
0
100
AcDbLine
 62
7
  6
CONTINUOUS
 10
16.4340437477
 20
1.3660842523
 11
16.4340437477
 21
0.8619022523
  0
LINE
  5
3F5
100
AcDbEntity
  8
0
100
AcDbLine
 62
7
  6
CONTINUOUS
 10
21.2
 20
8.336603
 11
21.05
 21
8.25
  0
LINE
  5
3F6
100
AcDbEntity
  8
0
100
AcDbLine
 62
7
  6
CONTINUOUS
 10
21.05
 20
8.25
 11
21.2
 21
8.163397
  0
LINE
  5
3F7
100
AcDbEntity
  8
0
100
AcDbLine
 62
7
  6
CONTINUOUS
 10
16.7
 20
2.67
 11
16.7
 21
0.75
  0
LINE
  5
3F8
100
AcDbEntity
  8
0
100
AcDbLine
 62
7
  6
CONTINUOUS
 10
17.5
 20
1.37
 11
17.5
 21
1.0
  0
LINE
  5
3F9
100
AcDbEntity
  8
0
100
AcDbLine
 62
7
  6
CONTINUOUS
 10
18.507
 20
0.75
 11
18.507
 21
0.5
  0
LINE
  5
3FA
100
AcDbEntity
  8
0
100
AcDbLine
 62
7
  6
CONTINUOUS
 10
18.507
 20
15.75
 11
18.507
 21
16.0
  0
LINE
  5
3FB
100
AcDbEntity
  8
0
100
AcDbLine
 62
7
  6
CONTINUOUS
 10
21.05
 20
15.75
 11
0.964
 21
15.75
  0
LINE
  5
3FC
100
AcDbEntity
  8
0
100
AcDbLine
 62
7
  6
CONTINUOUS
 10
11.093603
 20
15.9
 11
10.920397
 21
15.9
  0
LINE
  5
3FD
100
AcDbEntity
  8
0
100
AcDbLine
 62
7
  6
CONTINUOUS
 10
18.875
 20
1.0
 11
18.875
 21
0.75
  0
LINE
  5
3FE
100
AcDbEntity
  8
0
100
AcDbLine
 62
7
  6
CONTINUOUS
 10
20.25
 20
1.37
 11
20.25
 21
1.0
  0
LINE
  5
3FF
100
AcDbEntity
  8
0
100
AcDbLine
 62
7
  6
CONTINUOUS
 10
21.05
 20
0.75
 11
21.05
 21
15.75
  0
LINE
  5
400
100
AcDbEntity
  8
0
100
AcDbLine
 62
7
  6
CONTINUOUS
 10
21.2
 20
8.163397
 11
21.2
 21
8.336603
  0
LINE
  5
401
100
AcDbEntity
  8
SURFACE
100
AcDbLine
 62
7
  6
CONTINUOUS
 10
2.7739656097
 20
7.9009908614
 11
2.7739656097
 21
8.7959908614
  0
LINE
  5
402
100
AcDbEntity
  8
SURFACE
100
AcDbLine
 62
7
  6
CONTINUOUS
 10
2.8219656097
 20
7.9009908614
 11
2.8219656097
 21
7.9089908614
  0
LINE
  5
403
100
AcDbEntity
  8
SURFACE
100
AcDbLine
 62
7
  6
CONTINUOUS
 10
2.8639656097
 20
7.9089908614
 11
2.8639656097
 21
7.8109908614
  0
LINE
  5
404
100
AcDbEntity
  8
0
100
AcDbLine
 62
7
  6
CONTINUOUS
 10
3.3219656097
 20
8.800736382
 11
3.3219656097
 21
8.8011960927
  0
LINE
  5
405
100
AcDbEntity
  8
0
100
AcDbLine
 62
7
  6
CONTINUOUS
 10
3.3569656097
 20
8.800736382
 11
3.3569656097
 21
8.8053454926
  0
LINE
  5
406
100
AcDbEntity
  8
0
100
AcDbLine
 62
7
  6
CONTINUOUS
 10
3.3869656097
 20
8.8053454926
 11
3.3869656097
 21
8.800736382
  0
LINE
  5
407
100
AcDbEntity
  8
0
100
AcDbLine
 62
7
  6
CONTINUOUS
 10
3.4219656097
 20
8.8011960927
 11
3.4219656097
 21
8.800736382
  0
LINE
  5
408
100
AcDbEntity
  8
SURFACE
100
AcDbLine
 62
7
  6
CONTINUOUS
 10
2.8639656097
 20
7.8109908614
 11
7.0299656097
 21
7.8109908614
  0
LINE
  5
409
100
AcDbEntity
  8
SURFACE
100
AcDbLine
 62
7
  6
CONTINUOUS
 10
2.8639656097
 20
7.8949908614
 11
7.0299656097
 21
7.8949908614
  0
LINE
  5
40A
100
AcDbEntity
  8
SURFACE
100
AcDbLine
 62
7
  6
CONTINUOUS
 10
2.8219656097
 20
7.9009908614
 11
2.7739656097
 21
7.9009908614
  0
LINE
  5
40B
100
AcDbEntity
  8
SURFACE
100
AcDbLine
 62
7
  6
CONTINUOUS
 10
7.0719656097
 20
7.9009908614
 11
7.1199656097
 21
7.9009908614
  0
LINE
  5
40C
100
AcDbEntity
  8
SURFACE
100
AcDbLine
 62
7
  6
CONTINUOUS
 10
2.7739656097
 20
7.9089908614
 11
2.8639656097
 21
7.9089908614
  0
LINE
  5
40D
100
AcDbEntity
  8
SURFACE
100
AcDbLine
 62
7
  6
CONTINUOUS
 10
7.0299656097
 20
7.9089908614
 11
7.1199656097
 21
7.9089908614
  0
LINE
  5
40E
100
AcDbEntity
  8
AXIS_COSMETIC_THREADS
100
AcDbLine
 62
7
  6
CONTINUOUS
 10
7.1289656097
 20
8.0509908614
 11
7.1199656097
 21
8.0509908614
  0
LINE
  5
40F
100
AcDbEntity
  8
02___PRT_ALL_AXES
100
AcDbLine
 62
7
  6
CONTINUOUS
 10
7.1889656097
 20
8.1643766882
 11
9.9849656097
 21
8.1643766882
  0
LINE
  5
410
100
AcDbEntity
  8
02___PRT_ALL_AXES
100
AcDbLine
 62
7
  6
CONTINUOUS
 10
7.1889656097
 20
8.3376050346
 11
9.9849656097
 21
8.3376050346
  0
LINE
  5
411
100
AcDbEntity
  8
0
100
AcDbLine
 62
7
  6
CONTINUOUS
 10
6.4719656097
 20
8.800736382
 11
6.4719656097
 21
8.8011960927
  0
LINE
  5
412
100
AcDbEntity
  8
0
100
AcDbLine
 62
7
  6
CONTINUOUS
 10
6.5069656097
 20
8.800736382
 11
6.5069656097
 21
8.8053454926
  0
LINE
  5
413
100
AcDbEntity
  8
0
100
AcDbLine
 62
7
  6
CONTINUOUS
 10
6.5369656097
 20
8.8053454926
 11
6.5369656097
 21
8.800736382
  0
LINE
  5
414
100
AcDbEntity
  8
0
100
AcDbLine
 62
7
  6
CONTINUOUS
 10
6.5719656097
 20
8.8011960927
 11
6.5719656097
 21
8.800736382
  0
LINE
  5
415
100
AcDbEntity
  8
AXIS_COSMETIC_THREADS
100
AcDbLine
 62
7
  6
CONTINUOUS
 10
7.1289656097
 20
8.4509908614
 11
7.1199656097
 21
8.4509908614
  0
LINE
  5
416
100
AcDbEntity
  8
SURFACE
100
AcDbLine
 62
7
  6
CONTINUOUS
 10
7.1199656097
 20
8.7959908614
 11
2.7739656097
 21
8.7959908614
  0
LINE
  5
417
100
AcDbEntity
  8
SURFACE
100
AcDbLine
 62
7
  6
CONTINUOUS
 10
7.0299656097
 20
7.8109908614
 11
7.0299656097
 21
7.9089908614
  0
LINE
  5
418
100
AcDbEntity
  8
SURFACE
100
AcDbLine
 62
7
  6
CONTINUOUS
 10
7.0719656097
 20
7.9089908614
 11
7.0719656097
 21
7.9009908614
  0
LINE
  5
419
100
AcDbEntity
  8
SURFACE
100
AcDbLine
 62
7
  6
CONTINUOUS
 10
7.1199656097
 20
7.9009908614
 11
7.1199656097
 21
8.7959908614
  0
LINE
  5
41A
100
AcDbEntity
  8
AXIS_COSMETIC_THREADS
100
AcDbLine
 62
7
  6
CONTINUOUS
 10
7.1289656097
 20
8.4509908614
 11
7.1289656097
 21
8.0509908614
  0
LINE
  5
41B
100
AcDbEntity
  8
AXIS_COSMETIC_THREADS
100
AcDbLine
 62
7
  6
CONTINUOUS
 10
7.1889656097
 20
8.3909908614
 11
7.1889656097
 21
8.1109908614
  0
LINE
  5
41C
100
AcDbEntity
  8
02___PRT_ALL_AXES
100
AcDbLine
 62
7
  6
CONTINUOUS
 10
9.9849656097
 20
8.3376050346
 11
9.9849656097
 21
8.1643766882
  0
LINE
  5
41D
100
AcDbEntity
  8
SURFACE
100
AcDbLine
 62
7
  6
CONTINUOUS
 10
2.7739656097
 20
10.3330444246
 11
2.7739656097
 21
13.9790444246
  0
LINE
  5
41E
100
AcDbEntity
  8
SURFACE
100
AcDbLine
 62
7
  6
CONTINUOUS
 10
2.8219656097
 20
10.3810444246
 11
2.8219656097
 21
13.9310444246
  0
LINE
  5
41F
100
AcDbEntity
  8
0
100
AcDbLine
 62
7
  6
CONTINUOUS
 10
2.8469656097
 20
13.9060444246
 11
2.8469656097
 21
10.4060444246
  0
LINE
  5
420
100
AcDbEntity
  8
SURFACE
100
AcDbLine
 62
7
  6
CONTINUOUS
 10
2.8639656097
 20
13.9310444246
 11
2.8639656097
 21
13.9060444246
  0
LINE
  5
421
100
AcDbEntity
  8
SURFACE
100
AcDbLine
 62
7
  6
CONTINUOUS
 10
2.8639656097
 20
10.3810444246
 11
2.8639656097
 21
10.4060444246
  0
LINE
  5
422
100
AcDbEntity
  8
0
100
AcDbLine
 62
7
  6
CONTINUOUS
 10
3.3219656097
 20
10.5660444246
 11
3.3219656097
 21
10.5960444246
  0
LINE
  5
423
100
AcDbEntity
  8
0
100
AcDbLine
 62
7
  6
CONTINUOUS
 10
3.3219656097
 20
13.7160444246
 11
3.3219656097
 21
13.7460444246
  0
LINE
  5
424
100
AcDbEntity
  8
0
100
AcDbLine
 62
7
  6
CONTINUOUS
 10
3.3569656097
 20
10.5310444246
 11
3.3569656097
 21
10.5660444246
  0
LINE
  5
425
100
AcDbEntity
  8
0
100
AcDbLine
 62
7
  6
CONTINUOUS
 10
3.3569656097
 20
10.5960444246
 11
3.3569656097
 21
10.6310444246
  0
LINE
  5
426
100
AcDbEntity
  8
0
100
AcDbLine
 62
7
  6
CONTINUOUS
 10
3.3569656097
 20
13.6810444246
 11
3.3569656097
 21
13.7160444246
  0
LINE
  5
427
100
AcDbEntity
  8
0
100
AcDbLine
 62
7
  6
CONTINUOUS
 10
3.3569656097
 20
13.7460444246
 11
3.3569656097
 21
13.7810444246
  0
LINE
  5
428
100
AcDbEntity
  8
0
100
AcDbLine
 62
7
  6
CONTINUOUS
 10
3.3869656097
 20
13.7810444246
 11
3.3869656097
 21
13.7460444246
  0
LINE
  5
429
100
AcDbEntity
  8
0
100
AcDbLine
 62
7
  6
CONTINUOUS
 10
3.3869656097
 20
13.7160444246
 11
3.3869656097
 21
13.6810444246
  0
LINE
  5
42A
100
AcDbEntity
  8
0
100
AcDbLine
 62
7
  6
CONTINUOUS
 10
3.3869656097
 20
10.6310444246
 11
3.3869656097
 21
10.5960444246
  0
LINE
  5
42B
100
AcDbEntity
  8
0
100
AcDbLine
 62
7
  6
CONTINUOUS
 10
3.3869656097
 20
10.5660444246
 11
3.3869656097
 21
10.5310444246
  0
LINE
  5
42C
100
AcDbEntity
  8
0
100
AcDbLine
 62
7
  6
CONTINUOUS
 10
3.4219656097
 20
13.7460444246
 11
3.4219656097
 21
13.7160444246
  0
LINE
  5
42D
100
AcDbEntity
  8
0
100
AcDbLine
 62
7
  6
CONTINUOUS
 10
3.4219656097
 20
10.5960444246
 11
3.4219656097
 21
10.5660444246
  0
LINE
  5
42E
100
AcDbEntity
  8
SURFACE
100
AcDbLine
 62
7
  6
CONTINUOUS
 10
7.1199656097
 20
10.3330444246
 11
2.7739656097
 21
10.3330444246
  0
LINE
  5
42F
100
AcDbEntity
  8
SURFACE
100
AcDbLine
 62
7
  6
CONTINUOUS
 10
7.1199656097
 20
10.3810444246
 11
2.7739656097
 21
10.3810444246
  0
LINE
  5
430
100
AcDbEntity
  8
0
100
AcDbLine
 62
7
  6
CONTINUOUS
 10
2.8469656097
 20
10.4060444246
 11
7.0469656097
 21
10.4060444246
  0
LINE
  5
431
100
AcDbEntity
  8
0
100
AcDbLine
 62
7
  6
CONTINUOUS
 10
6.5369656097
 20
10.5310444246
 11
6.5069656097
 21
10.5310444246
  0
LINE
  5
432
100
AcDbEntity
  8
0
100
AcDbLine
 62
7
  6
CONTINUOUS
 10
3.3869656097
 20
10.5310444246
 11
3.3569656097
 21
10.5310444246
  0
LINE
  5
433
100
AcDbEntity
  8
0
100
AcDbLine
 62
7
  6
CONTINUOUS
 10
6.5719656097
 20
10.5660444246
 11
6.5369656097
 21
10.5660444246
  0
LINE
  5
434
100
AcDbEntity
  8
0
100
AcDbLine
 62
7
  6
CONTINUOUS
 10
6.5069656097
 20
10.5660444246
 11
6.4719656097
 21
10.5660444246
  0
LINE
  5
435
100
AcDbEntity
  8
0
100
AcDbLine
 62
7
  6
CONTINUOUS
 10
3.4219656097
 20
10.5660444246
 11
3.3869656097
 21
10.5660444246
  0
LINE
  5
436
100
AcDbEntity
  8
0
100
AcDbLine
 62
7
  6
CONTINUOUS
 10
3.3569656097
 20
10.5660444246
 11
3.3219656097
 21
10.5660444246
  0
LINE
  5
437
100
AcDbEntity
  8
0
100
AcDbLine
 62
7
  6
CONTINUOUS
 10
3.3219656097
 20
10.5960444246
 11
3.3569656097
 21
10.5960444246
  0
LINE
  5
438
100
AcDbEntity
  8
0
100
AcDbLine
 62
7
  6
CONTINUOUS
 10
3.3869656097
 20
10.5960444246
 11
3.4219656097
 21
10.5960444246
  0
LINE
  5
439
100
AcDbEntity
  8
0
100
AcDbLine
 62
7
  6
CONTINUOUS
 10
6.4719656097
 20
10.5960444246
 11
6.5069656097
 21
10.5960444246
  0
LINE
  5
43A
100
AcDbEntity
  8
0
100
AcDbLine
 62
7
  6
CONTINUOUS
 10
6.5369656097
 20
10.5960444246
 11
6.5719656097
 21
10.5960444246
  0
LINE
  5
43B
100
AcDbEntity
  8
0
100
AcDbLine
 62
7
  6
CONTINUOUS
 10
3.3569656097
 20
10.6310444246
 11
3.3869656097
 21
10.6310444246
  0
LINE
  5
43C
100
AcDbEntity
  8
0
100
AcDbLine
 62
7
  6
CONTINUOUS
 10
6.5069656097
 20
10.6310444246
 11
6.5369656097
 21
10.6310444246
  0
LINE
  5
43D
100
AcDbEntity
  8
AXIS_COSMETIC_THREADS
100
AcDbLine
 62
7
  6
CONTINUOUS
 10
7.1289656097
 20
11.9560444246
 11
7.1199656097
 21
11.9560444246
  0
LINE
  5
43E
100
AcDbEntity
  8
AXIS_COSMETIC_THREADS
100
AcDbLine
 62
7
  6
CONTINUOUS
 10
7.0539656097
 20
11.9560444246
 11
7.0469656097
 21
11.9560444246
  0
LINE
  5
43F
100
AcDbEntity
  8
AXIS_COSMETIC_THREADS
100
AcDbLine
 62
7
  6
CONTINUOUS
 10
7.0719656097
 20
12.0210444246
 11
7.0539656097
 21
12.0210444246
  0
LINE
  5
440
100
AcDbEntity
  8
02___PRT_ALL_AXES
100
AcDbLine
 62
7
  6
CONTINUOUS
 10
7.1889656097
 20
12.0694302513
 11
9.9849656097
 21
12.0694302513
  0
LINE
  5
441
100
AcDbEntity
  8
0
100
AcDbLine
 62
7
  6
CONTINUOUS
 10
6.4719656097
 20
10.5660444246
 11
6.4719656097
 21
10.5960444246
  0
LINE
  5
442
100
AcDbEntity
  8
0
100
AcDbLine
 62
7
  6
CONTINUOUS
 10
6.4719656097
 20
13.7160444246
 11
6.4719656097
 21
13.7460444246
  0
LINE
  5
443
100
AcDbEntity
  8
0
100
AcDbLine
 62
7
  6
CONTINUOUS
 10
6.5069656097
 20
10.5310444246
 11
6.5069656097
 21
10.5660444246
  0
LINE
  5
444
100
AcDbEntity
  8
0
100
AcDbLine
 62
7
  6
CONTINUOUS
 10
6.5069656097
 20
10.5960444246
 11
6.5069656097
 21
10.6310444246
  0
LINE
  5
445
100
AcDbEntity
  8
0
100
AcDbLine
 62
7
  6
CONTINUOUS
 10
6.5069656097
 20
13.6810444246
 11
6.5069656097
 21
13.7160444246
  0
LINE
  5
446
100
AcDbEntity
  8
0
100
AcDbLine
 62
7
  6
CONTINUOUS
 10
6.5069656097
 20
13.7460444246
 11
6.5069656097
 21
13.7810444246
  0
LINE
  5
447
100
AcDbEntity
  8
0
100
AcDbLine
 62
7
  6
CONTINUOUS
 10
6.5369656097
 20
13.7810444246
 11
6.5369656097
 21
13.7460444246
  0
LINE
  5
448
100
AcDbEntity
  8
0
100
AcDbLine
 62
7
  6
CONTINUOUS
 10
6.5369656097
 20
13.7160444246
 11
6.5369656097
 21
13.6810444246
  0
LINE
  5
449
100
AcDbEntity
  8
0
100
AcDbLine
 62
7
  6
CONTINUOUS
 10
6.5369656097
 20
10.6310444246
 11
6.5369656097
 21
10.5960444246
  0
LINE
  5
44A
100
AcDbEntity
  8
0
100
AcDbLine
 62
7
  6
CONTINUOUS
 10
6.5369656097
 20
10.5660444246
 11
6.5369656097
 21
10.5310444246
  0
LINE
  5
44B
100
AcDbEntity
  8
0
100
AcDbLine
 62
7
  6
CONTINUOUS
 10
6.5719656097
 20
13.7460444246
 11
6.5719656097
 21
13.7160444246
  0
LINE
  5
44C
100
AcDbEntity
  8
0
100
AcDbLine
 62
7
  6
CONTINUOUS
 10
6.5719656097
 20
10.5960444246
 11
6.5719656097
 21
10.5660444246
  0
LINE
  5
44D
100
AcDbEntity
  8
02___PRT_ALL_AXES
100
AcDbLine
 62
7
  6
CONTINUOUS
 10
7.1889656097
 20
12.2426585978
 11
9.9849656097
 21
12.2426585978
  0
LINE
  5
44E
100
AcDbEntity
  8
AXIS_COSMETIC_THREADS
100
AcDbLine
 62
7
  6
CONTINUOUS
 10
7.0719656097
 20
12.2910444246
 11
7.0539656097
 21
12.2910444246
  0
LINE
  5
44F
100
AcDbEntity
  8
AXIS_COSMETIC_THREADS
100
AcDbLine
 62
7
  6
CONTINUOUS
 10
7.1289656097
 20
12.3560444246
 11
7.1199656097
 21
12.3560444246
  0
LINE
  5
450
100
AcDbEntity
  8
AXIS_COSMETIC_THREADS
100
AcDbLine
 62
7
  6
CONTINUOUS
 10
7.0539656097
 20
12.3560444246
 11
7.0469656097
 21
12.3560444246
  0
LINE
  5
451
100
AcDbEntity
  8
SURFACE
100
AcDbLine
 62
7
  6
CONTINUOUS
 10
7.0299656097
 20
13.9310444246
 11
7.0299656097
 21
13.9060444246
  0
LINE
  5
452
100
AcDbEntity
  8
SURFACE
100
AcDbLine
 62
7
  6
CONTINUOUS
 10
7.0299656097
 20
10.3810444246
 11
7.0299656097
 21
10.4060444246
  0
LINE
  5
453
100
AcDbEntity
  8
0
100
AcDbLine
 62
7
  6
CONTINUOUS
 10
7.0469656097
 20
10.4060444246
 11
7.0469656097
 21
13.9060444246
  0
LINE
  5
454
100
AcDbEntity
  8
AXIS_COSMETIC_THREADS
100
AcDbLine
 62
7
  6
CONTINUOUS
 10
7.0539656097
 20
11.9560450695
 11
7.0539656097
 21
12.3560437796
  0
LINE
  5
455
100
AcDbEntity
  8
SURFACE
100
AcDbLine
 62
7
  6
CONTINUOUS
 10
7.0719656097
 20
13.9310444246
 11
7.0719656097
 21
10.3810444246
  0
LINE
  5
456
100
AcDbEntity
  8
SURFACE
100
AcDbLine
 62
7
  6
CONTINUOUS
 10
7.1199656097
 20
10.3330444246
 11
7.1199656097
 21
13.9790444246
  0
LINE
  5
457
100
AcDbEntity
  8
AXIS_COSMETIC_THREADS
100
AcDbLine
 62
7
  6
CONTINUOUS
 10
7.1289656097
 20
11.9560444246
 11
7.1289656097
 21
12.3560444246
  0
LINE
  5
458
100
AcDbEntity
  8
AXIS_COSMETIC_THREADS
100
AcDbLine
 62
7
  6
CONTINUOUS
 10
7.1889656097
 20
12.0160444246
 11
7.1889656097
 21
12.2960444246
  0
LINE
  5
459
100
AcDbEntity
  8
0
100
AcDbLine
 62
7
  6
CONTINUOUS
 10
6.5369656097
 20
13.6810444246
 11
6.5069656097
 21
13.6810444246
  0
LINE
  5
45A
100
AcDbEntity
  8
0
100
AcDbLine
 62
7
  6
CONTINUOUS
 10
3.3869656097
 20
13.6810444246
 11
3.3569656097
 21
13.6810444246
  0
LINE
  5
45B
100
AcDbEntity
  8
0
100
AcDbLine
 62
7
  6
CONTINUOUS
 10
6.5719656097
 20
13.7160444246
 11
6.5369656097
 21
13.7160444246
  0
LINE
  5
45C
100
AcDbEntity
  8
0
100
AcDbLine
 62
7
  6
CONTINUOUS
 10
6.5069656097
 20
13.7160444246
 11
6.4719656097
 21
13.7160444246
  0
LINE
  5
45D
100
AcDbEntity
  8
0
100
AcDbLine
 62
7
  6
CONTINUOUS
 10
3.4219656097
 20
13.7160444246
 11
3.3869656097
 21
13.7160444246
  0
LINE
  5
45E
100
AcDbEntity
  8
0
100
AcDbLine
 62
7
  6
CONTINUOUS
 10
3.3569656097
 20
13.7160444246
 11
3.3219656097
 21
13.7160444246
  0
LINE
  5
45F
100
AcDbEntity
  8
0
100
AcDbLine
 62
7
  6
CONTINUOUS
 10
3.3219656097
 20
13.7460444246
 11
3.3569656097
 21
13.7460444246
  0
LINE
  5
460
100
AcDbEntity
  8
0
100
AcDbLine
 62
7
  6
CONTINUOUS
 10
3.3869656097
 20
13.7460444246
 11
3.4219656097
 21
13.7460444246
  0
LINE
  5
461
100
AcDbEntity
  8
0
100
AcDbLine
 62
7
  6
CONTINUOUS
 10
6.4719656097
 20
13.7460444246
 11
6.5069656097
 21
13.7460444246
  0
LINE
  5
462
100
AcDbEntity
  8
0
100
AcDbLine
 62
7
  6
CONTINUOUS
 10
6.5369656097
 20
13.7460444246
 11
6.5719656097
 21
13.7460444246
  0
LINE
  5
463
100
AcDbEntity
  8
0
100
AcDbLine
 62
7
  6
CONTINUOUS
 10
3.3569656097
 20
13.7810444246
 11
3.3869656097
 21
13.7810444246
  0
LINE
  5
464
100
AcDbEntity
  8
0
100
AcDbLine
 62
7
  6
CONTINUOUS
 10
6.5069656097
 20
13.7810444246
 11
6.5369656097
 21
13.7810444246
  0
LINE
  5
465
100
AcDbEntity
  8
0
100
AcDbLine
 62
7
  6
CONTINUOUS
 10
7.0469656097
 20
13.9060444246
 11
2.8469656097
 21
13.9060444246
  0
LINE
  5
466
100
AcDbEntity
  8
SURFACE
100
AcDbLine
 62
7
  6
CONTINUOUS
 10
2.7739656097
 20
13.9310444246
 11
7.1199656097
 21
13.9310444246
  0
LINE
  5
467
100
AcDbEntity
  8
SURFACE
100
AcDbLine
 62
7
  6
CONTINUOUS
 10
2.7739656097
 20
13.9790444246
 11
7.1199656097
 21
13.9790444246
  0
LINE
  5
468
100
AcDbEntity
  8
02___PRT_ALL_AXES
100
AcDbLine
 62
7
  6
CONTINUOUS
 10
9.9849656097
 20
12.2426585978
 11
9.9849656097
 21
12.0694302513
  0
LINE
  5
469
100
AcDbEntity
  8
SURFACE
100
AcDbLine
 62
7
  6
CONTINUOUS
 10
2.7739656097
 20
2.6591548626
 11
2.7739656097
 21
6.3051548626
  0
LINE
  5
46A
100
AcDbEntity
  8
SURFACE
100
AcDbLine
 62
7
  6
CONTINUOUS
 10
2.8639656097
 20
2.6591548626
 11
2.8639656097
 21
2.7431548626
  0
LINE
  5
46B
100
AcDbEntity
  8
SURFACE
100
AcDbLine
 62
7
  6
CONTINUOUS
 10
2.8639656097
 20
2.7431548626
 11
2.8639656097
 21
6.2211548626
  0
LINE
  5
46C
100
AcDbEntity
  8
SURFACE
100
AcDbLine
 62
7
  6
CONTINUOUS
 10
2.8639656097
 20
6.2211548626
 11
2.8639656097
 21
6.3051548626
  0
LINE
  5
46D
100
AcDbEntity
  8
AXIS_COSMETIC_THREADS
100
AcDbLine
 62
7
  6
CENTER
 10
3.0969656097
 20
5.6821548626
 11
3.0969656097
 21
5.4256587996
  0
LINE
  5
46E
100
AcDbEntity
  8
AXIS_COSMETIC_THREADS
100
AcDbLine
 62
7
  6
CENTER
 10
3.0969656097
 20
3.2821548626
 11
3.0969656097
 21
3.0256587996
  0
LINE
  5
46F
100
AcDbEntity
  8
AXIS_COSMETIC_THREADS
100
AcDbLine
 62
7
  6
CENTER
 10
3.0969656097
 20
3.2821548626
 11
3.0969656097
 21
5.4256587996
  0
LINE
  5
470
100
AcDbEntity
  8
AXIS_COSMETIC_THREADS
100
AcDbLine
 62
7
  6
CENTER
 10
3.0969656097
 20
5.6821548626
 11
3.0969656097
 21
5.9386509256
  0
LINE
  5
471
100
AcDbEntity
  8
SURFACE
100
AcDbLine
 62
7
  6
CONTINUOUS
 10
7.1199656097
 20
2.6591548626
 11
2.7739656097
 21
2.6591548626
  0
LINE
  5
472
100
AcDbEntity
  8
SURFACE
100
AcDbLine
 62
7
  6
CONTINUOUS
 10
7.1199656097
 20
2.7071548626
 11
7.0299656097
 21
2.7071548626
  0
LINE
  5
473
100
AcDbEntity
  8
SURFACE
100
AcDbLine
 62
7
  6
CONTINUOUS
 10
2.7739656097
 20
2.7071548626
 11
2.8639656097
 21
2.7071548626
  0
LINE
  5
474
100
AcDbEntity
  8
SURFACE
100
AcDbLine
 62
7
  6
CONTINUOUS
 10
7.0299656097
 20
2.7431548626
 11
2.8639656097
 21
2.7431548626
  0
LINE
  5
475
100
AcDbEntity
  8
AXIS_COSMETIC_THREADS
100
AcDbLine
 62
7
  6
CENTER
 10
6.7969656097
 20
3.2821548626
 11
6.5404695467
 21
3.2821548626
  0
LINE
  5
476
100
AcDbEntity
  8
AXIS_COSMETIC_THREADS
100
AcDbLine
 62
7
  6
CENTER
 10
3.0969656097
 20
3.2821548626
 11
2.8404695467
 21
3.2821548626
  0
LINE
  5
477
100
AcDbEntity
  8
AXIS_COSMETIC_THREADS
100
AcDbLine
 62
7
  6
CENTER
 10
3.0969656097
 20
3.2821548626
 11
6.5404695467
 21
3.2821548626
  0
LINE
  5
478
100
AcDbEntity
  8
AXIS_COSMETIC_THREADS
100
AcDbLine
 62
7
  6
CENTER
 10
6.7969656097
 20
3.2821548626
 11
7.0534616726
 21
3.2821548626
  0
LINE
  5
479
100
AcDbEntity
  8
AXIS_COSMETIC_THREADS
100
AcDbLine
 62
7
  6
CONTINUOUS
 10
7.1289656097
 20
4.2821548626
 11
7.1199656097
 21
4.2821548626
  0
LINE
  5
47A
100
AcDbEntity
  8
02___PRT_ALL_AXES
100
AcDbLine
 62
7
  6
CONTINUOUS
 10
7.1889656097
 20
4.3955406894
 11
9.9849656097
 21
4.3955406894
  0
LINE
  5
47B
100
AcDbEntity
  8
02___PRT_ALL_AXES
100
AcDbLine
 62
7
  6
CONTINUOUS
 10
7.1889656097
 20
4.5687690359
 11
9.9849656097
 21
4.5687690359
  0
LINE
  5
47C
100
AcDbEntity
  8
AXIS_COSMETIC_THREADS
100
AcDbLine
 62
7
  6
CONTINUOUS
 10
7.1289656097
 20
4.6821548626
 11
7.1199656097
 21
4.6821548626
  0
LINE
  5
47D
100
AcDbEntity
  8
AXIS_COSMETIC_THREADS
100
AcDbLine
 62
7
  6
CENTER
 10
6.7969656097
 20
5.6821548626
 11
6.7969656097
 21
3.4801175347
  0
LINE
  5
47E
100
AcDbEntity
  8
AXIS_COSMETIC_THREADS
100
AcDbLine
 62
7
  6
CENTER
 10
6.7969656097
 20
3.2821548626
 11
6.7969656097
 21
3.0256587996
  0
LINE
  5
47F
100
AcDbEntity
  8
AXIS_COSMETIC_THREADS
100
AcDbLine
 62
7
  6
CENTER
 10
6.7969656097
 20
3.2821548626
 11
6.7969656097
 21
3.4801175347
  0
LINE
  5
480
100
AcDbEntity
  8
AXIS_COSMETIC_THREADS
100
AcDbLine
 62
7
  6
CENTER
 10
6.7969656097
 20
5.6821548626
 11
6.7969656097
 21
5.9386509256
  0
LINE
  5
481
100
AcDbEntity
  8
SURFACE
100
AcDbLine
 62
7
  6
CONTINUOUS
 10
7.0299656097
 20
6.3051548626
 11
7.0299656097
 21
6.2211548626
  0
LINE
  5
482
100
AcDbEntity
  8
SURFACE
100
AcDbLine
 62
7
  6
CONTINUOUS
 10
7.0299656097
 20
6.2211548626
 11
7.0299656097
 21
2.7431548626
  0
LINE
  5
483
100
AcDbEntity
  8
SURFACE
100
AcDbLine
 62
7
  6
CONTINUOUS
 10
7.0299656097
 20
2.6591548626
 11
7.0299656097
 21
2.7431548626
  0
LINE
  5
484
100
AcDbEntity
  8
SURFACE
100
AcDbLine
 62
7
  6
CONTINUOUS
 10
7.1199656097
 20
2.6591548626
 11
7.1199656097
 21
6.3051548626
  0
LINE
  5
485
100
AcDbEntity
  8
AXIS_COSMETIC_THREADS
100
AcDbLine
 62
7
  6
CONTINUOUS
 10
7.1289656097
 20
4.2821548626
 11
7.1289656097
 21
4.6821548626
  0
LINE
  5
486
100
AcDbEntity
  8
AXIS_COSMETIC_THREADS
100
AcDbLine
 62
7
  6
CONTINUOUS
 10
7.1889656097
 20
4.3421548626
 11
7.1889656097
 21
4.6221548626
  0
LINE
  5
487
100
AcDbEntity
  8
AXIS_COSMETIC_THREADS
100
AcDbLine
 62
7
  6
CENTER
 10
6.7969656097
 20
5.6821548626
 11
3.2296869121
 21
5.6821548626
  0
LINE
  5
488
100
AcDbEntity
  8
AXIS_COSMETIC_THREADS
100
AcDbLine
 62
7
  6
CENTER
 10
3.0969656097
 20
5.6821548626
 11
2.8404695467
 21
5.6821548626
  0
LINE
  5
489
100
AcDbEntity
  8
AXIS_COSMETIC_THREADS
100
AcDbLine
 62
7
  6
CENTER
 10
3.0969656097
 20
5.6821548626
 11
3.2296869121
 21
5.6821548626
  0
LINE
  5
48A
100
AcDbEntity
  8
AXIS_COSMETIC_THREADS
100
AcDbLine
 62
7
  6
CENTER
 10
6.7969656097
 20
5.6821548626
 11
7.0534616726
 21
5.6821548626
  0
LINE
  5
48B
100
AcDbEntity
  8
SURFACE
100
AcDbLine
 62
7
  6
CONTINUOUS
 10
2.8639656097
 20
6.2211548626
 11
7.0299656097
 21
6.2211548626
  0
LINE
  5
48C
100
AcDbEntity
  8
SURFACE
100
AcDbLine
 62
7
  6
CONTINUOUS
 10
7.1199656097
 20
6.2571548626
 11
7.0299656097
 21
6.2571548626
  0
LINE
  5
48D
100
AcDbEntity
  8
SURFACE
100
AcDbLine
 62
7
  6
CONTINUOUS
 10
2.7739656097
 20
6.2571548626
 11
2.8639656097
 21
6.2571548626
  0
LINE
  5
48E
100
AcDbEntity
  8
SURFACE
100
AcDbLine
 62
7
  6
CONTINUOUS
 10
2.7739656097
 20
6.3051548626
 11
7.1199656097
 21
6.3051548626
  0
LINE
  5
48F
100
AcDbEntity
  8
02___PRT_ALL_AXES
100
AcDbLine
 62
7
  6
CONTINUOUS
 10
9.9849656097
 20
4.5687690359
 11
9.9849656097
 21
4.3955406894
  0
LINE
  5
490
100
AcDbEntity
  8
SURFACE
100
AcDbLine
 62
7
  6
CONTINUOUS
 10
13.8044863638
 20
7.8949908614
 11
13.8044863638
 21
8.7959908614
  0
LINE
  5
491
100
AcDbEntity
  8
SURFACE
100
AcDbLine
 62
7
  6
CONTINUOUS
 10
13.8524863638
 20
7.9089908614
 11
13.8524863638
 21
7.8109908614
  0
LINE
  5
492
100
AcDbEntity
  8
SURFACE
100
AcDbLine
 62
7
  6
CONTINUOUS
 10
13.8524863638
 20
7.9089908614
 11
13.8524863638
 21
8.7959908614
  0
LINE
  5
493
100
AcDbEntity
  8
0
100
AcDbLine
 62
7
  6
CONTINUOUS
 10
14.0024863638
 20
8.800736382
 11
14.0024863638
 21
8.8011960927
  0
LINE
  5
494
100
AcDbEntity
  8
0
100
AcDbLine
 62
7
  6
CONTINUOUS
 10
14.0374863638
 20
8.800736382
 11
14.0374863638
 21
8.8053454926
  0
LINE
  5
495
100
AcDbEntity
  8
0
100
AcDbLine
 62
7
  6
CONTINUOUS
 10
14.0674863638
 20
8.8053454926
 11
14.0674863638
 21
8.800736382
  0
LINE
  5
496
100
AcDbEntity
  8
0
100
AcDbLine
 62
7
  6
CONTINUOUS
 10
14.1024863638
 20
8.8011960927
 11
14.1024863638
 21
8.800736382
  0
LINE
  5
497
100
AcDbEntity
  8
SURFACE
100
AcDbLine
 62
7
  6
CONTINUOUS
 10
13.8524863638
 20
7.8524269824
 11
13.834240898
 21
7.8308548384
  0
LINE
  5
498
100
AcDbEntity
  8
SURFACE
100
AcDbLine
 62
7
  6
CONTINUOUS
 10
13.8524863638
 20
7.8109908614
 11
17.4024863638
 21
7.8109908614
  0
LINE
  5
499
100
AcDbEntity
  8
SURFACE
100
AcDbLine
 62
7
  6
CONTINUOUS
 10
13.8524863638
 20
7.8949908614
 11
13.8044863638
 21
7.8949908614
  0
LINE
  5
49A
100
AcDbEntity
  8
SURFACE
100
AcDbLine
 62
7
  6
CONTINUOUS
 10
17.4024863638
 20
7.8949908614
 11
17.4504863638
 21
7.8949908614
  0
LINE
  5
49B
100
AcDbEntity
  8
SURFACE
100
AcDbLine
 62
7
  6
CONTINUOUS
 10
13.8524863638
 20
7.9009908614
 11
17.4024863638
 21
7.9009908614
  0
LINE
  5
49C
100
AcDbEntity
  8
SURFACE
100
AcDbLine
 62
7
  6
CONTINUOUS
 10
13.8524863638
 20
7.9089908614
 11
13.8044863638
 21
7.9089908614
  0
LINE
  5
49D
100
AcDbEntity
  8
SURFACE
100
AcDbLine
 62
7
  6
CONTINUOUS
 10
17.4024863638
 20
7.9089908614
 11
17.4504863638
 21
7.9089908614
  0
LINE
  5
49E
100
AcDbEntity
  8
AXIS_COSMETIC_THREADS
100
AcDbLine
 62
7
  6
CENTER
 10
15.6274863638
 20
8.2509908614
 11
15.6274863638
 21
7.9509908614
  0
LINE
  5
49F
100
AcDbEntity
  8
AXIS_COSMETIC_THREADS
100
AcDbLine
 62
7
  6
CENTER
 10
15.6274863638
 20
8.2509908614
 11
15.6274863638
 21
8.5509908614
  0
LINE
  5
4A0
100
AcDbEntity
  8
AXIS_COSMETIC_THREADS
100
AcDbLine
 62
7
  6
CENTER
 10
15.6274863638
 20
8.2509908614
 11
15.3274863638
 21
8.2509908614
  0
LINE
  5
4A1
100
AcDbEntity
  8
AXIS_COSMETIC_THREADS
100
AcDbLine
 62
7
  6
CENTER
 10
15.6274863638
 20
8.2509908614
 11
15.9274863638
 21
8.2509908614
  0
LINE
  5
4A2
100
AcDbEntity
  8
SURFACE
100
AcDbLine
 62
7
  6
CONTINUOUS
 10
13.8044863638
 20
8.7959908614
 11
17.4504863638
 21
8.7959908614
  0
LINE
  5
4A3
100
AcDbEntity
  8
SURFACE
100
AcDbLine
 62
7
  6
CONTINUOUS
 10
17.4024863638
 20
7.8524269824
 11
17.4207318295
 21
7.8308548384
  0
LINE
  5
4A4
100
AcDbEntity
  8
0
100
AcDbLine
 62
7
  6
CONTINUOUS
 10
17.1524863638
 20
8.800736382
 11
17.1524863638
 21
8.8011960927
  0
LINE
  5
4A5
100
AcDbEntity
  8
0
100
AcDbLine
 62
7
  6
CONTINUOUS
 10
17.1874863638
 20
8.800736382
 11
17.1874863638
 21
8.8053454926
  0
LINE
  5
4A6
100
AcDbEntity
  8
0
100
AcDbLine
 62
7
  6
CONTINUOUS
 10
17.2174863638
 20
8.8053454926
 11
17.2174863638
 21
8.800736382
  0
LINE
  5
4A7
100
AcDbEntity
  8
0
100
AcDbLine
 62
7
  6
CONTINUOUS
 10
17.2524863638
 20
8.8011960927
 11
17.2524863638
 21
8.800736382
  0
LINE
  5
4A8
100
AcDbEntity
  8
SURFACE
100
AcDbLine
 62
7
  6
CONTINUOUS
 10
17.4024863638
 20
8.7959908614
 11
17.4024863638
 21
7.9089908614
  0
LINE
  5
4A9
100
AcDbEntity
  8
SURFACE
100
AcDbLine
 62
7
  6
CONTINUOUS
 10
17.4024863638
 20
7.8109908614
 11
17.4024863638
 21
7.9089908614
  0
LINE
  5
4AA
100
AcDbEntity
  8
SURFACE
100
AcDbLine
 62
7
  6
CONTINUOUS
 10
17.4504863638
 20
8.7959908614
 11
17.4504863638
 21
7.8949908614
  0
LINE
  5
4AB
100
AcDbEntity
  8
SURFACE
100
AcDbLine
 62
7
  6
CONTINUOUS
 10
14.3579444498
 20
14.0256118686
 11
14.3579444498
 21
13.3013742246
  0
LINE
  5
4AC
100
AcDbEntity
  8
SURFACE
100
AcDbLine
 62
7
  6
CONTINUOUS
 10
14.421584325
 20
13.2646325567
 11
14.421584325
 21
13.2532015228
  0
LINE
  5
4AD
100
AcDbEntity
  8
SURFACE
100
AcDbLine
 62
7
  6
CONTINUOUS
 10
14.4555253092
 20
13.2051962799
 11
14.4555253092
 21
13.2042110392
  0
LINE
  5
4AE
100
AcDbEntity
  8
AXIS_COSMETIC_THREADS
100
AcDbLine
 62
7
  6
CONTINUOUS
 10
14.846657817
 20
13.8572423299
 11
14.846657817
 21
13.8296557904
  0
LINE
  5
4AF
100
AcDbEntity
  8
0
100
AcDbLine
 62
7
  6
CONTINUOUS
 10
14.9314088883
 20
13.9131388766
 11
14.9314088883
 21
13.8921179983
  0
LINE
  5
4B0
100
AcDbEntity
  8
0
100
AcDbLine
 62
7
  6
CONTINUOUS
 10
14.9349446136
 20
13.8903664755
 11
14.9349446136
 21
13.8628830241
  0
LINE
  5
4B1
100
AcDbEntity
  8
0
100
AcDbLine
 62
7
  6
CONTINUOUS
 10
14.9561577287
 20
13.9026138001
 11
14.9561577287
 21
13.8781192529
  0
LINE
  5
4B2
100
AcDbEntity
  8
0
100
AcDbLine
 62
7
  6
CONTINUOUS
 10
14.9773710205
 20
13.8903665775
 11
14.9773710205
 21
13.8628820529
  0
LINE
  5
4B3
100
AcDbEntity
  8
0
100
AcDbLine
 62
7
  6
CONTINUOUS
 10
14.980906363
 20
13.9131389956
 11
14.980906363
 21
13.8921178475
  0
LINE
  5
4B4
100
AcDbEntity
  8
AXIS_COSMETIC_THREADS
100
AcDbLine
 62
7
  6
CONTINUOUS
 10
15.065657817
 20
13.8572423299
 11
15.065657817
 21
13.8296557904
  0
LINE
  5
4B5
100
AcDbEntity
  8
SURFACE
100
AcDbLine
 62
7
  6
CONTINUOUS
 10
14.3579444498
 20
14.0256118686
 11
16.9360450403
 21
15.5140700536
  0
LINE
  5
4B6
100
AcDbEntity
  8
SURFACE
100
AcDbLine
 62
7
  6
CONTINUOUS
 10
14.4258267008
 20
14.0256120317
 11
16.9360453229
 21
15.474878778
  0
LINE
  5
4B7
100
AcDbEntity
  8
0
100
AcDbLine
 62
7
  6
CONTINUOUS
 10
16.9360454701
 20
15.4013939982
 11
14.4894673703
 21
13.9888699053
  0
LINE
  5
4B8
100
AcDbEntity
  8
SURFACE
100
AcDbLine
 62
7
  6
CONTINUOUS
 10
17.3847764297
 20
11.5140369643
 11
17.3884429854
 21
11.5122504364
  0
LINE
  5
4B9
100
AcDbEntity
  8
0
100
AcDbLine
 62
7
  6
CONTINUOUS
 10
17.2047481077
 20
15.1686971599
 11
17.1896674253
 21
15.1599903758
  0
LINE
  5
4BA
100
AcDbEntity
  8
0
100
AcDbLine
 62
7
  6
CONTINUOUS
 10
14.9773710205
 20
13.8827280752
 11
14.962290338
 21
13.8740212911
  0
LINE
  5
4BB
100
AcDbEntity
  8
SURFACE
100
AcDbLine
 62
7
  6
CONTINUOUS
 10
14.43898176
 20
13.2147474864
 11
17.3848008749
 21
11.5140165031
  0
LINE
  5
4BC
100
AcDbEntity
  8
SURFACE
100
AcDbLine
 62
7
  6
CONTINUOUS
 10
14.421584325
 20
13.2532015228
 11
17.36740344
 21
11.5524705395
  0
LINE
  5
4BD
100
AcDbEntity
  8
SURFACE
100
AcDbLine
 62
7
  6
CONTINUOUS
 10
14.3579444498
 20
13.3013742246
 11
14.421584325
 21
13.2646325567
  0
LINE
  5
4BE
100
AcDbEntity
  8
SURFACE
100
AcDbLine
 62
7
  6
CONTINUOUS
 10
17.36740344
 20
11.5639015733
 11
17.4310433153
 21
11.5271599054
  0
LINE
  5
4BF
100
AcDbEntity
  8
SURFACE
100
AcDbLine
 62
7
  6
CONTINUOUS
 10
17.4593273239
 20
11.543489588
 11
17.4649842995
 21
11.5402236055
  0
LINE
  5
4C0
100
AcDbEntity
  8
SURFACE
100
AcDbLine
 62
7
  6
CONTINUOUS
 10
14.4563785649
 20
13.2047036636
 11
14.4555253092
 21
13.2042110392
  0
LINE
  5
4C1
100
AcDbEntity
  8
SURFACE
100
AcDbLine
 62
7
  6
CONTINUOUS
 10
17.4310433153
 20
12.2513975494
 11
14.3579444498
 21
14.0256118686
  0
LINE
  5
4C2
100
AcDbEntity
  8
SURFACE
100
AcDbLine
 62
7
  6
CONTINUOUS
 10
17.4649842995
 20
12.2709932688
 11
14.391885434
 21
14.045207588
  0
LINE
  5
4C3
100
AcDbEntity
  8
0
100
AcDbLine
 62
7
  6
CONTINUOUS
 10
17.177422856
 20
12.5880616416
 11
17.1623402478
 21
12.5967693926
  0
LINE
  5
4C4
100
AcDbEntity
  8
0
100
AcDbLine
 62
7
  6
CONTINUOUS
 10
14.9500272218
 20
13.8740200184
 11
14.9349446136
 21
13.8827277693
  0
LINE
  5
4C5
100
AcDbEntity
  8
SURFACE
100
AcDbLine
 62
7
  6
CONTINUOUS
 10
16.9360453229
 20
15.474878778
 11
16.9360453229
 21
15.4013939982
  0
LINE
  5
4C6
100
AcDbEntity
  8
AXIS_COSMETIC_THREADS
100
AcDbLine
 62
7
  6
CONTINUOUS
 10
17.0740349043
 20
15.1432114146
 11
17.0740349043
 21
15.1156248751
  0
LINE
  5
4C7
100
AcDbEntity
  8
AXIS_COSMETIC_THREADS
100
AcDbLine
 62
7
  6
CONTINUOUS
 10
17.0740534513
 20
12.5712839531
 11
17.0740534513
 21
12.5436974137
  0
LINE
  5
4C8
100
AcDbEntity
  8
0
100
AcDbLine
 62
7
  6
CONTINUOUS
 10
17.1587859756
 20
15.1991079613
 11
17.1587859756
 21
15.178087083
  0
LINE
  5
4C9
100
AcDbEntity
  8
0
100
AcDbLine
 62
7
  6
CONTINUOUS
 10
17.1588045226
 20
12.6271804999
 11
17.1588045226
 21
12.6061596216
  0
LINE
  5
4CA
100
AcDbEntity
  8
0
100
AcDbLine
 62
7
  6
CONTINUOUS
 10
17.1623217008
 20
15.1763355602
 11
17.1623217008
 21
15.1488521088
  0
LINE
  5
4CB
100
AcDbEntity
  8
0
100
AcDbLine
 62
7
  6
CONTINUOUS
 10
17.1623402478
 20
12.6044080988
 11
17.1623402478
 21
12.5769246473
  0
LINE
  5
4CC
100
AcDbEntity
  8
0
100
AcDbLine
 62
7
  6
CONTINUOUS
 10
17.183534816
 20
15.1885828848
 11
17.183534816
 21
15.1640883376
  0
LINE
  5
4CD
100
AcDbEntity
  8
0
100
AcDbLine
 62
7
  6
CONTINUOUS
 10
17.1835533629
 20
12.6166554234
 11
17.1835533629
 21
12.5921608761
  0
LINE
  5
4CE
100
AcDbEntity
  8
0
100
AcDbLine
 62
7
  6
CONTINUOUS
 10
17.2047481077
 20
15.1763356622
 11
17.2047481077
 21
15.1488511376
  0
LINE
  5
4CF
100
AcDbEntity
  8
0
100
AcDbLine
 62
7
  6
CONTINUOUS
 10
17.2047666547
 20
12.6044082008
 11
17.2047666547
 21
12.5769236762
  0
LINE
  5
4D0
100
AcDbEntity
  8
0
100
AcDbLine
 62
7
  6
CONTINUOUS
 10
17.2082834503
 20
15.1991080803
 11
17.2082834503
 21
15.1780869322
  0
LINE
  5
4D1
100
AcDbEntity
  8
0
100
AcDbLine
 62
7
  6
CONTINUOUS
 10
17.2083019972
 20
12.6271806188
 11
17.2083019972
 21
12.6061594708
  0
LINE
  5
4D2
100
AcDbEntity
  8
AXIS_COSMETIC_THREADS
100
AcDbLine
 62
7
  6
CONTINUOUS
 10
17.2930349043
 20
15.1432114146
 11
17.2930349043
 21
15.1156248751
  0
LINE
  5
4D3
100
AcDbEntity
  8
AXIS_COSMETIC_THREADS
100
AcDbLine
 62
7
  6
CONTINUOUS
 10
17.2930534513
 20
12.5712839531
 11
17.2930534513
 21
12.5436974137
  0
LINE
  5
4D4
100
AcDbEntity
  8
AXIS_COSMETIC_THREADS
100
AcDbLine
 62
7
  6
CONTINUOUS
 10
18.6264592947
 20
12.3737525975
 11
18.6200953072
 21
12.3774267643
  0
LINE
  5
4D5
100
AcDbEntity
  8
02___PRT_ALL_AXES
100
AcDbLine
 62
7
  6
CONTINUOUS
 10
18.7134747157
 20
12.454441292
 11
20.7026566212
 21
11.3060125643
  0
LINE
  5
4D6
100
AcDbEntity
  8
SURFACE
100
AcDbLine
 62
7
  6
CONTINUOUS
 10
17.36740344
 20
11.5524705395
 11
17.36740344
 21
11.5639015733
  0
LINE
  5
4D7
100
AcDbEntity
  8
SURFACE
100
AcDbLine
 62
7
  6
CONTINUOUS
 10
17.4013444242
 20
11.5426721719
 11
17.4013444242
 21
11.5034800558
  0
LINE
  5
4D8
100
AcDbEntity
  8
SURFACE
100
AcDbLine
 62
7
  6
CONTINUOUS
 10
17.4310433153
 20
11.5271599054
 11
17.4310433153
 21
12.2513975494
  0
LINE
  5
4D9
100
AcDbEntity
  8
SURFACE
100
AcDbLine
 62
7
  6
CONTINUOUS
 10
17.4649842995
 20
11.5467556248
 11
17.4649842995
 21
11.5402236055
  0
LINE
  5
4DA
100
AcDbEntity
  8
SURFACE
100
AcDbLine
 62
7
  6
CONTINUOUS
 10
17.4649842995
 20
11.5467556248
 11
17.4649842995
 21
12.2709932688
  0
LINE
  5
4DB
100
AcDbEntity
  8
02___PRT_ALL_AXES
100
AcDbLine
 62
7
  6
CONTINUOUS
 10
18.8004341898
 20
12.6042620857
 11
20.7892693249
 21
11.4560335615
  0
LINE
  5
4DC
100
AcDbEntity
  8
AXIS_COSMETIC_THREADS
100
AcDbLine
 62
7
  6
CONTINUOUS
 10
18.8264559013
 20
12.7201647181
 11
18.8200919138
 21
12.7238388849
  0
LINE
  5
4DD
100
AcDbEntity
  8
0
100
AcDbLine
 62
7
  6
CONTINUOUS
 10
19.4321437419
 20
13.8827387832
 11
19.4170630595
 21
13.8740319991
  0
LINE
  5
4DE
100
AcDbEntity
  8
0
100
AcDbLine
 62
7
  6
CONTINUOUS
 10
17.2047666547
 20
12.5967696985
 11
17.1896859723
 21
12.5880629144
  0
LINE
  5
4DF
100
AcDbEntity
  8
SURFACE
100
AcDbLine
 62
7
  6
CONTINUOUS
 10
17.4013444242
 20
11.5373127488
 11
17.3884429854
 21
11.5122504364
  0
LINE
  5
4E0
100
AcDbEntity
  8
SURFACE
100
AcDbLine
 62
7
  6
CONTINUOUS
 10
19.9412616548
 20
13.7398555713
 11
17.4310430326
 21
12.290588825
  0
LINE
  5
4E1
100
AcDbEntity
  8
SURFACE
100
AcDbLine
 62
7
  6
CONTINUOUS
 10
17.4310433153
 20
12.2513975494
 11
20.0091439057
 21
13.7398557344
  0
LINE
  5
4E2
100
AcDbEntity
  8
0
100
AcDbLine
 62
7
  6
CONTINUOUS
 10
19.4047999433
 20
13.8740307263
 11
19.389717335
 21
13.8827384773
  0
LINE
  5
4E3
100
AcDbEntity
  8
0
100
AcDbLine
 62
7
  6
CONTINUOUS
 10
17.177404309
 20
15.1599891031
 11
17.1623217008
 21
15.168696854
  0
LINE
  5
4E4
100
AcDbEntity
  8
SURFACE
100
AcDbLine
 62
7
  6
CONTINUOUS
 10
17.3773031472
 20
11.558186104
 11
17.36740344
 21
11.5524705395
  0
LINE
  5
4E5
100
AcDbEntity
  8
SURFACE
100
AcDbLine
 62
7
  6
CONTINUOUS
 10
17.4013444242
 20
11.5426721719
 11
17.4027595372
 21
11.5434891829
  0
LINE
  5
4E6
100
AcDbEntity
  8
SURFACE
100
AcDbLine
 62
7
  6
CONTINUOUS
 10
17.4649842995
 20
11.5467556248
 11
17.4310433153
 21
11.5271599054
  0
LINE
  5
4E7
100
AcDbEntity
  8
SURFACE
100
AcDbLine
 62
7
  6
CONTINUOUS
 10
19.9752029216
 20
12.9960223711
 11
20.0091439057
 21
13.0156180904
  0
LINE
  5
4E8
100
AcDbEntity
  8
SURFACE
100
AcDbLine
 62
7
  6
CONTINUOUS
 10
17.4649842995
 20
11.5402236055
 11
18.8809713694
 21
12.3577392416
  0
LINE
  5
4E9
100
AcDbEntity
  8
SURFACE
100
AcDbLine
 62
7
  6
CONTINUOUS
 10
19.0542012127
 20
12.4577529412
 11
19.9752029216
 21
12.9894903517
  0
LINE
  5
4EA
100
AcDbEntity
  8
0
100
AcDbLine
 62
7
  6
CONTINUOUS
 10
19.8776211324
 20
13.7031129179
 11
16.9360454701
 21
15.4013939982
  0
LINE
  5
4EB
100
AcDbEntity
  8
SURFACE
100
AcDbLine
 62
7
  6
CONTINUOUS
 10
16.9021040561
 20
15.4944743342
 11
19.9752029216
 21
13.7202600151
  0
LINE
  5
4EC
100
AcDbEntity
  8
SURFACE
100
AcDbLine
 62
7
  6
CONTINUOUS
 10
16.9360450403
 20
15.5140700536
 11
20.0091439057
 21
13.7398557344
  0
LINE
  5
4ED
100
AcDbEntity
  8
AXIS_COSMETIC_THREADS
100
AcDbLine
 62
7
  6
CONTINUOUS
 10
19.3014305385
 20
13.8572530378
 11
19.3014305385
 21
13.8296664984
  0
LINE
  5
4EE
100
AcDbEntity
  8
0
100
AcDbLine
 62
7
  6
CONTINUOUS
 10
19.3861816098
 20
13.9131495846
 11
19.3861816098
 21
13.8921287063
  0
LINE
  5
4EF
100
AcDbEntity
  8
0
100
AcDbLine
 62
7
  6
CONTINUOUS
 10
19.389717335
 20
13.8903771835
 11
19.389717335
 21
13.862893732
  0
LINE
  5
4F0
100
AcDbEntity
  8
0
100
AcDbLine
 62
7
  6
CONTINUOUS
 10
19.4109304502
 20
13.9026245081
 11
19.4109304502
 21
13.8781299608
  0
LINE
  5
4F1
100
AcDbEntity
  8
SURFACE
100
AcDbLine
 62
7
  6
CONTINUOUS
 10
17.4463442227
 20
11.4990228707
 11
18.9073326465
 21
12.3425198955
  0
LINE
  5
4F2
100
AcDbEntity
  8
SURFACE
100
AcDbLine
 62
7
  6
CONTINUOUS
 10
19.0805624897
 20
12.4425335951
 11
19.9565628448
 21
12.948289617
  0
LINE
  5
4F3
100
AcDbEntity
  8
0
100
AcDbLine
 62
7
  6
CONTINUOUS
 10
19.4321437419
 20
13.8903772854
 11
19.4321437419
 21
13.8628927609
  0
LINE
  5
4F4
100
AcDbEntity
  8
0
100
AcDbLine
 62
7
  6
CONTINUOUS
 10
19.4356790845
 20
13.9131497035
 11
19.4356790845
 21
13.8921285555
  0
LINE
  5
4F5
100
AcDbEntity
  8
AXIS_COSMETIC_THREADS
100
AcDbLine
 62
7
  6
CONTINUOUS
 10
19.5204305385
 20
13.8572530378
 11
19.5204305385
 21
13.8296664984
  0
LINE
  5
4F6
100
AcDbEntity
  8
SURFACE
100
AcDbLine
 62
7
  6
CONTINUOUS
 10
19.9752029216
 20
13.7202600151
 11
19.9752029216
 21
12.9960223711
  0
LINE
  5
4F7
100
AcDbEntity
  8
SURFACE
100
AcDbLine
 62
7
  6
CONTINUOUS
 10
19.9752029216
 20
12.9894903517
 11
19.9752029216
 21
12.9960223711
  0
LINE
  5
4F8
100
AcDbEntity
  8
SURFACE
100
AcDbLine
 62
7
  6
CONTINUOUS
 10
20.0091439057
 20
13.7398557344
 11
20.0091439057
 21
13.0156180904
  0
CIRCLE
  5
4F9
100
AcDbEntity
  8
0
100
AcDbCircle
 62
7
  6
CONTINUOUS
 10
15.2229827477
 20
1.1139932523
 40
0.252091
  0
CIRCLE
  5
4FA
100
AcDbEntity
  8
0
100
AcDbCircle
 62
7
  6
CONTINUOUS
 10
15.2229827477
 20
1.1139932523
 40
0.182698
  0
CIRCLE
  5
4FB
100
AcDbEntity
  8
0
100
AcDbCircle
 62
7
  6
CONTINUOUS
 10
14.8013422688
 20
1.8652439144
 40
0.0638444824
  0
ARC
  5
4FC
100
AcDbEntity
  8
SURFACE
100
AcDbCircle
 62
7
  6
CONTINUOUS
 10
2.8639656097
 20
7.9009908614
 40
0.09
100
AcDbArc
 50
180.0
 51
270.0
  0
ARC
  5
4FD
100
AcDbEntity
  8
SURFACE
100
AcDbCircle
 62
7
  6
CONTINUOUS
 10
2.8639656097
 20
7.9009908614
 40
0.042
100
AcDbArc
 50
180.0
 51
270.0
  0
ARC
  5
4FE
100
AcDbEntity
  8
0
100
AcDbCircle
 62
7
  6
CONTINUOUS
 10
3.3719656097
 20
8.5562471184
 40
0.25
100
AcDbArc
 50
73.6171668732
 51
78.4630409672
  0
ARC
  5
4FF
100
AcDbEntity
  8
0
100
AcDbCircle
 62
7
  6
CONTINUOUS
 10
3.3719656097
 20
8.5562471184
 40
0.25
100
AcDbArc
 50
101.5369590328
 51
106.3828331268
  0
ARC
  5
500
100
AcDbEntity
  8
AXIS_COSMETIC_THREADS
100
AcDbCircle
 62
7
  6
CONTINUOUS
 10
3.3719656097
 20
8.5562471184
 40
0.25
100
AcDbArc
 50
73.5511241987
 51
78.4630409672
  0
ARC
  5
501
100
AcDbEntity
  8
AXIS_COSMETIC_THREADS
100
AcDbCircle
 62
7
  6
CONTINUOUS
 10
3.3719656097
 20
8.5562471184
 40
0.25
100
AcDbArc
 50
101.5369590328
 51
106.4488758013
  0
ARC
  5
502
100
AcDbEntity
  8
0
100
AcDbCircle
 62
7
  6
CONTINUOUS
 10
3.3719656097
 20
8.5562471184
 40
0.2495495943
100
AcDbArc
 50
93.4460286884
 51
101.5580686517
  0
ARC
  5
503
100
AcDbEntity
  8
0
100
AcDbCircle
 62
7
  6
CONTINUOUS
 10
3.3719656097
 20
8.5562471184
 40
0.2495495943
100
AcDbArc
 50
78.4419313483
 51
86.5539713116
  0
ARC
  5
504
100
AcDbEntity
  8
0
100
AcDbCircle
 62
7
  6
CONTINUOUS
 10
3.3719656097
 20
8.5562471184
 40
0.2449489743
100
AcDbArc
 50
86.4891677884
 51
93.5108322116
  0
ARC
  5
505
100
AcDbEntity
  8
SURFACE
100
AcDbCircle
 62
7
  6
CONTINUOUS
 10
7.0299656097
 20
7.9009908614
 40
0.09
100
AcDbArc
 50
270.0
 51
360.0
  0
ARC
  5
506
100
AcDbEntity
  8
AXIS_COSMETIC_THREADS
100
AcDbCircle
 62
7
  6
CONTINUOUS
 10
7.1289656097
 20
8.1109908614
 40
0.06
100
AcDbArc
 50
270.0
 51
360.0
  0
ARC
  5
507
100
AcDbEntity
  8
SURFACE
100
AcDbCircle
 62
7
  6
CONTINUOUS
 10
7.0299656097
 20
7.9009908614
 40
0.042
100
AcDbArc
 50
270.0
 51
360.0
  0
ARC
  5
508
100
AcDbEntity
  8
0
100
AcDbCircle
 62
7
  6
CONTINUOUS
 10
6.5219656097
 20
8.5562471184
 40
0.25
100
AcDbArc
 50
73.6171668732
 51
78.4630409672
  0
ARC
  5
509
100
AcDbEntity
  8
0
100
AcDbCircle
 62
7
  6
CONTINUOUS
 10
6.5219656097
 20
8.5562471184
 40
0.25
100
AcDbArc
 50
101.5369590328
 51
106.3828331268
  0
ARC
  5
50A
100
AcDbEntity
  8
AXIS_COSMETIC_THREADS
100
AcDbCircle
 62
7
  6
CONTINUOUS
 10
6.5219656097
 20
8.5562471184
 40
0.25
100
AcDbArc
 50
73.5511241987
 51
78.4630409672
  0
ARC
  5
50B
100
AcDbEntity
  8
AXIS_COSMETIC_THREADS
100
AcDbCircle
 62
7
  6
CONTINUOUS
 10
6.5219656097
 20
8.5562471184
 40
0.25
100
AcDbArc
 50
101.5369590328
 51
106.4488758013
  0
ARC
  5
50C
100
AcDbEntity
  8
0
100
AcDbCircle
 62
7
  6
CONTINUOUS
 10
6.5219656097
 20
8.5562471184
 40
0.2495495943
100
AcDbArc
 50
93.4460286884
 51
101.5580686517
  0
ARC
  5
50D
100
AcDbEntity
  8
0
100
AcDbCircle
 62
7
  6
CONTINUOUS
 10
6.5219656097
 20
8.5562471184
 40
0.2495495943
100
AcDbArc
 50
78.4419313483
 51
86.5539713116
  0
ARC
  5
50E
100
AcDbEntity
  8
0
100
AcDbCircle
 62
7
  6
CONTINUOUS
 10
6.5219656097
 20
8.5562471184
 40
0.2449489743
100
AcDbArc
 50
86.4891677884
 51
93.5108322116
  0
ARC
  5
50F
100
AcDbEntity
  8
AXIS_COSMETIC_THREADS
100
AcDbCircle
 62
7
  6
CONTINUOUS
 10
7.1289656097
 20
8.3909908614
 40
0.06
100
AcDbArc
 50
0.0
 51
90.0
  0
CIRCLE
  5
510
100
AcDbEntity
  8
0
100
AcDbCircle
 62
7
  6
CONTINUOUS
 10
3.3719656097
 20
13.7310444246
 40
0.1095
  0
CIRCLE
  5
511
100
AcDbEntity
  8
0
100
AcDbCircle
 62
7
  6
CONTINUOUS
 10
3.3719656097
 20
10.5810444246
 40
0.1095
  0
CIRCLE
  5
512
100
AcDbEntity
  8
0
100
AcDbCircle
 62
7
  6
CONTINUOUS
 10
6.5219656097
 20
13.7310444246
 40
0.1095
  0
CIRCLE
  5
513
100
AcDbEntity
  8
0
100
AcDbCircle
 62
7
  6
CONTINUOUS
 10
6.5219656097
 20
10.5810444246
 40
0.1095
  0
CIRCLE
  5
514
100
AcDbEntity
  8
0
100
AcDbCircle
 62
7
  6
CONTINUOUS
 10
3.3719656097
 20
13.7310444246
 40
0.0938888887
  0
CIRCLE
  5
515
100
AcDbEntity
  8
0
100
AcDbCircle
 62
7
  6
CONTINUOUS
 10
3.3719656097
 20
10.5810444246
 40
0.0938888887
  0
CIRCLE
  5
516
100
AcDbEntity
  8
0
100
AcDbCircle
 62
7
  6
CONTINUOUS
 10
6.5219656097
 20
13.7310444246
 40
0.0938888887
  0
CIRCLE
  5
517
100
AcDbEntity
  8
0
100
AcDbCircle
 62
7
  6
CONTINUOUS
 10
6.5219656097
 20
10.5810444246
 40
0.0938888887
  0
ARC
  5
518
100
AcDbEntity
  8
AXIS_COSMETIC_THREADS
100
AcDbCircle
 62
7
  6
CONTINUOUS
 10
7.1289656097
 20
12.0160444246
 40
0.06
100
AcDbArc
 50
270.0
 51
360.0
  0
ARC
  5
519
100
AcDbEntity
  8
AXIS_COSMETIC_THREADS
100
AcDbCircle
 62
7
  6
CONTINUOUS
 10
7.1289656097
 20
12.2960444246
 40
0.06
100
AcDbArc
 50
0.0
 51
90.0
  0
CIRCLE
  5
51A
100
AcDbEntity
  8
AXIS_COSMETIC_THREADS
100
AcDbCircle
 62
7
  6
CONTINUOUS
 10
3.0969656097
 20
3.2821548626
 40
0.16
  0
CIRCLE
  5
51B
100
AcDbEntity
  8
AXIS_COSMETIC_THREADS
100
AcDbCircle
 62
7
  6
CONTINUOUS
 10
3.0969656097
 20
3.2821548626
 40
0.156496063
  0
CIRCLE
  5
51C
100
AcDbEntity
  8
AXIS_COSMETIC_THREADS
100
AcDbCircle
 62
7
  6
CONTINUOUS
 10
3.0969656097
 20
3.2821548626
 40
0.1059055118
  0
CIRCLE
  5
51D
100
AcDbEntity
  8
DEFAULT_2
100
AcDbCircle
 62
7
  6
HIDDEN
 10
3.0969656097
 20
3.2821548626
 40
0.0787401575
  0
CIRCLE
  5
51E
100
AcDbEntity
  8
0
100
AcDbCircle
 62
7
  6
CONTINUOUS
 10
3.3719656097
 20
2.9071548626
 40
0.0754999999
  0
CIRCLE
  5
51F
100
AcDbEntity
  8
0
100
AcDbCircle
 62
7
  6
CONTINUOUS
 10
3.3719656097
 20
2.9071548626
 40
0.065
  0
CIRCLE
  5
520
100
AcDbEntity
  8
AXIS_COSMETIC_THREADS
100
AcDbCircle
 62
7
  6
CONTINUOUS
 10
3.0969656097
 20
3.2821548626
 40
0.0590551181
  0
CIRCLE
  5
521
100
AcDbEntity
  8
AXIS_COSMETIC_THREADS
100
AcDbCircle
 62
7
  6
CONTINUOUS
 10
3.0969656097
 20
5.6821548626
 40
0.16
  0
CIRCLE
  5
522
100
AcDbEntity
  8
AXIS_COSMETIC_THREADS
100
AcDbCircle
 62
7
  6
CONTINUOUS
 10
3.0969656097
 20
5.6821548626
 40
0.156496063
  0
CIRCLE
  5
523
100
AcDbEntity
  8
AXIS_COSMETIC_THREADS
100
AcDbCircle
 62
7
  6
CONTINUOUS
 10
3.0969656097
 20
5.6821548626
 40
0.1059055118
  0
CIRCLE
  5
524
100
AcDbEntity
  8
DEFAULT_2
100
AcDbCircle
 62
7
  6
HIDDEN
 10
3.0969656097
 20
5.6821548626
 40
0.0787401575
  0
CIRCLE
  5
525
100
AcDbEntity
  8
0
100
AcDbCircle
 62
7
  6
CONTINUOUS
 10
3.3719656097
 20
6.0571548626
 40
0.0754999999
  0
CIRCLE
  5
526
100
AcDbEntity
  8
0
100
AcDbCircle
 62
7
  6
CONTINUOUS
 10
3.3719656097
 20
6.0571548626
 40
0.065
  0
CIRCLE
  5
527
100
AcDbEntity
  8
AXIS_COSMETIC_THREADS
100
AcDbCircle
 62
7
  6
CONTINUOUS
 10
3.0969656097
 20
5.6821548626
 40
0.0590551181
  0
CIRCLE
  5
528
100
AcDbEntity
  8
AXIS_COSMETIC_THREADS
100
AcDbCircle
 62
7
  6
CONTINUOUS
 10
6.7969656097
 20
3.2821548626
 40
0.16
  0
CIRCLE
  5
529
100
AcDbEntity
  8
AXIS_COSMETIC_THREADS
100
AcDbCircle
 62
7
  6
CONTINUOUS
 10
6.7969656097
 20
3.2821548626
 40
0.156496063
  0
CIRCLE
  5
52A
100
AcDbEntity
  8
AXIS_COSMETIC_THREADS
100
AcDbCircle
 62
7
  6
CONTINUOUS
 10
6.7969656097
 20
3.2821548626
 40
0.1059055118
  0
CIRCLE
  5
52B
100
AcDbEntity
  8
DEFAULT_2
100
AcDbCircle
 62
7
  6
HIDDEN
 10
6.7969656097
 20
3.2821548626
 40
0.0787401575
  0
CIRCLE
  5
52C
100
AcDbEntity
  8
0
100
AcDbCircle
 62
7
  6
CONTINUOUS
 10
6.5219656097
 20
2.9071548626
 40
0.0754999999
  0
CIRCLE
  5
52D
100
AcDbEntity
  8
0
100
AcDbCircle
 62
7
  6
CONTINUOUS
 10
6.5219656097
 20
2.9071548626
 40
0.065
  0
ARC
  5
52E
100
AcDbEntity
  8
AXIS_COSMETIC_THREADS
100
AcDbCircle
 62
7
  6
CONTINUOUS
 10
7.1289656097
 20
4.3421548626
 40
0.06
100
AcDbArc
 50
270.0
 51
360.0
  0
CIRCLE
  5
52F
100
AcDbEntity
  8
AXIS_COSMETIC_THREADS
100
AcDbCircle
 62
7
  6
CONTINUOUS
 10
6.7969656097
 20
3.2821548626
 40
0.0590551181
  0
CIRCLE
  5
530
100
AcDbEntity
  8
AXIS_COSMETIC_THREADS
100
AcDbCircle
 62
7
  6
CONTINUOUS
 10
6.7969656097
 20
5.6821548626
 40
0.16
  0
CIRCLE
  5
531
100
AcDbEntity
  8
AXIS_COSMETIC_THREADS
100
AcDbCircle
 62
7
  6
CONTINUOUS
 10
6.7969656097
 20
5.6821548626
 40
0.156496063
  0
CIRCLE
  5
532
100
AcDbEntity
  8
AXIS_COSMETIC_THREADS
100
AcDbCircle
 62
7
  6
CONTINUOUS
 10
6.7969656097
 20
5.6821548626
 40
0.1059055118
  0
CIRCLE
  5
533
100
AcDbEntity
  8
DEFAULT_2
100
AcDbCircle
 62
7
  6
HIDDEN
 10
6.7969656097
 20
5.6821548626
 40
0.0787401575
  0
CIRCLE
  5
534
100
AcDbEntity
  8
0
100
AcDbCircle
 62
7
  6
CONTINUOUS
 10
6.5219656097
 20
6.0571548626
 40
0.0754999999
  0
CIRCLE
  5
535
100
AcDbEntity
  8
0
100
AcDbCircle
 62
7
  6
CONTINUOUS
 10
6.5219656097
 20
6.0571548626
 40
0.065
  0
ARC
  5
536
100
AcDbEntity
  8
AXIS_COSMETIC_THREADS
100
AcDbCircle
 62
7
  6
CONTINUOUS
 10
7.1289656097
 20
4.6221548626
 40
0.06
100
AcDbArc
 50
0.0
 51
90.0
  0
CIRCLE
  5
537
100
AcDbEntity
  8
AXIS_COSMETIC_THREADS
100
AcDbCircle
 62
7
  6
CONTINUOUS
 10
6.7969656097
 20
5.6821548626
 40
0.0590551181
  0
ARC
  5
538
100
AcDbEntity
  8
SURFACE
100
AcDbCircle
 62
7
  6
CONTINUOUS
 10
13.8884863638
 20
7.8949908614
 40
0.084
100
AcDbArc
 50
180.0
 51
244.5539800808
  0
ARC
  5
539
100
AcDbEntity
  8
AXIS_COSMETIC_THREADS
100
AcDbCircle
 62
7
  6
CONTINUOUS
 10
14.0524863638
 20
8.5562471184
 40
0.25
100
AcDbArc
 50
101.5369590328
 51
106.4488758014
  0
ARC
  5
53A
100
AcDbEntity
  8
AXIS_COSMETIC_THREADS
100
AcDbCircle
 62
7
  6
CONTINUOUS
 10
14.0524863638
 20
8.5562471184
 40
0.25
100
AcDbArc
 50
73.5511241986
 51
78.4630409672
  0
ARC
  5
53B
100
AcDbEntity
  8
0
100
AcDbCircle
 62
7
  6
CONTINUOUS
 10
14.0524863638
 20
8.5562471184
 40
0.2495495943
100
AcDbArc
 50
93.4460286884
 51
101.5580686517
  0
ARC
  5
53C
100
AcDbEntity
  8
0
100
AcDbCircle
 62
7
  6
CONTINUOUS
 10
14.0524863638
 20
8.5562471184
 40
0.2495495943
100
AcDbArc
 50
78.4419313483
 51
86.5539713116
  0
ARC
  5
53D
100
AcDbEntity
  8
0
100
AcDbCircle
 62
7
  6
CONTINUOUS
 10
14.0524863638
 20
8.5562471184
 40
0.2449489743
100
AcDbArc
 50
86.4891677884
 51
93.5108322116
  0
ARC
  5
53E
100
AcDbEntity
  8
SURFACE
100
AcDbCircle
 62
7
  6
CONTINUOUS
 10
17.3664863638
 20
7.8949908614
 40
0.084
100
AcDbArc
 50
295.4460199192
 51
360.0
  0
ARC
  5
53F
100
AcDbEntity
  8
AXIS_COSMETIC_THREADS
100
AcDbCircle
 62
7
  6
CONTINUOUS
 10
17.2024863638
 20
8.5562471184
 40
0.25
100
AcDbArc
 50
101.5369590328
 51
106.4488758014
  0
ARC
  5
540
100
AcDbEntity
  8
AXIS_COSMETIC_THREADS
100
AcDbCircle
 62
7
  6
CONTINUOUS
 10
17.2024863638
 20
8.5562471184
 40
0.25
100
AcDbArc
 50
73.5511241986
 51
78.4630409672
  0
ARC
  5
541
100
AcDbEntity
  8
0
100
AcDbCircle
 62
7
  6
CONTINUOUS
 10
17.2024863638
 20
8.5562471184
 40
0.2495495943
100
AcDbArc
 50
93.4460286884
 51
101.5580686517
  0
ARC
  5
542
100
AcDbEntity
  8
0
100
AcDbCircle
 62
7
  6
CONTINUOUS
 10
17.2024863638
 20
8.5562471184
 40
0.2495495943
100
AcDbArc
 50
78.4419313483
 51
86.5539713116
  0
ARC
  5
543
100
AcDbEntity
  8
0
100
AcDbCircle
 62
7
  6
CONTINUOUS
 10
17.2024863638
 20
8.5562471184
 40
0.2449489743
100
AcDbArc
 50
86.4891677884
 51
93.5108322116
  0
CIRCLE
  5
544
100
AcDbEntity
  8
AXIS_COSMETIC_THREADS
100
AcDbCircle
 62
7
  6
CONTINUOUS
 10
15.6274863638
 20
8.2509908614
 40
0.2
  0
CIRCLE
  5
545
100
AcDbEntity
  8
AXIS_COSMETIC_THREADS
100
AcDbCircle
 62
7
  6
CONTINUOUS
 10
15.6274863638
 20
8.2509908614
 40
0.14
  0
CIRCLE
  5
546
100
AcDbEntity
  8
AXIS_COSMETIC_THREADS
100
AcDbCircle
 62
7
  6
CONTINUOUS
 10
15.6274863638
 20
8.2509908614
 40
0.09
  0
CIRCLE
  5
547
100
AcDbEntity
  8
02___PRT_ALL_AXES
100
AcDbCircle
 62
7
  6
CONTINUOUS
 10
15.6274863638
 20
8.2509908614
 40
0.0866141732
  0
ARC
  5
548
100
AcDbEntity
  8
0
100
AcDbCircle
 62
7
  6
CONTINUOUS
 10
17.0159413112
 20
12.3376502001
 40
0.3048205899
100
AcDbArc
 50
50.8713899865
 51
51.7223304925
  0
ARC
  5
549
100
AcDbEntity
  8
0
100
AcDbCircle
 62
7
  6
CONTINUOUS
 10
14.7885456771
 20
13.623608577
 40
0.3048205898
100
AcDbArc
 50
50.8713899863
 51
51.7223304927
  0
ARC
  5
54A
100
AcDbEntity
  8
0
100
AcDbCircle
 62
7
  6
CONTINUOUS
 10
15.1230205567
 20
13.624547628
 40
0.3036188858
100
AcDbArc
 50
128.2764231777
 51
129.1306943913
  0
ARC
  5
54B
100
AcDbEntity
  8
0
100
AcDbCircle
 62
7
  6
CONTINUOUS
 10
14.8045647611
 20
13.6444241664
 40
0.2785567713
100
AcDbArc
 50
51.6566273324
 51
57.0293635997
  0
ARC
  5
54C
100
AcDbEntity
  8
0
100
AcDbCircle
 62
7
  6
CONTINUOUS
 10
17.0319603953
 20
12.3584657896
 40
0.2785567713
100
AcDbArc
 50
51.6566273324
 51
57.0293635996
  0
ARC
  5
54D
100
AcDbEntity
  8
0
100
AcDbCircle
 62
7
  6
CONTINUOUS
 10
15.1077526459
 20
13.6444254057
 40
0.2785566003
100
AcDbArc
 50
122.9710505762
 51
128.3438109752
  0
ARC
  5
54E
100
AcDbEntity
  8
0
100
AcDbCircle
 62
7
  6
CONTINUOUS
 10
15.0426163908
 20
13.6966824055
 40
0.2433856928
100
AcDbArc
 50
120.0329549385
 51
122.9616284187
  0
ARC
  5
54F
100
AcDbEntity
  8
0
100
AcDbCircle
 62
7
  6
CONTINUOUS
 10
15.1114549365
 20
13.6589141772
 40
0.2398030024
100
AcDbArc
 50
120.0110726703
 51
122.9835106869
  0
ARC
  5
550
100
AcDbEntity
  8
0
100
AcDbCircle
 62
7
  6
CONTINUOUS
 10
15.0319060915
 20
13.7150457093
 40
0.2221274201
100
AcDbArc
 50
116.8997247521
 51
120.0119295791
  0
ARC
  5
551
100
AcDbEntity
  8
0
100
AcDbCircle
 62
7
  6
CONTINUOUS
 10
15.1009602494
 20
13.6772787249
 40
0.2186515343
100
AcDbArc
 50
116.8749812871
 51
120.0366730441
  0
ARC
  5
552
100
AcDbEntity
  8
SURFACE
100
AcDbCircle
 62
7
  6
CONTINUOUS
 10
14.5449573009
 20
13.3293296118
 40
0.1552291233
100
AcDbArc
 50
207.4577127252
 51
211.855825156
  0
ARC
  5
553
100
AcDbEntity
  8
0
100
AcDbCircle
 62
7
  6
CONTINUOUS
 10
17.0159227642
 20
14.9095776616
 40
0.3048205898
100
AcDbArc
 50
50.8713899864
 51
51.7223304926
  0
ARC
  5
554
100
AcDbEntity
  8
0
100
AcDbCircle
 62
7
  6
CONTINUOUS
 10
17.0319418483
 20
14.9303932511
 40
0.2785567713
100
AcDbArc
 50
51.6566273324
 51
57.0293635996
  0
ARC
  5
555
100
AcDbEntity
  8
0
100
AcDbCircle
 62
7
  6
CONTINUOUS
 10
14.960317614
 20
13.9564907963
 40
0.162109987
100
AcDbArc
 50
281.9884215312
 51
285.7750945159
  0
ARC
  5
556
100
AcDbEntity
  8
0
100
AcDbCircle
 62
7
  6
CONTINUOUS
 10
14.9631417793
 20
13.9461433591
 40
0.1513845198
100
AcDbArc
 50
285.8111551743
 51
287.5699805522
  0
ARC
  5
557
100
AcDbEntity
  8
0
100
AcDbCircle
 62
7
  6
CONTINUOUS
 10
19.2433183985
 20
13.6236192848
 40
0.3048205898
100
AcDbArc
 50
50.8713899865
 51
51.7223304927
  0
ARC
  5
558
100
AcDbEntity
  8
0
100
AcDbCircle
 62
7
  6
CONTINUOUS
 10
19.5777932781
 20
13.624558336
 40
0.3036188857
100
AcDbArc
 50
128.2764231776
 51
129.1306943914
  0
ARC
  5
559
100
AcDbEntity
  8
0
100
AcDbCircle
 62
7
  6
CONTINUOUS
 10
17.3504161909
 20
12.3385892513
 40
0.3036188858
100
AcDbArc
 50
128.2764231777
 51
129.1306943913
  0
ARC
  5
55A
100
AcDbEntity
  8
AXIS_COSMETIC_THREADS
100
AcDbCircle
 62
7
  6
CONTINUOUS
 10
18.872439979
 20
12.4749777517
 40
0.2841841962
100
AcDbArc
 50
134.4863487353
 51
134.7854994154
  0
ARC
  5
55B
100
AcDbEntity
  8
0
100
AcDbCircle
 62
7
  6
CONTINUOUS
 10
19.2593374825
 20
13.6444348743
 40
0.2785567713
100
AcDbArc
 50
51.6566273324
 51
57.0293635997
  0
ARC
  5
55C
100
AcDbEntity
  8
0
100
AcDbCircle
 62
7
  6
CONTINUOUS
 10
19.5625253674
 20
13.6444361136
 40
0.2785566003
100
AcDbArc
 50
122.9710505761
 51
128.3438109752
  0
ARC
  5
55D
100
AcDbEntity
  8
0
100
AcDbCircle
 62
7
  6
CONTINUOUS
 10
17.3351482801
 20
12.3584670289
 40
0.2785566003
100
AcDbArc
 50
122.9710505762
 51
128.3438109753
  0
ARC
  5
55E
100
AcDbEntity
  8
0
100
AcDbCircle
 62
7
  6
CONTINUOUS
 10
19.4973891123
 20
13.6966931135
 40
0.2433856928
100
AcDbArc
 50
120.0329549385
 51
122.9616284187
  0
ARC
  5
55F
100
AcDbEntity
  8
0
100
AcDbCircle
 62
7
  6
CONTINUOUS
 10
17.270012025
 20
12.4107240288
 40
0.2433856928
100
AcDbArc
 50
120.0329549385
 51
122.9616284187
  0
ARC
  5
560
100
AcDbEntity
  8
0
100
AcDbCircle
 62
7
  6
CONTINUOUS
 10
19.5662276579
 20
13.6589248852
 40
0.2398030024
100
AcDbArc
 50
120.0110726703
 51
122.9835106869
  0
ARC
  5
561
100
AcDbEntity
  8
0
100
AcDbCircle
 62
7
  6
CONTINUOUS
 10
17.3388505707
 20
12.3729558005
 40
0.2398030023
100
AcDbArc
 50
120.0110726703
 51
122.9835106869
  0
ARC
  5
562
100
AcDbEntity
  8
0
100
AcDbCircle
 62
7
  6
CONTINUOUS
 10
19.4866788129
 20
13.7150564173
 40
0.2221274201
100
AcDbArc
 50
116.899724752
 51
120.0119295792
  0
ARC
  5
563
100
AcDbEntity
  8
0
100
AcDbCircle
 62
7
  6
CONTINUOUS
 10
17.2593017257
 20
12.4290873325
 40
0.2221274201
100
AcDbArc
 50
116.8997247521
 51
120.0119295791
  0
ARC
  5
564
100
AcDbEntity
  8
0
100
AcDbCircle
 62
7
  6
CONTINUOUS
 10
19.5557329708
 20
13.6772894329
 40
0.2186515342
100
AcDbArc
 50
116.874981287
 51
120.0366730442
  0
ARC
  5
565
100
AcDbEntity
  8
0
100
AcDbCircle
 62
7
  6
CONTINUOUS
 10
17.3283558836
 20
12.3913203482
 40
0.2186515343
100
AcDbArc
 50
116.8749812871
 51
120.0366730441
  0
ARC
  5
566
100
AcDbEntity
  8
0
100
AcDbCircle
 62
7
  6
CONTINUOUS
 10
17.1877132482
 20
12.6705324196
 40
0.162109987
100
AcDbArc
 50
281.9884215312
 51
285.7750945158
  0
ARC
  5
567
100
AcDbEntity
  8
0
100
AcDbCircle
 62
7
  6
CONTINUOUS
 10
17.1905374135
 20
12.6601849823
 40
0.1513845198
100
AcDbArc
 50
285.8111551743
 51
287.5699805523
  0
ARC
  5
568
100
AcDbEntity
  8
AXIS_COSMETIC_THREADS
100
AcDbCircle
 62
7
  6
CONTINUOUS
 10
18.6599681011
 20
12.4317713362
 40
0.0670000653
100
AcDbArc
 50
233.7221522183
 51
239.9913558992
  0
ARC
  5
569
100
AcDbEntity
  8
AXIS_COSMETIC_THREADS
100
AcDbCircle
 62
7
  6
CONTINUOUS
 10
18.7930263593
 20
12.662254064
 40
0.0668668285
100
AcDbArc
 50
60.0038511215
 51
66.2436620955
  0
ARC
  5
56A
100
AcDbEntity
  8
0
100
AcDbCircle
 62
7
  6
CONTINUOUS
 10
17.3503976439
 20
14.9105167127
 40
0.3036188858
100
AcDbArc
 50
128.2764231777
 51
129.1306943913
  0
ARC
  5
56B
100
AcDbEntity
  8
0
100
AcDbCircle
 62
7
  6
CONTINUOUS
 10
17.3351297332
 20
14.9303944903
 40
0.2785566003
100
AcDbArc
 50
122.9710505762
 51
128.3438109752
  0
ARC
  5
56C
100
AcDbEntity
  8
0
100
AcDbCircle
 62
7
  6
CONTINUOUS
 10
17.269993478
 20
14.9826514902
 40
0.2433856928
100
AcDbArc
 50
120.0329549385
 51
122.9616284187
  0
ARC
  5
56D
100
AcDbEntity
  8
0
100
AcDbCircle
 62
7
  6
CONTINUOUS
 10
17.3388320237
 20
14.9448832619
 40
0.2398030024
100
AcDbArc
 50
120.0110726703
 51
122.9835106869
  0
ARC
  5
56E
100
AcDbEntity
  8
0
100
AcDbCircle
 62
7
  6
CONTINUOUS
 10
17.2592831787
 20
15.001014794
 40
0.2221274201
100
AcDbArc
 50
116.8997247521
 51
120.0119295791
  0
ARC
  5
56F
100
AcDbEntity
  8
0
100
AcDbCircle
 62
7
  6
CONTINUOUS
 10
17.3283373366
 20
14.9632478096
 40
0.2186515343
100
AcDbArc
 50
116.8749812871
 51
120.0366730441
  0
ARC
  5
570
100
AcDbEntity
  8
0
100
AcDbCircle
 62
7
  6
CONTINUOUS
 10
17.1876947012
 20
15.242459881
 40
0.162109987
100
AcDbArc
 50
281.9884215313
 51
285.7750945158
  0
ARC
  5
571
100
AcDbEntity
  8
0
100
AcDbCircle
 62
7
  6
CONTINUOUS
 10
19.4150903354
 20
13.9565015043
 40
0.162109987
100
AcDbArc
 50
281.9884215313
 51
285.7750945158
  0
ARC
  5
572
100
AcDbEntity
  8
0
100
AcDbCircle
 62
7
  6
CONTINUOUS
 10
17.1905188665
 20
15.2321124438
 40
0.1513845198
100
AcDbArc
 50
285.8111551743
 51
287.5699805522
  0
ARC
  5
573
100
AcDbEntity
  8
0
100
AcDbCircle
 62
7
  6
CONTINUOUS
 10
19.4179145007
 20
13.946154067
 40
0.1513845198
100
AcDbArc
 50
285.8111551741
 51
287.5699805524
  0
SPLINE
  5
574
100
AcDbEntity
  8
AXIS_COSMETIC_THREADS
100
AcDbSpline
 62
7
  6
CONTINUOUS
 70
0
 71
3
 72
11
 73
7
 74
0
 42
0.0000001
 43
0.0000001
 44
0.0000000001
 40
0.0
 40
0.0
 40
0.0
 40
0.0
 40
0.2375217529
 40
0.4838414541
 40
0.7382320154
 40
1.0
 40
1.0
 40
1.0
 40
1.0
 10
17.2609634192
 20
15.0709225125
 30
0.0
 10
17.2588899116
 20
15.0697253795
 30
0.0
 10
17.2545802315
 20
15.0674330384
 30
0.0
 10
17.2477990731
 20
15.064357728
 30
0.0
 10
17.2406204748
 20
15.0616000535
 30
0.0
 10
17.2356647014
 20
15.0600056022
 30
0.0
 10
17.2331326941
 20
15.0592629074
 30
0.0
  0
SPLINE
  5
575
100
AcDbEntity
  8
AXIS_COSMETIC_THREADS
100
AcDbSpline
 62
7
  6
CONTINUOUS
 70
0
 71
3
 72
18
 73
14
 74
0
 42
0.0000001
 43
0.0000001
 44
0.0000000001
 40
0.0
 40
0.0
 40
0.0
 40
0.0
 40
0.1209996681
 40
0.2453789316
 40
0.3720693073
 40
0.4999337377
 40
0.6278029021
 40
0.6913822494
 40
0.7545261541
 40
0.8170937297
 40
0.8789485862
 40
0.9399588348
 40
1.0
 40
1.0
 40
1.0
 40
1.0
 10
17.2331326941
 20
15.0592629074
 30
0.0
 10
17.2292483533
 20
15.0581235426
 30
0.0
 10
17.2212764173
 20
15.056125847
 30
0.0
 10
17.2090033005
 20
15.0539911856
 30
0.0
 10
17.1963820986
 20
15.052697065
 30
0.0
 10
17.1835862029
 20
15.0522614686
 30
0.0
 10
17.1729007356
 20
15.0526193863
 30
0.0
 10
17.164412655
 20
15.0533405905
 30
0.0
 10
17.158123695
 20
15.0540944978
 30
0.0
 10
17.1519221604
 20
15.0550600322
 30
0.0
 10
17.1458291766
 20
15.0562335258
 30
0.0
 10
17.1398658872
 20
15.0576113493
 30
0.0
 10
17.1359562715
 20
15.0586719255
 30
0.0
 10
17.1340284699
 20
15.0592360756
 30
0.0
  0
SPLINE
  5
576
100
AcDbEntity
  8
AXIS_COSMETIC_THREADS
100
AcDbSpline
 62
7
  6
CONTINUOUS
 70
0
 71
3
 72
23
 73
19
 74
0
 42
0.0000001
 43
0.0000001
 44
0.0000000001
 40
0.0
 40
0.0
 40
0.0
 40
0.0
 40
0.0787897829
 40
0.1556745202
 40
0.2304768769
 40
0.3030471871
 40
0.3732645526
 40
0.4410431463
 40
0.5063363223
 40
0.5691410164
 40
0.6295052629
 40
0.6875301981
 40
0.7433790021
 40
0.7972758035
 40
0.8495108319
 40
0.900433972
 40
0.950449235
 40
1.0
 40
1.0
 40
1.0
 40
1.0
 10
17.1340284699
 20
15.0592360756
 30
0.0
 10
17.1318119508
 20
15.0598847156
 30
0.0
 10
17.1274609068
 20
15.061266192
 30
0.0
 10
17.1211251642
 20
15.0636185325
 30
0.0
 10
17.1150838881
 20
15.0662170368
 30
0.0
 10
17.1093655554
 20
15.0690491215
 30
0.0
 10
17.1039971393
 20
15.0721018797
 30
0.0
 10
17.0990038504
 20
15.0753610003
 30
0.0
 10
17.0944091918
 20
15.0788114325
 30
0.0
 10
17.0902349813
 20
15.0824374633
 30
0.0
 10
17.0865008267
 20
15.0862222422
 30
0.0
 10
17.083225032
 20
15.0901488737
 30
0.0
 10
17.0804231684
 20
15.0941990298
 30
0.0
 10
17.0781099189
 20
15.0983545339
 30
0.0
 10
17.0762968123
 20
15.1025955921
 30
0.0
 10
17.0749943986
 20
15.1069024581
 30
0.0
 10
17.0742096969
 20
15.1112529817
 30
0.0
 10
17.074034906
 20
15.1141744101
 30
0.0
 10
17.0740349448
 20
15.1156268373
 30
0.0
  0
SPLINE
  5
577
100
AcDbEntity
  8
0
100
AcDbSpline
 62
7
  6
CONTINUOUS
 70
0
 71
3
 72
9
 73
5
 74
0
 42
0.0000001
 43
0.0000001
 44
0.0000000001
 40
0.0
 40
0.0
 40
0.0
 40
0.0
 40
0.5098067771
 40
1.0
 40
1.0
 40
1.0
 40
1.0
 10
17.1623217008
 20
15.1763355602
 30
0.0
 10
17.1582442321
 20
15.1784061159
 30
0.0
 10
17.1501138387
 20
15.182213406
 30
0.0
 10
17.1417344309
 20
15.1854407461
 30
0.0
 10
17.1375728605
 20
15.1868606367
 30
0.0
  0
SPLINE
  5
578
100
AcDbEntity
  8
0
100
AcDbSpline
 62
7
  6
CONTINUOUS
 70
0
 71
3
 72
9
 73
5
 74
0
 42
0.0000001
 43
0.0000001
 44
0.0000000001
 40
0.0
 40
0.0
 40
0.0
 40
0.0
 40
0.5076563864
 40
1.0
 40
1.0
 40
1.0
 40
1.0
 10
17.1587863583
 20
15.1460364423
 30
0.0
 10
17.1553069039
 20
15.1482917587
 30
0.0
 10
17.1483423531
 20
15.1525664825
 30
0.0
 10
17.1411605309
 20
15.156466638
 30
0.0
 10
17.1375730665
 20
15.1582836649
 30
0.0
  0
SPLINE
  5
579
100
AcDbEntity
  8
AXIS_COSMETIC_THREADS
100
AcDbSpline
 62
7
  6
CONTINUOUS
 70
0
 71
3
 72
20
 73
16
 74
0
 42
0.0000001
 43
0.0000001
 44
0.0000000001
 40
0.0
 40
0.0
 40
0.0
 40
0.0
 40
0.0752254456
 40
0.1485782107
 40
0.2894346172
 40
0.4226023805
 40
0.4864447708
 40
0.5485391903
 40
0.6678535922
 40
0.7254313551
 40
0.7818315355
 40
0.8372570493
 40
0.8919311993
 40
0.9460949153
 40
1.0
 40
1.0
 40
1.0
 40
1.0
 10
17.2609634192
 20
15.0709225125
 30
0.0
 10
17.2622141405
 20
15.0716446125
 30
0.0
 10
17.264654906
 20
15.0731230232
 30
0.0
 10
17.2692757846
 20
15.0762116511
 30
0.0
 10
17.2745584817
 20
15.0803006548
 30
0.0
 10
17.2792547842
 20
15.0847960154
 30
0.0
 10
17.2825289884
 20
15.0885449186
 30
0.0
 10
17.2854011769
 20
15.0922784942
 30
0.0
 10
17.2878411728
 20
15.0961848483
 30
0.0
 10
17.2897818628
 20
15.1002252348
 30
0.0
 10
17.2909644086
 20
15.1032585407
 30
0.0
 10
17.2918875854
 20
15.1063224123
 30
0.0
 10
17.2925486451
 20
15.1094096711
 30
0.0
 10
17.2929462919
 20
15.1125122027
 30
0.0
 10
17.2930348361
 20
15.1145880228
 30
0.0
 10
17.2930348638
 20
15.1156229129
 30
0.0
  0
SPLINE
  5
57A
100
AcDbEntity
  8
0
100
AcDbSpline
 62
7
  6
CONTINUOUS
 70
0
 71
3
 72
9
 73
5
 74
0
 42
0.0000001
 43
0.0000001
 44
0.0000000001
 40
0.0
 40
0.0
 40
0.0
 40
0.0
 40
0.4901934393
 40
1.0
 40
1.0
 40
1.0
 40
1.0
 10
17.229496742
 20
15.1868608576
 30
0.0
 10
17.2253352016
 20
15.1854409454
 30
0.0
 10
17.216955861
 20
15.1822135635
 30
0.0
 10
17.2088255381
 20
15.1784062353
 30
0.0
 10
17.2047481077
 20
15.1763356622
 30
0.0
  0
SPLINE
  5
57B
100
AcDbEntity
  8
0
100
AcDbSpline
 62
7
  6
CONTINUOUS
 70
0
 71
3
 72
46
 73
42
 74
0
 42
0.0000001
 43
0.0000001
 44
0.0000000001
 40
0.0
 40
0.0
 40
0.0
 40
0.0
 40
0.0305575556
 40
0.0617415503
 40
0.0934990488
 40
0.1258036174
 40
0.1586302406
 40
0.1919237773
 40
0.2256117849
 40
0.2596133067
 40
0.2938410308
 40
0.3282012542
 40
0.3625956331
 40
0.3969259676
 40
0.4310950392
 40
0.4650105281
 40
0.4985861513
 40
0.5317449831
 40
0.5644219021
 40
0.5965647813
 40
0.6281392376
 40
0.6591263098
 40
0.6895289369
 40
0.7193667719
 40
0.7486798418
 40
0.7631600382
 40
0.7775311042
 40
0.8059774679
 40
0.8341065827
 40
0.848077897
 40
0.8619993543
 40
0.8758808317
 40
0.8897286775
 40
0.9035513709
 40
0.9173588039
 40
0.9311524115
 40
0.9449300943
 40
0.9586917095
 40
0.97244517
 40
0.9862081844
 40
1.0
 40
1.0
 40
1.0
 40
1.0
 10
17.1112841884
 20
15.1993584255
 30
0.0
 10
17.1132337581
 20
15.2004840033
 30
0.0
 10
17.1172473363
 20
15.2026314165
 30
0.0
 10
17.1235075356
 20
15.2055133071
 30
0.0
 10
17.1300403909
 20
15.2080837677
 30
0.0
 10
17.1368162623
 20
15.210337986
 30
0.0
 10
17.1438073329
 20
15.2122730909
 30
0.0
 10
17.1509840659
 20
15.2138857089
 30
0.0
 10
17.1583143347
 20
15.2151710299
 30
0.0
 10
17.1657642316
 20
15.2161257159
 30
0.0
 10
17.1732989522
 20
15.2167467453
 30
0.0
 10
17.1808827453
 20
15.2170324188
 30
0.0
 10
17.1884792988
 20
15.2169816252
 30
0.0
 10
17.1960520718
 20
15.2165945705
 30
0.0
 10
17.2035648854
 20
15.2158725563
 30
0.0
 10
17.2109821613
 20
15.2148177214
 30
0.0
 10
17.2182694308
 20
15.2134333638
 30
0.0
 10
17.225393483
 20
15.2117229537
 30
0.0
 10
17.2323228179
 20
15.2096908956
 30
0.0
 10
17.2390276003
 20
15.2073409568
 30
0.0
 10
17.245479813
 20
15.204677116
 30
0.0
 10
17.2516530236
 20
15.2017022026
 30
0.0
 10
17.2575217431
 20
15.1984179385
 30
0.0
 10
17.2630610393
 20
15.1948255131
 30
0.0
 10
17.2673990902
 20
15.1915602896
 30
0.0
 10
17.2706728305
 20
15.1887941573
 30
0.0
 10
17.2737896567
 20
15.1859462126
 30
0.0
 10
17.2774335952
 20
15.1821905655
 30
0.0
 10
17.2807226973
 20
15.1781569535
 30
0.0
 10
17.2831042599
 20
15.1747847179
 30
0.0
 10
17.2847587681
 20
15.1721883368
 30
0.0
 10
17.2862797275
 20
15.1695219865
 30
0.0
 10
17.2876615724
 20
15.1667890211
 30
0.0
 10
17.2888983482
 20
15.1639932997
 30
0.0
 10
17.2899835462
 20
15.1611395343
 30
0.0
 10
17.2909125067
 20
15.1582346046
 30
0.0
 10
17.2916806734
 20
15.1552865138
 30
0.0
 10
17.2922830578
 20
15.1523030996
 30
0.0
 10
17.292715686
 20
15.1492914163
 30
0.0
 10
17.2929767068
 20
15.1462578901
 30
0.0
 10
17.2930349043
 20
15.1442274531
 30
0.0
 10
17.2930349043
 20
15.1432114142
 30
0.0
  0
SPLINE
  5
57C
100
AcDbEntity
  8
0
100
AcDbSpline
 62
7
  6
CONTINUOUS
 70
0
 71
3
 72
22
 73
18
 74
0
 42
0.0000001
 43
0.0000001
 44
0.0000000001
 40
0.0
 40
0.0
 40
0.0
 40
0.0
 40
0.060933669
 40
0.1217302104
 40
0.1825587624
 40
0.2434906535
 40
0.304514742
 40
0.3656412951
 40
0.4269516738
 40
0.4885113676
 40
0.5504052624
 40
0.6127229563
 40
0.6755350057
 40
0.7389429868
 40
0.8030443036
 40
0.8679091943
 40
1.0
 40
1.0
 40
1.0
 40
1.0
 10
17.0740349043
 20
15.1432114142
 30
0.0
 10
17.0740349043
 20
15.1446459326
 30
0.0
 10
17.0741509697
 20
15.1475130866
 30
0.0
 10
17.0746706467
 20
15.151783846
 30
0.0
 10
17.0755302489
 20
15.1559994773
 30
0.0
 10
17.0767181907
 20
15.1601398563
 30
0.0
 10
17.0782210902
 20
15.1641839424
 30
0.0
 10
17.0800262701
 20
15.1681119938
 30
0.0
 10
17.0821152808
 20
15.1719107957
 30
0.0
 10
17.0844723119
 20
15.1755705892
 30
0.0
 10
17.0870814902
 20
15.1790843467
 30
0.0
 10
17.0899272126
 20
15.1824477955
 30
0.0
 10
17.0929958198
 20
15.1856584016
 30
0.0
 10
17.0962753038
 20
15.1887148285
 30
0.0
 10
17.099754889
 20
15.1916173263
 30
0.0
 10
17.1046749121
 20
15.1953037282
 30
0.0
 10
17.1085910874
 20
15.1978035721
 30
0.0
 10
17.1112841884
 20
15.1993584255
 30
0.0
  0
SPLINE
  5
57D
100
AcDbEntity
  8
0
100
AcDbSpline
 62
7
  6
CONTINUOUS
 70
0
 71
3
 72
54
 73
50
 74
0
 42
0.0000001
 43
0.0000001
 44
0.0000000001
 40
0.0
 40
0.0
 40
0.0
 40
0.0
 40
0.0156881636
 40
0.0309875416
 40
0.060369457
 40
0.0881446829
 40
0.1014600927
 40
0.1144115732
 40
0.12702024
 40
0.1393128697
 40
0.151322306
 40
0.1630859675
 40
0.1746463111
 40
0.186050142
 40
0.1973474056
 40
0.2085907906
 40
0.2198341805
 40
0.2311314718
 40
0.2425353368
 40
0.2540957404
 40
0.2658595314
 40
0.2778690805
 40
0.2901617214
 40
0.302770225
 40
0.3157215517
 40
0.3290373235
 40
0.342734753
 40
0.3568254186
 40
0.3862021052
 40
0.4014993476
 40
0.4171943002
 40
0.4332794542
 40
0.4497433538
 40
0.4837440352
 40
0.5190634237
 40
0.5555291558
 40
0.5929418774
 40
0.6310821566
 40
0.6697157732
 40
0.7085983333
 40
0.7474809094
 40
0.7861144818
 40
0.8242545333
 40
0.8616675057
 40
0.8981330561
 40
0.9334501125
 40
0.967455752
 40
0.9839216815
 40
1.0
 40
1.0
 40
1.0
 40
1.0
 10
17.2499246507
 20
15.1238005021
 30
0.0
 10
17.2509969575
 20
15.124419595
 30
0.0
 10
17.2530896518
 20
15.1256872092
 30
0.0
 10
17.2570518931
 20
15.1283356397
 30
0.0
 10
17.2615817591
 20
15.1318418054
 30
0.0
 10
17.2656088888
 20
15.1356965905
 30
0.0
 10
17.2684159888
 20
15.1389110519
 30
0.0
 10
17.2702880303
 20
15.1413447342
 30
0.0
 10
17.2719512982
 20
15.143829175
 30
0.0
 10
17.273401394
 20
15.1463586389
 30
0.0
 10
17.2746350943
 20
15.1489268033
 30
0.0
 10
17.2756489706
 20
15.1515276827
 30
0.0
 10
17.2764402177
 20
15.1541549746
 30
0.0
 10
17.2770071985
 20
15.156802103
 30
0.0
 10
17.2773479439
 20
15.1594626258
 30
0.0
 10
17.277461477
 20
15.1621298363
 30
0.0
 10
17.277347946
 20
15.1647970504
 30
0.0
 10
17.2770071615
 20
15.1674575733
 30
0.0
 10
17.2764401906
 20
15.1701047125
 30
0.0
 10
17.2756489368
 20
15.1727320224
 30
0.0
 10
17.2746350028
 20
15.1753329049
 30
0.0
 10
17.2734012839
 20
15.1779010823
 30
0.0
 10
17.2719511866
 20
15.1804305383
 30
0.0
 10
17.2702879328
 20
15.1829149732
 30
0.0
 10
17.2684159402
 20
15.1853486389
 30
0.0
 10
17.2663399534
 20
15.1877258958
 30
0.0
 10
17.2640646091
 20
15.190040872
 30
0.0
 10
17.2607268505
 20
15.1930792531
 30
0.0
 10
17.2570520104
 20
15.1959239271
 30
0.0
 10
17.2530899528
 20
15.19857224
 30
0.0
 10
17.2499107635
 20
15.2004978634
 30
0.0
 10
17.2465720366
 20
15.202330763
 30
0.0
 10
17.2418682557
 20
15.2046707091
 30
0.0
 10
17.2356338719
 20
15.2073288423
 30
0.0
 10
17.2277345668
 20
15.21005183
 30
0.0
 10
17.2194125636
 20
15.212315872
 30
0.0
 10
17.2107476606
 20
15.2140995621
 30
0.0
 10
17.2018224934
 20
15.2153860465
 30
0.0
 10
17.1927223665
 20
15.2161627965
 30
0.0
 10
17.1835343297
 20
15.2164224665
 30
0.0
 10
17.1743462974
 20
15.2161627381
 30
0.0
 10
17.1652461985
 20
15.2153859039
 30
0.0
 10
17.1563210374
 20
15.2140993899
 30
0.0
 10
17.1476561646
 20
15.2123156057
 30
0.0
 10
17.1393343674
 20
15.210051494
 30
0.0
 10
17.1314348407
 20
15.2073285897
 30
0.0
 10
17.1252001943
 20
15.204670008
 30
0.0
 10
17.1204965222
 20
15.2023300177
 30
0.0
 10
17.1182441323
 20
15.2010935332
 30
0.0
 10
17.1171451579
 20
15.2004590438
 30
0.0
  0
SPLINE
  5
57E
100
AcDbEntity
  8
0
100
AcDbSpline
 62
7
  6
CONTINUOUS
 70
0
 71
3
 72
22
 73
18
 74
0
 42
0.0000001
 43
0.0000001
 44
0.0000000001
 40
0.0
 40
0.0
 40
0.0
 40
0.0
 40
0.0752060727
 40
0.1485484216
 40
0.28940012
 40
0.3569440104
 40
0.4226013826
 40
0.4864332337
 40
0.5485205049
 40
0.6089644266
 40
0.6678933414
 40
0.7254646688
 40
0.7818577689
 40
0.8372761587
 40
0.8919441979
 40
0.9461012924
 40
1.0
 40
1.0
 40
1.0
 40
1.0
 10
17.2609634192
 20
15.0985090517
 30
0.0
 10
17.262213986
 20
15.0992310625
 30
0.0
 10
17.2646546095
 20
15.1007094393
 30
0.0
 10
17.2692753072
 20
15.1037979611
 30
0.0
 10
17.273561729
 20
15.1071157214
 30
0.0
 10
17.2774545411
 20
15.1106594494
 30
0.0
 10
17.2801079144
 20
15.1133591907
 30
0.0
 10
17.282528936
 20
15.1161315563
 30
0.0
 10
17.2847122017
 20
15.1189697566
 30
0.0
 10
17.2866520312
 20
15.1218672118
 30
0.0
 10
17.2883432553
 20
15.1248171568
 30
0.0
 10
17.2897821228
 20
15.1278122384
 30
0.0
 10
17.2909646296
 20
15.1308454791
 30
0.0
 10
17.2918875029
 20
15.1339095085
 30
0.0
 10
17.2925488353
 20
15.1369967376
 30
0.0
 10
17.2929463317
 20
15.1400993566
 30
0.0
 10
17.2930347497
 20
15.1421752035
 30
0.0
 10
17.2930347891
 20
15.1432101099
 30
0.0
  0
SPLINE
  5
57F
100
AcDbEntity
  8
0
100
AcDbSpline
 62
7
  6
CONTINUOUS
 70
0
 71
3
 72
35
 73
31
 74
0
 42
0.0000001
 43
0.0000001
 44
0.0000000001
 40
0.0
 40
0.0
 40
0.0
 40
0.0
 40
0.0374147517
 40
0.0738814601
 40
0.1438470496
 40
0.2099032926
 40
0.2415437315
 40
0.2723044333
 40
0.3022398566
 40
0.3314196744
 40
0.3599280725
 40
0.3878608863
 40
0.4153268659
 40
0.4424447273
 40
0.4693409295
 40
0.4961480358
 40
0.523000377
 40
0.5500315376
 40
0.5773703073
 40
0.6051381123
 40
0.6334474623
 40
0.6623980742
 40
0.6920777062
 40
0.7225613786
 40
0.7539089354
 40
0.7861685298
 40
0.8193755789
 40
0.8535519028
 40
0.924829893
 40
1.0
 40
1.0
 40
1.0
 40
1.0
 10
17.1171451579
 20
15.2004590438
 30
0.0
 10
17.1160501075
 20
15.19982682
 30
0.0
 10
17.1139141683
 20
15.1985317092
 30
0.0
 10
17.1098753703
 20
15.1958236253
 30
0.0
 10
17.105268454
 20
15.192235088
 30
0.0
 10
17.1011883534
 20
15.1882837148
 30
0.0
 10
17.0983588638
 20
15.1849878545
 30
0.0
 10
17.0964804201
 20
15.182493097
 30
0.0
 10
17.0948206978
 20
15.1799463236
 30
0.0
 10
17.0933841001
 20
15.1773538048
 30
0.0
 10
17.0921740265
 20
15.1747222307
 30
0.0
 10
17.0911941881
 20
15.1720579665
 30
0.0
 10
17.0904471452
 20
15.1693678873
 30
0.0
 10
17.0899346714
 20
15.1666589526
 30
0.0
 10
17.0896588457
 20
15.16393809
 30
0.0
 10
17.0896200958
 20
15.1612125129
 30
0.0
 10
17.0898183688
 20
15.1584893128
 30
0.0
 10
17.0902536718
 20
15.1557756963
 30
0.0
 10
17.090924209
 20
15.1530786827
 30
0.0
 10
17.0918281358
 20
15.1504051795
 30
0.0
 10
17.0929633705
 20
15.1477621992
 30
0.0
 10
17.0943262755
 20
15.1451561895
 30
0.0
 10
17.0959134247
 20
15.1425937203
 30
0.0
 10
17.0977208738
 20
15.1400813392
 30
0.0
 10
17.0997435182
 20
15.1376249296
 30
0.0
 10
17.1019764481
 20
15.1352307529
 30
0.0
 10
17.1044140793
 20
15.1329047493
 30
0.0
 10
17.1079782643
 20
15.1298591926
 30
0.0
 10
17.1129254893
 20
15.1262651931
 30
0.0
 10
17.1171876269
 20
15.1237353133
 30
0.0
 10
17.1194233208
 20
15.1225289162
 30
0.0
  0
SPLINE
  5
580
100
AcDbEntity
  8
0
100
AcDbSpline
 62
7
  6
CONTINUOUS
 70
0
 71
3
 72
24
 73
20
 74
0
 42
0.0000001
 43
0.0000001
 44
0.0000000001
 40
0.0
 40
0.0
 40
0.0
 40
0.0
 40
0.0565448871
 40
0.1154639139
 40
0.1765094377
 40
0.2393853742
 40
0.3037556681
 40
0.3692534118
 40
0.4354905028
 40
0.5020643513
 40
0.5685662499
 40
0.6345889591
 40
0.6997335278
 40
0.763619724
 40
0.8258888642
 40
0.8862148141
 40
0.9443340162
 40
0.9724919101
 40
1.0
 40
1.0
 40
1.0
 40
1.0
 10
17.1194233208
 20
15.1225289162
 30
0.0
 10
17.1216690236
 20
15.1213171182
 30
0.0
 10
17.1263577307
 20
15.1190298395
 30
0.0
 10
17.1337598444
 20
15.1160703824
 30
0.0
 10
17.1416177542
 20
15.1135330884
 30
0.0
 10
17.1498592422
 20
15.1114414894
 30
0.0
 10
17.1584092015
 20
15.1098146701
 30
0.0
 10
17.1671893064
 20
15.1086672192
 30
0.0
 10
17.1761191947
 20
15.1080097373
 30
0.0
 10
17.1851170524
 20
15.1078484326
 30
0.0
 10
17.1941004089
 20
15.1081845056
 30
0.0
 10
17.2029869329
 20
15.1090149498
 30
0.0
 10
17.2116952458
 20
15.1103323431
 30
0.0
 10
17.2201455704
 20
15.1121244698
 30
0.0
 10
17.2282606158
 20
15.1143749109
 30
0.0
 10
17.2359664187
 20
15.117063312
 30
0.0
 10
17.2420518116
 20
15.1196759056
 30
0.0
 10
17.2466472598
 20
15.1219694741
 30
0.0
 10
17.2488495642
 20
15.1231798043
 30
0.0
 10
17.2499246507
 20
15.1238005021
 30
0.0
  0
SPLINE
  5
581
100
AcDbEntity
  8
0
100
AcDbSpline
 62
7
  6
CONTINUOUS
 70
0
 71
3
 72
9
 73
5
 74
0
 42
0.0000001
 43
0.0000001
 44
0.0000000001
 40
0.0
 40
0.0
 40
0.0
 40
0.0
 40
0.4924317693
 40
1.0
 40
1.0
 40
1.0
 40
1.0
 10
17.2047481077
 20
15.1763356622
 30
0.0
 10
17.2089715511
 20
15.1736036424
 30
0.0
 10
17.2173868796
 20
15.1678029958
 30
0.0
 10
17.2254749934
 20
15.1615556791
 30
0.0
 10
17.2294969481
 20
15.1582838859
 30
0.0
  0
SPLINE
  5
582
100
AcDbEntity
  8
0
100
AcDbSpline
 62
7
  6
CONTINUOUS
 70
0
 71
3
 72
9
 73
5
 74
0
 42
0.0000001
 43
0.0000001
 44
0.0000000001
 40
0.0
 40
0.0
 40
0.0
 40
0.0
 40
0.4923436136
 40
1.0
 40
1.0
 40
1.0
 40
1.0
 10
17.2082834503
 20
15.1991080803
 30
0.0
 10
17.2118709147
 20
15.1972910534
 30
0.0
 10
17.2190527368
 20
15.1933908979
 30
0.0
 10
17.2260172876
 20
15.1891161741
 30
0.0
 10
17.229496742
 20
15.1868608576
 30
0.0
  0
SPLINE
  5
583
100
AcDbEntity
  8
0
100
AcDbSpline
 62
7
  6
CONTINUOUS
 70
0
 71
3
 72
9
 73
5
 74
0
 42
0.0000001
 43
0.0000001
 44
0.0000000001
 40
0.0
 40
0.0
 40
0.0
 40
0.0
 40
0.5098074499
 40
1.0
 40
1.0
 40
1.0
 40
1.0
 10
17.183534816
 20
15.1885828848
 30
0.0
 10
17.1876122535
 20
15.1906534616
 30
0.0
 10
17.1957425765
 20
15.1944607895
 30
0.0
 10
17.2041219174
 20
15.1976881707
 30
0.0
 10
17.2082834503
 20
15.1991080803
 30
0.0
  0
SPLINE
  5
584
100
AcDbEntity
  8
0
100
AcDbSpline
 62
7
  6
CONTINUOUS
 70
0
 71
3
 72
9
 73
5
 74
0
 42
0.0000001
 43
0.0000001
 44
0.0000000001
 40
0.0
 40
0.0
 40
0.0
 40
0.0
 40
0.4901932229
 40
1.0
 40
1.0
 40
1.0
 40
1.0
 10
17.1587859756
 20
15.1991079613
 30
0.0
 10
17.162947546
 20
15.1976880707
 30
0.0
 10
17.1713269538
 20
15.1944607306
 30
0.0
 10
17.1794573472
 20
15.1906534406
 30
0.0
 10
17.183534816
 20
15.1885828848
 30
0.0
  0
SPLINE
  5
585
100
AcDbEntity
  8
0
100
AcDbSpline
 62
7
  6
CONTINUOUS
 70
0
 71
3
 72
9
 73
5
 74
0
 42
0.0000001
 43
0.0000001
 44
0.0000000001
 40
0.0
 40
0.0
 40
0.0
 40
0.0
 40
0.5075687381
 40
1.0
 40
1.0
 40
1.0
 40
1.0
 10
17.1375730665
 20
15.1582836649
 30
0.0
 10
17.1415949898
 20
15.1615554792
 30
0.0
 10
17.1496830342
 20
15.167802833
 30
0.0
 10
17.1580982947
 20
15.1736035215
 30
0.0
 10
17.1623217008
 20
15.1763355602
 30
0.0
  0
SPLINE
  5
586
100
AcDbEntity
  8
0
100
AcDbSpline
 62
7
  6
CONTINUOUS
 70
0
 71
3
 72
28
 73
24
 74
0
 42
0.0000001
 43
0.0000001
 44
0.0000000001
 40
0.0
 40
0.0
 40
0.0
 40
0.0
 40
0.0240729177
 40
0.04821537
 40
0.0724961649
 40
0.0969817591
 40
0.1217357227
 40
0.1468185438
 40
0.1722864734
 40
0.1981903654
 40
0.2514672277
 40
0.3069794863
 40
0.3356541046
 40
0.3649649887
 40
0.4255375389
 40
0.4887809782
 40
0.5546978553
 40
0.6232327193
 40
0.694277662
 40
0.7676823744
 40
0.8432562557
 40
0.9207788842
 40
1.0
 40
1.0
 40
1.0
 40
1.0
 10
17.0740350194
 20
15.1432114144
 30
0.0
 10
17.0740350175
 20
15.1424087777
 30
0.0
 10
17.0740880632
 20
15.1408006839
 30
0.0
 10
17.0743267088
 20
15.1383936729
 30
0.0
 10
17.0747243192
 20
15.1359937389
 30
0.0
 10
17.0752799281
 20
15.1336045338
 30
0.0
 10
17.0759926343
 20
15.1312295048
 30
0.0
 10
17.0768615676
 20
15.1288722183
 30
0.0
 10
17.0778854897
 20
15.1265360986
 30
0.0
 10
17.0794693792
 20
15.123425273
 30
0.0
 10
17.0818431031
 20
15.1196017773
 30
0.0
 10
17.0846544614
 20
15.1159722031
 30
0.0
 10
17.087176869
 20
15.1131497634
 30
0.0
 10
17.0899432026
 20
15.1103243708
 30
0.0
 10
17.0937520411
 20
15.1069147161
 30
0.0
 10
17.0987905769
 20
15.1030797765
 30
0.0
 10
17.1043175112
 20
15.0994779333
 30
0.0
 10
17.1103010117
 20
15.0961300418
 30
0.0
 10
17.1167065262
 20
15.0930544443
 30
0.0
 10
17.1234974715
 20
15.09026927
 30
0.0
 10
17.1306346036
 20
15.0877896645
 30
0.0
 10
17.138076859
 20
15.0856306843
 30
0.0
 10
17.1431643491
 20
15.084424358
 30
0.0
 10
17.1457481629
 20
15.0838758998
 30
0.0
  0
SPLINE
  5
587
100
AcDbEntity
  8
0
100
AcDbSpline
 62
7
  6
CONTINUOUS
 70
0
 71
3
 72
15
 73
11
 74
0
 42
0.0000001
 43
0.0000001
 44
0.0000000001
 40
0.0
 40
0.0
 40
0.0
 40
0.0
 40
0.1227526931
 40
0.2474243399
 40
0.3733925304
 40
0.5000129832
 40
0.6266318847
 40
0.7525952182
 40
0.8772583014
 40
1.0
 40
1.0
 40
1.0
 40
1.0
 10
17.1457481629
 20
15.0838758998
 30
0.0
 10
17.1487960014
 20
15.0832289445
 30
0.0
 10
17.1549768564
 20
15.0820958936
 30
0.0
 10
17.1643807945
 20
15.0808843265
 30
0.0
 10
17.1739329324
 20
15.080154032
 30
0.0
 10
17.1835591582
 20
15.0799109601
 30
0.0
 10
17.1931851992
 20
15.0801564843
 30
0.0
 10
17.2027367674
 20
15.0808892413
 30
0.0
 10
17.2121397761
 20
15.0821031733
 30
0.0
 10
17.2183198344
 20
15.0832378264
 30
0.0
 10
17.2213672183
 20
15.0838855784
 30
0.0
  0
SPLINE
  5
588
100
AcDbEntity
  8
0
100
AcDbSpline
 62
7
  6
CONTINUOUS
 70
0
 71
3
 72
11
 73
7
 74
0
 42
0.0000001
 43
0.0000001
 44
0.0000000001
 40
0.0
 40
0.0
 40
0.0
 40
0.0
 40
0.2608695352
 40
0.5148851897
 40
0.7614747405
 40
1.0
 40
1.0
 40
1.0
 40
1.0
 10
17.2362173775
 20
15.0877901693
 30
0.0
 10
17.238456948
 20
15.0884997517
 30
0.0
 10
17.2428446323
 20
15.0900061554
 30
0.0
 10
17.2492120906
 20
15.0925602518
 30
0.0
 10
17.2552506282
 20
15.0953684169
 30
0.0
 10
17.2591031333
 20
15.0974350215
 30
0.0
 10
17.2609634192
 20
15.0985090517
 30
0.0
  0
SPLINE
  5
589
100
AcDbEntity
  8
AXIS_COSMETIC_THREADS
100
AcDbSpline
 62
7
  6
CONTINUOUS
 70
0
 71
3
 72
11
 73
7
 74
0
 42
0.0000001
 43
0.0000001
 44
0.0000000001
 40
0.0
 40
0.0
 40
0.0
 40
0.0
 40
0.2375217529
 40
0.4838414541
 40
0.7382320154
 40
1.0
 40
1.0
 40
1.0
 40
1.0
 10
19.4883590534
 20
13.7849641358
 30
0.0
 10
19.4862855458
 20
13.7837670027
 30
0.0
 10
19.4819758657
 20
13.7814746617
 30
0.0
 10
19.4751947073
 20
13.7783993512
 30
0.0
 10
19.4680161091
 20
13.7756416767
 30
0.0
 10
19.4630603356
 20
13.7740472254
 30
0.0
 10
19.4605283283
 20
13.7733045306
 30
0.0
  0
SPLINE
  5
58A
100
AcDbEntity
  8
AXIS_COSMETIC_THREADS
100
AcDbSpline
 62
7
  6
CONTINUOUS
 70
0
 71
3
 72
18
 73
14
 74
0
 42
0.0000001
 43
0.0000001
 44
0.0000000001
 40
0.0
 40
0.0
 40
0.0
 40
0.0
 40
0.1209996681
 40
0.2453789316
 40
0.3720693073
 40
0.4999337377
 40
0.6278029021
 40
0.6913822494
 40
0.7545261541
 40
0.8170937297
 40
0.8789485862
 40
0.9399588348
 40
1.0
 40
1.0
 40
1.0
 40
1.0
 10
19.4605283283
 20
13.7733045306
 30
0.0
 10
19.4566439875
 20
13.7721651659
 30
0.0
 10
19.4486720515
 20
13.7701674703
 30
0.0
 10
19.4363989347
 20
13.7680328088
 30
0.0
 10
19.4237777328
 20
13.7667386883
 30
0.0
 10
19.4109818371
 20
13.7663030918
 30
0.0
 10
19.4002963698
 20
13.7666610095
 30
0.0
 10
19.3918082892
 20
13.7673822138
 30
0.0
 10
19.3855193292
 20
13.7681361211
 30
0.0
 10
19.3793177946
 20
13.7691016555
 30
0.0
 10
19.3732248108
 20
13.770275149
 30
0.0
 10
19.3672615214
 20
13.7716529725
 30
0.0
 10
19.3633519058
 20
13.7727135488
 30
0.0
 10
19.3614241041
 20
13.7732776988
 30
0.0
  0
SPLINE
  5
58B
100
AcDbEntity
  8
AXIS_COSMETIC_THREADS
100
AcDbSpline
 62
7
  6
CONTINUOUS
 70
0
 71
3
 72
23
 73
19
 74
0
 42
0.0000001
 43
0.0000001
 44
0.0000000001
 40
0.0
 40
0.0
 40
0.0
 40
0.0
 40
0.0787897829
 40
0.1556745202
 40
0.2304768769
 40
0.3030471871
 40
0.3732645526
 40
0.4410431463
 40
0.5063363223
 40
0.5691410164
 40
0.6295052629
 40
0.6875301981
 40
0.7433790021
 40
0.7972758035
 40
0.8495108319
 40
0.900433972
 40
0.950449235
 40
1.0
 40
1.0
 40
1.0
 40
1.0
 10
19.3614241041
 20
13.7732776988
 30
0.0
 10
19.359207585
 20
13.7739263389
 30
0.0
 10
19.354856541
 20
13.7753078153
 30
0.0
 10
19.3485207985
 20
13.7776601558
 30
0.0
 10
19.3424795223
 20
13.7802586601
 30
0.0
 10
19.3367611896
 20
13.7830907448
 30
0.0
 10
19.3313927736
 20
13.786143503
 30
0.0
 10
19.3263994846
 20
13.7894026236
 30
0.0
 10
19.321804826
 20
13.7928530557
 30
0.0
 10
19.3176306155
 20
13.7964790866
 30
0.0
 10
19.3138964609
 20
13.8002638654
 30
0.0
 10
19.3106206663
 20
13.8041904969
 30
0.0
 10
19.3078188026
 20
13.808240653
 30
0.0
 10
19.3055055531
 20
13.8123961572
 30
0.0
 10
19.3036924465
 20
13.8166372154
 30
0.0
 10
19.3023900329
 20
13.8209440814
 30
0.0
 10
19.3016053311
 20
13.825294605
 30
0.0
 10
19.3014305402
 20
13.8282160334
 30
0.0
 10
19.301430579
 20
13.8296684606
 30
0.0
  0
SPLINE
  5
58C
100
AcDbEntity
  8
0
100
AcDbSpline
 62
7
  6
CONTINUOUS
 70
0
 71
3
 72
9
 73
5
 74
0
 42
0.0000001
 43
0.0000001
 44
0.0000000001
 40
0.0
 40
0.0
 40
0.0
 40
0.0
 40
0.5098067771
 40
1.0
 40
1.0
 40
1.0
 40
1.0
 10
19.389717335
 20
13.8903771835
 30
0.0
 10
19.3856398663
 20
13.8924477392
 30
0.0
 10
19.3775094729
 20
13.8962550293
 30
0.0
 10
19.3691300651
 20
13.8994823693
 30
0.0
 10
19.3649684947
 20
13.9009022599
 30
0.0
  0
SPLINE
  5
58D
100
AcDbEntity
  8
0
100
AcDbSpline
 62
7
  6
CONTINUOUS
 70
0
 71
3
 72
9
 73
5
 74
0
 42
0.0000001
 43
0.0000001
 44
0.0000000001
 40
0.0
 40
0.0
 40
0.0
 40
0.0
 40
0.5076563864
 40
1.0
 40
1.0
 40
1.0
 40
1.0
 10
19.3861819925
 20
13.8600780655
 30
0.0
 10
19.3827025381
 20
13.862333382
 30
0.0
 10
19.3757379873
 20
13.8666081057
 30
0.0
 10
19.3685561651
 20
13.8705082612
 30
0.0
 10
19.3649687007
 20
13.8723252882
 30
0.0
  0
SPLINE
  5
58E
100
AcDbEntity
  8
AXIS_COSMETIC_THREADS
100
AcDbSpline
 62
7
  6
CONTINUOUS
 70
0
 71
3
 72
20
 73
16
 74
0
 42
0.0000001
 43
0.0000001
 44
0.0000000001
 40
0.0
 40
0.0
 40
0.0
 40
0.0
 40
0.0752254456
 40
0.1485782107
 40
0.2894346172
 40
0.4226023805
 40
0.4864447708
 40
0.5485391903
 40
0.6678535922
 40
0.7254313551
 40
0.7818315355
 40
0.8372570493
 40
0.8919311993
 40
0.9460949153
 40
1.0
 40
1.0
 40
1.0
 40
1.0
 10
19.4883590534
 20
13.7849641358
 30
0.0
 10
19.4896097747
 20
13.7856862358
 30
0.0
 10
19.4920505402
 20
13.7871646464
 30
0.0
 10
19.4966714188
 20
13.7902532744
 30
0.0
 10
19.5019541159
 20
13.794342278
 30
0.0
 10
19.5066504184
 20
13.7988376387
 30
0.0
 10
19.5099246226
 20
13.8025865418
 30
0.0
 10
19.5127968111
 20
13.8063201175
 30
0.0
 10
19.5152368071
 20
13.8102264716
 30
0.0
 10
19.517177497
 20
13.8142668581
 30
0.0
 10
19.5183600428
 20
13.817300164
 30
0.0
 10
19.5192832196
 20
13.8203640356
 30
0.0
 10
19.5199442793
 20
13.8234512943
 30
0.0
 10
19.5203419261
 20
13.8265538259
 30
0.0
 10
19.5204304704
 20
13.828629646
 30
0.0
 10
19.520430498
 20
13.8296645362
 30
0.0
  0
SPLINE
  5
58F
100
AcDbEntity
  8
0
100
AcDbSpline
 62
7
  6
CONTINUOUS
 70
0
 71
3
 72
9
 73
5
 74
0
 42
0.0000001
 43
0.0000001
 44
0.0000000001
 40
0.0
 40
0.0
 40
0.0
 40
0.0
 40
0.4901934393
 40
1.0
 40
1.0
 40
1.0
 40
1.0
 10
19.4568923762
 20
13.9009024809
 30
0.0
 10
19.4527308358
 20
13.8994825687
 30
0.0
 10
19.4443514952
 20
13.8962551868
 30
0.0
 10
19.4362211724
 20
13.8924478586
 30
0.0
 10
19.4321437419
 20
13.8903772854
 30
0.0
  0
SPLINE
  5
590
100
AcDbEntity
  8
0
100
AcDbSpline
 62
7
  6
CONTINUOUS
 70
0
 71
3
 72
46
 73
42
 74
0
 42
0.0000001
 43
0.0000001
 44
0.0000000001
 40
0.0
 40
0.0
 40
0.0
 40
0.0
 40
0.0305575556
 40
0.0617415503
 40
0.0934990488
 40
0.1258036174
 40
0.1586302406
 40
0.1919237773
 40
0.2256117849
 40
0.2596133067
 40
0.2938410308
 40
0.3282012542
 40
0.3625956331
 40
0.3969259676
 40
0.4310950392
 40
0.4650105281
 40
0.4985861513
 40
0.5317449831
 40
0.5644219021
 40
0.5965647813
 40
0.6281392376
 40
0.6591263098
 40
0.6895289369
 40
0.7193667719
 40
0.7486798418
 40
0.7631600382
 40
0.7775311042
 40
0.8059774679
 40
0.8341065827
 40
0.848077897
 40
0.8619993543
 40
0.8758808317
 40
0.8897286775
 40
0.9035513709
 40
0.9173588039
 40
0.9311524115
 40
0.9449300943
 40
0.9586917095
 40
0.97244517
 40
0.9862081844
 40
1.0
 40
1.0
 40
1.0
 40
1.0
 10
19.3386798227
 20
13.9134000487
 30
0.0
 10
19.3406293923
 20
13.9145256266
 30
0.0
 10
19.3446429705
 20
13.9166730397
 30
0.0
 10
19.3509031698
 20
13.9195549303
 30
0.0
 10
19.3574360251
 20
13.922125391
 30
0.0
 10
19.3642118965
 20
13.9243796092
 30
0.0
 10
19.3712029671
 20
13.9263147142
 30
0.0
 10
19.3783797001
 20
13.9279273322
 30
0.0
 10
19.3857099689
 20
13.9292126532
 30
0.0
 10
19.3931598658
 20
13.9301673392
 30
0.0
 10
19.4006945864
 20
13.9307883685
 30
0.0
 10
19.4082783795
 20
13.931074042
 30
0.0
 10
19.4158749331
 20
13.9310232485
 30
0.0
 10
19.4234477061
 20
13.9306361938
 30
0.0
 10
19.4309605196
 20
13.9299141795
 30
0.0
 10
19.4383777955
 20
13.9288593447
 30
0.0
 10
19.4456650651
 20
13.927474987
 30
0.0
 10
19.4527891172
 20
13.925764577
 30
0.0
 10
19.4597184521
 20
13.9237325189
 30
0.0
 10
19.4664232345
 20
13.9213825801
 30
0.0
 10
19.4728754472
 20
13.9187187393
 30
0.0
 10
19.4790486578
 20
13.9157438259
 30
0.0
 10
19.4849173773
 20
13.9124595618
 30
0.0
 10
19.4904566735
 20
13.9088671363
 30
0.0
 10
19.4947947244
 20
13.9056019128
 30
0.0
 10
19.4980684647
 20
13.9028357806
 30
0.0
 10
19.501185291
 20
13.8999878358
 30
0.0
 10
19.5048292295
 20
13.8962321887
 30
0.0
 10
19.5081183315
 20
13.8921985768
 30
0.0
 10
19.5104998941
 20
13.8888263412
 30
0.0
 10
19.5121544023
 20
13.88622996
 30
0.0
 10
19.5136753617
 20
13.8835636097
 30
0.0
 10
19.5150572066
 20
13.8808306444
 30
0.0
 10
19.5162939824
 20
13.878034923
 30
0.0
 10
19.5173791804
 20
13.8751811575
 30
0.0
 10
19.5183081409
 20
13.8722762278
 30
0.0
 10
19.5190763076
 20
13.869328137
 30
0.0
 10
19.5196786921
 20
13.8663447229
 30
0.0
 10
19.5201113202
 20
13.8633330396
 30
0.0
 10
19.5203723411
 20
13.8602995134
 30
0.0
 10
19.5204305385
 20
13.8582690763
 30
0.0
 10
19.5204305385
 20
13.8572530375
 30
0.0
  0
SPLINE
  5
591
100
AcDbEntity
  8
0
100
AcDbSpline
 62
7
  6
CONTINUOUS
 70
0
 71
3
 72
22
 73
18
 74
0
 42
0.0000001
 43
0.0000001
 44
0.0000000001
 40
0.0
 40
0.0
 40
0.0
 40
0.0
 40
0.060933669
 40
0.1217302104
 40
0.1825587624
 40
0.2434906535
 40
0.304514742
 40
0.3656412951
 40
0.4269516738
 40
0.4885113676
 40
0.5504052624
 40
0.6127229563
 40
0.6755350057
 40
0.7389429868
 40
0.8030443036
 40
0.8679091943
 40
1.0
 40
1.0
 40
1.0
 40
1.0
 10
19.3014305385
 20
13.8572530375
 30
0.0
 10
19.3014305385
 20
13.8586875558
 30
0.0
 10
19.3015466039
 20
13.8615547098
 30
0.0
 10
19.3020662809
 20
13.8658254692
 30
0.0
 10
19.3029258832
 20
13.8700411006
 30
0.0
 10
19.304113825
 20
13.8741814796
 30
0.0
 10
19.3056167244
 20
13.8782255657
 30
0.0
 10
19.3074219043
 20
13.882153617
 30
0.0
 10
19.3095109151
 20
13.8859524189
 30
0.0
 10
19.3118679461
 20
13.8896122125
 30
0.0
 10
19.3144771244
 20
13.89312597
 30
0.0
 10
19.3173228468
 20
13.8964894188
 30
0.0
 10
19.320391454
 20
13.8997000249
 30
0.0
 10
19.323670938
 20
13.9027564518
 30
0.0
 10
19.3271505232
 20
13.9056589496
 30
0.0
 10
19.3320705463
 20
13.9093453514
 30
0.0
 10
19.3359867216
 20
13.9118451954
 30
0.0
 10
19.3386798227
 20
13.9134000487
 30
0.0
  0
SPLINE
  5
592
100
AcDbEntity
  8
0
100
AcDbSpline
 62
7
  6
CONTINUOUS
 70
0
 71
3
 72
54
 73
50
 74
0
 42
0.0000001
 43
0.0000001
 44
0.0000000001
 40
0.0
 40
0.0
 40
0.0
 40
0.0
 40
0.0156881636
 40
0.0309875416
 40
0.060369457
 40
0.0881446829
 40
0.1014600927
 40
0.1144115732
 40
0.12702024
 40
0.1393128697
 40
0.151322306
 40
0.1630859675
 40
0.1746463111
 40
0.186050142
 40
0.1973474056
 40
0.2085907906
 40
0.2198341805
 40
0.2311314718
 40
0.2425353368
 40
0.2540957404
 40
0.2658595314
 40
0.2778690805
 40
0.2901617214
 40
0.302770225
 40
0.3157215517
 40
0.3290373235
 40
0.342734753
 40
0.3568254186
 40
0.3862021052
 40
0.4014993476
 40
0.4171943002
 40
0.4332794542
 40
0.4497433538
 40
0.4837440352
 40
0.5190634237
 40
0.5555291558
 40
0.5929418774
 40
0.6310821566
 40
0.6697157732
 40
0.7085983333
 40
0.7474809094
 40
0.7861144818
 40
0.8242545333
 40
0.8616675057
 40
0.8981330561
 40
0.9334501125
 40
0.967455752
 40
0.9839216815
 40
1.0
 40
1.0
 40
1.0
 40
1.0
 10
19.4773202849
 20
13.8378421254
 30
0.0
 10
19.4783925917
 20
13.8384612183
 30
0.0
 10
19.480485286
 20
13.8397288325
 30
0.0
 10
19.4844475273
 20
13.8423772629
 30
0.0
 10
19.4889773933
 20
13.8458834287
 30
0.0
 10
19.493004523
 20
13.8497382138
 30
0.0
 10
19.495811623
 20
13.8529526752
 30
0.0
 10
19.4976836645
 20
13.8553863574
 30
0.0
 10
19.4993469324
 20
13.8578707983
 30
0.0
 10
19.5007970282
 20
13.8604002622
 30
0.0
 10
19.5020307285
 20
13.8629684265
 30
0.0
 10
19.5030446048
 20
13.865569306
 30
0.0
 10
19.5038358519
 20
13.8681965978
 30
0.0
 10
19.5044028327
 20
13.8708437262
 30
0.0
 10
19.5047435781
 20
13.8735042491
 30
0.0
 10
19.5048571112
 20
13.8761714596
 30
0.0
 10
19.5047435802
 20
13.8788386736
 30
0.0
 10
19.5044027958
 20
13.8814991966
 30
0.0
 10
19.5038358248
 20
13.8841463358
 30
0.0
 10
19.503044571
 20
13.8867736457
 30
0.0
 10
19.5020306371
 20
13.8893745282
 30
0.0
 10
19.5007969181
 20
13.8919427056
 30
0.0
 10
19.4993468208
 20
13.8944721616
 30
0.0
 10
19.497683567
 20
13.8969565964
 30
0.0
 10
19.4958115745
 20
13.8993902622
 30
0.0
 10
19.4937355876
 20
13.901767519
 30
0.0
 10
19.4914602433
 20
13.9040824953
 30
0.0
 10
19.4881224847
 20
13.9071208764
 30
0.0
 10
19.4844476446
 20
13.9099655503
 30
0.0
 10
19.480485587
 20
13.9126138632
 30
0.0
 10
19.4773063977
 20
13.9145394867
 30
0.0
 10
19.4739676708
 20
13.9163723863
 30
0.0
 10
19.4692638899
 20
13.9187123324
 30
0.0
 10
19.4630295061
 20
13.9213704656
 30
0.0
 10
19.455130201
 20
13.9240934533
 30
0.0
 10
19.4468081978
 20
13.9263574952
 30
0.0
 10
19.4381432948
 20
13.9281411853
 30
0.0
 10
19.4292181276
 20
13.9294276698
 30
0.0
 10
19.4201180007
 20
13.9302044197
 30
0.0
 10
19.410929964
 20
13.9304640897
 30
0.0
 10
19.4017419316
 20
13.9302043613
 30
0.0
 10
19.3926418327
 20
13.9294275272
 30
0.0
 10
19.3837166717
 20
13.9281410131
 30
0.0
 10
19.3750517988
 20
13.926357229
 30
0.0
 10
19.3667300016
 20
13.9240931173
 30
0.0
 10
19.3588304749
 20
13.921370213
 30
0.0
 10
19.3525958285
 20
13.9187116312
 30
0.0
 10
19.3478921565
 20
13.916371641
 30
0.0
 10
19.3456397665
 20
13.9151351564
 30
0.0
 10
19.3445407921
 20
13.914500667
 30
0.0
  0
SPLINE
  5
593
100
AcDbEntity
  8
0
100
AcDbSpline
 62
7
  6
CONTINUOUS
 70
0
 71
3
 72
22
 73
18
 74
0
 42
0.0000001
 43
0.0000001
 44
0.0000000001
 40
0.0
 40
0.0
 40
0.0
 40
0.0
 40
0.0752060727
 40
0.1485484216
 40
0.28940012
 40
0.3569440104
 40
0.4226013826
 40
0.4864332337
 40
0.5485205049
 40
0.6089644266
 40
0.6678933414
 40
0.7254646688
 40
0.7818577689
 40
0.8372761587
 40
0.8919441979
 40
0.9461012924
 40
1.0
 40
1.0
 40
1.0
 40
1.0
 10
19.4883590534
 20
13.812550675
 30
0.0
 10
19.4896096203
 20
13.8132726858
 30
0.0
 10
19.4920502437
 20
13.8147510625
 30
0.0
 10
19.4966709414
 20
13.8178395844
 30
0.0
 10
19.5009573632
 20
13.8211573447
 30
0.0
 10
19.5048501754
 20
13.8247010727
 30
0.0
 10
19.5075035486
 20
13.8274008139
 30
0.0
 10
19.5099245702
 20
13.8301731796
 30
0.0
 10
19.5121078359
 20
13.8330113798
 30
0.0
 10
19.5140476654
 20
13.835908835
 30
0.0
 10
19.5157388895
 20
13.8388587801
 30
0.0
 10
19.517177757
 20
13.8418538617
 30
0.0
 10
19.5183602638
 20
13.8448871024
 30
0.0
 10
19.5192831371
 20
13.8479511317
 30
0.0
 10
19.5199444695
 20
13.8510383609
 30
0.0
 10
19.5203419659
 20
13.8541409798
 30
0.0
 10
19.5204303839
 20
13.8562168268
 30
0.0
 10
19.5204304233
 20
13.8572517332
 30
0.0
  0
SPLINE
  5
594
100
AcDbEntity
  8
0
100
AcDbSpline
 62
7
  6
CONTINUOUS
 70
0
 71
3
 72
35
 73
31
 74
0
 42
0.0000001
 43
0.0000001
 44
0.0000000001
 40
0.0
 40
0.0
 40
0.0
 40
0.0
 40
0.0374147517
 40
0.0738814601
 40
0.1438470496
 40
0.2099032926
 40
0.2415437315
 40
0.2723044333
 40
0.3022398566
 40
0.3314196744
 40
0.3599280725
 40
0.3878608863
 40
0.4153268659
 40
0.4424447273
 40
0.4693409295
 40
0.4961480358
 40
0.523000377
 40
0.5500315376
 40
0.5773703073
 40
0.6051381123
 40
0.6334474623
 40
0.6623980742
 40
0.6920777062
 40
0.7225613786
 40
0.7539089354
 40
0.7861685298
 40
0.8193755789
 40
0.8535519028
 40
0.924829893
 40
1.0
 40
1.0
 40
1.0
 40
1.0
 10
19.3445407921
 20
13.914500667
 30
0.0
 10
19.3434457417
 20
13.9138684432
 30
0.0
 10
19.3413098025
 20
13.9125733325
 30
0.0
 10
19.3372710045
 20
13.9098652485
 30
0.0
 10
19.3326640882
 20
13.9062767113
 30
0.0
 10
19.3285839876
 20
13.9023253381
 30
0.0
 10
19.325754498
 20
13.8990294777
 30
0.0
 10
19.3238760543
 20
13.8965347202
 30
0.0
 10
19.3222163321
 20
13.8939879469
 30
0.0
 10
19.3207797343
 20
13.8913954281
 30
0.0
 10
19.3195696607
 20
13.888763854
 30
0.0
 10
19.3185898223
 20
13.8860995898
 30
0.0
 10
19.3178427794
 20
13.8834095106
 30
0.0
 10
19.3173303056
 20
13.8807005758
 30
0.0
 10
19.3170544799
 20
13.8779797132
 30
0.0
 10
19.31701573
 20
13.8752541362
 30
0.0
 10
19.317214003
 20
13.8725309361
 30
0.0
 10
19.317649306
 20
13.8698173196
 30
0.0
 10
19.3183198432
 20
13.8671203059
 30
0.0
 10
19.3192237701
 20
13.8644468027
 30
0.0
 10
19.3203590047
 20
13.8618038224
 30
0.0
 10
19.3217219098
 20
13.8591978128
 30
0.0
 10
19.3233090589
 20
13.8566353436
 30
0.0
 10
19.325116508
 20
13.8541229625
 30
0.0
 10
19.3271391524
 20
13.8516665529
 30
0.0
 10
19.3293720823
 20
13.8492723762
 30
0.0
 10
19.3318097135
 20
13.8469463726
 30
0.0
 10
19.3353738985
 20
13.8439008158
 30
0.0
 10
19.3403211235
 20
13.8403068163
 30
0.0
 10
19.3445832611
 20
13.8377769365
 30
0.0
 10
19.346818955
 20
13.8365705394
 30
0.0
  0
SPLINE
  5
595
100
AcDbEntity
  8
0
100
AcDbSpline
 62
7
  6
CONTINUOUS
 70
0
 71
3
 72
24
 73
20
 74
0
 42
0.0000001
 43
0.0000001
 44
0.0000000001
 40
0.0
 40
0.0
 40
0.0
 40
0.0
 40
0.0565448871
 40
0.1154639139
 40
0.1765094377
 40
0.2393853742
 40
0.3037556681
 40
0.3692534118
 40
0.4354905028
 40
0.5020643513
 40
0.5685662499
 40
0.6345889591
 40
0.6997335278
 40
0.763619724
 40
0.8258888642
 40
0.8862148141
 40
0.9443340162
 40
0.9724919101
 40
1.0
 40
1.0
 40
1.0
 40
1.0
 10
19.346818955
 20
13.8365705394
 30
0.0
 10
19.3490646578
 20
13.8353587415
 30
0.0
 10
19.3537533649
 20
13.8330714628
 30
0.0
 10
19.3611554786
 20
13.8301120057
 30
0.0
 10
19.3690133884
 20
13.8275747117
 30
0.0
 10
19.3772548764
 20
13.8254831127
 30
0.0
 10
19.3858048357
 20
13.8238562934
 30
0.0
 10
19.3945849406
 20
13.8227088424
 30
0.0
 10
19.403514829
 20
13.8220513605
 30
0.0
 10
19.4125126866
 20
13.8218900559
 30
0.0
 10
19.4214960431
 20
13.8222261288
 30
0.0
 10
19.4303825671
 20
13.823056573
 30
0.0
 10
19.43909088
 20
13.8243739664
 30
0.0
 10
19.4475412046
 20
13.826166093
 30
0.0
 10
19.4556562501
 20
13.8284165341
 30
0.0
 10
19.4633620529
 20
13.8311049353
 30
0.0
 10
19.4694474458
 20
13.8337175288
 30
0.0
 10
19.474042894
 20
13.8360110974
 30
0.0
 10
19.4762451984
 20
13.8372214276
 30
0.0
 10
19.4773202849
 20
13.8378421254
 30
0.0
  0
SPLINE
  5
596
100
AcDbEntity
  8
0
100
AcDbSpline
 62
7
  6
CONTINUOUS
 70
0
 71
3
 72
9
 73
5
 74
0
 42
0.0000001
 43
0.0000001
 44
0.0000000001
 40
0.0
 40
0.0
 40
0.0
 40
0.0
 40
0.4924317693
 40
1.0
 40
1.0
 40
1.0
 40
1.0
 10
19.4321437419
 20
13.8903772854
 30
0.0
 10
19.4363671853
 20
13.8876452657
 30
0.0
 10
19.4447825138
 20
13.881844619
 30
0.0
 10
19.4528706276
 20
13.8755973024
 30
0.0
 10
19.4568925823
 20
13.8723255091
 30
0.0
  0
SPLINE
  5
597
100
AcDbEntity
  8
0
100
AcDbSpline
 62
7
  6
CONTINUOUS
 70
0
 71
3
 72
9
 73
5
 74
0
 42
0.0000001
 43
0.0000001
 44
0.0000000001
 40
0.0
 40
0.0
 40
0.0
 40
0.0
 40
0.4923436136
 40
1.0
 40
1.0
 40
1.0
 40
1.0
 10
19.4356790845
 20
13.9131497035
 30
0.0
 10
19.4392665489
 20
13.9113326766
 30
0.0
 10
19.446448371
 20
13.9074325211
 30
0.0
 10
19.4534129218
 20
13.9031577974
 30
0.0
 10
19.4568923762
 20
13.9009024809
 30
0.0
  0
SPLINE
  5
598
100
AcDbEntity
  8
0
100
AcDbSpline
 62
7
  6
CONTINUOUS
 70
0
 71
3
 72
9
 73
5
 74
0
 42
0.0000001
 43
0.0000001
 44
0.0000000001
 40
0.0
 40
0.0
 40
0.0
 40
0.0
 40
0.5098074499
 40
1.0
 40
1.0
 40
1.0
 40
1.0
 10
19.4109304502
 20
13.9026245081
 30
0.0
 10
19.4150078877
 20
13.9046950848
 30
0.0
 10
19.4231382107
 20
13.9085024128
 30
0.0
 10
19.4315175516
 20
13.9117297939
 30
0.0
 10
19.4356790845
 20
13.9131497035
 30
0.0
  0
SPLINE
  5
599
100
AcDbEntity
  8
0
100
AcDbSpline
 62
7
  6
CONTINUOUS
 70
0
 71
3
 72
9
 73
5
 74
0
 42
0.0000001
 43
0.0000001
 44
0.0000000001
 40
0.0
 40
0.0
 40
0.0
 40
0.0
 40
0.4901932229
 40
1.0
 40
1.0
 40
1.0
 40
1.0
 10
19.3861816098
 20
13.9131495846
 30
0.0
 10
19.3903431802
 20
13.911729694
 30
0.0
 10
19.398722588
 20
13.9085023539
 30
0.0
 10
19.4068529814
 20
13.9046950638
 30
0.0
 10
19.4109304502
 20
13.9026245081
 30
0.0
  0
SPLINE
  5
59A
100
AcDbEntity
  8
0
100
AcDbSpline
 62
7
  6
CONTINUOUS
 70
0
 71
3
 72
9
 73
5
 74
0
 42
0.0000001
 43
0.0000001
 44
0.0000000001
 40
0.0
 40
0.0
 40
0.0
 40
0.0
 40
0.5075687381
 40
1.0
 40
1.0
 40
1.0
 40
1.0
 10
19.3649687007
 20
13.8723252882
 30
0.0
 10
19.368990624
 20
13.8755971024
 30
0.0
 10
19.3770786684
 20
13.8818444562
 30
0.0
 10
19.3854939289
 20
13.8876451448
 30
0.0
 10
19.389717335
 20
13.8903771835
 30
0.0
  0
SPLINE
  5
59B
100
AcDbEntity
  8
0
100
AcDbSpline
 62
7
  6
CONTINUOUS
 70
0
 71
3
 72
28
 73
24
 74
0
 42
0.0000001
 43
0.0000001
 44
0.0000000001
 40
0.0
 40
0.0
 40
0.0
 40
0.0
 40
0.0240729177
 40
0.04821537
 40
0.0724961649
 40
0.0969817591
 40
0.1217357227
 40
0.1468185438
 40
0.1722864734
 40
0.1981903654
 40
0.2514672277
 40
0.3069794863
 40
0.3356541046
 40
0.3649649887
 40
0.4255375389
 40
0.4887809782
 40
0.5546978553
 40
0.6232327193
 40
0.694277662
 40
0.7676823744
 40
0.8432562557
 40
0.9207788842
 40
1.0
 40
1.0
 40
1.0
 40
1.0
 10
19.3014306536
 20
13.8572530377
 30
0.0
 10
19.3014306517
 20
13.856450401
 30
0.0
 10
19.3014836974
 20
13.8548423071
 30
0.0
 10
19.301722343
 20
13.8524352962
 30
0.0
 10
19.3021199534
 20
13.8500353622
 30
0.0
 10
19.3026755623
 20
13.8476461571
 30
0.0
 10
19.3033882685
 20
13.845271128
 30
0.0
 10
19.3042572018
 20
13.8429138416
 30
0.0
 10
19.3052811239
 20
13.8405777218
 30
0.0
 10
19.3068650134
 20
13.8374668962
 30
0.0
 10
19.3092387373
 20
13.8336434006
 30
0.0
 10
19.3120500956
 20
13.8300138264
 30
0.0
 10
19.3145725032
 20
13.8271913867
 30
0.0
 10
19.3173388368
 20
13.824365994
 30
0.0
 10
19.3211476753
 20
13.8209563394
 30
0.0
 10
19.3261862111
 20
13.8171213998
 30
0.0
 10
19.3317131454
 20
13.8135195566
 30
0.0
 10
19.3376966459
 20
13.8101716651
 30
0.0
 10
19.3441021604
 20
13.8070960675
 30
0.0
 10
19.3508931057
 20
13.8043108933
 30
0.0
 10
19.3580302378
 20
13.8018312878
 30
0.0
 10
19.3654724932
 20
13.7996723076
 30
0.0
 10
19.3705599833
 20
13.7984659813
 30
0.0
 10
19.3731437971
 20
13.7979175231
 30
0.0
  0
SPLINE
  5
59C
100
AcDbEntity
  8
0
100
AcDbSpline
 62
7
  6
CONTINUOUS
 70
0
 71
3
 72
15
 73
11
 74
0
 42
0.0000001
 43
0.0000001
 44
0.0000000001
 40
0.0
 40
0.0
 40
0.0
 40
0.0
 40
0.1227526931
 40
0.2474243399
 40
0.3733925304
 40
0.5000129832
 40
0.6266318847
 40
0.7525952182
 40
0.8772583014
 40
1.0
 40
1.0
 40
1.0
 40
1.0
 10
19.3731437971
 20
13.7979175231
 30
0.0
 10
19.3761916356
 20
13.7972705678
 30
0.0
 10
19.3823724906
 20
13.7961375169
 30
0.0
 10
19.3917764287
 20
13.7949259498
 30
0.0
 10
19.4013285666
 20
13.7941956553
 30
0.0
 10
19.4109547924
 20
13.7939525834
 30
0.0
 10
19.4205808334
 20
13.7941981075
 30
0.0
 10
19.4301324017
 20
13.7949308645
 30
0.0
 10
19.4395354104
 20
13.7961447965
 30
0.0
 10
19.4457154686
 20
13.7972794496
 30
0.0
 10
19.4487628525
 20
13.7979272016
 30
0.0
  0
SPLINE
  5
59D
100
AcDbEntity
  8
0
100
AcDbSpline
 62
7
  6
CONTINUOUS
 70
0
 71
3
 72
11
 73
7
 74
0
 42
0.0000001
 43
0.0000001
 44
0.0000000001
 40
0.0
 40
0.0
 40
0.0
 40
0.0
 40
0.2608695352
 40
0.5148851897
 40
0.7614747405
 40
1.0
 40
1.0
 40
1.0
 40
1.0
 10
19.4636130117
 20
13.8018317925
 30
0.0
 10
19.4658525822
 20
13.802541375
 30
0.0
 10
19.4702402665
 20
13.8040477787
 30
0.0
 10
19.4766077248
 20
13.8066018751
 30
0.0
 10
19.4826462624
 20
13.8094100402
 30
0.0
 10
19.4864987675
 20
13.8114766448
 30
0.0
 10
19.4883590534
 20
13.812550675
 30
0.0
  0
SPLINE
  5
59E
100
AcDbEntity
  8
AXIS_COSMETIC_THREADS
100
AcDbSpline
 62
7
  6
CONTINUOUS
 70
0
 71
3
 72
11
 73
7
 74
0
 42
0.0000001
 43
0.0000001
 44
0.0000000001
 40
0.0
 40
0.0
 40
0.0
 40
0.0
 40
0.2375217529
 40
0.4838414541
 40
0.7382320154
 40
1.0
 40
1.0
 40
1.0
 40
1.0
 10
15.0335863319
 20
13.7849534278
 30
0.0
 10
15.0315128244
 20
13.7837562948
 30
0.0
 10
15.0272031443
 20
13.7814639537
 30
0.0
 10
15.0204219858
 20
13.7783886433
 30
0.0
 10
15.0132433876
 20
13.7756309688
 30
0.0
 10
15.0082876142
 20
13.7740365175
 30
0.0
 10
15.0057556069
 20
13.7732938227
 30
0.0
  0
SPLINE
  5
59F
100
AcDbEntity
  8
AXIS_COSMETIC_THREADS
100
AcDbSpline
 62
7
  6
CONTINUOUS
 70
0
 71
3
 72
18
 73
14
 74
0
 42
0.0000001
 43
0.0000001
 44
0.0000000001
 40
0.0
 40
0.0
 40
0.0
 40
0.0
 40
0.1209996681
 40
0.2453789316
 40
0.3720693073
 40
0.4999337377
 40
0.6278029021
 40
0.6913822494
 40
0.7545261541
 40
0.8170937297
 40
0.8789485862
 40
0.9399588348
 40
1.0
 40
1.0
 40
1.0
 40
1.0
 10
15.0057556069
 20
13.7732938227
 30
0.0
 10
15.001871266
 20
13.7721544579
 30
0.0
 10
14.99389933
 20
13.7701567623
 30
0.0
 10
14.9816262132
 20
13.7680221009
 30
0.0
 10
14.9690050113
 20
13.7667279803
 30
0.0
 10
14.9562091156
 20
13.7662923839
 30
0.0
 10
14.9455236484
 20
13.7666503016
 30
0.0
 10
14.9370355678
 20
13.7673715058
 30
0.0
 10
14.9307466078
 20
13.7681254131
 30
0.0
 10
14.9245450732
 20
13.7690909475
 30
0.0
 10
14.9184520893
 20
13.7702644411
 30
0.0
 10
14.9124888
 20
13.7716422646
 30
0.0
 10
14.9085791843
 20
13.7727028408
 30
0.0
 10
14.9066513826
 20
13.7732669909
 30
0.0
  0
SPLINE
  5
5A0
100
AcDbEntity
  8
AXIS_COSMETIC_THREADS
100
AcDbSpline
 62
7
  6
CONTINUOUS
 70
0
 71
3
 72
23
 73
19
 74
0
 42
0.0000001
 43
0.0000001
 44
0.0000000001
 40
0.0
 40
0.0
 40
0.0
 40
0.0
 40
0.0787897829
 40
0.1556745202
 40
0.2304768769
 40
0.3030471871
 40
0.3732645526
 40
0.4410431463
 40
0.5063363223
 40
0.5691410164
 40
0.6295052629
 40
0.6875301981
 40
0.7433790021
 40
0.7972758035
 40
0.8495108319
 40
0.900433972
 40
0.950449235
 40
1.0
 40
1.0
 40
1.0
 40
1.0
 10
14.9066513826
 20
13.7732669909
 30
0.0
 10
14.9044348636
 20
13.7739156309
 30
0.0
 10
14.9000838196
 20
13.7752971073
 30
0.0
 10
14.893748077
 20
13.7776494478
 30
0.0
 10
14.8877068009
 20
13.7802479521
 30
0.0
 10
14.8819884682
 20
13.7830800368
 30
0.0
 10
14.8766200521
 20
13.786132795
 30
0.0
 10
14.8716267631
 20
13.7893919156
 30
0.0
 10
14.8670321045
 20
13.7928423478
 30
0.0
 10
14.862857894
 20
13.7964683787
 30
0.0
 10
14.8591237395
 20
13.8002531575
 30
0.0
 10
14.8558479448
 20
13.804179789
 30
0.0
 10
14.8530460811
 20
13.8082299451
 30
0.0
 10
14.8507328317
 20
13.8123854492
 30
0.0
 10
14.8489197251
 20
13.8166265074
 30
0.0
 10
14.8476173114
 20
13.8209333734
 30
0.0
 10
14.8468326096
 20
13.825283897
 30
0.0
 10
14.8466578188
 20
13.8282053254
 30
0.0
 10
14.8466578575
 20
13.8296577526
 30
0.0
  0
SPLINE
  5
5A1
100
AcDbEntity
  8
0
100
AcDbSpline
 62
7
  6
CONTINUOUS
 70
0
 71
3
 72
9
 73
5
 74
0
 42
0.0000001
 43
0.0000001
 44
0.0000000001
 40
0.0
 40
0.0
 40
0.0
 40
0.0
 40
0.5098067771
 40
1.0
 40
1.0
 40
1.0
 40
1.0
 10
14.9349446136
 20
13.8903664755
 30
0.0
 10
14.9308671449
 20
13.8924370312
 30
0.0
 10
14.9227367515
 20
13.8962443213
 30
0.0
 10
14.9143573437
 20
13.8994716614
 30
0.0
 10
14.9101957732
 20
13.900891552
 30
0.0
  0
SPLINE
  5
5A2
100
AcDbEntity
  8
0
100
AcDbSpline
 62
7
  6
CONTINUOUS
 70
0
 71
3
 72
9
 73
5
 74
0
 42
0.0000001
 43
0.0000001
 44
0.0000000001
 40
0.0
 40
0.0
 40
0.0
 40
0.0
 40
0.5076563864
 40
1.0
 40
1.0
 40
1.0
 40
1.0
 10
14.9314092711
 20
13.8600673576
 30
0.0
 10
14.9279298166
 20
13.862322674
 30
0.0
 10
14.9209652659
 20
13.8665973978
 30
0.0
 10
14.9137834437
 20
13.8704975533
 30
0.0
 10
14.9101959793
 20
13.8723145802
 30
0.0
  0
SPLINE
  5
5A3
100
AcDbEntity
  8
AXIS_COSMETIC_THREADS
100
AcDbSpline
 62
7
  6
CONTINUOUS
 70
0
 71
3
 72
20
 73
16
 74
0
 42
0.0000001
 43
0.0000001
 44
0.0000000001
 40
0.0
 40
0.0
 40
0.0
 40
0.0
 40
0.0752254456
 40
0.1485782107
 40
0.2894346172
 40
0.4226023805
 40
0.4864447708
 40
0.5485391903
 40
0.6678535922
 40
0.7254313551
 40
0.7818315355
 40
0.8372570493
 40
0.8919311993
 40
0.9460949153
 40
1.0
 40
1.0
 40
1.0
 40
1.0
 10
15.0335863319
 20
13.7849534278
 30
0.0
 10
15.0348370533
 20
13.7856755278
 30
0.0
 10
15.0372778187
 20
13.7871539385
 30
0.0
 10
15.0418986974
 20
13.7902425664
 30
0.0
 10
15.0471813945
 20
13.7943315701
 30
0.0
 10
15.0518776969
 20
13.7988269307
 30
0.0
 10
15.0551519012
 20
13.8025758339
 30
0.0
 10
15.0580240897
 20
13.8063094095
 30
0.0
 10
15.0604640856
 20
13.8102157636
 30
0.0
 10
15.0624047756
 20
13.8142561501
 30
0.0
 10
15.0635873214
 20
13.817289456
 30
0.0
 10
15.0645104982
 20
13.8203533276
 30
0.0
 10
15.0651715579
 20
13.8234405864
 30
0.0
 10
15.0655692047
 20
13.826543118
 30
0.0
 10
15.0656577489
 20
13.8286189381
 30
0.0
 10
15.0656577765
 20
13.8296538282
 30
0.0
  0
SPLINE
  5
5A4
100
AcDbEntity
  8
0
100
AcDbSpline
 62
7
  6
CONTINUOUS
 70
0
 71
3
 72
9
 73
5
 74
0
 42
0.0000001
 43
0.0000001
 44
0.0000000001
 40
0.0
 40
0.0
 40
0.0
 40
0.0
 40
0.4901934393
 40
1.0
 40
1.0
 40
1.0
 40
1.0
 10
15.0021196548
 20
13.900891773
 30
0.0
 10
14.9979581143
 20
13.8994718607
 30
0.0
 10
14.9895787738
 20
13.8962444789
 30
0.0
 10
14.9814484509
 20
13.8924371506
 30
0.0
 10
14.9773710205
 20
13.8903665775
 30
0.0
  0
SPLINE
  5
5A5
100
AcDbEntity
  8
0
100
AcDbSpline
 62
7
  6
CONTINUOUS
 70
0
 71
3
 72
46
 73
42
 74
0
 42
0.0000001
 43
0.0000001
 44
0.0000000001
 40
0.0
 40
0.0
 40
0.0
 40
0.0
 40
0.0305575556
 40
0.0617415503
 40
0.0934990488
 40
0.1258036174
 40
0.1586302406
 40
0.1919237773
 40
0.2256117849
 40
0.2596133067
 40
0.2938410308
 40
0.3282012542
 40
0.3625956331
 40
0.3969259676
 40
0.4310950392
 40
0.4650105281
 40
0.4985861513
 40
0.5317449831
 40
0.5644219021
 40
0.5965647813
 40
0.6281392376
 40
0.6591263098
 40
0.6895289369
 40
0.7193667719
 40
0.7486798418
 40
0.7631600382
 40
0.7775311042
 40
0.8059774679
 40
0.8341065827
 40
0.848077897
 40
0.8619993543
 40
0.8758808317
 40
0.8897286775
 40
0.9035513709
 40
0.9173588039
 40
0.9311524115
 40
0.9449300943
 40
0.9586917095
 40
0.97244517
 40
0.9862081844
 40
1.0
 40
1.0
 40
1.0
 40
1.0
 10
14.8839071012
 20
13.9133893408
 30
0.0
 10
14.8858566709
 20
13.9145149186
 30
0.0
 10
14.8898702491
 20
13.9166623318
 30
0.0
 10
14.8961304484
 20
13.9195442224
 30
0.0
 10
14.9026633037
 20
13.922114683
 30
0.0
 10
14.9094391751
 20
13.9243689013
 30
0.0
 10
14.9164302457
 20
13.9263040062
 30
0.0
 10
14.9236069787
 20
13.9279166242
 30
0.0
 10
14.9309372475
 20
13.9292019452
 30
0.0
 10
14.9383871443
 20
13.9301566312
 30
0.0
 10
14.945921865
 20
13.9307776606
 30
0.0
 10
14.953505658
 20
13.9310633341
 30
0.0
 10
14.9611022116
 20
13.9310125405
 30
0.0
 10
14.9686749846
 20
13.9306254858
 30
0.0
 10
14.9761877982
 20
13.9299034716
 30
0.0
 10
14.9836050741
 20
13.9288486367
 30
0.0
 10
14.9908923436
 20
13.9274642791
 30
0.0
 10
14.9980163957
 20
13.925753869
 30
0.0
 10
15.0049457307
 20
13.9237218109
 30
0.0
 10
15.0116505131
 20
13.9213718721
 30
0.0
 10
15.0181027258
 20
13.9187080313
 30
0.0
 10
15.0242759364
 20
13.9157331179
 30
0.0
 10
15.0301446559
 20
13.9124488538
 30
0.0
 10
15.0356839521
 20
13.9088564284
 30
0.0
 10
15.0400220029
 20
13.9055912049
 30
0.0
 10
15.0432957432
 20
13.9028250726
 30
0.0
 10
15.0464125695
 20
13.8999771279
 30
0.0
 10
15.050056508
 20
13.8962214808
 30
0.0
 10
15.0533456101
 20
13.8921878688
 30
0.0
 10
15.0557271726
 20
13.8888156332
 30
0.0
 10
15.0573816809
 20
13.8862192521
 30
0.0
 10
15.0589026403
 20
13.8835529018
 30
0.0
 10
15.0602844852
 20
13.8808199364
 30
0.0
 10
15.061521261
 20
13.878024215
 30
0.0
 10
15.062606459
 20
13.8751704496
 30
0.0
 10
15.0635354195
 20
13.8722655199
 30
0.0
 10
15.0643035862
 20
13.8693174291
 30
0.0
 10
15.0649059706
 20
13.8663340149
 30
0.0
 10
15.0653385988
 20
13.8633223316
 30
0.0
 10
15.0655996196
 20
13.8602888054
 30
0.0
 10
15.065657817
 20
13.8582583684
 30
0.0
 10
15.065657817
 20
13.8572423295
 30
0.0
  0
SPLINE
  5
5A6
100
AcDbEntity
  8
0
100
AcDbSpline
 62
7
  6
CONTINUOUS
 70
0
 71
3
 72
22
 73
18
 74
0
 42
0.0000001
 43
0.0000001
 44
0.0000000001
 40
0.0
 40
0.0
 40
0.0
 40
0.0
 40
0.060933669
 40
0.1217302104
 40
0.1825587624
 40
0.2434906535
 40
0.304514742
 40
0.3656412951
 40
0.4269516738
 40
0.4885113676
 40
0.5504052624
 40
0.6127229563
 40
0.6755350057
 40
0.7389429868
 40
0.8030443036
 40
0.8679091943
 40
1.0
 40
1.0
 40
1.0
 40
1.0
 10
14.846657817
 20
13.8572423295
 30
0.0
 10
14.846657817
 20
13.8586768479
 30
0.0
 10
14.8467738825
 20
13.8615440019
 30
0.0
 10
14.8472935595
 20
13.8658147613
 30
0.0
 10
14.8481531617
 20
13.8700303926
 30
0.0
 10
14.8493411035
 20
13.8741707716
 30
0.0
 10
14.850844003
 20
13.8782148578
 30
0.0
 10
14.8526491829
 20
13.8821429091
 30
0.0
 10
14.8547381936
 20
13.885941711
 30
0.0
 10
14.8570952247
 20
13.8896015045
 30
0.0
 10
14.859704403
 20
13.893115262
 30
0.0
 10
14.8625501254
 20
13.8964787108
 30
0.0
 10
14.8656187326
 20
13.8996893169
 30
0.0
 10
14.8688982165
 20
13.9027457438
 30
0.0
 10
14.8723778018
 20
13.9056482416
 30
0.0
 10
14.8772978248
 20
13.9093346435
 30
0.0
 10
14.8812140002
 20
13.9118344874
 30
0.0
 10
14.8839071012
 20
13.9133893408
 30
0.0
  0
SPLINE
  5
5A7
100
AcDbEntity
  8
0
100
AcDbSpline
 62
7
  6
CONTINUOUS
 70
0
 71
3
 72
54
 73
50
 74
0
 42
0.0000001
 43
0.0000001
 44
0.0000000001
 40
0.0
 40
0.0
 40
0.0
 40
0.0
 40
0.0156881636
 40
0.0309875416
 40
0.060369457
 40
0.0881446829
 40
0.1014600927
 40
0.1144115732
 40
0.12702024
 40
0.1393128697
 40
0.151322306
 40
0.1630859675
 40
0.1746463111
 40
0.186050142
 40
0.1973474056
 40
0.2085907906
 40
0.2198341805
 40
0.2311314718
 40
0.2425353368
 40
0.2540957404
 40
0.2658595314
 40
0.2778690805
 40
0.2901617214
 40
0.302770225
 40
0.3157215517
 40
0.3290373235
 40
0.342734753
 40
0.3568254186
 40
0.3862021052
 40
0.4014993476
 40
0.4171943002
 40
0.4332794542
 40
0.4497433538
 40
0.4837440352
 40
0.5190634237
 40
0.5555291558
 40
0.5929418774
 40
0.6310821566
 40
0.6697157732
 40
0.7085983333
 40
0.7474809094
 40
0.7861144818
 40
0.8242545333
 40
0.8616675057
 40
0.8981330561
 40
0.9334501125
 40
0.967455752
 40
0.9839216815
 40
1.0
 40
1.0
 40
1.0
 40
1.0
 10
15.0225475635
 20
13.8378314174
 30
0.0
 10
15.0236198703
 20
13.8384505103
 30
0.0
 10
15.0257125646
 20
13.8397181245
 30
0.0
 10
15.0296748059
 20
13.842366555
 30
0.0
 10
15.0342046718
 20
13.8458727207
 30
0.0
 10
15.0382318016
 20
13.8497275058
 30
0.0
 10
15.0410389016
 20
13.8529419672
 30
0.0
 10
15.0429109431
 20
13.8553756495
 30
0.0
 10
15.044574211
 20
13.8578600903
 30
0.0
 10
15.0460243068
 20
13.8603895543
 30
0.0
 10
15.0472580071
 20
13.8629577186
 30
0.0
 10
15.0482718834
 20
13.865558598
 30
0.0
 10
15.0490631304
 20
13.8681858899
 30
0.0
 10
15.0496301113
 20
13.8708330183
 30
0.0
 10
15.0499708567
 20
13.8734935411
 30
0.0
 10
15.0500843898
 20
13.8761607516
 30
0.0
 10
15.0499708588
 20
13.8788279657
 30
0.0
 10
15.0496300743
 20
13.8814884886
 30
0.0
 10
15.0490631034
 20
13.8841356278
 30
0.0
 10
15.0482718496
 20
13.8867629377
 30
0.0
 10
15.0472579156
 20
13.8893638202
 30
0.0
 10
15.0460241967
 20
13.8919319976
 30
0.0
 10
15.0445740994
 20
13.8944614536
 30
0.0
 10
15.0429108456
 20
13.8969458885
 30
0.0
 10
15.041038853
 20
13.8993795542
 30
0.0
 10
15.0389628662
 20
13.9017568111
 30
0.0
 10
15.0366875218
 20
13.9040717873
 30
0.0
 10
15.0333497633
 20
13.9071101684
 30
0.0
 10
15.0296749232
 20
13.9099548424
 30
0.0
 10
15.0257128656
 20
13.9126031553
 30
0.0
 10
15.0225336763
 20
13.9145287787
 30
0.0
 10
15.0191949494
 20
13.9163616783
 30
0.0
 10
15.0144911684
 20
13.9187016244
 30
0.0
 10
15.0082567847
 20
13.9213597577
 30
0.0
 10
15.0003574796
 20
13.9240827454
 30
0.0
 10
14.9920354763
 20
13.9263467873
 30
0.0
 10
14.9833705734
 20
13.9281304774
 30
0.0
 10
14.9744454062
 20
13.9294169618
 30
0.0
 10
14.9653452793
 20
13.9301937118
 30
0.0
 10
14.9561572425
 20
13.9304533818
 30
0.0
 10
14.9469692102
 20
13.9301936534
 30
0.0
 10
14.9378691113
 20
13.9294168193
 30
0.0
 10
14.9289439502
 20
13.9281303052
 30
0.0
 10
14.9202790773
 20
13.9263465211
 30
0.0
 10
14.9119572802
 20
13.9240824093
 30
0.0
 10
14.9040577534
 20
13.921359505
 30
0.0
 10
14.8978231071
 20
13.9187009233
 30
0.0
 10
14.893119435
 20
13.916360933
 30
0.0
 10
14.890867045
 20
13.9151244485
 30
0.0
 10
14.8897680706
 20
13.9144899591
 30
0.0
  0
SPLINE
  5
5A8
100
AcDbEntity
  8
0
100
AcDbSpline
 62
7
  6
CONTINUOUS
 70
0
 71
3
 72
22
 73
18
 74
0
 42
0.0000001
 43
0.0000001
 44
0.0000000001
 40
0.0
 40
0.0
 40
0.0
 40
0.0
 40
0.0752060727
 40
0.1485484216
 40
0.28940012
 40
0.3569440104
 40
0.4226013826
 40
0.4864332337
 40
0.5485205049
 40
0.6089644266
 40
0.6678933414
 40
0.7254646688
 40
0.7818577689
 40
0.8372761587
 40
0.8919441979
 40
0.9461012924
 40
1.0
 40
1.0
 40
1.0
 40
1.0
 10
15.0335863319
 20
13.812539967
 30
0.0
 10
15.0348368988
 20
13.8132619778
 30
0.0
 10
15.0372775223
 20
13.8147403546
 30
0.0
 10
15.04189822
 20
13.8178288764
 30
0.0
 10
15.0461846418
 20
13.8211466367
 30
0.0
 10
15.0500774539
 20
13.8246903648
 30
0.0
 10
15.0527308272
 20
13.827390106
 30
0.0
 10
15.0551518488
 20
13.8301624716
 30
0.0
 10
15.0573351145
 20
13.8330006719
 30
0.0
 10
15.0592749439
 20
13.8358981271
 30
0.0
 10
15.0609661681
 20
13.8388480721
 30
0.0
 10
15.0624050355
 20
13.8418431537
 30
0.0
 10
15.0635875424
 20
13.8448763944
 30
0.0
 10
15.0645104157
 20
13.8479404238
 30
0.0
 10
15.0651717481
 20
13.851027653
 30
0.0
 10
15.0655692445
 20
13.8541302719
 30
0.0
 10
15.0656576625
 20
13.8562061188
 30
0.0
 10
15.0656577019
 20
13.8572410252
 30
0.0
  0
SPLINE
  5
5A9
100
AcDbEntity
  8
0
100
AcDbSpline
 62
7
  6
CONTINUOUS
 70
0
 71
3
 72
35
 73
31
 74
0
 42
0.0000001
 43
0.0000001
 44
0.0000000001
 40
0.0
 40
0.0
 40
0.0
 40
0.0
 40
0.0374147517
 40
0.0738814601
 40
0.1438470496
 40
0.2099032926
 40
0.2415437315
 40
0.2723044333
 40
0.3022398566
 40
0.3314196744
 40
0.3599280725
 40
0.3878608863
 40
0.4153268659
 40
0.4424447273
 40
0.4693409295
 40
0.4961480358
 40
0.523000377
 40
0.5500315376
 40
0.5773703073
 40
0.6051381123
 40
0.6334474623
 40
0.6623980742
 40
0.6920777062
 40
0.7225613786
 40
0.7539089354
 40
0.7861685298
 40
0.8193755789
 40
0.8535519028
 40
0.924829893
 40
1.0
 40
1.0
 40
1.0
 40
1.0
 10
14.8897680706
 20
13.9144899591
 30
0.0
 10
14.8886730203
 20
13.9138577353
 30
0.0
 10
14.8865370811
 20
13.9125626245
 30
0.0
 10
14.8824982831
 20
13.9098545406
 30
0.0
 10
14.8778913667
 20
13.9062660033
 30
0.0
 10
14.8738112662
 20
13.9023146301
 30
0.0
 10
14.8709817766
 20
13.8990187698
 30
0.0
 10
14.8691033329
 20
13.8965240123
 30
0.0
 10
14.8674436106
 20
13.8939772389
 30
0.0
 10
14.8660070129
 20
13.8913847201
 30
0.0
 10
14.8647969392
 20
13.888753146
 30
0.0
 10
14.8638171009
 20
13.8860888818
 30
0.0
 10
14.863070058
 20
13.8833988026
 30
0.0
 10
14.8625575842
 20
13.8806898679
 30
0.0
 10
14.8622817585
 20
13.8779690053
 30
0.0
 10
14.8622430086
 20
13.8752434282
 30
0.0
 10
14.8624412816
 20
13.8725202281
 30
0.0
 10
14.8628765846
 20
13.8698066116
 30
0.0
 10
14.8635471218
 20
13.867109598
 30
0.0
 10
14.8644510486
 20
13.8644360948
 30
0.0
 10
14.8655862833
 20
13.8617931145
 30
0.0
 10
14.8669491883
 20
13.8591871049
 30
0.0
 10
14.8685363375
 20
13.8566246356
 30
0.0
 10
14.8703437865
 20
13.8541122545
 30
0.0
 10
14.8723664309
 20
13.8516558449
 30
0.0
 10
14.8745993608
 20
13.8492616683
 30
0.0
 10
14.8770369921
 20
13.8469356646
 30
0.0
 10
14.8806011771
 20
13.8438901079
 30
0.0
 10
14.885548402
 20
13.8402961084
 30
0.0
 10
14.8898105397
 20
13.8377662286
 30
0.0
 10
14.8920462336
 20
13.8365598315
 30
0.0
  0
SPLINE
  5
5AA
100
AcDbEntity
  8
0
100
AcDbSpline
 62
7
  6
CONTINUOUS
 70
0
 71
3
 72
24
 73
20
 74
0
 42
0.0000001
 43
0.0000001
 44
0.0000000001
 40
0.0
 40
0.0
 40
0.0
 40
0.0
 40
0.0565448871
 40
0.1154639139
 40
0.1765094377
 40
0.2393853742
 40
0.3037556681
 40
0.3692534118
 40
0.4354905028
 40
0.5020643513
 40
0.5685662499
 40
0.6345889591
 40
0.6997335278
 40
0.763619724
 40
0.8258888642
 40
0.8862148141
 40
0.9443340162
 40
0.9724919101
 40
1.0
 40
1.0
 40
1.0
 40
1.0
 10
14.8920462336
 20
13.8365598315
 30
0.0
 10
14.8942919363
 20
13.8353480335
 30
0.0
 10
14.8989806435
 20
13.8330607548
 30
0.0
 10
14.9063827572
 20
13.8301012977
 30
0.0
 10
14.9142406669
 20
13.8275640037
 30
0.0
 10
14.922482155
 20
13.8254724047
 30
0.0
 10
14.9310321143
 20
13.8238455854
 30
0.0
 10
14.9398122192
 20
13.8226981345
 30
0.0
 10
14.9487421075
 20
13.8220406526
 30
0.0
 10
14.9577399652
 20
13.8218793479
 30
0.0
 10
14.9667233217
 20
13.8222154209
 30
0.0
 10
14.9756098457
 20
13.8230458651
 30
0.0
 10
14.9843181585
 20
13.8243632584
 30
0.0
 10
14.9927684831
 20
13.8261553851
 30
0.0
 10
15.0008835286
 20
13.8284058262
 30
0.0
 10
15.0085893314
 20
13.8310942273
 30
0.0
 10
15.0146747243
 20
13.8337068209
 30
0.0
 10
15.0192701726
 20
13.8360003894
 30
0.0
 10
15.021472477
 20
13.8372107196
 30
0.0
 10
15.0225475635
 20
13.8378314174
 30
0.0
  0
SPLINE
  5
5AB
100
AcDbEntity
  8
0
100
AcDbSpline
 62
7
  6
CONTINUOUS
 70
0
 71
3
 72
9
 73
5
 74
0
 42
0.0000001
 43
0.0000001
 44
0.0000000001
 40
0.0
 40
0.0
 40
0.0
 40
0.0
 40
0.4924317693
 40
1.0
 40
1.0
 40
1.0
 40
1.0
 10
14.9773710205
 20
13.8903665775
 30
0.0
 10
14.9815944639
 20
13.8876345577
 30
0.0
 10
14.9900097924
 20
13.8818339111
 30
0.0
 10
14.9980979061
 20
13.8755865944
 30
0.0
 10
15.0021198609
 20
13.8723148012
 30
0.0
  0
SPLINE
  5
5AC
100
AcDbEntity
  8
0
100
AcDbSpline
 62
7
  6
CONTINUOUS
 70
0
 71
3
 72
9
 73
5
 74
0
 42
0.0000001
 43
0.0000001
 44
0.0000000001
 40
0.0
 40
0.0
 40
0.0
 40
0.0
 40
0.4923436136
 40
1.0
 40
1.0
 40
1.0
 40
1.0
 10
14.980906363
 20
13.9131389956
 30
0.0
 10
14.9844938274
 20
13.9113219687
 30
0.0
 10
14.9916756496
 20
13.9074218132
 30
0.0
 10
14.9986402003
 20
13.9031470894
 30
0.0
 10
15.0021196548
 20
13.900891773
 30
0.0
  0
SPLINE
  5
5AD
100
AcDbEntity
  8
0
100
AcDbSpline
 62
7
  6
CONTINUOUS
 70
0
 71
3
 72
9
 73
5
 74
0
 42
0.0000001
 43
0.0000001
 44
0.0000000001
 40
0.0
 40
0.0
 40
0.0
 40
0.0
 40
0.5098074499
 40
1.0
 40
1.0
 40
1.0
 40
1.0
 10
14.9561577287
 20
13.9026138001
 30
0.0
 10
14.9602351663
 20
13.9046843769
 30
0.0
 10
14.9683654893
 20
13.9084917048
 30
0.0
 10
14.9767448301
 20
13.911719086
 30
0.0
 10
14.980906363
 20
13.9131389956
 30
0.0
  0
SPLINE
  5
5AE
100
AcDbEntity
  8
0
100
AcDbSpline
 62
7
  6
CONTINUOUS
 70
0
 71
3
 72
9
 73
5
 74
0
 42
0.0000001
 43
0.0000001
 44
0.0000000001
 40
0.0
 40
0.0
 40
0.0
 40
0.0
 40
0.4901932229
 40
1.0
 40
1.0
 40
1.0
 40
1.0
 10
14.9314088883
 20
13.9131388766
 30
0.0
 10
14.9355704588
 20
13.911718986
 30
0.0
 10
14.9439498666
 20
13.9084916459
 30
0.0
 10
14.95208026
 20
13.9046843559
 30
0.0
 10
14.9561577287
 20
13.9026138001
 30
0.0
  0
SPLINE
  5
5AF
100
AcDbEntity
  8
0
100
AcDbSpline
 62
7
  6
CONTINUOUS
 70
0
 71
3
 72
9
 73
5
 74
0
 42
0.0000001
 43
0.0000001
 44
0.0000000001
 40
0.0
 40
0.0
 40
0.0
 40
0.0
 40
0.5075687381
 40
1.0
 40
1.0
 40
1.0
 40
1.0
 10
14.9101959793
 20
13.8723145802
 30
0.0
 10
14.9142179026
 20
13.8755863945
 30
0.0
 10
14.9223059469
 20
13.8818337483
 30
0.0
 10
14.9307212075
 20
13.8876344368
 30
0.0
 10
14.9349446136
 20
13.8903664755
 30
0.0
  0
SPLINE
  5
5B0
100
AcDbEntity
  8
0
100
AcDbSpline
 62
7
  6
CONTINUOUS
 70
0
 71
3
 72
28
 73
24
 74
0
 42
0.0000001
 43
0.0000001
 44
0.0000000001
 40
0.0
 40
0.0
 40
0.0
 40
0.0
 40
0.0240729177
 40
0.04821537
 40
0.0724961649
 40
0.0969817591
 40
0.1217357227
 40
0.1468185438
 40
0.1722864734
 40
0.1981903654
 40
0.2514672277
 40
0.3069794863
 40
0.3356541046
 40
0.3649649887
 40
0.4255375389
 40
0.4887809782
 40
0.5546978553
 40
0.6232327193
 40
0.694277662
 40
0.7676823744
 40
0.8432562557
 40
0.9207788842
 40
1.0
 40
1.0
 40
1.0
 40
1.0
 10
14.8466579322
 20
13.8572423297
 30
0.0
 10
14.8466579302
 20
13.856439693
 30
0.0
 10
14.846710976
 20
13.8548315992
 30
0.0
 10
14.8469496215
 20
13.8524245882
 30
0.0
 10
14.8473472319
 20
13.8500246542
 30
0.0
 10
14.8479028409
 20
13.8476354492
 30
0.0
 10
14.8486155471
 20
13.8452604201
 30
0.0
 10
14.8494844803
 20
13.8429031336
 30
0.0
 10
14.8505084025
 20
13.8405670139
 30
0.0
 10
14.852092292
 20
13.8374561883
 30
0.0
 10
14.8544660158
 20
13.8336326926
 30
0.0
 10
14.8572773742
 20
13.8300031184
 30
0.0
 10
14.8597997817
 20
13.8271806787
 30
0.0
 10
14.8625661153
 20
13.8243552861
 30
0.0
 10
14.8663749539
 20
13.8209456314
 30
0.0
 10
14.8714134896
 20
13.8171106919
 30
0.0
 10
14.876940424
 20
13.8135088486
 30
0.0
 10
14.8829239244
 20
13.8101609571
 30
0.0
 10
14.8893294389
 20
13.8070853596
 30
0.0
 10
14.8961203843
 20
13.8043001853
 30
0.0
 10
14.9032575163
 20
13.8018205798
 30
0.0
 10
14.9106997718
 20
13.7996615996
 30
0.0
 10
14.9157872619
 20
13.7984552733
 30
0.0
 10
14.9183710757
 20
13.7979068151
 30
0.0
  0
SPLINE
  5
5B1
100
AcDbEntity
  8
0
100
AcDbSpline
 62
7
  6
CONTINUOUS
 70
0
 71
3
 72
15
 73
11
 74
0
 42
0.0000001
 43
0.0000001
 44
0.0000000001
 40
0.0
 40
0.0
 40
0.0
 40
0.0
 40
0.1227526931
 40
0.2474243399
 40
0.3733925304
 40
0.5000129832
 40
0.6266318847
 40
0.7525952182
 40
0.8772583014
 40
1.0
 40
1.0
 40
1.0
 40
1.0
 10
14.9183710757
 20
13.7979068151
 30
0.0
 10
14.9214189142
 20
13.7972598598
 30
0.0
 10
14.9275997692
 20
13.7961268089
 30
0.0
 10
14.9370037072
 20
13.7949152419
 30
0.0
 10
14.9465558452
 20
13.7941849474
 30
0.0
 10
14.9561820709
 20
13.7939418754
 30
0.0
 10
14.965808112
 20
13.7941873996
 30
0.0
 10
14.9753596802
 20
13.7949201566
 30
0.0
 10
14.9847626889
 20
13.7961340886
 30
0.0
 10
14.9909427471
 20
13.7972687417
 30
0.0
 10
14.9939901311
 20
13.7979164937
 30
0.0
  0
SPLINE
  5
5B2
100
AcDbEntity
  8
0
100
AcDbSpline
 62
7
  6
CONTINUOUS
 70
0
 71
3
 72
11
 73
7
 74
0
 42
0.0000001
 43
0.0000001
 44
0.0000000001
 40
0.0
 40
0.0
 40
0.0
 40
0.0
 40
0.2608695352
 40
0.5148851897
 40
0.7614747405
 40
1.0
 40
1.0
 40
1.0
 40
1.0
 10
15.0088402903
 20
13.8018210846
 30
0.0
 10
15.0110798608
 20
13.802530667
 30
0.0
 10
15.0154675451
 20
13.8040370707
 30
0.0
 10
15.0218350034
 20
13.8065911671
 30
0.0
 10
15.0278735409
 20
13.8093993323
 30
0.0
 10
15.031726046
 20
13.8114659368
 30
0.0
 10
15.0335863319
 20
13.812539967
 30
0.0
  0
SPLINE
  5
5B3
100
AcDbEntity
  8
AXIS_COSMETIC_THREADS
100
AcDbSpline
 62
7
  6
CONTINUOUS
 70
0
 71
3
 72
11
 73
7
 74
0
 42
0.0000001
 43
0.0000001
 44
0.0000000001
 40
0.0
 40
0.0
 40
0.0
 40
0.0
 40
0.2375217529
 40
0.4838414541
 40
0.7382320154
 40
1.0
 40
1.0
 40
1.0
 40
1.0
 10
17.2609819662
 20
12.4989950511
 30
0.0
 10
17.2589084586
 20
12.497797918
 30
0.0
 10
17.2545987785
 20
12.495505577
 30
0.0
 10
17.24781762
 20
12.4924302665
 30
0.0
 10
17.2406390218
 20
12.489672592
 30
0.0
 10
17.2356832484
 20
12.4880781408
 30
0.0
 10
17.2331512411
 20
12.4873354459
 30
0.0
  0
SPLINE
  5
5B4
100
AcDbEntity
  8
AXIS_COSMETIC_THREADS
100
AcDbSpline
 62
7
  6
CONTINUOUS
 70
0
 71
3
 72
18
 73
14
 74
0
 42
0.0000001
 43
0.0000001
 44
0.0000000001
 40
0.0
 40
0.0
 40
0.0
 40
0.0
 40
0.1209996681
 40
0.2453789316
 40
0.3720693073
 40
0.4999337377
 40
0.6278029021
 40
0.6913822494
 40
0.7545261541
 40
0.8170937297
 40
0.8789485862
 40
0.9399588348
 40
1.0
 40
1.0
 40
1.0
 40
1.0
 10
17.2331512411
 20
12.4873354459
 30
0.0
 10
17.2292669003
 20
12.4861960812
 30
0.0
 10
17.2212949643
 20
12.4841983856
 30
0.0
 10
17.2090218474
 20
12.4820637241
 30
0.0
 10
17.1964006455
 20
12.4807696036
 30
0.0
 10
17.1836047498
 20
12.4803340071
 30
0.0
 10
17.1729192826
 20
12.4806919248
 30
0.0
 10
17.164431202
 20
12.4814131291
 30
0.0
 10
17.158142242
 20
12.4821670364
 30
0.0
 10
17.1519407074
 20
12.4831325708
 30
0.0
 10
17.1458477236
 20
12.4843060643
 30
0.0
 10
17.1398844342
 20
12.4856838878
 30
0.0
 10
17.1359748185
 20
12.4867444641
 30
0.0
 10
17.1340470168
 20
12.4873086141
 30
0.0
  0
SPLINE
  5
5B5
100
AcDbEntity
  8
AXIS_COSMETIC_THREADS
100
AcDbSpline
 62
7
  6
CONTINUOUS
 70
0
 71
3
 72
23
 73
19
 74
0
 42
0.0000001
 43
0.0000001
 44
0.0000000001
 40
0.0
 40
0.0
 40
0.0
 40
0.0
 40
0.0787897829
 40
0.1556745202
 40
0.2304768769
 40
0.3030471871
 40
0.3732645526
 40
0.4410431463
 40
0.5063363223
 40
0.5691410164
 40
0.6295052629
 40
0.6875301981
 40
0.7433790021
 40
0.7972758035
 40
0.8495108319
 40
0.900433972
 40
0.950449235
 40
1.0
 40
1.0
 40
1.0
 40
1.0
 10
17.1340470168
 20
12.4873086141
 30
0.0
 10
17.1318304978
 20
12.4879572542
 30
0.0
 10
17.1274794538
 20
12.4893387306
 30
0.0
 10
17.1211437112
 20
12.4916910711
 30
0.0
 10
17.1151024351
 20
12.4942895754
 30
0.0
 10
17.1093841024
 20
12.4971216601
 30
0.0
 10
17.1040156863
 20
12.5001744183
 30
0.0
 10
17.0990223974
 20
12.5034335389
 30
0.0
 10
17.0944277388
 20
12.506883971
 30
0.0
 10
17.0902535283
 20
12.5105100019
 30
0.0
 10
17.0865193737
 20
12.5142947807
 30
0.0
 10
17.083243579
 20
12.5182214122
 30
0.0
 10
17.0804417154
 20
12.5222715683
 30
0.0
 10
17.0781284659
 20
12.5264270725
 30
0.0
 10
17.0763153593
 20
12.5306681307
 30
0.0
 10
17.0750129456
 20
12.5349749967
 30
0.0
 10
17.0742282438
 20
12.5393255203
 30
0.0
 10
17.074053453
 20
12.5422469487
 30
0.0
 10
17.0740534918
 20
12.5436993759
 30
0.0
  0
SPLINE
  5
5B6
100
AcDbEntity
  8
0
100
AcDbSpline
 62
7
  6
CONTINUOUS
 70
0
 71
3
 72
9
 73
5
 74
0
 42
0.0000001
 43
0.0000001
 44
0.0000000001
 40
0.0
 40
0.0
 40
0.0
 40
0.0
 40
0.5098067771
 40
1.0
 40
1.0
 40
1.0
 40
1.0
 10
17.1623402478
 20
12.6044080988
 30
0.0
 10
17.1582627791
 20
12.6064786545
 30
0.0
 10
17.1501323857
 20
12.6102859446
 30
0.0
 10
17.1417529779
 20
12.6135132846
 30
0.0
 10
17.1375914074
 20
12.6149331753
 30
0.0
  0
SPLINE
  5
5B7
100
AcDbEntity
  8
0
100
AcDbSpline
 62
7
  6
CONTINUOUS
 70
0
 71
3
 72
9
 73
5
 74
0
 42
0.0000001
 43
0.0000001
 44
0.0000000001
 40
0.0
 40
0.0
 40
0.0
 40
0.0
 40
0.5076563864
 40
1.0
 40
1.0
 40
1.0
 40
1.0
 10
17.1588049053
 20
12.5741089808
 30
0.0
 10
17.1553254508
 20
12.5763642973
 30
0.0
 10
17.1483609001
 20
12.580639021
 30
0.0
 10
17.1411790779
 20
12.5845391766
 30
0.0
 10
17.1375916135
 20
12.5863562035
 30
0.0
  0
SPLINE
  5
5B8
100
AcDbEntity
  8
AXIS_COSMETIC_THREADS
100
AcDbSpline
 62
7
  6
CONTINUOUS
 70
0
 71
3
 72
20
 73
16
 74
0
 42
0.0000001
 43
0.0000001
 44
0.0000000001
 40
0.0
 40
0.0
 40
0.0
 40
0.0
 40
0.0752254456
 40
0.1485782107
 40
0.2894346172
 40
0.4226023805
 40
0.4864447708
 40
0.5485391903
 40
0.6678535922
 40
0.7254313551
 40
0.7818315355
 40
0.8372570493
 40
0.8919311993
 40
0.9460949153
 40
1.0
 40
1.0
 40
1.0
 40
1.0
 10
17.2609819662
 20
12.4989950511
 30
0.0
 10
17.2622326875
 20
12.4997171511
 30
0.0
 10
17.264673453
 20
12.5011955617
 30
0.0
 10
17.2692943316
 20
12.5042841897
 30
0.0
 10
17.2745770287
 20
12.5083731933
 30
0.0
 10
17.2792733311
 20
12.512868554
 30
0.0
 10
17.2825475354
 20
12.5166174571
 30
0.0
 10
17.2854197239
 20
12.5203510328
 30
0.0
 10
17.2878597198
 20
12.5242573869
 30
0.0
 10
17.2898004098
 20
12.5282977734
 30
0.0
 10
17.2909829556
 20
12.5313310793
 30
0.0
 10
17.2919061324
 20
12.5343949509
 30
0.0
 10
17.2925671921
 20
12.5374822096
 30
0.0
 10
17.2929648389
 20
12.5405847412
 30
0.0
 10
17.2930533831
 20
12.5426605613
 30
0.0
 10
17.2930534108
 20
12.5436954515
 30
0.0
  0
SPLINE
  5
5B9
100
AcDbEntity
  8
0
100
AcDbSpline
 62
7
  6
CONTINUOUS
 70
0
 71
3
 72
9
 73
5
 74
0
 42
0.0000001
 43
0.0000001
 44
0.0000000001
 40
0.0
 40
0.0
 40
0.0
 40
0.0
 40
0.4901934393
 40
1.0
 40
1.0
 40
1.0
 40
1.0
 10
17.229515289
 20
12.6149333962
 30
0.0
 10
17.2253537485
 20
12.613513484
 30
0.0
 10
17.216974408
 20
12.6102861021
 30
0.0
 10
17.2088440851
 20
12.6064787739
 30
0.0
 10
17.2047666547
 20
12.6044082008
 30
0.0
  0
SPLINE
  5
5BA
100
AcDbEntity
  8
0
100
AcDbSpline
 62
7
  6
CONTINUOUS
 70
0
 71
3
 72
46
 73
42
 74
0
 42
0.0000001
 43
0.0000001
 44
0.0000000001
 40
0.0
 40
0.0
 40
0.0
 40
0.0
 40
0.0305575556
 40
0.0617415503
 40
0.0934990488
 40
0.1258036174
 40
0.1586302406
 40
0.1919237773
 40
0.2256117849
 40
0.2596133067
 40
0.2938410308
 40
0.3282012542
 40
0.3625956331
 40
0.3969259676
 40
0.4310950392
 40
0.4650105281
 40
0.4985861513
 40
0.5317449831
 40
0.5644219021
 40
0.5965647813
 40
0.6281392376
 40
0.6591263098
 40
0.6895289369
 40
0.7193667719
 40
0.7486798418
 40
0.7631600382
 40
0.7775311042
 40
0.8059774679
 40
0.8341065827
 40
0.848077897
 40
0.8619993543
 40
0.8758808317
 40
0.8897286775
 40
0.9035513709
 40
0.9173588039
 40
0.9311524115
 40
0.9449300943
 40
0.9586917095
 40
0.97244517
 40
0.9862081844
 40
1.0
 40
1.0
 40
1.0
 40
1.0
 10
17.1113027354
 20
12.627430964
 30
0.0
 10
17.1132523051
 20
12.6285565419
 30
0.0
 10
17.1172658833
 20
12.630703955
 30
0.0
 10
17.1235260826
 20
12.6335858456
 30
0.0
 10
17.1300589379
 20
12.6361563063
 30
0.0
 10
17.1368348093
 20
12.6384105245
 30
0.0
 10
17.1438258799
 20
12.6403456295
 30
0.0
 10
17.1510026129
 20
12.6419582475
 30
0.0
 10
17.1583328817
 20
12.6432435685
 30
0.0
 10
17.1657827786
 20
12.6441982545
 30
0.0
 10
17.1733174992
 20
12.6448192838
 30
0.0
 10
17.1809012922
 20
12.6451049573
 30
0.0
 10
17.1884978458
 20
12.6450541638
 30
0.0
 10
17.1960706188
 20
12.6446671091
 30
0.0
 10
17.2035834324
 20
12.6439450949
 30
0.0
 10
17.2110007083
 20
12.64289026
 30
0.0
 10
17.2182879778
 20
12.6415059023
 30
0.0
 10
17.2254120299
 20
12.6397954923
 30
0.0
 10
17.2323413649
 20
12.6377634342
 30
0.0
 10
17.2390461473
 20
12.6354134954
 30
0.0
 10
17.24549836
 20
12.6327496546
 30
0.0
 10
17.2516715706
 20
12.6297747412
 30
0.0
 10
17.2575402901
 20
12.6264904771
 30
0.0
 10
17.2630795863
 20
12.6228980516
 30
0.0
 10
17.2674176371
 20
12.6196328281
 30
0.0
 10
17.2706913775
 20
12.6168666959
 30
0.0
 10
17.2738082037
 20
12.6140187511
 30
0.0
 10
17.2774521422
 20
12.610263104
 30
0.0
 10
17.2807412443
 20
12.6062294921
 30
0.0
 10
17.2831228069
 20
12.6028572565
 30
0.0
 10
17.2847773151
 20
12.6002608753
 30
0.0
 10
17.2862982745
 20
12.597594525
 30
0.0
 10
17.2876801194
 20
12.5948615597
 30
0.0
 10
17.2889168952
 20
12.5920658383
 30
0.0
 10
17.2900020932
 20
12.5892120728
 30
0.0
 10
17.2909310537
 20
12.5863071431
 30
0.0
 10
17.2916992204
 20
12.5833590523
 30
0.0
 10
17.2923016048
 20
12.5803756382
 30
0.0
 10
17.292734233
 20
12.5773639549
 30
0.0
 10
17.2929952538
 20
12.5743304287
 30
0.0
 10
17.2930534513
 20
12.5722999917
 30
0.0
 10
17.2930534513
 20
12.5712839528
 30
0.0
  0
SPLINE
  5
5BB
100
AcDbEntity
  8
0
100
AcDbSpline
 62
7
  6
CONTINUOUS
 70
0
 71
3
 72
22
 73
18
 74
0
 42
0.0000001
 43
0.0000001
 44
0.0000000001
 40
0.0
 40
0.0
 40
0.0
 40
0.0
 40
0.060933669
 40
0.1217302104
 40
0.1825587624
 40
0.2434906535
 40
0.304514742
 40
0.3656412951
 40
0.4269516738
 40
0.4885113676
 40
0.5504052624
 40
0.6127229563
 40
0.6755350057
 40
0.7389429868
 40
0.8030443036
 40
0.8679091943
 40
1.0
 40
1.0
 40
1.0
 40
1.0
 10
17.0740534513
 20
12.5712839528
 30
0.0
 10
17.0740534513
 20
12.5727184711
 30
0.0
 10
17.0741695167
 20
12.5755856251
 30
0.0
 10
17.0746891937
 20
12.5798563845
 30
0.0
 10
17.0755487959
 20
12.5840720159
 30
0.0
 10
17.0767367377
 20
12.5882123949
 30
0.0
 10
17.0782396372
 20
12.592256481
 30
0.0
 10
17.0800448171
 20
12.5961845324
 30
0.0
 10
17.0821338278
 20
12.5999833342
 30
0.0
 10
17.0844908589
 20
12.6036431278
 30
0.0
 10
17.0871000372
 20
12.6071568853
 30
0.0
 10
17.0899457596
 20
12.6105203341
 30
0.0
 10
17.0930143668
 20
12.6137309402
 30
0.0
 10
17.0962938507
 20
12.6167873671
 30
0.0
 10
17.099773436
 20
12.6196898649
 30
0.0
 10
17.104693459
 20
12.6233762667
 30
0.0
 10
17.1086096344
 20
12.6258761107
 30
0.0
 10
17.1113027354
 20
12.627430964
 30
0.0
  0
SPLINE
  5
5BC
100
AcDbEntity
  8
0
100
AcDbSpline
 62
7
  6
CONTINUOUS
 70
0
 71
3
 72
54
 73
50
 74
0
 42
0.0000001
 43
0.0000001
 44
0.0000000001
 40
0.0
 40
0.0
 40
0.0
 40
0.0
 40
0.0156881636
 40
0.0309875416
 40
0.060369457
 40
0.0881446829
 40
0.1014600927
 40
0.1144115732
 40
0.12702024
 40
0.1393128697
 40
0.151322306
 40
0.1630859675
 40
0.1746463111
 40
0.186050142
 40
0.1973474056
 40
0.2085907906
 40
0.2198341805
 40
0.2311314718
 40
0.2425353368
 40
0.2540957404
 40
0.2658595314
 40
0.2778690805
 40
0.2901617214
 40
0.302770225
 40
0.3157215517
 40
0.3290373235
 40
0.342734753
 40
0.3568254186
 40
0.3862021052
 40
0.4014993476
 40
0.4171943002
 40
0.4332794542
 40
0.4497433538
 40
0.4837440352
 40
0.5190634237
 40
0.5555291558
 40
0.5929418774
 40
0.6310821566
 40
0.6697157732
 40
0.7085983333
 40
0.7474809094
 40
0.7861144818
 40
0.8242545333
 40
0.8616675057
 40
0.8981330561
 40
0.9334501125
 40
0.967455752
 40
0.9839216815
 40
1.0
 40
1.0
 40
1.0
 40
1.0
 10
17.2499431977
 20
12.5518730407
 30
0.0
 10
17.2510155045
 20
12.5524921336
 30
0.0
 10
17.2531081988
 20
12.5537597478
 30
0.0
 10
17.2570704401
 20
12.5564081782
 30
0.0
 10
17.2616003061
 20
12.559914344
 30
0.0
 10
17.2656274358
 20
12.5637691291
 30
0.0
 10
17.2684345358
 20
12.5669835905
 30
0.0
 10
17.2703065773
 20
12.5694172727
 30
0.0
 10
17.2719698452
 20
12.5719017136
 30
0.0
 10
17.273419941
 20
12.5744311775
 30
0.0
 10
17.2746536413
 20
12.5769993418
 30
0.0
 10
17.2756675176
 20
12.5796002213
 30
0.0
 10
17.2764587647
 20
12.5822275131
 30
0.0
 10
17.2770257455
 20
12.5848746415
 30
0.0
 10
17.2773664909
 20
12.5875351644
 30
0.0
 10
17.277480024
 20
12.5902023749
 30
0.0
 10
17.277366493
 20
12.5928695889
 30
0.0
 10
17.2770257085
 20
12.5955301119
 30
0.0
 10
17.2764587376
 20
12.5981772511
 30
0.0
 10
17.2756674838
 20
12.600804561
 30
0.0
 10
17.2746535498
 20
12.6034054435
 30
0.0
 10
17.2734198309
 20
12.6059736209
 30
0.0
 10
17.2719697336
 20
12.6085030769
 30
0.0
 10
17.2703064798
 20
12.6109875118
 30
0.0
 10
17.2684344872
 20
12.6134211775
 30
0.0
 10
17.2663585004
 20
12.6157984343
 30
0.0
 10
17.264083156
 20
12.6181134106
 30
0.0
 10
17.2607453975
 20
12.6211517917
 30
0.0
 10
17.2570705574
 20
12.6239964656
 30
0.0
 10
17.2531084998
 20
12.6266447786
 30
0.0
 10
17.2499293105
 20
12.628570402
 30
0.0
 10
17.2465905836
 20
12.6304033016
 30
0.0
 10
17.2418868027
 20
12.6327432477
 30
0.0
 10
17.2356524189
 20
12.6354013809
 30
0.0
 10
17.2277531138
 20
12.6381243686
 30
0.0
 10
17.2194311106
 20
12.6403884105
 30
0.0
 10
17.2107662076
 20
12.6421721006
 30
0.0
 10
17.2018410404
 20
12.6434585851
 30
0.0
 10
17.1927409135
 20
12.644235335
 30
0.0
 10
17.1835528767
 20
12.6444950051
 30
0.0
 10
17.1743648444
 20
12.6442352766
 30
0.0
 10
17.1652647455
 20
12.6434584425
 30
0.0
 10
17.1563395844
 20
12.6421719284
 30
0.0
 10
17.1476747116
 20
12.6403881443
 30
0.0
 10
17.1393529144
 20
12.6381240326
 30
0.0
 10
17.1314533876
 20
12.6354011283
 30
0.0
 10
17.1252187413
 20
12.6327425465
 30
0.0
 10
17.1205150692
 20
12.6304025563
 30
0.0
 10
17.1182626793
 20
12.6291660717
 30
0.0
 10
17.1171637048
 20
12.6285315823
 30
0.0
  0
SPLINE
  5
5BD
100
AcDbEntity
  8
0
100
AcDbSpline
 62
7
  6
CONTINUOUS
 70
0
 71
3
 72
22
 73
18
 74
0
 42
0.0000001
 43
0.0000001
 44
0.0000000001
 40
0.0
 40
0.0
 40
0.0
 40
0.0
 40
0.0752060727
 40
0.1485484216
 40
0.28940012
 40
0.3569440104
 40
0.4226013826
 40
0.4864332337
 40
0.5485205049
 40
0.6089644266
 40
0.6678933414
 40
0.7254646688
 40
0.7818577689
 40
0.8372761587
 40
0.8919441979
 40
0.9461012924
 40
1.0
 40
1.0
 40
1.0
 40
1.0
 10
17.2609819662
 20
12.5265815903
 30
0.0
 10
17.262232533
 20
12.5273036011
 30
0.0
 10
17.2646731565
 20
12.5287819778
 30
0.0
 10
17.2692938542
 20
12.5318704997
 30
0.0
 10
17.273580276
 20
12.53518826
 30
0.0
 10
17.2774730881
 20
12.538731988
 30
0.0
 10
17.2801264614
 20
12.5414317292
 30
0.0
 10
17.282547483
 20
12.5442040949
 30
0.0
 10
17.2847307487
 20
12.5470422951
 30
0.0
 10
17.2866705782
 20
12.5499397503
 30
0.0
 10
17.2883618023
 20
12.5528896954
 30
0.0
 10
17.2898006697
 20
12.555884777
 30
0.0
 10
17.2909831766
 20
12.5589180177
 30
0.0
 10
17.2919060499
 20
12.561982047
 30
0.0
 10
17.2925673823
 20
12.5650692762
 30
0.0
 10
17.2929648787
 20
12.5681718951
 30
0.0
 10
17.2930532967
 20
12.5702477421
 30
0.0
 10
17.2930533361
 20
12.5712826485
 30
0.0
  0
SPLINE
  5
5BE
100
AcDbEntity
  8
0
100
AcDbSpline
 62
7
  6
CONTINUOUS
 70
0
 71
3
 72
35
 73
31
 74
0
 42
0.0000001
 43
0.0000001
 44
0.0000000001
 40
0.0
 40
0.0
 40
0.0
 40
0.0
 40
0.0374147517
 40
0.0738814601
 40
0.1438470496
 40
0.2099032926
 40
0.2415437315
 40
0.2723044333
 40
0.3022398566
 40
0.3314196744
 40
0.3599280725
 40
0.3878608863
 40
0.4153268659
 40
0.4424447273
 40
0.4693409295
 40
0.4961480358
 40
0.523000377
 40
0.5500315376
 40
0.5773703073
 40
0.6051381123
 40
0.6334474623
 40
0.6623980742
 40
0.6920777062
 40
0.7225613786
 40
0.7539089354
 40
0.7861685298
 40
0.8193755789
 40
0.8535519028
 40
0.924829893
 40
1.0
 40
1.0
 40
1.0
 40
1.0
 10
17.1171637048
 20
12.6285315824
 30
0.0
 10
17.1160686545
 20
12.6278993585
 30
0.0
 10
17.1139327153
 20
12.6266042478
 30
0.0
 10
17.1098939173
 20
12.6238961638
 30
0.0
 10
17.105287001
 20
12.6203076266
 30
0.0
 10
17.1012069004
 20
12.6163562534
 30
0.0
 10
17.0983774108
 20
12.613060393
 30
0.0
 10
17.0964989671
 20
12.6105656355
 30
0.0
 10
17.0948392448
 20
12.6080188622
 30
0.0
 10
17.0934026471
 20
12.6054263434
 30
0.0
 10
17.0921925734
 20
12.6027947693
 30
0.0
 10
17.0912127351
 20
12.6001305051
 30
0.0
 10
17.0904656922
 20
12.5974404259
 30
0.0
 10
17.0899532184
 20
12.5947314911
 30
0.0
 10
17.0896773927
 20
12.5920106285
 30
0.0
 10
17.0896386428
 20
12.5892850515
 30
0.0
 10
17.0898369158
 20
12.5865618514
 30
0.0
 10
17.0902722188
 20
12.5838482349
 30
0.0
 10
17.090942756
 20
12.5811512212
 30
0.0
 10
17.0918466828
 20
12.578477718
 30
0.0
 10
17.0929819175
 20
12.5758347377
 30
0.0
 10
17.0943448225
 20
12.5732287281
 30
0.0
 10
17.0959319717
 20
12.5706662589
 30
0.0
 10
17.0977394208
 20
12.5681538778
 30
0.0
 10
17.0997620652
 20
12.5656974682
 30
0.0
 10
17.1019949951
 20
12.5633032915
 30
0.0
 10
17.1044326263
 20
12.5609772879
 30
0.0
 10
17.1079968113
 20
12.5579317311
 30
0.0
 10
17.1129440363
 20
12.5543377316
 30
0.0
 10
17.1172061739
 20
12.5518078518
 30
0.0
 10
17.1194418678
 20
12.5506014547
 30
0.0
  0
SPLINE
  5
5BF
100
AcDbEntity
  8
0
100
AcDbSpline
 62
7
  6
CONTINUOUS
 70
0
 71
3
 72
24
 73
20
 74
0
 42
0.0000001
 43
0.0000001
 44
0.0000000001
 40
0.0
 40
0.0
 40
0.0
 40
0.0
 40
0.0565448871
 40
0.1154639139
 40
0.1765094377
 40
0.2393853742
 40
0.3037556681
 40
0.3692534118
 40
0.4354905028
 40
0.5020643513
 40
0.5685662499
 40
0.6345889591
 40
0.6997335278
 40
0.763619724
 40
0.8258888642
 40
0.8862148141
 40
0.9443340162
 40
0.9724919101
 40
1.0
 40
1.0
 40
1.0
 40
1.0
 10
17.1194418678
 20
12.5506014547
 30
0.0
 10
17.1216875706
 20
12.5493896568
 30
0.0
 10
17.1263762777
 20
12.5471023781
 30
0.0
 10
17.1337783914
 20
12.544142921
 30
0.0
 10
17.1416363012
 20
12.541605627
 30
0.0
 10
17.1498777892
 20
12.539514028
 30
0.0
 10
17.1584277485
 20
12.5378872087
 30
0.0
 10
17.1672078534
 20
12.5367397577
 30
0.0
 10
17.1761377417
 20
12.5360822758
 30
0.0
 10
17.1851355994
 20
12.5359209712
 30
0.0
 10
17.1941189559
 20
12.5362570442
 30
0.0
 10
17.2030054799
 20
12.5370874884
 30
0.0
 10
17.2117137928
 20
12.5384048817
 30
0.0
 10
17.2201641173
 20
12.5401970083
 30
0.0
 10
17.2282791628
 20
12.5424474494
 30
0.0
 10
17.2359849657
 20
12.5451358506
 30
0.0
 10
17.2420703586
 20
12.5477484441
 30
0.0
 10
17.2466658068
 20
12.5500420127
 30
0.0
 10
17.2488681112
 20
12.5512523429
 30
0.0
 10
17.2499431977
 20
12.5518730407
 30
0.0
  0
SPLINE
  5
5C0
100
AcDbEntity
  8
0
100
AcDbSpline
 62
7
  6
CONTINUOUS
 70
0
 71
3
 72
9
 73
5
 74
0
 42
0.0000001
 43
0.0000001
 44
0.0000000001
 40
0.0
 40
0.0
 40
0.0
 40
0.0
 40
0.4924317693
 40
1.0
 40
1.0
 40
1.0
 40
1.0
 10
17.2047666547
 20
12.6044082008
 30
0.0
 10
17.2089900981
 20
12.601676181
 30
0.0
 10
17.2174054266
 20
12.5958755343
 30
0.0
 10
17.2254935403
 20
12.5896282177
 30
0.0
 10
17.2295154951
 20
12.5863564244
 30
0.0
  0
SPLINE
  5
5C1
100
AcDbEntity
  8
0
100
AcDbSpline
 62
7
  6
CONTINUOUS
 70
0
 71
3
 72
9
 73
5
 74
0
 42
0.0000001
 43
0.0000001
 44
0.0000000001
 40
0.0
 40
0.0
 40
0.0
 40
0.0
 40
0.4923436136
 40
1.0
 40
1.0
 40
1.0
 40
1.0
 10
17.2083019972
 20
12.6271806188
 30
0.0
 10
17.2118894616
 20
12.6253635919
 30
0.0
 10
17.2190712838
 20
12.6214634364
 30
0.0
 10
17.2260358346
 20
12.6171887127
 30
0.0
 10
17.229515289
 20
12.6149333962
 30
0.0
  0
SPLINE
  5
5C2
100
AcDbEntity
  8
0
100
AcDbSpline
 62
7
  6
CONTINUOUS
 70
0
 71
3
 72
9
 73
5
 74
0
 42
0.0000001
 43
0.0000001
 44
0.0000000001
 40
0.0
 40
0.0
 40
0.0
 40
0.0
 40
0.5098074499
 40
1.0
 40
1.0
 40
1.0
 40
1.0
 10
17.1835533629
 20
12.6166554234
 30
0.0
 10
17.1876308005
 20
12.6187260001
 30
0.0
 10
17.1957611235
 20
12.6225333281
 30
0.0
 10
17.2041404643
 20
12.6257607092
 30
0.0
 10
17.2083019972
 20
12.6271806188
 30
0.0
  0
SPLINE
  5
5C3
100
AcDbEntity
  8
0
100
AcDbSpline
 62
7
  6
CONTINUOUS
 70
0
 71
3
 72
9
 73
5
 74
0
 42
0.0000001
 43
0.0000001
 44
0.0000000001
 40
0.0
 40
0.0
 40
0.0
 40
0.0
 40
0.4901932229
 40
1.0
 40
1.0
 40
1.0
 40
1.0
 10
17.1588045226
 20
12.6271804999
 30
0.0
 10
17.162966093
 20
12.6257606093
 30
0.0
 10
17.1713455008
 20
12.6225332692
 30
0.0
 10
17.1794758942
 20
12.6187259791
 30
0.0
 10
17.1835533629
 20
12.6166554234
 30
0.0
  0
SPLINE
  5
5C4
100
AcDbEntity
  8
0
100
AcDbSpline
 62
7
  6
CONTINUOUS
 70
0
 71
3
 72
9
 73
5
 74
0
 42
0.0000001
 43
0.0000001
 44
0.0000000001
 40
0.0
 40
0.0
 40
0.0
 40
0.0
 40
0.5075687381
 40
1.0
 40
1.0
 40
1.0
 40
1.0
 10
17.1375916135
 20
12.5863562035
 30
0.0
 10
17.1416135368
 20
12.5896280177
 30
0.0
 10
17.1497015812
 20
12.5958753715
 30
0.0
 10
17.1581168417
 20
12.6016760601
 30
0.0
 10
17.1623402478
 20
12.6044080988
 30
0.0
  0
SPLINE
  5
5C5
100
AcDbEntity
  8
0
100
AcDbSpline
 62
7
  6
CONTINUOUS
 70
0
 71
3
 72
28
 73
24
 74
0
 42
0.0000001
 43
0.0000001
 44
0.0000000001
 40
0.0
 40
0.0
 40
0.0
 40
0.0
 40
0.0240729177
 40
0.04821537
 40
0.0724961649
 40
0.0969817591
 40
0.1217357227
 40
0.1468185438
 40
0.1722864734
 40
0.1981903654
 40
0.2514672277
 40
0.3069794863
 40
0.3356541046
 40
0.3649649887
 40
0.4255375389
 40
0.4887809782
 40
0.5546978553
 40
0.6232327193
 40
0.694277662
 40
0.7676823744
 40
0.8432562557
 40
0.9207788842
 40
1.0
 40
1.0
 40
1.0
 40
1.0
 10
17.0740535664
 20
12.571283953
 30
0.0
 10
17.0740535645
 20
12.5704813163
 30
0.0
 10
17.0741066102
 20
12.5688732224
 30
0.0
 10
17.0743452558
 20
12.5664662115
 30
0.0
 10
17.0747428662
 20
12.5640662775
 30
0.0
 10
17.0752984751
 20
12.5616770724
 30
0.0
 10
17.0760111813
 20
12.5593020433
 30
0.0
 10
17.0768801145
 20
12.5569447569
 30
0.0
 10
17.0779040367
 20
12.5546086371
 30
0.0
 10
17.0794879262
 20
12.5514978115
 30
0.0
 10
17.08186165
 20
12.5476743159
 30
0.0
 10
17.0846730084
 20
12.5440447417
 30
0.0
 10
17.0871954159
 20
12.541222302
 30
0.0
 10
17.0899617496
 20
12.5383969093
 30
0.0
 10
17.0937705881
 20
12.5349872547
 30
0.0
 10
17.0988091238
 20
12.5311523151
 30
0.0
 10
17.1043360582
 20
12.5275504719
 30
0.0
 10
17.1103195587
 20
12.5242025804
 30
0.0
 10
17.1167250732
 20
12.5211269828
 30
0.0
 10
17.1235160185
 20
12.5183418086
 30
0.0
 10
17.1306531505
 20
12.5158622031
 30
0.0
 10
17.138095406
 20
12.5137032229
 30
0.0
 10
17.1431828961
 20
12.5124968966
 30
0.0
 10
17.1457667099
 20
12.5119484384
 30
0.0
  0
SPLINE
  5
5C6
100
AcDbEntity
  8
0
100
AcDbSpline
 62
7
  6
CONTINUOUS
 70
0
 71
3
 72
15
 73
11
 74
0
 42
0.0000001
 43
0.0000001
 44
0.0000000001
 40
0.0
 40
0.0
 40
0.0
 40
0.0
 40
0.1227526931
 40
0.2474243399
 40
0.3733925304
 40
0.5000129832
 40
0.6266318847
 40
0.7525952182
 40
0.8772583014
 40
1.0
 40
1.0
 40
1.0
 40
1.0
 10
17.1457667099
 20
12.5119484384
 30
0.0
 10
17.1488145484
 20
12.5113014831
 30
0.0
 10
17.1549954034
 20
12.5101684322
 30
0.0
 10
17.1643993414
 20
12.5089568651
 30
0.0
 10
17.1739514794
 20
12.5082265706
 30
0.0
 10
17.1835777052
 20
12.5079834987
 30
0.0
 10
17.1932037462
 20
12.5082290228
 30
0.0
 10
17.2027553144
 20
12.5089617798
 30
0.0
 10
17.2121583231
 20
12.5101757118
 30
0.0
 10
17.2183383813
 20
12.5113103649
 30
0.0
 10
17.2213857653
 20
12.5119581169
 30
0.0
  0
SPLINE
  5
5C7
100
AcDbEntity
  8
0
100
AcDbSpline
 62
7
  6
CONTINUOUS
 70
0
 71
3
 72
11
 73
7
 74
0
 42
0.0000001
 43
0.0000001
 44
0.0000000001
 40
0.0
 40
0.0
 40
0.0
 40
0.0
 40
0.2608695352
 40
0.5148851897
 40
0.7614747405
 40
1.0
 40
1.0
 40
1.0
 40
1.0
 10
17.2362359245
 20
12.5158627078
 30
0.0
 10
17.238475495
 20
12.5165722903
 30
0.0
 10
17.2428631793
 20
12.518078694
 30
0.0
 10
17.2492306376
 20
12.5206327904
 30
0.0
 10
17.2552691752
 20
12.5234409555
 30
0.0
 10
17.2591216802
 20
12.5255075601
 30
0.0
 10
17.2609819662
 20
12.5265815903
 30
0.0
  0
SPLINE
  5
5C8
100
AcDbEntity
  8
AXIS_COSMETIC_THREADS
100
AcDbSpline
 62
7
  6
CONTINUOUS
 70
0
 71
3
 72
15
 73
11
 74
0
 42
0.0000001
 43
0.0000001
 44
0.0000000001
 40
0.0
 40
0.0
 40
0.0
 40
0.0
 40
0.141252439
 40
0.2778105126
 40
0.4095207783
 40
0.5364030093
 40
0.6586095463
 40
0.7763766633
 40
0.8900297791
 40
1.0
 40
1.0
 40
1.0
 40
1.0
 10
18.7688841815
 20
12.5959494301
 30
0.0
 10
18.7702405072
 20
12.5967325004
 30
0.0
 10
18.7729515599
 20
12.5981990025
 30
0.0
 10
18.7770701414
 20
12.6001172799
 30
0.0
 10
18.7811559297
 20
12.6017081167
 30
0.0
 10
18.7851907083
 20
12.6029642519
 30
0.0
 10
18.7891579252
 20
12.6038803806
 30
0.0
 10
18.7930415714
 20
12.6044522116
 30
0.0
 10
18.7968248768
 20
12.6046774234
 30
0.0
 10
18.7993074566
 20
12.6045933192
 30
0.0
 10
18.8005224525
 20
12.6044909176
 30
0.0
  0
SPLINE
  5
5C9
100
AcDbEntity
  8
AXIS_COSMETIC_THREADS
100
AcDbSpline
 62
7
  6
CONTINUOUS
 70
0
 71
3
 72
11
 73
7
 74
0
 42
0.0000001
 43
0.0000001
 44
0.0000000001
 40
0.0
 40
0.0
 40
0.0
 40
0.0
 40
0.2571409371
 40
0.5082460246
 40
0.7551882685
 40
1.0
 40
1.0
 40
1.0
 40
1.0
 10
18.8005224525
 20
12.6044909176
 30
0.0
 10
18.8017246713
 20
12.6043895929
 30
0.0
 10
18.8040929862
 20
12.6040708911
 30
0.0
 10
18.8075408182
 20
12.6032248461
 30
0.0
 10
18.8108195802
 20
12.6020217327
 30
0.0
 10
18.8128862503
 20
12.6009825068
 30
0.0
 10
18.8138810281
 20
12.600408245
 30
0.0
  0
SPLINE
  5
5CA
100
AcDbEntity
  8
AXIS_COSMETIC_THREADS
100
AcDbSpline
 62
7
  6
CONTINUOUS
 70
0
 71
3
 72
22
 73
18
 74
0
 42
0.0000001
 43
0.0000001
 44
0.0000000001
 40
0.0
 40
0.0
 40
0.0
 40
0.0
 40
0.129348309
 40
0.1931490256
 40
0.2564234805
 40
0.319249242
 40
0.3817195185
 40
0.4439051704
 40
0.5058857448
 40
0.5677278835
 40
0.6294827528
 40
0.6912053662
 40
0.7529282634
 40
0.8146785539
 40
0.8764220195
 40
0.938156612
 40
1.0
 40
1.0
 40
1.0
 40
1.0
 10
18.7564574637
 20
12.3806867176
 30
0.0
 10
18.7513618524
 20
12.3777447826
 30
0.0
 10
18.7435427812
 20
12.3736972415
 30
0.0
 10
18.7327998928
 20
12.3691431379
 30
0.0
 10
18.7246738105
 20
12.366199144
 30
0.0
 10
18.7164534872
 20
12.3637323471
 30
0.0
 10
18.7081504366
 20
12.3617628542
 30
0.0
 10
18.6997797375
 20
12.3603124108
 30
0.0
 10
18.691361186
 20
12.3594047453
 30
0.0
 10
18.682919974
 20
12.3590612237
 30
0.0
 10
18.6744864607
 20
12.3593024809
 30
0.0
 10
18.6660969103
 20
12.3601471524
 30
0.0
 10
18.6577921316
 20
12.3616076843
 30
0.0
 10
18.6496208333
 20
12.3636940171
 30
0.0
 10
18.6416326608
 20
12.3664010187
 30
0.0
 10
18.6338773783
 20
12.3697268649
 30
0.0
 10
18.6288955939
 20
12.3723460313
 30
0.0
 10
18.6264592947
 20
12.3737525975
 30
0.0
  0
SPLINE
  5
5CB
100
AcDbEntity
  8
AXIS_COSMETIC_THREADS
100
AcDbSpline
 62
7
  6
CONTINUOUS
 70
0
 71
3
 72
23
 73
19
 74
0
 42
0.0000001
 43
0.0000001
 44
0.0000000001
 40
0.0
 40
0.0
 40
0.0
 40
0.0
 40
0.0752207913
 40
0.148559723
 40
0.2199635349
 40
0.2894251961
 40
0.3569668301
 40
0.422626124
 40
0.4864576683
 40
0.548540413
 40
0.6089800904
 40
0.6679064173
 40
0.7254753705
 40
0.7818661835
 40
0.8372827131
 40
0.8919481998
 40
0.9461033185
 40
1.0
 40
1.0
 40
1.0
 40
1.0
 10
18.7200936105
 20
12.713933308
 30
0.0
 10
18.7223782953
 20
12.7152523636
 30
0.0
 10
18.7269459223
 20
12.7177630587
 30
0.0
 10
18.7338676801
 20
12.7211751923
 30
0.0
 10
18.7407575522
 20
12.7241771952
 30
0.0
 10
18.7475980002
 20
12.7267615641
 30
0.0
 10
18.7543730576
 20
12.7289220146
 30
0.0
 10
18.7610667632
 20
12.7306535118
 30
0.0
 10
18.7676631587
 20
12.7319516602
 30
0.0
 10
18.7741464308
 20
12.732812777
 30
0.0
 10
18.7805009814
 20
12.733234925
 30
0.0
 10
18.7867115859
 20
12.7332161898
 30
0.0
 10
18.7927631994
 20
12.7327569029
 30
0.0
 10
18.7986410075
 20
12.7318570208
 30
0.0
 10
18.8043305737
 20
12.7305190971
 30
0.0
 10
18.809817757
 20
12.7287453847
 30
0.0
 10
18.8150884513
 20
12.7265407631
 30
0.0
 10
18.8184528758
 20
12.7247850785
 30
0.0
 10
18.8200899054
 20
12.7238399979
 30
0.0
  0
SPLINE
  5
5CC
100
AcDbEntity
  8
AXIS_COSMETIC_THREADS
100
AcDbSpline
 62
7
  6
CONTINUOUS
 70
0
 71
3
 72
34
 73
30
 74
0
 42
0.0000001
 43
0.0000001
 44
0.0000000001
 40
0.0
 40
0.0
 40
0.0
 40
0.0
 40
0.0294296168
 40
0.0597828049
 40
0.0909911498
 40
0.1229919992
 40
0.1557238227
 40
0.1891148535
 40
0.2575236686
 40
0.3275196449
 40
0.3983365732
 40
0.43381072
 40
0.4691908488
 40
0.5043776618
 40
0.5392736417
 40
0.5737832305
 40
0.6078152379
 40
0.6412817536
 40
0.6741011538
 40
0.7374851177
 40
0.7974727798
 40
0.8260881962
 40
0.8537387287
 40
0.8804140569
 40
0.9061188664
 40
0.9308762072
 40
0.9547293311
 40
0.977741537
 40
1.0
 40
1.0
 40
1.0
 40
1.0
 10
18.7688841815
 20
12.5959494301
 30
0.0
 10
18.7674813221
 20
12.5951394936
 30
0.0
 10
18.7646782746
 20
12.5934121361
 30
0.0
 10
18.7605571823
 20
12.5905623817
 30
0.0
 10
18.7564711928
 20
12.5874242994
 30
0.0
 10
18.7524384046
 20
12.5840120654
 30
0.0
 10
18.7484754117
 20
12.5803398913
 30
0.0
 10
18.7432650318
 20
12.5750755384
 30
0.0
 10
18.7370406175
 20
12.5679418241
 30
0.0
 10
18.7301656436
 20
12.5586897299
 30
0.0
 10
18.7249785773
 20
12.5504773161
 30
0.0
 10
18.7211906219
 20
12.5436595254
 30
0.0
 10
18.7185490951
 20
12.5384530618
 30
0.0
 10
18.7161206142
 20
12.5331789726
 30
0.0
 10
18.7139148057
 20
12.527859718
 30
0.0
 10
18.7119416518
 20
12.5225174977
 30
0.0
 10
18.7102089015
 20
12.5171751641
 30
0.0
 10
18.7087242535
 20
12.5118549336
 30
0.0
 10
18.7071027773
 20
12.5049023695
 30
0.0
 10
18.7057069041
 20
12.4964062682
 30
0.0
 10
18.7051683904
 20
12.4880409138
 30
0.0
 10
18.7052995847
 20
12.4816401648
 30
0.0
 10
18.7056658752
 20
12.4770866035
 30
0.0
 10
18.7062996658
 20
12.4727241016
 30
0.0
 10
18.7071987413
 20
12.4685708244
 30
0.0
 10
18.7083598381
 20
12.4646443806
 30
0.0
 10
18.7097780289
 20
12.4609610533
 30
0.0
 10
18.7114483819
 20
12.457537271
 30
0.0
 10
18.7127453398
 20
12.4554043012
 30
0.0
 10
18.7134334468
 20
12.4543906297
 30
0.0
  0
SPLINE
  5
5CD
100
AcDbEntity
  8
AXIS_COSMETIC_THREADS
100
AcDbSpline
 62
7
  6
CONTINUOUS
 70
0
 71
3
 72
11
 73
7
 74
0
 42
0.0000001
 43
0.0000001
 44
0.0000000001
 40
0.0
 40
0.0
 40
0.0
 40
0.0
 40
0.2575157423
 40
0.5086867963
 40
0.7554652252
 40
1.0
 40
1.0
 40
1.0
 40
1.0
 10
18.7134334468
 20
12.4543906297
 30
0.0
 10
18.7141321979
 20
12.4533612781
 30
0.0
 10
18.7156174347
 20
12.4513965036
 30
0.0
 10
18.7181275908
 20
12.4487367331
 30
0.0
 10
18.7208768227
 20
12.4464205671
 30
0.0
 10
18.7228641803
 20
12.4451108231
 30
0.0
 10
18.723887335
 20
12.44452018
 30
0.0
  0
SPLINE
  5
5CE
100
AcDbEntity
  8
AXIS_COSMETIC_THREADS
100
AcDbSpline
 62
7
  6
CONTINUOUS
 70
0
 71
3
 72
11
 73
7
 74
0
 42
0.0000001
 43
0.0000001
 44
0.0000000001
 40
0.0
 40
0.0
 40
0.0
 40
0.0
 40
0.2368594545
 40
0.4829998894
 40
0.7376596821
 40
1.0
 40
1.0
 40
1.0
 40
1.0
 10
18.7200936105
 20
12.713933308
 30
0.0
 10
18.7160378976
 20
12.7115917551
 30
0.0
 10
18.7079428577
 20
12.7065078688
 30
0.0
 10
18.6961323042
 20
12.6979341505
 30
0.0
 10
18.6844923065
 20
12.6883191365
 30
0.0
 10
18.6770013934
 20
12.6813543884
 30
0.0
 10
18.6733009426
 20
12.6777197099
 30
0.0
  0
SPLINE
  5
5CF
100
AcDbEntity
  8
AXIS_COSMETIC_THREADS
100
AcDbSpline
 62
7
  6
CONTINUOUS
 70
0
 71
3
 72
15
 73
11
 74
0
 42
0.0000001
 43
0.0000001
 44
0.0000000001
 40
0.0
 40
0.0
 40
0.0
 40
0.0
 40
0.1215631626
 40
0.2461229774
 40
0.3727102788
 40
0.5003043036
 40
0.6278590491
 40
0.7543295109
 40
0.8786978002
 40
1.0
 40
1.0
 40
1.0
 40
1.0
 10
18.6722451127
 20
12.6766772135
 30
0.0
 10
18.6672435198
 20
12.6717129778
 30
0.0
 10
18.6574852384
 20
12.6612848634
 30
0.0
 10
18.6438306663
 20
12.6445210422
 30
0.0
 10
18.6311080873
 20
12.6266082252
 30
0.0
 10
18.6194740921
 20
12.6077664412
 30
0.0
 10
18.6090706785
 20
12.5882259124
 30
0.0
 10
18.60002503
 20
12.5682252582
 30
0.0
 10
18.5924481346
 20
12.5480104044
 30
0.0
 10
18.5883761512
 20
12.5343486719
 30
0.0
 10
18.5866190909
 20
12.5275399038
 30
0.0
  0
SPLINE
  5
5D0
100
AcDbEntity
  8
AXIS_COSMETIC_THREADS
100
AcDbSpline
 62
7
  6
CONTINUOUS
 70
0
 71
3
 72
26
 73
22
 74
0
 42
0.0000001
 43
0.0000001
 44
0.0000000001
 40
0.0
 40
0.0
 40
0.0
 40
0.0
 40
0.0788964357
 40
0.155915955
 40
0.230870086
 40
0.3035965611
 40
0.3739630122
 40
0.4418731036
 40
0.5072701187
 40
0.5701425704
 40
0.6305311831
 40
0.6885329738
 40
0.7443072997
 40
0.7980802744
 40
0.8501447541
 40
0.8756560292
 40
0.9008793771
 40
0.9258684014
 40
0.9506791013
 40
0.975369723
 40
1.0
 40
1.0
 40
1.0
 40
1.0
 10
18.5866190909
 20
12.5275399038
 30
0.0
 10
18.5855383898
 20
12.5233520888
 30
0.0
 10
18.5835915153
 20
12.5150257993
 30
0.0
 10
18.5813082444
 20
12.5025723952
 30
0.0
 10
18.5797051323
 20
12.4903536435
 30
0.0
 10
18.5787902158
 20
12.4784294721
 30
0.0
 10
18.5785684051
 20
12.4668578678
 30
0.0
 10
18.579040821
 20
12.455695168
 30
0.0
 10
18.5802057024
 20
12.4449955974
 30
0.0
 10
18.5820582791
 20
12.4348111852
 30
0.0
 10
18.5845901671
 20
12.4251914176
 30
0.0
 10
18.5877904357
 20
12.4161833694
 30
0.0
 10
18.5916453256
 20
12.4078313963
 30
0.0
 10
18.5961368165
 20
12.4001777512
 30
0.0
 10
18.6004243585
 20
12.3943735715
 30
0.0
 10
18.6041448286
 20
12.3901375241
 30
0.0
 10
18.6070599862
 20
12.3871789227
 30
0.0
 10
18.6101145034
 20
12.384421495
 30
0.0
 10
18.6133048586
 20
12.3818687191
 30
0.0
 10
18.6166269568
 20
12.3795240811
 30
0.0
 10
18.6189279874
 20
12.3781007211
 30
0.0
 10
18.6200973156
 20
12.3774256513
 30
0.0
  0
SPLINE
  5
5D1
100
AcDbEntity
  8
AXIS_COSMETIC_THREADS
100
AcDbSpline
 62
7
  6
CONTINUOUS
 70
0
 71
3
 72
28
 73
24
 74
0
 42
0.0000001
 43
0.0000001
 44
0.0000000001
 40
0.0
 40
0.0
 40
0.0
 40
0.0
 40
0.0304092348
 40
0.0607562698
 40
0.0910730448
 40
0.1213893581
 40
0.1517170369
 40
0.1820503987
 40
0.2123804074
 40
0.2427009396
 40
0.2730223397
 40
0.3033551551
 40
0.3337057484
 40
0.3640830349
 40
0.4249726606
 40
0.4861489802
 40
0.5477453158
 40
0.6098974917
 40
0.6727285226
 40
0.7363552968
 40
0.8662461309
 40
0.9326489101
 40
1.0
 40
1.0
 40
1.0
 40
1.0
 10
18.8264559013
 20
12.7201647181
 30
0.0
 10
18.8280601019
 20
12.7192385535
 30
0.0
 10
18.8312176563
 20
12.7173042817
 30
0.0
 10
18.8357932512
 20
12.7141631503
 30
0.0
 10
18.8401958432
 20
12.7107928842
 30
0.0
 10
18.8444178263
 20
12.7072008827
 30
0.0
 10
18.8484519253
 20
12.7033977007
 30
0.0
 10
18.8522905764
 20
12.6993962767
 30
0.0
 10
18.8559254844
 20
12.69520952
 30
0.0
 10
18.8593491485
 20
12.690849339
 30
0.0
 10
18.8625586886
 20
12.6863291261
 30
0.0
 10
18.8655523992
 20
12.6816611228
 30
0.0
 10
18.8683289005
 20
12.6768567926
 30
0.0
 10
18.8717426018
 20
12.6702795715
 30
0.0
 10
18.8754712635
 20
12.661761349
 30
0.0
 10
18.8790902986
 20
12.6511625758
 30
0.0
 10
18.8818808753
 20
12.6402376439
 30
0.0
 10
18.8838719243
 20
12.6290382073
 30
0.0
 10
18.8850905967
 20
12.6176047979
 30
0.0
 10
18.8857253466
 20
12.6019936632
 30
0.0
 10
18.8848942199
 20
12.5861392981
 30
0.0
 10
18.8827427304
 20
12.5702197261
 30
0.0
 10
18.8812291871
 20
12.5622092466
 30
0.0
 10
18.8803673968
 20
12.558198128
 30
0.0
  0
SPLINE
  5
5D2
100
AcDbEntity
  8
AXIS_COSMETIC_THREADS
100
AcDbSpline
 62
7
  6
CONTINUOUS
 70
0
 71
3
 72
10
 73
6
 74
0
 42
0.0000001
 43
0.0000001
 44
0.0000000001
 40
0.0
 40
0.0
 40
0.0
 40
0.0
 40
0.5068987185
 40
0.7553296777
 40
1.0
 40
1.0
 40
1.0
 40
1.0
 10
18.7936168974
 20
12.4079916234
 30
0.0
 10
18.7878274339
 20
12.4027589188
 30
0.0
 10
18.7788210171
 20
12.3953619011
 30
0.0
 10
18.7661835118
 20
12.3865606949
 30
0.0
 10
18.7597195599
 20
12.3825700785
 30
0.0
 10
18.7564574637
 20
12.3806867176
 30
0.0
  0
SPLINE
  5
5D3
100
AcDbEntity
  8
AXIS_COSMETIC_THREADS
100
AcDbSpline
 62
7
  6
CONTINUOUS
 70
0
 71
3
 72
11
 73
7
 74
0
 42
0.0000001
 43
0.0000001
 44
0.0000000001
 40
0.0
 40
0.0
 40
0.0
 40
0.0
 40
0.2368594545
 40
0.4829998894
 40
0.7376596821
 40
1.0
 40
1.0
 40
1.0
 40
1.0
 10
18.726457598
 20
12.7102591412
 30
0.0
 10
18.7224018852
 20
12.7079175883
 30
0.0
 10
18.7143068452
 20
12.702833702
 30
0.0
 10
18.7024962917
 20
12.6942599837
 30
0.0
 10
18.6908562941
 20
12.6846449698
 30
0.0
 10
18.683365381
 20
12.6776802216
 30
0.0
 10
18.6796649302
 20
12.6740455431
 30
0.0
  0
SPLINE
  5
5D4
100
AcDbEntity
  8
AXIS_COSMETIC_THREADS
100
AcDbSpline
 62
7
  6
CONTINUOUS
 70
0
 71
3
 72
16
 73
12
 74
0
 42
0.0000001
 43
0.0000001
 44
0.0000000001
 40
0.0
 40
0.0
 40
0.0
 40
0.0
 40
0.1213733742
 40
0.1832852161
 40
0.2458478036
 40
0.372404271
 40
0.5000234288
 40
0.6276407196
 40
0.7541916556
 40
0.8786388837
 40
1.0
 40
1.0
 40
1.0
 40
1.0
 10
18.6796649302
 20
12.6740455431
 30
0.0
 10
18.6746024594
 20
12.6690730533
 30
0.0
 10
18.6672357201
 20
12.6612745423
 30
0.0
 10
18.6579192396
 20
12.650326864
 30
0.0
 10
18.6487921023
 20
12.6388302917
 30
0.0
 10
18.6380127649
 20
12.6237550453
 30
0.0
 10
18.626228905
 20
12.6047796434
 30
0.0
 10
18.6156924016
 20
12.5850841803
 30
0.0
 10
18.6065345905
 20
12.5649138994
 30
0.0
 10
18.5988697635
 20
12.5445210907
 30
0.0
 10
18.5947560133
 20
12.5307360206
 30
0.0
 10
18.5929830784
 20
12.523865737
 30
0.0
  0
SPLINE
  5
5D5
100
AcDbEntity
  8
AXIS_COSMETIC_THREADS
100
AcDbSpline
 62
7
  6
CONTINUOUS
 70
0
 71
3
 72
25
 73
21
 74
0
 42
0.0000001
 43
0.0000001
 44
0.0000000001
 40
0.0
 40
0.0
 40
0.0
 40
0.0
 40
0.0779609534
 40
0.1541836057
 40
0.228500647
 40
0.3007656494
 40
0.3708568053
 40
0.4386812588
 40
0.5041770788
 40
0.5673196091
 40
0.6281243891
 40
0.6866517706
 40
0.7430126222
 40
0.7973700082
 40
0.8499433259
 40
0.9010075566
 40
0.9260831094
 40
0.9509081418
 40
0.9755305122
 40
1.0
 40
1.0
 40
1.0
 40
1.0
 10
18.5929830784
 20
12.523865737
 30
0.0
 10
18.5919627828
 20
12.5199119988
 30
0.0
 10
18.5901133893
 20
12.5120479063
 30
0.0
 10
18.5879058742
 20
12.5002811516
 30
0.0
 10
18.58630294
 20
12.4887174447
 30
0.0
 10
18.5853119115
 20
12.4774072923
 30
0.0
 10
18.5849373058
 20
12.4663997354
 30
0.0
 10
18.5851806566
 20
12.4557425502
 30
0.0
 10
18.5860416308
 20
12.4454819038
 30
0.0
 10
18.5875166303
 20
12.4356622333
 30
0.0
 10
18.589599927
 20
12.4263260683
 30
0.0
 10
18.5922835721
 20
12.4175140215
 30
0.0
 10
18.5955564936
 20
12.4092644886
 30
0.0
 10
18.5994062723
 20
12.4016138744
 30
0.0
 10
18.603816719
 20
12.3945968693
 30
0.0
 10
18.607970861
 20
12.3892703963
 30
0.0
 10
18.6115493474
 20
12.3853740408
 30
0.0
 10
18.6143436471
 20
12.3826458588
 30
0.0
 10
18.6172608552
 20
12.3800977736
 30
0.0
 10
18.6192908285
 20
12.378517014
 30
0.0
 10
18.6203240593
 20
12.3777587571
 30
0.0
  0
SPLINE
  5
5D6
100
AcDbEntity
  8
AXIS_COSMETIC_THREADS
100
AcDbSpline
 62
7
  6
CONTINUOUS
 70
0
 71
3
 72
11
 73
7
 74
0
 42
0.0000001
 43
0.0000001
 44
0.0000000001
 40
0.0
 40
0.0
 40
0.0
 40
0.0
 40
0.2445347748
 40
0.4913132037
 40
0.7424842577
 40
1.0
 40
1.0
 40
1.0
 40
1.0
 10
18.8138810281
 20
12.600408245
 30
0.0
 10
18.8149041828
 20
12.599817602
 30
0.0
 10
18.8168915403
 20
12.598507858
 30
0.0
 10
18.8196407723
 20
12.5961916919
 30
0.0
 10
18.8221509284
 20
12.5935319215
 30
0.0
 10
18.8236361652
 20
12.591567147
 30
0.0
 10
18.8243349163
 20
12.5905377954
 30
0.0
  0
SPLINE
  5
5D7
100
AcDbEntity
  8
AXIS_COSMETIC_THREADS
100
AcDbSpline
 62
7
  6
CONTINUOUS
 70
0
 71
3
 72
19
 73
15
 74
0
 42
0.0000001
 43
0.0000001
 44
0.0000000001
 40
0.0
 40
0.0
 40
0.0
 40
0.0
 40
0.0744180807
 40
0.1471299725
 40
0.2872416802
 40
0.4203453747
 40
0.5467060899
 40
0.6668459317
 40
0.7248628181
 40
0.7816636891
 40
0.837399959
 40
0.8922421999
 40
0.9463757936
 40
1.0
 40
1.0
 40
1.0
 40
1.0
 10
18.726457598
 20
12.7102591412
 30
0.0
 10
18.7285612288
 20
12.7114736658
 30
0.0
 10
18.7327673494
 20
12.7137947644
 30
0.0
 10
18.7411561115
 20
12.7179863841
 30
0.0
 10
18.7515716631
 20
12.7223885301
 30
0.0
 10
18.7640321085
 20
12.7263133757
 30
0.0
 10
18.7761994669
 20
12.7287805675
 30
0.0
 10
18.7861323979
 20
12.7296096977
 30
0.0
 10
18.793805662
 20
12.7294988783
 30
0.0
 10
18.7993586005
 20
12.7290442004
 30
0.0
 10
18.8047636409
 20
12.7282169711
 30
0.0
 10
18.8100099283
 20
12.7270192357
 30
0.0
 10
18.8150859824
 20
12.7254529771
 30
0.0
 10
18.818361606
 20
12.7241604159
 30
0.0
 10
18.8199635232
 20
12.7234550603
 30
0.0
  0
SPLINE
  5
5D8
100
AcDbEntity
  8
AXIS_COSMETIC_THREADS
100
AcDbSpline
 62
7
  6
CONTINUOUS
 70
0
 71
3
 72
9
 73
5
 74
0
 42
0.0000001
 43
0.0000001
 44
0.0000000001
 40
0.0
 40
0.0
 40
0.0
 40
0.0
 40
0.4929857092
 40
1.0
 40
1.0
 40
1.0
 40
1.0
 10
18.7688841815
 20
12.6367745509
 30
0.0
 10
18.7669138117
 20
12.6356369642
 30
0.0
 10
18.7629762152
 20
12.6332256391
 30
0.0
 10
18.7591591197
 20
12.6306283016
 30
0.0
 10
18.7572546936
 20
12.6292687353
 30
0.0
  0
SPLINE
  5
5D9
100
AcDbEntity
  8
AXIS_COSMETIC_THREADS
100
AcDbSpline
 62
7
  6
CONTINUOUS
 70
0
 71
3
 72
23
 73
19
 74
0
 42
0.0000001
 43
0.0000001
 44
0.0000000001
 40
0.0
 40
0.0
 40
0.0
 40
0.0
 40
0.0576034428
 40
0.117078372
 40
0.1782260774
 40
0.2408058129
 40
0.3045564869
 40
0.3692014788
 40
0.434449472
 40
0.5000011357
 40
0.5655528022
 40
0.6308007384
 40
0.6954456996
 40
0.7591965255
 40
0.8217757631
 40
0.882923129
 40
0.9424008806
 40
1.0
 40
1.0
 40
1.0
 40
1.0
 10
18.7572546936
 20
12.6292687353
 30
0.0
 10
18.7544716392
 20
12.6272819177
 30
0.0
 10
18.748946725
 20
12.6230565629
 30
0.0
 10
18.7409409773
 20
12.6161310754
 30
0.0
 10
18.7331290379
 20
12.6085568186
 30
0.0
 10
18.7255651534
 20
12.6003861263
 30
0.0
 10
18.7183014077
 20
12.5916757126
 30
0.0
 10
18.7113883476
 20
12.5824857091
 30
0.0
 10
18.7048736427
 20
12.5728798519
 30
0.0
 10
18.6988023484
 20
12.5629247437
 30
0.0
 10
18.6932168467
 20
12.5526891741
 30
0.0
 10
18.6881555093
 20
12.5422442416
 30
0.0
 10
18.6836534885
 20
12.5316622536
 30
0.0
 10
18.67974219
 20
12.5210163836
 30
0.0
 10
18.6764483249
 20
12.510380498
 30
0.0
 10
18.673794947
 20
12.4998278686
 30
0.0
 10
18.6718006082
 20
12.4894319709
 30
0.0
 10
18.6709038911
 20
12.4825346617
 30
0.0
 10
18.6705748109
 20
12.4791313123
 30
0.0
  0
SPLINE
  5
5DA
100
AcDbEntity
  8
AXIS_COSMETIC_THREADS
100
AcDbSpline
 62
7
  6
CONTINUOUS
 70
0
 71
3
 72
11
 73
7
 74
0
 42
0.0000001
 43
0.0000001
 44
0.0000000001
 40
0.0
 40
0.0
 40
0.0
 40
0.0
 40
0.2642647612
 40
0.5192342806
 40
0.7645407347
 40
1.0
 40
1.0
 40
1.0
 40
1.0
 10
18.6705748109
 20
12.4791313123
 30
0.0
 10
18.6702891296
 20
12.4761767957
 30
0.0
 10
18.6698933344
 20
12.4703539675
 30
0.0
 10
18.6698440563
 20
12.4617607477
 30
0.0
 10
18.670349823
 20
12.453505942
 30
0.0
 10
18.6710706102
 20
12.4481479535
 30
0.0
 10
18.6715284463
 20
12.4455431386
 30
0.0
  0
SPLINE
  5
5DB
100
AcDbEntity
  8
AXIS_COSMETIC_THREADS
100
AcDbSpline
 62
7
  6
CONTINUOUS
 70
0
 71
3
 72
29
 73
25
 74
0
 42
0.0000001
 43
0.0000001
 44
0.0000000001
 40
0.0
 40
0.0
 40
0.0
 40
0.0
 40
0.0688250331
 40
0.1342921071
 40
0.1966483247
 40
0.256279527
 40
0.2852489809
 40
0.3137467857
 40
0.3418590266
 40
0.3696783949
 40
0.3973032276
 40
0.4248349501
 40
0.4523769613
 40
0.4800323946
 40
0.5079021828
 40
0.5360837889
 40
0.5646685237
 40
0.5937411403
 40
0.6536211436
 40
0.7162719954
 40
0.7820624148
 40
0.8512252752
 40
0.9238861026
 40
1.0
 40
1.0
 40
1.0
 40
1.0
 10
18.6715284463
 20
12.4455431386
 30
0.0
 10
18.6720345128
 20
12.4426639215
 30
0.0
 10
18.6732726658
 20
12.4370854212
 30
0.0
 10
18.675899581
 20
12.4291405217
 30
0.0
 10
18.6792316329
 20
12.4218896859
 30
0.0
 10
18.6826122893
 20
12.4164185202
 30
0.0
 10
18.6856424106
 20
12.4124700997
 30
0.0
 10
18.6880509969
 20
12.4097435142
 30
0.0
 10
18.6906125491
 20
12.4072293318
 30
0.0
 10
18.6933225633
 20
12.4049326829
 30
0.0
 10
18.6961754782
 20
12.4028577281
 30
0.0
 10
18.6991658958
 20
12.4010085853
 30
0.0
 10
18.7022882067
 20
12.3993892647
 30
0.0
 10
18.705536057
 20
12.398002423
 30
0.0
 10
18.7089032156
 20
12.3968507588
 30
0.0
 10
18.7123832037
 20
12.3959368287
 30
0.0
 10
18.7159692792
 20
12.3952617563
 30
0.0
 10
18.7209305466
 20
12.3946760542
 30
0.0
 10
18.727388215
 20
12.3945649314
 30
0.0
 10
18.7353607782
 20
12.3954005288
 30
0.0
 10
18.7435764135
 20
12.3971925419
 30
0.0
 10
18.7519746345
 20
12.3999255525
 30
0.0
 10
18.7604928734
 20
12.403577092
 30
0.0
 10
18.7660843615
 20
12.406537407
 30
0.0
 10
18.7688841815
 20
12.4081538741
 30
0.0
  0
SPLINE
  5
5DC
100
AcDbEntity
  8
AXIS_COSMETIC_THREADS
100
AcDbSpline
 62
7
  6
CONTINUOUS
 70
0
 71
3
 72
11
 73
7
 74
0
 42
0.0000001
 43
0.0000001
 44
0.0000000001
 40
0.0
 40
0.0
 40
0.0
 40
0.0
 40
0.2448117315
 40
0.4917539754
 40
0.7428590629
 40
1.0
 40
1.0
 40
1.0
 40
1.0
 10
18.723887335
 20
12.44452018
 30
0.0
 10
18.7248821127
 20
12.4439459183
 30
0.0
 10
18.7269487828
 20
12.4429066924
 30
0.0
 10
18.7302275449
 20
12.441703579
 30
0.0
 10
18.7336753769
 20
12.4408575339
 30
0.0
 10
18.7360436918
 20
12.4405388321
 30
0.0
 10
18.7372459106
 20
12.4404375074
 30
0.0
  0
SPLINE
  5
5DD
100
AcDbEntity
  8
AXIS_COSMETIC_THREADS
100
AcDbSpline
 62
7
  6
CONTINUOUS
 70
0
 71
3
 72
9
 73
5
 74
0
 42
0.0000001
 43
0.0000001
 44
0.0000000001
 40
0.0
 40
0.0
 40
0.0
 40
0.0
 40
0.5122302594
 40
1.0
 40
1.0
 40
1.0
 40
1.0
 10
18.7688841815
 20
12.6367745509
 30
0.0
 10
18.7718194475
 20
12.6384692174
 30
0.0
 10
18.7776798661
 20
12.6415588235
 30
0.0
 10
18.7837873179
 20
12.6441321514
 30
0.0
 10
18.7868195455
 20
12.6452377422
 30
0.0
  0
SPLINE
  5
5DE
100
AcDbEntity
  8
AXIS_COSMETIC_THREADS
100
AcDbSpline
 62
7
  6
CONTINUOUS
 70
0
 71
3
 72
35
 73
31
 74
0
 42
0.0000001
 43
0.0000001
 44
0.0000000001
 40
0.0
 40
0.0
 40
0.0
 40
0.0
 40
0.0671865194
 40
0.0994493842
 40
0.1308583689
 40
0.161454973
 40
0.1912932998
 40
0.2204394618
 40
0.2489695737
 40
0.2769713147
 40
0.3045416582
 40
0.3317857823
 40
0.3588162996
 40
0.385749921
 40
0.4127057273
 40
0.4398021376
 40
0.4671545911
 40
0.4948733149
 40
0.5230604465
 40
0.5518099007
 40
0.5812049586
 40
0.6113175933
 40
0.6422098476
 40
0.6739313424
 40
0.706521112
 40
0.7400088085
 40
0.774412488
 40
0.8459799369
 40
0.9212225367
 40
1.0
 40
1.0
 40
1.0
 40
1.0
 10
18.7868195455
 20
12.6452377422
 30
0.0
 10
18.7897922955
 20
12.6463216468
 30
0.0
 10
18.7942755652
 20
12.6477160479
 30
0.0
 10
18.8002955653
 20
12.6490470265
 30
0.0
 10
18.8046817091
 20
12.6497519378
 30
0.0
 10
18.8089893148
 20
12.650174542
 30
0.0
 10
18.813209
 20
12.6503137346
 30
0.0
 10
18.817331354
 20
12.6501694611
 30
0.0
 10
18.8213472017
 20
12.6497412212
 30
0.0
 10
18.8252474963
 20
12.6490300871
 30
0.0
 10
18.8290234785
 20
12.6480376497
 30
0.0
 10
18.8326663165
 20
12.6467653401
 30
0.0
 10
18.8361677898
 20
12.6452165143
 30
0.0
 10
18.8395198366
 20
12.6433945243
 30
0.0
 10
18.8427144586
 20
12.6413031582
 30
0.0
 10
18.8457447055
 20
12.6389478506
 30
0.0
 10
18.84860348
 20
12.6363337395
 30
0.0
 10
18.8512842319
 20
12.6334668606
 30
0.0
 10
18.8537814691
 20
12.6303542266
 30
0.0
 10
18.8560892864
 20
12.6270026108
 30
0.0
 10
18.8582028515
 20
12.6234198116
 30
0.0
 10
18.8601179485
 20
12.6196140417
 30
0.0
 10
18.8618299567
 20
12.6155935732
 30
0.0
 10
18.8633356738
 20
12.6113675624
 30
0.0
 10
18.8646319607
 20
12.6069453778
 30
0.0
 10
18.8657156473
 20
12.6023365996
 30
0.0
 10
18.8668900646
 20
12.5958721232
 30
0.0
 10
18.8677940086
 20
12.5873720902
 30
0.0
 10
18.8679918019
 20
12.5767385006
 30
0.0
 10
18.8675506251
 20
12.569489961
 30
0.0
 10
18.8671935522
 20
12.5657971127
 30
0.0
  0
SPLINE
  5
5DF
100
AcDbEntity
  8
AXIS_COSMETIC_THREADS
100
AcDbSpline
 62
7
  6
CONTINUOUS
 70
0
 71
3
 72
9
 73
5
 74
0
 42
0.0000001
 43
0.0000001
 44
0.0000000001
 40
0.0
 40
0.0
 40
0.0
 40
0.0
 40
0.5070142908
 40
1.0
 40
1.0
 40
1.0
 40
1.0
 10
18.7805136695
 20
12.4156596898
 30
0.0
 10
18.7786092434
 20
12.4143001235
 30
0.0
 10
18.7747921479
 20
12.411702786
 30
0.0
 10
18.7708545514
 20
12.4092914609
 30
0.0
 10
18.7688841815
 20
12.4081538741
 30
0.0
  0
SPLINE
  5
5E0
100
AcDbEntity
  8
02___PRT_ALL_AXES
100
AcDbSpline
 62
7
  6
CONTINUOUS
 70
0
 71
3
 72
16
 73
12
 74
0
 42
0.0000001
 43
0.0000001
 44
0.0000000001
 40
0.0
 40
0.0
 40
0.0
 40
0.0
 40
0.0428786888
 40
0.0875276076
 40
0.1869346782
 40
0.3042506241
 40
0.4379793998
 40
0.5823886662
 40
0.7296085973
 40
0.871263649
 40
1.0
 40
1.0
 40
1.0
 40
1.0
 10
20.7026566685
 20
11.306012644
 30
0.0
 10
20.7047920474
 20
11.304779811
 30
0.0
 10
20.7094991523
 20
11.3028234597
 30
0.0
 10
20.7202278508
 20
11.3012509744
 30
0.0
 10
20.7353738891
 20
11.3042083589
 30
0.0
 10
20.7532156196
 20
11.313995559
 30
0.0
 10
20.7703658054
 20
11.3291654148
 30
0.0
 10
20.7854934807
 20
11.3485385711
 30
0.0
 10
20.7974082307
 20
11.3705571495
 30
0.0
 10
20.8051368417
 20
11.3934135399
 30
0.0
 10
20.8072081873
 20
11.4089798994
 30
0.0
 10
20.8072081873
 20
11.4163827928
 30
0.0
  0
SPLINE
  5
5E1
100
AcDbEntity
  8
02___PRT_ALL_AXES
100
AcDbSpline
 62
7
  6
CONTINUOUS
 70
0
 71
3
 72
11
 73
7
 74
0
 42
0.0000001
 43
0.0000001
 44
0.0000000001
 40
0.0
 40
0.0
 40
0.0
 40
0.0
 40
0.2898075974
 40
0.5490483138
 40
0.7822283121
 40
1.0
 40
1.0
 40
1.0
 40
1.0
 10
20.8072081873
 20
11.4163827928
 30
0.0
 10
20.8072081873
 20
11.4207730337
 30
0.0
 10
20.8065452379
 20
11.4291192179
 30
0.0
 10
20.8031613172
 20
11.4405853661
 30
0.0
 10
20.7974737274
 20
11.4498908615
 30
0.0
 10
20.7921262968
 20
11.4543840193
 30
0.0
 10
20.7892692776
 20
11.4560334818
 30
0.0
  0
SPLINE
  5
5E2
100
AcDbEntity
  8
02___PRT_ALL_AXES
100
AcDbSpline
 62
7
  6
CONTINUOUS
 70
0
 71
3
 72
11
 73
7
 74
0
 42
0.0000001
 43
0.0000001
 44
0.0000000001
 40
0.0
 40
0.0
 40
0.0
 40
0.0
 40
0.2898075974
 40
0.5490483138
 40
0.7822283121
 40
1.0
 40
1.0
 40
1.0
 40
1.0
 10
20.6847177588
 20
11.345663333
 30
0.0
 10
20.6847177588
 20
11.3412730921
 30
0.0
 10
20.6853807082
 20
11.3329269079
 30
0.0
 10
20.6887646289
 20
11.3214607597
 30
0.0
 10
20.6944522187
 20
11.3121552643
 30
0.0
 10
20.6997996493
 20
11.3076621065
 30
0.0
 10
20.7026566685
 20
11.306012644
 30
0.0
  0
SPLINE
  5
5E3
100
AcDbEntity
  8
02___PRT_ALL_AXES
100
AcDbSpline
 62
7
  6
CONTINUOUS
 70
0
 71
3
 72
16
 73
12
 74
0
 42
0.0000001
 43
0.0000001
 44
0.0000000001
 40
0.0
 40
0.0
 40
0.0
 40
0.0
 40
0.0428786888
 40
0.0875276076
 40
0.1869346782
 40
0.3042506241
 40
0.4379793998
 40
0.5823886662
 40
0.7296085973
 40
0.871263649
 40
1.0
 40
1.0
 40
1.0
 40
1.0
 10
20.7892692776
 20
11.4560334818
 30
0.0
 10
20.7871338987
 20
11.4572663148
 30
0.0
 10
20.7824267938
 20
11.4592226661
 30
0.0
 10
20.7716980954
 20
11.4607951514
 30
0.0
 10
20.756552057
 20
11.4578377669
 30
0.0
 10
20.7387103265
 20
11.4480505668
 30
0.0
 10
20.7215601407
 20
11.432880711
 30
0.0
 10
20.7064324654
 20
11.4135075547
 30
0.0
 10
20.6945177154
 20
11.3914889763
 30
0.0
 10
20.6867891044
 20
11.3686325859
 30
0.0
 10
20.6847177588
 20
11.3530662264
 30
0.0
 10
20.6847177588
 20
11.345663333
 30
0.0
  0
SPLINE
  5
5E4
100
AcDbEntity
  8
SURFACE
100
AcDbSpline
 62
7
  6
CONTINUOUS
 70
0
 71
3
 72
15
 73
11
 74
0
 42
0.0000001
 43
0.0000001
 44
0.0000000001
 40
0.0
 40
0.0
 40
0.0
 40
0.0
 40
0.1484014017
 40
0.2893989521
 40
0.4227479459
 40
0.5486790946
 40
0.6680127845
 40
0.7819271377
 40
0.891978381
 40
1.0
 40
1.0
 40
1.0
 40
1.0
 10
19.9752029216
 20
12.9894903517
 30
0.0
 10
19.9752029216
 20
12.9871493811
 30
0.0
 10
19.9750123572
 20
12.9825811395
 30
0.0
 10
19.9741135025
 20
12.9759628952
 30
0.0
 10
19.9726127838
 20
12.9698161006
 30
0.0
 10
19.9705166715
 20
12.9642071182
 30
0.0
 10
19.9678482567
 20
12.959188484
 30
0.0
 10
19.9646234578
 20
12.9548113078
 30
0.0
 10
19.9608747177
 20
12.9511228253
 30
0.0
 10
19.9580385555
 20
12.949141614
 30
0.0
 10
19.9565628493
 20
12.9482896195
 30
0.0
  0
SPLINE
  5
5E5
100
AcDbEntity
  8
SURFACE
100
AcDbSpline
 62
7
  6
CONTINUOUS
 70
0
 71
3
 72
9
 73
5
 74
0
 42
0.0000001
 43
0.0000001
 44
0.0000000001
 40
0.0
 40
0.0
 40
0.0
 40
0.0
 40
0.2466856253
 40
1.0
 40
1.0
 40
1.0
 40
1.0
 10
14.3986017383
 20
13.277702139
 30
0.0
 10
14.3991867187
 20
13.2760130385
 30
0.0
 10
14.401688704
 20
13.2692116134
 30
0.0
 10
14.4046975542
 20
13.2625981582
 30
0.0
 10
14.4072145232
 20
13.2577544212
 30
0.0
  0
SPLINE
  5
5E6
100
AcDbEntity
  8
SURFACE
100
AcDbSpline
 62
7
  6
CONTINUOUS
 70
0
 71
3
 72
9
 73
5
 74
0
 42
0.0000001
 43
0.0000001
 44
0.0000000001
 40
0.0
 40
0.0
 40
0.0
 40
0.0
 40
0.2526343519
 40
1.0
 40
1.0
 40
1.0
 40
1.0
 10
14.4131089652
 20
13.2474022226
 30
0.0
 10
14.4140997865
 20
13.2458076625
 30
0.0
 10
14.4181357462
 20
13.2395677428
 30
0.0
 10
14.4226221389
 20
13.2336171249
 30
0.0
 10
14.4262192226
 20
13.2293857831
 30
0.0
  0
LINE
  5
5E7
100
AcDbEntity
  8
SURFACE
100
AcDbLine
 62
7
  6
CONTINUOUS
 10
14.4489910031
 20
13.2083737049
 11
14.4555253092
 21
13.2042110392
  0
SPLINE
  5
5E8
100
AcDbEntity
  8
SURFACE
100
AcDbSpline
 62
7
  6
CONTINUOUS
 70
0
 71
3
 72
9
 73
5
 74
0
 42
0.0000001
 43
0.0000001
 44
0.0000000001
 40
0.0
 40
0.0
 40
0.0
 40
0.0
 40
0.4876485768
 40
1.0
 40
1.0
 40
1.0
 40
1.0
 10
17.3884429854
 20
11.5122504364
 30
0.0
 10
17.3904182207
 20
11.5114617331
 30
0.0
 10
17.3946625687
 20
11.5103017028
 30
0.0
 10
17.3990459997
 20
11.5100339457
 30
0.0
 10
17.4012797586
 20
11.5100959313
 30
0.0
  0
SPLINE
  5
5E9
100
AcDbEntity
  8
SURFACE
100
AcDbSpline
 62
7
  6
CONTINUOUS
 70
0
 71
3
 72
10
 73
6
 74
0
 42
0.0000001
 43
0.0000001
 44
0.0000000001
 40
0.0
 40
0.0
 40
0.0
 40
0.0
 40
0.2710371021
 40
0.5282720459
 40
1.0
 40
1.0
 40
1.0
 40
1.0
 10
14.421584325
 20
13.2532015228
 30
0.0
 10
14.421584325
 20
13.2509996451
 30
0.0
 10
14.4217646062
 20
13.2467034889
 30
0.0
 10
14.4228648884
 20
13.2386504019
 30
0.0
 10
14.4245787727
 20
13.2329054114
 30
0.0
 10
14.4261717441
 20
13.229419908
 30
0.0
  0
SPLINE
  5
5EA
100
AcDbEntity
  8
SURFACE
100
AcDbSpline
 62
7
  6
CONTINUOUS
 70
0
 71
3
 72
11
 73
7
 74
0
 42
0.0000001
 43
0.0000001
 44
0.0000000001
 40
0.0
 40
0.0
 40
0.0
 40
0.0
 40
0.2641465676
 40
0.5165052456
 40
0.7604763577
 40
1.0
 40
1.0
 40
1.0
 40
1.0
 10
14.4261717441
 20
13.229419908
 30
0.0
 10
14.4268944366
 20
13.2278386197
 30
0.0
 10
14.4285074918
 20
13.2248318748
 30
0.0
 10
14.4314959107
 20
13.2207931762
 30
0.0
 10
14.434966532
 20
13.2173854234
 30
0.0
 10
14.437590728
 20
13.2155540315
 30
0.0
 10
14.4389550267
 20
13.2147639885
 30
0.0
  0
SPLINE
  5
5EB
100
AcDbEntity
  8
SURFACE
100
AcDbSpline
 62
7
  6
CONTINUOUS
 70
0
 71
3
 72
15
 73
11
 74
0
 42
0.0000001
 43
0.0000001
 44
0.0000000001
 40
0.0
 40
0.0
 40
0.0
 40
0.0
 40
0.1080221295
 40
0.2180737989
 40
0.3319884365
 40
0.4513222326
 40
0.5772532977
 40
0.710602025
 40
0.8515991424
 40
1.0
 40
1.0
 40
1.0
 40
1.0
 10
17.4463442272
 20
11.4990228733
 30
0.0
 10
17.4448685532
 20
11.4981708975
 30
0.0
 10
17.4417347591
 20
11.4967053568
 30
0.0
 10
17.4366661874
 20
11.4953031225
 30
0.0
 10
17.4312631758
 20
11.4946989486
 30
0.0
 10
17.4255828492
 20
11.4948973123
 30
0.0
 10
17.4196774255
 20
11.4958864463
 30
0.0
 10
17.4136039445
 20
11.4976600814
 30
0.0
 10
17.4074231087
 20
11.500190641
 30
0.0
 10
17.4033717144
 20
11.5023096258
 30
0.0
 10
17.4013444242
 20
11.5034800558
 30
0.0
  0
SPLINE
  5
5EC
100
AcDbEntity
  8
SURFACE
100
AcDbSpline
 62
7
  6
CONTINUOUS
 70
0
 71
3
 72
15
 73
11
 74
0
 42
0.0000001
 43
0.0000001
 44
0.0000000001
 40
0.0
 40
0.0
 40
0.0
 40
0.0
 40
0.1484014017
 40
0.2893989521
 40
0.4227479459
 40
0.5486790946
 40
0.6680127845
 40
0.7819271377
 40
0.891978381
 40
1.0
 40
1.0
 40
1.0
 40
1.0
 10
17.4649842995
 20
11.5402236055
 30
0.0
 10
17.4649842995
 20
11.5378826348
 30
0.0
 10
17.4647937351
 20
11.5333143933
 30
0.0
 10
17.4638948804
 20
11.526696149
 30
0.0
 10
17.4623941617
 20
11.5205493544
 30
0.0
 10
17.4602980494
 20
11.514940372
 30
0.0
 10
17.4576296346
 20
11.5099217377
 30
0.0
 10
17.4544048357
 20
11.5055445616
 30
0.0
 10
17.4506560956
 20
11.5018560791
 30
0.0
 10
17.4478199334
 20
11.4998748677
 30
0.0
 10
17.4463442272
 20
11.4990228733
 30
0.0
  0
SPLINE
  5
5ED
100
AcDbEntity
  8
SURFACE
100
AcDbSpline
 62
7
  6
CONTINUOUS
 70
0
 71
3
 72
15
 73
11
 74
0
 42
0.0000001
 43
0.0000001
 44
0.0000000001
 40
0.0
 40
0.0
 40
0.0
 40
0.0
 40
0.1484654359
 40
0.2894368811
 40
0.4226974246
 40
0.548598976
 40
0.6679271567
 40
0.7818596477
 40
0.8919489403
 40
1.0
 40
1.0
 40
1.0
 40
1.0
 10
17.36740344
 20
11.5524705395
 30
0.0
 10
17.36740344
 20
11.5502862244
 30
0.0
 10
17.3675804956
 20
11.5460249907
 30
0.0
 10
17.3684172737
 20
11.5398527247
 30
0.0
 10
17.3698178013
 20
11.5341222256
 30
0.0
 10
17.3717688232
 20
11.5288913804
 30
0.0
 10
17.3742556292
 20
11.5242098882
 30
0.0
 10
17.3772590888
 20
11.5201235568
 30
0.0
 10
17.3807529761
 20
11.5166787006
 30
0.0
 10
17.3833984428
 20
11.5148296499
 30
0.0
 10
17.3847741417
 20
11.5140330051
 30
0.0
  0
SPLINE
  5
5EE
100
AcDbEntity
  8
SURFACE
100
AcDbSpline
 62
7
  6
CONTINUOUS
 70
0
 71
3
 72
9
 73
5
 74
0
 42
0.0000001
 43
0.0000001
 44
0.0000000001
 40
0.0
 40
0.0
 40
0.0
 40
0.0
 40
0.4793684681
 40
1.0
 40
1.0
 40
1.0
 40
1.0
 10
17.4102901849
 20
11.5391003011
 30
0.0
 10
17.4087802673
 20
11.5394220902
 30
0.0
 10
17.4056927357
 20
11.5403996627
 30
0.0
 10
17.4027965108
 20
11.5418338282
 30
0.0
 10
17.4013444242
 20
11.5426721719
 30
0.0
  0
ENDSEC
  0
SECTION
  2
OBJECTS
  0
DICTIONARY
  5
C
100
AcDbDictionary
280
0
281
1
  3
ACAD_GROUP
350
D
  3
ACAD_MLINESTYLE
350
17
  3
ACAD_LAYOUT
350
1A
  3
ACAD_PLOTSETTINGS
350
19
  3
ACAD_PLOTSTYLENAME
350
E
  3
ACAD_TABLESTYLE
350
       5EF
  0
DICTIONARY
  5
D
102
{ACAD_REACTORS
330
C
102
}
100
AcDbDictionary
280
0
281
1
  0
ACDBDICTIONARYWDFLT
  5
E
102
{ACAD_REACTORS
330
C
102
}
100
AcDbDictionary
281
1
  3
Normal
350
F
100
AcDbDictionaryWithDefault
340
F
  0
DICTIONARY
  5
17
102
{ACAD_REACTORS
330
C
102
}
100
AcDbDictionary
280
0
281
1
  3
Standard
350
18
  0
DICTIONARY
  5
5EF
330
C
100
AcDbDictionary
281
1
  3
Standard
350
       5F2
  3
Standard1
350
       5F3
  0
DICTIONARY
  5
19
102
{ACAD_REACTORS
330
C
102
}
100
AcDbDictionary
281
1
  0
DICTIONARY
  5
1A
102
{ACAD_REACTORS
330
C
102
}
100
AcDbDictionary
281
1
  3
Model
350
5F0
  3
Layout1
350
5F1
  0
ACDBPLACEHOLDER
  5
F
102
{ACAD_REACTORS
330
E
102
}
  0
MLINESTYLE
  5
18
102
{ACAD_REACTORS
330
17
102
}
100
AcDbMlineStyle
  2
STANDARD
 70
0
  3

 62
256
 51
90.0
 52
90.0
 71
2
 49
0.5
 62
256
  6
BYLAYER
 49
-0.5
 62
256
  6
BYLAYER
  0
LAYOUT
  5
5F0
102
{ACAD_REACTORS
330
1A
102
}
100
AcDbPlotSettings
  1

  2
none_device
  4
ANSI_C_(22.00_x_17.00_Inches)
  6

 40
0.0
 41
0.0
 42
0.0
 43
0.0
 44
558.8
 45
431.8
 46
0.0
 47
0.0
 48
0.0
 49
0.0
140
0.0
141
0.0
142
1.0
143
1.0
 70
1024
 72
0
 73
0
 74
0
  7

 75
0
147
1.0
148
0.0
149
0.0
100
AcDbLayout
  1
Model
 70
0
 71
0
 10
0.0
 20
0.0
 11
22.0
 21
17.0
 12
0.0
 22
0.0
 32
0.0
 14
0.0
 24
0.0
 34
0.0
 15
0.0
 25
0.0
 35
0.0
146
0.0
 13
0.0
 23
0.0
 33
0.0
 16
1.0
 26
0.0
 36
0.0
 17
0.0
 27
1.0
 37
0.0
 76
0
330
219
345
0
346
0
  0
LAYOUT
  5
5F1
102
{ACAD_REACTORS
330
1A
102
}
100
AcDbPlotSettings
  1

  2
none_device
  4
ANSI_C_(22.00_x_17.00_Inches)
  6

 40
0.0
 41
0.0
 42
0.0
 43
0.0
 44
558.8
 45
431.8
 46
0.0
 47
0.0
 48
0.0
 49
0.0
140
0.0
141
0.0
142
1.0
143
1.0
 70
0
 72
0
 73
0
 74
0
  7

 75
0
147
1.0
148
0.0
149
0.0
100
AcDbLayout
  1
Layout1
 70
0
 71
1
 10
0.0
 20
0.0
 11
22.0
 21
17.0
 12
0.0
 22
0.0
 32
0.0
 14
0.0
 24
0.0
 34
0.0
 15
0.0
 25
0.0
 35
0.0
146
0.0
 13
0.0
 23
0.0
 33
0.0
 16
1.0
 26
0.0
 36
0.0
 17
0.0
 27
1.0
 37
0.0
 76
0
330
21A
345
0
346
0
  0
TABLESTYLE
  5
5F2
102
{ACAD_REACTORS
330
5EF
102
}
330
5EF
100
AcDbTableStyle
  3
Standard
 70
0
 71
0
 40
0.06
 41
0.06
280
1
281
1
  7
Standard
140
0.18
170
1
 62
0
 63
7
283
0
  7
Standard
140
0.18
170
1
 62
0
 63
7
283
0
  7
Standard
140
0.18
170
1
 62
0
 63
7
283
0
  0
TABLESTYLE
  5
5F3
102
{ACAD_REACTORS
330
5EF
330
2B6
102
}
330
5EF
100
AcDbTableStyle
  3
Standard1
 70
1
 71
0
 40
0.06
 41
0.06
280
1
281
1
  7
Standard
140
0.18
170
1
 62
0
 63
7
283
0
  7
Standard
140
0.18
170
1
 62
0
 63
7
283
0
  7
Standard
140
0.18
170
1
 62
0
 63
7
283
0
  0
ENDSEC
  0
EOF
