999
DXF file: 192818_1.dxf
999
Pro/ENGINEER 2013230 by Parametric Technology Corporation
  0
SECTION
  2
HEADER
  9
$ACADVER
  1
AC1018
  9
$DWGCODEPAGE
  3
ANSI_1252
  9
$EXTMAX
 10
22.0
 20
17.0
 30
0.0
  9
$EXTMIN
 10
0.0
 20
0.0
 30
0.0
  9
$LIMMIN
 10
0.0
 20
0.0
  9
$LIMMAX
 10
22.0
 20
17.0
  9
$VIEWCTR
 10
11.0
 20
8.5
  9
$VIEWSIZE
 40
17.0
  9
$CLAYER
  8
0
  9
$LTSCALE
 40
1.21
  9
$CELTYPE
  6
BYLAYER
  9
$DIMSCALE
 40
1.0
  9
$DIMASZ
 40
0.1875
  9
$DIMEXO
 40
0.0625
  9
$DIMDLI
 40
0.836
  9
$DIMEXE
 40
0.125
  9
$DIMCEN
 40
0.198
  9
$DIMLFAC
 40
1.0
  9
$DIMBLK
  1
_FILLED
  9
$DIMTXT
 40
0.1
  9
$DIMTOL
 70
1
  9
$DIMLIM
 70
0
  9
$DIMTFAC
 40
1.0
  9
$DIMTP
 40
0.01
  9
$DIMTM
 40
0.01
  9
$DIMGAP
 40
0.09
  9
$DIMDSEP
 70
46
  9
$PDMODE
 70
3
  9
$PDSIZE
 40
0.3125
  9
$HANDSEED
  5
5CB
  9
$TILEMODE
 70
1
  9
$MEASUREMENT
 70
0
  9
$INSUNITS
 70
1
  0
ENDSEC
  0
SECTION
  2
CLASSES
  0
CLASS
  1
ACDBDICTIONARYWDFLT
  2
AcDbDictionaryWithDefault
  3
AutoCAD 2000
 90
0
 91
1
280
0
281
0
  0
CLASS
  1
ACDBPLACEHOLDER
  2
AcDbPlaceHolder
  3
AutoCAD 2000
 90
0
 91
1
280
0
281
0
  0
CLASS
  1
LAYOUT
  2
AcDbLayout
  3
AutoCAD 2000
 90
0
 91
0
280
0
281
0
  0
CLASS
  1
TABLESTYLE
  2
AcDbTableStyle
  3
ObjectDBX Classes
 90
2047
 91
1
280
0
281
0
  0
CLASS
  1
ACAD_TABLE
  2
AcDbTable
  3
ObjectDBX Classes
 90
1025
 91
1
280
0
281
1
  0
ENDSEC
  0
SECTION
  2
TABLES
  0
TABLE
  2
VPORT
  5
8
100
AcDbSymbolTable
 70
2
  0
VPORT
  5
1F4
100
AcDbSymbolTableRecord
100
AcDbViewportTableRecord
  2
*ACTIVE
 70
0
 10
0.0
 20
0.0
 11
1.0
 21
1.0
 12
11.0
 22
8.5
 13
0.0
 23
0.0
 14
1.0
 24
1.0
 15
0.0
 25
0.0
 16
0.0
 26
0.0
 36
1.0
 17
0.0
 27
0.0
 37
0.0
 40
17.0
 41
1.2941176471
 42
50.0
 43
0.0
 44
0.0
 50
0.0
 51
0.0
 71
0
 72
100
 73
1
 74
1
 75
0
 76
0
 77
0
 78
0
  0
ENDTAB
  0
TABLE
  2
LTYPE
  5
5
100
AcDbSymbolTable
 70
6
  0
LTYPE
  5
14
100
AcDbSymbolTableRecord
100
AcDbLinetypeTableRecord
  2
BYBLOCK
 70
0
  3

 72
65
 73
0
 40
0.0
  0
LTYPE
  5
15
100
AcDbSymbolTableRecord
100
AcDbLinetypeTableRecord
  2
BYLAYER
 70
0
  3

 72
65
 73
0
 40
0.0
  0
LTYPE
  5
16
100
AcDbSymbolTableRecord
100
AcDbLinetypeTableRecord
  2
CONTINUOUS
 70
64
  3
Solid line
 72
65
 73
0
 40
0.0
  0
LTYPE
  5
1F5
100
AcDbSymbolTableRecord
100
AcDbLinetypeTableRecord
  2
CENTER
 70
64
  3
____ _ ____ _ ____ _ ____ _ ____ _ ____ _ ____
 72
65
 73
4
 40
0.6
 49
0.375
 74
0
 49
-0.075
 74
0
 49
0.075
 74
0
 49
-0.075
 74
0
  0
LTYPE
  5
1F6
100
AcDbSymbolTableRecord
100
AcDbLinetypeTableRecord
  2
HIDDEN
 70
64
  3
- - - - - - - - - - - - - - - - - - - -
 72
65
 73
2
 40
0.2
 49
0.1
 74
0
 49
-0.1
 74
0
  0
LTYPE
  5
1F7
100
AcDbSymbolTableRecord
100
AcDbLinetypeTableRecord
  2
PHANTOM
 70
64
  3
_____ _ _ _____ _ _ _____ _ _ _____
 72
65
 73
6
 40
0.8
 49
0.45
 74
0
 49
-0.05
 74
0
 49
0.1
 74
0
 49
-0.05
 74
0
 49
0.1
 74
0
 49
-0.05
 74
0
  0
LTYPE
  5
1F8
100
AcDbSymbolTableRecord
100
AcDbLinetypeTableRecord
  2
DOT
 70
64
  3
. . . . . . . . . . . . . . . . . . . .
 72
65
 73
2
 40
0.2
 49
0.1
 74
0
 49
-0.1
 74
0
  0
LTYPE
  5
1F9
100
AcDbSymbolTableRecord
100
AcDbLinetypeTableRecord
  2
DASHED
 70
64
  3
- - - - - - - - - - - - - - - - - - - -
 72
65
 73
2
 40
0.2
 49
0.1
 74
0
 49
-0.1
 74
0
  0
ENDTAB
  0
TABLE
  2
LAYER
  5
2
100
AcDbSymbolTable
 70
36
  0
LAYER
  5
10
100
AcDbSymbolTableRecord
100
AcDbLayerTableRecord
  2
0
 70
0
 62
7
  6
CONTINUOUS
370
-3
390
F
  0
LAYER
  5
1FA
100
AcDbSymbolTableRecord
100
AcDbLayerTableRecord
  2
DEFAULT_1
 70
0
 62
7
  6
CENTER
370
-3
390
F
  0
LAYER
  5
1FB
100
AcDbSymbolTableRecord
100
AcDbLayerTableRecord
  2
DEFAULT_2
 70
0
 62
7
  6
HIDDEN
370
-3
390
F
  0
LAYER
  5
1FC
100
AcDbSymbolTableRecord
100
AcDbLayerTableRecord
  2
DEFAULT_3
 70
0
 62
7
  6
PHANTOM
370
-3
390
F
  0
LAYER
  5
1FD
100
AcDbSymbolTableRecord
100
AcDbLayerTableRecord
  2
01_ALL_DTM_PLN
 70
0
 62
7
  6
CONTINUOUS
370
-3
390
F
  0
LAYER
  5
1FE
100
AcDbSymbolTableRecord
100
AcDbLayerTableRecord
  2
01__ASM_ALL_DTM_PLN
 70
0
 62
7
  6
CONTINUOUS
370
-3
390
F
  0
LAYER
  5
1FF
100
AcDbSymbolTableRecord
100
AcDbLayerTableRecord
  2
01__ASM_DEF_DTM_PLN
 70
0
 62
7
  6
CONTINUOUS
370
-3
390
F
  0
LAYER
  5
200
100
AcDbSymbolTableRecord
100
AcDbLayerTableRecord
  2
01___PRT_ALL_DTM_PLN
 70
0
 62
7
  6
CONTINUOUS
370
-3
390
F
  0
LAYER
  5
201
100
AcDbSymbolTableRecord
100
AcDbLayerTableRecord
  2
01___PRT_DEF_DTM_PLN
 70
0
 62
7
  6
CONTINUOUS
370
-3
390
F
  0
LAYER
  5
202
100
AcDbSymbolTableRecord
100
AcDbLayerTableRecord
  2
02_ALL_AXES
 70
0
 62
7
  6
CONTINUOUS
370
-3
390
F
  0
LAYER
  5
203
100
AcDbSymbolTableRecord
100
AcDbLayerTableRecord
  2
02__ASM_ALL_AXES
 70
0
 62
7
  6
CONTINUOUS
370
-3
390
F
  0
LAYER
  5
204
100
AcDbSymbolTableRecord
100
AcDbLayerTableRecord
  2
02___PRT_ALL_AXES
 70
0
 62
7
  6
CONTINUOUS
370
-3
390
F
  0
LAYER
  5
205
100
AcDbSymbolTableRecord
100
AcDbLayerTableRecord
  2
03_ALL_CURVES
 70
0
 62
7
  6
CONTINUOUS
370
-3
390
F
  0
LAYER
  5
206
100
AcDbSymbolTableRecord
100
AcDbLayerTableRecord
  2
03__ASM_ALL_CURVES
 70
0
 62
7
  6
CONTINUOUS
370
-3
390
F
  0
LAYER
  5
207
100
AcDbSymbolTableRecord
100
AcDbLayerTableRecord
  2
03___PRT_ALL_CURVES
 70
0
 62
7
  6
CONTINUOUS
370
-3
390
F
  0
LAYER
  5
208
100
AcDbSymbolTableRecord
100
AcDbLayerTableRecord
  2
04_ALL_DTM_PNT
 70
0
 62
7
  6
CONTINUOUS
370
-3
390
F
  0
LAYER
  5
209
100
AcDbSymbolTableRecord
100
AcDbLayerTableRecord
  2
04__ASM_ALL_DTM_PNT
 70
0
 62
7
  6
CONTINUOUS
370
-3
390
F
  0
LAYER
  5
20A
100
AcDbSymbolTableRecord
100
AcDbLayerTableRecord
  2
04___PRT_ALL_DTM_PNT
 70
0
 62
7
  6
CONTINUOUS
370
-3
390
F
  0
LAYER
  5
20B
100
AcDbSymbolTableRecord
100
AcDbLayerTableRecord
  2
05_ALL_DTM_CSYS
 70
0
 62
7
  6
CONTINUOUS
370
-3
390
F
  0
LAYER
  5
20C
100
AcDbSymbolTableRecord
100
AcDbLayerTableRecord
  2
05__ASM_ALL_DTM_CSYS
 70
0
 62
7
  6
CONTINUOUS
370
-3
390
F
  0
LAYER
  5
20D
100
AcDbSymbolTableRecord
100
AcDbLayerTableRecord
  2
05__ASM_DEF_DTM_CSYS
 70
0
 62
7
  6
CONTINUOUS
370
-3
390
F
  0
LAYER
  5
20E
100
AcDbSymbolTableRecord
100
AcDbLayerTableRecord
  2
05___PRT_ALL_DTM_CSYS
 70
0
 62
7
  6
CONTINUOUS
370
-3
390
F
  0
LAYER
  5
20F
100
AcDbSymbolTableRecord
100
AcDbLayerTableRecord
  2
05___PRT_DEF_DTM_CSYS
 70
0
 62
7
  6
CONTINUOUS
370
-3
390
F
  0
LAYER
  5
210
100
AcDbSymbolTableRecord
100
AcDbLayerTableRecord
  2
06_ALL_SURFS
 70
0
 62
7
  6
CONTINUOUS
370
-3
390
F
  0
LAYER
  5
211
100
AcDbSymbolTableRecord
100
AcDbLayerTableRecord
  2
06__ASM_ALL_SURFS
 70
0
 62
7
  6
CONTINUOUS
370
-3
390
F
  0
LAYER
  5
212
100
AcDbSymbolTableRecord
100
AcDbLayerTableRecord
  2
06___PRT_ALL_SURFS
 70
0
 62
7
  6
CONTINUOUS
370
-3
390
F
  0
LAYER
  5
213
100
AcDbSymbolTableRecord
100
AcDbLayerTableRecord
  2
07__ASM_ALL_SKELETONS
 70
0
 62
7
  6
CONTINUOUS
370
-3
390
F
  0
LAYER
  5
214
100
AcDbSymbolTableRecord
100
AcDbLayerTableRecord
  2
61501
 70
0
 62
7
  6
CONTINUOUS
370
-3
390
F
  0
LAYER
  5
215
100
AcDbSymbolTableRecord
100
AcDbLayerTableRecord
  2
61584
 70
0
 62
7
  6
CONTINUOUS
370
-3
390
F
  0
LAYER
  5
216
100
AcDbSymbolTableRecord
100
AcDbLayerTableRecord
  2
61585
 70
0
 62
7
  6
CONTINUOUS
370
-3
390
F
  0
LAYER
  5
217
100
AcDbSymbolTableRecord
100
AcDbLayerTableRecord
  2
AXIS
 70
0
 62
7
  6
CONTINUOUS
370
-3
390
F
  0
LAYER
  5
218
100
AcDbSymbolTableRecord
100
AcDbLayerTableRecord
  2
AXIS_COSMETIC_THREADS
 70
0
 62
7
  6
CONTINUOUS
370
-3
390
F
  0
LAYER
  5
219
100
AcDbSymbolTableRecord
100
AcDbLayerTableRecord
  2
DATUM_PLANES
 70
0
 62
7
  6
CONTINUOUS
370
-3
390
F
  0
LAYER
  5
21A
100
AcDbSymbolTableRecord
100
AcDbLayerTableRecord
  2
DRIVEN_DIMS
 70
0
 62
7
  6
CONTINUOUS
370
-3
390
F
  0
LAYER
  5
21B
100
AcDbSymbolTableRecord
100
AcDbLayerTableRecord
  2
G_DATUM
 70
0
 62
7
  6
CONTINUOUS
370
-3
390
F
  0
LAYER
  5
21C
100
AcDbSymbolTableRecord
100
AcDbLayerTableRecord
  2
NOTES
 70
0
 62
7
  6
CONTINUOUS
370
-3
390
F
  0
LAYER
  5
21D
100
AcDbSymbolTableRecord
100
AcDbLayerTableRecord
  2
QUILTS
 70
0
 62
7
  6
CONTINUOUS
370
-3
390
F
  0
LAYER
  5
21E
100
AcDbSymbolTableRecord
100
AcDbLayerTableRecord
  2
SCHEME_DIMS
 70
0
 62
7
  6
CONTINUOUS
370
-3
390
F
  0
LAYER
  5
21F
100
AcDbSymbolTableRecord
100
AcDbLayerTableRecord
  2
SURFACE
 70
0
 62
7
  6
CONTINUOUS
370
-3
390
F
  0
LAYER
  5
220
100
AcDbSymbolTableRecord
100
AcDbLayerTableRecord
  2
SYMBOLS
 70
0
 62
7
  6
CONTINUOUS
370
-3
390
F
  0
LAYER
  5
221
100
AcDbSymbolTableRecord
100
AcDbLayerTableRecord
  2
XSEC_DATUMS
 70
0
 62
7
  6
CONTINUOUS
370
-3
390
F
  0
ENDTAB
  0
TABLE
  2
STYLE
  5
3
100
AcDbSymbolTable
 70
1
  0
STYLE
  5
11
100
AcDbSymbolTableRecord
100
AcDbTextStyleTableRecord
  2
STANDARD
 70
0
 40
0.0
 41
1.0
 50
0.0
 71
0
 42
0.2
  3
txt
  4

  0
STYLE
  5
222
100
AcDbSymbolTableRecord
100
AcDbTextStyleTableRecord
  2
TEXTSTYLE_1
 70
0
 40
0.0
 41
0.8
 50
0.0
 71
0
 42
0.2
  3
gdt
  4

  0
STYLE
  5
223
100
AcDbSymbolTableRecord
100
AcDbTextStyleTableRecord
  2
TEXTSTYLE_2
 70
0
 40
0.0
 41
0.8
 50
0.0
 71
0
 42
0.2
  3
txt
  4

  0
STYLE
  5
224
100
AcDbSymbolTableRecord
100
AcDbTextStyleTableRecord
  2
TEXTSTYLE_3
 70
0
 40
0.0
 41
0.9
 50
0.0
 71
0
 42
0.2
  3
txt
  4

  0
STYLE
  5
225
100
AcDbSymbolTableRecord
100
AcDbTextStyleTableRecord
  2
TEXTSTYLE_4
 70
0
 40
0.0
 41
0.85
 50
0.0
 71
0
 42
0.2
  3
txt
  4

  0
STYLE
  5
226
100
AcDbSymbolTableRecord
100
AcDbTextStyleTableRecord
  2
TEXTSTYLE_5
 70
0
 40
0.0
 41
0.75
 50
0.0
 71
0
 42
0.2
  3
txt
  4

  0
ENDTAB
  0
TABLE
  2
VIEW
  5
6
100
AcDbSymbolTable
 70
0
  0
ENDTAB
  0
TABLE
  2
UCS
  5
7
100
AcDbSymbolTable
 70
0
  0
ENDTAB
  0
TABLE
  2
APPID
  5
9
100
AcDbSymbolTable
 70
1
  0
APPID
  5
227
100
AcDbSymbolTableRecord
100
AcDbRegAppTableRecord
  2
ACAD
 70
0
  0
ENDTAB
  0
TABLE
  2
BLOCK_RECORD
  5
1
100
AcDbSymbolTable
 70
0
  0
BLOCK_RECORD
  5
228
100
AcDbSymbolTableRecord
100
AcDbBlockTableRecord
  2
*Model_Space
  0
BLOCK_RECORD
  5
229
100
AcDbSymbolTableRecord
100
AcDbBlockTableRecord
  2
*Paper_Space
  0
BLOCK_RECORD
  5
22A
100
AcDbSymbolTableRecord
100
AcDbBlockTableRecord
  2
_FILLED
  0
BLOCK_RECORD
  5
22B
100
AcDbSymbolTableRecord
100
AcDbBlockTableRecord
  2
*D0
  0
BLOCK_RECORD
  5
22C
100
AcDbSymbolTableRecord
100
AcDbBlockTableRecord
  2
*D1
  0
BLOCK_RECORD
  5
22D
100
AcDbSymbolTableRecord
100
AcDbBlockTableRecord
  2
*D2
  0
BLOCK_RECORD
  5
22E
100
AcDbSymbolTableRecord
100
AcDbBlockTableRecord
  2
*D3
  0
BLOCK_RECORD
  5
22F
100
AcDbSymbolTableRecord
100
AcDbBlockTableRecord
  2
*D4
  0
BLOCK_RECORD
  5
230
100
AcDbSymbolTableRecord
100
AcDbBlockTableRecord
  2
*D5
  0
BLOCK_RECORD
  5
231
100
AcDbSymbolTableRecord
100
AcDbBlockTableRecord
  2
*D6
  0
BLOCK_RECORD
  5
232
100
AcDbSymbolTableRecord
100
AcDbBlockTableRecord
  2
*D7
  0
BLOCK_RECORD
  5
233
100
AcDbSymbolTableRecord
100
AcDbBlockTableRecord
  2
*D8
  0
BLOCK_RECORD
  5
234
100
AcDbSymbolTableRecord
100
AcDbBlockTableRecord
  2
*D9
  0
BLOCK_RECORD
  5
235
100
AcDbSymbolTableRecord
100
AcDbBlockTableRecord
  2
*T1
  0
ENDTAB
  0
TABLE
  2
DIMSTYLE
  5
A
100
AcDbSymbolTable
 70
1
100
AcDbDimStyleTable
 71
0
  0
DIMSTYLE
105
236
100
AcDbSymbolTableRecord
100
AcDbDimStyleTableRecord
  2
STANDARD
 70
0
  3

  4

 40
1.0
 41
0.1875
 42
0.0625
 43
0.38
 44
0.125
 45
0.0
 46
0.0
 47
0.01
 48
0.01
140
0.1
141
0.09
142
0.0
143
25.4
144
1.0
145
0.0
146
1.0
147
0.09
 71
1.0
 72
0.0
 73
1
 74
1
 75
0
 76
0
 77
0
 78
4
170
0
171
2
172
0
173
0
174
0
175
0
176
0
177
0
178
0
270
2
271
2
272
2
273
2
274
2
275
0
280
0
281
0
282
0
283
1
284
4
285
0
286
0
287
3
288
0
340
11
278
46
341
22A
342
22A
343
22A
344
22A
  0
DIMSTYLE
105
237
100
AcDbSymbolTableRecord
100
AcDbDimStyleTableRecord
  2
DIMSTYLE_1
 70
0
  3

  4

 40
1.0
 41
0.1875
 42
0.0625
 43
0.38
 44
0.125
 45
0.0
 46
0.0
 47
0.005
 48
0.005
140
0.1
141
0.09
142
0.0
143
25.4
144
1.0
145
0.0
146
1.0
147
0.1
 71
0.0
 72
0.0
 73
1
 74
1
 75
0
 76
0
 77
0
 78
4
170
0
171
2
172
0
173
0
174
0
175
0
176
0
177
0
178
0
270
2
271
1
272
1
273
2
274
2
275
0
280
0
281
0
282
0
283
1
284
4
285
0
286
0
287
3
288
0
340
11
278
46
341
22A
342
22A
343
22A
344
22A
  0
ENDTAB
  0
ENDSEC
  0
SECTION
  2
BLOCKS
  0
BLOCK
  5
20
100
AcDbEntity
  8
0
100
AcDbBlockBegin
  2
*Model_Space
 70
0
 10
0.0
 20
0.0
 30
0.0
  3
*Model_Space
  1

  0
ENDBLK
  5
21
100
AcDbEntity
  8
0
100
AcDbBlockEnd
  0
BLOCK
  5
1C
100
AcDbEntity
  8
0
100
AcDbBlockBegin
  2
*Paper_Space
 70
0
 10
0.0
 20
0.0
 30
0.0
  3
*Paper_Space
  1

  0
ENDBLK
  5
1D
100
AcDbEntity
  8
0
100
AcDbBlockEnd
  0
BLOCK
  5
238
100
AcDbEntity
  8
0
100
AcDbBlockBegin
  2
_FILLED
 70
64
 10
0.0
 20
0.0
  3
_FILLED
  1

  0
SOLID
  5
239
100
AcDbEntity
  8
0
  6
BYBLOCK
 62
0
100
AcDbTrace
 10
0.0
 20
0.0
 11
-1.0
 21
0.1666666667
 12
-1.0
 22
-0.1666666667
 13
-1.0
 23
-0.1666666667
  0
ENDBLK
  5
23A
100
AcDbEntity
  8
0
  6
BYBLOCK
 62
0
100
AcDbBlockEnd
  0
BLOCK
  5
23B
100
AcDbEntity
  8
DRIVEN_DIMS
100
AcDbBlockBegin
 62
7
  6
CONTINUOUS
  2
*D0
 70
65
 10
0.0
 20
0.0
  3
*D0
  1

  0
MTEXT
  5
23C
100
AcDbEntity
  8
DRIVEN_DIMS
100
AcDbMText
 62
7
  6
CONTINUOUS
  7
STANDARD
 71
2
 72
1
 10
12.3495694451
 20
8.5613272155
 30
0.0
 11
1.0
 21
0.0
 31
0.0
 44
0.9
  1
11.2\P[.44]
 40
0.1
 41
0.5
  0
LINE
  5
23D
100
AcDbEntity
  8
DRIVEN_DIMS
100
AcDbLine
 62
7
  6
CONTINUOUS
 10
14.3600694451
 20
8.6517316312
 11
12.2745694451
 21
8.6517316312
  0
LINE
  5
23E
100
AcDbEntity
  8
DRIVEN_DIMS
100
AcDbLine
 62
7
  6
CONTINUOUS
 10
12.9135539026
 20
8.2117316312
 11
12.2745694451
 21
8.2117316312
  0
LINE
  5
23F
100
AcDbEntity
  8
DRIVEN_DIMS
100
AcDbLine
 62
7
  6
CONTINUOUS
 10
12.3995694451
 20
8.6517316312
 11
12.3995694451
 21
9.0517316312
  0
LINE
  5
240
100
AcDbEntity
  8
DRIVEN_DIMS
100
AcDbLine
 62
7
  6
CONTINUOUS
 10
12.3995694451
 20
8.2117316312
 11
12.3995694451
 21
7.8117316312
  0
INSERT
  5
241
100
AcDbEntity
  8
DRIVEN_DIMS
100
AcDbBlockReference
 62
7
  6
CONTINUOUS
  2
_FILLED
 10
12.3995694451
 20
8.6517316312
 41
0.1875
 42
0.1875
 43
0.1875
 50
270.0
  0
INSERT
  5
242
100
AcDbEntity
  8
DRIVEN_DIMS
100
AcDbBlockReference
 62
7
  6
CONTINUOUS
  2
_FILLED
 10
12.3995694451
 20
8.2117316312
 41
0.1875
 42
0.1875
 43
0.1875
 50
90.0
  0
ENDBLK
  5
243
100
AcDbEntity
  8
0
  6
BYBLOCK
 62
0
100
AcDbBlockEnd
  0
BLOCK
  5
244
100
AcDbEntity
  8
DRIVEN_DIMS
100
AcDbBlockBegin
 62
7
  6
CONTINUOUS
  2
*D1
 70
65
 10
0.0
 20
0.0
  3
*D1
  1

  0
MTEXT
  5
245
100
AcDbEntity
  8
DRIVEN_DIMS
100
AcDbMText
 62
7
  6
CONTINUOUS
  7
STANDARD
 71
2
 72
1
 10
13.7110694451
 20
7.7617316312
 30
0.0
 11
1.0
 21
0.0
 31
0.0
 44
0.9
  1
46.3\P[1.82]
 40
0.1
 41
0.6
  0
LINE
  5
246
100
AcDbEntity
  8
DRIVEN_DIMS
100
AcDbLine
 62
7
  6
CONTINUOUS
 10
12.8995694451
 20
8.2359583175
 11
12.8995694451
 21
7.5867316312
  0
LINE
  5
247
100
AcDbEntity
  8
DRIVEN_DIMS
100
AcDbLine
 62
7
  6
CONTINUOUS
 10
14.7225694451
 20
8.2892316312
 11
14.7225694451
 21
7.5867316312
  0
LINE
  5
248
100
AcDbEntity
  8
DRIVEN_DIMS
100
AcDbLine
 62
7
  6
CONTINUOUS
 10
12.8995694451
 20
7.7117316312
 11
13.4110694451
 21
7.7117316312
  0
LINE
  5
249
100
AcDbEntity
  8
DRIVEN_DIMS
100
AcDbLine
 62
7
  6
CONTINUOUS
 10
14.7225694451
 20
7.7117316312
 11
14.2110694451
 21
7.7117316312
  0
INSERT
  5
24A
100
AcDbEntity
  8
DRIVEN_DIMS
100
AcDbBlockReference
 62
7
  6
CONTINUOUS
  2
_FILLED
 10
12.8995694451
 20
7.7117316312
 41
0.1875
 42
0.1875
 43
0.1875
 50
180.0
  0
INSERT
  5
24B
100
AcDbEntity
  8
DRIVEN_DIMS
100
AcDbBlockReference
 62
7
  6
CONTINUOUS
  2
_FILLED
 10
14.7225694451
 20
7.7117316312
 41
0.1875
 42
0.1875
 43
0.1875
  0
ENDBLK
  5
24C
100
AcDbEntity
  8
0
  6
BYBLOCK
 62
0
100
AcDbBlockEnd
  0
BLOCK
  5
24D
100
AcDbEntity
  8
DRIVEN_DIMS
100
AcDbBlockBegin
 62
7
  6
CONTINUOUS
  2
*D2
 70
65
 10
0.0
 20
0.0
  3
*D2
  1

  0
MTEXT
  5
24E
100
AcDbEntity
  8
DRIVEN_DIMS
100
AcDbMText
 62
7
  6
CONTINUOUS
  7
STANDARD
 71
2
 72
1
 10
2.1485463166
 20
13.1750207452
 30
0.0
 11
1.0
 21
0.0
 31
0.0
 44
0.9
  1
92.6\P[3.65]
 40
0.1
 41
0.6
  0
LINE
  5
24F
100
AcDbEntity
  8
DRIVEN_DIMS
100
AcDbLine
 62
7
  6
CONTINUOUS
 10
2.6860463166
 20
11.2270207452
 11
2.1235463166
 21
11.2270207452
  0
LINE
  5
250
100
AcDbEntity
  8
DRIVEN_DIMS
100
AcDbLine
 62
7
  6
CONTINUOUS
 10
2.6860463166
 20
14.8730207452
 11
2.1235463166
 21
14.8730207452
  0
LINE
  5
251
100
AcDbEntity
  8
DRIVEN_DIMS
100
AcDbLine
 62
7
  6
CONTINUOUS
 10
2.2485463166
 20
11.2270207452
 11
2.2485463166
 21
12.8250207452
  0
LINE
  5
252
100
AcDbEntity
  8
DRIVEN_DIMS
100
AcDbLine
 62
7
  6
CONTINUOUS
 10
2.2485463166
 20
14.8730207452
 11
2.2485463166
 21
13.2750207452
  0
INSERT
  5
253
100
AcDbEntity
  8
DRIVEN_DIMS
100
AcDbBlockReference
 62
7
  6
CONTINUOUS
  2
_FILLED
 10
2.2485463166
 20
11.2270207452
 41
0.1875
 42
0.1875
 43
0.1875
 50
270.0
  0
INSERT
  5
254
100
AcDbEntity
  8
DRIVEN_DIMS
100
AcDbBlockReference
 62
7
  6
CONTINUOUS
  2
_FILLED
 10
2.2485463166
 20
14.8730207452
 41
0.1875
 42
0.1875
 43
0.1875
 50
90.0
  0
ENDBLK
  5
255
100
AcDbEntity
  8
0
  6
BYBLOCK
 62
0
100
AcDbBlockEnd
  0
BLOCK
  5
256
100
AcDbEntity
  8
DRIVEN_DIMS
100
AcDbBlockBegin
 62
7
  6
CONTINUOUS
  2
*D3
 70
65
 10
0.0
 20
0.0
  3
*D3
  1

  0
MTEXT
  5
257
100
AcDbEntity
  8
DRIVEN_DIMS
100
AcDbMText
 62
7
  6
CONTINUOUS
  7
STANDARD
 71
2
 72
1
 10
4.8715463166
 20
10.7770207452
 30
0.0
 11
1.0
 21
0.0
 31
0.0
 44
0.9
  1
110.4\P[4.35]
 40
0.1
 41
0.6
  0
LINE
  5
258
100
AcDbEntity
  8
DRIVEN_DIMS
100
AcDbLine
 62
7
  6
CONTINUOUS
 10
2.7485463166
 20
11.1663364146
 11
2.7485463166
 21
10.6020207452
  0
LINE
  5
259
100
AcDbEntity
  8
DRIVEN_DIMS
100
AcDbLine
 62
7
  6
CONTINUOUS
 10
7.0945463166
 20
11.1467855976
 11
7.0945463166
 21
10.6020207452
  0
LINE
  5
25A
100
AcDbEntity
  8
DRIVEN_DIMS
100
AcDbLine
 62
7
  6
CONTINUOUS
 10
2.7485463166
 20
10.7270207452
 11
4.5215463166
 21
10.7270207452
  0
LINE
  5
25B
100
AcDbEntity
  8
DRIVEN_DIMS
100
AcDbLine
 62
7
  6
CONTINUOUS
 10
7.0945463166
 20
10.7270207452
 11
5.3215463166
 21
10.7270207452
  0
INSERT
  5
25C
100
AcDbEntity
  8
DRIVEN_DIMS
100
AcDbBlockReference
 62
7
  6
CONTINUOUS
  2
_FILLED
 10
2.7485463166
 20
10.7270207452
 41
0.1875
 42
0.1875
 43
0.1875
 50
180.0
  0
INSERT
  5
25D
100
AcDbEntity
  8
DRIVEN_DIMS
100
AcDbBlockReference
 62
7
  6
CONTINUOUS
  2
_FILLED
 10
7.0945463166
 20
10.7270207452
 41
0.1875
 42
0.1875
 43
0.1875
  0
ENDBLK
  5
25E
100
AcDbEntity
  8
0
  6
BYBLOCK
 62
0
100
AcDbBlockEnd
  0
BLOCK
  5
25F
100
AcDbEntity
  8
DRIVEN_DIMS
100
AcDbBlockBegin
 62
7
  6
CONTINUOUS
  2
*D4
 70
65
 10
0.0
 20
0.0
  3
*D4
  1

  0
MTEXT
  5
260
100
AcDbEntity
  8
DRIVEN_DIMS
100
AcDbMText
 62
7
  6
CONTINUOUS
  7
STANDARD
 71
2
 72
1
 10
4.8715463166
 20
7.7617316312
 30
0.0
 11
1.0
 21
0.0
 31
0.0
 44
0.9
  1
110.4\P[4.35]
 40
0.1
 41
0.6
  0
LINE
  5
261
100
AcDbEntity
  8
DRIVEN_DIMS
100
AcDbLine
 62
7
  6
CONTINUOUS
 10
2.7485463166
 20
8.2472316312
 11
2.7485463166
 21
7.5867316312
  0
LINE
  5
262
100
AcDbEntity
  8
DRIVEN_DIMS
100
AcDbLine
 62
7
  6
CONTINUOUS
 10
7.0945463166
 20
8.2472316312
 11
7.0945463166
 21
7.5867316312
  0
LINE
  5
263
100
AcDbEntity
  8
DRIVEN_DIMS
100
AcDbLine
 62
7
  6
CONTINUOUS
 10
2.7485463166
 20
7.7117316312
 11
4.5215463166
 21
7.7117316312
  0
LINE
  5
264
100
AcDbEntity
  8
DRIVEN_DIMS
100
AcDbLine
 62
7
  6
CONTINUOUS
 10
7.0945463166
 20
7.7117316312
 11
5.3215463166
 21
7.7117316312
  0
INSERT
  5
265
100
AcDbEntity
  8
DRIVEN_DIMS
100
AcDbBlockReference
 62
7
  6
CONTINUOUS
  2
_FILLED
 10
2.7485463166
 20
7.7117316312
 41
0.1875
 42
0.1875
 43
0.1875
 50
180.0
  0
INSERT
  5
266
100
AcDbEntity
  8
DRIVEN_DIMS
100
AcDbBlockReference
 62
7
  6
CONTINUOUS
  2
_FILLED
 10
7.0945463166
 20
7.7117316312
 41
0.1875
 42
0.1875
 43
0.1875
  0
ENDBLK
  5
267
100
AcDbEntity
  8
0
  6
BYBLOCK
 62
0
100
AcDbBlockEnd
  0
BLOCK
  5
268
100
AcDbEntity
  8
DRIVEN_DIMS
100
AcDbBlockBegin
 62
7
  6
CONTINUOUS
  2
*D5
 70
65
 10
0.0
 20
0.0
  3
*D5
  1

  0
MTEXT
  5
269
100
AcDbEntity
  8
DRIVEN_DIMS
100
AcDbMText
 62
7
  6
CONTINUOUS
  7
STANDARD
 71
2
 72
1
 10
2.1985463166
 20
8.8292316312
 30
0.0
 11
1.0
 21
0.0
 31
0.0
 44
0.9
  1
25.0\P[.99]
 40
0.1
 41
0.5
  0
LINE
  5
26A
100
AcDbEntity
  8
DRIVEN_DIMS
100
AcDbLine
 62
7
  6
CONTINUOUS
 10
2.6860463166
 20
9.1967316312
 11
2.1235463166
 21
9.1967316312
  0
LINE
  5
26B
100
AcDbEntity
  8
DRIVEN_DIMS
100
AcDbLine
 62
7
  6
CONTINUOUS
 10
2.7760463166
 20
8.2117316312
 11
2.1235463166
 21
8.2117316312
  0
LINE
  5
26C
100
AcDbEntity
  8
DRIVEN_DIMS
100
AcDbLine
 62
7
  6
CONTINUOUS
 10
2.2485463166
 20
9.1967316312
 11
2.2485463166
 21
8.9292316312
  0
LINE
  5
26D
100
AcDbEntity
  8
DRIVEN_DIMS
100
AcDbLine
 62
7
  6
CONTINUOUS
 10
2.2485463166
 20
8.2117316312
 11
2.2485463166
 21
8.4792316312
  0
INSERT
  5
26E
100
AcDbEntity
  8
DRIVEN_DIMS
100
AcDbBlockReference
 62
7
  6
CONTINUOUS
  2
_FILLED
 10
2.2485463166
 20
9.1967316312
 41
0.1875
 42
0.1875
 43
0.1875
 50
90.0
  0
INSERT
  5
26F
100
AcDbEntity
  8
DRIVEN_DIMS
100
AcDbBlockReference
 62
7
  6
CONTINUOUS
  2
_FILLED
 10
2.2485463166
 20
8.2117316312
 41
0.1875
 42
0.1875
 43
0.1875
 50
270.0
  0
ENDBLK
  5
270
100
AcDbEntity
  8
0
  6
BYBLOCK
 62
0
100
AcDbBlockEnd
  0
BLOCK
  5
271
100
AcDbEntity
  8
DRIVEN_DIMS
100
AcDbBlockBegin
 62
7
  6
CONTINUOUS
  2
*D6
 70
65
 10
0.0
 20
0.0
  3
*D6
  1

  0
MTEXT
  5
272
100
AcDbEntity
  8
DRIVEN_DIMS
100
AcDbMText
 62
7
  6
CONTINUOUS
  7
STANDARD
 71
2
 72
1
 10
2.1485463166
 20
4.4977271434
 30
0.0
 11
1.0
 21
0.0
 31
0.0
 44
0.9
  1
61.0\P[2.40]
 40
0.1
 41
0.6
  0
LINE
  5
273
100
AcDbEntity
  8
DRIVEN_DIMS
100
AcDbLine
 62
7
  6
CONTINUOUS
 10
2.7525502536
 20
3.2477271434
 11
2.1235463166
 21
3.2477271434
  0
LINE
  5
274
100
AcDbEntity
  8
DRIVEN_DIMS
100
AcDbLine
 62
7
  6
CONTINUOUS
 10
2.7525502536
 20
5.6477271434
 11
2.1235463166
 21
5.6477271434
  0
LINE
  5
275
100
AcDbEntity
  8
DRIVEN_DIMS
100
AcDbLine
 62
7
  6
CONTINUOUS
 10
2.2485463166
 20
3.2477271434
 11
2.2485463166
 21
4.1477271434
  0
LINE
  5
276
100
AcDbEntity
  8
DRIVEN_DIMS
100
AcDbLine
 62
7
  6
CONTINUOUS
 10
2.2485463166
 20
5.6477271434
 11
2.2485463166
 21
4.5977271434
  0
INSERT
  5
277
100
AcDbEntity
  8
DRIVEN_DIMS
100
AcDbBlockReference
 62
7
  6
CONTINUOUS
  2
_FILLED
 10
2.2485463166
 20
3.2477271434
 41
0.1875
 42
0.1875
 43
0.1875
 50
270.0
  0
INSERT
  5
278
100
AcDbEntity
  8
DRIVEN_DIMS
100
AcDbBlockReference
 62
7
  6
CONTINUOUS
  2
_FILLED
 10
2.2485463166
 20
5.6477271434
 41
0.1875
 42
0.1875
 43
0.1875
 50
90.0
  0
ENDBLK
  5
279
100
AcDbEntity
  8
0
  6
BYBLOCK
 62
0
100
AcDbBlockEnd
  0
BLOCK
  5
27A
100
AcDbEntity
  8
DRIVEN_DIMS
100
AcDbBlockBegin
 62
7
  6
CONTINUOUS
  2
*D7
 70
65
 10
0.0
 20
0.0
  3
*D7
  1

  0
MTEXT
  5
27B
100
AcDbEntity
  8
DRIVEN_DIMS
100
AcDbMText
 62
7
  6
CONTINUOUS
  7
STANDARD
 71
2
 72
1
 10
4.8215463166
 20
2.1747271434
 30
0.0
 11
1.0
 21
0.0
 31
0.0
 44
0.9
  1
94.0\P[3.70]
 40
0.1
 41
0.6
  0
LINE
  5
27C
100
AcDbEntity
  8
DRIVEN_DIMS
100
AcDbLine
 62
7
  6
CONTINUOUS
 10
6.7715463166
 20
2.9287310804
 11
6.7715463166
 21
1.9997271434
  0
LINE
  5
27D
100
AcDbEntity
  8
DRIVEN_DIMS
100
AcDbLine
 62
7
  6
CONTINUOUS
 10
3.0715463166
 20
2.9287310804
 11
3.0715463166
 21
1.9997271434
  0
LINE
  5
27E
100
AcDbEntity
  8
DRIVEN_DIMS
100
AcDbLine
 62
7
  6
CONTINUOUS
 10
6.7715463166
 20
2.1247271434
 11
5.3215463166
 21
2.1247271434
  0
LINE
  5
27F
100
AcDbEntity
  8
DRIVEN_DIMS
100
AcDbLine
 62
7
  6
CONTINUOUS
 10
3.0715463166
 20
2.1247271434
 11
4.5215463166
 21
2.1247271434
  0
INSERT
  5
280
100
AcDbEntity
  8
DRIVEN_DIMS
100
AcDbBlockReference
 62
7
  6
CONTINUOUS
  2
_FILLED
 10
6.7715463166
 20
2.1247271434
 41
0.1875
 42
0.1875
 43
0.1875
  0
INSERT
  5
281
100
AcDbEntity
  8
DRIVEN_DIMS
100
AcDbBlockReference
 62
7
  6
CONTINUOUS
  2
_FILLED
 10
3.0715463166
 20
2.1247271434
 41
0.1875
 42
0.1875
 43
0.1875
 50
180.0
  0
ENDBLK
  5
282
100
AcDbEntity
  8
0
  6
BYBLOCK
 62
0
100
AcDbBlockEnd
  0
BLOCK
  5
283
100
AcDbEntity
  8
DRIVEN_DIMS
100
AcDbBlockBegin
 62
7
  6
CONTINUOUS
  2
*D8
 70
65
 10
0.0
 20
0.0
  3
*D8
  1

  0
MTEXT
  5
284
100
AcDbEntity
  8
DRIVEN_DIMS
100
AcDbMText
 62
7
  6
CONTINUOUS
  7
STANDARD
 71
2
 72
1
 10
2.1985463166
 20
6.0842271434
 30
0.0
 11
1.0
 21
0.0
 31
0.0
 44
0.9
  1
15.8\P[.62]
 40
0.1
 41
0.5
  0
LINE
  5
285
100
AcDbEntity
  8
DRIVEN_DIMS
100
AcDbLine
 62
7
  6
CONTINUOUS
 10
2.7525502536
 20
5.6477271434
 11
2.1235463166
 21
5.6477271434
  0
LINE
  5
286
100
AcDbEntity
  8
DRIVEN_DIMS
100
AcDbLine
 62
7
  6
CONTINUOUS
 10
2.7096752598
 20
6.2707271434
 11
2.1235463166
 21
6.2707271434
  0
LINE
  5
287
100
AcDbEntity
  8
DRIVEN_DIMS
100
AcDbLine
 62
7
  6
CONTINUOUS
 10
2.2485463166
 20
5.6477271434
 11
2.2485463166
 21
5.2477271434
  0
LINE
  5
288
100
AcDbEntity
  8
DRIVEN_DIMS
100
AcDbLine
 62
7
  6
CONTINUOUS
 10
2.2485463166
 20
6.2707271434
 11
2.2485463166
 21
6.6707271434
  0
INSERT
  5
289
100
AcDbEntity
  8
DRIVEN_DIMS
100
AcDbBlockReference
 62
7
  6
CONTINUOUS
  2
_FILLED
 10
2.2485463166
 20
5.6477271434
 41
0.1875
 42
0.1875
 43
0.1875
 50
90.0
  0
INSERT
  5
28A
100
AcDbEntity
  8
DRIVEN_DIMS
100
AcDbBlockReference
 62
7
  6
CONTINUOUS
  2
_FILLED
 10
2.2485463166
 20
6.2707271434
 41
0.1875
 42
0.1875
 43
0.1875
 50
270.0
  0
ENDBLK
  5
28B
100
AcDbEntity
  8
0
  6
BYBLOCK
 62
0
100
AcDbBlockEnd
  0
BLOCK
  5
28C
100
AcDbEntity
  8
DRIVEN_DIMS
100
AcDbBlockBegin
 62
7
  6
CONTINUOUS
  2
*D9
 70
65
 10
0.0
 20
0.0
  3
*D9
  1

  0
MTEXT
  5
28D
100
AcDbEntity
  8
DRIVEN_DIMS
100
AcDbMText
 62
7
  6
CONTINUOUS
  7
STANDARD
 71
1
 72
1
 10
7.6331848055
 20
2.1747271434
 30
0.0
 11
1.0
 21
0.0
 31
0.0
 44
0.9
  1
8.2\P[.32]
 40
0.1
 41
0.5
  0
LINE
  5
28E
100
AcDbEntity
  8
DRIVEN_DIMS
100
AcDbLine
 62
7
  6
CONTINUOUS
 10
6.7715463166
 20
2.9287310804
 11
6.7715463166
 21
1.9997271434
  0
LINE
  5
28F
100
AcDbEntity
  8
DRIVEN_DIMS
100
AcDbLine
 62
7
  6
CONTINUOUS
 10
7.0945463166
 20
2.5698170828
 11
7.0945463166
 21
1.9997271434
  0
LINE
  5
290
100
AcDbEntity
  8
DRIVEN_DIMS
100
AcDbLine
 62
7
  6
CONTINUOUS
 10
6.7715463166
 20
2.1247271434
 11
6.3715463166
 21
2.1247271434
  0
LINE
  5
291
100
AcDbEntity
  8
DRIVEN_DIMS
100
AcDbLine
 62
7
  6
CONTINUOUS
 10
7.0945463166
 20
2.1247271434
 11
7.5331848055
 21
2.1247271434
  0
INSERT
  5
292
100
AcDbEntity
  8
DRIVEN_DIMS
100
AcDbBlockReference
 62
7
  6
CONTINUOUS
  2
_FILLED
 10
6.7715463166
 20
2.1247271434
 41
0.1875
 42
0.1875
 43
0.1875
  0
INSERT
  5
293
100
AcDbEntity
  8
DRIVEN_DIMS
100
AcDbBlockReference
 62
7
  6
CONTINUOUS
  2
_FILLED
 10
7.0945463166
 20
2.1247271434
 41
0.1875
 42
0.1875
 43
0.1875
 50
180.0
  0
ENDBLK
  5
294
100
AcDbEntity
  8
0
  6
BYBLOCK
 62
0
100
AcDbBlockEnd
  0
BLOCK
  5
295
100
AcDbEntity
  8
0
100
AcDbBlockBegin
  2
*T1
 70
1
 10
0.0
 20
0.0
  3
*T1
  1

  0
LINE
  5
296
100
AcDbEntity
  8
0
100
AcDbLine
 62
7
  6
CONTINUOUS
 10
4.35
 20
0.0
 11
0.0
 21
0.0
  0
LINE
  5
297
100
AcDbEntity
  8
0
100
AcDbLine
 62
7
  6
CONTINUOUS
 10
4.35
 20
0.0
 11
4.35
 21
1.92
  0
LINE
  5
298
100
AcDbEntity
  8
0
100
AcDbLine
 62
7
  6
CONTINUOUS
 10
4.35
 20
1.92
 11
0.0
 21
1.92
  0
LINE
  5
299
100
AcDbEntity
  8
0
100
AcDbLine
 62
7
  6
CONTINUOUS
 10
0.0
 20
0.0
 11
0.0
 21
1.92
  0
MTEXT
  5
29A
100
AcDbEntity
  8
NOTES
100
AcDbMText
 62
7
  6
CONTINUOUS
  7
STANDARD
 71
2
 72
1
 10
4.125
 20
0.48
 30
0.0
 11
1.0
 21
0.0
 31
0.0
 44
0.9
  1
A
 40
0.1
 41
0.2
  0
MTEXT
  5
29B
100
AcDbEntity
  8
NOTES
100
AcDbMText
 62
7
  6
CONTINUOUS
  7
STANDARD
 71
2
 72
1
 10
2.175
 20
1.08
 30
0.0
 11
1.0
 21
0.0
 31
0.0
 44
0.9
  1
LED(N)A80X80M SERIES\P 
 40
0.1
 41
4.0
  0
ENDBLK
  5
29C
100
AcDbEntity
  8
0
  6
BYBLOCK
 62
0
100
AcDbBlockEnd
  0
ENDSEC
  0
SECTION
  2
ENTITIES
  0
MTEXT
  5
29D
100
AcDbEntity
  8
0
100
AcDbMText
 62
7
  6
CONTINUOUS
  7
TEXTSTYLE_2
 71
2
 72
1
 10
15.7174677477
 20
1.6655662523
 30
0.0
 11
1.0
 21
0.0
 31
0.0
 44
0.9
  1
THIRD ANGLE PROJECTION
 40
0.1
 41
1.76
  0
MTEXT
  5
29E
100
AcDbEntity
  8
0
100
AcDbMText
 62
7
  6
CONTINUOUS
  7
STANDARD
 71
1
 72
1
 10
17.55
 20
1.32
 30
0.0
 11
1.0
 21
0.0
 31
0.0
 44
0.9
  1
DRAWING NO.
 40
0.08
 41
0.88
  0
MTEXT
  5
29F
100
AcDbEntity
  8
0
100
AcDbMText
 62
7
  6
CONTINUOUS
  7
TEXTSTYLE_2
 71
1
 72
1
 10
16.75
 20
2.08
 30
0.0
 11
1.0
 21
0.0
 31
0.0
 44
0.9
  1
TITLE
 40
0.1
 41
0.4
  0
MTEXT
  5
2A0
100
AcDbEntity
  8
0
100
AcDbMText
 62
7
  6
CONTINUOUS
  7
STANDARD
 71
1
 72
1
 10
16.75
 20
1.32
 30
0.0
 11
1.0
 21
0.0
 31
0.0
 44
0.9
  1
SIZE
 40
0.08
 41
0.32
  0
MTEXT
  5
2A1
100
AcDbEntity
  8
0
100
AcDbMText
 62
7
  6
CONTINUOUS
  7
STANDARD
 71
1
 72
1
 10
16.75
 20
0.95
 30
0.0
 11
1.0
 21
0.0
 31
0.0
 44
0.9
  1
SCALE
 40
0.08
 41
0.4
  0
MTEXT
  5
2A2
100
AcDbEntity
  8
0
100
AcDbMText
 62
7
  6
CONTINUOUS
  7
TEXTSTYLE_2
 71
2
 72
1
 10
17.17
 20
1.2
 30
0.0
 11
1.0
 21
0.0
 31
0.0
 44
0.9
  1
C
 40
0.1
 41
0.08
  0
MTEXT
  5
2A3
100
AcDbEntity
  8
0
100
AcDbMText
 62
7
  6
CONTINUOUS
  7
STANDARD
 71
1
 72
1
 10
18.925
 20
0.95
 30
0.0
 11
1.0
 21
0.0
 31
0.0
 44
0.9
  1
SHEET
 40
0.08
 41
0.4
  0
MTEXT
  5
2A4
100
AcDbEntity
  8
0
100
AcDbMText
 62
7
  6
CONTINUOUS
  7
STANDARD
 71
1
 72
1
 10
20.3
 20
1.32
 30
0.0
 11
1.0
 21
0.0
 31
0.0
 44
0.9
  1
REV.
 40
0.08
 41
0.32
  0
MTEXT
  5
2A5
100
AcDbEntity
  8
0
100
AcDbMText
 62
7
  6
CONTINUOUS
  7
STANDARD
 71
3
 72
1
 10
21.05
 20
0.698443
 30
0.0
 11
1.0
 21
0.0
 31
0.0
 44
0.9
  1
CREO
 40
0.07
 41
0.28
  0
MTEXT
  5
2A6
100
AcDbEntity
  8
0
100
AcDbMText
 62
7
  6
CONTINUOUS
  7
TEXTSTYLE_2
 71
2
 72
1
 10
12.257
 20
15.95
 30
0.0
 11
1.0
 21
0.0
 31
0.0
 44
0.9
  1
4
 40
0.1
 41
0.08
  0
MTEXT
  5
2A7
100
AcDbEntity
  8
0
100
AcDbMText
 62
7
  6
CONTINUOUS
  7
TEXTSTYLE_2
 71
2
 72
1
 10
12.257
 20
0.65
 30
0.0
 11
1.0
 21
0.0
 31
0.0
 44
0.9
  1
4
 40
0.1
 41
0.08
  0
MTEXT
  5
2A8
100
AcDbEntity
  8
0
100
AcDbMText
 62
7
  6
CONTINUOUS
  7
TEXTSTYLE_2
 71
3
 72
1
 10
0.864
 20
6.375
 30
0.0
 11
1.0
 21
0.0
 31
0.0
 44
0.9
  1
B
 40
0.1
 41
0.08
  0
MTEXT
  5
2A9
100
AcDbEntity
  8
0
100
AcDbMText
 62
7
  6
CONTINUOUS
  7
TEXTSTYLE_2
 71
1
 72
1
 10
21.15
 20
6.375
 30
0.0
 11
1.0
 21
0.0
 31
0.0
 44
0.9
  1
B
 40
0.1
 41
0.08
  0
MTEXT
  5
2AA
100
AcDbEntity
  8
0
100
AcDbMText
 62
7
  6
CONTINUOUS
  7
TEXTSTYLE_2
 71
3
 72
1
 10
0.864
 20
2.525
 30
0.0
 11
1.0
 21
0.0
 31
0.0
 44
0.9
  1
A
 40
0.1
 41
0.08
  0
MTEXT
  5
2AB
100
AcDbEntity
  8
0
100
AcDbMText
 62
7
  6
CONTINUOUS
  7
TEXTSTYLE_2
 71
1
 72
1
 10
21.15
 20
2.525
 30
0.0
 11
1.0
 21
0.0
 31
0.0
 44
0.9
  1
A
 40
0.1
 41
0.08
  0
MTEXT
  5
2AC
100
AcDbEntity
  8
0
100
AcDbMText
 62
7
  6
CONTINUOUS
  7
TEXTSTYLE_2
 71
3
 72
1
 10
0.864
 20
14.075
 30
0.0
 11
1.0
 21
0.0
 31
0.0
 44
0.9
  1
D
 40
0.1
 41
0.08
  0
MTEXT
  5
2AD
100
AcDbEntity
  8
0
100
AcDbMText
 62
7
  6
CONTINUOUS
  7
TEXTSTYLE_2
 71
1
 72
1
 10
21.15
 20
14.075
 30
0.0
 11
1.0
 21
0.0
 31
0.0
 44
0.9
  1
D
 40
0.1
 41
0.08
  0
MTEXT
  5
2AE
100
AcDbEntity
  8
0
100
AcDbMText
 62
7
  6
CONTINUOUS
  7
TEXTSTYLE_2
 71
3
 72
1
 10
0.864
 20
10.225
 30
0.0
 11
1.0
 21
0.0
 31
0.0
 44
0.9
  1
C
 40
0.1
 41
0.08
  0
MTEXT
  5
2AF
100
AcDbEntity
  8
0
100
AcDbMText
 62
7
  6
CONTINUOUS
  7
TEXTSTYLE_2
 71
1
 72
1
 10
21.15
 20
10.225
 30
0.0
 11
1.0
 21
0.0
 31
0.0
 44
0.9
  1
C
 40
0.1
 41
0.08
  0
MTEXT
  5
2B0
100
AcDbEntity
  8
0
100
AcDbMText
 62
7
  6
CONTINUOUS
  7
TEXTSTYLE_2
 71
2
 72
1
 10
14.757
 20
0.65
 30
0.0
 11
1.0
 21
0.0
 31
0.0
 44
0.9
  1
3
 40
0.1
 41
0.08
  0
MTEXT
  5
2B1
100
AcDbEntity
  8
0
100
AcDbMText
 62
7
  6
CONTINUOUS
  7
TEXTSTYLE_2
 71
2
 72
1
 10
14.757
 20
15.95
 30
0.0
 11
1.0
 21
0.0
 31
0.0
 44
0.9
  1
3
 40
0.1
 41
0.08
  0
MTEXT
  5
2B2
100
AcDbEntity
  8
0
100
AcDbMText
 62
7
  6
CONTINUOUS
  7
TEXTSTYLE_2
 71
2
 72
1
 10
17.257
 20
15.95
 30
0.0
 11
1.0
 21
0.0
 31
0.0
 44
0.9
  1
2
 40
0.1
 41
0.08
  0
MTEXT
  5
2B3
100
AcDbEntity
  8
0
100
AcDbMText
 62
7
  6
CONTINUOUS
  7
TEXTSTYLE_2
 71
2
 72
1
 10
17.257
 20
0.65
 30
0.0
 11
1.0
 21
0.0
 31
0.0
 44
0.9
  1
2
 40
0.1
 41
0.08
  0
MTEXT
  5
2B4
100
AcDbEntity
  8
0
100
AcDbMText
 62
7
  6
CONTINUOUS
  7
TEXTSTYLE_2
 71
2
 72
1
 10
19.757
 20
0.65
 30
0.0
 11
1.0
 21
0.0
 31
0.0
 44
0.9
  1
1
 40
0.1
 41
0.08
  0
MTEXT
  5
2B5
100
AcDbEntity
  8
0
100
AcDbMText
 62
7
  6
CONTINUOUS
  7
TEXTSTYLE_2
 71
2
 72
1
 10
19.757
 20
15.95
 30
0.0
 11
1.0
 21
0.0
 31
0.0
 44
0.9
  1
1
 40
0.1
 41
0.08
  0
MTEXT
  5
2B6
100
AcDbEntity
  8
0
100
AcDbMText
 62
7
  6
CONTINUOUS
  7
TEXTSTYLE_2
 71
2
 72
1
 10
2.257
 20
0.65
 30
0.0
 11
1.0
 21
0.0
 31
0.0
 44
0.9
  1
8
 40
0.1
 41
0.08
  0
MTEXT
  5
2B7
100
AcDbEntity
  8
0
100
AcDbMText
 62
7
  6
CONTINUOUS
  7
TEXTSTYLE_2
 71
2
 72
1
 10
4.757
 20
0.65
 30
0.0
 11
1.0
 21
0.0
 31
0.0
 44
0.9
  1
7
 40
0.1
 41
0.08
  0
MTEXT
  5
2B8
100
AcDbEntity
  8
0
100
AcDbMText
 62
7
  6
CONTINUOUS
  7
TEXTSTYLE_2
 71
2
 72
1
 10
7.257
 20
0.65
 30
0.0
 11
1.0
 21
0.0
 31
0.0
 44
0.9
  1
6
 40
0.1
 41
0.08
  0
MTEXT
  5
2B9
100
AcDbEntity
  8
0
100
AcDbMText
 62
7
  6
CONTINUOUS
  7
TEXTSTYLE_2
 71
2
 72
1
 10
9.757
 20
0.65
 30
0.0
 11
1.0
 21
0.0
 31
0.0
 44
0.9
  1
5
 40
0.1
 41
0.08
  0
MTEXT
  5
2BA
100
AcDbEntity
  8
0
100
AcDbMText
 62
7
  6
CONTINUOUS
  7
TEXTSTYLE_2
 71
2
 72
1
 10
9.757
 20
15.95
 30
0.0
 11
1.0
 21
0.0
 31
0.0
 44
0.9
  1
5
 40
0.1
 41
0.08
  0
MTEXT
  5
2BB
100
AcDbEntity
  8
0
100
AcDbMText
 62
7
  6
CONTINUOUS
  7
TEXTSTYLE_2
 71
2
 72
1
 10
7.257
 20
15.95
 30
0.0
 11
1.0
 21
0.0
 31
0.0
 44
0.9
  1
6
 40
0.1
 41
0.08
  0
MTEXT
  5
2BC
100
AcDbEntity
  8
0
100
AcDbMText
 62
7
  6
CONTINUOUS
  7
TEXTSTYLE_2
 71
2
 72
1
 10
4.757
 20
15.95
 30
0.0
 11
1.0
 21
0.0
 31
0.0
 44
0.9
  1
7
 40
0.1
 41
0.08
  0
MTEXT
  5
2BD
100
AcDbEntity
  8
0
100
AcDbMText
 62
7
  6
CONTINUOUS
  7
TEXTSTYLE_2
 71
2
 72
1
 10
2.257
 20
15.95
 30
0.0
 11
1.0
 21
0.0
 31
0.0
 44
0.9
  1
8
 40
0.1
 41
0.08
  0
MTEXT
  5
2BE
100
AcDbEntity
  8
0
100
AcDbMText
 62
7
  6
CONTINUOUS
  7
STANDARD
 71
1
 72
1
 10
17.2749123633
 20
0.9184107931
 30
0.0
 11
1.0
 21
0.0
 31
0.0
 44
0.9
  1
1:1
 40
0.1
 41
0.3
  0
MTEXT
  5
2BF
100
AcDbEntity
  8
0
100
AcDbMText
 62
7
  6
CONTINUOUS
  7
STANDARD
 71
1
 72
1
 10
19.4499123633
 20
0.9184107931
 30
0.0
 11
1.0
 21
0.0
 31
0.0
 44
0.9
  1
1 OF 1
 40
0.1
 41
0.6
  0
MTEXT
  5
2C0
100
AcDbEntity
  8
0
100
AcDbMText
 62
7
  6
CONTINUOUS
  7
STANDARD
 71
1
 72
1
 10
18.5204017884
 20
1.2400373234
 30
0.0
 11
1.0
 21
0.0
 31
0.0
 44
0.9
  1
192818
 40
0.12
 41
0.72
  0
MTEXT
  5
2C1
100
AcDbEntity
  8
0
100
AcDbMText
 62
7
  6
CONTINUOUS
  7
STANDARD
 71
1
 72
1
 10
1.2857894151
 20
1.4458068967
 30
0.0
 11
1.0
 21
0.0
 31
0.0
 44
0.9
  1
NOTES:\P1. ALL DIMENSIONS ARE MILLIMETERS [INCHES] UNLESS OTHERWISE NOTED.\P2. REFER TO "www.bannerengineering.com" FOR ADDITIONAL DATA AND SPECIFICATIONS.
 40
0.1
 41
7.9
  0
MTEXT
  5
2C2
100
AcDbEntity
  8
0
100
AcDbMText
 62
7
  6
CONTINUOUS
  7
TEXTSTYLE_3
 71
2
 72
1
 10
19.7555637832
 20
2.555409194
 30
0.0
 11
1.0
 21
0.0
 31
0.0
 44
0.9
  1
BANNER ENGINEERING CORP.
 40
0.12
 41
2.592
  0
MTEXT
  5
2C3
100
AcDbEntity
  8
0
100
AcDbMText
 62
7
  6
CONTINUOUS
  7
TEXTSTYLE_2
 71
2
 72
1
 10
19.6690932526
 20
2.3442032634
 30
0.0
 11
1.0
 21
0.0
 31
0.0
 44
0.9
  1
www.bannerengineering.com
 40
0.1
 41
2.0
  0
MTEXT
  5
2C4
100
AcDbEntity
  8
0
100
AcDbMText
 62
7
  6
CONTINUOUS
  7
TEXTSTYLE_4
 71
2
 72
1
 10
15.7104628329
 20
2.6377571551
 30
0.0
 11
1.0
 21
0.0
 31
0.0
 44
0.9
  1
This drawing is the property\Pof BANNER ENGINEERING CORP.\PAny use or reproduction,\Pin any form, without prior\Pwritten permission of\PBanner is prohibited.
 40
0.08
 41
1.904
  0
MTEXT
  5
2C5
100
AcDbEntity
  8
0
100
AcDbMText
 62
7
  6
CONTINUOUS
  7
TEXTSTYLE_5
 71
2
 72
1
 10
15.7283993136
 20
1.9032170366
 30
0.0
 11
1.0
 21
0.0
 31
0.0
 44
0.9
  1
C  2015 Banner Engineering Corp.
 40
0.08
 41
1.92
  0
DIMENSION
  5
2C6
100
AcDbEntity
  8
DRIVEN_DIMS
100
AcDbDimension
 62
7
  6
CONTINUOUS
  2
*D0
 10
12.3995694451
 20
8.2117316312
 11
12.3995694451
 21
8.4363272155
 70
160
 71
2
 42
11.176
  3
DIMSTYLE_1
100
AcDbAlignedDimension
 13
14.4225694451
 23
8.6517316312
 14
12.9760539026
 24
8.2117316312
 50
270.0
100
AcDbRotatedDimension
  0
DIMENSION
  5
2C7
100
AcDbEntity
  8
DRIVEN_DIMS
100
AcDbDimension
 62
7
  6
CONTINUOUS
  2
*D1
 10
14.7225694451
 20
7.7117316312
 11
13.8110694451
 21
7.6367316312
 70
160
 71
2
 42
46.3042
  3
DIMSTYLE_1
100
AcDbAlignedDimension
 13
12.8995694451
 23
8.2984583175
 14
14.7225694451
 24
8.3517316312
100
AcDbRotatedDimension
  0
DIMENSION
  5
2C8
100
AcDbEntity
  8
DRIVEN_DIMS
100
AcDbDimension
 62
7
  6
CONTINUOUS
  2
*D2
 10
2.2485463166
 20
14.8730207452
 11
2.2485463166
 21
13.0500207452
 70
160
 71
2
 42
92.6084
  3
DIMSTYLE_1
100
AcDbAlignedDimension
 13
2.7485463166
 23
11.2270207452
 14
2.7485463166
 24
14.8730207452
 50
90.0
100
AcDbRotatedDimension
  0
DIMENSION
  5
2C9
100
AcDbEntity
  8
DRIVEN_DIMS
100
AcDbDimension
 62
7
  6
CONTINUOUS
  2
*D3
 10
7.0945463166
 20
10.7270207452
 11
4.9215463166
 21
10.6520207452
 70
160
 71
2
 42
110.3884
  3
DIMSTYLE_1
100
AcDbAlignedDimension
 13
2.7485463166
 23
11.2288364146
 14
7.0945463166
 24
11.2092855976
100
AcDbRotatedDimension
  0
DIMENSION
  5
2CA
100
AcDbEntity
  8
DRIVEN_DIMS
100
AcDbDimension
 62
7
  6
CONTINUOUS
  2
*D4
 10
7.0945463166
 20
7.7117316312
 11
4.9215463166
 21
7.6367316312
 70
160
 71
2
 42
110.3884
  3
DIMSTYLE_1
100
AcDbAlignedDimension
 13
2.7485463166
 23
8.3097316312
 14
7.0945463166
 24
8.3097316312
100
AcDbRotatedDimension
  0
DIMENSION
  5
2CB
100
AcDbEntity
  8
DRIVEN_DIMS
100
AcDbDimension
 62
7
  6
CONTINUOUS
  2
*D5
 10
2.2485463166
 20
8.2117316312
 11
2.2485463166
 21
8.7042316312
 70
160
 71
2
 42
25.019
  3
DIMSTYLE_1
100
AcDbAlignedDimension
 13
2.7485463166
 23
9.1967316312
 14
2.8385463166
 24
8.2117316312
 50
270.0
100
AcDbRotatedDimension
  0
DIMENSION
  5
2CC
100
AcDbEntity
  8
DRIVEN_DIMS
100
AcDbDimension
 62
7
  6
CONTINUOUS
  2
*D6
 10
2.2485463166
 20
5.6477271434
 11
2.2485463166
 21
4.3727271434
 70
160
 71
2
 42
60.96
  3
DIMSTYLE_1
100
AcDbAlignedDimension
 13
2.8150502536
 23
3.2477271434
 14
2.8150502536
 24
5.6477271434
 50
90.0
100
AcDbRotatedDimension
  0
DIMENSION
  5
2CD
100
AcDbEntity
  8
DRIVEN_DIMS
100
AcDbDimension
 62
7
  6
CONTINUOUS
  2
*D7
 10
3.0715463166
 20
2.1247271434
 11
4.9215463166
 21
2.0497271434
 70
160
 71
2
 42
93.98
  3
DIMSTYLE_1
100
AcDbAlignedDimension
 13
6.7715463166
 23
2.9912310804
 14
3.0715463166
 24
2.9912310804
 50
180.0
100
AcDbRotatedDimension
  0
DIMENSION
  5
2CE
100
AcDbEntity
  8
DRIVEN_DIMS
100
AcDbDimension
 62
7
  6
CONTINUOUS
  2
*D8
 10
2.2485463166
 20
6.2707271434
 11
2.2485463166
 21
5.9592271434
 70
160
 71
2
 42
15.8242
  3
DIMSTYLE_1
100
AcDbAlignedDimension
 13
2.8150502536
 23
5.6477271434
 14
2.7721752598
 24
6.2707271434
 50
90.0
100
AcDbRotatedDimension
  0
DIMENSION
  5
2CF
100
AcDbEntity
  8
DRIVEN_DIMS
100
AcDbDimension
 62
7
  6
CONTINUOUS
  2
*D9
 10
7.0945463166
 20
2.1247271434
 11
7.8831848055
 21
2.0497271434
 70
160
 71
1
 42
8.2042
  3
DIMSTYLE_1
100
AcDbAlignedDimension
 13
6.7715463166
 23
2.9912310804
 14
7.0945463166
 24
2.6323170828
100
AcDbRotatedDimension
  0
ACAD_TABLE
  5
2D0
100
AcDbEntity
  8
0
 62
7
  6
CONTINUOUS
100
AcDbBlockReference
  2
*T1
 10
16.7
 20
0.75
 30
0.0
100
AcDbTable
342
       5CA
343
235
 11
1.0
 21
0.0
 31
0.0
 90
6
 91
3
 92
5
 93
4
 94
0
 95
0
 96
0
 70
1
141
0.33
141
0.45
141
1.14
142
0.65
142
1.15
142
1.025
142
1.075
142
0.45
171
1
172
0
173
0
174
0
175
1
176
1
177
33
178
0
145
0.0
  1
 
170
1
140
0.1
171
1
172
0
173
0
174
0
175
1
176
1
177
33
178
0
145
0.0
  1
 
170
1
140
0.1
171
1
172
0
173
0
174
0
175
1
176
1
177
33
178
0
145
0.0
  1
 
170
1
140
0.1
171
1
172
0
173
0
174
0
175
1
176
1
177
33
178
0
145
0.0
  1
 
170
1
140
0.1
171
1
172
0
173
0
174
0
175
1
176
1
177
33
178
0
145
0.0
  1
 
170
1
140
0.1
171
1
172
0
173
0
174
0
175
1
176
1
177
33
178
0
145
0.0
  1
 
170
1
140
0.1
171
1
172
0
173
0
174
0
175
1
176
1
177
33
178
0
145
0.0
  1
 
170
1
140
0.1
171
1
172
0
173
0
174
0
175
1
176
1
177
33
178
0
145
0.0
  1
 
170
1
140
0.1
171
1
172
0
173
0
174
0
175
1
176
1
177
33
178
0
145
0.0
  1
 
170
1
140
0.1
171
1
172
0
173
0
174
0
175
1
176
1
177
41
178
0
145
0.0
  1
A
170
8
140
0.1
 64
7
171
1
172
0
173
0
174
0
175
5
176
1
177
33
178
0
145
0.0
  1
LED(N)A80X80M SERIES\P 
170
8
140
0.1
171
1
172
0
173
1
174
0
175
1
176
1
177
1
178
0
145
0.0
170
1
171
1
172
0
173
1
174
0
175
1
176
1
177
1
178
0
145
0.0
170
1
171
1
172
0
173
1
174
0
175
1
176
1
177
1
178
0
145
0.0
170
1
171
1
172
0
173
1
174
0
175
1
176
1
177
1
178
0
145
0.0
170
8
  0
MTEXT
  5
2D1
100
AcDbEntity
  8
NOTES
100
AcDbMText
 62
7
  6
CONTINUOUS
  7
STANDARD
 71
2
 72
1
 10
16.1442449583
 20
10.8486230165
 30
0.0
 11
1.0
 21
0.0
 31
0.0
 44
0.9
  1
ISOMETRIC VIEW\P\H0.1;SCALE  1:1
 40
0.125
 41
1.75
  0
LEADER
  5
2D2
100
AcDbEntity
  8
NOTES
100
AcDbLeader
 62
7
  6
CONTINUOUS
  3
STANDARD
 71
1
 72
0
 73
0
 75
0
 40
0.1
 41
1.6
 76
3
 10
6.815580308
 20
5.7441481349
 30
0.0
 10
7.2356748717
 20
6.4731901627
 30
0.0
 10
7.4856748717
 20
6.4731901627
 30
0.0
340
2D3
1001
ACAD
1000
DSTYLE
1002
{
1070
77
1070
0
1002
}
  0
MTEXT
  5
2D3
102
{ACAD_REACTORS
330
2D2
102
}
100
AcDbEntity
  8
NOTES
100
AcDbMText
 62
7
  6
CONTINUOUS
  7
STANDARD
 71
1
 72
1
 10
7.4856748717
 20
6.5231901627
 30
0.0
 11
1.0
 21
0.0
 31
0.0
 44
0.9
  1
4X M4-1 PEM STUD
 40
0.1
 41
1.6
  0
LINE
  5
2D4
100
AcDbEntity
  8
0
100
AcDbLine
 62
7
  6
CONTINUOUS
 10
0.814
 20
8.336603
 11
0.814
 21
8.163397
  0
LINE
  5
2D5
100
AcDbEntity
  8
0
100
AcDbLine
 62
7
  6
CONTINUOUS
 10
0.964
 20
15.75
 11
0.964
 21
0.75
  0
LINE
  5
2D6
100
AcDbEntity
  8
0
100
AcDbLine
 62
7
  6
CONTINUOUS
 10
15.8276527477
 20
1.2966912523
 11
16.4340437477
 21
1.3660842523
  0
LINE
  5
2D7
100
AcDbEntity
  8
0
100
AcDbLine
 62
7
  6
CONTINUOUS
 10
10.920397
 20
0.6
 11
11.093603
 21
0.6
  0
LINE
  5
2D8
100
AcDbEntity
  8
0
100
AcDbLine
 62
7
  6
CONTINUOUS
 10
0.964
 20
0.75
 11
21.05
 21
0.75
  0
LINE
  5
2D9
100
AcDbEntity
  8
0
100
AcDbLine
 62
7
  6
CONTINUOUS
 10
3.507
 20
0.75
 11
3.507
 21
0.5
  0
LINE
  5
2DA
100
AcDbEntity
  8
0
100
AcDbLine
 62
7
  6
CONTINUOUS
 10
3.507
 20
15.75
 11
3.507
 21
16.0
  0
LINE
  5
2DB
100
AcDbEntity
  8
0
100
AcDbLine
 62
7
  6
CONTINUOUS
 10
16.7
 20
1.0
 11
21.05
 21
1.0
  0
LINE
  5
2DC
100
AcDbEntity
  8
0
100
AcDbLine
 62
7
  6
CONTINUOUS
 10
14.9008917477
 20
1.1139932523
 11
15.1229827477
 21
1.1139932523
  0
LINE
  5
2DD
100
AcDbEntity
  8
0
100
AcDbLine
 62
7
  6
CONTINUOUS
 10
15.1729827477
 20
1.1139932523
 11
15.2729827477
 21
1.1139932523
  0
LINE
  5
2DE
100
AcDbEntity
  8
0
100
AcDbLine
 62
7
  6
CONTINUOUS
 10
15.3229827477
 20
1.1139932523
 11
15.5450737477
 21
1.1139932523
  0
LINE
  5
2DF
100
AcDbEntity
  8
0
100
AcDbLine
 62
7
  6
CONTINUOUS
 10
15.7276527477
 20
1.1139932523
 11
16.0058047477
 21
1.1139932523
  0
LINE
  5
2E0
100
AcDbEntity
  8
0
100
AcDbLine
 62
7
  6
CONTINUOUS
 10
16.0558047477
 20
1.1139932523
 11
16.2058907477
 21
1.1139932523
  0
LINE
  5
2E1
100
AcDbEntity
  8
0
100
AcDbLine
 62
7
  6
CONTINUOUS
 10
16.2558907477
 20
1.1139932523
 11
16.5340437477
 21
1.1139932523
  0
LINE
  5
2E2
100
AcDbEntity
  8
0
100
AcDbLine
 62
7
  6
CONTINUOUS
 10
16.7
 20
1.37
 11
21.05
 21
1.37
  0
LINE
  5
2E3
100
AcDbEntity
  8
0
100
AcDbLine
 62
7
  6
CONTINUOUS
 10
16.4340437477
 20
0.8619022523
 11
15.8276527477
 21
0.9312952523
  0
LINE
  5
2E4
100
AcDbEntity
  8
0
100
AcDbLine
 62
7
  6
CONTINUOUS
 10
14.7
 20
1.77
 11
16.7
 21
1.77
  0
LINE
  5
2E5
100
AcDbEntity
  8
0
100
AcDbLine
 62
7
  6
CONTINUOUS
 10
16.7
 20
2.13
 11
21.05
 21
2.13
  0
LINE
  5
2E6
100
AcDbEntity
  8
0
100
AcDbLine
 62
7
  6
CONTINUOUS
 10
18.273144232
 20
2.3543254011
 11
18.2257802057
 21
2.3543254011
  0
LINE
  5
2E7
100
AcDbEntity
  8
0
100
AcDbLine
 62
7
  6
CONTINUOUS
 10
18.1818891814
 20
2.3543254011
 11
18.0683181184
 21
2.3543254011
  0
LINE
  5
2E8
100
AcDbEntity
  8
0
100
AcDbLine
 62
7
  6
CONTINUOUS
 10
18.0394141024
 20
2.3543254011
 11
17.8362019897
 21
2.3543254011
  0
LINE
  5
2E9
100
AcDbEntity
  8
0
100
AcDbLine
 62
7
  6
CONTINUOUS
 10
17.7857289617
 20
2.3543254011
 11
17.7115229205
 21
2.3543254011
  0
LINE
  5
2EA
100
AcDbEntity
  8
0
100
AcDbLine
 62
7
  6
CONTINUOUS
 10
17.6651428948
 20
2.3543254011
 11
17.5894788529
 21
2.3543254011
  0
LINE
  5
2EB
100
AcDbEntity
  8
0
100
AcDbLine
 62
7
  6
CONTINUOUS
 10
17.537475824
 20
2.3543254011
 11
17.4632707829
 21
2.3543254011
  0
LINE
  5
2EC
100
AcDbEntity
  8
0
100
AcDbLine
 62
7
  6
CONTINUOUS
 10
17.4168897572
 20
2.3543254011
 11
17.3412257152
 21
2.3543254011
  0
LINE
  5
2ED
100
AcDbEntity
  8
0
100
AcDbLine
 62
7
  6
CONTINUOUS
 10
16.8743904563
 20
2.3543254011
 11
17.0508365542
 21
2.3543254011
  0
LINE
  5
2EE
100
AcDbEntity
  8
0
100
AcDbLine
 62
7
  6
CONTINUOUS
 10
17.1083735861
 20
2.3543254011
 11
17.185749629
 21
2.3543254011
  0
LINE
  5
2EF
100
AcDbEntity
  8
0
100
AcDbLine
 62
7
  6
CONTINUOUS
 10
17.2060356402
 20
2.3543254011
 11
17.3113166986
 21
2.3543254011
  0
LINE
  5
2F0
100
AcDbEntity
  8
0
100
AcDbLine
 62
7
  6
CONTINUOUS
 10
18.1572301677
 20
2.3790534148
 11
18.1818891814
 21
2.3790534148
  0
LINE
  5
2F1
100
AcDbEntity
  8
0
100
AcDbLine
 62
7
  6
CONTINUOUS
 10
17.3113166986
 20
2.3790754148
 11
17.2913006875
 21
2.3790754148
  0
LINE
  5
2F2
100
AcDbEntity
  8
0
100
AcDbLine
 62
7
  6
CONTINUOUS
 10
17.2204866482
 20
2.3790754148
 11
17.2060356402
 21
2.3790754148
  0
LINE
  5
2F3
100
AcDbEntity
  8
0
100
AcDbLine
 62
7
  6
CONTINUOUS
 10
17.185749629
 20
2.3790754148
 11
17.1744666227
 21
2.3790754148
  0
LINE
  5
2F4
100
AcDbEntity
  8
0
100
AcDbLine
 62
7
  6
CONTINUOUS
 10
17.1312345987
 20
2.3790754148
 11
17.1083735861
 21
2.3790754148
  0
LINE
  5
2F5
100
AcDbEntity
  8
0
100
AcDbLine
 62
7
  6
CONTINUOUS
 10
17.0051585288
 20
2.3790754148
 11
16.9637955059
 21
2.3790754148
  0
LINE
  5
2F6
100
AcDbEntity
  8
0
100
AcDbLine
 62
7
  6
CONTINUOUS
 10
16.8983324696
 20
2.3790754148
 11
16.8743904563
 21
2.3790754148
  0
LINE
  5
2F7
100
AcDbEntity
  8
0
100
AcDbLine
 62
7
  6
CONTINUOUS
 10
17.3412257152
 20
2.3790754148
 11
17.3598727255
 21
2.3790754148
  0
LINE
  5
2F8
100
AcDbEntity
  8
0
100
AcDbLine
 62
7
  6
CONTINUOUS
 10
17.3965727459
 20
2.3790754148
 11
17.4168897572
 21
2.3790754148
  0
LINE
  5
2F9
100
AcDbEntity
  8
0
100
AcDbLine
 62
7
  6
CONTINUOUS
 10
17.5894788529
 20
2.3790754148
 11
17.6081248632
 21
2.3790754148
  0
LINE
  5
2FA
100
AcDbEntity
  8
0
100
AcDbLine
 62
7
  6
CONTINUOUS
 10
17.6448258836
 20
2.3790754148
 11
17.6651428948
 21
2.3790754148
  0
LINE
  5
2FB
100
AcDbEntity
  8
0
100
AcDbLine
 62
7
  6
CONTINUOUS
 10
17.8362019897
 20
2.3790754148
 11
17.860125003
 21
2.3790754148
  0
LINE
  5
2FC
100
AcDbEntity
  8
0
100
AcDbLine
 62
7
  6
CONTINUOUS
 10
17.9271410401
 20
2.3790754148
 11
17.9921450762
 21
2.3790754148
  0
LINE
  5
2FD
100
AcDbEntity
  8
0
100
AcDbLine
 62
7
  6
CONTINUOUS
 10
18.0683181184
 20
2.3790754148
 11
18.091064131
 21
2.3790754148
  0
LINE
  5
2FE
100
AcDbEntity
  8
0
100
AcDbLine
 62
7
  6
CONTINUOUS
 10
18.2741672326
 20
2.379462415
 11
18.2752762332
 21
2.379462415
  0
LINE
  5
2FF
100
AcDbEntity
  8
0
100
AcDbLine
 62
7
  6
CONTINUOUS
 10
17.9970950789
 20
2.3922754221
 11
18.0394141024
 21
2.3922754221
  0
LINE
  5
300
100
AcDbEntity
  8
0
100
AcDbLine
 62
7
  6
CONTINUOUS
 10
17.1799826258
 20
2.3927194224
 11
17.2148606451
 21
2.3927194224
  0
LINE
  5
301
100
AcDbEntity
  8
0
100
AcDbLine
 62
7
  6
CONTINUOUS
 10
18.2860312391
 20
2.3932124227
 11
18.2981412459
 21
2.3932124227
  0
LINE
  5
302
100
AcDbEntity
  8
0
100
AcDbLine
 62
7
  6
CONTINUOUS
 10
18.184837183
 20
2.3937024229
 11
18.1572301677
 21
2.3937024229
  0
LINE
  5
303
100
AcDbEntity
  8
0
100
AcDbLine
 62
7
  6
CONTINUOUS
 10
17.9623080596
 20
2.395575424
 11
17.9271410401
 21
2.395575424
  0
LINE
  5
304
100
AcDbEntity
  8
0
100
AcDbLine
 62
7
  6
CONTINUOUS
 10
16.9637955059
 20
2.3964004244
 11
17.0051585288
 21
2.3964004244
  0
LINE
  5
305
100
AcDbEntity
  8
0
100
AcDbLine
 62
7
  6
CONTINUOUS
 10
18.1911671865
 20
2.4127054335
 11
18.1572301677
 21
2.4127054335
  0
LINE
  5
306
100
AcDbEntity
  8
0
100
AcDbLine
 62
7
  6
CONTINUOUS
 10
16.9637955059
 20
2.4130554337
 11
17.0051585288
 21
2.4130554337
  0
LINE
  5
307
100
AcDbEntity
  8
0
100
AcDbLine
 62
7
  6
CONTINUOUS
 10
17.1884986305
 20
2.413669434
 11
17.2090556419
 21
2.413669434
  0
LINE
  5
308
100
AcDbEntity
  8
0
100
AcDbLine
 62
7
  6
CONTINUOUS
 10
17.9271410401
 20
2.4138804341
 11
17.9623080596
 21
2.4138804341
  0
LINE
  5
309
100
AcDbEntity
  8
0
100
AcDbLine
 62
7
  6
CONTINUOUS
 10
18.0379951016
 20
2.4171804359
 11
17.9961310784
 21
2.4171804359
  0
LINE
  5
30A
100
AcDbEntity
  8
0
100
AcDbLine
 62
7
  6
CONTINUOUS
 10
17.2017966379
 20
2.429836443
 11
17.1956156344
 21
2.429836443
  0
LINE
  5
30B
100
AcDbEntity
  8
0
100
AcDbLine
 62
7
  6
CONTINUOUS
 10
18.091064131
 20
2.4303804433
 11
18.0683181184
 21
2.4303804433
  0
LINE
  5
30C
100
AcDbEntity
  8
0
100
AcDbLine
 62
7
  6
CONTINUOUS
 10
17.9911810756
 20
2.4303804433
 11
17.9271410401
 21
2.4303804433
  0
LINE
  5
30D
100
AcDbEntity
  8
0
100
AcDbLine
 62
7
  6
CONTINUOUS
 10
17.860125003
 20
2.4303804433
 11
17.8362019897
 21
2.4303804433
  0
LINE
  5
30E
100
AcDbEntity
  8
0
100
AcDbLine
 62
7
  6
CONTINUOUS
 10
17.8086119744
 20
2.4303804433
 11
17.7906789644
 21
2.4303804433
  0
LINE
  5
30F
100
AcDbEntity
  8
0
100
AcDbLine
 62
7
  6
CONTINUOUS
 10
17.7533869438
 20
2.4303804433
 11
17.7346109333
 21
2.4303804433
  0
LINE
  5
310
100
AcDbEntity
  8
0
100
AcDbLine
 62
7
  6
CONTINUOUS
 10
17.6081248632
 20
2.4303804433
 11
17.5894788529
 21
2.4303804433
  0
LINE
  5
311
100
AcDbEntity
  8
0
100
AcDbLine
 62
7
  6
CONTINUOUS
 10
17.5603588367
 20
2.4303804433
 11
17.5424258268
 21
2.4303804433
  0
LINE
  5
312
100
AcDbEntity
  8
0
100
AcDbLine
 62
7
  6
CONTINUOUS
 10
17.5051338061
 20
2.4303804433
 11
17.4863577957
 21
2.4303804433
  0
LINE
  5
313
100
AcDbEntity
  8
0
100
AcDbLine
 62
7
  6
CONTINUOUS
 10
17.3598727255
 20
2.4303804433
 11
17.3412257152
 21
2.4303804433
  0
LINE
  5
314
100
AcDbEntity
  8
0
100
AcDbLine
 62
7
  6
CONTINUOUS
 10
17.0051585288
 20
2.4303804433
 11
16.9637955059
 21
2.4303804433
  0
LINE
  5
315
100
AcDbEntity
  8
0
100
AcDbLine
 62
7
  6
CONTINUOUS
 10
16.8743904563
 20
2.4303804433
 11
16.8983324696
 21
2.4303804433
  0
LINE
  5
316
100
AcDbEntity
  8
0
100
AcDbLine
 62
7
  6
CONTINUOUS
 10
18.1572301677
 20
2.4303804433
 11
18.1940311881
 21
2.4303804433
  0
LINE
  5
317
100
AcDbEntity
  8
0
100
AcDbLine
 62
7
  6
CONTINUOUS
 10
17.2393896587
 20
2.455130457
 11
17.182214627
 21
2.455130457
  0
LINE
  5
318
100
AcDbEntity
  8
0
100
AcDbLine
 62
7
  6
CONTINUOUS
 10
17.0404535484
 20
2.455130457
 11
16.8743904563
 21
2.455130457
  0
LINE
  5
319
100
AcDbEntity
  8
0
100
AcDbLine
 62
7
  6
CONTINUOUS
 10
17.3412257152
 20
2.455130457
 11
17.4416837709
 21
2.455130457
  0
LINE
  5
31A
100
AcDbEntity
  8
0
100
AcDbLine
 62
7
  6
CONTINUOUS
 10
17.4863577957
 20
2.455130457
 11
17.5603588367
 21
2.455130457
  0
LINE
  5
31B
100
AcDbEntity
  8
0
100
AcDbLine
 62
7
  6
CONTINUOUS
 10
17.5894788529
 20
2.455130457
 11
17.6899369086
 21
2.455130457
  0
LINE
  5
31C
100
AcDbEntity
  8
0
100
AcDbLine
 62
7
  6
CONTINUOUS
 10
17.7346109333
 20
2.455130457
 11
17.8086119744
 21
2.455130457
  0
LINE
  5
31D
100
AcDbEntity
  8
0
100
AcDbLine
 62
7
  6
CONTINUOUS
 10
17.8362019897
 20
2.455130457
 11
18.0379951016
 21
2.455130457
  0
LINE
  5
31E
100
AcDbEntity
  8
0
100
AcDbLine
 62
7
  6
CONTINUOUS
 10
18.0683181184
 20
2.455130457
 11
18.2178992014
 21
2.455130457
  0
LINE
  5
31F
100
AcDbEntity
  8
0
100
AcDbLine
 62
7
  6
CONTINUOUS
 10
17.0697205646
 20
2.4006414268
 11
17.059669559
 21
2.4041904287
  0
LINE
  5
320
100
AcDbEntity
  8
0
100
AcDbLine
 62
7
  6
CONTINUOUS
 10
17.4615617819
 20
2.3550094015
 11
17.3982817468
 21
2.415387435
  0
LINE
  5
321
100
AcDbEntity
  8
0
100
AcDbLine
 62
7
  6
CONTINUOUS
 10
17.4433917718
 20
2.4544464566
 11
17.5034248051
 21
2.3971664249
  0
LINE
  5
322
100
AcDbEntity
  8
0
100
AcDbLine
 62
7
  6
CONTINUOUS
 10
17.7098149196
 20
2.3550094015
 11
17.6465348845
 21
2.415387435
  0
LINE
  5
323
100
AcDbEntity
  8
0
100
AcDbLine
 62
7
  6
CONTINUOUS
 10
17.6916449095
 20
2.4544464566
 11
17.7516779428
 21
2.3971664249
  0
LINE
  5
324
100
AcDbEntity
  8
0
100
AcDbLine
 62
7
  6
CONTINUOUS
 10
17.2169386463
 20
2.3915884218
 11
17.2225646494
 21
2.3828954169
  0
LINE
  5
325
100
AcDbEntity
  8
0
100
AcDbLine
 62
7
  6
CONTINUOUS
 10
17.211133643
 20
2.4174894361
 11
17.203874639
 21
2.4287054423
  0
LINE
  5
326
100
AcDbEntity
  8
0
100
AcDbLine
 62
7
  6
CONTINUOUS
 10
17.2892236864
 20
2.3802054154
 11
17.2414676599
 21
2.4540004564
  0
LINE
  5
327
100
AcDbEntity
  8
0
100
AcDbLine
 62
7
  6
CONTINUOUS
 10
18.206476195
 20
2.3723714111
 11
18.204672194
 21
2.3784404145
  0
LINE
  5
328
100
AcDbEntity
  8
0
100
AcDbLine
 62
7
  6
CONTINUOUS
 10
16.8719154549
 20
2.4526554556
 11
16.8719154549
 21
2.4328554446
  0
LINE
  5
329
100
AcDbEntity
  8
0
100
AcDbLine
 62
7
  6
CONTINUOUS
 10
16.8719154549
 20
2.3766004134
 11
16.8719154549
 21
2.3568004025
  0
LINE
  5
32A
100
AcDbEntity
  8
0
100
AcDbLine
 62
7
  6
CONTINUOUS
 10
16.9008074709
 20
2.4279054419
 11
16.9008074709
 21
2.3815504162
  0
LINE
  5
32B
100
AcDbEntity
  8
0
100
AcDbLine
 62
7
  6
CONTINUOUS
 10
16.9613205045
 20
2.4279054419
 11
16.9613205045
 21
2.415530435
  0
LINE
  5
32C
100
AcDbEntity
  8
0
100
AcDbLine
 62
7
  6
CONTINUOUS
 10
16.9613205045
 20
2.3815504162
 11
16.9613205045
 21
2.3939254231
  0
LINE
  5
32D
100
AcDbEntity
  8
0
100
AcDbLine
 62
7
  6
CONTINUOUS
 10
17.1058985847
 20
2.3766004134
 11
17.1058985847
 21
2.3568004025
  0
LINE
  5
32E
100
AcDbEntity
  8
0
100
AcDbLine
 62
7
  6
CONTINUOUS
 10
17.1882246303
 20
2.3568004025
 11
17.1882246303
 21
2.3766004134
  0
LINE
  5
32F
100
AcDbEntity
  8
0
100
AcDbLine
 62
7
  6
CONTINUOUS
 10
17.2035606388
 20
2.3766004134
 11
17.2035606388
 21
2.3568004025
  0
LINE
  5
330
100
AcDbEntity
  8
0
100
AcDbLine
 62
7
  6
CONTINUOUS
 10
17.3137917
 20
2.3568004025
 11
17.3137917
 21
2.3766004134
  0
LINE
  5
331
100
AcDbEntity
  8
0
100
AcDbLine
 62
7
  6
CONTINUOUS
 10
17.3387507138
 20
2.3568004025
 11
17.3387507138
 21
2.3766004134
  0
LINE
  5
332
100
AcDbEntity
  8
0
100
AcDbLine
 62
7
  6
CONTINUOUS
 10
17.3387507138
 20
2.4328554446
 11
17.3387507138
 21
2.4526554556
  0
LINE
  5
333
100
AcDbEntity
  8
0
100
AcDbLine
 62
7
  6
CONTINUOUS
 10
17.3623477269
 20
2.3815504162
 11
17.3623477269
 21
2.4279054419
  0
LINE
  5
334
100
AcDbEntity
  8
0
100
AcDbLine
 62
7
  6
CONTINUOUS
 10
17.3940977445
 20
2.413596434
 11
17.3940977445
 21
2.3815504162
  0
LINE
  5
335
100
AcDbEntity
  8
0
100
AcDbLine
 62
7
  6
CONTINUOUS
 10
17.4193647585
 20
2.3766004134
 11
17.4193647585
 21
2.3568004025
  0
LINE
  5
336
100
AcDbEntity
  8
0
100
AcDbLine
 62
7
  6
CONTINUOUS
 10
17.4838827943
 20
2.4328554446
 11
17.4838827943
 21
2.4526554556
  0
LINE
  5
337
100
AcDbEntity
  8
0
100
AcDbLine
 62
7
  6
CONTINUOUS
 10
17.5076088075
 20
2.3989574258
 11
17.5076088075
 21
2.4279054419
  0
LINE
  5
338
100
AcDbEntity
  8
0
100
AcDbLine
 62
7
  6
CONTINUOUS
 10
17.5399508254
 20
2.4279054419
 11
17.5399508254
 21
2.3568004025
  0
LINE
  5
339
100
AcDbEntity
  8
0
100
AcDbLine
 62
7
  6
CONTINUOUS
 10
17.5628338381
 20
2.4526554556
 11
17.5628338381
 21
2.4328554446
  0
LINE
  5
33A
100
AcDbEntity
  8
0
100
AcDbLine
 62
7
  6
CONTINUOUS
 10
17.5870038515
 20
2.3568004025
 11
17.5870038515
 21
2.3766004134
  0
LINE
  5
33B
100
AcDbEntity
  8
0
100
AcDbLine
 62
7
  6
CONTINUOUS
 10
17.5870038515
 20
2.4328554446
 11
17.5870038515
 21
2.4526554556
  0
LINE
  5
33C
100
AcDbEntity
  8
0
100
AcDbLine
 62
7
  6
CONTINUOUS
 10
17.6105998646
 20
2.3815504162
 11
17.6105998646
 21
2.4279054419
  0
LINE
  5
33D
100
AcDbEntity
  8
0
100
AcDbLine
 62
7
  6
CONTINUOUS
 10
17.6423508822
 20
2.413596434
 11
17.6423508822
 21
2.3815504162
  0
LINE
  5
33E
100
AcDbEntity
  8
0
100
AcDbLine
 62
7
  6
CONTINUOUS
 10
17.6676178962
 20
2.3766004134
 11
17.6676178962
 21
2.3568004025
  0
LINE
  5
33F
100
AcDbEntity
  8
0
100
AcDbLine
 62
7
  6
CONTINUOUS
 10
17.732135932
 20
2.4328554446
 11
17.732135932
 21
2.4526554556
  0
LINE
  5
340
100
AcDbEntity
  8
0
100
AcDbLine
 62
7
  6
CONTINUOUS
 10
17.7558619451
 20
2.3989574258
 11
17.7558619451
 21
2.4279054419
  0
LINE
  5
341
100
AcDbEntity
  8
0
100
AcDbLine
 62
7
  6
CONTINUOUS
 10
17.7882039631
 20
2.4279054419
 11
17.7882039631
 21
2.3568004025
  0
LINE
  5
342
100
AcDbEntity
  8
0
100
AcDbLine
 62
7
  6
CONTINUOUS
 10
17.8110869758
 20
2.4526554556
 11
17.8110869758
 21
2.4328554446
  0
LINE
  5
343
100
AcDbEntity
  8
0
100
AcDbLine
 62
7
  6
CONTINUOUS
 10
17.8337269883
 20
2.3568004025
 11
17.8337269883
 21
2.3766004134
  0
LINE
  5
344
100
AcDbEntity
  8
0
100
AcDbLine
 62
7
  6
CONTINUOUS
 10
17.8337269883
 20
2.4328554446
 11
17.8337269883
 21
2.4526554556
  0
LINE
  5
345
100
AcDbEntity
  8
0
100
AcDbLine
 62
7
  6
CONTINUOUS
 10
17.8626000043
 20
2.3815504162
 11
17.8626000043
 21
2.4279054419
  0
LINE
  5
346
100
AcDbEntity
  8
0
100
AcDbLine
 62
7
  6
CONTINUOUS
 10
17.9246660387
 20
2.4279054419
 11
17.9246660387
 21
2.4163554355
  0
LINE
  5
347
100
AcDbEntity
  8
0
100
AcDbLine
 62
7
  6
CONTINUOUS
 10
17.9246660387
 20
2.3931004226
 11
17.9246660387
 21
2.3815504162
  0
LINE
  5
348
100
AcDbEntity
  8
0
100
AcDbLine
 62
7
  6
CONTINUOUS
 10
17.964783061
 20
2.4114054327
 11
17.964783061
 21
2.3980504253
  0
LINE
  5
349
100
AcDbEntity
  8
0
100
AcDbLine
 62
7
  6
CONTINUOUS
 10
17.993656077
 20
2.4196554373
 11
17.993656077
 21
2.4279054419
  0
LINE
  5
34A
100
AcDbEntity
  8
0
100
AcDbLine
 62
7
  6
CONTINUOUS
 10
17.9946200775
 20
2.3815504162
 11
17.9946200775
 21
2.3898004208
  0
LINE
  5
34B
100
AcDbEntity
  8
0
100
AcDbLine
 62
7
  6
CONTINUOUS
 10
18.040470103
 20
2.4526554556
 11
18.040470103
 21
2.4196554373
  0
LINE
  5
34C
100
AcDbEntity
  8
0
100
AcDbLine
 62
7
  6
CONTINUOUS
 10
18.0418891038
 20
2.3898004208
 11
18.0418891038
 21
2.3568004025
  0
LINE
  5
34D
100
AcDbEntity
  8
0
100
AcDbLine
 62
7
  6
CONTINUOUS
 10
18.065843117
 20
2.3568004025
 11
18.065843117
 21
2.3766004134
  0
LINE
  5
34E
100
AcDbEntity
  8
0
100
AcDbLine
 62
7
  6
CONTINUOUS
 10
18.065843117
 20
2.4328554446
 11
18.065843117
 21
2.4526554556
  0
LINE
  5
34F
100
AcDbEntity
  8
0
100
AcDbLine
 62
7
  6
CONTINUOUS
 10
18.0935391324
 20
2.3815504162
 11
18.0935391324
 21
2.4279054419
  0
LINE
  5
350
100
AcDbEntity
  8
0
100
AcDbLine
 62
7
  6
CONTINUOUS
 10
18.1547551663
 20
2.3912274216
 11
18.1547551663
 21
2.3815284162
  0
LINE
  5
351
100
AcDbEntity
  8
0
100
AcDbLine
 62
7
  6
CONTINUOUS
 10
18.1547551663
 20
2.4151804348
 11
18.1547551663
 21
2.4279054419
  0
LINE
  5
352
100
AcDbEntity
  8
0
100
AcDbLine
 62
7
  6
CONTINUOUS
 10
18.1843641828
 20
2.3765784134
 11
18.1843641828
 21
2.3568004025
  0
LINE
  5
353
100
AcDbEntity
  8
0
100
AcDbLine
 62
7
  6
CONTINUOUS
 10
18.2835562378
 20
2.3881114198
 11
18.2835562378
 21
2.3907374213
  0
LINE
  5
354
100
AcDbEntity
  8
0
100
AcDbLine
 62
7
  6
CONTINUOUS
 10
18.3006162472
 20
2.3907374213
 11
18.3006162472
 21
2.3791854149
  0
LINE
  5
355
100
AcDbEntity
  8
0
100
AcDbLine
 62
7
  6
CONTINUOUS
 10
18.3975725422
 20
2.3981678251
 11
18.3975725422
 21
2.4087850316
  0
LINE
  5
356
100
AcDbEntity
  8
0
100
AcDbLine
 62
7
  6
CONTINUOUS
 10
17.1801246258
 20
2.4539814564
 11
17.1333245999
 21
2.3802244155
  0
LINE
  5
357
100
AcDbEntity
  8
0
100
AcDbLine
 62
7
  6
CONTINUOUS
 10
17.1935256333
 20
2.4286874423
 11
17.1864086293
 21
2.4174704361
  0
LINE
  5
358
100
AcDbEntity
  8
0
100
AcDbLine
 62
7
  6
CONTINUOUS
 10
17.1723766216
 20
2.3828764169
 11
17.1778926246
 21
2.3915704217
  0
LINE
  5
359
100
AcDbEntity
  8
0
100
AcDbLine
 62
7
  6
CONTINUOUS
 10
17.059669559
 20
2.4041904287
 11
17.0679095636
 21
2.4089664314
  0
ARC
  5
35A
100
AcDbEntity
  8
0
100
AcDbCircle
 62
7
  6
CONTINUOUS
 10
17.4632701481
 20
2.3568008172
 40
0.0024754162
100
AcDbArc
 50
226.3593695814
 51
270.0146919953
  0
ARC
  5
35B
100
AcDbEntity
  8
0
100
AcDbCircle
 62
7
  6
CONTINUOUS
 10
16.8743904545
 20
2.3568004006
 40
0.0024749995
100
AcDbArc
 50
179.9999571957
 51
270.0000428043
  0
ARC
  5
35C
100
AcDbEntity
  8
0
100
AcDbCircle
 62
7
  6
CONTINUOUS
 10
17.5374758259
 20
2.3568004006
 40
0.0024749995
100
AcDbArc
 50
269.9999571957
 51
0.0000428043
  0
ARC
  5
35D
100
AcDbEntity
  8
0
100
AcDbCircle
 62
7
  6
CONTINUOUS
 10
17.416889759
 20
2.3568004006
 40
0.0024749995
100
AcDbArc
 50
269.9999571957
 51
0.0000428043
  0
ARC
  5
35E
100
AcDbEntity
  8
0
100
AcDbCircle
 62
7
  6
CONTINUOUS
 10
17.3412257133
 20
2.3568004006
 40
0.0024749995
100
AcDbArc
 50
179.9999571957
 51
270.0000428043
  0
ARC
  5
35F
100
AcDbEntity
  8
0
100
AcDbCircle
 62
7
  6
CONTINUOUS
 10
17.2060356384
 20
2.3568004006
 40
0.0024749995
100
AcDbArc
 50
179.9999571957
 51
270.0000428043
  0
ARC
  5
360
100
AcDbEntity
  8
0
100
AcDbCircle
 62
7
  6
CONTINUOUS
 10
17.3113167005
 20
2.3568004006
 40
0.0024749995
100
AcDbArc
 50
269.9999571957
 51
0.0000428043
  0
ARC
  5
361
100
AcDbEntity
  8
0
100
AcDbCircle
 62
7
  6
CONTINUOUS
 10
17.1083735842
 20
2.3568004006
 40
0.0024749995
100
AcDbArc
 50
179.9999571957
 51
270.0000428043
  0
ARC
  5
362
100
AcDbEntity
  8
0
100
AcDbCircle
 62
7
  6
CONTINUOUS
 10
17.1857496308
 20
2.3568004006
 40
0.0024749995
100
AcDbArc
 50
269.9999571958
 51
0.0000428044
  0
ARC
  5
363
100
AcDbEntity
  8
0
100
AcDbCircle
 62
7
  6
CONTINUOUS
 10
17.0404590422
 20
2.3933827403
 40
0.061747717
100
AcDbArc
 50
59.5385584989
 51
90.0050977555
  0
ARC
  5
364
100
AcDbEntity
  8
0
100
AcDbCircle
 62
7
  6
CONTINUOUS
 10
17.0481152095
 20
2.4027328529
 40
0.048483885
100
AcDbArc
 50
273.21763719
 51
303.0749121182
  0
ARC
  5
365
100
AcDbEntity
  8
0
100
AcDbCircle
 62
7
  6
CONTINUOUS
 10
17.0620614151
 20
2.3797859164
 40
0.0222174455
100
AcDbArc
 50
4.0793399388
 51
69.834329283
  0
ARC
  5
366
100
AcDbEntity
  8
0
100
AcDbCircle
 62
7
  6
CONTINUOUS
 10
17.0629546036
 20
2.379965244
 40
0.0213072145
100
AcDbArc
 50
303.0488228549
 51
355.7263138674
  0
ARC
  5
367
100
AcDbEntity
  8
0
100
AcDbCircle
 62
7
  6
CONTINUOUS
 10
17.0688911042
 20
2.3799744343
 40
0.0153945295
100
AcDbArc
 50
354.0454548824
 51
5.1878013979
  0
ARC
  5
368
100
AcDbEntity
  8
0
100
AcDbCircle
 62
7
  6
CONTINUOUS
 10
17.0051585288
 20
2.3877379196
 40
0.0086625048
100
AcDbArc
 50
270.0
 51
90.0
  0
ARC
  5
369
100
AcDbEntity
  8
0
100
AcDbCircle
 62
7
  6
CONTINUOUS
 10
17.2148601055
 20
2.3902439622
 40
0.0024754602
100
AcDbArc
 50
32.8959418573
 51
89.9875097202
  0
ARC
  5
36A
100
AcDbEntity
  8
0
100
AcDbCircle
 62
7
  6
CONTINUOUS
 10
17.131234669
 20
2.3815506151
 40
0.0024752003
100
AcDbArc
 50
269.9983726451
 51
327.602165307
  0
ARC
  5
36B
100
AcDbEntity
  8
0
100
AcDbCircle
 62
7
  6
CONTINUOUS
 10
17.1799825555
 20
2.3902442221
 40
0.0024752003
100
AcDbArc
 50
89.998372645
 51
147.602165307
  0
ARC
  5
36C
100
AcDbEntity
  8
0
100
AcDbCircle
 62
7
  6
CONTINUOUS
 10
17.1744665134
 20
2.3815504549
 40
0.0024750401
100
AcDbArc
 50
147.6063258011
 51
270.0025305754
  0
ARC
  5
36D
100
AcDbEntity
  8
0
100
AcDbCircle
 62
7
  6
CONTINUOUS
 10
16.8983324714
 20
2.3815504143
 40
0.0024749995
100
AcDbArc
 50
269.9999571957
 51
0.0000428043
  0
ARC
  5
36E
100
AcDbEntity
  8
0
100
AcDbCircle
 62
7
  6
CONTINUOUS
 10
16.8743904545
 20
2.3766004153
 40
0.0024749995
100
AcDbArc
 50
89.9999571957
 51
180.0000428043
  0
ARC
  5
36F
100
AcDbEntity
  8
0
100
AcDbCircle
 62
7
  6
CONTINUOUS
 10
16.963795504
 20
2.3939254249
 40
0.0024749995
100
AcDbArc
 50
89.9999571957
 51
180.0000428043
  0
ARC
  5
370
100
AcDbEntity
  8
0
100
AcDbCircle
 62
7
  6
CONTINUOUS
 10
16.963795504
 20
2.3815504143
 40
0.0024749995
100
AcDbArc
 50
179.9999571957
 51
270.0000428043
  0
ARC
  5
371
100
AcDbEntity
  8
0
100
AcDbCircle
 62
7
  6
CONTINUOUS
 10
17.2060356384
 20
2.3766004153
 40
0.0024749995
100
AcDbArc
 50
89.9999571957
 51
180.0000428043
  0
ARC
  5
372
100
AcDbEntity
  8
0
100
AcDbCircle
 62
7
  6
CONTINUOUS
 10
17.1083735842
 20
2.3766004153
 40
0.0024749995
100
AcDbArc
 50
89.9999571957
 51
180.0000428043
  0
ARC
  5
373
100
AcDbEntity
  8
0
100
AcDbCircle
 62
7
  6
CONTINUOUS
 10
17.1857496308
 20
2.3766004153
 40
0.0024749995
100
AcDbArc
 50
359.9999571957
 51
90.0000428043
  0
ARC
  5
374
100
AcDbEntity
  8
0
100
AcDbCircle
 62
7
  6
CONTINUOUS
 10
17.0460441811
 20
2.445793323
 40
0.0428289026
100
AcDbArc
 50
300.6990502959
 51
319.0591802498
  0
ARC
  5
375
100
AcDbEntity
  8
0
100
AcDbCircle
 62
7
  6
CONTINUOUS
 10
17.0611211659
 20
2.4263113051
 40
0.0229166529
100
AcDbArc
 50
20.6563876465
 51
62.3316896973
  0
ARC
  5
376
100
AcDbEntity
  8
0
100
AcDbCircle
 62
7
  6
CONTINUOUS
 10
17.0660727781
 20
2.4296649696
 40
0.0171568255
100
AcDbArc
 50
315.9145124245
 51
16.0049121283
  0
ARC
  5
377
100
AcDbEntity
  8
0
100
AcDbCircle
 62
7
  6
CONTINUOUS
 10
17.0051585288
 20
2.4217179385
 40
0.0086625048
100
AcDbArc
 50
270.0
 51
90.0
  0
ARC
  5
378
100
AcDbEntity
  8
0
100
AcDbCircle
 62
7
  6
CONTINUOUS
 10
17.2017960982
 20
2.4273609828
 40
0.0024754602
100
AcDbArc
 50
32.8959418573
 51
89.9875097202
  0
ARC
  5
379
100
AcDbEntity
  8
0
100
AcDbCircle
 62
7
  6
CONTINUOUS
 10
17.2090556207
 20
2.4161446411
 40
0.0024752071
100
AcDbArc
 50
270.0004896793
 51
32.9089806818
  0
ARC
  5
37A
100
AcDbEntity
  8
0
100
AcDbCircle
 62
7
  6
CONTINUOUS
 10
17.1956155641
 20
2.4273612427
 40
0.0024752003
100
AcDbArc
 50
89.998372645
 51
147.602165307
  0
ARC
  5
37B
100
AcDbEntity
  8
0
100
AcDbCircle
 62
7
  6
CONTINUOUS
 10
17.1822145567
 20
2.4526552567
 40
0.0024752003
100
AcDbArc
 50
89.998372645
 51
147.602165307
  0
ARC
  5
37C
100
AcDbEntity
  8
0
100
AcDbCircle
 62
7
  6
CONTINUOUS
 10
17.1884985212
 20
2.4161444741
 40
0.0024750401
100
AcDbArc
 50
147.6063258012
 51
270.0025305754
  0
ARC
  5
37D
100
AcDbEntity
  8
0
100
AcDbCircle
 62
7
  6
CONTINUOUS
 10
16.8743904545
 20
2.4526554575
 40
0.0024749995
100
AcDbArc
 50
89.9999571957
 51
180.0000428043
  0
ARC
  5
37E
100
AcDbEntity
  8
0
100
AcDbCircle
 62
7
  6
CONTINUOUS
 10
16.8743904545
 20
2.4328554428
 40
0.0024749995
100
AcDbArc
 50
179.9999571957
 51
270.0000428043
  0
ARC
  5
37F
100
AcDbEntity
  8
0
100
AcDbCircle
 62
7
  6
CONTINUOUS
 10
16.8983324714
 20
2.4279054437
 40
0.0024749995
100
AcDbArc
 50
359.9999571957
 51
90.0000428043
  0
ARC
  5
380
100
AcDbEntity
  8
0
100
AcDbCircle
 62
7
  6
CONTINUOUS
 10
16.963795504
 20
2.4279054437
 40
0.0024749995
100
AcDbArc
 50
89.9999571957
 51
180.0000428043
  0
ARC
  5
381
100
AcDbEntity
  8
0
100
AcDbCircle
 62
7
  6
CONTINUOUS
 10
16.963795504
 20
2.4155304332
 40
0.0024749995
100
AcDbArc
 50
179.9999571957
 51
270.0000428043
  0
ARC
  5
382
100
AcDbEntity
  8
0
100
AcDbCircle
 62
7
  6
CONTINUOUS
 10
17.5051335061
 20
2.3989573626
 40
0.0024753014
100
AcDbArc
 50
226.3461263059
 51
0.0014637321
  0
ARC
  5
383
100
AcDbEntity
  8
0
100
AcDbCircle
 62
7
  6
CONTINUOUS
 10
17.3965730459
 20
2.4135964972
 40
0.0024753014
100
AcDbArc
 50
46.3461263059
 51
180.0014637321
  0
ARC
  5
384
100
AcDbEntity
  8
0
100
AcDbCircle
 62
7
  6
CONTINUOUS
 10
17.2204866271
 20
2.3815506219
 40
0.0024752071
100
AcDbArc
 50
270.0004896793
 51
32.9089806818
  0
ARC
  5
385
100
AcDbEntity
  8
0
100
AcDbCircle
 62
7
  6
CONTINUOUS
 10
17.396572744
 20
2.3815504143
 40
0.0024749995
100
AcDbArc
 50
179.9999571957
 51
270.0000428043
  0
ARC
  5
386
100
AcDbEntity
  8
0
100
AcDbCircle
 62
7
  6
CONTINUOUS
 10
17.416889759
 20
2.3766004153
 40
0.0024749995
100
AcDbArc
 50
359.9999571957
 51
90.0000428043
  0
ARC
  5
387
100
AcDbEntity
  8
0
100
AcDbCircle
 62
7
  6
CONTINUOUS
 10
17.3412257133
 20
2.3766004153
 40
0.0024749995
100
AcDbArc
 50
89.9999571957
 51
180.0000428043
  0
ARC
  5
388
100
AcDbEntity
  8
0
100
AcDbCircle
 62
7
  6
CONTINUOUS
 10
17.3598727274
 20
2.3815504143
 40
0.0024749995
100
AcDbArc
 50
269.9999571957
 51
0.0000428043
  0
ARC
  5
389
100
AcDbEntity
  8
0
100
AcDbCircle
 62
7
  6
CONTINUOUS
 10
17.3113167005
 20
2.3766004153
 40
0.0024749995
100
AcDbArc
 50
359.9999571957
 51
90.0000428043
  0
ARC
  5
38A
100
AcDbEntity
  8
0
100
AcDbCircle
 62
7
  6
CONTINUOUS
 10
17.291300808
 20
2.3815494558
 40
0.002474041
100
AcDbArc
 50
212.9056413127
 51
269.9972091755
  0
ARC
  5
38B
100
AcDbEntity
  8
0
100
AcDbCircle
 62
7
  6
CONTINUOUS
 10
17.5051338079
 20
2.4279054437
 40
0.0024749995
100
AcDbArc
 50
359.9999571957
 51
90.0000428043
  0
ARC
  5
38C
100
AcDbEntity
  8
0
100
AcDbCircle
 62
7
  6
CONTINUOUS
 10
17.4863577938
 20
2.4328554428
 40
0.0024749995
100
AcDbArc
 50
179.9999571957
 51
270.0000428043
  0
ARC
  5
38D
100
AcDbEntity
  8
0
100
AcDbCircle
 62
7
  6
CONTINUOUS
 10
17.4863577938
 20
2.4526554575
 40
0.0024749995
100
AcDbArc
 50
89.9999571957
 51
180.0000428043
  0
ARC
  5
38E
100
AcDbEntity
  8
0
100
AcDbCircle
 62
7
  6
CONTINUOUS
 10
17.5603588386
 20
2.4526554575
 40
0.0024749995
100
AcDbArc
 50
359.9999571957
 51
90.0000428043
  0
ARC
  5
38F
100
AcDbEntity
  8
0
100
AcDbCircle
 62
7
  6
CONTINUOUS
 10
17.5603588386
 20
2.4328554428
 40
0.0024749995
100
AcDbArc
 50
269.9999571957
 51
0.0000428043
  0
ARC
  5
390
100
AcDbEntity
  8
0
100
AcDbCircle
 62
7
  6
CONTINUOUS
 10
17.5424258249
 20
2.4279054437
 40
0.0024749995
100
AcDbArc
 50
89.9999571957
 51
180.0000428043
  0
ARC
  5
391
100
AcDbEntity
  8
0
100
AcDbCircle
 62
7
  6
CONTINUOUS
 10
17.3598727274
 20
2.4279054437
 40
0.0024749995
100
AcDbArc
 50
359.9999571957
 51
90.0000428043
  0
ARC
  5
392
100
AcDbEntity
  8
0
100
AcDbCircle
 62
7
  6
CONTINUOUS
 10
17.3412257133
 20
2.4328554428
 40
0.0024749995
100
AcDbArc
 50
179.9999571957
 51
270.0000428043
  0
ARC
  5
393
100
AcDbEntity
  8
0
100
AcDbCircle
 62
7
  6
CONTINUOUS
 10
17.3412257133
 20
2.4526554575
 40
0.0024749995
100
AcDbArc
 50
89.9999571957
 51
180.0000428043
  0
ARC
  5
394
100
AcDbEntity
  8
0
100
AcDbCircle
 62
7
  6
CONTINUOUS
 10
17.2393900382
 20
2.4526554968
 40
0.0024749602
100
AcDbArc
 50
32.9172174468
 51
90.0087853097
  0
ARC
  5
395
100
AcDbEntity
  8
0
100
AcDbCircle
 62
7
  6
CONTINUOUS
 10
17.4416839057
 20
2.4526562892
 40
0.0024741678
100
AcDbArc
 50
46.3477981899
 51
90.0031206038
  0
ARC
  5
396
100
AcDbEntity
  8
0
100
AcDbCircle
 62
7
  6
CONTINUOUS
 10
18.2152358981
 20
2.2725915465
 40
0.1825583387
100
AcDbArc
 50
79.8618509324
 51
89.1640948679
  0
ARC
  5
397
100
AcDbEntity
  8
0
100
AcDbCircle
 62
7
  6
CONTINUOUS
 10
18.197141171
 20
2.3016991173
 40
0.117346916
100
AcDbArc
 50
58.614769177
 51
62.3737227606
  0
ARC
  5
398
100
AcDbEntity
  8
0
100
AcDbCircle
 62
7
  6
CONTINUOUS
 10
18.2260032264
 20
2.3725718859
 40
0.0459185159
100
AcDbArc
 50
15.6740290068
 51
20.9917271228
  0
ARC
  5
399
100
AcDbEntity
  8
0
100
AcDbCircle
 62
7
  6
CONTINUOUS
 10
18.1662929967
 20
2.368643334
 40
0.0396099176
100
AcDbArc
 50
14.3201081283
 51
22.4984722084
  0
ARC
  5
39A
100
AcDbEntity
  8
0
100
AcDbCircle
 62
7
  6
CONTINUOUS
 10
18.1850046504
 20
2.3693353402
 40
0.0243676582
100
AcDbArc
 50
63.3666028271
 51
90.3937697637
  0
ARC
  5
39B
100
AcDbEntity
  8
0
100
AcDbCircle
 62
7
  6
CONTINUOUS
 10
18.2724993219
 20
2.3741987064
 40
0.0198837666
100
AcDbArc
 50
271.8586572978
 51
289.4131338543
  0
ARC
  5
39C
100
AcDbEntity
  8
0
100
AcDbCircle
 62
7
  6
CONTINUOUS
 10
18.2265855264
 20
2.3716475527
 40
0.0173408616
100
AcDbArc
 50
232.4713476722
 51
267.338189944
  0
ARC
  5
39D
100
AcDbEntity
  8
0
100
AcDbCircle
 62
7
  6
CONTINUOUS
 10
18.1818891832
 20
2.3568004006
 40
0.0024749995
100
AcDbArc
 50
269.9999571957
 51
0.0000428043
  0
ARC
  5
39E
100
AcDbEntity
  8
0
100
AcDbCircle
 62
7
  6
CONTINUOUS
 10
18.0683181166
 20
2.3568004006
 40
0.0024749995
100
AcDbArc
 50
179.9999571957
 51
270.0000428043
  0
ARC
  5
39F
100
AcDbEntity
  8
0
100
AcDbCircle
 62
7
  6
CONTINUOUS
 10
17.7857289635
 20
2.3568004006
 40
0.0024749995
100
AcDbArc
 50
269.9999571957
 51
0.0000428043
  0
ARC
  5
3A0
100
AcDbEntity
  8
0
100
AcDbCircle
 62
7
  6
CONTINUOUS
 10
17.6651428967
 20
2.3568004006
 40
0.0024749995
100
AcDbArc
 50
269.9999571957
 51
0.0000428043
  0
ARC
  5
3A1
100
AcDbEntity
  8
0
100
AcDbCircle
 62
7
  6
CONTINUOUS
 10
17.589478851
 20
2.3568004006
 40
0.0024749995
100
AcDbArc
 50
179.9999571957
 51
270.0000428043
  0
ARC
  5
3A2
100
AcDbEntity
  8
0
100
AcDbCircle
 62
7
  6
CONTINUOUS
 10
18.0394141042
 20
2.3568004006
 40
0.0024749995
100
AcDbArc
 50
269.9999571957
 51
0.0000428043
  0
ARC
  5
3A3
100
AcDbEntity
  8
0
100
AcDbCircle
 62
7
  6
CONTINUOUS
 10
17.8362019878
 20
2.3568004006
 40
0.0024749995
100
AcDbArc
 50
179.9999571957
 51
270.0000428043
  0
ARC
  5
3A4
100
AcDbEntity
  8
0
100
AcDbCircle
 62
7
  6
CONTINUOUS
 10
17.7115227858
 20
2.3567995689
 40
0.0024741678
100
AcDbArc
 50
226.3477981898
 51
270.0031206038
  0
ARC
  5
3A5
100
AcDbEntity
  8
0
100
AcDbCircle
 62
7
  6
CONTINUOUS
 10
17.7533866437
 20
2.3989573626
 40
0.0024753014
100
AcDbArc
 50
226.3461263059
 51
0.0014637321
  0
ARC
  5
3A6
100
AcDbEntity
  8
0
100
AcDbCircle
 62
7
  6
CONTINUOUS
 10
17.6448261836
 20
2.4135964972
 40
0.0024753014
100
AcDbArc
 50
46.3461263058
 51
180.0014637321
  0
ARC
  5
3A7
100
AcDbEntity
  8
0
100
AcDbCircle
 62
7
  6
CONTINUOUS
 10
17.6448258817
 20
2.3815504143
 40
0.0024749995
100
AcDbArc
 50
179.9999571957
 51
270.0000428043
  0
ARC
  5
3A8
100
AcDbEntity
  8
0
100
AcDbCircle
 62
7
  6
CONTINUOUS
 10
17.6651428967
 20
2.3766004153
 40
0.0024749995
100
AcDbArc
 50
359.9999571957
 51
90.0000428043
  0
ARC
  5
3A9
100
AcDbEntity
  8
0
100
AcDbCircle
 62
7
  6
CONTINUOUS
 10
17.589478851
 20
2.3766004153
 40
0.0024749995
100
AcDbArc
 50
89.9999571957
 51
180.0000428043
  0
ARC
  5
3AA
100
AcDbEntity
  8
0
100
AcDbCircle
 62
7
  6
CONTINUOUS
 10
17.6081248651
 20
2.3815504143
 40
0.0024749995
100
AcDbArc
 50
269.9999571957
 51
0.0000428043
  0
ARC
  5
3AB
100
AcDbEntity
  8
0
100
AcDbCircle
 62
7
  6
CONTINUOUS
 10
17.9271410383
 20
2.3931004244
 40
0.0024749995
100
AcDbArc
 50
89.9999571957
 51
180.0000428043
  0
ARC
  5
3AC
100
AcDbEntity
  8
0
100
AcDbCircle
 62
7
  6
CONTINUOUS
 10
17.9271410383
 20
2.3815504143
 40
0.0024749995
100
AcDbArc
 50
179.9999571957
 51
270.0000428043
  0
ARC
  5
3AD
100
AcDbEntity
  8
0
100
AcDbCircle
 62
7
  6
CONTINUOUS
 10
17.8362019878
 20
2.3766004153
 40
0.0024749995
100
AcDbArc
 50
89.9999571957
 51
180.0000428043
  0
ARC
  5
3AE
100
AcDbEntity
  8
0
100
AcDbCircle
 62
7
  6
CONTINUOUS
 10
17.8601250048
 20
2.3815504143
 40
0.0024749995
100
AcDbArc
 50
269.9999571956
 51
0.0000428042
  0
ARC
  5
3AF
100
AcDbEntity
  8
0
100
AcDbCircle
 62
7
  6
CONTINUOUS
 10
17.9271410383
 20
2.4163554336
 40
0.0024749995
100
AcDbArc
 50
179.9999571957
 51
270.0000428043
  0
ARC
  5
3B0
100
AcDbEntity
  8
0
100
AcDbCircle
 62
7
  6
CONTINUOUS
 10
17.7533869456
 20
2.4279054437
 40
0.0024749995
100
AcDbArc
 50
359.9999571957
 51
90.0000428043
  0
ARC
  5
3B1
100
AcDbEntity
  8
0
100
AcDbCircle
 62
7
  6
CONTINUOUS
 10
17.7346109315
 20
2.4328554428
 40
0.0024749995
100
AcDbArc
 50
179.9999571957
 51
270.0000428043
  0
ARC
  5
3B2
100
AcDbEntity
  8
0
100
AcDbCircle
 62
7
  6
CONTINUOUS
 10
17.7346109315
 20
2.4526554575
 40
0.0024749995
100
AcDbArc
 50
89.9999571957
 51
180.0000428043
  0
ARC
  5
3B3
100
AcDbEntity
  8
0
100
AcDbCircle
 62
7
  6
CONTINUOUS
 10
17.8086119762
 20
2.4526554575
 40
0.0024749995
100
AcDbArc
 50
359.9999571957
 51
90.0000428043
  0
ARC
  5
3B4
100
AcDbEntity
  8
0
100
AcDbCircle
 62
7
  6
CONTINUOUS
 10
17.8086119762
 20
2.4328554428
 40
0.0024749995
100
AcDbArc
 50
269.9999571956
 51
0.0000428042
  0
ARC
  5
3B5
100
AcDbEntity
  8
0
100
AcDbCircle
 62
7
  6
CONTINUOUS
 10
17.7906789626
 20
2.4279054437
 40
0.0024749995
100
AcDbArc
 50
89.9999571957
 51
180.0000428043
  0
ARC
  5
3B6
100
AcDbEntity
  8
0
100
AcDbCircle
 62
7
  6
CONTINUOUS
 10
17.6081248651
 20
2.4279054437
 40
0.0024749995
100
AcDbArc
 50
359.9999571957
 51
90.0000428043
  0
ARC
  5
3B7
100
AcDbEntity
  8
0
100
AcDbCircle
 62
7
  6
CONTINUOUS
 10
17.589478851
 20
2.4328554428
 40
0.0024749995
100
AcDbArc
 50
179.9999571957
 51
270.0000428043
  0
ARC
  5
3B8
100
AcDbEntity
  8
0
100
AcDbCircle
 62
7
  6
CONTINUOUS
 10
17.589478851
 20
2.4526554575
 40
0.0024749995
100
AcDbArc
 50
89.9999571957
 51
180.0000428043
  0
ARC
  5
3B9
100
AcDbEntity
  8
0
100
AcDbCircle
 62
7
  6
CONTINUOUS
 10
17.8601250048
 20
2.4279054437
 40
0.0024749995
100
AcDbArc
 50
359.9999571957
 51
90.0000428043
  0
ARC
  5
3BA
100
AcDbEntity
  8
0
100
AcDbCircle
 62
7
  6
CONTINUOUS
 10
17.8362019878
 20
2.4328554428
 40
0.0024749995
100
AcDbArc
 50
179.9999571957
 51
270.0000428043
  0
ARC
  5
3BB
100
AcDbEntity
  8
0
100
AcDbCircle
 62
7
  6
CONTINUOUS
 10
17.8362019878
 20
2.4526554575
 40
0.0024749995
100
AcDbArc
 50
89.9999571957
 51
180.0000428043
  0
ARC
  5
3BC
100
AcDbEntity
  8
0
100
AcDbCircle
 62
7
  6
CONTINUOUS
 10
17.9271410383
 20
2.4279054437
 40
0.0024749995
100
AcDbArc
 50
89.9999571957
 51
180.0000428043
  0
ARC
  5
3BD
100
AcDbEntity
  8
0
100
AcDbCircle
 62
7
  6
CONTINUOUS
 10
17.6899370433
 20
2.4526562892
 40
0.0024741678
100
AcDbArc
 50
46.3477981899
 51
90.0031206038
  0
ARC
  5
3BE
100
AcDbEntity
  8
0
100
AcDbCircle
 62
7
  6
CONTINUOUS
 10
18.2495655574
 20
2.384346736
 40
0.044722495
100
AcDbArc
 50
195.531588407
 51
204.7624440448
  0
ARC
  5
3BF
100
AcDbEntity
  8
0
100
AcDbCircle
 62
7
  6
CONTINUOUS
 10
18.2415401884
 20
2.4134150625
 40
0.039319019
100
AcDbArc
 50
59.1202086415
 51
81.4730239328
  0
ARC
  5
3C0
100
AcDbEntity
  8
0
100
AcDbCircle
 62
7
  6
CONTINUOUS
 10
18.2667613545
 20
2.3917854558
 40
0.0383802683
100
AcDbArc
 50
288.7656836787
 51
309.6104317088
  0
ARC
  5
3C1
100
AcDbEntity
  8
0
100
AcDbCircle
 62
7
  6
CONTINUOUS
 10
18.2471995846
 20
2.4197497317
 40
0.0310192946
100
AcDbArc
 50
34.7540871
 51
62.0879016178
  0
ARC
  5
3C2
100
AcDbEntity
  8
0
100
AcDbCircle
 62
7
  6
CONTINUOUS
 10
18.1924863006
 20
2.4019259643
 40
0.0284963867
100
AcDbArc
 50
70.3834917948
 51
86.8922743861
  0
ARC
  5
3C3
100
AcDbEntity
  8
0
100
AcDbCircle
 62
7
  6
CONTINUOUS
 10
18.2737535399
 20
2.384184238
 40
0.0280715479
100
AcDbArc
 50
308.5071794988
 51
332.2400656899
  0
ARC
  5
3C4
100
AcDbEntity
  8
0
100
AcDbCircle
 62
7
  6
CONTINUOUS
 10
18.2439037681
 20
2.3797532943
 40
0.0266349791
100
AcDbArc
 50
20.3630922153
 51
37.9727053099
  0
ARC
  5
3C5
100
AcDbEntity
  8
0
100
AcDbCircle
 62
7
  6
CONTINUOUS
 10
18.2450241237
 20
2.3798263774
 40
0.0257145923
100
AcDbArc
 50
39.3804255939
 51
59.0361096173
  0
ARC
  5
3C6
100
AcDbEntity
  8
0
100
AcDbCircle
 62
7
  6
CONTINUOUS
 10
18.2296840914
 20
2.3774978567
 40
0.0238935861
100
AcDbArc
 50
209.8247607259
 51
235.1255079367
  0
ARC
  5
3C7
100
AcDbEntity
  8
0
100
AcDbCircle
 62
7
  6
CONTINUOUS
 10
18.2830605507
 20
2.3792897325
 40
0.0175560065
100
AcDbArc
 50
332.2279060967
 51
359.6595469939
  0
ARC
  5
3C8
100
AcDbEntity
  8
0
100
AcDbCircle
 62
7
  6
CONTINUOUS
 10
18.1890593051
 20
2.3776149607
 40
0.0151491919
100
AcDbArc
 50
24.098260853
 51
63.0369451818
  0
ARC
  5
3C9
100
AcDbEntity
  8
0
100
AcDbCircle
 62
7
  6
CONTINUOUS
 10
18.2845735615
 20
2.3882148688
 40
0.0147197649
100
AcDbArc
 50
192.7054516565
 51
206.0594861022
  0
ARC
  5
3CA
100
AcDbEntity
  8
0
100
AcDbCircle
 62
7
  6
CONTINUOUS
 10
18.1973459106
 20
2.4149676972
 40
0.0145814632
100
AcDbArc
 50
54.6746025112
 51
71.1660573124
  0
ARC
  5
3CB
100
AcDbEntity
  8
0
100
AcDbCircle
 62
7
  6
CONTINUOUS
 10
18.2752146786
 20
2.3927110743
 40
0.0132488022
100
AcDbArc
 50
270.266200055
 51
281.2404888597
  0
ARC
  5
3CC
100
AcDbEntity
  8
0
100
AcDbCircle
 62
7
  6
CONTINUOUS
 10
18.2716089246
 20
2.3878675959
 40
0.0119498009
100
AcDbArc
 50
340.7883861657
 51
1.1691452593
  0
ARC
  5
3CD
100
AcDbEntity
  8
0
100
AcDbCircle
 62
7
  6
CONTINUOUS
 10
18.198398534
 20
2.4260095887
 40
0.0110815393
100
AcDbArc
 50
306.758405961
 51
320.4502234234
  0
ARC
  5
3CE
100
AcDbEntity
  8
0
100
AcDbCircle
 62
7
  6
CONTINUOUS
 10
18.2764089196
 20
2.3869743807
 40
0.0073895522
100
AcDbArc
 50
280.8288201977
 51
305.0837508495
  0
ARC
  5
3CF
100
AcDbEntity
  8
0
100
AcDbCircle
 62
7
  6
CONTINUOUS
 10
18.2768101012
 20
2.3861235343
 40
0.0064647042
100
AcDbArc
 50
306.5086174083
 51
340.2162360092
  0
ARC
  5
3D0
100
AcDbEntity
  8
0
100
AcDbCircle
 62
7
  6
CONTINUOUS
 10
18.2024754016
 20
2.4218216224
 40
0.0060275915
100
AcDbArc
 50
20.9055592135
 51
56.7851676243
  0
ARC
  5
3D1
100
AcDbEntity
  8
0
100
AcDbCircle
 62
7
  6
CONTINUOUS
 10
18.2025691502
 20
2.4227756809
 40
0.0058087709
100
AcDbArc
 50
318.8515287446
 51
353.6422345323
  0
ARC
  5
3D2
100
AcDbEntity
  8
0
100
AcDbCircle
 62
7
  6
CONTINUOUS
 10
18.2760792244
 20
2.3840063824
 40
0.0052403997
100
AcDbArc
 50
205.5232099488
 51
227.5054868079
  0
ARC
  5
3D3
100
AcDbEntity
  8
0
100
AcDbCircle
 62
7
  6
CONTINUOUS
 10
18.2037759605
 20
2.4224819047
 40
0.0045795888
100
AcDbArc
 50
355.6235353944
 51
18.9942678268
  0
ARC
  5
3D4
100
AcDbEntity
  8
0
100
AcDbCircle
 62
7
  6
CONTINUOUS
 10
18.2743509251
 20
2.3821910097
 40
0.0027347709
100
AcDbArc
 50
228.5117626738
 51
266.1485845754
  0
ARC
  5
3D5
100
AcDbEntity
  8
0
100
AcDbCircle
 62
7
  6
CONTINUOUS
 10
18.1572301659
 20
2.3912274234
 40
0.0024749995
100
AcDbArc
 50
89.9999571957
 51
180.0000428043
  0
ARC
  5
3D6
100
AcDbEntity
  8
0
100
AcDbCircle
 62
7
  6
CONTINUOUS
 10
18.1572301659
 20
2.3815284143
 40
0.0024749995
100
AcDbArc
 50
179.9999571957
 51
270.0000428043
  0
ARC
  5
3D7
100
AcDbEntity
  8
0
100
AcDbCircle
 62
7
  6
CONTINUOUS
 10
18.1818891832
 20
2.3765784153
 40
0.0024749995
100
AcDbArc
 50
359.9999571957
 51
90.0000428043
  0
ARC
  5
3D8
100
AcDbEntity
  8
0
100
AcDbCircle
 62
7
  6
CONTINUOUS
 10
18.0683181166
 20
2.3766004153
 40
0.0024749995
100
AcDbArc
 50
89.9999571957
 51
180.0000428043
  0
ARC
  5
3D9
100
AcDbEntity
  8
0
100
AcDbCircle
 62
7
  6
CONTINUOUS
 10
18.0910641329
 20
2.3815504143
 40
0.0024749995
100
AcDbArc
 50
269.9999571957
 51
0.0000428043
  0
ARC
  5
3DA
100
AcDbEntity
  8
0
100
AcDbCircle
 62
7
  6
CONTINUOUS
 10
18.2860312373
 20
2.3907374231
 40
0.0024749995
100
AcDbArc
 50
89.9999571957
 51
180.0000428043
  0
ARC
  5
3DB
100
AcDbEntity
  8
0
100
AcDbCircle
 62
7
  6
CONTINUOUS
 10
18.2981412477
 20
2.3907374231
 40
0.0024749995
100
AcDbArc
 50
359.9999571957
 51
90.0000428043
  0
ARC
  5
3DC
100
AcDbEntity
  8
0
100
AcDbCircle
 62
7
  6
CONTINUOUS
 10
18.1572301659
 20
2.415180433
 40
0.0024749995
100
AcDbArc
 50
179.9999571957
 51
270.0000428043
  0
ARC
  5
3DD
100
AcDbEntity
  8
0
100
AcDbCircle
 62
7
  6
CONTINUOUS
 10
17.992145078
 20
2.3815504143
 40
0.0024749995
100
AcDbArc
 50
269.9999571957
 51
0.0000428043
  0
ARC
  5
3DE
100
AcDbEntity
  8
0
100
AcDbCircle
 62
7
  6
CONTINUOUS
 10
17.9970950771
 20
2.3898004226
 40
0.0024749995
100
AcDbArc
 50
89.9999571957
 51
180.0000428043
  0
ARC
  5
3DF
100
AcDbEntity
  8
0
100
AcDbCircle
 62
7
  6
CONTINUOUS
 10
18.0394141042
 20
2.3898004226
 40
0.0024749995
100
AcDbArc
 50
359.9999571957
 51
90.0000428043
  0
ARC
  5
3E0
100
AcDbEntity
  8
0
100
AcDbCircle
 62
7
  6
CONTINUOUS
 10
18.0379951034
 20
2.4196554355
 40
0.0024749995
100
AcDbArc
 50
269.9999571956
 51
0.0000428042
  0
ARC
  5
3E1
100
AcDbEntity
  8
0
100
AcDbCircle
 62
7
  6
CONTINUOUS
 10
17.9961310765
 20
2.4196554355
 40
0.0024749995
100
AcDbArc
 50
179.9999571957
 51
270.0000428043
  0
ARC
  5
3E2
100
AcDbEntity
  8
0
100
AcDbCircle
 62
7
  6
CONTINUOUS
 10
17.9623080615
 20
2.4114054346
 40
0.0024749995
100
AcDbArc
 50
359.9999571957
 51
90.0000428043
  0
ARC
  5
3E3
100
AcDbEntity
  8
0
100
AcDbCircle
 62
7
  6
CONTINUOUS
 10
17.9623080615
 20
2.3980504235
 40
0.0024749995
100
AcDbArc
 50
269.9999571956
 51
0.0000428042
  0
ARC
  5
3E4
100
AcDbEntity
  8
0
100
AcDbCircle
 62
7
  6
CONTINUOUS
 10
18.220842337
 20
2.4783532224
 40
0.0789082104
100
AcDbArc
 50
292.906155071
 51
305.2574666259
  0
ARC
  5
3E5
100
AcDbEntity
  8
0
100
AcDbCircle
 62
7
  6
CONTINUOUS
 10
18.2511742746
 20
2.4351463727
 40
0.0261183659
100
AcDbArc
 50
305.6373831893
 51
329.9727629745
  0
ARC
  5
3E6
100
AcDbEntity
  8
0
100
AcDbCircle
 62
7
  6
CONTINUOUS
 10
18.1908418374
 20
2.4381440645
 40
0.0254407115
100
AcDbArc
 50
270.7327484175
 51
290.441894219
  0
ARC
  5
3E7
100
AcDbEntity
  8
0
100
AcDbCircle
 62
7
  6
CONTINUOUS
 10
18.1927693431
 20
2.4337504172
 40
0.0206523367
100
AcDbArc
 50
289.6883413472
 51
306.4184925496
  0
ARC
  5
3E8
100
AcDbEntity
  8
0
100
AcDbCircle
 62
7
  6
CONTINUOUS
 10
18.2588883357
 20
2.4282993328
 40
0.0165459396
100
AcDbArc
 50
1.548452892
 51
33.5033152417
  0
ARC
  5
3E9
100
AcDbEntity
  8
0
100
AcDbCircle
 62
7
  6
CONTINUOUS
 10
18.2621849309
 20
2.428467785
 40
0.0132462337
100
AcDbArc
 50
331.1510006998
 51
1.205404301
  0
ARC
  5
3EA
100
AcDbEntity
  8
0
100
AcDbCircle
 62
7
  6
CONTINUOUS
 10
18.0910641329
 20
2.4279054437
 40
0.0024749995
100
AcDbArc
 50
359.9999571957
 51
90.0000428043
  0
ARC
  5
3EB
100
AcDbEntity
  8
0
100
AcDbCircle
 62
7
  6
CONTINUOUS
 10
18.0683181166
 20
2.4328554428
 40
0.0024749995
100
AcDbArc
 50
179.9999571957
 51
270.0000428043
  0
ARC
  5
3EC
100
AcDbEntity
  8
0
100
AcDbCircle
 62
7
  6
CONTINUOUS
 10
18.0683181166
 20
2.4526554575
 40
0.0024749995
100
AcDbArc
 50
89.9999571957
 51
180.0000428043
  0
ARC
  5
3ED
100
AcDbEntity
  8
0
100
AcDbCircle
 62
7
  6
CONTINUOUS
 10
18.1572301659
 20
2.4279054437
 40
0.0024749995
100
AcDbArc
 50
89.9999571957
 51
180.0000428043
  0
ARC
  5
3EE
100
AcDbEntity
  8
0
100
AcDbCircle
 62
7
  6
CONTINUOUS
 10
18.0379951034
 20
2.4526554575
 40
0.0024749995
100
AcDbArc
 50
359.9999571957
 51
90.0000428043
  0
ARC
  5
3EF
100
AcDbEntity
  8
0
100
AcDbCircle
 62
7
  6
CONTINUOUS
 10
17.9911810775
 20
2.4279054437
 40
0.0024749995
100
AcDbArc
 50
359.9999571957
 51
90.0000428043
  0
ELLIPSE
  5
3F0
100
AcDbEntity
  8
0
100
AcDbEllipse
 62
7
  6
CONTINUOUS
 10
17.573550844
 20
2.4034764283
 30
0.0
 11
-0.8250004575
 21
0.0
 31
0.0
 40
0.218572
 41
0.0
 42
6.2831853072
  0
HATCH
  5
3F1
100
AcDbEntity
  8
0
100
AcDbHatch
 62
7
  6
CONTINUOUS
 10
0.0
 20
0.0
 30
0.0
210
0.0
220
0.0
230
1.0
  2
XSEC0002
 70
1
 71
1
 91
11
 92
1
 93
57
 72
2
 10
18.2265855264
 20
2.3716475527
 40
0.0173408616
 50
232.4713476722
 51
267.338189944
 73
1
 72
2
 10
18.2296840914
 20
2.3774978567
 40
0.0238935861
 50
209.8247607259
 51
235.1255079367
 73
1
 72
2
 10
18.2495655574
 20
2.384346736
 40
0.044722495
 50
195.531588407
 51
204.7624440448
 73
1
 72
1
 10
18.206476195
 20
2.3723714111
 11
18.204672194
 21
2.3784404145
 72
2
 10
18.1662929967
 20
2.368643334
 40
0.0396099176
 50
14.3201081283
 51
22.4984722084
 73
1
 72
2
 10
18.1890593051
 20
2.3776149607
 40
0.0151491919
 50
24.098260853
 51
63.0369451818
 73
1
 72
2
 10
18.1850046504
 20
2.3693353402
 40
0.0243676582
 50
63.3666028271
 51
90.3937697637
 73
1
 72
1
 10
18.184837183
 20
2.3937024229
 11
18.1572301677
 21
2.3937024229
 72
2
 10
18.1572301659
 20
2.3912274234
 40
0.0024749995
 50
89.9999571957
 51
180.0000428043
 73
1
 72
1
 10
18.1547551663
 20
2.3912274216
 11
18.1547551663
 21
2.3815284162
 72
2
 10
18.1572301659
 20
2.3815284143
 40
0.0024749995
 50
179.9999571957
 51
270.0000428043
 73
1
 72
1
 10
18.1572301677
 20
2.3790534148
 11
18.1818891814
 21
2.3790534148
 72
2
 10
18.1818891832
 20
2.3765784153
 40
0.0024749995
 50
359.9999571957
 51
90.0000428042
 73
1
 72
1
 10
18.1843641828
 20
2.3765784134
 11
18.1843641828
 21
2.3568004025
 72
2
 10
18.1818891832
 20
2.3568004006
 40
0.0024749995
 50
269.9999571958
 51
0.0000428043
 73
1
 72
1
 10
18.1818891814
 20
2.3543254011
 11
18.0683181184
 21
2.3543254011
 72
2
 10
18.0683181166
 20
2.3568004006
 40
0.0024749995
 50
179.9999571957
 51
270.0000428042
 73
1
 72
1
 10
18.065843117
 20
2.3568004025
 11
18.065843117
 21
2.3766004134
 72
2
 10
18.0683181166
 20
2.3766004153
 40
0.0024749995
 50
89.9999571958
 51
180.0000428043
 73
1
 72
1
 10
18.0683181184
 20
2.3790754148
 11
18.091064131
 21
2.3790754148
 72
2
 10
18.0910641329
 20
2.3815504143
 40
0.0024749995
 50
269.9999571957
 51
0.0000428043
 73
1
 72
1
 10
18.0935391324
 20
2.3815504162
 11
18.0935391324
 21
2.4279054419
 72
2
 10
18.0910641329
 20
2.4279054437
 40
0.0024749995
 50
359.9999571957
 51
90.0000428043
 73
1
 72
1
 10
18.091064131
 20
2.4303804433
 11
18.0683181184
 21
2.4303804433
 72
2
 10
18.0683181166
 20
2.4328554428
 40
0.0024749995
 50
179.9999571957
 51
270.0000428043
 73
1
 72
1
 10
18.065843117
 20
2.4328554446
 11
18.065843117
 21
2.4526554556
 72
2
 10
18.0683181166
 20
2.4526554575
 40
0.0024749995
 50
89.9999571958
 51
180.0000428043
 73
1
 72
1
 10
18.0683181184
 20
2.455130457
 11
18.2178992014
 21
2.455130457
 72
2
 10
18.2152358981
 20
2.2725915465
 40
0.1825583387
 50
79.8618509324
 51
89.1640948679
 73
1
 72
2
 10
18.2415401884
 20
2.4134150625
 40
0.039319019
 50
59.1202086415
 51
81.4730239328
 73
1
 72
2
 10
18.2471995846
 20
2.4197497317
 40
0.0310192946
 50
34.7540871
 51
62.0879016178
 73
1
 72
2
 10
18.2588883357
 20
2.4282993328
 40
0.0165459396
 50
1.548452892
 51
33.5033152417
 73
1
 72
2
 10
18.2621849309
 20
2.428467785
 40
0.0132462337
 50
331.1510006998
 51
1.205404301
 73
1
 72
2
 10
18.2511742746
 20
2.4351463727
 40
0.0261183659
 50
305.6373831893
 51
329.9727629745
 73
1
 72
2
 10
18.220842337
 20
2.4783532224
 40
0.0789082104
 50
292.906155071
 51
305.2574666259
 73
1
 72
2
 10
18.197141171
 20
2.3016991173
 40
0.117346916
 50
58.614769177
 51
62.3737227606
 73
1
 72
2
 10
18.2450241237
 20
2.3798263774
 40
0.0257145923
 50
39.3804255939
 51
59.0361096173
 73
1
 72
2
 10
18.2439037681
 20
2.3797532943
 40
0.0266349791
 50
20.3630922153
 51
37.9727053099
 73
1
 72
2
 10
18.2260032264
 20
2.3725718859
 40
0.0459185159
 50
15.6740290068
 51
20.9917271228
 73
1
 72
2
 10
18.2845735615
 20
2.3882148688
 40
0.0147197649
 50
192.7054516565
 51
206.0594861022
 73
1
 72
2
 10
18.2760792244
 20
2.3840063824
 40
0.0052403997
 50
205.5232099488
 51
227.5054868079
 73
1
 72
2
 10
18.2743509251
 20
2.3821910097
 40
0.0027347709
 50
228.5117626738
 51
266.1485845755
 73
1
 72
1
 10
18.2741672326
 20
2.379462415
 11
18.2752762332
 21
2.379462415
 72
2
 10
18.2752146786
 20
2.3927110743
 40
0.0132488022
 50
270.266200055
 51
281.2404888597
 73
1
 72
2
 10
18.2764089196
 20
2.3869743807
 40
0.0073895522
 50
280.8288201977
 51
305.0837508495
 73
1
 72
2
 10
18.2768101012
 20
2.3861235343
 40
0.0064647042
 50
306.5086174083
 51
340.2162360092
 73
1
 72
2
 10
18.2716089246
 20
2.3878675959
 40
0.0119498009
 50
340.7883861657
 51
1.1691452593
 73
1
 72
1
 10
18.2835562378
 20
2.3881114198
 11
18.2835562378
 21
2.3907374213
 72
2
 10
18.2860312373
 20
2.3907374231
 40
0.0024749995
 50
89.9999571957
 51
180.0000428043
 73
1
 72
1
 10
18.2860312391
 20
2.3932124227
 11
18.2981412459
 21
2.3932124227
 72
2
 10
18.2981412477
 20
2.3907374231
 40
0.0024749995
 50
359.9999571957
 51
90.0000428043
 73
1
 72
1
 10
18.3006162472
 20
2.3907374213
 11
18.3006162472
 21
2.3791854149
 72
2
 10
18.2830605507
 20
2.3792897325
 40
0.0175560065
 50
332.2279060967
 51
359.6595469939
 73
1
 72
2
 10
18.2737535399
 20
2.384184238
 40
0.0280715479
 50
308.5071794988
 51
332.2400656899
 73
1
 72
2
 10
18.2667613545
 20
2.3917854558
 40
0.0383802683
 50
288.7656836787
 51
309.6104317088
 73
1
 72
2
 10
18.2724993219
 20
2.3741987064
 40
0.0198837666
 50
271.8586572978
 51
289.4131338543
 73
1
 72
1
 10
18.273144232
 20
2.3543254011
 11
18.2257802057
 21
2.3543254011
 97
267
330
2E6
330
2E7
330
2E8
330
2E9
330
2EA
330
2EB
330
2EC
330
2ED
330
2EE
330
2EF
330
2F0
330
2F1
330
2F2
330
2F3
330
2F4
330
2F5
330
2F6
330
2F7
330
2F8
330
2F9
330
2FA
330
2FB
330
2FC
330
2FD
330
2FE
330
2FF
330
300
330
301
330
302
330
303
330
304
330
305
330
306
330
307
330
308
330
309
330
30A
330
30B
330
30C
330
30D
330
30E
330
30F
330
310
330
311
330
312
330
313
330
314
330
315
330
316
330
317
330
318
330
319
330
31A
330
31B
330
31C
330
31D
330
31E
330
31F
330
320
330
321
330
322
330
323
330
324
330
325
330
326
330
327
330
328
330
329
330
32A
330
32B
330
32C
330
32D
330
32E
330
32F
330
330
330
331
330
332
330
333
330
334
330
335
330
336
330
337
330
338
330
339
330
33A
330
33B
330
33C
330
33D
330
33E
330
33F
330
340
330
341
330
342
330
343
330
344
330
345
330
346
330
347
330
348
330
349
330
34A
330
34B
330
34C
330
34D
330
34E
330
34F
330
350
330
351
330
352
330
353
330
354
330
355
330
356
330
357
330
358
330
359
330
35A
330
35B
330
35C
330
35D
330
35E
330
35F
330
360
330
361
330
362
330
363
330
364
330
365
330
366
330
367
330
368
330
369
330
36A
330
36B
330
36C
330
36D
330
36E
330
36F
330
370
330
371
330
372
330
373
330
374
330
375
330
376
330
377
330
378
330
379
330
37A
330
37B
330
37C
330
37D
330
37E
330
37F
330
380
330
381
330
382
330
383
330
384
330
385
330
386
330
387
330
388
330
389
330
38A
330
38B
330
38C
330
38D
330
38E
330
38F
330
390
330
391
330
392
330
393
330
394
330
395
330
396
330
397
330
398
330
399
330
39A
330
39B
330
39C
330
39D
330
39E
330
39F
330
3A0
330
3A1
330
3A2
330
3A3
330
3A4
330
3A5
330
3A6
330
3A7
330
3A8
330
3A9
330
3AA
330
3AB
330
3AC
330
3AD
330
3AE
330
3AF
330
3B0
330
3B1
330
3B2
330
3B3
330
3B4
330
3B5
330
3B6
330
3B7
330
3B8
330
3B9
330
3BA
330
3BB
330
3BC
330
3BD
330
3BE
330
3BF
330
3C0
330
3C1
330
3C2
330
3C3
330
3C4
330
3C5
330
3C6
330
3C7
330
3C8
330
3C9
330
3CA
330
3CB
330
3CC
330
3CD
330
3CE
330
3CF
330
3D0
330
3D1
330
3D2
330
3D3
330
3D4
330
3D5
330
3D6
330
3D7
330
3D8
330
3D9
330
3DA
330
3DB
330
3DC
330
3DD
330
3DE
330
3DF
330
3E0
330
3E1
330
3E2
330
3E3
330
3E4
330
3E5
330
3E6
330
3E7
330
3E8
330
3E9
330
3EA
330
3EB
330
3EC
330
3ED
330
3EE
330
3EF
330
3F0
 92
1
 93
40
 72
2
 10
17.8362019878
 20
2.3568004006
 40
0.0024749995
 50
179.9999571957
 51
270.0000428042
 73
1
 72
1
 10
17.8337269883
 20
2.3568004025
 11
17.8337269883
 21
2.3766004134
 72
2
 10
17.8362019878
 20
2.3766004153
 40
0.0024749995
 50
89.9999571958
 51
180.0000428043
 73
1
 72
1
 10
17.8362019897
 20
2.3790754148
 11
17.860125003
 21
2.3790754148
 72
2
 10
17.8601250048
 20
2.3815504143
 40
0.0024749995
 50
269.9999571956
 51
0.0000428042
 73
1
 72
1
 10
17.8626000043
 20
2.3815504162
 11
17.8626000043
 21
2.4279054419
 72
2
 10
17.8601250048
 20
2.4279054437
 40
0.0024749995
 50
359.9999571957
 51
90.0000428043
 73
1
 72
1
 10
17.860125003
 20
2.4303804433
 11
17.8362019897
 21
2.4303804433
 72
2
 10
17.8362019878
 20
2.4328554428
 40
0.0024749995
 50
179.9999571957
 51
270.0000428043
 73
1
 72
1
 10
17.8337269883
 20
2.4328554446
 11
17.8337269883
 21
2.4526554556
 72
2
 10
17.8362019878
 20
2.4526554575
 40
0.0024749995
 50
89.9999571958
 51
180.0000428043
 73
1
 72
1
 10
17.8362019897
 20
2.455130457
 11
18.0379951016
 21
2.455130457
 72
2
 10
18.0379951034
 20
2.4526554575
 40
0.0024749995
 50
359.9999571957
 51
90.0000428042
 73
1
 72
1
 10
18.040470103
 20
2.4526554556
 11
18.040470103
 21
2.4196554373
 72
2
 10
18.0379951034
 20
2.4196554355
 40
0.0024749995
 50
269.9999571956
 51
0.0000428042
 73
1
 72
1
 10
18.0379951016
 20
2.4171804359
 11
17.9961310784
 21
2.4171804359
 72
2
 10
17.9961310765
 20
2.4196554355
 40
0.0024749995
 50
179.9999571957
 51
270.0000428043
 73
1
 72
1
 10
17.993656077
 20
2.4196554373
 11
17.993656077
 21
2.4279054419
 72
2
 10
17.9911810775
 20
2.4279054437
 40
0.0024749995
 50
359.9999571957
 51
90.0000428043
 73
1
 72
1
 10
17.9911810756
 20
2.4303804433
 11
17.9271410401
 21
2.4303804433
 72
2
 10
17.9271410383
 20
2.4279054437
 40
0.0024749995
 50
89.9999571958
 51
180.0000428043
 73
1
 72
1
 10
17.9246660387
 20
2.4279054419
 11
17.9246660387
 21
2.4163554355
 72
2
 10
17.9271410383
 20
2.4163554336
 40
0.0024749995
 50
179.9999571957
 51
270.0000428042
 73
1
 72
1
 10
17.9271410401
 20
2.4138804341
 11
17.9623080596
 21
2.4138804341
 72
2
 10
17.9623080615
 20
2.4114054346
 40
0.0024749995
 50
359.9999571957
 51
90.0000428042
 73
1
 72
1
 10
17.964783061
 20
2.4114054327
 11
17.964783061
 21
2.3980504253
 72
2
 10
17.9623080615
 20
2.3980504235
 40
0.0024749995
 50
269.9999571956
 51
0.0000428042
 73
1
 72
1
 10
17.9623080596
 20
2.395575424
 11
17.9271410401
 21
2.395575424
 72
2
 10
17.9271410383
 20
2.3931004244
 40
0.0024749995
 50
89.9999571958
 51
180.0000428043
 73
1
 72
1
 10
17.9246660387
 20
2.3931004226
 11
17.9246660387
 21
2.3815504162
 72
2
 10
17.9271410383
 20
2.3815504143
 40
0.0024749995
 50
179.9999571957
 51
270.0000428043
 73
1
 72
1
 10
17.9271410401
 20
2.3790754148
 11
17.9921450762
 21
2.3790754148
 72
2
 10
17.992145078
 20
2.3815504143
 40
0.0024749995
 50
269.9999571958
 51
0.0000428043
 73
1
 72
1
 10
17.9946200775
 20
2.3815504162
 11
17.9946200775
 21
2.3898004208
 72
2
 10
17.9970950771
 20
2.3898004226
 40
0.0024749995
 50
89.9999571958
 51
180.0000428043
 73
1
 72
1
 10
17.9970950789
 20
2.3922754221
 11
18.0394141024
 21
2.3922754221
 72
2
 10
18.0394141042
 20
2.3898004226
 40
0.0024749995
 50
359.9999571957
 51
90.0000428043
 73
1
 72
1
 10
18.0418891038
 20
2.3898004208
 11
18.0418891038
 21
2.3568004025
 72
2
 10
18.0394141042
 20
2.3568004006
 40
0.0024749995
 50
269.9999571958
 51
0.0000428043
 73
1
 72
1
 10
18.0394141024
 20
2.3543254011
 11
17.8362019897
 21
2.3543254011
 97
267
330
2E6
330
2E7
330
2E8
330
2E9
330
2EA
330
2EB
330
2EC
330
2ED
330
2EE
330
2EF
330
2F0
330
2F1
330
2F2
330
2F3
330
2F4
330
2F5
330
2F6
330
2F7
330
2F8
330
2F9
330
2FA
330
2FB
330
2FC
330
2FD
330
2FE
330
2FF
330
300
330
301
330
302
330
303
330
304
330
305
330
306
330
307
330
308
330
309
330
30A
330
30B
330
30C
330
30D
330
30E
330
30F
330
310
330
311
330
312
330
313
330
314
330
315
330
316
330
317
330
318
330
319
330
31A
330
31B
330
31C
330
31D
330
31E
330
31F
330
320
330
321
330
322
330
323
330
324
330
325
330
326
330
327
330
328
330
329
330
32A
330
32B
330
32C
330
32D
330
32E
330
32F
330
330
330
331
330
332
330
333
330
334
330
335
330
336
330
337
330
338
330
339
330
33A
330
33B
330
33C
330
33D
330
33E
330
33F
330
340
330
341
330
342
330
343
330
344
330
345
330
346
330
347
330
348
330
349
330
34A
330
34B
330
34C
330
34D
330
34E
330
34F
330
350
330
351
330
352
330
353
330
354
330
355
330
356
330
357
330
358
330
359
330
35A
330
35B
330
35C
330
35D
330
35E
330
35F
330
360
330
361
330
362
330
363
330
364
330
365
330
366
330
367
330
368
330
369
330
36A
330
36B
330
36C
330
36D
330
36E
330
36F
330
370
330
371
330
372
330
373
330
374
330
375
330
376
330
377
330
378
330
379
330
37A
330
37B
330
37C
330
37D
330
37E
330
37F
330
380
330
381
330
382
330
383
330
384
330
385
330
386
330
387
330
388
330
389
330
38A
330
38B
330
38C
330
38D
330
38E
330
38F
330
390
330
391
330
392
330
393
330
394
330
395
330
396
330
397
330
398
330
399
330
39A
330
39B
330
39C
330
39D
330
39E
330
39F
330
3A0
330
3A1
330
3A2
330
3A3
330
3A4
330
3A5
330
3A6
330
3A7
330
3A8
330
3A9
330
3AA
330
3AB
330
3AC
330
3AD
330
3AE
330
3AF
330
3B0
330
3B1
330
3B2
330
3B3
330
3B4
330
3B5
330
3B6
330
3B7
330
3B8
330
3B9
330
3BA
330
3BB
330
3BC
330
3BD
330
3BE
330
3BF
330
3C0
330
3C1
330
3C2
330
3C3
330
3C4
330
3C5
330
3C6
330
3C7
330
3C8
330
3C9
330
3CA
330
3CB
330
3CC
330
3CD
330
3CE
330
3CF
330
3D0
330
3D1
330
3D2
330
3D3
330
3D4
330
3D5
330
3D6
330
3D7
330
3D8
330
3D9
330
3DA
330
3DB
330
3DC
330
3DD
330
3DE
330
3DF
330
3E0
330
3E1
330
3E2
330
3E3
330
3E4
330
3E5
330
3E6
330
3E7
330
3E8
330
3E9
330
3EA
330
3EB
330
3EC
330
3ED
330
3EE
330
3EF
330
3F0
 92
1
 93
40
 72
2
 10
17.7115227858
 20
2.3567995689
 40
0.0024741678
 50
226.3477981898
 51
270.0031206038
 73
1
 72
1
 10
17.7098149196
 20
2.3550094015
 11
17.6465348845
 21
2.415387435
 72
2
 10
17.6448261836
 20
2.4135964972
 40
0.0024753014
 50
46.3461263058
 51
180.0014637321
 73
1
 72
1
 10
17.6423508822
 20
2.413596434
 11
17.6423508822
 21
2.3815504162
 72
2
 10
17.6448258817
 20
2.3815504143
 40
0.0024749995
 50
179.9999571957
 51
270.0000428043
 73
1
 72
1
 10
17.6448258836
 20
2.3790754148
 11
17.6651428948
 21
2.3790754148
 72
2
 10
17.6651428967
 20
2.3766004153
 40
0.0024749995
 50
359.9999571957
 51
90.0000428043
 73
1
 72
1
 10
17.6676178962
 20
2.3766004134
 11
17.6676178962
 21
2.3568004025
 72
2
 10
17.6651428967
 20
2.3568004006
 40
0.0024749995
 50
269.9999571958
 51
0.0000428043
 73
1
 72
1
 10
17.6651428948
 20
2.3543254011
 11
17.5894788529
 21
2.3543254011
 72
2
 10
17.589478851
 20
2.3568004006
 40
0.0024749995
 50
179.9999571957
 51
270.0000428042
 73
1
 72
1
 10
17.5870038515
 20
2.3568004025
 11
17.5870038515
 21
2.3766004134
 72
2
 10
17.589478851
 20
2.3766004153
 40
0.0024749995
 50
89.9999571957
 51
180.0000428043
 73
1
 72
1
 10
17.5894788529
 20
2.3790754148
 11
17.6081248632
 21
2.3790754148
 72
2
 10
17.6081248651
 20
2.3815504143
 40
0.0024749995
 50
269.9999571957
 51
0.0000428043
 73
1
 72
1
 10
17.6105998646
 20
2.3815504162
 11
17.6105998646
 21
2.4279054419
 72
2
 10
17.6081248651
 20
2.4279054437
 40
0.0024749995
 50
359.9999571957
 51
90.0000428043
 73
1
 72
1
 10
17.6081248632
 20
2.4303804433
 11
17.5894788529
 21
2.4303804433
 72
2
 10
17.589478851
 20
2.4328554428
 40
0.0024749995
 50
179.9999571957
 51
270.0000428043
 73
1
 72
1
 10
17.5870038515
 20
2.4328554446
 11
17.5870038515
 21
2.4526554556
 72
2
 10
17.589478851
 20
2.4526554575
 40
0.0024749995
 50
89.9999571957
 51
180.0000428043
 73
1
 72
1
 10
17.5894788529
 20
2.455130457
 11
17.6899369086
 21
2.455130457
 72
2
 10
17.6899370433
 20
2.4526562892
 40
0.0024741678
 50
46.3477981899
 51
90.0031206038
 73
1
 72
1
 10
17.6916449095
 20
2.4544464566
 11
17.7516779428
 21
2.3971664249
 72
2
 10
17.7533866437
 20
2.3989573626
 40
0.0024753014
 50
226.3461263059
 51
0.0014637321
 73
1
 72
1
 10
17.7558619451
 20
2.3989574258
 11
17.7558619451
 21
2.4279054419
 72
2
 10
17.7533869456
 20
2.4279054437
 40
0.0024749995
 50
359.9999571957
 51
90.0000428043
 73
1
 72
1
 10
17.7533869438
 20
2.4303804433
 11
17.7346109333
 21
2.4303804433
 72
2
 10
17.7346109315
 20
2.4328554428
 40
0.0024749995
 50
179.9999571957
 51
270.0000428043
 73
1
 72
1
 10
17.732135932
 20
2.4328554446
 11
17.732135932
 21
2.4526554556
 72
2
 10
17.7346109315
 20
2.4526554575
 40
0.0024749995
 50
89.9999571958
 51
180.0000428043
 73
1
 72
1
 10
17.7346109333
 20
2.455130457
 11
17.8086119744
 21
2.455130457
 72
2
 10
17.8086119762
 20
2.4526554575
 40
0.0024749995
 50
359.9999571957
 51
90.0000428043
 73
1
 72
1
 10
17.8110869758
 20
2.4526554556
 11
17.8110869758
 21
2.4328554446
 72
2
 10
17.8086119762
 20
2.4328554428
 40
0.0024749995
 50
269.9999571956
 51
0.0000428042
 73
1
 72
1
 10
17.8086119744
 20
2.4303804433
 11
17.7906789644
 21
2.4303804433
 72
2
 10
17.7906789626
 20
2.4279054437
 40
0.0024749995
 50
89.9999571957
 51
180.0000428043
 73
1
 72
1
 10
17.7882039631
 20
2.4279054419
 11
17.7882039631
 21
2.3568004025
 72
2
 10
17.7857289635
 20
2.3568004006
 40
0.0024749995
 50
269.9999571957
 51
0.0000428043
 73
1
 72
1
 10
17.7857289617
 20
2.3543254011
 11
17.7115229205
 21
2.3543254011
 97
267
330
2E6
330
2E7
330
2E8
330
2E9
330
2EA
330
2EB
330
2EC
330
2ED
330
2EE
330
2EF
330
2F0
330
2F1
330
2F2
330
2F3
330
2F4
330
2F5
330
2F6
330
2F7
330
2F8
330
2F9
330
2FA
330
2FB
330
2FC
330
2FD
330
2FE
330
2FF
330
300
330
301
330
302
330
303
330
304
330
305
330
306
330
307
330
308
330
309
330
30A
330
30B
330
30C
330
30D
330
30E
330
30F
330
310
330
311
330
312
330
313
330
314
330
315
330
316
330
317
330
318
330
319
330
31A
330
31B
330
31C
330
31D
330
31E
330
31F
330
320
330
321
330
322
330
323
330
324
330
325
330
326
330
327
330
328
330
329
330
32A
330
32B
330
32C
330
32D
330
32E
330
32F
330
330
330
331
330
332
330
333
330
334
330
335
330
336
330
337
330
338
330
339
330
33A
330
33B
330
33C
330
33D
330
33E
330
33F
330
340
330
341
330
342
330
343
330
344
330
345
330
346
330
347
330
348
330
349
330
34A
330
34B
330
34C
330
34D
330
34E
330
34F
330
350
330
351
330
352
330
353
330
354
330
355
330
356
330
357
330
358
330
359
330
35A
330
35B
330
35C
330
35D
330
35E
330
35F
330
360
330
361
330
362
330
363
330
364
330
365
330
366
330
367
330
368
330
369
330
36A
330
36B
330
36C
330
36D
330
36E
330
36F
330
370
330
371
330
372
330
373
330
374
330
375
330
376
330
377
330
378
330
379
330
37A
330
37B
330
37C
330
37D
330
37E
330
37F
330
380
330
381
330
382
330
383
330
384
330
385
330
386
330
387
330
388
330
389
330
38A
330
38B
330
38C
330
38D
330
38E
330
38F
330
390
330
391
330
392
330
393
330
394
330
395
330
396
330
397
330
398
330
399
330
39A
330
39B
330
39C
330
39D
330
39E
330
39F
330
3A0
330
3A1
330
3A2
330
3A3
330
3A4
330
3A5
330
3A6
330
3A7
330
3A8
330
3A9
330
3AA
330
3AB
330
3AC
330
3AD
330
3AE
330
3AF
330
3B0
330
3B1
330
3B2
330
3B3
330
3B4
330
3B5
330
3B6
330
3B7
330
3B8
330
3B9
330
3BA
330
3BB
330
3BC
330
3BD
330
3BE
330
3BF
330
3C0
330
3C1
330
3C2
330
3C3
330
3C4
330
3C5
330
3C6
330
3C7
330
3C8
330
3C9
330
3CA
330
3CB
330
3CC
330
3CD
330
3CE
330
3CF
330
3D0
330
3D1
330
3D2
330
3D3
330
3D4
330
3D5
330
3D6
330
3D7
330
3D8
330
3D9
330
3DA
330
3DB
330
3DC
330
3DD
330
3DE
330
3DF
330
3E0
330
3E1
330
3E2
330
3E3
330
3E4
330
3E5
330
3E6
330
3E7
330
3E8
330
3E9
330
3EA
330
3EB
330
3EC
330
3ED
330
3EE
330
3EF
330
3F0
 92
1
 93
40
 72
2
 10
17.4632701481
 20
2.3568008172
 40
0.0024754162
 50
226.3593695814
 51
270.0146919954
 73
1
 72
1
 10
17.4615617819
 20
2.3550094015
 11
17.3982817468
 21
2.415387435
 72
2
 10
17.3965730459
 20
2.4135964972
 40
0.0024753014
 50
46.3461263058
 51
180.0014637321
 73
1
 72
1
 10
17.3940977445
 20
2.413596434
 11
17.3940977445
 21
2.3815504162
 72
2
 10
17.396572744
 20
2.3815504143
 40
0.0024749995
 50
179.9999571957
 51
270.0000428043
 73
1
 72
1
 10
17.3965727459
 20
2.3790754148
 11
17.4168897572
 21
2.3790754148
 72
2
 10
17.416889759
 20
2.3766004153
 40
0.0024749995
 50
359.9999571957
 51
90.0000428043
 73
1
 72
1
 10
17.4193647585
 20
2.3766004134
 11
17.4193647585
 21
2.3568004025
 72
2
 10
17.416889759
 20
2.3568004006
 40
0.0024749995
 50
269.9999571957
 51
0.0000428043
 73
1
 72
1
 10
17.4168897572
 20
2.3543254011
 11
17.3412257152
 21
2.3543254011
 72
2
 10
17.3412257133
 20
2.3568004006
 40
0.0024749995
 50
179.9999571957
 51
270.0000428043
 73
1
 72
1
 10
17.3387507138
 20
2.3568004025
 11
17.3387507138
 21
2.3766004134
 72
2
 10
17.3412257133
 20
2.3766004153
 40
0.0024749995
 50
89.9999571957
 51
180.0000428043
 73
1
 72
1
 10
17.3412257152
 20
2.3790754148
 11
17.3598727255
 21
2.3790754148
 72
2
 10
17.3598727274
 20
2.3815504143
 40
0.0024749995
 50
269.9999571957
 51
0.0000428043
 73
1
 72
1
 10
17.3623477269
 20
2.3815504162
 11
17.3623477269
 21
2.4279054419
 72
2
 10
17.3598727274
 20
2.4279054437
 40
0.0024749995
 50
359.9999571957
 51
90.0000428044
 73
1
 72
1
 10
17.3598727255
 20
2.4303804433
 11
17.3412257152
 21
2.4303804433
 72
2
 10
17.3412257133
 20
2.4328554428
 40
0.0024749995
 50
179.9999571957
 51
270.0000428043
 73
1
 72
1
 10
17.3387507138
 20
2.4328554446
 11
17.3387507138
 21
2.4526554556
 72
2
 10
17.3412257133
 20
2.4526554575
 40
0.0024749995
 50
89.9999571957
 51
180.0000428043
 73
1
 72
1
 10
17.3412257152
 20
2.455130457
 11
17.4416837709
 21
2.455130457
 72
2
 10
17.4416839057
 20
2.4526562892
 40
0.0024741678
 50
46.3477981899
 51
90.0031206038
 73
1
 72
1
 10
17.4433917718
 20
2.4544464566
 11
17.5034248051
 21
2.3971664249
 72
2
 10
17.5051335061
 20
2.3989573626
 40
0.0024753014
 50
226.3461263059
 51
0.0014637321
 73
1
 72
1
 10
17.5076088075
 20
2.3989574258
 11
17.5076088075
 21
2.4279054419
 72
2
 10
17.5051338079
 20
2.4279054437
 40
0.0024749995
 50
359.9999571957
 51
90.0000428043
 73
1
 72
1
 10
17.5051338061
 20
2.4303804433
 11
17.4863577957
 21
2.4303804433
 72
2
 10
17.4863577938
 20
2.4328554428
 40
0.0024749995
 50
179.9999571957
 51
270.0000428043
 73
1
 72
1
 10
17.4838827943
 20
2.4328554446
 11
17.4838827943
 21
2.4526554556
 72
2
 10
17.4863577938
 20
2.4526554575
 40
0.0024749995
 50
89.9999571957
 51
180.0000428043
 73
1
 72
1
 10
17.4863577957
 20
2.455130457
 11
17.5603588367
 21
2.455130457
 72
2
 10
17.5603588386
 20
2.4526554575
 40
0.0024749995
 50
359.9999571957
 51
90.0000428042
 73
1
 72
1
 10
17.5628338381
 20
2.4526554556
 11
17.5628338381
 21
2.4328554446
 72
2
 10
17.5603588386
 20
2.4328554428
 40
0.0024749995
 50
269.9999571958
 51
0.0000428043
 73
1
 72
1
 10
17.5603588367
 20
2.4303804433
 11
17.5424258268
 21
2.4303804433
 72
2
 10
17.5424258249
 20
2.4279054437
 40
0.0024749995
 50
89.9999571958
 51
180.0000428043
 73
1
 72
1
 10
17.5399508254
 20
2.4279054419
 11
17.5399508254
 21
2.3568004025
 72
2
 10
17.5374758259
 20
2.3568004006
 40
0.0024749995
 50
269.9999571958
 51
0.0000428043
 73
1
 72
1
 10
17.537475824
 20
2.3543254011
 11
17.4632707829
 21
2.3543254011
 97
267
330
2E6
330
2E7
330
2E8
330
2E9
330
2EA
330
2EB
330
2EC
330
2ED
330
2EE
330
2EF
330
2F0
330
2F1
330
2F2
330
2F3
330
2F4
330
2F5
330
2F6
330
2F7
330
2F8
330
2F9
330
2FA
330
2FB
330
2FC
330
2FD
330
2FE
330
2FF
330
300
330
301
330
302
330
303
330
304
330
305
330
306
330
307
330
308
330
309
330
30A
330
30B
330
30C
330
30D
330
30E
330
30F
330
310
330
311
330
312
330
313
330
314
330
315
330
316
330
317
330
318
330
319
330
31A
330
31B
330
31C
330
31D
330
31E
330
31F
330
320
330
321
330
322
330
323
330
324
330
325
330
326
330
327
330
328
330
329
330
32A
330
32B
330
32C
330
32D
330
32E
330
32F
330
330
330
331
330
332
330
333
330
334
330
335
330
336
330
337
330
338
330
339
330
33A
330
33B
330
33C
330
33D
330
33E
330
33F
330
340
330
341
330
342
330
343
330
344
330
345
330
346
330
347
330
348
330
349
330
34A
330
34B
330
34C
330
34D
330
34E
330
34F
330
350
330
351
330
352
330
353
330
354
330
355
330
356
330
357
330
358
330
359
330
35A
330
35B
330
35C
330
35D
330
35E
330
35F
330
360
330
361
330
362
330
363
330
364
330
365
330
366
330
367
330
368
330
369
330
36A
330
36B
330
36C
330
36D
330
36E
330
36F
330
370
330
371
330
372
330
373
330
374
330
375
330
376
330
377
330
378
330
379
330
37A
330
37B
330
37C
330
37D
330
37E
330
37F
330
380
330
381
330
382
330
383
330
384
330
385
330
386
330
387
330
388
330
389
330
38A
330
38B
330
38C
330
38D
330
38E
330
38F
330
390
330
391
330
392
330
393
330
394
330
395
330
396
330
397
330
398
330
399
330
39A
330
39B
330
39C
330
39D
330
39E
330
39F
330
3A0
330
3A1
330
3A2
330
3A3
330
3A4
330
3A5
330
3A6
330
3A7
330
3A8
330
3A9
330
3AA
330
3AB
330
3AC
330
3AD
330
3AE
330
3AF
330
3B0
330
3B1
330
3B2
330
3B3
330
3B4
330
3B5
330
3B6
330
3B7
330
3B8
330
3B9
330
3BA
330
3BB
330
3BC
330
3BD
330
3BE
330
3BF
330
3C0
330
3C1
330
3C2
330
3C3
330
3C4
330
3C5
330
3C6
330
3C7
330
3C8
330
3C9
330
3CA
330
3CB
330
3CC
330
3CD
330
3CE
330
3CF
330
3D0
330
3D1
330
3D2
330
3D3
330
3D4
330
3D5
330
3D6
330
3D7
330
3D8
330
3D9
330
3DA
330
3DB
330
3DC
330
3DD
330
3DE
330
3DF
330
3E0
330
3E1
330
3E2
330
3E3
330
3E4
330
3E5
330
3E6
330
3E7
330
3E8
330
3E9
330
3EA
330
3EB
330
3EC
330
3ED
330
3EE
330
3EF
330
3F0
 92
1
 93
23
 72
2
 10
17.0481152095
 20
2.4027328529
 40
0.048483885
 50
273.21763719
 51
303.0749121182
 73
1
 72
2
 10
17.0629546036
 20
2.379965244
 40
0.0213072145
 50
303.0488228549
 51
355.7263138674
 73
1
 72
2
 10
17.0688911042
 20
2.3799744343
 40
0.0153945295
 50
354.0454548824
 51
5.1878013979
 73
1
 72
2
 10
17.0620614151
 20
2.3797859164
 40
0.0222174455
 50
4.0793399388
 51
69.834329283
 73
1
 72
1
 10
17.0697205646
 20
2.4006414268
 11
17.059669559
 21
2.4041904287
 72
1
 10
17.059669559
 20
2.4041904287
 11
17.0679095636
 21
2.4089664314
 72
2
 10
17.0460441811
 20
2.445793323
 40
0.0428289026
 50
300.6990502959
 51
319.0591802498
 73
1
 72
2
 10
17.0660727781
 20
2.4296649696
 40
0.0171568255
 50
315.9145124245
 51
16.0049121283
 73
1
 72
2
 10
17.0611211659
 20
2.4263113051
 40
0.0229166529
 50
20.6563876465
 51
62.3316896973
 73
1
 72
2
 10
17.0404590422
 20
2.3933827403
 40
0.061747717
 50
59.5385584989
 51
90.0050977555
 73
1
 72
1
 10
17.0404535484
 20
2.455130457
 11
16.8743904563
 21
2.455130457
 72
2
 10
16.8743904545
 20
2.4526554575
 40
0.0024749995
 50
89.9999571958
 51
180.0000428043
 73
1
 72
1
 10
16.8719154549
 20
2.4526554556
 11
16.8719154549
 21
2.4328554446
 72
2
 10
16.8743904545
 20
2.4328554428
 40
0.0024749995
 50
179.9999571957
 51
270.0000428043
 73
1
 72
1
 10
16.8743904563
 20
2.4303804433
 11
16.8983324696
 21
2.4303804433
 72
2
 10
16.8983324714
 20
2.4279054437
 40
0.0024749995
 50
359.9999571957
 51
90.0000428043
 73
1
 72
1
 10
16.9008074709
 20
2.4279054419
 11
16.9008074709
 21
2.3815504162
 72
2
 10
16.8983324714
 20
2.3815504143
 40
0.0024749995
 50
269.9999571958
 51
0.0000428043
 73
1
 72
1
 10
16.8983324696
 20
2.3790754148
 11
16.8743904563
 21
2.3790754148
 72
2
 10
16.8743904545
 20
2.3766004153
 40
0.0024749995
 50
89.9999571958
 51
180.0000428043
 73
1
 72
1
 10
16.8719154549
 20
2.3766004134
 11
16.8719154549
 21
2.3568004025
 72
2
 10
16.8743904545
 20
2.3568004006
 40
0.0024749995
 50
179.9999571957
 51
270.0000428042
 73
1
 72
1
 10
16.8743904563
 20
2.3543254011
 11
17.0508365542
 21
2.3543254011
 97
267
330
2E6
330
2E7
330
2E8
330
2E9
330
2EA
330
2EB
330
2EC
330
2ED
330
2EE
330
2EF
330
2F0
330
2F1
330
2F2
330
2F3
330
2F4
330
2F5
330
2F6
330
2F7
330
2F8
330
2F9
330
2FA
330
2FB
330
2FC
330
2FD
330
2FE
330
2FF
330
300
330
301
330
302
330
303
330
304
330
305
330
306
330
307
330
308
330
309
330
30A
330
30B
330
30C
330
30D
330
30E
330
30F
330
310
330
311
330
312
330
313
330
314
330
315
330
316
330
317
330
318
330
319
330
31A
330
31B
330
31C
330
31D
330
31E
330
31F
330
320
330
321
330
322
330
323
330
324
330
325
330
326
330
327
330
328
330
329
330
32A
330
32B
330
32C
330
32D
330
32E
330
32F
330
330
330
331
330
332
330
333
330
334
330
335
330
336
330
337
330
338
330
339
330
33A
330
33B
330
33C
330
33D
330
33E
330
33F
330
340
330
341
330
342
330
343
330
344
330
345
330
346
330
347
330
348
330
349
330
34A
330
34B
330
34C
330
34D
330
34E
330
34F
330
350
330
351
330
352
330
353
330
354
330
355
330
356
330
357
330
358
330
359
330
35A
330
35B
330
35C
330
35D
330
35E
330
35F
330
360
330
361
330
362
330
363
330
364
330
365
330
366
330
367
330
368
330
369
330
36A
330
36B
330
36C
330
36D
330
36E
330
36F
330
370
330
371
330
372
330
373
330
374
330
375
330
376
330
377
330
378
330
379
330
37A
330
37B
330
37C
330
37D
330
37E
330
37F
330
380
330
381
330
382
330
383
330
384
330
385
330
386
330
387
330
388
330
389
330
38A
330
38B
330
38C
330
38D
330
38E
330
38F
330
390
330
391
330
392
330
393
330
394
330
395
330
396
330
397
330
398
330
399
330
39A
330
39B
330
39C
330
39D
330
39E
330
39F
330
3A0
330
3A1
330
3A2
330
3A3
330
3A4
330
3A5
330
3A6
330
3A7
330
3A8
330
3A9
330
3AA
330
3AB
330
3AC
330
3AD
330
3AE
330
3AF
330
3B0
330
3B1
330
3B2
330
3B3
330
3B4
330
3B5
330
3B6
330
3B7
330
3B8
330
3B9
330
3BA
330
3BB
330
3BC
330
3BD
330
3BE
330
3BF
330
3C0
330
3C1
330
3C2
330
3C3
330
3C4
330
3C5
330
3C6
330
3C7
330
3C8
330
3C9
330
3CA
330
3CB
330
3CC
330
3CD
330
3CE
330
3CF
330
3D0
330
3D1
330
3D2
330
3D3
330
3D4
330
3D5
330
3D6
330
3D7
330
3D8
330
3D9
330
3DA
330
3DB
330
3DC
330
3DD
330
3DE
330
3DF
330
3E0
330
3E1
330
3E2
330
3E3
330
3E4
330
3E5
330
3E6
330
3E7
330
3E8
330
3E9
330
3EA
330
3EB
330
3EC
330
3ED
330
3EE
330
3EF
330
3F0
 92
1
 93
32
 72
2
 10
17.1857496308
 20
2.3568004006
 40
0.0024749995
 50
269.9999571958
 51
0.0000428044
 73
1
 72
1
 10
17.1882246303
 20
2.3568004025
 11
17.1882246303
 21
2.3766004134
 72
2
 10
17.1857496308
 20
2.3766004153
 40
0.0024749995
 50
359.9999571957
 51
90.0000428043
 73
1
 72
1
 10
17.185749629
 20
2.3790754148
 11
17.1744666227
 21
2.3790754148
 72
2
 10
17.1744665134
 20
2.3815504549
 40
0.0024750401
 50
147.6063258011
 51
270.0025305754
 73
1
 72
1
 10
17.1723766216
 20
2.3828764169
 11
17.1778926246
 21
2.3915704217
 72
2
 10
17.1799825555
 20
2.3902442221
 40
0.0024752003
 50
89.998372645
 51
147.602165307
 73
1
 72
1
 10
17.1799826258
 20
2.3927194224
 11
17.2148606451
 21
2.3927194224
 72
2
 10
17.2148601055
 20
2.3902439622
 40
0.0024754602
 50
32.8959418574
 51
89.9875097202
 73
1
 72
1
 10
17.2169386463
 20
2.3915884218
 11
17.2225646494
 21
2.3828954169
 72
2
 10
17.2204866271
 20
2.3815506219
 40
0.0024752071
 50
270.0004896793
 51
32.9089806818
 73
1
 72
1
 10
17.2204866482
 20
2.3790754148
 11
17.2060356402
 21
2.3790754148
 72
2
 10
17.2060356384
 20
2.3766004153
 40
0.0024749995
 50
89.9999571958
 51
180.0000428043
 73
1
 72
1
 10
17.2035606388
 20
2.3766004134
 11
17.2035606388
 21
2.3568004025
 72
2
 10
17.2060356384
 20
2.3568004006
 40
0.0024749995
 50
179.9999571957
 51
270.0000428042
 73
1
 72
1
 10
17.2060356402
 20
2.3543254011
 11
17.3113166986
 21
2.3543254011
 72
2
 10
17.3113167005
 20
2.3568004006
 40
0.0024749995
 50
269.9999571957
 51
0.0000428043
 73
1
 72
1
 10
17.3137917
 20
2.3568004025
 11
17.3137917
 21
2.3766004134
 72
2
 10
17.3113167005
 20
2.3766004153
 40
0.0024749995
 50
359.9999571957
 51
90.0000428043
 73
1
 72
1
 10
17.3113166986
 20
2.3790754148
 11
17.2913006875
 21
2.3790754148
 72
2
 10
17.291300808
 20
2.3815494558
 40
0.002474041
 50
212.9056413127
 51
269.9972091756
 73
1
 72
1
 10
17.2892236864
 20
2.3802054154
 11
17.2414676599
 21
2.4540004564
 72
2
 10
17.2393900382
 20
2.4526554968
 40
0.0024749602
 50
32.9172174468
 51
90.0087853096
 73
1
 72
1
 10
17.2393896587
 20
2.455130457
 11
17.182214627
 21
2.455130457
 72
2
 10
17.1822145567
 20
2.4526552567
 40
0.0024752003
 50
89.998372645
 51
147.602165307
 73
1
 72
1
 10
17.1801246258
 20
2.4539814564
 11
17.1333245999
 21
2.3802244155
 72
2
 10
17.131234669
 20
2.3815506151
 40
0.0024752003
 50
269.998372645
 51
327.602165307
 73
1
 72
1
 10
17.1312345987
 20
2.3790754148
 11
17.1083735861
 21
2.3790754148
 72
2
 10
17.1083735842
 20
2.3766004153
 40
0.0024749995
 50
89.9999571957
 51
180.0000428043
 73
1
 72
1
 10
17.1058985847
 20
2.3766004134
 11
17.1058985847
 21
2.3568004025
 72
2
 10
17.1083735842
 20
2.3568004006
 40
0.0024749995
 50
179.9999571957
 51
270.0000428043
 73
1
 72
1
 10
17.1083735861
 20
2.3543254011
 11
17.185749629
 21
2.3543254011
 97
267
330
2E6
330
2E7
330
2E8
330
2E9
330
2EA
330
2EB
330
2EC
330
2ED
330
2EE
330
2EF
330
2F0
330
2F1
330
2F2
330
2F3
330
2F4
330
2F5
330
2F6
330
2F7
330
2F8
330
2F9
330
2FA
330
2FB
330
2FC
330
2FD
330
2FE
330
2FF
330
300
330
301
330
302
330
303
330
304
330
305
330
306
330
307
330
308
330
309
330
30A
330
30B
330
30C
330
30D
330
30E
330
30F
330
310
330
311
330
312
330
313
330
314
330
315
330
316
330
317
330
318
330
319
330
31A
330
31B
330
31C
330
31D
330
31E
330
31F
330
320
330
321
330
322
330
323
330
324
330
325
330
326
330
327
330
328
330
329
330
32A
330
32B
330
32C
330
32D
330
32E
330
32F
330
330
330
331
330
332
330
333
330
334
330
335
330
336
330
337
330
338
330
339
330
33A
330
33B
330
33C
330
33D
330
33E
330
33F
330
340
330
341
330
342
330
343
330
344
330
345
330
346
330
347
330
348
330
349
330
34A
330
34B
330
34C
330
34D
330
34E
330
34F
330
350
330
351
330
352
330
353
330
354
330
355
330
356
330
357
330
358
330
359
330
35A
330
35B
330
35C
330
35D
330
35E
330
35F
330
360
330
361
330
362
330
363
330
364
330
365
330
366
330
367
330
368
330
369
330
36A
330
36B
330
36C
330
36D
330
36E
330
36F
330
370
330
371
330
372
330
373
330
374
330
375
330
376
330
377
330
378
330
379
330
37A
330
37B
330
37C
330
37D
330
37E
330
37F
330
380
330
381
330
382
330
383
330
384
330
385
330
386
330
387
330
388
330
389
330
38A
330
38B
330
38C
330
38D
330
38E
330
38F
330
390
330
391
330
392
330
393
330
394
330
395
330
396
330
397
330
398
330
399
330
39A
330
39B
330
39C
330
39D
330
39E
330
39F
330
3A0
330
3A1
330
3A2
330
3A3
330
3A4
330
3A5
330
3A6
330
3A7
330
3A8
330
3A9
330
3AA
330
3AB
330
3AC
330
3AD
330
3AE
330
3AF
330
3B0
330
3B1
330
3B2
330
3B3
330
3B4
330
3B5
330
3B6
330
3B7
330
3B8
330
3B9
330
3BA
330
3BB
330
3BC
330
3BD
330
3BE
330
3BF
330
3C0
330
3C1
330
3C2
330
3C3
330
3C4
330
3C5
330
3C6
330
3C7
330
3C8
330
3C9
330
3CA
330
3CB
330
3CC
330
3CD
330
3CE
330
3CF
330
3D0
330
3D1
330
3D2
330
3D3
330
3D4
330
3D5
330
3D6
330
3D7
330
3D8
330
3D9
330
3DA
330
3DB
330
3DC
330
3DD
330
3DE
330
3DF
330
3E0
330
3E1
330
3E2
330
3E3
330
3E4
330
3E5
330
3E6
330
3E7
330
3E8
330
3E9
330
3EA
330
3EB
330
3EC
330
3ED
330
3EE
330
3EF
330
3F0
 92
1
 93
6
 72
2
 10
16.963795504
 20
2.3815504143
 40
0.0024749995
 50
179.9999571957
 51
270.0000428043
 73
1
 72
1
 10
16.9613205045
 20
2.3815504162
 11
16.9613205045
 21
2.3939254231
 72
2
 10
16.963795504
 20
2.3939254249
 40
0.0024749995
 50
89.9999571957
 51
180.0000428043
 73
1
 72
1
 10
16.9637955059
 20
2.3964004244
 11
17.0051585288
 21
2.3964004244
 72
2
 10
17.0051585288
 20
2.3877379196
 40
0.0086625048
 50
270.0
 51
90.0
 73
1
 72
1
 10
17.0051585288
 20
2.3790754148
 11
16.9637955059
 21
2.3790754148
 97
267
330
2E6
330
2E7
330
2E8
330
2E9
330
2EA
330
2EB
330
2EC
330
2ED
330
2EE
330
2EF
330
2F0
330
2F1
330
2F2
330
2F3
330
2F4
330
2F5
330
2F6
330
2F7
330
2F8
330
2F9
330
2FA
330
2FB
330
2FC
330
2FD
330
2FE
330
2FF
330
300
330
301
330
302
330
303
330
304
330
305
330
306
330
307
330
308
330
309
330
30A
330
30B
330
30C
330
30D
330
30E
330
30F
330
310
330
311
330
312
330
313
330
314
330
315
330
316
330
317
330
318
330
319
330
31A
330
31B
330
31C
330
31D
330
31E
330
31F
330
320
330
321
330
322
330
323
330
324
330
325
330
326
330
327
330
328
330
329
330
32A
330
32B
330
32C
330
32D
330
32E
330
32F
330
330
330
331
330
332
330
333
330
334
330
335
330
336
330
337
330
338
330
339
330
33A
330
33B
330
33C
330
33D
330
33E
330
33F
330
340
330
341
330
342
330
343
330
344
330
345
330
346
330
347
330
348
330
349
330
34A
330
34B
330
34C
330
34D
330
34E
330
34F
330
350
330
351
330
352
330
353
330
354
330
355
330
356
330
357
330
358
330
359
330
35A
330
35B
330
35C
330
35D
330
35E
330
35F
330
360
330
361
330
362
330
363
330
364
330
365
330
366
330
367
330
368
330
369
330
36A
330
36B
330
36C
330
36D
330
36E
330
36F
330
370
330
371
330
372
330
373
330
374
330
375
330
376
330
377
330
378
330
379
330
37A
330
37B
330
37C
330
37D
330
37E
330
37F
330
380
330
381
330
382
330
383
330
384
330
385
330
386
330
387
330
388
330
389
330
38A
330
38B
330
38C
330
38D
330
38E
330
38F
330
390
330
391
330
392
330
393
330
394
330
395
330
396
330
397
330
398
330
399
330
39A
330
39B
330
39C
330
39D
330
39E
330
39F
330
3A0
330
3A1
330
3A2
330
3A3
330
3A4
330
3A5
330
3A6
330
3A7
330
3A8
330
3A9
330
3AA
330
3AB
330
3AC
330
3AD
330
3AE
330
3AF
330
3B0
330
3B1
330
3B2
330
3B3
330
3B4
330
3B5
330
3B6
330
3B7
330
3B8
330
3B9
330
3BA
330
3BB
330
3BC
330
3BD
330
3BE
330
3BF
330
3C0
330
3C1
330
3C2
330
3C3
330
3C4
330
3C5
330
3C6
330
3C7
330
3C8
330
3C9
330
3CA
330
3CB
330
3CC
330
3CD
330
3CE
330
3CF
330
3D0
330
3D1
330
3D2
330
3D3
330
3D4
330
3D5
330
3D6
330
3D7
330
3D8
330
3D9
330
3DA
330
3DB
330
3DC
330
3DD
330
3DE
330
3DF
330
3E0
330
3E1
330
3E2
330
3E3
330
3E4
330
3E5
330
3E6
330
3E7
330
3E8
330
3E9
330
3EA
330
3EB
330
3EC
330
3ED
330
3EE
330
3EF
330
3F0
 92
1
 93
13
 72
2
 10
18.1572301659
 20
2.415180433
 40
0.0024749995
 50
179.9999571957
 51
270.0000428043
 73
1
 72
1
 10
18.1547551663
 20
2.4151804348
 11
18.1547551663
 21
2.4279054419
 72
2
 10
18.1572301659
 20
2.4279054437
 40
0.0024749995
 50
89.9999571957
 51
180.0000428043
 73
1
 72
1
 10
18.1572301677
 20
2.4303804433
 11
18.1940311881
 21
2.4303804433
 72
2
 10
18.1924863006
 20
2.4019259643
 40
0.0284963867
 50
70.3834917948
 51
86.8922743861
 73
1
 72
2
 10
18.1973459106
 20
2.4149676972
 40
0.0145814632
 50
54.6746025112
 51
71.1660573124
 73
1
 72
2
 10
18.2024754016
 20
2.4218216224
 40
0.0060275915
 50
20.9055592135
 51
56.7851676243
 73
1
 72
2
 10
18.2037759605
 20
2.4224819047
 40
0.0045795888
 50
355.6235353944
 51
18.9942678268
 73
1
 72
2
 10
18.2025691502
 20
2.4227756809
 40
0.0058087709
 50
318.8515287446
 51
353.6422345323
 73
1
 72
2
 10
18.198398534
 20
2.4260095887
 40
0.0110815393
 50
306.758405961
 51
320.4502234234
 73
1
 72
2
 10
18.1927693431
 20
2.4337504172
 40
0.0206523367
 50
289.6883413472
 51
306.4184925496
 73
1
 72
2
 10
18.1908418374
 20
2.4381440645
 40
0.0254407115
 50
270.7327484175
 51
290.441894219
 73
1
 72
1
 10
18.1911671865
 20
2.4127054335
 11
18.1572301677
 21
2.4127054335
 97
267
330
2E6
330
2E7
330
2E8
330
2E9
330
2EA
330
2EB
330
2EC
330
2ED
330
2EE
330
2EF
330
2F0
330
2F1
330
2F2
330
2F3
330
2F4
330
2F5
330
2F6
330
2F7
330
2F8
330
2F9
330
2FA
330
2FB
330
2FC
330
2FD
330
2FE
330
2FF
330
300
330
301
330
302
330
303
330
304
330
305
330
306
330
307
330
308
330
309
330
30A
330
30B
330
30C
330
30D
330
30E
330
30F
330
310
330
311
330
312
330
313
330
314
330
315
330
316
330
317
330
318
330
319
330
31A
330
31B
330
31C
330
31D
330
31E
330
31F
330
320
330
321
330
322
330
323
330
324
330
325
330
326
330
327
330
328
330
329
330
32A
330
32B
330
32C
330
32D
330
32E
330
32F
330
330
330
331
330
332
330
333
330
334
330
335
330
336
330
337
330
338
330
339
330
33A
330
33B
330
33C
330
33D
330
33E
330
33F
330
340
330
341
330
342
330
343
330
344
330
345
330
346
330
347
330
348
330
349
330
34A
330
34B
330
34C
330
34D
330
34E
330
34F
330
350
330
351
330
352
330
353
330
354
330
355
330
356
330
357
330
358
330
359
330
35A
330
35B
330
35C
330
35D
330
35E
330
35F
330
360
330
361
330
362
330
363
330
364
330
365
330
366
330
367
330
368
330
369
330
36A
330
36B
330
36C
330
36D
330
36E
330
36F
330
370
330
371
330
372
330
373
330
374
330
375
330
376
330
377
330
378
330
379
330
37A
330
37B
330
37C
330
37D
330
37E
330
37F
330
380
330
381
330
382
330
383
330
384
330
385
330
386
330
387
330
388
330
389
330
38A
330
38B
330
38C
330
38D
330
38E
330
38F
330
390
330
391
330
392
330
393
330
394
330
395
330
396
330
397
330
398
330
399
330
39A
330
39B
330
39C
330
39D
330
39E
330
39F
330
3A0
330
3A1
330
3A2
330
3A3
330
3A4
330
3A5
330
3A6
330
3A7
330
3A8
330
3A9
330
3AA
330
3AB
330
3AC
330
3AD
330
3AE
330
3AF
330
3B0
330
3B1
330
3B2
330
3B3
330
3B4
330
3B5
330
3B6
330
3B7
330
3B8
330
3B9
330
3BA
330
3BB
330
3BC
330
3BD
330
3BE
330
3BF
330
3C0
330
3C1
330
3C2
330
3C3
330
3C4
330
3C5
330
3C6
330
3C7
330
3C8
330
3C9
330
3CA
330
3CB
330
3CC
330
3CD
330
3CE
330
3CF
330
3D0
330
3D1
330
3D2
330
3D3
330
3D4
330
3D5
330
3D6
330
3D7
330
3D8
330
3D9
330
3DA
330
3DB
330
3DC
330
3DD
330
3DE
330
3DF
330
3E0
330
3E1
330
3E2
330
3E3
330
3E4
330
3E5
330
3E6
330
3E7
330
3E8
330
3E9
330
3EA
330
3EB
330
3EC
330
3ED
330
3EE
330
3EF
330
3F0
 92
1
 93
6
 72
2
 10
17.0051585288
 20
2.4217179385
 40
0.0086625048
 50
270.0
 51
90.0
 73
1
 72
1
 10
17.0051585288
 20
2.4303804433
 11
16.9637955059
 21
2.4303804433
 72
2
 10
16.963795504
 20
2.4279054437
 40
0.0024749995
 50
89.9999571957
 51
180.0000428043
 73
1
 72
1
 10
16.9613205045
 20
2.4279054419
 11
16.9613205045
 21
2.415530435
 72
2
 10
16.963795504
 20
2.4155304332
 40
0.0024749995
 50
179.9999571957
 51
270.0000428043
 73
1
 72
1
 10
16.9637955059
 20
2.4130554337
 11
17.0051585288
 21
2.4130554337
 97
267
330
2E6
330
2E7
330
2E8
330
2E9
330
2EA
330
2EB
330
2EC
330
2ED
330
2EE
330
2EF
330
2F0
330
2F1
330
2F2
330
2F3
330
2F4
330
2F5
330
2F6
330
2F7
330
2F8
330
2F9
330
2FA
330
2FB
330
2FC
330
2FD
330
2FE
330
2FF
330
300
330
301
330
302
330
303
330
304
330
305
330
306
330
307
330
308
330
309
330
30A
330
30B
330
30C
330
30D
330
30E
330
30F
330
310
330
311
330
312
330
313
330
314
330
315
330
316
330
317
330
318
330
319
330
31A
330
31B
330
31C
330
31D
330
31E
330
31F
330
320
330
321
330
322
330
323
330
324
330
325
330
326
330
327
330
328
330
329
330
32A
330
32B
330
32C
330
32D
330
32E
330
32F
330
330
330
331
330
332
330
333
330
334
330
335
330
336
330
337
330
338
330
339
330
33A
330
33B
330
33C
330
33D
330
33E
330
33F
330
340
330
341
330
342
330
343
330
344
330
345
330
346
330
347
330
348
330
349
330
34A
330
34B
330
34C
330
34D
330
34E
330
34F
330
350
330
351
330
352
330
353
330
354
330
355
330
356
330
357
330
358
330
359
330
35A
330
35B
330
35C
330
35D
330
35E
330
35F
330
360
330
361
330
362
330
363
330
364
330
365
330
366
330
367
330
368
330
369
330
36A
330
36B
330
36C
330
36D
330
36E
330
36F
330
370
330
371
330
372
330
373
330
374
330
375
330
376
330
377
330
378
330
379
330
37A
330
37B
330
37C
330
37D
330
37E
330
37F
330
380
330
381
330
382
330
383
330
384
330
385
330
386
330
387
330
388
330
389
330
38A
330
38B
330
38C
330
38D
330
38E
330
38F
330
390
330
391
330
392
330
393
330
394
330
395
330
396
330
397
330
398
330
399
330
39A
330
39B
330
39C
330
39D
330
39E
330
39F
330
3A0
330
3A1
330
3A2
330
3A3
330
3A4
330
3A5
330
3A6
330
3A7
330
3A8
330
3A9
330
3AA
330
3AB
330
3AC
330
3AD
330
3AE
330
3AF
330
3B0
330
3B1
330
3B2
330
3B3
330
3B4
330
3B5
330
3B6
330
3B7
330
3B8
330
3B9
330
3BA
330
3BB
330
3BC
330
3BD
330
3BE
330
3BF
330
3C0
330
3C1
330
3C2
330
3C3
330
3C4
330
3C5
330
3C6
330
3C7
330
3C8
330
3C9
330
3CA
330
3CB
330
3CC
330
3CD
330
3CE
330
3CF
330
3D0
330
3D1
330
3D2
330
3D3
330
3D4
330
3D5
330
3D6
330
3D7
330
3D8
330
3D9
330
3DA
330
3DB
330
3DC
330
3DD
330
3DE
330
3DF
330
3E0
330
3E1
330
3E2
330
3E3
330
3E4
330
3E5
330
3E6
330
3E7
330
3E8
330
3E9
330
3EA
330
3EB
330
3EC
330
3ED
330
3EE
330
3EF
330
3F0
 92
1
 93
8
 72
2
 10
17.2090556207
 20
2.4161446411
 40
0.0024752071
 50
270.0004896793
 51
32.9089806818
 73
1
 72
1
 10
17.211133643
 20
2.4174894361
 11
17.203874639
 21
2.4287054423
 72
2
 10
17.2017960982
 20
2.4273609828
 40
0.0024754602
 50
32.8959418573
 51
89.9875097202
 73
1
 72
1
 10
17.2017966379
 20
2.429836443
 11
17.1956156344
 21
2.429836443
 72
2
 10
17.1956155641
 20
2.4273612427
 40
0.0024752003
 50
89.998372645
 51
147.6021653069
 73
1
 72
1
 10
17.1935256333
 20
2.4286874423
 11
17.1864086293
 21
2.4174704361
 72
2
 10
17.1884985212
 20
2.4161444741
 40
0.0024750401
 50
147.6063258012
 51
270.0025305753
 73
1
 72
1
 10
17.1884986305
 20
2.413669434
 11
17.2090556419
 21
2.413669434
 97
267
330
2E6
330
2E7
330
2E8
330
2E9
330
2EA
330
2EB
330
2EC
330
2ED
330
2EE
330
2EF
330
2F0
330
2F1
330
2F2
330
2F3
330
2F4
330
2F5
330
2F6
330
2F7
330
2F8
330
2F9
330
2FA
330
2FB
330
2FC
330
2FD
330
2FE
330
2FF
330
300
330
301
330
302
330
303
330
304
330
305
330
306
330
307
330
308
330
309
330
30A
330
30B
330
30C
330
30D
330
30E
330
30F
330
310
330
311
330
312
330
313
330
314
330
315
330
316
330
317
330
318
330
319
330
31A
330
31B
330
31C
330
31D
330
31E
330
31F
330
320
330
321
330
322
330
323
330
324
330
325
330
326
330
327
330
328
330
329
330
32A
330
32B
330
32C
330
32D
330
32E
330
32F
330
330
330
331
330
332
330
333
330
334
330
335
330
336
330
337
330
338
330
339
330
33A
330
33B
330
33C
330
33D
330
33E
330
33F
330
340
330
341
330
342
330
343
330
344
330
345
330
346
330
347
330
348
330
349
330
34A
330
34B
330
34C
330
34D
330
34E
330
34F
330
350
330
351
330
352
330
353
330
354
330
355
330
356
330
357
330
358
330
359
330
35A
330
35B
330
35C
330
35D
330
35E
330
35F
330
360
330
361
330
362
330
363
330
364
330
365
330
366
330
367
330
368
330
369
330
36A
330
36B
330
36C
330
36D
330
36E
330
36F
330
370
330
371
330
372
330
373
330
374
330
375
330
376
330
377
330
378
330
379
330
37A
330
37B
330
37C
330
37D
330
37E
330
37F
330
380
330
381
330
382
330
383
330
384
330
385
330
386
330
387
330
388
330
389
330
38A
330
38B
330
38C
330
38D
330
38E
330
38F
330
390
330
391
330
392
330
393
330
394
330
395
330
396
330
397
330
398
330
399
330
39A
330
39B
330
39C
330
39D
330
39E
330
39F
330
3A0
330
3A1
330
3A2
330
3A3
330
3A4
330
3A5
330
3A6
330
3A7
330
3A8
330
3A9
330
3AA
330
3AB
330
3AC
330
3AD
330
3AE
330
3AF
330
3B0
330
3B1
330
3B2
330
3B3
330
3B4
330
3B5
330
3B6
330
3B7
330
3B8
330
3B9
330
3BA
330
3BB
330
3BC
330
3BD
330
3BE
330
3BF
330
3C0
330
3C1
330
3C2
330
3C3
330
3C4
330
3C5
330
3C6
330
3C7
330
3C8
330
3C9
330
3CA
330
3CB
330
3CC
330
3CD
330
3CE
330
3CF
330
3D0
330
3D1
330
3D2
330
3D3
330
3D4
330
3D5
330
3D6
330
3D7
330
3D8
330
3D9
330
3DA
330
3DB
330
3DC
330
3DD
330
3DE
330
3DF
330
3E0
330
3E1
330
3E2
330
3E3
330
3E4
330
3E5
330
3E6
330
3E7
330
3E8
330
3E9
330
3EA
330
3EB
330
3EC
330
3ED
330
3EE
330
3EF
330
3F0
 92
1
 93
1
 72
3
 10
17.573550844
 20
2.4034764283
 11
-0.8250004575
 21
0.0
 40
0.218572
 50
0.0
 51
360.0
 73
1
 97
267
330
2E6
330
2E7
330
2E8
330
2E9
330
2EA
330
2EB
330
2EC
330
2ED
330
2EE
330
2EF
330
2F0
330
2F1
330
2F2
330
2F3
330
2F4
330
2F5
330
2F6
330
2F7
330
2F8
330
2F9
330
2FA
330
2FB
330
2FC
330
2FD
330
2FE
330
2FF
330
300
330
301
330
302
330
303
330
304
330
305
330
306
330
307
330
308
330
309
330
30A
330
30B
330
30C
330
30D
330
30E
330
30F
330
310
330
311
330
312
330
313
330
314
330
315
330
316
330
317
330
318
330
319
330
31A
330
31B
330
31C
330
31D
330
31E
330
31F
330
320
330
321
330
322
330
323
330
324
330
325
330
326
330
327
330
328
330
329
330
32A
330
32B
330
32C
330
32D
330
32E
330
32F
330
330
330
331
330
332
330
333
330
334
330
335
330
336
330
337
330
338
330
339
330
33A
330
33B
330
33C
330
33D
330
33E
330
33F
330
340
330
341
330
342
330
343
330
344
330
345
330
346
330
347
330
348
330
349
330
34A
330
34B
330
34C
330
34D
330
34E
330
34F
330
350
330
351
330
352
330
353
330
354
330
355
330
356
330
357
330
358
330
359
330
35A
330
35B
330
35C
330
35D
330
35E
330
35F
330
360
330
361
330
362
330
363
330
364
330
365
330
366
330
367
330
368
330
369
330
36A
330
36B
330
36C
330
36D
330
36E
330
36F
330
370
330
371
330
372
330
373
330
374
330
375
330
376
330
377
330
378
330
379
330
37A
330
37B
330
37C
330
37D
330
37E
330
37F
330
380
330
381
330
382
330
383
330
384
330
385
330
386
330
387
330
388
330
389
330
38A
330
38B
330
38C
330
38D
330
38E
330
38F
330
390
330
391
330
392
330
393
330
394
330
395
330
396
330
397
330
398
330
399
330
39A
330
39B
330
39C
330
39D
330
39E
330
39F
330
3A0
330
3A1
330
3A2
330
3A3
330
3A4
330
3A5
330
3A6
330
3A7
330
3A8
330
3A9
330
3AA
330
3AB
330
3AC
330
3AD
330
3AE
330
3AF
330
3B0
330
3B1
330
3B2
330
3B3
330
3B4
330
3B5
330
3B6
330
3B7
330
3B8
330
3B9
330
3BA
330
3BB
330
3BC
330
3BD
330
3BE
330
3BF
330
3C0
330
3C1
330
3C2
330
3C3
330
3C4
330
3C5
330
3C6
330
3C7
330
3C8
330
3C9
330
3CA
330
3CB
330
3CC
330
3CD
330
3CE
330
3CF
330
3D0
330
3D1
330
3D2
330
3D3
330
3D4
330
3D5
330
3D6
330
3D7
330
3D8
330
3D9
330
3DA
330
3DB
330
3DC
330
3DD
330
3DE
330
3DF
330
3E0
330
3E1
330
3E2
330
3E3
330
3E4
330
3E5
330
3E6
330
3E7
330
3E8
330
3E9
330
3EA
330
3EB
330
3EC
330
3ED
330
3EE
330
3EF
330
3F0
 75
0
 76
1
 98
1
 10
0.0
 20
0.0
  0
LINE
  5
3F2
100
AcDbEntity
  8
0
100
AcDbLine
 62
7
  6
CONTINUOUS
 10
21.05
 20
2.67
 11
14.7
 21
2.67
  0
LINE
  5
3F3
100
AcDbEntity
  8
0
100
AcDbLine
 62
7
  6
CONTINUOUS
 10
6.007
 20
0.75
 11
6.007
 21
0.5
  0
LINE
  5
3F4
100
AcDbEntity
  8
0
100
AcDbLine
 62
7
  6
CONTINUOUS
 10
6.007
 20
15.75
 11
6.007
 21
16.0
  0
LINE
  5
3F5
100
AcDbEntity
  8
0
100
AcDbLine
 62
7
  6
CONTINUOUS
 10
0.814
 20
8.163397
 11
0.964
 21
8.25
  0
LINE
  5
3F6
100
AcDbEntity
  8
0
100
AcDbLine
 62
7
  6
CONTINUOUS
 10
0.964
 20
8.25
 11
0.814
 21
8.336603
  0
LINE
  5
3F7
100
AcDbEntity
  8
0
100
AcDbLine
 62
7
  6
CONTINUOUS
 10
0.964
 20
4.4
 11
0.714
 21
4.4
  0
LINE
  5
3F8
100
AcDbEntity
  8
0
100
AcDbLine
 62
7
  6
CONTINUOUS
 10
21.05
 20
4.4
 11
21.3
 21
4.4
  0
LINE
  5
3F9
100
AcDbEntity
  8
0
100
AcDbLine
 62
7
  6
CONTINUOUS
 10
11.093603
 20
0.6
 11
11.007
 21
0.75
  0
LINE
  5
3FA
100
AcDbEntity
  8
0
100
AcDbLine
 62
7
  6
CONTINUOUS
 10
11.007
 20
15.75
 11
11.093603
 21
15.9
  0
LINE
  5
3FB
100
AcDbEntity
  8
0
100
AcDbLine
 62
7
  6
CONTINUOUS
 10
8.507
 20
0.75
 11
8.507
 21
0.5
  0
LINE
  5
3FC
100
AcDbEntity
  8
0
100
AcDbLine
 62
7
  6
CONTINUOUS
 10
8.507
 20
15.75
 11
8.507
 21
16.0
  0
LINE
  5
3FD
100
AcDbEntity
  8
0
100
AcDbLine
 62
7
  6
CONTINUOUS
 10
11.007
 20
0.75
 11
11.007
 21
0.5
  0
LINE
  5
3FE
100
AcDbEntity
  8
0
100
AcDbLine
 62
7
  6
CONTINUOUS
 10
11.007
 20
15.75
 11
11.007
 21
16.0
  0
LINE
  5
3FF
100
AcDbEntity
  8
0
100
AcDbLine
 62
7
  6
CONTINUOUS
 10
0.964
 20
8.25
 11
0.714
 21
8.25
  0
LINE
  5
400
100
AcDbEntity
  8
0
100
AcDbLine
 62
7
  6
CONTINUOUS
 10
21.05
 20
8.25
 11
21.3
 21
8.25
  0
LINE
  5
401
100
AcDbEntity
  8
0
100
AcDbLine
 62
7
  6
CONTINUOUS
 10
13.507
 20
0.75
 11
13.507
 21
0.5
  0
LINE
  5
402
100
AcDbEntity
  8
0
100
AcDbLine
 62
7
  6
CONTINUOUS
 10
13.507
 20
15.75
 11
13.507
 21
16.0
  0
LINE
  5
403
100
AcDbEntity
  8
0
100
AcDbLine
 62
7
  6
CONTINUOUS
 10
14.7
 20
2.67
 11
14.7
 21
0.75
  0
LINE
  5
404
100
AcDbEntity
  8
0
100
AcDbLine
 62
7
  6
CONTINUOUS
 10
11.007
 20
0.75
 11
10.920397
 21
0.6
  0
LINE
  5
405
100
AcDbEntity
  8
0
100
AcDbLine
 62
7
  6
CONTINUOUS
 10
0.964
 20
12.1
 11
0.714
 21
12.1
  0
LINE
  5
406
100
AcDbEntity
  8
0
100
AcDbLine
 62
7
  6
CONTINUOUS
 10
21.05
 20
12.1
 11
21.3
 21
12.1
  0
LINE
  5
407
100
AcDbEntity
  8
0
100
AcDbLine
 62
7
  6
CONTINUOUS
 10
10.920397
 20
15.9
 11
11.007
 21
15.75
  0
LINE
  5
408
100
AcDbEntity
  8
0
100
AcDbLine
 62
7
  6
CONTINUOUS
 10
15.2229827477
 20
1.0139932523
 11
15.2229827477
 21
0.7919022523
  0
LINE
  5
409
100
AcDbEntity
  8
0
100
AcDbLine
 62
7
  6
CONTINUOUS
 10
15.2229827477
 20
1.0639932523
 11
15.2229827477
 21
1.1639932523
  0
LINE
  5
40A
100
AcDbEntity
  8
0
100
AcDbLine
 62
7
  6
CONTINUOUS
 10
15.2229827477
 20
1.2139932523
 11
15.2229827477
 21
1.4360842523
  0
LINE
  5
40B
100
AcDbEntity
  8
0
100
AcDbLine
 62
7
  6
CONTINUOUS
 10
15.8276527477
 20
0.9312952523
 11
15.8276527477
 21
1.2966912523
  0
LINE
  5
40C
100
AcDbEntity
  8
0
100
AcDbLine
 62
7
  6
CONTINUOUS
 10
16.007
 20
0.75
 11
16.007
 21
0.5
  0
LINE
  5
40D
100
AcDbEntity
  8
0
100
AcDbLine
 62
7
  6
CONTINUOUS
 10
16.007
 20
15.75
 11
16.007
 21
16.0
  0
LINE
  5
40E
100
AcDbEntity
  8
0
100
AcDbLine
 62
7
  6
CONTINUOUS
 10
16.4340437477
 20
1.3660842523
 11
16.4340437477
 21
0.8619022523
  0
LINE
  5
40F
100
AcDbEntity
  8
0
100
AcDbLine
 62
7
  6
CONTINUOUS
 10
21.2
 20
8.336603
 11
21.05
 21
8.25
  0
LINE
  5
410
100
AcDbEntity
  8
0
100
AcDbLine
 62
7
  6
CONTINUOUS
 10
21.05
 20
8.25
 11
21.2
 21
8.163397
  0
LINE
  5
411
100
AcDbEntity
  8
0
100
AcDbLine
 62
7
  6
CONTINUOUS
 10
16.7
 20
2.67
 11
16.7
 21
0.75
  0
LINE
  5
412
100
AcDbEntity
  8
0
100
AcDbLine
 62
7
  6
CONTINUOUS
 10
17.5
 20
1.37
 11
17.5
 21
1.0
  0
LINE
  5
413
100
AcDbEntity
  8
0
100
AcDbLine
 62
7
  6
CONTINUOUS
 10
18.507
 20
0.75
 11
18.507
 21
0.5
  0
LINE
  5
414
100
AcDbEntity
  8
0
100
AcDbLine
 62
7
  6
CONTINUOUS
 10
18.507
 20
15.75
 11
18.507
 21
16.0
  0
LINE
  5
415
100
AcDbEntity
  8
0
100
AcDbLine
 62
7
  6
CONTINUOUS
 10
21.05
 20
15.75
 11
0.964
 21
15.75
  0
LINE
  5
416
100
AcDbEntity
  8
0
100
AcDbLine
 62
7
  6
CONTINUOUS
 10
11.093603
 20
15.9
 11
10.920397
 21
15.9
  0
LINE
  5
417
100
AcDbEntity
  8
0
100
AcDbLine
 62
7
  6
CONTINUOUS
 10
18.875
 20
1.0
 11
18.875
 21
0.75
  0
LINE
  5
418
100
AcDbEntity
  8
0
100
AcDbLine
 62
7
  6
CONTINUOUS
 10
20.25
 20
1.37
 11
20.25
 21
1.0
  0
LINE
  5
419
100
AcDbEntity
  8
0
100
AcDbLine
 62
7
  6
CONTINUOUS
 10
21.05
 20
0.75
 11
21.05
 21
15.75
  0
LINE
  5
41A
100
AcDbEntity
  8
0
100
AcDbLine
 62
7
  6
CONTINUOUS
 10
21.2
 20
8.163397
 11
21.2
 21
8.336603
  0
LINE
  5
41B
100
AcDbEntity
  8
SURFACE
100
AcDbLine
 62
7
  6
CONTINUOUS
 10
14.0650407553
 20
13.7193743626
 11
14.0650407553
 21
12.9951367186
  0
LINE
  5
41C
100
AcDbEntity
  8
SURFACE
100
AcDbLine
 62
7
  6
CONTINUOUS
 10
14.1286806305
 20
12.9583950507
 11
14.1286806305
 21
12.9469640168
  0
LINE
  5
41D
100
AcDbEntity
  8
SURFACE
100
AcDbLine
 62
7
  6
CONTINUOUS
 10
14.1626216147
 20
12.8989587739
 11
14.1626216147
 21
12.8979735332
  0
LINE
  5
41E
100
AcDbEntity
  8
AXIS_COSMETIC_THREADS
100
AcDbLine
 62
7
  6
CONTINUOUS
 10
14.5537541225
 20
13.5397483327
 11
14.5537541225
 21
13.5234182844
  0
LINE
  5
41F
100
AcDbEntity
  8
0
100
AcDbLine
 62
7
  6
CONTINUOUS
 10
14.6385051938
 20
13.6111916657
 11
14.6385051938
 21
13.5866972204
  0
LINE
  5
420
100
AcDbEntity
  8
0
100
AcDbLine
 62
7
  6
CONTINUOUS
 10
14.6420409191
 20
13.5846559147
 11
14.6420409191
 21
13.5601612655
  0
LINE
  5
421
100
AcDbEntity
  8
0
100
AcDbLine
 62
7
  6
CONTINUOUS
 10
14.6632540342
 20
13.5969032393
 11
14.6632540342
 21
13.5724086921
  0
LINE
  5
422
100
AcDbEntity
  8
0
100
AcDbLine
 62
7
  6
CONTINUOUS
 10
14.684467326
 20
13.5846560167
 11
14.684467326
 21
13.5601615714
  0
LINE
  5
423
100
AcDbEntity
  8
0
100
AcDbLine
 62
7
  6
CONTINUOUS
 10
14.6880026685
 20
13.6111917847
 11
14.6880026685
 21
13.5866971355
  0
LINE
  5
424
100
AcDbEntity
  8
AXIS_COSMETIC_THREADS
100
AcDbLine
 62
7
  6
CONTINUOUS
 10
14.7727541225
 20
13.5397483327
 11
14.7727541225
 21
13.5234182844
  0
LINE
  5
425
100
AcDbEntity
  8
SURFACE
100
AcDbLine
 62
7
  6
CONTINUOUS
 10
14.0650407553
 20
13.7193743626
 11
16.6431413458
 21
15.2078325476
  0
LINE
  5
426
100
AcDbEntity
  8
SURFACE
100
AcDbLine
 62
7
  6
CONTINUOUS
 10
14.1329230063
 20
13.7193745257
 11
16.6431416284
 21
15.168641272
  0
LINE
  5
427
100
AcDbEntity
  8
0
100
AcDbLine
 62
7
  6
CONTINUOUS
 10
16.6431417756
 20
15.0951564921
 11
14.1965636758
 21
13.6826323993
  0
LINE
  5
428
100
AcDbEntity
  8
SURFACE
100
AcDbLine
 62
7
  6
CONTINUOUS
 10
17.0918727352
 20
11.2077994583
 11
17.0955392909
 21
11.2060129303
  0
LINE
  5
429
100
AcDbEntity
  8
0
100
AcDbLine
 62
7
  6
CONTINUOUS
 10
16.8658822811
 20
14.8971607504
 11
16.844669166
 21
14.8849134258
  0
LINE
  5
42A
100
AcDbEntity
  8
0
100
AcDbLine
 62
7
  6
CONTINUOUS
 10
14.6385051938
 20
13.6111916657
 11
14.6172920787
 21
13.5989443411
  0
LINE
  5
42B
100
AcDbEntity
  8
0
100
AcDbLine
 62
7
  6
CONTINUOUS
 10
16.9153797558
 20
14.8971608694
 11
16.8906311214
 21
14.882872324
  0
LINE
  5
42C
100
AcDbEntity
  8
0
100
AcDbLine
 62
7
  6
CONTINUOUS
 10
16.8694180063
 20
14.8706249994
 11
16.844669372
 21
14.856336454
  0
LINE
  5
42D
100
AcDbEntity
  8
0
100
AcDbLine
 62
7
  6
CONTINUOUS
 10
14.6880026685
 20
13.6111917847
 11
14.6632540342
 21
13.5969032393
  0
LINE
  5
42E
100
AcDbEntity
  8
0
100
AcDbLine
 62
7
  6
CONTINUOUS
 10
14.6420409191
 20
13.5846559147
 11
14.6172922848
 21
13.5703673693
  0
LINE
  5
42F
100
AcDbEntity
  8
0
100
AcDbLine
 62
7
  6
CONTINUOUS
 10
14.6385055766
 20
13.5581201467
 11
14.6632542109
 21
13.5724086921
  0
LINE
  5
430
100
AcDbEntity
  8
0
100
AcDbLine
 62
7
  6
CONTINUOUS
 10
14.684467326
 20
13.5846560167
 11
14.7092159603
 21
13.5989445621
  0
LINE
  5
431
100
AcDbEntity
  8
0
100
AcDbLine
 62
7
  6
CONTINUOUS
 10
16.8658826638
 20
14.8440892314
 11
16.8906312981
 21
14.8583777768
  0
LINE
  5
432
100
AcDbEntity
  8
0
100
AcDbLine
 62
7
  6
CONTINUOUS
 10
16.9118444132
 20
14.8706251014
 11
16.9365930475
 21
14.8849136468
  0
LINE
  5
433
100
AcDbEntity
  8
0
100
AcDbLine
 62
7
  6
CONTINUOUS
 10
16.9118444132
 20
14.8624596539
 11
16.8977028841
 21
14.854295087
  0
LINE
  5
434
100
AcDbEntity
  8
0
100
AcDbLine
 62
7
  6
CONTINUOUS
 10
14.684467326
 20
13.5764905692
 11
14.6703257969
 21
13.5683260023
  0
LINE
  5
435
100
AcDbEntity
  8
0
100
AcDbLine
 62
7
  6
CONTINUOUS
 10
14.6880030512
 20
13.5581202657
 11
14.7092161664
 21
13.5703675903
  0
LINE
  5
436
100
AcDbEntity
  8
0
100
AcDbLine
 62
7
  6
CONTINUOUS
 10
16.9153801385
 20
14.8440893503
 11
16.9365932536
 21
14.856336675
  0
LINE
  5
437
100
AcDbEntity
  8
SURFACE
100
AcDbLine
 62
7
  6
CONTINUOUS
 10
14.1460780655
 20
12.9085099804
 11
17.0918971804
 21
11.2077789971
  0
LINE
  5
438
100
AcDbEntity
  8
SURFACE
100
AcDbLine
 62
7
  6
CONTINUOUS
 10
14.1286806305
 20
12.9469640168
 11
17.0744997455
 21
11.2462330335
  0
LINE
  5
439
100
AcDbEntity
  8
SURFACE
100
AcDbLine
 62
7
  6
CONTINUOUS
 10
14.0650407553
 20
12.9951367186
 11
14.1286806305
 21
12.9583950507
  0
LINE
  5
43A
100
AcDbEntity
  8
SURFACE
100
AcDbLine
 62
7
  6
CONTINUOUS
 10
17.0744997455
 20
11.2576640673
 11
17.1381396208
 21
11.2209223994
  0
LINE
  5
43B
100
AcDbEntity
  8
SURFACE
100
AcDbLine
 62
7
  6
CONTINUOUS
 10
17.1664236294
 20
11.2372520819
 11
17.172080605
 21
11.2339860995
  0
LINE
  5
43C
100
AcDbEntity
  8
SURFACE
100
AcDbLine
 62
7
  6
CONTINUOUS
 10
14.1634748704
 20
12.8984661576
 11
14.1626216147
 21
12.8979735332
  0
LINE
  5
43D
100
AcDbEntity
  8
SURFACE
100
AcDbLine
 62
7
  6
CONTINUOUS
 10
17.1381396208
 20
11.9451600434
 11
14.0650407553
 21
13.7193743626
  0
LINE
  5
43E
100
AcDbEntity
  8
SURFACE
100
AcDbLine
 62
7
  6
CONTINUOUS
 10
17.172080605
 20
11.9647557628
 11
14.0989817395
 21
13.7389700819
  0
LINE
  5
43F
100
AcDbEntity
  8
0
100
AcDbLine
 62
7
  6
CONTINUOUS
 10
14.6172922848
 20
13.5703673693
 11
14.6385055766
 21
13.5581201467
  0
LINE
  5
440
100
AcDbEntity
  8
0
100
AcDbLine
 62
7
  6
CONTINUOUS
 10
16.844687919
 20
12.2844089926
 11
16.8659012108
 21
12.2721617699
  0
LINE
  5
441
100
AcDbEntity
  8
0
100
AcDbLine
 62
7
  6
CONTINUOUS
 10
16.8835780824
 20
12.2823674556
 11
16.8694365533
 21
12.2905318865
  0
LINE
  5
442
100
AcDbEntity
  8
0
100
AcDbLine
 62
7
  6
CONTINUOUS
 10
14.6561824482
 20
13.5683258324
 11
14.6420409191
 21
13.5764902633
  0
LINE
  5
443
100
AcDbEntity
  8
0
100
AcDbLine
 62
7
  6
CONTINUOUS
 10
14.6172920787
 20
13.5989443411
 11
14.6420409191
 21
13.5846559147
  0
LINE
  5
444
100
AcDbEntity
  8
0
100
AcDbLine
 62
7
  6
CONTINUOUS
 10
14.6632542109
 20
13.5724086921
 11
14.6880030512
 21
13.5581202657
  0
LINE
  5
445
100
AcDbEntity
  8
0
100
AcDbLine
 62
7
  6
CONTINUOUS
 10
16.8446877129
 20
12.3129859644
 11
16.8694365533
 21
12.298697538
  0
LINE
  5
446
100
AcDbEntity
  8
0
100
AcDbLine
 62
7
  6
CONTINUOUS
 10
16.8906498451
 20
12.2864503153
 11
16.9153986855
 21
12.2721618889
  0
LINE
  5
447
100
AcDbEntity
  8
0
100
AcDbLine
 62
7
  6
CONTINUOUS
 10
16.9366118006
 20
12.2844092135
 11
16.9118629602
 21
12.2986976399
  0
LINE
  5
448
100
AcDbEntity
  8
0
100
AcDbLine
 62
7
  6
CONTINUOUS
 10
16.8906496684
 20
12.3109448626
 11
16.8659008281
 21
12.325233289
  0
LINE
  5
449
100
AcDbEntity
  8
0
100
AcDbLine
 62
7
  6
CONTINUOUS
 10
14.7092161664
 20
13.5703675903
 11
14.684467326
 21
13.5846560167
  0
LINE
  5
44A
100
AcDbEntity
  8
0
100
AcDbLine
 62
7
  6
CONTINUOUS
 10
14.6632540342
 20
13.5969032393
 11
14.6385051938
 21
13.6111916657
  0
LINE
  5
44B
100
AcDbEntity
  8
0
100
AcDbLine
 62
7
  6
CONTINUOUS
 10
16.9366115945
 20
12.3129861853
 11
16.9153983027
 21
12.325233408
  0
LINE
  5
44C
100
AcDbEntity
  8
0
100
AcDbLine
 62
7
  6
CONTINUOUS
 10
14.7092159603
 20
13.5989445621
 11
14.6880026685
 21
13.6111917847
  0
LINE
  5
44D
100
AcDbEntity
  8
SURFACE
100
AcDbLine
 62
7
  6
CONTINUOUS
 10
16.6431416284
 20
15.168641272
 11
16.6431416284
 21
15.0951564921
  0
LINE
  5
44E
100
AcDbEntity
  8
AXIS_COSMETIC_THREADS
100
AcDbLine
 62
7
  6
CONTINUOUS
 10
16.7811312098
 20
14.8257174174
 11
16.7811312098
 21
14.8093873691
  0
LINE
  5
44F
100
AcDbEntity
  8
AXIS_COSMETIC_THREADS
100
AcDbLine
 62
7
  6
CONTINUOUS
 10
16.7811497568
 20
12.253789956
 11
16.7811497568
 21
12.2374599077
  0
LINE
  5
450
100
AcDbEntity
  8
0
100
AcDbLine
 62
7
  6
CONTINUOUS
 10
16.8658822811
 20
14.8971607504
 11
16.8658822811
 21
14.8726663051
  0
LINE
  5
451
100
AcDbEntity
  8
0
100
AcDbLine
 62
7
  6
CONTINUOUS
 10
16.8659008281
 20
12.325233289
 11
16.8659008281
 21
12.3007388437
  0
LINE
  5
452
100
AcDbEntity
  8
0
100
AcDbLine
 62
7
  6
CONTINUOUS
 10
16.8694180063
 20
14.8706249994
 11
16.8694180063
 21
14.8461303502
  0
LINE
  5
453
100
AcDbEntity
  8
0
100
AcDbLine
 62
7
  6
CONTINUOUS
 10
16.8694365533
 20
12.298697538
 11
16.8694365533
 21
12.2742028887
  0
LINE
  5
454
100
AcDbEntity
  8
0
100
AcDbLine
 62
7
  6
CONTINUOUS
 10
16.8906311214
 20
14.882872324
 11
16.8906311214
 21
14.8583777768
  0
LINE
  5
455
100
AcDbEntity
  8
0
100
AcDbLine
 62
7
  6
CONTINUOUS
 10
16.8906496684
 20
12.3109448626
 11
16.8906496684
 21
12.2864503153
  0
LINE
  5
456
100
AcDbEntity
  8
0
100
AcDbLine
 62
7
  6
CONTINUOUS
 10
16.9118444132
 20
14.8706251014
 11
16.9118444132
 21
14.8461306561
  0
LINE
  5
457
100
AcDbEntity
  8
0
100
AcDbLine
 62
7
  6
CONTINUOUS
 10
16.9118629602
 20
12.2986976399
 11
16.9118629602
 21
12.2742031947
  0
LINE
  5
458
100
AcDbEntity
  8
0
100
AcDbLine
 62
7
  6
CONTINUOUS
 10
16.9153797558
 20
14.8971608694
 11
16.9153797558
 21
14.8726662202
  0
LINE
  5
459
100
AcDbEntity
  8
0
100
AcDbLine
 62
7
  6
CONTINUOUS
 10
16.9153983027
 20
12.325233408
 11
16.9153983027
 21
12.3007387587
  0
LINE
  5
45A
100
AcDbEntity
  8
AXIS_COSMETIC_THREADS
100
AcDbLine
 62
7
  6
CONTINUOUS
 10
17.0001312098
 20
14.8257174174
 11
17.0001312098
 21
14.8093873691
  0
LINE
  5
45B
100
AcDbEntity
  8
AXIS_COSMETIC_THREADS
100
AcDbLine
 62
7
  6
CONTINUOUS
 10
17.0001497568
 20
12.253789956
 11
17.0001497568
 21
12.2374599077
  0
LINE
  5
45C
100
AcDbEntity
  8
AXIS_COSMETIC_THREADS
100
AcDbLine
 62
7
  6
CONTINUOUS
 10
18.3335556002
 20
12.0675150915
 11
18.3271916127
 21
12.0711892582
  0
LINE
  5
45D
100
AcDbEntity
  8
02___PRT_ALL_AXES
100
AcDbLine
 62
7
  6
CONTINUOUS
 10
18.4205710212
 20
12.148203786
 11
20.3743974405
 21
11.020187096
  0
LINE
  5
45E
100
AcDbEntity
  8
SURFACE
100
AcDbLine
 62
7
  6
CONTINUOUS
 10
17.0744997455
 20
11.2462330335
 11
17.0744997455
 21
11.2576640673
  0
LINE
  5
45F
100
AcDbEntity
  8
SURFACE
100
AcDbLine
 62
7
  6
CONTINUOUS
 10
17.1084407297
 20
11.2364346659
 11
17.1084407297
 21
11.1972425498
  0
LINE
  5
460
100
AcDbEntity
  8
SURFACE
100
AcDbLine
 62
7
  6
CONTINUOUS
 10
17.1381396208
 20
11.2209223994
 11
17.1381396208
 21
11.9451600434
  0
LINE
  5
461
100
AcDbEntity
  8
SURFACE
100
AcDbLine
 62
7
  6
CONTINUOUS
 10
17.172080605
 20
11.2405181188
 11
17.172080605
 21
11.2339860995
  0
LINE
  5
462
100
AcDbEntity
  8
SURFACE
100
AcDbLine
 62
7
  6
CONTINUOUS
 10
17.172080605
 20
11.2405181188
 11
17.172080605
 21
11.9647557628
  0
LINE
  5
463
100
AcDbEntity
  8
02___PRT_ALL_AXES
100
AcDbLine
 62
7
  6
CONTINUOUS
 10
18.5075304953
 20
12.2980245797
 11
20.4610101441
 21
11.1702080932
  0
LINE
  5
464
100
AcDbEntity
  8
AXIS_COSMETIC_THREADS
100
AcDbLine
 62
7
  6
CONTINUOUS
 10
18.5335522068
 20
12.4139272121
 11
18.5271882193
 21
12.4176013789
  0
LINE
  5
465
100
AcDbEntity
  8
0
100
AcDbLine
 62
7
  6
CONTINUOUS
 10
19.0932779153
 20
13.6112023737
 11
19.0720648002
 21
13.5989550491
  0
LINE
  5
466
100
AcDbEntity
  8
0
100
AcDbLine
 62
7
  6
CONTINUOUS
 10
16.8659008281
 20
12.325233289
 11
16.8446877129
 21
12.3129859644
  0
LINE
  5
467
100
AcDbEntity
  8
0
100
AcDbLine
 62
7
  6
CONTINUOUS
 10
19.14277539
 20
13.6112024927
 11
19.1180267557
 21
13.5969139473
  0
LINE
  5
468
100
AcDbEntity
  8
0
100
AcDbLine
 62
7
  6
CONTINUOUS
 10
19.0968136405
 20
13.5846666227
 11
19.0720650062
 21
13.5703780773
  0
LINE
  5
469
100
AcDbEntity
  8
0
100
AcDbLine
 62
7
  6
CONTINUOUS
 10
16.9153983027
 20
12.325233408
 11
16.8906496684
 21
12.3109448626
  0
LINE
  5
46A
100
AcDbEntity
  8
0
100
AcDbLine
 62
7
  6
CONTINUOUS
 10
16.8694365533
 20
12.298697538
 11
16.844687919
 21
12.2844089926
  0
LINE
  5
46B
100
AcDbEntity
  8
0
100
AcDbLine
 62
7
  6
CONTINUOUS
 10
16.8659012108
 20
12.2721617699
 11
16.8906498451
 21
12.2864503153
  0
LINE
  5
46C
100
AcDbEntity
  8
0
100
AcDbLine
 62
7
  6
CONTINUOUS
 10
16.9118629602
 20
12.2986976399
 11
16.9366115945
 21
12.3129861853
  0
LINE
  5
46D
100
AcDbEntity
  8
0
100
AcDbLine
 62
7
  6
CONTINUOUS
 10
19.093278298
 20
13.5581308546
 11
19.1180269323
 21
13.5724194
  0
LINE
  5
46E
100
AcDbEntity
  8
0
100
AcDbLine
 62
7
  6
CONTINUOUS
 10
19.1392400474
 20
13.5846667246
 11
19.1639886817
 21
13.59895527
  0
LINE
  5
46F
100
AcDbEntity
  8
0
100
AcDbLine
 62
7
  6
CONTINUOUS
 10
19.1392400474
 20
13.5765012772
 11
19.1250985183
 21
13.5683367103
  0
LINE
  5
470
100
AcDbEntity
  8
0
100
AcDbLine
 62
7
  6
CONTINUOUS
 10
16.9118629602
 20
12.2905321925
 11
16.8977214311
 21
12.2823676256
  0
LINE
  5
471
100
AcDbEntity
  8
SURFACE
100
AcDbLine
 62
7
  6
CONTINUOUS
 10
17.1084407297
 20
11.2310752428
 11
17.0955392909
 21
11.2060129303
  0
LINE
  5
472
100
AcDbEntity
  8
0
100
AcDbLine
 62
7
  6
CONTINUOUS
 10
16.9153986855
 20
12.2721618889
 11
16.9366118006
 21
12.2844092135
  0
LINE
  5
473
100
AcDbEntity
  8
0
100
AcDbLine
 62
7
  6
CONTINUOUS
 10
19.1427757727
 20
13.5581309736
 11
19.1639888878
 21
13.5703782982
  0
LINE
  5
474
100
AcDbEntity
  8
SURFACE
100
AcDbLine
 62
7
  6
CONTINUOUS
 10
19.6483579603
 20
13.4336180653
 11
17.1381393381
 21
11.984351319
  0
LINE
  5
475
100
AcDbEntity
  8
SURFACE
100
AcDbLine
 62
7
  6
CONTINUOUS
 10
17.1381396208
 20
11.9451600434
 11
19.7162402112
 21
13.4336182284
  0
LINE
  5
476
100
AcDbEntity
  8
0
100
AcDbLine
 62
7
  6
CONTINUOUS
 10
16.844669372
 20
14.856336454
 11
16.8658826638
 21
14.8440892314
  0
LINE
  5
477
100
AcDbEntity
  8
0
100
AcDbLine
 62
7
  6
CONTINUOUS
 10
19.0720650062
 20
13.5703780773
 11
19.093278298
 21
13.5581308546
  0
LINE
  5
478
100
AcDbEntity
  8
SURFACE
100
AcDbLine
 62
7
  6
CONTINUOUS
 10
17.0843994527
 20
11.251948598
 11
17.0744997455
 21
11.2462330335
  0
LINE
  5
479
100
AcDbEntity
  8
SURFACE
100
AcDbLine
 62
7
  6
CONTINUOUS
 10
17.1084407297
 20
11.2364346659
 11
17.1098558427
 21
11.2372516769
  0
LINE
  5
47A
100
AcDbEntity
  8
0
100
AcDbLine
 62
7
  6
CONTINUOUS
 10
19.1109551696
 20
13.5683365403
 11
19.0968136405
 21
13.5765009712
  0
LINE
  5
47B
100
AcDbEntity
  8
0
100
AcDbLine
 62
7
  6
CONTINUOUS
 10
16.8835595354
 20
14.8542949171
 11
16.8694180063
 21
14.862459348
  0
LINE
  5
47C
100
AcDbEntity
  8
0
100
AcDbLine
 62
7
  6
CONTINUOUS
 10
16.844669166
 20
14.8849134258
 11
16.8694180063
 21
14.8706249994
  0
LINE
  5
47D
100
AcDbEntity
  8
0
100
AcDbLine
 62
7
  6
CONTINUOUS
 10
16.8906312981
 20
14.8583777768
 11
16.9153801385
 21
14.8440893503
  0
LINE
  5
47E
100
AcDbEntity
  8
0
100
AcDbLine
 62
7
  6
CONTINUOUS
 10
19.0720648002
 20
13.5989550491
 11
19.0968136405
 21
13.5846666227
  0
LINE
  5
47F
100
AcDbEntity
  8
0
100
AcDbLine
 62
7
  6
CONTINUOUS
 10
19.1180269323
 20
13.5724194
 11
19.1427757727
 21
13.5581309736
  0
LINE
  5
480
100
AcDbEntity
  8
0
100
AcDbLine
 62
7
  6
CONTINUOUS
 10
19.1639888878
 20
13.5703782982
 11
19.1392400474
 21
13.5846667246
  0
LINE
  5
481
100
AcDbEntity
  8
0
100
AcDbLine
 62
7
  6
CONTINUOUS
 10
19.1180267557
 20
13.5969139473
 11
19.0932779153
 21
13.6112023737
  0
LINE
  5
482
100
AcDbEntity
  8
0
100
AcDbLine
 62
7
  6
CONTINUOUS
 10
16.9365932536
 20
14.856336675
 11
16.9118444132
 21
14.8706251014
  0
LINE
  5
483
100
AcDbEntity
  8
0
100
AcDbLine
 62
7
  6
CONTINUOUS
 10
16.8906311214
 20
14.882872324
 11
16.8658822811
 21
14.8971607504
  0
LINE
  5
484
100
AcDbEntity
  8
0
100
AcDbLine
 62
7
  6
CONTINUOUS
 10
19.1639886817
 20
13.59895527
 11
19.14277539
 21
13.6112024927
  0
LINE
  5
485
100
AcDbEntity
  8
0
100
AcDbLine
 62
7
  6
CONTINUOUS
 10
16.9365930475
 20
14.8849136468
 11
16.9153797558
 21
14.8971608694
  0
LINE
  5
486
100
AcDbEntity
  8
0
100
AcDbLine
 62
7
  6
CONTINUOUS
 10
19.5847174379
 20
13.3968754119
 11
16.6431417756
 21
15.0951564921
  0
LINE
  5
487
100
AcDbEntity
  8
SURFACE
100
AcDbLine
 62
7
  6
CONTINUOUS
 10
16.6092003616
 20
15.1882368282
 11
19.6822992271
 21
13.414022509
  0
LINE
  5
488
100
AcDbEntity
  8
SURFACE
100
AcDbLine
 62
7
  6
CONTINUOUS
 10
16.6431413458
 20
15.2078325476
 11
19.7162402112
 21
13.4336182284
  0
LINE
  5
489
100
AcDbEntity
  8
AXIS_COSMETIC_THREADS
100
AcDbLine
 62
7
  6
CONTINUOUS
 10
19.008526844
 20
13.5397590407
 11
19.008526844
 21
13.5234289924
  0
LINE
  5
48A
100
AcDbEntity
  8
0
100
AcDbLine
 62
7
  6
CONTINUOUS
 10
19.0932779153
 20
13.6112023737
 11
19.0932779153
 21
13.5867079284
  0
LINE
  5
48B
100
AcDbEntity
  8
SURFACE
100
AcDbLine
 62
7
  6
CONTINUOUS
 10
17.172080605
 20
11.2405181188
 11
17.1381396208
 21
11.2209223994
  0
LINE
  5
48C
100
AcDbEntity
  8
SURFACE
100
AcDbLine
 62
7
  6
CONTINUOUS
 10
19.6822992271
 20
12.689784865
 11
19.7162402112
 21
12.7093805844
  0
LINE
  5
48D
100
AcDbEntity
  8
SURFACE
100
AcDbLine
 62
7
  6
CONTINUOUS
 10
17.172080605
 20
11.2339860995
 11
18.5880676749
 21
12.0515017356
  0
LINE
  5
48E
100
AcDbEntity
  8
SURFACE
100
AcDbLine
 62
7
  6
CONTINUOUS
 10
18.7612975181
 20
12.1515154352
 11
19.6822992271
 21
12.6832528457
  0
LINE
  5
48F
100
AcDbEntity
  8
SURFACE
100
AcDbLine
 62
7
  6
CONTINUOUS
 10
17.1534405282
 20
11.1927853647
 11
18.614428952
 21
12.0362823895
  0
LINE
  5
490
100
AcDbEntity
  8
SURFACE
100
AcDbLine
 62
7
  6
CONTINUOUS
 10
18.7876587952
 20
12.1362960891
 11
19.6636591503
 21
12.642052111
  0
LINE
  5
491
100
AcDbEntity
  8
0
100
AcDbLine
 62
7
  6
CONTINUOUS
 10
19.0968136405
 20
13.5846666227
 11
19.0968136405
 21
13.5601719734
  0
LINE
  5
492
100
AcDbEntity
  8
0
100
AcDbLine
 62
7
  6
CONTINUOUS
 10
19.1180267557
 20
13.5969139473
 11
19.1180267557
 21
13.5724194
  0
LINE
  5
493
100
AcDbEntity
  8
0
100
AcDbLine
 62
7
  6
CONTINUOUS
 10
19.1392400474
 20
13.5846667246
 11
19.1392400474
 21
13.5601722794
  0
LINE
  5
494
100
AcDbEntity
  8
0
100
AcDbLine
 62
7
  6
CONTINUOUS
 10
19.14277539
 20
13.6112024927
 11
19.14277539
 21
13.5867078434
  0
LINE
  5
495
100
AcDbEntity
  8
AXIS_COSMETIC_THREADS
100
AcDbLine
 62
7
  6
CONTINUOUS
 10
19.227526844
 20
13.5397590407
 11
19.227526844
 21
13.5234289924
  0
LINE
  5
496
100
AcDbEntity
  8
SURFACE
100
AcDbLine
 62
7
  6
CONTINUOUS
 10
19.6822992271
 20
13.414022509
 11
19.6822992271
 21
12.689784865
  0
LINE
  5
497
100
AcDbEntity
  8
SURFACE
100
AcDbLine
 62
7
  6
CONTINUOUS
 10
19.6822992271
 20
12.6832528457
 11
19.6822992271
 21
12.689784865
  0
LINE
  5
498
100
AcDbEntity
  8
SURFACE
100
AcDbLine
 62
7
  6
CONTINUOUS
 10
19.7162402112
 20
13.4336182284
 11
19.7162402112
 21
12.7093805844
  0
LINE
  5
499
100
AcDbEntity
  8
SURFACE
100
AcDbLine
 62
7
  6
CONTINUOUS
 10
2.7485463166
 20
8.3017316312
 11
2.7485463166
 21
9.1967316312
  0
LINE
  5
49A
100
AcDbEntity
  8
SURFACE
100
AcDbLine
 62
7
  6
CONTINUOUS
 10
2.7965463166
 20
8.3017316312
 11
2.7965463166
 21
8.3097316312
  0
LINE
  5
49B
100
AcDbEntity
  8
SURFACE
100
AcDbLine
 62
7
  6
CONTINUOUS
 10
2.8385463166
 20
8.3097316312
 11
2.8385463166
 21
8.2117316312
  0
LINE
  5
49C
100
AcDbEntity
  8
SURFACE
100
AcDbLine
 62
7
  6
CONTINUOUS
 10
2.8385463166
 20
8.2117316312
 11
7.0045463166
 21
8.2117316312
  0
LINE
  5
49D
100
AcDbEntity
  8
SURFACE
100
AcDbLine
 62
7
  6
CONTINUOUS
 10
2.8385463166
 20
8.2957316312
 11
7.0045463166
 21
8.2957316312
  0
LINE
  5
49E
100
AcDbEntity
  8
SURFACE
100
AcDbLine
 62
7
  6
CONTINUOUS
 10
2.7965463166
 20
8.3017316312
 11
2.7485463166
 21
8.3017316312
  0
LINE
  5
49F
100
AcDbEntity
  8
SURFACE
100
AcDbLine
 62
7
  6
CONTINUOUS
 10
7.0465463166
 20
8.3017316312
 11
7.0945463166
 21
8.3017316312
  0
LINE
  5
4A0
100
AcDbEntity
  8
SURFACE
100
AcDbLine
 62
7
  6
CONTINUOUS
 10
2.7485463166
 20
8.3097316312
 11
2.8385463166
 21
8.3097316312
  0
LINE
  5
4A1
100
AcDbEntity
  8
SURFACE
100
AcDbLine
 62
7
  6
CONTINUOUS
 10
7.0045463166
 20
8.3097316312
 11
7.0945463166
 21
8.3097316312
  0
LINE
  5
4A2
100
AcDbEntity
  8
AXIS_COSMETIC_THREADS
100
AcDbLine
 62
7
  6
CONTINUOUS
 10
7.1035463166
 20
8.4517316312
 11
7.0945463166
 21
8.4517316312
  0
LINE
  5
4A3
100
AcDbEntity
  8
02___PRT_ALL_AXES
100
AcDbLine
 62
7
  6
CONTINUOUS
 10
7.1635463166
 20
8.5651174579
 11
9.9095463166
 21
8.5651174579
  0
LINE
  5
4A4
100
AcDbEntity
  8
02___PRT_ALL_AXES
100
AcDbLine
 62
7
  6
CONTINUOUS
 10
7.1635463166
 20
8.7383458044
 11
9.9095463166
 21
8.7383458044
  0
LINE
  5
4A5
100
AcDbEntity
  8
AXIS_COSMETIC_THREADS
100
AcDbLine
 62
7
  6
CONTINUOUS
 10
7.1035463166
 20
8.8517316312
 11
7.0945463166
 21
8.8517316312
  0
LINE
  5
4A6
100
AcDbEntity
  8
SURFACE
100
AcDbLine
 62
7
  6
CONTINUOUS
 10
7.0945463166
 20
9.1967316312
 11
2.7485463166
 21
9.1967316312
  0
LINE
  5
4A7
100
AcDbEntity
  8
AXIS_COSMETIC_THREADS
100
AcDbLine
 62
7
  6
CONTINUOUS
 10
6.5700254742
 20
9.2067316312
 11
6.423067159
 21
9.2067316312
  0
LINE
  5
4A8
100
AcDbEntity
  8
AXIS_COSMETIC_THREADS
100
AcDbLine
 62
7
  6
CONTINUOUS
 10
3.4200254742
 20
9.2067316312
 11
3.273067159
 21
9.2067316312
  0
LINE
  5
4A9
100
AcDbEntity
  8
SURFACE
100
AcDbLine
 62
7
  6
CONTINUOUS
 10
7.0045463166
 20
8.2117316312
 11
7.0045463166
 21
8.3097316312
  0
LINE
  5
4AA
100
AcDbEntity
  8
SURFACE
100
AcDbLine
 62
7
  6
CONTINUOUS
 10
7.0465463166
 20
8.3097316312
 11
7.0465463166
 21
8.3017316312
  0
LINE
  5
4AB
100
AcDbEntity
  8
SURFACE
100
AcDbLine
 62
7
  6
CONTINUOUS
 10
7.0945463166
 20
8.3017316312
 11
7.0945463166
 21
9.1967316312
  0
LINE
  5
4AC
100
AcDbEntity
  8
AXIS_COSMETIC_THREADS
100
AcDbLine
 62
7
  6
CONTINUOUS
 10
7.1035463166
 20
8.8517316312
 11
7.1035463166
 21
8.4517316312
  0
LINE
  5
4AD
100
AcDbEntity
  8
AXIS_COSMETIC_THREADS
100
AcDbLine
 62
7
  6
CONTINUOUS
 10
7.1635463166
 20
8.7917316312
 11
7.1635463166
 21
8.5117316312
  0
LINE
  5
4AE
100
AcDbEntity
  8
02___PRT_ALL_AXES
100
AcDbLine
 62
7
  6
CONTINUOUS
 10
9.9095463166
 20
8.7383458044
 11
9.9095463166
 21
8.5651174579
  0
LINE
  5
4AF
100
AcDbEntity
  8
SURFACE
100
AcDbLine
 62
7
  6
CONTINUOUS
 10
2.7485463166
 20
11.2270207452
 11
2.7485463166
 21
14.8730207452
  0
LINE
  5
4B0
100
AcDbEntity
  8
SURFACE
100
AcDbLine
 62
7
  6
CONTINUOUS
 10
2.7965463166
 20
11.2750207452
 11
2.7965463166
 21
14.8250207452
  0
LINE
  5
4B1
100
AcDbEntity
  8
0
100
AcDbLine
 62
7
  6
CONTINUOUS
 10
2.8215463166
 20
14.8000207452
 11
2.8215463166
 21
11.3000207452
  0
LINE
  5
4B2
100
AcDbEntity
  8
SURFACE
100
AcDbLine
 62
7
  6
CONTINUOUS
 10
2.8385463166
 20
14.8250207452
 11
2.8385463166
 21
14.8000207452
  0
LINE
  5
4B3
100
AcDbEntity
  8
SURFACE
100
AcDbLine
 62
7
  6
CONTINUOUS
 10
2.8385463166
 20
11.2750207452
 11
2.8385463166
 21
11.3000207452
  0
LINE
  5
4B4
100
AcDbEntity
  8
0
100
AcDbLine
 62
7
  6
CONTINUOUS
 10
3.2965463166
 20
14.6400207452
 11
3.2965463166
 21
14.6100207452
  0
LINE
  5
4B5
100
AcDbEntity
  8
0
100
AcDbLine
 62
7
  6
CONTINUOUS
 10
3.2965463166
 20
11.4900207452
 11
3.2965463166
 21
11.4600207452
  0
LINE
  5
4B6
100
AcDbEntity
  8
0
100
AcDbLine
 62
7
  6
CONTINUOUS
 10
3.3315463166
 20
14.6750207452
 11
3.3315463166
 21
14.6400207452
  0
LINE
  5
4B7
100
AcDbEntity
  8
0
100
AcDbLine
 62
7
  6
CONTINUOUS
 10
3.3315463166
 20
14.6100207452
 11
3.3315463166
 21
14.5750207452
  0
LINE
  5
4B8
100
AcDbEntity
  8
0
100
AcDbLine
 62
7
  6
CONTINUOUS
 10
3.3315463166
 20
11.5250207452
 11
3.3315463166
 21
11.4900207452
  0
LINE
  5
4B9
100
AcDbEntity
  8
0
100
AcDbLine
 62
7
  6
CONTINUOUS
 10
3.3315463166
 20
11.4600207452
 11
3.3315463166
 21
11.4250207452
  0
LINE
  5
4BA
100
AcDbEntity
  8
0
100
AcDbLine
 62
7
  6
CONTINUOUS
 10
3.3615463166
 20
11.4250207452
 11
3.3615463166
 21
11.4600207452
  0
LINE
  5
4BB
100
AcDbEntity
  8
0
100
AcDbLine
 62
7
  6
CONTINUOUS
 10
3.3615463166
 20
11.4900207452
 11
3.3615463166
 21
11.5250207452
  0
LINE
  5
4BC
100
AcDbEntity
  8
0
100
AcDbLine
 62
7
  6
CONTINUOUS
 10
3.3615463166
 20
14.5750207452
 11
3.3615463166
 21
14.6100207452
  0
LINE
  5
4BD
100
AcDbEntity
  8
0
100
AcDbLine
 62
7
  6
CONTINUOUS
 10
3.3615463166
 20
14.6400207452
 11
3.3615463166
 21
14.6750207452
  0
LINE
  5
4BE
100
AcDbEntity
  8
0
100
AcDbLine
 62
7
  6
CONTINUOUS
 10
3.3965463166
 20
11.4600207452
 11
3.3965463166
 21
11.4900207452
  0
LINE
  5
4BF
100
AcDbEntity
  8
0
100
AcDbLine
 62
7
  6
CONTINUOUS
 10
3.3965463166
 20
14.6100207452
 11
3.3965463166
 21
14.6400207452
  0
LINE
  5
4C0
100
AcDbEntity
  8
SURFACE
100
AcDbLine
 62
7
  6
CONTINUOUS
 10
7.0945463166
 20
11.2270207452
 11
2.7485463166
 21
11.2270207452
  0
LINE
  5
4C1
100
AcDbEntity
  8
SURFACE
100
AcDbLine
 62
7
  6
CONTINUOUS
 10
7.0945463166
 20
11.2750207452
 11
2.7485463166
 21
11.2750207452
  0
LINE
  5
4C2
100
AcDbEntity
  8
0
100
AcDbLine
 62
7
  6
CONTINUOUS
 10
2.8215463166
 20
11.3000207452
 11
7.0215463166
 21
11.3000207452
  0
LINE
  5
4C3
100
AcDbEntity
  8
0
100
AcDbLine
 62
7
  6
CONTINUOUS
 10
3.3315463166
 20
11.4250207452
 11
3.3615463166
 21
11.4250207452
  0
LINE
  5
4C4
100
AcDbEntity
  8
0
100
AcDbLine
 62
7
  6
CONTINUOUS
 10
6.4815463166
 20
11.4250207452
 11
6.5115463166
 21
11.4250207452
  0
LINE
  5
4C5
100
AcDbEntity
  8
0
100
AcDbLine
 62
7
  6
CONTINUOUS
 10
3.2965463166
 20
11.4600207452
 11
3.3315463166
 21
11.4600207452
  0
LINE
  5
4C6
100
AcDbEntity
  8
0
100
AcDbLine
 62
7
  6
CONTINUOUS
 10
3.3615463166
 20
11.4600207452
 11
3.3965463166
 21
11.4600207452
  0
LINE
  5
4C7
100
AcDbEntity
  8
0
100
AcDbLine
 62
7
  6
CONTINUOUS
 10
6.4465463166
 20
11.4600207452
 11
6.4815463166
 21
11.4600207452
  0
LINE
  5
4C8
100
AcDbEntity
  8
0
100
AcDbLine
 62
7
  6
CONTINUOUS
 10
6.5115463166
 20
11.4600207452
 11
6.5465463166
 21
11.4600207452
  0
LINE
  5
4C9
100
AcDbEntity
  8
0
100
AcDbLine
 62
7
  6
CONTINUOUS
 10
6.5465463166
 20
11.4900207452
 11
6.5115463166
 21
11.4900207452
  0
LINE
  5
4CA
100
AcDbEntity
  8
0
100
AcDbLine
 62
7
  6
CONTINUOUS
 10
6.4815463166
 20
11.4900207452
 11
6.4465463166
 21
11.4900207452
  0
LINE
  5
4CB
100
AcDbEntity
  8
0
100
AcDbLine
 62
7
  6
CONTINUOUS
 10
3.3965463166
 20
11.4900207452
 11
3.3615463166
 21
11.4900207452
  0
LINE
  5
4CC
100
AcDbEntity
  8
0
100
AcDbLine
 62
7
  6
CONTINUOUS
 10
3.3315463166
 20
11.4900207452
 11
3.2965463166
 21
11.4900207452
  0
LINE
  5
4CD
100
AcDbEntity
  8
0
100
AcDbLine
 62
7
  6
CONTINUOUS
 10
6.5115463166
 20
11.5250207452
 11
6.4815463166
 21
11.5250207452
  0
LINE
  5
4CE
100
AcDbEntity
  8
0
100
AcDbLine
 62
7
  6
CONTINUOUS
 10
3.3615463166
 20
11.5250207452
 11
3.3315463166
 21
11.5250207452
  0
LINE
  5
4CF
100
AcDbEntity
  8
AXIS_COSMETIC_THREADS
100
AcDbLine
 62
7
  6
CONTINUOUS
 10
7.1035463166
 20
12.8500207452
 11
7.0945463166
 21
12.8500207452
  0
LINE
  5
4D0
100
AcDbEntity
  8
AXIS_COSMETIC_THREADS
100
AcDbLine
 62
7
  6
CONTINUOUS
 10
7.0285463166
 20
12.8500207452
 11
7.0215463166
 21
12.8500207452
  0
LINE
  5
4D1
100
AcDbEntity
  8
AXIS_COSMETIC_THREADS
100
AcDbLine
 62
7
  6
CONTINUOUS
 10
7.0465463166
 20
12.9150207452
 11
7.0285463166
 21
12.9150207452
  0
LINE
  5
4D2
100
AcDbEntity
  8
02___PRT_ALL_AXES
100
AcDbLine
 62
7
  6
CONTINUOUS
 10
7.1635463166
 20
12.963406572
 11
9.9095463166
 21
12.963406572
  0
LINE
  5
4D3
100
AcDbEntity
  8
0
100
AcDbLine
 62
7
  6
CONTINUOUS
 10
6.4465463166
 20
14.6400207452
 11
6.4465463166
 21
14.6100207452
  0
LINE
  5
4D4
100
AcDbEntity
  8
0
100
AcDbLine
 62
7
  6
CONTINUOUS
 10
6.4465463166
 20
11.4900207452
 11
6.4465463166
 21
11.4600207452
  0
LINE
  5
4D5
100
AcDbEntity
  8
0
100
AcDbLine
 62
7
  6
CONTINUOUS
 10
6.4815463166
 20
14.6750207452
 11
6.4815463166
 21
14.6400207452
  0
LINE
  5
4D6
100
AcDbEntity
  8
0
100
AcDbLine
 62
7
  6
CONTINUOUS
 10
6.4815463166
 20
14.6100207452
 11
6.4815463166
 21
14.5750207452
  0
LINE
  5
4D7
100
AcDbEntity
  8
0
100
AcDbLine
 62
7
  6
CONTINUOUS
 10
6.4815463166
 20
11.5250207452
 11
6.4815463166
 21
11.4900207452
  0
LINE
  5
4D8
100
AcDbEntity
  8
0
100
AcDbLine
 62
7
  6
CONTINUOUS
 10
6.4815463166
 20
11.4600207452
 11
6.4815463166
 21
11.4250207452
  0
LINE
  5
4D9
100
AcDbEntity
  8
0
100
AcDbLine
 62
7
  6
CONTINUOUS
 10
6.5115463166
 20
11.4250207452
 11
6.5115463166
 21
11.4600207452
  0
LINE
  5
4DA
100
AcDbEntity
  8
0
100
AcDbLine
 62
7
  6
CONTINUOUS
 10
6.5115463166
 20
11.4900207452
 11
6.5115463166
 21
11.5250207452
  0
LINE
  5
4DB
100
AcDbEntity
  8
0
100
AcDbLine
 62
7
  6
CONTINUOUS
 10
6.5115463166
 20
14.5750207452
 11
6.5115463166
 21
14.6100207452
  0
LINE
  5
4DC
100
AcDbEntity
  8
0
100
AcDbLine
 62
7
  6
CONTINUOUS
 10
6.5115463166
 20
14.6400207452
 11
6.5115463166
 21
14.6750207452
  0
LINE
  5
4DD
100
AcDbEntity
  8
0
100
AcDbLine
 62
7
  6
CONTINUOUS
 10
6.5465463166
 20
11.4600207452
 11
6.5465463166
 21
11.4900207452
  0
LINE
  5
4DE
100
AcDbEntity
  8
0
100
AcDbLine
 62
7
  6
CONTINUOUS
 10
6.5465463166
 20
14.6100207452
 11
6.5465463166
 21
14.6400207452
  0
LINE
  5
4DF
100
AcDbEntity
  8
02___PRT_ALL_AXES
100
AcDbLine
 62
7
  6
CONTINUOUS
 10
7.1635463166
 20
13.1366349185
 11
9.9095463166
 21
13.1366349185
  0
LINE
  5
4E0
100
AcDbEntity
  8
AXIS_COSMETIC_THREADS
100
AcDbLine
 62
7
  6
CONTINUOUS
 10
7.0465463166
 20
13.1850207452
 11
7.0285463166
 21
13.1850207452
  0
LINE
  5
4E1
100
AcDbEntity
  8
AXIS_COSMETIC_THREADS
100
AcDbLine
 62
7
  6
CONTINUOUS
 10
7.1035463166
 20
13.2500207452
 11
7.0945463166
 21
13.2500207452
  0
LINE
  5
4E2
100
AcDbEntity
  8
AXIS_COSMETIC_THREADS
100
AcDbLine
 62
7
  6
CONTINUOUS
 10
7.0285463166
 20
13.2500207452
 11
7.0215463166
 21
13.2500207452
  0
LINE
  5
4E3
100
AcDbEntity
  8
SURFACE
100
AcDbLine
 62
7
  6
CONTINUOUS
 10
7.0045463166
 20
14.8250207452
 11
7.0045463166
 21
14.8000207452
  0
LINE
  5
4E4
100
AcDbEntity
  8
SURFACE
100
AcDbLine
 62
7
  6
CONTINUOUS
 10
7.0045463166
 20
11.2750207452
 11
7.0045463166
 21
11.3000207452
  0
LINE
  5
4E5
100
AcDbEntity
  8
0
100
AcDbLine
 62
7
  6
CONTINUOUS
 10
7.0215463166
 20
11.3000207452
 11
7.0215463166
 21
14.8000207452
  0
LINE
  5
4E6
100
AcDbEntity
  8
AXIS_COSMETIC_THREADS
100
AcDbLine
 62
7
  6
CONTINUOUS
 10
7.0285463166
 20
12.8500213902
 11
7.0285463166
 21
13.2500201003
  0
LINE
  5
4E7
100
AcDbEntity
  8
SURFACE
100
AcDbLine
 62
7
  6
CONTINUOUS
 10
7.0465463166
 20
14.8250207452
 11
7.0465463166
 21
11.2750207452
  0
LINE
  5
4E8
100
AcDbEntity
  8
SURFACE
100
AcDbLine
 62
7
  6
CONTINUOUS
 10
7.0945463166
 20
11.2270207452
 11
7.0945463166
 21
14.8730207452
  0
LINE
  5
4E9
100
AcDbEntity
  8
AXIS_COSMETIC_THREADS
100
AcDbLine
 62
7
  6
CONTINUOUS
 10
7.1035463166
 20
12.8500207452
 11
7.1035463166
 21
13.2500207452
  0
LINE
  5
4EA
100
AcDbEntity
  8
AXIS_COSMETIC_THREADS
100
AcDbLine
 62
7
  6
CONTINUOUS
 10
7.1635463166
 20
12.9100207452
 11
7.1635463166
 21
13.1900207452
  0
LINE
  5
4EB
100
AcDbEntity
  8
0
100
AcDbLine
 62
7
  6
CONTINUOUS
 10
3.3315463166
 20
14.5750207452
 11
3.3615463166
 21
14.5750207452
  0
LINE
  5
4EC
100
AcDbEntity
  8
0
100
AcDbLine
 62
7
  6
CONTINUOUS
 10
6.4815463166
 20
14.5750207452
 11
6.5115463166
 21
14.5750207452
  0
LINE
  5
4ED
100
AcDbEntity
  8
0
100
AcDbLine
 62
7
  6
CONTINUOUS
 10
3.2965463166
 20
14.6100207452
 11
3.3315463166
 21
14.6100207452
  0
LINE
  5
4EE
100
AcDbEntity
  8
0
100
AcDbLine
 62
7
  6
CONTINUOUS
 10
3.3615463166
 20
14.6100207452
 11
3.3965463166
 21
14.6100207452
  0
LINE
  5
4EF
100
AcDbEntity
  8
0
100
AcDbLine
 62
7
  6
CONTINUOUS
 10
6.4465463166
 20
14.6100207452
 11
6.4815463166
 21
14.6100207452
  0
LINE
  5
4F0
100
AcDbEntity
  8
0
100
AcDbLine
 62
7
  6
CONTINUOUS
 10
6.5115463166
 20
14.6100207452
 11
6.5465463166
 21
14.6100207452
  0
LINE
  5
4F1
100
AcDbEntity
  8
0
100
AcDbLine
 62
7
  6
CONTINUOUS
 10
6.5465463166
 20
14.6400207452
 11
6.5115463166
 21
14.6400207452
  0
LINE
  5
4F2
100
AcDbEntity
  8
0
100
AcDbLine
 62
7
  6
CONTINUOUS
 10
6.4815463166
 20
14.6400207452
 11
6.4465463166
 21
14.6400207452
  0
LINE
  5
4F3
100
AcDbEntity
  8
0
100
AcDbLine
 62
7
  6
CONTINUOUS
 10
3.3965463166
 20
14.6400207452
 11
3.3615463166
 21
14.6400207452
  0
LINE
  5
4F4
100
AcDbEntity
  8
0
100
AcDbLine
 62
7
  6
CONTINUOUS
 10
3.3315463166
 20
14.6400207452
 11
3.2965463166
 21
14.6400207452
  0
LINE
  5
4F5
100
AcDbEntity
  8
0
100
AcDbLine
 62
7
  6
CONTINUOUS
 10
6.5115463166
 20
14.6750207452
 11
6.4815463166
 21
14.6750207452
  0
LINE
  5
4F6
100
AcDbEntity
  8
0
100
AcDbLine
 62
7
  6
CONTINUOUS
 10
3.3615463166
 20
14.6750207452
 11
3.3315463166
 21
14.6750207452
  0
LINE
  5
4F7
100
AcDbEntity
  8
0
100
AcDbLine
 62
7
  6
CONTINUOUS
 10
7.0215463166
 20
14.8000207452
 11
2.8215463166
 21
14.8000207452
  0
LINE
  5
4F8
100
AcDbEntity
  8
SURFACE
100
AcDbLine
 62
7
  6
CONTINUOUS
 10
2.7485463166
 20
14.8250207452
 11
7.0945463166
 21
14.8250207452
  0
LINE
  5
4F9
100
AcDbEntity
  8
SURFACE
100
AcDbLine
 62
7
  6
CONTINUOUS
 10
2.7485463166
 20
14.8730207452
 11
7.0945463166
 21
14.8730207452
  0
LINE
  5
4FA
100
AcDbEntity
  8
02___PRT_ALL_AXES
100
AcDbLine
 62
7
  6
CONTINUOUS
 10
9.9095463166
 20
13.1366349185
 11
9.9095463166
 21
12.963406572
  0
LINE
  5
4FB
100
AcDbEntity
  8
SURFACE
100
AcDbLine
 62
7
  6
CONTINUOUS
 10
12.8995694451
 20
8.2957316312
 11
12.8995694451
 21
9.1967316312
  0
LINE
  5
4FC
100
AcDbEntity
  8
SURFACE
100
AcDbLine
 62
7
  6
CONTINUOUS
 10
12.9475694451
 20
8.3097316312
 11
12.9475694451
 21
8.2117316312
  0
LINE
  5
4FD
100
AcDbEntity
  8
SURFACE
100
AcDbLine
 62
7
  6
CONTINUOUS
 10
12.9475694451
 20
8.3097316312
 11
12.9475694451
 21
9.1967316312
  0
LINE
  5
4FE
100
AcDbEntity
  8
SURFACE
100
AcDbLine
 62
7
  6
CONTINUOUS
 10
12.9475694451
 20
8.2531677521
 11
12.9293239793
 21
8.2315956081
  0
LINE
  5
4FF
100
AcDbEntity
  8
SURFACE
100
AcDbLine
 62
7
  6
CONTINUOUS
 10
12.9475694451
 20
8.2117316312
 11
16.4975694451
 21
8.2117316312
  0
LINE
  5
500
100
AcDbEntity
  8
SURFACE
100
AcDbLine
 62
7
  6
CONTINUOUS
 10
12.9475694451
 20
8.2957316312
 11
12.8995694451
 21
8.2957316312
  0
LINE
  5
501
100
AcDbEntity
  8
SURFACE
100
AcDbLine
 62
7
  6
CONTINUOUS
 10
16.4975694451
 20
8.2957316312
 11
16.5455694451
 21
8.2957316312
  0
LINE
  5
502
100
AcDbEntity
  8
SURFACE
100
AcDbLine
 62
7
  6
CONTINUOUS
 10
12.9475694451
 20
8.3017316312
 11
16.4975694451
 21
8.3017316312
  0
LINE
  5
503
100
AcDbEntity
  8
SURFACE
100
AcDbLine
 62
7
  6
CONTINUOUS
 10
12.9475694451
 20
8.3097316312
 11
12.8995694451
 21
8.3097316312
  0
LINE
  5
504
100
AcDbEntity
  8
SURFACE
100
AcDbLine
 62
7
  6
CONTINUOUS
 10
16.4975694451
 20
8.3097316312
 11
16.5455694451
 21
8.3097316312
  0
LINE
  5
505
100
AcDbEntity
  8
0
100
AcDbLine
 62
7
  6
CONTINUOUS
 10
14.7846893516
 20
8.5867316312
 11
14.7797482907
 21
8.5867316312
  0
LINE
  5
506
100
AcDbEntity
  8
0
100
AcDbLine
 62
7
  6
CONTINUOUS
 10
14.6653905995
 20
8.5867316312
 11
14.6604495385
 21
8.5867316312
  0
LINE
  5
507
100
AcDbEntity
  8
AXIS_COSMETIC_THREADS
100
AcDbLine
 62
7
  6
CENTER
 10
14.7225694451
 20
8.6517316312
 11
14.7225694451
 21
8.3517316312
  0
LINE
  5
508
100
AcDbEntity
  8
AXIS_COSMETIC_THREADS
100
AcDbLine
 62
7
  6
CENTER
 10
14.7225694451
 20
8.6517316312
 11
14.7225694451
 21
8.9517316312
  0
LINE
  5
509
100
AcDbEntity
  8
AXIS_COSMETIC_THREADS
100
AcDbLine
 62
7
  6
CENTER
 10
14.7225694451
 20
8.6517316312
 11
14.4225694451
 21
8.6517316312
  0
LINE
  5
50A
100
AcDbEntity
  8
AXIS_COSMETIC_THREADS
100
AcDbLine
 62
7
  6
CENTER
 10
14.7225694451
 20
8.6517316312
 11
15.0225694451
 21
8.6517316312
  0
LINE
  5
50B
100
AcDbEntity
  8
SURFACE
100
AcDbLine
 62
7
  6
CONTINUOUS
 10
12.8995694451
 20
9.1967316312
 11
16.5455694451
 21
9.1967316312
  0
LINE
  5
50C
100
AcDbEntity
  8
AXIS_COSMETIC_THREADS
100
AcDbLine
 62
7
  6
CONTINUOUS
 10
13.0740902875
 20
9.2067316312
 11
13.2210486027
 21
9.2067316312
  0
LINE
  5
50D
100
AcDbEntity
  8
AXIS_COSMETIC_THREADS
100
AcDbLine
 62
7
  6
CONTINUOUS
 10
16.2240902875
 20
9.2067316312
 11
16.3710486027
 21
9.2067316312
  0
LINE
  5
50E
100
AcDbEntity
  8
SURFACE
100
AcDbLine
 62
7
  6
CONTINUOUS
 10
16.4975694451
 20
8.2531677521
 11
16.5158149108
 21
8.2315956081
  0
LINE
  5
50F
100
AcDbEntity
  8
SURFACE
100
AcDbLine
 62
7
  6
CONTINUOUS
 10
16.4975694451
 20
9.1967316312
 11
16.4975694451
 21
8.3097316312
  0
LINE
  5
510
100
AcDbEntity
  8
SURFACE
100
AcDbLine
 62
7
  6
CONTINUOUS
 10
16.4975694451
 20
8.2117316312
 11
16.4975694451
 21
8.3097316312
  0
LINE
  5
511
100
AcDbEntity
  8
SURFACE
100
AcDbLine
 62
7
  6
CONTINUOUS
 10
16.5455694451
 20
9.1967316312
 11
16.5455694451
 21
8.2957316312
  0
LINE
  5
512
100
AcDbEntity
  8
SURFACE
100
AcDbLine
 62
7
  6
CONTINUOUS
 10
2.7485463166
 20
2.6247271434
 11
2.7485463166
 21
6.2707271434
  0
LINE
  5
513
100
AcDbEntity
  8
SURFACE
100
AcDbLine
 62
7
  6
CONTINUOUS
 10
2.8385463166
 20
2.6247271434
 11
2.8385463166
 21
2.7087271434
  0
LINE
  5
514
100
AcDbEntity
  8
SURFACE
100
AcDbLine
 62
7
  6
CONTINUOUS
 10
2.8385463166
 20
2.7087271434
 11
2.8385463166
 21
6.1867271434
  0
LINE
  5
515
100
AcDbEntity
  8
SURFACE
100
AcDbLine
 62
7
  6
CONTINUOUS
 10
2.8385463166
 20
6.1867271434
 11
2.8385463166
 21
6.2707271434
  0
LINE
  5
516
100
AcDbEntity
  8
AXIS_COSMETIC_THREADS
100
AcDbLine
 62
7
  6
CENTER
 10
3.0715463166
 20
5.6477271434
 11
3.0715463166
 21
3.4145343516
  0
LINE
  5
517
100
AcDbEntity
  8
AXIS_COSMETIC_THREADS
100
AcDbLine
 62
7
  6
CENTER
 10
3.0715463166
 20
3.2477271434
 11
3.0715463166
 21
2.9912310804
  0
LINE
  5
518
100
AcDbEntity
  8
AXIS_COSMETIC_THREADS
100
AcDbLine
 62
7
  6
CENTER
 10
3.0715463166
 20
3.2477271434
 11
3.0715463166
 21
3.4145343516
  0
LINE
  5
519
100
AcDbEntity
  8
AXIS_COSMETIC_THREADS
100
AcDbLine
 62
7
  6
CENTER
 10
3.0715463166
 20
5.6477271434
 11
3.0715463166
 21
5.9042232064
  0
LINE
  5
51A
100
AcDbEntity
  8
SURFACE
100
AcDbLine
 62
7
  6
CONTINUOUS
 10
7.0945463166
 20
2.6247271434
 11
2.7485463166
 21
2.6247271434
  0
LINE
  5
51B
100
AcDbEntity
  8
SURFACE
100
AcDbLine
 62
7
  6
CONTINUOUS
 10
7.0945463166
 20
2.6727271434
 11
7.0045463166
 21
2.6727271434
  0
LINE
  5
51C
100
AcDbEntity
  8
SURFACE
100
AcDbLine
 62
7
  6
CONTINUOUS
 10
2.7485463166
 20
2.6727271434
 11
2.8385463166
 21
2.6727271434
  0
LINE
  5
51D
100
AcDbEntity
  8
SURFACE
100
AcDbLine
 62
7
  6
CONTINUOUS
 10
7.0045463166
 20
2.7087271434
 11
2.8385463166
 21
2.7087271434
  0
LINE
  5
51E
100
AcDbEntity
  8
AXIS_COSMETIC_THREADS
100
AcDbLine
 62
7
  6
CENTER
 10
6.7715463166
 20
3.2477271434
 11
3.2229390532
 21
3.2477271434
  0
LINE
  5
51F
100
AcDbEntity
  8
AXIS_COSMETIC_THREADS
100
AcDbLine
 62
7
  6
CENTER
 10
3.0715463166
 20
3.2477271434
 11
2.8150502536
 21
3.2477271434
  0
LINE
  5
520
100
AcDbEntity
  8
AXIS_COSMETIC_THREADS
100
AcDbLine
 62
7
  6
CENTER
 10
3.0715463166
 20
3.2477271434
 11
3.2229390532
 21
3.2477271434
  0
LINE
  5
521
100
AcDbEntity
  8
AXIS_COSMETIC_THREADS
100
AcDbLine
 62
7
  6
CENTER
 10
6.7715463166
 20
3.2477271434
 11
7.0280423796
 21
3.2477271434
  0
LINE
  5
522
100
AcDbEntity
  8
AXIS_COSMETIC_THREADS
100
AcDbLine
 62
7
  6
CONTINUOUS
 10
7.1035463166
 20
4.2477271434
 11
7.0945463166
 21
4.2477271434
  0
LINE
  5
523
100
AcDbEntity
  8
02___PRT_ALL_AXES
100
AcDbLine
 62
7
  6
CONTINUOUS
 10
7.1635463166
 20
4.3611129702
 11
9.9095463166
 21
4.3611129702
  0
LINE
  5
524
100
AcDbEntity
  8
02___PRT_ALL_AXES
100
AcDbLine
 62
7
  6
CONTINUOUS
 10
7.1635463166
 20
4.5343413167
 11
9.9095463166
 21
4.5343413167
  0
LINE
  5
525
100
AcDbEntity
  8
AXIS_COSMETIC_THREADS
100
AcDbLine
 62
7
  6
CONTINUOUS
 10
7.1035463166
 20
4.6477271434
 11
7.0945463166
 21
4.6477271434
  0
LINE
  5
526
100
AcDbEntity
  8
AXIS_COSMETIC_THREADS
100
AcDbLine
 62
7
  6
CENTER
 10
6.7715463166
 20
5.6477271434
 11
6.7715463166
 21
5.3912310804
  0
LINE
  5
527
100
AcDbEntity
  8
AXIS_COSMETIC_THREADS
100
AcDbLine
 62
7
  6
CENTER
 10
6.7715463166
 20
3.2477271434
 11
6.7715463166
 21
2.9912310804
  0
LINE
  5
528
100
AcDbEntity
  8
AXIS_COSMETIC_THREADS
100
AcDbLine
 62
7
  6
CENTER
 10
6.7715463166
 20
3.2477271434
 11
6.7715463166
 21
5.3912310804
  0
LINE
  5
529
100
AcDbEntity
  8
AXIS_COSMETIC_THREADS
100
AcDbLine
 62
7
  6
CENTER
 10
6.7715463166
 20
5.6477271434
 11
6.7715463166
 21
5.9042232064
  0
LINE
  5
52A
100
AcDbEntity
  8
SURFACE
100
AcDbLine
 62
7
  6
CONTINUOUS
 10
7.0045463166
 20
6.2707271434
 11
7.0045463166
 21
6.1867271434
  0
LINE
  5
52B
100
AcDbEntity
  8
SURFACE
100
AcDbLine
 62
7
  6
CONTINUOUS
 10
7.0045463166
 20
6.1867271434
 11
7.0045463166
 21
2.7087271434
  0
LINE
  5
52C
100
AcDbEntity
  8
SURFACE
100
AcDbLine
 62
7
  6
CONTINUOUS
 10
7.0045463166
 20
2.6247271434
 11
7.0045463166
 21
2.7087271434
  0
LINE
  5
52D
100
AcDbEntity
  8
SURFACE
100
AcDbLine
 62
7
  6
CONTINUOUS
 10
7.0945463166
 20
2.6247271434
 11
7.0945463166
 21
6.2707271434
  0
LINE
  5
52E
100
AcDbEntity
  8
AXIS_COSMETIC_THREADS
100
AcDbLine
 62
7
  6
CONTINUOUS
 10
7.1035463166
 20
4.2477271434
 11
7.1035463166
 21
4.6477271434
  0
LINE
  5
52F
100
AcDbEntity
  8
AXIS_COSMETIC_THREADS
100
AcDbLine
 62
7
  6
CONTINUOUS
 10
7.1635463166
 20
4.3077271434
 11
7.1635463166
 21
4.5877271434
  0
LINE
  5
530
100
AcDbEntity
  8
AXIS_COSMETIC_THREADS
100
AcDbLine
 62
7
  6
CENTER
 10
6.7715463166
 20
5.6477271434
 11
6.5150502536
 21
5.6477271434
  0
LINE
  5
531
100
AcDbEntity
  8
AXIS_COSMETIC_THREADS
100
AcDbLine
 62
7
  6
CENTER
 10
3.0715463166
 20
5.6477271434
 11
2.8150502536
 21
5.6477271434
  0
LINE
  5
532
100
AcDbEntity
  8
AXIS_COSMETIC_THREADS
100
AcDbLine
 62
7
  6
CENTER
 10
3.0715463166
 20
5.6477271434
 11
6.5150502536
 21
5.6477271434
  0
LINE
  5
533
100
AcDbEntity
  8
AXIS_COSMETIC_THREADS
100
AcDbLine
 62
7
  6
CENTER
 10
6.7715463166
 20
5.6477271434
 11
7.0280423796
 21
5.6477271434
  0
LINE
  5
534
100
AcDbEntity
  8
SURFACE
100
AcDbLine
 62
7
  6
CONTINUOUS
 10
2.8385463166
 20
6.1867271434
 11
7.0045463166
 21
6.1867271434
  0
LINE
  5
535
100
AcDbEntity
  8
SURFACE
100
AcDbLine
 62
7
  6
CONTINUOUS
 10
7.0945463166
 20
6.2227271434
 11
7.0045463166
 21
6.2227271434
  0
LINE
  5
536
100
AcDbEntity
  8
SURFACE
100
AcDbLine
 62
7
  6
CONTINUOUS
 10
2.7485463166
 20
6.2227271434
 11
2.8385463166
 21
6.2227271434
  0
LINE
  5
537
100
AcDbEntity
  8
SURFACE
100
AcDbLine
 62
7
  6
CONTINUOUS
 10
2.7485463166
 20
6.2707271434
 11
7.0945463166
 21
6.2707271434
  0
LINE
  5
538
100
AcDbEntity
  8
02___PRT_ALL_AXES
100
AcDbLine
 62
7
  6
CONTINUOUS
 10
9.9095463166
 20
4.5343413167
 11
9.9095463166
 21
4.3611129702
  0
CIRCLE
  5
539
100
AcDbEntity
  8
0
100
AcDbCircle
 62
7
  6
CONTINUOUS
 10
15.2229827477
 20
1.1139932523
 40
0.252091
  0
CIRCLE
  5
53A
100
AcDbEntity
  8
0
100
AcDbCircle
 62
7
  6
CONTINUOUS
 10
15.2229827477
 20
1.1139932523
 40
0.182698
  0
CIRCLE
  5
53B
100
AcDbEntity
  8
0
100
AcDbCircle
 62
7
  6
CONTINUOUS
 10
14.8013422688
 20
1.8652439144
 40
0.0638444824
  0
ARC
  5
53C
100
AcDbEntity
  8
SURFACE
100
AcDbCircle
 62
7
  6
CONTINUOUS
 10
14.2520536064
 20
13.0230921058
 40
0.1552291233
100
AcDbArc
 50
207.4577127253
 51
211.855825156
  0
ARC
  5
53D
100
AcDbEntity
  8
AXIS_COSMETIC_THREADS
100
AcDbCircle
 62
7
  6
CONTINUOUS
 10
14.6568239136
 20
13.6142387356
 40
0.1533822829
100
AcDbArc
 50
253.6895207586
 51
254.2638708303
  0
ARC
  5
53E
100
AcDbEntity
  8
AXIS_COSMETIC_THREADS
100
AcDbCircle
 62
7
  6
CONTINUOUS
 10
16.8842195478
 20
12.3282803589
 40
0.1533822829
100
AcDbArc
 50
253.6895207586
 51
254.2638708303
  0
ARC
  5
53F
100
AcDbEntity
  8
AXIS_COSMETIC_THREADS
100
AcDbCircle
 62
7
  6
CONTINUOUS
 10
16.8842010008
 20
14.9002078202
 40
0.1533822828
100
AcDbArc
 50
253.6895207584
 51
254.2638708305
  0
ARC
  5
540
100
AcDbEntity
  8
AXIS_COSMETIC_THREADS
100
AcDbCircle
 62
7
  6
CONTINUOUS
 10
19.111596635
 20
13.6142494434
 40
0.1533822827
100
AcDbArc
 50
253.6895207581
 51
254.2638708304
  0
ARC
  5
541
100
AcDbEntity
  8
AXIS_COSMETIC_THREADS
100
AcDbCircle
 62
7
  6
CONTINUOUS
 10
18.3670644066
 20
12.1255338302
 40
0.0670000653
100
AcDbArc
 50
233.7221522183
 51
239.9913558992
  0
ARC
  5
542
100
AcDbEntity
  8
AXIS_COSMETIC_THREADS
100
AcDbCircle
 62
7
  6
CONTINUOUS
 10
18.5001226648
 20
12.356016558
 40
0.0668668285
100
AcDbArc
 50
60.0038511216
 51
66.2436620954
  0
ARC
  5
543
100
AcDbEntity
  8
SURFACE
100
AcDbCircle
 62
7
  6
CONTINUOUS
 10
7.0045463166
 20
8.3017316312
 40
0.09
100
AcDbArc
 50
270.0
 51
360.0
  0
ARC
  5
544
100
AcDbEntity
  8
SURFACE
100
AcDbCircle
 62
7
  6
CONTINUOUS
 10
2.8385463166
 20
8.3017316312
 40
0.09
100
AcDbArc
 50
180.0
 51
270.0
  0
ARC
  5
545
100
AcDbEntity
  8
AXIS_COSMETIC_THREADS
100
AcDbCircle
 62
7
  6
CONTINUOUS
 10
3.3960463166
 20
9.1517316312
 40
0.06
100
AcDbArc
 50
48.6950506109
 51
66.4435356909
  0
ARC
  5
546
100
AcDbEntity
  8
AXIS_COSMETIC_THREADS
100
AcDbCircle
 62
7
  6
CONTINUOUS
 10
3.2970463166
 20
9.1517316312
 40
0.06
100
AcDbArc
 50
113.5564643091
 51
131.3049493891
  0
ARC
  5
547
100
AcDbEntity
  8
AXIS_COSMETIC_THREADS
100
AcDbCircle
 62
7
  6
CONTINUOUS
 10
6.5460463166
 20
9.1517316312
 40
0.06
100
AcDbArc
 50
48.6950506109
 51
66.4435356909
  0
ARC
  5
548
100
AcDbEntity
  8
AXIS_COSMETIC_THREADS
100
AcDbCircle
 62
7
  6
CONTINUOUS
 10
6.4470463166
 20
9.1517316312
 40
0.06
100
AcDbArc
 50
113.5564643091
 51
131.3049493891
  0
ARC
  5
549
100
AcDbEntity
  8
AXIS_COSMETIC_THREADS
100
AcDbCircle
 62
7
  6
CONTINUOUS
 10
7.1035463166
 20
8.7917316312
 40
0.06
100
AcDbArc
 50
0.0
 51
90.0
  0
ARC
  5
54A
100
AcDbEntity
  8
AXIS_COSMETIC_THREADS
100
AcDbCircle
 62
7
  6
CONTINUOUS
 10
7.1035463166
 20
8.5117316312
 40
0.06
100
AcDbArc
 50
270.0
 51
360.0
  0
ARC
  5
54B
100
AcDbEntity
  8
SURFACE
100
AcDbCircle
 62
7
  6
CONTINUOUS
 10
7.0045463166
 20
8.3017316312
 40
0.042
100
AcDbArc
 50
270.0
 51
360.0
  0
ARC
  5
54C
100
AcDbEntity
  8
SURFACE
100
AcDbCircle
 62
7
  6
CONTINUOUS
 10
2.8385463166
 20
8.3017316312
 40
0.042
100
AcDbArc
 50
180.0
 51
270.0
  0
CIRCLE
  5
54D
100
AcDbEntity
  8
AXIS_COSMETIC_THREADS
100
AcDbCircle
 62
7
  6
CONTINUOUS
 10
3.3465463166
 20
14.6250207452
 40
0.1095
  0
CIRCLE
  5
54E
100
AcDbEntity
  8
AXIS_COSMETIC_THREADS
100
AcDbCircle
 62
7
  6
CONTINUOUS
 10
6.4965463166
 20
14.6250207452
 40
0.1095
  0
CIRCLE
  5
54F
100
AcDbEntity
  8
AXIS_COSMETIC_THREADS
100
AcDbCircle
 62
7
  6
CONTINUOUS
 10
6.4965463166
 20
11.4750207452
 40
0.1095
  0
CIRCLE
  5
550
100
AcDbEntity
  8
AXIS_COSMETIC_THREADS
100
AcDbCircle
 62
7
  6
CONTINUOUS
 10
3.3465463166
 20
11.4750207452
 40
0.1095
  0
CIRCLE
  5
551
100
AcDbEntity
  8
AXIS_COSMETIC_THREADS
100
AcDbCircle
 62
7
  6
CONTINUOUS
 10
3.3465463166
 20
14.6250207452
 40
0.0734791576
  0
CIRCLE
  5
552
100
AcDbEntity
  8
AXIS_COSMETIC_THREADS
100
AcDbCircle
 62
7
  6
CONTINUOUS
 10
6.4965463166
 20
14.6250207452
 40
0.0734791576
  0
CIRCLE
  5
553
100
AcDbEntity
  8
AXIS_COSMETIC_THREADS
100
AcDbCircle
 62
7
  6
CONTINUOUS
 10
6.4965463166
 20
11.4750207452
 40
0.0734791576
  0
CIRCLE
  5
554
100
AcDbEntity
  8
AXIS_COSMETIC_THREADS
100
AcDbCircle
 62
7
  6
CONTINUOUS
 10
3.3465463166
 20
11.4750207452
 40
0.0734791576
  0
ARC
  5
555
100
AcDbEntity
  8
AXIS_COSMETIC_THREADS
100
AcDbCircle
 62
7
  6
CONTINUOUS
 10
7.1035463166
 20
12.9100207452
 40
0.06
100
AcDbArc
 50
270.0
 51
360.0
  0
ARC
  5
556
100
AcDbEntity
  8
AXIS_COSMETIC_THREADS
100
AcDbCircle
 62
7
  6
CONTINUOUS
 10
7.1035463166
 20
13.1900207452
 40
0.06
100
AcDbArc
 50
0.0
 51
90.0
  0
CIRCLE
  5
557
100
AcDbEntity
  8
AXIS_COSMETIC_THREADS
100
AcDbCircle
 62
7
  6
CONTINUOUS
 10
14.7225694451
 20
8.6517316312
 40
0.2
  0
CIRCLE
  5
558
100
AcDbEntity
  8
AXIS_COSMETIC_THREADS
100
AcDbCircle
 62
7
  6
CONTINUOUS
 10
14.7225694451
 20
8.6517316312
 40
0.14
  0
CIRCLE
  5
559
100
AcDbEntity
  8
AXIS_COSMETIC_THREADS
100
AcDbCircle
 62
7
  6
CONTINUOUS
 10
14.7225694451
 20
8.6517316312
 40
0.09
  0
CIRCLE
  5
55A
100
AcDbEntity
  8
02___PRT_ALL_AXES
100
AcDbCircle
 62
7
  6
CONTINUOUS
 10
14.7225694451
 20
8.6517316312
 40
0.0866141732
  0
ARC
  5
55B
100
AcDbEntity
  8
SURFACE
100
AcDbCircle
 62
7
  6
CONTINUOUS
 10
16.4615694451
 20
8.2957316312
 40
0.084
100
AcDbArc
 50
295.4460199192
 51
360.0
  0
ARC
  5
55C
100
AcDbEntity
  8
SURFACE
100
AcDbCircle
 62
7
  6
CONTINUOUS
 10
12.9835694451
 20
8.2957316312
 40
0.084
100
AcDbArc
 50
180.0
 51
244.5539800808
  0
ARC
  5
55D
100
AcDbEntity
  8
AXIS_COSMETIC_THREADS
100
AcDbCircle
 62
7
  6
CONTINUOUS
 10
16.2480694451
 20
9.1517316312
 40
0.06
100
AcDbArc
 50
113.5564643091
 51
131.3049493891
  0
ARC
  5
55E
100
AcDbEntity
  8
AXIS_COSMETIC_THREADS
100
AcDbCircle
 62
7
  6
CONTINUOUS
 10
16.3470694451
 20
9.1517316312
 40
0.06
100
AcDbArc
 50
48.6950506109
 51
66.4435356909
  0
ARC
  5
55F
100
AcDbEntity
  8
AXIS_COSMETIC_THREADS
100
AcDbCircle
 62
7
  6
CONTINUOUS
 10
13.0980694451
 20
9.1517316312
 40
0.06
100
AcDbArc
 50
113.5564643091
 51
131.3049493891
  0
ARC
  5
560
100
AcDbEntity
  8
AXIS_COSMETIC_THREADS
100
AcDbCircle
 62
7
  6
CONTINUOUS
 10
13.1970694451
 20
9.1517316312
 40
0.06
100
AcDbArc
 50
48.6950506109
 51
66.4435356909
  0
CIRCLE
  5
561
100
AcDbEntity
  8
AXIS_COSMETIC_THREADS
100
AcDbCircle
 62
7
  6
CONTINUOUS
 10
3.0715463166
 20
3.2477271434
 40
0.106
  0
CIRCLE
  5
562
100
AcDbEntity
  8
DEFAULT_2
100
AcDbCircle
 62
7
  6
HIDDEN
 10
3.0715463166
 20
3.2477271434
 40
0.0787401575
  0
CIRCLE
  5
563
100
AcDbEntity
  8
0
100
AcDbCircle
 62
7
  6
CONTINUOUS
 10
3.3465463166
 20
2.8727271434
 40
0.0754999999
  0
CIRCLE
  5
564
100
AcDbEntity
  8
0
100
AcDbCircle
 62
7
  6
CONTINUOUS
 10
3.3465463166
 20
2.8727271434
 40
0.0625
  0
CIRCLE
  5
565
100
AcDbEntity
  8
AXIS_COSMETIC_THREADS
100
AcDbCircle
 62
7
  6
CONTINUOUS
 10
3.0715463166
 20
3.2477271434
 40
0.0590551181
  0
CIRCLE
  5
566
100
AcDbEntity
  8
AXIS_COSMETIC_THREADS
100
AcDbCircle
 62
7
  6
CONTINUOUS
 10
3.0715463166
 20
5.6477271434
 40
0.106
  0
CIRCLE
  5
567
100
AcDbEntity
  8
DEFAULT_2
100
AcDbCircle
 62
7
  6
HIDDEN
 10
3.0715463166
 20
5.6477271434
 40
0.0787401575
  0
CIRCLE
  5
568
100
AcDbEntity
  8
0
100
AcDbCircle
 62
7
  6
CONTINUOUS
 10
3.3465463166
 20
6.0227271434
 40
0.0754999999
  0
CIRCLE
  5
569
100
AcDbEntity
  8
0
100
AcDbCircle
 62
7
  6
CONTINUOUS
 10
3.3465463166
 20
6.0227271434
 40
0.0625
  0
CIRCLE
  5
56A
100
AcDbEntity
  8
AXIS_COSMETIC_THREADS
100
AcDbCircle
 62
7
  6
CONTINUOUS
 10
3.0715463166
 20
5.6477271434
 40
0.0590551181
  0
CIRCLE
  5
56B
100
AcDbEntity
  8
AXIS_COSMETIC_THREADS
100
AcDbCircle
 62
7
  6
CONTINUOUS
 10
6.7715463166
 20
3.2477271434
 40
0.106
  0
CIRCLE
  5
56C
100
AcDbEntity
  8
DEFAULT_2
100
AcDbCircle
 62
7
  6
HIDDEN
 10
6.7715463166
 20
3.2477271434
 40
0.0787401575
  0
CIRCLE
  5
56D
100
AcDbEntity
  8
0
100
AcDbCircle
 62
7
  6
CONTINUOUS
 10
6.4965463166
 20
2.8727271434
 40
0.0754999999
  0
CIRCLE
  5
56E
100
AcDbEntity
  8
0
100
AcDbCircle
 62
7
  6
CONTINUOUS
 10
6.4965463166
 20
2.8727271434
 40
0.0625
  0
ARC
  5
56F
100
AcDbEntity
  8
AXIS_COSMETIC_THREADS
100
AcDbCircle
 62
7
  6
CONTINUOUS
 10
7.1035463166
 20
4.3077271434
 40
0.06
100
AcDbArc
 50
270.0
 51
360.0
  0
CIRCLE
  5
570
100
AcDbEntity
  8
AXIS_COSMETIC_THREADS
100
AcDbCircle
 62
7
  6
CONTINUOUS
 10
6.7715463166
 20
3.2477271434
 40
0.0590551181
  0
CIRCLE
  5
571
100
AcDbEntity
  8
AXIS_COSMETIC_THREADS
100
AcDbCircle
 62
7
  6
CONTINUOUS
 10
6.7715463166
 20
5.6477271434
 40
0.106
  0
CIRCLE
  5
572
100
AcDbEntity
  8
DEFAULT_2
100
AcDbCircle
 62
7
  6
HIDDEN
 10
6.7715463166
 20
5.6477271434
 40
0.0787401575
  0
CIRCLE
  5
573
100
AcDbEntity
  8
0
100
AcDbCircle
 62
7
  6
CONTINUOUS
 10
6.4965463166
 20
6.0227271434
 40
0.0754999999
  0
CIRCLE
  5
574
100
AcDbEntity
  8
0
100
AcDbCircle
 62
7
  6
CONTINUOUS
 10
6.4965463166
 20
6.0227271434
 40
0.0625
  0
ARC
  5
575
100
AcDbEntity
  8
AXIS_COSMETIC_THREADS
100
AcDbCircle
 62
7
  6
CONTINUOUS
 10
7.1035463166
 20
4.5877271434
 40
0.06
100
AcDbArc
 50
0.0
 51
90.0
  0
CIRCLE
  5
576
100
AcDbEntity
  8
AXIS_COSMETIC_THREADS
100
AcDbCircle
 62
7
  6
CONTINUOUS
 10
6.7715463166
 20
5.6477271434
 40
0.0590551181
  0
SPLINE
  5
577
100
AcDbEntity
  8
AXIS_COSMETIC_THREADS
100
AcDbSpline
 62
7
  6
CONTINUOUS
 70
0
 71
3
 72
11
 73
7
 74
0
 42
0.0000001
 43
0.0000001
 44
0.0000000001
 40
0.0
 40
0.0
 40
0.0
 40
0.0
 40
0.2375217529
 40
0.4838414541
 40
0.7382320154
 40
1.0
 40
1.0
 40
1.0
 40
1.0
 10
16.9680597247
 20
14.7646850065
 30
0.0
 10
16.9659862171
 20
14.7634878735
 30
0.0
 10
16.961676537
 20
14.7611955324
 30
0.0
 10
16.9548953786
 20
14.758120222
 30
0.0
 10
16.9477167803
 20
14.7553625474
 30
0.0
 10
16.9427610069
 20
14.7537680962
 30
0.0
 10
16.9402289996
 20
14.7530254013
 30
0.0
  0
SPLINE
  5
578
100
AcDbEntity
  8
AXIS_COSMETIC_THREADS
100
AcDbSpline
 62
7
  6
CONTINUOUS
 70
0
 71
3
 72
19
 73
15
 74
0
 42
0.0000001
 43
0.0000001
 44
0.0000000001
 40
0.0
 40
0.0
 40
0.0
 40
0.0
 40
0.1208780135
 40
0.2450951484
 40
0.3716196811
 40
0.4993534244
 40
0.5633298702
 40
0.6271838171
 40
0.690773953
 40
0.7539608238
 40
0.8166073169
 40
0.8785807921
 40
0.9397523151
 40
1.0
 40
1.0
 40
1.0
 40
1.0
 10
16.9402289996
 20
14.7530254013
 30
0.0
 10
16.9364079155
 20
14.7519045912
 30
0.0
 10
16.9285685494
 20
14.7499347467
 30
0.0
 10
16.9165016457
 20
14.7478142271
 30
0.0
 10
16.9040927069
 20
14.7465069956
 30
0.0
 10
16.8936081915
 20
14.7461100617
 30
0.0
 10
16.885188508
 20
14.7462114607
 30
0.0
 10
16.878887824
 20
14.7464976955
 30
0.0
 10
16.872626302
 20
14.7469933748
 30
0.0
 10
16.8664246513
 20
14.7476964697
 30
0.0
 10
16.8603035805
 20
14.7486050836
 30
0.0
 10
16.8542833573
 20
14.7497157373
 30
0.0
 10
16.848384181
 20
14.7510251553
 30
0.0
 10
16.8445129287
 20
14.752035878
 30
0.0
 10
16.8426025846
 20
14.752574164
 30
0.0
  0
SPLINE
  5
579
100
AcDbEntity
  8
AXIS_COSMETIC_THREADS
100
AcDbSpline
 62
7
  6
CONTINUOUS
 70
0
 71
3
 72
23
 73
19
 74
0
 42
0.0000001
 43
0.0000001
 44
0.0000000001
 40
0.0
 40
0.0
 40
0.0
 40
0.0
 40
0.0787897829
 40
0.1556745202
 40
0.2304768769
 40
0.3030471871
 40
0.3732645526
 40
0.4410431463
 40
0.5063363223
 40
0.5691410164
 40
0.6295052629
 40
0.6875301981
 40
0.7433790021
 40
0.7972758035
 40
0.8495108319
 40
0.900433972
 40
0.950449235
 40
1.0
 40
1.0
 40
1.0
 40
1.0
 10
16.8411247753
 20
14.7529985696
 30
0.0
 10
16.8389082563
 20
14.7536472096
 30
0.0
 10
16.8345572123
 20
14.755028686
 30
0.0
 10
16.8282214697
 20
14.7573810265
 30
0.0
 10
16.8221801936
 20
14.7599795308
 30
0.0
 10
16.8164618609
 20
14.7628116155
 30
0.0
 10
16.8110934448
 20
14.7658643737
 30
0.0
 10
16.8061001559
 20
14.7691234943
 30
0.0
 10
16.8015054973
 20
14.7725739265
 30
0.0
 10
16.7973312868
 20
14.7761999573
 30
0.0
 10
16.7935971322
 20
14.7799847362
 30
0.0
 10
16.7903213375
 20
14.7839113677
 30
0.0
 10
16.7875194739
 20
14.7879615238
 30
0.0
 10
16.7852062244
 20
14.7921170279
 30
0.0
 10
16.7833931178
 20
14.7963580861
 30
0.0
 10
16.7820907041
 20
14.8006649521
 30
0.0
 10
16.7813060023
 20
14.8050154757
 30
0.0
 10
16.7811312115
 20
14.8079369041
 30
0.0
 10
16.7811312503
 20
14.8093893313
 30
0.0
  0
SPLINE
  5
57A
100
AcDbEntity
  8
AXIS_COSMETIC_THREADS
100
AcDbSpline
 62
7
  6
CONTINUOUS
 70
0
 71
3
 72
20
 73
16
 74
0
 42
0.0000001
 43
0.0000001
 44
0.0000000001
 40
0.0
 40
0.0
 40
0.0
 40
0.0
 40
0.0752254456
 40
0.1485782107
 40
0.2894346172
 40
0.4226023805
 40
0.4864447708
 40
0.5485391903
 40
0.6678535922
 40
0.7254313551
 40
0.7818315355
 40
0.8372570493
 40
0.8919311993
 40
0.9460949153
 40
1.0
 40
1.0
 40
1.0
 40
1.0
 10
16.9680597247
 20
14.7646850065
 30
0.0
 10
16.969310446
 20
14.7654071065
 30
0.0
 10
16.9717512115
 20
14.7668855172
 30
0.0
 10
16.9763720901
 20
14.7699741451
 30
0.0
 10
16.9816547872
 20
14.7740631488
 30
0.0
 10
16.9863510897
 20
14.7785585094
 30
0.0
 10
16.9896252939
 20
14.7823074126
 30
0.0
 10
16.9924974824
 20
14.7860409882
 30
0.0
 10
16.9949374783
 20
14.7899473423
 30
0.0
 10
16.9968781683
 20
14.7939877288
 30
0.0
 10
16.9980607141
 20
14.7970210347
 30
0.0
 10
16.9989838909
 20
14.8000849063
 30
0.0
 10
16.9996449506
 20
14.803172165
 30
0.0
 10
17.0000425974
 20
14.8062746967
 30
0.0
 10
17.0001311416
 20
14.8083505167
 30
0.0
 10
17.0001311693
 20
14.8093854069
 30
0.0
  0
SPLINE
  5
57B
100
AcDbEntity
  8
AXIS_COSMETIC_THREADS
100
AcDbSpline
 62
7
  6
CONTINUOUS
 70
0
 71
3
 72
24
 73
20
 74
0
 42
0.0000001
 43
0.0000001
 44
0.0000000001
 40
0.0
 40
0.0
 40
0.0
 40
0.0
 40
0.0628172546
 40
0.1255738841
 40
0.1883122571
 40
0.251019797
 40
0.3136646741
 40
0.3449657589
 40
0.3762489273
 40
0.4387478369
 40
0.5011739293
 40
0.5635276733
 40
0.6258201658
 40
0.6880781654
 40
0.7503223359
 40
0.8125925611
 40
0.874918368
 40
0.9373603793
 40
1.0
 40
1.0
 40
1.0
 40
1.0
 10
16.7811312098
 20
14.8257174174
 30
0.0
 10
16.7811312098
 20
14.8275781235
 30
0.0
 10
16.7812671495
 20
14.8312991591
 30
0.0
 10
16.7818763312
 20
14.8368484965
 30
0.0
 10
16.7828867206
 20
14.8423359439
 30
0.0
 10
16.7842877876
 20
14.8477331424
 30
0.0
 10
16.7857735458
 20
14.85213357
 30
0.0
 10
16.7871448426
 20
14.8555808938
 30
0.0
 10
16.7886341651
 20
14.8589741855
 30
0.0
 10
16.7907144602
 20
14.8631116912
 30
0.0
 10
16.7935412322
 20
14.8678896085
 30
0.0
 10
16.7966779159
 20
14.8724625883
 30
0.0
 10
16.8001043359
 20
14.8768160543
 30
0.0
 10
16.8037986057
 20
14.8809400389
 30
0.0
 10
16.8077411114
 20
14.8848261615
 30
0.0
 10
16.8119109613
 20
14.8884699522
 30
0.0
 10
16.8162898391
 20
14.8918689992
 30
0.0
 10
16.8208614834
 20
14.8950226757
 30
0.0
 10
16.8240225483
 20
14.8969592185
 30
0.0
 10
16.8256294127
 20
14.8978869366
 30
0.0
  0
SPLINE
  5
57C
100
AcDbEntity
  8
AXIS_COSMETIC_THREADS
100
AcDbSpline
 62
7
  6
CONTINUOUS
 70
0
 71
3
 72
39
 73
35
 74
0
 42
0.0000001
 43
0.0000001
 44
0.0000000001
 40
0.0
 40
0.0
 40
0.0
 40
0.0
 40
0.0618750468
 40
0.1245119955
 40
0.1561493394
 40
0.1879811326
 40
0.2199794553
 40
0.2521069743
 40
0.2843161095
 40
0.3165555287
 40
0.380886615
 40
0.4128986148
 40
0.4447458189
 40
0.4764024153
 40
0.5078531218
 40
0.5390977641
 40
0.5701500962
 40
0.6010332671
 40
0.6317818226
 40
0.662431775
 40
0.6930206816
 40
0.7235834255
 40
0.7541496037
 40
0.7847402338
 40
0.8153701127
 40
0.8460443357
 40
0.8767655724
 40
0.8921457977
 40
0.9075362951
 40
0.922935251
 40
0.9383399684
 40
0.9537482999
 40
0.9691605295
 40
1.0
 40
1.0
 40
1.0
 40
1.0
 10
16.8256294127
 20
14.8978869366
 30
0.0
 10
16.8296379764
 20
14.9002012681
 30
0.0
 10
16.8380153244
 20
14.904336575
 30
0.0
 10
16.8490522326
 20
14.9082391641
 30
0.0
 10
16.8581777237
 20
14.9106452903
 30
0.0
 10
16.8651736921
 20
14.9120973186
 30
0.0
 10
16.8722713928
 20
14.9131906087
 30
0.0
 10
16.879443371
 20
14.9139254268
 30
0.0
 10
16.8866613327
 20
14.9143016465
 30
0.0
 10
16.8962977994
 20
14.9143249136
 30
0.0
 10
16.9059110909
 20
14.9136329483
 30
0.0
 10
16.9153991656
 20
14.9122199308
 30
0.0
 10
16.9224060763
 20
14.9108031914
 30
0.0
 10
16.9292872394
 20
14.9090272703
 30
0.0
 10
16.9360182729
 20
14.9068911835
 30
0.0
 10
16.942575155
 20
14.9043923592
 30
0.0
 10
16.9489345628
 20
14.901527901
 30
0.0
 10
16.9550727298
 20
14.8982938719
 30
0.0
 10
16.9609641532
 20
14.8946861062
 30
0.0
 10
16.9665814614
 20
14.8907019749
 30
0.0
 10
16.971893463
 20
14.8863401613
 30
0.0
 10
16.9768665754
 20
14.881603943
 30
0.0
 10
16.9814631914
 20
14.8765006715
 30
0.0
 10
16.9856449323
 20
14.8710453111
 30
0.0
 10
16.9893707221
 20
14.8652587058
 30
0.0
 10
16.9926026238
 20
14.8591711908
 30
0.0
 10
16.9948521383
 20
14.8538781029
 30
0.0
 10
16.9963704873
 20
14.8495345882
 30
0.0
 10
16.997365135
 20
14.8462258579
 30
0.0
 10
16.9982122349
 20
14.8428744795
 30
0.0
 10
16.9989094258
 20
14.839487381
 30
0.0
 10
16.9994540177
 20
14.836071271
 30
0.0
 10
16.9999741878
 20
14.8314870506
 30
0.0
 10
17.0001312098
 20
14.8280244243
 30
0.0
 10
17.0001312098
 20
14.8257174174
 30
0.0
  0
SPLINE
  5
57D
100
AcDbEntity
  8
AXIS_COSMETIC_THREADS
100
AcDbSpline
 62
7
  6
CONTINUOUS
 70
0
 71
3
 72
20
 73
16
 74
0
 42
0.0000001
 43
0.0000001
 44
0.0000000001
 40
0.0
 40
0.0
 40
0.0
 40
0.0
 40
0.0752258222
 40
0.1485788772
 40
0.2894355925
 40
0.4226033392
 40
0.4864456202
 40
0.5485398762
 40
0.6678538533
 40
0.7254314045
 40
0.781831404
 40
0.8372567941
 40
0.8919309066
 40
0.9460946988
 40
1.0
 40
1.0
 40
1.0
 40
1.0
 10
16.9680597247
 20
14.7810150548
 30
0.0
 10
16.9693104948
 20
14.781737183
 30
0.0
 10
16.9717513531
 20
14.7832156527
 30
0.0
 10
16.9763723964
 20
14.7863044085
 30
0.0
 10
16.9816552598
 20
14.7903935886
 30
0.0
 10
16.9863516775
 20
14.7948891559
 30
0.0
 10
16.9896259317
 20
14.7986382333
 30
0.0
 10
16.9924981393
 20
14.8023719799
 30
0.0
 10
16.994938116
 20
14.806278515
 30
0.0
 10
16.9968787405
 20
14.8103190851
 30
0.0
 10
16.9980612164
 20
14.8133525269
 30
0.0
 10
16.998984301
 20
14.8164165335
 30
0.0
 10
16.9996452468
 20
14.8195039252
 30
0.0
 10
17.0000427582
 20
14.8226065867
 30
0.0
 10
17.0001311973
 20
14.8246824879
 30
0.0
 10
17.0001311693
 20
14.8257174174
 30
0.0
  0
SPLINE
  5
57E
100
AcDbEntity
  8
AXIS_COSMETIC_THREADS
100
AcDbSpline
 62
7
  6
CONTINUOUS
 70
0
 71
3
 72
39
 73
35
 74
0
 42
0.0000001
 43
0.0000001
 44
0.0000000001
 40
0.0
 40
0.0
 40
0.0
 40
0.0
 40
0.0306601343
 40
0.0623884033
 40
0.0951015473
 40
0.1287231547
 40
0.1631613002
 40
0.1983098222
 40
0.2340550241
 40
0.2702770864
 40
0.3068498571
 40
0.3436436284
 40
0.3805261393
 40
0.4173642804
 40
0.454025295
 40
0.4903784661
 40
0.526296467
 40
0.5616567694
 40
0.596343678
 40
0.6302490987
 40
0.6632755321
 40
0.695336674
 40
0.7263604863
 40
0.7562911208
 40
0.7850909342
 40
0.812744523
 40
0.8392599117
 40
0.8646733419
 40
0.8890509179
 40
0.9124913314
 40
0.9351273998
 40
0.9571241649
 40
0.9786762532
 40
1.0
 40
1.0
 40
1.0
 40
1.0
 10
16.9680597247
 20
14.7810150548
 30
0.0
 10
16.9661254446
 20
14.7798983044
 30
0.0
 10
16.9621148649
 20
14.7777531247
 30
0.0
 10
16.9558200909
 20
14.7748512443
 30
0.0
 10
16.9491731321
 20
14.7722244645
 30
0.0
 10
16.9422108488
 20
14.7698869415
 30
0.0
 10
16.9349702847
 20
14.7678507406
 30
0.0
 10
16.9274903299
 20
14.7661272554
 30
0.0
 10
16.9198114848
 20
14.7647253829
 30
0.0
 10
16.9119751075
 20
14.7636529987
 30
0.0
 10
16.9040234976
 20
14.7629156575
 30
0.0
 10
16.8959995807
 20
14.762517396
 30
0.0
 10
16.887946676
 20
14.7624605106
 30
0.0
 10
16.8799082638
 20
14.762744999
 30
0.0
 10
16.8719277579
 20
14.7633697092
 30
0.0
 10
16.8640482204
 20
14.7643309261
 30
0.0
 10
16.8563121963
 20
14.7656236638
 30
0.0
 10
16.8487614258
 20
14.7672409526
 30
0.0
 10
16.841436587
 20
14.7691738849
 30
0.0
 10
16.834377238
 20
14.771412422
 30
0.0
 10
16.8276212868
 20
14.7739441528
 30
0.0
 10
16.8212051897
 20
14.7767558645
 30
0.0
 10
16.8151633921
 20
14.779832393
 30
0.0
 10
16.8095283289
 20
14.7831573591
 30
0.0
 10
16.8043304438
 20
14.7867134515
 30
0.0
 10
16.7995974831
 20
14.7904816154
 30
0.0
 10
16.7953553517
 20
14.7944425939
 30
0.0
 10
16.7916269861
 20
14.7985755072
 30
0.0
 10
16.7884332305
 20
14.8028590715
 30
0.0
 10
16.7857925201
 20
14.8072710506
 30
0.0
 10
16.7837202905
 20
14.8117878639
 30
0.0
 10
16.7822302148
 20
14.8163855345
 30
0.0
 10
16.7813316648
 20
14.8210370437
 30
0.0
 10
16.7811312923
 20
14.824164038
 30
0.0
 10
16.7811312503
 20
14.8257174174
 30
0.0
  0
SPLINE
  5
57F
100
AcDbEntity
  8
AXIS_COSMETIC_THREADS
100
AcDbSpline
 62
7
  6
CONTINUOUS
 70
0
 71
3
 72
50
 73
46
 74
0
 42
0.0000001
 43
0.0000001
 44
0.0000000001
 40
0.0
 40
0.0
 40
0.0
 40
0.0
 40
0.0309809554
 40
0.0603641758
 40
0.0881402361
 40
0.1014559969
 40
0.1144078335
 40
0.1270168764
 40
0.1393098536
 40
0.1513196192
 40
0.1630836111
 40
0.1746442736
 40
0.186048431
 40
0.1973460358
 40
0.2085897641
 40
0.219833493
 40
0.2311310983
 40
0.2425352642
 40
0.2540959672
 40
0.2658600561
 40
0.2778699253
 40
0.2901628961
 40
0.3027717283
 40
0.3157234043
 40
0.3290395306
 40
0.3427373136
 40
0.3568283514
 40
0.3862058011
 40
0.4171910672
 40
0.4497342758
 40
0.4837358254
 40
0.5190561151
 40
0.5555227679
 40
0.592936439
 40
0.6310776859
 40
0.6697122807
 40
0.7085958349
 40
0.7474794059
 40
0.7861139749
 40
0.8242550333
 40
0.8616689789
 40
0.8981354647
 40
0.9334537428
 40
0.9674610961
 40
1.0
 40
1.0
 40
1.0
 40
1.0
 10
16.9425890367
 20
14.8406278636
 30
0.0
 10
16.9442462531
 20
14.8415846523
 30
0.0
 10
16.9474003569
 20
14.8435838742
 30
0.0
 10
16.9517120353
 20
14.8469210752
 30
0.0
 10
16.9548639284
 20
14.8499380617
 30
0.0
 10
16.9570607838
 20
14.8524537503
 30
0.0
 10
16.9585258627
 20
14.8543584091
 30
0.0
 10
16.9598275632
 20
14.8563027775
 30
0.0
 10
16.9609624261
 20
14.8582823871
 30
0.0
 10
16.9619279281
 20
14.8602922836
 30
0.0
 10
16.9627214071
 20
14.8623277764
 30
0.0
 10
16.9633406375
 20
14.8643839461
 30
0.0
 10
16.9637843494
 20
14.8664556404
 30
0.0
 10
16.964051023
 20
14.8685378161
 30
0.0
 10
16.9641398587
 20
14.8706252281
 30
0.0
 10
16.9640509916
 20
14.8727126386
 30
0.0
 10
16.9637842906
 20
14.8747948114
 30
0.0
 10
16.9633405526
 20
14.8768665032
 30
0.0
 10
16.9627212909
 20
14.8789226732
 30
0.0
 10
16.96192777
 20
14.8809581656
 30
0.0
 10
16.9609622286
 20
14.8829680571
 30
0.0
 10
16.9598273513
 20
14.8849476463
 30
0.0
 10
16.9585256612
 20
14.8868920064
 30
0.0
 10
16.9570606009
 20
14.888796626
 30
0.0
 10
16.9554358925
 20
14.8906571052
 30
0.0
 10
16.9536551822
 20
14.8924688319
 30
0.0
 10
16.9510429313
 20
14.8948467686
 30
0.0
 10
16.9473996905
 20
14.8976668861
 30
0.0
 10
16.942546584
 20
14.9007427135
 30
0.0
 10
16.9371979071
 20
14.9035286098
 30
0.0
 10
16.9314049646
 20
14.9059986235
 30
0.0
 10
16.9252226527
 20
14.9081297306
 30
0.0
 10
16.9187097787
 20
14.9099015934
 30
0.0
 10
16.9119284765
 20
14.9112975441
 30
0.0
 10
16.9049435066
 20
14.9123043689
 30
0.0
 10
16.8978216052
 20
14.9129122754
 30
0.0
 10
16.890630904
 20
14.9131155031
 30
0.0
 10
16.8834402054
 20
14.9129122414
 30
0.0
 10
16.8763183194
 20
14.9123042939
 30
0.0
 10
16.8693333495
 20
14.9112974585
 30
0.0
 10
16.8625520564
 20
14.9099014399
 30
0.0
 10
16.8560393431
 20
14.9081295603
 30
0.0
 10
16.8498566818
 20
14.9059984551
 30
0.0
 10
16.8440642051
 20
14.9035283372
 30
0.0
 10
16.8404139361
 20
14.9016271401
 30
0.0
 10
16.8386733828
 20
14.9006222371
 30
0.0
  0
SPLINE
  5
580
100
AcDbEntity
  8
AXIS_COSMETIC_THREADS
100
AcDbSpline
 62
7
  6
CONTINUOUS
 70
0
 71
3
 72
50
 73
46
 74
0
 42
0.0000001
 43
0.0000001
 44
0.0000000001
 40
0.0
 40
0.0
 40
0.0
 40
0.0
 40
0.0325389039
 40
0.0665462572
 40
0.1018645353
 40
0.1383310211
 40
0.1757449667
 40
0.2138860251
 40
0.2525205941
 40
0.2914041651
 40
0.3302877193
 40
0.3689223141
 40
0.407063561
 40
0.4444772321
 40
0.4809438849
 40
0.5162641746
 40
0.5502657242
 40
0.5828089328
 40
0.6137941989
 40
0.6431716486
 40
0.6572626864
 40
0.6709604694
 40
0.6842765957
 40
0.6972282717
 40
0.7098371039
 40
0.7221300747
 40
0.7341399439
 40
0.7459040328
 40
0.7574647358
 40
0.7688689017
 40
0.780166507
 40
0.7914102359
 40
0.8026539642
 40
0.813951569
 40
0.8253557264
 40
0.8369163889
 40
0.8486803808
 40
0.8606901464
 40
0.8729831236
 40
0.8855921665
 40
0.8985440031
 40
0.9118597639
 40
0.9396358242
 40
0.9690190446
 40
1.0
 40
1.0
 40
1.0
 40
1.0
 10
16.9425890367
 20
14.8406278636
 30
0.0
 10
16.9408484834
 20
14.8396229607
 30
0.0
 10
16.9371982144
 20
14.8377217636
 30
0.0
 10
16.9314057378
 20
14.8352516457
 30
0.0
 10
16.9252230764
 20
14.8331205405
 30
0.0
 10
16.9187103632
 20
14.8313486609
 30
0.0
 10
16.91192907
 20
14.8299526422
 30
0.0
 10
16.9049441001
 20
14.8289458068
 30
0.0
 10
16.8978222142
 20
14.8283378594
 30
0.0
 10
16.8906315155
 20
14.8281345976
 30
0.0
 10
16.8834408144
 20
14.8283378254
 30
0.0
 10
16.8763189129
 20
14.8289457319
 30
0.0
 10
16.869333943
 20
14.8299525567
 30
0.0
 10
16.8625526409
 20
14.8313485073
 30
0.0
 10
16.8560397668
 20
14.8331203701
 30
0.0
 10
16.8498574549
 20
14.8352514773
 30
0.0
 10
16.8440645125
 20
14.837721491
 30
0.0
 10
16.8387158355
 20
14.8405073872
 30
0.0
 10
16.833862729
 20
14.8435832147
 30
0.0
 10
16.8302194883
 20
14.8464033321
 30
0.0
 10
16.8276072374
 20
14.8487812688
 30
0.0
 10
16.8258265271
 20
14.8505929956
 30
0.0
 10
16.8242018187
 20
14.8524534748
 30
0.0
 10
16.8227367584
 20
14.8543580944
 30
0.0
 10
16.8214350683
 20
14.8563024545
 30
0.0
 10
16.820300191
 20
14.8582820437
 30
0.0
 10
16.8193346495
 20
14.8602919352
 30
0.0
 10
16.8185411286
 20
14.8623274276
 30
0.0
 10
16.817921867
 20
14.8643835975
 30
0.0
 10
16.8174781289
 20
14.8664552894
 30
0.0
 10
16.8172114279
 20
14.8685374621
 30
0.0
 10
16.8171225609
 20
14.8706248727
 30
0.0
 10
16.8172113966
 20
14.8727122846
 30
0.0
 10
16.8174780701
 20
14.8747944604
 30
0.0
 10
16.817921782
 20
14.8768661547
 30
0.0
 10
16.8185410125
 20
14.8789223244
 30
0.0
 10
16.8193344914
 20
14.8809578172
 30
0.0
 10
16.8202999935
 20
14.8829677137
 30
0.0
 10
16.8214348564
 20
14.8849473232
 30
0.0
 10
16.8227365569
 20
14.8868916916
 30
0.0
 10
16.8242016357
 20
14.8887963505
 30
0.0
 10
16.8263984911
 20
14.8913120391
 30
0.0
 10
16.8295503843
 20
14.8943290255
 30
0.0
 10
16.8338620626
 20
14.8976662265
 30
0.0
 10
16.8370161664
 20
14.8996654485
 30
0.0
 10
16.8386733828
 20
14.9006222371
 30
0.0
  0
SPLINE
  5
581
100
AcDbEntity
  8
AXIS_COSMETIC_THREADS
100
AcDbSpline
 62
7
  6
CONTINUOUS
 70
0
 71
3
 72
11
 73
7
 74
0
 42
0.0000001
 43
0.0000001
 44
0.0000000001
 40
0.0
 40
0.0
 40
0.0
 40
0.0
 40
0.2375217529
 40
0.4838414541
 40
0.7382320154
 40
1.0
 40
1.0
 40
1.0
 40
1.0
 10
19.1954553589
 20
13.4787266297
 30
0.0
 10
19.1933818513
 20
13.4775294967
 30
0.0
 10
19.1890721712
 20
13.4752371556
 30
0.0
 10
19.1822910128
 20
13.4721618452
 30
0.0
 10
19.1751124146
 20
13.4694041707
 30
0.0
 10
19.1701566411
 20
13.4678097194
 30
0.0
 10
19.1676246338
 20
13.4670670246
 30
0.0
  0
SPLINE
  5
582
100
AcDbEntity
  8
AXIS_COSMETIC_THREADS
100
AcDbSpline
 62
7
  6
CONTINUOUS
 70
0
 71
3
 72
19
 73
15
 74
0
 42
0.0000001
 43
0.0000001
 44
0.0000000001
 40
0.0
 40
0.0
 40
0.0
 40
0.0
 40
0.1208780135
 40
0.2450951484
 40
0.3716196811
 40
0.4993534244
 40
0.5633298702
 40
0.6271838171
 40
0.690773953
 40
0.7539608238
 40
0.8166073169
 40
0.8785807921
 40
0.9397523151
 40
1.0
 40
1.0
 40
1.0
 40
1.0
 10
19.1676246338
 20
13.4670670246
 30
0.0
 10
19.1638035497
 20
13.4659462145
 30
0.0
 10
19.1559641836
 20
13.46397637
 30
0.0
 10
19.1438972799
 20
13.4618558504
 30
0.0
 10
19.1314883411
 20
13.4605486189
 30
0.0
 10
19.1210038257
 20
13.460151685
 30
0.0
 10
19.1125841422
 20
13.460253084
 30
0.0
 10
19.1062834582
 20
13.4605393187
 30
0.0
 10
19.1000219362
 20
13.4610349981
 30
0.0
 10
19.0938202855
 20
13.4617380929
 30
0.0
 10
19.0876992147
 20
13.4626467069
 30
0.0
 10
19.0816789915
 20
13.4637573606
 30
0.0
 10
19.0757798152
 20
13.4650667785
 30
0.0
 10
19.071908563
 20
13.4660775012
 30
0.0
 10
19.0699982188
 20
13.4666157873
 30
0.0
  0
SPLINE
  5
583
100
AcDbEntity
  8
AXIS_COSMETIC_THREADS
100
AcDbSpline
 62
7
  6
CONTINUOUS
 70
0
 71
3
 72
23
 73
19
 74
0
 42
0.0000001
 43
0.0000001
 44
0.0000000001
 40
0.0
 40
0.0
 40
0.0
 40
0.0
 40
0.0787897829
 40
0.1556745202
 40
0.2304768769
 40
0.3030471871
 40
0.3732645526
 40
0.4410431463
 40
0.5063363223
 40
0.5691410164
 40
0.6295052629
 40
0.6875301981
 40
0.7433790021
 40
0.7972758035
 40
0.8495108319
 40
0.900433972
 40
0.950449235
 40
1.0
 40
1.0
 40
1.0
 40
1.0
 10
19.0685204096
 20
13.4670401928
 30
0.0
 10
19.0663038905
 20
13.4676888329
 30
0.0
 10
19.0619528465
 20
13.4690703093
 30
0.0
 10
19.0556171039
 20
13.4714226498
 30
0.0
 10
19.0495758278
 20
13.4740211541
 30
0.0
 10
19.0438574951
 20
13.4768532387
 30
0.0
 10
19.0384890791
 20
13.479905997
 30
0.0
 10
19.0334957901
 20
13.4831651176
 30
0.0
 10
19.0289011315
 20
13.4866155497
 30
0.0
 10
19.024726921
 20
13.4902415806
 30
0.0
 10
19.0209927664
 20
13.4940263594
 30
0.0
 10
19.0177169718
 20
13.4979529909
 30
0.0
 10
19.0149151081
 20
13.502003147
 30
0.0
 10
19.0126018586
 20
13.5061586512
 30
0.0
 10
19.010788752
 20
13.5103997094
 30
0.0
 10
19.0094863384
 20
13.5147065754
 30
0.0
 10
19.0087016366
 20
13.5190570989
 30
0.0
 10
19.0085268457
 20
13.5219785274
 30
0.0
 10
19.0085268845
 20
13.5234309546
 30
0.0
  0
SPLINE
  5
584
100
AcDbEntity
  8
AXIS_COSMETIC_THREADS
100
AcDbSpline
 62
7
  6
CONTINUOUS
 70
0
 71
3
 72
20
 73
16
 74
0
 42
0.0000001
 43
0.0000001
 44
0.0000000001
 40
0.0
 40
0.0
 40
0.0
 40
0.0
 40
0.0752254456
 40
0.1485782107
 40
0.2894346172
 40
0.4226023805
 40
0.4864447708
 40
0.5485391903
 40
0.6678535922
 40
0.7254313551
 40
0.7818315355
 40
0.8372570493
 40
0.8919311993
 40
0.9460949153
 40
1.0
 40
1.0
 40
1.0
 40
1.0
 10
19.1954553589
 20
13.4787266297
 30
0.0
 10
19.1967060802
 20
13.4794487297
 30
0.0
 10
19.1991468457
 20
13.4809271404
 30
0.0
 10
19.2037677243
 20
13.4840157684
 30
0.0
 10
19.2090504214
 20
13.488104772
 30
0.0
 10
19.2137467239
 20
13.4926001327
 30
0.0
 10
19.2170209281
 20
13.4963490358
 30
0.0
 10
19.2198931166
 20
13.5000826115
 30
0.0
 10
19.2223331126
 20
13.5039889656
 30
0.0
 10
19.2242738025
 20
13.5080293521
 30
0.0
 10
19.2254563483
 20
13.511062658
 30
0.0
 10
19.2263795251
 20
13.5141265296
 30
0.0
 10
19.2270405848
 20
13.5172137883
 30
0.0
 10
19.2274382316
 20
13.5203163199
 30
0.0
 10
19.2275267758
 20
13.52239214
 30
0.0
 10
19.2275268035
 20
13.5234270302
 30
0.0
  0
SPLINE
  5
585
100
AcDbEntity
  8
AXIS_COSMETIC_THREADS
100
AcDbSpline
 62
7
  6
CONTINUOUS
 70
0
 71
3
 72
24
 73
20
 74
0
 42
0.0000001
 43
0.0000001
 44
0.0000000001
 40
0.0
 40
0.0
 40
0.0
 40
0.0
 40
0.0628172546
 40
0.1255738841
 40
0.1883122571
 40
0.251019797
 40
0.3136646741
 40
0.3449657589
 40
0.3762489273
 40
0.4387478369
 40
0.5011739293
 40
0.5635276733
 40
0.6258201658
 40
0.6880781654
 40
0.7503223359
 40
0.8125925611
 40
0.874918368
 40
0.9373603793
 40
1.0
 40
1.0
 40
1.0
 40
1.0
 10
19.008526844
 20
13.5397590407
 30
0.0
 10
19.008526844
 20
13.5416197468
 30
0.0
 10
19.0086627837
 20
13.5453407824
 30
0.0
 10
19.0092719654
 20
13.5508901197
 30
0.0
 10
19.0102823548
 20
13.5563775672
 30
0.0
 10
19.0116834218
 20
13.5617747657
 30
0.0
 10
19.01316918
 20
13.5661751933
 30
0.0
 10
19.0145404768
 20
13.569622517
 30
0.0
 10
19.0160297993
 20
13.5730158088
 30
0.0
 10
19.0181100944
 20
13.5771533145
 30
0.0
 10
19.0209368664
 20
13.5819312318
 30
0.0
 10
19.0240735501
 20
13.5865042115
 30
0.0
 10
19.0274999701
 20
13.5908576776
 30
0.0
 10
19.03119424
 20
13.5949816621
 30
0.0
 10
19.0351367456
 20
13.5988677847
 30
0.0
 10
19.0393065955
 20
13.6025115755
 30
0.0
 10
19.0436854733
 20
13.6059106224
 30
0.0
 10
19.0482571176
 20
13.609064299
 30
0.0
 10
19.0514181825
 20
13.6110008418
 30
0.0
 10
19.0530250469
 20
13.6119285598
 30
0.0
  0
SPLINE
  5
586
100
AcDbEntity
  8
AXIS_COSMETIC_THREADS
100
AcDbSpline
 62
7
  6
CONTINUOUS
 70
0
 71
3
 72
39
 73
35
 74
0
 42
0.0000001
 43
0.0000001
 44
0.0000000001
 40
0.0
 40
0.0
 40
0.0
 40
0.0
 40
0.0618750468
 40
0.1245119955
 40
0.1561493394
 40
0.1879811326
 40
0.2199794553
 40
0.2521069743
 40
0.2843161095
 40
0.3165555287
 40
0.380886615
 40
0.4128986148
 40
0.4447458189
 40
0.4764024153
 40
0.5078531218
 40
0.5390977641
 40
0.5701500962
 40
0.6010332671
 40
0.6317818226
 40
0.662431775
 40
0.6930206816
 40
0.7235834255
 40
0.7541496037
 40
0.7847402338
 40
0.8153701127
 40
0.8460443357
 40
0.8767655724
 40
0.8921457977
 40
0.9075362951
 40
0.922935251
 40
0.9383399684
 40
0.9537482999
 40
0.9691605295
 40
1.0
 40
1.0
 40
1.0
 40
1.0
 10
19.0530250469
 20
13.6119285598
 30
0.0
 10
19.0570336106
 20
13.6142428914
 30
0.0
 10
19.0654109586
 20
13.6183781983
 30
0.0
 10
19.0764478668
 20
13.6222807873
 30
0.0
 10
19.0855733579
 20
13.6246869136
 30
0.0
 10
19.0925693263
 20
13.6261389419
 30
0.0
 10
19.099667027
 20
13.6272322319
 30
0.0
 10
19.1068390052
 20
13.6279670501
 30
0.0
 10
19.114056967
 20
13.6283432697
 30
0.0
 10
19.1236934337
 20
13.6283665368
 30
0.0
 10
19.1333067251
 20
13.6276745716
 30
0.0
 10
19.1427947999
 20
13.6262615541
 30
0.0
 10
19.1498017105
 20
13.6248448146
 30
0.0
 10
19.1566828736
 20
13.6230688936
 30
0.0
 10
19.1634139071
 20
13.6209328068
 30
0.0
 10
19.1699707892
 20
13.6184339825
 30
0.0
 10
19.176330197
 20
13.6155695243
 30
0.0
 10
19.182468364
 20
13.6123354952
 30
0.0
 10
19.1883597874
 20
13.6087277295
 30
0.0
 10
19.1939770957
 20
13.6047435981
 30
0.0
 10
19.1992890972
 20
13.6003817846
 30
0.0
 10
19.2042622096
 20
13.5956455663
 30
0.0
 10
19.2088588256
 20
13.5905422947
 30
0.0
 10
19.2130405666
 20
13.5850869343
 30
0.0
 10
19.2167663563
 20
13.5793003291
 30
0.0
 10
19.2199982581
 20
13.573212814
 30
0.0
 10
19.2222477725
 20
13.5679197262
 30
0.0
 10
19.2237661215
 20
13.5635762115
 30
0.0
 10
19.2247607692
 20
13.5602674812
 30
0.0
 10
19.2256078691
 20
13.5569161028
 30
0.0
 10
19.22630506
 20
13.5535290042
 30
0.0
 10
19.226849652
 20
13.5501128942
 30
0.0
 10
19.227369822
 20
13.5455286738
 30
0.0
 10
19.227526844
 20
13.5420660476
 30
0.0
 10
19.227526844
 20
13.5397590407
 30
0.0
  0
SPLINE
  5
587
100
AcDbEntity
  8
AXIS_COSMETIC_THREADS
100
AcDbSpline
 62
7
  6
CONTINUOUS
 70
0
 71
3
 72
20
 73
16
 74
0
 42
0.0000001
 43
0.0000001
 44
0.0000000001
 40
0.0
 40
0.0
 40
0.0
 40
0.0
 40
0.0752258222
 40
0.1485788772
 40
0.2894355925
 40
0.4226033392
 40
0.4864456202
 40
0.5485398762
 40
0.6678538533
 40
0.7254314045
 40
0.781831404
 40
0.8372567941
 40
0.8919309066
 40
0.9460946988
 40
1.0
 40
1.0
 40
1.0
 40
1.0
 10
19.1954553589
 20
13.4950566781
 30
0.0
 10
19.1967061291
 20
13.4957788063
 30
0.0
 10
19.1991469873
 20
13.4972572759
 30
0.0
 10
19.2037680306
 20
13.5003460318
 30
0.0
 10
19.209050894
 20
13.5044352118
 30
0.0
 10
19.2137473117
 20
13.5089307792
 30
0.0
 10
19.2170215659
 20
13.5126798566
 30
0.0
 10
19.2198937735
 20
13.5164136031
 30
0.0
 10
19.2223337502
 20
13.5203201382
 30
0.0
 10
19.2242743747
 20
13.5243607083
 30
0.0
 10
19.2254568506
 20
13.5273941502
 30
0.0
 10
19.2263799352
 20
13.5304581568
 30
0.0
 10
19.227040881
 20
13.5335455484
 30
0.0
 10
19.2274383924
 20
13.53664821
 30
0.0
 10
19.2275268315
 20
13.5387241112
 30
0.0
 10
19.2275268035
 20
13.5397590407
 30
0.0
  0
SPLINE
  5
588
100
AcDbEntity
  8
AXIS_COSMETIC_THREADS
100
AcDbSpline
 62
7
  6
CONTINUOUS
 70
0
 71
3
 72
39
 73
35
 74
0
 42
0.0000001
 43
0.0000001
 44
0.0000000001
 40
0.0
 40
0.0
 40
0.0
 40
0.0
 40
0.0306601343
 40
0.0623884033
 40
0.0951015473
 40
0.1287231547
 40
0.1631613002
 40
0.1983098222
 40
0.2340550241
 40
0.2702770864
 40
0.3068498571
 40
0.3436436284
 40
0.3805261393
 40
0.4173642804
 40
0.454025295
 40
0.4903784661
 40
0.526296467
 40
0.5616567694
 40
0.596343678
 40
0.6302490987
 40
0.6632755321
 40
0.695336674
 40
0.7263604863
 40
0.7562911208
 40
0.7850909342
 40
0.812744523
 40
0.8392599117
 40
0.8646733419
 40
0.8890509179
 40
0.9124913314
 40
0.9351273998
 40
0.9571241649
 40
0.9786762532
 40
1.0
 40
1.0
 40
1.0
 40
1.0
 10
19.1954553589
 20
13.4950566781
 30
0.0
 10
19.1935210788
 20
13.4939399276
 30
0.0
 10
19.1895104991
 20
13.491794748
 30
0.0
 10
19.1832157251
 20
13.4888928676
 30
0.0
 10
19.1765687663
 20
13.4862660878
 30
0.0
 10
19.169606483
 20
13.4839285648
 30
0.0
 10
19.1623659189
 20
13.4818923638
 30
0.0
 10
19.1548859641
 20
13.4801688786
 30
0.0
 10
19.1472071191
 20
13.4787670061
 30
0.0
 10
19.1393707417
 20
13.477694622
 30
0.0
 10
19.1314191318
 20
13.4769572808
 30
0.0
 10
19.1233952149
 20
13.4765590192
 30
0.0
 10
19.1153423102
 20
13.4765021338
 30
0.0
 10
19.107303898
 20
13.4767866222
 30
0.0
 10
19.0993233921
 20
13.4774113324
 30
0.0
 10
19.0914438547
 20
13.4783725494
 30
0.0
 10
19.0837078305
 20
13.4796652871
 30
0.0
 10
19.07615706
 20
13.4812825759
 30
0.0
 10
19.0688322212
 20
13.4832155081
 30
0.0
 10
19.0617728722
 20
13.4854540453
 30
0.0
 10
19.055016921
 20
13.487985776
 30
0.0
 10
19.0486008239
 20
13.4907974877
 30
0.0
 10
19.0425590263
 20
13.4938740163
 30
0.0
 10
19.0369239631
 20
13.4971989824
 30
0.0
 10
19.031726078
 20
13.5007550748
 30
0.0
 10
19.0269931173
 20
13.5045232386
 30
0.0
 10
19.0227509859
 20
13.5084842171
 30
0.0
 10
19.0190226203
 20
13.5126171305
 30
0.0
 10
19.0158288647
 20
13.5169006948
 30
0.0
 10
19.0131881543
 20
13.5213126739
 30
0.0
 10
19.0111159248
 20
13.5258294871
 30
0.0
 10
19.0096258491
 20
13.5304271578
 30
0.0
 10
19.008727299
 20
13.535078667
 30
0.0
 10
19.0085269265
 20
13.5382056613
 30
0.0
 10
19.0085268845
 20
13.5397590407
 30
0.0
  0
SPLINE
  5
589
100
AcDbEntity
  8
AXIS_COSMETIC_THREADS
100
AcDbSpline
 62
7
  6
CONTINUOUS
 70
0
 71
3
 72
50
 73
46
 74
0
 42
0.0000001
 43
0.0000001
 44
0.0000000001
 40
0.0
 40
0.0
 40
0.0
 40
0.0
 40
0.0309809554
 40
0.0603641758
 40
0.0881402361
 40
0.1014559969
 40
0.1144078335
 40
0.1270168764
 40
0.1393098536
 40
0.1513196192
 40
0.1630836111
 40
0.1746442736
 40
0.186048431
 40
0.1973460358
 40
0.2085897641
 40
0.219833493
 40
0.2311310983
 40
0.2425352642
 40
0.2540959672
 40
0.2658600561
 40
0.2778699253
 40
0.2901628961
 40
0.3027717283
 40
0.3157234043
 40
0.3290395306
 40
0.3427373136
 40
0.3568283514
 40
0.3862058011
 40
0.4171910672
 40
0.4497342758
 40
0.4837358254
 40
0.5190561151
 40
0.5555227679
 40
0.592936439
 40
0.6310776859
 40
0.6697122807
 40
0.7085958349
 40
0.7474794059
 40
0.7861139749
 40
0.8242550333
 40
0.8616689789
 40
0.8981354647
 40
0.9334537428
 40
0.9674610961
 40
1.0
 40
1.0
 40
1.0
 40
1.0
 10
19.1699846709
 20
13.5546694869
 30
0.0
 10
19.1716418873
 20
13.5556262755
 30
0.0
 10
19.1747959912
 20
13.5576254975
 30
0.0
 10
19.1791076695
 20
13.5609626985
 30
0.0
 10
19.1822595627
 20
13.563979685
 30
0.0
 10
19.1844564181
 20
13.5664953736
 30
0.0
 10
19.1859214969
 20
13.5684000324
 30
0.0
 10
19.1872231974
 20
13.5703444008
 30
0.0
 10
19.1883580603
 20
13.5723240103
 30
0.0
 10
19.1893235623
 20
13.5743339068
 30
0.0
 10
19.1901170413
 20
13.5763693996
 30
0.0
 10
19.1907362717
 20
13.5784255693
 30
0.0
 10
19.1911799836
 20
13.5804972636
 30
0.0
 10
19.1914466572
 20
13.5825794394
 30
0.0
 10
19.1915354929
 20
13.5846668513
 30
0.0
 10
19.1914466259
 20
13.5867542619
 30
0.0
 10
19.1911799248
 20
13.5888364347
 30
0.0
 10
19.1907361868
 20
13.5909081265
 30
0.0
 10
19.1901169251
 20
13.5929642965
 30
0.0
 10
19.1893234042
 20
13.5949997888
 30
0.0
 10
19.1883578628
 20
13.5970096803
 30
0.0
 10
19.1872229855
 20
13.5989892695
 30
0.0
 10
19.1859212954
 20
13.6009336297
 30
0.0
 10
19.1844562351
 20
13.6028382492
 30
0.0
 10
19.1828315267
 20
13.6046987284
 30
0.0
 10
19.1810508164
 20
13.6065104552
 30
0.0
 10
19.1784385655
 20
13.6088883919
 30
0.0
 10
19.1747953247
 20
13.6117085094
 30
0.0
 10
19.1699422183
 20
13.6147843368
 30
0.0
 10
19.1645935413
 20
13.6175702331
 30
0.0
 10
19.1588005988
 20
13.6200402467
 30
0.0
 10
19.1526182869
 20
13.6221713539
 30
0.0
 10
19.1461054129
 20
13.6239432167
 30
0.0
 10
19.1393241107
 20
13.6253391674
 30
0.0
 10
19.1323391408
 20
13.6263459921
 30
0.0
 10
19.1252172394
 20
13.6269538986
 30
0.0
 10
19.1180265382
 20
13.6271571264
 30
0.0
 10
19.1108358396
 20
13.6269538646
 30
0.0
 10
19.1037139537
 20
13.6263459172
 30
0.0
 10
19.0967289838
 20
13.6253390818
 30
0.0
 10
19.0899476906
 20
13.6239430631
 30
0.0
 10
19.0834349774
 20
13.6221711836
 30
0.0
 10
19.077252316
 20
13.6200400783
 30
0.0
 10
19.0714598393
 20
13.6175699604
 30
0.0
 10
19.0678095704
 20
13.6156687633
 30
0.0
 10
19.066069017
 20
13.6146638604
 30
0.0
  0
SPLINE
  5
58A
100
AcDbEntity
  8
AXIS_COSMETIC_THREADS
100
AcDbSpline
 62
7
  6
CONTINUOUS
 70
0
 71
3
 72
50
 73
46
 74
0
 42
0.0000001
 43
0.0000001
 44
0.0000000001
 40
0.0
 40
0.0
 40
0.0
 40
0.0
 40
0.0325389039
 40
0.0665462572
 40
0.1018645353
 40
0.1383310211
 40
0.1757449667
 40
0.2138860251
 40
0.2525205941
 40
0.2914041651
 40
0.3302877193
 40
0.3689223141
 40
0.407063561
 40
0.4444772321
 40
0.4809438849
 40
0.5162641746
 40
0.5502657242
 40
0.5828089328
 40
0.6137941989
 40
0.6431716486
 40
0.6572626864
 40
0.6709604694
 40
0.6842765957
 40
0.6972282717
 40
0.7098371039
 40
0.7221300747
 40
0.7341399439
 40
0.7459040328
 40
0.7574647358
 40
0.7688689017
 40
0.780166507
 40
0.7914102359
 40
0.8026539642
 40
0.813951569
 40
0.8253557264
 40
0.8369163889
 40
0.8486803808
 40
0.8606901464
 40
0.8729831236
 40
0.8855921665
 40
0.8985440031
 40
0.9118597639
 40
0.9396358242
 40
0.9690190446
 40
1.0
 40
1.0
 40
1.0
 40
1.0
 10
19.1699846709
 20
13.5546694869
 30
0.0
 10
19.1682441176
 20
13.553664584
 30
0.0
 10
19.1645938486
 20
13.5517633869
 30
0.0
 10
19.158801372
 20
13.549293269
 30
0.0
 10
19.1526187106
 20
13.5471621637
 30
0.0
 10
19.1461059974
 20
13.5453902841
 30
0.0
 10
19.1393247042
 20
13.5439942655
 30
0.0
 10
19.1323397343
 20
13.5429874301
 30
0.0
 10
19.1252178484
 20
13.5423794827
 30
0.0
 10
19.1180271497
 20
13.5421762209
 30
0.0
 10
19.1108364486
 20
13.5423794486
 30
0.0
 10
19.1037145471
 20
13.5429873552
 30
0.0
 10
19.0967295773
 20
13.5439941799
 30
0.0
 10
19.0899482751
 20
13.5453901306
 30
0.0
 10
19.083435401
 20
13.5471619934
 30
0.0
 10
19.0772530891
 20
13.5492931006
 30
0.0
 10
19.0714601467
 20
13.5517631142
 30
0.0
 10
19.0661114697
 20
13.5545490105
 30
0.0
 10
19.0612583632
 20
13.5576248379
 30
0.0
 10
19.0576151225
 20
13.5604449554
 30
0.0
 10
19.0550028716
 20
13.5628228921
 30
0.0
 10
19.0532221613
 20
13.5646346188
 30
0.0
 10
19.0515974529
 20
13.5664950981
 30
0.0
 10
19.0501323926
 20
13.5683997176
 30
0.0
 10
19.0488307025
 20
13.5703440778
 30
0.0
 10
19.0476958252
 20
13.572323667
 30
0.0
 10
19.0467302837
 20
13.5743335585
 30
0.0
 10
19.0459367629
 20
13.5763690508
 30
0.0
 10
19.0453175012
 20
13.5784252208
 30
0.0
 10
19.0448737632
 20
13.5804969126
 30
0.0
 10
19.0446070621
 20
13.5825790854
 30
0.0
 10
19.0445181951
 20
13.584666496
 30
0.0
 10
19.0446070308
 20
13.5867539079
 30
0.0
 10
19.0448737044
 20
13.5888360837
 30
0.0
 10
19.0453174163
 20
13.590907778
 30
0.0
 10
19.0459366467
 20
13.5929639477
 30
0.0
 10
19.0467301256
 20
13.5949994404
 30
0.0
 10
19.0476956277
 20
13.597009337
 30
0.0
 10
19.0488304906
 20
13.5989889465
 30
0.0
 10
19.0501321911
 20
13.6009333149
 30
0.0
 10
19.0515972699
 20
13.6028379737
 30
0.0
 10
19.0537941253
 20
13.6053536623
 30
0.0
 10
19.0569460185
 20
13.6083706488
 30
0.0
 10
19.0612576968
 20
13.6117078498
 30
0.0
 10
19.0644118006
 20
13.6137070718
 30
0.0
 10
19.066069017
 20
13.6146638604
 30
0.0
  0
SPLINE
  5
58B
100
AcDbEntity
  8
AXIS_COSMETIC_THREADS
100
AcDbSpline
 62
7
  6
CONTINUOUS
 70
0
 71
3
 72
11
 73
7
 74
0
 42
0.0000001
 43
0.0000001
 44
0.0000000001
 40
0.0
 40
0.0
 40
0.0
 40
0.0
 40
0.2375217529
 40
0.4838414541
 40
0.7382320154
 40
1.0
 40
1.0
 40
1.0
 40
1.0
 10
14.7406826374
 20
13.4787159218
 30
0.0
 10
14.7386091299
 20
13.4775187888
 30
0.0
 10
14.7342994498
 20
13.4752264477
 30
0.0
 10
14.7275182913
 20
13.4721511373
 30
0.0
 10
14.7203396931
 20
13.4693934628
 30
0.0
 10
14.7153839197
 20
13.4677990115
 30
0.0
 10
14.7128519124
 20
13.4670563166
 30
0.0
  0
SPLINE
  5
58C
100
AcDbEntity
  8
AXIS_COSMETIC_THREADS
100
AcDbSpline
 62
7
  6
CONTINUOUS
 70
0
 71
3
 72
19
 73
15
 74
0
 42
0.0000001
 43
0.0000001
 44
0.0000000001
 40
0.0
 40
0.0
 40
0.0
 40
0.0
 40
0.1208780135
 40
0.2450951484
 40
0.3716196811
 40
0.4993534244
 40
0.5633298702
 40
0.6271838171
 40
0.690773953
 40
0.7539608238
 40
0.8166073169
 40
0.8785807921
 40
0.9397523151
 40
1.0
 40
1.0
 40
1.0
 40
1.0
 10
14.7128519124
 20
13.4670563166
 30
0.0
 10
14.7090308283
 20
13.4659355065
 30
0.0
 10
14.7011914621
 20
13.463965662
 30
0.0
 10
14.6891245585
 20
13.4618451424
 30
0.0
 10
14.6767156197
 20
13.4605379109
 30
0.0
 10
14.6662311042
 20
13.460140977
 30
0.0
 10
14.6578114208
 20
13.4602423761
 30
0.0
 10
14.6515107367
 20
13.4605286108
 30
0.0
 10
14.6452492148
 20
13.4610242901
 30
0.0
 10
14.639047564
 20
13.461727385
 30
0.0
 10
14.6329264933
 20
13.4626359989
 30
0.0
 10
14.6269062701
 20
13.4637466526
 30
0.0
 10
14.6210070938
 20
13.4650560706
 30
0.0
 10
14.6171358415
 20
13.4660667933
 30
0.0
 10
14.6152254973
 20
13.4666050793
 30
0.0
  0
SPLINE
  5
58D
100
AcDbEntity
  8
AXIS_COSMETIC_THREADS
100
AcDbSpline
 62
7
  6
CONTINUOUS
 70
0
 71
3
 72
23
 73
19
 74
0
 42
0.0000001
 43
0.0000001
 44
0.0000000001
 40
0.0
 40
0.0
 40
0.0
 40
0.0
 40
0.0787897829
 40
0.1556745202
 40
0.2304768769
 40
0.3030471871
 40
0.3732645526
 40
0.4410431463
 40
0.5063363223
 40
0.5691410164
 40
0.6295052629
 40
0.6875301981
 40
0.7433790021
 40
0.7972758035
 40
0.8495108319
 40
0.900433972
 40
0.950449235
 40
1.0
 40
1.0
 40
1.0
 40
1.0
 10
14.6137476881
 20
13.4670294849
 30
0.0
 10
14.6115311691
 20
13.4676781249
 30
0.0
 10
14.6071801251
 20
13.4690596013
 30
0.0
 10
14.6008443825
 20
13.4714119418
 30
0.0
 10
14.5948031064
 20
13.4740104461
 30
0.0
 10
14.5890847737
 20
13.4768425308
 30
0.0
 10
14.5837163576
 20
13.479895289
 30
0.0
 10
14.5787230686
 20
13.4831544096
 30
0.0
 10
14.57412841
 20
13.4866048418
 30
0.0
 10
14.5699541995
 20
13.4902308726
 30
0.0
 10
14.566220045
 20
13.4940156515
 30
0.0
 10
14.5629442503
 20
13.497942283
 30
0.0
 10
14.5601423866
 20
13.5019924391
 30
0.0
 10
14.5578291372
 20
13.5061479432
 30
0.0
 10
14.5560160306
 20
13.5103890014
 30
0.0
 10
14.5547136169
 20
13.5146958674
 30
0.0
 10
14.5539289151
 20
13.519046391
 30
0.0
 10
14.5537541243
 20
13.5219678194
 30
0.0
 10
14.553754163
 20
13.5234202466
 30
0.0
  0
SPLINE
  5
58E
100
AcDbEntity
  8
AXIS_COSMETIC_THREADS
100
AcDbSpline
 62
7
  6
CONTINUOUS
 70
0
 71
3
 72
20
 73
16
 74
0
 42
0.0000001
 43
0.0000001
 44
0.0000000001
 40
0.0
 40
0.0
 40
0.0
 40
0.0
 40
0.0752254456
 40
0.1485782107
 40
0.2894346172
 40
0.4226023805
 40
0.4864447708
 40
0.5485391903
 40
0.6678535922
 40
0.7254313551
 40
0.7818315355
 40
0.8372570493
 40
0.8919311993
 40
0.9460949153
 40
1.0
 40
1.0
 40
1.0
 40
1.0
 10
14.7406826374
 20
13.4787159218
 30
0.0
 10
14.7419333588
 20
13.4794380218
 30
0.0
 10
14.7443741242
 20
13.4809164325
 30
0.0
 10
14.7489950029
 20
13.4840050604
 30
0.0
 10
14.7542777
 20
13.4880940641
 30
0.0
 10
14.7589740024
 20
13.4925894247
 30
0.0
 10
14.7622482067
 20
13.4963383279
 30
0.0
 10
14.7651203952
 20
13.5000719035
 30
0.0
 10
14.7675603911
 20
13.5039782576
 30
0.0
 10
14.7695010811
 20
13.5080186441
 30
0.0
 10
14.7706836269
 20
13.51105195
 30
0.0
 10
14.7716068037
 20
13.5141158216
 30
0.0
 10
14.7722678633
 20
13.5172030804
 30
0.0
 10
14.7726655102
 20
13.520305612
 30
0.0
 10
14.7727540544
 20
13.5223814321
 30
0.0
 10
14.772754082
 20
13.5234163222
 30
0.0
  0
SPLINE
  5
58F
100
AcDbEntity
  8
AXIS_COSMETIC_THREADS
100
AcDbSpline
 62
7
  6
CONTINUOUS
 70
0
 71
3
 72
24
 73
20
 74
0
 42
0.0000001
 43
0.0000001
 44
0.0000000001
 40
0.0
 40
0.0
 40
0.0
 40
0.0
 40
0.0628172546
 40
0.1255738841
 40
0.1883122571
 40
0.251019797
 40
0.3136646741
 40
0.3449657589
 40
0.3762489273
 40
0.4387478369
 40
0.5011739293
 40
0.5635276733
 40
0.6258201658
 40
0.6880781654
 40
0.7503223359
 40
0.8125925611
 40
0.874918368
 40
0.9373603793
 40
1.0
 40
1.0
 40
1.0
 40
1.0
 10
14.5537541225
 20
13.5397483327
 30
0.0
 10
14.5537541225
 20
13.5416090388
 30
0.0
 10
14.5538900622
 20
13.5453300744
 30
0.0
 10
14.554499244
 20
13.5508794118
 30
0.0
 10
14.5555096333
 20
13.5563668592
 30
0.0
 10
14.5569107004
 20
13.5617640577
 30
0.0
 10
14.5583964586
 20
13.5661644853
 30
0.0
 10
14.5597677554
 20
13.5696118091
 30
0.0
 10
14.5612570779
 20
13.5730051008
 30
0.0
 10
14.563337373
 20
13.5771426066
 30
0.0
 10
14.566164145
 20
13.5819205238
 30
0.0
 10
14.5693008287
 20
13.5864935036
 30
0.0
 10
14.5727272487
 20
13.5908469696
 30
0.0
 10
14.5764215185
 20
13.5949709542
 30
0.0
 10
14.5803640242
 20
13.5988570768
 30
0.0
 10
14.5845338741
 20
13.6025008675
 30
0.0
 10
14.5889127519
 20
13.6058999145
 30
0.0
 10
14.5934843962
 20
13.609053591
 30
0.0
 10
14.5966454611
 20
13.6109901338
 30
0.0
 10
14.5982523255
 20
13.6119178519
 30
0.0
  0
SPLINE
  5
590
100
AcDbEntity
  8
AXIS_COSMETIC_THREADS
100
AcDbSpline
 62
7
  6
CONTINUOUS
 70
0
 71
3
 72
39
 73
35
 74
0
 42
0.0000001
 43
0.0000001
 44
0.0000000001
 40
0.0
 40
0.0
 40
0.0
 40
0.0
 40
0.0618750468
 40
0.1245119955
 40
0.1561493394
 40
0.1879811326
 40
0.2199794553
 40
0.2521069743
 40
0.2843161095
 40
0.3165555287
 40
0.380886615
 40
0.4128986148
 40
0.4447458189
 40
0.4764024153
 40
0.5078531218
 40
0.5390977641
 40
0.5701500962
 40
0.6010332671
 40
0.6317818226
 40
0.662431775
 40
0.6930206816
 40
0.7235834255
 40
0.7541496037
 40
0.7847402338
 40
0.8153701127
 40
0.8460443357
 40
0.8767655724
 40
0.8921457977
 40
0.9075362951
 40
0.922935251
 40
0.9383399684
 40
0.9537482999
 40
0.9691605295
 40
1.0
 40
1.0
 40
1.0
 40
1.0
 10
14.5982523255
 20
13.6119178519
 30
0.0
 10
14.6022608892
 20
13.6142321834
 30
0.0
 10
14.6106382372
 20
13.6183674903
 30
0.0
 10
14.6216751453
 20
13.6222700794
 30
0.0
 10
14.6308006365
 20
13.6246762056
 30
0.0
 10
14.6377966049
 20
13.6261282339
 30
0.0
 10
14.6448943056
 20
13.627221524
 30
0.0
 10
14.6520662838
 20
13.6279563421
 30
0.0
 10
14.6592842455
 20
13.6283325618
 30
0.0
 10
14.6689207122
 20
13.6283558289
 30
0.0
 10
14.6785340037
 20
13.6276638637
 30
0.0
 10
14.6880220784
 20
13.6262508461
 30
0.0
 10
14.6950289891
 20
13.6248341067
 30
0.0
 10
14.7019101522
 20
13.6230581856
 30
0.0
 10
14.7086411857
 20
13.6209220988
 30
0.0
 10
14.7151980677
 20
13.6184232745
 30
0.0
 10
14.7215574756
 20
13.6155588163
 30
0.0
 10
14.7276956426
 20
13.6123247872
 30
0.0
 10
14.733587066
 20
13.6087170215
 30
0.0
 10
14.7392043742
 20
13.6047328902
 30
0.0
 10
14.7445163757
 20
13.6003710766
 30
0.0
 10
14.7494894882
 20
13.5956348583
 30
0.0
 10
14.7540861042
 20
13.5905315868
 30
0.0
 10
14.7582678451
 20
13.5850762264
 30
0.0
 10
14.7619936349
 20
13.5792896211
 30
0.0
 10
14.7652255366
 20
13.5732021061
 30
0.0
 10
14.7674750511
 20
13.5679090182
 30
0.0
 10
14.7689934001
 20
13.5635655035
 30
0.0
 10
14.7699880478
 20
13.5602567732
 30
0.0
 10
14.7708351477
 20
13.5569053948
 30
0.0
 10
14.7715323385
 20
13.5535182963
 30
0.0
 10
14.7720769305
 20
13.5501021863
 30
0.0
 10
14.7725971006
 20
13.5455179659
 30
0.0
 10
14.7727541225
 20
13.5420553396
 30
0.0
 10
14.7727541225
 20
13.5397483327
 30
0.0
  0
SPLINE
  5
591
100
AcDbEntity
  8
AXIS_COSMETIC_THREADS
100
AcDbSpline
 62
7
  6
CONTINUOUS
 70
0
 71
3
 72
20
 73
16
 74
0
 42
0.0000001
 43
0.0000001
 44
0.0000000001
 40
0.0
 40
0.0
 40
0.0
 40
0.0
 40
0.0752258222
 40
0.1485788772
 40
0.2894355925
 40
0.4226033392
 40
0.4864456202
 40
0.5485398762
 40
0.6678538533
 40
0.7254314045
 40
0.781831404
 40
0.8372567941
 40
0.8919309066
 40
0.9460946988
 40
1.0
 40
1.0
 40
1.0
 40
1.0
 10
14.7406826374
 20
13.4950459701
 30
0.0
 10
14.7419334076
 20
13.4957680983
 30
0.0
 10
14.7443742659
 20
13.497246568
 30
0.0
 10
14.7489953092
 20
13.5003353238
 30
0.0
 10
14.7542781726
 20
13.5044245039
 30
0.0
 10
14.7589745902
 20
13.5089200712
 30
0.0
 10
14.7622488445
 20
13.5126691486
 30
0.0
 10
14.7651210521
 20
13.5164028952
 30
0.0
 10
14.7675610288
 20
13.5203094303
 30
0.0
 10
14.7695016533
 20
13.5243500004
 30
0.0
 10
14.7706841292
 20
13.5273834422
 30
0.0
 10
14.7716072138
 20
13.5304474488
 30
0.0
 10
14.7722681596
 20
13.5335348405
 30
0.0
 10
14.7726656709
 20
13.536637502
 30
0.0
 10
14.77275411
 20
13.5387134032
 30
0.0
 10
14.772754082
 20
13.5397483327
 30
0.0
  0
SPLINE
  5
592
100
AcDbEntity
  8
AXIS_COSMETIC_THREADS
100
AcDbSpline
 62
7
  6
CONTINUOUS
 70
0
 71
3
 72
39
 73
35
 74
0
 42
0.0000001
 43
0.0000001
 44
0.0000000001
 40
0.0
 40
0.0
 40
0.0
 40
0.0
 40
0.0306601343
 40
0.0623884033
 40
0.0951015473
 40
0.1287231547
 40
0.1631613002
 40
0.1983098222
 40
0.2340550241
 40
0.2702770864
 40
0.3068498571
 40
0.3436436284
 40
0.3805261393
 40
0.4173642804
 40
0.454025295
 40
0.4903784661
 40
0.526296467
 40
0.5616567694
 40
0.596343678
 40
0.6302490987
 40
0.6632755321
 40
0.695336674
 40
0.7263604863
 40
0.7562911208
 40
0.7850909342
 40
0.812744523
 40
0.8392599117
 40
0.8646733419
 40
0.8890509179
 40
0.9124913314
 40
0.9351273998
 40
0.9571241649
 40
0.9786762532
 40
1.0
 40
1.0
 40
1.0
 40
1.0
 10
14.7406826374
 20
13.4950459701
 30
0.0
 10
14.7387483574
 20
13.4939292197
 30
0.0
 10
14.7347377777
 20
13.49178404
 30
0.0
 10
14.7284430037
 20
13.4888821596
 30
0.0
 10
14.7217960449
 20
13.4862553798
 30
0.0
 10
14.7148337615
 20
13.4839178568
 30
0.0
 10
14.7075931975
 20
13.4818816559
 30
0.0
 10
14.7001132427
 20
13.4801581707
 30
0.0
 10
14.6924343976
 20
13.4787562982
 30
0.0
 10
14.6845980203
 20
13.477683914
 30
0.0
 10
14.6766464104
 20
13.4769465728
 30
0.0
 10
14.6686224935
 20
13.4765483113
 30
0.0
 10
14.6605695887
 20
13.4764914259
 30
0.0
 10
14.6525311766
 20
13.4767759143
 30
0.0
 10
14.6445506706
 20
13.4774006245
 30
0.0
 10
14.6366711332
 20
13.4783618414
 30
0.0
 10
14.6289351091
 20
13.4796545791
 30
0.0
 10
14.6213843385
 20
13.4812718679
 30
0.0
 10
14.6140594998
 20
13.4832048002
 30
0.0
 10
14.6070001508
 20
13.4854433373
 30
0.0
 10
14.6002441996
 20
13.4879750681
 30
0.0
 10
14.5938281025
 20
13.4907867798
 30
0.0
 10
14.5877863049
 20
13.4938633083
 30
0.0
 10
14.5821512417
 20
13.4971882744
 30
0.0
 10
14.5769533566
 20
13.5007443669
 30
0.0
 10
14.5722203958
 20
13.5045125307
 30
0.0
 10
14.5679782645
 20
13.5084735092
 30
0.0
 10
14.5642498989
 20
13.5126064225
 30
0.0
 10
14.5610561432
 20
13.5168899868
 30
0.0
 10
14.5584154328
 20
13.521301966
 30
0.0
 10
14.5563432033
 20
13.5258187792
 30
0.0
 10
14.5548531276
 20
13.5304164499
 30
0.0
 10
14.5539545776
 20
13.535067959
 30
0.0
 10
14.5537542051
 20
13.5381949534
 30
0.0
 10
14.553754163
 20
13.5397483327
 30
0.0
  0
SPLINE
  5
593
100
AcDbEntity
  8
AXIS_COSMETIC_THREADS
100
AcDbSpline
 62
7
  6
CONTINUOUS
 70
0
 71
3
 72
50
 73
46
 74
0
 42
0.0000001
 43
0.0000001
 44
0.0000000001
 40
0.0
 40
0.0
 40
0.0
 40
0.0
 40
0.0309809554
 40
0.0603641758
 40
0.0881402361
 40
0.1014559969
 40
0.1144078335
 40
0.1270168764
 40
0.1393098536
 40
0.1513196192
 40
0.1630836111
 40
0.1746442736
 40
0.186048431
 40
0.1973460358
 40
0.2085897641
 40
0.219833493
 40
0.2311310983
 40
0.2425352642
 40
0.2540959672
 40
0.2658600561
 40
0.2778699253
 40
0.2901628961
 40
0.3027717283
 40
0.3157234043
 40
0.3290395306
 40
0.3427373136
 40
0.3568283514
 40
0.3862058011
 40
0.4171910672
 40
0.4497342758
 40
0.4837358254
 40
0.5190561151
 40
0.5555227679
 40
0.592936439
 40
0.6310776859
 40
0.6697122807
 40
0.7085958349
 40
0.7474794059
 40
0.7861139749
 40
0.8242550333
 40
0.8616689789
 40
0.8981354647
 40
0.9334537428
 40
0.9674610961
 40
1.0
 40
1.0
 40
1.0
 40
1.0
 10
14.7152119495
 20
13.5546587789
 30
0.0
 10
14.7168691659
 20
13.5556155676
 30
0.0
 10
14.7200232697
 20
13.5576147895
 30
0.0
 10
14.724334948
 20
13.5609519905
 30
0.0
 10
14.7274868412
 20
13.563968977
 30
0.0
 10
14.7296836966
 20
13.5664846656
 30
0.0
 10
14.7311487755
 20
13.5683893244
 30
0.0
 10
14.7324504759
 20
13.5703336928
 30
0.0
 10
14.7335853389
 20
13.5723133024
 30
0.0
 10
14.7345508409
 20
13.5743231989
 30
0.0
 10
14.7353443199
 20
13.5763586917
 30
0.0
 10
14.7359635503
 20
13.5784148614
 30
0.0
 10
14.7364072622
 20
13.5804865557
 30
0.0
 10
14.7366739357
 20
13.5825687314
 30
0.0
 10
14.7367627715
 20
13.5846561434
 30
0.0
 10
14.7366739044
 20
13.5867435539
 30
0.0
 10
14.7364072034
 20
13.5888257267
 30
0.0
 10
14.7359634653
 20
13.5908974185
 30
0.0
 10
14.7353442037
 20
13.5929535885
 30
0.0
 10
14.7345506828
 20
13.5949890809
 30
0.0
 10
14.7335851413
 20
13.5969989724
 30
0.0
 10
14.732450264
 20
13.5989785616
 30
0.0
 10
14.731148574
 20
13.6009229217
 30
0.0
 10
14.7296835137
 20
13.6028275413
 30
0.0
 10
14.7280588053
 20
13.6046880205
 30
0.0
 10
14.7262780949
 20
13.6064997472
 30
0.0
 10
14.723665844
 20
13.6088776839
 30
0.0
 10
14.7200226033
 20
13.6116978014
 30
0.0
 10
14.7151694968
 20
13.6147736289
 30
0.0
 10
14.7098208199
 20
13.6175595251
 30
0.0
 10
14.7040278774
 20
13.6200295388
 30
0.0
 10
14.6978455655
 20
13.6221606459
 30
0.0
 10
14.6913326915
 20
13.6239325088
 30
0.0
 10
14.6845513893
 20
13.6253284594
 30
0.0
 10
14.6775664194
 20
13.6263352842
 30
0.0
 10
14.6704445179
 20
13.6269431907
 30
0.0
 10
14.6632538168
 20
13.6271464184
 30
0.0
 10
14.6560631182
 20
13.6269431567
 30
0.0
 10
14.6489412322
 20
13.6263352092
 30
0.0
 10
14.6419562623
 20
13.6253283739
 30
0.0
 10
14.6351749692
 20
13.6239323552
 30
0.0
 10
14.6286622559
 20
13.6221604756
 30
0.0
 10
14.6224795945
 20
13.6200293704
 30
0.0
 10
14.6166871179
 20
13.6175592525
 30
0.0
 10
14.6130368489
 20
13.6156580554
 30
0.0
 10
14.6112962956
 20
13.6146531524
 30
0.0
  0
SPLINE
  5
594
100
AcDbEntity
  8
AXIS_COSMETIC_THREADS
100
AcDbSpline
 62
7
  6
CONTINUOUS
 70
0
 71
3
 72
50
 73
46
 74
0
 42
0.0000001
 43
0.0000001
 44
0.0000000001
 40
0.0
 40
0.0
 40
0.0
 40
0.0
 40
0.0325389039
 40
0.0665462572
 40
0.1018645353
 40
0.1383310211
 40
0.1757449667
 40
0.2138860251
 40
0.2525205941
 40
0.2914041651
 40
0.3302877193
 40
0.3689223141
 40
0.407063561
 40
0.4444772321
 40
0.4809438849
 40
0.5162641746
 40
0.5502657242
 40
0.5828089328
 40
0.6137941989
 40
0.6431716486
 40
0.6572626864
 40
0.6709604694
 40
0.6842765957
 40
0.6972282717
 40
0.7098371039
 40
0.7221300747
 40
0.7341399439
 40
0.7459040328
 40
0.7574647358
 40
0.7688689017
 40
0.780166507
 40
0.7914102359
 40
0.8026539642
 40
0.813951569
 40
0.8253557264
 40
0.8369163889
 40
0.8486803808
 40
0.8606901464
 40
0.8729831236
 40
0.8855921665
 40
0.8985440031
 40
0.9118597639
 40
0.9396358242
 40
0.9690190446
 40
1.0
 40
1.0
 40
1.0
 40
1.0
 10
14.7152119495
 20
13.5546587789
 30
0.0
 10
14.7134713962
 20
13.553653876
 30
0.0
 10
14.7098211272
 20
13.5517526789
 30
0.0
 10
14.7040286506
 20
13.549282561
 30
0.0
 10
14.6978459892
 20
13.5471514558
 30
0.0
 10
14.6913332759
 20
13.5453795762
 30
0.0
 10
14.6845519828
 20
13.5439835575
 30
0.0
 10
14.6775670129
 20
13.5429767221
 30
0.0
 10
14.6704451269
 20
13.5423687747
 30
0.0
 10
14.6632544283
 20
13.5421655129
 30
0.0
 10
14.6560637272
 20
13.5423687407
 30
0.0
 10
14.6489418257
 20
13.5429766472
 30
0.0
 10
14.6419568558
 20
13.543983472
 30
0.0
 10
14.6351755536
 20
13.5453794226
 30
0.0
 10
14.6286626796
 20
13.5471512854
 30
0.0
 10
14.6224803677
 20
13.5492823926
 30
0.0
 10
14.6166874252
 20
13.5517524063
 30
0.0
 10
14.6113387483
 20
13.5545383025
 30
0.0
 10
14.6064856418
 20
13.55761413
 30
0.0
 10
14.602842401
 20
13.5604342474
 30
0.0
 10
14.6002301502
 20
13.5628121841
 30
0.0
 10
14.5984494398
 20
13.5646239109
 30
0.0
 10
14.5968247314
 20
13.5664843901
 30
0.0
 10
14.5953596711
 20
13.5683890097
 30
0.0
 10
14.594057981
 20
13.5703333698
 30
0.0
 10
14.5929231037
 20
13.572312959
 30
0.0
 10
14.5919575623
 20
13.5743228505
 30
0.0
 10
14.5911640414
 20
13.5763583429
 30
0.0
 10
14.5905447797
 20
13.5784145128
 30
0.0
 10
14.5901010417
 20
13.5804862047
 30
0.0
 10
14.5898343407
 20
13.5825683774
 30
0.0
 10
14.5897454736
 20
13.584655788
 30
0.0
 10
14.5898343093
 20
13.5867431999
 30
0.0
 10
14.5901009829
 20
13.5888253757
 30
0.0
 10
14.5905446948
 20
13.59089707
 30
0.0
 10
14.5911639252
 20
13.5929532397
 30
0.0
 10
14.5919574042
 20
13.5949887325
 30
0.0
 10
14.5929229062
 20
13.596998629
 30
0.0
 10
14.5940577691
 20
13.5989782385
 30
0.0
 10
14.5953594696
 20
13.6009226069
 30
0.0
 10
14.5968245485
 20
13.6028272658
 30
0.0
 10
14.5990214039
 20
13.6053429544
 30
0.0
 10
14.602173297
 20
13.6083599408
 30
0.0
 10
14.6064849754
 20
13.6116971419
 30
0.0
 10
14.6096390792
 20
13.6136963638
 30
0.0
 10
14.6112962956
 20
13.6146531524
 30
0.0
  0
SPLINE
  5
595
100
AcDbEntity
  8
AXIS_COSMETIC_THREADS
100
AcDbSpline
 62
7
  6
CONTINUOUS
 70
0
 71
3
 72
11
 73
7
 74
0
 42
0.0000001
 43
0.0000001
 44
0.0000000001
 40
0.0
 40
0.0
 40
0.0
 40
0.0
 40
0.2375217529
 40
0.4838414541
 40
0.7382320154
 40
1.0
 40
1.0
 40
1.0
 40
1.0
 10
16.9680782717
 20
12.192757545
 30
0.0
 10
16.9660047641
 20
12.191560412
 30
0.0
 10
16.961695084
 20
12.189268071
 30
0.0
 10
16.9549139255
 20
12.1861927605
 30
0.0
 10
16.9477353273
 20
12.183435086
 30
0.0
 10
16.9427795539
 20
12.1818406347
 30
0.0
 10
16.9402475466
 20
12.1810979399
 30
0.0
  0
SPLINE
  5
596
100
AcDbEntity
  8
AXIS_COSMETIC_THREADS
100
AcDbSpline
 62
7
  6
CONTINUOUS
 70
0
 71
3
 72
19
 73
15
 74
0
 42
0.0000001
 43
0.0000001
 44
0.0000000001
 40
0.0
 40
0.0
 40
0.0
 40
0.0
 40
0.1208780135
 40
0.2450951484
 40
0.3716196811
 40
0.4993534244
 40
0.5633298702
 40
0.6271838171
 40
0.690773953
 40
0.7539608238
 40
0.8166073169
 40
0.8785807921
 40
0.9397523151
 40
1.0
 40
1.0
 40
1.0
 40
1.0
 10
16.9402475466
 20
12.1810979399
 30
0.0
 10
16.9364264625
 20
12.1799771298
 30
0.0
 10
16.9285870964
 20
12.1780072853
 30
0.0
 10
16.9165201927
 20
12.1758867657
 30
0.0
 10
16.9041112539
 20
12.1745795342
 30
0.0
 10
16.8936267384
 20
12.1741826003
 30
0.0
 10
16.885207055
 20
12.1742839993
 30
0.0
 10
16.8789063709
 20
12.174570234
 30
0.0
 10
16.872644849
 20
12.1750659134
 30
0.0
 10
16.8664431982
 20
12.1757690083
 30
0.0
 10
16.8603221275
 20
12.1766776222
 30
0.0
 10
16.8543019043
 20
12.1777882759
 30
0.0
 10
16.848402728
 20
12.1790976938
 30
0.0
 10
16.8445314757
 20
12.1801084165
 30
0.0
 10
16.8426211316
 20
12.1806467026
 30
0.0
  0
SPLINE
  5
597
100
AcDbEntity
  8
AXIS_COSMETIC_THREADS
100
AcDbSpline
 62
7
  6
CONTINUOUS
 70
0
 71
3
 72
23
 73
19
 74
0
 42
0.0000001
 43
0.0000001
 44
0.0000000001
 40
0.0
 40
0.0
 40
0.0
 40
0.0
 40
0.0787897829
 40
0.1556745202
 40
0.2304768769
 40
0.3030471871
 40
0.3732645526
 40
0.4410431463
 40
0.5063363223
 40
0.5691410164
 40
0.6295052629
 40
0.6875301981
 40
0.7433790021
 40
0.7972758035
 40
0.8495108319
 40
0.900433972
 40
0.950449235
 40
1.0
 40
1.0
 40
1.0
 40
1.0
 10
16.8411433223
 20
12.1810711081
 30
0.0
 10
16.8389268033
 20
12.1817197482
 30
0.0
 10
16.8345757593
 20
12.1831012246
 30
0.0
 10
16.8282400167
 20
12.1854535651
 30
0.0
 10
16.8221987406
 20
12.1880520694
 30
0.0
 10
16.8164804079
 20
12.190884154
 30
0.0
 10
16.8111119918
 20
12.1939369123
 30
0.0
 10
16.8061187029
 20
12.1971960329
 30
0.0
 10
16.8015240443
 20
12.200646465
 30
0.0
 10
16.7973498338
 20
12.2042724959
 30
0.0
 10
16.7936156792
 20
12.2080572747
 30
0.0
 10
16.7903398845
 20
12.2119839062
 30
0.0
 10
16.7875380209
 20
12.2160340623
 30
0.0
 10
16.7852247714
 20
12.2201895665
 30
0.0
 10
16.7834116648
 20
12.2244306247
 30
0.0
 10
16.7821092511
 20
12.2287374907
 30
0.0
 10
16.7813245493
 20
12.2330880142
 30
0.0
 10
16.7811497585
 20
12.2360094427
 30
0.0
 10
16.7811497973
 20
12.2374618699
 30
0.0
  0
SPLINE
  5
598
100
AcDbEntity
  8
AXIS_COSMETIC_THREADS
100
AcDbSpline
 62
7
  6
CONTINUOUS
 70
0
 71
3
 72
20
 73
16
 74
0
 42
0.0000001
 43
0.0000001
 44
0.0000000001
 40
0.0
 40
0.0
 40
0.0
 40
0.0
 40
0.0752254456
 40
0.1485782107
 40
0.2894346172
 40
0.4226023805
 40
0.4864447708
 40
0.5485391903
 40
0.6678535922
 40
0.7254313551
 40
0.7818315355
 40
0.8372570493
 40
0.8919311993
 40
0.9460949153
 40
1.0
 40
1.0
 40
1.0
 40
1.0
 10
16.9680782717
 20
12.192757545
 30
0.0
 10
16.969328993
 20
12.193479645
 30
0.0
 10
16.9717697585
 20
12.1949580557
 30
0.0
 10
16.9763906371
 20
12.1980466837
 30
0.0
 10
16.9816733342
 20
12.2021356873
 30
0.0
 10
16.9863696366
 20
12.206631048
 30
0.0
 10
16.9896438409
 20
12.2103799511
 30
0.0
 10
16.9925160294
 20
12.2141135268
 30
0.0
 10
16.9949560253
 20
12.2180198809
 30
0.0
 10
16.9968967153
 20
12.2220602674
 30
0.0
 10
16.9980792611
 20
12.2250935733
 30
0.0
 10
16.9990024379
 20
12.2281574449
 30
0.0
 10
16.9996634976
 20
12.2312447036
 30
0.0
 10
17.0000611444
 20
12.2343472352
 30
0.0
 10
17.0001496886
 20
12.2364230553
 30
0.0
 10
17.0001497163
 20
12.2374579455
 30
0.0
  0
SPLINE
  5
599
100
AcDbEntity
  8
AXIS_COSMETIC_THREADS
100
AcDbSpline
 62
7
  6
CONTINUOUS
 70
0
 71
3
 72
24
 73
20
 74
0
 42
0.0000001
 43
0.0000001
 44
0.0000000001
 40
0.0
 40
0.0
 40
0.0
 40
0.0
 40
0.0628172546
 40
0.1255738841
 40
0.1883122571
 40
0.251019797
 40
0.3136646741
 40
0.3449657589
 40
0.3762489273
 40
0.4387478369
 40
0.5011739293
 40
0.5635276733
 40
0.6258201658
 40
0.6880781654
 40
0.7503223359
 40
0.8125925611
 40
0.874918368
 40
0.9373603793
 40
1.0
 40
1.0
 40
1.0
 40
1.0
 10
16.7811497568
 20
12.253789956
 30
0.0
 10
16.7811497568
 20
12.2556506621
 30
0.0
 10
16.7812856965
 20
12.2593716977
 30
0.0
 10
16.7818948782
 20
12.264921035
 30
0.0
 10
16.7829052676
 20
12.2704084825
 30
0.0
 10
16.7843063346
 20
12.275805681
 30
0.0
 10
16.7857920928
 20
12.2802061086
 30
0.0
 10
16.7871633896
 20
12.2836534323
 30
0.0
 10
16.7886527121
 20
12.2870467241
 30
0.0
 10
16.7907330072
 20
12.2911842298
 30
0.0
 10
16.7935597792
 20
12.2959621471
 30
0.0
 10
16.7966964629
 20
12.3005351268
 30
0.0
 10
16.8001228829
 20
12.3048885929
 30
0.0
 10
16.8038171527
 20
12.3090125775
 30
0.0
 10
16.8077596584
 20
12.3128987
 30
0.0
 10
16.8119295083
 20
12.3165424908
 30
0.0
 10
16.8163083861
 20
12.3199415377
 30
0.0
 10
16.8208800304
 20
12.3230952143
 30
0.0
 10
16.8240410953
 20
12.3250317571
 30
0.0
 10
16.8256479597
 20
12.3259594751
 30
0.0
  0
SPLINE
  5
59A
100
AcDbEntity
  8
AXIS_COSMETIC_THREADS
100
AcDbSpline
 62
7
  6
CONTINUOUS
 70
0
 71
3
 72
39
 73
35
 74
0
 42
0.0000001
 43
0.0000001
 44
0.0000000001
 40
0.0
 40
0.0
 40
0.0
 40
0.0
 40
0.0618750468
 40
0.1245119955
 40
0.1561493394
 40
0.1879811326
 40
0.2199794553
 40
0.2521069743
 40
0.2843161095
 40
0.3165555287
 40
0.380886615
 40
0.4128986148
 40
0.4447458189
 40
0.4764024153
 40
0.5078531218
 40
0.5390977641
 40
0.5701500962
 40
0.6010332671
 40
0.6317818226
 40
0.662431775
 40
0.6930206816
 40
0.7235834255
 40
0.7541496037
 40
0.7847402338
 40
0.8153701127
 40
0.8460443357
 40
0.8767655724
 40
0.8921457977
 40
0.9075362951
 40
0.922935251
 40
0.9383399684
 40
0.9537482999
 40
0.9691605295
 40
1.0
 40
1.0
 40
1.0
 40
1.0
 10
16.8256479597
 20
12.3259594751
 30
0.0
 10
16.8296565234
 20
12.3282738067
 30
0.0
 10
16.8380338714
 20
12.3324091136
 30
0.0
 10
16.8490707796
 20
12.3363117026
 30
0.0
 10
16.8581962707
 20
12.3387178289
 30
0.0
 10
16.8651922391
 20
12.3401698572
 30
0.0
 10
16.8722899398
 20
12.3412631472
 30
0.0
 10
16.879461918
 20
12.3419979654
 30
0.0
 10
16.8866798797
 20
12.342374185
 30
0.0
 10
16.8963163464
 20
12.3423974521
 30
0.0
 10
16.9059296379
 20
12.3417054869
 30
0.0
 10
16.9154177126
 20
12.3402924694
 30
0.0
 10
16.9224246233
 20
12.3388757299
 30
0.0
 10
16.9293057864
 20
12.3370998089
 30
0.0
 10
16.9360368199
 20
12.3349637221
 30
0.0
 10
16.942593702
 20
12.3324648978
 30
0.0
 10
16.9489531098
 20
12.3296004396
 30
0.0
 10
16.9550912768
 20
12.3263664105
 30
0.0
 10
16.9609827002
 20
12.3227586448
 30
0.0
 10
16.9666000084
 20
12.3187745134
 30
0.0
 10
16.97191201
 20
12.3144126999
 30
0.0
 10
16.9768851224
 20
12.3096764816
 30
0.0
 10
16.9814817384
 20
12.30457321
 30
0.0
 10
16.9856634793
 20
12.2991178496
 30
0.0
 10
16.9893892691
 20
12.2933312444
 30
0.0
 10
16.9926211708
 20
12.2872437293
 30
0.0
 10
16.9948706853
 20
12.2819506415
 30
0.0
 10
16.9963890343
 20
12.2776071268
 30
0.0
 10
16.997383682
 20
12.2742983965
 30
0.0
 10
16.9982307819
 20
12.2709470181
 30
0.0
 10
16.9989279728
 20
12.2675599195
 30
0.0
 10
16.9994725647
 20
12.2641438095
 30
0.0
 10
16.9999927348
 20
12.2595595891
 30
0.0
 10
17.0001497568
 20
12.2560969629
 30
0.0
 10
17.0001497568
 20
12.253789956
 30
0.0
  0
SPLINE
  5
59B
100
AcDbEntity
  8
AXIS_COSMETIC_THREADS
100
AcDbSpline
 62
7
  6
CONTINUOUS
 70
0
 71
3
 72
20
 73
16
 74
0
 42
0.0000001
 43
0.0000001
 44
0.0000000001
 40
0.0
 40
0.0
 40
0.0
 40
0.0
 40
0.0752258222
 40
0.1485788772
 40
0.2894355925
 40
0.4226033392
 40
0.4864456202
 40
0.5485398762
 40
0.6678538533
 40
0.7254314045
 40
0.781831404
 40
0.8372567941
 40
0.8919309066
 40
0.9460946988
 40
1.0
 40
1.0
 40
1.0
 40
1.0
 10
16.9680782717
 20
12.2090875934
 30
0.0
 10
16.9693290418
 20
12.2098097216
 30
0.0
 10
16.9717699001
 20
12.2112881912
 30
0.0
 10
16.9763909434
 20
12.2143769471
 30
0.0
 10
16.9816738068
 20
12.2184661271
 30
0.0
 10
16.9863702244
 20
12.2229616945
 30
0.0
 10
16.9896444787
 20
12.2267107719
 30
0.0
 10
16.9925166863
 20
12.2304445184
 30
0.0
 10
16.994956663
 20
12.2343510535
 30
0.0
 10
16.9968972875
 20
12.2383916236
 30
0.0
 10
16.9980797634
 20
12.2414250655
 30
0.0
 10
16.999002848
 20
12.2444890721
 30
0.0
 10
16.9996637938
 20
12.2475764637
 30
0.0
 10
17.0000613051
 20
12.2506791253
 30
0.0
 10
17.0001497443
 20
12.2527550265
 30
0.0
 10
17.0001497163
 20
12.253789956
 30
0.0
  0
SPLINE
  5
59C
100
AcDbEntity
  8
AXIS_COSMETIC_THREADS
100
AcDbSpline
 62
7
  6
CONTINUOUS
 70
0
 71
3
 72
39
 73
35
 74
0
 42
0.0000001
 43
0.0000001
 44
0.0000000001
 40
0.0
 40
0.0
 40
0.0
 40
0.0
 40
0.0306601343
 40
0.0623884033
 40
0.0951015473
 40
0.1287231547
 40
0.1631613002
 40
0.1983098222
 40
0.2340550241
 40
0.2702770864
 40
0.3068498571
 40
0.3436436284
 40
0.3805261393
 40
0.4173642804
 40
0.454025295
 40
0.4903784661
 40
0.526296467
 40
0.5616567694
 40
0.596343678
 40
0.6302490987
 40
0.6632755321
 40
0.695336674
 40
0.7263604863
 40
0.7562911208
 40
0.7850909342
 40
0.812744523
 40
0.8392599117
 40
0.8646733419
 40
0.8890509179
 40
0.9124913314
 40
0.9351273998
 40
0.9571241649
 40
0.9786762532
 40
1.0
 40
1.0
 40
1.0
 40
1.0
 10
16.9680782717
 20
12.2090875934
 30
0.0
 10
16.9661439916
 20
12.2079708429
 30
0.0
 10
16.9621334119
 20
12.2058256633
 30
0.0
 10
16.9558386379
 20
12.2029237829
 30
0.0
 10
16.9491916791
 20
12.2002970031
 30
0.0
 10
16.9422293958
 20
12.1979594801
 30
0.0
 10
16.9349888317
 20
12.1959232791
 30
0.0
 10
16.9275088769
 20
12.194199794
 30
0.0
 10
16.9198300318
 20
12.1927979214
 30
0.0
 10
16.9119936545
 20
12.1917255373
 30
0.0
 10
16.9040420446
 20
12.1909881961
 30
0.0
 10
16.8960181277
 20
12.1905899345
 30
0.0
 10
16.8879652229
 20
12.1905330491
 30
0.0
 10
16.8799268108
 20
12.1908175375
 30
0.0
 10
16.8719463049
 20
12.1914422477
 30
0.0
 10
16.8640667674
 20
12.1924034647
 30
0.0
 10
16.8563307433
 20
12.1936962024
 30
0.0
 10
16.8487799728
 20
12.1953134912
 30
0.0
 10
16.841455134
 20
12.1972464234
 30
0.0
 10
16.834395785
 20
12.1994849606
 30
0.0
 10
16.8276398338
 20
12.2020166913
 30
0.0
 10
16.8212237367
 20
12.204828403
 30
0.0
 10
16.8151819391
 20
12.2079049316
 30
0.0
 10
16.8095468759
 20
12.2112298977
 30
0.0
 10
16.8043489908
 20
12.2147859901
 30
0.0
 10
16.7996160301
 20
12.2185541539
 30
0.0
 10
16.7953738987
 20
12.2225151324
 30
0.0
 10
16.7916455331
 20
12.2266480458
 30
0.0
 10
16.7884517775
 20
12.2309316101
 30
0.0
 10
16.7858110671
 20
12.2353435892
 30
0.0
 10
16.7837388375
 20
12.2398604025
 30
0.0
 10
16.7822487618
 20
12.2444580731
 30
0.0
 10
16.7813502118
 20
12.2491095823
 30
0.0
 10
16.7811498393
 20
12.2522365766
 30
0.0
 10
16.7811497973
 20
12.253789956
 30
0.0
  0
SPLINE
  5
59D
100
AcDbEntity
  8
AXIS_COSMETIC_THREADS
100
AcDbSpline
 62
7
  6
CONTINUOUS
 70
0
 71
3
 72
50
 73
46
 74
0
 42
0.0000001
 43
0.0000001
 44
0.0000000001
 40
0.0
 40
0.0
 40
0.0
 40
0.0
 40
0.0309809554
 40
0.0603641758
 40
0.0881402361
 40
0.1014559969
 40
0.1144078335
 40
0.1270168764
 40
0.1393098536
 40
0.1513196192
 40
0.1630836111
 40
0.1746442736
 40
0.186048431
 40
0.1973460358
 40
0.2085897641
 40
0.219833493
 40
0.2311310983
 40
0.2425352642
 40
0.2540959672
 40
0.2658600561
 40
0.2778699253
 40
0.2901628961
 40
0.3027717283
 40
0.3157234043
 40
0.3290395306
 40
0.3427373136
 40
0.3568283514
 40
0.3862058011
 40
0.4171910672
 40
0.4497342758
 40
0.4837358254
 40
0.5190561151
 40
0.5555227679
 40
0.592936439
 40
0.6310776859
 40
0.6697122807
 40
0.7085958349
 40
0.7474794059
 40
0.7861139749
 40
0.8242550333
 40
0.8616689789
 40
0.8981354647
 40
0.9334537428
 40
0.9674610961
 40
1.0
 40
1.0
 40
1.0
 40
1.0
 10
16.9426075837
 20
12.2687004022
 30
0.0
 10
16.9442648001
 20
12.2696571908
 30
0.0
 10
16.9474189039
 20
12.2716564128
 30
0.0
 10
16.9517305823
 20
12.2749936138
 30
0.0
 10
16.9548824754
 20
12.2780106003
 30
0.0
 10
16.9570793308
 20
12.2805262889
 30
0.0
 10
16.9585444097
 20
12.2824309477
 30
0.0
 10
16.9598461102
 20
12.2843753161
 30
0.0
 10
16.9609809731
 20
12.2863549256
 30
0.0
 10
16.9619464751
 20
12.2883648222
 30
0.0
 10
16.9627399541
 20
12.2904003149
 30
0.0
 10
16.9633591845
 20
12.2924564846
 30
0.0
 10
16.9638028964
 20
12.2945281789
 30
0.0
 10
16.96406957
 20
12.2966103547
 30
0.0
 10
16.9641584057
 20
12.2986977666
 30
0.0
 10
16.9640695386
 20
12.3007851772
 30
0.0
 10
16.9638028376
 20
12.30286735
 30
0.0
 10
16.9633590996
 20
12.3049390418
 30
0.0
 10
16.9627398379
 20
12.3069952118
 30
0.0
 10
16.961946317
 20
12.3090307041
 30
0.0
 10
16.9609807756
 20
12.3110405956
 30
0.0
 10
16.9598458983
 20
12.3130201848
 30
0.0
 10
16.9585442082
 20
12.314964545
 30
0.0
 10
16.9570791479
 20
12.3168691645
 30
0.0
 10
16.9554544395
 20
12.3187296437
 30
0.0
 10
16.9536737291
 20
12.3205413705
 30
0.0
 10
16.9510614783
 20
12.3229193072
 30
0.0
 10
16.9474182375
 20
12.3257394247
 30
0.0
 10
16.942565131
 20
12.3288152521
 30
0.0
 10
16.9372164541
 20
12.3316011484
 30
0.0
 10
16.9314235116
 20
12.334071162
 30
0.0
 10
16.9252411997
 20
12.3362022692
 30
0.0
 10
16.9187283257
 20
12.337974132
 30
0.0
 10
16.9119470235
 20
12.3393700827
 30
0.0
 10
16.9049620536
 20
12.3403769074
 30
0.0
 10
16.8978401521
 20
12.3409848139
 30
0.0
 10
16.890649451
 20
12.3411880417
 30
0.0
 10
16.8834587524
 20
12.3409847799
 30
0.0
 10
16.8763368664
 20
12.3403768325
 30
0.0
 10
16.8693518965
 20
12.3393699971
 30
0.0
 10
16.8625706034
 20
12.3379739784
 30
0.0
 10
16.8560578901
 20
12.3362020989
 30
0.0
 10
16.8498752287
 20
12.3340709936
 30
0.0
 10
16.8440827521
 20
12.3316008757
 30
0.0
 10
16.8404324831
 20
12.3296996786
 30
0.0
 10
16.8386919298
 20
12.3286947757
 30
0.0
  0
SPLINE
  5
59E
100
AcDbEntity
  8
AXIS_COSMETIC_THREADS
100
AcDbSpline
 62
7
  6
CONTINUOUS
 70
0
 71
3
 72
50
 73
46
 74
0
 42
0.0000001
 43
0.0000001
 44
0.0000000001
 40
0.0
 40
0.0
 40
0.0
 40
0.0
 40
0.0325389039
 40
0.0665462572
 40
0.1018645353
 40
0.1383310211
 40
0.1757449667
 40
0.2138860251
 40
0.2525205941
 40
0.2914041651
 40
0.3302877193
 40
0.3689223141
 40
0.407063561
 40
0.4444772321
 40
0.4809438849
 40
0.5162641746
 40
0.5502657242
 40
0.5828089328
 40
0.6137941989
 40
0.6431716486
 40
0.6572626864
 40
0.6709604694
 40
0.6842765957
 40
0.6972282717
 40
0.7098371039
 40
0.7221300747
 40
0.7341399439
 40
0.7459040328
 40
0.7574647358
 40
0.7688689017
 40
0.780166507
 40
0.7914102359
 40
0.8026539642
 40
0.813951569
 40
0.8253557264
 40
0.8369163889
 40
0.8486803808
 40
0.8606901464
 40
0.8729831236
 40
0.8855921665
 40
0.8985440031
 40
0.9118597639
 40
0.9396358242
 40
0.9690190446
 40
1.0
 40
1.0
 40
1.0
 40
1.0
 10
16.9426075837
 20
12.2687004022
 30
0.0
 10
16.9408670304
 20
12.2676954993
 30
0.0
 10
16.9372167614
 20
12.2657943022
 30
0.0
 10
16.9314242848
 20
12.2633241843
 30
0.0
 10
16.9252416234
 20
12.261193079
 30
0.0
 10
16.9187289101
 20
12.2594211995
 30
0.0
 10
16.911947617
 20
12.2580251808
 30
0.0
 10
16.9049626471
 20
12.2570183454
 30
0.0
 10
16.8978407611
 20
12.256410398
 30
0.0
 10
16.8906500625
 20
12.2562071362
 30
0.0
 10
16.8834593614
 20
12.256410364
 30
0.0
 10
16.8763374599
 20
12.2570182705
 30
0.0
 10
16.86935249
 20
12.2580250952
 30
0.0
 10
16.8625711878
 20
12.2594210459
 30
0.0
 10
16.8560583138
 20
12.2611929087
 30
0.0
 10
16.8498760019
 20
12.2633240159
 30
0.0
 10
16.8440830594
 20
12.2657940295
 30
0.0
 10
16.8387343825
 20
12.2685799258
 30
0.0
 10
16.833881276
 20
12.2716557532
 30
0.0
 10
16.8302380353
 20
12.2744758707
 30
0.0
 10
16.8276257844
 20
12.2768538074
 30
0.0
 10
16.825845074
 20
12.2786655341
 30
0.0
 10
16.8242203656
 20
12.2805260134
 30
0.0
 10
16.8227553053
 20
12.2824306329
 30
0.0
 10
16.8214536153
 20
12.2843749931
 30
0.0
 10
16.820318738
 20
12.2863545823
 30
0.0
 10
16.8193531965
 20
12.2883644738
 30
0.0
 10
16.8185596756
 20
12.2903999661
 30
0.0
 10
16.817940414
 20
12.2924561361
 30
0.0
 10
16.8174966759
 20
12.2945278279
 30
0.0
 10
16.8172299749
 20
12.2966100007
 30
0.0
 10
16.8171411078
 20
12.2986974113
 30
0.0
 10
16.8172299436
 20
12.3007848232
 30
0.0
 10
16.8174966171
 20
12.302866999
 30
0.0
 10
16.817940329
 20
12.3049386933
 30
0.0
 10
16.8185595594
 20
12.306994863
 30
0.0
 10
16.8193530384
 20
12.3090303557
 30
0.0
 10
16.8203185404
 20
12.3110402523
 30
0.0
 10
16.8214534034
 20
12.3130198618
 30
0.0
 10
16.8227551038
 20
12.3149642302
 30
0.0
 10
16.8242201827
 20
12.316868889
 30
0.0
 10
16.8264170381
 20
12.3193845776
 30
0.0
 10
16.8295689313
 20
12.3224015641
 30
0.0
 10
16.8338806096
 20
12.3257387651
 30
0.0
 10
16.8370347134
 20
12.3277379871
 30
0.0
 10
16.8386919298
 20
12.3286947757
 30
0.0
  0
SPLINE
  5
59F
100
AcDbEntity
  8
AXIS_COSMETIC_THREADS
100
AcDbSpline
 62
7
  6
CONTINUOUS
 70
0
 71
3
 72
15
 73
11
 74
0
 42
0.0000001
 43
0.0000001
 44
0.0000000001
 40
0.0
 40
0.0
 40
0.0
 40
0.0
 40
0.141252439
 40
0.2778105126
 40
0.4095207783
 40
0.5364030093
 40
0.6586095463
 40
0.7763766633
 40
0.8900297791
 40
1.0
 40
1.0
 40
1.0
 40
1.0
 10
18.475980487
 20
12.2897119241
 30
0.0
 10
18.4773368127
 20
12.2904949944
 30
0.0
 10
18.4800478654
 20
12.2919614964
 30
0.0
 10
18.4841664469
 20
12.2938797739
 30
0.0
 10
18.4882522352
 20
12.2954706107
 30
0.0
 10
18.4922870138
 20
12.2967267459
 30
0.0
 10
18.4962542307
 20
12.2976428746
 30
0.0
 10
18.5001378768
 20
12.2982147056
 30
0.0
 10
18.5039211823
 20
12.2984399174
 30
0.0
 10
18.5064037621
 20
12.2983558132
 30
0.0
 10
18.507618758
 20
12.2982534116
 30
0.0
  0
SPLINE
  5
5A0
100
AcDbEntity
  8
AXIS_COSMETIC_THREADS
100
AcDbSpline
 62
7
  6
CONTINUOUS
 70
0
 71
3
 72
11
 73
7
 74
0
 42
0.0000001
 43
0.0000001
 44
0.0000000001
 40
0.0
 40
0.0
 40
0.0
 40
0.0
 40
0.2571409371
 40
0.5082460246
 40
0.7551882685
 40
1.0
 40
1.0
 40
1.0
 40
1.0
 10
18.507618758
 20
12.2982534116
 30
0.0
 10
18.5088209768
 20
12.2981520869
 30
0.0
 10
18.5111892917
 20
12.2978333851
 30
0.0
 10
18.5146371236
 20
12.29698734
 30
0.0
 10
18.5179158857
 20
12.2957842267
 30
0.0
 10
18.5199825558
 20
12.2947450007
 30
0.0
 10
18.5209773336
 20
12.294170739
 30
0.0
  0
SPLINE
  5
5A1
100
AcDbEntity
  8
AXIS_COSMETIC_THREADS
100
AcDbSpline
 62
7
  6
CONTINUOUS
 70
0
 71
3
 72
22
 73
18
 74
0
 42
0.0000001
 43
0.0000001
 44
0.0000000001
 40
0.0
 40
0.0
 40
0.0
 40
0.0
 40
0.129348309
 40
0.1931490256
 40
0.2564234805
 40
0.319249242
 40
0.3817195185
 40
0.4439051704
 40
0.5058857448
 40
0.5677278835
 40
0.6294827528
 40
0.6912053662
 40
0.7529282634
 40
0.8146785539
 40
0.8764220195
 40
0.938156612
 40
1.0
 40
1.0
 40
1.0
 40
1.0
 10
18.4635537692
 20
12.0744492116
 30
0.0
 10
18.4584581579
 20
12.0715072766
 30
0.0
 10
18.4506390867
 20
12.0674597355
 30
0.0
 10
18.4398961983
 20
12.0629056318
 30
0.0
 10
18.4317701159
 20
12.0599616379
 30
0.0
 10
18.4235497927
 20
12.057494841
 30
0.0
 10
18.4152467421
 20
12.0555253481
 30
0.0
 10
18.406876043
 20
12.0540749048
 30
0.0
 10
18.3984574915
 20
12.0531672393
 30
0.0
 10
18.3900162795
 20
12.0528237177
 30
0.0
 10
18.3815827662
 20
12.0530649749
 30
0.0
 10
18.3731932158
 20
12.0539096464
 30
0.0
 10
18.3648884371
 20
12.0553701783
 30
0.0
 10
18.3567171388
 20
12.0574565111
 30
0.0
 10
18.3487289663
 20
12.0601635127
 30
0.0
 10
18.3409736838
 20
12.0634893589
 30
0.0
 10
18.3359918994
 20
12.0661085253
 30
0.0
 10
18.3335556002
 20
12.0675150915
 30
0.0
  0
SPLINE
  5
5A2
100
AcDbEntity
  8
AXIS_COSMETIC_THREADS
100
AcDbSpline
 62
7
  6
CONTINUOUS
 70
0
 71
3
 72
23
 73
19
 74
0
 42
0.0000001
 43
0.0000001
 44
0.0000000001
 40
0.0
 40
0.0
 40
0.0
 40
0.0
 40
0.0752207913
 40
0.148559723
 40
0.2199635349
 40
0.2894251961
 40
0.3569668301
 40
0.422626124
 40
0.4864576683
 40
0.548540413
 40
0.6089800904
 40
0.6679064173
 40
0.7254753705
 40
0.7818661835
 40
0.8372827131
 40
0.8919481998
 40
0.9461033185
 40
1.0
 40
1.0
 40
1.0
 40
1.0
 10
18.427189916
 20
12.407695802
 30
0.0
 10
18.4294746008
 20
12.4090148575
 30
0.0
 10
18.4340422278
 20
12.4115255527
 30
0.0
 10
18.4409639856
 20
12.4149376863
 30
0.0
 10
18.4478538577
 20
12.4179396892
 30
0.0
 10
18.4546943057
 20
12.4205240581
 30
0.0
 10
18.4614693631
 20
12.4226845085
 30
0.0
 10
18.4681630687
 20
12.4244160058
 30
0.0
 10
18.4747594642
 20
12.4257141542
 30
0.0
 10
18.4812427363
 20
12.426575271
 30
0.0
 10
18.4875972869
 20
12.426997419
 30
0.0
 10
18.4938078914
 20
12.4269786838
 30
0.0
 10
18.4998595049
 20
12.4265193969
 30
0.0
 10
18.505737313
 20
12.4256195148
 30
0.0
 10
18.5114268792
 20
12.4242815911
 30
0.0
 10
18.5169140625
 20
12.4225078787
 30
0.0
 10
18.5221847568
 20
12.420303257
 30
0.0
 10
18.5255491813
 20
12.4185475725
 30
0.0
 10
18.5271862109
 20
12.4176024919
 30
0.0
  0
SPLINE
  5
5A3
100
AcDbEntity
  8
AXIS_COSMETIC_THREADS
100
AcDbSpline
 62
7
  6
CONTINUOUS
 70
0
 71
3
 72
34
 73
30
 74
0
 42
0.0000001
 43
0.0000001
 44
0.0000000001
 40
0.0
 40
0.0
 40
0.0
 40
0.0
 40
0.0294296168
 40
0.0597828049
 40
0.0909911498
 40
0.1229919992
 40
0.1557238227
 40
0.1891148535
 40
0.2575236686
 40
0.3275196449
 40
0.3983365732
 40
0.43381072
 40
0.4691908488
 40
0.5043776618
 40
0.5392736417
 40
0.5737832305
 40
0.6078152379
 40
0.6412817536
 40
0.6741011538
 40
0.7374851177
 40
0.7974727798
 40
0.8260881962
 40
0.8537387287
 40
0.8804140569
 40
0.9061188664
 40
0.9308762072
 40
0.9547293311
 40
0.977741537
 40
1.0
 40
1.0
 40
1.0
 40
1.0
 10
18.475980487
 20
12.2897119241
 30
0.0
 10
18.4745776276
 20
12.2889019876
 30
0.0
 10
18.4717745801
 20
12.2871746301
 30
0.0
 10
18.4676534878
 20
12.2843248756
 30
0.0
 10
18.4635674983
 20
12.2811867934
 30
0.0
 10
18.4595347101
 20
12.2777745594
 30
0.0
 10
18.4555717172
 20
12.2741023853
 30
0.0
 10
18.4503613373
 20
12.2688380324
 30
0.0
 10
18.444136923
 20
12.2617043181
 30
0.0
 10
18.4372619491
 20
12.2524522239
 30
0.0
 10
18.4320748828
 20
12.2442398101
 30
0.0
 10
18.4282869274
 20
12.2374220194
 30
0.0
 10
18.4256454006
 20
12.2322155558
 30
0.0
 10
18.4232169197
 20
12.2269414666
 30
0.0
 10
18.4210111112
 20
12.221622212
 30
0.0
 10
18.4190379573
 20
12.2162799917
 30
0.0
 10
18.417305207
 20
12.210937658
 30
0.0
 10
18.415820559
 20
12.2056174276
 30
0.0
 10
18.4141990828
 20
12.1986648635
 30
0.0
 10
18.4128032096
 20
12.1901687621
 30
0.0
 10
18.4122646959
 20
12.1818034078
 30
0.0
 10
18.4123958902
 20
12.1754026588
 30
0.0
 10
18.4127621807
 20
12.1708490975
 30
0.0
 10
18.4133959713
 20
12.1664865955
 30
0.0
 10
18.4142950468
 20
12.1623333184
 30
0.0
 10
18.4154561436
 20
12.1584068746
 30
0.0
 10
18.4168743344
 20
12.1547235473
 30
0.0
 10
18.4185446874
 20
12.1512997649
 30
0.0
 10
18.4198416453
 20
12.1491667952
 30
0.0
 10
18.4205297523
 20
12.1481531236
 30
0.0
  0
SPLINE
  5
5A4
100
AcDbEntity
  8
AXIS_COSMETIC_THREADS
100
AcDbSpline
 62
7
  6
CONTINUOUS
 70
0
 71
3
 72
11
 73
7
 74
0
 42
0.0000001
 43
0.0000001
 44
0.0000000001
 40
0.0
 40
0.0
 40
0.0
 40
0.0
 40
0.2575157423
 40
0.5086867963
 40
0.7554652252
 40
1.0
 40
1.0
 40
1.0
 40
1.0
 10
18.4205297523
 20
12.1481531236
 30
0.0
 10
18.4212285034
 20
12.147123772
 30
0.0
 10
18.4227137402
 20
12.1451589976
 30
0.0
 10
18.4252238963
 20
12.1424992271
 30
0.0
 10
18.4279731282
 20
12.1401830611
 30
0.0
 10
18.4299604858
 20
12.1388733171
 30
0.0
 10
18.4309836405
 20
12.138282674
 30
0.0
  0
SPLINE
  5
5A5
100
AcDbEntity
  8
AXIS_COSMETIC_THREADS
100
AcDbSpline
 62
7
  6
CONTINUOUS
 70
0
 71
3
 72
11
 73
7
 74
0
 42
0.0000001
 43
0.0000001
 44
0.0000000001
 40
0.0
 40
0.0
 40
0.0
 40
0.0
 40
0.2368594545
 40
0.4829998894
 40
0.7376596821
 40
1.0
 40
1.0
 40
1.0
 40
1.0
 10
18.427189916
 20
12.407695802
 30
0.0
 10
18.4231342031
 20
12.4053542491
 30
0.0
 10
18.4150391632
 20
12.4002703628
 30
0.0
 10
18.4032286097
 20
12.3916966445
 30
0.0
 10
18.391588612
 20
12.3820816305
 30
0.0
 10
18.3840976989
 20
12.3751168824
 30
0.0
 10
18.3803972481
 20
12.3714822038
 30
0.0
  0
SPLINE
  5
5A6
100
AcDbEntity
  8
AXIS_COSMETIC_THREADS
100
AcDbSpline
 62
7
  6
CONTINUOUS
 70
0
 71
3
 72
16
 73
12
 74
0
 42
0.0000001
 43
0.0000001
 44
0.0000000001
 40
0.0
 40
0.0
 40
0.0
 40
0.0
 40
0.1213733742
 40
0.1832852161
 40
0.2458478036
 40
0.372404271
 40
0.5000234288
 40
0.6276407196
 40
0.7541916556
 40
0.8786388837
 40
1.0
 40
1.0
 40
1.0
 40
1.0
 10
18.3803972481
 20
12.3714822038
 30
0.0
 10
18.3753347774
 20
12.366509714
 30
0.0
 10
18.367968038
 20
12.3587112031
 30
0.0
 10
18.3586515575
 20
12.3477635247
 30
0.0
 10
18.3495244203
 20
12.3362669525
 30
0.0
 10
18.3387450829
 20
12.3211917061
 30
0.0
 10
18.326961223
 20
12.3022163042
 30
0.0
 10
18.3164247196
 20
12.2825208411
 30
0.0
 10
18.3072669084
 20
12.2623505602
 30
0.0
 10
18.2996020814
 20
12.2419577514
 30
0.0
 10
18.2954883313
 20
12.2281726814
 30
0.0
 10
18.2937153964
 20
12.2213023978
 30
0.0
  0
SPLINE
  5
5A7
100
AcDbEntity
  8
AXIS_COSMETIC_THREADS
100
AcDbSpline
 62
7
  6
CONTINUOUS
 70
0
 71
3
 72
26
 73
22
 74
0
 42
0.0000001
 43
0.0000001
 44
0.0000000001
 40
0.0
 40
0.0
 40
0.0
 40
0.0
 40
0.0788964357
 40
0.155915955
 40
0.230870086
 40
0.3035965611
 40
0.3739630122
 40
0.4418731036
 40
0.5072701187
 40
0.5701425704
 40
0.6305311831
 40
0.6885329738
 40
0.7443072997
 40
0.7980802744
 40
0.8501447541
 40
0.8756560292
 40
0.9008793771
 40
0.9258684014
 40
0.9506791013
 40
0.975369723
 40
1.0
 40
1.0
 40
1.0
 40
1.0
 10
18.2937153964
 20
12.2213023978
 30
0.0
 10
18.2926346953
 20
12.2171145828
 30
0.0
 10
18.2906878208
 20
12.2087882933
 30
0.0
 10
18.2884045499
 20
12.1963348892
 30
0.0
 10
18.2868014378
 20
12.1841161375
 30
0.0
 10
18.2858865213
 20
12.1721919661
 30
0.0
 10
18.2856647106
 20
12.1606203618
 30
0.0
 10
18.2861371265
 20
12.149457662
 30
0.0
 10
18.2873020079
 20
12.1387580914
 30
0.0
 10
18.2891545846
 20
12.1285736792
 30
0.0
 10
18.2916864726
 20
12.1189539115
 30
0.0
 10
18.2948867412
 20
12.1099458634
 30
0.0
 10
18.2987416311
 20
12.1015938902
 30
0.0
 10
18.303233122
 20
12.0939402452
 30
0.0
 10
18.307520664
 20
12.0881360655
 30
0.0
 10
18.3112411341
 20
12.0839000181
 30
0.0
 10
18.3141562917
 20
12.0809414167
 30
0.0
 10
18.3172108089
 20
12.078183989
 30
0.0
 10
18.3204011641
 20
12.0756312131
 30
0.0
 10
18.3237232623
 20
12.0732865751
 30
0.0
 10
18.3260242929
 20
12.0718632151
 30
0.0
 10
18.3271936211
 20
12.0711881453
 30
0.0
  0
SPLINE
  5
5A8
100
AcDbEntity
  8
AXIS_COSMETIC_THREADS
100
AcDbSpline
 62
7
  6
CONTINUOUS
 70
0
 71
3
 72
28
 73
24
 74
0
 42
0.0000001
 43
0.0000001
 44
0.0000000001
 40
0.0
 40
0.0
 40
0.0
 40
0.0
 40
0.0304092348
 40
0.0607562698
 40
0.0910730448
 40
0.1213893581
 40
0.1517170369
 40
0.1820503987
 40
0.2123804074
 40
0.2427009396
 40
0.2730223397
 40
0.3033551551
 40
0.3337057484
 40
0.3640830349
 40
0.4249726606
 40
0.4861489802
 40
0.5477453158
 40
0.6098974917
 40
0.6727285226
 40
0.7363552968
 40
0.8662461309
 40
0.9326489101
 40
1.0
 40
1.0
 40
1.0
 40
1.0
 10
18.5335522068
 20
12.4139272121
 30
0.0
 10
18.5351564073
 20
12.4130010475
 30
0.0
 10
18.5383139618
 20
12.4110667757
 30
0.0
 10
18.5428895567
 20
12.4079256443
 30
0.0
 10
18.5472921487
 20
12.4045553782
 30
0.0
 10
18.5515141318
 20
12.4009633767
 30
0.0
 10
18.5555482308
 20
12.3971601947
 30
0.0
 10
18.5593868819
 20
12.3931587707
 30
0.0
 10
18.5630217899
 20
12.388972014
 30
0.0
 10
18.566445454
 20
12.384611833
 30
0.0
 10
18.5696549941
 20
12.3800916201
 30
0.0
 10
18.5726487047
 20
12.3754236168
 30
0.0
 10
18.575425206
 20
12.3706192866
 30
0.0
 10
18.5788389073
 20
12.3640420654
 30
0.0
 10
18.582567569
 20
12.355523843
 30
0.0
 10
18.5861866041
 20
12.3449250698
 30
0.0
 10
18.5889771808
 20
12.3340001379
 30
0.0
 10
18.5909682298
 20
12.3228007013
 30
0.0
 10
18.5921869022
 20
12.3113672919
 30
0.0
 10
18.5928216521
 20
12.2957561571
 30
0.0
 10
18.5919905254
 20
12.2799017921
 30
0.0
 10
18.5898390359
 20
12.2639822201
 30
0.0
 10
18.5883254926
 20
12.2559717406
 30
0.0
 10
18.5874637023
 20
12.251960622
 30
0.0
  0
SPLINE
  5
5A9
100
AcDbEntity
  8
AXIS_COSMETIC_THREADS
100
AcDbSpline
 62
7
  6
CONTINUOUS
 70
0
 71
3
 72
10
 73
6
 74
0
 42
0.0000001
 43
0.0000001
 44
0.0000000001
 40
0.0
 40
0.0
 40
0.0
 40
0.0
 40
0.5068987185
 40
0.7553296777
 40
1.0
 40
1.0
 40
1.0
 40
1.0
 10
18.5007132029
 20
12.1017541174
 30
0.0
 10
18.4949237394
 20
12.0965214128
 30
0.0
 10
18.4859173226
 20
12.0891243951
 30
0.0
 10
18.4732798173
 20
12.0803231888
 30
0.0
 10
18.4668158654
 20
12.0763325725
 30
0.0
 10
18.4635537692
 20
12.0744492116
 30
0.0
  0
SPLINE
  5
5AA
100
AcDbEntity
  8
AXIS_COSMETIC_THREADS
100
AcDbSpline
 62
7
  6
CONTINUOUS
 70
0
 71
3
 72
11
 73
7
 74
0
 42
0.0000001
 43
0.0000001
 44
0.0000000001
 40
0.0
 40
0.0
 40
0.0
 40
0.0
 40
0.2368594545
 40
0.4829998894
 40
0.7376596821
 40
1.0
 40
1.0
 40
1.0
 40
1.0
 10
18.4335539035
 20
12.4040216352
 30
0.0
 10
18.4294981906
 20
12.4016800823
 30
0.0
 10
18.4214031507
 20
12.396596196
 30
0.0
 10
18.4095925972
 20
12.3880224777
 30
0.0
 10
18.3979525995
 20
12.3784074637
 30
0.0
 10
18.3904616865
 20
12.3714427156
 30
0.0
 10
18.3867612357
 20
12.3678080371
 30
0.0
  0
SPLINE
  5
5AB
100
AcDbEntity
  8
AXIS_COSMETIC_THREADS
100
AcDbSpline
 62
7
  6
CONTINUOUS
 70
0
 71
3
 72
16
 73
12
 74
0
 42
0.0000001
 43
0.0000001
 44
0.0000000001
 40
0.0
 40
0.0
 40
0.0
 40
0.0
 40
0.1213733742
 40
0.1832852161
 40
0.2458478036
 40
0.372404271
 40
0.5000234288
 40
0.6276407196
 40
0.7541916556
 40
0.8786388837
 40
1.0
 40
1.0
 40
1.0
 40
1.0
 10
18.3867612357
 20
12.3678080371
 30
0.0
 10
18.3816987649
 20
12.3628355473
 30
0.0
 10
18.3743320256
 20
12.3550370363
 30
0.0
 10
18.3650155451
 20
12.344089358
 30
0.0
 10
18.3558884078
 20
12.3325927857
 30
0.0
 10
18.3451090704
 20
12.3175175393
 30
0.0
 10
18.3333252105
 20
12.2985421374
 30
0.0
 10
18.3227887071
 20
12.2788466743
 30
0.0
 10
18.313630896
 20
12.2586763934
 30
0.0
 10
18.305966069
 20
12.2382835847
 30
0.0
 10
18.3018523188
 20
12.2244985146
 30
0.0
 10
18.3000793839
 20
12.217628231
 30
0.0
  0
SPLINE
  5
5AC
100
AcDbEntity
  8
AXIS_COSMETIC_THREADS
100
AcDbSpline
 62
7
  6
CONTINUOUS
 70
0
 71
3
 72
25
 73
21
 74
0
 42
0.0000001
 43
0.0000001
 44
0.0000000001
 40
0.0
 40
0.0
 40
0.0
 40
0.0
 40
0.0779609534
 40
0.1541836057
 40
0.228500647
 40
0.3007656494
 40
0.3708568053
 40
0.4386812588
 40
0.5041770788
 40
0.5673196091
 40
0.6281243891
 40
0.6866517706
 40
0.7430126222
 40
0.7973700082
 40
0.8499433259
 40
0.9010075566
 40
0.9260831094
 40
0.9509081418
 40
0.9755305122
 40
1.0
 40
1.0
 40
1.0
 40
1.0
 10
18.3000793839
 20
12.217628231
 30
0.0
 10
18.2990590883
 20
12.2136744928
 30
0.0
 10
18.2972096948
 20
12.2058104002
 30
0.0
 10
18.2950021797
 20
12.1940436456
 30
0.0
 10
18.2933992454
 20
12.1824799387
 30
0.0
 10
18.292408217
 20
12.1711697863
 30
0.0
 10
18.2920336112
 20
12.1601622294
 30
0.0
 10
18.292276962
 20
12.1495050442
 30
0.0
 10
18.2931379363
 20
12.1392443978
 30
0.0
 10
18.2946129358
 20
12.1294247273
 30
0.0
 10
18.2966962325
 20
12.1200885622
 30
0.0
 10
18.2993798776
 20
12.1112765155
 30
0.0
 10
18.3026527991
 20
12.1030269826
 30
0.0
 10
18.3065025778
 20
12.0953763683
 30
0.0
 10
18.3109130245
 20
12.0883593633
 30
0.0
 10
18.3150671665
 20
12.0830328903
 30
0.0
 10
18.3186456529
 20
12.0791365348
 30
0.0
 10
18.3214399526
 20
12.0764083528
 30
0.0
 10
18.3243571607
 20
12.0738602676
 30
0.0
 10
18.326387134
 20
12.072279508
 30
0.0
 10
18.3274203648
 20
12.0715212511
 30
0.0
  0
SPLINE
  5
5AD
100
AcDbEntity
  8
AXIS_COSMETIC_THREADS
100
AcDbSpline
 62
7
  6
CONTINUOUS
 70
0
 71
3
 72
11
 73
7
 74
0
 42
0.0000001
 43
0.0000001
 44
0.0000000001
 40
0.0
 40
0.0
 40
0.0
 40
0.0
 40
0.2445347748
 40
0.4913132037
 40
0.7424842577
 40
1.0
 40
1.0
 40
1.0
 40
1.0
 10
18.5209773336
 20
12.294170739
 30
0.0
 10
18.5220004883
 20
12.293580096
 30
0.0
 10
18.5239878458
 20
12.292270352
 30
0.0
 10
18.5267370778
 20
12.2899541859
 30
0.0
 10
18.5292472339
 20
12.2872944155
 30
0.0
 10
18.5307324707
 20
12.285329641
 30
0.0
 10
18.5314312218
 20
12.2843002894
 30
0.0
  0
SPLINE
  5
5AE
100
AcDbEntity
  8
AXIS_COSMETIC_THREADS
100
AcDbSpline
 62
7
  6
CONTINUOUS
 70
0
 71
3
 72
19
 73
15
 74
0
 42
0.0000001
 43
0.0000001
 44
0.0000000001
 40
0.0
 40
0.0
 40
0.0
 40
0.0
 40
0.0744180807
 40
0.1471299725
 40
0.2872416802
 40
0.4203453747
 40
0.5467060899
 40
0.6668459317
 40
0.7248628181
 40
0.7816636891
 40
0.837399959
 40
0.8922421999
 40
0.9463757936
 40
1.0
 40
1.0
 40
1.0
 40
1.0
 10
18.4335539035
 20
12.4040216352
 30
0.0
 10
18.4356575343
 20
12.4052361598
 30
0.0
 10
18.4398636549
 20
12.4075572583
 30
0.0
 10
18.448252417
 20
12.4117488781
 30
0.0
 10
18.4586679686
 20
12.4161510241
 30
0.0
 10
18.471128414
 20
12.4200758697
 30
0.0
 10
18.4832957724
 20
12.4225430615
 30
0.0
 10
18.4932287034
 20
12.4233721917
 30
0.0
 10
18.5009019675
 20
12.4232613723
 30
0.0
 10
18.506454906
 20
12.4228066944
 30
0.0
 10
18.5118599464
 20
12.4219794651
 30
0.0
 10
18.5171062338
 20
12.4207817297
 30
0.0
 10
18.5221822879
 20
12.4192154711
 30
0.0
 10
18.5254579115
 20
12.4179229098
 30
0.0
 10
18.5270598287
 20
12.4172175543
 30
0.0
  0
SPLINE
  5
5AF
100
AcDbEntity
  8
AXIS_COSMETIC_THREADS
100
AcDbSpline
 62
7
  6
CONTINUOUS
 70
0
 71
3
 72
9
 73
5
 74
0
 42
0.0000001
 43
0.0000001
 44
0.0000000001
 40
0.0
 40
0.0
 40
0.0
 40
0.0
 40
0.4929857092
 40
1.0
 40
1.0
 40
1.0
 40
1.0
 10
18.475980487
 20
12.3305370449
 30
0.0
 10
18.4740101172
 20
12.3293994581
 30
0.0
 10
18.4700725207
 20
12.3269881331
 30
0.0
 10
18.4662554252
 20
12.3243907956
 30
0.0
 10
18.4643509991
 20
12.3230312292
 30
0.0
  0
SPLINE
  5
5B0
100
AcDbEntity
  8
AXIS_COSMETIC_THREADS
100
AcDbSpline
 62
7
  6
CONTINUOUS
 70
0
 71
3
 72
23
 73
19
 74
0
 42
0.0000001
 43
0.0000001
 44
0.0000000001
 40
0.0
 40
0.0
 40
0.0
 40
0.0
 40
0.0576034428
 40
0.117078372
 40
0.1782260774
 40
0.2408058129
 40
0.3045564869
 40
0.3692014788
 40
0.434449472
 40
0.5000011357
 40
0.5655528022
 40
0.6308007384
 40
0.6954456996
 40
0.7591965255
 40
0.8217757631
 40
0.882923129
 40
0.9424008806
 40
1.0
 40
1.0
 40
1.0
 40
1.0
 10
18.4643509991
 20
12.3230312292
 30
0.0
 10
18.4615679447
 20
12.3210444117
 30
0.0
 10
18.4560430305
 20
12.3168190569
 30
0.0
 10
18.4480372828
 20
12.3098935694
 30
0.0
 10
18.4402253434
 20
12.3023193126
 30
0.0
 10
18.4326614589
 20
12.2941486202
 30
0.0
 10
18.4253977132
 20
12.2854382066
 30
0.0
 10
18.4184846531
 20
12.2762482031
 30
0.0
 10
18.4119699482
 20
12.2666423459
 30
0.0
 10
18.4058986539
 20
12.2566872377
 30
0.0
 10
18.4003131522
 20
12.2464516681
 30
0.0
 10
18.3952518148
 20
12.2360067356
 30
0.0
 10
18.390749794
 20
12.2254247476
 30
0.0
 10
18.3868384955
 20
12.2147788776
 30
0.0
 10
18.3835446304
 20
12.204142992
 30
0.0
 10
18.3808912525
 20
12.1935903626
 30
0.0
 10
18.3788969137
 20
12.1831944649
 30
0.0
 10
18.3780001966
 20
12.1762971557
 30
0.0
 10
18.3776711164
 20
12.1728938063
 30
0.0
  0
SPLINE
  5
5B1
100
AcDbEntity
  8
AXIS_COSMETIC_THREADS
100
AcDbSpline
 62
7
  6
CONTINUOUS
 70
0
 71
3
 72
11
 73
7
 74
0
 42
0.0000001
 43
0.0000001
 44
0.0000000001
 40
0.0
 40
0.0
 40
0.0
 40
0.0
 40
0.2642647612
 40
0.5192342806
 40
0.7645407347
 40
1.0
 40
1.0
 40
1.0
 40
1.0
 10
18.3776711164
 20
12.1728938063
 30
0.0
 10
18.3773854351
 20
12.1699392897
 30
0.0
 10
18.3769896399
 20
12.1641164615
 30
0.0
 10
18.3769403618
 20
12.1555232417
 30
0.0
 10
18.3774461285
 20
12.147268436
 30
0.0
 10
18.3781669157
 20
12.1419104475
 30
0.0
 10
18.3786247518
 20
12.1393056326
 30
0.0
  0
SPLINE
  5
5B2
100
AcDbEntity
  8
AXIS_COSMETIC_THREADS
100
AcDbSpline
 62
7
  6
CONTINUOUS
 70
0
 71
3
 72
29
 73
25
 74
0
 42
0.0000001
 43
0.0000001
 44
0.0000000001
 40
0.0
 40
0.0
 40
0.0
 40
0.0
 40
0.0688250331
 40
0.1342921071
 40
0.1966483247
 40
0.256279527
 40
0.2852489809
 40
0.3137467857
 40
0.3418590266
 40
0.3696783949
 40
0.3973032276
 40
0.4248349501
 40
0.4523769613
 40
0.4800323946
 40
0.5079021828
 40
0.5360837889
 40
0.5646685237
 40
0.5937411403
 40
0.6536211436
 40
0.7162719954
 40
0.7820624148
 40
0.8512252752
 40
0.9238861026
 40
1.0
 40
1.0
 40
1.0
 40
1.0
 10
18.3786247518
 20
12.1393056326
 30
0.0
 10
18.3791308183
 20
12.1364264155
 30
0.0
 10
18.3803689713
 20
12.1308479151
 30
0.0
 10
18.3829958865
 20
12.1229030157
 30
0.0
 10
18.3863279384
 20
12.1156521799
 30
0.0
 10
18.3897085948
 20
12.1101810142
 30
0.0
 10
18.3927387161
 20
12.1062325937
 30
0.0
 10
18.3951473024
 20
12.1035060082
 30
0.0
 10
18.3977088546
 20
12.1009918258
 30
0.0
 10
18.4004188688
 20
12.0986951769
 30
0.0
 10
18.4032717837
 20
12.0966202221
 30
0.0
 10
18.4062622013
 20
12.0947710793
 30
0.0
 10
18.4093845122
 20
12.0931517587
 30
0.0
 10
18.4126323625
 20
12.091764917
 30
0.0
 10
18.4159995211
 20
12.0906132528
 30
0.0
 10
18.4194795092
 20
12.0896993227
 30
0.0
 10
18.4230655847
 20
12.0890242503
 30
0.0
 10
18.4280268521
 20
12.0884385481
 30
0.0
 10
18.4344845205
 20
12.0883274254
 30
0.0
 10
18.4424570837
 20
12.0891630228
 30
0.0
 10
18.450672719
 20
12.0909550358
 30
0.0
 10
18.45907094
 20
12.0936880465
 30
0.0
 10
18.4675891789
 20
12.097339586
 30
0.0
 10
18.473180667
 20
12.1002999009
 30
0.0
 10
18.475980487
 20
12.1019163681
 30
0.0
  0
SPLINE
  5
5B3
100
AcDbEntity
  8
AXIS_COSMETIC_THREADS
100
AcDbSpline
 62
7
  6
CONTINUOUS
 70
0
 71
3
 72
11
 73
7
 74
0
 42
0.0000001
 43
0.0000001
 44
0.0000000001
 40
0.0
 40
0.0
 40
0.0
 40
0.0
 40
0.2448117315
 40
0.4917539754
 40
0.7428590629
 40
1.0
 40
1.0
 40
1.0
 40
1.0
 10
18.4309836405
 20
12.138282674
 30
0.0
 10
18.4319784182
 20
12.1377084123
 30
0.0
 10
18.4340450883
 20
12.1366691864
 30
0.0
 10
18.4373238504
 20
12.135466073
 30
0.0
 10
18.4407716824
 20
12.1346200279
 30
0.0
 10
18.4431399973
 20
12.1343013261
 30
0.0
 10
18.4443422161
 20
12.1342000014
 30
0.0
  0
SPLINE
  5
5B4
100
AcDbEntity
  8
AXIS_COSMETIC_THREADS
100
AcDbSpline
 62
7
  6
CONTINUOUS
 70
0
 71
3
 72
9
 73
5
 74
0
 42
0.0000001
 43
0.0000001
 44
0.0000000001
 40
0.0
 40
0.0
 40
0.0
 40
0.0
 40
0.5122302594
 40
1.0
 40
1.0
 40
1.0
 40
1.0
 10
18.475980487
 20
12.3305370449
 30
0.0
 10
18.478915753
 20
12.3322317114
 30
0.0
 10
18.4847761716
 20
12.3353213174
 30
0.0
 10
18.4908836234
 20
12.3378946454
 30
0.0
 10
18.493915851
 20
12.3390002362
 30
0.0
  0
SPLINE
  5
5B5
100
AcDbEntity
  8
AXIS_COSMETIC_THREADS
100
AcDbSpline
 62
7
  6
CONTINUOUS
 70
0
 71
3
 72
35
 73
31
 74
0
 42
0.0000001
 43
0.0000001
 44
0.0000000001
 40
0.0
 40
0.0
 40
0.0
 40
0.0
 40
0.0671865194
 40
0.0994493842
 40
0.1308583689
 40
0.161454973
 40
0.1912932998
 40
0.2204394618
 40
0.2489695737
 40
0.2769713147
 40
0.3045416582
 40
0.3317857823
 40
0.3588162996
 40
0.385749921
 40
0.4127057273
 40
0.4398021376
 40
0.4671545911
 40
0.4948733149
 40
0.5230604465
 40
0.5518099007
 40
0.5812049586
 40
0.6113175933
 40
0.6422098476
 40
0.6739313424
 40
0.706521112
 40
0.7400088085
 40
0.774412488
 40
0.8459799369
 40
0.9212225367
 40
1.0
 40
1.0
 40
1.0
 40
1.0
 10
18.493915851
 20
12.3390002362
 30
0.0
 10
18.496888601
 20
12.3400841408
 30
0.0
 10
18.5013718707
 20
12.3414785419
 30
0.0
 10
18.5073918708
 20
12.3428095205
 30
0.0
 10
18.5117780146
 20
12.3435144318
 30
0.0
 10
18.5160856203
 20
12.343937036
 30
0.0
 10
18.5203053055
 20
12.3440762286
 30
0.0
 10
18.5244276595
 20
12.343931955
 30
0.0
 10
18.5284435072
 20
12.3435037152
 30
0.0
 10
18.5323438018
 20
12.3427925811
 30
0.0
 10
18.5361197839
 20
12.3418001437
 30
0.0
 10
18.539762622
 20
12.3405278341
 30
0.0
 10
18.5432640953
 20
12.3389790083
 30
0.0
 10
18.5466161421
 20
12.3371570183
 30
0.0
 10
18.5498107641
 20
12.3350656522
 30
0.0
 10
18.552841011
 20
12.3327103445
 30
0.0
 10
18.5556997855
 20
12.3300962335
 30
0.0
 10
18.5583805374
 20
12.3272293546
 30
0.0
 10
18.5608777746
 20
12.3241167206
 30
0.0
 10
18.5631855919
 20
12.3207651048
 30
0.0
 10
18.565299157
 20
12.3171823056
 30
0.0
 10
18.567214254
 20
12.3133765357
 30
0.0
 10
18.5689262622
 20
12.3093560672
 30
0.0
 10
18.5704319793
 20
12.3051300563
 30
0.0
 10
18.5717282662
 20
12.3007078718
 30
0.0
 10
18.5728119528
 20
12.2960990935
 30
0.0
 10
18.5739863701
 20
12.2896346172
 30
0.0
 10
18.5748903141
 20
12.2811345842
 30
0.0
 10
18.5750881074
 20
12.2705009946
 30
0.0
 10
18.5746469306
 20
12.263252455
 30
0.0
 10
18.5742898577
 20
12.2595596067
 30
0.0
  0
SPLINE
  5
5B6
100
AcDbEntity
  8
AXIS_COSMETIC_THREADS
100
AcDbSpline
 62
7
  6
CONTINUOUS
 70
0
 71
3
 72
9
 73
5
 74
0
 42
0.0000001
 43
0.0000001
 44
0.0000000001
 40
0.0
 40
0.0
 40
0.0
 40
0.0
 40
0.5070142908
 40
1.0
 40
1.0
 40
1.0
 40
1.0
 10
18.487609975
 20
12.1094221838
 30
0.0
 10
18.4857055489
 20
12.1080626175
 30
0.0
 10
18.4818884534
 20
12.1054652799
 30
0.0
 10
18.4779508569
 20
12.1030539549
 30
0.0
 10
18.475980487
 20
12.1019163681
 30
0.0
  0
SPLINE
  5
5B7
100
AcDbEntity
  8
02___PRT_ALL_AXES
100
AcDbSpline
 62
7
  6
CONTINUOUS
 70
0
 71
3
 72
16
 73
12
 74
0
 42
0.0000001
 43
0.0000001
 44
0.0000000001
 40
0.0
 40
0.0
 40
0.0
 40
0.0
 40
0.0428786888
 40
0.0875276076
 40
0.1869346782
 40
0.3042506241
 40
0.4379793998
 40
0.5823886662
 40
0.7296085973
 40
0.871263649
 40
1.0
 40
1.0
 40
1.0
 40
1.0
 10
20.3743974877
 20
11.0201871757
 30
0.0
 10
20.3765328666
 20
11.0189543427
 30
0.0
 10
20.3812399716
 20
11.0169979914
 30
0.0
 10
20.39196867
 20
11.0154255061
 30
0.0
 10
20.4071147084
 20
11.0183828906
 30
0.0
 10
20.4249564389
 20
11.0281700907
 30
0.0
 10
20.4421066246
 20
11.0433399465
 30
0.0
 10
20.4572343
 20
11.0627131028
 30
0.0
 10
20.4691490499
 20
11.0847316812
 30
0.0
 10
20.476877661
 20
11.1075880716
 30
0.0
 10
20.4789490065
 20
11.1231544311
 30
0.0
 10
20.4789490065
 20
11.1305573245
 30
0.0
  0
SPLINE
  5
5B8
100
AcDbEntity
  8
02___PRT_ALL_AXES
100
AcDbSpline
 62
7
  6
CONTINUOUS
 70
0
 71
3
 72
11
 73
7
 74
0
 42
0.0000001
 43
0.0000001
 44
0.0000000001
 40
0.0
 40
0.0
 40
0.0
 40
0.0
 40
0.2898075974
 40
0.5490483138
 40
0.7822283121
 40
1.0
 40
1.0
 40
1.0
 40
1.0
 10
20.4789490065
 20
11.1305573245
 30
0.0
 10
20.4789490065
 20
11.1349475654
 30
0.0
 10
20.4782860571
 20
11.1432937496
 30
0.0
 10
20.4749021364
 20
11.1547598978
 30
0.0
 10
20.4692145466
 20
11.1640653932
 30
0.0
 10
20.463867116
 20
11.168558551
 30
0.0
 10
20.4610100968
 20
11.1702080135
 30
0.0
  0
SPLINE
  5
5B9
100
AcDbEntity
  8
02___PRT_ALL_AXES
100
AcDbSpline
 62
7
  6
CONTINUOUS
 70
0
 71
3
 72
11
 73
7
 74
0
 42
0.0000001
 43
0.0000001
 44
0.0000000001
 40
0.0
 40
0.0
 40
0.0
 40
0.0
 40
0.2898075974
 40
0.5490483138
 40
0.7822283121
 40
1.0
 40
1.0
 40
1.0
 40
1.0
 10
20.356458578
 20
11.0598378647
 30
0.0
 10
20.356458578
 20
11.0554476238
 30
0.0
 10
20.3571215275
 20
11.0471014396
 30
0.0
 10
20.3605054481
 20
11.0356352914
 30
0.0
 10
20.3661930379
 20
11.026329796
 30
0.0
 10
20.3715404686
 20
11.0218366383
 30
0.0
 10
20.3743974877
 20
11.0201871757
 30
0.0
  0
SPLINE
  5
5BA
100
AcDbEntity
  8
02___PRT_ALL_AXES
100
AcDbSpline
 62
7
  6
CONTINUOUS
 70
0
 71
3
 72
16
 73
12
 74
0
 42
0.0000001
 43
0.0000001
 44
0.0000000001
 40
0.0
 40
0.0
 40
0.0
 40
0.0
 40
0.0428786888
 40
0.0875276076
 40
0.1869346782
 40
0.3042506241
 40
0.4379793998
 40
0.5823886662
 40
0.7296085973
 40
0.871263649
 40
1.0
 40
1.0
 40
1.0
 40
1.0
 10
20.4610100968
 20
11.1702080135
 30
0.0
 10
20.4588747179
 20
11.1714408465
 30
0.0
 10
20.454167613
 20
11.1733971978
 30
0.0
 10
20.4434389146
 20
11.1749696831
 30
0.0
 10
20.4282928762
 20
11.1720122986
 30
0.0
 10
20.4104511457
 20
11.1622250985
 30
0.0
 10
20.39330096
 20
11.1470552427
 30
0.0
 10
20.3781732846
 20
11.1276820864
 30
0.0
 10
20.3662585347
 20
11.105663508
 30
0.0
 10
20.3585299236
 20
11.0828071176
 30
0.0
 10
20.356458578
 20
11.0672407581
 30
0.0
 10
20.356458578
 20
11.0598378647
 30
0.0
  0
SPLINE
  5
5BB
100
AcDbEntity
  8
SURFACE
100
AcDbSpline
 62
7
  6
CONTINUOUS
 70
0
 71
3
 72
15
 73
11
 74
0
 42
0.0000001
 43
0.0000001
 44
0.0000000001
 40
0.0
 40
0.0
 40
0.0
 40
0.0
 40
0.1484014017
 40
0.2893989521
 40
0.4227479459
 40
0.5486790946
 40
0.6680127845
 40
0.7819271377
 40
0.891978381
 40
1.0
 40
1.0
 40
1.0
 40
1.0
 10
19.6822992271
 20
12.6832528457
 30
0.0
 10
19.6822992271
 20
12.680911875
 30
0.0
 10
19.6821086627
 20
12.6763436335
 30
0.0
 10
19.681209808
 20
12.6697253892
 30
0.0
 10
19.6797090893
 20
12.6635785946
 30
0.0
 10
19.677612977
 20
12.6579696122
 30
0.0
 10
19.6749445622
 20
12.652950978
 30
0.0
 10
19.6717197633
 20
12.6485738018
 30
0.0
 10
19.6679710232
 20
12.6448853193
 30
0.0
 10
19.665134861
 20
12.642904108
 30
0.0
 10
19.6636591548
 20
12.6420521135
 30
0.0
  0
SPLINE
  5
5BC
100
AcDbEntity
  8
SURFACE
100
AcDbSpline
 62
7
  6
CONTINUOUS
 70
0
 71
3
 72
9
 73
5
 74
0
 42
0.0000001
 43
0.0000001
 44
0.0000000001
 40
0.0
 40
0.0
 40
0.0
 40
0.0
 40
0.2466856253
 40
1.0
 40
1.0
 40
1.0
 40
1.0
 10
14.1056980438
 20
12.971464633
 30
0.0
 10
14.1062830242
 20
12.9697755325
 30
0.0
 10
14.1087850095
 20
12.9629741074
 30
0.0
 10
14.1117938597
 20
12.9563606522
 30
0.0
 10
14.1143108287
 20
12.9515169152
 30
0.0
  0
SPLINE
  5
5BD
100
AcDbEntity
  8
SURFACE
100
AcDbSpline
 62
7
  6
CONTINUOUS
 70
0
 71
3
 72
9
 73
5
 74
0
 42
0.0000001
 43
0.0000001
 44
0.0000000001
 40
0.0
 40
0.0
 40
0.0
 40
0.0
 40
0.2526343519
 40
1.0
 40
1.0
 40
1.0
 40
1.0
 10
14.1202052707
 20
12.9411647166
 30
0.0
 10
14.121196092
 20
12.9395701565
 30
0.0
 10
14.1252320517
 20
12.9333302368
 30
0.0
 10
14.1297184444
 20
12.9273796189
 30
0.0
 10
14.1333155281
 20
12.9231482771
 30
0.0
  0
LINE
  5
5BE
100
AcDbEntity
  8
SURFACE
100
AcDbLine
 62
7
  6
CONTINUOUS
 10
14.1560873086
 20
12.9021361989
 11
14.1626216147
 21
12.8979735332
  0
SPLINE
  5
5BF
100
AcDbEntity
  8
SURFACE
100
AcDbSpline
 62
7
  6
CONTINUOUS
 70
0
 71
3
 72
9
 73
5
 74
0
 42
0.0000001
 43
0.0000001
 44
0.0000000001
 40
0.0
 40
0.0
 40
0.0
 40
0.0
 40
0.4876485768
 40
1.0
 40
1.0
 40
1.0
 40
1.0
 10
17.0955392909
 20
11.2060129303
 30
0.0
 10
17.0975145262
 20
11.2052242271
 30
0.0
 10
17.1017588742
 20
11.2040641968
 30
0.0
 10
17.1061423052
 20
11.2037964397
 30
0.0
 10
17.1083760641
 20
11.2038584253
 30
0.0
  0
SPLINE
  5
5C0
100
AcDbEntity
  8
SURFACE
100
AcDbSpline
 62
7
  6
CONTINUOUS
 70
0
 71
3
 72
10
 73
6
 74
0
 42
0.0000001
 43
0.0000001
 44
0.0000000001
 40
0.0
 40
0.0
 40
0.0
 40
0.0
 40
0.2710371021
 40
0.5282720459
 40
1.0
 40
1.0
 40
1.0
 40
1.0
 10
14.1286806305
 20
12.9469640168
 30
0.0
 10
14.1286806305
 20
12.9447621391
 30
0.0
 10
14.1288609117
 20
12.9404659829
 30
0.0
 10
14.1299611939
 20
12.9324128959
 30
0.0
 10
14.1316750782
 20
12.9266679053
 30
0.0
 10
14.1332680496
 20
12.923182402
 30
0.0
  0
SPLINE
  5
5C1
100
AcDbEntity
  8
SURFACE
100
AcDbSpline
 62
7
  6
CONTINUOUS
 70
0
 71
3
 72
11
 73
7
 74
0
 42
0.0000001
 43
0.0000001
 44
0.0000000001
 40
0.0
 40
0.0
 40
0.0
 40
0.0
 40
0.2641465676
 40
0.5165052456
 40
0.7604763577
 40
1.0
 40
1.0
 40
1.0
 40
1.0
 10
14.1332680496
 20
12.923182402
 30
0.0
 10
14.1339907421
 20
12.9216011137
 30
0.0
 10
14.1356037973
 20
12.9185943688
 30
0.0
 10
14.1385922162
 20
12.9145556702
 30
0.0
 10
14.1420628375
 20
12.9111479173
 30
0.0
 10
14.1446870335
 20
12.9093165255
 30
0.0
 10
14.1460513322
 20
12.9085264825
 30
0.0
  0
SPLINE
  5
5C2
100
AcDbEntity
  8
SURFACE
100
AcDbSpline
 62
7
  6
CONTINUOUS
 70
0
 71
3
 72
15
 73
11
 74
0
 42
0.0000001
 43
0.0000001
 44
0.0000000001
 40
0.0
 40
0.0
 40
0.0
 40
0.0
 40
0.1080221295
 40
0.2180737989
 40
0.3319884365
 40
0.4513222326
 40
0.5772532977
 40
0.710602025
 40
0.8515991424
 40
1.0
 40
1.0
 40
1.0
 40
1.0
 10
17.1534405327
 20
11.1927853673
 30
0.0
 10
17.1519648587
 20
11.1919333914
 30
0.0
 10
17.1488310646
 20
11.1904678508
 30
0.0
 10
17.1437624929
 20
11.1890656164
 30
0.0
 10
17.1383594813
 20
11.1884614426
 30
0.0
 10
17.1326791547
 20
11.1886598063
 30
0.0
 10
17.126773731
 20
11.1896489403
 30
0.0
 10
17.12070025
 20
11.1914225754
 30
0.0
 10
17.1145194142
 20
11.193953135
 30
0.0
 10
17.1104680199
 20
11.1960721198
 30
0.0
 10
17.1084407297
 20
11.1972425498
 30
0.0
  0
SPLINE
  5
5C3
100
AcDbEntity
  8
SURFACE
100
AcDbSpline
 62
7
  6
CONTINUOUS
 70
0
 71
3
 72
15
 73
11
 74
0
 42
0.0000001
 43
0.0000001
 44
0.0000000001
 40
0.0
 40
0.0
 40
0.0
 40
0.0
 40
0.1484014017
 40
0.2893989521
 40
0.4227479459
 40
0.5486790946
 40
0.6680127845
 40
0.7819271377
 40
0.891978381
 40
1.0
 40
1.0
 40
1.0
 40
1.0
 10
17.172080605
 20
11.2339860995
 30
0.0
 10
17.172080605
 20
11.2316451288
 30
0.0
 10
17.1718900406
 20
11.2270768873
 30
0.0
 10
17.1709911859
 20
11.2204586429
 30
0.0
 10
17.1694904672
 20
11.2143118484
 30
0.0
 10
17.1673943549
 20
11.2087028659
 30
0.0
 10
17.1647259401
 20
11.2036842317
 30
0.0
 10
17.1615011412
 20
11.1993070556
 30
0.0
 10
17.1577524011
 20
11.1956185731
 30
0.0
 10
17.1549162389
 20
11.1936373617
 30
0.0
 10
17.1534405327
 20
11.1927853673
 30
0.0
  0
SPLINE
  5
5C4
100
AcDbEntity
  8
SURFACE
100
AcDbSpline
 62
7
  6
CONTINUOUS
 70
0
 71
3
 72
15
 73
11
 74
0
 42
0.0000001
 43
0.0000001
 44
0.0000000001
 40
0.0
 40
0.0
 40
0.0
 40
0.0
 40
0.1484654359
 40
0.2894368811
 40
0.4226974246
 40
0.548598976
 40
0.6679271567
 40
0.7818596477
 40
0.8919489403
 40
1.0
 40
1.0
 40
1.0
 40
1.0
 10
17.0744997455
 20
11.2462330335
 30
0.0
 10
17.0744997455
 20
11.2440487184
 30
0.0
 10
17.0746768011
 20
11.2397874847
 30
0.0
 10
17.0755135792
 20
11.2336152187
 30
0.0
 10
17.0769141068
 20
11.2278847196
 30
0.0
 10
17.0788651287
 20
11.2226538744
 30
0.0
 10
17.0813519347
 20
11.2179723822
 30
0.0
 10
17.0843553943
 20
11.2138860508
 30
0.0
 10
17.0878492816
 20
11.2104411946
 30
0.0
 10
17.0904947483
 20
11.2085921439
 30
0.0
 10
17.0918704472
 20
11.2077954991
 30
0.0
  0
SPLINE
  5
5C5
100
AcDbEntity
  8
SURFACE
100
AcDbSpline
 62
7
  6
CONTINUOUS
 70
0
 71
3
 72
9
 73
5
 74
0
 42
0.0000001
 43
0.0000001
 44
0.0000000001
 40
0.0
 40
0.0
 40
0.0
 40
0.0
 40
0.4793684681
 40
1.0
 40
1.0
 40
1.0
 40
1.0
 10
17.1173864904
 20
11.2328627951
 30
0.0
 10
17.1158765728
 20
11.2331845842
 30
0.0
 10
17.1127890412
 20
11.2341621567
 30
0.0
 10
17.1098928163
 20
11.2355963222
 30
0.0
 10
17.1084407297
 20
11.2364346659
 30
0.0
  0
ENDSEC
  0
SECTION
  2
OBJECTS
  0
DICTIONARY
  5
C
100
AcDbDictionary
280
0
281
1
  3
ACAD_GROUP
350
D
  3
ACAD_MLINESTYLE
350
17
  3
ACAD_LAYOUT
350
1A
  3
ACAD_PLOTSETTINGS
350
19
  3
ACAD_PLOTSTYLENAME
350
E
  3
ACAD_TABLESTYLE
350
       5C6
  0
DICTIONARY
  5
D
102
{ACAD_REACTORS
330
C
102
}
100
AcDbDictionary
280
0
281
1
  0
ACDBDICTIONARYWDFLT
  5
E
102
{ACAD_REACTORS
330
C
102
}
100
AcDbDictionary
281
1
  3
Normal
350
F
100
AcDbDictionaryWithDefault
340
F
  0
DICTIONARY
  5
17
102
{ACAD_REACTORS
330
C
102
}
100
AcDbDictionary
280
0
281
1
  3
Standard
350
18
  0
DICTIONARY
  5
5C6
330
C
100
AcDbDictionary
281
1
  3
Standard
350
       5C9
  3
Standard1
350
       5CA
  0
DICTIONARY
  5
19
102
{ACAD_REACTORS
330
C
102
}
100
AcDbDictionary
281
1
  0
DICTIONARY
  5
1A
102
{ACAD_REACTORS
330
C
102
}
100
AcDbDictionary
281
1
  3
Model
350
5C7
  3
Layout1
350
5C8
  0
ACDBPLACEHOLDER
  5
F
102
{ACAD_REACTORS
330
E
102
}
  0
MLINESTYLE
  5
18
102
{ACAD_REACTORS
330
17
102
}
100
AcDbMlineStyle
  2
STANDARD
 70
0
  3

 62
256
 51
90.0
 52
90.0
 71
2
 49
0.5
 62
256
  6
BYLAYER
 49
-0.5
 62
256
  6
BYLAYER
  0
LAYOUT
  5
5C7
102
{ACAD_REACTORS
330
1A
102
}
100
AcDbPlotSettings
  1

  2
none_device
  4
ANSI_C_(22.00_x_17.00_Inches)
  6

 40
0.0
 41
0.0
 42
0.0
 43
0.0
 44
558.8
 45
431.8
 46
0.0
 47
0.0
 48
0.0
 49
0.0
140
0.0
141
0.0
142
1.0
143
1.0
 70
1024
 72
0
 73
0
 74
0
  7

 75
0
147
1.0
148
0.0
149
0.0
100
AcDbLayout
  1
Model
 70
0
 71
0
 10
0.0
 20
0.0
 11
22.0
 21
17.0
 12
0.0
 22
0.0
 32
0.0
 14
0.0
 24
0.0
 34
0.0
 15
0.0
 25
0.0
 35
0.0
146
0.0
 13
0.0
 23
0.0
 33
0.0
 16
1.0
 26
0.0
 36
0.0
 17
0.0
 27
1.0
 37
0.0
 76
0
330
228
345
0
346
0
  0
LAYOUT
  5
5C8
102
{ACAD_REACTORS
330
1A
102
}
100
AcDbPlotSettings
  1

  2
none_device
  4
ANSI_C_(22.00_x_17.00_Inches)
  6

 40
0.0
 41
0.0
 42
0.0
 43
0.0
 44
558.8
 45
431.8
 46
0.0
 47
0.0
 48
0.0
 49
0.0
140
0.0
141
0.0
142
1.0
143
1.0
 70
0
 72
0
 73
0
 74
0
  7

 75
0
147
1.0
148
0.0
149
0.0
100
AcDbLayout
  1
Layout1
 70
0
 71
1
 10
0.0
 20
0.0
 11
22.0
 21
17.0
 12
0.0
 22
0.0
 32
0.0
 14
0.0
 24
0.0
 34
0.0
 15
0.0
 25
0.0
 35
0.0
146
0.0
 13
0.0
 23
0.0
 33
0.0
 16
1.0
 26
0.0
 36
0.0
 17
0.0
 27
1.0
 37
0.0
 76
0
330
229
345
0
346
0
  0
TABLESTYLE
  5
5C9
102
{ACAD_REACTORS
330
5C6
102
}
330
5C6
100
AcDbTableStyle
  3
Standard
 70
0
 71
0
 40
0.06
 41
0.06
280
1
281
1
  7
Standard
140
0.18
170
1
 62
0
 63
7
283
0
  7
Standard
140
0.18
170
1
 62
0
 63
7
283
0
  7
Standard
140
0.18
170
1
 62
0
 63
7
283
0
  0
TABLESTYLE
  5
5CA
102
{ACAD_REACTORS
330
5C6
330
2D0
102
}
330
5C6
100
AcDbTableStyle
  3
Standard1
 70
1
 71
0
 40
0.06
 41
0.06
280
1
281
1
  7
Standard
140
0.18
170
1
 62
0
 63
7
283
0
  7
Standard
140
0.18
170
1
 62
0
 63
7
283
0
  7
Standard
140
0.18
170
1
 62
0
 63
7
283
0
  0
ENDSEC
  0
EOF
