999
DXF file: 192602_1.dxf
999
Pro/ENGINEER 2019292 by Parametric Technology Corporation
  0
SECTION
  2
HEADER
  9
$ACADVER
  1
AC1027
  9
$DWGCODEPAGE
  3
ANSI_1252
  9
$EXTMAX
 10
22.0
 20
17.0
 30
0.0
  9
$EXTMIN
 10
0.0
 20
0.0
 30
0.0
  9
$LIMMIN
 10
0.0
 20
0.0
  9
$LIMMAX
 10
22.0
 20
17.0
  9
$VIEWCTR
 10
11.0
 20
8.5
  9
$VIEWSIZE
 40
17.0
  9
$CLAYER
  8
0
  9
$LTSCALE
 40
1.21
  9
$CELTYPE
  6
BYLAYER
  9
$DIMSCALE
 40
1.0
  9
$DIMASZ
 40
0.1875
  9
$DIMEXO
 40
0.0625
  9
$DIMDLI
 40
0.836
  9
$DIMEXE
 40
0.125
  9
$DIMCEN
 40
0.198
  9
$DIMLFAC
 40
1.0
  9
$DIMBLK
  1
_FILLED
  9
$DIMALT
 70
1
  9
$DIMALTD
 70
2
  9
$DIMALTTD
 70
2
  9
$DIMALTF
 40
25.4
  9
$DIMTXT
 40
0.1
  9
$DIMTOL
 70
1
  9
$DIMLIM
 70
0
  9
$DIMTFAC
 40
1.0
  9
$DIMTP
 40
0.005
  9
$DIMTM
 40
0.005
  9
$DIMGAP
 40
0.09
  9
$DIMDSEP
 70
46
  9
$AUNITS
 70
0
  9
$PDMODE
 70
3
  9
$PDSIZE
 40
0.3125
  9
$HANDSEED
  5
7C2
  9
$TILEMODE
 70
1
  9
$MEASUREMENT
 70
0
  9
$INSUNITS
 70
1
  0
ENDSEC
  0
SECTION
  2
CLASSES
  0
CLASS
  1
ACDBDICTIONARYWDFLT
  2
AcDbDictionaryWithDefault
  3
AutoCAD 2000
 90
0
 91
1
280
0
281
0
  0
CLASS
  1
ACDBPLACEHOLDER
  2
AcDbPlaceHolder
  3
AutoCAD 2000
 90
0
 91
1
280
0
281
0
  0
CLASS
  1
LAYOUT
  2
AcDbLayout
  3
AutoCAD 2000
 90
0
 91
0
280
0
281
0
  0
CLASS
  1
TABLESTYLE
  2
AcDbTableStyle
  3
ObjectDBX Classes
 90
2047
 91
1
280
0
281
0
  0
CLASS
  1
ACAD_TABLE
  2
AcDbTable
  3
ObjectDBX Classes
 90
1025
 91
1
280
0
281
1
  0
ENDSEC
  0
SECTION
  2
TABLES
  0
TABLE
  2
VPORT
  5
8
100
AcDbSymbolTable
 70
2
  0
VPORT
  5
1F4
100
AcDbSymbolTableRecord
100
AcDbViewportTableRecord
  2
*ACTIVE
 70
0
 10
0.0
 20
0.0
 11
1.0
 21
1.0
 12
11.0
 22
8.5
 13
0.0
 23
0.0
 14
1.0
 24
1.0
 15
0.0
 25
0.0
 16
0.0
 26
0.0
 36
1.0
 17
0.0
 27
0.0
 37
0.0
 40
17.0
 41
1.2941176471
 42
50.0
 43
0.0
 44
0.0
 50
0.0
 51
0.0
 71
0
 72
100
 73
1
 74
1
 75
0
 76
0
 77
0
 78
0
  0
ENDTAB
  0
TABLE
  2
LTYPE
  5
5
100
AcDbSymbolTable
 70
6
  0
LTYPE
  5
14
100
AcDbSymbolTableRecord
100
AcDbLinetypeTableRecord
  2
BYBLOCK
 70
0
  3

 72
65
 73
0
 40
0.0
  0
LTYPE
  5
15
100
AcDbSymbolTableRecord
100
AcDbLinetypeTableRecord
  2
BYLAYER
 70
0
  3

 72
65
 73
0
 40
0.0
  0
LTYPE
  5
16
100
AcDbSymbolTableRecord
100
AcDbLinetypeTableRecord
  2
CONTINUOUS
 70
64
  3
Solid line
 72
65
 73
0
 40
0.0
  0
LTYPE
  5
1F5
100
AcDbSymbolTableRecord
100
AcDbLinetypeTableRecord
  2
CENTER
 70
64
  3
____ _ ____ _ ____ _ ____ _ ____ _ ____ _ ____
 72
65
 73
4
 40
0.6
 49
0.375
 74
0
 49
-0.075
 74
0
 49
0.075
 74
0
 49
-0.075
 74
0
  0
LTYPE
  5
1F6
100
AcDbSymbolTableRecord
100
AcDbLinetypeTableRecord
  2
HIDDEN
 70
64
  3
- - - - - - - - - - - - - - - - - - - -
 72
65
 73
2
 40
0.2
 49
0.1
 74
0
 49
-0.1
 74
0
  0
LTYPE
  5
1F7
100
AcDbSymbolTableRecord
100
AcDbLinetypeTableRecord
  2
PHANTOM
 70
64
  3
_____ _ _ _____ _ _ _____ _ _ _____
 72
65
 73
6
 40
0.8
 49
0.45
 74
0
 49
-0.05
 74
0
 49
0.1
 74
0
 49
-0.05
 74
0
 49
0.1
 74
0
 49
-0.05
 74
0
  0
LTYPE
  5
1F8
100
AcDbSymbolTableRecord
100
AcDbLinetypeTableRecord
  2
DOT
 70
64
  3
. . . . . . . . . . . . . . . . . . . .
 72
65
 73
2
 40
0.2
 49
0.1
 74
0
 49
-0.1
 74
0
  0
LTYPE
  5
1F9
100
AcDbSymbolTableRecord
100
AcDbLinetypeTableRecord
  2
DASHED
 70
64
  3
- - - - - - - - - - - - - - - - - - - -
 72
65
 73
2
 40
0.2
 49
0.1
 74
0
 49
-0.1
 74
0
  0
ENDTAB
  0
TABLE
  2
LAYER
  5
2
100
AcDbSymbolTable
 70
36
  0
LAYER
  5
10
100
AcDbSymbolTableRecord
100
AcDbLayerTableRecord
  2
0
 70
0
 62
7
  6
CONTINUOUS
370
-3
390
F
  0
LAYER
  5
1FA
100
AcDbSymbolTableRecord
100
AcDbLayerTableRecord
  2
DEFAULT_1
 70
0
 62
7
  6
CENTER
370
-3
390
F
  0
LAYER
  5
1FB
100
AcDbSymbolTableRecord
100
AcDbLayerTableRecord
  2
DEFAULT_2
 70
0
 62
7
  6
HIDDEN
370
-3
390
F
  0
LAYER
  5
1FC
100
AcDbSymbolTableRecord
100
AcDbLayerTableRecord
  2
DEFAULT_3
 70
0
 62
7
  6
PHANTOM
370
-3
390
F
  0
LAYER
  5
1FD
100
AcDbSymbolTableRecord
100
AcDbLayerTableRecord
  2
1
 70
0
 62
7
  6
CONTINUOUS
370
-3
390
F
  0
LAYER
  5
1FE
100
AcDbSymbolTableRecord
100
AcDbLayerTableRecord
  2
10
 70
0
 62
7
  6
CONTINUOUS
370
-3
390
F
  0
LAYER
  5
1FF
100
AcDbSymbolTableRecord
100
AcDbLayerTableRecord
  2
11
 70
0
 62
7
  6
CONTINUOUS
370
-3
390
F
  0
LAYER
  5
200
100
AcDbSymbolTableRecord
100
AcDbLayerTableRecord
  2
12
 70
0
 62
7
  6
CONTINUOUS
370
-3
390
F
  0
LAYER
  5
201
100
AcDbSymbolTableRecord
100
AcDbLayerTableRecord
  2
13
 70
0
 62
7
  6
CONTINUOUS
370
-3
390
F
  0
LAYER
  5
202
100
AcDbSymbolTableRecord
100
AcDbLayerTableRecord
  2
14
 70
0
 62
7
  6
CONTINUOUS
370
-3
390
F
  0
LAYER
  5
203
100
AcDbSymbolTableRecord
100
AcDbLayerTableRecord
  2
15
 70
0
 62
7
  6
CONTINUOUS
370
-3
390
F
  0
LAYER
  5
204
100
AcDbSymbolTableRecord
100
AcDbLayerTableRecord
  2
16
 70
0
 62
7
  6
CONTINUOUS
370
-3
390
F
  0
LAYER
  5
205
100
AcDbSymbolTableRecord
100
AcDbLayerTableRecord
  2
17
 70
0
 62
7
  6
CONTINUOUS
370
-3
390
F
  0
LAYER
  5
206
100
AcDbSymbolTableRecord
100
AcDbLayerTableRecord
  2
18
 70
0
 62
7
  6
CONTINUOUS
370
-3
390
F
  0
LAYER
  5
207
100
AcDbSymbolTableRecord
100
AcDbLayerTableRecord
  2
19
 70
0
 62
7
  6
CONTINUOUS
370
-3
390
F
  0
LAYER
  5
208
100
AcDbSymbolTableRecord
100
AcDbLayerTableRecord
  2
2
 70
0
 62
7
  6
CONTINUOUS
370
-3
390
F
  0
LAYER
  5
209
100
AcDbSymbolTableRecord
100
AcDbLayerTableRecord
  2
20
 70
0
 62
7
  6
CONTINUOUS
370
-3
390
F
  0
LAYER
  5
20A
100
AcDbSymbolTableRecord
100
AcDbLayerTableRecord
  2
21
 70
0
 62
7
  6
CONTINUOUS
370
-3
390
F
  0
LAYER
  5
20B
100
AcDbSymbolTableRecord
100
AcDbLayerTableRecord
  2
22
 70
0
 62
7
  6
CONTINUOUS
370
-3
390
F
  0
LAYER
  5
20C
100
AcDbSymbolTableRecord
100
AcDbLayerTableRecord
  2
23
 70
0
 62
7
  6
CONTINUOUS
370
-3
390
F
  0
LAYER
  5
20D
100
AcDbSymbolTableRecord
100
AcDbLayerTableRecord
  2
24
 70
0
 62
7
  6
CONTINUOUS
370
-3
390
F
  0
LAYER
  5
20E
100
AcDbSymbolTableRecord
100
AcDbLayerTableRecord
  2
25
 70
0
 62
7
  6
CONTINUOUS
370
-3
390
F
  0
LAYER
  5
20F
100
AcDbSymbolTableRecord
100
AcDbLayerTableRecord
  2
26
 70
0
 62
7
  6
CONTINUOUS
370
-3
390
F
  0
LAYER
  5
210
100
AcDbSymbolTableRecord
100
AcDbLayerTableRecord
  2
27
 70
0
 62
7
  6
CONTINUOUS
370
-3
390
F
  0
LAYER
  5
211
100
AcDbSymbolTableRecord
100
AcDbLayerTableRecord
  2
28
 70
0
 62
7
  6
CONTINUOUS
370
-3
390
F
  0
LAYER
  5
212
100
AcDbSymbolTableRecord
100
AcDbLayerTableRecord
  2
29
 70
0
 62
7
  6
CONTINUOUS
370
-3
390
F
  0
LAYER
  5
213
100
AcDbSymbolTableRecord
100
AcDbLayerTableRecord
  2
3
 70
0
 62
7
  6
CONTINUOUS
370
-3
390
F
  0
LAYER
  5
214
100
AcDbSymbolTableRecord
100
AcDbLayerTableRecord
  2
30
 70
0
 62
7
  6
CONTINUOUS
370
-3
390
F
  0
LAYER
  5
215
100
AcDbSymbolTableRecord
100
AcDbLayerTableRecord
  2
31
 70
0
 62
7
  6
CONTINUOUS
370
-3
390
F
  0
LAYER
  5
216
100
AcDbSymbolTableRecord
100
AcDbLayerTableRecord
  2
32
 70
0
 62
7
  6
CONTINUOUS
370
-3
390
F
  0
LAYER
  5
217
100
AcDbSymbolTableRecord
100
AcDbLayerTableRecord
  2
4
 70
0
 62
7
  6
CONTINUOUS
370
-3
390
F
  0
LAYER
  5
218
100
AcDbSymbolTableRecord
100
AcDbLayerTableRecord
  2
5
 70
0
 62
7
  6
CONTINUOUS
370
-3
390
F
  0
LAYER
  5
219
100
AcDbSymbolTableRecord
100
AcDbLayerTableRecord
  2
6
 70
0
 62
7
  6
CONTINUOUS
370
-3
390
F
  0
LAYER
  5
21A
100
AcDbSymbolTableRecord
100
AcDbLayerTableRecord
  2
7
 70
0
 62
7
  6
CONTINUOUS
370
-3
390
F
  0
LAYER
  5
21B
100
AcDbSymbolTableRecord
100
AcDbLayerTableRecord
  2
8
 70
0
 62
7
  6
CONTINUOUS
370
-3
390
F
  0
LAYER
  5
21C
100
AcDbSymbolTableRecord
100
AcDbLayerTableRecord
  2
9
 70
0
 62
7
  6
CONTINUOUS
370
-3
390
F
  0
LAYER
  5
21D
100
AcDbSymbolTableRecord
100
AcDbLayerTableRecord
  2
AXIS
 70
0
 62
7
  6
CONTINUOUS
370
-3
390
F
  0
LAYER
  5
21E
100
AcDbSymbolTableRecord
100
AcDbLayerTableRecord
  2
DATUM_CURVES
 70
0
 62
7
  6
CONTINUOUS
370
-3
390
F
  0
LAYER
  5
21F
100
AcDbSymbolTableRecord
100
AcDbLayerTableRecord
  2
DATUM_PLANES
 70
0
 62
7
  6
CONTINUOUS
370
-3
390
F
  0
LAYER
  5
220
100
AcDbSymbolTableRecord
100
AcDbLayerTableRecord
  2
NOTES
 70
0
 62
7
  6
CONTINUOUS
370
-3
390
F
  0
LAYER
  5
221
100
AcDbSymbolTableRecord
100
AcDbLayerTableRecord
  2
QUILTS
 70
0
 62
7
  6
CONTINUOUS
370
-3
390
F
  0
LAYER
  5
222
100
AcDbSymbolTableRecord
100
AcDbLayerTableRecord
  2
SCHEME_DIMS
 70
0
 62
7
  6
CONTINUOUS
370
-3
390
F
  0
LAYER
  5
223
100
AcDbSymbolTableRecord
100
AcDbLayerTableRecord
  2
SYMBOLS
 70
0
 62
7
  6
CONTINUOUS
370
-3
390
F
  0
ENDTAB
  0
TABLE
  2
STYLE
  5
3
100
AcDbSymbolTable
 70
1
  0
STYLE
  5
11
100
AcDbSymbolTableRecord
100
AcDbTextStyleTableRecord
  2
STANDARD
 70
0
 40
0.0
 41
1.0
 50
0.0
 71
0
 42
0.2
  3
txt
  4

  0
STYLE
  5
224
100
AcDbSymbolTableRecord
100
AcDbTextStyleTableRecord
  2
TEXTSTYLE_1
 70
0
 40
0.0
 41
0.8
 50
0.0
 71
0
 42
0.2
  3
gdt
  4

  0
STYLE
  5
225
100
AcDbSymbolTableRecord
100
AcDbTextStyleTableRecord
  2
TEXTSTYLE_2
 70
0
 40
0.0
 41
0.8
 50
0.0
 71
0
 42
0.2
  3
txt
  4

  0
STYLE
  5
226
100
AcDbSymbolTableRecord
100
AcDbTextStyleTableRecord
  2
TEXTSTYLE_3
 70
0
 40
0.0
 41
0.9
 50
0.0
 71
0
 42
0.2
  3
txt
  4

  0
STYLE
  5
227
100
AcDbSymbolTableRecord
100
AcDbTextStyleTableRecord
  2
TEXTSTYLE_4
 70
0
 40
0.0
 41
0.85
 50
0.0
 71
0
 42
0.2
  3
txt
  4

  0
STYLE
  5
228
100
AcDbSymbolTableRecord
100
AcDbTextStyleTableRecord
  2
TEXTSTYLE_5
 70
0
 40
0.0
 41
0.75
 50
0.0
 71
0
 42
0.2
  3
txt
  4

  0
ENDTAB
  0
TABLE
  2
VIEW
  5
6
100
AcDbSymbolTable
 70
0
  0
ENDTAB
  0
TABLE
  2
UCS
  5
7
100
AcDbSymbolTable
 70
0
  0
ENDTAB
  0
TABLE
  2
APPID
  5
9
100
AcDbSymbolTable
 70
1
  0
APPID
  5
229
100
AcDbSymbolTableRecord
100
AcDbRegAppTableRecord
  2
ACAD
 70
0
  0
ENDTAB
  0
TABLE
  2
BLOCK_RECORD
  5
1
100
AcDbSymbolTable
 70
0
  0
BLOCK_RECORD
  5
22A
100
AcDbSymbolTableRecord
100
AcDbBlockTableRecord
  2
*Model_Space
  0
BLOCK_RECORD
  5
22B
100
AcDbSymbolTableRecord
100
AcDbBlockTableRecord
  2
*Paper_Space
  0
BLOCK_RECORD
  5
22C
100
AcDbSymbolTableRecord
100
AcDbBlockTableRecord
  2
_FILLED
  0
BLOCK_RECORD
  5
22D
100
AcDbSymbolTableRecord
100
AcDbBlockTableRecord
  2
*D0
  0
BLOCK_RECORD
  5
22E
100
AcDbSymbolTableRecord
100
AcDbBlockTableRecord
  2
*D1
  0
BLOCK_RECORD
  5
22F
100
AcDbSymbolTableRecord
100
AcDbBlockTableRecord
  2
*D2
  0
BLOCK_RECORD
  5
230
100
AcDbSymbolTableRecord
100
AcDbBlockTableRecord
  2
*D3
  0
BLOCK_RECORD
  5
231
100
AcDbSymbolTableRecord
100
AcDbBlockTableRecord
  2
*T1
  0
ENDTAB
  0
TABLE
  2
DIMSTYLE
  5
A
100
AcDbSymbolTable
 70
1
100
AcDbDimStyleTable
 71
0
  0
DIMSTYLE
105
232
100
AcDbSymbolTableRecord
100
AcDbDimStyleTableRecord
  2
STANDARD
 70
0
  3

  4

 40
1.0
 41
0.1875
 42
0.0625
 43
0.38
 44
0.125
 45
0.0
 46
0.0
 47
0.005
 48
0.005
140
0.1
141
0.09
142
0.0
143
1.0
144
1.0
145
0.0
146
1.0
147
0.09
 71
1.0
 72
0.0
 73
1
 74
1
 75
0
 76
0
 77
0
 78
4
 79
1
170
1
171
2
172
0
173
0
174
0
175
0
176
0
177
0
178
0
270
2
179
3
271
3
272
3
273
2
274
2
275
0
280
0
281
0
282
0
283
1
284
4
285
0
286
0
287
3
288
0
340
11
278
46
341
22C
342
22C
343
22C
344
22C
  0
DIMSTYLE
105
233
100
AcDbSymbolTableRecord
100
AcDbDimStyleTableRecord
  2
DIMSTYLE_1
 70
0
  3

  4

 40
1.0
 41
0.1875
 42
0.0625
 43
0.38
 44
0.125
 45
0.0
 46
0.0
 47
0.1
 48
0.1
140
0.1
141
0.09
142
0.0
143
1.0
144
1.0
145
0.0
146
1.0
147
0.1
 71
0.0
 72
0.0
 73
1
 74
1
 75
0
 76
0
 77
0
 78
4
 79
1
170
1
171
2
172
0
173
0
174
0
175
0
176
0
177
0
178
0
270
2
179
3
271
1
272
3
273
2
274
-1
275
0
280
0
281
0
282
0
283
1
284
4
285
0
286
0
287
3
288
0
340
11
278
46
341
22C
342
22C
343
22C
344
22C
  0
ENDTAB
  0
ENDSEC
  0
SECTION
  2
BLOCKS
  0
BLOCK
  5
20
100
AcDbEntity
  8
0
100
AcDbBlockBegin
  2
*Model_Space
 70
0
 10
0.0
 20
0.0
 30
0.0
  3
*Model_Space
  1

  0
ENDBLK
  5
21
100
AcDbEntity
  8
0
100
AcDbBlockEnd
  0
BLOCK
  5
1C
100
AcDbEntity
  8
0
100
AcDbBlockBegin
  2
*Paper_Space
 70
0
 10
0.0
 20
0.0
 30
0.0
  3
*Paper_Space
  1

  0
ENDBLK
  5
1D
100
AcDbEntity
  8
0
100
AcDbBlockEnd
  0
BLOCK
  5
234
100
AcDbEntity
  8
0
100
AcDbBlockBegin
  2
_FILLED
 70
64
 10
0.0
 20
0.0
  3
_FILLED
  1

  0
SOLID
  5
235
100
AcDbEntity
  8
0
  6
BYBLOCK
 62
0
100
AcDbTrace
 10
0.0
 20
0.0
 11
-1.0
 21
0.1666666667
 12
-1.0
 22
-0.1666666667
 13
-1.0
 23
-0.1666666667
  0
ENDBLK
  5
236
100
AcDbEntity
  8
0
  6
BYBLOCK
 62
0
100
AcDbBlockEnd
  0
BLOCK
  5
237
100
AcDbEntity
  8
SCHEME_DIMS
100
AcDbBlockBegin
 62
7
  6
CONTINUOUS
  2
*D0
 70
65
 10
0.0
 20
0.0
  3
*D0
  1

  0
MTEXT
  5
238
100
AcDbEntity
  8
SCHEME_DIMS
100
AcDbMText
 62
7
  6
CONTINUOUS
  7
STANDARD
 71
2
 72
1
 10
7.4382202602
 20
5.7782329933
 30
0.0
 11
1.0
 21
0.0
 31
0.0
 73
2
 44
0.9
  1
75.0\P[2.95]
 40
0.1
 41
0.6
  0
LINE
  5
239
100
AcDbEntity
  8
SCHEME_DIMS
100
AcDbLine
 62
7
  6
CONTINUOUS
 10
6.0618423075
 20
6.1657329933
 11
6.0618423075
 21
5.6032329933
  0
LINE
  5
23A
100
AcDbEntity
  8
SCHEME_DIMS
100
AcDbLine
 62
7
  6
CONTINUOUS
 10
9.014598213
 20
6.1657329933
 11
9.014598213
 21
5.6032329933
  0
LINE
  5
23B
100
AcDbEntity
  8
SCHEME_DIMS
100
AcDbLine
 62
7
  6
CONTINUOUS
 10
6.0618423075
 20
5.7282329933
 11
7.1382202602
 21
5.7282329933
  0
LINE
  5
23C
100
AcDbEntity
  8
SCHEME_DIMS
100
AcDbLine
 62
7
  6
CONTINUOUS
 10
9.014598213
 20
5.7282329933
 11
7.9382202602
 21
5.7282329933
  0
INSERT
  5
23D
100
AcDbEntity
  8
SCHEME_DIMS
100
AcDbBlockReference
 62
7
  6
CONTINUOUS
  2
_FILLED
 10
6.0618423075
 20
5.7282329933
 41
0.1875
 42
0.1875
 43
0.1875
 50
180.0
  0
INSERT
  5
23E
100
AcDbEntity
  8
SCHEME_DIMS
100
AcDbBlockReference
 62
7
  6
CONTINUOUS
  2
_FILLED
 10
9.014598213
 20
5.7282329933
 41
0.1875
 42
0.1875
 43
0.1875
  0
ENDBLK
  5
23F
100
AcDbEntity
  8
0
  6
BYBLOCK
 62
0
100
AcDbBlockEnd
  0
BLOCK
  5
240
100
AcDbEntity
  8
SCHEME_DIMS
100
AcDbBlockBegin
 62
7
  6
CONTINUOUS
  2
*D1
 70
65
 10
0.0
 20
0.0
  3
*D1
  1

  0
MTEXT
  5
241
100
AcDbEntity
  8
SCHEME_DIMS
100
AcDbMText
 62
7
  6
CONTINUOUS
  7
STANDARD
 71
2
 72
1
 10
9.6015112748
 20
8.6800046468
 30
0.0
 11
1.0
 21
0.0
 31
0.0
 73
2
 44
0.9
  1
118.2\P[4.65]
 40
0.1
 41
0.6
  0
LINE
  5
242
100
AcDbEntity
  8
SCHEME_DIMS
100
AcDbLine
 62
7
  6
CONTINUOUS
 10
9.077098213
 20
6.2282329933
 11
9.7765112748
 21
6.2282329933
  0
LINE
  5
243
100
AcDbEntity
  8
SCHEME_DIMS
100
AcDbLine
 62
7
  6
CONTINUOUS
 10
8.7621375831
 20
10.8817763004
 11
9.7765112748
 21
10.8817763004
  0
LINE
  5
244
100
AcDbEntity
  8
SCHEME_DIMS
100
AcDbLine
 62
7
  6
CONTINUOUS
 10
9.6515112748
 20
6.2282329933
 11
9.6515112748
 21
8.3300046468
  0
LINE
  5
245
100
AcDbEntity
  8
SCHEME_DIMS
100
AcDbLine
 62
7
  6
CONTINUOUS
 10
9.6515112748
 20
10.8817763004
 11
9.6515112748
 21
8.7800046468
  0
INSERT
  5
246
100
AcDbEntity
  8
SCHEME_DIMS
100
AcDbBlockReference
 62
7
  6
CONTINUOUS
  2
_FILLED
 10
9.6515112748
 20
6.2282329933
 41
0.1875
 42
0.1875
 43
0.1875
 50
270.0
  0
INSERT
  5
247
100
AcDbEntity
  8
SCHEME_DIMS
100
AcDbBlockReference
 62
7
  6
CONTINUOUS
  2
_FILLED
 10
9.6515112748
 20
10.8817763004
 41
0.1875
 42
0.1875
 43
0.1875
 50
90.0
  0
ENDBLK
  5
248
100
AcDbEntity
  8
0
  6
BYBLOCK
 62
0
100
AcDbBlockEnd
  0
BLOCK
  5
249
100
AcDbEntity
  8
SCHEME_DIMS
100
AcDbBlockBegin
 62
7
  6
CONTINUOUS
  2
*D2
 70
65
 10
0.0
 20
0.0
  3
*D2
  1

  0
MTEXT
  5
24A
100
AcDbEntity
  8
SCHEME_DIMS
100
AcDbMText
 62
7
  6
CONTINUOUS
  7
STANDARD
 71
2
 72
1
 10
12.4889328198
 20
5.7782329933
 30
0.0
 11
1.0
 21
0.0
 31
0.0
 73
2
 44
0.9
  1
22.5\P[.89]
 40
0.1
 41
0.5
  0
LINE
  5
24B
100
AcDbEntity
  8
SCHEME_DIMS
100
AcDbLine
 62
7
  6
CONTINUOUS
 10
12.096019434
 20
6.1657329933
 11
12.096019434
 21
5.6032329933
  0
LINE
  5
24C
100
AcDbEntity
  8
SCHEME_DIMS
100
AcDbLine
 62
7
  6
CONTINUOUS
 10
12.9818462056
 20
6.1657329933
 11
12.9818462056
 21
5.6032329933
  0
LINE
  5
24D
100
AcDbEntity
  8
SCHEME_DIMS
100
AcDbLine
 62
7
  6
CONTINUOUS
 10
12.096019434
 20
5.7282329933
 11
11.696019434
 21
5.7282329933
  0
LINE
  5
24E
100
AcDbEntity
  8
SCHEME_DIMS
100
AcDbLine
 62
7
  6
CONTINUOUS
 10
12.9818462056
 20
5.7282329933
 11
13.3818462056
 21
5.7282329933
  0
INSERT
  5
24F
100
AcDbEntity
  8
SCHEME_DIMS
100
AcDbBlockReference
 62
7
  6
CONTINUOUS
  2
_FILLED
 10
12.096019434
 20
5.7282329933
 41
0.1875
 42
0.1875
 43
0.1875
  0
INSERT
  5
250
100
AcDbEntity
  8
SCHEME_DIMS
100
AcDbBlockReference
 62
7
  6
CONTINUOUS
  2
_FILLED
 10
12.9818462056
 20
5.7282329933
 41
0.1875
 42
0.1875
 43
0.1875
 50
180.0
  0
ENDBLK
  5
251
100
AcDbEntity
  8
0
  6
BYBLOCK
 62
0
100
AcDbBlockEnd
  0
BLOCK
  5
252
100
AcDbEntity
  8
SCHEME_DIMS
100
AcDbBlockBegin
 62
7
  6
CONTINUOUS
  2
*D3
 70
65
 10
0.0
 20
0.0
  3
*D3
  1

  0
MTEXT
  5
253
100
AcDbEntity
  8
SCHEME_DIMS
100
AcDbMText
 62
7
  6
CONTINUOUS
  7
STANDARD
 71
2
 72
1
 10
7.4382202602
 20
11.4367763004
 30
0.0
 11
1.0
 21
0.0
 31
0.0
 73
2
 44
0.9
  1
82.0\P[3.23]
 40
0.1
 41
0.6
  0
LINE
  5
254
100
AcDbEntity
  8
SCHEME_DIMS
100
AcDbLine
 62
7
  6
CONTINUOUS
 10
5.9249292457
 20
9.8677138955
 11
5.9249292457
 21
11.5117763004
  0
LINE
  5
255
100
AcDbEntity
  8
SCHEME_DIMS
100
AcDbLine
 62
7
  6
CONTINUOUS
 10
9.1515112748
 20
9.8677138955
 11
9.1515112748
 21
11.5117763004
  0
LINE
  5
256
100
AcDbEntity
  8
SCHEME_DIMS
100
AcDbLine
 62
7
  6
CONTINUOUS
 10
5.9249292457
 20
11.3867763004
 11
7.1382202602
 21
11.3867763004
  0
LINE
  5
257
100
AcDbEntity
  8
SCHEME_DIMS
100
AcDbLine
 62
7
  6
CONTINUOUS
 10
9.1515112748
 20
11.3867763004
 11
7.9382202602
 21
11.3867763004
  0
INSERT
  5
258
100
AcDbEntity
  8
SCHEME_DIMS
100
AcDbBlockReference
 62
7
  6
CONTINUOUS
  2
_FILLED
 10
5.9249292457
 20
11.3867763004
 41
0.1875
 42
0.1875
 43
0.1875
 50
180.0
  0
INSERT
  5
259
100
AcDbEntity
  8
SCHEME_DIMS
100
AcDbBlockReference
 62
7
  6
CONTINUOUS
  2
_FILLED
 10
9.1515112748
 20
11.3867763004
 41
0.1875
 42
0.1875
 43
0.1875
  0
ENDBLK
  5
25A
100
AcDbEntity
  8
0
  6
BYBLOCK
 62
0
100
AcDbBlockEnd
  0
BLOCK
  5
25B
100
AcDbEntity
  8
0
100
AcDbBlockBegin
  2
*T1
 70
1
 10
0.0
 20
0.0
  3
*T1
  1

  0
LINE
  5
25C
100
AcDbEntity
  8
0
100
AcDbLine
 62
7
  6
CONTINUOUS
 10
4.35
 20
0.0
 11
0.0
 21
0.0
  0
LINE
  5
25D
100
AcDbEntity
  8
0
100
AcDbLine
 62
7
  6
CONTINUOUS
 10
4.35
 20
0.0
 11
4.35
 21
1.92
  0
LINE
  5
25E
100
AcDbEntity
  8
0
100
AcDbLine
 62
7
  6
CONTINUOUS
 10
4.35
 20
1.92
 11
0.0
 21
1.92
  0
LINE
  5
25F
100
AcDbEntity
  8
0
100
AcDbLine
 62
7
  6
CONTINUOUS
 10
0.0
 20
0.0
 11
0.0
 21
1.92
  0
MTEXT
  5
260
100
AcDbEntity
  8
NOTES
100
AcDbMText
 62
7
  6
CONTINUOUS
  7
STANDARD
 71
2
 72
1
 10
4.125
 20
0.48
 30
0.0
 11
1.0
 21
0.0
 31
0.0
 73
2
 44
0.9
  1
A
 40
0.1
 41
0.2
  0
MTEXT
  5
261
100
AcDbEntity
  8
NOTES
100
AcDbMText
 62
7
  6
CONTINUOUS
  7
STANDARD
 71
2
 72
1
 10
2.175
 20
1.08
 30
0.0
 11
1.0
 21
0.0
 31
0.0
 73
2
 44
0.9
  1
EM-F SERIES\P 
 40
0.1
 41
2.2
  0
ENDBLK
  5
262
100
AcDbEntity
  8
0
  6
BYBLOCK
 62
0
100
AcDbBlockEnd
  0
ENDSEC
  0
SECTION
  2
ENTITIES
  0
MTEXT
  5
263
100
AcDbEntity
  8
0
100
AcDbMText
 62
7
  6
CONTINUOUS
  7
TEXTSTYLE_2
 71
2
 72
1
 10
15.7174677477
 20
1.6655662523
 30
0.0
 11
1.0
 21
0.0
 31
0.0
 73
2
 44
0.9
  1
\LTHIRD ANGLE PROJECTION\l
 40
0.1
 41
1.76
  0
MTEXT
  5
264
100
AcDbEntity
  8
0
100
AcDbMText
 62
7
  6
CONTINUOUS
  7
STANDARD
 71
1
 72
1
 10
17.55
 20
1.32
 30
0.0
 11
1.0
 21
0.0
 31
0.0
 73
2
 44
0.9
  1
DRAWING NO.
 40
0.08
 41
0.88
  0
MTEXT
  5
265
100
AcDbEntity
  8
0
100
AcDbMText
 62
7
  6
CONTINUOUS
  7
TEXTSTYLE_2
 71
1
 72
1
 10
16.75
 20
2.08
 30
0.0
 11
1.0
 21
0.0
 31
0.0
 73
2
 44
0.9
  1
TITLE
 40
0.1
 41
0.4
  0
MTEXT
  5
266
100
AcDbEntity
  8
0
100
AcDbMText
 62
7
  6
CONTINUOUS
  7
STANDARD
 71
1
 72
1
 10
16.75
 20
1.32
 30
0.0
 11
1.0
 21
0.0
 31
0.0
 73
2
 44
0.9
  1
SIZE
 40
0.08
 41
0.32
  0
MTEXT
  5
267
100
AcDbEntity
  8
0
100
AcDbMText
 62
7
  6
CONTINUOUS
  7
STANDARD
 71
1
 72
1
 10
16.75
 20
0.95
 30
0.0
 11
1.0
 21
0.0
 31
0.0
 73
2
 44
0.9
  1
SCALE
 40
0.08
 41
0.4
  0
MTEXT
  5
268
100
AcDbEntity
  8
0
100
AcDbMText
 62
7
  6
CONTINUOUS
  7
TEXTSTYLE_2
 71
2
 72
1
 10
17.17
 20
1.2
 30
0.0
 11
1.0
 21
0.0
 31
0.0
 73
2
 44
0.9
  1
C
 40
0.1
 41
0.08
  0
MTEXT
  5
269
100
AcDbEntity
  8
0
100
AcDbMText
 62
7
  6
CONTINUOUS
  7
STANDARD
 71
1
 72
1
 10
18.925
 20
0.95
 30
0.0
 11
1.0
 21
0.0
 31
0.0
 73
2
 44
0.9
  1
SHEET
 40
0.08
 41
0.4
  0
MTEXT
  5
26A
100
AcDbEntity
  8
0
100
AcDbMText
 62
7
  6
CONTINUOUS
  7
STANDARD
 71
1
 72
1
 10
20.3
 20
1.32
 30
0.0
 11
1.0
 21
0.0
 31
0.0
 73
2
 44
0.9
  1
REV.
 40
0.08
 41
0.32
  0
MTEXT
  5
26B
100
AcDbEntity
  8
0
100
AcDbMText
 62
7
  6
CONTINUOUS
  7
STANDARD
 71
3
 72
1
 10
21.05
 20
0.698443
 30
0.0
 11
1.0
 21
0.0
 31
0.0
 73
2
 44
0.9
  1
CREO
 40
0.07
 41
0.28
  0
MTEXT
  5
26C
100
AcDbEntity
  8
0
100
AcDbMText
 62
7
  6
CONTINUOUS
  7
TEXTSTYLE_2
 71
2
 72
1
 10
12.257
 20
15.95
 30
0.0
 11
1.0
 21
0.0
 31
0.0
 73
2
 44
0.9
  1
4
 40
0.1
 41
0.08
  0
MTEXT
  5
26D
100
AcDbEntity
  8
0
100
AcDbMText
 62
7
  6
CONTINUOUS
  7
TEXTSTYLE_2
 71
2
 72
1
 10
12.257
 20
0.65
 30
0.0
 11
1.0
 21
0.0
 31
0.0
 73
2
 44
0.9
  1
4
 40
0.1
 41
0.08
  0
MTEXT
  5
26E
100
AcDbEntity
  8
0
100
AcDbMText
 62
7
  6
CONTINUOUS
  7
TEXTSTYLE_2
 71
3
 72
1
 10
0.864
 20
6.375
 30
0.0
 11
1.0
 21
0.0
 31
0.0
 73
2
 44
0.9
  1
B
 40
0.1
 41
0.08
  0
MTEXT
  5
26F
100
AcDbEntity
  8
0
100
AcDbMText
 62
7
  6
CONTINUOUS
  7
TEXTSTYLE_2
 71
1
 72
1
 10
21.15
 20
6.375
 30
0.0
 11
1.0
 21
0.0
 31
0.0
 73
2
 44
0.9
  1
B
 40
0.1
 41
0.08
  0
MTEXT
  5
270
100
AcDbEntity
  8
0
100
AcDbMText
 62
7
  6
CONTINUOUS
  7
TEXTSTYLE_2
 71
3
 72
1
 10
0.864
 20
2.525
 30
0.0
 11
1.0
 21
0.0
 31
0.0
 73
2
 44
0.9
  1
A
 40
0.1
 41
0.08
  0
MTEXT
  5
271
100
AcDbEntity
  8
0
100
AcDbMText
 62
7
  6
CONTINUOUS
  7
TEXTSTYLE_2
 71
1
 72
1
 10
21.15
 20
2.525
 30
0.0
 11
1.0
 21
0.0
 31
0.0
 73
2
 44
0.9
  1
A
 40
0.1
 41
0.08
  0
MTEXT
  5
272
100
AcDbEntity
  8
0
100
AcDbMText
 62
7
  6
CONTINUOUS
  7
TEXTSTYLE_2
 71
3
 72
1
 10
0.864
 20
14.075
 30
0.0
 11
1.0
 21
0.0
 31
0.0
 73
2
 44
0.9
  1
D
 40
0.1
 41
0.08
  0
MTEXT
  5
273
100
AcDbEntity
  8
0
100
AcDbMText
 62
7
  6
CONTINUOUS
  7
TEXTSTYLE_2
 71
1
 72
1
 10
21.15
 20
14.075
 30
0.0
 11
1.0
 21
0.0
 31
0.0
 73
2
 44
0.9
  1
D
 40
0.1
 41
0.08
  0
MTEXT
  5
274
100
AcDbEntity
  8
0
100
AcDbMText
 62
7
  6
CONTINUOUS
  7
TEXTSTYLE_2
 71
3
 72
1
 10
0.864
 20
10.225
 30
0.0
 11
1.0
 21
0.0
 31
0.0
 73
2
 44
0.9
  1
C
 40
0.1
 41
0.08
  0
MTEXT
  5
275
100
AcDbEntity
  8
0
100
AcDbMText
 62
7
  6
CONTINUOUS
  7
TEXTSTYLE_2
 71
1
 72
1
 10
21.15
 20
10.225
 30
0.0
 11
1.0
 21
0.0
 31
0.0
 73
2
 44
0.9
  1
C
 40
0.1
 41
0.08
  0
MTEXT
  5
276
100
AcDbEntity
  8
0
100
AcDbMText
 62
7
  6
CONTINUOUS
  7
TEXTSTYLE_2
 71
2
 72
1
 10
14.757
 20
0.65
 30
0.0
 11
1.0
 21
0.0
 31
0.0
 73
2
 44
0.9
  1
3
 40
0.1
 41
0.08
  0
MTEXT
  5
277
100
AcDbEntity
  8
0
100
AcDbMText
 62
7
  6
CONTINUOUS
  7
TEXTSTYLE_2
 71
2
 72
1
 10
14.757
 20
15.95
 30
0.0
 11
1.0
 21
0.0
 31
0.0
 73
2
 44
0.9
  1
3
 40
0.1
 41
0.08
  0
MTEXT
  5
278
100
AcDbEntity
  8
0
100
AcDbMText
 62
7
  6
CONTINUOUS
  7
TEXTSTYLE_2
 71
2
 72
1
 10
17.257
 20
15.95
 30
0.0
 11
1.0
 21
0.0
 31
0.0
 73
2
 44
0.9
  1
2
 40
0.1
 41
0.08
  0
MTEXT
  5
279
100
AcDbEntity
  8
0
100
AcDbMText
 62
7
  6
CONTINUOUS
  7
TEXTSTYLE_2
 71
2
 72
1
 10
17.257
 20
0.65
 30
0.0
 11
1.0
 21
0.0
 31
0.0
 73
2
 44
0.9
  1
2
 40
0.1
 41
0.08
  0
MTEXT
  5
27A
100
AcDbEntity
  8
0
100
AcDbMText
 62
7
  6
CONTINUOUS
  7
TEXTSTYLE_2
 71
2
 72
1
 10
19.757
 20
0.65
 30
0.0
 11
1.0
 21
0.0
 31
0.0
 73
2
 44
0.9
  1
1
 40
0.1
 41
0.08
  0
MTEXT
  5
27B
100
AcDbEntity
  8
0
100
AcDbMText
 62
7
  6
CONTINUOUS
  7
TEXTSTYLE_2
 71
2
 72
1
 10
19.757
 20
15.95
 30
0.0
 11
1.0
 21
0.0
 31
0.0
 73
2
 44
0.9
  1
1
 40
0.1
 41
0.08
  0
MTEXT
  5
27C
100
AcDbEntity
  8
0
100
AcDbMText
 62
7
  6
CONTINUOUS
  7
TEXTSTYLE_2
 71
2
 72
1
 10
2.257
 20
0.65
 30
0.0
 11
1.0
 21
0.0
 31
0.0
 73
2
 44
0.9
  1
8
 40
0.1
 41
0.08
  0
MTEXT
  5
27D
100
AcDbEntity
  8
0
100
AcDbMText
 62
7
  6
CONTINUOUS
  7
TEXTSTYLE_2
 71
2
 72
1
 10
4.757
 20
0.65
 30
0.0
 11
1.0
 21
0.0
 31
0.0
 73
2
 44
0.9
  1
7
 40
0.1
 41
0.08
  0
MTEXT
  5
27E
100
AcDbEntity
  8
0
100
AcDbMText
 62
7
  6
CONTINUOUS
  7
TEXTSTYLE_2
 71
2
 72
1
 10
7.257
 20
0.65
 30
0.0
 11
1.0
 21
0.0
 31
0.0
 73
2
 44
0.9
  1
6
 40
0.1
 41
0.08
  0
MTEXT
  5
27F
100
AcDbEntity
  8
0
100
AcDbMText
 62
7
  6
CONTINUOUS
  7
TEXTSTYLE_2
 71
2
 72
1
 10
9.757
 20
0.65
 30
0.0
 11
1.0
 21
0.0
 31
0.0
 73
2
 44
0.9
  1
5
 40
0.1
 41
0.08
  0
MTEXT
  5
280
100
AcDbEntity
  8
0
100
AcDbMText
 62
7
  6
CONTINUOUS
  7
TEXTSTYLE_2
 71
2
 72
1
 10
9.757
 20
15.95
 30
0.0
 11
1.0
 21
0.0
 31
0.0
 73
2
 44
0.9
  1
5
 40
0.1
 41
0.08
  0
MTEXT
  5
281
100
AcDbEntity
  8
0
100
AcDbMText
 62
7
  6
CONTINUOUS
  7
TEXTSTYLE_2
 71
2
 72
1
 10
7.257
 20
15.95
 30
0.0
 11
1.0
 21
0.0
 31
0.0
 73
2
 44
0.9
  1
6
 40
0.1
 41
0.08
  0
MTEXT
  5
282
100
AcDbEntity
  8
0
100
AcDbMText
 62
7
  6
CONTINUOUS
  7
TEXTSTYLE_2
 71
2
 72
1
 10
4.757
 20
15.95
 30
0.0
 11
1.0
 21
0.0
 31
0.0
 73
2
 44
0.9
  1
7
 40
0.1
 41
0.08
  0
MTEXT
  5
283
100
AcDbEntity
  8
0
100
AcDbMText
 62
7
  6
CONTINUOUS
  7
TEXTSTYLE_2
 71
2
 72
1
 10
2.257
 20
15.95
 30
0.0
 11
1.0
 21
0.0
 31
0.0
 73
2
 44
0.9
  1
8
 40
0.1
 41
0.08
  0
MTEXT
  5
284
100
AcDbEntity
  8
0
100
AcDbMText
 62
7
  6
CONTINUOUS
  7
STANDARD
 71
1
 72
1
 10
17.2749123633
 20
0.9184107931
 30
0.0
 11
1.0
 21
0.0
 31
0.0
 73
2
 44
0.9
  1
1:1
 40
0.1
 41
0.3
  0
MTEXT
  5
285
100
AcDbEntity
  8
0
100
AcDbMText
 62
7
  6
CONTINUOUS
  7
STANDARD
 71
1
 72
1
 10
19.4499123633
 20
0.9184107931
 30
0.0
 11
1.0
 21
0.0
 31
0.0
 73
2
 44
0.9
  1
1 OF 1
 40
0.1
 41
0.6
  0
MTEXT
  5
286
100
AcDbEntity
  8
0
100
AcDbMText
 62
7
  6
CONTINUOUS
  7
STANDARD
 71
1
 72
1
 10
18.5204017884
 20
1.2400373234
 30
0.0
 11
1.0
 21
0.0
 31
0.0
 73
2
 44
0.9
  1
192602
 40
0.12
 41
0.72
  0
MTEXT
  5
287
100
AcDbEntity
  8
0
100
AcDbMText
 62
7
  6
CONTINUOUS
  7
STANDARD
 71
1
 72
1
 10
1.2857894151
 20
1.4458068967
 30
0.0
 11
1.0
 21
0.0
 31
0.0
 73
2
 44
0.9
  1
NOTES:\P1. ALL DIMENSIONS ARE MILLIMETERS [INCHES] UNLESS OTHERWISE NOTED.\P2. REFER TO "www.bannerengineering.com" FOR ADDITIONAL DATA AND SPECIFICATIONS.
 40
0.1
 41
7.9
  0
MTEXT
  5
288
100
AcDbEntity
  8
0
100
AcDbMText
 62
7
  6
CONTINUOUS
  7
TEXTSTYLE_3
 71
2
 72
1
 10
19.7555637832
 20
2.555409194
 30
0.0
 11
1.0
 21
0.0
 31
0.0
 73
2
 44
0.9
  1
BANNER ENGINEERING CORP.
 40
0.12
 41
2.592
  0
MTEXT
  5
289
100
AcDbEntity
  8
0
100
AcDbMText
 62
7
  6
CONTINUOUS
  7
TEXTSTYLE_2
 71
2
 72
1
 10
19.6690932526
 20
2.3442032634
 30
0.0
 11
1.0
 21
0.0
 31
0.0
 73
2
 44
0.9
  1
www.bannerengineering.com
 40
0.1
 41
2.0
  0
MTEXT
  5
28A
100
AcDbEntity
  8
0
100
AcDbMText
 62
7
  6
CONTINUOUS
  7
TEXTSTYLE_4
 71
2
 72
1
 10
15.7104628329
 20
2.6377571551
 30
0.0
 11
1.0
 21
0.0
 31
0.0
 73
2
 44
0.9
  1
This drawing is the property\Pof BANNER ENGINEERING CORP.\PAny use or reproduction,\Pin any form, without prior\Pwritten permission of\PBanner is prohibited.
 40
0.08
 41
1.904
  0
MTEXT
  5
28B
100
AcDbEntity
  8
0
100
AcDbMText
 62
7
  6
CONTINUOUS
  7
TEXTSTYLE_5
 71
2
 72
1
 10
15.7283993136
 20
1.9032170366
 30
0.0
 11
1.0
 21
0.0
 31
0.0
 73
2
 44
0.9
  1
C  2015 Banner Engineering Corp.
 40
0.08
 41
1.92
  0
DIMENSION
  5
28C
100
AcDbEntity
  8
SCHEME_DIMS
100
AcDbDimension
 62
7
  6
CONTINUOUS
  2
*D0
 10
9.014598213
 20
5.7282329933
 11
7.5382202602
 21
5.6532329933
 70
160
 71
2
 72
2
 41
0.9
 42
75.0
  1
<>\P[]
  3
DIMSTYLE_1
100
AcDbAlignedDimension
 13
6.0618423075
 23
6.2282329933
 14
9.014598213
 24
6.2282329933
100
AcDbRotatedDimension
  0
DIMENSION
  5
28D
100
AcDbEntity
  8
SCHEME_DIMS
100
AcDbDimension
 62
7
  6
CONTINUOUS
  2
*D1
 10
9.6515112748
 20
10.8817763004
 11
9.6515112748
 21
8.5550046468
 70
160
 71
2
 72
2
 41
0.9
 42
118.2
  1
<>\P[]
  3
DIMSTYLE_1
100
AcDbAlignedDimension
 13
9.014598213
 23
6.2282329933
 14
8.6996375831
 24
10.8817763004
 50
90.0
100
AcDbRotatedDimension
  0
DIMENSION
  5
28E
100
AcDbEntity
  8
SCHEME_DIMS
100
AcDbDimension
 62
7
  6
CONTINUOUS
  2
*D2
 10
12.9818462056
 20
5.7282329933
 11
12.5389328198
 21
5.6532329933
 70
160
 71
2
 72
2
 41
0.9
 42
22.5
  1
<>\P[]
  3
DIMSTYLE_1
100
AcDbAlignedDimension
 13
12.096019434
 23
6.2282329933
 14
12.9818462056
 24
6.2282329933
100
AcDbRotatedDimension
  0
DIMENSION
  5
28F
100
AcDbEntity
  8
SCHEME_DIMS
100
AcDbDimension
 62
7
  6
CONTINUOUS
  2
*D3
 10
9.1515112748
 20
11.3867763004
 11
7.5382202602
 21
11.3117763004
 70
160
 71
2
 72
2
 41
0.9
 42
81.9551835387
  1
<>\P[]
  3
DIMSTYLE_1
100
AcDbAlignedDimension
 13
5.9249292457
 23
9.8052138955
 14
9.1515112748
 24
9.8052138955
100
AcDbRotatedDimension
  0
ACAD_TABLE
  5
290
100
AcDbEntity
  8
0
 62
7
  6
CONTINUOUS
100
AcDbBlockReference
  2
*T1
 10
16.7
 20
0.75
 30
0.0
100
AcDbTable
342
       7C1
343
231
 11
1.0
 21
0.0
 31
0.0
 90
6
 91
3
 92
5
 93
4
 94
0
 95
0
 96
0
 70
1
141
0.33
141
0.45
141
1.14
142
0.65
142
1.15
142
1.025
142
1.075
142
0.45
171
1
172
0
173
0
174
0
175
1
176
1
 91
33
178
0
145
0.0
301
CELL_VALUE
 90
4
  1
 
304
ACVALUE_END
170
1
140
0.1
171
1
172
0
173
0
174
0
175
1
176
1
 91
33
178
0
145
0.0
301
CELL_VALUE
 90
4
  1
 
304
ACVALUE_END
170
1
140
0.1
171
1
172
0
173
0
174
0
175
1
176
1
 91
33
178
0
145
0.0
301
CELL_VALUE
 90
4
  1
 
304
ACVALUE_END
170
1
140
0.1
171
1
172
0
173
0
174
0
175
1
176
1
 91
33
178
0
145
0.0
301
CELL_VALUE
 90
4
  1
 
304
ACVALUE_END
170
1
140
0.1
171
1
172
0
173
0
174
0
175
1
176
1
 91
33
178
0
145
0.0
301
CELL_VALUE
 90
4
  1
 
304
ACVALUE_END
170
1
140
0.1
171
1
172
0
173
0
174
0
175
1
176
1
 91
33
178
0
145
0.0
301
CELL_VALUE
 90
4
  1
 
304
ACVALUE_END
170
1
140
0.1
171
1
172
0
173
0
174
0
175
1
176
1
 91
33
178
0
145
0.0
301
CELL_VALUE
 90
4
  1
 
304
ACVALUE_END
170
1
140
0.1
171
1
172
0
173
0
174
0
175
1
176
1
 91
33
178
0
145
0.0
301
CELL_VALUE
 90
4
  1
 
304
ACVALUE_END
170
1
140
0.1
171
1
172
0
173
0
174
0
175
1
176
1
 91
33
178
0
145
0.0
301
CELL_VALUE
 90
4
  1
 
304
ACVALUE_END
170
1
140
0.1
171
1
172
0
173
0
174
0
175
1
176
1
 91
41
178
0
145
0.0
301
CELL_VALUE
 90
4
  1
A
304
ACVALUE_END
170
8
140
0.1
 64
7
171
1
172
0
173
0
174
0
175
5
176
1
 91
33
178
0
145
0.0
301
CELL_VALUE
 90
4
  1
EM-F SERIES\P 
304
ACVALUE_END
170
8
140
0.1
171
1
172
0
173
1
174
0
175
1
176
1
 91
1
178
0
145
0.0
170
1
171
1
172
0
173
1
174
0
175
1
176
1
 91
1
178
0
145
0.0
170
1
171
1
172
0
173
1
174
0
175
1
176
1
 91
1
178
0
145
0.0
170
1
171
1
172
0
173
1
174
0
175
1
176
1
 91
1
178
0
145
0.0
170
8
  0
MTEXT
  5
291
100
AcDbEntity
  8
NOTES
100
AcDbMText
 62
7
  6
CONTINUOUS
  7
STANDARD
 71
2
 72
1
 10
19.476627272
 20
3.0699375709
 30
0.0
 11
1.0
 21
0.0
 31
0.0
 73
2
 44
0.9
  1
SCALE  1:2
 40
0.1
 41
1.0
  0
LEADER
  5
292
100
AcDbEntity
  8
NOTES
100
AcDbLeader
 62
7
  6
CONTINUOUS
  3
STANDARD
 71
1
 72
0
 73
0
 75
0
 40
0.1
 41
1.2
 76
3
 10
17.0194085519
 20
6.425083387
 30
0.0
 10
16.6299748784
 20
5.7282329933
 30
0.0
 10
16.3799748784
 20
5.7282329933
 30
0.0
340
293
1001
ACAD
1000
DSTYLE
1002
{
1070
77
1070
0
1002
}
  0
MTEXT
  5
293
102
{ACAD_REACTORS
330
292
102
}
100
AcDbEntity
  8
NOTES
100
AcDbMText
 62
7
  6
CONTINUOUS
  7
STANDARD
 71
3
 72
1
 10
16.3799748784
 20
5.7782329933
 30
0.0
 11
1.0
 21
0.0
 31
0.0
 73
2
 44
0.9
  1
CHANNEL FOR \P35 MM DIN RAIL 
 40
0.1
 41
1.5
  0
LINE
  5
294
100
AcDbEntity
  8
0
100
AcDbLine
 62
7
  6
CONTINUOUS
 10
0.814
 20
8.336603
 11
0.814
 21
8.163397
  0
LINE
  5
295
100
AcDbEntity
  8
0
100
AcDbLine
 62
7
  6
CONTINUOUS
 10
0.964
 20
15.75
 11
0.964
 21
0.75
  0
LINE
  5
296
100
AcDbEntity
  8
0
100
AcDbLine
 62
7
  6
CONTINUOUS
 10
15.8276527477
 20
1.2966912523
 11
16.4340437477
 21
1.3660842523
  0
LINE
  5
297
100
AcDbEntity
  8
0
100
AcDbLine
 62
7
  6
CONTINUOUS
 10
10.920397
 20
0.6
 11
11.093603
 21
0.6
  0
LINE
  5
298
100
AcDbEntity
  8
0
100
AcDbLine
 62
7
  6
CONTINUOUS
 10
0.964
 20
0.75
 11
21.05
 21
0.75
  0
LINE
  5
299
100
AcDbEntity
  8
0
100
AcDbLine
 62
7
  6
CONTINUOUS
 10
3.507
 20
0.75
 11
3.507
 21
0.5
  0
LINE
  5
29A
100
AcDbEntity
  8
0
100
AcDbLine
 62
7
  6
CONTINUOUS
 10
3.507
 20
15.75
 11
3.507
 21
16.0
  0
LINE
  5
29B
100
AcDbEntity
  8
0
100
AcDbLine
 62
7
  6
CONTINUOUS
 10
16.7
 20
1.0
 11
21.05
 21
1.0
  0
LINE
  5
29C
100
AcDbEntity
  8
0
100
AcDbLine
 62
7
  6
CONTINUOUS
 10
14.9008917477
 20
1.1139932523
 11
15.1229827477
 21
1.1139932523
  0
LINE
  5
29D
100
AcDbEntity
  8
0
100
AcDbLine
 62
7
  6
CONTINUOUS
 10
15.1729827477
 20
1.1139932523
 11
15.2729827477
 21
1.1139932523
  0
LINE
  5
29E
100
AcDbEntity
  8
0
100
AcDbLine
 62
7
  6
CONTINUOUS
 10
15.3229827477
 20
1.1139932523
 11
15.5450737477
 21
1.1139932523
  0
LINE
  5
29F
100
AcDbEntity
  8
0
100
AcDbLine
 62
7
  6
CONTINUOUS
 10
15.7276527477
 20
1.1139932523
 11
16.0058047477
 21
1.1139932523
  0
LINE
  5
2A0
100
AcDbEntity
  8
0
100
AcDbLine
 62
7
  6
CONTINUOUS
 10
16.0558047477
 20
1.1139932523
 11
16.2058907477
 21
1.1139932523
  0
LINE
  5
2A1
100
AcDbEntity
  8
0
100
AcDbLine
 62
7
  6
CONTINUOUS
 10
16.2558907477
 20
1.1139932523
 11
16.5340437477
 21
1.1139932523
  0
LINE
  5
2A2
100
AcDbEntity
  8
0
100
AcDbLine
 62
7
  6
CONTINUOUS
 10
16.7
 20
1.37
 11
21.05
 21
1.37
  0
LINE
  5
2A3
100
AcDbEntity
  8
0
100
AcDbLine
 62
7
  6
CONTINUOUS
 10
16.4340437477
 20
0.8619022523
 11
15.8276527477
 21
0.9312952523
  0
LINE
  5
2A4
100
AcDbEntity
  8
0
100
AcDbLine
 62
7
  6
CONTINUOUS
 10
14.7
 20
1.77
 11
16.7
 21
1.77
  0
LINE
  5
2A5
100
AcDbEntity
  8
0
100
AcDbLine
 62
7
  6
CONTINUOUS
 10
16.7
 20
2.13
 11
21.05
 21
2.13
  0
LINE
  5
2A6
100
AcDbEntity
  8
0
100
AcDbLine
 62
7
  6
CONTINUOUS
 10
18.273144232
 20
2.3543254011
 11
18.2257802057
 21
2.3543254011
  0
LINE
  5
2A7
100
AcDbEntity
  8
0
100
AcDbLine
 62
7
  6
CONTINUOUS
 10
18.1818891814
 20
2.3543254011
 11
18.0683181184
 21
2.3543254011
  0
LINE
  5
2A8
100
AcDbEntity
  8
0
100
AcDbLine
 62
7
  6
CONTINUOUS
 10
18.0394141024
 20
2.3543254011
 11
17.8362019897
 21
2.3543254011
  0
LINE
  5
2A9
100
AcDbEntity
  8
0
100
AcDbLine
 62
7
  6
CONTINUOUS
 10
17.7857289617
 20
2.3543254011
 11
17.7115229205
 21
2.3543254011
  0
LINE
  5
2AA
100
AcDbEntity
  8
0
100
AcDbLine
 62
7
  6
CONTINUOUS
 10
17.6651428948
 20
2.3543254011
 11
17.5894788529
 21
2.3543254011
  0
LINE
  5
2AB
100
AcDbEntity
  8
0
100
AcDbLine
 62
7
  6
CONTINUOUS
 10
17.537475824
 20
2.3543254011
 11
17.4632707829
 21
2.3543254011
  0
LINE
  5
2AC
100
AcDbEntity
  8
0
100
AcDbLine
 62
7
  6
CONTINUOUS
 10
17.4168897572
 20
2.3543254011
 11
17.3412257152
 21
2.3543254011
  0
LINE
  5
2AD
100
AcDbEntity
  8
0
100
AcDbLine
 62
7
  6
CONTINUOUS
 10
16.8743904563
 20
2.3543254011
 11
17.0508365542
 21
2.3543254011
  0
LINE
  5
2AE
100
AcDbEntity
  8
0
100
AcDbLine
 62
7
  6
CONTINUOUS
 10
17.1083735861
 20
2.3543254011
 11
17.185749629
 21
2.3543254011
  0
LINE
  5
2AF
100
AcDbEntity
  8
0
100
AcDbLine
 62
7
  6
CONTINUOUS
 10
17.2060356402
 20
2.3543254011
 11
17.3113166986
 21
2.3543254011
  0
LINE
  5
2B0
100
AcDbEntity
  8
0
100
AcDbLine
 62
7
  6
CONTINUOUS
 10
18.1572301677
 20
2.3790534148
 11
18.1818891814
 21
2.3790534148
  0
LINE
  5
2B1
100
AcDbEntity
  8
0
100
AcDbLine
 62
7
  6
CONTINUOUS
 10
17.3113166986
 20
2.3790754148
 11
17.2913006875
 21
2.3790754148
  0
LINE
  5
2B2
100
AcDbEntity
  8
0
100
AcDbLine
 62
7
  6
CONTINUOUS
 10
17.2204866482
 20
2.3790754148
 11
17.2060356402
 21
2.3790754148
  0
LINE
  5
2B3
100
AcDbEntity
  8
0
100
AcDbLine
 62
7
  6
CONTINUOUS
 10
17.185749629
 20
2.3790754148
 11
17.1744666227
 21
2.3790754148
  0
LINE
  5
2B4
100
AcDbEntity
  8
0
100
AcDbLine
 62
7
  6
CONTINUOUS
 10
17.1312345987
 20
2.3790754148
 11
17.1083735861
 21
2.3790754148
  0
LINE
  5
2B5
100
AcDbEntity
  8
0
100
AcDbLine
 62
7
  6
CONTINUOUS
 10
17.0051585288
 20
2.3790754148
 11
16.9637955059
 21
2.3790754148
  0
LINE
  5
2B6
100
AcDbEntity
  8
0
100
AcDbLine
 62
7
  6
CONTINUOUS
 10
16.8983324696
 20
2.3790754148
 11
16.8743904563
 21
2.3790754148
  0
LINE
  5
2B7
100
AcDbEntity
  8
0
100
AcDbLine
 62
7
  6
CONTINUOUS
 10
17.3412257152
 20
2.3790754148
 11
17.3598727255
 21
2.3790754148
  0
LINE
  5
2B8
100
AcDbEntity
  8
0
100
AcDbLine
 62
7
  6
CONTINUOUS
 10
17.3965727459
 20
2.3790754148
 11
17.4168897572
 21
2.3790754148
  0
LINE
  5
2B9
100
AcDbEntity
  8
0
100
AcDbLine
 62
7
  6
CONTINUOUS
 10
17.5894788529
 20
2.3790754148
 11
17.6081248632
 21
2.3790754148
  0
LINE
  5
2BA
100
AcDbEntity
  8
0
100
AcDbLine
 62
7
  6
CONTINUOUS
 10
17.6448258836
 20
2.3790754148
 11
17.6651428948
 21
2.3790754148
  0
LINE
  5
2BB
100
AcDbEntity
  8
0
100
AcDbLine
 62
7
  6
CONTINUOUS
 10
17.8362019897
 20
2.3790754148
 11
17.860125003
 21
2.3790754148
  0
LINE
  5
2BC
100
AcDbEntity
  8
0
100
AcDbLine
 62
7
  6
CONTINUOUS
 10
17.9271410401
 20
2.3790754148
 11
17.9921450762
 21
2.3790754148
  0
LINE
  5
2BD
100
AcDbEntity
  8
0
100
AcDbLine
 62
7
  6
CONTINUOUS
 10
18.0683181184
 20
2.3790754148
 11
18.091064131
 21
2.3790754148
  0
LINE
  5
2BE
100
AcDbEntity
  8
0
100
AcDbLine
 62
7
  6
CONTINUOUS
 10
18.2741672326
 20
2.379462415
 11
18.2752762332
 21
2.379462415
  0
LINE
  5
2BF
100
AcDbEntity
  8
0
100
AcDbLine
 62
7
  6
CONTINUOUS
 10
17.9970950789
 20
2.3922754221
 11
18.0394141024
 21
2.3922754221
  0
LINE
  5
2C0
100
AcDbEntity
  8
0
100
AcDbLine
 62
7
  6
CONTINUOUS
 10
17.1799826258
 20
2.3927194224
 11
17.2148606451
 21
2.3927194224
  0
LINE
  5
2C1
100
AcDbEntity
  8
0
100
AcDbLine
 62
7
  6
CONTINUOUS
 10
18.2860312391
 20
2.3932124227
 11
18.2981412459
 21
2.3932124227
  0
LINE
  5
2C2
100
AcDbEntity
  8
0
100
AcDbLine
 62
7
  6
CONTINUOUS
 10
18.184837183
 20
2.3937024229
 11
18.1572301677
 21
2.3937024229
  0
LINE
  5
2C3
100
AcDbEntity
  8
0
100
AcDbLine
 62
7
  6
CONTINUOUS
 10
17.9623080596
 20
2.395575424
 11
17.9271410401
 21
2.395575424
  0
LINE
  5
2C4
100
AcDbEntity
  8
0
100
AcDbLine
 62
7
  6
CONTINUOUS
 10
16.9637955059
 20
2.3964004244
 11
17.0051585288
 21
2.3964004244
  0
LINE
  5
2C5
100
AcDbEntity
  8
0
100
AcDbLine
 62
7
  6
CONTINUOUS
 10
18.1911671865
 20
2.4127054335
 11
18.1572301677
 21
2.4127054335
  0
LINE
  5
2C6
100
AcDbEntity
  8
0
100
AcDbLine
 62
7
  6
CONTINUOUS
 10
16.9637955059
 20
2.4130554337
 11
17.0051585288
 21
2.4130554337
  0
LINE
  5
2C7
100
AcDbEntity
  8
0
100
AcDbLine
 62
7
  6
CONTINUOUS
 10
17.1884986305
 20
2.413669434
 11
17.2090556419
 21
2.413669434
  0
LINE
  5
2C8
100
AcDbEntity
  8
0
100
AcDbLine
 62
7
  6
CONTINUOUS
 10
17.9271410401
 20
2.4138804341
 11
17.9623080596
 21
2.4138804341
  0
LINE
  5
2C9
100
AcDbEntity
  8
0
100
AcDbLine
 62
7
  6
CONTINUOUS
 10
18.0379951016
 20
2.4171804359
 11
17.9961310784
 21
2.4171804359
  0
LINE
  5
2CA
100
AcDbEntity
  8
0
100
AcDbLine
 62
7
  6
CONTINUOUS
 10
17.2017966379
 20
2.429836443
 11
17.1956156344
 21
2.429836443
  0
LINE
  5
2CB
100
AcDbEntity
  8
0
100
AcDbLine
 62
7
  6
CONTINUOUS
 10
18.091064131
 20
2.4303804433
 11
18.0683181184
 21
2.4303804433
  0
LINE
  5
2CC
100
AcDbEntity
  8
0
100
AcDbLine
 62
7
  6
CONTINUOUS
 10
17.9911810756
 20
2.4303804433
 11
17.9271410401
 21
2.4303804433
  0
LINE
  5
2CD
100
AcDbEntity
  8
0
100
AcDbLine
 62
7
  6
CONTINUOUS
 10
17.860125003
 20
2.4303804433
 11
17.8362019897
 21
2.4303804433
  0
LINE
  5
2CE
100
AcDbEntity
  8
0
100
AcDbLine
 62
7
  6
CONTINUOUS
 10
17.8086119744
 20
2.4303804433
 11
17.7906789644
 21
2.4303804433
  0
LINE
  5
2CF
100
AcDbEntity
  8
0
100
AcDbLine
 62
7
  6
CONTINUOUS
 10
17.7533869438
 20
2.4303804433
 11
17.7346109333
 21
2.4303804433
  0
LINE
  5
2D0
100
AcDbEntity
  8
0
100
AcDbLine
 62
7
  6
CONTINUOUS
 10
17.6081248632
 20
2.4303804433
 11
17.5894788529
 21
2.4303804433
  0
LINE
  5
2D1
100
AcDbEntity
  8
0
100
AcDbLine
 62
7
  6
CONTINUOUS
 10
17.5603588367
 20
2.4303804433
 11
17.5424258268
 21
2.4303804433
  0
LINE
  5
2D2
100
AcDbEntity
  8
0
100
AcDbLine
 62
7
  6
CONTINUOUS
 10
17.5051338061
 20
2.4303804433
 11
17.4863577957
 21
2.4303804433
  0
LINE
  5
2D3
100
AcDbEntity
  8
0
100
AcDbLine
 62
7
  6
CONTINUOUS
 10
17.3598727255
 20
2.4303804433
 11
17.3412257152
 21
2.4303804433
  0
LINE
  5
2D4
100
AcDbEntity
  8
0
100
AcDbLine
 62
7
  6
CONTINUOUS
 10
17.0051585288
 20
2.4303804433
 11
16.9637955059
 21
2.4303804433
  0
LINE
  5
2D5
100
AcDbEntity
  8
0
100
AcDbLine
 62
7
  6
CONTINUOUS
 10
16.8743904563
 20
2.4303804433
 11
16.8983324696
 21
2.4303804433
  0
LINE
  5
2D6
100
AcDbEntity
  8
0
100
AcDbLine
 62
7
  6
CONTINUOUS
 10
18.1572301677
 20
2.4303804433
 11
18.1940311881
 21
2.4303804433
  0
LINE
  5
2D7
100
AcDbEntity
  8
0
100
AcDbLine
 62
7
  6
CONTINUOUS
 10
17.2393896587
 20
2.455130457
 11
17.182214627
 21
2.455130457
  0
LINE
  5
2D8
100
AcDbEntity
  8
0
100
AcDbLine
 62
7
  6
CONTINUOUS
 10
17.0404535484
 20
2.455130457
 11
16.8743904563
 21
2.455130457
  0
LINE
  5
2D9
100
AcDbEntity
  8
0
100
AcDbLine
 62
7
  6
CONTINUOUS
 10
17.3412257152
 20
2.455130457
 11
17.4416837709
 21
2.455130457
  0
LINE
  5
2DA
100
AcDbEntity
  8
0
100
AcDbLine
 62
7
  6
CONTINUOUS
 10
17.4863577957
 20
2.455130457
 11
17.5603588367
 21
2.455130457
  0
LINE
  5
2DB
100
AcDbEntity
  8
0
100
AcDbLine
 62
7
  6
CONTINUOUS
 10
17.5894788529
 20
2.455130457
 11
17.6899369086
 21
2.455130457
  0
LINE
  5
2DC
100
AcDbEntity
  8
0
100
AcDbLine
 62
7
  6
CONTINUOUS
 10
17.7346109333
 20
2.455130457
 11
17.8086119744
 21
2.455130457
  0
LINE
  5
2DD
100
AcDbEntity
  8
0
100
AcDbLine
 62
7
  6
CONTINUOUS
 10
17.8362019897
 20
2.455130457
 11
18.0379951016
 21
2.455130457
  0
LINE
  5
2DE
100
AcDbEntity
  8
0
100
AcDbLine
 62
7
  6
CONTINUOUS
 10
18.0683181184
 20
2.455130457
 11
18.2178992014
 21
2.455130457
  0
LINE
  5
2DF
100
AcDbEntity
  8
0
100
AcDbLine
 62
7
  6
CONTINUOUS
 10
17.0697205646
 20
2.4006414268
 11
17.059669559
 21
2.4041904287
  0
LINE
  5
2E0
100
AcDbEntity
  8
0
100
AcDbLine
 62
7
  6
CONTINUOUS
 10
17.4615617819
 20
2.3550094015
 11
17.3982817468
 21
2.415387435
  0
LINE
  5
2E1
100
AcDbEntity
  8
0
100
AcDbLine
 62
7
  6
CONTINUOUS
 10
17.4433917718
 20
2.4544464566
 11
17.5034248051
 21
2.3971664249
  0
LINE
  5
2E2
100
AcDbEntity
  8
0
100
AcDbLine
 62
7
  6
CONTINUOUS
 10
17.7098149196
 20
2.3550094015
 11
17.6465348845
 21
2.415387435
  0
LINE
  5
2E3
100
AcDbEntity
  8
0
100
AcDbLine
 62
7
  6
CONTINUOUS
 10
17.6916449095
 20
2.4544464566
 11
17.7516779428
 21
2.3971664249
  0
LINE
  5
2E4
100
AcDbEntity
  8
0
100
AcDbLine
 62
7
  6
CONTINUOUS
 10
17.2169386463
 20
2.3915884218
 11
17.2225646494
 21
2.3828954169
  0
LINE
  5
2E5
100
AcDbEntity
  8
0
100
AcDbLine
 62
7
  6
CONTINUOUS
 10
17.211133643
 20
2.4174894361
 11
17.203874639
 21
2.4287054423
  0
LINE
  5
2E6
100
AcDbEntity
  8
0
100
AcDbLine
 62
7
  6
CONTINUOUS
 10
17.2892236864
 20
2.3802054154
 11
17.2414676599
 21
2.4540004564
  0
LINE
  5
2E7
100
AcDbEntity
  8
0
100
AcDbLine
 62
7
  6
CONTINUOUS
 10
18.206476195
 20
2.3723714111
 11
18.204672194
 21
2.3784404145
  0
LINE
  5
2E8
100
AcDbEntity
  8
0
100
AcDbLine
 62
7
  6
CONTINUOUS
 10
16.8719154549
 20
2.4526554556
 11
16.8719154549
 21
2.4328554446
  0
LINE
  5
2E9
100
AcDbEntity
  8
0
100
AcDbLine
 62
7
  6
CONTINUOUS
 10
16.8719154549
 20
2.3766004134
 11
16.8719154549
 21
2.3568004025
  0
LINE
  5
2EA
100
AcDbEntity
  8
0
100
AcDbLine
 62
7
  6
CONTINUOUS
 10
16.9008074709
 20
2.4279054419
 11
16.9008074709
 21
2.3815504162
  0
LINE
  5
2EB
100
AcDbEntity
  8
0
100
AcDbLine
 62
7
  6
CONTINUOUS
 10
16.9613205045
 20
2.4279054419
 11
16.9613205045
 21
2.415530435
  0
LINE
  5
2EC
100
AcDbEntity
  8
0
100
AcDbLine
 62
7
  6
CONTINUOUS
 10
16.9613205045
 20
2.3815504162
 11
16.9613205045
 21
2.3939254231
  0
LINE
  5
2ED
100
AcDbEntity
  8
0
100
AcDbLine
 62
7
  6
CONTINUOUS
 10
17.1058985847
 20
2.3766004134
 11
17.1058985847
 21
2.3568004025
  0
LINE
  5
2EE
100
AcDbEntity
  8
0
100
AcDbLine
 62
7
  6
CONTINUOUS
 10
17.1882246303
 20
2.3568004025
 11
17.1882246303
 21
2.3766004134
  0
LINE
  5
2EF
100
AcDbEntity
  8
0
100
AcDbLine
 62
7
  6
CONTINUOUS
 10
17.2035606388
 20
2.3766004134
 11
17.2035606388
 21
2.3568004025
  0
LINE
  5
2F0
100
AcDbEntity
  8
0
100
AcDbLine
 62
7
  6
CONTINUOUS
 10
17.3137917
 20
2.3568004025
 11
17.3137917
 21
2.3766004134
  0
LINE
  5
2F1
100
AcDbEntity
  8
0
100
AcDbLine
 62
7
  6
CONTINUOUS
 10
17.3387507138
 20
2.3568004025
 11
17.3387507138
 21
2.3766004134
  0
LINE
  5
2F2
100
AcDbEntity
  8
0
100
AcDbLine
 62
7
  6
CONTINUOUS
 10
17.3387507138
 20
2.4328554446
 11
17.3387507138
 21
2.4526554556
  0
LINE
  5
2F3
100
AcDbEntity
  8
0
100
AcDbLine
 62
7
  6
CONTINUOUS
 10
17.3623477269
 20
2.3815504162
 11
17.3623477269
 21
2.4279054419
  0
LINE
  5
2F4
100
AcDbEntity
  8
0
100
AcDbLine
 62
7
  6
CONTINUOUS
 10
17.3940977445
 20
2.413596434
 11
17.3940977445
 21
2.3815504162
  0
LINE
  5
2F5
100
AcDbEntity
  8
0
100
AcDbLine
 62
7
  6
CONTINUOUS
 10
17.4193647585
 20
2.3766004134
 11
17.4193647585
 21
2.3568004025
  0
LINE
  5
2F6
100
AcDbEntity
  8
0
100
AcDbLine
 62
7
  6
CONTINUOUS
 10
17.4838827943
 20
2.4328554446
 11
17.4838827943
 21
2.4526554556
  0
LINE
  5
2F7
100
AcDbEntity
  8
0
100
AcDbLine
 62
7
  6
CONTINUOUS
 10
17.5076088075
 20
2.3989574258
 11
17.5076088075
 21
2.4279054419
  0
LINE
  5
2F8
100
AcDbEntity
  8
0
100
AcDbLine
 62
7
  6
CONTINUOUS
 10
17.5399508254
 20
2.4279054419
 11
17.5399508254
 21
2.3568004025
  0
LINE
  5
2F9
100
AcDbEntity
  8
0
100
AcDbLine
 62
7
  6
CONTINUOUS
 10
17.5628338381
 20
2.4526554556
 11
17.5628338381
 21
2.4328554446
  0
LINE
  5
2FA
100
AcDbEntity
  8
0
100
AcDbLine
 62
7
  6
CONTINUOUS
 10
17.5870038515
 20
2.3568004025
 11
17.5870038515
 21
2.3766004134
  0
LINE
  5
2FB
100
AcDbEntity
  8
0
100
AcDbLine
 62
7
  6
CONTINUOUS
 10
17.5870038515
 20
2.4328554446
 11
17.5870038515
 21
2.4526554556
  0
LINE
  5
2FC
100
AcDbEntity
  8
0
100
AcDbLine
 62
7
  6
CONTINUOUS
 10
17.6105998646
 20
2.3815504162
 11
17.6105998646
 21
2.4279054419
  0
LINE
  5
2FD
100
AcDbEntity
  8
0
100
AcDbLine
 62
7
  6
CONTINUOUS
 10
17.6423508822
 20
2.413596434
 11
17.6423508822
 21
2.3815504162
  0
LINE
  5
2FE
100
AcDbEntity
  8
0
100
AcDbLine
 62
7
  6
CONTINUOUS
 10
17.6676178962
 20
2.3766004134
 11
17.6676178962
 21
2.3568004025
  0
LINE
  5
2FF
100
AcDbEntity
  8
0
100
AcDbLine
 62
7
  6
CONTINUOUS
 10
17.732135932
 20
2.4328554446
 11
17.732135932
 21
2.4526554556
  0
LINE
  5
300
100
AcDbEntity
  8
0
100
AcDbLine
 62
7
  6
CONTINUOUS
 10
17.7558619451
 20
2.3989574258
 11
17.7558619451
 21
2.4279054419
  0
LINE
  5
301
100
AcDbEntity
  8
0
100
AcDbLine
 62
7
  6
CONTINUOUS
 10
17.7882039631
 20
2.4279054419
 11
17.7882039631
 21
2.3568004025
  0
LINE
  5
302
100
AcDbEntity
  8
0
100
AcDbLine
 62
7
  6
CONTINUOUS
 10
17.8110869758
 20
2.4526554556
 11
17.8110869758
 21
2.4328554446
  0
LINE
  5
303
100
AcDbEntity
  8
0
100
AcDbLine
 62
7
  6
CONTINUOUS
 10
17.8337269883
 20
2.3568004025
 11
17.8337269883
 21
2.3766004134
  0
LINE
  5
304
100
AcDbEntity
  8
0
100
AcDbLine
 62
7
  6
CONTINUOUS
 10
17.8337269883
 20
2.4328554446
 11
17.8337269883
 21
2.4526554556
  0
LINE
  5
305
100
AcDbEntity
  8
0
100
AcDbLine
 62
7
  6
CONTINUOUS
 10
17.8626000043
 20
2.3815504162
 11
17.8626000043
 21
2.4279054419
  0
LINE
  5
306
100
AcDbEntity
  8
0
100
AcDbLine
 62
7
  6
CONTINUOUS
 10
17.9246660387
 20
2.4279054419
 11
17.9246660387
 21
2.4163554355
  0
LINE
  5
307
100
AcDbEntity
  8
0
100
AcDbLine
 62
7
  6
CONTINUOUS
 10
17.9246660387
 20
2.3931004226
 11
17.9246660387
 21
2.3815504162
  0
LINE
  5
308
100
AcDbEntity
  8
0
100
AcDbLine
 62
7
  6
CONTINUOUS
 10
17.964783061
 20
2.4114054327
 11
17.964783061
 21
2.3980504253
  0
LINE
  5
309
100
AcDbEntity
  8
0
100
AcDbLine
 62
7
  6
CONTINUOUS
 10
17.993656077
 20
2.4196554373
 11
17.993656077
 21
2.4279054419
  0
LINE
  5
30A
100
AcDbEntity
  8
0
100
AcDbLine
 62
7
  6
CONTINUOUS
 10
17.9946200775
 20
2.3815504162
 11
17.9946200775
 21
2.3898004208
  0
LINE
  5
30B
100
AcDbEntity
  8
0
100
AcDbLine
 62
7
  6
CONTINUOUS
 10
18.040470103
 20
2.4526554556
 11
18.040470103
 21
2.4196554373
  0
LINE
  5
30C
100
AcDbEntity
  8
0
100
AcDbLine
 62
7
  6
CONTINUOUS
 10
18.0418891038
 20
2.3898004208
 11
18.0418891038
 21
2.3568004025
  0
LINE
  5
30D
100
AcDbEntity
  8
0
100
AcDbLine
 62
7
  6
CONTINUOUS
 10
18.065843117
 20
2.3568004025
 11
18.065843117
 21
2.3766004134
  0
LINE
  5
30E
100
AcDbEntity
  8
0
100
AcDbLine
 62
7
  6
CONTINUOUS
 10
18.065843117
 20
2.4328554446
 11
18.065843117
 21
2.4526554556
  0
LINE
  5
30F
100
AcDbEntity
  8
0
100
AcDbLine
 62
7
  6
CONTINUOUS
 10
18.0935391324
 20
2.3815504162
 11
18.0935391324
 21
2.4279054419
  0
LINE
  5
310
100
AcDbEntity
  8
0
100
AcDbLine
 62
7
  6
CONTINUOUS
 10
18.1547551663
 20
2.3912274216
 11
18.1547551663
 21
2.3815284162
  0
LINE
  5
311
100
AcDbEntity
  8
0
100
AcDbLine
 62
7
  6
CONTINUOUS
 10
18.1547551663
 20
2.4151804348
 11
18.1547551663
 21
2.4279054419
  0
LINE
  5
312
100
AcDbEntity
  8
0
100
AcDbLine
 62
7
  6
CONTINUOUS
 10
18.1843641828
 20
2.3765784134
 11
18.1843641828
 21
2.3568004025
  0
LINE
  5
313
100
AcDbEntity
  8
0
100
AcDbLine
 62
7
  6
CONTINUOUS
 10
18.2835562378
 20
2.3881114198
 11
18.2835562378
 21
2.3907374213
  0
LINE
  5
314
100
AcDbEntity
  8
0
100
AcDbLine
 62
7
  6
CONTINUOUS
 10
18.3006162472
 20
2.3907374213
 11
18.3006162472
 21
2.3791854149
  0
LINE
  5
315
100
AcDbEntity
  8
0
100
AcDbLine
 62
7
  6
CONTINUOUS
 10
18.3975725422
 20
2.3981678251
 11
18.3975725422
 21
2.4087850316
  0
LINE
  5
316
100
AcDbEntity
  8
0
100
AcDbLine
 62
7
  6
CONTINUOUS
 10
17.1801246258
 20
2.4539814564
 11
17.1333245999
 21
2.3802244155
  0
LINE
  5
317
100
AcDbEntity
  8
0
100
AcDbLine
 62
7
  6
CONTINUOUS
 10
17.1935256333
 20
2.4286874423
 11
17.1864086293
 21
2.4174704361
  0
LINE
  5
318
100
AcDbEntity
  8
0
100
AcDbLine
 62
7
  6
CONTINUOUS
 10
17.1723766216
 20
2.3828764169
 11
17.1778926246
 21
2.3915704217
  0
LINE
  5
319
100
AcDbEntity
  8
0
100
AcDbLine
 62
7
  6
CONTINUOUS
 10
17.059669559
 20
2.4041904287
 11
17.0679095636
 21
2.4089664314
  0
ARC
  5
31A
100
AcDbEntity
  8
0
100
AcDbCircle
 62
7
  6
CONTINUOUS
 10
17.4632701481
 20
2.3568008172
 40
0.0024754162
100
AcDbArc
 50
226.3593695814
 51
270.0146919953
  0
ARC
  5
31B
100
AcDbEntity
  8
0
100
AcDbCircle
 62
7
  6
CONTINUOUS
 10
16.8743904545
 20
2.3568004006
 40
0.0024749995
100
AcDbArc
 50
179.9999571957
 51
270.0000428043
  0
ARC
  5
31C
100
AcDbEntity
  8
0
100
AcDbCircle
 62
7
  6
CONTINUOUS
 10
17.5374758259
 20
2.3568004006
 40
0.0024749995
100
AcDbArc
 50
269.9999571957
 51
0.0000428043
  0
ARC
  5
31D
100
AcDbEntity
  8
0
100
AcDbCircle
 62
7
  6
CONTINUOUS
 10
17.416889759
 20
2.3568004006
 40
0.0024749995
100
AcDbArc
 50
269.9999571957
 51
0.0000428043
  0
ARC
  5
31E
100
AcDbEntity
  8
0
100
AcDbCircle
 62
7
  6
CONTINUOUS
 10
17.3412257133
 20
2.3568004006
 40
0.0024749995
100
AcDbArc
 50
179.9999571957
 51
270.0000428043
  0
ARC
  5
31F
100
AcDbEntity
  8
0
100
AcDbCircle
 62
7
  6
CONTINUOUS
 10
17.2060356384
 20
2.3568004006
 40
0.0024749995
100
AcDbArc
 50
179.9999571957
 51
270.0000428043
  0
ARC
  5
320
100
AcDbEntity
  8
0
100
AcDbCircle
 62
7
  6
CONTINUOUS
 10
17.3113167005
 20
2.3568004006
 40
0.0024749995
100
AcDbArc
 50
269.9999571957
 51
0.0000428043
  0
ARC
  5
321
100
AcDbEntity
  8
0
100
AcDbCircle
 62
7
  6
CONTINUOUS
 10
17.1083735842
 20
2.3568004006
 40
0.0024749995
100
AcDbArc
 50
179.9999571957
 51
270.0000428043
  0
ARC
  5
322
100
AcDbEntity
  8
0
100
AcDbCircle
 62
7
  6
CONTINUOUS
 10
17.1857496308
 20
2.3568004006
 40
0.0024749995
100
AcDbArc
 50
269.9999571958
 51
0.0000428044
  0
ARC
  5
323
100
AcDbEntity
  8
0
100
AcDbCircle
 62
7
  6
CONTINUOUS
 10
17.0404590422
 20
2.3933827403
 40
0.061747717
100
AcDbArc
 50
59.5385584989
 51
90.0050977555
  0
ARC
  5
324
100
AcDbEntity
  8
0
100
AcDbCircle
 62
7
  6
CONTINUOUS
 10
17.0481152095
 20
2.4027328529
 40
0.048483885
100
AcDbArc
 50
273.21763719
 51
303.0749121182
  0
ARC
  5
325
100
AcDbEntity
  8
0
100
AcDbCircle
 62
7
  6
CONTINUOUS
 10
17.0620614151
 20
2.3797859164
 40
0.0222174455
100
AcDbArc
 50
4.0793399388
 51
69.834329283
  0
ARC
  5
326
100
AcDbEntity
  8
0
100
AcDbCircle
 62
7
  6
CONTINUOUS
 10
17.0629546036
 20
2.379965244
 40
0.0213072145
100
AcDbArc
 50
303.0488228549
 51
355.7263138674
  0
ARC
  5
327
100
AcDbEntity
  8
0
100
AcDbCircle
 62
7
  6
CONTINUOUS
 10
17.0688911042
 20
2.3799744343
 40
0.0153945295
100
AcDbArc
 50
354.0454548824
 51
5.1878013979
  0
ARC
  5
328
100
AcDbEntity
  8
0
100
AcDbCircle
 62
7
  6
CONTINUOUS
 10
17.0051585288
 20
2.3877379196
 40
0.0086625048
100
AcDbArc
 50
270.0
 51
90.0
  0
ARC
  5
329
100
AcDbEntity
  8
0
100
AcDbCircle
 62
7
  6
CONTINUOUS
 10
17.2148601055
 20
2.3902439622
 40
0.0024754602
100
AcDbArc
 50
32.8959418573
 51
89.9875097202
  0
ARC
  5
32A
100
AcDbEntity
  8
0
100
AcDbCircle
 62
7
  6
CONTINUOUS
 10
17.131234669
 20
2.3815506151
 40
0.0024752003
100
AcDbArc
 50
269.9983726451
 51
327.602165307
  0
ARC
  5
32B
100
AcDbEntity
  8
0
100
AcDbCircle
 62
7
  6
CONTINUOUS
 10
17.1799825555
 20
2.3902442221
 40
0.0024752003
100
AcDbArc
 50
89.998372645
 51
147.602165307
  0
ARC
  5
32C
100
AcDbEntity
  8
0
100
AcDbCircle
 62
7
  6
CONTINUOUS
 10
17.1744665134
 20
2.3815504549
 40
0.0024750401
100
AcDbArc
 50
147.6063258011
 51
270.0025305754
  0
ARC
  5
32D
100
AcDbEntity
  8
0
100
AcDbCircle
 62
7
  6
CONTINUOUS
 10
16.8983324714
 20
2.3815504143
 40
0.0024749995
100
AcDbArc
 50
269.9999571957
 51
0.0000428043
  0
ARC
  5
32E
100
AcDbEntity
  8
0
100
AcDbCircle
 62
7
  6
CONTINUOUS
 10
16.8743904545
 20
2.3766004153
 40
0.0024749995
100
AcDbArc
 50
89.9999571957
 51
180.0000428043
  0
ARC
  5
32F
100
AcDbEntity
  8
0
100
AcDbCircle
 62
7
  6
CONTINUOUS
 10
16.963795504
 20
2.3939254249
 40
0.0024749995
100
AcDbArc
 50
89.9999571957
 51
180.0000428043
  0
ARC
  5
330
100
AcDbEntity
  8
0
100
AcDbCircle
 62
7
  6
CONTINUOUS
 10
16.963795504
 20
2.3815504143
 40
0.0024749995
100
AcDbArc
 50
179.9999571957
 51
270.0000428043
  0
ARC
  5
331
100
AcDbEntity
  8
0
100
AcDbCircle
 62
7
  6
CONTINUOUS
 10
17.2060356384
 20
2.3766004153
 40
0.0024749995
100
AcDbArc
 50
89.9999571957
 51
180.0000428043
  0
ARC
  5
332
100
AcDbEntity
  8
0
100
AcDbCircle
 62
7
  6
CONTINUOUS
 10
17.1083735842
 20
2.3766004153
 40
0.0024749995
100
AcDbArc
 50
89.9999571957
 51
180.0000428043
  0
ARC
  5
333
100
AcDbEntity
  8
0
100
AcDbCircle
 62
7
  6
CONTINUOUS
 10
17.1857496308
 20
2.3766004153
 40
0.0024749995
100
AcDbArc
 50
359.9999571957
 51
90.0000428043
  0
ARC
  5
334
100
AcDbEntity
  8
0
100
AcDbCircle
 62
7
  6
CONTINUOUS
 10
17.0460441811
 20
2.445793323
 40
0.0428289026
100
AcDbArc
 50
300.6990502959
 51
319.0591802498
  0
ARC
  5
335
100
AcDbEntity
  8
0
100
AcDbCircle
 62
7
  6
CONTINUOUS
 10
17.0611211659
 20
2.4263113051
 40
0.0229166529
100
AcDbArc
 50
20.6563876465
 51
62.3316896973
  0
ARC
  5
336
100
AcDbEntity
  8
0
100
AcDbCircle
 62
7
  6
CONTINUOUS
 10
17.0660727781
 20
2.4296649696
 40
0.0171568255
100
AcDbArc
 50
315.9145124245
 51
16.0049121283
  0
ARC
  5
337
100
AcDbEntity
  8
0
100
AcDbCircle
 62
7
  6
CONTINUOUS
 10
17.0051585288
 20
2.4217179385
 40
0.0086625048
100
AcDbArc
 50
270.0
 51
90.0
  0
ARC
  5
338
100
AcDbEntity
  8
0
100
AcDbCircle
 62
7
  6
CONTINUOUS
 10
17.2017960982
 20
2.4273609828
 40
0.0024754602
100
AcDbArc
 50
32.8959418573
 51
89.9875097202
  0
ARC
  5
339
100
AcDbEntity
  8
0
100
AcDbCircle
 62
7
  6
CONTINUOUS
 10
17.2090556207
 20
2.4161446411
 40
0.0024752071
100
AcDbArc
 50
270.0004896793
 51
32.9089806818
  0
ARC
  5
33A
100
AcDbEntity
  8
0
100
AcDbCircle
 62
7
  6
CONTINUOUS
 10
17.1956155641
 20
2.4273612427
 40
0.0024752003
100
AcDbArc
 50
89.998372645
 51
147.602165307
  0
ARC
  5
33B
100
AcDbEntity
  8
0
100
AcDbCircle
 62
7
  6
CONTINUOUS
 10
17.1822145567
 20
2.4526552567
 40
0.0024752003
100
AcDbArc
 50
89.998372645
 51
147.602165307
  0
ARC
  5
33C
100
AcDbEntity
  8
0
100
AcDbCircle
 62
7
  6
CONTINUOUS
 10
17.1884985212
 20
2.4161444741
 40
0.0024750401
100
AcDbArc
 50
147.6063258012
 51
270.0025305754
  0
ARC
  5
33D
100
AcDbEntity
  8
0
100
AcDbCircle
 62
7
  6
CONTINUOUS
 10
16.8743904545
 20
2.4526554575
 40
0.0024749995
100
AcDbArc
 50
89.9999571957
 51
180.0000428043
  0
ARC
  5
33E
100
AcDbEntity
  8
0
100
AcDbCircle
 62
7
  6
CONTINUOUS
 10
16.8743904545
 20
2.4328554428
 40
0.0024749995
100
AcDbArc
 50
179.9999571957
 51
270.0000428043
  0
ARC
  5
33F
100
AcDbEntity
  8
0
100
AcDbCircle
 62
7
  6
CONTINUOUS
 10
16.8983324714
 20
2.4279054437
 40
0.0024749995
100
AcDbArc
 50
359.9999571957
 51
90.0000428043
  0
ARC
  5
340
100
AcDbEntity
  8
0
100
AcDbCircle
 62
7
  6
CONTINUOUS
 10
16.963795504
 20
2.4279054437
 40
0.0024749995
100
AcDbArc
 50
89.9999571957
 51
180.0000428043
  0
ARC
  5
341
100
AcDbEntity
  8
0
100
AcDbCircle
 62
7
  6
CONTINUOUS
 10
16.963795504
 20
2.4155304332
 40
0.0024749995
100
AcDbArc
 50
179.9999571957
 51
270.0000428043
  0
ARC
  5
342
100
AcDbEntity
  8
0
100
AcDbCircle
 62
7
  6
CONTINUOUS
 10
17.5051335061
 20
2.3989573626
 40
0.0024753014
100
AcDbArc
 50
226.3461263059
 51
0.0014637321
  0
ARC
  5
343
100
AcDbEntity
  8
0
100
AcDbCircle
 62
7
  6
CONTINUOUS
 10
17.3965730459
 20
2.4135964972
 40
0.0024753014
100
AcDbArc
 50
46.3461263059
 51
180.0014637321
  0
ARC
  5
344
100
AcDbEntity
  8
0
100
AcDbCircle
 62
7
  6
CONTINUOUS
 10
17.2204866271
 20
2.3815506219
 40
0.0024752071
100
AcDbArc
 50
270.0004896793
 51
32.9089806818
  0
ARC
  5
345
100
AcDbEntity
  8
0
100
AcDbCircle
 62
7
  6
CONTINUOUS
 10
17.396572744
 20
2.3815504143
 40
0.0024749995
100
AcDbArc
 50
179.9999571957
 51
270.0000428043
  0
ARC
  5
346
100
AcDbEntity
  8
0
100
AcDbCircle
 62
7
  6
CONTINUOUS
 10
17.416889759
 20
2.3766004153
 40
0.0024749995
100
AcDbArc
 50
359.9999571957
 51
90.0000428043
  0
ARC
  5
347
100
AcDbEntity
  8
0
100
AcDbCircle
 62
7
  6
CONTINUOUS
 10
17.3412257133
 20
2.3766004153
 40
0.0024749995
100
AcDbArc
 50
89.9999571957
 51
180.0000428043
  0
ARC
  5
348
100
AcDbEntity
  8
0
100
AcDbCircle
 62
7
  6
CONTINUOUS
 10
17.3598727274
 20
2.3815504143
 40
0.0024749995
100
AcDbArc
 50
269.9999571957
 51
0.0000428043
  0
ARC
  5
349
100
AcDbEntity
  8
0
100
AcDbCircle
 62
7
  6
CONTINUOUS
 10
17.3113167005
 20
2.3766004153
 40
0.0024749995
100
AcDbArc
 50
359.9999571957
 51
90.0000428043
  0
ARC
  5
34A
100
AcDbEntity
  8
0
100
AcDbCircle
 62
7
  6
CONTINUOUS
 10
17.291300808
 20
2.3815494558
 40
0.002474041
100
AcDbArc
 50
212.9056413127
 51
269.9972091755
  0
ARC
  5
34B
100
AcDbEntity
  8
0
100
AcDbCircle
 62
7
  6
CONTINUOUS
 10
17.5051338079
 20
2.4279054437
 40
0.0024749995
100
AcDbArc
 50
359.9999571957
 51
90.0000428043
  0
ARC
  5
34C
100
AcDbEntity
  8
0
100
AcDbCircle
 62
7
  6
CONTINUOUS
 10
17.4863577938
 20
2.4328554428
 40
0.0024749995
100
AcDbArc
 50
179.9999571957
 51
270.0000428043
  0
ARC
  5
34D
100
AcDbEntity
  8
0
100
AcDbCircle
 62
7
  6
CONTINUOUS
 10
17.4863577938
 20
2.4526554575
 40
0.0024749995
100
AcDbArc
 50
89.9999571957
 51
180.0000428043
  0
ARC
  5
34E
100
AcDbEntity
  8
0
100
AcDbCircle
 62
7
  6
CONTINUOUS
 10
17.5603588386
 20
2.4526554575
 40
0.0024749995
100
AcDbArc
 50
359.9999571957
 51
90.0000428043
  0
ARC
  5
34F
100
AcDbEntity
  8
0
100
AcDbCircle
 62
7
  6
CONTINUOUS
 10
17.5603588386
 20
2.4328554428
 40
0.0024749995
100
AcDbArc
 50
269.9999571957
 51
0.0000428043
  0
ARC
  5
350
100
AcDbEntity
  8
0
100
AcDbCircle
 62
7
  6
CONTINUOUS
 10
17.5424258249
 20
2.4279054437
 40
0.0024749995
100
AcDbArc
 50
89.9999571957
 51
180.0000428043
  0
ARC
  5
351
100
AcDbEntity
  8
0
100
AcDbCircle
 62
7
  6
CONTINUOUS
 10
17.3598727274
 20
2.4279054437
 40
0.0024749995
100
AcDbArc
 50
359.9999571957
 51
90.0000428043
  0
ARC
  5
352
100
AcDbEntity
  8
0
100
AcDbCircle
 62
7
  6
CONTINUOUS
 10
17.3412257133
 20
2.4328554428
 40
0.0024749995
100
AcDbArc
 50
179.9999571957
 51
270.0000428043
  0
ARC
  5
353
100
AcDbEntity
  8
0
100
AcDbCircle
 62
7
  6
CONTINUOUS
 10
17.3412257133
 20
2.4526554575
 40
0.0024749995
100
AcDbArc
 50
89.9999571957
 51
180.0000428043
  0
ARC
  5
354
100
AcDbEntity
  8
0
100
AcDbCircle
 62
7
  6
CONTINUOUS
 10
17.2393900382
 20
2.4526554968
 40
0.0024749602
100
AcDbArc
 50
32.9172174468
 51
90.0087853097
  0
ARC
  5
355
100
AcDbEntity
  8
0
100
AcDbCircle
 62
7
  6
CONTINUOUS
 10
17.4416839057
 20
2.4526562892
 40
0.0024741678
100
AcDbArc
 50
46.3477981899
 51
90.0031206038
  0
ARC
  5
356
100
AcDbEntity
  8
0
100
AcDbCircle
 62
7
  6
CONTINUOUS
 10
18.2152358981
 20
2.2725915465
 40
0.1825583387
100
AcDbArc
 50
79.8618509324
 51
89.1640948679
  0
ARC
  5
357
100
AcDbEntity
  8
0
100
AcDbCircle
 62
7
  6
CONTINUOUS
 10
18.197141171
 20
2.3016991173
 40
0.117346916
100
AcDbArc
 50
58.614769177
 51
62.3737227606
  0
ARC
  5
358
100
AcDbEntity
  8
0
100
AcDbCircle
 62
7
  6
CONTINUOUS
 10
18.2260032264
 20
2.3725718859
 40
0.0459185159
100
AcDbArc
 50
15.6740290068
 51
20.9917271228
  0
ARC
  5
359
100
AcDbEntity
  8
0
100
AcDbCircle
 62
7
  6
CONTINUOUS
 10
18.1662929967
 20
2.368643334
 40
0.0396099176
100
AcDbArc
 50
14.3201081283
 51
22.4984722084
  0
ARC
  5
35A
100
AcDbEntity
  8
0
100
AcDbCircle
 62
7
  6
CONTINUOUS
 10
18.1850046504
 20
2.3693353402
 40
0.0243676582
100
AcDbArc
 50
63.3666028271
 51
90.3937697637
  0
ARC
  5
35B
100
AcDbEntity
  8
0
100
AcDbCircle
 62
7
  6
CONTINUOUS
 10
18.2724993219
 20
2.3741987064
 40
0.0198837666
100
AcDbArc
 50
271.8586572978
 51
289.4131338543
  0
ARC
  5
35C
100
AcDbEntity
  8
0
100
AcDbCircle
 62
7
  6
CONTINUOUS
 10
18.2265855264
 20
2.3716475527
 40
0.0173408616
100
AcDbArc
 50
232.4713476722
 51
267.338189944
  0
ARC
  5
35D
100
AcDbEntity
  8
0
100
AcDbCircle
 62
7
  6
CONTINUOUS
 10
18.1818891832
 20
2.3568004006
 40
0.0024749995
100
AcDbArc
 50
269.9999571957
 51
0.0000428043
  0
ARC
  5
35E
100
AcDbEntity
  8
0
100
AcDbCircle
 62
7
  6
CONTINUOUS
 10
18.0683181166
 20
2.3568004006
 40
0.0024749995
100
AcDbArc
 50
179.9999571957
 51
270.0000428043
  0
ARC
  5
35F
100
AcDbEntity
  8
0
100
AcDbCircle
 62
7
  6
CONTINUOUS
 10
17.7857289635
 20
2.3568004006
 40
0.0024749995
100
AcDbArc
 50
269.9999571957
 51
0.0000428043
  0
ARC
  5
360
100
AcDbEntity
  8
0
100
AcDbCircle
 62
7
  6
CONTINUOUS
 10
17.6651428967
 20
2.3568004006
 40
0.0024749995
100
AcDbArc
 50
269.9999571957
 51
0.0000428043
  0
ARC
  5
361
100
AcDbEntity
  8
0
100
AcDbCircle
 62
7
  6
CONTINUOUS
 10
17.589478851
 20
2.3568004006
 40
0.0024749995
100
AcDbArc
 50
179.9999571957
 51
270.0000428043
  0
ARC
  5
362
100
AcDbEntity
  8
0
100
AcDbCircle
 62
7
  6
CONTINUOUS
 10
18.0394141042
 20
2.3568004006
 40
0.0024749995
100
AcDbArc
 50
269.9999571957
 51
0.0000428043
  0
ARC
  5
363
100
AcDbEntity
  8
0
100
AcDbCircle
 62
7
  6
CONTINUOUS
 10
17.8362019878
 20
2.3568004006
 40
0.0024749995
100
AcDbArc
 50
179.9999571957
 51
270.0000428043
  0
ARC
  5
364
100
AcDbEntity
  8
0
100
AcDbCircle
 62
7
  6
CONTINUOUS
 10
17.7115227858
 20
2.3567995689
 40
0.0024741678
100
AcDbArc
 50
226.3477981898
 51
270.0031206038
  0
ARC
  5
365
100
AcDbEntity
  8
0
100
AcDbCircle
 62
7
  6
CONTINUOUS
 10
17.7533866437
 20
2.3989573626
 40
0.0024753014
100
AcDbArc
 50
226.3461263059
 51
0.0014637321
  0
ARC
  5
366
100
AcDbEntity
  8
0
100
AcDbCircle
 62
7
  6
CONTINUOUS
 10
17.6448261836
 20
2.4135964972
 40
0.0024753014
100
AcDbArc
 50
46.3461263058
 51
180.0014637321
  0
ARC
  5
367
100
AcDbEntity
  8
0
100
AcDbCircle
 62
7
  6
CONTINUOUS
 10
17.6448258817
 20
2.3815504143
 40
0.0024749995
100
AcDbArc
 50
179.9999571957
 51
270.0000428043
  0
ARC
  5
368
100
AcDbEntity
  8
0
100
AcDbCircle
 62
7
  6
CONTINUOUS
 10
17.6651428967
 20
2.3766004153
 40
0.0024749995
100
AcDbArc
 50
359.9999571957
 51
90.0000428043
  0
ARC
  5
369
100
AcDbEntity
  8
0
100
AcDbCircle
 62
7
  6
CONTINUOUS
 10
17.589478851
 20
2.3766004153
 40
0.0024749995
100
AcDbArc
 50
89.9999571957
 51
180.0000428043
  0
ARC
  5
36A
100
AcDbEntity
  8
0
100
AcDbCircle
 62
7
  6
CONTINUOUS
 10
17.6081248651
 20
2.3815504143
 40
0.0024749995
100
AcDbArc
 50
269.9999571957
 51
0.0000428043
  0
ARC
  5
36B
100
AcDbEntity
  8
0
100
AcDbCircle
 62
7
  6
CONTINUOUS
 10
17.9271410383
 20
2.3931004244
 40
0.0024749995
100
AcDbArc
 50
89.9999571957
 51
180.0000428043
  0
ARC
  5
36C
100
AcDbEntity
  8
0
100
AcDbCircle
 62
7
  6
CONTINUOUS
 10
17.9271410383
 20
2.3815504143
 40
0.0024749995
100
AcDbArc
 50
179.9999571957
 51
270.0000428043
  0
ARC
  5
36D
100
AcDbEntity
  8
0
100
AcDbCircle
 62
7
  6
CONTINUOUS
 10
17.8362019878
 20
2.3766004153
 40
0.0024749995
100
AcDbArc
 50
89.9999571957
 51
180.0000428043
  0
ARC
  5
36E
100
AcDbEntity
  8
0
100
AcDbCircle
 62
7
  6
CONTINUOUS
 10
17.8601250048
 20
2.3815504143
 40
0.0024749995
100
AcDbArc
 50
269.9999571956
 51
0.0000428042
  0
ARC
  5
36F
100
AcDbEntity
  8
0
100
AcDbCircle
 62
7
  6
CONTINUOUS
 10
17.9271410383
 20
2.4163554336
 40
0.0024749995
100
AcDbArc
 50
179.9999571957
 51
270.0000428043
  0
ARC
  5
370
100
AcDbEntity
  8
0
100
AcDbCircle
 62
7
  6
CONTINUOUS
 10
17.7533869456
 20
2.4279054437
 40
0.0024749995
100
AcDbArc
 50
359.9999571957
 51
90.0000428043
  0
ARC
  5
371
100
AcDbEntity
  8
0
100
AcDbCircle
 62
7
  6
CONTINUOUS
 10
17.7346109315
 20
2.4328554428
 40
0.0024749995
100
AcDbArc
 50
179.9999571957
 51
270.0000428043
  0
ARC
  5
372
100
AcDbEntity
  8
0
100
AcDbCircle
 62
7
  6
CONTINUOUS
 10
17.7346109315
 20
2.4526554575
 40
0.0024749995
100
AcDbArc
 50
89.9999571957
 51
180.0000428043
  0
ARC
  5
373
100
AcDbEntity
  8
0
100
AcDbCircle
 62
7
  6
CONTINUOUS
 10
17.8086119762
 20
2.4526554575
 40
0.0024749995
100
AcDbArc
 50
359.9999571957
 51
90.0000428043
  0
ARC
  5
374
100
AcDbEntity
  8
0
100
AcDbCircle
 62
7
  6
CONTINUOUS
 10
17.8086119762
 20
2.4328554428
 40
0.0024749995
100
AcDbArc
 50
269.9999571956
 51
0.0000428042
  0
ARC
  5
375
100
AcDbEntity
  8
0
100
AcDbCircle
 62
7
  6
CONTINUOUS
 10
17.7906789626
 20
2.4279054437
 40
0.0024749995
100
AcDbArc
 50
89.9999571957
 51
180.0000428043
  0
ARC
  5
376
100
AcDbEntity
  8
0
100
AcDbCircle
 62
7
  6
CONTINUOUS
 10
17.6081248651
 20
2.4279054437
 40
0.0024749995
100
AcDbArc
 50
359.9999571957
 51
90.0000428043
  0
ARC
  5
377
100
AcDbEntity
  8
0
100
AcDbCircle
 62
7
  6
CONTINUOUS
 10
17.589478851
 20
2.4328554428
 40
0.0024749995
100
AcDbArc
 50
179.9999571957
 51
270.0000428043
  0
ARC
  5
378
100
AcDbEntity
  8
0
100
AcDbCircle
 62
7
  6
CONTINUOUS
 10
17.589478851
 20
2.4526554575
 40
0.0024749995
100
AcDbArc
 50
89.9999571957
 51
180.0000428043
  0
ARC
  5
379
100
AcDbEntity
  8
0
100
AcDbCircle
 62
7
  6
CONTINUOUS
 10
17.8601250048
 20
2.4279054437
 40
0.0024749995
100
AcDbArc
 50
359.9999571957
 51
90.0000428043
  0
ARC
  5
37A
100
AcDbEntity
  8
0
100
AcDbCircle
 62
7
  6
CONTINUOUS
 10
17.8362019878
 20
2.4328554428
 40
0.0024749995
100
AcDbArc
 50
179.9999571957
 51
270.0000428043
  0
ARC
  5
37B
100
AcDbEntity
  8
0
100
AcDbCircle
 62
7
  6
CONTINUOUS
 10
17.8362019878
 20
2.4526554575
 40
0.0024749995
100
AcDbArc
 50
89.9999571957
 51
180.0000428043
  0
ARC
  5
37C
100
AcDbEntity
  8
0
100
AcDbCircle
 62
7
  6
CONTINUOUS
 10
17.9271410383
 20
2.4279054437
 40
0.0024749995
100
AcDbArc
 50
89.9999571957
 51
180.0000428043
  0
ARC
  5
37D
100
AcDbEntity
  8
0
100
AcDbCircle
 62
7
  6
CONTINUOUS
 10
17.6899370433
 20
2.4526562892
 40
0.0024741678
100
AcDbArc
 50
46.3477981899
 51
90.0031206038
  0
ARC
  5
37E
100
AcDbEntity
  8
0
100
AcDbCircle
 62
7
  6
CONTINUOUS
 10
18.2495655574
 20
2.384346736
 40
0.044722495
100
AcDbArc
 50
195.531588407
 51
204.7624440448
  0
ARC
  5
37F
100
AcDbEntity
  8
0
100
AcDbCircle
 62
7
  6
CONTINUOUS
 10
18.2415401884
 20
2.4134150625
 40
0.039319019
100
AcDbArc
 50
59.1202086415
 51
81.4730239328
  0
ARC
  5
380
100
AcDbEntity
  8
0
100
AcDbCircle
 62
7
  6
CONTINUOUS
 10
18.2667613545
 20
2.3917854558
 40
0.0383802683
100
AcDbArc
 50
288.7656836787
 51
309.6104317088
  0
ARC
  5
381
100
AcDbEntity
  8
0
100
AcDbCircle
 62
7
  6
CONTINUOUS
 10
18.2471995846
 20
2.4197497317
 40
0.0310192946
100
AcDbArc
 50
34.7540871
 51
62.0879016178
  0
ARC
  5
382
100
AcDbEntity
  8
0
100
AcDbCircle
 62
7
  6
CONTINUOUS
 10
18.1924863006
 20
2.4019259643
 40
0.0284963867
100
AcDbArc
 50
70.3834917948
 51
86.8922743861
  0
ARC
  5
383
100
AcDbEntity
  8
0
100
AcDbCircle
 62
7
  6
CONTINUOUS
 10
18.2737535399
 20
2.384184238
 40
0.0280715479
100
AcDbArc
 50
308.5071794988
 51
332.2400656899
  0
ARC
  5
384
100
AcDbEntity
  8
0
100
AcDbCircle
 62
7
  6
CONTINUOUS
 10
18.2439037681
 20
2.3797532943
 40
0.0266349791
100
AcDbArc
 50
20.3630922153
 51
37.9727053099
  0
ARC
  5
385
100
AcDbEntity
  8
0
100
AcDbCircle
 62
7
  6
CONTINUOUS
 10
18.2450241237
 20
2.3798263774
 40
0.0257145923
100
AcDbArc
 50
39.3804255939
 51
59.0361096173
  0
ARC
  5
386
100
AcDbEntity
  8
0
100
AcDbCircle
 62
7
  6
CONTINUOUS
 10
18.2296840914
 20
2.3774978567
 40
0.0238935861
100
AcDbArc
 50
209.8247607259
 51
235.1255079367
  0
ARC
  5
387
100
AcDbEntity
  8
0
100
AcDbCircle
 62
7
  6
CONTINUOUS
 10
18.2830605507
 20
2.3792897325
 40
0.0175560065
100
AcDbArc
 50
332.2279060967
 51
359.6595469939
  0
ARC
  5
388
100
AcDbEntity
  8
0
100
AcDbCircle
 62
7
  6
CONTINUOUS
 10
18.1890593051
 20
2.3776149607
 40
0.0151491919
100
AcDbArc
 50
24.098260853
 51
63.0369451818
  0
ARC
  5
389
100
AcDbEntity
  8
0
100
AcDbCircle
 62
7
  6
CONTINUOUS
 10
18.2845735615
 20
2.3882148688
 40
0.0147197649
100
AcDbArc
 50
192.7054516565
 51
206.0594861022
  0
ARC
  5
38A
100
AcDbEntity
  8
0
100
AcDbCircle
 62
7
  6
CONTINUOUS
 10
18.1973459106
 20
2.4149676972
 40
0.0145814632
100
AcDbArc
 50
54.6746025112
 51
71.1660573124
  0
ARC
  5
38B
100
AcDbEntity
  8
0
100
AcDbCircle
 62
7
  6
CONTINUOUS
 10
18.2752146786
 20
2.3927110743
 40
0.0132488022
100
AcDbArc
 50
270.266200055
 51
281.2404888597
  0
ARC
  5
38C
100
AcDbEntity
  8
0
100
AcDbCircle
 62
7
  6
CONTINUOUS
 10
18.2716089246
 20
2.3878675959
 40
0.0119498009
100
AcDbArc
 50
340.7883861657
 51
1.1691452593
  0
ARC
  5
38D
100
AcDbEntity
  8
0
100
AcDbCircle
 62
7
  6
CONTINUOUS
 10
18.198398534
 20
2.4260095887
 40
0.0110815393
100
AcDbArc
 50
306.758405961
 51
320.4502234234
  0
ARC
  5
38E
100
AcDbEntity
  8
0
100
AcDbCircle
 62
7
  6
CONTINUOUS
 10
18.2764089196
 20
2.3869743807
 40
0.0073895522
100
AcDbArc
 50
280.8288201977
 51
305.0837508495
  0
ARC
  5
38F
100
AcDbEntity
  8
0
100
AcDbCircle
 62
7
  6
CONTINUOUS
 10
18.2768101012
 20
2.3861235343
 40
0.0064647042
100
AcDbArc
 50
306.5086174083
 51
340.2162360092
  0
ARC
  5
390
100
AcDbEntity
  8
0
100
AcDbCircle
 62
7
  6
CONTINUOUS
 10
18.2024754016
 20
2.4218216224
 40
0.0060275915
100
AcDbArc
 50
20.9055592135
 51
56.7851676243
  0
ARC
  5
391
100
AcDbEntity
  8
0
100
AcDbCircle
 62
7
  6
CONTINUOUS
 10
18.2025691502
 20
2.4227756809
 40
0.0058087709
100
AcDbArc
 50
318.8515287446
 51
353.6422345323
  0
ARC
  5
392
100
AcDbEntity
  8
0
100
AcDbCircle
 62
7
  6
CONTINUOUS
 10
18.2760792244
 20
2.3840063824
 40
0.0052403997
100
AcDbArc
 50
205.5232099488
 51
227.5054868079
  0
ARC
  5
393
100
AcDbEntity
  8
0
100
AcDbCircle
 62
7
  6
CONTINUOUS
 10
18.2037759605
 20
2.4224819047
 40
0.0045795888
100
AcDbArc
 50
355.6235353944
 51
18.9942678268
  0
ARC
  5
394
100
AcDbEntity
  8
0
100
AcDbCircle
 62
7
  6
CONTINUOUS
 10
18.2743509251
 20
2.3821910097
 40
0.0027347709
100
AcDbArc
 50
228.5117626738
 51
266.1485845754
  0
ARC
  5
395
100
AcDbEntity
  8
0
100
AcDbCircle
 62
7
  6
CONTINUOUS
 10
18.1572301659
 20
2.3912274234
 40
0.0024749995
100
AcDbArc
 50
89.9999571957
 51
180.0000428043
  0
ARC
  5
396
100
AcDbEntity
  8
0
100
AcDbCircle
 62
7
  6
CONTINUOUS
 10
18.1572301659
 20
2.3815284143
 40
0.0024749995
100
AcDbArc
 50
179.9999571957
 51
270.0000428043
  0
ARC
  5
397
100
AcDbEntity
  8
0
100
AcDbCircle
 62
7
  6
CONTINUOUS
 10
18.1818891832
 20
2.3765784153
 40
0.0024749995
100
AcDbArc
 50
359.9999571957
 51
90.0000428043
  0
ARC
  5
398
100
AcDbEntity
  8
0
100
AcDbCircle
 62
7
  6
CONTINUOUS
 10
18.0683181166
 20
2.3766004153
 40
0.0024749995
100
AcDbArc
 50
89.9999571957
 51
180.0000428043
  0
ARC
  5
399
100
AcDbEntity
  8
0
100
AcDbCircle
 62
7
  6
CONTINUOUS
 10
18.0910641329
 20
2.3815504143
 40
0.0024749995
100
AcDbArc
 50
269.9999571957
 51
0.0000428043
  0
ARC
  5
39A
100
AcDbEntity
  8
0
100
AcDbCircle
 62
7
  6
CONTINUOUS
 10
18.2860312373
 20
2.3907374231
 40
0.0024749995
100
AcDbArc
 50
89.9999571957
 51
180.0000428043
  0
ARC
  5
39B
100
AcDbEntity
  8
0
100
AcDbCircle
 62
7
  6
CONTINUOUS
 10
18.2981412477
 20
2.3907374231
 40
0.0024749995
100
AcDbArc
 50
359.9999571957
 51
90.0000428043
  0
ARC
  5
39C
100
AcDbEntity
  8
0
100
AcDbCircle
 62
7
  6
CONTINUOUS
 10
18.1572301659
 20
2.415180433
 40
0.0024749995
100
AcDbArc
 50
179.9999571957
 51
270.0000428043
  0
ARC
  5
39D
100
AcDbEntity
  8
0
100
AcDbCircle
 62
7
  6
CONTINUOUS
 10
17.992145078
 20
2.3815504143
 40
0.0024749995
100
AcDbArc
 50
269.9999571957
 51
0.0000428043
  0
ARC
  5
39E
100
AcDbEntity
  8
0
100
AcDbCircle
 62
7
  6
CONTINUOUS
 10
17.9970950771
 20
2.3898004226
 40
0.0024749995
100
AcDbArc
 50
89.9999571957
 51
180.0000428043
  0
ARC
  5
39F
100
AcDbEntity
  8
0
100
AcDbCircle
 62
7
  6
CONTINUOUS
 10
18.0394141042
 20
2.3898004226
 40
0.0024749995
100
AcDbArc
 50
359.9999571957
 51
90.0000428043
  0
ARC
  5
3A0
100
AcDbEntity
  8
0
100
AcDbCircle
 62
7
  6
CONTINUOUS
 10
18.0379951034
 20
2.4196554355
 40
0.0024749995
100
AcDbArc
 50
269.9999571956
 51
0.0000428042
  0
ARC
  5
3A1
100
AcDbEntity
  8
0
100
AcDbCircle
 62
7
  6
CONTINUOUS
 10
17.9961310765
 20
2.4196554355
 40
0.0024749995
100
AcDbArc
 50
179.9999571957
 51
270.0000428043
  0
ARC
  5
3A2
100
AcDbEntity
  8
0
100
AcDbCircle
 62
7
  6
CONTINUOUS
 10
17.9623080615
 20
2.4114054346
 40
0.0024749995
100
AcDbArc
 50
359.9999571957
 51
90.0000428043
  0
ARC
  5
3A3
100
AcDbEntity
  8
0
100
AcDbCircle
 62
7
  6
CONTINUOUS
 10
17.9623080615
 20
2.3980504235
 40
0.0024749995
100
AcDbArc
 50
269.9999571956
 51
0.0000428042
  0
ARC
  5
3A4
100
AcDbEntity
  8
0
100
AcDbCircle
 62
7
  6
CONTINUOUS
 10
18.220842337
 20
2.4783532224
 40
0.0789082104
100
AcDbArc
 50
292.906155071
 51
305.2574666259
  0
ARC
  5
3A5
100
AcDbEntity
  8
0
100
AcDbCircle
 62
7
  6
CONTINUOUS
 10
18.2511742746
 20
2.4351463727
 40
0.0261183659
100
AcDbArc
 50
305.6373831893
 51
329.9727629745
  0
ARC
  5
3A6
100
AcDbEntity
  8
0
100
AcDbCircle
 62
7
  6
CONTINUOUS
 10
18.1908418374
 20
2.4381440645
 40
0.0254407115
100
AcDbArc
 50
270.7327484175
 51
290.441894219
  0
ARC
  5
3A7
100
AcDbEntity
  8
0
100
AcDbCircle
 62
7
  6
CONTINUOUS
 10
18.1927693431
 20
2.4337504172
 40
0.0206523367
100
AcDbArc
 50
289.6883413472
 51
306.4184925496
  0
ARC
  5
3A8
100
AcDbEntity
  8
0
100
AcDbCircle
 62
7
  6
CONTINUOUS
 10
18.2588883357
 20
2.4282993328
 40
0.0165459396
100
AcDbArc
 50
1.548452892
 51
33.5033152417
  0
ARC
  5
3A9
100
AcDbEntity
  8
0
100
AcDbCircle
 62
7
  6
CONTINUOUS
 10
18.2621849309
 20
2.428467785
 40
0.0132462337
100
AcDbArc
 50
331.1510006998
 51
1.205404301
  0
ARC
  5
3AA
100
AcDbEntity
  8
0
100
AcDbCircle
 62
7
  6
CONTINUOUS
 10
18.0910641329
 20
2.4279054437
 40
0.0024749995
100
AcDbArc
 50
359.9999571957
 51
90.0000428043
  0
ARC
  5
3AB
100
AcDbEntity
  8
0
100
AcDbCircle
 62
7
  6
CONTINUOUS
 10
18.0683181166
 20
2.4328554428
 40
0.0024749995
100
AcDbArc
 50
179.9999571957
 51
270.0000428043
  0
ARC
  5
3AC
100
AcDbEntity
  8
0
100
AcDbCircle
 62
7
  6
CONTINUOUS
 10
18.0683181166
 20
2.4526554575
 40
0.0024749995
100
AcDbArc
 50
89.9999571957
 51
180.0000428043
  0
ARC
  5
3AD
100
AcDbEntity
  8
0
100
AcDbCircle
 62
7
  6
CONTINUOUS
 10
18.1572301659
 20
2.4279054437
 40
0.0024749995
100
AcDbArc
 50
89.9999571957
 51
180.0000428043
  0
ARC
  5
3AE
100
AcDbEntity
  8
0
100
AcDbCircle
 62
7
  6
CONTINUOUS
 10
18.0379951034
 20
2.4526554575
 40
0.0024749995
100
AcDbArc
 50
359.9999571957
 51
90.0000428043
  0
ARC
  5
3AF
100
AcDbEntity
  8
0
100
AcDbCircle
 62
7
  6
CONTINUOUS
 10
17.9911810775
 20
2.4279054437
 40
0.0024749995
100
AcDbArc
 50
359.9999571957
 51
90.0000428043
  0
ELLIPSE
  5
3B0
100
AcDbEntity
  8
0
100
AcDbEllipse
 62
7
  6
CONTINUOUS
 10
17.573550844
 20
2.4034764283
 30
0.0
 11
-0.8250004575
 21
0.0
 31
0.0
 40
0.218572
 41
0.0
 42
6.2831853072
  0
HATCH
  5
3B1
100
AcDbEntity
  8
0
100
AcDbHatch
 62
7
  6
CONTINUOUS
 10
0.0
 20
0.0
 30
0.0
210
0.0
220
0.0
230
1.0
  2
XSEC0002
 70
1
 71
1
 91
11
 92
1
 93
57
 72
2
 10
18.2265855264
 20
2.3716475527
 40
0.0173408616
 50
232.4713476722
 51
267.338189944
 73
1
 72
2
 10
18.2296840914
 20
2.3774978567
 40
0.0238935861
 50
209.8247607259
 51
235.1255079367
 73
1
 72
2
 10
18.2495655574
 20
2.384346736
 40
0.044722495
 50
195.531588407
 51
204.7624440448
 73
1
 72
1
 10
18.206476195
 20
2.3723714111
 11
18.204672194
 21
2.3784404145
 72
2
 10
18.1662929967
 20
2.368643334
 40
0.0396099176
 50
14.3201081283
 51
22.4984722084
 73
1
 72
2
 10
18.1890593051
 20
2.3776149607
 40
0.0151491919
 50
24.098260853
 51
63.0369451818
 73
1
 72
2
 10
18.1850046504
 20
2.3693353402
 40
0.0243676582
 50
63.3666028271
 51
90.3937697637
 73
1
 72
1
 10
18.184837183
 20
2.3937024229
 11
18.1572301677
 21
2.3937024229
 72
2
 10
18.1572301659
 20
2.3912274234
 40
0.0024749995
 50
89.9999571957
 51
180.0000428043
 73
1
 72
1
 10
18.1547551663
 20
2.3912274216
 11
18.1547551663
 21
2.3815284162
 72
2
 10
18.1572301659
 20
2.3815284143
 40
0.0024749995
 50
179.9999571957
 51
270.0000428043
 73
1
 72
1
 10
18.1572301677
 20
2.3790534148
 11
18.1818891814
 21
2.3790534148
 72
2
 10
18.1818891832
 20
2.3765784153
 40
0.0024749995
 50
359.9999571957
 51
90.0000428042
 73
1
 72
1
 10
18.1843641828
 20
2.3765784134
 11
18.1843641828
 21
2.3568004025
 72
2
 10
18.1818891832
 20
2.3568004006
 40
0.0024749995
 50
269.9999571958
 51
0.0000428043
 73
1
 72
1
 10
18.1818891814
 20
2.3543254011
 11
18.0683181184
 21
2.3543254011
 72
2
 10
18.0683181166
 20
2.3568004006
 40
0.0024749995
 50
179.9999571957
 51
270.0000428042
 73
1
 72
1
 10
18.065843117
 20
2.3568004025
 11
18.065843117
 21
2.3766004134
 72
2
 10
18.0683181166
 20
2.3766004153
 40
0.0024749995
 50
89.9999571958
 51
180.0000428043
 73
1
 72
1
 10
18.0683181184
 20
2.3790754148
 11
18.091064131
 21
2.3790754148
 72
2
 10
18.0910641329
 20
2.3815504143
 40
0.0024749995
 50
269.9999571957
 51
0.0000428043
 73
1
 72
1
 10
18.0935391324
 20
2.3815504162
 11
18.0935391324
 21
2.4279054419
 72
2
 10
18.0910641329
 20
2.4279054437
 40
0.0024749995
 50
359.9999571957
 51
90.0000428043
 73
1
 72
1
 10
18.091064131
 20
2.4303804433
 11
18.0683181184
 21
2.4303804433
 72
2
 10
18.0683181166
 20
2.4328554428
 40
0.0024749995
 50
179.9999571957
 51
270.0000428043
 73
1
 72
1
 10
18.065843117
 20
2.4328554446
 11
18.065843117
 21
2.4526554556
 72
2
 10
18.0683181166
 20
2.4526554575
 40
0.0024749995
 50
89.9999571958
 51
180.0000428043
 73
1
 72
1
 10
18.0683181184
 20
2.455130457
 11
18.2178992014
 21
2.455130457
 72
2
 10
18.2152358981
 20
2.2725915465
 40
0.1825583387
 50
79.8618509324
 51
89.1640948679
 73
1
 72
2
 10
18.2415401884
 20
2.4134150625
 40
0.039319019
 50
59.1202086415
 51
81.4730239328
 73
1
 72
2
 10
18.2471995846
 20
2.4197497317
 40
0.0310192946
 50
34.7540871
 51
62.0879016178
 73
1
 72
2
 10
18.2588883357
 20
2.4282993328
 40
0.0165459396
 50
1.548452892
 51
33.5033152417
 73
1
 72
2
 10
18.2621849309
 20
2.428467785
 40
0.0132462337
 50
331.1510006998
 51
1.205404301
 73
1
 72
2
 10
18.2511742746
 20
2.4351463727
 40
0.0261183659
 50
305.6373831893
 51
329.9727629745
 73
1
 72
2
 10
18.220842337
 20
2.4783532224
 40
0.0789082104
 50
292.906155071
 51
305.2574666259
 73
1
 72
2
 10
18.197141171
 20
2.3016991173
 40
0.117346916
 50
58.614769177
 51
62.3737227606
 73
1
 72
2
 10
18.2450241237
 20
2.3798263774
 40
0.0257145923
 50
39.3804255939
 51
59.0361096173
 73
1
 72
2
 10
18.2439037681
 20
2.3797532943
 40
0.0266349791
 50
20.3630922153
 51
37.9727053099
 73
1
 72
2
 10
18.2260032264
 20
2.3725718859
 40
0.0459185159
 50
15.6740290068
 51
20.9917271228
 73
1
 72
2
 10
18.2845735615
 20
2.3882148688
 40
0.0147197649
 50
192.7054516565
 51
206.0594861022
 73
1
 72
2
 10
18.2760792244
 20
2.3840063824
 40
0.0052403997
 50
205.5232099488
 51
227.5054868079
 73
1
 72
2
 10
18.2743509251
 20
2.3821910097
 40
0.0027347709
 50
228.5117626738
 51
266.1485845755
 73
1
 72
1
 10
18.2741672326
 20
2.379462415
 11
18.2752762332
 21
2.379462415
 72
2
 10
18.2752146786
 20
2.3927110743
 40
0.0132488022
 50
270.266200055
 51
281.2404888597
 73
1
 72
2
 10
18.2764089196
 20
2.3869743807
 40
0.0073895522
 50
280.8288201977
 51
305.0837508495
 73
1
 72
2
 10
18.2768101012
 20
2.3861235343
 40
0.0064647042
 50
306.5086174083
 51
340.2162360092
 73
1
 72
2
 10
18.2716089246
 20
2.3878675959
 40
0.0119498009
 50
340.7883861657
 51
1.1691452593
 73
1
 72
1
 10
18.2835562378
 20
2.3881114198
 11
18.2835562378
 21
2.3907374213
 72
2
 10
18.2860312373
 20
2.3907374231
 40
0.0024749995
 50
89.9999571957
 51
180.0000428043
 73
1
 72
1
 10
18.2860312391
 20
2.3932124227
 11
18.2981412459
 21
2.3932124227
 72
2
 10
18.2981412477
 20
2.3907374231
 40
0.0024749995
 50
359.9999571957
 51
90.0000428043
 73
1
 72
1
 10
18.3006162472
 20
2.3907374213
 11
18.3006162472
 21
2.3791854149
 72
2
 10
18.2830605507
 20
2.3792897325
 40
0.0175560065
 50
332.2279060967
 51
359.6595469939
 73
1
 72
2
 10
18.2737535399
 20
2.384184238
 40
0.0280715479
 50
308.5071794988
 51
332.2400656899
 73
1
 72
2
 10
18.2667613545
 20
2.3917854558
 40
0.0383802683
 50
288.7656836787
 51
309.6104317088
 73
1
 72
2
 10
18.2724993219
 20
2.3741987064
 40
0.0198837666
 50
271.8586572978
 51
289.4131338543
 73
1
 72
1
 10
18.273144232
 20
2.3543254011
 11
18.2257802057
 21
2.3543254011
 97
267
330
2A6
330
2A7
330
2A8
330
2A9
330
2AA
330
2AB
330
2AC
330
2AD
330
2AE
330
2AF
330
2B0
330
2B1
330
2B2
330
2B3
330
2B4
330
2B5
330
2B6
330
2B7
330
2B8
330
2B9
330
2BA
330
2BB
330
2BC
330
2BD
330
2BE
330
2BF
330
2C0
330
2C1
330
2C2
330
2C3
330
2C4
330
2C5
330
2C6
330
2C7
330
2C8
330
2C9
330
2CA
330
2CB
330
2CC
330
2CD
330
2CE
330
2CF
330
2D0
330
2D1
330
2D2
330
2D3
330
2D4
330
2D5
330
2D6
330
2D7
330
2D8
330
2D9
330
2DA
330
2DB
330
2DC
330
2DD
330
2DE
330
2DF
330
2E0
330
2E1
330
2E2
330
2E3
330
2E4
330
2E5
330
2E6
330
2E7
330
2E8
330
2E9
330
2EA
330
2EB
330
2EC
330
2ED
330
2EE
330
2EF
330
2F0
330
2F1
330
2F2
330
2F3
330
2F4
330
2F5
330
2F6
330
2F7
330
2F8
330
2F9
330
2FA
330
2FB
330
2FC
330
2FD
330
2FE
330
2FF
330
300
330
301
330
302
330
303
330
304
330
305
330
306
330
307
330
308
330
309
330
30A
330
30B
330
30C
330
30D
330
30E
330
30F
330
310
330
311
330
312
330
313
330
314
330
315
330
316
330
317
330
318
330
319
330
31A
330
31B
330
31C
330
31D
330
31E
330
31F
330
320
330
321
330
322
330
323
330
324
330
325
330
326
330
327
330
328
330
329
330
32A
330
32B
330
32C
330
32D
330
32E
330
32F
330
330
330
331
330
332
330
333
330
334
330
335
330
336
330
337
330
338
330
339
330
33A
330
33B
330
33C
330
33D
330
33E
330
33F
330
340
330
341
330
342
330
343
330
344
330
345
330
346
330
347
330
348
330
349
330
34A
330
34B
330
34C
330
34D
330
34E
330
34F
330
350
330
351
330
352
330
353
330
354
330
355
330
356
330
357
330
358
330
359
330
35A
330
35B
330
35C
330
35D
330
35E
330
35F
330
360
330
361
330
362
330
363
330
364
330
365
330
366
330
367
330
368
330
369
330
36A
330
36B
330
36C
330
36D
330
36E
330
36F
330
370
330
371
330
372
330
373
330
374
330
375
330
376
330
377
330
378
330
379
330
37A
330
37B
330
37C
330
37D
330
37E
330
37F
330
380
330
381
330
382
330
383
330
384
330
385
330
386
330
387
330
388
330
389
330
38A
330
38B
330
38C
330
38D
330
38E
330
38F
330
390
330
391
330
392
330
393
330
394
330
395
330
396
330
397
330
398
330
399
330
39A
330
39B
330
39C
330
39D
330
39E
330
39F
330
3A0
330
3A1
330
3A2
330
3A3
330
3A4
330
3A5
330
3A6
330
3A7
330
3A8
330
3A9
330
3AA
330
3AB
330
3AC
330
3AD
330
3AE
330
3AF
330
3B0
 92
1
 93
40
 72
2
 10
17.8362019878
 20
2.3568004006
 40
0.0024749995
 50
179.9999571957
 51
270.0000428042
 73
1
 72
1
 10
17.8337269883
 20
2.3568004025
 11
17.8337269883
 21
2.3766004134
 72
2
 10
17.8362019878
 20
2.3766004153
 40
0.0024749995
 50
89.9999571958
 51
180.0000428043
 73
1
 72
1
 10
17.8362019897
 20
2.3790754148
 11
17.860125003
 21
2.3790754148
 72
2
 10
17.8601250048
 20
2.3815504143
 40
0.0024749995
 50
269.9999571956
 51
0.0000428042
 73
1
 72
1
 10
17.8626000043
 20
2.3815504162
 11
17.8626000043
 21
2.4279054419
 72
2
 10
17.8601250048
 20
2.4279054437
 40
0.0024749995
 50
359.9999571957
 51
90.0000428043
 73
1
 72
1
 10
17.860125003
 20
2.4303804433
 11
17.8362019897
 21
2.4303804433
 72
2
 10
17.8362019878
 20
2.4328554428
 40
0.0024749995
 50
179.9999571957
 51
270.0000428043
 73
1
 72
1
 10
17.8337269883
 20
2.4328554446
 11
17.8337269883
 21
2.4526554556
 72
2
 10
17.8362019878
 20
2.4526554575
 40
0.0024749995
 50
89.9999571958
 51
180.0000428043
 73
1
 72
1
 10
17.8362019897
 20
2.455130457
 11
18.0379951016
 21
2.455130457
 72
2
 10
18.0379951034
 20
2.4526554575
 40
0.0024749995
 50
359.9999571957
 51
90.0000428042
 73
1
 72
1
 10
18.040470103
 20
2.4526554556
 11
18.040470103
 21
2.4196554373
 72
2
 10
18.0379951034
 20
2.4196554355
 40
0.0024749995
 50
269.9999571956
 51
0.0000428042
 73
1
 72
1
 10
18.0379951016
 20
2.4171804359
 11
17.9961310784
 21
2.4171804359
 72
2
 10
17.9961310765
 20
2.4196554355
 40
0.0024749995
 50
179.9999571957
 51
270.0000428043
 73
1
 72
1
 10
17.993656077
 20
2.4196554373
 11
17.993656077
 21
2.4279054419
 72
2
 10
17.9911810775
 20
2.4279054437
 40
0.0024749995
 50
359.9999571957
 51
90.0000428043
 73
1
 72
1
 10
17.9911810756
 20
2.4303804433
 11
17.9271410401
 21
2.4303804433
 72
2
 10
17.9271410383
 20
2.4279054437
 40
0.0024749995
 50
89.9999571958
 51
180.0000428043
 73
1
 72
1
 10
17.9246660387
 20
2.4279054419
 11
17.9246660387
 21
2.4163554355
 72
2
 10
17.9271410383
 20
2.4163554336
 40
0.0024749995
 50
179.9999571957
 51
270.0000428042
 73
1
 72
1
 10
17.9271410401
 20
2.4138804341
 11
17.9623080596
 21
2.4138804341
 72
2
 10
17.9623080615
 20
2.4114054346
 40
0.0024749995
 50
359.9999571957
 51
90.0000428042
 73
1
 72
1
 10
17.964783061
 20
2.4114054327
 11
17.964783061
 21
2.3980504253
 72
2
 10
17.9623080615
 20
2.3980504235
 40
0.0024749995
 50
269.9999571956
 51
0.0000428042
 73
1
 72
1
 10
17.9623080596
 20
2.395575424
 11
17.9271410401
 21
2.395575424
 72
2
 10
17.9271410383
 20
2.3931004244
 40
0.0024749995
 50
89.9999571958
 51
180.0000428043
 73
1
 72
1
 10
17.9246660387
 20
2.3931004226
 11
17.9246660387
 21
2.3815504162
 72
2
 10
17.9271410383
 20
2.3815504143
 40
0.0024749995
 50
179.9999571957
 51
270.0000428043
 73
1
 72
1
 10
17.9271410401
 20
2.3790754148
 11
17.9921450762
 21
2.3790754148
 72
2
 10
17.992145078
 20
2.3815504143
 40
0.0024749995
 50
269.9999571958
 51
0.0000428043
 73
1
 72
1
 10
17.9946200775
 20
2.3815504162
 11
17.9946200775
 21
2.3898004208
 72
2
 10
17.9970950771
 20
2.3898004226
 40
0.0024749995
 50
89.9999571958
 51
180.0000428043
 73
1
 72
1
 10
17.9970950789
 20
2.3922754221
 11
18.0394141024
 21
2.3922754221
 72
2
 10
18.0394141042
 20
2.3898004226
 40
0.0024749995
 50
359.9999571957
 51
90.0000428043
 73
1
 72
1
 10
18.0418891038
 20
2.3898004208
 11
18.0418891038
 21
2.3568004025
 72
2
 10
18.0394141042
 20
2.3568004006
 40
0.0024749995
 50
269.9999571958
 51
0.0000428043
 73
1
 72
1
 10
18.0394141024
 20
2.3543254011
 11
17.8362019897
 21
2.3543254011
 97
267
330
2A6
330
2A7
330
2A8
330
2A9
330
2AA
330
2AB
330
2AC
330
2AD
330
2AE
330
2AF
330
2B0
330
2B1
330
2B2
330
2B3
330
2B4
330
2B5
330
2B6
330
2B7
330
2B8
330
2B9
330
2BA
330
2BB
330
2BC
330
2BD
330
2BE
330
2BF
330
2C0
330
2C1
330
2C2
330
2C3
330
2C4
330
2C5
330
2C6
330
2C7
330
2C8
330
2C9
330
2CA
330
2CB
330
2CC
330
2CD
330
2CE
330
2CF
330
2D0
330
2D1
330
2D2
330
2D3
330
2D4
330
2D5
330
2D6
330
2D7
330
2D8
330
2D9
330
2DA
330
2DB
330
2DC
330
2DD
330
2DE
330
2DF
330
2E0
330
2E1
330
2E2
330
2E3
330
2E4
330
2E5
330
2E6
330
2E7
330
2E8
330
2E9
330
2EA
330
2EB
330
2EC
330
2ED
330
2EE
330
2EF
330
2F0
330
2F1
330
2F2
330
2F3
330
2F4
330
2F5
330
2F6
330
2F7
330
2F8
330
2F9
330
2FA
330
2FB
330
2FC
330
2FD
330
2FE
330
2FF
330
300
330
301
330
302
330
303
330
304
330
305
330
306
330
307
330
308
330
309
330
30A
330
30B
330
30C
330
30D
330
30E
330
30F
330
310
330
311
330
312
330
313
330
314
330
315
330
316
330
317
330
318
330
319
330
31A
330
31B
330
31C
330
31D
330
31E
330
31F
330
320
330
321
330
322
330
323
330
324
330
325
330
326
330
327
330
328
330
329
330
32A
330
32B
330
32C
330
32D
330
32E
330
32F
330
330
330
331
330
332
330
333
330
334
330
335
330
336
330
337
330
338
330
339
330
33A
330
33B
330
33C
330
33D
330
33E
330
33F
330
340
330
341
330
342
330
343
330
344
330
345
330
346
330
347
330
348
330
349
330
34A
330
34B
330
34C
330
34D
330
34E
330
34F
330
350
330
351
330
352
330
353
330
354
330
355
330
356
330
357
330
358
330
359
330
35A
330
35B
330
35C
330
35D
330
35E
330
35F
330
360
330
361
330
362
330
363
330
364
330
365
330
366
330
367
330
368
330
369
330
36A
330
36B
330
36C
330
36D
330
36E
330
36F
330
370
330
371
330
372
330
373
330
374
330
375
330
376
330
377
330
378
330
379
330
37A
330
37B
330
37C
330
37D
330
37E
330
37F
330
380
330
381
330
382
330
383
330
384
330
385
330
386
330
387
330
388
330
389
330
38A
330
38B
330
38C
330
38D
330
38E
330
38F
330
390
330
391
330
392
330
393
330
394
330
395
330
396
330
397
330
398
330
399
330
39A
330
39B
330
39C
330
39D
330
39E
330
39F
330
3A0
330
3A1
330
3A2
330
3A3
330
3A4
330
3A5
330
3A6
330
3A7
330
3A8
330
3A9
330
3AA
330
3AB
330
3AC
330
3AD
330
3AE
330
3AF
330
3B0
 92
1
 93
40
 72
2
 10
17.7115227858
 20
2.3567995689
 40
0.0024741678
 50
226.3477981898
 51
270.0031206038
 73
1
 72
1
 10
17.7098149196
 20
2.3550094015
 11
17.6465348845
 21
2.415387435
 72
2
 10
17.6448261836
 20
2.4135964972
 40
0.0024753014
 50
46.3461263058
 51
180.0014637321
 73
1
 72
1
 10
17.6423508822
 20
2.413596434
 11
17.6423508822
 21
2.3815504162
 72
2
 10
17.6448258817
 20
2.3815504143
 40
0.0024749995
 50
179.9999571957
 51
270.0000428043
 73
1
 72
1
 10
17.6448258836
 20
2.3790754148
 11
17.6651428948
 21
2.3790754148
 72
2
 10
17.6651428967
 20
2.3766004153
 40
0.0024749995
 50
359.9999571957
 51
90.0000428043
 73
1
 72
1
 10
17.6676178962
 20
2.3766004134
 11
17.6676178962
 21
2.3568004025
 72
2
 10
17.6651428967
 20
2.3568004006
 40
0.0024749995
 50
269.9999571958
 51
0.0000428043
 73
1
 72
1
 10
17.6651428948
 20
2.3543254011
 11
17.5894788529
 21
2.3543254011
 72
2
 10
17.589478851
 20
2.3568004006
 40
0.0024749995
 50
179.9999571957
 51
270.0000428042
 73
1
 72
1
 10
17.5870038515
 20
2.3568004025
 11
17.5870038515
 21
2.3766004134
 72
2
 10
17.589478851
 20
2.3766004153
 40
0.0024749995
 50
89.9999571957
 51
180.0000428043
 73
1
 72
1
 10
17.5894788529
 20
2.3790754148
 11
17.6081248632
 21
2.3790754148
 72
2
 10
17.6081248651
 20
2.3815504143
 40
0.0024749995
 50
269.9999571957
 51
0.0000428043
 73
1
 72
1
 10
17.6105998646
 20
2.3815504162
 11
17.6105998646
 21
2.4279054419
 72
2
 10
17.6081248651
 20
2.4279054437
 40
0.0024749995
 50
359.9999571957
 51
90.0000428043
 73
1
 72
1
 10
17.6081248632
 20
2.4303804433
 11
17.5894788529
 21
2.4303804433
 72
2
 10
17.589478851
 20
2.4328554428
 40
0.0024749995
 50
179.9999571957
 51
270.0000428043
 73
1
 72
1
 10
17.5870038515
 20
2.4328554446
 11
17.5870038515
 21
2.4526554556
 72
2
 10
17.589478851
 20
2.4526554575
 40
0.0024749995
 50
89.9999571957
 51
180.0000428043
 73
1
 72
1
 10
17.5894788529
 20
2.455130457
 11
17.6899369086
 21
2.455130457
 72
2
 10
17.6899370433
 20
2.4526562892
 40
0.0024741678
 50
46.3477981899
 51
90.0031206038
 73
1
 72
1
 10
17.6916449095
 20
2.4544464566
 11
17.7516779428
 21
2.3971664249
 72
2
 10
17.7533866437
 20
2.3989573626
 40
0.0024753014
 50
226.3461263059
 51
0.0014637321
 73
1
 72
1
 10
17.7558619451
 20
2.3989574258
 11
17.7558619451
 21
2.4279054419
 72
2
 10
17.7533869456
 20
2.4279054437
 40
0.0024749995
 50
359.9999571957
 51
90.0000428043
 73
1
 72
1
 10
17.7533869438
 20
2.4303804433
 11
17.7346109333
 21
2.4303804433
 72
2
 10
17.7346109315
 20
2.4328554428
 40
0.0024749995
 50
179.9999571957
 51
270.0000428043
 73
1
 72
1
 10
17.732135932
 20
2.4328554446
 11
17.732135932
 21
2.4526554556
 72
2
 10
17.7346109315
 20
2.4526554575
 40
0.0024749995
 50
89.9999571958
 51
180.0000428043
 73
1
 72
1
 10
17.7346109333
 20
2.455130457
 11
17.8086119744
 21
2.455130457
 72
2
 10
17.8086119762
 20
2.4526554575
 40
0.0024749995
 50
359.9999571957
 51
90.0000428043
 73
1
 72
1
 10
17.8110869758
 20
2.4526554556
 11
17.8110869758
 21
2.4328554446
 72
2
 10
17.8086119762
 20
2.4328554428
 40
0.0024749995
 50
269.9999571956
 51
0.0000428042
 73
1
 72
1
 10
17.8086119744
 20
2.4303804433
 11
17.7906789644
 21
2.4303804433
 72
2
 10
17.7906789626
 20
2.4279054437
 40
0.0024749995
 50
89.9999571957
 51
180.0000428043
 73
1
 72
1
 10
17.7882039631
 20
2.4279054419
 11
17.7882039631
 21
2.3568004025
 72
2
 10
17.7857289635
 20
2.3568004006
 40
0.0024749995
 50
269.9999571957
 51
0.0000428043
 73
1
 72
1
 10
17.7857289617
 20
2.3543254011
 11
17.7115229205
 21
2.3543254011
 97
267
330
2A6
330
2A7
330
2A8
330
2A9
330
2AA
330
2AB
330
2AC
330
2AD
330
2AE
330
2AF
330
2B0
330
2B1
330
2B2
330
2B3
330
2B4
330
2B5
330
2B6
330
2B7
330
2B8
330
2B9
330
2BA
330
2BB
330
2BC
330
2BD
330
2BE
330
2BF
330
2C0
330
2C1
330
2C2
330
2C3
330
2C4
330
2C5
330
2C6
330
2C7
330
2C8
330
2C9
330
2CA
330
2CB
330
2CC
330
2CD
330
2CE
330
2CF
330
2D0
330
2D1
330
2D2
330
2D3
330
2D4
330
2D5
330
2D6
330
2D7
330
2D8
330
2D9
330
2DA
330
2DB
330
2DC
330
2DD
330
2DE
330
2DF
330
2E0
330
2E1
330
2E2
330
2E3
330
2E4
330
2E5
330
2E6
330
2E7
330
2E8
330
2E9
330
2EA
330
2EB
330
2EC
330
2ED
330
2EE
330
2EF
330
2F0
330
2F1
330
2F2
330
2F3
330
2F4
330
2F5
330
2F6
330
2F7
330
2F8
330
2F9
330
2FA
330
2FB
330
2FC
330
2FD
330
2FE
330
2FF
330
300
330
301
330
302
330
303
330
304
330
305
330
306
330
307
330
308
330
309
330
30A
330
30B
330
30C
330
30D
330
30E
330
30F
330
310
330
311
330
312
330
313
330
314
330
315
330
316
330
317
330
318
330
319
330
31A
330
31B
330
31C
330
31D
330
31E
330
31F
330
320
330
321
330
322
330
323
330
324
330
325
330
326
330
327
330
328
330
329
330
32A
330
32B
330
32C
330
32D
330
32E
330
32F
330
330
330
331
330
332
330
333
330
334
330
335
330
336
330
337
330
338
330
339
330
33A
330
33B
330
33C
330
33D
330
33E
330
33F
330
340
330
341
330
342
330
343
330
344
330
345
330
346
330
347
330
348
330
349
330
34A
330
34B
330
34C
330
34D
330
34E
330
34F
330
350
330
351
330
352
330
353
330
354
330
355
330
356
330
357
330
358
330
359
330
35A
330
35B
330
35C
330
35D
330
35E
330
35F
330
360
330
361
330
362
330
363
330
364
330
365
330
366
330
367
330
368
330
369
330
36A
330
36B
330
36C
330
36D
330
36E
330
36F
330
370
330
371
330
372
330
373
330
374
330
375
330
376
330
377
330
378
330
379
330
37A
330
37B
330
37C
330
37D
330
37E
330
37F
330
380
330
381
330
382
330
383
330
384
330
385
330
386
330
387
330
388
330
389
330
38A
330
38B
330
38C
330
38D
330
38E
330
38F
330
390
330
391
330
392
330
393
330
394
330
395
330
396
330
397
330
398
330
399
330
39A
330
39B
330
39C
330
39D
330
39E
330
39F
330
3A0
330
3A1
330
3A2
330
3A3
330
3A4
330
3A5
330
3A6
330
3A7
330
3A8
330
3A9
330
3AA
330
3AB
330
3AC
330
3AD
330
3AE
330
3AF
330
3B0
 92
1
 93
40
 72
2
 10
17.4632701481
 20
2.3568008172
 40
0.0024754162
 50
226.3593695814
 51
270.0146919954
 73
1
 72
1
 10
17.4615617819
 20
2.3550094015
 11
17.3982817468
 21
2.415387435
 72
2
 10
17.3965730459
 20
2.4135964972
 40
0.0024753014
 50
46.3461263058
 51
180.0014637321
 73
1
 72
1
 10
17.3940977445
 20
2.413596434
 11
17.3940977445
 21
2.3815504162
 72
2
 10
17.396572744
 20
2.3815504143
 40
0.0024749995
 50
179.9999571957
 51
270.0000428043
 73
1
 72
1
 10
17.3965727459
 20
2.3790754148
 11
17.4168897572
 21
2.3790754148
 72
2
 10
17.416889759
 20
2.3766004153
 40
0.0024749995
 50
359.9999571957
 51
90.0000428043
 73
1
 72
1
 10
17.4193647585
 20
2.3766004134
 11
17.4193647585
 21
2.3568004025
 72
2
 10
17.416889759
 20
2.3568004006
 40
0.0024749995
 50
269.9999571957
 51
0.0000428043
 73
1
 72
1
 10
17.4168897572
 20
2.3543254011
 11
17.3412257152
 21
2.3543254011
 72
2
 10
17.3412257133
 20
2.3568004006
 40
0.0024749995
 50
179.9999571957
 51
270.0000428043
 73
1
 72
1
 10
17.3387507138
 20
2.3568004025
 11
17.3387507138
 21
2.3766004134
 72
2
 10
17.3412257133
 20
2.3766004153
 40
0.0024749995
 50
89.9999571957
 51
180.0000428043
 73
1
 72
1
 10
17.3412257152
 20
2.3790754148
 11
17.3598727255
 21
2.3790754148
 72
2
 10
17.3598727274
 20
2.3815504143
 40
0.0024749995
 50
269.9999571957
 51
0.0000428043
 73
1
 72
1
 10
17.3623477269
 20
2.3815504162
 11
17.3623477269
 21
2.4279054419
 72
2
 10
17.3598727274
 20
2.4279054437
 40
0.0024749995
 50
359.9999571957
 51
90.0000428044
 73
1
 72
1
 10
17.3598727255
 20
2.4303804433
 11
17.3412257152
 21
2.4303804433
 72
2
 10
17.3412257133
 20
2.4328554428
 40
0.0024749995
 50
179.9999571957
 51
270.0000428043
 73
1
 72
1
 10
17.3387507138
 20
2.4328554446
 11
17.3387507138
 21
2.4526554556
 72
2
 10
17.3412257133
 20
2.4526554575
 40
0.0024749995
 50
89.9999571957
 51
180.0000428043
 73
1
 72
1
 10
17.3412257152
 20
2.455130457
 11
17.4416837709
 21
2.455130457
 72
2
 10
17.4416839057
 20
2.4526562892
 40
0.0024741678
 50
46.3477981899
 51
90.0031206038
 73
1
 72
1
 10
17.4433917718
 20
2.4544464566
 11
17.5034248051
 21
2.3971664249
 72
2
 10
17.5051335061
 20
2.3989573626
 40
0.0024753014
 50
226.3461263059
 51
0.0014637321
 73
1
 72
1
 10
17.5076088075
 20
2.3989574258
 11
17.5076088075
 21
2.4279054419
 72
2
 10
17.5051338079
 20
2.4279054437
 40
0.0024749995
 50
359.9999571957
 51
90.0000428043
 73
1
 72
1
 10
17.5051338061
 20
2.4303804433
 11
17.4863577957
 21
2.4303804433
 72
2
 10
17.4863577938
 20
2.4328554428
 40
0.0024749995
 50
179.9999571957
 51
270.0000428043
 73
1
 72
1
 10
17.4838827943
 20
2.4328554446
 11
17.4838827943
 21
2.4526554556
 72
2
 10
17.4863577938
 20
2.4526554575
 40
0.0024749995
 50
89.9999571957
 51
180.0000428043
 73
1
 72
1
 10
17.4863577957
 20
2.455130457
 11
17.5603588367
 21
2.455130457
 72
2
 10
17.5603588386
 20
2.4526554575
 40
0.0024749995
 50
359.9999571957
 51
90.0000428042
 73
1
 72
1
 10
17.5628338381
 20
2.4526554556
 11
17.5628338381
 21
2.4328554446
 72
2
 10
17.5603588386
 20
2.4328554428
 40
0.0024749995
 50
269.9999571958
 51
0.0000428043
 73
1
 72
1
 10
17.5603588367
 20
2.4303804433
 11
17.5424258268
 21
2.4303804433
 72
2
 10
17.5424258249
 20
2.4279054437
 40
0.0024749995
 50
89.9999571958
 51
180.0000428043
 73
1
 72
1
 10
17.5399508254
 20
2.4279054419
 11
17.5399508254
 21
2.3568004025
 72
2
 10
17.5374758259
 20
2.3568004006
 40
0.0024749995
 50
269.9999571958
 51
0.0000428043
 73
1
 72
1
 10
17.537475824
 20
2.3543254011
 11
17.4632707829
 21
2.3543254011
 97
267
330
2A6
330
2A7
330
2A8
330
2A9
330
2AA
330
2AB
330
2AC
330
2AD
330
2AE
330
2AF
330
2B0
330
2B1
330
2B2
330
2B3
330
2B4
330
2B5
330
2B6
330
2B7
330
2B8
330
2B9
330
2BA
330
2BB
330
2BC
330
2BD
330
2BE
330
2BF
330
2C0
330
2C1
330
2C2
330
2C3
330
2C4
330
2C5
330
2C6
330
2C7
330
2C8
330
2C9
330
2CA
330
2CB
330
2CC
330
2CD
330
2CE
330
2CF
330
2D0
330
2D1
330
2D2
330
2D3
330
2D4
330
2D5
330
2D6
330
2D7
330
2D8
330
2D9
330
2DA
330
2DB
330
2DC
330
2DD
330
2DE
330
2DF
330
2E0
330
2E1
330
2E2
330
2E3
330
2E4
330
2E5
330
2E6
330
2E7
330
2E8
330
2E9
330
2EA
330
2EB
330
2EC
330
2ED
330
2EE
330
2EF
330
2F0
330
2F1
330
2F2
330
2F3
330
2F4
330
2F5
330
2F6
330
2F7
330
2F8
330
2F9
330
2FA
330
2FB
330
2FC
330
2FD
330
2FE
330
2FF
330
300
330
301
330
302
330
303
330
304
330
305
330
306
330
307
330
308
330
309
330
30A
330
30B
330
30C
330
30D
330
30E
330
30F
330
310
330
311
330
312
330
313
330
314
330
315
330
316
330
317
330
318
330
319
330
31A
330
31B
330
31C
330
31D
330
31E
330
31F
330
320
330
321
330
322
330
323
330
324
330
325
330
326
330
327
330
328
330
329
330
32A
330
32B
330
32C
330
32D
330
32E
330
32F
330
330
330
331
330
332
330
333
330
334
330
335
330
336
330
337
330
338
330
339
330
33A
330
33B
330
33C
330
33D
330
33E
330
33F
330
340
330
341
330
342
330
343
330
344
330
345
330
346
330
347
330
348
330
349
330
34A
330
34B
330
34C
330
34D
330
34E
330
34F
330
350
330
351
330
352
330
353
330
354
330
355
330
356
330
357
330
358
330
359
330
35A
330
35B
330
35C
330
35D
330
35E
330
35F
330
360
330
361
330
362
330
363
330
364
330
365
330
366
330
367
330
368
330
369
330
36A
330
36B
330
36C
330
36D
330
36E
330
36F
330
370
330
371
330
372
330
373
330
374
330
375
330
376
330
377
330
378
330
379
330
37A
330
37B
330
37C
330
37D
330
37E
330
37F
330
380
330
381
330
382
330
383
330
384
330
385
330
386
330
387
330
388
330
389
330
38A
330
38B
330
38C
330
38D
330
38E
330
38F
330
390
330
391
330
392
330
393
330
394
330
395
330
396
330
397
330
398
330
399
330
39A
330
39B
330
39C
330
39D
330
39E
330
39F
330
3A0
330
3A1
330
3A2
330
3A3
330
3A4
330
3A5
330
3A6
330
3A7
330
3A8
330
3A9
330
3AA
330
3AB
330
3AC
330
3AD
330
3AE
330
3AF
330
3B0
 92
1
 93
23
 72
2
 10
17.0481152095
 20
2.4027328529
 40
0.048483885
 50
273.21763719
 51
303.0749121182
 73
1
 72
2
 10
17.0629546036
 20
2.379965244
 40
0.0213072145
 50
303.0488228549
 51
355.7263138674
 73
1
 72
2
 10
17.0688911042
 20
2.3799744343
 40
0.0153945295
 50
354.0454548824
 51
5.1878013979
 73
1
 72
2
 10
17.0620614151
 20
2.3797859164
 40
0.0222174455
 50
4.0793399388
 51
69.834329283
 73
1
 72
1
 10
17.0697205646
 20
2.4006414268
 11
17.059669559
 21
2.4041904287
 72
1
 10
17.059669559
 20
2.4041904287
 11
17.0679095636
 21
2.4089664314
 72
2
 10
17.0460441811
 20
2.445793323
 40
0.0428289026
 50
300.6990502959
 51
319.0591802498
 73
1
 72
2
 10
17.0660727781
 20
2.4296649696
 40
0.0171568255
 50
315.9145124245
 51
16.0049121283
 73
1
 72
2
 10
17.0611211659
 20
2.4263113051
 40
0.0229166529
 50
20.6563876465
 51
62.3316896973
 73
1
 72
2
 10
17.0404590422
 20
2.3933827403
 40
0.061747717
 50
59.5385584989
 51
90.0050977555
 73
1
 72
1
 10
17.0404535484
 20
2.455130457
 11
16.8743904563
 21
2.455130457
 72
2
 10
16.8743904545
 20
2.4526554575
 40
0.0024749995
 50
89.9999571958
 51
180.0000428043
 73
1
 72
1
 10
16.8719154549
 20
2.4526554556
 11
16.8719154549
 21
2.4328554446
 72
2
 10
16.8743904545
 20
2.4328554428
 40
0.0024749995
 50
179.9999571957
 51
270.0000428043
 73
1
 72
1
 10
16.8743904563
 20
2.4303804433
 11
16.8983324696
 21
2.4303804433
 72
2
 10
16.8983324714
 20
2.4279054437
 40
0.0024749995
 50
359.9999571957
 51
90.0000428043
 73
1
 72
1
 10
16.9008074709
 20
2.4279054419
 11
16.9008074709
 21
2.3815504162
 72
2
 10
16.8983324714
 20
2.3815504143
 40
0.0024749995
 50
269.9999571958
 51
0.0000428043
 73
1
 72
1
 10
16.8983324696
 20
2.3790754148
 11
16.8743904563
 21
2.3790754148
 72
2
 10
16.8743904545
 20
2.3766004153
 40
0.0024749995
 50
89.9999571958
 51
180.0000428043
 73
1
 72
1
 10
16.8719154549
 20
2.3766004134
 11
16.8719154549
 21
2.3568004025
 72
2
 10
16.8743904545
 20
2.3568004006
 40
0.0024749995
 50
179.9999571957
 51
270.0000428042
 73
1
 72
1
 10
16.8743904563
 20
2.3543254011
 11
17.0508365542
 21
2.3543254011
 97
267
330
2A6
330
2A7
330
2A8
330
2A9
330
2AA
330
2AB
330
2AC
330
2AD
330
2AE
330
2AF
330
2B0
330
2B1
330
2B2
330
2B3
330
2B4
330
2B5
330
2B6
330
2B7
330
2B8
330
2B9
330
2BA
330
2BB
330
2BC
330
2BD
330
2BE
330
2BF
330
2C0
330
2C1
330
2C2
330
2C3
330
2C4
330
2C5
330
2C6
330
2C7
330
2C8
330
2C9
330
2CA
330
2CB
330
2CC
330
2CD
330
2CE
330
2CF
330
2D0
330
2D1
330
2D2
330
2D3
330
2D4
330
2D5
330
2D6
330
2D7
330
2D8
330
2D9
330
2DA
330
2DB
330
2DC
330
2DD
330
2DE
330
2DF
330
2E0
330
2E1
330
2E2
330
2E3
330
2E4
330
2E5
330
2E6
330
2E7
330
2E8
330
2E9
330
2EA
330
2EB
330
2EC
330
2ED
330
2EE
330
2EF
330
2F0
330
2F1
330
2F2
330
2F3
330
2F4
330
2F5
330
2F6
330
2F7
330
2F8
330
2F9
330
2FA
330
2FB
330
2FC
330
2FD
330
2FE
330
2FF
330
300
330
301
330
302
330
303
330
304
330
305
330
306
330
307
330
308
330
309
330
30A
330
30B
330
30C
330
30D
330
30E
330
30F
330
310
330
311
330
312
330
313
330
314
330
315
330
316
330
317
330
318
330
319
330
31A
330
31B
330
31C
330
31D
330
31E
330
31F
330
320
330
321
330
322
330
323
330
324
330
325
330
326
330
327
330
328
330
329
330
32A
330
32B
330
32C
330
32D
330
32E
330
32F
330
330
330
331
330
332
330
333
330
334
330
335
330
336
330
337
330
338
330
339
330
33A
330
33B
330
33C
330
33D
330
33E
330
33F
330
340
330
341
330
342
330
343
330
344
330
345
330
346
330
347
330
348
330
349
330
34A
330
34B
330
34C
330
34D
330
34E
330
34F
330
350
330
351
330
352
330
353
330
354
330
355
330
356
330
357
330
358
330
359
330
35A
330
35B
330
35C
330
35D
330
35E
330
35F
330
360
330
361
330
362
330
363
330
364
330
365
330
366
330
367
330
368
330
369
330
36A
330
36B
330
36C
330
36D
330
36E
330
36F
330
370
330
371
330
372
330
373
330
374
330
375
330
376
330
377
330
378
330
379
330
37A
330
37B
330
37C
330
37D
330
37E
330
37F
330
380
330
381
330
382
330
383
330
384
330
385
330
386
330
387
330
388
330
389
330
38A
330
38B
330
38C
330
38D
330
38E
330
38F
330
390
330
391
330
392
330
393
330
394
330
395
330
396
330
397
330
398
330
399
330
39A
330
39B
330
39C
330
39D
330
39E
330
39F
330
3A0
330
3A1
330
3A2
330
3A3
330
3A4
330
3A5
330
3A6
330
3A7
330
3A8
330
3A9
330
3AA
330
3AB
330
3AC
330
3AD
330
3AE
330
3AF
330
3B0
 92
1
 93
32
 72
2
 10
17.1857496308
 20
2.3568004006
 40
0.0024749995
 50
269.9999571958
 51
0.0000428044
 73
1
 72
1
 10
17.1882246303
 20
2.3568004025
 11
17.1882246303
 21
2.3766004134
 72
2
 10
17.1857496308
 20
2.3766004153
 40
0.0024749995
 50
359.9999571957
 51
90.0000428043
 73
1
 72
1
 10
17.185749629
 20
2.3790754148
 11
17.1744666227
 21
2.3790754148
 72
2
 10
17.1744665134
 20
2.3815504549
 40
0.0024750401
 50
147.6063258011
 51
270.0025305754
 73
1
 72
1
 10
17.1723766216
 20
2.3828764169
 11
17.1778926246
 21
2.3915704217
 72
2
 10
17.1799825555
 20
2.3902442221
 40
0.0024752003
 50
89.998372645
 51
147.602165307
 73
1
 72
1
 10
17.1799826258
 20
2.3927194224
 11
17.2148606451
 21
2.3927194224
 72
2
 10
17.2148601055
 20
2.3902439622
 40
0.0024754602
 50
32.8959418574
 51
89.9875097202
 73
1
 72
1
 10
17.2169386463
 20
2.3915884218
 11
17.2225646494
 21
2.3828954169
 72
2
 10
17.2204866271
 20
2.3815506219
 40
0.0024752071
 50
270.0004896793
 51
32.9089806818
 73
1
 72
1
 10
17.2204866482
 20
2.3790754148
 11
17.2060356402
 21
2.3790754148
 72
2
 10
17.2060356384
 20
2.3766004153
 40
0.0024749995
 50
89.9999571958
 51
180.0000428043
 73
1
 72
1
 10
17.2035606388
 20
2.3766004134
 11
17.2035606388
 21
2.3568004025
 72
2
 10
17.2060356384
 20
2.3568004006
 40
0.0024749995
 50
179.9999571957
 51
270.0000428042
 73
1
 72
1
 10
17.2060356402
 20
2.3543254011
 11
17.3113166986
 21
2.3543254011
 72
2
 10
17.3113167005
 20
2.3568004006
 40
0.0024749995
 50
269.9999571957
 51
0.0000428043
 73
1
 72
1
 10
17.3137917
 20
2.3568004025
 11
17.3137917
 21
2.3766004134
 72
2
 10
17.3113167005
 20
2.3766004153
 40
0.0024749995
 50
359.9999571957
 51
90.0000428043
 73
1
 72
1
 10
17.3113166986
 20
2.3790754148
 11
17.2913006875
 21
2.3790754148
 72
2
 10
17.291300808
 20
2.3815494558
 40
0.002474041
 50
212.9056413127
 51
269.9972091756
 73
1
 72
1
 10
17.2892236864
 20
2.3802054154
 11
17.2414676599
 21
2.4540004564
 72
2
 10
17.2393900382
 20
2.4526554968
 40
0.0024749602
 50
32.9172174468
 51
90.0087853096
 73
1
 72
1
 10
17.2393896587
 20
2.455130457
 11
17.182214627
 21
2.455130457
 72
2
 10
17.1822145567
 20
2.4526552567
 40
0.0024752003
 50
89.998372645
 51
147.602165307
 73
1
 72
1
 10
17.1801246258
 20
2.4539814564
 11
17.1333245999
 21
2.3802244155
 72
2
 10
17.131234669
 20
2.3815506151
 40
0.0024752003
 50
269.998372645
 51
327.602165307
 73
1
 72
1
 10
17.1312345987
 20
2.3790754148
 11
17.1083735861
 21
2.3790754148
 72
2
 10
17.1083735842
 20
2.3766004153
 40
0.0024749995
 50
89.9999571957
 51
180.0000428043
 73
1
 72
1
 10
17.1058985847
 20
2.3766004134
 11
17.1058985847
 21
2.3568004025
 72
2
 10
17.1083735842
 20
2.3568004006
 40
0.0024749995
 50
179.9999571957
 51
270.0000428043
 73
1
 72
1
 10
17.1083735861
 20
2.3543254011
 11
17.185749629
 21
2.3543254011
 97
267
330
2A6
330
2A7
330
2A8
330
2A9
330
2AA
330
2AB
330
2AC
330
2AD
330
2AE
330
2AF
330
2B0
330
2B1
330
2B2
330
2B3
330
2B4
330
2B5
330
2B6
330
2B7
330
2B8
330
2B9
330
2BA
330
2BB
330
2BC
330
2BD
330
2BE
330
2BF
330
2C0
330
2C1
330
2C2
330
2C3
330
2C4
330
2C5
330
2C6
330
2C7
330
2C8
330
2C9
330
2CA
330
2CB
330
2CC
330
2CD
330
2CE
330
2CF
330
2D0
330
2D1
330
2D2
330
2D3
330
2D4
330
2D5
330
2D6
330
2D7
330
2D8
330
2D9
330
2DA
330
2DB
330
2DC
330
2DD
330
2DE
330
2DF
330
2E0
330
2E1
330
2E2
330
2E3
330
2E4
330
2E5
330
2E6
330
2E7
330
2E8
330
2E9
330
2EA
330
2EB
330
2EC
330
2ED
330
2EE
330
2EF
330
2F0
330
2F1
330
2F2
330
2F3
330
2F4
330
2F5
330
2F6
330
2F7
330
2F8
330
2F9
330
2FA
330
2FB
330
2FC
330
2FD
330
2FE
330
2FF
330
300
330
301
330
302
330
303
330
304
330
305
330
306
330
307
330
308
330
309
330
30A
330
30B
330
30C
330
30D
330
30E
330
30F
330
310
330
311
330
312
330
313
330
314
330
315
330
316
330
317
330
318
330
319
330
31A
330
31B
330
31C
330
31D
330
31E
330
31F
330
320
330
321
330
322
330
323
330
324
330
325
330
326
330
327
330
328
330
329
330
32A
330
32B
330
32C
330
32D
330
32E
330
32F
330
330
330
331
330
332
330
333
330
334
330
335
330
336
330
337
330
338
330
339
330
33A
330
33B
330
33C
330
33D
330
33E
330
33F
330
340
330
341
330
342
330
343
330
344
330
345
330
346
330
347
330
348
330
349
330
34A
330
34B
330
34C
330
34D
330
34E
330
34F
330
350
330
351
330
352
330
353
330
354
330
355
330
356
330
357
330
358
330
359
330
35A
330
35B
330
35C
330
35D
330
35E
330
35F
330
360
330
361
330
362
330
363
330
364
330
365
330
366
330
367
330
368
330
369
330
36A
330
36B
330
36C
330
36D
330
36E
330
36F
330
370
330
371
330
372
330
373
330
374
330
375
330
376
330
377
330
378
330
379
330
37A
330
37B
330
37C
330
37D
330
37E
330
37F
330
380
330
381
330
382
330
383
330
384
330
385
330
386
330
387
330
388
330
389
330
38A
330
38B
330
38C
330
38D
330
38E
330
38F
330
390
330
391
330
392
330
393
330
394
330
395
330
396
330
397
330
398
330
399
330
39A
330
39B
330
39C
330
39D
330
39E
330
39F
330
3A0
330
3A1
330
3A2
330
3A3
330
3A4
330
3A5
330
3A6
330
3A7
330
3A8
330
3A9
330
3AA
330
3AB
330
3AC
330
3AD
330
3AE
330
3AF
330
3B0
 92
1
 93
6
 72
2
 10
16.963795504
 20
2.3815504143
 40
0.0024749995
 50
179.9999571957
 51
270.0000428043
 73
1
 72
1
 10
16.9613205045
 20
2.3815504162
 11
16.9613205045
 21
2.3939254231
 72
2
 10
16.963795504
 20
2.3939254249
 40
0.0024749995
 50
89.9999571957
 51
180.0000428043
 73
1
 72
1
 10
16.9637955059
 20
2.3964004244
 11
17.0051585288
 21
2.3964004244
 72
2
 10
17.0051585288
 20
2.3877379196
 40
0.0086625048
 50
270.0
 51
90.0
 73
1
 72
1
 10
17.0051585288
 20
2.3790754148
 11
16.9637955059
 21
2.3790754148
 97
267
330
2A6
330
2A7
330
2A8
330
2A9
330
2AA
330
2AB
330
2AC
330
2AD
330
2AE
330
2AF
330
2B0
330
2B1
330
2B2
330
2B3
330
2B4
330
2B5
330
2B6
330
2B7
330
2B8
330
2B9
330
2BA
330
2BB
330
2BC
330
2BD
330
2BE
330
2BF
330
2C0
330
2C1
330
2C2
330
2C3
330
2C4
330
2C5
330
2C6
330
2C7
330
2C8
330
2C9
330
2CA
330
2CB
330
2CC
330
2CD
330
2CE
330
2CF
330
2D0
330
2D1
330
2D2
330
2D3
330
2D4
330
2D5
330
2D6
330
2D7
330
2D8
330
2D9
330
2DA
330
2DB
330
2DC
330
2DD
330
2DE
330
2DF
330
2E0
330
2E1
330
2E2
330
2E3
330
2E4
330
2E5
330
2E6
330
2E7
330
2E8
330
2E9
330
2EA
330
2EB
330
2EC
330
2ED
330
2EE
330
2EF
330
2F0
330
2F1
330
2F2
330
2F3
330
2F4
330
2F5
330
2F6
330
2F7
330
2F8
330
2F9
330
2FA
330
2FB
330
2FC
330
2FD
330
2FE
330
2FF
330
300
330
301
330
302
330
303
330
304
330
305
330
306
330
307
330
308
330
309
330
30A
330
30B
330
30C
330
30D
330
30E
330
30F
330
310
330
311
330
312
330
313
330
314
330
315
330
316
330
317
330
318
330
319
330
31A
330
31B
330
31C
330
31D
330
31E
330
31F
330
320
330
321
330
322
330
323
330
324
330
325
330
326
330
327
330
328
330
329
330
32A
330
32B
330
32C
330
32D
330
32E
330
32F
330
330
330
331
330
332
330
333
330
334
330
335
330
336
330
337
330
338
330
339
330
33A
330
33B
330
33C
330
33D
330
33E
330
33F
330
340
330
341
330
342
330
343
330
344
330
345
330
346
330
347
330
348
330
349
330
34A
330
34B
330
34C
330
34D
330
34E
330
34F
330
350
330
351
330
352
330
353
330
354
330
355
330
356
330
357
330
358
330
359
330
35A
330
35B
330
35C
330
35D
330
35E
330
35F
330
360
330
361
330
362
330
363
330
364
330
365
330
366
330
367
330
368
330
369
330
36A
330
36B
330
36C
330
36D
330
36E
330
36F
330
370
330
371
330
372
330
373
330
374
330
375
330
376
330
377
330
378
330
379
330
37A
330
37B
330
37C
330
37D
330
37E
330
37F
330
380
330
381
330
382
330
383
330
384
330
385
330
386
330
387
330
388
330
389
330
38A
330
38B
330
38C
330
38D
330
38E
330
38F
330
390
330
391
330
392
330
393
330
394
330
395
330
396
330
397
330
398
330
399
330
39A
330
39B
330
39C
330
39D
330
39E
330
39F
330
3A0
330
3A1
330
3A2
330
3A3
330
3A4
330
3A5
330
3A6
330
3A7
330
3A8
330
3A9
330
3AA
330
3AB
330
3AC
330
3AD
330
3AE
330
3AF
330
3B0
 92
1
 93
13
 72
2
 10
18.1572301659
 20
2.415180433
 40
0.0024749995
 50
179.9999571957
 51
270.0000428043
 73
1
 72
1
 10
18.1547551663
 20
2.4151804348
 11
18.1547551663
 21
2.4279054419
 72
2
 10
18.1572301659
 20
2.4279054437
 40
0.0024749995
 50
89.9999571957
 51
180.0000428043
 73
1
 72
1
 10
18.1572301677
 20
2.4303804433
 11
18.1940311881
 21
2.4303804433
 72
2
 10
18.1924863006
 20
2.4019259643
 40
0.0284963867
 50
70.3834917948
 51
86.8922743861
 73
1
 72
2
 10
18.1973459106
 20
2.4149676972
 40
0.0145814632
 50
54.6746025112
 51
71.1660573124
 73
1
 72
2
 10
18.2024754016
 20
2.4218216224
 40
0.0060275915
 50
20.9055592135
 51
56.7851676243
 73
1
 72
2
 10
18.2037759605
 20
2.4224819047
 40
0.0045795888
 50
355.6235353944
 51
18.9942678268
 73
1
 72
2
 10
18.2025691502
 20
2.4227756809
 40
0.0058087709
 50
318.8515287446
 51
353.6422345323
 73
1
 72
2
 10
18.198398534
 20
2.4260095887
 40
0.0110815393
 50
306.758405961
 51
320.4502234234
 73
1
 72
2
 10
18.1927693431
 20
2.4337504172
 40
0.0206523367
 50
289.6883413472
 51
306.4184925496
 73
1
 72
2
 10
18.1908418374
 20
2.4381440645
 40
0.0254407115
 50
270.7327484175
 51
290.441894219
 73
1
 72
1
 10
18.1911671865
 20
2.4127054335
 11
18.1572301677
 21
2.4127054335
 97
267
330
2A6
330
2A7
330
2A8
330
2A9
330
2AA
330
2AB
330
2AC
330
2AD
330
2AE
330
2AF
330
2B0
330
2B1
330
2B2
330
2B3
330
2B4
330
2B5
330
2B6
330
2B7
330
2B8
330
2B9
330
2BA
330
2BB
330
2BC
330
2BD
330
2BE
330
2BF
330
2C0
330
2C1
330
2C2
330
2C3
330
2C4
330
2C5
330
2C6
330
2C7
330
2C8
330
2C9
330
2CA
330
2CB
330
2CC
330
2CD
330
2CE
330
2CF
330
2D0
330
2D1
330
2D2
330
2D3
330
2D4
330
2D5
330
2D6
330
2D7
330
2D8
330
2D9
330
2DA
330
2DB
330
2DC
330
2DD
330
2DE
330
2DF
330
2E0
330
2E1
330
2E2
330
2E3
330
2E4
330
2E5
330
2E6
330
2E7
330
2E8
330
2E9
330
2EA
330
2EB
330
2EC
330
2ED
330
2EE
330
2EF
330
2F0
330
2F1
330
2F2
330
2F3
330
2F4
330
2F5
330
2F6
330
2F7
330
2F8
330
2F9
330
2FA
330
2FB
330
2FC
330
2FD
330
2FE
330
2FF
330
300
330
301
330
302
330
303
330
304
330
305
330
306
330
307
330
308
330
309
330
30A
330
30B
330
30C
330
30D
330
30E
330
30F
330
310
330
311
330
312
330
313
330
314
330
315
330
316
330
317
330
318
330
319
330
31A
330
31B
330
31C
330
31D
330
31E
330
31F
330
320
330
321
330
322
330
323
330
324
330
325
330
326
330
327
330
328
330
329
330
32A
330
32B
330
32C
330
32D
330
32E
330
32F
330
330
330
331
330
332
330
333
330
334
330
335
330
336
330
337
330
338
330
339
330
33A
330
33B
330
33C
330
33D
330
33E
330
33F
330
340
330
341
330
342
330
343
330
344
330
345
330
346
330
347
330
348
330
349
330
34A
330
34B
330
34C
330
34D
330
34E
330
34F
330
350
330
351
330
352
330
353
330
354
330
355
330
356
330
357
330
358
330
359
330
35A
330
35B
330
35C
330
35D
330
35E
330
35F
330
360
330
361
330
362
330
363
330
364
330
365
330
366
330
367
330
368
330
369
330
36A
330
36B
330
36C
330
36D
330
36E
330
36F
330
370
330
371
330
372
330
373
330
374
330
375
330
376
330
377
330
378
330
379
330
37A
330
37B
330
37C
330
37D
330
37E
330
37F
330
380
330
381
330
382
330
383
330
384
330
385
330
386
330
387
330
388
330
389
330
38A
330
38B
330
38C
330
38D
330
38E
330
38F
330
390
330
391
330
392
330
393
330
394
330
395
330
396
330
397
330
398
330
399
330
39A
330
39B
330
39C
330
39D
330
39E
330
39F
330
3A0
330
3A1
330
3A2
330
3A3
330
3A4
330
3A5
330
3A6
330
3A7
330
3A8
330
3A9
330
3AA
330
3AB
330
3AC
330
3AD
330
3AE
330
3AF
330
3B0
 92
1
 93
6
 72
2
 10
17.0051585288
 20
2.4217179385
 40
0.0086625048
 50
270.0
 51
90.0
 73
1
 72
1
 10
17.0051585288
 20
2.4303804433
 11
16.9637955059
 21
2.4303804433
 72
2
 10
16.963795504
 20
2.4279054437
 40
0.0024749995
 50
89.9999571957
 51
180.0000428043
 73
1
 72
1
 10
16.9613205045
 20
2.4279054419
 11
16.9613205045
 21
2.415530435
 72
2
 10
16.963795504
 20
2.4155304332
 40
0.0024749995
 50
179.9999571957
 51
270.0000428043
 73
1
 72
1
 10
16.9637955059
 20
2.4130554337
 11
17.0051585288
 21
2.4130554337
 97
267
330
2A6
330
2A7
330
2A8
330
2A9
330
2AA
330
2AB
330
2AC
330
2AD
330
2AE
330
2AF
330
2B0
330
2B1
330
2B2
330
2B3
330
2B4
330
2B5
330
2B6
330
2B7
330
2B8
330
2B9
330
2BA
330
2BB
330
2BC
330
2BD
330
2BE
330
2BF
330
2C0
330
2C1
330
2C2
330
2C3
330
2C4
330
2C5
330
2C6
330
2C7
330
2C8
330
2C9
330
2CA
330
2CB
330
2CC
330
2CD
330
2CE
330
2CF
330
2D0
330
2D1
330
2D2
330
2D3
330
2D4
330
2D5
330
2D6
330
2D7
330
2D8
330
2D9
330
2DA
330
2DB
330
2DC
330
2DD
330
2DE
330
2DF
330
2E0
330
2E1
330
2E2
330
2E3
330
2E4
330
2E5
330
2E6
330
2E7
330
2E8
330
2E9
330
2EA
330
2EB
330
2EC
330
2ED
330
2EE
330
2EF
330
2F0
330
2F1
330
2F2
330
2F3
330
2F4
330
2F5
330
2F6
330
2F7
330
2F8
330
2F9
330
2FA
330
2FB
330
2FC
330
2FD
330
2FE
330
2FF
330
300
330
301
330
302
330
303
330
304
330
305
330
306
330
307
330
308
330
309
330
30A
330
30B
330
30C
330
30D
330
30E
330
30F
330
310
330
311
330
312
330
313
330
314
330
315
330
316
330
317
330
318
330
319
330
31A
330
31B
330
31C
330
31D
330
31E
330
31F
330
320
330
321
330
322
330
323
330
324
330
325
330
326
330
327
330
328
330
329
330
32A
330
32B
330
32C
330
32D
330
32E
330
32F
330
330
330
331
330
332
330
333
330
334
330
335
330
336
330
337
330
338
330
339
330
33A
330
33B
330
33C
330
33D
330
33E
330
33F
330
340
330
341
330
342
330
343
330
344
330
345
330
346
330
347
330
348
330
349
330
34A
330
34B
330
34C
330
34D
330
34E
330
34F
330
350
330
351
330
352
330
353
330
354
330
355
330
356
330
357
330
358
330
359
330
35A
330
35B
330
35C
330
35D
330
35E
330
35F
330
360
330
361
330
362
330
363
330
364
330
365
330
366
330
367
330
368
330
369
330
36A
330
36B
330
36C
330
36D
330
36E
330
36F
330
370
330
371
330
372
330
373
330
374
330
375
330
376
330
377
330
378
330
379
330
37A
330
37B
330
37C
330
37D
330
37E
330
37F
330
380
330
381
330
382
330
383
330
384
330
385
330
386
330
387
330
388
330
389
330
38A
330
38B
330
38C
330
38D
330
38E
330
38F
330
390
330
391
330
392
330
393
330
394
330
395
330
396
330
397
330
398
330
399
330
39A
330
39B
330
39C
330
39D
330
39E
330
39F
330
3A0
330
3A1
330
3A2
330
3A3
330
3A4
330
3A5
330
3A6
330
3A7
330
3A8
330
3A9
330
3AA
330
3AB
330
3AC
330
3AD
330
3AE
330
3AF
330
3B0
 92
1
 93
8
 72
2
 10
17.2090556207
 20
2.4161446411
 40
0.0024752071
 50
270.0004896793
 51
32.9089806818
 73
1
 72
1
 10
17.211133643
 20
2.4174894361
 11
17.203874639
 21
2.4287054423
 72
2
 10
17.2017960982
 20
2.4273609828
 40
0.0024754602
 50
32.8959418573
 51
89.9875097202
 73
1
 72
1
 10
17.2017966379
 20
2.429836443
 11
17.1956156344
 21
2.429836443
 72
2
 10
17.1956155641
 20
2.4273612427
 40
0.0024752003
 50
89.998372645
 51
147.6021653069
 73
1
 72
1
 10
17.1935256333
 20
2.4286874423
 11
17.1864086293
 21
2.4174704361
 72
2
 10
17.1884985212
 20
2.4161444741
 40
0.0024750401
 50
147.6063258012
 51
270.0025305753
 73
1
 72
1
 10
17.1884986305
 20
2.413669434
 11
17.2090556419
 21
2.413669434
 97
267
330
2A6
330
2A7
330
2A8
330
2A9
330
2AA
330
2AB
330
2AC
330
2AD
330
2AE
330
2AF
330
2B0
330
2B1
330
2B2
330
2B3
330
2B4
330
2B5
330
2B6
330
2B7
330
2B8
330
2B9
330
2BA
330
2BB
330
2BC
330
2BD
330
2BE
330
2BF
330
2C0
330
2C1
330
2C2
330
2C3
330
2C4
330
2C5
330
2C6
330
2C7
330
2C8
330
2C9
330
2CA
330
2CB
330
2CC
330
2CD
330
2CE
330
2CF
330
2D0
330
2D1
330
2D2
330
2D3
330
2D4
330
2D5
330
2D6
330
2D7
330
2D8
330
2D9
330
2DA
330
2DB
330
2DC
330
2DD
330
2DE
330
2DF
330
2E0
330
2E1
330
2E2
330
2E3
330
2E4
330
2E5
330
2E6
330
2E7
330
2E8
330
2E9
330
2EA
330
2EB
330
2EC
330
2ED
330
2EE
330
2EF
330
2F0
330
2F1
330
2F2
330
2F3
330
2F4
330
2F5
330
2F6
330
2F7
330
2F8
330
2F9
330
2FA
330
2FB
330
2FC
330
2FD
330
2FE
330
2FF
330
300
330
301
330
302
330
303
330
304
330
305
330
306
330
307
330
308
330
309
330
30A
330
30B
330
30C
330
30D
330
30E
330
30F
330
310
330
311
330
312
330
313
330
314
330
315
330
316
330
317
330
318
330
319
330
31A
330
31B
330
31C
330
31D
330
31E
330
31F
330
320
330
321
330
322
330
323
330
324
330
325
330
326
330
327
330
328
330
329
330
32A
330
32B
330
32C
330
32D
330
32E
330
32F
330
330
330
331
330
332
330
333
330
334
330
335
330
336
330
337
330
338
330
339
330
33A
330
33B
330
33C
330
33D
330
33E
330
33F
330
340
330
341
330
342
330
343
330
344
330
345
330
346
330
347
330
348
330
349
330
34A
330
34B
330
34C
330
34D
330
34E
330
34F
330
350
330
351
330
352
330
353
330
354
330
355
330
356
330
357
330
358
330
359
330
35A
330
35B
330
35C
330
35D
330
35E
330
35F
330
360
330
361
330
362
330
363
330
364
330
365
330
366
330
367
330
368
330
369
330
36A
330
36B
330
36C
330
36D
330
36E
330
36F
330
370
330
371
330
372
330
373
330
374
330
375
330
376
330
377
330
378
330
379
330
37A
330
37B
330
37C
330
37D
330
37E
330
37F
330
380
330
381
330
382
330
383
330
384
330
385
330
386
330
387
330
388
330
389
330
38A
330
38B
330
38C
330
38D
330
38E
330
38F
330
390
330
391
330
392
330
393
330
394
330
395
330
396
330
397
330
398
330
399
330
39A
330
39B
330
39C
330
39D
330
39E
330
39F
330
3A0
330
3A1
330
3A2
330
3A3
330
3A4
330
3A5
330
3A6
330
3A7
330
3A8
330
3A9
330
3AA
330
3AB
330
3AC
330
3AD
330
3AE
330
3AF
330
3B0
 92
1
 93
1
 72
3
 10
17.573550844
 20
2.4034764283
 11
-0.8250004575
 21
0.0
 40
0.218572
 50
0.0
 51
-0.0
 73
1
 97
267
330
2A6
330
2A7
330
2A8
330
2A9
330
2AA
330
2AB
330
2AC
330
2AD
330
2AE
330
2AF
330
2B0
330
2B1
330
2B2
330
2B3
330
2B4
330
2B5
330
2B6
330
2B7
330
2B8
330
2B9
330
2BA
330
2BB
330
2BC
330
2BD
330
2BE
330
2BF
330
2C0
330
2C1
330
2C2
330
2C3
330
2C4
330
2C5
330
2C6
330
2C7
330
2C8
330
2C9
330
2CA
330
2CB
330
2CC
330
2CD
330
2CE
330
2CF
330
2D0
330
2D1
330
2D2
330
2D3
330
2D4
330
2D5
330
2D6
330
2D7
330
2D8
330
2D9
330
2DA
330
2DB
330
2DC
330
2DD
330
2DE
330
2DF
330
2E0
330
2E1
330
2E2
330
2E3
330
2E4
330
2E5
330
2E6
330
2E7
330
2E8
330
2E9
330
2EA
330
2EB
330
2EC
330
2ED
330
2EE
330
2EF
330
2F0
330
2F1
330
2F2
330
2F3
330
2F4
330
2F5
330
2F6
330
2F7
330
2F8
330
2F9
330
2FA
330
2FB
330
2FC
330
2FD
330
2FE
330
2FF
330
300
330
301
330
302
330
303
330
304
330
305
330
306
330
307
330
308
330
309
330
30A
330
30B
330
30C
330
30D
330
30E
330
30F
330
310
330
311
330
312
330
313
330
314
330
315
330
316
330
317
330
318
330
319
330
31A
330
31B
330
31C
330
31D
330
31E
330
31F
330
320
330
321
330
322
330
323
330
324
330
325
330
326
330
327
330
328
330
329
330
32A
330
32B
330
32C
330
32D
330
32E
330
32F
330
330
330
331
330
332
330
333
330
334
330
335
330
336
330
337
330
338
330
339
330
33A
330
33B
330
33C
330
33D
330
33E
330
33F
330
340
330
341
330
342
330
343
330
344
330
345
330
346
330
347
330
348
330
349
330
34A
330
34B
330
34C
330
34D
330
34E
330
34F
330
350
330
351
330
352
330
353
330
354
330
355
330
356
330
357
330
358
330
359
330
35A
330
35B
330
35C
330
35D
330
35E
330
35F
330
360
330
361
330
362
330
363
330
364
330
365
330
366
330
367
330
368
330
369
330
36A
330
36B
330
36C
330
36D
330
36E
330
36F
330
370
330
371
330
372
330
373
330
374
330
375
330
376
330
377
330
378
330
379
330
37A
330
37B
330
37C
330
37D
330
37E
330
37F
330
380
330
381
330
382
330
383
330
384
330
385
330
386
330
387
330
388
330
389
330
38A
330
38B
330
38C
330
38D
330
38E
330
38F
330
390
330
391
330
392
330
393
330
394
330
395
330
396
330
397
330
398
330
399
330
39A
330
39B
330
39C
330
39D
330
39E
330
39F
330
3A0
330
3A1
330
3A2
330
3A3
330
3A4
330
3A5
330
3A6
330
3A7
330
3A8
330
3A9
330
3AA
330
3AB
330
3AC
330
3AD
330
3AE
330
3AF
330
3B0
 75
0
 76
1
 98
1
 10
0.0
 20
0.0
  0
LINE
  5
3B2
100
AcDbEntity
  8
0
100
AcDbLine
 62
7
  6
CONTINUOUS
 10
21.05
 20
2.67
 11
14.7
 21
2.67
  0
LINE
  5
3B3
100
AcDbEntity
  8
0
100
AcDbLine
 62
7
  6
CONTINUOUS
 10
6.007
 20
0.75
 11
6.007
 21
0.5
  0
LINE
  5
3B4
100
AcDbEntity
  8
0
100
AcDbLine
 62
7
  6
CONTINUOUS
 10
6.007
 20
15.75
 11
6.007
 21
16.0
  0
LINE
  5
3B5
100
AcDbEntity
  8
0
100
AcDbLine
 62
7
  6
CONTINUOUS
 10
0.814
 20
8.163397
 11
0.964
 21
8.25
  0
LINE
  5
3B6
100
AcDbEntity
  8
0
100
AcDbLine
 62
7
  6
CONTINUOUS
 10
0.964
 20
8.25
 11
0.814
 21
8.336603
  0
LINE
  5
3B7
100
AcDbEntity
  8
0
100
AcDbLine
 62
7
  6
CONTINUOUS
 10
0.964
 20
4.4
 11
0.714
 21
4.4
  0
LINE
  5
3B8
100
AcDbEntity
  8
0
100
AcDbLine
 62
7
  6
CONTINUOUS
 10
21.05
 20
4.4
 11
21.3
 21
4.4
  0
LINE
  5
3B9
100
AcDbEntity
  8
0
100
AcDbLine
 62
7
  6
CONTINUOUS
 10
11.093603
 20
0.6
 11
11.007
 21
0.75
  0
LINE
  5
3BA
100
AcDbEntity
  8
0
100
AcDbLine
 62
7
  6
CONTINUOUS
 10
11.007
 20
15.75
 11
11.093603
 21
15.9
  0
LINE
  5
3BB
100
AcDbEntity
  8
0
100
AcDbLine
 62
7
  6
CONTINUOUS
 10
8.507
 20
0.75
 11
8.507
 21
0.5
  0
LINE
  5
3BC
100
AcDbEntity
  8
0
100
AcDbLine
 62
7
  6
CONTINUOUS
 10
8.507
 20
15.75
 11
8.507
 21
16.0
  0
LINE
  5
3BD
100
AcDbEntity
  8
0
100
AcDbLine
 62
7
  6
CONTINUOUS
 10
11.007
 20
0.75
 11
11.007
 21
0.5
  0
LINE
  5
3BE
100
AcDbEntity
  8
0
100
AcDbLine
 62
7
  6
CONTINUOUS
 10
11.007
 20
15.75
 11
11.007
 21
16.0
  0
LINE
  5
3BF
100
AcDbEntity
  8
0
100
AcDbLine
 62
7
  6
CONTINUOUS
 10
0.964
 20
8.25
 11
0.714
 21
8.25
  0
LINE
  5
3C0
100
AcDbEntity
  8
0
100
AcDbLine
 62
7
  6
CONTINUOUS
 10
21.05
 20
8.25
 11
21.3
 21
8.25
  0
LINE
  5
3C1
100
AcDbEntity
  8
0
100
AcDbLine
 62
7
  6
CONTINUOUS
 10
13.507
 20
0.75
 11
13.507
 21
0.5
  0
LINE
  5
3C2
100
AcDbEntity
  8
0
100
AcDbLine
 62
7
  6
CONTINUOUS
 10
13.507
 20
15.75
 11
13.507
 21
16.0
  0
LINE
  5
3C3
100
AcDbEntity
  8
0
100
AcDbLine
 62
7
  6
CONTINUOUS
 10
14.7
 20
2.67
 11
14.7
 21
0.75
  0
LINE
  5
3C4
100
AcDbEntity
  8
0
100
AcDbLine
 62
7
  6
CONTINUOUS
 10
11.007
 20
0.75
 11
10.920397
 21
0.6
  0
LINE
  5
3C5
100
AcDbEntity
  8
0
100
AcDbLine
 62
7
  6
CONTINUOUS
 10
0.964
 20
12.1
 11
0.714
 21
12.1
  0
LINE
  5
3C6
100
AcDbEntity
  8
0
100
AcDbLine
 62
7
  6
CONTINUOUS
 10
21.05
 20
12.1
 11
21.3
 21
12.1
  0
LINE
  5
3C7
100
AcDbEntity
  8
0
100
AcDbLine
 62
7
  6
CONTINUOUS
 10
10.920397
 20
15.9
 11
11.007
 21
15.75
  0
LINE
  5
3C8
100
AcDbEntity
  8
0
100
AcDbLine
 62
7
  6
CONTINUOUS
 10
15.2229827477
 20
1.0139932523
 11
15.2229827477
 21
0.7919022523
  0
LINE
  5
3C9
100
AcDbEntity
  8
0
100
AcDbLine
 62
7
  6
CONTINUOUS
 10
15.2229827477
 20
1.0639932523
 11
15.2229827477
 21
1.1639932523
  0
LINE
  5
3CA
100
AcDbEntity
  8
0
100
AcDbLine
 62
7
  6
CONTINUOUS
 10
15.2229827477
 20
1.2139932523
 11
15.2229827477
 21
1.4360842523
  0
LINE
  5
3CB
100
AcDbEntity
  8
0
100
AcDbLine
 62
7
  6
CONTINUOUS
 10
15.8276527477
 20
0.9312952523
 11
15.8276527477
 21
1.2966912523
  0
LINE
  5
3CC
100
AcDbEntity
  8
0
100
AcDbLine
 62
7
  6
CONTINUOUS
 10
16.007
 20
0.75
 11
16.007
 21
0.5
  0
LINE
  5
3CD
100
AcDbEntity
  8
0
100
AcDbLine
 62
7
  6
CONTINUOUS
 10
16.007
 20
15.75
 11
16.007
 21
16.0
  0
LINE
  5
3CE
100
AcDbEntity
  8
0
100
AcDbLine
 62
7
  6
CONTINUOUS
 10
16.4340437477
 20
1.3660842523
 11
16.4340437477
 21
0.8619022523
  0
LINE
  5
3CF
100
AcDbEntity
  8
0
100
AcDbLine
 62
7
  6
CONTINUOUS
 10
21.2
 20
8.336603
 11
21.05
 21
8.25
  0
LINE
  5
3D0
100
AcDbEntity
  8
0
100
AcDbLine
 62
7
  6
CONTINUOUS
 10
21.05
 20
8.25
 11
21.2
 21
8.163397
  0
LINE
  5
3D1
100
AcDbEntity
  8
0
100
AcDbLine
 62
7
  6
CONTINUOUS
 10
16.7
 20
2.67
 11
16.7
 21
0.75
  0
LINE
  5
3D2
100
AcDbEntity
  8
0
100
AcDbLine
 62
7
  6
CONTINUOUS
 10
17.5
 20
1.37
 11
17.5
 21
1.0
  0
LINE
  5
3D3
100
AcDbEntity
  8
0
100
AcDbLine
 62
7
  6
CONTINUOUS
 10
18.507
 20
0.75
 11
18.507
 21
0.5
  0
LINE
  5
3D4
100
AcDbEntity
  8
0
100
AcDbLine
 62
7
  6
CONTINUOUS
 10
18.507
 20
15.75
 11
18.507
 21
16.0
  0
LINE
  5
3D5
100
AcDbEntity
  8
0
100
AcDbLine
 62
7
  6
CONTINUOUS
 10
21.05
 20
15.75
 11
0.964
 21
15.75
  0
LINE
  5
3D6
100
AcDbEntity
  8
0
100
AcDbLine
 62
7
  6
CONTINUOUS
 10
11.093603
 20
15.9
 11
10.920397
 21
15.9
  0
LINE
  5
3D7
100
AcDbEntity
  8
0
100
AcDbLine
 62
7
  6
CONTINUOUS
 10
18.875
 20
1.0
 11
18.875
 21
0.75
  0
LINE
  5
3D8
100
AcDbEntity
  8
0
100
AcDbLine
 62
7
  6
CONTINUOUS
 10
20.25
 20
1.37
 11
20.25
 21
1.0
  0
LINE
  5
3D9
100
AcDbEntity
  8
0
100
AcDbLine
 62
7
  6
CONTINUOUS
 10
21.05
 20
0.75
 11
21.05
 21
15.75
  0
LINE
  5
3DA
100
AcDbEntity
  8
0
100
AcDbLine
 62
7
  6
CONTINUOUS
 10
21.2
 20
8.163397
 11
21.2
 21
8.336603
  0
LWPOLYLINE
  5
3DB
100
AcDbEntity
  8
AXIS
100
AcDbPolyline
 62
7
  6
CONTINUOUS
 90
3
 70
0
 10
18.9822152307
 20
3.4044662912
 10
19.0057549109
 20
3.3939351688
 10
19.0061531005
 20
3.3937995153
  0
LINE
  5
3DC
100
AcDbEntity
  8
0
100
AcDbLine
 62
7
  6
CONTINUOUS
 10
18.798056833
 20
3.4107528657
 11
18.839258502
 21
3.3869656092
  0
LINE
  5
3DD
100
AcDbEntity
  8
AXIS
100
AcDbLine
 62
7
  6
CONTINUOUS
 10
19.0628053954
 20
3.2579036698
 11
19.1112451955
 21
3.2299375709
  0
LINE
  5
3DE
100
AcDbEntity
  8
0
100
AcDbLine
 62
7
  6
CONTINUOUS
 10
19.0364279755
 20
3.2755432681
 11
18.8728740529
 21
3.3699690332
  0
LINE
  5
3DF
100
AcDbEntity
  8
AXIS
100
AcDbLine
 62
7
  6
CONTINUOUS
 10
18.8412072296
 20
3.4453102004
 11
18.8655663244
 21
3.4312467886
  0
LINE
  5
3E0
100
AcDbEntity
  8
AXIS
100
AcDbLine
 62
7
  6
CONTINUOUS
 10
19.0628053954
 20
3.3173733341
 11
19.0680947989
 21
3.3143195646
  0
LINE
  5
3E1
100
AcDbEntity
  8
0
100
AcDbLine
 62
7
  6
CONTINUOUS
 10
19.0642669411
 20
3.3205477499
 11
19.0364279755
 21
3.3366202206
  0
LINE
  5
3E2
100
AcDbEntity
  8
0
100
AcDbLine
 62
7
  6
CONTINUOUS
 10
18.8728740529
 20
3.4310459856
 11
18.8450350873
 21
3.4471184563
  0
LINE
  5
3E3
100
AcDbEntity
  8
0
100
AcDbLine
 62
7
  6
CONTINUOUS
 10
18.8412072296
 20
3.4662049473
 11
19.0680947989
 21
3.3352143115
  0
LINE
  5
3E4
100
AcDbEntity
  8
AXIS
100
AcDbLine
 62
7
  6
CONTINUOUS
 10
18.9611576067
 20
3.416623641
 11
18.9822152307
 21
3.4044662912
  0
LINE
  5
3E5
100
AcDbEntity
  8
0
100
AcDbLine
 62
7
  6
CONTINUOUS
 10
19.0002825333
 20
3.3963833872
 11
18.9841599468
 21
3.4056915563
  0
LINE
  5
3E6
100
AcDbEntity
  8
0
100
AcDbLine
 62
7
  6
CONTINUOUS
 10
18.9386433135
 20
3.4509362709
 11
19.0061531005
 21
3.4119603589
  0
LWPOLYLINE
  5
3E7
100
AcDbEntity
  8
AXIS
100
AcDbPolyline
 62
7
  6
CONTINUOUS
 90
3
 70
0
 10
18.9280110133
 20
3.4447977461
 10
18.942916711
 20
3.4302139998
 10
18.9611576067
 20
3.416623641
  0
LWPOLYLINE
  5
3E8
100
AcDbEntity
  8
AXIS
100
AcDbPolyline
 62
7
  6
CONTINUOUS
 90
4
 70
0
 10
19.3459313782
 20
3.4387322047
 10
19.3434435899
 20
3.4397565163
 10
19.3376231735
 20
3.4398205941
 10
19.3311711921
 20
3.4372755574
  0
LINE
  5
3E9
100
AcDbEntity
  8
0
100
AcDbLine
 62
7
  6
CONTINUOUS
 10
18.9031489279
 20
3.5847433695
 11
19.0061531005
 21
3.5252752281
  0
LINE
  5
3EA
100
AcDbEntity
  8
AXIS
100
AcDbLine
 62
7
  6
CONTINUOUS
 10
19.3520502424
 20
3.393074923
 11
19.3311710182
 21
3.405129276
  0
LINE
  5
3EB
100
AcDbEntity
  8
AXIS
100
AcDbLine
 62
7
  6
CONTINUOUS
 10
19.3520502424
 20
3.4252206875
 11
19.3311710182
 21
3.4372750405
  0
LINE
  5
3EC
100
AcDbEntity
  8
0
100
AcDbLine
 62
7
  6
CONTINUOUS
 10
19.4146873933
 20
3.4854933709
 11
19.4077275317
 21
3.489511558
  0
LINE
  5
3ED
100
AcDbEntity
  8
0
100
AcDbLine
 62
7
  6
CONTINUOUS
 10
19.5223732768
 20
5.7300964781
 11
19.1157885704
 21
5.4953560896
  0
LINE
  5
3EE
100
AcDbEntity
  8
0
100
AcDbLine
 62
7
  6
CONTINUOUS
 10
19.7306544135
 20
5.8489997951
 11
19.5248370116
 21
5.730171772
  0
LINE
  5
3EF
100
AcDbEntity
  8
0
100
AcDbLine
 62
7
  6
CONTINUOUS
 10
19.1163718954
 20
5.4943457349
 11
18.909411768
 21
5.3748579629
  0
LINE
  5
3F0
100
AcDbEntity
  8
0
100
AcDbLine
 62
7
  6
CONTINUOUS
 10
19.1195385536
 20
5.4949846575
 11
19.52612326
 21
5.729725046
  0
LINE
  5
3F1
100
AcDbEntity
  8
0
100
AcDbLine
 62
7
  6
CONTINUOUS
 10
19.743181948
 20
5.8417671833
 11
19.672193177
 21
5.8007820419
  0
LINE
  5
3F2
100
AcDbEntity
  8
0
100
AcDbLine
 62
7
  6
CONTINUOUS
 10
18.9219393025
 20
5.3676253511
 11
18.9929280735
 21
5.4086104925
  0
LWPOLYLINE
  5
3F3
100
AcDbEntity
  8
0
100
AcDbPolyline
 62
7
  6
CONTINUOUS
 90
9
 70
0
 10
19.423593601
 20
5.6154169124
 10
19.4337182217
 20
5.6196638586
 10
19.4456204469
 20
5.6218966262
 10
19.4581352041
 20
5.6218966563
 10
19.4700374616
 20
5.6196639459
 10
19.4801621435
 20
5.6154170483
 10
19.4875181754
 20
5.6095716794
 10
19.4913854976
 20
5.6027000247
 10
19.4918689327
 20
5.5990872822
  0
LWPOLYLINE
  5
3F4
100
AcDbEntity
  8
0
100
AcDbPolyline
 62
7
  6
CONTINUOUS
 90
8
 70
0
 10
19.423593601
 20
5.6133756563
 10
19.4337182217
 20
5.6176226026
 10
19.4456204469
 20
5.6198553702
 10
19.4581352041
 20
5.6198554003
 10
19.4700374616
 20
5.6176226899
 10
19.4801621435
 20
5.6133757923
 10
19.4875181754
 20
5.6075304234
 10
19.4913854976
 20
5.6006587687
  0
LWPOLYLINE
  5
3F5
100
AcDbEntity
  8
0
100
AcDbPolyline
 62
7
  6
CONTINUOUS
 90
9
 70
0
 10
19.3245990638
 20
5.5582627308
 10
19.3347236844
 20
5.5625096771
 10
19.3466259097
 20
5.5647424447
 10
19.3591406669
 20
5.5647424748
 10
19.3710429244
 20
5.5625097644
 10
19.3811676063
 20
5.5582628668
 10
19.3885236382
 20
5.5524174979
 10
19.3923909604
 20
5.5455458432
 10
19.3928743955
 20
5.5419331006
  0
LWPOLYLINE
  5
3F6
100
AcDbEntity
  8
0
100
AcDbPolyline
 62
7
  6
CONTINUOUS
 90
8
 70
0
 10
19.3245990638
 20
5.5562214748
 10
19.3347236844
 20
5.560468421
 10
19.3466259097
 20
5.5627011886
 10
19.3591406669
 20
5.5627012187
 10
19.3710429244
 20
5.5604685083
 10
19.3811676063
 20
5.5562216107
 10
19.3885236382
 20
5.5503762419
 10
19.3923909604
 20
5.5435045871
  0
LINE
  5
3F7
100
AcDbEntity
  8
0
100
AcDbLine
 62
7
  6
CONTINUOUS
 10
18.7528220974
 20
5.107180608
 11
18.909411768
 21
5.3748579629
  0
LINE
  5
3F8
100
AcDbEntity
  8
0
100
AcDbLine
 62
7
  6
CONTINUOUS
 10
18.7653496319
 20
5.0999479962
 11
18.9219393025
 21
5.3676253511
  0
LINE
  5
3F9
100
AcDbEntity
  8
0
100
AcDbLine
 62
7
  6
CONTINUOUS
 10
19.2571392901
 20
5.5177165735
 11
19.2644952376
 21
5.5235619777
  0
LINE
  5
3FA
100
AcDbEntity
  8
0
100
AcDbLine
 62
7
  6
CONTINUOUS
 10
19.4162376535
 20
5.6095715081
 11
19.423593601
 21
5.6154169124
  0
LINE
  5
3FB
100
AcDbEntity
  8
0
100
AcDbLine
 62
7
  6
CONTINUOUS
 10
19.2644952376
 20
5.5235619777
 11
19.3245990638
 21
5.5582627308
  0
LINE
  5
3FC
100
AcDbEntity
  8
0
100
AcDbLine
 62
7
  6
CONTINUOUS
 10
19.2644952376
 20
5.5215207217
 11
19.3245990638
 21
5.5562214748
  0
LINE
  5
3FD
100
AcDbEntity
  8
0
100
AcDbLine
 62
7
  6
CONTINUOUS
 10
19.3519742461
 20
5.5460734788
 11
19.2610950623
 21
5.4936046708
  0
LINE
  5
3FE
100
AcDbEntity
  8
0
100
AcDbLine
 62
7
  6
CONTINUOUS
 10
19.8308746895
 20
5.7911389008
 11
19.7598859185
 21
5.7501537594
  0
LINE
  5
3FF
100
AcDbEntity
  8
0
100
AcDbLine
 62
7
  6
CONTINUOUS
 10
19.009632044
 20
5.3169970685
 11
19.080620815
 21
5.35798221
  0
LINE
  5
400
100
AcDbEntity
  8
0
100
AcDbLine
 62
7
  6
CONTINUOUS
 10
19.3811678418
 20
5.5256034704
 11
19.3210640157
 21
5.4909027174
  0
LINE
  5
401
100
AcDbEntity
  8
0
100
AcDbLine
 62
7
  6
CONTINUOUS
 10
19.843402224
 20
5.783906289
 11
19.772413453
 21
5.7429211476
  0
LINE
  5
402
100
AcDbEntity
  8
0
100
AcDbLine
 62
7
  6
CONTINUOUS
 10
19.0221595785
 20
5.3097644567
 11
19.0931483495
 21
5.3507495982
  0
LWPOLYLINE
  5
403
100
AcDbEntity
  8
0
100
AcDbPolyline
 62
7
  6
CONTINUOUS
 90
8
 70
0
 10
19.480162379
 20
5.582757652
 10
19.4700377584
 20
5.5785107057
 10
19.4581355331
 20
5.5762779381
 10
19.4456207759
 20
5.576277908
 10
19.4337185184
 20
5.5785106184
 10
19.4235938365
 20
5.582757516
 10
19.4162378047
 20
5.5886028849
 10
19.4123704825
 20
5.5954745396
  0
LWPOLYLINE
  5
404
100
AcDbEntity
  8
0
100
AcDbPolyline
 62
7
  6
CONTINUOUS
 90
8
 70
0
 10
19.3210640157
 20
5.4909027174
 10
19.310939395
 20
5.4866557711
 10
19.2990371697
 20
5.4844230035
 10
19.2865224125
 20
5.4844229734
 10
19.274620155
 20
5.4866556838
 10
19.2644954732
 20
5.4909025814
 10
19.2571394413
 20
5.4967479503
 10
19.2532721191
 20
5.503619605
  0
LINE
  5
405
100
AcDbEntity
  8
0
100
AcDbLine
 62
7
  6
CONTINUOUS
 10
18.9386433135
 20
3.4509362709
 11
18.9031489279
 21
3.5847433695
  0
LINE
  5
406
100
AcDbEntity
  8
0
100
AcDbLine
 62
7
  6
CONTINUOUS
 10
18.7969695611
 20
4.8936524123
 11
18.7969695611
 21
5.0077698761
  0
LINE
  5
407
100
AcDbEntity
  8
0
100
AcDbLine
 62
7
  6
CONTINUOUS
 10
18.798056833
 20
4.8151661504
 11
18.798056833
 21
3.4107528657
  0
LINE
  5
408
100
AcDbEntity
  8
0
100
AcDbLine
 62
7
  6
CONTINUOUS
 10
18.7987790939
 20
4.8926077017
 11
18.7987790939
 21
4.9848029955
  0
LINE
  5
409
100
AcDbEntity
  8
0
100
AcDbLine
 62
7
  6
CONTINUOUS
 10
18.7496509573
 20
4.8431126635
 11
18.7528220974
 21
5.107180608
  0
LINE
  5
40A
100
AcDbEntity
  8
0
100
AcDbLine
 62
7
  6
CONTINUOUS
 10
18.7653496319
 20
5.0999479962
 11
18.7626342133
 21
4.8738290083
  0
LINE
  5
40B
100
AcDbEntity
  8
0
100
AcDbLine
 62
7
  6
CONTINUOUS
 10
18.8530423734
 20
5.0493197136
 11
19.009632044
 21
5.3169970685
  0
LINE
  5
40C
100
AcDbEntity
  8
0
100
AcDbLine
 62
7
  6
CONTINUOUS
 10
18.8655699079
 20
5.0420871019
 11
19.0221595785
 21
5.3097644567
  0
LWPOLYLINE
  5
40D
100
AcDbEntity
  8
0
100
AcDbPolyline
 62
7
  6
CONTINUOUS
 90
9
 70
0
 10
19.584721694
 20
5.7123227685
 10
19.5896432813
 20
5.7170231272
 10
19.5992905984
 20
5.722592975
 10
19.6109663553
 20
5.7266680325
 10
19.6239919995
 20
5.729011472
 10
19.6376105278
 20
5.7294871015
 10
19.6510304809
 20
5.7280672789
 10
19.66347194
 20
5.7248345193
 10
19.6742118526
 20
5.7199766989
  0
LINE
  5
40E
100
AcDbEntity
  8
0
100
AcDbLine
 62
7
  6
CONTINUOUS
 10
18.8318514945
 20
5.1227388546
 11
18.9287032993
 21
5.1786559364
  0
LINE
  5
40F
100
AcDbEntity
  8
0
100
AcDbLine
 62
7
  6
CONTINUOUS
 10
19.9310949655
 20
5.7332780064
 11
19.8601061945
 21
5.692292865
  0
LINE
  5
410
100
AcDbEntity
  8
0
100
AcDbLine
 62
7
  6
CONTINUOUS
 10
19.10985232
 20
5.2591361742
 11
19.180841091
 21
5.3001213156
  0
LINE
  5
411
100
AcDbEntity
  8
0
100
AcDbLine
 62
7
  6
CONTINUOUS
 10
19.9436225
 20
5.7260453946
 11
19.872633729
 21
5.6850602532
  0
LINE
  5
412
100
AcDbEntity
  8
0
100
AcDbLine
 62
7
  6
CONTINUOUS
 10
19.1223798545
 20
5.2519035624
 11
19.1933686255
 21
5.2928887038
  0
LINE
  5
413
100
AcDbEntity
  8
0
100
AcDbLine
 62
7
  6
CONTINUOUS
 10
18.7969695611
 20
5.0077698761
 11
18.8318514945
 21
5.0279088495
  0
LWPOLYLINE
  5
414
100
AcDbEntity
  8
0
100
AcDbPolyline
 62
7
  6
CONTINUOUS
 90
6
 70
0
 10
18.9242147204
 20
5.1709830745
 10
18.924201305
 20
5.1709783923
 10
18.9145539879
 20
5.1654085444
 10
18.9074957777
 20
5.1586676055
 10
18.9034368717
 20
5.1511473343
 10
18.9025124331
 20
5.1452577458
  0
LINE
  5
415
100
AcDbEntity
  8
AXIS
100
AcDbLine
 62
7
  6
CONTINUOUS
 10
19.7994183507
 20
3.6748270649
 11
19.8406200197
 21
3.6510398084
  0
LWPOLYLINE
  5
416
100
AcDbEntity
  8
0
100
AcDbPolyline
 62
7
  6
CONTINUOUS
 90
3
 70
0
 10
18.9025124331
 20
5.1452577458
 10
18.902613159
 20
5.1432847817
 10
18.9045119675
 20
5.1373028147
  0
LINE
  5
417
100
AcDbEntity
  8
0
100
AcDbLine
 62
7
  6
CONTINUOUS
 10
18.8318514945
 20
5.0279088495
 11
18.8318514945
 21
5.1227388546
  0
LINE
  5
418
100
AcDbEntity
  8
0
100
AcDbLine
 62
7
  6
CONTINUOUS
 10
18.8412072296
 20
3.4662049473
 11
18.8412072296
 21
3.4453102004
  0
LINE
  5
419
100
AcDbEntity
  8
0
100
AcDbLine
 62
7
  6
CONTINUOUS
 10
18.8450350873
 20
3.4471184563
 11
18.8450350873
 21
3.4639949826
  0
LINE
  5
41A
100
AcDbEntity
  8
0
100
AcDbLine
 62
7
  6
CONTINUOUS
 10
18.8655663244
 20
3.4021548718
 11
18.8655663244
 21
3.4312467886
  0
LINE
  5
41B
100
AcDbEntity
  8
0
100
AcDbLine
 62
7
  6
CONTINUOUS
 10
18.8728740529
 20
3.3699690332
 11
18.8728740529
 21
3.4310459856
  0
LINE
  5
41C
100
AcDbEntity
  8
0
100
AcDbLine
 62
7
  6
CONTINUOUS
 10
18.8961893082
 20
4.9276329386
 11
18.8961893082
 21
4.8352138658
  0
LINE
  5
41D
100
AcDbEntity
  8
0
100
AcDbLine
 62
7
  6
CONTINUOUS
 10
18.8971898371
 20
4.9279868117
 11
18.8971898371
 21
4.9499089817
  0
LINE
  5
41E
100
AcDbEntity
  8
0
100
AcDbLine
 62
7
  6
CONTINUOUS
 10
18.9031489279
 20
3.4304437001
 11
18.9031489279
 21
3.5847433695
  0
LINE
  5
41F
100
AcDbEntity
  8
AXIS
100
AcDbLine
 62
7
  6
CONTINUOUS
 10
18.9303240564
 20
3.4461331742
 11
18.9303240564
 21
3.442534663
  0
LINE
  5
420
100
AcDbEntity
  8
0
100
AcDbLine
 62
7
  6
CONTINUOUS
 10
18.9320717705
 20
4.9700479552
 11
18.9320717705
 21
5.0648779603
  0
LINE
  5
421
100
AcDbEntity
  8
0
100
AcDbLine
 62
7
  6
CONTINUOUS
 10
18.8530423734
 20
5.0493197136
 11
18.8503269549
 21
4.8232007258
  0
LINE
  5
422
100
AcDbEntity
  8
0
100
AcDbLine
 62
7
  6
CONTINUOUS
 10
18.8655699079
 20
5.0420871019
 11
18.8628544894
 21
4.815968114
  0
LWPOLYLINE
  5
423
100
AcDbEntity
  8
0
100
AcDbPolyline
 62
7
  6
CONTINUOUS
 90
3
 70
0
 10
19.253272067
 20
5.5088036441
 10
19.2571392901
 20
5.5156753174
 10
19.2644952376
 20
5.5215207217
  0
LINE
  5
424
100
AcDbEntity
  8
0
100
AcDbLine
 62
7
  6
CONTINUOUS
 10
18.9532626494
 20
4.9914588193
 11
19.10985232
 21
5.2591361742
  0
LINE
  5
425
100
AcDbEntity
  8
0
100
AcDbLine
 62
7
  6
CONTINUOUS
 10
18.9657901839
 20
4.9842262075
 11
19.1223798545
 21
5.2519035624
  0
LWPOLYLINE
  5
426
100
AcDbEntity
  8
0
100
AcDbPolyline
 62
7
  6
CONTINUOUS
 90
9
 70
0
 10
19.2695888923
 20
5.2995792463
 10
19.2745104797
 20
5.304279605
 10
19.2841577967
 20
5.3098494528
 10
19.2958335536
 20
5.3139245103
 10
19.3088591978
 20
5.3162679498
 10
19.3224777261
 20
5.3167435792
 10
19.3358976793
 20
5.3153237567
 10
19.3483391383
 20
5.3120909971
 10
19.3590790509
 20
5.3072331767
  0
LWPOLYLINE
  5
427
100
AcDbEntity
  8
0
100
AcDbPolyline
 62
7
  6
CONTINUOUS
 90
9
 70
0
 10
19.6846635803
 20
5.6546225989
 10
19.6895851677
 20
5.6593229575
 10
19.6992324847
 20
5.6648928054
 10
19.7109082416
 20
5.6689678629
 10
19.7239338858
 20
5.6713113024
 10
19.7375524141
 20
5.6717869318
 10
19.7509723673
 20
5.6703671093
 10
19.7634138263
 20
5.6671343497
 10
19.7741537389
 20
5.6622765293
  0
LINE
  5
428
100
AcDbEntity
  8
0
100
AcDbLine
 62
7
  6
CONTINUOUS
 10
18.9320717705
 20
5.0648779603
 11
19.0289235753
 21
5.1207950421
  0
LINE
  5
429
100
AcDbEntity
  8
0
100
AcDbLine
 62
7
  6
CONTINUOUS
 10
20.0313152416
 20
5.6754171121
 11
19.9603264705
 21
5.6344319707
  0
LINE
  5
42A
100
AcDbEntity
  8
0
100
AcDbLine
 62
7
  6
CONTINUOUS
 10
19.210072596
 20
5.2012752798
 11
19.281061367
 21
5.2422604213
  0
LINE
  5
42B
100
AcDbEntity
  8
0
100
AcDbLine
 62
7
  6
CONTINUOUS
 10
19.427131284
 20
5.3173999293
 11
19.8337159904
 21
5.5521403178
  0
LINE
  5
42C
100
AcDbEntity
  8
0
100
AcDbLine
 62
7
  6
CONTINUOUS
 10
20.0438427761
 20
5.6681845003
 11
19.8370238825
 21
5.5487782692
  0
LINE
  5
42D
100
AcDbEntity
  8
0
100
AcDbLine
 62
7
  6
CONTINUOUS
 10
19.429189158
 20
5.3133161867
 11
19.2226001305
 21
5.1940426681
  0
LINE
  5
42E
100
AcDbEntity
  8
0
100
AcDbLine
 62
7
  6
CONTINUOUS
 10
19.432434607
 20
5.3082143555
 11
19.8390193134
 21
5.542954744
  0
LINE
  5
42F
100
AcDbEntity
  8
0
100
AcDbLine
 62
7
  6
CONTINUOUS
 10
18.7626342133
 20
4.8738290083
 11
18.7969695611
 21
4.8936524123
  0
LINE
  5
430
100
AcDbEntity
  8
0
100
AcDbLine
 62
7
  6
CONTINUOUS
 10
18.8971898371
 20
4.9499089817
 11
18.9320717705
 21
4.9700479552
  0
LINE
  5
431
100
AcDbEntity
  8
0
100
AcDbLine
 62
7
  6
CONTINUOUS
 10
18.797778565
 20
4.8920300495
 11
18.7987790939
 21
4.8926077017
  0
LINE
  5
432
100
AcDbEntity
  8
0
100
AcDbLine
 62
7
  6
CONTINUOUS
 10
19.0322920465
 20
5.007017066
 11
19.1291438513
 21
5.0629341478
  0
LWPOLYLINE
  5
433
100
AcDbEntity
  8
0
100
AcDbPolyline
 62
7
  6
CONTINUOUS
 90
6
 70
0
 10
19.0246245641
 20
5.1134462307
 10
19.0241431913
 20
5.1132782227
 10
19.0144958743
 20
5.1077083748
 10
19.007437664
 20
5.1009674358
 10
19.0033787581
 20
5.0934471647
 10
19.0024543194
 20
5.0875575762
  0
LINE
  5
434
100
AcDbEntity
  8
AXIS
100
AcDbLine
 62
7
  6
CONTINUOUS
 10
19.8768103736
 20
3.7362257231
 11
19.8628906502
 21
3.7442620973
  0
LINE
  5
435
100
AcDbEntity
  8
AXIS
100
AcDbLine
 62
7
  6
CONTINUOUS
 10
19.883770057
 20
3.7402438742
 11
19.8698503337
 21
3.7482802484
  0
LWPOLYLINE
  5
436
100
AcDbEntity
  8
0
100
AcDbPolyline
 62
7
  6
CONTINUOUS
 90
3
 70
0
 10
19.0024543194
 20
5.0875575762
 10
19.0025550454
 20
5.0855846121
 10
19.0045848488
 20
5.0791899611
  0
LINE
  5
437
100
AcDbEntity
  8
0
100
AcDbLine
 62
7
  6
CONTINUOUS
 10
18.9841599468
 20
3.4246578248
 11
18.9841599468
 21
3.4056915563
  0
LINE
  5
438
100
AcDbEntity
  8
0
100
AcDbLine
 62
7
  6
CONTINUOUS
 10
18.9929280735
 20
5.2884429844
 11
18.9929280735
 21
5.4086104925
  0
LINE
  5
439
100
AcDbEntity
  8
0
100
AcDbLine
 62
7
  6
CONTINUOUS
 10
18.9947376063
 20
5.2929661316
 11
18.9947376063
 21
5.2915362341
  0
LINE
  5
43A
100
AcDbEntity
  8
0
100
AcDbLine
 62
7
  6
CONTINUOUS
 10
18.9964095843
 20
4.8697720442
 11
18.9964095843
 21
4.7773529714
  0
LINE
  5
43B
100
AcDbEntity
  8
0
100
AcDbLine
 62
7
  6
CONTINUOUS
 10
18.9974101131
 20
4.8701259174
 11
18.9974101131
 21
4.8920480874
  0
LINE
  5
43C
100
AcDbEntity
  8
0
100
AcDbLine
 62
7
  6
CONTINUOUS
 10
19.0061531005
 20
3.3709755587
 11
19.0061531005
 21
3.5252752281
  0
LINE
  5
43D
100
AcDbEntity
  8
0
100
AcDbLine
 62
7
  6
CONTINUOUS
 10
19.0322920465
 20
4.9121870608
 11
19.0322920465
 21
5.007017066
  0
LINE
  5
43E
100
AcDbEntity
  8
0
100
AcDbLine
 62
7
  6
CONTINUOUS
 10
19.0364279755
 20
3.3366202206
 11
19.0364279755
 21
3.2755432681
  0
LINE
  5
43F
100
AcDbEntity
  8
0
100
AcDbLine
 62
7
  6
CONTINUOUS
 10
18.9532626494
 20
4.9914588193
 11
18.9505472309
 21
4.7653398314
  0
LINE
  5
440
100
AcDbEntity
  8
0
100
AcDbLine
 62
7
  6
CONTINUOUS
 10
18.9657901839
 20
4.9842262075
 11
18.9630747654
 21
4.7581072197
  0
LWPOLYLINE
  5
441
100
AcDbEntity
  8
0
100
AcDbPolyline
 62
7
  6
CONTINUOUS
 90
6
 70
0
 10
19.1023962058
 20
5.0298574065
 10
19.1033206444
 20
5.035746995
 10
19.1073795504
 20
5.0432672662
 10
19.1144377606
 20
5.0500082052
 10
19.1240850777
 20
5.055578053
 10
19.1250344078
 20
5.055909387
  0
LWPOLYLINE
  5
442
100
AcDbEntity
  8
0
100
AcDbPolyline
 62
7
  6
CONTINUOUS
 90
3
 70
0
 10
19.1144914796
 20
5.4932600828
 10
19.1146400825
 20
5.494035656
 10
19.1157885704
 20
5.4953560896
  0
LWPOLYLINE
  5
443
100
AcDbEntity
  8
0
100
AcDbPolyline
 62
7
  6
CONTINUOUS
 90
3
 70
0
 10
19.4123704304
 20
5.6006585787
 10
19.4162376535
 20
5.6075302521
 10
19.423593601
 20
5.6133756563
  0
LWPOLYLINE
  5
444
100
AcDbEntity
  8
0
100
AcDbPolyline
 62
7
  6
CONTINUOUS
 90
3
 70
0
 10
19.3923910125
 20
5.538320548
 10
19.3885237894
 20
5.5314488747
 10
19.3811678418
 20
5.5256034704
  0
LWPOLYLINE
  5
445
100
AcDbEntity
  8
0
100
AcDbPolyline
 62
7
  6
CONTINUOUS
 90
3
 70
0
 10
19.4913855497
 20
5.5954747296
 10
19.4875183266
 20
5.5886030562
 10
19.480162379
 20
5.582757652
  0
LINE
  5
446
100
AcDbEntity
  8
0
100
AcDbLine
 62
7
  6
CONTINUOUS
 10
19.0534829254
 20
4.933597925
 11
19.210072596
 21
5.2012752798
  0
LINE
  5
447
100
AcDbEntity
  8
0
100
AcDbLine
 62
7
  6
CONTINUOUS
 10
19.0660104599
 20
4.9263653132
 11
19.2226001305
 21
5.1940426681
  0
LINE
  5
448
100
AcDbEntity
  8
AXIS
100
AcDbLine
 62
7
  6
CONTINUOUS
 10
18.8961893082
 20
4.8842341985
 11
18.9345809847
 21
4.9063995109
  0
LINE
  5
449
100
AcDbEntity
  8
0
100
AcDbLine
 62
7
  6
CONTINUOUS
 10
18.8961893082
 20
4.8488738576
 11
18.9519368862
 21
4.8810595446
  0
LINE
  5
44A
100
AcDbEntity
  8
0
100
AcDbLine
 62
7
  6
CONTINUOUS
 10
18.9517911159
 20
4.8689209312
 11
18.8961893082
 21
4.8368194042
  0
LINE
  5
44B
100
AcDbEntity
  8
0
100
AcDbLine
 62
7
  6
CONTINUOUS
 10
18.8628544894
 20
4.815968114
 11
18.8961893082
 21
4.8352138658
  0
LINE
  5
44C
100
AcDbEntity
  8
0
100
AcDbLine
 62
7
  6
CONTINUOUS
 10
18.9974101131
 20
4.8920480874
 11
19.0322920465
 21
4.9121870608
  0
LINE
  5
44D
100
AcDbEntity
  8
0
100
AcDbLine
 62
7
  6
CONTINUOUS
 10
18.8971898371
 20
4.9279868117
 11
18.8961893082
 21
4.9276329386
  0
LWPOLYLINE
  5
44E
100
AcDbEntity
  8
AXIS
100
AcDbPolyline
 62
7
  6
CONTINUOUS
 90
4
 70
0
 10
20.1240239864
 20
3.8879615
 10
20.1215361982
 20
3.8889858116
 10
20.1157157817
 20
3.8890498894
 10
20.1092638004
 20
3.8865048528
  0
LWPOLYLINE
  5
44F
100
AcDbEntity
  8
0
100
AcDbPolyline
 62
7
  6
CONTINUOUS
 90
5
 70
0
 10
19.0625851521
 20
5.4305498083
 10
19.0626858781
 20
5.4285768442
 10
19.0651452298
 20
5.4208289533
 10
19.0707447173
 20
5.4136460031
 10
19.0791589187
 20
5.4074454408
  0
LINE
  5
450
100
AcDbEntity
  8
AXIS
100
AcDbLine
 62
7
  6
CONTINUOUS
 10
19.0628053954
 20
3.2579036698
 11
19.0628053954
 21
3.3173733341
  0
LINE
  5
451
100
AcDbEntity
  8
0
100
AcDbLine
 62
7
  6
CONTINUOUS
 10
19.0642669411
 20
3.3374242763
 11
19.0642669411
 21
3.3205477499
  0
LINE
  5
452
100
AcDbEntity
  8
0
100
AcDbLine
 62
7
  6
CONTINUOUS
 10
19.0680947989
 20
3.3143195646
 11
19.0680947989
 21
3.3352143115
  0
LINE
  5
453
100
AcDbEntity
  8
0
100
AcDbLine
 62
7
  6
CONTINUOUS
 10
19.0917564128
 20
5.2361499618
 11
19.0917564128
 21
5.2282026871
  0
LINE
  5
454
100
AcDbEntity
  8
0
100
AcDbLine
 62
7
  6
CONTINUOUS
 10
19.0931483495
 20
5.2361499479
 11
19.0931483495
 21
5.3507495982
  0
LINE
  5
455
100
AcDbEntity
  8
0
100
AcDbLine
 62
7
  6
CONTINUOUS
 10
19.1112451955
 20
4.6636386655
 11
19.1112451955
 21
3.2299375709
  0
LINE
  5
456
100
AcDbEntity
  8
0
100
AcDbLine
 62
7
  6
CONTINUOUS
 10
19.1195385536
 20
5.4929434015
 11
19.1195385536
 21
5.4949846575
  0
LINE
  5
457
100
AcDbEntity
  8
AXIS
100
AcDbLine
 62
7
  6
CONTINUOUS
 10
19.1363000558
 20
3.3006580027
 11
19.1363000558
 21
3.2685122383
  0
LINE
  5
458
100
AcDbEntity
  8
0
100
AcDbLine
 62
7
  6
CONTINUOUS
 10
19.0534829254
 20
4.933597925
 11
19.0507675069
 21
4.7074789371
  0
LINE
  5
459
100
AcDbEntity
  8
0
100
AcDbLine
 62
7
  6
CONTINUOUS
 10
19.0628393198
 20
4.6622973687
 11
19.0660104599
 21
4.9263653132
  0
LWPOLYLINE
  5
45A
100
AcDbEntity
  8
0
100
AcDbPolyline
 62
7
  6
CONTINUOUS
 90
3
 70
0
 10
19.2527886839
 20
5.5072323475
 10
19.253272067
 20
5.5108449002
 10
19.2571392901
 20
5.5177165735
  0
LINE
  5
45B
100
AcDbEntity
  8
0
100
AcDbLine
 62
7
  6
CONTINUOUS
 10
19.2529252544
 20
5.5062117477
 11
19.253272067
 21
5.5088036441
  0
LINE
  5
45C
100
AcDbEntity
  8
0
100
AcDbLine
 62
7
  6
CONTINUOUS
 10
18.9630747654
 20
4.7581072197
 11
18.9964095843
 21
4.7773529714
  0
LINE
  5
45D
100
AcDbEntity
  8
0
100
AcDbLine
 62
7
  6
CONTINUOUS
 10
19.3983321373
 20
4.9722753223
 11
19.4306668326
 21
4.9909436559
  0
LINE
  5
45E
100
AcDbEntity
  8
0
100
AcDbLine
 62
7
  6
CONTINUOUS
 10
19.8390193134
 20
5.2267046633
 11
19.8681107693
 21
5.2435005229
  0
LINE
  5
45F
100
AcDbEntity
  8
0
100
AcDbLine
 62
7
  6
CONTINUOUS
 10
19.8510027443
 20
5.2281584791
 11
19.8390193134
 21
5.2212398833
  0
LINE
  5
460
100
AcDbEntity
  8
0
100
AcDbLine
 62
7
  6
CONTINUOUS
 10
19.4306668326
 20
4.985478876
 11
19.4154401622
 21
4.9766878062
  0
LINE
  5
461
100
AcDbEntity
  8
0
100
AcDbLine
 62
7
  6
CONTINUOUS
 10
18.9974101131
 20
4.8701259174
 11
18.9964095843
 21
4.8697720442
  0
LINE
  5
462
100
AcDbEntity
  8
AXIS
100
AcDbLine
 62
7
  6
CONTINUOUS
 10
20.1301428507
 20
3.8423042183
 11
20.1092636265
 21
3.8543585713
  0
LINE
  5
463
100
AcDbEntity
  8
AXIS
100
AcDbLine
 62
7
  6
CONTINUOUS
 10
20.1301428507
 20
3.8744499828
 11
20.1092636265
 21
3.8865043358
  0
LWPOLYLINE
  5
464
100
AcDbEntity
  8
0
100
AcDbPolyline
 62
7
  6
CONTINUOUS
 90
5
 70
0
 10
19.1625270385
 20
5.3728496387
 10
19.1626277644
 20
5.3708766746
 10
19.1650871161
 20
5.3631287836
 10
19.1706866036
 20
5.3559458335
 10
19.1791008051
 20
5.3497452712
  0
LWPOLYLINE
  5
465
100
AcDbEntity
  8
0
100
AcDbPolyline
 62
7
  6
CONTINUOUS
 90
5
 70
0
 10
19.1757690448
 20
5.4305498112
 10
19.1756683189
 20
5.4325227753
 10
19.1732089672
 20
5.4402706662
 10
19.1676094797
 20
5.4474536164
 10
19.1591952782
 20
5.4536541787
  0
LINE
  5
466
100
AcDbEntity
  8
0
100
AcDbLine
 62
7
  6
CONTINUOUS
 10
19.1839019284
 20
5.3475736525
 11
19.1839019284
 21
5.367368346
  0
LINE
  5
467
100
AcDbEntity
  8
0
100
AcDbLine
 62
7
  6
CONTINUOUS
 10
19.1919766888
 20
5.1782890674
 11
19.1919766888
 21
5.1703417927
  0
LINE
  5
468
100
AcDbEntity
  8
0
100
AcDbLine
 62
7
  6
CONTINUOUS
 10
19.1933686255
 20
5.1782890536
 11
19.1933686255
 21
5.2928887038
  0
LINE
  5
469
100
AcDbEntity
  8
0
100
AcDbLine
 62
7
  6
CONTINUOUS
 10
19.2601064247
 20
5.5180331512
 11
19.2601064247
 21
5.494390278
  0
LINE
  5
46A
100
AcDbEntity
  8
0
100
AcDbLine
 62
7
  6
CONTINUOUS
 10
19.2644952376
 20
5.5235619777
 11
19.2644952376
 21
5.5215207217
  0
LWPOLYLINE
  5
46B
100
AcDbEntity
  8
0
100
AcDbPolyline
 62
7
  6
CONTINUOUS
 90
11
 70
0
 10
19.2624689248
 20
5.315149469
 10
19.2633933635
 20
5.3210390575
 10
19.2674522694
 20
5.3285593287
 10
19.2745104797
 20
5.3353002677
 10
19.2841577967
 20
5.3408701155
 10
19.2958335536
 20
5.344945173
 10
19.3088591978
 20
5.3472886125
 10
19.3224777261
 20
5.3477642419
 10
19.3358976793
 20
5.3463444194
 10
19.3483391383
 20
5.3431116598
 10
19.3590790509
 20
5.3382538394
  0
LWPOLYLINE
  5
46C
100
AcDbEntity
  8
0
100
AcDbPolyline
 62
7
  6
CONTINUOUS
 90
5
 70
0
 10
19.4154401622
 20
4.9766878062
 10
19.4106224319
 20
4.9729128615
 10
19.4064002566
 20
4.9676176787
 10
19.4032955702
 20
4.961456834
 10
19.4016921659
 20
4.9551919147
  0
LWPOLYLINE
  5
46D
100
AcDbEntity
  8
0
100
AcDbPolyline
 62
7
  6
CONTINUOUS
 90
4
 70
0
 10
19.8936286943
 20
5.1153452929
 10
19.888810964
 20
5.1135572349
 10
19.8845887886
 20
5.1139770987
 10
19.8837880656
 20
5.1143733082
  0
LWPOLYLINE
  5
46E
100
AcDbEntity
  8
0
100
AcDbPolyline
 62
7
  6
CONTINUOUS
 90
3
 70
0
 10
19.1046577302
 20
5.0210771075
 10
19.1024969317
 20
5.0278844425
 10
19.1023962058
 20
5.0298574065
  0
LWPOLYLINE
  5
46F
100
AcDbEntity
  8
AXIS
100
AcDbPolyline
 62
7
  6
CONTINUOUS
 90
4
 70
0
 10
19.3520502424
 20
3.4252206875
 10
19.3510283489
 20
3.4320808912
 10
19.3480626986
 20
3.4370895964
 10
19.3459313782
 20
3.4387322047
  0
LWPOLYLINE
  5
470
100
AcDbEntity
  8
0
100
AcDbPolyline
 62
7
  6
CONTINUOUS
 90
5
 70
0
 10
19.2757109312
 20
5.3728496416
 10
19.2756102052
 20
5.3748226056
 10
19.2731508535
 20
5.3825704966
 10
19.267551366
 20
5.3897534467
 10
19.2591371646
 20
5.3959540091
  0
LINE
  5
471
100
AcDbEntity
  8
0
100
AcDbLine
 62
7
  6
CONTINUOUS
 10
19.3245990638
 20
5.5582627308
 11
19.3245990638
 21
5.5562214748
  0
LINE
  5
472
100
AcDbEntity
  8
AXIS
100
AcDbLine
 62
7
  6
CONTINUOUS
 10
19.3311710182
 20
3.405129276
 11
19.3311710182
 21
3.4372750405
  0
LINE
  5
473
100
AcDbEntity
  8
0
100
AcDbLine
 62
7
  6
CONTINUOUS
 10
19.33534464
 20
5.5364724285
 11
19.33534464
 21
5.4991475905
  0
LINE
  5
474
100
AcDbEntity
  8
0
100
AcDbLine
 62
7
  6
CONTINUOUS
 10
19.3519742461
 20
5.5460734788
 11
19.3519742461
 21
5.5087486407
  0
LINE
  5
475
100
AcDbEntity
  8
AXIS
100
AcDbLine
 62
7
  6
CONTINUOUS
 10
19.3520502424
 20
3.393074923
 11
19.3520502424
 21
3.4252206875
  0
LINE
  5
476
100
AcDbEntity
  8
0
100
AcDbLine
 62
7
  6
CONTINUOUS
 10
19.3983321373
 20
4.9722753223
 11
19.381211316
 21
4.8166096287
  0
LINE
  5
477
100
AcDbEntity
  8
0
100
AcDbLine
 62
7
  6
CONTINUOUS
 10
19.4016921659
 20
4.9551919147
 11
19.3865622086
 21
4.8361505979
  0
LINE
  5
478
100
AcDbEntity
  8
0
100
AcDbLine
 62
7
  6
CONTINUOUS
 10
19.3928743955
 20
5.5419331006
 11
19.3923910125
 21
5.538320548
  0
LWPOLYLINE
  5
479
100
AcDbEntity
  8
0
100
AcDbPolyline
 62
7
  6
CONTINUOUS
 90
3
 70
0
 10
19.4118870473
 20
5.5990872822
 10
19.4123704304
 20
5.6026998348
 10
19.4162376535
 20
5.6095715081
  0
LINE
  5
47A
100
AcDbEntity
  8
0
100
AcDbLine
 62
7
  6
CONTINUOUS
 10
19.4120236178
 20
5.5980666823
 11
19.4123704304
 21
5.6006585787
  0
LINE
  5
47B
100
AcDbEntity
  8
0
100
AcDbLine
 62
7
  6
CONTINUOUS
 10
19.4918689327
 20
5.5990872822
 11
19.4913855497
 21
5.5954747296
  0
LWPOLYLINE
  5
47C
100
AcDbEntity
  8
0
100
AcDbPolyline
 62
7
  6
CONTINUOUS
 90
11
 70
0
 10
19.3756528175
 20
5.3151494719
 10
19.3747283789
 20
5.3092598834
 10
19.3706694729
 20
5.3017396123
 10
19.3636112627
 20
5.2949986733
 10
19.3539639456
 20
5.2894288255
 10
19.3422881887
 20
5.285353768
 10
19.3292625446
 20
5.2830103284
 10
19.3156440162
 20
5.282534699
 10
19.3022240631
 20
5.2839545216
 10
19.289782604
 20
5.2871872812
 10
19.2790426914
 20
5.2920451015
  0
LINE
  5
47D
100
AcDbEntity
  8
0
100
AcDbLine
 62
7
  6
CONTINUOUS
 10
19.3865622086
 20
4.8361505979
 11
19.3849588043
 21
4.8298856785
  0
LINE
  5
47E
100
AcDbEntity
  8
0
100
AcDbLine
 62
7
  6
CONTINUOUS
 10
19.3849588043
 20
4.8298856785
 11
19.3818541179
 21
4.8237248338
  0
LINE
  5
47F
100
AcDbEntity
  8
0
100
AcDbLine
 62
7
  6
CONTINUOUS
 10
19.3818541179
 20
4.8237248338
 11
19.3776319426
 21
4.818429651
  0
LINE
  5
480
100
AcDbEntity
  8
0
100
AcDbLine
 62
7
  6
CONTINUOUS
 10
19.3776319426
 20
4.818429651
 11
19.3728142123
 21
4.8146547063
  0
LWPOLYLINE
  5
481
100
AcDbEntity
  8
0
100
AcDbPolyline
 62
7
  6
CONTINUOUS
 90
7
 70
0
 10
19.7725515527
 20
5.0200705102
 10
19.789754675
 20
5.0326179129
 10
19.805785433
 20
5.0495407001
 10
19.819551357
 20
5.0696856119
 10
19.830114322
 20
5.0916798058
 10
19.8367544793
 20
5.1140244138
 10
19.8390193134
 20
5.1351966879
  0
LINE
  5
482
100
AcDbEntity
  8
0
100
AcDbLine
 62
7
  6
CONTINUOUS
 10
20.155197711
 20
5.2663613337
 11
19.8936286943
 21
5.1153452929
  0
LINE
  5
483
100
AcDbEntity
  8
0
100
AcDbLine
 62
7
  6
CONTINUOUS
 10
19.3728142123
 20
4.8146547063
 11
19.1112451955
 21
4.6636386655
  0
LINE
  5
484
100
AcDbEntity
  8
0
100
AcDbLine
 62
7
  6
CONTINUOUS
 10
19.1153514087
 20
4.6631162559
 11
19.381211316
 21
4.8166096287
  0
LINE
  5
485
100
AcDbEntity
  8
0
100
AcDbLine
 62
7
  6
CONTINUOUS
 10
19.8852315905
 20
5.1076041329
 11
20.1510914978
 21
5.2610975057
  0
LINE
  5
486
100
AcDbEntity
  8
0
100
AcDbLine
 62
7
  6
CONTINUOUS
 10
19.4989023677
 20
4.8620800227
 11
19.7725515527
 21
5.0200705102
  0
LINE
  5
487
100
AcDbEntity
  8
0
100
AcDbLine
 62
7
  6
CONTINUOUS
 10
18.7496509573
 20
4.8431126635
 11
19.0628393198
 21
4.6622973687
  0
LINE
  5
488
100
AcDbEntity
  8
0
100
AcDbLine
 62
7
  6
CONTINUOUS
 10
18.7626342133
 20
4.8738290083
 11
18.8503269549
 21
4.8232007258
  0
LINE
  5
489
100
AcDbEntity
  8
0
100
AcDbLine
 62
7
  6
CONTINUOUS
 10
18.8628544894
 20
4.815968114
 11
18.9505472309
 21
4.7653398314
  0
LINE
  5
48A
100
AcDbEntity
  8
0
100
AcDbLine
 62
7
  6
CONTINUOUS
 10
18.9630747654
 20
4.7581072197
 11
19.0507675069
 21
4.7074789371
  0
LINE
  5
48B
100
AcDbEntity
  8
0
100
AcDbLine
 62
7
  6
CONTINUOUS
 10
19.0512265573
 20
4.7457050933
 11
18.9964095843
 21
4.7773529714
  0
LINE
  5
48C
100
AcDbEntity
  8
0
100
AcDbLine
 62
7
  6
CONTINUOUS
 10
18.797778565
 20
4.8920300495
 11
18.8507860053
 21
4.861426882
  0
LINE
  5
48D
100
AcDbEntity
  8
0
100
AcDbLine
 62
7
  6
CONTINUOUS
 10
18.8961893082
 20
4.8352138658
 11
18.9510062813
 21
4.8035659876
  0
LINE
  5
48E
100
AcDbEntity
  8
0
100
AcDbLine
 62
7
  6
CONTINUOUS
 10
18.7987790939
 20
4.8926077017
 11
18.7969695611
 21
4.8936524123
  0
LINE
  5
48F
100
AcDbEntity
  8
0
100
AcDbLine
 62
7
  6
CONTINUOUS
 10
19.2532721191
 20
5.503619605
 11
19.2527886839
 21
5.5072323475
  0
LINE
  5
490
100
AcDbEntity
  8
0
100
AcDbLine
 62
7
  6
CONTINUOUS
 10
19.3803697545
 20
5.5251426973
 11
19.3803697545
 21
5.5565562775
  0
LINE
  5
491
100
AcDbEntity
  8
0
100
AcDbLine
 62
7
  6
CONTINUOUS
 10
19.389632533
 20
3.4388822624
 11
19.389632533
 21
3.479064468
  0
LINE
  5
492
100
AcDbEntity
  8
0
100
AcDbLine
 62
7
  6
CONTINUOUS
 10
19.4146873933
 20
3.493529812
 11
19.4146873933
 21
3.4854933709
  0
LINE
  5
493
100
AcDbEntity
  8
0
100
AcDbLine
 62
7
  6
CONTINUOUS
 10
19.4192047881
 20
5.6098880858
 11
19.4192047881
 21
5.5862452126
  0
LINE
  5
494
100
AcDbEntity
  8
0
100
AcDbLine
 62
7
  6
CONTINUOUS
 10
19.423593601
 20
5.6154169124
 11
19.423593601
 21
5.6133756563
  0
LINE
  5
495
100
AcDbEntity
  8
0
100
AcDbLine
 62
7
  6
CONTINUOUS
 10
19.427131284
 20
5.3153586732
 11
19.427131284
 21
5.3173999293
  0
LINE
  5
496
100
AcDbEntity
  8
0
100
AcDbLine
 62
7
  6
CONTINUOUS
 10
19.4306668326
 20
5.3092349574
 11
19.4306668326
 21
4.9014769013
  0
LINE
  5
497
100
AcDbEntity
  8
0
100
AcDbLine
 62
7
  6
CONTINUOUS
 10
19.432434607
 20
5.3082143555
 11
19.432434607
 21
4.9004562994
  0
LWPOLYLINE
  5
498
100
AcDbEntity
  8
0
100
AcDbPolyline
 62
7
  6
CONTINUOUS
 90
11
 70
0
 10
19.5776017265
 20
5.7278929912
 10
19.5785261651
 20
5.7337825797
 10
19.5825850711
 20
5.7413028509
 10
19.5896432813
 20
5.7480437899
 10
19.5992905984
 20
5.7536136377
 10
19.6109663553
 20
5.7576886952
 10
19.6239919995
 20
5.7600321347
 10
19.6376105278
 20
5.7605077642
 10
19.6510304809
 20
5.7590879416
 10
19.66347194
 20
5.755855182
 10
19.6742118526
 20
5.7509973616
  0
LINE
  5
499
100
AcDbEntity
  8
0
100
AcDbLine
 62
7
  6
CONTINUOUS
 10
19.0523398674
 20
4.8384129264
 11
18.9974101131
 21
4.8701259174
  0
LINE
  5
49A
100
AcDbEntity
  8
0
100
AcDbLine
 62
7
  6
CONTINUOUS
 10
18.7987790939
 20
4.9848029955
 11
18.8518993154
 21
4.9541347151
  0
LINE
  5
49B
100
AcDbEntity
  8
0
100
AcDbLine
 62
7
  6
CONTINUOUS
 10
18.8971898371
 20
4.9279868117
 11
18.9521195914
 21
4.8962738207
  0
LINE
  5
49C
100
AcDbEntity
  8
0
100
AcDbLine
 62
7
  6
CONTINUOUS
 10
19.0526013138
 20
4.8601841537
 11
18.9974101131
 21
4.8920480874
  0
LINE
  5
49D
100
AcDbEntity
  8
0
100
AcDbLine
 62
7
  6
CONTINUOUS
 10
18.9523810378
 20
4.918045048
 11
18.8971898371
 21
4.9499089817
  0
LINE
  5
49E
100
AcDbEntity
  8
0
100
AcDbLine
 62
7
  6
CONTINUOUS
 10
18.8521607618
 20
4.9759059424
 11
18.7969695611
 21
5.0077698761
  0
LWPOLYLINE
  5
49F
100
AcDbEntity
  8
0
100
AcDbPolyline
 62
7
  6
CONTINUOUS
 90
4
 70
0
 10
19.4306668326
 20
4.9014769013
 10
19.4329316667
 20
4.8829198167
 10
19.439571824
 20
4.8682425562
 10
19.4501353908
 20
4.8584450034
  0
LWPOLYLINE
  5
4A0
100
AcDbEntity
  8
0
100
AcDbPolyline
 62
7
  6
CONTINUOUS
 90
3
 70
0
 10
19.432434607
 20
4.9004562994
 10
19.434699441
 20
4.8818992148
 10
19.4413395984
 20
4.8672219543
  0
LINE
  5
4A1
100
AcDbEntity
  8
0
100
AcDbLine
 62
7
  6
CONTINUOUS
 10
19.389632533
 20
3.4388822624
 11
19.3822694532
 21
3.386412565
  0
LWPOLYLINE
  5
4A2
100
AcDbEntity
  8
0
100
AcDbPolyline
 62
7
  6
CONTINUOUS
 90
11
 70
0
 10
19.6775436128
 20
5.6701928216
 10
19.6784680515
 20
5.6760824101
 10
19.6825269574
 20
5.6836026813
 10
19.6895851677
 20
5.6903436202
 10
19.6992324847
 20
5.6959134681
 10
19.7109082416
 20
5.6999885256
 10
19.7239338858
 20
5.7023319651
 10
19.7375524141
 20
5.7028075945
 10
19.7509723673
 20
5.701387772
 10
19.7634138263
 20
5.6981550124
 10
19.7741537389
 20
5.693297192
  0
LWPOLYLINE
  5
4A3
100
AcDbEntity
  8
0
100
AcDbPolyline
 62
7
  6
CONTINUOUS
 90
11
 70
0
 10
19.6907856192
 20
5.7278929941
 10
19.6898611805
 20
5.7220034056
 10
19.6858022746
 20
5.7144831345
 10
19.6787440643
 20
5.7077421955
 10
19.6690967473
 20
5.7021723477
 10
19.6574209904
 20
5.6980972902
 10
19.6443953462
 20
5.6957538507
 10
19.6307768179
 20
5.6952782212
 10
19.6173568647
 20
5.6966980438
 10
19.6049154057
 20
5.6999308034
 10
19.5941754931
 20
5.7047886237
  0
LINE
  5
4A4
100
AcDbEntity
  8
0
100
AcDbLine
 62
7
  6
CONTINUOUS
 10
20.1510914978
 20
5.2610975057
 11
20.2036035867
 21
5.3209139939
  0
LINE
  5
4A5
100
AcDbEntity
  8
0
100
AcDbLine
 62
7
  6
CONTINUOUS
 10
19.1153514087
 20
4.6631162559
 11
19.0628393198
 21
4.6622973687
  0
LINE
  5
4A6
100
AcDbEntity
  8
0
100
AcDbLine
 62
7
  6
CONTINUOUS
 10
19.0530816694
 20
4.900184438
 11
19.0322920465
 21
4.9121870608
  0
LINE
  5
4A7
100
AcDbEntity
  8
0
100
AcDbLine
 62
7
  6
CONTINUOUS
 10
18.9528613934
 20
4.9580453323
 11
18.9320717705
 21
4.9700479552
  0
LINE
  5
4A8
100
AcDbEntity
  8
0
100
AcDbLine
 62
7
  6
CONTINUOUS
 10
18.8526411174
 20
5.0159062267
 11
18.8318514945
 21
5.0279088495
  0
LINE
  5
4A9
100
AcDbEntity
  8
0
100
AcDbLine
 62
7
  6
CONTINUOUS
 10
19.0660104599
 20
4.9263653132
 11
19.0534829254
 21
4.933597925
  0
LINE
  5
4AA
100
AcDbEntity
  8
0
100
AcDbLine
 62
7
  6
CONTINUOUS
 10
18.9657901839
 20
4.9842262075
 11
18.9532626494
 21
4.9914588193
  0
LINE
  5
4AB
100
AcDbEntity
  8
0
100
AcDbLine
 62
7
  6
CONTINUOUS
 10
18.8655699079
 20
5.0420871019
 11
18.8530423734
 21
5.0493197136
  0
LINE
  5
4AC
100
AcDbEntity
  8
0
100
AcDbLine
 62
7
  6
CONTINUOUS
 10
18.7653496319
 20
5.0999479962
 11
18.7528220974
 21
5.107180608
  0
LINE
  5
4AD
100
AcDbEntity
  8
0
100
AcDbLine
 62
7
  6
CONTINUOUS
 10
19.0802391045
 20
4.9793354454
 11
19.0322920465
 21
5.007017066
  0
LINE
  5
4AE
100
AcDbEntity
  8
0
100
AcDbLine
 62
7
  6
CONTINUOUS
 10
18.9800188285
 20
5.0371963397
 11
18.9320717705
 21
5.0648779603
  0
LINE
  5
4AF
100
AcDbEntity
  8
0
100
AcDbLine
 62
7
  6
CONTINUOUS
 10
18.8797985525
 20
5.095057234
 11
18.8318514945
 21
5.1227388546
  0
LINE
  5
4B0
100
AcDbEntity
  8
0
100
AcDbLine
 62
7
  6
CONTINUOUS
 10
19.4320297551
 20
5.3107947886
 11
19.432434607
 21
5.3082143555
  0
LINE
  5
4B1
100
AcDbEntity
  8
0
100
AcDbLine
 62
7
  6
CONTINUOUS
 10
19.3923909604
 20
5.5435045871
 11
19.3927378251
 21
5.5409124444
  0
LINE
  5
4B2
100
AcDbEntity
  8
0
100
AcDbLine
 62
7
  6
CONTINUOUS
 10
19.4123704825
 20
5.5954745396
 11
19.4118870473
 21
5.5990872822
  0
LINE
  5
4B3
100
AcDbEntity
  8
0
100
AcDbLine
 62
7
  6
CONTINUOUS
 10
19.6475559127
 20
5.728434886
 11
19.6475559127
 21
5.6963224672
  0
LWPOLYLINE
  5
4B4
100
AcDbEntity
  8
0
100
AcDbPolyline
 62
7
  6
CONTINUOUS
 90
11
 70
0
 10
19.7907275055
 20
5.6701928245
 10
19.7898030669
 20
5.664303236
 10
19.7857441609
 20
5.6567829648
 10
19.7786859507
 20
5.6500420259
 10
19.7690386336
 20
5.644472178
 10
19.7573628767
 20
5.6403971206
 10
19.7443372326
 20
5.638053681
 10
19.7307187042
 20
5.6375780516
 10
19.7172987511
 20
5.6389978741
 10
19.704857292
 20
5.6422306337
 10
19.6941173794
 20
5.6470884541
  0
LWPOLYLINE
  5
4B5
100
AcDbEntity
  8
0
100
AcDbPolyline
 62
7
  6
CONTINUOUS
 90
4
 70
0
 10
19.4519031651
 20
4.8574244015
 10
19.4656684873
 20
4.8531752621
 10
19.4816992453
 20
4.8547630893
 10
19.4989023677
 20
4.8620800227
  0
LINE
  5
4B6
100
AcDbEntity
  8
AXIS
100
AcDbLine
 62
7
  6
CONTINUOUS
 10
19.3835516835
 20
4.837888686
 11
19.3865622086
 21
4.8361505979
  0
LINE
  5
4B7
100
AcDbEntity
  8
0
100
AcDbLine
 62
7
  6
CONTINUOUS
 10
19.432434607
 20
4.9004562994
 11
19.4306668326
 21
4.9014769013
  0
LINE
  5
4B8
100
AcDbEntity
  8
0
100
AcDbLine
 62
7
  6
CONTINUOUS
 10
19.4413395984
 20
4.8672219543
 11
19.4519031651
 21
4.8574244015
  0
LWPOLYLINE
  5
4B9
100
AcDbEntity
  8
0
100
AcDbPolyline
 62
7
  6
CONTINUOUS
 90
3
 70
0
 10
19.1686490773
 20
5.4150993713
 10
19.1676094797
 20
5.4164329537
 10
19.1591952782
 20
5.422633516
  0
LINE
  5
4BA
100
AcDbEntity
  8
0
100
AcDbLine
 62
7
  6
CONTINUOUS
 10
19.4913854976
 20
5.6006587687
 11
19.4917323623
 21
5.598066626
  0
LINE
  5
4BB
100
AcDbEntity
  8
AXIS
100
AcDbLine
 62
7
  6
CONTINUOUS
 10
19.4016921659
 20
4.9551919147
 11
19.3967660272
 21
4.9580359578
  0
LINE
  5
4BC
100
AcDbEntity
  8
AXIS
100
AcDbLine
 62
7
  6
CONTINUOUS
 10
19.4154401622
 20
4.9766878062
 11
19.4107074563
 21
4.9794201734
  0
LINE
  5
4BD
100
AcDbEntity
  8
0
100
AcDbLine
 62
7
  6
CONTINUOUS
 10
19.1958034534
 20
5.1768833368
 11
19.1933686255
 21
5.1782890536
  0
LINE
  5
4BE
100
AcDbEntity
  8
0
100
AcDbLine
 62
7
  6
CONTINUOUS
 10
18.9947376063
 20
5.2929661316
 11
18.9953629014
 21
5.2926051255
  0
LINE
  5
4BF
100
AcDbEntity
  8
0
100
AcDbLine
 62
7
  6
CONTINUOUS
 10
19.0931483495
 20
5.2361499479
 11
19.0955831774
 21
5.2347442311
  0
LWPOLYLINE
  5
4C0
100
AcDbEntity
  8
0
100
AcDbPolyline
 62
7
  6
CONTINUOUS
 90
3
 70
0
 10
19.2685909637
 20
5.3573992016
 10
19.267551366
 20
5.358732784
 10
19.2591371646
 20
5.3649333464
  0
LWPOLYLINE
  5
4C1
100
AcDbEntity
  8
0
100
AcDbPolyline
 62
7
  6
CONTINUOUS
 90
5
 70
0
 10
19.7774854992
 20
5.612492652
 10
19.7775862251
 20
5.6105196879
 10
19.7800455768
 20
5.6027717969
 10
19.7856450643
 20
5.5955888468
 10
19.7940592658
 20
5.5893882845
  0
LINE
  5
4C2
100
AcDbEntity
  8
0
100
AcDbLine
 62
7
  6
CONTINUOUS
 10
19.8997716186
 20
5.7549029261
 11
19.8997959299
 21
5.7529065427
  0
LINE
  5
4C3
100
AcDbEntity
  8
0
100
AcDbLine
 62
7
  6
CONTINUOUS
 10
19.8390193134
 20
5.1351966879
 11
19.8390193134
 21
5.542954744
  0
LINE
  5
4C4
100
AcDbEntity
  8
0
100
AcDbLine
 62
7
  6
CONTINUOUS
 10
19.883770057
 20
3.7402438742
 11
19.883770057
 21
3.7563167564
  0
LINE
  5
4C5
100
AcDbEntity
  8
AXIS
100
AcDbLine
 62
7
  6
CONTINUOUS
 10
19.9143926641
 20
3.749887298
 11
19.9143926641
 21
3.7177415336
  0
LINE
  5
4C6
100
AcDbEntity
  8
0
100
AcDbLine
 62
7
  6
CONTINUOUS
 10
18.909411768
 20
5.3748579629
 11
18.9219393025
 21
5.3676253511
  0
LINE
  5
4C7
100
AcDbEntity
  8
0
100
AcDbLine
 62
7
  6
CONTINUOUS
 10
19.009632044
 20
5.3169970685
 11
19.0221595785
 21
5.3097644567
  0
LINE
  5
4C8
100
AcDbEntity
  8
0
100
AcDbLine
 62
7
  6
CONTINUOUS
 10
19.10985232
 20
5.2591361742
 11
19.1223798545
 21
5.2519035624
  0
LINE
  5
4C9
100
AcDbEntity
  8
0
100
AcDbLine
 62
7
  6
CONTINUOUS
 10
19.210072596
 20
5.2012752798
 11
19.2226001305
 21
5.1940426681
  0
LINE
  5
4CA
100
AcDbEntity
  8
0
100
AcDbLine
 62
7
  6
CONTINUOUS
 10
18.9929280735
 20
5.4086104925
 11
19.080620815
 21
5.35798221
  0
LINE
  5
4CB
100
AcDbEntity
  8
0
100
AcDbLine
 62
7
  6
CONTINUOUS
 10
19.0931483495
 20
5.3507495982
 11
19.180841091
 21
5.3001213156
  0
LINE
  5
4CC
100
AcDbEntity
  8
0
100
AcDbLine
 62
7
  6
CONTINUOUS
 10
19.1933686255
 20
5.2928887038
 11
19.281061367
 21
5.2422604213
  0
LWPOLYLINE
  5
4CD
100
AcDbEntity
  8
0
100
AcDbPolyline
 62
7
  6
CONTINUOUS
 90
5
 70
0
 10
19.2790426914
 20
5.2920451015
 10
19.27062849
 20
5.2982456639
 10
19.2650290025
 20
5.305428614
 10
19.2625696508
 20
5.313176505
 10
19.2624689248
 20
5.315149469
  0
LWPOLYLINE
  5
4CE
100
AcDbEntity
  8
0
100
AcDbPolyline
 62
7
  6
CONTINUOUS
 90
3
 70
0
 10
19.4291635772
 20
5.3157591267
 10
19.4308812996
 20
5.3134412956
 10
19.4320297551
 20
5.3107947886
  0
LINE
  5
4CF
100
AcDbEntity
  8
0
100
AcDbLine
 62
7
  6
CONTINUOUS
 10
19.8557179293
 20
5.2363455561
 11
19.8562956364
 21
5.2317600103
  0
LWPOLYLINE
  5
4D0
100
AcDbEntity
  8
0
100
AcDbPolyline
 62
7
  6
CONTINUOUS
 90
5
 70
0
 10
19.8906693919
 20
5.6124926549
 10
19.8905686659
 20
5.6144656189
 10
19.8881093142
 20
5.6222135099
 10
19.8825098267
 20
5.62939646
 10
19.8740956253
 20
5.6355970224
  0
LINE
  5
4D1
100
AcDbEntity
  8
0
100
AcDbLine
 62
7
  6
CONTINUOUS
 10
19.9999918946
 20
5.6970420317
 11
20.0000162059
 21
5.6950456484
  0
LWPOLYLINE
  5
4D2
100
AcDbEntity
  8
AXIS
100
AcDbPolyline
 62
7
  6
CONTINUOUS
 90
4
 70
0
 10
18.9841599468
 20
3.4142757015
 10
18.9839365101
 20
3.4140343582
 10
18.9815393324
 20
3.4094718816
 10
18.9808225838
 20
3.405270318
  0
LINE
  5
4D3
100
AcDbEntity
  8
0
100
AcDbLine
 62
7
  6
CONTINUOUS
 10
19.1919766888
 20
5.1782890674
 11
19.1933686255
 21
5.1782890536
  0
LWPOLYLINE
  5
4D4
100
AcDbEntity
  8
0
100
AcDbPolyline
 62
7
  6
CONTINUOUS
 90
11
 70
0
 10
19.1791008051
 20
5.3497452712
 10
19.1898407177
 20
5.3448874508
 10
19.2022821767
 20
5.3416546912
 10
19.2157021299
 20
5.3402348687
 10
19.2293206582
 20
5.3407104981
 10
19.2423463024
 20
5.3430539376
 10
19.2540220593
 20
5.3471289951
 10
19.2636693763
 20
5.352698843
 10
19.2707275866
 20
5.3594397819
 10
19.2747864925
 20
5.3669600531
 10
19.2757109312
 20
5.3728496416
  0
LWPOLYLINE
  5
4D5
100
AcDbEntity
  8
0
100
AcDbPolyline
 62
7
  6
CONTINUOUS
 90
11
 70
0
 10
19.0791589187
 20
5.4074454408
 10
19.0898988313
 20
5.4025876204
 10
19.1023402904
 20
5.3993548608
 10
19.1157602435
 20
5.3979350383
 10
19.1293787719
 20
5.3984106677
 10
19.142404416
 20
5.4007541073
 10
19.1540801729
 20
5.4048291647
 10
19.16372749
 20
5.4103990126
 10
19.1707857002
 20
5.4171399515
 10
19.1748446062
 20
5.4246602227
 10
19.1757690448
 20
5.4305498112
  0
LINE
  5
4D6
100
AcDbEntity
  8
0
100
AcDbLine
 62
7
  6
CONTINUOUS
 10
19.4306668326
 20
5.3092349574
 11
19.432434607
 21
5.3082143555
  0
LINE
  5
4D7
100
AcDbEntity
  8
0
100
AcDbLine
 62
7
  6
CONTINUOUS
 10
19.1195385536
 20
5.4929434015
 11
19.427131284
 21
5.3153586732
  0
LINE
  5
4D8
100
AcDbEntity
  8
0
100
AcDbLine
 62
7
  6
CONTINUOUS
 10
19.1195385536
 20
5.4949846575
 11
19.427131284
 21
5.3173999293
  0
LWPOLYLINE
  5
4D9
100
AcDbEntity
  8
0
100
AcDbPolyline
 62
7
  6
CONTINUOUS
 90
3
 70
0
 10
19.3590790509
 20
5.3072331767
 10
19.3674932524
 20
5.3010326144
 10
19.36853285
 20
5.299699032
  0
LWPOLYLINE
  5
4DA
100
AcDbEntity
  8
0
100
AcDbPolyline
 62
7
  6
CONTINUOUS
 90
5
 70
0
 10
19.3590790509
 20
5.3382538394
 10
19.3674932524
 20
5.3320532771
 10
19.3730927399
 20
5.324870327
 10
19.3755520916
 20
5.317122436
 10
19.3756528175
 20
5.3151494719
  0
LWPOLYLINE
  5
4DB
100
AcDbEntity
  8
0
100
AcDbPolyline
 62
7
  6
CONTINUOUS
 90
5
 70
0
 10
19.427131284
 20
5.3153586732
 10
19.4284861462
 20
5.3142648049
 10
19.4296312944
 20
5.3127195841
 10
19.4303969314
 20
5.3109552461
 10
19.4306668326
 20
5.3092349574
  0
LINE
  5
4DC
100
AcDbEntity
  8
0
100
AcDbLine
 62
7
  6
CONTINUOUS
 10
19.427131284
 20
5.3173999293
 11
19.4291635772
 21
5.3157591267
  0
LWPOLYLINE
  5
4DD
100
AcDbEntity
  8
0
100
AcDbPolyline
 62
7
  6
CONTINUOUS
 90
3
 70
0
 10
19.8647507407
 20
5.2225373116
 10
19.8631473363
 20
5.2269507902
 10
19.8608433729
 20
5.2291304637
  0
LWPOLYLINE
  5
4DE
100
AcDbEntity
  8
0
100
AcDbPolyline
 62
7
  6
CONTINUOUS
 90
5
 70
0
 10
19.8390193134
 20
5.542954744
 10
19.8386144615
 20
5.5455351771
 10
19.837466006
 20
5.5481816841
 10
19.8357482836
 20
5.5504995152
 10
19.8337159904
 20
5.5521403178
  0
LINE
  5
4DF
100
AcDbEntity
  8
0
100
AcDbLine
 62
7
  6
CONTINUOUS
 10
19.8798806979
 20
5.1209664603
 11
19.8647507407
 21
5.2225373116
  0
LWPOLYLINE
  5
4E0
100
AcDbEntity
  8
AXIS
100
AcDbPolyline
 62
7
  6
CONTINUOUS
 90
4
 70
0
 10
20.1301428507
 20
3.8744499828
 10
20.1291209572
 20
3.8813101865
 10
20.1261553069
 20
3.8863188917
 10
20.1240239864
 20
3.8879615
  0
LINE
  5
4E1
100
AcDbEntity
  8
0
100
AcDbLine
 62
7
  6
CONTINUOUS
 10
19.8681107693
 20
5.2435005229
 11
19.8852315905
 21
5.1076041329
  0
LINE
  5
4E2
100
AcDbEntity
  8
0
100
AcDbLine
 62
7
  6
CONTINUOUS
 10
20.1002121706
 20
5.6391811374
 11
20.1002364819
 21
5.637184754
  0
LINE
  5
4E3
100
AcDbEntity
  8
AXIS
100
AcDbLine
 62
7
  6
CONTINUOUS
 10
20.1092636265
 20
3.8543585713
 11
20.1092636265
 21
3.8865043358
  0
LINE
  5
4E4
100
AcDbEntity
  8
AXIS
100
AcDbLine
 62
7
  6
CONTINUOUS
 10
20.1301428507
 20
3.8423042183
 11
20.1301428507
 21
3.8744499828
  0
LINE
  5
4E5
100
AcDbEntity
  8
0
100
AcDbLine
 62
7
  6
CONTINUOUS
 10
20.155197711
 20
3.832660239
 11
20.155197711
 21
5.2663613337
  0
LINE
  5
4E6
100
AcDbEntity
  8
AXIS
100
AcDbLine
 62
7
  6
CONTINUOUS
 10
19.7994183507
 20
3.6748270649
 11
19.8178758939
 21
3.7182729707
  0
LINE
  5
4E7
100
AcDbEntity
  8
0
100
AcDbLine
 62
7
  6
CONTINUOUS
 10
19.0931483495
 20
5.2361499479
 11
19.0917564128
 21
5.2361499618
  0
LWPOLYLINE
  5
4E8
100
AcDbEntity
  8
0
100
AcDbPolyline
 62
7
  6
CONTINUOUS
 90
9
 70
0
 10
19.2591371646
 20
5.3649333464
 10
19.248397252
 20
5.3697911668
 10
19.2359557929
 20
5.3730239263
 10
19.2225358398
 20
5.3744437489
 10
19.2089173115
 20
5.3739681195
 10
19.1958916673
 20
5.3716246799
 10
19.1842159104
 20
5.3675496225
 10
19.1745685933
 20
5.3619797746
 10
19.169647006
 20
5.3572794159
  0
LWPOLYLINE
  5
4E9
100
AcDbEntity
  8
0
100
AcDbPolyline
 62
7
  6
CONTINUOUS
 90
9
 70
0
 10
19.1591952782
 20
5.422633516
 10
19.1484553656
 20
5.4274913364
 10
19.1360139066
 20
5.430724096
 10
19.1225939534
 20
5.4321439185
 10
19.1089754251
 20
5.4316682891
 10
19.0959497809
 20
5.4293248496
 10
19.084274024
 20
5.4252497921
 10
19.074626707
 20
5.4196799442
 10
19.0697051196
 20
5.4149795856
  0
LWPOLYLINE
  5
4EA
100
AcDbEntity
  8
0
100
AcDbPolyline
 62
7
  6
CONTINUOUS
 90
11
 70
0
 10
19.2591371646
 20
5.3959540091
 10
19.248397252
 20
5.4008118295
 10
19.2359557929
 20
5.404044589
 10
19.2225358398
 20
5.4054644116
 10
19.2089173115
 20
5.4049887822
 10
19.1958916673
 20
5.4026453426
 10
19.1842159104
 20
5.3985702852
 10
19.1745685933
 20
5.3930004373
 10
19.1675103831
 20
5.3862594983
 10
19.1634514771
 20
5.3787392272
 10
19.1625270385
 20
5.3728496387
  0
LWPOLYLINE
  5
4EB
100
AcDbEntity
  8
0
100
AcDbPolyline
 62
7
  6
CONTINUOUS
 90
11
 70
0
 10
19.1591952782
 20
5.4536541787
 10
19.1484553656
 20
5.4585119991
 10
19.1360139066
 20
5.4617447587
 10
19.1225939534
 20
5.4631645812
 10
19.1089754251
 20
5.4626889518
 10
19.0959497809
 20
5.4603455123
 10
19.084274024
 20
5.4562704548
 10
19.074626707
 20
5.4507006069
 10
19.0675684967
 20
5.443959668
 10
19.0635095908
 20
5.4364393968
 10
19.0625851521
 20
5.4305498083
  0
LWPOLYLINE
  5
4EC
100
AcDbEntity
  8
0
100
AcDbPolyline
 62
7
  6
CONTINUOUS
 90
3
 70
0
 10
19.8837880656
 20
5.1143733082
 10
19.8814841022
 20
5.1165529818
 10
19.8798806979
 20
5.1209664603
  0
LINE
  5
4ED
100
AcDbEntity
  8
0
100
AcDbLine
 62
7
  6
CONTINUOUS
 10
20.2004324466
 20
5.5813202431
 11
20.2036035867
 21
5.3209139939
  0
LINE
  5
4EE
100
AcDbEntity
  8
0
100
AcDbLine
 62
7
  6
CONTINUOUS
 10
19.8406200197
 20
3.6510398084
 11
19.8768103736
 21
3.7362257231
  0
LINE
  5
4EF
100
AcDbEntity
  8
AXIS
100
AcDbLine
 62
7
  6
CONTINUOUS
 10
18.8412072296
 20
3.4453102004
 11
18.8448611269
 21
3.4474197664
  0
LINE
  5
4F0
100
AcDbEntity
  8
AXIS
100
AcDbLine
 62
7
  6
CONTINUOUS
 10
18.8655663244
 20
3.4312467886
 11
18.8690462553
 21
3.4332559156
  0
LINE
  5
4F1
100
AcDbEntity
  8
0
100
AcDbLine
 62
7
  6
CONTINUOUS
 10
18.9386433135
 20
3.4509362709
 11
18.9031489279
 21
3.4304437001
  0
LINE
  5
4F2
100
AcDbEntity
  8
0
100
AcDbLine
 62
7
  6
CONTINUOUS
 10
18.8655663244
 20
3.4021548718
 11
18.839258502
 21
3.3869656092
  0
LINE
  5
4F3
100
AcDbEntity
  8
0
100
AcDbLine
 62
7
  6
CONTINUOUS
 10
18.8655663244
 20
3.4021548718
 11
18.8728740529
 21
3.4063739656
  0
LINE
  5
4F4
100
AcDbEntity
  8
AXIS
100
AcDbLine
 62
7
  6
CONTINUOUS
 10
18.962237366
 20
3.4373145465
 11
18.9459824893
 21
3.4279298451
  0
LINE
  5
4F5
100
AcDbEntity
  8
0
100
AcDbLine
 62
7
  6
CONTINUOUS
 10
19.1181836915
 20
5.4934139577
 11
19.1195385536
 21
5.4929434015
  0
LINE
  5
4F6
100
AcDbEntity
  8
0
100
AcDbLine
 62
7
  6
CONTINUOUS
 10
19.1175062604
 20
5.4956904919
 11
19.1195385536
 21
5.4949846575
  0
LWPOLYLINE
  5
4F7
100
AcDbEntity
  8
0
100
AcDbPolyline
 62
7
  6
CONTINUOUS
 90
4
 70
0
 10
19.8608433729
 20
5.2291304637
 10
19.8600426499
 20
5.2295266732
 10
19.8558204746
 20
5.229946537
 10
19.8510027443
 20
5.2281584791
  0
LINE
  5
4F8
100
AcDbEntity
  8
AXIS
100
AcDbLine
 62
7
  6
CONTINUOUS
 10
19.8510027443
 20
5.2281584791
 11
19.8462700384
 21
5.2308908463
  0
LINE
  5
4F9
100
AcDbEntity
  8
0
100
AcDbLine
 62
7
  6
CONTINUOUS
 10
19.860845097
 20
5.2291334375
 11
19.8520355245
 21
5.2342195314
  0
LWPOLYLINE
  5
4FA
100
AcDbEntity
  8
AXIS
100
AcDbPolyline
 62
7
  6
CONTINUOUS
 90
6
 70
0
 10
19.1571791062
 20
3.3368217794
 10
19.1507271248
 20
3.3319167542
 10
19.1449067083
 20
3.3251318785
 10
19.1402875996
 20
3.3171313032
 10
19.1373219493
 20
3.3086981803
 10
19.1363000558
 20
3.3006580027
  0
LWPOLYLINE
  5
4FB
100
AcDbEntity
  8
0
100
AcDbPolyline
 62
7
  6
CONTINUOUS
 90
7
 70
0
 10
19.4837303013
 20
5.5855929016
 10
19.4756369992
 20
5.5891782854
 10
19.4643617701
 20
5.5918746445
 10
19.4522619731
 20
5.5927943026
 10
19.4401621894
 20
5.5918745863
 10
19.4288869992
 20
5.589178173
 10
19.4203007311
 20
5.5853743366
  0
LWPOLYLINE
  5
4FC
100
AcDbEntity
  8
AXIS
100
AcDbPolyline
 62
7
  6
CONTINUOUS
 90
6
 70
0
 10
19.9352717144
 20
3.7860510747
 10
19.9288197331
 20
3.7811460495
 10
19.9229993166
 20
3.7743611738
 10
19.9183802079
 20
3.7663605985
 10
19.9154145576
 20
3.7579274756
 10
19.9143926641
 20
3.749887298
  0
LINE
  5
4FD
100
AcDbEntity
  8
0
100
AcDbLine
 62
7
  6
CONTINUOUS
 10
19.0642669411
 20
3.3205477499
 11
19.0680947989
 21
3.3227577514
  0
LINE
  5
4FE
100
AcDbEntity
  8
AXIS
100
AcDbLine
 62
7
  6
CONTINUOUS
 10
19.0628053954
 20
3.3173733341
 11
19.0680947989
 21
3.3204271543
  0
LINE
  5
4FF
100
AcDbEntity
  8
AXIS
100
AcDbLine
 62
7
  6
CONTINUOUS
 10
19.0364279755
 20
3.2755432681
 11
19.0628053954
 21
3.2907721877
  0
LINE
  5
500
100
AcDbEntity
  8
0
100
AcDbLine
 62
7
  6
CONTINUOUS
 10
19.389632533
 20
3.479064468
 11
19.4146873933
 21
3.493529812
  0
LINE
  5
501
100
AcDbEntity
  8
AXIS
100
AcDbLine
 62
7
  6
CONTINUOUS
 10
20.1092638004
 20
3.8865048528
 11
19.9352717144
 21
3.7860510747
  0
LINE
  5
502
100
AcDbEntity
  8
0
100
AcDbLine
 62
7
  6
CONTINUOUS
 10
19.883770057
 20
3.7563167564
 11
19.4146873933
 21
3.4854933709
  0
LINE
  5
503
100
AcDbEntity
  8
AXIS
100
AcDbLine
 62
7
  6
CONTINUOUS
 10
19.3311711921
 20
3.4372755574
 11
19.1571791062
 21
3.3368217794
  0
LINE
  5
504
100
AcDbEntity
  8
0
100
AcDbLine
 62
7
  6
CONTINUOUS
 10
19.8768103736
 20
3.7362257231
 11
19.883770057
 21
3.7402438742
  0
LINE
  5
505
100
AcDbEntity
  8
AXIS
100
AcDbLine
 62
7
  6
CONTINUOUS
 10
19.1363000558
 20
3.292621145
 11
19.3311710182
 21
3.405129276
  0
LINE
  5
506
100
AcDbEntity
  8
AXIS
100
AcDbLine
 62
7
  6
CONTINUOUS
 10
19.9143926641
 20
3.7418504403
 11
20.1092636265
 21
3.8543585713
  0
LINE
  5
507
100
AcDbEntity
  8
AXIS
100
AcDbLine
 62
7
  6
CONTINUOUS
 10
19.1363000558
 20
3.2685122383
 11
19.3520502424
 21
3.393074923
  0
LINE
  5
508
100
AcDbEntity
  8
AXIS
100
AcDbLine
 62
7
  6
CONTINUOUS
 10
19.9143926641
 20
3.7177415336
 11
20.1301428507
 21
3.8423042183
  0
LINE
  5
509
100
AcDbEntity
  8
0
100
AcDbLine
 62
7
  6
CONTINUOUS
 10
19.1170385648
 20
5.4931910229
 11
19.1181836915
 21
5.4934139577
  0
LINE
  5
50A
100
AcDbEntity
  8
0
100
AcDbLine
 62
7
  6
CONTINUOUS
 10
19.1157885704
 20
5.4953560896
 11
19.1175062604
 21
5.4956904919
  0
LWPOLYLINE
  5
50B
100
AcDbEntity
  8
0
100
AcDbPolyline
 62
7
  6
CONTINUOUS
 90
11
 70
0
 10
19.7940592658
 20
5.5893882845
 10
19.8047991784
 20
5.5845304641
 10
19.8172406374
 20
5.5812977045
 10
19.8306605906
 20
5.579877882
 10
19.8442791189
 20
5.5803535114
 10
19.8573047631
 20
5.5826969509
 10
19.86898052
 20
5.5867720084
 10
19.878627837
 20
5.5923418563
 10
19.8856860473
 20
5.5990827952
 10
19.8897449532
 20
5.6066030664
 10
19.8906693919
 20
5.6124926549
  0
LINE
  5
50C
100
AcDbEntity
  8
0
100
AcDbLine
 62
7
  6
CONTINUOUS
 10
19.8337159904
 20
5.5521403178
 11
19.52612326
 21
5.729725046
  0
LWPOLYLINE
  5
50D
100
AcDbEntity
  8
0
100
AcDbPolyline
 62
7
  6
CONTINUOUS
 90
5
 70
0
 10
19.5941754931
 20
5.7047886237
 10
19.5857612916
 20
5.7109891861
 10
19.5801618041
 20
5.7181721362
 10
19.5777024524
 20
5.7259200272
 10
19.5776017265
 20
5.7278929912
  0
LWPOLYLINE
  5
50E
100
AcDbEntity
  8
0
100
AcDbPolyline
 62
7
  6
CONTINUOUS
 90
5
 70
0
 10
19.6941173794
 20
5.6470884541
 10
19.685703178
 20
5.6532890164
 10
19.6801036905
 20
5.6604719666
 10
19.6776443388
 20
5.6682198576
 10
19.6775436128
 20
5.6701928216
  0
LWPOLYLINE
  5
50F
100
AcDbEntity
  8
0
100
AcDbPolyline
 62
7
  6
CONTINUOUS
 90
3
 70
0
 10
19.6742118526
 20
5.7199766989
 10
19.682626054
 20
5.7137761366
 10
19.6836656517
 20
5.7124425542
  0
LWPOLYLINE
  5
510
100
AcDbEntity
  8
0
100
AcDbPolyline
 62
7
  6
CONTINUOUS
 90
3
 70
0
 10
19.7741537389
 20
5.6622765293
 10
19.7825679404
 20
5.656075967
 10
19.783607538
 20
5.6547423846
  0
LWPOLYLINE
  5
511
100
AcDbEntity
  8
0
100
AcDbPolyline
 62
7
  6
CONTINUOUS
 90
5
 70
0
 10
19.6742118526
 20
5.7509973616
 10
19.682626054
 20
5.7447967993
 10
19.6882255415
 20
5.7376138492
 10
19.6906848932
 20
5.7298659582
 10
19.6907856192
 20
5.7278929941
  0
LWPOLYLINE
  5
512
100
AcDbEntity
  8
0
100
AcDbPolyline
 62
7
  6
CONTINUOUS
 90
3
 70
0
 10
19.8835494244
 20
5.5970422149
 10
19.8825098267
 20
5.5983757973
 10
19.8740956253
 20
5.6045763597
  0
LINE
  5
513
100
AcDbEntity
  8
0
100
AcDbLine
 62
7
  6
CONTINUOUS
 10
19.1112451955
 20
3.2299375709
 11
19.3822694532
 21
3.386412565
  0
LINE
  5
514
100
AcDbEntity
  8
0
100
AcDbLine
 62
7
  6
CONTINUOUS
 10
19.8406200197
 20
3.6510398084
 11
20.155197711
 21
3.832660239
  0
LWPOLYLINE
  5
515
100
AcDbEntity
  8
0
100
AcDbPolyline
 62
7
  6
CONTINUOUS
 90
3
 70
0
 10
19.52612326
 20
5.729725046
 10
19.5240909668
 20
5.7304308804
 10
19.5223732768
 20
5.7300964781
  0
LWPOLYLINE
  5
516
100
AcDbEntity
  8
0
100
AcDbPolyline
 62
7
  6
CONTINUOUS
 90
9
 70
0
 10
19.8740956253
 20
5.6045763597
 10
19.8633557127
 20
5.6094341801
 10
19.8509142536
 20
5.6126669396
 10
19.8374943005
 20
5.6140867622
 10
19.8238757722
 20
5.6136111328
 10
19.810850128
 20
5.6112676932
 10
19.7991743711
 20
5.6071926358
 10
19.789527054
 20
5.6016227879
 10
19.7846054667
 20
5.5969224292
  0
LWPOLYLINE
  5
517
100
AcDbEntity
  8
0
100
AcDbPolyline
 62
7
  6
CONTINUOUS
 90
11
 70
0
 10
19.8740956253
 20
5.6355970224
 10
19.8633557127
 20
5.6404548428
 10
19.8509142536
 20
5.6436876023
 10
19.8374943005
 20
5.6451074249
 10
19.8238757722
 20
5.6446317955
 10
19.810850128
 20
5.6422883559
 10
19.7991743711
 20
5.6382132985
 10
19.789527054
 20
5.6326434506
 10
19.7824688438
 20
5.6259025116
 10
19.7784099378
 20
5.6183822405
 10
19.7774854992
 20
5.612492652
  0
LINE
  5
518
100
AcDbEntity
  8
0
100
AcDbLine
 62
7
  6
CONTINUOUS
 10
19.672193177
 20
5.8007820419
 11
19.7598859185
 21
5.7501537594
  0
LINE
  5
519
100
AcDbEntity
  8
0
100
AcDbLine
 62
7
  6
CONTINUOUS
 10
19.772413453
 20
5.7429211476
 11
19.8601061945
 21
5.692292865
  0
LINE
  5
51A
100
AcDbEntity
  8
0
100
AcDbLine
 62
7
  6
CONTINUOUS
 10
19.872633729
 20
5.6850602532
 11
19.9603264705
 21
5.6344319707
  0
LWPOLYLINE
  5
51B
100
AcDbEntity
  8
0
100
AcDbPolyline
 62
7
  6
CONTINUOUS
 90
5
 70
0
 10
19.7741537389
 20
5.693297192
 10
19.7825679404
 20
5.6870966297
 10
19.7881674279
 20
5.6799136795
 10
19.7906267796
 20
5.6721657886
 10
19.7907275055
 20
5.6701928245
  0
LINE
  5
51C
100
AcDbEntity
  8
0
100
AcDbLine
 62
7
  6
CONTINUOUS
 10
20.0438427761
 20
5.6681845003
 11
20.2004324466
 21
5.5813202431
  0
LINE
  5
51D
100
AcDbEntity
  8
0
100
AcDbLine
 62
7
  6
CONTINUOUS
 10
20.0313152416
 20
5.6754171121
 11
20.1879049121
 21
5.5885528549
  0
LINE
  5
51E
100
AcDbEntity
  8
0
100
AcDbLine
 62
7
  6
CONTINUOUS
 10
19.9436225
 20
5.7260453946
 11
20.1002121706
 21
5.6391811374
  0
LINE
  5
51F
100
AcDbEntity
  8
0
100
AcDbLine
 62
7
  6
CONTINUOUS
 10
19.9310949655
 20
5.7332780064
 11
20.0876846361
 21
5.6464137492
  0
LINE
  5
520
100
AcDbEntity
  8
0
100
AcDbLine
 62
7
  6
CONTINUOUS
 10
19.843402224
 20
5.783906289
 11
19.9999918946
 21
5.6970420317
  0
LINE
  5
521
100
AcDbEntity
  8
0
100
AcDbLine
 62
7
  6
CONTINUOUS
 10
19.8308746895
 20
5.7911389008
 11
19.9874643601
 21
5.7042746435
  0
LINE
  5
522
100
AcDbEntity
  8
0
100
AcDbLine
 62
7
  6
CONTINUOUS
 10
19.743181948
 20
5.8417671833
 11
19.8997716186
 21
5.7549029261
  0
LINE
  5
523
100
AcDbEntity
  8
0
100
AcDbLine
 62
7
  6
CONTINUOUS
 10
19.7306544135
 20
5.8489997951
 11
19.8872440841
 21
5.7621355379
  0
LINE
  5
524
100
AcDbEntity
  8
0
100
AcDbLine
 62
7
  6
CONTINUOUS
 10
19.7306544135
 20
5.8489997951
 11
19.743181948
 21
5.8417671833
  0
LINE
  5
525
100
AcDbEntity
  8
0
100
AcDbLine
 62
7
  6
CONTINUOUS
 10
19.8308746895
 20
5.7911389008
 11
19.843402224
 21
5.783906289
  0
LINE
  5
526
100
AcDbEntity
  8
0
100
AcDbLine
 62
7
  6
CONTINUOUS
 10
19.9310949655
 20
5.7332780064
 11
19.9436225
 21
5.7260453946
  0
LINE
  5
527
100
AcDbEntity
  8
0
100
AcDbLine
 62
7
  6
CONTINUOUS
 10
20.0313152416
 20
5.6754171121
 11
20.0438427761
 21
5.6681845003
  0
LINE
  5
528
100
AcDbEntity
  8
0
100
AcDbLine
 62
7
  6
CONTINUOUS
 10
20.2004324466
 20
5.5813202431
 11
20.1879049121
 21
5.5885528549
  0
LINE
  5
529
100
AcDbEntity
  8
0
100
AcDbLine
 62
7
  6
CONTINUOUS
 10
20.1002121706
 20
5.6391811374
 11
20.0876846361
 21
5.6464137492
  0
LINE
  5
52A
100
AcDbEntity
  8
0
100
AcDbLine
 62
7
  6
CONTINUOUS
 10
19.9999918946
 20
5.6970420317
 11
19.9874643601
 21
5.7042746435
  0
LINE
  5
52B
100
AcDbEntity
  8
0
100
AcDbLine
 62
7
  6
CONTINUOUS
 10
19.8997716186
 20
5.7549029261
 11
19.8872440841
 21
5.7621355379
  0
LINE
  5
52C
100
AcDbEntity
  8
0
100
AcDbLine
 62
7
  6
CONTINUOUS
 10
6.3768029374
 20
10.8817763004
 11
5.9338986216
 21
10.447556383
  0
LINE
  5
52D
100
AcDbEntity
  8
0
100
AcDbLine
 62
7
  6
CONTINUOUS
 10
8.1138108114
 20
6.3748590352
 11
8.1642045122
 21
6.3837448043
  0
LINE
  5
52E
100
AcDbEntity
  8
0
100
AcDbLine
 62
7
  6
CONTINUOUS
 10
9.014598213
 20
6.2282329933
 11
8.2480226595
 21
6.2282329933
  0
LINE
  5
52F
100
AcDbEntity
  8
0
100
AcDbLine
 62
7
  6
CONTINUOUS
 10
6.951606087
 20
6.2282329933
 11
6.0618423075
 21
6.2282329933
  0
LINE
  5
530
100
AcDbEntity
  8
AXIS
100
AcDbLine
 62
7
  6
CONTINUOUS
 10
8.9437320712
 20
6.2872881114
 11
8.3334958508
 21
6.2872881114
  0
LINE
  5
531
100
AcDbEntity
  8
AXIS
100
AcDbLine
 62
7
  6
CONTINUOUS
 10
6.7429446697
 20
6.2872881114
 11
6.1327084492
 21
6.2872881114
  0
LINE
  5
532
100
AcDbEntity
  8
0
100
AcDbLine
 62
7
  6
CONTINUOUS
 10
6.9122360083
 20
6.3837448043
 11
6.962629709
 21
6.3748590352
  0
LINE
  5
533
100
AcDbEntity
  8
0
100
AcDbLine
 62
7
  6
CONTINUOUS
 10
8.2271966382
 20
6.3837448043
 11
8.1642045122
 21
6.3837448043
  0
LINE
  5
534
100
AcDbEntity
  8
0
100
AcDbLine
 62
7
  6
CONTINUOUS
 10
6.8505234098
 20
6.3837448043
 11
6.9122360083
 21
6.3837448043
  0
LINE
  5
535
100
AcDbEntity
  8
0
100
AcDbLine
 62
7
  6
CONTINUOUS
 10
6.8492438823
 20
6.3857133083
 11
6.8295588429
 21
6.3857133083
  0
LINE
  5
536
100
AcDbEntity
  8
0
100
AcDbLine
 62
7
  6
CONTINUOUS
 10
7.0067241972
 20
6.4164219697
 11
6.9397950634
 21
6.4164219697
  0
LINE
  5
537
100
AcDbEntity
  8
AXIS
100
AcDbLine
 62
7
  6
CONTINUOUS
 10
6.1917635673
 20
6.425083387
 11
6.6838895516
 21
6.425083387
  0
LINE
  5
538
100
AcDbEntity
  8
0
100
AcDbLine
 62
7
  6
CONTINUOUS
 10
6.8295588429
 20
6.425083387
 11
8.2271966382
 21
6.425083387
  0
LINE
  5
539
100
AcDbEntity
  8
AXIS
100
AcDbLine
 62
7
  6
CONTINUOUS
 10
8.3925509689
 20
6.425083387
 11
8.8846769531
 21
6.425083387
  0
LINE
  5
53A
100
AcDbEntity
  8
0
100
AcDbLine
 62
7
  6
CONTINUOUS
 10
8.2271966382
 20
6.4447684264
 11
8.1563304964
 21
6.4447684264
  0
LINE
  5
53B
100
AcDbEntity
  8
0
100
AcDbLine
 62
7
  6
CONTINUOUS
 10
6.951606087
 20
6.2282329933
 11
6.8492438823
 21
6.3857133083
  0
LINE
  5
53C
100
AcDbEntity
  8
0
100
AcDbLine
 62
7
  6
CONTINUOUS
 10
5.9338986216
 20
10.447556383
 11
5.9249292457
 21
9.8052138955
  0
LINE
  5
53D
100
AcDbEntity
  8
0
100
AcDbLine
 62
7
  6
CONTINUOUS
 10
6.0618423075
 20
6.2282329933
 11
6.0618423075
 21
9.7400440169
  0
LINE
  5
53E
100
AcDbEntity
  8
AXIS
100
AcDbLine
 62
7
  6
CONTINUOUS
 10
6.1327084492
 20
6.2872881114
 11
6.1327084492
 21
6.3660282689
  0
LINE
  5
53F
100
AcDbEntity
  8
0
100
AcDbLine
 62
7
  6
CONTINUOUS
 10
8.1138108114
 20
6.349268484
 11
8.2462805111
 21
6.2381132079
  0
LINE
  5
540
100
AcDbEntity
  8
AXIS
100
AcDbLine
 62
7
  6
CONTINUOUS
 10
6.7429446697
 20
6.3660282689
 11
6.7429446697
 21
6.2872881114
  0
LINE
  5
541
100
AcDbEntity
  8
0
100
AcDbLine
 62
7
  6
CONTINUOUS
 10
6.8738501815
 20
10.0900440169
 11
6.8254249846
 21
9.7329574027
  0
LINE
  5
542
100
AcDbEntity
  8
0
100
AcDbLine
 62
7
  6
CONTINUOUS
 10
6.8405596575
 20
9.7732552585
 11
6.8833538171
 21
10.0434469486
  0
LINE
  5
543
100
AcDbEntity
  8
0
100
AcDbLine
 62
7
  6
CONTINUOUS
 10
6.8295588429
 20
6.3857133083
 11
6.8295588429
 21
6.425083387
  0
LINE
  5
544
100
AcDbEntity
  8
0
100
AcDbLine
 62
7
  6
CONTINUOUS
 10
6.8925509689
 20
6.425083387
 11
6.8925509689
 21
6.3837448043
  0
LINE
  5
545
100
AcDbEntity
  8
0
100
AcDbLine
 62
7
  6
CONTINUOUS
 10
6.9122360083
 20
6.425083387
 11
6.9122360083
 21
6.3837448043
  0
LINE
  5
546
100
AcDbEntity
  8
0
100
AcDbLine
 62
7
  6
CONTINUOUS
 10
6.9397950634
 20
6.425083387
 11
6.9397950634
 21
6.4164219697
  0
LINE
  5
547
100
AcDbEntity
  8
0
100
AcDbLine
 62
7
  6
CONTINUOUS
 10
6.9429446697
 20
6.3327507748
 11
6.9429446697
 21
6.3783300388
  0
LINE
  5
548
100
AcDbEntity
  8
0
100
AcDbLine
 62
7
  6
CONTINUOUS
 10
6.962629709
 20
6.349268484
 11
6.962629709
 21
6.3748590352
  0
LINE
  5
549
100
AcDbEntity
  8
0
100
AcDbLine
 62
7
  6
CONTINUOUS
 10
6.9632202602
 20
10.8867763004
 11
6.9632202602
 21
9.8729842637
  0
LINE
  5
54A
100
AcDbEntity
  8
0
100
AcDbLine
 62
7
  6
CONTINUOUS
 10
7.0067241972
 20
6.425083387
 11
7.0067241972
 21
6.4164219697
  0
LINE
  5
54B
100
AcDbEntity
  8
0
100
AcDbLine
 62
7
  6
CONTINUOUS
 10
9.0029840398
 20
9.7329574027
 11
9.1515112748
 21
9.8052138955
  0
LINE
  5
54C
100
AcDbEntity
  8
0
100
AcDbLine
 62
7
  6
CONTINUOUS
 10
8.2271966382
 20
6.3463432295
 11
8.2480226595
 21
6.2282329933
  0
LINE
  5
54D
100
AcDbEntity
  8
0
100
AcDbLine
 62
7
  6
CONTINUOUS
 10
8.1132202602
 20
9.8729842637
 11
8.1132202602
 21
10.8867763004
  0
LINE
  5
54E
100
AcDbEntity
  8
0
100
AcDbLine
 62
7
  6
CONTINUOUS
 10
8.1138108114
 20
6.3748590352
 11
8.1138108114
 21
6.349268484
  0
LINE
  5
54F
100
AcDbEntity
  8
0
100
AcDbLine
 62
7
  6
CONTINUOUS
 10
6.0734564807
 20
9.7329574027
 11
5.9249292457
 21
9.8052138955
  0
LINE
  5
550
100
AcDbEntity
  8
0
100
AcDbLine
 62
7
  6
CONTINUOUS
 10
8.1334958508
 20
6.3783300388
 11
8.1334958508
 21
6.3327507748
  0
LINE
  5
551
100
AcDbEntity
  8
0
100
AcDbLine
 62
7
  6
CONTINUOUS
 10
8.1563304964
 20
6.4447684264
 11
8.1563304964
 21
6.425083387
  0
LINE
  5
552
100
AcDbEntity
  8
0
100
AcDbLine
 62
7
  6
CONTINUOUS
 10
8.1642045122
 20
6.3837448043
 11
8.1642045122
 21
6.425083387
  0
LINE
  5
553
100
AcDbEntity
  8
0
100
AcDbLine
 62
7
  6
CONTINUOUS
 10
8.1838895516
 20
6.3837448043
 11
8.1838895516
 21
6.425083387
  0
LINE
  5
554
100
AcDbEntity
  8
0
100
AcDbLine
 62
7
  6
CONTINUOUS
 10
8.2271966382
 20
6.4447684264
 11
8.2271966382
 21
6.3463432295
  0
LINE
  5
555
100
AcDbEntity
  8
AXIS
100
AcDbLine
 62
7
  6
CONTINUOUS
 10
8.3334958508
 20
6.2872881114
 11
8.3334958508
 21
6.3660282689
  0
LINE
  5
556
100
AcDbEntity
  8
0
100
AcDbLine
 62
7
  6
CONTINUOUS
 10
8.1930867033
 20
10.0434469486
 11
8.235880863
 21
9.7732552585
  0
LINE
  5
557
100
AcDbEntity
  8
0
100
AcDbLine
 62
7
  6
CONTINUOUS
 10
8.202590339
 20
10.0900440169
 11
8.2510155358
 21
9.7329574027
  0
LINE
  5
558
100
AcDbEntity
  8
0
100
AcDbLine
 62
7
  6
CONTINUOUS
 10
7.1512202602
 20
9.6849842637
 11
7.9252202602
 21
9.6849842637
  0
LINE
  5
559
100
AcDbEntity
  8
0
100
AcDbLine
 62
7
  6
CONTINUOUS
 10
6.9045891795
 20
6.3005666971
 11
6.962629709
 21
6.349268484
  0
LINE
  5
55A
100
AcDbEntity
  8
0
100
AcDbLine
 62
7
  6
CONTINUOUS
 10
9.0029840398
 20
9.7329574027
 11
8.2510155358
 21
9.7329574027
  0
LINE
  5
55B
100
AcDbEntity
  8
0
100
AcDbLine
 62
7
  6
CONTINUOUS
 10
6.8254249846
 20
9.7329574027
 11
6.0734564807
 21
9.7329574027
  0
LINE
  5
55C
100
AcDbEntity
  8
0
100
AcDbLine
 62
7
  6
CONTINUOUS
 10
6.0618423075
 20
9.7400440169
 11
6.8016742897
 21
9.7400440169
  0
LINE
  5
55D
100
AcDbEntity
  8
0
100
AcDbLine
 62
7
  6
CONTINUOUS
 10
8.2747662307
 20
9.7400440169
 11
9.014598213
 21
9.7400440169
  0
LINE
  5
55E
100
AcDbEntity
  8
AXIS
100
AcDbLine
 62
7
  6
CONTINUOUS
 10
8.9437320712
 20
6.3660282689
 11
8.9437320712
 21
6.2872881114
  0
LINE
  5
55F
100
AcDbEntity
  8
0
100
AcDbLine
 62
7
  6
CONTINUOUS
 10
9.014598213
 20
9.7400440169
 11
9.014598213
 21
6.2282329933
  0
LINE
  5
560
100
AcDbEntity
  8
0
100
AcDbLine
 62
7
  6
CONTINUOUS
 10
6.9222391848
 20
10.0766581901
 11
6.9632202602
 21
10.0766581901
  0
LINE
  5
561
100
AcDbEntity
  8
0
100
AcDbLine
 62
7
  6
CONTINUOUS
 10
8.1132202602
 20
10.0766581901
 11
8.1542013356
 21
10.0766581901
  0
LINE
  5
562
100
AcDbEntity
  8
0
100
AcDbLine
 62
7
  6
CONTINUOUS
 10
8.202590339
 20
10.0900440169
 11
8.1132202602
 21
10.0900440169
  0
LINE
  5
563
100
AcDbEntity
  8
0
100
AcDbLine
 62
7
  6
CONTINUOUS
 10
6.9632202602
 20
10.0900440169
 11
6.8738501815
 21
10.0900440169
  0
LINE
  5
564
100
AcDbEntity
  8
0
100
AcDbLine
 62
7
  6
CONTINUOUS
 10
9.1515112748
 20
9.8052138955
 11
9.1425418988
 21
10.447556383
  0
LINE
  5
565
100
AcDbEntity
  8
0
100
AcDbLine
 62
7
  6
CONTINUOUS
 10
8.1132202602
 20
10.8717763004
 11
6.9632202602
 21
10.8717763004
  0
LINE
  5
566
100
AcDbEntity
  8
0
100
AcDbLine
 62
7
  6
CONTINUOUS
 10
6.3768029374
 20
10.8817763004
 11
6.9632202602
 21
10.8817763004
  0
LINE
  5
567
100
AcDbEntity
  8
0
100
AcDbLine
 62
7
  6
CONTINUOUS
 10
8.1132202602
 20
10.8817763004
 11
8.6996375831
 21
10.8817763004
  0
LINE
  5
568
100
AcDbEntity
  8
0
100
AcDbLine
 62
7
  6
CONTINUOUS
 10
8.1132202602
 20
10.8867763004
 11
6.9632202602
 21
10.8867763004
  0
LINE
  5
569
100
AcDbEntity
  8
0
100
AcDbLine
 62
7
  6
CONTINUOUS
 10
9.1425418988
 20
10.447556383
 11
8.6996375831
 21
10.8817763004
  0
LINE
  5
56A
100
AcDbEntity
  8
0
100
AcDbLine
 62
7
  6
CONTINUOUS
 10
3.0409157653
 20
6.2282329933
 11
2.9243803322
 21
6.2282329933
  0
LINE
  5
56B
100
AcDbEntity
  8
AXIS
100
AcDbLine
 62
7
  6
CONTINUOUS
 10
3.0409157653
 20
6.2282329933
 11
3.1153252141
 21
6.2282329933
  0
LINE
  5
56C
100
AcDbEntity
  8
AXIS
100
AcDbLine
 62
7
  6
CONTINUOUS
 10
3.619262222
 20
6.2282329933
 11
3.8102071039
 21
6.2282329933
  0
LINE
  5
56D
100
AcDbEntity
  8
AXIS
100
AcDbLine
 62
7
  6
CONTINUOUS
 10
3.619262222
 20
6.2341385051
 11
3.5985929306
 21
6.2341385051
  0
LINE
  5
56E
100
AcDbEntity
  8
0
100
AcDbLine
 62
7
  6
CONTINUOUS
 10
3.5985929306
 20
6.2341385051
 11
3.1359945054
 21
6.2341385051
  0
LINE
  5
56F
100
AcDbEntity
  8
AXIS
100
AcDbLine
 62
7
  6
CONTINUOUS
 10
3.1359945054
 20
6.2341385051
 11
3.1153252141
 21
6.2341385051
  0
LINE
  5
570
100
AcDbEntity
  8
AXIS
100
AcDbLine
 62
7
  6
CONTINUOUS
 10
3.619262222
 20
6.3660282689
 11
3.5985929306
 21
6.3660282689
  0
LINE
  5
571
100
AcDbEntity
  8
AXIS
100
AcDbLine
 62
7
  6
CONTINUOUS
 10
3.1359945054
 20
6.3660282689
 11
3.1153252141
 21
6.3660282689
  0
LINE
  5
572
100
AcDbEntity
  8
AXIS
100
AcDbLine
 62
7
  6
CONTINUOUS
 10
3.1153252141
 20
6.3739022846
 11
3.0464275763
 21
6.3739022846
  0
LINE
  5
573
100
AcDbEntity
  8
AXIS
100
AcDbLine
 62
7
  6
CONTINUOUS
 10
3.619262222
 20
6.3739022846
 11
3.6881598598
 21
6.3739022846
  0
LINE
  5
574
100
AcDbEntity
  8
0
100
AcDbLine
 62
7
  6
CONTINUOUS
 10
3.6773330881
 20
6.3837448043
 11
3.5985929306
 21
6.3837448043
  0
LINE
  5
575
100
AcDbEntity
  8
0
100
AcDbLine
 62
7
  6
CONTINUOUS
 10
3.1359945054
 20
6.3837448043
 11
3.057254348
 21
6.3837448043
  0
LINE
  5
576
100
AcDbEntity
  8
0
100
AcDbLine
 62
7
  6
CONTINUOUS
 10
3.0464275763
 20
6.425083387
 11
3.6881598598
 21
6.425083387
  0
LINE
  5
577
100
AcDbEntity
  8
0
100
AcDbLine
 62
7
  6
CONTINUOUS
 10
3.5129630094
 20
6.8030361429
 11
3.2216244267
 21
6.8030361429
  0
LINE
  5
578
100
AcDbEntity
  8
0
100
AcDbLine
 62
7
  6
CONTINUOUS
 10
2.917293718
 20
9.6849842637
 11
2.917293718
 21
10.8717763004
  0
LINE
  5
579
100
AcDbEntity
  8
0
100
AcDbLine
 62
7
  6
CONTINUOUS
 10
2.922293718
 20
9.6849842637
 11
2.922293718
 21
10.8717763004
  0
LINE
  5
57A
100
AcDbEntity
  8
0
100
AcDbLine
 62
7
  6
CONTINUOUS
 10
2.9243803322
 20
6.2282329933
 11
2.9243803322
 21
10.8817763004
  0
LINE
  5
57B
100
AcDbEntity
  8
0
100
AcDbLine
 62
7
  6
CONTINUOUS
 10
2.932293718
 20
10.8817763004
 11
2.932293718
 21
10.8867763004
  0
LINE
  5
57C
100
AcDbEntity
  8
0
100
AcDbLine
 62
7
  6
CONTINUOUS
 10
2.9598134031
 20
10.8817763004
 11
2.9598134031
 21
9.8975243319
  0
LINE
  5
57D
100
AcDbEntity
  8
0
100
AcDbLine
 62
7
  6
CONTINUOUS
 10
2.9649315133
 20
10.601067639
 11
2.9649315133
 21
10.4093353555
  0
LINE
  5
57E
100
AcDbEntity
  8
0
100
AcDbLine
 62
7
  6
CONTINUOUS
 10
2.9649315133
 20
9.7400440169
 11
2.9649315133
 21
9.7587182029
  0
LINE
  5
57F
100
AcDbEntity
  8
0
100
AcDbLine
 62
7
  6
CONTINUOUS
 10
2.9649315133
 20
9.8975243319
 11
2.9649315133
 21
10.1233541441
  0
LINE
  5
580
100
AcDbEntity
  8
AXIS
100
AcDbLine
 62
7
  6
CONTINUOUS
 10
2.9657189149
 20
9.7400440169
 11
2.9657189149
 21
9.7587182029
  0
LINE
  5
581
100
AcDbEntity
  8
AXIS
100
AcDbLine
 62
7
  6
CONTINUOUS
 10
2.9657189149
 20
9.8975243319
 11
2.9657189149
 21
10.0766581901
  0
LINE
  5
582
100
AcDbEntity
  8
0
100
AcDbLine
 62
7
  6
CONTINUOUS
 10
2.995246474
 20
9.7400440169
 11
2.995246474
 21
9.7587182029
  0
LINE
  5
583
100
AcDbEntity
  8
0
100
AcDbLine
 62
7
  6
CONTINUOUS
 10
3.0464275763
 20
6.3739022846
 11
3.0464275763
 21
6.425083387
  0
LINE
  5
584
100
AcDbEntity
  8
0
100
AcDbLine
 62
7
  6
CONTINUOUS
 10
3.057254348
 20
6.3837448043
 11
3.057254348
 21
6.425083387
  0
LINE
  5
585
100
AcDbEntity
  8
AXIS
100
AcDbLine
 62
7
  6
CONTINUOUS
 10
3.1153252141
 20
6.2282329933
 11
3.1153252141
 21
6.3026424421
  0
LINE
  5
586
100
AcDbEntity
  8
0
100
AcDbLine
 62
7
  6
CONTINUOUS
 10
3.1153252141
 20
6.3026424421
 11
3.1153252141
 21
6.3739022846
  0
LINE
  5
587
100
AcDbEntity
  8
0
100
AcDbLine
 62
7
  6
CONTINUOUS
 10
3.1359945054
 20
6.2341385051
 11
3.1359945054
 21
6.3837448043
  0
LINE
  5
588
100
AcDbEntity
  8
0
100
AcDbLine
 62
7
  6
CONTINUOUS
 10
3.2078448991
 20
10.8817763004
 11
3.2078448991
 21
9.8975243319
  0
LINE
  5
589
100
AcDbEntity
  8
0
100
AcDbLine
 62
7
  6
CONTINUOUS
 10
3.2216244267
 20
6.425083387
 11
3.2216244267
 21
6.8030361429
  0
LINE
  5
58A
100
AcDbEntity
  8
0
100
AcDbLine
 62
7
  6
CONTINUOUS
 10
3.24327797
 20
10.8817763004
 11
3.24327797
 21
9.8975243319
  0
LINE
  5
58B
100
AcDbEntity
  8
0
100
AcDbLine
 62
7
  6
CONTINUOUS
 10
3.8102071039
 20
9.9088649164
 11
3.812293718
 21
9.9136216894
  0
LINE
  5
58C
100
AcDbEntity
  8
0
100
AcDbLine
 62
7
  6
CONTINUOUS
 10
3.4913094661
 20
10.8817763004
 11
3.4913094661
 21
9.8975243319
  0
LINE
  5
58D
100
AcDbEntity
  8
0
100
AcDbLine
 62
7
  6
CONTINUOUS
 10
3.5129630094
 20
6.425083387
 11
3.5129630094
 21
6.8030361429
  0
LINE
  5
58E
100
AcDbEntity
  8
0
100
AcDbLine
 62
7
  6
CONTINUOUS
 10
3.5267425369
 20
10.8817763004
 11
3.5267425369
 21
9.8975243319
  0
LINE
  5
58F
100
AcDbEntity
  8
0
100
AcDbLine
 62
7
  6
CONTINUOUS
 10
3.5985929306
 20
6.3837448043
 11
3.5985929306
 21
6.2341385051
  0
LINE
  5
590
100
AcDbEntity
  8
0
100
AcDbLine
 62
7
  6
CONTINUOUS
 10
2.9243803322
 20
9.9088649164
 11
2.922293718
 21
9.9136216894
  0
LINE
  5
591
100
AcDbEntity
  8
AXIS
100
AcDbLine
 62
7
  6
CONTINUOUS
 10
3.619262222
 20
6.3739022846
 11
3.619262222
 21
6.2282329933
  0
LINE
  5
592
100
AcDbEntity
  8
AXIS
100
AcDbLine
 62
7
  6
CONTINUOUS
 10
3.625604398
 20
6.2282329933
 11
3.625604398
 21
6.3739022846
  0
LINE
  5
593
100
AcDbEntity
  8
AXIS
100
AcDbLine
 62
7
  6
CONTINUOUS
 10
3.6731992299
 20
6.2282329933
 11
3.6731992299
 21
6.3739022846
  0
LINE
  5
594
100
AcDbEntity
  8
0
100
AcDbLine
 62
7
  6
CONTINUOUS
 10
3.6773330881
 20
6.425083387
 11
3.6773330881
 21
6.3837448043
  0
LINE
  5
595
100
AcDbEntity
  8
0
100
AcDbLine
 62
7
  6
CONTINUOUS
 10
3.6881598598
 20
6.425083387
 11
3.6881598598
 21
6.3739022846
  0
LINE
  5
596
100
AcDbEntity
  8
0
100
AcDbLine
 62
7
  6
CONTINUOUS
 10
3.7393409621
 20
9.7400440169
 11
3.7393409621
 21
9.7587182029
  0
LINE
  5
597
100
AcDbEntity
  8
AXIS
100
AcDbLine
 62
7
  6
CONTINUOUS
 10
3.7688685212
 20
9.7400440169
 11
3.7688685212
 21
9.7587182029
  0
LINE
  5
598
100
AcDbEntity
  8
AXIS
100
AcDbLine
 62
7
  6
CONTINUOUS
 10
3.7688685212
 20
9.8975243319
 11
3.7688685212
 21
10.0766581901
  0
LINE
  5
599
100
AcDbEntity
  8
0
100
AcDbLine
 62
7
  6
CONTINUOUS
 10
3.7696559228
 20
10.601067639
 11
3.7696559228
 21
10.4093353555
  0
LINE
  5
59A
100
AcDbEntity
  8
0
100
AcDbLine
 62
7
  6
CONTINUOUS
 10
3.7696559228
 20
9.7400440169
 11
3.7696559228
 21
9.7587182029
  0
LINE
  5
59B
100
AcDbEntity
  8
0
100
AcDbLine
 62
7
  6
CONTINUOUS
 10
3.7696559228
 20
9.8975243319
 11
3.7696559228
 21
10.1233541441
  0
LINE
  5
59C
100
AcDbEntity
  8
0
100
AcDbLine
 62
7
  6
CONTINUOUS
 10
3.774774033
 20
10.8817763004
 11
3.774774033
 21
9.8975243319
  0
LINE
  5
59D
100
AcDbEntity
  8
0
100
AcDbLine
 62
7
  6
CONTINUOUS
 10
3.802293718
 20
10.8817763004
 11
3.802293718
 21
10.8867763004
  0
LINE
  5
59E
100
AcDbEntity
  8
0
100
AcDbLine
 62
7
  6
CONTINUOUS
 10
3.8102071039
 20
6.2282329933
 11
3.8102071039
 21
10.8817763004
  0
LINE
  5
59F
100
AcDbEntity
  8
0
100
AcDbLine
 62
7
  6
CONTINUOUS
 10
3.812293718
 20
10.8717763004
 11
3.812293718
 21
9.6849842637
  0
LINE
  5
5A0
100
AcDbEntity
  8
0
100
AcDbLine
 62
7
  6
CONTINUOUS
 10
3.817293718
 20
10.8717763004
 11
3.817293718
 21
9.6849842637
  0
LINE
  5
5A1
100
AcDbEntity
  8
0
100
AcDbLine
 62
7
  6
CONTINUOUS
 10
3.817293718
 20
9.6849842637
 11
3.812293718
 21
9.6849842637
  0
LINE
  5
5A2
100
AcDbEntity
  8
0
100
AcDbLine
 62
7
  6
CONTINUOUS
 10
2.917293718
 20
9.6849842637
 11
2.922293718
 21
9.6849842637
  0
LINE
  5
5A3
100
AcDbEntity
  8
0
100
AcDbLine
 62
7
  6
CONTINUOUS
 10
3.7696559228
 20
9.7400440169
 11
2.9649315133
 21
9.7400440169
  0
LINE
  5
5A4
100
AcDbEntity
  8
0
100
AcDbLine
 62
7
  6
CONTINUOUS
 10
3.7696559228
 20
9.7587182029
 11
2.9649315133
 21
9.7587182029
  0
LINE
  5
5A5
100
AcDbEntity
  8
0
100
AcDbLine
 62
7
  6
CONTINUOUS
 10
3.8102071039
 20
9.8052138955
 11
2.9243803322
 21
9.8052138955
  0
LINE
  5
5A6
100
AcDbEntity
  8
0
100
AcDbLine
 62
7
  6
CONTINUOUS
 10
3.1153252141
 20
6.3026424421
 11
3.0409157653
 21
6.2282329933
  0
LINE
  5
5A7
100
AcDbEntity
  8
0
100
AcDbLine
 62
7
  6
CONTINUOUS
 10
3.817293718
 20
9.8729842637
 11
3.812293718
 21
9.8729842637
  0
LINE
  5
5A8
100
AcDbEntity
  8
0
100
AcDbLine
 62
7
  6
CONTINUOUS
 10
2.917293718
 20
9.8729842637
 11
2.922293718
 21
9.8729842637
  0
LINE
  5
5A9
100
AcDbEntity
  8
0
100
AcDbLine
 62
7
  6
CONTINUOUS
 10
3.774774033
 20
9.8975243319
 11
3.5267425369
 21
9.8975243319
  0
LINE
  5
5AA
100
AcDbEntity
  8
0
100
AcDbLine
 62
7
  6
CONTINUOUS
 10
3.4913094661
 20
9.8975243319
 11
3.24327797
 21
9.8975243319
  0
LINE
  5
5AB
100
AcDbEntity
  8
0
100
AcDbLine
 62
7
  6
CONTINUOUS
 10
3.2078448991
 20
9.8975243319
 11
2.9598134031
 21
9.8975243319
  0
LINE
  5
5AC
100
AcDbEntity
  8
0
100
AcDbLine
 62
7
  6
CONTINUOUS
 10
3.812293718
 20
9.9223274815
 11
3.8102071039
 21
9.9223274815
  0
LINE
  5
5AD
100
AcDbEntity
  8
0
100
AcDbLine
 62
7
  6
CONTINUOUS
 10
2.922293718
 20
9.9223274815
 11
2.9243803322
 21
9.9223274815
  0
LINE
  5
5AE
100
AcDbEntity
  8
AXIS
100
AcDbLine
 62
7
  6
CONTINUOUS
 10
2.9649315133
 20
10.0434469486
 11
2.9657189149
 21
10.0434469486
  0
LINE
  5
5AF
100
AcDbEntity
  8
AXIS
100
AcDbLine
 62
7
  6
CONTINUOUS
 10
3.7688685212
 20
10.0434469486
 11
3.7696559228
 21
10.0434469486
  0
LINE
  5
5B0
100
AcDbEntity
  8
AXIS
100
AcDbLine
 62
7
  6
CONTINUOUS
 10
2.9649315133
 20
10.0766581901
 11
2.9657189149
 21
10.0766581901
  0
LINE
  5
5B1
100
AcDbEntity
  8
AXIS
100
AcDbLine
 62
7
  6
CONTINUOUS
 10
3.7688685212
 20
10.0766581901
 11
3.7696559228
 21
10.0766581901
  0
LINE
  5
5B2
100
AcDbEntity
  8
0
100
AcDbLine
 62
7
  6
CONTINUOUS
 10
2.9649315133
 20
10.0900440169
 11
3.2078448991
 21
10.0900440169
  0
LINE
  5
5B3
100
AcDbEntity
  8
0
100
AcDbLine
 62
7
  6
CONTINUOUS
 10
3.24327797
 20
10.0900440169
 11
3.4913094661
 21
10.0900440169
  0
LINE
  5
5B4
100
AcDbEntity
  8
0
100
AcDbLine
 62
7
  6
CONTINUOUS
 10
3.5267425369
 20
10.0900440169
 11
3.7696559228
 21
10.0900440169
  0
LINE
  5
5B5
100
AcDbEntity
  8
0
100
AcDbLine
 62
7
  6
CONTINUOUS
 10
3.7696559228
 20
10.1233541441
 11
3.5267425369
 21
10.1233541441
  0
LINE
  5
5B6
100
AcDbEntity
  8
0
100
AcDbLine
 62
7
  6
CONTINUOUS
 10
3.4913094661
 20
10.1233541441
 11
3.24327797
 21
10.1233541441
  0
LINE
  5
5B7
100
AcDbEntity
  8
0
100
AcDbLine
 62
7
  6
CONTINUOUS
 10
2.9649315133
 20
10.1233541441
 11
3.2078448991
 21
10.1233541441
  0
LINE
  5
5B8
100
AcDbEntity
  8
0
100
AcDbLine
 62
7
  6
CONTINUOUS
 10
2.9598134031
 20
10.1770518909
 11
3.2078448991
 21
10.1770518909
  0
LINE
  5
5B9
100
AcDbEntity
  8
0
100
AcDbLine
 62
7
  6
CONTINUOUS
 10
3.24327797
 20
10.1770518909
 11
3.4913094661
 21
10.1770518909
  0
LINE
  5
5BA
100
AcDbEntity
  8
0
100
AcDbLine
 62
7
  6
CONTINUOUS
 10
3.5267425369
 20
10.1770518909
 11
3.774774033
 21
10.1770518909
  0
LINE
  5
5BB
100
AcDbEntity
  8
0
100
AcDbLine
 62
7
  6
CONTINUOUS
 10
2.9598134031
 20
10.4093353555
 11
3.2078448991
 21
10.4093353555
  0
LINE
  5
5BC
100
AcDbEntity
  8
0
100
AcDbLine
 62
7
  6
CONTINUOUS
 10
3.24327797
 20
10.4093353555
 11
3.4913094661
 21
10.4093353555
  0
LINE
  5
5BD
100
AcDbEntity
  8
0
100
AcDbLine
 62
7
  6
CONTINUOUS
 10
3.5267425369
 20
10.4093353555
 11
3.774774033
 21
10.4093353555
  0
LINE
  5
5BE
100
AcDbEntity
  8
0
100
AcDbLine
 62
7
  6
CONTINUOUS
 10
2.9243803322
 20
10.447556383
 11
2.9598134031
 21
10.447556383
  0
LINE
  5
5BF
100
AcDbEntity
  8
0
100
AcDbLine
 62
7
  6
CONTINUOUS
 10
3.2078448991
 20
10.447556383
 11
3.24327797
 21
10.447556383
  0
LINE
  5
5C0
100
AcDbEntity
  8
0
100
AcDbLine
 62
7
  6
CONTINUOUS
 10
3.4913094661
 20
10.447556383
 11
3.5267425369
 21
10.447556383
  0
LINE
  5
5C1
100
AcDbEntity
  8
0
100
AcDbLine
 62
7
  6
CONTINUOUS
 10
3.774774033
 20
10.447556383
 11
3.8102071039
 21
10.447556383
  0
LINE
  5
5C2
100
AcDbEntity
  8
0
100
AcDbLine
 62
7
  6
CONTINUOUS
 10
2.9649315133
 20
10.5636660642
 11
3.2078448991
 21
10.5636660642
  0
LINE
  5
5C3
100
AcDbEntity
  8
0
100
AcDbLine
 62
7
  6
CONTINUOUS
 10
3.24327797
 20
10.5636660642
 11
3.4913094661
 21
10.5636660642
  0
LINE
  5
5C4
100
AcDbEntity
  8
0
100
AcDbLine
 62
7
  6
CONTINUOUS
 10
3.5267425369
 20
10.5636660642
 11
3.7696559228
 21
10.5636660642
  0
LINE
  5
5C5
100
AcDbEntity
  8
0
100
AcDbLine
 62
7
  6
CONTINUOUS
 10
3.7696559228
 20
10.601067639
 11
3.5267425369
 21
10.601067639
  0
LINE
  5
5C6
100
AcDbEntity
  8
0
100
AcDbLine
 62
7
  6
CONTINUOUS
 10
3.4913094661
 20
10.601067639
 11
3.24327797
 21
10.601067639
  0
LINE
  5
5C7
100
AcDbEntity
  8
0
100
AcDbLine
 62
7
  6
CONTINUOUS
 10
2.9649315133
 20
10.601067639
 11
3.2078448991
 21
10.601067639
  0
LINE
  5
5C8
100
AcDbEntity
  8
0
100
AcDbLine
 62
7
  6
CONTINUOUS
 10
2.922293718
 20
10.8717763004
 11
2.917293718
 21
10.8717763004
  0
LINE
  5
5C9
100
AcDbEntity
  8
0
100
AcDbLine
 62
7
  6
CONTINUOUS
 10
3.812293718
 20
10.8717763004
 11
3.817293718
 21
10.8717763004
  0
LINE
  5
5CA
100
AcDbEntity
  8
0
100
AcDbLine
 62
7
  6
CONTINUOUS
 10
3.8102071039
 20
10.8817763004
 11
2.9243803322
 21
10.8817763004
  0
LINE
  5
5CB
100
AcDbEntity
  8
0
100
AcDbLine
 62
7
  6
CONTINUOUS
 10
2.932293718
 20
10.8867763004
 11
3.802293718
 21
10.8867763004
  0
LINE
  5
5CC
100
AcDbEntity
  8
0
100
AcDbLine
 62
7
  6
CONTINUOUS
 10
12.096019434
 20
6.2282329933
 11
12.212554867
 21
6.2282329933
  0
LINE
  5
5CD
100
AcDbEntity
  8
AXIS
100
AcDbLine
 62
7
  6
CONTINUOUS
 10
12.212554867
 20
6.2282329933
 11
12.2869643158
 21
6.2282329933
  0
LINE
  5
5CE
100
AcDbEntity
  8
AXIS
100
AcDbLine
 62
7
  6
CONTINUOUS
 10
12.7909013237
 20
6.2282329933
 11
12.9818462056
 21
6.2282329933
  0
LINE
  5
5CF
100
AcDbEntity
  8
AXIS
100
AcDbLine
 62
7
  6
CONTINUOUS
 10
12.7909013237
 20
6.2341385051
 11
12.7702320324
 21
6.2341385051
  0
LINE
  5
5D0
100
AcDbEntity
  8
0
100
AcDbLine
 62
7
  6
CONTINUOUS
 10
12.7702320324
 20
6.2341385051
 11
12.3076336072
 21
6.2341385051
  0
LINE
  5
5D1
100
AcDbEntity
  8
AXIS
100
AcDbLine
 62
7
  6
CONTINUOUS
 10
12.3076336072
 20
6.2341385051
 11
12.2869643158
 21
6.2341385051
  0
LINE
  5
5D2
100
AcDbEntity
  8
AXIS
100
AcDbLine
 62
7
  6
CONTINUOUS
 10
12.7909013237
 20
6.3660282689
 11
12.7702320324
 21
6.3660282689
  0
LINE
  5
5D3
100
AcDbEntity
  8
AXIS
100
AcDbLine
 62
7
  6
CONTINUOUS
 10
12.3076336072
 20
6.3660282689
 11
12.2869643158
 21
6.3660282689
  0
LINE
  5
5D4
100
AcDbEntity
  8
AXIS
100
AcDbLine
 62
7
  6
CONTINUOUS
 10
12.2180666781
 20
6.3739022846
 11
12.2869643158
 21
6.3739022846
  0
LINE
  5
5D5
100
AcDbEntity
  8
AXIS
100
AcDbLine
 62
7
  6
CONTINUOUS
 10
12.7909013237
 20
6.3739022846
 11
12.8597989615
 21
6.3739022846
  0
LINE
  5
5D6
100
AcDbEntity
  8
0
100
AcDbLine
 62
7
  6
CONTINUOUS
 10
12.8489721899
 20
6.3837448043
 11
12.7702320324
 21
6.3837448043
  0
LINE
  5
5D7
100
AcDbEntity
  8
0
100
AcDbLine
 62
7
  6
CONTINUOUS
 10
12.3076336072
 20
6.3837448043
 11
12.2288934497
 21
6.3837448043
  0
LINE
  5
5D8
100
AcDbEntity
  8
0
100
AcDbLine
 62
7
  6
CONTINUOUS
 10
12.2180666781
 20
6.425083387
 11
12.8597989615
 21
6.425083387
  0
LINE
  5
5D9
100
AcDbEntity
  8
0
100
AcDbLine
 62
7
  6
CONTINUOUS
 10
12.3932635284
 20
6.8030361429
 11
12.6846021111
 21
6.8030361429
  0
LINE
  5
5DA
100
AcDbEntity
  8
0
100
AcDbLine
 62
7
  6
CONTINUOUS
 10
12.0889328198
 20
9.6849842637
 11
12.0889328198
 21
10.8717763004
  0
LINE
  5
5DB
100
AcDbEntity
  8
0
100
AcDbLine
 62
7
  6
CONTINUOUS
 10
12.0939328198
 20
9.6849842637
 11
12.0939328198
 21
10.8717763004
  0
LINE
  5
5DC
100
AcDbEntity
  8
0
100
AcDbLine
 62
7
  6
CONTINUOUS
 10
12.096019434
 20
6.2282329933
 11
12.096019434
 21
10.8817763004
  0
LINE
  5
5DD
100
AcDbEntity
  8
0
100
AcDbLine
 62
7
  6
CONTINUOUS
 10
12.1039328198
 20
10.8817763004
 11
12.1039328198
 21
10.8867763004
  0
LINE
  5
5DE
100
AcDbEntity
  8
0
100
AcDbLine
 62
7
  6
CONTINUOUS
 10
12.1314525048
 20
9.8975243319
 11
12.1314525048
 21
10.8817763004
  0
LINE
  5
5DF
100
AcDbEntity
  8
0
100
AcDbLine
 62
7
  6
CONTINUOUS
 10
12.1365706151
 20
10.601067639
 11
12.1365706151
 21
10.4093353555
  0
LINE
  5
5E0
100
AcDbEntity
  8
0
100
AcDbLine
 62
7
  6
CONTINUOUS
 10
12.1365706151
 20
9.7400440169
 11
12.1365706151
 21
9.7587182029
  0
LINE
  5
5E1
100
AcDbEntity
  8
0
100
AcDbLine
 62
7
  6
CONTINUOUS
 10
12.1365706151
 20
9.8975243319
 11
12.1365706151
 21
10.1233541441
  0
LINE
  5
5E2
100
AcDbEntity
  8
AXIS
100
AcDbLine
 62
7
  6
CONTINUOUS
 10
12.1373580166
 20
9.7400440169
 11
12.1373580166
 21
9.7587182029
  0
LINE
  5
5E3
100
AcDbEntity
  8
AXIS
100
AcDbLine
 62
7
  6
CONTINUOUS
 10
12.1373580166
 20
9.8975243319
 11
12.1373580166
 21
10.0766581901
  0
LINE
  5
5E4
100
AcDbEntity
  8
0
100
AcDbLine
 62
7
  6
CONTINUOUS
 10
12.2180666781
 20
6.425083387
 11
12.2180666781
 21
6.3739022846
  0
LINE
  5
5E5
100
AcDbEntity
  8
0
100
AcDbLine
 62
7
  6
CONTINUOUS
 10
12.2288934497
 20
6.3837448043
 11
12.2288934497
 21
6.425083387
  0
LINE
  5
5E6
100
AcDbEntity
  8
AXIS
100
AcDbLine
 62
7
  6
CONTINUOUS
 10
12.2869643158
 20
6.2282329933
 11
12.2869643158
 21
6.3026424421
  0
LINE
  5
5E7
100
AcDbEntity
  8
0
100
AcDbLine
 62
7
  6
CONTINUOUS
 10
12.2869643158
 20
6.3026424421
 11
12.2869643158
 21
6.3739022846
  0
LINE
  5
5E8
100
AcDbEntity
  8
0
100
AcDbLine
 62
7
  6
CONTINUOUS
 10
12.3076336072
 20
6.2341385051
 11
12.3076336072
 21
6.3837448043
  0
LINE
  5
5E9
100
AcDbEntity
  8
0
100
AcDbLine
 62
7
  6
CONTINUOUS
 10
12.3794840009
 20
9.8975243319
 11
12.3794840009
 21
10.8817763004
  0
LINE
  5
5EA
100
AcDbEntity
  8
0
100
AcDbLine
 62
7
  6
CONTINUOUS
 10
12.3932635284
 20
6.425083387
 11
12.3932635284
 21
6.8030361429
  0
LINE
  5
5EB
100
AcDbEntity
  8
0
100
AcDbLine
 62
7
  6
CONTINUOUS
 10
12.4149170718
 20
9.8975243319
 11
12.4149170718
 21
10.8817763004
  0
LINE
  5
5EC
100
AcDbEntity
  8
0
100
AcDbLine
 62
7
  6
CONTINUOUS
 10
12.9818462056
 20
9.9088649164
 11
12.9839328198
 21
9.9136216894
  0
LINE
  5
5ED
100
AcDbEntity
  8
0
100
AcDbLine
 62
7
  6
CONTINUOUS
 10
12.6629485678
 20
9.8975243319
 11
12.6629485678
 21
10.8817763004
  0
LINE
  5
5EE
100
AcDbEntity
  8
0
100
AcDbLine
 62
7
  6
CONTINUOUS
 10
12.6846021111
 20
6.425083387
 11
12.6846021111
 21
6.8030361429
  0
LINE
  5
5EF
100
AcDbEntity
  8
0
100
AcDbLine
 62
7
  6
CONTINUOUS
 10
12.6983816387
 20
9.8975243319
 11
12.6983816387
 21
10.8817763004
  0
LINE
  5
5F0
100
AcDbEntity
  8
0
100
AcDbLine
 62
7
  6
CONTINUOUS
 10
12.7702320324
 20
6.3837448043
 11
12.7702320324
 21
6.2341385051
  0
LINE
  5
5F1
100
AcDbEntity
  8
0
100
AcDbLine
 62
7
  6
CONTINUOUS
 10
12.096019434
 20
9.9088649164
 11
12.0939328198
 21
9.9136216894
  0
LINE
  5
5F2
100
AcDbEntity
  8
AXIS
100
AcDbLine
 62
7
  6
CONTINUOUS
 10
12.7909013237
 20
6.3739022846
 11
12.7909013237
 21
6.2282329933
  0
LINE
  5
5F3
100
AcDbEntity
  8
AXIS
100
AcDbLine
 62
7
  6
CONTINUOUS
 10
12.7972434997
 20
6.2282329933
 11
12.7972434997
 21
6.3739022846
  0
LINE
  5
5F4
100
AcDbEntity
  8
AXIS
100
AcDbLine
 62
7
  6
CONTINUOUS
 10
12.8448383316
 20
6.2282329933
 11
12.8448383316
 21
6.3739022846
  0
LINE
  5
5F5
100
AcDbEntity
  8
0
100
AcDbLine
 62
7
  6
CONTINUOUS
 10
12.8489721899
 20
6.425083387
 11
12.8489721899
 21
6.3837448043
  0
LINE
  5
5F6
100
AcDbEntity
  8
0
100
AcDbLine
 62
7
  6
CONTINUOUS
 10
12.8597989615
 20
6.3739022846
 11
12.8597989615
 21
6.425083387
  0
LINE
  5
5F7
100
AcDbEntity
  8
AXIS
100
AcDbLine
 62
7
  6
CONTINUOUS
 10
12.9405076229
 20
9.7400440169
 11
12.9405076229
 21
9.7587182029
  0
LINE
  5
5F8
100
AcDbEntity
  8
AXIS
100
AcDbLine
 62
7
  6
CONTINUOUS
 10
12.9405076229
 20
9.8975243319
 11
12.9405076229
 21
10.0766581901
  0
LINE
  5
5F9
100
AcDbEntity
  8
0
100
AcDbLine
 62
7
  6
CONTINUOUS
 10
12.9412950245
 20
10.601067639
 11
12.9412950245
 21
10.4093353555
  0
LINE
  5
5FA
100
AcDbEntity
  8
0
100
AcDbLine
 62
7
  6
CONTINUOUS
 10
12.9412950245
 20
9.7400440169
 11
12.9412950245
 21
9.7587182029
  0
LINE
  5
5FB
100
AcDbEntity
  8
0
100
AcDbLine
 62
7
  6
CONTINUOUS
 10
12.9412950245
 20
9.8975243319
 11
12.9412950245
 21
10.1233541441
  0
LINE
  5
5FC
100
AcDbEntity
  8
0
100
AcDbLine
 62
7
  6
CONTINUOUS
 10
12.9464131347
 20
9.8975243319
 11
12.9464131347
 21
10.8817763004
  0
LINE
  5
5FD
100
AcDbEntity
  8
0
100
AcDbLine
 62
7
  6
CONTINUOUS
 10
12.9739328198
 20
10.8817763004
 11
12.9739328198
 21
10.8867763004
  0
LINE
  5
5FE
100
AcDbEntity
  8
0
100
AcDbLine
 62
7
  6
CONTINUOUS
 10
12.9818462056
 20
6.2282329933
 11
12.9818462056
 21
10.8817763004
  0
LINE
  5
5FF
100
AcDbEntity
  8
0
100
AcDbLine
 62
7
  6
CONTINUOUS
 10
12.9839328198
 20
10.8717763004
 11
12.9839328198
 21
9.6849842637
  0
LINE
  5
600
100
AcDbEntity
  8
0
100
AcDbLine
 62
7
  6
CONTINUOUS
 10
12.9889328198
 20
10.8717763004
 11
12.9889328198
 21
9.6849842637
  0
LINE
  5
601
100
AcDbEntity
  8
0
100
AcDbLine
 62
7
  6
CONTINUOUS
 10
12.9889328198
 20
9.6849842637
 11
12.9839328198
 21
9.6849842637
  0
LINE
  5
602
100
AcDbEntity
  8
0
100
AcDbLine
 62
7
  6
CONTINUOUS
 10
12.0889328198
 20
9.6849842637
 11
12.0939328198
 21
9.6849842637
  0
LINE
  5
603
100
AcDbEntity
  8
0
100
AcDbLine
 62
7
  6
CONTINUOUS
 10
12.1365706151
 20
9.7400440169
 11
12.9412950245
 21
9.7400440169
  0
LINE
  5
604
100
AcDbEntity
  8
0
100
AcDbLine
 62
7
  6
CONTINUOUS
 10
12.1365706151
 20
9.7587182029
 11
12.9412950245
 21
9.7587182029
  0
LINE
  5
605
100
AcDbEntity
  8
0
100
AcDbLine
 62
7
  6
CONTINUOUS
 10
12.096019434
 20
9.8052138955
 11
12.9818462056
 21
9.8052138955
  0
LINE
  5
606
100
AcDbEntity
  8
0
100
AcDbLine
 62
7
  6
CONTINUOUS
 10
12.2869643158
 20
6.3026424421
 11
12.212554867
 21
6.2282329933
  0
LINE
  5
607
100
AcDbEntity
  8
0
100
AcDbLine
 62
7
  6
CONTINUOUS
 10
12.9889328198
 20
9.8729842637
 11
12.9839328198
 21
9.8729842637
  0
LINE
  5
608
100
AcDbEntity
  8
0
100
AcDbLine
 62
7
  6
CONTINUOUS
 10
12.0889328198
 20
9.8729842637
 11
12.0939328198
 21
9.8729842637
  0
LINE
  5
609
100
AcDbEntity
  8
0
100
AcDbLine
 62
7
  6
CONTINUOUS
 10
12.1314525048
 20
9.8975243319
 11
12.3794840009
 21
9.8975243319
  0
LINE
  5
60A
100
AcDbEntity
  8
0
100
AcDbLine
 62
7
  6
CONTINUOUS
 10
12.4149170718
 20
9.8975243319
 11
12.6629485678
 21
9.8975243319
  0
LINE
  5
60B
100
AcDbEntity
  8
0
100
AcDbLine
 62
7
  6
CONTINUOUS
 10
12.6983816387
 20
9.8975243319
 11
12.9464131347
 21
9.8975243319
  0
LINE
  5
60C
100
AcDbEntity
  8
0
100
AcDbLine
 62
7
  6
CONTINUOUS
 10
12.9839328198
 20
9.9223274815
 11
12.9818462056
 21
9.9223274815
  0
LINE
  5
60D
100
AcDbEntity
  8
0
100
AcDbLine
 62
7
  6
CONTINUOUS
 10
12.0939328198
 20
9.9223274815
 11
12.096019434
 21
9.9223274815
  0
LINE
  5
60E
100
AcDbEntity
  8
AXIS
100
AcDbLine
 62
7
  6
CONTINUOUS
 10
12.9412950245
 20
10.0434469486
 11
12.9405076229
 21
10.0434469486
  0
LINE
  5
60F
100
AcDbEntity
  8
AXIS
100
AcDbLine
 62
7
  6
CONTINUOUS
 10
12.1373580166
 20
10.0434469486
 11
12.1365706151
 21
10.0434469486
  0
LINE
  5
610
100
AcDbEntity
  8
AXIS
100
AcDbLine
 62
7
  6
CONTINUOUS
 10
12.9412950245
 20
10.0766581901
 11
12.9405076229
 21
10.0766581901
  0
LINE
  5
611
100
AcDbEntity
  8
AXIS
100
AcDbLine
 62
7
  6
CONTINUOUS
 10
12.1373580166
 20
10.0766581901
 11
12.1365706151
 21
10.0766581901
  0
LINE
  5
612
100
AcDbEntity
  8
0
100
AcDbLine
 62
7
  6
CONTINUOUS
 10
12.9412950245
 20
10.0900440169
 11
12.6983816387
 21
10.0900440169
  0
LINE
  5
613
100
AcDbEntity
  8
0
100
AcDbLine
 62
7
  6
CONTINUOUS
 10
12.6629485678
 20
10.0900440169
 11
12.4149170718
 21
10.0900440169
  0
LINE
  5
614
100
AcDbEntity
  8
0
100
AcDbLine
 62
7
  6
CONTINUOUS
 10
12.3794840009
 20
10.0900440169
 11
12.1365706151
 21
10.0900440169
  0
LINE
  5
615
100
AcDbEntity
  8
0
100
AcDbLine
 62
7
  6
CONTINUOUS
 10
12.9412950245
 20
10.1233541441
 11
12.6983816387
 21
10.1233541441
  0
LINE
  5
616
100
AcDbEntity
  8
0
100
AcDbLine
 62
7
  6
CONTINUOUS
 10
12.1365706151
 20
10.1233541441
 11
12.3794840009
 21
10.1233541441
  0
LINE
  5
617
100
AcDbEntity
  8
0
100
AcDbLine
 62
7
  6
CONTINUOUS
 10
12.4149170718
 20
10.1233541441
 11
12.6629485678
 21
10.1233541441
  0
LINE
  5
618
100
AcDbEntity
  8
0
100
AcDbLine
 62
7
  6
CONTINUOUS
 10
12.9464131347
 20
10.1770518909
 11
12.6983816387
 21
10.1770518909
  0
LINE
  5
619
100
AcDbEntity
  8
0
100
AcDbLine
 62
7
  6
CONTINUOUS
 10
12.6629485678
 20
10.1770518909
 11
12.4149170718
 21
10.1770518909
  0
LINE
  5
61A
100
AcDbEntity
  8
0
100
AcDbLine
 62
7
  6
CONTINUOUS
 10
12.3794840009
 20
10.1770518909
 11
12.1314525048
 21
10.1770518909
  0
LINE
  5
61B
100
AcDbEntity
  8
0
100
AcDbLine
 62
7
  6
CONTINUOUS
 10
12.9464131347
 20
10.4093353555
 11
12.6983816387
 21
10.4093353555
  0
LINE
  5
61C
100
AcDbEntity
  8
0
100
AcDbLine
 62
7
  6
CONTINUOUS
 10
12.6629485678
 20
10.4093353555
 11
12.4149170718
 21
10.4093353555
  0
LINE
  5
61D
100
AcDbEntity
  8
0
100
AcDbLine
 62
7
  6
CONTINUOUS
 10
12.3794840009
 20
10.4093353555
 11
12.1314525048
 21
10.4093353555
  0
LINE
  5
61E
100
AcDbEntity
  8
0
100
AcDbLine
 62
7
  6
CONTINUOUS
 10
12.9818462056
 20
10.447556383
 11
12.9464131347
 21
10.447556383
  0
LINE
  5
61F
100
AcDbEntity
  8
0
100
AcDbLine
 62
7
  6
CONTINUOUS
 10
12.6983816387
 20
10.447556383
 11
12.6629485678
 21
10.447556383
  0
LINE
  5
620
100
AcDbEntity
  8
0
100
AcDbLine
 62
7
  6
CONTINUOUS
 10
12.4149170718
 20
10.447556383
 11
12.3794840009
 21
10.447556383
  0
LINE
  5
621
100
AcDbEntity
  8
0
100
AcDbLine
 62
7
  6
CONTINUOUS
 10
12.1314525048
 20
10.447556383
 11
12.096019434
 21
10.447556383
  0
LINE
  5
622
100
AcDbEntity
  8
0
100
AcDbLine
 62
7
  6
CONTINUOUS
 10
12.9412950245
 20
10.5636660642
 11
12.6983816387
 21
10.5636660642
  0
LINE
  5
623
100
AcDbEntity
  8
0
100
AcDbLine
 62
7
  6
CONTINUOUS
 10
12.6629485678
 20
10.5636660642
 11
12.4149170718
 21
10.5636660642
  0
LINE
  5
624
100
AcDbEntity
  8
0
100
AcDbLine
 62
7
  6
CONTINUOUS
 10
12.3794840009
 20
10.5636660642
 11
12.1365706151
 21
10.5636660642
  0
LINE
  5
625
100
AcDbEntity
  8
0
100
AcDbLine
 62
7
  6
CONTINUOUS
 10
12.9412950245
 20
10.601067639
 11
12.6983816387
 21
10.601067639
  0
LINE
  5
626
100
AcDbEntity
  8
0
100
AcDbLine
 62
7
  6
CONTINUOUS
 10
12.1365706151
 20
10.601067639
 11
12.3794840009
 21
10.601067639
  0
LINE
  5
627
100
AcDbEntity
  8
0
100
AcDbLine
 62
7
  6
CONTINUOUS
 10
12.4149170718
 20
10.601067639
 11
12.6629485678
 21
10.601067639
  0
LINE
  5
628
100
AcDbEntity
  8
0
100
AcDbLine
 62
7
  6
CONTINUOUS
 10
12.0939328198
 20
10.8717763004
 11
12.0889328198
 21
10.8717763004
  0
LINE
  5
629
100
AcDbEntity
  8
0
100
AcDbLine
 62
7
  6
CONTINUOUS
 10
12.9839328198
 20
10.8717763004
 11
12.9889328198
 21
10.8717763004
  0
LINE
  5
62A
100
AcDbEntity
  8
0
100
AcDbLine
 62
7
  6
CONTINUOUS
 10
12.096019434
 20
10.8817763004
 11
12.9818462056
 21
10.8817763004
  0
LINE
  5
62B
100
AcDbEntity
  8
0
100
AcDbLine
 62
7
  6
CONTINUOUS
 10
12.1039328198
 20
10.8867763004
 11
12.9739328198
 21
10.8867763004
  0
LINE
  5
62C
100
AcDbEntity
  8
0
100
AcDbLine
 62
7
  6
CONTINUOUS
 10
15.4406577041
 20
10.447556383
 11
15.8835620199
 21
10.8817763004
  0
LINE
  5
62D
100
AcDbEntity
  8
0
100
AcDbLine
 62
7
  6
CONTINUOUS
 10
17.6205698939
 20
6.3748590352
 11
17.6709635947
 21
6.3837448043
  0
LINE
  5
62E
100
AcDbEntity
  8
0
100
AcDbLine
 62
7
  6
CONTINUOUS
 10
15.56860139
 20
6.2282329933
 11
16.3351769434
 21
6.2282329933
  0
LINE
  5
62F
100
AcDbEntity
  8
0
100
AcDbLine
 62
7
  6
CONTINUOUS
 10
17.6315935159
 20
6.2282329933
 11
18.5213572955
 21
6.2282329933
  0
LINE
  5
630
100
AcDbEntity
  8
AXIS
100
AcDbLine
 62
7
  6
CONTINUOUS
 10
15.6394675317
 20
6.2872881114
 11
16.2497037522
 21
6.2872881114
  0
LINE
  5
631
100
AcDbEntity
  8
AXIS
100
AcDbLine
 62
7
  6
CONTINUOUS
 10
17.8402549333
 20
6.2872881114
 11
18.4504911537
 21
6.2872881114
  0
LINE
  5
632
100
AcDbEntity
  8
0
100
AcDbLine
 62
7
  6
CONTINUOUS
 10
16.4189950907
 20
6.3837448043
 11
16.4693887915
 21
6.3748590352
  0
LINE
  5
633
100
AcDbEntity
  8
0
100
AcDbLine
 62
7
  6
CONTINUOUS
 10
17.7326761931
 20
6.3837448043
 11
17.6709635947
 21
6.3837448043
  0
LINE
  5
634
100
AcDbEntity
  8
0
100
AcDbLine
 62
7
  6
CONTINUOUS
 10
16.3560029648
 20
6.3837448043
 11
16.4189950907
 21
6.3837448043
  0
LINE
  5
635
100
AcDbEntity
  8
0
100
AcDbLine
 62
7
  6
CONTINUOUS
 10
17.7339557207
 20
6.3857133083
 11
17.75364076
 21
6.3857133083
  0
LINE
  5
636
100
AcDbEntity
  8
0
100
AcDbLine
 62
7
  6
CONTINUOUS
 10
17.6434045396
 20
6.4164219697
 11
17.5764754057
 21
6.4164219697
  0
LINE
  5
637
100
AcDbEntity
  8
AXIS
100
AcDbLine
 62
7
  6
CONTINUOUS
 10
18.3914360356
 20
6.425083387
 11
17.8993100514
 21
6.425083387
  0
LINE
  5
638
100
AcDbEntity
  8
AXIS
100
AcDbLine
 62
7
  6
CONTINUOUS
 10
16.1906486341
 20
6.425083387
 11
15.6985226498
 21
6.425083387
  0
LINE
  5
639
100
AcDbEntity
  8
0
100
AcDbLine
 62
7
  6
CONTINUOUS
 10
16.3560029648
 20
6.425083387
 11
17.75364076
 21
6.425083387
  0
LINE
  5
63A
100
AcDbEntity
  8
0
100
AcDbLine
 62
7
  6
CONTINUOUS
 10
16.3560029648
 20
6.4447684264
 11
16.4268691065
 21
6.4447684264
  0
LINE
  5
63B
100
AcDbEntity
  8
0
100
AcDbLine
 62
7
  6
CONTINUOUS
 10
15.4316883282
 20
9.8052138955
 11
15.4406577041
 21
10.447556383
  0
LINE
  5
63C
100
AcDbEntity
  8
0
100
AcDbLine
 62
7
  6
CONTINUOUS
 10
15.56860139
 20
9.7400440169
 11
15.56860139
 21
6.2282329933
  0
LINE
  5
63D
100
AcDbEntity
  8
AXIS
100
AcDbLine
 62
7
  6
CONTINUOUS
 10
15.6394675317
 20
6.3660282689
 11
15.6394675317
 21
6.2872881114
  0
LINE
  5
63E
100
AcDbEntity
  8
0
100
AcDbLine
 62
7
  6
CONTINUOUS
 10
17.6205698939
 20
6.349268484
 11
17.6786104234
 21
6.3005666971
  0
LINE
  5
63F
100
AcDbEntity
  8
AXIS
100
AcDbLine
 62
7
  6
CONTINUOUS
 10
16.2497037522
 20
6.2872881114
 11
16.2497037522
 21
6.3660282689
  0
LINE
  5
640
100
AcDbEntity
  8
0
100
AcDbLine
 62
7
  6
CONTINUOUS
 10
16.380609264
 20
10.0900440169
 11
16.3321840671
 21
9.7329574027
  0
LINE
  5
641
100
AcDbEntity
  8
0
100
AcDbLine
 62
7
  6
CONTINUOUS
 10
16.3901128996
 20
10.0434469486
 11
16.34731874
 21
9.7732552585
  0
LINE
  5
642
100
AcDbEntity
  8
0
100
AcDbLine
 62
7
  6
CONTINUOUS
 10
16.3560029648
 20
6.3463432295
 11
16.3560029648
 21
6.4447684264
  0
LINE
  5
643
100
AcDbEntity
  8
0
100
AcDbLine
 62
7
  6
CONTINUOUS
 10
16.3993100514
 20
6.425083387
 11
16.3993100514
 21
6.3837448043
  0
LINE
  5
644
100
AcDbEntity
  8
0
100
AcDbLine
 62
7
  6
CONTINUOUS
 10
16.4189950907
 20
6.425083387
 11
16.4189950907
 21
6.3837448043
  0
LINE
  5
645
100
AcDbEntity
  8
0
100
AcDbLine
 62
7
  6
CONTINUOUS
 10
16.4268691065
 20
6.4447684264
 11
16.4268691065
 21
6.425083387
  0
LINE
  5
646
100
AcDbEntity
  8
0
100
AcDbLine
 62
7
  6
CONTINUOUS
 10
16.4497037522
 20
6.3327507748
 11
16.4497037522
 21
6.3783300388
  0
LINE
  5
647
100
AcDbEntity
  8
0
100
AcDbLine
 62
7
  6
CONTINUOUS
 10
16.4693887915
 20
6.349268484
 11
16.4693887915
 21
6.3748590352
  0
LINE
  5
648
100
AcDbEntity
  8
0
100
AcDbLine
 62
7
  6
CONTINUOUS
 10
16.4699793427
 20
10.8867763004
 11
16.4699793427
 21
9.8729842637
  0
LINE
  5
649
100
AcDbEntity
  8
0
100
AcDbLine
 62
7
  6
CONTINUOUS
 10
18.5097431222
 20
9.7329574027
 11
18.6582703573
 21
9.8052138955
  0
LINE
  5
64A
100
AcDbEntity
  8
0
100
AcDbLine
 62
7
  6
CONTINUOUS
 10
16.3560029648
 20
6.3463432295
 11
16.3351769434
 21
6.2282329933
  0
LINE
  5
64B
100
AcDbEntity
  8
0
100
AcDbLine
 62
7
  6
CONTINUOUS
 10
17.5764754057
 20
6.425083387
 11
17.5764754057
 21
6.4164219697
  0
LINE
  5
64C
100
AcDbEntity
  8
0
100
AcDbLine
 62
7
  6
CONTINUOUS
 10
17.6199793427
 20
9.8729842637
 11
17.6199793427
 21
10.8867763004
  0
LINE
  5
64D
100
AcDbEntity
  8
0
100
AcDbLine
 62
7
  6
CONTINUOUS
 10
17.6205698939
 20
6.3748590352
 11
17.6205698939
 21
6.349268484
  0
LINE
  5
64E
100
AcDbEntity
  8
0
100
AcDbLine
 62
7
  6
CONTINUOUS
 10
15.5802155632
 20
9.7329574027
 11
15.4316883282
 21
9.8052138955
  0
LINE
  5
64F
100
AcDbEntity
  8
0
100
AcDbLine
 62
7
  6
CONTINUOUS
 10
17.6402549333
 20
6.3783300388
 11
17.6402549333
 21
6.3327507748
  0
LINE
  5
650
100
AcDbEntity
  8
0
100
AcDbLine
 62
7
  6
CONTINUOUS
 10
17.6434045396
 20
6.425083387
 11
17.6434045396
 21
6.4164219697
  0
LINE
  5
651
100
AcDbEntity
  8
0
100
AcDbLine
 62
7
  6
CONTINUOUS
 10
17.6709635947
 20
6.3837448043
 11
17.6709635947
 21
6.425083387
  0
LINE
  5
652
100
AcDbEntity
  8
0
100
AcDbLine
 62
7
  6
CONTINUOUS
 10
17.6906486341
 20
6.3837448043
 11
17.6906486341
 21
6.425083387
  0
LINE
  5
653
100
AcDbEntity
  8
0
100
AcDbLine
 62
7
  6
CONTINUOUS
 10
17.75364076
 20
6.3857133083
 11
17.75364076
 21
6.425083387
  0
LINE
  5
654
100
AcDbEntity
  8
AXIS
100
AcDbLine
 62
7
  6
CONTINUOUS
 10
17.8402549333
 20
6.3660282689
 11
17.8402549333
 21
6.2872881114
  0
LINE
  5
655
100
AcDbEntity
  8
0
100
AcDbLine
 62
7
  6
CONTINUOUS
 10
17.7426399455
 20
9.7732552585
 11
17.6998457858
 21
10.0434469486
  0
LINE
  5
656
100
AcDbEntity
  8
0
100
AcDbLine
 62
7
  6
CONTINUOUS
 10
17.7093494215
 20
10.0900440169
 11
17.7577746183
 21
9.7329574027
  0
LINE
  5
657
100
AcDbEntity
  8
0
100
AcDbLine
 62
7
  6
CONTINUOUS
 10
16.6579793427
 20
9.6849842637
 11
17.4319793427
 21
9.6849842637
  0
LINE
  5
658
100
AcDbEntity
  8
0
100
AcDbLine
 62
7
  6
CONTINUOUS
 10
16.3369190918
 20
6.2381132079
 11
16.4693887915
 21
6.349268484
  0
LINE
  5
659
100
AcDbEntity
  8
0
100
AcDbLine
 62
7
  6
CONTINUOUS
 10
15.5802155632
 20
9.7329574027
 11
16.3321840671
 21
9.7329574027
  0
LINE
  5
65A
100
AcDbEntity
  8
0
100
AcDbLine
 62
7
  6
CONTINUOUS
 10
17.7577746183
 20
9.7329574027
 11
18.5097431222
 21
9.7329574027
  0
LINE
  5
65B
100
AcDbEntity
  8
0
100
AcDbLine
 62
7
  6
CONTINUOUS
 10
18.5213572955
 20
9.7400440169
 11
17.7815253132
 21
9.7400440169
  0
LINE
  5
65C
100
AcDbEntity
  8
0
100
AcDbLine
 62
7
  6
CONTINUOUS
 10
16.3084333722
 20
9.7400440169
 11
15.56860139
 21
9.7400440169
  0
LINE
  5
65D
100
AcDbEntity
  8
AXIS
100
AcDbLine
 62
7
  6
CONTINUOUS
 10
18.4504911537
 20
6.2872881114
 11
18.4504911537
 21
6.3660282689
  0
LINE
  5
65E
100
AcDbEntity
  8
0
100
AcDbLine
 62
7
  6
CONTINUOUS
 10
18.5213572955
 20
6.2282329933
 11
18.5213572955
 21
9.7400440169
  0
LINE
  5
65F
100
AcDbEntity
  8
0
100
AcDbLine
 62
7
  6
CONTINUOUS
 10
17.6609604181
 20
10.0766581901
 11
17.6199793427
 21
10.0766581901
  0
LINE
  5
660
100
AcDbEntity
  8
0
100
AcDbLine
 62
7
  6
CONTINUOUS
 10
16.4699793427
 20
10.0766581901
 11
16.4289982673
 21
10.0766581901
  0
LINE
  5
661
100
AcDbEntity
  8
0
100
AcDbLine
 62
7
  6
CONTINUOUS
 10
16.380609264
 20
10.0900440169
 11
16.4699793427
 21
10.0900440169
  0
LINE
  5
662
100
AcDbEntity
  8
0
100
AcDbLine
 62
7
  6
CONTINUOUS
 10
17.6199793427
 20
10.0900440169
 11
17.7093494215
 21
10.0900440169
  0
LINE
  5
663
100
AcDbEntity
  8
0
100
AcDbLine
 62
7
  6
CONTINUOUS
 10
18.6493009813
 20
10.447556383
 11
18.6582703573
 21
9.8052138955
  0
LINE
  5
664
100
AcDbEntity
  8
0
100
AcDbLine
 62
7
  6
CONTINUOUS
 10
17.6315935159
 20
6.2282329933
 11
17.7339557207
 21
6.3857133083
  0
LINE
  5
665
100
AcDbEntity
  8
0
100
AcDbLine
 62
7
  6
CONTINUOUS
 10
16.4699793427
 20
10.8717763004
 11
17.6199793427
 21
10.8717763004
  0
LINE
  5
666
100
AcDbEntity
  8
0
100
AcDbLine
 62
7
  6
CONTINUOUS
 10
18.2063966655
 20
10.8817763004
 11
17.6199793427
 21
10.8817763004
  0
LINE
  5
667
100
AcDbEntity
  8
0
100
AcDbLine
 62
7
  6
CONTINUOUS
 10
16.4699793427
 20
10.8817763004
 11
15.8835620199
 21
10.8817763004
  0
LINE
  5
668
100
AcDbEntity
  8
0
100
AcDbLine
 62
7
  6
CONTINUOUS
 10
16.4699793427
 20
10.8867763004
 11
17.6199793427
 21
10.8867763004
  0
LINE
  5
669
100
AcDbEntity
  8
0
100
AcDbLine
 62
7
  6
CONTINUOUS
 10
18.2063966655
 20
10.8817763004
 11
18.6493009813
 21
10.447556383
  0
LINE
  5
66A
100
AcDbEntity
  8
0
100
AcDbLine
 62
7
  6
CONTINUOUS
 10
5.9249292457
 20
13.0099475437
 11
5.9249292457
 21
13.8957743154
  0
LINE
  5
66B
100
AcDbEntity
  8
0
100
AcDbLine
 62
7
  6
CONTINUOUS
 10
5.9262182263
 20
13.0453806146
 11
5.9262182263
 21
13.2934121106
  0
LINE
  5
66C
100
AcDbEntity
  8
0
100
AcDbLine
 62
7
  6
CONTINUOUS
 10
5.9262182263
 20
13.3288451815
 11
5.9262182263
 21
13.5768766776
  0
LINE
  5
66D
100
AcDbEntity
  8
0
100
AcDbLine
 62
7
  6
CONTINUOUS
 10
5.9262182263
 20
13.6123097484
 11
5.9262182263
 21
13.8603412445
  0
LINE
  5
66E
100
AcDbEntity
  8
0
100
AcDbLine
 62
7
  6
CONTINUOUS
 10
5.9338986216
 20
13.8957743154
 11
5.9338986216
 21
13.8603412445
  0
LINE
  5
66F
100
AcDbEntity
  8
0
100
AcDbLine
 62
7
  6
CONTINUOUS
 10
5.9338986216
 20
13.6123097484
 11
5.9338986216
 21
13.5768766776
  0
LINE
  5
670
100
AcDbEntity
  8
0
100
AcDbLine
 62
7
  6
CONTINUOUS
 10
5.9338986216
 20
13.3288451815
 11
5.9338986216
 21
13.2934121106
  0
LINE
  5
671
100
AcDbEntity
  8
0
100
AcDbLine
 62
7
  6
CONTINUOUS
 10
5.9338986216
 20
13.0453806146
 11
5.9338986216
 21
13.0099475437
  0
LINE
  5
672
100
AcDbEntity
  8
0
100
AcDbLine
 62
7
  6
CONTINUOUS
 10
6.0205037248
 20
13.8552231343
 11
6.0205037248
 21
13.6123097484
  0
LINE
  5
673
100
AcDbEntity
  8
0
100
AcDbLine
 62
7
  6
CONTINUOUS
 10
6.0205037248
 20
13.0504987248
 11
6.0205037248
 21
13.2934121106
  0
LINE
  5
674
100
AcDbEntity
  8
0
100
AcDbLine
 62
7
  6
CONTINUOUS
 10
6.0205037248
 20
13.3288451815
 11
6.0205037248
 21
13.5768766776
  0
LINE
  5
675
100
AcDbEntity
  8
0
100
AcDbLine
 62
7
  6
CONTINUOUS
 10
6.0233336595
 20
13.8603412445
 11
6.0233336595
 21
13.6123097484
  0
LINE
  5
676
100
AcDbEntity
  8
0
100
AcDbLine
 62
7
  6
CONTINUOUS
 10
6.0233336595
 20
13.5768766776
 11
6.0233336595
 21
13.3288451815
  0
LINE
  5
677
100
AcDbEntity
  8
0
100
AcDbLine
 62
7
  6
CONTINUOUS
 10
6.0233336595
 20
13.2934121106
 11
6.0233336595
 21
13.0453806146
  0
LINE
  5
678
100
AcDbEntity
  8
0
100
AcDbLine
 62
7
  6
CONTINUOUS
 10
6.1219950768
 20
13.8603412445
 11
6.1219950768
 21
13.6123097484
  0
LINE
  5
679
100
AcDbEntity
  8
0
100
AcDbLine
 62
7
  6
CONTINUOUS
 10
6.1219950768
 20
13.5768766776
 11
6.1219950768
 21
13.3288451815
  0
LINE
  5
67A
100
AcDbEntity
  8
0
100
AcDbLine
 62
7
  6
CONTINUOUS
 10
6.1219950768
 20
13.2934121106
 11
6.1219950768
 21
13.0453806146
  0
LINE
  5
67B
100
AcDbEntity
  8
0
100
AcDbLine
 62
7
  6
CONTINUOUS
 10
6.3768029374
 20
13.0099475437
 11
6.3768029374
 21
13.0453806146
  0
LINE
  5
67C
100
AcDbEntity
  8
0
100
AcDbLine
 62
7
  6
CONTINUOUS
 10
6.3768029374
 20
13.2934121106
 11
6.3768029374
 21
13.3288451815
  0
LINE
  5
67D
100
AcDbEntity
  8
0
100
AcDbLine
 62
7
  6
CONTINUOUS
 10
6.3768029374
 20
13.5768766776
 11
6.3768029374
 21
13.6123097484
  0
LINE
  5
67E
100
AcDbEntity
  8
0
100
AcDbLine
 62
7
  6
CONTINUOUS
 10
6.3768029374
 20
13.8603412445
 11
6.3768029374
 21
13.8957743154
  0
LINE
  5
67F
100
AcDbEntity
  8
0
100
AcDbLine
 62
7
  6
CONTINUOUS
 10
6.5736533311
 20
13.8552231343
 11
6.5736533311
 21
13.6123097484
  0
LINE
  5
680
100
AcDbEntity
  8
0
100
AcDbLine
 62
7
  6
CONTINUOUS
 10
6.5736533311
 20
13.0504987248
 11
6.5736533311
 21
13.2934121106
  0
LINE
  5
681
100
AcDbEntity
  8
0
100
AcDbLine
 62
7
  6
CONTINUOUS
 10
6.5736533311
 20
13.3288451815
 11
6.5736533311
 21
13.5768766776
  0
LINE
  5
682
100
AcDbEntity
  8
0
100
AcDbLine
 62
7
  6
CONTINUOUS
 10
6.577590339
 20
13.0453806146
 11
6.577590339
 21
13.2934121106
  0
LINE
  5
683
100
AcDbEntity
  8
0
100
AcDbLine
 62
7
  6
CONTINUOUS
 10
6.577590339
 20
13.3288451815
 11
6.577590339
 21
13.5768766776
  0
LINE
  5
684
100
AcDbEntity
  8
0
100
AcDbLine
 62
7
  6
CONTINUOUS
 10
6.577590339
 20
13.6123097484
 11
6.577590339
 21
13.8603412445
  0
LINE
  5
685
100
AcDbEntity
  8
0
100
AcDbLine
 62
7
  6
CONTINUOUS
 10
6.9632202602
 20
13.9028609295
 11
6.9632202602
 21
13.0028609295
  0
LINE
  5
686
100
AcDbEntity
  8
0
100
AcDbLine
 62
7
  6
CONTINUOUS
 10
8.1132202602
 20
13.0028609295
 11
6.9632202602
 21
13.0028609295
  0
LINE
  5
687
100
AcDbEntity
  8
0
100
AcDbLine
 62
7
  6
CONTINUOUS
 10
5.9249292457
 20
13.0099475437
 11
6.9632202602
 21
13.0099475437
  0
LINE
  5
688
100
AcDbEntity
  8
0
100
AcDbLine
 62
7
  6
CONTINUOUS
 10
8.1132202602
 20
13.0099475437
 11
9.1515112748
 21
13.0099475437
  0
LINE
  5
689
100
AcDbEntity
  8
0
100
AcDbLine
 62
7
  6
CONTINUOUS
 10
8.1132202602
 20
13.0178609295
 11
6.9632202602
 21
13.0178609295
  0
LINE
  5
68A
100
AcDbEntity
  8
0
100
AcDbLine
 62
7
  6
CONTINUOUS
 10
5.9262182263
 20
13.0453806146
 11
6.577590339
 21
13.0453806146
  0
LINE
  5
68B
100
AcDbEntity
  8
0
100
AcDbLine
 62
7
  6
CONTINUOUS
 10
8.4988501815
 20
13.0453806146
 11
9.1502222942
 21
13.0453806146
  0
LINE
  5
68C
100
AcDbEntity
  8
0
100
AcDbLine
 62
7
  6
CONTINUOUS
 10
9.0559367957
 20
13.0504987248
 11
9.0531068609
 21
13.0504987248
  0
LINE
  5
68D
100
AcDbEntity
  8
0
100
AcDbLine
 62
7
  6
CONTINUOUS
 10
8.5027871894
 20
13.0504987248
 11
8.4988501815
 21
13.0504987248
  0
LINE
  5
68E
100
AcDbEntity
  8
0
100
AcDbLine
 62
7
  6
CONTINUOUS
 10
6.0205037248
 20
13.0504987248
 11
6.0233336595
 21
13.0504987248
  0
LINE
  5
68F
100
AcDbEntity
  8
0
100
AcDbLine
 62
7
  6
CONTINUOUS
 10
6.5736533311
 20
13.0504987248
 11
6.577590339
 21
13.0504987248
  0
LINE
  5
690
100
AcDbEntity
  8
AXIS
100
AcDbLine
 62
7
  6
CONTINUOUS
 10
8.5027871894
 20
13.0512861264
 11
8.4988501815
 21
13.0512861264
  0
LINE
  5
691
100
AcDbEntity
  8
AXIS
100
AcDbLine
 62
7
  6
CONTINUOUS
 10
6.577590339
 20
13.0512861264
 11
6.5736533311
 21
13.0512861264
  0
LINE
  5
692
100
AcDbEntity
  8
0
100
AcDbLine
 62
7
  6
CONTINUOUS
 10
8.1979983514
 20
13.0808136854
 11
8.207515783
 21
13.0808136854
  0
LINE
  5
693
100
AcDbEntity
  8
0
100
AcDbLine
 62
7
  6
CONTINUOUS
 10
7.8382202602
 20
13.1528609295
 11
7.6682202602
 21
13.1528609295
  0
LINE
  5
694
100
AcDbEntity
  8
0
100
AcDbLine
 62
7
  6
CONTINUOUS
 10
5.9262182263
 20
13.2934121106
 11
6.577590339
 21
13.2934121106
  0
LINE
  5
695
100
AcDbEntity
  8
0
100
AcDbLine
 62
7
  6
CONTINUOUS
 10
8.4988501815
 20
13.2934121106
 11
9.1502222942
 21
13.2934121106
  0
LINE
  5
696
100
AcDbEntity
  8
0
100
AcDbLine
 62
7
  6
CONTINUOUS
 10
7.6682202602
 20
13.3128609295
 11
7.8382202602
 21
13.3128609295
  0
LINE
  5
697
100
AcDbEntity
  8
0
100
AcDbLine
 62
7
  6
CONTINUOUS
 10
5.9262182263
 20
13.3288451815
 11
6.577590339
 21
13.3288451815
  0
LINE
  5
698
100
AcDbEntity
  8
0
100
AcDbLine
 62
7
  6
CONTINUOUS
 10
8.4988501815
 20
13.3288451815
 11
9.1502222942
 21
13.3288451815
  0
LINE
  5
699
100
AcDbEntity
  8
0
100
AcDbLine
 62
7
  6
CONTINUOUS
 10
5.9262182263
 20
13.5768766776
 11
6.577590339
 21
13.5768766776
  0
LINE
  5
69A
100
AcDbEntity
  8
0
100
AcDbLine
 62
7
  6
CONTINUOUS
 10
8.4988501815
 20
13.5768766776
 11
9.1502222942
 21
13.5768766776
  0
LINE
  5
69B
100
AcDbEntity
  8
0
100
AcDbLine
 62
7
  6
CONTINUOUS
 10
5.9262182263
 20
13.6123097484
 11
6.577590339
 21
13.6123097484
  0
LINE
  5
69C
100
AcDbEntity
  8
0
100
AcDbLine
 62
7
  6
CONTINUOUS
 10
8.4988501815
 20
13.6123097484
 11
9.1502222942
 21
13.6123097484
  0
LINE
  5
69D
100
AcDbEntity
  8
0
100
AcDbLine
 62
7
  6
CONTINUOUS
 10
8.1979983514
 20
13.8249081736
 11
8.207515783
 21
13.8249081736
  0
LINE
  5
69E
100
AcDbEntity
  8
AXIS
100
AcDbLine
 62
7
  6
CONTINUOUS
 10
8.5027871894
 20
13.8544357327
 11
8.4988501815
 21
13.8544357327
  0
LINE
  5
69F
100
AcDbEntity
  8
AXIS
100
AcDbLine
 62
7
  6
CONTINUOUS
 10
6.577590339
 20
13.8544357327
 11
6.5736533311
 21
13.8544357327
  0
LINE
  5
6A0
100
AcDbEntity
  8
0
100
AcDbLine
 62
7
  6
CONTINUOUS
 10
9.0559367957
 20
13.8552231343
 11
9.0531068609
 21
13.8552231343
  0
LINE
  5
6A1
100
AcDbEntity
  8
0
100
AcDbLine
 62
7
  6
CONTINUOUS
 10
8.5027871894
 20
13.8552231343
 11
8.4988501815
 21
13.8552231343
  0
LINE
  5
6A2
100
AcDbEntity
  8
0
100
AcDbLine
 62
7
  6
CONTINUOUS
 10
6.0205037248
 20
13.8552231343
 11
6.0233336595
 21
13.8552231343
  0
LINE
  5
6A3
100
AcDbEntity
  8
0
100
AcDbLine
 62
7
  6
CONTINUOUS
 10
6.5736533311
 20
13.8552231343
 11
6.577590339
 21
13.8552231343
  0
LINE
  5
6A4
100
AcDbEntity
  8
0
100
AcDbLine
 62
7
  6
CONTINUOUS
 10
5.9262182263
 20
13.8603412445
 11
6.577590339
 21
13.8603412445
  0
LINE
  5
6A5
100
AcDbEntity
  8
0
100
AcDbLine
 62
7
  6
CONTINUOUS
 10
8.4988501815
 20
13.8603412445
 11
9.1502222942
 21
13.8603412445
  0
LINE
  5
6A6
100
AcDbEntity
  8
0
100
AcDbLine
 62
7
  6
CONTINUOUS
 10
8.1132202602
 20
13.8878609295
 11
6.9632202602
 21
13.8878609295
  0
LINE
  5
6A7
100
AcDbEntity
  8
0
100
AcDbLine
 62
7
  6
CONTINUOUS
 10
5.9249292457
 20
13.8957743154
 11
6.9632202602
 21
13.8957743154
  0
LINE
  5
6A8
100
AcDbEntity
  8
0
100
AcDbLine
 62
7
  6
CONTINUOUS
 10
8.1132202602
 20
13.8957743154
 11
9.1515112748
 21
13.8957743154
  0
LINE
  5
6A9
100
AcDbEntity
  8
0
100
AcDbLine
 62
7
  6
CONTINUOUS
 10
8.1132202602
 20
13.9028609295
 11
6.9632202602
 21
13.9028609295
  0
LINE
  5
6AA
100
AcDbEntity
  8
0
100
AcDbLine
 62
7
  6
CONTINUOUS
 10
8.1132202602
 20
13.0028609295
 11
8.1132202602
 21
13.9028609295
  0
LINE
  5
6AB
100
AcDbEntity
  8
0
100
AcDbLine
 62
7
  6
CONTINUOUS
 10
8.207515783
 20
13.8314450191
 11
8.207515783
 21
13.8249081736
  0
LINE
  5
6AC
100
AcDbEntity
  8
0
100
AcDbLine
 62
7
  6
CONTINUOUS
 10
8.207515783
 20
13.0808136854
 11
8.207515783
 21
13.0742768399
  0
LINE
  5
6AD
100
AcDbEntity
  8
0
100
AcDbLine
 62
7
  6
CONTINUOUS
 10
8.4988501815
 20
13.0453806146
 11
8.4988501815
 21
13.2934121106
  0
LINE
  5
6AE
100
AcDbEntity
  8
0
100
AcDbLine
 62
7
  6
CONTINUOUS
 10
8.4988501815
 20
13.3288451815
 11
8.4988501815
 21
13.5768766776
  0
LINE
  5
6AF
100
AcDbEntity
  8
0
100
AcDbLine
 62
7
  6
CONTINUOUS
 10
8.4988501815
 20
13.6123097484
 11
8.4988501815
 21
13.8603412445
  0
LINE
  5
6B0
100
AcDbEntity
  8
0
100
AcDbLine
 62
7
  6
CONTINUOUS
 10
8.5027871894
 20
13.8552231343
 11
8.5027871894
 21
13.6123097484
  0
LINE
  5
6B1
100
AcDbEntity
  8
0
100
AcDbLine
 62
7
  6
CONTINUOUS
 10
8.5027871894
 20
13.0504987248
 11
8.5027871894
 21
13.2934121106
  0
LINE
  5
6B2
100
AcDbEntity
  8
0
100
AcDbLine
 62
7
  6
CONTINUOUS
 10
8.5027871894
 20
13.3288451815
 11
8.5027871894
 21
13.5768766776
  0
LINE
  5
6B3
100
AcDbEntity
  8
0
100
AcDbLine
 62
7
  6
CONTINUOUS
 10
8.6996375831
 20
13.0099475437
 11
8.6996375831
 21
13.0453806146
  0
LINE
  5
6B4
100
AcDbEntity
  8
0
100
AcDbLine
 62
7
  6
CONTINUOUS
 10
8.6996375831
 20
13.2934121106
 11
8.6996375831
 21
13.3288451815
  0
LINE
  5
6B5
100
AcDbEntity
  8
0
100
AcDbLine
 62
7
  6
CONTINUOUS
 10
8.6996375831
 20
13.5768766776
 11
8.6996375831
 21
13.6123097484
  0
LINE
  5
6B6
100
AcDbEntity
  8
0
100
AcDbLine
 62
7
  6
CONTINUOUS
 10
8.6996375831
 20
13.8603412445
 11
8.6996375831
 21
13.8957743154
  0
LINE
  5
6B7
100
AcDbEntity
  8
0
100
AcDbLine
 62
7
  6
CONTINUOUS
 10
8.9544454436
 20
13.8603412445
 11
8.9544454436
 21
13.6123097484
  0
LINE
  5
6B8
100
AcDbEntity
  8
0
100
AcDbLine
 62
7
  6
CONTINUOUS
 10
8.9544454436
 20
13.5768766776
 11
8.9544454436
 21
13.3288451815
  0
LINE
  5
6B9
100
AcDbEntity
  8
0
100
AcDbLine
 62
7
  6
CONTINUOUS
 10
8.9544454436
 20
13.2934121106
 11
8.9544454436
 21
13.0453806146
  0
LINE
  5
6BA
100
AcDbEntity
  8
0
100
AcDbLine
 62
7
  6
CONTINUOUS
 10
9.0531068609
 20
13.8603412445
 11
9.0531068609
 21
13.6123097484
  0
LINE
  5
6BB
100
AcDbEntity
  8
0
100
AcDbLine
 62
7
  6
CONTINUOUS
 10
9.0531068609
 20
13.5768766776
 11
9.0531068609
 21
13.3288451815
  0
LINE
  5
6BC
100
AcDbEntity
  8
0
100
AcDbLine
 62
7
  6
CONTINUOUS
 10
9.0531068609
 20
13.2934121106
 11
9.0531068609
 21
13.0453806146
  0
LINE
  5
6BD
100
AcDbEntity
  8
0
100
AcDbLine
 62
7
  6
CONTINUOUS
 10
9.0559367957
 20
13.8552231343
 11
9.0559367957
 21
13.6123097484
  0
LINE
  5
6BE
100
AcDbEntity
  8
0
100
AcDbLine
 62
7
  6
CONTINUOUS
 10
9.0559367957
 20
13.0504987248
 11
9.0559367957
 21
13.2934121106
  0
LINE
  5
6BF
100
AcDbEntity
  8
0
100
AcDbLine
 62
7
  6
CONTINUOUS
 10
9.0559367957
 20
13.3288451815
 11
9.0559367957
 21
13.5768766776
  0
LINE
  5
6C0
100
AcDbEntity
  8
0
100
AcDbLine
 62
7
  6
CONTINUOUS
 10
9.1425418988
 20
13.8957743154
 11
9.1425418988
 21
13.8603412445
  0
LINE
  5
6C1
100
AcDbEntity
  8
0
100
AcDbLine
 62
7
  6
CONTINUOUS
 10
9.1425418988
 20
13.6123097484
 11
9.1425418988
 21
13.5768766776
  0
LINE
  5
6C2
100
AcDbEntity
  8
0
100
AcDbLine
 62
7
  6
CONTINUOUS
 10
9.1425418988
 20
13.3288451815
 11
9.1425418988
 21
13.2934121106
  0
LINE
  5
6C3
100
AcDbEntity
  8
0
100
AcDbLine
 62
7
  6
CONTINUOUS
 10
9.1425418988
 20
13.0453806146
 11
9.1425418988
 21
13.0099475437
  0
LINE
  5
6C4
100
AcDbEntity
  8
0
100
AcDbLine
 62
7
  6
CONTINUOUS
 10
9.1502222942
 20
13.0453806146
 11
9.1502222942
 21
13.2934121106
  0
LINE
  5
6C5
100
AcDbEntity
  8
0
100
AcDbLine
 62
7
  6
CONTINUOUS
 10
9.1502222942
 20
13.3288451815
 11
9.1502222942
 21
13.5768766776
  0
LINE
  5
6C6
100
AcDbEntity
  8
0
100
AcDbLine
 62
7
  6
CONTINUOUS
 10
9.1502222942
 20
13.6123097484
 11
9.1502222942
 21
13.8603412445
  0
LINE
  5
6C7
100
AcDbEntity
  8
0
100
AcDbLine
 62
7
  6
CONTINUOUS
 10
9.1515112748
 20
13.0099475437
 11
9.1515112748
 21
13.8957743154
  0
LINE
  5
6C8
100
AcDbEntity
  8
0
100
AcDbLine
 62
7
  6
CONTINUOUS
 10
5.9249292457
 20
4.1173144939
 11
5.9249292457
 21
3.2314877223
  0
LINE
  5
6C9
100
AcDbEntity
  8
0
100
AcDbLine
 62
7
  6
CONTINUOUS
 10
6.0205037248
 20
4.0767633128
 11
6.0205037248
 21
3.2720389034
  0
LINE
  5
6CA
100
AcDbEntity
  8
0
100
AcDbLine
 62
7
  6
CONTINUOUS
 10
6.0233336595
 20
4.0767633128
 11
6.0233336595
 21
3.833849927
  0
LINE
  5
6CB
100
AcDbEntity
  8
0
100
AcDbLine
 62
7
  6
CONTINUOUS
 10
6.0233336595
 20
3.7984168561
 11
6.0233336595
 21
3.5503853601
  0
LINE
  5
6CC
100
AcDbEntity
  8
0
100
AcDbLine
 62
7
  6
CONTINUOUS
 10
6.0233336595
 20
3.2720389034
 11
6.0233336595
 21
3.5149522892
  0
LINE
  5
6CD
100
AcDbEntity
  8
AXIS
100
AcDbLine
 62
7
  6
CONTINUOUS
 10
6.0618423075
 20
4.1173144939
 11
6.0618423075
 21
3.9803066199
  0
LINE
  5
6CE
100
AcDbEntity
  8
0
100
AcDbLine
 62
7
  6
CONTINUOUS
 10
6.0618423075
 20
3.9803066199
 11
6.0618423075
 21
3.2314877223
  0
LINE
  5
6CF
100
AcDbEntity
  8
0
100
AcDbLine
 62
7
  6
CONTINUOUS
 10
6.1878265594
 20
3.7169207931
 11
6.1878265594
 21
3.6318814231
  0
LINE
  5
6D0
100
AcDbEntity
  8
AXIS
100
AcDbLine
 62
7
  6
CONTINUOUS
 10
6.3012123862
 20
3.9057003207
 11
6.3012123862
 21
3.8324719742
  0
LINE
  5
6D1
100
AcDbEntity
  8
0
100
AcDbLine
 62
7
  6
CONTINUOUS
 10
6.3334958508
 20
3.926369612
 11
6.3334958508
 21
3.9909365412
  0
LINE
  5
6D2
100
AcDbEntity
  8
0
100
AcDbLine
 62
7
  6
CONTINUOUS
 10
6.2390076618
 20
3.6280686027
 11
6.2232596303
 21
3.719560438
  0
LINE
  5
6D3
100
AcDbEntity
  8
0
100
AcDbLine
 62
7
  6
CONTINUOUS
 10
6.4457005752
 20
3.9909365412
 11
6.4457005752
 21
3.926369612
  0
LINE
  5
6D4
100
AcDbEntity
  8
AXIS
100
AcDbLine
 62
7
  6
CONTINUOUS
 10
6.4468816775
 20
3.6852278798
 11
6.4468816775
 21
3.5659365412
  0
LINE
  5
6D5
100
AcDbEntity
  8
AXIS
100
AcDbLine
 62
7
  6
CONTINUOUS
 10
6.5559367957
 20
3.9596373286
 11
6.5559367957
 21
3.9222357538
  0
LINE
  5
6D6
100
AcDbEntity
  8
AXIS
100
AcDbLine
 62
7
  6
CONTINUOUS
 10
6.5972753783
 20
3.8118366013
 11
6.5972753783
 21
3.9596373286
  0
LINE
  5
6D7
100
AcDbEntity
  8
0
100
AcDbLine
 62
7
  6
CONTINUOUS
 10
6.6031808901
 20
3.926369612
 11
6.6031808901
 21
3.9909365412
  0
LINE
  5
6D8
100
AcDbEntity
  8
AXIS
100
AcDbLine
 62
7
  6
CONTINUOUS
 10
6.6610549059
 20
3.7856215805
 11
6.6878265594
 21
3.9057003207
  0
LINE
  5
6D9
100
AcDbEntity
  8
AXIS
100
AcDbLine
 62
7
  6
CONTINUOUS
 10
6.4988501815
 20
3.9596373286
 11
6.518151918
 21
3.9144964625
  0
LINE
  5
6DA
100
AcDbEntity
  8
AXIS
100
AcDbLine
 62
7
  6
CONTINUOUS
 10
6.4555430949
 20
3.9596373286
 11
6.5715878226
 21
3.5847985511
  0
LINE
  5
6DB
100
AcDbEntity
  8
AXIS
100
AcDbLine
 62
7
  6
CONTINUOUS
 10
6.5742098507
 20
3.5713585126
 11
6.5715878226
 21
3.5847985511
  0
LINE
  5
6DC
100
AcDbEntity
  8
AXIS
100
AcDbLine
 62
7
  6
CONTINUOUS
 10
6.7744407327
 20
4.0007790609
 11
6.7744407327
 21
3.926369612
  0
LINE
  5
6DD
100
AcDbEntity
  8
0
100
AcDbLine
 62
7
  6
CONTINUOUS
 10
6.7744407327
 20
3.4224326042
 11
6.7744407327
 21
3.3480231553
  0
LINE
  5
6DE
100
AcDbEntity
  8
0
100
AcDbLine
 62
7
  6
CONTINUOUS
 10
6.7744407327
 20
3.6001883268
 11
6.7744407327
 21
3.6438664548
  0
LINE
  5
6DF
100
AcDbEntity
  8
0
100
AcDbLine
 62
7
  6
CONTINUOUS
 10
6.825423143
 20
3.4431018955
 11
6.825423143
 21
3.9057003207
  0
LINE
  5
6E0
100
AcDbEntity
  8
AXIS
100
AcDbLine
 62
7
  6
CONTINUOUS
 10
6.2432954071
 20
3.932711788
 11
6.1957005752
 21
3.9803066199
  0
LINE
  5
6E1
100
AcDbEntity
  8
0
100
AcDbLine
 62
7
  6
CONTINUOUS
 10
6.2532758356
 20
3.9839768288
 11
6.2739181417
 21
3.9633345227
  0
LINE
  5
6E2
100
AcDbEntity
  8
AXIS
100
AcDbLine
 62
7
  6
CONTINUOUS
 10
6.3012123862
 20
3.8324719742
 11
6.4468816775
 21
3.6852278798
  0
LINE
  5
6E3
100
AcDbEntity
  8
AXIS
100
AcDbLine
 62
7
  6
CONTINUOUS
 10
6.601682474
 20
3.7919118429
 11
6.6898714504
 21
3.6023109954
  0
LINE
  5
6E4
100
AcDbEntity
  8
AXIS
100
AcDbLine
 62
7
  6
CONTINUOUS
 10
6.7147096257
 20
3.6702672498
 11
6.6610549059
 21
3.7856215805
  0
LINE
  5
6E5
100
AcDbEntity
  8
0
100
AcDbLine
 62
7
  6
CONTINUOUS
 10
6.9122360083
 20
3.9647554388
 11
6.9122360083
 21
3.9057003207
  0
LINE
  5
6E6
100
AcDbEntity
  8
0
100
AcDbLine
 62
7
  6
CONTINUOUS
 10
6.9122360083
 20
3.4431018955
 11
6.9122360083
 21
3.3840467774
  0
LINE
  5
6E7
100
AcDbEntity
  8
0
100
AcDbLine
 62
7
  6
CONTINUOUS
 10
6.9122360083
 20
3.6192829979
 11
6.9122360083
 21
3.7295192183
  0
LINE
  5
6E8
100
AcDbEntity
  8
0
100
AcDbLine
 62
7
  6
CONTINUOUS
 10
6.9397950634
 20
3.7295192183
 11
6.9397950634
 21
3.6192829979
  0
LINE
  5
6E9
100
AcDbEntity
  8
AXIS
100
AcDbLine
 62
7
  6
CONTINUOUS
 10
6.951606087
 20
4.1173144939
 11
6.951606087
 21
4.0007790609
  0
LINE
  5
6EA
100
AcDbEntity
  8
AXIS
100
AcDbLine
 62
7
  6
CONTINUOUS
 10
6.951606087
 20
3.3480231553
 11
6.951606087
 21
3.2314877223
  0
LINE
  5
6EB
100
AcDbEntity
  8
0
100
AcDbLine
 62
7
  6
CONTINUOUS
 10
6.962629709
 20
3.8860152813
 11
6.962629709
 21
3.7295192183
  0
LINE
  5
6EC
100
AcDbEntity
  8
0
100
AcDbLine
 62
7
  6
CONTINUOUS
 10
6.962629709
 20
3.6192829979
 11
6.962629709
 21
3.4627869349
  0
LINE
  5
6ED
100
AcDbEntity
  8
0
100
AcDbLine
 62
7
  6
CONTINUOUS
 10
6.9632202602
 20
3.2244011081
 11
6.9632202602
 21
3.2314877223
  0
LINE
  5
6EE
100
AcDbEntity
  8
0
100
AcDbLine
 62
7
  6
CONTINUOUS
 10
6.9632202602
 20
4.1173144939
 11
6.9632202602
 21
4.1244011081
  0
LINE
  5
6EF
100
AcDbEntity
  8
0
100
AcDbLine
 62
7
  6
CONTINUOUS
 10
7.0067241972
 20
3.5791255175
 11
7.0067241972
 21
3.7696766987
  0
LINE
  5
6F0
100
AcDbEntity
  8
0
100
AcDbLine
 62
7
  6
CONTINUOUS
 10
7.1512202602
 20
4.1244011081
 11
7.1512202602
 21
4.1194011081
  0
LINE
  5
6F1
100
AcDbEntity
  8
0
100
AcDbLine
 62
7
  6
CONTINUOUS
 10
7.1512202602
 20
3.2244011081
 11
7.1512202602
 21
3.2294011081
  0
LINE
  5
6F2
100
AcDbEntity
  8
0
100
AcDbLine
 62
7
  6
CONTINUOUS
 10
8.1132202602
 20
3.2244011081
 11
6.9632202602
 21
3.2244011081
  0
LINE
  5
6F3
100
AcDbEntity
  8
0
100
AcDbLine
 62
7
  6
CONTINUOUS
 10
8.1132202602
 20
3.2294011081
 11
6.9632202602
 21
3.2294011081
  0
LINE
  5
6F4
100
AcDbEntity
  8
0
100
AcDbLine
 62
7
  6
CONTINUOUS
 10
5.9249292457
 20
3.2314877223
 11
9.1515112748
 21
3.2314877223
  0
LINE
  5
6F5
100
AcDbEntity
  8
0
100
AcDbLine
 62
7
  6
CONTINUOUS
 10
6.0618423075
 20
3.2720389034
 11
6.0205037248
 21
3.2720389034
  0
LINE
  5
6F6
100
AcDbEntity
  8
0
100
AcDbLine
 62
7
  6
CONTINUOUS
 10
9.014598213
 20
3.2720389034
 11
9.0559367957
 21
3.2720389034
  0
LINE
  5
6F7
100
AcDbEntity
  8
0
100
AcDbLine
 62
7
  6
CONTINUOUS
 10
8.2271966382
 20
3.3480231553
 11
8.1563304964
 21
3.3480231553
  0
LINE
  5
6F8
100
AcDbEntity
  8
0
100
AcDbLine
 62
7
  6
CONTINUOUS
 10
6.0618423075
 20
3.3480231553
 11
6.951606087
 21
3.3480231553
  0
LINE
  5
6F9
100
AcDbEntity
  8
AXIS
100
AcDbLine
 62
7
  6
CONTINUOUS
 10
8.2271966382
 20
3.3480231553
 11
8.3019997878
 21
3.3480231553
  0
LINE
  5
6FA
100
AcDbEntity
  8
0
100
AcDbLine
 62
7
  6
CONTINUOUS
 10
8.48310215
 20
3.3480231553
 11
8.6208974256
 21
3.3480231553
  0
LINE
  5
6FB
100
AcDbEntity
  8
0
100
AcDbLine
 62
7
  6
CONTINUOUS
 10
8.7527871894
 20
3.3480231553
 11
8.8162049725
 21
3.3480231553
  0
LINE
  5
6FC
100
AcDbEntity
  8
0
100
AcDbLine
 62
7
  6
CONTINUOUS
 10
8.8231646849
 20
3.364361738
 11
8.7429446697
 21
3.364361738
  0
LINE
  5
6FD
100
AcDbEntity
  8
0
100
AcDbLine
 62
7
  6
CONTINUOUS
 10
8.6307399453
 20
3.364361738
 11
8.4732596303
 21
3.364361738
  0
LINE
  5
6FE
100
AcDbEntity
  8
0
100
AcDbLine
 62
7
  6
CONTINUOUS
 10
8.3019997878
 20
3.364361738
 11
8.1838895516
 21
3.364361738
  0
LINE
  5
6FF
100
AcDbEntity
  8
0
100
AcDbLine
 62
7
  6
CONTINUOUS
 10
6.7744407327
 20
3.364361738
 11
6.8925509689
 21
3.364361738
  0
LINE
  5
700
100
AcDbEntity
  8
AXIS
100
AcDbLine
 62
7
  6
CONTINUOUS
 10
9.014598213
 20
3.3684955963
 11
8.8807399453
 21
3.3684955963
  0
LINE
  5
701
100
AcDbEntity
  8
AXIS
100
AcDbLine
 62
7
  6
CONTINUOUS
 10
8.4791651421
 20
3.3891648876
 11
8.5205037248
 21
3.3891648876
  0
LINE
  5
702
100
AcDbEntity
  8
AXIS
100
AcDbLine
 62
7
  6
CONTINUOUS
 10
8.577590339
 20
3.3891648876
 11
8.6208974256
 21
3.3891648876
  0
LINE
  5
703
100
AcDbEntity
  8
0
100
AcDbLine
 62
7
  6
CONTINUOUS
 10
6.0618423075
 20
3.4224326042
 11
6.7744407327
 21
3.4224326042
  0
LINE
  5
704
100
AcDbEntity
  8
AXIS
100
AcDbLine
 62
7
  6
CONTINUOUS
 10
8.3019997878
 20
3.4224326042
 11
8.4732596303
 21
3.4224326042
  0
LINE
  5
705
100
AcDbEntity
  8
AXIS
100
AcDbLine
 62
7
  6
CONTINUOUS
 10
8.6307399453
 20
3.4224326042
 11
8.7429446697
 21
3.4224326042
  0
LINE
  5
706
100
AcDbEntity
  8
AXIS
100
AcDbLine
 62
7
  6
CONTINUOUS
 10
9.014598213
 20
3.4431018955
 11
8.7752281342
 21
3.4431018955
  0
LINE
  5
707
100
AcDbEntity
  8
AXIS
100
AcDbLine
 62
7
  6
CONTINUOUS
 10
8.388613961
 20
3.4431018955
 11
8.2510173774
 21
3.4431018955
  0
LINE
  5
708
100
AcDbEntity
  8
0
100
AcDbLine
 62
7
  6
CONTINUOUS
 10
8.2510173774
 20
3.4431018955
 11
8.1334958508
 21
3.4431018955
  0
LINE
  5
709
100
AcDbEntity
  8
0
100
AcDbLine
 62
7
  6
CONTINUOUS
 10
6.0618423075
 20
3.4431018955
 11
6.9429446697
 21
3.4431018955
  0
LINE
  5
70A
100
AcDbEntity
  8
AXIS
100
AcDbLine
 62
7
  6
CONTINUOUS
 10
8.4032725385
 20
3.508849927
 11
8.4791651421
 21
3.508849927
  0
LINE
  5
70B
100
AcDbEntity
  8
AXIS
100
AcDbLine
 62
7
  6
CONTINUOUS
 10
8.5838446481
 20
3.508849927
 11
8.7752281342
 21
3.508849927
  0
LINE
  5
70C
100
AcDbEntity
  8
0
100
AcDbLine
 62
7
  6
CONTINUOUS
 10
6.0233336595
 20
3.5149522892
 11
6.0205037248
 21
3.5149522892
  0
LINE
  5
70D
100
AcDbEntity
  8
0
100
AcDbLine
 62
7
  6
CONTINUOUS
 10
9.0531068609
 20
3.5149522892
 11
9.0559367957
 21
3.5149522892
  0
LINE
  5
70E
100
AcDbEntity
  8
0
100
AcDbLine
 62
7
  6
CONTINUOUS
 10
7.4250312838
 20
3.2314877223
 11
7.4250312838
 21
3.2294011081
  0
LINE
  5
70F
100
AcDbEntity
  8
0
100
AcDbLine
 62
7
  6
CONTINUOUS
 10
7.4250312838
 20
4.1173144939
 11
7.4250312838
 21
4.1194011081
  0
LINE
  5
710
100
AcDbEntity
  8
0
100
AcDbLine
 62
7
  6
CONTINUOUS
 10
8.400349497
 20
3.595507359
 11
8.454905735
 21
3.5995716156
  0
LINE
  5
711
100
AcDbEntity
  8
0
100
AcDbLine
 62
7
  6
CONTINUOUS
 10
8.5534849677
 20
3.6069154377
 11
8.676542442
 21
3.6160828065
  0
LINE
  5
712
100
AcDbEntity
  8
0
100
AcDbLine
 62
7
  6
CONTINUOUS
 10
8.7562076715
 20
3.6220175988
 11
8.888613961
 21
3.6318814231
  0
LINE
  5
713
100
AcDbEntity
  8
0
100
AcDbLine
 62
7
  6
CONTINUOUS
 10
6.0233336595
 20
3.5503853601
 11
6.0205037248
 21
3.5503853601
  0
LINE
  5
714
100
AcDbEntity
  8
0
100
AcDbLine
 62
7
  6
CONTINUOUS
 10
9.0531068609
 20
3.5503853601
 11
9.0559367957
 21
3.5503853601
  0
LINE
  5
715
100
AcDbEntity
  8
0
100
AcDbLine
 62
7
  6
CONTINUOUS
 10
6.962629709
 20
3.5791255175
 11
7.0067241972
 21
3.5791255175
  0
LINE
  5
716
100
AcDbEntity
  8
0
100
AcDbLine
 62
7
  6
CONTINUOUS
 10
6.962629709
 20
3.6192829979
 11
6.9122360083
 21
3.6192829979
  0
LINE
  5
717
100
AcDbEntity
  8
0
100
AcDbLine
 62
7
  6
CONTINUOUS
 10
8.1138108114
 20
3.6192829979
 11
8.1642045122
 21
3.6192829979
  0
LINE
  5
718
100
AcDbEntity
  8
AXIS
100
AcDbLine
 62
7
  6
CONTINUOUS
 10
6.7346668849
 20
3.6694392387
 11
6.7147096257
 21
3.6702672498
  0
LINE
  5
719
100
AcDbEntity
  8
0
100
AcDbLine
 62
7
  6
CONTINUOUS
 10
6.1878265594
 20
3.6318814231
 11
6.3202328489
 21
3.6220175988
  0
LINE
  5
71A
100
AcDbEntity
  8
0
100
AcDbLine
 62
7
  6
CONTINUOUS
 10
6.4468816775
 20
3.6125826861
 11
6.5657271972
 21
3.6037290937
  0
LINE
  5
71B
100
AcDbEntity
  8
0
100
AcDbLine
 62
7
  6
CONTINUOUS
 10
6.6948645147
 20
3.5941087969
 11
6.7657140975
 21
3.5888307407
  0
LINE
  5
71C
100
AcDbEntity
  8
0
100
AcDbLine
 62
7
  6
CONTINUOUS
 10
7.6514092366
 20
3.2314877223
 11
7.6514092366
 21
3.2294011081
  0
LINE
  5
71D
100
AcDbEntity
  8
0
100
AcDbLine
 62
7
  6
CONTINUOUS
 10
7.6514092366
 20
4.1173144939
 11
7.6514092366
 21
4.1194011081
  0
LINE
  5
71E
100
AcDbEntity
  8
0
100
AcDbLine
 62
7
  6
CONTINUOUS
 10
6.6760910235
 20
3.7532948572
 11
6.6215347854
 21
3.7492306006
  0
LINE
  5
71F
100
AcDbEntity
  8
0
100
AcDbLine
 62
7
  6
CONTINUOUS
 10
6.5229555527
 20
3.7418867785
 11
6.3998980784
 21
3.7327194097
  0
LINE
  5
720
100
AcDbEntity
  8
0
100
AcDbLine
 62
7
  6
CONTINUOUS
 10
6.3202328489
 20
3.7267846174
 11
6.1878265594
 21
3.7169207931
  0
LINE
  5
721
100
AcDbEntity
  8
0
100
AcDbLine
 62
7
  6
CONTINUOUS
 10
6.962629709
 20
3.7295192183
 11
6.9122360083
 21
3.7295192183
  0
LINE
  5
722
100
AcDbEntity
  8
0
100
AcDbLine
 62
7
  6
CONTINUOUS
 10
8.1138108114
 20
3.7295192183
 11
8.1642045122
 21
3.7295192183
  0
LINE
  5
723
100
AcDbEntity
  8
0
100
AcDbLine
 62
7
  6
CONTINUOUS
 10
7.0067241972
 20
3.7696766987
 11
6.962629709
 21
3.7696766987
  0
LINE
  5
724
100
AcDbEntity
  8
0
100
AcDbLine
 62
7
  6
CONTINUOUS
 10
6.0233336595
 20
3.7984168561
 11
6.0205037248
 21
3.7984168561
  0
LINE
  5
725
100
AcDbEntity
  8
0
100
AcDbLine
 62
7
  6
CONTINUOUS
 10
9.0531068609
 20
3.7984168561
 11
9.0559367957
 21
3.7984168561
  0
LINE
  5
726
100
AcDbEntity
  8
0
100
AcDbLine
 62
7
  6
CONTINUOUS
 10
6.0233336595
 20
3.833849927
 11
6.0205037248
 21
3.833849927
  0
LINE
  5
727
100
AcDbEntity
  8
0
100
AcDbLine
 62
7
  6
CONTINUOUS
 10
9.0531068609
 20
3.833849927
 11
9.0559367957
 21
3.833849927
  0
LINE
  5
728
100
AcDbEntity
  8
AXIS
100
AcDbLine
 62
7
  6
CONTINUOUS
 10
6.6731679819
 20
3.8399522892
 11
6.5972753783
 21
3.8399522892
  0
LINE
  5
729
100
AcDbEntity
  8
AXIS
100
AcDbLine
 62
7
  6
CONTINUOUS
 10
6.4925958723
 20
3.8399522892
 11
6.3012123862
 21
3.8399522892
  0
LINE
  5
72A
100
AcDbEntity
  8
AXIS
100
AcDbLine
 62
7
  6
CONTINUOUS
 10
8.3417736355
 20
3.6793629775
 11
8.3617308948
 21
3.6785349664
  0
LINE
  5
72B
100
AcDbEntity
  8
0
100
AcDbLine
 62
7
  6
CONTINUOUS
 10
8.888613961
 20
3.7169207931
 11
8.7562076715
 21
3.7267846174
  0
LINE
  5
72C
100
AcDbEntity
  8
0
100
AcDbLine
 62
7
  6
CONTINUOUS
 10
8.6295588429
 20
3.7362195301
 11
8.5107133233
 21
3.7450731225
  0
LINE
  5
72D
100
AcDbEntity
  8
0
100
AcDbLine
 62
7
  6
CONTINUOUS
 10
8.3815760058
 20
3.7546934193
 11
8.3107264229
 21
3.7599714755
  0
LINE
  5
72E
100
AcDbEntity
  8
AXIS
100
AcDbLine
 62
7
  6
CONTINUOUS
 10
6.0618423075
 20
3.9057003207
 11
6.3012123862
 21
3.9057003207
  0
LINE
  5
72F
100
AcDbEntity
  8
AXIS
100
AcDbLine
 62
7
  6
CONTINUOUS
 10
6.6878265594
 20
3.9057003207
 11
6.825423143
 21
3.9057003207
  0
LINE
  5
730
100
AcDbEntity
  8
0
100
AcDbLine
 62
7
  6
CONTINUOUS
 10
6.825423143
 20
3.9057003207
 11
6.9429446697
 21
3.9057003207
  0
LINE
  5
731
100
AcDbEntity
  8
0
100
AcDbLine
 62
7
  6
CONTINUOUS
 10
8.1334958508
 20
3.9057003207
 11
9.014598213
 21
3.9057003207
  0
LINE
  5
732
100
AcDbEntity
  8
0
100
AcDbLine
 62
7
  6
CONTINUOUS
 10
9.014598213
 20
3.926369612
 11
8.3019997878
 21
3.926369612
  0
LINE
  5
733
100
AcDbEntity
  8
AXIS
100
AcDbLine
 62
7
  6
CONTINUOUS
 10
6.7744407327
 20
3.926369612
 11
6.6031808901
 21
3.926369612
  0
LINE
  5
734
100
AcDbEntity
  8
AXIS
100
AcDbLine
 62
7
  6
CONTINUOUS
 10
6.4457005752
 20
3.926369612
 11
6.3334958508
 21
3.926369612
  0
LINE
  5
735
100
AcDbEntity
  8
AXIS
100
AcDbLine
 62
7
  6
CONTINUOUS
 10
6.5972753783
 20
3.9596373286
 11
6.5559367957
 21
3.9596373286
  0
LINE
  5
736
100
AcDbEntity
  8
AXIS
100
AcDbLine
 62
7
  6
CONTINUOUS
 10
6.4988501815
 20
3.9596373286
 11
6.4555430949
 21
3.9596373286
  0
LINE
  5
737
100
AcDbEntity
  8
AXIS
100
AcDbLine
 62
7
  6
CONTINUOUS
 10
6.0618423075
 20
3.9803066199
 11
6.1957005752
 21
3.9803066199
  0
LINE
  5
738
100
AcDbEntity
  8
0
100
AcDbLine
 62
7
  6
CONTINUOUS
 10
8.3019997878
 20
3.9844404782
 11
8.1838895516
 21
3.9844404782
  0
LINE
  5
739
100
AcDbEntity
  8
0
100
AcDbLine
 62
7
  6
CONTINUOUS
 10
6.2532758356
 20
3.9844404782
 11
6.3334958508
 21
3.9844404782
  0
LINE
  5
73A
100
AcDbEntity
  8
0
100
AcDbLine
 62
7
  6
CONTINUOUS
 10
6.4457005752
 20
3.9844404782
 11
6.6031808901
 21
3.9844404782
  0
LINE
  5
73B
100
AcDbEntity
  8
0
100
AcDbLine
 62
7
  6
CONTINUOUS
 10
6.7744407327
 20
3.9844404782
 11
6.8925509689
 21
3.9844404782
  0
LINE
  5
73C
100
AcDbEntity
  8
0
100
AcDbLine
 62
7
  6
CONTINUOUS
 10
9.014598213
 20
4.0007790609
 11
8.2480226595
 21
4.0007790609
  0
LINE
  5
73D
100
AcDbEntity
  8
AXIS
100
AcDbLine
 62
7
  6
CONTINUOUS
 10
6.951606087
 20
4.0007790609
 11
6.7744407327
 21
4.0007790609
  0
LINE
  5
73E
100
AcDbEntity
  8
0
100
AcDbLine
 62
7
  6
CONTINUOUS
 10
6.5933383705
 20
4.0007790609
 11
6.4555430949
 21
4.0007790609
  0
LINE
  5
73F
100
AcDbEntity
  8
0
100
AcDbLine
 62
7
  6
CONTINUOUS
 10
6.3236533311
 20
4.0007790609
 11
6.260235548
 21
4.0007790609
  0
LINE
  5
740
100
AcDbEntity
  8
0
100
AcDbLine
 62
7
  6
CONTINUOUS
 10
8.1563304964
 20
4.0007790609
 11
8.2271966382
 21
4.0007790609
  0
LINE
  5
741
100
AcDbEntity
  8
AXIS
100
AcDbLine
 62
7
  6
CONTINUOUS
 10
8.2271966382
 20
4.0007790609
 11
8.2480226595
 21
4.0007790609
  0
LINE
  5
742
100
AcDbEntity
  8
0
100
AcDbLine
 62
7
  6
CONTINUOUS
 10
7.9252202602
 20
4.1244011081
 11
7.9252202602
 21
4.1194011081
  0
LINE
  5
743
100
AcDbEntity
  8
0
100
AcDbLine
 62
7
  6
CONTINUOUS
 10
7.9252202602
 20
3.2244011081
 11
7.9252202602
 21
3.2294011081
  0
LINE
  5
744
100
AcDbEntity
  8
0
100
AcDbLine
 62
7
  6
CONTINUOUS
 10
6.0618423075
 20
4.0767633128
 11
6.0205037248
 21
4.0767633128
  0
LINE
  5
745
100
AcDbEntity
  8
0
100
AcDbLine
 62
7
  6
CONTINUOUS
 10
9.014598213
 20
4.0767633128
 11
9.0559367957
 21
4.0767633128
  0
LINE
  5
746
100
AcDbEntity
  8
0
100
AcDbLine
 62
7
  6
CONTINUOUS
 10
5.9249292457
 20
4.1173144939
 11
9.1515112748
 21
4.1173144939
  0
LINE
  5
747
100
AcDbEntity
  8
0
100
AcDbLine
 62
7
  6
CONTINUOUS
 10
6.9632202602
 20
4.1194011081
 11
8.1132202602
 21
4.1194011081
  0
LINE
  5
748
100
AcDbEntity
  8
0
100
AcDbLine
 62
7
  6
CONTINUOUS
 10
6.9632202602
 20
4.1244011081
 11
8.1132202602
 21
4.1244011081
  0
LINE
  5
749
100
AcDbEntity
  8
0
100
AcDbLine
 62
7
  6
CONTINUOUS
 10
8.1132202602
 20
4.1244011081
 11
8.1132202602
 21
4.1173144939
  0
LINE
  5
74A
100
AcDbEntity
  8
0
100
AcDbLine
 62
7
  6
CONTINUOUS
 10
8.1132202602
 20
3.2244011081
 11
8.1132202602
 21
3.2314877223
  0
LINE
  5
74B
100
AcDbEntity
  8
0
100
AcDbLine
 62
7
  6
CONTINUOUS
 10
8.1138108114
 20
3.4627869349
 11
8.1138108114
 21
3.6192829979
  0
LINE
  5
74C
100
AcDbEntity
  8
0
100
AcDbLine
 62
7
  6
CONTINUOUS
 10
8.1138108114
 20
3.7295192183
 11
8.1138108114
 21
3.8860152813
  0
LINE
  5
74D
100
AcDbEntity
  8
0
100
AcDbLine
 62
7
  6
CONTINUOUS
 10
8.1563304964
 20
4.1173144939
 11
8.1563304964
 21
4.0007790609
  0
LINE
  5
74E
100
AcDbEntity
  8
0
100
AcDbLine
 62
7
  6
CONTINUOUS
 10
8.1563304964
 20
3.2314877223
 11
8.1563304964
 21
3.3480231553
  0
LINE
  5
74F
100
AcDbEntity
  8
0
100
AcDbLine
 62
7
  6
CONTINUOUS
 10
8.1642045122
 20
3.7295192183
 11
8.1642045122
 21
3.6192829979
  0
LINE
  5
750
100
AcDbEntity
  8
0
100
AcDbLine
 62
7
  6
CONTINUOUS
 10
8.1642045122
 20
3.3840467774
 11
8.1642045122
 21
3.4431018955
  0
LINE
  5
751
100
AcDbEntity
  8
0
100
AcDbLine
 62
7
  6
CONTINUOUS
 10
8.1642045122
 20
3.9057003207
 11
8.1642045122
 21
3.9647554388
  0
LINE
  5
752
100
AcDbEntity
  8
AXIS
100
AcDbLine
 62
7
  6
CONTINUOUS
 10
8.2271966382
 20
3.2314877223
 11
8.2271966382
 21
3.3480231553
  0
LINE
  5
753
100
AcDbEntity
  8
AXIS
100
AcDbLine
 62
7
  6
CONTINUOUS
 10
8.2271966382
 20
4.0007790609
 11
8.2271966382
 21
4.1173144939
  0
LINE
  5
754
100
AcDbEntity
  8
AXIS
100
AcDbLine
 62
7
  6
CONTINUOUS
 10
8.2480226595
 20
4.1173144939
 11
8.2480226595
 21
4.0007790609
  0
LINE
  5
755
100
AcDbEntity
  8
AXIS
100
AcDbLine
 62
7
  6
CONTINUOUS
 10
8.2480226595
 20
3.3480231553
 11
8.2480226595
 21
3.2314877223
  0
LINE
  5
756
100
AcDbEntity
  8
0
100
AcDbLine
 62
7
  6
CONTINUOUS
 10
8.2510173774
 20
3.9057003207
 11
8.2510173774
 21
3.4431018955
  0
LINE
  5
757
100
AcDbEntity
  8
0
100
AcDbLine
 62
7
  6
CONTINUOUS
 10
8.8231646849
 20
3.3648253874
 11
8.8025223788
 21
3.3854676935
  0
LINE
  5
758
100
AcDbEntity
  8
0
100
AcDbLine
 62
7
  6
CONTINUOUS
 10
8.3019997878
 20
3.7486138894
 11
8.3019997878
 21
3.7049357614
  0
LINE
  5
759
100
AcDbEntity
  8
AXIS
100
AcDbLine
 62
7
  6
CONTINUOUS
 10
8.3019997878
 20
3.3480231553
 11
8.3019997878
 21
3.4224326042
  0
LINE
  5
75A
100
AcDbEntity
  8
0
100
AcDbLine
 62
7
  6
CONTINUOUS
 10
8.3019997878
 20
3.926369612
 11
8.3019997878
 21
4.0007790609
  0
LINE
  5
75B
100
AcDbEntity
  8
AXIS
100
AcDbLine
 62
7
  6
CONTINUOUS
 10
8.4153856146
 20
3.5631806357
 11
8.388613961
 21
3.4431018955
  0
LINE
  5
75C
100
AcDbEntity
  8
AXIS
100
AcDbLine
 62
7
  6
CONTINUOUS
 10
8.8331451134
 20
3.4160904282
 11
8.8807399453
 21
3.3684955963
  0
LINE
  5
75D
100
AcDbEntity
  8
AXIS
100
AcDbLine
 62
7
  6
CONTINUOUS
 10
8.7752281342
 20
3.516330242
 11
8.6295588429
 21
3.6635743364
  0
LINE
  5
75E
100
AcDbEntity
  8
AXIS
100
AcDbLine
 62
7
  6
CONTINUOUS
 10
8.3617308948
 20
3.6785349664
 11
8.4153856146
 21
3.5631806357
  0
LINE
  5
75F
100
AcDbEntity
  8
AXIS
100
AcDbLine
 62
7
  6
CONTINUOUS
 10
8.4747580464
 20
3.5568903733
 11
8.3865690701
 21
3.7464912208
  0
LINE
  5
760
100
AcDbEntity
  8
AXIS
100
AcDbLine
 62
7
  6
CONTINUOUS
 10
8.577590339
 20
3.3891648876
 11
8.5582886024
 21
3.4343057537
  0
LINE
  5
761
100
AcDbEntity
  8
0
100
AcDbLine
 62
7
  6
CONTINUOUS
 10
8.4732596303
 20
3.4224326042
 11
8.4732596303
 21
3.357865675
  0
LINE
  5
762
100
AcDbEntity
  8
AXIS
100
AcDbLine
 62
7
  6
CONTINUOUS
 10
8.4791651421
 20
3.5369656149
 11
8.4791651421
 21
3.3891648876
  0
LINE
  5
763
100
AcDbEntity
  8
AXIS
100
AcDbLine
 62
7
  6
CONTINUOUS
 10
8.5205037248
 20
3.3891648876
 11
8.5205037248
 21
3.4265664624
  0
LINE
  5
764
100
AcDbEntity
  8
AXIS
100
AcDbLine
 62
7
  6
CONTINUOUS
 10
8.6208974256
 20
3.3891648876
 11
8.5048526979
 21
3.7640036651
  0
LINE
  5
765
100
AcDbEntity
  8
AXIS
100
AcDbLine
 62
7
  6
CONTINUOUS
 10
8.5022306697
 20
3.7774437036
 11
8.5048526979
 21
3.7640036651
  0
LINE
  5
766
100
AcDbEntity
  8
AXIS
100
AcDbLine
 62
7
  6
CONTINUOUS
 10
8.6295588429
 20
3.6635743364
 11
8.6295588429
 21
3.782865675
  0
LINE
  5
767
100
AcDbEntity
  8
0
100
AcDbLine
 62
7
  6
CONTINUOUS
 10
8.6307399453
 20
3.357865675
 11
8.6307399453
 21
3.4224326042
  0
LINE
  5
768
100
AcDbEntity
  8
0
100
AcDbLine
 62
7
  6
CONTINUOUS
 10
8.7429446697
 20
3.4224326042
 11
8.7429446697
 21
3.357865675
  0
LINE
  5
769
100
AcDbEntity
  8
AXIS
100
AcDbLine
 62
7
  6
CONTINUOUS
 10
8.7752281342
 20
3.4431018955
 11
8.7752281342
 21
3.516330242
  0
LINE
  5
76A
100
AcDbEntity
  8
0
100
AcDbLine
 62
7
  6
CONTINUOUS
 10
8.888613961
 20
3.6318814231
 11
8.888613961
 21
3.7169207931
  0
LINE
  5
76B
100
AcDbEntity
  8
0
100
AcDbLine
 62
7
  6
CONTINUOUS
 10
8.8374328586
 20
3.7207336135
 11
8.8531808901
 21
3.6292417782
  0
LINE
  5
76C
100
AcDbEntity
  8
AXIS
100
AcDbLine
 62
7
  6
CONTINUOUS
 10
9.014598213
 20
3.3684955963
 11
9.014598213
 21
3.2314877223
  0
LINE
  5
76D
100
AcDbEntity
  8
0
100
AcDbLine
 62
7
  6
CONTINUOUS
 10
9.014598213
 20
3.3684955963
 11
9.014598213
 21
4.1173144939
  0
LINE
  5
76E
100
AcDbEntity
  8
0
100
AcDbLine
 62
7
  6
CONTINUOUS
 10
9.0531068609
 20
4.0767633128
 11
9.0531068609
 21
3.833849927
  0
LINE
  5
76F
100
AcDbEntity
  8
0
100
AcDbLine
 62
7
  6
CONTINUOUS
 10
9.0531068609
 20
3.7984168561
 11
9.0531068609
 21
3.5503853601
  0
LINE
  5
770
100
AcDbEntity
  8
0
100
AcDbLine
 62
7
  6
CONTINUOUS
 10
9.0531068609
 20
3.2720389034
 11
9.0531068609
 21
3.5149522892
  0
LINE
  5
771
100
AcDbEntity
  8
0
100
AcDbLine
 62
7
  6
CONTINUOUS
 10
9.0559367957
 20
4.0767633128
 11
9.0559367957
 21
3.2720389034
  0
LINE
  5
772
100
AcDbEntity
  8
0
100
AcDbLine
 62
7
  6
CONTINUOUS
 10
9.1515112748
 20
4.1173144939
 11
9.1515112748
 21
3.2314877223
  0
CIRCLE
  5
773
100
AcDbEntity
  8
0
100
AcDbCircle
 62
7
  6
CONTINUOUS
 10
15.2229827477
 20
1.1139932523
 40
0.252091
  0
CIRCLE
  5
774
100
AcDbEntity
  8
0
100
AcDbCircle
 62
7
  6
CONTINUOUS
 10
15.2229827477
 20
1.1139932523
 40
0.182698
  0
CIRCLE
  5
775
100
AcDbEntity
  8
0
100
AcDbCircle
 62
7
  6
CONTINUOUS
 10
14.8013422688
 20
1.8652439144
 40
0.0638444824
  0
ARC
  5
776
100
AcDbEntity
  8
0
100
AcDbCircle
 62
7
  6
CONTINUOUS
 10
7.1512202602
 20
9.8729842637
 40
0.188
100
AcDbArc
 50
180.0
 51
270.0
  0
ARC
  5
777
100
AcDbEntity
  8
0
100
AcDbCircle
 62
7
  6
CONTINUOUS
 10
7.9252202602
 20
9.8729842637
 40
0.188
100
AcDbArc
 50
270.0
 51
360.0
  0
ARC
  5
778
100
AcDbEntity
  8
AXIS
100
AcDbCircle
 62
7
  6
CONTINUOUS
 10
6.1917635673
 20
6.3660282689
 40
0.0590551181
100
AcDbArc
 50
90.0
 51
180.0
  0
ARC
  5
779
100
AcDbEntity
  8
AXIS
100
AcDbCircle
 62
7
  6
CONTINUOUS
 10
6.6838895516
 20
6.3660282689
 40
0.0590551181
100
AcDbArc
 50
0.0
 51
90.0
  0
ARC
  5
77A
100
AcDbEntity
  8
AXIS
100
AcDbCircle
 62
7
  6
CONTINUOUS
 10
8.8846769531
 20
6.3660282689
 40
0.0590551181
100
AcDbArc
 50
0.0
 51
90.0
  0
ARC
  5
77B
100
AcDbEntity
  8
AXIS
100
AcDbCircle
 62
7
  6
CONTINUOUS
 10
8.3925509689
 20
6.3660282689
 40
0.0590551181
100
AcDbArc
 50
90.0
 51
180.0
  0
ARC
  5
77C
100
AcDbEntity
  8
0
100
AcDbCircle
 62
7
  6
CONTINUOUS
 10
6.9222391848
 20
10.0372881114
 40
0.0393700787
100
AcDbArc
 50
90.0
 51
171.0
  0
ARC
  5
77D
100
AcDbEntity
  8
0
100
AcDbCircle
 62
7
  6
CONTINUOUS
 10
8.1542013356
 20
10.0372881114
 40
0.0393700787
100
AcDbArc
 50
9.0
 51
90.0
  0
ARC
  5
77E
100
AcDbEntity
  8
0
100
AcDbCircle
 62
7
  6
CONTINUOUS
 10
8.2747662307
 20
9.7794140957
 40
0.0393700787
100
AcDbArc
 50
189.0
 51
270.0
  0
ARC
  5
77F
100
AcDbEntity
  8
0
100
AcDbCircle
 62
7
  6
CONTINUOUS
 10
6.8016742897
 20
9.7794140957
 40
0.0393700787
100
AcDbArc
 50
270.0
 51
351.0
  0
ARC
  5
780
100
AcDbEntity
  8
0
100
AcDbCircle
 62
7
  6
CONTINUOUS
 10
3.802293718
 20
10.8717763004
 40
0.015
100
AcDbArc
 50
0.0
 51
90.0
  0
ARC
  5
781
100
AcDbEntity
  8
0
100
AcDbCircle
 62
7
  6
CONTINUOUS
 10
2.932293718
 20
10.8717763004
 40
0.015
100
AcDbArc
 50
90.0
 51
180.0
  0
ARC
  5
782
100
AcDbEntity
  8
0
100
AcDbCircle
 62
7
  6
CONTINUOUS
 10
2.932293718
 20
10.8717763004
 40
0.01
100
AcDbArc
 50
143.7056979352
 51
180.0
  0
ARC
  5
783
100
AcDbEntity
  8
0
100
AcDbCircle
 62
7
  6
CONTINUOUS
 10
3.802293718
 20
10.8717763004
 40
0.01
100
AcDbArc
 50
0.0
 51
36.2943020648
  0
ARC
  5
784
100
AcDbEntity
  8
0
100
AcDbCircle
 62
7
  6
CONTINUOUS
 10
12.1039328198
 20
10.8717763004
 40
0.015
100
AcDbArc
 50
90.0
 51
180.0
  0
ARC
  5
785
100
AcDbEntity
  8
0
100
AcDbCircle
 62
7
  6
CONTINUOUS
 10
12.9739328198
 20
10.8717763004
 40
0.015
100
AcDbArc
 50
0.0
 51
90.0
  0
ARC
  5
786
100
AcDbEntity
  8
0
100
AcDbCircle
 62
7
  6
CONTINUOUS
 10
12.9739328198
 20
10.8717763004
 40
0.01
100
AcDbArc
 50
0.0
 51
36.2943020648
  0
ARC
  5
787
100
AcDbEntity
  8
0
100
AcDbCircle
 62
7
  6
CONTINUOUS
 10
12.1039328198
 20
10.8717763004
 40
0.01
100
AcDbArc
 50
143.7056979352
 51
180.0
  0
ARC
  5
788
100
AcDbEntity
  8
0
100
AcDbCircle
 62
7
  6
CONTINUOUS
 10
17.4319793427
 20
9.8729842637
 40
0.188
100
AcDbArc
 50
270.0
 51
360.0
  0
ARC
  5
789
100
AcDbEntity
  8
0
100
AcDbCircle
 62
7
  6
CONTINUOUS
 10
16.6579793427
 20
9.8729842637
 40
0.188
100
AcDbArc
 50
180.0
 51
270.0
  0
ARC
  5
78A
100
AcDbEntity
  8
AXIS
100
AcDbCircle
 62
7
  6
CONTINUOUS
 10
17.8993100514
 20
6.3660282689
 40
0.0590551181
100
AcDbArc
 50
90.0
 51
180.0
  0
ARC
  5
78B
100
AcDbEntity
  8
AXIS
100
AcDbCircle
 62
7
  6
CONTINUOUS
 10
18.3914360356
 20
6.3660282689
 40
0.0590551181
100
AcDbArc
 50
0.0
 51
90.0
  0
ARC
  5
78C
100
AcDbEntity
  8
AXIS
100
AcDbCircle
 62
7
  6
CONTINUOUS
 10
15.6985226498
 20
6.3660282689
 40
0.0590551181
100
AcDbArc
 50
90.0
 51
180.0
  0
ARC
  5
78D
100
AcDbEntity
  8
AXIS
100
AcDbCircle
 62
7
  6
CONTINUOUS
 10
16.1906486341
 20
6.3660282689
 40
0.0590551181
100
AcDbArc
 50
0.0
 51
90.0
  0
ARC
  5
78E
100
AcDbEntity
  8
0
100
AcDbCircle
 62
7
  6
CONTINUOUS
 10
16.4289982673
 20
10.0372881114
 40
0.0393700787
100
AcDbArc
 50
90.0
 51
171.0
  0
ARC
  5
78F
100
AcDbEntity
  8
0
100
AcDbCircle
 62
7
  6
CONTINUOUS
 10
17.6609604181
 20
10.0372881114
 40
0.0393700787
100
AcDbArc
 50
9.0
 51
90.0
  0
ARC
  5
790
100
AcDbEntity
  8
0
100
AcDbCircle
 62
7
  6
CONTINUOUS
 10
16.3084333722
 20
9.7794140957
 40
0.0393700787
100
AcDbArc
 50
270.0
 51
351.0
  0
ARC
  5
791
100
AcDbEntity
  8
0
100
AcDbCircle
 62
7
  6
CONTINUOUS
 10
17.7815253132
 20
9.7794140957
 40
0.0393700787
100
AcDbArc
 50
189.0
 51
270.0
  0
CIRCLE
  5
792
100
AcDbEntity
  8
0
100
AcDbCircle
 62
7
  6
CONTINUOUS
 10
6.357117898
 20
13.1701837642
 40
0.1131889764
  0
CIRCLE
  5
793
100
AcDbEntity
  8
0
100
AcDbCircle
 62
7
  6
CONTINUOUS
 10
6.357117898
 20
13.7355380949
 40
0.1131889764
  0
CIRCLE
  5
794
100
AcDbEntity
  8
0
100
AcDbCircle
 62
7
  6
CONTINUOUS
 10
6.357117898
 20
13.4528609295
 40
0.1131889764
  0
CIRCLE
  5
795
100
AcDbEntity
  8
0
100
AcDbCircle
 62
7
  6
CONTINUOUS
 10
8.7193226224
 20
13.1701837642
 40
0.1131889764
  0
CIRCLE
  5
796
100
AcDbEntity
  8
0
100
AcDbCircle
 62
7
  6
CONTINUOUS
 10
8.7193226224
 20
13.7355380949
 40
0.1131889764
  0
CIRCLE
  5
797
100
AcDbEntity
  8
0
100
AcDbCircle
 62
7
  6
CONTINUOUS
 10
8.7193226224
 20
13.4528609295
 40
0.1131889764
  0
CIRCLE
  5
798
100
AcDbEntity
  8
0
100
AcDbCircle
 62
7
  6
CONTINUOUS
 10
8.2665667169
 20
13.1701837642
 40
0.1131889764
  0
CIRCLE
  5
799
100
AcDbEntity
  8
0
100
AcDbCircle
 62
7
  6
CONTINUOUS
 10
8.2665667169
 20
13.7355380949
 40
0.1131889764
  0
CIRCLE
  5
79A
100
AcDbEntity
  8
0
100
AcDbCircle
 62
7
  6
CONTINUOUS
 10
8.2665667169
 20
13.4528609295
 40
0.1131889764
  0
CIRCLE
  5
79B
100
AcDbEntity
  8
0
100
AcDbCircle
 62
7
  6
CONTINUOUS
 10
6.8098738035
 20
13.1701837642
 40
0.1131889764
  0
CIRCLE
  5
79C
100
AcDbEntity
  8
0
100
AcDbCircle
 62
7
  6
CONTINUOUS
 10
6.8098738035
 20
13.7355380949
 40
0.1131889764
  0
CIRCLE
  5
79D
100
AcDbEntity
  8
0
100
AcDbCircle
 62
7
  6
CONTINUOUS
 10
6.8098738035
 20
13.4528609295
 40
0.1131889764
  0
CIRCLE
  5
79E
100
AcDbEntity
  8
0
100
AcDbCircle
 62
7
  6
CONTINUOUS
 10
7.3882202602
 20
13.2328609295
 40
0.08
  0
ARC
  5
79F
100
AcDbEntity
  8
0
100
AcDbCircle
 62
7
  6
CONTINUOUS
 10
7.6682202602
 20
13.2328609295
 40
0.08
100
AcDbArc
 50
90.0
 51
270.0
  0
ARC
  5
7A0
100
AcDbEntity
  8
0
100
AcDbCircle
 62
7
  6
CONTINUOUS
 10
7.8382202602
 20
13.2328609295
 40
0.08
100
AcDbArc
 50
270.0
 51
90.0
  0
CIRCLE
  5
7A1
100
AcDbEntity
  8
AXIS
100
AcDbCircle
 62
7
  6
CONTINUOUS
 10
8.8216848272
 20
3.6744011081
 40
0.0842519685
  0
CIRCLE
  5
7A2
100
AcDbEntity
  8
AXIS
100
AcDbCircle
 62
7
  6
CONTINUOUS
 10
6.2547556933
 20
3.6744011081
 40
0.0842519685
  0
ARC
  5
7A3
100
AcDbEntity
  8
AXIS
100
AcDbCircle
 62
7
  6
CONTINUOUS
 10
8.5657793153
 20
3.782865675
 40
0.0637795276
100
AcDbArc
 50
0.0
 51
184.8766664374
  0
ARC
  5
7A4
100
AcDbEntity
  8
AXIS
100
AcDbCircle
 62
7
  6
CONTINUOUS
 10
6.5106612051
 20
3.5659365412
 40
0.0637795276
100
AcDbArc
 50
180.0
 51
4.8766664374
  0
ARC
  5
7A5
100
AcDbEntity
  8
AXIS
100
AcDbCircle
 62
7
  6
CONTINUOUS
 10
8.4319210476
 20
3.5369656149
 40
0.0472440945
100
AcDbArc
 50
0.0
 51
24.9445352319
  0
ARC
  5
7A6
100
AcDbEntity
  8
AXIS
100
AcDbCircle
 62
7
  6
CONTINUOUS
 10
8.3437320712
 20
3.7265664624
 40
0.0472440945
100
AcDbArc
 50
24.9445352319
 51
267.6242054513
  0
ARC
  5
7A7
100
AcDbEntity
  8
AXIS
100
AcDbCircle
 62
7
  6
CONTINUOUS
 10
6.6445194728
 20
3.8118366013
 40
0.0472440945
100
AcDbArc
 50
180.0
 51
204.9445352319
  0
ARC
  5
7A8
100
AcDbEntity
  8
AXIS
100
AcDbCircle
 62
7
  6
CONTINUOUS
 10
6.7327084492
 20
3.6222357538
 40
0.0472440945
100
AcDbArc
 50
204.9445352319
 51
87.6242054513
  0
ARC
  5
7A9
100
AcDbEntity
  8
AXIS
100
AcDbCircle
 62
7
  6
CONTINUOUS
 10
8.8178337461
 20
3.4007790609
 40
0.0216535433
100
AcDbArc
 50
45.0
 51
225.0
  0
ARC
  5
7AA
100
AcDbEntity
  8
AXIS
100
AcDbCircle
 62
7
  6
CONTINUOUS
 10
6.2586067744
 20
3.9480231553
 40
0.0216535433
100
AcDbArc
 50
225.0
 51
45.0
  0
ARC
  5
7AB
100
AcDbEntity
  8
0
100
AcDbCircle
 62
7
  6
CONTINUOUS
 10
8.1838895516
 20
3.9647554388
 40
0.0196850394
100
AcDbArc
 50
90.0
 51
180.0
  0
ARC
  5
7AC
100
AcDbEntity
  8
AXIS
100
AcDbCircle
 62
7
  6
CONTINUOUS
 10
8.5401887642
 20
3.4265664624
 40
0.0196850394
100
AcDbArc
 50
23.1510177453
 51
180.0
  0
ARC
  5
7AD
100
AcDbEntity
  8
0
100
AcDbCircle
 62
7
  6
CONTINUOUS
 10
8.1838895516
 20
3.3840467774
 40
0.0196850394
100
AcDbArc
 50
180.0
 51
270.0
  0
ARC
  5
7AE
100
AcDbEntity
  8
0
100
AcDbCircle
 62
7
  6
CONTINUOUS
 10
8.1334958508
 20
3.4627869349
 40
0.0196850394
100
AcDbArc
 50
180.0
 51
270.0
  0
ARC
  5
7AF
100
AcDbEntity
  8
0
100
AcDbCircle
 62
7
  6
CONTINUOUS
 10
8.1334958508
 20
3.8860152813
 40
0.0196850394
100
AcDbArc
 50
90.0
 51
180.0
  0
ARC
  5
7B0
100
AcDbEntity
  8
0
100
AcDbCircle
 62
7
  6
CONTINUOUS
 10
6.8925509689
 20
3.3840467774
 40
0.0196850394
100
AcDbArc
 50
270.0
 51
360.0
  0
ARC
  5
7B1
100
AcDbEntity
  8
AXIS
100
AcDbCircle
 62
7
  6
CONTINUOUS
 10
6.5362517563
 20
3.9222357538
 40
0.0196850394
100
AcDbArc
 50
203.1510177453
 51
360.0
  0
ARC
  5
7B2
100
AcDbEntity
  8
0
100
AcDbCircle
 62
7
  6
CONTINUOUS
 10
6.8925509689
 20
3.9647554388
 40
0.0196850394
100
AcDbArc
 50
0.0
 51
90.0
  0
ARC
  5
7B3
100
AcDbEntity
  8
0
100
AcDbCircle
 62
7
  6
CONTINUOUS
 10
6.9429446697
 20
3.8860152813
 40
0.0196850394
100
AcDbArc
 50
0.0
 51
90.0
  0
ARC
  5
7B4
100
AcDbEntity
  8
0
100
AcDbCircle
 62
7
  6
CONTINUOUS
 10
6.9429446697
 20
3.4627869349
 40
0.0196850394
100
AcDbArc
 50
270.0
 51
360.0
  0
ARC
  5
7B5
100
AcDbEntity
  8
0
100
AcDbCircle
 62
7
  6
CONTINUOUS
 10
6.260235548
 20
3.9909365412
 40
0.0098425197
100
AcDbArc
 50
90.0
 51
225.0
  0
ARC
  5
7B6
100
AcDbEntity
  8
0
100
AcDbCircle
 62
7
  6
CONTINUOUS
 10
6.3236533311
 20
3.9909365412
 40
0.0098425197
100
AcDbArc
 50
0.0
 51
90.0
  0
ARC
  5
7B7
100
AcDbEntity
  8
0
100
AcDbCircle
 62
7
  6
CONTINUOUS
 10
6.4555430949
 20
3.9909365412
 40
0.0098425197
100
AcDbArc
 50
90.0
 51
180.0
  0
ARC
  5
7B8
100
AcDbEntity
  8
0
100
AcDbCircle
 62
7
  6
CONTINUOUS
 10
6.5933383705
 20
3.9909365412
 40
0.0098425197
100
AcDbArc
 50
0.0
 51
90.0
  0
ARC
  5
7B9
100
AcDbEntity
  8
0
100
AcDbCircle
 62
7
  6
CONTINUOUS
 10
8.48310215
 20
3.357865675
 40
0.0098425197
100
AcDbArc
 50
180.0
 51
270.0
  0
ARC
  5
7BA
100
AcDbEntity
  8
0
100
AcDbCircle
 62
7
  6
CONTINUOUS
 10
8.6208974256
 20
3.357865675
 40
0.0098425197
100
AcDbArc
 50
270.0
 51
360.0
  0
ARC
  5
7BB
100
AcDbEntity
  8
0
100
AcDbCircle
 62
7
  6
CONTINUOUS
 10
8.7527871894
 20
3.357865675
 40
0.0098425197
100
AcDbArc
 50
180.0
 51
270.0
  0
ARC
  5
7BC
100
AcDbEntity
  8
0
100
AcDbCircle
 62
7
  6
CONTINUOUS
 10
8.8162049725
 20
3.357865675
 40
0.0098425197
100
AcDbArc
 50
270.0
 51
45.0
  0
ENDSEC
  0
SECTION
  2
OBJECTS
  0
DICTIONARY
  5
C
100
AcDbDictionary
280
0
281
1
  3
ACAD_GROUP
350
D
  3
ACAD_MLINESTYLE
350
17
  3
ACAD_LAYOUT
350
1A
  3
ACAD_PLOTSETTINGS
350
19
  3
ACAD_PLOTSTYLENAME
350
E
  3
ACAD_TABLESTYLE
350
       7BD
  0
DICTIONARY
  5
D
102
{ACAD_REACTORS
330
C
102
}
100
AcDbDictionary
280
0
281
1
  0
ACDBDICTIONARYWDFLT
  5
E
102
{ACAD_REACTORS
330
C
102
}
100
AcDbDictionary
281
1
  3
Normal
350
F
100
AcDbDictionaryWithDefault
340
F
  0
DICTIONARY
  5
17
102
{ACAD_REACTORS
330
C
102
}
100
AcDbDictionary
280
0
281
1
  3
Standard
350
18
  0
DICTIONARY
  5
7BD
330
C
100
AcDbDictionary
281
1
  3
Standard
350
       7C0
  3
Standard1
350
       7C1
  0
DICTIONARY
  5
19
102
{ACAD_REACTORS
330
C
102
}
100
AcDbDictionary
281
1
  0
DICTIONARY
  5
1A
102
{ACAD_REACTORS
330
C
102
}
100
AcDbDictionary
281
1
  3
Model
350
7BE
  3
Layout1
350
7BF
  0
ACDBPLACEHOLDER
  5
F
102
{ACAD_REACTORS
330
E
102
}
  0
MLINESTYLE
  5
18
102
{ACAD_REACTORS
330
17
102
}
100
AcDbMlineStyle
  2
STANDARD
 70
0
  3

 62
256
 51
90.0
 52
90.0
 71
2
 49
0.5
 62
256
  6
BYLAYER
 49
-0.5
 62
256
  6
BYLAYER
  0
LAYOUT
  5
7BE
102
{ACAD_REACTORS
330
1A
102
}
100
AcDbPlotSettings
  1

  2
none_device
  4
ANSI_C_(22.00_x_17.00_Inches)
  6

 40
0.0
 41
0.0
 42
0.0
 43
0.0
 44
558.8
 45
431.8
 46
0.0
 47
0.0
 48
0.0
 49
0.0
140
0.0
141
0.0
142
1.0
143
1.0
 70
1024
 72
0
 73
0
 74
0
  7

 75
0
147
1.0
148
0.0
149
0.0
100
AcDbLayout
  1
Model
 70
0
 71
0
 10
0.0
 20
0.0
 11
22.0
 21
17.0
 12
0.0
 22
0.0
 32
0.0
 14
0.0
 24
0.0
 34
0.0
 15
0.0
 25
0.0
 35
0.0
146
0.0
 13
0.0
 23
0.0
 33
0.0
 16
1.0
 26
0.0
 36
0.0
 17
0.0
 27
1.0
 37
0.0
 76
0
330
22A
345
0
346
0
  0
LAYOUT
  5
7BF
102
{ACAD_REACTORS
330
1A
102
}
100
AcDbPlotSettings
  1

  2
none_device
  4
ANSI_C_(22.00_x_17.00_Inches)
  6

 40
0.0
 41
0.0
 42
0.0
 43
0.0
 44
558.8
 45
431.8
 46
0.0
 47
0.0
 48
0.0
 49
0.0
140
0.0
141
0.0
142
1.0
143
1.0
 70
0
 72
0
 73
0
 74
0
  7

 75
0
147
1.0
148
0.0
149
0.0
100
AcDbLayout
  1
Layout1
 70
0
 71
1
 10
0.0
 20
0.0
 11
22.0
 21
17.0
 12
0.0
 22
0.0
 32
0.0
 14
0.0
 24
0.0
 34
0.0
 15
0.0
 25
0.0
 35
0.0
146
0.0
 13
0.0
 23
0.0
 33
0.0
 16
1.0
 26
0.0
 36
0.0
 17
0.0
 27
1.0
 37
0.0
 76
0
330
22B
345
0
346
0
  0
TABLESTYLE
  5
7C0
102
{ACAD_REACTORS
330
7BD
102
}
330
7BD
100
AcDbTableStyle
  3
Standard
 70
0
 71
0
 40
0.06
 41
0.06
280
1
281
1
  7
Standard
140
0.18
170
1
 62
0
 63
7
283
0
  7
Standard
140
0.18
170
1
 62
0
 63
7
283
0
  7
Standard
140
0.18
170
1
 62
0
 63
7
283
0
  0
TABLESTYLE
  5
7C1
102
{ACAD_REACTORS
330
7BD
330
290
102
}
330
7BD
100
AcDbTableStyle
  3
Standard1
 70
1
 71
0
 40
0.06
 41
0.06
280
1
281
1
  7
Standard
140
0.18
170
1
 62
0
 63
7
283
0
  7
Standard
140
0.18
170
1
 62
0
 63
7
283
0
  7
Standard
140
0.18
170
1
 62
0
 63
7
283
0
  0
ENDSEC
  0
EOF
