999
DXF file: 191533_1.dxf
999
Pro/ENGINEER 2013230 by Parametric Technology Corporation
  0
SECTION
  2
HEADER
  9
$ACADVER
  1
AC1018
  9
$DWGCODEPAGE
  3
ANSI_1252
  9
$EXTMAX
 10
34.0
 20
22.0
 30
0.0
  9
$EXTMIN
 10
0.0
 20
0.0
 30
0.0
  9
$LIMMIN
 10
0.0
 20
0.0
  9
$LIMMAX
 10
34.0
 20
22.0
  9
$VIEWCTR
 10
17.0
 20
11.0
  9
$VIEWSIZE
 40
22.0
  9
$CLAYER
  8
0
  9
$LTSCALE
 40
1.87
  9
$CELTYPE
  6
BYLAYER
  9
$DIMSCALE
 40
1.0
  9
$DIMASZ
 40
0.1875
  9
$DIMEXO
 40
0.0625
  9
$DIMDLI
 40
1.292
  9
$DIMEXE
 40
0.125
  9
$DIMCEN
 40
0.306
  9
$DIMLFAC
 40
1.0
  9
$DIMBLK
  1
_FILLED
  9
$DIMTXT
 40
0.1
  9
$DIMTOL
 70
1
  9
$DIMLIM
 70
0
  9
$DIMTFAC
 40
1.0
  9
$DIMTP
 40
0.01
  9
$DIMTM
 40
0.01
  9
$DIMGAP
 40
0.09
  9
$DIMDSEP
 70
46
  9
$PDMODE
 70
3
  9
$PDSIZE
 40
0.3125
  9
$HANDSEED
  5
423
  9
$TILEMODE
 70
1
  9
$MEASUREMENT
 70
0
  9
$INSUNITS
 70
1
  0
ENDSEC
  0
SECTION
  2
CLASSES
  0
CLASS
  1
ACDBDICTIONARYWDFLT
  2
AcDbDictionaryWithDefault
  3
AutoCAD 2000
 90
0
 91
1
280
0
281
0
  0
CLASS
  1
ACDBPLACEHOLDER
  2
AcDbPlaceHolder
  3
AutoCAD 2000
 90
0
 91
1
280
0
281
0
  0
CLASS
  1
LAYOUT
  2
AcDbLayout
  3
AutoCAD 2000
 90
0
 91
0
280
0
281
0
  0
CLASS
  1
TABLESTYLE
  2
AcDbTableStyle
  3
ObjectDBX Classes
 90
2047
 91
1
280
0
281
0
  0
CLASS
  1
ACAD_TABLE
  2
AcDbTable
  3
ObjectDBX Classes
 90
1025
 91
1
280
0
281
1
  0
ENDSEC
  0
SECTION
  2
TABLES
  0
TABLE
  2
VPORT
  5
8
100
AcDbSymbolTable
 70
2
  0
VPORT
  5
1F4
100
AcDbSymbolTableRecord
100
AcDbViewportTableRecord
  2
*ACTIVE
 70
0
 10
0.0
 20
0.0
 11
1.0
 21
1.0
 12
17.0
 22
11.0
 13
0.0
 23
0.0
 14
1.0
 24
1.0
 15
0.0
 25
0.0
 16
0.0
 26
0.0
 36
1.0
 17
0.0
 27
0.0
 37
0.0
 40
22.0
 41
1.5454545455
 42
50.0
 43
0.0
 44
0.0
 50
0.0
 51
0.0
 71
0
 72
100
 73
1
 74
1
 75
0
 76
0
 77
0
 78
0
  0
ENDTAB
  0
TABLE
  2
LTYPE
  5
5
100
AcDbSymbolTable
 70
6
  0
LTYPE
  5
14
100
AcDbSymbolTableRecord
100
AcDbLinetypeTableRecord
  2
BYBLOCK
 70
0
  3

 72
65
 73
0
 40
0.0
  0
LTYPE
  5
15
100
AcDbSymbolTableRecord
100
AcDbLinetypeTableRecord
  2
BYLAYER
 70
0
  3

 72
65
 73
0
 40
0.0
  0
LTYPE
  5
16
100
AcDbSymbolTableRecord
100
AcDbLinetypeTableRecord
  2
CONTINUOUS
 70
64
  3
Solid line
 72
65
 73
0
 40
0.0
  0
LTYPE
  5
1F5
100
AcDbSymbolTableRecord
100
AcDbLinetypeTableRecord
  2
CENTER
 70
64
  3
____ _ ____ _ ____ _ ____ _ ____ _ ____ _ ____
 72
65
 73
4
 40
0.6
 49
0.375
 74
0
 49
-0.075
 74
0
 49
0.075
 74
0
 49
-0.075
 74
0
  0
LTYPE
  5
1F6
100
AcDbSymbolTableRecord
100
AcDbLinetypeTableRecord
  2
HIDDEN
 70
64
  3
- - - - - - - - - - - - - - - - - - - -
 72
65
 73
2
 40
0.2
 49
0.1
 74
0
 49
-0.1
 74
0
  0
LTYPE
  5
1F7
100
AcDbSymbolTableRecord
100
AcDbLinetypeTableRecord
  2
PHANTOM
 70
64
  3
_____ _ _ _____ _ _ _____ _ _ _____
 72
65
 73
6
 40
0.8
 49
0.45
 74
0
 49
-0.05
 74
0
 49
0.1
 74
0
 49
-0.05
 74
0
 49
0.1
 74
0
 49
-0.05
 74
0
  0
LTYPE
  5
1F8
100
AcDbSymbolTableRecord
100
AcDbLinetypeTableRecord
  2
DOT
 70
64
  3
. . . . . . . . . . . . . . . . . . . .
 72
65
 73
2
 40
0.2
 49
0.1
 74
0
 49
-0.1
 74
0
  0
LTYPE
  5
1F9
100
AcDbSymbolTableRecord
100
AcDbLinetypeTableRecord
  2
DASHED
 70
64
  3
- - - - - - - - - - - - - - - - - - - -
 72
65
 73
2
 40
0.2
 49
0.1
 74
0
 49
-0.1
 74
0
  0
ENDTAB
  0
TABLE
  2
LAYER
  5
2
100
AcDbSymbolTable
 70
36
  0
LAYER
  5
10
100
AcDbSymbolTableRecord
100
AcDbLayerTableRecord
  2
0
 70
0
 62
7
  6
CONTINUOUS
370
-3
390
F
  0
LAYER
  5
1FA
100
AcDbSymbolTableRecord
100
AcDbLayerTableRecord
  2
DEFAULT_1
 70
0
 62
7
  6
CENTER
370
-3
390
F
  0
LAYER
  5
1FB
100
AcDbSymbolTableRecord
100
AcDbLayerTableRecord
  2
DEFAULT_2
 70
0
 62
7
  6
HIDDEN
370
-3
390
F
  0
LAYER
  5
1FC
100
AcDbSymbolTableRecord
100
AcDbLayerTableRecord
  2
DEFAULT_3
 70
0
 62
7
  6
PHANTOM
370
-3
390
F
  0
LAYER
  5
1FD
100
AcDbSymbolTableRecord
100
AcDbLayerTableRecord
  2
DATUM_CURVES
 70
0
 62
7
  6
CONTINUOUS
370
-3
390
F
  0
LAYER
  5
1FE
100
AcDbSymbolTableRecord
100
AcDbLayerTableRecord
  2
DATUM_PLANES
 70
0
 62
7
  6
CONTINUOUS
370
-3
390
F
  0
LAYER
  5
1FF
100
AcDbSymbolTableRecord
100
AcDbLayerTableRecord
  2
NOTES
 70
0
 62
7
  6
CONTINUOUS
370
-3
390
F
  0
LAYER
  5
200
100
AcDbSymbolTableRecord
100
AcDbLayerTableRecord
  2
QUILTS
 70
0
 62
7
  6
CONTINUOUS
370
-3
390
F
  0
LAYER
  5
201
100
AcDbSymbolTableRecord
100
AcDbLayerTableRecord
  2
SCHEME_DIMS
 70
0
 62
7
  6
CONTINUOUS
370
-3
390
F
  0
LAYER
  5
202
100
AcDbSymbolTableRecord
100
AcDbLayerTableRecord
  2
SKETCHED_ENT
 70
0
 62
7
  6
CONTINUOUS
370
-3
390
F
  0
ENDTAB
  0
TABLE
  2
STYLE
  5
3
100
AcDbSymbolTable
 70
1
  0
STYLE
  5
11
100
AcDbSymbolTableRecord
100
AcDbTextStyleTableRecord
  2
STANDARD
 70
0
 40
0.0
 41
1.0
 50
0.0
 71
0
 42
0.2
  3
txt
  4

  0
STYLE
  5
203
100
AcDbSymbolTableRecord
100
AcDbTextStyleTableRecord
  2
TEXTSTYLE_1
 70
0
 40
0.0
 41
0.8
 50
0.0
 71
0
 42
0.2
  3
gdt
  4

  0
STYLE
  5
204
100
AcDbSymbolTableRecord
100
AcDbTextStyleTableRecord
  2
TEXTSTYLE_2
 70
0
 40
0.0
 41
0.8
 50
0.0
 71
0
 42
0.2
  3
txt
  4

  0
STYLE
  5
205
100
AcDbSymbolTableRecord
100
AcDbTextStyleTableRecord
  2
TEXTSTYLE_3
 70
0
 40
0.0
 41
0.9
 50
0.0
 71
0
 42
0.2
  3
txt
  4

  0
STYLE
  5
206
100
AcDbSymbolTableRecord
100
AcDbTextStyleTableRecord
  2
TEXTSTYLE_4
 70
0
 40
0.0
 41
0.85
 50
0.0
 71
0
 42
0.2
  3
txt
  4

  0
STYLE
  5
207
100
AcDbSymbolTableRecord
100
AcDbTextStyleTableRecord
  2
TEXTSTYLE_5
 70
0
 40
0.0
 41
0.75
 50
0.0
 71
0
 42
0.2
  3
txt
  4

  0
ENDTAB
  0
TABLE
  2
VIEW
  5
6
100
AcDbSymbolTable
 70
0
  0
ENDTAB
  0
TABLE
  2
UCS
  5
7
100
AcDbSymbolTable
 70
0
  0
ENDTAB
  0
TABLE
  2
APPID
  5
9
100
AcDbSymbolTable
 70
1
  0
APPID
  5
208
100
AcDbSymbolTableRecord
100
AcDbRegAppTableRecord
  2
ACAD
 70
0
  0
ENDTAB
  0
TABLE
  2
BLOCK_RECORD
  5
1
100
AcDbSymbolTable
 70
0
  0
BLOCK_RECORD
  5
209
100
AcDbSymbolTableRecord
100
AcDbBlockTableRecord
  2
*Model_Space
  0
BLOCK_RECORD
  5
20A
100
AcDbSymbolTableRecord
100
AcDbBlockTableRecord
  2
*Paper_Space
  0
BLOCK_RECORD
  5
20B
100
AcDbSymbolTableRecord
100
AcDbBlockTableRecord
  2
_FILLED
  0
BLOCK_RECORD
  5
20C
100
AcDbSymbolTableRecord
100
AcDbBlockTableRecord
  2
*D0
  0
BLOCK_RECORD
  5
20D
100
AcDbSymbolTableRecord
100
AcDbBlockTableRecord
  2
*D1
  0
BLOCK_RECORD
  5
20E
100
AcDbSymbolTableRecord
100
AcDbBlockTableRecord
  2
*D2
  0
BLOCK_RECORD
  5
20F
100
AcDbSymbolTableRecord
100
AcDbBlockTableRecord
  2
*D3
  0
BLOCK_RECORD
  5
210
100
AcDbSymbolTableRecord
100
AcDbBlockTableRecord
  2
*T1
  0
ENDTAB
  0
TABLE
  2
DIMSTYLE
  5
A
100
AcDbSymbolTable
 70
1
100
AcDbDimStyleTable
 71
0
  0
DIMSTYLE
105
211
100
AcDbSymbolTableRecord
100
AcDbDimStyleTableRecord
  2
STANDARD
 70
0
  3

  4

 40
1.0
 41
0.1875
 42
0.0625
 43
0.38
 44
0.125
 45
0.0
 46
0.0
 47
0.01
 48
0.01
140
0.1
141
0.09
142
0.0
143
25.4
144
1.0
145
0.0
146
1.0
147
0.09
 71
1.0
 72
0.0
 73
1
 74
1
 75
0
 76
0
 77
0
 78
4
170
0
171
2
172
0
173
0
174
0
175
0
176
0
177
0
178
0
270
2
271
2
272
2
273
2
274
2
275
0
280
0
281
0
282
0
283
1
284
4
285
0
286
0
287
3
288
0
340
11
278
46
341
20B
342
20B
343
20B
344
20B
  0
DIMSTYLE
105
212
100
AcDbSymbolTableRecord
100
AcDbDimStyleTableRecord
  2
DIMSTYLE_1
 70
0
  3

  4

 40
1.0
 41
0.1875
 42
0.0625
 43
0.38
 44
0.125
 45
0.0
 46
0.0
 47
0.005
 48
0.005
140
0.1
141
0.09
142
0.0
143
25.4
144
1.0
145
0.0
146
1.0
147
0.1
 71
0.0
 72
0.0
 73
1
 74
1
 75
0
 76
0
 77
0
 78
4
170
0
171
2
172
0
173
0
174
0
175
0
176
0
177
0
178
0
270
2
271
1
272
1
273
2
274
2
275
0
280
0
281
0
282
0
283
1
284
4
285
0
286
0
287
3
288
0
340
11
278
46
341
20B
342
20B
343
20B
344
20B
  0
ENDTAB
  0
ENDSEC
  0
SECTION
  2
BLOCKS
  0
BLOCK
  5
20
100
AcDbEntity
  8
0
100
AcDbBlockBegin
  2
*Model_Space
 70
0
 10
0.0
 20
0.0
 30
0.0
  3
*Model_Space
  1

  0
ENDBLK
  5
21
100
AcDbEntity
  8
0
100
AcDbBlockEnd
  0
BLOCK
  5
1C
100
AcDbEntity
  8
0
100
AcDbBlockBegin
  2
*Paper_Space
 70
0
 10
0.0
 20
0.0
 30
0.0
  3
*Paper_Space
  1

  0
ENDBLK
  5
1D
100
AcDbEntity
  8
0
100
AcDbBlockEnd
  0
BLOCK
  5
213
100
AcDbEntity
  8
0
100
AcDbBlockBegin
  2
_FILLED
 70
64
 10
0.0
 20
0.0
  3
_FILLED
  1

  0
SOLID
  5
214
100
AcDbEntity
  8
0
  6
BYBLOCK
 62
0
100
AcDbTrace
 10
0.0
 20
0.0
 11
-1.0
 21
0.1666666667
 12
-1.0
 22
-0.1666666667
 13
-1.0
 23
-0.1666666667
  0
ENDBLK
  5
215
100
AcDbEntity
  8
0
  6
BYBLOCK
 62
0
100
AcDbBlockEnd
  0
BLOCK
  5
216
100
AcDbEntity
  8
SCHEME_DIMS
100
AcDbBlockBegin
 62
7
  6
CONTINUOUS
  2
*D0
 70
65
 10
0.0
 20
0.0
  3
*D0
  1

  0
MTEXT
  5
217
100
AcDbEntity
  8
SCHEME_DIMS
100
AcDbMText
 62
7
  6
CONTINUOUS
  7
STANDARD
 71
2
 72
1
 10
13.4459538286
 20
11.1613926203
 30
0.0
 11
1.0
 21
0.0
 31
0.0
 44
0.9
  1
278.6\P[10.97]
 40
0.1
 41
0.7
  0
LINE
  5
218
100
AcDbEntity
  8
SCHEME_DIMS
100
AcDbLine
 62
7
  6
CONTINUOUS
 10
8.0609538286
 20
11.6488926203
 11
8.0609538286
 21
10.9863926203
  0
LINE
  5
219
100
AcDbEntity
  8
SCHEME_DIMS
100
AcDbLine
 62
7
  6
CONTINUOUS
 10
19.0309538286
 20
11.6488926203
 11
19.0309538286
 21
10.9863926203
  0
LINE
  5
21A
100
AcDbEntity
  8
SCHEME_DIMS
100
AcDbLine
 62
7
  6
CONTINUOUS
 10
8.0609538286
 20
11.1113926203
 11
13.0959538286
 21
11.1113926203
  0
LINE
  5
21B
100
AcDbEntity
  8
SCHEME_DIMS
100
AcDbLine
 62
7
  6
CONTINUOUS
 10
19.0309538286
 20
11.1113926203
 11
13.9959538286
 21
11.1113926203
  0
INSERT
  5
21C
100
AcDbEntity
  8
SCHEME_DIMS
100
AcDbBlockReference
 62
7
  6
CONTINUOUS
  2
_FILLED
 10
8.0609538286
 20
11.1113926203
 41
0.1875
 42
0.1875
 43
0.1875
 50
180.0
  0
INSERT
  5
21D
100
AcDbEntity
  8
SCHEME_DIMS
100
AcDbBlockReference
 62
7
  6
CONTINUOUS
  2
_FILLED
 10
19.0309538286
 20
11.1113926203
 41
0.1875
 42
0.1875
 43
0.1875
  0
ENDBLK
  5
21E
100
AcDbEntity
  8
0
  6
BYBLOCK
 62
0
100
AcDbBlockEnd
  0
BLOCK
  5
21F
100
AcDbEntity
  8
SCHEME_DIMS
100
AcDbBlockBegin
 62
7
  6
CONTINUOUS
  2
*D1
 70
65
 10
0.0
 20
0.0
  3
*D1
  1

  0
MTEXT
  5
220
100
AcDbEntity
  8
SCHEME_DIMS
100
AcDbMText
 62
7
  6
CONTINUOUS
  7
STANDARD
 71
2
 72
1
 10
3.4
 20
11.1613926203
 30
0.0
 11
1.0
 21
0.0
 31
0.0
 44
0.9
  1
32.0\P[1.26]
 40
0.1
 41
0.6
  0
LINE
  5
221
100
AcDbEntity
  8
SCHEME_DIMS
100
AcDbLine
 62
7
  6
CONTINUOUS
 10
2.87
 20
11.6488926203
 11
2.87
 21
10.9863926203
  0
LINE
  5
222
100
AcDbEntity
  8
SCHEME_DIMS
100
AcDbLine
 62
7
  6
CONTINUOUS
 10
4.13
 20
11.6488926203
 11
4.13
 21
10.9863926203
  0
LINE
  5
223
100
AcDbEntity
  8
SCHEME_DIMS
100
AcDbLine
 62
7
  6
CONTINUOUS
 10
2.87
 20
11.1113926203
 11
2.47
 21
11.1113926203
  0
LINE
  5
224
100
AcDbEntity
  8
SCHEME_DIMS
100
AcDbLine
 62
7
  6
CONTINUOUS
 10
4.13
 20
11.1113926203
 11
4.53
 21
11.1113926203
  0
INSERT
  5
225
100
AcDbEntity
  8
SCHEME_DIMS
100
AcDbBlockReference
 62
7
  6
CONTINUOUS
  2
_FILLED
 10
2.87
 20
11.1113926203
 41
0.1875
 42
0.1875
 43
0.1875
  0
INSERT
  5
226
100
AcDbEntity
  8
SCHEME_DIMS
100
AcDbBlockReference
 62
7
  6
CONTINUOUS
  2
_FILLED
 10
4.13
 20
11.1113926203
 41
0.1875
 42
0.1875
 43
0.1875
 50
180.0
  0
ENDBLK
  5
227
100
AcDbEntity
  8
0
  6
BYBLOCK
 62
0
100
AcDbBlockEnd
  0
BLOCK
  5
228
100
AcDbEntity
  8
SCHEME_DIMS
100
AcDbBlockBegin
 62
7
  6
CONTINUOUS
  2
*D2
 70
65
 10
0.0
 20
0.0
  3
*D2
  1

  0
MTEXT
  5
229
100
AcDbEntity
  8
SCHEME_DIMS
100
AcDbMText
 62
7
  6
CONTINUOUS
  7
STANDARD
 71
2
 72
1
 10
4.88
 20
12.3378549333
 30
0.0
 11
1.0
 21
0.0
 31
0.0
 44
0.9
  1
25.1\P[.99]
 40
0.1
 41
0.5
  0
LINE
  5
22A
100
AcDbEntity
  8
SCHEME_DIMS
100
AcDbLine
 62
7
  6
CONTINUOUS
 10
4.09
 20
12.6988926203
 11
5.055
 21
12.6988926203
  0
LINE
  5
22B
100
AcDbEntity
  8
SCHEME_DIMS
100
AcDbLine
 62
7
  6
CONTINUOUS
 10
3.0575
 20
11.7113926203
 11
3.9426707363
 21
11.7113926203
  0
LINE
  5
22C
100
AcDbEntity
  8
SCHEME_DIMS
100
AcDbLine
 62
7
  6
CONTINUOUS
 10
4.1922724809
 20
11.7113926203
 11
5.055
 21
11.7113926203
  0
LINE
  5
22D
100
AcDbEntity
  8
SCHEME_DIMS
100
AcDbLine
 62
7
  6
CONTINUOUS
 10
4.93
 20
12.6988926203
 11
4.93
 21
13.0988926203
  0
LINE
  5
22E
100
AcDbEntity
  8
SCHEME_DIMS
100
AcDbLine
 62
7
  6
CONTINUOUS
 10
4.93
 20
11.7113926203
 11
4.93
 21
11.3113926203
  0
INSERT
  5
22F
100
AcDbEntity
  8
SCHEME_DIMS
100
AcDbBlockReference
 62
7
  6
CONTINUOUS
  2
_FILLED
 10
4.93
 20
12.6988926203
 41
0.1875
 42
0.1875
 43
0.1875
 50
270.0
  0
INSERT
  5
230
100
AcDbEntity
  8
SCHEME_DIMS
100
AcDbBlockReference
 62
7
  6
CONTINUOUS
  2
_FILLED
 10
4.93
 20
11.7113926203
 41
0.1875
 42
0.1875
 43
0.1875
 50
90.0
  0
ENDBLK
  5
231
100
AcDbEntity
  8
0
  6
BYBLOCK
 62
0
100
AcDbBlockEnd
  0
BLOCK
  5
232
100
AcDbEntity
  8
SCHEME_DIMS
100
AcDbBlockBegin
 62
7
  6
CONTINUOUS
  2
*D3
 70
65
 10
0.0
 20
0.0
  3
*D3
  1

  0
MTEXT
  5
233
100
AcDbEntity
  8
SCHEME_DIMS
100
AcDbMText
 62
7
  6
CONTINUOUS
  7
STANDARD
 71
2
 72
1
 10
13.4959538286
 20
5.809
 30
0.0
 11
1.0
 21
0.0
 31
0.0
 44
0.9
  1
138.9\P[5.47]
 40
0.1
 41
0.6
  0
LINE
  5
234
100
AcDbEntity
  8
SCHEME_DIMS
100
AcDbLine
 62
7
  6
CONTINUOUS
 10
10.8109538286
 20
7.4315
 11
10.8109538286
 21
6.5464598177
  0
LINE
  5
235
100
AcDbEntity
  8
SCHEME_DIMS
100
AcDbLine
 62
7
  6
CONTINUOUS
 10
10.8109538286
 20
6.2964590831
 11
10.8109538286
 21
5.634
  0
LINE
  5
236
100
AcDbEntity
  8
SCHEME_DIMS
100
AcDbLine
 62
7
  6
CONTINUOUS
 10
16.2809538286
 20
7.4315
 11
16.2809538286
 21
6.5465243922
  0
LINE
  5
237
100
AcDbEntity
  8
SCHEME_DIMS
100
AcDbLine
 62
7
  6
CONTINUOUS
 10
16.2809538286
 20
6.2964682912
 11
16.2809538286
 21
5.634
  0
LINE
  5
238
100
AcDbEntity
  8
SCHEME_DIMS
100
AcDbLine
 62
7
  6
CONTINUOUS
 10
10.8109538286
 20
5.759
 11
13.1459538286
 21
5.759
  0
LINE
  5
239
100
AcDbEntity
  8
SCHEME_DIMS
100
AcDbLine
 62
7
  6
CONTINUOUS
 10
16.2809538286
 20
5.759
 11
13.9459538286
 21
5.759
  0
INSERT
  5
23A
100
AcDbEntity
  8
SCHEME_DIMS
100
AcDbBlockReference
 62
7
  6
CONTINUOUS
  2
_FILLED
 10
10.8109538286
 20
5.759
 41
0.1875
 42
0.1875
 43
0.1875
 50
180.0
  0
INSERT
  5
23B
100
AcDbEntity
  8
SCHEME_DIMS
100
AcDbBlockReference
 62
7
  6
CONTINUOUS
  2
_FILLED
 10
16.2809538286
 20
5.759
 41
0.1875
 42
0.1875
 43
0.1875
  0
ENDBLK
  5
23C
100
AcDbEntity
  8
0
  6
BYBLOCK
 62
0
100
AcDbBlockEnd
  0
BLOCK
  5
23D
100
AcDbEntity
  8
0
100
AcDbBlockBegin
  2
*T1
 70
1
 10
0.0
 20
0.0
  3
*T1
  1

  0
LINE
  5
23E
100
AcDbEntity
  8
0
100
AcDbLine
 62
7
  6
CONTINUOUS
 10
4.35
 20
0.0
 11
-0.0
 21
0.0
  0
LINE
  5
23F
100
AcDbEntity
  8
0
100
AcDbLine
 62
7
  6
CONTINUOUS
 10
4.35
 20
0.0
 11
4.35
 21
1.92
  0
LINE
  5
240
100
AcDbEntity
  8
0
100
AcDbLine
 62
7
  6
CONTINUOUS
 10
4.35
 20
1.92
 11
-0.0
 21
1.92
  0
LINE
  5
241
100
AcDbEntity
  8
0
100
AcDbLine
 62
7
  6
CONTINUOUS
 10
-0.0
 20
0.0
 11
-0.0
 21
1.92
  0
MTEXT
  5
242
100
AcDbEntity
  8
NOTES
100
AcDbMText
 62
7
  6
CONTINUOUS
  7
STANDARD
 71
2
 72
1
 10
4.125
 20
0.48
 30
0.0
 11
1.0
 21
0.0
 31
0.0
 44
0.9
  1
A
 40
0.1
 41
0.2
  0
MTEXT
  5
243
100
AcDbEntity
  8
NOTES
100
AcDbMText
 62
7
  6
CONTINUOUS
  7
STANDARD
 71
2
 72
1
 10
2.175
 20
1.08
 30
0.0
 11
1.0
 21
0.0
 31
0.0
 44
0.9
  1
LPSS-270\P 
 40
0.1
 41
1.6
  0
ENDBLK
  5
244
100
AcDbEntity
  8
0
  6
BYBLOCK
 62
0
100
AcDbBlockEnd
  0
ENDSEC
  0
SECTION
  2
ENTITIES
  0
MTEXT
  5
245
100
AcDbEntity
  8
0
100
AcDbMText
 62
7
  6
CONTINUOUS
  7
TEXTSTYLE_2
 71
2
 72
1
 10
28.0199216922
 20
1.6190619563
 30
0.0
 11
1.0
 21
0.0
 31
0.0
 44
0.9
  1
THIRD ANGLE PROJECTION
 40
0.1
 41
1.76
  0
MTEXT
  5
246
100
AcDbEntity
  8
0
100
AcDbMText
 62
7
  6
CONTINUOUS
  7
STANDARD
 71
1
 72
1
 10
29.8524539446
 20
1.273495704
 30
0.0
 11
1.0
 21
0.0
 31
0.0
 44
0.9
  1
DRAWING NO.
 40
0.08
 41
0.88
  0
MTEXT
  5
247
100
AcDbEntity
  8
0
100
AcDbMText
 62
7
  6
CONTINUOUS
  7
TEXTSTYLE_2
 71
1
 72
1
 10
29.0524539446
 20
2.033495704
 30
0.0
 11
1.0
 21
0.0
 31
0.0
 44
0.9
  1
TITLE
 40
0.1
 41
0.4
  0
MTEXT
  5
248
100
AcDbEntity
  8
0
100
AcDbMText
 62
7
  6
CONTINUOUS
  7
STANDARD
 71
1
 72
1
 10
29.0524539446
 20
1.273495704
 30
0.0
 11
1.0
 21
0.0
 31
0.0
 44
0.9
  1
SIZE
 40
0.08
 41
0.32
  0
MTEXT
  5
249
100
AcDbEntity
  8
0
100
AcDbMText
 62
7
  6
CONTINUOUS
  7
STANDARD
 71
1
 72
1
 10
29.0524539446
 20
0.903495704
 30
0.0
 11
1.0
 21
0.0
 31
0.0
 44
0.9
  1
SCALE
 40
0.08
 41
0.4
  0
MTEXT
  5
24A
100
AcDbEntity
  8
0
100
AcDbMText
 62
7
  6
CONTINUOUS
  7
TEXTSTYLE_2
 71
2
 72
1
 10
29.4724539446
 20
1.153495704
 30
0.0
 11
1.0
 21
0.0
 31
0.0
 44
0.9
  1
D
 40
0.1
 41
0.08
  0
MTEXT
  5
24B
100
AcDbEntity
  8
0
100
AcDbMText
 62
7
  6
CONTINUOUS
  7
STANDARD
 71
1
 72
1
 10
31.2274539446
 20
0.903495704
 30
0.0
 11
1.0
 21
0.0
 31
0.0
 44
0.9
  1
SHEET
 40
0.08
 41
0.4
  0
MTEXT
  5
24C
100
AcDbEntity
  8
0
100
AcDbMText
 62
7
  6
CONTINUOUS
  7
STANDARD
 71
1
 72
1
 10
32.6024539446
 20
1.273495704
 30
0.0
 11
1.0
 21
0.0
 31
0.0
 44
0.9
  1
REV.
 40
0.08
 41
0.32
  0
MTEXT
  5
24D
100
AcDbEntity
  8
0
100
AcDbMText
 62
7
  6
CONTINUOUS
  7
STANDARD
 71
3
 72
1
 10
33.3524539446
 20
0.651938704
 30
0.0
 11
1.0
 21
0.0
 31
0.0
 44
0.9
  1
CREO
 40
0.07
 41
0.28
  0
MTEXT
  5
24E
100
AcDbEntity
  8
0
100
AcDbMText
 62
7
  6
CONTINUOUS
  7
TEXTSTYLE_2
 71
2
 72
1
 10
19.0799181027
 20
21.5283228612
 30
0.0
 11
1.0
 21
0.0
 31
0.0
 44
0.9
  1
4
 40
0.1
 41
0.08
  0
MTEXT
  5
24F
100
AcDbEntity
  8
0
100
AcDbMText
 62
7
  6
CONTINUOUS
  7
TEXTSTYLE_2
 71
2
 72
1
 10
19.0880840042
 20
0.6094254072
 30
0.0
 11
1.0
 21
0.0
 31
0.0
 44
0.9
  1
4
 40
0.1
 41
0.08
  0
MTEXT
  5
250
100
AcDbEntity
  8
0
100
AcDbMText
 62
7
  6
CONTINUOUS
  7
TEXTSTYLE_2
 71
3
 72
1
 10
0.6480386617
 20
8.5035017283
 30
0.0
 11
1.0
 21
0.0
 31
0.0
 44
0.9
  1
B
 40
0.1
 41
0.08
  0
MTEXT
  5
251
100
AcDbEntity
  8
0
100
AcDbMText
 62
7
  6
CONTINUOUS
  7
TEXTSTYLE_2
 71
1
 72
1
 10
33.4429590822
 20
8.5003665936
 30
0.0
 11
1.0
 21
0.0
 31
0.0
 44
0.9
  1
B
 40
0.1
 41
0.08
  0
MTEXT
  5
252
100
AcDbEntity
  8
0
100
AcDbMText
 62
7
  6
CONTINUOUS
  7
TEXTSTYLE_2
 71
3
 72
1
 10
0.6595840023
 20
3.3488782467
 30
0.0
 11
1.0
 21
0.0
 31
0.0
 44
0.9
  1
A
 40
0.1
 41
0.08
  0
MTEXT
  5
253
100
AcDbEntity
  8
0
100
AcDbMText
 62
7
  6
CONTINUOUS
  7
TEXTSTYLE_2
 71
1
 72
1
 10
33.4700184742
 20
3.315436593
 30
0.0
 11
1.0
 21
0.0
 31
0.0
 44
0.9
  1
A
 40
0.1
 41
0.08
  0
MTEXT
  5
254
100
AcDbEntity
  8
0
100
AcDbMText
 62
7
  6
CONTINUOUS
  7
TEXTSTYLE_2
 71
3
 72
1
 10
0.6364933212
 20
18.8127486917
 30
0.0
 11
1.0
 21
0.0
 31
0.0
 44
0.9
  1
D
 40
0.1
 41
0.08
  0
MTEXT
  5
255
100
AcDbEntity
  8
0
100
AcDbMText
 62
7
  6
CONTINUOUS
  7
TEXTSTYLE_2
 71
1
 72
1
 10
33.4736263931
 20
18.8106959326
 30
0.0
 11
1.0
 21
0.0
 31
0.0
 44
0.9
  1
D
 40
0.1
 41
0.08
  0
MTEXT
  5
256
100
AcDbEntity
  8
0
100
AcDbMText
 62
7
  6
CONTINUOUS
  7
TEXTSTYLE_2
 71
3
 72
1
 10
0.6191753104
 20
13.6638978803
 30
0.0
 11
1.0
 21
0.0
 31
0.0
 44
0.9
  1
C
 40
0.1
 41
0.08
  0
MTEXT
  5
257
100
AcDbEntity
  8
0
100
AcDbMText
 62
7
  6
CONTINUOUS
  7
TEXTSTYLE_2
 71
1
 72
1
 10
33.453782839
 20
13.6528253239
 30
0.0
 11
1.0
 21
0.0
 31
0.0
 44
0.9
  1
C
 40
0.1
 41
0.08
  0
MTEXT
  5
258
100
AcDbEntity
  8
0
100
AcDbMText
 62
7
  6
CONTINUOUS
  7
TEXTSTYLE_2
 71
2
 72
1
 10
23.1665713531
 20
0.6088852669
 30
0.0
 11
1.0
 21
0.0
 31
0.0
 44
0.9
  1
3
 40
0.1
 41
0.08
  0
MTEXT
  5
259
100
AcDbEntity
  8
0
100
AcDbMText
 62
7
  6
CONTINUOUS
  7
TEXTSTYLE_2
 71
2
 72
1
 10
23.1589893446
 20
21.5290464197
 30
0.0
 11
1.0
 21
0.0
 31
0.0
 44
0.9
  1
3
 40
0.1
 41
0.08
  0
MTEXT
  5
25A
100
AcDbEntity
  8
0
100
AcDbMText
 62
7
  6
CONTINUOUS
  7
TEXTSTYLE_2
 71
2
 72
1
 10
27.2361235997
 20
21.5290464197
 30
0.0
 11
1.0
 21
0.0
 31
0.0
 44
0.9
  1
2
 40
0.1
 41
0.08
  0
MTEXT
  5
25B
100
AcDbEntity
  8
0
100
AcDbMText
 62
7
  6
CONTINUOUS
  7
TEXTSTYLE_2
 71
2
 72
1
 10
27.2374923476
 20
0.6094254072
 30
0.0
 11
1.0
 21
0.0
 31
0.0
 44
0.9
  1
2
 40
0.1
 41
0.08
  0
MTEXT
  5
25C
100
AcDbEntity
  8
0
100
AcDbMText
 62
7
  6
CONTINUOUS
  7
TEXTSTYLE_2
 71
2
 72
1
 10
31.3205521496
 20
0.6089620551
 30
0.0
 11
1.0
 21
0.0
 31
0.0
 44
0.9
  1
1
 40
0.1
 41
0.08
  0
MTEXT
  5
25D
100
AcDbEntity
  8
0
100
AcDbMText
 62
7
  6
CONTINUOUS
  7
TEXTSTYLE_2
 71
2
 72
1
 10
31.3123769947
 20
21.5290464197
 30
0.0
 11
1.0
 21
0.0
 31
0.0
 44
0.9
  1
1
 40
0.1
 41
0.08
  0
MTEXT
  5
25E
100
AcDbEntity
  8
0
100
AcDbMText
 62
7
  6
CONTINUOUS
  7
TEXTSTYLE_2
 71
2
 72
1
 10
2.7773437197
 20
0.6087916636
 30
0.0
 11
1.0
 21
0.0
 31
0.0
 44
0.9
  1
8
 40
0.1
 41
0.08
  0
MTEXT
  5
25F
100
AcDbEntity
  8
0
100
AcDbMText
 62
7
  6
CONTINUOUS
  7
TEXTSTYLE_2
 71
2
 72
1
 10
6.8552201462
 20
0.60942077
 30
0.0
 11
1.0
 21
0.0
 31
0.0
 44
0.9
  1
7
 40
0.1
 41
0.08
  0
MTEXT
  5
260
100
AcDbEntity
  8
0
100
AcDbMText
 62
7
  6
CONTINUOUS
  7
TEXTSTYLE_2
 71
2
 72
1
 10
10.9328507889
 20
0.6085710197
 30
0.0
 11
1.0
 21
0.0
 31
0.0
 44
0.9
  1
6
 40
0.1
 41
0.08
  0
MTEXT
  5
261
100
AcDbEntity
  8
0
100
AcDbMText
 62
7
  6
CONTINUOUS
  7
TEXTSTYLE_2
 71
2
 72
1
 10
15.0081998089
 20
0.6094254072
 30
0.0
 11
1.0
 21
0.0
 31
0.0
 44
0.9
  1
5
 40
0.1
 41
0.08
  0
MTEXT
  5
262
100
AcDbEntity
  8
0
100
AcDbMText
 62
7
  6
CONTINUOUS
  7
TEXTSTYLE_2
 71
2
 72
1
 10
15.0005223841
 20
21.5287831767
 30
0.0
 11
1.0
 21
0.0
 31
0.0
 44
0.9
  1
5
 40
0.1
 41
0.08
  0
MTEXT
  5
263
100
AcDbEntity
  8
0
100
AcDbMText
 62
7
  6
CONTINUOUS
  7
TEXTSTYLE_2
 71
2
 72
1
 10
10.9235957613
 20
21.5293152857
 30
0.0
 11
1.0
 21
0.0
 31
0.0
 44
0.9
  1
6
 40
0.1
 41
0.08
  0
MTEXT
  5
264
100
AcDbEntity
  8
0
100
AcDbMText
 62
7
  6
CONTINUOUS
  7
TEXTSTYLE_2
 71
2
 72
1
 10
6.8472012476
 20
21.5293152857
 30
0.0
 11
1.0
 21
0.0
 31
0.0
 44
0.9
  1
7
 40
0.1
 41
0.08
  0
MTEXT
  5
265
100
AcDbEntity
  8
0
100
AcDbMText
 62
7
  6
CONTINUOUS
  7
TEXTSTYLE_2
 71
2
 72
1
 10
2.7707198944
 20
21.5289567604
 30
0.0
 11
1.0
 21
0.0
 31
0.0
 44
0.9
  1
8
 40
0.1
 41
0.08
  0
MTEXT
  5
266
100
AcDbEntity
  8
0
100
AcDbMText
 62
7
  6
CONTINUOUS
  7
STANDARD
 71
1
 72
1
 10
29.5773663078
 20
0.8719064971
 30
0.0
 11
1.0
 21
0.0
 31
0.0
 44
0.9
  1
1:1
 40
0.1
 41
0.3
  0
MTEXT
  5
267
100
AcDbEntity
  8
0
100
AcDbMText
 62
7
  6
CONTINUOUS
  7
STANDARD
 71
1
 72
1
 10
31.7523663078
 20
0.8719064971
 30
0.0
 11
1.0
 21
0.0
 31
0.0
 44
0.9
  1
1 OF 1
 40
0.1
 41
0.6
  0
MTEXT
  5
268
100
AcDbEntity
  8
0
100
AcDbMText
 62
7
  6
CONTINUOUS
  7
STANDARD
 71
1
 72
1
 10
30.7305616821
 20
1.1832781328
 30
0.0
 11
1.0
 21
0.0
 31
0.0
 44
0.9
  1
191533
 40
0.12
 41
0.72
  0
MTEXT
  5
269
100
AcDbEntity
  8
0
100
AcDbMText
 62
7
  6
CONTINUOUS
  7
STANDARD
 71
1
 72
1
 10
1.0462021158
 20
1.4062672766
 30
0.0
 11
1.0
 21
0.0
 31
0.0
 44
0.9
  1
NOTES:\P1. ALL DIMENSIONS ARE MILLIMETERS [INCHES] UNLESS OTHERWISE NOTED.\P2. REFER TO "www.bannerengineering.com" FOR ADDITIONAL DATA AND SPECIFICATIONS.
 40
0.1
 41
7.9
  0
MTEXT
  5
26A
100
AcDbEntity
  8
0
100
AcDbMText
 62
7
  6
CONTINUOUS
  7
TEXTSTYLE_3
 71
2
 72
1
 10
32.082830104
 20
2.4898011248
 30
0.0
 11
1.0
 21
0.0
 31
0.0
 44
0.9
  1
BANNER ENGINEERING CORP.
 40
0.12
 41
2.592
  0
MTEXT
  5
26B
100
AcDbEntity
  8
0
100
AcDbMText
 62
7
  6
CONTINUOUS
  7
TEXTSTYLE_2
 71
2
 72
1
 10
32.0561063372
 20
2.2733590015
 30
0.0
 11
1.0
 21
0.0
 31
0.0
 44
0.9
  1
www.bannerengineering.com
 40
0.1
 41
2.0
  0
MTEXT
  5
26C
100
AcDbEntity
  8
0
100
AcDbMText
 62
7
  6
CONTINUOUS
  7
TEXTSTYLE_4
 71
2
 72
1
 10
28.0052134113
 20
2.5785938067
 30
0.0
 11
1.0
 21
0.0
 31
0.0
 44
0.9
  1
This drawing is the property\Pof BANNER ENGINEERING CORP.\PAny use or reproduction,\Pin any form, without prior\Pwritten permission of\PBanner is prohibited.
 40
0.08
 41
1.904
  0
MTEXT
  5
26D
100
AcDbEntity
  8
0
100
AcDbMText
 62
7
  6
CONTINUOUS
  7
TEXTSTYLE_5
 71
2
 72
1
 10
28.023149892
 20
1.8440536882
 30
0.0
 11
1.0
 21
0.0
 31
0.0
 44
0.9
  1
C  2015 Banner Engineering Corp.
 40
0.08
 41
1.92
  0
DIMENSION
  5
26E
100
AcDbEntity
  8
SCHEME_DIMS
100
AcDbDimension
 62
7
  6
CONTINUOUS
  2
*D0
 10
19.0309538286
 20
11.1113926203
 11
13.5459538286
 21
11.0363926203
 70
160
 71
2
 42
278.638
  3
DIMSTYLE_1
100
AcDbAlignedDimension
 13
8.0609538286
 23
11.7113926203
 14
19.0309538286
 24
11.7113926203
100
AcDbRotatedDimension
  0
DIMENSION
  5
26F
100
AcDbEntity
  8
SCHEME_DIMS
100
AcDbDimension
 62
7
  6
CONTINUOUS
  2
*D1
 10
4.13
 20
11.1113926203
 11
3.5
 21
11.0363926203
 70
160
 71
2
 42
32.004
  3
DIMSTYLE_1
100
AcDbAlignedDimension
 13
2.87
 23
11.7113926203
 14
4.13
 24
11.7113926203
100
AcDbRotatedDimension
  0
DIMENSION
  5
270
100
AcDbEntity
  8
SCHEME_DIMS
100
AcDbDimension
 62
7
  6
CONTINUOUS
  2
*D2
 10
4.93
 20
11.7113926203
 11
4.93
 21
12.2128549333
 70
160
 71
2
 42
25.0825
  3
DIMSTYLE_1
100
AcDbAlignedDimension
 13
4.0275
 23
12.6988926203
 14
2.995
 24
11.7113926203
 50
270.0
100
AcDbRotatedDimension
  0
DIMENSION
  5
271
100
AcDbEntity
  8
SCHEME_DIMS
100
AcDbDimension
 62
7
  6
CONTINUOUS
  2
*D3
 10
16.2809538286
 20
5.759
 11
13.5459538286
 21
5.684
 70
160
 71
2
 42
138.938
  3
DIMSTYLE_1
100
AcDbAlignedDimension
 13
10.8109538286
 23
7.494
 14
16.2809538286
 24
7.494
100
AcDbRotatedDimension
  0
ACAD_TABLE
  5
272
100
AcDbEntity
  8
0
 62
7
  6
CONTINUOUS
100
AcDbBlockReference
  2
*T1
 10
29.0019788236
 20
0.7034944495
 30
0.0
100
AcDbTable
342
       422
343
210
 11
1.0
 21
0.0
 31
0.0
 90
6
 91
3
 92
5
 93
4
 94
0
 95
0
 96
0
 70
1
141
0.33
141
0.45
141
1.14
142
0.65
142
1.15
142
1.025
142
1.075
142
0.45
171
1
172
0
173
0
174
0
175
1
176
1
177
33
178
0
145
0.0
  1
 
170
1
140
0.1
171
1
172
0
173
0
174
0
175
1
176
1
177
33
178
0
145
0.0
  1
 
170
1
140
0.1
171
1
172
0
173
0
174
0
175
1
176
1
177
33
178
0
145
0.0
  1
 
170
1
140
0.1
171
1
172
0
173
0
174
0
175
1
176
1
177
33
178
0
145
0.0
  1
 
170
1
140
0.1
171
1
172
0
173
0
174
0
175
1
176
1
177
33
178
0
145
0.0
  1
 
170
1
140
0.1
171
1
172
0
173
0
174
0
175
1
176
1
177
33
178
0
145
0.0
  1
 
170
1
140
0.1
171
1
172
0
173
0
174
0
175
1
176
1
177
33
178
0
145
0.0
  1
 
170
1
140
0.1
171
1
172
0
173
0
174
0
175
1
176
1
177
33
178
0
145
0.0
  1
 
170
1
140
0.1
171
1
172
0
173
0
174
0
175
1
176
1
177
33
178
0
145
0.0
  1
 
170
1
140
0.1
171
1
172
0
173
0
174
0
175
1
176
1
177
41
178
0
145
0.0
  1
A
170
8
140
0.1
 64
7
171
1
172
0
173
0
174
0
175
5
176
1
177
33
178
0
145
0.0
  1
LPSS-270\P 
170
8
140
0.1
171
1
172
0
173
1
174
0
175
1
176
1
177
1
178
0
145
0.0
170
1
171
1
172
0
173
1
174
0
175
1
176
1
177
1
178
0
145
0.0
170
1
171
1
172
0
173
1
174
0
175
1
176
1
177
1
178
0
145
0.0
170
1
171
1
172
0
173
1
174
0
175
1
176
1
177
1
178
0
145
0.0
170
8
  0
MTEXT
  5
273
100
AcDbEntity
  8
NOTES
100
AcDbMText
 62
7
  6
CONTINUOUS
  7
STANDARD
 71
2
 72
1
 10
30.5
 20
3.6404477715
 30
0.0
 11
1.0
 21
0.0
 31
0.0
 44
0.9
  1
ISOMETRIC VIEW\PSCALE  1:4
 40
0.1
 41
1.4
  0
LINE
  5
274
100
AcDbEntity
  8
0
100
AcDbLine
 62
7
  6
CONTINUOUS
 10
0.5864933212
 20
11.1116437989
 11
0.5864933212
 21
10.9384377989
  0
LINE
  5
275
100
AcDbEntity
  8
0
100
AcDbLine
 62
7
  6
CONTINUOUS
 10
0.7364933212
 20
21.3366775222
 11
0.7364933212
 21
0.703495704
  0
LINE
  5
276
100
AcDbEntity
  8
0
100
AcDbLine
 62
7
  6
CONTINUOUS
 10
4.8131450808
 20
21.3363920353
 11
4.8131450808
 21
21.5863920353
  0
LINE
  5
277
100
AcDbEntity
  8
0
100
AcDbLine
 62
7
  6
CONTINUOUS
 10
4.8132098641
 20
0.7041934146
 11
4.8132098641
 21
0.4541934146
  0
LINE
  5
278
100
AcDbEntity
  8
0
100
AcDbLine
 62
7
  6
CONTINUOUS
 10
28.1301066922
 20
1.2501869563
 11
28.7364976922
 21
1.3195799563
  0
LINE
  5
279
100
AcDbEntity
  8
0
100
AcDbLine
 62
7
  6
CONTINUOUS
 10
16.957916919
 20
0.5535279135
 11
17.131122919
 21
0.5535279135
  0
LINE
  5
27A
100
AcDbEntity
  8
0
100
AcDbLine
 62
7
  6
CONTINUOUS
 10
0.7364933212
 20
0.703495704
 11
33.3519788796
 21
0.703495704
  0
LINE
  5
27B
100
AcDbEntity
  8
0
100
AcDbLine
 62
7
  6
CONTINUOUS
 10
29.0024539446
 20
0.953495704
 11
33.3524539446
 21
0.953495704
  0
LINE
  5
27C
100
AcDbEntity
  8
0
100
AcDbLine
 62
7
  6
CONTINUOUS
 10
27.2033456922
 20
1.0674889563
 11
27.4254366922
 21
1.0674889563
  0
LINE
  5
27D
100
AcDbEntity
  8
0
100
AcDbLine
 62
7
  6
CONTINUOUS
 10
27.4754366922
 20
1.0674889563
 11
27.5754366922
 21
1.0674889563
  0
LINE
  5
27E
100
AcDbEntity
  8
0
100
AcDbLine
 62
7
  6
CONTINUOUS
 10
27.6254366922
 20
1.0674889563
 11
27.8475276922
 21
1.0674889563
  0
LINE
  5
27F
100
AcDbEntity
  8
0
100
AcDbLine
 62
7
  6
CONTINUOUS
 10
28.0301066922
 20
1.0674889563
 11
28.3082586922
 21
1.0674889563
  0
LINE
  5
280
100
AcDbEntity
  8
0
100
AcDbLine
 62
7
  6
CONTINUOUS
 10
28.3582586922
 20
1.0674889563
 11
28.5083446922
 21
1.0674889563
  0
LINE
  5
281
100
AcDbEntity
  8
0
100
AcDbLine
 62
7
  6
CONTINUOUS
 10
28.5583446922
 20
1.0674889563
 11
28.8364976922
 21
1.0674889563
  0
LINE
  5
282
100
AcDbEntity
  8
0
100
AcDbLine
 62
7
  6
CONTINUOUS
 10
29.0024539446
 20
1.323495704
 11
33.3524539446
 21
1.323495704
  0
LINE
  5
283
100
AcDbEntity
  8
0
100
AcDbLine
 62
7
  6
CONTINUOUS
 10
0.5864933212
 20
10.9384377989
 11
0.7364933212
 21
11.0250407989
  0
LINE
  5
284
100
AcDbEntity
  8
0
100
AcDbLine
 62
7
  6
CONTINUOUS
 10
27.0024539446
 20
1.723495704
 11
29.0024539446
 21
1.723495704
  0
LINE
  5
285
100
AcDbEntity
  8
0
100
AcDbLine
 62
7
  6
CONTINUOUS
 10
29.0024539446
 20
2.083495704
 11
33.3524539446
 21
2.083495704
  0
LINE
  5
286
100
AcDbEntity
  8
0
100
AcDbLine
 62
7
  6
CONTINUOUS
 10
30.5661261778
 20
2.3081272989
 11
30.5187621516
 21
2.3081272989
  0
LINE
  5
287
100
AcDbEntity
  8
0
100
AcDbLine
 62
7
  6
CONTINUOUS
 10
30.4748711272
 20
2.3081272989
 11
30.3613000642
 21
2.3081272989
  0
LINE
  5
288
100
AcDbEntity
  8
0
100
AcDbLine
 62
7
  6
CONTINUOUS
 10
30.3323960482
 20
2.3081272989
 11
30.1291839355
 21
2.3081272989
  0
LINE
  5
289
100
AcDbEntity
  8
0
100
AcDbLine
 62
7
  6
CONTINUOUS
 10
30.0787109075
 20
2.3081272989
 11
30.0045048664
 21
2.3081272989
  0
LINE
  5
28A
100
AcDbEntity
  8
0
100
AcDbLine
 62
7
  6
CONTINUOUS
 10
29.9581248406
 20
2.3081272989
 11
29.8824607987
 21
2.3081272989
  0
LINE
  5
28B
100
AcDbEntity
  8
0
100
AcDbLine
 62
7
  6
CONTINUOUS
 10
29.8304577698
 20
2.3081272989
 11
29.7562527287
 21
2.3081272989
  0
LINE
  5
28C
100
AcDbEntity
  8
0
100
AcDbLine
 62
7
  6
CONTINUOUS
 10
29.709871703
 20
2.3081272989
 11
29.634207661
 21
2.3081272989
  0
LINE
  5
28D
100
AcDbEntity
  8
0
100
AcDbLine
 62
7
  6
CONTINUOUS
 10
29.1673724021
 20
2.3081272989
 11
29.3438185
 21
2.3081272989
  0
LINE
  5
28E
100
AcDbEntity
  8
0
100
AcDbLine
 62
7
  6
CONTINUOUS
 10
29.4013555319
 20
2.3081272989
 11
29.4787315748
 21
2.3081272989
  0
LINE
  5
28F
100
AcDbEntity
  8
0
100
AcDbLine
 62
7
  6
CONTINUOUS
 10
29.499017586
 20
2.3081272989
 11
29.6042986444
 21
2.3081272989
  0
LINE
  5
290
100
AcDbEntity
  8
0
100
AcDbLine
 62
7
  6
CONTINUOUS
 10
30.4502121135
 20
2.3328553126
 11
30.4748711272
 21
2.3328553126
  0
LINE
  5
291
100
AcDbEntity
  8
0
100
AcDbLine
 62
7
  6
CONTINUOUS
 10
29.6042986444
 20
2.3328773126
 11
29.5842826333
 21
2.3328773126
  0
LINE
  5
292
100
AcDbEntity
  8
0
100
AcDbLine
 62
7
  6
CONTINUOUS
 10
29.5134685941
 20
2.3328773126
 11
29.499017586
 21
2.3328773126
  0
LINE
  5
293
100
AcDbEntity
  8
0
100
AcDbLine
 62
7
  6
CONTINUOUS
 10
29.4787315748
 20
2.3328773126
 11
29.4674485685
 21
2.3328773126
  0
LINE
  5
294
100
AcDbEntity
  8
0
100
AcDbLine
 62
7
  6
CONTINUOUS
 10
29.4242165446
 20
2.3328773126
 11
29.4013555319
 21
2.3328773126
  0
LINE
  5
295
100
AcDbEntity
  8
0
100
AcDbLine
 62
7
  6
CONTINUOUS
 10
29.2981404746
 20
2.3328773126
 11
29.2567774517
 21
2.3328773126
  0
LINE
  5
296
100
AcDbEntity
  8
0
100
AcDbLine
 62
7
  6
CONTINUOUS
 10
29.1913144154
 20
2.3328773126
 11
29.1673724021
 21
2.3328773126
  0
LINE
  5
297
100
AcDbEntity
  8
0
100
AcDbLine
 62
7
  6
CONTINUOUS
 10
29.634207661
 20
2.3328773126
 11
29.6528546714
 21
2.3328773126
  0
LINE
  5
298
100
AcDbEntity
  8
0
100
AcDbLine
 62
7
  6
CONTINUOUS
 10
29.6895546917
 20
2.3328773126
 11
29.709871703
 21
2.3328773126
  0
LINE
  5
299
100
AcDbEntity
  8
0
100
AcDbLine
 62
7
  6
CONTINUOUS
 10
29.8824607987
 20
2.3328773126
 11
29.901106809
 21
2.3328773126
  0
LINE
  5
29A
100
AcDbEntity
  8
0
100
AcDbLine
 62
7
  6
CONTINUOUS
 10
29.9378078294
 20
2.3328773126
 11
29.9581248406
 21
2.3328773126
  0
LINE
  5
29B
100
AcDbEntity
  8
0
100
AcDbLine
 62
7
  6
CONTINUOUS
 10
30.1291839355
 20
2.3328773126
 11
30.1531069488
 21
2.3328773126
  0
LINE
  5
29C
100
AcDbEntity
  8
0
100
AcDbLine
 62
7
  6
CONTINUOUS
 10
30.2201229859
 20
2.3328773126
 11
30.285127022
 21
2.3328773126
  0
LINE
  5
29D
100
AcDbEntity
  8
0
100
AcDbLine
 62
7
  6
CONTINUOUS
 10
30.3613000642
 20
2.3328773126
 11
30.3840460768
 21
2.3328773126
  0
LINE
  5
29E
100
AcDbEntity
  8
0
100
AcDbLine
 62
7
  6
CONTINUOUS
 10
30.5671491784
 20
2.3332643128
 11
30.568258179
 21
2.3332643128
  0
LINE
  5
29F
100
AcDbEntity
  8
0
100
AcDbLine
 62
7
  6
CONTINUOUS
 10
30.2900770247
 20
2.3460773199
 11
30.3323960482
 21
2.3460773199
  0
LINE
  5
2A0
100
AcDbEntity
  8
0
100
AcDbLine
 62
7
  6
CONTINUOUS
 10
29.4729645716
 20
2.3465213202
 11
29.5078425909
 21
2.3465213202
  0
LINE
  5
2A1
100
AcDbEntity
  8
0
100
AcDbLine
 62
7
  6
CONTINUOUS
 10
30.579013185
 20
2.3470143205
 11
30.5911231917
 21
2.3470143205
  0
LINE
  5
2A2
100
AcDbEntity
  8
0
100
AcDbLine
 62
7
  6
CONTINUOUS
 10
30.4778191288
 20
2.3475043207
 11
30.4502121135
 21
2.3475043207
  0
LINE
  5
2A3
100
AcDbEntity
  8
0
100
AcDbLine
 62
7
  6
CONTINUOUS
 10
30.2552900054
 20
2.3493773218
 11
30.2201229859
 21
2.3493773218
  0
LINE
  5
2A4
100
AcDbEntity
  8
0
100
AcDbLine
 62
7
  6
CONTINUOUS
 10
29.2567774517
 20
2.3502023222
 11
29.2981404746
 21
2.3502023222
  0
LINE
  5
2A5
100
AcDbEntity
  8
0
100
AcDbLine
 62
7
  6
CONTINUOUS
 10
30.4841491324
 20
2.3665073313
 11
30.4502121135
 21
2.3665073313
  0
LINE
  5
2A6
100
AcDbEntity
  8
0
100
AcDbLine
 62
7
  6
CONTINUOUS
 10
29.2567774517
 20
2.3668573315
 11
29.2981404746
 21
2.3668573315
  0
LINE
  5
2A7
100
AcDbEntity
  8
0
100
AcDbLine
 62
7
  6
CONTINUOUS
 10
29.4814805763
 20
2.3674713318
 11
29.5020375877
 21
2.3674713318
  0
LINE
  5
2A8
100
AcDbEntity
  8
0
100
AcDbLine
 62
7
  6
CONTINUOUS
 10
30.2201229859
 20
2.3676823319
 11
30.2552900054
 21
2.3676823319
  0
LINE
  5
2A9
100
AcDbEntity
  8
0
100
AcDbLine
 62
7
  6
CONTINUOUS
 10
30.3309770474
 20
2.3709823337
 11
30.2891130242
 21
2.3709823337
  0
LINE
  5
2AA
100
AcDbEntity
  8
0
100
AcDbLine
 62
7
  6
CONTINUOUS
 10
29.4947785837
 20
2.3836383408
 11
29.4885975803
 21
2.3836383408
  0
LINE
  5
2AB
100
AcDbEntity
  8
0
100
AcDbLine
 62
7
  6
CONTINUOUS
 10
30.3840460768
 20
2.3841823411
 11
30.3613000642
 21
2.3841823411
  0
LINE
  5
2AC
100
AcDbEntity
  8
0
100
AcDbLine
 62
7
  6
CONTINUOUS
 10
30.2841630215
 20
2.3841823411
 11
30.2201229859
 21
2.3841823411
  0
LINE
  5
2AD
100
AcDbEntity
  8
0
100
AcDbLine
 62
7
  6
CONTINUOUS
 10
30.1531069488
 20
2.3841823411
 11
30.1291839355
 21
2.3841823411
  0
LINE
  5
2AE
100
AcDbEntity
  8
0
100
AcDbLine
 62
7
  6
CONTINUOUS
 10
30.1015939202
 20
2.3841823411
 11
30.0836609103
 21
2.3841823411
  0
LINE
  5
2AF
100
AcDbEntity
  8
0
100
AcDbLine
 62
7
  6
CONTINUOUS
 10
30.0463688896
 20
2.3841823411
 11
30.0275928792
 21
2.3841823411
  0
LINE
  5
2B0
100
AcDbEntity
  8
0
100
AcDbLine
 62
7
  6
CONTINUOUS
 10
29.901106809
 20
2.3841823411
 11
29.8824607987
 21
2.3841823411
  0
LINE
  5
2B1
100
AcDbEntity
  8
0
100
AcDbLine
 62
7
  6
CONTINUOUS
 10
29.8533407825
 20
2.3841823411
 11
29.8354077726
 21
2.3841823411
  0
LINE
  5
2B2
100
AcDbEntity
  8
0
100
AcDbLine
 62
7
  6
CONTINUOUS
 10
29.7981157519
 20
2.3841823411
 11
29.7793397415
 21
2.3841823411
  0
LINE
  5
2B3
100
AcDbEntity
  8
0
100
AcDbLine
 62
7
  6
CONTINUOUS
 10
29.6528546714
 20
2.3841823411
 11
29.634207661
 21
2.3841823411
  0
LINE
  5
2B4
100
AcDbEntity
  8
0
100
AcDbLine
 62
7
  6
CONTINUOUS
 10
29.2981404746
 20
2.3841823411
 11
29.2567774517
 21
2.3841823411
  0
LINE
  5
2B5
100
AcDbEntity
  8
0
100
AcDbLine
 62
7
  6
CONTINUOUS
 10
29.1673724021
 20
2.3841823411
 11
29.1913144154
 21
2.3841823411
  0
LINE
  5
2B6
100
AcDbEntity
  8
0
100
AcDbLine
 62
7
  6
CONTINUOUS
 10
30.4502121135
 20
2.3841823411
 11
30.4870131339
 21
2.3841823411
  0
LINE
  5
2B7
100
AcDbEntity
  8
0
100
AcDbLine
 62
7
  6
CONTINUOUS
 10
29.5323716045
 20
2.4089323548
 11
29.4751965728
 21
2.4089323548
  0
LINE
  5
2B8
100
AcDbEntity
  8
0
100
AcDbLine
 62
7
  6
CONTINUOUS
 10
29.3334354942
 20
2.4089323548
 11
29.1673724021
 21
2.4089323548
  0
LINE
  5
2B9
100
AcDbEntity
  8
0
100
AcDbLine
 62
7
  6
CONTINUOUS
 10
29.634207661
 20
2.4089323548
 11
29.7346657167
 21
2.4089323548
  0
LINE
  5
2BA
100
AcDbEntity
  8
0
100
AcDbLine
 62
7
  6
CONTINUOUS
 10
29.7793397415
 20
2.4089323548
 11
29.8533407825
 21
2.4089323548
  0
LINE
  5
2BB
100
AcDbEntity
  8
0
100
AcDbLine
 62
7
  6
CONTINUOUS
 10
29.8824607987
 20
2.4089323548
 11
29.9829188544
 21
2.4089323548
  0
LINE
  5
2BC
100
AcDbEntity
  8
0
100
AcDbLine
 62
7
  6
CONTINUOUS
 10
30.0275928792
 20
2.4089323548
 11
30.1015939202
 21
2.4089323548
  0
LINE
  5
2BD
100
AcDbEntity
  8
0
100
AcDbLine
 62
7
  6
CONTINUOUS
 10
30.1291839355
 20
2.4089323548
 11
30.3309770474
 21
2.4089323548
  0
LINE
  5
2BE
100
AcDbEntity
  8
0
100
AcDbLine
 62
7
  6
CONTINUOUS
 10
30.3613000642
 20
2.4089323548
 11
30.5108811472
 21
2.4089323548
  0
LINE
  5
2BF
100
AcDbEntity
  8
0
100
AcDbLine
 62
7
  6
CONTINUOUS
 10
29.3627025104
 20
2.3544433246
 11
29.3526515049
 21
2.3579923265
  0
LINE
  5
2C0
100
AcDbEntity
  8
0
100
AcDbLine
 62
7
  6
CONTINUOUS
 10
29.7545437277
 20
2.3088112993
 11
29.6912636927
 21
2.3691893327
  0
LINE
  5
2C1
100
AcDbEntity
  8
0
100
AcDbLine
 62
7
  6
CONTINUOUS
 10
29.7363737177
 20
2.4082483544
 11
29.796406751
 21
2.3509683226
  0
LINE
  5
2C2
100
AcDbEntity
  8
0
100
AcDbLine
 62
7
  6
CONTINUOUS
 10
30.0027968654
 20
2.3088112993
 11
29.9395168303
 21
2.3691893327
  0
LINE
  5
2C3
100
AcDbEntity
  8
0
100
AcDbLine
 62
7
  6
CONTINUOUS
 10
29.9846268553
 20
2.4082483544
 11
30.0446598886
 21
2.3509683226
  0
LINE
  5
2C4
100
AcDbEntity
  8
0
100
AcDbLine
 62
7
  6
CONTINUOUS
 10
29.5099205921
 20
2.3453903196
 11
29.5155465952
 21
2.3366973147
  0
LINE
  5
2C5
100
AcDbEntity
  8
0
100
AcDbLine
 62
7
  6
CONTINUOUS
 10
29.5041155889
 20
2.3712913339
 11
29.4968565848
 21
2.3825073401
  0
LINE
  5
2C6
100
AcDbEntity
  8
0
100
AcDbLine
 62
7
  6
CONTINUOUS
 10
29.5822056322
 20
2.3340073132
 11
29.5344496057
 21
2.4078023542
  0
LINE
  5
2C7
100
AcDbEntity
  8
0
100
AcDbLine
 62
7
  6
CONTINUOUS
 10
30.4994581408
 20
2.3261733089
 11
30.4976541398
 21
2.3322423123
  0
LINE
  5
2C8
100
AcDbEntity
  8
0
100
AcDbLine
 62
7
  6
CONTINUOUS
 10
29.1648974007
 20
2.4064573534
 11
29.1648974007
 21
2.3866573424
  0
LINE
  5
2C9
100
AcDbEntity
  8
0
100
AcDbLine
 62
7
  6
CONTINUOUS
 10
29.1648974007
 20
2.3304023112
 11
29.1648974007
 21
2.3106023003
  0
LINE
  5
2CA
100
AcDbEntity
  8
0
100
AcDbLine
 62
7
  6
CONTINUOUS
 10
29.1937894168
 20
2.3817073397
 11
29.1937894168
 21
2.335352314
  0
LINE
  5
2CB
100
AcDbEntity
  8
0
100
AcDbLine
 62
7
  6
CONTINUOUS
 10
29.2543024503
 20
2.3817073397
 11
29.2543024503
 21
2.3693323328
  0
LINE
  5
2CC
100
AcDbEntity
  8
0
100
AcDbLine
 62
7
  6
CONTINUOUS
 10
29.2543024503
 20
2.335352314
 11
29.2543024503
 21
2.3477273208
  0
LINE
  5
2CD
100
AcDbEntity
  8
0
100
AcDbLine
 62
7
  6
CONTINUOUS
 10
29.3988805305
 20
2.3304023112
 11
29.3988805305
 21
2.3106023003
  0
LINE
  5
2CE
100
AcDbEntity
  8
0
100
AcDbLine
 62
7
  6
CONTINUOUS
 10
29.4812065762
 20
2.3106023003
 11
29.4812065762
 21
2.3304023112
  0
LINE
  5
2CF
100
AcDbEntity
  8
0
100
AcDbLine
 62
7
  6
CONTINUOUS
 10
29.4965425847
 20
2.3304023112
 11
29.4965425847
 21
2.3106023003
  0
LINE
  5
2D0
100
AcDbEntity
  8
0
100
AcDbLine
 62
7
  6
CONTINUOUS
 10
29.6067736458
 20
2.3106023003
 11
29.6067736458
 21
2.3304023112
  0
LINE
  5
2D1
100
AcDbEntity
  8
0
100
AcDbLine
 62
7
  6
CONTINUOUS
 10
29.6317326596
 20
2.3106023003
 11
29.6317326596
 21
2.3304023112
  0
LINE
  5
2D2
100
AcDbEntity
  8
0
100
AcDbLine
 62
7
  6
CONTINUOUS
 10
29.6317326596
 20
2.3866573424
 11
29.6317326596
 21
2.4064573534
  0
LINE
  5
2D3
100
AcDbEntity
  8
0
100
AcDbLine
 62
7
  6
CONTINUOUS
 10
29.6553296727
 20
2.335352314
 11
29.6553296727
 21
2.3817073397
  0
LINE
  5
2D4
100
AcDbEntity
  8
0
100
AcDbLine
 62
7
  6
CONTINUOUS
 10
29.6870796903
 20
2.3673983318
 11
29.6870796903
 21
2.335352314
  0
LINE
  5
2D5
100
AcDbEntity
  8
0
100
AcDbLine
 62
7
  6
CONTINUOUS
 10
29.7123467043
 20
2.3304023112
 11
29.7123467043
 21
2.3106023003
  0
LINE
  5
2D6
100
AcDbEntity
  8
0
100
AcDbLine
 62
7
  6
CONTINUOUS
 10
29.7768647401
 20
2.3866573424
 11
29.7768647401
 21
2.4064573534
  0
LINE
  5
2D7
100
AcDbEntity
  8
0
100
AcDbLine
 62
7
  6
CONTINUOUS
 10
29.8005907533
 20
2.3527593236
 11
29.8005907533
 21
2.3817073397
  0
LINE
  5
2D8
100
AcDbEntity
  8
0
100
AcDbLine
 62
7
  6
CONTINUOUS
 10
29.8329327712
 20
2.3817073397
 11
29.8329327712
 21
2.3106023003
  0
LINE
  5
2D9
100
AcDbEntity
  8
0
100
AcDbLine
 62
7
  6
CONTINUOUS
 10
29.8558157839
 20
2.4064573534
 11
29.8558157839
 21
2.3866573424
  0
LINE
  5
2DA
100
AcDbEntity
  8
0
100
AcDbLine
 62
7
  6
CONTINUOUS
 10
29.8799857973
 20
2.3106023003
 11
29.8799857973
 21
2.3304023112
  0
LINE
  5
2DB
100
AcDbEntity
  8
0
100
AcDbLine
 62
7
  6
CONTINUOUS
 10
29.8799857973
 20
2.3866573424
 11
29.8799857973
 21
2.4064573534
  0
LINE
  5
2DC
100
AcDbEntity
  8
0
100
AcDbLine
 62
7
  6
CONTINUOUS
 10
29.9035818104
 20
2.335352314
 11
29.9035818104
 21
2.3817073397
  0
LINE
  5
2DD
100
AcDbEntity
  8
0
100
AcDbLine
 62
7
  6
CONTINUOUS
 10
29.935332828
 20
2.3673983318
 11
29.935332828
 21
2.335352314
  0
LINE
  5
2DE
100
AcDbEntity
  8
0
100
AcDbLine
 62
7
  6
CONTINUOUS
 10
29.960599842
 20
2.3304023112
 11
29.960599842
 21
2.3106023003
  0
LINE
  5
2DF
100
AcDbEntity
  8
0
100
AcDbLine
 62
7
  6
CONTINUOUS
 10
30.0251178778
 20
2.3866573424
 11
30.0251178778
 21
2.4064573534
  0
LINE
  5
2E0
100
AcDbEntity
  8
0
100
AcDbLine
 62
7
  6
CONTINUOUS
 10
30.048843891
 20
2.3527593236
 11
30.048843891
 21
2.3817073397
  0
LINE
  5
2E1
100
AcDbEntity
  8
0
100
AcDbLine
 62
7
  6
CONTINUOUS
 10
30.0811859089
 20
2.3817073397
 11
30.0811859089
 21
2.3106023003
  0
LINE
  5
2E2
100
AcDbEntity
  8
0
100
AcDbLine
 62
7
  6
CONTINUOUS
 10
30.1040689216
 20
2.4064573534
 11
30.1040689216
 21
2.3866573424
  0
LINE
  5
2E3
100
AcDbEntity
  8
0
100
AcDbLine
 62
7
  6
CONTINUOUS
 10
30.1267089341
 20
2.3106023003
 11
30.1267089341
 21
2.3304023112
  0
LINE
  5
2E4
100
AcDbEntity
  8
0
100
AcDbLine
 62
7
  6
CONTINUOUS
 10
30.1267089341
 20
2.3866573424
 11
30.1267089341
 21
2.4064573534
  0
LINE
  5
2E5
100
AcDbEntity
  8
0
100
AcDbLine
 62
7
  6
CONTINUOUS
 10
30.1555819501
 20
2.335352314
 11
30.1555819501
 21
2.3817073397
  0
LINE
  5
2E6
100
AcDbEntity
  8
0
100
AcDbLine
 62
7
  6
CONTINUOUS
 10
30.2176479846
 20
2.3817073397
 11
30.2176479846
 21
2.3701573333
  0
LINE
  5
2E7
100
AcDbEntity
  8
0
100
AcDbLine
 62
7
  6
CONTINUOUS
 10
30.2176479846
 20
2.3469023204
 11
30.2176479846
 21
2.335352314
  0
LINE
  5
2E8
100
AcDbEntity
  8
0
100
AcDbLine
 62
7
  6
CONTINUOUS
 10
30.2577650068
 20
2.3652073305
 11
30.2577650068
 21
2.3518523231
  0
LINE
  5
2E9
100
AcDbEntity
  8
0
100
AcDbLine
 62
7
  6
CONTINUOUS
 10
30.2866380228
 20
2.3734573351
 11
30.2866380228
 21
2.3817073397
  0
LINE
  5
2EA
100
AcDbEntity
  8
0
100
AcDbLine
 62
7
  6
CONTINUOUS
 10
30.2876020234
 20
2.335352314
 11
30.2876020234
 21
2.3436023186
  0
LINE
  5
2EB
100
AcDbEntity
  8
0
100
AcDbLine
 62
7
  6
CONTINUOUS
 10
30.3334520488
 20
2.4064573534
 11
30.3334520488
 21
2.3734573351
  0
LINE
  5
2EC
100
AcDbEntity
  8
0
100
AcDbLine
 62
7
  6
CONTINUOUS
 10
30.3348710496
 20
2.3436023186
 11
30.3348710496
 21
2.3106023003
  0
LINE
  5
2ED
100
AcDbEntity
  8
0
100
AcDbLine
 62
7
  6
CONTINUOUS
 10
30.3588250629
 20
2.3106023003
 11
30.3588250629
 21
2.3304023112
  0
LINE
  5
2EE
100
AcDbEntity
  8
0
100
AcDbLine
 62
7
  6
CONTINUOUS
 10
30.3588250629
 20
2.3866573424
 11
30.3588250629
 21
2.4064573534
  0
LINE
  5
2EF
100
AcDbEntity
  8
0
100
AcDbLine
 62
7
  6
CONTINUOUS
 10
30.3865210782
 20
2.335352314
 11
30.3865210782
 21
2.3817073397
  0
LINE
  5
2F0
100
AcDbEntity
  8
0
100
AcDbLine
 62
7
  6
CONTINUOUS
 10
30.4477371122
 20
2.3450293194
 11
30.4477371122
 21
2.335330314
  0
LINE
  5
2F1
100
AcDbEntity
  8
0
100
AcDbLine
 62
7
  6
CONTINUOUS
 10
30.4477371122
 20
2.3689823326
 11
30.4477371122
 21
2.3817073397
  0
LINE
  5
2F2
100
AcDbEntity
  8
0
100
AcDbLine
 62
7
  6
CONTINUOUS
 10
30.4773461286
 20
2.3303803112
 11
30.4773461286
 21
2.3106023003
  0
LINE
  5
2F3
100
AcDbEntity
  8
0
100
AcDbLine
 62
7
  6
CONTINUOUS
 10
30.5765381836
 20
2.3419133176
 11
30.5765381836
 21
2.3445393191
  0
LINE
  5
2F4
100
AcDbEntity
  8
0
100
AcDbLine
 62
7
  6
CONTINUOUS
 10
30.5935981931
 20
2.3445393191
 11
30.5935981931
 21
2.3329873127
  0
LINE
  5
2F5
100
AcDbEntity
  8
0
100
AcDbLine
 62
7
  6
CONTINUOUS
 10
30.690554488
 20
2.3519697229
 11
30.690554488
 21
2.3625869294
  0
LINE
  5
2F6
100
AcDbEntity
  8
0
100
AcDbLine
 62
7
  6
CONTINUOUS
 10
29.3526515049
 20
2.3579923265
 11
29.3608915094
 21
2.3627683292
  0
LINE
  5
2F7
100
AcDbEntity
  8
0
100
AcDbLine
 62
7
  6
CONTINUOUS
 10
29.4731065717
 20
2.4077833542
 11
29.4263065457
 21
2.3340263132
  0
LINE
  5
2F8
100
AcDbEntity
  8
0
100
AcDbLine
 62
7
  6
CONTINUOUS
 10
29.4865075791
 20
2.3824893401
 11
29.4793905752
 21
2.3712723339
  0
LINE
  5
2F9
100
AcDbEntity
  8
0
100
AcDbLine
 62
7
  6
CONTINUOUS
 10
29.4653585674
 20
2.3366783147
 11
29.4708745704
 21
2.3453723195
  0
ARC
  5
2FA
100
AcDbEntity
  8
0
100
AcDbCircle
 62
7
  6
CONTINUOUS
 10
29.7562520939
 20
2.310602715
 40
0.0024754162
100
AcDbArc
 50
226.3593695813
 51
270.0146919953
  0
ARC
  5
2FB
100
AcDbEntity
  8
0
100
AcDbCircle
 62
7
  6
CONTINUOUS
 10
29.1673724003
 20
2.3106022984
 40
0.0024749995
100
AcDbArc
 50
179.9999571957
 51
270.0000428043
  0
ARC
  5
2FC
100
AcDbEntity
  8
0
100
AcDbCircle
 62
7
  6
CONTINUOUS
 10
29.8304577717
 20
2.3106022984
 40
0.0024749995
100
AcDbArc
 50
269.9999571957
 51
0.0000428042
  0
ARC
  5
2FD
100
AcDbEntity
  8
0
100
AcDbCircle
 62
7
  6
CONTINUOUS
 10
29.7098717048
 20
2.3106022984
 40
0.0024749995
100
AcDbArc
 50
269.9999571957
 51
0.0000428042
  0
ARC
  5
2FE
100
AcDbEntity
  8
0
100
AcDbCircle
 62
7
  6
CONTINUOUS
 10
29.6342076592
 20
2.3106022984
 40
0.0024749995
100
AcDbArc
 50
179.9999571957
 51
270.0000428043
  0
ARC
  5
2FF
100
AcDbEntity
  8
0
100
AcDbCircle
 62
7
  6
CONTINUOUS
 10
29.4990175842
 20
2.3106022984
 40
0.0024749995
100
AcDbArc
 50
179.9999571957
 51
270.0000428043
  0
ARC
  5
300
100
AcDbEntity
  8
0
100
AcDbCircle
 62
7
  6
CONTINUOUS
 10
29.6042986463
 20
2.3106022984
 40
0.0024749995
100
AcDbArc
 50
269.9999571957
 51
0.0000428043
  0
ARC
  5
301
100
AcDbEntity
  8
0
100
AcDbCircle
 62
7
  6
CONTINUOUS
 10
29.40135553
 20
2.3106022984
 40
0.0024749995
100
AcDbArc
 50
179.9999571957
 51
270.0000428043
  0
ARC
  5
302
100
AcDbEntity
  8
0
100
AcDbCircle
 62
7
  6
CONTINUOUS
 10
29.4787315766
 20
2.3106022984
 40
0.0024749995
100
AcDbArc
 50
269.9999571958
 51
0.0000428044
  0
ARC
  5
303
100
AcDbEntity
  8
0
100
AcDbCircle
 62
7
  6
CONTINUOUS
 10
29.3334409881
 20
2.347184638
 40
0.061747717
100
AcDbArc
 50
59.5385584989
 51
90.0050977555
  0
ARC
  5
304
100
AcDbEntity
  8
0
100
AcDbCircle
 62
7
  6
CONTINUOUS
 10
29.3410971553
 20
2.3565347507
 40
0.048483885
100
AcDbArc
 50
273.21763719
 51
303.0749121182
  0
ARC
  5
305
100
AcDbEntity
  8
0
100
AcDbCircle
 62
7
  6
CONTINUOUS
 10
29.3550433609
 20
2.3335878142
 40
0.0222174455
100
AcDbArc
 50
4.0793399388
 51
69.834329283
  0
ARC
  5
306
100
AcDbEntity
  8
0
100
AcDbCircle
 62
7
  6
CONTINUOUS
 10
29.3559365494
 20
2.3337671418
 40
0.0213072145
100
AcDbArc
 50
303.0488228549
 51
355.7263138674
  0
ARC
  5
307
100
AcDbEntity
  8
0
100
AcDbCircle
 62
7
  6
CONTINUOUS
 10
29.36187305
 20
2.3337763321
 40
0.0153945295
100
AcDbArc
 50
354.0454548824
 51
5.1878013979
  0
ARC
  5
308
100
AcDbEntity
  8
0
100
AcDbCircle
 62
7
  6
CONTINUOUS
 10
29.2981404746
 20
2.3415398174
 40
0.0086625048
100
AcDbArc
 50
270.0
 51
90.0
  0
ARC
  5
309
100
AcDbEntity
  8
0
100
AcDbCircle
 62
7
  6
CONTINUOUS
 10
29.5078420513
 20
2.34404586
 40
0.0024754602
100
AcDbArc
 50
32.8959418574
 51
89.9875097203
  0
ARC
  5
30A
100
AcDbEntity
  8
0
100
AcDbCircle
 62
7
  6
CONTINUOUS
 10
29.4242166149
 20
2.3353525129
 40
0.0024752003
100
AcDbArc
 50
269.9983726451
 51
327.6021653071
  0
ARC
  5
30B
100
AcDbEntity
  8
0
100
AcDbCircle
 62
7
  6
CONTINUOUS
 10
29.4729645013
 20
2.3440461199
 40
0.0024752003
100
AcDbArc
 50
89.998372645
 51
147.602165307
  0
ARC
  5
30C
100
AcDbEntity
  8
0
100
AcDbCircle
 62
7
  6
CONTINUOUS
 10
29.4674484592
 20
2.3353523527
 40
0.0024750401
100
AcDbArc
 50
147.6063258011
 51
270.0025305753
  0
ARC
  5
30D
100
AcDbEntity
  8
0
100
AcDbCircle
 62
7
  6
CONTINUOUS
 10
29.1913144172
 20
2.3353523121
 40
0.0024749995
100
AcDbArc
 50
269.9999571957
 51
0.0000428042
  0
ARC
  5
30E
100
AcDbEntity
  8
0
100
AcDbCircle
 62
7
  6
CONTINUOUS
 10
29.1673724003
 20
2.3304023131
 40
0.0024749995
100
AcDbArc
 50
89.9999571958
 51
180.0000428044
  0
ARC
  5
30F
100
AcDbEntity
  8
0
100
AcDbCircle
 62
7
  6
CONTINUOUS
 10
29.2567774499
 20
2.3477273227
 40
0.0024749995
100
AcDbArc
 50
89.9999571957
 51
180.0000428042
  0
ARC
  5
310
100
AcDbEntity
  8
0
100
AcDbCircle
 62
7
  6
CONTINUOUS
 10
29.2567774499
 20
2.3353523121
 40
0.0024749995
100
AcDbArc
 50
179.9999571957
 51
270.0000428043
  0
ARC
  5
311
100
AcDbEntity
  8
0
100
AcDbCircle
 62
7
  6
CONTINUOUS
 10
29.4990175842
 20
2.3304023131
 40
0.0024749995
100
AcDbArc
 50
89.9999571957
 51
180.0000428043
  0
ARC
  5
312
100
AcDbEntity
  8
0
100
AcDbCircle
 62
7
  6
CONTINUOUS
 10
29.40135553
 20
2.3304023131
 40
0.0024749995
100
AcDbArc
 50
89.9999571957
 51
180.0000428042
  0
ARC
  5
313
100
AcDbEntity
  8
0
100
AcDbCircle
 62
7
  6
CONTINUOUS
 10
29.4787315766
 20
2.3304023131
 40
0.0024749995
100
AcDbArc
 50
359.9999571957
 51
90.0000428043
  0
ARC
  5
314
100
AcDbEntity
  8
0
100
AcDbCircle
 62
7
  6
CONTINUOUS
 10
29.339026127
 20
2.3995952208
 40
0.0428289026
100
AcDbArc
 50
300.6990502959
 51
319.0591802498
  0
ARC
  5
315
100
AcDbEntity
  8
0
100
AcDbCircle
 62
7
  6
CONTINUOUS
 10
29.3541031117
 20
2.3801132029
 40
0.0229166529
100
AcDbArc
 50
20.6563876465
 51
62.3316896973
  0
ARC
  5
316
100
AcDbEntity
  8
0
100
AcDbCircle
 62
7
  6
CONTINUOUS
 10
29.3590547239
 20
2.3834668674
 40
0.0171568255
100
AcDbArc
 50
315.9145124245
 51
16.0049121282
  0
ARC
  5
317
100
AcDbEntity
  8
0
100
AcDbCircle
 62
7
  6
CONTINUOUS
 10
29.2981404746
 20
2.3755198363
 40
0.0086625048
100
AcDbArc
 50
270.0
 51
90.0
  0
ARC
  5
318
100
AcDbEntity
  8
0
100
AcDbCircle
 62
7
  6
CONTINUOUS
 10
29.494778044
 20
2.3811628806
 40
0.0024754602
100
AcDbArc
 50
32.8959418574
 51
89.9875097203
  0
ARC
  5
319
100
AcDbEntity
  8
0
100
AcDbCircle
 62
7
  6
CONTINUOUS
 10
29.5020375666
 20
2.3699465389
 40
0.0024752071
100
AcDbArc
 50
270.0004896792
 51
32.9089806817
  0
ARC
  5
31A
100
AcDbEntity
  8
0
100
AcDbCircle
 62
7
  6
CONTINUOUS
 10
29.48859751
 20
2.3811631405
 40
0.0024752003
100
AcDbArc
 50
89.9983726451
 51
147.6021653071
  0
ARC
  5
31B
100
AcDbEntity
  8
0
100
AcDbCircle
 62
7
  6
CONTINUOUS
 10
29.4751965025
 20
2.4064571545
 40
0.0024752003
100
AcDbArc
 50
89.998372645
 51
147.602165307
  0
ARC
  5
31C
100
AcDbEntity
  8
0
100
AcDbCircle
 62
7
  6
CONTINUOUS
 10
29.481480467
 20
2.3699463719
 40
0.0024750401
100
AcDbArc
 50
147.6063258012
 51
270.0025305754
  0
ARC
  5
31D
100
AcDbEntity
  8
0
100
AcDbCircle
 62
7
  6
CONTINUOUS
 10
29.1673724003
 20
2.4064573553
 40
0.0024749995
100
AcDbArc
 50
89.9999571958
 51
180.0000428044
  0
ARC
  5
31E
100
AcDbEntity
  8
0
100
AcDbCircle
 62
7
  6
CONTINUOUS
 10
29.1673724003
 20
2.3866573406
 40
0.0024749995
100
AcDbArc
 50
179.9999571957
 51
270.0000428043
  0
ARC
  5
31F
100
AcDbEntity
  8
0
100
AcDbCircle
 62
7
  6
CONTINUOUS
 10
29.1913144172
 20
2.3817073415
 40
0.0024749995
100
AcDbArc
 50
359.9999571957
 51
90.0000428043
  0
ARC
  5
320
100
AcDbEntity
  8
0
100
AcDbCircle
 62
7
  6
CONTINUOUS
 10
29.2567774499
 20
2.3817073415
 40
0.0024749995
100
AcDbArc
 50
89.9999571957
 51
180.0000428042
  0
ARC
  5
321
100
AcDbEntity
  8
0
100
AcDbCircle
 62
7
  6
CONTINUOUS
 10
29.2567774499
 20
2.369332331
 40
0.0024749995
100
AcDbArc
 50
179.9999571957
 51
270.0000428043
  0
ARC
  5
322
100
AcDbEntity
  8
0
100
AcDbCircle
 62
7
  6
CONTINUOUS
 10
29.7981154519
 20
2.3527592604
 40
0.0024753014
100
AcDbArc
 50
226.3461263059
 51
0.0014637321
  0
ARC
  5
323
100
AcDbEntity
  8
0
100
AcDbCircle
 62
7
  6
CONTINUOUS
 10
29.6895549917
 20
2.367398395
 40
0.0024753014
100
AcDbArc
 50
46.3461263059
 51
180.0014637321
  0
ARC
  5
324
100
AcDbEntity
  8
0
100
AcDbCircle
 62
7
  6
CONTINUOUS
 10
29.5134685729
 20
2.3353525197
 40
0.0024752071
100
AcDbArc
 50
270.0004896794
 51
32.9089806819
  0
ARC
  5
325
100
AcDbEntity
  8
0
100
AcDbCircle
 62
7
  6
CONTINUOUS
 10
29.6895546899
 20
2.3353523121
 40
0.0024749995
100
AcDbArc
 50
179.9999571957
 51
270.0000428043
  0
ARC
  5
326
100
AcDbEntity
  8
0
100
AcDbCircle
 62
7
  6
CONTINUOUS
 10
29.7098717048
 20
2.3304023131
 40
0.0024749995
100
AcDbArc
 50
359.9999571957
 51
90.0000428043
  0
ARC
  5
327
100
AcDbEntity
  8
0
100
AcDbCircle
 62
7
  6
CONTINUOUS
 10
29.6342076592
 20
2.3304023131
 40
0.0024749995
100
AcDbArc
 50
89.9999571957
 51
180.0000428043
  0
ARC
  5
328
100
AcDbEntity
  8
0
100
AcDbCircle
 62
7
  6
CONTINUOUS
 10
29.6528546732
 20
2.3353523121
 40
0.0024749995
100
AcDbArc
 50
269.9999571957
 51
0.0000428042
  0
ARC
  5
329
100
AcDbEntity
  8
0
100
AcDbCircle
 62
7
  6
CONTINUOUS
 10
29.6042986463
 20
2.3304023131
 40
0.0024749995
100
AcDbArc
 50
359.9999571957
 51
90.0000428043
  0
ARC
  5
32A
100
AcDbEntity
  8
0
100
AcDbCircle
 62
7
  6
CONTINUOUS
 10
29.5842827538
 20
2.3353513536
 40
0.002474041
100
AcDbArc
 50
212.9056413127
 51
269.9972091756
  0
ARC
  5
32B
100
AcDbEntity
  8
0
100
AcDbCircle
 62
7
  6
CONTINUOUS
 10
29.7981157538
 20
2.3817073415
 40
0.0024749995
100
AcDbArc
 50
359.9999571957
 51
90.0000428043
  0
ARC
  5
32C
100
AcDbEntity
  8
0
100
AcDbCircle
 62
7
  6
CONTINUOUS
 10
29.7793397396
 20
2.3866573406
 40
0.0024749995
100
AcDbArc
 50
179.9999571957
 51
270.0000428043
  0
ARC
  5
32D
100
AcDbEntity
  8
0
100
AcDbCircle
 62
7
  6
CONTINUOUS
 10
29.7793397396
 20
2.4064573553
 40
0.0024749995
100
AcDbArc
 50
89.9999571957
 51
180.0000428042
  0
ARC
  5
32E
100
AcDbEntity
  8
0
100
AcDbCircle
 62
7
  6
CONTINUOUS
 10
29.8533407844
 20
2.4064573553
 40
0.0024749995
100
AcDbArc
 50
359.9999571957
 51
90.0000428043
  0
ARC
  5
32F
100
AcDbEntity
  8
0
100
AcDbCircle
 62
7
  6
CONTINUOUS
 10
29.8533407844
 20
2.3866573406
 40
0.0024749995
100
AcDbArc
 50
269.9999571958
 51
0.0000428044
  0
ARC
  5
330
100
AcDbEntity
  8
0
100
AcDbCircle
 62
7
  6
CONTINUOUS
 10
29.8354077707
 20
2.3817073415
 40
0.0024749995
100
AcDbArc
 50
89.9999571957
 51
180.0000428042
  0
ARC
  5
331
100
AcDbEntity
  8
0
100
AcDbCircle
 62
7
  6
CONTINUOUS
 10
29.6528546732
 20
2.3817073415
 40
0.0024749995
100
AcDbArc
 50
359.9999571957
 51
90.0000428043
  0
ARC
  5
332
100
AcDbEntity
  8
0
100
AcDbCircle
 62
7
  6
CONTINUOUS
 10
29.6342076592
 20
2.3866573406
 40
0.0024749995
100
AcDbArc
 50
179.9999571957
 51
270.0000428043
  0
ARC
  5
333
100
AcDbEntity
  8
0
100
AcDbCircle
 62
7
  6
CONTINUOUS
 10
29.6342076592
 20
2.4064573553
 40
0.0024749995
100
AcDbArc
 50
89.9999571957
 51
180.0000428043
  0
ARC
  5
334
100
AcDbEntity
  8
0
100
AcDbCircle
 62
7
  6
CONTINUOUS
 10
29.532371984
 20
2.4064573946
 40
0.0024749602
100
AcDbArc
 50
32.9172174468
 51
90.0087853097
  0
ARC
  5
335
100
AcDbEntity
  8
0
100
AcDbCircle
 62
7
  6
CONTINUOUS
 10
29.7346658515
 20
2.406458187
 40
0.0024741678
100
AcDbArc
 50
46.3477981899
 51
90.0031206039
  0
ARC
  5
336
100
AcDbEntity
  8
0
100
AcDbCircle
 62
7
  6
CONTINUOUS
 10
30.5082178439
 20
2.2263934443
 40
0.1825583387
100
AcDbArc
 50
79.8618509324
 51
89.1640948679
  0
ARC
  5
337
100
AcDbEntity
  8
0
100
AcDbCircle
 62
7
  6
CONTINUOUS
 10
30.4901231168
 20
2.2555010151
 40
0.117346916
100
AcDbArc
 50
58.614769177
 51
62.3737227606
  0
ARC
  5
338
100
AcDbEntity
  8
0
100
AcDbCircle
 62
7
  6
CONTINUOUS
 10
30.5189851722
 20
2.3263737837
 40
0.0459185159
100
AcDbArc
 50
15.6740290068
 51
20.9917271228
  0
ARC
  5
339
100
AcDbEntity
  8
0
100
AcDbCircle
 62
7
  6
CONTINUOUS
 10
30.4592749426
 20
2.3224452318
 40
0.0396099176
100
AcDbArc
 50
14.3201081283
 51
22.4984722084
  0
ARC
  5
33A
100
AcDbEntity
  8
0
100
AcDbCircle
 62
7
  6
CONTINUOUS
 10
30.4779865962
 20
2.323137238
 40
0.0243676582
100
AcDbArc
 50
63.3666028271
 51
90.3937697637
  0
ARC
  5
33B
100
AcDbEntity
  8
0
100
AcDbCircle
 62
7
  6
CONTINUOUS
 10
30.5654812677
 20
2.3280006042
 40
0.0198837666
100
AcDbArc
 50
271.8586572978
 51
289.4131338543
  0
ARC
  5
33C
100
AcDbEntity
  8
0
100
AcDbCircle
 62
7
  6
CONTINUOUS
 10
30.5195674723
 20
2.3254494505
 40
0.0173408616
100
AcDbArc
 50
232.4713476722
 51
267.338189944
  0
ARC
  5
33D
100
AcDbEntity
  8
0
100
AcDbCircle
 62
7
  6
CONTINUOUS
 10
30.4748711291
 20
2.3106022984
 40
0.0024749995
100
AcDbArc
 50
269.9999571958
 51
0.0000428044
  0
ARC
  5
33E
100
AcDbEntity
  8
0
100
AcDbCircle
 62
7
  6
CONTINUOUS
 10
30.3613000624
 20
2.3106022984
 40
0.0024749995
100
AcDbArc
 50
179.9999571957
 51
270.0000428043
  0
ARC
  5
33F
100
AcDbEntity
  8
0
100
AcDbCircle
 62
7
  6
CONTINUOUS
 10
30.0787109094
 20
2.3106022984
 40
0.0024749995
100
AcDbArc
 50
269.9999571957
 51
0.0000428043
  0
ARC
  5
340
100
AcDbEntity
  8
0
100
AcDbCircle
 62
7
  6
CONTINUOUS
 10
29.9581248425
 20
2.3106022984
 40
0.0024749995
100
AcDbArc
 50
269.9999571957
 51
0.0000428043
  0
ARC
  5
341
100
AcDbEntity
  8
0
100
AcDbCircle
 62
7
  6
CONTINUOUS
 10
29.8824607968
 20
2.3106022984
 40
0.0024749995
100
AcDbArc
 50
179.9999571957
 51
270.0000428043
  0
ARC
  5
342
100
AcDbEntity
  8
0
100
AcDbCircle
 62
7
  6
CONTINUOUS
 10
30.33239605
 20
2.3106022984
 40
0.0024749995
100
AcDbArc
 50
269.9999571957
 51
0.0000428042
  0
ARC
  5
343
100
AcDbEntity
  8
0
100
AcDbCircle
 62
7
  6
CONTINUOUS
 10
30.1291839337
 20
2.3106022984
 40
0.0024749995
100
AcDbArc
 50
179.9999571957
 51
270.0000428043
  0
ARC
  5
344
100
AcDbEntity
  8
0
100
AcDbCircle
 62
7
  6
CONTINUOUS
 10
30.0045047316
 20
2.3106014667
 40
0.0024741678
100
AcDbArc
 50
226.3477981898
 51
270.0031206038
  0
ARC
  5
345
100
AcDbEntity
  8
0
100
AcDbCircle
 62
7
  6
CONTINUOUS
 10
30.0463685896
 20
2.3527592604
 40
0.0024753014
100
AcDbArc
 50
226.3461263059
 51
0.0014637321
  0
ARC
  5
346
100
AcDbEntity
  8
0
100
AcDbCircle
 62
7
  6
CONTINUOUS
 10
29.9378081294
 20
2.367398395
 40
0.0024753014
100
AcDbArc
 50
46.3461263058
 51
180.0014637321
  0
ARC
  5
347
100
AcDbEntity
  8
0
100
AcDbCircle
 62
7
  6
CONTINUOUS
 10
29.9378078275
 20
2.3353523121
 40
0.0024749995
100
AcDbArc
 50
179.9999571957
 51
270.0000428043
  0
ARC
  5
348
100
AcDbEntity
  8
0
100
AcDbCircle
 62
7
  6
CONTINUOUS
 10
29.9581248425
 20
2.3304023131
 40
0.0024749995
100
AcDbArc
 50
359.9999571957
 51
90.0000428043
  0
ARC
  5
349
100
AcDbEntity
  8
0
100
AcDbCircle
 62
7
  6
CONTINUOUS
 10
29.8824607968
 20
2.3304023131
 40
0.0024749995
100
AcDbArc
 50
89.9999571957
 51
180.0000428042
  0
ARC
  5
34A
100
AcDbEntity
  8
0
100
AcDbCircle
 62
7
  6
CONTINUOUS
 10
29.9011068109
 20
2.3353523121
 40
0.0024749995
100
AcDbArc
 50
269.9999571957
 51
0.0000428043
  0
ARC
  5
34B
100
AcDbEntity
  8
0
100
AcDbCircle
 62
7
  6
CONTINUOUS
 10
30.2201229841
 20
2.3469023222
 40
0.0024749995
100
AcDbArc
 50
89.9999571957
 51
180.0000428042
  0
ARC
  5
34C
100
AcDbEntity
  8
0
100
AcDbCircle
 62
7
  6
CONTINUOUS
 10
30.2201229841
 20
2.3353523121
 40
0.0024749995
100
AcDbArc
 50
179.9999571957
 51
270.0000428043
  0
ARC
  5
34D
100
AcDbEntity
  8
0
100
AcDbCircle
 62
7
  6
CONTINUOUS
 10
30.1291839337
 20
2.3304023131
 40
0.0024749995
100
AcDbArc
 50
89.9999571958
 51
180.0000428044
  0
ARC
  5
34E
100
AcDbEntity
  8
0
100
AcDbCircle
 62
7
  6
CONTINUOUS
 10
30.1531069506
 20
2.3353523121
 40
0.0024749995
100
AcDbArc
 50
269.9999571957
 51
0.0000428042
  0
ARC
  5
34F
100
AcDbEntity
  8
0
100
AcDbCircle
 62
7
  6
CONTINUOUS
 10
30.2201229841
 20
2.3701573314
 40
0.0024749995
100
AcDbArc
 50
179.9999571957
 51
270.0000428043
  0
ARC
  5
350
100
AcDbEntity
  8
0
100
AcDbCircle
 62
7
  6
CONTINUOUS
 10
30.0463688914
 20
2.3817073415
 40
0.0024749995
100
AcDbArc
 50
359.9999571957
 51
90.0000428043
  0
ARC
  5
351
100
AcDbEntity
  8
0
100
AcDbCircle
 62
7
  6
CONTINUOUS
 10
30.0275928773
 20
2.3866573406
 40
0.0024749995
100
AcDbArc
 50
179.9999571957
 51
270.0000428043
  0
ARC
  5
352
100
AcDbEntity
  8
0
100
AcDbCircle
 62
7
  6
CONTINUOUS
 10
30.0275928773
 20
2.4064573553
 40
0.0024749995
100
AcDbArc
 50
89.9999571958
 51
180.0000428044
  0
ARC
  5
353
100
AcDbEntity
  8
0
100
AcDbCircle
 62
7
  6
CONTINUOUS
 10
30.1015939221
 20
2.4064573553
 40
0.0024749995
100
AcDbArc
 50
359.9999571957
 51
90.0000428043
  0
ARC
  5
354
100
AcDbEntity
  8
0
100
AcDbCircle
 62
7
  6
CONTINUOUS
 10
30.1015939221
 20
2.3866573406
 40
0.0024749995
100
AcDbArc
 50
269.9999571957
 51
0.0000428042
  0
ARC
  5
355
100
AcDbEntity
  8
0
100
AcDbCircle
 62
7
  6
CONTINUOUS
 10
30.0836609084
 20
2.3817073415
 40
0.0024749995
100
AcDbArc
 50
89.9999571957
 51
180.0000428042
  0
ARC
  5
356
100
AcDbEntity
  8
0
100
AcDbCircle
 62
7
  6
CONTINUOUS
 10
29.9011068109
 20
2.3817073415
 40
0.0024749995
100
AcDbArc
 50
359.9999571957
 51
90.0000428043
  0
ARC
  5
357
100
AcDbEntity
  8
0
100
AcDbCircle
 62
7
  6
CONTINUOUS
 10
29.8824607968
 20
2.3866573406
 40
0.0024749995
100
AcDbArc
 50
179.9999571957
 51
270.0000428043
  0
ARC
  5
358
100
AcDbEntity
  8
0
100
AcDbCircle
 62
7
  6
CONTINUOUS
 10
29.8824607968
 20
2.4064573553
 40
0.0024749995
100
AcDbArc
 50
89.9999571957
 51
180.0000428042
  0
ARC
  5
359
100
AcDbEntity
  8
0
100
AcDbCircle
 62
7
  6
CONTINUOUS
 10
30.1531069506
 20
2.3817073415
 40
0.0024749995
100
AcDbArc
 50
359.9999571957
 51
90.0000428043
  0
ARC
  5
35A
100
AcDbEntity
  8
0
100
AcDbCircle
 62
7
  6
CONTINUOUS
 10
30.1291839337
 20
2.3866573406
 40
0.0024749995
100
AcDbArc
 50
179.9999571957
 51
270.0000428043
  0
ARC
  5
35B
100
AcDbEntity
  8
0
100
AcDbCircle
 62
7
  6
CONTINUOUS
 10
30.1291839337
 20
2.4064573553
 40
0.0024749995
100
AcDbArc
 50
89.9999571958
 51
180.0000428044
  0
ARC
  5
35C
100
AcDbEntity
  8
0
100
AcDbCircle
 62
7
  6
CONTINUOUS
 10
30.2201229841
 20
2.3817073415
 40
0.0024749995
100
AcDbArc
 50
89.9999571957
 51
180.0000428042
  0
ARC
  5
35D
100
AcDbEntity
  8
0
100
AcDbCircle
 62
7
  6
CONTINUOUS
 10
29.9829189891
 20
2.406458187
 40
0.0024741678
100
AcDbArc
 50
46.3477981898
 51
90.0031206038
  0
ARC
  5
35E
100
AcDbEntity
  8
0
100
AcDbCircle
 62
7
  6
CONTINUOUS
 10
30.5425475033
 20
2.3381486337
 40
0.044722495
100
AcDbArc
 50
195.531588407
 51
204.7624440448
  0
ARC
  5
35F
100
AcDbEntity
  8
0
100
AcDbCircle
 62
7
  6
CONTINUOUS
 10
30.5345221342
 20
2.3672169603
 40
0.039319019
100
AcDbArc
 50
59.1202086415
 51
81.4730239328
  0
ARC
  5
360
100
AcDbEntity
  8
0
100
AcDbCircle
 62
7
  6
CONTINUOUS
 10
30.5597433003
 20
2.3455873536
 40
0.0383802683
100
AcDbArc
 50
288.7656836787
 51
309.6104317088
  0
ARC
  5
361
100
AcDbEntity
  8
0
100
AcDbCircle
 62
7
  6
CONTINUOUS
 10
30.5401815304
 20
2.3735516295
 40
0.0310192946
100
AcDbArc
 50
34.7540871
 51
62.0879016178
  0
ARC
  5
362
100
AcDbEntity
  8
0
100
AcDbCircle
 62
7
  6
CONTINUOUS
 10
30.4854682464
 20
2.3557278621
 40
0.0284963867
100
AcDbArc
 50
70.3834917948
 51
86.8922743861
  0
ARC
  5
363
100
AcDbEntity
  8
0
100
AcDbCircle
 62
7
  6
CONTINUOUS
 10
30.5667354857
 20
2.3379861357
 40
0.0280715479
100
AcDbArc
 50
308.5071794988
 51
332.2400656899
  0
ARC
  5
364
100
AcDbEntity
  8
0
100
AcDbCircle
 62
7
  6
CONTINUOUS
 10
30.5368857139
 20
2.3335551921
 40
0.0266349791
100
AcDbArc
 50
20.3630922153
 51
37.9727053099
  0
ARC
  5
365
100
AcDbEntity
  8
0
100
AcDbCircle
 62
7
  6
CONTINUOUS
 10
30.5380060695
 20
2.3336282752
 40
0.0257145923
100
AcDbArc
 50
39.3804255939
 51
59.0361096173
  0
ARC
  5
366
100
AcDbEntity
  8
0
100
AcDbCircle
 62
7
  6
CONTINUOUS
 10
30.5226660372
 20
2.3312997545
 40
0.0238935861
100
AcDbArc
 50
209.8247607259
 51
235.1255079367
  0
ARC
  5
367
100
AcDbEntity
  8
0
100
AcDbCircle
 62
7
  6
CONTINUOUS
 10
30.5760424965
 20
2.3330916303
 40
0.0175560065
100
AcDbArc
 50
332.2279060967
 51
359.6595469939
  0
ARC
  5
368
100
AcDbEntity
  8
0
100
AcDbCircle
 62
7
  6
CONTINUOUS
 10
30.4820412509
 20
2.3314168585
 40
0.0151491919
100
AcDbArc
 50
24.098260853
 51
63.0369451818
  0
ARC
  5
369
100
AcDbEntity
  8
0
100
AcDbCircle
 62
7
  6
CONTINUOUS
 10
30.5775555073
 20
2.3420167666
 40
0.0147197649
100
AcDbArc
 50
192.7054516565
 51
206.0594861022
  0
ARC
  5
36A
100
AcDbEntity
  8
0
100
AcDbCircle
 62
7
  6
CONTINUOUS
 10
30.4903278565
 20
2.368769595
 40
0.0145814632
100
AcDbArc
 50
54.6746025112
 51
71.1660573124
  0
ARC
  5
36B
100
AcDbEntity
  8
0
100
AcDbCircle
 62
7
  6
CONTINUOUS
 10
30.5681966244
 20
2.3465129721
 40
0.0132488022
100
AcDbArc
 50
270.266200055
 51
281.2404888597
  0
ARC
  5
36C
100
AcDbEntity
  8
0
100
AcDbCircle
 62
7
  6
CONTINUOUS
 10
30.5645908704
 20
2.3416694937
 40
0.0119498009
100
AcDbArc
 50
340.7883861657
 51
1.1691452593
  0
ARC
  5
36D
100
AcDbEntity
  8
0
100
AcDbCircle
 62
7
  6
CONTINUOUS
 10
30.4913804799
 20
2.3798114865
 40
0.0110815393
100
AcDbArc
 50
306.758405961
 51
320.4502234234
  0
ARC
  5
36E
100
AcDbEntity
  8
0
100
AcDbCircle
 62
7
  6
CONTINUOUS
 10
30.5693908654
 20
2.3407762785
 40
0.0073895522
100
AcDbArc
 50
280.8288201977
 51
305.0837508495
  0
ARC
  5
36F
100
AcDbEntity
  8
0
100
AcDbCircle
 62
7
  6
CONTINUOUS
 10
30.5697920471
 20
2.3399254321
 40
0.0064647042
100
AcDbArc
 50
306.5086174083
 51
340.2162360092
  0
ARC
  5
370
100
AcDbEntity
  8
0
100
AcDbCircle
 62
7
  6
CONTINUOUS
 10
30.4954573475
 20
2.3756235202
 40
0.0060275915
100
AcDbArc
 50
20.9055592135
 51
56.7851676243
  0
ARC
  5
371
100
AcDbEntity
  8
0
100
AcDbCircle
 62
7
  6
CONTINUOUS
 10
30.495551096
 20
2.3765775787
 40
0.0058087709
100
AcDbArc
 50
318.8515287446
 51
353.6422345323
  0
ARC
  5
372
100
AcDbEntity
  8
0
100
AcDbCircle
 62
7
  6
CONTINUOUS
 10
30.5690611702
 20
2.3378082802
 40
0.0052403997
100
AcDbArc
 50
205.5232099488
 51
227.5054868079
  0
ARC
  5
373
100
AcDbEntity
  8
0
100
AcDbCircle
 62
7
  6
CONTINUOUS
 10
30.4967579063
 20
2.3762838024
 40
0.0045795888
100
AcDbArc
 50
355.6235353944
 51
18.9942678268
  0
ARC
  5
374
100
AcDbEntity
  8
0
100
AcDbCircle
 62
7
  6
CONTINUOUS
 10
30.5673328709
 20
2.3359929075
 40
0.0027347709
100
AcDbArc
 50
228.5117626738
 51
266.1485845755
  0
ARC
  5
375
100
AcDbEntity
  8
0
100
AcDbCircle
 62
7
  6
CONTINUOUS
 10
30.4502121117
 20
2.3450293212
 40
0.0024749995
100
AcDbArc
 50
89.9999571958
 51
180.0000428044
  0
ARC
  5
376
100
AcDbEntity
  8
0
100
AcDbCircle
 62
7
  6
CONTINUOUS
 10
30.4502121117
 20
2.3353303121
 40
0.0024749995
100
AcDbArc
 50
179.9999571957
 51
270.0000428043
  0
ARC
  5
377
100
AcDbEntity
  8
0
100
AcDbCircle
 62
7
  6
CONTINUOUS
 10
30.4748711291
 20
2.3303803131
 40
0.0024749995
100
AcDbArc
 50
359.9999571957
 51
90.0000428043
  0
ARC
  5
378
100
AcDbEntity
  8
0
100
AcDbCircle
 62
7
  6
CONTINUOUS
 10
30.3613000624
 20
2.3304023131
 40
0.0024749995
100
AcDbArc
 50
89.9999571957
 51
180.0000428042
  0
ARC
  5
379
100
AcDbEntity
  8
0
100
AcDbCircle
 62
7
  6
CONTINUOUS
 10
30.3840460787
 20
2.3353523121
 40
0.0024749995
100
AcDbArc
 50
269.9999571957
 51
0.0000428042
  0
ARC
  5
37A
100
AcDbEntity
  8
0
100
AcDbCircle
 62
7
  6
CONTINUOUS
 10
30.5790131831
 20
2.3445393209
 40
0.0024749995
100
AcDbArc
 50
89.9999571957
 51
180.0000428043
  0
ARC
  5
37B
100
AcDbEntity
  8
0
100
AcDbCircle
 62
7
  6
CONTINUOUS
 10
30.5911231935
 20
2.3445393209
 40
0.0024749995
100
AcDbArc
 50
359.9999571957
 51
90.0000428043
  0
ARC
  5
37C
100
AcDbEntity
  8
0
100
AcDbCircle
 62
7
  6
CONTINUOUS
 10
30.4502121117
 20
2.3689823308
 40
0.0024749995
100
AcDbArc
 50
179.9999571957
 51
270.0000428043
  0
ARC
  5
37D
100
AcDbEntity
  8
0
100
AcDbCircle
 62
7
  6
CONTINUOUS
 10
30.2851270238
 20
2.3353523121
 40
0.0024749995
100
AcDbArc
 50
269.9999571957
 51
0.0000428043
  0
ARC
  5
37E
100
AcDbEntity
  8
0
100
AcDbCircle
 62
7
  6
CONTINUOUS
 10
30.2900770229
 20
2.3436023204
 40
0.0024749995
100
AcDbArc
 50
89.9999571957
 51
180.0000428042
  0
ARC
  5
37F
100
AcDbEntity
  8
0
100
AcDbCircle
 62
7
  6
CONTINUOUS
 10
30.33239605
 20
2.3436023204
 40
0.0024749995
100
AcDbArc
 50
359.9999571957
 51
90.0000428043
  0
ARC
  5
380
100
AcDbEntity
  8
0
100
AcDbCircle
 62
7
  6
CONTINUOUS
 10
30.3309770493
 20
2.3734573333
 40
0.0024749995
100
AcDbArc
 50
269.9999571957
 51
0.0000428042
  0
ARC
  5
381
100
AcDbEntity
  8
0
100
AcDbCircle
 62
7
  6
CONTINUOUS
 10
30.2891130223
 20
2.3734573333
 40
0.0024749995
100
AcDbArc
 50
179.9999571957
 51
270.0000428043
  0
ARC
  5
382
100
AcDbEntity
  8
0
100
AcDbCircle
 62
7
  6
CONTINUOUS
 10
30.2552900073
 20
2.3652073324
 40
0.0024749995
100
AcDbArc
 50
359.9999571957
 51
90.0000428043
  0
ARC
  5
383
100
AcDbEntity
  8
0
100
AcDbCircle
 62
7
  6
CONTINUOUS
 10
30.2552900073
 20
2.3518523213
 40
0.0024749995
100
AcDbArc
 50
269.9999571957
 51
0.0000428042
  0
ARC
  5
384
100
AcDbEntity
  8
0
100
AcDbCircle
 62
7
  6
CONTINUOUS
 10
30.5138242828
 20
2.4321551202
 40
0.0789082104
100
AcDbArc
 50
292.906155071
 51
305.2574666259
  0
ARC
  5
385
100
AcDbEntity
  8
0
100
AcDbCircle
 62
7
  6
CONTINUOUS
 10
30.5441562204
 20
2.3889482705
 40
0.0261183659
100
AcDbArc
 50
305.6373831893
 51
329.9727629745
  0
ARC
  5
386
100
AcDbEntity
  8
0
100
AcDbCircle
 62
7
  6
CONTINUOUS
 10
30.4838237832
 20
2.3919459623
 40
0.0254407115
100
AcDbArc
 50
270.7327484175
 51
290.441894219
  0
ARC
  5
387
100
AcDbEntity
  8
0
100
AcDbCircle
 62
7
  6
CONTINUOUS
 10
30.4857512889
 20
2.387552315
 40
0.0206523367
100
AcDbArc
 50
289.6883413472
 51
306.4184925496
  0
ARC
  5
388
100
AcDbEntity
  8
0
100
AcDbCircle
 62
7
  6
CONTINUOUS
 10
30.5518702816
 20
2.3821012306
 40
0.0165459396
100
AcDbArc
 50
1.548452892
 51
33.5033152417
  0
ARC
  5
389
100
AcDbEntity
  8
0
100
AcDbCircle
 62
7
  6
CONTINUOUS
 10
30.5551668767
 20
2.3822696828
 40
0.0132462337
100
AcDbArc
 50
331.1510006998
 51
1.205404301
  0
ARC
  5
38A
100
AcDbEntity
  8
0
100
AcDbCircle
 62
7
  6
CONTINUOUS
 10
30.3840460787
 20
2.3817073415
 40
0.0024749995
100
AcDbArc
 50
359.9999571957
 51
90.0000428043
  0
ARC
  5
38B
100
AcDbEntity
  8
0
100
AcDbCircle
 62
7
  6
CONTINUOUS
 10
30.3613000624
 20
2.3866573406
 40
0.0024749995
100
AcDbArc
 50
179.9999571957
 51
270.0000428043
  0
ARC
  5
38C
100
AcDbEntity
  8
0
100
AcDbCircle
 62
7
  6
CONTINUOUS
 10
30.3613000624
 20
2.4064573553
 40
0.0024749995
100
AcDbArc
 50
89.9999571957
 51
180.0000428042
  0
ARC
  5
38D
100
AcDbEntity
  8
0
100
AcDbCircle
 62
7
  6
CONTINUOUS
 10
30.4502121117
 20
2.3817073415
 40
0.0024749995
100
AcDbArc
 50
89.9999571958
 51
180.0000428044
  0
ARC
  5
38E
100
AcDbEntity
  8
0
100
AcDbCircle
 62
7
  6
CONTINUOUS
 10
30.3309770493
 20
2.4064573553
 40
0.0024749995
100
AcDbArc
 50
359.9999571957
 51
90.0000428043
  0
ARC
  5
38F
100
AcDbEntity
  8
0
100
AcDbCircle
 62
7
  6
CONTINUOUS
 10
30.2841630233
 20
2.3817073415
 40
0.0024749995
100
AcDbArc
 50
359.9999571957
 51
90.0000428043
  0
ELLIPSE
  5
390
100
AcDbEntity
  8
0
100
AcDbEllipse
 62
7
  6
CONTINUOUS
 10
29.8665327899
 20
2.3572783261
 30
0.0
 11
-0.8250004575
 21
0.0
 31
0.0
 40
0.218572
 41
0.0
 42
6.2831853072
  0
HATCH
  5
391
100
AcDbEntity
  8
0
100
AcDbHatch
 62
7
  6
CONTINUOUS
 10
0.0
 20
0.0
 30
0.0
210
0.0
220
0.0
230
1.0
  2
XSEC0003
 70
1
 71
1
 91
11
 92
1
 93
57
 72
2
 10
30.5195674723
 20
2.3254494505
 40
0.0173408616
 50
232.4713476722
 51
267.338189944
 73
1
 72
2
 10
30.5226660372
 20
2.3312997545
 40
0.0238935861
 50
209.8247607259
 51
235.1255079367
 73
1
 72
2
 10
30.5425475033
 20
2.3381486337
 40
0.044722495
 50
195.531588407
 51
204.7624440448
 73
1
 72
1
 10
30.4994581408
 20
2.3261733089
 11
30.4976541398
 21
2.3322423123
 72
2
 10
30.4592749426
 20
2.3224452318
 40
0.0396099176
 50
14.3201081283
 51
22.4984722084
 73
1
 72
2
 10
30.4820412509
 20
2.3314168585
 40
0.0151491919
 50
24.098260853
 51
63.0369451818
 73
1
 72
2
 10
30.4779865962
 20
2.323137238
 40
0.0243676582
 50
63.3666028271
 51
90.3937697637
 73
1
 72
1
 10
30.4778191288
 20
2.3475043207
 11
30.4502121135
 21
2.3475043207
 72
2
 10
30.4502121117
 20
2.3450293212
 40
0.0024749995
 50
89.9999571958
 51
180.0000428044
 73
1
 72
1
 10
30.4477371122
 20
2.3450293194
 11
30.4477371122
 21
2.335330314
 72
2
 10
30.4502121117
 20
2.3353303121
 40
0.0024749995
 50
179.9999571957
 51
270.0000428043
 73
1
 72
1
 10
30.4502121135
 20
2.3328553126
 11
30.4748711272
 21
2.3328553126
 72
2
 10
30.4748711291
 20
2.3303803131
 40
0.0024749995
 50
359.9999571957
 51
90.0000428042
 73
1
 72
1
 10
30.4773461286
 20
2.3303803112
 11
30.4773461286
 21
2.3106023003
 72
2
 10
30.4748711291
 20
2.3106022984
 40
0.0024749995
 50
269.9999571958
 51
0.0000428044
 73
1
 72
1
 10
30.4748711272
 20
2.3081272989
 11
30.3613000642
 21
2.3081272989
 72
2
 10
30.3613000624
 20
2.3106022984
 40
0.0024749995
 50
179.9999571957
 51
270.0000428043
 73
1
 72
1
 10
30.3588250629
 20
2.3106023003
 11
30.3588250629
 21
2.3304023112
 72
2
 10
30.3613000624
 20
2.3304023131
 40
0.0024749995
 50
89.9999571956
 51
180.0000428042
 73
1
 72
1
 10
30.3613000642
 20
2.3328773126
 11
30.3840460768
 21
2.3328773126
 72
2
 10
30.3840460787
 20
2.3353523121
 40
0.0024749995
 50
269.9999571956
 51
0.0000428042
 73
1
 72
1
 10
30.3865210782
 20
2.335352314
 11
30.3865210782
 21
2.3817073397
 72
2
 10
30.3840460787
 20
2.3817073415
 40
0.0024749995
 50
359.9999571957
 51
90.0000428042
 73
1
 72
1
 10
30.3840460768
 20
2.3841823411
 11
30.3613000642
 21
2.3841823411
 72
2
 10
30.3613000624
 20
2.3866573406
 40
0.0024749995
 50
179.9999571957
 51
270.0000428043
 73
1
 72
1
 10
30.3588250629
 20
2.3866573424
 11
30.3588250629
 21
2.4064573534
 72
2
 10
30.3613000624
 20
2.4064573553
 40
0.0024749995
 50
89.9999571956
 51
180.0000428042
 73
1
 72
1
 10
30.3613000642
 20
2.4089323548
 11
30.5108811472
 21
2.4089323548
 72
2
 10
30.5082178439
 20
2.2263934443
 40
0.1825583387
 50
79.8618509324
 51
89.1640948679
 73
1
 72
2
 10
30.5345221342
 20
2.3672169603
 40
0.039319019
 50
59.1202086415
 51
81.4730239328
 73
1
 72
2
 10
30.5401815304
 20
2.3735516295
 40
0.0310192946
 50
34.7540871
 51
62.0879016178
 73
1
 72
2
 10
30.5518702816
 20
2.3821012306
 40
0.0165459396
 50
1.548452892
 51
33.5033152417
 73
1
 72
2
 10
30.5551668767
 20
2.3822696828
 40
0.0132462337
 50
331.1510006998
 51
1.205404301
 73
1
 72
2
 10
30.5441562204
 20
2.3889482705
 40
0.0261183659
 50
305.6373831893
 51
329.9727629745
 73
1
 72
2
 10
30.5138242828
 20
2.4321551202
 40
0.0789082104
 50
292.9061550709
 51
305.2574666259
 73
1
 72
2
 10
30.4901231168
 20
2.2555010151
 40
0.117346916
 50
58.614769177
 51
62.3737227606
 73
1
 72
2
 10
30.5380060695
 20
2.3336282752
 40
0.0257145923
 50
39.3804255939
 51
59.0361096173
 73
1
 72
2
 10
30.5368857139
 20
2.3335551921
 40
0.0266349791
 50
20.3630922153
 51
37.9727053099
 73
1
 72
2
 10
30.5189851722
 20
2.3263737837
 40
0.0459185159
 50
15.6740290068
 51
20.9917271228
 73
1
 72
2
 10
30.5775555073
 20
2.3420167666
 40
0.0147197649
 50
192.7054516565
 51
206.0594861022
 73
1
 72
2
 10
30.5690611702
 20
2.3378082802
 40
0.0052403997
 50
205.5232099488
 51
227.5054868079
 73
1
 72
2
 10
30.5673328709
 20
2.3359929075
 40
0.0027347709
 50
228.5117626738
 51
266.1485845755
 73
1
 72
1
 10
30.5671491784
 20
2.3332643128
 11
30.568258179
 21
2.3332643128
 72
2
 10
30.5681966244
 20
2.3465129721
 40
0.0132488022
 50
270.266200055
 51
281.2404888597
 73
1
 72
2
 10
30.5693908654
 20
2.3407762785
 40
0.0073895522
 50
280.8288201977
 51
305.0837508495
 73
1
 72
2
 10
30.5697920471
 20
2.3399254321
 40
0.0064647042
 50
306.5086174083
 51
340.2162360092
 73
1
 72
2
 10
30.5645908704
 20
2.3416694937
 40
0.0119498009
 50
340.7883861657
 51
1.1691452593
 73
1
 72
1
 10
30.5765381836
 20
2.3419133176
 11
30.5765381836
 21
2.3445393191
 72
2
 10
30.5790131831
 20
2.3445393209
 40
0.0024749995
 50
89.9999571958
 51
180.0000428043
 73
1
 72
1
 10
30.579013185
 20
2.3470143205
 11
30.5911231917
 21
2.3470143205
 72
2
 10
30.5911231935
 20
2.3445393209
 40
0.0024749995
 50
359.9999571957
 51
90.0000428042
 73
1
 72
1
 10
30.5935981931
 20
2.3445393191
 11
30.5935981931
 21
2.3329873127
 72
2
 10
30.5760424965
 20
2.3330916303
 40
0.0175560065
 50
332.2279060967
 51
359.6595469939
 73
1
 72
2
 10
30.5667354857
 20
2.3379861357
 40
0.0280715479
 50
308.5071794988
 51
332.2400656899
 73
1
 72
2
 10
30.5597433003
 20
2.3455873536
 40
0.0383802683
 50
288.7656836787
 51
309.6104317088
 73
1
 72
2
 10
30.5654812677
 20
2.3280006042
 40
0.0198837666
 50
271.8586572978
 51
289.4131338543
 73
1
 72
1
 10
30.5661261778
 20
2.3081272989
 11
30.5187621516
 21
2.3081272989
 97
267
330
286
330
287
330
288
330
289
330
28A
330
28B
330
28C
330
28D
330
28E
330
28F
330
290
330
291
330
292
330
293
330
294
330
295
330
296
330
297
330
298
330
299
330
29A
330
29B
330
29C
330
29D
330
29E
330
29F
330
2A0
330
2A1
330
2A2
330
2A3
330
2A4
330
2A5
330
2A6
330
2A7
330
2A8
330
2A9
330
2AA
330
2AB
330
2AC
330
2AD
330
2AE
330
2AF
330
2B0
330
2B1
330
2B2
330
2B3
330
2B4
330
2B5
330
2B6
330
2B7
330
2B8
330
2B9
330
2BA
330
2BB
330
2BC
330
2BD
330
2BE
330
2BF
330
2C0
330
2C1
330
2C2
330
2C3
330
2C4
330
2C5
330
2C6
330
2C7
330
2C8
330
2C9
330
2CA
330
2CB
330
2CC
330
2CD
330
2CE
330
2CF
330
2D0
330
2D1
330
2D2
330
2D3
330
2D4
330
2D5
330
2D6
330
2D7
330
2D8
330
2D9
330
2DA
330
2DB
330
2DC
330
2DD
330
2DE
330
2DF
330
2E0
330
2E1
330
2E2
330
2E3
330
2E4
330
2E5
330
2E6
330
2E7
330
2E8
330
2E9
330
2EA
330
2EB
330
2EC
330
2ED
330
2EE
330
2EF
330
2F0
330
2F1
330
2F2
330
2F3
330
2F4
330
2F5
330
2F6
330
2F7
330
2F8
330
2F9
330
2FA
330
2FB
330
2FC
330
2FD
330
2FE
330
2FF
330
300
330
301
330
302
330
303
330
304
330
305
330
306
330
307
330
308
330
309
330
30A
330
30B
330
30C
330
30D
330
30E
330
30F
330
310
330
311
330
312
330
313
330
314
330
315
330
316
330
317
330
318
330
319
330
31A
330
31B
330
31C
330
31D
330
31E
330
31F
330
320
330
321
330
322
330
323
330
324
330
325
330
326
330
327
330
328
330
329
330
32A
330
32B
330
32C
330
32D
330
32E
330
32F
330
330
330
331
330
332
330
333
330
334
330
335
330
336
330
337
330
338
330
339
330
33A
330
33B
330
33C
330
33D
330
33E
330
33F
330
340
330
341
330
342
330
343
330
344
330
345
330
346
330
347
330
348
330
349
330
34A
330
34B
330
34C
330
34D
330
34E
330
34F
330
350
330
351
330
352
330
353
330
354
330
355
330
356
330
357
330
358
330
359
330
35A
330
35B
330
35C
330
35D
330
35E
330
35F
330
360
330
361
330
362
330
363
330
364
330
365
330
366
330
367
330
368
330
369
330
36A
330
36B
330
36C
330
36D
330
36E
330
36F
330
370
330
371
330
372
330
373
330
374
330
375
330
376
330
377
330
378
330
379
330
37A
330
37B
330
37C
330
37D
330
37E
330
37F
330
380
330
381
330
382
330
383
330
384
330
385
330
386
330
387
330
388
330
389
330
38A
330
38B
330
38C
330
38D
330
38E
330
38F
330
390
 92
1
 93
40
 72
2
 10
30.1291839337
 20
2.3106022984
 40
0.0024749995
 50
179.9999571957
 51
270.0000428043
 73
1
 72
1
 10
30.1267089341
 20
2.3106023003
 11
30.1267089341
 21
2.3304023112
 72
2
 10
30.1291839337
 20
2.3304023131
 40
0.0024749995
 50
89.9999571958
 51
180.0000428044
 73
1
 72
1
 10
30.1291839355
 20
2.3328773126
 11
30.1531069488
 21
2.3328773126
 72
2
 10
30.1531069506
 20
2.3353523121
 40
0.0024749995
 50
269.9999571956
 51
0.0000428042
 73
1
 72
1
 10
30.1555819501
 20
2.335352314
 11
30.1555819501
 21
2.3817073397
 72
2
 10
30.1531069506
 20
2.3817073415
 40
0.0024749995
 50
359.9999571957
 51
90.0000428043
 73
1
 72
1
 10
30.1531069488
 20
2.3841823411
 11
30.1291839355
 21
2.3841823411
 72
2
 10
30.1291839337
 20
2.3866573406
 40
0.0024749995
 50
179.9999571957
 51
270.0000428043
 73
1
 72
1
 10
30.1267089341
 20
2.3866573424
 11
30.1267089341
 21
2.4064573534
 72
2
 10
30.1291839337
 20
2.4064573553
 40
0.0024749995
 50
89.9999571958
 51
180.0000428044
 73
1
 72
1
 10
30.1291839355
 20
2.4089323548
 11
30.3309770474
 21
2.4089323548
 72
2
 10
30.3309770493
 20
2.4064573553
 40
0.0024749995
 50
359.9999571957
 51
90.0000428042
 73
1
 72
1
 10
30.3334520488
 20
2.4064573534
 11
30.3334520488
 21
2.3734573351
 72
2
 10
30.3309770493
 20
2.3734573333
 40
0.0024749995
 50
269.9999571957
 51
0.0000428042
 73
1
 72
1
 10
30.3309770474
 20
2.3709823337
 11
30.2891130242
 21
2.3709823337
 72
2
 10
30.2891130223
 20
2.3734573333
 40
0.0024749995
 50
179.9999571957
 51
270.0000428042
 73
1
 72
1
 10
30.2866380228
 20
2.3734573351
 11
30.2866380228
 21
2.3817073397
 72
2
 10
30.2841630233
 20
2.3817073415
 40
0.0024749995
 50
359.9999571957
 51
90.0000428042
 73
1
 72
1
 10
30.2841630215
 20
2.3841823411
 11
30.2201229859
 21
2.3841823411
 72
2
 10
30.2201229841
 20
2.3817073415
 40
0.0024749995
 50
89.9999571957
 51
180.0000428042
 73
1
 72
1
 10
30.2176479846
 20
2.3817073397
 11
30.2176479846
 21
2.3701573333
 72
2
 10
30.2201229841
 20
2.3701573314
 40
0.0024749995
 50
179.9999571957
 51
270.0000428042
 73
1
 72
1
 10
30.2201229859
 20
2.3676823319
 11
30.2552900054
 21
2.3676823319
 72
2
 10
30.2552900073
 20
2.3652073324
 40
0.0024749995
 50
359.9999571957
 51
90.0000428042
 73
1
 72
1
 10
30.2577650068
 20
2.3652073305
 11
30.2577650068
 21
2.3518523231
 72
2
 10
30.2552900073
 20
2.3518523213
 40
0.0024749995
 50
269.9999571956
 51
0.0000428042
 73
1
 72
1
 10
30.2552900054
 20
2.3493773218
 11
30.2201229859
 21
2.3493773218
 72
2
 10
30.2201229841
 20
2.3469023222
 40
0.0024749995
 50
89.9999571957
 51
180.0000428042
 73
1
 72
1
 10
30.2176479846
 20
2.3469023204
 11
30.2176479846
 21
2.335352314
 72
2
 10
30.2201229841
 20
2.3353523121
 40
0.0024749995
 50
179.9999571957
 51
270.0000428042
 73
1
 72
1
 10
30.2201229859
 20
2.3328773126
 11
30.285127022
 21
2.3328773126
 72
2
 10
30.2851270238
 20
2.3353523121
 40
0.0024749995
 50
269.9999571957
 51
0.0000428043
 73
1
 72
1
 10
30.2876020234
 20
2.335352314
 11
30.2876020234
 21
2.3436023186
 72
2
 10
30.2900770229
 20
2.3436023204
 40
0.0024749995
 50
89.9999571956
 51
180.0000428042
 73
1
 72
1
 10
30.2900770247
 20
2.3460773199
 11
30.3323960482
 21
2.3460773199
 72
2
 10
30.33239605
 20
2.3436023204
 40
0.0024749995
 50
359.9999571957
 51
90.0000428043
 73
1
 72
1
 10
30.3348710496
 20
2.3436023186
 11
30.3348710496
 21
2.3106023003
 72
2
 10
30.33239605
 20
2.3106022984
 40
0.0024749995
 50
269.9999571956
 51
0.0000428042
 73
1
 72
1
 10
30.3323960482
 20
2.3081272989
 11
30.1291839355
 21
2.3081272989
 97
267
330
286
330
287
330
288
330
289
330
28A
330
28B
330
28C
330
28D
330
28E
330
28F
330
290
330
291
330
292
330
293
330
294
330
295
330
296
330
297
330
298
330
299
330
29A
330
29B
330
29C
330
29D
330
29E
330
29F
330
2A0
330
2A1
330
2A2
330
2A3
330
2A4
330
2A5
330
2A6
330
2A7
330
2A8
330
2A9
330
2AA
330
2AB
330
2AC
330
2AD
330
2AE
330
2AF
330
2B0
330
2B1
330
2B2
330
2B3
330
2B4
330
2B5
330
2B6
330
2B7
330
2B8
330
2B9
330
2BA
330
2BB
330
2BC
330
2BD
330
2BE
330
2BF
330
2C0
330
2C1
330
2C2
330
2C3
330
2C4
330
2C5
330
2C6
330
2C7
330
2C8
330
2C9
330
2CA
330
2CB
330
2CC
330
2CD
330
2CE
330
2CF
330
2D0
330
2D1
330
2D2
330
2D3
330
2D4
330
2D5
330
2D6
330
2D7
330
2D8
330
2D9
330
2DA
330
2DB
330
2DC
330
2DD
330
2DE
330
2DF
330
2E0
330
2E1
330
2E2
330
2E3
330
2E4
330
2E5
330
2E6
330
2E7
330
2E8
330
2E9
330
2EA
330
2EB
330
2EC
330
2ED
330
2EE
330
2EF
330
2F0
330
2F1
330
2F2
330
2F3
330
2F4
330
2F5
330
2F6
330
2F7
330
2F8
330
2F9
330
2FA
330
2FB
330
2FC
330
2FD
330
2FE
330
2FF
330
300
330
301
330
302
330
303
330
304
330
305
330
306
330
307
330
308
330
309
330
30A
330
30B
330
30C
330
30D
330
30E
330
30F
330
310
330
311
330
312
330
313
330
314
330
315
330
316
330
317
330
318
330
319
330
31A
330
31B
330
31C
330
31D
330
31E
330
31F
330
320
330
321
330
322
330
323
330
324
330
325
330
326
330
327
330
328
330
329
330
32A
330
32B
330
32C
330
32D
330
32E
330
32F
330
330
330
331
330
332
330
333
330
334
330
335
330
336
330
337
330
338
330
339
330
33A
330
33B
330
33C
330
33D
330
33E
330
33F
330
340
330
341
330
342
330
343
330
344
330
345
330
346
330
347
330
348
330
349
330
34A
330
34B
330
34C
330
34D
330
34E
330
34F
330
350
330
351
330
352
330
353
330
354
330
355
330
356
330
357
330
358
330
359
330
35A
330
35B
330
35C
330
35D
330
35E
330
35F
330
360
330
361
330
362
330
363
330
364
330
365
330
366
330
367
330
368
330
369
330
36A
330
36B
330
36C
330
36D
330
36E
330
36F
330
370
330
371
330
372
330
373
330
374
330
375
330
376
330
377
330
378
330
379
330
37A
330
37B
330
37C
330
37D
330
37E
330
37F
330
380
330
381
330
382
330
383
330
384
330
385
330
386
330
387
330
388
330
389
330
38A
330
38B
330
38C
330
38D
330
38E
330
38F
330
390
 92
1
 93
40
 72
2
 10
30.0045047316
 20
2.3106014667
 40
0.0024741678
 50
226.3477981898
 51
270.0031206038
 73
1
 72
1
 10
30.0027968654
 20
2.3088112993
 11
29.9395168303
 21
2.3691893327
 72
2
 10
29.9378081294
 20
2.367398395
 40
0.0024753014
 50
46.3461263058
 51
180.0014637321
 73
1
 72
1
 10
29.935332828
 20
2.3673983318
 11
29.935332828
 21
2.335352314
 72
2
 10
29.9378078275
 20
2.3353523121
 40
0.0024749995
 50
179.9999571957
 51
270.0000428043
 73
1
 72
1
 10
29.9378078294
 20
2.3328773126
 11
29.9581248406
 21
2.3328773126
 72
2
 10
29.9581248425
 20
2.3304023131
 40
0.0024749995
 50
359.9999571957
 51
90.0000428043
 73
1
 72
1
 10
29.960599842
 20
2.3304023112
 11
29.960599842
 21
2.3106023003
 72
2
 10
29.9581248425
 20
2.3106022984
 40
0.0024749995
 50
269.9999571957
 51
0.0000428043
 73
1
 72
1
 10
29.9581248406
 20
2.3081272989
 11
29.8824607987
 21
2.3081272989
 72
2
 10
29.8824607968
 20
2.3106022984
 40
0.0024749995
 50
179.9999571957
 51
270.0000428042
 73
1
 72
1
 10
29.8799857973
 20
2.3106023003
 11
29.8799857973
 21
2.3304023112
 72
2
 10
29.8824607968
 20
2.3304023131
 40
0.0024749995
 50
89.9999571957
 51
180.0000428042
 73
1
 72
1
 10
29.8824607987
 20
2.3328773126
 11
29.901106809
 21
2.3328773126
 72
2
 10
29.9011068109
 20
2.3353523121
 40
0.0024749995
 50
269.9999571958
 51
0.0000428043
 73
1
 72
1
 10
29.9035818104
 20
2.335352314
 11
29.9035818104
 21
2.3817073397
 72
2
 10
29.9011068109
 20
2.3817073415
 40
0.0024749995
 50
359.9999571957
 51
90.0000428042
 73
1
 72
1
 10
29.901106809
 20
2.3841823411
 11
29.8824607987
 21
2.3841823411
 72
2
 10
29.8824607968
 20
2.3866573406
 40
0.0024749995
 50
179.9999571957
 51
270.0000428042
 73
1
 72
1
 10
29.8799857973
 20
2.3866573424
 11
29.8799857973
 21
2.4064573534
 72
2
 10
29.8824607968
 20
2.4064573553
 40
0.0024749995
 50
89.9999571957
 51
180.0000428042
 73
1
 72
1
 10
29.8824607987
 20
2.4089323548
 11
29.9829188544
 21
2.4089323548
 72
2
 10
29.9829189891
 20
2.406458187
 40
0.0024741678
 50
46.3477981898
 51
90.0031206038
 73
1
 72
1
 10
29.9846268553
 20
2.4082483544
 11
30.0446598886
 21
2.3509683226
 72
2
 10
30.0463685896
 20
2.3527592604
 40
0.0024753014
 50
226.3461263059
 51
0.0014637321
 73
1
 72
1
 10
30.048843891
 20
2.3527593236
 11
30.048843891
 21
2.3817073397
 72
2
 10
30.0463688914
 20
2.3817073415
 40
0.0024749995
 50
359.9999571957
 51
90.0000428042
 73
1
 72
1
 10
30.0463688896
 20
2.3841823411
 11
30.0275928792
 21
2.3841823411
 72
2
 10
30.0275928773
 20
2.3866573406
 40
0.0024749995
 50
179.9999571957
 51
270.0000428043
 73
1
 72
1
 10
30.0251178778
 20
2.3866573424
 11
30.0251178778
 21
2.4064573534
 72
2
 10
30.0275928773
 20
2.4064573553
 40
0.0024749995
 50
89.9999571958
 51
180.0000428044
 73
1
 72
1
 10
30.0275928792
 20
2.4089323548
 11
30.1015939202
 21
2.4089323548
 72
2
 10
30.1015939221
 20
2.4064573553
 40
0.0024749995
 50
359.9999571957
 51
90.0000428043
 73
1
 72
1
 10
30.1040689216
 20
2.4064573534
 11
30.1040689216
 21
2.3866573424
 72
2
 10
30.1015939221
 20
2.3866573406
 40
0.0024749995
 50
269.9999571956
 51
0.0000428042
 73
1
 72
1
 10
30.1015939202
 20
2.3841823411
 11
30.0836609103
 21
2.3841823411
 72
2
 10
30.0836609084
 20
2.3817073415
 40
0.0024749995
 50
89.9999571957
 51
180.0000428042
 73
1
 72
1
 10
30.0811859089
 20
2.3817073397
 11
30.0811859089
 21
2.3106023003
 72
2
 10
30.0787109094
 20
2.3106022984
 40
0.0024749995
 50
269.9999571958
 51
0.0000428043
 73
1
 72
1
 10
30.0787109075
 20
2.3081272989
 11
30.0045048664
 21
2.3081272989
 97
267
330
286
330
287
330
288
330
289
330
28A
330
28B
330
28C
330
28D
330
28E
330
28F
330
290
330
291
330
292
330
293
330
294
330
295
330
296
330
297
330
298
330
299
330
29A
330
29B
330
29C
330
29D
330
29E
330
29F
330
2A0
330
2A1
330
2A2
330
2A3
330
2A4
330
2A5
330
2A6
330
2A7
330
2A8
330
2A9
330
2AA
330
2AB
330
2AC
330
2AD
330
2AE
330
2AF
330
2B0
330
2B1
330
2B2
330
2B3
330
2B4
330
2B5
330
2B6
330
2B7
330
2B8
330
2B9
330
2BA
330
2BB
330
2BC
330
2BD
330
2BE
330
2BF
330
2C0
330
2C1
330
2C2
330
2C3
330
2C4
330
2C5
330
2C6
330
2C7
330
2C8
330
2C9
330
2CA
330
2CB
330
2CC
330
2CD
330
2CE
330
2CF
330
2D0
330
2D1
330
2D2
330
2D3
330
2D4
330
2D5
330
2D6
330
2D7
330
2D8
330
2D9
330
2DA
330
2DB
330
2DC
330
2DD
330
2DE
330
2DF
330
2E0
330
2E1
330
2E2
330
2E3
330
2E4
330
2E5
330
2E6
330
2E7
330
2E8
330
2E9
330
2EA
330
2EB
330
2EC
330
2ED
330
2EE
330
2EF
330
2F0
330
2F1
330
2F2
330
2F3
330
2F4
330
2F5
330
2F6
330
2F7
330
2F8
330
2F9
330
2FA
330
2FB
330
2FC
330
2FD
330
2FE
330
2FF
330
300
330
301
330
302
330
303
330
304
330
305
330
306
330
307
330
308
330
309
330
30A
330
30B
330
30C
330
30D
330
30E
330
30F
330
310
330
311
330
312
330
313
330
314
330
315
330
316
330
317
330
318
330
319
330
31A
330
31B
330
31C
330
31D
330
31E
330
31F
330
320
330
321
330
322
330
323
330
324
330
325
330
326
330
327
330
328
330
329
330
32A
330
32B
330
32C
330
32D
330
32E
330
32F
330
330
330
331
330
332
330
333
330
334
330
335
330
336
330
337
330
338
330
339
330
33A
330
33B
330
33C
330
33D
330
33E
330
33F
330
340
330
341
330
342
330
343
330
344
330
345
330
346
330
347
330
348
330
349
330
34A
330
34B
330
34C
330
34D
330
34E
330
34F
330
350
330
351
330
352
330
353
330
354
330
355
330
356
330
357
330
358
330
359
330
35A
330
35B
330
35C
330
35D
330
35E
330
35F
330
360
330
361
330
362
330
363
330
364
330
365
330
366
330
367
330
368
330
369
330
36A
330
36B
330
36C
330
36D
330
36E
330
36F
330
370
330
371
330
372
330
373
330
374
330
375
330
376
330
377
330
378
330
379
330
37A
330
37B
330
37C
330
37D
330
37E
330
37F
330
380
330
381
330
382
330
383
330
384
330
385
330
386
330
387
330
388
330
389
330
38A
330
38B
330
38C
330
38D
330
38E
330
38F
330
390
 92
1
 93
40
 72
2
 10
29.7562520939
 20
2.310602715
 40
0.0024754162
 50
226.3593695814
 51
270.0146919953
 73
1
 72
1
 10
29.7545437277
 20
2.3088112993
 11
29.6912636927
 21
2.3691893327
 72
2
 10
29.6895549917
 20
2.367398395
 40
0.0024753014
 50
46.3461263059
 51
180.0014637321
 73
1
 72
1
 10
29.6870796903
 20
2.3673983318
 11
29.6870796903
 21
2.335352314
 72
2
 10
29.6895546899
 20
2.3353523121
 40
0.0024749995
 50
179.9999571957
 51
270.0000428042
 73
1
 72
1
 10
29.6895546917
 20
2.3328773126
 11
29.709871703
 21
2.3328773126
 72
2
 10
29.7098717048
 20
2.3304023131
 40
0.0024749995
 50
359.9999571957
 51
90.0000428042
 73
1
 72
1
 10
29.7123467043
 20
2.3304023112
 11
29.7123467043
 21
2.3106023003
 72
2
 10
29.7098717048
 20
2.3106022984
 40
0.0024749995
 50
269.9999571957
 51
0.0000428042
 73
1
 72
1
 10
29.709871703
 20
2.3081272989
 11
29.634207661
 21
2.3081272989
 72
2
 10
29.6342076592
 20
2.3106022984
 40
0.0024749995
 50
179.9999571957
 51
270.0000428042
 73
1
 72
1
 10
29.6317326596
 20
2.3106023003
 11
29.6317326596
 21
2.3304023112
 72
2
 10
29.6342076592
 20
2.3304023131
 40
0.0024749995
 50
89.9999571958
 51
180.0000428043
 73
1
 72
1
 10
29.634207661
 20
2.3328773126
 11
29.6528546714
 21
2.3328773126
 72
2
 10
29.6528546732
 20
2.3353523121
 40
0.0024749995
 50
269.9999571957
 51
0.0000428042
 73
1
 72
1
 10
29.6553296727
 20
2.335352314
 11
29.6553296727
 21
2.3817073397
 72
2
 10
29.6528546732
 20
2.3817073415
 40
0.0024749995
 50
359.9999571957
 51
90.0000428042
 73
1
 72
1
 10
29.6528546714
 20
2.3841823411
 11
29.634207661
 21
2.3841823411
 72
2
 10
29.6342076592
 20
2.3866573406
 40
0.0024749995
 50
179.9999571957
 51
270.0000428042
 73
1
 72
1
 10
29.6317326596
 20
2.3866573424
 11
29.6317326596
 21
2.4064573534
 72
2
 10
29.6342076592
 20
2.4064573553
 40
0.0024749995
 50
89.9999571958
 51
180.0000428043
 73
1
 72
1
 10
29.634207661
 20
2.4089323548
 11
29.7346657167
 21
2.4089323548
 72
2
 10
29.7346658515
 20
2.406458187
 40
0.0024741678
 50
46.3477981899
 51
90.0031206039
 73
1
 72
1
 10
29.7363737177
 20
2.4082483544
 11
29.796406751
 21
2.3509683226
 72
2
 10
29.7981154519
 20
2.3527592604
 40
0.0024753014
 50
226.3461263059
 51
0.0014637321
 73
1
 72
1
 10
29.8005907533
 20
2.3527593236
 11
29.8005907533
 21
2.3817073397
 72
2
 10
29.7981157538
 20
2.3817073415
 40
0.0024749995
 50
359.9999571957
 51
90.0000428042
 73
1
 72
1
 10
29.7981157519
 20
2.3841823411
 11
29.7793397415
 21
2.3841823411
 72
2
 10
29.7793397396
 20
2.3866573406
 40
0.0024749995
 50
179.9999571957
 51
270.0000428042
 73
1
 72
1
 10
29.7768647401
 20
2.3866573424
 11
29.7768647401
 21
2.4064573534
 72
2
 10
29.7793397396
 20
2.4064573553
 40
0.0024749995
 50
89.9999571957
 51
180.0000428042
 73
1
 72
1
 10
29.7793397415
 20
2.4089323548
 11
29.8533407825
 21
2.4089323548
 72
2
 10
29.8533407844
 20
2.4064573553
 40
0.0024749995
 50
359.9999571957
 51
90.0000428042
 73
1
 72
1
 10
29.8558157839
 20
2.4064573534
 11
29.8558157839
 21
2.3866573424
 72
2
 10
29.8533407844
 20
2.3866573406
 40
0.0024749995
 50
269.9999571958
 51
0.0000428044
 73
1
 72
1
 10
29.8533407825
 20
2.3841823411
 11
29.8354077726
 21
2.3841823411
 72
2
 10
29.8354077707
 20
2.3817073415
 40
0.0024749995
 50
89.9999571956
 51
180.0000428042
 73
1
 72
1
 10
29.8329327712
 20
2.3817073397
 11
29.8329327712
 21
2.3106023003
 72
2
 10
29.8304577717
 20
2.3106022984
 40
0.0024749995
 50
269.9999571956
 51
0.0000428042
 73
1
 72
1
 10
29.8304577698
 20
2.3081272989
 11
29.7562527287
 21
2.3081272989
 97
267
330
286
330
287
330
288
330
289
330
28A
330
28B
330
28C
330
28D
330
28E
330
28F
330
290
330
291
330
292
330
293
330
294
330
295
330
296
330
297
330
298
330
299
330
29A
330
29B
330
29C
330
29D
330
29E
330
29F
330
2A0
330
2A1
330
2A2
330
2A3
330
2A4
330
2A5
330
2A6
330
2A7
330
2A8
330
2A9
330
2AA
330
2AB
330
2AC
330
2AD
330
2AE
330
2AF
330
2B0
330
2B1
330
2B2
330
2B3
330
2B4
330
2B5
330
2B6
330
2B7
330
2B8
330
2B9
330
2BA
330
2BB
330
2BC
330
2BD
330
2BE
330
2BF
330
2C0
330
2C1
330
2C2
330
2C3
330
2C4
330
2C5
330
2C6
330
2C7
330
2C8
330
2C9
330
2CA
330
2CB
330
2CC
330
2CD
330
2CE
330
2CF
330
2D0
330
2D1
330
2D2
330
2D3
330
2D4
330
2D5
330
2D6
330
2D7
330
2D8
330
2D9
330
2DA
330
2DB
330
2DC
330
2DD
330
2DE
330
2DF
330
2E0
330
2E1
330
2E2
330
2E3
330
2E4
330
2E5
330
2E6
330
2E7
330
2E8
330
2E9
330
2EA
330
2EB
330
2EC
330
2ED
330
2EE
330
2EF
330
2F0
330
2F1
330
2F2
330
2F3
330
2F4
330
2F5
330
2F6
330
2F7
330
2F8
330
2F9
330
2FA
330
2FB
330
2FC
330
2FD
330
2FE
330
2FF
330
300
330
301
330
302
330
303
330
304
330
305
330
306
330
307
330
308
330
309
330
30A
330
30B
330
30C
330
30D
330
30E
330
30F
330
310
330
311
330
312
330
313
330
314
330
315
330
316
330
317
330
318
330
319
330
31A
330
31B
330
31C
330
31D
330
31E
330
31F
330
320
330
321
330
322
330
323
330
324
330
325
330
326
330
327
330
328
330
329
330
32A
330
32B
330
32C
330
32D
330
32E
330
32F
330
330
330
331
330
332
330
333
330
334
330
335
330
336
330
337
330
338
330
339
330
33A
330
33B
330
33C
330
33D
330
33E
330
33F
330
340
330
341
330
342
330
343
330
344
330
345
330
346
330
347
330
348
330
349
330
34A
330
34B
330
34C
330
34D
330
34E
330
34F
330
350
330
351
330
352
330
353
330
354
330
355
330
356
330
357
330
358
330
359
330
35A
330
35B
330
35C
330
35D
330
35E
330
35F
330
360
330
361
330
362
330
363
330
364
330
365
330
366
330
367
330
368
330
369
330
36A
330
36B
330
36C
330
36D
330
36E
330
36F
330
370
330
371
330
372
330
373
330
374
330
375
330
376
330
377
330
378
330
379
330
37A
330
37B
330
37C
330
37D
330
37E
330
37F
330
380
330
381
330
382
330
383
330
384
330
385
330
386
330
387
330
388
330
389
330
38A
330
38B
330
38C
330
38D
330
38E
330
38F
330
390
 92
1
 93
23
 72
2
 10
29.3410971553
 20
2.3565347507
 40
0.048483885
 50
273.21763719
 51
303.0749121182
 73
1
 72
2
 10
29.3559365494
 20
2.3337671418
 40
0.0213072145
 50
303.0488228549
 51
355.7263138674
 73
1
 72
2
 10
29.36187305
 20
2.3337763321
 40
0.0153945295
 50
354.0454548824
 51
5.1878013979
 73
1
 72
2
 10
29.3550433609
 20
2.3335878142
 40
0.0222174455
 50
4.0793399388
 51
69.834329283
 73
1
 72
1
 10
29.3627025104
 20
2.3544433246
 11
29.3526515049
 21
2.3579923265
 72
1
 10
29.3526515049
 20
2.3579923265
 11
29.3608915094
 21
2.3627683292
 72
2
 10
29.339026127
 20
2.3995952208
 40
0.0428289026
 50
300.6990502959
 51
319.0591802498
 73
1
 72
2
 10
29.3590547239
 20
2.3834668674
 40
0.0171568255
 50
315.9145124245
 51
16.0049121282
 73
1
 72
2
 10
29.3541031117
 20
2.3801132029
 40
0.0229166529
 50
20.6563876465
 51
62.3316896973
 73
1
 72
2
 10
29.3334409881
 20
2.347184638
 40
0.061747717
 50
59.5385584989
 51
90.0050977555
 73
1
 72
1
 10
29.3334354942
 20
2.4089323548
 11
29.1673724021
 21
2.4089323548
 72
2
 10
29.1673724003
 20
2.4064573553
 40
0.0024749995
 50
89.9999571958
 51
180.0000428044
 73
1
 72
1
 10
29.1648974007
 20
2.4064573534
 11
29.1648974007
 21
2.3866573424
 72
2
 10
29.1673724003
 20
2.3866573406
 40
0.0024749995
 50
179.9999571957
 51
270.0000428042
 73
1
 72
1
 10
29.1673724021
 20
2.3841823411
 11
29.1913144154
 21
2.3841823411
 72
2
 10
29.1913144172
 20
2.3817073415
 40
0.0024749995
 50
359.9999571957
 51
90.0000428042
 73
1
 72
1
 10
29.1937894168
 20
2.3817073397
 11
29.1937894168
 21
2.335352314
 72
2
 10
29.1913144172
 20
2.3353523121
 40
0.0024749995
 50
269.9999571957
 51
0.0000428042
 73
1
 72
1
 10
29.1913144154
 20
2.3328773126
 11
29.1673724021
 21
2.3328773126
 72
2
 10
29.1673724003
 20
2.3304023131
 40
0.0024749995
 50
89.9999571958
 51
180.0000428044
 73
1
 72
1
 10
29.1648974007
 20
2.3304023112
 11
29.1648974007
 21
2.3106023003
 72
2
 10
29.1673724003
 20
2.3106022984
 40
0.0024749995
 50
179.9999571957
 51
270.0000428042
 73
1
 72
1
 10
29.1673724021
 20
2.3081272989
 11
29.3438185
 21
2.3081272989
 97
267
330
286
330
287
330
288
330
289
330
28A
330
28B
330
28C
330
28D
330
28E
330
28F
330
290
330
291
330
292
330
293
330
294
330
295
330
296
330
297
330
298
330
299
330
29A
330
29B
330
29C
330
29D
330
29E
330
29F
330
2A0
330
2A1
330
2A2
330
2A3
330
2A4
330
2A5
330
2A6
330
2A7
330
2A8
330
2A9
330
2AA
330
2AB
330
2AC
330
2AD
330
2AE
330
2AF
330
2B0
330
2B1
330
2B2
330
2B3
330
2B4
330
2B5
330
2B6
330
2B7
330
2B8
330
2B9
330
2BA
330
2BB
330
2BC
330
2BD
330
2BE
330
2BF
330
2C0
330
2C1
330
2C2
330
2C3
330
2C4
330
2C5
330
2C6
330
2C7
330
2C8
330
2C9
330
2CA
330
2CB
330
2CC
330
2CD
330
2CE
330
2CF
330
2D0
330
2D1
330
2D2
330
2D3
330
2D4
330
2D5
330
2D6
330
2D7
330
2D8
330
2D9
330
2DA
330
2DB
330
2DC
330
2DD
330
2DE
330
2DF
330
2E0
330
2E1
330
2E2
330
2E3
330
2E4
330
2E5
330
2E6
330
2E7
330
2E8
330
2E9
330
2EA
330
2EB
330
2EC
330
2ED
330
2EE
330
2EF
330
2F0
330
2F1
330
2F2
330
2F3
330
2F4
330
2F5
330
2F6
330
2F7
330
2F8
330
2F9
330
2FA
330
2FB
330
2FC
330
2FD
330
2FE
330
2FF
330
300
330
301
330
302
330
303
330
304
330
305
330
306
330
307
330
308
330
309
330
30A
330
30B
330
30C
330
30D
330
30E
330
30F
330
310
330
311
330
312
330
313
330
314
330
315
330
316
330
317
330
318
330
319
330
31A
330
31B
330
31C
330
31D
330
31E
330
31F
330
320
330
321
330
322
330
323
330
324
330
325
330
326
330
327
330
328
330
329
330
32A
330
32B
330
32C
330
32D
330
32E
330
32F
330
330
330
331
330
332
330
333
330
334
330
335
330
336
330
337
330
338
330
339
330
33A
330
33B
330
33C
330
33D
330
33E
330
33F
330
340
330
341
330
342
330
343
330
344
330
345
330
346
330
347
330
348
330
349
330
34A
330
34B
330
34C
330
34D
330
34E
330
34F
330
350
330
351
330
352
330
353
330
354
330
355
330
356
330
357
330
358
330
359
330
35A
330
35B
330
35C
330
35D
330
35E
330
35F
330
360
330
361
330
362
330
363
330
364
330
365
330
366
330
367
330
368
330
369
330
36A
330
36B
330
36C
330
36D
330
36E
330
36F
330
370
330
371
330
372
330
373
330
374
330
375
330
376
330
377
330
378
330
379
330
37A
330
37B
330
37C
330
37D
330
37E
330
37F
330
380
330
381
330
382
330
383
330
384
330
385
330
386
330
387
330
388
330
389
330
38A
330
38B
330
38C
330
38D
330
38E
330
38F
330
390
 92
1
 93
32
 72
2
 10
29.4787315766
 20
2.3106022984
 40
0.0024749995
 50
269.9999571958
 51
0.0000428044
 73
1
 72
1
 10
29.4812065762
 20
2.3106023003
 11
29.4812065762
 21
2.3304023112
 72
2
 10
29.4787315766
 20
2.3304023131
 40
0.0024749995
 50
359.9999571957
 51
90.0000428042
 73
1
 72
1
 10
29.4787315748
 20
2.3328773126
 11
29.4674485685
 21
2.3328773126
 72
2
 10
29.4674484592
 20
2.3353523527
 40
0.0024750401
 50
147.606325801
 51
270.0025305754
 73
1
 72
1
 10
29.4653585674
 20
2.3366783147
 11
29.4708745704
 21
2.3453723195
 72
2
 10
29.4729645013
 20
2.3440461199
 40
0.0024752003
 50
89.998372645
 51
147.602165307
 73
1
 72
1
 10
29.4729645716
 20
2.3465213202
 11
29.5078425909
 21
2.3465213202
 72
2
 10
29.5078420513
 20
2.34404586
 40
0.0024754602
 50
32.8959418574
 51
89.9875097203
 73
1
 72
1
 10
29.5099205921
 20
2.3453903196
 11
29.5155465952
 21
2.3366973147
 72
2
 10
29.5134685729
 20
2.3353525197
 40
0.0024752071
 50
270.0004896793
 51
32.9089806819
 73
1
 72
1
 10
29.5134685941
 20
2.3328773126
 11
29.499017586
 21
2.3328773126
 72
2
 10
29.4990175842
 20
2.3304023131
 40
0.0024749995
 50
89.9999571958
 51
180.0000428043
 73
1
 72
1
 10
29.4965425847
 20
2.3304023112
 11
29.4965425847
 21
2.3106023003
 72
2
 10
29.4990175842
 20
2.3106022984
 40
0.0024749995
 50
179.9999571957
 51
270.0000428042
 73
1
 72
1
 10
29.499017586
 20
2.3081272989
 11
29.6042986444
 21
2.3081272989
 72
2
 10
29.6042986463
 20
2.3106022984
 40
0.0024749995
 50
269.9999571958
 51
0.0000428043
 73
1
 72
1
 10
29.6067736458
 20
2.3106023003
 11
29.6067736458
 21
2.3304023112
 72
2
 10
29.6042986463
 20
2.3304023131
 40
0.0024749995
 50
359.9999571957
 51
90.0000428042
 73
1
 72
1
 10
29.6042986444
 20
2.3328773126
 11
29.5842826333
 21
2.3328773126
 72
2
 10
29.5842827538
 20
2.3353513536
 40
0.002474041
 50
212.9056413127
 51
269.9972091756
 73
1
 72
1
 10
29.5822056322
 20
2.3340073132
 11
29.5344496057
 21
2.4078023542
 72
2
 10
29.532371984
 20
2.4064573946
 40
0.0024749602
 50
32.9172174468
 51
90.0087853097
 73
1
 72
1
 10
29.5323716045
 20
2.4089323548
 11
29.4751965728
 21
2.4089323548
 72
2
 10
29.4751965025
 20
2.4064571545
 40
0.0024752003
 50
89.998372645
 51
147.602165307
 73
1
 72
1
 10
29.4731065717
 20
2.4077833542
 11
29.4263065457
 21
2.3340263132
 72
2
 10
29.4242166149
 20
2.3353525129
 40
0.0024752003
 50
269.9983726451
 51
327.6021653071
 73
1
 72
1
 10
29.4242165446
 20
2.3328773126
 11
29.4013555319
 21
2.3328773126
 72
2
 10
29.40135553
 20
2.3304023131
 40
0.0024749995
 50
89.9999571957
 51
180.0000428042
 73
1
 72
1
 10
29.3988805305
 20
2.3304023112
 11
29.3988805305
 21
2.3106023003
 72
2
 10
29.40135553
 20
2.3106022984
 40
0.0024749995
 50
179.9999571957
 51
270.0000428042
 73
1
 72
1
 10
29.4013555319
 20
2.3081272989
 11
29.4787315748
 21
2.3081272989
 97
267
330
286
330
287
330
288
330
289
330
28A
330
28B
330
28C
330
28D
330
28E
330
28F
330
290
330
291
330
292
330
293
330
294
330
295
330
296
330
297
330
298
330
299
330
29A
330
29B
330
29C
330
29D
330
29E
330
29F
330
2A0
330
2A1
330
2A2
330
2A3
330
2A4
330
2A5
330
2A6
330
2A7
330
2A8
330
2A9
330
2AA
330
2AB
330
2AC
330
2AD
330
2AE
330
2AF
330
2B0
330
2B1
330
2B2
330
2B3
330
2B4
330
2B5
330
2B6
330
2B7
330
2B8
330
2B9
330
2BA
330
2BB
330
2BC
330
2BD
330
2BE
330
2BF
330
2C0
330
2C1
330
2C2
330
2C3
330
2C4
330
2C5
330
2C6
330
2C7
330
2C8
330
2C9
330
2CA
330
2CB
330
2CC
330
2CD
330
2CE
330
2CF
330
2D0
330
2D1
330
2D2
330
2D3
330
2D4
330
2D5
330
2D6
330
2D7
330
2D8
330
2D9
330
2DA
330
2DB
330
2DC
330
2DD
330
2DE
330
2DF
330
2E0
330
2E1
330
2E2
330
2E3
330
2E4
330
2E5
330
2E6
330
2E7
330
2E8
330
2E9
330
2EA
330
2EB
330
2EC
330
2ED
330
2EE
330
2EF
330
2F0
330
2F1
330
2F2
330
2F3
330
2F4
330
2F5
330
2F6
330
2F7
330
2F8
330
2F9
330
2FA
330
2FB
330
2FC
330
2FD
330
2FE
330
2FF
330
300
330
301
330
302
330
303
330
304
330
305
330
306
330
307
330
308
330
309
330
30A
330
30B
330
30C
330
30D
330
30E
330
30F
330
310
330
311
330
312
330
313
330
314
330
315
330
316
330
317
330
318
330
319
330
31A
330
31B
330
31C
330
31D
330
31E
330
31F
330
320
330
321
330
322
330
323
330
324
330
325
330
326
330
327
330
328
330
329
330
32A
330
32B
330
32C
330
32D
330
32E
330
32F
330
330
330
331
330
332
330
333
330
334
330
335
330
336
330
337
330
338
330
339
330
33A
330
33B
330
33C
330
33D
330
33E
330
33F
330
340
330
341
330
342
330
343
330
344
330
345
330
346
330
347
330
348
330
349
330
34A
330
34B
330
34C
330
34D
330
34E
330
34F
330
350
330
351
330
352
330
353
330
354
330
355
330
356
330
357
330
358
330
359
330
35A
330
35B
330
35C
330
35D
330
35E
330
35F
330
360
330
361
330
362
330
363
330
364
330
365
330
366
330
367
330
368
330
369
330
36A
330
36B
330
36C
330
36D
330
36E
330
36F
330
370
330
371
330
372
330
373
330
374
330
375
330
376
330
377
330
378
330
379
330
37A
330
37B
330
37C
330
37D
330
37E
330
37F
330
380
330
381
330
382
330
383
330
384
330
385
330
386
330
387
330
388
330
389
330
38A
330
38B
330
38C
330
38D
330
38E
330
38F
330
390
 92
1
 93
6
 72
2
 10
29.2567774499
 20
2.3353523121
 40
0.0024749995
 50
179.9999571957
 51
270.0000428043
 73
1
 72
1
 10
29.2543024503
 20
2.335352314
 11
29.2543024503
 21
2.3477273208
 72
2
 10
29.2567774499
 20
2.3477273227
 40
0.0024749995
 50
89.9999571956
 51
180.0000428042
 73
1
 72
1
 10
29.2567774517
 20
2.3502023222
 11
29.2981404746
 21
2.3502023222
 72
2
 10
29.2981404746
 20
2.3415398174
 40
0.0086625048
 50
270.0
 51
90.0
 73
1
 72
1
 10
29.2981404746
 20
2.3328773126
 11
29.2567774517
 21
2.3328773126
 97
267
330
286
330
287
330
288
330
289
330
28A
330
28B
330
28C
330
28D
330
28E
330
28F
330
290
330
291
330
292
330
293
330
294
330
295
330
296
330
297
330
298
330
299
330
29A
330
29B
330
29C
330
29D
330
29E
330
29F
330
2A0
330
2A1
330
2A2
330
2A3
330
2A4
330
2A5
330
2A6
330
2A7
330
2A8
330
2A9
330
2AA
330
2AB
330
2AC
330
2AD
330
2AE
330
2AF
330
2B0
330
2B1
330
2B2
330
2B3
330
2B4
330
2B5
330
2B6
330
2B7
330
2B8
330
2B9
330
2BA
330
2BB
330
2BC
330
2BD
330
2BE
330
2BF
330
2C0
330
2C1
330
2C2
330
2C3
330
2C4
330
2C5
330
2C6
330
2C7
330
2C8
330
2C9
330
2CA
330
2CB
330
2CC
330
2CD
330
2CE
330
2CF
330
2D0
330
2D1
330
2D2
330
2D3
330
2D4
330
2D5
330
2D6
330
2D7
330
2D8
330
2D9
330
2DA
330
2DB
330
2DC
330
2DD
330
2DE
330
2DF
330
2E0
330
2E1
330
2E2
330
2E3
330
2E4
330
2E5
330
2E6
330
2E7
330
2E8
330
2E9
330
2EA
330
2EB
330
2EC
330
2ED
330
2EE
330
2EF
330
2F0
330
2F1
330
2F2
330
2F3
330
2F4
330
2F5
330
2F6
330
2F7
330
2F8
330
2F9
330
2FA
330
2FB
330
2FC
330
2FD
330
2FE
330
2FF
330
300
330
301
330
302
330
303
330
304
330
305
330
306
330
307
330
308
330
309
330
30A
330
30B
330
30C
330
30D
330
30E
330
30F
330
310
330
311
330
312
330
313
330
314
330
315
330
316
330
317
330
318
330
319
330
31A
330
31B
330
31C
330
31D
330
31E
330
31F
330
320
330
321
330
322
330
323
330
324
330
325
330
326
330
327
330
328
330
329
330
32A
330
32B
330
32C
330
32D
330
32E
330
32F
330
330
330
331
330
332
330
333
330
334
330
335
330
336
330
337
330
338
330
339
330
33A
330
33B
330
33C
330
33D
330
33E
330
33F
330
340
330
341
330
342
330
343
330
344
330
345
330
346
330
347
330
348
330
349
330
34A
330
34B
330
34C
330
34D
330
34E
330
34F
330
350
330
351
330
352
330
353
330
354
330
355
330
356
330
357
330
358
330
359
330
35A
330
35B
330
35C
330
35D
330
35E
330
35F
330
360
330
361
330
362
330
363
330
364
330
365
330
366
330
367
330
368
330
369
330
36A
330
36B
330
36C
330
36D
330
36E
330
36F
330
370
330
371
330
372
330
373
330
374
330
375
330
376
330
377
330
378
330
379
330
37A
330
37B
330
37C
330
37D
330
37E
330
37F
330
380
330
381
330
382
330
383
330
384
330
385
330
386
330
387
330
388
330
389
330
38A
330
38B
330
38C
330
38D
330
38E
330
38F
330
390
 92
1
 93
13
 72
2
 10
30.4502121117
 20
2.3689823308
 40
0.0024749995
 50
179.9999571957
 51
270.0000428043
 73
1
 72
1
 10
30.4477371122
 20
2.3689823326
 11
30.4477371122
 21
2.3817073397
 72
2
 10
30.4502121117
 20
2.3817073415
 40
0.0024749995
 50
89.9999571958
 51
180.0000428044
 73
1
 72
1
 10
30.4502121135
 20
2.3841823411
 11
30.4870131339
 21
2.3841823411
 72
2
 10
30.4854682464
 20
2.3557278621
 40
0.0284963867
 50
70.3834917948
 51
86.8922743861
 73
1
 72
2
 10
30.4903278565
 20
2.368769595
 40
0.0145814632
 50
54.6746025112
 51
71.1660573124
 73
1
 72
2
 10
30.4954573475
 20
2.3756235202
 40
0.0060275915
 50
20.9055592135
 51
56.7851676243
 73
1
 72
2
 10
30.4967579063
 20
2.3762838024
 40
0.0045795888
 50
355.6235353944
 51
18.9942678268
 73
1
 72
2
 10
30.495551096
 20
2.3765775787
 40
0.0058087709
 50
318.8515287446
 51
353.6422345323
 73
1
 72
2
 10
30.4913804799
 20
2.3798114865
 40
0.0110815393
 50
306.758405961
 51
320.4502234234
 73
1
 72
2
 10
30.4857512889
 20
2.387552315
 40
0.0206523367
 50
289.6883413472
 51
306.4184925496
 73
1
 72
2
 10
30.4838237832
 20
2.3919459623
 40
0.0254407115
 50
270.7327484175
 51
290.441894219
 73
1
 72
1
 10
30.4841491324
 20
2.3665073313
 11
30.4502121135
 21
2.3665073313
 97
267
330
286
330
287
330
288
330
289
330
28A
330
28B
330
28C
330
28D
330
28E
330
28F
330
290
330
291
330
292
330
293
330
294
330
295
330
296
330
297
330
298
330
299
330
29A
330
29B
330
29C
330
29D
330
29E
330
29F
330
2A0
330
2A1
330
2A2
330
2A3
330
2A4
330
2A5
330
2A6
330
2A7
330
2A8
330
2A9
330
2AA
330
2AB
330
2AC
330
2AD
330
2AE
330
2AF
330
2B0
330
2B1
330
2B2
330
2B3
330
2B4
330
2B5
330
2B6
330
2B7
330
2B8
330
2B9
330
2BA
330
2BB
330
2BC
330
2BD
330
2BE
330
2BF
330
2C0
330
2C1
330
2C2
330
2C3
330
2C4
330
2C5
330
2C6
330
2C7
330
2C8
330
2C9
330
2CA
330
2CB
330
2CC
330
2CD
330
2CE
330
2CF
330
2D0
330
2D1
330
2D2
330
2D3
330
2D4
330
2D5
330
2D6
330
2D7
330
2D8
330
2D9
330
2DA
330
2DB
330
2DC
330
2DD
330
2DE
330
2DF
330
2E0
330
2E1
330
2E2
330
2E3
330
2E4
330
2E5
330
2E6
330
2E7
330
2E8
330
2E9
330
2EA
330
2EB
330
2EC
330
2ED
330
2EE
330
2EF
330
2F0
330
2F1
330
2F2
330
2F3
330
2F4
330
2F5
330
2F6
330
2F7
330
2F8
330
2F9
330
2FA
330
2FB
330
2FC
330
2FD
330
2FE
330
2FF
330
300
330
301
330
302
330
303
330
304
330
305
330
306
330
307
330
308
330
309
330
30A
330
30B
330
30C
330
30D
330
30E
330
30F
330
310
330
311
330
312
330
313
330
314
330
315
330
316
330
317
330
318
330
319
330
31A
330
31B
330
31C
330
31D
330
31E
330
31F
330
320
330
321
330
322
330
323
330
324
330
325
330
326
330
327
330
328
330
329
330
32A
330
32B
330
32C
330
32D
330
32E
330
32F
330
330
330
331
330
332
330
333
330
334
330
335
330
336
330
337
330
338
330
339
330
33A
330
33B
330
33C
330
33D
330
33E
330
33F
330
340
330
341
330
342
330
343
330
344
330
345
330
346
330
347
330
348
330
349
330
34A
330
34B
330
34C
330
34D
330
34E
330
34F
330
350
330
351
330
352
330
353
330
354
330
355
330
356
330
357
330
358
330
359
330
35A
330
35B
330
35C
330
35D
330
35E
330
35F
330
360
330
361
330
362
330
363
330
364
330
365
330
366
330
367
330
368
330
369
330
36A
330
36B
330
36C
330
36D
330
36E
330
36F
330
370
330
371
330
372
330
373
330
374
330
375
330
376
330
377
330
378
330
379
330
37A
330
37B
330
37C
330
37D
330
37E
330
37F
330
380
330
381
330
382
330
383
330
384
330
385
330
386
330
387
330
388
330
389
330
38A
330
38B
330
38C
330
38D
330
38E
330
38F
330
390
 92
1
 93
6
 72
2
 10
29.2981404746
 20
2.3755198363
 40
0.0086625048
 50
270.0
 51
90.0
 73
1
 72
1
 10
29.2981404746
 20
2.3841823411
 11
29.2567774517
 21
2.3841823411
 72
2
 10
29.2567774499
 20
2.3817073415
 40
0.0024749995
 50
89.9999571956
 51
180.0000428042
 73
1
 72
1
 10
29.2543024503
 20
2.3817073397
 11
29.2543024503
 21
2.3693323328
 72
2
 10
29.2567774499
 20
2.369332331
 40
0.0024749995
 50
179.9999571957
 51
270.0000428043
 73
1
 72
1
 10
29.2567774517
 20
2.3668573315
 11
29.2981404746
 21
2.3668573315
 97
267
330
286
330
287
330
288
330
289
330
28A
330
28B
330
28C
330
28D
330
28E
330
28F
330
290
330
291
330
292
330
293
330
294
330
295
330
296
330
297
330
298
330
299
330
29A
330
29B
330
29C
330
29D
330
29E
330
29F
330
2A0
330
2A1
330
2A2
330
2A3
330
2A4
330
2A5
330
2A6
330
2A7
330
2A8
330
2A9
330
2AA
330
2AB
330
2AC
330
2AD
330
2AE
330
2AF
330
2B0
330
2B1
330
2B2
330
2B3
330
2B4
330
2B5
330
2B6
330
2B7
330
2B8
330
2B9
330
2BA
330
2BB
330
2BC
330
2BD
330
2BE
330
2BF
330
2C0
330
2C1
330
2C2
330
2C3
330
2C4
330
2C5
330
2C6
330
2C7
330
2C8
330
2C9
330
2CA
330
2CB
330
2CC
330
2CD
330
2CE
330
2CF
330
2D0
330
2D1
330
2D2
330
2D3
330
2D4
330
2D5
330
2D6
330
2D7
330
2D8
330
2D9
330
2DA
330
2DB
330
2DC
330
2DD
330
2DE
330
2DF
330
2E0
330
2E1
330
2E2
330
2E3
330
2E4
330
2E5
330
2E6
330
2E7
330
2E8
330
2E9
330
2EA
330
2EB
330
2EC
330
2ED
330
2EE
330
2EF
330
2F0
330
2F1
330
2F2
330
2F3
330
2F4
330
2F5
330
2F6
330
2F7
330
2F8
330
2F9
330
2FA
330
2FB
330
2FC
330
2FD
330
2FE
330
2FF
330
300
330
301
330
302
330
303
330
304
330
305
330
306
330
307
330
308
330
309
330
30A
330
30B
330
30C
330
30D
330
30E
330
30F
330
310
330
311
330
312
330
313
330
314
330
315
330
316
330
317
330
318
330
319
330
31A
330
31B
330
31C
330
31D
330
31E
330
31F
330
320
330
321
330
322
330
323
330
324
330
325
330
326
330
327
330
328
330
329
330
32A
330
32B
330
32C
330
32D
330
32E
330
32F
330
330
330
331
330
332
330
333
330
334
330
335
330
336
330
337
330
338
330
339
330
33A
330
33B
330
33C
330
33D
330
33E
330
33F
330
340
330
341
330
342
330
343
330
344
330
345
330
346
330
347
330
348
330
349
330
34A
330
34B
330
34C
330
34D
330
34E
330
34F
330
350
330
351
330
352
330
353
330
354
330
355
330
356
330
357
330
358
330
359
330
35A
330
35B
330
35C
330
35D
330
35E
330
35F
330
360
330
361
330
362
330
363
330
364
330
365
330
366
330
367
330
368
330
369
330
36A
330
36B
330
36C
330
36D
330
36E
330
36F
330
370
330
371
330
372
330
373
330
374
330
375
330
376
330
377
330
378
330
379
330
37A
330
37B
330
37C
330
37D
330
37E
330
37F
330
380
330
381
330
382
330
383
330
384
330
385
330
386
330
387
330
388
330
389
330
38A
330
38B
330
38C
330
38D
330
38E
330
38F
330
390
 92
1
 93
8
 72
2
 10
29.5020375666
 20
2.3699465389
 40
0.0024752071
 50
270.0004896793
 51
32.9089806817
 73
1
 72
1
 10
29.5041155889
 20
2.3712913339
 11
29.4968565848
 21
2.3825073401
 72
2
 10
29.494778044
 20
2.3811628806
 40
0.0024754602
 50
32.8959418574
 51
89.9875097203
 73
1
 72
1
 10
29.4947785837
 20
2.3836383408
 11
29.4885975803
 21
2.3836383408
 72
2
 10
29.48859751
 20
2.3811631405
 40
0.0024752003
 50
89.9983726451
 51
147.6021653071
 73
1
 72
1
 10
29.4865075791
 20
2.3824893401
 11
29.4793905752
 21
2.3712723339
 72
2
 10
29.481480467
 20
2.3699463719
 40
0.0024750401
 50
147.6063258012
 51
270.0025305754
 73
1
 72
1
 10
29.4814805763
 20
2.3674713318
 11
29.5020375877
 21
2.3674713318
 97
267
330
286
330
287
330
288
330
289
330
28A
330
28B
330
28C
330
28D
330
28E
330
28F
330
290
330
291
330
292
330
293
330
294
330
295
330
296
330
297
330
298
330
299
330
29A
330
29B
330
29C
330
29D
330
29E
330
29F
330
2A0
330
2A1
330
2A2
330
2A3
330
2A4
330
2A5
330
2A6
330
2A7
330
2A8
330
2A9
330
2AA
330
2AB
330
2AC
330
2AD
330
2AE
330
2AF
330
2B0
330
2B1
330
2B2
330
2B3
330
2B4
330
2B5
330
2B6
330
2B7
330
2B8
330
2B9
330
2BA
330
2BB
330
2BC
330
2BD
330
2BE
330
2BF
330
2C0
330
2C1
330
2C2
330
2C3
330
2C4
330
2C5
330
2C6
330
2C7
330
2C8
330
2C9
330
2CA
330
2CB
330
2CC
330
2CD
330
2CE
330
2CF
330
2D0
330
2D1
330
2D2
330
2D3
330
2D4
330
2D5
330
2D6
330
2D7
330
2D8
330
2D9
330
2DA
330
2DB
330
2DC
330
2DD
330
2DE
330
2DF
330
2E0
330
2E1
330
2E2
330
2E3
330
2E4
330
2E5
330
2E6
330
2E7
330
2E8
330
2E9
330
2EA
330
2EB
330
2EC
330
2ED
330
2EE
330
2EF
330
2F0
330
2F1
330
2F2
330
2F3
330
2F4
330
2F5
330
2F6
330
2F7
330
2F8
330
2F9
330
2FA
330
2FB
330
2FC
330
2FD
330
2FE
330
2FF
330
300
330
301
330
302
330
303
330
304
330
305
330
306
330
307
330
308
330
309
330
30A
330
30B
330
30C
330
30D
330
30E
330
30F
330
310
330
311
330
312
330
313
330
314
330
315
330
316
330
317
330
318
330
319
330
31A
330
31B
330
31C
330
31D
330
31E
330
31F
330
320
330
321
330
322
330
323
330
324
330
325
330
326
330
327
330
328
330
329
330
32A
330
32B
330
32C
330
32D
330
32E
330
32F
330
330
330
331
330
332
330
333
330
334
330
335
330
336
330
337
330
338
330
339
330
33A
330
33B
330
33C
330
33D
330
33E
330
33F
330
340
330
341
330
342
330
343
330
344
330
345
330
346
330
347
330
348
330
349
330
34A
330
34B
330
34C
330
34D
330
34E
330
34F
330
350
330
351
330
352
330
353
330
354
330
355
330
356
330
357
330
358
330
359
330
35A
330
35B
330
35C
330
35D
330
35E
330
35F
330
360
330
361
330
362
330
363
330
364
330
365
330
366
330
367
330
368
330
369
330
36A
330
36B
330
36C
330
36D
330
36E
330
36F
330
370
330
371
330
372
330
373
330
374
330
375
330
376
330
377
330
378
330
379
330
37A
330
37B
330
37C
330
37D
330
37E
330
37F
330
380
330
381
330
382
330
383
330
384
330
385
330
386
330
387
330
388
330
389
330
38A
330
38B
330
38C
330
38D
330
38E
330
38F
330
390
 92
1
 93
1
 72
3
 10
29.8665327899
 20
2.3572783261
 11
-0.8250004575
 21
0.0
 40
0.218572
 50
0.0
 51
360.0
 73
1
 97
267
330
286
330
287
330
288
330
289
330
28A
330
28B
330
28C
330
28D
330
28E
330
28F
330
290
330
291
330
292
330
293
330
294
330
295
330
296
330
297
330
298
330
299
330
29A
330
29B
330
29C
330
29D
330
29E
330
29F
330
2A0
330
2A1
330
2A2
330
2A3
330
2A4
330
2A5
330
2A6
330
2A7
330
2A8
330
2A9
330
2AA
330
2AB
330
2AC
330
2AD
330
2AE
330
2AF
330
2B0
330
2B1
330
2B2
330
2B3
330
2B4
330
2B5
330
2B6
330
2B7
330
2B8
330
2B9
330
2BA
330
2BB
330
2BC
330
2BD
330
2BE
330
2BF
330
2C0
330
2C1
330
2C2
330
2C3
330
2C4
330
2C5
330
2C6
330
2C7
330
2C8
330
2C9
330
2CA
330
2CB
330
2CC
330
2CD
330
2CE
330
2CF
330
2D0
330
2D1
330
2D2
330
2D3
330
2D4
330
2D5
330
2D6
330
2D7
330
2D8
330
2D9
330
2DA
330
2DB
330
2DC
330
2DD
330
2DE
330
2DF
330
2E0
330
2E1
330
2E2
330
2E3
330
2E4
330
2E5
330
2E6
330
2E7
330
2E8
330
2E9
330
2EA
330
2EB
330
2EC
330
2ED
330
2EE
330
2EF
330
2F0
330
2F1
330
2F2
330
2F3
330
2F4
330
2F5
330
2F6
330
2F7
330
2F8
330
2F9
330
2FA
330
2FB
330
2FC
330
2FD
330
2FE
330
2FF
330
300
330
301
330
302
330
303
330
304
330
305
330
306
330
307
330
308
330
309
330
30A
330
30B
330
30C
330
30D
330
30E
330
30F
330
310
330
311
330
312
330
313
330
314
330
315
330
316
330
317
330
318
330
319
330
31A
330
31B
330
31C
330
31D
330
31E
330
31F
330
320
330
321
330
322
330
323
330
324
330
325
330
326
330
327
330
328
330
329
330
32A
330
32B
330
32C
330
32D
330
32E
330
32F
330
330
330
331
330
332
330
333
330
334
330
335
330
336
330
337
330
338
330
339
330
33A
330
33B
330
33C
330
33D
330
33E
330
33F
330
340
330
341
330
342
330
343
330
344
330
345
330
346
330
347
330
348
330
349
330
34A
330
34B
330
34C
330
34D
330
34E
330
34F
330
350
330
351
330
352
330
353
330
354
330
355
330
356
330
357
330
358
330
359
330
35A
330
35B
330
35C
330
35D
330
35E
330
35F
330
360
330
361
330
362
330
363
330
364
330
365
330
366
330
367
330
368
330
369
330
36A
330
36B
330
36C
330
36D
330
36E
330
36F
330
370
330
371
330
372
330
373
330
374
330
375
330
376
330
377
330
378
330
379
330
37A
330
37B
330
37C
330
37D
330
37E
330
37F
330
380
330
381
330
382
330
383
330
384
330
385
330
386
330
387
330
388
330
389
330
38A
330
38B
330
38C
330
38D
330
38E
330
38F
330
390
 75
0
 76
1
 98
1
 10
0.0
 20
0.0
  0
LINE
  5
392
100
AcDbEntity
  8
0
100
AcDbLine
 62
7
  6
CONTINUOUS
 10
33.3524539446
 20
2.623495704
 11
27.0024539446
 21
2.623495704
  0
LINE
  5
393
100
AcDbEntity
  8
0
100
AcDbLine
 62
7
  6
CONTINUOUS
 10
28.7364976922
 20
0.8153979563
 11
28.1301066922
 21
0.8847909563
  0
LINE
  5
394
100
AcDbEntity
  8
0
100
AcDbLine
 62
7
  6
CONTINUOUS
 10
8.889879192
 20
21.3371139065
 11
8.889879192
 21
21.5871139065
  0
LINE
  5
395
100
AcDbEntity
  8
0
100
AcDbLine
 62
7
  6
CONTINUOUS
 10
8.8920367907
 20
0.701125727
 11
8.8920367907
 21
0.451125727
  0
LINE
  5
396
100
AcDbEntity
  8
0
100
AcDbLine
 62
7
  6
CONTINUOUS
 10
0.7364933212
 20
11.0250407989
 11
0.5864933212
 21
11.1116437989
  0
LINE
  5
397
100
AcDbEntity
  8
0
100
AcDbLine
 62
7
  6
CONTINUOUS
 10
17.0432003286
 20
21.3366775222
 11
17.1298033286
 21
21.4866775222
  0
LINE
  5
398
100
AcDbEntity
  8
0
100
AcDbLine
 62
7
  6
CONTINUOUS
 10
0.7364933212
 20
5.8588719767
 11
0.4864933212
 21
5.8588719767
  0
LINE
  5
399
100
AcDbEntity
  8
0
100
AcDbLine
 62
7
  6
CONTINUOUS
 10
33.3609986769
 20
5.8669213906
 11
33.6109986769
 21
5.8669213906
  0
LINE
  5
39A
100
AcDbEntity
  8
0
100
AcDbLine
 62
7
  6
CONTINUOUS
 10
17.1311228366
 20
0.5535279561
 11
17.044519919
 21
0.7035279135
  0
LINE
  5
39B
100
AcDbEntity
  8
0
100
AcDbLine
 62
7
  6
CONTINUOUS
 10
12.9686470768
 20
21.3361454131
 11
12.9686470768
 21
21.5861454131
  0
LINE
  5
39C
100
AcDbEntity
  8
0
100
AcDbLine
 62
7
  6
CONTINUOUS
 10
12.9686929482
 20
0.7036996999
 11
12.9686929482
 21
0.4536996999
  0
LINE
  5
39D
100
AcDbEntity
  8
0
100
AcDbLine
 62
7
  6
CONTINUOUS
 10
17.0434505532
 20
21.3371998727
 11
17.0434505532
 21
21.5871998727
  0
LINE
  5
39E
100
AcDbEntity
  8
0
100
AcDbLine
 62
7
  6
CONTINUOUS
 10
17.044519919
 20
0.7035279135
 11
17.044519919
 21
0.4535279135
  0
LINE
  5
39F
100
AcDbEntity
  8
0
100
AcDbLine
 62
7
  6
CONTINUOUS
 10
33.3505254366
 20
11.0229004107
 11
33.6005254366
 21
11.0229004107
  0
LINE
  5
3A0
100
AcDbEntity
  8
0
100
AcDbLine
 62
7
  6
CONTINUOUS
 10
0.7364933212
 20
11.0250407989
 11
0.4864933212
 21
11.0250407989
  0
LINE
  5
3A1
100
AcDbEntity
  8
0
100
AcDbLine
 62
7
  6
CONTINUOUS
 10
21.1216648563
 20
21.3366775222
 11
21.1216648563
 21
21.5866775222
  0
LINE
  5
3A2
100
AcDbEntity
  8
0
100
AcDbLine
 62
7
  6
CONTINUOUS
 10
21.123273272
 20
0.7029532451
 11
21.123273272
 21
0.4529532451
  0
LINE
  5
3A3
100
AcDbEntity
  8
0
100
AcDbLine
 62
7
  6
CONTINUOUS
 10
17.044519919
 20
0.7035279135
 11
16.957916919
 21
0.5535279135
  0
LINE
  5
3A4
100
AcDbEntity
  8
0
100
AcDbLine
 62
7
  6
CONTINUOUS
 10
33.3591947174
 20
16.1718388512
 11
33.6091947174
 21
16.1718388512
  0
LINE
  5
3A5
100
AcDbEntity
  8
0
100
AcDbLine
 62
7
  6
CONTINUOUS
 10
0.7307206509
 20
16.1796642805
 11
0.4807206509
 21
16.1796642805
  0
LINE
  5
3A6
100
AcDbEntity
  8
0
100
AcDbLine
 62
7
  6
CONTINUOUS
 10
16.9565973286
 20
21.4866775222
 11
17.0432003286
 21
21.3366775222
  0
LINE
  5
3A7
100
AcDbEntity
  8
0
100
AcDbLine
 62
7
  6
CONTINUOUS
 10
25.1978890403
 20
21.3360123859
 11
25.1978890403
 21
21.5860123859
  0
LINE
  5
3A8
100
AcDbEntity
  8
0
100
AcDbLine
 62
7
  6
CONTINUOUS
 10
25.1987539847
 20
0.7030140686
 11
25.1987539847
 21
0.4530140686
  0
LINE
  5
3A9
100
AcDbEntity
  8
0
100
AcDbLine
 62
7
  6
CONTINUOUS
 10
33.5005254366
 20
11.1095034107
 11
33.3505254366
 21
11.0229004107
  0
LINE
  5
3AA
100
AcDbEntity
  8
0
100
AcDbLine
 62
7
  6
CONTINUOUS
 10
33.3505254366
 20
11.0229004107
 11
33.5005254366
 21
10.9362974107
  0
LINE
  5
3AB
100
AcDbEntity
  8
0
100
AcDbLine
 62
7
  6
CONTINUOUS
 10
27.0024539446
 20
2.623495704
 11
27.0024539446
 21
0.703495704
  0
LINE
  5
3AC
100
AcDbEntity
  8
0
100
AcDbLine
 62
7
  6
CONTINUOUS
 10
27.5254366922
 20
0.9674889563
 11
27.5254366922
 21
0.7453979563
  0
LINE
  5
3AD
100
AcDbEntity
  8
0
100
AcDbLine
 62
7
  6
CONTINUOUS
 10
27.5254366922
 20
1.0174889563
 11
27.5254366922
 21
1.1174889563
  0
LINE
  5
3AE
100
AcDbEntity
  8
0
100
AcDbLine
 62
7
  6
CONTINUOUS
 10
27.5254366922
 20
1.1674889563
 11
27.5254366922
 21
1.3895799563
  0
LINE
  5
3AF
100
AcDbEntity
  8
0
100
AcDbLine
 62
7
  6
CONTINUOUS
 10
33.3519788796
 20
21.3366775222
 11
0.7364933212
 21
21.3366775222
  0
LINE
  5
3B0
100
AcDbEntity
  8
0
100
AcDbLine
 62
7
  6
CONTINUOUS
 10
17.1298033286
 20
21.4866775222
 11
16.9565973286
 21
21.4866775222
  0
LINE
  5
3B1
100
AcDbEntity
  8
0
100
AcDbLine
 62
7
  6
CONTINUOUS
 10
28.1301066922
 20
0.8847909563
 11
28.1301066922
 21
1.2501869563
  0
LINE
  5
3B2
100
AcDbEntity
  8
0
100
AcDbLine
 62
7
  6
CONTINUOUS
 10
28.7364976922
 20
1.3195799563
 11
28.7364976922
 21
0.8153979563
  0
LINE
  5
3B3
100
AcDbEntity
  8
0
100
AcDbLine
 62
7
  6
CONTINUOUS
 10
29.0024539446
 20
2.623495704
 11
29.0024539446
 21
0.703495704
  0
LINE
  5
3B4
100
AcDbEntity
  8
0
100
AcDbLine
 62
7
  6
CONTINUOUS
 10
29.2763246158
 20
0.7031465965
 11
29.2763246158
 21
0.4531465965
  0
LINE
  5
3B5
100
AcDbEntity
  8
0
100
AcDbLine
 62
7
  6
CONTINUOUS
 10
29.2763389625
 20
21.3354056718
 11
29.2763389625
 21
21.5854056718
  0
LINE
  5
3B6
100
AcDbEntity
  8
0
100
AcDbLine
 62
7
  6
CONTINUOUS
 10
29.8024539446
 20
1.323495704
 11
29.8024539446
 21
0.953495704
  0
LINE
  5
3B7
100
AcDbEntity
  8
0
100
AcDbLine
 62
7
  6
CONTINUOUS
 10
31.1774539446
 20
0.953495704
 11
31.1774539446
 21
0.703495704
  0
LINE
  5
3B8
100
AcDbEntity
  8
0
100
AcDbLine
 62
7
  6
CONTINUOUS
 10
32.5524539446
 20
1.323495704
 11
32.5524539446
 21
0.953495704
  0
LINE
  5
3B9
100
AcDbEntity
  8
0
100
AcDbLine
 62
7
  6
CONTINUOUS
 10
33.3519788796
 20
0.703495704
 11
33.3519788796
 21
21.3366775222
  0
LINE
  5
3BA
100
AcDbEntity
  8
0
100
AcDbLine
 62
7
  6
CONTINUOUS
 10
33.5005254366
 20
10.9362974107
 11
33.5005254366
 21
11.1095034107
  0
LINE
  5
3BB
100
AcDbEntity
  8
0
100
AcDbLine
 62
7
  6
CONTINUOUS
 10
8.0609538286
 20
11.7113926203
 11
8.0609538286
 21
12.6988926203
  0
LINE
  5
3BC
100
AcDbEntity
  8
0
100
AcDbLine
 62
7
  6
CONTINUOUS
 10
19.0309538286
 20
11.7113926203
 11
8.0609538286
 21
11.7113926203
  0
LINE
  5
3BD
100
AcDbEntity
  8
0
100
AcDbLine
 62
7
  6
CONTINUOUS
 10
19.0309538286
 20
12.5963926203
 11
8.0609538286
 21
12.5963926203
  0
LINE
  5
3BE
100
AcDbEntity
  8
0
100
AcDbLine
 62
7
  6
CONTINUOUS
 10
19.0309538286
 20
12.6988926203
 11
8.0609538286
 21
12.6988926203
  0
LINE
  5
3BF
100
AcDbEntity
  8
0
100
AcDbLine
 62
7
  6
CONTINUOUS
 10
19.0309538286
 20
11.7113926203
 11
19.0309538286
 21
12.6988926203
  0
LINE
  5
3C0
100
AcDbEntity
  8
0
100
AcDbLine
 62
7
  6
CONTINUOUS
 10
8.0609538286
 20
16.3699458032
 11
8.0609538286
 21
17.6299458032
  0
LINE
  5
3C1
100
AcDbEntity
  8
0
100
AcDbLine
 62
7
  6
CONTINUOUS
 10
19.0309538286
 20
16.3699458032
 11
8.0609538286
 21
16.3699458032
  0
LINE
  5
3C2
100
AcDbEntity
  8
0
100
AcDbLine
 62
7
  6
CONTINUOUS
 10
19.0309538286
 20
16.4724458032
 11
8.0609538286
 21
16.4724458032
  0
LINE
  5
3C3
100
AcDbEntity
  8
0
100
AcDbLine
 62
7
  6
CONTINUOUS
 10
19.0309538286
 20
17.5274458032
 11
8.0609538286
 21
17.5274458032
  0
LINE
  5
3C4
100
AcDbEntity
  8
0
100
AcDbLine
 62
7
  6
CONTINUOUS
 10
19.0309538286
 20
17.6299458032
 11
8.0609538286
 21
17.6299458032
  0
LINE
  5
3C5
100
AcDbEntity
  8
0
100
AcDbLine
 62
7
  6
CONTINUOUS
 10
19.0309538286
 20
16.3699458032
 11
19.0309538286
 21
17.6299458032
  0
LINE
  5
3C6
100
AcDbEntity
  8
0
100
AcDbLine
 62
7
  6
CONTINUOUS
 10
8.0609538286
 20
6.359
 11
8.0609538286
 21
7.619
  0
LINE
  5
3C7
100
AcDbEntity
  8
0
100
AcDbLine
 62
7
  6
CONTINUOUS
 10
10.8109538286
 20
6.4215
 11
10.8109538286
 21
6.484
  0
LINE
  5
3C8
100
AcDbEntity
  8
0
100
AcDbLine
 62
7
  6
CONTINUOUS
 10
10.8109538286
 20
7.494
 11
10.8109538286
 21
7.5565
  0
LINE
  5
3C9
100
AcDbEntity
  8
0
100
AcDbLine
 62
7
  6
CONTINUOUS
 10
19.0309538286
 20
6.359
 11
8.0609538286
 21
6.359
  0
LINE
  5
3CA
100
AcDbEntity
  8
0
100
AcDbLine
 62
7
  6
CONTINUOUS
 10
19.0309538286
 20
6.4215
 11
8.0609538286
 21
6.4215
  0
LINE
  5
3CB
100
AcDbEntity
  8
0
100
AcDbLine
 62
7
  6
CONTINUOUS
 10
19.0309538286
 20
6.4615
 11
16.2809538286
 21
6.4615
  0
LINE
  5
3CC
100
AcDbEntity
  8
0
100
AcDbLine
 62
7
  6
CONTINUOUS
 10
10.8109538286
 20
6.4615
 11
8.0609538286
 21
6.4615
  0
LINE
  5
3CD
100
AcDbEntity
  8
0
100
AcDbLine
 62
7
  6
CONTINUOUS
 10
16.2809538286
 20
6.484
 11
10.8109538286
 21
6.484
  0
LINE
  5
3CE
100
AcDbEntity
  8
0
100
AcDbLine
 62
7
  6
CONTINUOUS
 10
16.2809538286
 20
7.494
 11
10.8109538286
 21
7.494
  0
LINE
  5
3CF
100
AcDbEntity
  8
0
100
AcDbLine
 62
7
  6
CONTINUOUS
 10
19.0309538286
 20
7.5165
 11
16.2809538286
 21
7.5165
  0
LINE
  5
3D0
100
AcDbEntity
  8
0
100
AcDbLine
 62
7
  6
CONTINUOUS
 10
10.8109538286
 20
7.5165
 11
8.0609538286
 21
7.5165
  0
LINE
  5
3D1
100
AcDbEntity
  8
0
100
AcDbLine
 62
7
  6
CONTINUOUS
 10
19.0309538286
 20
7.5565
 11
8.0609538286
 21
7.5565
  0
LINE
  5
3D2
100
AcDbEntity
  8
0
100
AcDbLine
 62
7
  6
CONTINUOUS
 10
19.0309538286
 20
7.619
 11
8.0609538286
 21
7.619
  0
LINE
  5
3D3
100
AcDbEntity
  8
0
100
AcDbLine
 62
7
  6
CONTINUOUS
 10
16.2809538286
 20
6.4215
 11
16.2809538286
 21
6.484
  0
LINE
  5
3D4
100
AcDbEntity
  8
0
100
AcDbLine
 62
7
  6
CONTINUOUS
 10
16.2809538286
 20
7.494
 11
16.2809538286
 21
7.5565
  0
LINE
  5
3D5
100
AcDbEntity
  8
0
100
AcDbLine
 62
7
  6
CONTINUOUS
 10
19.0309538286
 20
6.359
 11
19.0309538286
 21
7.619
  0
LINE
  5
3D6
100
AcDbEntity
  8
0
100
AcDbLine
 62
7
  6
CONTINUOUS
 10
2.87
 20
12.5963926203
 11
2.87
 21
11.7113926203
  0
LINE
  5
3D7
100
AcDbEntity
  8
0
100
AcDbLine
 62
7
  6
CONTINUOUS
 10
2.9325
 20
12.5963926203
 11
2.9325
 21
11.7113926203
  0
LINE
  5
3D8
100
AcDbEntity
  8
0
100
AcDbLine
 62
7
  6
CONTINUOUS
 10
2.9725
 20
12.6988926203
 11
2.9725
 21
12.6363926203
  0
LINE
  5
3D9
100
AcDbEntity
  8
0
100
AcDbLine
 62
7
  6
CONTINUOUS
 10
2.995
 20
11.7113926203
 11
2.995
 21
11.9613926203
  0
LINE
  5
3DA
100
AcDbEntity
  8
0
100
AcDbLine
 62
7
  6
CONTINUOUS
 10
2.87
 20
11.7113926203
 11
2.995
 21
11.7113926203
  0
LINE
  5
3DB
100
AcDbEntity
  8
0
100
AcDbLine
 62
7
  6
CONTINUOUS
 10
4.005
 20
11.7113926203
 11
4.13
 21
11.7113926203
  0
LINE
  5
3DC
100
AcDbEntity
  8
0
100
AcDbLine
 62
7
  6
CONTINUOUS
 10
4.0675
 20
11.9613926203
 11
4.005
 21
11.9613926203
  0
LINE
  5
3DD
100
AcDbEntity
  8
0
100
AcDbLine
 62
7
  6
CONTINUOUS
 10
2.995
 20
11.9613926203
 11
2.9325
 21
11.9613926203
  0
LINE
  5
3DE
100
AcDbEntity
  8
0
100
AcDbLine
 62
7
  6
CONTINUOUS
 10
4.13
 20
12.5963926203
 11
4.0675
 21
12.5963926203
  0
LINE
  5
3DF
100
AcDbEntity
  8
0
100
AcDbLine
 62
7
  6
CONTINUOUS
 10
2.87
 20
12.5963926203
 11
2.9325
 21
12.5963926203
  0
LINE
  5
3E0
100
AcDbEntity
  8
0
100
AcDbLine
 62
7
  6
CONTINUOUS
 10
4.0275
 20
12.6363926203
 11
2.9725
 21
12.6363926203
  0
LINE
  5
3E1
100
AcDbEntity
  8
0
100
AcDbLine
 62
7
  6
CONTINUOUS
 10
4.005
 20
11.9613926203
 11
4.005
 21
11.7113926203
  0
LINE
  5
3E2
100
AcDbEntity
  8
0
100
AcDbLine
 62
7
  6
CONTINUOUS
 10
4.0275
 20
12.6988926203
 11
4.0275
 21
12.6363926203
  0
LINE
  5
3E3
100
AcDbEntity
  8
0
100
AcDbLine
 62
7
  6
CONTINUOUS
 10
4.0275
 20
12.6988926203
 11
2.9725
 21
12.6988926203
  0
LINE
  5
3E4
100
AcDbEntity
  8
0
100
AcDbLine
 62
7
  6
CONTINUOUS
 10
4.0675
 20
11.7113926203
 11
4.0675
 21
12.5963926203
  0
LINE
  5
3E5
100
AcDbEntity
  8
0
100
AcDbLine
 62
7
  6
CONTINUOUS
 10
4.13
 20
11.7113926203
 11
4.13
 21
12.5963926203
  0
LINE
  5
3E6
100
AcDbEntity
  8
0
100
AcDbLine
 62
7
  6
CONTINUOUS
 10
22.3291664251
 20
11.7113926203
 11
22.3291664251
 21
12.5963926203
  0
LINE
  5
3E7
100
AcDbEntity
  8
0
100
AcDbLine
 62
7
  6
CONTINUOUS
 10
22.3916664251
 20
11.7113926203
 11
22.3916664251
 21
12.5963926203
  0
LINE
  5
3E8
100
AcDbEntity
  8
0
100
AcDbLine
 62
7
  6
CONTINUOUS
 10
22.4316664251
 20
12.6988926203
 11
22.4316664251
 21
12.6363926203
  0
LINE
  5
3E9
100
AcDbEntity
  8
0
100
AcDbLine
 62
7
  6
CONTINUOUS
 10
22.4541664251
 20
11.9613926203
 11
22.4541664251
 21
11.7113926203
  0
LINE
  5
3EA
100
AcDbEntity
  8
0
100
AcDbLine
 62
7
  6
CONTINUOUS
 10
23.5891664251
 20
11.7113926203
 11
23.4641664251
 21
11.7113926203
  0
LINE
  5
3EB
100
AcDbEntity
  8
0
100
AcDbLine
 62
7
  6
CONTINUOUS
 10
22.3291664251
 20
11.7113926203
 11
22.4541664251
 21
11.7113926203
  0
LINE
  5
3EC
100
AcDbEntity
  8
0
100
AcDbLine
 62
7
  6
CONTINUOUS
 10
22.3916664251
 20
11.9613926203
 11
22.4541664251
 21
11.9613926203
  0
LINE
  5
3ED
100
AcDbEntity
  8
0
100
AcDbLine
 62
7
  6
CONTINUOUS
 10
23.4641664251
 20
11.9613926203
 11
23.5266664251
 21
11.9613926203
  0
LINE
  5
3EE
100
AcDbEntity
  8
0
100
AcDbLine
 62
7
  6
CONTINUOUS
 10
23.5891664251
 20
12.5963926203
 11
23.5266664251
 21
12.5963926203
  0
LINE
  5
3EF
100
AcDbEntity
  8
0
100
AcDbLine
 62
7
  6
CONTINUOUS
 10
22.3291664251
 20
12.5963926203
 11
22.3916664251
 21
12.5963926203
  0
LINE
  5
3F0
100
AcDbEntity
  8
0
100
AcDbLine
 62
7
  6
CONTINUOUS
 10
22.4316664251
 20
12.6363926203
 11
23.4866664251
 21
12.6363926203
  0
LINE
  5
3F1
100
AcDbEntity
  8
0
100
AcDbLine
 62
7
  6
CONTINUOUS
 10
23.4641664251
 20
11.7113926203
 11
23.4641664251
 21
11.9613926203
  0
LINE
  5
3F2
100
AcDbEntity
  8
0
100
AcDbLine
 62
7
  6
CONTINUOUS
 10
23.4866664251
 20
12.6988926203
 11
23.4866664251
 21
12.6363926203
  0
LINE
  5
3F3
100
AcDbEntity
  8
0
100
AcDbLine
 62
7
  6
CONTINUOUS
 10
22.4316664251
 20
12.6988926203
 11
23.4866664251
 21
12.6988926203
  0
LINE
  5
3F4
100
AcDbEntity
  8
0
100
AcDbLine
 62
7
  6
CONTINUOUS
 10
23.5266664251
 20
12.5963926203
 11
23.5266664251
 21
11.7113926203
  0
LINE
  5
3F5
100
AcDbEntity
  8
0
100
AcDbLine
 62
7
  6
CONTINUOUS
 10
23.5891664251
 20
12.5963926203
 11
23.5891664251
 21
11.7113926203
  0
LINE
  5
3F6
100
AcDbEntity
  8
0
100
AcDbLine
 62
7
  6
CONTINUOUS
 10
30.3140789566
 20
6.4625416909
 11
30.4705256806
 21
6.5528657099
  0
LINE
  5
3F7
100
AcDbEntity
  8
0
100
AcDbLine
 62
7
  6
CONTINUOUS
 10
30.3251275461
 20
6.4561629291
 11
30.48157427
 21
6.5464869481
  0
LINE
  5
3F8
100
AcDbEntity
  8
0
100
AcDbLine
 62
7
  6
CONTINUOUS
 10
30.3140791075
 20
6.4416192651
 11
30.3251276049
 21
6.44799808
  0
LINE
  5
3F9
100
AcDbEntity
  8
0
100
AcDbLine
 62
7
  6
CONTINUOUS
 10
30.5005792975
 20
4.0946878871
 11
30.3140791075
 21
4.2023613861
  0
LINE
  5
3FA
100
AcDbEntity
  8
0
100
AcDbLine
 62
7
  6
CONTINUOUS
 10
30.5005792975
 20
6.3339457661
 11
30.5116277949
 21
6.340324581
  0
LINE
  5
3FB
100
AcDbEntity
  8
0
100
AcDbLine
 62
7
  6
CONTINUOUS
 10
30.6822166546
 20
6.430648634
 11
30.5257699306
 21
6.340324615
  0
LINE
  5
3FC
100
AcDbEntity
  8
0
100
AcDbLine
 62
7
  6
CONTINUOUS
 10
30.693265244
 20
6.4242698722
 11
30.53681852
 21
6.3339458532
  0
LINE
  5
3FD
100
AcDbEntity
  8
0
100
AcDbLine
 62
7
  6
CONTINUOUS
 10
30.3065736433
 20
6.4520805215
 11
30.3065736433
 21
4.2128226425
  0
LINE
  5
3FE
100
AcDbEntity
  8
0
100
AcDbLine
 62
7
  6
CONTINUOUS
 10
30.3140791075
 20
6.4416192651
 11
30.3140791075
 21
4.2023613861
  0
LINE
  5
3FF
100
AcDbEntity
  8
0
100
AcDbLine
 62
7
  6
CONTINUOUS
 10
30.3251275461
 20
6.4561629291
 11
30.3251275461
 21
6.44799808
  0
LINE
  5
400
100
AcDbEntity
  8
0
100
AcDbLine
 62
7
  6
CONTINUOUS
 10
30.48157427
 20
6.5464869481
 11
30.48157427
 21
6.3576755991
  0
LINE
  5
401
100
AcDbEntity
  8
0
100
AcDbLine
 62
7
  6
CONTINUOUS
 10
30.5005792975
 20
6.3339457661
 11
30.5005792975
 21
4.0946878871
  0
LINE
  5
402
100
AcDbEntity
  8
0
100
AcDbLine
 62
7
  6
CONTINUOUS
 10
30.53681852
 20
6.3339458532
 11
30.53681852
 21
4.0946879742
  0
LINE
  5
403
100
AcDbEntity
  8
0
100
AcDbLine
 62
7
  6
CONTINUOUS
 10
30.693265244
 20
6.4242698722
 11
30.693265244
 21
4.1850119932
  0
LINE
  5
404
100
AcDbEntity
  8
0
100
AcDbLine
 62
7
  6
CONTINUOUS
 10
30.5005792975
 20
6.3339457661
 11
30.3140791075
 21
6.4416192651
  0
LINE
  5
405
100
AcDbEntity
  8
0
100
AcDbLine
 62
7
  6
CONTINUOUS
 10
30.5116277949
 20
6.340324581
 11
30.3251276049
 21
6.44799808
  0
LINE
  5
406
100
AcDbEntity
  8
0
100
AcDbLine
 62
7
  6
CONTINUOUS
 10
30.53681852
 20
6.3339458532
 11
30.5257699306
 21
6.340324615
  0
LINE
  5
407
100
AcDbEntity
  8
0
100
AcDbLine
 62
7
  6
CONTINUOUS
 10
30.3140789566
 20
6.4625416909
 11
30.3251275461
 21
6.4561629291
  0
LINE
  5
408
100
AcDbEntity
  8
0
100
AcDbLine
 62
7
  6
CONTINUOUS
 10
30.693265244
 20
4.1850119932
 11
30.53681852
 21
4.0946879742
  0
LINE
  5
409
100
AcDbEntity
  8
0
100
AcDbLine
 62
7
  6
CONTINUOUS
 10
30.693265244
 20
6.4242698722
 11
30.6822166546
 21
6.430648634
  0
LINE
  5
40A
100
AcDbEntity
  8
0
100
AcDbLine
 62
7
  6
CONTINUOUS
 10
30.4705256806
 20
6.5528657099
 11
30.48157427
 21
6.5464869481
  0
CIRCLE
  5
40B
100
AcDbEntity
  8
0
100
AcDbCircle
 62
7
  6
CONTINUOUS
 10
27.5254366922
 20
1.0674889563
 40
0.252091
  0
CIRCLE
  5
40C
100
AcDbEntity
  8
0
100
AcDbCircle
 62
7
  6
CONTINUOUS
 10
27.5254366922
 20
1.0674889563
 40
0.182698
  0
CIRCLE
  5
40D
100
AcDbEntity
  8
0
100
AcDbCircle
 62
7
  6
CONTINUOUS
 10
27.0942092
 20
1.8024187226
 40
0.0638444824
  0
ARC
  5
40E
100
AcDbEntity
  8
0
100
AcDbCircle
 62
7
  6
CONTINUOUS
 10
4.0275
 20
12.5963926203
 40
0.1025
100
AcDbArc
 50
0.0
 51
90.0
  0
ARC
  5
40F
100
AcDbEntity
  8
0
100
AcDbCircle
 62
7
  6
CONTINUOUS
 10
2.9725
 20
12.5963926203
 40
0.1025
100
AcDbArc
 50
90.0
 51
180.0
  0
ARC
  5
410
100
AcDbEntity
  8
0
100
AcDbCircle
 62
7
  6
CONTINUOUS
 10
4.0275
 20
12.5963926203
 40
0.04
100
AcDbArc
 50
0.0
 51
90.0
  0
ARC
  5
411
100
AcDbEntity
  8
0
100
AcDbCircle
 62
7
  6
CONTINUOUS
 10
2.9725
 20
12.5963926203
 40
0.04
100
AcDbArc
 50
90.0
 51
180.0
  0
ARC
  5
412
100
AcDbEntity
  8
0
100
AcDbCircle
 62
7
  6
CONTINUOUS
 10
22.4316664251
 20
12.5963926203
 40
0.1025
100
AcDbArc
 50
90.0
 51
180.0
  0
ARC
  5
413
100
AcDbEntity
  8
0
100
AcDbCircle
 62
7
  6
CONTINUOUS
 10
23.4866664251
 20
12.5963926203
 40
0.1025
100
AcDbArc
 50
0.0
 51
90.0
  0
ARC
  5
414
100
AcDbEntity
  8
0
100
AcDbCircle
 62
7
  6
CONTINUOUS
 10
22.4316664251
 20
12.5963926203
 40
0.04
100
AcDbArc
 50
90.0
 51
180.0
  0
ARC
  5
415
100
AcDbEntity
  8
0
100
AcDbCircle
 62
7
  6
CONTINUOUS
 10
23.4866664251
 20
12.5963926203
 40
0.04
100
AcDbArc
 50
0.0
 51
90.0
  0
SPLINE
  5
416
100
AcDbEntity
  8
0
100
AcDbSpline
 62
7
  6
CONTINUOUS
 70
0
 71
3
 72
11
 73
7
 74
0
 42
0.0000001
 43
0.0000001
 44
0.0000000001
 40
0.0
 40
0.0
 40
0.0
 40
0.0
 40
0.2897738312
 40
0.5490663695
 40
0.7822246262
 40
1.0
 40
1.0
 40
1.0
 40
1.0
 10
30.3251276049
 20
6.44799808
 30
0.0
 10
30.3246887022
 20
6.4482514749
 30
0.0
 10
30.3238925184
 20
6.4487996129
 30
0.0
 10
30.3229412753
 20
6.4497997111
 30
0.0
 10
30.3223393537
 20
6.450905683
 30
0.0
 10
30.32219869
 20
6.4516996446
 30
0.0
 10
30.32219869
 20
6.4520805216
 30
0.0
  0
SPLINE
  5
417
100
AcDbEntity
  8
0
100
AcDbSpline
 62
7
  6
CONTINUOUS
 70
0
 71
3
 72
11
 73
7
 74
0
 42
0.0000001
 43
0.0000001
 44
0.0000000001
 40
0.0
 40
0.0
 40
0.0
 40
0.0
 40
0.2372244142
 40
0.4999994739
 40
0.7627748199
 40
1.0
 40
1.0
 40
1.0
 40
1.0
 10
30.5257699306
 20
6.340324615
 30
0.0
 10
30.5247661039
 20
6.3397450588
 30
0.0
 10
30.5224315933
 20
6.3388992261
 30
0.0
 10
30.5186988739
 20
6.3384940493
 30
0.0
 10
30.5149661488
 20
6.3388992091
 30
0.0
 10
30.512631629
 20
6.3397450302
 30
0.0
 10
30.5116277949
 20
6.340324581
 30
0.0
  0
SPLINE
  5
418
100
AcDbEntity
  8
0
100
AcDbSpline
 62
7
  6
CONTINUOUS
 70
0
 71
3
 72
11
 73
7
 74
0
 42
0.0000001
 43
0.0000001
 44
0.0000000001
 40
0.0
 40
0.0
 40
0.0
 40
0.0
 40
0.2177758347
 40
0.450934284
 40
0.7102266494
 40
1.0
 40
1.0
 40
1.0
 40
1.0
 10
30.32219869
 20
6.4520805216
 30
0.0
 10
30.32219869
 20
6.4524613946
 30
0.0
 10
30.3223393505
 20
6.4532553469
 30
0.0
 10
30.3229412591
 20
6.454361308
 30
0.0
 10
30.3238924828
 20
6.4553613988
 30
0.0
 10
30.3246886515
 20
6.4559095347
 30
0.0
 10
30.3251275461
 20
6.4561629291
 30
0.0
  0
SPLINE
  5
419
100
AcDbEntity
  8
0
100
AcDbSpline
 62
7
  6
CONTINUOUS
 70
0
 71
3
 72
11
 73
7
 74
0
 42
0.0000001
 43
0.0000001
 44
0.0000000001
 40
0.0
 40
0.0
 40
0.0
 40
0.0
 40
0.2177758347
 40
0.450934284
 40
0.7102266494
 40
1.0
 40
1.0
 40
1.0
 40
1.0
 10
30.306573763
 20
6.4520805218
 30
0.0
 10
30.306573763
 20
6.4530565087
 30
0.0
 10
30.3069342056
 20
6.4550910116
 30
0.0
 10
30.3084765964
 20
6.457925037
 30
0.0
 10
30.3109141071
 20
6.4604877696
 30
0.0
 10
30.3129542894
 20
6.4618923678
 30
0.0
 10
30.3140789566
 20
6.4625416909
 30
0.0
  0
SPLINE
  5
41A
100
AcDbEntity
  8
0
100
AcDbSpline
 62
7
  6
CONTINUOUS
 70
0
 71
3
 72
11
 73
7
 74
0
 42
0.0000001
 43
0.0000001
 44
0.0000000001
 40
0.0
 40
0.0
 40
0.0
 40
0.0
 40
0.2897738312
 40
0.5490663695
 40
0.7822246262
 40
1.0
 40
1.0
 40
1.0
 40
1.0
 10
30.3140791075
 20
4.2023613861
 30
0.0
 10
30.3129544192
 20
4.2030107105
 30
0.0
 10
30.3109141981
 20
4.2044153141
 30
0.0
 10
30.3084766378
 20
4.2069780659
 30
0.0
 10
30.3069342137
 20
4.2098121189
 30
0.0
 10
30.306573763
 20
4.2118466453
 30
0.0
 10
30.306573763
 20
4.2128226428
 30
0.0
  0
SPLINE
  5
41B
100
AcDbEntity
  8
0
100
AcDbSpline
 62
7
  6
CONTINUOUS
 70
0
 71
3
 72
11
 73
7
 74
0
 42
0.0000001
 43
0.0000001
 44
0.0000000001
 40
0.0
 40
0.0
 40
0.0
 40
0.0
 40
0.2372244142
 40
0.4999994739
 40
0.7627748199
 40
1.0
 40
1.0
 40
1.0
 40
1.0
 10
30.53681852
 20
4.0946879742
 30
0.0
 10
30.5342462143
 20
4.0932028617
 30
0.0
 10
30.5282640307
 20
4.0910354154
 30
0.0
 10
30.5186989372
 20
4.0899971496
 30
0.0
 10
30.5091338294
 20
4.0910353717
 30
0.0
 10
30.5031516222
 20
4.0932027883
 30
0.0
 10
30.5005792975
 20
4.0946878871
 30
0.0
  0
SPLINE
  5
41C
100
AcDbEntity
  8
0
100
AcDbSpline
 62
7
  6
CONTINUOUS
 70
0
 71
3
 72
11
 73
7
 74
0
 42
0.0000001
 43
0.0000001
 44
0.0000000001
 40
0.0
 40
0.0
 40
0.0
 40
0.0
 40
0.2897738312
 40
0.5490663695
 40
0.7822246262
 40
1.0
 40
1.0
 40
1.0
 40
1.0
 10
30.3140791075
 20
6.4416192651
 30
0.0
 10
30.3129544192
 20
6.4422685895
 30
0.0
 10
30.3109141981
 20
6.4436731931
 30
0.0
 10
30.3084766378
 20
6.4462359448
 30
0.0
 10
30.3069342137
 20
6.4490699978
 30
0.0
 10
30.306573763
 20
6.4511045243
 30
0.0
 10
30.306573763
 20
6.4520805218
 30
0.0
  0
SPLINE
  5
41D
100
AcDbEntity
  8
0
100
AcDbSpline
 62
7
  6
CONTINUOUS
 70
0
 71
3
 72
11
 73
7
 74
0
 42
0.0000001
 43
0.0000001
 44
0.0000000001
 40
0.0
 40
0.0
 40
0.0
 40
0.0
 40
0.2372244142
 40
0.4999994739
 40
0.7627748199
 40
1.0
 40
1.0
 40
1.0
 40
1.0
 10
30.53681852
 20
6.3339458532
 30
0.0
 10
30.5342462143
 20
6.3324607406
 30
0.0
 10
30.5282640307
 20
6.3302932943
 30
0.0
 10
30.5186989372
 20
6.3292550286
 30
0.0
 10
30.5091338294
 20
6.3302932507
 30
0.0
 10
30.5031516222
 20
6.3324606673
 30
0.0
 10
30.5005792975
 20
6.3339457661
 30
0.0
  0
ENDSEC
  0
SECTION
  2
OBJECTS
  0
DICTIONARY
  5
C
100
AcDbDictionary
280
0
281
1
  3
ACAD_GROUP
350
D
  3
ACAD_MLINESTYLE
350
17
  3
ACAD_LAYOUT
350
1A
  3
ACAD_PLOTSETTINGS
350
19
  3
ACAD_PLOTSTYLENAME
350
E
  3
ACAD_TABLESTYLE
350
       41E
  0
DICTIONARY
  5
D
102
{ACAD_REACTORS
330
C
102
}
100
AcDbDictionary
280
0
281
1
  0
ACDBDICTIONARYWDFLT
  5
E
102
{ACAD_REACTORS
330
C
102
}
100
AcDbDictionary
281
1
  3
Normal
350
F
100
AcDbDictionaryWithDefault
340
F
  0
DICTIONARY
  5
17
102
{ACAD_REACTORS
330
C
102
}
100
AcDbDictionary
280
0
281
1
  3
Standard
350
18
  0
DICTIONARY
  5
41E
330
C
100
AcDbDictionary
281
1
  3
Standard
350
       421
  3
Standard1
350
       422
  0
DICTIONARY
  5
19
102
{ACAD_REACTORS
330
C
102
}
100
AcDbDictionary
281
1
  0
DICTIONARY
  5
1A
102
{ACAD_REACTORS
330
C
102
}
100
AcDbDictionary
281
1
  3
Model
350
41F
  3
Layout1
350
420
  0
ACDBPLACEHOLDER
  5
F
102
{ACAD_REACTORS
330
E
102
}
  0
MLINESTYLE
  5
18
102
{ACAD_REACTORS
330
17
102
}
100
AcDbMlineStyle
  2
STANDARD
 70
0
  3

 62
256
 51
90.0
 52
90.0
 71
2
 49
0.5
 62
256
  6
BYLAYER
 49
-0.5
 62
256
  6
BYLAYER
  0
LAYOUT
  5
41F
102
{ACAD_REACTORS
330
1A
102
}
100
AcDbPlotSettings
  1

  2
none_device
  4
ANSI_D_(34.00_x_22.00_Inches)
  6

 40
0.0
 41
0.0
 42
0.0
 43
0.0
 44
863.6
 45
558.8
 46
0.0
 47
0.0
 48
0.0
 49
0.0
140
0.0
141
0.0
142
1.0
143
1.0
 70
1024
 72
0
 73
0
 74
0
  7

 75
0
147
1.0
148
0.0
149
0.0
100
AcDbLayout
  1
Model
 70
0
 71
0
 10
0.0
 20
0.0
 11
34.0
 21
22.0
 12
0.0
 22
0.0
 32
0.0
 14
0.0
 24
0.0
 34
0.0
 15
0.0
 25
0.0
 35
0.0
146
0.0
 13
0.0
 23
0.0
 33
0.0
 16
1.0
 26
0.0
 36
0.0
 17
0.0
 27
1.0
 37
0.0
 76
0
330
209
345
0
346
0
  0
LAYOUT
  5
420
102
{ACAD_REACTORS
330
1A
102
}
100
AcDbPlotSettings
  1

  2
none_device
  4
ANSI_D_(34.00_x_22.00_Inches)
  6

 40
0.0
 41
0.0
 42
0.0
 43
0.0
 44
863.6
 45
558.8
 46
0.0
 47
0.0
 48
0.0
 49
0.0
140
0.0
141
0.0
142
1.0
143
1.0
 70
0
 72
0
 73
0
 74
0
  7

 75
0
147
1.0
148
0.0
149
0.0
100
AcDbLayout
  1
Layout1
 70
0
 71
1
 10
0.0
 20
0.0
 11
34.0
 21
22.0
 12
0.0
 22
0.0
 32
0.0
 14
0.0
 24
0.0
 34
0.0
 15
0.0
 25
0.0
 35
0.0
146
0.0
 13
0.0
 23
0.0
 33
0.0
 16
1.0
 26
0.0
 36
0.0
 17
0.0
 27
1.0
 37
0.0
 76
0
330
20A
345
0
346
0
  0
TABLESTYLE
  5
421
102
{ACAD_REACTORS
330
41E
102
}
330
41E
100
AcDbTableStyle
  3
Standard
 70
0
 71
0
 40
0.06
 41
0.06
280
1
281
1
  7
Standard
140
0.18
170
1
 62
0
 63
7
283
0
  7
Standard
140
0.18
170
1
 62
0
 63
7
283
0
  7
Standard
140
0.18
170
1
 62
0
 63
7
283
0
  0
TABLESTYLE
  5
422
102
{ACAD_REACTORS
330
41E
330
272
102
}
330
41E
100
AcDbTableStyle
  3
Standard1
 70
1
 71
0
 40
0.06
 41
0.06
280
1
281
1
  7
Standard
140
0.18
170
1
 62
0
 63
7
283
0
  7
Standard
140
0.18
170
1
 62
0
 63
7
283
0
  7
Standard
140
0.18
170
1
 62
0
 63
7
283
0
  0
ENDSEC
  0
EOF
