999
DXF file: 189932_1.dxf
999
Pro/ENGINEER 2013230 by Parametric Technology Corporation
  0
SECTION
  2
HEADER
  9
$ACADVER
  1
AC1018
  9
$DWGCODEPAGE
  3
ANSI_1252
  9
$EXTMAX
 10
17.0
 20
11.0
 30
0.0
  9
$EXTMIN
 10
0.0
 20
0.0
 30
0.0
  9
$LIMMIN
 10
0.0
 20
0.0
  9
$LIMMAX
 10
17.0
 20
11.0
  9
$VIEWCTR
 10
8.5
 20
5.5
  9
$VIEWSIZE
 40
11.0
  9
$CLAYER
  8
0
  9
$LTSCALE
 40
0.935
  9
$CELTYPE
  6
BYLAYER
  9
$DIMSCALE
 40
1.0
  9
$DIMASZ
 40
0.1875
  9
$DIMEXO
 40
0.0625
  9
$DIMDLI
 40
0.646
  9
$DIMEXE
 40
0.125
  9
$DIMCEN
 40
0.153
  9
$DIMLFAC
 40
1.0
  9
$DIMBLK
  1
_FILLED
  9
$DIMTXT
 40
0.1
  9
$DIMTOL
 70
1
  9
$DIMLIM
 70
0
  9
$DIMTFAC
 40
1.0
  9
$DIMTP
 40
0.01
  9
$DIMTM
 40
0.01
  9
$DIMGAP
 40
0.09
  9
$DIMDSEP
 70
46
  9
$PDMODE
 70
3
  9
$PDSIZE
 40
0.3125
  9
$HANDSEED
  5
6EB
  9
$TILEMODE
 70
1
  9
$MEASUREMENT
 70
0
  9
$INSUNITS
 70
1
  0
ENDSEC
  0
SECTION
  2
CLASSES
  0
CLASS
  1
ACDBDICTIONARYWDFLT
  2
AcDbDictionaryWithDefault
  3
AutoCAD 2000
 90
0
 91
1
280
0
281
0
  0
CLASS
  1
ACDBPLACEHOLDER
  2
AcDbPlaceHolder
  3
AutoCAD 2000
 90
0
 91
1
280
0
281
0
  0
CLASS
  1
LAYOUT
  2
AcDbLayout
  3
AutoCAD 2000
 90
0
 91
0
280
0
281
0
  0
CLASS
  1
TABLESTYLE
  2
AcDbTableStyle
  3
ObjectDBX Classes
 90
2047
 91
1
280
0
281
0
  0
CLASS
  1
ACAD_TABLE
  2
AcDbTable
  3
ObjectDBX Classes
 90
1025
 91
1
280
0
281
1
  0
ENDSEC
  0
SECTION
  2
TABLES
  0
TABLE
  2
VPORT
  5
8
100
AcDbSymbolTable
 70
2
  0
VPORT
  5
1F4
100
AcDbSymbolTableRecord
100
AcDbViewportTableRecord
  2
*ACTIVE
 70
0
 10
0.0
 20
0.0
 11
1.0
 21
1.0
 12
8.5
 22
5.5
 13
0.0
 23
0.0
 14
1.0
 24
1.0
 15
0.0
 25
0.0
 16
0.0
 26
0.0
 36
1.0
 17
0.0
 27
0.0
 37
0.0
 40
11.0
 41
1.5454545455
 42
50.0
 43
0.0
 44
0.0
 50
0.0
 51
0.0
 71
0
 72
100
 73
1
 74
1
 75
0
 76
0
 77
0
 78
0
  0
ENDTAB
  0
TABLE
  2
LTYPE
  5
5
100
AcDbSymbolTable
 70
6
  0
LTYPE
  5
14
100
AcDbSymbolTableRecord
100
AcDbLinetypeTableRecord
  2
BYBLOCK
 70
0
  3

 72
65
 73
0
 40
0.0
  0
LTYPE
  5
15
100
AcDbSymbolTableRecord
100
AcDbLinetypeTableRecord
  2
BYLAYER
 70
0
  3

 72
65
 73
0
 40
0.0
  0
LTYPE
  5
16
100
AcDbSymbolTableRecord
100
AcDbLinetypeTableRecord
  2
CONTINUOUS
 70
64
  3
Solid line
 72
65
 73
0
 40
0.0
  0
LTYPE
  5
1F5
100
AcDbSymbolTableRecord
100
AcDbLinetypeTableRecord
  2
CENTER
 70
64
  3
____ _ ____ _ ____ _ ____ _ ____ _ ____ _ ____
 72
65
 73
4
 40
0.6
 49
0.375
 74
0
 49
-0.075
 74
0
 49
0.075
 74
0
 49
-0.075
 74
0
  0
LTYPE
  5
1F6
100
AcDbSymbolTableRecord
100
AcDbLinetypeTableRecord
  2
HIDDEN
 70
64
  3
- - - - - - - - - - - - - - - - - - - -
 72
65
 73
2
 40
0.2
 49
0.1
 74
0
 49
-0.1
 74
0
  0
LTYPE
  5
1F7
100
AcDbSymbolTableRecord
100
AcDbLinetypeTableRecord
  2
PHANTOM
 70
64
  3
_____ _ _ _____ _ _ _____ _ _ _____
 72
65
 73
6
 40
0.8
 49
0.45
 74
0
 49
-0.05
 74
0
 49
0.1
 74
0
 49
-0.05
 74
0
 49
0.1
 74
0
 49
-0.05
 74
0
  0
LTYPE
  5
1F8
100
AcDbSymbolTableRecord
100
AcDbLinetypeTableRecord
  2
DOT
 70
64
  3
. . . . . . . . . . . . . . . . . . . .
 72
65
 73
2
 40
0.2
 49
0.1
 74
0
 49
-0.1
 74
0
  0
LTYPE
  5
1F9
100
AcDbSymbolTableRecord
100
AcDbLinetypeTableRecord
  2
DASHED
 70
64
  3
- - - - - - - - - - - - - - - - - - - -
 72
65
 73
2
 40
0.2
 49
0.1
 74
0
 49
-0.1
 74
0
  0
ENDTAB
  0
TABLE
  2
LAYER
  5
2
100
AcDbSymbolTable
 70
36
  0
LAYER
  5
10
100
AcDbSymbolTableRecord
100
AcDbLayerTableRecord
  2
0
 70
0
 62
7
  6
CONTINUOUS
370
-3
390
F
  0
LAYER
  5
1FA
100
AcDbSymbolTableRecord
100
AcDbLayerTableRecord
  2
DEFAULT_1
 70
0
 62
7
  6
CENTER
370
-3
390
F
  0
LAYER
  5
1FB
100
AcDbSymbolTableRecord
100
AcDbLayerTableRecord
  2
DEFAULT_2
 70
0
 62
7
  6
HIDDEN
370
-3
390
F
  0
LAYER
  5
1FC
100
AcDbSymbolTableRecord
100
AcDbLayerTableRecord
  2
DEFAULT_3
 70
0
 62
7
  6
PHANTOM
370
-3
390
F
  0
LAYER
  5
1FD
100
AcDbSymbolTableRecord
100
AcDbLayerTableRecord
  2
1_ALL_PLANES
 70
0
 62
7
  6
CONTINUOUS
370
-3
390
F
  0
LAYER
  5
1FE
100
AcDbSymbolTableRecord
100
AcDbLayerTableRecord
  2
3_ALL_AXES
 70
0
 62
7
  6
CONTINUOUS
370
-3
390
F
  0
LAYER
  5
1FF
100
AcDbSymbolTableRecord
100
AcDbLayerTableRecord
  2
7_ALL_FEATURES
 70
0
 62
7
  6
CONTINUOUS
370
-3
390
F
  0
LAYER
  5
200
100
AcDbSymbolTableRecord
100
AcDbLayerTableRecord
  2
AXIS
 70
0
 62
7
  6
CONTINUOUS
370
-3
390
F
  0
LAYER
  5
201
100
AcDbSymbolTableRecord
100
AcDbLayerTableRecord
  2
AXIS_COSMETIC_THREADS
 70
0
 62
7
  6
CONTINUOUS
370
-3
390
F
  0
LAYER
  5
202
100
AcDbSymbolTableRecord
100
AcDbLayerTableRecord
  2
DATUM_CURVES
 70
0
 62
7
  6
CONTINUOUS
370
-3
390
F
  0
LAYER
  5
203
100
AcDbSymbolTableRecord
100
AcDbLayerTableRecord
  2
DATUM_PLANES
 70
0
 62
7
  6
CONTINUOUS
370
-3
390
F
  0
LAYER
  5
204
100
AcDbSymbolTableRecord
100
AcDbLayerTableRecord
  2
DRIVEN_DIMS
 70
0
 62
7
  6
CONTINUOUS
370
-3
390
F
  0
LAYER
  5
205
100
AcDbSymbolTableRecord
100
AcDbLayerTableRecord
  2
NOTES
 70
0
 62
7
  6
CONTINUOUS
370
-3
390
F
  0
LAYER
  5
206
100
AcDbSymbolTableRecord
100
AcDbLayerTableRecord
  2
QUILTS
 70
0
 62
7
  6
CONTINUOUS
370
-3
390
F
  0
LAYER
  5
207
100
AcDbSymbolTableRecord
100
AcDbLayerTableRecord
  2
SCHEME_DIMS
 70
0
 62
7
  6
CONTINUOUS
370
-3
390
F
  0
LAYER
  5
208
100
AcDbSymbolTableRecord
100
AcDbLayerTableRecord
  2
SYMBOLS
 70
0
 62
7
  6
CONTINUOUS
370
-3
390
F
  0
ENDTAB
  0
TABLE
  2
STYLE
  5
3
100
AcDbSymbolTable
 70
1
  0
STYLE
  5
11
100
AcDbSymbolTableRecord
100
AcDbTextStyleTableRecord
  2
STANDARD
 70
0
 40
0.0
 41
1.0
 50
0.0
 71
0
 42
0.2
  3
txt
  4

  0
STYLE
  5
209
100
AcDbSymbolTableRecord
100
AcDbTextStyleTableRecord
  2
TEXTSTYLE_1
 70
0
 40
0.0
 41
0.8
 50
0.0
 71
0
 42
0.2
  3
gdt
  4

  0
STYLE
  5
20A
100
AcDbSymbolTableRecord
100
AcDbTextStyleTableRecord
  2
TEXTSTYLE_2
 70
0
 40
0.0
 41
0.8
 50
0.0
 71
0
 42
0.2
  3
txt
  4

  0
STYLE
  5
20B
100
AcDbSymbolTableRecord
100
AcDbTextStyleTableRecord
  2
TEXTSTYLE_3
 70
0
 40
0.0
 41
0.85
 50
0.0
 71
0
 42
0.2
  3
txt
  4

  0
STYLE
  5
20C
100
AcDbSymbolTableRecord
100
AcDbTextStyleTableRecord
  2
TEXTSTYLE_4
 70
0
 40
0.0
 41
0.92
 50
0.0
 71
0
 42
0.2
  3
txt
  4

  0
STYLE
  5
20D
100
AcDbSymbolTableRecord
100
AcDbTextStyleTableRecord
  2
TEXTSTYLE_5
 70
0
 40
0.0
 41
1.0
 50
0.0
 71
0
 42
0.2
  3
gdt
  4

  0
ENDTAB
  0
TABLE
  2
VIEW
  5
6
100
AcDbSymbolTable
 70
0
  0
ENDTAB
  0
TABLE
  2
UCS
  5
7
100
AcDbSymbolTable
 70
0
  0
ENDTAB
  0
TABLE
  2
APPID
  5
9
100
AcDbSymbolTable
 70
1
  0
APPID
  5
20E
100
AcDbSymbolTableRecord
100
AcDbRegAppTableRecord
  2
ACAD
 70
0
  0
ENDTAB
  0
TABLE
  2
BLOCK_RECORD
  5
1
100
AcDbSymbolTable
 70
0
  0
BLOCK_RECORD
  5
20F
100
AcDbSymbolTableRecord
100
AcDbBlockTableRecord
  2
*Model_Space
  0
BLOCK_RECORD
  5
210
100
AcDbSymbolTableRecord
100
AcDbBlockTableRecord
  2
*Paper_Space
  0
BLOCK_RECORD
  5
211
100
AcDbSymbolTableRecord
100
AcDbBlockTableRecord
  2
_FILLED
  0
BLOCK_RECORD
  5
212
100
AcDbSymbolTableRecord
100
AcDbBlockTableRecord
  2
*D0
  0
BLOCK_RECORD
  5
213
100
AcDbSymbolTableRecord
100
AcDbBlockTableRecord
  2
*D1
  0
BLOCK_RECORD
  5
214
100
AcDbSymbolTableRecord
100
AcDbBlockTableRecord
  2
*D2
  0
BLOCK_RECORD
  5
215
100
AcDbSymbolTableRecord
100
AcDbBlockTableRecord
  2
*D3
  0
BLOCK_RECORD
  5
216
100
AcDbSymbolTableRecord
100
AcDbBlockTableRecord
  2
*D4
  0
BLOCK_RECORD
  5
217
100
AcDbSymbolTableRecord
100
AcDbBlockTableRecord
  2
*D5
  0
BLOCK_RECORD
  5
218
100
AcDbSymbolTableRecord
100
AcDbBlockTableRecord
  2
*D6
  0
BLOCK_RECORD
  5
219
100
AcDbSymbolTableRecord
100
AcDbBlockTableRecord
  2
SYMBOL_0_BL0
  0
BLOCK_RECORD
  5
21A
100
AcDbSymbolTableRecord
100
AcDbBlockTableRecord
  2
*T1
  0
ENDTAB
  0
TABLE
  2
DIMSTYLE
  5
A
100
AcDbSymbolTable
 70
1
100
AcDbDimStyleTable
 71
0
  0
DIMSTYLE
105
21B
100
AcDbSymbolTableRecord
100
AcDbDimStyleTableRecord
  2
STANDARD
 70
0
  3

  4

 40
1.0
 41
0.1875
 42
0.0625
 43
0.38
 44
0.125
 45
0.0
 46
0.0
 47
0.01
 48
0.01
140
0.1
141
0.09
142
0.0
143
25.4
144
1.0
145
0.0
146
1.0
147
0.09
 71
1.0
 72
0.0
 73
1
 74
1
 75
0
 76
0
 77
0
 78
4
170
0
171
2
172
0
173
0
174
0
175
0
176
0
177
0
178
0
270
2
271
2
272
2
273
2
274
2
275
0
280
0
281
0
282
0
283
1
284
4
285
0
286
0
287
3
288
0
340
11
278
46
341
211
342
211
343
211
344
211
  0
DIMSTYLE
105
21C
100
AcDbSymbolTableRecord
100
AcDbDimStyleTableRecord
  2
DIMSTYLE_1
 70
0
  3

  4

 40
1.0
 41
0.1875
 42
0.0625
 43
0.38
 44
0.125
 45
0.0
 46
0.0
 47
0.005
 48
0.005
140
0.1
141
0.09
142
0.0
143
25.4
144
1.0
145
0.0
146
1.0
147
0.1
 71
0.0
 72
0.0
 73
1
 74
1
 75
0
 76
0
 77
0
 78
4
170
0
171
2
172
0
173
0
174
0
175
0
176
0
177
0
178
0
270
2
271
1
272
1
273
2
274
2
275
0
280
0
281
0
282
0
283
1
284
4
285
0
286
0
287
3
288
0
340
11
278
46
341
211
342
211
343
211
344
211
  0
DIMSTYLE
105
21D
100
AcDbSymbolTableRecord
100
AcDbDimStyleTableRecord
  2
DIMSTYLE_2
 70
0
  3
<>
  4

 40
1.0
 41
0.1875
 42
0.0625
 43
0.38
 44
0.125
 45
0.0
 46
0.0
 47
0.005
 48
0.005
140
0.1
141
0.09
142
0.0
143
25.4
144
1.0
145
0.0
146
1.0
147
0.09
 71
0.0
 72
0.0
 73
1
 74
1
 75
0
 76
0
 77
0
 78
4
170
0
171
2
172
1
173
0
174
0
175
0
176
0
177
0
178
0
270
2
271
1
272
1
273
2
274
2
275
0
280
0
281
0
282
0
283
1
284
4
285
0
286
0
287
3
288
1
340
11
278
46
289
2
341
211
342
211
343
211
344
211
  0
DIMSTYLE
105
21E
100
AcDbSymbolTableRecord
100
AcDbDimStyleTableRecord
  2
DIMSTYLE_3
 70
0
  3
<>
  4

 40
1.0
 41
0.1875
 42
0.0625
 43
0.38
 44
0.125
 45
0.0
 46
0.0
 47
0.005
 48
0.005
140
0.1
141
0.09
142
0.0
143
25.4
144
1.0
145
0.0
146
1.0
147
0.09
 71
0.0
 72
0.0
 73
1
 74
1
 75
0
 76
0
 77
0
 78
4
170
0
171
2
172
0
173
0
174
0
175
0
176
0
177
0
178
0
270
2
271
1
272
1
273
2
274
2
275
0
280
0
281
0
282
0
283
1
284
4
285
0
286
0
287
3
288
0
340
11
278
46
341
211
342
211
343
211
344
211
  0
ENDTAB
  0
ENDSEC
  0
SECTION
  2
BLOCKS
  0
BLOCK
  5
20
100
AcDbEntity
  8
0
100
AcDbBlockBegin
  2
*Model_Space
 70
0
 10
0.0
 20
0.0
 30
0.0
  3
*Model_Space
  1

  0
ENDBLK
  5
21
100
AcDbEntity
  8
0
100
AcDbBlockEnd
  0
BLOCK
  5
1C
100
AcDbEntity
  8
0
100
AcDbBlockBegin
  2
*Paper_Space
 70
0
 10
0.0
 20
0.0
 30
0.0
  3
*Paper_Space
  1

  0
ENDBLK
  5
1D
100
AcDbEntity
  8
0
100
AcDbBlockEnd
  0
BLOCK
  5
21F
100
AcDbEntity
  8
0
100
AcDbBlockBegin
 62
7
  6
CONTINUOUS
  2
SYMBOL_0_BL0
 70
64
 10
12.9086867042
 20
2.5403783405
  3
SYMBOL_0_BL0
  1

  0
ELLIPSE
  5
220
100
AcDbEntity
  8
0
100
AcDbEllipse
 62
7
  6
CONTINUOUS
 10
12.9046654608
 20
2.5403783405
 30
0.0
 11
-0.8250004575
 21
0.0
 31
0.0
 40
0.218572
 41
0.0
 42
6.2831853072
  0
ARC
  5
221
100
AcDbEntity
  8
0
100
AcDbCircle
 62
7
  6
CONTINUOUS
 10
12.400005721
 20
2.5168763464
 40
0.0153945295
100
AcDbArc
 50
354.0454548824
 51
5.1878013979
  0
ARC
  5
222
100
AcDbEntity
  8
0
100
AcDbCircle
 62
7
  6
CONTINUOUS
 10
12.3931760319
 20
2.5166878286
 40
0.0222174455
100
AcDbArc
 50
4.0793399388
 51
69.834329283
  0
LINE
  5
223
100
AcDbEntity
  8
0
100
AcDbLine
 62
7
  6
CONTINUOUS
 10
12.4008351814
 20
2.5375433389
 11
12.3907841758
 21
2.5410923409
  0
LINE
  5
224
100
AcDbEntity
  8
0
100
AcDbLine
 62
7
  6
CONTINUOUS
 10
12.3907841758
 20
2.5410923409
 11
12.3990241804
 21
2.5458683435
  0
ARC
  5
225
100
AcDbEntity
  8
0
100
AcDbCircle
 62
7
  6
CONTINUOUS
 10
12.3771587979
 20
2.5826952352
 40
0.0428289026
100
AcDbArc
 50
300.6990502959
 51
319.0591802498
  0
ARC
  5
226
100
AcDbEntity
  8
0
100
AcDbCircle
 62
7
  6
CONTINUOUS
 10
12.3971873948
 20
2.5665668817
 40
0.0171568255
100
AcDbArc
 50
315.9145124245
 51
16.0049121282
  0
ARC
  5
227
100
AcDbEntity
  8
0
100
AcDbCircle
 62
7
  6
CONTINUOUS
 10
12.3922357827
 20
2.5632132173
 40
0.0229166529
100
AcDbArc
 50
20.6563876465
 51
62.3316896973
  0
ARC
  5
228
100
AcDbEntity
  8
0
100
AcDbCircle
 62
7
  6
CONTINUOUS
 10
12.371573659
 20
2.5302846524
 40
0.061747717
100
AcDbArc
 50
59.5385584989
 51
90.0050977555
  0
LINE
  5
229
100
AcDbEntity
  8
0
100
AcDbLine
 62
7
  6
CONTINUOUS
 10
12.3715681652
 20
2.5920323691
 11
12.2055050731
 21
2.5920323691
  0
ARC
  5
22A
100
AcDbEntity
  8
0
100
AcDbCircle
 62
7
  6
CONTINUOUS
 10
12.2055050712
 20
2.5895573696
 40
0.0024749995
100
AcDbArc
 50
89.9999571957
 51
180.0000428043
  0
LINE
  5
22B
100
AcDbEntity
  8
0
100
AcDbLine
 62
7
  6
CONTINUOUS
 10
12.2030300717
 20
2.5895573678
 11
12.2030300717
 21
2.5697573568
  0
ARC
  5
22C
100
AcDbEntity
  8
0
100
AcDbCircle
 62
7
  6
CONTINUOUS
 10
12.2055050712
 20
2.5697573549
 40
0.0024749995
100
AcDbArc
 50
179.9999571957
 51
270.0000428043
  0
LINE
  5
22D
100
AcDbEntity
  8
0
100
AcDbLine
 62
7
  6
CONTINUOUS
 10
12.2055050731
 20
2.5672823554
 11
12.2294470864
 21
2.5672823554
  0
ARC
  5
22E
100
AcDbEntity
  8
0
100
AcDbCircle
 62
7
  6
CONTINUOUS
 10
12.2294470882
 20
2.5648073559
 40
0.0024749995
100
AcDbArc
 50
359.9999571957
 51
90.0000428043
  0
LINE
  5
22F
100
AcDbEntity
  8
0
100
AcDbLine
 62
7
  6
CONTINUOUS
 10
12.2319220877
 20
2.564807354
 11
12.2319220877
 21
2.5184523283
  0
ARC
  5
230
100
AcDbEntity
  8
0
100
AcDbCircle
 62
7
  6
CONTINUOUS
 10
12.2294470882
 20
2.5184523265
 40
0.0024749995
100
AcDbArc
 50
269.9999571957
 51
0.0000428043
  0
LINE
  5
231
100
AcDbEntity
  8
0
100
AcDbLine
 62
7
  6
CONTINUOUS
 10
12.2294470864
 20
2.515977327
 11
12.2055050731
 21
2.515977327
  0
ARC
  5
232
100
AcDbEntity
  8
0
100
AcDbCircle
 62
7
  6
CONTINUOUS
 10
12.2055050712
 20
2.5135023274
 40
0.0024749995
100
AcDbArc
 50
89.9999571957
 51
180.0000428043
  0
LINE
  5
233
100
AcDbEntity
  8
0
100
AcDbLine
 62
7
  6
CONTINUOUS
 10
12.2030300717
 20
2.5135023256
 11
12.2030300717
 21
2.4937023146
  0
ARC
  5
234
100
AcDbEntity
  8
0
100
AcDbCircle
 62
7
  6
CONTINUOUS
 10
12.2055050712
 20
2.4937023128
 40
0.0024749995
100
AcDbArc
 50
179.9999571957
 51
270.0000428043
  0
LINE
  5
235
100
AcDbEntity
  8
0
100
AcDbLine
 62
7
  6
CONTINUOUS
 10
12.2055050731
 20
2.4912273132
 11
12.3819511709
 21
2.4912273132
  0
ARC
  5
236
100
AcDbEntity
  8
0
100
AcDbCircle
 62
7
  6
CONTINUOUS
 10
12.3792298263
 20
2.539634765
 40
0.048483885
100
AcDbArc
 50
273.21763719
 51
303.0749121182
  0
ARC
  5
237
100
AcDbEntity
  8
0
100
AcDbCircle
 62
7
  6
CONTINUOUS
 10
12.3940692204
 20
2.5168671561
 40
0.0213072145
100
AcDbArc
 50
303.0488228549
 51
355.7263138674
  0
LINE
  5
238
100
AcDbEntity
  8
0
100
AcDbLine
 62
7
  6
CONTINUOUS
 10
12.2949101227
 20
2.5499573458
 11
12.3362731456
 21
2.5499573458
  0
ARC
  5
239
100
AcDbEntity
  8
0
100
AcDbCircle
 62
7
  6
CONTINUOUS
 10
12.3362731456
 20
2.5586198506
 40
0.0086625048
100
AcDbArc
 50
270.0
 51
90.0
  0
LINE
  5
23A
100
AcDbEntity
  8
0
100
AcDbLine
 62
7
  6
CONTINUOUS
 10
12.3362731456
 20
2.5672823554
 11
12.2949101227
 21
2.5672823554
  0
ARC
  5
23B
100
AcDbEntity
  8
0
100
AcDbCircle
 62
7
  6
CONTINUOUS
 10
12.2949101208
 20
2.5648073559
 40
0.0024749995
100
AcDbArc
 50
89.9999571957
 51
180.0000428043
  0
LINE
  5
23C
100
AcDbEntity
  8
0
100
AcDbLine
 62
7
  6
CONTINUOUS
 10
12.2924351213
 20
2.564807354
 11
12.2924351213
 21
2.5524323472
  0
ARC
  5
23D
100
AcDbEntity
  8
0
100
AcDbCircle
 62
7
  6
CONTINUOUS
 10
12.2949101208
 20
2.5524323453
 40
0.0024749995
100
AcDbArc
 50
179.9999571957
 51
270.0000428043
  0
LINE
  5
23E
100
AcDbEntity
  8
0
100
AcDbLine
 62
7
  6
CONTINUOUS
 10
12.2924351213
 20
2.5184523283
 11
12.2924351213
 21
2.5308273352
  0
ARC
  5
23F
100
AcDbEntity
  8
0
100
AcDbCircle
 62
7
  6
CONTINUOUS
 10
12.2949101208
 20
2.530827337
 40
0.0024749995
100
AcDbArc
 50
89.9999571957
 51
180.0000428043
  0
LINE
  5
240
100
AcDbEntity
  8
0
100
AcDbLine
 62
7
  6
CONTINUOUS
 10
12.2949101227
 20
2.5333023366
 11
12.3362731456
 21
2.5333023366
  0
ARC
  5
241
100
AcDbEntity
  8
0
100
AcDbCircle
 62
7
  6
CONTINUOUS
 10
12.3362731456
 20
2.5246398318
 40
0.0086625048
100
AcDbArc
 50
270.0
 51
90.0
  0
LINE
  5
242
100
AcDbEntity
  8
0
100
AcDbLine
 62
7
  6
CONTINUOUS
 10
12.3362731456
 20
2.515977327
 11
12.2949101227
 21
2.515977327
  0
ARC
  5
243
100
AcDbEntity
  8
0
100
AcDbCircle
 62
7
  6
CONTINUOUS
 10
12.2949101208
 20
2.5184523265
 40
0.0024749995
100
AcDbArc
 50
179.9999571957
 51
270.0000428043
  0
ARC
  5
244
100
AcDbEntity
  8
0
100
AcDbCircle
 62
7
  6
CONTINUOUS
 10
13.5806801742
 20
2.5212486481
 40
0.044722495
100
AcDbArc
 50
195.531588407
 51
204.7624440448
  0
LINE
  5
245
100
AcDbEntity
  8
0
100
AcDbLine
 62
7
  6
CONTINUOUS
 10
13.5375908118
 20
2.5092733232
 11
13.5357868108
 21
2.5153423266
  0
ARC
  5
246
100
AcDbEntity
  8
0
100
AcDbCircle
 62
7
  6
CONTINUOUS
 10
13.4974076135
 20
2.5055452462
 40
0.0396099176
100
AcDbArc
 50
14.3201081283
 51
22.4984722084
  0
ARC
  5
247
100
AcDbEntity
  8
0
100
AcDbCircle
 62
7
  6
CONTINUOUS
 10
13.5201739219
 20
2.5145168728
 40
0.0151491919
100
AcDbArc
 50
24.098260853
 51
63.0369451818
  0
ARC
  5
248
100
AcDbEntity
  8
0
100
AcDbCircle
 62
7
  6
CONTINUOUS
 10
13.5161192671
 20
2.5062372524
 40
0.0243676582
100
AcDbArc
 50
63.3666028271
 51
90.3937697637
  0
LINE
  5
249
100
AcDbEntity
  8
0
100
AcDbLine
 62
7
  6
CONTINUOUS
 10
13.5159517998
 20
2.5306043351
 11
13.4883447845
 21
2.5306043351
  0
ARC
  5
24A
100
AcDbEntity
  8
0
100
AcDbCircle
 62
7
  6
CONTINUOUS
 10
13.4883447827
 20
2.5281293355
 40
0.0024749995
100
AcDbArc
 50
89.9999571957
 51
180.0000428043
  0
LINE
  5
24B
100
AcDbEntity
  8
0
100
AcDbLine
 62
7
  6
CONTINUOUS
 10
13.4858697831
 20
2.5281293337
 11
13.4858697831
 21
2.5184303283
  0
ARC
  5
24C
100
AcDbEntity
  8
0
100
AcDbCircle
 62
7
  6
CONTINUOUS
 10
13.4883447827
 20
2.5184303265
 40
0.0024749995
100
AcDbArc
 50
179.9999571957
 51
270.0000428043
  0
LINE
  5
24D
100
AcDbEntity
  8
0
100
AcDbLine
 62
7
  6
CONTINUOUS
 10
13.4883447845
 20
2.5159553269
 11
13.5130037982
 21
2.5159553269
  0
ARC
  5
24E
100
AcDbEntity
  8
0
100
AcDbCircle
 62
7
  6
CONTINUOUS
 10
13.5130038
 20
2.5134803274
 40
0.0024749995
100
AcDbArc
 50
359.9999571957
 51
90.0000428043
  0
LINE
  5
24F
100
AcDbEntity
  8
0
100
AcDbLine
 62
7
  6
CONTINUOUS
 10
13.5154787995
 20
2.5134803256
 11
13.5154787995
 21
2.4937023146
  0
ARC
  5
250
100
AcDbEntity
  8
0
100
AcDbCircle
 62
7
  6
CONTINUOUS
 10
13.5130038
 20
2.4937023128
 40
0.0024749995
100
AcDbArc
 50
269.9999571957
 51
0.0000428043
  0
LINE
  5
251
100
AcDbEntity
  8
0
100
AcDbLine
 62
7
  6
CONTINUOUS
 10
13.5130037982
 20
2.4912273132
 11
13.3994327352
 21
2.4912273132
  0
ARC
  5
252
100
AcDbEntity
  8
0
100
AcDbCircle
 62
7
  6
CONTINUOUS
 10
13.3994327333
 20
2.4937023128
 40
0.0024749995
100
AcDbArc
 50
179.9999571957
 51
270.0000428043
  0
LINE
  5
253
100
AcDbEntity
  8
0
100
AcDbLine
 62
7
  6
CONTINUOUS
 10
13.3969577338
 20
2.4937023146
 11
13.3969577338
 21
2.5135023256
  0
ARC
  5
254
100
AcDbEntity
  8
0
100
AcDbCircle
 62
7
  6
CONTINUOUS
 10
13.3994327333
 20
2.5135023274
 40
0.0024749995
100
AcDbArc
 50
89.9999571957
 51
180.0000428043
  0
LINE
  5
255
100
AcDbEntity
  8
0
100
AcDbLine
 62
7
  6
CONTINUOUS
 10
13.3994327352
 20
2.515977327
 11
13.4221787478
 21
2.515977327
  0
ARC
  5
256
100
AcDbEntity
  8
0
100
AcDbCircle
 62
7
  6
CONTINUOUS
 10
13.4221787497
 20
2.5184523265
 40
0.0024749995
100
AcDbArc
 50
269.9999571957
 51
0.0000428042
  0
LINE
  5
257
100
AcDbEntity
  8
0
100
AcDbLine
 62
7
  6
CONTINUOUS
 10
13.4246537492
 20
2.5184523283
 11
13.4246537492
 21
2.564807354
  0
ARC
  5
258
100
AcDbEntity
  8
0
100
AcDbCircle
 62
7
  6
CONTINUOUS
 10
13.4221787497
 20
2.5648073559
 40
0.0024749995
100
AcDbArc
 50
359.9999571957
 51
90.0000428043
  0
LINE
  5
259
100
AcDbEntity
  8
0
100
AcDbLine
 62
7
  6
CONTINUOUS
 10
13.4221787478
 20
2.5672823554
 11
13.3994327352
 21
2.5672823554
  0
ARC
  5
25A
100
AcDbEntity
  8
0
100
AcDbCircle
 62
7
  6
CONTINUOUS
 10
13.3994327333
 20
2.5697573549
 40
0.0024749995
100
AcDbArc
 50
179.9999571957
 51
270.0000428043
  0
LINE
  5
25B
100
AcDbEntity
  8
0
100
AcDbLine
 62
7
  6
CONTINUOUS
 10
13.3969577338
 20
2.5697573568
 11
13.3969577338
 21
2.5895573678
  0
ARC
  5
25C
100
AcDbEntity
  8
0
100
AcDbCircle
 62
7
  6
CONTINUOUS
 10
13.3994327333
 20
2.5895573696
 40
0.0024749995
100
AcDbArc
 50
89.9999571957
 51
180.0000428043
  0
LINE
  5
25D
100
AcDbEntity
  8
0
100
AcDbLine
 62
7
  6
CONTINUOUS
 10
13.3994327352
 20
2.5920323691
 11
13.5490138181
 21
2.5920323691
  0
ARC
  5
25E
100
AcDbEntity
  8
0
100
AcDbCircle
 62
7
  6
CONTINUOUS
 10
13.5463505148
 20
2.4094934586
 40
0.1825583387
100
AcDbArc
 50
79.8618509324
 51
89.1640948679
  0
ARC
  5
25F
100
AcDbEntity
  8
0
100
AcDbCircle
 62
7
  6
CONTINUOUS
 10
13.5726548052
 20
2.5503169747
 40
0.039319019
100
AcDbArc
 50
59.1202086415
 51
81.4730239328
  0
ARC
  5
260
100
AcDbEntity
  8
0
100
AcDbCircle
 62
7
  6
CONTINUOUS
 10
13.5783142014
 20
2.5566516438
 40
0.0310192946
100
AcDbArc
 50
34.7540871
 51
62.0879016178
  0
ARC
  5
261
100
AcDbEntity
  8
0
100
AcDbCircle
 62
7
  6
CONTINUOUS
 10
13.5900029525
 20
2.565201245
 40
0.0165459396
100
AcDbArc
 50
1.548452892
 51
33.5033152417
  0
ARC
  5
262
100
AcDbEntity
  8
0
100
AcDbCircle
 62
7
  6
CONTINUOUS
 10
13.5932995477
 20
2.5653696972
 40
0.0132462337
100
AcDbArc
 50
331.1510006998
 51
1.205404301
  0
ARC
  5
263
100
AcDbEntity
  8
0
100
AcDbCircle
 62
7
  6
CONTINUOUS
 10
13.5822888914
 20
2.5720482849
 40
0.0261183659
100
AcDbArc
 50
305.6373831893
 51
329.9727629745
  0
ARC
  5
264
100
AcDbEntity
  8
0
100
AcDbCircle
 62
7
  6
CONTINUOUS
 10
13.5519569538
 20
2.6152551345
 40
0.0789082104
100
AcDbArc
 50
292.906155071
 51
305.2574666259
  0
ARC
  5
265
100
AcDbEntity
  8
0
100
AcDbCircle
 62
7
  6
CONTINUOUS
 10
13.5282557878
 20
2.4386010294
 40
0.117346916
100
AcDbArc
 50
58.614769177
 51
62.3737227606
  0
ARC
  5
266
100
AcDbEntity
  8
0
100
AcDbCircle
 62
7
  6
CONTINUOUS
 10
13.5761387404
 20
2.5167282896
 40
0.0257145923
100
AcDbArc
 50
39.3804255939
 51
59.0361096173
  0
ARC
  5
267
100
AcDbEntity
  8
0
100
AcDbCircle
 62
7
  6
CONTINUOUS
 10
13.5750183849
 20
2.5166552064
 40
0.0266349791
100
AcDbArc
 50
20.3630922153
 51
37.9727053099
  0
ARC
  5
268
100
AcDbEntity
  8
0
100
AcDbCircle
 62
7
  6
CONTINUOUS
 10
13.5571178432
 20
2.509473798
 40
0.0459185159
100
AcDbArc
 50
15.6740290068
 51
20.9917271228
  0
ARC
  5
269
100
AcDbEntity
  8
0
100
AcDbCircle
 62
7
  6
CONTINUOUS
 10
13.6156881783
 20
2.525116781
 40
0.0147197649
100
AcDbArc
 50
192.7054516565
 51
206.0594861022
  0
ARC
  5
26A
100
AcDbEntity
  8
0
100
AcDbCircle
 62
7
  6
CONTINUOUS
 10
13.6071938412
 20
2.5209082945
 40
0.0052403997
100
AcDbArc
 50
205.5232099488
 51
227.5054868079
  0
ARC
  5
26B
100
AcDbEntity
  8
0
100
AcDbCircle
 62
7
  6
CONTINUOUS
 10
13.6054655419
 20
2.5190929218
 40
0.0027347709
100
AcDbArc
 50
228.5117626737
 51
266.1485845754
  0
LINE
  5
26C
100
AcDbEntity
  8
0
100
AcDbLine
 62
7
  6
CONTINUOUS
 10
13.6052818493
 20
2.5163643272
 11
13.60639085
 21
2.5163643272
  0
ARC
  5
26D
100
AcDbEntity
  8
0
100
AcDbCircle
 62
7
  6
CONTINUOUS
 10
13.6063292954
 20
2.5296129864
 40
0.0132488022
100
AcDbArc
 50
270.266200055
 51
281.2404888597
  0
ARC
  5
26E
100
AcDbEntity
  8
0
100
AcDbCircle
 62
7
  6
CONTINUOUS
 10
13.6075235364
 20
2.5238762928
 40
0.0073895522
100
AcDbArc
 50
280.8288201977
 51
305.0837508495
  0
ARC
  5
26F
100
AcDbEntity
  8
0
100
AcDbCircle
 62
7
  6
CONTINUOUS
 10
13.607924718
 20
2.5230254464
 40
0.0064647042
100
AcDbArc
 50
306.5086174083
 51
340.2162360092
  0
ARC
  5
270
100
AcDbEntity
  8
0
100
AcDbCircle
 62
7
  6
CONTINUOUS
 10
13.6027235414
 20
2.524769508
 40
0.0119498009
100
AcDbArc
 50
340.7883861657
 51
1.1691452593
  0
LINE
  5
271
100
AcDbEntity
  8
0
100
AcDbLine
 62
7
  6
CONTINUOUS
 10
13.6146708546
 20
2.525013332
 11
13.6146708546
 21
2.5276393334
  0
ARC
  5
272
100
AcDbEntity
  8
0
100
AcDbCircle
 62
7
  6
CONTINUOUS
 10
13.6171458541
 20
2.5276393353
 40
0.0024749995
100
AcDbArc
 50
89.9999571957
 51
180.0000428043
  0
LINE
  5
273
100
AcDbEntity
  8
0
100
AcDbLine
 62
7
  6
CONTINUOUS
 10
13.6171458559
 20
2.5301143348
 11
13.6292558626
 21
2.5301143348
  0
ARC
  5
274
100
AcDbEntity
  8
0
100
AcDbCircle
 62
7
  6
CONTINUOUS
 10
13.6292558645
 20
2.5276393353
 40
0.0024749995
100
AcDbArc
 50
359.9999571957
 51
90.0000428043
  0
LINE
  5
275
100
AcDbEntity
  8
0
100
AcDbLine
 62
7
  6
CONTINUOUS
 10
13.631730864
 20
2.5276393334
 11
13.631730864
 21
2.516087327
  0
ARC
  5
276
100
AcDbEntity
  8
0
100
AcDbCircle
 62
7
  6
CONTINUOUS
 10
13.6141751675
 20
2.5161916447
 40
0.0175560065
100
AcDbArc
 50
332.2279060967
 51
359.6595469939
  0
ARC
  5
277
100
AcDbEntity
  8
0
100
AcDbCircle
 62
7
  6
CONTINUOUS
 10
13.6048681567
 20
2.5210861501
 40
0.0280715479
100
AcDbArc
 50
308.5071794988
 51
332.24006569
  0
ARC
  5
278
100
AcDbEntity
  8
0
100
AcDbCircle
 62
7
  6
CONTINUOUS
 10
13.5978759713
 20
2.5286873679
 40
0.0383802683
100
AcDbArc
 50
288.7656836787
 51
309.6104317088
  0
ARC
  5
279
100
AcDbEntity
  8
0
100
AcDbCircle
 62
7
  6
CONTINUOUS
 10
13.6036139387
 20
2.5111006186
 40
0.0198837666
100
AcDbArc
 50
271.8586572978
 51
289.4131338543
  0
LINE
  5
27A
100
AcDbEntity
  8
0
100
AcDbLine
 62
7
  6
CONTINUOUS
 10
13.6042588488
 20
2.4912273132
 11
13.5568948225
 21
2.4912273132
  0
ARC
  5
27B
100
AcDbEntity
  8
0
100
AcDbCircle
 62
7
  6
CONTINUOUS
 10
13.5577001432
 20
2.5085494649
 40
0.0173408616
100
AcDbArc
 50
232.4713476722
 51
267.338189944
  0
ARC
  5
27C
100
AcDbEntity
  8
0
100
AcDbCircle
 62
7
  6
CONTINUOUS
 10
13.5607987082
 20
2.5143997688
 40
0.0238935861
100
AcDbArc
 50
209.8247607259
 51
235.1255079367
  0
ARC
  5
27D
100
AcDbEntity
  8
0
100
AcDbCircle
 62
7
  6
CONTINUOUS
 10
13.5295131508
 20
2.5629115009
 40
0.0110815393
100
AcDbArc
 50
306.758405961
 51
320.4502234234
  0
ARC
  5
27E
100
AcDbEntity
  8
0
100
AcDbCircle
 62
7
  6
CONTINUOUS
 10
13.5238839599
 20
2.5706523294
 40
0.0206523367
100
AcDbArc
 50
289.6883413472
 51
306.4184925496
  0
ARC
  5
27F
100
AcDbEntity
  8
0
100
AcDbCircle
 62
7
  6
CONTINUOUS
 10
13.5219564542
 20
2.5750459767
 40
0.0254407115
100
AcDbArc
 50
270.7327484175
 51
290.441894219
  0
LINE
  5
280
100
AcDbEntity
  8
0
100
AcDbLine
 62
7
  6
CONTINUOUS
 10
13.5222818033
 20
2.5496073456
 11
13.4883447845
 21
2.5496073456
  0
ARC
  5
281
100
AcDbEntity
  8
0
100
AcDbCircle
 62
7
  6
CONTINUOUS
 10
13.4883447827
 20
2.5520823451
 40
0.0024749995
100
AcDbArc
 50
179.9999571957
 51
270.0000428043
  0
LINE
  5
282
100
AcDbEntity
  8
0
100
AcDbLine
 62
7
  6
CONTINUOUS
 10
13.4858697831
 20
2.552082347
 11
13.4858697831
 21
2.564807354
  0
ARC
  5
283
100
AcDbEntity
  8
0
100
AcDbCircle
 62
7
  6
CONTINUOUS
 10
13.4883447827
 20
2.5648073559
 40
0.0024749995
100
AcDbArc
 50
89.9999571957
 51
180.0000428043
  0
LINE
  5
284
100
AcDbEntity
  8
0
100
AcDbLine
 62
7
  6
CONTINUOUS
 10
13.4883447845
 20
2.5672823554
 11
13.5251458049
 21
2.5672823554
  0
ARC
  5
285
100
AcDbEntity
  8
0
100
AcDbCircle
 62
7
  6
CONTINUOUS
 10
13.5236009174
 20
2.5388278764
 40
0.0284963867
100
AcDbArc
 50
70.3834917948
 51
86.8922743861
  0
ARC
  5
286
100
AcDbEntity
  8
0
100
AcDbCircle
 62
7
  6
CONTINUOUS
 10
13.5284605274
 20
2.5518696094
 40
0.0145814632
100
AcDbArc
 50
54.6746025112
 51
71.1660573124
  0
ARC
  5
287
100
AcDbEntity
  8
0
100
AcDbCircle
 62
7
  6
CONTINUOUS
 10
13.5335900184
 20
2.5587235346
 40
0.0060275915
100
AcDbArc
 50
20.9055592135
 51
56.7851676243
  0
ARC
  5
288
100
AcDbEntity
  8
0
100
AcDbCircle
 62
7
  6
CONTINUOUS
 10
13.5348905773
 20
2.5593838168
 40
0.0045795888
100
AcDbArc
 50
355.6235353944
 51
18.9942678268
  0
ARC
  5
289
100
AcDbEntity
  8
0
100
AcDbCircle
 62
7
  6
CONTINUOUS
 10
13.533683767
 20
2.559677593
 40
0.0058087709
100
AcDbArc
 50
318.8515287446
 51
353.6422345323
  0
LINE
  5
28A
100
AcDbEntity
  8
0
100
AcDbLine
 62
7
  6
CONTINUOUS
 10
12.672340332
 20
2.5920323691
 11
12.7727983877
 21
2.5920323691
  0
ARC
  5
28B
100
AcDbEntity
  8
0
100
AcDbCircle
 62
7
  6
CONTINUOUS
 10
12.7727985224
 20
2.5895582013
 40
0.0024741678
100
AcDbArc
 50
46.3477981899
 51
90.0031206038
  0
LINE
  5
28C
100
AcDbEntity
  8
0
100
AcDbLine
 62
7
  6
CONTINUOUS
 10
12.7745063886
 20
2.5913483688
 11
12.8345394219
 21
2.534068337
  0
ARC
  5
28D
100
AcDbEntity
  8
0
100
AcDbCircle
 62
7
  6
CONTINUOUS
 10
12.8362481229
 20
2.5358592748
 40
0.0024753014
100
AcDbArc
 50
226.3461263059
 51
0.0014637322
  0
LINE
  5
28E
100
AcDbEntity
  8
0
100
AcDbLine
 62
7
  6
CONTINUOUS
 10
12.8387234242
 20
2.535859338
 11
12.8387234242
 21
2.564807354
  0
ARC
  5
28F
100
AcDbEntity
  8
0
100
AcDbCircle
 62
7
  6
CONTINUOUS
 10
12.8362484247
 20
2.5648073559
 40
0.0024749995
100
AcDbArc
 50
359.9999571957
 51
90.0000428043
  0
LINE
  5
290
100
AcDbEntity
  8
0
100
AcDbLine
 62
7
  6
CONTINUOUS
 10
12.8362484229
 20
2.5672823554
 11
12.8174724125
 21
2.5672823554
  0
ARC
  5
291
100
AcDbEntity
  8
0
100
AcDbCircle
 62
7
  6
CONTINUOUS
 10
12.8174724106
 20
2.5697573549
 40
0.0024749995
100
AcDbArc
 50
179.9999571957
 51
270.0000428043
  0
LINE
  5
292
100
AcDbEntity
  8
0
100
AcDbLine
 62
7
  6
CONTINUOUS
 10
12.8149974111
 20
2.5697573568
 11
12.8149974111
 21
2.5895573678
  0
ARC
  5
293
100
AcDbEntity
  8
0
100
AcDbCircle
 62
7
  6
CONTINUOUS
 10
12.8174724106
 20
2.5895573696
 40
0.0024749995
100
AcDbArc
 50
89.9999571957
 51
180.0000428043
  0
LINE
  5
294
100
AcDbEntity
  8
0
100
AcDbLine
 62
7
  6
CONTINUOUS
 10
12.8174724125
 20
2.5920323691
 11
12.8914734535
 21
2.5920323691
  0
ARC
  5
295
100
AcDbEntity
  8
0
100
AcDbCircle
 62
7
  6
CONTINUOUS
 10
12.8914734553
 20
2.5895573696
 40
0.0024749995
100
AcDbArc
 50
359.9999571957
 51
90.0000428043
  0
LINE
  5
296
100
AcDbEntity
  8
0
100
AcDbLine
 62
7
  6
CONTINUOUS
 10
12.8939484549
 20
2.5895573678
 11
12.8939484549
 21
2.5697573568
  0
ARC
  5
297
100
AcDbEntity
  8
0
100
AcDbCircle
 62
7
  6
CONTINUOUS
 10
12.8914734553
 20
2.5697573549
 40
0.0024749995
100
AcDbArc
 50
269.9999571957
 51
0.0000428043
  0
LINE
  5
298
100
AcDbEntity
  8
0
100
AcDbLine
 62
7
  6
CONTINUOUS
 10
12.8914734535
 20
2.5672823554
 11
12.8735404436
 21
2.5672823554
  0
ARC
  5
299
100
AcDbEntity
  8
0
100
AcDbCircle
 62
7
  6
CONTINUOUS
 10
12.8735404417
 20
2.5648073559
 40
0.0024749995
100
AcDbArc
 50
89.9999571957
 51
180.0000428043
  0
LINE
  5
29A
100
AcDbEntity
  8
0
100
AcDbLine
 62
7
  6
CONTINUOUS
 10
12.8710654422
 20
2.564807354
 11
12.8710654422
 21
2.4937023146
  0
ARC
  5
29B
100
AcDbEntity
  8
0
100
AcDbCircle
 62
7
  6
CONTINUOUS
 10
12.8685904427
 20
2.4937023128
 40
0.0024749995
100
AcDbArc
 50
269.9999571957
 51
0.0000428043
  0
LINE
  5
29C
100
AcDbEntity
  8
0
100
AcDbLine
 62
7
  6
CONTINUOUS
 10
12.8685904408
 20
2.4912273132
 11
12.7943853997
 21
2.4912273132
  0
ARC
  5
29D
100
AcDbEntity
  8
0
100
AcDbCircle
 62
7
  6
CONTINUOUS
 10
12.7943847649
 20
2.4937027294
 40
0.0024754162
100
AcDbArc
 50
226.3593695813
 51
270.0146919953
  0
LINE
  5
29E
100
AcDbEntity
  8
0
100
AcDbLine
 62
7
  6
CONTINUOUS
 10
12.7926763987
 20
2.4919113136
 11
12.7293963636
 21
2.5522893471
  0
ARC
  5
29F
100
AcDbEntity
  8
0
100
AcDbCircle
 62
7
  6
CONTINUOUS
 10
12.7276876627
 20
2.5504984093
 40
0.0024753014
100
AcDbArc
 50
46.3461263059
 51
180.0014637322
  0
LINE
  5
2A0
100
AcDbEntity
  8
0
100
AcDbLine
 62
7
  6
CONTINUOUS
 10
12.7252123613
 20
2.5504983461
 11
12.7252123613
 21
2.5184523283
  0
ARC
  5
2A1
100
AcDbEntity
  8
0
100
AcDbCircle
 62
7
  6
CONTINUOUS
 10
12.7276873608
 20
2.5184523265
 40
0.0024749995
100
AcDbArc
 50
179.9999571957
 51
270.0000428043
  0
LINE
  5
2A2
100
AcDbEntity
  8
0
100
AcDbLine
 62
7
  6
CONTINUOUS
 10
12.7276873627
 20
2.515977327
 11
12.7480043739
 21
2.515977327
  0
ARC
  5
2A3
100
AcDbEntity
  8
0
100
AcDbCircle
 62
7
  6
CONTINUOUS
 10
12.7480043758
 20
2.5135023274
 40
0.0024749995
100
AcDbArc
 50
359.9999571957
 51
90.0000428043
  0
LINE
  5
2A4
100
AcDbEntity
  8
0
100
AcDbLine
 62
7
  6
CONTINUOUS
 10
12.7504793753
 20
2.5135023256
 11
12.7504793753
 21
2.4937023146
  0
ARC
  5
2A5
100
AcDbEntity
  8
0
100
AcDbCircle
 62
7
  6
CONTINUOUS
 10
12.7480043758
 20
2.4937023128
 40
0.0024749995
100
AcDbArc
 50
269.9999571957
 51
0.0000428043
  0
LINE
  5
2A6
100
AcDbEntity
  8
0
100
AcDbLine
 62
7
  6
CONTINUOUS
 10
12.7480043739
 20
2.4912273132
 11
12.672340332
 21
2.4912273132
  0
ARC
  5
2A7
100
AcDbEntity
  8
0
100
AcDbCircle
 62
7
  6
CONTINUOUS
 10
12.6723403301
 20
2.4937023128
 40
0.0024749995
100
AcDbArc
 50
179.9999571957
 51
270.0000428043
  0
LINE
  5
2A8
100
AcDbEntity
  8
0
100
AcDbLine
 62
7
  6
CONTINUOUS
 10
12.6698653306
 20
2.4937023146
 11
12.6698653306
 21
2.5135023256
  0
ARC
  5
2A9
100
AcDbEntity
  8
0
100
AcDbCircle
 62
7
  6
CONTINUOUS
 10
12.6723403301
 20
2.5135023274
 40
0.0024749995
100
AcDbArc
 50
89.9999571957
 51
180.0000428043
  0
LINE
  5
2AA
100
AcDbEntity
  8
0
100
AcDbLine
 62
7
  6
CONTINUOUS
 10
12.672340332
 20
2.515977327
 11
12.6909873423
 21
2.515977327
  0
ARC
  5
2AB
100
AcDbEntity
  8
0
100
AcDbCircle
 62
7
  6
CONTINUOUS
 10
12.6909873442
 20
2.5184523265
 40
0.0024749995
100
AcDbArc
 50
269.9999571957
 51
0.0000428043
  0
LINE
  5
2AC
100
AcDbEntity
  8
0
100
AcDbLine
 62
7
  6
CONTINUOUS
 10
12.6934623437
 20
2.5184523283
 11
12.6934623437
 21
2.564807354
  0
ARC
  5
2AD
100
AcDbEntity
  8
0
100
AcDbCircle
 62
7
  6
CONTINUOUS
 10
12.6909873442
 20
2.5648073559
 40
0.0024749995
100
AcDbArc
 50
359.9999571957
 51
90.0000428043
  0
LINE
  5
2AE
100
AcDbEntity
  8
0
100
AcDbLine
 62
7
  6
CONTINUOUS
 10
12.6909873423
 20
2.5672823554
 11
12.672340332
 21
2.5672823554
  0
ARC
  5
2AF
100
AcDbEntity
  8
0
100
AcDbCircle
 62
7
  6
CONTINUOUS
 10
12.6723403301
 20
2.5697573549
 40
0.0024749995
100
AcDbArc
 50
179.9999571957
 51
270.0000428043
  0
LINE
  5
2B0
100
AcDbEntity
  8
0
100
AcDbLine
 62
7
  6
CONTINUOUS
 10
12.6698653306
 20
2.5697573568
 11
12.6698653306
 21
2.5895573678
  0
ARC
  5
2B1
100
AcDbEntity
  8
0
100
AcDbCircle
 62
7
  6
CONTINUOUS
 10
12.6723403301
 20
2.5895573696
 40
0.0024749995
100
AcDbArc
 50
89.9999571957
 51
180.0000428043
  0
LINE
  5
2B2
100
AcDbEntity
  8
0
100
AcDbLine
 62
7
  6
CONTINUOUS
 10
12.5246402501
 20
2.5655893545
 11
12.5175232461
 21
2.5543723483
  0
ARC
  5
2B3
100
AcDbEntity
  8
0
100
AcDbCircle
 62
7
  6
CONTINUOUS
 10
12.519613138
 20
2.5530463862
 40
0.0024750401
100
AcDbArc
 50
147.6063258012
 51
270.0025305754
  0
LINE
  5
2B4
100
AcDbEntity
  8
0
100
AcDbLine
 62
7
  6
CONTINUOUS
 10
12.5196132473
 20
2.5505713461
 11
12.5401702587
 21
2.5505713461
  0
ARC
  5
2B5
100
AcDbEntity
  8
0
100
AcDbCircle
 62
7
  6
CONTINUOUS
 10
12.5401702375
 20
2.5530465533
 40
0.0024752071
100
AcDbArc
 50
270.0004896793
 51
32.9089806818
  0
LINE
  5
2B6
100
AcDbEntity
  8
0
100
AcDbLine
 62
7
  6
CONTINUOUS
 10
12.5422482598
 20
2.5543913483
 11
12.5349892558
 21
2.5656073545
  0
ARC
  5
2B7
100
AcDbEntity
  8
0
100
AcDbCircle
 62
7
  6
CONTINUOUS
 10
12.532910715
 20
2.564262895
 40
0.0024754602
100
AcDbArc
 50
32.8959418573
 51
89.9875097202
  0
LINE
  5
2B8
100
AcDbEntity
  8
0
100
AcDbLine
 62
7
  6
CONTINUOUS
 10
12.5329112547
 20
2.5667383551
 11
12.5267302512
 21
2.5667383551
  0
ARC
  5
2B9
100
AcDbEntity
  8
0
100
AcDbCircle
 62
7
  6
CONTINUOUS
 10
12.5267301809
 20
2.5642631548
 40
0.0024752003
100
AcDbArc
 50
89.998372645
 51
147.602165307
  0
LINE
  5
2BA
100
AcDbEntity
  8
0
100
AcDbLine
 62
7
  6
CONTINUOUS
 10
12.548053263
 20
2.5284903339
 11
12.5536792662
 21
2.5197973291
  0
ARC
  5
2BB
100
AcDbEntity
  8
0
100
AcDbCircle
 62
7
  6
CONTINUOUS
 10
12.5516012439
 20
2.5184525341
 40
0.0024752071
100
AcDbArc
 50
270.0004896794
 51
32.9089806818
  0
LINE
  5
2BC
100
AcDbEntity
  8
0
100
AcDbLine
 62
7
  6
CONTINUOUS
 10
12.551601265
 20
2.515977327
 11
12.537150257
 21
2.515977327
  0
ARC
  5
2BD
100
AcDbEntity
  8
0
100
AcDbCircle
 62
7
  6
CONTINUOUS
 10
12.5371502552
 20
2.5135023274
 40
0.0024749995
100
AcDbArc
 50
89.9999571957
 51
180.0000428043
  0
LINE
  5
2BE
100
AcDbEntity
  8
0
100
AcDbLine
 62
7
  6
CONTINUOUS
 10
12.5346752556
 20
2.5135023256
 11
12.5346752556
 21
2.4937023146
  0
ARC
  5
2BF
100
AcDbEntity
  8
0
100
AcDbCircle
 62
7
  6
CONTINUOUS
 10
12.5371502552
 20
2.4937023128
 40
0.0024749995
100
AcDbArc
 50
179.9999571957
 51
270.0000428043
  0
LINE
  5
2C0
100
AcDbEntity
  8
0
100
AcDbLine
 62
7
  6
CONTINUOUS
 10
12.537150257
 20
2.4912273132
 11
12.6424313154
 21
2.4912273132
  0
ARC
  5
2C1
100
AcDbEntity
  8
0
100
AcDbCircle
 62
7
  6
CONTINUOUS
 10
12.6424313172
 20
2.4937023128
 40
0.0024749995
100
AcDbArc
 50
269.9999571957
 51
0.0000428043
  0
LINE
  5
2C2
100
AcDbEntity
  8
0
100
AcDbLine
 62
7
  6
CONTINUOUS
 10
12.6449063168
 20
2.4937023146
 11
12.6449063168
 21
2.5135023256
  0
ARC
  5
2C3
100
AcDbEntity
  8
0
100
AcDbCircle
 62
7
  6
CONTINUOUS
 10
12.6424313172
 20
2.5135023274
 40
0.0024749995
100
AcDbArc
 50
359.9999571957
 51
90.0000428043
  0
LINE
  5
2C4
100
AcDbEntity
  8
0
100
AcDbLine
 62
7
  6
CONTINUOUS
 10
12.6424313154
 20
2.515977327
 11
12.6224153043
 21
2.515977327
  0
ARC
  5
2C5
100
AcDbEntity
  8
0
100
AcDbCircle
 62
7
  6
CONTINUOUS
 10
12.6224154248
 20
2.518451368
 40
0.002474041
100
AcDbArc
 50
212.9056413127
 51
269.9972091756
  0
LINE
  5
2C6
100
AcDbEntity
  8
0
100
AcDbLine
 62
7
  6
CONTINUOUS
 10
12.6203383031
 20
2.5171073276
 11
12.5725822767
 21
2.5909023685
  0
ARC
  5
2C7
100
AcDbEntity
  8
0
100
AcDbCircle
 62
7
  6
CONTINUOUS
 10
12.570504655
 20
2.589557409
 40
0.0024749602
100
AcDbArc
 50
32.9172174468
 51
90.0087853097
  0
LINE
  5
2C8
100
AcDbEntity
  8
0
100
AcDbLine
 62
7
  6
CONTINUOUS
 10
12.5705042755
 20
2.5920323691
 11
12.5133292438
 21
2.5920323691
  0
ARC
  5
2C9
100
AcDbEntity
  8
0
100
AcDbCircle
 62
7
  6
CONTINUOUS
 10
12.5133291735
 20
2.5895571688
 40
0.0024752003
100
AcDbArc
 50
89.9983726451
 51
147.602165307
  0
LINE
  5
2CA
100
AcDbEntity
  8
0
100
AcDbLine
 62
7
  6
CONTINUOUS
 10
12.5112392426
 20
2.5908833685
 11
12.4644392167
 21
2.5171263276
  0
ARC
  5
2CB
100
AcDbEntity
  8
0
100
AcDbCircle
 62
7
  6
CONTINUOUS
 10
12.4623492858
 20
2.5184525273
 40
0.0024752003
100
AcDbArc
 50
269.9983726451
 51
327.602165307
  0
LINE
  5
2CC
100
AcDbEntity
  8
0
100
AcDbLine
 62
7
  6
CONTINUOUS
 10
12.4623492155
 20
2.515977327
 11
12.4394882028
 21
2.515977327
  0
ARC
  5
2CD
100
AcDbEntity
  8
0
100
AcDbCircle
 62
7
  6
CONTINUOUS
 10
12.439488201
 20
2.5135023274
 40
0.0024749995
100
AcDbArc
 50
89.9999571957
 51
180.0000428043
  0
LINE
  5
2CE
100
AcDbEntity
  8
0
100
AcDbLine
 62
7
  6
CONTINUOUS
 10
12.4370132015
 20
2.5135023256
 11
12.4370132015
 21
2.4937023146
  0
ARC
  5
2CF
100
AcDbEntity
  8
0
100
AcDbCircle
 62
7
  6
CONTINUOUS
 10
12.439488201
 20
2.4937023128
 40
0.0024749995
100
AcDbArc
 50
179.9999571957
 51
270.0000428043
  0
LINE
  5
2D0
100
AcDbEntity
  8
0
100
AcDbLine
 62
7
  6
CONTINUOUS
 10
12.4394882028
 20
2.4912273132
 11
12.5168642458
 21
2.4912273132
  0
ARC
  5
2D1
100
AcDbEntity
  8
0
100
AcDbCircle
 62
7
  6
CONTINUOUS
 10
12.5168642476
 20
2.4937023128
 40
0.0024749995
100
AcDbArc
 50
269.9999571957
 51
0.0000428043
  0
LINE
  5
2D2
100
AcDbEntity
  8
0
100
AcDbLine
 62
7
  6
CONTINUOUS
 10
12.5193392471
 20
2.4937023146
 11
12.5193392471
 21
2.5135023256
  0
ARC
  5
2D3
100
AcDbEntity
  8
0
100
AcDbCircle
 62
7
  6
CONTINUOUS
 10
12.5168642476
 20
2.5135023274
 40
0.0024749995
100
AcDbArc
 50
359.9999571957
 51
90.0000428043
  0
LINE
  5
2D4
100
AcDbEntity
  8
0
100
AcDbLine
 62
7
  6
CONTINUOUS
 10
12.5168642458
 20
2.515977327
 11
12.5055812395
 21
2.515977327
  0
ARC
  5
2D5
100
AcDbEntity
  8
0
100
AcDbCircle
 62
7
  6
CONTINUOUS
 10
12.5055811302
 20
2.518452367
 40
0.0024750401
100
AcDbArc
 50
147.6063258011
 51
270.0025305754
  0
LINE
  5
2D6
100
AcDbEntity
  8
0
100
AcDbLine
 62
7
  6
CONTINUOUS
 10
12.5034912383
 20
2.5197783291
 11
12.5090072414
 21
2.5284723339
  0
ARC
  5
2D7
100
AcDbEntity
  8
0
100
AcDbCircle
 62
7
  6
CONTINUOUS
 10
12.5110971723
 20
2.5271461342
 40
0.0024752003
100
AcDbArc
 50
89.998372645
 51
147.602165307
  0
LINE
  5
2D8
100
AcDbEntity
  8
0
100
AcDbLine
 62
7
  6
CONTINUOUS
 10
12.5110972426
 20
2.5296213345
 11
12.5459752619
 21
2.5296213345
  0
ARC
  5
2D9
100
AcDbEntity
  8
0
100
AcDbCircle
 62
7
  6
CONTINUOUS
 10
12.5459747223
 20
2.5271458744
 40
0.0024754602
100
AcDbArc
 50
32.8959418573
 51
89.9875097202
  0
LINE
  5
2DA
100
AcDbEntity
  8
0
100
AcDbLine
 62
7
  6
CONTINUOUS
 10
12.9205934696
 20
2.5920323691
 11
13.0210515254
 21
2.5920323691
  0
ARC
  5
2DB
100
AcDbEntity
  8
0
100
AcDbCircle
 62
7
  6
CONTINUOUS
 10
13.0210516601
 20
2.5895582013
 40
0.0024741678
100
AcDbArc
 50
46.3477981899
 51
90.0031206038
  0
LINE
  5
2DC
100
AcDbEntity
  8
0
100
AcDbLine
 62
7
  6
CONTINUOUS
 10
13.0227595263
 20
2.5913483688
 11
13.0827925596
 21
2.534068337
  0
ARC
  5
2DD
100
AcDbEntity
  8
0
100
AcDbCircle
 62
7
  6
CONTINUOUS
 10
13.0845012605
 20
2.5358592748
 40
0.0024753014
100
AcDbArc
 50
226.3461263059
 51
0.0014637321
  0
LINE
  5
2DE
100
AcDbEntity
  8
0
100
AcDbLine
 62
7
  6
CONTINUOUS
 10
13.0869765619
 20
2.535859338
 11
13.0869765619
 21
2.564807354
  0
ARC
  5
2DF
100
AcDbEntity
  8
0
100
AcDbCircle
 62
7
  6
CONTINUOUS
 10
13.0845015624
 20
2.5648073559
 40
0.0024749995
100
AcDbArc
 50
359.9999571957
 51
90.0000428043
  0
LINE
  5
2E0
100
AcDbEntity
  8
0
100
AcDbLine
 62
7
  6
CONTINUOUS
 10
13.0845015605
 20
2.5672823554
 11
13.0657255501
 21
2.5672823554
  0
ARC
  5
2E1
100
AcDbEntity
  8
0
100
AcDbCircle
 62
7
  6
CONTINUOUS
 10
13.0657255483
 20
2.5697573549
 40
0.0024749995
100
AcDbArc
 50
179.9999571957
 51
270.0000428043
  0
LINE
  5
2E2
100
AcDbEntity
  8
0
100
AcDbLine
 62
7
  6
CONTINUOUS
 10
13.0632505488
 20
2.5697573568
 11
13.0632505488
 21
2.5895573678
  0
ARC
  5
2E3
100
AcDbEntity
  8
0
100
AcDbCircle
 62
7
  6
CONTINUOUS
 10
13.0657255483
 20
2.5895573696
 40
0.0024749995
100
AcDbArc
 50
89.9999571957
 51
180.0000428043
  0
LINE
  5
2E4
100
AcDbEntity
  8
0
100
AcDbLine
 62
7
  6
CONTINUOUS
 10
13.0657255501
 20
2.5920323691
 11
13.1397265912
 21
2.5920323691
  0
ARC
  5
2E5
100
AcDbEntity
  8
0
100
AcDbCircle
 62
7
  6
CONTINUOUS
 10
13.139726593
 20
2.5895573696
 40
0.0024749995
100
AcDbArc
 50
359.9999571957
 51
90.0000428043
  0
LINE
  5
2E6
100
AcDbEntity
  8
0
100
AcDbLine
 62
7
  6
CONTINUOUS
 10
13.1422015925
 20
2.5895573678
 11
13.1422015925
 21
2.5697573568
  0
ARC
  5
2E7
100
AcDbEntity
  8
0
100
AcDbCircle
 62
7
  6
CONTINUOUS
 10
13.139726593
 20
2.5697573549
 40
0.0024749995
100
AcDbArc
 50
269.9999571957
 51
0.0000428042
  0
LINE
  5
2E8
100
AcDbEntity
  8
0
100
AcDbLine
 62
7
  6
CONTINUOUS
 10
13.1397265912
 20
2.5672823554
 11
13.1217935812
 21
2.5672823554
  0
ARC
  5
2E9
100
AcDbEntity
  8
0
100
AcDbCircle
 62
7
  6
CONTINUOUS
 10
13.1217935794
 20
2.5648073559
 40
0.0024749995
100
AcDbArc
 50
89.9999571957
 51
180.0000428042
  0
LINE
  5
2EA
100
AcDbEntity
  8
0
100
AcDbLine
 62
7
  6
CONTINUOUS
 10
13.1193185799
 20
2.564807354
 11
13.1193185799
 21
2.4937023146
  0
ARC
  5
2EB
100
AcDbEntity
  8
0
100
AcDbCircle
 62
7
  6
CONTINUOUS
 10
13.1168435803
 20
2.4937023128
 40
0.0024749995
100
AcDbArc
 50
269.9999571957
 51
0.0000428043
  0
LINE
  5
2EC
100
AcDbEntity
  8
0
100
AcDbLine
 62
7
  6
CONTINUOUS
 10
13.1168435785
 20
2.4912273132
 11
13.0426375373
 21
2.4912273132
  0
ARC
  5
2ED
100
AcDbEntity
  8
0
100
AcDbCircle
 62
7
  6
CONTINUOUS
 10
13.0426374026
 20
2.493701481
 40
0.0024741678
100
AcDbArc
 50
226.3477981898
 51
270.0031206038
  0
LINE
  5
2EE
100
AcDbEntity
  8
0
100
AcDbLine
 62
7
  6
CONTINUOUS
 10
13.0409295364
 20
2.4919113136
 11
12.9776495013
 21
2.5522893471
  0
ARC
  5
2EF
100
AcDbEntity
  8
0
100
AcDbCircle
 62
7
  6
CONTINUOUS
 10
12.9759408003
 20
2.5504984093
 40
0.0024753014
100
AcDbArc
 50
46.3461263058
 51
180.0014637321
  0
LINE
  5
2F0
100
AcDbEntity
  8
0
100
AcDbLine
 62
7
  6
CONTINUOUS
 10
12.973465499
 20
2.5504983461
 11
12.973465499
 21
2.5184523283
  0
ARC
  5
2F1
100
AcDbEntity
  8
0
100
AcDbCircle
 62
7
  6
CONTINUOUS
 10
12.9759404985
 20
2.5184523265
 40
0.0024749995
100
AcDbArc
 50
179.9999571957
 51
270.0000428043
  0
LINE
  5
2F2
100
AcDbEntity
  8
0
100
AcDbLine
 62
7
  6
CONTINUOUS
 10
12.9759405003
 20
2.515977327
 11
12.9962575116
 21
2.515977327
  0
ARC
  5
2F3
100
AcDbEntity
  8
0
100
AcDbCircle
 62
7
  6
CONTINUOUS
 10
12.9962575135
 20
2.5135023274
 40
0.0024749995
100
AcDbArc
 50
359.9999571957
 51
90.0000428043
  0
LINE
  5
2F4
100
AcDbEntity
  8
0
100
AcDbLine
 62
7
  6
CONTINUOUS
 10
12.998732513
 20
2.5135023256
 11
12.998732513
 21
2.4937023146
  0
ARC
  5
2F5
100
AcDbEntity
  8
0
100
AcDbCircle
 62
7
  6
CONTINUOUS
 10
12.9962575135
 20
2.4937023128
 40
0.0024749995
100
AcDbArc
 50
269.9999571957
 51
0.0000428043
  0
LINE
  5
2F6
100
AcDbEntity
  8
0
100
AcDbLine
 62
7
  6
CONTINUOUS
 10
12.9962575116
 20
2.4912273132
 11
12.9205934696
 21
2.4912273132
  0
ARC
  5
2F7
100
AcDbEntity
  8
0
100
AcDbCircle
 62
7
  6
CONTINUOUS
 10
12.9205934678
 20
2.4937023128
 40
0.0024749995
100
AcDbArc
 50
179.9999571957
 51
270.0000428043
  0
LINE
  5
2F8
100
AcDbEntity
  8
0
100
AcDbLine
 62
7
  6
CONTINUOUS
 10
12.9181184683
 20
2.4937023146
 11
12.9181184683
 21
2.5135023256
  0
ARC
  5
2F9
100
AcDbEntity
  8
0
100
AcDbCircle
 62
7
  6
CONTINUOUS
 10
12.9205934678
 20
2.5135023274
 40
0.0024749995
100
AcDbArc
 50
89.9999571957
 51
180.0000428042
  0
LINE
  5
2FA
100
AcDbEntity
  8
0
100
AcDbLine
 62
7
  6
CONTINUOUS
 10
12.9205934696
 20
2.515977327
 11
12.93923948
 21
2.515977327
  0
ARC
  5
2FB
100
AcDbEntity
  8
0
100
AcDbCircle
 62
7
  6
CONTINUOUS
 10
12.9392394818
 20
2.5184523265
 40
0.0024749995
100
AcDbArc
 50
269.9999571957
 51
0.0000428043
  0
LINE
  5
2FC
100
AcDbEntity
  8
0
100
AcDbLine
 62
7
  6
CONTINUOUS
 10
12.9417144814
 20
2.5184523283
 11
12.9417144814
 21
2.564807354
  0
ARC
  5
2FD
100
AcDbEntity
  8
0
100
AcDbCircle
 62
7
  6
CONTINUOUS
 10
12.9392394818
 20
2.5648073559
 40
0.0024749995
100
AcDbArc
 50
359.9999571957
 51
90.0000428043
  0
LINE
  5
2FE
100
AcDbEntity
  8
0
100
AcDbLine
 62
7
  6
CONTINUOUS
 10
12.93923948
 20
2.5672823554
 11
12.9205934696
 21
2.5672823554
  0
ARC
  5
2FF
100
AcDbEntity
  8
0
100
AcDbCircle
 62
7
  6
CONTINUOUS
 10
12.9205934678
 20
2.5697573549
 40
0.0024749995
100
AcDbArc
 50
179.9999571957
 51
270.0000428043
  0
LINE
  5
300
100
AcDbEntity
  8
0
100
AcDbLine
 62
7
  6
CONTINUOUS
 10
12.9181184683
 20
2.5697573568
 11
12.9181184683
 21
2.5895573678
  0
ARC
  5
301
100
AcDbEntity
  8
0
100
AcDbCircle
 62
7
  6
CONTINUOUS
 10
12.9205934678
 20
2.5895573696
 40
0.0024749995
100
AcDbArc
 50
89.9999571957
 51
180.0000428042
  0
LINE
  5
302
100
AcDbEntity
  8
0
100
AcDbLine
 62
7
  6
CONTINUOUS
 10
13.2934226764
 20
2.5324773361
 11
13.2582556569
 21
2.5324773361
  0
ARC
  5
303
100
AcDbEntity
  8
0
100
AcDbCircle
 62
7
  6
CONTINUOUS
 10
13.2582556551
 20
2.5300023366
 40
0.0024749995
100
AcDbArc
 50
89.9999571957
 51
180.0000428043
  0
LINE
  5
304
100
AcDbEntity
  8
0
100
AcDbLine
 62
7
  6
CONTINUOUS
 10
13.2557806555
 20
2.5300023347
 11
13.2557806555
 21
2.5184523283
  0
ARC
  5
305
100
AcDbEntity
  8
0
100
AcDbCircle
 62
7
  6
CONTINUOUS
 10
13.2582556551
 20
2.5184523265
 40
0.0024749995
100
AcDbArc
 50
179.9999571957
 51
270.0000428043
  0
LINE
  5
306
100
AcDbEntity
  8
0
100
AcDbLine
 62
7
  6
CONTINUOUS
 10
13.2582556569
 20
2.515977327
 11
13.3232596929
 21
2.515977327
  0
ARC
  5
307
100
AcDbEntity
  8
0
100
AcDbCircle
 62
7
  6
CONTINUOUS
 10
13.3232596948
 20
2.5184523265
 40
0.0024749995
100
AcDbArc
 50
269.9999571957
 51
0.0000428043
  0
LINE
  5
308
100
AcDbEntity
  8
0
100
AcDbLine
 62
7
  6
CONTINUOUS
 10
13.3257346943
 20
2.5184523283
 11
13.3257346943
 21
2.5267023329
  0
ARC
  5
309
100
AcDbEntity
  8
0
100
AcDbCircle
 62
7
  6
CONTINUOUS
 10
13.3282096938
 20
2.5267023348
 40
0.0024749995
100
AcDbArc
 50
89.9999571957
 51
180.0000428043
  0
LINE
  5
30A
100
AcDbEntity
  8
0
100
AcDbLine
 62
7
  6
CONTINUOUS
 10
13.3282096957
 20
2.5291773343
 11
13.3705287192
 21
2.5291773343
  0
ARC
  5
30B
100
AcDbEntity
  8
0
100
AcDbCircle
 62
7
  6
CONTINUOUS
 10
13.370528721
 20
2.5267023348
 40
0.0024749995
100
AcDbArc
 50
359.9999571957
 51
90.0000428043
  0
LINE
  5
30C
100
AcDbEntity
  8
0
100
AcDbLine
 62
7
  6
CONTINUOUS
 10
13.3730037205
 20
2.5267023329
 11
13.3730037205
 21
2.4937023146
  0
ARC
  5
30D
100
AcDbEntity
  8
0
100
AcDbCircle
 62
7
  6
CONTINUOUS
 10
13.370528721
 20
2.4937023128
 40
0.0024749995
100
AcDbArc
 50
269.9999571957
 51
0.0000428043
  0
LINE
  5
30E
100
AcDbEntity
  8
0
100
AcDbLine
 62
7
  6
CONTINUOUS
 10
13.3705287192
 20
2.4912273132
 11
13.1673166065
 21
2.4912273132
  0
ARC
  5
30F
100
AcDbEntity
  8
0
100
AcDbCircle
 62
7
  6
CONTINUOUS
 10
13.1673166046
 20
2.4937023128
 40
0.0024749995
100
AcDbArc
 50
179.9999571957
 51
270.0000428043
  0
LINE
  5
310
100
AcDbEntity
  8
0
100
AcDbLine
 62
7
  6
CONTINUOUS
 10
13.1648416051
 20
2.4937023146
 11
13.1648416051
 21
2.5135023256
  0
ARC
  5
311
100
AcDbEntity
  8
0
100
AcDbCircle
 62
7
  6
CONTINUOUS
 10
13.1673166046
 20
2.5135023274
 40
0.0024749995
100
AcDbArc
 50
89.9999571957
 51
180.0000428043
  0
LINE
  5
312
100
AcDbEntity
  8
0
100
AcDbLine
 62
7
  6
CONTINUOUS
 10
13.1673166065
 20
2.515977327
 11
13.1912396197
 21
2.515977327
  0
ARC
  5
313
100
AcDbEntity
  8
0
100
AcDbCircle
 62
7
  6
CONTINUOUS
 10
13.1912396216
 20
2.5184523265
 40
0.0024749995
100
AcDbArc
 50
269.9999571957
 51
0.0000428042
  0
LINE
  5
314
100
AcDbEntity
  8
0
100
AcDbLine
 62
7
  6
CONTINUOUS
 10
13.1937146211
 20
2.5184523283
 11
13.1937146211
 21
2.564807354
  0
ARC
  5
315
100
AcDbEntity
  8
0
100
AcDbCircle
 62
7
  6
CONTINUOUS
 10
13.1912396216
 20
2.5648073559
 40
0.0024749995
100
AcDbArc
 50
359.9999571957
 51
90.0000428043
  0
LINE
  5
316
100
AcDbEntity
  8
0
100
AcDbLine
 62
7
  6
CONTINUOUS
 10
13.1912396197
 20
2.5672823554
 11
13.1673166065
 21
2.5672823554
  0
ARC
  5
317
100
AcDbEntity
  8
0
100
AcDbCircle
 62
7
  6
CONTINUOUS
 10
13.1673166046
 20
2.5697573549
 40
0.0024749995
100
AcDbArc
 50
179.9999571957
 51
270.0000428043
  0
LINE
  5
318
100
AcDbEntity
  8
0
100
AcDbLine
 62
7
  6
CONTINUOUS
 10
13.1648416051
 20
2.5697573568
 11
13.1648416051
 21
2.5895573678
  0
ARC
  5
319
100
AcDbEntity
  8
0
100
AcDbCircle
 62
7
  6
CONTINUOUS
 10
13.1673166046
 20
2.5895573696
 40
0.0024749995
100
AcDbArc
 50
89.9999571957
 51
180.0000428043
  0
LINE
  5
31A
100
AcDbEntity
  8
0
100
AcDbLine
 62
7
  6
CONTINUOUS
 10
13.1673166065
 20
2.5920323691
 11
13.3691097184
 21
2.5920323691
  0
ARC
  5
31B
100
AcDbEntity
  8
0
100
AcDbCircle
 62
7
  6
CONTINUOUS
 10
13.3691097202
 20
2.5895573696
 40
0.0024749995
100
AcDbArc
 50
359.9999571957
 51
90.0000428043
  0
LINE
  5
31C
100
AcDbEntity
  8
0
100
AcDbLine
 62
7
  6
CONTINUOUS
 10
13.3715847197
 20
2.5895573678
 11
13.3715847197
 21
2.5565573495
  0
ARC
  5
31D
100
AcDbEntity
  8
0
100
AcDbCircle
 62
7
  6
CONTINUOUS
 10
13.3691097202
 20
2.5565573476
 40
0.0024749995
100
AcDbArc
 50
269.9999571957
 51
0.0000428042
  0
LINE
  5
31E
100
AcDbEntity
  8
0
100
AcDbLine
 62
7
  6
CONTINUOUS
 10
13.3691097184
 20
2.5540823481
 11
13.3272456952
 21
2.5540823481
  0
ARC
  5
31F
100
AcDbEntity
  8
0
100
AcDbCircle
 62
7
  6
CONTINUOUS
 10
13.3272456933
 20
2.5565573476
 40
0.0024749995
100
AcDbArc
 50
179.9999571957
 51
270.0000428043
  0
LINE
  5
320
100
AcDbEntity
  8
0
100
AcDbLine
 62
7
  6
CONTINUOUS
 10
13.3247706938
 20
2.5565573495
 11
13.3247706938
 21
2.564807354
  0
ARC
  5
321
100
AcDbEntity
  8
0
100
AcDbCircle
 62
7
  6
CONTINUOUS
 10
13.3222956943
 20
2.5648073559
 40
0.0024749995
100
AcDbArc
 50
359.9999571957
 51
90.0000428043
  0
LINE
  5
322
100
AcDbEntity
  8
0
100
AcDbLine
 62
7
  6
CONTINUOUS
 10
13.3222956924
 20
2.5672823554
 11
13.2582556569
 21
2.5672823554
  0
ARC
  5
323
100
AcDbEntity
  8
0
100
AcDbCircle
 62
7
  6
CONTINUOUS
 10
13.2582556551
 20
2.5648073559
 40
0.0024749995
100
AcDbArc
 50
89.9999571957
 51
180.0000428043
  0
LINE
  5
324
100
AcDbEntity
  8
0
100
AcDbLine
 62
7
  6
CONTINUOUS
 10
13.2557806555
 20
2.564807354
 11
13.2557806555
 21
2.5532573476
  0
ARC
  5
325
100
AcDbEntity
  8
0
100
AcDbCircle
 62
7
  6
CONTINUOUS
 10
13.2582556551
 20
2.5532573458
 40
0.0024749995
100
AcDbArc
 50
179.9999571957
 51
270.0000428043
  0
LINE
  5
326
100
AcDbEntity
  8
0
100
AcDbLine
 62
7
  6
CONTINUOUS
 10
13.2582556569
 20
2.5507823463
 11
13.2934226764
 21
2.5507823463
  0
ARC
  5
327
100
AcDbEntity
  8
0
100
AcDbCircle
 62
7
  6
CONTINUOUS
 10
13.2934226783
 20
2.5483073467
 40
0.0024749995
100
AcDbArc
 50
359.9999571957
 51
90.0000428043
  0
LINE
  5
328
100
AcDbEntity
  8
0
100
AcDbLine
 62
7
  6
CONTINUOUS
 10
13.2958976778
 20
2.5483073449
 11
13.2958976778
 21
2.5349523375
  0
ARC
  5
329
100
AcDbEntity
  8
0
100
AcDbCircle
 62
7
  6
CONTINUOUS
 10
13.2934226783
 20
2.5349523356
 40
0.0024749995
100
AcDbArc
 50
269.9999571957
 51
0.0000428042
  0
LINE
  5
32A
100
AcDbEntity
  8
0
100
AcDbLine
 62
7
  6
CONTINUOUS
 10
13.7286871589
 20
2.5350697372
 11
13.7286871589
 21
2.5456869438
  0
LINE
  5
32B
100
AcDbEntity
  8
0
100
AcDbLine
 62
7
  6
CONTINUOUS
 10
13.7086871478
 20
2.5004302075
 11
13.7086871478
 21
2.5803264735
  0
LINE
  5
32C
100
AcDbEntity
  8
0
100
AcDbLine
 62
7
  6
CONTINUOUS
 10
13.6886871368
 20
2.4843919416
 11
13.6886871368
 21
2.5963647394
  0
LINE
  5
32D
100
AcDbEntity
  8
0
100
AcDbLine
 62
7
  6
CONTINUOUS
 10
13.6686871257
 20
2.4726017898
 11
13.6686871257
 21
2.6081548911
  0
LINE
  5
32E
100
AcDbEntity
  8
0
100
AcDbLine
 62
7
  6
CONTINUOUS
 10
13.6486871146
 20
2.4628062688
 11
13.6486871146
 21
2.6179504122
  0
LINE
  5
32F
100
AcDbEntity
  8
0
100
AcDbLine
 62
7
  6
CONTINUOUS
 10
13.6286871035
 20
2.4541253507
 11
13.6286871035
 21
2.5062483056
  0
LINE
  5
330
100
AcDbEntity
  8
0
100
AcDbLine
 62
7
  6
CONTINUOUS
 10
13.6286871035
 20
2.5301143348
 11
13.6286871035
 21
2.6266313303
  0
LINE
  5
331
100
AcDbEntity
  8
0
100
AcDbLine
 62
7
  6
CONTINUOUS
 10
13.6086870924
 20
2.4465537903
 11
13.6086870924
 21
2.4918774918
  0
LINE
  5
332
100
AcDbEntity
  8
0
100
AcDbLine
 62
7
  6
CONTINUOUS
 10
13.6086870924
 20
2.5165781173
 11
13.6086870924
 21
2.6342028907
  0
LINE
  5
333
100
AcDbEntity
  8
0
100
AcDbLine
 62
7
  6
CONTINUOUS
 10
13.5886870813
 20
2.4398033466
 11
13.5886870813
 21
2.4912273132
  0
LINE
  5
334
100
AcDbEntity
  8
0
100
AcDbLine
 62
7
  6
CONTINUOUS
 10
13.5886870813
 20
2.5391840845
 11
13.5886870813
 21
2.5454298327
  0
LINE
  5
335
100
AcDbEntity
  8
0
100
AcDbLine
 62
7
  6
CONTINUOUS
 10
13.5886870813
 20
2.5862063472
 11
13.5886870813
 21
2.6409533343
  0
LINE
  5
336
100
AcDbEntity
  8
0
100
AcDbLine
 62
7
  6
CONTINUOUS
 10
13.5686870702
 20
2.4334702189
 11
13.5686870702
 21
2.4912273132
  0
LINE
  5
337
100
AcDbEntity
  8
0
100
AcDbLine
 62
7
  6
CONTINUOUS
 10
13.5686870702
 20
2.5906587765
 11
13.5686870702
 21
2.647286462
  0
LINE
  5
338
100
AcDbEntity
  8
0
100
AcDbLine
 62
7
  6
CONTINUOUS
 10
13.5486870591
 20
2.4278968124
 11
13.5486870591
 21
2.4937461006
  0
LINE
  5
339
100
AcDbEntity
  8
0
100
AcDbLine
 62
7
  6
CONTINUOUS
 10
13.5486870591
 20
2.5920323691
 11
13.5486870591
 21
2.6528598686
  0
LINE
  5
33A
100
AcDbEntity
  8
0
100
AcDbLine
 62
7
  6
CONTINUOUS
 10
13.528687048
 20
2.4225427674
 11
13.528687048
 21
2.5270426993
  0
LINE
  5
33B
100
AcDbEntity
  8
0
100
AcDbLine
 62
7
  6
CONTINUOUS
 10
13.528687048
 20
2.5505166259
 11
13.528687048
 21
2.5668657091
  0
LINE
  5
33C
100
AcDbEntity
  8
0
100
AcDbLine
 62
7
  6
CONTINUOUS
 10
13.528687048
 20
2.5920323691
 11
13.528687048
 21
2.6582139136
  0
LINE
  5
33D
100
AcDbEntity
  8
0
100
AcDbLine
 62
7
  6
CONTINUOUS
 10
13.5086870369
 20
2.4177306791
 11
13.5086870369
 21
2.4912273132
  0
LINE
  5
33E
100
AcDbEntity
  8
0
100
AcDbLine
 62
7
  6
CONTINUOUS
 10
13.5086870369
 20
2.5159553269
 11
13.5086870369
 21
2.5306043351
  0
LINE
  5
33F
100
AcDbEntity
  8
0
100
AcDbLine
 62
7
  6
CONTINUOUS
 10
13.5086870369
 20
2.5496073456
 11
13.5086870369
 21
2.5672823554
  0
LINE
  5
340
100
AcDbEntity
  8
0
100
AcDbLine
 62
7
  6
CONTINUOUS
 10
13.5086870369
 20
2.5920323691
 11
13.5086870369
 21
2.6630260019
  0
LINE
  5
341
100
AcDbEntity
  8
0
100
AcDbLine
 62
7
  6
CONTINUOUS
 10
13.4886870258
 20
2.4131795254
 11
13.4886870258
 21
2.4912273132
  0
LINE
  5
342
100
AcDbEntity
  8
0
100
AcDbLine
 62
7
  6
CONTINUOUS
 10
13.4886870258
 20
2.5159553269
 11
13.4886870258
 21
2.5306043351
  0
LINE
  5
343
100
AcDbEntity
  8
0
100
AcDbLine
 62
7
  6
CONTINUOUS
 10
13.4886870258
 20
2.5496073456
 11
13.4886870258
 21
2.5672823554
  0
LINE
  5
344
100
AcDbEntity
  8
0
100
AcDbLine
 62
7
  6
CONTINUOUS
 10
13.4886870258
 20
2.5920323691
 11
13.4886870258
 21
2.6675771555
  0
LINE
  5
345
100
AcDbEntity
  8
0
100
AcDbLine
 62
7
  6
CONTINUOUS
 10
13.4686870147
 20
2.4088819672
 11
13.4686870147
 21
2.4912273132
  0
LINE
  5
346
100
AcDbEntity
  8
0
100
AcDbLine
 62
7
  6
CONTINUOUS
 10
13.4686870147
 20
2.5920323691
 11
13.4686870147
 21
2.6718747138
  0
LINE
  5
347
100
AcDbEntity
  8
0
100
AcDbLine
 62
7
  6
CONTINUOUS
 10
13.4486870037
 20
2.4050092072
 11
13.4486870037
 21
2.4912273132
  0
LINE
  5
348
100
AcDbEntity
  8
0
100
AcDbLine
 62
7
  6
CONTINUOUS
 10
13.4486870037
 20
2.5920323691
 11
13.4486870037
 21
2.6757474738
  0
LINE
  5
349
100
AcDbEntity
  8
0
100
AcDbLine
 62
7
  6
CONTINUOUS
 10
13.4286869926
 20
2.4011364471
 11
13.4286869926
 21
2.4912273132
  0
LINE
  5
34A
100
AcDbEntity
  8
0
100
AcDbLine
 62
7
  6
CONTINUOUS
 10
13.4286869926
 20
2.5920323691
 11
13.4286869926
 21
2.6796202339
  0
LINE
  5
34B
100
AcDbEntity
  8
0
100
AcDbLine
 62
7
  6
CONTINUOUS
 10
13.4086869815
 20
2.3980226662
 11
13.4086869815
 21
2.4912273132
  0
LINE
  5
34C
100
AcDbEntity
  8
0
100
AcDbLine
 62
7
  6
CONTINUOUS
 10
13.4086869815
 20
2.515977327
 11
13.4086869815
 21
2.5672823554
  0
LINE
  5
34D
100
AcDbEntity
  8
0
100
AcDbLine
 62
7
  6
CONTINUOUS
 10
13.4086869815
 20
2.5920323691
 11
13.4086869815
 21
2.6827340148
  0
LINE
  5
34E
100
AcDbEntity
  8
0
100
AcDbLine
 62
7
  6
CONTINUOUS
 10
13.3886869704
 20
2.3950052774
 11
13.3886869704
 21
2.6857514036
  0
LINE
  5
34F
100
AcDbEntity
  8
0
100
AcDbLine
 62
7
  6
CONTINUOUS
 10
13.3686869593
 20
2.3919878885
 11
13.3686869593
 21
2.4912273132
  0
LINE
  5
350
100
AcDbEntity
  8
0
100
AcDbLine
 62
7
  6
CONTINUOUS
 10
13.3686869593
 20
2.5291773343
 11
13.3686869593
 21
2.5540823481
  0
LINE
  5
351
100
AcDbEntity
  8
0
100
AcDbLine
 62
7
  6
CONTINUOUS
 10
13.3686869593
 20
2.5920323691
 11
13.3686869593
 21
2.6887687924
  0
LINE
  5
352
100
AcDbEntity
  8
0
100
AcDbLine
 62
7
  6
CONTINUOUS
 10
13.3486869482
 20
2.3889704997
 11
13.3486869482
 21
2.4912273132
  0
LINE
  5
353
100
AcDbEntity
  8
0
100
AcDbLine
 62
7
  6
CONTINUOUS
 10
13.3486869482
 20
2.5291773343
 11
13.3486869482
 21
2.5540823481
  0
LINE
  5
354
100
AcDbEntity
  8
0
100
AcDbLine
 62
7
  6
CONTINUOUS
 10
13.3486869482
 20
2.5920323691
 11
13.3486869482
 21
2.6917861813
  0
LINE
  5
355
100
AcDbEntity
  8
0
100
AcDbLine
 62
7
  6
CONTINUOUS
 10
13.3286869371
 20
2.3859531109
 11
13.3286869371
 21
2.4912273132
  0
LINE
  5
356
100
AcDbEntity
  8
0
100
AcDbLine
 62
7
  6
CONTINUOUS
 10
13.3286869371
 20
2.5291773343
 11
13.3286869371
 21
2.5540823481
  0
LINE
  5
357
100
AcDbEntity
  8
0
100
AcDbLine
 62
7
  6
CONTINUOUS
 10
13.3286869371
 20
2.5920323691
 11
13.3286869371
 21
2.6948035701
  0
LINE
  5
358
100
AcDbEntity
  8
0
100
AcDbLine
 62
7
  6
CONTINUOUS
 10
13.308686926
 20
2.3833355437
 11
13.308686926
 21
2.4912273132
  0
LINE
  5
359
100
AcDbEntity
  8
0
100
AcDbLine
 62
7
  6
CONTINUOUS
 10
13.308686926
 20
2.515977327
 11
13.308686926
 21
2.5672823554
  0
LINE
  5
35A
100
AcDbEntity
  8
0
100
AcDbLine
 62
7
  6
CONTINUOUS
 10
13.308686926
 20
2.5920323691
 11
13.308686926
 21
2.6974211373
  0
LINE
  5
35B
100
AcDbEntity
  8
0
100
AcDbLine
 62
7
  6
CONTINUOUS
 10
13.2886869149
 20
2.3812612684
 11
13.2886869149
 21
2.4912273132
  0
LINE
  5
35C
100
AcDbEntity
  8
0
100
AcDbLine
 62
7
  6
CONTINUOUS
 10
13.2886869149
 20
2.515977327
 11
13.2886869149
 21
2.5324773361
  0
LINE
  5
35D
100
AcDbEntity
  8
0
100
AcDbLine
 62
7
  6
CONTINUOUS
 10
13.2886869149
 20
2.5507823463
 11
13.2886869149
 21
2.5672823554
  0
LINE
  5
35E
100
AcDbEntity
  8
0
100
AcDbLine
 62
7
  6
CONTINUOUS
 10
13.2886869149
 20
2.5920323691
 11
13.2886869149
 21
2.6994954125
  0
LINE
  5
35F
100
AcDbEntity
  8
0
100
AcDbLine
 62
7
  6
CONTINUOUS
 10
13.2686869038
 20
2.3791869932
 11
13.2686869038
 21
2.4912273132
  0
LINE
  5
360
100
AcDbEntity
  8
0
100
AcDbLine
 62
7
  6
CONTINUOUS
 10
13.2686869038
 20
2.515977327
 11
13.2686869038
 21
2.5324773361
  0
LINE
  5
361
100
AcDbEntity
  8
0
100
AcDbLine
 62
7
  6
CONTINUOUS
 10
13.2686869038
 20
2.5507823463
 11
13.2686869038
 21
2.5672823554
  0
LINE
  5
362
100
AcDbEntity
  8
0
100
AcDbLine
 62
7
  6
CONTINUOUS
 10
13.2686869038
 20
2.5920323691
 11
13.2686869038
 21
2.7015696878
  0
LINE
  5
363
100
AcDbEntity
  8
0
100
AcDbLine
 62
7
  6
CONTINUOUS
 10
13.2486868927
 20
2.377112718
 11
13.2486868927
 21
2.4912273132
  0
LINE
  5
364
100
AcDbEntity
  8
0
100
AcDbLine
 62
7
  6
CONTINUOUS
 10
13.2486868927
 20
2.5920323691
 11
13.2486868927
 21
2.703643963
  0
LINE
  5
365
100
AcDbEntity
  8
0
100
AcDbLine
 62
7
  6
CONTINUOUS
 10
13.2286868817
 20
2.3750384428
 11
13.2286868817
 21
2.4912273132
  0
LINE
  5
366
100
AcDbEntity
  8
0
100
AcDbLine
 62
7
  6
CONTINUOUS
 10
13.2286868817
 20
2.5920323691
 11
13.2286868817
 21
2.7057182382
  0
LINE
  5
367
100
AcDbEntity
  8
0
100
AcDbLine
 62
7
  6
CONTINUOUS
 10
13.2086868706
 20
2.3729641676
 11
13.2086868706
 21
2.4912273132
  0
LINE
  5
368
100
AcDbEntity
  8
0
100
AcDbLine
 62
7
  6
CONTINUOUS
 10
13.2086868706
 20
2.5920323691
 11
13.2086868706
 21
2.7077925134
  0
LINE
  5
369
100
AcDbEntity
  8
0
100
AcDbLine
 62
7
  6
CONTINUOUS
 10
13.1886868595
 20
2.3712344456
 11
13.1886868595
 21
2.4912273132
  0
LINE
  5
36A
100
AcDbEntity
  8
0
100
AcDbLine
 62
7
  6
CONTINUOUS
 10
13.1886868595
 20
2.515977327
 11
13.1886868595
 21
2.5672823554
  0
LINE
  5
36B
100
AcDbEntity
  8
0
100
AcDbLine
 62
7
  6
CONTINUOUS
 10
13.1886868595
 20
2.5920323691
 11
13.1886868595
 21
2.7095222354
  0
LINE
  5
36C
100
AcDbEntity
  8
0
100
AcDbLine
 62
7
  6
CONTINUOUS
 10
13.1686868484
 20
2.3699682418
 11
13.1686868484
 21
2.4912273132
  0
LINE
  5
36D
100
AcDbEntity
  8
0
100
AcDbLine
 62
7
  6
CONTINUOUS
 10
13.1686868484
 20
2.515977327
 11
13.1686868484
 21
2.5672823554
  0
LINE
  5
36E
100
AcDbEntity
  8
0
100
AcDbLine
 62
7
  6
CONTINUOUS
 10
13.1686868484
 20
2.5920323691
 11
13.1686868484
 21
2.7107884392
  0
LINE
  5
36F
100
AcDbEntity
  8
0
100
AcDbLine
 62
7
  6
CONTINUOUS
 10
13.1486868373
 20
2.3687020381
 11
13.1486868373
 21
2.7120546429
  0
LINE
  5
370
100
AcDbEntity
  8
0
100
AcDbLine
 62
7
  6
CONTINUOUS
 10
13.1286868262
 20
2.3674358343
 11
13.1286868262
 21
2.5672823554
  0
LINE
  5
371
100
AcDbEntity
  8
0
100
AcDbLine
 62
7
  6
CONTINUOUS
 10
13.1286868262
 20
2.5920323691
 11
13.1286868262
 21
2.7133208466
  0
LINE
  5
372
100
AcDbEntity
  8
0
100
AcDbLine
 62
7
  6
CONTINUOUS
 10
13.1086868151
 20
2.3661696306
 11
13.1086868151
 21
2.4912273132
  0
LINE
  5
373
100
AcDbEntity
  8
0
100
AcDbLine
 62
7
  6
CONTINUOUS
 10
13.1086868151
 20
2.5920323691
 11
13.1086868151
 21
2.7145870504
  0
LINE
  5
374
100
AcDbEntity
  8
0
100
AcDbLine
 62
7
  6
CONTINUOUS
 10
13.088686804
 20
2.3649034269
 11
13.088686804
 21
2.4912273132
  0
LINE
  5
375
100
AcDbEntity
  8
0
100
AcDbLine
 62
7
  6
CONTINUOUS
 10
13.088686804
 20
2.5920323691
 11
13.088686804
 21
2.7158532541
  0
LINE
  5
376
100
AcDbEntity
  8
0
100
AcDbLine
 62
7
  6
CONTINUOUS
 10
13.0686867929
 20
2.3636739922
 11
13.0686867929
 21
2.4912273132
  0
LINE
  5
377
100
AcDbEntity
  8
0
100
AcDbLine
 62
7
  6
CONTINUOUS
 10
13.0686867929
 20
2.5475272398
 11
13.0686867929
 21
2.5672823554
  0
LINE
  5
378
100
AcDbEntity
  8
0
100
AcDbLine
 62
7
  6
CONTINUOUS
 10
13.0686867929
 20
2.5920323691
 11
13.0686867929
 21
2.7170826887
  0
LINE
  5
379
100
AcDbEntity
  8
0
100
AcDbLine
 62
7
  6
CONTINUOUS
 10
13.0486867818
 20
2.363143203
 11
13.0486867818
 21
2.4912273132
  0
LINE
  5
37A
100
AcDbEntity
  8
0
100
AcDbLine
 62
7
  6
CONTINUOUS
 10
13.0486867818
 20
2.5666100882
 11
13.0486867818
 21
2.717613478
  0
LINE
  5
37B
100
AcDbEntity
  8
0
100
AcDbLine
 62
7
  6
CONTINUOUS
 10
13.0286867707
 20
2.3626124138
 11
13.0286867707
 21
2.50359263
  0
LINE
  5
37C
100
AcDbEntity
  8
0
100
AcDbLine
 62
7
  6
CONTINUOUS
 10
13.0286867707
 20
2.5856929366
 11
13.0286867707
 21
2.7181442672
  0
LINE
  5
37D
100
AcDbEntity
  8
0
100
AcDbLine
 62
7
  6
CONTINUOUS
 10
13.0086867596
 20
2.3620816246
 11
13.0086867596
 21
2.5226754472
  0
LINE
  5
37E
100
AcDbEntity
  8
0
100
AcDbLine
 62
7
  6
CONTINUOUS
 10
13.0086867596
 20
2.5920323691
 11
13.0086867596
 21
2.7186750564
  0
LINE
  5
37F
100
AcDbEntity
  8
0
100
AcDbLine
 62
7
  6
CONTINUOUS
 10
12.9886867486
 20
2.3615508354
 11
12.9886867486
 21
2.4912273132
  0
LINE
  5
380
100
AcDbEntity
  8
0
100
AcDbLine
 62
7
  6
CONTINUOUS
 10
12.9886867486
 20
2.515977327
 11
12.9886867486
 21
2.5417582644
  0
LINE
  5
381
100
AcDbEntity
  8
0
100
AcDbLine
 62
7
  6
CONTINUOUS
 10
12.9886867486
 20
2.5920323691
 11
12.9886867486
 21
2.7192058456
  0
LINE
  5
382
100
AcDbEntity
  8
0
100
AcDbLine
 62
7
  6
CONTINUOUS
 10
12.9686867375
 20
2.3610200462
 11
12.9686867375
 21
2.4912273132
  0
LINE
  5
383
100
AcDbEntity
  8
0
100
AcDbLine
 62
7
  6
CONTINUOUS
 10
12.9686867375
 20
2.5920323691
 11
12.9686867375
 21
2.7197366348
  0
LINE
  5
384
100
AcDbEntity
  8
0
100
AcDbLine
 62
7
  6
CONTINUOUS
 10
12.9486867264
 20
2.360489257
 11
12.9486867264
 21
2.4912273132
  0
LINE
  5
385
100
AcDbEntity
  8
0
100
AcDbLine
 62
7
  6
CONTINUOUS
 10
12.9486867264
 20
2.5920323691
 11
12.9486867264
 21
2.720267424
  0
LINE
  5
386
100
AcDbEntity
  8
0
100
AcDbLine
 62
7
  6
CONTINUOUS
 10
12.9286867153
 20
2.3602836008
 11
12.9286867153
 21
2.4912273132
  0
LINE
  5
387
100
AcDbEntity
  8
0
100
AcDbLine
 62
7
  6
CONTINUOUS
 10
12.9286867153
 20
2.515977327
 11
12.9286867153
 21
2.5672823554
  0
LINE
  5
388
100
AcDbEntity
  8
0
100
AcDbLine
 62
7
  6
CONTINUOUS
 10
12.9286867153
 20
2.5920323691
 11
12.9286867153
 21
2.7204730802
  0
LINE
  5
389
100
AcDbEntity
  8
0
100
AcDbLine
 62
7
  6
CONTINUOUS
 10
12.9086867042
 20
2.3604597639
 11
12.9086867042
 21
2.7202969171
  0
LINE
  5
38A
100
AcDbEntity
  8
0
100
AcDbLine
 62
7
  6
CONTINUOUS
 10
12.8886866931
 20
2.360635927
 11
12.8886866931
 21
2.5672823554
  0
LINE
  5
38B
100
AcDbEntity
  8
0
100
AcDbLine
 62
7
  6
CONTINUOUS
 10
12.8886866931
 20
2.5920323691
 11
12.8886866931
 21
2.720120754
  0
LINE
  5
38C
100
AcDbEntity
  8
0
100
AcDbLine
 62
7
  6
CONTINUOUS
 10
12.868686682
 20
2.3608120901
 11
12.868686682
 21
2.491232357
  0
LINE
  5
38D
100
AcDbEntity
  8
0
100
AcDbLine
 62
7
  6
CONTINUOUS
 10
12.868686682
 20
2.5920323691
 11
12.868686682
 21
2.7199445909
  0
LINE
  5
38E
100
AcDbEntity
  8
0
100
AcDbLine
 62
7
  6
CONTINUOUS
 10
12.8486866709
 20
2.3609882532
 11
12.8486866709
 21
2.4912273132
  0
LINE
  5
38F
100
AcDbEntity
  8
0
100
AcDbLine
 62
7
  6
CONTINUOUS
 10
12.8486866709
 20
2.5920323691
 11
12.8486866709
 21
2.7197684278
  0
LINE
  5
390
100
AcDbEntity
  8
0
100
AcDbLine
 62
7
  6
CONTINUOUS
 10
12.8286866598
 20
2.3611644163
 11
12.8286866598
 21
2.4912273132
  0
LINE
  5
391
100
AcDbEntity
  8
0
100
AcDbLine
 62
7
  6
CONTINUOUS
 10
12.8286866598
 20
2.5396527025
 11
12.8286866598
 21
2.5672823554
  0
LINE
  5
392
100
AcDbEntity
  8
0
100
AcDbLine
 62
7
  6
CONTINUOUS
 10
12.8286866598
 20
2.5920323691
 11
12.8286866598
 21
2.7195922647
  0
LINE
  5
393
100
AcDbEntity
  8
0
100
AcDbLine
 62
7
  6
CONTINUOUS
 10
12.8086866487
 20
2.3613405794
 11
12.8086866487
 21
2.4912273132
  0
LINE
  5
394
100
AcDbEntity
  8
0
100
AcDbLine
 62
7
  6
CONTINUOUS
 10
12.8086866487
 20
2.5587355508
 11
12.8086866487
 21
2.7194161016
  0
LINE
  5
395
100
AcDbEntity
  8
0
100
AcDbLine
 62
7
  6
CONTINUOUS
 10
12.7886866376
 20
2.3621089572
 11
12.7886866376
 21
2.4957181055
  0
LINE
  5
396
100
AcDbEntity
  8
0
100
AcDbLine
 62
7
  6
CONTINUOUS
 10
12.7886866376
 20
2.5778183992
 11
12.7886866376
 21
2.7186477238
  0
LINE
  5
397
100
AcDbEntity
  8
0
100
AcDbLine
 62
7
  6
CONTINUOUS
 10
12.7686866266
 20
2.3630013935
 11
12.7686866266
 21
2.5148009227
  0
LINE
  5
398
100
AcDbEntity
  8
0
100
AcDbLine
 62
7
  6
CONTINUOUS
 10
12.7686866266
 20
2.5920323691
 11
12.7686866266
 21
2.7177552874
  0
LINE
  5
399
100
AcDbEntity
  8
0
100
AcDbLine
 62
7
  6
CONTINUOUS
 10
12.7486866155
 20
2.3638938299
 11
12.7486866155
 21
2.4913263218
  0
LINE
  5
39A
100
AcDbEntity
  8
0
100
AcDbLine
 62
7
  6
CONTINUOUS
 10
12.7486866155
 20
2.5158783184
 11
12.7486866155
 21
2.5338837399
  0
LINE
  5
39B
100
AcDbEntity
  8
0
100
AcDbLine
 62
7
  6
CONTINUOUS
 10
12.7486866155
 20
2.5920323691
 11
12.7486866155
 21
2.7168628511
  0
LINE
  5
39C
100
AcDbEntity
  8
0
100
AcDbLine
 62
7
  6
CONTINUOUS
 10
12.7286866044
 20
2.3647862663
 11
12.7286866044
 21
2.4912273132
  0
LINE
  5
39D
100
AcDbEntity
  8
0
100
AcDbLine
 62
7
  6
CONTINUOUS
 10
12.7286866044
 20
2.515977327
 11
12.7286866044
 21
2.5527601554
  0
LINE
  5
39E
100
AcDbEntity
  8
0
100
AcDbLine
 62
7
  6
CONTINUOUS
 10
12.7286866044
 20
2.5920323691
 11
12.7286866044
 21
2.7159704147
  0
LINE
  5
39F
100
AcDbEntity
  8
0
100
AcDbLine
 62
7
  6
CONTINUOUS
 10
12.7086865933
 20
2.3656787026
 11
12.7086865933
 21
2.4912273132
  0
LINE
  5
3A0
100
AcDbEntity
  8
0
100
AcDbLine
 62
7
  6
CONTINUOUS
 10
12.7086865933
 20
2.5920323691
 11
12.7086865933
 21
2.7150779784
  0
LINE
  5
3A1
100
AcDbEntity
  8
0
100
AcDbLine
 62
7
  6
CONTINUOUS
 10
12.6886865822
 20
2.366571139
 11
12.6886865822
 21
2.4912273132
  0
LINE
  5
3A2
100
AcDbEntity
  8
0
100
AcDbLine
 62
7
  6
CONTINUOUS
 10
12.6886865822
 20
2.515977327
 11
12.6886865822
 21
2.5672823554
  0
LINE
  5
3A3
100
AcDbEntity
  8
0
100
AcDbLine
 62
7
  6
CONTINUOUS
 10
12.6886865822
 20
2.5920323691
 11
12.6886865822
 21
2.714185542
  0
LINE
  5
3A4
100
AcDbEntity
  8
0
100
AcDbLine
 62
7
  6
CONTINUOUS
 10
12.6686865711
 20
2.3677104027
 11
12.6686865711
 21
2.7130462783
  0
LINE
  5
3A5
100
AcDbEntity
  8
0
100
AcDbLine
 62
7
  6
CONTINUOUS
 10
12.64868656
 20
2.3693682721
 11
12.64868656
 21
2.7113884089
  0
LINE
  5
3A6
100
AcDbEntity
  8
0
100
AcDbLine
 62
7
  6
CONTINUOUS
 10
12.6286865489
 20
2.3710261415
 11
12.6286865489
 21
2.4912273132
  0
LINE
  5
3A7
100
AcDbEntity
  8
0
100
AcDbLine
 62
7
  6
CONTINUOUS
 10
12.6286865489
 20
2.515977327
 11
12.6286865489
 21
2.7097305395
  0
LINE
  5
3A8
100
AcDbEntity
  8
0
100
AcDbLine
 62
7
  6
CONTINUOUS
 10
12.6086865378
 20
2.372684011
 11
12.6086865378
 21
2.4912273132
  0
LINE
  5
3A9
100
AcDbEntity
  8
0
100
AcDbLine
 62
7
  6
CONTINUOUS
 10
12.6086865378
 20
2.5351122279
 11
12.6086865378
 21
2.70807267
  0
LINE
  5
3AA
100
AcDbEntity
  8
0
100
AcDbLine
 62
7
  6
CONTINUOUS
 10
12.5886865267
 20
2.3743418804
 11
12.5886865267
 21
2.4912273132
  0
LINE
  5
3AB
100
AcDbEntity
  8
0
100
AcDbLine
 62
7
  6
CONTINUOUS
 10
12.5886865267
 20
2.5660172622
 11
12.5886865267
 21
2.7064148006
  0
LINE
  5
3AC
100
AcDbEntity
  8
0
100
AcDbLine
 62
7
  6
CONTINUOUS
 10
12.5686865156
 20
2.3759997498
 11
12.5686865156
 21
2.4912273132
  0
LINE
  5
3AD
100
AcDbEntity
  8
0
100
AcDbLine
 62
7
  6
CONTINUOUS
 10
12.5686865156
 20
2.5920323691
 11
12.5686865156
 21
2.7047569312
  0
LINE
  5
3AE
100
AcDbEntity
  8
0
100
AcDbLine
 62
7
  6
CONTINUOUS
 10
12.5486865045
 20
2.3777575277
 11
12.5486865045
 21
2.4912273132
  0
LINE
  5
3AF
100
AcDbEntity
  8
0
100
AcDbLine
 62
7
  6
CONTINUOUS
 10
12.5486865045
 20
2.515977327
 11
12.5486865045
 21
2.5275118824
  0
LINE
  5
3B0
100
AcDbEntity
  8
0
100
AcDbLine
 62
7
  6
CONTINUOUS
 10
12.5486865045
 20
2.5920323691
 11
12.5486865045
 21
2.7029991533
  0
LINE
  5
3B1
100
AcDbEntity
  8
0
100
AcDbLine
 62
7
  6
CONTINUOUS
 10
12.5286864935
 20
2.3802813811
 11
12.5286864935
 21
2.5296213345
  0
LINE
  5
3B2
100
AcDbEntity
  8
0
100
AcDbLine
 62
7
  6
CONTINUOUS
 10
12.5286864935
 20
2.5505713461
 11
12.5286864935
 21
2.5667383551
  0
LINE
  5
3B3
100
AcDbEntity
  8
0
100
AcDbLine
 62
7
  6
CONTINUOUS
 10
12.5286864935
 20
2.5920323691
 11
12.5286864935
 21
2.7004752999
  0
LINE
  5
3B4
100
AcDbEntity
  8
0
100
AcDbLine
 62
7
  6
CONTINUOUS
 10
12.5086864824
 20
2.3828052346
 11
12.5086864824
 21
2.4912273132
  0
LINE
  5
3B5
100
AcDbEntity
  8
0
100
AcDbLine
 62
7
  6
CONTINUOUS
 10
12.5086864824
 20
2.515977327
 11
12.5086864824
 21
2.5279667721
  0
LINE
  5
3B6
100
AcDbEntity
  8
0
100
AcDbLine
 62
7
  6
CONTINUOUS
 10
12.5086864824
 20
2.5868602074
 11
12.5086864824
 21
2.6979514464
  0
LINE
  5
3B7
100
AcDbEntity
  8
0
100
AcDbLine
 62
7
  6
CONTINUOUS
 10
12.4886864713
 20
2.385329088
 11
12.4886864713
 21
2.4912273132
  0
LINE
  5
3B8
100
AcDbEntity
  8
0
100
AcDbLine
 62
7
  6
CONTINUOUS
 10
12.4886864713
 20
2.5553401045
 11
12.4886864713
 21
2.695427593
  0
LINE
  5
3B9
100
AcDbEntity
  8
0
100
AcDbLine
 62
7
  6
CONTINUOUS
 10
12.4686864602
 20
2.3878529415
 11
12.4686864602
 21
2.4912273132
  0
LINE
  5
3BA
100
AcDbEntity
  8
0
100
AcDbLine
 62
7
  6
CONTINUOUS
 10
12.4686864602
 20
2.5238200015
 11
12.4686864602
 21
2.6929037395
  0
LINE
  5
3BB
100
AcDbEntity
  8
0
100
AcDbLine
 62
7
  6
CONTINUOUS
 10
12.4486864491
 20
2.390376795
 11
12.4486864491
 21
2.4912273132
  0
LINE
  5
3BC
100
AcDbEntity
  8
0
100
AcDbLine
 62
7
  6
CONTINUOUS
 10
12.4486864491
 20
2.515977327
 11
12.4486864491
 21
2.690379886
  0
LINE
  5
3BD
100
AcDbEntity
  8
0
100
AcDbLine
 62
7
  6
CONTINUOUS
 10
12.428686438
 20
2.3931794042
 11
12.428686438
 21
2.6875772768
  0
LINE
  5
3BE
100
AcDbEntity
  8
0
100
AcDbLine
 62
7
  6
CONTINUOUS
 10
12.4086864269
 20
2.3964643301
 11
12.4086864269
 21
2.5013773986
  0
LINE
  5
3BF
100
AcDbEntity
  8
0
100
AcDbLine
 62
7
  6
CONTINUOUS
 10
12.4086864269
 20
2.5325739971
 11
12.4086864269
 21
2.5537224311
  0
LINE
  5
3C0
100
AcDbEntity
  8
0
100
AcDbLine
 62
7
  6
CONTINUOUS
 10
12.4086864269
 20
2.5791473398
 11
12.4086864269
 21
2.6842923509
  0
LINE
  5
3C1
100
AcDbEntity
  8
0
100
AcDbLine
 62
7
  6
CONTINUOUS
 10
12.3886864158
 20
2.399749256
 11
12.3886864158
 21
2.4921022658
  0
LINE
  5
3C2
100
AcDbEntity
  8
0
100
AcDbLine
 62
7
  6
CONTINUOUS
 10
12.3886864158
 20
2.5895929958
 11
12.3886864158
 21
2.681007425
  0
LINE
  5
3C3
100
AcDbEntity
  8
0
100
AcDbLine
 62
7
  6
CONTINUOUS
 10
12.3686864047
 20
2.403451877
 11
12.3686864047
 21
2.4912273132
  0
LINE
  5
3C4
100
AcDbEntity
  8
0
100
AcDbLine
 62
7
  6
CONTINUOUS
 10
12.3686864047
 20
2.5920323691
 11
12.3686864047
 21
2.677304804
  0
LINE
  5
3C5
100
AcDbEntity
  8
0
100
AcDbLine
 62
7
  6
CONTINUOUS
 10
12.3486863936
 20
2.407324637
 11
12.3486863936
 21
2.4912273132
  0
LINE
  5
3C6
100
AcDbEntity
  8
0
100
AcDbLine
 62
7
  6
CONTINUOUS
 10
12.3486863936
 20
2.5920323691
 11
12.3486863936
 21
2.673432044
  0
LINE
  5
3C7
100
AcDbEntity
  8
0
100
AcDbLine
 62
7
  6
CONTINUOUS
 10
12.3286863825
 20
2.4113493968
 11
12.3286863825
 21
2.4912273132
  0
LINE
  5
3C8
100
AcDbEntity
  8
0
100
AcDbLine
 62
7
  6
CONTINUOUS
 10
12.3286863825
 20
2.515977327
 11
12.3286863825
 21
2.5333023366
  0
LINE
  5
3C9
100
AcDbEntity
  8
0
100
AcDbLine
 62
7
  6
CONTINUOUS
 10
12.3286863825
 20
2.5499573458
 11
12.3286863825
 21
2.5672823554
  0
LINE
  5
3CA
100
AcDbEntity
  8
0
100
AcDbLine
 62
7
  6
CONTINUOUS
 10
12.3286863825
 20
2.5920323691
 11
12.3286863825
 21
2.6694072842
  0
LINE
  5
3CB
100
AcDbEntity
  8
0
100
AcDbLine
 62
7
  6
CONTINUOUS
 10
12.3086863715
 20
2.4159005505
 11
12.3086863715
 21
2.4912273132
  0
LINE
  5
3CC
100
AcDbEntity
  8
0
100
AcDbLine
 62
7
  6
CONTINUOUS
 10
12.3086863715
 20
2.515977327
 11
12.3086863715
 21
2.5333023366
  0
LINE
  5
3CD
100
AcDbEntity
  8
0
100
AcDbLine
 62
7
  6
CONTINUOUS
 10
12.3086863715
 20
2.5499573458
 11
12.3086863715
 21
2.5672823554
  0
LINE
  5
3CE
100
AcDbEntity
  8
0
100
AcDbLine
 62
7
  6
CONTINUOUS
 10
12.3086863715
 20
2.5920323691
 11
12.3086863715
 21
2.6648561305
  0
LINE
  5
3CF
100
AcDbEntity
  8
0
100
AcDbLine
 62
7
  6
CONTINUOUS
 10
12.2886863604
 20
2.4204517041
 11
12.2886863604
 21
2.4912273132
  0
LINE
  5
3D0
100
AcDbEntity
  8
0
100
AcDbLine
 62
7
  6
CONTINUOUS
 10
12.2886863604
 20
2.5920323691
 11
12.2886863604
 21
2.6603049769
  0
LINE
  5
3D1
100
AcDbEntity
  8
0
100
AcDbLine
 62
7
  6
CONTINUOUS
 10
12.2686863493
 20
2.4257438218
 11
12.2686863493
 21
2.4912273132
  0
LINE
  5
3D2
100
AcDbEntity
  8
0
100
AcDbLine
 62
7
  6
CONTINUOUS
 10
12.2686863493
 20
2.5920323691
 11
12.2686863493
 21
2.6550128592
  0
LINE
  5
3D3
100
AcDbEntity
  8
0
100
AcDbLine
 62
7
  6
CONTINUOUS
 10
12.2486863382
 20
2.4310978667
 11
12.2486863382
 21
2.4912273132
  0
LINE
  5
3D4
100
AcDbEntity
  8
0
100
AcDbLine
 62
7
  6
CONTINUOUS
 10
12.2486863382
 20
2.5920323691
 11
12.2486863382
 21
2.6496588142
  0
LINE
  5
3D5
100
AcDbEntity
  8
0
100
AcDbLine
 62
7
  6
CONTINUOUS
 10
12.2286863271
 20
2.4372566433
 11
12.2286863271
 21
2.4912273132
  0
LINE
  5
3D6
100
AcDbEntity
  8
0
100
AcDbLine
 62
7
  6
CONTINUOUS
 10
12.2286863271
 20
2.515977327
 11
12.2286863271
 21
2.5672823554
  0
LINE
  5
3D7
100
AcDbEntity
  8
0
100
AcDbLine
 62
7
  6
CONTINUOUS
 10
12.2286863271
 20
2.5920323691
 11
12.2286863271
 21
2.6435000377
  0
LINE
  5
3D8
100
AcDbEntity
  8
0
100
AcDbLine
 62
7
  6
CONTINUOUS
 10
12.208686316
 20
2.443589771
 11
12.208686316
 21
2.4912273132
  0
LINE
  5
3D9
100
AcDbEntity
  8
0
100
AcDbLine
 62
7
  6
CONTINUOUS
 10
12.208686316
 20
2.515977327
 11
12.208686316
 21
2.5672823554
  0
LINE
  5
3DA
100
AcDbEntity
  8
0
100
AcDbLine
 62
7
  6
CONTINUOUS
 10
12.208686316
 20
2.5920323691
 11
12.208686316
 21
2.63716691
  0
LINE
  5
3DB
100
AcDbEntity
  8
0
100
AcDbLine
 62
7
  6
CONTINUOUS
 10
12.1886863049
 20
2.4510806436
 11
12.1886863049
 21
2.6296760373
  0
LINE
  5
3DC
100
AcDbEntity
  8
0
100
AcDbLine
 62
7
  6
CONTINUOUS
 10
12.1686862938
 20
2.4591016523
 11
12.1686862938
 21
2.6216550287
  0
LINE
  5
3DD
100
AcDbEntity
  8
0
100
AcDbLine
 62
7
  6
CONTINUOUS
 10
12.1486862827
 20
2.468314272
 11
12.1486862827
 21
2.612442409
  0
LINE
  5
3DE
100
AcDbEntity
  8
0
100
AcDbLine
 62
7
  6
CONTINUOUS
 10
12.1286862716
 20
2.4794932339
 11
12.1286862716
 21
2.601263447
  0
LINE
  5
3DF
100
AcDbEntity
  8
0
100
AcDbLine
 62
7
  6
CONTINUOUS
 10
12.1086862605
 20
2.4934150665
 11
12.1086862605
 21
2.5873416144
  0
LINE
  5
3E0
100
AcDbEntity
  8
0
100
AcDbLine
 62
7
  6
CONTINUOUS
 10
12.0886862494
 20
2.5144449553
 11
12.0886862494
 21
2.5663117257
  0
ENDBLK
  5
3E1
100
AcDbEntity
  8
0
  6
BYBLOCK
 62
0
100
AcDbBlockEnd
  0
BLOCK
  5
3E2
100
AcDbEntity
  8
0
100
AcDbBlockBegin
  2
_FILLED
 70
64
 10
0.0
 20
0.0
  3
_FILLED
  1

  0
SOLID
  5
3E3
100
AcDbEntity
  8
0
  6
BYBLOCK
 62
0
100
AcDbTrace
 10
0.0
 20
0.0
 11
-1.0
 21
0.1666666667
 12
-1.0
 22
-0.1666666667
 13
-1.0
 23
-0.1666666667
  0
ENDBLK
  5
3E4
100
AcDbEntity
  8
0
  6
BYBLOCK
 62
0
100
AcDbBlockEnd
  0
BLOCK
  5
3E5
100
AcDbEntity
  8
DRIVEN_DIMS
100
AcDbBlockBegin
 62
7
  6
CONTINUOUS
  2
*D0
 70
65
 10
0.0
 20
0.0
  3
*D0
  1

  0
MTEXT
  5
3E6
100
AcDbEntity
  8
DRIVEN_DIMS
100
AcDbMText
 62
7
  6
CONTINUOUS
  7
STANDARD
 71
2
 72
1
 10
7.3462289337
 20
5.2153830742
 30
0.0
 11
1.0
 21
0.0
 31
0.0
 44
0.9
  1
24.9\P[.98]
 40
0.1
 41
0.5
  0
LINE
  5
3E7
100
AcDbEntity
  8
DRIVEN_DIMS
100
AcDbLine
 62
7
  6
CONTINUOUS
 10
6.5953327159
 20
5.5848931501
 11
7.5212289337
 21
5.5848931501
  0
LINE
  5
3E8
100
AcDbEntity
  8
DRIVEN_DIMS
100
AcDbLine
 62
7
  6
CONTINUOUS
 10
6.3621139659
 20
4.603958818
 11
7.5212289337
 21
4.603958818
  0
LINE
  5
3E9
100
AcDbEntity
  8
DRIVEN_DIMS
100
AcDbLine
 62
7
  6
CONTINUOUS
 10
7.3962289337
 20
5.5848931501
 11
7.3962289337
 21
5.3153830742
  0
LINE
  5
3EA
100
AcDbEntity
  8
DRIVEN_DIMS
100
AcDbLine
 62
7
  6
CONTINUOUS
 10
7.3962289337
 20
4.603958818
 11
7.3962289337
 21
4.8653830742
  0
INSERT
  5
3EB
100
AcDbEntity
  8
DRIVEN_DIMS
100
AcDbBlockReference
 62
7
  6
CONTINUOUS
  2
_FILLED
 10
7.3962289337
 20
5.5848931501
 41
0.1875
 42
0.1875
 43
0.1875
 50
90.0
  0
INSERT
  5
3EC
100
AcDbEntity
  8
DRIVEN_DIMS
100
AcDbBlockReference
 62
7
  6
CONTINUOUS
  2
_FILLED
 10
7.3962289337
 20
4.603958818
 41
0.1875
 42
0.1875
 43
0.1875
 50
270.0
  0
ENDBLK
  5
3ED
100
AcDbEntity
  8
0
  6
BYBLOCK
 62
0
100
AcDbBlockEnd
  0
BLOCK
  5
3EE
100
AcDbEntity
  8
DRIVEN_DIMS
100
AcDbBlockBegin
 62
7
  6
CONTINUOUS
  2
*D1
 70
65
 10
0.0
 20
0.0
  3
*D1
  1

  0
MTEXT
  5
3EF
100
AcDbEntity
  8
DRIVEN_DIMS
100
AcDbMText
 62
7
  6
CONTINUOUS
  7
STANDARD
 71
1
 72
1
 10
6.9839038889
 20
3.6924959315
 30
0.0
 11
1.0
 21
0.0
 31
0.0
 44
0.9
  1
14.1\P[.56]
 40
0.1
 41
0.5
  0
LINE
  5
3F0
100
AcDbEntity
  8
DRIVEN_DIMS
100
AcDbLine
 62
7
  6
CONTINUOUS
 10
6.0385827159
 20
4.603958818
 11
6.8589038889
 21
4.603958818
  0
LINE
  5
3F1
100
AcDbEntity
  8
DRIVEN_DIMS
100
AcDbLine
 62
7
  6
CONTINUOUS
 10
5.6125202159
 20
4.0488407078
 11
6.8589038889
 21
4.0488407078
  0
LINE
  5
3F2
100
AcDbEntity
  8
DRIVEN_DIMS
100
AcDbLine
 62
7
  6
CONTINUOUS
 10
6.7339038889
 20
4.603958818
 11
6.7339038889
 21
5.003958818
  0
LINE
  5
3F3
100
AcDbEntity
  8
DRIVEN_DIMS
100
AcDbLine
 62
7
  6
CONTINUOUS
 10
6.7339038889
 20
4.0488407078
 11
6.7339038889
 21
3.6424959315
  0
LINE
  5
3F4
100
AcDbEntity
  8
DRIVEN_DIMS
100
AcDbLine
 62
7
  6
CONTINUOUS
 10
6.7339038889
 20
3.6424959315
 11
6.8839038889
 21
3.6424959315
  0
INSERT
  5
3F5
100
AcDbEntity
  8
DRIVEN_DIMS
100
AcDbBlockReference
 62
7
  6
CONTINUOUS
  2
_FILLED
 10
6.7339038889
 20
4.603958818
 41
0.1875
 42
0.1875
 43
0.1875
 50
270.0
  0
INSERT
  5
3F6
100
AcDbEntity
  8
DRIVEN_DIMS
100
AcDbBlockReference
 62
7
  6
CONTINUOUS
  2
_FILLED
 10
6.7339038889
 20
4.0488407078
 41
0.1875
 42
0.1875
 43
0.1875
 50
90.0
  0
ENDBLK
  5
3F7
100
AcDbEntity
  8
0
  6
BYBLOCK
 62
0
100
AcDbBlockEnd
  0
BLOCK
  5
3F8
100
AcDbEntity
  8
DRIVEN_DIMS
100
AcDbBlockBegin
 62
7
  6
CONTINUOUS
  2
*D2
 70
65
 10
0.0
 20
0.0
  3
*D2
  1

  0
MTEXT
  5
3F9
100
AcDbEntity
  8
DRIVEN_DIMS
100
AcDbMText
 62
7
  6
CONTINUOUS
  7
STANDARD
 71
2
 72
1
 10
3.5031111145
 20
6.1210007872
 30
0.0
 11
1.0
 21
0.0
 31
0.0
 44
0.9
  1
20.9\P[.82]
 40
0.1
 41
0.5
  0
LINE
  5
3FA
100
AcDbEntity
  8
DRIVEN_DIMS
100
AcDbLine
 62
7
  6
CONTINUOUS
 10
4.2555480659
 20
5.5848931501
 11
3.4281111145
 21
5.5848931501
  0
LINE
  5
3FB
100
AcDbEntity
  8
DRIVEN_DIMS
100
AcDbLine
 62
7
  6
CONTINUOUS
 10
4.0464045888
 20
6.4071084243
 11
3.4281111145
 21
6.4071084243
  0
LINE
  5
3FC
100
AcDbEntity
  8
DRIVEN_DIMS
100
AcDbLine
 62
7
  6
CONTINUOUS
 10
3.5531111145
 20
5.5848931501
 11
3.5531111145
 21
5.1848931501
  0
LINE
  5
3FD
100
AcDbEntity
  8
DRIVEN_DIMS
100
AcDbLine
 62
7
  6
CONTINUOUS
 10
3.5531111145
 20
6.4071084243
 11
3.5531111145
 21
6.8071084243
  0
INSERT
  5
3FE
100
AcDbEntity
  8
DRIVEN_DIMS
100
AcDbBlockReference
 62
7
  6
CONTINUOUS
  2
_FILLED
 10
3.5531111145
 20
5.5848931501
 41
0.1875
 42
0.1875
 43
0.1875
 50
90.0
  0
INSERT
  5
3FF
100
AcDbEntity
  8
DRIVEN_DIMS
100
AcDbBlockReference
 62
7
  6
CONTINUOUS
  2
_FILLED
 10
3.5531111145
 20
6.4071084243
 41
0.1875
 42
0.1875
 43
0.1875
 50
270.0
  0
ENDBLK
  5
400
100
AcDbEntity
  8
0
  6
BYBLOCK
 62
0
100
AcDbBlockEnd
  0
BLOCK
  5
401
100
AcDbEntity
  8
DRIVEN_DIMS
100
AcDbBlockBegin
 62
7
  6
CONTINUOUS
  2
*D3
 70
65
 10
0.0
 20
0.0
  3
*D3
  1

  0
MTEXT
  5
402
100
AcDbEntity
  8
DRIVEN_DIMS
100
AcDbMText
 62
7
  6
CONTINUOUS
  7
STANDARD
 71
2
 72
1
 10
3.4531111145
 20
7.435454881
 30
0.0
 11
1.0
 21
0.0
 31
0.0
 44
0.9
  1
49.7\P[1.96]
 40
0.1
 41
0.6
  0
LINE
  5
403
100
AcDbEntity
  8
DRIVEN_DIMS
100
AcDbLine
 62
7
  6
CONTINUOUS
 10
4.0464045888
 20
6.4071084243
 11
3.4281111145
 21
6.4071084243
  0
LINE
  5
404
100
AcDbEntity
  8
DRIVEN_DIMS
100
AcDbLine
 62
7
  6
CONTINUOUS
 10
5.1129855659
 20
8.3638013377
 11
3.4281111145
 21
8.3638013377
  0
LINE
  5
405
100
AcDbEntity
  8
DRIVEN_DIMS
100
AcDbLine
 62
7
  6
CONTINUOUS
 10
3.5531111145
 20
6.4071084243
 11
3.5531111145
 21
7.085454881
  0
LINE
  5
406
100
AcDbEntity
  8
DRIVEN_DIMS
100
AcDbLine
 62
7
  6
CONTINUOUS
 10
3.5531111145
 20
8.3638013377
 11
3.5531111145
 21
7.535454881
  0
INSERT
  5
407
100
AcDbEntity
  8
DRIVEN_DIMS
100
AcDbBlockReference
 62
7
  6
CONTINUOUS
  2
_FILLED
 10
3.5531111145
 20
6.4071084243
 41
0.1875
 42
0.1875
 43
0.1875
 50
270.0
  0
INSERT
  5
408
100
AcDbEntity
  8
DRIVEN_DIMS
100
AcDbBlockReference
 62
7
  6
CONTINUOUS
  2
_FILLED
 10
3.5531111145
 20
8.3638013377
 41
0.1875
 42
0.1875
 43
0.1875
 50
90.0
  0
ENDBLK
  5
409
100
AcDbEntity
  8
0
  6
BYBLOCK
 62
0
100
AcDbBlockEnd
  0
BLOCK
  5
40A
100
AcDbEntity
  8
DRIVEN_DIMS
100
AcDbBlockBegin
 62
7
  6
CONTINUOUS
  2
*D4
 70
65
 10
0.0
 20
0.0
  3
*D4
  1

  0
MTEXT
  5
40B
100
AcDbEntity
  8
DRIVEN_DIMS
100
AcDbMText
 62
7
  6
CONTINUOUS
  7
TEXTSTYLE_5
 71
3
 72
1
 10
9.867498236
 20
7.7078227268
 30
0.0
 11
1.0
 21
0.0
 31
0.0
 44
0.9
  1
{\Fgdt;n}\Ftxt;70.0\P[2.76]
 40
0.1
 41
0.6
  0
LINE
  5
40C
100
AcDbEntity
  8
DRIVEN_DIMS
100
AcDbLine
 62
7
  6
CONTINUOUS
 10
10.5739748253
 20
7.3427295252
 11
11.4438479613
 21
6.2740506564
  0
LINE
  5
40D
100
AcDbEntity
  8
DRIVEN_DIMS
100
AcDbLine
 62
7
  6
CONTINUOUS
 10
11.4438479613
 20
6.2740506564
 11
10.317498236
 21
7.6578227268
  0
LINE
  5
40E
100
AcDbEntity
  8
DRIVEN_DIMS
100
AcDbLine
 62
7
  6
CONTINUOUS
 10
10.317498236
 20
7.6578227268
 11
10.167498236
 21
7.6578227268
  0
LINE
  5
40F
100
AcDbEntity
  8
DRIVEN_DIMS
100
AcDbLine
 62
7
  6
CONTINUOUS
 10
12.3137210973
 20
5.2053717875
 11
11.4438479613
 21
6.2740506564
  0
INSERT
  5
410
100
AcDbEntity
  8
DRIVEN_DIMS
100
AcDbBlockReference
 62
7
  6
CONTINUOUS
  2
_FILLED
 10
10.5739748253
 20
7.3427295252
 41
0.1875
 42
0.1875
 43
0.1875
 50
129.1445747092
  0
INSERT
  5
411
100
AcDbEntity
  8
DRIVEN_DIMS
100
AcDbBlockReference
 62
7
  6
CONTINUOUS
  2
_FILLED
 10
12.3137210973
 20
5.2053717875
 41
0.1875
 42
0.1875
 43
0.1875
 50
309.1445747092
  0
ENDBLK
  5
412
100
AcDbEntity
  8
0
  6
BYBLOCK
 62
0
100
AcDbBlockEnd
  0
BLOCK
  5
413
100
AcDbEntity
  8
DRIVEN_DIMS
100
AcDbBlockBegin
 62
7
  6
CONTINUOUS
  2
*D5
 70
65
 10
0.0
 20
0.0
  3
*D5
  1

  0
MTEXT
  5
414
100
AcDbEntity
  8
DRIVEN_DIMS
100
AcDbMText
 62
7
  6
CONTINUOUS
  7
TEXTSTYLE_5
 71
1
 72
1
 10
12.9391086044
 20
7.6785598049
 30
0.0
 11
1.0
 21
0.0
 31
0.0
 44
0.9
  1
{\Fgdt;n}\Ftxt;64.0\P[2.52]
 40
0.1
 41
0.6
  0
LINE
  5
415
100
AcDbEntity
  8
DRIVEN_DIMS
100
AcDbLine
 62
7
  6
CONTINUOUS
 10
12.2964012351
 20
7.2013996539
 11
11.4438479613
 21
6.2740506564
  0
LINE
  5
416
100
AcDbEntity
  8
DRIVEN_DIMS
100
AcDbLine
 62
7
  6
CONTINUOUS
 10
11.4438479613
 20
6.2740506564
 11
12.6891086044
 21
7.6285598049
  0
LINE
  5
417
100
AcDbEntity
  8
DRIVEN_DIMS
100
AcDbLine
 62
7
  6
CONTINUOUS
 10
12.6891086044
 20
7.6285598049
 11
12.8391086044
 21
7.6285598049
  0
LINE
  5
418
100
AcDbEntity
  8
DRIVEN_DIMS
100
AcDbLine
 62
7
  6
CONTINUOUS
 10
10.5912946875
 20
5.3467016588
 11
11.4438479613
 21
6.2740506564
  0
INSERT
  5
419
100
AcDbEntity
  8
DRIVEN_DIMS
100
AcDbBlockReference
 62
7
  6
CONTINUOUS
  2
_FILLED
 10
12.2964012351
 20
7.2013996539
 41
0.1875
 42
0.1875
 43
0.1875
 50
47.4062890913
  0
INSERT
  5
41A
100
AcDbEntity
  8
DRIVEN_DIMS
100
AcDbBlockReference
 62
7
  6
CONTINUOUS
  2
_FILLED
 10
10.5912946875
 20
5.3467016588
 41
0.1875
 42
0.1875
 43
0.1875
 50
227.4062890913
  0
ENDBLK
  5
41B
100
AcDbEntity
  8
0
  6
BYBLOCK
 62
0
100
AcDbBlockEnd
  0
BLOCK
  5
41C
100
AcDbEntity
  8
DRIVEN_DIMS
100
AcDbBlockBegin
 62
7
  6
CONTINUOUS
  2
*D6
 70
65
 10
0.0
 20
0.0
  3
*D6
  1

  0
MTEXT
  5
41D
100
AcDbEntity
  8
DRIVEN_DIMS
100
AcDbMText
 62
7
  6
CONTINUOUS
  7
STANDARD
 71
1
 72
1
 10
7.1774642118
 20
8.5219418386
 30
0.0
 11
1.0
 21
0.0
 31
0.0
 44
0.9
  1
R31.8\P[1.25]
 40
0.1
 41
0.6
  0
LINE
  5
41E
100
AcDbEntity
  8
DRIVEN_DIMS
100
AcDbLine
 62
7
  6
CONTINUOUS
 10
6.4802196866
 20
8.0465165103
 11
6.9274642118
 21
8.4719418386
  0
LINE
  5
41F
100
AcDbEntity
  8
DRIVEN_DIMS
100
AcDbLine
 62
7
  6
CONTINUOUS
 10
6.9274642118
 20
8.4719418386
 11
7.0774642118
 21
8.4719418386
  0
INSERT
  5
420
100
AcDbEntity
  8
DRIVEN_DIMS
100
AcDbBlockReference
 62
7
  6
CONTINUOUS
  2
_FILLED
 10
6.4802196866
 20
8.0465165103
 41
0.1875
 42
0.1875
 43
0.1875
 50
223.5677430265
  0
ENDBLK
  5
421
100
AcDbEntity
  8
0
  6
BYBLOCK
 62
0
100
AcDbBlockEnd
  0
BLOCK
  5
422
100
AcDbEntity
  8
0
100
AcDbBlockBegin
  2
*T1
 70
1
 10
0.0
 20
0.0
  3
*T1
  1

  0
LINE
  5
423
100
AcDbEntity
  8
0
100
AcDbLine
 62
7
  6
CONTINUOUS
 10
4.35
 20
0.0
 11
0.0
 21
0.0
  0
LINE
  5
424
100
AcDbEntity
  8
0
100
AcDbLine
 62
7
  6
CONTINUOUS
 10
4.35
 20
0.0
 11
4.35
 21
1.92
  0
LINE
  5
425
100
AcDbEntity
  8
0
100
AcDbLine
 62
7
  6
CONTINUOUS
 10
4.35
 20
1.92
 11
0.0
 21
1.92
  0
LINE
  5
426
100
AcDbEntity
  8
0
100
AcDbLine
 62
7
  6
CONTINUOUS
 10
0.0
 20
0.0
 11
0.0
 21
1.92
  0
MTEXT
  5
427
100
AcDbEntity
  8
NOTES
100
AcDbMText
 62
7
  6
CONTINUOUS
  7
STANDARD
 71
2
 72
1
 10
2.175
 20
0.93
 30
0.0
 11
1.0
 21
0.0
 31
0.0
 44
0.9
  1
K70_T WEB PIGTAIL/CABLE
 40
0.1
 41
4.6
  0
ENDBLK
  5
428
100
AcDbEntity
  8
0
  6
BYBLOCK
 62
0
100
AcDbBlockEnd
  0
ENDSEC
  0
SECTION
  2
ENTITIES
  0
MTEXT
  5
429
100
AcDbEntity
  8
0
100
AcDbMText
 62
7
  6
CONTINUOUS
  7
TEXTSTYLE_2
 71
2
 72
1
 10
11.0287658475
 20
1.794867839
 30
0.0
 11
1.0
 21
0.0
 31
0.0
 44
0.9
  1
THIRD ANGLE PROJECTION
 40
0.1
 41
1.76
  0
MTEXT
  5
42A
100
AcDbEntity
  8
0
100
AcDbMText
 62
7
  6
CONTINUOUS
  7
STANDARD
 71
1
 72
1
 10
12.88
 20
1.457
 30
0.0
 11
1.0
 21
0.0
 31
0.0
 44
0.9
  1
DRAWING NO.
 40
0.08
 41
0.88
  0
MTEXT
  5
42B
100
AcDbEntity
  8
0
100
AcDbMText
 62
7
  6
CONTINUOUS
  7
TEXTSTYLE_3
 71
2
 72
1
 10
11.03
 20
2.516432
 30
0.0
 11
1.0
 21
0.0
 31
0.0
 44
0.9
  1
and is proprietary in general
 40
0.08
 41
1.972
  0
MTEXT
  5
42C
100
AcDbEntity
  8
0
100
AcDbMText
 62
7
  6
CONTINUOUS
  7
TEXTSTYLE_3
 71
2
 72
1
 10
11.03
 20
2.396432
 30
0.0
 11
1.0
 21
0.0
 31
0.0
 44
0.9
  1
and in detail.  Its contents
 40
0.08
 41
1.904
  0
MTEXT
  5
42D
100
AcDbEntity
  8
0
100
AcDbMText
 62
7
  6
CONTINUOUS
  7
TEXTSTYLE_3
 71
2
 72
1
 10
11.03
 20
2.276432
 30
0.0
 11
1.0
 21
0.0
 31
0.0
 44
0.9
  1
shall not be revealed to
 40
0.08
 41
1.632
  0
MTEXT
  5
42E
100
AcDbEntity
  8
0
100
AcDbMText
 62
7
  6
CONTINUOUS
  7
TEXTSTYLE_3
 71
2
 72
1
 10
11.03
 20
2.156432
 30
0.0
 11
1.0
 21
0.0
 31
0.0
 44
0.9
  1
outside parties without
 40
0.08
 41
1.564
  0
MTEXT
  5
42F
100
AcDbEntity
  8
0
100
AcDbMText
 62
7
  6
CONTINUOUS
  7
TEXTSTYLE_3
 71
2
 72
1
 10
11.03
 20
2.036432
 30
0.0
 11
1.0
 21
0.0
 31
0.0
 44
0.9
  1
written consent of BANNER.
 40
0.08
 41
1.768
  0
MTEXT
  5
430
100
AcDbEntity
  8
0
100
AcDbMText
 62
7
  6
CONTINUOUS
  7
TEXTSTYLE_2
 71
1
 72
1
 10
12.08
 20
2.217
 30
0.0
 11
1.0
 21
0.0
 31
0.0
 44
0.9
  1
TITLE
 40
0.1
 41
0.4
  0
MTEXT
  5
431
100
AcDbEntity
  8
0
100
AcDbMText
 62
7
  6
CONTINUOUS
  7
STANDARD
 71
1
 72
1
 10
12.08
 20
1.457
 30
0.0
 11
1.0
 21
0.0
 31
0.0
 44
0.9
  1
SIZE
 40
0.08
 41
0.32
  0
MTEXT
  5
432
100
AcDbEntity
  8
0
100
AcDbMText
 62
7
  6
CONTINUOUS
  7
STANDARD
 71
1
 72
1
 10
12.08
 20
1.087
 30
0.0
 11
1.0
 21
0.0
 31
0.0
 44
0.9
  1
SCALE
 40
0.08
 41
0.4
  0
MTEXT
  5
433
100
AcDbEntity
  8
0
100
AcDbMText
 62
7
  6
CONTINUOUS
  7
TEXTSTYLE_2
 71
2
 72
1
 10
12.5
 20
1.337
 30
0.0
 11
1.0
 21
0.0
 31
0.0
 44
0.9
  1
B
 40
0.1
 41
0.08
  0
MTEXT
  5
434
100
AcDbEntity
  8
0
100
AcDbMText
 62
7
  6
CONTINUOUS
  7
TEXTSTYLE_3
 71
2
 72
1
 10
11.03
 20
2.636432
 30
0.0
 11
1.0
 21
0.0
 31
0.0
 44
0.9
  1
of BANNER ENGINEERING CORP.
 40
0.08
 41
1.836
  0
MTEXT
  5
435
100
AcDbEntity
  8
0
100
AcDbMText
 62
7
  6
CONTINUOUS
  7
TEXTSTYLE_3
 71
2
 72
1
 10
11.03
 20
2.756432
 30
0.0
 11
1.0
 21
0.0
 31
0.0
 44
0.9
  1
This drawing is the property
 40
0.08
 41
1.904
  0
MTEXT
  5
436
100
AcDbEntity
  8
0
100
AcDbMText
 62
7
  6
CONTINUOUS
  7
TEXTSTYLE_2
 71
2
 72
1
 10
15.03
 20
2.4134
 30
0.0
 11
1.0
 21
0.0
 31
0.0
 44
0.9
  1
MINNEAPOLIS, MN 55440
 40
0.1
 41
1.68
  0
MTEXT
  5
437
100
AcDbEntity
  8
0
100
AcDbMText
 62
7
  6
CONTINUOUS
  7
STANDARD
 71
1
 72
1
 10
14.255
 20
1.087
 30
0.0
 11
1.0
 21
0.0
 31
0.0
 44
0.9
  1
SHEET
 40
0.08
 41
0.4
  0
MTEXT
  5
438
100
AcDbEntity
  8
0
100
AcDbMText
 62
7
  6
CONTINUOUS
  7
STANDARD
 71
1
 72
1
 10
15.63
 20
1.457
 30
0.0
 11
1.0
 21
0.0
 31
0.0
 44
0.9
  1
REV.
 40
0.08
 41
0.32
  0
MTEXT
  5
439
100
AcDbEntity
  8
0
100
AcDbMText
 62
7
  6
CONTINUOUS
  7
STANDARD
 71
3
 72
1
 10
16.38
 20
0.835443
 30
0.0
 11
1.0
 21
0.0
 31
0.0
 44
0.9
  1
PRO/E
 40
0.07
 41
0.35
  0
MTEXT
  5
43A
100
AcDbEntity
  8
0
100
AcDbMText
 62
7
  6
CONTINUOUS
  7
TEXTSTYLE_4
 71
2
 72
1
 10
15.03
 20
2.751049
 30
0.0
 11
1.0
 21
0.0
 31
0.0
 44
0.9
  1
BANNER ENGINEERING CORP.
 40
0.12
 41
2.6496
  0
MTEXT
  5
43B
100
AcDbEntity
  8
0
100
AcDbMText
 62
7
  6
CONTINUOUS
  7
TEXTSTYLE_2
 71
2
 72
1
 10
15.03
 20
2.5724
 30
0.0
 11
1.0
 21
0.0
 31
0.0
 44
0.9
  1
P.O. BOX 9414
 40
0.1
 41
1.04
  0
MTEXT
  5
43C
100
AcDbEntity
  8
0
100
AcDbMText
 62
7
  6
CONTINUOUS
  7
TEXTSTYLE_2
 71
2
 72
1
 10
9.485
 20
10.312
 30
0.0
 11
1.0
 21
0.0
 31
0.0
 44
0.9
  1
4
 40
0.1
 41
0.08
  0
MTEXT
  5
43D
100
AcDbEntity
  8
0
100
AcDbMText
 62
7
  6
CONTINUOUS
  7
TEXTSTYLE_2
 71
2
 72
1
 10
11.455
 20
10.312
 30
0.0
 11
1.0
 21
0.0
 31
0.0
 44
0.9
  1
3
 40
0.1
 41
0.08
  0
MTEXT
  5
43E
100
AcDbEntity
  8
0
100
AcDbMText
 62
7
  6
CONTINUOUS
  7
TEXTSTYLE_2
 71
2
 72
1
 10
13.425
 20
10.312
 30
0.0
 11
1.0
 21
0.0
 31
0.0
 44
0.9
  1
2
 40
0.1
 41
0.08
  0
MTEXT
  5
43F
100
AcDbEntity
  8
0
100
AcDbMText
 62
7
  6
CONTINUOUS
  7
TEXTSTYLE_2
 71
2
 72
1
 10
15.395
 20
10.312
 30
0.0
 11
1.0
 21
0.0
 31
0.0
 44
0.9
  1
1
 40
0.1
 41
0.08
  0
MTEXT
  5
440
100
AcDbEntity
  8
0
100
AcDbMText
 62
7
  6
CONTINUOUS
  7
TEXTSTYLE_2
 71
2
 72
1
 10
3.575
 20
10.312
 30
0.0
 11
1.0
 21
0.0
 31
0.0
 44
0.9
  1
7
 40
0.1
 41
0.08
  0
MTEXT
  5
441
100
AcDbEntity
  8
0
100
AcDbMText
 62
7
  6
CONTINUOUS
  7
TEXTSTYLE_2
 71
2
 72
1
 10
5.545
 20
10.312
 30
0.0
 11
1.0
 21
0.0
 31
0.0
 44
0.9
  1
6
 40
0.1
 41
0.08
  0
MTEXT
  5
442
100
AcDbEntity
  8
0
100
AcDbMText
 62
7
  6
CONTINUOUS
  7
TEXTSTYLE_2
 71
2
 72
1
 10
7.515
 20
10.312
 30
0.0
 11
1.0
 21
0.0
 31
0.0
 44
0.9
  1
5
 40
0.1
 41
0.08
  0
MTEXT
  5
443
100
AcDbEntity
  8
0
100
AcDbMText
 62
7
  6
CONTINUOUS
  7
TEXTSTYLE_2
 71
2
 72
1
 10
1.605
 20
10.312
 30
0.0
 11
1.0
 21
0.0
 31
0.0
 44
0.9
  1
8
 40
0.1
 41
0.08
  0
MTEXT
  5
444
100
AcDbEntity
  8
0
100
AcDbMText
 62
7
  6
CONTINUOUS
  7
TEXTSTYLE_2
 71
2
 72
1
 10
1.605
 20
0.787
 30
0.0
 11
1.0
 21
0.0
 31
0.0
 44
0.9
  1
8
 40
0.1
 41
0.08
  0
MTEXT
  5
445
100
AcDbEntity
  8
0
100
AcDbMText
 62
7
  6
CONTINUOUS
  7
TEXTSTYLE_2
 71
2
 72
1
 10
3.575
 20
0.787
 30
0.0
 11
1.0
 21
0.0
 31
0.0
 44
0.9
  1
7
 40
0.1
 41
0.08
  0
MTEXT
  5
446
100
AcDbEntity
  8
0
100
AcDbMText
 62
7
  6
CONTINUOUS
  7
TEXTSTYLE_2
 71
2
 72
1
 10
5.545
 20
0.787
 30
0.0
 11
1.0
 21
0.0
 31
0.0
 44
0.9
  1
6
 40
0.1
 41
0.08
  0
MTEXT
  5
447
100
AcDbEntity
  8
0
100
AcDbMText
 62
7
  6
CONTINUOUS
  7
TEXTSTYLE_2
 71
2
 72
1
 10
7.515
 20
0.787
 30
0.0
 11
1.0
 21
0.0
 31
0.0
 44
0.9
  1
5
 40
0.1
 41
0.08
  0
MTEXT
  5
448
100
AcDbEntity
  8
0
100
AcDbMText
 62
7
  6
CONTINUOUS
  7
TEXTSTYLE_2
 71
2
 72
1
 10
9.485
 20
0.787
 30
0.0
 11
1.0
 21
0.0
 31
0.0
 44
0.9
  1
4
 40
0.1
 41
0.08
  0
MTEXT
  5
449
100
AcDbEntity
  8
0
100
AcDbMText
 62
7
  6
CONTINUOUS
  7
TEXTSTYLE_2
 71
2
 72
1
 10
11.455
 20
0.787
 30
0.0
 11
1.0
 21
0.0
 31
0.0
 44
0.9
  1
3
 40
0.1
 41
0.08
  0
MTEXT
  5
44A
100
AcDbEntity
  8
0
100
AcDbMText
 62
7
  6
CONTINUOUS
  7
TEXTSTYLE_2
 71
2
 72
1
 10
13.425
 20
0.787
 30
0.0
 11
1.0
 21
0.0
 31
0.0
 44
0.9
  1
2
 40
0.1
 41
0.08
  0
MTEXT
  5
44B
100
AcDbEntity
  8
0
100
AcDbMText
 62
7
  6
CONTINUOUS
  7
TEXTSTYLE_2
 71
2
 72
1
 10
15.395
 20
0.787
 30
0.0
 11
1.0
 21
0.0
 31
0.0
 44
0.9
  1
1
 40
0.1
 41
0.08
  0
MTEXT
  5
44C
100
AcDbEntity
  8
0
100
AcDbMText
 62
7
  6
CONTINUOUS
  7
TEXTSTYLE_2
 71
3
 72
1
 10
0.52
 20
4.3995
 30
0.0
 11
1.0
 21
0.0
 31
0.0
 44
0.9
  1
B
 40
0.1
 41
0.08
  0
MTEXT
  5
44D
100
AcDbEntity
  8
0
100
AcDbMText
 62
7
  6
CONTINUOUS
  7
TEXTSTYLE_2
 71
3
 72
1
 10
0.52
 20
2.0995
 30
0.0
 11
1.0
 21
0.0
 31
0.0
 44
0.9
  1
A
 40
0.1
 41
0.08
  0
MTEXT
  5
44E
100
AcDbEntity
  8
0
100
AcDbMText
 62
7
  6
CONTINUOUS
  7
TEXTSTYLE_2
 71
3
 72
1
 10
0.52
 20
8.9995
 30
0.0
 11
1.0
 21
0.0
 31
0.0
 44
0.9
  1
D
 40
0.1
 41
0.08
  0
MTEXT
  5
44F
100
AcDbEntity
  8
0
100
AcDbMText
 62
7
  6
CONTINUOUS
  7
TEXTSTYLE_2
 71
3
 72
1
 10
0.52
 20
6.6995
 30
0.0
 11
1.0
 21
0.0
 31
0.0
 44
0.9
  1
C
 40
0.1
 41
0.08
  0
MTEXT
  5
450
100
AcDbEntity
  8
0
100
AcDbMText
 62
7
  6
CONTINUOUS
  7
TEXTSTYLE_2
 71
1
 72
1
 10
16.48
 20
8.9995
 30
0.0
 11
1.0
 21
0.0
 31
0.0
 44
0.9
  1
D
 40
0.1
 41
0.08
  0
MTEXT
  5
451
100
AcDbEntity
  8
0
100
AcDbMText
 62
7
  6
CONTINUOUS
  7
TEXTSTYLE_2
 71
1
 72
1
 10
16.48
 20
6.6995
 30
0.0
 11
1.0
 21
0.0
 31
0.0
 44
0.9
  1
C
 40
0.1
 41
0.08
  0
MTEXT
  5
452
100
AcDbEntity
  8
0
100
AcDbMText
 62
7
  6
CONTINUOUS
  7
TEXTSTYLE_2
 71
1
 72
1
 10
16.48
 20
4.3995
 30
0.0
 11
1.0
 21
0.0
 31
0.0
 44
0.9
  1
B
 40
0.1
 41
0.08
  0
MTEXT
  5
453
100
AcDbEntity
  8
0
100
AcDbMText
 62
7
  6
CONTINUOUS
  7
TEXTSTYLE_2
 71
1
 72
1
 10
16.48
 20
2.0995
 30
0.0
 11
1.0
 21
0.0
 31
0.0
 44
0.9
  1
A
 40
0.1
 41
0.08
  0
MTEXT
  5
454
100
AcDbEntity
  8
0
100
AcDbMText
 62
7
  6
CONTINUOUS
  7
STANDARD
 71
1
 72
1
 10
14.819264911
 20
1.0627941725
 30
0.0
 11
1.0
 21
0.0
 31
0.0
 44
0.9
  1
1 OF 1
 40
0.1
 41
0.6
  0
MTEXT
  5
455
100
AcDbEntity
  8
0
100
AcDbMText
 62
7
  6
CONTINUOUS
  7
STANDARD
 71
1
 72
1
 10
13.8911999818
 20
1.3747321586
 30
0.0
 11
1.0
 21
0.0
 31
0.0
 44
0.9
  1
189932
 40
0.12
 41
0.72
  0
MTEXT
  5
456
100
AcDbEntity
  8
0
100
AcDbMText
 62
7
  6
CONTINUOUS
  7
STANDARD
 71
1
 72
1
 10
12.644264911
 20
1.0627941725
 30
0.0
 11
1.0
 21
0.0
 31
0.0
 44
0.9
  1
1:1
 40
0.1
 41
0.3
  0
MTEXT
  5
457
100
AcDbEntity
  8
0
100
AcDbMText
 62
7
  6
CONTINUOUS
  7
STANDARD
 71
1
 72
1
 10
1.0597007627
 20
1.6202922458
 30
0.0
 11
1.0
 21
0.0
 31
0.0
 44
0.9
  1
NOTES:\P1. ALL DIMENSIONS ARE MILLIMETERS [INCHES] UNLESS OTHERWISE NOTED.
 40
0.1
 41
6.6
  0
INSERT
  5
458
100
AcDbEntity
  8
0
100
AcDbBlockReference
 62
7
  6
CONTINUOUS
  2
SYMBOL_0_BL0
 10
12.9086867042
 20
2.5403783405
  0
DIMENSION
  5
459
100
AcDbEntity
  8
DRIVEN_DIMS
100
AcDbDimension
 62
7
  6
CONTINUOUS
  2
*D0
 10
7.3962289337
 20
4.603958818
 11
7.3962289337
 21
5.0903830742
 70
160
 71
2
 42
24.9157320351
  3
DIMSTYLE_1
100
AcDbAlignedDimension
 13
6.5328327159
 23
5.5848931501
 14
6.2996139659
 24
4.603958818
 50
270.0
100
AcDbRotatedDimension
  0
DIMENSION
  5
45A
100
AcDbEntity
  8
DRIVEN_DIMS
100
AcDbDimension
 62
7
  6
CONTINUOUS
  2
*D1
 10
6.7339038889
 20
4.0488407078
 11
7.2339038889
 21
3.5674959315
 70
160
 71
1
 42
14.1
  3
DIMSTYLE_1
100
AcDbAlignedDimension
 13
5.9760827159
 23
4.603958818
 14
5.5500202159
 24
4.0488407078
 50
270.0
100
AcDbRotatedDimension
  0
DIMENSION
  5
45B
100
AcDbEntity
  8
DRIVEN_DIMS
100
AcDbDimension
 62
7
  6
CONTINUOUS
  2
*D2
 10
3.5531111145
 20
6.4071084243
 11
3.5531111145
 21
5.9960007872
 70
160
 71
2
 42
20.8842679649
  3
DIMSTYLE_1
100
AcDbAlignedDimension
 13
4.3180480659
 23
5.5848931501
 14
4.1089045888
 24
6.4071084243
 50
90.0
100
AcDbRotatedDimension
  0
DIMENSION
  5
45C
100
AcDbEntity
  8
DRIVEN_DIMS
100
AcDbDimension
 62
7
  6
CONTINUOUS
  2
*D3
 10
3.5531111145
 20
8.3638013377
 11
3.5531111145
 21
7.310454881
 70
160
 71
2
 42
49.7
  3
DIMSTYLE_1
100
AcDbAlignedDimension
 13
4.1089045888
 23
6.4071084243
 14
5.1754855659
 24
8.3638013377
 50
90.0
100
AcDbRotatedDimension
  0
DIMENSION
  5
45D
100
AcDbEntity
  8
DRIVEN_DIMS
100
AcDbDimension
 62
7
  6
CONTINUOUS
  2
*D4
 10
10.5739748253
 20
7.3427295252
 11
9.7008315693
 21
7.5828227268
 70
163
 71
3
 42
70.0
  1
%%c<>
  3
DIMSTYLE_2
100
AcDbDiametricDimension
 15
12.3137210973
 25
5.2053717875
  0
DIMENSION
  5
45E
100
AcDbEntity
  8
DRIVEN_DIMS
100
AcDbDimension
 62
7
  6
CONTINUOUS
  2
*D5
 10
12.2964012351
 20
7.2013996539
 11
13.305775271
 21
7.5535598049
 70
163
 71
1
 42
63.9923397495
  1
%%c<>
  3
DIMSTYLE_2
100
AcDbDiametricDimension
 15
10.5912946875
 25
5.3467016588
  0
DIMENSION
  5
45F
100
AcDbEntity
  8
DRIVEN_DIMS
100
AcDbDimension
 62
7
  6
CONTINUOUS
  2
*D6
 10
5.5720987134
 20
7.1826989755
 11
7.5274642118
 21
8.3969418386
 70
164
 71
1
 42
31.8348692339
  1
R<>
  3
DIMSTYLE_3
100
AcDbRadialDimension
 15
6.4802196866
 25
8.0465165103
  0
ACAD_TABLE
  5
460
100
AcDbEntity
  8
0
 62
7
  6
CONTINUOUS
100
AcDbBlockReference
  2
*T1
 10
12.03
 20
0.887
 30
0.0
100
AcDbTable
342
       6EA
343
21A
 11
1.0
 21
0.0
 31
0.0
 90
6
 91
3
 92
5
 93
4
 94
0
 95
0
 96
0
 70
1
141
0.33
141
0.45
141
1.14
142
0.65
142
1.15
142
1.025
142
1.075
142
0.45
171
1
172
0
173
0
174
0
175
1
176
1
177
33
178
0
145
0.0
  1
 
170
1
140
0.1
171
1
172
0
173
0
174
0
175
1
176
1
177
33
178
0
145
0.0
  1
 
170
1
140
0.1
171
1
172
0
173
0
174
0
175
1
176
1
177
33
178
0
145
0.0
  1
 
170
1
140
0.1
171
1
172
0
173
0
174
0
175
1
176
1
177
33
178
0
145
0.0
  1
 
170
1
140
0.1
171
1
172
0
173
0
174
0
175
1
176
1
177
33
178
0
145
0.0
  1
 
170
1
140
0.1
171
1
172
0
173
0
174
0
175
1
176
1
177
33
178
0
145
0.0
  1
 
170
1
140
0.1
171
1
172
0
173
0
174
0
175
1
176
1
177
33
178
0
145
0.0
  1
 
170
1
140
0.1
171
1
172
0
173
0
174
0
175
1
176
1
177
33
178
0
145
0.0
  1
 
170
1
140
0.1
171
1
172
0
173
0
174
0
175
1
176
1
177
33
178
0
145
0.0
  1
 
170
1
140
0.1
171
1
172
0
173
0
174
0
175
1
176
1
177
41
178
0
145
0.0
  1
 
170
8
140
0.1
 64
7
171
1
172
0
173
0
174
0
175
5
176
1
177
33
178
0
145
0.0
  1
K70_T WEB PIGTAIL/CABLE
170
8
140
0.1
171
1
172
0
173
1
174
0
175
1
176
1
177
1
178
0
145
0.0
170
1
171
1
172
0
173
1
174
0
175
1
176
1
177
1
178
0
145
0.0
170
1
171
1
172
0
173
1
174
0
175
1
176
1
177
1
178
0
145
0.0
170
1
171
1
172
0
173
1
174
0
175
1
176
1
177
1
178
0
145
0.0
170
8
  0
LEADER
  5
461
100
AcDbEntity
  8
NOTES
100
AcDbLeader
 62
7
  6
CONTINUOUS
  3
STANDARD
 71
1
 72
0
 73
0
 75
0
 40
0.1
 41
1.2
 76
3
 10
4.8508285301
 20
4.9049717263
 30
0.0
 10
4.4245782559
 20
4.6098876538
 30
0.0
 10
4.1745782559
 20
4.6098876538
 30
0.0
340
462
1001
ACAD
1000
DSTYLE
1002
{
1070
77
1070
0
1002
}
  0
MTEXT
  5
462
102
{ACAD_REACTORS
330
461
102
}
100
AcDbEntity
  8
NOTES
100
AcDbMText
 62
7
  6
CONTINUOUS
  7
STANDARD
 71
3
 72
1
 10
4.1745782559
 20
4.6598876538
 30
0.0
 11
1.0
 21
0.0
 31
0.0
 44
0.9
  1
M30 x 1.5-6g
 40
0.1
 41
1.2
  0
LINE
  5
463
100
AcDbEntity
  8
0
100
AcDbLine
 62
7
  6
CONTINUOUS
 10
0.47
 20
5.586103
 11
0.47
 21
5.412897
  0
LINE
  5
464
100
AcDbEntity
  8
0
100
AcDbLine
 62
7
  6
CONTINUOUS
 10
0.62
 20
10.112
 11
0.62
 21
0.887
  0
LINE
  5
465
100
AcDbEntity
  8
0
100
AcDbLine
 62
7
  6
CONTINUOUS
 10
2.59
 20
0.887
 11
2.59
 21
0.637
  0
LINE
  5
466
100
AcDbEntity
  8
0
100
AcDbLine
 62
7
  6
CONTINUOUS
 10
2.59
 20
10.112
 11
2.59
 21
10.362
  0
LINE
  5
467
100
AcDbEntity
  8
0
100
AcDbLine
 62
7
  6
CONTINUOUS
 10
8.413397
 20
0.737
 11
8.586603
 21
0.737
  0
LINE
  5
468
100
AcDbEntity
  8
0
100
AcDbLine
 62
7
  6
CONTINUOUS
 10
11.1389508475
 20
1.425992839
 11
11.7453418475
 21
1.495385839
  0
LINE
  5
469
100
AcDbEntity
  8
0
100
AcDbLine
 62
7
  6
CONTINUOUS
 10
0.62
 20
0.887
 11
16.38
 21
0.887
  0
LINE
  5
46A
100
AcDbEntity
  8
0
100
AcDbLine
 62
7
  6
CONTINUOUS
 10
12.03
 20
1.137
 11
16.38
 21
1.137
  0
LINE
  5
46B
100
AcDbEntity
  8
0
100
AcDbLine
 62
7
  6
CONTINUOUS
 10
10.2121898475
 20
1.243294839
 11
10.4342808475
 21
1.243294839
  0
LINE
  5
46C
100
AcDbEntity
  8
0
100
AcDbLine
 62
7
  6
CONTINUOUS
 10
10.4842808475
 20
1.243294839
 11
10.5842808475
 21
1.243294839
  0
LINE
  5
46D
100
AcDbEntity
  8
0
100
AcDbLine
 62
7
  6
CONTINUOUS
 10
10.6342808475
 20
1.243294839
 11
10.8563718475
 21
1.243294839
  0
LINE
  5
46E
100
AcDbEntity
  8
0
100
AcDbLine
 62
7
  6
CONTINUOUS
 10
11.0389508475
 20
1.243294839
 11
11.3171028475
 21
1.243294839
  0
LINE
  5
46F
100
AcDbEntity
  8
0
100
AcDbLine
 62
7
  6
CONTINUOUS
 10
11.3671028475
 20
1.243294839
 11
11.5171888475
 21
1.243294839
  0
LINE
  5
470
100
AcDbEntity
  8
0
100
AcDbLine
 62
7
  6
CONTINUOUS
 10
11.5671888475
 20
1.243294839
 11
11.8453418475
 21
1.243294839
  0
LINE
  5
471
100
AcDbEntity
  8
0
100
AcDbLine
 62
7
  6
CONTINUOUS
 10
11.7453418475
 20
0.991203839
 11
11.1389508475
 21
1.060596839
  0
LINE
  5
472
100
AcDbEntity
  8
0
100
AcDbLine
 62
7
  6
CONTINUOUS
 10
4.56
 20
0.887
 11
4.56
 21
0.637
  0
LINE
  5
473
100
AcDbEntity
  8
0
100
AcDbLine
 62
7
  6
CONTINUOUS
 10
4.56
 20
10.112
 11
4.56
 21
10.362
  0
LINE
  5
474
100
AcDbEntity
  8
0
100
AcDbLine
 62
7
  6
CONTINUOUS
 10
0.47
 20
5.412897
 11
0.62
 21
5.4995
  0
LINE
  5
475
100
AcDbEntity
  8
0
100
AcDbLine
 62
7
  6
CONTINUOUS
 10
12.03
 20
1.507
 11
16.38
 21
1.507
  0
LINE
  5
476
100
AcDbEntity
  8
0
100
AcDbLine
 62
7
  6
CONTINUOUS
 10
10.03
 20
1.907
 11
12.03
 21
1.907
  0
LINE
  5
477
100
AcDbEntity
  8
0
100
AcDbLine
 62
7
  6
CONTINUOUS
 10
0.62
 20
5.4995
 11
0.47
 21
5.586103
  0
LINE
  5
478
100
AcDbEntity
  8
0
100
AcDbLine
 62
7
  6
CONTINUOUS
 10
12.03
 20
2.267
 11
16.38
 21
2.267
  0
LINE
  5
479
100
AcDbEntity
  8
0
100
AcDbLine
 62
7
  6
CONTINUOUS
 10
8.5
 20
10.112
 11
8.586603
 21
10.262
  0
LINE
  5
47A
100
AcDbEntity
  8
0
100
AcDbLine
 62
7
  6
CONTINUOUS
 10
16.38
 20
2.807
 11
10.03
 21
2.807
  0
LINE
  5
47B
100
AcDbEntity
  8
0
100
AcDbLine
 62
7
  6
CONTINUOUS
 10
0.62
 20
3.1995
 11
0.37
 21
3.1995
  0
LINE
  5
47C
100
AcDbEntity
  8
0
100
AcDbLine
 62
7
  6
CONTINUOUS
 10
16.38
 20
3.1995
 11
16.63
 21
3.1995
  0
LINE
  5
47D
100
AcDbEntity
  8
0
100
AcDbLine
 62
7
  6
CONTINUOUS
 10
8.586603
 20
0.737
 11
8.5
 21
0.887
  0
LINE
  5
47E
100
AcDbEntity
  8
0
100
AcDbLine
 62
7
  6
CONTINUOUS
 10
6.53
 20
0.887
 11
6.53
 21
0.637
  0
LINE
  5
47F
100
AcDbEntity
  8
0
100
AcDbLine
 62
7
  6
CONTINUOUS
 10
6.53
 20
10.112
 11
6.53
 21
10.362
  0
LINE
  5
480
100
AcDbEntity
  8
0
100
AcDbLine
 62
7
  6
CONTINUOUS
 10
8.5
 20
0.887
 11
8.5
 21
0.637
  0
LINE
  5
481
100
AcDbEntity
  8
0
100
AcDbLine
 62
7
  6
CONTINUOUS
 10
8.5
 20
10.112
 11
8.5
 21
10.362
  0
LINE
  5
482
100
AcDbEntity
  8
0
100
AcDbLine
 62
7
  6
CONTINUOUS
 10
0.62
 20
5.4995
 11
0.37
 21
5.4995
  0
LINE
  5
483
100
AcDbEntity
  8
0
100
AcDbLine
 62
7
  6
CONTINUOUS
 10
16.38
 20
5.4995
 11
16.63
 21
5.4995
  0
LINE
  5
484
100
AcDbEntity
  8
0
100
AcDbLine
 62
7
  6
CONTINUOUS
 10
10.03
 20
2.807
 11
10.03
 21
0.887
  0
LINE
  5
485
100
AcDbEntity
  8
0
100
AcDbLine
 62
7
  6
CONTINUOUS
 10
10.47
 20
0.887
 11
10.47
 21
0.637
  0
LINE
  5
486
100
AcDbEntity
  8
0
100
AcDbLine
 62
7
  6
CONTINUOUS
 10
10.47
 20
10.112
 11
10.47
 21
10.362
  0
LINE
  5
487
100
AcDbEntity
  8
0
100
AcDbLine
 62
7
  6
CONTINUOUS
 10
10.5342808475
 20
1.143294839
 11
10.5342808475
 21
0.921203839
  0
LINE
  5
488
100
AcDbEntity
  8
0
100
AcDbLine
 62
7
  6
CONTINUOUS
 10
10.5342808475
 20
1.193294839
 11
10.5342808475
 21
1.293294839
  0
LINE
  5
489
100
AcDbEntity
  8
0
100
AcDbLine
 62
7
  6
CONTINUOUS
 10
10.5342808475
 20
1.343294839
 11
10.5342808475
 21
1.565385839
  0
LINE
  5
48A
100
AcDbEntity
  8
0
100
AcDbLine
 62
7
  6
CONTINUOUS
 10
8.5
 20
0.887
 11
8.413397
 21
0.737
  0
LINE
  5
48B
100
AcDbEntity
  8
0
100
AcDbLine
 62
7
  6
CONTINUOUS
 10
0.62
 20
7.7995
 11
0.37
 21
7.7995
  0
LINE
  5
48C
100
AcDbEntity
  8
0
100
AcDbLine
 62
7
  6
CONTINUOUS
 10
16.38
 20
7.7995
 11
16.63
 21
7.7995
  0
LINE
  5
48D
100
AcDbEntity
  8
0
100
AcDbLine
 62
7
  6
CONTINUOUS
 10
8.413397
 20
10.262
 11
8.5
 21
10.112
  0
LINE
  5
48E
100
AcDbEntity
  8
0
100
AcDbLine
 62
7
  6
CONTINUOUS
 10
11.1389508475
 20
1.060596839
 11
11.1389508475
 21
1.425992839
  0
LINE
  5
48F
100
AcDbEntity
  8
0
100
AcDbLine
 62
7
  6
CONTINUOUS
 10
11.7453418475
 20
1.495385839
 11
11.7453418475
 21
0.991203839
  0
LINE
  5
490
100
AcDbEntity
  8
0
100
AcDbLine
 62
1
  6
CONTINUOUS
 10
12.03
 20
2.807
 11
12.03
 21
0.887
  0
LINE
  5
491
100
AcDbEntity
  8
0
100
AcDbLine
 62
7
  6
CONTINUOUS
 10
12.44
 20
0.887
 11
12.44
 21
0.637
  0
LINE
  5
492
100
AcDbEntity
  8
0
100
AcDbLine
 62
7
  6
CONTINUOUS
 10
12.44
 20
10.112
 11
12.44
 21
10.362
  0
LINE
  5
493
100
AcDbEntity
  8
0
100
AcDbLine
 62
7
  6
CONTINUOUS
 10
16.53
 20
5.586103
 11
16.38
 21
5.4995
  0
LINE
  5
494
100
AcDbEntity
  8
0
100
AcDbLine
 62
7
  6
CONTINUOUS
 10
16.38
 20
5.4995
 11
16.53
 21
5.412897
  0
LINE
  5
495
100
AcDbEntity
  8
0
100
AcDbLine
 62
7
  6
CONTINUOUS
 10
12.83
 20
1.507
 11
12.83
 21
1.137
  0
LINE
  5
496
100
AcDbEntity
  8
0
100
AcDbLine
 62
7
  6
CONTINUOUS
 10
16.38
 20
10.112
 11
0.62
 21
10.112
  0
LINE
  5
497
100
AcDbEntity
  8
0
100
AcDbLine
 62
7
  6
CONTINUOUS
 10
8.586603
 20
10.262
 11
8.413397
 21
10.262
  0
LINE
  5
498
100
AcDbEntity
  8
0
100
AcDbLine
 62
7
  6
CONTINUOUS
 10
14.205
 20
1.137
 11
14.205
 21
0.887
  0
LINE
  5
499
100
AcDbEntity
  8
0
100
AcDbLine
 62
7
  6
CONTINUOUS
 10
14.41
 20
0.887
 11
14.41
 21
0.637
  0
LINE
  5
49A
100
AcDbEntity
  8
0
100
AcDbLine
 62
7
  6
CONTINUOUS
 10
14.41
 20
10.112
 11
14.41
 21
10.362
  0
LINE
  5
49B
100
AcDbEntity
  8
0
100
AcDbLine
 62
7
  6
CONTINUOUS
 10
15.58
 20
1.507
 11
15.58
 21
1.137
  0
LINE
  5
49C
100
AcDbEntity
  8
0
100
AcDbLine
 62
7
  6
CONTINUOUS
 10
16.38
 20
0.887
 11
16.38
 21
10.112
  0
LINE
  5
49D
100
AcDbEntity
  8
0
100
AcDbLine
 62
7
  6
CONTINUOUS
 10
16.53
 20
5.412897
 11
16.53
 21
5.586103
  0
LINE
  5
49E
100
AcDbEntity
  8
AXIS
100
AcDbLine
 62
7
  6
CONTINUOUS
 10
5.564022699
 20
4.0488407078
 11
5.3309518329
 21
4.0488407078
  0
LINE
  5
49F
100
AcDbEntity
  8
0
100
AcDbLine
 62
7
  6
CONTINUOUS
 10
5.9592982896
 20
4.603958818
 11
4.9356762423
 21
4.603958818
  0
LINE
  5
4A0
100
AcDbEntity
  8
0
100
AcDbLine
 62
7
  6
CONTINUOUS
 10
5.9986683683
 20
4.6433288967
 11
5.5511846454
 21
4.6433288967
  0
LINE
  5
4A1
100
AcDbEntity
  8
0
100
AcDbLine
 62
7
  6
CONTINUOUS
 10
4.8963061636
 20
4.6433288967
 11
5.3437898865
 21
4.6433288967
  0
LINE
  5
4A2
100
AcDbEntity
  8
0
100
AcDbLine
 62
7
  6
CONTINUOUS
 10
4.8487936063
 20
4.7267349006
 11
4.8965464161
 21
4.6991537383
  0
LINE
  5
4A3
100
AcDbEntity
  8
0
100
AcDbLine
 62
7
  6
CONTINUOUS
 10
4.8487936063
 20
4.7857900187
 11
4.8965464161
 21
4.7582088564
  0
LINE
  5
4A4
100
AcDbEntity
  8
AXIS
100
AcDbLine
 62
7
  6
CONTINUOUS
 10
4.06953451
 20
7.1826989755
 11
4.06953451
 21
6.4738503595
  0
LINE
  5
4A5
100
AcDbEntity
  8
0
100
AcDbLine
 62
7
  6
CONTINUOUS
 10
4.06953451
 20
6.446478503
 11
4.06953451
 21
6.4738233703
  0
LINE
  5
4A6
100
AcDbEntity
  8
0
100
AcDbLine
 62
7
  6
CONTINUOUS
 10
4.8487936063
 20
4.8448451368
 11
4.8965464161
 21
4.8172639745
  0
LINE
  5
4A7
100
AcDbEntity
  8
0
100
AcDbLine
 62
7
  6
CONTINUOUS
 10
4.8487936063
 20
4.9039002549
 11
4.8965464161
 21
4.8763190926
  0
LINE
  5
4A8
100
AcDbEntity
  8
0
100
AcDbLine
 62
7
  6
CONTINUOUS
 10
4.8487936063
 20
4.962955373
 11
4.8965464161
 21
4.9353742108
  0
LINE
  5
4A9
100
AcDbEntity
  8
AXIS
100
AcDbLine
 62
7
  6
CONTINUOUS
 10
4.1877955386
 20
6.3877669362
 11
4.1984342067
 21
5.7782780494
  0
LINE
  5
4AA
100
AcDbEntity
  8
0
100
AcDbLine
 62
7
  6
CONTINUOUS
 10
4.8487936063
 20
5.0220104911
 11
4.8965464161
 21
4.9944293289
  0
LINE
  5
4AB
100
AcDbEntity
  8
0
100
AcDbLine
 62
7
  6
CONTINUOUS
 10
4.8487936063
 20
5.0810656092
 11
4.8965464161
 21
5.053484447
  0
LINE
  5
4AC
100
AcDbEntity
  8
0
100
AcDbLine
 62
7
  6
CONTINUOUS
 10
4.8487936063
 20
5.1401207273
 11
4.8965464161
 21
5.1125395651
  0
LINE
  5
4AD
100
AcDbEntity
  8
0
100
AcDbLine
 62
7
  6
CONTINUOUS
 10
4.8487936063
 20
5.1991758454
 11
4.8965464161
 21
5.1715946832
  0
LINE
  5
4AE
100
AcDbEntity
  8
0
100
AcDbLine
 62
7
  6
CONTINUOUS
 10
4.8487936063
 20
5.2582309636
 11
4.8965464161
 21
5.2306498013
  0
LINE
  5
4AF
100
AcDbEntity
  8
0
100
AcDbLine
 62
7
  6
CONTINUOUS
 10
4.8487936063
 20
5.3172860817
 11
4.8965464161
 21
5.2897049194
  0
LINE
  5
4B0
100
AcDbEntity
  8
0
100
AcDbLine
 62
7
  6
CONTINUOUS
 10
4.8487936063
 20
5.3763411998
 11
4.8965464161
 21
5.3487600375
  0
LINE
  5
4B1
100
AcDbEntity
  8
0
100
AcDbLine
 62
7
  6
CONTINUOUS
 10
6.0461809255
 20
4.6977181685
 11
5.9984281158
 21
4.7252993308
  0
LINE
  5
4B2
100
AcDbEntity
  8
0
100
AcDbLine
 62
7
  6
CONTINUOUS
 10
4.8487936063
 20
5.4353963179
 11
4.8965464161
 21
5.4078151556
  0
LINE
  5
4B3
100
AcDbEntity
  8
0
100
AcDbLine
 62
7
  6
CONTINUOUS
 10
6.0461809255
 20
4.7567732866
 11
5.9984281158
 21
4.7843544489
  0
LINE
  5
4B4
100
AcDbEntity
  8
0
100
AcDbLine
 62
7
  6
CONTINUOUS
 10
4.8487936063
 20
5.494451436
 11
4.8965464161
 21
5.4668702737
  0
LINE
  5
4B5
100
AcDbEntity
  8
0
100
AcDbLine
 62
7
  6
CONTINUOUS
 10
6.0461809255
 20
4.8158284047
 11
5.9984281158
 21
4.843409567
  0
LINE
  5
4B6
100
AcDbEntity
  8
0
100
AcDbLine
 62
7
  6
CONTINUOUS
 10
6.0461809255
 20
4.8748835228
 11
5.9984281158
 21
4.9024646851
  0
LINE
  5
4B7
100
AcDbEntity
  8
0
100
AcDbLine
 62
7
  6
CONTINUOUS
 10
5.9986683683
 20
5.5373984271
 11
5.5511846454
 21
5.5373984271
  0
LINE
  5
4B8
100
AcDbEntity
  8
0
100
AcDbLine
 62
7
  6
CONTINUOUS
 10
5.3437898865
 20
5.5373984271
 11
4.8963061636
 21
5.5373984271
  0
LINE
  5
4B9
100
AcDbEntity
  8
0
100
AcDbLine
 62
7
  6
CONTINUOUS
 10
6.0461809255
 20
4.933938641
 11
5.9984281158
 21
4.9615198032
  0
LINE
  5
4BA
100
AcDbEntity
  8
0
100
AcDbLine
 62
7
  6
CONTINUOUS
 10
6.0461809255
 20
4.9929937591
 11
5.9984281158
 21
5.0205749213
  0
LINE
  5
4BB
100
AcDbEntity
  8
0
100
AcDbLine
 62
7
  6
CONTINUOUS
 10
6.0461809255
 20
5.0520488772
 11
5.9984281158
 21
5.0796300394
  0
LINE
  5
4BC
100
AcDbEntity
  8
AXIS
100
AcDbLine
 62
7
  6
CONTINUOUS
 10
4.8487936063
 20
5.494962263
 11
4.8487936063
 21
5.494451436
  0
LINE
  5
4BD
100
AcDbEntity
  8
AXIS
100
AcDbLine
 62
7
  6
CONTINUOUS
 10
4.8487936063
 20
5.4359071449
 11
4.8487936063
 21
5.4353963179
  0
LINE
  5
4BE
100
AcDbEntity
  8
AXIS
100
AcDbLine
 62
7
  6
CONTINUOUS
 10
4.8487936063
 20
5.3768520268
 11
4.8487936063
 21
5.3763411998
  0
LINE
  5
4BF
100
AcDbEntity
  8
AXIS
100
AcDbLine
 62
7
  6
CONTINUOUS
 10
4.8487936063
 20
5.3177969087
 11
4.8487936063
 21
5.3172860817
  0
LINE
  5
4C0
100
AcDbEntity
  8
AXIS
100
AcDbLine
 62
7
  6
CONTINUOUS
 10
4.8487936063
 20
5.2587417906
 11
4.8487936063
 21
5.2582309636
  0
LINE
  5
4C1
100
AcDbEntity
  8
AXIS
100
AcDbLine
 62
7
  6
CONTINUOUS
 10
4.8487936063
 20
5.1996866725
 11
4.8487936063
 21
5.1991758454
  0
LINE
  5
4C2
100
AcDbEntity
  8
AXIS
100
AcDbLine
 62
7
  6
CONTINUOUS
 10
4.8487936063
 20
5.1406315543
 11
4.8487936063
 21
5.1401207273
  0
LINE
  5
4C3
100
AcDbEntity
  8
AXIS
100
AcDbLine
 62
7
  6
CONTINUOUS
 10
4.8487936063
 20
5.0815764362
 11
4.8487936063
 21
5.0810656092
  0
LINE
  5
4C4
100
AcDbEntity
  8
AXIS
100
AcDbLine
 62
7
  6
CONTINUOUS
 10
4.8487936063
 20
5.0225213181
 11
4.8487936063
 21
5.0220104911
  0
LINE
  5
4C5
100
AcDbEntity
  8
AXIS
100
AcDbLine
 62
7
  6
CONTINUOUS
 10
4.8487936063
 20
4.9634662
 11
4.8487936063
 21
4.962955373
  0
LINE
  5
4C6
100
AcDbEntity
  8
AXIS
100
AcDbLine
 62
7
  6
CONTINUOUS
 10
4.8487936063
 20
4.9044110819
 11
4.8487936063
 21
4.9039002549
  0
LINE
  5
4C7
100
AcDbEntity
  8
AXIS
100
AcDbLine
 62
7
  6
CONTINUOUS
 10
4.8487936063
 20
4.8453559638
 11
4.8487936063
 21
4.8448451368
  0
LINE
  5
4C8
100
AcDbEntity
  8
AXIS
100
AcDbLine
 62
7
  6
CONTINUOUS
 10
4.8487936063
 20
4.7863008457
 11
4.8487936063
 21
4.7857900187
  0
LINE
  5
4C9
100
AcDbEntity
  8
AXIS
100
AcDbLine
 62
7
  6
CONTINUOUS
 10
4.8487936063
 20
4.7272457276
 11
4.8487936063
 21
4.7267349006
  0
LINE
  5
4CA
100
AcDbEntity
  8
AXIS
100
AcDbLine
 62
7
  6
CONTINUOUS
 10
4.8963061636
 20
5.5373984271
 11
4.8963061636
 21
5.5222659046
  0
LINE
  5
4CB
100
AcDbEntity
  8
AXIS
100
AcDbLine
 62
7
  6
CONTINUOUS
 10
4.8963061636
 20
5.4671477944
 11
4.8963061636
 21
5.4632107865
  0
LINE
  5
4CC
100
AcDbEntity
  8
AXIS
100
AcDbLine
 62
7
  6
CONTINUOUS
 10
4.8963061636
 20
5.4080926763
 11
4.8963061636
 21
5.4041556684
  0
LINE
  5
4CD
100
AcDbEntity
  8
AXIS
100
AcDbLine
 62
7
  6
CONTINUOUS
 10
4.8963061636
 20
5.3490375582
 11
4.8963061636
 21
5.3451005503
  0
LINE
  5
4CE
100
AcDbEntity
  8
AXIS
100
AcDbLine
 62
7
  6
CONTINUOUS
 10
4.8963061636
 20
5.2899824401
 11
4.8963061636
 21
5.2860454322
  0
LINE
  5
4CF
100
AcDbEntity
  8
AXIS
100
AcDbLine
 62
7
  6
CONTINUOUS
 10
4.8963061636
 20
5.2309273219
 11
4.8963061636
 21
5.2269903141
  0
LINE
  5
4D0
100
AcDbEntity
  8
AXIS
100
AcDbLine
 62
7
  6
CONTINUOUS
 10
4.8963061636
 20
5.1718722038
 11
4.8963061636
 21
5.167935196
  0
LINE
  5
4D1
100
AcDbEntity
  8
AXIS
100
AcDbLine
 62
7
  6
CONTINUOUS
 10
4.8963061636
 20
5.1128170857
 11
4.8963061636
 21
5.1088800778
  0
LINE
  5
4D2
100
AcDbEntity
  8
AXIS
100
AcDbLine
 62
7
  6
CONTINUOUS
 10
4.8963061636
 20
5.0537619676
 11
4.8963061636
 21
5.0498249597
  0
LINE
  5
4D3
100
AcDbEntity
  8
AXIS
100
AcDbLine
 62
7
  6
CONTINUOUS
 10
4.8963061636
 20
4.9947068495
 11
4.8963061636
 21
4.9907698416
  0
LINE
  5
4D4
100
AcDbEntity
  8
AXIS
100
AcDbLine
 62
7
  6
CONTINUOUS
 10
4.8963061636
 20
4.9356517314
 11
4.8963061636
 21
4.9317147235
  0
LINE
  5
4D5
100
AcDbEntity
  8
AXIS
100
AcDbLine
 62
7
  6
CONTINUOUS
 10
4.8963061636
 20
4.8765966133
 11
4.8963061636
 21
4.8726596054
  0
LINE
  5
4D6
100
AcDbEntity
  8
AXIS
100
AcDbLine
 62
7
  6
CONTINUOUS
 10
4.8963061636
 20
4.8175414952
 11
4.8963061636
 21
4.8136044873
  0
LINE
  5
4D7
100
AcDbEntity
  8
AXIS
100
AcDbLine
 62
7
  6
CONTINUOUS
 10
4.8963061636
 20
4.7584863771
 11
4.8963061636
 21
4.7545493692
  0
LINE
  5
4D8
100
AcDbEntity
  8
AXIS
100
AcDbLine
 62
7
  6
CONTINUOUS
 10
4.8963061636
 20
4.6994312589
 11
4.8963061636
 21
4.6433288967
  0
LINE
  5
4D9
100
AcDbEntity
  8
AXIS
100
AcDbLine
 62
7
  6
CONTINUOUS
 10
6.0373513444
 20
5.5767625096
 11
6.5031554258
 21
5.5848931501
  0
LINE
  5
4DA
100
AcDbEntity
  8
0
100
AcDbLine
 62
7
  6
CONTINUOUS
 10
4.8576231874
 20
5.5767625096
 11
5.3402429756
 21
5.5767625096
  0
LINE
  5
4DB
100
AcDbEntity
  8
0
100
AcDbLine
 62
7
  6
CONTINUOUS
 10
5.5547315562
 20
5.5767625096
 11
6.0373513444
 21
5.5767625096
  0
LINE
  5
4DC
100
AcDbEntity
  8
0
100
AcDbLine
 62
7
  6
CONTINUOUS
 10
4.391819106
 20
5.5848931501
 11
6.5031554258
 21
5.5848931501
  0
LINE
  5
4DD
100
AcDbEntity
  8
AXIS
100
AcDbLine
 62
7
  6
CONTINUOUS
 10
4.8576231874
 20
5.5767625096
 11
4.391819106
 21
5.5848931501
  0
LINE
  5
4DE
100
AcDbEntity
  8
0
100
AcDbLine
 62
7
  6
CONTINUOUS
 10
6.0461809255
 20
5.1111039953
 11
5.9984281158
 21
5.1386851575
  0
LINE
  5
4DF
100
AcDbEntity
  8
0
100
AcDbLine
 62
7
  6
CONTINUOUS
 10
6.0461809255
 20
5.1701591134
 11
5.9984281158
 21
5.1977402756
  0
LINE
  5
4E0
100
AcDbEntity
  8
0
100
AcDbLine
 62
7
  6
CONTINUOUS
 10
6.0461809255
 20
5.2292142315
 11
5.9984281158
 21
5.2567953938
  0
LINE
  5
4E1
100
AcDbEntity
  8
0
100
AcDbLine
 62
7
  6
CONTINUOUS
 10
6.0461809255
 20
5.2882693496
 11
5.9984281158
 21
5.3158505119
  0
LINE
  5
4E2
100
AcDbEntity
  8
0
100
AcDbLine
 62
7
  6
CONTINUOUS
 10
4.1984342067
 20
5.7782780494
 11
6.6965403252
 21
5.7782780494
  0
LINE
  5
4E3
100
AcDbEntity
  8
0
100
AcDbLine
 62
7
  6
CONTINUOUS
 10
6.0461809255
 20
5.3473244677
 11
5.9984281158
 21
5.37490563
  0
LINE
  5
4E4
100
AcDbEntity
  8
0
100
AcDbLine
 62
7
  6
CONTINUOUS
 10
6.0461809255
 20
5.4063795858
 11
5.9984281158
 21
5.4339607481
  0
LINE
  5
4E5
100
AcDbEntity
  8
0
100
AcDbLine
 62
7
  6
CONTINUOUS
 10
6.0461809255
 20
5.4654347039
 11
5.9984281158
 21
5.4930158662
  0
LINE
  5
4E6
100
AcDbEntity
  8
AXIS
100
AcDbLine
 62
7
  6
CONTINUOUS
 10
5.3309518329
 20
4.603958818
 11
5.3309518329
 21
4.0488407078
  0
LINE
  5
4E7
100
AcDbEntity
  8
0
100
AcDbLine
 62
7
  6
CONTINUOUS
 10
5.3437898865
 20
5.5373869676
 11
5.3437898865
 21
5.5352508025
  0
LINE
  5
4E8
100
AcDbEntity
  8
AXIS
100
AcDbLine
 62
7
  6
CONTINUOUS
 10
5.3437898865
 20
5.4801326923
 11
5.3437898865
 21
5.4761956844
  0
LINE
  5
4E9
100
AcDbEntity
  8
AXIS
100
AcDbLine
 62
7
  6
CONTINUOUS
 10
5.3437898865
 20
5.4210775741
 11
5.3437898865
 21
5.4171405663
  0
LINE
  5
4EA
100
AcDbEntity
  8
AXIS
100
AcDbLine
 62
7
  6
CONTINUOUS
 10
5.3437898865
 20
5.362022456
 11
5.3437898865
 21
5.3580854482
  0
LINE
  5
4EB
100
AcDbEntity
  8
AXIS
100
AcDbLine
 62
7
  6
CONTINUOUS
 10
5.3437898865
 20
5.3029673379
 11
5.3437898865
 21
5.29903033
  0
LINE
  5
4EC
100
AcDbEntity
  8
AXIS
100
AcDbLine
 62
7
  6
CONTINUOUS
 10
5.3437898865
 20
5.2439122198
 11
5.3437898865
 21
5.2399752119
  0
LINE
  5
4ED
100
AcDbEntity
  8
AXIS
100
AcDbLine
 62
7
  6
CONTINUOUS
 10
5.3437898865
 20
5.1848571017
 11
5.3437898865
 21
5.1809200938
  0
LINE
  5
4EE
100
AcDbEntity
  8
AXIS
100
AcDbLine
 62
7
  6
CONTINUOUS
 10
5.3437898865
 20
5.1258019836
 11
5.3437898865
 21
5.1218649757
  0
LINE
  5
4EF
100
AcDbEntity
  8
AXIS
100
AcDbLine
 62
7
  6
CONTINUOUS
 10
5.3437898865
 20
5.0667468655
 11
5.3437898865
 21
5.0628098576
  0
LINE
  5
4F0
100
AcDbEntity
  8
AXIS
100
AcDbLine
 62
7
  6
CONTINUOUS
 10
5.3437898865
 20
5.0076917474
 11
5.3437898865
 21
5.0037547395
  0
LINE
  5
4F1
100
AcDbEntity
  8
AXIS
100
AcDbLine
 62
7
  6
CONTINUOUS
 10
5.3437898865
 20
4.9486366293
 11
5.3437898865
 21
4.9446996214
  0
LINE
  5
4F2
100
AcDbEntity
  8
AXIS
100
AcDbLine
 62
7
  6
CONTINUOUS
 10
5.3437898865
 20
4.8895815112
 11
5.3437898865
 21
4.8856445033
  0
LINE
  5
4F3
100
AcDbEntity
  8
AXIS
100
AcDbLine
 62
7
  6
CONTINUOUS
 10
5.3437898865
 20
4.830526393
 11
5.3437898865
 21
4.8265893852
  0
LINE
  5
4F4
100
AcDbEntity
  8
AXIS
100
AcDbLine
 62
7
  6
CONTINUOUS
 10
5.3437898865
 20
4.7714712749
 11
5.3437898865
 21
4.7675342671
  0
LINE
  5
4F5
100
AcDbEntity
  8
0
100
AcDbLine
 62
7
  6
CONTINUOUS
 10
5.3437898865
 20
4.7124161568
 11
5.3437898865
 21
4.6433276593
  0
LINE
  5
4F6
100
AcDbEntity
  8
AXIS
100
AcDbLine
 62
7
  6
CENTER
 10
5.4474872659
 20
3.8927057838
 11
5.4474872659
 21
8.538440348
  0
LINE
  5
4F7
100
AcDbEntity
  8
0
100
AcDbLine
 62
7
  6
CONTINUOUS
 10
5.5511846454
 20
5.5373869685
 11
5.5511846454
 21
5.4797534477
  0
LINE
  5
4F8
100
AcDbEntity
  8
AXIS
100
AcDbLine
 62
7
  6
CONTINUOUS
 10
5.5511846454
 20
5.4246353375
 11
5.5511846454
 21
5.4206983296
  0
LINE
  5
4F9
100
AcDbEntity
  8
AXIS
100
AcDbLine
 62
7
  6
CONTINUOUS
 10
5.5511846454
 20
5.3655802193
 11
5.5511846454
 21
5.3616432115
  0
LINE
  5
4FA
100
AcDbEntity
  8
AXIS
100
AcDbLine
 62
7
  6
CONTINUOUS
 10
5.5511846454
 20
5.3065251012
 11
5.5511846454
 21
5.3025880934
  0
LINE
  5
4FB
100
AcDbEntity
  8
AXIS
100
AcDbLine
 62
7
  6
CONTINUOUS
 10
5.5511846454
 20
5.2474699831
 11
5.5511846454
 21
5.2435329752
  0
LINE
  5
4FC
100
AcDbEntity
  8
AXIS
100
AcDbLine
 62
7
  6
CONTINUOUS
 10
5.5511846454
 20
5.188414865
 11
5.5511846454
 21
5.1844778571
  0
LINE
  5
4FD
100
AcDbEntity
  8
AXIS
100
AcDbLine
 62
7
  6
CONTINUOUS
 10
5.5511846454
 20
5.1293597469
 11
5.5511846454
 21
5.125422739
  0
LINE
  5
4FE
100
AcDbEntity
  8
AXIS
100
AcDbLine
 62
7
  6
CONTINUOUS
 10
5.5511846454
 20
5.0703046288
 11
5.5511846454
 21
5.0663676209
  0
LINE
  5
4FF
100
AcDbEntity
  8
AXIS
100
AcDbLine
 62
7
  6
CONTINUOUS
 10
5.5511846454
 20
5.0112495107
 11
5.5511846454
 21
5.0073125028
  0
LINE
  5
500
100
AcDbEntity
  8
AXIS
100
AcDbLine
 62
7
  6
CONTINUOUS
 10
5.5511846454
 20
4.9521943926
 11
5.5511846454
 21
4.9482573847
  0
LINE
  5
501
100
AcDbEntity
  8
AXIS
100
AcDbLine
 62
7
  6
CONTINUOUS
 10
5.5511846454
 20
4.8931392745
 11
5.5511846454
 21
4.8892022666
  0
LINE
  5
502
100
AcDbEntity
  8
AXIS
100
AcDbLine
 62
7
  6
CONTINUOUS
 10
5.5511846454
 20
4.8340841563
 11
5.5511846454
 21
4.8301471485
  0
LINE
  5
503
100
AcDbEntity
  8
AXIS
100
AcDbLine
 62
7
  6
CONTINUOUS
 10
5.5511846454
 20
4.7750290382
 11
5.5511846454
 21
4.7710920304
  0
LINE
  5
504
100
AcDbEntity
  8
AXIS
100
AcDbLine
 62
7
  6
CONTINUOUS
 10
5.5511846454
 20
4.7159739201
 11
5.5511846454
 21
4.7120369123
  0
LINE
  5
505
100
AcDbEntity
  8
0
100
AcDbLine
 62
7
  6
CONTINUOUS
 10
5.5511846454
 20
4.656918802
 11
5.5511846454
 21
4.6433288967
  0
LINE
  5
506
100
AcDbEntity
  8
AXIS
100
AcDbLine
 62
7
  6
CONTINUOUS
 10
5.564022699
 20
4.603958818
 11
5.564022699
 21
4.0488407078
  0
LINE
  5
507
100
AcDbEntity
  8
0
100
AcDbLine
 62
7
  6
CONTINUOUS
 10
4.1877955386
 20
6.3877669362
 11
6.7071789933
 21
6.3877669362
  0
LINE
  5
508
100
AcDbEntity
  8
0
100
AcDbLine
 62
7
  6
CONTINUOUS
 10
4.8965464161
 20
5.5225434253
 11
4.8487936063
 21
5.494962263
  0
LINE
  5
509
100
AcDbEntity
  8
0
100
AcDbLine
 62
7
  6
CONTINUOUS
 10
5.4474872659
 20
6.4858485818
 11
4.06953451
 21
6.4738233703
  0
LINE
  5
50A
100
AcDbEntity
  8
0
100
AcDbLine
 62
7
  6
CONTINUOUS
 10
6.7860660929
 20
6.4071084243
 11
4.1089069623
 21
6.4071084243
  0
LINE
  5
50B
100
AcDbEntity
  8
0
100
AcDbLine
 62
7
  6
CONTINUOUS
 10
4.06953451
 20
6.446478503
 11
6.8254400218
 21
6.446478503
  0
LINE
  5
50C
100
AcDbEntity
  8
0
100
AcDbLine
 62
7
  6
CONTINUOUS
 10
6.8254400218
 20
6.4738233703
 11
5.4474872659
 21
6.4858485818
  0
LINE
  5
50D
100
AcDbEntity
  8
0
100
AcDbLine
 62
7
  6
CONTINUOUS
 10
4.8965464161
 20
5.4634883071
 11
4.8487936063
 21
5.4359071449
  0
LINE
  5
50E
100
AcDbEntity
  8
0
100
AcDbLine
 62
7
  6
CONTINUOUS
 10
4.8965464161
 20
5.404433189
 11
4.8487936063
 21
5.3768520268
  0
LINE
  5
50F
100
AcDbEntity
  8
0
100
AcDbLine
 62
7
  6
CONTINUOUS
 10
4.8965464161
 20
5.3453780709
 11
4.8487936063
 21
5.3177969087
  0
LINE
  5
510
100
AcDbEntity
  8
0
100
AcDbLine
 62
7
  6
CONTINUOUS
 10
4.8965464161
 20
5.2863229528
 11
4.8487936063
 21
5.2587417906
  0
LINE
  5
511
100
AcDbEntity
  8
AXIS
100
AcDbLine
 62
7
  6
CONTINUOUS
 10
5.9986683683
 20
5.5373984271
 11
5.9986683683
 21
5.4927383456
  0
LINE
  5
512
100
AcDbEntity
  8
AXIS
100
AcDbLine
 62
7
  6
CONTINUOUS
 10
5.9986683683
 20
5.4376202353
 11
5.9986683683
 21
5.4336832275
  0
LINE
  5
513
100
AcDbEntity
  8
AXIS
100
AcDbLine
 62
7
  6
CONTINUOUS
 10
5.9986683683
 20
5.3785651172
 11
5.9986683683
 21
5.3746281093
  0
LINE
  5
514
100
AcDbEntity
  8
AXIS
100
AcDbLine
 62
7
  6
CONTINUOUS
 10
5.9986683683
 20
5.3195099991
 11
5.9986683683
 21
5.3155729912
  0
LINE
  5
515
100
AcDbEntity
  8
AXIS
100
AcDbLine
 62
7
  6
CONTINUOUS
 10
5.9986683683
 20
5.260454881
 11
5.9986683683
 21
5.2565178731
  0
LINE
  5
516
100
AcDbEntity
  8
AXIS
100
AcDbLine
 62
7
  6
CONTINUOUS
 10
5.9986683683
 20
5.2013997629
 11
5.9986683683
 21
5.197462755
  0
LINE
  5
517
100
AcDbEntity
  8
AXIS
100
AcDbLine
 62
7
  6
CONTINUOUS
 10
5.9986683683
 20
5.1423446448
 11
5.9986683683
 21
5.1384076369
  0
LINE
  5
518
100
AcDbEntity
  8
AXIS
100
AcDbLine
 62
7
  6
CONTINUOUS
 10
5.9986683683
 20
5.0832895267
 11
5.9986683683
 21
5.0793525188
  0
LINE
  5
519
100
AcDbEntity
  8
AXIS
100
AcDbLine
 62
7
  6
CONTINUOUS
 10
5.9986683683
 20
5.0242344086
 11
5.9986683683
 21
5.0202974007
  0
LINE
  5
51A
100
AcDbEntity
  8
AXIS
100
AcDbLine
 62
7
  6
CONTINUOUS
 10
5.9986683683
 20
4.9651792904
 11
5.9986683683
 21
4.9612422826
  0
LINE
  5
51B
100
AcDbEntity
  8
AXIS
100
AcDbLine
 62
7
  6
CONTINUOUS
 10
5.9986683683
 20
4.9061241723
 11
5.9986683683
 21
4.9021871645
  0
LINE
  5
51C
100
AcDbEntity
  8
AXIS
100
AcDbLine
 62
7
  6
CONTINUOUS
 10
5.9986683683
 20
4.8470690542
 11
5.9986683683
 21
4.8431320463
  0
LINE
  5
51D
100
AcDbEntity
  8
AXIS
100
AcDbLine
 62
7
  6
CONTINUOUS
 10
5.9986683683
 20
4.7880139361
 11
5.9986683683
 21
4.7840769282
  0
LINE
  5
51E
100
AcDbEntity
  8
AXIS
100
AcDbLine
 62
7
  6
CONTINUOUS
 10
5.9986683683
 20
4.728958818
 11
5.9986683683
 21
4.7250218101
  0
LINE
  5
51F
100
AcDbEntity
  8
AXIS
100
AcDbLine
 62
7
  6
CONTINUOUS
 10
5.9986683683
 20
4.6699036999
 11
5.9986683683
 21
4.6433288967
  0
LINE
  5
520
100
AcDbEntity
  8
AXIS
100
AcDbLine
 62
7
  6
CONTINUOUS
 10
6.0461809255
 20
5.4654347039
 11
6.0461809255
 21
5.4649238769
  0
LINE
  5
521
100
AcDbEntity
  8
AXIS
100
AcDbLine
 62
7
  6
CONTINUOUS
 10
6.0461809255
 20
5.4063795858
 11
6.0461809255
 21
5.4058687588
  0
LINE
  5
522
100
AcDbEntity
  8
AXIS
100
AcDbLine
 62
7
  6
CONTINUOUS
 10
6.0461809255
 20
5.3473244677
 11
6.0461809255
 21
5.3468136407
  0
LINE
  5
523
100
AcDbEntity
  8
AXIS
100
AcDbLine
 62
7
  6
CONTINUOUS
 10
6.0461809255
 20
5.2882693496
 11
6.0461809255
 21
5.2877585226
  0
LINE
  5
524
100
AcDbEntity
  8
AXIS
100
AcDbLine
 62
7
  6
CONTINUOUS
 10
6.0461809255
 20
5.2292142315
 11
6.0461809255
 21
5.2287034045
  0
LINE
  5
525
100
AcDbEntity
  8
AXIS
100
AcDbLine
 62
7
  6
CONTINUOUS
 10
6.0461809255
 20
5.1701591134
 11
6.0461809255
 21
5.1696482864
  0
LINE
  5
526
100
AcDbEntity
  8
AXIS
100
AcDbLine
 62
7
  6
CONTINUOUS
 10
6.0461809255
 20
5.1111039953
 11
6.0461809255
 21
5.1105931683
  0
LINE
  5
527
100
AcDbEntity
  8
AXIS
100
AcDbLine
 62
7
  6
CONTINUOUS
 10
6.0461809255
 20
5.0520488772
 11
6.0461809255
 21
5.0515380502
  0
LINE
  5
528
100
AcDbEntity
  8
AXIS
100
AcDbLine
 62
7
  6
CONTINUOUS
 10
6.0461809255
 20
4.9929937591
 11
6.0461809255
 21
4.9924829321
  0
LINE
  5
529
100
AcDbEntity
  8
AXIS
100
AcDbLine
 62
7
  6
CONTINUOUS
 10
6.0461809255
 20
4.933938641
 11
6.0461809255
 21
4.9334278139
  0
LINE
  5
52A
100
AcDbEntity
  8
AXIS
100
AcDbLine
 62
7
  6
CONTINUOUS
 10
6.0461809255
 20
4.8748835228
 11
6.0461809255
 21
4.8743726958
  0
LINE
  5
52B
100
AcDbEntity
  8
AXIS
100
AcDbLine
 62
7
  6
CONTINUOUS
 10
6.0461809255
 20
4.8158284047
 11
6.0461809255
 21
4.8153175777
  0
LINE
  5
52C
100
AcDbEntity
  8
AXIS
100
AcDbLine
 62
7
  6
CONTINUOUS
 10
6.0461809255
 20
4.7567732866
 11
6.0461809255
 21
4.7562624596
  0
LINE
  5
52D
100
AcDbEntity
  8
AXIS
100
AcDbLine
 62
7
  6
CONTINUOUS
 10
6.0461809255
 20
4.6977181685
 11
6.0461809255
 21
4.6972073415
  0
LINE
  5
52E
100
AcDbEntity
  8
0
100
AcDbLine
 62
7
  6
CONTINUOUS
 10
4.8965464161
 20
5.2272678347
 11
4.8487936063
 21
5.1996866725
  0
LINE
  5
52F
100
AcDbEntity
  8
0
100
AcDbLine
 62
7
  6
CONTINUOUS
 10
4.8965464161
 20
5.1682127166
 11
4.8487936063
 21
5.1406315543
  0
LINE
  5
530
100
AcDbEntity
  8
0
100
AcDbLine
 62
7
  6
CONTINUOUS
 10
4.8965464161
 20
5.1091575985
 11
4.8487936063
 21
5.0815764362
  0
LINE
  5
531
100
AcDbEntity
  8
0
100
AcDbLine
 62
7
  6
CONTINUOUS
 10
4.8965464161
 20
5.0501024804
 11
4.8487936063
 21
5.0225213181
  0
LINE
  5
532
100
AcDbEntity
  8
0
100
AcDbLine
 62
7
  6
CONTINUOUS
 10
4.8965464161
 20
4.9910473623
 11
4.8487936063
 21
4.9634662
  0
LINE
  5
533
100
AcDbEntity
  8
0
100
AcDbLine
 62
7
  6
CONTINUOUS
 10
4.8965464161
 20
4.9319922442
 11
4.8487936063
 21
4.9044110819
  0
LINE
  5
534
100
AcDbEntity
  8
0
100
AcDbLine
 62
7
  6
CONTINUOUS
 10
4.8965464161
 20
4.872937126
 11
4.8487936063
 21
4.8453559638
  0
LINE
  5
535
100
AcDbEntity
  8
0
100
AcDbLine
 62
7
  6
CONTINUOUS
 10
4.8965464161
 20
4.8138820079
 11
4.8487936063
 21
4.7863008457
  0
LINE
  5
536
100
AcDbEntity
  8
0
100
AcDbLine
 62
7
  6
CONTINUOUS
 10
5.9984281158
 20
5.4373427147
 11
6.0461809255
 21
5.4649238769
  0
LINE
  5
537
100
AcDbEntity
  8
0
100
AcDbLine
 62
7
  6
CONTINUOUS
 10
4.8965464161
 20
4.7548268898
 11
4.8487936063
 21
4.7272457276
  0
LINE
  5
538
100
AcDbEntity
  8
0
100
AcDbLine
 62
7
  6
CONTINUOUS
 10
5.9984281158
 20
5.3782875966
 11
6.0461809255
 21
5.4058687588
  0
LINE
  5
539
100
AcDbEntity
  8
0
100
AcDbLine
 62
7
  6
CONTINUOUS
 10
5.9984281158
 20
5.3192324785
 11
6.0461809255
 21
5.3468136407
  0
LINE
  5
53A
100
AcDbEntity
  8
0
100
AcDbLine
 62
7
  6
CONTINUOUS
 10
6.8254400218
 20
7.103958818
 11
4.0695457343
 21
7.103958818
  0
LINE
  5
53B
100
AcDbEntity
  8
AXIS
100
AcDbLine
 62
7
  6
CONTINUOUS
 10
4.06953451
 20
7.1826989755
 11
6.8254400218
 21
7.1826989755
  0
LINE
  5
53C
100
AcDbEntity
  8
0
100
AcDbLine
 62
7
  6
CONTINUOUS
 10
5.9984281158
 20
5.2601773604
 11
6.0461809255
 21
5.2877585226
  0
LINE
  5
53D
100
AcDbEntity
  8
0
100
AcDbLine
 62
7
  6
CONTINUOUS
 10
5.9984281158
 20
5.2011222423
 11
6.0461809255
 21
5.2287034045
  0
LINE
  5
53E
100
AcDbEntity
  8
0
100
AcDbLine
 62
7
  6
CONTINUOUS
 10
5.9984281158
 20
5.1420671241
 11
6.0461809255
 21
5.1696482864
  0
LINE
  5
53F
100
AcDbEntity
  8
AXIS
100
AcDbLine
 62
7
  6
CONTINUOUS
 10
6.8254400218
 20
7.1826989755
 11
6.8254400218
 21
6.4738514601
  0
LINE
  5
540
100
AcDbEntity
  8
0
100
AcDbLine
 62
7
  6
CONTINUOUS
 10
6.8254400218
 20
6.446478503
 11
6.8254400218
 21
6.4738233703
  0
LINE
  5
541
100
AcDbEntity
  8
AXIS
100
AcDbLine
 62
7
  6
CONTINUOUS
 10
6.7071789933
 20
6.3877669362
 11
6.6965403252
 21
5.7782780494
  0
LINE
  5
542
100
AcDbEntity
  8
0
100
AcDbLine
 62
7
  6
CONTINUOUS
 10
5.9984281158
 20
5.083012006
 11
6.0461809255
 21
5.1105931683
  0
LINE
  5
543
100
AcDbEntity
  8
0
100
AcDbLine
 62
7
  6
CONTINUOUS
 10
5.9984281158
 20
5.0239568879
 11
6.0461809255
 21
5.0515380502
  0
LINE
  5
544
100
AcDbEntity
  8
0
100
AcDbLine
 62
7
  6
CONTINUOUS
 10
5.9984281158
 20
4.9649017698
 11
6.0461809255
 21
4.9924829321
  0
LINE
  5
545
100
AcDbEntity
  8
0
100
AcDbLine
 62
7
  6
CONTINUOUS
 10
5.9984281158
 20
4.9058466517
 11
6.0461809255
 21
4.9334278139
  0
LINE
  5
546
100
AcDbEntity
  8
0
100
AcDbLine
 62
7
  6
CONTINUOUS
 10
5.9984281158
 20
4.8467915336
 11
6.0461809255
 21
4.8743726958
  0
LINE
  5
547
100
AcDbEntity
  8
0
100
AcDbLine
 62
7
  6
CONTINUOUS
 10
5.9984281158
 20
4.7877364155
 11
6.0461809255
 21
4.8153175777
  0
LINE
  5
548
100
AcDbEntity
  8
0
100
AcDbLine
 62
7
  6
CONTINUOUS
 10
5.9984281158
 20
4.7286812974
 11
6.0461809255
 21
4.7562624596
  0
LINE
  5
549
100
AcDbEntity
  8
0
100
AcDbLine
 62
7
  6
CONTINUOUS
 10
5.9984281158
 20
4.6696261793
 11
6.0461809255
 21
4.6972073415
  0
LINE
  5
54A
100
AcDbEntity
  8
7_ALL_FEATURES
100
AcDbLine
 62
7
  6
CONTINUOUS
 10
6.2657676719
 20
8.2265801044
 11
4.6292068599
 21
8.2265801044
  0
LINE
  5
54B
100
AcDbEntity
  8
7_ALL_FEATURES
100
AcDbLine
 62
7
  6
CONTINUOUS
 10
6.1402385428
 20
8.2813874163
 11
4.754735989
 21
8.2813874163
  0
LINE
  5
54C
100
AcDbEntity
  8
0
100
AcDbLine
 62
7
  6
CONTINUOUS
 10
11.4165964677
 20
7.6633714745
 11
11.4163138393
 21
7.6626687238
  0
LINE
  5
54D
100
AcDbEntity
  8
0
100
AcDbLine
 62
7
  6
CONTINUOUS
 10
11.4163466067
 20
7.6627995649
 11
11.416595998
 21
7.6633717513
  0
LINE
  5
54E
100
AcDbEntity
  8
AXIS
100
AcDbLine
 62
7
  6
CONTINUOUS
 10
11.1876225531
 20
5.7327120737
 11
11.3401505819
 21
5.7327120737
  0
LINE
  5
54F
100
AcDbEntity
  8
0
100
AcDbLine
 62
7
  6
CONTINUOUS
 10
11.3401505819
 20
5.7327120737
 11
11.5475453408
 21
5.7327120737
  0
LINE
  5
550
100
AcDbEntity
  8
AXIS
100
AcDbLine
 62
7
  6
CONTINUOUS
 10
11.5475453408
 20
5.7327120737
 11
11.7000733696
 21
5.7327120737
  0
LINE
  5
551
100
AcDbEntity
  8
0
100
AcDbLine
 62
7
  6
CONTINUOUS
 10
11.4163214255
 20
7.66269086
 11
11.4163470808
 21
7.6627993495
  0
LINE
  5
552
100
AcDbEntity
  8
0
100
AcDbLine
 62
7
  6
CONTINUOUS
 10
11.2983301494
 20
7.6462488349
 11
11.2983301494
 21
7.6443063888
  0
LINE
  5
553
100
AcDbEntity
  8
0
100
AcDbLine
 62
7
  6
CONTINUOUS
 10
11.313093929
 20
7.6466883375
 11
11.313093929
 21
7.6457857549
  0
LINE
  5
554
100
AcDbEntity
  8
0
100
AcDbLine
 62
7
  6
CONTINUOUS
 10
11.3946370578
 20
7.5524776299
 11
11.3953941243
 21
7.5328101543
  0
LINE
  5
555
100
AcDbEntity
  8
0
100
AcDbLine
 62
7
  6
CONTINUOUS
 10
11.4341587325
 20
7.5319870505
 11
11.4340071365
 21
7.551668508
  0
LINE
  5
556
100
AcDbEntity
  8
0
100
AcDbLine
 62
7
  6
CONTINUOUS
 10
11.3953941243
 20
7.5328101543
 11
11.3953947348
 21
7.5317786029
  0
LINE
  5
557
100
AcDbEntity
  8
0
100
AcDbLine
 62
7
  6
CONTINUOUS
 10
11.3946370578
 20
7.6117284475
 11
11.3946370578
 21
7.5524776299
  0
LINE
  5
558
100
AcDbEntity
  8
0
100
AcDbLine
 62
7
  6
CONTINUOUS
 10
11.4143220972
 20
7.6518452289
 11
11.4143220972
 21
7.551446055
  0
LINE
  5
559
100
AcDbEntity
  8
0
100
AcDbLine
 62
7
  6
CONTINUOUS
 10
11.4340062891
 20
7.6520034123
 11
11.4340071365
 21
7.551668508
  0
LINE
  5
55A
100
AcDbEntity
  8
AXIS
100
AcDbLine
 62
7
  6
CENTER
 10
11.4438479613
 20
6.2740506564
 11
11.4438479613
 21
4.7284394787
  0
LINE
  5
55B
100
AcDbEntity
  8
AXIS
100
AcDbLine
 62
7
  6
CENTER
 10
11.4438479613
 20
6.2740506564
 11
11.4438479613
 21
7.819661834
  0
LINE
  5
55C
100
AcDbEntity
  8
0
100
AcDbLine
 62
7
  6
CONTINUOUS
 10
11.4536887862
 20
7.551668508
 11
11.4536896336
 21
7.6520034123
  0
LINE
  5
55D
100
AcDbEntity
  8
0
100
AcDbLine
 62
7
  6
CONTINUOUS
 10
11.4535371901
 20
7.5319870505
 11
11.4536887862
 21
7.551668508
  0
LINE
  5
55E
100
AcDbEntity
  8
0
100
AcDbLine
 62
7
  6
CONTINUOUS
 10
11.4923017984
 20
7.5328101543
 11
11.4930588649
 21
7.5524776299
  0
LINE
  5
55F
100
AcDbEntity
  8
0
100
AcDbLine
 62
7
  6
CONTINUOUS
 10
11.10464371
 20
6.2016175635
 11
11.1027422492
 21
6.2012115288
  0
LINE
  5
560
100
AcDbEntity
  8
AXIS
100
AcDbLine
 62
7
  6
CENTER
 10
11.4438479613
 20
6.2740506564
 11
9.8982367837
 21
6.2740506564
  0
LINE
  5
561
100
AcDbEntity
  8
AXIS
100
AcDbLine
 62
7
  6
CENTER
 10
11.4438479613
 20
6.2740506564
 11
12.989459139
 21
6.2740506564
  0
LINE
  5
562
100
AcDbEntity
  8
0
100
AcDbLine
 62
7
  6
CONTINUOUS
 10
11.4733738255
 20
7.551446055
 11
11.4733738255
 21
7.6518452289
  0
LINE
  5
563
100
AcDbEntity
  8
0
100
AcDbLine
 62
7
  6
CONTINUOUS
 10
11.4930588649
 20
7.5524776299
 11
11.4930588649
 21
7.6117284469
  0
LINE
  5
564
100
AcDbEntity
  8
0
100
AcDbLine
 62
7
  6
CONTINUOUS
 10
11.4923011879
 20
7.5317786029
 11
11.4923017984
 21
7.5328101543
  0
LINE
  5
565
100
AcDbEntity
  8
AXIS
100
AcDbLine
 62
7
  6
CONTINUOUS
 10
11.7000733696
 20
6.815389239
 11
11.5475453408
 21
6.815389239
  0
LINE
  5
566
100
AcDbEntity
  8
0
100
AcDbLine
 62
7
  6
CONTINUOUS
 10
11.5475453408
 20
6.815389239
 11
11.3401505819
 21
6.815389239
  0
LINE
  5
567
100
AcDbEntity
  8
AXIS
100
AcDbLine
 62
7
  6
CONTINUOUS
 10
11.3401505819
 20
6.815389239
 11
11.1876225531
 21
6.815389239
  0
LINE
  5
568
100
AcDbEntity
  8
0
100
AcDbLine
 62
7
  6
CONTINUOUS
 10
11.4710994349
 20
7.6633715225
 11
11.4713328705
 21
7.662834552
  0
LINE
  5
569
100
AcDbEntity
  8
0
100
AcDbLine
 62
7
  6
CONTINUOUS
 10
11.4930588649
 20
7.5524776299
 11
11.4733738255
 21
7.5524776299
  0
LINE
  5
56A
100
AcDbEntity
  8
0
100
AcDbLine
 62
7
  6
CONTINUOUS
 10
11.3946370578
 20
7.5524776299
 11
11.4143220972
 21
7.5524776299
  0
LINE
  5
56B
100
AcDbEntity
  8
0
100
AcDbLine
 62
7
  6
CONTINUOUS
 10
11.4930588649
 20
7.6117284466
 11
11.4733738255
 21
7.6117284466
  0
LINE
  5
56C
100
AcDbEntity
  8
0
100
AcDbLine
 62
7
  6
CONTINUOUS
 10
11.3946370578
 20
7.6117284466
 11
11.4143220972
 21
7.6117284466
  0
LINE
  5
56D
100
AcDbEntity
  8
0
100
AcDbLine
 62
7
  6
CONTINUOUS
 10
11.4340062891
 20
7.6520034123
 11
11.4143220972
 21
7.6520034123
  0
LINE
  5
56E
100
AcDbEntity
  8
0
100
AcDbLine
 62
7
  6
CONTINUOUS
 10
11.4536896336
 20
7.6520034123
 11
11.4733738255
 21
7.6520034126
  0
CIRCLE
  5
56F
100
AcDbEntity
  8
0
100
AcDbCircle
 62
7
  6
CONTINUOUS
 10
10.5342808475
 20
1.243294839
 40
0.252091
  0
CIRCLE
  5
570
100
AcDbEntity
  8
0
100
AcDbCircle
 62
7
  6
CONTINUOUS
 10
10.5342808475
 20
1.243294839
 40
0.182698
  0
ARC
  5
571
100
AcDbEntity
  8
AXIS
100
AcDbCircle
 62
7
  6
CONTINUOUS
 10
4.2719309783
 20
80.193232492
 40
74.7834764839
100
AcDbArc
 50
270.9801551705
 51
271.0957638343
  0
ARC
  5
572
100
AcDbEntity
  8
AXIS
100
AcDbCircle
 62
7
  6
CONTINUOUS
 10
4.2720446483
 20
80.1908467797
 40
74.7771527444
100
AcDbArc
 50
270.9801509591
 51
271.0957832721
  0
ARC
  5
573
100
AcDbEntity
  8
AXIS
100
AcDbCircle
 62
7
  6
CONTINUOUS
 10
6.4230549215
 20
-57.9685472449
 40
63.1626257654
100
AcDbArc
 50
90.9790653922
 51
91.2041923921
  0
ARC
  5
574
100
AcDbEntity
  8
AXIS
100
AcDbCircle
 62
7
  6
CONTINUOUS
 10
6.4211870306
 20
-57.868013274
 40
63.0581381221
100
AcDbArc
 50
90.9789904186
 51
91.2048779744
  0
ARC
  5
575
100
AcDbEntity
  8
AXIS
100
AcDbCircle
 62
7
  6
CONTINUOUS
 10
4.486664015
 20
67.3991041929
 40
62.3378894355
100
AcDbArc
 50
270.9784659798
 51
271.2096872818
  0
ARC
  5
576
100
AcDbEntity
  8
AXIS
100
AcDbCircle
 62
7
  6
CONTINUOUS
 10
6.3717600854
 20
-55.456998667
 40
60.2962884479
100
AcDbArc
 50
90.976862904
 51
91.2239490843
  0
ARC
  5
577
100
AcDbEntity
  8
AXIS
100
AcDbCircle
 62
7
  6
CONTINUOUS
 10
6.3699697973
 20
-55.3610277631
 40
60.1963645347
100
AcDbArc
 50
90.9767803502
 51
91.2246749916
  0
ARC
  5
578
100
AcDbEntity
  8
AXIS
100
AcDbCircle
 62
7
  6
CONTINUOUS
 10
6.0451275306
 20
-44.3006875364
 40
49.3409509968
100
AcDbArc
 50
90.9915767847
 51
91.1084964191
  0
ARC
  5
579
100
AcDbEntity
  8
AXIS
100
AcDbCircle
 62
7
  6
CONTINUOUS
 10
4.801276618
 20
50.9187120997
 40
45.8584763839
100
AcDbArc
 50
270.9369801083
 51
271.2519847452
  0
ARC
  5
57A
100
AcDbEntity
  8
AXIS
100
AcDbCircle
 62
7
  6
CONTINUOUS
 10
4.9666182767
 20
47.8190616273
 40
42.9613659534
100
AcDbArc
 50
270.9830802488
 51
271.1247950773
  0
ARC
  5
57B
100
AcDbEntity
  8
0
100
AcDbCircle
 62
7
  6
CONTINUOUS
 10
5.4470764028
 20
39.3346769682
 40
33.7974503454
100
AcDbArc
 50
270.0006965237
 51
270.1764917852
  0
ARC
  5
57C
100
AcDbEntity
  8
0
100
AcDbCircle
 62
7
  6
CONTINUOUS
 10
5.4478970173
 20
39.3341491584
 40
33.7969225356
100
AcDbArc
 50
269.8235073433
 51
269.9993053502
  0
ARC
  5
57D
100
AcDbEntity
  8
0
100
AcDbCircle
 62
7
  6
CONTINUOUS
 10
5.4470331544
 20
39.3328368711
 40
33.7562461664
100
AcDbArc
 50
270.0007707811
 51
270.1828009645
  0
ARC
  5
57E
100
AcDbEntity
  8
0
100
AcDbCircle
 62
7
  6
CONTINUOUS
 10
5.4479400113
 20
39.3319840532
 40
33.7553933484
100
AcDbArc
 50
269.8171967361
 51
269.9992315184
  0
ARC
  5
57F
100
AcDbEntity
  8
AXIS
100
AcDbCircle
 62
7
  6
CONTINUOUS
 10
5.4474872659
 20
5.4110454322
 40
2.9527559055
100
AcDbArc
 50
76.4312611924
 51
103.5687388076
  0
ARC
  5
580
100
AcDbEntity
  8
AXIS
100
AcDbCircle
 62
7
  6
CONTINUOUS
 10
5.5720987134
 20
7.1826989755
 40
1.2533413084
100
AcDbArc
 50
0.0
 51
56.3955833284
  0
ARC
  5
581
100
AcDbEntity
  8
AXIS
100
AcDbCircle
 62
7
  6
CONTINUOUS
 10
5.3228758184
 20
7.1826989755
 40
1.2533413084
100
AcDbArc
 50
123.6044166716
 51
180.0
  0
ARC
  5
582
100
AcDbEntity
  8
7_ALL_FEATURES
100
AcDbCircle
 62
7
  6
CONTINUOUS
 10
6.0478717059
 20
7.8986751518
 40
0.3937007874
100
AcDbArc
 50
56.3955833284
 51
76.4312611924
  0
ARC
  5
583
100
AcDbEntity
  8
7_ALL_FEATURES
100
AcDbCircle
 62
7
  6
CONTINUOUS
 10
4.847102826
 20
7.8986751518
 40
0.3937007874
100
AcDbArc
 50
103.5687388076
 51
123.6044166716
  0
ARC
  5
584
100
AcDbEntity
  8
0
100
AcDbCircle
 62
7
  6
CONTINUOUS
 10
4.3952546191
 20
5.7817135625
 40
0.1968503937
100
AcDbArc
 50
181.0
 51
269.0
  0
ARC
  5
585
100
AcDbEntity
  8
0
100
AcDbCircle
 62
7
  6
CONTINUOUS
 10
6.4997199128
 20
5.7817135625
 40
0.1968503937
100
AcDbArc
 50
271.0
 51
359.0
  0
ARC
  5
586
100
AcDbEntity
  8
0
100
AcDbCircle
 62
7
  6
CONTINUOUS
 10
4.1089045888
 20
6.446478503
 40
0.0393700787
100
AcDbArc
 50
180.0
 51
270.0
  0
ARC
  5
587
100
AcDbEntity
  8
0
100
AcDbCircle
 62
7
  6
CONTINUOUS
 10
6.7860699431
 20
6.446478503
 40
0.0393700787
100
AcDbArc
 50
270.0
 51
360.0
  0
ARC
  5
588
100
AcDbEntity
  8
0
100
AcDbCircle
 62
7
  6
CONTINUOUS
 10
5.9592982896
 20
4.6433288967
 40
0.0393700787
100
AcDbArc
 50
270.0
 51
360.0
  0
ARC
  5
589
100
AcDbEntity
  8
0
100
AcDbCircle
 62
7
  6
CONTINUOUS
 10
4.9356762423
 20
4.6433288967
 40
0.0393700787
100
AcDbArc
 50
180.0
 51
270.0
  0
ARC
  5
58A
100
AcDbEntity
  8
0
100
AcDbCircle
 62
7
  6
CONTINUOUS
 10
6.038038447
 20
5.5373984271
 40
0.0393700787
100
AcDbArc
 50
91.0
 51
180.0
  0
ARC
  5
58B
100
AcDbEntity
  8
0
100
AcDbCircle
 62
7
  6
CONTINUOUS
 10
4.8569360848
 20
5.5373984271
 40
0.0393700787
100
AcDbArc
 50
0.0
 51
89.0
  0
ARC
  5
58C
100
AcDbEntity
  8
0
100
AcDbCircle
 62
7
  6
CONTINUOUS
 10
6.7268610345
 20
6.3874233849
 40
0.0196850394
100
AcDbArc
 50
90.0
 51
179.0
  0
ARC
  5
58D
100
AcDbEntity
  8
0
100
AcDbCircle
 62
7
  6
CONTINUOUS
 10
4.1681134973
 20
6.3874233849
 40
0.0196850394
100
AcDbArc
 50
1.0
 51
90.0
  0
CIRCLE
  5
58E
100
AcDbEntity
  8
AXIS_COSMETIC_THREADS
100
AcDbCircle
 62
7
  6
CONTINUOUS
 10
11.2469975676
 20
6.2740506564
 40
0.0255905512
  0
ARC
  5
58F
100
AcDbEntity
  8
0
100
AcDbCircle
 62
7
  6
CONTINUOUS
 10
11.1104910186
 20
7.6110723264
 40
0.0295275591
100
AcDbArc
 50
13.3861049023
 51
194.6138950977
  0
ARC
  5
590
100
AcDbEntity
  8
0
100
AcDbCircle
 62
7
  6
CONTINUOUS
 10
11.3180152084
 20
7.6462459474
 40
0.0196850394
100
AcDbArc
 50
95.2394712331
 51
179.9999774368
  0
CIRCLE
  5
591
100
AcDbEntity
  8
AXIS_COSMETIC_THREADS
100
AcDbCircle
 62
7
  6
CONTINUOUS
 10
11.4438479613
 20
6.0772002627
 40
0.0255905512
  0
ARC
  5
592
100
AcDbEntity
  8
0
100
AcDbCircle
 62
7
  6
CONTINUOUS
 10
11.4442324123
 20
6.2738929181
 40
0.4096049209
100
AcDbArc
 50
263.7036982173
 51
268.3870162705
  0
ARC
  5
593
100
AcDbEntity
  8
0
100
AcDbCircle
 62
7
  6
CONTINUOUS
 10
11.4434540227
 20
6.2739957831
 40
0.3642283147
100
AcDbArc
 50
84.5438077749
 51
89.9380305533
  0
ARC
  5
594
100
AcDbEntity
  8
0
100
AcDbCircle
 62
7
  6
CONTINUOUS
 10
11.4437193819
 20
6.2732655019
 40
0.3627451119
100
AcDbArc
 50
102.9857181317
 51
112.4823742422
  0
ARC
  5
595
100
AcDbEntity
  8
0
100
AcDbCircle
 62
7
  6
CONTINUOUS
 10
11.4434159417
 20
6.2732821359
 40
0.3626971955
100
AcDbArc
 50
79.3410514422
 51
89.9394120798
  0
ARC
  5
596
100
AcDbEntity
  8
0
100
AcDbCircle
 62
7
  6
CONTINUOUS
 10
11.4440374712
 20
6.2737330126
 40
0.362681183
100
AcDbArc
 50
179.9498189008
 51
236.7669881963
  0
ARC
  5
597
100
AcDbEntity
  8
0
100
AcDbCircle
 62
7
  6
CONTINUOUS
 10
11.4435676082
 20
6.2733077339
 40
0.3626727862
100
AcDbArc
 50
91.4686865931
 51
101.1604694601
  0
ARC
  5
598
100
AcDbEntity
  8
0
100
AcDbCircle
 62
7
  6
CONTINUOUS
 10
11.4430520908
 20
6.2736384497
 40
0.3625030085
100
AcDbArc
 50
45.6206855551
 51
56.2891810904
  0
ARC
  5
599
100
AcDbEntity
  8
0
100
AcDbCircle
 62
7
  6
CONTINUOUS
 10
11.4439978705
 20
6.2734984911
 40
0.3624580106
100
AcDbArc
 50
248.0797362552
 51
249.4277802358
  0
ARC
  5
59A
100
AcDbEntity
  8
0
100
AcDbCircle
 62
7
  6
CONTINUOUS
 10
11.443709313
 20
6.2737125347
 40
0.3623503853
100
AcDbArc
 50
138.1052123498
 51
179.9465354437
  0
ARC
  5
59B
100
AcDbEntity
  8
0
100
AcDbCircle
 62
7
  6
CONTINUOUS
 10
11.4437595803
 20
6.2732808931
 40
0.3621514677
100
AcDbArc
 50
236.7645611809
 51
237.3738726479
  0
ARC
  5
59C
100
AcDbEntity
  8
0
100
AcDbCircle
 62
7
  6
CONTINUOUS
 10
11.4435559163
 20
6.2738428665
 40
0.3621490446
100
AcDbArc
 50
113.1757376072
 51
138.1043552453
  0
ARC
  5
59D
100
AcDbEntity
  8
0
100
AcDbCircle
 62
7
  6
CONTINUOUS
 10
11.4440086362
 20
6.2730307448
 40
0.3620119184
100
AcDbArc
 50
258.7277787032
 51
259.3941590244
  0
ARC
  5
59E
100
AcDbEntity
  8
0
100
AcDbCircle
 62
7
  6
CONTINUOUS
 10
11.4434258069
 20
6.2732861111
 40
0.3604477318
100
AcDbArc
 50
80.1060469583
 51
90.5733311334
  0
ARC
  5
59F
100
AcDbEntity
  8
0
100
AcDbCircle
 62
7
  6
CONTINUOUS
 10
11.4439441271
 20
6.2737025354
 40
0.3603412697
100
AcDbArc
 50
179.9446472991
 51
212.4622010662
  0
ARC
  5
5A0
100
AcDbEntity
  8
0
100
AcDbCircle
 62
7
  6
CONTINUOUS
 10
11.4437096038
 20
6.2737126815
 40
0.360105982
100
AcDbArc
 50
138.0863624013
 51
179.9462255616
  0
ARC
  5
5A1
100
AcDbEntity
  8
0
100
AcDbCircle
 62
7
  6
CONTINUOUS
 10
11.4435161456
 20
6.2738984277
 40
0.3598371196
100
AcDbArc
 50
91.1633766283
 51
138.0877941026
  0
ARC
  5
5A2
100
AcDbEntity
  8
0
100
AcDbCircle
 62
7
  6
CONTINUOUS
 10
11.4447912431
 20
6.2735888396
 40
0.3589462485
100
AcDbArc
 50
169.7556099664
 51
176.041201243
  0
ARC
  5
5A3
100
AcDbEntity
  8
0
100
AcDbCircle
 62
7
  6
CONTINUOUS
 10
11.4443003282
 20
6.2734060935
 40
0.3585258633
100
AcDbArc
 50
148.8296307971
 51
154.0354174311
  0
ARC
  5
5A4
100
AcDbEntity
  8
0
100
AcDbCircle
 62
7
  6
CONTINUOUS
 10
11.4440509706
 20
6.2736091958
 40
0.3582173509
100
AcDbArc
 50
159.2577511616
 51
164.7452705178
  0
ARC
  5
5A5
100
AcDbEntity
  8
0
100
AcDbCircle
 62
7
  6
CONTINUOUS
 10
11.4439646034
 20
6.2734942979
 40
0.3581968245
100
AcDbArc
 50
138.5873741345
 51
143.5603445107
  0
ARC
  5
5A6
100
AcDbEntity
  8
0
100
AcDbCircle
 62
7
  6
CONTINUOUS
 10
11.443752513
 20
6.2736813552
 40
0.357914079
100
AcDbArc
 50
138.0641147629
 51
138.5870970719
  0
ARC
  5
5A7
100
AcDbEntity
  8
0
100
AcDbCircle
 62
7
  6
CONTINUOUS
 10
11.4436373187
 20
6.2737328226
 40
0.3577867277
100
AcDbArc
 50
154.0359738801
 51
159.2528049052
  0
ARC
  5
5A8
100
AcDbEntity
  8
0
100
AcDbCircle
 62
7
  6
CONTINUOUS
 10
11.4434168543
 20
6.2736735773
 40
0.357569289
100
AcDbArc
 50
176.039542628
 51
179.9395780253
  0
ARC
  5
5A9
100
AcDbEntity
  8
0
100
AcDbCircle
 62
7
  6
CONTINUOUS
 10
11.443350565
 20
6.2738051034
 40
0.3574900783
100
AcDbArc
 50
164.7460271009
 51
169.7486534483
  0
ARC
  5
5AA
100
AcDbEntity
  8
0
100
AcDbCircle
 62
7
  6
CONTINUOUS
 10
11.4433911538
 20
6.2739289308
 40
0.3574773327
100
AcDbArc
 50
143.5617933478
 51
148.8259094075
  0
ARC
  5
5AB
100
AcDbEntity
  8
0
100
AcDbCircle
 62
7
  6
CONTINUOUS
 10
11.4446088743
 20
6.2736185649
 40
0.3565166335
100
AcDbArc
 50
169.0629449954
 51
179.9305585683
  0
ARC
  5
5AC
100
AcDbEntity
  8
0
100
AcDbCircle
 62
7
  6
CONTINUOUS
 10
11.4443195777
 20
6.2733028408
 40
0.3563511151
100
AcDbArc
 50
144.1054336168
 51
147.2915562024
  0
ARC
  5
5AD
100
AcDbEntity
  8
0
100
AcDbCircle
 62
7
  6
CONTINUOUS
 10
11.4442740476
 20
6.2735425531
 40
0.356203809
100
AcDbArc
 50
158.2313938631
 51
167.1782632427
  0
ARC
  5
5AE
100
AcDbEntity
  8
0
100
AcDbCircle
 62
7
  6
CONTINUOUS
 10
11.4439861262
 20
6.2733950876
 40
0.3560336031
100
AcDbArc
 50
136.8433286906
 51
138.1850111059
  0
ARC
  5
5AF
100
AcDbEntity
  8
0
100
AcDbCircle
 62
7
  6
CONTINUOUS
 10
11.4440929102
 20
6.2737617039
 40
0.356005944
100
AcDbArc
 50
179.9534951232
 51
259.1582826414
  0
ARC
  5
5B0
100
AcDbEntity
  8
0
100
AcDbCircle
 62
7
  6
CONTINUOUS
 10
11.4439885439
 20
6.2735995686
 40
0.355917524
100
AcDbArc
 50
155.2684946527
 51
158.2228728576
  0
ARC
  5
5B1
100
AcDbEntity
  8
0
100
AcDbCircle
 62
7
  6
CONTINUOUS
 10
11.4441970922
 20
6.2735991762
 40
0.3558653524
100
AcDbArc
 50
270.3735227547
 51
271.6902030259
  0
ARC
  5
5B2
100
AcDbEntity
  8
0
100
AcDbCircle
 62
7
  6
CONTINUOUS
 10
11.4439115268
 20
6.2735983862
 40
0.3558480673
100
AcDbArc
 50
147.2960943091
 51
155.2631336978
  0
ARC
  5
5B3
100
AcDbEntity
  8
0
100
AcDbCircle
 62
7
  6
CONTINUOUS
 10
11.4443103992
 20
6.2735156818
 40
0.3557720511
100
AcDbArc
 50
281.5707295745
 51
282.3892766623
  0
ARC
  5
5B4
100
AcDbEntity
  8
0
100
AcDbCircle
 62
7
  6
CONTINUOUS
 10
11.4440903029
 20
6.273474627
 40
0.3557290014
100
AcDbArc
 50
259.1499978335
 51
260.2419029819
  0
ARC
  5
5B5
100
AcDbEntity
  8
0
100
AcDbCircle
 62
7
  6
CONTINUOUS
 10
11.4435437034
 20
6.2737425157
 40
0.3554473019
100
AcDbArc
 50
167.1835664713
 51
169.0499856977
  0
ARC
  5
5B6
100
AcDbEntity
  8
0
100
AcDbCircle
 62
7
  6
CONTINUOUS
 10
11.4433379007
 20
6.2740190497
 40
0.3551359513
100
AcDbArc
 50
140.9711816389
 51
144.1061831809
  0
ARC
  5
5B7
100
AcDbEntity
  8
0
100
AcDbCircle
 62
7
  6
CONTINUOUS
 10
11.444028697
 20
6.2734305027
 40
0.3537973859
100
AcDbArc
 50
138.0569916075
 51
140.9833550018
  0
ARC
  5
5B8
100
AcDbEntity
  8
0
100
AcDbCircle
 62
7
  6
CONTINUOUS
 10
11.443742085
 20
6.2737033865
 40
0.3534050144
100
AcDbArc
 50
147.0817937674
 51
179.9436988687
  0
ARC
  5
5B9
100
AcDbEntity
  8
0
100
AcDbCircle
 62
7
  6
CONTINUOUS
 10
11.4435526356
 20
6.2738163786
 40
0.3531845771
100
AcDbArc
 50
140.9833726366
 51
147.0804791362
  0
ARC
  5
5BA
100
AcDbEntity
  8
0
100
AcDbCircle
 62
7
  6
CONTINUOUS
 10
11.4434615469
 20
6.274039428
 40
0.3529595525
100
AcDbArc
 50
45.2131287095
 51
138.0689787968
  0
ARC
  5
5BB
100
AcDbEntity
  8
0
100
AcDbCircle
 62
7
  6
CONTINUOUS
 10
11.4439854516
 20
6.2734737445
 40
0.3514917985
100
AcDbArc
 50
138.0211742397
 51
140.9767767924
  0
ARC
  5
5BC
100
AcDbEntity
  8
0
100
AcDbCircle
 62
7
  6
CONTINUOUS
 10
11.4440531289
 20
6.2737378738
 40
0.3514731349
100
AcDbArc
 50
179.9490111256
 51
246.3752972468
  0
ARC
  5
5BD
100
AcDbEntity
  8
0
100
AcDbCircle
 62
7
  6
CONTINUOUS
 10
11.4437147663
 20
6.2737096809
 40
0.351132952
100
AcDbArc
 50
140.978875838
 51
179.9443616512
  0
ARC
  5
5BE
100
AcDbEntity
  8
0
100
AcDbCircle
 62
7
  6
CONTINUOUS
 10
11.4448496046
 20
6.2737880101
 40
0.3500229846
100
AcDbArc
 50
179.9570070361
 51
191.0885461752
  0
ARC
  5
5BF
100
AcDbEntity
  8
0
100
AcDbCircle
 62
7
  6
CONTINUOUS
 10
11.4437154149
 20
6.2737094071
 40
0.3488888633
100
AcDbArc
 50
140.9795199673
 51
179.9439588189
  0
ARC
  5
5C0
100
AcDbEntity
  8
0
100
AcDbCircle
 62
7
  6
CONTINUOUS
 10
11.4434407587
 20
6.2735907887
 40
0.3486026228
100
AcDbArc
 50
191.9912795169
 51
193.9358106434
  0
ARC
  5
5C1
100
AcDbEntity
  8
0
100
AcDbCircle
 62
7
  6
CONTINUOUS
 10
11.4428379365
 20
6.2734607741
 40
0.3479859424
100
AcDbArc
 50
191.0993749949
 51
191.990961171
  0
ARC
  5
5C2
100
AcDbEntity
  8
0
100
AcDbCircle
 62
7
  6
CONTINUOUS
 10
11.4636923778
 20
6.2708870967
 40
0.4076165181
100
AcDbArc
 50
263.8133205402
 51
265.6398046876
  0
ARC
  5
5C3
100
AcDbEntity
  8
0
100
AcDbCircle
 62
7
  6
CONTINUOUS
 10
11.4329217408
 20
6.2924194068
 40
1.3595598703
100
AcDbArc
 50
91.6962779158
 51
95.0564510946
  0
ARC
  5
5C4
100
AcDbEntity
  8
0
100
AcDbCircle
 62
7
  6
CONTINUOUS
 10
11.4438479613
 20
6.2740506564
 40
1.3976377953
100
AcDbArc
 50
90.8978636173
 51
95.239435558
  0
ARC
  5
5C5
100
AcDbEntity
  8
0
100
AcDbCircle
 62
7
  6
CONTINUOUS
 10
11.4438479613
 20
6.2740506564
 40
1.3779527559
100
AcDbArc
 50
91.8622723994
 51
88.1377276006
  0
ARC
  5
5C6
100
AcDbEntity
  8
0
100
AcDbCircle
 62
7
  6
CONTINUOUS
 10
11.4438479613
 20
6.2740506564
 40
1.3385826772
100
AcDbArc
 50
92.1068647056
 51
87.8931352935
  0
ARC
  5
5C7
100
AcDbEntity
  8
0
100
AcDbCircle
 62
7
  6
CONTINUOUS
 10
11.4438479613
 20
6.2740506564
 40
1.2793737686
100
AcDbArc
 50
92.20441664
 51
87.79558336
  0
ARC
  5
5C8
100
AcDbEntity
  8
0
100
AcDbCircle
 62
7
  6
CONTINUOUS
 10
11.4438479613
 20
6.2740506564
 40
1.2776557504
100
AcDbArc
 50
89.5586891824
 51
90.4413108176
  0
ARC
  5
5C9
100
AcDbEntity
  8
0
100
AcDbCircle
 62
7
  6
CONTINUOUS
 10
11.4438479613
 20
6.2740506564
 40
1.2596917274
100
AcDbArc
 50
92.20441664
 51
87.79558336
  0
ARC
  5
5CA
100
AcDbEntity
  8
DRIVEN_DIMS
100
AcDbCircle
 62
7
  6
CONTINUOUS
 10
11.4438479613
 20
6.2740506564
 40
1.2596917274
100
AcDbArc
 50
224.5658702324
 51
233.2010127112
  0
ARC
  5
5CB
100
AcDbEntity
  8
0
100
AcDbCircle
 62
7
  6
CONTINUOUS
 10
11.4438479613
 20
6.2740506564
 40
1.2579737092
100
AcDbArc
 50
89.5586891824
 51
90.4413108176
  0
CIRCLE
  5
5CC
100
AcDbEntity
  8
0
100
AcDbCircle
 62
7
  6
CONTINUOUS
 10
11.4438479613
 20
6.2740506564
 40
1.2490530593
  0
CIRCLE
  5
5CD
100
AcDbEntity
  8
0
100
AcDbCircle
 62
7
  6
CONTINUOUS
 10
11.4438479613
 20
6.2740506564
 40
1.0556681599
  0
ARC
  5
5CE
100
AcDbEntity
  8
AXIS
100
AcDbCircle
 62
7
  6
CONTINUOUS
 10
11.44384544
 20
6.2740506564
 40
0.5989158647
100
AcDbArc
 50
295.3292641611
 51
64.6707358389
  0
ARC
  5
5CF
100
AcDbEntity
  8
AXIS
100
AcDbCircle
 62
7
  6
CONTINUOUS
 10
11.4438504827
 20
6.2740506564
 40
0.5989158647
100
AcDbArc
 50
115.3292641611
 51
244.6707358389
  0
ARC
  5
5D0
100
AcDbEntity
  8
0
100
AcDbCircle
 62
7
  6
CONTINUOUS
 10
11.4438479613
 20
6.2740506564
 40
0.5898640785
100
AcDbArc
 50
66.981367744
 51
79.5246861568
  0
ARC
  5
5D1
100
AcDbEntity
  8
0
100
AcDbCircle
 62
7
  6
CONTINUOUS
 10
11.4438479613
 20
6.2740506564
 40
0.5898640785
100
AcDbArc
 50
280.4753138432
 51
293.0186529221
  0
ARC
  5
5D2
100
AcDbEntity
  8
0
100
AcDbCircle
 62
7
  6
CONTINUOUS
 10
11.4438479613
 20
6.2740506564
 40
0.5898640785
100
AcDbArc
 50
246.9813677424
 51
259.5246861568
  0
ARC
  5
5D3
100
AcDbEntity
  8
0
100
AcDbCircle
 62
7
  6
CONTINUOUS
 10
11.4438479613
 20
6.2740506564
 40
0.5898640785
100
AcDbArc
 50
100.4753138432
 51
113.0186529216
  0
ARC
  5
5D4
100
AcDbEntity
  8
0
100
AcDbCircle
 62
7
  6
CONTINUOUS
 10
11.4438479613
 20
6.2740506564
 40
0.5511811024
100
AcDbArc
 50
100.8440625637
 51
259.1559374363
  0
ARC
  5
5D5
100
AcDbEntity
  8
0
100
AcDbCircle
 62
7
  6
CONTINUOUS
 10
11.4438479613
 20
6.2740506564
 40
0.5511811024
100
AcDbArc
 50
280.8440625637
 51
79.1559374363
  0
CIRCLE
  5
5D6
100
AcDbEntity
  8
0
100
AcDbCircle
 62
7
  6
CONTINUOUS
 10
11.4438479613
 20
6.2740506564
 40
0.5118110236
  0
CIRCLE
  5
5D7
100
AcDbEntity
  8
0
100
AcDbCircle
 62
7
  6
CONTINUOUS
 10
11.4438479613
 20
6.2740506564
 40
0.4783464567
  0
CIRCLE
  5
5D8
100
AcDbEntity
  8
0
100
AcDbCircle
 62
7
  6
CONTINUOUS
 10
11.4438479613
 20
6.2740506564
 40
0.438976378
  0
ARC
  5
5D9
100
AcDbEntity
  8
0
100
AcDbCircle
 62
7
  6
CONTINUOUS
 10
11.4441826325
 20
6.2741979585
 40
0.409909541
100
AcDbArc
 50
268.3951717526
 51
314.0311329406
  0
ARC
  5
5DA
100
AcDbEntity
  8
0
100
AcDbCircle
 62
7
  6
CONTINUOUS
 10
11.4438479613
 20
6.2740506564
 40
0.3641732283
100
AcDbArc
 50
90.0
 51
138.1781196997
  0
ARC
  5
5DB
100
AcDbEntity
  8
0
100
AcDbCircle
 62
7
  6
CONTINUOUS
 10
11.4434912474
 20
6.2743699569
 40
0.3639695373
100
AcDbArc
 50
1.8222642998
 51
4.9607199083
  0
ARC
  5
5DC
100
AcDbEntity
  8
0
100
AcDbCircle
 62
7
  6
CONTINUOUS
 10
11.4435883313
 20
6.2743263653
 40
0.363881586
100
AcDbArc
 50
4.968879987
 51
84.5599102064
  0
ARC
  5
5DD
100
AcDbEntity
  8
0
100
AcDbCircle
 62
7
  6
CONTINUOUS
 10
11.4445441566
 20
6.2746188118
 40
0.363701285
100
AcDbArc
 50
237.3834145649
 51
248.0657851811
  0
ARC
  5
5DE
100
AcDbEntity
  8
0
100
AcDbCircle
 62
7
  6
CONTINUOUS
 10
11.4443958281
 20
6.2746567316
 40
0.3636822292
100
AcDbArc
 50
249.4332015815
 51
258.718028327
  0
ARC
  5
5DF
100
AcDbEntity
  8
0
100
AcDbCircle
 62
7
  6
CONTINUOUS
 10
11.4441878206
 20
6.2743973848
 40
0.3632724442
100
AcDbArc
 50
1.1963311864
 51
1.8214341092
  0
ARC
  5
5E0
100
AcDbEntity
  8
0
100
AcDbCircle
 62
7
  6
CONTINUOUS
 10
11.4435157168
 20
6.2741887449
 40
0.3617878569
100
AcDbArc
 50
56.802499295
 51
78.7771265636
  0
ARC
  5
5E1
100
AcDbEntity
  8
0
100
AcDbCircle
 62
7
  6
CONTINUOUS
 10
11.4434447622
 20
6.2743229953
 40
0.3616529546
100
AcDbArc
 50
101.1725081491
 51
102.980970189
  0
ARC
  5
5E2
100
AcDbEntity
  8
0
100
AcDbCircle
 62
7
  6
CONTINUOUS
 10
11.4435034113
 20
6.2744446676
 40
0.3615345823
100
AcDbArc
 50
89.9530793634
 51
91.463134182
  0
ARC
  5
5E3
100
AcDbEntity
  8
0
100
AcDbCircle
 62
7
  6
CONTINUOUS
 10
11.4437027964
 20
6.2743857663
 40
0.3615133228
100
AcDbArc
 50
1.7979835837
 51
45.114906028
  0
ARC
  5
5E4
100
AcDbEntity
  8
0
100
AcDbCircle
 62
7
  6
CONTINUOUS
 10
11.4432581036
 20
6.2745677527
 40
0.3613654505
100
AcDbArc
 50
112.4937520164
 51
113.1775611319
  0
ARC
  5
5E5
100
AcDbEntity
  8
0
100
AcDbCircle
 62
7
  6
CONTINUOUS
 10
11.4439514664
 20
6.2743981605
 40
0.3612639672
100
AcDbArc
 50
325.8617991412
 51
359.9448864959
  0
ARC
  5
5E6
100
AcDbEntity
  8
0
100
AcDbCircle
 62
7
  6
CONTINUOUS
 10
11.4436360347
 20
6.2747698401
 40
0.3611944566
100
AcDbArc
 50
78.7779071548
 51
79.3317123064
  0
ARC
  5
5E7
100
AcDbEntity
  8
0
100
AcDbCircle
 62
7
  6
CONTINUOUS
 10
11.4439623135
 20
6.2748472642
 40
0.3609922923
100
AcDbArc
 50
56.30287432
 51
56.8045864104
  0
ARC
  5
5E8
100
AcDbEntity
  8
0
100
AcDbCircle
 62
7
  6
CONTINUOUS
 10
11.4440724432
 20
6.2747669935
 40
0.3609827749
100
AcDbArc
 50
45.1137753372
 51
45.6111562299
  0
ARC
  5
5E9
100
AcDbEntity
  8
0
100
AcDbCircle
 62
7
  6
CONTINUOUS
 10
11.4451471984
 20
6.2744013882
 40
0.3600682389
100
AcDbArc
 50
359.9441898692
 51
1.802710355
  0
ARC
  5
5EA
100
AcDbEntity
  8
0
100
AcDbCircle
 62
7
  6
CONTINUOUS
 10
11.4436001147
 20
6.2743357514
 40
0.3593776171
100
AcDbArc
 50
1.7821324482
 51
79.3696761052
  0
ARC
  5
5EB
100
AcDbEntity
  8
0
100
AcDbCircle
 62
7
  6
CONTINUOUS
 10
11.4434934921
 20
6.2747218415
 40
0.35901276
100
AcDbArc
 50
90.5864254207
 51
91.162430116
  0
ARC
  5
5EC
100
AcDbEntity
  8
0
100
AcDbCircle
 62
7
  6
CONTINUOUS
 10
11.4436260811
 20
6.2747556591
 40
0.3589656318
100
AcDbArc
 50
79.3613857355
 51
80.097234749
  0
ARC
  5
5ED
100
AcDbEntity
  8
0
100
AcDbCircle
 62
7
  6
CONTINUOUS
 10
11.4440849465
 20
6.2743457775
 40
0.3588801958
100
AcDbArc
 50
281.1132020916
 51
359.9528841767
  0
ARC
  5
5EE
100
AcDbEntity
  8
0
100
AcDbCircle
 62
7
  6
CONTINUOUS
 10
11.4451423319
 20
6.2744015688
 40
0.3578283681
100
AcDbArc
 50
359.9438115921
 51
1.7792784351
  0
ARC
  5
5EF
100
AcDbEntity
  8
0
100
AcDbCircle
 62
7
  6
CONTINUOUS
 10
11.4441224277
 20
6.2748061209
 40
0.3570739763
100
AcDbArc
 50
271.6964661887
 51
281.5587462427
  0
ARC
  5
5F0
100
AcDbEntity
  8
0
100
AcDbCircle
 62
7
  6
CONTINUOUS
 10
11.4436621173
 20
6.2743840135
 40
0.3570638276
100
AcDbArc
 50
359.9465082764
 51
17.9355877349
  0
ARC
  5
5F1
100
AcDbEntity
  8
0
100
AcDbCircle
 62
7
  6
CONTINUOUS
 10
11.4442680258
 20
6.274774187
 40
0.3570398844
100
AcDbArc
 50
260.249141859
 51
270.3609107102
  0
ARC
  5
5F2
100
AcDbEntity
  8
0
100
AcDbCircle
 62
7
  6
CONTINUOUS
 10
11.444081454
 20
6.2743475328
 40
0.3566390565
100
AcDbArc
 50
282.3965283923
 51
359.9523060826
  0
ARC
  5
5F3
100
AcDbEntity
  8
0
100
AcDbCircle
 62
7
  6
CONTINUOUS
 10
11.443042857
 20
6.2742302295
 40
0.3547737711
100
AcDbArc
 50
138.1839660612
 51
140.9676703746
  0
ARC
  5
5F4
100
AcDbEntity
  8
0
100
AcDbCircle
 62
7
  6
CONTINUOUS
 10
11.4437906826
 20
6.2744053041
 40
0.3546905454
100
AcDbArc
 50
359.9427111253
 51
22.2082921035
  0
ARC
  5
5F5
100
AcDbEntity
  8
0
100
AcDbCircle
 62
7
  6
CONTINUOUS
 10
11.443707064
 20
6.2743875299
 40
0.3525300253
100
AcDbArc
 50
359.945248724
 51
45.2015930994
  0
ARC
  5
5F6
100
AcDbEntity
  8
0
100
AcDbCircle
 62
7
  6
CONTINUOUS
 10
11.4439517493
 20
6.274398087
 40
0.3522847341
100
AcDbArc
 50
325.7794470474
 51
359.9434936807
  0
ARC
  5
5F7
100
AcDbEntity
  8
0
100
AcDbCircle
 62
7
  6
CONTINUOUS
 10
11.4442110502
 20
6.2741610878
 40
0.3519319486
100
AcDbArc
 50
246.379353496
 51
325.7876105604
  0
ARC
  5
5F8
100
AcDbEntity
  8
0
100
AcDbCircle
 62
7
  6
CONTINUOUS
 10
11.4439513836
 20
6.2743982564
 40
0.3500403625
100
AcDbArc
 50
326.2601237059
 51
359.9431036466
  0
ARC
  5
5F9
100
AcDbEntity
  8
0
100
AcDbCircle
 62
7
  6
CONTINUOUS
 10
11.4430719598
 20
6.2744832118
 40
0.3486750297
100
AcDbArc
 50
349.2105381637
 51
359.9949973574
  0
ARC
  5
5FA
100
AcDbEntity
  8
0
100
AcDbCircle
 62
7
  6
CONTINUOUS
 10
11.4448418908
 20
6.2744153984
 40
0.3469050994
100
AcDbArc
 50
0.0061720828
 51
0.4218427263
  0
CIRCLE
  5
5FB
100
AcDbEntity
  8
0
100
AcDbCircle
 62
7
  6
CONTINUOUS
 10
11.4438479613
 20
6.2740506564
 40
0.3468516644
  0
CIRCLE
  5
5FC
100
AcDbEntity
  8
0
100
AcDbCircle
 62
7
  6
CONTINUOUS
 10
11.4438479613
 20
6.2740506564
 40
0.3241213388
  0
CIRCLE
  5
5FD
100
AcDbEntity
  8
0
100
AcDbCircle
 62
7
  6
CONTINUOUS
 10
11.4438479613
 20
6.2740506564
 40
0.3090551181
  0
CIRCLE
  5
5FE
100
AcDbEntity
  8
0
100
AcDbCircle
 62
7
  6
CONTINUOUS
 10
11.4438479613
 20
6.2740506564
 40
0.2952755906
  0
CIRCLE
  5
5FF
100
AcDbEntity
  8
0
100
AcDbCircle
 62
7
  6
CONTINUOUS
 10
11.4438479613
 20
6.2740506564
 40
0.292807021
  0
CIRCLE
  5
600
100
AcDbEntity
  8
0
100
AcDbCircle
 62
7
  6
CONTINUOUS
 10
11.4438479613
 20
6.2740506564
 40
0.277559055
  0
CIRCLE
  5
601
100
AcDbEntity
  8
0
100
AcDbCircle
 62
7
  6
CONTINUOUS
 10
11.4438479613
 20
6.2740506564
 40
0.1358267717
  0
CIRCLE
  5
602
100
AcDbEntity
  8
0
100
AcDbCircle
 62
7
  6
CONTINUOUS
 10
11.4438479613
 20
6.2740506564
 40
0.1200787402
  0
CIRCLE
  5
603
100
AcDbEntity
  8
AXIS
100
AcDbCircle
 62
7
  6
CONTINUOUS
 10
11.4438479613
 20
6.2740506564
 40
0.1165354331
  0
CIRCLE
  5
604
100
AcDbEntity
  8
AXIS_COSMETIC_THREADS
100
AcDbCircle
 62
7
  6
CONTINUOUS
 10
11.4438479613
 20
6.4709010501
 40
0.0255905512
  0
CIRCLE
  5
605
100
AcDbEntity
  8
AXIS_COSMETIC_THREADS
100
AcDbCircle
 62
7
  6
CONTINUOUS
 10
11.640698355
 20
6.2740506564
 40
0.0255905512
  0
ARC
  5
606
100
AcDbEntity
  8
0
100
AcDbCircle
 62
7
  6
CONTINUOUS
 10
11.4438479613
 20
7.6520034123
 40
0.0295275591
100
AcDbArc
 50
359.6930524511
 51
180.5320139253
  0
ARC
  5
607
100
AcDbEntity
  8
0
100
AcDbCircle
 62
7
  6
CONTINUOUS
 10
11.4932649571
 20
7.5525230518
 40
0.0198927221
100
AcDbArc
 50
183.0197656893
 51
201.9411408092
  0
ARC
  5
608
100
AcDbEntity
  8
0
100
AcDbCircle
 62
7
  6
CONTINUOUS
 10
11.3944309667
 20
7.5525230516
 40
0.019892721
100
AcDbArc
 50
338.0588783294
 51
356.9802347779
  0
ARC
  5
609
100
AcDbEntity
  8
0
100
AcDbCircle
 62
7
  6
CONTINUOUS
 10
11.489267084
 20
7.6709502627
 40
0.0196850395
100
AcDbArc
 50
204.3480221299
 51
268.1377276006
  0
ARC
  5
60A
100
AcDbEntity
  8
0
100
AcDbCircle
 62
7
  6
CONTINUOUS
 10
11.3984288387
 20
7.6709502624
 40
0.0196850393
100
AcDbArc
 50
271.8570741148
 51
335.5394640776
  0
ARC
  5
60B
100
AcDbEntity
  8
0
100
AcDbCircle
 62
7
  6
CONTINUOUS
 10
11.3946391234
 20
7.5524795014
 40
0.0196834043
100
AcDbArc
 50
293.8290653335
 51
337.9500622259
  0
ARC
  5
60C
100
AcDbEntity
  8
0
100
AcDbCircle
 62
7
  6
CONTINUOUS
 10
11.4930567993
 20
7.5524795014
 40
0.0196834043
100
AcDbArc
 50
202.0499575909
 51
246.170963565
  0
ARC
  5
60D
100
AcDbEntity
  8
0
100
AcDbCircle
 62
7
  6
CONTINUOUS
 10
11.3946387967
 20
7.5514475762
 40
0.0196833975
100
AcDbArc
 50
272.2009667178
 51
359.9955718247
  0
ARC
  5
60E
100
AcDbEntity
  8
0
100
AcDbCircle
 62
7
  6
CONTINUOUS
 10
11.4930571257
 20
7.5514475759
 40
0.0196833972
100
AcDbArc
 50
180.0044271076
 51
267.7990340445
  0
ARC
  5
60F
100
AcDbEntity
  8
0
100
AcDbCircle
 62
7
  6
CONTINUOUS
 10
11.4438479613
 20
7.6520034123
 40
0.0098425197
100
AcDbArc
 50
0.0
 51
180.0
  0
SPLINE
  5
610
100
AcDbEntity
  8
AXIS
100
AcDbSpline
 62
7
  6
CONTINUOUS
 70
0
 71
3
 72
23
 73
19
 74
0
 42
0.0000001
 43
0.0000001
 44
0.0000000001
 40
0.0
 40
0.0
 40
0.0
 40
0.0
 40
0.2001760564
 40
0.3880528958
 40
0.5582641048
 40
0.6352113771
 40
0.70597721
 40
0.7700525569
 40
0.8269886826
 40
0.8763715671
 40
0.9178585558
 40
0.9511497355
 40
0.9646497895
 40
0.9760225693
 40
0.9852469795
 40
0.9923112947
 40
0.9972185589
 40
1.0
 40
1.0
 40
1.0
 40
1.0
 10
5.5511846454
 20
4.656918802
 30
0.0
 10
5.5810435888
 20
4.6574372237
 30
0.0
 10
5.638926621
 20
4.6584576374
 30
0.0
 10
5.7221971318
 20
4.6600190593
 30
0.0
 10
5.7870845649
 20
4.6613562158
 30
0.0
 10
5.8345019061
 20
4.6624453076
 30
0.0
 10
5.8660879477
 20
4.6632334489
 30
0.0
 10
5.8946876407
 20
4.664020349
 30
0.0
 10
5.920095991
 20
4.6648053236
 30
0.0
 10
5.9421328741
 20
4.6655871685
 30
0.0
 10
5.9606395815
 20
4.666365231
 30
0.0
 10
5.9737927185
 20
4.6670441064
 30
0.0
 10
5.9824513087
 20
4.6676074359
 30
0.0
 10
5.9875244908
 20
4.6679963911
 30
0.0
 10
5.9916301169
 20
4.6683861984
 30
0.0
 10
5.9947779395
 20
4.6687588291
 30
0.0
 10
5.9969319162
 20
4.6691428209
 30
0.0
 10
5.9980682904
 20
4.6694188482
 30
0.0
 10
5.9984277333
 20
4.6696261782
 30
0.0
  0
SPLINE
  5
611
100
AcDbEntity
  8
AXIS
100
AcDbSpline
 62
7
  6
CONTINUOUS
 70
0
 71
3
 72
23
 73
19
 74
0
 42
0.0000001
 43
0.0000001
 44
0.0000000001
 40
0.0
 40
0.0
 40
0.0
 40
0.0
 40
0.20017403
 40
0.3880402635
 40
0.5582580611
 40
0.63520737
 40
0.7059740168
 40
0.7700518873
 40
0.8269869323
 40
0.8763716895
 40
0.9178574433
 40
0.9511511154
 40
0.9646525863
 40
0.9760223522
 40
0.9852460267
 40
0.9923136044
 40
0.9972218744
 40
1.0
 40
1.0
 40
1.0
 40
1.0
 10
5.3437898865
 20
5.4761956844
 30
0.0
 10
5.3139312661
 20
5.4756772683
 30
0.0
 10
5.2560501582
 20
5.4746568913
 30
0.0
 10
5.1727806067
 20
5.4730954862
 30
0.0
 10
5.1078935141
 20
5.4717583381
 30
0.0
 10
5.0604747973
 20
5.4706692457
 30
0.0
 10
5.0288879769
 20
5.4698810528
 30
0.0
 10
5.0002879655
 20
5.4690942013
 30
0.0
 10
4.9748791405
 20
5.4683091514
 30
0.0
 10
4.9528423359
 20
5.4675273855
 30
0.0
 10
4.9343351772
 20
5.4667492465
 30
0.0
 10
4.9211816509
 20
5.4660703461
 30
0.0
 10
4.9125229265
 20
5.465507146
 30
0.0
 10
4.9074501001
 20
5.4651180681
 30
0.0
 10
4.9033445756
 20
5.4647281654
 30
0.0
 10
4.9001961705
 20
5.4643556601
 30
0.0
 10
4.8980420998
 20
5.4639718965
 30
0.0
 10
4.8969059804
 20
5.4636957523
 30
0.0
 10
4.8965471759
 20
5.4634883064
 30
0.0
  0
SPLINE
  5
612
100
AcDbEntity
  8
AXIS
100
AcDbSpline
 62
7
  6
CONTINUOUS
 70
0
 71
3
 72
25
 73
21
 74
0
 42
0.0000001
 43
0.0000001
 44
0.0000000001
 40
0.0
 40
0.0
 40
0.0
 40
0.0
 40
0.2042644824
 40
0.395568469
 40
0.484558234
 40
0.5682235782
 40
0.6459265399
 40
0.7170971278
 40
0.7811994865
 40
0.8377660136
 40
0.8863665444
 40
0.926651639
 40
0.9435761821
 40
0.958315398
 40
0.9708452058
 40
0.9811424122
 40
0.9891885227
 40
0.9949810633
 40
0.9985374099
 40
1.0
 40
1.0
 40
1.0
 40
1.0
 10
5.3437898865
 20
5.4801326923
 30
0.0
 10
5.3132969558
 20
5.4796032631
 30
0.0
 10
5.2542461377
 20
5.4785617682
 30
0.0
 10
5.1819123286
 20
5.4772029855
 30
0.0
 10
5.1275829277
 20
5.4760998405
 30
0.0
 10
5.0902121309
 20
5.4752931578
 30
0.0
 10
5.0555024599
 20
5.4744871164
 30
0.0
 10
5.0237144294
 20
5.4736822971
 30
0.0
 10
4.9950832648
 20
5.4728787418
 30
0.0
 10
4.9698231745
 20
5.4720778267
 30
0.0
 10
4.948121384
 20
5.4712796341
 30
0.0
 10
4.9323378864
 20
5.4705857925
 30
0.0
 10
4.9216116089
 20
5.4700161203
 30
0.0
 10
4.9150232453
 20
5.469614538
 30
0.0
 10
4.909435025
 20
5.4692165999
 30
0.0
 10
4.9048243326
 20
5.4688165484
 30
0.0
 10
4.9012881481
 20
5.468435019
 30
0.0
 10
4.8986113156
 20
5.4680326308
 30
0.0
 10
4.8972297204
 20
5.4677176136
 30
0.0
 10
4.8963061636
 20
5.4673661651
 30
0.0
 10
4.8963061636
 20
5.4671477944
 30
0.0
  0
SPLINE
  5
613
100
AcDbEntity
  8
AXIS
100
AcDbSpline
 62
7
  6
CONTINUOUS
 70
0
 71
3
 72
23
 73
19
 74
0
 42
0.0000001
 43
0.0000001
 44
0.0000000001
 40
0.0
 40
0.0
 40
0.0
 40
0.0
 40
0.20017403
 40
0.3880402635
 40
0.5582580611
 40
0.63520737
 40
0.7059740168
 40
0.7700518873
 40
0.8269869323
 40
0.8763716895
 40
0.9178574433
 40
0.9511511154
 40
0.9646525863
 40
0.9760223522
 40
0.9852460267
 40
0.9923136044
 40
0.9972218744
 40
1.0
 40
1.0
 40
1.0
 40
1.0
 10
5.3437898865
 20
5.4171405663
 30
0.0
 10
5.3139312661
 20
5.4166221502
 30
0.0
 10
5.2560501582
 20
5.4156017732
 30
0.0
 10
5.1727806067
 20
5.4140403681
 30
0.0
 10
5.1078935141
 20
5.41270322
 30
0.0
 10
5.0604747973
 20
5.4116141276
 30
0.0
 10
5.0288879769
 20
5.4108259347
 30
0.0
 10
5.0002879655
 20
5.4100390832
 30
0.0
 10
4.9748791405
 20
5.4092540333
 30
0.0
 10
4.9528423359
 20
5.4084722674
 30
0.0
 10
4.9343351772
 20
5.4076941284
 30
0.0
 10
4.9211816509
 20
5.407015228
 30
0.0
 10
4.9125229265
 20
5.4064520279
 30
0.0
 10
4.9074501001
 20
5.40606295
 30
0.0
 10
4.9033445756
 20
5.4056730473
 30
0.0
 10
4.9001961705
 20
5.405300542
 30
0.0
 10
4.8980420998
 20
5.4049167784
 30
0.0
 10
4.8969059804
 20
5.4046406342
 30
0.0
 10
4.8965471759
 20
5.4044331883
 30
0.0
  0
SPLINE
  5
614
100
AcDbEntity
  8
AXIS
100
AcDbSpline
 62
7
  6
CONTINUOUS
 70
0
 71
3
 72
18
 73
14
 74
0
 42
0.0000001
 43
0.0000001
 44
0.0000000001
 40
0.0
 40
0.0
 40
0.0
 40
0.0
 40
0.1934176254
 40
0.3756097144
 40
0.5417759669
 40
0.687539189
 40
0.8090613709
 40
0.8597039348
 40
0.903147019
 40
0.939098343
 40
0.9673334079
 40
0.9876666042
 40
1.0
 40
1.0
 40
1.0
 40
1.0
 10
5.3437898865
 20
5.4210775741
 30
0.0
 10
5.3150457377
 20
5.420578508
 30
0.0
 10
5.2592259307
 20
5.4195949646
 30
0.0
 10
5.1787135016
 20
5.418091284
 30
0.0
 10
5.1052853193
 20
5.4165928145
 30
0.0
 10
5.0408768243
 20
5.4151007185
 30
0.0
 10
4.993639138
 20
5.4138053677
 30
0.0
 10
4.9616104749
 20
5.4127329045
 30
0.0
 10
4.9422964856
 20
5.4119834594
 30
0.0
 10
4.9263176351
 20
5.4112340338
 30
0.0
 10
4.9137724728
 20
5.4105097023
 30
0.0
 10
4.9047559614
 20
5.4097731206
 30
0.0
 10
4.8999192427
 20
5.4092333506
 30
0.0
 10
4.8981252326
 20
5.4088564938
 30
0.0
  0
SPLINE
  5
615
100
AcDbEntity
  8
AXIS
100
AcDbSpline
 62
7
  6
CONTINUOUS
 70
0
 71
3
 72
9
 73
5
 74
0
 42
0.0000001
 43
0.0000001
 44
0.0000000001
 40
0.0
 40
0.0
 40
0.0
 40
0.0
 40
0.7045977885
 40
1.0
 40
1.0
 40
1.0
 40
1.0
 10
4.8981252326
 20
5.4088564938
 30
0.0
 10
4.897663308
 20
5.4087594601
 30
0.0
 10
4.8971147437
 20
5.4086343323
 30
0.0
 10
4.8963071727
 20
5.4082905646
 30
0.0
 10
4.8963071727
 20
5.4080926763
 30
0.0
  0
SPLINE
  5
616
100
AcDbEntity
  8
AXIS
100
AcDbSpline
 62
7
  6
CONTINUOUS
 70
0
 71
3
 72
23
 73
19
 74
0
 42
0.0000001
 43
0.0000001
 44
0.0000000001
 40
0.0
 40
0.0
 40
0.0
 40
0.0
 40
0.200170261
 40
0.3880420278
 40
0.5582571515
 40
0.635206529
 40
0.7059741475
 40
0.7700503341
 40
0.8269867816
 40
0.8763700195
 40
0.9178574803
 40
0.9511491969
 40
0.9646494087
 40
0.976022424
 40
0.9852472014
 40
0.9923115689
 40
0.9972186749
 40
1.0
 40
1.0
 40
1.0
 40
1.0
 10
5.3437898865
 20
5.3580854482
 30
0.0
 10
5.3139318094
 20
5.3575670416
 30
0.0
 10
5.2560504017
 20
5.3565466577
 30
0.0
 10
5.1727809331
 20
5.3549852582
 30
0.0
 10
5.1078933624
 20
5.3536481105
 30
0.0
 10
5.0604748598
 20
5.3525589942
 30
0.0
 10
5.0288881145
 20
5.3517708418
 30
0.0
 10
5.0002879836
 20
5.3509839333
 30
0.0
 10
4.9748794088
 20
5.3501989547
 30
0.0
 10
4.9528423558
 20
5.3494171093
 30
0.0
 10
4.9343354463
 20
5.3486390424
 30
0.0
 10
4.9211821361
 20
5.3479601616
 30
0.0
 10
4.912523408
 20
5.3473968201
 30
0.0
 10
4.9074501135
 20
5.3470078545
 30
0.0
 10
4.9033443883
 20
5.3466180571
 30
0.0
 10
4.9001965273
 20
5.3462454255
 30
0.0
 10
4.8980425817
 20
5.3458614362
 30
0.0
 10
4.8969062554
 20
5.3455853954
 30
0.0
 10
4.8965468287
 20
5.345378072
 30
0.0
  0
SPLINE
  5
617
100
AcDbEntity
  8
AXIS
100
AcDbSpline
 62
7
  6
CONTINUOUS
 70
0
 71
3
 72
18
 73
14
 74
0
 42
0.0000001
 43
0.0000001
 44
0.0000000001
 40
0.0
 40
0.0
 40
0.0
 40
0.0
 40
0.1934176254
 40
0.3756097144
 40
0.5417759669
 40
0.687539189
 40
0.8090613709
 40
0.8597039348
 40
0.903147019
 40
0.939098343
 40
0.9673334079
 40
0.9876666042
 40
1.0
 40
1.0
 40
1.0
 40
1.0
 10
5.3437898865
 20
5.362022456
 30
0.0
 10
5.3150457377
 20
5.3615233898
 30
0.0
 10
5.2592259307
 20
5.3605398465
 30
0.0
 10
5.1787135016
 20
5.3590361659
 30
0.0
 10
5.1052853193
 20
5.3575376964
 30
0.0
 10
5.0408768243
 20
5.3560456004
 30
0.0
 10
4.993639138
 20
5.3547502496
 30
0.0
 10
4.9616104749
 20
5.3536777864
 30
0.0
 10
4.9422964856
 20
5.3529283413
 30
0.0
 10
4.9263176351
 20
5.3521789157
 30
0.0
 10
4.9137724728
 20
5.3514545842
 30
0.0
 10
4.9047559614
 20
5.3507180025
 30
0.0
 10
4.8999192427
 20
5.3501782324
 30
0.0
 10
4.8981252326
 20
5.3498013757
 30
0.0
  0
SPLINE
  5
618
100
AcDbEntity
  8
AXIS
100
AcDbSpline
 62
7
  6
CONTINUOUS
 70
0
 71
3
 72
9
 73
5
 74
0
 42
0.0000001
 43
0.0000001
 44
0.0000000001
 40
0.0
 40
0.0
 40
0.0
 40
0.0
 40
0.7045977885
 40
1.0
 40
1.0
 40
1.0
 40
1.0
 10
4.8981252326
 20
5.3498013757
 30
0.0
 10
4.897663308
 20
5.349704342
 30
0.0
 10
4.8971147437
 20
5.3495792142
 30
0.0
 10
4.8963071727
 20
5.3492354465
 30
0.0
 10
4.8963071727
 20
5.3490375582
 30
0.0
  0
SPLINE
  5
619
100
AcDbEntity
  8
AXIS
100
AcDbSpline
 62
7
  6
CONTINUOUS
 70
0
 71
3
 72
23
 73
19
 74
0
 42
0.0000001
 43
0.0000001
 44
0.0000000001
 40
0.0
 40
0.0
 40
0.0
 40
0.0
 40
0.20017403
 40
0.3880402635
 40
0.5582580611
 40
0.63520737
 40
0.7059740168
 40
0.7700518873
 40
0.8269869323
 40
0.8763716895
 40
0.9178574433
 40
0.9511511154
 40
0.9646525863
 40
0.9760223522
 40
0.9852460267
 40
0.9923136044
 40
0.9972218744
 40
1.0
 40
1.0
 40
1.0
 40
1.0
 10
5.3437898865
 20
5.29903033
 30
0.0
 10
5.3139312661
 20
5.298511914
 30
0.0
 10
5.2560501582
 20
5.2974915369
 30
0.0
 10
5.1727806067
 20
5.2959301319
 30
0.0
 10
5.1078935141
 20
5.2945929838
 30
0.0
 10
5.0604747973
 20
5.2935038914
 30
0.0
 10
5.0288879769
 20
5.2927156985
 30
0.0
 10
5.0002879655
 20
5.2919288469
 30
0.0
 10
4.9748791405
 20
5.2911437971
 30
0.0
 10
4.9528423359
 20
5.2903620312
 30
0.0
 10
4.9343351772
 20
5.2895838922
 30
0.0
 10
4.9211816509
 20
5.2889049918
 30
0.0
 10
4.9125229265
 20
5.2883417917
 30
0.0
 10
4.9074501001
 20
5.2879527138
 30
0.0
 10
4.9033445756
 20
5.287562811
 30
0.0
 10
4.9001961705
 20
5.2871903058
 30
0.0
 10
4.8980420998
 20
5.2868065422
 30
0.0
 10
4.8969059804
 20
5.286530398
 30
0.0
 10
4.8965471759
 20
5.286322952
 30
0.0
  0
SPLINE
  5
61A
100
AcDbEntity
  8
AXIS
100
AcDbSpline
 62
7
  6
CONTINUOUS
 70
0
 71
3
 72
23
 73
19
 74
0
 42
0.0000001
 43
0.0000001
 44
0.0000000001
 40
0.0
 40
0.0
 40
0.0
 40
0.0
 40
0.20017403
 40
0.3880402635
 40
0.5582580611
 40
0.63520737
 40
0.7059740168
 40
0.7700518873
 40
0.8269869323
 40
0.8763716895
 40
0.9178574433
 40
0.9511511154
 40
0.9646525863
 40
0.9760223522
 40
0.9852460267
 40
0.9923136044
 40
0.9972218744
 40
1.0
 40
1.0
 40
1.0
 40
1.0
 10
5.3437898865
 20
5.2399752119
 30
0.0
 10
5.3139312661
 20
5.2394567959
 30
0.0
 10
5.2560501582
 20
5.2384364188
 30
0.0
 10
5.1727806067
 20
5.2368750138
 30
0.0
 10
5.1078935141
 20
5.2355378657
 30
0.0
 10
5.0604747973
 20
5.2344487733
 30
0.0
 10
5.0288879769
 20
5.2336605804
 30
0.0
 10
5.0002879655
 20
5.2328737288
 30
0.0
 10
4.9748791405
 20
5.232088679
 30
0.0
 10
4.9528423359
 20
5.2313069131
 30
0.0
 10
4.9343351772
 20
5.230528774
 30
0.0
 10
4.9211816509
 20
5.2298498737
 30
0.0
 10
4.9125229265
 20
5.2292866736
 30
0.0
 10
4.9074501001
 20
5.2288975957
 30
0.0
 10
4.9033445756
 20
5.2285076929
 30
0.0
 10
4.9001961705
 20
5.2281351877
 30
0.0
 10
4.8980420998
 20
5.2277514241
 30
0.0
 10
4.8969059804
 20
5.2274752798
 30
0.0
 10
4.8965471759
 20
5.2272678339
 30
0.0
  0
SPLINE
  5
61B
100
AcDbEntity
  8
AXIS
100
AcDbSpline
 62
7
  6
CONTINUOUS
 70
0
 71
3
 72
18
 73
14
 74
0
 42
0.0000001
 43
0.0000001
 44
0.0000000001
 40
0.0
 40
0.0
 40
0.0
 40
0.0
 40
0.1934176254
 40
0.3756097144
 40
0.5417759669
 40
0.687539189
 40
0.8090613709
 40
0.8597039348
 40
0.903147019
 40
0.939098343
 40
0.9673334079
 40
0.9876666042
 40
1.0
 40
1.0
 40
1.0
 40
1.0
 10
5.3437898865
 20
5.2439122198
 30
0.0
 10
5.3150457377
 20
5.2434131536
 30
0.0
 10
5.2592259307
 20
5.2424296103
 30
0.0
 10
5.1787135016
 20
5.2409259297
 30
0.0
 10
5.1052853193
 20
5.2394274602
 30
0.0
 10
5.0408768243
 20
5.2379353642
 30
0.0
 10
4.993639138
 20
5.2366400133
 30
0.0
 10
4.9616104749
 20
5.2355675502
 30
0.0
 10
4.9422964856
 20
5.2348181051
 30
0.0
 10
4.9263176351
 20
5.2340686795
 30
0.0
 10
4.9137724728
 20
5.233344348
 30
0.0
 10
4.9047559614
 20
5.2326077663
 30
0.0
 10
4.8999192427
 20
5.2320679962
 30
0.0
 10
4.8981252326
 20
5.2316911395
 30
0.0
  0
SPLINE
  5
61C
100
AcDbEntity
  8
AXIS
100
AcDbSpline
 62
7
  6
CONTINUOUS
 70
0
 71
3
 72
9
 73
5
 74
0
 42
0.0000001
 43
0.0000001
 44
0.0000000001
 40
0.0
 40
0.0
 40
0.0
 40
0.0
 40
0.7045977885
 40
1.0
 40
1.0
 40
1.0
 40
1.0
 10
4.8981252326
 20
5.2316911395
 30
0.0
 10
4.897663308
 20
5.2315941058
 30
0.0
 10
4.8971147437
 20
5.231468978
 30
0.0
 10
4.8963071727
 20
5.2311252103
 30
0.0
 10
4.8963071727
 20
5.2309273219
 30
0.0
  0
LINE
  5
61D
100
AcDbEntity
  8
AXIS
100
AcDbLine
 62
7
  6
CONTINUOUS
 10
5.0952296445
 20
5.1761824972
 11
5.0946340432
 21
5.1761692841
  0
SPLINE
  5
61E
100
AcDbEntity
  8
AXIS
100
AcDbSpline
 62
7
  6
CONTINUOUS
 70
0
 71
3
 72
19
 73
15
 74
0
 42
0.0000001
 43
0.0000001
 44
0.0000000001
 40
0.0
 40
0.0
 40
0.0
 40
0.0
 40
0.2155779837
 40
0.4088491054
 40
0.5776639634
 40
0.7201253877
 40
0.7809726851
 40
0.834656719
 40
0.8810412821
 40
0.9199984832
 40
0.951415715
 40
0.9752297357
 40
0.9914048712
 40
1.0
 40
1.0
 40
1.0
 40
1.0
 10
5.0946340432
 20
5.1761692841
 30
0.0
 10
5.0803839693
 20
5.1758529689
 30
0.0
 10
5.0533588826
 20
5.175228344
 30
0.0
 10
5.0151774481
 20
5.1742464511
 30
0.0
 10
4.9818320932
 20
5.1732678629
 30
0.0
 10
4.9572423771
 20
5.1724193962
 30
0.0
 10
4.9402648004
 20
5.1717245127
 30
0.0
 10
4.9296364025
 20
5.171232524
 30
0.0
 10
4.9204581731
 20
5.1707409607
 30
0.0
 10
4.9127510211
 20
5.1702560881
 30
0.0
 10
4.9065487924
 20
5.1697648514
 30
0.0
 10
4.9018338616
 20
5.1693100269
 30
0.0
 10
4.8986877945
 20
5.1688152839
 30
0.0
 10
4.8970391595
 20
5.1684971604
 30
0.0
 10
4.8965471759
 20
5.1682127158
 30
0.0
  0
LINE
  5
61F
100
AcDbEntity
  8
AXIS
100
AcDbLine
 62
7
  6
CONTINUOUS
 10
5.0956560335
 20
5.1801289548
 11
5.0950913003
 21
5.1801164374
  0
LINE
  5
620
100
AcDbEntity
  8
AXIS
100
AcDbLine
 62
7
  6
CONTINUOUS
 10
5.0950913003
 20
5.1801164374
 11
5.0945362508
 21
5.180104121
  0
SPLINE
  5
621
100
AcDbEntity
  8
AXIS
100
AcDbSpline
 62
7
  6
CONTINUOUS
 70
0
 71
3
 72
15
 73
11
 74
0
 42
0.0000001
 43
0.0000001
 44
0.0000000001
 40
0.0
 40
0.0
 40
0.0
 40
0.0
 40
0.3897414851
 40
0.5532373294
 40
0.6935907136
 40
0.8094391258
 40
0.8996420927
 40
0.9633380731
 40
0.9850644846
 40
1.0
 40
1.0
 40
1.0
 40
1.0
 10
5.0945362508
 20
5.180104121
 30
0.0
 10
5.0690008871
 20
5.1795371921
 30
0.0
 10
5.0327545492
 20
5.1786785418
 30
0.0
 10
4.9873186977
 20
5.1773739486
 30
0.0
 10
4.9598292578
 20
5.176456513
 30
0.0
 10
4.937144882
 20
5.1755511848
 30
0.0
 10
4.9194909905
 20
5.1746490653
 30
0.0
 10
4.9080039529
 20
5.1738711423
 30
0.0
 10
4.9014638832
 20
5.1731821253
 30
0.0
 10
4.8990831234
 20
5.1728372396
 30
0.0
 10
4.8981252326
 20
5.1726360214
 30
0.0
  0
SPLINE
  5
622
100
AcDbEntity
  8
AXIS
100
AcDbSpline
 62
7
  6
CONTINUOUS
 70
0
 71
3
 72
9
 73
5
 74
0
 42
0.0000001
 43
0.0000001
 44
0.0000000001
 40
0.0
 40
0.0
 40
0.0
 40
0.0
 40
0.7045977885
 40
1.0
 40
1.0
 40
1.0
 40
1.0
 10
4.8981252326
 20
5.1726360214
 30
0.0
 10
4.897663308
 20
5.1725389877
 30
0.0
 10
4.8971147437
 20
5.1724138599
 30
0.0
 10
4.8963071727
 20
5.1720700922
 30
0.0
 10
4.8963071727
 20
5.1718722038
 30
0.0
  0
SPLINE
  5
623
100
AcDbEntity
  8
AXIS
100
AcDbSpline
 62
7
  6
CONTINUOUS
 70
0
 71
3
 72
23
 73
19
 74
0
 42
0.0000001
 43
0.0000001
 44
0.0000000001
 40
0.0
 40
0.0
 40
0.0
 40
0.0
 40
0.200170261
 40
0.3880420278
 40
0.5582571515
 40
0.635206529
 40
0.7059741475
 40
0.7700503341
 40
0.8269867816
 40
0.8763700195
 40
0.9178574803
 40
0.9511491969
 40
0.9646494087
 40
0.976022424
 40
0.9852472014
 40
0.9923115689
 40
0.9972186749
 40
1.0
 40
1.0
 40
1.0
 40
1.0
 10
5.3437898865
 20
5.1218649757
 30
0.0
 10
5.3139318094
 20
5.1213465691
 30
0.0
 10
5.2560504017
 20
5.1203261853
 30
0.0
 10
5.1727809331
 20
5.1187647857
 30
0.0
 10
5.1078933624
 20
5.1174276381
 30
0.0
 10
5.0604748598
 20
5.1163385218
 30
0.0
 10
5.0288881145
 20
5.1155503694
 30
0.0
 10
5.0002879836
 20
5.1147634609
 30
0.0
 10
4.9748794088
 20
5.1139784822
 30
0.0
 10
4.9528423558
 20
5.1131966368
 30
0.0
 10
4.9343354463
 20
5.11241857
 30
0.0
 10
4.9211821361
 20
5.1117396892
 30
0.0
 10
4.912523408
 20
5.1111763477
 30
0.0
 10
4.9074501135
 20
5.110787382
 30
0.0
 10
4.9033443883
 20
5.1103975846
 30
0.0
 10
4.9001965273
 20
5.1100249531
 30
0.0
 10
4.8980425817
 20
5.1096409637
 30
0.0
 10
4.8969062554
 20
5.109364923
 30
0.0
 10
4.8965468287
 20
5.1091575995
 30
0.0
  0
SPLINE
  5
624
100
AcDbEntity
  8
AXIS
100
AcDbSpline
 62
7
  6
CONTINUOUS
 70
0
 71
3
 72
18
 73
14
 74
0
 42
0.0000001
 43
0.0000001
 44
0.0000000001
 40
0.0
 40
0.0
 40
0.0
 40
0.0
 40
0.1934176254
 40
0.3756097144
 40
0.5417759669
 40
0.687539189
 40
0.8090613709
 40
0.8597039348
 40
0.903147019
 40
0.939098343
 40
0.9673334079
 40
0.9876666042
 40
1.0
 40
1.0
 40
1.0
 40
1.0
 10
5.3437898865
 20
5.1258019836
 30
0.0
 10
5.3150457377
 20
5.1253029174
 30
0.0
 10
5.2592259307
 20
5.124319374
 30
0.0
 10
5.1787135016
 20
5.1228156935
 30
0.0
 10
5.1052853193
 20
5.121317224
 30
0.0
 10
5.0408768243
 20
5.119825128
 30
0.0
 10
4.993639138
 20
5.1185297771
 30
0.0
 10
4.9616104749
 20
5.117457314
 30
0.0
 10
4.9422964856
 20
5.1167078689
 30
0.0
 10
4.9263176351
 20
5.1159584433
 30
0.0
 10
4.9137724728
 20
5.1152341118
 30
0.0
 10
4.9047559614
 20
5.1144975301
 30
0.0
 10
4.8999192427
 20
5.11395776
 30
0.0
 10
4.8981252326
 20
5.1135809032
 30
0.0
  0
SPLINE
  5
625
100
AcDbEntity
  8
AXIS
100
AcDbSpline
 62
7
  6
CONTINUOUS
 70
0
 71
3
 72
9
 73
5
 74
0
 42
0.0000001
 43
0.0000001
 44
0.0000000001
 40
0.0
 40
0.0
 40
0.0
 40
0.0
 40
0.7045977885
 40
1.0
 40
1.0
 40
1.0
 40
1.0
 10
4.8981252326
 20
5.1135809032
 30
0.0
 10
4.897663308
 20
5.1134838696
 30
0.0
 10
4.8971147437
 20
5.1133587418
 30
0.0
 10
4.8963071727
 20
5.1130149741
 30
0.0
 10
4.8963071727
 20
5.1128170857
 30
0.0
  0
SPLINE
  5
626
100
AcDbEntity
  8
AXIS
100
AcDbSpline
 62
7
  6
CONTINUOUS
 70
0
 71
3
 72
23
 73
19
 74
0
 42
0.0000001
 43
0.0000001
 44
0.0000000001
 40
0.0
 40
0.0
 40
0.0
 40
0.0
 40
0.20017403
 40
0.3880402635
 40
0.5582580611
 40
0.63520737
 40
0.7059740168
 40
0.7700518873
 40
0.8269869323
 40
0.8763716895
 40
0.9178574433
 40
0.9511511154
 40
0.9646525863
 40
0.9760223522
 40
0.9852460267
 40
0.9923136044
 40
0.9972218744
 40
1.0
 40
1.0
 40
1.0
 40
1.0
 10
5.3437898865
 20
5.0628098576
 30
0.0
 10
5.3139312661
 20
5.0622914416
 30
0.0
 10
5.2560501582
 20
5.0612710645
 30
0.0
 10
5.1727806067
 20
5.0597096595
 30
0.0
 10
5.1078935141
 20
5.0583725113
 30
0.0
 10
5.0604747973
 20
5.0572834189
 30
0.0
 10
5.0288879769
 20
5.056495226
 30
0.0
 10
5.0002879655
 20
5.0557083745
 30
0.0
 10
4.9748791405
 20
5.0549233247
 30
0.0
 10
4.9528423359
 20
5.0541415588
 30
0.0
 10
4.9343351772
 20
5.0533634197
 30
0.0
 10
4.9211816509
 20
5.0526845194
 30
0.0
 10
4.9125229265
 20
5.0521213192
 30
0.0
 10
4.9074501001
 20
5.0517322414
 30
0.0
 10
4.9033445756
 20
5.0513423386
 30
0.0
 10
4.9001961705
 20
5.0509698334
 30
0.0
 10
4.8980420998
 20
5.0505860697
 30
0.0
 10
4.8969059804
 20
5.0503099255
 30
0.0
 10
4.8965471759
 20
5.0501024796
 30
0.0
  0
SPLINE
  5
627
100
AcDbEntity
  8
AXIS
100
AcDbSpline
 62
7
  6
CONTINUOUS
 70
0
 71
3
 72
25
 73
21
 74
0
 42
0.0000001
 43
0.0000001
 44
0.0000000001
 40
0.0
 40
0.0
 40
0.0
 40
0.0
 40
0.2042644824
 40
0.395568469
 40
0.484558234
 40
0.5682235782
 40
0.6459265399
 40
0.7170971278
 40
0.7811994865
 40
0.8377660136
 40
0.8863665444
 40
0.926651639
 40
0.9435761821
 40
0.958315398
 40
0.9708452058
 40
0.9811424122
 40
0.9891885227
 40
0.9949810633
 40
0.9985374099
 40
1.0
 40
1.0
 40
1.0
 40
1.0
 10
5.3437898865
 20
5.0667468655
 30
0.0
 10
5.3132969558
 20
5.0662174363
 30
0.0
 10
5.2542461377
 20
5.0651759414
 30
0.0
 10
5.1819123286
 20
5.0638171588
 30
0.0
 10
5.1275829277
 20
5.0627140137
 30
0.0
 10
5.0902121309
 20
5.0619073311
 30
0.0
 10
5.0555024599
 20
5.0611012896
 30
0.0
 10
5.0237144294
 20
5.0602964703
 30
0.0
 10
4.9950832648
 20
5.059492915
 30
0.0
 10
4.9698231745
 20
5.058692
 30
0.0
 10
4.948121384
 20
5.0578938073
 30
0.0
 10
4.9323378864
 20
5.0571999657
 30
0.0
 10
4.9216116089
 20
5.0566302935
 30
0.0
 10
4.9150232453
 20
5.0562287113
 30
0.0
 10
4.909435025
 20
5.0558307731
 30
0.0
 10
4.9048243326
 20
5.0554307216
 30
0.0
 10
4.9012881481
 20
5.0550491922
 30
0.0
 10
4.8986113156
 20
5.054646804
 30
0.0
 10
4.8972297204
 20
5.0543317868
 30
0.0
 10
4.8963061636
 20
5.0539803383
 30
0.0
 10
4.8963061636
 20
5.0537619676
 30
0.0
  0
SPLINE
  5
628
100
AcDbEntity
  8
AXIS
100
AcDbSpline
 62
7
  6
CONTINUOUS
 70
0
 71
3
 72
23
 73
19
 74
0
 42
0.0000001
 43
0.0000001
 44
0.0000000001
 40
0.0
 40
0.0
 40
0.0
 40
0.0
 40
0.20017403
 40
0.3880402635
 40
0.5582580611
 40
0.63520737
 40
0.7059740168
 40
0.7700518873
 40
0.8269869323
 40
0.8763716895
 40
0.9178574433
 40
0.9511511154
 40
0.9646525863
 40
0.9760223522
 40
0.9852460267
 40
0.9923136044
 40
0.9972218744
 40
1.0
 40
1.0
 40
1.0
 40
1.0
 10
5.3437898865
 20
5.0037547395
 30
0.0
 10
5.3139312661
 20
5.0032363235
 30
0.0
 10
5.2560501582
 20
5.0022159464
 30
0.0
 10
5.1727806067
 20
5.0006545413
 30
0.0
 10
5.1078935141
 20
4.9993173932
 30
0.0
 10
5.0604747973
 20
4.9982283008
 30
0.0
 10
5.0288879769
 20
4.9974401079
 30
0.0
 10
5.0002879655
 20
4.9966532564
 30
0.0
 10
4.9748791405
 20
4.9958682066
 30
0.0
 10
4.9528423359
 20
4.9950864407
 30
0.0
 10
4.9343351772
 20
4.9943083016
 30
0.0
 10
4.9211816509
 20
4.9936294012
 30
0.0
 10
4.9125229265
 20
4.9930662011
 30
0.0
 10
4.9074501001
 20
4.9926771233
 30
0.0
 10
4.9033445756
 20
4.9922872205
 30
0.0
 10
4.9001961705
 20
4.9919147152
 30
0.0
 10
4.8980420998
 20
4.9915309516
 30
0.0
 10
4.8969059804
 20
4.9912548074
 30
0.0
 10
4.8965471759
 20
4.9910473615
 30
0.0
  0
SPLINE
  5
629
100
AcDbEntity
  8
AXIS
100
AcDbSpline
 62
7
  6
CONTINUOUS
 70
0
 71
3
 72
18
 73
14
 74
0
 42
0.0000001
 43
0.0000001
 44
0.0000000001
 40
0.0
 40
0.0
 40
0.0
 40
0.0
 40
0.1934176254
 40
0.3756097144
 40
0.5417759669
 40
0.687539189
 40
0.8090613709
 40
0.8597039348
 40
0.903147019
 40
0.939098343
 40
0.9673334079
 40
0.9876666042
 40
1.0
 40
1.0
 40
1.0
 40
1.0
 10
5.3437898865
 20
5.0076917474
 30
0.0
 10
5.3150457377
 20
5.0071926812
 30
0.0
 10
5.2592259307
 20
5.0062091378
 30
0.0
 10
5.1787135016
 20
5.0047054573
 30
0.0
 10
5.1052853193
 20
5.0032069878
 30
0.0
 10
5.0408768243
 20
5.0017148918
 30
0.0
 10
4.993639138
 20
5.0004195409
 30
0.0
 10
4.9616104749
 20
4.9993470778
 30
0.0
 10
4.9422964856
 20
4.9985976327
 30
0.0
 10
4.9263176351
 20
4.9978482071
 30
0.0
 10
4.9137724728
 20
4.9971238756
 30
0.0
 10
4.9047559614
 20
4.9963872938
 30
0.0
 10
4.8999192427
 20
4.9958475238
 30
0.0
 10
4.8981252326
 20
4.995470667
 30
0.0
  0
SPLINE
  5
62A
100
AcDbEntity
  8
AXIS
100
AcDbSpline
 62
7
  6
CONTINUOUS
 70
0
 71
3
 72
9
 73
5
 74
0
 42
0.0000001
 43
0.0000001
 44
0.0000000001
 40
0.0
 40
0.0
 40
0.0
 40
0.0
 40
0.7045977885
 40
1.0
 40
1.0
 40
1.0
 40
1.0
 10
4.8981252326
 20
4.995470667
 30
0.0
 10
4.897663308
 20
4.9953736333
 30
0.0
 10
4.8971147437
 20
4.9952485055
 30
0.0
 10
4.8963071727
 20
4.9949047378
 30
0.0
 10
4.8963071727
 20
4.9947068495
 30
0.0
  0
SPLINE
  5
62B
100
AcDbEntity
  8
AXIS
100
AcDbSpline
 62
7
  6
CONTINUOUS
 70
0
 71
3
 72
23
 73
19
 74
0
 42
0.0000001
 43
0.0000001
 44
0.0000000001
 40
0.0
 40
0.0
 40
0.0
 40
0.0
 40
0.200170261
 40
0.3880420278
 40
0.5582571515
 40
0.635206529
 40
0.7059741475
 40
0.7700503341
 40
0.8269867816
 40
0.8763700195
 40
0.9178574803
 40
0.9511491969
 40
0.9646494087
 40
0.976022424
 40
0.9852472014
 40
0.9923115689
 40
0.9972186749
 40
1.0
 40
1.0
 40
1.0
 40
1.0
 10
5.3437898865
 20
4.9446996214
 30
0.0
 10
5.3139318094
 20
4.9441812148
 30
0.0
 10
5.2560504017
 20
4.9431608309
 30
0.0
 10
5.1727809331
 20
4.9415994314
 30
0.0
 10
5.1078933624
 20
4.9402622837
 30
0.0
 10
5.0604748598
 20
4.9391731675
 30
0.0
 10
5.0288881145
 20
4.938385015
 30
0.0
 10
5.0002879836
 20
4.9375981065
 30
0.0
 10
4.9748794088
 20
4.9368131279
 30
0.0
 10
4.9528423558
 20
4.9360312825
 30
0.0
 10
4.9343354463
 20
4.9352532156
 30
0.0
 10
4.9211821361
 20
4.9345743349
 30
0.0
 10
4.912523408
 20
4.9340109933
 30
0.0
 10
4.9074501135
 20
4.9336220277
 30
0.0
 10
4.9033443883
 20
4.9332322303
 30
0.0
 10
4.9001965273
 20
4.9328595987
 30
0.0
 10
4.8980425817
 20
4.9324756094
 30
0.0
 10
4.8969062554
 20
4.9321995686
 30
0.0
 10
4.8965468287
 20
4.9319922452
 30
0.0
  0
SPLINE
  5
62C
100
AcDbEntity
  8
AXIS
100
AcDbSpline
 62
7
  6
CONTINUOUS
 70
0
 71
3
 72
18
 73
14
 74
0
 42
0.0000001
 43
0.0000001
 44
0.0000000001
 40
0.0
 40
0.0
 40
0.0
 40
0.0
 40
0.1934176254
 40
0.3756097144
 40
0.5417759669
 40
0.687539189
 40
0.8090613709
 40
0.8597039348
 40
0.903147019
 40
0.939098343
 40
0.9673334079
 40
0.9876666042
 40
1.0
 40
1.0
 40
1.0
 40
1.0
 10
5.3437898865
 20
4.9486366293
 30
0.0
 10
5.3150457377
 20
4.9481375631
 30
0.0
 10
5.2592259307
 20
4.9471540197
 30
0.0
 10
5.1787135016
 20
4.9456503392
 30
0.0
 10
5.1052853193
 20
4.9441518697
 30
0.0
 10
5.0408768243
 20
4.9426597736
 30
0.0
 10
4.993639138
 20
4.9413644228
 30
0.0
 10
4.9616104749
 20
4.9402919597
 30
0.0
 10
4.9422964856
 20
4.9395425146
 30
0.0
 10
4.9263176351
 20
4.938793089
 30
0.0
 10
4.9137724728
 20
4.9380687574
 30
0.0
 10
4.9047559614
 20
4.9373321757
 30
0.0
 10
4.8999192427
 20
4.9367924057
 30
0.0
 10
4.8981252326
 20
4.9364155489
 30
0.0
  0
SPLINE
  5
62D
100
AcDbEntity
  8
AXIS
100
AcDbSpline
 62
7
  6
CONTINUOUS
 70
0
 71
3
 72
9
 73
5
 74
0
 42
0.0000001
 43
0.0000001
 44
0.0000000001
 40
0.0
 40
0.0
 40
0.0
 40
0.0
 40
0.7045977885
 40
1.0
 40
1.0
 40
1.0
 40
1.0
 10
4.8981252326
 20
4.9364155489
 30
0.0
 10
4.897663308
 20
4.9363185152
 30
0.0
 10
4.8971147437
 20
4.9361933874
 30
0.0
 10
4.8963071727
 20
4.9358496197
 30
0.0
 10
4.8963071727
 20
4.9356517314
 30
0.0
  0
SPLINE
  5
62E
100
AcDbEntity
  8
AXIS
100
AcDbSpline
 62
7
  6
CONTINUOUS
 70
0
 71
3
 72
23
 73
19
 74
0
 42
0.0000001
 43
0.0000001
 44
0.0000000001
 40
0.0
 40
0.0
 40
0.0
 40
0.0
 40
0.20017403
 40
0.3880402635
 40
0.5582580611
 40
0.63520737
 40
0.7059740168
 40
0.7700518873
 40
0.8269869323
 40
0.8763716895
 40
0.9178574433
 40
0.9511511154
 40
0.9646525863
 40
0.9760223522
 40
0.9852460267
 40
0.9923136044
 40
0.9972218744
 40
1.0
 40
1.0
 40
1.0
 40
1.0
 10
5.3437898865
 20
4.8856445033
 30
0.0
 10
5.3139312661
 20
4.8851260872
 30
0.0
 10
5.2560501582
 20
4.8841057102
 30
0.0
 10
5.1727806067
 20
4.8825443051
 30
0.0
 10
5.1078935141
 20
4.881207157
 30
0.0
 10
5.0604747973
 20
4.8801180646
 30
0.0
 10
5.0288879769
 20
4.8793298717
 30
0.0
 10
5.0002879655
 20
4.8785430202
 30
0.0
 10
4.9748791405
 20
4.8777579703
 30
0.0
 10
4.9528423359
 20
4.8769762044
 30
0.0
 10
4.9343351772
 20
4.8761980654
 30
0.0
 10
4.9211816509
 20
4.875519165
 30
0.0
 10
4.9125229265
 20
4.8749559649
 30
0.0
 10
4.9074501001
 20
4.874566887
 30
0.0
 10
4.9033445756
 20
4.8741769843
 30
0.0
 10
4.9001961705
 20
4.873804479
 30
0.0
 10
4.8980420998
 20
4.8734207154
 30
0.0
 10
4.8969059804
 20
4.8731445712
 30
0.0
 10
4.8965471759
 20
4.8729371253
 30
0.0
  0
LINE
  5
62F
100
AcDbEntity
  8
AXIS
100
AcDbLine
 62
7
  6
CONTINUOUS
 10
5.083393902
 20
4.8215862185
 11
5.0828288159
 21
4.8215733755
  0
SPLINE
  5
630
100
AcDbEntity
  8
AXIS
100
AcDbSpline
 62
7
  6
CONTINUOUS
 70
0
 71
3
 72
18
 73
14
 74
0
 42
0.0000001
 43
0.0000001
 44
0.0000000001
 40
0.0
 40
0.0
 40
0.0
 40
0.0
 40
0.2160836269
 40
0.4094746988
 40
0.5781681465
 40
0.7203948091
 40
0.8346775103
 40
0.8809648663
 40
0.9198515067
 40
0.9512351126
 40
0.9750594188
 40
0.9912926598
 40
1.0
 40
1.0
 40
1.0
 40
1.0
 10
5.0828288159
 20
4.8215733755
 30
0.0
 10
5.0693957723
 20
4.8212678915
 30
0.0
 10
5.0439409169
 20
4.8206647041
 30
0.0
 10
5.0080017796
 20
4.8197150692
 30
0.0
 10
4.976656723
 20
4.8187697362
 30
0.0
 10
4.9502336591
 20
4.8178286353
 30
0.0
 10
4.9314219343
 20
4.8170083512
 30
0.0
 10
4.9190389059
 20
4.8163260914
 30
0.0
 10
4.9118040608
 20
4.8158568941
 30
0.0
 10
4.9059775946
 20
4.8153826224
 30
0.0
 10
4.9015431572
 20
4.8149409172
 30
0.0
 10
4.8985734351
 20
4.8144654299
 30
0.0
 10
4.8970159126
 20
4.8141530113
 30
0.0
 10
4.8965471759
 20
4.8138820072
 30
0.0
  0
LINE
  5
631
100
AcDbEntity
  8
AXIS
100
AcDbLine
 62
7
  6
CONTINUOUS
 10
5.0838122657
 20
4.8255327248
 11
5.0832764041
 21
4.8255205572
  0
SPLINE
  5
632
100
AcDbEntity
  8
AXIS
100
AcDbSpline
 62
7
  6
CONTINUOUS
 70
0
 71
3
 72
15
 73
11
 74
0
 42
0.0000001
 43
0.0000001
 44
0.0000000001
 40
0.0
 40
0.0
 40
0.0
 40
0.0
 40
0.3897950638
 40
0.5530622193
 40
0.6931654707
 40
0.8088358103
 40
0.899015481
 40
0.9628975108
 40
0.9848109775
 40
1.0
 40
1.0
 40
1.0
 40
1.0
 10
5.0832764041
 20
4.8255205572
 30
0.0
 10
5.0592008176
 20
4.8249735705
 30
0.0
 10
5.025042146
 20
4.8241444615
 30
0.0
 10
4.9822363109
 20
4.8228829913
 30
0.0
 10
4.9563629429
 20
4.8219964331
 30
0.0
 10
4.935006863
 20
4.8211211372
 30
0.0
 10
4.918366264
 20
4.8202494029
 30
0.0
 10
4.907517006
 20
4.8194963636
 30
0.0
 10
4.9013141545
 20
4.8188316431
 30
0.0
 10
4.8990435774
 20
4.8184982238
 30
0.0
 10
4.8981252326
 20
4.8183053127
 30
0.0
  0
SPLINE
  5
633
100
AcDbEntity
  8
AXIS
100
AcDbSpline
 62
7
  6
CONTINUOUS
 70
0
 71
3
 72
9
 73
5
 74
0
 42
0.0000001
 43
0.0000001
 44
0.0000000001
 40
0.0
 40
0.0
 40
0.0
 40
0.0
 40
0.7045977885
 40
1.0
 40
1.0
 40
1.0
 40
1.0
 10
4.8981252326
 20
4.8183053127
 30
0.0
 10
4.897663308
 20
4.818208279
 30
0.0
 10
4.8971147437
 20
4.8180831512
 30
0.0
 10
4.8963071727
 20
4.8177393835
 30
0.0
 10
4.8963071727
 20
4.8175414952
 30
0.0
  0
SPLINE
  5
634
100
AcDbEntity
  8
AXIS
100
AcDbSpline
 62
7
  6
CONTINUOUS
 70
0
 71
3
 72
23
 73
19
 74
0
 42
0.0000001
 43
0.0000001
 44
0.0000000001
 40
0.0
 40
0.0
 40
0.0
 40
0.0
 40
0.20017403
 40
0.3880402635
 40
0.5582580611
 40
0.63520737
 40
0.7059740168
 40
0.7700518873
 40
0.8269869323
 40
0.8763716895
 40
0.9178574433
 40
0.9511511154
 40
0.9646525863
 40
0.9760223522
 40
0.9852460267
 40
0.9923136044
 40
0.9972218744
 40
1.0
 40
1.0
 40
1.0
 40
1.0
 10
5.3437898865
 20
4.7675342671
 30
0.0
 10
5.3139312661
 20
4.767015851
 30
0.0
 10
5.2560501582
 20
4.765995474
 30
0.0
 10
5.1727806067
 20
4.7644340689
 30
0.0
 10
5.1078935141
 20
4.7630969208
 30
0.0
 10
5.0604747973
 20
4.7620078284
 30
0.0
 10
5.0288879769
 20
4.7612196355
 30
0.0
 10
5.0002879655
 20
4.7604327839
 30
0.0
 10
4.9748791405
 20
4.7596477341
 30
0.0
 10
4.9528423359
 20
4.7588659682
 30
0.0
 10
4.9343351772
 20
4.7580878292
 30
0.0
 10
4.9211816509
 20
4.7574089288
 30
0.0
 10
4.9125229265
 20
4.7568457287
 30
0.0
 10
4.9074501001
 20
4.7564566508
 30
0.0
 10
4.9033445756
 20
4.756066748
 30
0.0
 10
4.9001961705
 20
4.7556942428
 30
0.0
 10
4.8980420998
 20
4.7553104792
 30
0.0
 10
4.8969059804
 20
4.755034335
 30
0.0
 10
4.8965471759
 20
4.754826889
 30
0.0
  0
SPLINE
  5
635
100
AcDbEntity
  8
AXIS
100
AcDbSpline
 62
7
  6
CONTINUOUS
 70
0
 71
3
 72
18
 73
14
 74
0
 42
0.0000001
 43
0.0000001
 44
0.0000000001
 40
0.0
 40
0.0
 40
0.0
 40
0.0
 40
0.1934176254
 40
0.3756097144
 40
0.5417759669
 40
0.687539189
 40
0.8090613709
 40
0.8597039348
 40
0.903147019
 40
0.939098343
 40
0.9673334079
 40
0.9876666042
 40
1.0
 40
1.0
 40
1.0
 40
1.0
 10
5.3437898865
 20
4.7714712749
 30
0.0
 10
5.3150457377
 20
4.7709722087
 30
0.0
 10
5.2592259307
 20
4.7699886654
 30
0.0
 10
5.1787135016
 20
4.7684849848
 30
0.0
 10
5.1052853193
 20
4.7669865153
 30
0.0
 10
5.0408768243
 20
4.7654944193
 30
0.0
 10
4.993639138
 20
4.7641990685
 30
0.0
 10
4.9616104749
 20
4.7631266053
 30
0.0
 10
4.9422964856
 20
4.7623771602
 30
0.0
 10
4.9263176351
 20
4.7616277346
 30
0.0
 10
4.9137724728
 20
4.7609034031
 30
0.0
 10
4.9047559614
 20
4.7601668214
 30
0.0
 10
4.8999192427
 20
4.7596270513
 30
0.0
 10
4.8981252326
 20
4.7592501946
 30
0.0
  0
SPLINE
  5
636
100
AcDbEntity
  8
AXIS
100
AcDbSpline
 62
7
  6
CONTINUOUS
 70
0
 71
3
 72
9
 73
5
 74
0
 42
0.0000001
 43
0.0000001
 44
0.0000000001
 40
0.0
 40
0.0
 40
0.0
 40
0.0
 40
0.7045977885
 40
1.0
 40
1.0
 40
1.0
 40
1.0
 10
4.8981252326
 20
4.7592501946
 30
0.0
 10
4.897663308
 20
4.7591531609
 30
0.0
 10
4.8971147437
 20
4.7590280331
 30
0.0
 10
4.8963071727
 20
4.7586842654
 30
0.0
 10
4.8963071727
 20
4.7584863771
 30
0.0
  0
SPLINE
  5
637
100
AcDbEntity
  8
AXIS
100
AcDbSpline
 62
7
  6
CONTINUOUS
 70
0
 71
3
 72
23
 73
19
 74
0
 42
0.0000001
 43
0.0000001
 44
0.0000000001
 40
0.0
 40
0.0
 40
0.0
 40
0.0
 40
0.200170261
 40
0.3880420278
 40
0.5582571515
 40
0.635206529
 40
0.7059741475
 40
0.7700503341
 40
0.8269867816
 40
0.8763700195
 40
0.9178574803
 40
0.9511491969
 40
0.9646494087
 40
0.976022424
 40
0.9852472014
 40
0.9923115689
 40
0.9972186749
 40
1.0
 40
1.0
 40
1.0
 40
1.0
 10
5.3437898865
 20
5.5352508025
 30
0.0
 10
5.3139318094
 20
5.5347323959
 30
0.0
 10
5.2560504017
 20
5.533712012
 30
0.0
 10
5.1727809331
 20
5.5321506125
 30
0.0
 10
5.1078933624
 20
5.5308134648
 30
0.0
 10
5.0604748598
 20
5.5297243486
 30
0.0
 10
5.0288881145
 20
5.5289361961
 30
0.0
 10
5.0002879836
 20
5.5281492876
 30
0.0
 10
4.9748794088
 20
5.527364309
 30
0.0
 10
4.9528423558
 20
5.5265824636
 30
0.0
 10
4.9343354463
 20
5.5258043967
 30
0.0
 10
4.9211821361
 20
5.525125516
 30
0.0
 10
4.912523408
 20
5.5245621744
 30
0.0
 10
4.9074501135
 20
5.5241732088
 30
0.0
 10
4.9033443883
 20
5.5237834114
 30
0.0
 10
4.9001965273
 20
5.5234107798
 30
0.0
 10
4.8980425817
 20
5.5230267905
 30
0.0
 10
4.8969062554
 20
5.5227507497
 30
0.0
 10
4.8965468287
 20
5.5225434263
 30
0.0
  0
SPLINE
  5
638
100
AcDbEntity
  8
AXIS
100
AcDbSpline
 62
7
  6
CONTINUOUS
 70
0
 71
3
 72
25
 73
21
 74
0
 42
0.0000001
 43
0.0000001
 44
0.0000000001
 40
0.0
 40
0.0
 40
0.0
 40
0.0
 40
0.2042679545
 40
0.3955672858
 40
0.4845608292
 40
0.5682244251
 40
0.6459282787
 40
0.71709708
 40
0.7812024519
 40
0.8377659355
 40
0.8863700285
 40
0.9266512518
 40
0.9435775162
 40
0.9583195106
 40
0.9708476088
 40
0.9811418715
 40
0.9891902109
 40
0.9949854765
 40
0.9985395212
 40
1.0
 40
1.0
 40
1.0
 40
1.0
 10
5.3437898865
 20
4.7124161568
 30
0.0
 10
5.3132964872
 20
4.7118867195
 30
0.0
 10
5.254245942
 20
4.7108452383
 30
0.0
 10
5.1819118641
 20
4.7094864199
 30
0.0
 10
5.1275829428
 20
4.7083833261
 30
0.0
 10
5.0902117717
 20
4.7075765923
 30
0.0
 10
5.0555025505
 20
4.7067706173
 30
0.0
 10
5.0237142579
 20
4.7059657098
 30
0.0
 10
4.9950834076
 20
4.7051622783
 30
0.0
 10
4.9698228368
 20
4.7043611984
 30
0.0
 10
4.948121574
 20
4.7035632107
 30
0.0
 10
4.9323379008
 20
4.7028691876
 30
0.0
 10
4.9216115424
 20
4.702299558
 30
0.0
 10
4.9150227731
 20
4.7018980658
 30
0.0
 10
4.9094348205
 20
4.7015001313
 30
0.0
 10
4.9048245763
 20
4.7010998553
 30
0.0
 10
4.9012879569
 20
4.7007185137
 30
0.0
 10
4.8986110002
 20
4.7003160301
 30
0.0
 10
4.8972289009
 20
4.7000016587
 30
0.0
 10
4.8963071727
 20
4.6996493141
 30
0.0
 10
4.8963071727
 20
4.6994312589
 30
0.0
  0
SPLINE
  5
639
100
AcDbEntity
  8
AXIS
100
AcDbSpline
 62
7
  6
CONTINUOUS
 70
0
 71
3
 72
21
 73
17
 74
0
 42
0.0000001
 43
0.0000001
 44
0.0000000001
 40
0.0
 40
0.0
 40
0.0
 40
0.0
 40
0.0028286912
 40
0.0076563749
 40
0.0145199953
 40
0.023420983
 40
0.047305218
 40
0.0792287166
 40
0.1190445882
 40
0.1665627831
 40
0.2215718332
 40
0.2838017671
 40
0.428740482
 40
0.5986108177
 40
0.7902760889
 40
1.0
 40
1.0
 40
1.0
 40
1.0
 10
6.0461797512
 20
4.6972073425
 30
0.0
 10
6.0458999823
 20
4.6970455724
 30
0.0
 10
6.0450410242
 20
4.6968141045
 30
0.0
 10
6.0434193409
 20
4.6965038251
 30
0.0
 10
6.0410819511
 20
4.6961973243
 30
0.0
 10
6.036578559
 20
4.6957274977
 30
0.0
 10
6.0292033749
 20
4.6951784407
 30
0.0
 10
6.0182974387
 20
4.6945489024
 30
0.0
 10
6.0046866516
 20
4.6939160963
 30
0.0
 10
5.9884368109
 20
4.6932780698
 30
0.0
 10
5.9696244161
 20
4.6926382843
 30
0.0
 10
5.9396847101
 20
4.6917363755
 30
0.0
 10
5.8966226386
 20
4.6906365665
 30
0.0
 10
5.838772918
 20
4.689365561
 30
0.0
 10
5.7735201218
 20
4.6880905677
 30
0.0
 10
5.7276695801
 20
4.6872699511
 30
0.0
 10
5.7037126742
 20
4.6868540027
 30
0.0
  0
SPLINE
  5
63A
100
AcDbEntity
  8
AXIS
100
AcDbSpline
 62
7
  6
CONTINUOUS
 70
0
 71
3
 72
21
 73
17
 74
0
 42
0.0000001
 43
0.0000001
 44
0.0000000001
 40
0.0
 40
0.0
 40
0.0
 40
0.0
 40
0.0028286912
 40
0.0076563749
 40
0.0145199953
 40
0.023420983
 40
0.047305218
 40
0.0792287166
 40
0.1190445882
 40
0.1665627831
 40
0.2215718332
 40
0.2838017671
 40
0.428740482
 40
0.5986108177
 40
0.7902760889
 40
1.0
 40
1.0
 40
1.0
 40
1.0
 10
6.0461797512
 20
4.7562624606
 30
0.0
 10
6.0458999823
 20
4.7561006905
 30
0.0
 10
6.0450410242
 20
4.7558692226
 30
0.0
 10
6.0434193409
 20
4.7555589432
 30
0.0
 10
6.0410819511
 20
4.7552524424
 30
0.0
 10
6.036578559
 20
4.7547826158
 30
0.0
 10
6.0292033749
 20
4.7542335588
 30
0.0
 10
6.0182974387
 20
4.7536040205
 30
0.0
 10
6.0046866516
 20
4.7529712144
 30
0.0
 10
5.9884368109
 20
4.7523331879
 30
0.0
 10
5.9696244161
 20
4.7516934024
 30
0.0
 10
5.9396847101
 20
4.7507914937
 30
0.0
 10
5.8966226386
 20
4.7496916846
 30
0.0
 10
5.838772918
 20
4.7484206791
 30
0.0
 10
5.7735201218
 20
4.7471456858
 30
0.0
 10
5.7276695801
 20
4.7463250692
 30
0.0
 10
5.7037126742
 20
4.7459091208
 30
0.0
  0
SPLINE
  5
63B
100
AcDbEntity
  8
AXIS
100
AcDbSpline
 62
7
  6
CONTINUOUS
 70
0
 71
3
 72
23
 73
19
 74
0
 42
0.0000001
 43
0.0000001
 44
0.0000000001
 40
0.0
 40
0.0
 40
0.0
 40
0.0
 40
0.0027781256
 40
0.0076863956
 40
0.0147539733
 40
0.0239776478
 40
0.0353474136
 40
0.0488488846
 40
0.0821425566
 40
0.1236283105
 40
0.1730130677
 40
0.2299481126
 40
0.2940259832
 40
0.36479263
 40
0.4417419388
 40
0.6119597365
 40
0.79982597
 40
1.0
 40
1.0
 40
1.0
 40
1.0
 10
5.9984273559
 20
4.7286812981
 30
0.0
 10
5.9980685514
 20
4.7284738522
 30
0.0
 10
5.9969324321
 20
4.728197708
 30
0.0
 10
5.9947783614
 20
4.7278139444
 30
0.0
 10
5.9916299562
 20
4.7274414391
 30
0.0
 10
5.9875244318
 20
4.7270515364
 30
0.0
 10
5.9824516054
 20
4.7266624585
 30
0.0
 10
5.973792881
 20
4.7260992584
 30
0.0
 10
5.9606393547
 20
4.725420358
 30
0.0
 10
5.942132196
 20
4.724642219
 30
0.0
 10
5.9200953914
 20
4.7238604531
 30
0.0
 10
5.8946865664
 20
4.7230754032
 30
0.0
 10
5.8660865549
 20
4.7222885517
 30
0.0
 10
5.8344997346
 20
4.7215003588
 30
0.0
 10
5.7870810178
 20
4.7204112664
 30
0.0
 10
5.7221939252
 20
4.7190741183
 30
0.0
 10
5.6389243736
 20
4.7175127132
 30
0.0
 10
5.5810432658
 20
4.7164923362
 30
0.0
 10
5.5511846454
 20
4.7159739201
 30
0.0
  0
SPLINE
  5
63C
100
AcDbEntity
  8
AXIS
100
AcDbSpline
 62
7
  6
CONTINUOUS
 70
0
 71
3
 72
21
 73
17
 74
0
 42
0.0000001
 43
0.0000001
 44
0.0000000001
 40
0.0
 40
0.0
 40
0.0
 40
0.0
 40
0.0028593578
 40
0.0077021802
 40
0.0145664298
 40
0.0234544043
 40
0.0472739306
 40
0.0790859064
 40
0.1187552501
 40
0.1660993203
 40
0.2209207219
 40
0.2829652149
 40
0.4276002058
 40
0.5973883413
 40
0.7893370159
 40
1.0
 40
1.0
 40
1.0
 40
1.0
 10
6.0461797512
 20
4.8153175787
 30
0.0
 10
6.0459098691
 20
4.8151615254
 30
0.0
 10
6.0450868756
 20
4.8149350545
 30
0.0
 10
6.0435348138
 20
4.8146333306
 30
0.0
 10
6.0413049347
 20
4.8143344042
 30
0.0
 10
6.03701653
 20
4.8138773084
 30
0.0
 10
6.0299998322
 20
4.8133425176
 30
0.0
 10
6.0196280512
 20
4.8127295589
 30
0.0
 10
6.0066868248
 20
4.8121134261
 30
0.0
 10
5.9912353033
 20
4.8114922134
 30
0.0
 10
5.9733424738
 20
4.8108693042
 30
0.0
 10
5.944844925
 20
4.809990942
 30
0.0
 10
5.9038130109
 20
4.8089196901
 30
0.0
 10
5.8486178801
 20
4.8076820728
 30
0.0
 10
5.7862223011
 20
4.8064403727
 30
0.0
 10
5.7423334008
 20
4.805642483
 30
0.0
 10
5.7193686972
 20
4.8052379972
 30
0.0
  0
LINE
  5
63D
100
AcDbEntity
  8
AXIS
100
AcDbLine
 62
7
  6
CONTINUOUS
 10
5.7193686972
 20
4.8052379972
 11
5.7037126742
 21
4.804964239
  0
SPLINE
  5
63E
100
AcDbEntity
  8
AXIS
100
AcDbSpline
 62
7
  6
CONTINUOUS
 70
0
 71
3
 72
23
 73
19
 74
0
 42
0.0000001
 43
0.0000001
 44
0.0000000001
 40
0.0
 40
0.0
 40
0.0
 40
0.0
 40
0.0027781256
 40
0.0076863956
 40
0.0147539733
 40
0.0239776478
 40
0.0353474136
 40
0.0488488846
 40
0.0821425566
 40
0.1236283105
 40
0.1730130677
 40
0.2299481126
 40
0.2940259832
 40
0.36479263
 40
0.4417419388
 40
0.6119597365
 40
0.79982597
 40
1.0
 40
1.0
 40
1.0
 40
1.0
 10
5.9984273559
 20
4.7877364163
 30
0.0
 10
5.9980685514
 20
4.7875289703
 30
0.0
 10
5.9969324321
 20
4.7872528261
 30
0.0
 10
5.9947783614
 20
4.7868690625
 30
0.0
 10
5.9916299562
 20
4.7864965573
 30
0.0
 10
5.9875244318
 20
4.7861066545
 30
0.0
 10
5.9824516054
 20
4.7857175766
 30
0.0
 10
5.973792881
 20
4.7851543765
 30
0.0
 10
5.9606393547
 20
4.7844754761
 30
0.0
 10
5.942132196
 20
4.7836973371
 30
0.0
 10
5.9200953914
 20
4.7829155712
 30
0.0
 10
5.8946865664
 20
4.7821305213
 30
0.0
 10
5.8660865549
 20
4.7813436698
 30
0.0
 10
5.8344997346
 20
4.7805554769
 30
0.0
 10
5.7870810178
 20
4.7794663845
 30
0.0
 10
5.7221939252
 20
4.7781292364
 30
0.0
 10
5.6389243736
 20
4.7765678313
 30
0.0
 10
5.5810432658
 20
4.7755474543
 30
0.0
 10
5.5511846454
 20
4.7750290382
 30
0.0
  0
SPLINE
  5
63F
100
AcDbEntity
  8
AXIS
100
AcDbSpline
 62
7
  6
CONTINUOUS
 70
0
 71
3
 72
20
 73
16
 74
0
 42
0.0000001
 43
0.0000001
 44
0.0000000001
 40
0.0
 40
0.0
 40
0.0
 40
0.0
 40
0.0031125093
 40
0.0081167679
 40
0.0239378278
 40
0.0475237846
 40
0.0788245172
 40
0.117767558
 40
0.1642279548
 40
0.2180582892
 40
0.279106003
 40
0.4220568796
 40
0.5913201699
 40
0.7847581083
 40
1.0
 40
1.0
 40
1.0
 40
1.0
 10
6.0461797512
 20
4.8743726968
 30
0.0
 10
6.0459678625
 20
4.8742501769
 30
0.0
 10
6.045350832
 20
4.8740567614
 30
0.0
 10
6.0435151198
 20
4.8736616836
 30
0.0
 10
6.0400396996
 20
4.8732337953
 30
0.0
 10
6.0345063244
 20
4.8727265715
 30
0.0
 10
6.0271429242
 20
4.8722210313
 30
0.0
 10
6.0179805757
 20
4.8717058464
 30
0.0
 10
6.0070433711
 20
4.8711893928
 30
0.0
 10
5.9943667073
 20
4.8706703683
 30
0.0
 10
5.9741047311
 20
4.8699381492
 30
0.0
 10
5.9447656635
 20
4.869044081
 30
0.0
 10
5.9050155679
 20
4.8680129873
 30
0.0
 10
5.8595790936
 20
4.8669782536
 30
0.0
 10
5.8274481352
 20
4.8663190344
 30
0.0
 10
5.8105252718
 20
4.8659851187
 30
0.0
  0
LINE
  5
640
100
AcDbEntity
  8
AXIS
100
AcDbLine
 62
7
  6
CONTINUOUS
 10
5.8105252718
 20
4.8659851187
 11
5.8099548985
 21
4.8659738695
  0
SPLINE
  5
641
100
AcDbEntity
  8
AXIS
100
AcDbSpline
 62
7
  6
CONTINUOUS
 70
0
 71
3
 72
23
 73
19
 74
0
 42
0.0000001
 43
0.0000001
 44
0.0000000001
 40
0.0
 40
0.0
 40
0.0
 40
0.0
 40
0.0027813251
 40
0.0076884311
 40
0.0147527985
 40
0.0239775759
 40
0.0353505912
 40
0.048850803
 40
0.0821425197
 40
0.1236299805
 40
0.1730132183
 40
0.2299496659
 40
0.2940258525
 40
0.3647934709
 40
0.4417428484
 40
0.6119579721
 40
0.799829739
 40
1.0
 40
1.0
 40
1.0
 40
1.0
 10
5.9984277032
 20
4.8467915325
 30
0.0
 10
5.9980682764
 20
4.8465842091
 30
0.0
 10
5.9969319501
 20
4.8463081684
 30
0.0
 10
5.9947780046
 20
4.845924179
 30
0.0
 10
5.9916301435
 20
4.8455515475
 30
0.0
 10
5.9875244184
 20
4.84516175
 30
0.0
 10
5.9824511239
 20
4.8447727844
 30
0.0
 10
5.9737923958
 20
4.8442094429
 30
0.0
 10
5.9606390856
 20
4.8435305621
 30
0.0
 10
5.942132176
 20
4.8427524952
 30
0.0
 10
5.9200951231
 20
4.8419706498
 30
0.0
 10
5.8946865483
 20
4.8411856712
 30
0.0
 10
5.8660864174
 20
4.8403987627
 30
0.0
 10
5.8344996721
 20
4.8396106103
 30
0.0
 10
5.7870811695
 20
4.838521494
 30
0.0
 10
5.7221935988
 20
4.8371843464
 30
0.0
 10
5.6389241302
 20
4.8356229468
 30
0.0
 10
5.5810427225
 20
4.834602563
 30
0.0
 10
5.5511846454
 20
4.8340841563
 30
0.0
  0
SPLINE
  5
642
100
AcDbEntity
  8
AXIS
100
AcDbSpline
 62
7
  6
CONTINUOUS
 70
0
 71
3
 72
8
 73
4
 74
0
 42
0.0000001
 43
0.0000001
 44
0.0000000001
 40
0.0
 40
0.0
 40
0.0
 40
0.0
 40
1.0
 40
1.0
 40
1.0
 40
1.0
 10
5.3437898865
 20
5.4801326923
 30
0.0
 10
5.292475015
 20
5.4848471409
 30
0.0
 10
5.2414505997
 20
5.4936309009
 30
0.0
 10
5.1912618577
 20
5.5053156018
 30
0.0
  0
SPLINE
  5
643
100
AcDbEntity
  8
AXIS
100
AcDbSpline
 62
7
  6
CONTINUOUS
 70
0
 71
3
 72
8
 73
4
 74
0
 42
0.0000001
 43
0.0000001
 44
0.0000000001
 40
0.0
 40
0.0
 40
0.0
 40
0.0
 40
1.0
 40
1.0
 40
1.0
 40
1.0
 10
5.7037126742
 20
5.4545705382
 30
0.0
 10
5.6535817576
 20
5.4414771276
 30
0.0
 10
5.6025948132
 20
5.4310805566
 30
0.0
 10
5.5511846454
 20
5.4246353375
 30
0.0
  0
SPLINE
  5
644
100
AcDbEntity
  8
AXIS
100
AcDbSpline
 62
7
  6
CONTINUOUS
 70
0
 71
3
 72
8
 73
4
 74
0
 42
0.0000001
 43
0.0000001
 44
0.0000000001
 40
0.0
 40
0.0
 40
0.0
 40
0.0
 40
1.0
 40
1.0
 40
1.0
 40
1.0
 10
5.3437898865
 20
5.4210775741
 30
0.0
 10
5.292475015
 20
5.4257920227
 30
0.0
 10
5.2414505997
 20
5.4345757828
 30
0.0
 10
5.1912618577
 20
5.4462604837
 30
0.0
  0
SPLINE
  5
645
100
AcDbEntity
  8
AXIS
100
AcDbSpline
 62
7
  6
CONTINUOUS
 70
0
 71
3
 72
8
 73
4
 74
0
 42
0.0000001
 43
0.0000001
 44
0.0000000001
 40
0.0
 40
0.0
 40
0.0
 40
0.0
 40
1.0
 40
1.0
 40
1.0
 40
1.0
 10
5.7037126742
 20
5.3955154201
 30
0.0
 10
5.6535817576
 20
5.3824220095
 30
0.0
 10
5.6025948132
 20
5.3720254385
 30
0.0
 10
5.5511846454
 20
5.3655802193
 30
0.0
  0
SPLINE
  5
646
100
AcDbEntity
  8
AXIS
100
AcDbSpline
 62
7
  6
CONTINUOUS
 70
0
 71
3
 72
8
 73
4
 74
0
 42
0.0000001
 43
0.0000001
 44
0.0000000001
 40
0.0
 40
0.0
 40
0.0
 40
0.0
 40
1.0
 40
1.0
 40
1.0
 40
1.0
 10
5.7037126742
 20
5.336460302
 30
0.0
 10
5.6535817576
 20
5.3233668914
 30
0.0
 10
5.6025948132
 20
5.3129703204
 30
0.0
 10
5.5511846454
 20
5.3065251012
 30
0.0
  0
SPLINE
  5
647
100
AcDbEntity
  8
AXIS
100
AcDbSpline
 62
7
  6
CONTINUOUS
 70
0
 71
3
 72
8
 73
4
 74
0
 42
0.0000001
 43
0.0000001
 44
0.0000000001
 40
0.0
 40
0.0
 40
0.0
 40
0.0
 40
1.0
 40
1.0
 40
1.0
 40
1.0
 10
5.3437898865
 20
5.362022456
 30
0.0
 10
5.292475015
 20
5.3667369046
 30
0.0
 10
5.2414505997
 20
5.3755206647
 30
0.0
 10
5.1912618577
 20
5.3872053656
 30
0.0
  0
SPLINE
  5
648
100
AcDbEntity
  8
AXIS
100
AcDbSpline
 62
7
  6
CONTINUOUS
 70
0
 71
3
 72
8
 73
4
 74
0
 42
0.0000001
 43
0.0000001
 44
0.0000000001
 40
0.0
 40
0.0
 40
0.0
 40
0.0
 40
1.0
 40
1.0
 40
1.0
 40
1.0
 10
5.3437898865
 20
5.3029673379
 30
0.0
 10
5.292475015
 20
5.3076817865
 30
0.0
 10
5.2414505997
 20
5.3164655466
 30
0.0
 10
5.1912618577
 20
5.3281502474
 30
0.0
  0
SPLINE
  5
649
100
AcDbEntity
  8
AXIS
100
AcDbSpline
 62
7
  6
CONTINUOUS
 70
0
 71
3
 72
8
 73
4
 74
0
 42
0.0000001
 43
0.0000001
 44
0.0000000001
 40
0.0
 40
0.0
 40
0.0
 40
0.0
 40
1.0
 40
1.0
 40
1.0
 40
1.0
 10
5.1912618577
 20
5.5053156018
 30
0.0
 10
5.2413927743
 20
5.5184090123
 30
0.0
 10
5.2923797187
 20
5.5288055833
 30
0.0
 10
5.3437898865
 20
5.5352508025
 30
0.0
  0
SPLINE
  5
64A
100
AcDbEntity
  8
AXIS
100
AcDbSpline
 62
7
  6
CONTINUOUS
 70
0
 71
3
 72
21
 73
17
 74
0
 42
0.0000001
 43
0.0000001
 44
0.0000000001
 40
0.0
 40
0.0
 40
0.0
 40
0.0
 40
0.2097239111
 40
0.4013891824
 40
0.5712595181
 40
0.716198233
 40
0.7784281669
 40
0.833437217
 40
0.8809554119
 40
0.9207712835
 40
0.9526947821
 40
0.976579017
 40
0.9854800048
 40
0.9923436251
 40
0.9971713089
 40
1.0
 40
1.0
 40
1.0
 40
1.0
 10
5.1912618577
 20
5.5053156018
 30
0.0
 10
5.1673049517
 20
5.5048996534
 30
0.0
 10
5.12145441
 20
5.5040790368
 30
0.0
 10
5.0562016138
 20
5.5028040435
 30
0.0
 10
4.9983518933
 20
5.501533038
 30
0.0
 10
4.9552898217
 20
5.500433229
 30
0.0
 10
4.9253501157
 20
5.4995313202
 30
0.0
 10
4.9065377209
 20
5.4988915347
 30
0.0
 10
4.8902878803
 20
5.4982535082
 30
0.0
 10
4.8766770931
 20
5.4976207021
 30
0.0
 10
4.865771157
 20
5.4969911638
 30
0.0
 10
4.8583959729
 20
5.4964421068
 30
0.0
 10
4.8538925807
 20
5.4959722802
 30
0.0
 10
4.8515551909
 20
5.4956657794
 30
0.0
 10
4.8499335076
 20
5.4953555
 30
0.0
 10
4.8490745495
 20
5.4951240321
 30
0.0
 10
4.8487947807
 20
5.494962262
 30
0.0
  0
SPLINE
  5
64B
100
AcDbEntity
  8
AXIS
100
AcDbSpline
 62
7
  6
CONTINUOUS
 70
0
 71
3
 72
8
 73
4
 74
0
 42
0.0000001
 43
0.0000001
 44
0.0000000001
 40
0.0
 40
0.0
 40
0.0
 40
0.0
 40
1.0
 40
1.0
 40
1.0
 40
1.0
 10
5.5511846454
 20
5.4797534477
 30
0.0
 10
5.6024995168
 20
5.4750389991
 30
0.0
 10
5.6535239322
 20
5.466255239
 30
0.0
 10
5.7037126742
 20
5.4545705382
 30
0.0
  0
SPLINE
  5
64C
100
AcDbEntity
  8
AXIS
100
AcDbSpline
 62
7
  6
CONTINUOUS
 70
0
 71
3
 72
8
 73
4
 74
0
 42
0.0000001
 43
0.0000001
 44
0.0000000001
 40
0.0
 40
0.0
 40
0.0
 40
0.0
 40
1.0
 40
1.0
 40
1.0
 40
1.0
 10
5.1912618577
 20
5.4462604837
 30
0.0
 10
5.2413927743
 20
5.4593538942
 30
0.0
 10
5.2923797187
 20
5.4697504652
 30
0.0
 10
5.3437898865
 20
5.4761956844
 30
0.0
  0
SPLINE
  5
64D
100
AcDbEntity
  8
AXIS
100
AcDbSpline
 62
7
  6
CONTINUOUS
 70
0
 71
3
 72
21
 73
17
 74
0
 42
0.0000001
 43
0.0000001
 44
0.0000000001
 40
0.0
 40
0.0
 40
0.0
 40
0.0
 40
0.2097239111
 40
0.4013891824
 40
0.5712595181
 40
0.716198233
 40
0.7784281669
 40
0.833437217
 40
0.8809554119
 40
0.9207712835
 40
0.9526947821
 40
0.976579017
 40
0.9854800048
 40
0.9923436251
 40
0.9971713089
 40
1.0
 40
1.0
 40
1.0
 40
1.0
 10
5.1912618577
 20
5.4462604837
 30
0.0
 10
5.1673049517
 20
5.4458445353
 30
0.0
 10
5.12145441
 20
5.4450239187
 30
0.0
 10
5.0562016138
 20
5.4437489254
 30
0.0
 10
4.9983518933
 20
5.4424779199
 30
0.0
 10
4.9552898217
 20
5.4413781109
 30
0.0
 10
4.9253501157
 20
5.4404762021
 30
0.0
 10
4.9065377209
 20
5.4398364166
 30
0.0
 10
4.8902878803
 20
5.4391983901
 30
0.0
 10
4.8766770931
 20
5.438565584
 30
0.0
 10
4.865771157
 20
5.4379360457
 30
0.0
 10
4.8583959729
 20
5.4373869887
 30
0.0
 10
4.8538925807
 20
5.4369171621
 30
0.0
 10
4.8515551909
 20
5.4366106613
 30
0.0
 10
4.8499335076
 20
5.4363003819
 30
0.0
 10
4.8490745495
 20
5.436068914
 30
0.0
 10
4.8487947807
 20
5.4359071439
 30
0.0
  0
SPLINE
  5
64E
100
AcDbEntity
  8
AXIS
100
AcDbSpline
 62
7
  6
CONTINUOUS
 70
0
 71
3
 72
8
 73
4
 74
0
 42
0.0000001
 43
0.0000001
 44
0.0000000001
 40
0.0
 40
0.0
 40
0.0
 40
0.0
 40
1.0
 40
1.0
 40
1.0
 40
1.0
 10
5.5511846454
 20
5.4206983296
 30
0.0
 10
5.6024995168
 20
5.415983881
 30
0.0
 10
5.6535239322
 20
5.4072001209
 30
0.0
 10
5.7037126742
 20
5.3955154201
 30
0.0
  0
SPLINE
  5
64F
100
AcDbEntity
  8
AXIS
100
AcDbSpline
 62
7
  6
CONTINUOUS
 70
0
 71
3
 72
21
 73
17
 74
0
 42
0.0000001
 43
0.0000001
 44
0.0000000001
 40
0.0
 40
0.0
 40
0.0
 40
0.0
 40
0.0028286912
 40
0.0076563749
 40
0.0145199953
 40
0.023420983
 40
0.047305218
 40
0.0792287166
 40
0.1190445882
 40
0.1665627831
 40
0.2215718332
 40
0.2838017671
 40
0.428740482
 40
0.5986108177
 40
0.7902760889
 40
1.0
 40
1.0
 40
1.0
 40
1.0
 10
6.0461797512
 20
4.9334278149
 30
0.0
 10
6.0458999823
 20
4.9332660448
 30
0.0
 10
6.0450410242
 20
4.933034577
 30
0.0
 10
6.0434193409
 20
4.9327242976
 30
0.0
 10
6.0410819511
 20
4.9324177967
 30
0.0
 10
6.036578559
 20
4.9319479701
 30
0.0
 10
6.0292033749
 20
4.9313989132
 30
0.0
 10
6.0182974387
 20
4.9307693749
 30
0.0
 10
6.0046866516
 20
4.9301365687
 30
0.0
 10
5.9884368109
 20
4.9294985422
 30
0.0
 10
5.9696244161
 20
4.9288587567
 30
0.0
 10
5.9396847101
 20
4.927956848
 30
0.0
 10
5.8966226386
 20
4.9268570389
 30
0.0
 10
5.838772918
 20
4.9255860335
 30
0.0
 10
5.7735201218
 20
4.9243110401
 30
0.0
 10
5.7276695801
 20
4.9234904235
 30
0.0
 10
5.7037126742
 20
4.9230744752
 30
0.0
  0
SPLINE
  5
650
100
AcDbEntity
  8
AXIS
100
AcDbSpline
 62
7
  6
CONTINUOUS
 70
0
 71
3
 72
23
 73
19
 74
0
 42
0.0000001
 43
0.0000001
 44
0.0000000001
 40
0.0
 40
0.0
 40
0.0
 40
0.0
 40
0.0027781256
 40
0.0076863956
 40
0.0147539733
 40
0.0239776478
 40
0.0353474136
 40
0.0488488846
 40
0.0821425566
 40
0.1236283105
 40
0.1730130677
 40
0.2299481126
 40
0.2940259832
 40
0.36479263
 40
0.4417419388
 40
0.6119597365
 40
0.79982597
 40
1.0
 40
1.0
 40
1.0
 40
1.0
 10
5.9984273559
 20
4.9058466525
 30
0.0
 10
5.9980685514
 20
4.9056392066
 30
0.0
 10
5.9969324321
 20
4.9053630623
 30
0.0
 10
5.9947783614
 20
4.9049792987
 30
0.0
 10
5.9916299562
 20
4.9046067935
 30
0.0
 10
5.9875244318
 20
4.9042168907
 30
0.0
 10
5.9824516054
 20
4.9038278128
 30
0.0
 10
5.973792881
 20
4.9032646127
 30
0.0
 10
5.9606393547
 20
4.9025857124
 30
0.0
 10
5.942132196
 20
4.9018075733
 30
0.0
 10
5.9200953914
 20
4.9010258074
 30
0.0
 10
5.8946865664
 20
4.9002407576
 30
0.0
 10
5.8660865549
 20
4.899453906
 30
0.0
 10
5.8344997346
 20
4.8986657131
 30
0.0
 10
5.7870810178
 20
4.8975766207
 30
0.0
 10
5.7221939252
 20
4.8962394726
 30
0.0
 10
5.6389243736
 20
4.8946780676
 30
0.0
 10
5.5810432658
 20
4.8936576905
 30
0.0
 10
5.5511846454
 20
4.8931392745
 30
0.0
  0
SPLINE
  5
651
100
AcDbEntity
  8
AXIS
100
AcDbSpline
 62
7
  6
CONTINUOUS
 70
0
 71
3
 72
8
 73
4
 74
0
 42
0.0000001
 43
0.0000001
 44
0.0000000001
 40
0.0
 40
0.0
 40
0.0
 40
0.0
 40
1.0
 40
1.0
 40
1.0
 40
1.0
 10
5.1912618577
 20
5.3872053656
 30
0.0
 10
5.2413927743
 20
5.4002987761
 30
0.0
 10
5.2923797187
 20
5.4106953471
 30
0.0
 10
5.3437898865
 20
5.4171405663
 30
0.0
  0
LINE
  5
652
100
AcDbEntity
  8
AXIS
100
AcDbLine
 62
7
  6
CONTINUOUS
 10
5.1912618577
 20
5.3872053656
 11
5.1704667993
 21
5.3868408669
  0
SPLINE
  5
653
100
AcDbEntity
  8
AXIS
100
AcDbSpline
 62
7
  6
CONTINUOUS
 70
0
 71
3
 72
21
 73
17
 74
0
 42
0.0000001
 43
0.0000001
 44
0.0000000001
 40
0.0
 40
0.0
 40
0.0
 40
0.0
 40
0.2109607317
 40
0.4030008588
 40
0.5727622612
 40
0.7172987242
 40
0.7792835243
 40
0.8340444413
 40
0.8813328498
 40
0.9209555042
 40
0.9527322755
 40
0.9765319766
 40
0.9854163588
 40
0.9922814784
 40
0.9971299262
 40
1.0
 40
1.0
 40
1.0
 40
1.0
 10
5.1704667993
 20
5.3868408669
 30
0.0
 10
5.1478310477
 20
5.3864401843
 30
0.0
 10
5.1045901295
 20
5.3856498099
 30
0.0
 10
5.0431362891
 20
5.3844191628
 30
0.0
 10
4.9888123044
 20
5.3831926136
 30
0.0
 10
4.9484452059
 20
5.3821308289
 30
0.0
 10
4.9204191301
 20
5.3812602799
 30
0.0
 10
4.9028264944
 20
5.3806429584
 30
0.0
 10
4.8876354315
 20
5.3800273209
 30
0.0
 10
4.8749125407
 20
5.379416712
 30
0.0
 10
4.8647149071
 20
5.3788092453
 30
0.0
 10
4.857815073
 20
5.3782791863
 30
0.0
 10
4.853596767
 20
5.3778263041
 30
0.0
 10
4.851401964
 20
5.3775298964
 30
0.0
 10
4.849872656
 20
5.3772309923
 30
0.0
 10
4.8490614174
 20
5.3770062025
 30
0.0
 10
4.8487947807
 20
5.3768520258
 30
0.0
  0
SPLINE
  5
654
100
AcDbEntity
  8
AXIS
100
AcDbSpline
 62
7
  6
CONTINUOUS
 70
0
 71
3
 72
21
 73
17
 74
0
 42
0.0000001
 43
0.0000001
 44
0.0000000001
 40
0.0
 40
0.0
 40
0.0
 40
0.0
 40
0.0028286912
 40
0.0076563749
 40
0.0145199953
 40
0.023420983
 40
0.047305218
 40
0.0792287166
 40
0.1190445882
 40
0.1665627831
 40
0.2215718332
 40
0.2838017671
 40
0.428740482
 40
0.5986108177
 40
0.7902760889
 40
1.0
 40
1.0
 40
1.0
 40
1.0
 10
6.0461797512
 20
4.992482933
 30
0.0
 10
6.0458999823
 20
4.9923211629
 30
0.0
 10
6.0450410242
 20
4.9920896951
 30
0.0
 10
6.0434193409
 20
4.9917794157
 30
0.0
 10
6.0410819511
 20
4.9914729148
 30
0.0
 10
6.036578559
 20
4.9910030882
 30
0.0
 10
6.0292033749
 20
4.9904540313
 30
0.0
 10
6.0182974387
 20
4.989824493
 30
0.0
 10
6.0046866516
 20
4.9891916868
 30
0.0
 10
5.9884368109
 20
4.9885536603
 30
0.0
 10
5.9696244161
 20
4.9879138749
 30
0.0
 10
5.9396847101
 20
4.9870119661
 30
0.0
 10
5.8966226386
 20
4.985912157
 30
0.0
 10
5.838772918
 20
4.9846411516
 30
0.0
 10
5.7735201218
 20
4.9833661582
 30
0.0
 10
5.7276695801
 20
4.9825455417
 30
0.0
 10
5.7037126742
 20
4.9821295933
 30
0.0
  0
SPLINE
  5
655
100
AcDbEntity
  8
AXIS
100
AcDbSpline
 62
7
  6
CONTINUOUS
 70
0
 71
3
 72
23
 73
19
 74
0
 42
0.0000001
 43
0.0000001
 44
0.0000000001
 40
0.0
 40
0.0
 40
0.0
 40
0.0
 40
0.0027781256
 40
0.0076863956
 40
0.0147539733
 40
0.0239776478
 40
0.0353474136
 40
0.0488488846
 40
0.0821425566
 40
0.1236283105
 40
0.1730130677
 40
0.2299481126
 40
0.2940259832
 40
0.36479263
 40
0.4417419388
 40
0.6119597365
 40
0.79982597
 40
1.0
 40
1.0
 40
1.0
 40
1.0
 10
5.9984273559
 20
4.9649017706
 30
0.0
 10
5.9980685514
 20
4.9646943247
 30
0.0
 10
5.9969324321
 20
4.9644181804
 30
0.0
 10
5.9947783614
 20
4.9640344168
 30
0.0
 10
5.9916299562
 20
4.9636619116
 30
0.0
 10
5.9875244318
 20
4.9632720088
 30
0.0
 10
5.9824516054
 20
4.9628829309
 30
0.0
 10
5.973792881
 20
4.9623197308
 30
0.0
 10
5.9606393547
 20
4.9616408305
 30
0.0
 10
5.942132196
 20
4.9608626914
 30
0.0
 10
5.9200953914
 20
4.9600809255
 30
0.0
 10
5.8946865664
 20
4.9592958757
 30
0.0
 10
5.8660865549
 20
4.9585090241
 30
0.0
 10
5.8344997346
 20
4.9577208312
 30
0.0
 10
5.7870810178
 20
4.9566317388
 30
0.0
 10
5.7221939252
 20
4.9552945907
 30
0.0
 10
5.6389243736
 20
4.9537331857
 30
0.0
 10
5.5810432658
 20
4.9527128086
 30
0.0
 10
5.5511846454
 20
4.9521943926
 30
0.0
  0
SPLINE
  5
656
100
AcDbEntity
  8
AXIS
100
AcDbSpline
 62
7
  6
CONTINUOUS
 70
0
 71
3
 72
21
 73
17
 74
0
 42
0.0000001
 43
0.0000001
 44
0.0000000001
 40
0.0
 40
0.0
 40
0.0
 40
0.0
 40
0.0028286912
 40
0.0076563749
 40
0.0145199953
 40
0.023420983
 40
0.047305218
 40
0.0792287166
 40
0.1190445882
 40
0.1665627831
 40
0.2215718332
 40
0.2838017671
 40
0.428740482
 40
0.5986108177
 40
0.7902760889
 40
1.0
 40
1.0
 40
1.0
 40
1.0
 10
6.0461797512
 20
5.0515380511
 30
0.0
 10
6.0458999823
 20
5.0513762811
 30
0.0
 10
6.0450410242
 20
5.0511448132
 30
0.0
 10
6.0434193409
 20
5.0508345338
 30
0.0
 10
6.0410819511
 20
5.0505280329
 30
0.0
 10
6.036578559
 20
5.0500582064
 30
0.0
 10
6.0292033749
 20
5.0495091494
 30
0.0
 10
6.0182974387
 20
5.0488796111
 30
0.0
 10
6.0046866516
 20
5.0482468049
 30
0.0
 10
5.9884368109
 20
5.0476087784
 30
0.0
 10
5.9696244161
 20
5.046968993
 30
0.0
 10
5.9396847101
 20
5.0460670842
 30
0.0
 10
5.8966226386
 20
5.0449672751
 30
0.0
 10
5.838772918
 20
5.0436962697
 30
0.0
 10
5.7735201218
 20
5.0424212764
 30
0.0
 10
5.7276695801
 20
5.0416006598
 30
0.0
 10
5.7037126742
 20
5.0411847114
 30
0.0
  0
SPLINE
  5
657
100
AcDbEntity
  8
AXIS
100
AcDbSpline
 62
7
  6
CONTINUOUS
 70
0
 71
3
 72
23
 73
19
 74
0
 42
0.0000001
 43
0.0000001
 44
0.0000000001
 40
0.0
 40
0.0
 40
0.0
 40
0.0
 40
0.0027781256
 40
0.0076863956
 40
0.0147539733
 40
0.0239776478
 40
0.0353474136
 40
0.0488488846
 40
0.0821425566
 40
0.1236283105
 40
0.1730130677
 40
0.2299481126
 40
0.2940259832
 40
0.36479263
 40
0.4417419388
 40
0.6119597365
 40
0.79982597
 40
1.0
 40
1.0
 40
1.0
 40
1.0
 10
5.9984273559
 20
5.0239568887
 30
0.0
 10
5.9980685514
 20
5.0237494428
 30
0.0
 10
5.9969324321
 20
5.0234732985
 30
0.0
 10
5.9947783614
 20
5.0230895349
 30
0.0
 10
5.9916299562
 20
5.0227170297
 30
0.0
 10
5.9875244318
 20
5.0223271269
 30
0.0
 10
5.9824516054
 20
5.0219380491
 30
0.0
 10
5.973792881
 20
5.0213748489
 30
0.0
 10
5.9606393547
 20
5.0206959486
 30
0.0
 10
5.942132196
 20
5.0199178095
 30
0.0
 10
5.9200953914
 20
5.0191360436
 30
0.0
 10
5.8946865664
 20
5.0183509938
 30
0.0
 10
5.8660865549
 20
5.0175641422
 30
0.0
 10
5.8344997346
 20
5.0167759493
 30
0.0
 10
5.7870810178
 20
5.015686857
 30
0.0
 10
5.7221939252
 20
5.0143497088
 30
0.0
 10
5.6389243736
 20
5.0127883038
 30
0.0
 10
5.5810432658
 20
5.0117679267
 30
0.0
 10
5.5511846454
 20
5.0112495107
 30
0.0
  0
SPLINE
  5
658
100
AcDbEntity
  8
AXIS
100
AcDbSpline
 62
7
  6
CONTINUOUS
 70
0
 71
3
 72
8
 73
4
 74
0
 42
0.0000001
 43
0.0000001
 44
0.0000000001
 40
0.0
 40
0.0
 40
0.0
 40
0.0
 40
1.0
 40
1.0
 40
1.0
 40
1.0
 10
5.5511846454
 20
5.3616432115
 30
0.0
 10
5.6024995168
 20
5.3569287629
 30
0.0
 10
5.6535239322
 20
5.3481450028
 30
0.0
 10
5.7037126742
 20
5.336460302
 30
0.0
  0
SPLINE
  5
659
100
AcDbEntity
  8
AXIS
100
AcDbSpline
 62
7
  6
CONTINUOUS
 70
0
 71
3
 72
8
 73
4
 74
0
 42
0.0000001
 43
0.0000001
 44
0.0000000001
 40
0.0
 40
0.0
 40
0.0
 40
0.0
 40
1.0
 40
1.0
 40
1.0
 40
1.0
 10
5.1912618577
 20
5.3281502474
 30
0.0
 10
5.2413927743
 20
5.341243658
 30
0.0
 10
5.2923797187
 20
5.351640229
 30
0.0
 10
5.3437898865
 20
5.3580854482
 30
0.0
  0
SPLINE
  5
65A
100
AcDbEntity
  8
AXIS
100
AcDbSpline
 62
7
  6
CONTINUOUS
 70
0
 71
3
 72
21
 73
17
 74
0
 42
0.0000001
 43
0.0000001
 44
0.0000000001
 40
0.0
 40
0.0
 40
0.0
 40
0.0
 40
0.2097239111
 40
0.4013891824
 40
0.5712595181
 40
0.716198233
 40
0.7784281669
 40
0.833437217
 40
0.8809554119
 40
0.9207712835
 40
0.9526947821
 40
0.976579017
 40
0.9854800048
 40
0.9923436251
 40
0.9971713089
 40
1.0
 40
1.0
 40
1.0
 40
1.0
 10
5.1912618577
 20
5.3281502474
 30
0.0
 10
5.1673049517
 20
5.3277342991
 30
0.0
 10
5.12145441
 20
5.3269136825
 30
0.0
 10
5.0562016138
 20
5.3256386892
 30
0.0
 10
4.9983518933
 20
5.3243676837
 30
0.0
 10
4.9552898217
 20
5.3232678746
 30
0.0
 10
4.9253501157
 20
5.3223659659
 30
0.0
 10
4.9065377209
 20
5.3217261804
 30
0.0
 10
4.8902878803
 20
5.3210881539
 30
0.0
 10
4.8766770931
 20
5.3204553478
 30
0.0
 10
4.865771157
 20
5.3198258095
 30
0.0
 10
4.8583959729
 20
5.3192767525
 30
0.0
 10
4.8538925807
 20
5.3188069259
 30
0.0
 10
4.8515551909
 20
5.318500425
 30
0.0
 10
4.8499335076
 20
5.3181901457
 30
0.0
 10
4.8490745495
 20
5.3179586778
 30
0.0
 10
4.8487947807
 20
5.3177969077
 30
0.0
  0
SPLINE
  5
65B
100
AcDbEntity
  8
AXIS
100
AcDbSpline
 62
7
  6
CONTINUOUS
 70
0
 71
3
 72
8
 73
4
 74
0
 42
0.0000001
 43
0.0000001
 44
0.0000000001
 40
0.0
 40
0.0
 40
0.0
 40
0.0
 40
1.0
 40
1.0
 40
1.0
 40
1.0
 10
5.3437898865
 20
5.2439122198
 30
0.0
 10
5.292475015
 20
5.2486266684
 30
0.0
 10
5.2414505997
 20
5.2574104285
 30
0.0
 10
5.1912618577
 20
5.2690951293
 30
0.0
  0
SPLINE
  5
65C
100
AcDbEntity
  8
AXIS
100
AcDbSpline
 62
7
  6
CONTINUOUS
 70
0
 71
3
 72
8
 73
4
 74
0
 42
0.0000001
 43
0.0000001
 44
0.0000000001
 40
0.0
 40
0.0
 40
0.0
 40
0.0
 40
1.0
 40
1.0
 40
1.0
 40
1.0
 10
5.7037126742
 20
5.2183500657
 30
0.0
 10
5.6535817576
 20
5.2052566552
 30
0.0
 10
5.6025948132
 20
5.1948600842
 30
0.0
 10
5.5511846454
 20
5.188414865
 30
0.0
  0
SPLINE
  5
65D
100
AcDbEntity
  8
AXIS
100
AcDbSpline
 62
7
  6
CONTINUOUS
 70
0
 71
3
 72
8
 73
4
 74
0
 42
0.0000001
 43
0.0000001
 44
0.0000000001
 40
0.0
 40
0.0
 40
0.0
 40
0.0
 40
1.0
 40
1.0
 40
1.0
 40
1.0
 10
5.3437898865
 20
5.1848571017
 30
0.0
 10
5.292475015
 20
5.1895715503
 30
0.0
 10
5.2414505997
 20
5.1983553104
 30
0.0
 10
5.1912618577
 20
5.2100400112
 30
0.0
  0
SPLINE
  5
65E
100
AcDbEntity
  8
AXIS
100
AcDbSpline
 62
7
  6
CONTINUOUS
 70
0
 71
3
 72
8
 73
4
 74
0
 42
0.0000001
 43
0.0000001
 44
0.0000000001
 40
0.0
 40
0.0
 40
0.0
 40
0.0
 40
1.0
 40
1.0
 40
1.0
 40
1.0
 10
5.7037126742
 20
5.1592949476
 30
0.0
 10
5.6535817576
 20
5.1462015371
 30
0.0
 10
5.6025948132
 20
5.1358049661
 30
0.0
 10
5.5511846454
 20
5.1293597469
 30
0.0
  0
SPLINE
  5
65F
100
AcDbEntity
  8
AXIS
100
AcDbSpline
 62
7
  6
CONTINUOUS
 70
0
 71
3
 72
8
 73
4
 74
0
 42
0.0000001
 43
0.0000001
 44
0.0000000001
 40
0.0
 40
0.0
 40
0.0
 40
0.0
 40
1.0
 40
1.0
 40
1.0
 40
1.0
 10
5.3437898865
 20
5.1258019836
 30
0.0
 10
5.292475015
 20
5.1305164322
 30
0.0
 10
5.2414505997
 20
5.1393001923
 30
0.0
 10
5.1912618577
 20
5.1509848931
 30
0.0
  0
SPLINE
  5
660
100
AcDbEntity
  8
AXIS
100
AcDbSpline
 62
7
  6
CONTINUOUS
 70
0
 71
3
 72
8
 73
4
 74
0
 42
0.0000001
 43
0.0000001
 44
0.0000000001
 40
0.0
 40
0.0
 40
0.0
 40
0.0
 40
1.0
 40
1.0
 40
1.0
 40
1.0
 10
5.7037126742
 20
5.1002398295
 30
0.0
 10
5.6535817576
 20
5.087146419
 30
0.0
 10
5.6025948132
 20
5.076749848
 30
0.0
 10
5.5511846454
 20
5.0703046288
 30
0.0
  0
SPLINE
  5
661
100
AcDbEntity
  8
AXIS
100
AcDbSpline
 62
7
  6
CONTINUOUS
 70
0
 71
3
 72
8
 73
4
 74
0
 42
0.0000001
 43
0.0000001
 44
0.0000000001
 40
0.0
 40
0.0
 40
0.0
 40
0.0
 40
1.0
 40
1.0
 40
1.0
 40
1.0
 10
5.7037126742
 20
5.2774051838
 30
0.0
 10
5.6535817576
 20
5.2643117733
 30
0.0
 10
5.6025948132
 20
5.2539152023
 30
0.0
 10
5.5511846454
 20
5.2474699831
 30
0.0
  0
SPLINE
  5
662
100
AcDbEntity
  8
AXIS
100
AcDbSpline
 62
7
  6
CONTINUOUS
 70
0
 71
3
 72
8
 73
4
 74
0
 42
0.0000001
 43
0.0000001
 44
0.0000000001
 40
0.0
 40
0.0
 40
0.0
 40
0.0
 40
1.0
 40
1.0
 40
1.0
 40
1.0
 10
5.1912618577
 20
5.2690951293
 30
0.0
 10
5.2413927743
 20
5.2821885399
 30
0.0
 10
5.2923797187
 20
5.2925851109
 30
0.0
 10
5.3437898865
 20
5.29903033
 30
0.0
  0
SPLINE
  5
663
100
AcDbEntity
  8
AXIS
100
AcDbSpline
 62
7
  6
CONTINUOUS
 70
0
 71
3
 72
21
 73
17
 74
0
 42
0.0000001
 43
0.0000001
 44
0.0000000001
 40
0.0
 40
0.0
 40
0.0
 40
0.0
 40
0.2097239111
 40
0.4013891824
 40
0.5712595181
 40
0.716198233
 40
0.7784281669
 40
0.833437217
 40
0.8809554119
 40
0.9207712835
 40
0.9526947821
 40
0.976579017
 40
0.9854800048
 40
0.9923436251
 40
0.9971713089
 40
1.0
 40
1.0
 40
1.0
 40
1.0
 10
5.1912618577
 20
5.2690951293
 30
0.0
 10
5.1673049517
 20
5.268679181
 30
0.0
 10
5.12145441
 20
5.2678585644
 30
0.0
 10
5.0562016138
 20
5.2665835711
 30
0.0
 10
4.9983518933
 20
5.2653125656
 30
0.0
 10
4.9552898217
 20
5.2642127565
 30
0.0
 10
4.9253501157
 20
5.2633108478
 30
0.0
 10
4.9065377209
 20
5.2626710623
 30
0.0
 10
4.8902878803
 20
5.2620330358
 30
0.0
 10
4.8766770931
 20
5.2614002296
 30
0.0
 10
4.865771157
 20
5.2607706913
 30
0.0
 10
4.8583959729
 20
5.2602216344
 30
0.0
 10
4.8538925807
 20
5.2597518078
 30
0.0
 10
4.8515551909
 20
5.2594453069
 30
0.0
 10
4.8499335076
 20
5.2591350276
 30
0.0
 10
4.8490745495
 20
5.2589035597
 30
0.0
 10
4.8487947807
 20
5.2587417896
 30
0.0
  0
SPLINE
  5
664
100
AcDbEntity
  8
AXIS
100
AcDbSpline
 62
7
  6
CONTINUOUS
 70
0
 71
3
 72
8
 73
4
 74
0
 42
0.0000001
 43
0.0000001
 44
0.0000000001
 40
0.0
 40
0.0
 40
0.0
 40
0.0
 40
1.0
 40
1.0
 40
1.0
 40
1.0
 10
5.1912618577
 20
5.2100400112
 30
0.0
 10
5.2413927743
 20
5.2231334218
 30
0.0
 10
5.2923797187
 20
5.2335299928
 30
0.0
 10
5.3437898865
 20
5.2399752119
 30
0.0
  0
SPLINE
  5
665
100
AcDbEntity
  8
AXIS
100
AcDbSpline
 62
7
  6
CONTINUOUS
 70
0
 71
3
 72
21
 73
17
 74
0
 42
0.0000001
 43
0.0000001
 44
0.0000000001
 40
0.0
 40
0.0
 40
0.0
 40
0.0
 40
0.2097239111
 40
0.4013891824
 40
0.5712595181
 40
0.716198233
 40
0.7784281669
 40
0.833437217
 40
0.8809554119
 40
0.9207712835
 40
0.9526947821
 40
0.976579017
 40
0.9854800048
 40
0.9923436251
 40
0.9971713089
 40
1.0
 40
1.0
 40
1.0
 40
1.0
 10
5.1912618577
 20
5.2100400112
 30
0.0
 10
5.1673049517
 20
5.2096240629
 30
0.0
 10
5.12145441
 20
5.2088034463
 30
0.0
 10
5.0562016138
 20
5.2075284529
 30
0.0
 10
4.9983518933
 20
5.2062574475
 30
0.0
 10
4.9552898217
 20
5.2051576384
 30
0.0
 10
4.9253501157
 20
5.2042557297
 30
0.0
 10
4.9065377209
 20
5.2036159442
 30
0.0
 10
4.8902878803
 20
5.2029779177
 30
0.0
 10
4.8766770931
 20
5.2023451115
 30
0.0
 10
4.865771157
 20
5.2017155732
 30
0.0
 10
4.8583959729
 20
5.2011665163
 30
0.0
 10
4.8538925807
 20
5.2006966897
 30
0.0
 10
4.8515551909
 20
5.2003901888
 30
0.0
 10
4.8499335076
 20
5.2000799094
 30
0.0
 10
4.8490745495
 20
5.1998484416
 30
0.0
 10
4.8487947807
 20
5.1996866715
 30
0.0
  0
SPLINE
  5
666
100
AcDbEntity
  8
AXIS
100
AcDbSpline
 62
7
  6
CONTINUOUS
 70
0
 71
3
 72
8
 73
4
 74
0
 42
0.0000001
 43
0.0000001
 44
0.0000000001
 40
0.0
 40
0.0
 40
0.0
 40
0.0
 40
1.0
 40
1.0
 40
1.0
 40
1.0
 10
5.5511846454
 20
5.1844778571
 30
0.0
 10
5.6024995168
 20
5.1797634085
 30
0.0
 10
5.6535239322
 20
5.1709796484
 30
0.0
 10
5.7037126742
 20
5.1592949476
 30
0.0
  0
SPLINE
  5
667
100
AcDbEntity
  8
AXIS
100
AcDbSpline
 62
7
  6
CONTINUOUS
 70
0
 71
3
 72
8
 73
4
 74
0
 42
0.0000001
 43
0.0000001
 44
0.0000000001
 40
0.0
 40
0.0
 40
0.0
 40
0.0
 40
1.0
 40
1.0
 40
1.0
 40
1.0
 10
5.1912618577
 20
5.1509848931
 30
0.0
 10
5.2413927743
 20
5.1640783037
 30
0.0
 10
5.2923797187
 20
5.1744748747
 30
0.0
 10
5.3437898865
 20
5.1809200938
 30
0.0
  0
SPLINE
  5
668
100
AcDbEntity
  8
AXIS
100
AcDbSpline
 62
7
  6
CONTINUOUS
 70
0
 71
3
 72
21
 73
17
 74
0
 42
0.0000001
 43
0.0000001
 44
0.0000000001
 40
0.0
 40
0.0
 40
0.0
 40
0.0
 40
0.2097239111
 40
0.4013891824
 40
0.5712595181
 40
0.716198233
 40
0.7784281669
 40
0.833437217
 40
0.8809554119
 40
0.9207712835
 40
0.9526947821
 40
0.976579017
 40
0.9854800048
 40
0.9923436251
 40
0.9971713089
 40
1.0
 40
1.0
 40
1.0
 40
1.0
 10
5.1912618577
 20
5.1509848931
 30
0.0
 10
5.1673049517
 20
5.1505689447
 30
0.0
 10
5.12145441
 20
5.1497483282
 30
0.0
 10
5.0562016138
 20
5.1484733348
 30
0.0
 10
4.9983518933
 20
5.1472023294
 30
0.0
 10
4.9552898217
 20
5.1461025203
 30
0.0
 10
4.9253501157
 20
5.1452006115
 30
0.0
 10
4.9065377209
 20
5.1445608261
 30
0.0
 10
4.8902878803
 20
5.1439227996
 30
0.0
 10
4.8766770931
 20
5.1432899934
 30
0.0
 10
4.865771157
 20
5.1426604551
 30
0.0
 10
4.8583959729
 20
5.1421113981
 30
0.0
 10
4.8538925807
 20
5.1416415716
 30
0.0
 10
4.8515551909
 20
5.1413350707
 30
0.0
 10
4.8499335076
 20
5.1410247913
 30
0.0
 10
4.8490745495
 20
5.1407933235
 30
0.0
 10
4.8487947807
 20
5.1406315534
 30
0.0
  0
SPLINE
  5
669
100
AcDbEntity
  8
AXIS
100
AcDbSpline
 62
7
  6
CONTINUOUS
 70
0
 71
3
 72
8
 73
4
 74
0
 42
0.0000001
 43
0.0000001
 44
0.0000000001
 40
0.0
 40
0.0
 40
0.0
 40
0.0
 40
1.0
 40
1.0
 40
1.0
 40
1.0
 10
5.5511846454
 20
5.125422739
 30
0.0
 10
5.6024995168
 20
5.1207082904
 30
0.0
 10
5.6535239322
 20
5.1119245303
 30
0.0
 10
5.7037126742
 20
5.1002398295
 30
0.0
  0
SPLINE
  5
66A
100
AcDbEntity
  8
AXIS
100
AcDbSpline
 62
7
  6
CONTINUOUS
 70
0
 71
3
 72
21
 73
17
 74
0
 42
0.0000001
 43
0.0000001
 44
0.0000000001
 40
0.0
 40
0.0
 40
0.0
 40
0.0
 40
0.0028286912
 40
0.0076563749
 40
0.0145199953
 40
0.023420983
 40
0.047305218
 40
0.0792287166
 40
0.1190445882
 40
0.1665627831
 40
0.2215718332
 40
0.2838017671
 40
0.428740482
 40
0.5986108177
 40
0.7902760889
 40
1.0
 40
1.0
 40
1.0
 40
1.0
 10
6.0461797512
 20
5.1105931692
 30
0.0
 10
6.0458999823
 20
5.1104313992
 30
0.0
 10
6.0450410242
 20
5.1101999313
 30
0.0
 10
6.0434193409
 20
5.1098896519
 30
0.0
 10
6.0410819511
 20
5.109583151
 30
0.0
 10
6.036578559
 20
5.1091133245
 30
0.0
 10
6.0292033749
 20
5.1085642675
 30
0.0
 10
6.0182974387
 20
5.1079347292
 30
0.0
 10
6.0046866516
 20
5.1073019231
 30
0.0
 10
5.9884368109
 20
5.1066638965
 30
0.0
 10
5.9696244161
 20
5.1060241111
 30
0.0
 10
5.9396847101
 20
5.1051222023
 30
0.0
 10
5.8966226386
 20
5.1040223933
 30
0.0
 10
5.838772918
 20
5.1027513878
 30
0.0
 10
5.7735201218
 20
5.1014763945
 30
0.0
 10
5.7276695801
 20
5.1006557779
 30
0.0
 10
5.7037126742
 20
5.1002398295
 30
0.0
  0
SPLINE
  5
66B
100
AcDbEntity
  8
AXIS
100
AcDbSpline
 62
7
  6
CONTINUOUS
 70
0
 71
3
 72
8
 73
4
 74
0
 42
0.0000001
 43
0.0000001
 44
0.0000000001
 40
0.0
 40
0.0
 40
0.0
 40
0.0
 40
1.0
 40
1.0
 40
1.0
 40
1.0
 10
5.5511846454
 20
5.3025880934
 30
0.0
 10
5.6024995168
 20
5.2978736448
 30
0.0
 10
5.6535239322
 20
5.2890898847
 30
0.0
 10
5.7037126742
 20
5.2774051838
 30
0.0
  0
SPLINE
  5
66C
100
AcDbEntity
  8
AXIS
100
AcDbSpline
 62
7
  6
CONTINUOUS
 70
0
 71
3
 72
21
 73
17
 74
0
 42
0.0000001
 43
0.0000001
 44
0.0000000001
 40
0.0
 40
0.0
 40
0.0
 40
0.0
 40
0.0028286912
 40
0.0076563749
 40
0.0145199953
 40
0.023420983
 40
0.047305218
 40
0.0792287166
 40
0.1190445882
 40
0.1665627831
 40
0.2215718332
 40
0.2838017671
 40
0.428740482
 40
0.5986108177
 40
0.7902760889
 40
1.0
 40
1.0
 40
1.0
 40
1.0
 10
6.0461797512
 20
5.1696482873
 30
0.0
 10
6.0458999823
 20
5.1694865173
 30
0.0
 10
6.0450410242
 20
5.1692550494
 30
0.0
 10
6.0434193409
 20
5.16894477
 30
0.0
 10
6.0410819511
 20
5.1686382691
 30
0.0
 10
6.036578559
 20
5.1681684426
 30
0.0
 10
6.0292033749
 20
5.1676193856
 30
0.0
 10
6.0182974387
 20
5.1669898473
 30
0.0
 10
6.0046866516
 20
5.1663570412
 30
0.0
 10
5.9884368109
 20
5.1657190146
 30
0.0
 10
5.9696244161
 20
5.1650792292
 30
0.0
 10
5.9396847101
 20
5.1641773204
 30
0.0
 10
5.8966226386
 20
5.1630775114
 30
0.0
 10
5.838772918
 20
5.1618065059
 30
0.0
 10
5.7735201218
 20
5.1605315126
 30
0.0
 10
5.7276695801
 20
5.159710896
 30
0.0
 10
5.7037126742
 20
5.1592949476
 30
0.0
  0
SPLINE
  5
66D
100
AcDbEntity
  8
AXIS
100
AcDbSpline
 62
7
  6
CONTINUOUS
 70
0
 71
3
 72
23
 73
19
 74
0
 42
0.0000001
 43
0.0000001
 44
0.0000000001
 40
0.0
 40
0.0
 40
0.0
 40
0.0
 40
0.0027781256
 40
0.0076863956
 40
0.0147539733
 40
0.0239776478
 40
0.0353474136
 40
0.0488488846
 40
0.0821425566
 40
0.1236283105
 40
0.1730130677
 40
0.2299481126
 40
0.2940259832
 40
0.36479263
 40
0.4417419388
 40
0.6119597365
 40
0.79982597
 40
1.0
 40
1.0
 40
1.0
 40
1.0
 10
5.9984273559
 20
5.1420671249
 30
0.0
 10
5.9980685514
 20
5.141859679
 30
0.0
 10
5.9969324321
 20
5.1415835348
 30
0.0
 10
5.9947783614
 20
5.1411997712
 30
0.0
 10
5.9916299562
 20
5.1408272659
 30
0.0
 10
5.9875244318
 20
5.1404373631
 30
0.0
 10
5.9824516054
 20
5.1400482853
 30
0.0
 10
5.973792881
 20
5.1394850852
 30
0.0
 10
5.9606393547
 20
5.1388061848
 30
0.0
 10
5.942132196
 20
5.1380280457
 30
0.0
 10
5.9200953914
 20
5.1372462798
 30
0.0
 10
5.8946865664
 20
5.13646123
 30
0.0
 10
5.8660865549
 20
5.1356743785
 30
0.0
 10
5.8344997346
 20
5.1348861856
 30
0.0
 10
5.7870810178
 20
5.1337970932
 30
0.0
 10
5.7221939252
 20
5.1324599451
 30
0.0
 10
5.6389243736
 20
5.13089854
 30
0.0
 10
5.5810432658
 20
5.1298781629
 30
0.0
 10
5.5511846454
 20
5.1293597469
 30
0.0
  0
SPLINE
  5
66E
100
AcDbEntity
  8
AXIS
100
AcDbSpline
 62
7
  6
CONTINUOUS
 70
0
 71
3
 72
20
 73
16
 74
0
 42
0.0000001
 43
0.0000001
 44
0.0000000001
 40
0.0
 40
0.0
 40
0.0
 40
0.0
 40
0.0030707513
 40
0.0080454372
 40
0.0238409143
 40
0.04744141
 40
0.0787934264
 40
0.1178181201
 40
0.164380831
 40
0.2183289896
 40
0.2795005043
 40
0.4226633522
 40
0.5920109837
 40
0.7852836517
 40
1.0
 40
1.0
 40
1.0
 40
1.0
 10
6.0461797512
 20
5.2287034055
 30
0.0
 10
6.0459603052
 20
5.2285765157
 30
0.0
 10
6.0453170002
 20
5.2283783461
 30
0.0
 10
6.0433967637
 20
5.227971756
 30
0.0
 10
6.0397503051
 20
5.2275332034
 30
0.0
 10
6.0339374782
 20
5.2270118874
 30
0.0
 10
6.0261947028
 20
5.2264928409
 30
0.0
 10
6.0165564685
 20
5.2259635848
 30
0.0
 10
6.0050496517
 20
5.2254330538
 30
0.0
 10
5.9917134429
 20
5.2248998699
 30
0.0
 10
5.9704053739
 20
5.2241478391
 30
0.0
 10
5.9395713927
 20
5.2232295827
 30
0.0
 10
5.897832316
 20
5.2221704962
 30
0.0
 10
5.8501849332
 20
5.221107635
 30
0.0
 10
5.8165122128
 20
5.2204297799
 30
0.0
 10
5.7987906895
 20
5.2200863983
 30
0.0
  0
LINE
  5
66F
100
AcDbEntity
  8
AXIS
100
AcDbLine
 62
7
  6
CONTINUOUS
 10
5.7987906895
 20
5.2200863983
 11
5.798193263
 21
5.2200748274
  0
LINE
  5
670
100
AcDbEntity
  8
AXIS
100
AcDbLine
 62
7
  6
CONTINUOUS
 10
5.798193263
 20
5.2200748274
 11
5.7933906466
 21
5.2199821815
  0
LINE
  5
671
100
AcDbEntity
  8
AXIS
100
AcDbLine
 62
7
  6
CONTINUOUS
 10
5.7933906466
 20
5.2199821815
 11
5.7037126742
 21
5.2183500657
  0
SPLINE
  5
672
100
AcDbEntity
  8
AXIS
100
AcDbSpline
 62
7
  6
CONTINUOUS
 70
0
 71
3
 72
23
 73
19
 74
0
 42
0.0000001
 43
0.0000001
 44
0.0000000001
 40
0.0
 40
0.0
 40
0.0
 40
0.0
 40
0.0027781256
 40
0.0076863956
 40
0.0147539733
 40
0.0239776478
 40
0.0353474136
 40
0.0488488846
 40
0.0821425566
 40
0.1236283105
 40
0.1730130677
 40
0.2299481126
 40
0.2940259832
 40
0.36479263
 40
0.4417419388
 40
0.6119597365
 40
0.79982597
 40
1.0
 40
1.0
 40
1.0
 40
1.0
 10
5.9984273559
 20
5.201122243
 30
0.0
 10
5.9980685514
 20
5.2009147971
 30
0.0
 10
5.9969324321
 20
5.2006386529
 30
0.0
 10
5.9947783614
 20
5.2002548893
 30
0.0
 10
5.9916299562
 20
5.199882384
 30
0.0
 10
5.9875244318
 20
5.1994924812
 30
0.0
 10
5.9824516054
 20
5.1991034034
 30
0.0
 10
5.973792881
 20
5.1985402033
 30
0.0
 10
5.9606393547
 20
5.1978613029
 30
0.0
 10
5.942132196
 20
5.1970831639
 30
0.0
 10
5.9200953914
 20
5.1963013979
 30
0.0
 10
5.8946865664
 20
5.1955163481
 30
0.0
 10
5.8660865549
 20
5.1947294966
 30
0.0
 10
5.8344997346
 20
5.1939413037
 30
0.0
 10
5.7870810178
 20
5.1928522113
 30
0.0
 10
5.7221939252
 20
5.1915150632
 30
0.0
 10
5.6389243736
 20
5.1899536581
 30
0.0
 10
5.5810432658
 20
5.1889332811
 30
0.0
 10
5.5511846454
 20
5.188414865
 30
0.0
  0
SPLINE
  5
673
100
AcDbEntity
  8
AXIS
100
AcDbSpline
 62
7
  6
CONTINUOUS
 70
0
 71
3
 72
21
 73
17
 74
0
 42
0.0000001
 43
0.0000001
 44
0.0000000001
 40
0.0
 40
0.0
 40
0.0
 40
0.0
 40
0.0028286912
 40
0.0076563749
 40
0.0145199953
 40
0.023420983
 40
0.047305218
 40
0.0792287166
 40
0.1190445882
 40
0.1665627831
 40
0.2215718332
 40
0.2838017671
 40
0.428740482
 40
0.5986108177
 40
0.7902760889
 40
1.0
 40
1.0
 40
1.0
 40
1.0
 10
6.0461797512
 20
5.2877585236
 30
0.0
 10
6.0458999823
 20
5.2875967535
 30
0.0
 10
6.0450410242
 20
5.2873652856
 30
0.0
 10
6.0434193409
 20
5.2870550062
 30
0.0
 10
6.0410819511
 20
5.2867485054
 30
0.0
 10
6.036578559
 20
5.2862786788
 30
0.0
 10
6.0292033749
 20
5.2857296218
 30
0.0
 10
6.0182974387
 20
5.2851000835
 30
0.0
 10
6.0046866516
 20
5.2844672774
 30
0.0
 10
5.9884368109
 20
5.2838292509
 30
0.0
 10
5.9696244161
 20
5.2831894654
 30
0.0
 10
5.9396847101
 20
5.2822875566
 30
0.0
 10
5.8966226386
 20
5.2811877476
 30
0.0
 10
5.838772918
 20
5.2799167421
 30
0.0
 10
5.7735201218
 20
5.2786417488
 30
0.0
 10
5.7276695801
 20
5.2778211322
 30
0.0
 10
5.7037126742
 20
5.2774051838
 30
0.0
  0
SPLINE
  5
674
100
AcDbEntity
  8
AXIS
100
AcDbSpline
 62
7
  6
CONTINUOUS
 70
0
 71
3
 72
23
 73
19
 74
0
 42
0.0000001
 43
0.0000001
 44
0.0000000001
 40
0.0
 40
0.0
 40
0.0
 40
0.0
 40
0.0027813251
 40
0.0076884311
 40
0.0147527985
 40
0.0239775759
 40
0.0353505912
 40
0.048850803
 40
0.0821425197
 40
0.1236299805
 40
0.1730132183
 40
0.2299496659
 40
0.2940258525
 40
0.3647934709
 40
0.4417428484
 40
0.6119579721
 40
0.799829739
 40
1.0
 40
1.0
 40
1.0
 40
1.0
 10
5.9984277032
 20
5.2601773593
 30
0.0
 10
5.9980682764
 20
5.2599700359
 30
0.0
 10
5.9969319501
 20
5.2596939951
 30
0.0
 10
5.9947780046
 20
5.2593100058
 30
0.0
 10
5.9916301435
 20
5.2589373742
 30
0.0
 10
5.9875244184
 20
5.2585475768
 30
0.0
 10
5.9824511239
 20
5.2581586112
 30
0.0
 10
5.9737923958
 20
5.2575952697
 30
0.0
 10
5.9606390856
 20
5.2569163889
 30
0.0
 10
5.942132176
 20
5.256138322
 30
0.0
 10
5.9200951231
 20
5.2553564766
 30
0.0
 10
5.8946865483
 20
5.254571498
 30
0.0
 10
5.8660864174
 20
5.2537845895
 30
0.0
 10
5.8344996721
 20
5.252996437
 30
0.0
 10
5.7870811695
 20
5.2519073208
 30
0.0
 10
5.7221935988
 20
5.2505701731
 30
0.0
 10
5.6389241302
 20
5.2490087736
 30
0.0
 10
5.5810427225
 20
5.2479883897
 30
0.0
 10
5.5511846454
 20
5.2474699831
 30
0.0
  0
SPLINE
  5
675
100
AcDbEntity
  8
AXIS
100
AcDbSpline
 62
7
  6
CONTINUOUS
 70
0
 71
3
 72
8
 73
4
 74
0
 42
0.0000001
 43
0.0000001
 44
0.0000000001
 40
0.0
 40
0.0
 40
0.0
 40
0.0
 40
1.0
 40
1.0
 40
1.0
 40
1.0
 10
5.5511846454
 20
5.2435329752
 30
0.0
 10
5.6024995168
 20
5.2388185266
 30
0.0
 10
5.6535239322
 20
5.2300347666
 30
0.0
 10
5.7037126742
 20
5.2183500657
 30
0.0
  0
SPLINE
  5
676
100
AcDbEntity
  8
AXIS
100
AcDbSpline
 62
7
  6
CONTINUOUS
 70
0
 71
3
 72
8
 73
4
 74
0
 42
0.0000001
 43
0.0000001
 44
0.0000000001
 40
0.0
 40
0.0
 40
0.0
 40
0.0
 40
1.0
 40
1.0
 40
1.0
 40
1.0
 10
5.3437898865
 20
5.0667468655
 30
0.0
 10
5.292475015
 20
5.0714613141
 30
0.0
 10
5.2414505997
 20
5.0802450742
 30
0.0
 10
5.1912618577
 20
5.091929775
 30
0.0
  0
SPLINE
  5
677
100
AcDbEntity
  8
AXIS
100
AcDbSpline
 62
7
  6
CONTINUOUS
 70
0
 71
3
 72
8
 73
4
 74
0
 42
0.0000001
 43
0.0000001
 44
0.0000000001
 40
0.0
 40
0.0
 40
0.0
 40
0.0
 40
1.0
 40
1.0
 40
1.0
 40
1.0
 10
5.7037126742
 20
5.0411847114
 30
0.0
 10
5.6535817576
 20
5.0280913009
 30
0.0
 10
5.6025948132
 20
5.0176947299
 30
0.0
 10
5.5511846454
 20
5.0112495107
 30
0.0
  0
SPLINE
  5
678
100
AcDbEntity
  8
AXIS
100
AcDbSpline
 62
7
  6
CONTINUOUS
 70
0
 71
3
 72
8
 73
4
 74
0
 42
0.0000001
 43
0.0000001
 44
0.0000000001
 40
0.0
 40
0.0
 40
0.0
 40
0.0
 40
1.0
 40
1.0
 40
1.0
 40
1.0
 10
5.3437898865
 20
5.0076917474
 30
0.0
 10
5.292475015
 20
5.012406196
 30
0.0
 10
5.2414505997
 20
5.0211899561
 30
0.0
 10
5.1912618577
 20
5.0328746569
 30
0.0
  0
SPLINE
  5
679
100
AcDbEntity
  8
AXIS
100
AcDbSpline
 62
7
  6
CONTINUOUS
 70
0
 71
3
 72
8
 73
4
 74
0
 42
0.0000001
 43
0.0000001
 44
0.0000000001
 40
0.0
 40
0.0
 40
0.0
 40
0.0
 40
1.0
 40
1.0
 40
1.0
 40
1.0
 10
5.7037126742
 20
4.9821295933
 30
0.0
 10
5.6535817576
 20
4.9690361827
 30
0.0
 10
5.6025948132
 20
4.9586396117
 30
0.0
 10
5.5511846454
 20
4.9521943926
 30
0.0
  0
SPLINE
  5
67A
100
AcDbEntity
  8
AXIS
100
AcDbSpline
 62
7
  6
CONTINUOUS
 70
0
 71
3
 72
8
 73
4
 74
0
 42
0.0000001
 43
0.0000001
 44
0.0000000001
 40
0.0
 40
0.0
 40
0.0
 40
0.0
 40
1.0
 40
1.0
 40
1.0
 40
1.0
 10
5.7037126742
 20
4.9230744752
 30
0.0
 10
5.6535817576
 20
4.9099810646
 30
0.0
 10
5.6025948132
 20
4.8995844936
 30
0.0
 10
5.5511846454
 20
4.8931392745
 30
0.0
  0
SPLINE
  5
67B
100
AcDbEntity
  8
AXIS
100
AcDbSpline
 62
7
  6
CONTINUOUS
 70
0
 71
3
 72
8
 73
4
 74
0
 42
0.0000001
 43
0.0000001
 44
0.0000000001
 40
0.0
 40
0.0
 40
0.0
 40
0.0
 40
1.0
 40
1.0
 40
1.0
 40
1.0
 10
5.3437898865
 20
4.9486366293
 30
0.0
 10
5.292475015
 20
4.9533510779
 30
0.0
 10
5.2414505997
 20
4.9621348379
 30
0.0
 10
5.1912618577
 20
4.9738195388
 30
0.0
  0
SPLINE
  5
67C
100
AcDbEntity
  8
AXIS
100
AcDbSpline
 62
7
  6
CONTINUOUS
 70
0
 71
3
 72
8
 73
4
 74
0
 42
0.0000001
 43
0.0000001
 44
0.0000000001
 40
0.0
 40
0.0
 40
0.0
 40
0.0
 40
1.0
 40
1.0
 40
1.0
 40
1.0
 10
5.3437898865
 20
4.8895815112
 30
0.0
 10
5.292475015
 20
4.8942959598
 30
0.0
 10
5.2414505997
 20
4.9030797198
 30
0.0
 10
5.1912618577
 20
4.9147644207
 30
0.0
  0
SPLINE
  5
67D
100
AcDbEntity
  8
AXIS
100
AcDbSpline
 62
7
  6
CONTINUOUS
 70
0
 71
3
 72
8
 73
4
 74
0
 42
0.0000001
 43
0.0000001
 44
0.0000000001
 40
0.0
 40
0.0
 40
0.0
 40
0.0
 40
1.0
 40
1.0
 40
1.0
 40
1.0
 10
5.1912618577
 20
5.091929775
 30
0.0
 10
5.2413927743
 20
5.1050231855
 30
0.0
 10
5.2923797187
 20
5.1154197565
 30
0.0
 10
5.3437898865
 20
5.1218649757
 30
0.0
  0
SPLINE
  5
67E
100
AcDbEntity
  8
AXIS
100
AcDbSpline
 62
7
  6
CONTINUOUS
 70
0
 71
3
 72
21
 73
17
 74
0
 42
0.0000001
 43
0.0000001
 44
0.0000000001
 40
0.0
 40
0.0
 40
0.0
 40
0.0
 40
0.2097239111
 40
0.4013891824
 40
0.5712595181
 40
0.716198233
 40
0.7784281669
 40
0.833437217
 40
0.8809554119
 40
0.9207712835
 40
0.9526947821
 40
0.976579017
 40
0.9854800048
 40
0.9923436251
 40
0.9971713089
 40
1.0
 40
1.0
 40
1.0
 40
1.0
 10
5.1912618577
 20
5.091929775
 30
0.0
 10
5.1673049517
 20
5.0915138266
 30
0.0
 10
5.12145441
 20
5.09069321
 30
0.0
 10
5.0562016138
 20
5.0894182167
 30
0.0
 10
4.9983518933
 20
5.0881472113
 30
0.0
 10
4.9552898217
 20
5.0870474022
 30
0.0
 10
4.9253501157
 20
5.0861454934
 30
0.0
 10
4.9065377209
 20
5.085505708
 30
0.0
 10
4.8902878803
 20
5.0848676814
 30
0.0
 10
4.8766770931
 20
5.0842348753
 30
0.0
 10
4.865771157
 20
5.083605337
 30
0.0
 10
4.8583959729
 20
5.08305628
 30
0.0
 10
4.8538925807
 20
5.0825864535
 30
0.0
 10
4.8515551909
 20
5.0822799526
 30
0.0
 10
4.8499335076
 20
5.0819696732
 30
0.0
 10
4.8490745495
 20
5.0817382053
 30
0.0
 10
4.8487947807
 20
5.0815764353
 30
0.0
  0
SPLINE
  5
67F
100
AcDbEntity
  8
AXIS
100
AcDbSpline
 62
7
  6
CONTINUOUS
 70
0
 71
3
 72
8
 73
4
 74
0
 42
0.0000001
 43
0.0000001
 44
0.0000000001
 40
0.0
 40
0.0
 40
0.0
 40
0.0
 40
1.0
 40
1.0
 40
1.0
 40
1.0
 10
5.5511846454
 20
5.0663676209
 30
0.0
 10
5.6024995168
 20
5.0616531723
 30
0.0
 10
5.6535239322
 20
5.0528694122
 30
0.0
 10
5.7037126742
 20
5.0411847114
 30
0.0
  0
SPLINE
  5
680
100
AcDbEntity
  8
AXIS
100
AcDbSpline
 62
7
  6
CONTINUOUS
 70
0
 71
3
 72
21
 73
17
 74
0
 42
0.0000001
 43
0.0000001
 44
0.0000000001
 40
0.0
 40
0.0
 40
0.0
 40
0.0
 40
0.0028286912
 40
0.0076563749
 40
0.0145199953
 40
0.023420983
 40
0.047305218
 40
0.0792287166
 40
0.1190445882
 40
0.1665627831
 40
0.2215718332
 40
0.2838017671
 40
0.428740482
 40
0.5986108177
 40
0.7902760889
 40
1.0
 40
1.0
 40
1.0
 40
1.0
 10
6.0461797512
 20
5.3468136417
 30
0.0
 10
6.0458999823
 20
5.3466518716
 30
0.0
 10
6.0450410242
 20
5.3464204037
 30
0.0
 10
6.0434193409
 20
5.3461101243
 30
0.0
 10
6.0410819511
 20
5.3458036235
 30
0.0
 10
6.036578559
 20
5.3453337969
 30
0.0
 10
6.0292033749
 20
5.3447847399
 30
0.0
 10
6.0182974387
 20
5.3441552016
 30
0.0
 10
6.0046866516
 20
5.3435223955
 30
0.0
 10
5.9884368109
 20
5.342884369
 30
0.0
 10
5.9696244161
 20
5.3422445835
 30
0.0
 10
5.9396847101
 20
5.3413426748
 30
0.0
 10
5.8966226386
 20
5.3402428657
 30
0.0
 10
5.838772918
 20
5.3389718602
 30
0.0
 10
5.7735201218
 20
5.3376968669
 30
0.0
 10
5.7276695801
 20
5.3368762503
 30
0.0
 10
5.7037126742
 20
5.336460302
 30
0.0
  0
SPLINE
  5
681
100
AcDbEntity
  8
AXIS
100
AcDbSpline
 62
7
  6
CONTINUOUS
 70
0
 71
3
 72
8
 73
4
 74
0
 42
0.0000001
 43
0.0000001
 44
0.0000000001
 40
0.0
 40
0.0
 40
0.0
 40
0.0
 40
1.0
 40
1.0
 40
1.0
 40
1.0
 10
5.1912618577
 20
5.0328746569
 30
0.0
 10
5.2413927743
 20
5.0459680674
 30
0.0
 10
5.2923797187
 20
5.0563646384
 30
0.0
 10
5.3437898865
 20
5.0628098576
 30
0.0
  0
SPLINE
  5
682
100
AcDbEntity
  8
AXIS
100
AcDbSpline
 62
7
  6
CONTINUOUS
 70
0
 71
3
 72
23
 73
19
 74
0
 42
0.0000001
 43
0.0000001
 44
0.0000000001
 40
0.0
 40
0.0
 40
0.0
 40
0.0
 40
0.0027781256
 40
0.0076863956
 40
0.0147539733
 40
0.0239776478
 40
0.0353474136
 40
0.0488488846
 40
0.0821425566
 40
0.1236283105
 40
0.1730130677
 40
0.2299481126
 40
0.2940259832
 40
0.36479263
 40
0.4417419388
 40
0.6119597365
 40
0.79982597
 40
1.0
 40
1.0
 40
1.0
 40
1.0
 10
5.9984273559
 20
5.3192324792
 30
0.0
 10
5.9980685514
 20
5.3190250333
 30
0.0
 10
5.9969324321
 20
5.3187488891
 30
0.0
 10
5.9947783614
 20
5.3183651255
 30
0.0
 10
5.9916299562
 20
5.3179926203
 30
0.0
 10
5.9875244318
 20
5.3176027175
 30
0.0
 10
5.9824516054
 20
5.3172136396
 30
0.0
 10
5.973792881
 20
5.3166504395
 30
0.0
 10
5.9606393547
 20
5.3159715391
 30
0.0
 10
5.942132196
 20
5.3151934001
 30
0.0
 10
5.9200953914
 20
5.3144116342
 30
0.0
 10
5.8946865664
 20
5.3136265843
 30
0.0
 10
5.8660865549
 20
5.3128397328
 30
0.0
 10
5.8344997346
 20
5.3120515399
 30
0.0
 10
5.7870810178
 20
5.3109624475
 30
0.0
 10
5.7221939252
 20
5.3096252994
 30
0.0
 10
5.6389243736
 20
5.3080638943
 30
0.0
 10
5.5810432658
 20
5.3070435173
 30
0.0
 10
5.5511846454
 20
5.3065251012
 30
0.0
  0
LINE
  5
683
100
AcDbEntity
  8
AXIS
100
AcDbLine
 62
7
  6
CONTINUOUS
 10
5.0905920311
 20
5.0310295151
 11
5.0900091848
 21
5.03101812
  0
SPLINE
  5
684
100
AcDbEntity
  8
AXIS
100
AcDbSpline
 62
7
  6
CONTINUOUS
 70
0
 71
3
 72
20
 73
16
 74
0
 42
0.0000001
 43
0.0000001
 44
0.0000000001
 40
0.0
 40
0.0
 40
0.0
 40
0.0
 40
0.2149946417
 40
0.4083556647
 40
0.5776599852
 40
0.7207112585
 40
0.7818175398
 40
0.8357033288
 40
0.8822117989
 40
0.9211930697
 40
0.9525174912
 40
0.9761096672
 40
0.9919178656
 40
0.9969077062
 40
1.0
 40
1.0
 40
1.0
 40
1.0
 10
5.0900091848
 20
5.03101812
 30
0.0
 10
5.0727072562
 20
5.0306797017
 30
0.0
 10
5.0398448719
 20
5.0300116197
 30
0.0
 10
4.9933599214
 20
5.0289634918
 30
0.0
 10
4.952667364
 20
5.027919073
 30
0.0
 10
4.9226203291
 20
5.0270134825
 30
0.0
 10
4.9018631889
 20
5.0262718313
 30
0.0
 10
4.8888744329
 20
5.0257460641
 30
0.0
 10
4.8776677356
 20
5.0252229082
 30
0.0
 10
4.8682802566
 20
5.0247010256
 30
0.0
 10
4.8607373904
 20
5.0241890521
 30
0.0
 10
4.8550718093
 20
5.0236751233
 30
0.0
 10
4.8515154608
 20
5.0232421494
 30
0.0
 10
4.8496397311
 20
5.0228415978
 30
0.0
 10
4.8490102554
 20
5.0226459106
 30
0.0
 10
4.8487947807
 20
5.0225213172
 30
0.0
  0
SPLINE
  5
685
100
AcDbEntity
  8
AXIS
100
AcDbSpline
 62
7
  6
CONTINUOUS
 70
0
 71
3
 72
8
 73
4
 74
0
 42
0.0000001
 43
0.0000001
 44
0.0000000001
 40
0.0
 40
0.0
 40
0.0
 40
0.0
 40
1.0
 40
1.0
 40
1.0
 40
1.0
 10
5.5511846454
 20
5.0073125028
 30
0.0
 10
5.6024995168
 20
5.0025980542
 30
0.0
 10
5.6535239322
 20
4.9938142941
 30
0.0
 10
5.7037126742
 20
4.9821295933
 30
0.0
  0
SPLINE
  5
686
100
AcDbEntity
  8
AXIS
100
AcDbSpline
 62
7
  6
CONTINUOUS
 70
0
 71
3
 72
21
 73
17
 74
0
 42
0.0000001
 43
0.0000001
 44
0.0000000001
 40
0.0
 40
0.0
 40
0.0
 40
0.0
 40
0.0028313191
 40
0.0076602394
 40
0.014523796
 40
0.0234234957
 40
0.047301681
 40
0.0792149418
 40
0.1190174388
 40
0.1665197746
 40
0.2215118233
 40
0.2837249367
 40
0.4286362482
 40
0.5984991672
 40
0.7901901945
 40
1.0
 40
1.0
 40
1.0
 40
1.0
 10
6.0461797512
 20
5.4058687598
 30
0.0
 10
6.0459008672
 20
5.4057075014
 30
0.0
 10
6.0450451371
 20
5.4054764731
 30
0.0
 10
6.043429703
 20
5.4051669574
 30
0.0
 10
6.0411019746
 20
5.4048611285
 30
0.0
 10
6.0366179097
 20
5.4043924349
 30
0.0
 10
6.0292749576
 20
5.4038446457
 30
0.0
 10
6.0184170447
 20
5.4032165822
 30
0.0
 10
6.0048664461
 20
5.4025852589
 30
0.0
 10
5.9886883422
 20
5.4019487268
 30
0.0
 10
5.969958546
 20
5.401310443
 30
0.0
 10
5.9401482503
 20
5.400410626
 30
0.0
 10
5.8972681426
 20
5.3993133557
 30
0.0
 10
5.839655991
 20
5.3980453182
 30
0.0
 10
5.7746581289
 20
5.3967732819
 30
0.0
 10
5.7289823415
 20
5.3959546886
 30
0.0
 10
5.7051136082
 20
5.3955397586
 30
0.0
  0
LINE
  5
687
100
AcDbEntity
  8
AXIS
100
AcDbLine
 62
7
  6
CONTINUOUS
 10
5.7051136082
 20
5.3955397586
 11
5.7037126742
 21
5.3955154201
  0
SPLINE
  5
688
100
AcDbEntity
  8
AXIS
100
AcDbSpline
 62
7
  6
CONTINUOUS
 70
0
 71
3
 72
23
 73
19
 74
0
 42
0.0000001
 43
0.0000001
 44
0.0000000001
 40
0.0
 40
0.0
 40
0.0
 40
0.0
 40
0.0027781256
 40
0.0076863956
 40
0.0147539733
 40
0.0239776478
 40
0.0353474136
 40
0.0488488846
 40
0.0821425566
 40
0.1236283105
 40
0.1730130677
 40
0.2299481126
 40
0.2940259832
 40
0.36479263
 40
0.4417419388
 40
0.6119597365
 40
0.79982597
 40
1.0
 40
1.0
 40
1.0
 40
1.0
 10
5.9984273559
 20
5.3782875974
 30
0.0
 10
5.9980685514
 20
5.3780801514
 30
0.0
 10
5.9969324321
 20
5.3778040072
 30
0.0
 10
5.9947783614
 20
5.3774202436
 30
0.0
 10
5.9916299562
 20
5.3770477384
 30
0.0
 10
5.9875244318
 20
5.3766578356
 30
0.0
 10
5.9824516054
 20
5.3762687577
 30
0.0
 10
5.973792881
 20
5.3757055576
 30
0.0
 10
5.9606393547
 20
5.3750266572
 30
0.0
 10
5.942132196
 20
5.3742485182
 30
0.0
 10
5.9200953914
 20
5.3734667523
 30
0.0
 10
5.8946865664
 20
5.3726817025
 30
0.0
 10
5.8660865549
 20
5.3718948509
 30
0.0
 10
5.8344997346
 20
5.371106658
 30
0.0
 10
5.7870810178
 20
5.3700175656
 30
0.0
 10
5.7221939252
 20
5.3686804175
 30
0.0
 10
5.6389243736
 20
5.3671190124
 30
0.0
 10
5.5810432658
 20
5.3660986354
 30
0.0
 10
5.5511846454
 20
5.3655802193
 30
0.0
  0
SPLINE
  5
689
100
AcDbEntity
  8
AXIS
100
AcDbSpline
 62
7
  6
CONTINUOUS
 70
0
 71
3
 72
8
 73
4
 74
0
 42
0.0000001
 43
0.0000001
 44
0.0000000001
 40
0.0
 40
0.0
 40
0.0
 40
0.0
 40
1.0
 40
1.0
 40
1.0
 40
1.0
 10
5.1912618577
 20
4.9738195388
 30
0.0
 10
5.2413927743
 20
4.9869129493
 30
0.0
 10
5.2923797187
 20
4.9973095203
 30
0.0
 10
5.3437898865
 20
5.0037547395
 30
0.0
  0
SPLINE
  5
68A
100
AcDbEntity
  8
AXIS
100
AcDbSpline
 62
7
  6
CONTINUOUS
 70
0
 71
3
 72
21
 73
17
 74
0
 42
0.0000001
 43
0.0000001
 44
0.0000000001
 40
0.0
 40
0.0
 40
0.0
 40
0.0
 40
0.2097239111
 40
0.4013891824
 40
0.5712595181
 40
0.716198233
 40
0.7784281669
 40
0.833437217
 40
0.8809554119
 40
0.9207712835
 40
0.9526947821
 40
0.976579017
 40
0.9854800048
 40
0.9923436251
 40
0.9971713089
 40
1.0
 40
1.0
 40
1.0
 40
1.0
 10
5.1912618577
 20
4.9738195388
 30
0.0
 10
5.1673049517
 20
4.9734035904
 30
0.0
 10
5.12145441
 20
4.9725829738
 30
0.0
 10
5.0562016138
 20
4.9713079805
 30
0.0
 10
4.9983518933
 20
4.970036975
 30
0.0
 10
4.9552898217
 20
4.968937166
 30
0.0
 10
4.9253501157
 20
4.9680352572
 30
0.0
 10
4.9065377209
 20
4.9673954718
 30
0.0
 10
4.8902878803
 20
4.9667574452
 30
0.0
 10
4.8766770931
 20
4.9661246391
 30
0.0
 10
4.865771157
 20
4.9654951008
 30
0.0
 10
4.8583959729
 20
4.9649460438
 30
0.0
 10
4.8538925807
 20
4.9644762173
 30
0.0
 10
4.8515551909
 20
4.9641697164
 30
0.0
 10
4.8499335076
 20
4.963859437
 30
0.0
 10
4.8490745495
 20
4.9636279691
 30
0.0
 10
4.8487947807
 20
4.963466199
 30
0.0
  0
SPLINE
  5
68B
100
AcDbEntity
  8
AXIS
100
AcDbSpline
 62
7
  6
CONTINUOUS
 70
0
 71
3
 72
8
 73
4
 74
0
 42
0.0000001
 43
0.0000001
 44
0.0000000001
 40
0.0
 40
0.0
 40
0.0
 40
0.0
 40
1.0
 40
1.0
 40
1.0
 40
1.0
 10
5.5511846454
 20
4.9482573847
 30
0.0
 10
5.6024995168
 20
4.9435429361
 30
0.0
 10
5.6535239322
 20
4.934759176
 30
0.0
 10
5.7037126742
 20
4.9230744752
 30
0.0
  0
SPLINE
  5
68C
100
AcDbEntity
  8
AXIS
100
AcDbSpline
 62
7
  6
CONTINUOUS
 70
0
 71
3
 72
21
 73
17
 74
0
 42
0.0000001
 43
0.0000001
 44
0.0000000001
 40
0.0
 40
0.0
 40
0.0
 40
0.0
 40
0.0028286912
 40
0.0076563749
 40
0.0145199953
 40
0.023420983
 40
0.047305218
 40
0.0792287166
 40
0.1190445882
 40
0.1665627831
 40
0.2215718332
 40
0.2838017671
 40
0.428740482
 40
0.5986108177
 40
0.7902760889
 40
1.0
 40
1.0
 40
1.0
 40
1.0
 10
6.0461797512
 20
5.4649238779
 30
0.0
 10
6.0458999823
 20
5.4647621078
 30
0.0
 10
6.0450410242
 20
5.4645306399
 30
0.0
 10
6.0434193409
 20
5.4642203606
 30
0.0
 10
6.0410819511
 20
5.4639138597
 30
0.0
 10
6.036578559
 20
5.4634440331
 30
0.0
 10
6.0292033749
 20
5.4628949762
 30
0.0
 10
6.0182974387
 20
5.4622654379
 30
0.0
 10
6.0046866516
 20
5.4616326317
 30
0.0
 10
5.9884368109
 20
5.4609946052
 30
0.0
 10
5.9696244161
 20
5.4603548197
 30
0.0
 10
5.9396847101
 20
5.459452911
 30
0.0
 10
5.8966226386
 20
5.4583531019
 30
0.0
 10
5.838772918
 20
5.4570820964
 30
0.0
 10
5.7735201218
 20
5.4558071031
 30
0.0
 10
5.7276695801
 20
5.4549864865
 30
0.0
 10
5.7037126742
 20
5.4545705382
 30
0.0
  0
SPLINE
  5
68D
100
AcDbEntity
  8
AXIS
100
AcDbSpline
 62
7
  6
CONTINUOUS
 70
0
 71
3
 72
21
 73
17
 74
0
 42
0.0000001
 43
0.0000001
 44
0.0000000001
 40
0.0
 40
0.0
 40
0.0
 40
0.0
 40
0.0030259857
 40
0.0080163393
 40
0.0150099863
 40
0.0240109183
 40
0.0480133549
 40
0.0799551429
 40
0.1196983635
 40
0.1670740602
 40
0.2218819896
 40
0.2838739764
 40
0.4283163828
 40
0.5978662776
 40
0.7895551619
 40
1.0
 40
1.0
 40
1.0
 40
1.0
 10
5.9984273559
 20
5.4373427155
 30
0.0
 10
5.9981683183
 20
5.4371929506
 30
0.0
 10
5.9973968054
 20
5.436965581
 30
0.0
 10
5.9959481879
 20
5.4366678723
 30
0.0
 10
5.9938910356
 20
5.4363703869
 30
0.0
 10
5.989963138
 20
5.4359190686
 30
0.0
 10
5.9835608544
 20
5.4353891217
 30
0.0
 10
5.974118992
 20
5.4347825668
 30
0.0
 10
5.9623613638
 20
5.4341724613
 30
0.0
 10
5.9483408162
 20
5.4335577626
 30
0.0
 10
5.9321184036
 20
5.4329412541
 30
0.0
 10
5.9063008064
 20
5.4320721704
 30
0.0
 10
5.8691376146
 20
5.4310119642
 30
0.0
 10
5.8191497644
 20
5.429787174
 30
0.0
 10
5.7626338177
 20
5.428558399
 30
0.0
 10
5.7228778298
 20
5.4277691143
 30
0.0
 10
5.702072458
 20
5.4273691116
 30
0.0
  0
SPLINE
  5
68E
100
AcDbEntity
  8
AXIS
100
AcDbSpline
 62
7
  6
CONTINUOUS
 70
0
 71
3
 72
8
 73
4
 74
0
 42
0.0000001
 43
0.0000001
 44
0.0000000001
 40
0.0
 40
0.0
 40
0.0
 40
0.0
 40
1.0
 40
1.0
 40
1.0
 40
1.0
 10
5.1912618577
 20
4.9147644207
 30
0.0
 10
5.2413927743
 20
4.9278578312
 30
0.0
 10
5.2923797187
 20
4.9382544022
 30
0.0
 10
5.3437898865
 20
4.9446996214
 30
0.0
  0
SPLINE
  5
68F
100
AcDbEntity
  8
AXIS
100
AcDbSpline
 62
7
  6
CONTINUOUS
 70
0
 71
3
 72
21
 73
17
 74
0
 42
0.0000001
 43
0.0000001
 44
0.0000000001
 40
0.0
 40
0.0
 40
0.0
 40
0.0
 40
0.2097239111
 40
0.4013891824
 40
0.5712595181
 40
0.716198233
 40
0.7784281669
 40
0.833437217
 40
0.8809554119
 40
0.9207712835
 40
0.9526947821
 40
0.976579017
 40
0.9854800048
 40
0.9923436251
 40
0.9971713089
 40
1.0
 40
1.0
 40
1.0
 40
1.0
 10
5.1912618577
 20
4.9147644207
 30
0.0
 10
5.1673049517
 20
4.9143484723
 30
0.0
 10
5.12145441
 20
4.9135278557
 30
0.0
 10
5.0562016138
 20
4.9122528624
 30
0.0
 10
4.9983518933
 20
4.9109818569
 30
0.0
 10
4.9552898217
 20
4.9098820479
 30
0.0
 10
4.9253501157
 20
4.9089801391
 30
0.0
 10
4.9065377209
 20
4.9083403536
 30
0.0
 10
4.8902878803
 20
4.9077023271
 30
0.0
 10
4.8766770931
 20
4.907069521
 30
0.0
 10
4.865771157
 20
4.9064399827
 30
0.0
 10
4.8583959729
 20
4.9058909257
 30
0.0
 10
4.8538925807
 20
4.9054210991
 30
0.0
 10
4.8515551909
 20
4.9051145983
 30
0.0
 10
4.8499335076
 20
4.9048043189
 30
0.0
 10
4.8490745495
 20
4.904572851
 30
0.0
 10
4.8487947807
 20
4.9044110809
 30
0.0
  0
SPLINE
  5
690
100
AcDbEntity
  8
AXIS
100
AcDbSpline
 62
7
  6
CONTINUOUS
 70
0
 71
3
 72
8
 73
4
 74
0
 42
0.0000001
 43
0.0000001
 44
0.0000000001
 40
0.0
 40
0.0
 40
0.0
 40
0.0
 40
1.0
 40
1.0
 40
1.0
 40
1.0
 10
5.3437898865
 20
4.830526393
 30
0.0
 10
5.292475015
 20
4.8352408416
 30
0.0
 10
5.2414505997
 20
4.8440246017
 30
0.0
 10
5.1912618577
 20
4.8557093026
 30
0.0
  0
SPLINE
  5
691
100
AcDbEntity
  8
AXIS
100
AcDbSpline
 62
7
  6
CONTINUOUS
 70
0
 71
3
 72
8
 73
4
 74
0
 42
0.0000001
 43
0.0000001
 44
0.0000000001
 40
0.0
 40
0.0
 40
0.0
 40
0.0
 40
1.0
 40
1.0
 40
1.0
 40
1.0
 10
5.7037126742
 20
4.804964239
 30
0.0
 10
5.6535817576
 20
4.7918708284
 30
0.0
 10
5.6025948132
 20
4.7814742574
 30
0.0
 10
5.5511846454
 20
4.7750290382
 30
0.0
  0
SPLINE
  5
692
100
AcDbEntity
  8
AXIS
100
AcDbSpline
 62
7
  6
CONTINUOUS
 70
0
 71
3
 72
8
 73
4
 74
0
 42
0.0000001
 43
0.0000001
 44
0.0000000001
 40
0.0
 40
0.0
 40
0.0
 40
0.0
 40
1.0
 40
1.0
 40
1.0
 40
1.0
 10
5.3437898865
 20
4.7714712749
 30
0.0
 10
5.292475015
 20
4.7761857235
 30
0.0
 10
5.2414505997
 20
4.7849694836
 30
0.0
 10
5.1912618577
 20
4.7966541844
 30
0.0
  0
SPLINE
  5
693
100
AcDbEntity
  8
AXIS
100
AcDbSpline
 62
7
  6
CONTINUOUS
 70
0
 71
3
 72
25
 73
21
 74
0
 42
0.0000001
 43
0.0000001
 44
0.0000000001
 40
0.0
 40
0.0
 40
0.0
 40
0.0
 40
0.0014629152
 40
0.0050193328
 40
0.0108118599
 40
0.0188581271
 40
0.0291551203
 40
0.0416841513
 40
0.0564225977
 40
0.073346944
 40
0.1136310761
 40
0.1622313703
 40
0.2187986715
 40
0.2829020407
 40
0.3540737873
 40
0.4317764695
 40
0.5154394091
 40
0.6044264825
 40
0.7957326284
 40
1.0
 40
1.0
 40
1.0
 40
1.0
 10
4.8963061653
 20
4.8765966963
 30
0.0
 10
4.8963063328
 20
4.8768151154
 30
0.0
 10
4.8972297776
 20
4.8771663828
 30
0.0
 10
4.8986116024
 20
4.877481567
 30
0.0
 10
4.9012883704
 20
4.8778838584
 30
0.0
 10
4.90482459
 20
4.8782653947
 30
0.0
 10
4.9094351405
 20
4.8786654172
 30
0.0
 10
4.9150231036
 20
4.8790633554
 30
0.0
 10
4.9216112039
 20
4.8794649283
 30
0.0
 10
4.9323371943
 20
4.8800345671
 30
0.0
 10
4.94812048
 20
4.8807284205
 30
0.0
 10
4.9698222044
 20
4.8815266118
 30
0.0
 10
4.9950825222
 20
4.8823275359
 30
0.0
 10
5.023714122
 20
4.8831311099
 30
0.0
 10
5.0555024305
 20
4.8839359323
 30
0.0
 10
5.090211869
 20
4.8847419707
 30
0.0
 10
5.1275818584
 20
4.8855486387
 30
0.0
 10
5.1819108136
 20
4.8866517746
 30
0.0
 10
5.2542449648
 20
4.8880105661
 30
0.0
 10
5.3132965286
 20
4.8890520746
 30
0.0
 10
5.3437898865
 20
4.8895815112
 30
0.0
  0
SPLINE
  5
694
100
AcDbEntity
  8
AXIS
100
AcDbSpline
 62
7
  6
CONTINUOUS
 70
0
 71
3
 72
8
 73
4
 74
0
 42
0.0000001
 43
0.0000001
 44
0.0000000001
 40
0.0
 40
0.0
 40
0.0
 40
0.0
 40
1.0
 40
1.0
 40
1.0
 40
1.0
 10
5.7037126742
 20
4.7459091208
 30
0.0
 10
5.6535817576
 20
4.7328157103
 30
0.0
 10
5.6025948132
 20
4.7224191393
 30
0.0
 10
5.5511846454
 20
4.7159739201
 30
0.0
  0
SPLINE
  5
695
100
AcDbEntity
  8
AXIS
100
AcDbSpline
 62
7
  6
CONTINUOUS
 70
0
 71
3
 72
8
 73
4
 74
0
 42
0.0000001
 43
0.0000001
 44
0.0000000001
 40
0.0
 40
0.0
 40
0.0
 40
0.0
 40
1.0
 40
1.0
 40
1.0
 40
1.0
 10
5.3437898865
 20
4.7124161568
 30
0.0
 10
5.292475015
 20
4.7171306054
 30
0.0
 10
5.2414505997
 20
4.7259143655
 30
0.0
 10
5.1912618577
 20
4.7375990663
 30
0.0
  0
SPLINE
  5
696
100
AcDbEntity
  8
AXIS
100
AcDbSpline
 62
7
  6
CONTINUOUS
 70
0
 71
3
 72
8
 73
4
 74
0
 42
0.0000001
 43
0.0000001
 44
0.0000000001
 40
0.0
 40
0.0
 40
0.0
 40
0.0
 40
1.0
 40
1.0
 40
1.0
 40
1.0
 10
5.7037126742
 20
4.6868540027
 30
0.0
 10
5.6535817576
 20
4.6737605922
 30
0.0
 10
5.6025948132
 20
4.6633640212
 30
0.0
 10
5.5511846454
 20
4.656918802
 30
0.0
  0
SPLINE
  5
697
100
AcDbEntity
  8
AXIS
100
AcDbSpline
 62
7
  6
CONTINUOUS
 70
0
 71
3
 72
8
 73
4
 74
0
 42
0.0000001
 43
0.0000001
 44
0.0000000001
 40
0.0
 40
0.0
 40
0.0
 40
0.0
 40
1.0
 40
1.0
 40
1.0
 40
1.0
 10
5.7037126742
 20
4.8640193571
 30
0.0
 10
5.6535817576
 20
4.8509259465
 30
0.0
 10
5.6025948132
 20
4.8405293755
 30
0.0
 10
5.5511846454
 20
4.8340841563
 30
0.0
  0
SPLINE
  5
698
100
AcDbEntity
  8
AXIS
100
AcDbSpline
 62
7
  6
CONTINUOUS
 70
0
 71
3
 72
8
 73
4
 74
0
 42
0.0000001
 43
0.0000001
 44
0.0000000001
 40
0.0
 40
0.0
 40
0.0
 40
0.0
 40
1.0
 40
1.0
 40
1.0
 40
1.0
 10
5.1912618577
 20
4.8557093026
 30
0.0
 10
5.2413927743
 20
4.8688027131
 30
0.0
 10
5.2923797187
 20
4.8791992841
 30
0.0
 10
5.3437898865
 20
4.8856445033
 30
0.0
  0
SPLINE
  5
699
100
AcDbEntity
  8
AXIS
100
AcDbSpline
 62
7
  6
CONTINUOUS
 70
0
 71
3
 72
21
 73
17
 74
0
 42
0.0000001
 43
0.0000001
 44
0.0000000001
 40
0.0
 40
0.0
 40
0.0
 40
0.0
 40
0.2097239111
 40
0.4013891824
 40
0.5712595181
 40
0.716198233
 40
0.7784281669
 40
0.833437217
 40
0.8809554119
 40
0.9207712835
 40
0.9526947821
 40
0.976579017
 40
0.9854800048
 40
0.9923436251
 40
0.9971713089
 40
1.0
 40
1.0
 40
1.0
 40
1.0
 10
5.1912618577
 20
4.8557093026
 30
0.0
 10
5.1673049517
 20
4.8552933542
 30
0.0
 10
5.12145441
 20
4.8544727376
 30
0.0
 10
5.0562016138
 20
4.8531977443
 30
0.0
 10
4.9983518933
 20
4.8519267388
 30
0.0
 10
4.9552898217
 20
4.8508269298
 30
0.0
 10
4.9253501157
 20
4.849925021
 30
0.0
 10
4.9065377209
 20
4.8492852355
 30
0.0
 10
4.8902878803
 20
4.848647209
 30
0.0
 10
4.8766770931
 20
4.8480144029
 30
0.0
 10
4.865771157
 20
4.8473848646
 30
0.0
 10
4.8583959729
 20
4.8468358076
 30
0.0
 10
4.8538925807
 20
4.846365981
 30
0.0
 10
4.8515551909
 20
4.8460594802
 30
0.0
 10
4.8499335076
 20
4.8457492008
 30
0.0
 10
4.8490745495
 20
4.8455177329
 30
0.0
 10
4.8487947807
 20
4.8453559628
 30
0.0
  0
SPLINE
  5
69A
100
AcDbEntity
  8
AXIS
100
AcDbSpline
 62
7
  6
CONTINUOUS
 70
0
 71
3
 72
8
 73
4
 74
0
 42
0.0000001
 43
0.0000001
 44
0.0000000001
 40
0.0
 40
0.0
 40
0.0
 40
0.0
 40
1.0
 40
1.0
 40
1.0
 40
1.0
 10
5.1912618577
 20
4.7966541844
 30
0.0
 10
5.2413927743
 20
4.809747595
 30
0.0
 10
5.2923797187
 20
4.820144166
 30
0.0
 10
5.3437898865
 20
4.8265893852
 30
0.0
  0
SPLINE
  5
69B
100
AcDbEntity
  8
AXIS
100
AcDbSpline
 62
7
  6
CONTINUOUS
 70
0
 71
3
 72
21
 73
17
 74
0
 42
0.0000001
 43
0.0000001
 44
0.0000000001
 40
0.0
 40
0.0
 40
0.0
 40
0.0
 40
0.2097239111
 40
0.4013891824
 40
0.5712595181
 40
0.716198233
 40
0.7784281669
 40
0.833437217
 40
0.8809554119
 40
0.9207712835
 40
0.9526947821
 40
0.976579017
 40
0.9854800048
 40
0.9923436251
 40
0.9971713089
 40
1.0
 40
1.0
 40
1.0
 40
1.0
 10
5.1912618577
 20
4.7966541844
 30
0.0
 10
5.1673049517
 20
4.7962382361
 30
0.0
 10
5.12145441
 20
4.7954176195
 30
0.0
 10
5.0562016138
 20
4.7941426262
 30
0.0
 10
4.9983518933
 20
4.7928716207
 30
0.0
 10
4.9552898217
 20
4.7917718116
 30
0.0
 10
4.9253501157
 20
4.7908699029
 30
0.0
 10
4.9065377209
 20
4.7902301174
 30
0.0
 10
4.8902878803
 20
4.7895920909
 30
0.0
 10
4.8766770931
 20
4.7889592848
 30
0.0
 10
4.865771157
 20
4.7883297465
 30
0.0
 10
4.8583959729
 20
4.7877806895
 30
0.0
 10
4.8538925807
 20
4.7873108629
 30
0.0
 10
4.8515551909
 20
4.7870043621
 30
0.0
 10
4.8499335076
 20
4.7866940827
 30
0.0
 10
4.8490745495
 20
4.7864626148
 30
0.0
 10
4.8487947807
 20
4.7863008447
 30
0.0
  0
SPLINE
  5
69C
100
AcDbEntity
  8
AXIS
100
AcDbSpline
 62
7
  6
CONTINUOUS
 70
0
 71
3
 72
8
 73
4
 74
0
 42
0.0000001
 43
0.0000001
 44
0.0000000001
 40
0.0
 40
0.0
 40
0.0
 40
0.0
 40
1.0
 40
1.0
 40
1.0
 40
1.0
 10
5.5511846454
 20
4.7710920304
 30
0.0
 10
5.6024995168
 20
4.7663775818
 30
0.0
 10
5.6535239322
 20
4.7575938217
 30
0.0
 10
5.7037126742
 20
4.7459091208
 30
0.0
  0
SPLINE
  5
69D
100
AcDbEntity
  8
AXIS
100
AcDbSpline
 62
7
  6
CONTINUOUS
 70
0
 71
3
 72
25
 73
21
 74
0
 42
0.0000001
 43
0.0000001
 44
0.0000000001
 40
0.0
 40
0.0
 40
0.0
 40
0.0
 40
0.0014629152
 40
0.0050193328
 40
0.0108118599
 40
0.0188581271
 40
0.0291551203
 40
0.0416841513
 40
0.0564225977
 40
0.073346944
 40
0.1136310761
 40
0.1622313703
 40
0.2187986715
 40
0.2829020407
 40
0.3540737873
 40
0.4317764695
 40
0.5154394091
 40
0.6044264825
 40
0.7957326284
 40
1.0
 40
1.0
 40
1.0
 40
1.0
 10
4.8963061653
 20
5.2899825231
 30
0.0
 10
4.8963063328
 20
5.2902009422
 30
0.0
 10
4.8972297776
 20
5.2905522096
 30
0.0
 10
4.8986116024
 20
5.2908673938
 30
0.0
 10
4.9012883704
 20
5.2912696852
 30
0.0
 10
4.90482459
 20
5.2916512215
 30
0.0
 10
4.9094351405
 20
5.292051244
 30
0.0
 10
4.9150231036
 20
5.2924491822
 30
0.0
 10
4.9216112039
 20
5.292850755
 30
0.0
 10
4.9323371943
 20
5.2934203939
 30
0.0
 10
4.94812048
 20
5.2941142472
 30
0.0
 10
4.9698222044
 20
5.2949124386
 30
0.0
 10
4.9950825222
 20
5.2957133627
 30
0.0
 10
5.023714122
 20
5.2965169367
 30
0.0
 10
5.0555024305
 20
5.2973217591
 30
0.0
 10
5.090211869
 20
5.2981277974
 30
0.0
 10
5.1275818584
 20
5.2989344655
 30
0.0
 10
5.1819108136
 20
5.3000376014
 30
0.0
 10
5.2542449648
 20
5.3013963929
 30
0.0
 10
5.3132965286
 20
5.3024379013
 30
0.0
 10
5.3437898865
 20
5.3029673379
 30
0.0
  0
SPLINE
  5
69E
100
AcDbEntity
  8
AXIS
100
AcDbSpline
 62
7
  6
CONTINUOUS
 70
0
 71
3
 72
8
 73
4
 74
0
 42
0.0000001
 43
0.0000001
 44
0.0000000001
 40
0.0
 40
0.0
 40
0.0
 40
0.0
 40
1.0
 40
1.0
 40
1.0
 40
1.0
 10
5.1912618577
 20
4.7375990663
 30
0.0
 10
5.2413927743
 20
4.7506924769
 30
0.0
 10
5.2923797187
 20
4.7610890479
 30
0.0
 10
5.3437898865
 20
4.7675342671
 30
0.0
  0
SPLINE
  5
69F
100
AcDbEntity
  8
AXIS
100
AcDbSpline
 62
7
  6
CONTINUOUS
 70
0
 71
3
 72
21
 73
17
 74
0
 42
0.0000001
 43
0.0000001
 44
0.0000000001
 40
0.0
 40
0.0
 40
0.0
 40
0.0
 40
0.2097239111
 40
0.4013891824
 40
0.5712595181
 40
0.716198233
 40
0.7784281669
 40
0.833437217
 40
0.8809554119
 40
0.9207712835
 40
0.9526947821
 40
0.976579017
 40
0.9854800048
 40
0.9923436251
 40
0.9971713089
 40
1.0
 40
1.0
 40
1.0
 40
1.0
 10
5.1912618577
 20
4.7375990663
 30
0.0
 10
5.1673049517
 20
4.737183118
 30
0.0
 10
5.12145441
 20
4.7363625014
 30
0.0
 10
5.0562016138
 20
4.7350875081
 30
0.0
 10
4.9983518933
 20
4.7338165026
 30
0.0
 10
4.9552898217
 20
4.7327166935
 30
0.0
 10
4.9253501157
 20
4.7318147848
 30
0.0
 10
4.9065377209
 20
4.7311749993
 30
0.0
 10
4.8902878803
 20
4.7305369728
 30
0.0
 10
4.8766770931
 20
4.7299041666
 30
0.0
 10
4.865771157
 20
4.7292746284
 30
0.0
 10
4.8583959729
 20
4.7287255714
 30
0.0
 10
4.8538925807
 20
4.7282557448
 30
0.0
 10
4.8515551909
 20
4.7279492439
 30
0.0
 10
4.8499335076
 20
4.7276389646
 30
0.0
 10
4.8490745495
 20
4.7274074967
 30
0.0
 10
4.8487947807
 20
4.7272457266
 30
0.0
  0
SPLINE
  5
6A0
100
AcDbEntity
  8
AXIS
100
AcDbSpline
 62
7
  6
CONTINUOUS
 70
0
 71
3
 72
8
 73
4
 74
0
 42
0.0000001
 43
0.0000001
 44
0.0000000001
 40
0.0
 40
0.0
 40
0.0
 40
0.0
 40
1.0
 40
1.0
 40
1.0
 40
1.0
 10
5.5511846454
 20
4.7120369123
 30
0.0
 10
5.6024995168
 20
4.7073224636
 30
0.0
 10
5.6535239322
 20
4.6985387036
 30
0.0
 10
5.7037126742
 20
4.6868540027
 30
0.0
  0
SPLINE
  5
6A1
100
AcDbEntity
  8
AXIS
100
AcDbSpline
 62
7
  6
CONTINUOUS
 70
0
 71
3
 72
25
 73
21
 74
0
 42
0.0000001
 43
0.0000001
 44
0.0000000001
 40
0.0
 40
0.0
 40
0.0
 40
0.0
 40
0.0014625901
 40
0.0050189367
 40
0.0108114773
 40
0.0188575878
 40
0.0291547942
 40
0.041684602
 40
0.0564238179
 40
0.073348361
 40
0.1136334556
 40
0.1622339864
 40
0.2188005135
 40
0.2829028722
 40
0.3540734601
 40
0.4317764218
 40
0.515441766
 40
0.604431531
 40
0.7957355176
 40
1.0
 40
1.0
 40
1.0
 40
1.0
 10
5.9986683683
 20
4.7250218101
 30
0.0
 10
5.9986683683
 20
4.7248034394
 30
0.0
 10
5.9977448115
 20
4.7244519909
 30
0.0
 10
5.9963632163
 20
4.7241369737
 30
0.0
 10
5.9936863837
 20
4.7237345855
 30
0.0
 10
5.9901501992
 20
4.7233530561
 30
0.0
 10
5.9855395069
 20
4.7229530046
 30
0.0
 10
5.9799512865
 20
4.7225550665
 30
0.0
 10
5.9733629229
 20
4.7221534842
 30
0.0
 10
5.9626366455
 20
4.721583812
 30
0.0
 10
5.9468531478
 20
4.7208899704
 30
0.0
 10
5.9251513573
 20
4.7200917778
 30
0.0
 10
5.899891267
 20
4.7192908627
 30
0.0
 10
5.8712601025
 20
4.7184873074
 30
0.0
 10
5.8394720719
 20
4.7176824881
 30
0.0
 10
5.804762401
 20
4.7168764467
 30
0.0
 10
5.7673916041
 20
4.716069764
 30
0.0
 10
5.7130622033
 20
4.714966619
 30
0.0
 10
5.6407283941
 20
4.7136078364
 30
0.0
 10
5.5816775761
 20
4.7125663414
 30
0.0
 10
5.5511846454
 20
4.7120369123
 30
0.0
  0
SPLINE
  5
6A2
100
AcDbEntity
  8
AXIS
100
AcDbSpline
 62
7
  6
CONTINUOUS
 70
0
 71
3
 72
8
 73
4
 74
0
 42
0.0000001
 43
0.0000001
 44
0.0000000001
 40
0.0
 40
0.0
 40
0.0
 40
0.0
 40
1.0
 40
1.0
 40
1.0
 40
1.0
 10
5.5511846454
 20
4.8892022666
 30
0.0
 10
5.6024995168
 20
4.884487818
 30
0.0
 10
5.6535239322
 20
4.8757040579
 30
0.0
 10
5.7037126742
 20
4.8640193571
 30
0.0
  0
SPLINE
  5
6A3
100
AcDbEntity
  8
AXIS
100
AcDbSpline
 62
7
  6
CONTINUOUS
 70
0
 71
3
 72
9
 73
5
 74
0
 42
0.0000001
 43
0.0000001
 44
0.0000000001
 40
0.0
 40
0.0
 40
0.0
 40
0.0
 40
0.2954022115
 40
1.0
 40
1.0
 40
1.0
 40
1.0
 10
5.9986673592
 20
4.7840769282
 30
0.0
 10
5.9986673592
 20
4.7838790399
 30
0.0
 10
5.9978597881
 20
4.7835352722
 30
0.0
 10
5.9973112239
 20
4.7834101444
 30
0.0
 10
5.9968492993
 20
4.7833131107
 30
0.0
  0
SPLINE
  5
6A4
100
AcDbEntity
  8
AXIS
100
AcDbSpline
 62
7
  6
CONTINUOUS
 70
0
 71
3
 72
18
 73
14
 74
0
 42
0.0000001
 43
0.0000001
 44
0.0000000001
 40
0.0
 40
0.0
 40
0.0
 40
0.0
 40
0.0123333958
 40
0.0326665921
 40
0.060901657
 40
0.096852981
 40
0.1402960652
 40
0.1909386291
 40
0.312460811
 40
0.4582240331
 40
0.6243902856
 40
0.8065823746
 40
1.0
 40
1.0
 40
1.0
 40
1.0
 10
5.9968492993
 20
4.7833131107
 30
0.0
 10
5.9950552891
 20
4.782936254
 30
0.0
 10
5.9902185704
 20
4.7823964839
 30
0.0
 10
5.9812020591
 20
4.7816599022
 30
0.0
 10
5.9686568968
 20
4.7809355707
 30
0.0
 10
5.9526780462
 20
4.7801861451
 30
0.0
 10
5.9333640569
 20
4.7794367
 30
0.0
 10
5.9013353938
 20
4.7783642368
 30
0.0
 10
5.8540977076
 20
4.777068886
 30
0.0
 10
5.7896892126
 20
4.77557679
 30
0.0
 10
5.7162610302
 20
4.7740783205
 30
0.0
 10
5.6357486011
 20
4.7725746399
 30
0.0
 10
5.5799287942
 20
4.7715910966
 30
0.0
 10
5.5511846454
 20
4.7710920304
 30
0.0
  0
SPLINE
  5
6A5
100
AcDbEntity
  8
AXIS
100
AcDbSpline
 62
7
  6
CONTINUOUS
 70
0
 71
3
 72
9
 73
5
 74
0
 42
0.0000001
 43
0.0000001
 44
0.0000000001
 40
0.0
 40
0.0
 40
0.0
 40
0.0
 40
0.2954022115
 40
1.0
 40
1.0
 40
1.0
 40
1.0
 10
5.9986673592
 20
4.8431320463
 30
0.0
 10
5.9986673592
 20
4.842934158
 30
0.0
 10
5.9978597881
 20
4.8425903903
 30
0.0
 10
5.9973112239
 20
4.8424652625
 30
0.0
 10
5.9968492993
 20
4.8423682288
 30
0.0
  0
SPLINE
  5
6A6
100
AcDbEntity
  8
AXIS
100
AcDbSpline
 62
7
  6
CONTINUOUS
 70
0
 71
3
 72
18
 73
14
 74
0
 42
0.0000001
 43
0.0000001
 44
0.0000000001
 40
0.0
 40
0.0
 40
0.0
 40
0.0
 40
0.0123333958
 40
0.0326665921
 40
0.060901657
 40
0.096852981
 40
0.1402960652
 40
0.1909386291
 40
0.312460811
 40
0.4582240331
 40
0.6243902856
 40
0.8065823746
 40
1.0
 40
1.0
 40
1.0
 40
1.0
 10
5.9968492993
 20
4.8423682288
 30
0.0
 10
5.9950552891
 20
4.8419913721
 30
0.0
 10
5.9902185704
 20
4.841451602
 30
0.0
 10
5.9812020591
 20
4.8407150203
 30
0.0
 10
5.9686568968
 20
4.8399906888
 30
0.0
 10
5.9526780462
 20
4.8392412632
 30
0.0
 10
5.9333640569
 20
4.8384918181
 30
0.0
 10
5.9013353938
 20
4.8374193549
 30
0.0
 10
5.8540977076
 20
4.8361240041
 30
0.0
 10
5.7896892126
 20
4.8346319081
 30
0.0
 10
5.7162610302
 20
4.8331334386
 30
0.0
 10
5.6357486011
 20
4.831629758
 30
0.0
 10
5.5799287942
 20
4.8306462147
 30
0.0
 10
5.5511846454
 20
4.8301471485
 30
0.0
  0
SPLINE
  5
6A7
100
AcDbEntity
  8
AXIS
100
AcDbSpline
 62
7
  6
CONTINUOUS
 70
0
 71
3
 72
8
 73
4
 74
0
 42
0.0000001
 43
0.0000001
 44
0.0000000001
 40
0.0
 40
0.0
 40
0.0
 40
0.0
 40
1.0
 40
1.0
 40
1.0
 40
1.0
 10
5.5511846454
 20
4.8301471485
 30
0.0
 10
5.6024995168
 20
4.8254326999
 30
0.0
 10
5.6535239322
 20
4.8166489398
 30
0.0
 10
5.7037126742
 20
4.804964239
 30
0.0
  0
SPLINE
  5
6A8
100
AcDbEntity
  8
AXIS
100
AcDbSpline
 62
7
  6
CONTINUOUS
 70
0
 71
3
 72
25
 73
21
 74
0
 42
0.0000001
 43
0.0000001
 44
0.0000000001
 40
0.0
 40
0.0
 40
0.0
 40
0.0
 40
0.0014625901
 40
0.0050189367
 40
0.0108114773
 40
0.0188575878
 40
0.0291547942
 40
0.041684602
 40
0.0564238179
 40
0.073348361
 40
0.1136334556
 40
0.1622339864
 40
0.2188005135
 40
0.2829028722
 40
0.3540734601
 40
0.4317764218
 40
0.515441766
 40
0.604431531
 40
0.7957355176
 40
1.0
 40
1.0
 40
1.0
 40
1.0
 10
5.9986683683
 20
4.9021871645
 30
0.0
 10
5.9986683683
 20
4.9019687937
 30
0.0
 10
5.9977448115
 20
4.9016173453
 30
0.0
 10
5.9963632163
 20
4.901302328
 30
0.0
 10
5.9936863837
 20
4.9008999399
 30
0.0
 10
5.9901501992
 20
4.9005184104
 30
0.0
 10
5.9855395069
 20
4.900118359
 30
0.0
 10
5.9799512865
 20
4.8997204208
 30
0.0
 10
5.9733629229
 20
4.8993188385
 30
0.0
 10
5.9626366455
 20
4.8987491663
 30
0.0
 10
5.9468531478
 20
4.8980553248
 30
0.0
 10
5.9251513573
 20
4.8972571321
 30
0.0
 10
5.899891267
 20
4.896456217
 30
0.0
 10
5.8712601025
 20
4.8956526618
 30
0.0
 10
5.8394720719
 20
4.8948478424
 30
0.0
 10
5.804762401
 20
4.894041801
 30
0.0
 10
5.7673916041
 20
4.8932351183
 30
0.0
 10
5.7130622033
 20
4.8921319733
 30
0.0
 10
5.6407283941
 20
4.8907731907
 30
0.0
 10
5.5816775761
 20
4.8897316957
 30
0.0
 10
5.5511846454
 20
4.8892022666
 30
0.0
  0
LINE
  5
6A9
100
AcDbEntity
  8
AXIS
100
AcDbLine
 62
7
  6
CONTINUOUS
 10
5.8027077163
 20
5.0751081059
 11
5.8032309453
 21
5.0751197806
  0
LINE
  5
6AA
100
AcDbEntity
  8
AXIS
100
AcDbLine
 62
7
  6
CONTINUOUS
 10
5.8032309453
 20
5.0751197806
 11
5.8064456503
 21
5.0751917814
  0
SPLINE
  5
6AB
100
AcDbEntity
  8
AXIS
100
AcDbSpline
 62
7
  6
CONTINUOUS
 70
0
 71
3
 72
19
 73
15
 74
0
 42
0.0000001
 43
0.0000001
 44
0.0000000001
 40
0.0
 40
0.0
 40
0.0
 40
0.0
 40
0.2158374667
 40
0.4091754489
 40
0.5779274607
 40
0.7202664548
 40
0.7810467034
 40
0.8346766713
 40
0.8810039211
 40
0.9199201989
 40
0.9513281362
 40
0.9751425898
 40
0.9913398286
 40
1.0
 40
1.0
 40
1.0
 40
1.0
 10
5.8064456503
 20
5.0751917814
 30
0.0
 10
5.8202735865
 20
5.0755025075
 30
0.0
 10
5.8464874539
 20
5.0761161846
 30
0.0
 10
5.8835100483
 20
5.0770812836
 30
0.0
 10
5.915820905
 20
5.0780432433
 30
0.0
 10
5.9396370653
 20
5.0788772806
 30
0.0
 10
5.9560759871
 20
5.0795604229
 30
0.0
 10
5.9663654364
 20
5.0800438857
 30
0.0
 10
5.9752510113
 20
5.0805270615
 30
0.0
 10
5.9827134936
 20
5.0810039547
 30
0.0
 10
5.9887212848
 20
5.081486238
 30
0.0
 10
5.9932908094
 20
5.0819343309
 30
0.0
 10
5.9963456369
 20
5.0824194485
 30
0.0
 10
5.9979470058
 20
5.0827347169
 30
0.0
 10
5.9984277333
 20
5.083012005
 30
0.0
  0
SPLINE
  5
6AC
100
AcDbEntity
  8
0
100
AcDbSpline
 62
7
  6
CONTINUOUS
 70
0
 71
3
 72
27
 73
23
 74
0
 42
0.0000001
 43
0.0000001
 44
0.0000000001
 40
0.0
 40
0.0
 40
0.0
 40
0.0
 40
0.015654291
 40
0.0313196161
 40
0.046967858
 40
0.0625992249
 40
0.0938378795
 40
0.1250845581
 40
0.1875614174
 40
0.2500526916
 40
0.3750179358
 40
0.4999998658
 40
0.6249816621
 40
0.7499472118
 40
0.8124389858
 40
0.8749164591
 40
0.9061633926
 40
0.9374032978
 40
0.953036576
 40
0.9686924577
 40
0.9843507704
 40
1.0
 40
1.0
 40
1.0
 40
1.0
 10
5.5511846454
 20
4.6433288967
 30
0.0
 10
5.5511846454
 20
4.6421644346
 30
0.0
 10
5.5505810668
 20
4.6398220827
 30
0.0
 10
5.5485487549
 20
4.6369298973
 30
0.0
 10
5.5459420767
 20
4.6345800455
 30
0.0
 10
5.5420996374
 20
4.6319458289
 30
0.0
 10
5.5368709997
 20
4.6293567118
 30
0.0
 10
5.528150685
 20
4.6261172767
 30
0.0
 10
5.5168700493
 20
4.623218285
 30
0.0
 10
5.4985501659
 20
4.6200053872
 30
0.0
 10
5.475378955
 20
4.6178211401
 30
0.0
 10
5.4474877352
 20
4.6170214249
 30
0.0
 10
5.4195964772
 20
4.6178210917
 30
0.0
 10
5.3964252511
 20
4.620005401
 30
0.0
 10
5.3781051784
 20
4.6232180482
 30
0.0
 10
5.3668245577
 20
4.626117187
 30
0.0
 10
5.3581038309
 20
4.6293563398
 30
0.0
 10
5.352875632
 20
4.6319464155
 30
0.0
 10
5.3490312936
 20
4.634579615
 30
0.0
 10
5.3464263256
 20
4.636931307
 30
0.0
 10
5.3443913938
 20
4.6398214624
 30
0.0
 10
5.343790081
 20
4.6421635736
 30
0.0
 10
5.3437898865
 20
4.6433276593
 30
0.0
  0
SPLINE
  5
6AD
100
AcDbEntity
  8
AXIS
100
AcDbSpline
 62
7
  6
CONTINUOUS
 70
0
 71
3
 72
9
 73
5
 74
0
 42
0.0000001
 43
0.0000001
 44
0.0000000001
 40
0.0
 40
0.0
 40
0.0
 40
0.0
 40
0.2954022115
 40
1.0
 40
1.0
 40
1.0
 40
1.0
 10
5.9986673592
 20
4.9612422826
 30
0.0
 10
5.9986673592
 20
4.9610443942
 30
0.0
 10
5.9978597881
 20
4.9607006265
 30
0.0
 10
5.9973112239
 20
4.9605754987
 30
0.0
 10
5.9968492993
 20
4.960478465
 30
0.0
  0
SPLINE
  5
6AE
100
AcDbEntity
  8
AXIS
100
AcDbSpline
 62
7
  6
CONTINUOUS
 70
0
 71
3
 72
18
 73
14
 74
0
 42
0.0000001
 43
0.0000001
 44
0.0000000001
 40
0.0
 40
0.0
 40
0.0
 40
0.0
 40
0.0123333958
 40
0.0326665921
 40
0.060901657
 40
0.096852981
 40
0.1402960652
 40
0.1909386291
 40
0.312460811
 40
0.4582240331
 40
0.6243902856
 40
0.8065823746
 40
1.0
 40
1.0
 40
1.0
 40
1.0
 10
5.9968492993
 20
4.960478465
 30
0.0
 10
5.9950552891
 20
4.9601016083
 30
0.0
 10
5.9902185704
 20
4.9595618382
 30
0.0
 10
5.9812020591
 20
4.9588252565
 30
0.0
 10
5.9686568968
 20
4.958100925
 30
0.0
 10
5.9526780462
 20
4.9573514994
 30
0.0
 10
5.9333640569
 20
4.9566020543
 30
0.0
 10
5.9013353938
 20
4.9555295912
 30
0.0
 10
5.8540977076
 20
4.9542342403
 30
0.0
 10
5.7896892126
 20
4.9527421443
 30
0.0
 10
5.7162610302
 20
4.9512436748
 30
0.0
 10
5.6357486011
 20
4.9497399942
 30
0.0
 10
5.5799287942
 20
4.9487564509
 30
0.0
 10
5.5511846454
 20
4.9482573847
 30
0.0
  0
SPLINE
  5
6AF
100
AcDbEntity
  8
AXIS
100
AcDbSpline
 62
7
  6
CONTINUOUS
 70
0
 71
3
 72
9
 73
5
 74
0
 42
0.0000001
 43
0.0000001
 44
0.0000000001
 40
0.0
 40
0.0
 40
0.0
 40
0.0
 40
0.2954022115
 40
1.0
 40
1.0
 40
1.0
 40
1.0
 10
5.9986673592
 20
5.0202974007
 30
0.0
 10
5.9986673592
 20
5.0200995123
 30
0.0
 10
5.9978597881
 20
5.0197557446
 30
0.0
 10
5.9973112239
 20
5.0196306168
 30
0.0
 10
5.9968492993
 20
5.0195335832
 30
0.0
  0
SPLINE
  5
6B0
100
AcDbEntity
  8
AXIS
100
AcDbSpline
 62
7
  6
CONTINUOUS
 70
0
 71
3
 72
18
 73
14
 74
0
 42
0.0000001
 43
0.0000001
 44
0.0000000001
 40
0.0
 40
0.0
 40
0.0
 40
0.0
 40
0.0123333958
 40
0.0326665921
 40
0.060901657
 40
0.096852981
 40
0.1402960652
 40
0.1909386291
 40
0.312460811
 40
0.4582240331
 40
0.6243902856
 40
0.8065823746
 40
1.0
 40
1.0
 40
1.0
 40
1.0
 10
5.9968492993
 20
5.0195335832
 30
0.0
 10
5.9950552891
 20
5.0191567264
 30
0.0
 10
5.9902185704
 20
5.0186169563
 30
0.0
 10
5.9812020591
 20
5.0178803746
 30
0.0
 10
5.9686568968
 20
5.0171560431
 30
0.0
 10
5.9526780462
 20
5.0164066175
 30
0.0
 10
5.9333640569
 20
5.0156571724
 30
0.0
 10
5.9013353938
 20
5.0145847093
 30
0.0
 10
5.8540977076
 20
5.0132893584
 30
0.0
 10
5.7896892126
 20
5.0117972624
 30
0.0
 10
5.7162610302
 20
5.0102987929
 30
0.0
 10
5.6357486011
 20
5.0087951124
 30
0.0
 10
5.5799287942
 20
5.007811569
 30
0.0
 10
5.5511846454
 20
5.0073125028
 30
0.0
  0
SPLINE
  5
6B1
100
AcDbEntity
  8
AXIS
100
AcDbSpline
 62
7
  6
CONTINUOUS
 70
0
 71
3
 72
9
 73
5
 74
0
 42
0.0000001
 43
0.0000001
 44
0.0000000001
 40
0.0
 40
0.0
 40
0.0
 40
0.0
 40
0.2954022115
 40
1.0
 40
1.0
 40
1.0
 40
1.0
 10
5.9986673592
 20
5.0793525188
 30
0.0
 10
5.9986673592
 20
5.0791546304
 30
0.0
 10
5.9978597881
 20
5.0788108627
 30
0.0
 10
5.9973112239
 20
5.078685735
 30
0.0
 10
5.9968492993
 20
5.0785887013
 30
0.0
  0
SPLINE
  5
6B2
100
AcDbEntity
  8
AXIS
100
AcDbSpline
 62
7
  6
CONTINUOUS
 70
0
 71
3
 72
15
 73
11
 74
0
 42
0.0000001
 43
0.0000001
 44
0.0000000001
 40
0.0
 40
0.0
 40
0.0
 40
0.0
 40
0.0150091884
 40
0.0367896004
 40
0.100537998
 40
0.1907316912
 40
0.3065257386
 40
0.4468042583
 40
0.6102336217
 40
1.0
 40
1.0
 40
1.0
 40
1.0
 10
5.9968492993
 20
5.0785887013
 30
0.0
 10
5.995903236
 20
5.0783899675
 30
0.0
 10
5.9935555014
 20
5.0780484876
 30
0.0
 10
5.9871166776
 20
5.0773667119
 30
0.0
 10
5.9758213157
 20
5.0765961862
 30
0.0
 10
5.9584720237
 20
5.075703116
 30
0.0
 10
5.9361869114
 20
5.0748067284
 30
0.0
 10
5.9091829921
 20
5.0738984831
 30
0.0
 10
5.8645362079
 20
5.0726067199
 30
0.0
 10
5.8289159565
 20
5.0717568745
 30
0.0
 10
5.8038181646
 20
5.0711958932
 30
0.0
  0
LINE
  5
6B3
100
AcDbEntity
  8
AXIS
100
AcDbLine
 62
7
  6
CONTINUOUS
 10
5.8038181646
 20
5.0711958932
 11
5.8032621827
 21
5.071183473
  0
SPLINE
  5
6B4
100
AcDbEntity
  8
AXIS
100
AcDbSpline
 62
7
  6
CONTINUOUS
 70
0
 71
3
 72
25
 73
21
 74
0
 42
0.0000001
 43
0.0000001
 44
0.0000000001
 40
0.0
 40
0.0
 40
0.0
 40
0.0
 40
0.0014625901
 40
0.0050189367
 40
0.0108114773
 40
0.0188575878
 40
0.0291547942
 40
0.041684602
 40
0.0564238179
 40
0.073348361
 40
0.1136334556
 40
0.1622339864
 40
0.2188005135
 40
0.2829028722
 40
0.3540734601
 40
0.4317764218
 40
0.515441766
 40
0.604431531
 40
0.7957355176
 40
1.0
 40
1.0
 40
1.0
 40
1.0
 10
5.9986683683
 20
5.1384076369
 30
0.0
 10
5.9986683683
 20
5.1381892662
 30
0.0
 10
5.9977448115
 20
5.1378378177
 30
0.0
 10
5.9963632163
 20
5.1375228005
 30
0.0
 10
5.9936863837
 20
5.1371204123
 30
0.0
 10
5.9901501992
 20
5.1367388829
 30
0.0
 10
5.9855395069
 20
5.1363388314
 30
0.0
 10
5.9799512865
 20
5.1359408933
 30
0.0
 10
5.9733629229
 20
5.135539311
 30
0.0
 10
5.9626366455
 20
5.1349696388
 30
0.0
 10
5.9468531478
 20
5.1342757972
 30
0.0
 10
5.9251513573
 20
5.1334776045
 30
0.0
 10
5.899891267
 20
5.1326766895
 30
0.0
 10
5.8712601025
 20
5.1318731342
 30
0.0
 10
5.8394720719
 20
5.1310683149
 30
0.0
 10
5.804762401
 20
5.1302622735
 30
0.0
 10
5.7673916041
 20
5.1294555908
 30
0.0
 10
5.7130622033
 20
5.1283524457
 30
0.0
 10
5.6407283941
 20
5.1269936631
 30
0.0
 10
5.5816775761
 20
5.1259521682
 30
0.0
 10
5.5511846454
 20
5.125422739
 30
0.0
  0
SPLINE
  5
6B5
100
AcDbEntity
  8
AXIS
100
AcDbSpline
 62
7
  6
CONTINUOUS
 70
0
 71
3
 72
9
 73
5
 74
0
 42
0.0000001
 43
0.0000001
 44
0.0000000001
 40
0.0
 40
0.0
 40
0.0
 40
0.0
 40
0.2954022115
 40
1.0
 40
1.0
 40
1.0
 40
1.0
 10
5.9986673592
 20
5.197462755
 30
0.0
 10
5.9986673592
 20
5.1972648667
 30
0.0
 10
5.9978597881
 20
5.196921099
 30
0.0
 10
5.9973112239
 20
5.1967959712
 30
0.0
 10
5.9968492993
 20
5.1966989375
 30
0.0
  0
SPLINE
  5
6B6
100
AcDbEntity
  8
AXIS
100
AcDbSpline
 62
7
  6
CONTINUOUS
 70
0
 71
3
 72
18
 73
14
 74
0
 42
0.0000001
 43
0.0000001
 44
0.0000000001
 40
0.0
 40
0.0
 40
0.0
 40
0.0
 40
0.0123333958
 40
0.0326665921
 40
0.060901657
 40
0.096852981
 40
0.1402960652
 40
0.1909386291
 40
0.312460811
 40
0.4582240331
 40
0.6243902856
 40
0.8065823746
 40
1.0
 40
1.0
 40
1.0
 40
1.0
 10
5.9968492993
 20
5.1966989375
 30
0.0
 10
5.9950552891
 20
5.1963220807
 30
0.0
 10
5.9902185704
 20
5.1957823107
 30
0.0
 10
5.9812020591
 20
5.195045729
 30
0.0
 10
5.9686568968
 20
5.1943213974
 30
0.0
 10
5.9526780462
 20
5.1935719718
 30
0.0
 10
5.9333640569
 20
5.1928225267
 30
0.0
 10
5.9013353938
 20
5.1917500636
 30
0.0
 10
5.8540977076
 20
5.1904547128
 30
0.0
 10
5.7896892126
 20
5.1889626167
 30
0.0
 10
5.7162610302
 20
5.1874641472
 30
0.0
 10
5.6357486011
 20
5.1859604667
 30
0.0
 10
5.5799287942
 20
5.1849769233
 30
0.0
 10
5.5511846454
 20
5.1844778571
 30
0.0
  0
SPLINE
  5
6B7
100
AcDbEntity
  8
AXIS
100
AcDbSpline
 62
7
  6
CONTINUOUS
 70
0
 71
3
 72
9
 73
5
 74
0
 42
0.0000001
 43
0.0000001
 44
0.0000000001
 40
0.0
 40
0.0
 40
0.0
 40
0.0
 40
0.2954022115
 40
1.0
 40
1.0
 40
1.0
 40
1.0
 10
5.9986673592
 20
5.2565178731
 30
0.0
 10
5.9986673592
 20
5.2563199848
 30
0.0
 10
5.9978597881
 20
5.2559762171
 30
0.0
 10
5.9973112239
 20
5.2558510893
 30
0.0
 10
5.9968492993
 20
5.2557540556
 30
0.0
  0
SPLINE
  5
6B8
100
AcDbEntity
  8
AXIS
100
AcDbSpline
 62
7
  6
CONTINUOUS
 70
0
 71
3
 72
18
 73
14
 74
0
 42
0.0000001
 43
0.0000001
 44
0.0000000001
 40
0.0
 40
0.0
 40
0.0
 40
0.0
 40
0.0123333958
 40
0.0326665921
 40
0.060901657
 40
0.096852981
 40
0.1402960652
 40
0.1909386291
 40
0.312460811
 40
0.4582240331
 40
0.6243902856
 40
0.8065823746
 40
1.0
 40
1.0
 40
1.0
 40
1.0
 10
5.9968492993
 20
5.2557540556
 30
0.0
 10
5.9950552891
 20
5.2553771988
 30
0.0
 10
5.9902185704
 20
5.2548374288
 30
0.0
 10
5.9812020591
 20
5.2541008471
 30
0.0
 10
5.9686568968
 20
5.2533765156
 30
0.0
 10
5.9526780462
 20
5.25262709
 30
0.0
 10
5.9333640569
 20
5.2518776448
 30
0.0
 10
5.9013353938
 20
5.2508051817
 30
0.0
 10
5.8540977076
 20
5.2495098309
 30
0.0
 10
5.7896892126
 20
5.2480177349
 30
0.0
 10
5.7162610302
 20
5.2465192653
 30
0.0
 10
5.6357486011
 20
5.2450155848
 30
0.0
 10
5.5799287942
 20
5.2440320414
 30
0.0
 10
5.5511846454
 20
5.2435329752
 30
0.0
  0
SPLINE
  5
6B9
100
AcDbEntity
  8
AXIS
100
AcDbSpline
 62
7
  6
CONTINUOUS
 70
0
 71
3
 72
25
 73
21
 74
0
 42
0.0000001
 43
0.0000001
 44
0.0000000001
 40
0.0
 40
0.0
 40
0.0
 40
0.0
 40
0.0014625901
 40
0.0050189367
 40
0.0108114773
 40
0.0188575878
 40
0.0291547942
 40
0.041684602
 40
0.0564238179
 40
0.073348361
 40
0.1136334556
 40
0.1622339864
 40
0.2188005135
 40
0.2829028722
 40
0.3540734601
 40
0.4317764218
 40
0.515441766
 40
0.604431531
 40
0.7957355176
 40
1.0
 40
1.0
 40
1.0
 40
1.0
 10
5.9986683683
 20
5.3155729912
 30
0.0
 10
5.9986683683
 20
5.3153546205
 30
0.0
 10
5.9977448115
 20
5.315003172
 30
0.0
 10
5.9963632163
 20
5.3146881548
 30
0.0
 10
5.9936863837
 20
5.3142857666
 30
0.0
 10
5.9901501992
 20
5.3139042372
 30
0.0
 10
5.9855395069
 20
5.3135041857
 30
0.0
 10
5.9799512865
 20
5.3131062476
 30
0.0
 10
5.9733629229
 20
5.3127046653
 30
0.0
 10
5.9626366455
 20
5.3121349931
 30
0.0
 10
5.9468531478
 20
5.3114411516
 30
0.0
 10
5.9251513573
 20
5.3106429589
 30
0.0
 10
5.899891267
 20
5.3098420438
 30
0.0
 10
5.8712601025
 20
5.3090384885
 30
0.0
 10
5.8394720719
 20
5.3082336692
 30
0.0
 10
5.804762401
 20
5.3074276278
 30
0.0
 10
5.7673916041
 20
5.3066209451
 30
0.0
 10
5.7130622033
 20
5.3055178001
 30
0.0
 10
5.6407283941
 20
5.3041590175
 30
0.0
 10
5.5816775761
 20
5.3031175225
 30
0.0
 10
5.5511846454
 20
5.3025880934
 30
0.0
  0
SPLINE
  5
6BA
100
AcDbEntity
  8
AXIS
100
AcDbSpline
 62
7
  6
CONTINUOUS
 70
0
 71
3
 72
9
 73
5
 74
0
 42
0.0000001
 43
0.0000001
 44
0.0000000001
 40
0.0
 40
0.0
 40
0.0
 40
0.0
 40
0.2954022115
 40
1.0
 40
1.0
 40
1.0
 40
1.0
 10
5.9986673592
 20
5.3746281093
 30
0.0
 10
5.9986673592
 20
5.374430221
 30
0.0
 10
5.9978597881
 20
5.3740864533
 30
0.0
 10
5.9973112239
 20
5.3739613255
 30
0.0
 10
5.9968492993
 20
5.3738642918
 30
0.0
  0
SPLINE
  5
6BB
100
AcDbEntity
  8
AXIS
100
AcDbSpline
 62
7
  6
CONTINUOUS
 70
0
 71
3
 72
18
 73
14
 74
0
 42
0.0000001
 43
0.0000001
 44
0.0000000001
 40
0.0
 40
0.0
 40
0.0
 40
0.0
 40
0.0123333958
 40
0.0326665921
 40
0.060901657
 40
0.096852981
 40
0.1402960652
 40
0.1909386291
 40
0.312460811
 40
0.4582240331
 40
0.6243902856
 40
0.8065823746
 40
1.0
 40
1.0
 40
1.0
 40
1.0
 10
5.9968492993
 20
5.3738642918
 30
0.0
 10
5.9950552891
 20
5.3734874351
 30
0.0
 10
5.9902185704
 20
5.372947665
 30
0.0
 10
5.9812020591
 20
5.3722110833
 30
0.0
 10
5.9686568968
 20
5.3714867518
 30
0.0
 10
5.9526780462
 20
5.3707373262
 30
0.0
 10
5.9333640569
 20
5.3699878811
 30
0.0
 10
5.9013353938
 20
5.3689154179
 30
0.0
 10
5.8540977076
 20
5.3676200671
 30
0.0
 10
5.7896892126
 20
5.3661279711
 30
0.0
 10
5.7162610302
 20
5.3646295016
 30
0.0
 10
5.6357486011
 20
5.363125821
 30
0.0
 10
5.5799287942
 20
5.3621422777
 30
0.0
 10
5.5511846454
 20
5.3616432115
 30
0.0
  0
SPLINE
  5
6BC
100
AcDbEntity
  8
AXIS
100
AcDbSpline
 62
7
  6
CONTINUOUS
 70
0
 71
3
 72
9
 73
5
 74
0
 42
0.0000001
 43
0.0000001
 44
0.0000000001
 40
0.0
 40
0.0
 40
0.0
 40
0.0
 40
0.2954022115
 40
1.0
 40
1.0
 40
1.0
 40
1.0
 10
5.9986673592
 20
5.4336832275
 30
0.0
 10
5.9986673592
 20
5.4334853391
 30
0.0
 10
5.9978597881
 20
5.4331415714
 30
0.0
 10
5.9973112239
 20
5.4330164436
 30
0.0
 10
5.9968492993
 20
5.4329194099
 30
0.0
  0
SPLINE
  5
6BD
100
AcDbEntity
  8
AXIS
100
AcDbSpline
 62
7
  6
CONTINUOUS
 70
0
 71
3
 72
17
 73
13
 74
0
 42
0.0000001
 43
0.0000001
 44
0.0000000001
 40
0.0
 40
0.0
 40
0.0
 40
0.0
 40
0.0134216879
 40
0.0341422872
 40
0.0621130934
 40
0.0972359616
 40
0.1883555635
 40
0.3060762692
 40
0.4485385817
 40
0.6134801307
 40
0.7982857224
 40
1.0
 40
1.0
 40
1.0
 40
1.0
 10
5.9968492993
 20
5.4329194099
 30
0.0
 10
5.9955576499
 20
5.432648081
 30
0.0
 10
5.9922224465
 20
5.4322154316
 30
0.0
 10
5.9861430148
 20
5.431646202
 30
0.0
 10
5.9779191651
 20
5.4310758364
 30
0.0
 10
5.9627786377
 20
5.4302249063
 30
0.0
 10
5.9388080166
 20
5.4292182576
 30
0.0
 10
5.9042815689
 20
5.42806479
 30
0.0
 10
5.8624921922
 20
5.4269047123
 30
0.0
 10
5.8141041658
 20
5.4257371584
 30
0.0
 10
5.7598880418
 20
5.4245664032
 30
0.0
 10
5.7218865395
 20
5.4238130406
 30
0.0
 10
5.7020543563
 20
5.4234317557
 30
0.0
  0
SPLINE
  5
6BE
100
AcDbEntity
  8
0
100
AcDbSpline
 62
7
  6
CONTINUOUS
 70
0
 71
3
 72
15
 73
11
 74
0
 42
0.0000001
 43
0.0000001
 44
0.0000000001
 40
0.0
 40
0.0
 40
0.0
 40
0.0
 40
0.0107845514
 40
0.0285656132
 40
0.0889517348
 40
0.1823255019
 40
0.305893618
 40
0.4552328215
 40
0.6249890692
 40
1.0
 40
1.0
 40
1.0
 40
1.0
 10
5.3402429756
 20
5.5767625096
 30
0.0
 10
5.3403836479
 20
5.5767357162
 30
0.0
 10
5.3406848884
 20
5.5764475606
 30
0.0
 10
5.3411876518
 20
5.5753919579
 30
0.0
 10
5.3417397935
 20
5.573151902
 30
0.0
 10
5.3423118766
 20
5.5695250961
 30
0.0
 10
5.3428234808
 20
5.5646817513
 30
0.0
 10
5.3432496924
 20
5.5588205526
 30
0.0
 10
5.3436872058
 20
5.5496128011
 30
0.0
 10
5.3437898865
 20
5.5423779589
 30
0.0
 10
5.3437898865
 20
5.5373984271
 30
0.0
  0
SPLINE
  5
6BF
100
AcDbEntity
  8
AXIS
100
AcDbSpline
 62
7
  6
CONTINUOUS
 70
0
 71
3
 72
20
 73
16
 74
0
 42
0.0000001
 43
0.0000001
 44
0.0000000001
 40
0.0
 40
0.0
 40
0.0
 40
0.0
 40
0.0018528368
 40
0.0052704575
 40
0.0178424605
 40
0.0383682168
 40
0.0668804637
 40
0.1033496655
 40
0.1477287489
 40
0.1999352467
 40
0.2598581104
 40
0.4023907469
 40
0.5742072692
 40
0.773944676
 40
1.0
 40
1.0
 40
1.0
 40
1.0
 10
5.9986673592
 20
5.4927383456
 30
0.0
 10
5.9986673592
 20
5.4926545734
 30
0.0
 10
5.9984758465
 20
5.4924546614
 30
0.0
 10
5.9977435547
 20
5.4921643271
 30
0.0
 10
5.9961058278
 20
5.4918006428
 30
0.0
 10
5.993359701
 20
5.4914139924
 30
0.0
 10
5.9895090293
 20
5.4910056836
 30
0.0
 10
5.9845834902
 20
5.4905960702
 30
0.0
 10
5.9785810353
 20
5.4901819612
 30
0.0
 10
5.9715172139
 20
5.4897665792
 30
0.0
 10
5.960018154
 20
5.489176204
 30
0.0
 10
5.9431112826
 20
5.4884574948
 30
0.0
 10
5.919882519
 20
5.487630617
 30
0.0
 10
5.8928755279
 20
5.4868007487
 30
0.0
 10
5.8736312933
 20
5.4862767308
 30
0.0
 10
5.8634141203
 20
5.4860112027
 30
0.0
  0
LINE
  5
6C0
100
AcDbEntity
  8
AXIS
100
AcDbLine
 62
7
  6
CONTINUOUS
 10
5.8634141203
 20
5.4860112027
 11
5.8576986321
 21
5.4858639879
  0
SPLINE
  5
6C1
100
AcDbEntity
  8
AXIS
100
AcDbSpline
 62
7
  6
CONTINUOUS
 70
0
 71
3
 72
9
 73
5
 74
0
 42
0.0000001
 43
0.0000001
 44
0.0000000001
 40
0.0
 40
0.0
 40
0.0
 40
0.0
 40
0.453689518
 40
1.0
 40
1.0
 40
1.0
 40
1.0
 10
5.8576986321
 20
5.4858639879
 30
0.0
 10
5.8113503843
 20
5.4846806724
 30
0.0
 10
5.7091800696
 20
5.4825478735
 30
0.0
 10
5.607004687
 20
5.4807226152
 30
0.0
 10
5.5511846454
 20
5.4797534477
 30
0.0
  0
SPLINE
  5
6C2
100
AcDbEntity
  8
0
100
AcDbSpline
 62
7
  6
CONTINUOUS
 70
0
 71
3
 72
15
 73
11
 74
0
 42
0.0000001
 43
0.0000001
 44
0.0000000001
 40
0.0
 40
0.0
 40
0.0
 40
0.0
 40
0.0107845109
 40
0.0285655188
 40
0.0889516095
 40
0.1823254039
 40
0.3058935412
 40
0.4552327612
 40
0.6249890285
 40
1.0
 40
1.0
 40
1.0
 40
1.0
 10
5.5547315562
 20
5.5767625096
 30
0.0
 10
5.5545908845
 20
5.5767357163
 30
0.0
 10
5.5542896455
 20
5.5764475605
 30
0.0
 10
5.5537868899
 20
5.5753919562
 30
0.0
 10
5.5532347504
 20
5.5731519017
 30
0.0
 10
5.5526626602
 20
5.5695250968
 30
0.0
 10
5.5521510544
 20
5.5646817518
 30
0.0
 10
5.5517248427
 20
5.5588205528
 30
0.0
 10
5.5512873277
 20
5.5496128013
 30
0.0
 10
5.5511846454
 20
5.542377959
 30
0.0
 10
5.5511846454
 20
5.5373984271
 30
0.0
  0
SPLINE
  5
6C3
100
AcDbEntity
  8
0
100
AcDbSpline
 62
7
  6
CONTINUOUS
 70
0
 71
3
 72
12
 73
8
 74
0
 42
0.0000001
 43
0.0000001
 44
0.0000000001
 40
0.0
 40
0.0
 40
0.0
 40
0.0
 40
0.1716576876
 40
0.2765078945
 40
0.3967809466
 40
0.6797322809
 40
1.0
 40
1.0
 40
1.0
 40
1.0
 10
11.3212091413
 20
7.6662974472
 30
0.0
 10
11.3199072132
 20
7.6661827643
 30
0.0
 10
11.3178962144
 20
7.6650458758
 30
0.0
 10
11.3160578067
 20
7.6626476332
 30
0.0
 10
11.3143075125
 20
7.6591695259
 30
0.0
 10
11.3130490072
 20
7.6537406343
 30
0.0
 10
11.312933182
 20
7.6491214916
 30
0.0
 10
11.313093929
 20
7.6466883375
 30
0.0
  0
LINE
  5
6C4
100
AcDbEntity
  8
0
100
AcDbLine
 62
7
  6
CONTINUOUS
 10
11.2983302656
 20
7.6462459528
 11
11.313093929
 21
7.6466883375
  0
SPLINE
  5
6C5
100
AcDbEntity
  8
0
100
AcDbSpline
 62
7
  6
CONTINUOUS
 70
0
 71
3
 72
8
 73
4
 74
0
 42
0.0000001
 43
0.0000001
 44
0.0000000001
 40
0.0
 40
0.0
 40
0.0
 40
0.0
 40
1.0
 40
1.0
 40
1.0
 40
1.0
 10
11.3953941243
 20
7.5328101543
 30
0.0
 10
11.3978546699
 20
7.53290484
 30
0.0
 10
11.4003385332
 20
7.533480118
 30
0.0
 10
11.4025914035
 20
7.5344740121
 30
0.0
  0
SPLINE
  5
6C6
100
AcDbEntity
  8
0
100
AcDbSpline
 62
7
  6
CONTINUOUS
 70
0
 71
3
 72
8
 73
4
 74
0
 42
0.0000001
 43
0.0000001
 44
0.0000000001
 40
0.0
 40
0.0
 40
0.0
 40
0.0
 40
1.0
 40
1.0
 40
1.0
 40
1.0
 10
11.4923017984
 20
7.5328101543
 30
0.0
 10
11.489841256
 20
7.5329048399
 30
0.0
 10
11.4873573961
 20
7.5334801164
 30
0.0
 10
11.4851045282
 20
7.534474008
 30
0.0
  0
SPLINE
  5
6C7
100
AcDbEntity
  8
0
100
AcDbSpline
 62
7
  6
CONTINUOUS
 70
0
 71
3
 72
15
 73
11
 74
0
 42
0.0000001
 43
0.0000001
 44
0.0000000001
 40
0.0
 40
0.0
 40
0.0
 40
0.0
 40
0.1250528245
 40
0.2500722548
 40
0.3750872428
 40
0.500091715
 40
0.625087013
 40
0.7500693974
 40
0.8750362793
 40
1.0
 40
1.0
 40
1.0
 40
1.0
 10
11.419764269
 20
5.8656445186
 30
0.0
 10
11.3839132348
 20
5.8695304888
 30
0.0
 10
11.3128856362
 20
5.8869308081
 30
0.0
 10
11.2173681523
 20
5.9403426968
 30
0.0
 10
11.1396749064
 20
6.0175448642
 30
0.0
 10
11.0860072691
 20
6.1130444203
 30
0.0
 10
11.0608624318
 20
6.2196984028
 30
0.0
 10
11.0666965646
 20
6.3291719522
 30
0.0
 10
11.1034303407
 20
6.4324130127
 30
0.0
 10
11.1469895426
 20
6.4913946824
 30
0.0
 10
11.1724582755
 20
6.5168875947
 30
0.0
  0
SPLINE
  5
6C8
100
AcDbEntity
  8
0
100
AcDbSpline
 62
7
  6
CONTINUOUS
 70
0
 71
3
 72
12
 73
8
 74
0
 42
0.0000001
 43
0.0000001
 44
0.0000000001
 40
0.0
 40
0.0
 40
0.0
 40
0.0
 40
0.0205875344
 40
0.0697862204
 40
0.2607875927
 40
0.5735113396
 40
1.0
 40
1.0
 40
1.0
 40
1.0
 10
11.4143220972
 20
7.551446055
 30
0.0
 10
11.4143221714
 20
7.5514195657
 30
0.0
 10
11.4144321312
 20
7.551376265
 30
0.0
 10
11.4147299081
 20
7.5513314623
 30
0.0
 10
11.4154759109
 20
7.5512920068
 30
0.0
 10
11.4166524379
 20
7.5512891442
 30
0.0
 10
11.4176100936
 20
7.5513010658
 30
0.0
 10
11.4181587592
 20
7.5513107487
 30
0.0
  0
LINE
  5
6C9
100
AcDbEntity
  8
0
100
AcDbLine
 62
7
  6
CONTINUOUS
 10
11.4181587592
 20
7.5513107487
 11
11.4340071365
 21
7.551668508
  0
SPLINE
  5
6CA
100
AcDbEntity
  8
0
100
AcDbSpline
 62
7
  6
CONTINUOUS
 70
0
 71
3
 72
19
 73
15
 74
0
 42
0.0000001
 43
0.0000001
 44
0.0000000001
 40
0.0
 40
0.0
 40
0.0
 40
0.0
 40
0.1964894521
 40
0.3853178051
 40
0.5585988532
 40
0.7098021237
 40
0.7753118811
 40
0.8332803432
 40
0.8832066624
 40
0.9246465617
 40
0.9572671051
 40
0.9807690942
 40
0.9949985029
 40
1.0
 40
1.0
 40
1.0
 40
1.0
 10
11.4535371901
 20
7.5319870505
 30
0.0
 10
11.4560769332
 20
7.5319675692
 30
0.0
 10
11.4610573359
 20
7.5319225937
 30
0.0
 10
11.4682773479
 20
7.5318405025
 30
0.0
 10
11.4749117376
 20
7.5317549531
 30
0.0
 10
11.4799526911
 20
7.5316888954
 30
0.0
 10
11.483502436
 20
7.5316497922
 30
0.0
 10
11.485745151
 20
7.5316297054
 30
0.0
 10
11.4876713103
 20
7.5316220018
 30
0.0
 10
11.4892856086
 20
7.5316192321
 30
0.0
 10
11.4905163246
 20
7.5316461115
 30
0.0
 10
11.491494819
 20
7.5316434428
 30
0.0
 10
11.4919225799
 20
7.5317309015
 30
0.0
 10
11.4923008154
 20
7.5317139547
 30
0.0
 10
11.4923011879
 20
7.5317786029
 30
0.0
  0
SPLINE
  5
6CB
100
AcDbEntity
  8
0
100
AcDbSpline
 62
7
  6
CONTINUOUS
 70
0
 71
3
 72
19
 73
15
 74
0
 42
0.0000001
 43
0.0000001
 44
0.0000000001
 40
0.0
 40
0.0
 40
0.0
 40
0.0
 40
0.0050069892
 40
0.019237063
 40
0.0427284874
 40
0.0753659466
 40
0.1168534685
 40
0.1668046885
 40
0.2248252875
 40
0.2903953932
 40
0.4415902804
 40
0.6148391377
 40
0.8036615175
 40
1.0
 40
1.0
 40
1.0
 40
1.0
 10
11.3953947348
 20
7.5317786029
 30
0.0
 10
11.3953954176
 20
7.5317138863
 30
0.0
 10
11.3957732226
 20
7.5317313265
 30
0.0
 10
11.3962015024
 20
7.5316435363
 30
0.0
 10
11.3971797421
 20
7.5316461813
 30
0.0
 10
11.3984112753
 20
7.5316191587
 30
0.0
 10
11.4000266881
 20
7.5316220974
 30
0.0
 10
11.4019544713
 20
7.5316297057
 30
0.0
 10
11.4041989542
 20
7.5316498208
 30
0.0
 10
11.4077500402
 20
7.53168906
 30
0.0
 10
11.4127912425
 20
7.5317549587
 30
0.0
 10
11.4194250198
 20
7.5318406409
 30
0.0
 10
11.4266425783
 20
7.5319225506
 30
0.0
 10
11.4316209445
 20
7.5319675829
 30
0.0
 10
11.4341587325
 20
7.5319870505
 30
0.0
  0
SPLINE
  5
6CC
100
AcDbEntity
  8
0
100
AcDbSpline
 62
7
  6
CONTINUOUS
 70
0
 71
3
 72
23
 73
19
 74
0
 42
0.0000001
 43
0.0000001
 44
0.0000000001
 40
0.0
 40
0.0
 40
0.0
 40
0.0
 40
0.0624997906
 40
0.1250037377
 40
0.1875074551
 40
0.2500076684
 40
0.3125052512
 40
0.3750056358
 40
0.437507699
 40
0.500007445
 40
0.5625058757
 40
0.6250041317
 40
0.6875042651
 40
0.7500035756
 40
0.8125027981
 40
0.8750027099
 40
0.9375010486
 40
1.0
 40
1.0
 40
1.0
 40
1.0
 10
11.0903372413
 20
6.2740506564
 30
0.0
 10
11.0903138592
 20
6.2509139912
 30
0.0
 10
11.094839283
 20
6.2045059412
 30
0.0
 10
11.1150805107
 20
6.1376626113
 30
0.0
 10
11.1479930954
 20
6.0760335942
 30
0.0
 10
11.1923042378
 20
6.0220276643
 30
0.0
 10
11.2463060807
 20
5.9777114764
 30
0.0
 10
11.3079200792
 20
5.9447892934
 30
0.0
 10
11.3747753123
 20
5.924525214
 30
0.0
 10
11.4442985936
 20
5.9176962564
 30
0.0
 10
11.5138166828
 20
5.9245615043
 30
0.0
 10
11.5806605279
 20
5.9448541697
 30
0.0
 10
11.642263889
 20
5.9777925297
 30
0.0
 10
11.6962629216
 20
6.0221104698
 30
0.0
 10
11.7405869329
 20
6.0761023028
 30
0.0
 10
11.7735373028
 20
6.137704403
 30
0.0
 10
11.79385374
 20
6.2045185167
 30
0.0
 10
11.7984577429
 20
6.2509143017
 30
0.0
 10
11.7984810507
 20
6.2740506564
 30
0.0
  0
SPLINE
  5
6CD
100
AcDbEntity
  8
0
100
AcDbSpline
 62
7
  6
CONTINUOUS
 70
0
 71
3
 72
15
 73
11
 74
0
 42
0.0000001
 43
0.0000001
 44
0.0000000001
 40
0.0
 40
0.0
 40
0.0
 40
0.0
 40
0.1249914137
 40
0.2499883606
 40
0.3749898696
 40
0.4999898083
 40
0.6249873063
 40
0.7499942252
 40
0.8749989896
 40
1.0
 40
1.0
 40
1.0
 40
1.0
 10
11.1050988546
 20
6.1896351783
 30
0.0
 10
11.1131702587
 20
6.157106702
 30
0.0
 10
11.1389092766
 20
6.0940172044
 30
0.0
 10
11.2027348802
 20
6.0145879332
 30
0.0
 10
11.286583449
 20
5.9565551043
 30
0.0
 10
11.3834755218
 20
5.9248224909
 30
0.0
 10
11.4853922192
 20
5.9219802436
 30
0.0
 10
11.5839158553
 20
5.9482795545
 30
0.0
 10
11.6708369499
 20
6.0014569463
 30
0.0
 10
11.7164177761
 20
6.0521052829
 30
0.0
 10
11.7350336652
 20
6.0799776796
 30
0.0
  0
SPLINE
  5
6CE
100
AcDbEntity
  8
0
100
AcDbSpline
 62
7
  6
CONTINUOUS
 70
0
 71
3
 72
15
 73
11
 74
0
 42
0.0000001
 43
0.0000001
 44
0.0000000001
 40
0.0
 40
0.0
 40
0.0
 40
0.0
 40
0.1250039418
 40
0.2499976054
 40
0.3749960421
 40
0.4999936554
 40
0.6249973218
 40
0.7500013249
 40
0.8749983786
 40
1.0
 40
1.0
 40
1.0
 40
1.0
 10
11.0858477641
 20
6.2740506564
 30
0.0
 10
11.0858215115
 20
6.247743773
 30
0.0
 10
11.0916141085
 20
6.194941815
 30
0.0
 10
11.1174203573
 20
6.1197133688
 30
0.0
 10
11.1590768031
 20
6.0519226076
 30
0.0
 10
11.2145675
 20
5.9949083103
 30
0.0
 10
11.2811908884
 20
5.9514193798
 30
0.0
 10
11.3557271725
 20
5.9235697889
 30
0.0
 10
11.434511859
 20
5.9126954257
 30
0.0
 10
11.4874434366
 20
5.9171341526
 30
0.0
 10
11.5132573504
 20
5.9222006076
 30
0.0
  0
SPLINE
  5
6CF
100
AcDbEntity
  8
0
100
AcDbSpline
 62
7
  6
CONTINUOUS
 70
0
 71
3
 72
18
 73
14
 74
0
 42
0.0000001
 43
0.0000001
 44
0.0000000001
 40
0.0
 40
0.0
 40
0.0
 40
0.0
 40
0.0048218271
 40
0.0190689702
 40
0.0424208871
 40
0.0745628049
 40
0.1151683226
 40
0.1637681597
 40
0.2828775281
 40
0.4281950229
 40
0.5971854995
 40
0.7883143501
 40
1.0
 40
1.0
 40
1.0
 40
1.0
 10
11.3990685446
 20
7.6512756203
 30
0.0
 10
11.3990850103
 20
7.651261628
 30
0.0
 10
11.3989708299
 20
7.6511796773
 30
0.0
 10
11.3989350033
 20
7.6510279367
 30
0.0
 10
11.3987366938
 20
7.6507553696
 30
0.0
 10
11.3985343508
 20
7.650386268
 30
0.0
 10
11.3982599224
 20
7.649912491
 30
0.0
 10
11.3978185465
 20
7.6490916884
 30
0.0
 10
11.3972011145
 20
7.6478300936
 30
0.0
 10
11.3964662144
 20
7.6460306417
 30
0.0
 10
11.395791168
 20
7.6438648781
 30
0.0
 10
11.3952794548
 20
7.6413492095
 30
0.0
 10
11.395131448
 20
7.6395442507
 30
0.0
 10
11.3951150464
 20
7.6385957718
 30
0.0
  0
SPLINE
  5
6D0
100
AcDbEntity
  8
0
100
AcDbSpline
 62
7
  6
CONTINUOUS
 70
0
 71
3
 72
15
 73
11
 74
0
 42
0.0000001
 43
0.0000001
 44
0.0000000001
 40
0.0
 40
0.0
 40
0.0
 40
0.0
 40
0.1249964447
 40
0.2499977496
 40
0.3750053802
 40
0.500005877
 40
0.6250006876
 40
0.7500041737
 40
0.8750055041
 40
1.0
 40
1.0
 40
1.0
 40
1.0
 10
11.1399077204
 20
6.0802918479
 30
0.0
 10
11.1558339628
 20
6.0552499597
 30
0.0
 10
11.1940823525
 20
6.0089239047
 30
0.0
 10
11.2665886051
 20
5.9557610493
 30
0.0
 10
11.3499496721
 20
5.9219420517
 30
0.0
 10
11.4390429891
 20
5.9095826669
 30
0.0
 10
11.528449457
 20
5.9194124718
 30
0.0
 10
11.6127348549
 20
5.9508461065
 30
0.0
 10
11.6867341667
 20
6.0019044815
 30
0.0
 10
11.7263092582
 20
6.0470977293
 30
0.0
 10
11.7429647227
 20
6.0716600868
 30
0.0
  0
SPLINE
  5
6D1
100
AcDbEntity
  8
0
100
AcDbSpline
 62
7
  6
CONTINUOUS
 70
0
 71
3
 72
15
 73
11
 74
0
 42
0.0000001
 43
0.0000001
 44
0.0000000001
 40
0.0
 40
0.0
 40
0.0
 40
0.0
 40
0.1250005097
 40
0.2500008939
 40
0.3750010968
 40
0.5000010852
 40
0.6250009165
 40
0.7500006473
 40
0.8750003336
 40
1.0
 40
1.0
 40
1.0
 40
1.0
 10
11.8073810796
 20
6.2819819326
 30
0.0
 10
11.8079414517
 20
6.2551470018
 30
0.0
 10
11.8030706029
 20
6.2011623647
 30
0.0
 10
11.7781435765
 20
6.1239297826
 30
0.0
 10
11.7368161427
 20
6.0540407738
 30
0.0
 10
11.6811130619
 20
5.9949797558
 30
0.0
 10
11.6137709201
 20
5.9496353697
 30
0.0
 10
11.5380826484
 20
5.9202451412
 30
0.0
 10
11.4578177216
 20
5.9082463608
 30
0.0
 10
11.403761846
 20
5.9122631434
 30
0.0
 10
11.3773797799
 20
5.9172032239
 30
0.0
  0
SPLINE
  5
6D2
100
AcDbEntity
  8
0
100
AcDbSpline
 62
7
  6
CONTINUOUS
 70
0
 71
3
 72
15
 73
11
 74
0
 42
0.0000001
 43
0.0000001
 44
0.0000000001
 40
0.0
 40
0.0
 40
0.0
 40
0.0
 40
0.1250008584
 40
0.250001801
 40
0.3750020988
 40
0.5000025109
 40
0.6250021651
 40
0.750001901
 40
0.8750010251
 40
1.0
 40
1.0
 40
1.0
 40
1.0
 10
11.1726563425
 20
6.4933691855
 30
0.0
 10
11.1949869702
 20
6.5209230867
 30
0.0
 10
11.2484837563
 20
6.5694834821
 30
0.0
 10
11.3466618376
 20
6.6144964788
 30
0.0
 10
11.4539260717
 20
6.6278614433
 30
0.0
 10
11.5602017643
 20
6.6082122324
 30
0.0
 10
11.6555951771
 20
6.5574111966
 30
0.0
 10
11.7311955882
 20
6.4801489443
 30
0.0
 10
11.7799305033
 20
6.3837603495
 30
0.0
 10
11.7914764555
 20
6.3124345089
 30
0.0
 10
11.7917375879
 20
6.2769694796
 30
0.0
  0
SPLINE
  5
6D3
100
AcDbEntity
  8
0
100
AcDbSpline
 62
7
  6
CONTINUOUS
 70
0
 71
3
 72
15
 73
11
 74
0
 42
0.0000001
 43
0.0000001
 44
0.0000000001
 40
0.0
 40
0.0
 40
0.0
 40
0.0
 40
0.1250038142
 40
0.2500046924
 40
0.3750033919
 40
0.500001188
 40
0.6250030432
 40
0.7500017179
 40
0.8750009695
 40
1.0
 40
1.0
 40
1.0
 40
1.0
 10
11.7939915735
 20
6.2740506564
 30
0.0
 10
11.7940273562
 20
6.3091205084
 30
0.0
 10
11.7834005702
 20
6.3797258604
 30
0.0
 10
11.7368153103
 20
6.475767595
 30
0.0
 10
11.6637943926
 20
6.5537393164
 30
0.0
 10
11.5709308994
 20
6.6065041722
 30
0.0
 10
11.4665960267
 20
6.6293476784
 30
0.0
 10
11.3601654556
 20
6.6201980876
 30
0.0
 10
11.2612979061
 20
6.5799750655
 30
0.0
 10
11.2061452521
 20
6.5346405841
 30
0.0
 10
11.1826892398
 20
6.5085711161
 30
0.0
  0
LINE
  5
6D4
100
AcDbEntity
  8
0
100
AcDbLine
 62
7
  6
CONTINUOUS
 10
11.5510922517
 20
6.8540836669
 11
11.5475453408
 21
6.815389239
  0
LINE
  5
6D5
100
AcDbEntity
  8
0
100
AcDbLine
 62
7
  6
CONTINUOUS
 10
11.5510922517
 20
5.6940176459
 11
11.5475453408
 21
5.7327120737
  0
LINE
  5
6D6
100
AcDbEntity
  8
0
100
AcDbLine
 62
7
  6
CONTINUOUS
 10
11.336603671
 20
5.6940176459
 11
11.3401505819
 21
5.7327120737
  0
LINE
  5
6D7
100
AcDbEntity
  8
0
100
AcDbLine
 62
7
  6
CONTINUOUS
 10
11.336603671
 20
6.8540836669
 11
11.3401505819
 21
6.815389239
  0
SPLINE
  5
6D8
100
AcDbEntity
  8
0
100
AcDbSpline
 62
7
  6
CONTINUOUS
 70
0
 71
3
 72
15
 73
11
 74
0
 42
0.0000001
 43
0.0000001
 44
0.0000000001
 40
0.0
 40
0.0
 40
0.0
 40
0.0
 40
0.124993918
 40
0.2499842512
 40
0.3749841659
 40
0.4999851775
 40
0.6249787256
 40
0.7499779576
 40
0.8749781628
 40
1.0
 40
1.0
 40
1.0
 40
1.0
 10
11.7721688264
 20
6.4084693846
 30
0.0
 10
11.7610068861
 20
6.4358065771
 30
0.0
 10
11.7316903038
 20
6.4879117657
 30
0.0
 10
11.6698409992
 20
6.5525647542
 30
0.0
 10
11.5938776594
 20
6.599939723
 30
0.0
 10
11.5085566335
 20
6.6270167795
 30
0.0
 10
11.4191900618
 20
6.6321431436
 30
0.0
 10
11.3313254507
 20
6.6149851779
 30
0.0
 10
11.2504657178
 20
6.5766657421
 30
0.0
 10
11.2044661364
 20
6.5384657533
 30
0.0
 10
11.1842645642
 20
6.5169205211
 30
0.0
  0
SPLINE
  5
6D9
100
AcDbEntity
  8
0
100
AcDbSpline
 62
7
  6
CONTINUOUS
 70
0
 71
3
 72
15
 73
11
 74
0
 42
0.0000001
 43
0.0000001
 44
0.0000000001
 40
0.0
 40
0.0
 40
0.0
 40
0.0
 40
0.1250018445
 40
0.250000124
 40
0.3750003944
 40
0.5000067811
 40
0.6250048877
 40
0.7500002709
 40
0.8750021684
 40
1.0
 40
1.0
 40
1.0
 40
1.0
 10
11.7833738262
 20
6.3843409679
 30
0.0
 10
11.7737864507
 20
6.4139567625
 30
0.0
 10
11.7466801826
 20
6.4709421688
 30
0.0
 10
11.685371439
 20
6.5427422303
 30
0.0
 10
11.6075131113
 20
6.5962524489
 30
0.0
 10
11.5184571858
 20
6.6277449524
 30
0.0
 10
11.42428482
 20
6.6350939399
 30
0.0
 10
11.3314144877
 20
6.6177860154
 30
0.0
 10
11.2462336016
 20
6.5770747705
 30
0.0
 10
11.1983054799
 20
6.5360307123
 30
0.0
 10
11.1775026898
 20
6.5128748325
 30
0.0
  0
SPLINE
  5
6DA
100
AcDbEntity
  8
0
100
AcDbSpline
 62
7
  6
CONTINUOUS
 70
0
 71
3
 72
11
 73
7
 74
0
 42
0.0000001
 43
0.0000001
 44
0.0000000001
 40
0.0
 40
0.0
 40
0.0
 40
0.0
 40
0.2918687003
 40
0.5606783857
 40
0.7943709117
 40
1.0
 40
1.0
 40
1.0
 40
1.0
 10
11.3951150464
 20
7.6385957716
 30
0.0
 10
11.3976041041
 20
7.6386370348
 30
0.0
 10
11.4024036561
 20
7.6393288207
 30
0.0
 10
11.4086748424
 20
7.6421447661
 30
0.0
 10
11.4131416122
 20
7.6464611737
 30
0.0
 10
11.4143212497
 20
7.6502495654
 30
0.0
 10
11.4143212497
 20
7.6520034122
 30
0.0
  0
SPLINE
  5
6DB
100
AcDbEntity
  8
0
100
AcDbSpline
 62
7
  6
CONTINUOUS
 70
0
 71
3
 72
19
 73
15
 74
0
 42
0.0000001
 43
0.0000001
 44
0.0000000001
 40
0.0
 40
0.0
 40
0.0
 40
0.0
 40
0.0625715384
 40
0.1251577209
 40
0.1877316515
 40
0.2503115152
 40
0.3128914258
 40
0.3754713817
 40
0.4380520875
 40
0.5006339357
 40
0.6254579782
 40
0.7502946825
 40
0.875138357
 40
1.0
 40
1.0
 40
1.0
 40
1.0
 10
11.4438479613
 20
6.6382238847
 30
0.0
 10
11.4629558487
 20
6.6392382777
 30
0.0
 10
11.50140408
 20
6.6382398771
 30
0.0
 10
11.5580769504
 20
6.6277699669
 30
0.0
 10
11.6124570436
 20
6.6086457463
 30
0.0
 10
11.663248404
 20
6.5814047496
 30
0.0
 10
11.7092946235
 20
6.546740867
 30
0.0
 10
11.7495680904
 20
6.5055197069
 30
0.0
 10
11.7831983701
 20
6.4587104782
 30
0.0
 10
11.8181916424
 20
6.390477147
 30
0.0
 10
11.8423323326
 20
6.2965311567
 30
0.0
 10
11.8374906689
 20
6.1805050673
 30
0.0
 10
11.7999533658
 20
6.0706900925
 30
0.0
 10
11.7552388433
 20
6.0073131809
 30
0.0
 10
11.7290899994
 20
5.9794883811
 30
0.0
  0
SPLINE
  5
6DC
100
AcDbEntity
  8
0
100
AcDbSpline
 62
7
  6
CONTINUOUS
 70
0
 71
3
 72
11
 73
7
 74
0
 42
0.0000001
 43
0.0000001
 44
0.0000000001
 40
0.0
 40
0.0
 40
0.0
 40
0.0
 40
0.291872453
 40
0.5606866692
 40
0.7943798314
 40
1.0
 40
1.0
 40
1.0
 40
1.0
 10
11.4925808763
 20
7.6385957718
 30
0.0
 10
11.4900918076
 20
7.638637108
 30
0.0
 10
11.4852922388
 20
7.6393289991
 30
0.0
 10
11.4790211004
 20
7.6421450902
 30
0.0
 10
11.4745543858
 20
7.6464613922
 30
0.0
 10
11.473374673
 20
7.6502496557
 30
0.0
 10
11.473374673
 20
7.6520034125
 30
0.0
  0
LINE
  5
6DD
100
AcDbEntity
  8
0
100
AcDbLine
 62
7
  6
CONTINUOUS
 10
11.4930588649
 20
7.6117284466
 11
11.4925808763
 21
7.6385957718
  0
LINE
  5
6DE
100
AcDbEntity
  8
0
100
AcDbLine
 62
7
  6
CONTINUOUS
 10
11.3951150464
 20
7.6385957718
 11
11.3946370578
 21
7.6117284466
  0
SPLINE
  5
6DF
100
AcDbEntity
  8
0
100
AcDbSpline
 62
7
  6
CONTINUOUS
 70
0
 71
3
 72
18
 73
14
 74
0
 42
0.0000001
 43
0.0000001
 44
0.0000000001
 40
0.0
 40
0.0
 40
0.0
 40
0.0
 40
0.2116914293
 40
0.402935894
 40
0.5720185473
 40
0.7172455518
 40
0.8362815446
 40
0.8848719028
 40
0.9254807712
 40
0.9576178085
 40
0.9809540645
 40
0.9951848499
 40
1.0
 40
1.0
 40
1.0
 40
1.0
 10
11.4925808763
 20
7.6385957718
 30
0.0
 10
11.492564428
 20
7.639544272
 30
0.0
 10
11.492416428
 20
7.6413497839
 30
0.0
 10
11.4919038891
 20
7.6438662608
 30
0.0
 10
11.491229032
 20
7.64603256
 30
0.0
 10
11.4904942067
 20
7.6478318525
 30
0.0
 10
11.489877044
 20
7.6490923293
 30
0.0
 10
11.4894355072
 20
7.649913253
 30
0.0
 10
11.4891618843
 20
7.650386056
 30
0.0
 10
11.4889569898
 20
7.6507572527
 30
0.0
 10
11.4887646211
 20
7.6510245758
 30
0.0
 10
11.4887185519
 20
7.6511853932
 30
0.0
 10
11.4886154273
 20
7.6512576541
 30
0.0
 10
11.4886273781
 20
7.6512756203
 30
0.0
  0
LINE
  5
6E0
100
AcDbEntity
  8
0
100
AcDbLine
 62
7
  6
CONTINUOUS
 10
11.336603671
 20
5.6940176459
 11
11.4438479613
 21
5.6940290976
  0
LINE
  5
6E1
100
AcDbEntity
  8
0
100
AcDbLine
 62
7
  6
CONTINUOUS
 10
11.4438479613
 20
6.8540722152
 11
11.336603671
 21
6.8540836669
  0
LINE
  5
6E2
100
AcDbEntity
  8
0
100
AcDbLine
 62
7
  6
CONTINUOUS
 10
11.5510922517
 20
6.8540836669
 11
11.4438479613
 21
6.8540722152
  0
LINE
  5
6E3
100
AcDbEntity
  8
0
100
AcDbLine
 62
7
  6
CONTINUOUS
 10
11.4438479613
 20
5.6940290976
 11
11.5510922517
 21
5.6940176459
  0
SPLINE
  5
6E4
100
AcDbEntity
  8
0
100
AcDbSpline
 62
7
  6
CONTINUOUS
 70
0
 71
3
 72
17
 73
13
 74
0
 42
0.0000001
 43
0.0000001
 44
0.0000000001
 40
0.0
 40
0.0
 40
0.0
 40
0.0
 40
0.1948396434
 40
0.3824196857
 40
0.5551254528
 40
0.7064745019
 40
0.8306313517
 40
0.9228681804
 40
0.9558910629
 40
0.9797399921
 40
0.9943004907
 40
1.0
 40
1.0
 40
1.0
 40
1.0
 10
11.4536887862
 20
7.551668508
 30
0.0
 10
11.4549688121
 20
7.5516488763
 30
0.0
 10
11.4574810266
 20
7.5516033741
 30
0.0
 10
11.4611276628
 20
7.5515200532
 30
0.0
 10
11.4644876067
 20
7.5514325255
 30
0.0
 10
11.4674332313
 20
7.5513542039
 30
0.0
 10
11.4698441056
 20
7.5513011068
 30
0.0
 10
11.471493302
 20
7.5512858349
 30
0.0
 10
11.4724586722
 20
7.5513043094
 30
0.0
 10
11.47295144
 20
7.5513321543
 30
0.0
 10
11.4731955199
 20
7.5513648478
 30
0.0
 10
11.4733737721
 20
7.5514086069
 30
0.0
 10
11.4733738255
 20
7.551446055
 30
0.0
  0
SPLINE
  5
6E5
100
AcDbEntity
  8
0
100
AcDbSpline
 62
7
  6
CONTINUOUS
 70
0
 71
3
 72
23
 73
19
 74
0
 42
0.0000001
 43
0.0000001
 44
0.0000000001
 40
0.0
 40
0.0
 40
0.0
 40
0.0
 40
0.0625004011
 40
0.1250006702
 40
0.1875007689
 40
0.2500007456
 40
0.3125006898
 40
0.3750006926
 40
0.4375008048
 40
0.5000009916
 40
0.5625011464
 40
0.6250011498
 40
0.6875010714
 40
0.750000486
 40
0.8125013293
 40
0.874997832
 40
0.9375044708
 40
1.0
 40
1.0
 40
1.0
 40
1.0
 10
11.7855830072
 20
6.2092110219
 30
0.0
 10
11.7818664659
 20
6.189732387
 30
0.0
 10
11.7710697111
 20
6.1513317334
 30
0.0
 10
11.7453154793
 20
6.097397431
 30
0.0
 10
11.7107387236
 20
6.0486256187
 30
0.0
 10
11.6683546737
 20
6.0064673691
 30
0.0
 10
11.6194021659
 20
5.9721524959
 30
0.0
 10
11.5653144685
 20
5.9466893951
 30
0.0
 10
11.5076757575
 20
5.9308257082
 30
0.0
 10
11.4481753847
 20
5.9250287482
 30
0.0
 10
11.3885585051
 20
5.9294708119
 30
0.0
 10
11.3305744261
 20
5.9440227071
 30
0.0
 10
11.2759258882
 20
5.9682592612
 30
0.0
 10
11.2262161527
 20
6.0014693816
 30
0.0
 10
11.1829106859
 20
6.0426802079
 30
0.0
 10
11.1472727368
 20
6.0906850087
 30
0.0
 10
11.1203692716
 20
6.1440561873
 30
0.0
 10
11.1087645193
 20
6.1822220093
 30
0.0
 10
11.10464371
 20
6.2016175635
 30
0.0
  0
ENDSEC
  0
SECTION
  2
OBJECTS
  0
DICTIONARY
  5
C
100
AcDbDictionary
280
0
281
1
  3
ACAD_GROUP
350
D
  3
ACAD_MLINESTYLE
350
17
  3
ACAD_LAYOUT
350
1A
  3
ACAD_PLOTSETTINGS
350
19
  3
ACAD_PLOTSTYLENAME
350
E
  3
ACAD_TABLESTYLE
350
       6E6
  0
DICTIONARY
  5
D
102
{ACAD_REACTORS
330
C
102
}
100
AcDbDictionary
280
0
281
1
  0
ACDBDICTIONARYWDFLT
  5
E
102
{ACAD_REACTORS
330
C
102
}
100
AcDbDictionary
281
1
  3
Normal
350
F
100
AcDbDictionaryWithDefault
340
F
  0
DICTIONARY
  5
17
102
{ACAD_REACTORS
330
C
102
}
100
AcDbDictionary
280
0
281
1
  3
Standard
350
18
  0
DICTIONARY
  5
6E6
330
C
100
AcDbDictionary
281
1
  3
Standard
350
       6E9
  3
Standard1
350
       6EA
  0
DICTIONARY
  5
19
102
{ACAD_REACTORS
330
C
102
}
100
AcDbDictionary
281
1
  0
DICTIONARY
  5
1A
102
{ACAD_REACTORS
330
C
102
}
100
AcDbDictionary
281
1
  3
Model
350
6E7
  3
Layout1
350
6E8
  0
ACDBPLACEHOLDER
  5
F
102
{ACAD_REACTORS
330
E
102
}
  0
MLINESTYLE
  5
18
102
{ACAD_REACTORS
330
17
102
}
100
AcDbMlineStyle
  2
STANDARD
 70
0
  3

 62
256
 51
90.0
 52
90.0
 71
2
 49
0.5
 62
256
  6
BYLAYER
 49
-0.5
 62
256
  6
BYLAYER
  0
LAYOUT
  5
6E7
102
{ACAD_REACTORS
330
1A
102
}
100
AcDbPlotSettings
  1

  2
none_device
  4
ANSI_B_(17.00_x_11.00_Inches)
  6

 40
0.0
 41
0.0
 42
0.0
 43
0.0
 44
431.8
 45
279.4
 46
0.0
 47
0.0
 48
0.0
 49
0.0
140
0.0
141
0.0
142
1.0
143
1.0
 70
1024
 72
0
 73
0
 74
0
  7

 75
0
147
1.0
148
0.0
149
0.0
100
AcDbLayout
  1
Model
 70
0
 71
0
 10
0.0
 20
0.0
 11
17.0
 21
11.0
 12
0.0
 22
0.0
 32
0.0
 14
0.0
 24
0.0
 34
0.0
 15
0.0
 25
0.0
 35
0.0
146
0.0
 13
0.0
 23
0.0
 33
0.0
 16
1.0
 26
0.0
 36
0.0
 17
0.0
 27
1.0
 37
0.0
 76
0
330
20F
345
0
346
0
  0
LAYOUT
  5
6E8
102
{ACAD_REACTORS
330
1A
102
}
100
AcDbPlotSettings
  1

  2
none_device
  4
ANSI_B_(17.00_x_11.00_Inches)
  6

 40
0.0
 41
0.0
 42
0.0
 43
0.0
 44
431.8
 45
279.4
 46
0.0
 47
0.0
 48
0.0
 49
0.0
140
0.0
141
0.0
142
1.0
143
1.0
 70
0
 72
0
 73
0
 74
0
  7

 75
0
147
1.0
148
0.0
149
0.0
100
AcDbLayout
  1
Layout1
 70
0
 71
1
 10
0.0
 20
0.0
 11
17.0
 21
11.0
 12
0.0
 22
0.0
 32
0.0
 14
0.0
 24
0.0
 34
0.0
 15
0.0
 25
0.0
 35
0.0
146
0.0
 13
0.0
 23
0.0
 33
0.0
 16
1.0
 26
0.0
 36
0.0
 17
0.0
 27
1.0
 37
0.0
 76
0
330
210
345
0
346
0
  0
TABLESTYLE
  5
6E9
102
{ACAD_REACTORS
330
6E6
102
}
330
6E6
100
AcDbTableStyle
  3
Standard
 70
0
 71
0
 40
0.06
 41
0.06
280
1
281
1
  7
Standard
140
0.18
170
1
 62
0
 63
7
283
0
  7
Standard
140
0.18
170
1
 62
0
 63
7
283
0
  7
Standard
140
0.18
170
1
 62
0
 63
7
283
0
  0
TABLESTYLE
  5
6EA
102
{ACAD_REACTORS
330
6E6
330
460
102
}
330
6E6
100
AcDbTableStyle
  3
Standard1
 70
1
 71
0
 40
0.06
 41
0.06
280
1
281
1
  7
Standard
140
0.18
170
1
 62
0
 63
7
283
0
  7
Standard
140
0.18
170
1
 62
0
 63
7
283
0
  7
Standard
140
0.18
170
1
 62
0
 63
7
283
0
  0
ENDSEC
  0
EOF
