999
DXF file: 185569_1.dxf
999
Pro/ENGINEER 2016010 by Parametric Technology Corporation
  0
SECTION
  2
HEADER
  9
$ACADVER
  1
AC1018
  9
$DWGCODEPAGE
  3
ANSI_1252
  9
$EXTMAX
 10
17.0
 20
11.0
 30
0.0
  9
$EXTMIN
 10
0.0
 20
0.0
 30
0.0
  9
$LIMMIN
 10
0.0
 20
0.0
  9
$LIMMAX
 10
17.0
 20
11.0
  9
$VIEWCTR
 10
8.5
 20
5.5
  9
$VIEWSIZE
 40
11.0
  9
$CLAYER
  8
0
  9
$LTSCALE
 40
0.935
  9
$CELTYPE
  6
BYLAYER
  9
$DIMSCALE
 40
1.0
  9
$DIMASZ
 40
0.1875
  9
$DIMEXO
 40
0.0625
  9
$DIMDLI
 40
0.646
  9
$DIMEXE
 40
0.125
  9
$DIMCEN
 40
0.153
  9
$DIMLFAC
 40
1.0
  9
$DIMBLK
  1
_FILLED
  9
$DIMALT
 70
0
  9
$DIMALTF
 40
25.4
  9
$DIMTXT
 40
0.1
  9
$DIMTOL
 70
1
  9
$DIMLIM
 70
0
  9
$DIMTFAC
 40
1.0
  9
$DIMTP
 40
0.01
  9
$DIMTM
 40
0.01
  9
$DIMGAP
 40
0.09
  9
$DIMDSEP
 70
46
  9
$AUNITS
 70
0
  9
$PDMODE
 70
3
  9
$PDSIZE
 40
0.3125
  9
$HANDSEED
  5
574
  9
$TILEMODE
 70
1
  9
$MEASUREMENT
 70
0
  9
$INSUNITS
 70
1
  0
ENDSEC
  0
SECTION
  2
CLASSES
  0
CLASS
  1
ACDBDICTIONARYWDFLT
  2
AcDbDictionaryWithDefault
  3
AutoCAD 2000
 90
0
 91
1
280
0
281
0
  0
CLASS
  1
ACDBPLACEHOLDER
  2
AcDbPlaceHolder
  3
AutoCAD 2000
 90
0
 91
1
280
0
281
0
  0
CLASS
  1
LAYOUT
  2
AcDbLayout
  3
AutoCAD 2000
 90
0
 91
0
280
0
281
0
  0
CLASS
  1
TABLESTYLE
  2
AcDbTableStyle
  3
ObjectDBX Classes
 90
2047
 91
1
280
0
281
0
  0
CLASS
  1
ACAD_TABLE
  2
AcDbTable
  3
ObjectDBX Classes
 90
1025
 91
1
280
0
281
1
  0
ENDSEC
  0
SECTION
  2
TABLES
  0
TABLE
  2
VPORT
  5
8
100
AcDbSymbolTable
 70
2
  0
VPORT
  5
1F4
100
AcDbSymbolTableRecord
100
AcDbViewportTableRecord
  2
*ACTIVE
 70
0
 10
0.0
 20
0.0
 11
1.0
 21
1.0
 12
8.5
 22
5.5
 13
0.0
 23
0.0
 14
1.0
 24
1.0
 15
0.0
 25
0.0
 16
0.0
 26
0.0
 36
1.0
 17
0.0
 27
0.0
 37
0.0
 40
11.0
 41
1.5454545455
 42
50.0
 43
0.0
 44
0.0
 50
0.0
 51
0.0
 71
0
 72
100
 73
1
 74
1
 75
0
 76
0
 77
0
 78
0
  0
ENDTAB
  0
TABLE
  2
LTYPE
  5
5
100
AcDbSymbolTable
 70
6
  0
LTYPE
  5
14
100
AcDbSymbolTableRecord
100
AcDbLinetypeTableRecord
  2
BYBLOCK
 70
0
  3

 72
65
 73
0
 40
0.0
  0
LTYPE
  5
15
100
AcDbSymbolTableRecord
100
AcDbLinetypeTableRecord
  2
BYLAYER
 70
0
  3

 72
65
 73
0
 40
0.0
  0
LTYPE
  5
16
100
AcDbSymbolTableRecord
100
AcDbLinetypeTableRecord
  2
CONTINUOUS
 70
64
  3
Solid line
 72
65
 73
0
 40
0.0
  0
LTYPE
  5
1F5
100
AcDbSymbolTableRecord
100
AcDbLinetypeTableRecord
  2
CENTER
 70
64
  3
____ _ ____ _ ____ _ ____ _ ____ _ ____ _ ____
 72
65
 73
4
 40
0.6
 49
0.375
 74
0
 49
-0.075
 74
0
 49
0.075
 74
0
 49
-0.075
 74
0
  0
LTYPE
  5
1F6
100
AcDbSymbolTableRecord
100
AcDbLinetypeTableRecord
  2
HIDDEN
 70
64
  3
- - - - - - - - - - - - - - - - - - - -
 72
65
 73
2
 40
0.2
 49
0.1
 74
0
 49
-0.1
 74
0
  0
LTYPE
  5
1F7
100
AcDbSymbolTableRecord
100
AcDbLinetypeTableRecord
  2
PHANTOM
 70
64
  3
_____ _ _ _____ _ _ _____ _ _ _____
 72
65
 73
6
 40
0.8
 49
0.45
 74
0
 49
-0.05
 74
0
 49
0.1
 74
0
 49
-0.05
 74
0
 49
0.1
 74
0
 49
-0.05
 74
0
  0
LTYPE
  5
1F8
100
AcDbSymbolTableRecord
100
AcDbLinetypeTableRecord
  2
DOT
 70
64
  3
. . . . . . . . . . . . . . . . . . . .
 72
65
 73
2
 40
0.2
 49
0.1
 74
0
 49
-0.1
 74
0
  0
LTYPE
  5
1F9
100
AcDbSymbolTableRecord
100
AcDbLinetypeTableRecord
  2
DASHED
 70
64
  3
- - - - - - - - - - - - - - - - - - - -
 72
65
 73
2
 40
0.2
 49
0.1
 74
0
 49
-0.1
 74
0
  0
ENDTAB
  0
TABLE
  2
LAYER
  5
2
100
AcDbSymbolTable
 70
36
  0
LAYER
  5
10
100
AcDbSymbolTableRecord
100
AcDbLayerTableRecord
  2
0
 70
0
 62
7
  6
CONTINUOUS
370
-3
390
F
  0
LAYER
  5
1FA
100
AcDbSymbolTableRecord
100
AcDbLayerTableRecord
  2
DEFAULT_1
 70
0
 62
7
  6
CENTER
370
-3
390
F
  0
LAYER
  5
1FB
100
AcDbSymbolTableRecord
100
AcDbLayerTableRecord
  2
DEFAULT_2
 70
0
 62
7
  6
HIDDEN
370
-3
390
F
  0
LAYER
  5
1FC
100
AcDbSymbolTableRecord
100
AcDbLayerTableRecord
  2
DEFAULT_3
 70
0
 62
7
  6
PHANTOM
370
-3
390
F
  0
LAYER
  5
1FD
100
AcDbSymbolTableRecord
100
AcDbLayerTableRecord
  2
01___PRT_ALL_DTM_PLN
 70
0
 62
7
  6
CONTINUOUS
370
-3
390
F
  0
LAYER
  5
1FE
100
AcDbSymbolTableRecord
100
AcDbLayerTableRecord
  2
01___PRT_DEF_DTM_PLN
 70
0
 62
7
  6
CONTINUOUS
370
-3
390
F
  0
LAYER
  5
1FF
100
AcDbSymbolTableRecord
100
AcDbLayerTableRecord
  2
02___PRT_ALL_AXES
 70
0
 62
7
  6
CONTINUOUS
370
-3
390
F
  0
LAYER
  5
200
100
AcDbSymbolTableRecord
100
AcDbLayerTableRecord
  2
03___PRT_ALL_CURVES
 70
0
 62
7
  6
CONTINUOUS
370
-3
390
F
  0
LAYER
  5
201
100
AcDbSymbolTableRecord
100
AcDbLayerTableRecord
  2
04___PRT_ALL_DTM_PNT
 70
0
 62
7
  6
CONTINUOUS
370
-3
390
F
  0
LAYER
  5
202
100
AcDbSymbolTableRecord
100
AcDbLayerTableRecord
  2
05___PRT_ALL_DTM_CSYS
 70
0
 62
7
  6
CONTINUOUS
370
-3
390
F
  0
LAYER
  5
203
100
AcDbSymbolTableRecord
100
AcDbLayerTableRecord
  2
05___PRT_DEF_DTM_CSYS
 70
0
 62
7
  6
CONTINUOUS
370
-3
390
F
  0
LAYER
  5
204
100
AcDbSymbolTableRecord
100
AcDbLayerTableRecord
  2
06___PRT_ALL_SURFS
 70
0
 62
7
  6
CONTINUOUS
370
-3
390
F
  0
LAYER
  5
205
100
AcDbSymbolTableRecord
100
AcDbLayerTableRecord
  2
AXIS
 70
0
 62
7
  6
CONTINUOUS
370
-3
390
F
  0
LAYER
  5
206
100
AcDbSymbolTableRecord
100
AcDbLayerTableRecord
  2
AXIS_COSMETIC_THREADS
 70
0
 62
7
  6
CONTINUOUS
370
-3
390
F
  0
LAYER
  5
207
100
AcDbSymbolTableRecord
100
AcDbLayerTableRecord
  2
COSMETIC_THREADS
 70
0
 62
7
  6
CONTINUOUS
370
-3
390
F
  0
LAYER
  5
208
100
AcDbSymbolTableRecord
100
AcDbLayerTableRecord
  2
DATUM_CURVES
 70
0
 62
7
  6
CONTINUOUS
370
-3
390
F
  0
LAYER
  5
209
100
AcDbSymbolTableRecord
100
AcDbLayerTableRecord
  2
DATUM_PLANES
 70
0
 62
7
  6
CONTINUOUS
370
-3
390
F
  0
LAYER
  5
20A
100
AcDbSymbolTableRecord
100
AcDbLayerTableRecord
  2
DRIVEN_DIMS
 70
0
 62
7
  6
CONTINUOUS
370
-3
390
F
  0
LAYER
  5
20B
100
AcDbSymbolTableRecord
100
AcDbLayerTableRecord
  2
NOTES
 70
0
 62
7
  6
CONTINUOUS
370
-3
390
F
  0
LAYER
  5
20C
100
AcDbSymbolTableRecord
100
AcDbLayerTableRecord
  2
QUILTS
 70
0
 62
7
  6
CONTINUOUS
370
-3
390
F
  0
LAYER
  5
20D
100
AcDbSymbolTableRecord
100
AcDbLayerTableRecord
  2
SCHEME_DIMS
 70
0
 62
7
  6
CONTINUOUS
370
-3
390
F
  0
LAYER
  5
20E
100
AcDbSymbolTableRecord
100
AcDbLayerTableRecord
  2
SYMBOLS
 70
0
 62
7
  6
CONTINUOUS
370
-3
390
F
  0
ENDTAB
  0
TABLE
  2
STYLE
  5
3
100
AcDbSymbolTable
 70
1
  0
STYLE
  5
11
100
AcDbSymbolTableRecord
100
AcDbTextStyleTableRecord
  2
STANDARD
 70
0
 40
0.0
 41
1.0
 50
0.0
 71
0
 42
0.2
  3
txt
  4

  0
STYLE
  5
20F
100
AcDbSymbolTableRecord
100
AcDbTextStyleTableRecord
  2
TEXTSTYLE_1
 70
0
 40
0.0
 41
0.8
 50
0.0
 71
0
 42
0.2
  3
gdt
  4

  0
STYLE
  5
210
100
AcDbSymbolTableRecord
100
AcDbTextStyleTableRecord
  2
TEXTSTYLE_2
 70
0
 40
0.0
 41
0.8
 50
0.0
 71
0
 42
0.2
  3
txt
  4

  0
STYLE
  5
211
100
AcDbSymbolTableRecord
100
AcDbTextStyleTableRecord
  2
TEXTSTYLE_3
 70
0
 40
0.0
 41
0.85
 50
0.0
 71
0
 42
0.2
  3
txt
  4

  0
STYLE
  5
212
100
AcDbSymbolTableRecord
100
AcDbTextStyleTableRecord
  2
TEXTSTYLE_4
 70
0
 40
0.0
 41
0.9
 50
0.0
 71
0
 42
0.2
  3
txt
  4

  0
STYLE
  5
213
100
AcDbSymbolTableRecord
100
AcDbTextStyleTableRecord
  2
TEXTSTYLE_5
 70
0
 40
0.0
 41
0.75
 50
0.0
 71
0
 42
0.2
  3
txt
  4

  0
STYLE
  5
214
100
AcDbSymbolTableRecord
100
AcDbTextStyleTableRecord
  2
TEXTSTYLE_6
 70
0
 40
0.0
 41
1.0
 50
0.0
 71
0
 42
0.2
  3
gdt
  4

  0
ENDTAB
  0
TABLE
  2
VIEW
  5
6
100
AcDbSymbolTable
 70
0
  0
ENDTAB
  0
TABLE
  2
UCS
  5
7
100
AcDbSymbolTable
 70
0
  0
ENDTAB
  0
TABLE
  2
APPID
  5
9
100
AcDbSymbolTable
 70
1
  0
APPID
  5
215
100
AcDbSymbolTableRecord
100
AcDbRegAppTableRecord
  2
ACAD
 70
0
  0
ENDTAB
  0
TABLE
  2
BLOCK_RECORD
  5
1
100
AcDbSymbolTable
 70
0
  0
BLOCK_RECORD
  5
216
100
AcDbSymbolTableRecord
100
AcDbBlockTableRecord
  2
*Model_Space
  0
BLOCK_RECORD
  5
217
100
AcDbSymbolTableRecord
100
AcDbBlockTableRecord
  2
*Paper_Space
  0
BLOCK_RECORD
  5
218
100
AcDbSymbolTableRecord
100
AcDbBlockTableRecord
  2
_FILLED
  0
BLOCK_RECORD
  5
219
100
AcDbSymbolTableRecord
100
AcDbBlockTableRecord
  2
*D0
  0
BLOCK_RECORD
  5
21A
100
AcDbSymbolTableRecord
100
AcDbBlockTableRecord
  2
*D1
  0
BLOCK_RECORD
  5
21B
100
AcDbSymbolTableRecord
100
AcDbBlockTableRecord
  2
*D2
  0
BLOCK_RECORD
  5
21C
100
AcDbSymbolTableRecord
100
AcDbBlockTableRecord
  2
*D3
  0
BLOCK_RECORD
  5
21D
100
AcDbSymbolTableRecord
100
AcDbBlockTableRecord
  2
*T1
  0
ENDTAB
  0
TABLE
  2
DIMSTYLE
  5
A
100
AcDbSymbolTable
 70
1
100
AcDbDimStyleTable
 71
0
  0
DIMSTYLE
105
21E
100
AcDbSymbolTableRecord
100
AcDbDimStyleTableRecord
  2
STANDARD
 70
0
  3

  4

 40
1.0
 41
0.1875
 42
0.0625
 43
0.38
 44
0.125
 45
0.0
 46
0.0
 47
0.01
 48
0.01
140
0.1
141
0.09
142
0.0
143
25.4
144
1.0
145
0.0
146
1.0
147
0.09
 71
1.0
 72
0.0
 73
1
 74
1
 75
0
 76
0
 77
0
 78
4
170
0
171
2
172
0
173
0
174
0
175
0
176
0
177
0
178
0
270
2
271
2
272
2
273
2
274
2
275
0
280
0
281
0
282
0
283
1
284
4
285
0
286
0
287
3
288
0
340
11
278
46
341
218
342
218
343
218
344
218
  0
DIMSTYLE
105
21F
100
AcDbSymbolTableRecord
100
AcDbDimStyleTableRecord
  2
DIMSTYLE_1
 70
0
  3

  4

 40
1.0
 41
0.1875
 42
0.0625
 43
0.38
 44
0.125
 45
0.0
 46
0.0
 47
0.005
 48
0.005
140
0.1
141
0.09
142
0.0
143
25.4
144
1.0
145
0.0
146
1.0
147
0.1
 71
0.0
 72
0.0
 73
1
 74
1
 75
0
 76
0
 77
0
 78
4
170
0
171
2
172
0
173
0
174
0
175
0
176
0
177
0
178
0
270
2
271
1
272
1
273
2
274
2
275
0
280
0
281
0
282
0
283
1
284
4
285
0
286
0
287
3
288
0
340
11
278
46
341
218
342
218
343
218
344
218
  0
DIMSTYLE
105
220
100
AcDbSymbolTableRecord
100
AcDbDimStyleTableRecord
  2
DIMSTYLE_2
 70
0
  3
<>
  4

 40
1.0
 41
0.1875
 42
0.0625
 43
0.38
 44
0.125
 45
0.0
 46
0.0
 47
0.1
 48
0.1
140
0.1
141
0.09
142
0.0
143
25.4
144
1.0
145
0.0
146
1.0
147
0.09
 71
0.0
 72
0.0
 73
1
 74
1
 75
0
 76
0
 77
0
 78
4
170
0
171
2
172
1
173
0
174
0
175
0
176
0
177
0
178
0
270
2
271
1
272
1
273
2
274
2
275
0
280
0
281
0
282
0
283
1
284
4
285
0
286
0
287
3
288
1
340
11
278
46
289
2
341
218
342
218
343
218
344
218
  0
DIMSTYLE
105
221
100
AcDbSymbolTableRecord
100
AcDbDimStyleTableRecord
  2
DIMSTYLE_3
 70
0
  3

  4

 40
1.0
 41
0.1875
 42
0.0625
 43
0.38
 44
0.125
 45
0.0
 46
0.0
 47
0.1
 48
0.1
140
0.1
141
0.09
142
0.0
143
25.4
144
1.0
145
0.0
146
1.0
147
0.1
 71
0.0
 72
0.0
 73
1
 74
1
 75
0
 76
0
 77
0
 78
4
170
0
171
2
172
0
173
0
174
0
175
0
176
0
177
0
178
0
270
2
271
1
272
1
273
2
274
2
275
0
280
0
281
0
282
0
283
1
284
4
285
0
286
0
287
3
288
0
340
11
278
46
341
218
342
218
343
218
344
218
  0
ENDTAB
  0
ENDSEC
  0
SECTION
  2
BLOCKS
  0
BLOCK
  5
20
100
AcDbEntity
  8
0
100
AcDbBlockBegin
  2
*Model_Space
 70
0
 10
0.0
 20
0.0
 30
0.0
  3
*Model_Space
  1

  0
ENDBLK
  5
21
100
AcDbEntity
  8
0
100
AcDbBlockEnd
  0
BLOCK
  5
1C
100
AcDbEntity
  8
0
100
AcDbBlockBegin
  2
*Paper_Space
 70
0
 10
0.0
 20
0.0
 30
0.0
  3
*Paper_Space
  1

  0
ENDBLK
  5
1D
100
AcDbEntity
  8
0
100
AcDbBlockEnd
  0
BLOCK
  5
222
100
AcDbEntity
  8
0
100
AcDbBlockBegin
  2
_FILLED
 70
64
 10
0.0
 20
0.0
  3
_FILLED
  1

  0
SOLID
  5
223
100
AcDbEntity
  8
0
  6
BYBLOCK
 62
0
100
AcDbTrace
 10
0.0
 20
0.0
 11
-1.0
 21
0.1666666667
 12
-1.0
 22
-0.1666666667
 13
-1.0
 23
-0.1666666667
  0
ENDBLK
  5
224
100
AcDbEntity
  8
0
  6
BYBLOCK
 62
0
100
AcDbBlockEnd
  0
BLOCK
  5
225
100
AcDbEntity
  8
DRIVEN_DIMS
100
AcDbBlockBegin
 62
7
  6
CONTINUOUS
  2
*D0
 70
65
 10
0.0
 20
0.0
  3
*D0
  1

  0
MTEXT
  5
226
100
AcDbEntity
  8
DRIVEN_DIMS
100
AcDbMText
 62
7
  6
CONTINUOUS
  7
STANDARD
 71
2
 72
1
 10
13.0644690723
 20
5.9925919977
 30
0.0
 11
1.0
 21
0.0
 31
0.0
 44
0.9
  1
27.5\P[1.08]
 40
0.1
 41
0.6
  0
LINE
  5
227
100
AcDbEntity
  8
DRIVEN_DIMS
100
AcDbLine
 62
7
  6
CONTINUOUS
 10
11.9658968837
 20
6.4044714941
 11
13.2894690723
 21
6.4044714941
  0
LINE
  5
228
100
AcDbEntity
  8
DRIVEN_DIMS
100
AcDbLine
 62
7
  6
CONTINUOUS
 10
11.9658968837
 20
5.3217943287
 11
13.2894690723
 21
5.3217943287
  0
LINE
  5
229
100
AcDbEntity
  8
DRIVEN_DIMS
100
AcDbLine
 62
7
  6
CONTINUOUS
 10
13.1644690723
 20
6.4044714941
 11
13.1644690723
 21
6.0925919977
  0
LINE
  5
22A
100
AcDbEntity
  8
DRIVEN_DIMS
100
AcDbLine
 62
7
  6
CONTINUOUS
 10
13.1644690723
 20
5.3217943287
 11
13.1644690723
 21
5.6425919977
  0
INSERT
  5
22B
100
AcDbEntity
  8
DRIVEN_DIMS
100
AcDbBlockReference
 62
7
  6
CONTINUOUS
  2
_FILLED
 10
13.1644690723
 20
6.4044714941
 41
0.1875
 42
0.1875
 43
0.1875
 50
90.0
  0
INSERT
  5
22C
100
AcDbEntity
  8
DRIVEN_DIMS
100
AcDbBlockReference
 62
7
  6
CONTINUOUS
  2
_FILLED
 10
13.1644690723
 20
5.3217943287
 41
0.1875
 42
0.1875
 43
0.1875
 50
270.0
  0
ENDBLK
  5
22D
100
AcDbEntity
  8
0
  6
BYBLOCK
 62
0
100
AcDbBlockEnd
  0
BLOCK
  5
22E
100
AcDbEntity
  8
SCHEME_DIMS
100
AcDbBlockBegin
 62
7
  6
CONTINUOUS
  2
*D1
 70
65
 10
0.0
 20
0.0
  3
*D1
  1

  0
MTEXT
  5
22F
100
AcDbEntity
  8
SCHEME_DIMS
100
AcDbMText
 62
7
  6
CONTINUOUS
  7
TEXTSTYLE_6
 71
1
 72
1
 10
3.4869061151
 20
4.4930519802
 30
0.0
 11
1.0
 21
0.0
 31
0.0
 44
0.9
  1
{\Fgdt;n}\Ftxt;50.0\P[1.97]
 40
0.1
 41
0.6
  0
LINE
  5
230
100
AcDbEntity
  8
SCHEME_DIMS
100
AcDbLine
 62
7
  6
CONTINUOUS
 10
3.0851295787
 20
4.9431618596
 11
3.2753211245
 21
4.4430519802
  0
LINE
  5
231
100
AcDbEntity
  8
SCHEME_DIMS
100
AcDbLine
 62
7
  6
CONTINUOUS
 10
3.2753211245
 20
4.4430519802
 11
3.3869061151
 21
4.4430519802
  0
INSERT
  5
232
100
AcDbEntity
  8
SCHEME_DIMS
100
AcDbBlockReference
 62
7
  6
CONTINUOUS
  2
_FILLED
 10
3.0851295787
 20
4.9431618596
 41
0.1875
 42
0.1875
 43
0.1875
 50
110.8217852266
  0
ENDBLK
  5
233
100
AcDbEntity
  8
0
  6
BYBLOCK
 62
0
100
AcDbBlockEnd
  0
BLOCK
  5
234
100
AcDbEntity
  8
SCHEME_DIMS
100
AcDbBlockBegin
 62
7
  6
CONTINUOUS
  2
*D2
 70
65
 10
0.0
 20
0.0
  3
*D2
  1

  0
MTEXT
  5
235
100
AcDbEntity
  8
SCHEME_DIMS
100
AcDbMText
 62
7
  6
CONTINUOUS
  7
STANDARD
 71
2
 72
1
 10
5.7379510895
 20
7.9822220311
 30
0.0
 11
1.0
 21
0.0
 31
0.0
 44
0.9
  1
62.2\P[2.45]
 40
0.1
 41
0.6
  0
LINE
  5
236
100
AcDbEntity
  8
SCHEME_DIMS
100
AcDbLine
 62
7
  6
CONTINUOUS
 10
4.6127549537
 20
6.2638218878
 11
4.6127549537
 21
8.0572220311
  0
LINE
  5
237
100
AcDbEntity
  8
SCHEME_DIMS
100
AcDbLine
 62
7
  6
CONTINUOUS
 10
7.0631472254
 20
6.4276014153
 11
7.0631472254
 21
8.0572220311
  0
LINE
  5
238
100
AcDbEntity
  8
SCHEME_DIMS
100
AcDbLine
 62
7
  6
CONTINUOUS
 10
4.6127549537
 20
7.9322220311
 11
5.4379510895
 21
7.9322220311
  0
LINE
  5
239
100
AcDbEntity
  8
SCHEME_DIMS
100
AcDbLine
 62
7
  6
CONTINUOUS
 10
7.0631472254
 20
7.9322220311
 11
6.2379510895
 21
7.9322220311
  0
INSERT
  5
23A
100
AcDbEntity
  8
SCHEME_DIMS
100
AcDbBlockReference
 62
7
  6
CONTINUOUS
  2
_FILLED
 10
4.6127549537
 20
7.9322220311
 41
0.1875
 42
0.1875
 43
0.1875
 50
180.0
  0
INSERT
  5
23B
100
AcDbEntity
  8
SCHEME_DIMS
100
AcDbBlockReference
 62
7
  6
CONTINUOUS
  2
_FILLED
 10
7.0631472254
 20
7.9322220311
 41
0.1875
 42
0.1875
 43
0.1875
  0
ENDBLK
  5
23C
100
AcDbEntity
  8
0
  6
BYBLOCK
 62
0
100
AcDbBlockEnd
  0
BLOCK
  5
23D
100
AcDbEntity
  8
SCHEME_DIMS
100
AcDbBlockBegin
 62
7
  6
CONTINUOUS
  2
*D3
 70
65
 10
0.0
 20
0.0
  3
*D3
  1

  0
MTEXT
  5
23E
100
AcDbEntity
  8
SCHEME_DIMS
100
AcDbMText
 62
7
  6
CONTINUOUS
  7
STANDARD
 71
2
 72
1
 10
5.3442503021
 20
7.4482832556
 30
0.0
 11
1.0
 21
0.0
 31
0.0
 44
0.9
  1
42.2\P[1.66]
 40
0.1
 41
0.6
  0
LINE
  5
23F
100
AcDbEntity
  8
SCHEME_DIMS
100
AcDbLine
 62
7
  6
CONTINUOUS
 10
6.2757456506
 20
6.8705147919
 11
6.2757456506
 21
7.5232832556
  0
LINE
  5
240
100
AcDbEntity
  8
SCHEME_DIMS
100
AcDbLine
 62
7
  6
CONTINUOUS
 10
4.6127549537
 20
6.2638218878
 11
4.6127549537
 21
7.5232832556
  0
LINE
  5
241
100
AcDbEntity
  8
SCHEME_DIMS
100
AcDbLine
 62
7
  6
CONTINUOUS
 10
6.2757456506
 20
7.3982832556
 11
5.8442503021
 21
7.3982832556
  0
LINE
  5
242
100
AcDbEntity
  8
SCHEME_DIMS
100
AcDbLine
 62
7
  6
CONTINUOUS
 10
4.6127549537
 20
7.3982832556
 11
5.0442503021
 21
7.3982832556
  0
INSERT
  5
243
100
AcDbEntity
  8
SCHEME_DIMS
100
AcDbBlockReference
 62
7
  6
CONTINUOUS
  2
_FILLED
 10
6.2757456506
 20
7.3982832556
 41
0.1875
 42
0.1875
 43
0.1875
  0
INSERT
  5
244
100
AcDbEntity
  8
SCHEME_DIMS
100
AcDbBlockReference
 62
7
  6
CONTINUOUS
  2
_FILLED
 10
4.6127549537
 20
7.3982832556
 41
0.1875
 42
0.1875
 43
0.1875
 50
180.0
  0
ENDBLK
  5
245
100
AcDbEntity
  8
0
  6
BYBLOCK
 62
0
100
AcDbBlockEnd
  0
BLOCK
  5
246
100
AcDbEntity
  8
0
100
AcDbBlockBegin
  2
*T1
 70
1
 10
0.0
 20
0.0
  3
*T1
  1

  0
LINE
  5
247
100
AcDbEntity
  8
0
100
AcDbLine
 62
7
  6
CONTINUOUS
 10
4.35
 20
0.0
 11
0.0
 21
0.0
  0
LINE
  5
248
100
AcDbEntity
  8
0
100
AcDbLine
 62
7
  6
CONTINUOUS
 10
4.35
 20
0.0
 11
4.35
 21
1.92
  0
LINE
  5
249
100
AcDbEntity
  8
0
100
AcDbLine
 62
7
  6
CONTINUOUS
 10
4.35
 20
1.92
 11
0.0
 21
1.92
  0
LINE
  5
24A
100
AcDbEntity
  8
0
100
AcDbLine
 62
7
  6
CONTINUOUS
 10
0.0
 20
0.0
 11
0.0
 21
1.92
  0
MTEXT
  5
24B
100
AcDbEntity
  8
NOTES
100
AcDbMText
 62
7
  6
CONTINUOUS
  7
STANDARD
 71
2
 72
1
 10
4.125
 20
0.48
 30
0.0
 11
1.0
 21
0.0
 31
0.0
 44
0.9
  1
A
 40
0.1
 41
0.2
  0
MTEXT
  5
24C
100
AcDbEntity
  8
NOTES
100
AcDbMText
 62
7
  6
CONTINUOUS
  7
STANDARD
 71
2
 72
1
 10
2.175
 20
0.93
 30
0.0
 11
1.0
 21
0.0
 31
0.0
 44
0.9
  1
K50L KEYSWITCH CABLE/PIGTAIL
 40
0.1
 41
5.6
  0
ENDBLK
  5
24D
100
AcDbEntity
  8
0
  6
BYBLOCK
 62
0
100
AcDbBlockEnd
  0
ENDSEC
  0
SECTION
  2
ENTITIES
  0
MTEXT
  5
24E
100
AcDbEntity
  8
0
100
AcDbMText
 62
7
  6
CONTINUOUS
  7
TEXTSTYLE_2
 71
2
 72
1
 10
11.0287658475
 20
1.794867839
 30
0.0
 11
1.0
 21
0.0
 31
0.0
 44
0.9
  1
THIRD ANGLE PROJECTION
 40
0.1
 41
1.76
  0
MTEXT
  5
24F
100
AcDbEntity
  8
0
100
AcDbMText
 62
7
  6
CONTINUOUS
  7
STANDARD
 71
1
 72
1
 10
12.88
 20
1.457
 30
0.0
 11
1.0
 21
0.0
 31
0.0
 44
0.9
  1
DRAWING NO.
 40
0.08
 41
0.88
  0
MTEXT
  5
250
100
AcDbEntity
  8
0
100
AcDbMText
 62
7
  6
CONTINUOUS
  7
TEXTSTYLE_2
 71
1
 72
1
 10
12.08
 20
2.217
 30
0.0
 11
1.0
 21
0.0
 31
0.0
 44
0.9
  1
TITLE
 40
0.1
 41
0.4
  0
MTEXT
  5
251
100
AcDbEntity
  8
0
100
AcDbMText
 62
7
  6
CONTINUOUS
  7
STANDARD
 71
1
 72
1
 10
12.08
 20
1.457
 30
0.0
 11
1.0
 21
0.0
 31
0.0
 44
0.9
  1
SIZE
 40
0.08
 41
0.32
  0
MTEXT
  5
252
100
AcDbEntity
  8
0
100
AcDbMText
 62
7
  6
CONTINUOUS
  7
STANDARD
 71
1
 72
1
 10
12.08
 20
1.087
 30
0.0
 11
1.0
 21
0.0
 31
0.0
 44
0.9
  1
SCALE
 40
0.08
 41
0.4
  0
MTEXT
  5
253
100
AcDbEntity
  8
0
100
AcDbMText
 62
7
  6
CONTINUOUS
  7
TEXTSTYLE_2
 71
2
 72
1
 10
12.5
 20
1.337
 30
0.0
 11
1.0
 21
0.0
 31
0.0
 44
0.9
  1
B
 40
0.1
 41
0.08
  0
MTEXT
  5
254
100
AcDbEntity
  8
0
100
AcDbMText
 62
7
  6
CONTINUOUS
  7
TEXTSTYLE_3
 71
2
 72
1
 10
11.0340287086
 20
2.7679425959
 30
0.0
 11
1.0
 21
0.0
 31
0.0
 44
0.9
  1
This drawing is the property\Pof BANNER ENGINEERING CORP.\PAny use or reproduction,\Pin any form, without prior\Pwritten permission of\PBanner is prohibited.
 40
0.08
 41
1.904
  0
MTEXT
  5
255
100
AcDbEntity
  8
0
100
AcDbMText
 62
7
  6
CONTINUOUS
  7
STANDARD
 71
1
 72
1
 10
14.255
 20
1.087
 30
0.0
 11
1.0
 21
0.0
 31
0.0
 44
0.9
  1
SHEET
 40
0.08
 41
0.4
  0
MTEXT
  5
256
100
AcDbEntity
  8
0
100
AcDbMText
 62
7
  6
CONTINUOUS
  7
STANDARD
 71
1
 72
1
 10
15.63
 20
1.457
 30
0.0
 11
1.0
 21
0.0
 31
0.0
 44
0.9
  1
REV.
 40
0.08
 41
0.32
  0
MTEXT
  5
257
100
AcDbEntity
  8
0
100
AcDbMText
 62
7
  6
CONTINUOUS
  7
STANDARD
 71
3
 72
1
 10
16.38
 20
0.835443
 30
0.0
 11
1.0
 21
0.0
 31
0.0
 44
0.9
  1
CREO
 40
0.07
 41
0.28
  0
MTEXT
  5
258
100
AcDbEntity
  8
0
100
AcDbMText
 62
7
  6
CONTINUOUS
  7
TEXTSTYLE_4
 71
2
 72
1
 10
15.1043392653
 20
2.7174764286
 30
0.0
 11
1.0
 21
0.0
 31
0.0
 44
0.9
  1
BANNER ENGINEERING CORP.
 40
0.12
 41
2.592
  0
MTEXT
  5
259
100
AcDbEntity
  8
0
100
AcDbMText
 62
7
  6
CONTINUOUS
  7
TEXTSTYLE_2
 71
2
 72
1
 10
15.0923490612
 20
2.4764783673
 30
0.0
 11
1.0
 21
0.0
 31
0.0
 44
0.9
  1
www.bannerengineering.com
 40
0.1
 41
2.0
  0
MTEXT
  5
25A
100
AcDbEntity
  8
0
100
AcDbMText
 62
7
  6
CONTINUOUS
  7
TEXTSTYLE_2
 71
2
 72
1
 10
9.485
 20
10.312
 30
0.0
 11
1.0
 21
0.0
 31
0.0
 44
0.9
  1
4
 40
0.1
 41
0.08
  0
MTEXT
  5
25B
100
AcDbEntity
  8
0
100
AcDbMText
 62
7
  6
CONTINUOUS
  7
TEXTSTYLE_2
 71
2
 72
1
 10
11.455
 20
10.312
 30
0.0
 11
1.0
 21
0.0
 31
0.0
 44
0.9
  1
3
 40
0.1
 41
0.08
  0
MTEXT
  5
25C
100
AcDbEntity
  8
0
100
AcDbMText
 62
7
  6
CONTINUOUS
  7
TEXTSTYLE_2
 71
2
 72
1
 10
13.425
 20
10.312
 30
0.0
 11
1.0
 21
0.0
 31
0.0
 44
0.9
  1
2
 40
0.1
 41
0.08
  0
MTEXT
  5
25D
100
AcDbEntity
  8
0
100
AcDbMText
 62
7
  6
CONTINUOUS
  7
TEXTSTYLE_2
 71
2
 72
1
 10
15.395
 20
10.312
 30
0.0
 11
1.0
 21
0.0
 31
0.0
 44
0.9
  1
1
 40
0.1
 41
0.08
  0
MTEXT
  5
25E
100
AcDbEntity
  8
0
100
AcDbMText
 62
7
  6
CONTINUOUS
  7
TEXTSTYLE_2
 71
2
 72
1
 10
3.575
 20
10.312
 30
0.0
 11
1.0
 21
0.0
 31
0.0
 44
0.9
  1
7
 40
0.1
 41
0.08
  0
MTEXT
  5
25F
100
AcDbEntity
  8
0
100
AcDbMText
 62
7
  6
CONTINUOUS
  7
TEXTSTYLE_2
 71
2
 72
1
 10
5.545
 20
10.312
 30
0.0
 11
1.0
 21
0.0
 31
0.0
 44
0.9
  1
6
 40
0.1
 41
0.08
  0
MTEXT
  5
260
100
AcDbEntity
  8
0
100
AcDbMText
 62
7
  6
CONTINUOUS
  7
TEXTSTYLE_2
 71
2
 72
1
 10
7.515
 20
10.312
 30
0.0
 11
1.0
 21
0.0
 31
0.0
 44
0.9
  1
5
 40
0.1
 41
0.08
  0
MTEXT
  5
261
100
AcDbEntity
  8
0
100
AcDbMText
 62
7
  6
CONTINUOUS
  7
TEXTSTYLE_2
 71
2
 72
1
 10
1.605
 20
10.312
 30
0.0
 11
1.0
 21
0.0
 31
0.0
 44
0.9
  1
8
 40
0.1
 41
0.08
  0
MTEXT
  5
262
100
AcDbEntity
  8
0
100
AcDbMText
 62
7
  6
CONTINUOUS
  7
TEXTSTYLE_2
 71
2
 72
1
 10
1.605
 20
0.787
 30
0.0
 11
1.0
 21
0.0
 31
0.0
 44
0.9
  1
8
 40
0.1
 41
0.08
  0
MTEXT
  5
263
100
AcDbEntity
  8
0
100
AcDbMText
 62
7
  6
CONTINUOUS
  7
TEXTSTYLE_2
 71
2
 72
1
 10
3.575
 20
0.787
 30
0.0
 11
1.0
 21
0.0
 31
0.0
 44
0.9
  1
7
 40
0.1
 41
0.08
  0
MTEXT
  5
264
100
AcDbEntity
  8
0
100
AcDbMText
 62
7
  6
CONTINUOUS
  7
TEXTSTYLE_2
 71
2
 72
1
 10
5.545
 20
0.787
 30
0.0
 11
1.0
 21
0.0
 31
0.0
 44
0.9
  1
6
 40
0.1
 41
0.08
  0
MTEXT
  5
265
100
AcDbEntity
  8
0
100
AcDbMText
 62
7
  6
CONTINUOUS
  7
TEXTSTYLE_2
 71
2
 72
1
 10
7.515
 20
0.787
 30
0.0
 11
1.0
 21
0.0
 31
0.0
 44
0.9
  1
5
 40
0.1
 41
0.08
  0
MTEXT
  5
266
100
AcDbEntity
  8
0
100
AcDbMText
 62
7
  6
CONTINUOUS
  7
TEXTSTYLE_2
 71
2
 72
1
 10
9.485
 20
0.787
 30
0.0
 11
1.0
 21
0.0
 31
0.0
 44
0.9
  1
4
 40
0.1
 41
0.08
  0
MTEXT
  5
267
100
AcDbEntity
  8
0
100
AcDbMText
 62
7
  6
CONTINUOUS
  7
TEXTSTYLE_2
 71
2
 72
1
 10
11.455
 20
0.787
 30
0.0
 11
1.0
 21
0.0
 31
0.0
 44
0.9
  1
3
 40
0.1
 41
0.08
  0
MTEXT
  5
268
100
AcDbEntity
  8
0
100
AcDbMText
 62
7
  6
CONTINUOUS
  7
TEXTSTYLE_2
 71
2
 72
1
 10
13.425
 20
0.787
 30
0.0
 11
1.0
 21
0.0
 31
0.0
 44
0.9
  1
2
 40
0.1
 41
0.08
  0
MTEXT
  5
269
100
AcDbEntity
  8
0
100
AcDbMText
 62
7
  6
CONTINUOUS
  7
TEXTSTYLE_2
 71
2
 72
1
 10
15.395
 20
0.787
 30
0.0
 11
1.0
 21
0.0
 31
0.0
 44
0.9
  1
1
 40
0.1
 41
0.08
  0
MTEXT
  5
26A
100
AcDbEntity
  8
0
100
AcDbMText
 62
7
  6
CONTINUOUS
  7
TEXTSTYLE_2
 71
3
 72
1
 10
0.52
 20
4.3995
 30
0.0
 11
1.0
 21
0.0
 31
0.0
 44
0.9
  1
B
 40
0.1
 41
0.08
  0
MTEXT
  5
26B
100
AcDbEntity
  8
0
100
AcDbMText
 62
7
  6
CONTINUOUS
  7
TEXTSTYLE_2
 71
3
 72
1
 10
0.52
 20
2.0995
 30
0.0
 11
1.0
 21
0.0
 31
0.0
 44
0.9
  1
A
 40
0.1
 41
0.08
  0
MTEXT
  5
26C
100
AcDbEntity
  8
0
100
AcDbMText
 62
7
  6
CONTINUOUS
  7
TEXTSTYLE_2
 71
3
 72
1
 10
0.52
 20
8.9995
 30
0.0
 11
1.0
 21
0.0
 31
0.0
 44
0.9
  1
D
 40
0.1
 41
0.08
  0
MTEXT
  5
26D
100
AcDbEntity
  8
0
100
AcDbMText
 62
7
  6
CONTINUOUS
  7
TEXTSTYLE_2
 71
3
 72
1
 10
0.52
 20
6.6995
 30
0.0
 11
1.0
 21
0.0
 31
0.0
 44
0.9
  1
C
 40
0.1
 41
0.08
  0
MTEXT
  5
26E
100
AcDbEntity
  8
0
100
AcDbMText
 62
7
  6
CONTINUOUS
  7
TEXTSTYLE_2
 71
1
 72
1
 10
16.48
 20
8.9995
 30
0.0
 11
1.0
 21
0.0
 31
0.0
 44
0.9
  1
D
 40
0.1
 41
0.08
  0
MTEXT
  5
26F
100
AcDbEntity
  8
0
100
AcDbMText
 62
7
  6
CONTINUOUS
  7
TEXTSTYLE_2
 71
1
 72
1
 10
16.48
 20
6.6995
 30
0.0
 11
1.0
 21
0.0
 31
0.0
 44
0.9
  1
C
 40
0.1
 41
0.08
  0
MTEXT
  5
270
100
AcDbEntity
  8
0
100
AcDbMText
 62
7
  6
CONTINUOUS
  7
TEXTSTYLE_2
 71
1
 72
1
 10
16.48
 20
4.3995
 30
0.0
 11
1.0
 21
0.0
 31
0.0
 44
0.9
  1
B
 40
0.1
 41
0.08
  0
MTEXT
  5
271
100
AcDbEntity
  8
0
100
AcDbMText
 62
7
  6
CONTINUOUS
  7
TEXTSTYLE_2
 71
1
 72
1
 10
16.48
 20
2.0995
 30
0.0
 11
1.0
 21
0.0
 31
0.0
 44
0.9
  1
A
 40
0.1
 41
0.08
  0
MTEXT
  5
272
100
AcDbEntity
  8
0
100
AcDbMText
 62
7
  6
CONTINUOUS
  7
STANDARD
 71
1
 72
1
 10
14.819264911
 20
1.0627941725
 30
0.0
 11
1.0
 21
0.0
 31
0.0
 44
0.9
  1
1 OF 1
 40
0.1
 41
0.6
  0
MTEXT
  5
273
100
AcDbEntity
  8
0
100
AcDbMText
 62
7
  6
CONTINUOUS
  7
STANDARD
 71
1
 72
1
 10
13.8911999818
 20
1.3747321586
 30
0.0
 11
1.0
 21
0.0
 31
0.0
 44
0.9
  1
185569
 40
0.12
 41
0.72
  0
MTEXT
  5
274
100
AcDbEntity
  8
0
100
AcDbMText
 62
7
  6
CONTINUOUS
  7
STANDARD
 71
1
 72
1
 10
12.644264911
 20
1.0627941725
 30
0.0
 11
1.0
 21
0.0
 31
0.0
 44
0.9
  1
1:1
 40
0.1
 41
0.3
  0
MTEXT
  5
275
100
AcDbEntity
  8
0
100
AcDbMText
 62
7
  6
CONTINUOUS
  7
STANDARD
 71
1
 72
1
 10
0.8489354566
 20
1.4938330621
 30
0.0
 11
1.0
 21
0.0
 31
0.0
 44
0.9
  1
NOTES:\P1. ALL DIMENSIONS ARE MILLIMETERS [INCHES] UNLESS OTHERWISE NOTED.\P2. REFER TO "www.bannerengineering.com" FOR ADDITIONAL DATA AND SPECIFICATIONS.
 40
0.1
 41
7.9
  0
MTEXT
  5
276
100
AcDbEntity
  8
0
100
AcDbMText
 62
7
  6
CONTINUOUS
  7
TEXTSTYLE_5
 71
2
 72
1
 10
11.0519651892
 20
2.0334024775
 30
0.0
 11
1.0
 21
0.0
 31
0.0
 44
0.9
  1
C  2015 Banner Engineering Corp.
 40
0.08
 41
1.92
  0
DIMENSION
  5
277
100
AcDbEntity
  8
DRIVEN_DIMS
100
AcDbDimension
 62
7
  6
CONTINUOUS
  2
*D0
 10
13.1644690723
 20
5.3217943287
 11
13.1644690723
 21
5.8675919977
 70
160
 71
2
 42
27.5
  3
DIMSTYLE_1
100
AcDbAlignedDimension
 13
11.9033968837
 23
6.4044714941
 14
11.9033968837
 24
5.3217943287
 50
270.0
100
AcDbRotatedDimension
  0
DIMENSION
  5
278
100
AcDbEntity
  8
SCHEME_DIMS
100
AcDbDimension
 62
7
  6
CONTINUOUS
  2
*D1
 10
3.0851295787
 20
4.9431618596
 11
3.8535727818
 21
4.3680519802
 70
163
 71
1
 42
50.0
  1
%%c<>
  3
DIMSTYLE_2
100
AcDbDiametricDimension
 15
2.3854004846
 25
6.7831039632
  0
DIMENSION
  5
279
100
AcDbEntity
  8
SCHEME_DIMS
100
AcDbDimension
 62
7
  6
CONTINUOUS
  2
*D2
 10
7.0631472254
 20
7.9322220311
 11
5.8379510895
 21
7.8572220311
 70
160
 71
2
 42
62.2399637023
  3
DIMSTYLE_3
100
AcDbAlignedDimension
 13
4.6127549537
 23
6.2013218878
 14
7.0631472254
 24
6.3651014153
100
AcDbRotatedDimension
  0
DIMENSION
  5
27A
100
AcDbEntity
  8
SCHEME_DIMS
100
AcDbDimension
 62
7
  6
CONTINUOUS
  2
*D3
 10
4.6127549537
 20
7.3982832556
 11
5.4442503021
 21
7.3232832556
 70
160
 71
2
 42
42.2399637023
  3
DIMSTYLE_3
100
AcDbAlignedDimension
 13
6.2757456506
 23
6.8080147919
 14
4.6127549537
 24
6.2013218878
 50
180.0
100
AcDbRotatedDimension
  0
ACAD_TABLE
  5
27B
100
AcDbEntity
  8
0
 62
7
  6
CONTINUOUS
100
AcDbBlockReference
  2
*T1
 10
12.03
 20
0.887
 30
0.0
100
AcDbTable
342
       573
343
21D
 11
1.0
 21
0.0
 31
0.0
 90
6
 91
3
 92
5
 93
4
 94
0
 95
0
 96
0
 70
1
141
0.33
141
0.45
141
1.14
142
0.65
142
1.15
142
1.025
142
1.075
142
0.45
171
1
172
0
173
0
174
0
175
1
176
1
177
33
178
0
145
0.0
  1
 
170
1
140
0.1
171
1
172
0
173
0
174
0
175
1
176
1
177
33
178
0
145
0.0
  1
 
170
1
140
0.1
171
1
172
0
173
0
174
0
175
1
176
1
177
33
178
0
145
0.0
  1
 
170
1
140
0.1
171
1
172
0
173
0
174
0
175
1
176
1
177
33
178
0
145
0.0
  1
 
170
1
140
0.1
171
1
172
0
173
0
174
0
175
1
176
1
177
33
178
0
145
0.0
  1
 
170
1
140
0.1
171
1
172
0
173
0
174
0
175
1
176
1
177
33
178
0
145
0.0
  1
 
170
1
140
0.1
171
1
172
0
173
0
174
0
175
1
176
1
177
33
178
0
145
0.0
  1
 
170
1
140
0.1
171
1
172
0
173
0
174
0
175
1
176
1
177
33
178
0
145
0.0
  1
 
170
1
140
0.1
171
1
172
0
173
0
174
0
175
1
176
1
177
33
178
0
145
0.0
  1
 
170
1
140
0.1
171
1
172
0
173
0
174
0
175
1
176
1
177
41
178
0
145
0.0
  1
A
170
8
140
0.1
 64
7
171
1
172
0
173
0
174
0
175
5
176
1
177
33
178
0
145
0.0
  1
K50L KEYSWITCH CABLE/PIGTAIL
170
8
140
0.1
171
1
172
0
173
1
174
0
175
1
176
1
177
1
178
0
145
0.0
170
1
171
1
172
0
173
1
174
0
175
1
176
1
177
1
178
0
145
0.0
170
1
171
1
172
0
173
1
174
0
175
1
176
1
177
1
178
0
145
0.0
170
1
171
1
172
0
173
1
174
0
175
1
176
1
177
1
178
0
145
0.0
170
8
  0
LEADER
  5
27C
100
AcDbEntity
  8
NOTES
100
AcDbLeader
 62
7
  6
CONTINUOUS
  3
STANDARD
 71
1
 72
0
 73
0
 75
0
 40
0.1
 41
0.9
 76
3
 10
6.7186330706
 20
5.3217943287
 30
0.0
 10
6.9224788237
 20
4.7683605027
 30
0.0
 10
7.1724788237
 20
4.7683605027
 30
0.0
340
27D
1001
ACAD
1000
DSTYLE
1002
{
1070
77
1070
0
1002
}
  0
MTEXT
  5
27D
102
{ACAD_REACTORS
330
27C
102
}
100
AcDbEntity
  8
NOTES
100
AcDbMText
 62
7
  6
CONTINUOUS
  7
STANDARD
 71
1
 72
1
 10
7.1724788237
 20
4.8183605027
 30
0.0
 11
1.0
 21
0.0
 31
0.0
 44
0.9
  1
M30 X 1.5
 40
0.1
 41
0.9
  0
MTEXT
  5
27E
100
AcDbEntity
  8
NOTES
100
AcDbMText
 62
7
  6
CONTINUOUS
  7
STANDARD
 71
2
 72
1
 10
14.9441929589
 20
5.1828124312
 30
0.0
 11
1.0
 21
0.0
 31
0.0
 44
0.9
  1
ISOMETRIC VIEW\P\H0.1;SCALE  1:1
 40
0.12
 41
1.68
  0
LINE
  5
27F
100
AcDbEntity
  8
0
100
AcDbLine
 62
7
  6
CONTINUOUS
 10
0.47
 20
5.586103
 11
0.47
 21
5.412897
  0
LINE
  5
280
100
AcDbEntity
  8
0
100
AcDbLine
 62
7
  6
CONTINUOUS
 10
0.62
 20
10.112
 11
0.62
 21
0.887
  0
LINE
  5
281
100
AcDbEntity
  8
0
100
AcDbLine
 62
7
  6
CONTINUOUS
 10
2.59
 20
0.887
 11
2.59
 21
0.637
  0
LINE
  5
282
100
AcDbEntity
  8
0
100
AcDbLine
 62
7
  6
CONTINUOUS
 10
2.59
 20
10.112
 11
2.59
 21
10.362
  0
LINE
  5
283
100
AcDbEntity
  8
0
100
AcDbLine
 62
7
  6
CONTINUOUS
 10
8.413397
 20
0.737
 11
8.586603
 21
0.737
  0
LINE
  5
284
100
AcDbEntity
  8
0
100
AcDbLine
 62
7
  6
CONTINUOUS
 10
11.1389508475
 20
1.425992839
 11
11.7453418475
 21
1.495385839
  0
LINE
  5
285
100
AcDbEntity
  8
0
100
AcDbLine
 62
7
  6
CONTINUOUS
 10
0.62
 20
0.887
 11
16.38
 21
0.887
  0
LINE
  5
286
100
AcDbEntity
  8
0
100
AcDbLine
 62
7
  6
CONTINUOUS
 10
12.03
 20
1.137
 11
16.38
 21
1.137
  0
LINE
  5
287
100
AcDbEntity
  8
0
100
AcDbLine
 62
7
  6
CONTINUOUS
 10
10.2121898475
 20
1.243294839
 11
10.4342808475
 21
1.243294839
  0
LINE
  5
288
100
AcDbEntity
  8
0
100
AcDbLine
 62
7
  6
CONTINUOUS
 10
10.4842808475
 20
1.243294839
 11
10.5842808475
 21
1.243294839
  0
LINE
  5
289
100
AcDbEntity
  8
0
100
AcDbLine
 62
7
  6
CONTINUOUS
 10
10.6342808475
 20
1.243294839
 11
10.8563718475
 21
1.243294839
  0
LINE
  5
28A
100
AcDbEntity
  8
0
100
AcDbLine
 62
7
  6
CONTINUOUS
 10
11.0389508475
 20
1.243294839
 11
11.3171028475
 21
1.243294839
  0
LINE
  5
28B
100
AcDbEntity
  8
0
100
AcDbLine
 62
7
  6
CONTINUOUS
 10
11.3671028475
 20
1.243294839
 11
11.5171888475
 21
1.243294839
  0
LINE
  5
28C
100
AcDbEntity
  8
0
100
AcDbLine
 62
7
  6
CONTINUOUS
 10
11.5671888475
 20
1.243294839
 11
11.8453418475
 21
1.243294839
  0
LINE
  5
28D
100
AcDbEntity
  8
0
100
AcDbLine
 62
7
  6
CONTINUOUS
 10
11.7453418475
 20
0.991203839
 11
11.1389508475
 21
1.060596839
  0
LINE
  5
28E
100
AcDbEntity
  8
0
100
AcDbLine
 62
7
  6
CONTINUOUS
 10
4.56
 20
0.887
 11
4.56
 21
0.637
  0
LINE
  5
28F
100
AcDbEntity
  8
0
100
AcDbLine
 62
7
  6
CONTINUOUS
 10
4.56
 20
10.112
 11
4.56
 21
10.362
  0
LINE
  5
290
100
AcDbEntity
  8
0
100
AcDbLine
 62
7
  6
CONTINUOUS
 10
0.47
 20
5.412897
 11
0.62
 21
5.4995
  0
LINE
  5
291
100
AcDbEntity
  8
0
100
AcDbLine
 62
7
  6
CONTINUOUS
 10
12.03
 20
1.507
 11
16.38
 21
1.507
  0
LINE
  5
292
100
AcDbEntity
  8
0
100
AcDbLine
 62
7
  6
CONTINUOUS
 10
10.03
 20
1.907
 11
12.03
 21
1.907
  0
LINE
  5
293
100
AcDbEntity
  8
0
100
AcDbLine
 62
7
  6
CONTINUOUS
 10
0.62
 20
5.4995
 11
0.47
 21
5.586103
  0
LINE
  5
294
100
AcDbEntity
  8
0
100
AcDbLine
 62
7
  6
CONTINUOUS
 10
12.03
 20
2.267
 11
16.38
 21
2.267
  0
LINE
  5
295
100
AcDbEntity
  8
0
100
AcDbLine
 62
7
  6
CONTINUOUS
 10
13.6042588488
 20
2.4912273132
 11
13.5568948225
 21
2.4912273132
  0
LINE
  5
296
100
AcDbEntity
  8
0
100
AcDbLine
 62
7
  6
CONTINUOUS
 10
13.5130037982
 20
2.4912273132
 11
13.3994327352
 21
2.4912273132
  0
LINE
  5
297
100
AcDbEntity
  8
0
100
AcDbLine
 62
7
  6
CONTINUOUS
 10
13.3705287192
 20
2.4912273132
 11
13.1673166065
 21
2.4912273132
  0
LINE
  5
298
100
AcDbEntity
  8
0
100
AcDbLine
 62
7
  6
CONTINUOUS
 10
13.1168435785
 20
2.4912273132
 11
13.0426375373
 21
2.4912273132
  0
LINE
  5
299
100
AcDbEntity
  8
0
100
AcDbLine
 62
7
  6
CONTINUOUS
 10
12.9962575116
 20
2.4912273132
 11
12.9205934696
 21
2.4912273132
  0
LINE
  5
29A
100
AcDbEntity
  8
0
100
AcDbLine
 62
7
  6
CONTINUOUS
 10
12.8685904408
 20
2.4912273132
 11
12.7943853997
 21
2.4912273132
  0
LINE
  5
29B
100
AcDbEntity
  8
0
100
AcDbLine
 62
7
  6
CONTINUOUS
 10
12.7480043739
 20
2.4912273132
 11
12.672340332
 21
2.4912273132
  0
LINE
  5
29C
100
AcDbEntity
  8
0
100
AcDbLine
 62
7
  6
CONTINUOUS
 10
12.2055050731
 20
2.4912273132
 11
12.3819511709
 21
2.4912273132
  0
LINE
  5
29D
100
AcDbEntity
  8
0
100
AcDbLine
 62
7
  6
CONTINUOUS
 10
12.4394882028
 20
2.4912273132
 11
12.5168642458
 21
2.4912273132
  0
LINE
  5
29E
100
AcDbEntity
  8
0
100
AcDbLine
 62
7
  6
CONTINUOUS
 10
12.537150257
 20
2.4912273132
 11
12.6424313154
 21
2.4912273132
  0
LINE
  5
29F
100
AcDbEntity
  8
0
100
AcDbLine
 62
7
  6
CONTINUOUS
 10
13.4883447845
 20
2.5159553269
 11
13.5130037982
 21
2.5159553269
  0
LINE
  5
2A0
100
AcDbEntity
  8
0
100
AcDbLine
 62
7
  6
CONTINUOUS
 10
12.6424313154
 20
2.515977327
 11
12.6224153043
 21
2.515977327
  0
LINE
  5
2A1
100
AcDbEntity
  8
0
100
AcDbLine
 62
7
  6
CONTINUOUS
 10
12.551601265
 20
2.515977327
 11
12.537150257
 21
2.515977327
  0
LINE
  5
2A2
100
AcDbEntity
  8
0
100
AcDbLine
 62
7
  6
CONTINUOUS
 10
12.5168642458
 20
2.515977327
 11
12.5055812395
 21
2.515977327
  0
LINE
  5
2A3
100
AcDbEntity
  8
0
100
AcDbLine
 62
7
  6
CONTINUOUS
 10
12.4623492155
 20
2.515977327
 11
12.4394882028
 21
2.515977327
  0
LINE
  5
2A4
100
AcDbEntity
  8
0
100
AcDbLine
 62
7
  6
CONTINUOUS
 10
12.3362731456
 20
2.515977327
 11
12.2949101227
 21
2.515977327
  0
LINE
  5
2A5
100
AcDbEntity
  8
0
100
AcDbLine
 62
7
  6
CONTINUOUS
 10
12.2294470864
 20
2.515977327
 11
12.2055050731
 21
2.515977327
  0
LINE
  5
2A6
100
AcDbEntity
  8
0
100
AcDbLine
 62
7
  6
CONTINUOUS
 10
12.672340332
 20
2.515977327
 11
12.6909873423
 21
2.515977327
  0
LINE
  5
2A7
100
AcDbEntity
  8
0
100
AcDbLine
 62
7
  6
CONTINUOUS
 10
12.7276873627
 20
2.515977327
 11
12.7480043739
 21
2.515977327
  0
LINE
  5
2A8
100
AcDbEntity
  8
0
100
AcDbLine
 62
7
  6
CONTINUOUS
 10
12.9205934696
 20
2.515977327
 11
12.93923948
 21
2.515977327
  0
LINE
  5
2A9
100
AcDbEntity
  8
0
100
AcDbLine
 62
7
  6
CONTINUOUS
 10
12.9759405003
 20
2.515977327
 11
12.9962575116
 21
2.515977327
  0
LINE
  5
2AA
100
AcDbEntity
  8
0
100
AcDbLine
 62
7
  6
CONTINUOUS
 10
13.1673166065
 20
2.515977327
 11
13.1912396197
 21
2.515977327
  0
LINE
  5
2AB
100
AcDbEntity
  8
0
100
AcDbLine
 62
7
  6
CONTINUOUS
 10
13.2582556569
 20
2.515977327
 11
13.3232596929
 21
2.515977327
  0
LINE
  5
2AC
100
AcDbEntity
  8
0
100
AcDbLine
 62
7
  6
CONTINUOUS
 10
13.3994327352
 20
2.515977327
 11
13.4221787478
 21
2.515977327
  0
LINE
  5
2AD
100
AcDbEntity
  8
0
100
AcDbLine
 62
7
  6
CONTINUOUS
 10
13.6052818493
 20
2.5163643272
 11
13.60639085
 21
2.5163643272
  0
LINE
  5
2AE
100
AcDbEntity
  8
0
100
AcDbLine
 62
7
  6
CONTINUOUS
 10
13.3282096957
 20
2.5291773343
 11
13.3705287192
 21
2.5291773343
  0
LINE
  5
2AF
100
AcDbEntity
  8
0
100
AcDbLine
 62
7
  6
CONTINUOUS
 10
12.5110972426
 20
2.5296213345
 11
12.5459752619
 21
2.5296213345
  0
LINE
  5
2B0
100
AcDbEntity
  8
0
100
AcDbLine
 62
7
  6
CONTINUOUS
 10
13.6171458559
 20
2.5301143348
 11
13.6292558626
 21
2.5301143348
  0
LINE
  5
2B1
100
AcDbEntity
  8
0
100
AcDbLine
 62
7
  6
CONTINUOUS
 10
13.5159517998
 20
2.5306043351
 11
13.4883447845
 21
2.5306043351
  0
LINE
  5
2B2
100
AcDbEntity
  8
0
100
AcDbLine
 62
7
  6
CONTINUOUS
 10
13.2934226764
 20
2.5324773361
 11
13.2582556569
 21
2.5324773361
  0
LINE
  5
2B3
100
AcDbEntity
  8
0
100
AcDbLine
 62
7
  6
CONTINUOUS
 10
12.2949101227
 20
2.5333023366
 11
12.3362731456
 21
2.5333023366
  0
LINE
  5
2B4
100
AcDbEntity
  8
0
100
AcDbLine
 62
7
  6
CONTINUOUS
 10
13.5222818033
 20
2.5496073456
 11
13.4883447845
 21
2.5496073456
  0
LINE
  5
2B5
100
AcDbEntity
  8
0
100
AcDbLine
 62
7
  6
CONTINUOUS
 10
12.2949101227
 20
2.5499573458
 11
12.3362731456
 21
2.5499573458
  0
LINE
  5
2B6
100
AcDbEntity
  8
0
100
AcDbLine
 62
7
  6
CONTINUOUS
 10
12.5196132473
 20
2.5505713461
 11
12.5401702587
 21
2.5505713461
  0
LINE
  5
2B7
100
AcDbEntity
  8
0
100
AcDbLine
 62
7
  6
CONTINUOUS
 10
13.2582556569
 20
2.5507823463
 11
13.2934226764
 21
2.5507823463
  0
LINE
  5
2B8
100
AcDbEntity
  8
0
100
AcDbLine
 62
7
  6
CONTINUOUS
 10
13.3691097184
 20
2.5540823481
 11
13.3272456952
 21
2.5540823481
  0
LINE
  5
2B9
100
AcDbEntity
  8
0
100
AcDbLine
 62
7
  6
CONTINUOUS
 10
12.5329112547
 20
2.5667383551
 11
12.5267302512
 21
2.5667383551
  0
LINE
  5
2BA
100
AcDbEntity
  8
0
100
AcDbLine
 62
7
  6
CONTINUOUS
 10
13.4221787478
 20
2.5672823554
 11
13.3994327352
 21
2.5672823554
  0
LINE
  5
2BB
100
AcDbEntity
  8
0
100
AcDbLine
 62
7
  6
CONTINUOUS
 10
13.3222956924
 20
2.5672823554
 11
13.2582556569
 21
2.5672823554
  0
LINE
  5
2BC
100
AcDbEntity
  8
0
100
AcDbLine
 62
7
  6
CONTINUOUS
 10
13.1912396197
 20
2.5672823554
 11
13.1673166065
 21
2.5672823554
  0
LINE
  5
2BD
100
AcDbEntity
  8
0
100
AcDbLine
 62
7
  6
CONTINUOUS
 10
13.1397265912
 20
2.5672823554
 11
13.1217935812
 21
2.5672823554
  0
LINE
  5
2BE
100
AcDbEntity
  8
0
100
AcDbLine
 62
7
  6
CONTINUOUS
 10
13.0845015605
 20
2.5672823554
 11
13.0657255501
 21
2.5672823554
  0
LINE
  5
2BF
100
AcDbEntity
  8
0
100
AcDbLine
 62
7
  6
CONTINUOUS
 10
12.93923948
 20
2.5672823554
 11
12.9205934696
 21
2.5672823554
  0
LINE
  5
2C0
100
AcDbEntity
  8
0
100
AcDbLine
 62
7
  6
CONTINUOUS
 10
12.8914734535
 20
2.5672823554
 11
12.8735404436
 21
2.5672823554
  0
LINE
  5
2C1
100
AcDbEntity
  8
0
100
AcDbLine
 62
7
  6
CONTINUOUS
 10
12.8362484229
 20
2.5672823554
 11
12.8174724125
 21
2.5672823554
  0
LINE
  5
2C2
100
AcDbEntity
  8
0
100
AcDbLine
 62
7
  6
CONTINUOUS
 10
12.6909873423
 20
2.5672823554
 11
12.672340332
 21
2.5672823554
  0
LINE
  5
2C3
100
AcDbEntity
  8
0
100
AcDbLine
 62
7
  6
CONTINUOUS
 10
12.3362731456
 20
2.5672823554
 11
12.2949101227
 21
2.5672823554
  0
LINE
  5
2C4
100
AcDbEntity
  8
0
100
AcDbLine
 62
7
  6
CONTINUOUS
 10
12.2055050731
 20
2.5672823554
 11
12.2294470864
 21
2.5672823554
  0
LINE
  5
2C5
100
AcDbEntity
  8
0
100
AcDbLine
 62
7
  6
CONTINUOUS
 10
13.4883447845
 20
2.5672823554
 11
13.5251458049
 21
2.5672823554
  0
LINE
  5
2C6
100
AcDbEntity
  8
0
100
AcDbLine
 62
7
  6
CONTINUOUS
 10
12.5705042755
 20
2.5920323691
 11
12.5133292438
 21
2.5920323691
  0
LINE
  5
2C7
100
AcDbEntity
  8
0
100
AcDbLine
 62
7
  6
CONTINUOUS
 10
12.3715681652
 20
2.5920323691
 11
12.2055050731
 21
2.5920323691
  0
LINE
  5
2C8
100
AcDbEntity
  8
0
100
AcDbLine
 62
7
  6
CONTINUOUS
 10
12.672340332
 20
2.5920323691
 11
12.7727983877
 21
2.5920323691
  0
LINE
  5
2C9
100
AcDbEntity
  8
0
100
AcDbLine
 62
7
  6
CONTINUOUS
 10
12.8174724125
 20
2.5920323691
 11
12.8914734535
 21
2.5920323691
  0
LINE
  5
2CA
100
AcDbEntity
  8
0
100
AcDbLine
 62
7
  6
CONTINUOUS
 10
12.9205934696
 20
2.5920323691
 11
13.0210515254
 21
2.5920323691
  0
LINE
  5
2CB
100
AcDbEntity
  8
0
100
AcDbLine
 62
7
  6
CONTINUOUS
 10
13.0657255501
 20
2.5920323691
 11
13.1397265912
 21
2.5920323691
  0
LINE
  5
2CC
100
AcDbEntity
  8
0
100
AcDbLine
 62
7
  6
CONTINUOUS
 10
13.1673166065
 20
2.5920323691
 11
13.3691097184
 21
2.5920323691
  0
LINE
  5
2CD
100
AcDbEntity
  8
0
100
AcDbLine
 62
7
  6
CONTINUOUS
 10
13.3994327352
 20
2.5920323691
 11
13.5490138181
 21
2.5920323691
  0
LINE
  5
2CE
100
AcDbEntity
  8
0
100
AcDbLine
 62
7
  6
CONTINUOUS
 10
12.4008351814
 20
2.5375433389
 11
12.3907841758
 21
2.5410923409
  0
LINE
  5
2CF
100
AcDbEntity
  8
0
100
AcDbLine
 62
7
  6
CONTINUOUS
 10
12.7926763987
 20
2.4919113136
 11
12.7293963636
 21
2.5522893471
  0
LINE
  5
2D0
100
AcDbEntity
  8
0
100
AcDbLine
 62
7
  6
CONTINUOUS
 10
12.7745063886
 20
2.5913483688
 11
12.8345394219
 21
2.534068337
  0
LINE
  5
2D1
100
AcDbEntity
  8
0
100
AcDbLine
 62
7
  6
CONTINUOUS
 10
13.0409295364
 20
2.4919113136
 11
12.9776495013
 21
2.5522893471
  0
LINE
  5
2D2
100
AcDbEntity
  8
0
100
AcDbLine
 62
7
  6
CONTINUOUS
 10
13.0227595263
 20
2.5913483688
 11
13.0827925596
 21
2.534068337
  0
LINE
  5
2D3
100
AcDbEntity
  8
0
100
AcDbLine
 62
7
  6
CONTINUOUS
 10
12.548053263
 20
2.5284903339
 11
12.5536792662
 21
2.5197973291
  0
LINE
  5
2D4
100
AcDbEntity
  8
0
100
AcDbLine
 62
7
  6
CONTINUOUS
 10
12.5422482598
 20
2.5543913483
 11
12.5349892558
 21
2.5656073545
  0
LINE
  5
2D5
100
AcDbEntity
  8
0
100
AcDbLine
 62
7
  6
CONTINUOUS
 10
12.6203383031
 20
2.5171073276
 11
12.5725822767
 21
2.5909023685
  0
LINE
  5
2D6
100
AcDbEntity
  8
0
100
AcDbLine
 62
7
  6
CONTINUOUS
 10
12.2030300717
 20
2.5895573678
 11
12.2030300717
 21
2.5697573568
  0
LINE
  5
2D7
100
AcDbEntity
  8
0
100
AcDbLine
 62
7
  6
CONTINUOUS
 10
12.2030300717
 20
2.5135023256
 11
12.2030300717
 21
2.4937023146
  0
LINE
  5
2D8
100
AcDbEntity
  8
0
100
AcDbLine
 62
7
  6
CONTINUOUS
 10
12.2319220877
 20
2.564807354
 11
12.2319220877
 21
2.5184523283
  0
LINE
  5
2D9
100
AcDbEntity
  8
0
100
AcDbLine
 62
7
  6
CONTINUOUS
 10
12.2924351213
 20
2.564807354
 11
12.2924351213
 21
2.5524323472
  0
LINE
  5
2DA
100
AcDbEntity
  8
0
100
AcDbLine
 62
7
  6
CONTINUOUS
 10
12.2924351213
 20
2.5184523283
 11
12.2924351213
 21
2.5308273352
  0
LINE
  5
2DB
100
AcDbEntity
  8
0
100
AcDbLine
 62
7
  6
CONTINUOUS
 10
12.4370132015
 20
2.5135023256
 11
12.4370132015
 21
2.4937023146
  0
LINE
  5
2DC
100
AcDbEntity
  8
0
100
AcDbLine
 62
7
  6
CONTINUOUS
 10
12.5193392471
 20
2.4937023146
 11
12.5193392471
 21
2.5135023256
  0
LINE
  5
2DD
100
AcDbEntity
  8
0
100
AcDbLine
 62
7
  6
CONTINUOUS
 10
12.5346752556
 20
2.5135023256
 11
12.5346752556
 21
2.4937023146
  0
LINE
  5
2DE
100
AcDbEntity
  8
0
100
AcDbLine
 62
7
  6
CONTINUOUS
 10
12.6449063168
 20
2.4937023146
 11
12.6449063168
 21
2.5135023256
  0
LINE
  5
2DF
100
AcDbEntity
  8
0
100
AcDbLine
 62
7
  6
CONTINUOUS
 10
12.6698653306
 20
2.4937023146
 11
12.6698653306
 21
2.5135023256
  0
LINE
  5
2E0
100
AcDbEntity
  8
0
100
AcDbLine
 62
7
  6
CONTINUOUS
 10
12.6698653306
 20
2.5697573568
 11
12.6698653306
 21
2.5895573678
  0
LINE
  5
2E1
100
AcDbEntity
  8
0
100
AcDbLine
 62
7
  6
CONTINUOUS
 10
12.6934623437
 20
2.5184523283
 11
12.6934623437
 21
2.564807354
  0
LINE
  5
2E2
100
AcDbEntity
  8
0
100
AcDbLine
 62
7
  6
CONTINUOUS
 10
12.7252123613
 20
2.5504983461
 11
12.7252123613
 21
2.5184523283
  0
LINE
  5
2E3
100
AcDbEntity
  8
0
100
AcDbLine
 62
7
  6
CONTINUOUS
 10
13.5375908118
 20
2.5092733232
 11
13.5357868108
 21
2.5153423266
  0
LINE
  5
2E4
100
AcDbEntity
  8
0
100
AcDbLine
 62
7
  6
CONTINUOUS
 10
12.7504793753
 20
2.5135023256
 11
12.7504793753
 21
2.4937023146
  0
LINE
  5
2E5
100
AcDbEntity
  8
0
100
AcDbLine
 62
7
  6
CONTINUOUS
 10
12.8149974111
 20
2.5697573568
 11
12.8149974111
 21
2.5895573678
  0
LINE
  5
2E6
100
AcDbEntity
  8
0
100
AcDbLine
 62
7
  6
CONTINUOUS
 10
12.8387234242
 20
2.535859338
 11
12.8387234242
 21
2.564807354
  0
LINE
  5
2E7
100
AcDbEntity
  8
0
100
AcDbLine
 62
7
  6
CONTINUOUS
 10
12.8710654422
 20
2.564807354
 11
12.8710654422
 21
2.4937023146
  0
LINE
  5
2E8
100
AcDbEntity
  8
0
100
AcDbLine
 62
7
  6
CONTINUOUS
 10
12.8939484549
 20
2.5895573678
 11
12.8939484549
 21
2.5697573568
  0
LINE
  5
2E9
100
AcDbEntity
  8
0
100
AcDbLine
 62
7
  6
CONTINUOUS
 10
12.9181184683
 20
2.4937023146
 11
12.9181184683
 21
2.5135023256
  0
LINE
  5
2EA
100
AcDbEntity
  8
0
100
AcDbLine
 62
7
  6
CONTINUOUS
 10
12.9181184683
 20
2.5697573568
 11
12.9181184683
 21
2.5895573678
  0
LINE
  5
2EB
100
AcDbEntity
  8
0
100
AcDbLine
 62
7
  6
CONTINUOUS
 10
12.9417144814
 20
2.5184523283
 11
12.9417144814
 21
2.564807354
  0
LINE
  5
2EC
100
AcDbEntity
  8
0
100
AcDbLine
 62
7
  6
CONTINUOUS
 10
12.973465499
 20
2.5504983461
 11
12.973465499
 21
2.5184523283
  0
LINE
  5
2ED
100
AcDbEntity
  8
0
100
AcDbLine
 62
7
  6
CONTINUOUS
 10
12.998732513
 20
2.5135023256
 11
12.998732513
 21
2.4937023146
  0
LINE
  5
2EE
100
AcDbEntity
  8
0
100
AcDbLine
 62
7
  6
CONTINUOUS
 10
13.0632505488
 20
2.5697573568
 11
13.0632505488
 21
2.5895573678
  0
LINE
  5
2EF
100
AcDbEntity
  8
0
100
AcDbLine
 62
7
  6
CONTINUOUS
 10
13.0869765619
 20
2.535859338
 11
13.0869765619
 21
2.564807354
  0
LINE
  5
2F0
100
AcDbEntity
  8
0
100
AcDbLine
 62
7
  6
CONTINUOUS
 10
13.1193185799
 20
2.564807354
 11
13.1193185799
 21
2.4937023146
  0
LINE
  5
2F1
100
AcDbEntity
  8
0
100
AcDbLine
 62
7
  6
CONTINUOUS
 10
13.1422015925
 20
2.5895573678
 11
13.1422015925
 21
2.5697573568
  0
LINE
  5
2F2
100
AcDbEntity
  8
0
100
AcDbLine
 62
7
  6
CONTINUOUS
 10
13.1648416051
 20
2.4937023146
 11
13.1648416051
 21
2.5135023256
  0
LINE
  5
2F3
100
AcDbEntity
  8
0
100
AcDbLine
 62
7
  6
CONTINUOUS
 10
13.1648416051
 20
2.5697573568
 11
13.1648416051
 21
2.5895573678
  0
LINE
  5
2F4
100
AcDbEntity
  8
0
100
AcDbLine
 62
7
  6
CONTINUOUS
 10
13.1937146211
 20
2.5184523283
 11
13.1937146211
 21
2.564807354
  0
LINE
  5
2F5
100
AcDbEntity
  8
0
100
AcDbLine
 62
7
  6
CONTINUOUS
 10
13.2557806555
 20
2.564807354
 11
13.2557806555
 21
2.5532573476
  0
LINE
  5
2F6
100
AcDbEntity
  8
0
100
AcDbLine
 62
7
  6
CONTINUOUS
 10
13.2557806555
 20
2.5300023347
 11
13.2557806555
 21
2.5184523283
  0
LINE
  5
2F7
100
AcDbEntity
  8
0
100
AcDbLine
 62
7
  6
CONTINUOUS
 10
13.2958976778
 20
2.5483073449
 11
13.2958976778
 21
2.5349523375
  0
LINE
  5
2F8
100
AcDbEntity
  8
0
100
AcDbLine
 62
7
  6
CONTINUOUS
 10
12.3907841758
 20
2.5410923409
 11
12.3990241804
 21
2.5458683435
  0
LINE
  5
2F9
100
AcDbEntity
  8
0
100
AcDbLine
 62
7
  6
CONTINUOUS
 10
13.3247706938
 20
2.5565573495
 11
13.3247706938
 21
2.564807354
  0
LINE
  5
2FA
100
AcDbEntity
  8
0
100
AcDbLine
 62
7
  6
CONTINUOUS
 10
13.3257346943
 20
2.5184523283
 11
13.3257346943
 21
2.5267023329
  0
LINE
  5
2FB
100
AcDbEntity
  8
0
100
AcDbLine
 62
7
  6
CONTINUOUS
 10
13.3715847197
 20
2.5895573678
 11
13.3715847197
 21
2.5565573495
  0
LINE
  5
2FC
100
AcDbEntity
  8
0
100
AcDbLine
 62
7
  6
CONTINUOUS
 10
13.3730037205
 20
2.5267023329
 11
13.3730037205
 21
2.4937023146
  0
LINE
  5
2FD
100
AcDbEntity
  8
0
100
AcDbLine
 62
7
  6
CONTINUOUS
 10
13.3969577338
 20
2.4937023146
 11
13.3969577338
 21
2.5135023256
  0
LINE
  5
2FE
100
AcDbEntity
  8
0
100
AcDbLine
 62
7
  6
CONTINUOUS
 10
13.3969577338
 20
2.5697573568
 11
13.3969577338
 21
2.5895573678
  0
LINE
  5
2FF
100
AcDbEntity
  8
0
100
AcDbLine
 62
7
  6
CONTINUOUS
 10
13.4246537492
 20
2.5184523283
 11
13.4246537492
 21
2.564807354
  0
LINE
  5
300
100
AcDbEntity
  8
0
100
AcDbLine
 62
7
  6
CONTINUOUS
 10
13.4858697831
 20
2.5281293337
 11
13.4858697831
 21
2.5184303283
  0
LINE
  5
301
100
AcDbEntity
  8
0
100
AcDbLine
 62
7
  6
CONTINUOUS
 10
13.4858697831
 20
2.552082347
 11
13.4858697831
 21
2.564807354
  0
LINE
  5
302
100
AcDbEntity
  8
0
100
AcDbLine
 62
7
  6
CONTINUOUS
 10
13.5154787995
 20
2.5134803256
 11
13.5154787995
 21
2.4937023146
  0
LINE
  5
303
100
AcDbEntity
  8
0
100
AcDbLine
 62
7
  6
CONTINUOUS
 10
13.6146708546
 20
2.525013332
 11
13.6146708546
 21
2.5276393334
  0
LINE
  5
304
100
AcDbEntity
  8
0
100
AcDbLine
 62
7
  6
CONTINUOUS
 10
13.631730864
 20
2.5276393334
 11
13.631730864
 21
2.516087327
  0
LINE
  5
305
100
AcDbEntity
  8
0
100
AcDbLine
 62
7
  6
CONTINUOUS
 10
13.7286871589
 20
2.5350697372
 11
13.7286871589
 21
2.5456869438
  0
LINE
  5
306
100
AcDbEntity
  8
0
100
AcDbLine
 62
7
  6
CONTINUOUS
 10
12.5112392426
 20
2.5908833685
 11
12.4644392167
 21
2.5171263276
  0
LINE
  5
307
100
AcDbEntity
  8
0
100
AcDbLine
 62
7
  6
CONTINUOUS
 10
12.5246402501
 20
2.5655893545
 11
12.5175232461
 21
2.5543723483
  0
LINE
  5
308
100
AcDbEntity
  8
0
100
AcDbLine
 62
7
  6
CONTINUOUS
 10
12.5034912383
 20
2.5197783291
 11
12.5090072414
 21
2.5284723339
  0
ARC
  5
309
100
AcDbEntity
  8
0
100
AcDbCircle
 62
7
  6
CONTINUOUS
 10
12.7943847649
 20
2.4937027294
 40
0.0024754162
100
AcDbArc
 50
226.3593695813
 51
270.0146919953
  0
ARC
  5
30A
100
AcDbEntity
  8
0
100
AcDbCircle
 62
7
  6
CONTINUOUS
 10
12.2055050712
 20
2.4937023128
 40
0.0024749995
100
AcDbArc
 50
179.9999571957
 51
270.0000428043
  0
ARC
  5
30B
100
AcDbEntity
  8
0
100
AcDbCircle
 62
7
  6
CONTINUOUS
 10
12.8685904427
 20
2.4937023128
 40
0.0024749995
100
AcDbArc
 50
269.9999571957
 51
0.0000428043
  0
ARC
  5
30C
100
AcDbEntity
  8
0
100
AcDbCircle
 62
7
  6
CONTINUOUS
 10
12.7480043758
 20
2.4937023128
 40
0.0024749995
100
AcDbArc
 50
269.9999571957
 51
0.0000428043
  0
ARC
  5
30D
100
AcDbEntity
  8
0
100
AcDbCircle
 62
7
  6
CONTINUOUS
 10
12.6723403301
 20
2.4937023128
 40
0.0024749995
100
AcDbArc
 50
179.9999571957
 51
270.0000428043
  0
ARC
  5
30E
100
AcDbEntity
  8
0
100
AcDbCircle
 62
7
  6
CONTINUOUS
 10
12.5371502552
 20
2.4937023128
 40
0.0024749995
100
AcDbArc
 50
179.9999571957
 51
270.0000428043
  0
ARC
  5
30F
100
AcDbEntity
  8
0
100
AcDbCircle
 62
7
  6
CONTINUOUS
 10
12.6424313172
 20
2.4937023128
 40
0.0024749995
100
AcDbArc
 50
269.9999571957
 51
0.0000428043
  0
ARC
  5
310
100
AcDbEntity
  8
0
100
AcDbCircle
 62
7
  6
CONTINUOUS
 10
12.439488201
 20
2.4937023128
 40
0.0024749995
100
AcDbArc
 50
179.9999571957
 51
270.0000428043
  0
ARC
  5
311
100
AcDbEntity
  8
0
100
AcDbCircle
 62
7
  6
CONTINUOUS
 10
12.5168642476
 20
2.4937023128
 40
0.0024749995
100
AcDbArc
 50
269.9999571957
 51
0.0000428043
  0
ARC
  5
312
100
AcDbEntity
  8
0
100
AcDbCircle
 62
7
  6
CONTINUOUS
 10
12.371573659
 20
2.5302846524
 40
0.061747717
100
AcDbArc
 50
59.5385584989
 51
90.0050977555
  0
ARC
  5
313
100
AcDbEntity
  8
0
100
AcDbCircle
 62
7
  6
CONTINUOUS
 10
12.3792298263
 20
2.539634765
 40
0.048483885
100
AcDbArc
 50
273.21763719
 51
303.0749121182
  0
ARC
  5
314
100
AcDbEntity
  8
0
100
AcDbCircle
 62
7
  6
CONTINUOUS
 10
12.3931760319
 20
2.5166878286
 40
0.0222174455
100
AcDbArc
 50
4.0793399388
 51
69.834329283
  0
ARC
  5
315
100
AcDbEntity
  8
0
100
AcDbCircle
 62
7
  6
CONTINUOUS
 10
12.3940692204
 20
2.5168671561
 40
0.0213072145
100
AcDbArc
 50
303.0488228549
 51
355.7263138674
  0
ARC
  5
316
100
AcDbEntity
  8
0
100
AcDbCircle
 62
7
  6
CONTINUOUS
 10
12.400005721
 20
2.5168763464
 40
0.0153945295
100
AcDbArc
 50
354.0454548824
 51
5.1878013979
  0
ARC
  5
317
100
AcDbEntity
  8
0
100
AcDbCircle
 62
7
  6
CONTINUOUS
 10
12.3362731456
 20
2.5246398318
 40
0.0086625048
100
AcDbArc
 50
270.0
 51
90.0
  0
ARC
  5
318
100
AcDbEntity
  8
0
100
AcDbCircle
 62
7
  6
CONTINUOUS
 10
12.5459747223
 20
2.5271458744
 40
0.0024754602
100
AcDbArc
 50
32.8959418573
 51
89.9875097202
  0
ARC
  5
319
100
AcDbEntity
  8
0
100
AcDbCircle
 62
7
  6
CONTINUOUS
 10
12.4623492858
 20
2.5184525273
 40
0.0024752003
100
AcDbArc
 50
269.9983726451
 51
327.602165307
  0
ARC
  5
31A
100
AcDbEntity
  8
0
100
AcDbCircle
 62
7
  6
CONTINUOUS
 10
12.5110971723
 20
2.5271461342
 40
0.0024752003
100
AcDbArc
 50
89.998372645
 51
147.602165307
  0
ARC
  5
31B
100
AcDbEntity
  8
0
100
AcDbCircle
 62
7
  6
CONTINUOUS
 10
12.5055811302
 20
2.518452367
 40
0.0024750401
100
AcDbArc
 50
147.6063258011
 51
270.0025305754
  0
ARC
  5
31C
100
AcDbEntity
  8
0
100
AcDbCircle
 62
7
  6
CONTINUOUS
 10
12.2294470882
 20
2.5184523265
 40
0.0024749995
100
AcDbArc
 50
269.9999571957
 51
0.0000428043
  0
ARC
  5
31D
100
AcDbEntity
  8
0
100
AcDbCircle
 62
7
  6
CONTINUOUS
 10
12.2055050712
 20
2.5135023274
 40
0.0024749995
100
AcDbArc
 50
89.9999571957
 51
180.0000428043
  0
ARC
  5
31E
100
AcDbEntity
  8
0
100
AcDbCircle
 62
7
  6
CONTINUOUS
 10
12.2949101208
 20
2.530827337
 40
0.0024749995
100
AcDbArc
 50
89.9999571957
 51
180.0000428043
  0
ARC
  5
31F
100
AcDbEntity
  8
0
100
AcDbCircle
 62
7
  6
CONTINUOUS
 10
12.2949101208
 20
2.5184523265
 40
0.0024749995
100
AcDbArc
 50
179.9999571957
 51
270.0000428043
  0
ARC
  5
320
100
AcDbEntity
  8
0
100
AcDbCircle
 62
7
  6
CONTINUOUS
 10
12.5371502552
 20
2.5135023274
 40
0.0024749995
100
AcDbArc
 50
89.9999571957
 51
180.0000428043
  0
ARC
  5
321
100
AcDbEntity
  8
0
100
AcDbCircle
 62
7
  6
CONTINUOUS
 10
12.439488201
 20
2.5135023274
 40
0.0024749995
100
AcDbArc
 50
89.9999571957
 51
180.0000428043
  0
ARC
  5
322
100
AcDbEntity
  8
0
100
AcDbCircle
 62
7
  6
CONTINUOUS
 10
12.5168642476
 20
2.5135023274
 40
0.0024749995
100
AcDbArc
 50
359.9999571957
 51
90.0000428043
  0
ARC
  5
323
100
AcDbEntity
  8
0
100
AcDbCircle
 62
7
  6
CONTINUOUS
 10
12.3771587979
 20
2.5826952352
 40
0.0428289026
100
AcDbArc
 50
300.6990502959
 51
319.0591802498
  0
ARC
  5
324
100
AcDbEntity
  8
0
100
AcDbCircle
 62
7
  6
CONTINUOUS
 10
12.3922357827
 20
2.5632132173
 40
0.0229166529
100
AcDbArc
 50
20.6563876465
 51
62.3316896973
  0
ARC
  5
325
100
AcDbEntity
  8
0
100
AcDbCircle
 62
7
  6
CONTINUOUS
 10
12.3971873948
 20
2.5665668817
 40
0.0171568255
100
AcDbArc
 50
315.9145124245
 51
16.0049121282
  0
ARC
  5
326
100
AcDbEntity
  8
0
100
AcDbCircle
 62
7
  6
CONTINUOUS
 10
12.3362731456
 20
2.5586198506
 40
0.0086625048
100
AcDbArc
 50
270.0
 51
90.0
  0
ARC
  5
327
100
AcDbEntity
  8
0
100
AcDbCircle
 62
7
  6
CONTINUOUS
 10
12.532910715
 20
2.564262895
 40
0.0024754602
100
AcDbArc
 50
32.8959418573
 51
89.9875097202
  0
ARC
  5
328
100
AcDbEntity
  8
0
100
AcDbCircle
 62
7
  6
CONTINUOUS
 10
12.5401702375
 20
2.5530465533
 40
0.0024752071
100
AcDbArc
 50
270.0004896793
 51
32.9089806818
  0
ARC
  5
329
100
AcDbEntity
  8
0
100
AcDbCircle
 62
7
  6
CONTINUOUS
 10
12.5267301809
 20
2.5642631548
 40
0.0024752003
100
AcDbArc
 50
89.998372645
 51
147.602165307
  0
ARC
  5
32A
100
AcDbEntity
  8
0
100
AcDbCircle
 62
7
  6
CONTINUOUS
 10
12.5133291735
 20
2.5895571688
 40
0.0024752003
100
AcDbArc
 50
89.9983726451
 51
147.602165307
  0
ARC
  5
32B
100
AcDbEntity
  8
0
100
AcDbCircle
 62
7
  6
CONTINUOUS
 10
12.519613138
 20
2.5530463862
 40
0.0024750401
100
AcDbArc
 50
147.6063258012
 51
270.0025305754
  0
ARC
  5
32C
100
AcDbEntity
  8
0
100
AcDbCircle
 62
7
  6
CONTINUOUS
 10
12.2055050712
 20
2.5895573696
 40
0.0024749995
100
AcDbArc
 50
89.9999571957
 51
180.0000428043
  0
ARC
  5
32D
100
AcDbEntity
  8
0
100
AcDbCircle
 62
7
  6
CONTINUOUS
 10
12.2055050712
 20
2.5697573549
 40
0.0024749995
100
AcDbArc
 50
179.9999571957
 51
270.0000428043
  0
ARC
  5
32E
100
AcDbEntity
  8
0
100
AcDbCircle
 62
7
  6
CONTINUOUS
 10
12.2294470882
 20
2.5648073559
 40
0.0024749995
100
AcDbArc
 50
359.9999571957
 51
90.0000428043
  0
ARC
  5
32F
100
AcDbEntity
  8
0
100
AcDbCircle
 62
7
  6
CONTINUOUS
 10
12.2949101208
 20
2.5648073559
 40
0.0024749995
100
AcDbArc
 50
89.9999571957
 51
180.0000428043
  0
ARC
  5
330
100
AcDbEntity
  8
0
100
AcDbCircle
 62
7
  6
CONTINUOUS
 10
12.2949101208
 20
2.5524323453
 40
0.0024749995
100
AcDbArc
 50
179.9999571957
 51
270.0000428043
  0
ARC
  5
331
100
AcDbEntity
  8
0
100
AcDbCircle
 62
7
  6
CONTINUOUS
 10
12.8362481229
 20
2.5358592748
 40
0.0024753014
100
AcDbArc
 50
226.3461263059
 51
0.0014637321
  0
ARC
  5
332
100
AcDbEntity
  8
0
100
AcDbCircle
 62
7
  6
CONTINUOUS
 10
12.7276876627
 20
2.5504984093
 40
0.0024753014
100
AcDbArc
 50
46.3461263059
 51
180.0014637321
  0
ARC
  5
333
100
AcDbEntity
  8
0
100
AcDbCircle
 62
7
  6
CONTINUOUS
 10
12.5516012439
 20
2.5184525341
 40
0.0024752071
100
AcDbArc
 50
270.0004896794
 51
32.9089806818
  0
ARC
  5
334
100
AcDbEntity
  8
0
100
AcDbCircle
 62
7
  6
CONTINUOUS
 10
12.7276873608
 20
2.5184523265
 40
0.0024749995
100
AcDbArc
 50
179.9999571957
 51
270.0000428043
  0
ARC
  5
335
100
AcDbEntity
  8
0
100
AcDbCircle
 62
7
  6
CONTINUOUS
 10
12.7480043758
 20
2.5135023274
 40
0.0024749995
100
AcDbArc
 50
359.9999571957
 51
90.0000428043
  0
ARC
  5
336
100
AcDbEntity
  8
0
100
AcDbCircle
 62
7
  6
CONTINUOUS
 10
12.6723403301
 20
2.5135023274
 40
0.0024749995
100
AcDbArc
 50
89.9999571957
 51
180.0000428043
  0
ARC
  5
337
100
AcDbEntity
  8
0
100
AcDbCircle
 62
7
  6
CONTINUOUS
 10
12.6909873442
 20
2.5184523265
 40
0.0024749995
100
AcDbArc
 50
269.9999571957
 51
0.0000428043
  0
ARC
  5
338
100
AcDbEntity
  8
0
100
AcDbCircle
 62
7
  6
CONTINUOUS
 10
12.6424313172
 20
2.5135023274
 40
0.0024749995
100
AcDbArc
 50
359.9999571957
 51
90.0000428043
  0
ARC
  5
339
100
AcDbEntity
  8
0
100
AcDbCircle
 62
7
  6
CONTINUOUS
 10
12.6224154248
 20
2.518451368
 40
0.002474041
100
AcDbArc
 50
212.9056413127
 51
269.9972091756
  0
ARC
  5
33A
100
AcDbEntity
  8
0
100
AcDbCircle
 62
7
  6
CONTINUOUS
 10
12.8362484247
 20
2.5648073559
 40
0.0024749995
100
AcDbArc
 50
359.9999571957
 51
90.0000428043
  0
ARC
  5
33B
100
AcDbEntity
  8
0
100
AcDbCircle
 62
7
  6
CONTINUOUS
 10
12.8174724106
 20
2.5697573549
 40
0.0024749995
100
AcDbArc
 50
179.9999571957
 51
270.0000428043
  0
ARC
  5
33C
100
AcDbEntity
  8
0
100
AcDbCircle
 62
7
  6
CONTINUOUS
 10
12.8174724106
 20
2.5895573696
 40
0.0024749995
100
AcDbArc
 50
89.9999571957
 51
180.0000428043
  0
ARC
  5
33D
100
AcDbEntity
  8
0
100
AcDbCircle
 62
7
  6
CONTINUOUS
 10
12.8914734553
 20
2.5895573696
 40
0.0024749995
100
AcDbArc
 50
359.9999571957
 51
90.0000428043
  0
ARC
  5
33E
100
AcDbEntity
  8
0
100
AcDbCircle
 62
7
  6
CONTINUOUS
 10
12.8914734553
 20
2.5697573549
 40
0.0024749995
100
AcDbArc
 50
269.9999571957
 51
0.0000428043
  0
ARC
  5
33F
100
AcDbEntity
  8
0
100
AcDbCircle
 62
7
  6
CONTINUOUS
 10
12.8735404417
 20
2.5648073559
 40
0.0024749995
100
AcDbArc
 50
89.9999571957
 51
180.0000428043
  0
ARC
  5
340
100
AcDbEntity
  8
0
100
AcDbCircle
 62
7
  6
CONTINUOUS
 10
12.6909873442
 20
2.5648073559
 40
0.0024749995
100
AcDbArc
 50
359.9999571957
 51
90.0000428043
  0
ARC
  5
341
100
AcDbEntity
  8
0
100
AcDbCircle
 62
7
  6
CONTINUOUS
 10
12.6723403301
 20
2.5697573549
 40
0.0024749995
100
AcDbArc
 50
179.9999571957
 51
270.0000428043
  0
ARC
  5
342
100
AcDbEntity
  8
0
100
AcDbCircle
 62
7
  6
CONTINUOUS
 10
12.6723403301
 20
2.5895573696
 40
0.0024749995
100
AcDbArc
 50
89.9999571957
 51
180.0000428043
  0
ARC
  5
343
100
AcDbEntity
  8
0
100
AcDbCircle
 62
7
  6
CONTINUOUS
 10
12.570504655
 20
2.589557409
 40
0.0024749602
100
AcDbArc
 50
32.9172174468
 51
90.0087853097
  0
ARC
  5
344
100
AcDbEntity
  8
0
100
AcDbCircle
 62
7
  6
CONTINUOUS
 10
12.7727985224
 20
2.5895582013
 40
0.0024741678
100
AcDbArc
 50
46.3477981899
 51
90.0031206038
  0
ARC
  5
345
100
AcDbEntity
  8
0
100
AcDbCircle
 62
7
  6
CONTINUOUS
 10
13.5463505148
 20
2.4094934586
 40
0.1825583387
100
AcDbArc
 50
79.8618509324
 51
89.1640948679
  0
ARC
  5
346
100
AcDbEntity
  8
0
100
AcDbCircle
 62
7
  6
CONTINUOUS
 10
13.5282557878
 20
2.4386010294
 40
0.117346916
100
AcDbArc
 50
58.614769177
 51
62.3737227606
  0
ARC
  5
347
100
AcDbEntity
  8
0
100
AcDbCircle
 62
7
  6
CONTINUOUS
 10
13.5571178432
 20
2.509473798
 40
0.0459185159
100
AcDbArc
 50
15.6740290068
 51
20.9917271228
  0
ARC
  5
348
100
AcDbEntity
  8
0
100
AcDbCircle
 62
7
  6
CONTINUOUS
 10
13.4974076135
 20
2.5055452462
 40
0.0396099176
100
AcDbArc
 50
14.3201081283
 51
22.4984722084
  0
ARC
  5
349
100
AcDbEntity
  8
0
100
AcDbCircle
 62
7
  6
CONTINUOUS
 10
13.5161192671
 20
2.5062372524
 40
0.0243676582
100
AcDbArc
 50
63.3666028271
 51
90.3937697637
  0
ARC
  5
34A
100
AcDbEntity
  8
0
100
AcDbCircle
 62
7
  6
CONTINUOUS
 10
13.6036139387
 20
2.5111006186
 40
0.0198837666
100
AcDbArc
 50
271.8586572978
 51
289.4131338543
  0
ARC
  5
34B
100
AcDbEntity
  8
0
100
AcDbCircle
 62
7
  6
CONTINUOUS
 10
13.5577001432
 20
2.5085494649
 40
0.0173408616
100
AcDbArc
 50
232.4713476722
 51
267.338189944
  0
ARC
  5
34C
100
AcDbEntity
  8
0
100
AcDbCircle
 62
7
  6
CONTINUOUS
 10
13.5130038
 20
2.4937023128
 40
0.0024749995
100
AcDbArc
 50
269.9999571957
 51
0.0000428043
  0
ARC
  5
34D
100
AcDbEntity
  8
0
100
AcDbCircle
 62
7
  6
CONTINUOUS
 10
13.3994327333
 20
2.4937023128
 40
0.0024749995
100
AcDbArc
 50
179.9999571957
 51
270.0000428043
  0
ARC
  5
34E
100
AcDbEntity
  8
0
100
AcDbCircle
 62
7
  6
CONTINUOUS
 10
13.1168435803
 20
2.4937023128
 40
0.0024749995
100
AcDbArc
 50
269.9999571957
 51
0.0000428043
  0
ARC
  5
34F
100
AcDbEntity
  8
0
100
AcDbCircle
 62
7
  6
CONTINUOUS
 10
12.9962575135
 20
2.4937023128
 40
0.0024749995
100
AcDbArc
 50
269.9999571957
 51
0.0000428043
  0
ARC
  5
350
100
AcDbEntity
  8
0
100
AcDbCircle
 62
7
  6
CONTINUOUS
 10
12.9205934678
 20
2.4937023128
 40
0.0024749995
100
AcDbArc
 50
179.9999571957
 51
270.0000428043
  0
ARC
  5
351
100
AcDbEntity
  8
0
100
AcDbCircle
 62
7
  6
CONTINUOUS
 10
13.370528721
 20
2.4937023128
 40
0.0024749995
100
AcDbArc
 50
269.9999571957
 51
0.0000428043
  0
ARC
  5
352
100
AcDbEntity
  8
0
100
AcDbCircle
 62
7
  6
CONTINUOUS
 10
13.1673166046
 20
2.4937023128
 40
0.0024749995
100
AcDbArc
 50
179.9999571957
 51
270.0000428043
  0
ARC
  5
353
100
AcDbEntity
  8
0
100
AcDbCircle
 62
7
  6
CONTINUOUS
 10
13.0426374026
 20
2.493701481
 40
0.0024741678
100
AcDbArc
 50
226.3477981898
 51
270.0031206038
  0
ARC
  5
354
100
AcDbEntity
  8
0
100
AcDbCircle
 62
7
  6
CONTINUOUS
 10
13.0845012605
 20
2.5358592748
 40
0.0024753014
100
AcDbArc
 50
226.3461263059
 51
0.0014637321
  0
ARC
  5
355
100
AcDbEntity
  8
0
100
AcDbCircle
 62
7
  6
CONTINUOUS
 10
12.9759408003
 20
2.5504984093
 40
0.0024753014
100
AcDbArc
 50
46.3461263059
 51
180.0014637321
  0
ARC
  5
356
100
AcDbEntity
  8
0
100
AcDbCircle
 62
7
  6
CONTINUOUS
 10
12.9759404985
 20
2.5184523265
 40
0.0024749995
100
AcDbArc
 50
179.9999571957
 51
270.0000428043
  0
ARC
  5
357
100
AcDbEntity
  8
0
100
AcDbCircle
 62
7
  6
CONTINUOUS
 10
12.9962575135
 20
2.5135023274
 40
0.0024749995
100
AcDbArc
 50
359.9999571957
 51
90.0000428043
  0
ARC
  5
358
100
AcDbEntity
  8
0
100
AcDbCircle
 62
7
  6
CONTINUOUS
 10
12.9205934678
 20
2.5135023274
 40
0.0024749995
100
AcDbArc
 50
89.9999571957
 51
180.0000428042
  0
ARC
  5
359
100
AcDbEntity
  8
0
100
AcDbCircle
 62
7
  6
CONTINUOUS
 10
12.9392394818
 20
2.5184523265
 40
0.0024749995
100
AcDbArc
 50
269.9999571957
 51
0.0000428043
  0
ARC
  5
35A
100
AcDbEntity
  8
0
100
AcDbCircle
 62
7
  6
CONTINUOUS
 10
13.2582556551
 20
2.5300023366
 40
0.0024749995
100
AcDbArc
 50
89.9999571957
 51
180.0000428043
  0
ARC
  5
35B
100
AcDbEntity
  8
0
100
AcDbCircle
 62
7
  6
CONTINUOUS
 10
13.2582556551
 20
2.5184523265
 40
0.0024749995
100
AcDbArc
 50
179.9999571957
 51
270.0000428043
  0
ARC
  5
35C
100
AcDbEntity
  8
0
100
AcDbCircle
 62
7
  6
CONTINUOUS
 10
13.1673166046
 20
2.5135023274
 40
0.0024749995
100
AcDbArc
 50
89.9999571957
 51
180.0000428043
  0
ARC
  5
35D
100
AcDbEntity
  8
0
100
AcDbCircle
 62
7
  6
CONTINUOUS
 10
13.1912396216
 20
2.5184523265
 40
0.0024749995
100
AcDbArc
 50
269.9999571957
 51
0.0000428042
  0
ARC
  5
35E
100
AcDbEntity
  8
0
100
AcDbCircle
 62
7
  6
CONTINUOUS
 10
13.2582556551
 20
2.5532573458
 40
0.0024749995
100
AcDbArc
 50
179.9999571957
 51
270.0000428043
  0
ARC
  5
35F
100
AcDbEntity
  8
0
100
AcDbCircle
 62
7
  6
CONTINUOUS
 10
13.0845015624
 20
2.5648073559
 40
0.0024749995
100
AcDbArc
 50
359.9999571957
 51
90.0000428043
  0
ARC
  5
360
100
AcDbEntity
  8
0
100
AcDbCircle
 62
7
  6
CONTINUOUS
 10
13.0657255483
 20
2.5697573549
 40
0.0024749995
100
AcDbArc
 50
179.9999571957
 51
270.0000428043
  0
ARC
  5
361
100
AcDbEntity
  8
0
100
AcDbCircle
 62
7
  6
CONTINUOUS
 10
13.0657255483
 20
2.5895573696
 40
0.0024749995
100
AcDbArc
 50
89.9999571957
 51
180.0000428043
  0
ARC
  5
362
100
AcDbEntity
  8
0
100
AcDbCircle
 62
7
  6
CONTINUOUS
 10
13.139726593
 20
2.5895573696
 40
0.0024749995
100
AcDbArc
 50
359.9999571957
 51
90.0000428043
  0
ARC
  5
363
100
AcDbEntity
  8
0
100
AcDbCircle
 62
7
  6
CONTINUOUS
 10
13.139726593
 20
2.5697573549
 40
0.0024749995
100
AcDbArc
 50
269.9999571957
 51
0.0000428042
  0
ARC
  5
364
100
AcDbEntity
  8
0
100
AcDbCircle
 62
7
  6
CONTINUOUS
 10
13.1217935794
 20
2.5648073559
 40
0.0024749995
100
AcDbArc
 50
89.9999571957
 51
180.0000428042
  0
ARC
  5
365
100
AcDbEntity
  8
0
100
AcDbCircle
 62
7
  6
CONTINUOUS
 10
12.9392394818
 20
2.5648073559
 40
0.0024749995
100
AcDbArc
 50
359.9999571957
 51
90.0000428043
  0
ARC
  5
366
100
AcDbEntity
  8
0
100
AcDbCircle
 62
7
  6
CONTINUOUS
 10
12.9205934678
 20
2.5697573549
 40
0.0024749995
100
AcDbArc
 50
179.9999571957
 51
270.0000428043
  0
ARC
  5
367
100
AcDbEntity
  8
0
100
AcDbCircle
 62
7
  6
CONTINUOUS
 10
12.9205934678
 20
2.5895573696
 40
0.0024749995
100
AcDbArc
 50
89.9999571957
 51
180.0000428042
  0
ARC
  5
368
100
AcDbEntity
  8
0
100
AcDbCircle
 62
7
  6
CONTINUOUS
 10
13.1912396216
 20
2.5648073559
 40
0.0024749995
100
AcDbArc
 50
359.9999571957
 51
90.0000428043
  0
ARC
  5
369
100
AcDbEntity
  8
0
100
AcDbCircle
 62
7
  6
CONTINUOUS
 10
13.1673166046
 20
2.5697573549
 40
0.0024749995
100
AcDbArc
 50
179.9999571957
 51
270.0000428043
  0
ARC
  5
36A
100
AcDbEntity
  8
0
100
AcDbCircle
 62
7
  6
CONTINUOUS
 10
13.1673166046
 20
2.5895573696
 40
0.0024749995
100
AcDbArc
 50
89.9999571957
 51
180.0000428043
  0
ARC
  5
36B
100
AcDbEntity
  8
0
100
AcDbCircle
 62
7
  6
CONTINUOUS
 10
13.2582556551
 20
2.5648073559
 40
0.0024749995
100
AcDbArc
 50
89.9999571957
 51
180.0000428043
  0
ARC
  5
36C
100
AcDbEntity
  8
0
100
AcDbCircle
 62
7
  6
CONTINUOUS
 10
13.0210516601
 20
2.5895582013
 40
0.0024741678
100
AcDbArc
 50
46.3477981899
 51
90.0031206038
  0
ARC
  5
36D
100
AcDbEntity
  8
0
100
AcDbCircle
 62
7
  6
CONTINUOUS
 10
13.5806801742
 20
2.5212486481
 40
0.044722495
100
AcDbArc
 50
195.531588407
 51
204.7624440448
  0
ARC
  5
36E
100
AcDbEntity
  8
0
100
AcDbCircle
 62
7
  6
CONTINUOUS
 10
13.5726548052
 20
2.5503169747
 40
0.039319019
100
AcDbArc
 50
59.1202086415
 51
81.4730239328
  0
ARC
  5
36F
100
AcDbEntity
  8
0
100
AcDbCircle
 62
7
  6
CONTINUOUS
 10
13.5978759713
 20
2.5286873679
 40
0.0383802683
100
AcDbArc
 50
288.7656836787
 51
309.6104317088
  0
ARC
  5
370
100
AcDbEntity
  8
0
100
AcDbCircle
 62
7
  6
CONTINUOUS
 10
13.5783142014
 20
2.5566516438
 40
0.0310192946
100
AcDbArc
 50
34.7540871
 51
62.0879016178
  0
ARC
  5
371
100
AcDbEntity
  8
0
100
AcDbCircle
 62
7
  6
CONTINUOUS
 10
13.5236009174
 20
2.5388278764
 40
0.0284963867
100
AcDbArc
 50
70.3834917948
 51
86.8922743861
  0
ARC
  5
372
100
AcDbEntity
  8
0
100
AcDbCircle
 62
7
  6
CONTINUOUS
 10
13.6048681567
 20
2.5210861501
 40
0.0280715479
100
AcDbArc
 50
308.5071794988
 51
332.24006569
  0
ARC
  5
373
100
AcDbEntity
  8
0
100
AcDbCircle
 62
7
  6
CONTINUOUS
 10
13.5750183849
 20
2.5166552064
 40
0.0266349791
100
AcDbArc
 50
20.3630922153
 51
37.9727053099
  0
ARC
  5
374
100
AcDbEntity
  8
0
100
AcDbCircle
 62
7
  6
CONTINUOUS
 10
13.5761387404
 20
2.5167282896
 40
0.0257145923
100
AcDbArc
 50
39.3804255939
 51
59.0361096173
  0
ARC
  5
375
100
AcDbEntity
  8
0
100
AcDbCircle
 62
7
  6
CONTINUOUS
 10
13.5607987082
 20
2.5143997688
 40
0.0238935861
100
AcDbArc
 50
209.8247607259
 51
235.1255079367
  0
ARC
  5
376
100
AcDbEntity
  8
0
100
AcDbCircle
 62
7
  6
CONTINUOUS
 10
13.6141751675
 20
2.5161916447
 40
0.0175560065
100
AcDbArc
 50
332.2279060967
 51
359.6595469939
  0
ARC
  5
377
100
AcDbEntity
  8
0
100
AcDbCircle
 62
7
  6
CONTINUOUS
 10
13.5201739219
 20
2.5145168728
 40
0.0151491919
100
AcDbArc
 50
24.098260853
 51
63.0369451818
  0
ARC
  5
378
100
AcDbEntity
  8
0
100
AcDbCircle
 62
7
  6
CONTINUOUS
 10
13.6156881783
 20
2.525116781
 40
0.0147197649
100
AcDbArc
 50
192.7054516565
 51
206.0594861022
  0
ARC
  5
379
100
AcDbEntity
  8
0
100
AcDbCircle
 62
7
  6
CONTINUOUS
 10
13.5284605274
 20
2.5518696094
 40
0.0145814632
100
AcDbArc
 50
54.6746025112
 51
71.1660573124
  0
ARC
  5
37A
100
AcDbEntity
  8
0
100
AcDbCircle
 62
7
  6
CONTINUOUS
 10
13.6063292954
 20
2.5296129864
 40
0.0132488022
100
AcDbArc
 50
270.266200055
 51
281.2404888597
  0
ARC
  5
37B
100
AcDbEntity
  8
0
100
AcDbCircle
 62
7
  6
CONTINUOUS
 10
13.6027235414
 20
2.524769508
 40
0.0119498009
100
AcDbArc
 50
340.7883861657
 51
1.1691452593
  0
ARC
  5
37C
100
AcDbEntity
  8
0
100
AcDbCircle
 62
7
  6
CONTINUOUS
 10
13.5295131508
 20
2.5629115009
 40
0.0110815393
100
AcDbArc
 50
306.758405961
 51
320.4502234234
  0
ARC
  5
37D
100
AcDbEntity
  8
0
100
AcDbCircle
 62
7
  6
CONTINUOUS
 10
13.6075235364
 20
2.5238762928
 40
0.0073895522
100
AcDbArc
 50
280.8288201977
 51
305.0837508495
  0
ARC
  5
37E
100
AcDbEntity
  8
0
100
AcDbCircle
 62
7
  6
CONTINUOUS
 10
13.607924718
 20
2.5230254464
 40
0.0064647042
100
AcDbArc
 50
306.5086174083
 51
340.2162360092
  0
ARC
  5
37F
100
AcDbEntity
  8
0
100
AcDbCircle
 62
7
  6
CONTINUOUS
 10
13.5335900184
 20
2.5587235346
 40
0.0060275915
100
AcDbArc
 50
20.9055592135
 51
56.7851676243
  0
ARC
  5
380
100
AcDbEntity
  8
0
100
AcDbCircle
 62
7
  6
CONTINUOUS
 10
13.533683767
 20
2.559677593
 40
0.0058087709
100
AcDbArc
 50
318.8515287446
 51
353.6422345323
  0
ARC
  5
381
100
AcDbEntity
  8
0
100
AcDbCircle
 62
7
  6
CONTINUOUS
 10
13.6071938412
 20
2.5209082945
 40
0.0052403997
100
AcDbArc
 50
205.5232099488
 51
227.5054868079
  0
ARC
  5
382
100
AcDbEntity
  8
0
100
AcDbCircle
 62
7
  6
CONTINUOUS
 10
13.5348905773
 20
2.5593838168
 40
0.0045795888
100
AcDbArc
 50
355.6235353944
 51
18.9942678268
  0
ARC
  5
383
100
AcDbEntity
  8
0
100
AcDbCircle
 62
7
  6
CONTINUOUS
 10
13.6054655419
 20
2.5190929218
 40
0.0027347709
100
AcDbArc
 50
228.5117626737
 51
266.1485845754
  0
ARC
  5
384
100
AcDbEntity
  8
0
100
AcDbCircle
 62
7
  6
CONTINUOUS
 10
13.4883447827
 20
2.5281293355
 40
0.0024749995
100
AcDbArc
 50
89.9999571957
 51
180.0000428043
  0
ARC
  5
385
100
AcDbEntity
  8
0
100
AcDbCircle
 62
7
  6
CONTINUOUS
 10
13.4883447827
 20
2.5184303265
 40
0.0024749995
100
AcDbArc
 50
179.9999571957
 51
270.0000428043
  0
ARC
  5
386
100
AcDbEntity
  8
0
100
AcDbCircle
 62
7
  6
CONTINUOUS
 10
13.5130038
 20
2.5134803274
 40
0.0024749995
100
AcDbArc
 50
359.9999571957
 51
90.0000428043
  0
ARC
  5
387
100
AcDbEntity
  8
0
100
AcDbCircle
 62
7
  6
CONTINUOUS
 10
13.3994327333
 20
2.5135023274
 40
0.0024749995
100
AcDbArc
 50
89.9999571957
 51
180.0000428043
  0
ARC
  5
388
100
AcDbEntity
  8
0
100
AcDbCircle
 62
7
  6
CONTINUOUS
 10
13.4221787497
 20
2.5184523265
 40
0.0024749995
100
AcDbArc
 50
269.9999571957
 51
0.0000428042
  0
ARC
  5
389
100
AcDbEntity
  8
0
100
AcDbCircle
 62
7
  6
CONTINUOUS
 10
13.6171458541
 20
2.5276393353
 40
0.0024749995
100
AcDbArc
 50
89.9999571957
 51
180.0000428043
  0
ARC
  5
38A
100
AcDbEntity
  8
0
100
AcDbCircle
 62
7
  6
CONTINUOUS
 10
13.6292558645
 20
2.5276393353
 40
0.0024749995
100
AcDbArc
 50
359.9999571957
 51
90.0000428043
  0
ARC
  5
38B
100
AcDbEntity
  8
0
100
AcDbCircle
 62
7
  6
CONTINUOUS
 10
13.4883447827
 20
2.5520823451
 40
0.0024749995
100
AcDbArc
 50
179.9999571957
 51
270.0000428043
  0
ARC
  5
38C
100
AcDbEntity
  8
0
100
AcDbCircle
 62
7
  6
CONTINUOUS
 10
13.3232596948
 20
2.5184523265
 40
0.0024749995
100
AcDbArc
 50
269.9999571957
 51
0.0000428043
  0
ARC
  5
38D
100
AcDbEntity
  8
0
100
AcDbCircle
 62
7
  6
CONTINUOUS
 10
13.3282096938
 20
2.5267023348
 40
0.0024749995
100
AcDbArc
 50
89.9999571957
 51
180.0000428043
  0
ARC
  5
38E
100
AcDbEntity
  8
0
100
AcDbCircle
 62
7
  6
CONTINUOUS
 10
13.370528721
 20
2.5267023348
 40
0.0024749995
100
AcDbArc
 50
359.9999571957
 51
90.0000428043
  0
ARC
  5
38F
100
AcDbEntity
  8
0
100
AcDbCircle
 62
7
  6
CONTINUOUS
 10
13.3691097202
 20
2.5565573476
 40
0.0024749995
100
AcDbArc
 50
269.9999571957
 51
0.0000428042
  0
ARC
  5
390
100
AcDbEntity
  8
0
100
AcDbCircle
 62
7
  6
CONTINUOUS
 10
13.3272456933
 20
2.5565573476
 40
0.0024749995
100
AcDbArc
 50
179.9999571957
 51
270.0000428043
  0
ARC
  5
391
100
AcDbEntity
  8
0
100
AcDbCircle
 62
7
  6
CONTINUOUS
 10
13.2934226783
 20
2.5483073467
 40
0.0024749995
100
AcDbArc
 50
359.9999571957
 51
90.0000428043
  0
ARC
  5
392
100
AcDbEntity
  8
0
100
AcDbCircle
 62
7
  6
CONTINUOUS
 10
13.2934226783
 20
2.5349523356
 40
0.0024749995
100
AcDbArc
 50
269.9999571957
 51
0.0000428042
  0
ARC
  5
393
100
AcDbEntity
  8
0
100
AcDbCircle
 62
7
  6
CONTINUOUS
 10
13.5519569538
 20
2.6152551345
 40
0.0789082104
100
AcDbArc
 50
292.906155071
 51
305.2574666259
  0
ARC
  5
394
100
AcDbEntity
  8
0
100
AcDbCircle
 62
7
  6
CONTINUOUS
 10
13.5822888914
 20
2.5720482849
 40
0.0261183659
100
AcDbArc
 50
305.6373831893
 51
329.9727629745
  0
ARC
  5
395
100
AcDbEntity
  8
0
100
AcDbCircle
 62
7
  6
CONTINUOUS
 10
13.5219564542
 20
2.5750459767
 40
0.0254407115
100
AcDbArc
 50
270.7327484175
 51
290.441894219
  0
ARC
  5
396
100
AcDbEntity
  8
0
100
AcDbCircle
 62
7
  6
CONTINUOUS
 10
13.5238839599
 20
2.5706523294
 40
0.0206523367
100
AcDbArc
 50
289.6883413472
 51
306.4184925496
  0
ARC
  5
397
100
AcDbEntity
  8
0
100
AcDbCircle
 62
7
  6
CONTINUOUS
 10
13.5900029525
 20
2.565201245
 40
0.0165459396
100
AcDbArc
 50
1.548452892
 51
33.5033152417
  0
ARC
  5
398
100
AcDbEntity
  8
0
100
AcDbCircle
 62
7
  6
CONTINUOUS
 10
13.5932995477
 20
2.5653696972
 40
0.0132462337
100
AcDbArc
 50
331.1510006998
 51
1.205404301
  0
ARC
  5
399
100
AcDbEntity
  8
0
100
AcDbCircle
 62
7
  6
CONTINUOUS
 10
13.4221787497
 20
2.5648073559
 40
0.0024749995
100
AcDbArc
 50
359.9999571957
 51
90.0000428043
  0
ARC
  5
39A
100
AcDbEntity
  8
0
100
AcDbCircle
 62
7
  6
CONTINUOUS
 10
13.3994327333
 20
2.5697573549
 40
0.0024749995
100
AcDbArc
 50
179.9999571957
 51
270.0000428043
  0
ARC
  5
39B
100
AcDbEntity
  8
0
100
AcDbCircle
 62
7
  6
CONTINUOUS
 10
13.3994327333
 20
2.5895573696
 40
0.0024749995
100
AcDbArc
 50
89.9999571957
 51
180.0000428043
  0
ARC
  5
39C
100
AcDbEntity
  8
0
100
AcDbCircle
 62
7
  6
CONTINUOUS
 10
13.4883447827
 20
2.5648073559
 40
0.0024749995
100
AcDbArc
 50
89.9999571957
 51
180.0000428043
  0
ARC
  5
39D
100
AcDbEntity
  8
0
100
AcDbCircle
 62
7
  6
CONTINUOUS
 10
13.3691097202
 20
2.5895573696
 40
0.0024749995
100
AcDbArc
 50
359.9999571957
 51
90.0000428043
  0
ARC
  5
39E
100
AcDbEntity
  8
0
100
AcDbCircle
 62
7
  6
CONTINUOUS
 10
13.3222956943
 20
2.5648073559
 40
0.0024749995
100
AcDbArc
 50
359.9999571957
 51
90.0000428043
  0
ELLIPSE
  5
39F
100
AcDbEntity
  8
0
100
AcDbEllipse
 62
7
  6
CONTINUOUS
 10
12.9046654608
 20
2.5403783405
 30
0.0
 11
-0.8250004575
 21
0.0
 31
0.0
 40
0.218572
 41
0.0
 42
6.2831853072
  0
HATCH
  5
3A0
100
AcDbEntity
  8
0
100
AcDbHatch
 62
7
  6
CONTINUOUS
 10
0.0
 20
0.0
 30
0.0
210
0.0
220
0.0
230
1.0
  2
XSEC0001
 70
1
 71
1
 91
11
 92
1
 93
57
 72
2
 10
13.5577001432
 20
2.5085494649
 40
0.0173408616
 50
232.4713476722
 51
267.338189944
 73
1
 72
2
 10
13.5607987082
 20
2.5143997688
 40
0.0238935861
 50
209.8247607259
 51
235.1255079367
 73
1
 72
2
 10
13.5806801742
 20
2.5212486481
 40
0.044722495
 50
195.531588407
 51
204.7624440448
 73
1
 72
1
 10
13.5375908118
 20
2.5092733232
 11
13.5357868108
 21
2.5153423266
 72
2
 10
13.4974076135
 20
2.5055452462
 40
0.0396099176
 50
14.3201081283
 51
22.4984722084
 73
1
 72
2
 10
13.5201739219
 20
2.5145168728
 40
0.0151491919
 50
24.098260853
 51
63.0369451818
 73
1
 72
2
 10
13.5161192671
 20
2.5062372524
 40
0.0243676582
 50
63.3666028271
 51
90.3937697637
 73
1
 72
1
 10
13.5159517998
 20
2.5306043351
 11
13.4883447845
 21
2.5306043351
 72
2
 10
13.4883447827
 20
2.5281293355
 40
0.0024749995
 50
89.9999571958
 51
180.0000428043
 73
1
 72
1
 10
13.4858697831
 20
2.5281293337
 11
13.4858697831
 21
2.5184303283
 72
2
 10
13.4883447827
 20
2.5184303265
 40
0.0024749995
 50
179.9999571957
 51
270.0000428042
 73
1
 72
1
 10
13.4883447845
 20
2.5159553269
 11
13.5130037982
 21
2.5159553269
 72
2
 10
13.5130038
 20
2.5134803274
 40
0.0024749995
 50
359.9999571957
 51
90.0000428042
 73
1
 72
1
 10
13.5154787995
 20
2.5134803256
 11
13.5154787995
 21
2.4937023146
 72
2
 10
13.5130038
 20
2.4937023128
 40
0.0024749995
 50
269.9999571958
 51
0.0000428043
 73
1
 72
1
 10
13.5130037982
 20
2.4912273132
 11
13.3994327352
 21
2.4912273132
 72
2
 10
13.3994327333
 20
2.4937023128
 40
0.0024749995
 50
179.9999571957
 51
270.0000428043
 73
1
 72
1
 10
13.3969577338
 20
2.4937023146
 11
13.3969577338
 21
2.5135023256
 72
2
 10
13.3994327333
 20
2.5135023274
 40
0.0024749995
 50
89.9999571957
 51
180.0000428043
 73
1
 72
1
 10
13.3994327352
 20
2.515977327
 11
13.4221787478
 21
2.515977327
 72
2
 10
13.4221787497
 20
2.5184523265
 40
0.0024749995
 50
269.9999571956
 51
0.0000428042
 73
1
 72
1
 10
13.4246537492
 20
2.5184523283
 11
13.4246537492
 21
2.564807354
 72
2
 10
13.4221787497
 20
2.5648073559
 40
0.0024749995
 50
359.9999571957
 51
90.0000428043
 73
1
 72
1
 10
13.4221787478
 20
2.5672823554
 11
13.3994327352
 21
2.5672823554
 72
2
 10
13.3994327333
 20
2.5697573549
 40
0.0024749995
 50
179.9999571957
 51
270.0000428043
 73
1
 72
1
 10
13.3969577338
 20
2.5697573568
 11
13.3969577338
 21
2.5895573678
 72
2
 10
13.3994327333
 20
2.5895573696
 40
0.0024749995
 50
89.9999571957
 51
180.0000428043
 73
1
 72
1
 10
13.3994327352
 20
2.5920323691
 11
13.5490138181
 21
2.5920323691
 72
2
 10
13.5463505148
 20
2.4094934586
 40
0.1825583387
 50
79.8618509324
 51
89.1640948679
 73
1
 72
2
 10
13.5726548052
 20
2.5503169747
 40
0.039319019
 50
59.1202086415
 51
81.4730239328
 73
1
 72
2
 10
13.5783142014
 20
2.5566516438
 40
0.0310192946
 50
34.7540871
 51
62.0879016178
 73
1
 72
2
 10
13.5900029525
 20
2.565201245
 40
0.0165459396
 50
1.548452892
 51
33.5033152417
 73
1
 72
2
 10
13.5932995477
 20
2.5653696972
 40
0.0132462337
 50
331.1510006998
 51
1.205404301
 73
1
 72
2
 10
13.5822888914
 20
2.5720482849
 40
0.0261183659
 50
305.6373831893
 51
329.9727629745
 73
1
 72
2
 10
13.5519569538
 20
2.6152551345
 40
0.0789082104
 50
292.906155071
 51
305.2574666259
 73
1
 72
2
 10
13.5282557878
 20
2.4386010294
 40
0.117346916
 50
58.614769177
 51
62.3737227606
 73
1
 72
2
 10
13.5761387404
 20
2.5167282896
 40
0.0257145923
 50
39.3804255939
 51
59.0361096173
 73
1
 72
2
 10
13.5750183849
 20
2.5166552064
 40
0.0266349791
 50
20.3630922153
 51
37.9727053099
 73
1
 72
2
 10
13.5571178432
 20
2.509473798
 40
0.0459185159
 50
15.6740290068
 51
20.9917271228
 73
1
 72
2
 10
13.6156881783
 20
2.525116781
 40
0.0147197649
 50
192.7054516565
 51
206.0594861022
 73
1
 72
2
 10
13.6071938412
 20
2.5209082945
 40
0.0052403997
 50
205.5232099488
 51
227.5054868079
 73
1
 72
2
 10
13.6054655419
 20
2.5190929218
 40
0.0027347709
 50
228.5117626737
 51
266.1485845754
 73
1
 72
1
 10
13.6052818493
 20
2.5163643272
 11
13.60639085
 21
2.5163643272
 72
2
 10
13.6063292954
 20
2.5296129864
 40
0.0132488022
 50
270.266200055
 51
281.2404888597
 73
1
 72
2
 10
13.6075235364
 20
2.5238762928
 40
0.0073895522
 50
280.8288201977
 51
305.0837508495
 73
1
 72
2
 10
13.607924718
 20
2.5230254464
 40
0.0064647042
 50
306.5086174083
 51
340.2162360092
 73
1
 72
2
 10
13.6027235414
 20
2.524769508
 40
0.0119498009
 50
340.7883861657
 51
1.1691452593
 73
1
 72
1
 10
13.6146708546
 20
2.525013332
 11
13.6146708546
 21
2.5276393334
 72
2
 10
13.6171458541
 20
2.5276393353
 40
0.0024749995
 50
89.9999571958
 51
180.0000428043
 73
1
 72
1
 10
13.6171458559
 20
2.5301143348
 11
13.6292558626
 21
2.5301143348
 72
2
 10
13.6292558645
 20
2.5276393353
 40
0.0024749995
 50
359.9999571957
 51
90.0000428042
 73
1
 72
1
 10
13.631730864
 20
2.5276393334
 11
13.631730864
 21
2.516087327
 72
2
 10
13.6141751675
 20
2.5161916447
 40
0.0175560065
 50
332.2279060967
 51
359.6595469939
 73
1
 72
2
 10
13.6048681567
 20
2.5210861501
 40
0.0280715479
 50
308.5071794988
 51
332.2400656899
 73
1
 72
2
 10
13.5978759713
 20
2.5286873679
 40
0.0383802683
 50
288.7656836787
 51
309.6104317088
 73
1
 72
2
 10
13.6036139387
 20
2.5111006186
 40
0.0198837666
 50
271.8586572978
 51
289.4131338543
 73
1
 72
1
 10
13.6042588488
 20
2.4912273132
 11
13.5568948225
 21
2.4912273132
 97
267
330
295
330
296
330
297
330
298
330
299
330
29A
330
29B
330
29C
330
29D
330
29E
330
29F
330
2A0
330
2A1
330
2A2
330
2A3
330
2A4
330
2A5
330
2A6
330
2A7
330
2A8
330
2A9
330
2AA
330
2AB
330
2AC
330
2AD
330
2AE
330
2AF
330
2B0
330
2B1
330
2B2
330
2B3
330
2B4
330
2B5
330
2B6
330
2B7
330
2B8
330
2B9
330
2BA
330
2BB
330
2BC
330
2BD
330
2BE
330
2BF
330
2C0
330
2C1
330
2C2
330
2C3
330
2C4
330
2C5
330
2C6
330
2C7
330
2C8
330
2C9
330
2CA
330
2CB
330
2CC
330
2CD
330
2CE
330
2CF
330
2D0
330
2D1
330
2D2
330
2D3
330
2D4
330
2D5
330
2D6
330
2D7
330
2D8
330
2D9
330
2DA
330
2DB
330
2DC
330
2DD
330
2DE
330
2DF
330
2E0
330
2E1
330
2E2
330
2E3
330
2E4
330
2E5
330
2E6
330
2E7
330
2E8
330
2E9
330
2EA
330
2EB
330
2EC
330
2ED
330
2EE
330
2EF
330
2F0
330
2F1
330
2F2
330
2F3
330
2F4
330
2F5
330
2F6
330
2F7
330
2F8
330
2F9
330
2FA
330
2FB
330
2FC
330
2FD
330
2FE
330
2FF
330
300
330
301
330
302
330
303
330
304
330
305
330
306
330
307
330
308
330
309
330
30A
330
30B
330
30C
330
30D
330
30E
330
30F
330
310
330
311
330
312
330
313
330
314
330
315
330
316
330
317
330
318
330
319
330
31A
330
31B
330
31C
330
31D
330
31E
330
31F
330
320
330
321
330
322
330
323
330
324
330
325
330
326
330
327
330
328
330
329
330
32A
330
32B
330
32C
330
32D
330
32E
330
32F
330
330
330
331
330
332
330
333
330
334
330
335
330
336
330
337
330
338
330
339
330
33A
330
33B
330
33C
330
33D
330
33E
330
33F
330
340
330
341
330
342
330
343
330
344
330
345
330
346
330
347
330
348
330
349
330
34A
330
34B
330
34C
330
34D
330
34E
330
34F
330
350
330
351
330
352
330
353
330
354
330
355
330
356
330
357
330
358
330
359
330
35A
330
35B
330
35C
330
35D
330
35E
330
35F
330
360
330
361
330
362
330
363
330
364
330
365
330
366
330
367
330
368
330
369
330
36A
330
36B
330
36C
330
36D
330
36E
330
36F
330
370
330
371
330
372
330
373
330
374
330
375
330
376
330
377
330
378
330
379
330
37A
330
37B
330
37C
330
37D
330
37E
330
37F
330
380
330
381
330
382
330
383
330
384
330
385
330
386
330
387
330
388
330
389
330
38A
330
38B
330
38C
330
38D
330
38E
330
38F
330
390
330
391
330
392
330
393
330
394
330
395
330
396
330
397
330
398
330
399
330
39A
330
39B
330
39C
330
39D
330
39E
330
39F
 92
1
 93
40
 72
2
 10
13.1673166046
 20
2.4937023128
 40
0.0024749995
 50
179.9999571957
 51
270.0000428042
 73
1
 72
1
 10
13.1648416051
 20
2.4937023146
 11
13.1648416051
 21
2.5135023256
 72
2
 10
13.1673166046
 20
2.5135023274
 40
0.0024749995
 50
89.9999571958
 51
180.0000428043
 73
1
 72
1
 10
13.1673166065
 20
2.515977327
 11
13.1912396197
 21
2.515977327
 72
2
 10
13.1912396216
 20
2.5184523265
 40
0.0024749995
 50
269.9999571956
 51
0.0000428042
 73
1
 72
1
 10
13.1937146211
 20
2.5184523283
 11
13.1937146211
 21
2.564807354
 72
2
 10
13.1912396216
 20
2.5648073559
 40
0.0024749995
 50
359.9999571957
 51
90.0000428043
 73
1
 72
1
 10
13.1912396197
 20
2.5672823554
 11
13.1673166065
 21
2.5672823554
 72
2
 10
13.1673166046
 20
2.5697573549
 40
0.0024749995
 50
179.9999571957
 51
270.0000428043
 73
1
 72
1
 10
13.1648416051
 20
2.5697573568
 11
13.1648416051
 21
2.5895573678
 72
2
 10
13.1673166046
 20
2.5895573696
 40
0.0024749995
 50
89.9999571958
 51
180.0000428043
 73
1
 72
1
 10
13.1673166065
 20
2.5920323691
 11
13.3691097184
 21
2.5920323691
 72
2
 10
13.3691097202
 20
2.5895573696
 40
0.0024749995
 50
359.9999571957
 51
90.0000428042
 73
1
 72
1
 10
13.3715847197
 20
2.5895573678
 11
13.3715847197
 21
2.5565573495
 72
2
 10
13.3691097202
 20
2.5565573476
 40
0.0024749995
 50
269.9999571956
 51
0.0000428042
 73
1
 72
1
 10
13.3691097184
 20
2.5540823481
 11
13.3272456952
 21
2.5540823481
 72
2
 10
13.3272456933
 20
2.5565573476
 40
0.0024749995
 50
179.9999571957
 51
270.0000428043
 73
1
 72
1
 10
13.3247706938
 20
2.5565573495
 11
13.3247706938
 21
2.564807354
 72
2
 10
13.3222956943
 20
2.5648073559
 40
0.0024749995
 50
359.9999571957
 51
90.0000428043
 73
1
 72
1
 10
13.3222956924
 20
2.5672823554
 11
13.2582556569
 21
2.5672823554
 72
2
 10
13.2582556551
 20
2.5648073559
 40
0.0024749995
 50
89.9999571957
 51
180.0000428043
 73
1
 72
1
 10
13.2557806555
 20
2.564807354
 11
13.2557806555
 21
2.5532573476
 72
2
 10
13.2582556551
 20
2.5532573458
 40
0.0024749995
 50
179.9999571957
 51
270.0000428042
 73
1
 72
1
 10
13.2582556569
 20
2.5507823463
 11
13.2934226764
 21
2.5507823463
 72
2
 10
13.2934226783
 20
2.5483073467
 40
0.0024749995
 50
359.9999571957
 51
90.0000428042
 73
1
 72
1
 10
13.2958976778
 20
2.5483073449
 11
13.2958976778
 21
2.5349523375
 72
2
 10
13.2934226783
 20
2.5349523356
 40
0.0024749995
 50
269.9999571956
 51
0.0000428042
 73
1
 72
1
 10
13.2934226764
 20
2.5324773361
 11
13.2582556569
 21
2.5324773361
 72
2
 10
13.2582556551
 20
2.5300023366
 40
0.0024749995
 50
89.9999571957
 51
180.0000428043
 73
1
 72
1
 10
13.2557806555
 20
2.5300023347
 11
13.2557806555
 21
2.5184523283
 72
2
 10
13.2582556551
 20
2.5184523265
 40
0.0024749995
 50
179.9999571957
 51
270.0000428043
 73
1
 72
1
 10
13.2582556569
 20
2.515977327
 11
13.3232596929
 21
2.515977327
 72
2
 10
13.3232596948
 20
2.5184523265
 40
0.0024749995
 50
269.9999571958
 51
0.0000428043
 73
1
 72
1
 10
13.3257346943
 20
2.5184523283
 11
13.3257346943
 21
2.5267023329
 72
2
 10
13.3282096938
 20
2.5267023348
 40
0.0024749995
 50
89.9999571957
 51
180.0000428043
 73
1
 72
1
 10
13.3282096957
 20
2.5291773343
 11
13.3705287192
 21
2.5291773343
 72
2
 10
13.370528721
 20
2.5267023348
 40
0.0024749995
 50
359.9999571957
 51
90.0000428043
 73
1
 72
1
 10
13.3730037205
 20
2.5267023329
 11
13.3730037205
 21
2.4937023146
 72
2
 10
13.370528721
 20
2.4937023128
 40
0.0024749995
 50
269.9999571957
 51
0.0000428043
 73
1
 72
1
 10
13.3705287192
 20
2.4912273132
 11
13.1673166065
 21
2.4912273132
 97
267
330
295
330
296
330
297
330
298
330
299
330
29A
330
29B
330
29C
330
29D
330
29E
330
29F
330
2A0
330
2A1
330
2A2
330
2A3
330
2A4
330
2A5
330
2A6
330
2A7
330
2A8
330
2A9
330
2AA
330
2AB
330
2AC
330
2AD
330
2AE
330
2AF
330
2B0
330
2B1
330
2B2
330
2B3
330
2B4
330
2B5
330
2B6
330
2B7
330
2B8
330
2B9
330
2BA
330
2BB
330
2BC
330
2BD
330
2BE
330
2BF
330
2C0
330
2C1
330
2C2
330
2C3
330
2C4
330
2C5
330
2C6
330
2C7
330
2C8
330
2C9
330
2CA
330
2CB
330
2CC
330
2CD
330
2CE
330
2CF
330
2D0
330
2D1
330
2D2
330
2D3
330
2D4
330
2D5
330
2D6
330
2D7
330
2D8
330
2D9
330
2DA
330
2DB
330
2DC
330
2DD
330
2DE
330
2DF
330
2E0
330
2E1
330
2E2
330
2E3
330
2E4
330
2E5
330
2E6
330
2E7
330
2E8
330
2E9
330
2EA
330
2EB
330
2EC
330
2ED
330
2EE
330
2EF
330
2F0
330
2F1
330
2F2
330
2F3
330
2F4
330
2F5
330
2F6
330
2F7
330
2F8
330
2F9
330
2FA
330
2FB
330
2FC
330
2FD
330
2FE
330
2FF
330
300
330
301
330
302
330
303
330
304
330
305
330
306
330
307
330
308
330
309
330
30A
330
30B
330
30C
330
30D
330
30E
330
30F
330
310
330
311
330
312
330
313
330
314
330
315
330
316
330
317
330
318
330
319
330
31A
330
31B
330
31C
330
31D
330
31E
330
31F
330
320
330
321
330
322
330
323
330
324
330
325
330
326
330
327
330
328
330
329
330
32A
330
32B
330
32C
330
32D
330
32E
330
32F
330
330
330
331
330
332
330
333
330
334
330
335
330
336
330
337
330
338
330
339
330
33A
330
33B
330
33C
330
33D
330
33E
330
33F
330
340
330
341
330
342
330
343
330
344
330
345
330
346
330
347
330
348
330
349
330
34A
330
34B
330
34C
330
34D
330
34E
330
34F
330
350
330
351
330
352
330
353
330
354
330
355
330
356
330
357
330
358
330
359
330
35A
330
35B
330
35C
330
35D
330
35E
330
35F
330
360
330
361
330
362
330
363
330
364
330
365
330
366
330
367
330
368
330
369
330
36A
330
36B
330
36C
330
36D
330
36E
330
36F
330
370
330
371
330
372
330
373
330
374
330
375
330
376
330
377
330
378
330
379
330
37A
330
37B
330
37C
330
37D
330
37E
330
37F
330
380
330
381
330
382
330
383
330
384
330
385
330
386
330
387
330
388
330
389
330
38A
330
38B
330
38C
330
38D
330
38E
330
38F
330
390
330
391
330
392
330
393
330
394
330
395
330
396
330
397
330
398
330
399
330
39A
330
39B
330
39C
330
39D
330
39E
330
39F
 92
1
 93
40
 72
2
 10
13.0426374026
 20
2.493701481
 40
0.0024741678
 50
226.3477981898
 51
270.0031206038
 73
1
 72
1
 10
13.0409295364
 20
2.4919113136
 11
12.9776495013
 21
2.5522893471
 72
2
 10
12.9759408003
 20
2.5504984093
 40
0.0024753014
 50
46.3461263059
 51
180.0014637321
 73
1
 72
1
 10
12.973465499
 20
2.5504983461
 11
12.973465499
 21
2.5184523283
 72
2
 10
12.9759404985
 20
2.5184523265
 40
0.0024749995
 50
179.9999571957
 51
270.0000428043
 73
1
 72
1
 10
12.9759405003
 20
2.515977327
 11
12.9962575116
 21
2.515977327
 72
2
 10
12.9962575135
 20
2.5135023274
 40
0.0024749995
 50
359.9999571957
 51
90.0000428043
 73
1
 72
1
 10
12.998732513
 20
2.5135023256
 11
12.998732513
 21
2.4937023146
 72
2
 10
12.9962575135
 20
2.4937023128
 40
0.0024749995
 50
269.9999571957
 51
0.0000428043
 73
1
 72
1
 10
12.9962575116
 20
2.4912273132
 11
12.9205934696
 21
2.4912273132
 72
2
 10
12.9205934678
 20
2.4937023128
 40
0.0024749995
 50
179.9999571957
 51
270.0000428043
 73
1
 72
1
 10
12.9181184683
 20
2.4937023146
 11
12.9181184683
 21
2.5135023256
 72
2
 10
12.9205934678
 20
2.5135023274
 40
0.0024749995
 50
89.9999571956
 51
180.0000428042
 73
1
 72
1
 10
12.9205934696
 20
2.515977327
 11
12.93923948
 21
2.515977327
 72
2
 10
12.9392394818
 20
2.5184523265
 40
0.0024749995
 50
269.9999571957
 51
0.0000428043
 73
1
 72
1
 10
12.9417144814
 20
2.5184523283
 11
12.9417144814
 21
2.564807354
 72
2
 10
12.9392394818
 20
2.5648073559
 40
0.0024749995
 50
359.9999571957
 51
90.0000428043
 73
1
 72
1
 10
12.93923948
 20
2.5672823554
 11
12.9205934696
 21
2.5672823554
 72
2
 10
12.9205934678
 20
2.5697573549
 40
0.0024749995
 50
179.9999571957
 51
270.0000428043
 73
1
 72
1
 10
12.9181184683
 20
2.5697573568
 11
12.9181184683
 21
2.5895573678
 72
2
 10
12.9205934678
 20
2.5895573696
 40
0.0024749995
 50
89.9999571956
 51
180.0000428042
 73
1
 72
1
 10
12.9205934696
 20
2.5920323691
 11
13.0210515254
 21
2.5920323691
 72
2
 10
13.0210516601
 20
2.5895582013
 40
0.0024741678
 50
46.3477981898
 51
90.0031206038
 73
1
 72
1
 10
13.0227595263
 20
2.5913483688
 11
13.0827925596
 21
2.534068337
 72
2
 10
13.0845012605
 20
2.5358592748
 40
0.0024753014
 50
226.3461263059
 51
0.0014637321
 73
1
 72
1
 10
13.0869765619
 20
2.535859338
 11
13.0869765619
 21
2.564807354
 72
2
 10
13.0845015624
 20
2.5648073559
 40
0.0024749995
 50
359.9999571957
 51
90.0000428043
 73
1
 72
1
 10
13.0845015605
 20
2.5672823554
 11
13.0657255501
 21
2.5672823554
 72
2
 10
13.0657255483
 20
2.5697573549
 40
0.0024749995
 50
179.9999571957
 51
270.0000428043
 73
1
 72
1
 10
13.0632505488
 20
2.5697573568
 11
13.0632505488
 21
2.5895573678
 72
2
 10
13.0657255483
 20
2.5895573696
 40
0.0024749995
 50
89.9999571957
 51
180.0000428043
 73
1
 72
1
 10
13.0657255501
 20
2.5920323691
 11
13.1397265912
 21
2.5920323691
 72
2
 10
13.139726593
 20
2.5895573696
 40
0.0024749995
 50
359.9999571957
 51
90.0000428043
 73
1
 72
1
 10
13.1422015925
 20
2.5895573678
 11
13.1422015925
 21
2.5697573568
 72
2
 10
13.139726593
 20
2.5697573549
 40
0.0024749995
 50
269.9999571956
 51
0.0000428042
 73
1
 72
1
 10
13.1397265912
 20
2.5672823554
 11
13.1217935812
 21
2.5672823554
 72
2
 10
13.1217935794
 20
2.5648073559
 40
0.0024749995
 50
89.9999571957
 51
180.0000428042
 73
1
 72
1
 10
13.1193185799
 20
2.564807354
 11
13.1193185799
 21
2.4937023146
 72
2
 10
13.1168435803
 20
2.4937023128
 40
0.0024749995
 50
269.9999571957
 51
0.0000428043
 73
1
 72
1
 10
13.1168435785
 20
2.4912273132
 11
13.0426375373
 21
2.4912273132
 97
267
330
295
330
296
330
297
330
298
330
299
330
29A
330
29B
330
29C
330
29D
330
29E
330
29F
330
2A0
330
2A1
330
2A2
330
2A3
330
2A4
330
2A5
330
2A6
330
2A7
330
2A8
330
2A9
330
2AA
330
2AB
330
2AC
330
2AD
330
2AE
330
2AF
330
2B0
330
2B1
330
2B2
330
2B3
330
2B4
330
2B5
330
2B6
330
2B7
330
2B8
330
2B9
330
2BA
330
2BB
330
2BC
330
2BD
330
2BE
330
2BF
330
2C0
330
2C1
330
2C2
330
2C3
330
2C4
330
2C5
330
2C6
330
2C7
330
2C8
330
2C9
330
2CA
330
2CB
330
2CC
330
2CD
330
2CE
330
2CF
330
2D0
330
2D1
330
2D2
330
2D3
330
2D4
330
2D5
330
2D6
330
2D7
330
2D8
330
2D9
330
2DA
330
2DB
330
2DC
330
2DD
330
2DE
330
2DF
330
2E0
330
2E1
330
2E2
330
2E3
330
2E4
330
2E5
330
2E6
330
2E7
330
2E8
330
2E9
330
2EA
330
2EB
330
2EC
330
2ED
330
2EE
330
2EF
330
2F0
330
2F1
330
2F2
330
2F3
330
2F4
330
2F5
330
2F6
330
2F7
330
2F8
330
2F9
330
2FA
330
2FB
330
2FC
330
2FD
330
2FE
330
2FF
330
300
330
301
330
302
330
303
330
304
330
305
330
306
330
307
330
308
330
309
330
30A
330
30B
330
30C
330
30D
330
30E
330
30F
330
310
330
311
330
312
330
313
330
314
330
315
330
316
330
317
330
318
330
319
330
31A
330
31B
330
31C
330
31D
330
31E
330
31F
330
320
330
321
330
322
330
323
330
324
330
325
330
326
330
327
330
328
330
329
330
32A
330
32B
330
32C
330
32D
330
32E
330
32F
330
330
330
331
330
332
330
333
330
334
330
335
330
336
330
337
330
338
330
339
330
33A
330
33B
330
33C
330
33D
330
33E
330
33F
330
340
330
341
330
342
330
343
330
344
330
345
330
346
330
347
330
348
330
349
330
34A
330
34B
330
34C
330
34D
330
34E
330
34F
330
350
330
351
330
352
330
353
330
354
330
355
330
356
330
357
330
358
330
359
330
35A
330
35B
330
35C
330
35D
330
35E
330
35F
330
360
330
361
330
362
330
363
330
364
330
365
330
366
330
367
330
368
330
369
330
36A
330
36B
330
36C
330
36D
330
36E
330
36F
330
370
330
371
330
372
330
373
330
374
330
375
330
376
330
377
330
378
330
379
330
37A
330
37B
330
37C
330
37D
330
37E
330
37F
330
380
330
381
330
382
330
383
330
384
330
385
330
386
330
387
330
388
330
389
330
38A
330
38B
330
38C
330
38D
330
38E
330
38F
330
390
330
391
330
392
330
393
330
394
330
395
330
396
330
397
330
398
330
399
330
39A
330
39B
330
39C
330
39D
330
39E
330
39F
 92
1
 93
40
 72
2
 10
12.7943847649
 20
2.4937027294
 40
0.0024754162
 50
226.3593695813
 51
270.0146919953
 73
1
 72
1
 10
12.7926763987
 20
2.4919113136
 11
12.7293963636
 21
2.5522893471
 72
2
 10
12.7276876627
 20
2.5504984093
 40
0.0024753014
 50
46.3461263059
 51
180.0014637321
 73
1
 72
1
 10
12.7252123613
 20
2.5504983461
 11
12.7252123613
 21
2.5184523283
 72
2
 10
12.7276873608
 20
2.5184523265
 40
0.0024749995
 50
179.9999571957
 51
270.0000428043
 73
1
 72
1
 10
12.7276873627
 20
2.515977327
 11
12.7480043739
 21
2.515977327
 72
2
 10
12.7480043758
 20
2.5135023274
 40
0.0024749995
 50
359.9999571957
 51
90.0000428043
 73
1
 72
1
 10
12.7504793753
 20
2.5135023256
 11
12.7504793753
 21
2.4937023146
 72
2
 10
12.7480043758
 20
2.4937023128
 40
0.0024749995
 50
269.9999571958
 51
0.0000428043
 73
1
 72
1
 10
12.7480043739
 20
2.4912273132
 11
12.672340332
 21
2.4912273132
 72
2
 10
12.6723403301
 20
2.4937023128
 40
0.0024749995
 50
179.9999571957
 51
270.0000428042
 73
1
 72
1
 10
12.6698653306
 20
2.4937023146
 11
12.6698653306
 21
2.5135023256
 72
2
 10
12.6723403301
 20
2.5135023274
 40
0.0024749995
 50
89.9999571957
 51
180.0000428043
 73
1
 72
1
 10
12.672340332
 20
2.515977327
 11
12.6909873423
 21
2.515977327
 72
2
 10
12.6909873442
 20
2.5184523265
 40
0.0024749995
 50
269.9999571957
 51
0.0000428043
 73
1
 72
1
 10
12.6934623437
 20
2.5184523283
 11
12.6934623437
 21
2.564807354
 72
2
 10
12.6909873442
 20
2.5648073559
 40
0.0024749995
 50
359.9999571957
 51
90.0000428043
 73
1
 72
1
 10
12.6909873423
 20
2.5672823554
 11
12.672340332
 21
2.5672823554
 72
2
 10
12.6723403301
 20
2.5697573549
 40
0.0024749995
 50
179.9999571957
 51
270.0000428043
 73
1
 72
1
 10
12.6698653306
 20
2.5697573568
 11
12.6698653306
 21
2.5895573678
 72
2
 10
12.6723403301
 20
2.5895573696
 40
0.0024749995
 50
89.9999571957
 51
180.0000428043
 73
1
 72
1
 10
12.672340332
 20
2.5920323691
 11
12.7727983877
 21
2.5920323691
 72
2
 10
12.7727985224
 20
2.5895582013
 40
0.0024741678
 50
46.3477981899
 51
90.0031206038
 73
1
 72
1
 10
12.7745063886
 20
2.5913483688
 11
12.8345394219
 21
2.534068337
 72
2
 10
12.8362481229
 20
2.5358592748
 40
0.0024753014
 50
226.3461263059
 51
0.0014637321
 73
1
 72
1
 10
12.8387234242
 20
2.535859338
 11
12.8387234242
 21
2.564807354
 72
2
 10
12.8362484247
 20
2.5648073559
 40
0.0024749995
 50
359.9999571957
 51
90.0000428043
 73
1
 72
1
 10
12.8362484229
 20
2.5672823554
 11
12.8174724125
 21
2.5672823554
 72
2
 10
12.8174724106
 20
2.5697573549
 40
0.0024749995
 50
179.9999571957
 51
270.0000428043
 73
1
 72
1
 10
12.8149974111
 20
2.5697573568
 11
12.8149974111
 21
2.5895573678
 72
2
 10
12.8174724106
 20
2.5895573696
 40
0.0024749995
 50
89.9999571958
 51
180.0000428043
 73
1
 72
1
 10
12.8174724125
 20
2.5920323691
 11
12.8914734535
 21
2.5920323691
 72
2
 10
12.8914734553
 20
2.5895573696
 40
0.0024749995
 50
359.9999571957
 51
90.0000428042
 73
1
 72
1
 10
12.8939484549
 20
2.5895573678
 11
12.8939484549
 21
2.5697573568
 72
2
 10
12.8914734553
 20
2.5697573549
 40
0.0024749995
 50
269.9999571958
 51
0.0000428043
 73
1
 72
1
 10
12.8914734535
 20
2.5672823554
 11
12.8735404436
 21
2.5672823554
 72
2
 10
12.8735404417
 20
2.5648073559
 40
0.0024749995
 50
89.9999571957
 51
180.0000428043
 73
1
 72
1
 10
12.8710654422
 20
2.564807354
 11
12.8710654422
 21
2.4937023146
 72
2
 10
12.8685904427
 20
2.4937023128
 40
0.0024749995
 50
269.9999571957
 51
0.0000428043
 73
1
 72
1
 10
12.8685904408
 20
2.4912273132
 11
12.7943853997
 21
2.4912273132
 97
267
330
295
330
296
330
297
330
298
330
299
330
29A
330
29B
330
29C
330
29D
330
29E
330
29F
330
2A0
330
2A1
330
2A2
330
2A3
330
2A4
330
2A5
330
2A6
330
2A7
330
2A8
330
2A9
330
2AA
330
2AB
330
2AC
330
2AD
330
2AE
330
2AF
330
2B0
330
2B1
330
2B2
330
2B3
330
2B4
330
2B5
330
2B6
330
2B7
330
2B8
330
2B9
330
2BA
330
2BB
330
2BC
330
2BD
330
2BE
330
2BF
330
2C0
330
2C1
330
2C2
330
2C3
330
2C4
330
2C5
330
2C6
330
2C7
330
2C8
330
2C9
330
2CA
330
2CB
330
2CC
330
2CD
330
2CE
330
2CF
330
2D0
330
2D1
330
2D2
330
2D3
330
2D4
330
2D5
330
2D6
330
2D7
330
2D8
330
2D9
330
2DA
330
2DB
330
2DC
330
2DD
330
2DE
330
2DF
330
2E0
330
2E1
330
2E2
330
2E3
330
2E4
330
2E5
330
2E6
330
2E7
330
2E8
330
2E9
330
2EA
330
2EB
330
2EC
330
2ED
330
2EE
330
2EF
330
2F0
330
2F1
330
2F2
330
2F3
330
2F4
330
2F5
330
2F6
330
2F7
330
2F8
330
2F9
330
2FA
330
2FB
330
2FC
330
2FD
330
2FE
330
2FF
330
300
330
301
330
302
330
303
330
304
330
305
330
306
330
307
330
308
330
309
330
30A
330
30B
330
30C
330
30D
330
30E
330
30F
330
310
330
311
330
312
330
313
330
314
330
315
330
316
330
317
330
318
330
319
330
31A
330
31B
330
31C
330
31D
330
31E
330
31F
330
320
330
321
330
322
330
323
330
324
330
325
330
326
330
327
330
328
330
329
330
32A
330
32B
330
32C
330
32D
330
32E
330
32F
330
330
330
331
330
332
330
333
330
334
330
335
330
336
330
337
330
338
330
339
330
33A
330
33B
330
33C
330
33D
330
33E
330
33F
330
340
330
341
330
342
330
343
330
344
330
345
330
346
330
347
330
348
330
349
330
34A
330
34B
330
34C
330
34D
330
34E
330
34F
330
350
330
351
330
352
330
353
330
354
330
355
330
356
330
357
330
358
330
359
330
35A
330
35B
330
35C
330
35D
330
35E
330
35F
330
360
330
361
330
362
330
363
330
364
330
365
330
366
330
367
330
368
330
369
330
36A
330
36B
330
36C
330
36D
330
36E
330
36F
330
370
330
371
330
372
330
373
330
374
330
375
330
376
330
377
330
378
330
379
330
37A
330
37B
330
37C
330
37D
330
37E
330
37F
330
380
330
381
330
382
330
383
330
384
330
385
330
386
330
387
330
388
330
389
330
38A
330
38B
330
38C
330
38D
330
38E
330
38F
330
390
330
391
330
392
330
393
330
394
330
395
330
396
330
397
330
398
330
399
330
39A
330
39B
330
39C
330
39D
330
39E
330
39F
 92
1
 93
23
 72
2
 10
12.3792298263
 20
2.539634765
 40
0.048483885
 50
273.21763719
 51
303.0749121182
 73
1
 72
2
 10
12.3940692204
 20
2.5168671561
 40
0.0213072145
 50
303.0488228549
 51
355.7263138674
 73
1
 72
2
 10
12.400005721
 20
2.5168763464
 40
0.0153945295
 50
354.0454548824
 51
5.1878013979
 73
1
 72
2
 10
12.3931760319
 20
2.5166878286
 40
0.0222174455
 50
4.0793399388
 51
69.834329283
 73
1
 72
1
 10
12.4008351814
 20
2.5375433389
 11
12.3907841758
 21
2.5410923409
 72
1
 10
12.3907841758
 20
2.5410923409
 11
12.3990241804
 21
2.5458683435
 72
2
 10
12.3771587979
 20
2.5826952352
 40
0.0428289026
 50
300.6990502959
 51
319.0591802498
 73
1
 72
2
 10
12.3971873948
 20
2.5665668817
 40
0.0171568255
 50
315.9145124245
 51
16.0049121282
 73
1
 72
2
 10
12.3922357827
 20
2.5632132173
 40
0.0229166529
 50
20.6563876465
 51
62.3316896973
 73
1
 72
2
 10
12.371573659
 20
2.5302846524
 40
0.061747717
 50
59.5385584989
 51
90.0050977555
 73
1
 72
1
 10
12.3715681652
 20
2.5920323691
 11
12.2055050731
 21
2.5920323691
 72
2
 10
12.2055050712
 20
2.5895573696
 40
0.0024749995
 50
89.9999571957
 51
180.0000428043
 73
1
 72
1
 10
12.2030300717
 20
2.5895573678
 11
12.2030300717
 21
2.5697573568
 72
2
 10
12.2055050712
 20
2.5697573549
 40
0.0024749995
 50
179.9999571957
 51
270.0000428043
 73
1
 72
1
 10
12.2055050731
 20
2.5672823554
 11
12.2294470864
 21
2.5672823554
 72
2
 10
12.2294470882
 20
2.5648073559
 40
0.0024749995
 50
359.9999571957
 51
90.0000428043
 73
1
 72
1
 10
12.2319220877
 20
2.564807354
 11
12.2319220877
 21
2.5184523283
 72
2
 10
12.2294470882
 20
2.5184523265
 40
0.0024749995
 50
269.9999571957
 51
0.0000428043
 73
1
 72
1
 10
12.2294470864
 20
2.515977327
 11
12.2055050731
 21
2.515977327
 72
2
 10
12.2055050712
 20
2.5135023274
 40
0.0024749995
 50
89.9999571957
 51
180.0000428043
 73
1
 72
1
 10
12.2030300717
 20
2.5135023256
 11
12.2030300717
 21
2.4937023146
 72
2
 10
12.2055050712
 20
2.4937023128
 40
0.0024749995
 50
179.9999571957
 51
270.0000428043
 73
1
 72
1
 10
12.2055050731
 20
2.4912273132
 11
12.3819511709
 21
2.4912273132
 97
267
330
295
330
296
330
297
330
298
330
299
330
29A
330
29B
330
29C
330
29D
330
29E
330
29F
330
2A0
330
2A1
330
2A2
330
2A3
330
2A4
330
2A5
330
2A6
330
2A7
330
2A8
330
2A9
330
2AA
330
2AB
330
2AC
330
2AD
330
2AE
330
2AF
330
2B0
330
2B1
330
2B2
330
2B3
330
2B4
330
2B5
330
2B6
330
2B7
330
2B8
330
2B9
330
2BA
330
2BB
330
2BC
330
2BD
330
2BE
330
2BF
330
2C0
330
2C1
330
2C2
330
2C3
330
2C4
330
2C5
330
2C6
330
2C7
330
2C8
330
2C9
330
2CA
330
2CB
330
2CC
330
2CD
330
2CE
330
2CF
330
2D0
330
2D1
330
2D2
330
2D3
330
2D4
330
2D5
330
2D6
330
2D7
330
2D8
330
2D9
330
2DA
330
2DB
330
2DC
330
2DD
330
2DE
330
2DF
330
2E0
330
2E1
330
2E2
330
2E3
330
2E4
330
2E5
330
2E6
330
2E7
330
2E8
330
2E9
330
2EA
330
2EB
330
2EC
330
2ED
330
2EE
330
2EF
330
2F0
330
2F1
330
2F2
330
2F3
330
2F4
330
2F5
330
2F6
330
2F7
330
2F8
330
2F9
330
2FA
330
2FB
330
2FC
330
2FD
330
2FE
330
2FF
330
300
330
301
330
302
330
303
330
304
330
305
330
306
330
307
330
308
330
309
330
30A
330
30B
330
30C
330
30D
330
30E
330
30F
330
310
330
311
330
312
330
313
330
314
330
315
330
316
330
317
330
318
330
319
330
31A
330
31B
330
31C
330
31D
330
31E
330
31F
330
320
330
321
330
322
330
323
330
324
330
325
330
326
330
327
330
328
330
329
330
32A
330
32B
330
32C
330
32D
330
32E
330
32F
330
330
330
331
330
332
330
333
330
334
330
335
330
336
330
337
330
338
330
339
330
33A
330
33B
330
33C
330
33D
330
33E
330
33F
330
340
330
341
330
342
330
343
330
344
330
345
330
346
330
347
330
348
330
349
330
34A
330
34B
330
34C
330
34D
330
34E
330
34F
330
350
330
351
330
352
330
353
330
354
330
355
330
356
330
357
330
358
330
359
330
35A
330
35B
330
35C
330
35D
330
35E
330
35F
330
360
330
361
330
362
330
363
330
364
330
365
330
366
330
367
330
368
330
369
330
36A
330
36B
330
36C
330
36D
330
36E
330
36F
330
370
330
371
330
372
330
373
330
374
330
375
330
376
330
377
330
378
330
379
330
37A
330
37B
330
37C
330
37D
330
37E
330
37F
330
380
330
381
330
382
330
383
330
384
330
385
330
386
330
387
330
388
330
389
330
38A
330
38B
330
38C
330
38D
330
38E
330
38F
330
390
330
391
330
392
330
393
330
394
330
395
330
396
330
397
330
398
330
399
330
39A
330
39B
330
39C
330
39D
330
39E
330
39F
 92
1
 93
32
 72
2
 10
12.5168642476
 20
2.4937023128
 40
0.0024749995
 50
269.9999571957
 51
0.0000428043
 73
1
 72
1
 10
12.5193392471
 20
2.4937023146
 11
12.5193392471
 21
2.5135023256
 72
2
 10
12.5168642476
 20
2.5135023274
 40
0.0024749995
 50
359.9999571957
 51
90.0000428043
 73
1
 72
1
 10
12.5168642458
 20
2.515977327
 11
12.5055812395
 21
2.515977327
 72
2
 10
12.5055811302
 20
2.518452367
 40
0.0024750401
 50
147.6063258011
 51
270.0025305754
 73
1
 72
1
 10
12.5034912383
 20
2.5197783291
 11
12.5090072414
 21
2.5284723339
 72
2
 10
12.5110971723
 20
2.5271461342
 40
0.0024752003
 50
89.998372645
 51
147.602165307
 73
1
 72
1
 10
12.5110972426
 20
2.5296213345
 11
12.5459752619
 21
2.5296213345
 72
2
 10
12.5459747223
 20
2.5271458744
 40
0.0024754602
 50
32.8959418573
 51
89.9875097202
 73
1
 72
1
 10
12.548053263
 20
2.5284903339
 11
12.5536792662
 21
2.5197973291
 72
2
 10
12.5516012439
 20
2.5184525341
 40
0.0024752071
 50
270.0004896794
 51
32.9089806818
 73
1
 72
1
 10
12.551601265
 20
2.515977327
 11
12.537150257
 21
2.515977327
 72
2
 10
12.5371502552
 20
2.5135023274
 40
0.0024749995
 50
89.9999571958
 51
180.0000428043
 73
1
 72
1
 10
12.5346752556
 20
2.5135023256
 11
12.5346752556
 21
2.4937023146
 72
2
 10
12.5371502552
 20
2.4937023128
 40
0.0024749995
 50
179.9999571957
 51
270.0000428042
 73
1
 72
1
 10
12.537150257
 20
2.4912273132
 11
12.6424313154
 21
2.4912273132
 72
2
 10
12.6424313172
 20
2.4937023128
 40
0.0024749995
 50
269.9999571957
 51
0.0000428043
 73
1
 72
1
 10
12.6449063168
 20
2.4937023146
 11
12.6449063168
 21
2.5135023256
 72
2
 10
12.6424313172
 20
2.5135023274
 40
0.0024749995
 50
359.9999571957
 51
90.0000428043
 73
1
 72
1
 10
12.6424313154
 20
2.515977327
 11
12.6224153043
 21
2.515977327
 72
2
 10
12.6224154248
 20
2.518451368
 40
0.002474041
 50
212.9056413127
 51
269.9972091756
 73
1
 72
1
 10
12.6203383031
 20
2.5171073276
 11
12.5725822767
 21
2.5909023685
 72
2
 10
12.570504655
 20
2.589557409
 40
0.0024749602
 50
32.9172174468
 51
90.0087853097
 73
1
 72
1
 10
12.5705042755
 20
2.5920323691
 11
12.5133292438
 21
2.5920323691
 72
2
 10
12.5133291735
 20
2.5895571688
 40
0.0024752003
 50
89.9983726451
 51
147.602165307
 73
1
 72
1
 10
12.5112392426
 20
2.5908833685
 11
12.4644392167
 21
2.5171263276
 72
2
 10
12.4623492858
 20
2.5184525273
 40
0.0024752003
 50
269.9983726451
 51
327.602165307
 73
1
 72
1
 10
12.4623492155
 20
2.515977327
 11
12.4394882028
 21
2.515977327
 72
2
 10
12.439488201
 20
2.5135023274
 40
0.0024749995
 50
89.9999571958
 51
180.0000428043
 73
1
 72
1
 10
12.4370132015
 20
2.5135023256
 11
12.4370132015
 21
2.4937023146
 72
2
 10
12.439488201
 20
2.4937023128
 40
0.0024749995
 50
179.9999571957
 51
270.0000428042
 73
1
 72
1
 10
12.4394882028
 20
2.4912273132
 11
12.5168642458
 21
2.4912273132
 97
267
330
295
330
296
330
297
330
298
330
299
330
29A
330
29B
330
29C
330
29D
330
29E
330
29F
330
2A0
330
2A1
330
2A2
330
2A3
330
2A4
330
2A5
330
2A6
330
2A7
330
2A8
330
2A9
330
2AA
330
2AB
330
2AC
330
2AD
330
2AE
330
2AF
330
2B0
330
2B1
330
2B2
330
2B3
330
2B4
330
2B5
330
2B6
330
2B7
330
2B8
330
2B9
330
2BA
330
2BB
330
2BC
330
2BD
330
2BE
330
2BF
330
2C0
330
2C1
330
2C2
330
2C3
330
2C4
330
2C5
330
2C6
330
2C7
330
2C8
330
2C9
330
2CA
330
2CB
330
2CC
330
2CD
330
2CE
330
2CF
330
2D0
330
2D1
330
2D2
330
2D3
330
2D4
330
2D5
330
2D6
330
2D7
330
2D8
330
2D9
330
2DA
330
2DB
330
2DC
330
2DD
330
2DE
330
2DF
330
2E0
330
2E1
330
2E2
330
2E3
330
2E4
330
2E5
330
2E6
330
2E7
330
2E8
330
2E9
330
2EA
330
2EB
330
2EC
330
2ED
330
2EE
330
2EF
330
2F0
330
2F1
330
2F2
330
2F3
330
2F4
330
2F5
330
2F6
330
2F7
330
2F8
330
2F9
330
2FA
330
2FB
330
2FC
330
2FD
330
2FE
330
2FF
330
300
330
301
330
302
330
303
330
304
330
305
330
306
330
307
330
308
330
309
330
30A
330
30B
330
30C
330
30D
330
30E
330
30F
330
310
330
311
330
312
330
313
330
314
330
315
330
316
330
317
330
318
330
319
330
31A
330
31B
330
31C
330
31D
330
31E
330
31F
330
320
330
321
330
322
330
323
330
324
330
325
330
326
330
327
330
328
330
329
330
32A
330
32B
330
32C
330
32D
330
32E
330
32F
330
330
330
331
330
332
330
333
330
334
330
335
330
336
330
337
330
338
330
339
330
33A
330
33B
330
33C
330
33D
330
33E
330
33F
330
340
330
341
330
342
330
343
330
344
330
345
330
346
330
347
330
348
330
349
330
34A
330
34B
330
34C
330
34D
330
34E
330
34F
330
350
330
351
330
352
330
353
330
354
330
355
330
356
330
357
330
358
330
359
330
35A
330
35B
330
35C
330
35D
330
35E
330
35F
330
360
330
361
330
362
330
363
330
364
330
365
330
366
330
367
330
368
330
369
330
36A
330
36B
330
36C
330
36D
330
36E
330
36F
330
370
330
371
330
372
330
373
330
374
330
375
330
376
330
377
330
378
330
379
330
37A
330
37B
330
37C
330
37D
330
37E
330
37F
330
380
330
381
330
382
330
383
330
384
330
385
330
386
330
387
330
388
330
389
330
38A
330
38B
330
38C
330
38D
330
38E
330
38F
330
390
330
391
330
392
330
393
330
394
330
395
330
396
330
397
330
398
330
399
330
39A
330
39B
330
39C
330
39D
330
39E
330
39F
 92
1
 93
6
 72
2
 10
12.2949101208
 20
2.5184523265
 40
0.0024749995
 50
179.9999571957
 51
270.0000428043
 73
1
 72
1
 10
12.2924351213
 20
2.5184523283
 11
12.2924351213
 21
2.5308273352
 72
2
 10
12.2949101208
 20
2.530827337
 40
0.0024749995
 50
89.9999571957
 51
180.0000428043
 73
1
 72
1
 10
12.2949101227
 20
2.5333023366
 11
12.3362731456
 21
2.5333023366
 72
2
 10
12.3362731456
 20
2.5246398318
 40
0.0086625048
 50
270.0
 51
90.0
 73
1
 72
1
 10
12.3362731456
 20
2.515977327
 11
12.2949101227
 21
2.515977327
 97
267
330
295
330
296
330
297
330
298
330
299
330
29A
330
29B
330
29C
330
29D
330
29E
330
29F
330
2A0
330
2A1
330
2A2
330
2A3
330
2A4
330
2A5
330
2A6
330
2A7
330
2A8
330
2A9
330
2AA
330
2AB
330
2AC
330
2AD
330
2AE
330
2AF
330
2B0
330
2B1
330
2B2
330
2B3
330
2B4
330
2B5
330
2B6
330
2B7
330
2B8
330
2B9
330
2BA
330
2BB
330
2BC
330
2BD
330
2BE
330
2BF
330
2C0
330
2C1
330
2C2
330
2C3
330
2C4
330
2C5
330
2C6
330
2C7
330
2C8
330
2C9
330
2CA
330
2CB
330
2CC
330
2CD
330
2CE
330
2CF
330
2D0
330
2D1
330
2D2
330
2D3
330
2D4
330
2D5
330
2D6
330
2D7
330
2D8
330
2D9
330
2DA
330
2DB
330
2DC
330
2DD
330
2DE
330
2DF
330
2E0
330
2E1
330
2E2
330
2E3
330
2E4
330
2E5
330
2E6
330
2E7
330
2E8
330
2E9
330
2EA
330
2EB
330
2EC
330
2ED
330
2EE
330
2EF
330
2F0
330
2F1
330
2F2
330
2F3
330
2F4
330
2F5
330
2F6
330
2F7
330
2F8
330
2F9
330
2FA
330
2FB
330
2FC
330
2FD
330
2FE
330
2FF
330
300
330
301
330
302
330
303
330
304
330
305
330
306
330
307
330
308
330
309
330
30A
330
30B
330
30C
330
30D
330
30E
330
30F
330
310
330
311
330
312
330
313
330
314
330
315
330
316
330
317
330
318
330
319
330
31A
330
31B
330
31C
330
31D
330
31E
330
31F
330
320
330
321
330
322
330
323
330
324
330
325
330
326
330
327
330
328
330
329
330
32A
330
32B
330
32C
330
32D
330
32E
330
32F
330
330
330
331
330
332
330
333
330
334
330
335
330
336
330
337
330
338
330
339
330
33A
330
33B
330
33C
330
33D
330
33E
330
33F
330
340
330
341
330
342
330
343
330
344
330
345
330
346
330
347
330
348
330
349
330
34A
330
34B
330
34C
330
34D
330
34E
330
34F
330
350
330
351
330
352
330
353
330
354
330
355
330
356
330
357
330
358
330
359
330
35A
330
35B
330
35C
330
35D
330
35E
330
35F
330
360
330
361
330
362
330
363
330
364
330
365
330
366
330
367
330
368
330
369
330
36A
330
36B
330
36C
330
36D
330
36E
330
36F
330
370
330
371
330
372
330
373
330
374
330
375
330
376
330
377
330
378
330
379
330
37A
330
37B
330
37C
330
37D
330
37E
330
37F
330
380
330
381
330
382
330
383
330
384
330
385
330
386
330
387
330
388
330
389
330
38A
330
38B
330
38C
330
38D
330
38E
330
38F
330
390
330
391
330
392
330
393
330
394
330
395
330
396
330
397
330
398
330
399
330
39A
330
39B
330
39C
330
39D
330
39E
330
39F
 92
1
 93
13
 72
2
 10
13.4883447827
 20
2.5520823451
 40
0.0024749995
 50
179.9999571957
 51
270.0000428042
 73
1
 72
1
 10
13.4858697831
 20
2.552082347
 11
13.4858697831
 21
2.564807354
 72
2
 10
13.4883447827
 20
2.5648073559
 40
0.0024749995
 50
89.9999571958
 51
180.0000428043
 73
1
 72
1
 10
13.4883447845
 20
2.5672823554
 11
13.5251458049
 21
2.5672823554
 72
2
 10
13.5236009174
 20
2.5388278764
 40
0.0284963867
 50
70.3834917948
 51
86.8922743861
 73
1
 72
2
 10
13.5284605274
 20
2.5518696094
 40
0.0145814632
 50
54.6746025112
 51
71.1660573124
 73
1
 72
2
 10
13.5335900184
 20
2.5587235346
 40
0.0060275915
 50
20.9055592135
 51
56.7851676243
 73
1
 72
2
 10
13.5348905773
 20
2.5593838168
 40
0.0045795888
 50
355.6235353944
 51
18.9942678268
 73
1
 72
2
 10
13.533683767
 20
2.559677593
 40
0.0058087709
 50
318.8515287446
 51
353.6422345323
 73
1
 72
2
 10
13.5295131508
 20
2.5629115009
 40
0.0110815393
 50
306.758405961
 51
320.4502234234
 73
1
 72
2
 10
13.5238839599
 20
2.5706523294
 40
0.0206523367
 50
289.6883413472
 51
306.4184925496
 73
1
 72
2
 10
13.5219564542
 20
2.5750459767
 40
0.0254407115
 50
270.7327484175
 51
290.441894219
 73
1
 72
1
 10
13.5222818033
 20
2.5496073456
 11
13.4883447845
 21
2.5496073456
 97
267
330
295
330
296
330
297
330
298
330
299
330
29A
330
29B
330
29C
330
29D
330
29E
330
29F
330
2A0
330
2A1
330
2A2
330
2A3
330
2A4
330
2A5
330
2A6
330
2A7
330
2A8
330
2A9
330
2AA
330
2AB
330
2AC
330
2AD
330
2AE
330
2AF
330
2B0
330
2B1
330
2B2
330
2B3
330
2B4
330
2B5
330
2B6
330
2B7
330
2B8
330
2B9
330
2BA
330
2BB
330
2BC
330
2BD
330
2BE
330
2BF
330
2C0
330
2C1
330
2C2
330
2C3
330
2C4
330
2C5
330
2C6
330
2C7
330
2C8
330
2C9
330
2CA
330
2CB
330
2CC
330
2CD
330
2CE
330
2CF
330
2D0
330
2D1
330
2D2
330
2D3
330
2D4
330
2D5
330
2D6
330
2D7
330
2D8
330
2D9
330
2DA
330
2DB
330
2DC
330
2DD
330
2DE
330
2DF
330
2E0
330
2E1
330
2E2
330
2E3
330
2E4
330
2E5
330
2E6
330
2E7
330
2E8
330
2E9
330
2EA
330
2EB
330
2EC
330
2ED
330
2EE
330
2EF
330
2F0
330
2F1
330
2F2
330
2F3
330
2F4
330
2F5
330
2F6
330
2F7
330
2F8
330
2F9
330
2FA
330
2FB
330
2FC
330
2FD
330
2FE
330
2FF
330
300
330
301
330
302
330
303
330
304
330
305
330
306
330
307
330
308
330
309
330
30A
330
30B
330
30C
330
30D
330
30E
330
30F
330
310
330
311
330
312
330
313
330
314
330
315
330
316
330
317
330
318
330
319
330
31A
330
31B
330
31C
330
31D
330
31E
330
31F
330
320
330
321
330
322
330
323
330
324
330
325
330
326
330
327
330
328
330
329
330
32A
330
32B
330
32C
330
32D
330
32E
330
32F
330
330
330
331
330
332
330
333
330
334
330
335
330
336
330
337
330
338
330
339
330
33A
330
33B
330
33C
330
33D
330
33E
330
33F
330
340
330
341
330
342
330
343
330
344
330
345
330
346
330
347
330
348
330
349
330
34A
330
34B
330
34C
330
34D
330
34E
330
34F
330
350
330
351
330
352
330
353
330
354
330
355
330
356
330
357
330
358
330
359
330
35A
330
35B
330
35C
330
35D
330
35E
330
35F
330
360
330
361
330
362
330
363
330
364
330
365
330
366
330
367
330
368
330
369
330
36A
330
36B
330
36C
330
36D
330
36E
330
36F
330
370
330
371
330
372
330
373
330
374
330
375
330
376
330
377
330
378
330
379
330
37A
330
37B
330
37C
330
37D
330
37E
330
37F
330
380
330
381
330
382
330
383
330
384
330
385
330
386
330
387
330
388
330
389
330
38A
330
38B
330
38C
330
38D
330
38E
330
38F
330
390
330
391
330
392
330
393
330
394
330
395
330
396
330
397
330
398
330
399
330
39A
330
39B
330
39C
330
39D
330
39E
330
39F
 92
1
 93
6
 72
2
 10
12.3362731456
 20
2.5586198506
 40
0.0086625048
 50
270.0
 51
90.0
 73
1
 72
1
 10
12.3362731456
 20
2.5672823554
 11
12.2949101227
 21
2.5672823554
 72
2
 10
12.2949101208
 20
2.5648073559
 40
0.0024749995
 50
89.9999571957
 51
180.0000428043
 73
1
 72
1
 10
12.2924351213
 20
2.564807354
 11
12.2924351213
 21
2.5524323472
 72
2
 10
12.2949101208
 20
2.5524323453
 40
0.0024749995
 50
179.9999571957
 51
270.0000428043
 73
1
 72
1
 10
12.2949101227
 20
2.5499573458
 11
12.3362731456
 21
2.5499573458
 97
267
330
295
330
296
330
297
330
298
330
299
330
29A
330
29B
330
29C
330
29D
330
29E
330
29F
330
2A0
330
2A1
330
2A2
330
2A3
330
2A4
330
2A5
330
2A6
330
2A7
330
2A8
330
2A9
330
2AA
330
2AB
330
2AC
330
2AD
330
2AE
330
2AF
330
2B0
330
2B1
330
2B2
330
2B3
330
2B4
330
2B5
330
2B6
330
2B7
330
2B8
330
2B9
330
2BA
330
2BB
330
2BC
330
2BD
330
2BE
330
2BF
330
2C0
330
2C1
330
2C2
330
2C3
330
2C4
330
2C5
330
2C6
330
2C7
330
2C8
330
2C9
330
2CA
330
2CB
330
2CC
330
2CD
330
2CE
330
2CF
330
2D0
330
2D1
330
2D2
330
2D3
330
2D4
330
2D5
330
2D6
330
2D7
330
2D8
330
2D9
330
2DA
330
2DB
330
2DC
330
2DD
330
2DE
330
2DF
330
2E0
330
2E1
330
2E2
330
2E3
330
2E4
330
2E5
330
2E6
330
2E7
330
2E8
330
2E9
330
2EA
330
2EB
330
2EC
330
2ED
330
2EE
330
2EF
330
2F0
330
2F1
330
2F2
330
2F3
330
2F4
330
2F5
330
2F6
330
2F7
330
2F8
330
2F9
330
2FA
330
2FB
330
2FC
330
2FD
330
2FE
330
2FF
330
300
330
301
330
302
330
303
330
304
330
305
330
306
330
307
330
308
330
309
330
30A
330
30B
330
30C
330
30D
330
30E
330
30F
330
310
330
311
330
312
330
313
330
314
330
315
330
316
330
317
330
318
330
319
330
31A
330
31B
330
31C
330
31D
330
31E
330
31F
330
320
330
321
330
322
330
323
330
324
330
325
330
326
330
327
330
328
330
329
330
32A
330
32B
330
32C
330
32D
330
32E
330
32F
330
330
330
331
330
332
330
333
330
334
330
335
330
336
330
337
330
338
330
339
330
33A
330
33B
330
33C
330
33D
330
33E
330
33F
330
340
330
341
330
342
330
343
330
344
330
345
330
346
330
347
330
348
330
349
330
34A
330
34B
330
34C
330
34D
330
34E
330
34F
330
350
330
351
330
352
330
353
330
354
330
355
330
356
330
357
330
358
330
359
330
35A
330
35B
330
35C
330
35D
330
35E
330
35F
330
360
330
361
330
362
330
363
330
364
330
365
330
366
330
367
330
368
330
369
330
36A
330
36B
330
36C
330
36D
330
36E
330
36F
330
370
330
371
330
372
330
373
330
374
330
375
330
376
330
377
330
378
330
379
330
37A
330
37B
330
37C
330
37D
330
37E
330
37F
330
380
330
381
330
382
330
383
330
384
330
385
330
386
330
387
330
388
330
389
330
38A
330
38B
330
38C
330
38D
330
38E
330
38F
330
390
330
391
330
392
330
393
330
394
330
395
330
396
330
397
330
398
330
399
330
39A
330
39B
330
39C
330
39D
330
39E
330
39F
 92
1
 93
8
 72
2
 10
12.5401702375
 20
2.5530465533
 40
0.0024752071
 50
270.0004896793
 51
32.9089806818
 73
1
 72
1
 10
12.5422482598
 20
2.5543913483
 11
12.5349892558
 21
2.5656073545
 72
2
 10
12.532910715
 20
2.564262895
 40
0.0024754602
 50
32.8959418573
 51
89.9875097202
 73
1
 72
1
 10
12.5329112547
 20
2.5667383551
 11
12.5267302512
 21
2.5667383551
 72
2
 10
12.5267301809
 20
2.5642631548
 40
0.0024752003
 50
89.998372645
 51
147.602165307
 73
1
 72
1
 10
12.5246402501
 20
2.5655893545
 11
12.5175232461
 21
2.5543723483
 72
2
 10
12.519613138
 20
2.5530463862
 40
0.0024750401
 50
147.6063258012
 51
270.0025305754
 73
1
 72
1
 10
12.5196132473
 20
2.5505713461
 11
12.5401702587
 21
2.5505713461
 97
267
330
295
330
296
330
297
330
298
330
299
330
29A
330
29B
330
29C
330
29D
330
29E
330
29F
330
2A0
330
2A1
330
2A2
330
2A3
330
2A4
330
2A5
330
2A6
330
2A7
330
2A8
330
2A9
330
2AA
330
2AB
330
2AC
330
2AD
330
2AE
330
2AF
330
2B0
330
2B1
330
2B2
330
2B3
330
2B4
330
2B5
330
2B6
330
2B7
330
2B8
330
2B9
330
2BA
330
2BB
330
2BC
330
2BD
330
2BE
330
2BF
330
2C0
330
2C1
330
2C2
330
2C3
330
2C4
330
2C5
330
2C6
330
2C7
330
2C8
330
2C9
330
2CA
330
2CB
330
2CC
330
2CD
330
2CE
330
2CF
330
2D0
330
2D1
330
2D2
330
2D3
330
2D4
330
2D5
330
2D6
330
2D7
330
2D8
330
2D9
330
2DA
330
2DB
330
2DC
330
2DD
330
2DE
330
2DF
330
2E0
330
2E1
330
2E2
330
2E3
330
2E4
330
2E5
330
2E6
330
2E7
330
2E8
330
2E9
330
2EA
330
2EB
330
2EC
330
2ED
330
2EE
330
2EF
330
2F0
330
2F1
330
2F2
330
2F3
330
2F4
330
2F5
330
2F6
330
2F7
330
2F8
330
2F9
330
2FA
330
2FB
330
2FC
330
2FD
330
2FE
330
2FF
330
300
330
301
330
302
330
303
330
304
330
305
330
306
330
307
330
308
330
309
330
30A
330
30B
330
30C
330
30D
330
30E
330
30F
330
310
330
311
330
312
330
313
330
314
330
315
330
316
330
317
330
318
330
319
330
31A
330
31B
330
31C
330
31D
330
31E
330
31F
330
320
330
321
330
322
330
323
330
324
330
325
330
326
330
327
330
328
330
329
330
32A
330
32B
330
32C
330
32D
330
32E
330
32F
330
330
330
331
330
332
330
333
330
334
330
335
330
336
330
337
330
338
330
339
330
33A
330
33B
330
33C
330
33D
330
33E
330
33F
330
340
330
341
330
342
330
343
330
344
330
345
330
346
330
347
330
348
330
349
330
34A
330
34B
330
34C
330
34D
330
34E
330
34F
330
350
330
351
330
352
330
353
330
354
330
355
330
356
330
357
330
358
330
359
330
35A
330
35B
330
35C
330
35D
330
35E
330
35F
330
360
330
361
330
362
330
363
330
364
330
365
330
366
330
367
330
368
330
369
330
36A
330
36B
330
36C
330
36D
330
36E
330
36F
330
370
330
371
330
372
330
373
330
374
330
375
330
376
330
377
330
378
330
379
330
37A
330
37B
330
37C
330
37D
330
37E
330
37F
330
380
330
381
330
382
330
383
330
384
330
385
330
386
330
387
330
388
330
389
330
38A
330
38B
330
38C
330
38D
330
38E
330
38F
330
390
330
391
330
392
330
393
330
394
330
395
330
396
330
397
330
398
330
399
330
39A
330
39B
330
39C
330
39D
330
39E
330
39F
 92
1
 93
1
 72
3
 10
12.9046654608
 20
2.5403783405
 11
-0.8250004575
 21
0.0
 40
0.218572
 50
0.0
 51
-0.0
 73
1
 97
267
330
295
330
296
330
297
330
298
330
299
330
29A
330
29B
330
29C
330
29D
330
29E
330
29F
330
2A0
330
2A1
330
2A2
330
2A3
330
2A4
330
2A5
330
2A6
330
2A7
330
2A8
330
2A9
330
2AA
330
2AB
330
2AC
330
2AD
330
2AE
330
2AF
330
2B0
330
2B1
330
2B2
330
2B3
330
2B4
330
2B5
330
2B6
330
2B7
330
2B8
330
2B9
330
2BA
330
2BB
330
2BC
330
2BD
330
2BE
330
2BF
330
2C0
330
2C1
330
2C2
330
2C3
330
2C4
330
2C5
330
2C6
330
2C7
330
2C8
330
2C9
330
2CA
330
2CB
330
2CC
330
2CD
330
2CE
330
2CF
330
2D0
330
2D1
330
2D2
330
2D3
330
2D4
330
2D5
330
2D6
330
2D7
330
2D8
330
2D9
330
2DA
330
2DB
330
2DC
330
2DD
330
2DE
330
2DF
330
2E0
330
2E1
330
2E2
330
2E3
330
2E4
330
2E5
330
2E6
330
2E7
330
2E8
330
2E9
330
2EA
330
2EB
330
2EC
330
2ED
330
2EE
330
2EF
330
2F0
330
2F1
330
2F2
330
2F3
330
2F4
330
2F5
330
2F6
330
2F7
330
2F8
330
2F9
330
2FA
330
2FB
330
2FC
330
2FD
330
2FE
330
2FF
330
300
330
301
330
302
330
303
330
304
330
305
330
306
330
307
330
308
330
309
330
30A
330
30B
330
30C
330
30D
330
30E
330
30F
330
310
330
311
330
312
330
313
330
314
330
315
330
316
330
317
330
318
330
319
330
31A
330
31B
330
31C
330
31D
330
31E
330
31F
330
320
330
321
330
322
330
323
330
324
330
325
330
326
330
327
330
328
330
329
330
32A
330
32B
330
32C
330
32D
330
32E
330
32F
330
330
330
331
330
332
330
333
330
334
330
335
330
336
330
337
330
338
330
339
330
33A
330
33B
330
33C
330
33D
330
33E
330
33F
330
340
330
341
330
342
330
343
330
344
330
345
330
346
330
347
330
348
330
349
330
34A
330
34B
330
34C
330
34D
330
34E
330
34F
330
350
330
351
330
352
330
353
330
354
330
355
330
356
330
357
330
358
330
359
330
35A
330
35B
330
35C
330
35D
330
35E
330
35F
330
360
330
361
330
362
330
363
330
364
330
365
330
366
330
367
330
368
330
369
330
36A
330
36B
330
36C
330
36D
330
36E
330
36F
330
370
330
371
330
372
330
373
330
374
330
375
330
376
330
377
330
378
330
379
330
37A
330
37B
330
37C
330
37D
330
37E
330
37F
330
380
330
381
330
382
330
383
330
384
330
385
330
386
330
387
330
388
330
389
330
38A
330
38B
330
38C
330
38D
330
38E
330
38F
330
390
330
391
330
392
330
393
330
394
330
395
330
396
330
397
330
398
330
399
330
39A
330
39B
330
39C
330
39D
330
39E
330
39F
 75
0
 76
1
 98
1
 10
0.0
 20
0.0
  0
LINE
  5
3A1
100
AcDbEntity
  8
0
100
AcDbLine
 62
7
  6
CONTINUOUS
 10
8.5
 20
10.112
 11
8.586603
 21
10.262
  0
LINE
  5
3A2
100
AcDbEntity
  8
0
100
AcDbLine
 62
7
  6
CONTINUOUS
 10
16.38
 20
2.807
 11
10.03
 21
2.807
  0
LINE
  5
3A3
100
AcDbEntity
  8
0
100
AcDbLine
 62
7
  6
CONTINUOUS
 10
0.62
 20
3.1995
 11
0.37
 21
3.1995
  0
LINE
  5
3A4
100
AcDbEntity
  8
0
100
AcDbLine
 62
7
  6
CONTINUOUS
 10
16.38
 20
3.1995
 11
16.63
 21
3.1995
  0
LINE
  5
3A5
100
AcDbEntity
  8
0
100
AcDbLine
 62
7
  6
CONTINUOUS
 10
8.586603
 20
0.737
 11
8.5
 21
0.887
  0
LINE
  5
3A6
100
AcDbEntity
  8
0
100
AcDbLine
 62
7
  6
CONTINUOUS
 10
6.53
 20
0.887
 11
6.53
 21
0.637
  0
LINE
  5
3A7
100
AcDbEntity
  8
0
100
AcDbLine
 62
7
  6
CONTINUOUS
 10
6.53
 20
10.112
 11
6.53
 21
10.362
  0
LINE
  5
3A8
100
AcDbEntity
  8
0
100
AcDbLine
 62
7
  6
CONTINUOUS
 10
8.5
 20
0.887
 11
8.5
 21
0.637
  0
LINE
  5
3A9
100
AcDbEntity
  8
0
100
AcDbLine
 62
7
  6
CONTINUOUS
 10
8.5
 20
10.112
 11
8.5
 21
10.362
  0
LINE
  5
3AA
100
AcDbEntity
  8
0
100
AcDbLine
 62
7
  6
CONTINUOUS
 10
0.62
 20
5.4995
 11
0.37
 21
5.4995
  0
LINE
  5
3AB
100
AcDbEntity
  8
0
100
AcDbLine
 62
7
  6
CONTINUOUS
 10
16.38
 20
5.4995
 11
16.63
 21
5.4995
  0
LINE
  5
3AC
100
AcDbEntity
  8
0
100
AcDbLine
 62
7
  6
CONTINUOUS
 10
10.03
 20
2.807
 11
10.03
 21
0.887
  0
LINE
  5
3AD
100
AcDbEntity
  8
0
100
AcDbLine
 62
7
  6
CONTINUOUS
 10
10.47
 20
0.887
 11
10.47
 21
0.637
  0
LINE
  5
3AE
100
AcDbEntity
  8
0
100
AcDbLine
 62
7
  6
CONTINUOUS
 10
10.47
 20
10.112
 11
10.47
 21
10.362
  0
LINE
  5
3AF
100
AcDbEntity
  8
0
100
AcDbLine
 62
7
  6
CONTINUOUS
 10
10.5342808475
 20
1.143294839
 11
10.5342808475
 21
0.921203839
  0
LINE
  5
3B0
100
AcDbEntity
  8
0
100
AcDbLine
 62
7
  6
CONTINUOUS
 10
10.5342808475
 20
1.193294839
 11
10.5342808475
 21
1.293294839
  0
LINE
  5
3B1
100
AcDbEntity
  8
0
100
AcDbLine
 62
7
  6
CONTINUOUS
 10
10.5342808475
 20
1.343294839
 11
10.5342808475
 21
1.565385839
  0
LINE
  5
3B2
100
AcDbEntity
  8
0
100
AcDbLine
 62
7
  6
CONTINUOUS
 10
8.5
 20
0.887
 11
8.413397
 21
0.737
  0
LINE
  5
3B3
100
AcDbEntity
  8
0
100
AcDbLine
 62
7
  6
CONTINUOUS
 10
0.62
 20
7.7995
 11
0.37
 21
7.7995
  0
LINE
  5
3B4
100
AcDbEntity
  8
0
100
AcDbLine
 62
7
  6
CONTINUOUS
 10
16.38
 20
7.7995
 11
16.63
 21
7.7995
  0
LINE
  5
3B5
100
AcDbEntity
  8
0
100
AcDbLine
 62
7
  6
CONTINUOUS
 10
8.413397
 20
10.262
 11
8.5
 21
10.112
  0
LINE
  5
3B6
100
AcDbEntity
  8
0
100
AcDbLine
 62
7
  6
CONTINUOUS
 10
11.1389508475
 20
1.060596839
 11
11.1389508475
 21
1.425992839
  0
LINE
  5
3B7
100
AcDbEntity
  8
0
100
AcDbLine
 62
7
  6
CONTINUOUS
 10
11.7453418475
 20
1.495385839
 11
11.7453418475
 21
0.991203839
  0
LINE
  5
3B8
100
AcDbEntity
  8
0
100
AcDbLine
 62
7
  6
CONTINUOUS
 10
12.44
 20
0.887
 11
12.44
 21
0.637
  0
LINE
  5
3B9
100
AcDbEntity
  8
0
100
AcDbLine
 62
7
  6
CONTINUOUS
 10
12.44
 20
10.112
 11
12.44
 21
10.362
  0
LINE
  5
3BA
100
AcDbEntity
  8
0
100
AcDbLine
 62
7
  6
CONTINUOUS
 10
16.53
 20
5.586103
 11
16.38
 21
5.4995
  0
LINE
  5
3BB
100
AcDbEntity
  8
0
100
AcDbLine
 62
7
  6
CONTINUOUS
 10
16.38
 20
5.4995
 11
16.53
 21
5.412897
  0
LINE
  5
3BC
100
AcDbEntity
  8
0
100
AcDbLine
 62
7
  6
CONTINUOUS
 10
12.83
 20
1.507
 11
12.83
 21
1.137
  0
LINE
  5
3BD
100
AcDbEntity
  8
0
100
AcDbLine
 62
7
  6
CONTINUOUS
 10
16.38
 20
10.112
 11
0.62
 21
10.112
  0
LINE
  5
3BE
100
AcDbEntity
  8
0
100
AcDbLine
 62
7
  6
CONTINUOUS
 10
8.586603
 20
10.262
 11
8.413397
 21
10.262
  0
LINE
  5
3BF
100
AcDbEntity
  8
0
100
AcDbLine
 62
7
  6
CONTINUOUS
 10
14.205
 20
1.137
 11
14.205
 21
0.887
  0
LINE
  5
3C0
100
AcDbEntity
  8
0
100
AcDbLine
 62
7
  6
CONTINUOUS
 10
14.41
 20
0.887
 11
14.41
 21
0.637
  0
LINE
  5
3C1
100
AcDbEntity
  8
0
100
AcDbLine
 62
7
  6
CONTINUOUS
 10
14.41
 20
10.112
 11
14.41
 21
10.362
  0
LINE
  5
3C2
100
AcDbEntity
  8
0
100
AcDbLine
 62
7
  6
CONTINUOUS
 10
15.58
 20
1.507
 11
15.58
 21
1.137
  0
LINE
  5
3C3
100
AcDbEntity
  8
0
100
AcDbLine
 62
7
  6
CONTINUOUS
 10
16.38
 20
0.887
 11
16.38
 21
10.112
  0
LINE
  5
3C4
100
AcDbEntity
  8
0
100
AcDbLine
 62
7
  6
CONTINUOUS
 10
16.53
 20
5.412897
 11
16.53
 21
5.586103
  0
LINE
  5
3C5
100
AcDbEntity
  8
0
100
AcDbLine
 62
7
  6
CONTINUOUS
 10
2.6978634568
 20
5.656439998
 11
2.7726666064
 21
5.656439998
  0
LINE
  5
3C6
100
AcDbEntity
  8
0
100
AcDbLine
 62
7
  6
CONTINUOUS
 10
2.6978634568
 20
6.0206132264
 11
2.6978634568
 21
5.656439998
  0
LINE
  5
3C7
100
AcDbEntity
  8
02___PRT_ALL_AXES
100
AcDbLine
 62
7
  6
CENTER
 10
2.7352650316
 20
5.8631329114
 11
2.7352650316
 21
4.7788809429
  0
LINE
  5
3C8
100
AcDbEntity
  8
02___PRT_ALL_AXES
100
AcDbLine
 62
7
  6
CENTER
 10
2.7352650316
 20
5.8631329114
 11
2.7352650316
 21
6.9473848799
  0
LINE
  5
3C9
100
AcDbEntity
  8
02___PRT_ALL_AXES
100
AcDbLine
 62
7
  6
CENTER
 10
2.7352650316
 20
5.8631329114
 11
1.6510130631
 21
5.8631329114
  0
LINE
  5
3CA
100
AcDbEntity
  8
02___PRT_ALL_AXES
100
AcDbLine
 62
7
  6
CENTER
 10
2.7352650316
 20
5.8631329114
 11
3.8195170001
 21
5.8631329114
  0
LINE
  5
3CB
100
AcDbEntity
  8
0
100
AcDbLine
 62
7
  6
CONTINUOUS
 10
2.7726666064
 20
5.656439998
 11
2.7726666064
 21
6.0206132264
  0
LINE
  5
3CC
100
AcDbEntity
  8
0
100
AcDbLine
 62
7
  6
CONTINUOUS
 10
2.7726666064
 20
6.0206132264
 11
2.6978634568
 21
6.0206132264
  0
LINE
  5
3CD
100
AcDbEntity
  8
AXIS
100
AcDbLine
 62
7
  6
CONTINUOUS
 10
4.6127549537
 20
5.5249478976
 11
4.6127549537
 21
6.2013179251
  0
LINE
  5
3CE
100
AcDbEntity
  8
AXIS
100
AcDbLine
 62
7
  6
CONTINUOUS
 10
4.852912434
 20
5.40742425
 11
4.852912434
 21
6.3188415728
  0
LINE
  5
3CF
100
AcDbEntity
  8
AXIS
100
AcDbLine
 62
7
  6
CONTINUOUS
 10
4.8568494418
 20
6.3552588956
 11
4.8568494418
 21
5.3710069271
  0
LINE
  5
3D0
100
AcDbEntity
  8
AXIS
100
AcDbLine
 62
7
  6
CONTINUOUS
 10
4.8962195206
 20
6.3552588956
 11
4.8962195206
 21
5.3710069271
  0
LINE
  5
3D1
100
AcDbEntity
  8
02___PRT_ALL_AXES
100
AcDbLine
 62
7
  6
CONTINUOUS
 10
5.763934627
 20
6.8473848799
 11
5.763934627
 21
4.8788809429
  0
LINE
  5
3D2
100
AcDbEntity
  8
0
100
AcDbLine
 62
7
  6
CONTINUOUS
 10
6.2363755719
 20
4.8788809429
 11
6.2363755719
 21
6.8473848799
  0
LINE
  5
3D3
100
AcDbEntity
  8
0
100
AcDbLine
 62
7
  6
CONTINUOUS
 10
6.2757456506
 20
4.9182510216
 11
6.2757456506
 21
6.8080148012
  0
LINE
  5
3D4
100
AcDbEntity
  8
0
100
AcDbLine
 62
7
  6
CONTINUOUS
 10
6.3151157293
 20
6.4044714941
 11
6.3151157293
 21
5.3217943287
  0
LINE
  5
3D5
100
AcDbEntity
  8
02___PRT_ALL_AXES
100
AcDbLine
 62
7
  6
CONTINUOUS
 10
5.763934627
 20
4.8788809429
 11
6.2363755719
 21
4.8788809429
  0
LINE
  5
3D6
100
AcDbEntity
  8
0
100
AcDbLine
 62
7
  6
CONTINUOUS
 10
6.3151157293
 20
5.3217943287
 11
6.3974563263
 21
5.3217943287
  0
LINE
  5
3D7
100
AcDbEntity
  8
02___PRT_ALL_AXES
100
AcDbLine
 62
7
  6
CONTINUOUS
 10
6.3974563263
 20
5.3217943287
 11
6.9772488651
 21
5.3217943287
  0
LINE
  5
3D8
100
AcDbEntity
  8
0
100
AcDbLine
 62
7
  6
CONTINUOUS
 10
6.9772488651
 20
5.3217943287
 11
7.0237771467
 21
5.3217943287
  0
LINE
  5
3D9
100
AcDbEntity
  8
AXIS
100
AcDbLine
 62
7
  6
CONTINUOUS
 10
4.8568494418
 20
5.3710069271
 11
4.8962195206
 21
5.3710069271
  0
LINE
  5
3DA
100
AcDbEntity
  8
AXIS
100
AcDbLine
 62
7
  6
CONTINUOUS
 10
4.8962195206
 20
5.3936447224
 11
4.8992981221
 21
5.3936447224
  0
LINE
  5
3DB
100
AcDbEntity
  8
AXIS
100
AcDbLine
 62
7
  6
CONTINUOUS
 10
4.8568494418
 20
5.40742425
 11
4.852912434
 21
5.40742425
  0
LINE
  5
3DC
100
AcDbEntity
  8
0
100
AcDbLine
 62
7
  6
CONTINUOUS
 10
7.0237771467
 20
5.3217943287
 11
7.0237771467
 21
6.4044714941
  0
LINE
  5
3DD
100
AcDbEntity
  8
0
100
AcDbLine
 62
7
  6
CONTINUOUS
 10
7.0631472254
 20
5.3611644075
 11
7.0631472254
 21
6.3651014153
  0
LINE
  5
3DE
100
AcDbEntity
  8
AXIS_COSMETIC_THREADS
100
AcDbLine
 62
7
  6
CONTINUOUS
 10
7.0631472254
 20
5.7466329114
 11
9.5907062805
 21
5.7466329114
  0
LINE
  5
3DF
100
AcDbEntity
  8
AXIS
100
AcDbLine
 62
7
  6
CONTINUOUS
 10
9.5907062805
 20
5.7981329114
 11
9.8907062805
 21
5.7981329114
  0
LINE
  5
3E0
100
AcDbEntity
  8
AXIS
100
AcDbLine
 62
7
  6
CONTINUOUS
 10
9.5907062805
 20
5.8481329114
 11
9.8907062805
 21
5.8481329114
  0
LINE
  5
3E1
100
AcDbEntity
  8
AXIS
100
AcDbLine
 62
7
  6
CONTINUOUS
 10
9.5907062805
 20
5.8781329114
 11
9.8907062805
 21
5.8781329114
  0
LINE
  5
3E2
100
AcDbEntity
  8
AXIS
100
AcDbLine
 62
7
  6
CONTINUOUS
 10
9.5907062805
 20
5.9281329114
 11
9.8907062805
 21
5.9281329114
  0
LINE
  5
3E3
100
AcDbEntity
  8
AXIS_COSMETIC_THREADS
100
AcDbLine
 62
7
  6
CONTINUOUS
 10
7.0631472254
 20
5.9796329114
 11
9.5907062805
 21
5.9796329114
  0
LINE
  5
3E4
100
AcDbEntity
  8
AXIS
100
AcDbLine
 62
7
  6
CONTINUOUS
 10
4.8568494418
 20
6.3188415728
 11
4.852912434
 21
6.3188415728
  0
LINE
  5
3E5
100
AcDbEntity
  8
AXIS
100
AcDbLine
 62
7
  6
CONTINUOUS
 10
4.8962195206
 20
6.3326211004
 11
4.8992981221
 21
6.3326211004
  0
LINE
  5
3E6
100
AcDbEntity
  8
AXIS
100
AcDbLine
 62
7
  6
CONTINUOUS
 10
4.8568494418
 20
6.3552588956
 11
4.8962195206
 21
6.3552588956
  0
LINE
  5
3E7
100
AcDbEntity
  8
0
100
AcDbLine
 62
7
  6
CONTINUOUS
 10
6.3151157293
 20
6.4044714941
 11
6.3714865306
 21
6.4044714941
  0
LINE
  5
3E8
100
AcDbEntity
  8
02___PRT_ALL_AXES
100
AcDbLine
 62
7
  6
CONTINUOUS
 10
6.3714865306
 20
6.4044714941
 11
6.9512790694
 21
6.4044714941
  0
LINE
  5
3E9
100
AcDbEntity
  8
0
100
AcDbLine
 62
7
  6
CONTINUOUS
 10
6.9512790694
 20
6.4044714941
 11
7.0237771467
 21
6.4044714941
  0
LINE
  5
3EA
100
AcDbEntity
  8
02___PRT_ALL_AXES
100
AcDbLine
 62
7
  6
CONTINUOUS
 10
5.763934627
 20
6.8473848799
 11
6.2363755719
 21
6.8473848799
  0
LINE
  5
3EB
100
AcDbEntity
  8
AXIS_COSMETIC_THREADS
100
AcDbLine
 62
7
  6
CONTINUOUS
 10
9.5907062805
 20
5.9796329114
 11
9.5907062805
 21
5.7466329114
  0
LINE
  5
3EC
100
AcDbEntity
  8
AXIS
100
AcDbLine
 62
7
  6
CONTINUOUS
 10
9.8907062805
 20
5.9281329114
 11
9.8907062805
 21
5.8781329114
  0
LINE
  5
3ED
100
AcDbEntity
  8
AXIS
100
AcDbLine
 62
7
  6
CONTINUOUS
 10
9.8907062805
 20
5.8481329114
 11
9.8907062805
 21
5.7981329114
  0
LINE
  5
3EE
100
AcDbEntity
  8
0
100
AcDbLine
 62
7
  6
CONTINUOUS
 10
11.570043761
 20
5.28242425
 11
11.7847821884
 21
5.28242425
  0
LINE
  5
3EF
100
AcDbEntity
  8
02___PRT_ALL_AXES
100
AcDbLine
 62
7
  6
CONTINUOUS
 10
11.4514290657
 20
5.3217943287
 11
11.5737155952
 21
5.3217943287
  0
LINE
  5
3F0
100
AcDbEntity
  8
0
100
AcDbLine
 62
7
  6
CONTINUOUS
 10
11.5737155952
 20
5.3217943287
 11
11.7811103541
 21
5.3217943287
  0
LINE
  5
3F1
100
AcDbEntity
  8
02___PRT_ALL_AXES
100
AcDbLine
 62
7
  6
CONTINUOUS
 10
11.7811103541
 20
5.3217943287
 11
11.9033968837
 21
5.3217943287
  0
LINE
  5
3F2
100
AcDbEntity
  8
0
100
AcDbLine
 62
7
  6
CONTINUOUS
 10
11.5775223097
 20
5.3611644075
 11
11.7773036397
 21
5.3611644075
  0
LINE
  5
3F3
100
AcDbEntity
  8
0
100
AcDbLine
 62
7
  6
CONTINUOUS
 10
11.3624523448
 20
5.7853493023
 11
11.3624523448
 21
5.9409165205
  0
LINE
  5
3F4
100
AcDbEntity
  8
02___PRT_ALL_AXES
100
AcDbLine
 62
7
  6
CENTER
 10
11.6774129747
 20
5.8631329114
 11
11.6774129747
 21
4.7788809429
  0
LINE
  5
3F5
100
AcDbEntity
  8
02___PRT_ALL_AXES
100
AcDbLine
 62
7
  6
CENTER
 10
11.6774129747
 20
5.8631329114
 11
11.6774129747
 21
6.9473848799
  0
LINE
  5
3F6
100
AcDbEntity
  8
02___PRT_ALL_AXES
100
AcDbLine
 62
7
  6
CENTER
 10
11.6774129747
 20
5.8631329114
 11
10.5931610062
 21
5.8631329114
  0
LINE
  5
3F7
100
AcDbEntity
  8
02___PRT_ALL_AXES
100
AcDbLine
 62
7
  6
CENTER
 10
11.6774129747
 20
5.8631329114
 11
12.7616649432
 21
5.8631329114
  0
LINE
  5
3F8
100
AcDbEntity
  8
0
100
AcDbLine
 62
7
  6
CONTINUOUS
 10
11.9923736046
 20
5.9409165205
 11
11.9923736046
 21
5.7853493023
  0
LINE
  5
3F9
100
AcDbEntity
  8
0
100
AcDbLine
 62
7
  6
CONTINUOUS
 10
11.7773036397
 20
6.3651014153
 11
11.5775223097
 21
6.3651014153
  0
LINE
  5
3FA
100
AcDbEntity
  8
02___PRT_ALL_AXES
100
AcDbLine
 62
7
  6
CONTINUOUS
 10
11.9033968837
 20
6.4044714941
 11
11.7811103541
 21
6.4044714941
  0
LINE
  5
3FB
100
AcDbEntity
  8
0
100
AcDbLine
 62
7
  6
CONTINUOUS
 10
11.7811103541
 20
6.4044714941
 11
11.5737155952
 21
6.4044714941
  0
LINE
  5
3FC
100
AcDbEntity
  8
02___PRT_ALL_AXES
100
AcDbLine
 62
7
  6
CONTINUOUS
 10
11.5737155952
 20
6.4044714941
 11
11.4514290657
 21
6.4044714941
  0
LINE
  5
3FD
100
AcDbEntity
  8
0
100
AcDbLine
 62
7
  6
CONTINUOUS
 10
11.7847821884
 20
6.4438415728
 11
11.570043761
 21
6.4438415728
  0
LINE
  5
3FE
100
AcDbEntity
  8
0
100
AcDbLine
 62
7
  6
CONTINUOUS
 10
15.0759087089
 20
9.7904699559
 11
15.0474324709
 21
9.7740292903
  0
LINE
  5
3FF
100
AcDbEntity
  8
0
100
AcDbLine
 62
7
  6
CONTINUOUS
 10
14.8816750769
 20
9.6783297855
 11
14.8184004217
 21
9.6417983644
  0
LINE
  5
400
100
AcDbEntity
  8
0
100
AcDbLine
 62
7
  6
CONTINUOUS
 10
14.8712944562
 20
9.6112606702
 11
14.9345691114
 21
9.6477920913
  0
LINE
  5
401
100
AcDbEntity
  8
0
100
AcDbLine
 62
7
  6
CONTINUOUS
 10
15.1003265054
 20
9.7434915961
 11
15.1288027434
 21
9.7599322616
  0
LINE
  5
402
100
AcDbEntity
  8
02___PRT_ALL_AXES
100
AcDbLine
 62
7
  6
CONTINUOUS
 10
14.0067488226
 20
8.7741842814
 11
14.0067488226
 21
8.388435108
  0
LINE
  5
403
100
AcDbEntity
  8
02___PRT_ALL_AXES
100
AcDbLine
 62
7
  6
CONTINUOUS
 10
14.4484227823
 20
7.6669839046
 11
14.4484227823
 21
7.6730112354
  0
LINE
  5
404
100
AcDbEntity
  8
02___PRT_ALL_AXES
100
AcDbLine
 62
7
  6
CONTINUOUS
 10
14.4484227823
 20
7.7152025513
 11
14.4484227823
 21
7.7212298821
  0
LINE
  5
405
100
AcDbEntity
  8
02___PRT_ALL_AXES
100
AcDbLine
 62
7
  6
CONTINUOUS
 10
14.4484227823
 20
7.763421198
 11
14.4484227823
 21
7.7694485288
  0
LINE
  5
406
100
AcDbEntity
  8
02___PRT_ALL_AXES
100
AcDbLine
 62
7
  6
CONTINUOUS
 10
14.4484227823
 20
7.8116398447
 11
14.4484227823
 21
7.8176671755
  0
LINE
  5
407
100
AcDbEntity
  8
02___PRT_ALL_AXES
100
AcDbLine
 62
7
  6
CONTINUOUS
 10
14.4484227823
 20
7.8598584913
 11
14.4484227823
 21
7.8658858222
  0
LINE
  5
408
100
AcDbEntity
  8
AXIS
100
AcDbLine
 62
7
  6
CONTINUOUS
 10
14.4988748069
 20
9.5148215276
 11
14.4988748069
 21
9.4826757632
  0
LINE
  5
409
100
AcDbEntity
  8
02___PRT_ALL_AXES
100
AcDbLine
 62
7
  6
CONTINUOUS
 10
14.5348927766
 20
7.8430337691
 11
14.5348927766
 21
7.8342493117
  0
LINE
  5
40A
100
AcDbEntity
  8
02___PRT_ALL_AXES
100
AcDbLine
 62
7
  6
CONTINUOUS
 10
14.5348927766
 20
7.7948151224
 11
14.5348927766
 21
7.786030665
  0
LINE
  5
40B
100
AcDbEntity
  8
02___PRT_ALL_AXES
100
AcDbLine
 62
7
  6
CONTINUOUS
 10
14.5348927766
 20
7.7465964758
 11
14.5348927766
 21
7.7378120183
  0
LINE
  5
40C
100
AcDbEntity
  8
02___PRT_ALL_AXES
100
AcDbLine
 62
7
  6
CONTINUOUS
 10
14.5348927766
 20
7.6983778291
 11
14.5348927766
 21
7.6895933716
  0
LINE
  5
40D
100
AcDbEntity
  8
02___PRT_ALL_AXES
100
AcDbLine
 62
7
  6
CONTINUOUS
 10
14.5348927766
 20
7.6501591824
 11
14.5348927766
 21
7.6413747249
  0
LINE
  5
40E
100
AcDbEntity
  8
0
100
AcDbLine
 62
7
  6
CONTINUOUS
 10
14.5348927766
 20
7.6019405357
 11
14.5348927766
 21
7.5668550037
  0
LINE
  5
40F
100
AcDbEntity
  8
AXIS
100
AcDbLine
 62
7
  6
CONTINUOUS
 10
14.5352921297
 20
9.5148215276
 11
14.5352921297
 21
9.5180361041
  0
LINE
  5
410
100
AcDbEntity
  8
02___PRT_ALL_AXES
100
AcDbLine
 62
7
  6
CONTINUOUS
 10
14.6815436276
 20
7.8094903453
 11
14.6815436276
 21
7.8007058878
  0
LINE
  5
411
100
AcDbEntity
  8
02___PRT_ALL_AXES
100
AcDbLine
 62
7
  6
CONTINUOUS
 10
14.6815436276
 20
7.7612716986
 11
14.6815436276
 21
7.7524872411
  0
LINE
  5
412
100
AcDbEntity
  8
02___PRT_ALL_AXES
100
AcDbLine
 62
7
  6
CONTINUOUS
 10
14.6815436276
 20
7.7130530519
 11
14.6815436276
 21
7.7042685944
  0
LINE
  5
413
100
AcDbEntity
  8
02___PRT_ALL_AXES
100
AcDbLine
 62
7
  6
CONTINUOUS
 10
14.6815436276
 20
7.6648344052
 11
14.6815436276
 21
7.6560499478
  0
LINE
  5
414
100
AcDbEntity
  8
02___PRT_ALL_AXES
100
AcDbLine
 62
7
  6
CONTINUOUS
 10
14.6815436276
 20
7.6166157586
 11
14.6815436276
 21
7.6078313011
  0
LINE
  5
415
100
AcDbEntity
  8
02___PRT_ALL_AXES
100
AcDbLine
 62
7
  6
CONTINUOUS
 10
14.6815436276
 20
7.5683971119
 11
14.6815436276
 21
7.5596126544
  0
LINE
  5
416
100
AcDbEntity
  8
0
100
AcDbLine
 62
7
  6
CONTINUOUS
 10
14.6815436276
 20
7.5201784652
 11
14.6815436276
 21
7.4821880108
  0
LINE
  5
417
100
AcDbEntity
  8
0
100
AcDbLine
 62
7
  6
CONTINUOUS
 10
14.5414842692
 20
7.5500363305
 11
14.5438264893
 21
7.5483817863
  0
LINE
  5
418
100
AcDbEntity
  8
02___PRT_ALL_AXES
100
AcDbLine
 62
7
  6
CONTINUOUS
 10
14.7680136219
 20
7.7838811656
 11
14.7680136219
 21
7.7778538348
  0
LINE
  5
419
100
AcDbEntity
  8
02___PRT_ALL_AXES
100
AcDbLine
 62
7
  6
CONTINUOUS
 10
14.7680136219
 20
7.7356625189
 11
14.7680136219
 21
7.7296351881
  0
LINE
  5
41A
100
AcDbEntity
  8
02___PRT_ALL_AXES
100
AcDbLine
 62
7
  6
CONTINUOUS
 10
14.7680136219
 20
7.6874438722
 11
14.7680136219
 21
7.6814165414
  0
LINE
  5
41B
100
AcDbEntity
  8
02___PRT_ALL_AXES
100
AcDbLine
 62
7
  6
CONTINUOUS
 10
14.7680136219
 20
7.6392252256
 11
14.7680136219
 21
7.6331978947
  0
LINE
  5
41C
100
AcDbEntity
  8
02___PRT_ALL_AXES
100
AcDbLine
 62
7
  6
CONTINUOUS
 10
14.7680136219
 20
7.5910065789
 11
14.7680136219
 21
7.584979248
  0
LINE
  5
41D
100
AcDbEntity
  8
02___PRT_ALL_AXES
100
AcDbLine
 62
7
  6
CONTINUOUS
 10
14.7680136219
 20
7.5427879322
 11
14.7680136219
 21
7.5367606014
  0
LINE
  5
41E
100
AcDbEntity
  8
02___PRT_ALL_AXES
100
AcDbLine
 62
7
  6
CONTINUOUS
 10
14.7680136219
 20
7.4945692855
 11
14.7680136219
 21
7.4885419547
  0
LINE
  5
41F
100
AcDbEntity
  8
0
100
AcDbLine
 62
7
  6
CONTINUOUS
 10
14.6889201562
 20
7.4646138138
 11
14.6903799611
 21
7.4639131224
  0
LINE
  5
420
100
AcDbEntity
  8
0
100
AcDbLine
 62
7
  6
CONTINUOUS
 10
14.688895736
 20
7.4646279124
 11
14.5438487249
 21
7.5483689488
  0
LINE
  5
421
100
AcDbEntity
  8
0
100
AcDbLine
 62
7
  6
CONTINUOUS
 10
14.6815436276
 20
7.4821880108
 11
14.5348927766
 21
7.5668550037
  0
LINE
  5
422
100
AcDbEntity
  8
AXIS_COSMETIC_THREADS
100
AcDbLine
 62
7
  6
CONTINUOUS
 10
14.8745007911
 20
7.4190048808
 11
14.8745007911
 21
5.6496159765
  0
LINE
  5
423
100
AcDbEntity
  8
AXIS
100
AcDbLine
 62
7
  6
CONTINUOUS
 10
14.9094322486
 20
5.6016507905
 11
14.9094322486
 21
5.4046651154
  0
LINE
  5
424
100
AcDbEntity
  8
AXIS
100
AcDbLine
 62
7
  6
CONTINUOUS
 10
14.9594322486
 20
5.5850462947
 11
14.9594322486
 21
5.4046651154
  0
LINE
  5
425
100
AcDbEntity
  8
AXIS
100
AcDbLine
 62
7
  6
CONTINUOUS
 10
14.9660010267
 20
5.5839327534
 11
14.9660010267
 21
5.372005855
  0
LINE
  5
426
100
AcDbEntity
  8
AXIS
100
AcDbLine
 62
7
  6
CONTINUOUS
 10
15.0160010267
 20
5.5839327929
 11
15.0160010267
 21
5.372005855
  0
LINE
  5
427
100
AcDbEntity
  8
AXIS
100
AcDbLine
 62
7
  6
CONTINUOUS
 10
15.0225693336
 20
5.5850462886
 11
15.0225693336
 21
5.4046653874
  0
LINE
  5
428
100
AcDbEntity
  8
AXIS
100
AcDbLine
 62
7
  6
CONTINUOUS
 10
15.0725693336
 20
5.6016508366
 11
15.0725693336
 21
5.4046653874
  0
LINE
  5
429
100
AcDbEntity
  8
0
100
AcDbLine
 62
7
  6
CONTINUOUS
 10
15.0759087089
 20
9.7904699559
 11
15.0759087089
 21
9.713936942
  0
LINE
  5
42A
100
AcDbEntity
  8
AXIS_COSMETIC_THREADS
100
AcDbLine
 62
7
  6
CONTINUOUS
 10
15.1075007911
 20
7.4186544648
 11
15.1075007911
 21
5.6496159765
  0
LINE
  5
42B
100
AcDbEntity
  8
AXIS
100
AcDbLine
 62
7
  6
CONTINUOUS
 10
15.4467094526
 20
9.5148215276
 11
15.4467094526
 21
9.5180361041
  0
LINE
  5
42C
100
AcDbEntity
  8
AXIS
100
AcDbLine
 62
7
  6
CONTINUOUS
 10
15.4831267754
 20
9.5148215276
 11
15.4831267754
 21
9.4826757632
  0
LINE
  5
42D
100
AcDbEntity
  8
0
100
AcDbLine
 62
7
  6
CONTINUOUS
 10
15.9752527596
 20
8.3884297858
 11
15.9752527596
 21
8.388435108
  0
LINE
  5
42E
100
AcDbEntity
  8
02___PRT_ALL_AXES
100
AcDbLine
 62
7
  6
CONTINUOUS
 10
15.9752527596
 20
8.7741842814
 11
15.9752527596
 21
8.388435108
  0
LINE
  5
42F
100
AcDbEntity
  8
0
100
AcDbLine
 62
7
  6
CONTINUOUS
 10
14.8184004217
 20
9.6417983644
 11
14.8712944562
 21
9.6112606702
  0
LINE
  5
430
100
AcDbEntity
  8
0
100
AcDbLine
 62
7
  6
CONTINUOUS
 10
15.1288027434
 20
9.7599322616
 11
15.0759087089
 21
9.7904699559
  0
CIRCLE
  5
431
100
AcDbEntity
  8
0
100
AcDbCircle
 62
7
  6
CONTINUOUS
 10
10.5342808475
 20
1.243294839
 40
0.252091
  0
CIRCLE
  5
432
100
AcDbEntity
  8
0
100
AcDbCircle
 62
7
  6
CONTINUOUS
 10
10.5342808475
 20
1.243294839
 40
0.182698
  0
CIRCLE
  5
433
100
AcDbEntity
  8
0
100
AcDbCircle
 62
7
  6
CONTINUOUS
 10
10.1225539079
 20
1.9935547577
 40
0.0638444824
  0
CIRCLE
  5
434
100
AcDbEntity
  8
02___PRT_ALL_AXES
100
AcDbCircle
 62
7
  6
CONTINUOUS
 10
2.7352650316
 20
5.8631329114
 40
0.9842519685
  0
CIRCLE
  5
435
100
AcDbEntity
  8
AXIS
100
AcDbCircle
 62
7
  6
CONTINUOUS
 10
2.7352650316
 20
5.8631329114
 40
0.4921259843
  0
CIRCLE
  5
436
100
AcDbEntity
  8
AXIS
100
AcDbCircle
 62
7
  6
CONTINUOUS
 10
2.7352650316
 20
5.8631329114
 40
0.4557086614
  0
CIRCLE
  5
437
100
AcDbEntity
  8
AXIS
100
AcDbCircle
 62
7
  6
CONTINUOUS
 10
2.7352650316
 20
5.8631329114
 40
0.3381889764
  0
CIRCLE
  5
438
100
AcDbEntity
  8
AXIS
100
AcDbCircle
 62
7
  6
CONTINUOUS
 10
2.7352650316
 20
5.8631329114
 40
0.3149606299
  0
ARC
  5
439
100
AcDbEntity
  8
0
100
AcDbCircle
 62
7
  6
CONTINUOUS
 10
2.7352650316
 20
5.8631329114
 40
0.1230314961
100
AcDbArc
 50
107.6980116326
 51
252.3019883674
  0
ARC
  5
43A
100
AcDbEntity
  8
0
100
AcDbCircle
 62
7
  6
CONTINUOUS
 10
2.7352650316
 20
5.8631329114
 40
0.1230314961
100
AcDbArc
 50
287.6980116326
 51
72.3019883674
  0
ARC
  5
43B
100
AcDbEntity
  8
02___PRT_ALL_AXES
100
AcDbCircle
 62
7
  6
CONTINUOUS
 10
112.4317677368
 20
7.4934932001
 40
105.9729440262
100
AcDbArc
 50
180.8815229562
 51
181.0361786399
  0
ARC
  5
43C
100
AcDbEntity
  8
02___PRT_ALL_AXES
100
AcDbCircle
 62
7
  6
CONTINUOUS
 10
5.763934627
 20
5.8631329114
 40
0.9842519685
100
AcDbArc
 50
90.0
 51
151.4976278368
  0
ARC
  5
43D
100
AcDbEntity
  8
02___PRT_ALL_AXES
100
AcDbCircle
 62
7
  6
CONTINUOUS
 10
5.763934627
 20
5.8631329114
 40
0.9842519685
100
AcDbArc
 50
208.5023721632
 51
270.0
  0
ARC
  5
43E
100
AcDbEntity
  8
AXIS
100
AcDbCircle
 62
7
  6
CONTINUOUS
 10
4.852912434
 20
5.7115711327
 40
0.3041468827
100
AcDbArc
 50
217.8509011854
 51
270.0
  0
ARC
  5
43F
100
AcDbEntity
  8
AXIS
100
AcDbCircle
 62
7
  6
CONTINUOUS
 10
4.852912434
 20
6.0146946901
 40
0.3041468827
100
AcDbArc
 50
90.0
 51
142.1490988146
  0
ARC
  5
440
100
AcDbEntity
  8
0
100
AcDbCircle
 62
7
  6
CONTINUOUS
 10
6.2363755719
 20
6.8080148012
 40
0.0393700787
100
AcDbArc
 50
0.0
 51
90.0
  0
ARC
  5
441
100
AcDbEntity
  8
0
100
AcDbCircle
 62
7
  6
CONTINUOUS
 10
6.2363755719
 20
4.9182510216
 40
0.0393700787
100
AcDbArc
 50
270.0
 51
360.0
  0
ARC
  5
442
100
AcDbEntity
  8
0
100
AcDbCircle
 62
7
  6
CONTINUOUS
 10
6.3151157293
 20
6.4438415728
 40
0.0393700787
100
AcDbArc
 50
180.0
 51
270.0
  0
ARC
  5
443
100
AcDbEntity
  8
0
100
AcDbCircle
 62
7
  6
CONTINUOUS
 10
6.3151157293
 20
5.28242425
 40
0.0393700787
100
AcDbArc
 50
90.0
 51
180.0
  0
ARC
  5
444
100
AcDbEntity
  8
0
100
AcDbCircle
 62
7
  6
CONTINUOUS
 10
7.0237771467
 20
5.3611644075
 40
0.0393700787
100
AcDbArc
 50
270.0
 51
360.0
  0
ARC
  5
445
100
AcDbEntity
  8
0
100
AcDbCircle
 62
7
  6
CONTINUOUS
 10
7.0237771467
 20
6.3651014153
 40
0.0393700787
100
AcDbArc
 50
0.0
 51
90.0
  0
ARC
  5
446
100
AcDbEntity
  8
0
100
AcDbCircle
 62
7
  6
CONTINUOUS
 10
11.3480192634
 20
5.8040777933
 40
0.0354330709
100
AcDbArc
 50
190.1642486217
 51
10.1642486217
  0
CIRCLE
  5
447
100
AcDbEntity
  8
AXIS
100
AcDbCircle
 62
7
  6
CONTINUOUS
 10
11.6374129747
 20
5.8231329114
 40
0.025
  0
ARC
  5
448
100
AcDbEntity
  8
0
100
AcDbCircle
 62
7
  6
CONTINUOUS
 10
11.3480192634
 20
5.9221880295
 40
0.0354330709
100
AcDbArc
 50
349.8357513783
 51
169.8357513783
  0
CIRCLE
  5
449
100
AcDbEntity
  8
AXIS
100
AcDbCircle
 62
7
  6
CONTINUOUS
 10
11.6374129747
 20
5.9031329114
 40
0.025
  0
ARC
  5
44A
100
AcDbEntity
  8
0
100
AcDbCircle
 62
7
  6
CONTINUOUS
 10
12.0068066859
 20
5.8040777933
 40
0.0354330709
100
AcDbArc
 50
169.8357513783
 51
349.8357513783
  0
CIRCLE
  5
44B
100
AcDbEntity
  8
AXIS
100
AcDbCircle
 62
7
  6
CONTINUOUS
 10
11.7174129747
 20
5.8231329114
 40
0.025
  0
ARC
  5
44C
100
AcDbEntity
  8
02___PRT_ALL_AXES
100
AcDbCircle
 62
7
  6
CONTINUOUS
 10
11.6774129747
 20
5.8631329114
 40
0.9842519685
100
AcDbArc
 50
96.1106712295
 51
263.8913550294
  0
ARC
  5
44D
100
AcDbEntity
  8
02___PRT_ALL_AXES
100
AcDbCircle
 62
7
  6
CONTINUOUS
 10
11.6774129747
 20
5.8631329114
 40
0.9842519685
100
AcDbArc
 50
277.2127391617
 51
82.787260838
  0
CIRCLE
  5
44E
100
AcDbEntity
  8
0
100
AcDbCircle
 62
7
  6
CONTINUOUS
 10
11.6774129747
 20
5.8631329114
 40
0.9842519685
  0
CIRCLE
  5
44F
100
AcDbEntity
  8
0
100
AcDbCircle
 62
7
  6
CONTINUOUS
 10
11.6774129747
 20
5.8631329114
 40
0.9448818805
  0
ARC
  5
450
100
AcDbEntity
  8
0
100
AcDbCircle
 62
7
  6
CONTINUOUS
 10
11.6774129747
 20
5.8631329114
 40
0.5905511811
100
AcDbArc
 50
280.4753138432
 51
79.5246861568
  0
ARC
  5
451
100
AcDbEntity
  8
0
100
AcDbCircle
 62
7
  6
CONTINUOUS
 10
11.6774129747
 20
5.8631329114
 40
0.5905511811
100
AcDbArc
 50
100.4753138432
 51
259.5246861568
  0
ARC
  5
452
100
AcDbEntity
  8
0
100
AcDbCircle
 62
7
  6
CONTINUOUS
 10
11.6774129747
 20
5.8631329114
 40
0.5511811024
100
AcDbArc
 50
100.8440625637
 51
259.1559374363
  0
ARC
  5
453
100
AcDbEntity
  8
0
100
AcDbCircle
 62
7
  6
CONTINUOUS
 10
11.6774129747
 20
5.8631329114
 40
0.5511811024
100
AcDbArc
 50
280.8440625637
 51
79.1559374363
  0
ARC
  5
454
100
AcDbEntity
  8
0
100
AcDbCircle
 62
7
  6
CONTINUOUS
 10
11.6774129747
 20
5.8631329114
 40
0.5118110236
100
AcDbArc
 50
281.2547126182
 51
78.7452873818
  0
ARC
  5
455
100
AcDbEntity
  8
0
100
AcDbCircle
 62
7
  6
CONTINUOUS
 10
11.6774129747
 20
5.8631329114
 40
0.5118110236
100
AcDbArc
 50
101.2547126182
 51
258.7452873818
  0
CIRCLE
  5
456
100
AcDbEntity
  8
0
100
AcDbCircle
 62
7
  6
CONTINUOUS
 10
11.6774129747
 20
5.8631329114
 40
0.374015748
  0
ARC
  5
457
100
AcDbEntity
  8
02___PRT_ALL_AXES
100
AcDbCircle
 62
7
  6
CONTINUOUS
 10
11.6774129747
 20
5.8631329114
 40
0.3700787402
100
AcDbArc
 50
349.8357513783
 51
10.1642486217
  0
ARC
  5
458
100
AcDbEntity
  8
02___PRT_ALL_AXES
100
AcDbCircle
 62
7
  6
CONTINUOUS
 10
11.6774129747
 20
5.8631329114
 40
0.3700787402
100
AcDbArc
 50
169.8357513783
 51
190.1642486217
  0
ARC
  5
459
100
AcDbEntity
  8
AXIS
100
AcDbCircle
 62
7
  6
CONTINUOUS
 10
11.6774129747
 20
5.8631329114
 40
0.3248031496
100
AcDbArc
 50
344.0084995286
 51
15.9915004714
  0
ARC
  5
45A
100
AcDbEntity
  8
AXIS
100
AcDbCircle
 62
7
  6
CONTINUOUS
 10
11.6774129747
 20
5.8631329114
 40
0.3248031496
100
AcDbArc
 50
164.0084995286
 51
195.9915004714
  0
ARC
  5
45B
100
AcDbEntity
  8
AXIS
100
AcDbCircle
 62
7
  6
CONTINUOUS
 10
11.6774129747
 20
5.8631329114
 40
0.3149606299
100
AcDbArc
 50
164.7824664411
 51
195.2175335589
  0
ARC
  5
45C
100
AcDbEntity
  8
AXIS
100
AcDbCircle
 62
7
  6
CONTINUOUS
 10
11.6774129747
 20
5.8631329114
 40
0.3149606299
100
AcDbArc
 50
344.7824664411
 51
15.2175335589
  0
ARC
  5
45D
100
AcDbEntity
  8
0
100
AcDbCircle
 62
7
  6
CONTINUOUS
 10
11.6774129747
 20
5.8631329114
 40
0.3051181102
100
AcDbArc
 50
193.675172929
 51
346.3247431807
  0
ARC
  5
45E
100
AcDbEntity
  8
0
100
AcDbCircle
 62
7
  6
CONTINUOUS
 10
11.6774129747
 20
5.8631329114
 40
0.3051181102
100
AcDbArc
 50
13.6751729346
 51
166.324743187
  0
ARC
  5
45F
100
AcDbEntity
  8
0
100
AcDbCircle
 62
7
  6
CONTINUOUS
 10
11.6774129747
 20
5.8631329114
 40
0.2992125984
100
AcDbArc
 50
349.8357513783
 51
10.1642486217
  0
ARC
  5
460
100
AcDbEntity
  8
0
100
AcDbCircle
 62
7
  6
CONTINUOUS
 10
11.6774129747
 20
5.8631329114
 40
0.2992125984
100
AcDbArc
 50
169.8357513783
 51
190.1642486217
  0
CIRCLE
  5
461
100
AcDbEntity
  8
0
100
AcDbCircle
 62
7
  6
CONTINUOUS
 10
11.6774129747
 20
5.8631329114
 40
0.29
  0
CIRCLE
  5
462
100
AcDbEntity
  8
0
100
AcDbCircle
 62
7
  6
CONTINUOUS
 10
11.6774129747
 20
5.8631329114
 40
0.2611324865
  0
CIRCLE
  5
463
100
AcDbEntity
  8
0
100
AcDbCircle
 62
7
  6
CONTINUOUS
 10
11.6774129747
 20
5.8631329114
 40
0.17
  0
CIRCLE
  5
464
100
AcDbEntity
  8
AXIS_COSMETIC_THREADS
100
AcDbCircle
 62
7
  6
CONTINUOUS
 10
11.6774129747
 20
5.8631329114
 40
0.1165
  0
CIRCLE
  5
465
100
AcDbEntity
  8
AXIS
100
AcDbCircle
 62
7
  6
CONTINUOUS
 10
11.7174129747
 20
5.9031329114
 40
0.025
  0
ARC
  5
466
100
AcDbEntity
  8
0
100
AcDbCircle
 62
7
  6
CONTINUOUS
 10
12.0068066859
 20
5.9221880295
 40
0.0354330709
100
AcDbArc
 50
10.1642486217
 51
190.1642486217
  0
ARC
  5
467
100
AcDbEntity
  8
02___PRT_ALL_AXES
100
AcDbCircle
 62
7
  6
CONTINUOUS
 10
14.2020011053
 20
6.8608974399
 40
0.8486768878
100
AcDbArc
 50
72.6620404266
 51
73.1205002489
  0
ARC
  5
468
100
AcDbEntity
  8
02___PRT_ALL_AXES
100
AcDbCircle
 62
7
  6
CONTINUOUS
 10
14.2125641863
 20
6.9908021039
 40
0.8135843732
100
AcDbArc
 50
66.6602023711
 51
73.147994958
  0
ARC
  5
469
100
AcDbEntity
  8
02___PRT_ALL_AXES
100
AcDbCircle
 62
7
  6
CONTINUOUS
 10
14.2125641863
 20
7.0390207506
 40
0.8135843732
100
AcDbArc
 50
66.6602023709
 51
73.1479949578
  0
ARC
  5
46A
100
AcDbEntity
  8
02___PRT_ALL_AXES
100
AcDbCircle
 62
7
  6
CONTINUOUS
 10
14.2125641863
 20
7.0872393973
 40
0.8135843732
100
AcDbArc
 50
66.660202371
 51
73.1479949579
  0
ARC
  5
46B
100
AcDbEntity
  8
02___PRT_ALL_AXES
100
AcDbCircle
 62
7
  6
CONTINUOUS
 10
14.2125648393
 20
6.9425852422
 40
0.8135824756
100
AcDbArc
 50
66.6601947969
 51
73.1480025322
  0
ARC
  5
46C
100
AcDbEntity
  8
02___PRT_ALL_AXES
100
AcDbCircle
 62
7
  6
CONTINUOUS
 10
14.2137756913
 20
6.8975767544
 40
0.8101552959
100
AcDbArc
 50
66.648876287
 51
72.6838854036
  0
ARC
  5
46D
100
AcDbEntity
  8
AXIS
100
AcDbCircle
 62
7
  6
CONTINUOUS
 10
14.8506789727
 20
9.6491902843
 40
0.3683597625
100
AcDbArc
 50
234.4270203202
 51
235.2927244309
  0
ARC
  5
46E
100
AcDbEntity
  8
AXIS
100
AcDbCircle
 62
7
  6
CONTINUOUS
 10
14.8444880255
 20
9.6405364489
 40
0.3577194292
100
AcDbArc
 50
233.1351278998
 51
234.4272262134
  0
ARC
  5
46F
100
AcDbEntity
  8
AXIS
100
AcDbCircle
 62
7
  6
CONTINUOUS
 10
14.8924152944
 20
9.5178196932
 40
0.3571232302
100
AcDbArc
 50
157.1211056107
 51
179.9652796901
  0
ARC
  5
470
100
AcDbEntity
  8
AXIS
100
AcDbCircle
 62
7
  6
CONTINUOUS
 10
14.8998449552
 20
9.5952227888
 40
0.2965288388
100
AcDbArc
 50
119.9367583809
 51
124.1988032176
  0
ARC
  5
471
100
AcDbEntity
  8
02___PRT_ALL_AXES
100
AcDbCircle
 62
7
  6
CONTINUOUS
 10
14.6687019346
 20
8.0206300798
 40
0.2727093849
100
AcDbArc
 50
214.4767513631
 51
216.1239812458
  0
ARC
  5
472
100
AcDbEntity
  8
02___PRT_ALL_AXES
100
AcDbCircle
 62
7
  6
CONTINUOUS
 10
14.6686934524
 20
7.9724053657
 40
0.2726989565
100
AcDbArc
 50
214.4728446781
 51
216.124002174
  0
ARC
  5
473
100
AcDbEntity
  8
02___PRT_ALL_AXES
100
AcDbCircle
 62
7
  6
CONTINUOUS
 10
14.6653327523
 20
7.8735968301
 40
0.2685864528
100
AcDbArc
 50
213.3763058286
 51
216.1380591879
  0
ARC
  5
474
100
AcDbEntity
  8
02___PRT_ALL_AXES
100
AcDbCircle
 62
7
  6
CONTINUOUS
 10
14.6642848817
 20
7.8788941361
 40
0.2673096761
100
AcDbArc
 50
212.9530226415
 51
216.1441458607
  0
ARC
  5
475
100
AcDbEntity
  8
02___PRT_ALL_AXES
100
AcDbCircle
 62
7
  6
CONTINUOUS
 10
14.6526644296
 20
7.8713943937
 40
0.2534792666
100
AcDbArc
 50
210.4529084248
 51
212.9593062423
  0
ARC
  5
476
100
AcDbEntity
  8
02___PRT_ALL_AXES
100
AcDbCircle
 62
7
  6
CONTINUOUS
 10
14.6506092886
 20
7.8640735534
 40
0.251052201
100
AcDbArc
 50
209.2374914367
 51
213.4099104409
  0
ARC
  5
477
100
AcDbEntity
  8
02___PRT_ALL_AXES
100
AcDbCircle
 62
7
  6
CONTINUOUS
 10
14.6024840879
 20
7.9392564565
 40
0.1982690843
100
AcDbArc
 50
193.7518007581
 51
194.0561095467
  0
ARC
  5
478
100
AcDbEntity
  8
02___PRT_ALL_AXES
100
AcDbCircle
 62
7
  6
CONTINUOUS
 10
14.6024840877
 20
7.8910378098
 40
0.1982690842
100
AcDbArc
 50
193.751800758
 51
194.0561095468
  0
ARC
  5
479
100
AcDbEntity
  8
02___PRT_ALL_AXES
100
AcDbCircle
 62
7
  6
CONTINUOUS
 10
14.6013912485
 20
7.8425520552
 40
0.1971440934
100
AcDbArc
 50
192.3765728035
 51
194.0579433415
  0
ARC
  5
47A
100
AcDbEntity
  8
02___PRT_ALL_AXES
100
AcDbCircle
 62
7
  6
CONTINUOUS
 10
14.6011432975
 20
7.9389325696
 40
0.196889735
100
AcDbArc
 50
192.3758992571
 51
193.753001251
  0
ARC
  5
47B
100
AcDbEntity
  8
02___PRT_ALL_AXES
100
AcDbCircle
 62
7
  6
CONTINUOUS
 10
14.6011432975
 20
7.890713923
 40
0.196889735
100
AcDbArc
 50
192.3758992571
 51
193.7530012509
  0
ARC
  5
47C
100
AcDbEntity
  8
02___PRT_ALL_AXES
100
AcDbCircle
 62
7
  6
CONTINUOUS
 10
14.5957614042
 20
7.9378383411
 40
0.1913984021
100
AcDbArc
 50
186.614673295
 51
192.4012455444
  0
ARC
  5
47D
100
AcDbEntity
  8
02___PRT_ALL_AXES
100
AcDbCircle
 62
7
  6
CONTINUOUS
 10
14.5957614042
 20
7.8896196944
 40
0.1913984021
100
AcDbArc
 50
186.614673295
 51
192.4012455445
  0
ARC
  5
47E
100
AcDbEntity
  8
02___PRT_ALL_AXES
100
AcDbCircle
 62
7
  6
CONTINUOUS
 10
14.5957614042
 20
7.8414010477
 40
0.1913984021
100
AcDbArc
 50
186.614673295
 51
192.4012455445
  0
ARC
  5
47F
100
AcDbEntity
  8
02___PRT_ALL_AXES
100
AcDbCircle
 62
7
  6
CONTINUOUS
 10
14.5933811361
 20
7.9375379289
 40
0.1889993754
100
AcDbArc
 50
186.2023339303
 51
186.6073292069
  0
ARC
  5
480
100
AcDbEntity
  8
02___PRT_ALL_AXES
100
AcDbCircle
 62
7
  6
CONTINUOUS
 10
14.5922615192
 20
7.8892008421
 40
0.187873567
100
AcDbArc
 50
180.0090481976
 51
186.6107370527
  0
ARC
  5
481
100
AcDbEntity
  8
02___PRT_ALL_AXES
100
AcDbCircle
 62
7
  6
CONTINUOUS
 10
14.5922615192
 20
7.8409821954
 40
0.187873567
100
AcDbArc
 50
180.0090481976
 51
186.6107370527
  0
ARC
  5
482
100
AcDbEntity
  8
02___PRT_ALL_AXES
100
AcDbCircle
 62
7
  6
CONTINUOUS
 10
14.5921684064
 20
7.7987363873
 40
0.1877804536
100
AcDbArc
 50
173.6905060835
 51
179.9924259432
  0
ARC
  5
483
100
AcDbEntity
  8
02___PRT_ALL_AXES
100
AcDbCircle
 62
7
  6
CONTINUOUS
 10
14.5921684064
 20
7.846955034
 40
0.1877804536
100
AcDbArc
 50
173.6905060835
 51
179.9924259432
  0
ARC
  5
484
100
AcDbEntity
  8
02___PRT_ALL_AXES
100
AcDbCircle
 62
7
  6
CONTINUOUS
 10
14.5921684064
 20
7.8951736807
 40
0.1877804536
100
AcDbArc
 50
173.6905060835
 51
179.9924259432
  0
ARC
  5
485
100
AcDbEntity
  8
AXIS
100
AcDbCircle
 62
7
  6
CONTINUOUS
 10
14.664303594
 20
9.5148572124
 40
0.165428791
100
AcDbArc
 50
180.0123604903
 51
191.0849238281
  0
ARC
  5
486
100
AcDbEntity
  8
AXIS_COSMETIC_THREADS
100
AcDbCircle
 62
7
  6
CONTINUOUS
 10
14.9899470771
 20
5.7727535535
 40
0.1903433037
100
AcDbArc
 50
260.7507851857
 51
262.7715082982
  0
ARC
  5
487
100
AcDbEntity
  8
AXIS_COSMETIC_THREADS
100
AcDbCircle
 62
7
  6
CONTINUOUS
 10
14.9921756402
 20
5.7719190447
 40
0.1895001863
100
AcDbArc
 50
277.2237550915
 51
279.2536199962
  0
ARC
  5
488
100
AcDbEntity
  8
AXIS_COSMETIC_THREADS
100
AcDbCircle
 62
7
  6
CONTINUOUS
 10
15.0182376657
 20
5.6975663955
 40
0.1102851949
100
AcDbArc
 50
299.5446239163
 51
299.9992867102
  0
ARC
  5
489
100
AcDbEntity
  8
02___PRT_ALL_AXES
100
AcDbCircle
 62
7
  6
CONTINUOUS
 10
15.3956978802
 20
8.8262135624
 40
1.497044926
100
AcDbArc
 50
230.7457101719
 51
231.3062737534
  0
ARC
  5
48A
100
AcDbEntity
  8
0
100
AcDbCircle
 62
7
  6
CONTINUOUS
 10
15.1298441752
 20
8.9406540005
 40
1.116707505
100
AcDbArc
 50
293.5722732884
 51
293.7060113526
  0
ARC
  5
48B
100
AcDbEntity
  8
02___PRT_ALL_AXES
100
AcDbCircle
 62
7
  6
CONTINUOUS
 10
14.9776849619
 20
8.8154760444
 40
1.0119214745
100
AcDbArc
 50
267.1945596044
 51
271.1305400484
  0
ARC
  5
48C
100
AcDbEntity
  8
02___PRT_ALL_AXES
100
AcDbCircle
 62
7
  6
CONTINUOUS
 10
14.9776770017
 20
8.4770258918
 40
1.0049864996
100
AcDbArc
 50
264.2231589172
 51
272.6166580332
  0
ARC
  5
48D
100
AcDbEntity
  8
02___PRT_ALL_AXES
100
AcDbCircle
 62
7
  6
CONTINUOUS
 10
14.9907393231
 20
8.7736651152
 40
0.9848323145
100
AcDbArc
 50
60.0024892602
 51
64.3701046421
  0
ARC
  5
48E
100
AcDbEntity
  8
02___PRT_ALL_AXES
100
AcDbCircle
 62
7
  6
CONTINUOUS
 10
14.9909980305
 20
8.7741826876
 40
0.9842547291
100
AcDbArc
 50
0.0000927826
 51
60.0004684806
  0
ARC
  5
48F
100
AcDbEntity
  8
02___PRT_ALL_AXES
100
AcDbCircle
 62
7
  6
CONTINUOUS
 10
14.9894539616
 20
8.7741783472
 40
0.982705139
100
AcDbArc
 50
178.5470483054
 51
179.9996540121
  0
ARC
  5
490
100
AcDbEntity
  8
02___PRT_ALL_AXES
100
AcDbCircle
 62
7
  6
CONTINUOUS
 10
14.9779312243
 20
8.6012219518
 40
0.9473610663
100
AcDbArc
 50
262.9739200213
 51
276.0788311221
  0
ARC
  5
491
100
AcDbEntity
  8
02___PRT_ALL_AXES
100
AcDbCircle
 62
7
  6
CONTINUOUS
 10
15.003872219
 20
8.3154070293
 40
0.8135843764
100
AcDbArc
 50
246.660202384
 51
253.147994945
  0
ARC
  5
492
100
AcDbEntity
  8
02___PRT_ALL_AXES
100
AcDbCircle
 62
7
  6
CONTINUOUS
 10
15.003872219
 20
8.363625676
 40
0.8135843764
100
AcDbArc
 50
246.660202384
 51
253.147994945
  0
ARC
  5
493
100
AcDbEntity
  8
02___PRT_ALL_AXES
100
AcDbCircle
 62
7
  6
CONTINUOUS
 10
15.003872219
 20
8.4118443227
 40
0.8135843764
100
AcDbArc
 50
246.6602023839
 51
253.1479949449
  0
ARC
  5
494
100
AcDbEntity
  8
02___PRT_ALL_AXES
100
AcDbCircle
 62
7
  6
CONTINUOUS
 10
15.003872219
 20
8.4600629693
 40
0.8135843764
100
AcDbArc
 50
246.660202384
 51
253.147994945
  0
ARC
  5
495
100
AcDbEntity
  8
02___PRT_ALL_AXES
100
AcDbCircle
 62
7
  6
CONTINUOUS
 10
15.003872219
 20
8.5565002627
 40
0.8135843764
100
AcDbArc
 50
246.6602023838
 51
253.1479949449
  0
ARC
  5
496
100
AcDbEntity
  8
02___PRT_ALL_AXES
100
AcDbCircle
 62
7
  6
CONTINUOUS
 10
15.0038722062
 20
8.2671883475
 40
0.8135843391
100
AcDbArc
 50
246.660202235
 51
253.1479950939
  0
ARC
  5
497
100
AcDbEntity
  8
02___PRT_ALL_AXES
100
AcDbCircle
 62
7
  6
CONTINUOUS
 10
15.0038715708
 20
8.5082798442
 40
0.8135824928
100
AcDbArc
 50
246.6601948655
 51
253.1480024633
  0
ARC
  5
498
100
AcDbEntity
  8
AXIS
100
AcDbCircle
 62
7
  6
CONTINUOUS
 10
14.9428918157
 20
9.8632578541
 40
0.6265858171
100
AcDbArc
 50
249.1954818735
 51
251.062088276
  0
ARC
  5
499
100
AcDbEntity
  8
AXIS
100
AcDbCircle
 62
7
  6
CONTINUOUS
 10
14.9291869632
 20
9.8271287791
 40
0.5879447435
100
AcDbArc
 50
246.3201085365
 51
249.1934271056
  0
ARC
  5
49A
100
AcDbEntity
  8
AXIS
100
AcDbCircle
 62
7
  6
CONTINUOUS
 10
15.0928470335
 20
9.7138218621
 40
0.4408647031
100
AcDbArc
 50
297.8520403601
 51
299.9936121989
  0
ARC
  5
49B
100
AcDbEntity
  8
AXIS
100
AcDbCircle
 62
7
  6
CONTINUOUS
 10
15.0933763486
 20
9.7096748885
 40
0.4397925651
100
AcDbArc
 50
298.0329292867
 51
299.9946125705
  0
ARC
  5
49C
100
AcDbEntity
  8
AXIS
100
AcDbCircle
 62
7
  6
CONTINUOUS
 10
15.0895872909
 20
9.5178195154
 40
0.3571222273
100
AcDbArc
 50
0.0347489395
 51
22.8505340572
  0
ARC
  5
49D
100
AcDbEntity
  8
0
100
AcDbCircle
 62
7
  6
CONTINUOUS
 10
15.6419672905
 20
8.3887339502
 40
0.3332851696
100
AcDbArc
 50
348.4274934612
 51
359.9477104321
  0
ARC
  5
49E
100
AcDbEntity
  8
02___PRT_ALL_AXES
100
AcDbCircle
 62
7
  6
CONTINUOUS
 10
15.3114723043
 20
8.0332351785
 40
0.2709708325
100
AcDbArc
 50
327.8278446956
 51
331.8027134847
  0
ARC
  5
49F
100
AcDbEntity
  8
02___PRT_ALL_AXES
100
AcDbCircle
 62
7
  6
CONTINUOUS
 10
15.3627926523
 20
7.9148516128
 40
0.2149556249
100
AcDbArc
 50
347.0854032373
 51
347.3704161328
  0
ARC
  5
4A0
100
AcDbEntity
  8
02___PRT_ALL_AXES
100
AcDbCircle
 62
7
  6
CONTINUOUS
 10
15.3638100668
 20
7.8664052223
 40
0.2139130463
100
AcDbArc
 50
347.0839548065
 51
348.6325927258
  0
ARC
  5
4A1
100
AcDbEntity
  8
02___PRT_ALL_AXES
100
AcDbCircle
 62
7
  6
CONTINUOUS
 10
15.3640454935
 20
7.914574486
 40
0.2136725045
100
AcDbArc
 50
347.3694752862
 51
348.6331321677
  0
ARC
  5
4A2
100
AcDbEntity
  8
0
100
AcDbCircle
 62
7
  6
CONTINUOUS
 10
14.9910004896
 20
9.8523204358
 40
0.2124411869
100
AcDbArc
 50
265.7288020803
 51
274.2713584795
  0
ARC
  5
4A3
100
AcDbEntity
  8
02___PRT_ALL_AXES
100
AcDbCircle
 62
7
  6
CONTINUOUS
 10
15.3681756837
 20
7.8655523791
 40
0.2094649741
100
AcDbArc
 50
348.6259326312
 51
354.2176935536
  0
ARC
  5
4A4
100
AcDbEntity
  8
02___PRT_ALL_AXES
100
AcDbCircle
 62
7
  6
CONTINUOUS
 10
15.3681756837
 20
7.9137710258
 40
0.2094649741
100
AcDbArc
 50
348.6259326311
 51
354.2176935537
  0
ARC
  5
4A5
100
AcDbEntity
  8
02___PRT_ALL_AXES
100
AcDbCircle
 62
7
  6
CONTINUOUS
 10
15.3720916724
 20
7.8710649517
 40
0.2055219568
100
AcDbArc
 50
0.0067545286
 51
6.03968068
  0
ARC
  5
4A6
100
AcDbEntity
  8
02___PRT_ALL_AXES
100
AcDbCircle
 62
7
  6
CONTINUOUS
 10
15.3720916724
 20
7.822846305
 40
0.2055219568
100
AcDbArc
 50
0.0067545286
 51
6.03968068
  0
ARC
  5
4A7
100
AcDbEntity
  8
02___PRT_ALL_AXES
100
AcDbCircle
 62
7
  6
CONTINUOUS
 10
15.372176847
 20
7.8650819259
 40
0.2054367818
100
AcDbArc
 50
354.2358068362
 51
359.9944007598
  0
ARC
  5
4A8
100
AcDbEntity
  8
02___PRT_ALL_AXES
100
AcDbCircle
 62
7
  6
CONTINUOUS
 10
15.372176847
 20
7.9133005726
 40
0.2054367818
100
AcDbArc
 50
354.2358068362
 51
359.9944007597
  0
ARC
  5
4A9
100
AcDbEntity
  8
AXIS
100
AcDbCircle
 62
7
  6
CONTINUOUS
 10
15.3176969259
 20
9.5148573407
 40
0.1654298534
100
AcDbArc
 50
348.9150925765
 51
359.9875975105
  0
SPLINE
  5
4AA
100
AcDbEntity
  8
02___PRT_ALL_AXES
100
AcDbSpline
 62
7
  6
CONTINUOUS
 70
0
 71
3
 72
23
 73
19
 74
0
 42
0.0000001
 43
0.0000001
 44
0.0000000001
 40
0.0
 40
0.0
 40
0.0
 40
0.0
 40
0.0101455754
 40
0.0239361843
 40
0.0620116039
 40
0.1131057467
 40
0.17570245
 40
0.2870156529
 40
0.4125364545
 40
0.5438956296
 40
0.672323931
 40
0.7892555141
 40
0.8409293857
 40
0.886894551
 40
0.9263825762
 40
0.9587329982
 40
0.9834093123
 40
1.0
 40
1.0
 40
1.0
 40
1.0
 10
6.4305416487
 20
6.4044714941
 30
0.0
 10
6.4308722755
 20
6.4008237185
 30
0.0
 10
6.4314696367
 20
6.3922016453
 30
0.0
 10
6.4326471948
 20
6.3698453367
 30
0.0
 10
6.4340068683
 20
6.3326978368
 30
0.0
 10
6.4355721034
 20
6.2779302081
 30
0.0
 10
6.4374768471
 20
6.1967217244
 30
0.0
 10
6.4396087062
 20
6.0886429963
 30
0.0
 10
6.4419570882
 20
5.955739568
 30
0.0
 10
6.4443112896
 20
5.8166565253
 30
0.0
 10
6.4466636405
 20
5.680674774
 30
0.0
 10
6.4486835173
 20
5.573459298
 30
0.0
 10
6.4503546729
 20
5.4960135953
 30
0.0
 10
6.4515510738
 20
5.4465226285
 30
0.0
 10
6.4527431271
 20
5.4040103368
 30
0.0
 10
6.4539156038
 20
5.3691854912
 30
0.0
 10
6.4550820768
 20
5.3426350857
 30
0.0
 10
6.4559707826
 20
5.3277594025
 30
0.0
 10
6.4565114444
 20
5.3217943287
 30
0.0
  0
SPLINE
  5
4AB
100
AcDbEntity
  8
02___PRT_ALL_AXES
100
AcDbSpline
 62
7
  6
CONTINUOUS
 70
0
 71
3
 72
23
 73
19
 74
0
 42
0.0000001
 43
0.0000001
 44
0.0000000001
 40
0.0
 40
0.0
 40
0.0
 40
0.0
 40
0.0101451951
 40
0.0239351166
 40
0.0620091597
 40
0.1131024239
 40
0.1756996811
 40
0.2870162682
 40
0.4125361568
 40
0.5438931362
 40
0.6723206307
 40
0.7892549536
 40
0.8409300467
 40
0.8868953263
 40
0.9263830597
 40
0.9587332815
 40
0.9834093968
 40
1.0
 40
1.0
 40
1.0
 40
1.0
 10
6.6667621211
 20
6.4044714941
 30
0.0
 10
6.6670927355
 20
6.4008238552
 30
0.0
 10
6.6676900938
 20
6.3922021684
 30
0.0
 10
6.6688675867
 20
6.3698467396
 30
0.0
 10
6.670227266
 20
6.3327003036
 30
0.0
 10
6.6717924942
 20
6.2779332887
 30
0.0
 10
6.6736972819
 20
6.1967237013
 30
0.0
 10
6.6758291626
 20
6.0886438812
 30
0.0
 10
6.6781775471
 20
5.9557403535
 30
0.0
 10
6.6805317246
 20
5.8166587242
 30
0.0
 10
6.6828840727
 20
5.6806770677
 30
0.0
 10
6.684903964
 20
5.5734604529
 30
0.0
 10
6.6865751528
 20
5.4960132792
 30
0.0
 10
6.6877715639
 20
5.4465219356
 30
0.0
 10
6.6889636164
 20
5.4040097802
 30
0.0
 10
6.690136089
 20
5.369185184
 30
0.0
 10
6.6913025546
 20
5.3426349529
 30
0.0
 10
6.6921912578
 20
5.3277593721
 30
0.0
 10
6.6927319169
 20
5.3217943287
 30
0.0
  0
SPLINE
  5
4AC
100
AcDbEntity
  8
02___PRT_ALL_AXES
100
AcDbSpline
 62
7
  6
CONTINUOUS
 70
0
 71
3
 72
23
 73
19
 74
0
 42
0.0000001
 43
0.0000001
 44
0.0000000001
 40
0.0
 40
0.0
 40
0.0
 40
0.0
 40
0.0101454565
 40
0.0239357241
 40
0.0620099602
 40
0.113103426
 40
0.1757013846
 40
0.2870190003
 40
0.4125403746
 40
0.5438957831
 40
0.6723218346
 40
0.7892570294
 40
0.8409325144
 40
0.8868981865
 40
0.9263858219
 40
0.9587352425
 40
0.9834099789
 40
1.0
 40
1.0
 40
1.0
 40
1.0
 10
6.4457528021
 20
5.3217943287
 30
0.0
 10
6.4454221792
 20
5.3254420615
 30
0.0
 10
6.4448248222
 20
5.3340639684
 30
0.0
 10
6.4436472981
 20
5.3564196847
 30
0.0
 10
6.4422876339
 20
5.3935663893
 30
0.0
 10
6.4407223949
 20
5.4483337995
 30
0.0
 10
6.4388175998
 20
5.5295440843
 30
0.0
 10
6.4366857013
 20
5.6376250652
 30
0.0
 10
6.434337318
 20
5.7705289336
 30
0.0
 10
6.4319831489
 20
5.9096100113
 30
0.0
 10
6.4296308121
 20
6.0455908946
 30
0.0
 10
6.4276109191
 20
6.1528074446
 30
0.0
 10
6.4259397097
 20
6.230255216
 30
0.0
 10
6.4247432815
 20
6.2797468071
 30
0.0
 10
6.423551226
 20
6.3222587794
 30
0.0
 10
6.4223787564
 20
6.3570825526
 30
0.0
 10
6.4212123306
 20
6.3836317876
 30
0.0
 10
6.4203236465
 20
6.39850666
 30
0.0
 10
6.4197830064
 20
6.4044714941
 30
0.0
  0
SPLINE
  5
4AD
100
AcDbEntity
  8
02___PRT_ALL_AXES
100
AcDbSpline
 62
7
  6
CONTINUOUS
 70
0
 71
3
 72
23
 73
19
 74
0
 42
0.0000001
 43
0.0000001
 44
0.0000000001
 40
0.0
 40
0.0
 40
0.0
 40
0.0
 40
0.0101455754
 40
0.0239361843
 40
0.0620116039
 40
0.1131057467
 40
0.17570245
 40
0.2870156529
 40
0.4125364545
 40
0.5438956296
 40
0.672323931
 40
0.7892555141
 40
0.8409293857
 40
0.886894551
 40
0.9263825762
 40
0.9587329982
 40
0.9834093123
 40
1.0
 40
1.0
 40
1.0
 40
1.0
 10
6.8439274755
 20
6.4044714941
 30
0.0
 10
6.8442581022
 20
6.4008237185
 30
0.0
 10
6.8448554635
 20
6.3922016453
 30
0.0
 10
6.8460330216
 20
6.3698453367
 30
0.0
 10
6.8473926951
 20
6.3326978368
 30
0.0
 10
6.8489579302
 20
6.2779302081
 30
0.0
 10
6.8508626739
 20
6.1967217244
 30
0.0
 10
6.852994533
 20
6.0886429963
 30
0.0
 10
6.855342915
 20
5.955739568
 30
0.0
 10
6.8576971164
 20
5.8166565253
 30
0.0
 10
6.8600494672
 20
5.680674774
 30
0.0
 10
6.8620693441
 20
5.573459298
 30
0.0
 10
6.8637404996
 20
5.4960135953
 30
0.0
 10
6.8649369006
 20
5.4465226285
 30
0.0
 10
6.8661289539
 20
5.4040103368
 30
0.0
 10
6.8673014305
 20
5.3691854912
 30
0.0
 10
6.8684679036
 20
5.3426350857
 30
0.0
 10
6.8693566094
 20
5.3277594025
 30
0.0
 10
6.8698972712
 20
5.3217943287
 30
0.0
  0
SPLINE
  5
4AE
100
AcDbEntity
  8
02___PRT_ALL_AXES
100
AcDbSpline
 62
7
  6
CONTINUOUS
 70
0
 71
3
 72
17
 73
13
 74
0
 42
0.0000001
 43
0.0000001
 44
0.0000000001
 40
0.0
 40
0.0
 40
0.0
 40
0.0
 40
0.0359557965
 40
0.0819045597
 40
0.1368556222
 40
0.1996285174
 40
0.4206915121
 40
0.6569090557
 40
0.7664693137
 40
0.8631446752
 40
0.9422599146
 40
1.0
 40
1.0
 40
1.0
 40
1.0
 10
6.770306299
 20
5.3217943287
 30
0.0
 10
6.7697669521
 20
5.3347621796
 30
0.0
 10
6.7687646209
 20
5.3643111632
 30
0.0
 10
6.7674240945
 20
5.4136941825
 30
0.0
 10
6.7660734798
 20
5.4727602988
 30
0.0
 10
6.7636173478
 20
5.5950285599
 30
0.0
 10
6.7605193115
 20
5.7827285125
 30
0.0
 10
6.7573053885
 20
5.9873173007
 30
0.0
 10
6.7545512182
 20
6.1470070406
 30
0.0
 10
6.7525563681
 20
6.2499920035
 30
0.0
 10
6.7505790778
 20
6.3342666771
 30
0.0
 10
6.7490786785
 20
6.3836469013
 30
0.0
 10
6.7482125613
 20
6.4044714941
 30
0.0
  0
SPLINE
  5
4AF
100
AcDbEntity
  8
02___PRT_ALL_AXES
100
AcDbSpline
 62
7
  6
CONTINUOUS
 70
0
 71
3
 72
23
 73
19
 74
0
 42
0.0000001
 43
0.0000001
 44
0.0000000001
 40
0.0
 40
0.0
 40
0.0
 40
0.0
 40
0.0101451875
 40
0.0239350957
 40
0.0620091149
 40
0.1131023639
 40
0.1756996091
 40
0.2870161977
 40
0.4125360492
 40
0.5438929266
 40
0.6723204178
 40
0.7892548072
 40
0.8409299594
 40
0.8868952989
 40
0.9263830594
 40
0.958733278
 40
0.983409395
 40
1.0
 40
1.0
 40
1.0
 40
1.0
 10
6.6819732745
 20
5.3217943287
 30
0.0
 10
6.6816426604
 20
5.3254419648
 30
0.0
 10
6.6810453022
 20
5.3340636441
 30
0.0
 10
6.6798678106
 20
5.3564190567
 30
0.0
 10
6.6785081311
 20
5.3935654738
 30
0.0
 10
6.6769429032
 20
5.4483324703
 30
0.0
 10
6.6750381152
 20
5.5295420483
 30
0.0
 10
6.6729062348
 20
5.6376218513
 30
0.0
 10
6.670557851
 20
5.7705253293
 30
0.0
 10
6.6682036743
 20
5.9096069073
 30
0.0
 10
6.6658513266
 20
6.0455885498
 30
0.0
 10
6.6638314349
 20
6.1528052087
 30
0.0
 10
6.6621602451
 20
6.2302524494
 30
0.0
 10
6.6609638328
 20
6.2797438457
 30
0.0
 10
6.6597717797
 20
6.3222560313
 30
0.0
 10
6.6585993068
 20
6.3570806367
 30
0.0
 10
6.6574328412
 20
6.3836308679
 30
0.0
 10
6.6565441379
 20
6.39850645
 30
0.0
 10
6.6560034788
 20
6.4044714941
 30
0.0
  0
SPLINE
  5
4B0
100
AcDbEntity
  8
02___PRT_ALL_AXES
100
AcDbSpline
 62
7
  6
CONTINUOUS
 70
0
 71
3
 72
17
 73
13
 74
0
 42
0.0000001
 43
0.0000001
 44
0.0000000001
 40
0.0
 40
0.0
 40
0.0
 40
0.0
 40
0.0359557965
 40
0.0819045597
 40
0.1368556222
 40
0.1996285174
 40
0.4206915121
 40
0.6569090557
 40
0.7664693137
 40
0.8631446752
 40
0.9422599146
 40
1.0
 40
1.0
 40
1.0
 40
1.0
 10
6.7112511809
 20
5.3217943287
 30
0.0
 10
6.710711834
 20
5.3347621796
 30
0.0
 10
6.7097095028
 20
5.3643111632
 30
0.0
 10
6.7083689764
 20
5.4136941825
 30
0.0
 10
6.7070183617
 20
5.4727602988
 30
0.0
 10
6.7045622297
 20
5.5950285599
 30
0.0
 10
6.7014641934
 20
5.7827285125
 30
0.0
 10
6.6982502704
 20
5.9873173007
 30
0.0
 10
6.6954961
 20
6.1470070406
 30
0.0
 10
6.69350125
 20
6.2499920035
 30
0.0
 10
6.6915239597
 20
6.3342666771
 30
0.0
 10
6.6900235604
 20
6.3836469013
 30
0.0
 10
6.6891574432
 20
6.4044714941
 30
0.0
  0
SPLINE
  5
4B1
100
AcDbEntity
  8
02___PRT_ALL_AXES
100
AcDbSpline
 62
7
  6
CONTINUOUS
 70
0
 71
3
 72
17
 73
13
 74
0
 42
0.0000001
 43
0.0000001
 44
0.0000000001
 40
0.0
 40
0.0
 40
0.0
 40
0.0
 40
0.0359557965
 40
0.0819045597
 40
0.1368556222
 40
0.1996285174
 40
0.4206915121
 40
0.6569090557
 40
0.7664693137
 40
0.8631446752
 40
0.9422599146
 40
1.0
 40
1.0
 40
1.0
 40
1.0
 10
6.6521960627
 20
5.3217943287
 30
0.0
 10
6.6516567159
 20
5.3347621796
 30
0.0
 10
6.6506543847
 20
5.3643111632
 30
0.0
 10
6.6493138583
 20
5.4136941825
 30
0.0
 10
6.6479632436
 20
5.4727602988
 30
0.0
 10
6.6455071116
 20
5.5950285599
 30
0.0
 10
6.6424090753
 20
5.7827285125
 30
0.0
 10
6.6391951523
 20
5.9873173007
 30
0.0
 10
6.6364409819
 20
6.1470070406
 30
0.0
 10
6.6344461319
 20
6.2499920035
 30
0.0
 10
6.6324688416
 20
6.3342666771
 30
0.0
 10
6.6309684423
 20
6.3836469013
 30
0.0
 10
6.6301023251
 20
6.4044714941
 30
0.0
  0
SPLINE
  5
4B2
100
AcDbEntity
  8
02___PRT_ALL_AXES
100
AcDbSpline
 62
7
  6
CONTINUOUS
 70
0
 71
3
 72
17
 73
13
 74
0
 42
0.0000001
 43
0.0000001
 44
0.0000000001
 40
0.0
 40
0.0
 40
0.0
 40
0.0
 40
0.0359557965
 40
0.0819045597
 40
0.1368556222
 40
0.1996285174
 40
0.4206915121
 40
0.6569090557
 40
0.7664693137
 40
0.8631446752
 40
0.9422599146
 40
1.0
 40
1.0
 40
1.0
 40
1.0
 10
6.5931409446
 20
5.3217943287
 30
0.0
 10
6.5926015978
 20
5.3347621796
 30
0.0
 10
6.5915992666
 20
5.3643111632
 30
0.0
 10
6.5902587402
 20
5.4136941825
 30
0.0
 10
6.5889081254
 20
5.4727602988
 30
0.0
 10
6.5864519935
 20
5.5950285599
 30
0.0
 10
6.5833539572
 20
5.7827285125
 30
0.0
 10
6.5801400342
 20
5.9873173007
 30
0.0
 10
6.5773858638
 20
6.1470070406
 30
0.0
 10
6.5753910138
 20
6.2499920035
 30
0.0
 10
6.5734137235
 20
6.3342666771
 30
0.0
 10
6.5719133242
 20
6.3836469013
 30
0.0
 10
6.571047207
 20
6.4044714941
 30
0.0
  0
SPLINE
  5
4B3
100
AcDbEntity
  8
02___PRT_ALL_AXES
100
AcDbSpline
 62
7
  6
CONTINUOUS
 70
0
 71
3
 72
23
 73
19
 74
0
 42
0.0000001
 43
0.0000001
 44
0.0000000001
 40
0.0
 40
0.0
 40
0.0
 40
0.0
 40
0.0101452476
 40
0.0239350997
 40
0.0620087332
 40
0.1131021202
 40
0.1756997676
 40
0.2870171135
 40
0.4125378475
 40
0.5438925416
 40
0.6723198744
 40
0.7892553187
 40
0.8409309736
 40
0.8868968808
 40
0.9263845813
 40
0.9587340918
 40
0.9834095724
 40
1.0
 40
1.0
 40
1.0
 40
1.0
 10
6.3714865306
 20
6.4044714941
 30
0.0
 10
6.3718171467
 20
6.4008238364
 30
0.0
 10
6.3724145007
 20
6.3922021553
 30
0.0
 10
6.3735919931
 20
6.3698468808
 30
0.0
 10
6.3749516629
 20
6.332700573
 30
0.0
 10
6.3765168995
 20
6.277933521
 30
0.0
 10
6.378421696
 20
6.1967234746
 30
0.0
 10
6.3805535906
 20
6.0886429346
 30
0.0
 10
6.3829019677
 20
5.9557396527
 30
0.0
 10
6.3852561364
 20
5.8166586015
 30
0.0
 10
6.3876084757
 20
5.6806774234
 30
0.0
 10
6.389628377
 20
5.5734602595
 30
0.0
 10
6.3912995843
 20
5.4960122517
 30
0.0
 10
6.3924960136
 20
5.446520491
 30
0.0
 10
6.3936880658
 20
5.4040083777
 30
0.0
 10
6.3948605354
 20
5.3691842796
 30
0.0
 10
6.3960269802
 20
5.3426345973
 30
0.0
 10
6.396915673
 20
5.327759309
 30
0.0
 10
6.3974563263
 20
5.3217943287
 30
0.0
  0
SPLINE
  5
4B4
100
AcDbEntity
  8
02___PRT_ALL_AXES
100
AcDbSpline
 62
7
  6
CONTINUOUS
 70
0
 71
3
 72
17
 73
13
 74
0
 42
0.0000001
 43
0.0000001
 44
0.0000000001
 40
0.0
 40
0.0
 40
0.0
 40
0.0
 40
0.0359557965
 40
0.0819045597
 40
0.1368556222
 40
0.1996285174
 40
0.4206915121
 40
0.6569090557
 40
0.7664693137
 40
0.8631446752
 40
0.9422599146
 40
1.0
 40
1.0
 40
1.0
 40
1.0
 10
6.7776881887
 20
5.3217943287
 30
0.0
 10
6.7771488419
 20
5.3347621796
 30
0.0
 10
6.7761465107
 20
5.3643111632
 30
0.0
 10
6.7748059842
 20
5.4136941825
 30
0.0
 10
6.7734553695
 20
5.4727602988
 30
0.0
 10
6.7709992376
 20
5.5950285599
 30
0.0
 10
6.7679012012
 20
5.7827285125
 30
0.0
 10
6.7646872783
 20
5.9873173007
 30
0.0
 10
6.7619331079
 20
6.1470070406
 30
0.0
 10
6.7599382579
 20
6.2499920035
 30
0.0
 10
6.7579609676
 20
6.3342666771
 30
0.0
 10
6.7564605683
 20
6.3836469013
 30
0.0
 10
6.7555944511
 20
6.4044714941
 30
0.0
  0
SPLINE
  5
4B5
100
AcDbEntity
  8
02___PRT_ALL_AXES
100
AcDbSpline
 62
7
  6
CONTINUOUS
 70
0
 71
3
 72
23
 73
19
 74
0
 42
0.0000001
 43
0.0000001
 44
0.0000000001
 40
0.0
 40
0.0
 40
0.0
 40
0.0
 40
0.0101452476
 40
0.0239350997
 40
0.0620087332
 40
0.1131021202
 40
0.1756997676
 40
0.2870171135
 40
0.4125378475
 40
0.5438925416
 40
0.6723198744
 40
0.7892553187
 40
0.8409309736
 40
0.8868968808
 40
0.9263845813
 40
0.9587340918
 40
0.9834095724
 40
1.0
 40
1.0
 40
1.0
 40
1.0
 10
6.7848723574
 20
6.4044714941
 30
0.0
 10
6.7852029734
 20
6.4008238364
 30
0.0
 10
6.7858003275
 20
6.3922021553
 30
0.0
 10
6.7869778199
 20
6.3698468808
 30
0.0
 10
6.7883374896
 20
6.332700573
 30
0.0
 10
6.7899027263
 20
6.277933521
 30
0.0
 10
6.7918075227
 20
6.1967234746
 30
0.0
 10
6.7939394174
 20
6.0886429346
 30
0.0
 10
6.7962877945
 20
5.9557396527
 30
0.0
 10
6.7986419632
 20
5.8166586015
 30
0.0
 10
6.8009943025
 20
5.6806774234
 30
0.0
 10
6.8030142037
 20
5.5734602595
 30
0.0
 10
6.8046854111
 20
5.4960122517
 30
0.0
 10
6.8058818404
 20
5.446520491
 30
0.0
 10
6.8070738926
 20
5.4040083777
 30
0.0
 10
6.8082463622
 20
5.3691842796
 30
0.0
 10
6.809412807
 20
5.3426345973
 30
0.0
 10
6.8103014998
 20
5.327759309
 30
0.0
 10
6.8108421531
 20
5.3217943287
 30
0.0
  0
SPLINE
  5
4B6
100
AcDbEntity
  8
02___PRT_ALL_AXES
100
AcDbSpline
 62
7
  6
CONTINUOUS
 70
0
 71
3
 72
11
 73
7
 74
0
 42
0.0000001
 43
0.0000001
 44
0.0000000001
 40
0.0
 40
0.0
 40
0.0
 40
0.0
 40
0.1655201767
 40
0.3977764303
 40
0.6819783933
 40
1.0
 40
1.0
 40
1.0
 40
1.0
 10
6.7186330706
 20
5.3217943287
 30
0.0
 10
6.7176089606
 20
5.3464176395
 30
0.0
 10
6.7158969478
 20
5.4056213913
 30
0.0
 10
6.7136390985
 20
5.5071365353
 30
0.0
 10
6.7113647029
 20
5.631363509
 30
0.0
 10
6.7098800049
 20
5.7210172712
 30
0.0
 10
6.7091113396
 20
5.7683618441
 30
0.0
  0
LINE
  5
4B7
100
AcDbEntity
  8
02___PRT_ALL_AXES
100
AcDbLine
 62
7
  6
CONTINUOUS
 10
6.7091113396
 20
5.7683618441
 11
6.7087478387
 21
5.790816258
  0
LINE
  5
4B8
100
AcDbEntity
  8
02___PRT_ALL_AXES
100
AcDbLine
 62
7
  6
CONTINUOUS
 10
6.7087478387
 20
5.790816258
 11
6.7064252054
 21
5.935409892
  0
LINE
  5
4B9
100
AcDbEntity
  8
02___PRT_ALL_AXES
100
AcDbLine
 62
7
  6
CONTINUOUS
 10
6.7064252054
 20
5.935409892
 11
6.7060617138
 21
5.9578639483
  0
SPLINE
  5
4BA
100
AcDbEntity
  8
02___PRT_ALL_AXES
100
AcDbSpline
 62
7
  6
CONTINUOUS
 70
0
 71
3
 72
11
 73
7
 74
0
 42
0.0000001
 43
0.0000001
 44
0.0000000001
 40
0.0
 40
0.0
 40
0.0
 40
0.0
 40
0.3180204114
 40
0.6022235904
 40
0.8344809387
 40
1.0
 40
1.0
 40
1.0
 40
1.0
 10
6.7060617138
 20
5.9578639483
 30
0.0
 10
6.7052929912
 20
6.0052125869
 30
0.0
 10
6.7038081869
 20
6.0948743882
 30
0.0
 10
6.7015336457
 20
6.2191126636
 30
0.0
 10
6.6992756496
 20
6.3206370855
 30
0.0
 10
6.6975635278
 20
6.3798461422
 30
0.0
 10
6.6965393329
 20
6.4044714941
 30
0.0
  0
SPLINE
  5
4BB
100
AcDbEntity
  8
02___PRT_ALL_AXES
100
AcDbSpline
 62
7
  6
CONTINUOUS
 70
0
 71
3
 72
17
 73
13
 74
0
 42
0.0000001
 43
0.0000001
 44
0.0000000001
 40
0.0
 40
0.0
 40
0.0
 40
0.0
 40
0.0359557965
 40
0.0819045597
 40
0.1368556222
 40
0.1996285174
 40
0.4206915121
 40
0.6569090557
 40
0.7664693137
 40
0.8631446752
 40
0.9422599146
 40
1.0
 40
1.0
 40
1.0
 40
1.0
 10
6.6595779525
 20
5.3217943287
 30
0.0
 10
6.6590386056
 20
5.3347621796
 30
0.0
 10
6.6580362745
 20
5.3643111632
 30
0.0
 10
6.656695748
 20
5.4136941825
 30
0.0
 10
6.6553451333
 20
5.4727602988
 30
0.0
 10
6.6528890014
 20
5.5950285599
 30
0.0
 10
6.649790965
 20
5.7827285125
 30
0.0
 10
6.646577042
 20
5.9873173007
 30
0.0
 10
6.6438228717
 20
6.1470070406
 30
0.0
 10
6.6418280217
 20
6.2499920035
 30
0.0
 10
6.6398507314
 20
6.3342666771
 30
0.0
 10
6.6383503321
 20
6.3836469013
 30
0.0
 10
6.6374842148
 20
6.4044714941
 30
0.0
  0
SPLINE
  5
4BC
100
AcDbEntity
  8
02___PRT_ALL_AXES
100
AcDbSpline
 62
7
  6
CONTINUOUS
 70
0
 71
3
 72
17
 73
13
 74
0
 42
0.0000001
 43
0.0000001
 44
0.0000000001
 40
0.0
 40
0.0
 40
0.0
 40
0.0
 40
0.0359557965
 40
0.0819045597
 40
0.1368556222
 40
0.1996285174
 40
0.4206915121
 40
0.6569090557
 40
0.7664693137
 40
0.8631446752
 40
0.9422599146
 40
1.0
 40
1.0
 40
1.0
 40
1.0
 10
6.6005228344
 20
5.3217943287
 30
0.0
 10
6.5999834875
 20
5.3347621796
 30
0.0
 10
6.5989811564
 20
5.3643111632
 30
0.0
 10
6.5976406299
 20
5.4136941825
 30
0.0
 10
6.5962900152
 20
5.4727602988
 30
0.0
 10
6.5938338833
 20
5.5950285599
 30
0.0
 10
6.5907358469
 20
5.7827285125
 30
0.0
 10
6.5875219239
 20
5.9873173007
 30
0.0
 10
6.5847677536
 20
6.1470070406
 30
0.0
 10
6.5827729036
 20
6.2499920035
 30
0.0
 10
6.5807956133
 20
6.3342666771
 30
0.0
 10
6.5792952139
 20
6.3836469013
 30
0.0
 10
6.5784290967
 20
6.4044714941
 30
0.0
  0
SPLINE
  5
4BD
100
AcDbEntity
  8
02___PRT_ALL_AXES
100
AcDbSpline
 62
7
  6
CONTINUOUS
 70
0
 71
3
 72
17
 73
13
 74
0
 42
0.0000001
 43
0.0000001
 44
0.0000000001
 40
0.0
 40
0.0
 40
0.0
 40
0.0
 40
0.0359557965
 40
0.0819045597
 40
0.1368556222
 40
0.1996285174
 40
0.4206915121
 40
0.6569090557
 40
0.7664693137
 40
0.8631446752
 40
0.9422599146
 40
1.0
 40
1.0
 40
1.0
 40
1.0
 10
6.9474716533
 20
5.3217943287
 30
0.0
 10
6.9469323064
 20
5.3347621796
 30
0.0
 10
6.9459299753
 20
5.3643111632
 30
0.0
 10
6.9445894488
 20
5.4136941825
 30
0.0
 10
6.9432388341
 20
5.4727602988
 30
0.0
 10
6.9407827022
 20
5.5950285599
 30
0.0
 10
6.9376846658
 20
5.7827285125
 30
0.0
 10
6.9344707428
 20
5.9873173007
 30
0.0
 10
6.9317165725
 20
6.1470070406
 30
0.0
 10
6.9297217225
 20
6.2499920035
 30
0.0
 10
6.9277444322
 20
6.3342666771
 30
0.0
 10
6.9262440328
 20
6.3836469013
 30
0.0
 10
6.9253779156
 20
6.4044714941
 30
0.0
  0
SPLINE
  5
4BE
100
AcDbEntity
  8
02___PRT_ALL_AXES
100
AcDbSpline
 62
7
  6
CONTINUOUS
 70
0
 71
3
 72
23
 73
19
 74
0
 42
0.0000001
 43
0.0000001
 44
0.0000000001
 40
0.0
 40
0.0
 40
0.0
 40
0.0
 40
0.0101455494
 40
0.0239361034
 40
0.0620113559
 40
0.113105405
 40
0.1757027379
 40
0.2870176796
 40
0.412537966
 40
0.5438968035
 40
0.6723247205
 40
0.7892572192
 40
0.8409306082
 40
0.8868951288
 40
0.9263828641
 40
0.9587331681
 40
0.9834093632
 40
1.0
 40
1.0
 40
1.0
 40
1.0
 10
6.5486518849
 20
6.4044714941
 30
0.0
 10
6.5489825108
 20
6.4008237278
 30
0.0
 10
6.5495798717
 20
6.3922016839
 30
0.0
 10
6.550757424
 20
6.3698454646
 30
0.0
 10
6.5521170971
 20
6.3326980788
 30
0.0
 10
6.5536823372
 20
6.277930317
 30
0.0
 10
6.5555870993
 20
6.1967210123
 30
0.0
 10
6.557718969
 20
6.0886416153
 30
0.0
 10
6.5600673529
 20
5.9557378671
 30
0.0
 10
6.5624215474
 20
5.816655271
 30
0.0
 10
6.5647738998
 20
5.6806734498
 30
0.0
 10
6.56679378
 20
5.5734579563
 30
0.0
 10
6.5684649383
 20
5.49601233
 30
0.0
 10
6.5696613302
 20
5.4465218748
 30
0.0
 10
6.5708533747
 20
5.404009963
 30
0.0
 10
6.5720258476
 20
5.3691853077
 30
0.0
 10
6.5731923162
 20
5.342635006
 30
0.0
 10
6.5740810205
 20
5.3277593842
 30
0.0
 10
6.5746216807
 20
5.3217943287
 30
0.0
  0
SPLINE
  5
4BF
100
AcDbEntity
  8
02___PRT_ALL_AXES
100
AcDbSpline
 62
7
  6
CONTINUOUS
 70
0
 71
3
 72
23
 73
19
 74
0
 42
0.0000001
 43
0.0000001
 44
0.0000000001
 40
0.0
 40
0.0
 40
0.0
 40
0.0
 40
0.0101452548
 40
0.0239351129
 40
0.0620087422
 40
0.1131021324
 40
0.1756997868
 40
0.2870171578
 40
0.4125379357
 40
0.5438926012
 40
0.6723199164
 40
0.7892553626
 40
0.8409310211
 40
0.8868969325
 40
0.9263846339
 40
0.9587341312
 40
0.9834095806
 40
1.0
 40
1.0
 40
1.0
 40
1.0
 10
6.9772488651
 20
5.3217943287
 30
0.0
 10
6.9769182488
 20
5.325441989
 30
0.0
 10
6.9763208949
 20
5.3340636749
 30
0.0
 10
6.9751434017
 20
5.3564189526
 30
0.0
 10
6.9737837327
 20
5.3935652622
 30
0.0
 10
6.9722184957
 20
5.4483323163
 30
0.0
 10
6.9703136992
 20
5.5295423755
 30
0.0
 10
6.968181804
 20
5.637622943
 30
0.0
 10
6.9658334268
 20
5.7705262395
 30
0.0
 10
6.9634792581
 20
5.9096072899
 30
0.0
 10
6.9611269191
 20
6.0455884519
 30
0.0
 10
6.9591070178
 20
6.1528056115
 30
0.0
 10
6.9574358102
 20
6.2302536227
 30
0.0
 10
6.9562393807
 20
6.2797453866
 30
0.0
 10
6.9550473283
 20
6.322257497
 30
0.0
 10
6.9538748589
 20
6.3570815794
 30
0.0
 10
6.9527084146
 20
6.3836312427
 30
0.0
 10
6.9518197224
 20
6.3985065168
 30
0.0
 10
6.9512790694
 20
6.4044714941
 30
0.0
  0
SPLINE
  5
4C0
100
AcDbEntity
  8
02___PRT_ALL_AXES
100
AcDbSpline
 62
7
  6
CONTINUOUS
 70
0
 71
3
 72
17
 73
13
 74
0
 42
0.0000001
 43
0.0000001
 44
0.0000000001
 40
0.0
 40
0.0
 40
0.0
 40
0.0
 40
0.0359557965
 40
0.0819045597
 40
0.1368556222
 40
0.1996285174
 40
0.4206915121
 40
0.6569090557
 40
0.7664693137
 40
0.8631446752
 40
0.9422599146
 40
1.0
 40
1.0
 40
1.0
 40
1.0
 10
6.5340858265
 20
5.3217943287
 30
0.0
 10
6.5335464796
 20
5.3347621796
 30
0.0
 10
6.5325441485
 20
5.3643111632
 30
0.0
 10
6.531203622
 20
5.4136941825
 30
0.0
 10
6.5298530073
 20
5.4727602988
 30
0.0
 10
6.5273968754
 20
5.5950285599
 30
0.0
 10
6.524298839
 20
5.7827285125
 30
0.0
 10
6.5210849161
 20
5.9873173007
 30
0.0
 10
6.5183307457
 20
6.1470070406
 30
0.0
 10
6.5163358957
 20
6.2499920035
 30
0.0
 10
6.5143586054
 20
6.3342666771
 30
0.0
 10
6.5128582061
 20
6.3836469013
 30
0.0
 10
6.5119920888
 20
6.4044714941
 30
0.0
  0
SPLINE
  5
4C1
100
AcDbEntity
  8
02___PRT_ALL_AXES
100
AcDbSpline
 62
7
  6
CONTINUOUS
 70
0
 71
3
 72
23
 73
19
 74
0
 42
0.0000001
 43
0.0000001
 44
0.0000000001
 40
0.0
 40
0.0
 40
0.0
 40
0.0
 40
0.0101454565
 40
0.0239357241
 40
0.0620099602
 40
0.113103426
 40
0.1757013846
 40
0.2870190003
 40
0.4125403746
 40
0.5438957831
 40
0.6723218346
 40
0.7892570294
 40
0.8409325144
 40
0.8868981865
 40
0.9263858219
 40
0.9587352425
 40
0.9834099789
 40
1.0
 40
1.0
 40
1.0
 40
1.0
 10
6.8591386289
 20
5.3217943287
 30
0.0
 10
6.858808006
 20
5.3254420615
 30
0.0
 10
6.8582106489
 20
5.3340639684
 30
0.0
 10
6.8570331249
 20
5.3564196847
 30
0.0
 10
6.8556734606
 20
5.3935663893
 30
0.0
 10
6.8541082217
 20
5.4483337995
 30
0.0
 10
6.8522034266
 20
5.5295440843
 30
0.0
 10
6.850071528
 20
5.6376250652
 30
0.0
 10
6.8477231447
 20
5.7705289336
 30
0.0
 10
6.8453689757
 20
5.9096100113
 30
0.0
 10
6.8430166388
 20
6.0455908946
 30
0.0
 10
6.8409967458
 20
6.1528074446
 30
0.0
 10
6.8393255365
 20
6.230255216
 30
0.0
 10
6.8381291083
 20
6.2797468071
 30
0.0
 10
6.8369370528
 20
6.3222587794
 30
0.0
 10
6.8357645832
 20
6.3570825526
 30
0.0
 10
6.8345981574
 20
6.3836317876
 30
0.0
 10
6.8337094732
 20
6.39850666
 30
0.0
 10
6.8331688331
 20
6.4044714941
 30
0.0
  0
SPLINE
  5
4C2
100
AcDbEntity
  8
02___PRT_ALL_AXES
100
AcDbSpline
 62
7
  6
CONTINUOUS
 70
0
 71
3
 72
23
 73
19
 74
0
 42
0.0000001
 43
0.0000001
 44
0.0000000001
 40
0.0
 40
0.0
 40
0.0
 40
0.0
 40
0.0101452548
 40
0.0239351129
 40
0.0620087422
 40
0.1131021324
 40
0.1756997868
 40
0.2870171578
 40
0.4125379357
 40
0.5438926012
 40
0.6723199164
 40
0.7892553626
 40
0.8409310211
 40
0.8868969325
 40
0.9263846339
 40
0.9587341312
 40
0.9834095806
 40
1.0
 40
1.0
 40
1.0
 40
1.0
 10
6.5638630383
 20
5.3217943287
 30
0.0
 10
6.563532422
 20
5.325441989
 30
0.0
 10
6.5629350681
 20
5.3340636749
 30
0.0
 10
6.561757575
 20
5.3564189526
 30
0.0
 10
6.5603979059
 20
5.3935652622
 30
0.0
 10
6.5588326689
 20
5.4483323163
 30
0.0
 10
6.5569278724
 20
5.5295423755
 30
0.0
 10
6.5547959772
 20
5.637622943
 30
0.0
 10
6.5524476
 20
5.7705262395
 30
0.0
 10
6.5500934314
 20
5.9096072899
 30
0.0
 10
6.5477410923
 20
6.0455884519
 30
0.0
 10
6.545721191
 20
6.1528056115
 30
0.0
 10
6.5440499834
 20
6.2302536227
 30
0.0
 10
6.5428535539
 20
6.2797453866
 30
0.0
 10
6.5416615015
 20
6.322257497
 30
0.0
 10
6.5404890322
 20
6.3570815794
 30
0.0
 10
6.5393225879
 20
6.3836312427
 30
0.0
 10
6.5384338957
 20
6.3985065168
 30
0.0
 10
6.5378932426
 20
6.4044714941
 30
0.0
  0
SPLINE
  5
4C3
100
AcDbEntity
  8
02___PRT_ALL_AXES
100
AcDbSpline
 62
7
  6
CONTINUOUS
 70
0
 71
3
 72
17
 73
13
 74
0
 42
0.0000001
 43
0.0000001
 44
0.0000000001
 40
0.0
 40
0.0
 40
0.0
 40
0.0
 40
0.0359557965
 40
0.0819045597
 40
0.1368556222
 40
0.1996285174
 40
0.4206915121
 40
0.6569090557
 40
0.7664693137
 40
0.8631446752
 40
0.9422599146
 40
1.0
 40
1.0
 40
1.0
 40
1.0
 10
6.8884165352
 20
5.3217943287
 30
0.0
 10
6.8878771883
 20
5.3347621796
 30
0.0
 10
6.8868748572
 20
5.3643111632
 30
0.0
 10
6.8855343307
 20
5.4136941825
 30
0.0
 10
6.884183716
 20
5.4727602988
 30
0.0
 10
6.8817275841
 20
5.5950285599
 30
0.0
 10
6.8786295477
 20
5.7827285125
 30
0.0
 10
6.8754156247
 20
5.9873173007
 30
0.0
 10
6.8726614544
 20
6.1470070406
 30
0.0
 10
6.8706666044
 20
6.2499920035
 30
0.0
 10
6.8686893141
 20
6.3342666771
 30
0.0
 10
6.8671889147
 20
6.3836469013
 30
0.0
 10
6.8663227975
 20
6.4044714941
 30
0.0
  0
SPLINE
  5
4C4
100
AcDbEntity
  8
02___PRT_ALL_AXES
100
AcDbSpline
 62
7
  6
CONTINUOUS
 70
0
 71
3
 72
17
 73
13
 74
0
 42
0.0000001
 43
0.0000001
 44
0.0000000001
 40
0.0
 40
0.0
 40
0.0
 40
0.0
 40
0.0359557965
 40
0.0819045597
 40
0.1368556222
 40
0.1996285174
 40
0.4206915121
 40
0.6569090557
 40
0.7664693137
 40
0.8631446752
 40
0.9422599146
 40
1.0
 40
1.0
 40
1.0
 40
1.0
 10
6.4750307084
 20
5.3217943287
 30
0.0
 10
6.4744913615
 20
5.3347621796
 30
0.0
 10
6.4734890304
 20
5.3643111632
 30
0.0
 10
6.4721485039
 20
5.4136941825
 30
0.0
 10
6.4707978892
 20
5.4727602988
 30
0.0
 10
6.4683417573
 20
5.5950285599
 30
0.0
 10
6.4652437209
 20
5.7827285125
 30
0.0
 10
6.4620297979
 20
5.9873173007
 30
0.0
 10
6.4592756276
 20
6.1470070406
 30
0.0
 10
6.4572807776
 20
6.2499920035
 30
0.0
 10
6.4553034873
 20
6.3342666771
 30
0.0
 10
6.453803088
 20
6.3836469013
 30
0.0
 10
6.4529369707
 20
6.4044714941
 30
0.0
  0
SPLINE
  5
4C5
100
AcDbEntity
  8
02___PRT_ALL_AXES
100
AcDbSpline
 62
7
  6
CONTINUOUS
 70
0
 71
3
 72
23
 73
19
 74
0
 42
0.0000001
 43
0.0000001
 44
0.0000000001
 40
0.0
 40
0.0
 40
0.0
 40
0.0
 40
0.0101455748
 40
0.0239361837
 40
0.0620116066
 40
0.1131057558
 40
0.1757024898
 40
0.2870157063
 40
0.4125364941
 40
0.5438956661
 40
0.6723239775
 40
0.7892555714
 40
0.8409294136
 40
0.8868945601
 40
0.9263825803
 40
0.958732999
 40
0.9834093115
 40
1.0
 40
1.0
 40
1.0
 40
1.0
 10
6.918193747
 20
5.3217943287
 30
0.0
 10
6.9178631202
 20
5.3254421041
 30
0.0
 10
6.917265759
 20
5.334064177
 30
0.0
 10
6.9160882009
 20
5.3564204867
 30
0.0
 10
6.9147285272
 20
5.39356799
 30
0.0
 10
6.9131632917
 20
5.4483356334
 30
0.0
 10
6.9112585479
 20
5.5295441353
 30
0.0
 10
6.9091266886
 20
5.6376228744
 30
0.0
 10
6.9067783067
 20
5.7705263015
 30
0.0
 10
6.9044241053
 20
5.9096093417
 30
0.0
 10
6.9020717543
 20
6.0455910995
 30
0.0
 10
6.9000518774
 20
6.1528065724
 30
0.0
 10
6.898380722
 20
6.2302522616
 30
0.0
 10
6.8971843215
 20
6.2797432092
 30
0.0
 10
6.8959922684
 20
6.3222554911
 30
0.0
 10
6.8948197919
 20
6.3570803331
 30
0.0
 10
6.8936533188
 20
6.3836307371
 30
0.0
 10
6.8927646131
 20
6.39850642
 30
0.0
 10
6.8922239512
 20
6.4044714941
 30
0.0
  0
SPLINE
  5
4C6
100
AcDbEntity
  8
02___PRT_ALL_AXES
100
AcDbSpline
 62
7
  6
CONTINUOUS
 70
0
 71
3
 72
23
 73
19
 74
0
 42
0.0000001
 43
0.0000001
 44
0.0000000001
 40
0.0
 40
0.0
 40
0.0
 40
0.0
 40
0.0101455339
 40
0.0239360511
 40
0.0620112108
 40
0.1131050079
 40
0.1757022252
 40
0.2870187848
 40
0.4125396848
 40
0.5438969938
 40
0.6723230213
 40
0.789257422
 40
0.8409325602
 40
0.8868979428
 40
0.9263854182
 40
0.9587349903
 40
0.9834100468
 40
1.0
 40
1.0
 40
1.0
 40
1.0
 10
6.607707003
 20
6.4044714941
 30
0.0
 10
6.6080376284
 20
6.4008237334
 30
0.0
 10
6.608634989
 20
6.3922017084
 30
0.0
 10
6.609812538
 20
6.3698455414
 30
0.0
 10
6.6111722077
 20
6.3326982934
 30
0.0
 10
6.612737446
 20
6.2779306977
 30
0.0
 10
6.6146422194
 20
6.1967209418
 30
0.0
 10
6.6167741035
 20
6.0886407809
 30
0.0
 10
6.6191224892
 20
5.955736779
 30
0.0
 10
6.6214766668
 20
5.8166551951
 30
0.0
 10
6.6238290107
 20
5.6806739211
 30
0.0
 10
6.6258488986
 20
5.5734577916
 30
0.0
 10
6.627520097
 20
5.4960105365
 30
0.0
 10
6.628716519
 20
5.4465192329
 30
0.0
 10
6.629908567
 20
5.4040073679
 30
0.0
 10
6.631081044
 20
5.3691834825
 30
0.0
 10
6.6322474674
 20
5.3426341014
 30
0.0
 10
6.6331361609
 20
5.3277591384
 30
0.0
 10
6.6336767988
 20
5.3217943287
 30
0.0
  0
SPLINE
  5
4C7
100
AcDbEntity
  8
02___PRT_ALL_AXES
100
AcDbSpline
 62
7
  6
CONTINUOUS
 70
0
 71
3
 72
17
 73
13
 74
0
 42
0.0000001
 43
0.0000001
 44
0.0000000001
 40
0.0
 40
0.0
 40
0.0
 40
0.0
 40
0.0359557965
 40
0.0819045597
 40
0.1368556222
 40
0.1996285174
 40
0.4206915121
 40
0.6569090557
 40
0.7664693137
 40
0.8631446752
 40
0.9422599146
 40
1.0
 40
1.0
 40
1.0
 40
1.0
 10
6.4159755903
 20
5.3217943287
 30
0.0
 10
6.4154362434
 20
5.3347621796
 30
0.0
 10
6.4144339123
 20
5.3643111632
 30
0.0
 10
6.4130933858
 20
5.4136941825
 30
0.0
 10
6.4117427711
 20
5.4727602988
 30
0.0
 10
6.4092866392
 20
5.5950285599
 30
0.0
 10
6.4061886028
 20
5.7827285125
 30
0.0
 10
6.4029746798
 20
5.9873173007
 30
0.0
 10
6.4002205095
 20
6.1470070406
 30
0.0
 10
6.3982256595
 20
6.2499920035
 30
0.0
 10
6.3962483692
 20
6.3342666771
 30
0.0
 10
6.3947479698
 20
6.3836469013
 30
0.0
 10
6.3938818526
 20
6.4044714941
 30
0.0
  0
SPLINE
  5
4C8
100
AcDbEntity
  8
02___PRT_ALL_AXES
100
AcDbSpline
 62
7
  6
CONTINUOUS
 70
0
 71
3
 72
17
 73
13
 74
0
 42
0.0000001
 43
0.0000001
 44
0.0000000001
 40
0.0
 40
0.0
 40
0.0
 40
0.0
 40
0.0359557965
 40
0.0819045597
 40
0.1368556222
 40
0.1996285174
 40
0.4206915121
 40
0.6569090557
 40
0.7664693137
 40
0.8631446752
 40
0.9422599146
 40
1.0
 40
1.0
 40
1.0
 40
1.0
 10
6.8293614171
 20
5.3217943287
 30
0.0
 10
6.8288220702
 20
5.3347621796
 30
0.0
 10
6.8278197391
 20
5.3643111632
 30
0.0
 10
6.8264792126
 20
5.4136941825
 30
0.0
 10
6.8251285979
 20
5.4727602988
 30
0.0
 10
6.8226724659
 20
5.5950285599
 30
0.0
 10
6.8195744296
 20
5.7827285125
 30
0.0
 10
6.8163605066
 20
5.9873173007
 30
0.0
 10
6.8136063363
 20
6.1470070406
 30
0.0
 10
6.8116114863
 20
6.2499920035
 30
0.0
 10
6.8096341959
 20
6.3342666771
 30
0.0
 10
6.8081337966
 20
6.3836469013
 30
0.0
 10
6.8072676794
 20
6.4044714941
 30
0.0
  0
SPLINE
  5
4C9
100
AcDbEntity
  8
02___PRT_ALL_AXES
100
AcDbSpline
 62
7
  6
CONTINUOUS
 70
0
 71
3
 72
17
 73
13
 74
0
 42
0.0000001
 43
0.0000001
 44
0.0000000001
 40
0.0
 40
0.0
 40
0.0
 40
0.0
 40
0.0359557965
 40
0.0819045597
 40
0.1368556222
 40
0.1996285174
 40
0.4206915121
 40
0.6569090557
 40
0.7664693137
 40
0.8631446752
 40
0.9422599146
 40
1.0
 40
1.0
 40
1.0
 40
1.0
 10
6.5414677163
 20
5.3217943287
 30
0.0
 10
6.5409283694
 20
5.3347621796
 30
0.0
 10
6.5399260383
 20
5.3643111632
 30
0.0
 10
6.5385855118
 20
5.4136941825
 30
0.0
 10
6.5372348971
 20
5.4727602988
 30
0.0
 10
6.5347787652
 20
5.5950285599
 30
0.0
 10
6.5316807288
 20
5.7827285125
 30
0.0
 10
6.5284668058
 20
5.9873173007
 30
0.0
 10
6.5257126355
 20
6.1470070406
 30
0.0
 10
6.5237177855
 20
6.2499920035
 30
0.0
 10
6.5217404952
 20
6.3342666771
 30
0.0
 10
6.5202400958
 20
6.3836469013
 30
0.0
 10
6.5193739786
 20
6.4044714941
 30
0.0
  0
SPLINE
  5
4CA
100
AcDbEntity
  8
02___PRT_ALL_AXES
100
AcDbSpline
 62
7
  6
CONTINUOUS
 70
0
 71
3
 72
23
 73
19
 74
0
 42
0.0000001
 43
0.0000001
 44
0.0000000001
 40
0.0
 40
0.0
 40
0.0
 40
0.0
 40
0.0101455489
 40
0.0239360986
 40
0.0620113574
 40
0.1131051412
 40
0.1757009349
 40
0.2870148316
 40
0.4125354321
 40
0.5438942059
 40
0.6723221527
 40
0.7892546098
 40
0.8409294262
 40
0.8868949371
 40
0.9263829126
 40
0.9587331843
 40
0.9834093702
 40
1.0
 40
1.0
 40
1.0
 40
1.0
 10
6.7258172393
 20
6.4044714941
 30
0.0
 10
6.7261478651
 20
6.400823728
 30
0.0
 10
6.7267452259
 20
6.3922016859
 30
0.0
 10
6.7279227783
 20
6.369845466
 30
0.0
 10
6.7292824477
 20
6.3326981752
 30
0.0
 10
6.730847671
 20
6.2779310623
 30
0.0
 10
6.7327524168
 20
6.1967227863
 30
0.0
 10
6.7348842741
 20
6.0886442087
 30
0.0
 10
6.7372326588
 20
5.9557407475
 30
0.0
 10
6.7395868542
 20
5.8166580502
 30
0.0
 10
6.7419392046
 20
5.6806762562
 30
0.0
 10
6.743959088
 20
5.5734602516
 30
0.0
 10
6.7456302591
 20
5.4960137676
 30
0.0
 10
6.7468266718
 20
5.4465223531
 30
0.0
 10
6.748018727
 20
5.4040100088
 30
0.0
 10
6.7491912033
 20
5.3691852818
 30
0.0
 10
6.7503576708
 20
5.3426349976
 30
0.0
 10
6.7512463751
 20
5.3277593817
 30
0.0
 10
6.751787035
 20
5.3217943287
 30
0.0
  0
SPLINE
  5
4CB
100
AcDbEntity
  8
02___PRT_ALL_AXES
100
AcDbSpline
 62
7
  6
CONTINUOUS
 70
0
 71
3
 72
10
 73
6
 74
0
 42
0.0000001
 43
0.0000001
 44
0.0000000001
 40
0.0
 40
0.0
 40
0.0
 40
0.0
 40
0.1760719129
 40
0.4058736573
 40
1.0
 40
1.0
 40
1.0
 40
1.0
 10
6.4824125982
 20
5.3217943287
 30
0.0
 10
6.4817897236
 20
5.3367704868
 30
0.0
 10
6.480651535
 20
5.3713049339
 30
0.0
 10
6.4784420293
 20
5.4564068748
 30
0.0
 10
6.4770808801
 20
5.5265358912
 30
0.0
 10
6.4761528571
 20
5.5771057016
 30
0.0
  0
SPLINE
  5
4CC
100
AcDbEntity
  8
02___PRT_ALL_AXES
100
AcDbSpline
 62
7
  6
CONTINUOUS
 70
0
 71
3
 72
12
 73
8
 74
0
 42
0.0000001
 43
0.0000001
 44
0.0000000001
 40
0.0
 40
0.0
 40
0.0
 40
0.0
 40
0.3138166679
 40
0.6007426324
 40
0.8361910718
 40
0.9280886827
 40
1.0
 40
1.0
 40
1.0
 40
1.0
 10
6.4713660464
 20
5.8631131232
 30
0.0
 10
6.4704586332
 20
5.9197475598
 30
0.0
 10
6.4687242856
 20
6.0281635825
 30
0.0
 10
6.4660939119
 20
6.1790671444
 30
0.0
 10
6.4638126824
 20
6.2899163655
 30
0.0
 10
6.4618610233
 20
6.3619532
 30
0.0
 10
6.4608582251
 20
6.3915032176
 30
0.0
 10
6.4603188605
 20
6.4044714941
 30
0.0
  0
SPLINE
  5
4CD
100
AcDbEntity
  8
02___PRT_ALL_AXES
100
AcDbSpline
 62
7
  6
CONTINUOUS
 70
0
 71
3
 72
23
 73
19
 74
0
 42
0.0000001
 43
0.0000001
 44
0.0000000001
 40
0.0
 40
0.0
 40
0.0
 40
0.0
 40
0.0101455496
 40
0.0239361023
 40
0.0620113723
 40
0.113105178
 40
0.1757009799
 40
0.2870148402
 40
0.4125354472
 40
0.5438942367
 40
0.6723222055
 40
0.7892546025
 40
0.8409293962
 40
0.8868949018
 40
0.9263828839
 40
0.9587331672
 40
0.983409363
 40
1.0
 40
1.0
 40
1.0
 40
1.0
 10
6.6229181564
 20
5.3217943287
 30
0.0
 10
6.6225875305
 20
5.325442095
 30
0.0
 10
6.6219901697
 20
5.3340641385
 30
0.0
 10
6.620812617
 20
5.3564203637
 30
0.0
 10
6.6194529473
 20
5.3935676676
 30
0.0
 10
6.6178877239
 20
5.4483347954
 30
0.0
 10
6.6159829782
 20
5.5295430691
 30
0.0
 10
6.6138511211
 20
5.6376216389
 30
0.0
 10
6.6115027366
 20
5.770525095
 30
0.0
 10
6.6091485409
 20
5.9096078083
 30
0.0
 10
6.6067961906
 20
6.0455895941
 30
0.0
 10
6.6047763075
 20
6.1528055768
 30
0.0
 10
6.6031051372
 20
6.2302520289
 30
0.0
 10
6.6019087249
 20
6.2797434358
 30
0.0
 10
6.6007166695
 20
6.3222557847
 30
0.0
 10
6.5995441933
 20
6.3570805219
 30
0.0
 10
6.5983777252
 20
6.3836308164
 30
0.0
 10
6.5974890209
 20
6.3985064386
 30
0.0
 10
6.5969483607
 20
6.4044714941
 30
0.0
  0
SPLINE
  5
4CE
100
AcDbEntity
  8
02___PRT_ALL_AXES
100
AcDbSpline
 62
7
  6
CONTINUOUS
 70
0
 71
3
 72
17
 73
13
 74
0
 42
0.0000001
 43
0.0000001
 44
0.0000000001
 40
0.0
 40
0.0
 40
0.0
 40
0.0
 40
0.0359557965
 40
0.0819045597
 40
0.1368556222
 40
0.1996285174
 40
0.4206915121
 40
0.6569090557
 40
0.7664693137
 40
0.8631446752
 40
0.9422599146
 40
1.0
 40
1.0
 40
1.0
 40
1.0
 10
6.4233574801
 20
5.3217943287
 30
0.0
 10
6.4228181332
 20
5.3347621796
 30
0.0
 10
6.421815802
 20
5.3643111632
 30
0.0
 10
6.4204752756
 20
5.4136941825
 30
0.0
 10
6.4191246609
 20
5.4727602988
 30
0.0
 10
6.4166685289
 20
5.5950285599
 30
0.0
 10
6.4135704926
 20
5.7827285125
 30
0.0
 10
6.4103565696
 20
5.9873173007
 30
0.0
 10
6.4076023993
 20
6.1470070406
 30
0.0
 10
6.4056075492
 20
6.2499920035
 30
0.0
 10
6.4036302589
 20
6.3342666771
 30
0.0
 10
6.4021298596
 20
6.3836469013
 30
0.0
 10
6.4012637424
 20
6.4044714941
 30
0.0
  0
SPLINE
  5
4CF
100
AcDbEntity
  8
02___PRT_ALL_AXES
100
AcDbSpline
 62
7
  6
CONTINUOUS
 70
0
 71
3
 72
23
 73
19
 74
0
 42
0.0000001
 43
0.0000001
 44
0.0000000001
 40
0.0
 40
0.0
 40
0.0
 40
0.0
 40
0.0101455455
 40
0.0239360934
 40
0.0620113325
 40
0.1131053697
 40
0.1757027122
 40
0.287017728
 40
0.4125380063
 40
0.5438968222
 40
0.6723247265
 40
0.7892572514
 40
0.8409306563
 40
0.8868951656
 40
0.9263828827
 40
0.958733178
 40
0.983409365
 40
1.0
 40
1.0
 40
1.0
 40
1.0
 10
6.8000835108
 20
5.3217943287
 30
0.0
 10
6.799752885
 20
5.3254420936
 30
0.0
 10
6.7991555241
 20
5.3340641339
 30
0.0
 10
6.7979779725
 20
5.3564203447
 30
0.0
 10
6.7966182993
 20
5.3935677191
 30
0.0
 10
6.7950530593
 20
5.4483354753
 30
0.0
 10
6.7931482964
 20
5.5295448059
 30
0.0
 10
6.7910164262
 20
5.6376242302
 30
0.0
 10
6.7886680421
 20
5.7705279944
 30
0.0
 10
6.7863138479
 20
5.9096105753
 30
0.0
 10
6.7839614955
 20
6.0455923935
 30
0.0
 10
6.7819416151
 20
6.1528078976
 30
0.0
 10
6.7802704564
 20
6.230253535
 30
0.0
 10
6.7790740646
 20
6.2797439853
 30
0.0
 10
6.7778820202
 20
6.3222558833
 30
0.0
 10
6.7767095476
 20
6.3570805261
 30
0.0
 10
6.7755430792
 20
6.383630821
 30
0.0
 10
6.7746543751
 20
6.3985064393
 30
0.0
 10
6.774113715
 20
6.4044714941
 30
0.0
  0
SPLINE
  5
4D0
100
AcDbEntity
  8
02___PRT_ALL_AXES
100
AcDbSpline
 62
7
  6
CONTINUOUS
 70
0
 71
3
 72
17
 73
13
 74
0
 42
0.0000001
 43
0.0000001
 44
0.0000000001
 40
0.0
 40
0.0
 40
0.0
 40
0.0
 40
0.0359557965
 40
0.0819045597
 40
0.1368556222
 40
0.1996285174
 40
0.4206915121
 40
0.6569090557
 40
0.7664693137
 40
0.8631446752
 40
0.9422599146
 40
1.0
 40
1.0
 40
1.0
 40
1.0
 10
6.9548535431
 20
5.3217943287
 30
0.0
 10
6.9543141962
 20
5.3347621796
 30
0.0
 10
6.953311865
 20
5.3643111632
 30
0.0
 10
6.9519713386
 20
5.4136941825
 30
0.0
 10
6.9506207239
 20
5.4727602988
 30
0.0
 10
6.9481645919
 20
5.5950285599
 30
0.0
 10
6.9450665556
 20
5.7827285125
 30
0.0
 10
6.9418526326
 20
5.9873173007
 30
0.0
 10
6.9390984623
 20
6.1470070406
 30
0.0
 10
6.9371036122
 20
6.2499920035
 30
0.0
 10
6.9351263219
 20
6.3342666771
 30
0.0
 10
6.9336259226
 20
6.3836469013
 30
0.0
 10
6.9327598054
 20
6.4044714941
 30
0.0
  0
SPLINE
  5
4D1
100
AcDbEntity
  8
02___PRT_ALL_AXES
100
AcDbSpline
 62
7
  6
CONTINUOUS
 70
0
 71
3
 72
23
 73
19
 74
0
 42
0.0000001
 43
0.0000001
 44
0.0000000001
 40
0.0
 40
0.0
 40
0.0
 40
0.0
 40
0.0101454531
 40
0.0239357081
 40
0.0620099111
 40
0.1131033743
 40
0.1757013384
 40
0.2870189573
 40
0.4125403298
 40
0.5438956924
 40
0.6723217793
 40
0.7892570044
 40
0.8409324975
 40
0.8868981743
 40
0.9263858128
 40
0.9587352303
 40
0.9834099672
 40
1.0
 40
1.0
 40
1.0
 40
1.0
 10
6.4895967668
 20
6.4044714941
 30
0.0
 10
6.4899273896
 20
6.4008237625
 30
0.0
 10
6.4905247464
 20
6.3922018614
 30
0.0
 10
6.4917022696
 20
6.3698461628
 30
0.0
 10
6.4930619336
 20
6.3326994757
 30
0.0
 10
6.4946271727
 20
6.2779320764
 30
0.0
 10
6.4965319681
 20
6.1967217894
 30
0.0
 10
6.4986638667
 20
6.088640806
 30
0.0
 10
6.5010122498
 20
5.9557369536
 30
0.0
 10
6.5033664188
 20
5.8166558804
 30
0.0
 10
6.5057187557
 20
5.6806749899
 30
0.0
 10
6.5077386491
 20
5.5734584133
 30
0.0
 10
6.5094098588
 20
5.4960106263
 30
0.0
 10
6.510606287
 20
5.4465190295
 30
0.0
 10
6.5117983427
 20
5.4040070555
 30
0.0
 10
6.5129708118
 20
5.3691832821
 30
0.0
 10
6.5141372382
 20
5.3426340438
 30
0.0
 10
6.5150259221
 20
5.327759167
 30
0.0
 10
6.5155665626
 20
5.3217943287
 30
0.0
  0
SPLINE
  5
4D2
100
AcDbEntity
  8
02___PRT_ALL_AXES
100
AcDbSpline
 62
7
  6
CONTINUOUS
 70
0
 71
3
 72
23
 73
19
 74
0
 42
0.0000001
 43
0.0000001
 44
0.0000000001
 40
0.0
 40
0.0
 40
0.0
 40
0.0
 40
0.0101455329
 40
0.0239360485
 40
0.0620112097
 40
0.1131049805
 40
0.1757021155
 40
0.2870185871
 40
0.4125394641
 40
0.5438968461
 40
0.672322955
 40
0.7892573468
 40
0.8409324916
 40
0.8868978829
 40
0.9263853683
 40
0.9587349528
 40
0.9834100326
 40
1.0
 40
1.0
 40
1.0
 40
1.0
 10
6.7410283927
 20
5.3217943287
 30
0.0
 10
6.7406977673
 20
5.325442089
 30
0.0
 10
6.7401004068
 20
5.3340641131
 30
0.0
 10
6.7389228578
 20
5.3564202797
 30
0.0
 10
6.7375631884
 20
5.3935675182
 30
0.0
 10
6.735997951
 20
5.4483350752
 30
0.0
 10
6.7340931789
 20
5.5295447602
 30
0.0
 10
6.7319612958
 20
5.6376248512
 30
0.0
 10
6.7296129099
 20
5.7705288395
 30
0.0
 10
6.7272587315
 20
5.9096104708
 30
0.0
 10
6.7249063868
 20
6.0455917973
 30
0.0
 10
6.7228864986
 20
6.1528079553
 30
0.0
 10
6.7212153004
 20
6.2302552128
 30
0.0
 10
6.7200188784
 20
6.2797465255
 30
0.0
 10
6.7188268302
 20
6.3222584017
 30
0.0
 10
6.7176543532
 20
6.3570823037
 30
0.0
 10
6.716487929
 20
6.3836317027
 30
0.0
 10
6.7155992353
 20
6.3985066793
 30
0.0
 10
6.7150585969
 20
6.4044714941
 30
0.0
  0
SPLINE
  5
4D3
100
AcDbEntity
  8
02___PRT_ALL_AXES
100
AcDbSpline
 62
7
  6
CONTINUOUS
 70
0
 71
3
 72
17
 73
13
 74
0
 42
0.0000001
 43
0.0000001
 44
0.0000000001
 40
0.0
 40
0.0
 40
0.0
 40
0.0
 40
0.0359557965
 40
0.0819045597
 40
0.1368556222
 40
0.1996285174
 40
0.4206915121
 40
0.6569090557
 40
0.7664693137
 40
0.8631446752
 40
0.9422599146
 40
1.0
 40
1.0
 40
1.0
 40
1.0
 10
6.8957984249
 20
5.3217943287
 30
0.0
 10
6.8952590781
 20
5.3347621796
 30
0.0
 10
6.8942567469
 20
5.3643111632
 30
0.0
 10
6.8929162205
 20
5.4136941825
 30
0.0
 10
6.8915656058
 20
5.4727602988
 30
0.0
 10
6.8891094738
 20
5.5950285599
 30
0.0
 10
6.8860114375
 20
5.7827285125
 30
0.0
 10
6.8827975145
 20
5.9873173007
 30
0.0
 10
6.8800433441
 20
6.1470070406
 30
0.0
 10
6.8780484941
 20
6.2499920035
 30
0.0
 10
6.8760712038
 20
6.3342666771
 30
0.0
 10
6.8745708045
 20
6.3836469013
 30
0.0
 10
6.8737046873
 20
6.4044714941
 30
0.0
  0
SPLINE
  5
4D4
100
AcDbEntity
  8
02___PRT_ALL_AXES
100
AcDbSpline
 62
7
  6
CONTINUOUS
 70
0
 71
3
 72
23
 73
19
 74
0
 42
0.0000001
 43
0.0000001
 44
0.0000000001
 40
0.0
 40
0.0
 40
0.0
 40
0.0
 40
0.0101455748
 40
0.0239361837
 40
0.0620116066
 40
0.1131057558
 40
0.1757024898
 40
0.2870157063
 40
0.4125364941
 40
0.5438956661
 40
0.6723239775
 40
0.7892555714
 40
0.8409294136
 40
0.8868945601
 40
0.9263825803
 40
0.958732999
 40
0.9834093115
 40
1.0
 40
1.0
 40
1.0
 40
1.0
 10
6.5048079202
 20
5.3217943287
 30
0.0
 10
6.5044772935
 20
5.3254421041
 30
0.0
 10
6.5038799322
 20
5.334064177
 30
0.0
 10
6.5027023741
 20
5.3564204867
 30
0.0
 10
6.5013427004
 20
5.39356799
 30
0.0
 10
6.499777465
 20
5.4483356334
 30
0.0
 10
6.4978727211
 20
5.5295441353
 30
0.0
 10
6.4957408618
 20
5.6376228744
 30
0.0
 10
6.4933924799
 20
5.7705263015
 30
0.0
 10
6.4910382785
 20
5.9096093417
 30
0.0
 10
6.4886859276
 20
6.0455910995
 30
0.0
 10
6.4866660507
 20
6.1528065724
 30
0.0
 10
6.4849948953
 20
6.2302522616
 30
0.0
 10
6.4837984947
 20
6.2797432092
 30
0.0
 10
6.4826064416
 20
6.3222554911
 30
0.0
 10
6.4814339651
 20
6.3570803331
 30
0.0
 10
6.4802674921
 20
6.3836307371
 30
0.0
 10
6.4793787863
 20
6.39850642
 30
0.0
 10
6.4788381245
 20
6.4044714941
 30
0.0
  0
SPLINE
  5
4D5
100
AcDbEntity
  8
02___PRT_ALL_AXES
100
AcDbSpline
 62
7
  6
CONTINUOUS
 70
0
 71
3
 72
17
 73
13
 74
0
 42
0.0000001
 43
0.0000001
 44
0.0000000001
 40
0.0
 40
0.0
 40
0.0
 40
0.0
 40
0.0359557965
 40
0.0819045597
 40
0.1368556222
 40
0.1996285174
 40
0.4206915121
 40
0.6569090557
 40
0.7664693137
 40
0.8631446752
 40
0.9422599146
 40
1.0
 40
1.0
 40
1.0
 40
1.0
 10
6.8367433068
 20
5.3217943287
 30
0.0
 10
6.83620396
 20
5.3347621796
 30
0.0
 10
6.8352016288
 20
5.3643111632
 30
0.0
 10
6.8338611024
 20
5.4136941825
 30
0.0
 10
6.8325104876
 20
5.4727602988
 30
0.0
 10
6.8300543557
 20
5.5950285599
 30
0.0
 10
6.8269563194
 20
5.7827285125
 30
0.0
 10
6.8237423964
 20
5.9873173007
 30
0.0
 10
6.820988226
 20
6.1470070406
 30
0.0
 10
6.818993376
 20
6.2499920035
 30
0.0
 10
6.8170160857
 20
6.3342666771
 30
0.0
 10
6.8155156864
 20
6.3836469013
 30
0.0
 10
6.8146495692
 20
6.4044714941
 30
0.0
  0
SPLINE
  5
4D6
100
AcDbEntity
  8
02___PRT_ALL_AXES
100
AcDbSpline
 62
7
  6
CONTINUOUS
 70
0
 71
3
 72
23
 73
19
 74
0
 42
0.0000001
 43
0.0000001
 44
0.0000000001
 40
0.0
 40
0.0
 40
0.0
 40
0.0
 40
0.0101454531
 40
0.0239357081
 40
0.0620099111
 40
0.1131033743
 40
0.1757013384
 40
0.2870189573
 40
0.4125403298
 40
0.5438956924
 40
0.6723217793
 40
0.7892570044
 40
0.8409324975
 40
0.8868981743
 40
0.9263858128
 40
0.9587352303
 40
0.9834099672
 40
1.0
 40
1.0
 40
1.0
 40
1.0
 10
6.9029825936
 20
6.4044714941
 30
0.0
 10
6.9033132164
 20
6.4008237625
 30
0.0
 10
6.9039105732
 20
6.3922018614
 30
0.0
 10
6.9050880963
 20
6.3698461628
 30
0.0
 10
6.9064477604
 20
6.3326994757
 30
0.0
 10
6.9080129995
 20
6.2779320764
 30
0.0
 10
6.9099177948
 20
6.1967217894
 30
0.0
 10
6.9120496935
 20
6.088640806
 30
0.0
 10
6.9143980766
 20
5.9557369536
 30
0.0
 10
6.9167522456
 20
5.8166558804
 30
0.0
 10
6.9191045825
 20
5.6806749899
 30
0.0
 10
6.9211244759
 20
5.5734584133
 30
0.0
 10
6.9227956856
 20
5.4960106263
 30
0.0
 10
6.9239921138
 20
5.4465190295
 30
0.0
 10
6.9251841694
 20
5.4040070555
 30
0.0
 10
6.9263566386
 20
5.3691832821
 30
0.0
 10
6.9275230649
 20
5.3426340438
 30
0.0
 10
6.9284117488
 20
5.327759167
 30
0.0
 10
6.9289523893
 20
5.3217943287
 30
0.0
  0
SPLINE
  5
4D7
100
AcDbEntity
  8
0
100
AcDbSpline
 62
7
  6
CONTINUOUS
 70
0
 71
3
 72
25
 73
21
 74
0
 42
0.0000001
 43
0.0000001
 44
0.0000000001
 40
0.0
 40
0.0
 40
0.0
 40
0.0
 40
0.0625019456
 40
0.1249989832
 40
0.1874979112
 40
0.2499944301
 40
0.3124900656
 40
0.3749840005
 40
0.437476952
 40
0.4999679436
 40
0.5624578817
 40
0.6249457846
 40
0.687432288
 40
0.718714259
 40
0.7499960965
 40
0.8124790659
 40
0.8749605797
 40
0.9062409637
 40
0.9375210048
 40
1.0
 40
1.0
 40
1.0
 40
1.0
 10
11.6881820383
 20
5.427878488
 30
0.0
 10
11.6619140531
 20
5.4284159286
 30
0.0
 10
11.6093510729
 20
5.4342789764
 30
0.0
 10
11.5335155835
 20
5.4572611392
 30
0.0
 10
11.4631513308
 20
5.4937708074
 30
0.0
 10
11.4007600752
 20
5.5426746996
 30
0.0
 10
11.3485851065
 20
5.6023673444
 30
0.0
 10
11.3085789255
 20
5.6708217716
 30
0.0
 10
11.2823026392
 20
5.7456360785
 30
0.0
 10
11.2708540107
 20
5.8241064721
 30
0.0
 10
11.2748062057
 20
5.9033198489
 30
0.0
 10
11.2941448326
 20
5.9802312698
 30
0.0
 10
11.3226225314
 20
6.0399482123
 30
0.0
 10
11.3521456959
 20
6.0835336962
 30
0.0
 10
11.3858914329
 20
6.1239378141
 30
0.0
 10
11.4354968141
 20
6.1677198079
 30
0.0
 10
11.4929842988
 20
6.2004919648
 30
0.0
 10
11.5421999483
 20
6.2191949241
 30
0.0
 10
11.5930671072
 20
6.2326988803
 30
0.0
 10
11.6326527976
 20
6.2367730478
 30
0.0
 10
11.6589165046
 20
6.2366910198
 30
0.0
  0
SPLINE
  5
4D8
100
AcDbEntity
  8
02___PRT_ALL_AXES
100
AcDbSpline
 62
7
  6
CONTINUOUS
 70
0
 71
3
 72
23
 73
19
 74
0
 42
0.0000001
 43
0.0000001
 44
0.0000000001
 40
0.0
 40
0.0
 40
0.0
 40
0.0
 40
0.0624988177
 40
0.1250007894
 40
0.187499872
 40
0.2500002402
 40
0.3125001098
 40
0.3750001105
 40
0.4375000537
 40
0.5
 40
0.5624999463
 40
0.6249998895
 40
0.6874998902
 40
0.7499997598
 40
0.812500128
 40
0.8749992106
 40
0.9375011823
 40
1.0
 40
1.0
 40
1.0
 40
1.0
 10
11.9033968837
 20
6.4044714941
 30
0.0
 10
11.9298831059
 20
6.393414717
 30
0.0
 10
11.9813100473
 20
6.3673638561
 30
0.0
 10
12.0518375257
 20
6.3174530853
 30
0.0
 10
12.1143141845
 20
6.2577437444
 30
0.0
 10
12.1673735362
 20
6.1895363536
 30
0.0
 10
12.2098768545
 20
6.1142947385
 30
0.0
 10
12.2409079585
 20
6.0336423396
 30
0.0
 10
12.2597980293
 20
5.9493160213
 30
0.0
 10
12.2661403208
 20
5.8631329114
 30
0.0
 10
12.2597980293
 20
5.7769498015
 30
0.0
 10
12.2409079585
 20
5.6926234832
 30
0.0
 10
12.2098768545
 20
5.6119710843
 30
0.0
 10
12.1673735362
 20
5.5367294692
 30
0.0
 10
12.1143141845
 20
5.4685220784
 30
0.0
 10
12.0518375257
 20
5.4088127374
 30
0.0
 10
11.9813100473
 20
5.3589019667
 30
0.0
 10
11.9298831059
 20
5.3328511058
 30
0.0
 10
11.9033968837
 20
5.3217943287
 30
0.0
  0
SPLINE
  5
4D9
100
AcDbEntity
  8
02___PRT_ALL_AXES
100
AcDbSpline
 62
7
  6
CONTINUOUS
 70
0
 71
3
 72
23
 73
19
 74
0
 42
0.0000001
 43
0.0000001
 44
0.0000000001
 40
0.0
 40
0.0
 40
0.0
 40
0.0
 40
0.0624988177
 40
0.1250007894
 40
0.187499872
 40
0.2500002402
 40
0.3125001098
 40
0.3750001105
 40
0.4375000537
 40
0.5
 40
0.5624999463
 40
0.6249998895
 40
0.6874998902
 40
0.7499997598
 40
0.812500128
 40
0.8749992106
 40
0.9375011823
 40
1.0
 40
1.0
 40
1.0
 40
1.0
 10
11.4514290657
 20
5.3217943287
 30
0.0
 10
11.4249428435
 20
5.3328511058
 30
0.0
 10
11.373515902
 20
5.3589019667
 30
0.0
 10
11.3029884236
 20
5.4088127374
 30
0.0
 10
11.2405117649
 20
5.4685220784
 30
0.0
 10
11.1874524132
 20
5.5367294692
 30
0.0
 10
11.1449490949
 20
5.6119710843
 30
0.0
 10
11.1139179908
 20
5.6926234832
 30
0.0
 10
11.0950279201
 20
5.7769498015
 30
0.0
 10
11.0886856285
 20
5.8631329114
 30
0.0
 10
11.0950279201
 20
5.9493160213
 30
0.0
 10
11.1139179908
 20
6.0336423396
 30
0.0
 10
11.1449490949
 20
6.1142947385
 30
0.0
 10
11.1874524132
 20
6.1895363536
 30
0.0
 10
11.2405117649
 20
6.2577437444
 30
0.0
 10
11.3029884236
 20
6.3174530853
 30
0.0
 10
11.373515902
 20
6.3673638561
 30
0.0
 10
11.4249428435
 20
6.393414717
 30
0.0
 10
11.4514290657
 20
6.4044714941
 30
0.0
  0
LINE
  5
4DA
100
AcDbEntity
  8
0
100
AcDbLine
 62
7
  6
CONTINUOUS
 10
11.5737155952
 20
5.3217943287
 11
11.570043761
 21
5.28242425
  0
LINE
  5
4DB
100
AcDbEntity
  8
0
100
AcDbLine
 62
7
  6
CONTINUOUS
 10
11.7811103541
 20
6.4044714941
 11
11.7847821884
 21
6.4438415728
  0
LINE
  5
4DC
100
AcDbEntity
  8
0
100
AcDbLine
 62
7
  6
CONTINUOUS
 10
11.5737155952
 20
6.4044714941
 11
11.5775223097
 21
6.3651014153
  0
LINE
  5
4DD
100
AcDbEntity
  8
0
100
AcDbLine
 62
7
  6
CONTINUOUS
 10
11.5737155952
 20
5.3217943287
 11
11.5775223097
 21
5.3611644075
  0
LINE
  5
4DE
100
AcDbEntity
  8
0
100
AcDbLine
 62
7
  6
CONTINUOUS
 10
11.7811103541
 20
5.3217943287
 11
11.7847821884
 21
5.28242425
  0
SPLINE
  5
4DF
100
AcDbEntity
  8
0
100
AcDbSpline
 62
7
  6
CONTINUOUS
 70
0
 71
3
 72
25
 73
21
 74
0
 42
0.0000001
 43
0.0000001
 44
0.0000000001
 40
0.0
 40
0.0
 40
0.0
 40
0.0
 40
0.0624791632
 40
0.0937594185
 40
0.1250396847
 40
0.1875213924
 40
0.2500039915
 40
0.2812859157
 40
0.3125681013
 40
0.375054445
 40
0.4375424771
 40
0.5000320777
 40
0.5625233258
 40
0.6250160588
 40
0.6875099945
 40
0.7500055475
 40
0.8125019332
 40
0.8750009069
 40
0.9374977999
 40
1.0
 40
1.0
 40
1.0
 40
1.0
 10
11.6774129747
 20
6.2371486594
 30
0.0
 10
11.7036405597
 20
6.2385294288
 30
0.0
 10
11.7433794624
 20
6.2364178737
 30
0.0
 10
11.7948522912
 20
6.225445918
 30
0.0
 10
11.8449328003
 20
6.2091997863
 30
0.0
 10
11.9039703914
 20
6.1793104598
 30
0.0
 10
11.9556803066
 20
6.1380353499
 30
0.0
 10
11.991382757
 20
6.0993494366
 30
0.0
 10
12.023025351
 20
6.0572773134
 30
0.0
 10
12.0544214354
 20
5.9990416581
 30
0.0
 10
12.0775396355
 20
5.9231807926
 30
0.0
 10
12.0854045934
 20
5.8442597982
 30
0.0
 10
12.0778504384
 20
5.7653193724
 30
0.0
 10
12.0553061793
 20
5.6892971302
 30
0.0
 10
12.0187342369
 20
5.6189481774
 30
0.0
 10
11.9695753291
 20
5.5567482793
 30
0.0
 10
11.9096788189
 20
5.5048189408
 30
0.0
 10
11.8412063859
 20
5.4648740689
 30
0.0
 10
11.7666001656
 20
5.4381696734
 30
0.0
 10
11.7143914106
 20
5.429714328
 30
0.0
 10
11.6881820383
 20
5.427878488
 30
0.0
  0
LINE
  5
4E0
100
AcDbEntity
  8
0
100
AcDbLine
 62
7
  6
CONTINUOUS
 10
11.570043761
 20
6.4438415728
 11
11.5737155952
 21
6.4044714941
  0
LINE
  5
4E1
100
AcDbEntity
  8
0
100
AcDbLine
 62
7
  6
CONTINUOUS
 10
11.7811103541
 20
6.4044714941
 11
11.7773036397
 21
6.3651014153
  0
LINE
  5
4E2
100
AcDbEntity
  8
0
100
AcDbLine
 62
7
  6
CONTINUOUS
 10
11.7811103541
 20
5.3217943287
 11
11.7773036397
 21
5.3611644075
  0
SPLINE
  5
4E3
100
AcDbEntity
  8
AXIS
100
AcDbSpline
 62
7
  6
CONTINUOUS
 70
0
 71
3
 72
21
 73
17
 74
0
 42
0.0000001
 43
0.0000001
 44
0.0000000001
 40
0.0
 40
0.0
 40
0.0
 40
0.0
 40
0.0428223615
 40
0.0874184211
 40
0.1352060117
 40
0.1871419975
 40
0.2435965041
 40
0.3045710043
 40
0.369695318
 40
0.4383151049
 40
0.5096441154
 40
0.5827073533
 40
0.7296945152
 40
0.8712960041
 40
0.9377508618
 40
1.0
 40
1.0
 40
1.0
 40
1.0
 10
14.9594322486
 20
5.4046651169
 30
0.0
 10
14.9594318577
 20
5.4039535164
 30
0.0
 10
14.9592391074
 20
5.4024950671
 30
0.0
 10
14.9584043476
 20
5.4003883589
 30
0.0
 10
14.9570476312
 20
5.3983903008
 30
0.0
 10
14.9552058375
 20
5.3965442602
 30
0.0
 10
14.9529270458
 20
5.3948762964
 30
0.0
 10
14.9502547302
 20
5.3934241078
 30
0.0
 10
14.9472474736
 20
5.3922131401
 30
0.0
 10
14.943968254
 20
5.3912661422
 30
0.0
 10
14.9404848985
 20
5.3906092432
 30
0.0
 10
14.9356617149
 20
5.390128859
 30
0.0
 10
14.9296248492
 20
5.3902946694
 30
0.0
 10
14.923803961
 20
5.3914609406
 30
0.0
 10
14.9195753498
 20
5.3929955927
 30
0.0
 10
14.9176504963
 20
5.3939418077
 30
0.0
 10
14.9167546527
 20
5.3944590116
 30
0.0
  0
SPLINE
  5
4E4
100
AcDbEntity
  8
AXIS_COSMETIC_THREADS
100
AcDbSpline
 62
7
  6
CONTINUOUS
 70
0
 71
3
 72
11
 73
7
 74
0
 42
0.0000001
 43
0.0000001
 44
0.0000000001
 40
0.0
 40
0.0
 40
0.0
 40
0.0
 40
0.2328142161
 40
0.4783639566
 40
0.7348298279
 40
1.0
 40
1.0
 40
1.0
 40
1.0
 10
15.0726194358
 20
5.6016213733
 30
0.0
 10
15.0690444504
 20
5.5995950202
 30
0.0
 10
15.0614656279
 20
5.5958340936
 30
0.0
 10
15.0493362842
 20
5.5911933315
 30
0.0
 10
15.0363039449
 20
5.5874596788
 30
0.0
 10
15.0272677008
 20
5.5856378069
 30
0.0
 10
15.0226482034
 20
5.5848849742
 30
0.0
  0
SPLINE
  5
4E5
100
AcDbEntity
  8
AXIS_COSMETIC_THREADS
100
AcDbSpline
 62
7
  6
CONTINUOUS
 70
0
 71
3
 72
11
 73
7
 74
0
 42
0.0000001
 43
0.0000001
 44
0.0000000001
 40
0.0
 40
0.0
 40
0.0
 40
0.0
 40
0.2490254352
 40
0.5000001119
 40
0.7509745602
 40
1.0
 40
1.0
 40
1.0
 40
1.0
 10
15.0160042574
 20
5.5839229872
 30
0.0
 10
15.011876097
 20
5.5833992588
 30
0.0
 10
15.0035511786
 20
5.5826157603
 30
0.0
 10
14.9910005406
 20
5.5822251608
 30
0.0
 10
14.9784499038
 20
5.5826157907
 30
0.0
 10
14.9701249903
 20
5.5833993051
 30
0.0
 10
14.9659968319
 20
5.5839230501
 30
0.0
  0
SPLINE
  5
4E6
100
AcDbEntity
  8
AXIS_COSMETIC_THREADS
100
AcDbSpline
 62
7
  6
CONTINUOUS
 70
0
 71
3
 72
11
 73
7
 74
0
 42
0.0000001
 43
0.0000001
 44
0.0000000001
 40
0.0
 40
0.0
 40
0.0
 40
0.0
 40
0.2651717986
 40
0.5216460575
 40
0.7671918229
 40
1.0
 40
1.0
 40
1.0
 40
1.0
 10
14.9593533807
 20
5.5848849851
 30
0.0
 10
14.9547338594
 20
5.585637827
 30
0.0
 10
14.9456974293
 20
5.587459648
 30
0.0
 10
14.9326650444
 20
5.5911934975
 30
0.0
 10
14.9205357149
 20
5.5958341688
 30
0.0
 10
14.9129570484
 20
5.5995950104
 30
0.0
 10
14.9093821805
 20
5.601621348
 30
0.0
  0
SPLINE
  5
4E7
100
AcDbEntity
  8
AXIS_COSMETIC_THREADS
100
AcDbSpline
 62
7
  6
CONTINUOUS
 70
0
 71
3
 72
15
 73
11
 74
0
 42
0.0000001
 43
0.0000001
 44
0.0000000001
 40
0.0
 40
0.0
 40
0.0
 40
0.0
 40
0.1488928507
 40
0.2900148493
 40
0.4233834467
 40
0.549349883
 40
0.6686512476
 40
0.7824366157
 40
0.8922574124
 40
1.0
 40
1.0
 40
1.0
 40
1.0
 10
14.9093821805
 20
5.601621348
 30
0.0
 10
14.9066995748
 20
5.6031419258
 30
0.0
 10
14.9015935516
 20
5.6063224602
 30
0.0
 10
14.8946084852
 20
5.6116456164
 30
0.0
 10
14.8885635344
 20
5.6173488695
 30
0.0
 10
14.8835203331
 20
5.6233802212
 30
0.0
 10
14.8795316663
 20
5.629684441
 30
0.0
 10
14.8766432746
 20
5.6362033261
 30
0.0
 10
14.8748930877
 20
5.6428695842
 30
0.0
 10
14.8745009163
 20
5.6473846138
 30
0.0
 10
14.8745009158
 20
5.649615977
 30
0.0
  0
SPLINE
  5
4E8
100
AcDbEntity
  8
AXIS
100
AcDbSpline
 62
7
  6
CONTINUOUS
 70
0
 71
3
 72
21
 73
17
 74
0
 42
0.0000001
 43
0.0000001
 44
0.0000000001
 40
0.0
 40
0.0
 40
0.0
 40
0.0
 40
0.0428223615
 40
0.0874184211
 40
0.1352060117
 40
0.1871419975
 40
0.2435965041
 40
0.3045710043
 40
0.369695318
 40
0.4383151049
 40
0.5096441154
 40
0.5827073533
 40
0.7296945152
 40
0.8712960041
 40
0.9377508618
 40
1.0
 40
1.0
 40
1.0
 40
1.0
 10
15.0725693336
 20
5.4046653889
 30
0.0
 10
15.0725689426
 20
5.4039537883
 30
0.0
 10
15.0723761924
 20
5.4024953391
 30
0.0
 10
15.0715414326
 20
5.4003886309
 30
0.0
 10
15.0701847162
 20
5.3983905727
 30
0.0
 10
15.0683429225
 20
5.3965445321
 30
0.0
 10
15.0660641308
 20
5.3948765683
 30
0.0
 10
15.0633918152
 20
5.3934243797
 30
0.0
 10
15.0603845586
 20
5.392213412
 30
0.0
 10
15.057105339
 20
5.3912664142
 30
0.0
 10
15.0536219835
 20
5.3906095152
 30
0.0
 10
15.0487987998
 20
5.3901291309
 30
0.0
 10
15.0427619342
 20
5.3902949413
 30
0.0
 10
15.036941046
 20
5.3914612126
 30
0.0
 10
15.0327124348
 20
5.3929958647
 30
0.0
 10
15.0307875812
 20
5.3939420797
 30
0.0
 10
15.0298917377
 20
5.3944592835
 30
0.0
  0
SPLINE
  5
4E9
100
AcDbEntity
  8
AXIS
100
AcDbSpline
 62
7
  6
CONTINUOUS
 70
0
 71
3
 72
21
 73
17
 74
0
 42
0.0000001
 43
0.0000001
 44
0.0000000001
 40
0.0
 40
0.0
 40
0.0
 40
0.0
 40
0.0428223615
 40
0.0874184211
 40
0.1352060117
 40
0.1871419975
 40
0.2435965041
 40
0.3045710043
 40
0.369695318
 40
0.4383151049
 40
0.5096441154
 40
0.5827073533
 40
0.7296945152
 40
0.8712960041
 40
0.9377508618
 40
1.0
 40
1.0
 40
1.0
 40
1.0
 10
15.0160010266
 20
5.3720058566
 30
0.0
 10
15.0160006357
 20
5.371294256
 30
0.0
 10
15.0158078854
 20
5.3698358068
 30
0.0
 10
15.0149731257
 20
5.3677290986
 30
0.0
 10
15.0136164092
 20
5.3657310404
 30
0.0
 10
15.0117746155
 20
5.3638849998
 30
0.0
 10
15.0094958238
 20
5.362217036
 30
0.0
 10
15.0068235082
 20
5.3607648474
 30
0.0
 10
15.0038162517
 20
5.3595538797
 30
0.0
 10
15.0005370321
 20
5.3586068819
 30
0.0
 10
14.9970536765
 20
5.3579499829
 30
0.0
 10
14.9922304929
 20
5.3574695986
 30
0.0
 10
14.9861936272
 20
5.357635409
 30
0.0
 10
14.980372739
 20
5.3588016803
 30
0.0
 10
14.9761441278
 20
5.3603363324
 30
0.0
 10
14.9742192743
 20
5.3612825474
 30
0.0
 10
14.9733234307
 20
5.3617997512
 30
0.0
  0
SPLINE
  5
4EA
100
AcDbEntity
  8
AXIS
100
AcDbSpline
 62
7
  6
CONTINUOUS
 70
0
 71
3
 72
14
 73
10
 74
0
 42
0.0000001
 43
0.0000001
 44
0.0000000001
 40
0.0
 40
0.0
 40
0.0
 40
0.0
 40
0.2886211462
 40
0.4221940245
 40
0.5484771302
 40
0.6679834388
 40
0.7819566829
 40
0.8920043764
 40
1.0
 40
1.0
 40
1.0
 40
1.0
 10
14.9733234307
 20
5.3617997512
 30
0.0
 10
14.9722285867
 20
5.3624318454
 30
0.0
 10
14.9706949694
 20
5.3634915869
 30
0.0
 10
14.9689550853
 20
5.3651538608
 30
0.0
 10
14.9678923113
 20
5.3664370627
 30
0.0
 10
14.9670548515
 20
5.3677779543
 30
0.0
 10
14.9664500058
 20
5.3691621933
 30
0.0
 10
14.9660832125
 20
5.3705758057
 30
0.0
 10
14.9660007668
 20
5.3715328143
 30
0.0
 10
14.9660010267
 20
5.3720058535
 30
0.0
  0
SPLINE
  5
4EB
100
AcDbEntity
  8
AXIS
100
AcDbSpline
 62
7
  6
CONTINUOUS
 70
0
 71
3
 72
14
 73
10
 74
0
 42
0.0000001
 43
0.0000001
 44
0.0000000001
 40
0.0
 40
0.0
 40
0.0
 40
0.0
 40
0.2886211462
 40
0.4221940245
 40
0.5484771302
 40
0.6679834388
 40
0.7819566829
 40
0.8920043764
 40
1.0
 40
1.0
 40
1.0
 40
1.0
 10
15.0298917377
 20
5.3944592835
 30
0.0
 10
15.0287968937
 20
5.3950913777
 30
0.0
 10
15.0272632764
 20
5.3961511192
 30
0.0
 10
15.0255233922
 20
5.3978133931
 30
0.0
 10
15.0244606183
 20
5.3990965951
 30
0.0
 10
15.0236231585
 20
5.4004374866
 30
0.0
 10
15.0230183128
 20
5.4018217256
 30
0.0
 10
15.0226515195
 20
5.4032353381
 30
0.0
 10
15.0225690738
 20
5.4041923466
 30
0.0
 10
15.0225693337
 20
5.4046653858
 30
0.0
  0
SPLINE
  5
4EC
100
AcDbEntity
  8
AXIS
100
AcDbSpline
 62
7
  6
CONTINUOUS
 70
0
 71
3
 72
14
 73
10
 74
0
 42
0.0000001
 43
0.0000001
 44
0.0000000001
 40
0.0
 40
0.0
 40
0.0
 40
0.0
 40
0.2886211462
 40
0.4221940245
 40
0.5484771302
 40
0.6679834388
 40
0.7819566829
 40
0.8920043764
 40
1.0
 40
1.0
 40
1.0
 40
1.0
 10
14.9167546527
 20
5.3944590116
 30
0.0
 10
14.9156598087
 20
5.3950911057
 30
0.0
 10
14.9141261914
 20
5.3961508473
 30
0.0
 10
14.9123863072
 20
5.3978131211
 30
0.0
 10
14.9113235333
 20
5.3990963231
 30
0.0
 10
14.9104860735
 20
5.4004372147
 30
0.0
 10
14.9098812278
 20
5.4018214536
 30
0.0
 10
14.9095144345
 20
5.4032350661
 30
0.0
 10
14.9094319888
 20
5.4041920747
 30
0.0
 10
14.9094322487
 20
5.4046651139
 30
0.0
  0
SPLINE
  5
4ED
100
AcDbEntity
  8
AXIS_COSMETIC_THREADS
100
AcDbSpline
 62
7
  6
CONTINUOUS
 70
0
 71
3
 72
15
 73
11
 74
0
 42
0.0000001
 43
0.0000001
 44
0.0000000001
 40
0.0
 40
0.0
 40
0.0
 40
0.0
 40
0.1080121686
 40
0.2180609112
 40
0.3319982712
 40
0.4513574445
 40
0.5772767716
 40
0.710491637
 40
0.8514144486
 40
1.0
 40
1.0
 40
1.0
 40
1.0
 10
15.1075006665
 20
5.649615976
 30
0.0
 10
15.107500667
 20
5.6474104939
 30
0.0
 10
15.107117719
 20
5.6429489905
 30
0.0
 10
15.1054082325
 20
5.6363591853
 30
0.0
 10
15.1025862915
 20
5.6299113745
 30
0.0
 10
15.0986878746
 20
5.6236708214
 30
0.0
 10
15.0937569389
 20
5.6176940922
 30
0.0
 10
15.0878437169
 20
5.6120339886
 30
0.0
 10
15.0810071981
 20
5.606742507
 30
0.0
 10
15.0760065499
 20
5.6035728934
 30
0.0
 10
15.0733790741
 20
5.6020559286
 30
0.0
  0
SPLINE
  5
4EE
100
AcDbEntity
  8
AXIS
100
AcDbSpline
 62
7
  6
CONTINUOUS
 70
0
 71
3
 72
11
 73
7
 74
0
 42
0.0000001
 43
0.0000001
 44
0.0000000001
 40
0.0
 40
0.0
 40
0.0
 40
0.0
 40
0.2728985988
 40
0.5271598484
 40
0.7673793213
 40
1.0
 40
1.0
 40
1.0
 40
1.0
 10
14.5642208071
 20
9.6562960376
 30
0.0
 10
14.5539759839
 20
9.6459945514
 30
0.0
 10
14.5355797956
 20
9.6246121406
 30
0.0
 10
14.5146111367
 20
9.5892762088
 30
0.0
 10
14.5017749358
 20
9.552464434
 30
0.0
 10
14.4988748108
 20
9.5272057109
 30
0.0
 10
14.4988748069
 20
9.5148215243
 30
0.0
  0
SPLINE
  5
4EF
100
AcDbEntity
  8
AXIS
100
AcDbSpline
 62
7
  6
CONTINUOUS
 70
0
 71
3
 72
11
 73
7
 74
0
 42
0.0000001
 43
0.0000001
 44
0.0000000001
 40
0.0
 40
0.0
 40
0.0
 40
0.0
 40
0.2728618386
 40
0.5271141304
 40
0.7673492438
 40
1.0
 40
1.0
 40
1.0
 40
1.0
 10
15.4179155304
 20
9.6561604289
 30
0.0
 10
15.4281400415
 20
9.6458659386
 30
0.0
 10
15.4464997892
 20
9.6244999886
 30
0.0
 10
15.4674243819
 20
9.5891971109
 30
0.0
 10
15.4802330131
 20
9.5524234282
 30
0.0
 10
15.4831267793
 20
9.5271925484
 30
0.0
 10
15.4831267754
 20
9.514821531
 30
0.0
  0
SPLINE
  5
4F0
100
AcDbEntity
  8
AXIS
100
AcDbSpline
 62
7
  6
CONTINUOUS
 70
0
 71
3
 72
14
 73
10
 74
0
 42
0.0000001
 43
0.0000001
 44
0.0000000001
 40
0.0
 40
0.0
 40
0.0
 40
0.0
 40
0.108046788
 40
0.21813074
 40
0.3321042268
 40
0.4515005364
 40
0.5774628672
 40
0.7107216469
 40
1.0
 40
1.0
 40
1.0
 40
1.0
 10
14.4988748069
 20
9.4826757598
 30
0.0
 10
14.498874804
 20
9.4733591201
 30
0.0
 10
14.5004931425
 20
9.454512368
 30
0.0
 10
14.5077149138
 20
9.4266752466
 30
0.0
 10
14.5196351101
 20
9.3994374283
 30
0.0
 10
14.5361027376
 20
9.3730757724
 30
0.0
 10
14.5569355544
 20
9.3478264698
 30
0.0
 10
14.591161814
 20
9.3150681598
 30
0.0
 10
14.6214144948
 20
9.2942399174
 30
0.0
 10
14.6430166193
 20
9.2817682071
 30
0.0
  0
SPLINE
  5
4F1
100
AcDbEntity
  8
AXIS
100
AcDbSpline
 62
7
  6
CONTINUOUS
 70
0
 71
3
 72
15
 73
11
 74
0
 42
0.0000001
 43
0.0000001
 44
0.0000000001
 40
0.0
 40
0.0
 40
0.0
 40
0.0
 40
0.104808829
 40
0.2121774956
 40
0.3243697076
 40
0.4431512273
 40
0.5697123548
 40
0.7046848305
 40
0.8482065612
 40
1.0
 40
1.0
 40
1.0
 40
1.0
 10
15.4831267754
 20
9.4826757666
 30
0.0
 10
15.4831267721
 20
9.4720301077
 30
0.0
 10
15.4810018104
 20
9.4504230272
 30
0.0
 10
15.4715485379
 20
9.4186745204
 30
0.0
 10
15.4560042208
 20
9.3878390881
 30
0.0
 10
15.4346294212
 20
9.3583128716
 30
0.0
 10
15.4077325547
 20
9.3304303793
 30
0.0
 10
15.3756653282
 20
9.3045076239
 30
0.0
 10
15.3388338274
 20
9.2808429604
 30
0.0
 10
15.3121071041
 20
9.2671180209
 30
0.0
 10
15.2981058255
 20
9.2606621303
 30
0.0
  0
SPLINE
  5
4F2
100
AcDbEntity
  8
AXIS
100
AcDbSpline
 62
7
  6
CONTINUOUS
 70
0
 71
3
 72
9
 73
5
 74
0
 42
0.0000001
 43
0.0000001
 44
0.0000000001
 40
0.0
 40
0.0
 40
0.0
 40
0.0
 40
0.2440727229
 40
1.0
 40
1.0
 40
1.0
 40
1.0
 10
15.2981058255
 20
9.2606621303
 30
0.0
 10
15.2929047993
 20
9.2582639739
 30
0.0
 10
15.2714404887
 20
9.2487764114
 30
0.0
 10
15.249398598
 20
9.2406092741
 30
0.0
 10
15.2325299724
 20
9.2351235132
 30
0.0
  0
SPLINE
  5
4F3
100
AcDbEntity
  8
AXIS
100
AcDbSpline
 62
7
  6
CONTINUOUS
 70
0
 71
3
 72
11
 73
7
 74
0
 42
0.0000001
 43
0.0000001
 44
0.0000000001
 40
0.0
 40
0.0
 40
0.0
 40
0.0
 40
0.240409801
 40
0.4904108904
 40
0.7452813734
 40
1.0
 40
1.0
 40
1.0
 40
1.0
 10
15.2325299724
 20
9.2351235132
 30
0.0
 10
15.2072011449
 20
9.2268864527
 30
0.0
 10
15.1544797158
 20
9.2132035994
 30
0.0
 10
15.0726671507
 20
9.2010739552
 30
0.0
 10
14.9884705582
 20
9.1971561575
 30
0.0
 10
14.9319808478
 20
9.2001212552
 30
0.0
 10
14.9039119139
 20
9.2030352363
 30
0.0
  0
SPLINE
  5
4F4
100
AcDbEntity
  8
AXIS
100
AcDbSpline
 62
7
  6
CONTINUOUS
 70
0
 71
3
 72
10
 73
6
 74
0
 42
0.0000001
 43
0.0000001
 44
0.0000000001
 40
0.0
 40
0.0
 40
0.0
 40
0.0
 40
0.5177757237
 40
0.7644685624
 40
1.0
 40
1.0
 40
1.0
 40
1.0
 10
14.9039119139
 20
9.2030352363
 30
0.0
 10
14.8640603971
 20
9.2071724283
 30
0.0
 10
14.8054944023
 20
9.2175410644
 30
0.0
 10
14.7314932343
 20
9.2403799988
 30
0.0
 10
14.6968947149
 20
9.254540047
 30
0.0
 10
14.6803989695
 20
9.2622898762
 30
0.0
  0
SPLINE
  5
4F5
100
AcDbEntity
  8
AXIS
100
AcDbSpline
 62
7
  6
CONTINUOUS
 70
0
 71
3
 72
9
 73
5
 74
0
 42
0.0000001
 43
0.0000001
 44
0.0000000001
 40
0.0
 40
0.0
 40
0.0
 40
0.0
 40
0.2546139502
 40
1.0
 40
1.0
 40
1.0
 40
1.0
 10
14.6803989695
 20
9.2622898762
 30
0.0
 10
14.6771604291
 20
9.2638113675
 30
0.0
 10
14.6645012675
 20
9.2699140426
 30
0.0
 10
14.6520883338
 20
9.2765307688
 30
0.0
 10
14.6430166193
 20
9.2817682071
 30
0.0
  0
SPLINE
  5
4F6
100
AcDbEntity
  8
AXIS
100
AcDbSpline
 62
7
  6
CONTINUOUS
 70
0
 71
3
 72
11
 73
7
 74
0
 42
0.0000001
 43
0.0000001
 44
0.0000000001
 40
0.0
 40
0.0
 40
0.0
 40
0.0
 40
0.2309905569
 40
0.4723325947
 40
0.7278163182
 40
1.0
 40
1.0
 40
1.0
 40
1.0
 10
15.4800404113
 20
9.4830512226
 30
0.0
 10
15.4779579549
 20
9.4723648689
 30
0.0
 10
15.4715720551
 20
9.4508814955
 30
0.0
 10
15.4560727311
 20
9.4201053525
 30
0.0
 10
15.4347626767
 20
9.3906204511
 30
0.0
 10
15.4174523011
 20
9.3726466029
 30
0.0
 10
15.4080172645
 20
9.3639539753
 30
0.0
  0
SPLINE
  5
4F7
100
AcDbEntity
  8
AXIS
100
AcDbSpline
 62
7
  6
CONTINUOUS
 70
0
 71
3
 72
9
 73
5
 74
0
 42
0.0000001
 43
0.0000001
 44
0.0000000001
 40
0.0
 40
0.0
 40
0.0
 40
0.0
 40
0.4778833831
 40
1.0
 40
1.0
 40
1.0
 40
1.0
 10
15.4080172645
 20
9.3639539753
 30
0.0
 10
15.3926324079
 20
9.3497796977
 30
0.0
 10
15.3575272061
 20
9.3232199236
 30
0.0
 10
15.3188609923
 20
9.3023779554
 30
0.0
 10
15.2981058255
 20
9.2928078948
 30
0.0
  0
SPLINE
  5
4F8
100
AcDbEntity
  8
AXIS
100
AcDbSpline
 62
7
  6
CONTINUOUS
 70
0
 71
3
 72
9
 73
5
 74
0
 42
0.0000001
 43
0.0000001
 44
0.0000000001
 40
0.0
 40
0.0
 40
0.0
 40
0.0
 40
0.2436225307
 40
1.0
 40
1.0
 40
1.0
 40
1.0
 10
15.2981058255
 20
9.2928078948
 30
0.0
 10
15.292447421
 20
9.2901988445
 30
0.0
 10
15.2690375566
 20
9.2798902985
 30
0.0
 10
15.2449478743
 20
9.2711443782
 30
0.0
 10
15.2264943591
 20
9.2653385381
 30
0.0
  0
SPLINE
  5
4F9
100
AcDbEntity
  8
AXIS
100
AcDbSpline
 62
7
  6
CONTINUOUS
 70
0
 71
3
 72
11
 73
7
 74
0
 42
0.0000001
 43
0.0000001
 44
0.0000000001
 40
0.0
 40
0.0
 40
0.0
 40
0.0
 40
0.2409384395
 40
0.4909957573
 40
0.7456225042
 40
1.0
 40
1.0
 40
1.0
 40
1.0
 10
15.2264943591
 20
9.2653385381
 30
0.0
 10
15.20151648
 20
9.2574800045
 30
0.0
 10
15.1496412479
 20
9.2444458571
 30
0.0
 10
15.0692949913
 20
9.2329568179
 30
0.0
 10
14.9867530029
 20
9.229364375
 30
0.0
 10
14.9314096125
 20
9.2323263225
 30
0.0
 10
14.9039119139
 20
9.2351810008
 30
0.0
  0
SPLINE
  5
4FA
100
AcDbEntity
  8
AXIS
100
AcDbSpline
 62
7
  6
CONTINUOUS
 70
0
 71
3
 72
9
 73
5
 74
0
 42
0.0000001
 43
0.0000001
 44
0.0000000001
 40
0.0
 40
0.0
 40
0.0
 40
0.0
 40
0.5106446801
 40
1.0
 40
1.0
 40
1.0
 40
1.0
 10
14.9039119139
 20
9.2351810008
 30
0.0
 10
14.8753988063
 20
9.2381410939
 30
0.0
 10
14.8198183086
 20
9.2468348945
 30
0.0
 10
14.7655211794
 20
9.2616712886
 30
0.0
 10
14.739537551
 20
9.2705886131
 30
0.0
  0
SPLINE
  5
4FB
100
AcDbEntity
  8
AXIS
100
AcDbSpline
 62
7
  6
CONTINUOUS
 70
0
 71
3
 72
9
 73
5
 74
0
 42
0.0000001
 43
0.0000001
 44
0.0000000001
 40
0.0
 40
0.0
 40
0.0
 40
0.0
 40
0.2559262551
 40
1.0
 40
1.0
 40
1.0
 40
1.0
 10
14.6930528378
 20
9.2886868637
 30
0.0
 10
14.6886747906
 20
9.2906096741
 30
0.0
 10
14.6716658011
 20
9.2983420169
 30
0.0
 10
14.6550563024
 20
9.3069630146
 30
0.0
 10
14.6430166193
 20
9.3139139716
 30
0.0
  0
SPLINE
  5
4FC
100
AcDbEntity
  8
AXIS
100
AcDbSpline
 62
7
  6
CONTINUOUS
 70
0
 71
3
 72
11
 73
7
 74
0
 42
0.0000001
 43
0.0000001
 44
0.0000000001
 40
0.0
 40
0.0
 40
0.0
 40
0.0
 40
0.2309919025
 40
0.4723344513
 40
0.7278231424
 40
1.0
 40
1.0
 40
1.0
 40
1.0
 10
14.5019611603
 20
9.4830512521
 30
0.0
 10
14.5040436534
 20
9.4723647402
 30
0.0
 10
14.5104297328
 20
9.4508811253
 30
0.0
 10
14.5259292262
 20
9.4201043359
 30
0.0
 10
14.5472399903
 20
9.3906196046
 30
0.0
 10
14.5645503033
 20
9.3726455558
 30
0.0
 10
14.5739851014
 20
9.3639529721
 30
0.0
  0
SPLINE
  5
4FD
100
AcDbEntity
  8
AXIS
100
AcDbSpline
 62
7
  6
CONTINUOUS
 70
0
 71
3
 72
9
 73
5
 74
0
 42
0.0000001
 43
0.0000001
 44
0.0000000001
 40
0.0
 40
0.0
 40
0.0
 40
0.0
 40
0.2385893618
 40
1.0
 40
1.0
 40
1.0
 40
1.0
 10
14.5739851014
 20
9.3639529721
 30
0.0
 10
14.5789777692
 20
9.3593530664
 30
0.0
 10
14.6005143567
 20
9.3407387115
 30
0.0
 10
14.6242543734
 20
9.3247461143
 30
0.0
 10
14.6430166193
 20
9.3139139716
 30
0.0
  0
SPLINE
  5
4FE
100
AcDbEntity
  8
AXIS
100
AcDbSpline
 62
7
  6
CONTINUOUS
 70
0
 71
3
 72
14
 73
10
 74
0
 42
0.0000001
 43
0.0000001
 44
0.0000000001
 40
0.0
 40
0.0
 40
0.0
 40
0.0
 40
0.2892801208
 40
0.4225377808
 40
0.5484975589
 40
0.6678950759
 40
0.7818690377
 40
0.891953133
 40
1.0
 40
1.0
 40
1.0
 40
1.0
 10
15.3132368175
 20
9.3287826799
 30
0.0
 10
15.3332401611
 20
9.3403315468
 30
0.0
 10
15.361253495
 20
9.3596186452
 30
0.0
 10
15.3929467559
 20
9.3899521135
 30
0.0
 10
15.4122366415
 20
9.4133332813
 30
0.0
 10
15.4274855042
 20
9.4377436688
 30
0.0
 10
15.4385240913
 20
9.4629654647
 30
0.0
 10
15.4452109979
 20
9.4887425218
 30
0.0
 10
15.446708967
 20
9.5061944243
 30
0.0
 10
15.4467089651
 20
9.5148215258
 30
0.0
  0
SPLINE
  5
4FF
100
AcDbEntity
  8
AXIS
100
AcDbSpline
 62
7
  6
CONTINUOUS
 70
0
 71
3
 72
14
 73
10
 74
0
 42
0.0000001
 43
0.0000001
 44
0.0000000001
 40
0.0
 40
0.0
 40
0.0
 40
0.0
 40
0.2892819011
 40
0.4225411589
 40
0.5484954387
 40
0.6678954707
 40
0.7818694524
 40
0.8919526916
 40
1.0
 40
1.0
 40
1.0
 40
1.0
 10
15.2137125156
 20
9.5855455021
 30
0.0
 10
15.227537802
 20
9.5935274872
 30
0.0
 10
15.246899101
 20
9.6068578365
 30
0.0
 10
15.2688039912
 20
9.6278223066
 30
0.0
 10
15.2821350823
 20
9.6439827341
 30
0.0
 10
15.2926753339
 20
9.6608529508
 30
0.0
 10
15.3003039848
 20
9.678285332
 30
0.0
 10
15.3049251182
 20
9.6961009844
 30
0.0
 10
15.3059614108
 20
9.7081626722
 30
0.0
 10
15.3059614211
 20
9.7141252704
 30
0.0
  0
SPLINE
  5
500
100
AcDbEntity
  8
AXIS
100
AcDbSpline
 62
7
  6
CONTINUOUS
 70
0
 71
3
 72
15
 73
11
 74
0
 42
0.0000001
 43
0.0000001
 44
0.0000000001
 40
0.0
 40
0.0
 40
0.0
 40
0.0
 40
0.1169441994
 40
0.2426767617
 40
0.3743114468
 40
0.5084112087
 40
0.6413324389
 40
0.7695304876
 40
0.8898737241
 40
1.0
 40
1.0
 40
1.0
 40
1.0
 10
15.3000695908
 20
9.3214798293
 30
0.0
 10
15.2764269484
 20
9.308883317
 30
0.0
 10
15.2250378133
 20
9.2869994817
 30
0.0
 10
15.1420080957
 20
9.2647081786
 30
0.0
 10
15.0529613886
 20
9.2523739446
 30
0.0
 10
14.9614551429
 20
9.2504973778
 30
0.0
 10
14.8711256028
 20
9.2591486273
 30
0.0
 10
14.7855518104
 20
9.2779924697
 30
0.0
 10
14.7081420192
 20
9.3062731605
 30
0.0
 10
14.6616788771
 20
9.332007538
 30
0.0
 10
14.6409408484
 20
9.3463721312
 30
0.0
  0
LINE
  5
501
100
AcDbEntity
  8
AXIS
100
AcDbLine
 62
7
  6
CONTINUOUS
 10
14.6298814699
 20
9.3543420808
 11
14.6291924302
 21
9.3548602165
  0
SPLINE
  5
502
100
AcDbEntity
  8
AXIS
100
AcDbSpline
 62
7
  6
CONTINUOUS
 70
0
 71
3
 72
13
 73
9
 74
0
 42
0.0000001
 43
0.0000001
 44
0.0000000001
 40
0.0
 40
0.0
 40
0.0
 40
0.0
 40
0.281421788
 40
0.5377453131
 40
0.6581465516
 40
0.774488555
 40
0.8879806611
 40
1.0
 40
1.0
 40
1.0
 40
1.0
 10
14.6291924302
 20
9.3548602165
 30
0.0
 10
14.6148007504
 20
9.3657101817
 30
0.0
 10
14.5888196085
 20
9.3886146447
 30
0.0
 10
14.5629988639
 20
9.4223819566
 30
0.0
 10
14.5485712753
 20
9.4505540785
 30
0.0
 10
14.5409335155
 20
9.471714331
 30
0.0
 10
14.536321931
 20
9.4931842311
 30
0.0
 10
14.5352926188
 20
9.5076473622
 30
0.0
 10
14.5352926172
 20
9.5148215295
 30
0.0
  0
SPLINE
  5
503
100
AcDbEntity
  8
AXIS
100
AcDbSpline
 62
7
  6
CONTINUOUS
 70
0
 71
3
 72
22
 73
18
 74
0
 42
0.0000001
 43
0.0000001
 44
0.0000000001
 40
0.0
 40
0.0
 40
0.0
 40
0.0
 40
0.06240054
 40
0.1287604154
 40
0.1983726523
 40
0.2703709169
 40
0.4173895896
 40
0.4904356413
 40
0.561743382
 40
0.630361071
 40
0.6954680952
 40
0.7564339378
 40
0.8128881382
 40
0.8648041745
 40
0.9125931053
 40
0.9571805066
 40
1.0
 40
1.0
 40
1.0
 40
1.0
 10
15.2137125156
 20
9.5855455021
 30
0.0
 10
15.202396759
 20
9.5790123859
 30
0.0
 10
15.1781463318
 20
9.5670557451
 30
0.0
 10
15.1390287168
 20
9.5528817954
 30
0.0
 10
15.0967516546
 20
9.5421489439
 30
0.0
 10
15.037000119
 20
9.5326786606
 30
0.0
 10
14.9755094413
 20
9.5309849234
 30
0.0
 10
14.9147419625
 20
9.537023498
 30
0.0
 10
14.8708613399
 20
9.5453289009
 30
0.0
 10
14.8295434491
 20
9.5572365494
 30
0.0
 10
14.7916557174
 20
9.5725000384
 30
0.0
 10
14.7579956555
 20
9.5908073272
 30
0.0
 10
14.7292678421
 20
9.6117989356
 30
0.0
 10
14.7060840087
 20
9.6350799546
 30
0.0
 10
14.6889788606
 20
9.6602391126
 30
0.0
 10
14.6784373758
 20
9.6867787049
 30
0.0
 10
14.6760401458
 20
9.7051591246
 30
0.0
 10
14.6760401612
 20
9.7141252641
 30
0.0
  0
SPLINE
  5
504
100
AcDbEntity
  8
0
100
AcDbSpline
 62
7
  6
CONTINUOUS
 70
0
 71
3
 72
14
 73
10
 74
0
 42
0.0000001
 43
0.0000001
 44
0.0000000001
 40
0.0
 40
0.0
 40
0.0
 40
0.0
 40
0.0953230921
 40
0.1981542404
 40
0.3101446654
 40
0.4318625103
 40
0.5629875723
 40
0.7025132429
 40
1.0
 40
1.0
 40
1.0
 40
1.0
 10
14.9345691114
 20
9.6477920913
 30
0.0
 10
14.9408118502
 20
9.646499769
 30
0.0
 10
14.9541596147
 20
9.6454381135
 30
0.0
 10
14.9748384289
 20
9.6482130546
 30
0.0
 10
14.9963579708
 20
9.6551494603
 30
0.0
 10
15.0182671984
 20
9.6660603366
 30
0.0
 10
15.0401260428
 20
9.680695742
 30
0.0
 10
15.0691871321
 20
9.705259303
 30
0.0
 10
15.0885501474
 20
9.7274556621
 30
0.0
 10
15.1003265054
 20
9.7434915961
 30
0.0
  0
SPLINE
  5
505
100
AcDbEntity
  8
AXIS
100
AcDbSpline
 62
7
  6
CONTINUOUS
 70
0
 71
3
 72
11
 73
7
 74
0
 42
0.0000001
 43
0.0000001
 44
0.0000000001
 40
0.0
 40
0.0
 40
0.0
 40
0.0
 40
0.2498113145
 40
0.4994647701
 40
0.7494710624
 40
1.0
 40
1.0
 40
1.0
 40
1.0
 10
14.7317572229
 20
9.843309119
 30
0.0
 10
14.7133259981
 20
9.8326679098
 30
0.0
 10
14.6779365296
 20
9.808713896
 30
0.0
 10
14.6309885557
 20
9.7650503963
 30
0.0
 10
14.5917250369
 20
9.7142569342
 30
0.0
 10
14.5716656481
 20
9.6763365872
 30
0.0
 10
14.5633874195
 20
9.6566637032
 30
0.0
  0
SPLINE
  5
506
100
AcDbEntity
  8
AXIS
100
AcDbSpline
 62
7
  6
CONTINUOUS
 70
0
 71
3
 72
9
 73
5
 74
0
 42
0.0000001
 43
0.0000001
 44
0.0000000001
 40
0.0
 40
0.0
 40
0.0
 40
0.0
 40
0.5017914192
 40
1.0
 40
1.0
 40
1.0
 40
1.0
 10
14.8507156338
 20
9.8917851961
 30
0.0
 10
14.829891174
 20
9.8863041645
 30
0.0
 10
14.7890197198
 20
9.8728061295
 30
0.0
 10
14.7502728201
 20
9.8539990402
 30
0.0
 10
14.7317572229
 20
9.843309119
 30
0.0
  0
SPLINE
  5
507
100
AcDbEntity
  8
AXIS
100
AcDbSpline
 62
7
  6
CONTINUOUS
 70
0
 71
3
 72
11
 73
7
 74
0
 42
0.0000001
 43
0.0000001
 44
0.0000000001
 40
0.0
 40
0.0
 40
0.0
 40
0.0
 40
0.2461896852
 40
0.4999993185
 40
0.7538087369
 40
1.0
 40
1.0
 40
1.0
 40
1.0
 10
15.1312859205
 20
9.8917851608
 30
0.0
 10
15.1087997139
 20
9.8977039015
 30
0.0
 10
15.062235135
 20
9.9064935406
 30
0.0
 10
14.9910011126
 20
9.9108387729
 30
0.0
 10
14.9197667446
 20
9.9064941945
 30
0.0
 10
14.8732023775
 20
9.8977031139
 30
0.0
 10
14.8507158836
 20
9.8917848792
 30
0.0
  0
SPLINE
  5
508
100
AcDbEntity
  8
AXIS
100
AcDbSpline
 62
7
  6
CONTINUOUS
 70
0
 71
3
 72
13
 73
9
 74
0
 42
0.0000001
 43
0.0000001
 44
0.0000000001
 40
0.0
 40
0.0
 40
0.0
 40
0.0
 40
0.1251142434
 40
0.2500305245
 40
0.374759414
 40
0.4993784938
 40
0.7486102628
 40
1.0
 40
1.0
 40
1.0
 40
1.0
 10
15.4186829265
 20
9.6565002563
 30
0.0
 10
15.4124723592
 20
9.6712799642
 30
0.0
 10
15.3980824335
 20
9.7000266994
 30
0.0
 10
15.3711437777
 20
9.739927968
 30
0.0
 10
15.3394484051
 20
9.7760863523
 30
0.0
 10
15.2917473918
 20
9.8187830723
 30
0.0
 10
15.223143783
 20
9.8614789833
 30
0.0
 10
15.1624369378
 20
9.8835862051
 30
0.0
 10
15.1312859485
 20
9.8917851961
 30
0.0
  0
SPLINE
  5
509
100
AcDbEntity
  8
0
100
AcDbSpline
 62
7
  6
CONTINUOUS
 70
0
 71
3
 72
18
 73
14
 74
0
 42
0.0000001
 43
0.0000001
 44
0.0000000001
 40
0.0
 40
0.0
 40
0.0
 40
0.0
 40
0.1082038124
 40
0.1582771797
 40
0.2070271888
 40
0.2558170048
 40
0.3059961179
 40
0.4145457589
 40
0.4747219714
 40
0.5391312382
 40
0.6801825045
 40
0.8353911424
 40
1.0
 40
1.0
 40
1.0
 40
1.0
 10
15.1003265054
 20
9.7434915961
 30
0.0
 10
15.1045369481
 20
9.7387823296
 30
0.0
 10
15.1098333283
 20
9.7309256873
 30
0.0
 10
15.1134673263
 20
9.7193272188
 30
0.0
 10
15.11433189
 20
9.7106884555
 30
0.0
 10
15.1133745681
 20
9.7020545397
 30
0.0
 10
15.1096108667
 20
9.6904620569
 30
0.0
 10
15.1022158733
 20
9.6796941376
 30
0.0
 10
15.0923230973
 20
9.6703219464
 30
0.0
 10
15.079789723
 20
9.6611204684
 30
0.0
 10
15.0608292698
 20
9.6516212728
 30
0.0
 10
15.0349632857
 20
9.6438554189
 30
0.0
 10
15.0164063436
 20
9.6411870166
 30
0.0
 10
15.0068231593
 20
9.6404693064
 30
0.0
  0
SPLINE
  5
50A
100
AcDbEntity
  8
AXIS
100
AcDbSpline
 62
7
  6
CONTINUOUS
 70
0
 71
3
 72
21
 73
17
 74
0
 42
0.0000001
 43
0.0000001
 44
0.0000000001
 40
0.0
 40
0.0
 40
0.0
 40
0.0
 40
0.1348485157
 40
0.1957749298
 40
0.2527451979
 40
0.306507281
 40
0.3581571987
 40
0.4090530764
 40
0.460655989
 40
0.5143303316
 40
0.571181153
 40
0.6319744503
 40
0.6971318899
 40
0.7667681472
 40
0.8407417937
 40
1.0
 40
1.0
 40
1.0
 40
1.0
 10
15.2301375053
 20
9.5760627444
 30
0.0
 10
15.2481259594
 20
9.5864483212
 30
0.0
 10
15.2730050813
 20
9.6041716895
 30
0.0
 10
15.2994456775
 20
9.6329068179
 30
0.0
 10
15.3141844699
 20
9.655010094
 30
0.0
 10
15.3242232105
 20
9.6780794552
 30
0.0
 10
15.3293497721
 20
9.7017764914
 30
0.0
 10
15.3294318797
 20
9.7256973153
 30
0.0
 10
15.3244678134
 20
9.7494080277
 30
0.0
 10
15.3145856876
 20
9.7725040042
 30
0.0
 10
15.2999983287
 20
9.7946417717
 30
0.0
 10
15.2809641864
 20
9.815526583
 30
0.0
 10
15.257779937
 20
9.8348898855
 30
0.0
 10
15.2307803137
 20
9.8524825578
 30
0.0
 10
15.1892021506
 20
9.8737742264
 30
0.0
 10
15.1550090454
 20
9.8855408428
 30
0.0
 10
15.1312859205
 20
9.8917851608
 30
0.0
  0
SPLINE
  5
50B
100
AcDbEntity
  8
0
100
AcDbSpline
 62
7
  6
CONTINUOUS
 70
0
 71
3
 72
20
 73
16
 74
0
 42
0.0000001
 43
0.0000001
 44
0.0000000001
 40
0.0
 40
0.0
 40
0.0
 40
0.0
 40
0.0514291465
 40
0.099030456
 40
0.1444423887
 40
0.18981284
 40
0.2372759983
 40
0.2885263551
 40
0.3445882343
 40
0.4058316725
 40
0.4720897025
 40
0.5427863159
 40
0.6936007804
 40
0.8493887516
 40
1.0
 40
1.0
 40
1.0
 40
1.0
 10
14.8816750769
 20
9.6783297855
 30
0.0
 10
14.8788401965
 20
9.6815005227
 30
0.0
 10
14.8739195096
 20
9.688134195
 30
0.0
 10
14.8691193718
 20
9.6992023421
 30
0.0
 10
14.8674422545
 20
9.7106697516
 30
0.0
 10
14.8689853311
 20
9.7221438596
 30
0.0
 10
14.8736597331
 20
9.7332386953
 30
0.0
 10
14.8812512023
 20
9.7436621592
 30
0.0
 10
14.8915161789
 20
9.753198234
 30
0.0
 10
14.904188401
 20
9.7616548737
 30
0.0
 10
14.9189632752
 20
9.7688528693
 30
0.0
 10
14.9414714625
 20
9.7767153646
 30
0.0
 10
14.9723998862
 20
9.7822730776
 30
0.0
 10
15.0103845651
 20
9.782206773
 30
0.0
 10
15.0354955396
 20
9.7775866243
 30
0.0
 10
15.0474324709
 20
9.7740292903
 30
0.0
  0
SPLINE
  5
50C
100
AcDbEntity
  8
0
100
AcDbSpline
 62
7
  6
CONTINUOUS
 70
0
 71
3
 72
9
 73
5
 74
0
 42
0.0000001
 43
0.0000001
 44
0.0000000001
 40
0.0
 40
0.0
 40
0.0
 40
0.0
 40
0.2561247132
 40
1.0
 40
1.0
 40
1.0
 40
1.0
 10
14.9751784136
 20
9.6404692621
 30
0.0
 10
14.9716616154
 20
9.6407325916
 30
0.0
 10
14.9579606853
 20
9.642107044
 30
0.0
 10
14.9443850997
 20
9.6448668211
 30
0.0
 10
14.9345691114
 20
9.6477920913
 30
0.0
  0
SPLINE
  5
50D
100
AcDbEntity
  8
AXIS
100
AcDbSpline
 62
7
  6
CONTINUOUS
 70
0
 71
3
 72
14
 73
10
 74
0
 42
0.0000001
 43
0.0000001
 44
0.0000000001
 40
0.0
 40
0.0
 40
0.0
 40
0.0
 40
0.289280121
 40
0.422537781
 40
0.5484975591
 40
0.6678950759
 40
0.7818690377
 40
0.8919531329
 40
1.0
 40
1.0
 40
1.0
 40
1.0
 10
15.3132368175
 20
9.3319972563
 30
0.0
 10
15.3332401613
 20
9.3435461233
 30
0.0
 10
15.3612534954
 20
9.3628332219
 30
0.0
 10
15.3929467565
 20
9.3931666906
 30
0.0
 10
15.4122366422
 20
9.4165478586
 30
0.0
 10
15.4274855049
 20
9.4409582464
 30
0.0
 10
15.4385240918
 20
9.4661800425
 30
0.0
 10
15.4452109982
 20
9.4919570998
 30
0.0
 10
15.4467089671
 20
9.5094090026
 30
0.0
 10
15.4467089651
 20
9.5180361041
 30
0.0
  0
SPLINE
  5
50E
100
AcDbEntity
  8
AXIS
100
AcDbSpline
 62
7
  6
CONTINUOUS
 70
0
 71
3
 72
14
 73
10
 74
0
 42
0.0000001
 43
0.0000001
 44
0.0000000001
 40
0.0
 40
0.0
 40
0.0
 40
0.0
 40
0.1080473084
 40
0.2181305476
 40
0.3321045293
 40
0.4515045613
 40
0.5774588411
 40
0.7107180989
 40
1.0
 40
1.0
 40
1.0
 40
1.0
 10
14.6760401612
 20
9.7141252641
 30
0.0
 10
14.6760401715
 20
9.7200878624
 30
0.0
 10
14.677076464
 20
9.7321495501
 30
0.0
 10
14.6816975975
 20
9.7499652026
 30
0.0
 10
14.6893262484
 20
9.7673975837
 30
0.0
 10
14.6998665
 20
9.7842678004
 30
0.0
 10
14.7131975911
 20
9.8004282279
 30
0.0
 10
14.7351024813
 20
9.821392698
 30
0.0
 10
14.7544637803
 20
9.8347230473
 30
0.0
 10
14.7682890667
 20
9.8427050325
 30
0.0
  0
SPLINE
  5
50F
100
AcDbEntity
  8
AXIS
100
AcDbSpline
 62
7
  6
CONTINUOUS
 70
0
 71
3
 72
27
 73
23
 74
0
 42
0.0000001
 43
0.0000001
 44
0.0000000001
 40
0.0
 40
0.0
 40
0.0
 40
0.0
 40
0.0664702151
 40
0.1380885398
 40
0.2134731667
 40
0.2909186577
 40
0.368565884
 40
0.4445402781
 40
0.5170937174
 40
0.584755831
 40
0.6465116434
 40
0.7020214102
 40
0.75188751
 40
0.775279979
 40
0.7980270073
 40
0.8205135827
 40
0.8431474118
 40
0.8663229444
 40
0.8903898261
 40
0.9156306621
 40
0.9422478282
 40
1.0
 40
1.0
 40
1.0
 40
1.0
 10
15.2301375053
 20
9.5760627444
 30
0.0
 10
15.2142084094
 20
9.5668661314
 30
0.0
 10
15.1794479141
 20
9.5505810874
 30
0.0
 10
15.1228802873
 20
9.533058724
 30
0.0
 10
15.0616220299
 20
9.5219777707
 30
0.0
 10
14.9978575951
 20
9.517739915
 30
0.0
 10
14.9338480557
 20
9.5204915565
 30
0.0
 10
14.8718709468
 20
9.5301352162
 30
0.0
 10
14.8141196304
 20
9.5463329751
 30
0.0
 10
14.7626189451
 20
9.5685272283
 30
0.0
 10
14.7191487241
 20
9.5960092996
 30
0.0
 10
14.6852234965
 20
9.6279288375
 30
0.0
 10
14.6656045196
 20
9.658252732
 30
0.0
 10
14.6565204361
 20
9.683322109
 30
0.0
 10
14.6529357405
 20
9.702057069
 30
0.0
 10
14.6524939448
 20
9.7209188415
 30
0.0
 10
14.6552022281
 20
9.739708577
 30
0.0
 10
14.6610199762
 20
9.7582313417
 30
0.0
 10
14.6698731085
 20
9.7763065814
 30
0.0
 10
14.6816631395
 20
9.7937714663
 30
0.0
 10
14.7016625753
 20
9.816652607
 30
0.0
 10
14.7199619768
 20
9.8314920377
 30
0.0
 10
14.7331761467
 20
9.8404795125
 30
0.0
  0
SPLINE
  5
510
100
AcDbEntity
  8
AXIS
100
AcDbSpline
 62
7
  6
CONTINUOUS
 70
0
 71
3
 72
15
 73
11
 74
0
 42
0.0000001
 43
0.0000001
 44
0.0000000001
 40
0.0
 40
0.0
 40
0.0
 40
0.0
 40
0.1172495085
 40
0.243275117
 40
0.3751448133
 40
0.5093786343
 40
0.6422967498
 40
0.7703308052
 40
0.8903445189
 40
1.0
 40
1.0
 40
1.0
 40
1.0
 10
15.2988145661
 20
9.3240282475
 30
0.0
 10
15.2749887814
 20
9.3114290534
 30
0.0
 10
15.2232245867
 20
9.2895788021
 30
0.0
 10
15.1396475086
 20
9.2674358619
 30
0.0
 10
15.0500969049
 20
9.2553530535
 30
0.0
 10
14.9581809438
 20
9.253825504
 30
0.0
 10
14.8675830722
 20
9.2629099113
 30
0.0
 10
14.7819220555
 20
9.2822511331
 30
0.0
 10
14.7046370685
 20
9.3110683694
 30
0.0
 10
14.6583907003
 20
9.3372075852
 30
0.0
 10
14.6378187621
 20
9.3517730992
 30
0.0
  0
SPLINE
  5
511
100
AcDbEntity
  8
AXIS
100
AcDbSpline
 62
7
  6
CONTINUOUS
 70
0
 71
3
 72
13
 73
9
 74
0
 42
0.0000001
 43
0.0000001
 44
0.0000000001
 40
0.0
 40
0.0
 40
0.0
 40
0.0
 40
0.2833552084
 40
0.5402476505
 40
0.6604046838
 40
0.7761913974
 40
0.8888946936
 40
1.0
 40
1.0
 40
1.0
 40
1.0
 10
14.6378187621
 20
9.3517730992
 30
0.0
 10
14.6221865702
 20
9.3628411331
 30
0.0
 10
14.5939355665
 20
9.3863167736
 30
0.0
 10
14.5656666167
 20
9.421380131
 30
0.0
 10
14.5498491906
 20
9.4507941282
 30
0.0
 10
14.5414790991
 20
9.472904995
 30
0.0
 10
14.5364222425
 20
9.495373753
 30
0.0
 10
14.535292619
 20
9.5105257951
 30
0.0
 10
14.5352926172
 20
9.5180361041
 30
0.0
  0
SPLINE
  5
512
100
AcDbEntity
  8
AXIS
100
AcDbSpline
 62
7
  6
CONTINUOUS
 70
0
 71
3
 72
22
 73
18
 74
0
 42
0.0000001
 43
0.0000001
 44
0.0000000001
 40
0.0
 40
0.0
 40
0.0
 40
0.0
 40
0.0428194934
 40
0.0874068947
 40
0.1351958255
 40
0.1871118618
 40
0.2435660622
 40
0.3045319048
 40
0.369638929
 40
0.438256618
 40
0.5095643587
 40
0.5826104104
 40
0.7296290831
 40
0.8016273477
 40
0.8712395846
 40
0.93759946
 40
1.0
 40
1.0
 40
1.0
 40
1.0
 10
15.3059614211
 20
9.7141252704
 30
0.0
 10
15.3059614365
 20
9.7230914099
 30
0.0
 10
15.3035642064
 20
9.7414718296
 30
0.0
 10
15.2930227217
 20
9.7680114219
 30
0.0
 10
15.2759175736
 20
9.7931705799
 30
0.0
 10
15.2527337401
 20
9.8164515989
 30
0.0
 10
15.2240059268
 20
9.8374432074
 30
0.0
 10
15.1903458649
 20
9.8557504961
 30
0.0
 10
15.1524581331
 20
9.8710139851
 30
0.0
 10
15.1111402423
 20
9.8829216336
 30
0.0
 10
15.0672596198
 20
9.8912270365
 30
0.0
 10
15.006492141
 20
9.8972656111
 30
0.0
 10
14.9450014633
 20
9.8955718739
 30
0.0
 10
14.8852499277
 20
9.8861015906
 30
0.0
 10
14.8429728655
 20
9.8753687392
 30
0.0
 10
14.8038552504
 20
9.8611947895
 30
0.0
 10
14.7796048233
 20
9.8492381486
 30
0.0
 10
14.7682890667
 20
9.8427050325
 30
0.0
  0
SPLINE
  5
513
100
AcDbEntity
  8
AXIS
100
AcDbSpline
 62
7
  6
CONTINUOUS
 70
0
 71
3
 72
22
 73
18
 74
0
 42
0.0000001
 43
0.0000001
 44
0.0000000001
 40
0.0
 40
0.0
 40
0.0
 40
0.0
 40
0.0428241763
 40
0.0874992957
 40
0.1354218914
 40
0.1874827295
 40
0.2440668696
 40
0.3051313433
 40
0.3702972105
 40
0.4389315498
 40
0.5102158382
 40
0.5832036832
 40
0.730034717
 40
0.8019212293
 40
0.8714229276
 40
0.9376825807
 40
1.0
 40
1.0
 40
1.0
 40
1.0
 10
15.3059490815
 20
9.7125189968
 30
0.0
 10
15.3058118456
 20
9.7214622289
 30
0.0
 10
15.3031451355
 20
9.7397744913
 30
0.0
 10
15.2922786589
 20
9.7661497267
 30
0.0
 10
15.2749219869
 20
9.7911293609
 30
0.0
 10
15.2515559756
 20
9.8142251934
 30
0.0
 10
15.2227120198
 20
9.8350314016
 30
0.0
 10
15.1889988445
 20
9.8531581367
 30
0.0
 10
15.1511169901
 20
9.8682512615
 30
0.0
 10
15.1098582304
 20
9.8800040773
 30
0.0
 10
15.0660825735
 20
9.8881750109
 30
0.0
 10
15.005513969
 20
9.8940658172
 30
0.0
 10
14.9442602322
 20
9.8922830628
 30
0.0
 10
14.8847569034
 20
9.8827805187
 30
0.0
 10
14.8426629714
 20
9.8720537304
 30
0.0
 10
14.8037117484
 20
9.8579132642
 30
0.0
 10
14.7795609726
 20
9.8459982551
 30
0.0
 10
14.7682890667
 20
9.839490456
 30
0.0
  0
SPLINE
  5
514
100
AcDbEntity
  8
AXIS
100
AcDbSpline
 62
7
  6
CONTINUOUS
 70
0
 71
3
 72
9
 73
5
 74
0
 42
0.0000001
 43
0.0000001
 44
0.0000000001
 40
0.0
 40
0.0
 40
0.0
 40
0.0
 40
0.517775543
 40
1.0
 40
1.0
 40
1.0
 40
1.0
 10
14.8507158836
 20
9.8917848792
 30
0.0
 10
14.8329034546
 20
9.8870968146
 30
0.0
 10
14.7989736519
 20
9.876099104
 30
0.0
 10
14.7667202066
 20
9.8607649293
 30
0.0
 10
14.751864077
 20
9.8521877901
 30
0.0
  0
SPLINE
  5
515
100
AcDbEntity
  8
0
100
AcDbSpline
 62
7
  6
CONTINUOUS
 70
0
 71
3
 72
14
 73
10
 74
0
 42
0.0000001
 43
0.0000001
 44
0.0000000001
 40
0.0
 40
0.0
 40
0.0
 40
0.0
 40
0.297486756
 40
0.437012434
 40
0.568137499
 40
0.6898553401
 40
0.8018457588
 40
0.9046769078
 40
1.0
 40
1.0
 40
1.0
 40
1.0
 10
15.0474324709
 20
9.7740292903
 30
0.0
 10
15.0356561129
 20
9.7579933564
 30
0.0
 10
15.0162930973
 20
9.7357969969
 30
0.0
 10
14.9872320075
 20
9.7112334356
 30
0.0
 10
14.9653731626
 20
9.6965980302
 30
0.0
 10
14.9434639354
 20
9.6856871542
 30
0.0
 10
14.921944394
 20
9.6787507488
 30
0.0
 10
14.9012655802
 20
9.6759758078
 30
0.0
 10
14.8879178156
 20
9.6770374632
 30
0.0
 10
14.8816750769
 20
9.6783297855
 30
0.0
  0
SPLINE
  5
516
100
AcDbEntity
  8
AXIS
100
AcDbSpline
 62
7
  6
CONTINUOUS
 70
0
 71
3
 72
14
 73
10
 74
0
 42
0.0000001
 43
0.0000001
 44
0.0000000001
 40
0.0
 40
0.0
 40
0.0
 40
0.0
 40
0.107969909
 40
0.2181027438
 40
0.3321899275
 40
0.4517081583
 40
0.5777373928
 40
0.710997403
 40
1.0
 40
1.0
 40
1.0
 40
1.0
 10
14.6760525076
 20
9.7125190767
 30
0.0
 10
14.6761430689
 20
9.7184190516
 30
0.0
 10
14.6773404701
 20
9.7303447801
 30
0.0
 10
14.6821281941
 20
9.747934227
 30
0.0
 10
14.6898493848
 20
9.7651383756
 30
0.0
 10
14.7004111795
 20
9.7817850146
 30
0.0
 10
14.7136957811
 20
9.7977322634
 30
0.0
 10
14.7354426012
 20
9.8184190023
 30
0.0
 10
14.7546107828
 20
9.8315933423
 30
0.0
 10
14.7682890667
 20
9.839490456
 30
0.0
  0
SPLINE
  5
517
100
AcDbEntity
  8
02___PRT_ALL_AXES
100
AcDbSpline
 62
7
  6
CONTINUOUS
 70
0
 71
3
 72
15
 73
11
 74
0
 42
0.0000001
 43
0.0000001
 44
0.0000000001
 40
0.0
 40
0.0
 40
0.0
 40
0.0
 40
0.1250093394
 40
0.2500038702
 40
0.3750117821
 40
0.5000210741
 40
0.6250183718
 40
0.750022195
 40
0.8750151731
 40
1.0
 40
1.0
 40
1.0
 40
1.0
 10
14.0070647789
 20
8.7990958906
 30
0.0
 10
14.0082064076
 20
8.8441142052
 30
0.0
 10
14.0166829638
 20
8.9341113079
 30
0.0
 10
14.047759695
 20
9.0659972892
 30
0.0
 10
14.0966016121
 20
9.1924130452
 30
0.0
 10
14.1622952048
 20
9.3109437372
 30
0.0
 10
14.2435985477
 20
9.4193617506
 30
0.0
 10
14.3389830293
 20
9.5156249882
 30
0.0
 10
14.4466228018
 20
9.5979068763
 30
0.0
 10
14.5252733473
 20
9.6424459589
 30
0.0
 10
14.5658813249
 20
9.6618920098
 30
0.0
  0
SPLINE
  5
518
100
AcDbEntity
  8
02___PRT_ALL_AXES
100
AcDbSpline
 62
7
  6
CONTINUOUS
 70
0
 71
3
 72
25
 73
21
 74
0
 42
0.0000001
 43
0.0000001
 44
0.0000000001
 40
0.0
 40
0.0
 40
0.0
 40
0.0
 40
0.021331811
 40
0.0428920215
 40
0.0648971359
 40
0.0875417204
 40
0.1353164271
 40
0.1872171069
 40
0.2436546181
 40
0.3046023666
 40
0.3696901853
 40
0.4382877038
 40
0.5095744457
 40
0.5825990401
 40
0.6563308922
 40
0.7297082922
 40
0.8016850657
 40
0.8712780126
 40
0.9376153322
 40
1.0
 40
1.0
 40
1.0
 40
1.0
 10
15.9752527596
 20
8.7741842814
 30
0.0
 10
15.9752527604
 20
8.7602216195
 30
0.0
 10
15.9734501284
 20
8.7321144273
 30
0.0
 10
15.9653753288
 20
8.6903041852
 30
0.0
 10
15.9519792393
 20
8.6489764133
 30
0.0
 10
15.926708433
 20
8.5938820382
 30
0.0
 10
15.8813613855
 20
8.527151783
 30
0.0
 10
15.80891968
 20
8.4544203465
 30
0.0
 10
15.7191437177
 20
8.3888151666
 30
0.0
 10
15.6139573943
 20
8.3316062925
 30
0.0
 10
15.4955593465
 20
8.2839074613
 30
0.0
 10
15.3664383889
 20
8.2466952772
 30
0.0
 10
15.2293240177
 20
8.2207441339
 30
0.0
 10
15.0871290878
 20
8.2066033698
 30
0.0
 10
14.9428836706
 20
8.2045737182
 30
0.0
 10
14.7996643215
 20
8.2146979337
 30
0.0
 10
14.6605264467
 20
8.2367595381
 30
0.0
 10
14.5284232726
 20
8.2702965142
 30
0.0
 10
14.4061770826
 20
8.3145884453
 30
0.0
 10
14.3303956387
 20
8.3519526833
 30
0.0
 10
14.2950324474
 20
8.3723691694
 30
0.0
  0
SPLINE
  5
519
100
AcDbEntity
  8
0
100
AcDbSpline
 62
7
  6
CONTINUOUS
 70
0
 71
3
 72
17
 73
13
 74
0
 42
0.0000001
 43
0.0000001
 44
0.0000000001
 40
0.0
 40
0.0
 40
0.0
 40
0.0
 40
0.0476973424
 40
0.0971497497
 40
0.1489670746
 40
0.2035826158
 40
0.3217098408
 40
0.4511146159
 40
0.5885835315
 40
0.7293739906
 40
0.8681673888
 40
1.0
 40
1.0
 40
1.0
 40
1.0
 10
15.5324883985
 20
7.6820616507
 30
0.0
 10
15.5280363726
 20
7.6676481142
 30
0.0
 10
15.51599399
 20
7.6391405119
 30
0.0
 10
15.4900250037
 20
7.599575109
 30
0.0
 10
15.4566682165
 20
7.5630175803
 30
0.0
 10
15.4018559259
 20
7.5175624753
 30
0.0
 10
15.3176400021
 20
7.4706781141
 30
0.0
 10
15.2015655871
 20
7.4321348274
 30
0.0
 10
15.0738456033
 20
7.4111832183
 30
0.0
 10
14.941509119
 20
7.4088114506
 30
0.0
 10
14.8119781771
 20
7.4250991201
 30
0.0
 10
14.7292312195
 20
7.448774104
 30
0.0
 10
14.6903811763
 20
7.4639124364
 30
0.0
  0
SPLINE
  5
51A
100
AcDbEntity
  8
02___PRT_ALL_AXES
100
AcDbSpline
 62
7
  6
CONTINUOUS
 70
0
 71
3
 72
9
 73
5
 74
0
 42
0.0000001
 43
0.0000001
 44
0.0000000001
 40
0.0
 40
0.0
 40
0.0
 40
0.0
 40
0.2459914972
 40
1.0
 40
1.0
 40
1.0
 40
1.0
 10
14.5348927766
 20
7.6019405357
 30
0.0
 10
14.5285576783
 20
7.6062700893
 30
0.0
 10
14.5029949251
 20
7.6241489965
 30
0.0
 10
14.4781673157
 20
7.6430688802
 30
0.0
 10
14.45980947
 20
7.6577716964
 30
0.0
  0
SPLINE
  5
51B
100
AcDbEntity
  8
02___PRT_ALL_AXES
100
AcDbSpline
 62
7
  6
CONTINUOUS
 70
0
 71
3
 72
15
 73
11
 74
0
 42
0.0000001
 43
0.0000001
 44
0.0000000001
 40
0.0
 40
0.0
 40
0.0
 40
0.0
 40
0.134348887
 40
0.272351379
 40
0.4105564279
 40
0.5454963358
 40
0.673996189
 40
0.7934610053
 40
0.9022280082
 40
1.0
 40
1.0
 40
1.0
 40
1.0
 10
14.7680136219
 20
7.4885419547
 30
0.0
 10
14.8040883225
 20
7.4804926213
 30
0.0
 10
14.8783092313
 20
7.4687823137
 30
0.0
 10
14.9913818048
 20
7.4639967286
 30
0.0
 10
15.1044671535
 20
7.471828848
 30
0.0
 10
15.2133614726
 20
7.492058543
 30
0.0
 10
15.3140575753
 20
7.5239977298
 30
0.0
 10
15.4029019565
 20
7.5665995395
 30
0.0
 10
15.4766528473
 20
7.6184251214
 30
0.0
 10
15.5159376077
 20
7.6603178554
 30
0.0
 10
15.5315485624
 20
7.6822232457
 30
0.0
  0
SPLINE
  5
51C
100
AcDbEntity
  8
02___PRT_ALL_AXES
100
AcDbSpline
 62
7
  6
CONTINUOUS
 70
0
 71
3
 72
11
 73
7
 74
0
 42
0.0000001
 43
0.0000001
 44
0.0000000001
 40
0.0
 40
0.0
 40
0.0
 40
0.0
 40
0.2640981385
 40
0.5164750368
 40
0.7604391126
 40
1.0
 40
1.0
 40
1.0
 40
1.0
 10
15.5315485624
 20
7.6822232457
 30
0.0
 10
15.5389300237
 20
7.6925809588
 30
0.0
 10
15.552090808
 20
7.7137953755
 30
0.0
 10
15.5667444976
 20
7.747508282
 30
0.0
 10
15.5756260124
 20
7.7819736661
 30
0.0
 10
15.5776136488
 20
7.8053060901
 30
0.0
 10
15.5776136278
 20
7.8168432029
 30
0.0
  0
SPLINE
  5
51D
100
AcDbEntity
  8
0
100
AcDbSpline
 62
7
  6
CONTINUOUS
 70
0
 71
3
 72
9
 73
5
 74
0
 42
0.0000001
 43
0.0000001
 44
0.0000000001
 40
0.0
 40
0.0
 40
0.0
 40
0.0
 40
0.5165668674
 40
1.0
 40
1.0
 40
1.0
 40
1.0
 10
14.5414848193
 20
7.5500360204
 30
0.0
 10
14.5235879638
 20
7.5653138745
 30
0.0
 10
14.4914561455
 20
7.5980773892
 30
0.0
 10
14.4674149498
 20
7.6374120851
 30
0.0
 10
14.4586115932
 20
7.6575976461
 30
0.0
  0
SPLINE
  5
51E
100
AcDbEntity
  8
02___PRT_ALL_AXES
100
AcDbSpline
 62
7
  6
CONTINUOUS
 70
0
 71
3
 72
9
 73
5
 74
0
 42
0.0000001
 43
0.0000001
 44
0.0000000001
 40
0.0
 40
0.0
 40
0.0
 40
0.0
 40
0.2454806407
 40
1.0
 40
1.0
 40
1.0
 40
1.0
 10
14.5348927766
 20
7.6501591824
 30
0.0
 10
14.5275816403
 20
7.6551557831
 30
0.0
 10
14.4980529399
 20
7.6758818359
 30
0.0
 10
14.4694999809
 20
7.6979806303
 30
0.0
 10
14.4484227823
 20
7.7152025513
 30
0.0
  0
SPLINE
  5
51F
100
AcDbEntity
  8
02___PRT_ALL_AXES
100
AcDbSpline
 62
7
  6
CONTINUOUS
 70
0
 71
3
 72
17
 73
13
 74
0
 42
0.0000001
 43
0.0000001
 44
0.0000000001
 40
0.0
 40
0.0
 40
0.0
 40
0.0
 40
0.1354899026
 40
0.274666812
 40
0.4138273732
 40
0.5492714725
 40
0.6776502248
 40
0.7383670689
 40
0.7964000645
 40
0.8515935256
 40
0.9038919141
 40
1.0
 40
1.0
 40
1.0
 40
1.0
 10
14.7680136219
 20
7.5367606014
 30
0.0
 10
14.8052278726
 20
7.5284570007
 30
0.0
 10
14.8818307292
 20
7.5165249518
 30
0.0
 10
14.9984510261
 20
7.5122022384
 30
0.0
 10
15.1148137702
 20
7.5212751237
 30
0.0
 10
15.2263057531
 20
7.5434573252
 30
0.0
 10
15.3131593911
 20
7.5727451725
 30
0.0
 10
15.3761848012
 20
7.6023006221
 30
0.0
 10
15.418716755
 20
7.6266471145
 30
0.0
 10
15.4569757994
 20
7.6533661279
 30
0.0
 10
15.5004933714
 20
7.6906954589
 30
0.0
 10
15.5277399207
 20
7.7230950903
 30
0.0
 10
15.5419610595
 20
7.7461011397
 30
0.0
  0
SPLINE
  5
520
100
AcDbEntity
  8
02___PRT_ALL_AXES
100
AcDbSpline
 62
7
  6
CONTINUOUS
 70
0
 71
3
 72
9
 73
5
 74
0
 42
0.0000001
 43
0.0000001
 44
0.0000000001
 40
0.0
 40
0.0
 40
0.0
 40
0.0
 40
0.5106602346
 40
1.0
 40
1.0
 40
1.0
 40
1.0
 10
15.5419610595
 20
7.7461011397
 30
0.0
 10
15.5490185892
 20
7.7575183601
 30
0.0
 10
15.5612388843
 20
7.7809239208
 30
0.0
 10
15.5694361888
 20
7.8060540372
 30
0.0
 10
15.5723108214
 20
7.8185907192
 30
0.0
  0
SPLINE
  5
521
100
AcDbEntity
  8
02___PRT_ALL_AXES
100
AcDbSpline
 62
7
  6
CONTINUOUS
 70
0
 71
3
 72
9
 73
5
 74
0
 42
0.0000001
 43
0.0000001
 44
0.0000000001
 40
0.0
 40
0.0
 40
0.0
 40
0.0
 40
0.2454799692
 40
1.0
 40
1.0
 40
1.0
 40
1.0
 10
14.5348927766
 20
7.6983778291
 30
0.0
 10
14.5275816604
 20
7.7033744161
 30
0.0
 10
14.4980530176
 20
7.7241005496
 30
0.0
 10
14.4694999994
 20
7.7461992619
 30
0.0
 10
14.4484227823
 20
7.763421198
 30
0.0
  0
SPLINE
  5
522
100
AcDbEntity
  8
02___PRT_ALL_AXES
100
AcDbSpline
 62
7
  6
CONTINUOUS
 70
0
 71
3
 72
11
 73
7
 74
0
 42
0.0000001
 43
0.0000001
 44
0.0000000001
 40
0.0
 40
0.0
 40
0.0
 40
0.0
 40
0.2476469618
 40
0.5019983066
 40
0.7553212338
 40
1.0
 40
1.0
 40
1.0
 40
1.0
 10
14.7680136219
 20
7.584979248
 30
0.0
 10
14.8078007643
 20
7.5761015591
 30
0.0
 10
14.8897807009
 20
7.5637022517
 30
0.0
 10
15.0143749481
 20
7.5605570563
 30
0.0
 10
15.1379366798
 20
7.5726216957
 30
0.0
 10
15.2181300395
 20
7.591013843
 30
0.0
 10
15.2566238673
 20
7.6028653399
 30
0.0
  0
SPLINE
  5
523
100
AcDbEntity
  8
02___PRT_ALL_AXES
100
AcDbSpline
 62
7
  6
CONTINUOUS
 70
0
 71
3
 72
14
 73
10
 74
0
 42
0.0000001
 43
0.0000001
 44
0.0000000001
 40
0.0
 40
0.0
 40
0.0
 40
0.0
 40
0.2949142459
 40
0.4315939127
 40
0.560193567
 40
0.6806184989
 40
0.7932837154
 40
0.8991968857
 40
1.0
 40
1.0
 40
1.0
 40
1.0
 10
15.2566238673
 20
7.6028653399
 30
0.0
 10
15.2969516699
 20
7.6152814817
 30
0.0
 10
15.35482309
 20
7.6380444142
 30
0.0
 10
15.424372852
 20
7.6781134318
 30
0.0
 10
15.4690112476
 20
7.7107801921
 30
0.0
 10
15.5067793598
 20
7.746376969
 30
0.0
 10
15.5371200725
 20
7.7844643013
 30
0.0
 10
15.5595344333
 20
7.8245323888
 30
0.0
 10
15.5690873713
 20
7.8527514412
 30
0.0
 10
15.5723108214
 20
7.8668093659
 30
0.0
  0
SPLINE
  5
524
100
AcDbEntity
  8
02___PRT_ALL_AXES
100
AcDbSpline
 62
7
  6
CONTINUOUS
 70
0
 71
3
 72
9
 73
5
 74
0
 42
0.0000001
 43
0.0000001
 44
0.0000000001
 40
0.0
 40
0.0
 40
0.0
 40
0.0
 40
0.2454799692
 40
1.0
 40
1.0
 40
1.0
 40
1.0
 10
14.5348927766
 20
7.7465964758
 30
0.0
 10
14.5275816604
 20
7.7515930627
 30
0.0
 10
14.4980530176
 20
7.7723191963
 30
0.0
 10
14.4694999994
 20
7.7944179086
 30
0.0
 10
14.4484227823
 20
7.8116398447
 30
0.0
  0
SPLINE
  5
525
100
AcDbEntity
  8
02___PRT_ALL_AXES
100
AcDbSpline
 62
7
  6
CONTINUOUS
 70
0
 71
3
 72
17
 73
13
 74
0
 42
0.0000001
 43
0.0000001
 44
0.0000000001
 40
0.0
 40
0.0
 40
0.0
 40
0.0
 40
0.1353563914
 40
0.2743962184
 40
0.4134453091
 40
0.5488302664
 40
0.6772218779
 40
0.7379744767
 40
0.7960622873
 40
0.8513274667
 40
0.9037100983
 40
1.0
 40
1.0
 40
1.0
 40
1.0
 10
14.7680136219
 20
7.6331978947
 30
0.0
 10
14.8050989674
 20
7.6249230566
 30
0.0
 10
14.8814323793
 20
7.6130156354
 30
0.0
 10
14.9976518429
 20
7.6086387448
 30
0.0
 10
15.1136464228
 20
7.6175686535
 30
0.0
 10
15.2248479071
 20
7.6395262044
 30
0.0
 10
15.3115397866
 20
7.6685608047
 30
0.0
 10
15.3745156687
 20
7.6978808946
 30
0.0
 10
15.4170613071
 20
7.7220484174
 30
0.0
 10
15.4553794004
 20
7.7485812431
 30
0.0
 10
15.4990389518
 20
7.7856703631
 30
0.0
 10
15.5264619458
 20
7.8178689968
 30
0.0
 10
15.5408481625
 20
7.8407532127
 30
0.0
  0
SPLINE
  5
526
100
AcDbEntity
  8
02___PRT_ALL_AXES
100
AcDbSpline
 62
7
  6
CONTINUOUS
 70
0
 71
3
 72
9
 73
5
 74
0
 42
0.0000001
 43
0.0000001
 44
0.0000000001
 40
0.0
 40
0.0
 40
0.0
 40
0.0
 40
0.5110172216
 40
1.0
 40
1.0
 40
1.0
 40
1.0
 10
15.5408481625
 20
7.8407532127
 30
0.0
 10
15.5481869702
 20
7.8524270852
 30
0.0
 10
15.5608836564
 20
7.876381386
 30
0.0
 10
15.5693618911
 20
7.9021673078
 30
0.0
 10
15.5723108214
 20
7.9150280126
 30
0.0
  0
SPLINE
  5
527
100
AcDbEntity
  8
0
100
AcDbSpline
 62
7
  6
CONTINUOUS
 70
0
 71
3
 72
15
 73
11
 74
0
 42
0.0000001
 43
0.0000001
 44
0.0000000001
 40
0.0
 40
0.0
 40
0.0
 40
0.0
 40
0.1080713608
 40
0.218123921
 40
0.3320455909
 40
0.4514034014
 40
0.5773876062
 40
0.7107156424
 40
0.851643467
 40
1.0
 40
1.0
 40
1.0
 40
1.0
 10
15.9752527596
 20
8.388435108
 30
0.0
 10
15.9752527596
 20
8.3650233262
 30
0.0
 10
15.9705114422
 20
8.3176427361
 30
0.0
 10
15.9495099017
 20
8.2484215495
 30
0.0
 10
15.9153181106
 20
8.1819521017
 30
0.0
 10
15.8688139337
 20
8.1191716573
 30
0.0
 10
15.8109203884
 20
8.0607102166
 30
0.0
 10
15.7425302349
 20
8.0070887593
 30
0.0
 10
15.6645741247
 20
7.9587826428
 30
0.0
 10
15.6082365438
 20
7.9310950628
 30
0.0
 10
15.5788095529
 20
7.9181738093
 30
0.0
  0
SPLINE
  5
528
100
AcDbEntity
  8
0
100
AcDbSpline
 62
7
  6
CONTINUOUS
 70
0
 71
3
 72
11
 73
7
 74
0
 42
0.0000001
 43
0.0000001
 44
0.0000000001
 40
0.0
 40
0.0
 40
0.0
 40
0.0
 40
0.235774035
 40
0.4857970798
 40
0.7431406121
 40
1.0
 40
1.0
 40
1.0
 40
1.0
 10
15.5764216899
 20
7.9171286344
 30
0.0
 10
15.5170073909
 20
7.8912053475
 30
0.0
 10
15.3898637057
 20
7.8482817408
 30
0.0
 10
15.1884422757
 20
7.8107547071
 30
0.0
 10
14.9781028936
 20
7.7991421404
 30
0.0
 10
14.8366252287
 20
7.809140393
 30
0.0
 10
14.7666633218
 20
7.8187633219
 30
0.0
  0
SPLINE
  5
529
100
AcDbEntity
  8
0
100
AcDbSpline
 62
7
  6
CONTINUOUS
 70
0
 71
3
 72
11
 73
7
 74
0
 42
0.0000001
 43
0.0000001
 44
0.0000000001
 40
0.0
 40
0.0
 40
0.0
 40
0.0
 40
0.2649839881
 40
0.5215562137
 40
0.767203389
 40
1.0
 40
1.0
 40
1.0
 40
1.0
 10
14.7666633218
 20
7.8187633219
 30
0.0
 10
14.723797229
 20
7.8246593499
 30
0.0
 10
14.6398514139
 20
7.8397078152
 30
0.0
 10
14.5187628785
 20
7.8724785895
 30
0.0
 10
14.4061935553
 20
7.9146347581
 30
0.0
 10
14.3361075331
 20
7.9495903679
 30
0.0
 10
14.3031864758
 20
7.9685969192
 30
0.0
  0
SPLINE
  5
52A
100
AcDbEntity
  8
02___PRT_ALL_AXES
100
AcDbSpline
 62
7
  6
CONTINUOUS
 70
0
 71
3
 72
9
 73
5
 74
0
 42
0.0000001
 43
0.0000001
 44
0.0000000001
 40
0.0
 40
0.0
 40
0.0
 40
0.0
 40
0.2454799692
 40
1.0
 40
1.0
 40
1.0
 40
1.0
 10
14.5348927766
 20
7.7948151224
 30
0.0
 10
14.5275816604
 20
7.7998117094
 30
0.0
 10
14.4980530176
 20
7.820537843
 30
0.0
 10
14.4694999994
 20
7.8426365553
 30
0.0
 10
14.4484227823
 20
7.8598584913
 30
0.0
  0
SPLINE
  5
52B
100
AcDbEntity
  8
02___PRT_ALL_AXES
100
AcDbSpline
 62
7
  6
CONTINUOUS
 70
0
 71
3
 72
17
 73
13
 74
0
 42
0.0000001
 43
0.0000001
 44
0.0000000001
 40
0.0
 40
0.0
 40
0.0
 40
0.0
 40
0.1353549588
 40
0.2743933145
 40
0.4134412078
 40
0.5488255281
 40
0.6772172747
 40
0.7379702558
 40
0.7960586535
 40
0.8513246023
 40
0.9037081389
 40
1.0
 40
1.0
 40
1.0
 40
1.0
 10
14.7680136219
 20
7.6814165414
 30
0.0
 10
14.8050975827
 20
7.6731420123
 30
0.0
 10
14.8814281
 20
7.6612348563
 30
0.0
 10
14.9976432567
 20
7.6568573861
 30
0.0
 10
15.1136338786
 20
7.6657857627
 30
0.0
 10
15.2248322355
 20
7.6877409048
 30
0.0
 10
15.3115223684
 20
7.7167727889
 30
0.0
 10
15.3744977078
 20
7.7460903538
 30
0.0
 10
15.417043484
 20
7.7702559555
 30
0.0
 10
15.4553622011
 20
7.7967867821
 30
0.0
 10
15.4990232631
 20
7.8338733226
 30
0.0
 10
15.5264481376
 20
7.8660697967
 30
0.0
 10
15.5408361168
 20
7.8889526999
 30
0.0
  0
SPLINE
  5
52C
100
AcDbEntity
  8
0
100
AcDbSpline
 62
7
  6
CONTINUOUS
 70
0
 71
3
 72
14
 73
10
 74
0
 42
0.0000001
 43
0.0000001
 44
0.0000000001
 40
0.0
 40
0.0
 40
0.0
 40
0.0
 40
0.2824657279
 40
0.4139610173
 40
0.5394083172
 40
0.6595723647
 40
0.7755182978
 40
0.8884984286
 40
1.0
 40
1.0
 40
1.0
 40
1.0
 10
14.3031864758
 20
7.9685969192
 30
0.0
 10
14.2593289078
 20
7.9939175251
 30
0.0
 10
14.197748125
 20
8.0364202727
 30
0.0
 10
14.1278790817
 20
8.1035243282
 30
0.0
 10
14.0848506356
 20
8.1559090746
 30
0.0
 10
14.0505321232
 20
8.2111434423
 30
0.0
 10
14.0254798231
 20
8.2687653365
 30
0.0
 10
14.0101850826
 20
8.3281174136
 30
0.0
 10
14.0067488226
 20
8.3684444686
 30
0.0
 10
14.0067488226
 20
8.388435108
 30
0.0
  0
SPLINE
  5
52D
100
AcDbEntity
  8
02___PRT_ALL_AXES
100
AcDbSpline
 62
7
  6
CONTINUOUS
 70
0
 71
3
 72
9
 73
5
 74
0
 42
0.0000001
 43
0.0000001
 44
0.0000000001
 40
0.0
 40
0.0
 40
0.0
 40
0.0
 40
0.2462417555
 40
1.0
 40
1.0
 40
1.0
 40
1.0
 10
14.5348927766
 20
7.8430337691
 30
0.0
 10
14.5290168945
 20
7.8470494837
 30
0.0
 10
14.5053184404
 20
7.8635968236
 30
0.0
 10
14.4822533711
 20
7.8810436951
 30
0.0
 10
14.465184402
 20
7.8945810646
 30
0.0
  0
SPLINE
  5
52E
100
AcDbEntity
  8
02___PRT_ALL_AXES
100
AcDbSpline
 62
7
  6
CONTINUOUS
 70
0
 71
3
 72
15
 73
11
 74
0
 42
0.0000001
 43
0.0000001
 44
0.0000000001
 40
0.0
 40
0.0
 40
0.0
 40
0.0
 40
0.131797335
 40
0.2671498559
 40
0.4031413102
 40
0.5368085924
 40
0.6653756959
 40
0.7864511333
 40
0.8982728954
 40
1.0
 40
1.0
 40
1.0
 40
1.0
 10
14.7680136219
 20
7.7296351881
 30
0.0
 10
14.801491963
 20
7.7221651794
 30
0.0
 10
14.8702888604
 20
7.7109947217
 30
0.0
 10
14.9752353155
 20
7.705287574
 30
0.0
 10
15.0807085947
 20
7.7105029173
 30
0.0
 10
15.1833090613
 20
7.7265286068
 30
0.0
 10
15.2797561689
 20
7.7528948187
 30
0.0
 10
15.3669995917
 20
7.7888405058
 30
0.0
 10
15.4422591763
 20
7.8332889632
 30
0.0
 10
15.4849124435
 20
7.8695525862
 30
0.0
 10
15.5030803071
 20
7.888810884
 30
0.0
  0
SPLINE
  5
52F
100
AcDbEntity
  8
02___PRT_ALL_AXES
100
AcDbSpline
 62
7
  6
CONTINUOUS
 70
0
 71
3
 72
14
 73
10
 74
0
 42
0.0000001
 43
0.0000001
 44
0.0000000001
 40
0.0
 40
0.0
 40
0.0
 40
0.0
 40
0.2551706972
 40
0.3858697272
 40
0.516183029
 40
0.6443272594
 40
0.7686281183
 40
0.8875921556
 40
1.0
 40
1.0
 40
1.0
 40
1.0
 10
14.7680136219
 20
7.7778538348
 30
0.0
 10
14.8216437313
 20
7.7658873702
 30
0.0
 10
14.9046162656
 20
7.7553228107
 30
0.0
 10
15.0158431637
 20
7.7548866187
 30
0.0
 10
15.0994923885
 20
7.7615046146
 30
0.0
 10
15.1809123417
 20
7.774954468
 30
0.0
 10
15.2584634101
 20
7.7949882594
 30
0.0
 10
15.3305506276
 20
7.8212185744
 30
0.0
 10
15.3754088096
 20
7.8431988602
 30
0.0
 10
15.3964362853
 20
7.8551897392
 30
0.0
  0
SPLINE
  5
530
100
AcDbEntity
  8
02___PRT_ALL_AXES
100
AcDbSpline
 62
7
  6
CONTINUOUS
 70
0
 71
3
 72
9
 73
5
 74
0
 42
0.0000001
 43
0.0000001
 44
0.0000000001
 40
0.0
 40
0.0
 40
0.0
 40
0.0
 40
0.2436743909
 40
1.0
 40
1.0
 40
1.0
 40
1.0
 10
14.4191714478
 20
7.9117769791
 30
0.0
 10
14.4207555913
 20
7.9078741247
 30
0.0
 10
14.4277232917
 20
7.8920485685
 30
0.0
 10
14.4364925441
 20
7.8770349319
 30
0.0
 10
14.4438923309
 20
7.8662569906
 30
0.0
  0
SPLINE
  5
531
100
AcDbEntity
  8
02___PRT_ALL_AXES
100
AcDbSpline
 62
7
  6
CONTINUOUS
 70
0
 71
3
 72
9
 73
5
 74
0
 42
0.0000001
 43
0.0000001
 44
0.0000000001
 40
0.0
 40
0.0
 40
0.0
 40
0.0
 40
0.4870782942
 40
1.0
 40
1.0
 40
1.0
 40
1.0
 10
14.4101515075
 20
7.8911024502
 30
0.0
 10
14.4133369422
 20
7.8783793991
 30
0.0
 10
14.4225026005
 20
7.8528651345
 30
0.0
 10
14.4360652125
 20
7.8294403765
 30
0.0
 10
14.4438819205
 20
7.818053508
 30
0.0
  0
SPLINE
  5
532
100
AcDbEntity
  8
02___PRT_ALL_AXES
100
AcDbSpline
 62
7
  6
CONTINUOUS
 70
0
 71
3
 72
9
 73
5
 74
0
 42
0.0000001
 43
0.0000001
 44
0.0000000001
 40
0.0
 40
0.0
 40
0.0
 40
0.0
 40
0.4855781907
 40
1.0
 40
1.0
 40
1.0
 40
1.0
 10
14.4101515075
 20
7.8428838035
 30
0.0
 10
14.4136348778
 20
7.8289707581
 30
0.0
 10
14.423965131
 20
7.8010453641
 30
0.0
 10
14.4394660906
 20
7.7756950883
 30
0.0
 10
14.4484227823
 20
7.763421198
 30
0.0
  0
SPLINE
  5
533
100
AcDbEntity
  8
02___PRT_ALL_AXES
100
AcDbSpline
 62
7
  6
CONTINUOUS
 70
0
 71
3
 72
9
 73
5
 74
0
 42
0.0000001
 43
0.0000001
 44
0.0000000001
 40
0.0
 40
0.0
 40
0.0
 40
0.0
 40
0.2441784264
 40
1.0
 40
1.0
 40
1.0
 40
1.0
 10
14.4101515075
 20
7.7946651568
 30
0.0
 10
14.4112871224
 20
7.7901293595
 30
0.0
 10
14.4165910785
 20
7.7717196307
 30
0.0
 10
14.4244742103
 20
7.7540830299
 30
0.0
 10
14.4315404702
 20
7.7414519385
 30
0.0
  0
SPLINE
  5
534
100
AcDbEntity
  8
02___PRT_ALL_AXES
100
AcDbSpline
 62
7
  6
CONTINUOUS
 70
0
 71
3
 72
10
 73
6
 74
0
 42
0.0000001
 43
0.0000001
 44
0.0000000001
 40
0.0
 40
0.0
 40
0.0
 40
0.0
 40
0.2391944707
 40
0.4830928873
 40
1.0
 40
1.0
 40
1.0
 40
1.0
 10
14.4043879545
 20
7.7927338796
 30
0.0
 10
14.4043879751
 20
7.7819556741
 30
0.0
 10
14.4062933718
 20
7.7601373957
 30
0.0
 10
14.4178090113
 20
7.7164044883
 30
0.0
 10
14.4346927665
 20
7.6857989664
 30
0.0
 10
14.4484227823
 20
7.6669839046
 30
0.0
  0
SPLINE
  5
535
100
AcDbEntity
  8
0
100
AcDbSpline
 62
7
  6
CONTINUOUS
 70
0
 71
3
 72
14
 73
10
 74
0
 42
0.0000001
 43
0.0000001
 44
0.0000000001
 40
0.0
 40
0.0
 40
0.0
 40
0.0
 40
0.1080561663
 40
0.2181504055
 40
0.3321364403
 40
0.4515449248
 40
0.5775144579
 40
0.7107779368
 40
1.0
 40
1.0
 40
1.0
 40
1.0
 10
14.0067492607
 20
8.388435108
 30
0.0
 10
14.0067486102
 20
8.3698002117
 30
0.0
 10
14.0099871076
 20
8.3321033641
 30
0.0
 10
14.0244316079
 20
8.2764236996
 30
0.0
 10
14.0482766472
 20
8.2219432496
 30
0.0
 10
14.081218447
 20
8.1692175843
 30
0.0
 10
14.1228881532
 20
8.1187170017
 30
0.0
 10
14.1913383886
 20
8.0532089983
 30
0.0
 10
14.2518366066
 20
8.0115585621
 30
0.0
 10
14.2950324474
 20
7.9866199959
 30
0.0
  0
SPLINE
  5
536
100
AcDbEntity
  8
02___PRT_ALL_AXES
100
AcDbSpline
 62
7
  6
CONTINUOUS
 70
0
 71
3
 72
9
 73
5
 74
0
 42
0.0000001
 43
0.0000001
 44
0.0000000001
 40
0.0
 40
0.0
 40
0.0
 40
0.0
 40
0.2566528485
 40
1.0
 40
1.0
 40
1.0
 40
1.0
 10
14.5348927766
 20
7.6413747249
 30
0.0
 10
14.5318523701
 20
7.6438865068
 30
0.0
 10
14.5201617293
 20
7.653859083
 30
0.0
 10
14.5091107452
 20
7.664590101
 30
0.0
 10
14.5013748173
 20
7.6729939589
 30
0.0
  0
SPLINE
  5
537
100
AcDbEntity
  8
02___PRT_ALL_AXES
100
AcDbSpline
 62
7
  6
CONTINUOUS
 70
0
 71
3
 72
9
 73
5
 74
0
 42
0.0000001
 43
0.0000001
 44
0.0000000001
 40
0.0
 40
0.0
 40
0.0
 40
0.0
 40
0.256713681
 40
1.0
 40
1.0
 40
1.0
 40
1.0
 10
14.5348927766
 20
7.6895933716
 30
0.0
 10
14.531827703
 20
7.6921255318
 30
0.0
 10
14.520046272
 20
7.7021781083
 30
0.0
 10
14.5089148333
 20
7.713001361
 30
0.0
 10
14.5011287691
 20
7.7214800225
 30
0.0
  0
SPLINE
  5
538
100
AcDbEntity
  8
02___PRT_ALL_AXES
100
AcDbSpline
 62
7
  6
CONTINUOUS
 70
0
 71
3
 72
9
 73
5
 74
0
 42
0.0000001
 43
0.0000001
 44
0.0000000001
 40
0.0
 40
0.0
 40
0.0
 40
0.0
 40
0.2566324321
 40
1.0
 40
1.0
 40
1.0
 40
1.0
 10
14.5348927766
 20
7.786030665
 30
0.0
 10
14.5318612728
 20
7.788535092
 30
0.0
 10
14.5202034761
 20
7.7984787208
 30
0.0
 10
14.5091815966
 20
7.8091763725
 30
0.0
 10
14.5014638789
 20
7.8175531896
 30
0.0
  0
SPLINE
  5
539
100
AcDbEntity
  8
02___PRT_ALL_AXES
100
AcDbSpline
 62
7
  6
CONTINUOUS
 70
0
 71
3
 72
9
 73
5
 74
0
 42
0.0000001
 43
0.0000001
 44
0.0000000001
 40
0.0
 40
0.0
 40
0.0
 40
0.0
 40
0.2566365622
 40
1.0
 40
1.0
 40
1.0
 40
1.0
 10
14.5348927766
 20
7.7378120183
 30
0.0
 10
14.5318595646
 20
7.7403178565
 30
0.0
 10
14.5201954741
 20
7.7502670303
 30
0.0
 10
14.5091680137
 20
7.7609710701
 30
0.0
 10
14.5014468076
 20
7.7693530646
 30
0.0
  0
SPLINE
  5
53A
100
AcDbEntity
  8
02___PRT_ALL_AXES
100
AcDbSpline
 62
7
  6
CONTINUOUS
 70
0
 71
3
 72
9
 73
5
 74
0
 42
0.0000001
 43
0.0000001
 44
0.0000000001
 40
0.0
 40
0.0
 40
0.0
 40
0.0
 40
0.2566616051
 40
1.0
 40
1.0
 40
1.0
 40
1.0
 10
14.5348927766
 20
7.8342493117
 30
0.0
 10
14.5318491984
 20
7.8367637138
 30
0.0
 10
14.5201469207
 20
7.8467465387
 30
0.0
 10
14.5090856087
 20
7.8574893569
 30
0.0
 10
14.5013432544
 20
7.8659027814
 30
0.0
  0
SPLINE
  5
53B
100
AcDbEntity
  8
02___PRT_ALL_AXES
100
AcDbSpline
 62
7
  6
CONTINUOUS
 70
0
 71
3
 72
9
 73
5
 74
0
 42
0.0000001
 43
0.0000001
 44
0.0000000001
 40
0.0
 40
0.0
 40
0.0
 40
0.0
 40
0.2454799897
 40
1.0
 40
1.0
 40
1.0
 40
1.0
 10
14.6815436276
 20
7.5596126544
 30
0.0
 10
14.6888547444
 20
7.554616067
 30
0.0
 10
14.7183833867
 20
7.5338899328
 30
0.0
 10
14.7469364054
 20
7.5117912211
 30
0.0
 10
14.7680136219
 20
7.4945692855
 30
0.0
  0
SPLINE
  5
53C
100
AcDbEntity
  8
02___PRT_ALL_AXES
100
AcDbSpline
 62
7
  6
CONTINUOUS
 70
0
 71
3
 72
9
 73
5
 74
0
 42
0.0000001
 43
0.0000001
 44
0.0000000001
 40
0.0
 40
0.0
 40
0.0
 40
0.0
 40
0.2454799731
 40
1.0
 40
1.0
 40
1.0
 40
1.0
 10
14.6815436276
 20
7.6078313011
 30
0.0
 10
14.6888547439
 20
7.602834714
 30
0.0
 10
14.7183833866
 20
7.5821085804
 30
0.0
 10
14.7469364049
 20
7.5600098681
 30
0.0
 10
14.7680136219
 20
7.5427879322
 30
0.0
  0
SPLINE
  5
53D
100
AcDbEntity
  8
02___PRT_ALL_AXES
100
AcDbSpline
 62
7
  6
CONTINUOUS
 70
0
 71
3
 72
9
 73
5
 74
0
 42
0.0000001
 43
0.0000001
 44
0.0000000001
 40
0.0
 40
0.0
 40
0.0
 40
0.0
 40
0.2454799731
 40
1.0
 40
1.0
 40
1.0
 40
1.0
 10
14.6815436276
 20
7.6560499478
 30
0.0
 10
14.6888547439
 20
7.6510533607
 30
0.0
 10
14.7183833866
 20
7.6303272271
 30
0.0
 10
14.7469364049
 20
7.6082285148
 30
0.0
 10
14.7680136219
 20
7.5910065789
 30
0.0
  0
SPLINE
  5
53E
100
AcDbEntity
  8
0
100
AcDbSpline
 62
7
  6
CONTINUOUS
 70
0
 71
3
 72
18
 73
14
 74
0
 42
0.0000001
 43
0.0000001
 44
0.0000000001
 40
0.0
 40
0.0
 40
0.0
 40
0.0
 40
0.1324344427
 40
0.2726605264
 40
0.4153520454
 40
0.5548682947
 40
0.6859649265
 40
0.7470767891
 40
0.804695595
 40
0.8586436724
 40
0.9089471134
 40
0.9558796179
 40
1.0
 40
1.0
 40
1.0
 40
1.0
 10
14.6815436276
 20
7.4821880108
 30
0.0
 10
14.7202952654
 20
7.4670086456
 30
0.0
 10
14.8030468347
 20
7.4430664928
 30
0.0
 10
14.9328621345
 20
7.4259520009
 30
0.0
 10
15.0660572043
 20
7.4271272107
 30
0.0
 10
15.1949148951
 20
7.4465382213
 30
0.0
 10
15.2949609568
 20
7.4777167256
 30
0.0
 10
15.3660670054
 20
7.5112593894
 30
0.0
 10
15.4126308988
 20
7.5393350276
 30
0.0
 10
15.4529868219
 20
7.5705117528
 30
0.0
 10
15.4865387141
 20
7.6043797968
 30
0.0
 10
15.512755568
 20
7.6404698238
 30
0.0
 10
15.5253595092
 20
7.66637751
 30
0.0
 10
15.5301483324
 20
7.6793894291
 30
0.0
  0
SPLINE
  5
53F
100
AcDbEntity
  8
02___PRT_ALL_AXES
100
AcDbSpline
 62
7
  6
CONTINUOUS
 70
0
 71
3
 72
9
 73
5
 74
0
 42
0.0000001
 43
0.0000001
 44
0.0000000001
 40
0.0
 40
0.0
 40
0.0
 40
0.0
 40
0.2460327877
 40
1.0
 40
1.0
 40
1.0
 40
1.0
 10
14.7680136219
 20
7.4945692855
 30
0.0
 10
14.7768130187
 20
7.4926058797
 30
0.0
 10
14.8127008245
 20
7.4851828189
 30
0.0
 10
14.8490334004
 20
7.4799341988
 30
0.0
 10
14.876520931
 20
7.4771432418
 30
0.0
  0
SPLINE
  5
540
100
AcDbEntity
  8
02___PRT_ALL_AXES
100
AcDbSpline
 62
7
  6
CONTINUOUS
 70
0
 71
3
 72
13
 73
9
 74
0
 42
0.0000001
 43
0.0000001
 44
0.0000000001
 40
0.0
 40
0.0
 40
0.0
 40
0.0
 40
0.285380025
 40
0.4226066166
 40
0.5539033982
 40
0.6779683921
 40
0.7939090846
 40
1.0
 40
1.0
 40
1.0
 40
1.0
 10
15.023558077
 20
7.4730872525
 30
0.0
 10
15.0784362987
 20
7.475566179
 30
0.0
 10
15.1596645691
 20
7.4857952679
 30
0.0
 10
15.2628513361
 20
7.5131023497
 30
0.0
 10
15.3338416155
 20
7.5393659652
 30
0.0
 10
15.3980390108
 20
7.571224749
 30
0.0
 10
15.4698754774
 20
7.6183429122
 30
0.0
 10
15.5149486216
 20
7.6630077749
 30
0.0
 10
15.5369148367
 20
7.6960427311
 30
0.0
  0
SPLINE
  5
541
100
AcDbEntity
  8
02___PRT_ALL_AXES
100
AcDbSpline
 62
7
  6
CONTINUOUS
 70
0
 71
3
 72
11
 73
7
 74
0
 42
0.0000001
 43
0.0000001
 44
0.0000000001
 40
0.0
 40
0.0
 40
0.0
 40
0.0
 40
0.2626521018
 40
0.514747338
 40
0.7593298195
 40
1.0
 40
1.0
 40
1.0
 40
1.0
 10
15.5369148367
 20
7.6960427311
 30
0.0
 10
15.5434611804
 20
7.705887767
 30
0.0
 10
15.5551175869
 20
7.7260040099
 30
0.0
 10
15.5680417796
 20
7.7577715301
 30
0.0
 10
15.5758654011
 20
7.7901559444
 30
0.0
 10
15.5776136475
 20
7.8120371803
 30
0.0
 10
15.5776136278
 20
7.8228705337
 30
0.0
  0
SPLINE
  5
542
100
AcDbEntity
  8
02___PRT_ALL_AXES
100
AcDbSpline
 62
7
  6
CONTINUOUS
 70
0
 71
3
 72
9
 73
5
 74
0
 42
0.0000001
 43
0.0000001
 44
0.0000000001
 40
0.0
 40
0.0
 40
0.0
 40
0.0
 40
0.2435176385
 40
1.0
 40
1.0
 40
1.0
 40
1.0
 10
14.4223034287
 20
7.9104744449
 30
0.0
 10
14.4240227205
 20
7.906643572
 30
0.0
 10
14.4315256397
 20
7.8911124968
 30
0.0
 10
14.4407336585
 20
7.8764226883
 30
0.0
 10
14.4484227823
 20
7.8658858222
 30
0.0
  0
SPLINE
  5
543
100
AcDbEntity
  8
02___PRT_ALL_AXES
100
AcDbSpline
 62
7
  6
CONTINUOUS
 70
0
 71
3
 72
17
 73
13
 74
0
 42
0.0000001
 43
0.0000001
 44
0.0000000001
 40
0.0
 40
0.0
 40
0.0
 40
0.0
 40
0.1351489637
 40
0.2739756472
 40
0.4128510695
 40
0.5481432954
 40
0.6765538143
 40
0.7373614498
 40
0.7955340875
 40
0.8509106298
 40
0.9034245107
 40
1.0
 40
1.0
 40
1.0
 40
1.0
 10
14.7680136219
 20
7.5427879322
 30
0.0
 10
14.8048980909
 20
7.5345579156
 30
0.0
 10
14.8808116307
 20
7.5226891078
 30
0.0
 10
14.996406158
 20
7.5182286968
 30
0.0
 10
15.1118259016
 20
7.526937192
 30
0.0
 10
15.222572242
 20
7.5485463565
 30
0.0
 10
15.3090087825
 20
7.5771878673
 30
0.0
 10
15.3719035987
 20
7.6061424598
 30
0.0
 10
15.4144671894
 20
7.6300316362
 30
0.0
 10
15.4528733998
 20
7.6562747257
 30
0.0
 10
15.4967488891
 20
7.6929898751
 30
0.0
 10
15.5244412898
 20
7.7248751736
 30
0.0
 10
15.5390807659
 20
7.7475681145
 30
0.0
  0
SPLINE
  5
544
100
AcDbEntity
  8
02___PRT_ALL_AXES
100
AcDbSpline
 62
7
  6
CONTINUOUS
 70
0
 71
3
 72
9
 73
5
 74
0
 42
0.0000001
 43
0.0000001
 44
0.0000000001
 40
0.0
 40
0.0
 40
0.0
 40
0.0
 40
0.5110105519
 40
1.0
 40
1.0
 40
1.0
 40
1.0
 10
15.5390807659
 20
7.7475681145
 30
0.0
 10
15.5463240504
 20
7.7587960729
 30
0.0
 10
15.5589666973
 20
7.7818123762
 30
0.0
 10
15.5677456428
 20
7.8065923408
 30
0.0
 10
15.5709364539
 20
7.8189735935
 30
0.0
  0
SPLINE
  5
545
100
AcDbEntity
  8
02___PRT_ALL_AXES
100
AcDbSpline
 62
7
  6
CONTINUOUS
 70
0
 71
3
 72
9
 73
5
 74
0
 42
0.0000001
 43
0.0000001
 44
0.0000000001
 40
0.0
 40
0.0
 40
0.0
 40
0.0
 40
0.2525562221
 40
1.0
 40
1.0
 40
1.0
 40
1.0
 10
15.5709364539
 20
7.8189735935
 30
0.0
 10
15.5720419607
 20
7.8232632733
 30
0.0
 10
15.5759035937
 20
7.8403765935
 30
0.0
 10
15.5776136517
 20
7.8579789999
 30
0.0
 10
15.5776136278
 20
7.8710891804
 30
0.0
  0
SPLINE
  5
546
100
AcDbEntity
  8
02___PRT_ALL_AXES
100
AcDbSpline
 62
7
  6
CONTINUOUS
 70
0
 71
3
 72
9
 73
5
 74
0
 42
0.0000001
 43
0.0000001
 44
0.0000000001
 40
0.0
 40
0.0
 40
0.0
 40
0.0
 40
0.4835649726
 40
1.0
 40
1.0
 40
1.0
 40
1.0
 10
14.4062919486
 20
7.9167610268
 30
0.0
 10
14.408770441
 20
7.899449642
 30
0.0
 10
14.4189422895
 20
7.8642469428
 30
0.0
 10
14.4374134254
 20
7.8327539557
 30
0.0
 10
14.4484227823
 20
7.8176671755
 30
0.0
  0
SPLINE
  5
547
100
AcDbEntity
  8
02___PRT_ALL_AXES
100
AcDbSpline
 62
7
  6
CONTINUOUS
 70
0
 71
3
 72
11
 73
7
 74
0
 42
0.0000001
 43
0.0000001
 44
0.0000000001
 40
0.0
 40
0.0
 40
0.0
 40
0.0
 40
0.2475845506
 40
0.5018756079
 40
0.7552015582
 40
1.0
 40
1.0
 40
1.0
 40
1.0
 10
14.7680136219
 20
7.5910065789
 30
0.0
 10
14.8076469678
 20
7.5821632064
 30
0.0
 10
14.8893053946
 20
7.5697904931
 30
0.0
 10
15.0134252388
 20
7.5665699617
 30
0.0
 10
15.1365621709
 20
7.5784478425
 30
0.0
 10
15.2165142795
 20
7.5966375679
 30
0.0
 10
15.254913463
 20
7.6083681171
 30
0.0
  0
SPLINE
  5
548
100
AcDbEntity
  8
02___PRT_ALL_AXES
100
AcDbSpline
 62
7
  6
CONTINUOUS
 70
0
 71
3
 72
14
 73
10
 74
0
 42
0.0000001
 43
0.0000001
 44
0.0000000001
 40
0.0
 40
0.0
 40
0.0
 40
0.0
 40
0.294184103
 40
0.4307464524
 40
0.5593959974
 40
0.680007336
 40
0.792934593
 40
0.8990919478
 40
1.0
 40
1.0
 40
1.0
 40
1.0
 10
15.254913463
 20
7.6083681171
 30
0.0
 10
15.2947934569
 20
7.6205510384
 30
0.0
 10
15.3520723771
 20
7.6428651587
 30
0.0
 10
15.4211148803
 20
7.682077379
 30
0.0
 10
15.4656214625
 20
7.7140674414
 30
0.0
 10
15.5034893219
 20
7.748940956
 30
0.0
 10
15.5341779289
 20
7.7862772709
 30
0.0
 10
15.5572016458
 20
7.8255904484
 30
0.0
 10
15.5673669383
 20
7.8533415063
 30
0.0
 10
15.5709364539
 20
7.8671922402
 30
0.0
  0
SPLINE
  5
549
100
AcDbEntity
  8
02___PRT_ALL_AXES
100
AcDbSpline
 62
7
  6
CONTINUOUS
 70
0
 71
3
 72
9
 73
5
 74
0
 42
0.0000001
 43
0.0000001
 44
0.0000000001
 40
0.0
 40
0.0
 40
0.0
 40
0.0
 40
0.2525485833
 40
1.0
 40
1.0
 40
1.0
 40
1.0
 10
15.5709364539
 20
7.8671922402
 30
0.0
 10
15.5720350969
 20
7.8714552867
 30
0.0
 10
15.5758760218
 20
7.8884621087
 30
0.0
 10
15.5775926302
 20
7.9059522566
 30
0.0
 10
15.5776133684
 20
7.9189815507
 30
0.0
  0
SPLINE
  5
54A
100
AcDbEntity
  8
02___PRT_ALL_AXES
100
AcDbSpline
 62
7
  6
CONTINUOUS
 70
0
 71
3
 72
10
 73
6
 74
0
 42
0.0000001
 43
0.0000001
 44
0.0000000001
 40
0.0
 40
0.0
 40
0.0
 40
0.0
 40
0.2391944707
 40
0.4830928873
 40
1.0
 40
1.0
 40
1.0
 40
1.0
 10
14.4043879545
 20
7.8951985038
 30
0.0
 10
14.4043879751
 20
7.8844202983
 30
0.0
 10
14.4062933718
 20
7.8626020199
 30
0.0
 10
14.4178090113
 20
7.8188691125
 30
0.0
 10
14.4346927665
 20
7.7882635906
 30
0.0
 10
14.4484227823
 20
7.7694485288
 30
0.0
  0
SPLINE
  5
54B
100
AcDbEntity
  8
0
100
AcDbSpline
 62
7
  6
CONTINUOUS
 70
0
 71
3
 72
11
 73
7
 74
0
 42
0.0000001
 43
0.0000001
 44
0.0000000001
 40
0.0
 40
0.0
 40
0.0
 40
0.0
 40
0.2995093036
 40
0.563075569
 40
0.7928330133
 40
1.0
 40
1.0
 40
1.0
 40
1.0
 10
14.6815436276
 20
7.4821880108
 30
0.0
 10
14.6815436276
 20
7.4802039963
 30
0.0
 10
14.6818126555
 20
7.4764634669
 30
0.0
 10
14.6831838323
 20
7.4713514912
 30
0.0
 10
14.6854994424
 20
7.467257572
 30
0.0
 10
14.6877328438
 20
7.4653012035
 30
0.0
 10
14.6889214023
 20
7.4646152091
 30
0.0
  0
SPLINE
  5
54C
100
AcDbEntity
  8
0
100
AcDbSpline
 62
7
  6
CONTINUOUS
 70
0
 71
3
 72
9
 73
5
 74
0
 42
0.0000001
 43
0.0000001
 44
0.0000000001
 40
0.0
 40
0.0
 40
0.0
 40
0.0
 40
0.5358124988
 40
1.0
 40
1.0
 40
1.0
 40
1.0
 10
14.5348927766
 20
7.5668550037
 30
0.0
 10
14.5348927766
 20
7.5635512744
 30
0.0
 10
14.5357551824
 20
7.5572906282
 30
0.0
 10
14.5393071239
 20
7.5518932885
 30
0.0
 10
14.5414851454
 20
7.5500364502
 30
0.0
  0
SPLINE
  5
54D
100
AcDbEntity
  8
02___PRT_ALL_AXES
100
AcDbSpline
 62
7
  6
CONTINUOUS
 70
0
 71
3
 72
10
 73
6
 74
0
 42
0.0000001
 43
0.0000001
 44
0.0000000001
 40
0.0
 40
0.0
 40
0.0
 40
0.0
 40
0.2424399817
 40
0.4881003537
 40
1.0
 40
1.0
 40
1.0
 40
1.0
 10
14.4043879545
 20
7.8469798571
 30
0.0
 10
14.4043879714
 20
7.8381436495
 30
0.0
 10
14.4056595975
 20
7.8203252342
 30
0.0
 10
14.4133325766
 20
7.784606226
 30
0.0
 10
14.4246989759
 20
7.7590076632
 30
0.0
 10
14.4341536376
 20
7.742923493
 30
0.0
  0
SPLINE
  5
54E
100
AcDbEntity
  8
02___PRT_ALL_AXES
100
AcDbSpline
 62
7
  6
CONTINUOUS
 70
0
 71
3
 72
10
 73
6
 74
0
 42
0.0000001
 43
0.0000001
 44
0.0000000001
 40
0.0
 40
0.0
 40
0.0
 40
0.0
 40
0.2391944707
 40
0.4830928873
 40
1.0
 40
1.0
 40
1.0
 40
1.0
 10
14.4043879545
 20
7.7987612104
 30
0.0
 10
14.4043879751
 20
7.7879830049
 30
0.0
 10
14.4062933718
 20
7.7661647266
 30
0.0
 10
14.4178090113
 20
7.7224318191
 30
0.0
 10
14.4346927665
 20
7.6918262973
 30
0.0
 10
14.4484227823
 20
7.6730112354
 30
0.0
  0
SPLINE
  5
54F
100
AcDbEntity
  8
0
100
AcDbSpline
 62
7
  6
CONTINUOUS
 70
0
 71
3
 72
9
 73
5
 74
0
 42
0.0000001
 43
0.0000001
 44
0.0000000001
 40
0.0
 40
0.0
 40
0.0
 40
0.0
 40
0.4843427203
 40
1.0
 40
1.0
 40
1.0
 40
1.0
 10
14.2950324474
 20
7.9866199959
 30
0.0
 10
14.3311769324
 20
7.9657524398
 30
0.0
 10
14.4087366394
 20
7.9276470519
 30
0.0
 10
14.4900190101
 20
7.8985187461
 30
0.0
 10
14.5325330767
 20
7.8855977575
 30
0.0
  0
SPLINE
  5
550
100
AcDbEntity
  8
0
100
AcDbSpline
 62
7
  6
CONTINUOUS
 70
0
 71
3
 72
9
 73
5
 74
0
 42
0.0000001
 43
0.0000001
 44
0.0000000001
 40
0.0
 40
0.0
 40
0.0
 40
0.0
 40
0.2458313185
 40
1.0
 40
1.0
 40
1.0
 40
1.0
 10
14.5325330767
 20
7.8855977575
 30
0.0
 10
14.5444011737
 20
7.8819907737
 30
0.0
 10
14.5928794197
 20
7.867984465
 30
0.0
 10
14.6421077309
 20
7.8565982228
 30
0.0
 10
14.6794743527
 20
7.8493995602
 30
0.0
  0
SPLINE
  5
551
100
AcDbEntity
  8
0
100
AcDbSpline
 62
7
  6
CONTINUOUS
 70
0
 71
3
 72
20
 73
16
 74
0
 42
0.0000001
 43
0.0000001
 44
0.0000000001
 40
0.0
 40
0.0
 40
0.0
 40
0.0
 40
0.1444617722
 40
0.2910781893
 40
0.4350764631
 40
0.5047045218
 40
0.5720394071
 40
0.6366444711
 40
0.6981684022
 40
0.7563678194
 40
0.8111337481
 40
0.8625208397
 40
0.9107777749
 40
0.9563725988
 40
1.0
 40
1.0
 40
1.0
 40
1.0
 10
14.6794743527
 20
7.8493995602
 30
0.0
 10
14.7497733074
 20
7.8358564989
 30
0.0
 10
14.893465507
 20
7.8183759508
 30
0.0
 10
15.1095933918
 20
7.8197117536
 30
0.0
 10
15.2871067807
 20
7.8435913117
 30
0.0
 10
15.42252225
 20
7.8764188365
 30
0.0
 10
15.5177137833
 20
7.9070252073
 30
0.0
 10
15.6064915785
 20
7.9435119731
 30
0.0
 10
15.6877863193
 20
7.9854483173
 30
0.0
 10
15.7606150771
 20
8.0323423654
 30
0.0
 10
15.824096927
 20
8.0836555318
 30
0.0
 10
15.8774518094
 20
8.1388075022
 30
0.0
 10
15.9199968474
 20
8.1971956311
 30
0.0
 10
15.9511295863
 20
8.2581311887
 30
0.0
 10
15.9641493145
 20
8.3006913089
 30
0.0
 10
15.9684773141
 20
8.3218743297
 30
0.0
  0
SPLINE
  5
552
100
AcDbEntity
  8
02___PRT_ALL_AXES
100
AcDbSpline
 62
7
  6
CONTINUOUS
 70
0
 71
3
 72
14
 73
10
 74
0
 42
0.0000001
 43
0.0000001
 44
0.0000000001
 40
0.0
 40
0.0
 40
0.0
 40
0.0
 40
0.1080469107
 40
0.2181305961
 40
0.3321044521
 40
0.4515001684
 40
0.577461745
 40
0.7107237818
 40
1.0
 40
1.0
 40
1.0
 40
1.0
 10
14.0067490891
 20
8.7741982807
 30
0.0
 10
14.0067486944
 20
8.7555644726
 30
0.0
 10
14.0099826253
 20
8.7178697997
 30
0.0
 10
14.0244244352
 20
8.6621932721
 30
0.0
 10
14.0482648833
 20
8.6077159502
 30
0.0
 10
14.0812003378
 20
8.5549910124
 30
0.0
 10
14.1228661014
 20
8.5044897623
 30
0.0
 10
14.1913203072
 20
8.4389709994
 30
0.0
 10
14.2518273406
 20
8.3973130851
 30
0.0
 10
14.2950324474
 20
8.3723691694
 30
0.0
  0
SPLINE
  5
553
100
AcDbEntity
  8
0
100
AcDbSpline
 62
7
  6
CONTINUOUS
 70
0
 71
3
 72
9
 73
5
 74
0
 42
0.0000001
 43
0.0000001
 44
0.0000000001
 40
0.0
 40
0.0
 40
0.0
 40
0.0
 40
0.4781881571
 40
1.0
 40
1.0
 40
1.0
 40
1.0
 10
14.4621087664
 20
7.6559410083
 30
0.0
 10
14.4704551889
 20
7.639513504
 30
0.0
 10
14.4921084557
 20
7.6072193913
 30
0.0
 10
14.5195793638
 20
7.5798856809
 30
0.0
 10
14.5348927766
 20
7.5668550037
 30
0.0
  0
SPLINE
  5
554
100
AcDbEntity
  8
02___PRT_ALL_AXES
100
AcDbSpline
 62
7
  6
CONTINUOUS
 70
0
 71
3
 72
23
 73
19
 74
0
 42
0.0000001
 43
0.0000001
 44
0.0000000001
 40
0.0
 40
0.0
 40
0.0
 40
0.0
 40
0.0427726714
 40
0.0871516551
 40
0.1344647812
 40
0.185607891
 40
0.2410275269
 40
0.3007781911
 40
0.3645992215
 40
0.4319863339
 40
0.5022525161
 40
0.5745792383
 40
0.6480609193
 40
0.7217453759
 40
0.7946724243
 40
0.8659119429
 40
0.9346041775
 40
1.0
 40
1.0
 40
1.0
 40
1.0
 10
15.9752524932
 20
8.7741702822
 30
0.0
 10
15.9752519287
 20
8.7475220589
 30
0.0
 10
15.9684997816
 20
8.6930133467
 30
0.0
 10
15.9387331694
 20
8.6139861197
 30
0.0
 10
15.8902833767
 20
8.5386510808
 30
0.0
 10
15.8244070748
 20
8.4683944382
 30
0.0
 10
15.7425031575
 20
8.4043608157
 30
0.0
 10
15.6461668567
 20
8.3476455269
 30
0.0
 10
15.5372326159
 20
8.2992561602
 30
0.0
 10
15.417775554
 20
8.2600841503
 30
0.0
 10
15.290082959
 20
8.2308671947
 30
0.0
 10
15.1566114942
 20
8.2121633816
 30
0.0
 10
15.0199375868
 20
8.2043328159
 30
0.0
 10
14.8827035699
 20
8.2075272465
 30
0.0
 10
14.7475654945
 20
8.2216840993
 30
0.0
 10
14.6171282429
 20
8.2465321112
 30
0.0
 10
14.4939258237
 20
8.2815875792
 30
0.0
 10
14.415999975
 20
8.3121792124
 30
0.0
 10
14.3789634495
 20
8.3291580022
 30
0.0
  0
SPLINE
  5
555
100
AcDbEntity
  8
02___PRT_ALL_AXES
100
AcDbSpline
 62
7
  6
CONTINUOUS
 70
0
 71
3
 72
9
 73
5
 74
0
 42
0.0000001
 43
0.0000001
 44
0.0000000001
 40
0.0
 40
0.0
 40
0.0
 40
0.0
 40
0.2550811906
 40
1.0
 40
1.0
 40
1.0
 40
1.0
 10
14.3789634495
 20
8.3291580022
 30
0.0
 10
14.3716654831
 20
8.3325036356
 30
0.0
 10
14.343201616
 20
8.3459355264
 30
0.0
 10
14.3153367046
 20
8.3606467662
 30
0.0
 10
14.2950324474
 20
8.3723691694
 30
0.0
  0
SPLINE
  5
556
100
AcDbEntity
  8
02___PRT_ALL_AXES
100
AcDbSpline
 62
7
  6
CONTINUOUS
 70
0
 71
3
 72
11
 73
7
 74
0
 42
0.0000001
 43
0.0000001
 44
0.0000000001
 40
0.0
 40
0.0
 40
0.0
 40
0.0
 40
0.2366189888
 40
0.4900721491
 40
0.7487198432
 40
1.0
 40
1.0
 40
1.0
 40
1.0
 10
15.3322485077
 20
7.5827462828
 30
0.0
 10
15.2911241768
 20
7.5632974136
 30
0.0
 10
15.2014509603
 20
7.5322548323
 30
0.0
 10
15.0588446553
 20
7.5088251926
 30
0.0
 10
14.9115288149
 20
7.5076769894
 30
0.0
 10
14.8140432553
 20
7.5221931385
 30
0.0
 10
14.7670825509
 20
7.5335315458
 30
0.0
  0
SPLINE
  5
557
100
AcDbEntity
  8
02___PRT_ALL_AXES
100
AcDbSpline
 62
7
  6
CONTINUOUS
 70
0
 71
3
 72
9
 73
5
 74
0
 42
0.0000001
 43
0.0000001
 44
0.0000000001
 40
0.0
 40
0.0
 40
0.0
 40
0.0
 40
0.2557616595
 40
1.0
 40
1.0
 40
1.0
 40
1.0
 10
14.7670825509
 20
7.5335315458
 30
0.0
 10
14.7596690062
 20
7.5353215059
 30
0.0
 10
14.7307856333
 20
7.5427349302
 30
0.0
 10
14.7023238959
 20
7.5518224723
 30
0.0
 10
14.6815436276
 20
7.5596126544
 30
0.0
  0
SPLINE
  5
558
100
AcDbEntity
  8
02___PRT_ALL_AXES
100
AcDbSpline
 62
7
  6
CONTINUOUS
 70
0
 71
3
 72
11
 73
7
 74
0
 42
0.0000001
 43
0.0000001
 44
0.0000000001
 40
0.0
 40
0.0
 40
0.0
 40
0.0
 40
0.243884395
 40
0.4977024652
 40
0.7527216966
 40
1.0
 40
1.0
 40
1.0
 40
1.0
 10
15.2572129858
 20
7.6009638531
 30
0.0
 10
15.2189588974
 20
7.5881725845
 30
0.0
 10
15.1387017117
 20
7.5683470144
 30
0.0
 10
15.0145360246
 20
7.5553663617
 30
0.0
 10
14.889183374
 20
7.5587659319
 30
0.0
 10
14.8068626848
 20
7.5721467763
 30
0.0
 10
14.7671074418
 20
7.5817441809
 30
0.0
  0
SPLINE
  5
559
100
AcDbEntity
  8
02___PRT_ALL_AXES
100
AcDbSpline
 62
7
  6
CONTINUOUS
 70
0
 71
3
 72
9
 73
5
 74
0
 42
0.0000001
 43
0.0000001
 44
0.0000000001
 40
0.0
 40
0.0
 40
0.0
 40
0.0
 40
0.2557686816
 40
1.0
 40
1.0
 40
1.0
 40
1.0
 10
14.7671074418
 20
7.5817441809
 30
0.0
 10
14.7596915188
 20
7.5835344759
 30
0.0
 10
14.7307997236
 20
7.5909493835
 30
0.0
 10
14.7023296424
 20
7.6000389648
 30
0.0
 10
14.6815436276
 20
7.6078313011
 30
0.0
  0
LINE
  5
55A
100
AcDbEntity
  8
02___PRT_ALL_AXES
100
AcDbLine
 62
7
  6
CONTINUOUS
 10
15.2988578113
 20
7.6645486364
 11
15.2981826807
 21
7.6642752773
  0
SPLINE
  5
55B
100
AcDbEntity
  8
02___PRT_ALL_AXES
100
AcDbSpline
 62
7
  6
CONTINUOUS
 70
0
 71
3
 72
11
 73
7
 74
0
 42
0.0000001
 43
0.0000001
 44
0.0000000001
 40
0.0
 40
0.0
 40
0.0
 40
0.0
 40
0.2402219003
 40
0.493900843
 40
0.7507571229
 40
1.0
 40
1.0
 40
1.0
 40
1.0
 10
15.2981826807
 20
7.6642752773
 30
0.0
 10
15.2581161773
 20
7.6480775275
 30
0.0
 10
15.1724899527
 20
7.622529571
 30
0.0
 10
15.038205328
 20
7.6042484635
 30
0.0
 10
14.9010749773
 20
7.6054078103
 30
0.0
 10
14.810684846
 20
7.6194421373
 30
0.0
 10
14.7670974225
 20
7.6299652455
 30
0.0
  0
SPLINE
  5
55C
100
AcDbEntity
  8
02___PRT_ALL_AXES
100
AcDbSpline
 62
7
  6
CONTINUOUS
 70
0
 71
3
 72
9
 73
5
 74
0
 42
0.0000001
 43
0.0000001
 44
0.0000000001
 40
0.0
 40
0.0
 40
0.0
 40
0.0
 40
0.2557650226
 40
1.0
 40
1.0
 40
1.0
 40
1.0
 10
14.7670974225
 20
7.6299652455
 30
0.0
 10
14.7596824811
 20
7.6317554002
 30
0.0
 10
14.7307940764
 20
7.6391697125
 30
0.0
 10
14.7023273526
 20
7.6482584698
 30
0.0
 10
14.6815436276
 20
7.6560499478
 30
0.0
  0
SPLINE
  5
55D
100
AcDbEntity
  8
02___PRT_ALL_AXES
100
AcDbSpline
 62
7
  6
CONTINUOUS
 70
0
 71
3
 72
9
 73
5
 74
0
 42
0.0000001
 43
0.0000001
 44
0.0000000001
 40
0.0
 40
0.0
 40
0.0
 40
0.0
 40
0.2454799731
 40
1.0
 40
1.0
 40
1.0
 40
1.0
 10
14.6815436276
 20
7.7042685944
 30
0.0
 10
14.6888547439
 20
7.6992720074
 30
0.0
 10
14.7183833866
 20
7.6785458737
 30
0.0
 10
14.7469364049
 20
7.6564471615
 30
0.0
 10
14.7680136219
 20
7.6392252256
 30
0.0
  0
SPLINE
  5
55E
100
AcDbEntity
  8
02___PRT_ALL_AXES
100
AcDbSpline
 62
7
  6
CONTINUOUS
 70
0
 71
3
 72
9
 73
5
 74
0
 42
0.0000001
 43
0.0000001
 44
0.0000000001
 40
0.0
 40
0.0
 40
0.0
 40
0.0
 40
0.4832350937
 40
1.0
 40
1.0
 40
1.0
 40
1.0
 10
15.3320624401
 20
7.7273142883
 30
0.0
 10
15.2936586445
 20
7.7091676216
 30
0.0
 10
15.2102809157
 20
7.6796753283
 30
0.0
 10
15.1234200119
 20
7.664004704
 30
0.0
 10
15.0782536249
 20
7.6591877667
 30
0.0
  0
SPLINE
  5
55F
100
AcDbEntity
  8
02___PRT_ALL_AXES
100
AcDbSpline
 62
7
  6
CONTINUOUS
 70
0
 71
3
 72
9
 73
5
 74
0
 42
0.0000001
 43
0.0000001
 44
0.0000000001
 40
0.0
 40
0.0
 40
0.0
 40
0.0
 40
0.2537675361
 40
1.0
 40
1.0
 40
1.0
 40
1.0
 10
14.8620489582
 20
7.6609750213
 30
0.0
 10
14.8539471445
 20
7.6619844368
 30
0.0
 10
14.8220769939
 20
7.666394583
 30
0.0
 10
14.7904432624
 20
7.6725478558
 30
0.0
 10
14.7671052075
 20
7.6781820146
 30
0.0
  0
SPLINE
  5
560
100
AcDbEntity
  8
02___PRT_ALL_AXES
100
AcDbSpline
 62
7
  6
CONTINUOUS
 70
0
 71
3
 72
9
 73
5
 74
0
 42
0.0000001
 43
0.0000001
 44
0.0000000001
 40
0.0
 40
0.0
 40
0.0
 40
0.0
 40
0.2557681173
 40
1.0
 40
1.0
 40
1.0
 40
1.0
 10
14.7671052075
 20
7.6781820146
 30
0.0
 10
14.7596894959
 20
7.6799722794
 30
0.0
 10
14.7307984564
 20
7.6873870523
 30
0.0
 10
14.7023291247
 20
7.6964764522
 30
0.0
 10
14.6815436276
 20
7.7042685944
 30
0.0
  0
SPLINE
  5
561
100
AcDbEntity
  8
02___PRT_ALL_AXES
100
AcDbSpline
 62
7
  6
CONTINUOUS
 70
0
 71
3
 72
9
 73
5
 74
0
 42
0.0000001
 43
0.0000001
 44
0.0000000001
 40
0.0
 40
0.0
 40
0.0
 40
0.0
 40
0.2454799731
 40
1.0
 40
1.0
 40
1.0
 40
1.0
 10
14.6815436276
 20
7.7524872411
 30
0.0
 10
14.6888547439
 20
7.7474906541
 30
0.0
 10
14.7183833866
 20
7.7267645204
 30
0.0
 10
14.7469364049
 20
7.7046658082
 30
0.0
 10
14.7680136219
 20
7.6874438722
 30
0.0
  0
LINE
  5
562
100
AcDbEntity
  8
02___PRT_ALL_AXES
100
AcDbLine
 62
7
  6
CONTINUOUS
 10
15.2986609391
 20
7.7609061204
 11
15.2983373793
 21
7.7607751245
  0
SPLINE
  5
563
100
AcDbEntity
  8
02___PRT_ALL_AXES
100
AcDbSpline
 62
7
  6
CONTINUOUS
 70
0
 71
3
 72
11
 73
7
 74
0
 42
0.0000001
 43
0.0000001
 44
0.0000000001
 40
0.0
 40
0.0
 40
0.0
 40
0.0
 40
0.2402063868
 40
0.4938824356
 40
0.7507435981
 40
1.0
 40
1.0
 40
1.0
 40
1.0
 10
15.2983373793
 20
7.7607751245
 30
0.0
 10
15.258265621
 20
7.744563769
 30
0.0
 10
15.1726216607
 20
7.718992824
 30
0.0
 10
15.0383017699
 20
7.7006897727
 30
0.0
 10
14.901127766
 20
7.7018388314
 30
0.0
 10
14.8107068626
 20
7.7158744996
 30
0.0
 10
14.7671041121
 20
7.7264009254
 30
0.0
  0
SPLINE
  5
564
100
AcDbEntity
  8
02___PRT_ALL_AXES
100
AcDbSpline
 62
7
  6
CONTINUOUS
 70
0
 71
3
 72
9
 73
5
 74
0
 42
0.0000001
 43
0.0000001
 44
0.0000000001
 40
0.0
 40
0.0
 40
0.0
 40
0.0
 40
0.2557678039
 40
1.0
 40
1.0
 40
1.0
 40
1.0
 10
14.7671041121
 20
7.7264009254
 30
0.0
 10
14.7596885054
 20
7.7281911756
 30
0.0
 10
14.7307978367
 20
7.7356058844
 30
0.0
 10
14.7023288719
 20
7.7446951936
 30
0.0
 10
14.6815436276
 20
7.7524872411
 30
0.0
  0
SPLINE
  5
565
100
AcDbEntity
  8
02___PRT_ALL_AXES
100
AcDbSpline
 62
7
  6
CONTINUOUS
 70
0
 71
3
 72
9
 73
5
 74
0
 42
0.0000001
 43
0.0000001
 44
0.0000000001
 40
0.0
 40
0.0
 40
0.0
 40
0.0
 40
0.2454807148
 40
1.0
 40
1.0
 40
1.0
 40
1.0
 10
14.6815436276
 20
7.8007058878
 30
0.0
 10
14.6888547661
 20
7.7957092856
 30
0.0
 10
14.7183834664
 20
7.7749832326
 30
0.0
 10
14.7469364253
 20
7.7528844382
 30
0.0
 10
14.7680136219
 20
7.7356625189
 30
0.0
  0
SPLINE
  5
566
100
AcDbEntity
  8
02___PRT_ALL_AXES
100
AcDbSpline
 62
7
  6
CONTINUOUS
 70
0
 71
3
 72
11
 73
7
 74
0
 42
0.0000001
 43
0.0000001
 44
0.0000000001
 40
0.0
 40
0.0
 40
0.0
 40
0.0
 40
0.2366817812
 40
0.4901387599
 40
0.7487543679
 40
1.0
 40
1.0
 40
1.0
 40
1.0
 10
15.3316968265
 20
7.8235789996
 30
0.0
 10
15.290585535
 20
7.8041859326
 30
0.0
 10
15.2009738536
 20
7.773238441
 30
0.0
 10
15.0585011295
 20
7.7498981508
 30
0.0
 10
14.911352773
 20
7.748791125
 30
0.0
 10
14.813984791
 20
7.7633003825
 30
0.0
 10
14.7670797814
 20
7.7746254624
 30
0.0
  0
SPLINE
  5
567
100
AcDbEntity
  8
02___PRT_ALL_AXES
100
AcDbSpline
 62
7
  6
CONTINUOUS
 70
0
 71
3
 72
9
 73
5
 74
0
 42
0.0000001
 43
0.0000001
 44
0.0000000001
 40
0.0
 40
0.0
 40
0.0
 40
0.0
 40
0.2557631387
 40
1.0
 40
1.0
 40
1.0
 40
1.0
 10
14.7670797814
 20
7.7746254624
 30
0.0
 10
14.7596664344
 20
7.7764153937
 30
0.0
 10
14.7307839932
 20
7.7838286298
 30
0.0
 10
14.7023231927
 20
7.7929159694
 30
0.0
 10
14.6815436276
 20
7.8007058878
 30
0.0
  0
SPLINE
  5
568
100
AcDbEntity
  8
02___PRT_ALL_AXES
100
AcDbSpline
 62
7
  6
CONTINUOUS
 70
0
 71
3
 72
9
 73
5
 74
0
 42
0.0000001
 43
0.0000001
 44
0.0000000001
 40
0.0
 40
0.0
 40
0.0
 40
0.0
 40
0.2471461587
 40
1.0
 40
1.0
 40
1.0
 40
1.0
 10
14.7095574258
 20
7.8291331424
 30
0.0
 10
14.714478499
 20
7.825544624
 30
0.0
 10
14.7342780667
 20
7.8108713832
 30
0.0
 10
14.7536467913
 20
7.795620127
 30
0.0
 10
14.7680136219
 20
7.7838811656
 30
0.0
  0
SPLINE
  5
569
100
AcDbEntity
  8
02___PRT_ALL_AXES
100
AcDbSpline
 62
7
  6
CONTINUOUS
 70
0
 71
3
 72
9
 73
5
 74
0
 42
0.0000001
 43
0.0000001
 44
0.0000000001
 40
0.0
 40
0.0
 40
0.0
 40
0.0
 40
0.5030337124
 40
1.0
 40
1.0
 40
1.0
 40
1.0
 10
15.116598107
 20
7.8087476563
 30
0.0
 10
15.0655960496
 20
7.8011267864
 30
0.0
 10
14.9627883595
 20
7.7945263029
 30
0.0
 10
14.8602135272
 20
7.8043595602
 30
0.0
 10
14.8101247804
 20
7.8136676732
 30
0.0
  0
SPLINE
  5
56A
100
AcDbEntity
  8
02___PRT_ALL_AXES
100
AcDbSpline
 62
7
  6
CONTINUOUS
 70
0
 71
3
 72
11
 73
7
 74
0
 42
0.0000001
 43
0.0000001
 44
0.0000000001
 40
0.0
 40
0.0
 40
0.0
 40
0.0
 40
0.2476894642
 40
0.5020817564
 40
0.7554025579
 40
1.0
 40
1.0
 40
1.0
 40
1.0
 10
14.7680136219
 20
7.6392252256
 30
0.0
 10
14.8079047688
 20
7.6303243301
 30
0.0
 10
14.8901021251
 20
7.6179071337
 30
0.0
 10
15.0150170421
 20
7.6148132442
 30
0.0
 10
15.1388655395
 20
7.627004723
 30
0.0
 10
15.2192214561
 20
7.6455342692
 30
0.0
 10
15.2577788372
 20
7.6574678458
 30
0.0
  0
SPLINE
  5
56B
100
AcDbEntity
  8
02___PRT_ALL_AXES
100
AcDbSpline
 62
7
  6
CONTINUOUS
 70
0
 71
3
 72
14
 73
10
 74
0
 42
0.0000001
 43
0.0000001
 44
0.0000000001
 40
0.0
 40
0.0
 40
0.0
 40
0.0
 40
0.2939535424
 40
0.4304321178
 40
0.5590435973
 40
0.679672658
 40
0.7926741401
 40
0.8989511027
 40
1.0
 40
1.0
 40
1.0
 40
1.0
 10
15.2577788372
 20
7.6574678458
 30
0.0
 10
15.2972419796
 20
7.6696817571
 30
0.0
 10
15.3539113081
 20
7.6919781047
 30
0.0
 10
15.4222122866
 20
7.7310167457
 30
0.0
 10
15.4662543536
 20
7.7628217703
 30
0.0
 10
15.5037488869
 20
7.7974588123
 30
0.0
 10
15.5341688091
 20
7.8345158286
 30
0.0
 10
15.5570402712
 20
7.8735172082
 30
0.0
 10
15.5671883333
 20
7.901040621
 30
0.0
 10
15.5707732101
 20
7.9147813397
 30
0.0
  0
SPLINE
  5
56C
100
AcDbEntity
  8
02___PRT_ALL_AXES
100
AcDbSpline
 62
7
  6
CONTINUOUS
 70
0
 71
3
 72
16
 73
12
 74
0
 42
0.0000001
 43
0.0000001
 44
0.0000000001
 40
0.0
 40
0.0
 40
0.0
 40
0.0
 40
0.1360251155
 40
0.2757507554
 40
0.4153585375
 40
0.551043444
 40
0.67938011
 40
0.7976803933
 40
0.8525993968
 40
0.9045762205
 40
1.0
 40
1.0
 40
1.0
 40
1.0
 10
14.7680136219
 20
7.6874438722
 30
0.0
 10
14.8057282394
 20
7.6790286249
 30
0.0
 10
14.8833766927
 20
7.6670020097
 30
0.0
 10
15.0015529925
 20
7.6628942952
 30
0.0
 10
15.119333675
 20
7.6725272831
 30
0.0
 10
15.2319621399
 20
7.6955947507
 30
0.0
 10
15.3349101948
 20
7.7312387677
 30
0.0
 10
15.4111209327
 20
7.7713202619
 30
0.0
 10
15.4630845492
 20
7.8088295807
 30
0.0
 10
15.5060264394
 20
7.8470953076
 30
0.0
 10
15.5325614576
 20
7.8802734479
 30
0.0
 10
15.5461229189
 20
7.9037453767
 30
0.0
  0
SPLINE
  5
56D
100
AcDbEntity
  8
02___PRT_ALL_AXES
100
AcDbSpline
 62
7
  6
CONTINUOUS
 70
0
 71
3
 72
15
 73
11
 74
0
 42
0.0000001
 43
0.0000001
 44
0.0000000001
 40
0.0
 40
0.0
 40
0.0
 40
0.0
 40
0.1311863095
 40
0.2658989201
 40
0.4013469834
 40
0.5346884518
 40
0.6632464327
 40
0.7846888545
 40
0.8972514819
 40
1.0
 40
1.0
 40
1.0
 40
1.0
 10
14.7680136219
 20
7.7356625189
 30
0.0
 10
14.8008384216
 20
7.7283383347
 30
0.0
 10
14.8682707501
 20
7.7173113109
 30
0.0
 10
14.9711638611
 20
7.7114017617
 30
0.0
 10
15.0746895105
 20
7.71600461
 30
0.0
 10
15.1756344632
 20
7.7310295144
 30
0.0
 10
15.2708895825
 20
7.7560535885
 30
0.0
 10
15.3575504127
 20
7.7903794753
 30
0.0
 10
15.4329543881
 20
7.8330127766
 30
0.0
 10
15.4762243169
 20
7.8678734845
 30
0.0
 10
15.4949038661
 20
7.8864462194
 30
0.0
  0
SPLINE
  5
56E
100
AcDbEntity
  8
02___PRT_ALL_AXES
100
AcDbSpline
 62
7
  6
CONTINUOUS
 70
0
 71
3
 72
12
 73
8
 74
0
 42
0.0000001
 43
0.0000001
 44
0.0000000001
 40
0.0
 40
0.0
 40
0.0
 40
0.0
 40
0.2539521928
 40
0.5137879291
 40
0.7663299704
 40
0.8861793407
 40
1.0
 40
1.0
 40
1.0
 40
1.0
 10
14.7680136219
 20
7.7838811656
 30
0.0
 10
14.8196730592
 20
7.7723544163
 30
0.0
 10
14.9264480253
 20
7.758406139
 30
0.0
 10
15.0866877171
 20
7.7629378214
 30
0.0
 10
15.216847102
 20
7.7877106304
 30
0.0
 10
15.3129770653
 20
7.8201728441
 30
0.0
 10
15.3574347727
 20
7.8403333232
 30
0.0
 10
15.3784366396
 20
7.8513651709
 30
0.0
  0
ENDSEC
  0
SECTION
  2
OBJECTS
  0
DICTIONARY
  5
C
100
AcDbDictionary
280
0
281
1
  3
ACAD_GROUP
350
D
  3
ACAD_MLINESTYLE
350
17
  3
ACAD_LAYOUT
350
1A
  3
ACAD_PLOTSETTINGS
350
19
  3
ACAD_PLOTSTYLENAME
350
E
  3
ACAD_TABLESTYLE
350
       56F
  0
DICTIONARY
  5
D
102
{ACAD_REACTORS
330
C
102
}
100
AcDbDictionary
280
0
281
1
  0
ACDBDICTIONARYWDFLT
  5
E
102
{ACAD_REACTORS
330
C
102
}
100
AcDbDictionary
281
1
  3
Normal
350
F
100
AcDbDictionaryWithDefault
340
F
  0
DICTIONARY
  5
17
102
{ACAD_REACTORS
330
C
102
}
100
AcDbDictionary
280
0
281
1
  3
Standard
350
18
  0
DICTIONARY
  5
56F
330
C
100
AcDbDictionary
281
1
  3
Standard
350
       572
  3
Standard1
350
       573
  0
DICTIONARY
  5
19
102
{ACAD_REACTORS
330
C
102
}
100
AcDbDictionary
281
1
  0
DICTIONARY
  5
1A
102
{ACAD_REACTORS
330
C
102
}
100
AcDbDictionary
281
1
  3
Model
350
570
  3
Layout1
350
571
  0
ACDBPLACEHOLDER
  5
F
102
{ACAD_REACTORS
330
E
102
}
  0
MLINESTYLE
  5
18
102
{ACAD_REACTORS
330
17
102
}
100
AcDbMlineStyle
  2
STANDARD
 70
0
  3

 62
256
 51
90.0
 52
90.0
 71
2
 49
0.5
 62
256
  6
BYLAYER
 49
-0.5
 62
256
  6
BYLAYER
  0
LAYOUT
  5
570
102
{ACAD_REACTORS
330
1A
102
}
100
AcDbPlotSettings
  1

  2
none_device
  4
ANSI_B_(17.00_x_11.00_Inches)
  6

 40
0.0
 41
0.0
 42
0.0
 43
0.0
 44
431.8
 45
279.4
 46
0.0
 47
0.0
 48
0.0
 49
0.0
140
0.0
141
0.0
142
1.0
143
1.0
 70
1024
 72
0
 73
0
 74
0
  7

 75
0
147
1.0
148
0.0
149
0.0
100
AcDbLayout
  1
Model
 70
0
 71
0
 10
0.0
 20
0.0
 11
17.0
 21
11.0
 12
0.0
 22
0.0
 32
0.0
 14
0.0
 24
0.0
 34
0.0
 15
0.0
 25
0.0
 35
0.0
146
0.0
 13
0.0
 23
0.0
 33
0.0
 16
1.0
 26
0.0
 36
0.0
 17
0.0
 27
1.0
 37
0.0
 76
0
330
216
345
0
346
0
  0
LAYOUT
  5
571
102
{ACAD_REACTORS
330
1A
102
}
100
AcDbPlotSettings
  1

  2
none_device
  4
ANSI_B_(17.00_x_11.00_Inches)
  6

 40
0.0
 41
0.0
 42
0.0
 43
0.0
 44
431.8
 45
279.4
 46
0.0
 47
0.0
 48
0.0
 49
0.0
140
0.0
141
0.0
142
1.0
143
1.0
 70
0
 72
0
 73
0
 74
0
  7

 75
0
147
1.0
148
0.0
149
0.0
100
AcDbLayout
  1
Layout1
 70
0
 71
1
 10
0.0
 20
0.0
 11
17.0
 21
11.0
 12
0.0
 22
0.0
 32
0.0
 14
0.0
 24
0.0
 34
0.0
 15
0.0
 25
0.0
 35
0.0
146
0.0
 13
0.0
 23
0.0
 33
0.0
 16
1.0
 26
0.0
 36
0.0
 17
0.0
 27
1.0
 37
0.0
 76
0
330
217
345
0
346
0
  0
TABLESTYLE
  5
572
102
{ACAD_REACTORS
330
56F
102
}
330
56F
100
AcDbTableStyle
  3
Standard
 70
0
 71
0
 40
0.06
 41
0.06
280
1
281
1
  7
Standard
140
0.18
170
1
 62
0
 63
7
283
0
  7
Standard
140
0.18
170
1
 62
0
 63
7
283
0
  7
Standard
140
0.18
170
1
 62
0
 63
7
283
0
  0
TABLESTYLE
  5
573
102
{ACAD_REACTORS
330
56F
330
27B
102
}
330
56F
100
AcDbTableStyle
  3
Standard1
 70
1
 71
0
 40
0.06
 41
0.06
280
1
281
1
  7
Standard
140
0.18
170
1
 62
0
 63
7
283
0
  7
Standard
140
0.18
170
1
 62
0
 63
7
283
0
  7
Standard
140
0.18
170
1
 62
0
 63
7
283
0
  0
ENDSEC
  0
EOF
