999
DXF file: 177537_1.dxf
999
Pro/ENGINEER 2013230 by Parametric Technology Corporation
  0
SECTION
  2
HEADER
  9
$ACADVER
  1
AC1018
  9
$DWGCODEPAGE
  3
ANSI_1252
  9
$EXTMAX
 10
22.0
 20
17.0
 30
0.0
  9
$EXTMIN
 10
0.0
 20
0.0
 30
0.0
  9
$LIMMIN
 10
0.0
 20
0.0
  9
$LIMMAX
 10
22.0
 20
17.0
  9
$VIEWCTR
 10
11.0
 20
8.5
  9
$VIEWSIZE
 40
17.0
  9
$CLAYER
  8
0
  9
$LTSCALE
 40
1.21
  9
$CELTYPE
  6
BYLAYER
  9
$DIMSCALE
 40
1.0
  9
$DIMASZ
 40
0.1875
  9
$DIMEXO
 40
0.0625
  9
$DIMDLI
 40
0.836
  9
$DIMEXE
 40
0.125
  9
$DIMCEN
 40
0.198
  9
$DIMLFAC
 40
1.0
  9
$DIMBLK
  1
_FILLED
  9
$DIMTXT
 40
0.1
  9
$DIMTOL
 70
1
  9
$DIMLIM
 70
0
  9
$DIMTFAC
 40
1.0
  9
$DIMTP
 40
0.01
  9
$DIMTM
 40
0.01
  9
$DIMGAP
 40
0.09
  9
$DIMDSEP
 70
46
  9
$PDMODE
 70
3
  9
$PDSIZE
 40
0.3125
  9
$HANDSEED
  5
851
  9
$TILEMODE
 70
1
  9
$MEASUREMENT
 70
0
  9
$INSUNITS
 70
1
  0
ENDSEC
  0
SECTION
  2
CLASSES
  0
CLASS
  1
ACDBDICTIONARYWDFLT
  2
AcDbDictionaryWithDefault
  3
AutoCAD 2000
 90
0
 91
1
280
0
281
0
  0
CLASS
  1
ACDBPLACEHOLDER
  2
AcDbPlaceHolder
  3
AutoCAD 2000
 90
0
 91
1
280
0
281
0
  0
CLASS
  1
LAYOUT
  2
AcDbLayout
  3
AutoCAD 2000
 90
0
 91
0
280
0
281
0
  0
CLASS
  1
TABLESTYLE
  2
AcDbTableStyle
  3
ObjectDBX Classes
 90
2047
 91
1
280
0
281
0
  0
CLASS
  1
ACAD_TABLE
  2
AcDbTable
  3
ObjectDBX Classes
 90
1025
 91
1
280
0
281
1
  0
ENDSEC
  0
SECTION
  2
TABLES
  0
TABLE
  2
VPORT
  5
8
100
AcDbSymbolTable
 70
2
  0
VPORT
  5
1F4
100
AcDbSymbolTableRecord
100
AcDbViewportTableRecord
  2
*ACTIVE
 70
0
 10
0.0
 20
0.0
 11
1.0
 21
1.0
 12
11.0
 22
8.5
 13
0.0
 23
0.0
 14
1.0
 24
1.0
 15
0.0
 25
0.0
 16
0.0
 26
0.0
 36
1.0
 17
0.0
 27
0.0
 37
0.0
 40
17.0
 41
1.2941176471
 42
50.0
 43
0.0
 44
0.0
 50
0.0
 51
0.0
 71
0
 72
100
 73
1
 74
1
 75
0
 76
0
 77
0
 78
0
  0
ENDTAB
  0
TABLE
  2
LTYPE
  5
5
100
AcDbSymbolTable
 70
6
  0
LTYPE
  5
14
100
AcDbSymbolTableRecord
100
AcDbLinetypeTableRecord
  2
BYBLOCK
 70
0
  3

 72
65
 73
0
 40
0.0
  0
LTYPE
  5
15
100
AcDbSymbolTableRecord
100
AcDbLinetypeTableRecord
  2
BYLAYER
 70
0
  3

 72
65
 73
0
 40
0.0
  0
LTYPE
  5
16
100
AcDbSymbolTableRecord
100
AcDbLinetypeTableRecord
  2
CONTINUOUS
 70
64
  3
Solid line
 72
65
 73
0
 40
0.0
  0
LTYPE
  5
1F5
100
AcDbSymbolTableRecord
100
AcDbLinetypeTableRecord
  2
CENTER
 70
64
  3
____ _ ____ _ ____ _ ____ _ ____ _ ____ _ ____
 72
65
 73
4
 40
0.6
 49
0.375
 74
0
 49
-0.075
 74
0
 49
0.075
 74
0
 49
-0.075
 74
0
  0
LTYPE
  5
1F6
100
AcDbSymbolTableRecord
100
AcDbLinetypeTableRecord
  2
HIDDEN
 70
64
  3
- - - - - - - - - - - - - - - - - - - -
 72
65
 73
2
 40
0.2
 49
0.1
 74
0
 49
-0.1
 74
0
  0
LTYPE
  5
1F7
100
AcDbSymbolTableRecord
100
AcDbLinetypeTableRecord
  2
PHANTOM
 70
64
  3
_____ _ _ _____ _ _ _____ _ _ _____
 72
65
 73
6
 40
0.8
 49
0.45
 74
0
 49
-0.05
 74
0
 49
0.1
 74
0
 49
-0.05
 74
0
 49
0.1
 74
0
 49
-0.05
 74
0
  0
LTYPE
  5
1F8
100
AcDbSymbolTableRecord
100
AcDbLinetypeTableRecord
  2
DOT
 70
64
  3
. . . . . . . . . . . . . . . . . . . .
 72
65
 73
2
 40
0.2
 49
0.1
 74
0
 49
-0.1
 74
0
  0
LTYPE
  5
1F9
100
AcDbSymbolTableRecord
100
AcDbLinetypeTableRecord
  2
DASHED
 70
64
  3
- - - - - - - - - - - - - - - - - - - -
 72
65
 73
2
 40
0.2
 49
0.1
 74
0
 49
-0.1
 74
0
  0
ENDTAB
  0
TABLE
  2
LAYER
  5
2
100
AcDbSymbolTable
 70
36
  0
LAYER
  5
10
100
AcDbSymbolTableRecord
100
AcDbLayerTableRecord
  2
0
 70
0
 62
7
  6
CONTINUOUS
370
-3
390
F
  0
LAYER
  5
1FA
100
AcDbSymbolTableRecord
100
AcDbLayerTableRecord
  2
DEFAULT_1
 70
0
 62
7
  6
CENTER
370
-3
390
F
  0
LAYER
  5
1FB
100
AcDbSymbolTableRecord
100
AcDbLayerTableRecord
  2
DEFAULT_2
 70
0
 62
7
  6
HIDDEN
370
-3
390
F
  0
LAYER
  5
1FC
100
AcDbSymbolTableRecord
100
AcDbLayerTableRecord
  2
DEFAULT_3
 70
0
 62
7
  6
PHANTOM
370
-3
390
F
  0
LAYER
  5
1FD
100
AcDbSymbolTableRecord
100
AcDbLayerTableRecord
  2
01___PRT_ALL_DTM_PLN
 70
0
 62
7
  6
CONTINUOUS
370
-3
390
F
  0
LAYER
  5
1FE
100
AcDbSymbolTableRecord
100
AcDbLayerTableRecord
  2
01___PRT_DEF_DTM_PLN
 70
0
 62
7
  6
CONTINUOUS
370
-3
390
F
  0
LAYER
  5
1FF
100
AcDbSymbolTableRecord
100
AcDbLayerTableRecord
  2
02___PRT_ALL_AXES
 70
0
 62
7
  6
CONTINUOUS
370
-3
390
F
  0
LAYER
  5
200
100
AcDbSymbolTableRecord
100
AcDbLayerTableRecord
  2
03___PRT_ALL_CURVES
 70
0
 62
7
  6
CONTINUOUS
370
-3
390
F
  0
LAYER
  5
201
100
AcDbSymbolTableRecord
100
AcDbLayerTableRecord
  2
04___PRT_ALL_DTM_PNT
 70
0
 62
7
  6
CONTINUOUS
370
-3
390
F
  0
LAYER
  5
202
100
AcDbSymbolTableRecord
100
AcDbLayerTableRecord
  2
05___PRT_ALL_DTM_CSYS
 70
0
 62
7
  6
CONTINUOUS
370
-3
390
F
  0
LAYER
  5
203
100
AcDbSymbolTableRecord
100
AcDbLayerTableRecord
  2
05___PRT_DEF_DTM_CSYS
 70
0
 62
7
  6
CONTINUOUS
370
-3
390
F
  0
LAYER
  5
204
100
AcDbSymbolTableRecord
100
AcDbLayerTableRecord
  2
06___PRT_ALL_SURFS
 70
0
 62
7
  6
CONTINUOUS
370
-3
390
F
  0
LAYER
  5
205
100
AcDbSymbolTableRecord
100
AcDbLayerTableRecord
  2
AXIS
 70
0
 62
7
  6
CONTINUOUS
370
-3
390
F
  0
LAYER
  5
206
100
AcDbSymbolTableRecord
100
AcDbLayerTableRecord
  2
AXIS_COSMETIC_THREADS
 70
0
 62
7
  6
CONTINUOUS
370
-3
390
F
  0
LAYER
  5
207
100
AcDbSymbolTableRecord
100
AcDbLayerTableRecord
  2
DATUM_CURVES
 70
0
 62
7
  6
CONTINUOUS
370
-3
390
F
  0
LAYER
  5
208
100
AcDbSymbolTableRecord
100
AcDbLayerTableRecord
  2
DATUM_PLANES
 70
0
 62
7
  6
CONTINUOUS
370
-3
390
F
  0
LAYER
  5
209
100
AcDbSymbolTableRecord
100
AcDbLayerTableRecord
  2
DRIVEN_DIMS
 70
0
 62
7
  6
CONTINUOUS
370
-3
390
F
  0
LAYER
  5
20A
100
AcDbSymbolTableRecord
100
AcDbLayerTableRecord
  2
NOTES
 70
0
 62
7
  6
CONTINUOUS
370
-3
390
F
  0
LAYER
  5
20B
100
AcDbSymbolTableRecord
100
AcDbLayerTableRecord
  2
QUILTS
 70
0
 62
7
  6
CONTINUOUS
370
-3
390
F
  0
LAYER
  5
20C
100
AcDbSymbolTableRecord
100
AcDbLayerTableRecord
  2
SCHEME_DIMS
 70
0
 62
7
  6
CONTINUOUS
370
-3
390
F
  0
LAYER
  5
20D
100
AcDbSymbolTableRecord
100
AcDbLayerTableRecord
  2
SYMBOLS
 70
0
 62
7
  6
CONTINUOUS
370
-3
390
F
  0
ENDTAB
  0
TABLE
  2
STYLE
  5
3
100
AcDbSymbolTable
 70
1
  0
STYLE
  5
11
100
AcDbSymbolTableRecord
100
AcDbTextStyleTableRecord
  2
STANDARD
 70
0
 40
0.0
 41
1.0
 50
0.0
 71
0
 42
0.2
  3
txt
  4

  0
STYLE
  5
20E
100
AcDbSymbolTableRecord
100
AcDbTextStyleTableRecord
  2
TEXTSTYLE_1
 70
0
 40
0.0
 41
0.8
 50
0.0
 71
0
 42
0.2
  3
gdt
  4

  0
STYLE
  5
20F
100
AcDbSymbolTableRecord
100
AcDbTextStyleTableRecord
  2
TEXTSTYLE_2
 70
0
 40
0.0
 41
0.8
 50
0.0
 71
0
 42
0.2
  3
txt
  4

  0
STYLE
  5
210
100
AcDbSymbolTableRecord
100
AcDbTextStyleTableRecord
  2
TEXTSTYLE_3
 70
0
 40
0.0
 41
0.85
 50
0.0
 71
0
 42
0.2
  3
txt
  4

  0
STYLE
  5
211
100
AcDbSymbolTableRecord
100
AcDbTextStyleTableRecord
  2
TEXTSTYLE_4
 70
0
 40
0.0
 41
0.92
 50
0.0
 71
0
 42
0.2
  3
txt
  4

  0
STYLE
  5
212
100
AcDbSymbolTableRecord
100
AcDbTextStyleTableRecord
  2
TEXTSTYLE_5
 70
0
 40
0.0
 41
1.0
 50
0.0
 71
0
 42
0.2
  3
gdt
  4

  0
ENDTAB
  0
TABLE
  2
VIEW
  5
6
100
AcDbSymbolTable
 70
0
  0
ENDTAB
  0
TABLE
  2
UCS
  5
7
100
AcDbSymbolTable
 70
0
  0
ENDTAB
  0
TABLE
  2
APPID
  5
9
100
AcDbSymbolTable
 70
1
  0
APPID
  5
213
100
AcDbSymbolTableRecord
100
AcDbRegAppTableRecord
  2
ACAD
 70
0
  0
ENDTAB
  0
TABLE
  2
BLOCK_RECORD
  5
1
100
AcDbSymbolTable
 70
0
  0
BLOCK_RECORD
  5
214
100
AcDbSymbolTableRecord
100
AcDbBlockTableRecord
  2
*Model_Space
  0
BLOCK_RECORD
  5
215
100
AcDbSymbolTableRecord
100
AcDbBlockTableRecord
  2
*Paper_Space
  0
BLOCK_RECORD
  5
216
100
AcDbSymbolTableRecord
100
AcDbBlockTableRecord
  2
_FILLED
  0
BLOCK_RECORD
  5
217
100
AcDbSymbolTableRecord
100
AcDbBlockTableRecord
  2
*D0
  0
BLOCK_RECORD
  5
218
100
AcDbSymbolTableRecord
100
AcDbBlockTableRecord
  2
*D1
  0
BLOCK_RECORD
  5
219
100
AcDbSymbolTableRecord
100
AcDbBlockTableRecord
  2
*D2
  0
BLOCK_RECORD
  5
21A
100
AcDbSymbolTableRecord
100
AcDbBlockTableRecord
  2
*D3
  0
BLOCK_RECORD
  5
21B
100
AcDbSymbolTableRecord
100
AcDbBlockTableRecord
  2
*D4
  0
BLOCK_RECORD
  5
21C
100
AcDbSymbolTableRecord
100
AcDbBlockTableRecord
  2
*D5
  0
BLOCK_RECORD
  5
21D
100
AcDbSymbolTableRecord
100
AcDbBlockTableRecord
  2
*D6
  0
BLOCK_RECORD
  5
21E
100
AcDbSymbolTableRecord
100
AcDbBlockTableRecord
  2
*D7
  0
BLOCK_RECORD
  5
21F
100
AcDbSymbolTableRecord
100
AcDbBlockTableRecord
  2
*D8
  0
BLOCK_RECORD
  5
220
100
AcDbSymbolTableRecord
100
AcDbBlockTableRecord
  2
*D9
  0
BLOCK_RECORD
  5
221
100
AcDbSymbolTableRecord
100
AcDbBlockTableRecord
  2
*D10
  0
BLOCK_RECORD
  5
222
100
AcDbSymbolTableRecord
100
AcDbBlockTableRecord
  2
*D11
  0
BLOCK_RECORD
  5
223
100
AcDbSymbolTableRecord
100
AcDbBlockTableRecord
  2
*D12
  0
BLOCK_RECORD
  5
224
100
AcDbSymbolTableRecord
100
AcDbBlockTableRecord
  2
*D13
  0
BLOCK_RECORD
  5
225
100
AcDbSymbolTableRecord
100
AcDbBlockTableRecord
  2
*D14
  0
BLOCK_RECORD
  5
226
100
AcDbSymbolTableRecord
100
AcDbBlockTableRecord
  2
*D15
  0
BLOCK_RECORD
  5
227
100
AcDbSymbolTableRecord
100
AcDbBlockTableRecord
  2
*D16
  0
BLOCK_RECORD
  5
228
100
AcDbSymbolTableRecord
100
AcDbBlockTableRecord
  2
*D17
  0
BLOCK_RECORD
  5
229
100
AcDbSymbolTableRecord
100
AcDbBlockTableRecord
  2
*D18
  0
BLOCK_RECORD
  5
22A
100
AcDbSymbolTableRecord
100
AcDbBlockTableRecord
  2
*D19
  0
BLOCK_RECORD
  5
22B
100
AcDbSymbolTableRecord
100
AcDbBlockTableRecord
  2
*D20
  0
BLOCK_RECORD
  5
22C
100
AcDbSymbolTableRecord
100
AcDbBlockTableRecord
  2
*D21
  0
BLOCK_RECORD
  5
22D
100
AcDbSymbolTableRecord
100
AcDbBlockTableRecord
  2
*D22
  0
BLOCK_RECORD
  5
22E
100
AcDbSymbolTableRecord
100
AcDbBlockTableRecord
  2
*D23
  0
BLOCK_RECORD
  5
22F
100
AcDbSymbolTableRecord
100
AcDbBlockTableRecord
  2
*D24
  0
BLOCK_RECORD
  5
230
100
AcDbSymbolTableRecord
100
AcDbBlockTableRecord
  2
*D25
  0
BLOCK_RECORD
  5
231
100
AcDbSymbolTableRecord
100
AcDbBlockTableRecord
  2
*D26
  0
BLOCK_RECORD
  5
232
100
AcDbSymbolTableRecord
100
AcDbBlockTableRecord
  2
SYMBOL_151_BL3
  0
BLOCK_RECORD
  5
233
100
AcDbSymbolTableRecord
100
AcDbBlockTableRecord
  2
SYMBOL_150_BL2
  0
BLOCK_RECORD
  5
234
100
AcDbSymbolTableRecord
100
AcDbBlockTableRecord
  2
SYMBOL_152_BL1
  0
BLOCK_RECORD
  5
235
100
AcDbSymbolTableRecord
100
AcDbBlockTableRecord
  2
SYMBOL_0_BL0
  0
BLOCK_RECORD
  5
236
100
AcDbSymbolTableRecord
100
AcDbBlockTableRecord
  2
*T1
  0
ENDTAB
  0
TABLE
  2
DIMSTYLE
  5
A
100
AcDbSymbolTable
 70
1
100
AcDbDimStyleTable
 71
0
  0
DIMSTYLE
105
237
100
AcDbSymbolTableRecord
100
AcDbDimStyleTableRecord
  2
STANDARD
 70
0
  3

  4

 40
1.0
 41
0.1875
 42
0.0625
 43
0.38
 44
0.125
 45
0.0
 46
0.0
 47
0.01
 48
0.01
140
0.1
141
0.09
142
0.0
143
25.4
144
1.0
145
0.0
146
1.0
147
0.09
 71
1.0
 72
0.0
 73
1
 74
1
 75
0
 76
0
 77
0
 78
8
170
0
171
2
172
0
173
0
174
0
175
0
176
0
177
0
178
0
270
2
271
2
272
2
273
2
274
2
275
0
280
0
281
0
282
0
283
1
284
8
285
0
286
0
287
3
288
0
340
11
278
46
341
216
342
216
343
216
344
216
  0
DIMSTYLE
105
238
100
AcDbSymbolTableRecord
100
AcDbDimStyleTableRecord
  2
DIMSTYLE_1
 70
0
  3

  4

 40
1.0
 41
0.1875
 42
0.0625
 43
0.38
 44
0.125
 45
0.0
 46
0.0
 47
0.5
 48
0.5
140
0.1
141
0.09
142
0.0
143
25.4
144
2.0
145
0.0
146
1.0
147
0.09
 71
0.0
 72
0.0
 73
1
 74
1
 75
0
 76
0
 77
0
 78
8
170
0
171
2
172
0
173
0
174
0
175
0
176
0
177
0
178
0
270
2
271
1
272
1
273
2
274
2
275
0
280
0
281
0
282
0
283
1
284
8
285
0
286
0
287
3
288
0
340
11
278
46
341
216
342
216
343
216
344
216
  0
DIMSTYLE
105
239
100
AcDbSymbolTableRecord
100
AcDbDimStyleTableRecord
  2
DIMSTYLE_2
 70
0
  3

  4

 40
1.0
 41
0.1875
 42
0.0625
 43
0.38
 44
0.125
 45
0.0
 46
0.0
 47
0.005
 48
0.005
140
0.1
141
0.09
142
0.0
143
25.4
144
2.0
145
0.0
146
1.0
147
0.1
 71
0.0
 72
0.0
 73
1
 74
1
 75
0
 76
0
 77
0
 78
8
170
0
171
2
172
0
173
0
174
0
175
0
176
0
177
0
178
0
270
2
271
1
272
1
273
2
274
2
275
0
280
0
281
0
282
0
283
1
284
8
285
0
286
0
287
3
288
0
340
11
278
46
341
216
342
216
343
216
344
216
  0
DIMSTYLE
105
23A
100
AcDbSymbolTableRecord
100
AcDbDimStyleTableRecord
  2
DIMSTYLE_3
 70
0
  3
<>
  4

 40
1.0
 41
0.1875
 42
0.0625
 43
0.38
 44
0.125
 45
0.0
 46
0.0
 47
0.005
 48
0.005
140
0.1
141
0.09
142
0.0
143
25.4
144
2.0
145
0.0
146
1.0
147
0.09
 71
0.0
 72
0.0
 73
1
 74
1
 75
0
 76
0
 77
0
 78
8
170
0
171
2
172
1
173
0
174
0
175
0
176
0
177
0
178
0
270
2
271
1
272
1
273
2
274
2
275
0
280
0
281
0
282
0
283
1
284
8
285
0
286
0
287
3
288
1
340
11
278
46
289
2
341
216
342
216
343
216
344
216
  0
DIMSTYLE
105
23B
100
AcDbSymbolTableRecord
100
AcDbDimStyleTableRecord
  2
DIMSTYLE_4
 70
0
  3

  4

 40
1.0
 41
0.1875
 42
0.0625
 43
0.38
 44
0.125
 45
0.0
 46
0.0
 47
0.005
 48
0.005
140
0.1
141
0.09
142
0.0
143
25.4
144
2.0
145
0.0
146
1.0
147
0.1
 71
0.0
 72
0.0
 73
1
 74
1
 75
0
 76
0
 77
0
 78
8
170
0
171
2
172
0
173
0
174
0
175
0
176
0
177
0
178
0
270
2
271
3
272
3
273
2
274
2
275
0
280
0
281
0
282
0
283
1
284
8
285
0
286
0
287
3
288
0
340
11
278
46
341
216
342
216
343
216
344
216
  0
DIMSTYLE
105
23C
100
AcDbSymbolTableRecord
100
AcDbDimStyleTableRecord
  2
DIMSTYLE_5
 70
0
  3
<>
  4

 40
1.0
 41
0.1875
 42
0.0625
 43
0.38
 44
0.125
 45
0.0
 46
0.0
 47
0.005
 48
0.005
140
0.1
141
0.09
142
0.0
143
25.4
144
2.0
145
0.0
146
1.0
147
0.09
 71
0.0
 72
0.0
 73
1
 74
1
 75
0
 76
0
 77
0
 78
8
170
0
171
2
172
0
173
0
174
0
175
0
176
0
177
0
178
0
270
2
271
1
272
1
273
2
274
2
275
0
280
0
281
0
282
0
283
1
284
8
285
0
286
0
287
3
288
0
340
11
278
46
341
216
342
216
343
216
344
216
  0
DIMSTYLE
105
23D
100
AcDbSymbolTableRecord
100
AcDbDimStyleTableRecord
  2
DIMSTYLE_6
 70
0
  3

  4

 40
1.0
 41
0.1875
 42
0.0625
 43
0.38
 44
0.125
 45
0.0
 46
0.0
 47
0.005
 48
0.005
140
0.1
141
0.09
142
0.0
143
25.4
144
1.0
145
0.0
146
1.0
147
0.1
 71
0.0
 72
0.0
 73
1
 74
1
 75
0
 76
0
 77
0
 78
8
170
0
171
2
172
0
173
0
174
0
175
0
176
0
177
0
178
0
270
2
271
1
272
1
273
2
274
2
275
0
280
0
281
0
282
0
283
1
284
8
285
0
286
0
287
3
288
0
340
11
278
46
341
216
342
216
343
216
344
216
  0
DIMSTYLE
105
23E
100
AcDbSymbolTableRecord
100
AcDbDimStyleTableRecord
  2
DIMSTYLE_7
 70
0
  3
<>
  4

 40
1.0
 41
0.1875
 42
0.0625
 43
0.38
 44
0.125
 45
0.0
 46
0.0
 47
0.005
 48
0.005
140
0.1
141
0.09
142
0.0
143
25.4
144
1.0
145
0.0
146
1.0
147
0.09
 71
0.0
 72
0.0
 73
1
 74
1
 75
0
 76
0
 77
0
 78
8
170
0
171
2
172
1
173
0
174
0
175
0
176
0
177
0
178
0
270
2
271
1
272
1
273
2
274
2
275
0
280
0
281
0
282
0
283
1
284
8
285
0
286
0
287
3
288
1
340
11
278
46
289
2
341
216
342
216
343
216
344
216
  0
ENDTAB
  0
ENDSEC
  0
SECTION
  2
BLOCKS
  0
BLOCK
  5
20
100
AcDbEntity
  8
0
100
AcDbBlockBegin
  2
*Model_Space
 70
0
 10
0.0
 20
0.0
 30
0.0
  3
*Model_Space
  1

  0
ENDBLK
  5
21
100
AcDbEntity
  8
0
100
AcDbBlockEnd
  0
BLOCK
  5
1C
100
AcDbEntity
  8
0
100
AcDbBlockBegin
  2
*Paper_Space
 70
0
 10
0.0
 20
0.0
 30
0.0
  3
*Paper_Space
  1

  0
ENDBLK
  5
1D
100
AcDbEntity
  8
0
100
AcDbBlockEnd
  0
BLOCK
  5
23F
100
AcDbEntity
  8
SYMBOLS
100
AcDbBlockBegin
 62
7
  6
CONTINUOUS
  2
SYMBOL_151_BL3
 70
64
 10
7.5825146806
 20
6.0041103073
  3
SYMBOL_151_BL3
  1

  0
TEXT
  5
240
100
AcDbEntity
  8
SYMBOLS
100
AcDbText
 62
7
  6
CONTINUOUS
 10
7.4975146806
 20
5.9441103073
  7
TEXTSTYLE_5
 40
0.12
  1
q
 41
1.0
 72
0
100
AcDbText
  0
ENDBLK
  5
241
100
AcDbEntity
  8
0
  6
BYBLOCK
 62
0
100
AcDbBlockEnd
  0
BLOCK
  5
242
100
AcDbEntity
  8
SYMBOLS
100
AcDbBlockBegin
 62
7
  6
CONTINUOUS
  2
SYMBOL_150_BL2
 70
64
 10
8.5907318202
 20
7.7754918095
  3
SYMBOL_150_BL2
  1

  0
TEXT
  5
243
100
AcDbEntity
  8
SYMBOLS
100
AcDbText
 62
7
  6
CONTINUOUS
 10
8.5057318202
 20
7.7154918095
  7
TEXTSTYLE_5
 40
0.12
  1
q
 41
1.0
 72
0
100
AcDbText
  0
ENDBLK
  5
244
100
AcDbEntity
  8
0
  6
BYBLOCK
 62
0
100
AcDbBlockEnd
  0
BLOCK
  5
245
100
AcDbEntity
  8
SYMBOLS
100
AcDbBlockBegin
 62
7
  6
CONTINUOUS
  2
SYMBOL_152_BL1
 70
64
 10
2.6324048262
 20
6.0294470141
  3
SYMBOL_152_BL1
  1

  0
TEXT
  5
246
100
AcDbEntity
  8
SYMBOLS
100
AcDbText
 62
7
  6
CONTINUOUS
 10
2.5474048262
 20
5.9694470141
  7
TEXTSTYLE_5
 40
0.12
  1
q
 41
1.0
 72
0
100
AcDbText
  0
ENDBLK
  5
247
100
AcDbEntity
  8
0
  6
BYBLOCK
 62
0
100
AcDbBlockEnd
  0
BLOCK
  5
248
100
AcDbEntity
  8
0
100
AcDbBlockBegin
 62
7
  6
CONTINUOUS
  2
SYMBOL_0_BL0
 70
64
 10
17.5778140653
 20
2.4016160549
  3
SYMBOL_0_BL0
  1

  0
ELLIPSE
  5
249
100
AcDbEntity
  8
0
100
AcDbEllipse
 62
7
  6
CONTINUOUS
 10
17.5737928219
 20
2.4016160549
 30
0.0
 11
-0.8250004575
 21
0.0
 31
0.0
 40
0.218572
 41
0.0
 42
6.2831853072
  0
ARC
  5
24A
100
AcDbEntity
  8
0
100
AcDbCircle
 62
7
  6
CONTINUOUS
 10
17.0691330821
 20
2.3781140608
 40
0.0153945295
100
AcDbArc
 50
354.0454548824
 51
5.1878013979
  0
ARC
  5
24B
100
AcDbEntity
  8
0
100
AcDbCircle
 62
7
  6
CONTINUOUS
 10
17.062303393
 20
2.377925543
 40
0.0222174455
100
AcDbArc
 50
4.0793399388
 51
69.834329283
  0
LINE
  5
24C
100
AcDbEntity
  8
0
100
AcDbLine
 62
7
  6
CONTINUOUS
 10
17.0699625425
 20
2.3987810533
 11
17.0599115369
 21
2.4023300553
  0
LINE
  5
24D
100
AcDbEntity
  8
0
100
AcDbLine
 62
7
  6
CONTINUOUS
 10
17.0599115369
 20
2.4023300553
 11
17.0681515415
 21
2.4071060579
  0
ARC
  5
24E
100
AcDbEntity
  8
0
100
AcDbCircle
 62
7
  6
CONTINUOUS
 10
17.046286159
 20
2.4439329496
 40
0.0428289026
100
AcDbArc
 50
300.6990502959
 51
319.0591802498
  0
ARC
  5
24F
100
AcDbEntity
  8
0
100
AcDbCircle
 62
7
  6
CONTINUOUS
 10
17.0663147559
 20
2.4278045961
 40
0.0171568255
100
AcDbArc
 50
315.9145124245
 51
16.0049121282
  0
ARC
  5
250
100
AcDbEntity
  8
0
100
AcDbCircle
 62
7
  6
CONTINUOUS
 10
17.0613631438
 20
2.4244509317
 40
0.0229166529
100
AcDbArc
 50
20.6563876465
 51
62.3316896973
  0
ARC
  5
251
100
AcDbEntity
  8
0
100
AcDbCircle
 62
7
  6
CONTINUOUS
 10
17.0407010201
 20
2.3915223668
 40
0.061747717
100
AcDbArc
 50
59.5385584989
 51
90.0050977555
  0
LINE
  5
252
100
AcDbEntity
  8
0
100
AcDbLine
 62
7
  6
CONTINUOUS
 10
17.0406955262
 20
2.4532700835
 11
16.8746324342
 21
2.4532700835
  0
ARC
  5
253
100
AcDbEntity
  8
0
100
AcDbCircle
 62
7
  6
CONTINUOUS
 10
16.8746324323
 20
2.450795084
 40
0.0024749995
100
AcDbArc
 50
89.9999571957
 51
180.0000428043
  0
LINE
  5
254
100
AcDbEntity
  8
0
100
AcDbLine
 62
7
  6
CONTINUOUS
 10
16.8721574328
 20
2.4507950822
 11
16.8721574328
 21
2.4309950712
  0
ARC
  5
255
100
AcDbEntity
  8
0
100
AcDbCircle
 62
7
  6
CONTINUOUS
 10
16.8746324323
 20
2.4309950693
 40
0.0024749995
100
AcDbArc
 50
179.9999571957
 51
270.0000428043
  0
LINE
  5
256
100
AcDbEntity
  8
0
100
AcDbLine
 62
7
  6
CONTINUOUS
 10
16.8746324342
 20
2.4285200698
 11
16.8985744474
 21
2.4285200698
  0
ARC
  5
257
100
AcDbEntity
  8
0
100
AcDbCircle
 62
7
  6
CONTINUOUS
 10
16.8985744493
 20
2.4260450703
 40
0.0024749995
100
AcDbArc
 50
359.9999571957
 51
90.0000428043
  0
LINE
  5
258
100
AcDbEntity
  8
0
100
AcDbLine
 62
7
  6
CONTINUOUS
 10
16.9010494488
 20
2.4260450684
 11
16.9010494488
 21
2.3796900427
  0
ARC
  5
259
100
AcDbEntity
  8
0
100
AcDbCircle
 62
7
  6
CONTINUOUS
 10
16.8985744493
 20
2.3796900409
 40
0.0024749995
100
AcDbArc
 50
269.9999571957
 51
0.0000428043
  0
LINE
  5
25A
100
AcDbEntity
  8
0
100
AcDbLine
 62
7
  6
CONTINUOUS
 10
16.8985744474
 20
2.3772150414
 11
16.8746324342
 21
2.3772150414
  0
ARC
  5
25B
100
AcDbEntity
  8
0
100
AcDbCircle
 62
7
  6
CONTINUOUS
 10
16.8746324323
 20
2.3747400418
 40
0.0024749995
100
AcDbArc
 50
89.9999571957
 51
180.0000428043
  0
LINE
  5
25C
100
AcDbEntity
  8
0
100
AcDbLine
 62
7
  6
CONTINUOUS
 10
16.8721574328
 20
2.37474004
 11
16.8721574328
 21
2.354940029
  0
ARC
  5
25D
100
AcDbEntity
  8
0
100
AcDbCircle
 62
7
  6
CONTINUOUS
 10
16.8746324323
 20
2.3549400272
 40
0.0024749995
100
AcDbArc
 50
179.9999571957
 51
270.0000428043
  0
LINE
  5
25E
100
AcDbEntity
  8
0
100
AcDbLine
 62
7
  6
CONTINUOUS
 10
16.8746324342
 20
2.3524650276
 11
17.051078532
 21
2.3524650276
  0
ARC
  5
25F
100
AcDbEntity
  8
0
100
AcDbCircle
 62
7
  6
CONTINUOUS
 10
17.0483571873
 20
2.4008724794
 40
0.048483885
100
AcDbArc
 50
273.21763719
 51
303.0749121182
  0
ARC
  5
260
100
AcDbEntity
  8
0
100
AcDbCircle
 62
7
  6
CONTINUOUS
 10
17.0631965815
 20
2.3781048705
 40
0.0213072145
100
AcDbArc
 50
303.0488228549
 51
355.7263138674
  0
LINE
  5
261
100
AcDbEntity
  8
0
100
AcDbLine
 62
7
  6
CONTINUOUS
 10
16.9640374837
 20
2.4111950602
 11
17.0054005067
 21
2.4111950602
  0
ARC
  5
262
100
AcDbEntity
  8
0
100
AcDbCircle
 62
7
  6
CONTINUOUS
 10
17.0054005067
 20
2.419857565
 40
0.0086625048
100
AcDbArc
 50
270.0
 51
90.0
  0
LINE
  5
263
100
AcDbEntity
  8
0
100
AcDbLine
 62
7
  6
CONTINUOUS
 10
17.0054005067
 20
2.4285200698
 11
16.9640374837
 21
2.4285200698
  0
ARC
  5
264
100
AcDbEntity
  8
0
100
AcDbCircle
 62
7
  6
CONTINUOUS
 10
16.9640374819
 20
2.4260450703
 40
0.0024749995
100
AcDbArc
 50
89.9999571957
 51
180.0000428043
  0
LINE
  5
265
100
AcDbEntity
  8
0
100
AcDbLine
 62
7
  6
CONTINUOUS
 10
16.9615624824
 20
2.4260450684
 11
16.9615624824
 21
2.4136700616
  0
ARC
  5
266
100
AcDbEntity
  8
0
100
AcDbCircle
 62
7
  6
CONTINUOUS
 10
16.9640374819
 20
2.4136700597
 40
0.0024749995
100
AcDbArc
 50
179.9999571957
 51
270.0000428043
  0
LINE
  5
267
100
AcDbEntity
  8
0
100
AcDbLine
 62
7
  6
CONTINUOUS
 10
16.9615624824
 20
2.3796900427
 11
16.9615624824
 21
2.3920650496
  0
ARC
  5
268
100
AcDbEntity
  8
0
100
AcDbCircle
 62
7
  6
CONTINUOUS
 10
16.9640374819
 20
2.3920650514
 40
0.0024749995
100
AcDbArc
 50
89.9999571957
 51
180.0000428043
  0
LINE
  5
269
100
AcDbEntity
  8
0
100
AcDbLine
 62
7
  6
CONTINUOUS
 10
16.9640374837
 20
2.394540051
 11
17.0054005067
 21
2.394540051
  0
ARC
  5
26A
100
AcDbEntity
  8
0
100
AcDbCircle
 62
7
  6
CONTINUOUS
 10
17.0054005067
 20
2.3858775462
 40
0.0086625048
100
AcDbArc
 50
270.0
 51
90.0
  0
LINE
  5
26B
100
AcDbEntity
  8
0
100
AcDbLine
 62
7
  6
CONTINUOUS
 10
17.0054005067
 20
2.3772150414
 11
16.9640374837
 21
2.3772150414
  0
ARC
  5
26C
100
AcDbEntity
  8
0
100
AcDbCircle
 62
7
  6
CONTINUOUS
 10
16.9640374819
 20
2.3796900409
 40
0.0024749995
100
AcDbArc
 50
179.9999571957
 51
270.0000428043
  0
ARC
  5
26D
100
AcDbEntity
  8
0
100
AcDbCircle
 62
7
  6
CONTINUOUS
 10
18.2498075353
 20
2.3824863625
 40
0.044722495
100
AcDbArc
 50
195.531588407
 51
204.7624440448
  0
LINE
  5
26E
100
AcDbEntity
  8
0
100
AcDbLine
 62
7
  6
CONTINUOUS
 10
18.2067181729
 20
2.3705110376
 11
18.2049141719
 21
2.376580041
  0
ARC
  5
26F
100
AcDbEntity
  8
0
100
AcDbCircle
 62
7
  6
CONTINUOUS
 10
18.1665349746
 20
2.3667829606
 40
0.0396099176
100
AcDbArc
 50
14.3201081283
 51
22.4984722084
  0
ARC
  5
270
100
AcDbEntity
  8
0
100
AcDbCircle
 62
7
  6
CONTINUOUS
 10
18.189301283
 20
2.3757545872
 40
0.0151491919
100
AcDbArc
 50
24.098260853
 51
63.0369451818
  0
ARC
  5
271
100
AcDbEntity
  8
0
100
AcDbCircle
 62
7
  6
CONTINUOUS
 10
18.1852466282
 20
2.3674749668
 40
0.0243676582
100
AcDbArc
 50
63.3666028271
 51
90.3937697637
  0
LINE
  5
272
100
AcDbEntity
  8
0
100
AcDbLine
 62
7
  6
CONTINUOUS
 10
18.1850791609
 20
2.3918420495
 11
18.1574721456
 21
2.3918420495
  0
ARC
  5
273
100
AcDbEntity
  8
0
100
AcDbCircle
 62
7
  6
CONTINUOUS
 10
18.1574721437
 20
2.3893670499
 40
0.0024749995
100
AcDbArc
 50
89.9999571957
 51
180.0000428043
  0
LINE
  5
274
100
AcDbEntity
  8
0
100
AcDbLine
 62
7
  6
CONTINUOUS
 10
18.1549971442
 20
2.3893670481
 11
18.1549971442
 21
2.3796680427
  0
ARC
  5
275
100
AcDbEntity
  8
0
100
AcDbCircle
 62
7
  6
CONTINUOUS
 10
18.1574721437
 20
2.3796680409
 40
0.0024749995
100
AcDbArc
 50
179.9999571957
 51
270.0000428043
  0
LINE
  5
276
100
AcDbEntity
  8
0
100
AcDbLine
 62
7
  6
CONTINUOUS
 10
18.1574721456
 20
2.3771930413
 11
18.1821311592
 21
2.3771930413
  0
ARC
  5
277
100
AcDbEntity
  8
0
100
AcDbCircle
 62
7
  6
CONTINUOUS
 10
18.1821311611
 20
2.3747180418
 40
0.0024749995
100
AcDbArc
 50
359.9999571957
 51
90.0000428043
  0
LINE
  5
278
100
AcDbEntity
  8
0
100
AcDbLine
 62
7
  6
CONTINUOUS
 10
18.1846061606
 20
2.37471804
 11
18.1846061606
 21
2.354940029
  0
ARC
  5
279
100
AcDbEntity
  8
0
100
AcDbCircle
 62
7
  6
CONTINUOUS
 10
18.1821311611
 20
2.3549400272
 40
0.0024749995
100
AcDbArc
 50
269.9999571957
 51
0.0000428043
  0
LINE
  5
27A
100
AcDbEntity
  8
0
100
AcDbLine
 62
7
  6
CONTINUOUS
 10
18.1821311592
 20
2.3524650276
 11
18.0685600963
 21
2.3524650276
  0
ARC
  5
27B
100
AcDbEntity
  8
0
100
AcDbCircle
 62
7
  6
CONTINUOUS
 10
18.0685600944
 20
2.3549400272
 40
0.0024749995
100
AcDbArc
 50
179.9999571957
 51
270.0000428043
  0
LINE
  5
27C
100
AcDbEntity
  8
0
100
AcDbLine
 62
7
  6
CONTINUOUS
 10
18.0660850949
 20
2.354940029
 11
18.0660850949
 21
2.37474004
  0
ARC
  5
27D
100
AcDbEntity
  8
0
100
AcDbCircle
 62
7
  6
CONTINUOUS
 10
18.0685600944
 20
2.3747400418
 40
0.0024749995
100
AcDbArc
 50
89.9999571957
 51
180.0000428043
  0
LINE
  5
27E
100
AcDbEntity
  8
0
100
AcDbLine
 62
7
  6
CONTINUOUS
 10
18.0685600963
 20
2.3772150414
 11
18.0913061089
 21
2.3772150414
  0
ARC
  5
27F
100
AcDbEntity
  8
0
100
AcDbCircle
 62
7
  6
CONTINUOUS
 10
18.0913061107
 20
2.3796900409
 40
0.0024749995
100
AcDbArc
 50
269.9999571957
 51
0.0000428043
  0
LINE
  5
280
100
AcDbEntity
  8
0
100
AcDbLine
 62
7
  6
CONTINUOUS
 10
18.0937811102
 20
2.3796900427
 11
18.0937811102
 21
2.4260450684
  0
ARC
  5
281
100
AcDbEntity
  8
0
100
AcDbCircle
 62
7
  6
CONTINUOUS
 10
18.0913061107
 20
2.4260450703
 40
0.0024749995
100
AcDbArc
 50
359.9999571957
 51
90.0000428043
  0
LINE
  5
282
100
AcDbEntity
  8
0
100
AcDbLine
 62
7
  6
CONTINUOUS
 10
18.0913061089
 20
2.4285200698
 11
18.0685600963
 21
2.4285200698
  0
ARC
  5
283
100
AcDbEntity
  8
0
100
AcDbCircle
 62
7
  6
CONTINUOUS
 10
18.0685600944
 20
2.4309950693
 40
0.0024749995
100
AcDbArc
 50
179.9999571957
 51
270.0000428043
  0
LINE
  5
284
100
AcDbEntity
  8
0
100
AcDbLine
 62
7
  6
CONTINUOUS
 10
18.0660850949
 20
2.4309950712
 11
18.0660850949
 21
2.4507950822
  0
ARC
  5
285
100
AcDbEntity
  8
0
100
AcDbCircle
 62
7
  6
CONTINUOUS
 10
18.0685600944
 20
2.450795084
 40
0.0024749995
100
AcDbArc
 50
89.9999571957
 51
180.0000428043
  0
LINE
  5
286
100
AcDbEntity
  8
0
100
AcDbLine
 62
7
  6
CONTINUOUS
 10
18.0685600963
 20
2.4532700835
 11
18.2181411792
 21
2.4532700835
  0
ARC
  5
287
100
AcDbEntity
  8
0
100
AcDbCircle
 62
7
  6
CONTINUOUS
 10
18.2154778759
 20
2.270731173
 40
0.1825583387
100
AcDbArc
 50
79.8618509324
 51
89.1640948679
  0
ARC
  5
288
100
AcDbEntity
  8
0
100
AcDbCircle
 62
7
  6
CONTINUOUS
 10
18.2417821663
 20
2.4115546891
 40
0.039319019
100
AcDbArc
 50
59.1202086415
 51
81.4730239328
  0
ARC
  5
289
100
AcDbEntity
  8
0
100
AcDbCircle
 62
7
  6
CONTINUOUS
 10
18.2474415625
 20
2.4178893582
 40
0.0310192946
100
AcDbArc
 50
34.7540871
 51
62.0879016178
  0
ARC
  5
28A
100
AcDbEntity
  8
0
100
AcDbCircle
 62
7
  6
CONTINUOUS
 10
18.2591303136
 20
2.4264389594
 40
0.0165459396
100
AcDbArc
 50
1.548452892
 51
33.5033152417
  0
ARC
  5
28B
100
AcDbEntity
  8
0
100
AcDbCircle
 62
7
  6
CONTINUOUS
 10
18.2624269088
 20
2.4266074116
 40
0.0132462337
100
AcDbArc
 50
331.1510006998
 51
1.205404301
  0
ARC
  5
28C
100
AcDbEntity
  8
0
100
AcDbCircle
 62
7
  6
CONTINUOUS
 10
18.2514162524
 20
2.4332859993
 40
0.0261183659
100
AcDbArc
 50
305.6373831893
 51
329.9727629745
  0
ARC
  5
28D
100
AcDbEntity
  8
0
100
AcDbCircle
 62
7
  6
CONTINUOUS
 10
18.2210843148
 20
2.4764928489
 40
0.0789082104
100
AcDbArc
 50
292.906155071
 51
305.2574666259
  0
ARC
  5
28E
100
AcDbEntity
  8
0
100
AcDbCircle
 62
7
  6
CONTINUOUS
 10
18.1973831488
 20
2.2998387438
 40
0.117346916
100
AcDbArc
 50
58.614769177
 51
62.3737227606
  0
ARC
  5
28F
100
AcDbEntity
  8
0
100
AcDbCircle
 62
7
  6
CONTINUOUS
 10
18.2452661015
 20
2.377966004
 40
0.0257145923
100
AcDbArc
 50
39.3804255939
 51
59.0361096173
  0
ARC
  5
290
100
AcDbEntity
  8
0
100
AcDbCircle
 62
7
  6
CONTINUOUS
 10
18.244145746
 20
2.3778929208
 40
0.0266349791
100
AcDbArc
 50
20.3630922153
 51
37.9727053099
  0
ARC
  5
291
100
AcDbEntity
  8
0
100
AcDbCircle
 62
7
  6
CONTINUOUS
 10
18.2262452042
 20
2.3707115124
 40
0.0459185159
100
AcDbArc
 50
15.6740290068
 51
20.9917271228
  0
ARC
  5
292
100
AcDbEntity
  8
0
100
AcDbCircle
 62
7
  6
CONTINUOUS
 10
18.2848155393
 20
2.3863544954
 40
0.0147197649
100
AcDbArc
 50
192.7054516566
 51
206.0594861022
  0
ARC
  5
293
100
AcDbEntity
  8
0
100
AcDbCircle
 62
7
  6
CONTINUOUS
 10
18.2763212023
 20
2.3821460089
 40
0.0052403997
100
AcDbArc
 50
205.5232099488
 51
227.5054868079
  0
ARC
  5
294
100
AcDbEntity
  8
0
100
AcDbCircle
 62
7
  6
CONTINUOUS
 10
18.274592903
 20
2.3803306362
 40
0.0027347709
100
AcDbArc
 50
228.5117626737
 51
266.1485845754
  0
LINE
  5
295
100
AcDbEntity
  8
0
100
AcDbLine
 62
7
  6
CONTINUOUS
 10
18.2744092104
 20
2.3776020416
 11
18.275518211
 21
2.3776020416
  0
ARC
  5
296
100
AcDbEntity
  8
0
100
AcDbCircle
 62
7
  6
CONTINUOUS
 10
18.2754566564
 20
2.3908507008
 40
0.0132488022
100
AcDbArc
 50
270.266200055
 51
281.2404888597
  0
ARC
  5
297
100
AcDbEntity
  8
0
100
AcDbCircle
 62
7
  6
CONTINUOUS
 10
18.2766508974
 20
2.3851140072
 40
0.0073895522
100
AcDbArc
 50
280.8288201977
 51
305.0837508495
  0
ARC
  5
298
100
AcDbEntity
  8
0
100
AcDbCircle
 62
7
  6
CONTINUOUS
 10
18.2770520791
 20
2.3842631608
 40
0.0064647042
100
AcDbArc
 50
306.5086174083
 51
340.2162360092
  0
ARC
  5
299
100
AcDbEntity
  8
0
100
AcDbCircle
 62
7
  6
CONTINUOUS
 10
18.2718509025
 20
2.3860072224
 40
0.0119498009
100
AcDbArc
 50
340.7883861657
 51
1.1691452593
  0
LINE
  5
29A
100
AcDbEntity
  8
0
100
AcDbLine
 62
7
  6
CONTINUOUS
 10
18.2837982156
 20
2.3862510464
 11
18.2837982156
 21
2.3888770478
  0
ARC
  5
29B
100
AcDbEntity
  8
0
100
AcDbCircle
 62
7
  6
CONTINUOUS
 10
18.2862732151
 20
2.3888770497
 40
0.0024749995
100
AcDbArc
 50
89.9999571957
 51
180.0000428043
  0
LINE
  5
29C
100
AcDbEntity
  8
0
100
AcDbLine
 62
7
  6
CONTINUOUS
 10
18.286273217
 20
2.3913520492
 11
18.2983832237
 21
2.3913520492
  0
ARC
  5
29D
100
AcDbEntity
  8
0
100
AcDbCircle
 62
7
  6
CONTINUOUS
 10
18.2983832256
 20
2.3888770497
 40
0.0024749995
100
AcDbArc
 50
359.9999571957
 51
90.0000428043
  0
LINE
  5
29E
100
AcDbEntity
  8
0
100
AcDbLine
 62
7
  6
CONTINUOUS
 10
18.3008582251
 20
2.3888770478
 11
18.3008582251
 21
2.3773250414
  0
ARC
  5
29F
100
AcDbEntity
  8
0
100
AcDbCircle
 62
7
  6
CONTINUOUS
 10
18.2833025285
 20
2.3774293591
 40
0.0175560065
100
AcDbArc
 50
332.2279060967
 51
359.6595469939
  0
ARC
  5
2A0
100
AcDbEntity
  8
0
100
AcDbCircle
 62
7
  6
CONTINUOUS
 10
18.2739955177
 20
2.3823238645
 40
0.0280715479
100
AcDbArc
 50
308.5071794988
 51
332.24006569
  0
ARC
  5
2A1
100
AcDbEntity
  8
0
100
AcDbCircle
 62
7
  6
CONTINUOUS
 10
18.2670033323
 20
2.3899250823
 40
0.0383802683
100
AcDbArc
 50
288.7656836787
 51
309.6104317088
  0
ARC
  5
2A2
100
AcDbEntity
  8
0
100
AcDbCircle
 62
7
  6
CONTINUOUS
 10
18.2727412998
 20
2.372338333
 40
0.0198837666
100
AcDbArc
 50
271.8586572978
 51
289.4131338543
  0
LINE
  5
2A3
100
AcDbEntity
  8
0
100
AcDbLine
 62
7
  6
CONTINUOUS
 10
18.2733862098
 20
2.3524650276
 11
18.2260221836
 21
2.3524650276
  0
ARC
  5
2A4
100
AcDbEntity
  8
0
100
AcDbCircle
 62
7
  6
CONTINUOUS
 10
18.2268275043
 20
2.3697871793
 40
0.0173408616
100
AcDbArc
 50
232.4713476722
 51
267.338189944
  0
ARC
  5
2A5
100
AcDbEntity
  8
0
100
AcDbCircle
 62
7
  6
CONTINUOUS
 10
18.2299260692
 20
2.3756374832
 40
0.0238935861
100
AcDbArc
 50
209.8247607259
 51
235.1255079367
  0
ARC
  5
2A6
100
AcDbEntity
  8
0
100
AcDbCircle
 62
7
  6
CONTINUOUS
 10
18.1986405119
 20
2.4241492153
 40
0.0110815393
100
AcDbArc
 50
306.758405961
 51
320.4502234234
  0
ARC
  5
2A7
100
AcDbEntity
  8
0
100
AcDbCircle
 62
7
  6
CONTINUOUS
 10
18.1930113209
 20
2.4318900438
 40
0.0206523367
100
AcDbArc
 50
289.6883413472
 51
306.4184925496
  0
ARC
  5
2A8
100
AcDbEntity
  8
0
100
AcDbCircle
 62
7
  6
CONTINUOUS
 10
18.1910838152
 20
2.4362836911
 40
0.0254407115
100
AcDbArc
 50
270.7327484175
 51
290.441894219
  0
LINE
  5
2A9
100
AcDbEntity
  8
0
100
AcDbLine
 62
7
  6
CONTINUOUS
 10
18.1914091644
 20
2.41084506
 11
18.1574721456
 21
2.41084506
  0
ARC
  5
2AA
100
AcDbEntity
  8
0
100
AcDbCircle
 62
7
  6
CONTINUOUS
 10
18.1574721437
 20
2.4133200595
 40
0.0024749995
100
AcDbArc
 50
179.9999571957
 51
270.0000428043
  0
LINE
  5
2AB
100
AcDbEntity
  8
0
100
AcDbLine
 62
7
  6
CONTINUOUS
 10
18.1549971442
 20
2.4133200614
 11
18.1549971442
 21
2.4260450684
  0
ARC
  5
2AC
100
AcDbEntity
  8
0
100
AcDbCircle
 62
7
  6
CONTINUOUS
 10
18.1574721437
 20
2.4260450703
 40
0.0024749995
100
AcDbArc
 50
89.9999571957
 51
180.0000428043
  0
LINE
  5
2AD
100
AcDbEntity
  8
0
100
AcDbLine
 62
7
  6
CONTINUOUS
 10
18.1574721456
 20
2.4285200698
 11
18.194273166
 21
2.4285200698
  0
ARC
  5
2AE
100
AcDbEntity
  8
0
100
AcDbCircle
 62
7
  6
CONTINUOUS
 10
18.1927282785
 20
2.4000655908
 40
0.0284963867
100
AcDbArc
 50
70.3834917948
 51
86.8922743861
  0
ARC
  5
2AF
100
AcDbEntity
  8
0
100
AcDbCircle
 62
7
  6
CONTINUOUS
 10
18.1975878885
 20
2.4131073238
 40
0.0145814632
100
AcDbArc
 50
54.6746025112
 51
71.1660573124
  0
ARC
  5
2B0
100
AcDbEntity
  8
0
100
AcDbCircle
 62
7
  6
CONTINUOUS
 10
18.2027173795
 20
2.419961249
 40
0.0060275915
100
AcDbArc
 50
20.9055592135
 51
56.7851676243
  0
ARC
  5
2B1
100
AcDbEntity
  8
0
100
AcDbCircle
 62
7
  6
CONTINUOUS
 10
18.2040179384
 20
2.4206215312
 40
0.0045795888
100
AcDbArc
 50
355.6235353944
 51
18.9942678268
  0
ARC
  5
2B2
100
AcDbEntity
  8
0
100
AcDbCircle
 62
7
  6
CONTINUOUS
 10
18.202811128
 20
2.4209153074
 40
0.0058087709
100
AcDbArc
 50
318.8515287446
 51
353.6422345323
  0
LINE
  5
2B3
100
AcDbEntity
  8
0
100
AcDbLine
 62
7
  6
CONTINUOUS
 10
17.341467693
 20
2.4532700835
 11
17.4419257488
 21
2.4532700835
  0
ARC
  5
2B4
100
AcDbEntity
  8
0
100
AcDbCircle
 62
7
  6
CONTINUOUS
 10
17.4419258835
 20
2.4507959157
 40
0.0024741678
100
AcDbArc
 50
46.3477981898
 51
90.0031206038
  0
LINE
  5
2B5
100
AcDbEntity
  8
0
100
AcDbLine
 62
7
  6
CONTINUOUS
 10
17.4436337497
 20
2.4525860832
 11
17.503666783
 21
2.3953060514
  0
ARC
  5
2B6
100
AcDbEntity
  8
0
100
AcDbCircle
 62
7
  6
CONTINUOUS
 10
17.5053754839
 20
2.3970969891
 40
0.0024753014
100
AcDbArc
 50
226.346126306
 51
0.0014637322
  0
LINE
  5
2B7
100
AcDbEntity
  8
0
100
AcDbLine
 62
7
  6
CONTINUOUS
 10
17.5078507853
 20
2.3970970524
 11
17.5078507853
 21
2.4260450684
  0
ARC
  5
2B8
100
AcDbEntity
  8
0
100
AcDbCircle
 62
7
  6
CONTINUOUS
 10
17.5053757858
 20
2.4260450703
 40
0.0024749995
100
AcDbArc
 50
359.9999571957
 51
90.0000428043
  0
LINE
  5
2B9
100
AcDbEntity
  8
0
100
AcDbLine
 62
7
  6
CONTINUOUS
 10
17.5053757839
 20
2.4285200698
 11
17.4865997735
 21
2.4285200698
  0
ARC
  5
2BA
100
AcDbEntity
  8
0
100
AcDbCircle
 62
7
  6
CONTINUOUS
 10
17.4865997717
 20
2.4309950693
 40
0.0024749995
100
AcDbArc
 50
179.9999571957
 51
270.0000428043
  0
LINE
  5
2BB
100
AcDbEntity
  8
0
100
AcDbLine
 62
7
  6
CONTINUOUS
 10
17.4841247722
 20
2.4309950712
 11
17.4841247722
 21
2.4507950822
  0
ARC
  5
2BC
100
AcDbEntity
  8
0
100
AcDbCircle
 62
7
  6
CONTINUOUS
 10
17.4865997717
 20
2.450795084
 40
0.0024749995
100
AcDbArc
 50
89.9999571957
 51
180.0000428043
  0
LINE
  5
2BD
100
AcDbEntity
  8
0
100
AcDbLine
 62
7
  6
CONTINUOUS
 10
17.4865997735
 20
2.4532700835
 11
17.5606008146
 21
2.4532700835
  0
ARC
  5
2BE
100
AcDbEntity
  8
0
100
AcDbCircle
 62
7
  6
CONTINUOUS
 10
17.5606008164
 20
2.450795084
 40
0.0024749995
100
AcDbArc
 50
359.9999571957
 51
90.0000428043
  0
LINE
  5
2BF
100
AcDbEntity
  8
0
100
AcDbLine
 62
7
  6
CONTINUOUS
 10
17.5630758159
 20
2.4507950822
 11
17.5630758159
 21
2.4309950712
  0
ARC
  5
2C0
100
AcDbEntity
  8
0
100
AcDbCircle
 62
7
  6
CONTINUOUS
 10
17.5606008164
 20
2.4309950693
 40
0.0024749995
100
AcDbArc
 50
269.9999571957
 51
0.0000428043
  0
LINE
  5
2C1
100
AcDbEntity
  8
0
100
AcDbLine
 62
7
  6
CONTINUOUS
 10
17.5606008146
 20
2.4285200698
 11
17.5426678046
 21
2.4285200698
  0
ARC
  5
2C2
100
AcDbEntity
  8
0
100
AcDbCircle
 62
7
  6
CONTINUOUS
 10
17.5426678028
 20
2.4260450703
 40
0.0024749995
100
AcDbArc
 50
89.9999571957
 51
180.0000428043
  0
LINE
  5
2C3
100
AcDbEntity
  8
0
100
AcDbLine
 62
7
  6
CONTINUOUS
 10
17.5401928032
 20
2.4260450684
 11
17.5401928032
 21
2.354940029
  0
ARC
  5
2C4
100
AcDbEntity
  8
0
100
AcDbCircle
 62
7
  6
CONTINUOUS
 10
17.5377178037
 20
2.3549400272
 40
0.0024749995
100
AcDbArc
 50
269.9999571957
 51
0.0000428043
  0
LINE
  5
2C5
100
AcDbEntity
  8
0
100
AcDbLine
 62
7
  6
CONTINUOUS
 10
17.5377178019
 20
2.3524650276
 11
17.4635127607
 21
2.3524650276
  0
ARC
  5
2C6
100
AcDbEntity
  8
0
100
AcDbCircle
 62
7
  6
CONTINUOUS
 10
17.463512126
 20
2.3549404438
 40
0.0024754162
100
AcDbArc
 50
226.3593695813
 51
270.0146919953
  0
LINE
  5
2C7
100
AcDbEntity
  8
0
100
AcDbLine
 62
7
  6
CONTINUOUS
 10
17.4618037598
 20
2.353149028
 11
17.3985237247
 21
2.4135270615
  0
ARC
  5
2C8
100
AcDbEntity
  8
0
100
AcDbCircle
 62
7
  6
CONTINUOUS
 10
17.3968150237
 20
2.4117361237
 40
0.0024753014
100
AcDbArc
 50
46.3461263058
 51
180.0014637321
  0
LINE
  5
2C9
100
AcDbEntity
  8
0
100
AcDbLine
 62
7
  6
CONTINUOUS
 10
17.3943397224
 20
2.4117360605
 11
17.3943397224
 21
2.3796900427
  0
ARC
  5
2CA
100
AcDbEntity
  8
0
100
AcDbCircle
 62
7
  6
CONTINUOUS
 10
17.3968147219
 20
2.3796900409
 40
0.0024749995
100
AcDbArc
 50
179.9999571957
 51
270.0000428043
  0
LINE
  5
2CB
100
AcDbEntity
  8
0
100
AcDbLine
 62
7
  6
CONTINUOUS
 10
17.3968147237
 20
2.3772150414
 11
17.417131735
 21
2.3772150414
  0
ARC
  5
2CC
100
AcDbEntity
  8
0
100
AcDbCircle
 62
7
  6
CONTINUOUS
 10
17.4171317369
 20
2.3747400418
 40
0.0024749995
100
AcDbArc
 50
359.9999571957
 51
90.0000428043
  0
LINE
  5
2CD
100
AcDbEntity
  8
0
100
AcDbLine
 62
7
  6
CONTINUOUS
 10
17.4196067364
 20
2.37474004
 11
17.4196067364
 21
2.354940029
  0
ARC
  5
2CE
100
AcDbEntity
  8
0
100
AcDbCircle
 62
7
  6
CONTINUOUS
 10
17.4171317369
 20
2.3549400272
 40
0.0024749995
100
AcDbArc
 50
269.9999571957
 51
0.0000428043
  0
LINE
  5
2CF
100
AcDbEntity
  8
0
100
AcDbLine
 62
7
  6
CONTINUOUS
 10
17.417131735
 20
2.3524650276
 11
17.341467693
 21
2.3524650276
  0
ARC
  5
2D0
100
AcDbEntity
  8
0
100
AcDbCircle
 62
7
  6
CONTINUOUS
 10
17.3414676912
 20
2.3549400272
 40
0.0024749995
100
AcDbArc
 50
179.9999571957
 51
270.0000428043
  0
LINE
  5
2D1
100
AcDbEntity
  8
0
100
AcDbLine
 62
7
  6
CONTINUOUS
 10
17.3389926917
 20
2.354940029
 11
17.3389926917
 21
2.37474004
  0
ARC
  5
2D2
100
AcDbEntity
  8
0
100
AcDbCircle
 62
7
  6
CONTINUOUS
 10
17.3414676912
 20
2.3747400418
 40
0.0024749995
100
AcDbArc
 50
89.9999571957
 51
180.0000428043
  0
LINE
  5
2D3
100
AcDbEntity
  8
0
100
AcDbLine
 62
7
  6
CONTINUOUS
 10
17.341467693
 20
2.3772150414
 11
17.3601147034
 21
2.3772150414
  0
ARC
  5
2D4
100
AcDbEntity
  8
0
100
AcDbCircle
 62
7
  6
CONTINUOUS
 10
17.3601147052
 20
2.3796900409
 40
0.0024749995
100
AcDbArc
 50
269.9999571957
 51
0.0000428043
  0
LINE
  5
2D5
100
AcDbEntity
  8
0
100
AcDbLine
 62
7
  6
CONTINUOUS
 10
17.3625897048
 20
2.3796900427
 11
17.3625897048
 21
2.4260450684
  0
ARC
  5
2D6
100
AcDbEntity
  8
0
100
AcDbCircle
 62
7
  6
CONTINUOUS
 10
17.3601147052
 20
2.4260450703
 40
0.0024749995
100
AcDbArc
 50
359.9999571957
 51
90.0000428043
  0
LINE
  5
2D7
100
AcDbEntity
  8
0
100
AcDbLine
 62
7
  6
CONTINUOUS
 10
17.3601147034
 20
2.4285200698
 11
17.341467693
 21
2.4285200698
  0
ARC
  5
2D8
100
AcDbEntity
  8
0
100
AcDbCircle
 62
7
  6
CONTINUOUS
 10
17.3414676912
 20
2.4309950693
 40
0.0024749995
100
AcDbArc
 50
179.9999571957
 51
270.0000428043
  0
LINE
  5
2D9
100
AcDbEntity
  8
0
100
AcDbLine
 62
7
  6
CONTINUOUS
 10
17.3389926917
 20
2.4309950712
 11
17.3389926917
 21
2.4507950822
  0
ARC
  5
2DA
100
AcDbEntity
  8
0
100
AcDbCircle
 62
7
  6
CONTINUOUS
 10
17.3414676912
 20
2.450795084
 40
0.0024749995
100
AcDbArc
 50
89.9999571957
 51
180.0000428043
  0
LINE
  5
2DB
100
AcDbEntity
  8
0
100
AcDbLine
 62
7
  6
CONTINUOUS
 10
17.1937676111
 20
2.4268270689
 11
17.1866506072
 21
2.4156100627
  0
ARC
  5
2DC
100
AcDbEntity
  8
0
100
AcDbCircle
 62
7
  6
CONTINUOUS
 10
17.188740499
 20
2.4142841006
 40
0.0024750401
100
AcDbArc
 50
147.6063258012
 51
270.0025305754
  0
LINE
  5
2DD
100
AcDbEntity
  8
0
100
AcDbLine
 62
7
  6
CONTINUOUS
 10
17.1887406083
 20
2.4118090605
 11
17.2092976197
 21
2.4118090605
  0
ARC
  5
2DE
100
AcDbEntity
  8
0
100
AcDbCircle
 62
7
  6
CONTINUOUS
 10
17.2092975986
 20
2.4142842677
 40
0.0024752071
100
AcDbArc
 50
270.0004896793
 51
32.9089806818
  0
LINE
  5
2DF
100
AcDbEntity
  8
0
100
AcDbLine
 62
7
  6
CONTINUOUS
 10
17.2113756209
 20
2.4156290627
 11
17.2041166169
 21
2.4268450689
  0
ARC
  5
2E0
100
AcDbEntity
  8
0
100
AcDbCircle
 62
7
  6
CONTINUOUS
 10
17.2020380761
 20
2.4255006094
 40
0.0024754602
100
AcDbArc
 50
32.8959418573
 51
89.9875097202
  0
LINE
  5
2E1
100
AcDbEntity
  8
0
100
AcDbLine
 62
7
  6
CONTINUOUS
 10
17.2020386157
 20
2.4279760695
 11
17.1958576123
 21
2.4279760695
  0
ARC
  5
2E2
100
AcDbEntity
  8
0
100
AcDbCircle
 62
7
  6
CONTINUOUS
 10
17.195857542
 20
2.4255008692
 40
0.0024752003
100
AcDbArc
 50
89.998372645
 51
147.602165307
  0
LINE
  5
2E3
100
AcDbEntity
  8
0
100
AcDbLine
 62
7
  6
CONTINUOUS
 10
17.2171806241
 20
2.3897280483
 11
17.2228066272
 21
2.3810350435
  0
ARC
  5
2E4
100
AcDbEntity
  8
0
100
AcDbCircle
 62
7
  6
CONTINUOUS
 10
17.2207286049
 20
2.3796902485
 40
0.0024752071
100
AcDbArc
 50
270.0004896793
 51
32.9089806818
  0
LINE
  5
2E5
100
AcDbEntity
  8
0
100
AcDbLine
 62
7
  6
CONTINUOUS
 10
17.2207286261
 20
2.3772150414
 11
17.2062776181
 21
2.3772150414
  0
ARC
  5
2E6
100
AcDbEntity
  8
0
100
AcDbCircle
 62
7
  6
CONTINUOUS
 10
17.2062776162
 20
2.3747400418
 40
0.0024749995
100
AcDbArc
 50
89.9999571957
 51
180.0000428043
  0
LINE
  5
2E7
100
AcDbEntity
  8
0
100
AcDbLine
 62
7
  6
CONTINUOUS
 10
17.2038026167
 20
2.37474004
 11
17.2038026167
 21
2.354940029
  0
ARC
  5
2E8
100
AcDbEntity
  8
0
100
AcDbCircle
 62
7
  6
CONTINUOUS
 10
17.2062776162
 20
2.3549400272
 40
0.0024749995
100
AcDbArc
 50
179.9999571957
 51
270.0000428043
  0
LINE
  5
2E9
100
AcDbEntity
  8
0
100
AcDbLine
 62
7
  6
CONTINUOUS
 10
17.2062776181
 20
2.3524650276
 11
17.3115586765
 21
2.3524650276
  0
ARC
  5
2EA
100
AcDbEntity
  8
0
100
AcDbCircle
 62
7
  6
CONTINUOUS
 10
17.3115586783
 20
2.3549400272
 40
0.0024749995
100
AcDbArc
 50
269.9999571957
 51
0.0000428043
  0
LINE
  5
2EB
100
AcDbEntity
  8
0
100
AcDbLine
 62
7
  6
CONTINUOUS
 10
17.3140336778
 20
2.354940029
 11
17.3140336778
 21
2.37474004
  0
ARC
  5
2EC
100
AcDbEntity
  8
0
100
AcDbCircle
 62
7
  6
CONTINUOUS
 10
17.3115586783
 20
2.3747400418
 40
0.0024749995
100
AcDbArc
 50
359.9999571957
 51
90.0000428043
  0
LINE
  5
2ED
100
AcDbEntity
  8
0
100
AcDbLine
 62
7
  6
CONTINUOUS
 10
17.3115586765
 20
2.3772150414
 11
17.2915426654
 21
2.3772150414
  0
ARC
  5
2EE
100
AcDbEntity
  8
0
100
AcDbCircle
 62
7
  6
CONTINUOUS
 10
17.2915427859
 20
2.3796890824
 40
0.002474041
100
AcDbArc
 50
212.9056413127
 51
269.9972091756
  0
LINE
  5
2EF
100
AcDbEntity
  8
0
100
AcDbLine
 62
7
  6
CONTINUOUS
 10
17.2894656642
 20
2.378345042
 11
17.2417096377
 21
2.4521400829
  0
ARC
  5
2F0
100
AcDbEntity
  8
0
100
AcDbCircle
 62
7
  6
CONTINUOUS
 10
17.2396320161
 20
2.4507951234
 40
0.0024749602
100
AcDbArc
 50
32.9172174468
 51
90.0087853097
  0
LINE
  5
2F1
100
AcDbEntity
  8
0
100
AcDbLine
 62
7
  6
CONTINUOUS
 10
17.2396316366
 20
2.4532700835
 11
17.1824566049
 21
2.4532700835
  0
ARC
  5
2F2
100
AcDbEntity
  8
0
100
AcDbCircle
 62
7
  6
CONTINUOUS
 10
17.1824565346
 20
2.4507948832
 40
0.0024752003
100
AcDbArc
 50
89.998372645
 51
147.602165307
  0
LINE
  5
2F3
100
AcDbEntity
  8
0
100
AcDbLine
 62
7
  6
CONTINUOUS
 10
17.1803666037
 20
2.4521210829
 11
17.1335665777
 21
2.378364042
  0
ARC
  5
2F4
100
AcDbEntity
  8
0
100
AcDbCircle
 62
7
  6
CONTINUOUS
 10
17.1314766469
 20
2.3796902417
 40
0.0024752003
100
AcDbArc
 50
269.998372645
 51
327.602165307
  0
LINE
  5
2F5
100
AcDbEntity
  8
0
100
AcDbLine
 62
7
  6
CONTINUOUS
 10
17.1314765766
 20
2.3772150414
 11
17.1086155639
 21
2.3772150414
  0
ARC
  5
2F6
100
AcDbEntity
  8
0
100
AcDbCircle
 62
7
  6
CONTINUOUS
 10
17.1086155621
 20
2.3747400418
 40
0.0024749995
100
AcDbArc
 50
89.9999571957
 51
180.0000428043
  0
LINE
  5
2F7
100
AcDbEntity
  8
0
100
AcDbLine
 62
7
  6
CONTINUOUS
 10
17.1061405625
 20
2.37474004
 11
17.1061405625
 21
2.354940029
  0
ARC
  5
2F8
100
AcDbEntity
  8
0
100
AcDbCircle
 62
7
  6
CONTINUOUS
 10
17.1086155621
 20
2.3549400272
 40
0.0024749995
100
AcDbArc
 50
179.9999571957
 51
270.0000428043
  0
LINE
  5
2F9
100
AcDbEntity
  8
0
100
AcDbLine
 62
7
  6
CONTINUOUS
 10
17.1086155639
 20
2.3524650276
 11
17.1859916068
 21
2.3524650276
  0
ARC
  5
2FA
100
AcDbEntity
  8
0
100
AcDbCircle
 62
7
  6
CONTINUOUS
 10
17.1859916087
 20
2.3549400272
 40
0.0024749995
100
AcDbArc
 50
269.9999571957
 51
0.0000428043
  0
LINE
  5
2FB
100
AcDbEntity
  8
0
100
AcDbLine
 62
7
  6
CONTINUOUS
 10
17.1884666082
 20
2.354940029
 11
17.1884666082
 21
2.37474004
  0
ARC
  5
2FC
100
AcDbEntity
  8
0
100
AcDbCircle
 62
7
  6
CONTINUOUS
 10
17.1859916087
 20
2.3747400418
 40
0.0024749995
100
AcDbArc
 50
359.9999571957
 51
90.0000428043
  0
LINE
  5
2FD
100
AcDbEntity
  8
0
100
AcDbLine
 62
7
  6
CONTINUOUS
 10
17.1859916068
 20
2.3772150414
 11
17.1747086006
 21
2.3772150414
  0
ARC
  5
2FE
100
AcDbEntity
  8
0
100
AcDbCircle
 62
7
  6
CONTINUOUS
 10
17.1747084912
 20
2.3796900814
 40
0.0024750401
100
AcDbArc
 50
147.6063258011
 51
270.0025305754
  0
LINE
  5
2FF
100
AcDbEntity
  8
0
100
AcDbLine
 62
7
  6
CONTINUOUS
 10
17.1726185994
 20
2.3810160435
 11
17.1781346025
 21
2.3897100483
  0
ARC
  5
300
100
AcDbEntity
  8
0
100
AcDbCircle
 62
7
  6
CONTINUOUS
 10
17.1802245333
 20
2.3883838486
 40
0.0024752003
100
AcDbArc
 50
89.998372645
 51
147.602165307
  0
LINE
  5
301
100
AcDbEntity
  8
0
100
AcDbLine
 62
7
  6
CONTINUOUS
 10
17.1802246036
 20
2.3908590489
 11
17.215102623
 21
2.3908590489
  0
ARC
  5
302
100
AcDbEntity
  8
0
100
AcDbCircle
 62
7
  6
CONTINUOUS
 10
17.2151020833
 20
2.3883835888
 40
0.0024754602
100
AcDbArc
 50
32.8959418573
 51
89.9875097202
  0
LINE
  5
303
100
AcDbEntity
  8
0
100
AcDbLine
 62
7
  6
CONTINUOUS
 10
17.5897208307
 20
2.4532700835
 11
17.6901788864
 21
2.4532700835
  0
ARC
  5
304
100
AcDbEntity
  8
0
100
AcDbCircle
 62
7
  6
CONTINUOUS
 10
17.6901790212
 20
2.4507959157
 40
0.0024741678
100
AcDbArc
 50
46.3477981899
 51
90.0031206038
  0
LINE
  5
305
100
AcDbEntity
  8
0
100
AcDbLine
 62
7
  6
CONTINUOUS
 10
17.6918868874
 20
2.4525860832
 11
17.7519199207
 21
2.3953060514
  0
ARC
  5
306
100
AcDbEntity
  8
0
100
AcDbCircle
 62
7
  6
CONTINUOUS
 10
17.7536286216
 20
2.3970969891
 40
0.0024753014
100
AcDbArc
 50
226.3461263059
 51
0.0014637321
  0
LINE
  5
307
100
AcDbEntity
  8
0
100
AcDbLine
 62
7
  6
CONTINUOUS
 10
17.756103923
 20
2.3970970524
 11
17.756103923
 21
2.4260450684
  0
ARC
  5
308
100
AcDbEntity
  8
0
100
AcDbCircle
 62
7
  6
CONTINUOUS
 10
17.7536289235
 20
2.4260450703
 40
0.0024749995
100
AcDbArc
 50
359.9999571957
 51
90.0000428043
  0
LINE
  5
309
100
AcDbEntity
  8
0
100
AcDbLine
 62
7
  6
CONTINUOUS
 10
17.7536289216
 20
2.4285200698
 11
17.7348529112
 21
2.4285200698
  0
ARC
  5
30A
100
AcDbEntity
  8
0
100
AcDbCircle
 62
7
  6
CONTINUOUS
 10
17.7348529093
 20
2.4309950693
 40
0.0024749995
100
AcDbArc
 50
179.9999571957
 51
270.0000428043
  0
LINE
  5
30B
100
AcDbEntity
  8
0
100
AcDbLine
 62
7
  6
CONTINUOUS
 10
17.7323779098
 20
2.4309950712
 11
17.7323779098
 21
2.4507950822
  0
ARC
  5
30C
100
AcDbEntity
  8
0
100
AcDbCircle
 62
7
  6
CONTINUOUS
 10
17.7348529093
 20
2.450795084
 40
0.0024749995
100
AcDbArc
 50
89.9999571957
 51
180.0000428043
  0
LINE
  5
30D
100
AcDbEntity
  8
0
100
AcDbLine
 62
7
  6
CONTINUOUS
 10
17.7348529112
 20
2.4532700835
 11
17.8088539522
 21
2.4532700835
  0
ARC
  5
30E
100
AcDbEntity
  8
0
100
AcDbCircle
 62
7
  6
CONTINUOUS
 10
17.8088539541
 20
2.450795084
 40
0.0024749995
100
AcDbArc
 50
359.9999571957
 51
90.0000428043
  0
LINE
  5
30F
100
AcDbEntity
  8
0
100
AcDbLine
 62
7
  6
CONTINUOUS
 10
17.8113289536
 20
2.4507950822
 11
17.8113289536
 21
2.4309950712
  0
ARC
  5
310
100
AcDbEntity
  8
0
100
AcDbCircle
 62
7
  6
CONTINUOUS
 10
17.8088539541
 20
2.4309950693
 40
0.0024749995
100
AcDbArc
 50
269.9999571957
 51
0.0000428043
  0
LINE
  5
311
100
AcDbEntity
  8
0
100
AcDbLine
 62
7
  6
CONTINUOUS
 10
17.8088539522
 20
2.4285200698
 11
17.7909209423
 21
2.4285200698
  0
ARC
  5
312
100
AcDbEntity
  8
0
100
AcDbCircle
 62
7
  6
CONTINUOUS
 10
17.7909209404
 20
2.4260450703
 40
0.0024749995
100
AcDbArc
 50
89.9999571957
 51
180.0000428043
  0
LINE
  5
313
100
AcDbEntity
  8
0
100
AcDbLine
 62
7
  6
CONTINUOUS
 10
17.7884459409
 20
2.4260450684
 11
17.7884459409
 21
2.354940029
  0
ARC
  5
314
100
AcDbEntity
  8
0
100
AcDbCircle
 62
7
  6
CONTINUOUS
 10
17.7859709414
 20
2.3549400272
 40
0.0024749995
100
AcDbArc
 50
269.9999571957
 51
0.0000428043
  0
LINE
  5
315
100
AcDbEntity
  8
0
100
AcDbLine
 62
7
  6
CONTINUOUS
 10
17.7859709395
 20
2.3524650276
 11
17.7117648984
 21
2.3524650276
  0
ARC
  5
316
100
AcDbEntity
  8
0
100
AcDbCircle
 62
7
  6
CONTINUOUS
 10
17.7117647636
 20
2.3549391954
 40
0.0024741678
100
AcDbArc
 50
226.3477981898
 51
270.0031206038
  0
LINE
  5
317
100
AcDbEntity
  8
0
100
AcDbLine
 62
7
  6
CONTINUOUS
 10
17.7100568974
 20
2.353149028
 11
17.6467768624
 21
2.4135270615
  0
ARC
  5
318
100
AcDbEntity
  8
0
100
AcDbCircle
 62
7
  6
CONTINUOUS
 10
17.6450681614
 20
2.4117361237
 40
0.0024753014
100
AcDbArc
 50
46.3461263058
 51
180.0014637321
  0
LINE
  5
319
100
AcDbEntity
  8
0
100
AcDbLine
 62
7
  6
CONTINUOUS
 10
17.64259286
 20
2.4117360605
 11
17.64259286
 21
2.3796900427
  0
ARC
  5
31A
100
AcDbEntity
  8
0
100
AcDbCircle
 62
7
  6
CONTINUOUS
 10
17.6450678596
 20
2.3796900409
 40
0.0024749995
100
AcDbArc
 50
179.9999571957
 51
270.0000428043
  0
LINE
  5
31B
100
AcDbEntity
  8
0
100
AcDbLine
 62
7
  6
CONTINUOUS
 10
17.6450678614
 20
2.3772150414
 11
17.6653848727
 21
2.3772150414
  0
ARC
  5
31C
100
AcDbEntity
  8
0
100
AcDbCircle
 62
7
  6
CONTINUOUS
 10
17.6653848745
 20
2.3747400418
 40
0.0024749995
100
AcDbArc
 50
359.9999571957
 51
90.0000428043
  0
LINE
  5
31D
100
AcDbEntity
  8
0
100
AcDbLine
 62
7
  6
CONTINUOUS
 10
17.667859874
 20
2.37474004
 11
17.667859874
 21
2.354940029
  0
ARC
  5
31E
100
AcDbEntity
  8
0
100
AcDbCircle
 62
7
  6
CONTINUOUS
 10
17.6653848745
 20
2.3549400272
 40
0.0024749995
100
AcDbArc
 50
269.9999571957
 51
0.0000428043
  0
LINE
  5
31F
100
AcDbEntity
  8
0
100
AcDbLine
 62
7
  6
CONTINUOUS
 10
17.6653848727
 20
2.3524650276
 11
17.5897208307
 21
2.3524650276
  0
ARC
  5
320
100
AcDbEntity
  8
0
100
AcDbCircle
 62
7
  6
CONTINUOUS
 10
17.5897208289
 20
2.3549400272
 40
0.0024749995
100
AcDbArc
 50
179.9999571957
 51
270.0000428043
  0
LINE
  5
321
100
AcDbEntity
  8
0
100
AcDbLine
 62
7
  6
CONTINUOUS
 10
17.5872458293
 20
2.354940029
 11
17.5872458293
 21
2.37474004
  0
ARC
  5
322
100
AcDbEntity
  8
0
100
AcDbCircle
 62
7
  6
CONTINUOUS
 10
17.5897208289
 20
2.3747400418
 40
0.0024749995
100
AcDbArc
 50
89.9999571957
 51
180.0000428043
  0
LINE
  5
323
100
AcDbEntity
  8
0
100
AcDbLine
 62
7
  6
CONTINUOUS
 10
17.5897208307
 20
2.3772150414
 11
17.6083668411
 21
2.3772150414
  0
ARC
  5
324
100
AcDbEntity
  8
0
100
AcDbCircle
 62
7
  6
CONTINUOUS
 10
17.6083668429
 20
2.3796900409
 40
0.0024749995
100
AcDbArc
 50
269.9999571957
 51
0.0000428043
  0
LINE
  5
325
100
AcDbEntity
  8
0
100
AcDbLine
 62
7
  6
CONTINUOUS
 10
17.6108418424
 20
2.3796900427
 11
17.6108418424
 21
2.4260450684
  0
ARC
  5
326
100
AcDbEntity
  8
0
100
AcDbCircle
 62
7
  6
CONTINUOUS
 10
17.6083668429
 20
2.4260450703
 40
0.0024749995
100
AcDbArc
 50
359.9999571957
 51
90.0000428043
  0
LINE
  5
327
100
AcDbEntity
  8
0
100
AcDbLine
 62
7
  6
CONTINUOUS
 10
17.6083668411
 20
2.4285200698
 11
17.5897208307
 21
2.4285200698
  0
ARC
  5
328
100
AcDbEntity
  8
0
100
AcDbCircle
 62
7
  6
CONTINUOUS
 10
17.5897208289
 20
2.4309950693
 40
0.0024749995
100
AcDbArc
 50
179.9999571957
 51
270.0000428043
  0
LINE
  5
329
100
AcDbEntity
  8
0
100
AcDbLine
 62
7
  6
CONTINUOUS
 10
17.5872458293
 20
2.4309950712
 11
17.5872458293
 21
2.4507950822
  0
ARC
  5
32A
100
AcDbEntity
  8
0
100
AcDbCircle
 62
7
  6
CONTINUOUS
 10
17.5897208289
 20
2.450795084
 40
0.0024749995
100
AcDbArc
 50
89.9999571957
 51
180.0000428043
  0
LINE
  5
32B
100
AcDbEntity
  8
0
100
AcDbLine
 62
7
  6
CONTINUOUS
 10
17.9625500375
 20
2.3937150505
 11
17.927383018
 21
2.3937150505
  0
ARC
  5
32C
100
AcDbEntity
  8
0
100
AcDbCircle
 62
7
  6
CONTINUOUS
 10
17.9273830161
 20
2.391240051
 40
0.0024749995
100
AcDbArc
 50
89.9999571957
 51
180.0000428043
  0
LINE
  5
32D
100
AcDbEntity
  8
0
100
AcDbLine
 62
7
  6
CONTINUOUS
 10
17.9249080166
 20
2.3912400491
 11
17.9249080166
 21
2.3796900427
  0
ARC
  5
32E
100
AcDbEntity
  8
0
100
AcDbCircle
 62
7
  6
CONTINUOUS
 10
17.9273830161
 20
2.3796900409
 40
0.0024749995
100
AcDbArc
 50
179.9999571957
 51
270.0000428043
  0
LINE
  5
32F
100
AcDbEntity
  8
0
100
AcDbLine
 62
7
  6
CONTINUOUS
 10
17.927383018
 20
2.3772150414
 11
17.992387054
 21
2.3772150414
  0
ARC
  5
330
100
AcDbEntity
  8
0
100
AcDbCircle
 62
7
  6
CONTINUOUS
 10
17.9923870559
 20
2.3796900409
 40
0.0024749995
100
AcDbArc
 50
269.9999571957
 51
0.0000428043
  0
LINE
  5
331
100
AcDbEntity
  8
0
100
AcDbLine
 62
7
  6
CONTINUOUS
 10
17.9948620554
 20
2.3796900427
 11
17.9948620554
 21
2.3879400473
  0
ARC
  5
332
100
AcDbEntity
  8
0
100
AcDbCircle
 62
7
  6
CONTINUOUS
 10
17.9973370549
 20
2.3879400492
 40
0.0024749995
100
AcDbArc
 50
89.9999571957
 51
180.0000428043
  0
LINE
  5
333
100
AcDbEntity
  8
0
100
AcDbLine
 62
7
  6
CONTINUOUS
 10
17.9973370568
 20
2.3904150487
 11
18.0396560802
 21
2.3904150487
  0
ARC
  5
334
100
AcDbEntity
  8
0
100
AcDbCircle
 62
7
  6
CONTINUOUS
 10
18.0396560821
 20
2.3879400492
 40
0.0024749995
100
AcDbArc
 50
359.9999571957
 51
90.0000428043
  0
LINE
  5
335
100
AcDbEntity
  8
0
100
AcDbLine
 62
7
  6
CONTINUOUS
 10
18.0421310816
 20
2.3879400473
 11
18.0421310816
 21
2.354940029
  0
ARC
  5
336
100
AcDbEntity
  8
0
100
AcDbCircle
 62
7
  6
CONTINUOUS
 10
18.0396560821
 20
2.3549400272
 40
0.0024749995
100
AcDbArc
 50
269.9999571957
 51
0.0000428043
  0
LINE
  5
337
100
AcDbEntity
  8
0
100
AcDbLine
 62
7
  6
CONTINUOUS
 10
18.0396560802
 20
2.3524650276
 11
17.8364439675
 21
2.3524650276
  0
ARC
  5
338
100
AcDbEntity
  8
0
100
AcDbCircle
 62
7
  6
CONTINUOUS
 10
17.8364439657
 20
2.3549400272
 40
0.0024749995
100
AcDbArc
 50
179.9999571957
 51
270.0000428043
  0
LINE
  5
339
100
AcDbEntity
  8
0
100
AcDbLine
 62
7
  6
CONTINUOUS
 10
17.8339689662
 20
2.354940029
 11
17.8339689662
 21
2.37474004
  0
ARC
  5
33A
100
AcDbEntity
  8
0
100
AcDbCircle
 62
7
  6
CONTINUOUS
 10
17.8364439657
 20
2.3747400418
 40
0.0024749995
100
AcDbArc
 50
89.9999571957
 51
180.0000428043
  0
LINE
  5
33B
100
AcDbEntity
  8
0
100
AcDbLine
 62
7
  6
CONTINUOUS
 10
17.8364439675
 20
2.3772150414
 11
17.8603669808
 21
2.3772150414
  0
ARC
  5
33C
100
AcDbEntity
  8
0
100
AcDbCircle
 62
7
  6
CONTINUOUS
 10
17.8603669827
 20
2.3796900409
 40
0.0024749995
100
AcDbArc
 50
269.9999571956
 51
0.0000428042
  0
LINE
  5
33D
100
AcDbEntity
  8
0
100
AcDbLine
 62
7
  6
CONTINUOUS
 10
17.8628419822
 20
2.3796900427
 11
17.8628419822
 21
2.4260450684
  0
ARC
  5
33E
100
AcDbEntity
  8
0
100
AcDbCircle
 62
7
  6
CONTINUOUS
 10
17.8603669827
 20
2.4260450703
 40
0.0024749995
100
AcDbArc
 50
359.9999571957
 51
90.0000428043
  0
LINE
  5
33F
100
AcDbEntity
  8
0
100
AcDbLine
 62
7
  6
CONTINUOUS
 10
17.8603669808
 20
2.4285200698
 11
17.8364439675
 21
2.4285200698
  0
ARC
  5
340
100
AcDbEntity
  8
0
100
AcDbCircle
 62
7
  6
CONTINUOUS
 10
17.8364439657
 20
2.4309950693
 40
0.0024749995
100
AcDbArc
 50
179.9999571957
 51
270.0000428043
  0
LINE
  5
341
100
AcDbEntity
  8
0
100
AcDbLine
 62
7
  6
CONTINUOUS
 10
17.8339689662
 20
2.4309950712
 11
17.8339689662
 21
2.4507950822
  0
ARC
  5
342
100
AcDbEntity
  8
0
100
AcDbCircle
 62
7
  6
CONTINUOUS
 10
17.8364439657
 20
2.450795084
 40
0.0024749995
100
AcDbArc
 50
89.9999571957
 51
180.0000428043
  0
LINE
  5
343
100
AcDbEntity
  8
0
100
AcDbLine
 62
7
  6
CONTINUOUS
 10
17.8364439675
 20
2.4532700835
 11
18.0382370794
 21
2.4532700835
  0
ARC
  5
344
100
AcDbEntity
  8
0
100
AcDbCircle
 62
7
  6
CONTINUOUS
 10
18.0382370813
 20
2.450795084
 40
0.0024749995
100
AcDbArc
 50
359.9999571957
 51
90.0000428043
  0
LINE
  5
345
100
AcDbEntity
  8
0
100
AcDbLine
 62
7
  6
CONTINUOUS
 10
18.0407120808
 20
2.4507950822
 11
18.0407120808
 21
2.4177950639
  0
ARC
  5
346
100
AcDbEntity
  8
0
100
AcDbCircle
 62
7
  6
CONTINUOUS
 10
18.0382370813
 20
2.417795062
 40
0.0024749995
100
AcDbArc
 50
269.9999571957
 51
0.0000428043
  0
LINE
  5
347
100
AcDbEntity
  8
0
100
AcDbLine
 62
7
  6
CONTINUOUS
 10
18.0382370794
 20
2.4153200625
 11
17.9963730562
 21
2.4153200625
  0
ARC
  5
348
100
AcDbEntity
  8
0
100
AcDbCircle
 62
7
  6
CONTINUOUS
 10
17.9963730544
 20
2.417795062
 40
0.0024749995
100
AcDbArc
 50
179.9999571957
 51
270.0000428043
  0
LINE
  5
349
100
AcDbEntity
  8
0
100
AcDbLine
 62
7
  6
CONTINUOUS
 10
17.9938980549
 20
2.4177950639
 11
17.9938980549
 21
2.4260450684
  0
ARC
  5
34A
100
AcDbEntity
  8
0
100
AcDbCircle
 62
7
  6
CONTINUOUS
 10
17.9914230553
 20
2.4260450703
 40
0.0024749995
100
AcDbArc
 50
359.9999571957
 51
90.0000428043
  0
LINE
  5
34B
100
AcDbEntity
  8
0
100
AcDbLine
 62
7
  6
CONTINUOUS
 10
17.9914230535
 20
2.4285200698
 11
17.927383018
 21
2.4285200698
  0
ARC
  5
34C
100
AcDbEntity
  8
0
100
AcDbCircle
 62
7
  6
CONTINUOUS
 10
17.9273830161
 20
2.4260450703
 40
0.0024749995
100
AcDbArc
 50
89.9999571957
 51
180.0000428043
  0
LINE
  5
34D
100
AcDbEntity
  8
0
100
AcDbLine
 62
7
  6
CONTINUOUS
 10
17.9249080166
 20
2.4260450684
 11
17.9249080166
 21
2.414495062
  0
ARC
  5
34E
100
AcDbEntity
  8
0
100
AcDbCircle
 62
7
  6
CONTINUOUS
 10
17.9273830161
 20
2.4144950602
 40
0.0024749995
100
AcDbArc
 50
179.9999571957
 51
270.0000428043
  0
LINE
  5
34F
100
AcDbEntity
  8
0
100
AcDbLine
 62
7
  6
CONTINUOUS
 10
17.927383018
 20
2.4120200607
 11
17.9625500375
 21
2.4120200607
  0
ARC
  5
350
100
AcDbEntity
  8
0
100
AcDbCircle
 62
7
  6
CONTINUOUS
 10
17.9625500393
 20
2.4095450611
 40
0.0024749995
100
AcDbArc
 50
359.9999571957
 51
90.0000428043
  0
LINE
  5
351
100
AcDbEntity
  8
0
100
AcDbLine
 62
7
  6
CONTINUOUS
 10
17.9650250388
 20
2.4095450593
 11
17.9650250388
 21
2.3961900519
  0
ARC
  5
352
100
AcDbEntity
  8
0
100
AcDbCircle
 62
7
  6
CONTINUOUS
 10
17.9625500393
 20
2.39619005
 40
0.0024749995
100
AcDbArc
 50
269.9999571956
 51
0.0000428042
  0
LINE
  5
353
100
AcDbEntity
  8
0
100
AcDbLine
 62
7
  6
CONTINUOUS
 10
18.39781452
 20
2.3963074516
 11
18.39781452
 21
2.4069246582
  0
LINE
  5
354
100
AcDbEntity
  8
0
100
AcDbLine
 62
7
  6
CONTINUOUS
 10
18.3778145089
 20
2.3616679219
 11
18.3778145089
 21
2.4415641879
  0
LINE
  5
355
100
AcDbEntity
  8
0
100
AcDbLine
 62
7
  6
CONTINUOUS
 10
18.3578144978
 20
2.345629656
 11
18.3578144978
 21
2.4576024538
  0
LINE
  5
356
100
AcDbEntity
  8
0
100
AcDbLine
 62
7
  6
CONTINUOUS
 10
18.3378144867
 20
2.3338395042
 11
18.3378144867
 21
2.4693926055
  0
LINE
  5
357
100
AcDbEntity
  8
0
100
AcDbLine
 62
7
  6
CONTINUOUS
 10
18.3178144756
 20
2.3240439832
 11
18.3178144756
 21
2.4791881266
  0
LINE
  5
358
100
AcDbEntity
  8
0
100
AcDbLine
 62
7
  6
CONTINUOUS
 10
18.2978144645
 20
2.3153630651
 11
18.2978144645
 21
2.36748602
  0
LINE
  5
359
100
AcDbEntity
  8
0
100
AcDbLine
 62
7
  6
CONTINUOUS
 10
18.2978144645
 20
2.3913520492
 11
18.2978144645
 21
2.4878690447
  0
LINE
  5
35A
100
AcDbEntity
  8
0
100
AcDbLine
 62
7
  6
CONTINUOUS
 10
18.2778144535
 20
2.3077915047
 11
18.2778144535
 21
2.3531152062
  0
LINE
  5
35B
100
AcDbEntity
  8
0
100
AcDbLine
 62
7
  6
CONTINUOUS
 10
18.2778144535
 20
2.3778158317
 11
18.2778144535
 21
2.4954406051
  0
LINE
  5
35C
100
AcDbEntity
  8
0
100
AcDbLine
 62
7
  6
CONTINUOUS
 10
18.2578144424
 20
2.301041061
 11
18.2578144424
 21
2.3524650276
  0
LINE
  5
35D
100
AcDbEntity
  8
0
100
AcDbLine
 62
7
  6
CONTINUOUS
 10
18.2578144424
 20
2.4004217989
 11
18.2578144424
 21
2.4066675471
  0
LINE
  5
35E
100
AcDbEntity
  8
0
100
AcDbLine
 62
7
  6
CONTINUOUS
 10
18.2578144424
 20
2.4474440616
 11
18.2578144424
 21
2.5021910487
  0
LINE
  5
35F
100
AcDbEntity
  8
0
100
AcDbLine
 62
7
  6
CONTINUOUS
 10
18.2378144313
 20
2.2947079333
 11
18.2378144313
 21
2.3524650276
  0
LINE
  5
360
100
AcDbEntity
  8
0
100
AcDbLine
 62
7
  6
CONTINUOUS
 10
18.2378144313
 20
2.4518964909
 11
18.2378144313
 21
2.5085241764
  0
LINE
  5
361
100
AcDbEntity
  8
0
100
AcDbLine
 62
7
  6
CONTINUOUS
 10
18.2178144202
 20
2.2891345268
 11
18.2178144202
 21
2.354983815
  0
LINE
  5
362
100
AcDbEntity
  8
0
100
AcDbLine
 62
7
  6
CONTINUOUS
 10
18.2178144202
 20
2.4532700835
 11
18.2178144202
 21
2.514097583
  0
LINE
  5
363
100
AcDbEntity
  8
0
100
AcDbLine
 62
7
  6
CONTINUOUS
 10
18.1978144091
 20
2.2837804818
 11
18.1978144091
 21
2.3882804137
  0
LINE
  5
364
100
AcDbEntity
  8
0
100
AcDbLine
 62
7
  6
CONTINUOUS
 10
18.1978144091
 20
2.4117543403
 11
18.1978144091
 21
2.4281034235
  0
LINE
  5
365
100
AcDbEntity
  8
0
100
AcDbLine
 62
7
  6
CONTINUOUS
 10
18.1978144091
 20
2.4532700835
 11
18.1978144091
 21
2.519451628
  0
LINE
  5
366
100
AcDbEntity
  8
0
100
AcDbLine
 62
7
  6
CONTINUOUS
 10
18.177814398
 20
2.2789683935
 11
18.177814398
 21
2.3524650276
  0
LINE
  5
367
100
AcDbEntity
  8
0
100
AcDbLine
 62
7
  6
CONTINUOUS
 10
18.177814398
 20
2.3771930413
 11
18.177814398
 21
2.3918420495
  0
LINE
  5
368
100
AcDbEntity
  8
0
100
AcDbLine
 62
7
  6
CONTINUOUS
 10
18.177814398
 20
2.41084506
 11
18.177814398
 21
2.4285200698
  0
LINE
  5
369
100
AcDbEntity
  8
0
100
AcDbLine
 62
7
  6
CONTINUOUS
 10
18.177814398
 20
2.4532700835
 11
18.177814398
 21
2.5242637163
  0
LINE
  5
36A
100
AcDbEntity
  8
0
100
AcDbLine
 62
7
  6
CONTINUOUS
 10
18.1578143869
 20
2.2744172398
 11
18.1578143869
 21
2.3524650276
  0
LINE
  5
36B
100
AcDbEntity
  8
0
100
AcDbLine
 62
7
  6
CONTINUOUS
 10
18.1578143869
 20
2.3771930413
 11
18.1578143869
 21
2.3918420495
  0
LINE
  5
36C
100
AcDbEntity
  8
0
100
AcDbLine
 62
7
  6
CONTINUOUS
 10
18.1578143869
 20
2.41084506
 11
18.1578143869
 21
2.4285200698
  0
LINE
  5
36D
100
AcDbEntity
  8
0
100
AcDbLine
 62
7
  6
CONTINUOUS
 10
18.1578143869
 20
2.4532700835
 11
18.1578143869
 21
2.5288148699
  0
LINE
  5
36E
100
AcDbEntity
  8
0
100
AcDbLine
 62
7
  6
CONTINUOUS
 10
18.1378143758
 20
2.2701196816
 11
18.1378143758
 21
2.3524650276
  0
LINE
  5
36F
100
AcDbEntity
  8
0
100
AcDbLine
 62
7
  6
CONTINUOUS
 10
18.1378143758
 20
2.4532700835
 11
18.1378143758
 21
2.5331124282
  0
LINE
  5
370
100
AcDbEntity
  8
0
100
AcDbLine
 62
7
  6
CONTINUOUS
 10
18.1178143647
 20
2.2662469216
 11
18.1178143647
 21
2.3524650276
  0
LINE
  5
371
100
AcDbEntity
  8
0
100
AcDbLine
 62
7
  6
CONTINUOUS
 10
18.1178143647
 20
2.4532700835
 11
18.1178143647
 21
2.5369851882
  0
LINE
  5
372
100
AcDbEntity
  8
0
100
AcDbLine
 62
7
  6
CONTINUOUS
 10
18.0978143536
 20
2.2623741615
 11
18.0978143536
 21
2.3524650276
  0
LINE
  5
373
100
AcDbEntity
  8
0
100
AcDbLine
 62
7
  6
CONTINUOUS
 10
18.0978143536
 20
2.4532700835
 11
18.0978143536
 21
2.5408579483
  0
LINE
  5
374
100
AcDbEntity
  8
0
100
AcDbLine
 62
7
  6
CONTINUOUS
 10
18.0778143425
 20
2.2592603806
 11
18.0778143425
 21
2.3524650276
  0
LINE
  5
375
100
AcDbEntity
  8
0
100
AcDbLine
 62
7
  6
CONTINUOUS
 10
18.0778143425
 20
2.3772150414
 11
18.0778143425
 21
2.4285200698
  0
LINE
  5
376
100
AcDbEntity
  8
0
100
AcDbLine
 62
7
  6
CONTINUOUS
 10
18.0778143425
 20
2.4532700835
 11
18.0778143425
 21
2.5439717292
  0
LINE
  5
377
100
AcDbEntity
  8
0
100
AcDbLine
 62
7
  6
CONTINUOUS
 10
18.0578143315
 20
2.2562429918
 11
18.0578143315
 21
2.546989118
  0
LINE
  5
378
100
AcDbEntity
  8
0
100
AcDbLine
 62
7
  6
CONTINUOUS
 10
18.0378143204
 20
2.2532256029
 11
18.0378143204
 21
2.3524650276
  0
LINE
  5
379
100
AcDbEntity
  8
0
100
AcDbLine
 62
7
  6
CONTINUOUS
 10
18.0378143204
 20
2.3904150487
 11
18.0378143204
 21
2.4153200625
  0
LINE
  5
37A
100
AcDbEntity
  8
0
100
AcDbLine
 62
7
  6
CONTINUOUS
 10
18.0378143204
 20
2.4532700835
 11
18.0378143204
 21
2.5500065068
  0
LINE
  5
37B
100
AcDbEntity
  8
0
100
AcDbLine
 62
7
  6
CONTINUOUS
 10
18.0178143093
 20
2.2502082141
 11
18.0178143093
 21
2.3524650276
  0
LINE
  5
37C
100
AcDbEntity
  8
0
100
AcDbLine
 62
7
  6
CONTINUOUS
 10
18.0178143093
 20
2.3904150487
 11
18.0178143093
 21
2.4153200625
  0
LINE
  5
37D
100
AcDbEntity
  8
0
100
AcDbLine
 62
7
  6
CONTINUOUS
 10
18.0178143093
 20
2.4532700835
 11
18.0178143093
 21
2.5530238957
  0
LINE
  5
37E
100
AcDbEntity
  8
0
100
AcDbLine
 62
7
  6
CONTINUOUS
 10
17.9978142982
 20
2.2471908253
 11
17.9978142982
 21
2.3524650276
  0
LINE
  5
37F
100
AcDbEntity
  8
0
100
AcDbLine
 62
7
  6
CONTINUOUS
 10
17.9978142982
 20
2.3904150487
 11
17.9978142982
 21
2.4153200625
  0
LINE
  5
380
100
AcDbEntity
  8
0
100
AcDbLine
 62
7
  6
CONTINUOUS
 10
17.9978142982
 20
2.4532700835
 11
17.9978142982
 21
2.5560412845
  0
LINE
  5
381
100
AcDbEntity
  8
0
100
AcDbLine
 62
7
  6
CONTINUOUS
 10
17.9778142871
 20
2.2445732581
 11
17.9778142871
 21
2.3524650276
  0
LINE
  5
382
100
AcDbEntity
  8
0
100
AcDbLine
 62
7
  6
CONTINUOUS
 10
17.9778142871
 20
2.3772150414
 11
17.9778142871
 21
2.4285200698
  0
LINE
  5
383
100
AcDbEntity
  8
0
100
AcDbLine
 62
7
  6
CONTINUOUS
 10
17.9778142871
 20
2.4532700835
 11
17.9778142871
 21
2.5586588517
  0
LINE
  5
384
100
AcDbEntity
  8
0
100
AcDbLine
 62
7
  6
CONTINUOUS
 10
17.957814276
 20
2.2424989828
 11
17.957814276
 21
2.3524650276
  0
LINE
  5
385
100
AcDbEntity
  8
0
100
AcDbLine
 62
7
  6
CONTINUOUS
 10
17.957814276
 20
2.3772150414
 11
17.957814276
 21
2.3937150505
  0
LINE
  5
386
100
AcDbEntity
  8
0
100
AcDbLine
 62
7
  6
CONTINUOUS
 10
17.957814276
 20
2.4120200607
 11
17.957814276
 21
2.4285200698
  0
LINE
  5
387
100
AcDbEntity
  8
0
100
AcDbLine
 62
7
  6
CONTINUOUS
 10
17.957814276
 20
2.4532700835
 11
17.957814276
 21
2.5607331269
  0
LINE
  5
388
100
AcDbEntity
  8
0
100
AcDbLine
 62
7
  6
CONTINUOUS
 10
17.9378142649
 20
2.2404247076
 11
17.9378142649
 21
2.3524650276
  0
LINE
  5
389
100
AcDbEntity
  8
0
100
AcDbLine
 62
7
  6
CONTINUOUS
 10
17.9378142649
 20
2.3772150414
 11
17.9378142649
 21
2.3937150505
  0
LINE
  5
38A
100
AcDbEntity
  8
0
100
AcDbLine
 62
7
  6
CONTINUOUS
 10
17.9378142649
 20
2.4120200607
 11
17.9378142649
 21
2.4285200698
  0
LINE
  5
38B
100
AcDbEntity
  8
0
100
AcDbLine
 62
7
  6
CONTINUOUS
 10
17.9378142649
 20
2.4532700835
 11
17.9378142649
 21
2.5628074022
  0
LINE
  5
38C
100
AcDbEntity
  8
0
100
AcDbLine
 62
7
  6
CONTINUOUS
 10
17.9178142538
 20
2.2383504324
 11
17.9178142538
 21
2.3524650276
  0
LINE
  5
38D
100
AcDbEntity
  8
0
100
AcDbLine
 62
7
  6
CONTINUOUS
 10
17.9178142538
 20
2.4532700835
 11
17.9178142538
 21
2.5648816774
  0
LINE
  5
38E
100
AcDbEntity
  8
0
100
AcDbLine
 62
7
  6
CONTINUOUS
 10
17.8978142427
 20
2.2362761572
 11
17.8978142427
 21
2.3524650276
  0
LINE
  5
38F
100
AcDbEntity
  8
0
100
AcDbLine
 62
7
  6
CONTINUOUS
 10
17.8978142427
 20
2.4532700835
 11
17.8978142427
 21
2.5669559526
  0
LINE
  5
390
100
AcDbEntity
  8
0
100
AcDbLine
 62
7
  6
CONTINUOUS
 10
17.8778142316
 20
2.234201882
 11
17.8778142316
 21
2.3524650276
  0
LINE
  5
391
100
AcDbEntity
  8
0
100
AcDbLine
 62
7
  6
CONTINUOUS
 10
17.8778142316
 20
2.4532700835
 11
17.8778142316
 21
2.5690302278
  0
LINE
  5
392
100
AcDbEntity
  8
0
100
AcDbLine
 62
7
  6
CONTINUOUS
 10
17.8578142205
 20
2.23247216
 11
17.8578142205
 21
2.3524650276
  0
LINE
  5
393
100
AcDbEntity
  8
0
100
AcDbLine
 62
7
  6
CONTINUOUS
 10
17.8578142205
 20
2.3772150414
 11
17.8578142205
 21
2.4285200698
  0
LINE
  5
394
100
AcDbEntity
  8
0
100
AcDbLine
 62
7
  6
CONTINUOUS
 10
17.8578142205
 20
2.4532700835
 11
17.8578142205
 21
2.5707599498
  0
LINE
  5
395
100
AcDbEntity
  8
0
100
AcDbLine
 62
7
  6
CONTINUOUS
 10
17.8378142094
 20
2.2312059562
 11
17.8378142094
 21
2.3524650276
  0
LINE
  5
396
100
AcDbEntity
  8
0
100
AcDbLine
 62
7
  6
CONTINUOUS
 10
17.8378142094
 20
2.3772150414
 11
17.8378142094
 21
2.4285200698
  0
LINE
  5
397
100
AcDbEntity
  8
0
100
AcDbLine
 62
7
  6
CONTINUOUS
 10
17.8378142094
 20
2.4532700835
 11
17.8378142094
 21
2.5720261536
  0
LINE
  5
398
100
AcDbEntity
  8
0
100
AcDbLine
 62
7
  6
CONTINUOUS
 10
17.8178141984
 20
2.2299397525
 11
17.8178141984
 21
2.5732923573
  0
LINE
  5
399
100
AcDbEntity
  8
0
100
AcDbLine
 62
7
  6
CONTINUOUS
 10
17.7978141873
 20
2.2286735487
 11
17.7978141873
 21
2.4285200698
  0
LINE
  5
39A
100
AcDbEntity
  8
0
100
AcDbLine
 62
7
  6
CONTINUOUS
 10
17.7978141873
 20
2.4532700835
 11
17.7978141873
 21
2.574558561
  0
LINE
  5
39B
100
AcDbEntity
  8
0
100
AcDbLine
 62
7
  6
CONTINUOUS
 10
17.7778141762
 20
2.227407345
 11
17.7778141762
 21
2.3524650276
  0
LINE
  5
39C
100
AcDbEntity
  8
0
100
AcDbLine
 62
7
  6
CONTINUOUS
 10
17.7778141762
 20
2.4532700835
 11
17.7778141762
 21
2.5758247648
  0
LINE
  5
39D
100
AcDbEntity
  8
0
100
AcDbLine
 62
7
  6
CONTINUOUS
 10
17.7578141651
 20
2.2261411413
 11
17.7578141651
 21
2.3524650276
  0
LINE
  5
39E
100
AcDbEntity
  8
0
100
AcDbLine
 62
7
  6
CONTINUOUS
 10
17.7578141651
 20
2.4532700835
 11
17.7578141651
 21
2.5770909685
  0
LINE
  5
39F
100
AcDbEntity
  8
0
100
AcDbLine
 62
7
  6
CONTINUOUS
 10
17.737814154
 20
2.2249117066
 11
17.737814154
 21
2.3524650276
  0
LINE
  5
3A0
100
AcDbEntity
  8
0
100
AcDbLine
 62
7
  6
CONTINUOUS
 10
17.737814154
 20
2.4087649542
 11
17.737814154
 21
2.4285200698
  0
LINE
  5
3A1
100
AcDbEntity
  8
0
100
AcDbLine
 62
7
  6
CONTINUOUS
 10
17.737814154
 20
2.4532700835
 11
17.737814154
 21
2.5783204031
  0
LINE
  5
3A2
100
AcDbEntity
  8
0
100
AcDbLine
 62
7
  6
CONTINUOUS
 10
17.7178141429
 20
2.2243809174
 11
17.7178141429
 21
2.3524650276
  0
LINE
  5
3A3
100
AcDbEntity
  8
0
100
AcDbLine
 62
7
  6
CONTINUOUS
 10
17.7178141429
 20
2.4278478026
 11
17.7178141429
 21
2.5788511924
  0
LINE
  5
3A4
100
AcDbEntity
  8
0
100
AcDbLine
 62
7
  6
CONTINUOUS
 10
17.6978141318
 20
2.2238501282
 11
17.6978141318
 21
2.3648303444
  0
LINE
  5
3A5
100
AcDbEntity
  8
0
100
AcDbLine
 62
7
  6
CONTINUOUS
 10
17.6978141318
 20
2.446930651
 11
17.6978141318
 21
2.5793819816
  0
LINE
  5
3A6
100
AcDbEntity
  8
0
100
AcDbLine
 62
7
  6
CONTINUOUS
 10
17.6778141207
 20
2.223319339
 11
17.6778141207
 21
2.3839131616
  0
LINE
  5
3A7
100
AcDbEntity
  8
0
100
AcDbLine
 62
7
  6
CONTINUOUS
 10
17.6778141207
 20
2.4532700835
 11
17.6778141207
 21
2.5799127708
  0
LINE
  5
3A8
100
AcDbEntity
  8
0
100
AcDbLine
 62
7
  6
CONTINUOUS
 10
17.6578141096
 20
2.2227885498
 11
17.6578141096
 21
2.3524650276
  0
LINE
  5
3A9
100
AcDbEntity
  8
0
100
AcDbLine
 62
7
  6
CONTINUOUS
 10
17.6578141096
 20
2.3772150414
 11
17.6578141096
 21
2.4029959788
  0
LINE
  5
3AA
100
AcDbEntity
  8
0
100
AcDbLine
 62
7
  6
CONTINUOUS
 10
17.6578141096
 20
2.4532700835
 11
17.6578141096
 21
2.58044356
  0
LINE
  5
3AB
100
AcDbEntity
  8
0
100
AcDbLine
 62
7
  6
CONTINUOUS
 10
17.6378140985
 20
2.2222577606
 11
17.6378140985
 21
2.3524650276
  0
LINE
  5
3AC
100
AcDbEntity
  8
0
100
AcDbLine
 62
7
  6
CONTINUOUS
 10
17.6378140985
 20
2.4532700835
 11
17.6378140985
 21
2.5809743492
  0
LINE
  5
3AD
100
AcDbEntity
  8
0
100
AcDbLine
 62
7
  6
CONTINUOUS
 10
17.6178140874
 20
2.2217269714
 11
17.6178140874
 21
2.3524650276
  0
LINE
  5
3AE
100
AcDbEntity
  8
0
100
AcDbLine
 62
7
  6
CONTINUOUS
 10
17.6178140874
 20
2.4532700835
 11
17.6178140874
 21
2.5815051384
  0
LINE
  5
3AF
100
AcDbEntity
  8
0
100
AcDbLine
 62
7
  6
CONTINUOUS
 10
17.5978140764
 20
2.2215213152
 11
17.5978140764
 21
2.3524650276
  0
LINE
  5
3B0
100
AcDbEntity
  8
0
100
AcDbLine
 62
7
  6
CONTINUOUS
 10
17.5978140764
 20
2.3772150414
 11
17.5978140764
 21
2.4285200698
  0
LINE
  5
3B1
100
AcDbEntity
  8
0
100
AcDbLine
 62
7
  6
CONTINUOUS
 10
17.5978140764
 20
2.4532700835
 11
17.5978140764
 21
2.5817107946
  0
LINE
  5
3B2
100
AcDbEntity
  8
0
100
AcDbLine
 62
7
  6
CONTINUOUS
 10
17.5778140653
 20
2.2216974783
 11
17.5778140653
 21
2.5815346315
  0
LINE
  5
3B3
100
AcDbEntity
  8
0
100
AcDbLine
 62
7
  6
CONTINUOUS
 10
17.5578140542
 20
2.2218736414
 11
17.5578140542
 21
2.4285200698
  0
LINE
  5
3B4
100
AcDbEntity
  8
0
100
AcDbLine
 62
7
  6
CONTINUOUS
 10
17.5578140542
 20
2.4532700835
 11
17.5578140542
 21
2.5813584684
  0
LINE
  5
3B5
100
AcDbEntity
  8
0
100
AcDbLine
 62
7
  6
CONTINUOUS
 10
17.5378140431
 20
2.2220498045
 11
17.5378140431
 21
2.3524700714
  0
LINE
  5
3B6
100
AcDbEntity
  8
0
100
AcDbLine
 62
7
  6
CONTINUOUS
 10
17.5378140431
 20
2.4532700835
 11
17.5378140431
 21
2.5811823053
  0
LINE
  5
3B7
100
AcDbEntity
  8
0
100
AcDbLine
 62
7
  6
CONTINUOUS
 10
17.517814032
 20
2.2222259676
 11
17.517814032
 21
2.3524650276
  0
LINE
  5
3B8
100
AcDbEntity
  8
0
100
AcDbLine
 62
7
  6
CONTINUOUS
 10
17.517814032
 20
2.4532700835
 11
17.517814032
 21
2.5810061422
  0
LINE
  5
3B9
100
AcDbEntity
  8
0
100
AcDbLine
 62
7
  6
CONTINUOUS
 10
17.4978140209
 20
2.2224021307
 11
17.4978140209
 21
2.3524650276
  0
LINE
  5
3BA
100
AcDbEntity
  8
0
100
AcDbLine
 62
7
  6
CONTINUOUS
 10
17.4978140209
 20
2.4008904169
 11
17.4978140209
 21
2.4285200698
  0
LINE
  5
3BB
100
AcDbEntity
  8
0
100
AcDbLine
 62
7
  6
CONTINUOUS
 10
17.4978140209
 20
2.4532700835
 11
17.4978140209
 21
2.5808299791
  0
LINE
  5
3BC
100
AcDbEntity
  8
0
100
AcDbLine
 62
7
  6
CONTINUOUS
 10
17.4778140098
 20
2.2225782938
 11
17.4778140098
 21
2.3524650276
  0
LINE
  5
3BD
100
AcDbEntity
  8
0
100
AcDbLine
 62
7
  6
CONTINUOUS
 10
17.4778140098
 20
2.4199732652
 11
17.4778140098
 21
2.580653816
  0
LINE
  5
3BE
100
AcDbEntity
  8
0
100
AcDbLine
 62
7
  6
CONTINUOUS
 10
17.4578139987
 20
2.2233466716
 11
17.4578139987
 21
2.3569558199
  0
LINE
  5
3BF
100
AcDbEntity
  8
0
100
AcDbLine
 62
7
  6
CONTINUOUS
 10
17.4578139987
 20
2.4390561136
 11
17.4578139987
 21
2.5798854382
  0
LINE
  5
3C0
100
AcDbEntity
  8
0
100
AcDbLine
 62
7
  6
CONTINUOUS
 10
17.4378139876
 20
2.2242391079
 11
17.4378139876
 21
2.3760386371
  0
LINE
  5
3C1
100
AcDbEntity
  8
0
100
AcDbLine
 62
7
  6
CONTINUOUS
 10
17.4378139876
 20
2.4532700835
 11
17.4378139876
 21
2.5789930018
  0
LINE
  5
3C2
100
AcDbEntity
  8
0
100
AcDbLine
 62
7
  6
CONTINUOUS
 10
17.4178139765
 20
2.2251315443
 11
17.4178139765
 21
2.3525640362
  0
LINE
  5
3C3
100
AcDbEntity
  8
0
100
AcDbLine
 62
7
  6
CONTINUOUS
 10
17.4178139765
 20
2.3771160328
 11
17.4178139765
 21
2.3951214543
  0
LINE
  5
3C4
100
AcDbEntity
  8
0
100
AcDbLine
 62
7
  6
CONTINUOUS
 10
17.4178139765
 20
2.4532700835
 11
17.4178139765
 21
2.5781005655
  0
LINE
  5
3C5
100
AcDbEntity
  8
0
100
AcDbLine
 62
7
  6
CONTINUOUS
 10
17.3978139654
 20
2.2260239807
 11
17.3978139654
 21
2.3524650276
  0
LINE
  5
3C6
100
AcDbEntity
  8
0
100
AcDbLine
 62
7
  6
CONTINUOUS
 10
17.3978139654
 20
2.3772150414
 11
17.3978139654
 21
2.4139978698
  0
LINE
  5
3C7
100
AcDbEntity
  8
0
100
AcDbLine
 62
7
  6
CONTINUOUS
 10
17.3978139654
 20
2.4532700835
 11
17.3978139654
 21
2.5772081291
  0
LINE
  5
3C8
100
AcDbEntity
  8
0
100
AcDbLine
 62
7
  6
CONTINUOUS
 10
17.3778139543
 20
2.226916417
 11
17.3778139543
 21
2.3524650276
  0
LINE
  5
3C9
100
AcDbEntity
  8
0
100
AcDbLine
 62
7
  6
CONTINUOUS
 10
17.3778139543
 20
2.4532700835
 11
17.3778139543
 21
2.5763156928
  0
LINE
  5
3CA
100
AcDbEntity
  8
0
100
AcDbLine
 62
7
  6
CONTINUOUS
 10
17.3578139433
 20
2.2278088534
 11
17.3578139433
 21
2.3524650276
  0
LINE
  5
3CB
100
AcDbEntity
  8
0
100
AcDbLine
 62
7
  6
CONTINUOUS
 10
17.3578139433
 20
2.3772150414
 11
17.3578139433
 21
2.4285200698
  0
LINE
  5
3CC
100
AcDbEntity
  8
0
100
AcDbLine
 62
7
  6
CONTINUOUS
 10
17.3578139433
 20
2.4532700835
 11
17.3578139433
 21
2.5754232564
  0
LINE
  5
3CD
100
AcDbEntity
  8
0
100
AcDbLine
 62
7
  6
CONTINUOUS
 10
17.3378139322
 20
2.2289481171
 11
17.3378139322
 21
2.5742839927
  0
LINE
  5
3CE
100
AcDbEntity
  8
0
100
AcDbLine
 62
7
  6
CONTINUOUS
 10
17.3178139211
 20
2.2306059865
 11
17.3178139211
 21
2.5726261233
  0
LINE
  5
3CF
100
AcDbEntity
  8
0
100
AcDbLine
 62
7
  6
CONTINUOUS
 10
17.29781391
 20
2.2322638559
 11
17.29781391
 21
2.3524650276
  0
LINE
  5
3D0
100
AcDbEntity
  8
0
100
AcDbLine
 62
7
  6
CONTINUOUS
 10
17.29781391
 20
2.3772150414
 11
17.29781391
 21
2.5709682538
  0
LINE
  5
3D1
100
AcDbEntity
  8
0
100
AcDbLine
 62
7
  6
CONTINUOUS
 10
17.2778138989
 20
2.2339217254
 11
17.2778138989
 21
2.3524650276
  0
LINE
  5
3D2
100
AcDbEntity
  8
0
100
AcDbLine
 62
7
  6
CONTINUOUS
 10
17.2778138989
 20
2.3963499423
 11
17.2778138989
 21
2.5693103844
  0
LINE
  5
3D3
100
AcDbEntity
  8
0
100
AcDbLine
 62
7
  6
CONTINUOUS
 10
17.2578138878
 20
2.2355795948
 11
17.2578138878
 21
2.3524650276
  0
LINE
  5
3D4
100
AcDbEntity
  8
0
100
AcDbLine
 62
7
  6
CONTINUOUS
 10
17.2578138878
 20
2.4272549766
 11
17.2578138878
 21
2.567652515
  0
LINE
  5
3D5
100
AcDbEntity
  8
0
100
AcDbLine
 62
7
  6
CONTINUOUS
 10
17.2378138767
 20
2.2372374642
 11
17.2378138767
 21
2.3524650276
  0
LINE
  5
3D6
100
AcDbEntity
  8
0
100
AcDbLine
 62
7
  6
CONTINUOUS
 10
17.2378138767
 20
2.4532700835
 11
17.2378138767
 21
2.5659946456
  0
LINE
  5
3D7
100
AcDbEntity
  8
0
100
AcDbLine
 62
7
  6
CONTINUOUS
 10
17.2178138656
 20
2.2389952421
 11
17.2178138656
 21
2.3524650276
  0
LINE
  5
3D8
100
AcDbEntity
  8
0
100
AcDbLine
 62
7
  6
CONTINUOUS
 10
17.2178138656
 20
2.3772150414
 11
17.2178138656
 21
2.3887495968
  0
LINE
  5
3D9
100
AcDbEntity
  8
0
100
AcDbLine
 62
7
  6
CONTINUOUS
 10
17.2178138656
 20
2.4532700835
 11
17.2178138656
 21
2.5642368677
  0
LINE
  5
3DA
100
AcDbEntity
  8
0
100
AcDbLine
 62
7
  6
CONTINUOUS
 10
17.1978138545
 20
2.2415190955
 11
17.1978138545
 21
2.3908590489
  0
LINE
  5
3DB
100
AcDbEntity
  8
0
100
AcDbLine
 62
7
  6
CONTINUOUS
 10
17.1978138545
 20
2.4118090605
 11
17.1978138545
 21
2.4279760695
  0
LINE
  5
3DC
100
AcDbEntity
  8
0
100
AcDbLine
 62
7
  6
CONTINUOUS
 10
17.1978138545
 20
2.4532700835
 11
17.1978138545
 21
2.5617130143
  0
LINE
  5
3DD
100
AcDbEntity
  8
0
100
AcDbLine
 62
7
  6
CONTINUOUS
 10
17.1778138434
 20
2.244042949
 11
17.1778138434
 21
2.3524650276
  0
LINE
  5
3DE
100
AcDbEntity
  8
0
100
AcDbLine
 62
7
  6
CONTINUOUS
 10
17.1778138434
 20
2.3772150414
 11
17.1778138434
 21
2.3892044865
  0
LINE
  5
3DF
100
AcDbEntity
  8
0
100
AcDbLine
 62
7
  6
CONTINUOUS
 10
17.1778138434
 20
2.4480979218
 11
17.1778138434
 21
2.5591891608
  0
LINE
  5
3E0
100
AcDbEntity
  8
0
100
AcDbLine
 62
7
  6
CONTINUOUS
 10
17.1578138323
 20
2.2465668024
 11
17.1578138323
 21
2.3524650276
  0
LINE
  5
3E1
100
AcDbEntity
  8
0
100
AcDbLine
 62
7
  6
CONTINUOUS
 10
17.1578138323
 20
2.4165778189
 11
17.1578138323
 21
2.5566653073
  0
LINE
  5
3E2
100
AcDbEntity
  8
0
100
AcDbLine
 62
7
  6
CONTINUOUS
 10
17.1378138213
 20
2.2490906559
 11
17.1378138213
 21
2.3524650276
  0
LINE
  5
3E3
100
AcDbEntity
  8
0
100
AcDbLine
 62
7
  6
CONTINUOUS
 10
17.1378138213
 20
2.3850577159
 11
17.1378138213
 21
2.5541414539
  0
LINE
  5
3E4
100
AcDbEntity
  8
0
100
AcDbLine
 62
7
  6
CONTINUOUS
 10
17.1178138102
 20
2.2516145094
 11
17.1178138102
 21
2.3524650276
  0
LINE
  5
3E5
100
AcDbEntity
  8
0
100
AcDbLine
 62
7
  6
CONTINUOUS
 10
17.1178138102
 20
2.3772150414
 11
17.1178138102
 21
2.5516176004
  0
LINE
  5
3E6
100
AcDbEntity
  8
0
100
AcDbLine
 62
7
  6
CONTINUOUS
 10
17.0978137991
 20
2.2544171186
 11
17.0978137991
 21
2.5488149912
  0
LINE
  5
3E7
100
AcDbEntity
  8
0
100
AcDbLine
 62
7
  6
CONTINUOUS
 10
17.077813788
 20
2.2577020445
 11
17.077813788
 21
2.362615113
  0
LINE
  5
3E8
100
AcDbEntity
  8
0
100
AcDbLine
 62
7
  6
CONTINUOUS
 10
17.077813788
 20
2.3938117115
 11
17.077813788
 21
2.4149601455
  0
LINE
  5
3E9
100
AcDbEntity
  8
0
100
AcDbLine
 62
7
  6
CONTINUOUS
 10
17.077813788
 20
2.4403850542
 11
17.077813788
 21
2.5455300653
  0
LINE
  5
3EA
100
AcDbEntity
  8
0
100
AcDbLine
 62
7
  6
CONTINUOUS
 10
17.0578137769
 20
2.2609869704
 11
17.0578137769
 21
2.3533399802
  0
LINE
  5
3EB
100
AcDbEntity
  8
0
100
AcDbLine
 62
7
  6
CONTINUOUS
 10
17.0578137769
 20
2.4508307102
 11
17.0578137769
 21
2.5422451394
  0
LINE
  5
3EC
100
AcDbEntity
  8
0
100
AcDbLine
 62
7
  6
CONTINUOUS
 10
17.0378137658
 20
2.2646895914
 11
17.0378137658
 21
2.3524650276
  0
LINE
  5
3ED
100
AcDbEntity
  8
0
100
AcDbLine
 62
7
  6
CONTINUOUS
 10
17.0378137658
 20
2.4532700835
 11
17.0378137658
 21
2.5385425184
  0
LINE
  5
3EE
100
AcDbEntity
  8
0
100
AcDbLine
 62
7
  6
CONTINUOUS
 10
17.0178137547
 20
2.2685623514
 11
17.0178137547
 21
2.3524650276
  0
LINE
  5
3EF
100
AcDbEntity
  8
0
100
AcDbLine
 62
7
  6
CONTINUOUS
 10
17.0178137547
 20
2.4532700835
 11
17.0178137547
 21
2.5346697584
  0
LINE
  5
3F0
100
AcDbEntity
  8
0
100
AcDbLine
 62
7
  6
CONTINUOUS
 10
16.9978137436
 20
2.2725871112
 11
16.9978137436
 21
2.3524650276
  0
LINE
  5
3F1
100
AcDbEntity
  8
0
100
AcDbLine
 62
7
  6
CONTINUOUS
 10
16.9978137436
 20
2.3772150414
 11
16.9978137436
 21
2.394540051
  0
LINE
  5
3F2
100
AcDbEntity
  8
0
100
AcDbLine
 62
7
  6
CONTINUOUS
 10
16.9978137436
 20
2.4111950602
 11
16.9978137436
 21
2.4285200698
  0
LINE
  5
3F3
100
AcDbEntity
  8
0
100
AcDbLine
 62
7
  6
CONTINUOUS
 10
16.9978137436
 20
2.4532700835
 11
16.9978137436
 21
2.5306449986
  0
LINE
  5
3F4
100
AcDbEntity
  8
0
100
AcDbLine
 62
7
  6
CONTINUOUS
 10
16.9778137325
 20
2.2771382649
 11
16.9778137325
 21
2.3524650276
  0
LINE
  5
3F5
100
AcDbEntity
  8
0
100
AcDbLine
 62
7
  6
CONTINUOUS
 10
16.9778137325
 20
2.3772150414
 11
16.9778137325
 21
2.394540051
  0
LINE
  5
3F6
100
AcDbEntity
  8
0
100
AcDbLine
 62
7
  6
CONTINUOUS
 10
16.9778137325
 20
2.4111950602
 11
16.9778137325
 21
2.4285200698
  0
LINE
  5
3F7
100
AcDbEntity
  8
0
100
AcDbLine
 62
7
  6
CONTINUOUS
 10
16.9778137325
 20
2.4532700835
 11
16.9778137325
 21
2.5260938449
  0
LINE
  5
3F8
100
AcDbEntity
  8
0
100
AcDbLine
 62
7
  6
CONTINUOUS
 10
16.9578137214
 20
2.2816894185
 11
16.9578137214
 21
2.3524650276
  0
LINE
  5
3F9
100
AcDbEntity
  8
0
100
AcDbLine
 62
7
  6
CONTINUOUS
 10
16.9578137214
 20
2.4532700835
 11
16.9578137214
 21
2.5215426913
  0
LINE
  5
3FA
100
AcDbEntity
  8
0
100
AcDbLine
 62
7
  6
CONTINUOUS
 10
16.9378137103
 20
2.2869815362
 11
16.9378137103
 21
2.3524650276
  0
LINE
  5
3FB
100
AcDbEntity
  8
0
100
AcDbLine
 62
7
  6
CONTINUOUS
 10
16.9378137103
 20
2.4532700835
 11
16.9378137103
 21
2.5162505736
  0
LINE
  5
3FC
100
AcDbEntity
  8
0
100
AcDbLine
 62
7
  6
CONTINUOUS
 10
16.9178136992
 20
2.2923355811
 11
16.9178136992
 21
2.3524650276
  0
LINE
  5
3FD
100
AcDbEntity
  8
0
100
AcDbLine
 62
7
  6
CONTINUOUS
 10
16.9178136992
 20
2.4532700835
 11
16.9178136992
 21
2.5108965286
  0
LINE
  5
3FE
100
AcDbEntity
  8
0
100
AcDbLine
 62
7
  6
CONTINUOUS
 10
16.8978136882
 20
2.2984943577
 11
16.8978136882
 21
2.3524650276
  0
LINE
  5
3FF
100
AcDbEntity
  8
0
100
AcDbLine
 62
7
  6
CONTINUOUS
 10
16.8978136882
 20
2.3772150414
 11
16.8978136882
 21
2.4285200698
  0
LINE
  5
400
100
AcDbEntity
  8
0
100
AcDbLine
 62
7
  6
CONTINUOUS
 10
16.8978136882
 20
2.4532700835
 11
16.8978136882
 21
2.5047377521
  0
LINE
  5
401
100
AcDbEntity
  8
0
100
AcDbLine
 62
7
  6
CONTINUOUS
 10
16.8778136771
 20
2.3048274854
 11
16.8778136771
 21
2.3524650276
  0
LINE
  5
402
100
AcDbEntity
  8
0
100
AcDbLine
 62
7
  6
CONTINUOUS
 10
16.8778136771
 20
2.3772150414
 11
16.8778136771
 21
2.4285200698
  0
LINE
  5
403
100
AcDbEntity
  8
0
100
AcDbLine
 62
7
  6
CONTINUOUS
 10
16.8778136771
 20
2.4532700835
 11
16.8778136771
 21
2.4984046244
  0
LINE
  5
404
100
AcDbEntity
  8
0
100
AcDbLine
 62
7
  6
CONTINUOUS
 10
16.857813666
 20
2.312318358
 11
16.857813666
 21
2.4909137517
  0
LINE
  5
405
100
AcDbEntity
  8
0
100
AcDbLine
 62
7
  6
CONTINUOUS
 10
16.8378136549
 20
2.3203393667
 11
16.8378136549
 21
2.4828927431
  0
LINE
  5
406
100
AcDbEntity
  8
0
100
AcDbLine
 62
7
  6
CONTINUOUS
 10
16.8178136438
 20
2.3295519864
 11
16.8178136438
 21
2.4736801234
  0
LINE
  5
407
100
AcDbEntity
  8
0
100
AcDbLine
 62
7
  6
CONTINUOUS
 10
16.7978136327
 20
2.3407309483
 11
16.7978136327
 21
2.4625011614
  0
LINE
  5
408
100
AcDbEntity
  8
0
100
AcDbLine
 62
7
  6
CONTINUOUS
 10
16.7778136216
 20
2.3546527809
 11
16.7778136216
 21
2.4485793288
  0
LINE
  5
409
100
AcDbEntity
  8
0
100
AcDbLine
 62
7
  6
CONTINUOUS
 10
16.7578136105
 20
2.3756826696
 11
16.7578136105
 21
2.4275494401
  0
ENDBLK
  5
40A
100
AcDbEntity
  8
0
  6
BYBLOCK
 62
0
100
AcDbBlockEnd
  0
BLOCK
  5
40B
100
AcDbEntity
  8
0
100
AcDbBlockBegin
  2
_FILLED
 70
64
 10
0.0
 20
0.0
  3
_FILLED
  1

  0
SOLID
  5
40C
100
AcDbEntity
  8
0
  6
BYBLOCK
 62
0
100
AcDbTrace
 10
0.0
 20
0.0
 11
-1.0
 21
0.1666666667
 12
-1.0
 22
-0.1666666667
 13
-1.0
 23
-0.1666666667
  0
ENDBLK
  5
40D
100
AcDbEntity
  8
0
  6
BYBLOCK
 62
0
100
AcDbBlockEnd
  0
BLOCK
  5
40E
100
AcDbEntity
  8
DRIVEN_DIMS
100
AcDbBlockBegin
 62
7
  6
CONTINUOUS
  2
*D0
 70
65
 10
0.0
 20
0.0
  3
*D0
  1

  0
MTEXT
  5
40F
100
AcDbEntity
  8
DRIVEN_DIMS
100
AcDbMText
 62
7
  6
CONTINUOUS
  7
STANDARD
 71
2
 72
1
 10
5.1824879281
 20
10.9442601583
 30
0.0
 11
1.0
 21
0.0
 31
0.0
 44
0.9
  1
90\Fgdt;{\Fgdt;~}
 40
0.1
 41
0.2666666667
  0
LINE
  5
410
100
AcDbEntity
  8
DRIVEN_DIMS
100
AcDbLine
 62
7
  6
CONTINUOUS
 10
4.3350648898
 20
10.4276388928
 11
5.4369682605
 21
10.4276388928
  0
ARC
  5
411
100
AcDbEntity
  8
DRIVEN_DIMS
100
AcDbCircle
 62
7
  6
CONTINUOUS
 10
4.4064231575
 20
10.4276388928
 40
0.9055451029
100
AcDbArc
 50
0.0
 51
20.4657348256
  0
ARC
  5
412
100
AcDbEntity
  8
DRIVEN_DIMS
100
AcDbCircle
 62
7
  6
CONTINUOUS
 10
4.4064231575
 20
10.4276388928
 40
0.9055451029
100
AcDbArc
 50
42.9170883976
 51
90.0
  0
SOLID
  5
413
100
AcDbEntity
  8
DRIVEN_DIMS
100
AcDbTrace
 62
7
  6
CONTINUOUS
 10
5.2615085903
 20
10.6109054588
 11
5.3119682605
 21
10.4276388928
 12
5.3236739452
 22
10.6173644563
 13
5.3236739452
 23
10.6173644563
  0
SOLID
  5
414
100
AcDbEntity
  8
DRIVEN_DIMS
100
AcDbTrace
 62
7
  6
CONTINUOUS
 10
4.596148721
 20
11.3448896805
 11
4.4064231575
 21
11.3331839957
 12
4.5896897235
 22
11.2827243256
 13
4.5896897235
 23
11.2827243256
  0
ENDBLK
  5
415
100
AcDbEntity
  8
0
  6
BYBLOCK
 62
0
100
AcDbBlockEnd
  0
BLOCK
  5
416
100
AcDbEntity
  8
DRIVEN_DIMS
100
AcDbBlockBegin
 62
7
  6
CONTINUOUS
  2
*D1
 70
65
 10
0.0
 20
0.0
  3
*D1
  1

  0
MTEXT
  5
417
100
AcDbEntity
  8
DRIVEN_DIMS
100
AcDbMText
 62
7
  6
CONTINUOUS
  7
STANDARD
 71
2
 72
1
 10
3.4190215827
 20
12.8035828403
 30
0.0
 11
1.0
 21
0.0
 31
0.0
 44
0.9
  1
80\P[3.15]
 40
0.1
 41
0.6
  0
LINE
  5
418
100
AcDbEntity
  8
DRIVEN_DIMS
100
AcDbLine
 62
7
  6
CONTINUOUS
 10
4.4064231575
 20
11.9468318062
 11
4.4064231575
 21
12.8785828403
  0
LINE
  5
419
100
AcDbEntity
  8
DRIVEN_DIMS
100
AcDbLine
 62
7
  6
CONTINUOUS
 10
2.8316200079
 20
10.5413199952
 11
2.8316200079
 21
12.8785828403
  0
LINE
  5
41A
100
AcDbEntity
  8
DRIVEN_DIMS
100
AcDbLine
 62
7
  6
CONTINUOUS
 10
4.4064231575
 20
12.7535828403
 11
4.0190215827
 21
12.7535828403
  0
LINE
  5
41B
100
AcDbEntity
  8
DRIVEN_DIMS
100
AcDbLine
 62
7
  6
CONTINUOUS
 10
2.8316200079
 20
12.7535828403
 11
3.2190215827
 21
12.7535828403
  0
INSERT
  5
41C
100
AcDbEntity
  8
DRIVEN_DIMS
100
AcDbBlockReference
 62
7
  6
CONTINUOUS
  2
_FILLED
 10
4.4064231575
 20
12.7535828403
 41
0.1875
 42
0.1875
 43
0.1875
  0
INSERT
  5
41D
100
AcDbEntity
  8
DRIVEN_DIMS
100
AcDbBlockReference
 62
7
  6
CONTINUOUS
  2
_FILLED
 10
2.8316200079
 20
12.7535828403
 41
0.1875
 42
0.1875
 43
0.1875
 50
180.0
  0
ENDBLK
  5
41E
100
AcDbEntity
  8
0
  6
BYBLOCK
 62
0
100
AcDbBlockEnd
  0
BLOCK
  5
41F
100
AcDbEntity
  8
DRIVEN_DIMS
100
AcDbBlockBegin
 62
7
  6
CONTINUOUS
  2
*D2
 70
65
 10
0.0
 20
0.0
  3
*D2
  1

  0
MTEXT
  5
420
100
AcDbEntity
  8
DRIVEN_DIMS
100
AcDbMText
 62
7
  6
CONTINUOUS
  7
STANDARD
 71
2
 72
1
 10
4.5969543429
 20
6.6665365316
 30
0.0
 11
1.0
 21
0.0
 31
0.0
 44
0.9
  1
50\P[1.97]
 40
0.1
 41
0.6
  0
LINE
  5
421
100
AcDbEntity
  8
DRIVEN_DIMS
100
AcDbLine
 62
7
  6
CONTINUOUS
 10
4.2172395945
 20
6.9939498102
 11
4.9219543429
 21
6.9939498102
  0
LINE
  5
422
100
AcDbEntity
  8
DRIVEN_DIMS
100
AcDbLine
 62
7
  6
CONTINUOUS
 10
4.2174874111
 20
6.0096978417
 11
4.9219543429
 21
6.0096978417
  0
LINE
  5
423
100
AcDbEntity
  8
DRIVEN_DIMS
100
AcDbLine
 62
7
  6
CONTINUOUS
 10
4.7969543429
 20
6.9939498102
 11
4.7969543429
 21
6.7665365316
  0
LINE
  5
424
100
AcDbEntity
  8
DRIVEN_DIMS
100
AcDbLine
 62
7
  6
CONTINUOUS
 10
4.7969543429
 20
6.0096978417
 11
4.7969543429
 21
6.3165365316
  0
INSERT
  5
425
100
AcDbEntity
  8
DRIVEN_DIMS
100
AcDbBlockReference
 62
7
  6
CONTINUOUS
  2
_FILLED
 10
4.7969543429
 20
6.9939498102
 41
0.1875
 42
0.1875
 43
0.1875
 50
90.0
  0
INSERT
  5
426
100
AcDbEntity
  8
DRIVEN_DIMS
100
AcDbBlockReference
 62
7
  6
CONTINUOUS
  2
_FILLED
 10
4.7969543429
 20
6.0096978417
 41
0.1875
 42
0.1875
 43
0.1875
 50
270.0
  0
ENDBLK
  5
427
100
AcDbEntity
  8
0
  6
BYBLOCK
 62
0
100
AcDbBlockEnd
  0
BLOCK
  5
428
100
AcDbEntity
  8
DRIVEN_DIMS
100
AcDbBlockBegin
 62
7
  6
CONTINUOUS
  2
*D3
 70
65
 10
0.0
 20
0.0
  3
*D3
  1

  0
MTEXT
  5
429
100
AcDbEntity
  8
DRIVEN_DIMS
100
AcDbMText
 62
7
  6
CONTINUOUS
  7
STANDARD
 71
2
 72
1
 10
5.3752299115
 20
6.0596978417
 30
0.0
 11
1.0
 21
0.0
 31
0.0
 44
0.9
  1
100\P[3.94]
 40
0.1
 41
0.6
  0
LINE
  5
42A
100
AcDbEntity
  8
DRIVEN_DIMS
100
AcDbLine
 62
7
  6
CONTINUOUS
 10
4.2174874111
 20
6.9939498102
 11
5.6502299115
 21
6.9939498102
  0
LINE
  5
42B
100
AcDbEntity
  8
DRIVEN_DIMS
100
AcDbLine
 62
7
  6
CONTINUOUS
 10
4.2174874111
 20
5.0254458732
 11
5.6502299115
 21
5.0254458732
  0
LINE
  5
42C
100
AcDbEntity
  8
DRIVEN_DIMS
100
AcDbLine
 62
7
  6
CONTINUOUS
 10
5.5252299115
 20
6.9939498102
 11
5.5252299115
 21
6.1596978417
  0
LINE
  5
42D
100
AcDbEntity
  8
DRIVEN_DIMS
100
AcDbLine
 62
7
  6
CONTINUOUS
 10
5.5252299115
 20
5.0254458732
 11
5.5252299115
 21
5.7096978417
  0
INSERT
  5
42E
100
AcDbEntity
  8
DRIVEN_DIMS
100
AcDbBlockReference
 62
7
  6
CONTINUOUS
  2
_FILLED
 10
5.5252299115
 20
6.9939498102
 41
0.1875
 42
0.1875
 43
0.1875
 50
90.0
  0
INSERT
  5
42F
100
AcDbEntity
  8
DRIVEN_DIMS
100
AcDbBlockReference
 62
7
  6
CONTINUOUS
  2
_FILLED
 10
5.5252299115
 20
5.0254458732
 41
0.1875
 42
0.1875
 43
0.1875
 50
270.0
  0
ENDBLK
  5
430
100
AcDbEntity
  8
0
  6
BYBLOCK
 62
0
100
AcDbBlockEnd
  0
BLOCK
  5
431
100
AcDbEntity
  8
DRIVEN_DIMS
100
AcDbBlockBegin
 62
7
  6
CONTINUOUS
  2
*D4
 70
65
 10
0.0
 20
0.0
  3
*D4
  1

  0
MTEXT
  5
432
100
AcDbEntity
  8
DRIVEN_DIMS
100
AcDbMText
 62
7
  6
CONTINUOUS
  7
STANDARD
 71
3
 72
1
 10
2.2886297619
 20
6.8294710015
 30
0.0
 11
1.0
 21
0.0
 31
0.0
 44
0.9
  1
3X \Fgdt;{\Fgdt;n}\Ftxt;22.5\P[0.89]
 40
0.1
 41
0.8333333333
  0
LINE
  5
433
100
AcDbEntity
  8
DRIVEN_DIMS
100
AcDbLine
 62
7
  6
CONTINUOUS
 10
3.6915807091
 20
6.1339040001
 11
2.7386297619
 21
6.7794710015
  0
LINE
  5
434
100
AcDbEntity
  8
DRIVEN_DIMS
100
AcDbLine
 62
7
  6
CONTINUOUS
 10
2.7386297619
 20
6.7794710015
 11
2.5886297619
 21
6.7794710015
  0
INSERT
  5
435
100
AcDbEntity
  8
DRIVEN_DIMS
100
AcDbBlockReference
 62
7
  6
CONTINUOUS
  2
_FILLED
 10
3.6915807091
 20
6.1339040001
 41
0.1875
 42
0.1875
 43
0.1875
 50
325.884719897
  0
ENDBLK
  5
436
100
AcDbEntity
  8
0
  6
BYBLOCK
 62
0
100
AcDbBlockEnd
  0
BLOCK
  5
437
100
AcDbEntity
  8
DRIVEN_DIMS
100
AcDbBlockBegin
 62
7
  6
CONTINUOUS
  2
*D5
 70
65
 10
0.0
 20
0.0
  3
*D5
  1

  0
MTEXT
  5
438
100
AcDbEntity
  8
DRIVEN_DIMS
100
AcDbMText
 62
7
  6
CONTINUOUS
  7
STANDARD
 71
2
 72
1
 10
4.0381809258
 20
4.0502084321
 30
0.0
 11
1.0
 21
0.0
 31
0.0
 44
0.9
  1
27\P[1.06]
 40
0.1
 41
0.6
  0
LINE
  5
439
100
AcDbEntity
  8
DRIVEN_DIMS
100
AcDbLine
 62
7
  6
CONTINUOUS
 10
4.4064231575
 20
4.4216072905
 11
4.4064231575
 21
3.9502084321
  0
LINE
  5
43A
100
AcDbEntity
  8
DRIVEN_DIMS
100
AcDbLine
 62
7
  6
CONTINUOUS
 10
3.8749270945
 20
4.5710708732
 11
3.8749270945
 21
3.8752084321
  0
LINE
  5
43B
100
AcDbEntity
  8
DRIVEN_DIMS
100
AcDbLine
 62
7
  6
CONTINUOUS
 10
4.4064231575
 20
4.0002084321
 11
4.8064231575
 21
4.0002084321
  0
LINE
  5
43C
100
AcDbEntity
  8
DRIVEN_DIMS
100
AcDbLine
 62
7
  6
CONTINUOUS
 10
3.8749270945
 20
4.0002084321
 11
3.4749270945
 21
4.0002084321
  0
INSERT
  5
43D
100
AcDbEntity
  8
DRIVEN_DIMS
100
AcDbBlockReference
 62
7
  6
CONTINUOUS
  2
_FILLED
 10
4.4064231575
 20
4.0002084321
 41
0.1875
 42
0.1875
 43
0.1875
 50
180.0
  0
INSERT
  5
43E
100
AcDbEntity
  8
DRIVEN_DIMS
100
AcDbBlockReference
 62
7
  6
CONTINUOUS
  2
_FILLED
 10
3.8749270945
 20
4.0002084321
 41
0.1875
 42
0.1875
 43
0.1875
  0
ENDBLK
  5
43F
100
AcDbEntity
  8
0
  6
BYBLOCK
 62
0
100
AcDbBlockEnd
  0
BLOCK
  5
440
100
AcDbEntity
  8
DRIVEN_DIMS
100
AcDbBlockBegin
 62
7
  6
CONTINUOUS
  2
*D6
 70
65
 10
0.0
 20
0.0
  3
*D6
  1

  0
MTEXT
  5
441
100
AcDbEntity
  8
DRIVEN_DIMS
100
AcDbMText
 62
7
  6
CONTINUOUS
  7
STANDARD
 71
2
 72
1
 10
8.3861960432
 20
8.3595192777
 30
0.0
 11
1.0
 21
0.0
 31
0.0
 44
0.9
  1
80\P[3.15]
 40
0.1
 41
0.6
  0
LINE
  5
442
100
AcDbEntity
  8
DRIVEN_DIMS
100
AcDbLine
 62
7
  6
CONTINUOUS
 10
7.7987944684
 20
7.5977883929
 11
7.7987944684
 21
8.4345192777
  0
LINE
  5
443
100
AcDbEntity
  8
DRIVEN_DIMS
100
AcDbLine
 62
7
  6
CONTINUOUS
 10
9.373597618
 20
7.4796781567
 11
9.373597618
 21
8.4345192777
  0
LINE
  5
444
100
AcDbEntity
  8
DRIVEN_DIMS
100
AcDbLine
 62
7
  6
CONTINUOUS
 10
7.7987944684
 20
8.3095192777
 11
8.1861960432
 21
8.3095192777
  0
LINE
  5
445
100
AcDbEntity
  8
DRIVEN_DIMS
100
AcDbLine
 62
7
  6
CONTINUOUS
 10
9.373597618
 20
8.3095192777
 11
8.9861960432
 21
8.3095192777
  0
INSERT
  5
446
100
AcDbEntity
  8
DRIVEN_DIMS
100
AcDbBlockReference
 62
7
  6
CONTINUOUS
  2
_FILLED
 10
7.7987944684
 20
8.3095192777
 41
0.1875
 42
0.1875
 43
0.1875
 50
180.0
  0
INSERT
  5
447
100
AcDbEntity
  8
DRIVEN_DIMS
100
AcDbBlockReference
 62
7
  6
CONTINUOUS
  2
_FILLED
 10
9.373597618
 20
8.3095192777
 41
0.1875
 42
0.1875
 43
0.1875
  0
ENDBLK
  5
448
100
AcDbEntity
  8
0
  6
BYBLOCK
 62
0
100
AcDbBlockEnd
  0
BLOCK
  5
449
100
AcDbEntity
  8
DRIVEN_DIMS
100
AcDbBlockBegin
 62
7
  6
CONTINUOUS
  2
*D7
 70
65
 10
0.0
 20
0.0
  3
*D7
  1

  0
MTEXT
  5
44A
100
AcDbEntity
  8
DRIVEN_DIMS
100
AcDbMText
 62
7
  6
CONTINUOUS
  7
STANDARD
 71
2
 72
1
 10
9.9161502453
 20
6.0596978417
 30
0.0
 11
1.0
 21
0.0
 31
0.0
 44
0.9
  1
155\P[6.1]
 40
0.1
 41
0.5
  0
LINE
  5
44B
100
AcDbEntity
  8
DRIVEN_DIMS
100
AcDbLine
 62
7
  6
CONTINUOUS
 10
9.3179873817
 20
7.5352883929
 11
10.1411502453
 21
7.5352883929
  0
LINE
  5
44C
100
AcDbEntity
  8
DRIVEN_DIMS
100
AcDbLine
 62
7
  6
CONTINUOUS
 10
9.3179873817
 20
4.4841072905
 11
10.1411502453
 21
4.4841072905
  0
LINE
  5
44D
100
AcDbEntity
  8
DRIVEN_DIMS
100
AcDbLine
 62
7
  6
CONTINUOUS
 10
10.0161502453
 20
7.5352883929
 11
10.0161502453
 21
6.1596978417
  0
LINE
  5
44E
100
AcDbEntity
  8
DRIVEN_DIMS
100
AcDbLine
 62
7
  6
CONTINUOUS
 10
10.0161502453
 20
4.4841072905
 11
10.0161502453
 21
5.7096978417
  0
INSERT
  5
44F
100
AcDbEntity
  8
DRIVEN_DIMS
100
AcDbBlockReference
 62
7
  6
CONTINUOUS
  2
_FILLED
 10
10.0161502453
 20
7.5352883929
 41
0.1875
 42
0.1875
 43
0.1875
 50
90.0
  0
INSERT
  5
450
100
AcDbEntity
  8
DRIVEN_DIMS
100
AcDbBlockReference
 62
7
  6
CONTINUOUS
  2
_FILLED
 10
10.0161502453
 20
4.4841072905
 41
0.1875
 42
0.1875
 43
0.1875
 50
270.0
  0
ENDBLK
  5
451
100
AcDbEntity
  8
0
  6
BYBLOCK
 62
0
100
AcDbBlockEnd
  0
BLOCK
  5
452
100
AcDbEntity
  8
DRIVEN_DIMS
100
AcDbBlockBegin
 62
7
  6
CONTINUOUS
  2
*D8
 70
65
 10
0.0
 20
0.0
  3
*D8
  1

  0
MTEXT
  5
453
100
AcDbEntity
  8
DRIVEN_DIMS
100
AcDbMText
 62
7
  6
CONTINUOUS
  7
STANDARD
 71
2
 72
1
 10
7.1805395403
 20
5.5596978417
 30
0.0
 11
1.0
 21
0.0
 31
0.0
 44
0.9
  1
50.8\P[2]
 40
0.1
 41
0.4
  0
LINE
  5
454
100
AcDbEntity
  8
DRIVEN_DIMS
100
AcDbLine
 62
7
  6
CONTINUOUS
 10
7.4058210432
 20
6.0096978417
 11
7.0555395403
 21
6.0096978417
  0
LINE
  5
455
100
AcDbEntity
  8
DRIVEN_DIMS
100
AcDbLine
 62
7
  6
CONTINUOUS
 10
8.396656181
 20
5.0096978417
 11
7.0555395403
 21
5.0096978417
  0
LINE
  5
456
100
AcDbEntity
  8
DRIVEN_DIMS
100
AcDbLine
 62
7
  6
CONTINUOUS
 10
7.1805395403
 20
6.0096978417
 11
7.1805395403
 21
5.6596978417
  0
LINE
  5
457
100
AcDbEntity
  8
DRIVEN_DIMS
100
AcDbLine
 62
7
  6
CONTINUOUS
 10
7.1805395403
 20
5.0096978417
 11
7.1805395403
 21
5.2096978417
  0
INSERT
  5
458
100
AcDbEntity
  8
DRIVEN_DIMS
100
AcDbBlockReference
 62
7
  6
CONTINUOUS
  2
_FILLED
 10
7.1805395403
 20
6.0096978417
 41
0.1875
 42
0.1875
 43
0.1875
 50
90.0
  0
INSERT
  5
459
100
AcDbEntity
  8
DRIVEN_DIMS
100
AcDbBlockReference
 62
7
  6
CONTINUOUS
  2
_FILLED
 10
7.1805395403
 20
5.0096978417
 41
0.1875
 42
0.1875
 43
0.1875
 50
270.0
  0
ENDBLK
  5
45A
100
AcDbEntity
  8
0
  6
BYBLOCK
 62
0
100
AcDbBlockEnd
  0
BLOCK
  5
45B
100
AcDbEntity
  8
DRIVEN_DIMS
100
AcDbBlockBegin
 62
7
  6
CONTINUOUS
  2
*D9
 70
65
 10
0.0
 20
0.0
  3
*D9
  1

  0
MTEXT
  5
45C
100
AcDbEntity
  8
DRIVEN_DIMS
100
AcDbMText
 62
7
  6
CONTINUOUS
  7
STANDARD
 71
1
 72
1
 10
9.9821230057
 20
4.1041360074
 30
0.0
 11
1.0
 21
0.0
 31
0.0
 44
0.9
  1
4X R6\P[0.24]
 40
0.1
 41
0.6
  0
LINE
  5
45D
100
AcDbEntity
  8
DRIVEN_DIMS
100
AcDbLine
 62
7
  6
CONTINUOUS
 10
9.3329927861
 20
4.5130943525
 11
9.7321230057
 21
4.0541360074
  0
LINE
  5
45E
100
AcDbEntity
  8
DRIVEN_DIMS
100
AcDbLine
 62
7
  6
CONTINUOUS
 10
9.7321230057
 20
4.0541360074
 11
9.8821230057
 21
4.0541360074
  0
INSERT
  5
45F
100
AcDbEntity
  8
DRIVEN_DIMS
100
AcDbBlockReference
 62
7
  6
CONTINUOUS
  2
_FILLED
 10
9.3329927861
 20
4.5130943525
 41
0.1875
 42
0.1875
 43
0.1875
 50
131.0116463859
  0
ENDBLK
  5
460
100
AcDbEntity
  8
0
  6
BYBLOCK
 62
0
100
AcDbBlockEnd
  0
BLOCK
  5
461
100
AcDbEntity
  8
DRIVEN_DIMS
100
AcDbBlockBegin
 62
7
  6
CONTINUOUS
  2
*D10
 70
65
 10
0.0
 20
0.0
  3
*D10
  1

  0
MTEXT
  5
462
100
AcDbEntity
  8
DRIVEN_DIMS
100
AcDbMText
 62
7
  6
CONTINUOUS
  7
STANDARD
 71
2
 72
1
 10
15.092500262
 20
12.9688250378
 30
0.0
 11
1.0
 21
0.0
 31
0.0
 44
0.9
  1
2X 20\P[0.79]
 40
0.1
 41
0.6
  0
LINE
  5
463
100
AcDbEntity
  8
DRIVEN_DIMS
100
AcDbLine
 62
7
  6
CONTINUOUS
 10
14.8340102683
 20
12.0815197041
 11
14.8340102683
 21
13.0438250378
  0
LINE
  5
464
100
AcDbEntity
  8
DRIVEN_DIMS
100
AcDbLine
 62
7
  6
CONTINUOUS
 10
15.6214118431
 20
12.0815197041
 11
15.6214118431
 21
12.6688250378
  0
LINE
  5
465
100
AcDbEntity
  8
DRIVEN_DIMS
100
AcDbLine
 62
7
  6
CONTINUOUS
 10
15.6214118431
 20
12.8688250378
 11
15.6214118431
 21
13.0438250378
  0
LINE
  5
466
100
AcDbEntity
  8
DRIVEN_DIMS
100
AcDbLine
 62
7
  6
CONTINUOUS
 10
14.8340102683
 20
12.9188250378
 11
14.4340102683
 21
12.9188250378
  0
LINE
  5
467
100
AcDbEntity
  8
DRIVEN_DIMS
100
AcDbLine
 62
7
  6
CONTINUOUS
 10
15.6214118431
 20
12.9188250378
 11
16.0214118431
 21
12.9188250378
  0
INSERT
  5
468
100
AcDbEntity
  8
DRIVEN_DIMS
100
AcDbBlockReference
 62
7
  6
CONTINUOUS
  2
_FILLED
 10
14.8340102683
 20
12.9188250378
 41
0.1875
 42
0.1875
 43
0.1875
  0
INSERT
  5
469
100
AcDbEntity
  8
DRIVEN_DIMS
100
AcDbBlockReference
 62
7
  6
CONTINUOUS
  2
_FILLED
 10
15.6214118431
 20
12.9188250378
 41
0.1875
 42
0.1875
 43
0.1875
 50
180.0
  0
ENDBLK
  5
46A
100
AcDbEntity
  8
0
  6
BYBLOCK
 62
0
100
AcDbBlockEnd
  0
BLOCK
  5
46B
100
AcDbEntity
  8
DRIVEN_DIMS
100
AcDbBlockBegin
 62
7
  6
CONTINUOUS
  2
*D11
 70
65
 10
0.0
 20
0.0
  3
*D11
  1

  0
MTEXT
  5
46C
100
AcDbEntity
  8
DRIVEN_DIMS
100
AcDbMText
 62
7
  6
CONTINUOUS
  7
STANDARD
 71
2
 72
1
 10
15.0277110557
 20
13.5390978574
 30
0.0
 11
1.0
 21
0.0
 31
0.0
 44
0.9
  1
2X 40\P[1.57]
 40
0.1
 41
0.6
  0
LINE
  5
46D
100
AcDbEntity
  8
DRIVEN_DIMS
100
AcDbLine
 62
7
  6
CONTINUOUS
 10
14.4403094809
 20
11.3846693104
 11
14.4403094809
 21
13.6140978574
  0
LINE
  5
46E
100
AcDbEntity
  8
DRIVEN_DIMS
100
AcDbLine
 62
7
  6
CONTINUOUS
 10
16.0151126305
 20
11.3846693104
 11
16.0151126305
 21
13.6140978574
  0
LINE
  5
46F
100
AcDbEntity
  8
DRIVEN_DIMS
100
AcDbLine
 62
7
  6
CONTINUOUS
 10
14.4403094809
 20
13.4890978574
 11
14.6777110557
 21
13.4890978574
  0
LINE
  5
470
100
AcDbEntity
  8
DRIVEN_DIMS
100
AcDbLine
 62
7
  6
CONTINUOUS
 10
16.0151126305
 20
13.4890978574
 11
15.7777110557
 21
13.4890978574
  0
INSERT
  5
471
100
AcDbEntity
  8
DRIVEN_DIMS
100
AcDbBlockReference
 62
7
  6
CONTINUOUS
  2
_FILLED
 10
14.4403094809
 20
13.4890978574
 41
0.1875
 42
0.1875
 43
0.1875
 50
180.0
  0
INSERT
  5
472
100
AcDbEntity
  8
DRIVEN_DIMS
100
AcDbBlockReference
 62
7
  6
CONTINUOUS
  2
_FILLED
 10
16.0151126305
 20
13.4890978574
 41
0.1875
 42
0.1875
 43
0.1875
  0
ENDBLK
  5
473
100
AcDbEntity
  8
0
  6
BYBLOCK
 62
0
100
AcDbBlockEnd
  0
BLOCK
  5
474
100
AcDbEntity
  8
DRIVEN_DIMS
100
AcDbBlockBegin
 62
7
  6
CONTINUOUS
  2
*D12
 70
65
 10
0.0
 20
0.0
  3
*D12
  1

  0
MTEXT
  5
475
100
AcDbEntity
  8
DRIVEN_DIMS
100
AcDbMText
 62
7
  6
CONTINUOUS
  7
STANDARD
 71
1
 72
1
 10
16.8024916262
 20
12.6742015848
 30
0.0
 11
1.0
 21
0.0
 31
0.0
 44
0.9
  1
2X 1.2\P[0.05]
 40
0.1
 41
0.6
  0
LINE
  5
476
100
AcDbEntity
  8
DRIVEN_DIMS
100
AcDbLine
 62
7
  6
CONTINUOUS
 10
15.2902110557
 20
12.0662637986
 11
16.6774916262
 21
12.0662637986
  0
LINE
  5
477
100
AcDbEntity
  8
DRIVEN_DIMS
100
AcDbLine
 62
7
  6
CONTINUOUS
 10
15.6839118431
 20
12.0190197041
 11
16.6774916262
 21
12.0190197041
  0
LINE
  5
478
100
AcDbEntity
  8
DRIVEN_DIMS
100
AcDbLine
 62
7
  6
CONTINUOUS
 10
16.5524916262
 20
12.0662637986
 11
16.5524916262
 21
12.6242015848
  0
LINE
  5
479
100
AcDbEntity
  8
DRIVEN_DIMS
100
AcDbLine
 62
7
  6
CONTINUOUS
 10
16.5524916262
 20
12.6242015848
 11
16.7024916262
 21
12.6242015848
  0
LINE
  5
47A
100
AcDbEntity
  8
DRIVEN_DIMS
100
AcDbLine
 62
7
  6
CONTINUOUS
 10
16.5524916262
 20
12.0190197041
 11
16.5524916262
 21
11.6190197041
  0
INSERT
  5
47B
100
AcDbEntity
  8
DRIVEN_DIMS
100
AcDbBlockReference
 62
7
  6
CONTINUOUS
  2
_FILLED
 10
16.5524916262
 20
12.0662637986
 41
0.1875
 42
0.1875
 43
0.1875
 50
270.0
  0
INSERT
  5
47C
100
AcDbEntity
  8
DRIVEN_DIMS
100
AcDbBlockReference
 62
7
  6
CONTINUOUS
  2
_FILLED
 10
16.5524916262
 20
12.0190197041
 41
0.1875
 42
0.1875
 43
0.1875
 50
90.0
  0
ENDBLK
  5
47D
100
AcDbEntity
  8
0
  6
BYBLOCK
 62
0
100
AcDbBlockEnd
  0
BLOCK
  5
47E
100
AcDbEntity
  8
DRIVEN_DIMS
100
AcDbBlockBegin
 62
7
  6
CONTINUOUS
  2
*D13
 70
65
 10
0.0
 20
0.0
  3
*D13
  1

  0
MTEXT
  5
47F
100
AcDbEntity
  8
DRIVEN_DIMS
100
AcDbMText
 62
7
  6
CONTINUOUS
  7
STANDARD
 71
2
 72
1
 10
17.2230868206
 20
11.7205945073
 30
0.0
 11
1.0
 21
0.0
 31
0.0
 44
0.9
  1
2X 17.7\P[0.7]
 40
0.1
 41
0.7
  0
LINE
  5
480
100
AcDbEntity
  8
DRIVEN_DIMS
100
AcDbLine
 62
7
  6
CONTINUOUS
 10
15.6839118431
 20
12.0190197041
 11
17.3980868206
 21
12.0190197041
  0
LINE
  5
481
100
AcDbEntity
  8
DRIVEN_DIMS
100
AcDbLine
 62
7
  6
CONTINUOUS
 10
16.0776126305
 20
11.3221693104
 11
17.3980868206
 21
11.3221693104
  0
LINE
  5
482
100
AcDbEntity
  8
DRIVEN_DIMS
100
AcDbLine
 62
7
  6
CONTINUOUS
 10
17.2730868206
 20
12.0190197041
 11
17.2730868206
 21
12.4190197041
  0
LINE
  5
483
100
AcDbEntity
  8
DRIVEN_DIMS
100
AcDbLine
 62
7
  6
CONTINUOUS
 10
17.2730868206
 20
11.3221693104
 11
17.2730868206
 21
10.9221693104
  0
INSERT
  5
484
100
AcDbEntity
  8
DRIVEN_DIMS
100
AcDbBlockReference
 62
7
  6
CONTINUOUS
  2
_FILLED
 10
17.2730868206
 20
12.0190197041
 41
0.1875
 42
0.1875
 43
0.1875
 50
270.0
  0
INSERT
  5
485
100
AcDbEntity
  8
DRIVEN_DIMS
100
AcDbBlockReference
 62
7
  6
CONTINUOUS
  2
_FILLED
 10
17.2730868206
 20
11.3221693104
 41
0.1875
 42
0.1875
 43
0.1875
 50
90.0
  0
ENDBLK
  5
486
100
AcDbEntity
  8
0
  6
BYBLOCK
 62
0
100
AcDbBlockEnd
  0
BLOCK
  5
487
100
AcDbEntity
  8
DRIVEN_DIMS
100
AcDbBlockBegin
 62
7
  6
CONTINUOUS
  2
*D14
 70
65
 10
0.0
 20
0.0
  3
*D14
  1

  0
MTEXT
  5
488
100
AcDbEntity
  8
DRIVEN_DIMS
100
AcDbMText
 62
7
  6
CONTINUOUS
  7
STANDARD
 71
2
 72
1
 10
13.3852525723
 20
11.8620266668
 30
0.0
 11
1.0
 21
0.0
 31
0.0
 44
0.9
  1
2X 18\P[0.71]
 40
0.1
 41
0.6
  0
LINE
  5
489
100
AcDbEntity
  8
DRIVEN_DIMS
100
AcDbLine
 62
7
  6
CONTINUOUS
 10
15.1652110557
 20
12.0662637986
 11
13.4602525723
 21
12.0662637986
  0
LINE
  5
48A
100
AcDbEntity
  8
DRIVEN_DIMS
100
AcDbLine
 62
7
  6
CONTINUOUS
 10
15.1652110557
 20
11.3576023813
 11
13.4602525723
 21
11.3576023813
  0
LINE
  5
48B
100
AcDbEntity
  8
DRIVEN_DIMS
100
AcDbLine
 62
7
  6
CONTINUOUS
 10
13.5852525723
 20
12.0662637986
 11
13.5852525723
 21
12.4662637986
  0
LINE
  5
48C
100
AcDbEntity
  8
DRIVEN_DIMS
100
AcDbLine
 62
7
  6
CONTINUOUS
 10
13.5852525723
 20
11.3576023813
 11
13.5852525723
 21
10.9576023813
  0
INSERT
  5
48D
100
AcDbEntity
  8
DRIVEN_DIMS
100
AcDbBlockReference
 62
7
  6
CONTINUOUS
  2
_FILLED
 10
13.5852525723
 20
12.0662637986
 41
0.1875
 42
0.1875
 43
0.1875
 50
270.0
  0
INSERT
  5
48E
100
AcDbEntity
  8
DRIVEN_DIMS
100
AcDbBlockReference
 62
7
  6
CONTINUOUS
  2
_FILLED
 10
13.5852525723
 20
11.3576023813
 41
0.1875
 42
0.1875
 43
0.1875
 50
90.0
  0
ENDBLK
  5
48F
100
AcDbEntity
  8
0
  6
BYBLOCK
 62
0
100
AcDbBlockEnd
  0
BLOCK
  5
490
100
AcDbEntity
  8
DRIVEN_DIMS
100
AcDbBlockBegin
 62
7
  6
CONTINUOUS
  2
*D15
 70
65
 10
0.0
 20
0.0
  3
*D15
  1

  0
MTEXT
  5
491
100
AcDbEntity
  8
DRIVEN_DIMS
100
AcDbMText
 62
7
  6
CONTINUOUS
  7
STANDARD
 71
2
 72
1
 10
7.6714317564
 20
13.232972914
 30
0.0
 11
1.0
 21
0.0
 31
0.0
 44
0.9
  1
11\P[0.43]
 40
0.1
 41
0.6
  0
LINE
  5
492
100
AcDbEntity
  8
DRIVEN_DIMS
100
AcDbLine
 62
7
  6
CONTINUOUS
 10
9.3883425515
 20
13.2785222903
 11
7.7464317564
 21
13.2785222903
  0
LINE
  5
493
100
AcDbEntity
  8
DRIVEN_DIMS
100
AcDbLine
 62
7
  6
CONTINUOUS
 10
9.3883425515
 20
12.8454514241
 11
7.7464317564
 21
12.8454514241
  0
LINE
  5
494
100
AcDbEntity
  8
DRIVEN_DIMS
100
AcDbLine
 62
7
  6
CONTINUOUS
 10
7.8714317564
 20
13.2785222903
 11
7.8714317564
 21
13.6785222903
  0
LINE
  5
495
100
AcDbEntity
  8
DRIVEN_DIMS
100
AcDbLine
 62
7
  6
CONTINUOUS
 10
7.8714317564
 20
12.8454514241
 11
7.8714317564
 21
12.4454514241
  0
INSERT
  5
496
100
AcDbEntity
  8
DRIVEN_DIMS
100
AcDbBlockReference
 62
7
  6
CONTINUOUS
  2
_FILLED
 10
7.8714317564
 20
13.2785222903
 41
0.1875
 42
0.1875
 43
0.1875
 50
270.0
  0
INSERT
  5
497
100
AcDbEntity
  8
DRIVEN_DIMS
100
AcDbBlockReference
 62
7
  6
CONTINUOUS
  2
_FILLED
 10
7.8714317564
 20
12.8454514241
 41
0.1875
 42
0.1875
 43
0.1875
 50
90.0
  0
ENDBLK
  5
498
100
AcDbEntity
  8
0
  6
BYBLOCK
 62
0
100
AcDbBlockEnd
  0
BLOCK
  5
499
100
AcDbEntity
  8
DRIVEN_DIMS
100
AcDbBlockBegin
 62
7
  6
CONTINUOUS
  2
*D16
 70
65
 10
0.0
 20
0.0
  3
*D16
  1

  0
MTEXT
  5
49A
100
AcDbEntity
  8
DRIVEN_DIMS
100
AcDbMText
 62
7
  6
CONTINUOUS
  7
STANDARD
 71
2
 72
1
 10
9.3718286082
 20
14.4967886151
 30
0.0
 11
1.0
 21
0.0
 31
0.0
 44
0.9
  1
2X 20\P[0.79]
 40
0.1
 41
0.6
  0
LINE
  5
49B
100
AcDbEntity
  8
DRIVEN_DIMS
100
AcDbLine
 62
7
  6
CONTINUOUS
 10
9.0571417641
 20
12.7111010304
 11
9.0571417641
 21
13.8681142049
  0
LINE
  5
49C
100
AcDbEntity
  8
DRIVEN_DIMS
100
AcDbLine
 62
7
  6
CONTINUOUS
 10
9.0571417641
 20
14.0542867163
 11
9.0571417641
 21
14.5717886151
  0
LINE
  5
49D
100
AcDbEntity
  8
DRIVEN_DIMS
100
AcDbLine
 62
7
  6
CONTINUOUS
 10
9.8445433389
 20
12.7111010304
 11
9.8445433389
 21
13.8858713873
  0
LINE
  5
49E
100
AcDbEntity
  8
DRIVEN_DIMS
100
AcDbLine
 62
7
  6
CONTINUOUS
 10
9.8445433389
 20
14.0401832634
 11
9.8445433389
 21
14.1967886151
  0
LINE
  5
49F
100
AcDbEntity
  8
DRIVEN_DIMS
100
AcDbLine
 62
7
  6
CONTINUOUS
 10
9.8445433389
 20
14.3967886151
 11
9.8445433389
 21
14.5717886151
  0
LINE
  5
4A0
100
AcDbEntity
  8
DRIVEN_DIMS
100
AcDbLine
 62
7
  6
CONTINUOUS
 10
9.0571417641
 20
14.4467886151
 11
8.6571417641
 21
14.4467886151
  0
LINE
  5
4A1
100
AcDbEntity
  8
DRIVEN_DIMS
100
AcDbLine
 62
7
  6
CONTINUOUS
 10
9.8445433389
 20
14.4467886151
 11
10.2445433389
 21
14.4467886151
  0
INSERT
  5
4A2
100
AcDbEntity
  8
DRIVEN_DIMS
100
AcDbBlockReference
 62
7
  6
CONTINUOUS
  2
_FILLED
 10
9.0571417641
 20
14.4467886151
 41
0.1875
 42
0.1875
 43
0.1875
  0
INSERT
  5
4A3
100
AcDbEntity
  8
DRIVEN_DIMS
100
AcDbBlockReference
 62
7
  6
CONTINUOUS
  2
_FILLED
 10
9.8445433389
 20
14.4467886151
 41
0.1875
 42
0.1875
 43
0.1875
 50
180.0
  0
ENDBLK
  5
4A4
100
AcDbEntity
  8
0
  6
BYBLOCK
 62
0
100
AcDbBlockEnd
  0
BLOCK
  5
4A5
100
AcDbEntity
  8
DRIVEN_DIMS
100
AcDbBlockBegin
 62
7
  6
CONTINUOUS
  2
*D17
 70
65
 10
0.0
 20
0.0
  3
*D17
  1

  0
MTEXT
  5
4A6
100
AcDbEntity
  8
DRIVEN_DIMS
100
AcDbMText
 62
7
  6
CONTINUOUS
  7
STANDARD
 71
2
 72
1
 10
9.2508425515
 20
14.9672129303
 30
0.0
 11
1.0
 21
0.0
 31
0.0
 44
0.9
  1
30\P[1.18]
 40
0.1
 41
0.6
  0
LINE
  5
4A7
100
AcDbEntity
  8
DRIVEN_DIMS
100
AcDbLine
 62
7
  6
CONTINUOUS
 10
8.8602913704
 20
12.317400243
 11
8.8602913704
 21
15.0422129303
  0
LINE
  5
4A8
100
AcDbEntity
  8
DRIVEN_DIMS
100
AcDbLine
 62
7
  6
CONTINUOUS
 10
10.0413937326
 20
12.317400243
 11
10.0413937326
 21
15.0422129303
  0
LINE
  5
4A9
100
AcDbEntity
  8
DRIVEN_DIMS
100
AcDbLine
 62
7
  6
CONTINUOUS
 10
8.8602913704
 20
14.9172129303
 11
8.4602913704
 21
14.9172129303
  0
LINE
  5
4AA
100
AcDbEntity
  8
DRIVEN_DIMS
100
AcDbLine
 62
7
  6
CONTINUOUS
 10
10.0413937326
 20
14.9172129303
 11
10.4413937326
 21
14.9172129303
  0
INSERT
  5
4AB
100
AcDbEntity
  8
DRIVEN_DIMS
100
AcDbBlockReference
 62
7
  6
CONTINUOUS
  2
_FILLED
 10
8.8602913704
 20
14.9172129303
 41
0.1875
 42
0.1875
 43
0.1875
  0
INSERT
  5
4AC
100
AcDbEntity
  8
DRIVEN_DIMS
100
AcDbBlockReference
 62
7
  6
CONTINUOUS
  2
_FILLED
 10
10.0413937326
 20
14.9172129303
 41
0.1875
 42
0.1875
 43
0.1875
 50
180.0
  0
ENDBLK
  5
4AD
100
AcDbEntity
  8
0
  6
BYBLOCK
 62
0
100
AcDbBlockEnd
  0
BLOCK
  5
4AE
100
AcDbEntity
  8
DRIVEN_DIMS
100
AcDbBlockBegin
 62
7
  6
CONTINUOUS
  2
*D18
 70
65
 10
0.0
 20
0.0
  3
*D18
  1

  0
MTEXT
  5
4AF
100
AcDbEntity
  8
DRIVEN_DIMS
100
AcDbMText
 62
7
  6
CONTINUOUS
  7
STANDARD
 71
1
 72
1
 10
10.9390358555
 20
14.0324486102
 30
0.0
 11
1.0
 21
0.0
 31
0.0
 44
0.9
  1
11\P[0.43]
 40
0.1
 41
0.6
  0
LINE
  5
4B0
100
AcDbEntity
  8
DRIVEN_DIMS
100
AcDbLine
 62
7
  6
CONTINUOUS
 10
10.0413937326
 20
12.317400243
 11
10.0413937326
 21
14.1074486102
  0
LINE
  5
4B1
100
AcDbEntity
  8
DRIVEN_DIMS
100
AcDbLine
 62
7
  6
CONTINUOUS
 10
10.4744645987
 20
12.317400243
 11
10.4744645987
 21
14.1074486102
  0
LINE
  5
4B2
100
AcDbEntity
  8
DRIVEN_DIMS
100
AcDbLine
 62
7
  6
CONTINUOUS
 10
10.0413937326
 20
13.9824486102
 11
9.6413937326
 21
13.9824486102
  0
LINE
  5
4B3
100
AcDbEntity
  8
DRIVEN_DIMS
100
AcDbLine
 62
7
  6
CONTINUOUS
 10
10.4744645987
 20
13.9824486102
 11
10.8390358555
 21
13.9824486102
  0
INSERT
  5
4B4
100
AcDbEntity
  8
DRIVEN_DIMS
100
AcDbBlockReference
 62
7
  6
CONTINUOUS
  2
_FILLED
 10
10.0413937326
 20
13.9824486102
 41
0.1875
 42
0.1875
 43
0.1875
  0
INSERT
  5
4B5
100
AcDbEntity
  8
DRIVEN_DIMS
100
AcDbBlockReference
 62
7
  6
CONTINUOUS
  2
_FILLED
 10
10.4744645987
 20
13.9824486102
 41
0.1875
 42
0.1875
 43
0.1875
 50
180.0
  0
ENDBLK
  5
4B6
100
AcDbEntity
  8
0
  6
BYBLOCK
 62
0
100
AcDbBlockEnd
  0
BLOCK
  5
4B7
100
AcDbEntity
  8
DRIVEN_DIMS
100
AcDbBlockBegin
 62
7
  6
CONTINUOUS
  2
*D19
 70
65
 10
0.0
 20
0.0
  3
*D19
  1

  0
MTEXT
  5
4B8
100
AcDbEntity
  8
DRIVEN_DIMS
100
AcDbMText
 62
7
  6
CONTINUOUS
  7
STANDARD
 71
3
 72
1
 10
7.5447253872
 20
14.0324486102
 30
0.0
 11
1.0
 21
0.0
 31
0.0
 44
0.9
  1
11\P[0.43]
 40
0.1
 41
0.6
  0
LINE
  5
4B9
100
AcDbEntity
  8
DRIVEN_DIMS
100
AcDbLine
 62
7
  6
CONTINUOUS
 10
8.4272205042
 20
12.317400243
 11
8.4272205042
 21
14.1074486102
  0
LINE
  5
4BA
100
AcDbEntity
  8
DRIVEN_DIMS
100
AcDbLine
 62
7
  6
CONTINUOUS
 10
8.8602913704
 20
12.317400243
 11
8.8602913704
 21
14.1074486102
  0
LINE
  5
4BB
100
AcDbEntity
  8
DRIVEN_DIMS
100
AcDbLine
 62
7
  6
CONTINUOUS
 10
8.4272205042
 20
13.9824486102
 11
8.0447253872
 21
13.9824486102
  0
LINE
  5
4BC
100
AcDbEntity
  8
DRIVEN_DIMS
100
AcDbLine
 62
7
  6
CONTINUOUS
 10
8.8602913704
 20
13.9824486102
 11
9.2602913704
 21
13.9824486102
  0
INSERT
  5
4BD
100
AcDbEntity
  8
DRIVEN_DIMS
100
AcDbBlockReference
 62
7
  6
CONTINUOUS
  2
_FILLED
 10
8.4272205042
 20
13.9824486102
 41
0.1875
 42
0.1875
 43
0.1875
  0
INSERT
  5
4BE
100
AcDbEntity
  8
DRIVEN_DIMS
100
AcDbBlockReference
 62
7
  6
CONTINUOUS
  2
_FILLED
 10
8.8602913704
 20
13.9824486102
 41
0.1875
 42
0.1875
 43
0.1875
 50
180.0
  0
ENDBLK
  5
4BF
100
AcDbEntity
  8
0
  6
BYBLOCK
 62
0
100
AcDbBlockEnd
  0
BLOCK
  5
4C0
100
AcDbEntity
  8
DRIVEN_DIMS
100
AcDbBlockBegin
 62
7
  6
CONTINUOUS
  2
*D20
 70
65
 10
0.0
 20
0.0
  3
*D20
  1

  0
MTEXT
  5
4C1
100
AcDbEntity
  8
DRIVEN_DIMS
100
AcDbMText
 62
7
  6
CONTINUOUS
  7
STANDARD
 71
2
 72
1
 10
7.2489367957
 20
12.3801517779
 30
0.0
 11
1.0
 21
0.0
 31
0.0
 44
0.9
  1
2X 20\P[0.79]
 40
0.1
 41
0.6
  0
LINE
  5
4C2
100
AcDbEntity
  8
DRIVEN_DIMS
100
AcDbLine
 62
7
  6
CONTINUOUS
 10
8.9946417641
 20
12.6486010304
 11
7.9785747818
 21
12.6486010304
  0
LINE
  5
4C3
100
AcDbEntity
  8
DRIVEN_DIMS
100
AcDbLine
 62
7
  6
CONTINUOUS
 10
7.7433241159
 20
12.6486010304
 11
7.3239367957
 21
12.6486010304
  0
LINE
  5
4C4
100
AcDbEntity
  8
DRIVEN_DIMS
100
AcDbLine
 62
7
  6
CONTINUOUS
 10
8.9946417641
 20
11.8611994556
 11
7.9673723691
 21
11.8611994556
  0
LINE
  5
4C5
100
AcDbEntity
  8
DRIVEN_DIMS
100
AcDbLine
 62
7
  6
CONTINUOUS
 10
7.7489253222
 20
11.8611994556
 11
7.3239367957
 21
11.8611994556
  0
LINE
  5
4C6
100
AcDbEntity
  8
DRIVEN_DIMS
100
AcDbLine
 62
7
  6
CONTINUOUS
 10
7.4489367957
 20
12.6486010304
 11
7.4489367957
 21
13.0486010304
  0
LINE
  5
4C7
100
AcDbEntity
  8
DRIVEN_DIMS
100
AcDbLine
 62
7
  6
CONTINUOUS
 10
7.4489367957
 20
11.8611994556
 11
7.4489367957
 21
11.4611994556
  0
INSERT
  5
4C8
100
AcDbEntity
  8
DRIVEN_DIMS
100
AcDbBlockReference
 62
7
  6
CONTINUOUS
  2
_FILLED
 10
7.4489367957
 20
12.6486010304
 41
0.1875
 42
0.1875
 43
0.1875
 50
270.0
  0
INSERT
  5
4C9
100
AcDbEntity
  8
DRIVEN_DIMS
100
AcDbBlockReference
 62
7
  6
CONTINUOUS
  2
_FILLED
 10
7.4489367957
 20
11.8611994556
 41
0.1875
 42
0.1875
 43
0.1875
 50
90.0
  0
ENDBLK
  5
4CA
100
AcDbEntity
  8
0
  6
BYBLOCK
 62
0
100
AcDbBlockEnd
  0
BLOCK
  5
4CB
100
AcDbEntity
  8
DRIVEN_DIMS
100
AcDbBlockBegin
 62
7
  6
CONTINUOUS
  2
*D21
 70
65
 10
0.0
 20
0.0
  3
*D21
  1

  0
MTEXT
  5
4CC
100
AcDbEntity
  8
DRIVEN_DIMS
100
AcDbMText
 62
7
  6
CONTINUOUS
  7
STANDARD
 71
2
 72
1
 10
6.5072322229
 20
12.304900243
 30
0.0
 11
1.0
 21
0.0
 31
0.0
 44
0.9
  1
30\P[1.18]
 40
0.1
 41
0.6
  0
LINE
  5
4CD
100
AcDbEntity
  8
DRIVEN_DIMS
100
AcDbLine
 62
7
  6
CONTINUOUS
 10
9.3883425515
 20
12.8454514241
 11
7.5317285707
 21
12.8454514241
  0
LINE
  5
4CE
100
AcDbEntity
  8
DRIVEN_DIMS
100
AcDbLine
 62
7
  6
CONTINUOUS
 10
7.348009003
 20
12.8454514241
 11
6.5822322229
 21
12.8454514241
  0
LINE
  5
4CF
100
AcDbEntity
  8
DRIVEN_DIMS
100
AcDbLine
 62
7
  6
CONTINUOUS
 10
9.3883425515
 20
11.6643490619
 11
7.5093237454
 21
11.6643490619
  0
LINE
  5
4D0
100
AcDbEntity
  8
DRIVEN_DIMS
100
AcDbLine
 62
7
  6
CONTINUOUS
 10
7.3524899681
 20
11.6643490619
 11
6.5822322229
 21
11.6643490619
  0
LINE
  5
4D1
100
AcDbEntity
  8
DRIVEN_DIMS
100
AcDbLine
 62
7
  6
CONTINUOUS
 10
6.7072322229
 20
12.8454514241
 11
6.7072322229
 21
12.404900243
  0
LINE
  5
4D2
100
AcDbEntity
  8
DRIVEN_DIMS
100
AcDbLine
 62
7
  6
CONTINUOUS
 10
6.7072322229
 20
11.6643490619
 11
6.7072322229
 21
11.954900243
  0
INSERT
  5
4D3
100
AcDbEntity
  8
DRIVEN_DIMS
100
AcDbBlockReference
 62
7
  6
CONTINUOUS
  2
_FILLED
 10
6.7072322229
 20
12.8454514241
 41
0.1875
 42
0.1875
 43
0.1875
 50
90.0
  0
INSERT
  5
4D4
100
AcDbEntity
  8
DRIVEN_DIMS
100
AcDbBlockReference
 62
7
  6
CONTINUOUS
  2
_FILLED
 10
6.7072322229
 20
11.6643490619
 41
0.1875
 42
0.1875
 43
0.1875
 50
270.0
  0
ENDBLK
  5
4D5
100
AcDbEntity
  8
0
  6
BYBLOCK
 62
0
100
AcDbBlockEnd
  0
BLOCK
  5
4D6
100
AcDbEntity
  8
DRIVEN_DIMS
100
AcDbBlockBegin
 62
7
  6
CONTINUOUS
  2
*D22
 70
65
 10
0.0
 20
0.0
  3
*D22
  1

  0
MTEXT
  5
4D7
100
AcDbEntity
  8
DRIVEN_DIMS
100
AcDbMText
 62
7
  6
CONTINUOUS
  7
STANDARD
 71
2
 72
1
 10
7.6714317564
 20
11.5964665557
 30
0.0
 11
1.0
 21
0.0
 31
0.0
 44
0.9
  1
11\P[0.43]
 40
0.1
 41
0.6
  0
LINE
  5
4D8
100
AcDbEntity
  8
DRIVEN_DIMS
100
AcDbLine
 62
7
  6
CONTINUOUS
 10
9.3883425515
 20
11.6643490619
 11
7.7464317564
 21
11.6643490619
  0
LINE
  5
4D9
100
AcDbEntity
  8
DRIVEN_DIMS
100
AcDbLine
 62
7
  6
CONTINUOUS
 10
9.3883425515
 20
11.2312781958
 11
7.7464317564
 21
11.2312781958
  0
LINE
  5
4DA
100
AcDbEntity
  8
DRIVEN_DIMS
100
AcDbLine
 62
7
  6
CONTINUOUS
 10
7.8714317564
 20
11.6643490619
 11
7.8714317564
 21
12.0643490619
  0
LINE
  5
4DB
100
AcDbEntity
  8
DRIVEN_DIMS
100
AcDbLine
 62
7
  6
CONTINUOUS
 10
7.8714317564
 20
11.2312781958
 11
7.8714317564
 21
10.8312781958
  0
INSERT
  5
4DC
100
AcDbEntity
  8
DRIVEN_DIMS
100
AcDbBlockReference
 62
7
  6
CONTINUOUS
  2
_FILLED
 10
7.8714317564
 20
11.6643490619
 41
0.1875
 42
0.1875
 43
0.1875
 50
270.0
  0
INSERT
  5
4DD
100
AcDbEntity
  8
DRIVEN_DIMS
100
AcDbBlockReference
 62
7
  6
CONTINUOUS
  2
_FILLED
 10
7.8714317564
 20
11.2312781958
 41
0.1875
 42
0.1875
 43
0.1875
 50
90.0
  0
ENDBLK
  5
4DE
100
AcDbEntity
  8
0
  6
BYBLOCK
 62
0
100
AcDbBlockEnd
  0
BLOCK
  5
4DF
100
AcDbEntity
  8
DRIVEN_DIMS
100
AcDbBlockBegin
 62
7
  6
CONTINUOUS
  2
*D23
 70
65
 10
0.0
 20
0.0
  3
*D23
  1

  0
MTEXT
  5
4E0
100
AcDbEntity
  8
DRIVEN_DIMS
100
AcDbMText
 62
7
  6
CONTINUOUS
  7
STANDARD
 71
2
 72
1
 10
9.2508425515
 20
10.6226442412
 30
0.0
 11
1.0
 21
0.0
 31
0.0
 44
0.9
  1
2X 40\P[1.57]
 40
0.1
 41
0.6
  0
LINE
  5
4E1
100
AcDbEntity
  8
DRIVEN_DIMS
100
AcDbLine
 62
7
  6
CONTINUOUS
 10
10.2382441263
 20
11.4049986682
 11
10.2382441263
 21
10.4476442412
  0
LINE
  5
4E2
100
AcDbEntity
  8
DRIVEN_DIMS
100
AcDbLine
 62
7
  6
CONTINUOUS
 10
8.6634409767
 20
11.4049986682
 11
8.6634409767
 21
10.4476442412
  0
LINE
  5
4E3
100
AcDbEntity
  8
DRIVEN_DIMS
100
AcDbLine
 62
7
  6
CONTINUOUS
 10
10.2382441263
 20
10.5726442412
 11
10.0008425515
 21
10.5726442412
  0
LINE
  5
4E4
100
AcDbEntity
  8
DRIVEN_DIMS
100
AcDbLine
 62
7
  6
CONTINUOUS
 10
8.6634409767
 20
10.5726442412
 11
8.9008425515
 21
10.5726442412
  0
INSERT
  5
4E5
100
AcDbEntity
  8
DRIVEN_DIMS
100
AcDbBlockReference
 62
7
  6
CONTINUOUS
  2
_FILLED
 10
10.2382441263
 20
10.5726442412
 41
0.1875
 42
0.1875
 43
0.1875
  0
INSERT
  5
4E6
100
AcDbEntity
  8
DRIVEN_DIMS
100
AcDbBlockReference
 62
7
  6
CONTINUOUS
  2
_FILLED
 10
8.6634409767
 20
10.5726442412
 41
0.1875
 42
0.1875
 43
0.1875
 50
180.0
  0
ENDBLK
  5
4E7
100
AcDbEntity
  8
0
  6
BYBLOCK
 62
0
100
AcDbBlockEnd
  0
BLOCK
  5
4E8
100
AcDbEntity
  8
DRIVEN_DIMS
100
AcDbBlockBegin
 62
7
  6
CONTINUOUS
  2
*D24
 70
65
 10
0.0
 20
0.0
  3
*D24
  1

  0
MTEXT
  5
4E9
100
AcDbEntity
  8
DRIVEN_DIMS
100
AcDbMText
 62
7
  6
CONTINUOUS
  7
TEXTSTYLE_5
 71
1
 72
1
 10
11.4093466964
 20
13.4144280466
 30
0.0
 11
1.0
 21
0.0
 31
0.0
 44
0.9
  1
{\Fgdt;n}\Ftxt;7\P[0.28]
 40
0.1
 41
0.6
  0
LINE
  5
4EA
100
AcDbEntity
  8
DRIVEN_DIMS
100
AcDbLine
 62
7
  6
CONTINUOUS
 10
9.5664070154
 20
12.3299495112
 11
11.1593466964
 21
13.3644280466
  0
LINE
  5
4EB
100
AcDbEntity
  8
DRIVEN_DIMS
100
AcDbLine
 62
7
  6
CONTINUOUS
 10
11.1593466964
 20
13.3644280466
 11
11.3093466964
 21
13.3644280466
  0
INSERT
  5
4EC
100
AcDbEntity
  8
DRIVEN_DIMS
100
AcDbBlockReference
 62
7
  6
CONTINUOUS
  2
_FILLED
 10
9.5664070154
 20
12.3299495112
 41
0.1875
 42
0.1875
 43
0.1875
 50
213.000288688
  0
ENDBLK
  5
4ED
100
AcDbEntity
  8
0
  6
BYBLOCK
 62
0
100
AcDbBlockEnd
  0
BLOCK
  5
4EE
100
AcDbEntity
  8
DRIVEN_DIMS
100
AcDbBlockBegin
 62
7
  6
CONTINUOUS
  2
*D25
 70
65
 10
0.0
 20
0.0
  3
*D25
  1

  0
MTEXT
  5
4EF
100
AcDbEntity
  8
DRIVEN_DIMS
100
AcDbMText
 62
7
  6
CONTINUOUS
  7
STANDARD
 71
1
 72
1
 10
11.4307012955
 20
12.9446268656
 30
0.0
 11
1.0
 21
0.0
 31
0.0
 44
0.9
  1
16X \Fgdt;{\Fgdt;n}\Ftxt;7\P[0.28]
 40
0.1
 41
0.6333333333
  0
LINE
  5
4F0
100
AcDbEntity
  8
DRIVEN_DIMS
100
AcDbLine
 62
7
  6
CONTINUOUS
 10
9.1810442051
 20
11.9214964131
 11
11.1807012955
 21
12.8946268656
  0
LINE
  5
4F1
100
AcDbEntity
  8
DRIVEN_DIMS
100
AcDbLine
 62
7
  6
CONTINUOUS
 10
11.1807012955
 20
12.8946268656
 11
11.3307012955
 21
12.8946268656
  0
INSERT
  5
4F2
100
AcDbEntity
  8
DRIVEN_DIMS
100
AcDbBlockReference
 62
7
  6
CONTINUOUS
  2
_FILLED
 10
9.1810442051
 20
11.9214964131
 41
0.1875
 42
0.1875
 43
0.1875
 50
205.9498088359
  0
ENDBLK
  5
4F3
100
AcDbEntity
  8
0
  6
BYBLOCK
 62
0
100
AcDbBlockEnd
  0
BLOCK
  5
4F4
100
AcDbEntity
  8
DRIVEN_DIMS
100
AcDbBlockBegin
 62
7
  6
CONTINUOUS
  2
*D26
 70
65
 10
0.0
 20
0.0
  3
*D26
  1

  0
MTEXT
  5
4F5
100
AcDbEntity
  8
DRIVEN_DIMS
100
AcDbMText
 62
7
  6
CONTINUOUS
  7
STANDARD
 71
3
 72
1
 10
14.8219540702
 20
10.7530454901
 30
0.0
 11
1.0
 21
0.0
 31
0.0
 44
0.9
  1
12X \Fgdt;{\Fgdt;n}\Ftxt;7\P[0.28]
 40
0.1
 41
0.6333333333
  0
LINE
  5
4F6
100
AcDbEntity
  8
DRIVEN_DIMS
100
AcDbLine
 62
7
  6
CONTINUOUS
 10
15.2918506863
 20
11.235644824
 11
15.5719540702
 21
10.7030454901
  0
LINE
  5
4F7
100
AcDbEntity
  8
DRIVEN_DIMS
100
AcDbLine
 62
7
  6
CONTINUOUS
 10
15.5719540702
 20
10.7030454901
 11
15.4219540702
 21
10.7030454901
  0
INSERT
  5
4F8
100
AcDbEntity
  8
DRIVEN_DIMS
100
AcDbBlockReference
 62
7
  6
CONTINUOUS
  2
_FILLED
 10
15.2918506863
 20
11.235644824
 41
0.1875
 42
0.1875
 43
0.1875
 50
117.7406737505
  0
ENDBLK
  5
4F9
100
AcDbEntity
  8
0
  6
BYBLOCK
 62
0
100
AcDbBlockEnd
  0
BLOCK
  5
4FA
100
AcDbEntity
  8
0
100
AcDbBlockBegin
  2
*T1
 70
1
 10
0.0
 20
0.0
  3
*T1
  1

  0
LINE
  5
4FB
100
AcDbEntity
  8
0
100
AcDbLine
 62
7
  6
CONTINUOUS
 10
4.35
 20
0.0
 11
0.0
 21
0.0
  0
LINE
  5
4FC
100
AcDbEntity
  8
0
100
AcDbLine
 62
7
  6
CONTINUOUS
 10
4.35
 20
0.0
 11
4.35
 21
1.92
  0
LINE
  5
4FD
100
AcDbEntity
  8
0
100
AcDbLine
 62
7
  6
CONTINUOUS
 10
4.35
 20
1.92
 11
0.0
 21
1.92
  0
LINE
  5
4FE
100
AcDbEntity
  8
0
100
AcDbLine
 62
7
  6
CONTINUOUS
 10
0.0
 20
0.0
 11
0.0
 21
1.92
  0
MTEXT
  5
4FF
100
AcDbEntity
  8
NOTES
100
AcDbMText
 62
7
  6
CONTINUOUS
  7
STANDARD
 71
2
 72
1
 10
4.125
 20
0.48
 30
0.0
 11
1.0
 21
0.0
 31
0.0
 44
0.9
  1
A
 40
0.1
 41
0.2
  0
MTEXT
  5
500
100
AcDbEntity
  8
NOTES
100
AcDbMText
 62
7
  6
CONTINUOUS
  7
STANDARD
 71
2
 72
1
 10
2.175
 20
0.93
 30
0.0
 11
1.0
 21
0.0
 31
0.0
 44
0.9
  1
SMBAMS22RA3
 40
0.1
 41
2.2
  0
ENDBLK
  5
501
100
AcDbEntity
  8
0
  6
BYBLOCK
 62
0
100
AcDbBlockEnd
  0
ENDSEC
  0
SECTION
  2
ENTITIES
  0
MTEXT
  5
502
100
AcDbEntity
  8
0
100
AcDbMText
 62
7
  6
CONTINUOUS
  7
TEXTSTYLE_2
 71
2
 72
1
 10
15.7174677477
 20
1.6655662523
 30
0.0
 11
1.0
 21
0.0
 31
0.0
 44
0.9
  1
THIRD ANGLE PROJECTION
 40
0.1
 41
1.76
  0
MTEXT
  5
503
100
AcDbEntity
  8
0
100
AcDbMText
 62
7
  6
CONTINUOUS
  7
STANDARD
 71
1
 72
1
 10
17.55
 20
1.32
 30
0.0
 11
1.0
 21
0.0
 31
0.0
 44
0.9
  1
DRAWING NO.
 40
0.08
 41
0.88
  0
MTEXT
  5
504
100
AcDbEntity
  8
0
100
AcDbMText
 62
7
  6
CONTINUOUS
  7
TEXTSTYLE_3
 71
2
 72
1
 10
15.7
 20
2.379432
 30
0.0
 11
1.0
 21
0.0
 31
0.0
 44
0.9
  1
and is proprietary in general
 40
0.08
 41
1.972
  0
MTEXT
  5
505
100
AcDbEntity
  8
0
100
AcDbMText
 62
7
  6
CONTINUOUS
  7
TEXTSTYLE_3
 71
2
 72
1
 10
15.7
 20
2.259432
 30
0.0
 11
1.0
 21
0.0
 31
0.0
 44
0.9
  1
and in detail.  Its contents
 40
0.08
 41
1.904
  0
MTEXT
  5
506
100
AcDbEntity
  8
0
100
AcDbMText
 62
7
  6
CONTINUOUS
  7
TEXTSTYLE_3
 71
2
 72
1
 10
15.7
 20
2.139432
 30
0.0
 11
1.0
 21
0.0
 31
0.0
 44
0.9
  1
shall not be revealed to
 40
0.08
 41
1.632
  0
MTEXT
  5
507
100
AcDbEntity
  8
0
100
AcDbMText
 62
7
  6
CONTINUOUS
  7
TEXTSTYLE_3
 71
2
 72
1
 10
15.7
 20
2.019432
 30
0.0
 11
1.0
 21
0.0
 31
0.0
 44
0.9
  1
outside parties without
 40
0.08
 41
1.564
  0
MTEXT
  5
508
100
AcDbEntity
  8
0
100
AcDbMText
 62
7
  6
CONTINUOUS
  7
TEXTSTYLE_3
 71
2
 72
1
 10
15.7
 20
1.899432
 30
0.0
 11
1.0
 21
0.0
 31
0.0
 44
0.9
  1
written consent of BANNER.
 40
0.08
 41
1.768
  0
MTEXT
  5
509
100
AcDbEntity
  8
0
100
AcDbMText
 62
7
  6
CONTINUOUS
  7
TEXTSTYLE_2
 71
1
 72
1
 10
16.75
 20
2.08
 30
0.0
 11
1.0
 21
0.0
 31
0.0
 44
0.9
  1
TITLE
 40
0.1
 41
0.4
  0
MTEXT
  5
50A
100
AcDbEntity
  8
0
100
AcDbMText
 62
7
  6
CONTINUOUS
  7
STANDARD
 71
1
 72
1
 10
16.75
 20
1.32
 30
0.0
 11
1.0
 21
0.0
 31
0.0
 44
0.9
  1
SIZE
 40
0.08
 41
0.32
  0
MTEXT
  5
50B
100
AcDbEntity
  8
0
100
AcDbMText
 62
7
  6
CONTINUOUS
  7
STANDARD
 71
1
 72
1
 10
16.75
 20
0.95
 30
0.0
 11
1.0
 21
0.0
 31
0.0
 44
0.9
  1
SCALE
 40
0.08
 41
0.4
  0
MTEXT
  5
50C
100
AcDbEntity
  8
0
100
AcDbMText
 62
7
  6
CONTINUOUS
  7
TEXTSTYLE_2
 71
2
 72
1
 10
17.17
 20
1.2
 30
0.0
 11
1.0
 21
0.0
 31
0.0
 44
0.9
  1
C
 40
0.1
 41
0.08
  0
MTEXT
  5
50D
100
AcDbEntity
  8
0
100
AcDbMText
 62
7
  6
CONTINUOUS
  7
TEXTSTYLE_3
 71
2
 72
1
 10
15.7
 20
2.499432
 30
0.0
 11
1.0
 21
0.0
 31
0.0
 44
0.9
  1
of BANNER ENGINEERING CORP.
 40
0.08
 41
1.836
  0
MTEXT
  5
50E
100
AcDbEntity
  8
0
100
AcDbMText
 62
7
  6
CONTINUOUS
  7
TEXTSTYLE_3
 71
2
 72
1
 10
15.7
 20
2.619432
 30
0.0
 11
1.0
 21
0.0
 31
0.0
 44
0.9
  1
This drawing is the property
 40
0.08
 41
1.904
  0
MTEXT
  5
50F
100
AcDbEntity
  8
0
100
AcDbMText
 62
7
  6
CONTINUOUS
  7
TEXTSTYLE_2
 71
2
 72
1
 10
19.7
 20
2.2764
 30
0.0
 11
1.0
 21
0.0
 31
0.0
 44
0.9
  1
MINNEAPOLIS, MN 55440
 40
0.1
 41
1.68
  0
MTEXT
  5
510
100
AcDbEntity
  8
0
100
AcDbMText
 62
7
  6
CONTINUOUS
  7
STANDARD
 71
1
 72
1
 10
18.925
 20
0.95
 30
0.0
 11
1.0
 21
0.0
 31
0.0
 44
0.9
  1
SHEET
 40
0.08
 41
0.4
  0
MTEXT
  5
511
100
AcDbEntity
  8
0
100
AcDbMText
 62
7
  6
CONTINUOUS
  7
STANDARD
 71
1
 72
1
 10
20.3
 20
1.32
 30
0.0
 11
1.0
 21
0.0
 31
0.0
 44
0.9
  1
REV.
 40
0.08
 41
0.32
  0
MTEXT
  5
512
100
AcDbEntity
  8
0
100
AcDbMText
 62
7
  6
CONTINUOUS
  7
STANDARD
 71
3
 72
1
 10
21.05
 20
0.698443
 30
0.0
 11
1.0
 21
0.0
 31
0.0
 44
0.9
  1
PRO/E
 40
0.07
 41
0.35
  0
MTEXT
  5
513
100
AcDbEntity
  8
0
100
AcDbMText
 62
7
  6
CONTINUOUS
  7
TEXTSTYLE_4
 71
2
 72
1
 10
19.7
 20
2.614049
 30
0.0
 11
1.0
 21
0.0
 31
0.0
 44
0.9
  1
BANNER ENGINEERING CORP.
 40
0.12
 41
2.6496
  0
MTEXT
  5
514
100
AcDbEntity
  8
0
100
AcDbMText
 62
7
  6
CONTINUOUS
  7
TEXTSTYLE_2
 71
2
 72
1
 10
19.7
 20
2.4354
 30
0.0
 11
1.0
 21
0.0
 31
0.0
 44
0.9
  1
P.O. BOX 9414
 40
0.1
 41
1.04
  0
MTEXT
  5
515
100
AcDbEntity
  8
0
100
AcDbMText
 62
7
  6
CONTINUOUS
  7
TEXTSTYLE_2
 71
2
 72
1
 10
12.257
 20
15.95
 30
0.0
 11
1.0
 21
0.0
 31
0.0
 44
0.9
  1
4
 40
0.1
 41
0.08
  0
MTEXT
  5
516
100
AcDbEntity
  8
0
100
AcDbMText
 62
7
  6
CONTINUOUS
  7
TEXTSTYLE_2
 71
2
 72
1
 10
12.257
 20
0.65
 30
0.0
 11
1.0
 21
0.0
 31
0.0
 44
0.9
  1
4
 40
0.1
 41
0.08
  0
MTEXT
  5
517
100
AcDbEntity
  8
0
100
AcDbMText
 62
7
  6
CONTINUOUS
  7
TEXTSTYLE_2
 71
3
 72
1
 10
0.864
 20
6.375
 30
0.0
 11
1.0
 21
0.0
 31
0.0
 44
0.9
  1
B
 40
0.1
 41
0.08
  0
MTEXT
  5
518
100
AcDbEntity
  8
0
100
AcDbMText
 62
7
  6
CONTINUOUS
  7
TEXTSTYLE_2
 71
1
 72
1
 10
21.15
 20
6.375
 30
0.0
 11
1.0
 21
0.0
 31
0.0
 44
0.9
  1
B
 40
0.1
 41
0.08
  0
MTEXT
  5
519
100
AcDbEntity
  8
0
100
AcDbMText
 62
7
  6
CONTINUOUS
  7
TEXTSTYLE_2
 71
3
 72
1
 10
0.864
 20
2.525
 30
0.0
 11
1.0
 21
0.0
 31
0.0
 44
0.9
  1
A
 40
0.1
 41
0.08
  0
MTEXT
  5
51A
100
AcDbEntity
  8
0
100
AcDbMText
 62
7
  6
CONTINUOUS
  7
TEXTSTYLE_2
 71
1
 72
1
 10
21.15
 20
2.525
 30
0.0
 11
1.0
 21
0.0
 31
0.0
 44
0.9
  1
A
 40
0.1
 41
0.08
  0
MTEXT
  5
51B
100
AcDbEntity
  8
0
100
AcDbMText
 62
7
  6
CONTINUOUS
  7
TEXTSTYLE_2
 71
3
 72
1
 10
0.864
 20
14.075
 30
0.0
 11
1.0
 21
0.0
 31
0.0
 44
0.9
  1
D
 40
0.1
 41
0.08
  0
MTEXT
  5
51C
100
AcDbEntity
  8
0
100
AcDbMText
 62
7
  6
CONTINUOUS
  7
TEXTSTYLE_2
 71
1
 72
1
 10
21.15
 20
14.075
 30
0.0
 11
1.0
 21
0.0
 31
0.0
 44
0.9
  1
D
 40
0.1
 41
0.08
  0
MTEXT
  5
51D
100
AcDbEntity
  8
0
100
AcDbMText
 62
7
  6
CONTINUOUS
  7
TEXTSTYLE_2
 71
3
 72
1
 10
0.864
 20
10.225
 30
0.0
 11
1.0
 21
0.0
 31
0.0
 44
0.9
  1
C
 40
0.1
 41
0.08
  0
MTEXT
  5
51E
100
AcDbEntity
  8
0
100
AcDbMText
 62
7
  6
CONTINUOUS
  7
TEXTSTYLE_2
 71
1
 72
1
 10
21.15
 20
10.225
 30
0.0
 11
1.0
 21
0.0
 31
0.0
 44
0.9
  1
C
 40
0.1
 41
0.08
  0
MTEXT
  5
51F
100
AcDbEntity
  8
0
100
AcDbMText
 62
7
  6
CONTINUOUS
  7
TEXTSTYLE_2
 71
2
 72
1
 10
14.757
 20
0.65
 30
0.0
 11
1.0
 21
0.0
 31
0.0
 44
0.9
  1
3
 40
0.1
 41
0.08
  0
MTEXT
  5
520
100
AcDbEntity
  8
0
100
AcDbMText
 62
7
  6
CONTINUOUS
  7
TEXTSTYLE_2
 71
2
 72
1
 10
14.757
 20
15.95
 30
0.0
 11
1.0
 21
0.0
 31
0.0
 44
0.9
  1
3
 40
0.1
 41
0.08
  0
MTEXT
  5
521
100
AcDbEntity
  8
0
100
AcDbMText
 62
7
  6
CONTINUOUS
  7
TEXTSTYLE_2
 71
2
 72
1
 10
17.257
 20
15.95
 30
0.0
 11
1.0
 21
0.0
 31
0.0
 44
0.9
  1
2
 40
0.1
 41
0.08
  0
MTEXT
  5
522
100
AcDbEntity
  8
0
100
AcDbMText
 62
7
  6
CONTINUOUS
  7
TEXTSTYLE_2
 71
2
 72
1
 10
17.257
 20
0.65
 30
0.0
 11
1.0
 21
0.0
 31
0.0
 44
0.9
  1
2
 40
0.1
 41
0.08
  0
MTEXT
  5
523
100
AcDbEntity
  8
0
100
AcDbMText
 62
7
  6
CONTINUOUS
  7
TEXTSTYLE_2
 71
2
 72
1
 10
19.757
 20
0.65
 30
0.0
 11
1.0
 21
0.0
 31
0.0
 44
0.9
  1
1
 40
0.1
 41
0.08
  0
MTEXT
  5
524
100
AcDbEntity
  8
0
100
AcDbMText
 62
7
  6
CONTINUOUS
  7
TEXTSTYLE_2
 71
2
 72
1
 10
19.757
 20
15.95
 30
0.0
 11
1.0
 21
0.0
 31
0.0
 44
0.9
  1
1
 40
0.1
 41
0.08
  0
MTEXT
  5
525
100
AcDbEntity
  8
0
100
AcDbMText
 62
7
  6
CONTINUOUS
  7
TEXTSTYLE_2
 71
2
 72
1
 10
2.257
 20
0.65
 30
0.0
 11
1.0
 21
0.0
 31
0.0
 44
0.9
  1
8
 40
0.1
 41
0.08
  0
MTEXT
  5
526
100
AcDbEntity
  8
0
100
AcDbMText
 62
7
  6
CONTINUOUS
  7
TEXTSTYLE_2
 71
2
 72
1
 10
4.757
 20
0.65
 30
0.0
 11
1.0
 21
0.0
 31
0.0
 44
0.9
  1
7
 40
0.1
 41
0.08
  0
MTEXT
  5
527
100
AcDbEntity
  8
0
100
AcDbMText
 62
7
  6
CONTINUOUS
  7
TEXTSTYLE_2
 71
2
 72
1
 10
7.257
 20
0.65
 30
0.0
 11
1.0
 21
0.0
 31
0.0
 44
0.9
  1
6
 40
0.1
 41
0.08
  0
MTEXT
  5
528
100
AcDbEntity
  8
0
100
AcDbMText
 62
7
  6
CONTINUOUS
  7
TEXTSTYLE_2
 71
2
 72
1
 10
9.757
 20
0.65
 30
0.0
 11
1.0
 21
0.0
 31
0.0
 44
0.9
  1
5
 40
0.1
 41
0.08
  0
MTEXT
  5
529
100
AcDbEntity
  8
0
100
AcDbMText
 62
7
  6
CONTINUOUS
  7
TEXTSTYLE_2
 71
2
 72
1
 10
9.757
 20
15.95
 30
0.0
 11
1.0
 21
0.0
 31
0.0
 44
0.9
  1
5
 40
0.1
 41
0.08
  0
MTEXT
  5
52A
100
AcDbEntity
  8
0
100
AcDbMText
 62
7
  6
CONTINUOUS
  7
TEXTSTYLE_2
 71
2
 72
1
 10
7.257
 20
15.95
 30
0.0
 11
1.0
 21
0.0
 31
0.0
 44
0.9
  1
6
 40
0.1
 41
0.08
  0
MTEXT
  5
52B
100
AcDbEntity
  8
0
100
AcDbMText
 62
7
  6
CONTINUOUS
  7
TEXTSTYLE_2
 71
2
 72
1
 10
4.757
 20
15.95
 30
0.0
 11
1.0
 21
0.0
 31
0.0
 44
0.9
  1
7
 40
0.1
 41
0.08
  0
MTEXT
  5
52C
100
AcDbEntity
  8
0
100
AcDbMText
 62
7
  6
CONTINUOUS
  7
TEXTSTYLE_2
 71
2
 72
1
 10
2.257
 20
15.95
 30
0.0
 11
1.0
 21
0.0
 31
0.0
 44
0.9
  1
8
 40
0.1
 41
0.08
  0
MTEXT
  5
52D
100
AcDbEntity
  8
0
100
AcDbMText
 62
7
  6
CONTINUOUS
  7
STANDARD
 71
1
 72
1
 10
17.2749123633
 20
0.9184107931
 30
0.0
 11
1.0
 21
0.0
 31
0.0
 44
0.9
  1
1:2
 40
0.1
 41
0.3
  0
MTEXT
  5
52E
100
AcDbEntity
  8
0
100
AcDbMText
 62
7
  6
CONTINUOUS
  7
STANDARD
 71
1
 72
1
 10
19.4499123633
 20
0.9184107931
 30
0.0
 11
1.0
 21
0.0
 31
0.0
 44
0.9
  1
1 OF 1
 40
0.1
 41
0.6
  0
MTEXT
  5
52F
100
AcDbEntity
  8
0
100
AcDbMText
 62
7
  6
CONTINUOUS
  7
STANDARD
 71
1
 72
1
 10
18.5204017884
 20
1.2400373234
 30
0.0
 11
1.0
 21
0.0
 31
0.0
 44
0.9
  1
177537
 40
0.12
 41
0.72
  0
MTEXT
  5
530
100
AcDbEntity
  8
0
100
AcDbMText
 62
7
  6
CONTINUOUS
  7
STANDARD
 71
1
 72
1
 10
1.7464424763
 20
1.7731130192
 30
0.0
 11
1.0
 21
0.0
 31
0.0
 44
0.9
  1
NOTES:\P1. ALL DIMENSIONS ARE MILLIMETERS [INCHES] UNLESS OTHERWISE NOTED.
 40
0.1
 41
6.6
  0
INSERT
  5
531
100
AcDbEntity
  8
0
100
AcDbBlockReference
 62
7
  6
CONTINUOUS
  2
SYMBOL_0_BL0
 10
17.5778140653
 20
2.4016160549
  0
DIMENSION
  5
532
100
AcDbEntity
  8
DRIVEN_DIMS
100
AcDbDimension
 62
7
  6
CONTINUOUS
  2
*D0
 10
4.4064231575
 20
11.3241285447
 11
5.1824879281
 21
10.8942601583
 70
162
 71
2
 42
1.5707963268
  3
DIMSTYLE_1
100
AcDb2LineAngularDimension
 13
5.4369682605
 23
10.4276388928
 14
4.3350648898
 24
10.4276388928
 15
4.4064231575
 25
11.3150730937
 16
5.0467402405
 26
11.0679559758
  0
DIMENSION
  5
533
100
AcDbEntity
  8
DRIVEN_DIMS
100
AcDbDimension
 62
7
  6
CONTINUOUS
  2
*D1
 10
2.8316200079
 20
12.7535828403
 11
3.6190215827
 21
12.6785828403
 70
160
 71
2
 42
80.0
  3
DIMSTYLE_2
100
AcDbAlignedDimension
 13
4.4064231575
 23
11.8843318062
 14
2.8316200079
 24
10.4788199952
 50
180.0
100
AcDbRotatedDimension
  0
DIMENSION
  5
534
100
AcDbEntity
  8
DRIVEN_DIMS
100
AcDbDimension
 62
7
  6
CONTINUOUS
  2
*D2
 10
4.7969543429
 20
6.0096978417
 11
4.7969543429
 21
6.5415365316
 70
160
 71
2
 42
50.0
  3
DIMSTYLE_2
100
AcDbAlignedDimension
 13
4.1547395945
 23
6.9939498102
 14
4.1549874111
 24
6.0096978417
 50
270.0
100
AcDbRotatedDimension
  0
DIMENSION
  5
535
100
AcDbEntity
  8
DRIVEN_DIMS
100
AcDbDimension
 62
7
  6
CONTINUOUS
  2
*D3
 10
5.5252299115
 20
5.0254458732
 11
5.5252299115
 21
5.9346978417
 70
160
 71
2
 42
100.0
  3
DIMSTYLE_2
100
AcDbAlignedDimension
 13
4.1549874111
 23
6.9939498102
 14
4.1549874111
 24
5.0254458732
 50
270.0
100
AcDbRotatedDimension
  0
DIMENSION
  5
536
100
AcDbEntity
  8
DRIVEN_DIMS
100
AcDbDimension
 62
7
  6
CONTINUOUS
  2
*D4
 10
3.6915807091
 20
6.1339040001
 11
1.9719630952
 21
6.7044710015
 70
163
 71
3
 42
22.5
  1
3X %%c<>
  3
DIMSTYLE_3
100
AcDbDiametricDimension
 15
4.05827348
 25
5.8854916834
  0
DIMENSION
  5
537
100
AcDbEntity
  8
DRIVEN_DIMS
100
AcDbDimension
 62
7
  6
CONTINUOUS
  2
*D5
 10
3.8749270945
 20
4.0002084321
 11
4.2381809258
 21
3.9252084321
 70
160
 71
2
 42
27.0
  3
DIMSTYLE_2
100
AcDbAlignedDimension
 13
4.4064231575
 23
4.4841072905
 14
3.8749270945
 24
4.6335708732
 50
180.0
100
AcDbRotatedDimension
  0
DIMENSION
  5
538
100
AcDbEntity
  8
DRIVEN_DIMS
100
AcDbDimension
 62
7
  6
CONTINUOUS
  2
*D6
 10
9.373597618
 20
8.3095192777
 11
8.5861960432
 21
8.2345192777
 70
160
 71
2
 42
80.0
  3
DIMSTYLE_2
100
AcDbAlignedDimension
 13
7.7987944684
 23
7.5352883929
 14
9.373597618
 24
7.4171781567
100
AcDbRotatedDimension
  0
DIMENSION
  5
539
100
AcDbEntity
  8
DRIVEN_DIMS
100
AcDbDimension
 62
7
  6
CONTINUOUS
  2
*D7
 10
10.0161502453
 20
4.4841072905
 11
10.0161502453
 21
5.9346978417
 70
160
 71
2
 42
155.0
  3
DIMSTYLE_2
100
AcDbAlignedDimension
 13
9.2554873817
 23
7.5352883929
 14
9.2554873817
 24
4.4841072905
 50
270.0
100
AcDbRotatedDimension
  0
DIMENSION
  5
53A
100
AcDbEntity
  8
DRIVEN_DIMS
100
AcDbDimension
 62
7
  6
CONTINUOUS
  2
*D8
 10
7.1805395403
 20
5.0096978417
 11
7.1805395403
 21
5.4346978417
 70
160
 71
2
 42
50.8
  3
DIMSTYLE_4
100
AcDbAlignedDimension
 13
7.4683210432
 23
6.0096978417
 14
8.459156181
 24
5.0096978417
 50
270.0
100
AcDbRotatedDimension
  0
DIMENSION
  5
53B
100
AcDbEntity
  8
DRIVEN_DIMS
100
AcDbDimension
 62
7
  6
CONTINUOUS
  2
*D9
 10
9.2554873817
 20
4.6022175268
 11
10.4821230057
 21
3.9791360074
 70
164
 71
1
 42
6.0
  1
4X R<>
  3
DIMSTYLE_5
100
AcDbRadialDimension
 15
9.3329927861
 25
4.5130943525
  0
DIMENSION
  5
53C
100
AcDbEntity
  8
DRIVEN_DIMS
100
AcDbDimension
 62
7
  6
CONTINUOUS
  2
*D10
 10
15.6214118431
 20
12.9188250378
 11
15.292500262
 21
12.8438250378
 70
160
 71
2
 42
20.0
  1
2X <>
  3
DIMSTYLE_6
100
AcDbAlignedDimension
 13
14.8340102683
 23
12.0190197041
 14
15.6214118431
 24
12.0190197041
100
AcDbRotatedDimension
  0
DIMENSION
  5
53D
100
AcDbEntity
  8
DRIVEN_DIMS
100
AcDbDimension
 62
7
  6
CONTINUOUS
  2
*D11
 10
16.0151126305
 20
13.4890978574
 11
15.2277110557
 21
13.4140978574
 70
160
 71
2
 42
40.0
  1
2X <>
  3
DIMSTYLE_6
100
AcDbAlignedDimension
 13
14.4403094809
 23
11.3221693104
 14
16.0151126305
 24
11.3221693104
100
AcDbRotatedDimension
  0
DIMENSION
  5
53E
100
AcDbEntity
  8
DRIVEN_DIMS
100
AcDbDimension
 62
7
  6
CONTINUOUS
  2
*D12
 10
16.5524916262
 20
12.0190197041
 11
17.2524916262
 21
12.5492015848
 70
160
 71
1
 42
1.2
  1
2X <>
  3
DIMSTYLE_6
100
AcDbAlignedDimension
 13
15.2277110557
 23
12.0662637986
 14
15.6214118431
 24
12.0190197041
 50
270.0
100
AcDbRotatedDimension
  0
DIMENSION
  5
53F
100
AcDbEntity
  8
DRIVEN_DIMS
100
AcDbDimension
 62
7
  6
CONTINUOUS
  2
*D13
 10
17.2730868206
 20
11.3221693104
 11
17.2730868206
 21
11.5955945073
 70
160
 71
2
 42
17.7
  1
2X <>
  3
DIMSTYLE_6
100
AcDbAlignedDimension
 13
15.6214118431
 23
12.0190197041
 14
16.0151126305
 24
11.3221693104
 50
270.0
100
AcDbRotatedDimension
  0
DIMENSION
  5
540
100
AcDbEntity
  8
DRIVEN_DIMS
100
AcDbDimension
 62
7
  6
CONTINUOUS
  2
*D14
 10
13.5852525723
 20
11.3576023813
 11
13.5852525723
 21
11.7370266668
 70
160
 71
2
 42
18.0
  1
2X <>
  3
DIMSTYLE_6
100
AcDbAlignedDimension
 13
15.2277110557
 23
12.0662637986
 14
15.2277110557
 24
11.3576023813
 50
270.0
100
AcDbRotatedDimension
  0
DIMENSION
  5
541
100
AcDbEntity
  8
DRIVEN_DIMS
100
AcDbDimension
 62
7
  6
CONTINUOUS
  2
*D15
 10
7.8714317564
 20
12.8454514241
 11
7.8714317564
 21
13.107972914
 70
160
 71
2
 42
11.0
  3
DIMSTYLE_6
100
AcDbAlignedDimension
 13
9.4508425515
 23
13.2785222903
 14
9.4508425515
 24
12.8454514241
 50
270.0
100
AcDbRotatedDimension
  0
DIMENSION
  5
542
100
AcDbEntity
  8
DRIVEN_DIMS
100
AcDbDimension
 62
7
  6
CONTINUOUS
  2
*D16
 10
9.8445433389
 20
14.4467886151
 11
9.5718286082
 21
14.3717886151
 70
160
 71
2
 42
20.0
  1
2X <>
  3
DIMSTYLE_6
100
AcDbAlignedDimension
 13
9.0571417641
 23
12.6486010304
 14
9.8445433389
 24
12.6486010304
100
AcDbRotatedDimension
  0
DIMENSION
  5
543
100
AcDbEntity
  8
DRIVEN_DIMS
100
AcDbDimension
 62
7
  6
CONTINUOUS
  2
*D17
 10
10.0413937326
 20
14.9172129303
 11
9.4508425515
 21
14.8422129303
 70
160
 71
2
 42
30.0
  3
DIMSTYLE_6
100
AcDbAlignedDimension
 13
8.8602913704
 23
12.254900243
 14
10.0413937326
 24
12.254900243
100
AcDbRotatedDimension
  0
DIMENSION
  5
544
100
AcDbEntity
  8
DRIVEN_DIMS
100
AcDbDimension
 62
7
  6
CONTINUOUS
  2
*D18
 10
10.4744645987
 20
13.9824486102
 11
11.2390358555
 21
13.9074486102
 70
160
 71
1
 42
11.0
  3
DIMSTYLE_6
100
AcDbAlignedDimension
 13
10.0413937326
 23
12.254900243
 14
10.4744645987
 24
12.254900243
100
AcDbRotatedDimension
  0
DIMENSION
  5
545
100
AcDbEntity
  8
DRIVEN_DIMS
100
AcDbDimension
 62
7
  6
CONTINUOUS
  2
*D19
 10
8.8602913704
 20
13.9824486102
 11
7.6447253872
 21
13.9074486102
 70
160
 71
3
 42
11.0
  3
DIMSTYLE_6
100
AcDbAlignedDimension
 13
8.4272205042
 23
12.254900243
 14
8.8602913704
 24
12.254900243
100
AcDbRotatedDimension
  0
DIMENSION
  5
546
100
AcDbEntity
  8
DRIVEN_DIMS
100
AcDbDimension
 62
7
  6
CONTINUOUS
  2
*D20
 10
7.4489367957
 20
11.8611994556
 11
7.4489367957
 21
12.2551517779
 70
160
 71
2
 42
20.0
  1
2X <>
  3
DIMSTYLE_6
100
AcDbAlignedDimension
 13
9.0571417641
 23
12.6486010304
 14
9.0571417641
 24
11.8611994556
 50
270.0
100
AcDbRotatedDimension
  0
DIMENSION
  5
547
100
AcDbEntity
  8
DRIVEN_DIMS
100
AcDbDimension
 62
7
  6
CONTINUOUS
  2
*D21
 10
6.7072322229
 20
11.6643490619
 11
6.7072322229
 21
12.179900243
 70
160
 71
2
 42
30.0
  3
DIMSTYLE_6
100
AcDbAlignedDimension
 13
9.4508425515
 23
12.8454514241
 14
9.4508425515
 24
11.6643490619
 50
270.0
100
AcDbRotatedDimension
  0
DIMENSION
  5
548
100
AcDbEntity
  8
DRIVEN_DIMS
100
AcDbDimension
 62
7
  6
CONTINUOUS
  2
*D22
 10
7.8714317564
 20
11.2312781958
 11
7.8714317564
 21
11.4714665557
 70
160
 71
2
 42
11.0
  3
DIMSTYLE_6
100
AcDbAlignedDimension
 13
9.4508425515
 23
11.6643490619
 14
9.4508425515
 24
11.2312781958
 50
270.0
100
AcDbRotatedDimension
  0
DIMENSION
  5
549
100
AcDbEntity
  8
DRIVEN_DIMS
100
AcDbDimension
 62
7
  6
CONTINUOUS
  2
*D23
 10
8.6634409767
 20
10.5726442412
 11
9.4508425515
 21
10.4976442412
 70
160
 71
2
 42
40.0
  1
2X <>
  3
DIMSTYLE_6
100
AcDbAlignedDimension
 13
10.2382441263
 23
11.4674986682
 14
8.6634409767
 24
11.4674986682
 50
180.0
100
AcDbRotatedDimension
  0
DIMENSION
  5
54A
100
AcDbEntity
  8
DRIVEN_DIMS
100
AcDbDimension
 62
7
  6
CONTINUOUS
  2
*D24
 10
9.5664070154
 20
12.3299495112
 11
11.7760133631
 21
13.2894280466
 70
163
 71
1
 42
7.0
  1
%%c<>
  3
DIMSTYLE_7
100
AcDbDiametricDimension
 15
9.3352780876
 25
12.1798509748
  0
DIMENSION
  5
54B
100
AcDbEntity
  8
DRIVEN_DIMS
100
AcDbDimension
 62
7
  6
CONTINUOUS
  2
*D25
 10
9.1810442051
 20
11.9214964131
 11
11.9973679622
 21
12.8196268656
 70
163
 71
1
 42
7.0
  1
16X %%c<>
  3
DIMSTYLE_7
100
AcDbDiametricDimension
 15
8.933239323
 25
11.8009024982
  0
DIMENSION
  5
54C
100
AcDbEntity
  8
DRIVEN_DIMS
100
AcDbDimension
 62
7
  6
CONTINUOUS
  2
*D26
 10
15.2918506863
 20
11.235644824
 11
14.7552874035
 21
10.6280454901
 70
163
 71
3
 42
7.0
  1
12X %%c<>
  3
DIMSTYLE_7
100
AcDbDiametricDimension
 15
15.1635714252
 25
11.4795599386
  0
ACAD_TABLE
  5
54D
100
AcDbEntity
  8
0
 62
7
  6
CONTINUOUS
100
AcDbBlockReference
  2
*T1
 10
16.7
 20
0.75
 30
0.0
100
AcDbTable
342
       850
343
236
 11
1.0
 21
0.0
 31
0.0
 90
6
 91
3
 92
5
 93
4
 94
0
 95
0
 96
0
 70
1
141
0.33
141
0.45
141
1.14
142
0.65
142
1.15
142
1.025
142
1.075
142
0.45
171
1
172
0
173
0
174
0
175
1
176
1
177
33
178
0
145
0.0
  1
 
170
1
140
0.1
171
1
172
0
173
0
174
0
175
1
176
1
177
33
178
0
145
0.0
  1
 
170
1
140
0.1
171
1
172
0
173
0
174
0
175
1
176
1
177
33
178
0
145
0.0
  1
 
170
1
140
0.1
171
1
172
0
173
0
174
0
175
1
176
1
177
33
178
0
145
0.0
  1
 
170
1
140
0.1
171
1
172
0
173
0
174
0
175
1
176
1
177
33
178
0
145
0.0
  1
 
170
1
140
0.1
171
1
172
0
173
0
174
0
175
1
176
1
177
33
178
0
145
0.0
  1
 
170
1
140
0.1
171
1
172
0
173
0
174
0
175
1
176
1
177
33
178
0
145
0.0
  1
 
170
1
140
0.1
171
1
172
0
173
0
174
0
175
1
176
1
177
33
178
0
145
0.0
  1
 
170
1
140
0.1
171
1
172
0
173
0
174
0
175
1
176
1
177
33
178
0
145
0.0
  1
 
170
1
140
0.1
171
1
172
0
173
0
174
0
175
1
176
1
177
41
178
0
145
0.0
  1
A
170
8
140
0.1
 64
7
171
1
172
0
173
0
174
0
175
5
176
1
177
33
178
0
145
0.0
  1
SMBAMS22RA3
170
8
140
0.1
171
1
172
0
173
1
174
0
175
1
176
1
177
1
178
0
145
0.0
170
1
171
1
172
0
173
1
174
0
175
1
176
1
177
1
178
0
145
0.0
170
1
171
1
172
0
173
1
174
0
175
1
176
1
177
1
178
0
145
0.0
170
1
171
1
172
0
173
1
174
0
175
1
176
1
177
1
178
0
145
0.0
170
8
  0
LEADER
  5
54E
100
AcDbEntity
  8
NOTES
100
AcDbLeader
 62
7
  6
CONTINUOUS
  3
STANDARD
 71
1
 72
0
 73
0
 75
0
 40
0.1
 41
1.2
 76
3
 10
8.3737867419
 20
4.2947598652
 30
0.0
 10
8.1974943174
 20
3.8875544278
 30
0.0
 10
7.9474943174
 20
3.8875544278
 30
0.0
340
54F
1001
ACAD
1000
DSTYLE
1002
{
1070
77
1070
0
1002
}
  0
MTEXT
  5
54F
102
{ACAD_REACTORS
330
54E
102
}
100
AcDbEntity
  8
NOTES
100
AcDbMText
 62
7
  6
CONTINUOUS
  7
STANDARD
 71
3
 72
1
 10
7.9474943174
 20
3.9375544278
 30
0.0
 11
1.0
 21
0.0
 31
0.0
 44
0.9
  1
SEE DETAIL  \H0.15;B
 40
0.1
 41
1.35
  0
LEADER
  5
550
100
AcDbEntity
  8
NOTES
100
AcDbLeader
 62
7
  6
CONTINUOUS
  3
STANDARD
 71
1
 72
0
 73
0
 75
0
 40
0.1
 41
1.2
 76
3
 10
8.175280725
 20
6.470166227
 30
0.0
 10
7.708436529
 20
6.9802382217
 30
0.0
 10
7.458436529
 20
6.9802382217
 30
0.0
340
551
1001
ACAD
1000
DSTYLE
1002
{
1070
77
1070
0
1002
}
  0
MTEXT
  5
551
102
{ACAD_REACTORS
330
550
102
}
100
AcDbEntity
  8
NOTES
100
AcDbMText
 62
7
  6
CONTINUOUS
  7
STANDARD
 71
3
 72
1
 10
7.458436529
 20
7.0302382217
 30
0.0
 11
1.0
 21
0.0
 31
0.0
 44
0.9
  1
SEE DETAIL  \H0.15;A
 40
0.1
 41
1.35
  0
MTEXT
  5
552
100
AcDbEntity
  8
NOTES
100
AcDbMText
 62
7
  6
CONTINUOUS
  7
STANDARD
 71
2
 72
1
 10
17.3518783723
 20
3.1540296579
 30
0.0
 11
1.0
 21
0.0
 31
0.0
 44
0.9
  1
ISOMETRIC VIEW\P\H0.1;SCALE  1:1
 40
0.12
 41
1.68
  0
MTEXT
  5
553
100
AcDbEntity
  8
NOTES
100
AcDbMText
 62
7
  6
CONTINUOUS
  7
STANDARD
 71
3
 72
1
 10
16.0269904275
 20
10.0408454523
 30
0.0
 11
1.0
 21
0.0
 31
0.0
 44
0.9
  1
DETAIL  \H0.15;B\P\H0.1;SCALE  1:1
 40
0.1
 41
1.0
  0
MTEXT
  5
554
100
AcDbEntity
  8
NOTES
100
AcDbMText
 62
7
  6
CONTINUOUS
  7
STANDARD
 71
3
 72
1
 10
9.8516331001
 20
9.9800158776
 30
0.0
 11
1.0
 21
0.0
 31
0.0
 44
0.9
  1
DETAIL  \H0.15;A\P\H0.1;SCALE  1:1
 40
0.1
 41
1.0
  0
INSERT
  5
555
100
AcDbEntity
  8
SYMBOLS
100
AcDbBlockReference
 62
7
  6
CONTINUOUS
  2
SYMBOL_152_BL1
 10
2.6324048262
 20
6.0294470141
  0
INSERT
  5
556
100
AcDbEntity
  8
SYMBOLS
100
AcDbBlockReference
 62
7
  6
CONTINUOUS
  2
SYMBOL_150_BL2
 10
8.5907318202
 20
7.7754918095
  0
INSERT
  5
557
100
AcDbEntity
  8
SYMBOLS
100
AcDbBlockReference
 62
7
  6
CONTINUOUS
  2
SYMBOL_151_BL3
 10
7.5825146806
 20
6.0041103073
  0
LINE
  5
558
100
AcDbEntity
  8
0
100
AcDbLine
 62
7
  6
CONTINUOUS
 10
0.814
 20
8.336603
 11
0.814
 21
8.163397
  0
LINE
  5
559
100
AcDbEntity
  8
0
100
AcDbLine
 62
7
  6
CONTINUOUS
 10
0.964
 20
15.75
 11
0.964
 21
0.75
  0
LINE
  5
55A
100
AcDbEntity
  8
0
100
AcDbLine
 62
7
  6
CONTINUOUS
 10
15.8276527477
 20
1.2966912523
 11
16.4340437477
 21
1.3660842523
  0
LINE
  5
55B
100
AcDbEntity
  8
0
100
AcDbLine
 62
7
  6
CONTINUOUS
 10
10.920397
 20
0.6
 11
11.093603
 21
0.6
  0
LINE
  5
55C
100
AcDbEntity
  8
0
100
AcDbLine
 62
7
  6
CONTINUOUS
 10
0.964
 20
0.75
 11
21.05
 21
0.75
  0
LINE
  5
55D
100
AcDbEntity
  8
0
100
AcDbLine
 62
7
  6
CONTINUOUS
 10
3.507
 20
0.75
 11
3.507
 21
0.5
  0
LINE
  5
55E
100
AcDbEntity
  8
0
100
AcDbLine
 62
7
  6
CONTINUOUS
 10
3.507
 20
15.75
 11
3.507
 21
16.0
  0
LINE
  5
55F
100
AcDbEntity
  8
0
100
AcDbLine
 62
7
  6
CONTINUOUS
 10
16.7
 20
1.0
 11
21.05
 21
1.0
  0
LINE
  5
560
100
AcDbEntity
  8
0
100
AcDbLine
 62
7
  6
CONTINUOUS
 10
14.9008917477
 20
1.1139932523
 11
15.1229827477
 21
1.1139932523
  0
LINE
  5
561
100
AcDbEntity
  8
0
100
AcDbLine
 62
7
  6
CONTINUOUS
 10
15.1729827477
 20
1.1139932523
 11
15.2729827477
 21
1.1139932523
  0
LINE
  5
562
100
AcDbEntity
  8
0
100
AcDbLine
 62
7
  6
CONTINUOUS
 10
15.3229827477
 20
1.1139932523
 11
15.5450737477
 21
1.1139932523
  0
LINE
  5
563
100
AcDbEntity
  8
0
100
AcDbLine
 62
7
  6
CONTINUOUS
 10
15.7276527477
 20
1.1139932523
 11
16.0058047477
 21
1.1139932523
  0
LINE
  5
564
100
AcDbEntity
  8
0
100
AcDbLine
 62
7
  6
CONTINUOUS
 10
16.0558047477
 20
1.1139932523
 11
16.2058907477
 21
1.1139932523
  0
LINE
  5
565
100
AcDbEntity
  8
0
100
AcDbLine
 62
7
  6
CONTINUOUS
 10
16.2558907477
 20
1.1139932523
 11
16.5340437477
 21
1.1139932523
  0
LINE
  5
566
100
AcDbEntity
  8
0
100
AcDbLine
 62
7
  6
CONTINUOUS
 10
16.7
 20
1.37
 11
21.05
 21
1.37
  0
LINE
  5
567
100
AcDbEntity
  8
0
100
AcDbLine
 62
7
  6
CONTINUOUS
 10
16.4340437477
 20
0.8619022523
 11
15.8276527477
 21
0.9312952523
  0
LINE
  5
568
100
AcDbEntity
  8
0
100
AcDbLine
 62
7
  6
CONTINUOUS
 10
14.7
 20
1.77
 11
16.7
 21
1.77
  0
LINE
  5
569
100
AcDbEntity
  8
0
100
AcDbLine
 62
7
  6
CONTINUOUS
 10
16.7
 20
2.13
 11
21.05
 21
2.13
  0
LINE
  5
56A
100
AcDbEntity
  8
0
100
AcDbLine
 62
7
  6
CONTINUOUS
 10
21.05
 20
2.67
 11
14.7
 21
2.67
  0
LINE
  5
56B
100
AcDbEntity
  8
0
100
AcDbLine
 62
7
  6
CONTINUOUS
 10
6.007
 20
0.75
 11
6.007
 21
0.5
  0
LINE
  5
56C
100
AcDbEntity
  8
0
100
AcDbLine
 62
7
  6
CONTINUOUS
 10
6.007
 20
15.75
 11
6.007
 21
16.0
  0
LINE
  5
56D
100
AcDbEntity
  8
0
100
AcDbLine
 62
7
  6
CONTINUOUS
 10
0.814
 20
8.163397
 11
0.964
 21
8.25
  0
LINE
  5
56E
100
AcDbEntity
  8
0
100
AcDbLine
 62
7
  6
CONTINUOUS
 10
0.964
 20
8.25
 11
0.814
 21
8.336603
  0
LINE
  5
56F
100
AcDbEntity
  8
0
100
AcDbLine
 62
7
  6
CONTINUOUS
 10
0.964
 20
4.4
 11
0.714
 21
4.4
  0
LINE
  5
570
100
AcDbEntity
  8
0
100
AcDbLine
 62
7
  6
CONTINUOUS
 10
21.05
 20
4.4
 11
21.3
 21
4.4
  0
LINE
  5
571
100
AcDbEntity
  8
0
100
AcDbLine
 62
7
  6
CONTINUOUS
 10
11.093603
 20
0.6
 11
11.007
 21
0.75
  0
LINE
  5
572
100
AcDbEntity
  8
0
100
AcDbLine
 62
7
  6
CONTINUOUS
 10
11.007
 20
15.75
 11
11.093603
 21
15.9
  0
LINE
  5
573
100
AcDbEntity
  8
0
100
AcDbLine
 62
7
  6
CONTINUOUS
 10
8.507
 20
0.75
 11
8.507
 21
0.5
  0
LINE
  5
574
100
AcDbEntity
  8
0
100
AcDbLine
 62
7
  6
CONTINUOUS
 10
8.507
 20
15.75
 11
8.507
 21
16.0
  0
LINE
  5
575
100
AcDbEntity
  8
0
100
AcDbLine
 62
7
  6
CONTINUOUS
 10
11.007
 20
0.75
 11
11.007
 21
0.5
  0
LINE
  5
576
100
AcDbEntity
  8
0
100
AcDbLine
 62
7
  6
CONTINUOUS
 10
11.007
 20
15.75
 11
11.007
 21
16.0
  0
LINE
  5
577
100
AcDbEntity
  8
0
100
AcDbLine
 62
7
  6
CONTINUOUS
 10
0.964
 20
8.25
 11
0.714
 21
8.25
  0
LINE
  5
578
100
AcDbEntity
  8
0
100
AcDbLine
 62
7
  6
CONTINUOUS
 10
21.05
 20
8.25
 11
21.3
 21
8.25
  0
LINE
  5
579
100
AcDbEntity
  8
0
100
AcDbLine
 62
7
  6
CONTINUOUS
 10
13.507
 20
0.75
 11
13.507
 21
0.5
  0
LINE
  5
57A
100
AcDbEntity
  8
0
100
AcDbLine
 62
7
  6
CONTINUOUS
 10
13.507
 20
15.75
 11
13.507
 21
16.0
  0
LINE
  5
57B
100
AcDbEntity
  8
0
100
AcDbLine
 62
7
  6
CONTINUOUS
 10
14.7
 20
2.67
 11
14.7
 21
0.75
  0
LINE
  5
57C
100
AcDbEntity
  8
0
100
AcDbLine
 62
7
  6
CONTINUOUS
 10
11.007
 20
0.75
 11
10.920397
 21
0.6
  0
LINE
  5
57D
100
AcDbEntity
  8
0
100
AcDbLine
 62
7
  6
CONTINUOUS
 10
0.964
 20
12.1
 11
0.714
 21
12.1
  0
LINE
  5
57E
100
AcDbEntity
  8
0
100
AcDbLine
 62
7
  6
CONTINUOUS
 10
21.05
 20
12.1
 11
21.3
 21
12.1
  0
LINE
  5
57F
100
AcDbEntity
  8
0
100
AcDbLine
 62
7
  6
CONTINUOUS
 10
10.920397
 20
15.9
 11
11.007
 21
15.75
  0
LINE
  5
580
100
AcDbEntity
  8
0
100
AcDbLine
 62
7
  6
CONTINUOUS
 10
15.2229827477
 20
1.0139932523
 11
15.2229827477
 21
0.7919022523
  0
LINE
  5
581
100
AcDbEntity
  8
0
100
AcDbLine
 62
7
  6
CONTINUOUS
 10
15.2229827477
 20
1.0639932523
 11
15.2229827477
 21
1.1639932523
  0
LINE
  5
582
100
AcDbEntity
  8
0
100
AcDbLine
 62
7
  6
CONTINUOUS
 10
15.2229827477
 20
1.2139932523
 11
15.2229827477
 21
1.4360842523
  0
LINE
  5
583
100
AcDbEntity
  8
0
100
AcDbLine
 62
7
  6
CONTINUOUS
 10
15.8276527477
 20
0.9312952523
 11
15.8276527477
 21
1.2966912523
  0
LINE
  5
584
100
AcDbEntity
  8
0
100
AcDbLine
 62
7
  6
CONTINUOUS
 10
16.007
 20
0.75
 11
16.007
 21
0.5
  0
LINE
  5
585
100
AcDbEntity
  8
0
100
AcDbLine
 62
7
  6
CONTINUOUS
 10
16.007
 20
15.75
 11
16.007
 21
16.0
  0
LINE
  5
586
100
AcDbEntity
  8
0
100
AcDbLine
 62
7
  6
CONTINUOUS
 10
16.4340437477
 20
1.3660842523
 11
16.4340437477
 21
0.8619022523
  0
LINE
  5
587
100
AcDbEntity
  8
0
100
AcDbLine
 62
7
  6
CONTINUOUS
 10
21.2
 20
8.336603
 11
21.05
 21
8.25
  0
LINE
  5
588
100
AcDbEntity
  8
0
100
AcDbLine
 62
7
  6
CONTINUOUS
 10
21.05
 20
8.25
 11
21.2
 21
8.163397
  0
LINE
  5
589
100
AcDbEntity
  8
0
100
AcDbLine
 62
7
  6
CONTINUOUS
 10
16.7
 20
2.67
 11
16.7
 21
0.75
  0
LINE
  5
58A
100
AcDbEntity
  8
0
100
AcDbLine
 62
7
  6
CONTINUOUS
 10
17.5
 20
1.37
 11
17.5
 21
1.0
  0
LINE
  5
58B
100
AcDbEntity
  8
0
100
AcDbLine
 62
7
  6
CONTINUOUS
 10
18.507
 20
0.75
 11
18.507
 21
0.5
  0
LINE
  5
58C
100
AcDbEntity
  8
0
100
AcDbLine
 62
7
  6
CONTINUOUS
 10
18.507
 20
15.75
 11
18.507
 21
16.0
  0
LINE
  5
58D
100
AcDbEntity
  8
0
100
AcDbLine
 62
7
  6
CONTINUOUS
 10
21.05
 20
15.75
 11
0.964
 21
15.75
  0
LINE
  5
58E
100
AcDbEntity
  8
0
100
AcDbLine
 62
7
  6
CONTINUOUS
 10
11.093603
 20
15.9
 11
10.920397
 21
15.9
  0
LINE
  5
58F
100
AcDbEntity
  8
0
100
AcDbLine
 62
7
  6
CONTINUOUS
 10
18.875
 20
1.0
 11
18.875
 21
0.75
  0
LINE
  5
590
100
AcDbEntity
  8
0
100
AcDbLine
 62
7
  6
CONTINUOUS
 10
20.25
 20
1.37
 11
20.25
 21
1.0
  0
LINE
  5
591
100
AcDbEntity
  8
0
100
AcDbLine
 62
7
  6
CONTINUOUS
 10
21.05
 20
0.75
 11
21.05
 21
15.75
  0
LINE
  5
592
100
AcDbEntity
  8
0
100
AcDbLine
 62
7
  6
CONTINUOUS
 10
21.2
 20
8.163397
 11
21.2
 21
8.336603
  0
LINE
  5
593
100
AcDbEntity
  8
0
100
AcDbLine
 62
7
  6
CONTINUOUS
 10
2.9497302442
 20
4.4841072905
 11
4.4064231575
 21
4.4841072905
  0
LINE
  5
594
100
AcDbEntity
  8
02___PRT_ALL_AXES
100
AcDbLine
 62
7
  6
CENTER
 10
3.8749270945
 20
5.0254458732
 11
3.5534704016
 21
5.0254458732
  0
LINE
  5
595
100
AcDbEntity
  8
02___PRT_ALL_AXES
100
AcDbLine
 62
7
  6
CENTER
 10
3.8749270945
 20
5.0254458732
 11
4.1963837875
 21
5.0254458732
  0
LINE
  5
596
100
AcDbEntity
  8
0
100
AcDbLine
 62
7
  6
CONTINUOUS
 10
2.8316200079
 20
7.4171781567
 11
2.8316200079
 21
4.6022175268
  0
LINE
  5
597
100
AcDbEntity
  8
02___PRT_ALL_AXES
100
AcDbLine
 62
7
  6
CENTER
 10
2.7316200079
 20
6.0096978417
 11
4.5064231575
 21
6.0096978417
  0
LINE
  5
598
100
AcDbEntity
  8
02___PRT_ALL_AXES
100
AcDbLine
 62
7
  6
CENTER
 10
3.8749270945
 20
6.9939498102
 11
3.8749270945
 21
6.6724931173
  0
LINE
  5
599
100
AcDbEntity
  8
02___PRT_ALL_AXES
100
AcDbLine
 62
7
  6
CENTER
 10
3.8749270945
 20
6.0096978417
 11
3.8749270945
 21
5.6882411488
  0
LINE
  5
59A
100
AcDbEntity
  8
02___PRT_ALL_AXES
100
AcDbLine
 62
7
  6
CENTER
 10
3.8749270945
 20
5.0254458732
 11
3.8749270945
 21
4.7039891803
  0
LINE
  5
59B
100
AcDbEntity
  8
02___PRT_ALL_AXES
100
AcDbLine
 62
7
  6
CENTER
 10
3.8749270945
 20
5.0254458732
 11
3.8749270945
 21
5.3469025661
  0
LINE
  5
59C
100
AcDbEntity
  8
02___PRT_ALL_AXES
100
AcDbLine
 62
7
  6
CENTER
 10
3.8749270945
 20
6.0096978417
 11
3.8749270945
 21
6.3311545346
  0
LINE
  5
59D
100
AcDbEntity
  8
02___PRT_ALL_AXES
100
AcDbLine
 62
7
  6
CENTER
 10
3.8749270945
 20
6.9939498102
 11
3.8749270945
 21
7.3154065031
  0
LINE
  5
59E
100
AcDbEntity
  8
0
100
AcDbLine
 62
7
  6
CONTINUOUS
 10
4.2725648898
 20
4.4841072905
 11
4.2725648898
 21
7.5352883929
  0
LINE
  5
59F
100
AcDbEntity
  8
0
100
AcDbLine
 62
7
  6
CONTINUOUS
 10
4.4064231575
 20
4.4841072905
 11
4.4064231575
 21
7.5352883929
  0
LINE
  5
5A0
100
AcDbEntity
  8
02___PRT_ALL_AXES
100
AcDbLine
 62
7
  6
CENTER
 10
3.8749270945
 20
6.9939498102
 11
3.5534704016
 21
6.9939498102
  0
LINE
  5
5A1
100
AcDbEntity
  8
02___PRT_ALL_AXES
100
AcDbLine
 62
7
  6
CENTER
 10
3.8749270945
 20
6.9939498102
 11
4.1963837875
 21
6.9939498102
  0
LINE
  5
5A2
100
AcDbEntity
  8
0
100
AcDbLine
 62
7
  6
CONTINUOUS
 10
2.9497302442
 20
7.5352883929
 11
4.4064231575
 21
7.5352883929
  0
LINE
  5
5A3
100
AcDbEntity
  8
0
100
AcDbLine
 62
7
  6
CONTINUOUS
 10
7.7987944684
 20
4.4841072905
 11
9.2554873817
 21
4.4841072905
  0
LINE
  5
5A4
100
AcDbEntity
  8
02___PRT_ALL_AXES
100
AcDbLine
 62
7
  6
CENTER
 10
8.9798968306
 20
4.6376505976
 11
8.8109991928
 21
4.6376505976
  0
LINE
  5
5A5
100
AcDbEntity
  8
02___PRT_ALL_AXES
100
AcDbLine
 62
7
  6
CENTER
 10
8.1924952558
 20
4.6376505976
 11
8.023597618
 21
4.6376505976
  0
LINE
  5
5A6
100
AcDbEntity
  8
02___PRT_ALL_AXES
100
AcDbLine
 62
7
  6
CENTER
 10
8.1924952558
 20
4.6376505976
 11
8.3613928936
 21
4.6376505976
  0
LINE
  5
5A7
100
AcDbEntity
  8
02___PRT_ALL_AXES
100
AcDbLine
 62
7
  6
CENTER
 10
8.9798968306
 20
4.6376505976
 11
9.1487944684
 21
4.6376505976
  0
LINE
  5
5A8
100
AcDbEntity
  8
02___PRT_ALL_AXES
100
AcDbLine
 62
7
  6
CENTER
 10
8.5861960432
 20
4.6553671331
 11
8.4172984054
 21
4.6553671331
  0
LINE
  5
5A9
100
AcDbEntity
  8
02___PRT_ALL_AXES
100
AcDbLine
 62
7
  6
CENTER
 10
8.5861960432
 20
4.6553671331
 11
8.755093681
 21
4.6553671331
  0
LINE
  5
5AA
100
AcDbEntity
  8
02___PRT_ALL_AXES
100
AcDbLine
 62
7
  6
CENTER
 10
8.7830464369
 20
4.9860757945
 11
8.6141487991
 21
4.9860757945
  0
LINE
  5
5AB
100
AcDbEntity
  8
02___PRT_ALL_AXES
100
AcDbLine
 62
7
  6
CENTER
 10
8.3893456495
 20
4.9860757945
 11
8.2204480117
 21
4.9860757945
  0
LINE
  5
5AC
100
AcDbEntity
  8
02___PRT_ALL_AXES
100
AcDbLine
 62
7
  6
CENTER
 10
8.3893456495
 20
4.9860757945
 11
8.5582432873
 21
4.9860757945
  0
LINE
  5
5AD
100
AcDbEntity
  8
02___PRT_ALL_AXES
100
AcDbLine
 62
7
  6
CENTER
 10
8.7830464369
 20
4.9860757945
 11
8.9519440747
 21
4.9860757945
  0
LINE
  5
5AE
100
AcDbEntity
  8
02___PRT_ALL_AXES
100
AcDbLine
 62
7
  6
CENTER
 10
8.5861960432
 20
5.0096978417
 11
8.4172984054
 21
5.0096978417
  0
LINE
  5
5AF
100
AcDbEntity
  8
02___PRT_ALL_AXES
100
AcDbLine
 62
7
  6
CENTER
 10
8.5861960432
 20
5.0096978417
 11
8.755093681
 21
5.0096978417
  0
LINE
  5
5B0
100
AcDbEntity
  8
0
100
AcDbLine
 62
7
  6
CONTINUOUS
 10
7.7987944684
 20
4.4841072905
 11
7.7987944684
 21
7.5352883929
  0
LINE
  5
5B1
100
AcDbEntity
  8
0
100
AcDbLine
 62
7
  6
CONTINUOUS
 10
7.9326527361
 20
4.4841072905
 11
7.9326527361
 21
7.5352883929
  0
LINE
  5
5B2
100
AcDbEntity
  8
02___PRT_ALL_AXES
100
AcDbLine
 62
7
  6
CENTER
 10
8.0743850195
 20
6.0096978417
 11
8.0743850195
 21
5.8408002039
  0
LINE
  5
5B3
100
AcDbEntity
  8
02___PRT_ALL_AXES
100
AcDbLine
 62
7
  6
CENTER
 10
8.0743850195
 20
6.0096978417
 11
8.0743850195
 21
6.1785954795
  0
LINE
  5
5B4
100
AcDbEntity
  8
02___PRT_ALL_AXES
100
AcDbLine
 62
7
  6
CENTER
 10
8.5861960432
 20
5.4978868181
 11
8.4172984054
 21
5.4978868181
  0
LINE
  5
5B5
100
AcDbEntity
  8
02___PRT_ALL_AXES
100
AcDbLine
 62
7
  6
CENTER
 10
8.5861960432
 20
5.4978868181
 11
8.755093681
 21
5.4978868181
  0
LINE
  5
5B6
100
AcDbEntity
  8
02___PRT_ALL_AXES
100
AcDbLine
 62
7
  6
CENTER
 10
8.1924952558
 20
7.3817450858
 11
8.1924952558
 21
7.212847448
  0
LINE
  5
5B7
100
AcDbEntity
  8
02___PRT_ALL_AXES
100
AcDbLine
 62
7
  6
CENTER
 10
8.1924952558
 20
6.4033986291
 11
8.1924952558
 21
6.2345009913
  0
LINE
  5
5B8
100
AcDbEntity
  8
02___PRT_ALL_AXES
100
AcDbLine
 62
7
  6
CENTER
 10
8.1924952558
 20
5.6159970543
 11
8.1924952558
 21
5.4470994165
  0
LINE
  5
5B9
100
AcDbEntity
  8
02___PRT_ALL_AXES
100
AcDbLine
 62
7
  6
CENTER
 10
8.1924952558
 20
4.6376505976
 11
8.1924952558
 21
4.4687529598
  0
LINE
  5
5BA
100
AcDbEntity
  8
02___PRT_ALL_AXES
100
AcDbLine
 62
7
  6
CENTER
 10
8.1924952558
 20
4.6376505976
 11
8.1924952558
 21
4.8065482354
  0
LINE
  5
5BB
100
AcDbEntity
  8
02___PRT_ALL_AXES
100
AcDbLine
 62
7
  6
CENTER
 10
8.1924952558
 20
5.6159970543
 11
8.1924952558
 21
5.7848946921
  0
LINE
  5
5BC
100
AcDbEntity
  8
02___PRT_ALL_AXES
100
AcDbLine
 62
7
  6
CENTER
 10
8.1924952558
 20
6.4033986291
 11
8.1924952558
 21
6.5722962669
  0
LINE
  5
5BD
100
AcDbEntity
  8
02___PRT_ALL_AXES
100
AcDbLine
 62
7
  6
CENTER
 10
8.1924952558
 20
7.3817450858
 11
8.1924952558
 21
7.5506427236
  0
LINE
  5
5BE
100
AcDbEntity
  8
02___PRT_ALL_AXES
100
AcDbLine
 62
7
  6
CONTINUOUS
 10
8.9199107965
 20
7.4156355005
 11
8.7230604028
 21
7.0672103037
  0
LINE
  5
5BF
100
AcDbEntity
  8
02___PRT_ALL_AXES
100
AcDbLine
 62
7
  6
CENTER
 10
8.9798968306
 20
5.6159970543
 11
8.8109991928
 21
5.6159970543
  0
LINE
  5
5C0
100
AcDbEntity
  8
02___PRT_ALL_AXES
100
AcDbLine
 62
7
  6
CENTER
 10
8.1924952558
 20
5.6159970543
 11
8.023597618
 21
5.6159970543
  0
LINE
  5
5C1
100
AcDbEntity
  8
02___PRT_ALL_AXES
100
AcDbLine
 62
7
  6
CENTER
 10
8.1924952558
 20
5.6159970543
 11
8.3613928936
 21
5.6159970543
  0
LINE
  5
5C2
100
AcDbEntity
  8
02___PRT_ALL_AXES
100
AcDbLine
 62
7
  6
CENTER
 10
8.9798968306
 20
5.6159970543
 11
9.1487944684
 21
5.6159970543
  0
LINE
  5
5C3
100
AcDbEntity
  8
02___PRT_ALL_AXES
100
AcDbLine
 62
7
  6
CONTINUOUS
 10
8.9199107965
 20
4.6037601829
 11
8.7230604028
 21
4.9521853798
  0
LINE
  5
5C4
100
AcDbEntity
  8
02___PRT_ALL_AXES
100
AcDbLine
 62
7
  6
CENTER
 10
8.2909204526
 20
6.0096978417
 11
8.2909204526
 21
5.8408002039
  0
LINE
  5
5C5
100
AcDbEntity
  8
02___PRT_ALL_AXES
100
AcDbLine
 62
7
  6
CENTER
 10
8.2909204526
 20
6.0096978417
 11
8.2909204526
 21
6.1785954795
  0
LINE
  5
5C6
100
AcDbEntity
  8
02___PRT_ALL_AXES
100
AcDbLine
 62
7
  6
CONTINUOUS
 10
8.8430324709
 20
6.9994294742
 11
9.0398828646
 21
7.3478546711
  0
LINE
  5
5C7
100
AcDbEntity
  8
02___PRT_ALL_AXES
100
AcDbLine
 62
7
  6
CENTER
 10
8.5861960432
 20
5.7144222512
 11
8.4172984054
 21
5.7144222512
  0
LINE
  5
5C8
100
AcDbEntity
  8
02___PRT_ALL_AXES
100
AcDbLine
 62
7
  6
CENTER
 10
8.5861960432
 20
5.7144222512
 11
8.755093681
 21
5.7144222512
  0
LINE
  5
5C9
100
AcDbEntity
  8
02___PRT_ALL_AXES
100
AcDbLine
 62
7
  6
CONTINUOUS
 10
8.8430324709
 20
5.0199662092
 11
9.0398828646
 21
4.6715410124
  0
LINE
  5
5CA
100
AcDbEntity
  8
02___PRT_ALL_AXES
100
AcDbLine
 62
7
  6
CENTER
 10
8.3893456495
 20
7.033319889
 11
8.3893456495
 21
6.8644222512
  0
LINE
  5
5CB
100
AcDbEntity
  8
02___PRT_ALL_AXES
100
AcDbLine
 62
7
  6
CENTER
 10
8.3893456495
 20
6.2065482354
 11
8.3893456495
 21
6.0376505976
  0
LINE
  5
5CC
100
AcDbEntity
  8
02___PRT_ALL_AXES
100
AcDbLine
 62
7
  6
CENTER
 10
8.3893456495
 20
5.812847448
 11
8.3893456495
 21
5.6439498102
  0
LINE
  5
5CD
100
AcDbEntity
  8
02___PRT_ALL_AXES
100
AcDbLine
 62
7
  6
CENTER
 10
8.3893456495
 20
4.9860757945
 11
8.3893456495
 21
4.8171781567
  0
LINE
  5
5CE
100
AcDbEntity
  8
02___PRT_ALL_AXES
100
AcDbLine
 62
7
  6
CENTER
 10
8.3893456495
 20
4.9860757945
 11
8.3893456495
 21
5.1549734323
  0
LINE
  5
5CF
100
AcDbEntity
  8
02___PRT_ALL_AXES
100
AcDbLine
 62
7
  6
CENTER
 10
8.3893456495
 20
5.812847448
 11
8.3893456495
 21
5.9817450858
  0
LINE
  5
5D0
100
AcDbEntity
  8
02___PRT_ALL_AXES
100
AcDbLine
 62
7
  6
CENTER
 10
8.3893456495
 20
6.2065482354
 11
8.3893456495
 21
6.3754458732
  0
LINE
  5
5D1
100
AcDbEntity
  8
02___PRT_ALL_AXES
100
AcDbLine
 62
7
  6
CENTER
 10
8.3893456495
 20
7.033319889
 11
8.3893456495
 21
7.2022175268
  0
LINE
  5
5D2
100
AcDbEntity
  8
02___PRT_ALL_AXES
100
AcDbLine
 62
7
  6
CENTER
 10
8.7830464369
 20
5.812847448
 11
8.6141487991
 21
5.812847448
  0
LINE
  5
5D3
100
AcDbEntity
  8
02___PRT_ALL_AXES
100
AcDbLine
 62
7
  6
CENTER
 10
8.3893456495
 20
5.812847448
 11
8.2204480117
 21
5.812847448
  0
LINE
  5
5D4
100
AcDbEntity
  8
02___PRT_ALL_AXES
100
AcDbLine
 62
7
  6
CENTER
 10
8.3893456495
 20
5.812847448
 11
8.5582432873
 21
5.812847448
  0
LINE
  5
5D5
100
AcDbEntity
  8
02___PRT_ALL_AXES
100
AcDbLine
 62
7
  6
CENTER
 10
8.7830464369
 20
5.812847448
 11
8.9519440747
 21
5.812847448
  0
LINE
  5
5D6
100
AcDbEntity
  8
02___PRT_ALL_AXES
100
AcDbLine
 62
7
  6
CONTINUOUS
 10
8.5172984054
 20
7.3640285504
 11
8.5172984054
 21
7.0096978417
  0
LINE
  5
5D7
100
AcDbEntity
  8
02___PRT_ALL_AXES
100
AcDbLine
 62
7
  6
CONTINUOUS
 10
8.5172984054
 20
4.6553671331
 11
8.5172984054
 21
5.0096978417
  0
LINE
  5
5D8
100
AcDbEntity
  8
02___PRT_ALL_AXES
100
AcDbLine
 62
7
  6
CONTINUOUS
 10
8.5172984054
 20
5.4978868181
 11
8.5172984054
 21
5.7144222512
  0
LINE
  5
5D9
100
AcDbEntity
  8
02___PRT_ALL_AXES
100
AcDbLine
 62
7
  6
CONTINUOUS
 10
8.5172984054
 20
6.3049734323
 11
8.5172984054
 21
6.5215088653
  0
LINE
  5
5DA
100
AcDbEntity
  8
02___PRT_ALL_AXES
100
AcDbLine
 62
7
  6
CENTER
 10
8.5861960432
 20
7.3640285504
 11
8.5861960432
 21
7.1951309126
  0
LINE
  5
5DB
100
AcDbEntity
  8
02___PRT_ALL_AXES
100
AcDbLine
 62
7
  6
CENTER
 10
8.5861960432
 20
7.0096978417
 11
8.5861960432
 21
6.8408002039
  0
LINE
  5
5DC
100
AcDbEntity
  8
02___PRT_ALL_AXES
100
AcDbLine
 62
7
  6
CENTER
 10
8.5861960432
 20
6.5215088653
 11
8.5861960432
 21
6.3526112276
  0
LINE
  5
5DD
100
AcDbEntity
  8
02___PRT_ALL_AXES
100
AcDbLine
 62
7
  6
CENTER
 10
8.5861960432
 20
6.3049734323
 11
8.5861960432
 21
6.1360757945
  0
LINE
  5
5DE
100
AcDbEntity
  8
02___PRT_ALL_AXES
100
AcDbLine
 62
7
  6
CENTER
 10
8.5861960432
 20
6.0096978417
 11
8.5861960432
 21
4.4029871475
  0
LINE
  5
5DF
100
AcDbEntity
  8
02___PRT_ALL_AXES
100
AcDbLine
 62
7
  6
CENTER
 10
8.5861960432
 20
6.3049734323
 11
8.5861960432
 21
6.3526112276
  0
LINE
  5
5E0
100
AcDbEntity
  8
02___PRT_ALL_AXES
100
AcDbLine
 62
7
  6
CENTER
 10
8.5861960432
 20
6.5215088653
 11
8.5861960432
 21
6.6904065031
  0
LINE
  5
5E1
100
AcDbEntity
  8
02___PRT_ALL_AXES
100
AcDbLine
 62
7
  6
CENTER
 10
8.5861960432
 20
7.0096978417
 11
8.5861960432
 21
7.1785954795
  0
LINE
  5
5E2
100
AcDbEntity
  8
02___PRT_ALL_AXES
100
AcDbLine
 62
7
  6
CENTER
 10
8.5861960432
 20
7.3640285504
 11
8.5861960432
 21
7.5329261882
  0
LINE
  5
5E3
100
AcDbEntity
  8
02___PRT_ALL_AXES
100
AcDbLine
 62
7
  6
CENTER
 10
8.5861960432
 20
6.0096978417
 11
8.5861960432
 21
6.1360757945
  0
LINE
  5
5E4
100
AcDbEntity
  8
02___PRT_ALL_AXES
100
AcDbLine
 62
7
  6
CENTER
 10
8.5861960432
 20
7.5329261882
 11
8.5861960432
 21
7.6376838036
  0
LINE
  5
5E5
100
AcDbEntity
  8
02___PRT_ALL_AXES
100
AcDbLine
 62
7
  6
CENTER
 10
8.5861960432
 20
7.1785954795
 11
8.5861960432
 21
7.1951309126
  0
LINE
  5
5E6
100
AcDbEntity
  8
02___PRT_ALL_AXES
100
AcDbLine
 62
7
  6
CENTER
 10
8.5861960432
 20
6.6904065031
 11
8.5861960432
 21
6.8408002039
  0
LINE
  5
5E7
100
AcDbEntity
  8
02___PRT_ALL_AXES
100
AcDbLine
 62
7
  6
CONTINUOUS
 10
8.1437772689
 20
5.6647150412
 11
8.3406276626
 21
5.8615654349
  0
LINE
  5
5E8
100
AcDbEntity
  8
02___PRT_ALL_AXES
100
AcDbLine
 62
7
  6
CONTINUOUS
 10
8.73432845
 20
6.2552662223
 11
8.9311788437
 21
6.452116616
  0
LINE
  5
5E9
100
AcDbEntity
  8
02___PRT_ALL_AXES
100
AcDbLine
 62
7
  6
CONTINUOUS
 10
9.0980070668
 20
5.9408002039
 11
8.8814716337
 21
5.9408002039
  0
LINE
  5
5EA
100
AcDbEntity
  8
02___PRT_ALL_AXES
100
AcDbLine
 62
7
  6
CONTINUOUS
 10
8.2909204526
 20
5.9408002039
 11
8.0743850195
 21
5.9408002039
  0
LINE
  5
5EB
100
AcDbEntity
  8
02___PRT_ALL_AXES
100
AcDbLine
 62
7
  6
CENTER
 10
9.0980070668
 20
6.0096978417
 11
8.929109429
 21
6.0096978417
  0
LINE
  5
5EC
100
AcDbEntity
  8
02___PRT_ALL_AXES
100
AcDbLine
 62
7
  6
CENTER
 10
8.8814716337
 20
6.0096978417
 11
8.7125739959
 21
6.0096978417
  0
LINE
  5
5ED
100
AcDbEntity
  8
02___PRT_ALL_AXES
100
AcDbLine
 62
7
  6
CENTER
 10
8.2909204526
 20
6.0096978417
 11
8.1220228148
 21
6.0096978417
  0
LINE
  5
5EE
100
AcDbEntity
  8
02___PRT_ALL_AXES
100
AcDbLine
 62
7
  6
CENTER
 10
8.0743850195
 20
6.0096978417
 11
7.9054873817
 21
6.0096978417
  0
LINE
  5
5EF
100
AcDbEntity
  8
02___PRT_ALL_AXES
100
AcDbLine
 62
7
  6
CENTER
 10
8.5861960432
 20
6.0096978417
 11
8.2909204526
 21
6.0096978417
  0
LINE
  5
5F0
100
AcDbEntity
  8
02___PRT_ALL_AXES
100
AcDbLine
 62
7
  6
CENTER
 10
8.1220228148
 20
6.0096978417
 11
8.0743850195
 21
6.0096978417
  0
LINE
  5
5F1
100
AcDbEntity
  8
02___PRT_ALL_AXES
100
AcDbLine
 62
7
  6
CENTER
 10
7.9054873817
 20
6.0096978417
 11
7.665264441
 21
6.0096978417
  0
LINE
  5
5F2
100
AcDbEntity
  8
02___PRT_ALL_AXES
100
AcDbLine
 62
7
  6
CENTER
 10
8.5861960432
 20
6.0096978417
 11
8.7125739959
 21
6.0096978417
  0
LINE
  5
5F3
100
AcDbEntity
  8
02___PRT_ALL_AXES
100
AcDbLine
 62
7
  6
CENTER
 10
9.0980070668
 20
6.0096978417
 11
9.5071276454
 21
6.0096978417
  0
LINE
  5
5F4
100
AcDbEntity
  8
02___PRT_ALL_AXES
100
AcDbLine
 62
7
  6
CENTER
 10
8.8814716337
 20
6.0096978417
 11
8.929109429
 21
6.0096978417
  0
LINE
  5
5F5
100
AcDbEntity
  8
02___PRT_ALL_AXES
100
AcDbLine
 62
7
  6
CONTINUOUS
 10
8.9311788437
 20
5.5672790674
 11
8.73432845
 21
5.7641294611
  0
LINE
  5
5F6
100
AcDbEntity
  8
02___PRT_ALL_AXES
100
AcDbLine
 62
7
  6
CONTINUOUS
 10
8.3406276626
 20
6.1578302485
 11
8.1437772689
 21
6.3546806422
  0
LINE
  5
5F7
100
AcDbEntity
  8
02___PRT_ALL_AXES
100
AcDbLine
 62
7
  6
CONTINUOUS
 10
8.655093681
 20
6.5215088653
 11
8.655093681
 21
6.3049734323
  0
LINE
  5
5F8
100
AcDbEntity
  8
02___PRT_ALL_AXES
100
AcDbLine
 62
7
  6
CONTINUOUS
 10
8.655093681
 20
5.7144222512
 11
8.655093681
 21
5.4978868181
  0
LINE
  5
5F9
100
AcDbEntity
  8
02___PRT_ALL_AXES
100
AcDbLine
 62
7
  6
CONTINUOUS
 10
8.655093681
 20
5.0096978417
 11
8.655093681
 21
4.6553671331
  0
LINE
  5
5FA
100
AcDbEntity
  8
02___PRT_ALL_AXES
100
AcDbLine
 62
7
  6
CONTINUOUS
 10
8.655093681
 20
7.0096978417
 11
8.655093681
 21
7.3640285504
  0
LINE
  5
5FB
100
AcDbEntity
  8
02___PRT_ALL_AXES
100
AcDbLine
 62
7
  6
CONTINUOUS
 10
9.0286148175
 20
6.3546806422
 11
8.8317644238
 21
6.1578302485
  0
LINE
  5
5FC
100
AcDbEntity
  8
02___PRT_ALL_AXES
100
AcDbLine
 62
7
  6
CONTINUOUS
 10
8.4380636364
 20
5.7641294611
 11
8.2412132427
 21
5.5672790674
  0
LINE
  5
5FD
100
AcDbEntity
  8
02___PRT_ALL_AXES
100
AcDbLine
 62
7
  6
CONTINUOUS
 10
8.0743850195
 20
6.0785954795
 11
8.2909204526
 21
6.0785954795
  0
LINE
  5
5FE
100
AcDbEntity
  8
02___PRT_ALL_AXES
100
AcDbLine
 62
7
  6
CONTINUOUS
 10
8.8814716337
 20
6.0785954795
 11
9.0980070668
 21
6.0785954795
  0
LINE
  5
5FF
100
AcDbEntity
  8
02___PRT_ALL_AXES
100
AcDbLine
 62
7
  6
CONTINUOUS
 10
8.2412132427
 20
6.452116616
 11
8.4380636364
 21
6.2552662223
  0
LINE
  5
600
100
AcDbEntity
  8
02___PRT_ALL_AXES
100
AcDbLine
 62
7
  6
CONTINUOUS
 10
8.8317644238
 20
5.8615654349
 11
9.0286148175
 21
5.6647150412
  0
LINE
  5
601
100
AcDbEntity
  8
02___PRT_ALL_AXES
100
AcDbLine
 62
7
  6
CENTER
 10
8.7830464369
 20
7.033319889
 11
8.7830464369
 21
6.8644222512
  0
LINE
  5
602
100
AcDbEntity
  8
02___PRT_ALL_AXES
100
AcDbLine
 62
7
  6
CENTER
 10
8.7830464369
 20
6.2065482354
 11
8.7830464369
 21
6.0376505976
  0
LINE
  5
603
100
AcDbEntity
  8
02___PRT_ALL_AXES
100
AcDbLine
 62
7
  6
CENTER
 10
8.7830464369
 20
5.812847448
 11
8.7830464369
 21
5.6439498102
  0
LINE
  5
604
100
AcDbEntity
  8
02___PRT_ALL_AXES
100
AcDbLine
 62
7
  6
CENTER
 10
8.7830464369
 20
4.9860757945
 11
8.7830464369
 21
4.8171781567
  0
LINE
  5
605
100
AcDbEntity
  8
02___PRT_ALL_AXES
100
AcDbLine
 62
7
  6
CENTER
 10
8.7830464369
 20
4.9860757945
 11
8.7830464369
 21
5.1549734323
  0
LINE
  5
606
100
AcDbEntity
  8
02___PRT_ALL_AXES
100
AcDbLine
 62
7
  6
CENTER
 10
8.7830464369
 20
5.812847448
 11
8.7830464369
 21
5.9817450858
  0
LINE
  5
607
100
AcDbEntity
  8
02___PRT_ALL_AXES
100
AcDbLine
 62
7
  6
CENTER
 10
8.7830464369
 20
6.2065482354
 11
8.7830464369
 21
6.3754458732
  0
LINE
  5
608
100
AcDbEntity
  8
02___PRT_ALL_AXES
100
AcDbLine
 62
7
  6
CENTER
 10
8.7830464369
 20
7.033319889
 11
8.7830464369
 21
7.2022175268
  0
LINE
  5
609
100
AcDbEntity
  8
02___PRT_ALL_AXES
100
AcDbLine
 62
7
  6
CENTER
 10
8.7830464369
 20
6.2065482354
 11
8.6141487991
 21
6.2065482354
  0
LINE
  5
60A
100
AcDbEntity
  8
02___PRT_ALL_AXES
100
AcDbLine
 62
7
  6
CENTER
 10
8.3893456495
 20
6.2065482354
 11
8.2204480117
 21
6.2065482354
  0
LINE
  5
60B
100
AcDbEntity
  8
02___PRT_ALL_AXES
100
AcDbLine
 62
7
  6
CENTER
 10
8.3893456495
 20
6.2065482354
 11
8.5582432873
 21
6.2065482354
  0
LINE
  5
60C
100
AcDbEntity
  8
02___PRT_ALL_AXES
100
AcDbLine
 62
7
  6
CENTER
 10
8.7830464369
 20
6.2065482354
 11
8.9519440747
 21
6.2065482354
  0
LINE
  5
60D
100
AcDbEntity
  8
02___PRT_ALL_AXES
100
AcDbLine
 62
7
  6
CENTER
 10
8.8814716337
 20
6.0096978417
 11
8.8814716337
 21
5.8408002039
  0
LINE
  5
60E
100
AcDbEntity
  8
02___PRT_ALL_AXES
100
AcDbLine
 62
7
  6
CENTER
 10
8.8814716337
 20
6.0096978417
 11
8.8814716337
 21
6.1785954795
  0
LINE
  5
60F
100
AcDbEntity
  8
02___PRT_ALL_AXES
100
AcDbLine
 62
7
  6
CONTINUOUS
 10
8.1325092217
 20
4.6715410124
 11
8.3293596154
 21
5.0199662092
  0
LINE
  5
610
100
AcDbEntity
  8
02___PRT_ALL_AXES
100
AcDbLine
 62
7
  6
CENTER
 10
8.5861960432
 20
6.3049734323
 11
8.4172984054
 21
6.3049734323
  0
LINE
  5
611
100
AcDbEntity
  8
02___PRT_ALL_AXES
100
AcDbLine
 62
7
  6
CENTER
 10
8.5861960432
 20
6.3049734323
 11
8.755093681
 21
6.3049734323
  0
LINE
  5
612
100
AcDbEntity
  8
02___PRT_ALL_AXES
100
AcDbLine
 62
7
  6
CONTINUOUS
 10
8.1325092217
 20
7.3478546711
 11
8.3293596154
 21
6.9994294742
  0
LINE
  5
613
100
AcDbEntity
  8
02___PRT_ALL_AXES
100
AcDbLine
 62
7
  6
CENTER
 10
8.9798968306
 20
7.3817450858
 11
8.9798968306
 21
7.212847448
  0
LINE
  5
614
100
AcDbEntity
  8
02___PRT_ALL_AXES
100
AcDbLine
 62
7
  6
CENTER
 10
8.9798968306
 20
6.4033986291
 11
8.9798968306
 21
6.2345009913
  0
LINE
  5
615
100
AcDbEntity
  8
02___PRT_ALL_AXES
100
AcDbLine
 62
7
  6
CENTER
 10
8.9798968306
 20
5.6159970543
 11
8.9798968306
 21
5.4470994165
  0
LINE
  5
616
100
AcDbEntity
  8
02___PRT_ALL_AXES
100
AcDbLine
 62
7
  6
CENTER
 10
8.9798968306
 20
4.6376505976
 11
8.9798968306
 21
4.4687529598
  0
LINE
  5
617
100
AcDbEntity
  8
02___PRT_ALL_AXES
100
AcDbLine
 62
7
  6
CENTER
 10
8.9798968306
 20
4.6376505976
 11
8.9798968306
 21
4.8065482354
  0
LINE
  5
618
100
AcDbEntity
  8
02___PRT_ALL_AXES
100
AcDbLine
 62
7
  6
CENTER
 10
8.9798968306
 20
5.6159970543
 11
8.9798968306
 21
5.7848946921
  0
LINE
  5
619
100
AcDbEntity
  8
02___PRT_ALL_AXES
100
AcDbLine
 62
7
  6
CENTER
 10
8.9798968306
 20
6.4033986291
 11
8.9798968306
 21
6.5722962669
  0
LINE
  5
61A
100
AcDbEntity
  8
02___PRT_ALL_AXES
100
AcDbLine
 62
7
  6
CENTER
 10
8.9798968306
 20
7.3817450858
 11
8.9798968306
 21
7.5506427236
  0
LINE
  5
61B
100
AcDbEntity
  8
02___PRT_ALL_AXES
100
AcDbLine
 62
7
  6
CONTINUOUS
 10
8.4493316835
 20
4.9521853798
 11
8.2524812898
 21
4.6037601829
  0
LINE
  5
61C
100
AcDbEntity
  8
02___PRT_ALL_AXES
100
AcDbLine
 62
7
  6
CENTER
 10
8.9798968306
 20
6.4033986291
 11
8.8109991928
 21
6.4033986291
  0
LINE
  5
61D
100
AcDbEntity
  8
02___PRT_ALL_AXES
100
AcDbLine
 62
7
  6
CENTER
 10
8.1924952558
 20
6.4033986291
 11
8.023597618
 21
6.4033986291
  0
LINE
  5
61E
100
AcDbEntity
  8
02___PRT_ALL_AXES
100
AcDbLine
 62
7
  6
CENTER
 10
8.1924952558
 20
6.4033986291
 11
8.3613928936
 21
6.4033986291
  0
LINE
  5
61F
100
AcDbEntity
  8
02___PRT_ALL_AXES
100
AcDbLine
 62
7
  6
CENTER
 10
8.9798968306
 20
6.4033986291
 11
9.1487944684
 21
6.4033986291
  0
LINE
  5
620
100
AcDbEntity
  8
02___PRT_ALL_AXES
100
AcDbLine
 62
7
  6
CONTINUOUS
 10
8.4493316835
 20
7.0672103037
 11
8.2524812898
 21
7.4156355005
  0
LINE
  5
621
100
AcDbEntity
  8
02___PRT_ALL_AXES
100
AcDbLine
 62
7
  6
CENTER
 10
9.0980070668
 20
6.0096978417
 11
9.0980070668
 21
5.8408002039
  0
LINE
  5
622
100
AcDbEntity
  8
02___PRT_ALL_AXES
100
AcDbLine
 62
7
  6
CENTER
 10
9.0980070668
 20
6.0096978417
 11
9.0980070668
 21
6.1785954795
  0
LINE
  5
623
100
AcDbEntity
  8
02___PRT_ALL_AXES
100
AcDbLine
 62
7
  6
CENTER
 10
8.5861960432
 20
6.5215088653
 11
8.4172984054
 21
6.5215088653
  0
LINE
  5
624
100
AcDbEntity
  8
02___PRT_ALL_AXES
100
AcDbLine
 62
7
  6
CENTER
 10
8.5861960432
 20
6.5215088653
 11
8.755093681
 21
6.5215088653
  0
LINE
  5
625
100
AcDbEntity
  8
0
100
AcDbLine
 62
7
  6
CONTINUOUS
 10
9.373597618
 20
4.6022175268
 11
9.373597618
 21
7.4171781567
  0
LINE
  5
626
100
AcDbEntity
  8
02___PRT_ALL_AXES
100
AcDbLine
 62
7
  6
CENTER
 10
8.5861960432
 20
7.0096978417
 11
8.4172984054
 21
7.0096978417
  0
LINE
  5
627
100
AcDbEntity
  8
02___PRT_ALL_AXES
100
AcDbLine
 62
7
  6
CENTER
 10
8.5861960432
 20
7.0096978417
 11
8.755093681
 21
7.0096978417
  0
LINE
  5
628
100
AcDbEntity
  8
02___PRT_ALL_AXES
100
AcDbLine
 62
7
  6
CENTER
 10
8.7830464369
 20
7.033319889
 11
8.6141487991
 21
7.033319889
  0
LINE
  5
629
100
AcDbEntity
  8
02___PRT_ALL_AXES
100
AcDbLine
 62
7
  6
CENTER
 10
8.3893456495
 20
7.033319889
 11
8.2204480117
 21
7.033319889
  0
LINE
  5
62A
100
AcDbEntity
  8
02___PRT_ALL_AXES
100
AcDbLine
 62
7
  6
CENTER
 10
8.3893456495
 20
7.033319889
 11
8.5582432873
 21
7.033319889
  0
LINE
  5
62B
100
AcDbEntity
  8
02___PRT_ALL_AXES
100
AcDbLine
 62
7
  6
CENTER
 10
8.7830464369
 20
7.033319889
 11
8.9519440747
 21
7.033319889
  0
LINE
  5
62C
100
AcDbEntity
  8
02___PRT_ALL_AXES
100
AcDbLine
 62
7
  6
CENTER
 10
8.5861960432
 20
7.3640285504
 11
8.4172984054
 21
7.3640285504
  0
LINE
  5
62D
100
AcDbEntity
  8
02___PRT_ALL_AXES
100
AcDbLine
 62
7
  6
CENTER
 10
8.5861960432
 20
7.3640285504
 11
8.755093681
 21
7.3640285504
  0
LINE
  5
62E
100
AcDbEntity
  8
02___PRT_ALL_AXES
100
AcDbLine
 62
7
  6
CENTER
 10
8.9798968306
 20
7.3817450858
 11
8.8109991928
 21
7.3817450858
  0
LINE
  5
62F
100
AcDbEntity
  8
02___PRT_ALL_AXES
100
AcDbLine
 62
7
  6
CENTER
 10
8.1924952558
 20
7.3817450858
 11
8.023597618
 21
7.3817450858
  0
LINE
  5
630
100
AcDbEntity
  8
02___PRT_ALL_AXES
100
AcDbLine
 62
7
  6
CENTER
 10
8.1924952558
 20
7.3817450858
 11
8.3613928936
 21
7.3817450858
  0
LINE
  5
631
100
AcDbEntity
  8
02___PRT_ALL_AXES
100
AcDbLine
 62
7
  6
CENTER
 10
8.9798968306
 20
7.3817450858
 11
9.1487944684
 21
7.3817450858
  0
LINE
  5
632
100
AcDbEntity
  8
0
100
AcDbLine
 62
7
  6
CONTINUOUS
 10
7.7987944684
 20
7.5352883929
 11
9.2554873817
 21
7.5352883929
  0
LINE
  5
633
100
AcDbEntity
  8
0
100
AcDbLine
 62
7
  6
CONTINUOUS
 10
2.8316200079
 20
10.4788199952
 11
2.8316200079
 21
10.4276388928
  0
LINE
  5
634
100
AcDbEntity
  8
0
100
AcDbLine
 62
7
  6
CONTINUOUS
 10
4.2725648898
 20
10.4276388928
 11
2.8316200079
 21
10.4276388928
  0
LINE
  5
635
100
AcDbEntity
  8
0
100
AcDbLine
 62
7
  6
CONTINUOUS
 10
2.8316200079
 20
10.4788199952
 11
4.2725648898
 21
10.4788199952
  0
LINE
  5
636
100
AcDbEntity
  8
0
100
AcDbLine
 62
7
  6
CONTINUOUS
 10
2.9497302442
 20
10.4788199952
 11
2.9497302442
 21
10.4276388928
  0
LINE
  5
637
100
AcDbEntity
  8
0
100
AcDbLine
 62
7
  6
CONTINUOUS
 10
4.4064231575
 20
10.5614971605
 11
4.3552420552
 21
10.5614971605
  0
LINE
  5
638
100
AcDbEntity
  8
0
100
AcDbLine
 62
7
  6
CONTINUOUS
 10
4.2725648898
 20
10.4276388928
 11
4.2725648898
 21
10.4788199952
  0
LINE
  5
639
100
AcDbEntity
  8
0
100
AcDbLine
 62
7
  6
CONTINUOUS
 10
4.3552420552
 20
11.8843318062
 11
4.4064231575
 21
11.8843318062
  0
LINE
  5
63A
100
AcDbEntity
  8
0
100
AcDbLine
 62
7
  6
CONTINUOUS
 10
4.3552420552
 20
10.5614971605
 11
4.3552420552
 21
12.0024420424
  0
LINE
  5
63B
100
AcDbEntity
  8
0
100
AcDbLine
 62
7
  6
CONTINUOUS
 10
4.4064231575
 20
12.0024420424
 11
4.4064231575
 21
10.5614971605
  0
LINE
  5
63C
100
AcDbEntity
  8
0
100
AcDbLine
 62
7
  6
CONTINUOUS
 10
4.3552420552
 20
12.0024420424
 11
4.4064231575
 21
12.0024420424
  0
LINE
  5
63D
100
AcDbEntity
  8
0
100
AcDbLine
 62
7
  6
CONTINUOUS
 10
14.1289981489
 20
6.9792159164
 11
14.1289981489
 21
7.062794904
  0
LINE
  5
63E
100
AcDbEntity
  8
0
100
AcDbLine
 62
7
  6
CONTINUOUS
 10
14.1981862188
 20
6.8827802895
 11
14.1981862188
 21
6.9663592771
  0
LINE
  5
63F
100
AcDbEntity
  8
0
100
AcDbLine
 62
7
  6
CONTINUOUS
 10
16.2348125299
 20
3.331859843
 11
16.3071938403
 21
3.2900714193
  0
LINE
  5
640
100
AcDbEntity
  8
0
100
AcDbLine
 62
7
  6
CONTINUOUS
 10
16.1858883596
 20
3.4399983031
 11
16.2582696701
 21
3.3982098794
  0
LINE
  5
641
100
AcDbEntity
  8
02___PRT_ALL_AXES
100
AcDbLine
 62
7
  6
CONTINUOUS
 10
16.5233398779
 20
3.9033305405
 11
16.4509585674
 21
3.9451189642
  0
LINE
  5
642
100
AcDbEntity
  8
0
100
AcDbLine
 62
7
  6
CONTINUOUS
 10
18.179123754
 20
9.457612169
 11
14.198184828
 21
7.1592297279
  0
LINE
  5
643
100
AcDbEntity
  8
02___PRT_ALL_AXES
100
AcDbLine
 62
7
  6
CONTINUOUS
 10
16.5004666537
 20
4.5184873542
 11
16.4280853432
 21
4.5602757779
  0
LINE
  5
644
100
AcDbEntity
  8
02___PRT_ALL_AXES
100
AcDbLine
 62
7
  6
CONTINUOUS
 10
17.0160854652
 20
4.5092732844
 11
16.9437041548
 21
4.5510617081
  0
LINE
  5
645
100
AcDbEntity
  8
02___PRT_ALL_AXES
100
AcDbLine
 62
7
  6
CONTINUOUS
 10
16.4065019998
 20
5.1401206213
 11
16.4274837087
 21
5.1338188639
  0
LINE
  5
646
100
AcDbEntity
  8
02___PRT_ALL_AXES
100
AcDbLine
 62
7
  6
CONTINUOUS
 10
16.4274837087
 20
5.1338188639
 11
16.3923818404
 21
5.1540844785
  0
LINE
  5
647
100
AcDbEntity
  8
02___PRT_ALL_AXES
100
AcDbLine
 62
7
  6
CONTINUOUS
 10
17.0015638611
 20
4.8077942349
 11
16.9291825507
 21
4.8495826586
  0
LINE
  5
648
100
AcDbEntity
  8
0
100
AcDbLine
 62
7
  6
CONTINUOUS
 10
16.0689647043
 20
5.8862892494
 11
16.0689647043
 21
5.8027102618
  0
LINE
  5
649
100
AcDbEntity
  8
0
100
AcDbLine
 62
7
  6
CONTINUOUS
 10
16.1858883596
 20
5.6001936744
 11
16.1858883596
 21
3.4399983031
  0
LINE
  5
64A
100
AcDbEntity
  8
02___PRT_ALL_AXES
100
AcDbLine
 62
7
  6
CONTINUOUS
 10
16.920229296
 20
5.0968463187
 11
16.4274837087
 21
5.1338188639
  0
LINE
  5
64B
100
AcDbEntity
  8
02___PRT_ALL_AXES
100
AcDbLine
 62
7
  6
CONTINUOUS
 10
16.8478479856
 20
5.1386347424
 11
16.3831011076
 21
5.1735064396
  0
LINE
  5
64C
100
AcDbEntity
  8
02___PRT_ALL_AXES
100
AcDbLine
 62
7
  6
CONTINUOUS
 10
16.920229296
 20
5.0968463187
 11
16.8478479856
 21
5.1386347424
  0
LINE
  5
64D
100
AcDbEntity
  8
0
100
AcDbLine
 62
7
  6
CONTINUOUS
 10
16.2582696701
 20
5.5584052507
 11
16.1858883596
 21
5.6001936744
  0
LINE
  5
64E
100
AcDbEntity
  8
0
100
AcDbLine
 62
7
  6
CONTINUOUS
 10
16.2582696701
 20
5.5584052507
 11
16.2582696701
 21
3.3982098794
  0
LINE
  5
64F
100
AcDbEntity
  8
02___PRT_ALL_AXES
100
AcDbLine
 62
7
  6
CONTINUOUS
 10
16.5233398779
 20
5.3850760859
 11
17.0160854652
 21
5.3481035407
  0
LINE
  5
650
100
AcDbEntity
  8
02___PRT_ALL_AXES
100
AcDbLine
 62
7
  6
CONTINUOUS
 10
17.0370671741
 20
5.3418017833
 11
17.0160854652
 21
5.3481035407
  0
LINE
  5
651
100
AcDbEntity
  8
0
100
AcDbLine
 62
7
  6
CONTINUOUS
 10
14.1981862188
 20
6.8827802895
 11
16.0689647043
 21
5.8027102618
  0
LINE
  5
652
100
AcDbEntity
  8
02___PRT_ALL_AXES
100
AcDbLine
 62
7
  6
CONTINUOUS
 10
17.9278942115
 20
4.7326462981
 11
17.8555129011
 21
4.7744347218
  0
LINE
  5
653
100
AcDbEntity
  8
0
100
AcDbLine
 62
7
  6
CONTINUOUS
 10
14.1981862188
 20
6.9663592771
 11
16.0689647043
 21
5.8862892494
  0
LINE
  5
654
100
AcDbEntity
  8
02___PRT_ALL_AXES
100
AcDbLine
 62
7
  6
CONTINUOUS
 10
16.5853685328
 20
6.8337665803
 11
16.5853685328
 21
6.7501875927
  0
LINE
  5
655
100
AcDbEntity
  8
02___PRT_ALL_AXES
100
AcDbLine
 62
7
  6
CONTINUOUS
 10
17.6919644581
 20
5.2063948261
 11
17.6195831477
 21
5.2481832498
  0
LINE
  5
656
100
AcDbEntity
  8
02___PRT_ALL_AXES
100
AcDbLine
 62
7
  6
CONTINUOUS
 10
18.5132071037
 20
4.9572569582
 11
18.4408257932
 21
4.9990453819
  0
LINE
  5
657
100
AcDbEntity
  8
02___PRT_ALL_AXES
100
AcDbLine
 62
7
  6
CONTINUOUS
 10
18.206281549
 20
5.2148299875
 11
18.1339002386
 21
5.2566184112
  0
LINE
  5
658
100
AcDbEntity
  8
02___PRT_ALL_AXES
100
AcDbLine
 62
7
  6
CONTINUOUS
 10
17.9981905293
 20
5.3831934754
 11
17.9258092189
 21
5.4249818991
  0
LINE
  5
659
100
AcDbEntity
  8
02___PRT_ALL_AXES
100
AcDbLine
 62
7
  6
CONTINUOUS
 10
18.5132071037
 20
5.3108603672
 11
18.4408257932
 21
5.3526487909
  0
LINE
  5
65A
100
AcDbEntity
  8
0
100
AcDbLine
 62
7
  6
CONTINUOUS
 10
16.0689647043
 20
5.8862892494
 11
20.3839684353
 21
8.3775429443
  0
LINE
  5
65B
100
AcDbEntity
  8
02___PRT_ALL_AXES
100
AcDbLine
 62
7
  6
CONTINUOUS
 10
19.8154576059
 20
6.1254818959
 11
20.3082031932
 21
6.0885093507
  0
LINE
  5
65C
100
AcDbEntity
  8
02___PRT_ALL_AXES
100
AcDbLine
 62
7
  6
CONTINUOUS
 10
19.7710750048
 20
6.1651694716
 11
20.2358218828
 21
6.1302977744
  0
LINE
  5
65D
100
AcDbEntity
  8
02___PRT_ALL_AXES
100
AcDbLine
 62
7
  6
CONTINUOUS
 10
18.9036488596
 20
5.2959951441
 11
18.6252615221
 21
5.4567267438
  0
LINE
  5
65E
100
AcDbEntity
  8
02___PRT_ALL_AXES
100
AcDbLine
 62
7
  6
CONTINUOUS
 10
18.0684868471
 20
5.7781899432
 11
17.7900995096
 21
5.9389215429
  0
LINE
  5
65F
100
AcDbEntity
  8
0
100
AcDbLine
 62
7
  6
CONTINUOUS
 10
16.2582696701
 20
5.5584052507
 11
20.5732734011
 21
8.0496589456
  0
LINE
  5
660
100
AcDbEntity
  8
02___PRT_ALL_AXES
100
AcDbLine
 62
7
  6
CONTINUOUS
 10
20.4040593624
 20
6.3397665727
 11
19.9113137751
 21
6.3767391179
  0
LINE
  5
661
100
AcDbEntity
  8
02___PRT_ALL_AXES
100
AcDbLine
 62
7
  6
CONTINUOUS
 10
18.5132071037
 20
5.793046834
 11
18.4408257932
 21
5.8348352577
  0
LINE
  5
662
100
AcDbEntity
  8
02___PRT_ALL_AXES
100
AcDbLine
 62
7
  6
CONTINUOUS
 10
17.9278942115
 20
6.1775902925
 11
18.206281549
 21
6.0168586928
  0
LINE
  5
663
100
AcDbEntity
  8
02___PRT_ALL_AXES
100
AcDbLine
 62
7
  6
CONTINUOUS
 10
18.763056224
 20
5.6953954934
 11
19.0414435615
 21
5.5346638936
  0
LINE
  5
664
100
AcDbEntity
  8
02___PRT_ALL_AXES
100
AcDbLine
 62
7
  6
CONTINUOUS
 10
18.8333525418
 20
5.8653716099
 11
18.7609712313
 21
5.9071600336
  0
LINE
  5
665
100
AcDbEntity
  8
02___PRT_ALL_AXES
100
AcDbLine
 62
7
  6
CONTINUOUS
 10
17.9773052202
 20
7.6373968044
 11
17.9773052202
 21
7.5538178169
  0
LINE
  5
666
100
AcDbEntity
  8
02___PRT_ALL_AXES
100
AcDbLine
 62
7
  6
CONTINUOUS
 10
19.8154576059
 20
6.1254818959
 11
19.794475897
 21
6.1317836533
  0
LINE
  5
667
100
AcDbEntity
  8
02___PRT_ALL_AXES
100
AcDbLine
 62
7
  6
CONTINUOUS
 10
18.5132071037
 20
6.2752333008
 11
18.4408257932
 21
6.3170217245
  0
LINE
  5
668
100
AcDbEntity
  8
02___PRT_ALL_AXES
100
AcDbLine
 62
7
  6
CONTINUOUS
 10
18.763056224
 20
6.1791973662
 11
18.6906749136
 21
6.2209857899
  0
LINE
  5
669
100
AcDbEntity
  8
02___PRT_ALL_AXES
100
AcDbLine
 62
7
  6
CONTINUOUS
 10
19.139578613
 20
6.0421702593
 11
19.0671973026
 21
6.0839586829
  0
LINE
  5
66A
100
AcDbEntity
  8
02___PRT_ALL_AXES
100
AcDbLine
 62
7
  6
CONTINUOUS
 10
16.4274837087
 20
4.043903253
 11
16.920229296
 21
4.6498459969
  0
LINE
  5
66B
100
AcDbEntity
  8
02___PRT_ALL_AXES
100
AcDbLine
 62
7
  6
CONTINUOUS
 10
16.9437041548
 20
4.5510617081
 11
16.4509585674
 21
3.9451189642
  0
LINE
  5
66C
100
AcDbEntity
  8
02___PRT_ALL_AXES
100
AcDbLine
 62
7
  6
CONTINUOUS
 10
17.0160854652
 20
4.5092732844
 11
16.5233398779
 21
3.9033305405
  0
LINE
  5
66D
100
AcDbEntity
  8
02___PRT_ALL_AXES
100
AcDbLine
 62
7
  6
CONTINUOUS
 10
20.4040593624
 20
6.3397665727
 11
20.4250410713
 21
6.3334648152
  0
LINE
  5
66E
100
AcDbEntity
  8
02___PRT_ALL_AXES
100
AcDbLine
 62
7
  6
CONTINUOUS
 10
18.5132071037
 20
6.6288367098
 11
18.4408257932
 21
6.6706251335
  0
LINE
  5
66F
100
AcDbEntity
  8
02___PRT_ALL_AXES
100
AcDbLine
 62
7
  6
CONTINUOUS
 10
18.3183359674
 20
4.8447487268
 11
18.3183359674
 21
5.1983521358
  0
LINE
  5
670
100
AcDbEntity
  8
02___PRT_ALL_AXES
100
AcDbLine
 62
7
  6
CONTINUOUS
 10
18.3183359674
 20
6.1627250694
 11
18.3183359674
 21
6.5163284784
  0
LINE
  5
671
100
AcDbEntity
  8
02___PRT_ALL_AXES
100
AcDbLine
 62
7
  6
CONTINUOUS
 10
18.4408257932
 20
6.6706251335
 11
18.4408257932
 21
6.3170217245
  0
LINE
  5
672
100
AcDbEntity
  8
02___PRT_ALL_AXES
100
AcDbLine
 62
7
  6
CONTINUOUS
 10
18.4408257932
 20
5.3526487909
 11
18.4408257932
 21
4.9990453819
  0
LINE
  5
673
100
AcDbEntity
  8
02___PRT_ALL_AXES
100
AcDbLine
 62
7
  6
CONTINUOUS
 10
18.5132071037
 20
6.6288367098
 11
18.5132071037
 21
6.2752333008
  0
LINE
  5
674
100
AcDbEntity
  8
02___PRT_ALL_AXES
100
AcDbLine
 62
7
  6
CONTINUOUS
 10
18.5132071037
 20
5.3108603672
 11
18.5132071037
 21
4.9572569582
  0
LINE
  5
675
100
AcDbEntity
  8
02___PRT_ALL_AXES
100
AcDbLine
 62
7
  6
CONTINUOUS
 10
17.7900995096
 20
4.812204381
 11
18.0684868471
 21
5.2943880703
  0
LINE
  5
676
100
AcDbEntity
  8
02___PRT_ALL_AXES
100
AcDbLine
 62
7
  6
CONTINUOUS
 10
18.6252615221
 20
6.2587554491
 11
18.9036488596
 21
6.7409391385
  0
LINE
  5
677
100
AcDbEntity
  8
02___PRT_ALL_AXES
100
AcDbLine
 62
7
  6
CONTINUOUS
 10
20.3310764175
 20
6.9550980823
 11
19.82997921
 21
6.6657912016
  0
LINE
  5
678
100
AcDbEntity
  8
02___PRT_ALL_AXES
100
AcDbLine
 62
7
  6
CONTINUOUS
 10
16.5004666537
 20
4.7435077054
 11
17.0015638611
 21
5.0328145861
  0
LINE
  5
679
100
AcDbEntity
  8
02___PRT_ALL_AXES
100
AcDbLine
 62
7
  6
CONTINUOUS
 10
17.6919644581
 20
5.4314151773
 11
17.9981905293
 21
5.6082138266
  0
LINE
  5
67A
100
AcDbEntity
  8
02___PRT_ALL_AXES
100
AcDbLine
 62
7
  6
CONTINUOUS
 10
18.8333525418
 20
6.0903919611
 11
19.139578613
 21
6.2671906104
  0
LINE
  5
67B
100
AcDbEntity
  8
02___PRT_ALL_AXES
100
AcDbLine
 62
7
  6
CONTINUOUS
 10
19.0671973026
 20
6.0839586829
 11
18.7609712313
 21
5.9071600336
  0
LINE
  5
67C
100
AcDbEntity
  8
02___PRT_ALL_AXES
100
AcDbLine
 62
7
  6
CONTINUOUS
 10
17.9258092189
 20
5.4249818991
 11
17.6195831477
 21
5.2481832498
  0
LINE
  5
67D
100
AcDbEntity
  8
02___PRT_ALL_AXES
100
AcDbLine
 62
7
  6
CONTINUOUS
 10
16.9291825507
 20
4.8495826586
 11
16.4280853432
 21
4.5602757779
  0
LINE
  5
67E
100
AcDbEntity
  8
02___PRT_ALL_AXES
100
AcDbLine
 62
7
  6
CONTINUOUS
 10
19.7575978995
 20
6.4825592741
 11
20.258695107
 21
6.7718661548
  0
LINE
  5
67F
100
AcDbEntity
  8
02___PRT_ALL_AXES
100
AcDbLine
 62
7
  6
CONTINUOUS
 10
19.139578613
 20
6.0421702593
 11
18.8333525418
 21
5.8653716099
  0
LINE
  5
680
100
AcDbEntity
  8
02___PRT_ALL_AXES
100
AcDbLine
 62
7
  6
CONTINUOUS
 10
17.9981905293
 20
5.3831934754
 11
17.6919644581
 21
5.2063948261
  0
LINE
  5
681
100
AcDbEntity
  8
02___PRT_ALL_AXES
100
AcDbLine
 62
7
  6
CONTINUOUS
 10
17.0015638611
 20
4.8077942349
 11
16.5004666537
 21
4.5184873542
  0
LINE
  5
682
100
AcDbEntity
  8
02___PRT_ALL_AXES
100
AcDbLine
 62
7
  6
CONTINUOUS
 10
19.82997921
 20
6.4407708504
 11
20.3310764175
 21
6.7300777311
  0
LINE
  5
683
100
AcDbEntity
  8
02___PRT_ALL_AXES
100
AcDbLine
 62
7
  6
CONTINUOUS
 10
19.8154576059
 20
6.1254818959
 11
19.7803557376
 21
6.1457475105
  0
LINE
  5
684
100
AcDbEntity
  8
02___PRT_ALL_AXES
100
AcDbLine
 62
7
  6
CONTINUOUS
 10
19.0414435615
 20
6.6613810556
 11
18.969062251
 21
6.7031694793
  0
LINE
  5
685
100
AcDbEntity
  8
02___PRT_ALL_AXES
100
AcDbLine
 62
7
  6
CONTINUOUS
 10
20.3082031932
 20
6.0885093507
 11
20.2358218828
 21
6.1302977744
  0
LINE
  5
686
100
AcDbEntity
  8
02___PRT_ALL_AXES
100
AcDbLine
 62
7
  6
CONTINUOUS
 10
18.969062251
 20
6.7031694793
 11
18.6906749136
 21
6.2209857899
  0
LINE
  5
687
100
AcDbEntity
  8
02___PRT_ALL_AXES
100
AcDbLine
 62
7
  6
CONTINUOUS
 10
18.1339002386
 20
5.2566184112
 11
17.8555129011
 21
4.7744347218
  0
LINE
  5
688
100
AcDbEntity
  8
02___PRT_ALL_AXES
100
AcDbLine
 62
7
  6
CONTINUOUS
 10
19.0414435615
 20
6.6613810556
 11
18.763056224
 21
6.1791973662
  0
LINE
  5
689
100
AcDbEntity
  8
02___PRT_ALL_AXES
100
AcDbLine
 62
7
  6
CONTINUOUS
 10
18.206281549
 20
5.2148299875
 11
17.9278942115
 21
4.7326462981
  0
LINE
  5
68A
100
AcDbEntity
  8
02___PRT_ALL_AXES
100
AcDbLine
 62
7
  6
CONTINUOUS
 10
19.82997921
 20
6.4407708504
 11
19.7575978995
 21
6.4825592741
  0
LINE
  5
68B
100
AcDbEntity
  8
02___PRT_ALL_AXES
100
AcDbLine
 62
7
  6
CONTINUOUS
 10
20.3082031932
 20
7.5702548961
 11
19.8154576059
 21
6.9643121522
  0
LINE
  5
68C
100
AcDbEntity
  8
02___PRT_ALL_AXES
100
AcDbLine
 62
7
  6
CONTINUOUS
 10
19.8389324646
 20
6.8655278634
 11
20.331678052
 21
7.4714706073
  0
LINE
  5
68D
100
AcDbEntity
  8
02___PRT_ALL_AXES
100
AcDbLine
 62
7
  6
CONTINUOUS
 10
19.9113137751
 20
6.8237394397
 11
20.4040593624
 21
7.4296821836
  0
LINE
  5
68E
100
AcDbEntity
  8
02___PRT_ALL_AXES
100
AcDbLine
 62
7
  6
CONTINUOUS
 10
19.9113137751
 20
6.8237394397
 11
19.8389324646
 21
6.8655278634
  0
LINE
  5
68F
100
AcDbEntity
  8
02___PRT_ALL_AXES
100
AcDbLine
 62
7
  6
CONTINUOUS
 10
20.3310764175
 20
6.7300777311
 11
20.258695107
 21
6.7718661548
  0
LINE
  5
690
100
AcDbEntity
  8
02___PRT_ALL_AXES
100
AcDbLine
 62
7
  6
CONTINUOUS
 10
19.3692419076
 20
8.4410270286
 11
19.3692419076
 21
8.357448041
  0
LINE
  5
691
100
AcDbEntity
  8
0
100
AcDbLine
 62
7
  6
CONTINUOUS
 10
16.4253020725
 20
3.3017709196
 11
20.4062409986
 21
5.6001533607
  0
LINE
  5
692
100
AcDbEntity
  8
02___PRT_ALL_AXES
100
AcDbLine
 62
7
  6
CONTINUOUS
 10
20.4040593624
 20
7.4296821836
 11
20.331678052
 21
7.4714706073
  0
LINE
  5
693
100
AcDbEntity
  8
0
100
AcDbLine
 62
7
  6
CONTINUOUS
 10
20.5732734011
 20
5.8894635743
 11
20.5732734011
 21
8.0496589456
  0
LINE
  5
694
100
AcDbEntity
  8
0
100
AcDbLine
 62
7
  6
CONTINUOUS
 10
20.3839684353
 20
8.3775429443
 11
18.5131899499
 21
9.457612972
  0
LINE
  5
695
100
AcDbEntity
  8
0
100
AcDbLine
 62
7
  6
CONTINUOUS
 10
13.2606611407
 20
4.4841072905
 11
11.8039682274
 21
4.4841072905
  0
LINE
  5
696
100
AcDbEntity
  8
0
100
AcDbLine
 62
7
  6
CONTINUOUS
 10
11.8551493297
 20
4.6022175268
 11
11.8039682274
 21
4.6022175268
  0
LINE
  5
697
100
AcDbEntity
  8
0
100
AcDbLine
 62
7
  6
CONTINUOUS
 10
11.8039682274
 20
4.4841072905
 11
11.8039682274
 21
7.5352883929
  0
LINE
  5
698
100
AcDbEntity
  8
0
100
AcDbLine
 62
7
  6
CONTINUOUS
 10
11.8551493297
 20
4.4841072905
 11
11.8551493297
 21
7.5352883929
  0
LINE
  5
699
100
AcDbEntity
  8
0
100
AcDbLine
 62
7
  6
CONTINUOUS
 10
11.9378264951
 20
4.4841072905
 11
11.9378264951
 21
7.5352883929
  0
LINE
  5
69A
100
AcDbEntity
  8
0
100
AcDbLine
 62
7
  6
CONTINUOUS
 10
13.378771377
 20
7.4171781567
 11
13.378771377
 21
4.6022175268
  0
LINE
  5
69B
100
AcDbEntity
  8
0
100
AcDbLine
 62
7
  6
CONTINUOUS
 10
11.8551493297
 20
7.4171781567
 11
11.8039682274
 21
7.4171781567
  0
LINE
  5
69C
100
AcDbEntity
  8
0
100
AcDbLine
 62
7
  6
CONTINUOUS
 10
11.8039682274
 20
7.5352883929
 11
13.2606611407
 21
7.5352883929
  0
LINE
  5
69D
100
AcDbEntity
  8
0
100
AcDbLine
 62
7
  6
CONTINUOUS
 10
14.107714792
 20
11.1094446883
 11
14.0913020571
 21
11.1423689502
  0
LINE
  5
69E
100
AcDbEntity
  8
0
100
AcDbLine
 62
7
  6
CONTINUOUS
 10
14.0913020571
 20
11.1423689502
 11
14.088065523
 21
11.1868824693
  0
LINE
  5
69F
100
AcDbEntity
  8
0
100
AcDbLine
 62
7
  6
CONTINUOUS
 10
14.0905078861
 20
11.2356286645
 11
14.0936470349
 21
11.3204407182
  0
LINE
  5
6A0
100
AcDbEntity
  8
0
100
AcDbLine
 62
7
  6
CONTINUOUS
 10
14.0936470349
 20
11.3204407182
 11
14.0971751781
 21
11.3977568128
  0
LINE
  5
6A1
100
AcDbEntity
  8
0
100
AcDbLine
 62
7
  6
CONTINUOUS
 10
14.088065523
 20
11.1868824693
 11
14.0905078861
 21
11.2356286645
  0
LINE
  5
6A2
100
AcDbEntity
  8
0
100
AcDbLine
 62
7
  6
CONTINUOUS
 10
14.0971751781
 20
11.3977568128
 11
14.107714792
 21
11.4707897111
  0
LINE
  5
6A3
100
AcDbEntity
  8
0
100
AcDbLine
 62
7
  6
CONTINUOUS
 10
14.1334178439
 20
11.0952486095
 11
14.107714792
 21
11.1094446883
  0
LINE
  5
6A4
100
AcDbEntity
  8
0
100
AcDbLine
 62
7
  6
CONTINUOUS
 10
14.107714792
 20
11.4707897111
 11
14.1417601144
 21
11.5702575429
  0
LINE
  5
6A5
100
AcDbEntity
  8
0
100
AcDbLine
 62
7
  6
CONTINUOUS
 10
14.1417601144
 20
11.5702575429
 11
14.1913005443
 21
11.6691683777
  0
LINE
  5
6A6
100
AcDbEntity
  8
0
100
AcDbLine
 62
7
  6
CONTINUOUS
 10
14.2453700388
 20
11.7690427458
 11
14.3021308251
 21
11.8821744346
  0
LINE
  5
6A7
100
AcDbEntity
  8
0
100
AcDbLine
 62
7
  6
CONTINUOUS
 10
14.1913005443
 20
11.6691683777
 11
14.2453700388
 21
11.7690427458
  0
LINE
  5
6A8
100
AcDbEntity
  8
0
100
AcDbLine
 62
7
  6
CONTINUOUS
 10
14.3021308251
 20
11.8821744346
 11
14.3616215882
 21
11.9901012624
  0
LINE
  5
6A9
100
AcDbEntity
  8
02___PRT_ALL_AXES
100
AcDbLine
 62
7
  6
CENTER
 10
14.4403094809
 20
11.3221693104
 11
14.4403094809
 21
11.0843740349
  0
LINE
  5
6AA
100
AcDbEntity
  8
02___PRT_ALL_AXES
100
AcDbLine
 62
7
  6
CENTER
 10
14.4403094809
 20
11.3221693104
 11
14.4403094809
 21
11.559964586
  0
LINE
  5
6AB
100
AcDbEntity
  8
0
100
AcDbLine
 62
7
  6
CONTINUOUS
 10
14.3616215882
 20
11.9901012624
 11
14.4346460031
 21
12.0845026864
  0
LINE
  5
6AC
100
AcDbEntity
  8
0
100
AcDbLine
 62
7
  6
CONTINUOUS
 10
14.4346460031
 20
12.0845026864
 11
14.5069292323
 21
12.1453076156
  0
LINE
  5
6AD
100
AcDbEntity
  8
0
100
AcDbLine
 62
7
  6
CONTINUOUS
 10
16.2634268692
 20
11.056733271
 11
16.1933294644
 21
11.0410818039
  0
LINE
  5
6AE
100
AcDbEntity
  8
0
100
AcDbLine
 62
7
  6
CONTINUOUS
 10
14.1674175309
 20
11.0888942187
 11
14.1334178439
 21
11.0952486095
  0
LINE
  5
6AF
100
AcDbEntity
  8
0
100
AcDbLine
 62
7
  6
CONTINUOUS
 10
14.5069292323
 20
12.1453076156
 11
14.5889925322
 21
12.1972757309
  0
LINE
  5
6B0
100
AcDbEntity
  8
0
100
AcDbLine
 62
7
  6
CONTINUOUS
 10
14.5889925322
 20
12.1972757309
 11
14.675542685
 21
12.2451004743
  0
LINE
  5
6B1
100
AcDbEntity
  8
0
100
AcDbLine
 62
7
  6
CONTINUOUS
 10
14.675542685
 20
12.2451004743
 11
14.7678355617
 21
12.2939111265
  0
LINE
  5
6B2
100
AcDbEntity
  8
0
100
AcDbLine
 62
7
  6
CONTINUOUS
 10
14.7678355617
 20
12.2939111265
 11
14.862377867
 21
12.3335124676
  0
LINE
  5
6B3
100
AcDbEntity
  8
0
100
AcDbLine
 62
7
  6
CONTINUOUS
 10
16.1933294644
 20
11.0410818039
 11
16.1209227763
 21
11.0348814296
  0
LINE
  5
6B4
100
AcDbEntity
  8
02___PRT_ALL_AXES
100
AcDbLine
 62
7
  6
CONTINUOUS
 10
14.3203374128
 20
11.3899501399
 11
14.7140382002
 21
12.0868005336
  0
LINE
  5
6B5
100
AcDbEntity
  8
0
100
AcDbLine
 62
7
  6
CONTINUOUS
 10
15.1686716919
 20
12.3526536512
 11
15.2605774838
 21
12.3827557211
  0
LINE
  5
6B6
100
AcDbEntity
  8
0
100
AcDbLine
 62
7
  6
CONTINUOUS
 10
15.2777843897
 20
12.3942269917
 11
15.3268981454
 21
12.4088849714
  0
LINE
  5
6B7
100
AcDbEntity
  8
0
100
AcDbLine
 62
7
  6
CONTINUOUS
 10
15.1772609103
 20
11.0705273342
 11
15.0713015195
 21
11.0692952413
  0
LINE
  5
6B8
100
AcDbEntity
  8
0
100
AcDbLine
 62
7
  6
CONTINUOUS
 10
16.1209227763
 20
11.0348814296
 11
16.0456328643
 21
11.034024894
  0
LINE
  5
6B9
100
AcDbEntity
  8
0
100
AcDbLine
 62
7
  6
CONTINUOUS
 10
15.2847285671
 20
11.0710276361
 11
15.1772609103
 21
11.0705273342
  0
LINE
  5
6BA
100
AcDbEntity
  8
0
100
AcDbLine
 62
7
  6
CONTINUOUS
 10
15.0713015195
 20
11.0692952413
 11
14.794565089
 21
11.0691657966
  0
LINE
  5
6BB
100
AcDbEntity
  8
0
100
AcDbLine
 62
7
  6
CONTINUOUS
 10
15.3924970953
 20
11.0692952413
 11
15.2847285671
 21
11.0710276361
  0
LINE
  5
6BC
100
AcDbEntity
  8
0
100
AcDbLine
 62
7
  6
CONTINUOUS
 10
14.794565089
 20
11.0691657966
 11
14.5137989048
 21
11.07483372
  0
LINE
  5
6BD
100
AcDbEntity
  8
0
100
AcDbLine
 62
7
  6
CONTINUOUS
 10
16.0456328643
 20
11.034024894
 11
15.9713024472
 21
11.0365668239
  0
LINE
  5
6BE
100
AcDbEntity
  8
0
100
AcDbLine
 62
7
  6
CONTINUOUS
 10
14.5137989048
 20
11.07483372
 11
14.2052205918
 21
11.0865021472
  0
LINE
  5
6BF
100
AcDbEntity
  8
0
100
AcDbLine
 62
7
  6
CONTINUOUS
 10
15.4921734303
 20
11.0648123959
 11
15.3924970953
 21
11.0692952413
  0
LINE
  5
6C0
100
AcDbEntity
  8
0
100
AcDbLine
 62
7
  6
CONTINUOUS
 10
15.9713024472
 20
11.0365668239
 11
15.759637818
 21
11.048085101
  0
LINE
  5
6C1
100
AcDbEntity
  8
0
100
AcDbLine
 62
7
  6
CONTINUOUS
 10
15.759637818
 20
11.048085101
 11
15.6907501301
 21
11.0520883355
  0
LINE
  5
6C2
100
AcDbEntity
  8
0
100
AcDbLine
 62
7
  6
CONTINUOUS
 10
15.5914597111
 20
11.0585824593
 11
15.4921734303
 21
11.0648123959
  0
LINE
  5
6C3
100
AcDbEntity
  8
0
100
AcDbLine
 62
7
  6
CONTINUOUS
 10
14.2052205918
 20
11.0865021472
 11
14.1674175309
 21
11.0888942187
  0
LINE
  5
6C4
100
AcDbEntity
  8
0
100
AcDbLine
 62
7
  6
CONTINUOUS
 10
15.6907501301
 20
11.0520883355
 11
15.5914597111
 21
11.0585824593
  0
LINE
  5
6C5
100
AcDbEntity
  8
0
100
AcDbLine
 62
7
  6
CONTINUOUS
 10
15.2663024428
 20
12.3866360076
 11
15.2720115279
 21
12.3905441632
  0
LINE
  5
6C6
100
AcDbEntity
  8
0
100
AcDbLine
 62
7
  6
CONTINUOUS
 10
15.2605774838
 20
12.3827557211
 11
15.2663024428
 21
12.3866360076
  0
LINE
  5
6C7
100
AcDbEntity
  8
0
100
AcDbLine
 62
7
  6
CONTINUOUS
 10
15.2720115279
 20
12.3905441632
 11
15.2777843897
 21
12.3942269917
  0
LINE
  5
6C8
100
AcDbEntity
  8
02___PRT_ALL_AXES
100
AcDbLine
 62
7
  6
CENTER
 10
14.8340102683
 20
12.0190197041
 11
14.8340102683
 21
11.7812244286
  0
LINE
  5
6C9
100
AcDbEntity
  8
02___PRT_ALL_AXES
100
AcDbLine
 62
7
  6
CENTER
 10
14.8340102683
 20
12.0190197041
 11
14.8340102683
 21
12.2568149797
  0
LINE
  5
6CA
100
AcDbEntity
  8
02___PRT_ALL_AXES
100
AcDbLine
 62
7
  6
CONTINUOUS
 10
14.9539823365
 20
11.9512388747
 11
14.5602815491
 21
11.254388481
  0
LINE
  5
6CB
100
AcDbEntity
  8
02___PRT_ALL_AXES
100
AcDbLine
 62
7
  6
CENTER
 10
16.0151126305
 20
11.3221693104
 11
15.777317355
 21
11.3221693104
  0
LINE
  5
6CC
100
AcDbEntity
  8
02___PRT_ALL_AXES
100
AcDbLine
 62
7
  6
CENTER
 10
14.4403094809
 20
11.3221693104
 11
14.2025142054
 21
11.3221693104
  0
LINE
  5
6CD
100
AcDbEntity
  8
02___PRT_ALL_AXES
100
AcDbLine
 62
7
  6
CENTER
 10
14.4403094809
 20
11.3221693104
 11
14.6781047565
 21
11.3221693104
  0
LINE
  5
6CE
100
AcDbEntity
  8
02___PRT_ALL_AXES
100
AcDbLine
 62
7
  6
CENTER
 10
16.0151126305
 20
11.3221693104
 11
16.2529079061
 21
11.3221693104
  0
LINE
  5
6CF
100
AcDbEntity
  8
02___PRT_ALL_AXES
100
AcDbLine
 62
7
  6
CENTER
 10
15.2277110557
 20
11.3576023813
 11
14.9899157802
 21
11.3576023813
  0
LINE
  5
6D0
100
AcDbEntity
  8
02___PRT_ALL_AXES
100
AcDbLine
 62
7
  6
CENTER
 10
15.2277110557
 20
11.3576023813
 11
15.4655063313
 21
11.3576023813
  0
LINE
  5
6D1
100
AcDbEntity
  8
02___PRT_ALL_AXES
100
AcDbLine
 62
7
  6
CONTINUOUS
 10
15.0899157802
 20
11.3576023813
 11
15.0899157802
 21
12.0662637986
  0
LINE
  5
6D2
100
AcDbEntity
  8
02___PRT_ALL_AXES
100
AcDbLine
 62
7
  6
CENTER
 10
15.2277110557
 20
12.0662637986
 11
15.2277110557
 21
11.828468523
  0
LINE
  5
6D3
100
AcDbEntity
  8
02___PRT_ALL_AXES
100
AcDbLine
 62
7
  6
CENTER
 10
15.2277110557
 20
11.3576023813
 11
15.2277110557
 21
11.1198071057
  0
LINE
  5
6D4
100
AcDbEntity
  8
02___PRT_ALL_AXES
100
AcDbLine
 62
7
  6
CENTER
 10
15.2277110557
 20
11.3576023813
 11
15.2277110557
 21
11.5953976569
  0
LINE
  5
6D5
100
AcDbEntity
  8
02___PRT_ALL_AXES
100
AcDbLine
 62
7
  6
CENTER
 10
15.2277110557
 20
12.0662637986
 11
15.2277110557
 21
12.3040590742
  0
LINE
  5
6D6
100
AcDbEntity
  8
02___PRT_ALL_AXES
100
AcDbLine
 62
7
  6
CONTINUOUS
 10
15.3655063313
 20
12.0662637986
 11
15.3655063313
 21
11.3576023813
  0
LINE
  5
6D7
100
AcDbEntity
  8
02___PRT_ALL_AXES
100
AcDbLine
 62
7
  6
CENTER
 10
15.6214118431
 20
12.0190197041
 11
15.6214118431
 21
11.7812244286
  0
LINE
  5
6D8
100
AcDbEntity
  8
02___PRT_ALL_AXES
100
AcDbLine
 62
7
  6
CENTER
 10
15.6214118431
 20
12.0190197041
 11
15.6214118431
 21
12.2568149797
  0
LINE
  5
6D9
100
AcDbEntity
  8
02___PRT_ALL_AXES
100
AcDbLine
 62
7
  6
CENTER
 10
15.6214118431
 20
12.0190197041
 11
15.3836165676
 21
12.0190197041
  0
LINE
  5
6DA
100
AcDbEntity
  8
02___PRT_ALL_AXES
100
AcDbLine
 62
7
  6
CENTER
 10
14.8340102683
 20
12.0190197041
 11
14.5962149928
 21
12.0190197041
  0
LINE
  5
6DB
100
AcDbEntity
  8
02___PRT_ALL_AXES
100
AcDbLine
 62
7
  6
CENTER
 10
14.8340102683
 20
12.0190197041
 11
15.0718055439
 21
12.0190197041
  0
LINE
  5
6DC
100
AcDbEntity
  8
02___PRT_ALL_AXES
100
AcDbLine
 62
7
  6
CENTER
 10
15.6214118431
 20
12.0190197041
 11
15.8592071187
 21
12.0190197041
  0
LINE
  5
6DD
100
AcDbEntity
  8
02___PRT_ALL_AXES
100
AcDbLine
 62
7
  6
CENTER
 10
15.2277110557
 20
12.0662637986
 11
14.9899157802
 21
12.0662637986
  0
LINE
  5
6DE
100
AcDbEntity
  8
02___PRT_ALL_AXES
100
AcDbLine
 62
7
  6
CENTER
 10
15.2277110557
 20
12.0662637986
 11
15.4655063313
 21
12.0662637986
  0
LINE
  5
6DF
100
AcDbEntity
  8
02___PRT_ALL_AXES
100
AcDbLine
 62
7
  6
CONTINUOUS
 10
15.8951405624
 20
11.254388481
 11
15.501439775
 21
11.9512388747
  0
LINE
  5
6E0
100
AcDbEntity
  8
0
100
AcDbLine
 62
7
  6
CONTINUOUS
 10
15.066118791
 20
12.3527091014
 11
15.1686716919
 21
12.3526536512
  0
LINE
  5
6E1
100
AcDbEntity
  8
0
100
AcDbLine
 62
7
  6
CONTINUOUS
 10
14.9623244491
 20
12.3540775447
 11
15.066118791
 21
12.3527091014
  0
LINE
  5
6E2
100
AcDbEntity
  8
02___PRT_ALL_AXES
100
AcDbLine
 62
7
  6
CONTINUOUS
 10
15.7413839113
 20
12.0868005336
 11
16.1350846987
 21
11.3899501399
  0
LINE
  5
6E3
100
AcDbEntity
  8
0
100
AcDbLine
 62
7
  6
CONTINUOUS
 10
14.862377867
 20
12.3335124676
 11
14.9623244491
 21
12.3540775447
  0
LINE
  5
6E4
100
AcDbEntity
  8
0
100
AcDbLine
 62
7
  6
CONTINUOUS
 10
15.522651052
 20
12.3983266604
 11
15.6034449168
 21
12.3992393178
  0
LINE
  5
6E5
100
AcDbEntity
  8
0
100
AcDbLine
 62
7
  6
CONTINUOUS
 10
15.4383821776
 20
12.3999626269
 11
15.522651052
 21
12.3983266604
  0
LINE
  5
6E6
100
AcDbEntity
  8
0
100
AcDbLine
 62
7
  6
CONTINUOUS
 10
15.3268981454
 20
12.4088849714
 11
15.3814912318
 21
12.4067595158
  0
LINE
  5
6E7
100
AcDbEntity
  8
0
100
AcDbLine
 62
7
  6
CONTINUOUS
 10
15.3814912318
 20
12.4067595158
 11
15.4383821776
 21
12.3999626269
  0
LINE
  5
6E8
100
AcDbEntity
  8
0
100
AcDbLine
 62
7
  6
CONTINUOUS
 10
15.6034449168
 20
12.3992393178
 11
15.6792788595
 21
12.3884913564
  0
LINE
  5
6E9
100
AcDbEntity
  8
02___PRT_ALL_AXES
100
AcDbLine
 62
7
  6
CENTER
 10
16.0151126305
 20
11.3221693104
 11
16.0151126305
 21
11.0843740349
  0
LINE
  5
6EA
100
AcDbEntity
  8
02___PRT_ALL_AXES
100
AcDbLine
 62
7
  6
CENTER
 10
16.0151126305
 20
11.3221693104
 11
16.0151126305
 21
11.559964586
  0
LINE
  5
6EB
100
AcDbEntity
  8
0
100
AcDbLine
 62
7
  6
CONTINUOUS
 10
15.6792788595
 20
12.3884913564
 11
15.7512928844
 21
12.3547668035
  0
LINE
  5
6EC
100
AcDbEntity
  8
0
100
AcDbLine
 62
7
  6
CONTINUOUS
 10
15.7512928844
 20
12.3547668035
 11
15.8192111225
 21
12.3050739491
  0
LINE
  5
6ED
100
AcDbEntity
  8
0
100
AcDbLine
 62
7
  6
CONTINUOUS
 10
15.8857617297
 20
12.2508361096
 11
15.9753465031
 21
12.1828069775
  0
LINE
  5
6EE
100
AcDbEntity
  8
0
100
AcDbLine
 62
7
  6
CONTINUOUS
 10
15.8192111225
 20
12.3050739491
 11
15.8857617297
 21
12.2508361096
  0
LINE
  5
6EF
100
AcDbEntity
  8
0
100
AcDbLine
 62
7
  6
CONTINUOUS
 10
15.9753465031
 20
12.1828069775
 11
16.0176813412
 21
12.1475946745
  0
LINE
  5
6F0
100
AcDbEntity
  8
0
100
AcDbLine
 62
7
  6
CONTINUOUS
 10
16.0176813412
 20
12.1475946745
 11
16.086377753
 21
12.0756821012
  0
LINE
  5
6F1
100
AcDbEntity
  8
0
100
AcDbLine
 62
7
  6
CONTINUOUS
 10
16.086377753
 20
12.0756821012
 11
16.1480740479
 21
11.9957112759
  0
LINE
  5
6F2
100
AcDbEntity
  8
0
100
AcDbLine
 62
7
  6
CONTINUOUS
 10
16.1480740479
 20
11.9957112759
 11
16.2791636804
 21
11.8104563055
  0
LINE
  5
6F3
100
AcDbEntity
  8
0
100
AcDbLine
 62
7
  6
CONTINUOUS
 10
16.2791636804
 20
11.8104563055
 11
16.3464866642
 21
11.7066421071
  0
LINE
  5
6F4
100
AcDbEntity
  8
0
100
AcDbLine
 62
7
  6
CONTINUOUS
 10
16.3464866642
 20
11.7066421071
 11
16.4019689051
 21
11.5969736873
  0
LINE
  5
6F5
100
AcDbEntity
  8
0
100
AcDbLine
 62
7
  6
CONTINUOUS
 10
16.3274056465
 20
11.0865021472
 11
16.2634268692
 21
11.056733271
  0
LINE
  5
6F6
100
AcDbEntity
  8
0
100
AcDbLine
 62
7
  6
CONTINUOUS
 10
16.4019689051
 20
11.5969736873
 11
16.4290116217
 21
11.5193233504
  0
LINE
  5
6F7
100
AcDbEntity
  8
0
100
AcDbLine
 62
7
  6
CONTINUOUS
 10
16.4290116217
 20
11.5193233504
 11
16.446603665
 21
11.4385975595
  0
LINE
  5
6F8
100
AcDbEntity
  8
0
100
AcDbLine
 62
7
  6
CONTINUOUS
 10
16.446603665
 20
11.4385975595
 11
16.4535896227
 21
11.3560770055
  0
LINE
  5
6F9
100
AcDbEntity
  8
0
100
AcDbLine
 62
7
  6
CONTINUOUS
 10
16.4535896227
 20
11.3560770055
 11
16.4520577699
 21
11.3072246985
  0
LINE
  5
6FA
100
AcDbEntity
  8
0
100
AcDbLine
 62
7
  6
CONTINUOUS
 10
16.3699032841
 20
11.1209847869
 11
16.3274056465
 21
11.0865021472
  0
LINE
  5
6FB
100
AcDbEntity
  8
0
100
AcDbLine
 62
7
  6
CONTINUOUS
 10
16.4520577699
 20
11.3072246985
 11
16.4449176104
 21
11.2591192508
  0
LINE
  5
6FC
100
AcDbEntity
  8
0
100
AcDbLine
 62
7
  6
CONTINUOUS
 10
16.4449176104
 20
11.2591192508
 11
16.4306470815
 21
11.2126861234
  0
LINE
  5
6FD
100
AcDbEntity
  8
0
100
AcDbLine
 62
7
  6
CONTINUOUS
 10
16.4306470815
 20
11.2126861234
 11
16.4048816614
 21
11.1639069329
  0
LINE
  5
6FE
100
AcDbEntity
  8
0
100
AcDbLine
 62
7
  6
CONTINUOUS
 10
16.4048816614
 20
11.1639069329
 11
16.3699032841
 21
11.1209847869
  0
LINE
  5
6FF
100
AcDbEntity
  8
0
100
AcDbLine
 62
7
  6
CONTINUOUS
 10
8.3601117208
 20
13.0166546025
 11
8.419353612
 21
13.163102927
  0
LINE
  5
700
100
AcDbEntity
  8
0
100
AcDbLine
 62
7
  6
CONTINUOUS
 10
8.419353612
 20
13.163102927
 11
8.5076057206
 21
13.2798291751
  0
LINE
  5
701
100
AcDbEntity
  8
0
100
AcDbLine
 62
7
  6
CONTINUOUS
 10
8.5076057206
 20
13.2798291751
 11
8.6565895093
 21
13.3640829505
  0
LINE
  5
702
100
AcDbEntity
  8
0
100
AcDbLine
 62
7
  6
CONTINUOUS
 10
9.0907292277
 20
11.0362088905
 11
8.9581770682
 21
11.0450592979
  0
LINE
  5
703
100
AcDbEntity
  8
0
100
AcDbLine
 62
7
  6
CONTINUOUS
 10
8.9581770682
 20
11.0450592979
 11
8.8302352053
 21
11.0751943632
  0
LINE
  5
704
100
AcDbEntity
  8
0
100
AcDbLine
 62
7
  6
CONTINUOUS
 10
8.8302352053
 20
11.0751943632
 11
8.7303510969
 21
11.1214936582
  0
LINE
  5
705
100
AcDbEntity
  8
0
100
AcDbLine
 62
7
  6
CONTINUOUS
 10
8.7303510969
 20
11.1214936582
 11
8.6395295821
 21
11.1853708347
  0
LINE
  5
706
100
AcDbEntity
  8
0
100
AcDbLine
 62
7
  6
CONTINUOUS
 10
8.6395295821
 20
11.1853708347
 11
8.5613773014
 21
11.263394896
  0
LINE
  5
707
100
AcDbEntity
  8
0
100
AcDbLine
 62
7
  6
CONTINUOUS
 10
8.5613773014
 20
11.263394896
 11
8.4739706772
 21
11.3953401794
  0
LINE
  5
708
100
AcDbEntity
  8
0
100
AcDbLine
 62
7
  6
CONTINUOUS
 10
8.4739706772
 20
11.3953401794
 11
8.4091840364
 21
11.5415292648
  0
LINE
  5
709
100
AcDbEntity
  8
0
100
AcDbLine
 62
7
  6
CONTINUOUS
 10
8.251086578
 20
12.1079935661
 11
8.2459403652
 21
12.2190754312
  0
LINE
  5
70A
100
AcDbEntity
  8
0
100
AcDbLine
 62
7
  6
CONTINUOUS
 10
8.2459403652
 20
12.2190754312
 11
8.2477097469
 21
12.3298645814
  0
LINE
  5
70B
100
AcDbEntity
  8
0
100
AcDbLine
 62
7
  6
CONTINUOUS
 10
8.2477097469
 20
12.3298645814
 11
8.2604608939
 21
12.5050163395
  0
LINE
  5
70C
100
AcDbEntity
  8
0
100
AcDbLine
 62
7
  6
CONTINUOUS
 10
8.2604608939
 20
12.5050163395
 11
8.2844322772
 21
12.6797360578
  0
LINE
  5
70D
100
AcDbEntity
  8
0
100
AcDbLine
 62
7
  6
CONTINUOUS
 10
8.2844322772
 20
12.6797360578
 11
8.3194051879
 21
12.858618459
  0
LINE
  5
70E
100
AcDbEntity
  8
0
100
AcDbLine
 62
7
  6
CONTINUOUS
 10
8.3194051879
 20
12.858618459
 11
8.3601117208
 21
13.0166546025
  0
LINE
  5
70F
100
AcDbEntity
  8
0
100
AcDbLine
 62
7
  6
CONTINUOUS
 10
9.9995617958
 20
11.1268986783
 11
9.801304477
 21
11.0888839742
  0
LINE
  5
710
100
AcDbEntity
  8
0
100
AcDbLine
 62
7
  6
CONTINUOUS
 10
9.801304477
 20
11.0888839742
 11
9.6009611964
 21
11.0662324331
  0
LINE
  5
711
100
AcDbEntity
  8
0
100
AcDbLine
 62
7
  6
CONTINUOUS
 10
9.6009611964
 20
11.0662324331
 11
9.4760635057
 21
11.055331285
  0
LINE
  5
712
100
AcDbEntity
  8
0
100
AcDbLine
 62
7
  6
CONTINUOUS
 10
9.4760635057
 20
11.055331285
 11
9.3508555306
 21
11.0462682318
  0
LINE
  5
713
100
AcDbEntity
  8
0
100
AcDbLine
 62
7
  6
CONTINUOUS
 10
9.3508555306
 20
11.0462682318
 11
9.224560131
 21
11.0393466427
  0
LINE
  5
714
100
AcDbEntity
  8
0
100
AcDbLine
 62
7
  6
CONTINUOUS
 10
9.224560131
 20
11.0393466427
 11
9.0907292277
 21
11.0362088905
  0
LINE
  5
715
100
AcDbEntity
  8
0
100
AcDbLine
 62
7
  6
CONTINUOUS
 10
8.4091840364
 20
11.5415292648
 11
8.3552529084
 21
11.6935675422
  0
LINE
  5
716
100
AcDbEntity
  8
0
100
AcDbLine
 62
7
  6
CONTINUOUS
 10
8.3552529084
 20
11.6935675422
 11
8.3207711671
 21
11.7945369542
  0
LINE
  5
717
100
AcDbEntity
  8
0
100
AcDbLine
 62
7
  6
CONTINUOUS
 10
8.3207711671
 20
11.7945369542
 11
8.2896451607
 21
11.8956735879
  0
LINE
  5
718
100
AcDbEntity
  8
0
100
AcDbLine
 62
7
  6
CONTINUOUS
 10
8.2896451607
 20
11.8956735879
 11
8.2656336071
 21
11.9982731666
  0
LINE
  5
719
100
AcDbEntity
  8
0
100
AcDbLine
 62
7
  6
CONTINUOUS
 10
8.2656336071
 20
11.9982731666
 11
8.251086578
 21
12.1079935661
  0
LINE
  5
71A
100
AcDbEntity
  8
02___PRT_ALL_AXES
100
AcDbLine
 62
7
  6
CENTER
 10
8.4272205042
 20
12.254900243
 11
8.4272205042
 21
12.0171049674
  0
LINE
  5
71B
100
AcDbEntity
  8
02___PRT_ALL_AXES
100
AcDbLine
 62
7
  6
CENTER
 10
8.4272205042
 20
12.254900243
 11
8.4272205042
 21
12.4926955186
  0
LINE
  5
71C
100
AcDbEntity
  8
02___PRT_ALL_AXES
100
AcDbLine
 62
7
  6
CENTER
 10
9.4508425515
 20
11.2312781958
 11
9.2130472759
 21
11.2312781958
  0
LINE
  5
71D
100
AcDbEntity
  8
02___PRT_ALL_AXES
100
AcDbLine
 62
7
  6
CENTER
 10
9.4508425515
 20
11.2312781958
 11
9.6886378271
 21
11.2312781958
  0
LINE
  5
71E
100
AcDbEntity
  8
02___PRT_ALL_AXES
100
AcDbLine
 62
7
  6
CENTER
 10
8.6634409767
 20
13.0423018178
 11
8.6634409767
 21
12.8045065422
  0
LINE
  5
71F
100
AcDbEntity
  8
02___PRT_ALL_AXES
100
AcDbLine
 62
7
  6
CENTER
 10
8.6634409767
 20
11.4674986682
 11
8.6634409767
 21
11.2297033926
  0
LINE
  5
720
100
AcDbEntity
  8
02___PRT_ALL_AXES
100
AcDbLine
 62
7
  6
CENTER
 10
8.6634409767
 20
11.4674986682
 11
8.6634409767
 21
11.7052939438
  0
LINE
  5
721
100
AcDbEntity
  8
02___PRT_ALL_AXES
100
AcDbLine
 62
7
  6
CENTER
 10
8.6634409767
 20
13.0423018178
 11
8.6634409767
 21
13.2800970934
  0
LINE
  5
722
100
AcDbEntity
  8
02___PRT_ALL_AXES
100
AcDbLine
 62
7
  6
CENTER
 10
10.2382441263
 20
11.4674986682
 11
10.0004488507
 21
11.4674986682
  0
LINE
  5
723
100
AcDbEntity
  8
02___PRT_ALL_AXES
100
AcDbLine
 62
7
  6
CENTER
 10
8.6634409767
 20
11.4674986682
 11
8.4256457011
 21
11.4674986682
  0
LINE
  5
724
100
AcDbEntity
  8
02___PRT_ALL_AXES
100
AcDbLine
 62
7
  6
CENTER
 10
8.6634409767
 20
11.4674986682
 11
8.9012362522
 21
11.4674986682
  0
LINE
  5
725
100
AcDbEntity
  8
02___PRT_ALL_AXES
100
AcDbLine
 62
7
  6
CENTER
 10
10.2382441263
 20
11.4674986682
 11
10.4760394019
 21
11.4674986682
  0
LINE
  5
726
100
AcDbEntity
  8
02___PRT_ALL_AXES
100
AcDbLine
 62
7
  6
CENTER
 10
8.8602913704
 20
12.254900243
 11
8.8602913704
 21
12.0171049674
  0
LINE
  5
727
100
AcDbEntity
  8
02___PRT_ALL_AXES
100
AcDbLine
 62
7
  6
CENTER
 10
8.8602913704
 20
12.254900243
 11
8.8602913704
 21
12.4926955186
  0
LINE
  5
728
100
AcDbEntity
  8
02___PRT_ALL_AXES
100
AcDbLine
 62
7
  6
CENTER
 10
9.4508425515
 20
11.6643490619
 11
9.2130472759
 21
11.6643490619
  0
LINE
  5
729
100
AcDbEntity
  8
02___PRT_ALL_AXES
100
AcDbLine
 62
7
  6
CENTER
 10
9.4508425515
 20
11.6643490619
 11
9.6886378271
 21
11.6643490619
  0
LINE
  5
72A
100
AcDbEntity
  8
02___PRT_ALL_AXES
100
AcDbLine
 62
7
  6
CENTER
 10
9.0571417641
 20
12.6486010304
 11
9.0571417641
 21
12.4108057548
  0
LINE
  5
72B
100
AcDbEntity
  8
02___PRT_ALL_AXES
100
AcDbLine
 62
7
  6
CENTER
 10
9.0571417641
 20
11.8611994556
 11
9.0571417641
 21
11.62340418
  0
LINE
  5
72C
100
AcDbEntity
  8
02___PRT_ALL_AXES
100
AcDbLine
 62
7
  6
CENTER
 10
9.0571417641
 20
11.8611994556
 11
9.0571417641
 21
12.0989947312
  0
LINE
  5
72D
100
AcDbEntity
  8
02___PRT_ALL_AXES
100
AcDbLine
 62
7
  6
CENTER
 10
9.0571417641
 20
12.6486010304
 11
9.0571417641
 21
12.886396306
  0
LINE
  5
72E
100
AcDbEntity
  8
02___PRT_ALL_AXES
100
AcDbLine
 62
7
  6
CENTER
 10
9.8445433389
 20
11.8611994556
 11
9.6067480633
 21
11.8611994556
  0
LINE
  5
72F
100
AcDbEntity
  8
02___PRT_ALL_AXES
100
AcDbLine
 62
7
  6
CENTER
 10
9.0571417641
 20
11.8611994556
 11
8.8193464885
 21
11.8611994556
  0
LINE
  5
730
100
AcDbEntity
  8
02___PRT_ALL_AXES
100
AcDbLine
 62
7
  6
CENTER
 10
9.0571417641
 20
11.8611994556
 11
9.2949370396
 21
11.8611994556
  0
LINE
  5
731
100
AcDbEntity
  8
02___PRT_ALL_AXES
100
AcDbLine
 62
7
  6
CENTER
 10
9.8445433389
 20
11.8611994556
 11
10.0823386145
 21
11.8611994556
  0
LINE
  5
732
100
AcDbEntity
  8
02___PRT_ALL_AXES
100
AcDbLine
 62
7
  6
CONTINUOUS
 10
9.3130472759
 20
11.2312781958
 11
9.3130472759
 21
11.6643490619
  0
LINE
  5
733
100
AcDbEntity
  8
02___PRT_ALL_AXES
100
AcDbLine
 62
7
  6
CONTINUOUS
 10
9.3130472759
 20
12.8454514241
 11
9.3130472759
 21
13.2785222903
  0
LINE
  5
734
100
AcDbEntity
  8
02___PRT_ALL_AXES
100
AcDbLine
 62
7
  6
CONTINUOUS
 10
8.5660050029
 20
11.564934642
 11
8.9597057903
 21
11.9586354294
  0
LINE
  5
735
100
AcDbEntity
  8
02___PRT_ALL_AXES
100
AcDbLine
 62
7
  6
CONTINUOUS
 10
9.7471073651
 20
12.7460370042
 11
10.1408081525
 21
13.1397377916
  0
LINE
  5
736
100
AcDbEntity
  8
02___PRT_ALL_AXES
100
AcDbLine
 62
7
  6
CONTINUOUS
 10
10.4744645987
 20
12.1171049674
 11
10.0413937326
 21
12.1171049674
  0
LINE
  5
737
100
AcDbEntity
  8
02___PRT_ALL_AXES
100
AcDbLine
 62
7
  6
CONTINUOUS
 10
8.8602913704
 20
12.1171049674
 11
8.4272205042
 21
12.1171049674
  0
LINE
  5
738
100
AcDbEntity
  8
02___PRT_ALL_AXES
100
AcDbLine
 62
7
  6
CONTINUOUS
 10
10.1408081525
 20
11.3700626944
 11
9.7471073651
 21
11.7637634818
  0
LINE
  5
739
100
AcDbEntity
  8
02___PRT_ALL_AXES
100
AcDbLine
 62
7
  6
CONTINUOUS
 10
8.9597057903
 20
12.5511650566
 11
8.5660050029
 21
12.944865844
  0
LINE
  5
73A
100
AcDbEntity
  8
02___PRT_ALL_AXES
100
AcDbLine
 62
7
  6
CENTER
 10
9.4508425515
 20
13.2785222903
 11
9.4508425515
 21
13.0407270147
  0
LINE
  5
73B
100
AcDbEntity
  8
02___PRT_ALL_AXES
100
AcDbLine
 62
7
  6
CENTER
 10
9.4508425515
 20
12.8454514241
 11
9.4508425515
 21
12.6076561485
  0
LINE
  5
73C
100
AcDbEntity
  8
02___PRT_ALL_AXES
100
AcDbLine
 62
7
  6
CENTER
 10
9.4508425515
 20
12.254900243
 11
9.4508425515
 21
12.0171049674
  0
LINE
  5
73D
100
AcDbEntity
  8
02___PRT_ALL_AXES
100
AcDbLine
 62
7
  6
CENTER
 10
9.4508425515
 20
11.6643490619
 11
9.4508425515
 21
11.4265537863
  0
LINE
  5
73E
100
AcDbEntity
  8
02___PRT_ALL_AXES
100
AcDbLine
 62
7
  6
CENTER
 10
9.4508425515
 20
11.2312781958
 11
9.4508425515
 21
10.9934829202
  0
LINE
  5
73F
100
AcDbEntity
  8
02___PRT_ALL_AXES
100
AcDbLine
 62
7
  6
CENTER
 10
9.4508425515
 20
11.2312781958
 11
9.4508425515
 21
11.4265537863
  0
LINE
  5
740
100
AcDbEntity
  8
02___PRT_ALL_AXES
100
AcDbLine
 62
7
  6
CENTER
 10
9.4508425515
 20
11.6643490619
 11
9.4508425515
 21
11.9021443375
  0
LINE
  5
741
100
AcDbEntity
  8
02___PRT_ALL_AXES
100
AcDbLine
 62
7
  6
CENTER
 10
9.4508425515
 20
12.254900243
 11
9.4508425515
 21
12.4926955186
  0
LINE
  5
742
100
AcDbEntity
  8
02___PRT_ALL_AXES
100
AcDbLine
 62
7
  6
CENTER
 10
9.4508425515
 20
12.8454514241
 11
9.4508425515
 21
13.0407270147
  0
LINE
  5
743
100
AcDbEntity
  8
02___PRT_ALL_AXES
100
AcDbLine
 62
7
  6
CENTER
 10
9.4508425515
 20
13.2785222903
 11
9.4508425515
 21
13.5163175659
  0
LINE
  5
744
100
AcDbEntity
  8
02___PRT_ALL_AXES
100
AcDbLine
 62
7
  6
CENTER
 10
10.4744645987
 20
12.254900243
 11
10.2366693231
 21
12.254900243
  0
LINE
  5
745
100
AcDbEntity
  8
02___PRT_ALL_AXES
100
AcDbLine
 62
7
  6
CENTER
 10
10.0413937326
 20
12.254900243
 11
9.803598457
 21
12.254900243
  0
LINE
  5
746
100
AcDbEntity
  8
02___PRT_ALL_AXES
100
AcDbLine
 62
7
  6
CENTER
 10
9.4508425515
 20
12.254900243
 11
9.2130472759
 21
12.254900243
  0
LINE
  5
747
100
AcDbEntity
  8
02___PRT_ALL_AXES
100
AcDbLine
 62
7
  6
CENTER
 10
8.8602913704
 20
12.254900243
 11
8.6224960948
 21
12.254900243
  0
LINE
  5
748
100
AcDbEntity
  8
02___PRT_ALL_AXES
100
AcDbLine
 62
7
  6
CENTER
 10
8.4272205042
 20
12.254900243
 11
8.1894252286
 21
12.254900243
  0
LINE
  5
749
100
AcDbEntity
  8
02___PRT_ALL_AXES
100
AcDbLine
 62
7
  6
CENTER
 10
8.4272205042
 20
12.254900243
 11
8.6224960948
 21
12.254900243
  0
LINE
  5
74A
100
AcDbEntity
  8
02___PRT_ALL_AXES
100
AcDbLine
 62
7
  6
CENTER
 10
8.8602913704
 20
12.254900243
 11
9.0980866459
 21
12.254900243
  0
LINE
  5
74B
100
AcDbEntity
  8
02___PRT_ALL_AXES
100
AcDbLine
 62
7
  6
CENTER
 10
9.4508425515
 20
12.254900243
 11
9.6886378271
 21
12.254900243
  0
LINE
  5
74C
100
AcDbEntity
  8
02___PRT_ALL_AXES
100
AcDbLine
 62
7
  6
CENTER
 10
10.0413937326
 20
12.254900243
 11
10.2366693231
 21
12.254900243
  0
LINE
  5
74D
100
AcDbEntity
  8
02___PRT_ALL_AXES
100
AcDbLine
 62
7
  6
CENTER
 10
10.4744645987
 20
12.254900243
 11
10.7122598743
 21
12.254900243
  0
LINE
  5
74E
100
AcDbEntity
  8
02___PRT_ALL_AXES
100
AcDbLine
 62
7
  6
CONTINUOUS
 10
9.5886378271
 20
13.2785222903
 11
9.5886378271
 21
12.8454514241
  0
LINE
  5
74F
100
AcDbEntity
  8
02___PRT_ALL_AXES
100
AcDbLine
 62
7
  6
CONTINUOUS
 10
9.5886378271
 20
11.6643490619
 11
9.5886378271
 21
11.2312781958
  0
LINE
  5
750
100
AcDbEntity
  8
02___PRT_ALL_AXES
100
AcDbLine
 62
7
  6
CONTINUOUS
 10
8.4272205042
 20
12.3926955186
 11
8.8602913704
 21
12.3926955186
  0
LINE
  5
751
100
AcDbEntity
  8
02___PRT_ALL_AXES
100
AcDbLine
 62
7
  6
CONTINUOUS
 10
10.0413937326
 20
12.3926955186
 11
10.4744645987
 21
12.3926955186
  0
LINE
  5
752
100
AcDbEntity
  8
02___PRT_ALL_AXES
100
AcDbLine
 62
7
  6
CONTINUOUS
 10
8.7608769504
 20
13.1397377916
 11
9.1545777378
 21
12.7460370042
  0
LINE
  5
753
100
AcDbEntity
  8
02___PRT_ALL_AXES
100
AcDbLine
 62
7
  6
CONTINUOUS
 10
9.9419793126
 20
11.9586354294
 11
10.3356801
 21
11.564934642
  0
LINE
  5
754
100
AcDbEntity
  8
02___PRT_ALL_AXES
100
AcDbLine
 62
7
  6
CONTINUOUS
 10
10.3356801
 20
12.944865844
 11
9.9419793126
 21
12.5511650566
  0
LINE
  5
755
100
AcDbEntity
  8
02___PRT_ALL_AXES
100
AcDbLine
 62
7
  6
CONTINUOUS
 10
9.1545777378
 20
11.7637634818
 11
8.7608769504
 21
11.3700626944
  0
LINE
  5
756
100
AcDbEntity
  8
02___PRT_ALL_AXES
100
AcDbLine
 62
7
  6
CENTER
 10
9.8445433389
 20
12.6486010304
 11
9.8445433389
 21
12.4108057548
  0
LINE
  5
757
100
AcDbEntity
  8
02___PRT_ALL_AXES
100
AcDbLine
 62
7
  6
CENTER
 10
9.8445433389
 20
11.8611994556
 11
9.8445433389
 21
11.62340418
  0
LINE
  5
758
100
AcDbEntity
  8
02___PRT_ALL_AXES
100
AcDbLine
 62
7
  6
CENTER
 10
9.8445433389
 20
11.8611994556
 11
9.8445433389
 21
12.0989947312
  0
LINE
  5
759
100
AcDbEntity
  8
02___PRT_ALL_AXES
100
AcDbLine
 62
7
  6
CENTER
 10
9.8445433389
 20
12.6486010304
 11
9.8445433389
 21
12.886396306
  0
LINE
  5
75A
100
AcDbEntity
  8
02___PRT_ALL_AXES
100
AcDbLine
 62
7
  6
CENTER
 10
9.8445433389
 20
12.6486010304
 11
9.6067480633
 21
12.6486010304
  0
LINE
  5
75B
100
AcDbEntity
  8
02___PRT_ALL_AXES
100
AcDbLine
 62
7
  6
CENTER
 10
9.0571417641
 20
12.6486010304
 11
8.8193464885
 21
12.6486010304
  0
LINE
  5
75C
100
AcDbEntity
  8
02___PRT_ALL_AXES
100
AcDbLine
 62
7
  6
CENTER
 10
9.0571417641
 20
12.6486010304
 11
9.2949370396
 21
12.6486010304
  0
LINE
  5
75D
100
AcDbEntity
  8
02___PRT_ALL_AXES
100
AcDbLine
 62
7
  6
CENTER
 10
9.8445433389
 20
12.6486010304
 11
10.0823386145
 21
12.6486010304
  0
LINE
  5
75E
100
AcDbEntity
  8
02___PRT_ALL_AXES
100
AcDbLine
 62
7
  6
CENTER
 10
10.0413937326
 20
12.254900243
 11
10.0413937326
 21
12.0171049674
  0
LINE
  5
75F
100
AcDbEntity
  8
02___PRT_ALL_AXES
100
AcDbLine
 62
7
  6
CENTER
 10
10.0413937326
 20
12.254900243
 11
10.0413937326
 21
12.4926955186
  0
LINE
  5
760
100
AcDbEntity
  8
02___PRT_ALL_AXES
100
AcDbLine
 62
7
  6
CENTER
 10
9.4508425515
 20
12.8454514241
 11
9.2130472759
 21
12.8454514241
  0
LINE
  5
761
100
AcDbEntity
  8
02___PRT_ALL_AXES
100
AcDbLine
 62
7
  6
CENTER
 10
9.4508425515
 20
12.8454514241
 11
9.6886378271
 21
12.8454514241
  0
LINE
  5
762
100
AcDbEntity
  8
02___PRT_ALL_AXES
100
AcDbLine
 62
7
  6
CENTER
 10
10.2382441263
 20
13.0423018178
 11
10.2382441263
 21
12.8045065422
  0
LINE
  5
763
100
AcDbEntity
  8
02___PRT_ALL_AXES
100
AcDbLine
 62
7
  6
CENTER
 10
10.2382441263
 20
11.4674986682
 11
10.2382441263
 21
11.2297033926
  0
LINE
  5
764
100
AcDbEntity
  8
02___PRT_ALL_AXES
100
AcDbLine
 62
7
  6
CENTER
 10
10.2382441263
 20
11.4674986682
 11
10.2382441263
 21
11.7052939438
  0
LINE
  5
765
100
AcDbEntity
  8
02___PRT_ALL_AXES
100
AcDbLine
 62
7
  6
CENTER
 10
10.2382441263
 20
13.0423018178
 11
10.2382441263
 21
13.2800970934
  0
LINE
  5
766
100
AcDbEntity
  8
02___PRT_ALL_AXES
100
AcDbLine
 62
7
  6
CENTER
 10
10.2382441263
 20
13.0423018178
 11
10.0004488507
 21
13.0423018178
  0
LINE
  5
767
100
AcDbEntity
  8
02___PRT_ALL_AXES
100
AcDbLine
 62
7
  6
CENTER
 10
8.6634409767
 20
13.0423018178
 11
8.4256457011
 21
13.0423018178
  0
LINE
  5
768
100
AcDbEntity
  8
02___PRT_ALL_AXES
100
AcDbLine
 62
7
  6
CENTER
 10
8.6634409767
 20
13.0423018178
 11
8.9012362522
 21
13.0423018178
  0
LINE
  5
769
100
AcDbEntity
  8
02___PRT_ALL_AXES
100
AcDbLine
 62
7
  6
CENTER
 10
10.2382441263
 20
13.0423018178
 11
10.4760394019
 21
13.0423018178
  0
LINE
  5
76A
100
AcDbEntity
  8
02___PRT_ALL_AXES
100
AcDbLine
 62
7
  6
CENTER
 10
10.4744645987
 20
12.254900243
 11
10.4744645987
 21
12.0171049674
  0
LINE
  5
76B
100
AcDbEntity
  8
02___PRT_ALL_AXES
100
AcDbLine
 62
7
  6
CENTER
 10
10.4744645987
 20
12.254900243
 11
10.4744645987
 21
12.4926955186
  0
LINE
  5
76C
100
AcDbEntity
  8
02___PRT_ALL_AXES
100
AcDbLine
 62
7
  6
CENTER
 10
9.4508425515
 20
13.2785222903
 11
9.2130472759
 21
13.2785222903
  0
LINE
  5
76D
100
AcDbEntity
  8
02___PRT_ALL_AXES
100
AcDbLine
 62
7
  6
CENTER
 10
9.4508425515
 20
13.2785222903
 11
9.6886378271
 21
13.2785222903
  0
LINE
  5
76E
100
AcDbEntity
  8
0
100
AcDbLine
 62
7
  6
CONTINUOUS
 10
10.6576758451
 20
12.5046854314
 11
10.6674308818
 21
12.3388265115
  0
LINE
  5
76F
100
AcDbEntity
  8
0
100
AcDbLine
 62
7
  6
CONTINUOUS
 10
10.6674308818
 20
12.3388265115
 11
10.6723490979
 21
12.1961246811
  0
LINE
  5
770
100
AcDbEntity
  8
0
100
AcDbLine
 62
7
  6
CONTINUOUS
 10
10.6723490979
 20
12.1961246811
 11
10.6731569488
 21
12.0531515536
  0
LINE
  5
771
100
AcDbEntity
  8
0
100
AcDbLine
 62
7
  6
CONTINUOUS
 10
10.6731569488
 20
12.0531515536
 11
10.6674308818
 21
11.9086538653
  0
LINE
  5
772
100
AcDbEntity
  8
0
100
AcDbLine
 62
7
  6
CONTINUOUS
 10
10.6674308818
 20
11.9086538653
 11
10.6515944351
 21
11.7612467999
  0
LINE
  5
773
100
AcDbEntity
  8
0
100
AcDbLine
 62
7
  6
CONTINUOUS
 10
10.6515944351
 20
11.7612467999
 11
10.6184625399
 21
11.618383129
  0
LINE
  5
774
100
AcDbEntity
  8
0
100
AcDbLine
 62
7
  6
CONTINUOUS
 10
10.192448585
 20
11.1916994549
 11
9.9995617958
 21
11.1268986783
  0
LINE
  5
775
100
AcDbEntity
  8
0
100
AcDbLine
 62
7
  6
CONTINUOUS
 10
8.6565895093
 20
13.3640829505
 11
8.83752127
 21
13.4088246875
  0
LINE
  5
776
100
AcDbEntity
  8
0
100
AcDbLine
 62
7
  6
CONTINUOUS
 10
9.0273976681
 20
13.4411439174
 11
9.164137808
 21
13.4696391752
  0
LINE
  5
777
100
AcDbEntity
  8
0
100
AcDbLine
 62
7
  6
CONTINUOUS
 10
9.164137808
 20
13.4696391752
 11
9.2971680291
 21
13.4945084205
  0
LINE
  5
778
100
AcDbEntity
  8
0
100
AcDbLine
 62
7
  6
CONTINUOUS
 10
8.83752127
 20
13.4088246875
 11
9.0273976681
 21
13.4411439174
  0
LINE
  5
779
100
AcDbEntity
  8
0
100
AcDbLine
 62
7
  6
CONTINUOUS
 10
9.2971680291
 20
13.4945084205
 11
9.4306845239
 21
13.5038774283
  0
LINE
  5
77A
100
AcDbEntity
  8
0
100
AcDbLine
 62
7
  6
CONTINUOUS
 10
9.4306845239
 20
13.5038774283
 11
9.4635659097
 21
13.5025044522
  0
LINE
  5
77B
100
AcDbEntity
  8
0
100
AcDbLine
 62
7
  6
CONTINUOUS
 10
9.4635659097
 20
13.5025044522
 11
9.4965004237
 21
13.4995181601
  0
LINE
  5
77C
100
AcDbEntity
  8
0
100
AcDbLine
 62
7
  6
CONTINUOUS
 10
9.4965004237
 20
13.4995181601
 11
9.5292657554
 21
13.4949154982
  0
LINE
  5
77D
100
AcDbEntity
  8
0
100
AcDbLine
 62
7
  6
CONTINUOUS
 10
9.5292657554
 20
13.4949154982
 11
9.6266594945
 21
13.4720214485
  0
LINE
  5
77E
100
AcDbEntity
  8
0
100
AcDbLine
 62
7
  6
CONTINUOUS
 10
9.6266594945
 20
13.4720214485
 11
9.7218016522
 21
13.4401631276
  0
LINE
  5
77F
100
AcDbEntity
  8
0
100
AcDbLine
 62
7
  6
CONTINUOUS
 10
9.9327710892
 20
13.364372554
 11
10.0495060904
 21
13.3239003521
  0
LINE
  5
780
100
AcDbEntity
  8
0
100
AcDbLine
 62
7
  6
CONTINUOUS
 10
9.8160475195
 20
13.4052961969
 11
9.9327710892
 21
13.364372554
  0
LINE
  5
781
100
AcDbEntity
  8
0
100
AcDbLine
 62
7
  6
CONTINUOUS
 10
9.7218016522
 20
13.4401631276
 11
9.8160475195
 21
13.4052961969
  0
LINE
  5
782
100
AcDbEntity
  8
0
100
AcDbLine
 62
7
  6
CONTINUOUS
 10
10.0495060904
 20
13.3239003521
 11
10.1655627946
 21
13.2798291751
  0
LINE
  5
783
100
AcDbEntity
  8
0
100
AcDbLine
 62
7
  6
CONTINUOUS
 10
10.1655627946
 20
13.2798291751
 11
10.2446282993
 21
13.2449383692
  0
LINE
  5
784
100
AcDbEntity
  8
0
100
AcDbLine
 62
7
  6
CONTINUOUS
 10
10.2446282993
 20
13.2449383692
 11
10.3202432051
 21
13.2039345049
  0
LINE
  5
785
100
AcDbEntity
  8
0
100
AcDbLine
 62
7
  6
CONTINUOUS
 10
10.3202432051
 20
13.2039345049
 11
10.3896110478
 21
13.1543621533
  0
LINE
  5
786
100
AcDbEntity
  8
0
100
AcDbLine
 62
7
  6
CONTINUOUS
 10
10.3896110478
 20
13.1543621533
 11
10.4771011681
 21
13.061784836
  0
LINE
  5
787
100
AcDbEntity
  8
0
100
AcDbLine
 62
7
  6
CONTINUOUS
 10
10.4771011681
 20
13.061784836
 11
10.5454790845
 21
12.9518568728
  0
LINE
  5
788
100
AcDbEntity
  8
0
100
AcDbLine
 62
7
  6
CONTINUOUS
 10
10.5454790845
 20
12.9518568728
 11
10.5957354408
 21
12.8317326686
  0
LINE
  5
789
100
AcDbEntity
  8
0
100
AcDbLine
 62
7
  6
CONTINUOUS
 10
10.5957354408
 20
12.8317326686
 11
10.6367478433
 21
12.6697058343
  0
LINE
  5
78A
100
AcDbEntity
  8
0
100
AcDbLine
 62
7
  6
CONTINUOUS
 10
10.6367478433
 20
12.6697058343
 11
10.6576758451
 21
12.5046854314
  0
LINE
  5
78B
100
AcDbEntity
  8
0
100
AcDbLine
 62
7
  6
CONTINUOUS
 10
10.6184625399
 20
11.618383129
 11
10.5598877203
 21
11.4874431492
  0
LINE
  5
78C
100
AcDbEntity
  8
0
100
AcDbLine
 62
7
  6
CONTINUOUS
 10
10.5598877203
 20
11.4874431492
 11
10.4617173285
 21
11.3659030796
  0
LINE
  5
78D
100
AcDbEntity
  8
0
100
AcDbLine
 62
7
  6
CONTINUOUS
 10
10.4617173285
 20
11.3659030796
 11
10.3354291192
 21
11.2672634014
  0
LINE
  5
78E
100
AcDbEntity
  8
0
100
AcDbLine
 62
7
  6
CONTINUOUS
 10
10.3354291192
 20
11.2672634014
 11
10.192448585
 21
11.1916994549
  0
CIRCLE
  5
78F
100
AcDbEntity
  8
0
100
AcDbCircle
 62
7
  6
CONTINUOUS
 10
15.2229827477
 20
1.1139932523
 40
0.252091
  0
CIRCLE
  5
790
100
AcDbEntity
  8
0
100
AcDbCircle
 62
7
  6
CONTINUOUS
 10
15.2229827477
 20
1.1139932523
 40
0.182698
  0
CIRCLE
  5
791
100
AcDbEntity
  8
02___PRT_ALL_AXES
100
AcDbCircle
 62
7
  6
CONTINUOUS
 10
3.8749270945
 20
6.0096978417
 40
0.2214566929
  0
CIRCLE
  5
792
100
AcDbEntity
  8
02___PRT_ALL_AXES
100
AcDbCircle
 62
7
  6
CONTINUOUS
 10
3.8749270945
 20
5.0254458732
 40
0.2214566929
  0
CIRCLE
  5
793
100
AcDbEntity
  8
02___PRT_ALL_AXES
100
AcDbCircle
 62
7
  6
CONTINUOUS
 10
3.8749270945
 20
6.9939498102
 40
0.2214566929
  0
ARC
  5
794
100
AcDbEntity
  8
0
100
AcDbCircle
 62
7
  6
CONTINUOUS
 10
2.9497302442
 20
4.6022175268
 40
0.1181102362
100
AcDbArc
 50
180.0
 51
270.0
  0
ARC
  5
795
100
AcDbEntity
  8
0
100
AcDbCircle
 62
7
  6
CONTINUOUS
 10
2.9497302442
 20
7.4171781567
 40
0.1181102362
100
AcDbArc
 50
90.0
 51
180.0
  0
ARC
  5
796
100
AcDbEntity
  8
0
100
AcDbCircle
 62
7
  6
CONTINUOUS
 10
9.2554873817
 20
4.6022175268
 40
0.1181102362
100
AcDbArc
 50
270.0
 51
360.0
  0
ARC
  5
797
100
AcDbEntity
  8
0
100
AcDbCircle
 62
7
  6
CONTINUOUS
 10
9.2554873817
 20
7.4171781567
 40
0.1181102362
100
AcDbArc
 50
0.0
 51
90.0
  0
CIRCLE
  5
798
100
AcDbEntity
  8
02___PRT_ALL_AXES
100
AcDbCircle
 62
7
  6
CONTINUOUS
 10
8.5861960432
 20
6.0096978417
 40
0.0688976378
  0
ARC
  5
799
100
AcDbEntity
  8
02___PRT_ALL_AXES
100
AcDbCircle
 62
7
  6
CONTINUOUS
 10
8.2909204526
 20
6.0096978417
 40
0.0688976378
100
AcDbArc
 50
270.0
 51
90.0
  0
ARC
  5
79A
100
AcDbEntity
  8
02___PRT_ALL_AXES
100
AcDbCircle
 62
7
  6
CONTINUOUS
 10
8.0743850195
 20
6.0096978417
 40
0.0688976378
100
AcDbArc
 50
90.0
 51
270.0
  0
ARC
  5
79B
100
AcDbEntity
  8
02___PRT_ALL_AXES
100
AcDbCircle
 62
7
  6
CONTINUOUS
 10
8.5861960432
 20
6.3049734323
 40
0.0688976378
100
AcDbArc
 50
180.0
 51
360.0
  0
ARC
  5
79C
100
AcDbEntity
  8
02___PRT_ALL_AXES
100
AcDbCircle
 62
7
  6
CONTINUOUS
 10
8.5861960432
 20
6.5215088653
 40
0.0688976378
100
AcDbArc
 50
0.0
 51
180.0
  0
ARC
  5
79D
100
AcDbEntity
  8
02___PRT_ALL_AXES
100
AcDbCircle
 62
7
  6
CONTINUOUS
 10
8.8814716337
 20
6.0096978417
 40
0.0688976378
100
AcDbArc
 50
90.0
 51
270.0
  0
ARC
  5
79E
100
AcDbEntity
  8
02___PRT_ALL_AXES
100
AcDbCircle
 62
7
  6
CONTINUOUS
 10
9.0980070668
 20
6.0096978417
 40
0.0688976378
100
AcDbArc
 50
270.0
 51
90.0
  0
ARC
  5
79F
100
AcDbEntity
  8
02___PRT_ALL_AXES
100
AcDbCircle
 62
7
  6
CONTINUOUS
 10
8.5861960432
 20
5.4978868181
 40
0.0688976378
100
AcDbArc
 50
180.0
 51
360.0
  0
ARC
  5
7A0
100
AcDbEntity
  8
02___PRT_ALL_AXES
100
AcDbCircle
 62
7
  6
CONTINUOUS
 10
8.5861960432
 20
5.7144222512
 40
0.0688976378
100
AcDbArc
 50
0.0
 51
180.0
  0
ARC
  5
7A1
100
AcDbEntity
  8
02___PRT_ALL_AXES
100
AcDbCircle
 62
7
  6
CONTINUOUS
 10
8.3893456495
 20
5.812847448
 40
0.0688976378
100
AcDbArc
 50
315.0
 51
135.0
  0
ARC
  5
7A2
100
AcDbEntity
  8
02___PRT_ALL_AXES
100
AcDbCircle
 62
7
  6
CONTINUOUS
 10
8.1924952558
 20
5.6159970543
 40
0.0688976378
100
AcDbArc
 50
135.0
 51
315.0
  0
ARC
  5
7A3
100
AcDbEntity
  8
02___PRT_ALL_AXES
100
AcDbCircle
 62
7
  6
CONTINUOUS
 10
8.3893456495
 20
6.2065482354
 40
0.0688976378
100
AcDbArc
 50
225.0
 51
45.0
  0
ARC
  5
7A4
100
AcDbEntity
  8
02___PRT_ALL_AXES
100
AcDbCircle
 62
7
  6
CONTINUOUS
 10
8.1924952558
 20
6.4033986291
 40
0.0688976378
100
AcDbArc
 50
45.0
 51
225.0
  0
ARC
  5
7A5
100
AcDbEntity
  8
02___PRT_ALL_AXES
100
AcDbCircle
 62
7
  6
CONTINUOUS
 10
8.7830464369
 20
6.2065482354
 40
0.0688976378
100
AcDbArc
 50
135.0
 51
315.0
  0
ARC
  5
7A6
100
AcDbEntity
  8
02___PRT_ALL_AXES
100
AcDbCircle
 62
7
  6
CONTINUOUS
 10
8.9798968306
 20
6.4033986291
 40
0.0688976378
100
AcDbArc
 50
315.0
 51
135.0
  0
ARC
  5
7A7
100
AcDbEntity
  8
02___PRT_ALL_AXES
100
AcDbCircle
 62
7
  6
CONTINUOUS
 10
8.7830464369
 20
5.812847448
 40
0.0688976378
100
AcDbArc
 50
45.0
 51
225.0
  0
ARC
  5
7A8
100
AcDbEntity
  8
02___PRT_ALL_AXES
100
AcDbCircle
 62
7
  6
CONTINUOUS
 10
8.9798968306
 20
5.6159970543
 40
0.0688976378
100
AcDbArc
 50
225.0
 51
45.0
  0
ARC
  5
7A9
100
AcDbEntity
  8
02___PRT_ALL_AXES
100
AcDbCircle
 62
7
  6
CONTINUOUS
 10
8.9798968306
 20
4.6376505976
 40
0.0688976378
100
AcDbArc
 50
209.4652213848
 51
29.4652213848
  0
ARC
  5
7AA
100
AcDbEntity
  8
02___PRT_ALL_AXES
100
AcDbCircle
 62
7
  6
CONTINUOUS
 10
8.7830464369
 20
4.9860757945
 40
0.0688976378
100
AcDbArc
 50
29.4652213848
 51
209.4652213848
  0
ARC
  5
7AB
100
AcDbEntity
  8
02___PRT_ALL_AXES
100
AcDbCircle
 62
7
  6
CONTINUOUS
 10
8.1924952558
 20
4.6376505976
 40
0.0688976378
100
AcDbArc
 50
150.5347786152
 51
330.5347786152
  0
ARC
  5
7AC
100
AcDbEntity
  8
02___PRT_ALL_AXES
100
AcDbCircle
 62
7
  6
CONTINUOUS
 10
8.3893456495
 20
4.9860757945
 40
0.0688976378
100
AcDbArc
 50
330.5347786152
 51
150.5347786152
  0
ARC
  5
7AD
100
AcDbEntity
  8
02___PRT_ALL_AXES
100
AcDbCircle
 62
7
  6
CONTINUOUS
 10
8.5861960432
 20
4.6553671331
 40
0.0688976378
100
AcDbArc
 50
180.0
 51
360.0
  0
ARC
  5
7AE
100
AcDbEntity
  8
02___PRT_ALL_AXES
100
AcDbCircle
 62
7
  6
CONTINUOUS
 10
8.5861960432
 20
5.0096978417
 40
0.0688976378
100
AcDbArc
 50
0.0
 51
180.0
  0
ARC
  5
7AF
100
AcDbEntity
  8
02___PRT_ALL_AXES
100
AcDbCircle
 62
7
  6
CONTINUOUS
 10
8.7830464369
 20
7.033319889
 40
0.0688976378
100
AcDbArc
 50
150.5347786152
 51
330.5347786152
  0
ARC
  5
7B0
100
AcDbEntity
  8
02___PRT_ALL_AXES
100
AcDbCircle
 62
7
  6
CONTINUOUS
 10
8.9798968306
 20
7.3817450858
 40
0.0688976378
100
AcDbArc
 50
330.5347786152
 51
150.5347786152
  0
ARC
  5
7B1
100
AcDbEntity
  8
02___PRT_ALL_AXES
100
AcDbCircle
 62
7
  6
CONTINUOUS
 10
8.1924952558
 20
7.3817450858
 40
0.0688976378
100
AcDbArc
 50
29.4652213848
 51
209.4652213848
  0
ARC
  5
7B2
100
AcDbEntity
  8
02___PRT_ALL_AXES
100
AcDbCircle
 62
7
  6
CONTINUOUS
 10
8.3893456495
 20
7.033319889
 40
0.0688976378
100
AcDbArc
 50
209.4652213848
 51
29.4652213848
  0
ARC
  5
7B3
100
AcDbEntity
  8
02___PRT_ALL_AXES
100
AcDbCircle
 62
7
  6
CONTINUOUS
 10
8.5861960432
 20
7.0096978417
 40
0.0688976378
100
AcDbArc
 50
180.0
 51
360.0
  0
ARC
  5
7B4
100
AcDbEntity
  8
02___PRT_ALL_AXES
100
AcDbCircle
 62
7
  6
CONTINUOUS
 10
8.5861960432
 20
7.3640285504
 40
0.0688976378
100
AcDbArc
 50
0.0
 51
180.0
  0
ARC
  5
7B5
100
AcDbEntity
  8
0
100
AcDbCircle
 62
7
  6
CONTINUOUS
 10
4.2725648898
 20
10.5614971605
 40
0.1338582677
100
AcDbArc
 50
270.0
 51
360.0
  0
ARC
  5
7B6
100
AcDbEntity
  8
0
100
AcDbCircle
 62
7
  6
CONTINUOUS
 10
4.2725648898
 20
10.5614971605
 40
0.0826771654
100
AcDbArc
 50
270.0
 51
360.0
  0
ARC
  5
7B7
100
AcDbEntity
  8
02___PRT_ALL_AXES
100
AcDbCircle
 62
7
  6
CONTINUOUS
 10
17.3999305466
 20
7.3632246906
 40
0.1804036422
100
AcDbArc
 50
153.2357856047
 51
155.0992401623
  0
ARC
  5
7B8
100
AcDbEntity
  8
02___PRT_ALL_AXES
100
AcDbCircle
 62
7
  6
CONTINUOUS
 10
16.0079938591
 20
6.5595944665
 40
0.1804036422
100
AcDbArc
 50
153.2357856047
 51
155.0992401622
  0
ARC
  5
7B9
100
AcDbEntity
  8
02___PRT_ALL_AXES
100
AcDbCircle
 62
7
  6
CONTINUOUS
 10
18.791867234
 20
8.1668549148
 40
0.1804036422
100
AcDbArc
 50
153.2357856047
 51
155.0992401622
  0
CIRCLE
  5
7BA
100
AcDbEntity
  8
02___PRT_ALL_AXES
100
AcDbCircle
 62
7
  6
CONTINUOUS
 10
12.3354642903
 20
6.0096978417
 40
0.2214566929
  0
CIRCLE
  5
7BB
100
AcDbEntity
  8
02___PRT_ALL_AXES
100
AcDbCircle
 62
7
  6
CONTINUOUS
 10
12.3354642903
 20
5.0254458732
 40
0.2214566929
  0
CIRCLE
  5
7BC
100
AcDbEntity
  8
02___PRT_ALL_AXES
100
AcDbCircle
 62
7
  6
CONTINUOUS
 10
12.3354642903
 20
6.9939498102
 40
0.2214566929
  0
ARC
  5
7BD
100
AcDbEntity
  8
0
100
AcDbCircle
 62
7
  6
CONTINUOUS
 10
13.2606611407
 20
7.4171781567
 40
0.1181102362
100
AcDbArc
 50
0.0
 51
90.0
  0
ARC
  5
7BE
100
AcDbEntity
  8
0
100
AcDbCircle
 62
7
  6
CONTINUOUS
 10
13.2606611407
 20
4.6022175268
 40
0.1181102362
100
AcDbArc
 50
270.0
 51
360.0
  0
CIRCLE
  5
7BF
100
AcDbEntity
  8
0
100
AcDbCircle
 62
7
  6
CONTINUOUS
 10
8.6081293358
 20
4.8360512946
 40
0.5898413879
  0
ARC
  5
7C0
100
AcDbEntity
  8
02___PRT_ALL_AXES
100
AcDbCircle
 62
7
  6
CONTINUOUS
 10
16.0151126305
 20
11.3221693104
 40
0.1377952756
100
AcDbArc
 50
209.4652213848
 51
29.4652213848
  0
ARC
  5
7C1
100
AcDbEntity
  8
02___PRT_ALL_AXES
100
AcDbCircle
 62
7
  6
CONTINUOUS
 10
15.6214118431
 20
12.0190197041
 40
0.1377952756
100
AcDbArc
 50
29.4652213848
 51
209.4652213848
  0
ARC
  5
7C2
100
AcDbEntity
  8
02___PRT_ALL_AXES
100
AcDbCircle
 62
7
  6
CONTINUOUS
 10
14.4403094809
 20
11.3221693104
 40
0.1377952756
100
AcDbArc
 50
150.5347786152
 51
330.5347786152
  0
ARC
  5
7C3
100
AcDbEntity
  8
02___PRT_ALL_AXES
100
AcDbCircle
 62
7
  6
CONTINUOUS
 10
14.8340102683
 20
12.0190197041
 40
0.1377952756
100
AcDbArc
 50
330.5347786152
 51
150.5347786152
  0
ARC
  5
7C4
100
AcDbEntity
  8
02___PRT_ALL_AXES
100
AcDbCircle
 62
7
  6
CONTINUOUS
 10
15.2277110557
 20
11.3576023813
 40
0.1377952756
100
AcDbArc
 50
180.0
 51
360.0
  0
ARC
  5
7C5
100
AcDbEntity
  8
02___PRT_ALL_AXES
100
AcDbCircle
 62
7
  6
CONTINUOUS
 10
15.2277110557
 20
12.0662637986
 40
0.1377952756
100
AcDbArc
 50
0.0
 51
180.0
  0
CIRCLE
  5
7C6
100
AcDbEntity
  8
0
100
AcDbCircle
 62
7
  6
CONTINUOUS
 10
8.5909040066
 20
6.016057987
 40
0.615594839
  0
CIRCLE
  5
7C7
100
AcDbEntity
  8
02___PRT_ALL_AXES
100
AcDbCircle
 62
7
  6
CONTINUOUS
 10
9.4508425515
 20
12.254900243
 40
0.1377952756
  0
ARC
  5
7C8
100
AcDbEntity
  8
02___PRT_ALL_AXES
100
AcDbCircle
 62
7
  6
CONTINUOUS
 10
8.8602913704
 20
12.254900243
 40
0.1377952756
100
AcDbArc
 50
270.0
 51
90.0
  0
ARC
  5
7C9
100
AcDbEntity
  8
02___PRT_ALL_AXES
100
AcDbCircle
 62
7
  6
CONTINUOUS
 10
8.4272205042
 20
12.254900243
 40
0.1377952756
100
AcDbArc
 50
90.0
 51
270.0
  0
ARC
  5
7CA
100
AcDbEntity
  8
02___PRT_ALL_AXES
100
AcDbCircle
 62
7
  6
CONTINUOUS
 10
9.4508425515
 20
12.8454514241
 40
0.1377952756
100
AcDbArc
 50
180.0
 51
360.0
  0
ARC
  5
7CB
100
AcDbEntity
  8
02___PRT_ALL_AXES
100
AcDbCircle
 62
7
  6
CONTINUOUS
 10
9.4508425515
 20
13.2785222903
 40
0.1377952756
100
AcDbArc
 50
0.0
 51
180.0
  0
ARC
  5
7CC
100
AcDbEntity
  8
02___PRT_ALL_AXES
100
AcDbCircle
 62
7
  6
CONTINUOUS
 10
10.0413937326
 20
12.254900243
 40
0.1377952756
100
AcDbArc
 50
90.0
 51
270.0
  0
ARC
  5
7CD
100
AcDbEntity
  8
02___PRT_ALL_AXES
100
AcDbCircle
 62
7
  6
CONTINUOUS
 10
10.4744645987
 20
12.254900243
 40
0.1377952756
100
AcDbArc
 50
270.0
 51
90.0
  0
ARC
  5
7CE
100
AcDbEntity
  8
02___PRT_ALL_AXES
100
AcDbCircle
 62
7
  6
CONTINUOUS
 10
9.4508425515
 20
11.2312781958
 40
0.1377952756
100
AcDbArc
 50
180.0
 51
360.0
  0
ARC
  5
7CF
100
AcDbEntity
  8
02___PRT_ALL_AXES
100
AcDbCircle
 62
7
  6
CONTINUOUS
 10
9.4508425515
 20
11.6643490619
 40
0.1377952756
100
AcDbArc
 50
0.0
 51
180.0
  0
ARC
  5
7D0
100
AcDbEntity
  8
02___PRT_ALL_AXES
100
AcDbCircle
 62
7
  6
CONTINUOUS
 10
9.0571417641
 20
11.8611994556
 40
0.1377952756
100
AcDbArc
 50
315.0
 51
135.0
  0
ARC
  5
7D1
100
AcDbEntity
  8
02___PRT_ALL_AXES
100
AcDbCircle
 62
7
  6
CONTINUOUS
 10
8.6634409767
 20
11.4674986682
 40
0.1377952756
100
AcDbArc
 50
135.0
 51
315.0
  0
ARC
  5
7D2
100
AcDbEntity
  8
02___PRT_ALL_AXES
100
AcDbCircle
 62
7
  6
CONTINUOUS
 10
9.0571417641
 20
12.6486010304
 40
0.1377952756
100
AcDbArc
 50
225.0
 51
45.0
  0
ARC
  5
7D3
100
AcDbEntity
  8
02___PRT_ALL_AXES
100
AcDbCircle
 62
7
  6
CONTINUOUS
 10
8.6634409767
 20
13.0423018178
 40
0.1377952756
100
AcDbArc
 50
45.0
 51
225.0
  0
ARC
  5
7D4
100
AcDbEntity
  8
02___PRT_ALL_AXES
100
AcDbCircle
 62
7
  6
CONTINUOUS
 10
9.8445433389
 20
12.6486010304
 40
0.1377952756
100
AcDbArc
 50
135.0
 51
315.0
  0
ARC
  5
7D5
100
AcDbEntity
  8
02___PRT_ALL_AXES
100
AcDbCircle
 62
7
  6
CONTINUOUS
 10
10.2382441263
 20
13.0423018178
 40
0.1377952756
100
AcDbArc
 50
315.0
 51
135.0
  0
ARC
  5
7D6
100
AcDbEntity
  8
02___PRT_ALL_AXES
100
AcDbCircle
 62
7
  6
CONTINUOUS
 10
9.8445433389
 20
11.8611994556
 40
0.1377952756
100
AcDbArc
 50
45.0
 51
225.0
  0
ARC
  5
7D7
100
AcDbEntity
  8
02___PRT_ALL_AXES
100
AcDbCircle
 62
7
  6
CONTINUOUS
 10
10.2382441263
 20
11.4674986682
 40
0.1377952756
100
AcDbArc
 50
225.0
 51
45.0
  0
SPLINE
  5
7D8
100
AcDbEntity
  8
02___PRT_ALL_AXES
100
AcDbSpline
 62
7
  6
CONTINUOUS
 70
0
 71
3
 72
9
 73
5
 74
0
 42
0.0000001
 43
0.0000001
 44
0.0000000001
 40
0.0
 40
0.0
 40
0.0
 40
0.0
 40
0.245778757
 40
1.0
 40
1.0
 40
1.0
 40
1.0
 10
19.4921380593
 20
8.2213685794
 30
0.0
 10
19.4913706859
 20
8.2238607591
 30
0.0
 10
19.4880028809
 20
8.2339241254
 30
0.0
 10
19.4836714781
 20
8.2436593685
 30
0.0
 10
19.4799550587
 20
8.2507460882
 30
0.0
  0
SPLINE
  5
7D9
100
AcDbEntity
  8
02___PRT_ALL_AXES
100
AcDbSpline
 62
7
  6
CONTINUOUS
 70
0
 71
3
 72
9
 73
5
 74
0
 42
0.0000001
 43
0.0000001
 44
0.0000000001
 40
0.0
 40
0.0
 40
0.0
 40
0.0
 40
0.2257353369
 40
1.0
 40
1.0
 40
1.0
 40
1.0
 10
19.4799550587
 20
8.2507460882
 30
0.0
 10
19.4745393125
 20
8.2610731991
 30
0.0
 10
19.4462115066
 20
8.3045775987
 30
0.0
 10
19.4038804605
 20
8.3374499156
 30
0.0
 10
19.3692419076
 20
8.357448041
 30
0.0
  0
SPLINE
  5
7DA
100
AcDbEntity
  8
0
100
AcDbSpline
 62
7
  6
CONTINUOUS
 70
0
 71
3
 72
11
 73
7
 74
0
 42
0.0000001
 43
0.0000001
 44
0.0000000001
 40
0.0
 40
0.0
 40
0.0
 40
0.0
 40
0.2372243744
 40
0.4999989081
 40
0.7627740361
 40
1.0
 40
1.0
 40
1.0
 40
1.0
 10
16.0689647043
 20
5.8027102618
 30
0.0
 10
16.0855635077
 20
5.793127155
 30
0.0
 10
16.116977282
 20
5.7666900803
 30
0.0
 10
16.1536407036
 20
5.7165870774
 30
0.0
 10
16.1786997754
 20
5.6597841168
 30
0.0
 10
16.1858883596
 20
5.6193603417
 30
0.0
 10
16.1858883596
 20
5.6001936744
 30
0.0
  0
SPLINE
  5
7DB
100
AcDbEntity
  8
02___PRT_ALL_AXES
100
AcDbSpline
 62
7
  6
CONTINUOUS
 70
0
 71
3
 72
9
 73
5
 74
0
 42
0.0000001
 43
0.0000001
 44
0.0000000001
 40
0.0
 40
0.0
 40
0.0
 40
0.0
 40
0.245778757
 40
1.0
 40
1.0
 40
1.0
 40
1.0
 10
16.7082646844
 20
6.6141081311
 30
0.0
 10
16.707497311
 20
6.6166003108
 30
0.0
 10
16.704129506
 20
6.6266636771
 30
0.0
 10
16.6997981032
 20
6.6363989202
 30
0.0
 10
16.6960816838
 20
6.6434856398
 30
0.0
  0
SPLINE
  5
7DC
100
AcDbEntity
  8
02___PRT_ALL_AXES
100
AcDbSpline
 62
7
  6
CONTINUOUS
 70
0
 71
3
 72
9
 73
5
 74
0
 42
0.0000001
 43
0.0000001
 44
0.0000000001
 40
0.0
 40
0.0
 40
0.0
 40
0.0
 40
0.2257353369
 40
1.0
 40
1.0
 40
1.0
 40
1.0
 10
16.6960816838
 20
6.6434856398
 30
0.0
 10
16.6906659376
 20
6.6538127507
 30
0.0
 10
16.6623381317
 20
6.6973171504
 30
0.0
 10
16.6200070857
 20
6.7301894673
 30
0.0
 10
16.5853685328
 20
6.7501875927
 30
0.0
  0
SPLINE
  5
7DD
100
AcDbEntity
  8
02___PRT_ALL_AXES
100
AcDbSpline
 62
7
  6
CONTINUOUS
 70
0
 71
3
 72
9
 73
5
 74
0
 42
0.0000001
 43
0.0000001
 44
0.0000000001
 40
0.0
 40
0.0
 40
0.0
 40
0.0
 40
0.245778757
 40
1.0
 40
1.0
 40
1.0
 40
1.0
 10
18.1002013719
 20
7.4177383553
 30
0.0
 10
18.0994339985
 20
7.420230535
 30
0.0
 10
18.0960661934
 20
7.4302939012
 30
0.0
 10
18.0917347907
 20
7.4400291443
 30
0.0
 10
18.0880183713
 20
7.447115864
 30
0.0
  0
SPLINE
  5
7DE
100
AcDbEntity
  8
02___PRT_ALL_AXES
100
AcDbSpline
 62
7
  6
CONTINUOUS
 70
0
 71
3
 72
9
 73
5
 74
0
 42
0.0000001
 43
0.0000001
 44
0.0000000001
 40
0.0
 40
0.0
 40
0.0
 40
0.0
 40
0.2257353369
 40
1.0
 40
1.0
 40
1.0
 40
1.0
 10
18.0880183713
 20
7.447115864
 30
0.0
 10
18.082602625
 20
7.4574429749
 30
0.0
 10
18.0542748191
 20
7.5009473746
 30
0.0
 10
18.0119437731
 20
7.5338196914
 30
0.0
 10
17.9773052202
 20
7.5538178169
 30
0.0
  0
SPLINE
  5
7DF
100
AcDbEntity
  8
0
100
AcDbSpline
 62
7
  6
CONTINUOUS
 70
0
 71
3
 72
11
 73
7
 74
0
 42
0.0000001
 43
0.0000001
 44
0.0000000001
 40
0.0
 40
0.0
 40
0.0
 40
0.0
 40
0.2177761819
 40
0.4509348586
 40
0.7102271663
 40
1.0
 40
1.0
 40
1.0
 40
1.0
 10
16.234813088
 20
3.331860795
 30
0.0
 10
16.2270211119
 20
3.3363593922
 30
0.0
 10
16.212439663
 20
3.348614654
 30
0.0
 10
16.1969230656
 20
3.3739914576
 30
0.0
 10
16.1876983192
 20
3.405264116
 30
0.0
 10
16.1858883596
 20
3.4280264384
 30
0.0
 10
16.1858883596
 20
3.4399983031
 30
0.0
  0
SPLINE
  5
7E0
100
AcDbEntity
  8
02___PRT_ALL_AXES
100
AcDbSpline
 62
7
  6
CONTINUOUS
 70
0
 71
3
 72
11
 73
7
 74
0
 42
0.0000001
 43
0.0000001
 44
0.0000000001
 40
0.0
 40
0.0
 40
0.0
 40
0.0
 40
0.2217781469
 40
0.4837049414
 40
0.7547658062
 40
1.0
 40
1.0
 40
1.0
 40
1.0
 10
20.3535836021
 20
6.964710516
 30
0.0
 10
20.3573080682
 20
6.9484324031
 30
0.0
 10
20.3559092502
 20
6.910899873
 30
0.0
 10
20.3369304379
 20
6.8567837255
 30
0.0
 10
20.3043963825
 20
6.8073899568
 30
0.0
 10
20.274686187
 20
6.7810985541
 30
0.0
 10
20.258695107
 20
6.7718661548
 30
0.0
  0
SPLINE
  5
7E1
100
AcDbEntity
  8
02___PRT_ALL_AXES
100
AcDbSpline
 62
7
  6
CONTINUOUS
 70
0
 71
3
 72
11
 73
7
 74
0
 42
0.0000001
 43
0.0000001
 44
0.0000000001
 40
0.0
 40
0.0
 40
0.0
 40
0.0
 40
0.214379332
 40
0.4617638418
 40
0.7294299879
 40
1.0
 40
1.0
 40
1.0
 40
1.0
 10
20.3786975809
 20
7.6218280617
 30
0.0
 10
20.3812433554
 20
7.6105357668
 30
0.0
 10
20.3821324651
 20
7.5851725255
 30
0.0
 10
20.3738782425
 20
7.5463994554
 30
0.0
 10
20.3570703031
 20
7.5071860907
 30
0.0
 10
20.3408955799
 20
7.4828056538
 30
0.0
 10
20.331678052
 20
7.4714706073
 30
0.0
  0
SPLINE
  5
7E2
100
AcDbEntity
  8
02___PRT_ALL_AXES
100
AcDbSpline
 62
7
  6
CONTINUOUS
 70
0
 71
3
 72
14
 73
10
 74
0
 42
0.0000001
 43
0.0000001
 44
0.0000000001
 40
0.0
 40
0.0
 40
0.0
 40
0.0
 40
0.1092271776
 40
0.2358364828
 40
0.3751952685
 40
0.5198872893
 40
0.6614949884
 40
0.7921724891
 40
1.0
 40
1.0
 40
1.0
 40
1.0
 10
20.3769121833
 20
6.3426604
 30
0.0
 10
20.3799873237
 20
6.332849632
 30
0.0
 10
20.3825746716
 20
6.3103894421
 30
0.0
 10
20.3777946496
 20
6.2751659711
 30
0.0
 10
20.3652204749
 20
6.2383704916
 30
0.0
 10
20.3459217836
 20
6.2030834383
 30
0.0
 10
20.321293433
 20
6.1720923714
 30
0.0
 10
20.2874578293
 20
6.1425484321
 30
0.0
 10
20.255329599
 20
6.1288340374
 30
0.0
 10
20.2358218828
 20
6.1302977744
 30
0.0
  0
SPLINE
  5
7E3
100
AcDbEntity
  8
02___PRT_ALL_AXES
100
AcDbSpline
 62
7
  6
CONTINUOUS
 70
0
 71
3
 72
9
 73
5
 74
0
 42
0.0000001
 43
0.0000001
 44
0.0000000001
 40
0.0
 40
0.0
 40
0.0
 40
0.0
 40
0.2389715762
 40
1.0
 40
1.0
 40
1.0
 40
1.0
 10
16.4062462043
 20
4.5505322094
 30
0.0
 10
16.4080666761
 20
4.5511006592
 30
0.0
 10
16.4156084722
 20
4.5537214312
 30
0.0
 10
16.4228255019
 20
4.5572390253
 30
0.0
 10
16.4280853432
 20
4.5602757779
 30
0.0
  0
SPLINE
  5
7E4
100
AcDbEntity
  8
02___PRT_ALL_AXES
100
AcDbSpline
 62
7
  6
CONTINUOUS
 70
0
 71
3
 72
11
 73
7
 74
0
 42
0.0000001
 43
0.0000001
 44
0.0000000001
 40
0.0
 40
0.0
 40
0.0
 40
0.0
 40
0.2452341938
 40
0.5162950586
 40
0.7782218531
 40
1.0
 40
1.0
 40
1.0
 40
1.0
 10
17.9258092189
 20
5.4249818991
 30
0.0
 10
17.9418002989
 20
5.4342142984
 30
0.0
 10
17.9715104944
 20
5.4605057011
 30
0.0
 10
18.0040445497
 20
5.5098994698
 30
0.0
 10
18.023023362
 20
5.5640156173
 30
0.0
 10
18.02442218
 20
5.6015481474
 30
0.0
 10
18.0206977139
 20
5.6178262604
 30
0.0
  0
SPLINE
  5
7E5
100
AcDbEntity
  8
02___PRT_ALL_AXES
100
AcDbSpline
 62
7
  6
CONTINUOUS
 70
0
 71
3
 72
9
 73
5
 74
0
 42
0.0000001
 43
0.0000001
 44
0.0000000001
 40
0.0
 40
0.0
 40
0.0
 40
0.0
 40
0.2612237823
 40
1.0
 40
1.0
 40
1.0
 40
1.0
 10
18.4408257932
 20
5.3526487909
 30
0.0
 10
18.4408257932
 20
5.3547336521
 30
0.0
 10
18.4406309675
 20
5.3627118628
 30
0.0
 10
18.4396361793
 20
5.3706837804
 30
0.0
 10
18.4383439271
 20
5.3764366997
 30
0.0
  0
SPLINE
  5
7E6
100
AcDbEntity
  8
02___PRT_ALL_AXES
100
AcDbSpline
 62
7
  6
CONTINUOUS
 70
0
 71
3
 72
9
 73
5
 74
0
 42
0.0000001
 43
0.0000001
 44
0.0000000001
 40
0.0
 40
0.0
 40
0.0
 40
0.0
 40
0.4614399931
 40
1.0
 40
1.0
 40
1.0
 40
1.0
 10
16.3812145352
 20
3.8931588458
 30
0.0
 10
16.394112804
 20
3.8971859087
 30
0.0
 10
16.4201317742
 20
3.9119902667
 30
0.0
 10
16.4410086637
 20
3.932883295
 30
0.0
 10
16.4509585674
 20
3.9451189642
 30
0.0
  0
SPLINE
  5
7E7
100
AcDbEntity
  8
02___PRT_ALL_AXES
100
AcDbSpline
 62
7
  6
CONTINUOUS
 70
0
 71
3
 72
10
 73
6
 74
0
 42
0.0000001
 43
0.0000001
 44
0.0000000001
 40
0.0
 40
0.0
 40
0.0
 40
0.0
 40
0.2157065506
 40
0.4594492887
 40
1.0
 40
1.0
 40
1.0
 40
1.0
 10
17.7647797292
 20
4.6919601888
 30
0.0
 10
17.7733503664
 20
4.694632921
 30
0.0
 10
17.7907877597
 20
4.703034482
 30
0.0
 10
17.8238635463
 20
4.7285670606
 30
0.0
 10
17.8442640805
 20
4.7549510848
 30
0.0
 10
17.8555129011
 20
4.7744347218
 30
0.0
  0
SPLINE
  5
7E8
100
AcDbEntity
  8
02___PRT_ALL_AXES
100
AcDbSpline
 62
7
  6
CONTINUOUS
 70
0
 71
3
 72
11
 73
7
 74
0
 42
0.0000001
 43
0.0000001
 44
0.0000000001
 40
0.0
 40
0.0
 40
0.0
 40
0.0
 40
0.2452341938
 40
0.5162950586
 40
0.7782218531
 40
1.0
 40
1.0
 40
1.0
 40
1.0
 10
19.0671973026
 20
6.0839586829
 30
0.0
 10
19.0831883826
 20
6.0931910822
 30
0.0
 10
19.1128985781
 20
6.1194824849
 30
0.0
 10
19.1454326334
 20
6.1688762536
 30
0.0
 10
19.1644114457
 20
6.2229924011
 30
0.0
 10
19.1658102637
 20
6.2605249312
 30
0.0
 10
19.1620857976
 20
6.2768030442
 30
0.0
  0
SPLINE
  5
7E9
100
AcDbEntity
  8
02___PRT_ALL_AXES
100
AcDbSpline
 62
7
  6
CONTINUOUS
 70
0
 71
3
 72
9
 73
5
 74
0
 42
0.0000001
 43
0.0000001
 44
0.0000000001
 40
0.0
 40
0.0
 40
0.0
 40
0.0
 40
0.2612237823
 40
1.0
 40
1.0
 40
1.0
 40
1.0
 10
18.4408257932
 20
6.6706251335
 30
0.0
 10
18.4408257932
 20
6.6727099947
 30
0.0
 10
18.4406309675
 20
6.6806882054
 30
0.0
 10
18.4396361793
 20
6.688660123
 30
0.0
 10
18.4383439271
 20
6.6944130423
 30
0.0
  0
SPLINE
  5
7EA
100
AcDbEntity
  8
02___PRT_ALL_AXES
100
AcDbSpline
 62
7
  6
CONTINUOUS
 70
0
 71
3
 72
19
 73
15
 74
0
 42
0.0000001
 43
0.0000001
 44
0.0000000001
 40
0.0
 40
0.0
 40
0.0
 40
0.0
 40
0.0454063465
 40
0.0940778307
 40
0.1481483729
 40
0.2086040309
 40
0.3468514753
 40
0.4999989529
 40
0.6531466795
 40
0.7913947893
 40
0.8518508552
 40
0.9059217846
 40
0.9545935591
 40
1.0
 40
1.0
 40
1.0
 40
1.0
 10
18.8312684546
 20
5.337783045
 30
0.0
 10
18.8358113696
 20
5.3351602566
 30
0.0
 10
18.8462581373
 20
5.3313739728
 30
0.0
 10
18.8636001336
 20
5.3309286949
 30
0.0
 10
18.8820973716
 20
5.3353925156
 30
0.0
 10
18.9086007854
 20
5.3480269364
 30
0.0
 10
18.9401617763
 20
5.3746251628
 30
0.0
 10
18.9707322383
 20
5.41637583
 30
0.0
 10
18.99160358
 20
5.4637262941
 30
0.0
 10
18.9988573933
 20
5.5043582485
 30
0.0
 10
18.9965471724
 20
5.5336282348
 30
0.0
 10
18.9911642119
 20
5.5518793137
 30
0.0
 10
18.9821075316
 20
5.5666753447
 30
0.0
 10
18.973605115
 20
5.5738294186
 30
0.0
 10
18.969062251
 20
5.5764523173
 30
0.0
  0
SPLINE
  5
7EB
100
AcDbEntity
  8
02___PRT_ALL_AXES
100
AcDbSpline
 62
7
  6
CONTINUOUS
 70
0
 71
3
 72
9
 73
5
 74
0
 42
0.0000001
 43
0.0000001
 44
0.0000000001
 40
0.0
 40
0.0
 40
0.0
 40
0.0
 40
0.2612237823
 40
1.0
 40
1.0
 40
1.0
 40
1.0
 10
18.4408257932
 20
5.8348352577
 30
0.0
 10
18.4408257932
 20
5.8369201189
 30
0.0
 10
18.4406309675
 20
5.8448983296
 30
0.0
 10
18.4396361793
 20
5.8528702472
 30
0.0
 10
18.4383439271
 20
5.8586231665
 30
0.0
  0
SPLINE
  5
7EC
100
AcDbEntity
  8
02___PRT_ALL_AXES
100
AcDbSpline
 62
7
  6
CONTINUOUS
 70
0
 71
3
 72
10
 73
6
 74
0
 42
0.0000001
 43
0.0000001
 44
0.0000000001
 40
0.0
 40
0.0
 40
0.0
 40
0.0
 40
0.5405506462
 40
0.7842936676
 40
1.0
 40
1.0
 40
1.0
 40
1.0
 10
18.1339002386
 20
5.2566184112
 30
0.0
 10
18.1451493692
 20
5.2761025852
 30
0.0
 10
18.1577984424
 20
5.3069629706
 30
0.0
 10
18.1633720759
 20
5.3483749473
 30
0.0
 10
18.1619290041
 20
5.3676774778
 30
0.0
 10
18.1599581207
 20
5.3764364296
 30
0.0
  0
SPLINE
  5
7ED
100
AcDbEntity
  8
02___PRT_ALL_AXES
100
AcDbSpline
 62
7
  6
CONTINUOUS
 70
0
 71
3
 72
10
 73
6
 74
0
 42
0.0000001
 43
0.0000001
 44
0.0000000001
 40
0.0
 40
0.0
 40
0.0
 40
0.0
 40
0.2157065506
 40
0.4594492887
 40
1.0
 40
1.0
 40
1.0
 40
1.0
 10
18.5999417417
 20
6.1385112569
 30
0.0
 10
18.6085123789
 20
6.1411839891
 30
0.0
 10
18.6259497721
 20
6.1495855501
 30
0.0
 10
18.6590255588
 20
6.1751181287
 30
0.0
 10
18.679426093
 20
6.201502153
 30
0.0
 10
18.6906749136
 20
6.2209857899
 30
0.0
  0
SPLINE
  5
7EE
100
AcDbEntity
  8
02___PRT_ALL_AXES
100
AcDbSpline
 62
7
  6
CONTINUOUS
 70
0
 71
3
 72
19
 73
15
 74
0
 42
0.0000001
 43
0.0000001
 44
0.0000000001
 40
0.0
 40
0.0
 40
0.0
 40
0.0
 40
0.0454063465
 40
0.0940778307
 40
0.1481483729
 40
0.2086040309
 40
0.3468514753
 40
0.4999989529
 40
0.6531466795
 40
0.7913947893
 40
0.8518508552
 40
0.9059217846
 40
0.9545935591
 40
1.0
 40
1.0
 40
1.0
 40
1.0
 10
17.9961064421
 20
5.8199778441
 30
0.0
 10
18.0006493572
 20
5.8173550557
 30
0.0
 10
18.0110961249
 20
5.8135687719
 30
0.0
 10
18.0284381211
 20
5.8131234941
 30
0.0
 10
18.0469353592
 20
5.8175873148
 30
0.0
 10
18.0734387729
 20
5.8302217355
 30
0.0
 10
18.1049997639
 20
5.8568199619
 30
0.0
 10
18.1355702258
 20
5.8985706291
 30
0.0
 10
18.1564415676
 20
5.9459210932
 30
0.0
 10
18.1636953808
 20
5.9865530476
 30
0.0
 10
18.16138516
 20
6.0158230339
 30
0.0
 10
18.1560021995
 20
6.0340741128
 30
0.0
 10
18.1469455191
 20
6.0488701439
 30
0.0
 10
18.1384431026
 20
6.0560242177
 30
0.0
 10
18.1339002386
 20
6.0586471165
 30
0.0
  0
SPLINE
  5
7EF
100
AcDbEntity
  8
02___PRT_ALL_AXES
100
AcDbSpline
 62
7
  6
CONTINUOUS
 70
0
 71
3
 72
10
 73
6
 74
0
 42
0.0000001
 43
0.0000001
 44
0.0000000001
 40
0.0
 40
0.0
 40
0.0
 40
0.0
 40
0.5405506462
 40
0.7842936676
 40
1.0
 40
1.0
 40
1.0
 40
1.0
 10
18.969062251
 20
6.7031694793
 30
0.0
 10
18.9803113817
 20
6.7226536533
 30
0.0
 10
18.9929604549
 20
6.7535140387
 30
0.0
 10
18.9985340884
 20
6.7949260154
 30
0.0
 10
18.9970910165
 20
6.8142285459
 30
0.0
 10
18.9951201331
 20
6.8229874977
 30
0.0
  0
SPLINE
  5
7F0
100
AcDbEntity
  8
02___PRT_ALL_AXES
100
AcDbSpline
 62
7
  6
CONTINUOUS
 70
0
 71
3
 72
9
 73
5
 74
0
 42
0.0000001
 43
0.0000001
 44
0.0000000001
 40
0.0
 40
0.0
 40
0.0
 40
0.0
 40
0.2389715762
 40
1.0
 40
1.0
 40
1.0
 40
1.0
 10
17.5977440087
 20
5.2384396813
 30
0.0
 10
17.5995644805
 20
5.2390081311
 30
0.0
 10
17.6071062766
 20
5.2416289031
 30
0.0
 10
17.6143233063
 20
5.2451464971
 30
0.0
 10
17.6195831477
 20
5.2481832498
 30
0.0
  0
SPLINE
  5
7F1
100
AcDbEntity
  8
02___PRT_ALL_AXES
100
AcDbSpline
 62
7
  6
CONTINUOUS
 70
0
 71
3
 72
9
 73
5
 74
0
 42
0.0000001
 43
0.0000001
 44
0.0000000001
 40
0.0
 40
0.0
 40
0.0
 40
0.0
 40
0.2449924186
 40
1.0
 40
1.0
 40
1.0
 40
1.0
 10
18.3212652565
 20
4.8204478405
 30
0.0
 10
18.3220204862
 20
4.8206803736
 30
0.0
 10
18.3250904921
 20
4.8216703427
 30
0.0
 10
18.3281085846
 20
4.8228198121
 30
0.0
 10
18.3303526524
 20
4.8237656707
 30
0.0
  0
SPLINE
  5
7F2
100
AcDbEntity
  8
02___PRT_ALL_AXES
100
AcDbSpline
 62
7
  6
CONTINUOUS
 70
0
 71
3
 72
11
 73
7
 74
0
 42
0.0000001
 43
0.0000001
 44
0.0000000001
 40
0.0
 40
0.0
 40
0.0
 40
0.0
 40
0.2284437526
 40
0.4908771391
 40
0.7583446434
 40
1.0
 40
1.0
 40
1.0
 40
1.0
 10
18.3303526524
 20
4.8237656707
 30
0.0
 10
18.3455358088
 20
4.8301652636
 30
0.0
 10
18.37502197
 20
4.8512429469
 30
0.0
 10
18.4096036821
 20
4.8942146885
 30
0.0
 10
18.4337372939
 20
4.9448833675
 30
0.0
 10
18.4408257932
 20
4.9816157393
 30
0.0
 10
18.4408257932
 20
4.9990453819
 30
0.0
  0
SPLINE
  5
7F3
100
AcDbEntity
  8
02___PRT_ALL_AXES
100
AcDbSpline
 62
7
  6
CONTINUOUS
 70
0
 71
3
 72
11
 73
7
 74
0
 42
0.0000001
 43
0.0000001
 44
0.0000000001
 40
0.0
 40
0.0
 40
0.0
 40
0.0
 40
0.2452341938
 40
0.5162950586
 40
0.7782218531
 40
1.0
 40
1.0
 40
1.0
 40
1.0
 10
16.9291825507
 20
4.8495826586
 30
0.0
 10
16.9451736307
 20
4.8588150579
 30
0.0
 10
16.9748838262
 20
4.8851064606
 30
0.0
 10
17.0074178815
 20
4.9345002293
 30
0.0
 10
17.0263966938
 20
4.9886163768
 30
0.0
 10
17.0277955118
 20
5.0261489069
 30
0.0
 10
17.0240710457
 20
5.0424270199
 30
0.0
  0
SPLINE
  5
7F4
100
AcDbEntity
  8
02___PRT_ALL_AXES
100
AcDbSpline
 62
7
  6
CONTINUOUS
 70
0
 71
3
 72
14
 73
10
 74
0
 42
0.0000001
 43
0.0000001
 44
0.0000000001
 40
0.0
 40
0.0
 40
0.0
 40
0.0
 40
0.2078275109
 40
0.3385050116
 40
0.4801127107
 40
0.6248047315
 40
0.7641635172
 40
0.8907728224
 40
1.0
 40
1.0
 40
1.0
 40
1.0
 10
16.8478479856
 20
5.1386347424
 30
0.0
 10
16.8673557018
 20
5.1371710055
 30
0.0
 10
16.8994839321
 20
5.1508854001
 30
0.0
 10
16.9333195358
 20
5.1804293394
 30
0.0
 10
16.9579478864
 20
5.2114204063
 30
0.0
 10
16.9772465776
 20
5.2467074596
 30
0.0
 10
16.9898207524
 20
5.2835029391
 30
0.0
 10
16.9946007744
 20
5.3187264101
 30
0.0
 10
16.9920134265
 20
5.3411866
 30
0.0
 10
16.9889382861
 20
5.3509973681
 30
0.0
  0
SPLINE
  5
7F5
100
AcDbEntity
  8
02___PRT_ALL_AXES
100
AcDbSpline
 62
7
  6
CONTINUOUS
 70
0
 71
3
 72
9
 73
5
 74
0
 42
0.0000001
 43
0.0000001
 44
0.0000000001
 40
0.0
 40
0.0
 40
0.0
 40
0.0
 40
0.2389715762
 40
1.0
 40
1.0
 40
1.0
 40
1.0
 10
18.7391320924
 20
5.8974164651
 30
0.0
 10
18.7409525642
 20
5.8979849149
 30
0.0
 10
18.7484943603
 20
5.9006056869
 30
0.0
 10
18.75571139
 20
5.904123281
 30
0.0
 10
18.7609712313
 20
5.9071600336
 30
0.0
  0
SPLINE
  5
7F6
100
AcDbEntity
  8
02___PRT_ALL_AXES
100
AcDbSpline
 62
7
  6
CONTINUOUS
 70
0
 71
3
 72
11
 73
7
 74
0
 42
0.0000001
 43
0.0000001
 44
0.0000000001
 40
0.0
 40
0.0
 40
0.0
 40
0.0
 40
0.2705700121
 40
0.5382361582
 40
0.785620668
 40
1.0
 40
1.0
 40
1.0
 40
1.0
 10
16.9437041548
 20
4.5510617081
 30
0.0
 10
16.9529216827
 20
4.5623967546
 30
0.0
 10
16.9690964059
 20
4.5867771915
 30
0.0
 10
16.9859043453
 20
4.6259905561
 30
0.0
 10
16.9941585679
 20
4.6647636263
 30
0.0
 10
16.9932694582
 20
4.6901268676
 30
0.0
 10
16.9907236837
 20
4.7014191625
 30
0.0
  0
SPLINE
  5
7F7
100
AcDbEntity
  8
02___PRT_ALL_AXES
100
AcDbSpline
 62
7
  6
CONTINUOUS
 70
0
 71
3
 72
9
 73
5
 74
0
 42
0.0000001
 43
0.0000001
 44
0.0000000001
 40
0.0
 40
0.0
 40
0.0
 40
0.0
 40
0.2449924186
 40
1.0
 40
1.0
 40
1.0
 40
1.0
 10
18.3212652565
 20
6.1384241831
 30
0.0
 10
18.3220204862
 20
6.1386567162
 30
0.0
 10
18.3250904921
 20
6.1396466853
 30
0.0
 10
18.3281085846
 20
6.1407961547
 30
0.0
 10
18.3303526524
 20
6.1417420134
 30
0.0
  0
SPLINE
  5
7F8
100
AcDbEntity
  8
02___PRT_ALL_AXES
100
AcDbSpline
 62
7
  6
CONTINUOUS
 70
0
 71
3
 72
11
 73
7
 74
0
 42
0.0000001
 43
0.0000001
 44
0.0000000001
 40
0.0
 40
0.0
 40
0.0
 40
0.0
 40
0.2284437526
 40
0.4908771391
 40
0.7583446434
 40
1.0
 40
1.0
 40
1.0
 40
1.0
 10
18.3303526524
 20
6.1417420134
 30
0.0
 10
18.3455358088
 20
6.1481416062
 30
0.0
 10
18.37502197
 20
6.1692192895
 30
0.0
 10
18.4096036821
 20
6.2121910311
 30
0.0
 10
18.4337372939
 20
6.2628597101
 30
0.0
 10
18.4408257932
 20
6.2995920819
 30
0.0
 10
18.4408257932
 20
6.3170217245
 30
0.0
  0
SPLINE
  5
7F9
100
AcDbEntity
  8
02___PRT_ALL_AXES
100
AcDbSpline
 62
7
  6
CONTINUOUS
 70
0
 71
3
 72
9
 73
5
 74
0
 42
0.0000001
 43
0.0000001
 44
0.0000000001
 40
0.0
 40
0.0
 40
0.0
 40
0.0
 40
0.2612225495
 40
1.0
 40
1.0
 40
1.0
 40
1.0
 10
19.7575978995
 20
6.4825592741
 30
0.0
 10
19.7557925826
 20
6.4815169801
 30
0.0
 10
19.7487866885
 20
6.4776970671
 30
0.0
 10
19.7413863494
 20
6.4745729434
 30
0.0
 10
19.7357587606
 20
6.4728157056
 30
0.0
  0
SPLINE
  5
7FA
100
AcDbEntity
  8
02___PRT_ALL_AXES
100
AcDbSpline
 62
7
  6
CONTINUOUS
 70
0
 71
3
 72
9
 73
5
 74
0
 42
0.0000001
 43
0.0000001
 44
0.0000000001
 40
0.0
 40
0.0
 40
0.0
 40
0.0
 40
0.5385600069
 40
1.0
 40
1.0
 40
1.0
 40
1.0
 10
19.8389324646
 20
6.8655278634
 30
0.0
 10
19.8289825609
 20
6.8532921942
 30
0.0
 10
19.8081056714
 20
6.8323991659
 30
0.0
 10
19.7820867012
 20
6.8175948079
 30
0.0
 10
19.7691884324
 20
6.813567745
 30
0.0
  0
SPLINE
  5
7FB
100
AcDbEntity
  8
02___PRT_ALL_AXES
100
AcDbSpline
 62
7
  6
CONTINUOUS
 70
0
 71
3
 72
9
 73
5
 74
0
 42
0.0000001
 43
0.0000001
 44
0.0000000001
 40
0.0
 40
0.0
 40
0.0
 40
0.0
 40
0.2449924186
 40
1.0
 40
1.0
 40
1.0
 40
1.0
 10
18.3212652565
 20
5.6562377163
 30
0.0
 10
18.3220204862
 20
5.6564702494
 30
0.0
 10
18.3250904921
 20
5.6574602185
 30
0.0
 10
18.3281085846
 20
5.6586096879
 30
0.0
 10
18.3303526524
 20
5.6595555465
 30
0.0
  0
SPLINE
  5
7FC
100
AcDbEntity
  8
02___PRT_ALL_AXES
100
AcDbSpline
 62
7
  6
CONTINUOUS
 70
0
 71
3
 72
11
 73
7
 74
0
 42
0.0000001
 43
0.0000001
 44
0.0000000001
 40
0.0
 40
0.0
 40
0.0
 40
0.0
 40
0.2284437526
 40
0.4908771391
 40
0.7583446434
 40
1.0
 40
1.0
 40
1.0
 40
1.0
 10
18.3303526524
 20
5.6595555465
 30
0.0
 10
18.3455358088
 20
5.6659551394
 30
0.0
 10
18.37502197
 20
5.6870328227
 30
0.0
 10
18.4096036821
 20
5.7300045643
 30
0.0
 10
18.4337372939
 20
5.7806732433
 30
0.0
 10
18.4408257932
 20
5.8174056151
 30
0.0
 10
18.4408257932
 20
5.8348352577
 30
0.0
  0
SPLINE
  5
7FD
100
AcDbEntity
  8
02___PRT_ALL_AXES
100
AcDbSpline
 62
7
  6
CONTINUOUS
 70
0
 71
3
 72
15
 73
11
 74
0
 42
0.0000001
 43
0.0000001
 44
0.0000000001
 40
0.0
 40
0.0
 40
0.0
 40
0.0
 40
0.1230235919
 40
0.2576218017
 40
0.3985822036
 40
0.5397363262
 40
0.6749030873
 40
0.7385870324
 40
0.7989088345
 40
1.0
 40
1.0
 40
1.0
 40
1.0
 10
17.9773052202
 20
7.5538178169
 30
0.0
 10
17.9486522534
 20
7.5703602407
 30
0.0
 10
17.8845318235
 20
7.5980249168
 30
0.0
 10
17.7797910275
 20
7.6227234284
 30
0.0
 10
17.6676354914
 20
7.6315019187
 30
0.0
 10
17.5552745839
 20
7.623743072
 30
0.0
 10
17.465675591
 20
7.6035752402
 30
0.0
 10
17.4001531311
 20
7.5792095946
 30
0.0
 10
17.3219009742
 20
7.5411867001
 30
0.0
 10
17.2632035584
 20
7.4927528391
 30
0.0
 10
17.2388540423
 20
7.4444640524
 30
0.0
  0
SPLINE
  5
7FE
100
AcDbEntity
  8
02___PRT_ALL_AXES
100
AcDbSpline
 62
7
  6
CONTINUOUS
 70
0
 71
3
 72
9
 73
5
 74
0
 42
0.0000001
 43
0.0000001
 44
0.0000000001
 40
0.0
 40
0.0
 40
0.0
 40
0.0
 40
0.2540190808
 40
1.0
 40
1.0
 40
1.0
 40
1.0
 10
17.2362975101
 20
7.4391832549
 30
0.0
 10
17.2352705352
 20
7.4369704071
 30
0.0
 10
17.2314072864
 20
7.4281771923
 30
0.0
 10
17.2282826505
 20
7.4190564445
 30
0.0
 10
17.2264264109
 20
7.4121368587
 30
0.0
  0
SPLINE
  5
7FF
100
AcDbEntity
  8
02___PRT_ALL_AXES
100
AcDbSpline
 62
7
  6
CONTINUOUS
 70
0
 71
3
 72
15
 73
11
 74
0
 42
0.0000001
 43
0.0000001
 44
0.0000000001
 40
0.0
 40
0.0
 40
0.0
 40
0.0
 40
0.1230235919
 40
0.2576218017
 40
0.3985822036
 40
0.5397363262
 40
0.6749030873
 40
0.7385870324
 40
0.7989088345
 40
1.0
 40
1.0
 40
1.0
 40
1.0
 10
16.5853685328
 20
6.7501875927
 30
0.0
 10
16.556715566
 20
6.7667300166
 30
0.0
 10
16.492595136
 20
6.7943946926
 30
0.0
 10
16.38785434
 20
6.8190932043
 30
0.0
 10
16.275698804
 20
6.8278716945
 30
0.0
 10
16.1633378965
 20
6.8201128478
 30
0.0
 10
16.0737389036
 20
6.799945016
 30
0.0
 10
16.0082164437
 20
6.7755793704
 30
0.0
 10
15.9299642867
 20
6.7375564759
 30
0.0
 10
15.8712668709
 20
6.6891226149
 30
0.0
 10
15.8469173549
 20
6.6408338282
 30
0.0
  0
SPLINE
  5
800
100
AcDbEntity
  8
02___PRT_ALL_AXES
100
AcDbSpline
 62
7
  6
CONTINUOUS
 70
0
 71
3
 72
9
 73
5
 74
0
 42
0.0000001
 43
0.0000001
 44
0.0000000001
 40
0.0
 40
0.0
 40
0.0
 40
0.0
 40
0.2540190808
 40
1.0
 40
1.0
 40
1.0
 40
1.0
 10
15.8443608227
 20
6.6355530307
 30
0.0
 10
15.8433338478
 20
6.633340183
 30
0.0
 10
15.839470599
 20
6.6245469681
 30
0.0
 10
15.836345963
 20
6.6154262203
 30
0.0
 10
15.8344897235
 20
6.6085066345
 30
0.0
  0
SPLINE
  5
801
100
AcDbEntity
  8
02___PRT_ALL_AXES
100
AcDbSpline
 62
7
  6
CONTINUOUS
 70
0
 71
3
 72
15
 73
11
 74
0
 42
0.0000001
 43
0.0000001
 44
0.0000000001
 40
0.0
 40
0.0
 40
0.0
 40
0.0
 40
0.1230235919
 40
0.2576218017
 40
0.3985822036
 40
0.5397363262
 40
0.6749030873
 40
0.7385870324
 40
0.7989088345
 40
1.0
 40
1.0
 40
1.0
 40
1.0
 10
19.3692419076
 20
8.357448041
 30
0.0
 10
19.3405889408
 20
8.3739904649
 30
0.0
 10
19.2764685109
 20
8.4016551409
 30
0.0
 10
19.1717277149
 20
8.4263536526
 30
0.0
 10
19.0595721788
 20
8.4351321428
 30
0.0
 10
18.9472112713
 20
8.4273732961
 30
0.0
 10
18.8576122785
 20
8.4072054643
 30
0.0
 10
18.7920898186
 20
8.3828398187
 30
0.0
 10
18.7138376616
 20
8.3448169242
 30
0.0
 10
18.6551402458
 20
8.2963830632
 30
0.0
 10
18.6307907298
 20
8.2480942765
 30
0.0
  0
SPLINE
  5
802
100
AcDbEntity
  8
02___PRT_ALL_AXES
100
AcDbSpline
 62
7
  6
CONTINUOUS
 70
0
 71
3
 72
9
 73
5
 74
0
 42
0.0000001
 43
0.0000001
 44
0.0000000001
 40
0.0
 40
0.0
 40
0.0
 40
0.0
 40
0.2540190808
 40
1.0
 40
1.0
 40
1.0
 40
1.0
 10
18.6282341975
 20
8.2428134791
 30
0.0
 10
18.6272072226
 20
8.2406006313
 30
0.0
 10
18.6233439739
 20
8.2318074164
 30
0.0
 10
18.6202193379
 20
8.2226866687
 30
0.0
 10
18.6183630984
 20
8.2157670828
 30
0.0
  0
SPLINE
  5
803
100
AcDbEntity
  8
0
100
AcDbSpline
 62
7
  6
CONTINUOUS
 70
0
 71
3
 72
11
 73
7
 74
0
 42
0.0000001
 43
0.0000001
 44
0.0000000001
 40
0.0
 40
0.0
 40
0.0
 40
0.0
 40
0.2897738312
 40
0.5490663695
 40
0.7822246262
 40
1.0
 40
1.0
 40
1.0
 40
1.0
 10
14.1981862188
 20
6.8827802895
 30
0.0
 10
14.1878184374
 20
6.8887659955
 30
0.0
 10
14.1690109451
 20
6.9017141373
 30
0.0
 10
14.146540637
 20
6.9253385052
 30
0.0
 10
14.1323220161
 20
6.9514638258
 30
0.0
 10
14.1289992523
 20
6.970218823
 30
0.0
 10
14.1289992524
 20
6.9792159188
 30
0.0
  0
SPLINE
  5
804
100
AcDbEntity
  8
02___PRT_ALL_AXES
100
AcDbSpline
 62
7
  6
CONTINUOUS
 70
0
 71
3
 72
11
 73
7
 74
0
 42
0.0000001
 43
0.0000001
 44
0.0000000001
 40
0.0
 40
0.0
 40
0.0
 40
0.0
 40
0.2896486754
 40
0.5491078682
 40
0.7822255078
 40
1.0
 40
1.0
 40
1.0
 40
1.0
 10
18.3183359674
 20
5.6805386026
 30
0.0
 10
18.3183359674
 20
5.6735552886
 30
0.0
 10
18.3193976369
 20
5.6602717028
 30
0.0
 10
18.3247766573
 20
5.6420213343
 30
0.0
 10
18.3338376629
 20
5.6272104402
 30
0.0
 10
18.3423536315
 20
5.6200691787
 30
0.0
 10
18.3469012395
 20
5.6174449549
 30
0.0
  0
SPLINE
  5
805
100
AcDbEntity
  8
02___PRT_ALL_AXES
100
AcDbSpline
 62
7
  6
CONTINUOUS
 70
0
 71
3
 72
11
 73
7
 74
0
 42
0.0000001
 43
0.0000001
 44
0.0000000001
 40
0.0
 40
0.0
 40
0.0
 40
0.0
 40
0.2896486754
 40
0.5491078682
 40
0.7822255078
 40
1.0
 40
1.0
 40
1.0
 40
1.0
 10
18.3183359674
 20
6.1627250694
 30
0.0
 10
18.3183359674
 20
6.1557417554
 30
0.0
 10
18.3193976369
 20
6.1424581696
 30
0.0
 10
18.3247766573
 20
6.1242078011
 30
0.0
 10
18.3338376629
 20
6.109396907
 30
0.0
 10
18.3423536315
 20
6.1022556455
 30
0.0
 10
18.3469012395
 20
6.0996314217
 30
0.0
  0
SPLINE
  5
806
100
AcDbEntity
  8
02___PRT_ALL_AXES
100
AcDbSpline
 62
7
  6
CONTINUOUS
 70
0
 71
3
 72
15
 73
11
 74
0
 42
0.0000001
 43
0.0000001
 44
0.0000000001
 40
0.0
 40
0.0
 40
0.0
 40
0.0
 40
0.1288146432
 40
0.270547471
 40
0.4178571671
 40
0.5623565724
 40
0.6961759474
 40
0.8135777608
 40
0.9130611602
 40
1.0
 40
1.0
 40
1.0
 40
1.0
 10
18.8333525418
 20
6.0903919611
 30
0.0
 10
18.8231544824
 20
6.0845041439
 30
0.0
 10
18.8033581122
 20
6.0692712737
 30
0.0
 10
18.7780192227
 20
6.0404465381
 30
0.0
 10
18.7571595597
 20
6.0065235067
 30
0.0
 10
18.7425060615
 20
5.9702730788
 30
0.0
 10
18.7352249025
 20
5.9345896431
 30
0.0
 10
18.7359842462
 20
5.9021966044
 30
0.0
 10
18.7450644062
 20
5.8753028167
 30
0.0
 10
18.7575498301
 20
5.862538301
 30
0.0
 10
18.7644318359
 20
5.8585631266
 30
0.0
  0
SPLINE
  5
807
100
AcDbEntity
  8
02___PRT_ALL_AXES
100
AcDbSpline
 62
7
  6
CONTINUOUS
 70
0
 71
3
 72
11
 73
7
 74
0
 42
0.0000001
 43
0.0000001
 44
0.0000000001
 40
0.0
 40
0.0
 40
0.0
 40
0.0
 40
0.2896486754
 40
0.5491078682
 40
0.7822255078
 40
1.0
 40
1.0
 40
1.0
 40
1.0
 10
18.3183359674
 20
4.8447487268
 30
0.0
 10
18.3183359674
 20
4.8377654128
 30
0.0
 10
18.3193976369
 20
4.824481827
 30
0.0
 10
18.3247766573
 20
4.8062314585
 30
0.0
 10
18.3338376629
 20
4.7914205644
 30
0.0
 10
18.3423536315
 20
4.7842793029
 30
0.0
 10
18.3469012395
 20
4.7816550791
 30
0.0
  0
SPLINE
  5
808
100
AcDbEntity
  8
02___PRT_ALL_AXES
100
AcDbSpline
 62
7
  6
CONTINUOUS
 70
0
 71
3
 72
15
 73
11
 74
0
 42
0.0000001
 43
0.0000001
 44
0.0000000001
 40
0.0
 40
0.0
 40
0.0
 40
0.0
 40
0.1288146432
 40
0.270547471
 40
0.4178571671
 40
0.5623565724
 40
0.6961759474
 40
0.8135777608
 40
0.9130611602
 40
1.0
 40
1.0
 40
1.0
 40
1.0
 10
17.6919644581
 20
5.4314151773
 30
0.0
 10
17.6817663987
 20
5.4255273601
 30
0.0
 10
17.6619700285
 20
5.4102944898
 30
0.0
 10
17.6366311391
 20
5.3814697543
 30
0.0
 10
17.615771476
 20
5.3475467229
 30
0.0
 10
17.6011179778
 20
5.311296295
 30
0.0
 10
17.5938368188
 20
5.2756128593
 30
0.0
 10
17.5945961625
 20
5.2432198206
 30
0.0
 10
17.6036763225
 20
5.2163260329
 30
0.0
 10
17.6161617464
 20
5.2035615172
 30
0.0
 10
17.6230437522
 20
5.1995863428
 30
0.0
  0
SPLINE
  5
809
100
AcDbEntity
  8
02___PRT_ALL_AXES
100
AcDbSpline
 62
7
  6
CONTINUOUS
 70
0
 71
3
 72
13
 73
9
 74
0
 42
0.0000001
 43
0.0000001
 44
0.0000000001
 40
0.0
 40
0.0
 40
0.0
 40
0.0
 40
0.3063250373
 40
0.5827877334
 40
0.7036963428
 40
0.8118597175
 40
0.9091452573
 40
1.0
 40
1.0
 40
1.0
 40
1.0
 10
18.6252615221
 20
6.2587554491
 30
0.0
 10
18.6164141868
 20
6.2434313298
 30
0.0
 10
18.6027134909
 20
6.2123557678
 30
0.0
 10
18.5954663822
 20
6.1717360432
 30
0.0
 10
18.597777746
 20
6.142464747
 30
0.0
 10
18.6031618112
 20
6.1242174834
 30
0.0
 10
18.6122102938
 20
6.1094145025
 30
0.0
 10
18.6207185094
 20
6.1022676292
 30
0.0
 10
18.6252635996
 20
6.09964358
 30
0.0
  0
SPLINE
  5
80A
100
AcDbEntity
  8
02___PRT_ALL_AXES
100
AcDbSpline
 62
7
  6
CONTINUOUS
 70
0
 71
3
 72
13
 73
9
 74
0
 42
0.0000001
 43
0.0000001
 44
0.0000000001
 40
0.0
 40
0.0
 40
0.0
 40
0.0
 40
0.3063250373
 40
0.5827877334
 40
0.7036963428
 40
0.8118597175
 40
0.9091452573
 40
1.0
 40
1.0
 40
1.0
 40
1.0
 10
17.7900995096
 20
4.812204381
 30
0.0
 10
17.7812521744
 20
4.7968802617
 30
0.0
 10
17.7675514784
 20
4.7658046997
 30
0.0
 10
17.7603043698
 20
4.7251849751
 30
0.0
 10
17.7626157335
 20
4.6959136789
 30
0.0
 10
17.7679997988
 20
4.6776664153
 30
0.0
 10
17.7770482813
 20
4.6628634344
 30
0.0
 10
17.7855564969
 20
4.6557165611
 30
0.0
 10
17.7901015871
 20
4.6530925119
 30
0.0
  0
SPLINE
  5
80B
100
AcDbEntity
  8
02___PRT_ALL_AXES
100
AcDbSpline
 62
7
  6
CONTINUOUS
 70
0
 71
3
 72
13
 73
9
 74
0
 42
0.0000001
 43
0.0000001
 44
0.0000000001
 40
0.0
 40
0.0
 40
0.0
 40
0.0
 40
0.2991636409
 40
0.5814125812
 40
0.7056752936
 40
0.8154457168
 40
0.9118808268
 40
1.0
 40
1.0
 40
1.0
 40
1.0
 10
16.4274837087
 20
4.043903253
 30
0.0
 10
16.4142640772
 20
4.0276467101
 30
0.0
 10
16.3928697766
 20
3.9924158463
 30
0.0
 10
16.3785020071
 20
3.9442995127
 30
0.0
 10
16.3774376613
 20
3.9079454146
 30
0.0
 10
16.3817867775
 20
3.8849736578
 30
0.0
 10
16.3912540398
 20
3.8662720044
 30
0.0
 10
16.4011651028
 20
3.8573743172
 30
0.0
 10
16.406509817
 20
3.854288069
 30
0.0
  0
SPLINE
  5
80C
100
AcDbEntity
  8
02___PRT_ALL_AXES
100
AcDbSpline
 62
7
  6
CONTINUOUS
 70
0
 71
3
 72
18
 73
14
 74
0
 42
0.0000001
 43
0.0000001
 44
0.0000000001
 40
0.0
 40
0.0
 40
0.0
 40
0.0
 40
0.1027407282
 40
0.1627650865
 40
0.2282699729
 40
0.3718140555
 40
0.5232260619
 40
0.6698118152
 40
0.8001938862
 40
0.8572924696
 40
0.9088121252
 40
0.9557220926
 40
1.0
 40
1.0
 40
1.0
 40
1.0
 10
16.5233398779
 20
5.3850760859
 30
0.0
 10
16.512255996
 20
5.385907751
 30
0.0
 10
16.4942968718
 20
5.381977328
 30
0.0
 10
16.4723247397
 20
5.3707101844
 30
0.0
 10
16.4485741221
 20
5.3536752849
 30
0.0
 10
16.4216385004
 20
5.3249703888
 30
0.0
 10
16.3965904767
 20
5.2839254801
 30
0.0
 10
16.3807756765
 20
5.2400313206
 30
0.0
 10
16.3766261384
 20
5.2035891596
 30
0.0
 10
16.3802064303
 20
5.1778447
 30
0.0
 10
16.3858774826
 20
5.1618505963
 30
0.0
 10
16.3945596285
 20
5.1488633084
 30
0.0
 10
16.4023530445
 20
5.1425148596
 30
0.0
 10
16.4065021546
 20
5.1401208894
 30
0.0
  0
SPLINE
  5
80D
100
AcDbEntity
  8
02___PRT_ALL_AXES
100
AcDbSpline
 62
7
  6
CONTINUOUS
 70
0
 71
3
 72
15
 73
11
 74
0
 42
0.0000001
 43
0.0000001
 44
0.0000000001
 40
0.0
 40
0.0
 40
0.0
 40
0.0
 40
0.1288146432
 40
0.270547471
 40
0.4178571671
 40
0.5623565724
 40
0.6961759474
 40
0.8135777608
 40
0.9130611602
 40
1.0
 40
1.0
 40
1.0
 40
1.0
 10
16.5004666537
 20
4.7435077054
 30
0.0
 10
16.4902685943
 20
4.7376198882
 30
0.0
 10
16.470472224
 20
4.722387018
 30
0.0
 10
16.4451333346
 20
4.6935622824
 30
0.0
 10
16.4242736716
 20
4.659639251
 30
0.0
 10
16.4096201734
 20
4.6233888231
 30
0.0
 10
16.4023390144
 20
4.5877053874
 30
0.0
 10
16.4030983581
 20
4.5553123487
 30
0.0
 10
16.412178518
 20
4.528418561
 30
0.0
 10
16.424663942
 20
4.5156540453
 30
0.0
 10
16.4315459477
 20
4.5116788709
 30
0.0
  0
SPLINE
  5
80E
100
AcDbEntity
  8
02___PRT_ALL_AXES
100
AcDbSpline
 62
7
  6
CONTINUOUS
 70
0
 71
3
 72
13
 73
9
 74
0
 42
0.0000001
 43
0.0000001
 44
0.0000000001
 40
0.0
 40
0.0
 40
0.0
 40
0.0
 40
0.306989769
 40
0.577334219
 40
0.6963088874
 40
0.8047241244
 40
0.9047322508
 40
1.0
 40
1.0
 40
1.0
 40
1.0
 10
20.3082031932
 20
7.5702548961
 30
0.0
 10
20.3170099538
 20
7.5810848107
 30
0.0
 10
20.3355053497
 20
7.5999812147
 30
0.0
 10
20.362576755
 20
7.6172393432
 30
0.0
 10
20.3841575613
 20
7.6244251608
 30
0.0
 10
20.3990405683
 20
7.6263100144
 30
0.0
 10
20.412910613
 20
7.6248139576
 30
0.0
 10
20.4212819548
 20
7.6214635153
 30
0.0
 10
20.4250332541
 20
7.6192973675
 30
0.0
  0
SPLINE
  5
80F
100
AcDbEntity
  8
02___PRT_ALL_AXES
100
AcDbSpline
 62
7
  6
CONTINUOUS
 70
0
 71
3
 72
11
 73
7
 74
0
 42
0.0000001
 43
0.0000001
 44
0.0000000001
 40
0.0
 40
0.0
 40
0.0
 40
0.0
 40
0.2896471905
 40
0.5491058587
 40
0.7822240995
 40
1.0
 40
1.0
 40
1.0
 40
1.0
 10
20.3310764175
 20
6.9550980823
 30
0.0
 10
20.337123883
 20
6.9585895673
 30
0.0
 10
20.3491581308
 20
6.9643116527
 30
0.0
 10
20.3676521541
 20
6.9687782789
 30
0.0
 10
20.3850086068
 20
6.9683367566
 30
0.0
 10
20.3954507742
 20
6.9645326214
 30
0.0
 10
20.3999971234
 20
6.9619065657
 30
0.0
  0
SPLINE
  5
810
100
AcDbEntity
  8
0
100
AcDbSpline
 62
7
  6
CONTINUOUS
 70
0
 71
3
 72
11
 73
7
 74
0
 42
0.0000001
 43
0.0000001
 44
0.0000000001
 40
0.0
 40
0.0
 40
0.0
 40
0.0
 40
0.2372238705
 40
0.499998382
 40
0.7627737741
 40
1.0
 40
1.0
 40
1.0
 40
1.0
 10
20.4062409986
 20
5.6001533607
 30
0.0
 10
20.4299534123
 20
5.6138436474
 30
0.0
 10
20.4748298815
 20
5.6516111592
 30
0.0
 10
20.5272057281
 20
5.7231871062
 30
0.0
 10
20.5630040796
 20
5.8043343303
 30
0.0
 10
20.5732734011
 20
5.8620826064
 30
0.0
 10
20.5732734011
 20
5.8894635743
 30
0.0
  0
SPLINE
  5
811
100
AcDbEntity
  8
0
100
AcDbSpline
 62
7
  6
CONTINUOUS
 70
0
 71
3
 72
11
 73
7
 74
0
 42
0.0000001
 43
0.0000001
 44
0.0000000001
 40
0.0
 40
0.0
 40
0.0
 40
0.0
 40
0.2897733506
 40
0.549065716
 40
0.7822241653
 40
1.0
 40
1.0
 40
1.0
 40
1.0
 10
14.198184828
 20
7.1592297279
 30
0.0
 10
14.1878172409
 20
7.1532440345
 30
0.0
 10
14.1690101062
 20
7.1402959427
 30
0.0
 10
14.146540255
 20
7.1166717512
 30
0.0
 10
14.1323219415
 20
7.090546685
 30
0.0
 10
14.1289992526
 20
7.0717919051
 30
0.0
 10
14.1289992524
 20
7.0627949064
 30
0.0
  0
SPLINE
  5
812
100
AcDbEntity
  8
0
100
AcDbSpline
 62
7
  6
CONTINUOUS
 70
0
 71
3
 72
11
 73
7
 74
0
 42
0.0000001
 43
0.0000001
 44
0.0000000001
 40
0.0
 40
0.0
 40
0.0
 40
0.0
 40
0.2372251801
 40
0.5000005261
 40
0.7627755858
 40
1.0
 40
1.0
 40
1.0
 40
1.0
 10
18.5131899499
 20
9.457612972
 30
0.0
 10
18.4894773345
 20
9.4713031472
 30
0.0
 10
18.4343311963
 20
9.4912831734
 30
0.0
 10
18.3461565893
 20
9.5008538779
 30
0.0
 10
18.2579821154
 20
9.491282771
 30
0.0
 10
18.2028361941
 20
9.471302471
 30
0.0
 10
18.179123754
 20
9.457612169
 30
0.0
  0
SPLINE
  5
813
100
AcDbEntity
  8
02___PRT_ALL_AXES
100
AcDbSpline
 62
7
  6
CONTINUOUS
 70
0
 71
3
 72
17
 73
13
 74
0
 42
0.0000001
 43
0.0000001
 44
0.0000000001
 40
0.0
 40
0.0
 40
0.0
 40
0.0
 40
0.128685047
 40
0.2702672973
 40
0.4174208637
 40
0.5617667141
 40
0.6954396547
 40
0.8127074199
 40
0.8646749224
 40
0.9125107888
 40
0.9571407171
 40
1.0
 40
1.0
 40
1.0
 40
1.0
 10
17.3509337109
 20
7.2757632036
 30
0.0
 10
17.3837176797
 20
7.2568357985
 30
0.0
 10
17.4579447666
 20
7.2262102854
 30
0.0
 10
17.5789199743
 20
7.2020021985
 30
0.0
 10
17.7068768322
 20
7.1984574268
 30
0.0
 10
17.8313711598
 20
7.2159467831
 30
0.0
 10
17.9423133733
 20
7.2529929109
 30
0.0
 10
18.0194709041
 20
7.2999580827
 30
0.0
 10
18.0647624885
 20
7.3453927687
 30
0.0
 10
18.0888212776
 20
7.3807725713
 30
0.0
 10
18.1036485275
 20
7.4180899169
 30
0.0
 10
18.1070300409
 20
7.4439352233
 30
0.0
 10
18.1070317838
 20
7.4565431957
 30
0.0
  0
SPLINE
  5
814
100
AcDbEntity
  8
02___PRT_ALL_AXES
100
AcDbSpline
 62
7
  6
CONTINUOUS
 70
0
 71
3
 72
17
 73
13
 74
0
 42
0.0000001
 43
0.0000001
 44
0.0000000001
 40
0.0
 40
0.0
 40
0.0
 40
0.0
 40
0.128685047
 40
0.2702672973
 40
0.4174208637
 40
0.5617667141
 40
0.6954396547
 40
0.8127074199
 40
0.8646749224
 40
0.9125107888
 40
0.9571407171
 40
1.0
 40
1.0
 40
1.0
 40
1.0
 10
15.9589970234
 20
6.4721329794
 30
0.0
 10
15.9917809922
 20
6.4532055744
 30
0.0
 10
16.0660080792
 20
6.4225800613
 30
0.0
 10
16.1869832869
 20
6.3983719743
 30
0.0
 10
16.3149401448
 20
6.3948272027
 30
0.0
 10
16.4394344723
 20
6.412316559
 30
0.0
 10
16.5503766859
 20
6.4493626868
 30
0.0
 10
16.6275342167
 20
6.4963278586
 30
0.0
 10
16.6728258011
 20
6.5417625445
 30
0.0
 10
16.6968845902
 20
6.5771423472
 30
0.0
 10
16.7117118401
 20
6.6144596927
 30
0.0
 10
16.7150933535
 20
6.6403049992
 30
0.0
 10
16.7150950963
 20
6.6529129716
 30
0.0
  0
SPLINE
  5
815
100
AcDbEntity
  8
02___PRT_ALL_AXES
100
AcDbSpline
 62
7
  6
CONTINUOUS
 70
0
 71
3
 72
17
 73
13
 74
0
 42
0.0000001
 43
0.0000001
 44
0.0000000001
 40
0.0
 40
0.0
 40
0.0
 40
0.0
 40
0.128685047
 40
0.2702672973
 40
0.4174208637
 40
0.5617667141
 40
0.6954396547
 40
0.8127074199
 40
0.8646749224
 40
0.9125107888
 40
0.9571407171
 40
1.0
 40
1.0
 40
1.0
 40
1.0
 10
18.7428703983
 20
8.0793934277
 30
0.0
 10
18.7756543671
 20
8.0604660227
 30
0.0
 10
18.8498814541
 20
8.0298405096
 30
0.0
 10
18.9708566617
 20
8.0056324227
 30
0.0
 10
19.0988135197
 20
8.002087651
 30
0.0
 10
19.2233078472
 20
8.0195770073
 30
0.0
 10
19.3342500608
 20
8.0566231351
 30
0.0
 10
19.4114075915
 20
8.1035883069
 30
0.0
 10
19.4566991759
 20
8.1490229929
 30
0.0
 10
19.4807579651
 20
8.1844027955
 30
0.0
 10
19.4955852149
 20
8.221720141
 30
0.0
 10
19.4989667283
 20
8.2475654475
 30
0.0
 10
19.4989684712
 20
8.2601734199
 30
0.0
  0
SPLINE
  5
816
100
AcDbEntity
  8
0
100
AcDbSpline
 62
7
  6
CONTINUOUS
 70
0
 71
3
 72
11
 73
7
 74
0
 42
0.0000001
 43
0.0000001
 44
0.0000000001
 40
0.0
 40
0.0
 40
0.0
 40
0.0
 40
0.2372243744
 40
0.4999989081
 40
0.7627740361
 40
1.0
 40
1.0
 40
1.0
 40
1.0
 10
20.3839684353
 20
8.3775429443
 30
0.0
 10
20.4108426885
 20
8.362027438
 30
0.0
 10
20.461703085
 20
8.3192245551
 30
0.0
 10
20.5210629104
 20
8.2381054075
 30
0.0
 10
20.5616347409
 20
8.1461387095
 30
0.0
 10
20.5732734011
 20
8.0806906926
 30
0.0
 10
20.5732734011
 20
8.0496589456
 30
0.0
  0
SPLINE
  5
817
100
AcDbEntity
  8
02___PRT_ALL_AXES
100
AcDbSpline
 62
7
  6
CONTINUOUS
 70
0
 71
3
 72
11
 73
7
 74
0
 42
0.0000001
 43
0.0000001
 44
0.0000000001
 40
0.0
 40
0.0
 40
0.0
 40
0.0
 40
0.2177733076
 40
0.4509400886
 40
0.7102048645
 40
1.0
 40
1.0
 40
1.0
 40
1.0
 10
18.6131438347
 20
8.2602470364
 30
0.0
 10
18.6131415024
 20
8.2433749136
 30
0.0
 10
18.619359251
 20
8.2082005458
 30
0.0
 10
18.6460230667
 20
8.1592078196
 30
0.0
 10
18.6881554543
 20
8.1148996205
 30
0.0
 10
18.7234262349
 20
8.0906192667
 30
0.0
 10
18.7428703983
 20
8.0793934277
 30
0.0
  0
SPLINE
  5
818
100
AcDbEntity
  8
02___PRT_ALL_AXES
100
AcDbSpline
 62
7
  6
CONTINUOUS
 70
0
 71
3
 72
11
 73
7
 74
0
 42
0.0000001
 43
0.0000001
 44
0.0000000001
 40
0.0
 40
0.0
 40
0.0
 40
0.0
 40
0.2177733076
 40
0.4509400886
 40
0.7102048645
 40
1.0
 40
1.0
 40
1.0
 40
1.0
 10
15.8292704599
 20
6.6529865881
 30
0.0
 10
15.8292681276
 20
6.6361144653
 30
0.0
 10
15.8354858761
 20
6.6009400975
 30
0.0
 10
15.8621496919
 20
6.5519473713
 30
0.0
 10
15.9042820794
 20
6.5076391722
 30
0.0
 10
15.93955286
 20
6.4833588184
 30
0.0
 10
15.9589970234
 20
6.4721329794
 30
0.0
  0
SPLINE
  5
819
100
AcDbEntity
  8
02___PRT_ALL_AXES
100
AcDbSpline
 62
7
  6
CONTINUOUS
 70
0
 71
3
 72
11
 73
7
 74
0
 42
0.0000001
 43
0.0000001
 44
0.0000000001
 40
0.0
 40
0.0
 40
0.0
 40
0.0
 40
0.2177733076
 40
0.4509400886
 40
0.7102048645
 40
1.0
 40
1.0
 40
1.0
 40
1.0
 10
17.2212071473
 20
7.4566168122
 30
0.0
 10
17.221204815
 20
7.4397446895
 30
0.0
 10
17.2274225636
 20
7.4045703216
 30
0.0
 10
17.2540863793
 20
7.3555775954
 30
0.0
 10
17.2962187669
 20
7.3112693964
 30
0.0
 10
17.3314895474
 20
7.2869890426
 30
0.0
 10
17.3509337109
 20
7.2757632036
 30
0.0
  0
SPLINE
  5
81A
100
AcDbEntity
  8
0
100
AcDbSpline
 62
7
  6
CONTINUOUS
 70
0
 71
3
 72
11
 73
7
 74
0
 42
0.0000001
 43
0.0000001
 44
0.0000000001
 40
0.0
 40
0.0
 40
0.0
 40
0.0
 40
0.2177775993
 40
0.4509368681
 40
0.7102286445
 40
1.0
 40
1.0
 40
1.0
 40
1.0
 10
16.3071943984
 20
3.2900723713
 30
0.0
 10
16.3149861157
 20
3.2855739236
 30
0.0
 10
16.3328896415
 20
3.2790741345
 30
0.0
 10
16.3626237614
 20
3.2783249241
 30
0.0
 10
16.3943177291
 20
3.2859720639
 30
0.0
 10
16.414934583
 20
3.2957852824
 30
0.0
 10
16.4253020725
 20
3.3017709196
 30
0.0
  0
SPLINE
  5
81B
100
AcDbEntity
  8
02___PRT_ALL_AXES
100
AcDbSpline
 62
7
  6
CONTINUOUS
 70
0
 71
3
 72
15
 73
11
 74
0
 42
0.0000001
 43
0.0000001
 44
0.0000000001
 40
0.0
 40
0.0
 40
0.0
 40
0.0
 40
0.0869388398
 40
0.1864222392
 40
0.3038240526
 40
0.4376434276
 40
0.5821428329
 40
0.729452529
 40
0.8711853568
 40
1.0
 40
1.0
 40
1.0
 40
1.0
 10
19.7610585041
 20
6.4339623671
 30
0.0
 10
19.7541764983
 20
6.4379375415
 30
0.0
 10
19.7416910744
 20
6.4507020572
 30
0.0
 10
19.7326109144
 20
6.4775958449
 30
0.0
 10
19.7318515707
 20
6.5099888836
 30
0.0
 10
19.7391327297
 20
6.5456723193
 30
0.0
 10
19.7537862279
 20
6.5819227472
 30
0.0
 10
19.7746458909
 20
6.6158457786
 30
0.0
 10
19.7999847804
 20
6.6446705141
 30
0.0
 10
19.8197811506
 20
6.6599033844
 30
0.0
 10
19.82997921
 20
6.6657912016
 30
0.0
  0
SPLINE
  5
81C
100
AcDbEntity
  8
02___PRT_ALL_AXES
100
AcDbSpline
 62
7
  6
CONTINUOUS
 70
0
 71
3
 72
13
 73
9
 74
0
 42
0.0000001
 43
0.0000001
 44
0.0000000001
 40
0.0
 40
0.0
 40
0.0
 40
0.0
 40
0.0881191732
 40
0.1845542832
 40
0.2943247064
 40
0.4185874188
 40
0.7008363591
 40
1.0
 40
1.0
 40
1.0
 40
1.0
 10
19.7944837142
 20
6.7746969682
 30
0.0
 10
19.789139
 20
6.7777832164
 30
0.0
 10
19.779227937
 20
6.7866809036
 30
0.0
 10
19.7697606747
 20
6.805382557
 30
0.0
 10
19.7654115585
 20
6.8283543138
 30
0.0
 10
19.7664759043
 20
6.8647084119
 30
0.0
 10
19.7808436738
 20
6.9128247455
 30
0.0
 10
19.8022379744
 20
6.9480556093
 30
0.0
 10
19.8154576059
 20
6.9643121522
 30
0.0
  0
SPLINE
  5
81D
100
AcDbEntity
  8
02___PRT_ALL_AXES
100
AcDbSpline
 62
7
  6
CONTINUOUS
 70
0
 71
3
 72
18
 73
14
 74
0
 42
0.0000001
 43
0.0000001
 44
0.0000000001
 40
0.0
 40
0.0
 40
0.0
 40
0.0
 40
0.0442779074
 40
0.0911878748
 40
0.1427075304
 40
0.1998061138
 40
0.3301881848
 40
0.4767739381
 40
0.6281859445
 40
0.7717300271
 40
0.8372349135
 40
0.8972592718
 40
1.0
 40
1.0
 40
1.0
 40
1.0
 10
19.7944760518
 20
6.1317839214
 30
0.0
 10
19.7903269417
 20
6.1341778916
 30
0.0
 10
19.7825335257
 20
6.1405263404
 30
0.0
 10
19.7738513798
 20
6.1535136283
 30
0.0
 10
19.7681803275
 20
6.169507732
 30
0.0
 10
19.7646000356
 20
6.1952521916
 30
0.0
 10
19.7687495737
 20
6.2316943526
 30
0.0
 10
19.7845643739
 20
6.275588512
 30
0.0
 10
19.8096123976
 20
6.3166334208
 30
0.0
 10
19.8365480193
 20
6.3453383169
 30
0.0
 10
19.8602986369
 20
6.3623732164
 30
0.0
 10
19.882270769
 20
6.3736403599
 30
0.0
 10
19.9002298932
 20
6.377570783
 30
0.0
 10
19.9113137751
 20
6.3767391179
 30
0.0
  0
SPLINE
  5
81E
100
AcDbEntity
  8
02___PRT_ALL_AXES
100
AcDbSpline
 62
7
  6
CONTINUOUS
 70
0
 71
3
 72
11
 73
7
 74
0
 42
0.0000001
 43
0.0000001
 44
0.0000000001
 40
0.0
 40
0.0
 40
0.0
 40
0.0
 40
0.2177759005
 40
0.4508941413
 40
0.7103528095
 40
1.0
 40
1.0
 40
1.0
 40
1.0
 10
17.0704845671
 20
5.0396230695
 30
0.0
 10
17.0659382179
 20
5.0422491253
 30
0.0
 10
17.0554960505
 20
5.0460532604
 30
0.0
 10
17.0381395977
 20
5.0464947828
 30
0.0
 10
17.0196455745
 20
5.0420281565
 30
0.0
 10
17.0076113267
 20
5.0363060712
 30
0.0
 10
17.0015638611
 20
5.0328145861
 30
0.0
  0
SPLINE
  5
81F
100
AcDbEntity
  8
02___PRT_ALL_AXES
100
AcDbSpline
 62
7
  6
CONTINUOUS
 70
0
 71
3
 72
13
 73
9
 74
0
 42
0.0000001
 43
0.0000001
 44
0.0000000001
 40
0.0
 40
0.0
 40
0.0
 40
0.0
 40
0.0952677492
 40
0.1952758756
 40
0.3036911126
 40
0.422665781
 40
0.693010231
 40
1.0
 40
1.0
 40
1.0
 40
1.0
 10
17.0370593569
 20
4.6988884683
 30
0.0
 10
17.0333080576
 20
4.7010546161
 30
0.0
 10
17.0249367158
 20
4.7044050584
 30
0.0
 10
17.0110666711
 20
4.7059011152
 30
0.0
 10
16.9961836641
 20
4.7040162615
 30
0.0
 10
16.9746028578
 20
4.696830444
 30
0.0
 10
16.9475314525
 20
4.6795723155
 30
0.0
 10
16.9290360566
 20
4.6606759115
 30
0.0
 10
16.920229296
 20
4.6498459969
 30
0.0
  0
SPLINE
  5
820
100
AcDbEntity
  8
02___PRT_ALL_AXES
100
AcDbSpline
 62
7
  6
CONTINUOUS
 70
0
 71
3
 72
13
 73
9
 74
0
 42
0.0000001
 43
0.0000001
 44
0.0000000001
 40
0.0
 40
0.0
 40
0.0
 40
0.0
 40
0.0908550786
 40
0.1881407877
 40
0.2963041031
 40
0.4172124653
 40
0.6936745932
 40
1.0
 40
1.0
 40
1.0
 40
1.0
 10
18.2062794716
 20
5.3739418566
 30
0.0
 10
18.201734457
 20
5.3765658621
 30
0.0
 10
18.1912911022
 20
5.3803605086
 30
0.0
 10
18.1739474307
 20
5.3807950182
 30
0.0
 10
18.1554532339
 20
5.3763340341
 30
0.0
 10
18.1289485634
 20
5.3637001313
 30
0.0
 10
18.0973952842
 20
5.3371143933
 30
0.0
 10
18.0773340132
 20
5.3097118965
 30
0.0
 10
18.0684868471
 20
5.2943880703
 30
0.0
  0
SPLINE
  5
821
100
AcDbEntity
  8
02___PRT_ALL_AXES
100
AcDbSpline
 62
7
  6
CONTINUOUS
 70
0
 71
3
 72
19
 73
15
 74
0
 42
0.0000001
 43
0.0000001
 44
0.0000000001
 40
0.0
 40
0.0
 40
0.0
 40
0.0
 40
0.0454063465
 40
0.0940778307
 40
0.1481483729
 40
0.2086040309
 40
0.3468514753
 40
0.4999989529
 40
0.6531466795
 40
0.7913947893
 40
0.8518508552
 40
0.9059217846
 40
0.9545935591
 40
1.0
 40
1.0
 40
1.0
 40
1.0
 10
18.7630553186
 20
5.6953960161
 30
0.0
 10
18.7585124035
 20
5.6980188046
 30
0.0
 10
18.7480656358
 20
5.7018050883
 30
0.0
 10
18.7307236395
 20
5.7022503662
 30
0.0
 10
18.7122264015
 20
5.6977865455
 30
0.0
 10
18.6857229878
 20
5.6851521247
 30
0.0
 10
18.6541619968
 20
5.6585538983
 30
0.0
 10
18.6235915349
 20
5.6168032312
 30
0.0
 10
18.6027201931
 20
5.569452767
 30
0.0
 10
18.5954663798
 20
5.5288208126
 30
0.0
 10
18.5977766007
 20
5.4995508264
 30
0.0
 10
18.6031595612
 20
5.4812997475
 30
0.0
 10
18.6122162415
 20
5.4665037164
 30
0.0
 10
18.6207186581
 20
5.4593496425
 30
0.0
 10
18.6252615221
 20
5.4567267438
 30
0.0
  0
SPLINE
  5
822
100
AcDbEntity
  8
02___PRT_ALL_AXES
100
AcDbSpline
 62
7
  6
CONTINUOUS
 70
0
 71
3
 72
13
 73
9
 74
0
 42
0.0000001
 43
0.0000001
 44
0.0000000001
 40
0.0
 40
0.0
 40
0.0
 40
0.0
 40
0.0908550786
 40
0.1881407877
 40
0.2963041031
 40
0.4172124653
 40
0.6936745932
 40
1.0
 40
1.0
 40
1.0
 40
1.0
 10
19.041441484
 20
6.8204929247
 30
0.0
 10
19.0368964695
 20
6.8231169302
 30
0.0
 10
19.0264531146
 20
6.8269115767
 30
0.0
 10
19.0091094432
 20
6.8273460863
 30
0.0
 10
18.9906152464
 20
6.8228851022
 30
0.0
 10
18.9641105759
 20
6.8102511995
 30
0.0
 10
18.9325572967
 20
6.7836654614
 30
0.0
 10
18.9124960256
 20
6.7562629646
 30
0.0
 10
18.9036488596
 20
6.7409391385
 30
0.0
  0
SPLINE
  5
823
100
AcDbEntity
  8
02___PRT_ALL_AXES
100
AcDbSpline
 62
7
  6
CONTINUOUS
 70
0
 71
3
 72
19
 73
15
 74
0
 42
0.0000001
 43
0.0000001
 44
0.0000000001
 40
0.0
 40
0.0
 40
0.0
 40
0.0
 40
0.0454063465
 40
0.0940778307
 40
0.1481483729
 40
0.2086040309
 40
0.3468514753
 40
0.4999989529
 40
0.6531466795
 40
0.7913947893
 40
0.8518508552
 40
0.9059217846
 40
0.9545935591
 40
1.0
 40
1.0
 40
1.0
 40
1.0
 10
17.9278933061
 20
6.1775908152
 30
0.0
 10
17.923350391
 20
6.1802136037
 30
0.0
 10
17.9129036234
 20
6.1839998874
 30
0.0
 10
17.8955616271
 20
6.1844451653
 30
0.0
 10
17.8770643891
 20
6.1799813446
 30
0.0
 10
17.8505609753
 20
6.1673469238
 30
0.0
 10
17.8189999844
 20
6.1407486974
 30
0.0
 10
17.7884295224
 20
6.0989980303
 30
0.0
 10
17.7675581807
 20
6.0516475661
 30
0.0
 10
17.7603043674
 20
6.0110156117
 30
0.0
 10
17.7626145883
 20
5.9817456255
 30
0.0
 10
17.7679975488
 20
5.9634945466
 30
0.0
 10
17.7770542291
 20
5.9486985155
 30
0.0
 10
17.7855566457
 20
5.9415444416
 30
0.0
 10
17.7900995096
 20
5.9389215429
 30
0.0
  0
SPLINE
  5
824
100
AcDbEntity
  8
02___PRT_ALL_AXES
100
AcDbSpline
 62
7
  6
CONTINUOUS
 70
0
 71
3
 72
11
 73
7
 74
0
 42
0.0000001
 43
0.0000001
 44
0.0000000001
 40
0.0
 40
0.0
 40
0.0
 40
0.0
 40
0.2177759005
 40
0.4508941413
 40
0.7103528095
 40
1.0
 40
1.0
 40
1.0
 40
1.0
 10
18.0671112353
 20
5.61502231
 30
0.0
 10
18.0625648861
 20
5.6176483658
 30
0.0
 10
18.0521227187
 20
5.6214525009
 30
0.0
 10
18.0347662659
 20
5.6218940233
 30
0.0
 10
18.0162722427
 20
5.617427397
 30
0.0
 10
18.0042379949
 20
5.6117053117
 30
0.0
 10
17.9981905293
 20
5.6082138266
 30
0.0
  0
SPLINE
  5
825
100
AcDbEntity
  8
02___PRT_ALL_AXES
100
AcDbSpline
 62
7
  6
CONTINUOUS
 70
0
 71
3
 72
15
 73
11
 74
0
 42
0.0000001
 43
0.0000001
 44
0.0000000001
 40
0.0
 40
0.0
 40
0.0
 40
0.0
 40
0.0869387686
 40
0.1864218618
 40
0.3038231408
 40
0.4376419312
 40
0.5821409417
 40
0.7294506659
 40
0.8711841152
 40
1.0
 40
1.0
 40
1.0
 40
1.0
 10
18.4846418316
 20
5.3739540149
 30
0.0
 10
18.4777582262
 20
5.3779262398
 30
0.0
 10
18.4604612769
 20
5.3823563328
 30
0.0
 10
18.4326309451
 20
5.3767728072
 30
0.0
 10
18.4041986814
 20
5.3612337756
 30
0.0
 10
18.3769371743
 20
5.337086412
 30
0.0
 10
18.3528707808
 20
5.3062710203
 30
0.0
 10
18.3339229342
 20
5.2712446713
 30
0.0
 10
18.321629761
 20
5.2348883133
 30
0.0
 10
18.3183359674
 20
5.2101278136
 30
0.0
 10
18.3183359674
 20
5.1983521358
 30
0.0
  0
SPLINE
  5
826
100
AcDbEntity
  8
02___PRT_ALL_AXES
100
AcDbSpline
 62
7
  6
CONTINUOUS
 70
0
 71
3
 72
11
 73
7
 74
0
 42
0.0000001
 43
0.0000001
 44
0.0000000001
 40
0.0
 40
0.0
 40
0.0
 40
0.0
 40
0.2177759005
 40
0.4508941413
 40
0.7103528095
 40
1.0
 40
1.0
 40
1.0
 40
1.0
 10
19.208499319
 20
6.2739990938
 30
0.0
 10
19.2039529697
 20
6.2766251496
 30
0.0
 10
19.1935108024
 20
6.2804292847
 30
0.0
 10
19.1761543496
 20
6.2808708071
 30
0.0
 10
19.1576603264
 20
6.2764041808
 30
0.0
 10
19.1456260786
 20
6.2706820955
 30
0.0
 10
19.139578613
 20
6.2671906104
 30
0.0
  0
SPLINE
  5
827
100
AcDbEntity
  8
02___PRT_ALL_AXES
100
AcDbSpline
 62
7
  6
CONTINUOUS
 70
0
 71
3
 72
15
 73
11
 74
0
 42
0.0000001
 43
0.0000001
 44
0.0000000001
 40
0.0
 40
0.0
 40
0.0
 40
0.0
 40
0.0869387686
 40
0.1864218618
 40
0.3038231408
 40
0.4376419312
 40
0.5821409417
 40
0.7294506659
 40
0.8711841152
 40
1.0
 40
1.0
 40
1.0
 40
1.0
 10
18.4846418316
 20
6.6919303575
 30
0.0
 10
18.4777582262
 20
6.6959025824
 30
0.0
 10
18.4604612769
 20
6.7003326754
 30
0.0
 10
18.4326309451
 20
6.6947491498
 30
0.0
 10
18.4041986814
 20
6.6792101182
 30
0.0
 10
18.3769371743
 20
6.6550627546
 30
0.0
 10
18.3528707808
 20
6.6242473629
 30
0.0
 10
18.3339229342
 20
6.5892210139
 30
0.0
 10
18.321629761
 20
6.5528646559
 30
0.0
 10
18.3183359674
 20
6.5281041562
 30
0.0
 10
18.3183359674
 20
6.5163284784
 30
0.0
  0
SPLINE
  5
828
100
AcDbEntity
  8
02___PRT_ALL_AXES
100
AcDbSpline
 62
7
  6
CONTINUOUS
 70
0
 71
3
 72
15
 73
11
 74
0
 42
0.0000001
 43
0.0000001
 44
0.0000000001
 40
0.0
 40
0.0
 40
0.0
 40
0.0
 40
0.0869387686
 40
0.1864218618
 40
0.3038231408
 40
0.4376419312
 40
0.5821409417
 40
0.7294506659
 40
0.8711841152
 40
1.0
 40
1.0
 40
1.0
 40
1.0
 10
18.4846418316
 20
5.8561404817
 30
0.0
 10
18.4777582262
 20
5.8601127066
 30
0.0
 10
18.4604612769
 20
5.8645427996
 30
0.0
 10
18.4326309451
 20
5.858959274
 30
0.0
 10
18.4041986814
 20
5.8434202424
 30
0.0
 10
18.3769371743
 20
5.8192728788
 30
0.0
 10
18.3528707808
 20
5.7884574871
 30
0.0
 10
18.3339229342
 20
5.7534311381
 30
0.0
 10
18.321629761
 20
5.7170747801
 30
0.0
 10
18.3183359674
 20
5.6923142804
 30
0.0
 10
18.3183359674
 20
5.6805386026
 30
0.0
  0
SPLINE
  5
829
100
AcDbEntity
  8
02___PRT_ALL_AXES
100
AcDbSpline
 62
7
  6
CONTINUOUS
 70
0
 71
3
 72
11
 73
7
 74
0
 42
0.0000001
 43
0.0000001
 44
0.0000000001
 40
0.0
 40
0.0
 40
0.0
 40
0.0
 40
0.2896486754
 40
0.5491078682
 40
0.7822255078
 40
1.0
 40
1.0
 40
1.0
 40
1.0
 10
18.5132071037
 20
6.6288367098
 30
0.0
 10
18.5132071037
 20
6.6358200238
 30
0.0
 10
18.5121454343
 20
6.6491036095
 30
0.0
 10
18.5067664138
 20
6.6673539781
 30
0.0
 10
18.4977054083
 20
6.6821648721
 30
0.0
 10
18.4891894396
 20
6.6893061336
 30
0.0
 10
18.4846418316
 20
6.6919303575
 30
0.0
  0
SPLINE
  5
82A
100
AcDbEntity
  8
02___PRT_ALL_AXES
100
AcDbSpline
 62
7
  6
CONTINUOUS
 70
0
 71
3
 72
11
 73
7
 74
0
 42
0.0000001
 43
0.0000001
 44
0.0000000001
 40
0.0
 40
0.0
 40
0.0
 40
0.0
 40
0.2177759005
 40
0.4508941413
 40
0.7103528095
 40
1.0
 40
1.0
 40
1.0
 40
1.0
 10
16.4315459477
 20
4.5116788709
 30
0.0
 10
16.4360922969
 20
4.5090528151
 30
0.0
 10
16.4465344643
 20
4.5052486799
 30
0.0
 10
16.4638909171
 20
4.5048071576
 30
0.0
 10
16.4823849403
 20
4.5092737839
 30
0.0
 10
16.4944191881
 20
4.5149958692
 30
0.0
 10
16.5004666537
 20
4.5184873542
 30
0.0
  0
SPLINE
  5
82B
100
AcDbEntity
  8
02___PRT_ALL_AXES
100
AcDbSpline
 62
7
  6
CONTINUOUS
 70
0
 71
3
 72
13
 73
9
 74
0
 42
0.0000001
 43
0.0000001
 44
0.0000000001
 40
0.0
 40
0.0
 40
0.0
 40
0.0
 40
0.2991636409
 40
0.5814125812
 40
0.7056752936
 40
0.8154457168
 40
0.9118808268
 40
1.0
 40
1.0
 40
1.0
 40
1.0
 10
17.0160854652
 20
4.5092732844
 30
0.0
 10
17.0293050967
 20
4.5255298273
 30
0.0
 10
17.0506993974
 20
4.560760691
 30
0.0
 10
17.0650671669
 20
4.6088770246
 30
0.0
 10
17.0661315126
 20
4.6452311228
 30
0.0
 10
17.0617823964
 20
4.6682028796
 30
0.0
 10
17.0523151342
 20
4.686904533
 30
0.0
 10
17.0424040711
 20
4.6958022201
 30
0.0
 10
17.0370593569
 20
4.6988884683
 30
0.0
  0
SPLINE
  5
82C
100
AcDbEntity
  8
02___PRT_ALL_AXES
100
AcDbSpline
 62
7
  6
CONTINUOUS
 70
0
 71
3
 72
17
 73
13
 74
0
 42
0.0000001
 43
0.0000001
 44
0.0000000001
 40
0.0
 40
0.0
 40
0.0
 40
0.0
 40
0.128685047
 40
0.2702672973
 40
0.4174208637
 40
0.5617667141
 40
0.6954396547
 40
0.8127074199
 40
0.8646749224
 40
0.9125107888
 40
0.9571407171
 40
1.0
 40
1.0
 40
1.0
 40
1.0
 10
17.9773052202
 20
7.6373968044
 30
0.0
 10
17.9445212514
 20
7.6563242094
 30
0.0
 10
17.8702941644
 20
7.6869497226
 30
0.0
 10
17.7493189567
 20
7.7111578095
 30
0.0
 10
17.6213620988
 20
7.7147025812
 30
0.0
 10
17.4968677713
 20
7.6972132249
 30
0.0
 10
17.3859255577
 20
7.6601670971
 30
0.0
 10
17.308768027
 20
7.6132019253
 30
0.0
 10
17.2634764425
 20
7.5677672393
 30
0.0
 10
17.2394176534
 20
7.5323874367
 30
0.0
 10
17.2245904035
 20
7.4950700911
 30
0.0
 10
17.2212088902
 20
7.4692247847
 30
0.0
 10
17.2212071473
 20
7.4566168122
 30
0.0
  0
SPLINE
  5
82D
100
AcDbEntity
  8
02___PRT_ALL_AXES
100
AcDbSpline
 62
7
  6
CONTINUOUS
 70
0
 71
3
 72
13
 73
9
 74
0
 42
0.0000001
 43
0.0000001
 44
0.0000000001
 40
0.0
 40
0.0
 40
0.0
 40
0.0
 40
0.0952677492
 40
0.1952758756
 40
0.3036911126
 40
0.422665781
 40
0.693010231
 40
1.0
 40
1.0
 40
1.0
 40
1.0
 10
16.406509817
 20
3.854288069
 30
0.0
 10
16.4102611163
 20
3.8521219212
 30
0.0
 10
16.4186324582
 20
3.848771479
 30
0.0
 10
16.4325025028
 20
3.8472754221
 30
0.0
 10
16.4473855099
 20
3.8491602758
 30
0.0
 10
16.4689663161
 20
3.8563460934
 30
0.0
 10
16.4960377214
 20
3.8736042219
 30
0.0
 10
16.5145331174
 20
3.8925006259
 30
0.0
 10
16.5233398779
 20
3.9033305405
 30
0.0
  0
SPLINE
  5
82E
100
AcDbEntity
  8
02___PRT_ALL_AXES
100
AcDbSpline
 62
7
  6
CONTINUOUS
 70
0
 71
3
 72
17
 73
13
 74
0
 42
0.0000001
 43
0.0000001
 44
0.0000000001
 40
0.0
 40
0.0
 40
0.0
 40
0.0
 40
0.128685047
 40
0.2702672973
 40
0.4174208637
 40
0.5617667141
 40
0.6954396547
 40
0.8127074199
 40
0.8646749224
 40
0.9125107888
 40
0.9571407171
 40
1.0
 40
1.0
 40
1.0
 40
1.0
 10
16.5853685328
 20
6.8337665803
 30
0.0
 10
16.552584564
 20
6.8526939853
 30
0.0
 10
16.478357477
 20
6.8833194984
 30
0.0
 10
16.3573822693
 20
6.9075275853
 30
0.0
 10
16.2294254114
 20
6.911072357
 30
0.0
 10
16.1049310839
 20
6.8935830007
 30
0.0
 10
15.9939888703
 20
6.8565368729
 30
0.0
 10
15.9168313395
 20
6.8095717011
 30
0.0
 10
15.8715397551
 20
6.7641370151
 30
0.0
 10
15.847480966
 20
6.7287572125
 30
0.0
 10
15.8326537161
 20
6.691439867
 30
0.0
 10
15.8292722027
 20
6.6655945605
 30
0.0
 10
15.8292704599
 20
6.6529865881
 30
0.0
  0
SPLINE
  5
82F
100
AcDbEntity
  8
02___PRT_ALL_AXES
100
AcDbSpline
 62
7
  6
CONTINUOUS
 70
0
 71
3
 72
17
 73
13
 74
0
 42
0.0000001
 43
0.0000001
 44
0.0000000001
 40
0.0
 40
0.0
 40
0.0
 40
0.0
 40
0.128685047
 40
0.2702672973
 40
0.4174208637
 40
0.5617667141
 40
0.6954396547
 40
0.8127074199
 40
0.8646749224
 40
0.9125107888
 40
0.9571407171
 40
1.0
 40
1.0
 40
1.0
 40
1.0
 10
19.3692419076
 20
8.4410270286
 30
0.0
 10
19.3364579388
 20
8.4599544336
 30
0.0
 10
19.2622308518
 20
8.4905799467
 30
0.0
 10
19.1412556442
 20
8.5147880337
 30
0.0
 10
19.0132987862
 20
8.5183328053
 30
0.0
 10
18.8888044587
 20
8.500843449
 30
0.0
 10
18.7778622451
 20
8.4637973212
 30
0.0
 10
18.7007047144
 20
8.4168321494
 30
0.0
 10
18.65541313
 20
8.3713974635
 30
0.0
 10
18.6313543408
 20
8.3360176608
 30
0.0
 10
18.616527091
 20
8.2987003153
 30
0.0
 10
18.6131455776
 20
8.2728550088
 30
0.0
 10
18.6131438347
 20
8.2602470364
 30
0.0
  0
SPLINE
  5
830
100
AcDbEntity
  8
02___PRT_ALL_AXES
100
AcDbSpline
 62
7
  6
CONTINUOUS
 70
0
 71
3
 72
18
 73
14
 74
0
 42
0.0000001
 43
0.0000001
 44
0.0000000001
 40
0.0
 40
0.0
 40
0.0
 40
0.0
 40
0.1027407282
 40
0.1627650865
 40
0.2282699729
 40
0.3718140555
 40
0.5232260619
 40
0.6698118152
 40
0.8001938862
 40
0.8572924696
 40
0.9088121252
 40
0.9557220926
 40
1.0
 40
1.0
 40
1.0
 40
1.0
 10
16.920229296
 20
5.0968463187
 30
0.0
 10
16.9313131779
 20
5.0960146536
 30
0.0
 10
16.9492723022
 20
5.0999450766
 30
0.0
 10
16.9712444343
 20
5.1112122202
 30
0.0
 10
16.9949950518
 20
5.1282471197
 30
0.0
 10
17.0219306736
 20
5.1569520158
 30
0.0
 10
17.0469786972
 20
5.1979969245
 30
0.0
 10
17.0627934974
 20
5.241891084
 30
0.0
 10
17.0669430356
 20
5.278333245
 30
0.0
 10
17.0633627436
 20
5.3040777046
 30
0.0
 10
17.0576916914
 20
5.3200718083
 30
0.0
 10
17.0490095454
 20
5.3330590961
 30
0.0
 10
17.0412161294
 20
5.339407545
 30
0.0
 10
17.0370670194
 20
5.3418015152
 30
0.0
  0
SPLINE
  5
831
100
AcDbEntity
  8
02___PRT_ALL_AXES
100
AcDbSpline
 62
7
  6
CONTINUOUS
 70
0
 71
3
 72
13
 73
9
 74
0
 42
0.0000001
 43
0.0000001
 44
0.0000000001
 40
0.0
 40
0.0
 40
0.0
 40
0.0
 40
0.0908550786
 40
0.1881407877
 40
0.2963041031
 40
0.4172124653
 40
0.6936745932
 40
1.0
 40
1.0
 40
1.0
 40
1.0
 10
17.7901015871
 20
4.6530925119
 30
0.0
 10
17.7946466017
 20
4.6504685063
 30
0.0
 10
17.8050899565
 20
4.6466738599
 30
0.0
 10
17.8224336279
 20
4.6462393503
 30
0.0
 10
17.8409278247
 20
4.6507003344
 30
0.0
 10
17.8674324952
 20
4.6633342371
 30
0.0
 10
17.8989857745
 20
4.6899199751
 30
0.0
 10
17.9190470455
 20
4.717322472
 30
0.0
 10
17.9278942115
 20
4.7326462981
 30
0.0
  0
SPLINE
  5
832
100
AcDbEntity
  8
02___PRT_ALL_AXES
100
AcDbSpline
 62
7
  6
CONTINUOUS
 70
0
 71
3
 72
11
 73
7
 74
0
 42
0.0000001
 43
0.0000001
 44
0.0000000001
 40
0.0
 40
0.0
 40
0.0
 40
0.0
 40
0.2896486754
 40
0.5491078682
 40
0.7822255078
 40
1.0
 40
1.0
 40
1.0
 40
1.0
 10
18.5132071037
 20
5.793046834
 30
0.0
 10
18.5132071037
 20
5.8000301479
 30
0.0
 10
18.5121454343
 20
5.8133137337
 30
0.0
 10
18.5067664138
 20
5.8315641023
 30
0.0
 10
18.4977054083
 20
5.8463749963
 30
0.0
 10
18.4891894396
 20
5.8535162578
 30
0.0
 10
18.4846418316
 20
5.8561404817
 30
0.0
  0
SPLINE
  5
833
100
AcDbEntity
  8
0
100
AcDbSpline
 62
7
  6
CONTINUOUS
 70
0
 71
3
 72
11
 73
7
 74
0
 42
0.0000001
 43
0.0000001
 44
0.0000000001
 40
0.0
 40
0.0
 40
0.0
 40
0.0
 40
0.2372243744
 40
0.4999989081
 40
0.7627740361
 40
1.0
 40
1.0
 40
1.0
 40
1.0
 10
16.0689647043
 20
5.8862892494
 30
0.0
 10
16.0958389574
 20
5.8707737431
 30
0.0
 10
16.146699354
 20
5.8279708602
 30
0.0
 10
16.2060591794
 20
5.7468517126
 30
0.0
 10
16.2466310099
 20
5.6548850146
 30
0.0
 10
16.2582696701
 20
5.5894369977
 30
0.0
 10
16.2582696701
 20
5.5584052507
 30
0.0
  0
SPLINE
  5
834
100
AcDbEntity
  8
02___PRT_ALL_AXES
100
AcDbSpline
 62
7
  6
CONTINUOUS
 70
0
 71
3
 72
11
 73
7
 74
0
 42
0.0000001
 43
0.0000001
 44
0.0000000001
 40
0.0
 40
0.0
 40
0.0
 40
0.0
 40
0.2177733076
 40
0.4509400886
 40
0.7102048645
 40
1.0
 40
1.0
 40
1.0
 40
1.0
 10
19.4989684712
 20
8.2601734199
 30
0.0
 10
19.4989708035
 20
8.2770455427
 30
0.0
 10
19.4927530549
 20
8.3122199105
 30
0.0
 10
19.4660892392
 20
8.3612126367
 30
0.0
 10
19.4239568516
 20
8.4055208358
 30
0.0
 10
19.3886860711
 20
8.4298011896
 30
0.0
 10
19.3692419076
 20
8.4410270286
 30
0.0
  0
SPLINE
  5
835
100
AcDbEntity
  8
02___PRT_ALL_AXES
100
AcDbSpline
 62
7
  6
CONTINUOUS
 70
0
 71
3
 72
19
 73
15
 74
0
 42
0.0000001
 43
0.0000001
 44
0.0000000001
 40
0.0
 40
0.0
 40
0.0
 40
0.0
 40
0.0454063465
 40
0.0940778307
 40
0.1481483729
 40
0.2086040309
 40
0.3468514753
 40
0.4999989529
 40
0.6531466795
 40
0.7913947893
 40
0.8518508552
 40
0.9059217846
 40
0.9545935591
 40
1.0
 40
1.0
 40
1.0
 40
1.0
 10
18.903649765
 20
5.2959946213
 30
0.0
 10
18.9081926801
 20
5.2933718329
 30
0.0
 10
18.9186394478
 20
5.2895855491
 30
0.0
 10
18.935981444
 20
5.2891402712
 30
0.0
 10
18.9544786821
 20
5.2936040919
 30
0.0
 10
18.9809820958
 20
5.3062385127
 30
0.0
 10
19.0125430868
 20
5.3328367391
 30
0.0
 10
19.0431135487
 20
5.3745874063
 30
0.0
 10
19.0639848905
 20
5.4219378704
 30
0.0
 10
19.0712387038
 20
5.4625698248
 30
0.0
 10
19.0689284829
 20
5.4918398111
 30
0.0
 10
19.0635455224
 20
5.51009089
 30
0.0
 10
19.0544888421
 20
5.5248869211
 30
0.0
 10
19.0459864255
 20
5.5320409949
 30
0.0
 10
19.0414435615
 20
5.5346638936
 30
0.0
  0
SPLINE
  5
836
100
AcDbEntity
  8
02___PRT_ALL_AXES
100
AcDbSpline
 62
7
  6
CONTINUOUS
 70
0
 71
3
 72
11
 73
7
 74
0
 42
0.0000001
 43
0.0000001
 44
0.0000000001
 40
0.0
 40
0.0
 40
0.0
 40
0.0
 40
0.2177733076
 40
0.4509400886
 40
0.7102048645
 40
1.0
 40
1.0
 40
1.0
 40
1.0
 10
16.7150950963
 20
6.6529129716
 30
0.0
 10
16.7150974286
 20
6.6697850943
 30
0.0
 10
16.7088796801
 20
6.7049594622
 30
0.0
 10
16.6822158643
 20
6.7539521884
 30
0.0
 10
16.6400834768
 20
6.7982603874
 30
0.0
 10
16.6048126962
 20
6.8225407413
 30
0.0
 10
16.5853685328
 20
6.8337665803
 30
0.0
  0
SPLINE
  5
837
100
AcDbEntity
  8
02___PRT_ALL_AXES
100
AcDbSpline
 62
7
  6
CONTINUOUS
 70
0
 71
3
 72
15
 73
11
 74
0
 42
0.0000001
 43
0.0000001
 44
0.0000000001
 40
0.0
 40
0.0
 40
0.0
 40
0.0
 40
0.1288146432
 40
0.270547471
 40
0.4178571671
 40
0.5623565724
 40
0.6961759474
 40
0.8135777608
 40
0.9130611602
 40
1.0
 40
1.0
 40
1.0
 40
1.0
 10
17.0015638611
 20
4.8077942349
 30
0.0
 10
17.0117619205
 20
4.8136820521
 30
0.0
 10
17.0315582908
 20
4.8289149224
 30
0.0
 10
17.0568971802
 20
4.857739658
 30
0.0
 10
17.0777568432
 20
4.8916626893
 30
0.0
 10
17.0924103414
 20
4.9279131173
 30
0.0
 10
17.0996915004
 20
4.963596553
 30
0.0
 10
17.0989321567
 20
4.9959895916
 30
0.0
 10
17.0898519968
 20
5.0228833793
 30
0.0
 10
17.0773665728
 20
5.0356478951
 30
0.0
 10
17.0704845671
 20
5.0396230695
 30
0.0
  0
SPLINE
  5
838
100
AcDbEntity
  8
02___PRT_ALL_AXES
100
AcDbSpline
 62
7
  6
CONTINUOUS
 70
0
 71
3
 72
13
 73
9
 74
0
 42
0.0000001
 43
0.0000001
 44
0.0000000001
 40
0.0
 40
0.0
 40
0.0
 40
0.0
 40
0.3063250373
 40
0.5827877334
 40
0.7036963428
 40
0.8118597175
 40
0.9091452573
 40
1.0
 40
1.0
 40
1.0
 40
1.0
 10
19.0414435615
 20
6.6613810556
 30
0.0
 10
19.0502908968
 20
6.6767051749
 30
0.0
 10
19.0639915927
 20
6.7077807369
 30
0.0
 10
19.0712387014
 20
6.7484004615
 30
0.0
 10
19.0689273376
 20
6.7776717577
 30
0.0
 10
19.0635432724
 20
6.7959190213
 30
0.0
 10
19.0544947898
 20
6.8107220022
 30
0.0
 10
19.0459865742
 20
6.8178688755
 30
0.0
 10
19.041441484
 20
6.8204929247
 30
0.0
  0
SPLINE
  5
839
100
AcDbEntity
  8
02___PRT_ALL_AXES
100
AcDbSpline
 62
7
  6
CONTINUOUS
 70
0
 71
3
 72
13
 73
9
 74
0
 42
0.0000001
 43
0.0000001
 44
0.0000000001
 40
0.0
 40
0.0
 40
0.0
 40
0.0
 40
0.0908550786
 40
0.1881407877
 40
0.2963041031
 40
0.4172124653
 40
0.6936745932
 40
1.0
 40
1.0
 40
1.0
 40
1.0
 10
18.6252635996
 20
6.09964358
 30
0.0
 10
18.6298086141
 20
6.0970195744
 30
0.0
 10
18.6402519689
 20
6.093224928
 30
0.0
 10
18.6575956404
 20
6.0927904184
 30
0.0
 10
18.6760898372
 20
6.0972514025
 30
0.0
 10
18.7025945077
 20
6.1098853052
 30
0.0
 10
18.7341477869
 20
6.1364710432
 30
0.0
 10
18.754209058
 20
6.1638735401
 30
0.0
 10
18.763056224
 20
6.1791973662
 30
0.0
  0
SPLINE
  5
83A
100
AcDbEntity
  8
02___PRT_ALL_AXES
100
AcDbSpline
 62
7
  6
CONTINUOUS
 70
0
 71
3
 72
11
 73
7
 74
0
 42
0.0000001
 43
0.0000001
 44
0.0000000001
 40
0.0
 40
0.0
 40
0.0
 40
0.0
 40
0.2177733076
 40
0.4509400886
 40
0.7102048645
 40
1.0
 40
1.0
 40
1.0
 40
1.0
 10
18.1070317838
 20
7.4565431957
 30
0.0
 10
18.1070341161
 20
7.4734153185
 30
0.0
 10
18.1008163675
 20
7.5085896864
 30
0.0
 10
18.0741525517
 20
7.5575824126
 30
0.0
 10
18.0320201642
 20
7.6018906116
 30
0.0
 10
17.9967493836
 20
7.6261709654
 30
0.0
 10
17.9773052202
 20
7.6373968044
 30
0.0
  0
SPLINE
  5
83B
100
AcDbEntity
  8
02___PRT_ALL_AXES
100
AcDbSpline
 62
7
  6
CONTINUOUS
 70
0
 71
3
 72
19
 73
15
 74
0
 42
0.0000001
 43
0.0000001
 44
0.0000000001
 40
0.0
 40
0.0
 40
0.0
 40
0.0
 40
0.0454063465
 40
0.0940778307
 40
0.1481483729
 40
0.2086040309
 40
0.3468514753
 40
0.4999989529
 40
0.6531466795
 40
0.7913947893
 40
0.8518508552
 40
0.9059217846
 40
0.9545935591
 40
1.0
 40
1.0
 40
1.0
 40
1.0
 10
18.0684877526
 20
5.7781894204
 30
0.0
 10
18.0730306676
 20
5.775566632
 30
0.0
 10
18.0834774353
 20
5.7717803482
 30
0.0
 10
18.1008194316
 20
5.7713350704
 30
0.0
 10
18.1193166696
 20
5.7757988911
 30
0.0
 10
18.1458200834
 20
5.7884333119
 30
0.0
 10
18.1773810743
 20
5.8150315382
 30
0.0
 10
18.2079515362
 20
5.8567822054
 30
0.0
 10
18.228822878
 20
5.9041326695
 30
0.0
 10
18.2360766913
 20
5.944764624
 30
0.0
 10
18.2337664704
 20
5.9740346102
 30
0.0
 10
18.2283835099
 20
5.9922856891
 30
0.0
 10
18.2193268296
 20
6.0070817202
 30
0.0
 10
18.210824413
 20
6.014235794
 30
0.0
 10
18.206281549
 20
6.0168586928
 30
0.0
  0
SPLINE
  5
83C
100
AcDbEntity
  8
0
100
AcDbSpline
 62
7
  6
CONTINUOUS
 70
0
 71
3
 72
11
 73
7
 74
0
 42
0.0000001
 43
0.0000001
 44
0.0000000001
 40
0.0
 40
0.0
 40
0.0
 40
0.0
 40
0.2177753738
 40
0.4509336305
 40
0.7102261688
 40
1.0
 40
1.0
 40
1.0
 40
1.0
 10
14.1289992524
 20
7.0627949064
 30
0.0
 10
14.1289992523
 20
7.0537978105
 30
0.0
 10
14.1323220161
 20
7.0350428134
 30
0.0
 10
14.146540637
 20
7.0089174928
 30
0.0
 10
14.1690109451
 20
6.9852931249
 30
0.0
 10
14.1878184374
 20
6.9723449831
 30
0.0
 10
14.1981862188
 20
6.9663592771
 30
0.0
  0
SPLINE
  5
83D
100
AcDbEntity
  8
02___PRT_ALL_AXES
100
AcDbSpline
 62
7
  6
CONTINUOUS
 70
0
 71
3
 72
11
 73
7
 74
0
 42
0.0000001
 43
0.0000001
 44
0.0000000001
 40
0.0
 40
0.0
 40
0.0
 40
0.0
 40
0.2177759005
 40
0.4508941413
 40
0.7103528095
 40
1.0
 40
1.0
 40
1.0
 40
1.0
 10
17.6230437522
 20
5.1995863428
 30
0.0
 10
17.6275901014
 20
5.196960287
 30
0.0
 10
17.6380322688
 20
5.1931561518
 30
0.0
 10
17.6553887215
 20
5.1927146295
 30
0.0
 10
17.6738827448
 20
5.1971812558
 30
0.0
 10
17.6859169925
 20
5.2029033411
 30
0.0
 10
17.6919644581
 20
5.2063948261
 30
0.0
  0
SPLINE
  5
83E
100
AcDbEntity
  8
02___PRT_ALL_AXES
100
AcDbSpline
 62
7
  6
CONTINUOUS
 70
0
 71
3
 72
15
 73
11
 74
0
 42
0.0000001
 43
0.0000001
 44
0.0000000001
 40
0.0
 40
0.0
 40
0.0
 40
0.0
 40
0.0869387686
 40
0.1864218618
 40
0.3038231408
 40
0.4376419312
 40
0.5821409417
 40
0.7294506659
 40
0.8711841152
 40
1.0
 40
1.0
 40
1.0
 40
1.0
 10
18.3469012395
 20
4.7816550791
 30
0.0
 10
18.3537848449
 20
4.7776828542
 30
0.0
 10
18.3710817942
 20
4.7732527611
 30
0.0
 10
18.398912126
 20
4.7788362867
 30
0.0
 10
18.4273443897
 20
4.7943753184
 30
0.0
 10
18.4546058968
 20
4.8185226819
 30
0.0
 10
18.4786722903
 20
4.8493380737
 30
0.0
 10
18.497620137
 20
4.8843644227
 30
0.0
 10
18.5099133101
 20
4.9207207806
 30
0.0
 10
18.5132071037
 20
4.9454812803
 30
0.0
 10
18.5132071037
 20
4.9572569582
 30
0.0
  0
SPLINE
  5
83F
100
AcDbEntity
  8
02___PRT_ALL_AXES
100
AcDbSpline
 62
7
  6
CONTINUOUS
 70
0
 71
3
 72
13
 73
9
 74
0
 42
0.0000001
 43
0.0000001
 44
0.0000000001
 40
0.0
 40
0.0
 40
0.0
 40
0.0
 40
0.306989769
 40
0.577334219
 40
0.6963088874
 40
0.8047241244
 40
0.9047322508
 40
1.0
 40
1.0
 40
1.0
 40
1.0
 10
19.9113137751
 20
6.8237394397
 30
0.0
 10
19.9025070146
 20
6.8129095251
 30
0.0
 10
19.8840116186
 20
6.7940131211
 30
0.0
 10
19.8569402133
 20
6.7767549926
 30
0.0
 10
19.8353594071
 20
6.769569175
 30
0.0
 10
19.8204764
 20
6.7676843213
 30
0.0
 10
19.8066063554
 20
6.7691803782
 30
0.0
 10
19.7982350136
 20
6.7725308204
 30
0.0
 10
19.7944837142
 20
6.7746969682
 30
0.0
  0
SPLINE
  5
840
100
AcDbEntity
  8
02___PRT_ALL_AXES
100
AcDbSpline
 62
7
  6
CONTINUOUS
 70
0
 71
3
 72
11
 73
7
 74
0
 42
0.0000001
 43
0.0000001
 44
0.0000000001
 40
0.0
 40
0.0
 40
0.0
 40
0.0
 40
0.2177759005
 40
0.4508941413
 40
0.7103528095
 40
1.0
 40
1.0
 40
1.0
 40
1.0
 10
18.7644318359
 20
5.8585631266
 30
0.0
 10
18.7689781851
 20
5.8559370708
 30
0.0
 10
18.7794203525
 20
5.8521329356
 30
0.0
 10
18.7967768052
 20
5.8516914133
 30
0.0
 10
18.8152708285
 20
5.8561580396
 30
0.0
 10
18.8273050762
 20
5.8618801249
 30
0.0
 10
18.8333525418
 20
5.8653716099
 30
0.0
  0
SPLINE
  5
841
100
AcDbEntity
  8
02___PRT_ALL_AXES
100
AcDbSpline
 62
7
  6
CONTINUOUS
 70
0
 71
3
 72
15
 73
11
 74
0
 42
0.0000001
 43
0.0000001
 44
0.0000000001
 40
0.0
 40
0.0
 40
0.0
 40
0.0
 40
0.0869388398
 40
0.1864222392
 40
0.3038240526
 40
0.4376434276
 40
0.5821428329
 40
0.729452529
 40
0.8711853568
 40
1.0
 40
1.0
 40
1.0
 40
1.0
 10
20.3999971234
 20
6.9619065657
 30
0.0
 10
20.4068791291
 20
6.9579313913
 30
0.0
 10
20.4193645531
 20
6.9451668755
 30
0.0
 10
20.4284447131
 20
6.9182730878
 30
0.0
 10
20.4292040567
 20
6.8858800491
 30
0.0
 10
20.4219228978
 20
6.8501966134
 30
0.0
 10
20.4072693996
 20
6.8139461855
 30
0.0
 10
20.3864097365
 20
6.7800231541
 30
0.0
 10
20.3610708471
 20
6.7511984186
 30
0.0
 10
20.3412744769
 20
6.7359655483
 30
0.0
 10
20.3310764175
 20
6.7300777311
 30
0.0
  0
SPLINE
  5
842
100
AcDbEntity
  8
02___PRT_ALL_AXES
100
AcDbSpline
 62
7
  6
CONTINUOUS
 70
0
 71
3
 72
15
 73
11
 74
0
 42
0.0000001
 43
0.0000001
 44
0.0000000001
 40
0.0
 40
0.0
 40
0.0
 40
0.0
 40
0.1288146432
 40
0.270547471
 40
0.4178571671
 40
0.5623565724
 40
0.6961759474
 40
0.8135777608
 40
0.9130611602
 40
1.0
 40
1.0
 40
1.0
 40
1.0
 10
17.9981905293
 20
5.3831934754
 30
0.0
 10
18.0083885887
 20
5.3890812926
 30
0.0
 10
18.028184959
 20
5.4043141629
 30
0.0
 10
18.0535238484
 20
5.4331388985
 30
0.0
 10
18.0743835114
 20
5.4670619298
 30
0.0
 10
18.0890370096
 20
5.5033123577
 30
0.0
 10
18.0963181686
 20
5.5389957935
 30
0.0
 10
18.0955588249
 20
5.5713888321
 30
0.0
 10
18.086478665
 20
5.5982826198
 30
0.0
 10
18.073993241
 20
5.6110471356
 30
0.0
 10
18.0671112353
 20
5.61502231
 30
0.0
  0
SPLINE
  5
843
100
AcDbEntity
  8
02___PRT_ALL_AXES
100
AcDbSpline
 62
7
  6
CONTINUOUS
 70
0
 71
3
 72
15
 73
11
 74
0
 42
0.0000001
 43
0.0000001
 44
0.0000000001
 40
0.0
 40
0.0
 40
0.0
 40
0.0
 40
0.0869387686
 40
0.1864218618
 40
0.3038231408
 40
0.4376419312
 40
0.5821409417
 40
0.7294506659
 40
0.8711841152
 40
1.0
 40
1.0
 40
1.0
 40
1.0
 10
18.3469012395
 20
6.0996314217
 30
0.0
 10
18.3537848449
 20
6.0956591968
 30
0.0
 10
18.3710817942
 20
6.0912291037
 30
0.0
 10
18.398912126
 20
6.0968126293
 30
0.0
 10
18.4273443897
 20
6.112351661
 30
0.0
 10
18.4546058968
 20
6.1364990245
 30
0.0
 10
18.4786722903
 20
6.1673144163
 30
0.0
 10
18.497620137
 20
6.2023407653
 30
0.0
 10
18.5099133101
 20
6.2386971233
 30
0.0
 10
18.5132071037
 20
6.2634576229
 30
0.0
 10
18.5132071037
 20
6.2752333008
 30
0.0
  0
SPLINE
  5
844
100
AcDbEntity
  8
02___PRT_ALL_AXES
100
AcDbSpline
 62
7
  6
CONTINUOUS
 70
0
 71
3
 72
11
 73
7
 74
0
 42
0.0000001
 43
0.0000001
 44
0.0000000001
 40
0.0
 40
0.0
 40
0.0
 40
0.0
 40
0.2896471905
 40
0.5491058587
 40
0.7822240995
 40
1.0
 40
1.0
 40
1.0
 40
1.0
 10
19.82997921
 20
6.4407708504
 30
0.0
 10
19.8239317444
 20
6.4372793654
 30
0.0
 10
19.8118974967
 20
6.4315572801
 30
0.0
 10
19.7934034734
 20
6.4270906538
 30
0.0
 10
19.7760470207
 20
6.4275321761
 30
0.0
 10
19.7656048533
 20
6.4313363113
 30
0.0
 10
19.7610585041
 20
6.4339623671
 30
0.0
  0
SPLINE
  5
845
100
AcDbEntity
  8
0
100
AcDbSpline
 62
7
  6
CONTINUOUS
 70
0
 71
3
 72
11
 73
7
 74
0
 42
0.0000001
 43
0.0000001
 44
0.0000000001
 40
0.0
 40
0.0
 40
0.0
 40
0.0
 40
0.2897728337
 40
0.5490651414
 40
0.7822238181
 40
1.0
 40
1.0
 40
1.0
 40
1.0
 10
16.2582696701
 20
3.3982098794
 30
0.0
 10
16.2582696701
 20
3.3862380148
 30
0.0
 10
16.2600796297
 20
3.3634756924
 30
0.0
 10
16.2693043761
 20
3.3322030339
 30
0.0
 10
16.2848209734
 20
3.3068262303
 30
0.0
 10
16.2994024224
 20
3.2945709685
 30
0.0
 10
16.3071943984
 20
3.2900723713
 30
0.0
  0
SPLINE
  5
846
100
AcDbEntity
  8
02___PRT_ALL_AXES
100
AcDbSpline
 62
7
  6
CONTINUOUS
 70
0
 71
3
 72
13
 73
9
 74
0
 42
0.0000001
 43
0.0000001
 44
0.0000000001
 40
0.0
 40
0.0
 40
0.0
 40
0.0
 40
0.0881191732
 40
0.1845542832
 40
0.2943247064
 40
0.4185874188
 40
0.7008363591
 40
1.0
 40
1.0
 40
1.0
 40
1.0
 10
20.4250332541
 20
7.6192973675
 30
0.0
 10
20.4303779683
 20
7.6162111193
 30
0.0
 10
20.4402890314
 20
7.6073134322
 30
0.0
 10
20.4497562936
 20
7.5886117788
 30
0.0
 10
20.4541054098
 20
7.565640022
 30
0.0
 10
20.4530410641
 20
7.5292859238
 30
0.0
 10
20.4386732946
 20
7.4811695902
 30
0.0
 10
20.4172789939
 20
7.4459387265
 30
0.0
 10
20.4040593624
 20
7.4296821836
 30
0.0
  0
SPLINE
  5
847
100
AcDbEntity
  8
02___PRT_ALL_AXES
100
AcDbSpline
 62
7
  6
CONTINUOUS
 70
0
 71
3
 72
15
 73
11
 74
0
 42
0.0000001
 43
0.0000001
 44
0.0000000001
 40
0.0
 40
0.0
 40
0.0
 40
0.0
 40
0.0869387686
 40
0.1864218618
 40
0.3038231408
 40
0.4376419312
 40
0.5821409417
 40
0.7294506659
 40
0.8711841152
 40
1.0
 40
1.0
 40
1.0
 40
1.0
 10
18.3469012395
 20
5.6174449549
 30
0.0
 10
18.3537848449
 20
5.61347273
 30
0.0
 10
18.3710817942
 20
5.6090426369
 30
0.0
 10
18.398912126
 20
5.6146261625
 30
0.0
 10
18.4273443897
 20
5.6301651942
 30
0.0
 10
18.4546058968
 20
5.6543125577
 30
0.0
 10
18.4786722903
 20
5.6851279495
 30
0.0
 10
18.497620137
 20
5.7201542985
 30
0.0
 10
18.5099133101
 20
5.7565106564
 30
0.0
 10
18.5132071037
 20
5.7812711561
 30
0.0
 10
18.5132071037
 20
5.793046834
 30
0.0
  0
SPLINE
  5
848
100
AcDbEntity
  8
02___PRT_ALL_AXES
100
AcDbSpline
 62
7
  6
CONTINUOUS
 70
0
 71
3
 72
13
 73
9
 74
0
 42
0.0000001
 43
0.0000001
 44
0.0000000001
 40
0.0
 40
0.0
 40
0.0
 40
0.0
 40
0.3063250373
 40
0.5827877334
 40
0.7036963428
 40
0.8118597175
 40
0.9091452573
 40
1.0
 40
1.0
 40
1.0
 40
1.0
 10
18.206281549
 20
5.2148299875
 30
0.0
 10
18.2151288843
 20
5.2301541067
 30
0.0
 10
18.2288295803
 20
5.2612296688
 30
0.0
 10
18.2360766889
 20
5.3018493934
 30
0.0
 10
18.2337653252
 20
5.3311206895
 30
0.0
 10
18.2283812599
 20
5.3493679532
 30
0.0
 10
18.2193327774
 20
5.3641709341
 30
0.0
 10
18.2108245617
 20
5.3713178073
 30
0.0
 10
18.2062794716
 20
5.3739418566
 30
0.0
  0
SPLINE
  5
849
100
AcDbEntity
  8
02___PRT_ALL_AXES
100
AcDbSpline
 62
7
  6
CONTINUOUS
 70
0
 71
3
 72
15
 73
11
 74
0
 42
0.0000001
 43
0.0000001
 44
0.0000000001
 40
0.0
 40
0.0
 40
0.0
 40
0.0
 40
0.1288146432
 40
0.270547471
 40
0.4178571671
 40
0.5623565724
 40
0.6961759474
 40
0.8135777608
 40
0.9130611602
 40
1.0
 40
1.0
 40
1.0
 40
1.0
 10
19.139578613
 20
6.0421702593
 30
0.0
 10
19.1497766724
 20
6.0480580764
 30
0.0
 10
19.1695730426
 20
6.0632909467
 30
0.0
 10
19.1949119321
 20
6.0921156823
 30
0.0
 10
19.2157715951
 20
6.1260387136
 30
0.0
 10
19.2304250933
 20
6.1622891416
 30
0.0
 10
19.2377062523
 20
6.1979725773
 30
0.0
 10
19.2369469086
 20
6.2303656159
 30
0.0
 10
19.2278667487
 20
6.2572594036
 30
0.0
 10
19.2153813247
 20
6.2700239194
 30
0.0
 10
19.208499319
 20
6.2739990938
 30
0.0
  0
SPLINE
  5
84A
100
AcDbEntity
  8
02___PRT_ALL_AXES
100
AcDbSpline
 62
7
  6
CONTINUOUS
 70
0
 71
3
 72
11
 73
7
 74
0
 42
0.0000001
 43
0.0000001
 44
0.0000000001
 40
0.0
 40
0.0
 40
0.0
 40
0.0
 40
0.2896486754
 40
0.5491078682
 40
0.7822255078
 40
1.0
 40
1.0
 40
1.0
 40
1.0
 10
18.5132071037
 20
5.3108603672
 30
0.0
 10
18.5132071037
 20
5.3178436811
 30
0.0
 10
18.5121454343
 20
5.3311272669
 30
0.0
 10
18.5067664138
 20
5.3493776355
 30
0.0
 10
18.4977054083
 20
5.3641885295
 30
0.0
 10
18.4891894396
 20
5.371329791
 30
0.0
 10
18.4846418316
 20
5.3739540149
 30
0.0
  0
SPLINE
  5
84B
100
AcDbEntity
  8
02___PRT_ALL_AXES
100
AcDbSpline
 62
7
  6
CONTINUOUS
 70
0
 71
3
 72
18
 73
14
 74
0
 42
0.0000001
 43
0.0000001
 44
0.0000000001
 40
0.0
 40
0.0
 40
0.0
 40
0.0
 40
0.0442779074
 40
0.0911878748
 40
0.1427075304
 40
0.1998061138
 40
0.3301881848
 40
0.4767739381
 40
0.6281859445
 40
0.7717300271
 40
0.8372349135
 40
0.8972592718
 40
1.0
 40
1.0
 40
1.0
 40
1.0
 10
20.4250409166
 20
6.3334645472
 30
0.0
 10
20.4291900267
 20
6.331070577
 30
0.0
 10
20.4369834426
 20
6.3247221281
 30
0.0
 10
20.4456655886
 20
6.3117348403
 30
0.0
 10
20.4513366408
 20
6.2957407366
 30
0.0
 10
20.4549169328
 20
6.269996277
 30
0.0
 10
20.4507673946
 20
6.2335541159
 30
0.0
 10
20.4349525944
 20
6.1896599565
 30
0.0
 10
20.4099045708
 20
6.1486150478
 30
0.0
 10
20.382968949
 20
6.1199101517
 30
0.0
 10
20.3592183315
 20
6.1028752521
 30
0.0
 10
20.3372461994
 20
6.0916081086
 30
0.0
 10
20.3192870751
 20
6.0876776855
 30
0.0
 10
20.3082031932
 20
6.0885093507
 30
0.0
  0
ENDSEC
  0
SECTION
  2
OBJECTS
  0
DICTIONARY
  5
C
100
AcDbDictionary
280
0
281
1
  3
ACAD_GROUP
350
D
  3
ACAD_MLINESTYLE
350
17
  3
ACAD_LAYOUT
350
1A
  3
ACAD_PLOTSETTINGS
350
19
  3
ACAD_PLOTSTYLENAME
350
E
  3
ACAD_TABLESTYLE
350
       84C
  0
DICTIONARY
  5
D
102
{ACAD_REACTORS
330
C
102
}
100
AcDbDictionary
280
0
281
1
  0
ACDBDICTIONARYWDFLT
  5
E
102
{ACAD_REACTORS
330
C
102
}
100
AcDbDictionary
281
1
  3
Normal
350
F
100
AcDbDictionaryWithDefault
340
F
  0
DICTIONARY
  5
17
102
{ACAD_REACTORS
330
C
102
}
100
AcDbDictionary
280
0
281
1
  3
Standard
350
18
  0
DICTIONARY
  5
84C
330
C
100
AcDbDictionary
281
1
  3
Standard
350
       84F
  3
Standard1
350
       850
  0
DICTIONARY
  5
19
102
{ACAD_REACTORS
330
C
102
}
100
AcDbDictionary
281
1
  0
DICTIONARY
  5
1A
102
{ACAD_REACTORS
330
C
102
}
100
AcDbDictionary
281
1
  3
Model
350
84D
  3
Layout1
350
84E
  0
ACDBPLACEHOLDER
  5
F
102
{ACAD_REACTORS
330
E
102
}
  0
MLINESTYLE
  5
18
102
{ACAD_REACTORS
330
17
102
}
100
AcDbMlineStyle
  2
STANDARD
 70
0
  3

 62
256
 51
90.0
 52
90.0
 71
2
 49
0.5
 62
256
  6
BYLAYER
 49
-0.5
 62
256
  6
BYLAYER
  0
LAYOUT
  5
84D
102
{ACAD_REACTORS
330
1A
102
}
100
AcDbPlotSettings
  1

  2
none_device
  4
ANSI_C_(22.00_x_17.00_Inches)
  6

 40
0.0
 41
0.0
 42
0.0
 43
0.0
 44
558.8
 45
431.8
 46
0.0
 47
0.0
 48
0.0
 49
0.0
140
0.0
141
0.0
142
1.0
143
1.0
 70
1024
 72
0
 73
0
 74
0
  7

 75
0
147
1.0
148
0.0
149
0.0
100
AcDbLayout
  1
Model
 70
0
 71
0
 10
0.0
 20
0.0
 11
22.0
 21
17.0
 12
0.0
 22
0.0
 32
0.0
 14
0.0
 24
0.0
 34
0.0
 15
0.0
 25
0.0
 35
0.0
146
0.0
 13
0.0
 23
0.0
 33
0.0
 16
1.0
 26
0.0
 36
0.0
 17
0.0
 27
1.0
 37
0.0
 76
0
330
214
345
0
346
0
  0
LAYOUT
  5
84E
102
{ACAD_REACTORS
330
1A
102
}
100
AcDbPlotSettings
  1

  2
none_device
  4
ANSI_C_(22.00_x_17.00_Inches)
  6

 40
0.0
 41
0.0
 42
0.0
 43
0.0
 44
558.8
 45
431.8
 46
0.0
 47
0.0
 48
0.0
 49
0.0
140
0.0
141
0.0
142
1.0
143
1.0
 70
0
 72
0
 73
0
 74
0
  7

 75
0
147
1.0
148
0.0
149
0.0
100
AcDbLayout
  1
Layout1
 70
0
 71
1
 10
0.0
 20
0.0
 11
22.0
 21
17.0
 12
0.0
 22
0.0
 32
0.0
 14
0.0
 24
0.0
 34
0.0
 15
0.0
 25
0.0
 35
0.0
146
0.0
 13
0.0
 23
0.0
 33
0.0
 16
1.0
 26
0.0
 36
0.0
 17
0.0
 27
1.0
 37
0.0
 76
0
330
215
345
0
346
0
  0
TABLESTYLE
  5
84F
102
{ACAD_REACTORS
330
84C
102
}
330
84C
100
AcDbTableStyle
  3
Standard
 70
0
 71
0
 40
0.06
 41
0.06
280
1
281
1
  7
Standard
140
0.18
170
1
 62
0
 63
7
283
0
  7
Standard
140
0.18
170
1
 62
0
 63
7
283
0
  7
Standard
140
0.18
170
1
 62
0
 63
7
283
0
  0
TABLESTYLE
  5
850
102
{ACAD_REACTORS
330
84C
330
54D
102
}
330
84C
100
AcDbTableStyle
  3
Standard1
 70
1
 71
0
 40
0.06
 41
0.06
280
1
281
1
  7
Standard
140
0.18
170
1
 62
0
 63
7
283
0
  7
Standard
140
0.18
170
1
 62
0
 63
7
283
0
  7
Standard
140
0.18
170
1
 62
0
 63
7
283
0
  0
ENDSEC
  0
EOF
