999
DXF file: 168710_1.dxf
999
Pro/ENGINEER 2009141 by Parametric Technology Corporation
  0
SECTION
  2
HEADER
  9
$ACADVER
  1
AC1015
  9
$DWGCODEPAGE
  3
ANSI_1252
  9
$EXTMAX
 10
17.0
 20
11.0
 30
0.0
  9
$EXTMIN
 10
0.0
 20
0.0
 30
0.0
  9
$LIMMIN
 10
0.0
 20
0.0
  9
$LIMMAX
 10
17.0
 20
11.0
  9
$VIEWCTR
 10
8.5
 20
5.5
  9
$VIEWSIZE
 40
11.0
  9
$CLAYER
  8
0
  9
$LTSCALE
 40
0.935
  9
$CELTYPE
  6
BYLAYER
  9
$DIMSCALE
 40
1.0
  9
$DIMASZ
 40
0.1875
  9
$DIMEXO
 40
0.10625
  9
$DIMDLI
 40
0.646
  9
$DIMEXE
 40
0.306
  9
$DIMCEN
 40
0.153
  9
$DIMLFAC
 40
1.0
  9
$DIMBLK
  1
_FILLED
  9
$DIMTXT
 40
0.1
  9
$DIMTOL
 70
1
  9
$DIMLIM
 70
0
  9
$DIMTFAC
 40
1.0
  9
$DIMTP
 40
0.005
  9
$DIMTM
 40
0.005
  9
$PDMODE
 70
3
  9
$PDSIZE
 40
0.3125
  9
$HANDSEED
  5
899
  9
$TILEMODE
 70
1
  9
$MEASUREMENT
 70
0
  9
$INSUNITS
 70
1
  0
ENDSEC
  0
SECTION
  2
CLASSES
  0
CLASS
  1
ACDBDICTIONARYWDFLT
  2
AcDbDictionaryWithDefault
  3
AutoCAD 2000
 90
0
280
0
281
0
  0
CLASS
  1
ACDBPLACEHOLDER
  2
AcDbPlaceHolder
  3
AutoCAD 2000
 90
0
280
0
281
0
  0
CLASS
  1
LAYOUT
  2
AcDbLayout
  3
AutoCAD 2000
 90
0
280
0
281
0
  0
ENDSEC
  0
SECTION
  2
TABLES
  0
TABLE
  2
VPORT
  5
8
100
AcDbSymbolTable
 70
2
  0
VPORT
  5
1F4
100
AcDbSymbolTableRecord
100
AcDbViewportTableRecord
  2
*ACTIVE
 70
0
 10
0.0
 20
0.0
 11
1.0
 21
1.0
 12
8.5
 22
5.5
 13
0.0
 23
0.0
 14
1.0
 24
1.0
 15
0.0
 25
0.0
 16
0.0
 26
0.0
 36
1.0
 17
0.0
 27
0.0
 37
0.0
 40
11.0
 41
1.5454545455
 42
50.0
 43
0.0
 44
0.0
 50
0.0
 51
0.0
 71
0
 72
100
 73
1
 74
1
 75
0
 76
0
 77
0
 78
0
  0
ENDTAB
  0
TABLE
  2
LTYPE
  5
5
100
AcDbSymbolTable
 70
6
  0
LTYPE
  5
14
100
AcDbSymbolTableRecord
100
AcDbLinetypeTableRecord
  2
BYBLOCK
 70
0
  3

 72
65
 73
0
 40
0.0
  0
LTYPE
  5
15
100
AcDbSymbolTableRecord
100
AcDbLinetypeTableRecord
  2
BYLAYER
 70
0
  3

 72
65
 73
0
 40
0.0
  0
LTYPE
  5
16
100
AcDbSymbolTableRecord
100
AcDbLinetypeTableRecord
  2
CONTINUOUS
 70
64
  3
Solid line
 72
65
 73
0
 40
0.0
  0
LTYPE
  5
1F5
100
AcDbSymbolTableRecord
100
AcDbLinetypeTableRecord
  2
CENTER
 70
64
  3
____ _ ____ _ ____ _ ____ _ ____ _ ____ _ ____
 72
65
 73
4
 40
0.6
 49
0.375
 74
0
 49
-0.075
 74
0
 49
0.075
 74
0
 49
-0.075
 74
0
  0
LTYPE
  5
1F6
100
AcDbSymbolTableRecord
100
AcDbLinetypeTableRecord
  2
HIDDEN
 70
64
  3
- - - - - - - - - - - - - - - - - - - -
 72
65
 73
2
 40
0.2
 49
0.1
 74
0
 49
-0.1
 74
0
  0
LTYPE
  5
1F7
100
AcDbSymbolTableRecord
100
AcDbLinetypeTableRecord
  2
PHANTOM
 70
64
  3
_____ _ _ _____ _ _ _____ _ _ _____
 72
65
 73
6
 40
0.8
 49
0.45
 74
0
 49
-0.05
 74
0
 49
0.1
 74
0
 49
-0.05
 74
0
 49
0.1
 74
0
 49
-0.05
 74
0
  0
LTYPE
  5
1F8
100
AcDbSymbolTableRecord
100
AcDbLinetypeTableRecord
  2
DOT
 70
64
  3
. . . . . . . . . . . . . . . . . . . .
 72
65
 73
2
 40
0.2
 49
0.1
 74
0
 49
-0.1
 74
0
  0
LTYPE
  5
1F9
100
AcDbSymbolTableRecord
100
AcDbLinetypeTableRecord
  2
DASHED
 70
64
  3
- - - - - - - - - - - - - - - - - - - -
 72
65
 73
2
 40
0.2
 49
0.1
 74
0
 49
-0.1
 74
0
  0
ENDTAB
  0
TABLE
  2
LAYER
  5
2
100
AcDbSymbolTable
 70
36
  0
LAYER
  5
10
100
AcDbSymbolTableRecord
100
AcDbLayerTableRecord
  2
0
 70
0
 62
7
  6
CONTINUOUS
370
-3
390
F
  0
LAYER
  5
1FA
100
AcDbSymbolTableRecord
100
AcDbLayerTableRecord
  2
DEFAULT_1
 70
0
 62
7
  6
CENTER
370
-3
390
F
  0
LAYER
  5
1FB
100
AcDbSymbolTableRecord
100
AcDbLayerTableRecord
  2
DEFAULT_2
 70
0
 62
8
  6
HIDDEN
370
-3
390
F
  0
LAYER
  5
1FC
100
AcDbSymbolTableRecord
100
AcDbLayerTableRecord
  2
DEFAULT_3
 70
0
 62
7
  6
PHANTOM
370
-3
390
F
  0
LAYER
  5
1FD
100
AcDbSymbolTableRecord
100
AcDbLayerTableRecord
  2
01___PRT_ALL_DTM_PLN
 70
0
 62
7
  6
CONTINUOUS
370
-3
390
F
  0
LAYER
  5
1FE
100
AcDbSymbolTableRecord
100
AcDbLayerTableRecord
  2
01___PRT_DEF_DTM_PLN
 70
0
 62
7
  6
CONTINUOUS
370
-3
390
F
  0
LAYER
  5
1FF
100
AcDbSymbolTableRecord
100
AcDbLayerTableRecord
  2
02___PRT_ALL_AXES
 70
0
 62
7
  6
CONTINUOUS
370
-3
390
F
  0
LAYER
  5
200
100
AcDbSymbolTableRecord
100
AcDbLayerTableRecord
  2
03___PRT_ALL_CURVES
 70
0
 62
7
  6
CONTINUOUS
370
-3
390
F
  0
LAYER
  5
201
100
AcDbSymbolTableRecord
100
AcDbLayerTableRecord
  2
04___PRT_ALL_DTM_PNT
 70
0
 62
7
  6
CONTINUOUS
370
-3
390
F
  0
LAYER
  5
202
100
AcDbSymbolTableRecord
100
AcDbLayerTableRecord
  2
05___PRT_ALL_DTM_CSYS
 70
0
 62
7
  6
CONTINUOUS
370
-3
390
F
  0
LAYER
  5
203
100
AcDbSymbolTableRecord
100
AcDbLayerTableRecord
  2
05___PRT_DEF_DTM_CSYS
 70
0
 62
7
  6
CONTINUOUS
370
-3
390
F
  0
LAYER
  5
204
100
AcDbSymbolTableRecord
100
AcDbLayerTableRecord
  2
06___PRT_ALL_SURFS
 70
0
 62
7
  6
CONTINUOUS
370
-3
390
F
  0
LAYER
  5
205
100
AcDbSymbolTableRecord
100
AcDbLayerTableRecord
  2
AXIS
 70
0
 62
7
  6
CONTINUOUS
370
-3
390
F
  0
LAYER
  5
206
100
AcDbSymbolTableRecord
100
AcDbLayerTableRecord
  2
AXIS_COSMETIC_THREADS
 70
0
 62
7
  6
CONTINUOUS
370
-3
390
F
  0
LAYER
  5
207
100
AcDbSymbolTableRecord
100
AcDbLayerTableRecord
  2
COSMETIC_THREADS
 70
0
 62
7
  6
CONTINUOUS
370
-3
390
F
  0
LAYER
  5
208
100
AcDbSymbolTableRecord
100
AcDbLayerTableRecord
  2
DATUM_CURVES
 70
0
 62
7
  6
CONTINUOUS
370
-3
390
F
  0
LAYER
  5
209
100
AcDbSymbolTableRecord
100
AcDbLayerTableRecord
  2
DATUM_PLANES
 70
0
 62
7
  6
CONTINUOUS
370
-3
390
F
  0
LAYER
  5
20A
100
AcDbSymbolTableRecord
100
AcDbLayerTableRecord
  2
NOTES
 70
0
 62
7
  6
CONTINUOUS
370
-3
390
F
  0
LAYER
  5
20B
100
AcDbSymbolTableRecord
100
AcDbLayerTableRecord
  2
QUILTS
 70
0
 62
7
  6
CONTINUOUS
370
-3
390
F
  0
LAYER
  5
20C
100
AcDbSymbolTableRecord
100
AcDbLayerTableRecord
  2
SCHEME_DIMS
 70
0
 62
7
  6
CONTINUOUS
370
-3
390
F
  0
LAYER
  5
20D
100
AcDbSymbolTableRecord
100
AcDbLayerTableRecord
  2
SYMBOLS
 70
0
 62
7
  6
CONTINUOUS
370
-3
390
F
  0
ENDTAB
  0
TABLE
  2
STYLE
  5
3
100
AcDbSymbolTable
 70
1
  0
STYLE
  5
11
100
AcDbSymbolTableRecord
100
AcDbTextStyleTableRecord
  2
STANDARD
 70
0
 40
0.0
 41
1.0
 50
0.0
 71
0
 42
0.2
  3
txt
  4

  0
STYLE
  5
20E
100
AcDbSymbolTableRecord
100
AcDbTextStyleTableRecord
  2
TEXTSTYLE_1
 70
0
 40
0.0
 41
0.8
 50
0.0
 71
0
 42
0.2
  3
gdt
  4

  0
STYLE
  5
20F
100
AcDbSymbolTableRecord
100
AcDbTextStyleTableRecord
  2
TEXTSTYLE_2
 70
0
 40
0.0
 41
0.8
 50
0.0
 71
0
 42
0.2
  3
txt
  4

  0
STYLE
  5
210
100
AcDbSymbolTableRecord
100
AcDbTextStyleTableRecord
  2
TEXTSTYLE_3
 70
0
 40
0.0
 41
0.85
 50
0.0
 71
0
 42
0.2
  3
txt
  4

  0
STYLE
  5
211
100
AcDbSymbolTableRecord
100
AcDbTextStyleTableRecord
  2
TEXTSTYLE_4
 70
0
 40
0.0
 41
0.92
 50
0.0
 71
0
 42
0.2
  3
txt
  4

  0
STYLE
  5
212
100
AcDbSymbolTableRecord
100
AcDbTextStyleTableRecord
  2
TEXTSTYLE_5
 70
0
 40
0.0
 41
1.0
 50
0.0
 71
0
 42
0.2
  3
gdt
  4

  0
ENDTAB
  0
TABLE
  2
VIEW
  5
6
100
AcDbSymbolTable
 70
0
  0
ENDTAB
  0
TABLE
  2
UCS
  5
7
100
AcDbSymbolTable
 70
0
  0
ENDTAB
  0
TABLE
  2
APPID
  5
9
100
AcDbSymbolTable
 70
1
  0
APPID
  5
213
100
AcDbSymbolTableRecord
100
AcDbRegAppTableRecord
  2
ACAD
 70
0
  0
ENDTAB
  0
TABLE
  2
BLOCK_RECORD
  5
1
100
AcDbSymbolTable
 70
0
  0
BLOCK_RECORD
  5
214
100
AcDbSymbolTableRecord
100
AcDbBlockTableRecord
  2
*Model_Space
  0
BLOCK_RECORD
  5
215
100
AcDbSymbolTableRecord
100
AcDbBlockTableRecord
  2
*Paper_Space
  0
BLOCK_RECORD
  5
216
100
AcDbSymbolTableRecord
100
AcDbBlockTableRecord
  2
_FILLED
  0
BLOCK_RECORD
  5
217
100
AcDbSymbolTableRecord
100
AcDbBlockTableRecord
  2
*D0
  0
BLOCK_RECORD
  5
218
100
AcDbSymbolTableRecord
100
AcDbBlockTableRecord
  2
*D1
  0
BLOCK_RECORD
  5
219
100
AcDbSymbolTableRecord
100
AcDbBlockTableRecord
  2
*D2
  0
BLOCK_RECORD
  5
21A
100
AcDbSymbolTableRecord
100
AcDbBlockTableRecord
  2
*D3
  0
BLOCK_RECORD
  5
21B
100
AcDbSymbolTableRecord
100
AcDbBlockTableRecord
  2
BANNER_LOGO_TITLEBLOCK_BL0
  0
ENDTAB
  0
TABLE
  2
DIMSTYLE
  5
A
100
AcDbSymbolTable
 70
1
100
AcDbDimStyleTable
 71
0
  0
DIMSTYLE
105
21C
100
AcDbSymbolTableRecord
100
AcDbDimStyleTableRecord
  2
STANDARD
 70
0
  3

  4

 40
1.0
 41
0.1875
 42
0.0625
 43
0.38
 44
0.18
 45
0.0
 46
0.0
 47
0.005
 48
0.005
140
0.1
141
0.09
142
0.0
143
25.4
144
1.0
145
0.0
146
1.0
147
0.09
 71
1.0
 72
0.0
 73
1
 74
1
 75
0
 76
0
 77
0
 78
4
170
0
171
2
172
0
173
0
174
0
175
0
176
0
177
0
178
0
270
2
271
3
272
3
273
2
274
2
275
0
280
0
281
0
282
0
283
1
284
4
285
0
286
0
287
3
288
0
340
11
341
216
342
216
343
216
344
216
  0
DIMSTYLE
105
21D
100
AcDbSymbolTableRecord
100
AcDbDimStyleTableRecord
  2
DIMSTYLE_1
 70
0
  3

  4

 40
1.0
 41
0.1875
 42
0.0625
 43
0.38
 44
0.18
 45
0.0
 46
0.0
 47
0.1
 48
0.1
140
0.1
141
0.09
142
0.0
143
25.4
144
1.0
145
0.0
146
1.0
147
0.09
 71
0.0
 72
0.0
 73
1
 74
1
 75
0
 76
0
 77
0
 78
4
170
0
171
2
172
0
173
0
174
0
175
0
176
0
177
0
178
0
270
2
271
1
272
1
273
2
274
2
275
0
280
0
281
0
282
0
283
1
284
4
285
0
286
0
287
3
288
0
340
11
341
216
342
216
343
216
344
216
  0
DIMSTYLE
105
21E
100
AcDbSymbolTableRecord
100
AcDbDimStyleTableRecord
  2
DIMSTYLE_2
 70
0
  3

  4

 40
1.0
 41
0.1875
 42
0.0625
 43
0.38
 44
0.18
 45
0.0
 46
0.0
 47
0.1
 48
0.1
140
0.1
141
0.09
142
0.0
143
25.4
144
1.0
145
0.0
146
1.0
147
0.09
 71
0.0
 72
0.0
 73
1
 74
1
 75
0
 76
0
 77
0
 78
4
170
0
171
2
172
0
173
0
174
0
175
0
176
0
177
0
178
0
270
2
271
1
272
1
273
2
274
2
275
0
280
0
281
0
282
0
283
1
284
4
285
0
286
0
287
3
288
0
340
11
341
216
342
216
343
216
344
216
  0
ENDTAB
  0
ENDSEC
  0
SECTION
  2
BLOCKS
  0
BLOCK
  5
20
100
AcDbEntity
  8
0
100
AcDbBlockBegin
  2
*Model_Space
 70
0
 10
0.0
 20
0.0
 30
0.0
  3
*Model_Space
  1

  0
ENDBLK
  5
21
100
AcDbEntity
  8
0
100
AcDbBlockEnd
  0
BLOCK
  5
1C
100
AcDbEntity
  8
0
100
AcDbBlockBegin
  2
*Paper_Space
 70
0
 10
0.0
 20
0.0
 30
0.0
  3
*Paper_Space
  1

  0
ENDBLK
  5
1D
100
AcDbEntity
  8
0
100
AcDbBlockEnd
  0
BLOCK
  5
21F
100
AcDbEntity
  8
0
100
AcDbBlockBegin
 62
2
  6
CONTINUOUS
  2
BANNER_LOGO_TITLEBLOCK_BL0
 70
64
 10
12.9086867042
 20
2.5403783405
  3
BANNER_LOGO_TITLEBLOCK_BL0
  1

  0
ELLIPSE
  5
220
100
AcDbEntity
  8
0
100
AcDbEllipse
 62
2
  6
CONTINUOUS
 10
12.9046654608
 20
2.5403783405
 30
0.0
 11
-0.8250004575
 21
0.0
 31
0.0
 40
0.218572
 41
0.0
 42
6.2831853072
  0
ARC
  5
221
100
AcDbEntity
  8
0
100
AcDbCircle
 62
2
  6
CONTINUOUS
 10
12.400005721
 20
2.5168763464
 40
0.0153945295
100
AcDbArc
 50
354.0454548824
 51
5.1878013979
  0
ARC
  5
222
100
AcDbEntity
  8
0
100
AcDbCircle
 62
2
  6
CONTINUOUS
 10
12.3931760319
 20
2.5166878286
 40
0.0222174455
100
AcDbArc
 50
4.0793399388
 51
69.834329283
  0
LINE
  5
223
100
AcDbEntity
  8
0
100
AcDbLine
 62
2
  6
CONTINUOUS
 10
12.4008351814
 20
2.5375433389
 11
12.3907841758
 21
2.5410923409
  0
LINE
  5
224
100
AcDbEntity
  8
0
100
AcDbLine
 62
2
  6
CONTINUOUS
 10
12.3907841758
 20
2.5410923409
 11
12.3990241804
 21
2.5458683435
  0
ARC
  5
225
100
AcDbEntity
  8
0
100
AcDbCircle
 62
2
  6
CONTINUOUS
 10
12.3771587979
 20
2.5826952352
 40
0.0428289026
100
AcDbArc
 50
300.6990502959
 51
319.0591802498
  0
ARC
  5
226
100
AcDbEntity
  8
0
100
AcDbCircle
 62
2
  6
CONTINUOUS
 10
12.3971873948
 20
2.5665668817
 40
0.0171568255
100
AcDbArc
 50
315.9145124245
 51
16.0049121282
  0
ARC
  5
227
100
AcDbEntity
  8
0
100
AcDbCircle
 62
2
  6
CONTINUOUS
 10
12.3922357827
 20
2.5632132173
 40
0.0229166529
100
AcDbArc
 50
20.6563876465
 51
62.3316896973
  0
ARC
  5
228
100
AcDbEntity
  8
0
100
AcDbCircle
 62
2
  6
CONTINUOUS
 10
12.371573659
 20
2.5302846524
 40
0.061747717
100
AcDbArc
 50
59.5385584989
 51
90.0050977555
  0
LINE
  5
229
100
AcDbEntity
  8
0
100
AcDbLine
 62
2
  6
CONTINUOUS
 10
12.3715681652
 20
2.5920323691
 11
12.2055050731
 21
2.5920323691
  0
ARC
  5
22A
100
AcDbEntity
  8
0
100
AcDbCircle
 62
2
  6
CONTINUOUS
 10
12.2055050712
 20
2.5895573696
 40
0.0024749995
100
AcDbArc
 50
89.9999571957
 51
180.0000428043
  0
LINE
  5
22B
100
AcDbEntity
  8
0
100
AcDbLine
 62
2
  6
CONTINUOUS
 10
12.2030300717
 20
2.5895573678
 11
12.2030300717
 21
2.5697573568
  0
ARC
  5
22C
100
AcDbEntity
  8
0
100
AcDbCircle
 62
2
  6
CONTINUOUS
 10
12.2055050712
 20
2.5697573549
 40
0.0024749995
100
AcDbArc
 50
179.9999571957
 51
270.0000428043
  0
LINE
  5
22D
100
AcDbEntity
  8
0
100
AcDbLine
 62
2
  6
CONTINUOUS
 10
12.2055050731
 20
2.5672823554
 11
12.2294470864
 21
2.5672823554
  0
ARC
  5
22E
100
AcDbEntity
  8
0
100
AcDbCircle
 62
2
  6
CONTINUOUS
 10
12.2294470882
 20
2.5648073559
 40
0.0024749995
100
AcDbArc
 50
359.9999571957
 51
90.0000428043
  0
LINE
  5
22F
100
AcDbEntity
  8
0
100
AcDbLine
 62
2
  6
CONTINUOUS
 10
12.2319220877
 20
2.564807354
 11
12.2319220877
 21
2.5184523283
  0
ARC
  5
230
100
AcDbEntity
  8
0
100
AcDbCircle
 62
2
  6
CONTINUOUS
 10
12.2294470882
 20
2.5184523265
 40
0.0024749995
100
AcDbArc
 50
269.9999571957
 51
0.0000428043
  0
LINE
  5
231
100
AcDbEntity
  8
0
100
AcDbLine
 62
2
  6
CONTINUOUS
 10
12.2294470864
 20
2.515977327
 11
12.2055050731
 21
2.515977327
  0
ARC
  5
232
100
AcDbEntity
  8
0
100
AcDbCircle
 62
2
  6
CONTINUOUS
 10
12.2055050712
 20
2.5135023274
 40
0.0024749995
100
AcDbArc
 50
89.9999571957
 51
180.0000428043
  0
LINE
  5
233
100
AcDbEntity
  8
0
100
AcDbLine
 62
2
  6
CONTINUOUS
 10
12.2030300717
 20
2.5135023256
 11
12.2030300717
 21
2.4937023146
  0
ARC
  5
234
100
AcDbEntity
  8
0
100
AcDbCircle
 62
2
  6
CONTINUOUS
 10
12.2055050712
 20
2.4937023128
 40
0.0024749995
100
AcDbArc
 50
179.9999571957
 51
270.0000428043
  0
LINE
  5
235
100
AcDbEntity
  8
0
100
AcDbLine
 62
2
  6
CONTINUOUS
 10
12.2055050731
 20
2.4912273132
 11
12.3819511709
 21
2.4912273132
  0
ARC
  5
236
100
AcDbEntity
  8
0
100
AcDbCircle
 62
2
  6
CONTINUOUS
 10
12.3792298263
 20
2.539634765
 40
0.048483885
100
AcDbArc
 50
273.21763719
 51
303.0749121182
  0
ARC
  5
237
100
AcDbEntity
  8
0
100
AcDbCircle
 62
2
  6
CONTINUOUS
 10
12.3940692204
 20
2.5168671561
 40
0.0213072145
100
AcDbArc
 50
303.0488228549
 51
355.7263138674
  0
LINE
  5
238
100
AcDbEntity
  8
0
100
AcDbLine
 62
2
  6
CONTINUOUS
 10
12.2949101227
 20
2.5499573458
 11
12.3362731456
 21
2.5499573458
  0
ARC
  5
239
100
AcDbEntity
  8
0
100
AcDbCircle
 62
2
  6
CONTINUOUS
 10
12.3362731456
 20
2.5586198506
 40
0.0086625048
100
AcDbArc
 50
270.0
 51
90.0
  0
LINE
  5
23A
100
AcDbEntity
  8
0
100
AcDbLine
 62
2
  6
CONTINUOUS
 10
12.3362731456
 20
2.5672823554
 11
12.2949101227
 21
2.5672823554
  0
ARC
  5
23B
100
AcDbEntity
  8
0
100
AcDbCircle
 62
2
  6
CONTINUOUS
 10
12.2949101208
 20
2.5648073559
 40
0.0024749995
100
AcDbArc
 50
89.9999571957
 51
180.0000428043
  0
LINE
  5
23C
100
AcDbEntity
  8
0
100
AcDbLine
 62
2
  6
CONTINUOUS
 10
12.2924351213
 20
2.564807354
 11
12.2924351213
 21
2.5524323472
  0
ARC
  5
23D
100
AcDbEntity
  8
0
100
AcDbCircle
 62
2
  6
CONTINUOUS
 10
12.2949101208
 20
2.5524323453
 40
0.0024749995
100
AcDbArc
 50
179.9999571957
 51
270.0000428043
  0
LINE
  5
23E
100
AcDbEntity
  8
0
100
AcDbLine
 62
2
  6
CONTINUOUS
 10
12.2924351213
 20
2.5184523283
 11
12.2924351213
 21
2.5308273352
  0
ARC
  5
23F
100
AcDbEntity
  8
0
100
AcDbCircle
 62
2
  6
CONTINUOUS
 10
12.2949101208
 20
2.530827337
 40
0.0024749995
100
AcDbArc
 50
89.9999571957
 51
180.0000428043
  0
LINE
  5
240
100
AcDbEntity
  8
0
100
AcDbLine
 62
2
  6
CONTINUOUS
 10
12.2949101227
 20
2.5333023366
 11
12.3362731456
 21
2.5333023366
  0
ARC
  5
241
100
AcDbEntity
  8
0
100
AcDbCircle
 62
2
  6
CONTINUOUS
 10
12.3362731456
 20
2.5246398318
 40
0.0086625048
100
AcDbArc
 50
270.0
 51
90.0
  0
LINE
  5
242
100
AcDbEntity
  8
0
100
AcDbLine
 62
2
  6
CONTINUOUS
 10
12.3362731456
 20
2.515977327
 11
12.2949101227
 21
2.515977327
  0
ARC
  5
243
100
AcDbEntity
  8
0
100
AcDbCircle
 62
2
  6
CONTINUOUS
 10
12.2949101208
 20
2.5184523265
 40
0.0024749995
100
AcDbArc
 50
179.9999571957
 51
270.0000428043
  0
ARC
  5
244
100
AcDbEntity
  8
0
100
AcDbCircle
 62
2
  6
CONTINUOUS
 10
13.5806801742
 20
2.5212486481
 40
0.044722495
100
AcDbArc
 50
195.531588407
 51
204.7624440448
  0
LINE
  5
245
100
AcDbEntity
  8
0
100
AcDbLine
 62
2
  6
CONTINUOUS
 10
13.5375908118
 20
2.5092733232
 11
13.5357868108
 21
2.5153423266
  0
ARC
  5
246
100
AcDbEntity
  8
0
100
AcDbCircle
 62
2
  6
CONTINUOUS
 10
13.4974076135
 20
2.5055452462
 40
0.0396099176
100
AcDbArc
 50
14.3201081283
 51
22.4984722084
  0
ARC
  5
247
100
AcDbEntity
  8
0
100
AcDbCircle
 62
2
  6
CONTINUOUS
 10
13.5201739219
 20
2.5145168728
 40
0.0151491919
100
AcDbArc
 50
24.098260853
 51
63.0369451818
  0
ARC
  5
248
100
AcDbEntity
  8
0
100
AcDbCircle
 62
2
  6
CONTINUOUS
 10
13.5161192671
 20
2.5062372524
 40
0.0243676582
100
AcDbArc
 50
63.3666028271
 51
90.3937697637
  0
LINE
  5
249
100
AcDbEntity
  8
0
100
AcDbLine
 62
2
  6
CONTINUOUS
 10
13.5159517998
 20
2.5306043351
 11
13.4883447845
 21
2.5306043351
  0
ARC
  5
24A
100
AcDbEntity
  8
0
100
AcDbCircle
 62
2
  6
CONTINUOUS
 10
13.4883447827
 20
2.5281293355
 40
0.0024749995
100
AcDbArc
 50
89.9999571957
 51
180.0000428043
  0
LINE
  5
24B
100
AcDbEntity
  8
0
100
AcDbLine
 62
2
  6
CONTINUOUS
 10
13.4858697831
 20
2.5281293337
 11
13.4858697831
 21
2.5184303283
  0
ARC
  5
24C
100
AcDbEntity
  8
0
100
AcDbCircle
 62
2
  6
CONTINUOUS
 10
13.4883447827
 20
2.5184303265
 40
0.0024749995
100
AcDbArc
 50
179.9999571957
 51
270.0000428043
  0
LINE
  5
24D
100
AcDbEntity
  8
0
100
AcDbLine
 62
2
  6
CONTINUOUS
 10
13.4883447845
 20
2.5159553269
 11
13.5130037982
 21
2.5159553269
  0
ARC
  5
24E
100
AcDbEntity
  8
0
100
AcDbCircle
 62
2
  6
CONTINUOUS
 10
13.5130038
 20
2.5134803274
 40
0.0024749995
100
AcDbArc
 50
359.9999571957
 51
90.0000428043
  0
LINE
  5
24F
100
AcDbEntity
  8
0
100
AcDbLine
 62
2
  6
CONTINUOUS
 10
13.5154787995
 20
2.5134803256
 11
13.5154787995
 21
2.4937023146
  0
ARC
  5
250
100
AcDbEntity
  8
0
100
AcDbCircle
 62
2
  6
CONTINUOUS
 10
13.5130038
 20
2.4937023128
 40
0.0024749995
100
AcDbArc
 50
269.9999571957
 51
0.0000428043
  0
LINE
  5
251
100
AcDbEntity
  8
0
100
AcDbLine
 62
2
  6
CONTINUOUS
 10
13.5130037982
 20
2.4912273132
 11
13.3994327352
 21
2.4912273132
  0
ARC
  5
252
100
AcDbEntity
  8
0
100
AcDbCircle
 62
2
  6
CONTINUOUS
 10
13.3994327333
 20
2.4937023128
 40
0.0024749995
100
AcDbArc
 50
179.9999571957
 51
270.0000428043
  0
LINE
  5
253
100
AcDbEntity
  8
0
100
AcDbLine
 62
2
  6
CONTINUOUS
 10
13.3969577338
 20
2.4937023146
 11
13.3969577338
 21
2.5135023256
  0
ARC
  5
254
100
AcDbEntity
  8
0
100
AcDbCircle
 62
2
  6
CONTINUOUS
 10
13.3994327333
 20
2.5135023274
 40
0.0024749995
100
AcDbArc
 50
89.9999571957
 51
180.0000428043
  0
LINE
  5
255
100
AcDbEntity
  8
0
100
AcDbLine
 62
2
  6
CONTINUOUS
 10
13.3994327352
 20
2.515977327
 11
13.4221787478
 21
2.515977327
  0
ARC
  5
256
100
AcDbEntity
  8
0
100
AcDbCircle
 62
2
  6
CONTINUOUS
 10
13.4221787497
 20
2.5184523265
 40
0.0024749995
100
AcDbArc
 50
269.9999571957
 51
0.0000428042
  0
LINE
  5
257
100
AcDbEntity
  8
0
100
AcDbLine
 62
2
  6
CONTINUOUS
 10
13.4246537492
 20
2.5184523283
 11
13.4246537492
 21
2.564807354
  0
ARC
  5
258
100
AcDbEntity
  8
0
100
AcDbCircle
 62
2
  6
CONTINUOUS
 10
13.4221787497
 20
2.5648073559
 40
0.0024749995
100
AcDbArc
 50
359.9999571957
 51
90.0000428043
  0
LINE
  5
259
100
AcDbEntity
  8
0
100
AcDbLine
 62
2
  6
CONTINUOUS
 10
13.4221787478
 20
2.5672823554
 11
13.3994327352
 21
2.5672823554
  0
ARC
  5
25A
100
AcDbEntity
  8
0
100
AcDbCircle
 62
2
  6
CONTINUOUS
 10
13.3994327333
 20
2.5697573549
 40
0.0024749995
100
AcDbArc
 50
179.9999571957
 51
270.0000428043
  0
LINE
  5
25B
100
AcDbEntity
  8
0
100
AcDbLine
 62
2
  6
CONTINUOUS
 10
13.3969577338
 20
2.5697573568
 11
13.3969577338
 21
2.5895573678
  0
ARC
  5
25C
100
AcDbEntity
  8
0
100
AcDbCircle
 62
2
  6
CONTINUOUS
 10
13.3994327333
 20
2.5895573696
 40
0.0024749995
100
AcDbArc
 50
89.9999571957
 51
180.0000428043
  0
LINE
  5
25D
100
AcDbEntity
  8
0
100
AcDbLine
 62
2
  6
CONTINUOUS
 10
13.3994327352
 20
2.5920323691
 11
13.5490138181
 21
2.5920323691
  0
ARC
  5
25E
100
AcDbEntity
  8
0
100
AcDbCircle
 62
2
  6
CONTINUOUS
 10
13.5463505148
 20
2.4094934586
 40
0.1825583387
100
AcDbArc
 50
79.8618509324
 51
89.1640948679
  0
ARC
  5
25F
100
AcDbEntity
  8
0
100
AcDbCircle
 62
2
  6
CONTINUOUS
 10
13.5726548052
 20
2.5503169747
 40
0.039319019
100
AcDbArc
 50
59.1202086415
 51
81.4730239328
  0
ARC
  5
260
100
AcDbEntity
  8
0
100
AcDbCircle
 62
2
  6
CONTINUOUS
 10
13.5783142014
 20
2.5566516438
 40
0.0310192946
100
AcDbArc
 50
34.7540871
 51
62.0879016178
  0
ARC
  5
261
100
AcDbEntity
  8
0
100
AcDbCircle
 62
2
  6
CONTINUOUS
 10
13.5900029525
 20
2.565201245
 40
0.0165459396
100
AcDbArc
 50
1.548452892
 51
33.5033152417
  0
ARC
  5
262
100
AcDbEntity
  8
0
100
AcDbCircle
 62
2
  6
CONTINUOUS
 10
13.5932995477
 20
2.5653696972
 40
0.0132462337
100
AcDbArc
 50
331.1510006998
 51
1.205404301
  0
ARC
  5
263
100
AcDbEntity
  8
0
100
AcDbCircle
 62
2
  6
CONTINUOUS
 10
13.5822888914
 20
2.5720482849
 40
0.0261183659
100
AcDbArc
 50
305.6373831893
 51
329.9727629745
  0
ARC
  5
264
100
AcDbEntity
  8
0
100
AcDbCircle
 62
2
  6
CONTINUOUS
 10
13.5519569538
 20
2.6152551345
 40
0.0789082104
100
AcDbArc
 50
292.906155071
 51
305.2574666259
  0
ARC
  5
265
100
AcDbEntity
  8
0
100
AcDbCircle
 62
2
  6
CONTINUOUS
 10
13.5282557878
 20
2.4386010294
 40
0.117346916
100
AcDbArc
 50
58.614769177
 51
62.3737227606
  0
ARC
  5
266
100
AcDbEntity
  8
0
100
AcDbCircle
 62
2
  6
CONTINUOUS
 10
13.5761387404
 20
2.5167282896
 40
0.0257145923
100
AcDbArc
 50
39.3804255939
 51
59.0361096173
  0
ARC
  5
267
100
AcDbEntity
  8
0
100
AcDbCircle
 62
2
  6
CONTINUOUS
 10
13.5750183849
 20
2.5166552064
 40
0.0266349791
100
AcDbArc
 50
20.3630922153
 51
37.9727053099
  0
ARC
  5
268
100
AcDbEntity
  8
0
100
AcDbCircle
 62
2
  6
CONTINUOUS
 10
13.5571178432
 20
2.509473798
 40
0.0459185159
100
AcDbArc
 50
15.6740290068
 51
20.9917271228
  0
ARC
  5
269
100
AcDbEntity
  8
0
100
AcDbCircle
 62
2
  6
CONTINUOUS
 10
13.6156881783
 20
2.525116781
 40
0.0147197649
100
AcDbArc
 50
192.7054516565
 51
206.0594861022
  0
ARC
  5
26A
100
AcDbEntity
  8
0
100
AcDbCircle
 62
2
  6
CONTINUOUS
 10
13.6071938412
 20
2.5209082945
 40
0.0052403997
100
AcDbArc
 50
205.5232099488
 51
227.5054868079
  0
ARC
  5
26B
100
AcDbEntity
  8
0
100
AcDbCircle
 62
2
  6
CONTINUOUS
 10
13.6054655419
 20
2.5190929218
 40
0.0027347709
100
AcDbArc
 50
228.5117626737
 51
266.1485845754
  0
LINE
  5
26C
100
AcDbEntity
  8
0
100
AcDbLine
 62
2
  6
CONTINUOUS
 10
13.6052818493
 20
2.5163643272
 11
13.60639085
 21
2.5163643272
  0
ARC
  5
26D
100
AcDbEntity
  8
0
100
AcDbCircle
 62
2
  6
CONTINUOUS
 10
13.6063292954
 20
2.5296129864
 40
0.0132488022
100
AcDbArc
 50
270.266200055
 51
281.2404888597
  0
ARC
  5
26E
100
AcDbEntity
  8
0
100
AcDbCircle
 62
2
  6
CONTINUOUS
 10
13.6075235364
 20
2.5238762928
 40
0.0073895522
100
AcDbArc
 50
280.8288201977
 51
305.0837508495
  0
ARC
  5
26F
100
AcDbEntity
  8
0
100
AcDbCircle
 62
2
  6
CONTINUOUS
 10
13.607924718
 20
2.5230254464
 40
0.0064647042
100
AcDbArc
 50
306.5086174083
 51
340.2162360092
  0
ARC
  5
270
100
AcDbEntity
  8
0
100
AcDbCircle
 62
2
  6
CONTINUOUS
 10
13.6027235414
 20
2.524769508
 40
0.0119498009
100
AcDbArc
 50
340.7883861657
 51
1.1691452593
  0
LINE
  5
271
100
AcDbEntity
  8
0
100
AcDbLine
 62
2
  6
CONTINUOUS
 10
13.6146708546
 20
2.525013332
 11
13.6146708546
 21
2.5276393334
  0
ARC
  5
272
100
AcDbEntity
  8
0
100
AcDbCircle
 62
2
  6
CONTINUOUS
 10
13.6171458541
 20
2.5276393353
 40
0.0024749995
100
AcDbArc
 50
89.9999571957
 51
180.0000428043
  0
LINE
  5
273
100
AcDbEntity
  8
0
100
AcDbLine
 62
2
  6
CONTINUOUS
 10
13.6171458559
 20
2.5301143348
 11
13.6292558626
 21
2.5301143348
  0
ARC
  5
274
100
AcDbEntity
  8
0
100
AcDbCircle
 62
2
  6
CONTINUOUS
 10
13.6292558645
 20
2.5276393353
 40
0.0024749995
100
AcDbArc
 50
359.9999571957
 51
90.0000428043
  0
LINE
  5
275
100
AcDbEntity
  8
0
100
AcDbLine
 62
2
  6
CONTINUOUS
 10
13.631730864
 20
2.5276393334
 11
13.631730864
 21
2.516087327
  0
ARC
  5
276
100
AcDbEntity
  8
0
100
AcDbCircle
 62
2
  6
CONTINUOUS
 10
13.6141751675
 20
2.5161916447
 40
0.0175560065
100
AcDbArc
 50
332.2279060967
 51
359.6595469939
  0
ARC
  5
277
100
AcDbEntity
  8
0
100
AcDbCircle
 62
2
  6
CONTINUOUS
 10
13.6048681567
 20
2.5210861501
 40
0.0280715479
100
AcDbArc
 50
308.5071794988
 51
332.2400656899
  0
ARC
  5
278
100
AcDbEntity
  8
0
100
AcDbCircle
 62
2
  6
CONTINUOUS
 10
13.5978759713
 20
2.5286873679
 40
0.0383802683
100
AcDbArc
 50
288.7656836787
 51
309.6104317088
  0
ARC
  5
279
100
AcDbEntity
  8
0
100
AcDbCircle
 62
2
  6
CONTINUOUS
 10
13.6036139387
 20
2.5111006186
 40
0.0198837666
100
AcDbArc
 50
271.8586572978
 51
289.4131338543
  0
LINE
  5
27A
100
AcDbEntity
  8
0
100
AcDbLine
 62
2
  6
CONTINUOUS
 10
13.6042588488
 20
2.4912273132
 11
13.5568948225
 21
2.4912273132
  0
ARC
  5
27B
100
AcDbEntity
  8
0
100
AcDbCircle
 62
2
  6
CONTINUOUS
 10
13.5577001432
 20
2.5085494649
 40
0.0173408616
100
AcDbArc
 50
232.4713476722
 51
267.338189944
  0
ARC
  5
27C
100
AcDbEntity
  8
0
100
AcDbCircle
 62
2
  6
CONTINUOUS
 10
13.5607987082
 20
2.5143997688
 40
0.0238935861
100
AcDbArc
 50
209.8247607259
 51
235.1255079367
  0
ARC
  5
27D
100
AcDbEntity
  8
0
100
AcDbCircle
 62
2
  6
CONTINUOUS
 10
13.5295131508
 20
2.5629115009
 40
0.0110815393
100
AcDbArc
 50
306.758405961
 51
320.4502234234
  0
ARC
  5
27E
100
AcDbEntity
  8
0
100
AcDbCircle
 62
2
  6
CONTINUOUS
 10
13.5238839599
 20
2.5706523294
 40
0.0206523367
100
AcDbArc
 50
289.6883413472
 51
306.4184925496
  0
ARC
  5
27F
100
AcDbEntity
  8
0
100
AcDbCircle
 62
2
  6
CONTINUOUS
 10
13.5219564542
 20
2.5750459767
 40
0.0254407115
100
AcDbArc
 50
270.7327484175
 51
290.441894219
  0
LINE
  5
280
100
AcDbEntity
  8
0
100
AcDbLine
 62
2
  6
CONTINUOUS
 10
13.5222818033
 20
2.5496073456
 11
13.4883447845
 21
2.5496073456
  0
ARC
  5
281
100
AcDbEntity
  8
0
100
AcDbCircle
 62
2
  6
CONTINUOUS
 10
13.4883447827
 20
2.5520823451
 40
0.0024749995
100
AcDbArc
 50
179.9999571957
 51
270.0000428043
  0
LINE
  5
282
100
AcDbEntity
  8
0
100
AcDbLine
 62
2
  6
CONTINUOUS
 10
13.4858697831
 20
2.552082347
 11
13.4858697831
 21
2.564807354
  0
ARC
  5
283
100
AcDbEntity
  8
0
100
AcDbCircle
 62
2
  6
CONTINUOUS
 10
13.4883447827
 20
2.5648073559
 40
0.0024749995
100
AcDbArc
 50
89.9999571957
 51
180.0000428043
  0
LINE
  5
284
100
AcDbEntity
  8
0
100
AcDbLine
 62
2
  6
CONTINUOUS
 10
13.4883447845
 20
2.5672823554
 11
13.5251458049
 21
2.5672823554
  0
ARC
  5
285
100
AcDbEntity
  8
0
100
AcDbCircle
 62
2
  6
CONTINUOUS
 10
13.5236009174
 20
2.5388278764
 40
0.0284963867
100
AcDbArc
 50
70.3834917948
 51
86.8922743861
  0
ARC
  5
286
100
AcDbEntity
  8
0
100
AcDbCircle
 62
2
  6
CONTINUOUS
 10
13.5284605274
 20
2.5518696094
 40
0.0145814632
100
AcDbArc
 50
54.6746025112
 51
71.1660573124
  0
ARC
  5
287
100
AcDbEntity
  8
0
100
AcDbCircle
 62
2
  6
CONTINUOUS
 10
13.5335900184
 20
2.5587235346
 40
0.0060275915
100
AcDbArc
 50
20.9055592135
 51
56.7851676243
  0
ARC
  5
288
100
AcDbEntity
  8
0
100
AcDbCircle
 62
2
  6
CONTINUOUS
 10
13.5348905773
 20
2.5593838168
 40
0.0045795888
100
AcDbArc
 50
355.6235353944
 51
18.9942678268
  0
ARC
  5
289
100
AcDbEntity
  8
0
100
AcDbCircle
 62
2
  6
CONTINUOUS
 10
13.533683767
 20
2.559677593
 40
0.0058087709
100
AcDbArc
 50
318.8515287446
 51
353.6422345323
  0
LINE
  5
28A
100
AcDbEntity
  8
0
100
AcDbLine
 62
2
  6
CONTINUOUS
 10
12.672340332
 20
2.5920323691
 11
12.7727983877
 21
2.5920323691
  0
ARC
  5
28B
100
AcDbEntity
  8
0
100
AcDbCircle
 62
2
  6
CONTINUOUS
 10
12.7727985224
 20
2.5895582013
 40
0.0024741678
100
AcDbArc
 50
46.3477981899
 51
90.0031206038
  0
LINE
  5
28C
100
AcDbEntity
  8
0
100
AcDbLine
 62
2
  6
CONTINUOUS
 10
12.7745063886
 20
2.5913483688
 11
12.8345394219
 21
2.534068337
  0
ARC
  5
28D
100
AcDbEntity
  8
0
100
AcDbCircle
 62
2
  6
CONTINUOUS
 10
12.8362481229
 20
2.5358592748
 40
0.0024753014
100
AcDbArc
 50
226.3461263059
 51
0.0014637321
  0
LINE
  5
28E
100
AcDbEntity
  8
0
100
AcDbLine
 62
2
  6
CONTINUOUS
 10
12.8387234242
 20
2.535859338
 11
12.8387234242
 21
2.564807354
  0
ARC
  5
28F
100
AcDbEntity
  8
0
100
AcDbCircle
 62
2
  6
CONTINUOUS
 10
12.8362484247
 20
2.5648073559
 40
0.0024749995
100
AcDbArc
 50
359.9999571957
 51
90.0000428043
  0
LINE
  5
290
100
AcDbEntity
  8
0
100
AcDbLine
 62
2
  6
CONTINUOUS
 10
12.8362484229
 20
2.5672823554
 11
12.8174724125
 21
2.5672823554
  0
ARC
  5
291
100
AcDbEntity
  8
0
100
AcDbCircle
 62
2
  6
CONTINUOUS
 10
12.8174724106
 20
2.5697573549
 40
0.0024749995
100
AcDbArc
 50
179.9999571957
 51
270.0000428043
  0
LINE
  5
292
100
AcDbEntity
  8
0
100
AcDbLine
 62
2
  6
CONTINUOUS
 10
12.8149974111
 20
2.5697573568
 11
12.8149974111
 21
2.5895573678
  0
ARC
  5
293
100
AcDbEntity
  8
0
100
AcDbCircle
 62
2
  6
CONTINUOUS
 10
12.8174724106
 20
2.5895573696
 40
0.0024749995
100
AcDbArc
 50
89.9999571957
 51
180.0000428043
  0
LINE
  5
294
100
AcDbEntity
  8
0
100
AcDbLine
 62
2
  6
CONTINUOUS
 10
12.8174724125
 20
2.5920323691
 11
12.8914734535
 21
2.5920323691
  0
ARC
  5
295
100
AcDbEntity
  8
0
100
AcDbCircle
 62
2
  6
CONTINUOUS
 10
12.8914734553
 20
2.5895573696
 40
0.0024749995
100
AcDbArc
 50
359.9999571957
 51
90.0000428043
  0
LINE
  5
296
100
AcDbEntity
  8
0
100
AcDbLine
 62
2
  6
CONTINUOUS
 10
12.8939484549
 20
2.5895573678
 11
12.8939484549
 21
2.5697573568
  0
ARC
  5
297
100
AcDbEntity
  8
0
100
AcDbCircle
 62
2
  6
CONTINUOUS
 10
12.8914734553
 20
2.5697573549
 40
0.0024749995
100
AcDbArc
 50
269.9999571957
 51
0.0000428043
  0
LINE
  5
298
100
AcDbEntity
  8
0
100
AcDbLine
 62
2
  6
CONTINUOUS
 10
12.8914734535
 20
2.5672823554
 11
12.8735404436
 21
2.5672823554
  0
ARC
  5
299
100
AcDbEntity
  8
0
100
AcDbCircle
 62
2
  6
CONTINUOUS
 10
12.8735404417
 20
2.5648073559
 40
0.0024749995
100
AcDbArc
 50
89.9999571957
 51
180.0000428043
  0
LINE
  5
29A
100
AcDbEntity
  8
0
100
AcDbLine
 62
2
  6
CONTINUOUS
 10
12.8710654422
 20
2.564807354
 11
12.8710654422
 21
2.4937023146
  0
ARC
  5
29B
100
AcDbEntity
  8
0
100
AcDbCircle
 62
2
  6
CONTINUOUS
 10
12.8685904427
 20
2.4937023128
 40
0.0024749995
100
AcDbArc
 50
269.9999571957
 51
0.0000428043
  0
LINE
  5
29C
100
AcDbEntity
  8
0
100
AcDbLine
 62
2
  6
CONTINUOUS
 10
12.8685904408
 20
2.4912273132
 11
12.7943853997
 21
2.4912273132
  0
ARC
  5
29D
100
AcDbEntity
  8
0
100
AcDbCircle
 62
2
  6
CONTINUOUS
 10
12.7943847649
 20
2.4937027294
 40
0.0024754162
100
AcDbArc
 50
226.3593695813
 51
270.0146919953
  0
LINE
  5
29E
100
AcDbEntity
  8
0
100
AcDbLine
 62
2
  6
CONTINUOUS
 10
12.7926763987
 20
2.4919113136
 11
12.7293963636
 21
2.5522893471
  0
ARC
  5
29F
100
AcDbEntity
  8
0
100
AcDbCircle
 62
2
  6
CONTINUOUS
 10
12.7276876627
 20
2.5504984093
 40
0.0024753014
100
AcDbArc
 50
46.3461263059
 51
180.0014637321
  0
LINE
  5
2A0
100
AcDbEntity
  8
0
100
AcDbLine
 62
2
  6
CONTINUOUS
 10
12.7252123613
 20
2.5504983461
 11
12.7252123613
 21
2.5184523283
  0
ARC
  5
2A1
100
AcDbEntity
  8
0
100
AcDbCircle
 62
2
  6
CONTINUOUS
 10
12.7276873608
 20
2.5184523265
 40
0.0024749995
100
AcDbArc
 50
179.9999571957
 51
270.0000428043
  0
LINE
  5
2A2
100
AcDbEntity
  8
0
100
AcDbLine
 62
2
  6
CONTINUOUS
 10
12.7276873627
 20
2.515977327
 11
12.7480043739
 21
2.515977327
  0
ARC
  5
2A3
100
AcDbEntity
  8
0
100
AcDbCircle
 62
2
  6
CONTINUOUS
 10
12.7480043758
 20
2.5135023274
 40
0.0024749995
100
AcDbArc
 50
359.9999571957
 51
90.0000428043
  0
LINE
  5
2A4
100
AcDbEntity
  8
0
100
AcDbLine
 62
2
  6
CONTINUOUS
 10
12.7504793753
 20
2.5135023256
 11
12.7504793753
 21
2.4937023146
  0
ARC
  5
2A5
100
AcDbEntity
  8
0
100
AcDbCircle
 62
2
  6
CONTINUOUS
 10
12.7480043758
 20
2.4937023128
 40
0.0024749995
100
AcDbArc
 50
269.9999571957
 51
0.0000428043
  0
LINE
  5
2A6
100
AcDbEntity
  8
0
100
AcDbLine
 62
2
  6
CONTINUOUS
 10
12.7480043739
 20
2.4912273132
 11
12.672340332
 21
2.4912273132
  0
ARC
  5
2A7
100
AcDbEntity
  8
0
100
AcDbCircle
 62
2
  6
CONTINUOUS
 10
12.6723403301
 20
2.4937023128
 40
0.0024749995
100
AcDbArc
 50
179.9999571957
 51
270.0000428043
  0
LINE
  5
2A8
100
AcDbEntity
  8
0
100
AcDbLine
 62
2
  6
CONTINUOUS
 10
12.6698653306
 20
2.4937023146
 11
12.6698653306
 21
2.5135023256
  0
ARC
  5
2A9
100
AcDbEntity
  8
0
100
AcDbCircle
 62
2
  6
CONTINUOUS
 10
12.6723403301
 20
2.5135023274
 40
0.0024749995
100
AcDbArc
 50
89.9999571957
 51
180.0000428043
  0
LINE
  5
2AA
100
AcDbEntity
  8
0
100
AcDbLine
 62
2
  6
CONTINUOUS
 10
12.672340332
 20
2.515977327
 11
12.6909873423
 21
2.515977327
  0
ARC
  5
2AB
100
AcDbEntity
  8
0
100
AcDbCircle
 62
2
  6
CONTINUOUS
 10
12.6909873442
 20
2.5184523265
 40
0.0024749995
100
AcDbArc
 50
269.9999571957
 51
0.0000428043
  0
LINE
  5
2AC
100
AcDbEntity
  8
0
100
AcDbLine
 62
2
  6
CONTINUOUS
 10
12.6934623437
 20
2.5184523283
 11
12.6934623437
 21
2.564807354
  0
ARC
  5
2AD
100
AcDbEntity
  8
0
100
AcDbCircle
 62
2
  6
CONTINUOUS
 10
12.6909873442
 20
2.5648073559
 40
0.0024749995
100
AcDbArc
 50
359.9999571957
 51
90.0000428043
  0
LINE
  5
2AE
100
AcDbEntity
  8
0
100
AcDbLine
 62
2
  6
CONTINUOUS
 10
12.6909873423
 20
2.5672823554
 11
12.672340332
 21
2.5672823554
  0
ARC
  5
2AF
100
AcDbEntity
  8
0
100
AcDbCircle
 62
2
  6
CONTINUOUS
 10
12.6723403301
 20
2.5697573549
 40
0.0024749995
100
AcDbArc
 50
179.9999571957
 51
270.0000428043
  0
LINE
  5
2B0
100
AcDbEntity
  8
0
100
AcDbLine
 62
2
  6
CONTINUOUS
 10
12.6698653306
 20
2.5697573568
 11
12.6698653306
 21
2.5895573678
  0
ARC
  5
2B1
100
AcDbEntity
  8
0
100
AcDbCircle
 62
2
  6
CONTINUOUS
 10
12.6723403301
 20
2.5895573696
 40
0.0024749995
100
AcDbArc
 50
89.9999571957
 51
180.0000428043
  0
LINE
  5
2B2
100
AcDbEntity
  8
0
100
AcDbLine
 62
2
  6
CONTINUOUS
 10
12.5246402501
 20
2.5655893545
 11
12.5175232461
 21
2.5543723483
  0
ARC
  5
2B3
100
AcDbEntity
  8
0
100
AcDbCircle
 62
2
  6
CONTINUOUS
 10
12.519613138
 20
2.5530463862
 40
0.0024750401
100
AcDbArc
 50
147.6063258012
 51
270.0025305754
  0
LINE
  5
2B4
100
AcDbEntity
  8
0
100
AcDbLine
 62
2
  6
CONTINUOUS
 10
12.5196132473
 20
2.5505713461
 11
12.5401702587
 21
2.5505713461
  0
ARC
  5
2B5
100
AcDbEntity
  8
0
100
AcDbCircle
 62
2
  6
CONTINUOUS
 10
12.5401702375
 20
2.5530465533
 40
0.0024752071
100
AcDbArc
 50
270.0004896793
 51
32.9089806818
  0
LINE
  5
2B6
100
AcDbEntity
  8
0
100
AcDbLine
 62
2
  6
CONTINUOUS
 10
12.5422482598
 20
2.5543913483
 11
12.5349892558
 21
2.5656073545
  0
ARC
  5
2B7
100
AcDbEntity
  8
0
100
AcDbCircle
 62
2
  6
CONTINUOUS
 10
12.532910715
 20
2.564262895
 40
0.0024754602
100
AcDbArc
 50
32.8959418573
 51
89.9875097202
  0
LINE
  5
2B8
100
AcDbEntity
  8
0
100
AcDbLine
 62
2
  6
CONTINUOUS
 10
12.5329112547
 20
2.5667383551
 11
12.5267302512
 21
2.5667383551
  0
ARC
  5
2B9
100
AcDbEntity
  8
0
100
AcDbCircle
 62
2
  6
CONTINUOUS
 10
12.5267301809
 20
2.5642631548
 40
0.0024752003
100
AcDbArc
 50
89.998372645
 51
147.602165307
  0
LINE
  5
2BA
100
AcDbEntity
  8
0
100
AcDbLine
 62
2
  6
CONTINUOUS
 10
12.548053263
 20
2.5284903339
 11
12.5536792662
 21
2.5197973291
  0
ARC
  5
2BB
100
AcDbEntity
  8
0
100
AcDbCircle
 62
2
  6
CONTINUOUS
 10
12.5516012439
 20
2.5184525341
 40
0.0024752071
100
AcDbArc
 50
270.0004896794
 51
32.9089806818
  0
LINE
  5
2BC
100
AcDbEntity
  8
0
100
AcDbLine
 62
2
  6
CONTINUOUS
 10
12.551601265
 20
2.515977327
 11
12.537150257
 21
2.515977327
  0
ARC
  5
2BD
100
AcDbEntity
  8
0
100
AcDbCircle
 62
2
  6
CONTINUOUS
 10
12.5371502552
 20
2.5135023274
 40
0.0024749995
100
AcDbArc
 50
89.9999571957
 51
180.0000428043
  0
LINE
  5
2BE
100
AcDbEntity
  8
0
100
AcDbLine
 62
2
  6
CONTINUOUS
 10
12.5346752556
 20
2.5135023256
 11
12.5346752556
 21
2.4937023146
  0
ARC
  5
2BF
100
AcDbEntity
  8
0
100
AcDbCircle
 62
2
  6
CONTINUOUS
 10
12.5371502552
 20
2.4937023128
 40
0.0024749995
100
AcDbArc
 50
179.9999571957
 51
270.0000428043
  0
LINE
  5
2C0
100
AcDbEntity
  8
0
100
AcDbLine
 62
2
  6
CONTINUOUS
 10
12.537150257
 20
2.4912273132
 11
12.6424313154
 21
2.4912273132
  0
ARC
  5
2C1
100
AcDbEntity
  8
0
100
AcDbCircle
 62
2
  6
CONTINUOUS
 10
12.6424313172
 20
2.4937023128
 40
0.0024749995
100
AcDbArc
 50
269.9999571957
 51
0.0000428043
  0
LINE
  5
2C2
100
AcDbEntity
  8
0
100
AcDbLine
 62
2
  6
CONTINUOUS
 10
12.6449063168
 20
2.4937023146
 11
12.6449063168
 21
2.5135023256
  0
ARC
  5
2C3
100
AcDbEntity
  8
0
100
AcDbCircle
 62
2
  6
CONTINUOUS
 10
12.6424313172
 20
2.5135023274
 40
0.0024749995
100
AcDbArc
 50
359.9999571957
 51
90.0000428043
  0
LINE
  5
2C4
100
AcDbEntity
  8
0
100
AcDbLine
 62
2
  6
CONTINUOUS
 10
12.6424313154
 20
2.515977327
 11
12.6224153043
 21
2.515977327
  0
ARC
  5
2C5
100
AcDbEntity
  8
0
100
AcDbCircle
 62
2
  6
CONTINUOUS
 10
12.6224154248
 20
2.518451368
 40
0.002474041
100
AcDbArc
 50
212.9056413127
 51
269.9972091756
  0
LINE
  5
2C6
100
AcDbEntity
  8
0
100
AcDbLine
 62
2
  6
CONTINUOUS
 10
12.6203383031
 20
2.5171073276
 11
12.5725822767
 21
2.5909023685
  0
ARC
  5
2C7
100
AcDbEntity
  8
0
100
AcDbCircle
 62
2
  6
CONTINUOUS
 10
12.570504655
 20
2.589557409
 40
0.0024749602
100
AcDbArc
 50
32.9172174468
 51
90.0087853097
  0
LINE
  5
2C8
100
AcDbEntity
  8
0
100
AcDbLine
 62
2
  6
CONTINUOUS
 10
12.5705042755
 20
2.5920323691
 11
12.5133292438
 21
2.5920323691
  0
ARC
  5
2C9
100
AcDbEntity
  8
0
100
AcDbCircle
 62
2
  6
CONTINUOUS
 10
12.5133291735
 20
2.5895571688
 40
0.0024752003
100
AcDbArc
 50
89.9983726451
 51
147.602165307
  0
LINE
  5
2CA
100
AcDbEntity
  8
0
100
AcDbLine
 62
2
  6
CONTINUOUS
 10
12.5112392426
 20
2.5908833685
 11
12.4644392167
 21
2.5171263276
  0
ARC
  5
2CB
100
AcDbEntity
  8
0
100
AcDbCircle
 62
2
  6
CONTINUOUS
 10
12.4623492858
 20
2.5184525273
 40
0.0024752003
100
AcDbArc
 50
269.9983726451
 51
327.602165307
  0
LINE
  5
2CC
100
AcDbEntity
  8
0
100
AcDbLine
 62
2
  6
CONTINUOUS
 10
12.4623492155
 20
2.515977327
 11
12.4394882028
 21
2.515977327
  0
ARC
  5
2CD
100
AcDbEntity
  8
0
100
AcDbCircle
 62
2
  6
CONTINUOUS
 10
12.439488201
 20
2.5135023274
 40
0.0024749995
100
AcDbArc
 50
89.9999571957
 51
180.0000428043
  0
LINE
  5
2CE
100
AcDbEntity
  8
0
100
AcDbLine
 62
2
  6
CONTINUOUS
 10
12.4370132015
 20
2.5135023256
 11
12.4370132015
 21
2.4937023146
  0
ARC
  5
2CF
100
AcDbEntity
  8
0
100
AcDbCircle
 62
2
  6
CONTINUOUS
 10
12.439488201
 20
2.4937023128
 40
0.0024749995
100
AcDbArc
 50
179.9999571957
 51
270.0000428043
  0
LINE
  5
2D0
100
AcDbEntity
  8
0
100
AcDbLine
 62
2
  6
CONTINUOUS
 10
12.4394882028
 20
2.4912273132
 11
12.5168642458
 21
2.4912273132
  0
ARC
  5
2D1
100
AcDbEntity
  8
0
100
AcDbCircle
 62
2
  6
CONTINUOUS
 10
12.5168642476
 20
2.4937023128
 40
0.0024749995
100
AcDbArc
 50
269.9999571957
 51
0.0000428043
  0
LINE
  5
2D2
100
AcDbEntity
  8
0
100
AcDbLine
 62
2
  6
CONTINUOUS
 10
12.5193392471
 20
2.4937023146
 11
12.5193392471
 21
2.5135023256
  0
ARC
  5
2D3
100
AcDbEntity
  8
0
100
AcDbCircle
 62
2
  6
CONTINUOUS
 10
12.5168642476
 20
2.5135023274
 40
0.0024749995
100
AcDbArc
 50
359.9999571957
 51
90.0000428043
  0
LINE
  5
2D4
100
AcDbEntity
  8
0
100
AcDbLine
 62
2
  6
CONTINUOUS
 10
12.5168642458
 20
2.515977327
 11
12.5055812395
 21
2.515977327
  0
ARC
  5
2D5
100
AcDbEntity
  8
0
100
AcDbCircle
 62
2
  6
CONTINUOUS
 10
12.5055811302
 20
2.518452367
 40
0.0024750401
100
AcDbArc
 50
147.6063258011
 51
270.0025305754
  0
LINE
  5
2D6
100
AcDbEntity
  8
0
100
AcDbLine
 62
2
  6
CONTINUOUS
 10
12.5034912383
 20
2.5197783291
 11
12.5090072414
 21
2.5284723339
  0
ARC
  5
2D7
100
AcDbEntity
  8
0
100
AcDbCircle
 62
2
  6
CONTINUOUS
 10
12.5110971723
 20
2.5271461342
 40
0.0024752003
100
AcDbArc
 50
89.998372645
 51
147.602165307
  0
LINE
  5
2D8
100
AcDbEntity
  8
0
100
AcDbLine
 62
2
  6
CONTINUOUS
 10
12.5110972426
 20
2.5296213345
 11
12.5459752619
 21
2.5296213345
  0
ARC
  5
2D9
100
AcDbEntity
  8
0
100
AcDbCircle
 62
2
  6
CONTINUOUS
 10
12.5459747223
 20
2.5271458744
 40
0.0024754602
100
AcDbArc
 50
32.8959418573
 51
89.9875097202
  0
LINE
  5
2DA
100
AcDbEntity
  8
0
100
AcDbLine
 62
2
  6
CONTINUOUS
 10
12.9205934696
 20
2.5920323691
 11
13.0210515254
 21
2.5920323691
  0
ARC
  5
2DB
100
AcDbEntity
  8
0
100
AcDbCircle
 62
2
  6
CONTINUOUS
 10
13.0210516601
 20
2.5895582013
 40
0.0024741678
100
AcDbArc
 50
46.3477981899
 51
90.0031206038
  0
LINE
  5
2DC
100
AcDbEntity
  8
0
100
AcDbLine
 62
2
  6
CONTINUOUS
 10
13.0227595263
 20
2.5913483688
 11
13.0827925596
 21
2.534068337
  0
ARC
  5
2DD
100
AcDbEntity
  8
0
100
AcDbCircle
 62
2
  6
CONTINUOUS
 10
13.0845012605
 20
2.5358592748
 40
0.0024753014
100
AcDbArc
 50
226.3461263059
 51
0.0014637321
  0
LINE
  5
2DE
100
AcDbEntity
  8
0
100
AcDbLine
 62
2
  6
CONTINUOUS
 10
13.0869765619
 20
2.535859338
 11
13.0869765619
 21
2.564807354
  0
ARC
  5
2DF
100
AcDbEntity
  8
0
100
AcDbCircle
 62
2
  6
CONTINUOUS
 10
13.0845015624
 20
2.5648073559
 40
0.0024749995
100
AcDbArc
 50
359.9999571957
 51
90.0000428043
  0
LINE
  5
2E0
100
AcDbEntity
  8
0
100
AcDbLine
 62
2
  6
CONTINUOUS
 10
13.0845015605
 20
2.5672823554
 11
13.0657255501
 21
2.5672823554
  0
ARC
  5
2E1
100
AcDbEntity
  8
0
100
AcDbCircle
 62
2
  6
CONTINUOUS
 10
13.0657255483
 20
2.5697573549
 40
0.0024749995
100
AcDbArc
 50
179.9999571957
 51
270.0000428043
  0
LINE
  5
2E2
100
AcDbEntity
  8
0
100
AcDbLine
 62
2
  6
CONTINUOUS
 10
13.0632505488
 20
2.5697573568
 11
13.0632505488
 21
2.5895573678
  0
ARC
  5
2E3
100
AcDbEntity
  8
0
100
AcDbCircle
 62
2
  6
CONTINUOUS
 10
13.0657255483
 20
2.5895573696
 40
0.0024749995
100
AcDbArc
 50
89.9999571957
 51
180.0000428043
  0
LINE
  5
2E4
100
AcDbEntity
  8
0
100
AcDbLine
 62
2
  6
CONTINUOUS
 10
13.0657255501
 20
2.5920323691
 11
13.1397265912
 21
2.5920323691
  0
ARC
  5
2E5
100
AcDbEntity
  8
0
100
AcDbCircle
 62
2
  6
CONTINUOUS
 10
13.139726593
 20
2.5895573696
 40
0.0024749995
100
AcDbArc
 50
359.9999571957
 51
90.0000428043
  0
LINE
  5
2E6
100
AcDbEntity
  8
0
100
AcDbLine
 62
2
  6
CONTINUOUS
 10
13.1422015925
 20
2.5895573678
 11
13.1422015925
 21
2.5697573568
  0
ARC
  5
2E7
100
AcDbEntity
  8
0
100
AcDbCircle
 62
2
  6
CONTINUOUS
 10
13.139726593
 20
2.5697573549
 40
0.0024749995
100
AcDbArc
 50
269.9999571957
 51
0.0000428042
  0
LINE
  5
2E8
100
AcDbEntity
  8
0
100
AcDbLine
 62
2
  6
CONTINUOUS
 10
13.1397265912
 20
2.5672823554
 11
13.1217935812
 21
2.5672823554
  0
ARC
  5
2E9
100
AcDbEntity
  8
0
100
AcDbCircle
 62
2
  6
CONTINUOUS
 10
13.1217935794
 20
2.5648073559
 40
0.0024749995
100
AcDbArc
 50
89.9999571957
 51
180.0000428042
  0
LINE
  5
2EA
100
AcDbEntity
  8
0
100
AcDbLine
 62
2
  6
CONTINUOUS
 10
13.1193185799
 20
2.564807354
 11
13.1193185799
 21
2.4937023146
  0
ARC
  5
2EB
100
AcDbEntity
  8
0
100
AcDbCircle
 62
2
  6
CONTINUOUS
 10
13.1168435803
 20
2.4937023128
 40
0.0024749995
100
AcDbArc
 50
269.9999571957
 51
0.0000428043
  0
LINE
  5
2EC
100
AcDbEntity
  8
0
100
AcDbLine
 62
2
  6
CONTINUOUS
 10
13.1168435785
 20
2.4912273132
 11
13.0426375373
 21
2.4912273132
  0
ARC
  5
2ED
100
AcDbEntity
  8
0
100
AcDbCircle
 62
2
  6
CONTINUOUS
 10
13.0426374026
 20
2.493701481
 40
0.0024741678
100
AcDbArc
 50
226.3477981898
 51
270.0031206038
  0
LINE
  5
2EE
100
AcDbEntity
  8
0
100
AcDbLine
 62
2
  6
CONTINUOUS
 10
13.0409295364
 20
2.4919113136
 11
12.9776495013
 21
2.5522893471
  0
ARC
  5
2EF
100
AcDbEntity
  8
0
100
AcDbCircle
 62
2
  6
CONTINUOUS
 10
12.9759408003
 20
2.5504984093
 40
0.0024753014
100
AcDbArc
 50
46.3461263059
 51
180.0014637321
  0
LINE
  5
2F0
100
AcDbEntity
  8
0
100
AcDbLine
 62
2
  6
CONTINUOUS
 10
12.973465499
 20
2.5504983461
 11
12.973465499
 21
2.5184523283
  0
ARC
  5
2F1
100
AcDbEntity
  8
0
100
AcDbCircle
 62
2
  6
CONTINUOUS
 10
12.9759404985
 20
2.5184523265
 40
0.0024749995
100
AcDbArc
 50
179.9999571957
 51
270.0000428043
  0
LINE
  5
2F2
100
AcDbEntity
  8
0
100
AcDbLine
 62
2
  6
CONTINUOUS
 10
12.9759405003
 20
2.515977327
 11
12.9962575116
 21
2.515977327
  0
ARC
  5
2F3
100
AcDbEntity
  8
0
100
AcDbCircle
 62
2
  6
CONTINUOUS
 10
12.9962575135
 20
2.5135023274
 40
0.0024749995
100
AcDbArc
 50
359.9999571957
 51
90.0000428043
  0
LINE
  5
2F4
100
AcDbEntity
  8
0
100
AcDbLine
 62
2
  6
CONTINUOUS
 10
12.998732513
 20
2.5135023256
 11
12.998732513
 21
2.4937023146
  0
ARC
  5
2F5
100
AcDbEntity
  8
0
100
AcDbCircle
 62
2
  6
CONTINUOUS
 10
12.9962575135
 20
2.4937023128
 40
0.0024749995
100
AcDbArc
 50
269.9999571957
 51
0.0000428043
  0
LINE
  5
2F6
100
AcDbEntity
  8
0
100
AcDbLine
 62
2
  6
CONTINUOUS
 10
12.9962575116
 20
2.4912273132
 11
12.9205934696
 21
2.4912273132
  0
ARC
  5
2F7
100
AcDbEntity
  8
0
100
AcDbCircle
 62
2
  6
CONTINUOUS
 10
12.9205934678
 20
2.4937023128
 40
0.0024749995
100
AcDbArc
 50
179.9999571957
 51
270.0000428043
  0
LINE
  5
2F8
100
AcDbEntity
  8
0
100
AcDbLine
 62
2
  6
CONTINUOUS
 10
12.9181184683
 20
2.4937023146
 11
12.9181184683
 21
2.5135023256
  0
ARC
  5
2F9
100
AcDbEntity
  8
0
100
AcDbCircle
 62
2
  6
CONTINUOUS
 10
12.9205934678
 20
2.5135023274
 40
0.0024749995
100
AcDbArc
 50
89.9999571957
 51
180.0000428042
  0
LINE
  5
2FA
100
AcDbEntity
  8
0
100
AcDbLine
 62
2
  6
CONTINUOUS
 10
12.9205934696
 20
2.515977327
 11
12.93923948
 21
2.515977327
  0
ARC
  5
2FB
100
AcDbEntity
  8
0
100
AcDbCircle
 62
2
  6
CONTINUOUS
 10
12.9392394818
 20
2.5184523265
 40
0.0024749995
100
AcDbArc
 50
269.9999571957
 51
0.0000428043
  0
LINE
  5
2FC
100
AcDbEntity
  8
0
100
AcDbLine
 62
2
  6
CONTINUOUS
 10
12.9417144814
 20
2.5184523283
 11
12.9417144814
 21
2.564807354
  0
ARC
  5
2FD
100
AcDbEntity
  8
0
100
AcDbCircle
 62
2
  6
CONTINUOUS
 10
12.9392394818
 20
2.5648073559
 40
0.0024749995
100
AcDbArc
 50
359.9999571957
 51
90.0000428043
  0
LINE
  5
2FE
100
AcDbEntity
  8
0
100
AcDbLine
 62
2
  6
CONTINUOUS
 10
12.93923948
 20
2.5672823554
 11
12.9205934696
 21
2.5672823554
  0
ARC
  5
2FF
100
AcDbEntity
  8
0
100
AcDbCircle
 62
2
  6
CONTINUOUS
 10
12.9205934678
 20
2.5697573549
 40
0.0024749995
100
AcDbArc
 50
179.9999571957
 51
270.0000428043
  0
LINE
  5
300
100
AcDbEntity
  8
0
100
AcDbLine
 62
2
  6
CONTINUOUS
 10
12.9181184683
 20
2.5697573568
 11
12.9181184683
 21
2.5895573678
  0
ARC
  5
301
100
AcDbEntity
  8
0
100
AcDbCircle
 62
2
  6
CONTINUOUS
 10
12.9205934678
 20
2.5895573696
 40
0.0024749995
100
AcDbArc
 50
89.9999571957
 51
180.0000428042
  0
LINE
  5
302
100
AcDbEntity
  8
0
100
AcDbLine
 62
2
  6
CONTINUOUS
 10
13.2934226764
 20
2.5324773361
 11
13.2582556569
 21
2.5324773361
  0
ARC
  5
303
100
AcDbEntity
  8
0
100
AcDbCircle
 62
2
  6
CONTINUOUS
 10
13.2582556551
 20
2.5300023366
 40
0.0024749995
100
AcDbArc
 50
89.9999571957
 51
180.0000428043
  0
LINE
  5
304
100
AcDbEntity
  8
0
100
AcDbLine
 62
2
  6
CONTINUOUS
 10
13.2557806555
 20
2.5300023347
 11
13.2557806555
 21
2.5184523283
  0
ARC
  5
305
100
AcDbEntity
  8
0
100
AcDbCircle
 62
2
  6
CONTINUOUS
 10
13.2582556551
 20
2.5184523265
 40
0.0024749995
100
AcDbArc
 50
179.9999571957
 51
270.0000428043
  0
LINE
  5
306
100
AcDbEntity
  8
0
100
AcDbLine
 62
2
  6
CONTINUOUS
 10
13.2582556569
 20
2.515977327
 11
13.3232596929
 21
2.515977327
  0
ARC
  5
307
100
AcDbEntity
  8
0
100
AcDbCircle
 62
2
  6
CONTINUOUS
 10
13.3232596948
 20
2.5184523265
 40
0.0024749995
100
AcDbArc
 50
269.9999571957
 51
0.0000428043
  0
LINE
  5
308
100
AcDbEntity
  8
0
100
AcDbLine
 62
2
  6
CONTINUOUS
 10
13.3257346943
 20
2.5184523283
 11
13.3257346943
 21
2.5267023329
  0
ARC
  5
309
100
AcDbEntity
  8
0
100
AcDbCircle
 62
2
  6
CONTINUOUS
 10
13.3282096938
 20
2.5267023348
 40
0.0024749995
100
AcDbArc
 50
89.9999571957
 51
180.0000428043
  0
LINE
  5
30A
100
AcDbEntity
  8
0
100
AcDbLine
 62
2
  6
CONTINUOUS
 10
13.3282096957
 20
2.5291773343
 11
13.3705287192
 21
2.5291773343
  0
ARC
  5
30B
100
AcDbEntity
  8
0
100
AcDbCircle
 62
2
  6
CONTINUOUS
 10
13.370528721
 20
2.5267023348
 40
0.0024749995
100
AcDbArc
 50
359.9999571957
 51
90.0000428043
  0
LINE
  5
30C
100
AcDbEntity
  8
0
100
AcDbLine
 62
2
  6
CONTINUOUS
 10
13.3730037205
 20
2.5267023329
 11
13.3730037205
 21
2.4937023146
  0
ARC
  5
30D
100
AcDbEntity
  8
0
100
AcDbCircle
 62
2
  6
CONTINUOUS
 10
13.370528721
 20
2.4937023128
 40
0.0024749995
100
AcDbArc
 50
269.9999571957
 51
0.0000428043
  0
LINE
  5
30E
100
AcDbEntity
  8
0
100
AcDbLine
 62
2
  6
CONTINUOUS
 10
13.3705287192
 20
2.4912273132
 11
13.1673166065
 21
2.4912273132
  0
ARC
  5
30F
100
AcDbEntity
  8
0
100
AcDbCircle
 62
2
  6
CONTINUOUS
 10
13.1673166046
 20
2.4937023128
 40
0.0024749995
100
AcDbArc
 50
179.9999571957
 51
270.0000428043
  0
LINE
  5
310
100
AcDbEntity
  8
0
100
AcDbLine
 62
2
  6
CONTINUOUS
 10
13.1648416051
 20
2.4937023146
 11
13.1648416051
 21
2.5135023256
  0
ARC
  5
311
100
AcDbEntity
  8
0
100
AcDbCircle
 62
2
  6
CONTINUOUS
 10
13.1673166046
 20
2.5135023274
 40
0.0024749995
100
AcDbArc
 50
89.9999571957
 51
180.0000428043
  0
LINE
  5
312
100
AcDbEntity
  8
0
100
AcDbLine
 62
2
  6
CONTINUOUS
 10
13.1673166065
 20
2.515977327
 11
13.1912396197
 21
2.515977327
  0
ARC
  5
313
100
AcDbEntity
  8
0
100
AcDbCircle
 62
2
  6
CONTINUOUS
 10
13.1912396216
 20
2.5184523265
 40
0.0024749995
100
AcDbArc
 50
269.9999571957
 51
0.0000428042
  0
LINE
  5
314
100
AcDbEntity
  8
0
100
AcDbLine
 62
2
  6
CONTINUOUS
 10
13.1937146211
 20
2.5184523283
 11
13.1937146211
 21
2.564807354
  0
ARC
  5
315
100
AcDbEntity
  8
0
100
AcDbCircle
 62
2
  6
CONTINUOUS
 10
13.1912396216
 20
2.5648073559
 40
0.0024749995
100
AcDbArc
 50
359.9999571957
 51
90.0000428043
  0
LINE
  5
316
100
AcDbEntity
  8
0
100
AcDbLine
 62
2
  6
CONTINUOUS
 10
13.1912396197
 20
2.5672823554
 11
13.1673166065
 21
2.5672823554
  0
ARC
  5
317
100
AcDbEntity
  8
0
100
AcDbCircle
 62
2
  6
CONTINUOUS
 10
13.1673166046
 20
2.5697573549
 40
0.0024749995
100
AcDbArc
 50
179.9999571957
 51
270.0000428043
  0
LINE
  5
318
100
AcDbEntity
  8
0
100
AcDbLine
 62
2
  6
CONTINUOUS
 10
13.1648416051
 20
2.5697573568
 11
13.1648416051
 21
2.5895573678
  0
ARC
  5
319
100
AcDbEntity
  8
0
100
AcDbCircle
 62
2
  6
CONTINUOUS
 10
13.1673166046
 20
2.5895573696
 40
0.0024749995
100
AcDbArc
 50
89.9999571957
 51
180.0000428043
  0
LINE
  5
31A
100
AcDbEntity
  8
0
100
AcDbLine
 62
2
  6
CONTINUOUS
 10
13.1673166065
 20
2.5920323691
 11
13.3691097184
 21
2.5920323691
  0
ARC
  5
31B
100
AcDbEntity
  8
0
100
AcDbCircle
 62
2
  6
CONTINUOUS
 10
13.3691097202
 20
2.5895573696
 40
0.0024749995
100
AcDbArc
 50
359.9999571957
 51
90.0000428043
  0
LINE
  5
31C
100
AcDbEntity
  8
0
100
AcDbLine
 62
2
  6
CONTINUOUS
 10
13.3715847197
 20
2.5895573678
 11
13.3715847197
 21
2.5565573495
  0
ARC
  5
31D
100
AcDbEntity
  8
0
100
AcDbCircle
 62
2
  6
CONTINUOUS
 10
13.3691097202
 20
2.5565573476
 40
0.0024749995
100
AcDbArc
 50
269.9999571957
 51
0.0000428042
  0
LINE
  5
31E
100
AcDbEntity
  8
0
100
AcDbLine
 62
2
  6
CONTINUOUS
 10
13.3691097184
 20
2.5540823481
 11
13.3272456952
 21
2.5540823481
  0
ARC
  5
31F
100
AcDbEntity
  8
0
100
AcDbCircle
 62
2
  6
CONTINUOUS
 10
13.3272456933
 20
2.5565573476
 40
0.0024749995
100
AcDbArc
 50
179.9999571957
 51
270.0000428043
  0
LINE
  5
320
100
AcDbEntity
  8
0
100
AcDbLine
 62
2
  6
CONTINUOUS
 10
13.3247706938
 20
2.5565573495
 11
13.3247706938
 21
2.564807354
  0
ARC
  5
321
100
AcDbEntity
  8
0
100
AcDbCircle
 62
2
  6
CONTINUOUS
 10
13.3222956943
 20
2.5648073559
 40
0.0024749995
100
AcDbArc
 50
359.9999571957
 51
90.0000428043
  0
LINE
  5
322
100
AcDbEntity
  8
0
100
AcDbLine
 62
2
  6
CONTINUOUS
 10
13.3222956924
 20
2.5672823554
 11
13.2582556569
 21
2.5672823554
  0
ARC
  5
323
100
AcDbEntity
  8
0
100
AcDbCircle
 62
2
  6
CONTINUOUS
 10
13.2582556551
 20
2.5648073559
 40
0.0024749995
100
AcDbArc
 50
89.9999571957
 51
180.0000428043
  0
LINE
  5
324
100
AcDbEntity
  8
0
100
AcDbLine
 62
2
  6
CONTINUOUS
 10
13.2557806555
 20
2.564807354
 11
13.2557806555
 21
2.5532573476
  0
ARC
  5
325
100
AcDbEntity
  8
0
100
AcDbCircle
 62
2
  6
CONTINUOUS
 10
13.2582556551
 20
2.5532573458
 40
0.0024749995
100
AcDbArc
 50
179.9999571957
 51
270.0000428043
  0
LINE
  5
326
100
AcDbEntity
  8
0
100
AcDbLine
 62
2
  6
CONTINUOUS
 10
13.2582556569
 20
2.5507823463
 11
13.2934226764
 21
2.5507823463
  0
ARC
  5
327
100
AcDbEntity
  8
0
100
AcDbCircle
 62
2
  6
CONTINUOUS
 10
13.2934226783
 20
2.5483073467
 40
0.0024749995
100
AcDbArc
 50
359.9999571957
 51
90.0000428043
  0
LINE
  5
328
100
AcDbEntity
  8
0
100
AcDbLine
 62
2
  6
CONTINUOUS
 10
13.2958976778
 20
2.5483073449
 11
13.2958976778
 21
2.5349523375
  0
ARC
  5
329
100
AcDbEntity
  8
0
100
AcDbCircle
 62
2
  6
CONTINUOUS
 10
13.2934226783
 20
2.5349523356
 40
0.0024749995
100
AcDbArc
 50
269.9999571957
 51
0.0000428042
  0
LINE
  5
32A
100
AcDbEntity
  8
0
100
AcDbLine
 62
2
  6
CONTINUOUS
 10
13.7286871589
 20
2.5350697372
 11
13.7286871589
 21
2.5456869438
  0
LINE
  5
32B
100
AcDbEntity
  8
0
100
AcDbLine
 62
2
  6
CONTINUOUS
 10
13.7086871478
 20
2.5004302075
 11
13.7086871478
 21
2.5803264735
  0
LINE
  5
32C
100
AcDbEntity
  8
0
100
AcDbLine
 62
2
  6
CONTINUOUS
 10
13.6886871368
 20
2.4843919416
 11
13.6886871368
 21
2.5963647394
  0
LINE
  5
32D
100
AcDbEntity
  8
0
100
AcDbLine
 62
2
  6
CONTINUOUS
 10
13.6686871257
 20
2.4726017898
 11
13.6686871257
 21
2.6081548911
  0
LINE
  5
32E
100
AcDbEntity
  8
0
100
AcDbLine
 62
2
  6
CONTINUOUS
 10
13.6486871146
 20
2.4628062688
 11
13.6486871146
 21
2.6179504122
  0
LINE
  5
32F
100
AcDbEntity
  8
0
100
AcDbLine
 62
2
  6
CONTINUOUS
 10
13.6286871035
 20
2.4541253507
 11
13.6286871035
 21
2.5062483056
  0
LINE
  5
330
100
AcDbEntity
  8
0
100
AcDbLine
 62
2
  6
CONTINUOUS
 10
13.6286871035
 20
2.5301143348
 11
13.6286871035
 21
2.6266313303
  0
LINE
  5
331
100
AcDbEntity
  8
0
100
AcDbLine
 62
2
  6
CONTINUOUS
 10
13.6086870924
 20
2.4465537903
 11
13.6086870924
 21
2.4918774918
  0
LINE
  5
332
100
AcDbEntity
  8
0
100
AcDbLine
 62
2
  6
CONTINUOUS
 10
13.6086870924
 20
2.5165781173
 11
13.6086870924
 21
2.6342028907
  0
LINE
  5
333
100
AcDbEntity
  8
0
100
AcDbLine
 62
2
  6
CONTINUOUS
 10
13.5886870813
 20
2.4398033466
 11
13.5886870813
 21
2.4912273132
  0
LINE
  5
334
100
AcDbEntity
  8
0
100
AcDbLine
 62
2
  6
CONTINUOUS
 10
13.5886870813
 20
2.5391840845
 11
13.5886870813
 21
2.5454298327
  0
LINE
  5
335
100
AcDbEntity
  8
0
100
AcDbLine
 62
2
  6
CONTINUOUS
 10
13.5886870813
 20
2.5862063472
 11
13.5886870813
 21
2.6409533343
  0
LINE
  5
336
100
AcDbEntity
  8
0
100
AcDbLine
 62
2
  6
CONTINUOUS
 10
13.5686870702
 20
2.4334702189
 11
13.5686870702
 21
2.4912273132
  0
LINE
  5
337
100
AcDbEntity
  8
0
100
AcDbLine
 62
2
  6
CONTINUOUS
 10
13.5686870702
 20
2.5906587765
 11
13.5686870702
 21
2.647286462
  0
LINE
  5
338
100
AcDbEntity
  8
0
100
AcDbLine
 62
2
  6
CONTINUOUS
 10
13.5486870591
 20
2.4278968124
 11
13.5486870591
 21
2.4937461006
  0
LINE
  5
339
100
AcDbEntity
  8
0
100
AcDbLine
 62
2
  6
CONTINUOUS
 10
13.5486870591
 20
2.5920323691
 11
13.5486870591
 21
2.6528598686
  0
LINE
  5
33A
100
AcDbEntity
  8
0
100
AcDbLine
 62
2
  6
CONTINUOUS
 10
13.528687048
 20
2.4225427674
 11
13.528687048
 21
2.5270426993
  0
LINE
  5
33B
100
AcDbEntity
  8
0
100
AcDbLine
 62
2
  6
CONTINUOUS
 10
13.528687048
 20
2.5505166259
 11
13.528687048
 21
2.5668657091
  0
LINE
  5
33C
100
AcDbEntity
  8
0
100
AcDbLine
 62
2
  6
CONTINUOUS
 10
13.528687048
 20
2.5920323691
 11
13.528687048
 21
2.6582139136
  0
LINE
  5
33D
100
AcDbEntity
  8
0
100
AcDbLine
 62
2
  6
CONTINUOUS
 10
13.5086870369
 20
2.4177306791
 11
13.5086870369
 21
2.4912273132
  0
LINE
  5
33E
100
AcDbEntity
  8
0
100
AcDbLine
 62
2
  6
CONTINUOUS
 10
13.5086870369
 20
2.5159553269
 11
13.5086870369
 21
2.5306043351
  0
LINE
  5
33F
100
AcDbEntity
  8
0
100
AcDbLine
 62
2
  6
CONTINUOUS
 10
13.5086870369
 20
2.5496073456
 11
13.5086870369
 21
2.5672823554
  0
LINE
  5
340
100
AcDbEntity
  8
0
100
AcDbLine
 62
2
  6
CONTINUOUS
 10
13.5086870369
 20
2.5920323691
 11
13.5086870369
 21
2.6630260019
  0
LINE
  5
341
100
AcDbEntity
  8
0
100
AcDbLine
 62
2
  6
CONTINUOUS
 10
13.4886870258
 20
2.4131795254
 11
13.4886870258
 21
2.4912273132
  0
LINE
  5
342
100
AcDbEntity
  8
0
100
AcDbLine
 62
2
  6
CONTINUOUS
 10
13.4886870258
 20
2.5159553269
 11
13.4886870258
 21
2.5306043351
  0
LINE
  5
343
100
AcDbEntity
  8
0
100
AcDbLine
 62
2
  6
CONTINUOUS
 10
13.4886870258
 20
2.5496073456
 11
13.4886870258
 21
2.5672823554
  0
LINE
  5
344
100
AcDbEntity
  8
0
100
AcDbLine
 62
2
  6
CONTINUOUS
 10
13.4886870258
 20
2.5920323691
 11
13.4886870258
 21
2.6675771555
  0
LINE
  5
345
100
AcDbEntity
  8
0
100
AcDbLine
 62
2
  6
CONTINUOUS
 10
13.4686870147
 20
2.4088819672
 11
13.4686870147
 21
2.4912273132
  0
LINE
  5
346
100
AcDbEntity
  8
0
100
AcDbLine
 62
2
  6
CONTINUOUS
 10
13.4686870147
 20
2.5920323691
 11
13.4686870147
 21
2.6718747138
  0
LINE
  5
347
100
AcDbEntity
  8
0
100
AcDbLine
 62
2
  6
CONTINUOUS
 10
13.4486870037
 20
2.4050092072
 11
13.4486870037
 21
2.4912273132
  0
LINE
  5
348
100
AcDbEntity
  8
0
100
AcDbLine
 62
2
  6
CONTINUOUS
 10
13.4486870037
 20
2.5920323691
 11
13.4486870037
 21
2.6757474738
  0
LINE
  5
349
100
AcDbEntity
  8
0
100
AcDbLine
 62
2
  6
CONTINUOUS
 10
13.4286869926
 20
2.4011364471
 11
13.4286869926
 21
2.4912273132
  0
LINE
  5
34A
100
AcDbEntity
  8
0
100
AcDbLine
 62
2
  6
CONTINUOUS
 10
13.4286869926
 20
2.5920323691
 11
13.4286869926
 21
2.6796202339
  0
LINE
  5
34B
100
AcDbEntity
  8
0
100
AcDbLine
 62
2
  6
CONTINUOUS
 10
13.4086869815
 20
2.3980226662
 11
13.4086869815
 21
2.4912273132
  0
LINE
  5
34C
100
AcDbEntity
  8
0
100
AcDbLine
 62
2
  6
CONTINUOUS
 10
13.4086869815
 20
2.515977327
 11
13.4086869815
 21
2.5672823554
  0
LINE
  5
34D
100
AcDbEntity
  8
0
100
AcDbLine
 62
2
  6
CONTINUOUS
 10
13.4086869815
 20
2.5920323691
 11
13.4086869815
 21
2.6827340148
  0
LINE
  5
34E
100
AcDbEntity
  8
0
100
AcDbLine
 62
2
  6
CONTINUOUS
 10
13.3886869704
 20
2.3950052774
 11
13.3886869704
 21
2.6857514036
  0
LINE
  5
34F
100
AcDbEntity
  8
0
100
AcDbLine
 62
2
  6
CONTINUOUS
 10
13.3686869593
 20
2.3919878885
 11
13.3686869593
 21
2.4912273132
  0
LINE
  5
350
100
AcDbEntity
  8
0
100
AcDbLine
 62
2
  6
CONTINUOUS
 10
13.3686869593
 20
2.5291773343
 11
13.3686869593
 21
2.5540823481
  0
LINE
  5
351
100
AcDbEntity
  8
0
100
AcDbLine
 62
2
  6
CONTINUOUS
 10
13.3686869593
 20
2.5920323691
 11
13.3686869593
 21
2.6887687924
  0
LINE
  5
352
100
AcDbEntity
  8
0
100
AcDbLine
 62
2
  6
CONTINUOUS
 10
13.3486869482
 20
2.3889704997
 11
13.3486869482
 21
2.4912273132
  0
LINE
  5
353
100
AcDbEntity
  8
0
100
AcDbLine
 62
2
  6
CONTINUOUS
 10
13.3486869482
 20
2.5291773343
 11
13.3486869482
 21
2.5540823481
  0
LINE
  5
354
100
AcDbEntity
  8
0
100
AcDbLine
 62
2
  6
CONTINUOUS
 10
13.3486869482
 20
2.5920323691
 11
13.3486869482
 21
2.6917861813
  0
LINE
  5
355
100
AcDbEntity
  8
0
100
AcDbLine
 62
2
  6
CONTINUOUS
 10
13.3286869371
 20
2.3859531109
 11
13.3286869371
 21
2.4912273132
  0
LINE
  5
356
100
AcDbEntity
  8
0
100
AcDbLine
 62
2
  6
CONTINUOUS
 10
13.3286869371
 20
2.5291773343
 11
13.3286869371
 21
2.5540823481
  0
LINE
  5
357
100
AcDbEntity
  8
0
100
AcDbLine
 62
2
  6
CONTINUOUS
 10
13.3286869371
 20
2.5920323691
 11
13.3286869371
 21
2.6948035701
  0
LINE
  5
358
100
AcDbEntity
  8
0
100
AcDbLine
 62
2
  6
CONTINUOUS
 10
13.308686926
 20
2.3833355437
 11
13.308686926
 21
2.4912273132
  0
LINE
  5
359
100
AcDbEntity
  8
0
100
AcDbLine
 62
2
  6
CONTINUOUS
 10
13.308686926
 20
2.515977327
 11
13.308686926
 21
2.5672823554
  0
LINE
  5
35A
100
AcDbEntity
  8
0
100
AcDbLine
 62
2
  6
CONTINUOUS
 10
13.308686926
 20
2.5920323691
 11
13.308686926
 21
2.6974211373
  0
LINE
  5
35B
100
AcDbEntity
  8
0
100
AcDbLine
 62
2
  6
CONTINUOUS
 10
13.2886869149
 20
2.3812612684
 11
13.2886869149
 21
2.4912273132
  0
LINE
  5
35C
100
AcDbEntity
  8
0
100
AcDbLine
 62
2
  6
CONTINUOUS
 10
13.2886869149
 20
2.515977327
 11
13.2886869149
 21
2.5324773361
  0
LINE
  5
35D
100
AcDbEntity
  8
0
100
AcDbLine
 62
2
  6
CONTINUOUS
 10
13.2886869149
 20
2.5507823463
 11
13.2886869149
 21
2.5672823554
  0
LINE
  5
35E
100
AcDbEntity
  8
0
100
AcDbLine
 62
2
  6
CONTINUOUS
 10
13.2886869149
 20
2.5920323691
 11
13.2886869149
 21
2.6994954125
  0
LINE
  5
35F
100
AcDbEntity
  8
0
100
AcDbLine
 62
2
  6
CONTINUOUS
 10
13.2686869038
 20
2.3791869932
 11
13.2686869038
 21
2.4912273132
  0
LINE
  5
360
100
AcDbEntity
  8
0
100
AcDbLine
 62
2
  6
CONTINUOUS
 10
13.2686869038
 20
2.515977327
 11
13.2686869038
 21
2.5324773361
  0
LINE
  5
361
100
AcDbEntity
  8
0
100
AcDbLine
 62
2
  6
CONTINUOUS
 10
13.2686869038
 20
2.5507823463
 11
13.2686869038
 21
2.5672823554
  0
LINE
  5
362
100
AcDbEntity
  8
0
100
AcDbLine
 62
2
  6
CONTINUOUS
 10
13.2686869038
 20
2.5920323691
 11
13.2686869038
 21
2.7015696878
  0
LINE
  5
363
100
AcDbEntity
  8
0
100
AcDbLine
 62
2
  6
CONTINUOUS
 10
13.2486868927
 20
2.377112718
 11
13.2486868927
 21
2.4912273132
  0
LINE
  5
364
100
AcDbEntity
  8
0
100
AcDbLine
 62
2
  6
CONTINUOUS
 10
13.2486868927
 20
2.5920323691
 11
13.2486868927
 21
2.703643963
  0
LINE
  5
365
100
AcDbEntity
  8
0
100
AcDbLine
 62
2
  6
CONTINUOUS
 10
13.2286868817
 20
2.3750384428
 11
13.2286868817
 21
2.4912273132
  0
LINE
  5
366
100
AcDbEntity
  8
0
100
AcDbLine
 62
2
  6
CONTINUOUS
 10
13.2286868817
 20
2.5920323691
 11
13.2286868817
 21
2.7057182382
  0
LINE
  5
367
100
AcDbEntity
  8
0
100
AcDbLine
 62
2
  6
CONTINUOUS
 10
13.2086868706
 20
2.3729641676
 11
13.2086868706
 21
2.4912273132
  0
LINE
  5
368
100
AcDbEntity
  8
0
100
AcDbLine
 62
2
  6
CONTINUOUS
 10
13.2086868706
 20
2.5920323691
 11
13.2086868706
 21
2.7077925134
  0
LINE
  5
369
100
AcDbEntity
  8
0
100
AcDbLine
 62
2
  6
CONTINUOUS
 10
13.1886868595
 20
2.3712344456
 11
13.1886868595
 21
2.4912273132
  0
LINE
  5
36A
100
AcDbEntity
  8
0
100
AcDbLine
 62
2
  6
CONTINUOUS
 10
13.1886868595
 20
2.515977327
 11
13.1886868595
 21
2.5672823554
  0
LINE
  5
36B
100
AcDbEntity
  8
0
100
AcDbLine
 62
2
  6
CONTINUOUS
 10
13.1886868595
 20
2.5920323691
 11
13.1886868595
 21
2.7095222354
  0
LINE
  5
36C
100
AcDbEntity
  8
0
100
AcDbLine
 62
2
  6
CONTINUOUS
 10
13.1686868484
 20
2.3699682418
 11
13.1686868484
 21
2.4912273132
  0
LINE
  5
36D
100
AcDbEntity
  8
0
100
AcDbLine
 62
2
  6
CONTINUOUS
 10
13.1686868484
 20
2.515977327
 11
13.1686868484
 21
2.5672823554
  0
LINE
  5
36E
100
AcDbEntity
  8
0
100
AcDbLine
 62
2
  6
CONTINUOUS
 10
13.1686868484
 20
2.5920323691
 11
13.1686868484
 21
2.7107884392
  0
LINE
  5
36F
100
AcDbEntity
  8
0
100
AcDbLine
 62
2
  6
CONTINUOUS
 10
13.1486868373
 20
2.3687020381
 11
13.1486868373
 21
2.7120546429
  0
LINE
  5
370
100
AcDbEntity
  8
0
100
AcDbLine
 62
2
  6
CONTINUOUS
 10
13.1286868262
 20
2.3674358343
 11
13.1286868262
 21
2.5672823554
  0
LINE
  5
371
100
AcDbEntity
  8
0
100
AcDbLine
 62
2
  6
CONTINUOUS
 10
13.1286868262
 20
2.5920323691
 11
13.1286868262
 21
2.7133208466
  0
LINE
  5
372
100
AcDbEntity
  8
0
100
AcDbLine
 62
2
  6
CONTINUOUS
 10
13.1086868151
 20
2.3661696306
 11
13.1086868151
 21
2.4912273132
  0
LINE
  5
373
100
AcDbEntity
  8
0
100
AcDbLine
 62
2
  6
CONTINUOUS
 10
13.1086868151
 20
2.5920323691
 11
13.1086868151
 21
2.7145870504
  0
LINE
  5
374
100
AcDbEntity
  8
0
100
AcDbLine
 62
2
  6
CONTINUOUS
 10
13.088686804
 20
2.3649034269
 11
13.088686804
 21
2.4912273132
  0
LINE
  5
375
100
AcDbEntity
  8
0
100
AcDbLine
 62
2
  6
CONTINUOUS
 10
13.088686804
 20
2.5920323691
 11
13.088686804
 21
2.7158532541
  0
LINE
  5
376
100
AcDbEntity
  8
0
100
AcDbLine
 62
2
  6
CONTINUOUS
 10
13.0686867929
 20
2.3636739922
 11
13.0686867929
 21
2.4912273132
  0
LINE
  5
377
100
AcDbEntity
  8
0
100
AcDbLine
 62
2
  6
CONTINUOUS
 10
13.0686867929
 20
2.5475272398
 11
13.0686867929
 21
2.5672823554
  0
LINE
  5
378
100
AcDbEntity
  8
0
100
AcDbLine
 62
2
  6
CONTINUOUS
 10
13.0686867929
 20
2.5920323691
 11
13.0686867929
 21
2.7170826887
  0
LINE
  5
379
100
AcDbEntity
  8
0
100
AcDbLine
 62
2
  6
CONTINUOUS
 10
13.0486867818
 20
2.363143203
 11
13.0486867818
 21
2.4912273132
  0
LINE
  5
37A
100
AcDbEntity
  8
0
100
AcDbLine
 62
2
  6
CONTINUOUS
 10
13.0486867818
 20
2.5666100882
 11
13.0486867818
 21
2.717613478
  0
LINE
  5
37B
100
AcDbEntity
  8
0
100
AcDbLine
 62
2
  6
CONTINUOUS
 10
13.0286867707
 20
2.3626124138
 11
13.0286867707
 21
2.50359263
  0
LINE
  5
37C
100
AcDbEntity
  8
0
100
AcDbLine
 62
2
  6
CONTINUOUS
 10
13.0286867707
 20
2.5856929366
 11
13.0286867707
 21
2.7181442672
  0
LINE
  5
37D
100
AcDbEntity
  8
0
100
AcDbLine
 62
2
  6
CONTINUOUS
 10
13.0086867596
 20
2.3620816246
 11
13.0086867596
 21
2.5226754472
  0
LINE
  5
37E
100
AcDbEntity
  8
0
100
AcDbLine
 62
2
  6
CONTINUOUS
 10
13.0086867596
 20
2.5920323691
 11
13.0086867596
 21
2.7186750564
  0
LINE
  5
37F
100
AcDbEntity
  8
0
100
AcDbLine
 62
2
  6
CONTINUOUS
 10
12.9886867486
 20
2.3615508354
 11
12.9886867486
 21
2.4912273132
  0
LINE
  5
380
100
AcDbEntity
  8
0
100
AcDbLine
 62
2
  6
CONTINUOUS
 10
12.9886867486
 20
2.515977327
 11
12.9886867486
 21
2.5417582644
  0
LINE
  5
381
100
AcDbEntity
  8
0
100
AcDbLine
 62
2
  6
CONTINUOUS
 10
12.9886867486
 20
2.5920323691
 11
12.9886867486
 21
2.7192058456
  0
LINE
  5
382
100
AcDbEntity
  8
0
100
AcDbLine
 62
2
  6
CONTINUOUS
 10
12.9686867375
 20
2.3610200462
 11
12.9686867375
 21
2.4912273132
  0
LINE
  5
383
100
AcDbEntity
  8
0
100
AcDbLine
 62
2
  6
CONTINUOUS
 10
12.9686867375
 20
2.5920323691
 11
12.9686867375
 21
2.7197366348
  0
LINE
  5
384
100
AcDbEntity
  8
0
100
AcDbLine
 62
2
  6
CONTINUOUS
 10
12.9486867264
 20
2.360489257
 11
12.9486867264
 21
2.4912273132
  0
LINE
  5
385
100
AcDbEntity
  8
0
100
AcDbLine
 62
2
  6
CONTINUOUS
 10
12.9486867264
 20
2.5920323691
 11
12.9486867264
 21
2.720267424
  0
LINE
  5
386
100
AcDbEntity
  8
0
100
AcDbLine
 62
2
  6
CONTINUOUS
 10
12.9286867153
 20
2.3602836008
 11
12.9286867153
 21
2.4912273132
  0
LINE
  5
387
100
AcDbEntity
  8
0
100
AcDbLine
 62
2
  6
CONTINUOUS
 10
12.9286867153
 20
2.515977327
 11
12.9286867153
 21
2.5672823554
  0
LINE
  5
388
100
AcDbEntity
  8
0
100
AcDbLine
 62
2
  6
CONTINUOUS
 10
12.9286867153
 20
2.5920323691
 11
12.9286867153
 21
2.7204730802
  0
LINE
  5
389
100
AcDbEntity
  8
0
100
AcDbLine
 62
2
  6
CONTINUOUS
 10
12.9086867042
 20
2.3604597639
 11
12.9086867042
 21
2.7202969171
  0
LINE
  5
38A
100
AcDbEntity
  8
0
100
AcDbLine
 62
2
  6
CONTINUOUS
 10
12.8886866931
 20
2.360635927
 11
12.8886866931
 21
2.5672823554
  0
LINE
  5
38B
100
AcDbEntity
  8
0
100
AcDbLine
 62
2
  6
CONTINUOUS
 10
12.8886866931
 20
2.5920323691
 11
12.8886866931
 21
2.720120754
  0
LINE
  5
38C
100
AcDbEntity
  8
0
100
AcDbLine
 62
2
  6
CONTINUOUS
 10
12.868686682
 20
2.3608120901
 11
12.868686682
 21
2.491232357
  0
LINE
  5
38D
100
AcDbEntity
  8
0
100
AcDbLine
 62
2
  6
CONTINUOUS
 10
12.868686682
 20
2.5920323691
 11
12.868686682
 21
2.7199445909
  0
LINE
  5
38E
100
AcDbEntity
  8
0
100
AcDbLine
 62
2
  6
CONTINUOUS
 10
12.8486866709
 20
2.3609882532
 11
12.8486866709
 21
2.4912273132
  0
LINE
  5
38F
100
AcDbEntity
  8
0
100
AcDbLine
 62
2
  6
CONTINUOUS
 10
12.8486866709
 20
2.5920323691
 11
12.8486866709
 21
2.7197684278
  0
LINE
  5
390
100
AcDbEntity
  8
0
100
AcDbLine
 62
2
  6
CONTINUOUS
 10
12.8286866598
 20
2.3611644163
 11
12.8286866598
 21
2.4912273132
  0
LINE
  5
391
100
AcDbEntity
  8
0
100
AcDbLine
 62
2
  6
CONTINUOUS
 10
12.8286866598
 20
2.5396527025
 11
12.8286866598
 21
2.5672823554
  0
LINE
  5
392
100
AcDbEntity
  8
0
100
AcDbLine
 62
2
  6
CONTINUOUS
 10
12.8286866598
 20
2.5920323691
 11
12.8286866598
 21
2.7195922647
  0
LINE
  5
393
100
AcDbEntity
  8
0
100
AcDbLine
 62
2
  6
CONTINUOUS
 10
12.8086866487
 20
2.3613405794
 11
12.8086866487
 21
2.4912273132
  0
LINE
  5
394
100
AcDbEntity
  8
0
100
AcDbLine
 62
2
  6
CONTINUOUS
 10
12.8086866487
 20
2.5587355508
 11
12.8086866487
 21
2.7194161016
  0
LINE
  5
395
100
AcDbEntity
  8
0
100
AcDbLine
 62
2
  6
CONTINUOUS
 10
12.7886866376
 20
2.3621089572
 11
12.7886866376
 21
2.4957181055
  0
LINE
  5
396
100
AcDbEntity
  8
0
100
AcDbLine
 62
2
  6
CONTINUOUS
 10
12.7886866376
 20
2.5778183992
 11
12.7886866376
 21
2.7186477238
  0
LINE
  5
397
100
AcDbEntity
  8
0
100
AcDbLine
 62
2
  6
CONTINUOUS
 10
12.7686866266
 20
2.3630013935
 11
12.7686866266
 21
2.5148009227
  0
LINE
  5
398
100
AcDbEntity
  8
0
100
AcDbLine
 62
2
  6
CONTINUOUS
 10
12.7686866266
 20
2.5920323691
 11
12.7686866266
 21
2.7177552874
  0
LINE
  5
399
100
AcDbEntity
  8
0
100
AcDbLine
 62
2
  6
CONTINUOUS
 10
12.7486866155
 20
2.3638938299
 11
12.7486866155
 21
2.4913263218
  0
LINE
  5
39A
100
AcDbEntity
  8
0
100
AcDbLine
 62
2
  6
CONTINUOUS
 10
12.7486866155
 20
2.5158783184
 11
12.7486866155
 21
2.5338837399
  0
LINE
  5
39B
100
AcDbEntity
  8
0
100
AcDbLine
 62
2
  6
CONTINUOUS
 10
12.7486866155
 20
2.5920323691
 11
12.7486866155
 21
2.7168628511
  0
LINE
  5
39C
100
AcDbEntity
  8
0
100
AcDbLine
 62
2
  6
CONTINUOUS
 10
12.7286866044
 20
2.3647862663
 11
12.7286866044
 21
2.4912273132
  0
LINE
  5
39D
100
AcDbEntity
  8
0
100
AcDbLine
 62
2
  6
CONTINUOUS
 10
12.7286866044
 20
2.515977327
 11
12.7286866044
 21
2.5527601554
  0
LINE
  5
39E
100
AcDbEntity
  8
0
100
AcDbLine
 62
2
  6
CONTINUOUS
 10
12.7286866044
 20
2.5920323691
 11
12.7286866044
 21
2.7159704147
  0
LINE
  5
39F
100
AcDbEntity
  8
0
100
AcDbLine
 62
2
  6
CONTINUOUS
 10
12.7086865933
 20
2.3656787026
 11
12.7086865933
 21
2.4912273132
  0
LINE
  5
3A0
100
AcDbEntity
  8
0
100
AcDbLine
 62
2
  6
CONTINUOUS
 10
12.7086865933
 20
2.5920323691
 11
12.7086865933
 21
2.7150779784
  0
LINE
  5
3A1
100
AcDbEntity
  8
0
100
AcDbLine
 62
2
  6
CONTINUOUS
 10
12.6886865822
 20
2.366571139
 11
12.6886865822
 21
2.4912273132
  0
LINE
  5
3A2
100
AcDbEntity
  8
0
100
AcDbLine
 62
2
  6
CONTINUOUS
 10
12.6886865822
 20
2.515977327
 11
12.6886865822
 21
2.5672823554
  0
LINE
  5
3A3
100
AcDbEntity
  8
0
100
AcDbLine
 62
2
  6
CONTINUOUS
 10
12.6886865822
 20
2.5920323691
 11
12.6886865822
 21
2.714185542
  0
LINE
  5
3A4
100
AcDbEntity
  8
0
100
AcDbLine
 62
2
  6
CONTINUOUS
 10
12.6686865711
 20
2.3677104027
 11
12.6686865711
 21
2.7130462783
  0
LINE
  5
3A5
100
AcDbEntity
  8
0
100
AcDbLine
 62
2
  6
CONTINUOUS
 10
12.64868656
 20
2.3693682721
 11
12.64868656
 21
2.7113884089
  0
LINE
  5
3A6
100
AcDbEntity
  8
0
100
AcDbLine
 62
2
  6
CONTINUOUS
 10
12.6286865489
 20
2.3710261415
 11
12.6286865489
 21
2.4912273132
  0
LINE
  5
3A7
100
AcDbEntity
  8
0
100
AcDbLine
 62
2
  6
CONTINUOUS
 10
12.6286865489
 20
2.515977327
 11
12.6286865489
 21
2.7097305395
  0
LINE
  5
3A8
100
AcDbEntity
  8
0
100
AcDbLine
 62
2
  6
CONTINUOUS
 10
12.6086865378
 20
2.372684011
 11
12.6086865378
 21
2.4912273132
  0
LINE
  5
3A9
100
AcDbEntity
  8
0
100
AcDbLine
 62
2
  6
CONTINUOUS
 10
12.6086865378
 20
2.5351122279
 11
12.6086865378
 21
2.70807267
  0
LINE
  5
3AA
100
AcDbEntity
  8
0
100
AcDbLine
 62
2
  6
CONTINUOUS
 10
12.5886865267
 20
2.3743418804
 11
12.5886865267
 21
2.4912273132
  0
LINE
  5
3AB
100
AcDbEntity
  8
0
100
AcDbLine
 62
2
  6
CONTINUOUS
 10
12.5886865267
 20
2.5660172622
 11
12.5886865267
 21
2.7064148006
  0
LINE
  5
3AC
100
AcDbEntity
  8
0
100
AcDbLine
 62
2
  6
CONTINUOUS
 10
12.5686865156
 20
2.3759997498
 11
12.5686865156
 21
2.4912273132
  0
LINE
  5
3AD
100
AcDbEntity
  8
0
100
AcDbLine
 62
2
  6
CONTINUOUS
 10
12.5686865156
 20
2.5920323691
 11
12.5686865156
 21
2.7047569312
  0
LINE
  5
3AE
100
AcDbEntity
  8
0
100
AcDbLine
 62
2
  6
CONTINUOUS
 10
12.5486865045
 20
2.3777575277
 11
12.5486865045
 21
2.4912273132
  0
LINE
  5
3AF
100
AcDbEntity
  8
0
100
AcDbLine
 62
2
  6
CONTINUOUS
 10
12.5486865045
 20
2.515977327
 11
12.5486865045
 21
2.5275118824
  0
LINE
  5
3B0
100
AcDbEntity
  8
0
100
AcDbLine
 62
2
  6
CONTINUOUS
 10
12.5486865045
 20
2.5920323691
 11
12.5486865045
 21
2.7029991533
  0
LINE
  5
3B1
100
AcDbEntity
  8
0
100
AcDbLine
 62
2
  6
CONTINUOUS
 10
12.5286864935
 20
2.3802813811
 11
12.5286864935
 21
2.5296213345
  0
LINE
  5
3B2
100
AcDbEntity
  8
0
100
AcDbLine
 62
2
  6
CONTINUOUS
 10
12.5286864935
 20
2.5505713461
 11
12.5286864935
 21
2.5667383551
  0
LINE
  5
3B3
100
AcDbEntity
  8
0
100
AcDbLine
 62
2
  6
CONTINUOUS
 10
12.5286864935
 20
2.5920323691
 11
12.5286864935
 21
2.7004752999
  0
LINE
  5
3B4
100
AcDbEntity
  8
0
100
AcDbLine
 62
2
  6
CONTINUOUS
 10
12.5086864824
 20
2.3828052346
 11
12.5086864824
 21
2.4912273132
  0
LINE
  5
3B5
100
AcDbEntity
  8
0
100
AcDbLine
 62
2
  6
CONTINUOUS
 10
12.5086864824
 20
2.515977327
 11
12.5086864824
 21
2.5279667721
  0
LINE
  5
3B6
100
AcDbEntity
  8
0
100
AcDbLine
 62
2
  6
CONTINUOUS
 10
12.5086864824
 20
2.5868602074
 11
12.5086864824
 21
2.6979514464
  0
LINE
  5
3B7
100
AcDbEntity
  8
0
100
AcDbLine
 62
2
  6
CONTINUOUS
 10
12.4886864713
 20
2.385329088
 11
12.4886864713
 21
2.4912273132
  0
LINE
  5
3B8
100
AcDbEntity
  8
0
100
AcDbLine
 62
2
  6
CONTINUOUS
 10
12.4886864713
 20
2.5553401045
 11
12.4886864713
 21
2.695427593
  0
LINE
  5
3B9
100
AcDbEntity
  8
0
100
AcDbLine
 62
2
  6
CONTINUOUS
 10
12.4686864602
 20
2.3878529415
 11
12.4686864602
 21
2.4912273132
  0
LINE
  5
3BA
100
AcDbEntity
  8
0
100
AcDbLine
 62
2
  6
CONTINUOUS
 10
12.4686864602
 20
2.5238200015
 11
12.4686864602
 21
2.6929037395
  0
LINE
  5
3BB
100
AcDbEntity
  8
0
100
AcDbLine
 62
2
  6
CONTINUOUS
 10
12.4486864491
 20
2.390376795
 11
12.4486864491
 21
2.4912273132
  0
LINE
  5
3BC
100
AcDbEntity
  8
0
100
AcDbLine
 62
2
  6
CONTINUOUS
 10
12.4486864491
 20
2.515977327
 11
12.4486864491
 21
2.690379886
  0
LINE
  5
3BD
100
AcDbEntity
  8
0
100
AcDbLine
 62
2
  6
CONTINUOUS
 10
12.428686438
 20
2.3931794042
 11
12.428686438
 21
2.6875772768
  0
LINE
  5
3BE
100
AcDbEntity
  8
0
100
AcDbLine
 62
2
  6
CONTINUOUS
 10
12.4086864269
 20
2.3964643301
 11
12.4086864269
 21
2.5013773986
  0
LINE
  5
3BF
100
AcDbEntity
  8
0
100
AcDbLine
 62
2
  6
CONTINUOUS
 10
12.4086864269
 20
2.5325739971
 11
12.4086864269
 21
2.5537224311
  0
LINE
  5
3C0
100
AcDbEntity
  8
0
100
AcDbLine
 62
2
  6
CONTINUOUS
 10
12.4086864269
 20
2.5791473398
 11
12.4086864269
 21
2.6842923509
  0
LINE
  5
3C1
100
AcDbEntity
  8
0
100
AcDbLine
 62
2
  6
CONTINUOUS
 10
12.3886864158
 20
2.399749256
 11
12.3886864158
 21
2.4921022658
  0
LINE
  5
3C2
100
AcDbEntity
  8
0
100
AcDbLine
 62
2
  6
CONTINUOUS
 10
12.3886864158
 20
2.5895929958
 11
12.3886864158
 21
2.681007425
  0
LINE
  5
3C3
100
AcDbEntity
  8
0
100
AcDbLine
 62
2
  6
CONTINUOUS
 10
12.3686864047
 20
2.403451877
 11
12.3686864047
 21
2.4912273132
  0
LINE
  5
3C4
100
AcDbEntity
  8
0
100
AcDbLine
 62
2
  6
CONTINUOUS
 10
12.3686864047
 20
2.5920323691
 11
12.3686864047
 21
2.677304804
  0
LINE
  5
3C5
100
AcDbEntity
  8
0
100
AcDbLine
 62
2
  6
CONTINUOUS
 10
12.3486863936
 20
2.407324637
 11
12.3486863936
 21
2.4912273132
  0
LINE
  5
3C6
100
AcDbEntity
  8
0
100
AcDbLine
 62
2
  6
CONTINUOUS
 10
12.3486863936
 20
2.5920323691
 11
12.3486863936
 21
2.673432044
  0
LINE
  5
3C7
100
AcDbEntity
  8
0
100
AcDbLine
 62
2
  6
CONTINUOUS
 10
12.3286863825
 20
2.4113493968
 11
12.3286863825
 21
2.4912273132
  0
LINE
  5
3C8
100
AcDbEntity
  8
0
100
AcDbLine
 62
2
  6
CONTINUOUS
 10
12.3286863825
 20
2.515977327
 11
12.3286863825
 21
2.5333023366
  0
LINE
  5
3C9
100
AcDbEntity
  8
0
100
AcDbLine
 62
2
  6
CONTINUOUS
 10
12.3286863825
 20
2.5499573458
 11
12.3286863825
 21
2.5672823554
  0
LINE
  5
3CA
100
AcDbEntity
  8
0
100
AcDbLine
 62
2
  6
CONTINUOUS
 10
12.3286863825
 20
2.5920323691
 11
12.3286863825
 21
2.6694072842
  0
LINE
  5
3CB
100
AcDbEntity
  8
0
100
AcDbLine
 62
2
  6
CONTINUOUS
 10
12.3086863715
 20
2.4159005505
 11
12.3086863715
 21
2.4912273132
  0
LINE
  5
3CC
100
AcDbEntity
  8
0
100
AcDbLine
 62
2
  6
CONTINUOUS
 10
12.3086863715
 20
2.515977327
 11
12.3086863715
 21
2.5333023366
  0
LINE
  5
3CD
100
AcDbEntity
  8
0
100
AcDbLine
 62
2
  6
CONTINUOUS
 10
12.3086863715
 20
2.5499573458
 11
12.3086863715
 21
2.5672823554
  0
LINE
  5
3CE
100
AcDbEntity
  8
0
100
AcDbLine
 62
2
  6
CONTINUOUS
 10
12.3086863715
 20
2.5920323691
 11
12.3086863715
 21
2.6648561305
  0
LINE
  5
3CF
100
AcDbEntity
  8
0
100
AcDbLine
 62
2
  6
CONTINUOUS
 10
12.2886863604
 20
2.4204517041
 11
12.2886863604
 21
2.4912273132
  0
LINE
  5
3D0
100
AcDbEntity
  8
0
100
AcDbLine
 62
2
  6
CONTINUOUS
 10
12.2886863604
 20
2.5920323691
 11
12.2886863604
 21
2.6603049769
  0
LINE
  5
3D1
100
AcDbEntity
  8
0
100
AcDbLine
 62
2
  6
CONTINUOUS
 10
12.2686863493
 20
2.4257438218
 11
12.2686863493
 21
2.4912273132
  0
LINE
  5
3D2
100
AcDbEntity
  8
0
100
AcDbLine
 62
2
  6
CONTINUOUS
 10
12.2686863493
 20
2.5920323691
 11
12.2686863493
 21
2.6550128592
  0
LINE
  5
3D3
100
AcDbEntity
  8
0
100
AcDbLine
 62
2
  6
CONTINUOUS
 10
12.2486863382
 20
2.4310978667
 11
12.2486863382
 21
2.4912273132
  0
LINE
  5
3D4
100
AcDbEntity
  8
0
100
AcDbLine
 62
2
  6
CONTINUOUS
 10
12.2486863382
 20
2.5920323691
 11
12.2486863382
 21
2.6496588142
  0
LINE
  5
3D5
100
AcDbEntity
  8
0
100
AcDbLine
 62
2
  6
CONTINUOUS
 10
12.2286863271
 20
2.4372566433
 11
12.2286863271
 21
2.4912273132
  0
LINE
  5
3D6
100
AcDbEntity
  8
0
100
AcDbLine
 62
2
  6
CONTINUOUS
 10
12.2286863271
 20
2.515977327
 11
12.2286863271
 21
2.5672823554
  0
LINE
  5
3D7
100
AcDbEntity
  8
0
100
AcDbLine
 62
2
  6
CONTINUOUS
 10
12.2286863271
 20
2.5920323691
 11
12.2286863271
 21
2.6435000377
  0
LINE
  5
3D8
100
AcDbEntity
  8
0
100
AcDbLine
 62
2
  6
CONTINUOUS
 10
12.208686316
 20
2.443589771
 11
12.208686316
 21
2.4912273132
  0
LINE
  5
3D9
100
AcDbEntity
  8
0
100
AcDbLine
 62
2
  6
CONTINUOUS
 10
12.208686316
 20
2.515977327
 11
12.208686316
 21
2.5672823554
  0
LINE
  5
3DA
100
AcDbEntity
  8
0
100
AcDbLine
 62
2
  6
CONTINUOUS
 10
12.208686316
 20
2.5920323691
 11
12.208686316
 21
2.63716691
  0
LINE
  5
3DB
100
AcDbEntity
  8
0
100
AcDbLine
 62
2
  6
CONTINUOUS
 10
12.1886863049
 20
2.4510806436
 11
12.1886863049
 21
2.6296760373
  0
LINE
  5
3DC
100
AcDbEntity
  8
0
100
AcDbLine
 62
2
  6
CONTINUOUS
 10
12.1686862938
 20
2.4591016523
 11
12.1686862938
 21
2.6216550287
  0
LINE
  5
3DD
100
AcDbEntity
  8
0
100
AcDbLine
 62
2
  6
CONTINUOUS
 10
12.1486862827
 20
2.468314272
 11
12.1486862827
 21
2.612442409
  0
LINE
  5
3DE
100
AcDbEntity
  8
0
100
AcDbLine
 62
2
  6
CONTINUOUS
 10
12.1286862716
 20
2.4794932339
 11
12.1286862716
 21
2.601263447
  0
LINE
  5
3DF
100
AcDbEntity
  8
0
100
AcDbLine
 62
2
  6
CONTINUOUS
 10
12.1086862605
 20
2.4934150665
 11
12.1086862605
 21
2.5873416144
  0
LINE
  5
3E0
100
AcDbEntity
  8
0
100
AcDbLine
 62
2
  6
CONTINUOUS
 10
12.0886862494
 20
2.5144449553
 11
12.0886862494
 21
2.5663117257
  0
ENDBLK
  5
3E1
100
AcDbEntity
  8
0
  6
BYBLOCK
 62
0
100
AcDbBlockEnd
  0
BLOCK
  5
3E2
100
AcDbEntity
  8
0
100
AcDbBlockBegin
  2
_FILLED
 70
64
 10
0.0
 20
0.0
  3
_FILLED
  1

  0
SOLID
  5
3E3
100
AcDbEntity
  8
0
  6
BYBLOCK
 62
0
100
AcDbTrace
 10
0.0
 20
0.0
 11
-1.0
 21
0.1666666667
 12
-1.0
 22
-0.1666666667
 13
-1.0
 23
-0.1666666667
  0
ENDBLK
  5
3E4
100
AcDbEntity
  8
0
  6
BYBLOCK
 62
0
100
AcDbBlockEnd
  0
BLOCK
  5
3E5
100
AcDbEntity
  8
SCHEME_DIMS
100
AcDbBlockBegin
 62
2
  6
CONTINUOUS
  2
*D0
 70
65
 10
0.0
 20
0.0
  3
*D0
  1

  0
MTEXT
  5
3E6
100
AcDbEntity
  8
SCHEME_DIMS
100
AcDbMText
 62
2
  6
CONTINUOUS
  7
STANDARD
 71
2
 72
1
 10
7.0830775442
 20
3.4558866973
 30
0.0
 11
1.0
 21
0.0
 31
0.0
 44
0.9
  1
15\P[.59]
 40
0.1
 41
0.5
  0
LINE
  5
3E7
100
AcDbEntity
  8
SCHEME_DIMS
100
AcDbLine
 62
2
  6
CONTINUOUS
 10
5.8969527357
 20
3.0356111068
 11
7.3580775442
 21
3.0356111068
  0
LINE
  5
3E8
100
AcDbEntity
  8
SCHEME_DIMS
100
AcDbLine
 62
2
  6
CONTINUOUS
 10
6.2050236018
 20
3.6261622879
 11
7.3580775442
 21
3.6261622879
  0
LINE
  5
3E9
100
AcDbEntity
  8
SCHEME_DIMS
100
AcDbLine
 62
2
  6
CONTINUOUS
 10
7.2330775442
 20
3.0356111068
 11
7.2330775442
 21
2.6356111068
  0
LINE
  5
3EA
100
AcDbEntity
  8
SCHEME_DIMS
100
AcDbLine
 62
2
  6
CONTINUOUS
 10
7.2330775442
 20
3.6261622879
 11
7.2330775442
 21
4.0261622879
  0
INSERT
  5
3EB
100
AcDbEntity
  8
SCHEME_DIMS
100
AcDbBlockReference
 62
2
  6
CONTINUOUS
  2
_FILLED
 10
7.2330775442
 20
3.0356111068
 41
0.1875
 42
0.1875
 43
0.1875
 50
90.0
  0
INSERT
  5
3EC
100
AcDbEntity
  8
SCHEME_DIMS
100
AcDbBlockReference
 62
2
  6
CONTINUOUS
  2
_FILLED
 10
7.2330775442
 20
3.6261622879
 41
0.1875
 42
0.1875
 43
0.1875
 50
270.0
  0
ENDBLK
  5
3ED
100
AcDbEntity
  8
0
  6
BYBLOCK
 62
0
100
AcDbBlockEnd
  0
BLOCK
  5
3EE
100
AcDbEntity
  8
SCHEME_DIMS
100
AcDbBlockBegin
 62
2
  6
CONTINUOUS
  2
*D1
 70
65
 10
0.0
 20
0.0
  3
*D1
  1

  0
MTEXT
  5
3EF
100
AcDbEntity
  8
SCHEME_DIMS
100
AcDbMText
 62
2
  6
CONTINUOUS
  7
STANDARD
 71
2
 72
1
 10
7.7523997454
 20
3.9684851225
 30
0.0
 11
1.0
 21
0.0
 31
0.0
 44
0.9
  1
44,9\P[1.77]
 40
0.1
 41
0.6
  0
LINE
  5
3F0
100
AcDbEntity
  8
SCHEME_DIMS
100
AcDbLine
 62
2
  6
CONTINUOUS
 10
5.8969527357
 20
3.0356111068
 11
7.9773997454
 21
3.0356111068
  0
LINE
  5
3F1
100
AcDbEntity
  8
SCHEME_DIMS
100
AcDbLine
 62
2
  6
CONTINUOUS
 10
6.7168346255
 20
4.8013591383
 11
7.9773997454
 21
4.8013591383
  0
LINE
  5
3F2
100
AcDbEntity
  8
SCHEME_DIMS
100
AcDbLine
 62
2
  6
CONTINUOUS
 10
7.8523997454
 20
3.0356111068
 11
7.8523997454
 21
3.6184851225
  0
LINE
  5
3F3
100
AcDbEntity
  8
SCHEME_DIMS
100
AcDbLine
 62
2
  6
CONTINUOUS
 10
7.8523997454
 20
4.8013591383
 11
7.8523997454
 21
4.0684851225
  0
INSERT
  5
3F4
100
AcDbEntity
  8
SCHEME_DIMS
100
AcDbBlockReference
 62
2
  6
CONTINUOUS
  2
_FILLED
 10
7.8523997454
 20
3.0356111068
 41
0.1875
 42
0.1875
 43
0.1875
 50
270.0
  0
INSERT
  5
3F5
100
AcDbEntity
  8
SCHEME_DIMS
100
AcDbBlockReference
 62
2
  6
CONTINUOUS
  2
_FILLED
 10
7.8523997454
 20
4.8013591383
 41
0.1875
 42
0.1875
 43
0.1875
 50
90.0
  0
ENDBLK
  5
3F6
100
AcDbEntity
  8
0
  6
BYBLOCK
 62
0
100
AcDbBlockEnd
  0
BLOCK
  5
3F7
100
AcDbEntity
  8
SCHEME_DIMS
100
AcDbBlockBegin
 62
2
  6
CONTINUOUS
  2
*D2
 70
65
 10
0.0
 20
0.0
  3
*D2
  1

  0
MTEXT
  5
3F8
100
AcDbEntity
  8
SCHEME_DIMS
100
AcDbMText
 62
2
  6
CONTINUOUS
  7
STANDARD
 71
2
 72
1
 10
8.3482294272
 20
4.484233154
 30
0.0
 11
1.0
 21
0.0
 31
0.0
 44
0.9
  1
71,1\P[2.80]
 40
0.1
 41
0.6
  0
LINE
  5
3F9
100
AcDbEntity
  8
SCHEME_DIMS
100
AcDbLine
 62
2
  6
CONTINUOUS
 10
5.8969527357
 20
3.0356111068
 11
8.5732294272
 21
3.0356111068
  0
LINE
  5
3FA
100
AcDbEntity
  8
SCHEME_DIMS
100
AcDbLine
 62
2
  6
CONTINUOUS
 10
6.7463621845
 20
5.8328552013
 11
8.5732294272
 21
5.8328552013
  0
LINE
  5
3FB
100
AcDbEntity
  8
SCHEME_DIMS
100
AcDbLine
 62
2
  6
CONTINUOUS
 10
8.4482294272
 20
3.0356111068
 11
8.4482294272
 21
4.134233154
  0
LINE
  5
3FC
100
AcDbEntity
  8
SCHEME_DIMS
100
AcDbLine
 62
2
  6
CONTINUOUS
 10
8.4482294272
 20
5.8328552013
 11
8.4482294272
 21
4.584233154
  0
INSERT
  5
3FD
100
AcDbEntity
  8
SCHEME_DIMS
100
AcDbBlockReference
 62
2
  6
CONTINUOUS
  2
_FILLED
 10
8.4482294272
 20
3.0356111068
 41
0.1875
 42
0.1875
 43
0.1875
 50
270.0
  0
INSERT
  5
3FE
100
AcDbEntity
  8
SCHEME_DIMS
100
AcDbBlockReference
 62
2
  6
CONTINUOUS
  2
_FILLED
 10
8.4482294272
 20
5.8328552013
 41
0.1875
 42
0.1875
 43
0.1875
 50
90.0
  0
ENDBLK
  5
3FF
100
AcDbEntity
  8
0
  6
BYBLOCK
 62
0
100
AcDbBlockEnd
  0
BLOCK
  5
400
100
AcDbEntity
  8
SCHEME_DIMS
100
AcDbBlockBegin
 62
2
  6
CONTINUOUS
  2
*D3
 70
65
 10
0.0
 20
0.0
  3
*D3
  1

  0
MTEXT
  5
401
100
AcDbEntity
  8
SCHEME_DIMS
100
AcDbMText
 62
2
  6
CONTINUOUS
  7
TEXTSTYLE_5
 71
1
 72
1
 10
6.8947573169
 20
7.1871208568
 30
0.0
 11
1.0
 21
0.0
 31
0.0
 44
0.9
  1
{\Fgdt;n}\Ftxt;56\P[2.20]
 40
0.1
 41
0.6
  0
LINE
  5
402
100
AcDbEntity
  8
SCHEME_DIMS
100
AcDbLine
 62
2
  6
CONTINUOUS
 10
6.4418336098
 20
7.3238817069
 11
5.6307125782
 21
8.0703970132
  0
LINE
  5
403
100
AcDbEntity
  8
SCHEME_DIMS
100
AcDbLine
 62
2
  6
CONTINUOUS
 10
5.6307125782
 20
8.0703970132
 11
6.6447573169
 21
7.1371208568
  0
LINE
  5
404
100
AcDbEntity
  8
SCHEME_DIMS
100
AcDbLine
 62
2
  6
CONTINUOUS
 10
6.6447573169
 20
7.1371208568
 11
6.7947573169
 21
7.1371208568
  0
LINE
  5
405
100
AcDbEntity
  8
SCHEME_DIMS
100
AcDbLine
 62
2
  6
CONTINUOUS
 10
4.8195915467
 20
8.8169123195
 11
5.6307125782
 21
8.0703970132
  0
INSERT
  5
406
100
AcDbEntity
  8
SCHEME_DIMS
100
AcDbBlockReference
 62
2
  6
CONTINUOUS
  2
_FILLED
 10
6.4418336098
 20
7.3238817069
 41
0.1875
 42
0.1875
 43
0.1875
 50
317.3750825639
  0
INSERT
  5
407
100
AcDbEntity
  8
SCHEME_DIMS
100
AcDbBlockReference
 62
2
  6
CONTINUOUS
  2
_FILLED
 10
4.8195915467
 20
8.8169123195
 41
0.1875
 42
0.1875
 43
0.1875
 50
137.3750825639
  0
ENDBLK
  5
408
100
AcDbEntity
  8
0
  6
BYBLOCK
 62
0
100
AcDbBlockEnd
  0
ENDSEC
  0
SECTION
  2
ENTITIES
  0
MTEXT
  5
409
100
AcDbEntity
  8
0
100
AcDbMText
 62
2
  6
CONTINUOUS
  7
TEXTSTYLE_2
 71
2
 72
1
 10
11.0287658475
 20
1.794867839
 30
0.0
 11
1.0
 21
0.0
 31
0.0
 44
0.9
  1
THIRD ANGLE PROJECTION
 40
0.1
 41
1.76
  0
MTEXT
  5
40A
100
AcDbEntity
  8
0
100
AcDbMText
 62
2
  6
CONTINUOUS
  7
STANDARD
 71
1
 72
1
 10
12.88
 20
1.457
 30
0.0
 11
1.0
 21
0.0
 31
0.0
 44
0.9
  1
DRAWING NO.
 40
0.08
 41
0.88
  0
MTEXT
  5
40B
100
AcDbEntity
  8
0
100
AcDbMText
 62
2
  6
CONTINUOUS
  7
TEXTSTYLE_3
 71
2
 72
1
 10
11.03
 20
2.516432
 30
0.0
 11
1.0
 21
0.0
 31
0.0
 44
0.9
  1
and is proprietary in general
 40
0.08
 41
1.972
  0
MTEXT
  5
40C
100
AcDbEntity
  8
0
100
AcDbMText
 62
2
  6
CONTINUOUS
  7
TEXTSTYLE_3
 71
2
 72
1
 10
11.03
 20
2.396432
 30
0.0
 11
1.0
 21
0.0
 31
0.0
 44
0.9
  1
and in detail.  Its contents
 40
0.08
 41
1.904
  0
MTEXT
  5
40D
100
AcDbEntity
  8
0
100
AcDbMText
 62
2
  6
CONTINUOUS
  7
TEXTSTYLE_3
 71
2
 72
1
 10
11.03
 20
2.276432
 30
0.0
 11
1.0
 21
0.0
 31
0.0
 44
0.9
  1
shall not be revealed to
 40
0.08
 41
1.632
  0
MTEXT
  5
40E
100
AcDbEntity
  8
0
100
AcDbMText
 62
2
  6
CONTINUOUS
  7
TEXTSTYLE_3
 71
2
 72
1
 10
11.03
 20
2.156432
 30
0.0
 11
1.0
 21
0.0
 31
0.0
 44
0.9
  1
outside parties without
 40
0.08
 41
1.564
  0
MTEXT
  5
40F
100
AcDbEntity
  8
0
100
AcDbMText
 62
2
  6
CONTINUOUS
  7
TEXTSTYLE_3
 71
2
 72
1
 10
11.03
 20
2.036432
 30
0.0
 11
1.0
 21
0.0
 31
0.0
 44
0.9
  1
written consent of BANNER.
 40
0.08
 41
1.768
  0
MTEXT
  5
410
100
AcDbEntity
  8
0
100
AcDbMText
 62
2
  6
CONTINUOUS
  7
TEXTSTYLE_2
 71
1
 72
1
 10
12.08
 20
2.217
 30
0.0
 11
1.0
 21
0.0
 31
0.0
 44
0.9
  1
TITLE
 40
0.1
 41
0.4
  0
MTEXT
  5
411
100
AcDbEntity
  8
0
100
AcDbMText
 62
2
  6
CONTINUOUS
  7
STANDARD
 71
1
 72
1
 10
12.08
 20
1.457
 30
0.0
 11
1.0
 21
0.0
 31
0.0
 44
0.9
  1
SIZE
 40
0.08
 41
0.32
  0
MTEXT
  5
412
100
AcDbEntity
  8
0
100
AcDbMText
 62
2
  6
CONTINUOUS
  7
STANDARD
 71
1
 72
1
 10
12.08
 20
1.087
 30
0.0
 11
1.0
 21
0.0
 31
0.0
 44
0.9
  1
SCALE
 40
0.08
 41
0.4
  0
MTEXT
  5
413
100
AcDbEntity
  8
0
100
AcDbMText
 62
2
  6
CONTINUOUS
  7
TEXTSTYLE_2
 71
2
 72
1
 10
12.5
 20
1.337
 30
0.0
 11
1.0
 21
0.0
 31
0.0
 44
0.9
  1
B
 40
0.1
 41
0.08
  0
MTEXT
  5
414
100
AcDbEntity
  8
0
100
AcDbMText
 62
2
  6
CONTINUOUS
  7
TEXTSTYLE_3
 71
2
 72
1
 10
11.03
 20
2.636432
 30
0.0
 11
1.0
 21
0.0
 31
0.0
 44
0.9
  1
of BANNER ENGINEERING CORP.
 40
0.08
 41
1.836
  0
MTEXT
  5
415
100
AcDbEntity
  8
0
100
AcDbMText
 62
2
  6
CONTINUOUS
  7
TEXTSTYLE_3
 71
2
 72
1
 10
11.03
 20
2.756432
 30
0.0
 11
1.0
 21
0.0
 31
0.0
 44
0.9
  1
This drawing is the property
 40
0.08
 41
1.904
  0
MTEXT
  5
416
100
AcDbEntity
  8
0
100
AcDbMText
 62
2
  6
CONTINUOUS
  7
TEXTSTYLE_2
 71
2
 72
1
 10
15.03
 20
2.4134
 30
0.0
 11
1.0
 21
0.0
 31
0.0
 44
0.9
  1
MINNEAPOLIS, MN 55440
 40
0.1
 41
1.68
  0
MTEXT
  5
417
100
AcDbEntity
  8
0
100
AcDbMText
 62
2
  6
CONTINUOUS
  7
STANDARD
 71
1
 72
1
 10
14.255
 20
1.087
 30
0.0
 11
1.0
 21
0.0
 31
0.0
 44
0.9
  1
SHEET
 40
0.08
 41
0.4
  0
MTEXT
  5
418
100
AcDbEntity
  8
0
100
AcDbMText
 62
2
  6
CONTINUOUS
  7
STANDARD
 71
1
 72
1
 10
15.63
 20
1.457
 30
0.0
 11
1.0
 21
0.0
 31
0.0
 44
0.9
  1
REV.
 40
0.08
 41
0.32
  0
MTEXT
  5
419
100
AcDbEntity
  8
0
100
AcDbMText
 62
2
  6
CONTINUOUS
  7
STANDARD
 71
3
 72
1
 10
16.38
 20
0.835443
 30
0.0
 11
1.0
 21
0.0
 31
0.0
 44
0.9
  1
PRO/E
 40
0.07
 41
0.35
  0
MTEXT
  5
41A
100
AcDbEntity
  8
0
100
AcDbMText
 62
2
  6
CONTINUOUS
  7
TEXTSTYLE_4
 71
2
 72
1
 10
15.03
 20
2.751049
 30
0.0
 11
1.0
 21
0.0
 31
0.0
 44
0.9
  1
BANNER ENGINEERING CORP.
 40
0.12
 41
2.6496
  0
MTEXT
  5
41B
100
AcDbEntity
  8
0
100
AcDbMText
 62
2
  6
CONTINUOUS
  7
TEXTSTYLE_2
 71
2
 72
1
 10
15.03
 20
2.5724
 30
0.0
 11
1.0
 21
0.0
 31
0.0
 44
0.9
  1
P.O. BOX 9414
 40
0.1
 41
1.04
  0
MTEXT
  5
41C
100
AcDbEntity
  8
0
100
AcDbMText
 62
2
  6
CONTINUOUS
  7
TEXTSTYLE_2
 71
2
 72
1
 10
9.485
 20
10.312
 30
0.0
 11
1.0
 21
0.0
 31
0.0
 44
0.9
  1
4
 40
0.1
 41
0.08
  0
MTEXT
  5
41D
100
AcDbEntity
  8
0
100
AcDbMText
 62
2
  6
CONTINUOUS
  7
TEXTSTYLE_2
 71
2
 72
1
 10
11.455
 20
10.312
 30
0.0
 11
1.0
 21
0.0
 31
0.0
 44
0.9
  1
3
 40
0.1
 41
0.08
  0
MTEXT
  5
41E
100
AcDbEntity
  8
0
100
AcDbMText
 62
2
  6
CONTINUOUS
  7
TEXTSTYLE_2
 71
2
 72
1
 10
13.425
 20
10.312
 30
0.0
 11
1.0
 21
0.0
 31
0.0
 44
0.9
  1
2
 40
0.1
 41
0.08
  0
MTEXT
  5
41F
100
AcDbEntity
  8
0
100
AcDbMText
 62
2
  6
CONTINUOUS
  7
TEXTSTYLE_2
 71
2
 72
1
 10
15.395
 20
10.312
 30
0.0
 11
1.0
 21
0.0
 31
0.0
 44
0.9
  1
1
 40
0.1
 41
0.08
  0
MTEXT
  5
420
100
AcDbEntity
  8
0
100
AcDbMText
 62
2
  6
CONTINUOUS
  7
TEXTSTYLE_2
 71
2
 72
1
 10
3.575
 20
10.312
 30
0.0
 11
1.0
 21
0.0
 31
0.0
 44
0.9
  1
7
 40
0.1
 41
0.08
  0
MTEXT
  5
421
100
AcDbEntity
  8
0
100
AcDbMText
 62
2
  6
CONTINUOUS
  7
TEXTSTYLE_2
 71
2
 72
1
 10
5.545
 20
10.312
 30
0.0
 11
1.0
 21
0.0
 31
0.0
 44
0.9
  1
6
 40
0.1
 41
0.08
  0
MTEXT
  5
422
100
AcDbEntity
  8
0
100
AcDbMText
 62
2
  6
CONTINUOUS
  7
TEXTSTYLE_2
 71
2
 72
1
 10
7.515
 20
10.312
 30
0.0
 11
1.0
 21
0.0
 31
0.0
 44
0.9
  1
5
 40
0.1
 41
0.08
  0
MTEXT
  5
423
100
AcDbEntity
  8
0
100
AcDbMText
 62
2
  6
CONTINUOUS
  7
TEXTSTYLE_2
 71
2
 72
1
 10
1.605
 20
10.312
 30
0.0
 11
1.0
 21
0.0
 31
0.0
 44
0.9
  1
8
 40
0.1
 41
0.08
  0
MTEXT
  5
424
100
AcDbEntity
  8
0
100
AcDbMText
 62
2
  6
CONTINUOUS
  7
TEXTSTYLE_2
 71
2
 72
1
 10
1.605
 20
0.787
 30
0.0
 11
1.0
 21
0.0
 31
0.0
 44
0.9
  1
8
 40
0.1
 41
0.08
  0
MTEXT
  5
425
100
AcDbEntity
  8
0
100
AcDbMText
 62
2
  6
CONTINUOUS
  7
TEXTSTYLE_2
 71
2
 72
1
 10
3.575
 20
0.787
 30
0.0
 11
1.0
 21
0.0
 31
0.0
 44
0.9
  1
7
 40
0.1
 41
0.08
  0
MTEXT
  5
426
100
AcDbEntity
  8
0
100
AcDbMText
 62
2
  6
CONTINUOUS
  7
TEXTSTYLE_2
 71
2
 72
1
 10
5.545
 20
0.787
 30
0.0
 11
1.0
 21
0.0
 31
0.0
 44
0.9
  1
6
 40
0.1
 41
0.08
  0
MTEXT
  5
427
100
AcDbEntity
  8
0
100
AcDbMText
 62
2
  6
CONTINUOUS
  7
TEXTSTYLE_2
 71
2
 72
1
 10
7.515
 20
0.787
 30
0.0
 11
1.0
 21
0.0
 31
0.0
 44
0.9
  1
5
 40
0.1
 41
0.08
  0
MTEXT
  5
428
100
AcDbEntity
  8
0
100
AcDbMText
 62
2
  6
CONTINUOUS
  7
TEXTSTYLE_2
 71
2
 72
1
 10
9.485
 20
0.787
 30
0.0
 11
1.0
 21
0.0
 31
0.0
 44
0.9
  1
4
 40
0.1
 41
0.08
  0
MTEXT
  5
429
100
AcDbEntity
  8
0
100
AcDbMText
 62
2
  6
CONTINUOUS
  7
TEXTSTYLE_2
 71
2
 72
1
 10
11.455
 20
0.787
 30
0.0
 11
1.0
 21
0.0
 31
0.0
 44
0.9
  1
3
 40
0.1
 41
0.08
  0
MTEXT
  5
42A
100
AcDbEntity
  8
0
100
AcDbMText
 62
2
  6
CONTINUOUS
  7
TEXTSTYLE_2
 71
2
 72
1
 10
13.425
 20
0.787
 30
0.0
 11
1.0
 21
0.0
 31
0.0
 44
0.9
  1
2
 40
0.1
 41
0.08
  0
MTEXT
  5
42B
100
AcDbEntity
  8
0
100
AcDbMText
 62
2
  6
CONTINUOUS
  7
TEXTSTYLE_2
 71
2
 72
1
 10
15.395
 20
0.787
 30
0.0
 11
1.0
 21
0.0
 31
0.0
 44
0.9
  1
1
 40
0.1
 41
0.08
  0
MTEXT
  5
42C
100
AcDbEntity
  8
0
100
AcDbMText
 62
2
  6
CONTINUOUS
  7
TEXTSTYLE_2
 71
3
 72
1
 10
0.52
 20
4.3995
 30
0.0
 11
1.0
 21
0.0
 31
0.0
 44
0.9
  1
B
 40
0.1
 41
0.08
  0
MTEXT
  5
42D
100
AcDbEntity
  8
0
100
AcDbMText
 62
2
  6
CONTINUOUS
  7
TEXTSTYLE_2
 71
3
 72
1
 10
0.52
 20
2.0995
 30
0.0
 11
1.0
 21
0.0
 31
0.0
 44
0.9
  1
A
 40
0.1
 41
0.08
  0
MTEXT
  5
42E
100
AcDbEntity
  8
0
100
AcDbMText
 62
2
  6
CONTINUOUS
  7
TEXTSTYLE_2
 71
3
 72
1
 10
0.52
 20
8.9995
 30
0.0
 11
1.0
 21
0.0
 31
0.0
 44
0.9
  1
D
 40
0.1
 41
0.08
  0
MTEXT
  5
42F
100
AcDbEntity
  8
0
100
AcDbMText
 62
2
  6
CONTINUOUS
  7
TEXTSTYLE_2
 71
3
 72
1
 10
0.52
 20
6.6995
 30
0.0
 11
1.0
 21
0.0
 31
0.0
 44
0.9
  1
C
 40
0.1
 41
0.08
  0
MTEXT
  5
430
100
AcDbEntity
  8
0
100
AcDbMText
 62
2
  6
CONTINUOUS
  7
TEXTSTYLE_2
 71
1
 72
1
 10
16.48
 20
8.9995
 30
0.0
 11
1.0
 21
0.0
 31
0.0
 44
0.9
  1
D
 40
0.1
 41
0.08
  0
MTEXT
  5
431
100
AcDbEntity
  8
0
100
AcDbMText
 62
2
  6
CONTINUOUS
  7
TEXTSTYLE_2
 71
1
 72
1
 10
16.48
 20
6.6995
 30
0.0
 11
1.0
 21
0.0
 31
0.0
 44
0.9
  1
C
 40
0.1
 41
0.08
  0
MTEXT
  5
432
100
AcDbEntity
  8
0
100
AcDbMText
 62
2
  6
CONTINUOUS
  7
TEXTSTYLE_2
 71
1
 72
1
 10
16.48
 20
4.3995
 30
0.0
 11
1.0
 21
0.0
 31
0.0
 44
0.9
  1
B
 40
0.1
 41
0.08
  0
MTEXT
  5
433
100
AcDbEntity
  8
0
100
AcDbMText
 62
2
  6
CONTINUOUS
  7
TEXTSTYLE_2
 71
1
 72
1
 10
16.48
 20
2.0995
 30
0.0
 11
1.0
 21
0.0
 31
0.0
 44
0.9
  1
A
 40
0.1
 41
0.08
  0
MTEXT
  5
434
100
AcDbEntity
  8
0
100
AcDbMText
 62
2
  6
CONTINUOUS
  7
STANDARD
 71
1
 72
1
 10
14.819264911
 20
1.0627941725
 30
0.0
 11
1.0
 21
0.0
 31
0.0
 44
0.9
  1
1 OF 1
 40
0.1
 41
0.6
  0
MTEXT
  5
435
100
AcDbEntity
  8
0
100
AcDbMText
 62
7
  6
CONTINUOUS
  7
STANDARD
 71
1
 72
1
 10
13.8911999818
 20
1.3747321586
 30
0.0
 11
1.0
 21
0.0
 31
0.0
 44
0.9
  1
168710
 40
0.12
 41
0.72
  0
MTEXT
  5
436
100
AcDbEntity
  8
0
100
AcDbMText
 62
2
  6
CONTINUOUS
  7
STANDARD
 71
1
 72
1
 10
12.644264911
 20
1.0627941725
 30
0.0
 11
1.0
 21
0.0
 31
0.0
 44
0.9
  1
1:1
 40
0.1
 41
0.3
  0
MTEXT
  5
437
100
AcDbEntity
  8
0
100
AcDbMText
 62
2
  6
CONTINUOUS
  7
STANDARD
 71
1
 72
1
 10
1.0597007627
 20
1.6202922458
 30
0.0
 11
1.0
 21
0.0
 31
0.0
 44
0.9
  1
NOTES:\P1. ALL DIMENSIONS ARE MILLIMETERS [INCHES] UNLESS OTHERWISE NOTED.
 40
0.1
 41
6.6
  0
INSERT
  5
438
100
AcDbEntity
  8
0
100
AcDbBlockReference
 62
2
  6
CONTINUOUS
  2
BANNER_LOGO_TITLEBLOCK_BL0
 10
12.9086867042
 20
2.5403783405
  0
DIMENSION
  5
439
100
AcDbEntity
  8
SCHEME_DIMS
100
AcDbDimension
 62
2
  6
CONTINUOUS
  2
*D0
 10
7.2330775442
 20
3.6261622879
 11
7.1580775442
 21
3.3308866973
 70
160
 71
2
 42
15.0
  3
DIMSTYLE_1
100
AcDbAlignedDimension
 13
5.8969527357
 23
3.0356111068
 14
6.2050236018
 24
3.6261622879
 50
90.0
100
AcDbRotatedDimension
  0
DIMENSION
  5
43A
100
AcDbEntity
  8
SCHEME_DIMS
100
AcDbDimension
 62
2
  6
CONTINUOUS
  2
*D1
 10
7.8523997454
 20
4.8013591383
 11
7.7273997454
 21
3.8434851225
 70
160
 71
2
 42
44.85
  3
DIMSTYLE_1
100
AcDbAlignedDimension
 13
5.8969527357
 23
3.0356111068
 14
6.7168346255
 24
4.8013591383
 50
90.0
100
AcDbRotatedDimension
  0
DIMENSION
  5
43B
100
AcDbEntity
  8
SCHEME_DIMS
100
AcDbDimension
 62
2
  6
CONTINUOUS
  2
*D2
 10
8.4482294272
 20
5.8328552013
 11
8.3232294272
 21
4.359233154
 70
160
 71
2
 42
71.05
  3
DIMSTYLE_1
100
AcDbAlignedDimension
 13
5.8969527357
 23
3.0356111068
 14
6.7463621845
 24
5.8328552013
 50
90.0
100
AcDbRotatedDimension
  0
DIMENSION
  5
43C
100
AcDbEntity
  8
SCHEME_DIMS
100
AcDbDimension
 62
2
  6
CONTINUOUS
  2
*D3
 10
6.4418336098
 20
7.3238817069
 11
7.2614239835
 21
7.0621208568
 70
163
 71
1
 42
56.0
  1
<>
  3
DIMSTYLE_2
100
AcDbDiametricDimension
 15
4.8195915467
 25
8.8169123195
  0
LINE
  5
43D
100
AcDbEntity
  8
0
100
AcDbLine
 62
2
  6
CONTINUOUS
 10
16.38
 20
0.887
 11
12.03
 21
0.887
  0
LINE
  5
43E
100
AcDbEntity
  8
0
100
AcDbLine
 62
2
  6
CONTINUOUS
 10
16.38
 20
0.887
 11
16.38
 21
2.807
  0
LINE
  5
43F
100
AcDbEntity
  8
0
100
AcDbLine
 62
2
  6
CONTINUOUS
 10
16.38
 20
2.807
 11
12.03
 21
2.807
  0
LINE
  5
440
100
AcDbEntity
  8
0
100
AcDbLine
 62
2
  6
CONTINUOUS
 10
12.03
 20
0.887
 11
12.03
 21
2.807
  0
MTEXT
  5
441
100
AcDbEntity
  8
NOTES
100
AcDbMText
 62
7
  6
CONTINUOUS
  7
STANDARD
 71
2
 72
1
 10
16.155
 20
1.367
 30
0.0
 11
1.0
 21
0.0
 31
0.0
 44
0.9
  1
A
 40
0.1
 41
0.1
  0
MTEXT
  5
442
100
AcDbEntity
  8
NOTES
100
AcDbMText
 62
7
  6
CONTINUOUS
  7
STANDARD
 71
2
 72
1
 10
14.205
 20
1.817
 30
0.0
 11
1.0
 21
0.0
 31
0.0
 44
0.9
  1
WL50S SSL Q QD
 40
0.1
 41
1.4
  0
LEADER
  5
443
100
AcDbEntity
  8
NOTES
100
AcDbLeader
 62
2
  6
CONTINUOUS
  3
STANDARD
 71
1
 72
0
 73
0
 75
0
 40
0.1
 41
1.2
 76
3
 10
5.111803648
 20
3.8234240018
 30
0.0
 10
4.4561447259
 20
4.1111252549
 30
0.0
 10
4.2061447259
 20
4.1111252549
 30
0.0
340
444
1001
ACAD
1000
DSTYLE
1002
{
1070
77
1070
0
1002
}
  0
MTEXT
  5
444
102
{ACAD_REACTORS
330
443
102
}
100
AcDbEntity
  8
NOTES
100
AcDbMText
 62
2
  6
CONTINUOUS
  7
STANDARD
 71
3
 72
1
 10
4.2061447259
 20
4.1611252549
 30
0.0
 11
1.0
 21
0.0
 31
0.0
 44
0.9
  1
M30 X 1.6-6g
 40
0.1
 41
1.2
  0
LEADER
  5
445
100
AcDbEntity
  8
NOTES
100
AcDbLeader
 62
2
  6
CONTINUOUS
  3
STANDARD
 71
1
 72
0
 73
0
 75
0
 40
0.1
 41
1.0
 76
3
 10
5.4708959247
 20
3.1686919023
 30
0.0
 10
4.4778656136
 20
2.8245013246
 30
0.0
 10
4.2278656136
 20
2.8245013246
 30
0.0
340
446
1001
ACAD
1000
DSTYLE
1002
{
1070
77
1070
0
1002
}
  0
MTEXT
  5
446
102
{ACAD_REACTORS
330
445
102
}
100
AcDbEntity
  8
NOTES
100
AcDbMText
 62
2
  6
CONTINUOUS
  7
STANDARD
 71
3
 72
1
 10
4.2278656136
 20
2.8745013246
 30
0.0
 11
1.0
 21
0.0
 31
0.0
 44
0.9
  1
M12 X 1-6g
 40
0.1
 41
1.0
  0
MTEXT
  5
447
100
AcDbEntity
  8
NOTES
100
AcDbMText
 62
2
  6
CONTINUOUS
  7
STANDARD
 71
2
 72
1
 10
12.6493671182
 20
4.388369615
 30
0.0
 11
1.0
 21
0.0
 31
0.0
 44
0.9
  1
ISOMETRIC VIEW\P\H0.1;SCALE  1:1
 40
0.125
 41
1.75
  0
LINE
  5
448
100
AcDbEntity
  8
0
100
AcDbLine
 62
2
  6
CONTINUOUS
 10
0.47
 20
5.586103
 11
0.47
 21
5.412897
  0
LINE
  5
449
100
AcDbEntity
  8
0
100
AcDbLine
 62
2
  6
CONTINUOUS
 10
0.62
 20
10.112
 11
0.62
 21
0.887
  0
LINE
  5
44A
100
AcDbEntity
  8
0
100
AcDbLine
 62
2
  6
CONTINUOUS
 10
2.59
 20
0.887
 11
2.59
 21
0.637
  0
LINE
  5
44B
100
AcDbEntity
  8
0
100
AcDbLine
 62
2
  6
CONTINUOUS
 10
2.59
 20
10.112
 11
2.59
 21
10.362
  0
LINE
  5
44C
100
AcDbEntity
  8
0
100
AcDbLine
 62
2
  6
CONTINUOUS
 10
8.413397
 20
0.737
 11
8.586603
 21
0.737
  0
LINE
  5
44D
100
AcDbEntity
  8
0
100
AcDbLine
 62
7
  6
CONTINUOUS
 10
11.1389508475
 20
1.425992839
 11
11.7453418475
 21
1.495385839
  0
LINE
  5
44E
100
AcDbEntity
  8
0
100
AcDbLine
 62
2
  6
CONTINUOUS
 10
0.62
 20
0.887
 11
16.38
 21
0.887
  0
LINE
  5
44F
100
AcDbEntity
  8
0
100
AcDbLine
 62
2
  6
CONTINUOUS
 10
12.03
 20
1.137
 11
16.38
 21
1.137
  0
LINE
  5
450
100
AcDbEntity
  8
0
100
AcDbLine
 62
7
  6
CONTINUOUS
 10
10.2121898475
 20
1.243294839
 11
10.4342808475
 21
1.243294839
  0
LINE
  5
451
100
AcDbEntity
  8
0
100
AcDbLine
 62
7
  6
CONTINUOUS
 10
10.4842808475
 20
1.243294839
 11
10.5842808475
 21
1.243294839
  0
LINE
  5
452
100
AcDbEntity
  8
0
100
AcDbLine
 62
7
  6
CONTINUOUS
 10
10.6342808475
 20
1.243294839
 11
10.8563718475
 21
1.243294839
  0
LINE
  5
453
100
AcDbEntity
  8
0
100
AcDbLine
 62
7
  6
CONTINUOUS
 10
11.0389508475
 20
1.243294839
 11
11.3171028475
 21
1.243294839
  0
LINE
  5
454
100
AcDbEntity
  8
0
100
AcDbLine
 62
7
  6
CONTINUOUS
 10
11.3671028475
 20
1.243294839
 11
11.5171888475
 21
1.243294839
  0
LINE
  5
455
100
AcDbEntity
  8
0
100
AcDbLine
 62
7
  6
CONTINUOUS
 10
11.5671888475
 20
1.243294839
 11
11.8453418475
 21
1.243294839
  0
LINE
  5
456
100
AcDbEntity
  8
0
100
AcDbLine
 62
7
  6
CONTINUOUS
 10
11.7453418475
 20
0.991203839
 11
11.1389508475
 21
1.060596839
  0
LINE
  5
457
100
AcDbEntity
  8
0
100
AcDbLine
 62
2
  6
CONTINUOUS
 10
4.56
 20
0.887
 11
4.56
 21
0.637
  0
LINE
  5
458
100
AcDbEntity
  8
0
100
AcDbLine
 62
2
  6
CONTINUOUS
 10
4.56
 20
10.112
 11
4.56
 21
10.362
  0
LINE
  5
459
100
AcDbEntity
  8
0
100
AcDbLine
 62
2
  6
CONTINUOUS
 10
0.47
 20
5.412897
 11
0.62
 21
5.4995
  0
LINE
  5
45A
100
AcDbEntity
  8
0
100
AcDbLine
 62
2
  6
CONTINUOUS
 10
12.03
 20
1.507
 11
16.38
 21
1.507
  0
LINE
  5
45B
100
AcDbEntity
  8
0
100
AcDbLine
 62
2
  6
CONTINUOUS
 10
10.03
 20
1.907
 11
12.03
 21
1.907
  0
LINE
  5
45C
100
AcDbEntity
  8
0
100
AcDbLine
 62
2
  6
CONTINUOUS
 10
0.62
 20
5.4995
 11
0.47
 21
5.586103
  0
LINE
  5
45D
100
AcDbEntity
  8
0
100
AcDbLine
 62
2
  6
CONTINUOUS
 10
12.03
 20
2.267
 11
16.38
 21
2.267
  0
LINE
  5
45E
100
AcDbEntity
  8
0
100
AcDbLine
 62
2
  6
CONTINUOUS
 10
8.5
 20
10.112
 11
8.586603
 21
10.262
  0
LINE
  5
45F
100
AcDbEntity
  8
0
100
AcDbLine
 62
2
  6
CONTINUOUS
 10
16.38
 20
2.807
 11
10.03
 21
2.807
  0
LINE
  5
460
100
AcDbEntity
  8
0
100
AcDbLine
 62
2
  6
CONTINUOUS
 10
0.62
 20
3.1995
 11
0.37
 21
3.1995
  0
LINE
  5
461
100
AcDbEntity
  8
0
100
AcDbLine
 62
2
  6
CONTINUOUS
 10
16.38
 20
3.1995
 11
16.63
 21
3.1995
  0
LINE
  5
462
100
AcDbEntity
  8
0
100
AcDbLine
 62
2
  6
CONTINUOUS
 10
8.586603
 20
0.737
 11
8.5
 21
0.887
  0
LINE
  5
463
100
AcDbEntity
  8
0
100
AcDbLine
 62
2
  6
CONTINUOUS
 10
6.53
 20
0.887
 11
6.53
 21
0.637
  0
LINE
  5
464
100
AcDbEntity
  8
0
100
AcDbLine
 62
2
  6
CONTINUOUS
 10
6.53
 20
10.112
 11
6.53
 21
10.362
  0
LINE
  5
465
100
AcDbEntity
  8
0
100
AcDbLine
 62
2
  6
CONTINUOUS
 10
8.5
 20
0.887
 11
8.5
 21
0.637
  0
LINE
  5
466
100
AcDbEntity
  8
0
100
AcDbLine
 62
2
  6
CONTINUOUS
 10
8.5
 20
10.112
 11
8.5
 21
10.362
  0
LINE
  5
467
100
AcDbEntity
  8
0
100
AcDbLine
 62
2
  6
CONTINUOUS
 10
0.62
 20
5.4995
 11
0.37
 21
5.4995
  0
LINE
  5
468
100
AcDbEntity
  8
0
100
AcDbLine
 62
2
  6
CONTINUOUS
 10
16.38
 20
5.4995
 11
16.63
 21
5.4995
  0
LINE
  5
469
100
AcDbEntity
  8
0
100
AcDbLine
 62
2
  6
CONTINUOUS
 10
10.03
 20
2.807
 11
10.03
 21
0.887
  0
LINE
  5
46A
100
AcDbEntity
  8
0
100
AcDbLine
 62
2
  6
CONTINUOUS
 10
10.47
 20
0.887
 11
10.47
 21
0.637
  0
LINE
  5
46B
100
AcDbEntity
  8
0
100
AcDbLine
 62
2
  6
CONTINUOUS
 10
10.47
 20
10.112
 11
10.47
 21
10.362
  0
LINE
  5
46C
100
AcDbEntity
  8
0
100
AcDbLine
 62
7
  6
CONTINUOUS
 10
10.5342808475
 20
1.143294839
 11
10.5342808475
 21
0.921203839
  0
LINE
  5
46D
100
AcDbEntity
  8
0
100
AcDbLine
 62
7
  6
CONTINUOUS
 10
10.5342808475
 20
1.193294839
 11
10.5342808475
 21
1.293294839
  0
LINE
  5
46E
100
AcDbEntity
  8
0
100
AcDbLine
 62
7
  6
CONTINUOUS
 10
10.5342808475
 20
1.343294839
 11
10.5342808475
 21
1.565385839
  0
LINE
  5
46F
100
AcDbEntity
  8
0
100
AcDbLine
 62
2
  6
CONTINUOUS
 10
8.5
 20
0.887
 11
8.413397
 21
0.737
  0
LINE
  5
470
100
AcDbEntity
  8
0
100
AcDbLine
 62
2
  6
CONTINUOUS
 10
0.62
 20
7.7995
 11
0.37
 21
7.7995
  0
LINE
  5
471
100
AcDbEntity
  8
0
100
AcDbLine
 62
2
  6
CONTINUOUS
 10
16.38
 20
7.7995
 11
16.63
 21
7.7995
  0
LINE
  5
472
100
AcDbEntity
  8
0
100
AcDbLine
 62
2
  6
CONTINUOUS
 10
8.413397
 20
10.262
 11
8.5
 21
10.112
  0
LINE
  5
473
100
AcDbEntity
  8
0
100
AcDbLine
 62
7
  6
CONTINUOUS
 10
11.1389508475
 20
1.060596839
 11
11.1389508475
 21
1.425992839
  0
LINE
  5
474
100
AcDbEntity
  8
0
100
AcDbLine
 62
7
  6
CONTINUOUS
 10
11.7453418475
 20
1.495385839
 11
11.7453418475
 21
0.991203839
  0
LINE
  5
475
100
AcDbEntity
  8
0
100
AcDbLine
 62
1
  6
CONTINUOUS
 10
12.03
 20
2.807
 11
12.03
 21
0.887
  0
LINE
  5
476
100
AcDbEntity
  8
0
100
AcDbLine
 62
2
  6
CONTINUOUS
 10
12.44
 20
0.887
 11
12.44
 21
0.637
  0
LINE
  5
477
100
AcDbEntity
  8
0
100
AcDbLine
 62
2
  6
CONTINUOUS
 10
12.44
 20
10.112
 11
12.44
 21
10.362
  0
LINE
  5
478
100
AcDbEntity
  8
0
100
AcDbLine
 62
2
  6
CONTINUOUS
 10
16.53
 20
5.586103
 11
16.38
 21
5.4995
  0
LINE
  5
479
100
AcDbEntity
  8
0
100
AcDbLine
 62
2
  6
CONTINUOUS
 10
16.38
 20
5.4995
 11
16.53
 21
5.412897
  0
LINE
  5
47A
100
AcDbEntity
  8
0
100
AcDbLine
 62
2
  6
CONTINUOUS
 10
12.83
 20
1.507
 11
12.83
 21
1.137
  0
LINE
  5
47B
100
AcDbEntity
  8
0
100
AcDbLine
 62
2
  6
CONTINUOUS
 10
16.38
 20
10.112
 11
0.62
 21
10.112
  0
LINE
  5
47C
100
AcDbEntity
  8
0
100
AcDbLine
 62
2
  6
CONTINUOUS
 10
8.586603
 20
10.262
 11
8.413397
 21
10.262
  0
LINE
  5
47D
100
AcDbEntity
  8
0
100
AcDbLine
 62
2
  6
CONTINUOUS
 10
14.205
 20
1.137
 11
14.205
 21
0.887
  0
LINE
  5
47E
100
AcDbEntity
  8
0
100
AcDbLine
 62
2
  6
CONTINUOUS
 10
14.41
 20
0.887
 11
14.41
 21
0.637
  0
LINE
  5
47F
100
AcDbEntity
  8
0
100
AcDbLine
 62
2
  6
CONTINUOUS
 10
14.41
 20
10.112
 11
14.41
 21
10.362
  0
LINE
  5
480
100
AcDbEntity
  8
0
100
AcDbLine
 62
2
  6
CONTINUOUS
 10
15.58
 20
1.507
 11
15.58
 21
1.137
  0
LINE
  5
481
100
AcDbEntity
  8
0
100
AcDbLine
 62
2
  6
CONTINUOUS
 10
16.38
 20
0.887
 11
16.38
 21
10.112
  0
LINE
  5
482
100
AcDbEntity
  8
0
100
AcDbLine
 62
2
  6
CONTINUOUS
 10
16.53
 20
5.412897
 11
16.53
 21
5.586103
  0
LWPOLYLINE
  5
483
100
AcDbEntity
  8
0
100
AcDbPolyline
 62
7
  6
CONTINUOUS
 90
10
 70
0
 10
5.8644119823
 20
3.1042777712
 10
5.8605865869
 20
3.1033504544
 10
5.8524438026
 20
3.1024820077
 10
5.8400485768
 20
3.101613565
 10
5.8236387767
 20
3.1007451304
 10
5.8035290597
 20
3.0998766976
 10
5.7801050268
 20
3.0990082637
 10
5.7538161796
 20
3.0981398375
 10
5.7251667305
 20
3.0972714187
 10
5.6947061899
 20
3.096403008
  0
LWPOLYLINE
  5
484
100
AcDbEntity
  8
0
100
AcDbPolyline
 62
7
  6
CONTINUOUS
 90
8
 70
0
 10
5.468529938
 20
3.0749811855
 10
5.4851683481
 20
3.0778221375
 10
5.5045132651
 20
3.0806563395
 10
5.526152404
 20
3.083465063
 10
5.5498877932
 20
3.08626481
 10
5.5755636493
 20
3.0890749746
 10
5.6027012058
 20
3.0918817082
 10
5.6307125782
 20
3.0946662249
  0
LWPOLYLINE
  5
485
100
AcDbEntity
  8
0
100
AcDbPolyline
 62
7
  6
CONTINUOUS
 90
9
 70
0
 10
5.8623999126
 20
3.1449928808
 10
5.8558978937
 20
3.1441355
 10
5.8452556752
 20
3.1432827853
 10
5.8306830018
 20
3.1424319666
 10
5.8122523751
 20
3.1415736334
 10
5.7902607551
 20
3.1407094414
 10
5.7653111397
 20
3.1398476103
 10
5.7381030505
 20
3.138994337
 10
5.7087059534
 20
3.1381353605
  0
LWPOLYLINE
  5
486
100
AcDbEntity
  8
0
100
AcDbPolyline
 62
7
  6
CONTINUOUS
 90
5
 70
0
 10
5.8240700162
 20
3.0770204861
 10
5.8361804915
 20
3.077529559
 10
5.8442964778
 20
3.0780383331
 10
5.8482466128
 20
3.0785468095
 10
5.8486088873
 20
3.0787042662
  0
LWPOLYLINE
  5
487
100
AcDbEntity
  8
0
100
AcDbPolyline
 62
7
  6
CONTINUOUS
 90
10
 70
0
 10
5.6946931076
 20
3.1172935215
 10
5.7223896212
 20
3.1181937839
 10
5.748196931
 20
3.1190940464
 10
5.7715832212
 20
3.1199943089
 10
5.7920665669
 20
3.1208945713
 10
5.8092248644
 20
3.1217948338
 10
5.8227045297
 20
3.1226950963
 10
5.8322277852
 20
3.1235953587
 10
5.8375983835
 20
3.1244956212
 10
5.8386529566
 20
3.1249185274
  0
LWPOLYLINE
  5
488
100
AcDbEntity
  8
0
100
AcDbPolyline
 62
7
  6
CONTINUOUS
 90
10
 70
0
 10
5.6870156422
 20
3.0776819729
 10
5.7151231512
 20
3.0785822354
 10
5.7414911976
 20
3.0794824978
 10
5.7655764108
 20
3.0803827603
 10
5.7868824627
 20
3.0812830228
 10
5.804970296
 20
3.0821832852
 10
5.8194671718
 20
3.0830835477
 10
5.8300743505
 20
3.0839838102
 10
5.8365732483
 20
3.0848840726
 10
5.8386529566
 20
3.0855484486
  0
LINE
  5
489
100
AcDbEntity
  8
0
100
AcDbLine
 62
7
  6
CONTINUOUS
 10
5.5981556185
 20
3.0749811855
 11
5.6870156422
 21
3.0776819729
  0
LINE
  5
48A
100
AcDbEntity
  8
0
100
AcDbLine
 62
7
  6
CONTINUOUS
 10
5.5767632568
 20
3.1136924716
 11
5.6946931076
 21
3.1172935215
  0
LWPOLYLINE
  5
48B
100
AcDbEntity
  8
0
100
AcDbPolyline
 62
7
  6
CONTINUOUS
 90
10
 70
0
 10
5.7095167402
 20
3.136189915
 10
5.738885645
 20
3.1370494608
 10
5.7660000536
 20
3.1379017072
 10
5.7906048491
 20
3.1387535595
 10
5.8123513369
 20
3.1396093374
 10
5.8307039105
 20
3.1404645434
 10
5.8453098638
 20
3.1413179323
 10
5.8559692877
 20
3.1421741002
 10
5.862411698
 20
3.1430267029
 10
5.8644119823
 20
3.1436478499
  0
LWPOLYLINE
  5
48C
100
AcDbEntity
  8
0
100
AcDbPolyline
 62
7
  6
CONTINUOUS
 90
10
 70
0
 10
5.5519539782
 20
3.1338524928
 10
5.5227110288
 20
3.1329968327
 10
5.495590861
 20
3.1321448472
 10
5.4708959247
 20
3.1312903275
 10
5.4492384775
 20
3.1304387733
 10
5.4309206802
 20
3.1295868632
 10
5.4162659137
 20
3.1287333148
 10
5.4055190222
 20
3.1278732966
 10
5.3990124077
 20
3.1270142006
 10
5.3970131741
 20
3.1263932612
  0
LWPOLYLINE
  5
48D
100
AcDbEntity
  8
0
100
AcDbPolyline
 62
7
  6
CONTINUOUS
 90
10
 70
0
 10
5.6872849966
 20
3.0981657041
 10
5.7183143217
 20
3.0990405883
 10
5.7476384347
 20
3.0999154673
 10
5.7746865852
 20
3.1007903397
 10
5.7989326746
 20
3.1016652164
 10
5.8199048136
 20
3.1025401003
 10
5.8371946059
 20
3.1034149848
 10
5.8504655317
 20
3.1042898703
 10
5.8594592814
 20
3.1051647579
 10
5.8640007621
 20
3.1060396431
  0
LWPOLYLINE
  5
48E
100
AcDbEntity
  8
0
100
AcDbPolyline
 62
7
  6
CONTINUOUS
 90
4
 70
0
 10
5.5521035063
 20
3.1318882433
 10
5.6150059038
 20
3.1336151457
 10
5.6468082656
 20
3.1344679088
 10
5.7095167402
 20
3.136189915
  0
LWPOLYLINE
  5
48F
100
AcDbEntity
  8
0
100
AcDbPolyline
 62
7
  6
CONTINUOUS
 90
4
 70
0
 10
5.7087059534
 20
3.1381353605
 10
5.6458659283
 20
3.1364111075
 10
5.6140991757
 20
3.1355592967
 10
5.5519539782
 20
3.1338524928
  0
LINE
  5
490
100
AcDbEntity
  8
0
100
AcDbLine
 62
7
  6
CONTINUOUS
 10
5.6947061899
 20
3.096403008
 11
5.6307125782
 21
3.0946662249
  0
LINE
  5
491
100
AcDbEntity
  8
0
100
AcDbLine
 62
7
  6
CONTINUOUS
 10
5.5584463992
 20
3.0946662249
 11
5.6872849966
 21
3.0981657041
  0
LWPOLYLINE
  5
492
100
AcDbEntity
  8
0
100
AcDbPolyline
 62
7
  6
CONTINUOUS
 90
5
 70
0
 10
5.741731532
 20
3.0749811855
 10
5.7666262824
 20
3.0754914641
 10
5.7889368157
 20
3.0760014397
 10
5.8082145583
 20
3.0765111134
 10
5.8240700162
 20
3.0770204861
  0
LINE
  5
493
100
AcDbEntity
  8
0
100
AcDbLine
 62
7
  6
CONTINUOUS
 10
5.4269724207
 20
3.0356111068
 11
5.8344527357
 21
3.0356111068
  0
LINE
  5
494
100
AcDbEntity
  8
0
100
AcDbLine
 62
7
  6
CONTINUOUS
 10
5.8448852623
 20
3.0749811855
 11
5.4165393991
 21
3.0749811855
  0
LINE
  5
495
100
AcDbEntity
  8
0
100
AcDbLine
 62
7
  6
CONTINUOUS
 10
5.6307125782
 20
3.0946662249
 11
5.5584463992
 21
3.0946662249
  0
LWPOLYLINE
  5
496
100
AcDbEntity
  8
0
100
AcDbPolyline
 62
7
  6
CONTINUOUS
 90
10
 70
0
 10
5.4227721998
 20
3.1451225838
 10
5.4266481443
 20
3.1461019204
 10
5.4346039806
 20
3.1470021829
 10
5.4466010591
 20
3.1479024454
 10
5.4623921541
 20
3.1488027078
 10
5.4816518558
 20
3.1497029703
 10
5.5039832764
 20
3.1506032328
 10
5.5289262286
 20
3.1515034952
 10
5.555966709
 20
3.1524037577
 10
5.5845474898
 20
3.1533040202
  0
LWPOLYLINE
  5
497
100
AcDbEntity
  8
0
100
AcDbPolyline
 62
7
  6
CONTINUOUS
 90
10
 70
0
 10
5.4014404445
 20
3.0902420115
 10
5.4035666985
 20
3.090663456
 10
5.4100953016
 20
3.0911647502
 10
5.4208593841
 20
3.0916657781
 10
5.4356652511
 20
3.0921665375
 10
5.4542418384
 20
3.0926670277
 10
5.4762456303
 20
3.0931672441
 10
5.5012672068
 20
3.093667181
 10
5.528839442
 20
3.0941668394
 10
5.5584463992
 20
3.0946662249
  0
LWPOLYLINE
  5
498
100
AcDbEntity
  8
0
100
AcDbPolyline
 62
7
  6
CONTINUOUS
 90
4
 70
0
 10
5.3988407253
 20
3.2037512158
 10
5.40483188
 20
3.2045752972
 10
5.4147171822
 20
3.2053988717
 10
5.4281853775
 20
3.2062147813
  0
LWPOLYLINE
  5
499
100
AcDbEntity
  8
0
100
AcDbPolyline
 62
7
  6
CONTINUOUS
 90
9
 70
0
 10
5.3990185598
 20
3.1250469119
 10
5.4054691399
 20
3.1258998298
 10
5.4160929206
 20
3.1267531662
 10
5.4306803642
 20
3.12760595
 10
5.4490585787
 20
3.1284626215
 10
5.470898254
 20
3.1293219091
 10
5.4955806214
 20
3.1301760071
 10
5.5226931381
 20
3.1310277883
 10
5.5521035063
 20
3.1318882433
  0
LWPOLYLINE
  5
49A
100
AcDbEntity
  8
0
100
AcDbPolyline
 62
7
  6
CONTINUOUS
 90
9
 70
0
 10
5.86241551
 20
3.223736118
 10
5.855945906
 20
3.2228804318
 10
5.8452414747
 20
3.2220219869
 10
5.8306084778
 20
3.2211682748
 10
5.8122714349
 20
3.220314601
 10
5.7905977078
 20
3.2194619587
 10
5.765953997
 20
3.2186088558
 10
5.7388317759
 20
3.2177564943
 10
5.709523131
 20
3.2168987583
  0
LWPOLYLINE
  5
49B
100
AcDbEntity
  8
0
100
AcDbPolyline
 62
7
  6
CONTINUOUS
 90
9
 70
0
 10
5.3990124077
 20
3.1644157754
 10
5.4055190222
 20
3.1652748714
 10
5.4162659137
 20
3.1661348896
 10
5.4309206802
 20
3.166988438
 10
5.4492384775
 20
3.1678403481
 10
5.4708959247
 20
3.1686919023
 10
5.495590861
 20
3.169546422
 10
5.5227110288
 20
3.1703984075
 10
5.5519539782
 20
3.1712540676
  0
LWPOLYLINE
  5
49C
100
AcDbEntity
  8
0
100
AcDbPolyline
 62
7
  6
CONTINUOUS
 90
9
 70
0
 10
5.8624021731
 20
3.2631035627
 10
5.8559244643
 20
3.2622483768
 10
5.8453086618
 20
3.2613965914
 10
5.8307262672
 20
3.2605444394
 10
5.8123173834
 20
3.2596866334
 10
5.790393982
 20
3.2588245618
 10
5.7655702313
 20
3.2579663396
 10
5.7384327314
 20
3.2571145211
 10
5.7090038272
 20
3.2562540646
  0
LWPOLYLINE
  5
49D
100
AcDbEntity
  8
0
100
AcDbPolyline
 62
7
  6
CONTINUOUS
 90
9
 70
0
 10
5.8623510653
 20
3.1843533852
 10
5.8556618059
 20
3.1834822882
 10
5.8446545358
 20
3.1826126865
 10
5.8297067839
 20
3.1817519264
 10
5.8110446213
 20
3.1808926339
 10
5.7888035577
 20
3.1800263279
 10
5.7635578597
 20
3.1791604266
 10
5.7360015864
 20
3.178301195
 10
5.7064634546
 20
3.1774418185
  0
LWPOLYLINE
  5
49E
100
AcDbEntity
  8
0
100
AcDbPolyline
 62
7
  6
CONTINUOUS
 90
5
 70
0
 10
5.4281853775
 20
3.1688132065
 10
5.4147171822
 20
3.1679972969
 10
5.40483188
 20
3.1671737224
 10
5.3988407253
 20
3.166349641
 10
5.3970131741
 20
3.16576334
  0
LWPOLYLINE
  5
49F
100
AcDbEntity
  8
0
100
AcDbPolyline
 62
7
  6
CONTINUOUS
 90
6
 70
0
 10
5.450476374
 20
3.1875139939
 10
5.4673315025
 20
3.1884190532
 10
5.4875893632
 20
3.1893241125
 10
5.5108280463
 20
3.1902291718
 10
5.5365635607
 20
3.191134231
 10
5.5642599135
 20
3.1920392903
  0
LWPOLYLINE
  5
4A0
100
AcDbEntity
  8
0
100
AcDbPolyline
 62
7
  6
CONTINUOUS
 90
6
 70
0
 10
5.4281853775
 20
3.2062147813
 10
5.4461723178
 20
3.2070784556
 10
5.4678559063
 20
3.2079494571
 10
5.4926449729
 20
3.2088192547
 10
5.5198024392
 20
3.2096802971
 10
5.548934106
 20
3.2105379981
  0
LWPOLYLINE
  5
4A1
100
AcDbEntity
  8
0
100
AcDbPolyline
 62
7
  6
CONTINUOUS
 90
10
 70
0
 10
5.6971652429
 20
3.2354821358
 10
5.7248615957
 20
3.2363871951
 10
5.7505971101
 20
3.2372922544
 10
5.7738357933
 20
3.2381973137
 10
5.794093654
 20
3.2391023729
 10
5.8109487824
 20
3.2400074322
 10
5.8240501374
 20
3.2409124915
 10
5.8331248575
 20
3.2418175508
 10
5.8379839437
 20
3.2427226101
 10
5.8386529566
 20
3.2430287636
  0
LWPOLYLINE
  5
4A2
100
AcDbEntity
  8
0
100
AcDbPolyline
 62
7
  6
CONTINUOUS
 90
10
 70
0
 10
5.6827607403
 20
3.1956595274
 10
5.7112232921
 20
3.1965645867
 10
5.73800905
 20
3.197469646
 10
5.7625601478
 20
3.1983747053
 10
5.7843652606
 20
3.1992797646
 10
5.8029702541
 20
3.2001848238
 10
5.8179876427
 20
3.2010898831
 10
5.8291046597
 20
3.2019949424
 10
5.8360897714
 20
3.2029000017
 10
5.8386529566
 20
3.2036586849
  0
LWPOLYLINE
  5
4A3
100
AcDbEntity
  8
0
100
AcDbPolyline
 62
7
  6
CONTINUOUS
 90
11
 70
0
 10
5.673556466
 20
3.1560048076
 10
5.7022755679
 20
3.15690507
 10
5.7295199594
 20
3.1578053325
 10
5.754728211
 20
3.158705595
 10
5.7773808519
 20
3.1596058574
 10
5.7970110756
 20
3.1605061199
 10
5.8132143587
 20
3.1614063824
 10
5.8256567975
 20
3.1623066448
 10
5.8340819885
 20
3.1632069073
 10
5.8383163127
 20
3.1641071698
 10
5.8386529566
 20
3.1642886061
  0
LINE
  5
4A4
100
AcDbEntity
  8
0
100
AcDbLine
 62
7
  6
CONTINUOUS
 10
5.5845474898
 20
3.1533040202
 11
5.673556466
 21
3.1560048076
  0
LINE
  5
4A5
100
AcDbEntity
  8
0
100
AcDbLine
 62
7
  6
CONTINUOUS
 10
5.5642599135
 20
3.1920392903
 11
5.6827607403
 21
3.1956595274
  0
LINE
  5
4A6
100
AcDbEntity
  8
0
100
AcDbLine
 62
7
  6
CONTINUOUS
 10
5.5786644161
 20
3.2318618987
 11
5.6971652429
 21
3.2354821358
  0
LWPOLYLINE
  5
4A7
100
AcDbEntity
  8
0
100
AcDbPolyline
 62
7
  6
CONTINUOUS
 90
6
 70
0
 10
5.548934106
 20
3.1731364233
 10
5.5198024392
 20
3.1722787223
 10
5.4926449729
 20
3.1714176799
 10
5.4678559063
 20
3.1705478823
 10
5.4461723178
 20
3.1696768808
 10
5.4281853775
 20
3.1688132065
  0
LWPOLYLINE
  5
4A8
100
AcDbEntity
  8
0
100
AcDbPolyline
 62
7
  6
CONTINUOUS
 90
10
 70
0
 10
5.7087059534
 20
3.1755369353
 10
5.7381030505
 20
3.1763959118
 10
5.7653111397
 20
3.1772491851
 10
5.7902607551
 20
3.1781110162
 10
5.8122523751
 20
3.1789752082
 10
5.8306830018
 20
3.1798335414
 10
5.8452556752
 20
3.1806843601
 10
5.8558978937
 20
3.1815370748
 10
5.8623999126
 20
3.1823944556
 10
5.8644119823
 20
3.1830179287
  0
LWPOLYLINE
  5
4A9
100
AcDbEntity
  8
0
100
AcDbPolyline
 62
7
  6
CONTINUOUS
 90
10
 70
0
 10
5.552454096
 20
3.2126068759
 10
5.5230263676
 20
3.2117465122
 10
5.4958831413
 20
3.2108945945
 10
5.4710429685
 20
3.2100358795
 10
5.4491114701
 20
3.2091735326
 10
5.4307010268
 20
3.20831568
 10
5.4161202341
 20
3.2074636695
 10
5.4055035704
 20
3.2066119183
 10
5.3990232109
 20
3.205756491
 10
5.3970131741
 20
3.2051334187
  0
LWPOLYLINE
  5
4AA
100
AcDbEntity
  8
0
100
AcDbPolyline
 62
7
  6
CONTINUOUS
 90
10
 70
0
 10
5.709523131
 20
3.2543003331
 10
5.7388317759
 20
3.2551580691
 10
5.765953997
 20
3.2560104306
 10
5.7905977078
 20
3.2568635335
 10
5.8122714349
 20
3.2577161758
 10
5.8306084778
 20
3.2585698496
 10
5.8452414747
 20
3.2594235617
 10
5.855945906
 20
3.2602820066
 10
5.86241551
 20
3.2611376928
 10
5.8644119823
 20
3.2617580862
  0
LWPOLYLINE
  5
4AB
100
AcDbEntity
  8
0
100
AcDbPolyline
 62
7
  6
CONTINUOUS
 90
10
 70
0
 10
5.5519003117
 20
3.2519612018
 10
5.522585468
 20
3.2511032754
 10
5.4954637361
 20
3.2502509092
 10
5.4708255296
 20
3.2493979797
 10
5.4491454085
 20
3.2485450544
 10
5.4308061034
 20
3.247691188
 10
5.4161753361
 20
3.2468374602
 10
5.4054753812
 20
3.2459791916
 10
5.3990098958
 20
3.2451239401
 10
5.3970131741
 20
3.2445034974
  0
LWPOLYLINE
  5
4AC
100
AcDbEntity
  8
0
100
AcDbPolyline
 62
7
  6
CONTINUOUS
 90
10
 70
0
 10
5.7064634546
 20
3.2148433934
 10
5.7360015864
 20
3.2157027698
 10
5.7635578597
 20
3.2165620014
 10
5.7888035577
 20
3.2174279027
 10
5.8110446213
 20
3.2182942087
 10
5.8297067839
 20
3.2191535013
 10
5.8446545358
 20
3.2200142613
 10
5.8556618059
 20
3.220883863
 10
5.8623510653
 20
3.22175496
 10
5.8644119823
 20
3.2223880074
  0
LWPOLYLINE
  5
4AD
100
AcDbEntity
  8
0
100
AcDbPolyline
 62
7
  6
CONTINUOUS
 90
4
 70
0
 10
5.5519539782
 20
3.1712540676
 10
5.6140991757
 20
3.1729608715
 10
5.6458659283
 20
3.1738126823
 10
5.7087059534
 20
3.1755369353
  0
LWPOLYLINE
  5
4AE
100
AcDbEntity
  8
0
100
AcDbPolyline
 62
7
  6
CONTINUOUS
 90
4
 70
0
 10
5.7064634546
 20
3.1774418185
 10
5.6436552909
 20
3.1757218475
 10
5.6116155345
 20
3.1748626343
 10
5.548934106
 20
3.1731364233
  0
LWPOLYLINE
  5
4AF
100
AcDbEntity
  8
0
100
AcDbPolyline
 62
7
  6
CONTINUOUS
 90
4
 70
0
 10
5.548934106
 20
3.2105379981
 10
5.6116155345
 20
3.2122642091
 10
5.6436552909
 20
3.2131234223
 10
5.7064634546
 20
3.2148433934
  0
LWPOLYLINE
  5
4B0
100
AcDbEntity
  8
0
100
AcDbPolyline
 62
7
  6
CONTINUOUS
 90
4
 70
0
 10
5.709523131
 20
3.2168987583
 10
5.6471449388
 20
3.2151856129
 10
5.6153601018
 20
3.2143333184
 10
5.552454096
 20
3.2126068759
  0
LWPOLYLINE
  5
4B1
100
AcDbEntity
  8
0
100
AcDbPolyline
 62
7
  6
CONTINUOUS
 90
4
 70
0
 10
5.552454096
 20
3.2500084507
 10
5.6153601018
 20
3.2517348932
 10
5.6471449388
 20
3.2525871877
 10
5.709523131
 20
3.2543003331
  0
LWPOLYLINE
  5
4B2
100
AcDbEntity
  8
0
100
AcDbPolyline
 62
7
  6
CONTINUOUS
 90
4
 70
0
 10
5.7090038272
 20
3.2562540646
 10
5.6460969749
 20
3.2545275475
 10
5.6143118524
 20
3.2536752456
 10
5.5519003117
 20
3.2519612018
  0
LINE
  5
4B3
100
AcDbEntity
  8
0
100
AcDbLine
 62
7
  6
CONTINUOUS
 10
5.3970131741
 20
3.1239628106
 11
5.4225253294
 21
3.1054129986
  0
LWPOLYLINE
  5
4B4
100
AcDbEntity
  8
0
100
AcDbPolyline
 62
7
  6
CONTINUOUS
 90
12
 70
0
 10
4.5283503735
 20
4.9194693745
 10
4.528642648
 20
4.9055159946
 10
4.5298878477
 20
4.8887672738
 10
4.5322130734
 20
4.8729437685
 10
4.5357812684
 20
4.8580485858
 10
4.5408484613
 20
4.8441053346
 10
4.5476347352
 20
4.8314938935
 10
4.5563387897
 20
4.820617661
 10
4.567027837
 20
4.81192825
 10
4.5793164136
 20
4.8058719503
 10
4.5928615423
 20
4.8024217776
 10
4.607090531
 20
4.8013591383
  0
LINE
  5
4B5
100
AcDbEntity
  8
02___PRT_ALL_AXES
100
AcDbLine
 62
7
  6
CONTINUOUS
 10
4.5283503735
 20
5.6360048076
 11
4.5283503735
 21
4.9194693745
  0
LINE
  5
4B6
100
AcDbEntity
  8
0
100
AcDbLine
 62
7
  6
CONTINUOUS
 10
4.5283503735
 20
5.3426977209
 11
4.5283503735
 21
5.6360048076
  0
LINE
  5
4B7
100
AcDbEntity
  8
0
100
AcDbLine
 62
7
  6
CONTINUOUS
 10
4.5285663065
 20
5.6613750155
 11
4.5283476122
 21
5.6360048076
  0
LWPOLYLINE
  5
4B8
100
AcDbEntity
  8
0
100
AcDbPolyline
 62
7
  6
CONTINUOUS
 90
3
 70
0
 10
4.52904983
 20
5.6802268157
 10
4.5284927169
 20
5.6568074508
 10
4.5283475404
 20
5.6360048076
  0
LWPOLYLINE
  5
4B9
100
AcDbEntity
  8
0
100
AcDbPolyline
 62
7
  6
CONTINUOUS
 90
4
 70
0
 10
5.862584201
 20
3.3025103204
 10
5.8565927839
 20
3.3016862355
 10
5.8467075843
 20
3.3008626847
 10
5.8332397789
 20
3.3000468023
  0
LWPOLYLINE
  5
4BA
100
AcDbEntity
  8
0
100
AcDbPolyline
 62
7
  6
CONTINUOUS
 90
9
 70
0
 10
5.3990098958
 20
3.2825255149
 10
5.4054753812
 20
3.2833807665
 10
5.4161753361
 20
3.284239035
 10
5.4308061034
 20
3.2850927628
 10
5.4491454085
 20
3.2859466292
 10
5.4708255296
 20
3.2867995545
 10
5.4954637361
 20
3.287652484
 10
5.522585468
 20
3.2885048502
 10
5.5519003117
 20
3.2893627766
  0
LWPOLYLINE
  5
4BB
100
AcDbEntity
  8
0
100
AcDbPolyline
 62
7
  6
CONTINUOUS
 90
9
 70
0
 10
5.8624072673
 20
3.3812148041
 10
5.8559595633
 20
3.3803621073
 10
5.8453339521
 20
3.3795085332
 10
5.8307461196
 20
3.3786557023
 10
5.8123713925
 20
3.377799167
 10
5.7905423261
 20
3.3769402406
 10
5.765874657
 20
3.3760865654
 10
5.7387630962
 20
3.3752347342
 10
5.7093541652
 20
3.3743742654
  0
LWPOLYLINE
  5
4BC
100
AcDbEntity
  8
0
100
AcDbPolyline
 62
7
  6
CONTINUOUS
 90
9
 70
0
 10
5.3990232109
 20
3.2431580658
 10
5.4055035704
 20
3.2440134931
 10
5.4161202341
 20
3.2448652443
 10
5.4307010268
 20
3.2457172548
 10
5.4491114701
 20
3.2465751074
 10
5.4710429685
 20
3.2474374543
 10
5.4958831413
 20
3.2482961693
 10
5.5230263676
 20
3.2491480871
 10
5.552454096
 20
3.2500084507
  0
LWPOLYLINE
  5
4BD
100
AcDbEntity
  8
0
100
AcDbPolyline
 62
7
  6
CONTINUOUS
 90
9
 70
0
 10
5.8624109834
 20
3.3418454593
 10
5.8558978447
 20
3.3409858888
 10
5.8451438625
 20
3.3401256611
 10
5.8304841977
 20
3.3392721004
 10
5.8121653032
 20
3.3384203275
 10
5.7905008398
 20
3.3375686394
 10
5.7657959619
 20
3.3367139033
 10
5.7386715345
 20
3.3358618895
 10
5.7094312176
 20
3.335006379
  0
LWPOLYLINE
  5
4BE
100
AcDbEntity
  8
0
100
AcDbPolyline
 62
7
  6
CONTINUOUS
 90
9
 70
0
 10
5.3990739459
 20
3.3219081701
 10
5.405763184
 20
3.3227792791
 10
5.4167715569
 20
3.3236489593
 10
5.4317200704
 20
3.3245097438
 10
5.4503759195
 20
3.3253687555
 10
5.472605554
 20
3.3262346723
 10
5.497844498
 20
3.3271004147
 10
5.5253996446
 20
3.3279596706
 10
5.5549434158
 20
3.3288192472
  0
LWPOLYLINE
  5
4BF
100
AcDbEntity
  8
0
100
AcDbPolyline
 62
7
  6
CONTINUOUS
 90
5
 70
0
 10
5.8109487824
 20
3.3187475897
 10
5.8240501374
 20
3.319652649
 10
5.8331248575
 20
3.3205577083
 10
5.8379839437
 20
3.3214627676
 10
5.8386529566
 20
3.3217689211
  0
LWPOLYLINE
  5
4C0
100
AcDbEntity
  8
0
100
AcDbPolyline
 62
7
  6
CONTINUOUS
 90
5
 70
0
 10
5.8332397789
 20
3.3374483771
 10
5.8467075843
 20
3.3382642595
 10
5.8565927839
 20
3.3390878103
 10
5.862584201
 20
3.3399118952
 10
5.8644119823
 20
3.3404982436
  0
LWPOLYLINE
  5
4C1
100
AcDbEntity
  8
0
100
AcDbPolyline
 62
7
  6
CONTINUOUS
 90
6
 70
0
 10
5.8332397789
 20
3.3000468023
 10
5.8152530794
 20
3.2991831385
 10
5.7935683494
 20
3.2983120929
 10
5.7687805768
 20
3.297442342
 10
5.7416196636
 20
3.2965811936
 10
5.7124869487
 20
3.2957234682
  0
LWPOLYLINE
  5
4C2
100
AcDbEntity
  8
0
100
AcDbPolyline
 62
7
  6
CONTINUOUS
 90
6
 70
0
 10
5.6971652429
 20
3.3142222933
 10
5.7248615957
 20
3.3151273526
 10
5.7505971101
 20
3.3160324119
 10
5.7738357933
 20
3.3169374711
 10
5.794093654
 20
3.3178425304
 10
5.8109487824
 20
3.3187475897
  0
LWPOLYLINE
  5
4C3
100
AcDbEntity
  8
0
100
AcDbPolyline
 62
7
  6
CONTINUOUS
 90
10
 70
0
 10
5.6827607403
 20
3.2743996849
 10
5.7112232921
 20
3.2753047442
 10
5.73800905
 20
3.2762098035
 10
5.7625601478
 20
3.2771148628
 10
5.7843652606
 20
3.278019922
 10
5.8029702541
 20
3.2789249813
 10
5.8179876427
 20
3.2798300406
 10
5.8291046597
 20
3.2807350999
 10
5.8360897714
 20
3.2816401592
 10
5.8386529566
 20
3.2823988423
  0
LWPOLYLINE
  5
4C4
100
AcDbEntity
  8
0
100
AcDbPolyline
 62
7
  6
CONTINUOUS
 90
10
 70
0
 10
5.6827607403
 20
3.3531398424
 10
5.7112232921
 20
3.3540449017
 10
5.73800905
 20
3.354949961
 10
5.7625601478
 20
3.3558550202
 10
5.7843652606
 20
3.3567600795
 10
5.8029702541
 20
3.3576651388
 10
5.8179876427
 20
3.3585701981
 10
5.8291046597
 20
3.3594752574
 10
5.8360897714
 20
3.3603803167
 10
5.8386529566
 20
3.3611389998
  0
LINE
  5
4C5
100
AcDbEntity
  8
0
100
AcDbLine
 62
7
  6
CONTINUOUS
 10
5.5642599135
 20
3.2707794478
 11
5.6827607403
 21
3.2743996849
  0
LINE
  5
4C6
100
AcDbEntity
  8
0
100
AcDbLine
 62
7
  6
CONTINUOUS
 10
5.5786644161
 20
3.3106020562
 11
5.6971652429
 21
3.3142222933
  0
LINE
  5
4C7
100
AcDbEntity
  8
0
100
AcDbLine
 62
7
  6
CONTINUOUS
 10
5.5642599135
 20
3.3495196053
 11
5.6827607403
 21
3.3531398424
  0
LWPOLYLINE
  5
4C8
100
AcDbEntity
  8
0
100
AcDbPolyline
 62
7
  6
CONTINUOUS
 90
6
 70
0
 10
5.7124869487
 20
3.333125043
 10
5.7416196636
 20
3.3339827684
 10
5.7687805768
 20
3.3348439168
 10
5.7935683494
 20
3.3357136677
 10
5.8152530794
 20
3.3365847133
 10
5.8332397789
 20
3.3374483771
  0
LWPOLYLINE
  5
4C9
100
AcDbEntity
  8
0
100
AcDbPolyline
 62
7
  6
CONTINUOUS
 90
10
 70
0
 10
5.7090038272
 20
3.2936556394
 10
5.7384327314
 20
3.2945160959
 10
5.7655702313
 20
3.2953679144
 10
5.790393982
 20
3.2962261366
 10
5.8123173834
 20
3.2970882082
 10
5.8307262672
 20
3.2979460142
 10
5.8453086618
 20
3.2987981662
 10
5.8559244643
 20
3.2996499516
 10
5.8624021731
 20
3.3005051375
 10
5.8644119823
 20
3.3011281649
  0
LWPOLYLINE
  5
4CA
100
AcDbEntity
  8
0
100
AcDbPolyline
 62
7
  6
CONTINUOUS
 90
10
 70
0
 10
5.5527127044
 20
3.3307244636
 10
5.5233366057
 20
3.3298661092
 10
5.4961329908
 20
3.3290130202
 10
5.4711804859
 20
3.3281511568
 10
5.4491870057
 20
3.32728698
 10
5.4307547313
 20
3.3264286921
 10
5.4161807064
 20
3.3255779792
 10
5.4055311381
 20
3.3247248937
 10
5.3990256458
 20
3.3238672072
 10
5.3970131741
 20
3.3232436549
  0
LWPOLYLINE
  5
4CB
100
AcDbEntity
  8
0
100
AcDbPolyline
 62
7
  6
CONTINUOUS
 90
10
 70
0
 10
5.7094312176
 20
3.3724079538
 10
5.7386715345
 20
3.3732634643
 10
5.7657959619
 20
3.3741154781
 10
5.7905008398
 20
3.3749702142
 10
5.8121653032
 20
3.3758219023
 10
5.8304841977
 20
3.3766736752
 10
5.8451438625
 20
3.3775272359
 10
5.8558978447
 20
3.3783874636
 10
5.8624109834
 20
3.3792470341
 10
5.8644119823
 20
3.3798683224
  0
LWPOLYLINE
  5
4CC
100
AcDbEntity
  8
0
100
AcDbPolyline
 62
7
  6
CONTINUOUS
 90
10
 70
0
 10
5.5519072011
 20
3.3700716341
 10
5.5225350405
 20
3.3692119877
 10
5.495423644
 20
3.3683598285
 10
5.4708183749
 20
3.3675079532
 10
5.4490648789
 20
3.3666518659
 10
5.4307119315
 20
3.3657965587
 10
5.4161092973
 20
3.3649432471
 10
5.4054545632
 20
3.3640873532
 10
5.3990137357
 20
3.3632349355
 10
5.3970131741
 20
3.3626137337
  0
LWPOLYLINE
  5
4CD
100
AcDbEntity
  8
0
100
AcDbPolyline
 62
7
  6
CONTINUOUS
 90
10
 70
0
 10
5.5549434158
 20
3.2914176724
 10
5.5253996446
 20
3.2905580958
 10
5.497844498
 20
3.2896988399
 10
5.472605554
 20
3.2888330975
 10
5.4503759195
 20
3.2879671807
 10
5.4317200704
 20
3.287108169
 10
5.4167715569
 20
3.2862473845
 10
5.405763184
 20
3.2853777043
 10
5.3990739459
 20
3.2845065953
 10
5.3970131741
 20
3.2838735762
  0
LWPOLYLINE
  5
4CE
100
AcDbEntity
  8
0
100
AcDbPolyline
 62
7
  6
CONTINUOUS
 90
4
 70
0
 10
5.5519003117
 20
3.2893627766
 10
5.6143118524
 20
3.2910768204
 10
5.6460969749
 20
3.2919291223
 10
5.7090038272
 20
3.2936556394
  0
LWPOLYLINE
  5
4CF
100
AcDbEntity
  8
0
100
AcDbPolyline
 62
7
  6
CONTINUOUS
 90
4
 70
0
 10
5.7124869487
 20
3.2957234682
 10
5.6497825671
 20
3.2939966472
 10
5.6177396053
 20
3.2931373492
 10
5.5549434158
 20
3.2914176724
  0
LWPOLYLINE
  5
4D0
100
AcDbEntity
  8
0
100
AcDbPolyline
 62
7
  6
CONTINUOUS
 90
4
 70
0
 10
5.5549434158
 20
3.3288192472
 10
5.6177396053
 20
3.3305389241
 10
5.6497825671
 20
3.331398222
 10
5.7124869487
 20
3.333125043
  0
LWPOLYLINE
  5
4D1
100
AcDbEntity
  8
0
100
AcDbPolyline
 62
7
  6
CONTINUOUS
 90
4
 70
0
 10
5.7094312176
 20
3.335006379
 10
5.6473003501
 20
3.3333000236
 10
5.6155322373
 20
3.3324481766
 10
5.5527127044
 20
3.3307244636
  0
LWPOLYLINE
  5
4D2
100
AcDbEntity
  8
0
100
AcDbPolyline
 62
7
  6
CONTINUOUS
 90
4
 70
0
 10
5.5527127044
 20
3.3681260384
 10
5.6155322373
 20
3.3698497514
 10
5.6473003501
 20
3.3707015984
 10
5.7094312176
 20
3.3724079538
  0
LWPOLYLINE
  5
4D3
100
AcDbEntity
  8
0
100
AcDbPolyline
 62
7
  6
CONTINUOUS
 90
4
 70
0
 10
5.7093541652
 20
3.3743742654
 10
5.6464566265
 20
3.3726474416
 10
5.6146487822
 20
3.3717945313
 10
5.5519072011
 20
3.3700716341
  0
LINE
  5
4D4
100
AcDbEntity
  8
0
100
AcDbLine
 62
7
  6
CONTINUOUS
 10
5.3970131741
 20
3.1633328893
 11
5.4225253294
 21
3.1447830773
  0
LINE
  5
4D5
100
AcDbEntity
  8
0
100
AcDbLine
 62
7
  6
CONTINUOUS
 10
5.3970131741
 20
3.2027029681
 11
5.4225253294
 21
3.184153156
  0
LINE
  5
4D6
100
AcDbEntity
  8
0
100
AcDbLine
 62
7
  6
CONTINUOUS
 10
5.3970131741
 20
3.2420730468
 11
5.4225253294
 21
3.2235232348
  0
LINE
  5
4D7
100
AcDbEntity
  8
0
100
AcDbLine
 62
7
  6
CONTINUOUS
 10
5.3970131741
 20
3.2814431255
 11
5.4225253294
 21
3.2628933135
  0
LINE
  5
4D8
100
AcDbEntity
  8
0
100
AcDbLine
 62
7
  6
CONTINUOUS
 10
5.4165393499
 20
3.0749811855
 11
5.4014148792
 21
3.0901056562
  0
LWPOLYLINE
  5
4D9
100
AcDbEntity
  8
0
100
AcDbPolyline
 62
7
  6
CONTINUOUS
 90
9
 70
0
 10
5.3990137357
 20
3.4006365103
 10
5.4054545632
 20
3.401488928
 10
5.4161092973
 20
3.4023448219
 10
5.4307119315
 20
3.4031981335
 10
5.4490648789
 20
3.4040534407
 10
5.4708183749
 20
3.404909528
 10
5.495423644
 20
3.4057614033
 10
5.5225350405
 20
3.4066135625
 10
5.5519072011
 20
3.4074732089
  0
LWPOLYLINE
  5
4DA
100
AcDbEntity
  8
0
100
AcDbPolyline
 62
7
  6
CONTINUOUS
 90
9
 70
0
 10
5.3990256458
 20
3.361268782
 10
5.4055311381
 20
3.3621264685
 10
5.4161807064
 20
3.362979554
 10
5.4307547313
 20
3.3638302669
 10
5.4491870057
 20
3.3646885548
 10
5.4711804859
 20
3.3655527316
 10
5.4961329908
 20
3.366414595
 10
5.5233366057
 20
3.367267684
 10
5.5527127044
 20
3.3681260384
  0
LWPOLYLINE
  5
4DB
100
AcDbEntity
  8
0
100
AcDbPolyline
 62
7
  6
CONTINUOUS
 90
9
 70
0
 10
5.8623960857
 20
3.4205826781
 10
5.855863651
 20
3.4197226539
 10
5.8451458148
 20
3.4188659497
 10
5.8305494942
 20
3.4180156246
 10
5.812096941
 20
3.4171575823
 10
5.790090365
 20
3.4162937512
 10
5.7651334938
 20
3.4154323429
 10
5.737942293
 20
3.4145800404
 10
5.7087402779
 20
3.4137268873
  0
LWPOLYLINE
  5
4DC
100
AcDbEntity
  8
0
100
AcDbPolyline
 62
7
  6
CONTINUOUS
 90
10
 70
0
 10
5.6971652429
 20
3.3929624508
 10
5.7248615957
 20
3.3938675101
 10
5.7505971101
 20
3.3947725693
 10
5.7738357933
 20
3.3956776286
 10
5.794093654
 20
3.3965826879
 10
5.8109487824
 20
3.3974877472
 10
5.8240501374
 20
3.3983928065
 10
5.8331248575
 20
3.3992978658
 10
5.8379839437
 20
3.400202925
 10
5.8386529566
 20
3.4005090786
  0
LWPOLYLINE
  5
4DD
100
AcDbEntity
  8
0
100
AcDbPolyline
 62
7
  6
CONTINUOUS
 90
10
 70
0
 10
5.6827607403
 20
3.4318799999
 10
5.7112232921
 20
3.4327850592
 10
5.73800905
 20
3.4336901184
 10
5.7625601478
 20
3.4345951777
 10
5.7843652606
 20
3.435500237
 10
5.8029702541
 20
3.4364052963
 10
5.8179876427
 20
3.4373103556
 10
5.8291046597
 20
3.4382154149
 10
5.8360897714
 20
3.4391204741
 10
5.8386529566
 20
3.4398791573
  0
LINE
  5
4DE
100
AcDbEntity
  8
0
100
AcDbLine
 62
7
  6
CONTINUOUS
 10
5.5786644161
 20
3.3893422137
 11
5.6971652429
 21
3.3929624508
  0
LINE
  5
4DF
100
AcDbEntity
  8
0
100
AcDbLine
 62
7
  6
CONTINUOUS
 10
5.5642599135
 20
3.4282597628
 11
5.6827607403
 21
3.4318799999
  0
LWPOLYLINE
  5
4E0
100
AcDbEntity
  8
0
100
AcDbPolyline
 62
7
  6
CONTINUOUS
 90
10
 70
0
 10
5.7093541652
 20
3.4117758402
 10
5.7387630962
 20
3.412636309
 10
5.765874657
 20
3.4134881402
 10
5.7905423261
 20
3.4143418154
 10
5.8123713925
 20
3.4152007418
 10
5.8307461196
 20
3.4160572771
 10
5.8453339521
 20
3.416910108
 10
5.8559595633
 20
3.4177636821
 10
5.8624072673
 20
3.4186163789
 10
5.8644119823
 20
3.4192384011
  0
LWPOLYLINE
  5
4E1
100
AcDbEntity
  8
0
100
AcDbPolyline
 62
7
  6
CONTINUOUS
 90
10
 70
0
 10
5.552334527
 20
3.4094538695
 10
5.5231336533
 20
3.4086001439
 10
5.4959834624
 20
3.4077482774
 10
5.4711977342
 20
3.4068919463
 10
5.4494412246
 20
3.40603793
 10
5.4311181298
 20
3.4051875799
 10
5.4164166657
 20
3.4043339731
 10
5.4056005377
 20
3.403471928
 10
5.3990328251
 20
3.4026087784
 10
5.3970131741
 20
3.4019838124
  0
LWPOLYLINE
  5
4E2
100
AcDbEntity
  8
0
100
AcDbPolyline
 62
7
  6
CONTINUOUS
 90
10
 70
0
 10
5.7087402779
 20
3.4511284621
 10
5.737942293
 20
3.4519816152
 10
5.7651334938
 20
3.4528339177
 10
5.790090365
 20
3.453695326
 10
5.812096941
 20
3.4545591571
 10
5.8305494942
 20
3.4554171994
 10
5.8451458148
 20
3.4562675245
 10
5.855863651
 20
3.4571242287
 10
5.8623960857
 20
3.4579842529
 10
5.8644119823
 20
3.4586084799
  0
LWPOLYLINE
  5
4E3
100
AcDbEntity
  8
0
100
AcDbPolyline
 62
7
  6
CONTINUOUS
 90
4
 70
0
 10
5.5519072011
 20
3.4074732089
 10
5.6146487822
 20
3.4091961061
 10
5.6464566265
 20
3.4100490164
 10
5.7093541652
 20
3.4117758402
  0
LWPOLYLINE
  5
4E4
100
AcDbEntity
  8
0
100
AcDbPolyline
 62
7
  6
CONTINUOUS
 90
4
 70
0
 10
5.7087402779
 20
3.4137268873
 10
5.6461389667
 20
3.4120089901
 10
5.6143832024
 20
3.411157477
 10
5.552334527
 20
3.4094538695
  0
LWPOLYLINE
  5
4E5
100
AcDbEntity
  8
0
100
AcDbPolyline
 62
7
  6
CONTINUOUS
 90
4
 70
0
 10
5.552334527
 20
3.4468554443
 10
5.6143832024
 20
3.4485590518
 10
5.6461389667
 20
3.4494105649
 10
5.7087402779
 20
3.4511284621
  0
LINE
  5
4E6
100
AcDbEntity
  8
0
100
AcDbLine
 62
7
  6
CONTINUOUS
 10
5.3970131741
 20
3.3208132043
 11
5.4225253294
 21
3.3022633923
  0
LINE
  5
4E7
100
AcDbEntity
  8
0
100
AcDbLine
 62
7
  6
CONTINUOUS
 10
5.3970131741
 20
3.360183283
 11
5.4225253294
 21
3.341633471
  0
LINE
  5
4E8
100
AcDbEntity
  8
0
100
AcDbLine
 62
7
  6
CONTINUOUS
 10
5.3970131741
 20
3.3995533618
 11
5.4225253294
 21
3.3810035497
  0
LINE
  5
4E9
100
AcDbEntity
  8
0
100
AcDbLine
 62
7
  6
CONTINUOUS
 10
5.8485819661
 20
3.0788477084
 11
5.838899827
 21
3.0858879553
  0
LINE
  5
4EA
100
AcDbEntity
  8
0
100
AcDbLine
 62
7
  6
CONTINUOUS
 10
5.3970131741
 20
3.4389234405
 11
5.4225253294
 21
3.4203736285
  0
LINE
  5
4EB
100
AcDbEntity
  8
0
100
AcDbLine
 62
7
  6
CONTINUOUS
 10
5.8644119823
 20
3.1067082219
 11
5.838899827
 21
3.125258034
  0
LINE
  5
4EC
100
AcDbEntity
  8
0
100
AcDbLine
 62
7
  6
CONTINUOUS
 10
5.3968543105
 20
3.1241937839
 11
5.3970131741
 21
3.1239628106
  0
LINE
  5
4ED
100
AcDbEntity
  8
0
100
AcDbLine
 62
9
  6
CONTINUOUS
 10
5.8645708459
 20
3.5671071698
 11
5.3968543105
 21
3.5671071698
  0
LINE
  5
4EE
100
AcDbEntity
  8
0
100
AcDbLine
 62
7
  6
CONTINUOUS
 10
5.044324163
 20
3.7004926726
 11
5.0794713819
 21
3.6801921048
  0
LINE
  5
4EF
100
AcDbEntity
  8
0
100
AcDbLine
 62
7
  6
CONTINUOUS
 10
5.044324163
 20
3.7595477907
 11
5.0794713819
 21
3.7392472229
  0
LINE
  5
4F0
100
AcDbEntity
  8
0
100
AcDbLine
 62
7
  6
CONTINUOUS
 10
5.044324163
 20
3.8186029088
 11
5.0794713819
 21
3.798302341
  0
LINE
  5
4F1
100
AcDbEntity
  8
0
100
AcDbLine
 62
7
  6
CONTINUOUS
 10
5.8644119823
 20
3.1460783006
 11
5.838899827
 21
3.1646281128
  0
LINE
  5
4F2
100
AcDbEntity
  8
0
100
AcDbLine
 62
7
  6
CONTINUOUS
 10
5.8644119823
 20
3.1854483793
 11
5.838899827
 21
3.2039981915
  0
LINE
  5
4F3
100
AcDbEntity
  8
0
100
AcDbLine
 62
7
  6
CONTINUOUS
 10
5.8644119823
 20
3.2248184581
 11
5.838899827
 21
3.2433682703
  0
LINE
  5
4F4
100
AcDbEntity
  8
0
100
AcDbLine
 62
7
  6
CONTINUOUS
 10
5.044324163
 20
3.7004926726
 11
5.044098405
 21
3.7007534391
  0
LINE
  5
4F5
100
AcDbEntity
  8
0
100
AcDbLine
 62
7
  6
CONTINUOUS
 10
5.044324163
 20
3.7595477907
 11
5.044098405
 21
3.7598085573
  0
LINE
  5
4F6
100
AcDbEntity
  8
0
100
AcDbLine
 62
7
  6
CONTINUOUS
 10
5.044324163
 20
3.8186029088
 11
5.044098405
 21
3.8188636754
  0
LINE
  5
4F7
100
AcDbEntity
  8
0
100
AcDbLine
 62
7
  6
CONTINUOUS
 10
5.3970131741
 20
3.1633328893
 11
5.3968543105
 21
3.1635638627
  0
LINE
  5
4F8
100
AcDbEntity
  8
0
100
AcDbLine
 62
7
  6
CONTINUOUS
 10
5.3970131741
 20
3.2027029681
 11
5.3968543105
 21
3.2029339414
  0
LINE
  5
4F9
100
AcDbEntity
  8
0
100
AcDbLine
 62
7
  6
CONTINUOUS
 10
5.3970131741
 20
3.2420730468
 11
5.3968543105
 21
3.2423040202
  0
LINE
  5
4FA
100
AcDbEntity
  8
0
100
AcDbLine
 62
7
  6
CONTINUOUS
 10
5.3970131741
 20
3.2814431255
 11
5.3968543105
 21
3.2816740989
  0
LINE
  5
4FB
100
AcDbEntity
  8
0
100
AcDbLine
 62
7
  6
CONTINUOUS
 10
5.3970131741
 20
3.3208132043
 11
5.3968543105
 21
3.3210441776
  0
LWPOLYLINE
  5
4FC
100
AcDbEntity
  8
0
100
AcDbPolyline
 62
7
  6
CONTINUOUS
 90
13
 70
0
 10
5.8065391122
 20
3.698111506
 10
5.8619563243
 20
3.6991291005
 10
5.9146274903
 20
3.7001459369
 10
5.9640289719
 20
3.7011638462
 10
6.0094665735
 20
3.702180389
 10
6.0505250597
 20
3.7031981705
 10
6.0866240075
 20
3.7042146901
 10
6.1174351755
 20
3.7052326572
 10
6.1425093041
 20
3.7062491
 10
6.1616285947
 20
3.707267125
 10
6.1745043818
 20
3.7082829504
 10
6.1810389184
 20
3.709300196
 10
6.1816534279
 20
3.7095461845
  0
LINE
  5
4FD
100
AcDbEntity
  8
0
100
AcDbLine
 62
7
  6
CONTINUOUS
 10
5.4545184108
 20
3.6920017299
 11
5.5712747997
 21
3.6940443992
  0
LWPOLYLINE
  5
4FE
100
AcDbEntity
  8
0
100
AcDbPolyline
 62
7
  6
CONTINUOUS
 90
3
 70
0
 10
5.5712747997
 20
3.6940443992
 10
5.6902478671
 20
3.6960771247
 10
5.8065391122
 20
3.698111506
  0
LWPOLYLINE
  5
4FF
100
AcDbEntity
  8
0
100
AcDbPolyline
 62
7
  6
CONTINUOUS
 90
13
 70
0
 10
5.7705828685
 20
3.7177800608
 10
5.8317861905
 20
3.7188055576
 10
5.8905981938
 20
3.7198310544
 10
5.9463194416
 20
3.7208565513
 10
5.998287255
 20
3.7218820481
 10
6.0458835935
 20
3.7229075449
 10
6.0885424057
 20
3.7239330417
 10
6.1257563608
 20
3.7249585385
 10
6.1570828825
 20
3.7259840353
 10
6.1821494122
 20
3.7270095321
 10
6.2006578399
 20
3.7280350289
 10
6.2123880493
 20
3.7290605258
 10
6.2171009934
 20
3.7300202316
  0
LWPOLYLINE
  5
500
100
AcDbEntity
  8
0
100
AcDbPolyline
 62
7
  6
CONTINUOUS
 90
14
 70
0
 10
5.7705828685
 20
3.7251619506
 10
5.8317861905
 20
3.7261874474
 10
5.8905981938
 20
3.7272129442
 10
5.9463194416
 20
3.728238441
 10
5.998287255
 20
3.7292639378
 10
6.0458835935
 20
3.7302894346
 10
6.0885424057
 20
3.7313149315
 10
6.1257563608
 20
3.7323404283
 10
6.1570828825
 20
3.7333659251
 10
6.1821494122
 20
3.7343914219
 10
6.2006578399
 20
3.7354169187
 10
6.2123880493
 20
3.7364424155
 10
6.2172005361
 20
3.7374679123
 10
6.2173267514
 20
3.737662888
  0
LWPOLYLINE
  5
501
100
AcDbEntity
  8
0
100
AcDbPolyline
 62
7
  6
CONTINUOUS
 90
3
 70
0
 10
5.4546770122
 20
3.7126525767
 10
5.5799937722
 20
3.7147035704
 10
5.7705828685
 20
3.7177800608
  0
LWPOLYLINE
  5
502
100
AcDbEntity
  8
0
100
AcDbPolyline
 62
7
  6
CONTINUOUS
 90
3
 70
0
 10
5.4546770122
 20
3.7200344665
 10
5.5799937722
 20
3.7220854601
 10
5.7705828685
 20
3.7251619506
  0
LINE
  5
503
100
AcDbEntity
  8
0
100
AcDbLine
 62
7
  6
CONTINUOUS
 10
6.1425236018
 20
3.6261622879
 11
5.1189015546
 21
3.6261622879
  0
LINE
  5
504
100
AcDbEntity
  8
0
100
AcDbLine
 62
9
  6
CONTINUOUS
 10
5.0795314759
 20
3.6655323666
 11
6.1818936806
 21
3.6655323666
  0
LINE
  5
505
100
AcDbEntity
  8
0
100
AcDbLine
 62
7
  6
CONTINUOUS
 10
5.044324163
 20
3.8776580269
 11
5.0794713819
 21
3.8573574591
  0
LINE
  5
506
100
AcDbEntity
  8
0
100
AcDbLine
 62
7
  6
CONTINUOUS
 10
5.044324163
 20
3.936713145
 11
5.0794713819
 21
3.9164125772
  0
LINE
  5
507
100
AcDbEntity
  8
0
100
AcDbLine
 62
7
  6
CONTINUOUS
 10
5.8644119823
 20
3.2641885368
 11
5.838899827
 21
3.282738349
  0
LINE
  5
508
100
AcDbEntity
  8
0
100
AcDbLine
 62
7
  6
CONTINUOUS
 10
5.8644119823
 20
3.3035586156
 11
5.838899827
 21
3.3221084277
  0
LINE
  5
509
100
AcDbEntity
  8
0
100
AcDbLine
 62
7
  6
CONTINUOUS
 10
5.8644119823
 20
3.3429286943
 11
5.838899827
 21
3.3614785065
  0
LINE
  5
50A
100
AcDbEntity
  8
0
100
AcDbLine
 62
7
  6
CONTINUOUS
 10
5.8644119823
 20
3.382298773
 11
5.838899827
 21
3.4008485852
  0
LINE
  5
50B
100
AcDbEntity
  8
0
100
AcDbLine
 62
7
  6
CONTINUOUS
 10
5.044324163
 20
3.8776580269
 11
5.044098405
 21
3.8779187935
  0
LINE
  5
50C
100
AcDbEntity
  8
0
100
AcDbLine
 62
7
  6
CONTINUOUS
 10
5.044324163
 20
3.936713145
 11
5.044098405
 21
3.9369739116
  0
LINE
  5
50D
100
AcDbEntity
  8
0
100
AcDbLine
 62
7
  6
CONTINUOUS
 10
5.044324163
 20
3.9957682631
 11
5.044098405
 21
3.9960290297
  0
LINE
  5
50E
100
AcDbEntity
  8
0
100
AcDbLine
 62
7
  6
CONTINUOUS
 10
5.3970131741
 20
3.360183283
 11
5.3968543105
 21
3.3604142564
  0
LINE
  5
50F
100
AcDbEntity
  8
0
100
AcDbLine
 62
7
  6
CONTINUOUS
 10
5.3970131741
 20
3.3995533618
 11
5.3968543105
 21
3.3997843351
  0
LINE
  5
510
100
AcDbEntity
  8
0
100
AcDbLine
 62
7
  6
CONTINUOUS
 10
5.3970131741
 20
3.4389234405
 11
5.3968543105
 21
3.4391544139
  0
LWPOLYLINE
  5
511
100
AcDbEntity
  8
0
100
AcDbPolyline
 62
7
  6
CONTINUOUS
 90
3
 70
0
 10
5.4014148625
 20
3.0901056729
 10
5.4013861776
 20
3.0901618983
 10
5.4014404445
 20
3.0902420115
  0
LINE
  5
512
100
AcDbEntity
  8
0
100
AcDbLine
 62
7
  6
CONTINUOUS
 10
5.044098405
 20
4.7120723368
 11
5.044098405
 21
4.704690447
  0
LINE
  5
513
100
AcDbEntity
  8
0
100
AcDbLine
 62
7
  6
CONTINUOUS
 10
5.044098405
 20
4.6530172187
 11
5.044098405
 21
4.6456353289
  0
LINE
  5
514
100
AcDbEntity
  8
0
100
AcDbLine
 62
7
  6
CONTINUOUS
 10
5.044098405
 20
4.5939621006
 11
5.044098405
 21
4.5865802108
  0
LINE
  5
515
100
AcDbEntity
  8
0
100
AcDbLine
 62
7
  6
CONTINUOUS
 10
5.044098405
 20
4.5349069824
 11
5.044098405
 21
4.5275250927
  0
LINE
  5
516
100
AcDbEntity
  8
0
100
AcDbLine
 62
7
  6
CONTINUOUS
 10
5.044098405
 20
4.4758518643
 11
5.044098405
 21
4.4684699746
  0
LINE
  5
517
100
AcDbEntity
  8
0
100
AcDbLine
 62
7
  6
CONTINUOUS
 10
5.044098405
 20
4.4167967462
 11
5.044098405
 21
4.4094148565
  0
LINE
  5
518
100
AcDbEntity
  8
0
100
AcDbLine
 62
7
  6
CONTINUOUS
 10
5.044098405
 20
4.3577416281
 11
5.044098405
 21
4.3503597384
  0
LINE
  5
519
100
AcDbEntity
  8
0
100
AcDbLine
 62
7
  6
CONTINUOUS
 10
5.044098405
 20
4.29868651
 11
5.044098405
 21
4.2913046202
  0
LINE
  5
51A
100
AcDbEntity
  8
0
100
AcDbLine
 62
7
  6
CONTINUOUS
 10
5.044098405
 20
4.2396313919
 11
5.044098405
 21
4.2322495021
  0
LINE
  5
51B
100
AcDbEntity
  8
0
100
AcDbLine
 62
7
  6
CONTINUOUS
 10
5.044098405
 20
4.1805762738
 11
5.044098405
 21
4.173194384
  0
LINE
  5
51C
100
AcDbEntity
  8
0
100
AcDbLine
 62
7
  6
CONTINUOUS
 10
5.044098405
 20
4.1215211557
 11
5.044098405
 21
4.1141392659
  0
LINE
  5
51D
100
AcDbEntity
  8
0
100
AcDbLine
 62
7
  6
CONTINUOUS
 10
5.044098405
 20
4.0624660376
 11
5.044098405
 21
4.0550841478
  0
LINE
  5
51E
100
AcDbEntity
  8
0
100
AcDbLine
 62
7
  6
CONTINUOUS
 10
5.044098405
 20
4.0034109195
 11
5.044098405
 21
3.9960290297
  0
LINE
  5
51F
100
AcDbEntity
  8
0
100
AcDbLine
 62
7
  6
CONTINUOUS
 10
5.044098405
 20
3.9443558013
 11
5.044098405
 21
3.9369739116
  0
LINE
  5
520
100
AcDbEntity
  8
0
100
AcDbLine
 62
7
  6
CONTINUOUS
 10
5.044098405
 20
3.8853006832
 11
5.044098405
 21
3.8779187935
  0
LINE
  5
521
100
AcDbEntity
  8
0
100
AcDbLine
 62
7
  6
CONTINUOUS
 10
5.044098405
 20
3.8262455651
 11
5.044098405
 21
3.8188636754
  0
LINE
  5
522
100
AcDbEntity
  8
0
100
AcDbLine
 62
7
  6
CONTINUOUS
 10
5.044098405
 20
3.767190447
 11
5.044098405
 21
3.7598085573
  0
LINE
  5
523
100
AcDbEntity
  8
0
100
AcDbLine
 62
7
  6
CONTINUOUS
 10
5.044098405
 20
3.7081353289
 11
5.044098405
 21
3.7007534391
  0
LWPOLYLINE
  5
524
100
AcDbEntity
  8
0
100
AcDbPolyline
 62
7
  6
CONTINUOUS
 90
3
 70
0
 10
5.044098405
 20
4.6530172187
 10
5.0441637181
 20
4.6531574744
 10
5.044324163
 20
4.6532779853
  0
LINE
  5
525
100
AcDbEntity
  8
0
100
AcDbLine
 62
7
  6
CONTINUOUS
 10
5.044098405
 20
4.7120723368
 11
5.044324163
 21
4.7123331034
  0
LWPOLYLINE
  5
526
100
AcDbEntity
  8
0
100
AcDbPolyline
 62
7
  6
CONTINUOUS
 90
12
 70
0
 10
5.0453687809
 20
3.7087540016
 10
5.0530510754
 20
3.7097794984
 10
5.0676033555
 20
3.7108049952
 10
5.0888525544
 20
3.711830492
 10
5.1165459608
 20
3.7128559888
 10
5.1503542238
 20
3.7138814856
 10
5.18987527
 20
3.7149069824
 10
5.2346390854
 20
3.7159324793
 10
5.284113305
 20
3.7169579761
 10
5.3377095442
 20
3.7179834729
 10
5.3947903961
 20
3.7190089697
 10
5.4546770122
 20
3.7200344665
  0
LWPOLYLINE
  5
527
100
AcDbEntity
  8
0
100
AcDbPolyline
 62
7
  6
CONTINUOUS
 90
13
 70
0
 10
5.4545184108
 20
3.7402982057
 10
5.399005002
 20
3.7392785115
 10
5.3462682477
 20
3.738259854
 10
5.2965936311
 20
3.7372352855
 10
5.250890116
 20
3.7362108274
 10
5.2099193484
 20
3.7351923052
 10
5.1739609199
 20
3.7341760904
 10
5.1432935476
 20
3.7331582986
 10
5.1183681756
 20
3.7321419842
 10
5.0994033121
 20
3.7311241225
 10
5.0866765155
 20
3.730107641
 10
5.0802979439
 20
3.7290883492
 10
5.0797717285
 20
3.7288701426
  0
LWPOLYLINE
  5
528
100
AcDbEntity
  8
0
100
AcDbPolyline
 62
7
  6
CONTINUOUS
 90
13
 70
0
 10
5.8065019013
 20
3.7571659546
 10
5.8619079168
 20
3.7581833092
 10
5.9145170449
 20
3.7591988579
 10
5.9640950179
 20
3.7602203785
 10
6.0098595482
 20
3.7612447353
 10
6.0510047237
 20
3.7622659215
 10
6.0870746666
 20
3.7632834974
 10
6.1179429881
 20
3.7643062623
 10
6.1430454473
 20
3.7653289277
 10
6.1620019734
 20
3.7663460496
 10
6.1747305147
 20
3.7673618795
 10
6.1811166941
 20
3.7683797053
 10
6.1816534279
 20
3.7686013026
  0
LWPOLYLINE
  5
529
100
AcDbEntity
  8
0
100
AcDbPolyline
 62
7
  6
CONTINUOUS
 90
13
 70
0
 10
5.4548391318
 20
3.7993590951
 10
5.3994718107
 20
3.7983424007
 10
5.3468135848
 20
3.797325825
 10
5.2974283971
 20
3.7963082887
 10
5.2519929536
 20
3.7952918629
 10
5.2109355872
 20
3.7942742086
 10
5.1748613397
 20
3.7932585813
 10
5.144086634
 20
3.792242299
 10
5.1189012826
 20
3.7912216759
 10
5.0997499505
 20
3.7902013602
 10
5.0868772835
 20
3.7891839437
 10
5.0803488014
 20
3.7881596537
 10
5.0797717285
 20
3.7879252607
  0
LWPOLYLINE
  5
52A
100
AcDbEntity
  8
0
100
AcDbPolyline
 62
7
  6
CONTINUOUS
 90
13
 70
0
 10
5.806996404
 20
3.8162299712
 10
5.8622795542
 20
3.8172454097
 10
5.9149217079
 20
3.8182620276
 10
5.964286006
 20
3.819279587
 10
6.0096979092
 20
3.8202960566
 10
6.0507277252
 20
3.8213137419
 10
6.0867887933
 20
3.8223299284
 10
6.1175470257
 20
3.8233469595
 10
6.1426057796
 20
3.8243637705
 10
6.1617046973
 20
3.8253821959
 10
6.1745548761
 20
3.8263984718
 10
6.1810581082
 20
3.8274163436
 10
6.1816534279
 20
3.8276564207
  0
LINE
  5
52B
100
AcDbEntity
  8
0
100
AcDbLine
 62
7
  6
CONTINUOUS
 10
5.8065391122
 20
3.7464079818
 11
5.6902478671
 21
3.7443736005
  0
LINE
  5
52C
100
AcDbEntity
  8
0
100
AcDbLine
 62
7
  6
CONTINUOUS
 10
5.4548391318
 20
3.7510626193
 11
5.5711556006
 21
3.7530974727
  0
LINE
  5
52D
100
AcDbEntity
  8
0
100
AcDbLine
 62
7
  6
CONTINUOUS
 10
5.8065019013
 20
3.8054624304
 11
5.6902348484
 21
3.8034284953
  0
LINE
  5
52E
100
AcDbEntity
  8
0
100
AcDbLine
 62
7
  6
CONTINUOUS
 10
5.4538406854
 20
3.8100997667
 11
5.5710349066
 21
3.8121505206
  0
LWPOLYLINE
  5
52F
100
AcDbEntity
  8
0
100
AcDbPolyline
 62
7
  6
CONTINUOUS
 90
12
 70
0
 10
5.8213082035
 20
3.8367376911
 10
5.8805866139
 20
3.8377631879
 10
5.9368933341
 20
3.8387886847
 10
5.9895587222
 20
3.8398141815
 10
6.0379564417
 20
3.8408396784
 10
6.0815109106
 20
3.8418651752
 10
6.1197041463
 20
3.842890672
 10
6.152081926
 20
3.8439161688
 10
6.1782591888
 20
3.8449416656
 10
6.1979246151
 20
3.8459671624
 10
6.2108443287
 20
3.8469926592
 10
6.2168646787
 20
3.8480181561
  0
LWPOLYLINE
  5
530
100
AcDbEntity
  8
0
100
AcDbPolyline
 62
7
  6
CONTINUOUS
 90
13
 70
0
 10
5.8213082035
 20
3.8441195809
 10
5.8805866139
 20
3.8451450777
 10
5.9368933341
 20
3.8461705745
 10
5.9895587222
 20
3.8471960713
 10
6.0379564417
 20
3.8482215681
 10
6.0815109106
 20
3.8492470649
 10
6.1197041463
 20
3.8502725618
 10
6.152081926
 20
3.8512980586
 10
6.1782591888
 20
3.8523235554
 10
6.1979246151
 20
3.8533490522
 10
6.2108443287
 20
3.854374549
 10
6.2168646787
 20
3.8554000458
 10
6.2173267514
 20
3.8557731242
  0
LWPOLYLINE
  5
531
100
AcDbEntity
  8
0
100
AcDbPolyline
 62
7
  6
CONTINUOUS
 90
3
 70
0
 10
5.6902478671
 20
3.7443736005
 10
5.5712747997
 20
3.7423408749
 10
5.4545184108
 20
3.7402982057
  0
LWPOLYLINE
  5
532
100
AcDbEntity
  8
0
100
AcDbPolyline
 62
7
  6
CONTINUOUS
 90
3
 70
0
 10
5.5711556006
 20
3.7530974727
 10
5.6902348484
 20
3.7551320195
 10
5.8065019013
 20
3.7571659546
  0
LWPOLYLINE
  5
533
100
AcDbEntity
  8
0
100
AcDbPolyline
 62
7
  6
CONTINUOUS
 90
3
 70
0
 10
5.6902348484
 20
3.8034284953
 10
5.5711556006
 20
3.8013939485
 10
5.4548391318
 20
3.7993590951
  0
LWPOLYLINE
  5
534
100
AcDbEntity
  8
0
100
AcDbPolyline
 62
7
  6
CONTINUOUS
 90
3
 70
0
 10
5.5710349066
 20
3.8121505206
 10
5.6903363119
 20
3.814188878
 10
5.806996404
 20
3.8162299712
  0
LWPOLYLINE
  5
535
100
AcDbEntity
  8
0
100
AcDbPolyline
 62
7
  6
CONTINUOUS
 90
13
 70
0
 10
5.7961135672
 20
3.777258876
 10
5.8564156945
 20
3.7782843728
 10
5.9140335904
 20
3.7793098696
 10
5.9682820195
 20
3.7803353664
 10
6.0185158186
 20
3.7813608632
 10
6.0641375695
 20
3.78238636
 10
6.1046047041
 20
3.7834118568
 10
6.1394359567
 20
3.7844373537
 10
6.1682170878
 20
3.7854628505
 10
6.1906058105
 20
3.7864883473
 10
6.2063358614
 20
3.7875138441
 10
6.2152201667
 20
3.7885393409
 10
6.2171009934
 20
3.7890753497
  0
LWPOLYLINE
  5
536
100
AcDbEntity
  8
0
100
AcDbPolyline
 62
7
  6
CONTINUOUS
 90
13
 70
0
 10
5.7961135672
 20
3.7846407657
 10
5.8564156945
 20
3.7856662625
 10
5.9140335904
 20
3.7866917594
 10
5.9682820195
 20
3.7877172562
 10
6.0185158186
 20
3.788742753
 10
6.0641375695
 20
3.7897682498
 10
6.1046047041
 20
3.7907937466
 10
6.1394359567
 20
3.7918192434
 10
6.1682170878
 20
3.7928447402
 10
6.1906058105
 20
3.793870237
 10
6.2063358614
 20
3.7948957339
 10
6.2152201667
 20
3.7959212307
 10
6.2173267514
 20
3.7967180061
  0
LINE
  5
537
100
AcDbEntity
  8
0
100
AcDbLine
 62
7
  6
CONTINUOUS
 10
5.4441056434
 20
3.8305847102
 11
5.5689292449
 21
3.8326357039
  0
LINE
  5
538
100
AcDbEntity
  8
0
100
AcDbLine
 62
7
  6
CONTINUOUS
 10
5.4441056434
 20
3.8379666
 11
5.5689292449
 21
3.8400175936
  0
LINE
  5
539
100
AcDbEntity
  8
0
100
AcDbLine
 62
7
  6
CONTINUOUS
 10
5.6703486455
 20
3.7752078823
 11
5.7961135672
 21
3.777258876
  0
LINE
  5
53A
100
AcDbEntity
  8
0
100
AcDbLine
 62
7
  6
CONTINUOUS
 10
5.4800727284
 20
3.7721313919
 11
5.6703486455
 21
3.7752078823
  0
LINE
  5
53B
100
AcDbEntity
  8
0
100
AcDbLine
 62
7
  6
CONTINUOUS
 10
5.6703486455
 20
3.7825897721
 11
5.7961135672
 21
3.7846407657
  0
LINE
  5
53C
100
AcDbEntity
  8
0
100
AcDbLine
 62
7
  6
CONTINUOUS
 10
5.4800727284
 20
3.7795132817
 11
5.6703486455
 21
3.7825897721
  0
LWPOLYLINE
  5
53D
100
AcDbEntity
  8
0
100
AcDbPolyline
 62
7
  6
CONTINUOUS
 90
3
 70
0
 10
5.5689292449
 20
3.8326357039
 10
5.6966832035
 20
3.8346866975
 10
5.8213082035
 20
3.8367376911
  0
LWPOLYLINE
  5
53E
100
AcDbEntity
  8
0
100
AcDbPolyline
 62
7
  6
CONTINUOUS
 90
3
 70
0
 10
5.5689292449
 20
3.8400175936
 10
5.6966832035
 20
3.8420685872
 10
5.8213082035
 20
3.8441195809
  0
LINE
  5
53F
100
AcDbEntity
  8
0
100
AcDbLine
 62
7
  6
CONTINUOUS
 10
5.044324163
 20
3.9957682631
 11
5.0794713819
 21
3.9754676954
  0
LINE
  5
540
100
AcDbEntity
  8
0
100
AcDbLine
 62
7
  6
CONTINUOUS
 10
5.044324163
 20
4.0548233812
 11
5.0794713819
 21
4.0345228135
  0
LINE
  5
541
100
AcDbEntity
  8
0
100
AcDbLine
 62
7
  6
CONTINUOUS
 10
5.8644119823
 20
3.4216688518
 11
5.838899827
 21
3.440218664
  0
LINE
  5
542
100
AcDbEntity
  8
0
100
AcDbLine
 62
7
  6
CONTINUOUS
 10
5.044324163
 20
4.0548233812
 11
5.044098405
 21
4.0550841478
  0
LINE
  5
543
100
AcDbEntity
  8
0
100
AcDbLine
 62
7
  6
CONTINUOUS
 10
5.044324163
 20
4.1138784993
 11
5.044098405
 21
4.1141392659
  0
LINE
  5
544
100
AcDbEntity
  8
0
100
AcDbLine
 62
7
  6
CONTINUOUS
 10
5.044324163
 20
4.1729336174
 11
5.044098405
 21
4.173194384
  0
LINE
  5
545
100
AcDbEntity
  8
02___PRT_ALL_AXES
100
AcDbLine
 62
7
  6
CONTINUOUS
 10
5.0795314759
 20
4.7423040202
 11
5.0795314759
 21
4.7328071505
  0
LINE
  5
546
100
AcDbEntity
  8
02___PRT_ALL_AXES
100
AcDbLine
 62
7
  6
CONTINUOUS
 10
5.0795314759
 20
4.684233154
 11
5.0795314759
 21
4.6737520324
  0
LINE
  5
547
100
AcDbEntity
  8
02___PRT_ALL_AXES
100
AcDbLine
 62
7
  6
CONTINUOUS
 10
5.0795314759
 20
4.6251780359
 11
5.0795314759
 21
4.6146969143
  0
LINE
  5
548
100
AcDbEntity
  8
02___PRT_ALL_AXES
100
AcDbLine
 62
7
  6
CONTINUOUS
 10
5.0795314759
 20
4.5661229178
 11
5.0795314759
 21
4.5556417962
  0
LINE
  5
549
100
AcDbEntity
  8
02___PRT_ALL_AXES
100
AcDbLine
 62
7
  6
CONTINUOUS
 10
5.0795314759
 20
4.5070677997
 11
5.0795314759
 21
4.496586678
  0
LINE
  5
54A
100
AcDbEntity
  8
02___PRT_ALL_AXES
100
AcDbLine
 62
7
  6
CONTINUOUS
 10
5.0795314759
 20
4.4480126816
 11
5.0795314759
 21
4.4375315599
  0
LINE
  5
54B
100
AcDbEntity
  8
02___PRT_ALL_AXES
100
AcDbLine
 62
7
  6
CONTINUOUS
 10
5.0795314759
 20
4.3889575635
 11
5.0795314759
 21
4.3784764418
  0
LINE
  5
54C
100
AcDbEntity
  8
02___PRT_ALL_AXES
100
AcDbLine
 62
7
  6
CONTINUOUS
 10
5.0795314759
 20
4.3299024454
 11
5.0795314759
 21
4.3194213237
  0
LINE
  5
54D
100
AcDbEntity
  8
02___PRT_ALL_AXES
100
AcDbLine
 62
7
  6
CONTINUOUS
 10
5.0795314759
 20
4.2708473272
 11
5.0795314759
 21
4.2603662056
  0
LINE
  5
54E
100
AcDbEntity
  8
02___PRT_ALL_AXES
100
AcDbLine
 62
7
  6
CONTINUOUS
 10
5.0795314759
 20
4.2117922091
 11
5.0795314759
 21
4.2013110875
  0
LINE
  5
54F
100
AcDbEntity
  8
02___PRT_ALL_AXES
100
AcDbLine
 62
7
  6
CONTINUOUS
 10
5.0795314759
 20
4.152737091
 11
5.0795314759
 21
4.1422559694
  0
LINE
  5
550
100
AcDbEntity
  8
02___PRT_ALL_AXES
100
AcDbLine
 62
7
  6
CONTINUOUS
 10
5.0795314759
 20
4.0936819729
 11
5.0795314759
 21
4.0832008513
  0
LINE
  5
551
100
AcDbEntity
  8
02___PRT_ALL_AXES
100
AcDbLine
 62
7
  6
CONTINUOUS
 10
5.0795314759
 20
4.0346268548
 11
5.0795314759
 21
4.0241457332
  0
LINE
  5
552
100
AcDbEntity
  8
02___PRT_ALL_AXES
100
AcDbLine
 62
7
  6
CONTINUOUS
 10
5.0795314759
 20
3.9755717367
 11
5.0795314759
 21
3.9648130943
  0
LINE
  5
553
100
AcDbEntity
  8
02___PRT_ALL_AXES
100
AcDbLine
 62
7
  6
CONTINUOUS
 10
5.0795314759
 20
3.9165166186
 11
5.0795314759
 21
3.9060354969
  0
LINE
  5
554
100
AcDbEntity
  8
02___PRT_ALL_AXES
100
AcDbLine
 62
7
  6
CONTINUOUS
 10
5.0795314759
 20
3.8574615005
 11
5.0795314759
 21
3.8469803788
  0
LINE
  5
555
100
AcDbEntity
  8
02___PRT_ALL_AXES
100
AcDbLine
 62
7
  6
CONTINUOUS
 10
5.0795314759
 20
3.7984063824
 11
5.0795314759
 21
3.7879252607
  0
LINE
  5
556
100
AcDbEntity
  8
02___PRT_ALL_AXES
100
AcDbLine
 62
7
  6
CONTINUOUS
 10
5.0795314759
 20
3.7393512642
 11
5.0795314759
 21
3.7288701426
  0
LINE
  5
557
100
AcDbEntity
  8
02___PRT_ALL_AXES
100
AcDbLine
 62
7
  6
CONTINUOUS
 10
5.0795314759
 20
3.6802961461
 11
5.0795314759
 21
3.6655323666
  0
LWPOLYLINE
  5
558
100
AcDbEntity
  8
0
100
AcDbPolyline
 62
7
  6
CONTINUOUS
 90
3
 70
0
 10
5.044098405
 20
4.3577416281
 10
5.0441749685
 20
4.3578934841
 10
5.044324163
 20
4.3580023947
  0
LWPOLYLINE
  5
559
100
AcDbEntity
  8
0
100
AcDbPolyline
 62
7
  6
CONTINUOUS
 90
14
 70
0
 10
5.044098405
 20
4.3503597384
 10
5.0441749685
 20
4.3505115944
 10
5.0486947489
 20
4.3515370912
 10
5.0601363235
 20
4.352562588
 10
5.0783636206
 20
4.3535880848
 10
5.1031598675
 20
4.3546135816
 10
5.1342301684
 20
4.3556390784
 10
5.1712050119
 20
4.3566645752
 10
5.2136446655
 20
4.3576900721
 10
5.2610444047
 20
4.3587155689
 10
5.3128405162
 20
4.3597410657
 10
5.3684170016
 20
4.3607665625
 10
5.4271129035
 20
4.3617920593
 10
5.4882301661
 20
4.3628175561
  0
LINE
  5
55A
100
AcDbEntity
  8
0
100
AcDbLine
 62
7
  6
CONTINUOUS
 10
5.044098405
 20
4.5939621006
 11
5.044324163
 21
4.5942228671
  0
LINE
  5
55B
100
AcDbEntity
  8
0
100
AcDbLine
 62
7
  6
CONTINUOUS
 10
5.044098405
 20
4.5349069824
 11
5.044324163
 21
4.535167749
  0
LINE
  5
55C
100
AcDbEntity
  8
0
100
AcDbLine
 62
7
  6
CONTINUOUS
 10
5.044098405
 20
4.4758518643
 11
5.044324163
 21
4.4761126309
  0
LWPOLYLINE
  5
55D
100
AcDbEntity
  8
0
100
AcDbPolyline
 62
7
  6
CONTINUOUS
 90
13
 70
0
 10
5.0795314759
 20
4.6251780313
 10
5.0802992909
 20
4.6256741988
 10
5.0866670354
 20
4.6266920474
 10
5.0993817177
 20
4.6277081523
 10
5.1184264301
 20
4.6287300913
 10
5.1436438589
 20
4.6297564907
 10
5.1746124636
 20
4.6307813231
 10
5.210737461
 20
4.6317992895
 10
5.2518690597
 20
4.6328192506
 10
5.2975269178
 20
4.6338406937
 10
5.3469048596
 20
4.6348579366
 10
5.3995121513
 20
4.6358734544
 10
5.4549191874
 20
4.6368908314
  0
LWPOLYLINE
  5
55E
100
AcDbEntity
  8
0
100
AcDbPolyline
 62
7
  6
CONTINUOUS
 90
13
 70
0
 10
5.0795314761
 20
4.6842334083
 10
5.0803914224
 20
4.6847582488
 10
5.0869229572
 20
4.6857741368
 10
5.0998009495
 20
4.6867900127
 10
5.1189174822
 20
4.6878078341
 10
5.1439864553
 20
4.6888240739
 10
5.1747902125
 20
4.6898418373
 10
5.2108775854
 20
4.6908580963
 10
5.2518685542
 20
4.6918743568
 10
5.2973185599
 20
4.6928913509
 10
5.3468162632
 20
4.6939112923
 10
5.399511601
 20
4.6949285622
 10
5.4549199698
 20
4.6959459636
  0
LINE
  5
55F
100
AcDbEntity
  8
0
100
AcDbLine
 62
7
  6
CONTINUOUS
 10
5.0797717285
 20
4.7328071505
 11
5.044324163
 21
4.7123331034
  0
LINE
  5
560
100
AcDbEntity
  8
0
100
AcDbLine
 62
7
  6
CONTINUOUS
 10
5.0797717285
 20
4.6737520324
 11
5.044324163
 21
4.6532779853
  0
LINE
  5
561
100
AcDbEntity
  8
0
100
AcDbLine
 62
7
  6
CONTINUOUS
 10
5.044324163
 20
4.7123331034
 11
5.0449827881
 21
4.7125885049
  0
LWPOLYLINE
  5
562
100
AcDbEntity
  8
0
100
AcDbPolyline
 62
7
  6
CONTINUOUS
 90
13
 70
0
 10
5.044324163
 20
3.7674512136
 10
5.0477022457
 20
3.7682328167
 10
5.0582387391
 20
3.7692583135
 10
5.0755835224
 20
3.7702838103
 10
5.0995303184
 20
3.7713093072
 10
5.1297943339
 20
3.772334804
 10
5.1660156463
 20
3.7733603008
 10
5.2077634845
 20
3.7743857976
 10
5.2545413518
 20
3.7754112944
 10
5.3057929306
 20
3.7764367912
 10
5.3609086985
 20
3.777462288
 10
5.4192331774
 20
3.7784877848
 10
5.4800727284
 20
3.7795132817
  0
LWPOLYLINE
  5
563
100
AcDbEntity
  8
0
100
AcDbPolyline
 62
7
  6
CONTINUOUS
 90
12
 70
0
 10
5.0447427484
 20
3.8266861351
 10
5.0512202736
 20
3.8277116319
 10
5.0645895577
 20
3.8287371287
 10
5.0846916031
 20
3.8297626255
 10
5.111287341
 20
3.8307881223
 10
5.144060475
 20
3.8318136191
 10
5.1826212422
 20
3.8328391159
 10
5.226511049
 20
3.8338646127
 10
5.2752079247
 20
3.8348901096
 10
5.3281327295
 20
3.8359156064
 10
5.3846560417
 20
3.8369411032
 10
5.4441056434
 20
3.8379666
  0
LWPOLYLINE
  5
564
100
AcDbEntity
  8
0
100
AcDbPolyline
 62
7
  6
CONTINUOUS
 90
7
 70
0
 10
6.0697448165
 20
3.8808866973
 10
6.1025016248
 20
3.8818817708
 10
6.1301141765
 20
3.8828824399
 10
6.1520692797
 20
3.8838830026
 10
6.1680484263
 20
3.8848779572
 10
6.1780020795
 20
3.8858715132
 10
6.1816534279
 20
3.8867115388
  0
LWPOLYLINE
  5
565
100
AcDbEntity
  8
0
100
AcDbPolyline
 62
7
  6
CONTINUOUS
 90
7
 70
0
 10
6.0979683175
 20
3.9013439903
 10
6.1338100531
 20
3.9023694871
 10
6.1636685746
 20
3.9033949839
 10
6.1871887821
 20
3.9044204808
 10
6.2040909556
 20
3.9054459776
 10
6.2141740817
 20
3.9064714744
 10
6.2171009934
 20
3.9071855859
  0
LWPOLYLINE
  5
566
100
AcDbEntity
  8
0
100
AcDbPolyline
 62
7
  6
CONTINUOUS
 90
7
 70
0
 10
6.0979683175
 20
3.9087258801
 10
6.1338100531
 20
3.9097513769
 10
6.1636685746
 20
3.9107768737
 10
6.1871887821
 20
3.9118023705
 10
6.2040909556
 20
3.9128278673
 10
6.2141740817
 20
3.9138533642
 10
6.2173267514
 20
3.9148282423
  0
LWPOLYLINE
  5
567
100
AcDbEntity
  8
0
100
AcDbPolyline
 62
7
  6
CONTINUOUS
 90
7
 70
0
 10
6.0697448165
 20
3.9291831731
 10
6.0334232994
 20
3.9282217933
 10
5.9928197454
 20
3.9272587768
 10
5.9484956858
 20
3.9262973802
 10
5.9007657218
 20
3.9253343426
 10
5.8502829504
 20
3.9243727902
 10
5.7973617152
 20
3.9234086903
  0
LWPOLYLINE
  5
568
100
AcDbEntity
  8
0
100
AcDbPolyline
 62
7
  6
CONTINUOUS
 90
13
 70
0
 10
5.4538406854
 20
3.8583962425
 10
5.398388652
 20
3.8573771609
 10
5.3458183107
 20
3.8563611303
 10
5.2965292688
 20
3.8553441417
 10
5.2511931658
 20
3.8543281922
 10
5.2102423254
 20
3.853311064
 10
5.174235481
 20
3.8522946858
 10
5.1434698882
 20
3.8512749712
 10
5.1184801435
 20
3.850257395
 10
5.0995224112
 20
3.8492419798
 10
5.0867576617
 20
3.8482264747
 10
5.0803309505
 20
3.8472091493
 10
5.0797717285
 20
3.8469803788
  0
LWPOLYLINE
  5
569
100
AcDbEntity
  8
0
100
AcDbPolyline
 62
7
  6
CONTINUOUS
 90
13
 70
0
 10
5.4549075174
 20
3.9174705618
 10
5.3994969128
 20
3.9164531085
 10
5.3468696355
 20
3.9154371763
 10
5.2975437105
 20
3.9144209935
 10
5.2519576958
 20
3.9134012716
 10
5.2108434854
 20
3.912382021
 10
5.1747538158
 20
3.9113655549
 10
5.1439540833
 20
3.9103477196
 10
5.1188902342
 20
3.9093314045
 10
5.0997800474
 20
3.9083135081
 10
5.0869059454
 20
3.9072971807
 10
5.0803625988
 20
3.9062741938
 10
5.0797717285
 20
3.9060354969
  0
LWPOLYLINE
  5
56A
100
AcDbEntity
  8
0
100
AcDbPolyline
 62
7
  6
CONTINUOUS
 90
13
 70
0
 10
5.8065113071
 20
3.9343314782
 10
5.8619214445
 20
3.9353489177
 10
5.9146245806
 20
3.9363663514
 10
5.964144952
 20
3.9373868021
 10
6.0096191573
 20
3.9384044435
 10
6.0505943469
 20
3.9394204665
 10
6.0866762964
 20
3.9404367493
 10
6.1174742288
 20
3.9414545489
 10
6.1425365972
 20
3.9424708264
 10
6.1616457262
 20
3.943488685
 10
6.1745161628
 20
3.9445046544
 10
6.1810393708
 20
3.945520807
 10
6.1816534279
 20
3.9457666569
  0
LWPOLYLINE
  5
56B
100
AcDbEntity
  8
0
100
AcDbPolyline
 62
7
  6
CONTINUOUS
 90
7
 70
0
 10
5.7973617152
 20
3.8751122146
 10
5.8502829504
 20
3.8760763144
 10
5.9007657218
 20
3.8770378668
 10
5.9484956858
 20
3.8780009044
 10
5.9928197454
 20
3.8789623011
 10
6.0334232994
 20
3.8799253175
 10
6.0697448165
 20
3.8808866973
  0
LINE
  5
56C
100
AcDbEntity
  8
0
100
AcDbLine
 62
7
  6
CONTINUOUS
 10
5.806996404
 20
3.864526447
 11
5.6903363119
 21
3.8624853538
  0
LINE
  5
56D
100
AcDbEntity
  8
0
100
AcDbLine
 62
7
  6
CONTINUOUS
 10
5.6869959233
 20
3.8731867172
 11
5.7973617152
 21
3.8751122146
  0
LWPOLYLINE
  5
56E
100
AcDbEntity
  8
0
100
AcDbPolyline
 62
7
  6
CONTINUOUS
 90
3
 70
0
 10
5.4549075174
 20
3.869174086
 10
5.5711847724
 20
3.8712082093
 10
5.6869959233
 20
3.8731867172
  0
LINE
  5
56F
100
AcDbEntity
  8
0
100
AcDbLine
 62
7
  6
CONTINUOUS
 10
5.7973617152
 20
3.9234086903
 11
5.6869959233
 21
3.9214831929
  0
LINE
  5
570
100
AcDbEntity
  8
0
100
AcDbLine
 62
7
  6
CONTINUOUS
 10
5.4540082933
 20
3.9282130205
 11
5.5711446388
 21
3.930262639
  0
LWPOLYLINE
  5
571
100
AcDbEntity
  8
0
100
AcDbPolyline
 62
7
  6
CONTINUOUS
 90
3
 70
0
 10
5.6903363119
 20
3.8624853538
 10
5.5710349066
 20
3.8604469963
 10
5.4538406854
 20
3.8583962425
  0
LWPOLYLINE
  5
572
100
AcDbEntity
  8
0
100
AcDbPolyline
 62
7
  6
CONTINUOUS
 90
3
 70
0
 10
5.6869959233
 20
3.9214831929
 10
5.5711847724
 20
3.9195046851
 10
5.4549075174
 20
3.9174705618
  0
LWPOLYLINE
  5
573
100
AcDbEntity
  8
0
100
AcDbPolyline
 62
7
  6
CONTINUOUS
 90
3
 70
0
 10
5.5711446388
 20
3.930262639
 10
5.6902381527
 20
3.9322974305
 10
5.8065113071
 20
3.9343314782
  0
LWPOLYLINE
  5
574
100
AcDbEntity
  8
0
100
AcDbPolyline
 62
7
  6
CONTINUOUS
 90
12
 70
0
 10
5.8107617803
 20
3.9546698246
 10
5.870485313
 20
3.9556953214
 10
5.9273572878
 20
3.9567208182
 10
5.9807013404
 20
3.957746315
 10
6.029883063
 20
3.9587718118
 10
6.0743175497
 20
3.9597973087
 10
6.113476352
 20
3.9608228055
 10
6.1468937641
 20
3.9618483023
 10
6.1741723607
 20
3.9628737991
 10
6.1949877245
 20
3.9638992959
 10
6.2090923032
 20
3.9649247927
 10
6.2163183548
 20
3.9659502895
  0
LWPOLYLINE
  5
575
100
AcDbEntity
  8
0
100
AcDbPolyline
 62
7
  6
CONTINUOUS
 90
13
 70
0
 10
5.8107617803
 20
3.9620517144
 10
5.870485313
 20
3.9630772112
 10
5.9273572878
 20
3.964102708
 10
5.9807013404
 20
3.9651282048
 10
6.029883063
 20
3.9661537016
 10
6.0743175497
 20
3.9671791984
 10
6.113476352
 20
3.9682046952
 10
6.1468937641
 20
3.969230192
 10
6.1741723607
 20
3.9702556889
 10
6.1949877245
 20
3.9712811857
 10
6.2090923032
 20
3.9723066825
 10
6.2163183548
 20
3.9733321793
 10
6.2173267514
 20
3.9738833604
  0
LWPOLYLINE
  5
576
100
AcDbEntity
  8
0
100
AcDbPolyline
 62
7
  6
CONTINUOUS
 90
7
 70
0
 10
5.7854196006
 20
3.8951910094
 10
5.8461155867
 20
3.8962165063
 10
5.904249838
 20
3.8972420031
 10
5.9591309783
 20
3.8982674999
 10
6.0101063196
 20
3.8992929967
 10
6.0565696249
 20
3.9003184935
 10
6.0979683175
 20
3.9013439903
  0
LWPOLYLINE
  5
577
100
AcDbEntity
  8
0
100
AcDbPolyline
 62
7
  6
CONTINUOUS
 90
7
 70
0
 10
5.7854196006
 20
3.9025728992
 10
5.8461155867
 20
3.903598396
 10
5.904249838
 20
3.9046238928
 10
5.9591309783
 20
3.9056493896
 10
6.0101063196
 20
3.9066748865
 10
6.0565696249
 20
3.9077003833
 10
6.0979683175
 20
3.9087258801
  0
LINE
  5
578
100
AcDbEntity
  8
0
100
AcDbLine
 62
7
  6
CONTINUOUS
 10
5.6856266158
 20
3.952618831
 11
5.8107617803
 21
3.9546698246
  0
LWPOLYLINE
  5
579
100
AcDbEntity
  8
0
100
AcDbPolyline
 62
7
  6
CONTINUOUS
 90
3
 70
0
 10
5.4336012786
 20
3.9485168437
 10
5.5578869018
 20
3.9505678373
 10
5.6856266158
 20
3.952618831
  0
LINE
  5
57A
100
AcDbEntity
  8
0
100
AcDbLine
 62
7
  6
CONTINUOUS
 10
5.6856266158
 20
3.9600007207
 11
5.8107617803
 21
3.9620517144
  0
LWPOLYLINE
  5
57B
100
AcDbEntity
  8
0
100
AcDbPolyline
 62
7
  6
CONTINUOUS
 90
3
 70
0
 10
5.4336012786
 20
3.9558987335
 10
5.5578869018
 20
3.9579497271
 10
5.6856266158
 20
3.9600007207
  0
LINE
  5
57C
100
AcDbEntity
  8
0
100
AcDbLine
 62
7
  6
CONTINUOUS
 10
5.4693572584
 20
3.8900635254
 11
5.7854196006
 21
3.8951910094
  0
LINE
  5
57D
100
AcDbEntity
  8
0
100
AcDbLine
 62
7
  6
CONTINUOUS
 10
5.4693572584
 20
3.8974454151
 11
5.7854196006
 21
3.9025728992
  0
LINE
  5
57E
100
AcDbEntity
  8
0
100
AcDbLine
 62
7
  6
CONTINUOUS
 10
5.044324163
 20
4.1138784993
 11
5.0794713819
 21
4.0935779316
  0
LINE
  5
57F
100
AcDbEntity
  8
0
100
AcDbLine
 62
7
  6
CONTINUOUS
 10
5.044324163
 20
4.1729336174
 11
5.0794713819
 21
4.1526330497
  0
LINE
  5
580
100
AcDbEntity
  8
0
100
AcDbLine
 62
7
  6
CONTINUOUS
 10
5.044324163
 20
4.2319887355
 11
5.0794713819
 21
4.2116881678
  0
LINE
  5
581
100
AcDbEntity
  8
0
100
AcDbLine
 62
7
  6
CONTINUOUS
 10
5.044324163
 20
4.2319887355
 11
5.044098405
 21
4.2322495021
  0
LINE
  5
582
100
AcDbEntity
  8
0
100
AcDbLine
 62
7
  6
CONTINUOUS
 10
5.044324163
 20
4.2910438537
 11
5.044098405
 21
4.2913046202
  0
LINE
  5
583
100
AcDbEntity
  8
0
100
AcDbLine
 62
7
  6
CONTINUOUS
 10
5.044324163
 20
4.3500989718
 11
5.044098405
 21
4.3503597384
  0
LINE
  5
584
100
AcDbEntity
  8
0
100
AcDbLine
 62
7
  6
CONTINUOUS
 10
5.044324163
 20
4.4091540899
 11
5.044098405
 21
4.4094148565
  0
LINE
  5
585
100
AcDbEntity
  8
0
100
AcDbLine
 62
7
  6
CONTINUOUS
 10
5.8645708459
 20
3.106477247
 11
5.8644119823
 21
3.1067082219
  0
LINE
  5
586
100
AcDbEntity
  8
0
100
AcDbLine
 62
7
  6
CONTINUOUS
 10
5.8644119823
 20
3.1460783006
 11
5.8645708459
 21
3.1458473272
  0
LINE
  5
587
100
AcDbEntity
  8
0
100
AcDbLine
 62
7
  6
CONTINUOUS
 10
5.8644119823
 20
3.1854483793
 11
5.8645708459
 21
3.185217406
  0
LINE
  5
588
100
AcDbEntity
  8
0
100
AcDbLine
 62
7
  6
CONTINUOUS
 10
5.8644119823
 20
3.2248184581
 11
5.8645708459
 21
3.2245874847
  0
LINE
  5
589
100
AcDbEntity
  8
0
100
AcDbLine
 62
7
  6
CONTINUOUS
 10
5.8644119823
 20
3.2641885368
 11
5.8645708459
 21
3.2639575635
  0
LINE
  5
58A
100
AcDbEntity
  8
0
100
AcDbLine
 62
7
  6
CONTINUOUS
 10
5.044098405
 20
4.4167967462
 11
5.044324163
 21
4.4170575128
  0
LINE
  5
58B
100
AcDbEntity
  8
0
100
AcDbLine
 62
7
  6
CONTINUOUS
 10
5.044098405
 20
4.29868651
 11
5.044324163
 21
4.2989472766
  0
LWPOLYLINE
  5
58C
100
AcDbEntity
  8
0
100
AcDbPolyline
 62
7
  6
CONTINUOUS
 90
13
 70
0
 10
5.044098405
 20
4.5275250927
 10
5.0446228116
 20
4.527922543
 10
5.0508082898
 20
4.5289480398
 10
5.0638904263
 20
4.5299735366
 10
5.0837136387
 20
4.5309990334
 10
5.1100421744
 20
4.5320245303
 10
5.1425629146
 20
4.5330500271
 10
5.1808890982
 20
4.5340755239
 10
5.2245649213
 20
4.5351010207
 10
5.2730709581
 20
4.5361265175
 10
5.3258303384
 20
4.5371520143
 10
5.3822156079
 20
4.5381775111
 10
5.4415561905
 20
4.5392030079
  0
LWPOLYLINE
  5
58D
100
AcDbEntity
  8
0
100
AcDbPolyline
 62
7
  6
CONTINUOUS
 90
13
 70
0
 10
5.079531476
 20
4.5070676108
 10
5.0803265365
 20
4.5075726909
 10
5.0867999567
 20
4.5085958785
 10
5.0996248965
 20
4.5096134615
 10
5.1187588548
 20
4.5106351861
 10
5.1439815343
 20
4.5116585408
 10
5.1748232545
 20
4.5126774855
 10
5.2108898133
 20
4.5136930638
 10
5.2519519523
 20
4.5147109602
 10
5.2973950875
 20
4.5157276352
 10
5.3467901214
 20
4.5167454179
 10
5.3994602725
 20
4.5177622436
 10
5.4548858141
 20
4.5187799947
  0
LWPOLYLINE
  5
58E
100
AcDbEntity
  8
0
100
AcDbPolyline
 62
7
  6
CONTINUOUS
 90
13
 70
0
 10
5.0795314759
 20
4.5661229203
 10
5.080356752
 20
4.5666373159
 10
5.0868354943
 20
4.5676547359
 10
5.0996536618
 20
4.5686704124
 10
5.1186836686
 20
4.5696868422
 10
5.1436862152
 20
4.5707029154
 10
5.1744572804
 20
4.5717214902
 10
5.2104907861
 20
4.5727376737
 10
5.2514760879
 20
4.5737549024
 10
5.2968432668
 20
4.5747709326
 10
5.3461616459
 20
4.5757880275
 10
5.3987587768
 20
4.5768041794
 10
5.454082741
 20
4.5778206599
  0
LINE
  5
58F
100
AcDbEntity
  8
0
100
AcDbLine
 62
7
  6
CONTINUOUS
 10
5.0797717285
 20
4.6146969143
 11
5.044324163
 21
4.5942228671
  0
LINE
  5
590
100
AcDbEntity
  8
0
100
AcDbLine
 62
7
  6
CONTINUOUS
 10
5.0797717285
 20
4.5556417962
 11
5.044324163
 21
4.535167749
  0
LWPOLYLINE
  5
591
100
AcDbEntity
  8
0
100
AcDbPolyline
 62
7
  6
CONTINUOUS
 90
13
 70
0
 10
5.044098405
 20
4.5865802108
 10
5.0453845495
 20
4.5872027127
 10
5.0530373476
 20
4.588223116
 10
5.067492285
 20
4.5892435193
 10
5.0885791546
 20
4.5902639227
 10
5.116049658
 20
4.591284326
 10
5.1495803294
 20
4.5923047294
 10
5.1887763443
 20
4.5933251327
 10
5.2331761687
 20
4.594345536
 10
5.2822569936
 20
4.5953659394
 10
5.3354408912
 20
4.5963863427
 10
5.3921016199
 20
4.597406746
 10
5.4515719981
 20
4.5984271494
  0
LWPOLYLINE
  5
592
100
AcDbEntity
  8
0
100
AcDbPolyline
 62
7
  6
CONTINUOUS
 90
13
 70
0
 10
5.044098405
 20
4.6456353289
 10
5.0459689091
 20
4.6463861063
 10
5.0544834261
 20
4.6474065096
 10
5.0697830549
 20
4.648426913
 10
5.091687642
 20
4.6494473163
 10
5.1199392603
 20
4.6504677197
 10
5.1542052465
 20
4.651488123
 10
5.1940821176
 20
4.6525085263
 10
5.2391003227
 20
4.6535289297
 10
5.2887297712
 20
4.654549333
 10
5.3423860754
 20
4.6555697364
 10
5.3994374308
 20
4.6565901397
 10
5.4592120566
 20
4.657610543
  0
LWPOLYLINE
  5
593
100
AcDbEntity
  8
0
100
AcDbPolyline
 62
7
  6
CONTINUOUS
 90
13
 70
0
 10
5.044098405
 20
4.704690447
 10
5.0466621845
 20
4.7055695
 10
5.0560368345
 20
4.7065899033
 10
5.0721783049
 20
4.7076103066
 10
5.0948965295
 20
4.70863071
 10
5.1239240005
 20
4.7096511133
 10
5.158918919
 20
4.7106715167
 10
5.1994692189
 20
4.71169192
 10
5.2450974194
 20
4.7127123233
 10
5.2952662475
 20
4.7137327267
 10
5.349384964
 20
4.71475313
 10
5.4068163197
 20
4.7157735333
 10
5.4668840592
 20
4.7167939367
  0
LWPOLYLINE
  5
594
100
AcDbEntity
  8
0
100
AcDbPolyline
 62
7
  6
CONTINUOUS
 90
13
 70
0
 10
5.044324163
 20
3.8855614498
 10
5.0465767228
 20
3.8861649502
 10
5.0559157168
 20
3.887190447
 10
5.0720906278
 20
3.8882159438
 10
5.0949090918
 20
3.8892414406
 10
5.1240997342
 20
3.8902669375
 10
5.1593153981
 20
3.8912924343
 10
5.2001372722
 20
3.8923179311
 10
5.246079872
 20
3.8933434279
 10
5.2965968136
 20
3.8943689247
 10
5.3510873115
 20
3.8953944215
 10
5.4089033236
 20
3.8964199183
 10
5.4693572584
 20
3.8974454151
  0
LWPOLYLINE
  5
595
100
AcDbEntity
  8
0
100
AcDbPolyline
 62
7
  6
CONTINUOUS
 90
12
 70
0
 10
5.044324163
 20
3.9446165679
 10
5.0495975472
 20
3.9456437653
 10
5.0617790349
 20
3.9466692622
 10
5.0807267086
 20
3.947694759
 10
5.1062152285
 20
3.9487202558
 10
5.1379414658
 20
3.9497457526
 10
5.1755281082
 20
3.9507712494
 10
5.2185281471
 20
3.9517967462
 10
5.2664301936
 20
3.952822243
 10
5.3186645605
 20
3.9538477399
 10
5.3746100375
 20
3.9548732367
 10
5.4336012786
 20
3.9558987335
  0
LWPOLYLINE
  5
596
100
AcDbEntity
  8
0
100
AcDbPolyline
 62
7
  6
CONTINUOUS
 90
12
 70
0
 10
5.0456609425
 20
4.0040970837
 10
5.0537990838
 20
4.0051225805
 10
5.0687983148
 20
4.0061480773
 10
5.0904802533
 20
4.0071735741
 10
5.1185870414
 20
4.0081990709
 10
5.1527844121
 20
4.0092245677
 10
5.1926656643
 20
4.0102500646
 10
5.2377565003
 20
4.0112755614
 10
5.2875206659
 20
4.0123010582
 10
5.3413663281
 20
4.013326555
 10
5.3986531138
 20
4.0143520518
 10
5.4586997253
 20
4.0153775486
  0
LWPOLYLINE
  5
597
100
AcDbEntity
  8
0
100
AcDbPolyline
 62
7
  6
CONTINUOUS
 90
11
 70
0
 10
5.9145112594
 20
3.9954192152
 10
5.9638610858
 20
3.9964358427
 10
6.0094932689
 20
3.9974566062
 10
6.0506197639
 20
3.9984762537
 10
6.086753824
 20
3.9994942209
 10
6.1177416541
 20
4.0005193969
 10
6.1429829696
 20
4.0015465122
 10
6.1620488008
 20
4.0025695232
 10
6.1747647503
 20
4.0035859892
 10
6.1811278571
 20
4.0046037769
 10
6.1816534279
 20
4.004821775
  0
LWPOLYLINE
  5
598
100
AcDbEntity
  8
0
100
AcDbPolyline
 62
7
  6
CONTINUOUS
 90
13
 70
0
 10
5.4540082933
 20
3.9765094963
 10
5.3984971416
 20
3.9754894371
 10
5.3458661204
 20
3.9744723188
 10
5.2963872127
 20
3.9734513314
 10
5.250937747
 20
3.9724324206
 10
5.2101025657
 20
3.9714176134
 10
5.1741424278
 20
3.9704020902
 10
5.1434663721
 20
3.9693850792
 10
5.1185218065
 20
3.9683695548
 10
5.0995264799
 20
3.967352476
 10
5.0867616108
 20
3.9663371281
 10
5.0803353467
 20
3.965320776
 10
5.0797717285
 20
3.9650906151
  0
LINE
  5
599
100
AcDbEntity
  8
0
100
AcDbLine
 62
7
  6
CONTINUOUS
 10
5.8354435002
 20
3.9939178466
 11
5.9145112594
 21
3.9954192152
  0
LWPOLYLINE
  5
59A
100
AcDbEntity
  8
0
100
AcDbPolyline
 62
7
  6
CONTINUOUS
 90
13
 70
0
 10
5.4548788095
 20
4.0355802815
 10
5.3994297301
 20
4.0345620826
 10
5.3467610481
 20
4.0335452522
 10
5.297368011
 20
4.0325274682
 10
5.2519271043
 20
4.0315107897
 10
5.2108675826
 20
4.0304928915
 10
5.1748015234
 20
4.0294772389
 10
5.1439046834
 20
4.02845616
 10
5.1186679298
 20
4.0274314118
 10
5.0995490978
 20
4.0264090387
 10
5.0867546109
 20
4.0253915067
 10
5.0803139282
 20
4.0243690834
 10
5.0797717285
 20
4.0241457332
  0
LWPOLYLINE
  5
59B
100
AcDbEntity
  8
0
100
AcDbPolyline
 62
7
  6
CONTINUOUS
 90
13
 70
0
 10
5.8074105637
 20
4.0524578985
 10
5.8627673915
 20
4.0534750512
 10
5.9153526056
 20
4.0544910782
 10
5.9646591502
 20
4.055508055
 10
6.010014707
 20
4.0565239718
 10
6.0509884696
 20
4.0575410837
 10
6.0870139965
 20
4.0585572434
 10
6.117785793
 20
4.0595761228
 10
6.1427848717
 20
4.0605924885
 10
6.1617960668
 20
4.0616084848
 10
6.1746031526
 20
4.0626240142
 10
6.1810725776
 20
4.0636413183
 10
6.1816534279
 20
4.0638768931
  0
LINE
  5
59C
100
AcDbEntity
  8
0
100
AcDbLine
 62
7
  6
CONTINUOUS
 10
5.7490686833
 20
3.9923696029
 11
5.8354435002
 21
3.9939178466
  0
LINE
  5
59D
100
AcDbEntity
  8
0
100
AcDbLine
 62
7
  6
CONTINUOUS
 10
5.8065113071
 20
3.982627954
 11
5.6902381527
 21
3.9805939063
  0
LINE
  5
59E
100
AcDbEntity
  8
0
100
AcDbLine
 62
7
  6
CONTINUOUS
 10
5.4548788095
 20
3.9872838057
 11
5.5712034747
 21
3.9893187663
  0
LINE
  5
59F
100
AcDbEntity
  8
0
100
AcDbLine
 62
7
  6
CONTINUOUS
 10
5.8064958613
 20
4.0416827942
 11
5.6902327379
 21
4.0396489315
  0
LINE
  5
5A0
100
AcDbEntity
  8
0
100
AcDbLine
 62
7
  6
CONTINUOUS
 10
5.4542817562
 20
4.0463281793
 11
5.5710740009
 21
4.0483716636
  0
LWPOLYLINE
  5
5A1
100
AcDbEntity
  8
0
100
AcDbPolyline
 62
7
  6
CONTINUOUS
 90
3
 70
0
 10
5.6902381527
 20
3.9805939063
 10
5.5711446388
 20
3.9785591148
 10
5.4540082933
 20
3.9765094963
  0
LINE
  5
5A2
100
AcDbEntity
  8
0
100
AcDbLine
 62
7
  6
CONTINUOUS
 10
5.5712034747
 20
3.9893187663
 11
5.7490686833
 21
3.9923696029
  0
LWPOLYLINE
  5
5A3
100
AcDbEntity
  8
0
100
AcDbPolyline
 62
7
  6
CONTINUOUS
 90
3
 70
0
 10
5.6902327379
 20
4.0396489315
 10
5.5712034747
 20
4.0376152421
 10
5.4548788095
 20
4.0355802815
  0
LWPOLYLINE
  5
5A4
100
AcDbEntity
  8
0
100
AcDbPolyline
 62
7
  6
CONTINUOUS
 90
3
 70
0
 10
5.5710740009
 20
4.0483716636
 10
5.6903666431
 20
4.0504098707
 10
5.8074105637
 20
4.0524578985
  0
LWPOLYLINE
  5
5A5
100
AcDbEntity
  8
0
100
AcDbPolyline
 62
7
  6
CONTINUOUS
 90
13
 70
0
 10
5.8001507078
 20
4.0726019581
 10
5.8602979182
 20
4.0736274549
 10
5.9177147269
 20
4.0746529517
 10
5.9717182899
 20
4.0756784485
 10
6.0216663563
 20
4.0767039453
 10
6.0669649059
 20
4.0777294421
 10
6.1070752143
 20
4.078754939
 10
6.1415202596
 20
4.0797804358
 10
6.1698903953
 20
4.0808059326
 10
6.1918482224
 20
4.0818314294
 10
6.2071326019
 20
4.0828569262
 10
6.2155617605
 20
4.083882423
 10
6.2171009934
 20
4.0843509403
  0
LWPOLYLINE
  5
5A6
100
AcDbEntity
  8
0
100
AcDbPolyline
 62
7
  6
CONTINUOUS
 90
13
 70
0
 10
5.8001507078
 20
4.0799838478
 10
5.8602979182
 20
4.0810093447
 10
5.9177147269
 20
4.0820348415
 10
5.9717182899
 20
4.0830603383
 10
6.0216663563
 20
4.0840858351
 10
6.0669649059
 20
4.0851113319
 10
6.1070752143
 20
4.0861368287
 10
6.1415202596
 20
4.0871623255
 10
6.1698903953
 20
4.0881878223
 10
6.1918482224
 20
4.0892133192
 10
6.2071326019
 20
4.090238816
 10
6.2155617605
 20
4.0912643128
 10
6.2173267514
 20
4.0919935966
  0
LWPOLYLINE
  5
5A7
100
AcDbEntity
  8
0
100
AcDbPolyline
 62
7
  6
CONTINUOUS
 90
13
 70
0
 10
5.7746700841
 20
4.0131231429
 10
5.8357381352
 20
4.0141486397
 10
5.894367868
 20
4.0151741366
 10
5.9498620135
 20
4.0161996334
 10
6.0015605937
 20
4.0172251302
 10
6.04884877
 20
4.018250627
 10
6.0911641559
 20
4.0192761238
 10
6.1280035049
 20
4.0203016206
 10
6.1589286957
 20
4.0213271174
 10
6.1835719427
 20
4.0223526142
 10
6.2016401699
 20
4.0233781111
 10
6.2129184962
 20
4.0244036079
 10
6.2171009934
 20
4.0252958222
  0
LWPOLYLINE
  5
5A8
100
AcDbEntity
  8
0
100
AcDbPolyline
 62
7
  6
CONTINUOUS
 90
14
 70
0
 10
5.7746700841
 20
4.0205050327
 10
5.8357381352
 20
4.0215305295
 10
5.894367868
 20
4.0225560263
 10
5.9498620135
 20
4.0235815231
 10
6.0015605937
 20
4.0246070199
 10
6.04884877
 20
4.0256325168
 10
6.0911641559
 20
4.0266580136
 10
6.1280035049
 20
4.0276835104
 10
6.1589286957
 20
4.0287090072
 10
6.1835719427
 20
4.029734504
 10
6.2016401699
 20
4.0307600008
 10
6.2129184962
 20
4.0317854976
 10
6.2172727914
 20
4.0328109944
 10
6.2173267514
 20
4.0329384785
  0
LINE
  5
5A9
100
AcDbEntity
  8
0
100
AcDbLine
 62
7
  6
CONTINUOUS
 10
5.4586997253
 20
4.0079956589
 11
5.7746700841
 21
4.0131231429
  0
LINE
  5
5AA
100
AcDbEntity
  8
0
100
AcDbLine
 62
7
  6
CONTINUOUS
 10
5.4586997253
 20
4.0153775486
 11
5.7746700841
 21
4.0205050327
  0
LINE
  5
5AB
100
AcDbEntity
  8
0
100
AcDbLine
 62
7
  6
CONTINUOUS
 10
5.6745503103
 20
4.0705509644
 11
5.8001507078
 21
4.0726019581
  0
LINE
  5
5AC
100
AcDbEntity
  8
0
100
AcDbLine
 62
7
  6
CONTINUOUS
 10
5.4841476686
 20
4.067474474
 11
5.6745503103
 21
4.0705509644
  0
LINE
  5
5AD
100
AcDbEntity
  8
0
100
AcDbLine
 62
7
  6
CONTINUOUS
 10
5.6745503103
 20
4.0779328542
 11
5.8001507078
 21
4.0799838478
  0
LINE
  5
5AE
100
AcDbEntity
  8
0
100
AcDbLine
 62
7
  6
CONTINUOUS
 10
5.4841476686
 20
4.0748563638
 11
5.6745503103
 21
4.0779328542
  0
LINE
  5
5AF
100
AcDbEntity
  8
0
100
AcDbLine
 62
7
  6
CONTINUOUS
 10
5.044324163
 20
4.2910438537
 11
5.0794713819
 21
4.2707432859
  0
LINE
  5
5B0
100
AcDbEntity
  8
0
100
AcDbLine
 62
7
  6
CONTINUOUS
 10
5.044324163
 20
4.3500989718
 11
5.0794713819
 21
4.329798404
  0
LINE
  5
5B1
100
AcDbEntity
  8
0
100
AcDbLine
 62
7
  6
CONTINUOUS
 10
5.044324163
 20
4.468209208
 11
5.044098405
 21
4.4684699746
  0
LINE
  5
5B2
100
AcDbEntity
  8
0
100
AcDbLine
 62
7
  6
CONTINUOUS
 10
5.044324163
 20
4.5272643261
 11
5.044098405
 21
4.5275250927
  0
LINE
  5
5B3
100
AcDbEntity
  8
0
100
AcDbLine
 62
7
  6
CONTINUOUS
 10
5.044324163
 20
4.5863194442
 11
5.044098405
 21
4.5865802108
  0
LINE
  5
5B4
100
AcDbEntity
  8
0
100
AcDbLine
 62
7
  6
CONTINUOUS
 10
5.8644119823
 20
3.3035586156
 11
5.8645708459
 21
3.3033276422
  0
LINE
  5
5B5
100
AcDbEntity
  8
0
100
AcDbLine
 62
7
  6
CONTINUOUS
 10
5.8644119823
 20
3.3429286943
 11
5.8645708459
 21
3.3426977209
  0
LINE
  5
5B6
100
AcDbEntity
  8
0
100
AcDbLine
 62
7
  6
CONTINUOUS
 10
5.8644119823
 20
3.382298773
 11
5.8645708459
 21
3.3820677997
  0
LINE
  5
5B7
100
AcDbEntity
  8
0
100
AcDbLine
 62
7
  6
CONTINUOUS
 10
5.8644119823
 20
3.4216688518
 11
5.8645708459
 21
3.4214378784
  0
LINE
  5
5B8
100
AcDbEntity
  8
0
100
AcDbLine
 62
7
  6
CONTINUOUS
 10
5.077158462
 20
4.7754508681
 11
5.0892193247
 21
4.7423040202
  0
LINE
  5
5B9
100
AcDbEntity
  8
0
100
AcDbLine
 62
7
  6
CONTINUOUS
 10
5.3968543105
 20
3.5671071698
 11
5.3968543105
 21
3.4391544139
  0
LINE
  5
5BA
100
AcDbEntity
  8
0
100
AcDbLine
 62
7
  6
CONTINUOUS
 10
5.3968543105
 20
3.4017528391
 11
5.3968543105
 21
3.3997843351
  0
LINE
  5
5BB
100
AcDbEntity
  8
0
100
AcDbLine
 62
7
  6
CONTINUOUS
 10
5.3968543105
 20
3.3623827603
 11
5.3968543105
 21
3.3604142564
  0
LINE
  5
5BC
100
AcDbEntity
  8
0
100
AcDbLine
 62
7
  6
CONTINUOUS
 10
5.3968543105
 20
3.3230126816
 11
5.3968543105
 21
3.3210441776
  0
LINE
  5
5BD
100
AcDbEntity
  8
0
100
AcDbLine
 62
7
  6
CONTINUOUS
 10
5.3968543105
 20
3.2836426028
 11
5.3968543105
 21
3.2816740989
  0
LINE
  5
5BE
100
AcDbEntity
  8
0
100
AcDbLine
 62
7
  6
CONTINUOUS
 10
5.3968543105
 20
3.2442725241
 11
5.3968543105
 21
3.2423040202
  0
LINE
  5
5BF
100
AcDbEntity
  8
0
100
AcDbLine
 62
7
  6
CONTINUOUS
 10
5.3968543105
 20
3.2049024454
 11
5.3968543105
 21
3.2029339414
  0
LINE
  5
5C0
100
AcDbEntity
  8
0
100
AcDbLine
 62
7
  6
CONTINUOUS
 10
5.3968543105
 20
3.1655323666
 11
5.3968543105
 21
3.1635638627
  0
LINE
  5
5C1
100
AcDbEntity
  8
0
100
AcDbLine
 62
7
  6
CONTINUOUS
 10
5.3968543105
 20
3.1261622879
 11
5.3968543105
 21
3.1241937839
  0
LINE
  5
5C2
100
AcDbEntity
  8
0
100
AcDbLine
 62
7
  6
CONTINUOUS
 10
5.044098405
 20
4.2396313919
 11
5.044324163
 21
4.2398921585
  0
LINE
  5
5C3
100
AcDbEntity
  8
0
100
AcDbLine
 62
7
  6
CONTINUOUS
 10
5.044098405
 20
4.1805762738
 11
5.044324163
 21
4.1808370404
  0
LINE
  5
5C4
100
AcDbEntity
  8
0
100
AcDbLine
 62
7
  6
CONTINUOUS
 10
5.044098405
 20
4.1215211557
 11
5.044324163
 21
4.1217819223
  0
LWPOLYLINE
  5
5C5
100
AcDbEntity
  8
0
100
AcDbPolyline
 62
7
  6
CONTINUOUS
 90
13
 70
0
 10
5.044098405
 20
4.2322495021
 10
5.0444598497
 20
4.2325794609
 10
5.0501879516
 20
4.2336049577
 10
5.0628200894
 20
4.2346304545
 10
5.0822060323
 20
4.2356559513
 10
5.108115228
 20
4.2366814481
 10
5.140239545
 20
4.237706945
 10
5.1781969366
 20
4.2387324418
 10
5.2215359849
 20
4.2397579386
 10
5.2697412694
 20
4.2407834354
 10
5.3222394965
 20
4.2418089322
 10
5.3784063178
 20
4.242834429
 10
5.4375737551
 20
4.2438599258
  0
LWPOLYLINE
  5
5C6
100
AcDbEntity
  8
0
100
AcDbPolyline
 62
7
  6
CONTINUOUS
 90
13
 70
0
 10
5.0795314759
 20
4.4480126805
 10
5.0803355641
 20
4.4485204319
 10
5.0867701206
 20
4.449537614
 10
5.0995433648
 20
4.4505531418
 10
5.1185464726
 20
4.4515702804
 10
5.1434991576
 20
4.4525858622
 10
5.1741836941
 20
4.4536029334
 10
5.2101510916
 20
4.4546184809
 10
5.2510129155
 20
4.4556337763
 10
5.2965523897
 20
4.4566544609
 10
5.3460973643
 20
4.4576765114
 10
5.3987594248
 20
4.4586939553
 10
5.4542630975
 20
4.4597136702
  0
LWPOLYLINE
  5
5C7
100
AcDbEntity
  8
0
100
AcDbPolyline
 62
7
  6
CONTINUOUS
 90
13
 70
0
 10
5.079531476
 20
4.3889577527
 10
5.0803741747
 20
4.3894773644
 10
5.0869120499
 20
4.3904974063
 10
5.0997804962
 20
4.3915131238
 10
5.1188943464
 20
4.3925311806
 10
5.143963782
 20
4.3935476594
 10
5.1747708526
 20
4.3945656592
 10
5.2108679859
 20
4.3955822531
 10
5.2519592401
 20
4.3966008951
 10
5.2974690055
 20
4.3976189815
 10
5.3468097577
 20
4.3986355723
 10
5.3994617788
 20
4.3996520357
 10
5.4548802059
 20
4.4006696576
  0
LINE
  5
5C8
100
AcDbEntity
  8
0
100
AcDbLine
 62
7
  6
CONTINUOUS
 10
5.0797717285
 20
4.496586678
 11
5.044324163
 21
4.4761126309
  0
LINE
  5
5C9
100
AcDbEntity
  8
0
100
AcDbLine
 62
7
  6
CONTINUOUS
 10
5.0797717285
 20
4.4375315599
 11
5.044324163
 21
4.4170575128
  0
LINE
  5
5CA
100
AcDbEntity
  8
0
100
AcDbLine
 62
7
  6
CONTINUOUS
 10
5.0797717285
 20
4.3784764418
 11
5.044324163
 21
4.3580023947
  0
LWPOLYLINE
  5
5CB
100
AcDbEntity
  8
0
100
AcDbPolyline
 62
7
  6
CONTINUOUS
 90
13
 70
0
 10
5.044098405
 20
4.4094148565
 10
5.0451979227
 20
4.4099904095
 10
5.0525887729
 20
4.4110159063
 10
5.0668551067
 20
4.4120414031
 10
5.0878272581
 20
4.4130669
 10
5.1152558105
 20
4.4140923968
 10
5.148814563
 20
4.4151178936
 10
5.1881044095
 20
4.4161433904
 10
5.2326580856
 20
4.4171688872
 10
5.2819457255
 20
4.418194384
 10
5.3353811635
 20
4.4192198808
 10
5.392328905
 20
4.4202453776
 10
5.4521116846
 20
4.4212708745
  0
LWPOLYLINE
  5
5CC
100
AcDbEntity
  8
0
100
AcDbPolyline
 62
7
  6
CONTINUOUS
 90
13
 70
0
 10
5.044324163
 20
4.535167749
 10
5.0446228116
 20
4.5353044328
 10
5.0508082898
 20
4.5363299296
 10
5.0638904263
 20
4.5373554264
 10
5.0837136387
 20
4.5383809232
 10
5.1100421744
 20
4.53940642
 10
5.1425629146
 20
4.5404319168
 10
5.1808890982
 20
4.5414574136
 10
5.2245649213
 20
4.5424829105
 10
5.2730709581
 20
4.5435084073
 10
5.3258303384
 20
4.5445339041
 10
5.3822156079
 20
4.5455594009
 10
5.4415561905
 20
4.5465848977
  0
LWPOLYLINE
  5
5CD
100
AcDbEntity
  8
0
100
AcDbPolyline
 62
7
  6
CONTINUOUS
 90
13
 70
0
 10
5.044324163
 20
4.5942228671
 10
5.0461641851
 20
4.5947511169
 10
5.0549863245
 20
4.5957757898
 10
5.0706444478
 20
4.5968004627
 10
5.0929526355
 20
4.5978251357
 10
5.1216460077
 20
4.5988498086
 10
5.1563838686
 20
4.5998744816
 10
5.1967537523
 20
4.6008991545
 10
5.2422763202
 20
4.6019238274
 10
5.2924110522
 20
4.6029485004
 10
5.3465626652
 20
4.6039731733
 10
5.4040881805
 20
4.6049978463
 10
5.4643045593
 20
4.6060225192
  0
LWPOLYLINE
  5
5CE
100
AcDbEntity
  8
0
100
AcDbPolyline
 62
7
  6
CONTINUOUS
 90
13
 70
0
 10
5.044324163
 20
4.0627268042
 10
5.0481834787
 20
4.0635758988
 10
5.059172796
 20
4.0646013956
 10
5.0769592948
 20
4.0656268925
 10
5.1013314446
 20
4.0666523893
 10
5.1319993934
 20
4.0676778861
 10
5.168598415
 20
4.0687033829
 10
5.2106932462
 20
4.0697288797
 10
5.2577832635
 20
4.0707543765
 10
5.3093084371
 20
4.0717798733
 10
5.3646559907
 20
4.0728053701
 10
5.4231676896
 20
4.073830867
 10
5.4841476686
 20
4.0748563638
  0
LWPOLYLINE
  5
5CF
100
AcDbEntity
  8
0
100
AcDbPolyline
 62
7
  6
CONTINUOUS
 90
4
 70
0
 10
5.0998355729
 20
4.1445375038
 10
5.0869293509
 20
4.1435200993
 10
5.0803817621
 20
4.142500585
 10
5.0797717285
 20
4.1422559694
  0
LWPOLYLINE
  5
5D0
100
AcDbEntity
  8
0
100
AcDbPolyline
 62
7
  6
CONTINUOUS
 90
10
 70
0
 10
5.0998355729
 20
4.096241028
 10
5.1189566955
 20
4.0972584538
 10
5.1442099015
 20
4.098281006
 10
5.1751844113
 20
4.099302607
 10
5.2113043045
 20
4.1003181378
 10
5.2524315486
 20
4.1013363843
 10
5.2980969633
 20
4.1023568272
 10
5.347487009
 20
4.1033734495
 10
5.3999943935
 20
4.1043864482
 10
5.4552966325
 20
4.1054015585
  0
LWPOLYLINE
  5
5D1
100
AcDbEntity
  8
0
100
AcDbPolyline
 62
7
  6
CONTINUOUS
 90
10
 70
0
 10
5.0657077654
 20
4.116698321
 10
5.0862453933
 20
4.1177238178
 10
5.1132582349
 20
4.1187493147
 10
5.1464250332
 20
4.1197748115
 10
5.1853513437
 20
4.1208003083
 10
5.2295742253
 20
4.1218258051
 10
5.2785677462
 20
4.1228513019
 10
5.3317492387
 20
4.1238767987
 10
5.3884862283
 20
4.1249022955
 10
5.4481039561
 20
4.1259277923
  0
LWPOLYLINE
  5
5D2
100
AcDbEntity
  8
0
100
AcDbPolyline
 62
7
  6
CONTINUOUS
 90
10
 70
0
 10
5.0657077654
 20
4.1240802108
 10
5.0862453933
 20
4.1251057076
 10
5.1132582349
 20
4.1261312044
 10
5.1464250332
 20
4.1271567012
 10
5.1853513437
 20
4.128182198
 10
5.2295742253
 20
4.1292076949
 10
5.2785677462
 20
4.1302331917
 10
5.3317492387
 20
4.1312586885
 10
5.3884862283
 20
4.1322841853
 10
5.4481039561
 20
4.1333096821
  0
LWPOLYLINE
  5
5D3
100
AcDbEntity
  8
0
100
AcDbPolyline
 62
7
  6
CONTINUOUS
 90
13
 70
0
 10
5.4542817562
 20
4.0946246551
 10
5.3990032848
 20
4.0936091878
 10
5.3463748422
 20
4.0925926846
 10
5.2970253672
 20
4.0915752474
 10
5.2516282232
 20
4.0905588895
 10
5.2106136587
 20
4.0895413238
 10
5.1745617752
 20
4.0885250781
 10
5.143797458
 20
4.0875073778
 10
5.1187702141
 20
4.0864912398
 10
5.0996963809
 20
4.0854735446
 10
5.0868573653
 20
4.0844574455
 10
5.0803630581
 20
4.0834396908
 10
5.0797717285
 20
4.0832008513
  0
LWPOLYLINE
  5
5D4
100
AcDbEntity
  8
0
100
AcDbPolyline
 62
7
  6
CONTINUOUS
 90
13
 70
0
 10
5.8065444478
 20
4.1114974288
 10
5.861956497
 20
4.1125149305
 10
5.9146252156
 20
4.1135317184
 10
5.9640193213
 20
4.1145494664
 10
6.0094618108
 20
4.115566104
 10
6.0505239666
 20
4.1165839685
 10
6.0865933899
 20
4.1175995879
 10
6.1174111561
 20
4.1186176112
 10
6.1426253055
 20
4.1196402592
 10
6.1617653624
 20
4.1206616468
 10
6.1746039218
 20
4.1216792132
 10
6.1810925455
 20
4.1227027152
 10
6.1816534279
 20
4.1229320113
  0
LWPOLYLINE
  5
5D5
100
AcDbEntity
  8
0
100
AcDbPolyline
 62
7
  6
CONTINUOUS
 90
10
 70
0
 10
5.4552966325
 20
4.1536980343
 10
5.3999943935
 20
4.152682924
 10
5.347487009
 20
4.1516699252
 10
5.2980969633
 20
4.1506533029
 10
5.2524315486
 20
4.1496328601
 10
5.2113043045
 20
4.1486146135
 10
5.1751844113
 20
4.1475990827
 10
5.1442099015
 20
4.1465774817
 10
5.1189566955
 20
4.1455549296
 10
5.0998355729
 20
4.1445375038
  0
LWPOLYLINE
  5
5D6
100
AcDbEntity
  8
0
100
AcDbPolyline
 62
7
  6
CONTINUOUS
 90
13
 70
0
 10
5.8070450085
 20
4.1705615546
 10
5.8625431168
 20
4.1715810716
 10
5.9152172806
 20
4.1725986199
 10
5.964791428
 20
4.1736211268
 10
6.0103728983
 20
4.1746426299
 10
6.0512562499
 20
4.1756583808
 10
6.0872248542
 20
4.1766738929
 10
6.117911776
 20
4.1776909508
 10
6.1428671131
 20
4.1787065173
 10
6.1618732213
 20
4.1797236426
 10
6.1746502529
 20
4.1807392129
 10
6.1810891144
 20
4.1817567489
 10
6.1816534279
 20
4.1819871294
  0
LINE
  5
5D7
100
AcDbEntity
  8
0
100
AcDbLine
 62
7
  6
CONTINUOUS
 10
5.8074105637
 20
4.1007543743
 11
5.6903666431
 21
4.0987063465
  0
LINE
  5
5D8
100
AcDbEntity
  8
0
100
AcDbLine
 62
7
  6
CONTINUOUS
 10
5.4552966325
 20
4.1054015585
 11
5.5713208178
 21
4.1074310153
  0
LWPOLYLINE
  5
5D9
100
AcDbEntity
  8
0
100
AcDbPolyline
 62
7
  6
CONTINUOUS
 90
12
 70
0
 10
5.8252870663
 20
4.1320807732
 10
5.8843912286
 20
4.13310627
 10
5.9404784535
 20
4.1341317668
 10
5.9928817093
 20
4.1351572637
 10
6.0409777771
 20
4.1361827605
 10
6.0841946623
 20
4.1372082573
 10
6.122018397
 20
4.1382337541
 10
6.153999153
 20
4.1392592509
 10
6.179756591
 20
4.1402847477
 10
6.1989843841
 20
4.1413102445
 10
6.2114538611
 20
4.1423357414
 10
6.2171009934
 20
4.1434060584
  0
LWPOLYLINE
  5
5DA
100
AcDbEntity
  8
0
100
AcDbPolyline
 62
7
  6
CONTINUOUS
 90
13
 70
0
 10
5.8252870663
 20
4.139462663
 10
5.8843912286
 20
4.1404881598
 10
5.9404784535
 20
4.1415136566
 10
5.9928817093
 20
4.1425391534
 10
6.0409777771
 20
4.1435646502
 10
6.0841946623
 20
4.1445901471
 10
6.122018397
 20
4.1456156439
 10
6.153999153
 20
4.1466411407
 10
6.179756591
 20
4.1476666375
 10
6.1989843841
 20
4.1486921343
 10
6.2114538611
 20
4.1497176311
 10
6.2170167254
 20
4.1507431279
 10
6.2173267514
 20
4.1510487147
  0
LINE
  5
5DB
100
AcDbEntity
  8
0
100
AcDbLine
 62
7
  6
CONTINUOUS
 10
5.8065444478
 20
4.1597939046
 11
5.6902521994
 21
4.1577595016
  0
LINE
  5
5DC
100
AcDbEntity
  8
0
100
AcDbLine
 62
7
  6
CONTINUOUS
 10
5.4549208385
 20
4.1644499162
 11
5.5711894176
 21
4.1664838795
  0
LWPOLYLINE
  5
5DD
100
AcDbEntity
  8
0
100
AcDbPolyline
 62
7
  6
CONTINUOUS
 90
3
 70
0
 10
5.6903666431
 20
4.0987063465
 10
5.5710740009
 20
4.0966681394
 10
5.4542817562
 20
4.0946246551
  0
LWPOLYLINE
  5
5DE
100
AcDbEntity
  8
0
100
AcDbPolyline
 62
7
  6
CONTINUOUS
 90
3
 70
0
 10
5.5713208178
 20
4.1074310153
 10
5.6902521994
 20
4.1094630258
 10
5.8065444478
 20
4.1114974288
  0
LWPOLYLINE
  5
5DF
100
AcDbEntity
  8
0
100
AcDbPolyline
 62
7
  6
CONTINUOUS
 90
3
 70
0
 10
5.6902521994
 20
4.1577595016
 10
5.5713208178
 20
4.155727491
 10
5.4552966325
 20
4.1536980343
  0
LWPOLYLINE
  5
5E0
100
AcDbEntity
  8
0
100
AcDbPolyline
 62
7
  6
CONTINUOUS
 90
3
 70
0
 10
5.5711894176
 20
4.1664838795
 10
5.6901494868
 20
4.1685163821
 10
5.8070450085
 20
4.1705615546
  0
LWPOLYLINE
  5
5E1
100
AcDbEntity
  8
0
100
AcDbPolyline
 62
7
  6
CONTINUOUS
 90
13
 70
0
 10
5.789478796
 20
4.1905340916
 10
5.8500280874
 20
4.1915595884
 10
5.9079691136
 20
4.1925850852
 10
5.9626127963
 20
4.193610582
 10
6.0133092718
 20
4.1946360788
 10
6.0594556192
 20
4.1956615756
 10
6.1005030316
 20
4.1966870724
 10
6.1359633421
 20
4.1977125692
 10
6.1654148302
 20
4.1987380661
 10
6.1885072364
 20
4.1997635629
 10
6.2049659285
 20
4.2007890597
 10
6.2145951674
 20
4.2018145565
 10
6.2171009934
 20
4.2024611765
  0
LWPOLYLINE
  5
5E2
100
AcDbEntity
  8
0
100
AcDbPolyline
 62
7
  6
CONTINUOUS
 90
13
 70
0
 10
5.789478796
 20
4.1979159813
 10
5.8500280874
 20
4.1989414781
 10
5.9079691136
 20
4.1999669749
 10
5.9626127963
 20
4.2009924718
 10
6.0133092718
 20
4.2020179686
 10
6.0594556192
 20
4.2030434654
 10
6.1005030316
 20
4.2040689622
 10
6.1359633421
 20
4.205094459
 10
6.1654148302
 20
4.2061199558
 10
6.1885072364
 20
4.2071454526
 10
6.2049659285
 20
4.2081709495
 10
6.2145951674
 20
4.2091964463
 10
6.2173267514
 20
4.2101038328
  0
LINE
  5
5E3
100
AcDbEntity
  8
0
100
AcDbLine
 62
7
  6
CONTINUOUS
 10
5.7008670939
 20
4.1300297796
 11
5.8252870663
 21
4.1320807732
  0
LWPOLYLINE
  5
5E4
100
AcDbEntity
  8
0
100
AcDbPolyline
 62
7
  6
CONTINUOUS
 90
3
 70
0
 10
5.4481039561
 20
4.1259277923
 10
5.5731197226
 20
4.127978786
 10
5.7008670939
 20
4.1300297796
  0
LINE
  5
5E5
100
AcDbEntity
  8
0
100
AcDbLine
 62
7
  6
CONTINUOUS
 10
5.7008670939
 20
4.1374116694
 11
5.8252870663
 21
4.139462663
  0
LWPOLYLINE
  5
5E6
100
AcDbEntity
  8
0
100
AcDbPolyline
 62
7
  6
CONTINUOUS
 90
3
 70
0
 10
5.4481039561
 20
4.1333096821
 10
5.5731197226
 20
4.1353606757
 10
5.7008670939
 20
4.1374116694
  0
LINE
  5
5E7
100
AcDbEntity
  8
0
100
AcDbLine
 62
7
  6
CONTINUOUS
 10
5.4734112476
 20
4.1854066075
 11
5.789478796
 21
4.1905340916
  0
LINE
  5
5E8
100
AcDbEntity
  8
0
100
AcDbLine
 62
7
  6
CONTINUOUS
 10
5.4734112476
 20
4.1927884973
 11
5.789478796
 21
4.1979159813
  0
LINE
  5
5E9
100
AcDbEntity
  8
0
100
AcDbLine
 62
7
  6
CONTINUOUS
 10
5.044324163
 20
4.4091540899
 11
5.0794713819
 21
4.3888535221
  0
LINE
  5
5EA
100
AcDbEntity
  8
0
100
AcDbLine
 62
7
  6
CONTINUOUS
 10
6.2171009934
 20
3.7379236545
 11
6.1819537746
 21
3.7582242223
  0
LINE
  5
5EB
100
AcDbEntity
  8
0
100
AcDbLine
 62
7
  6
CONTINUOUS
 10
5.044324163
 20
4.468209208
 11
5.0794713819
 21
4.4479086402
  0
LINE
  5
5EC
100
AcDbEntity
  8
0
100
AcDbLine
 62
7
  6
CONTINUOUS
 10
6.2171009934
 20
3.7969787727
 11
6.1819537746
 21
3.8172793404
  0
LINE
  5
5ED
100
AcDbEntity
  8
0
100
AcDbLine
 62
7
  6
CONTINUOUS
 10
5.044324163
 20
4.6453745623
 11
5.044098405
 21
4.6456353289
  0
LINE
  5
5EE
100
AcDbEntity
  8
0
100
AcDbLine
 62
7
  6
CONTINUOUS
 10
5.4269724207
 20
3.0749811855
 11
5.4269724207
 21
3.0356111068
  0
LINE
  5
5EF
100
AcDbEntity
  8
0
100
AcDbLine
 62
7
  6
CONTINUOUS
 10
5.044098405
 20
4.0624660376
 11
5.044324163
 21
4.0627268042
  0
LINE
  5
5F0
100
AcDbEntity
  8
0
100
AcDbLine
 62
7
  6
CONTINUOUS
 10
5.044098405
 20
4.0034109195
 11
5.044324163
 21
4.003671686
  0
LINE
  5
5F1
100
AcDbEntity
  8
0
100
AcDbLine
 62
7
  6
CONTINUOUS
 10
5.044098405
 20
3.9443558013
 11
5.044324163
 21
3.9446165679
  0
LWPOLYLINE
  5
5F2
100
AcDbEntity
  8
0
100
AcDbPolyline
 62
7
  6
CONTINUOUS
 90
13
 70
0
 10
5.044098405
 20
3.9369739116
 10
5.044327117
 20
3.9372363788
 10
5.0495975472
 20
3.9382618756
 10
5.0617790349
 20
3.9392873724
 10
5.0807267086
 20
3.9403128692
 10
5.1062152285
 20
3.941338366
 10
5.1379414658
 20
3.9423638628
 10
5.1755281082
 20
3.9433893597
 10
5.2185281471
 20
3.9444148565
 10
5.2664301936
 20
3.9454403533
 10
5.3186645605
 20
3.9464658501
 10
5.3746100375
 20
3.9474913469
 10
5.4336012786
 20
3.9485168437
  0
LWPOLYLINE
  5
5F3
100
AcDbEntity
  8
0
100
AcDbPolyline
 62
7
  6
CONTINUOUS
 90
13
 70
0
 10
5.0795314761
 20
4.2117919528
 10
5.0802911591
 20
4.212285737
 10
5.0866627221
 20
4.213305762
 10
5.0993815924
 20
4.2143223175
 10
5.1183368357
 20
4.2153401218
 10
5.1432524222
 20
4.2163563835
 10
5.1739096603
 20
4.2173741158
 10
5.2098597186
 20
4.2183903179
 10
5.2509195042
 20
4.2194111061
 10
5.2967042484
 20
4.2204372442
 10
5.3464349408
 20
4.2214627594
 10
5.3991927946
 20
4.2224816277
 10
5.4546877497
 20
4.2235008403
  0
LWPOLYLINE
  5
5F4
100
AcDbEntity
  8
0
100
AcDbPolyline
 62
7
  6
CONTINUOUS
 90
13
 70
0
 10
5.0795314759
 20
4.3299024426
 10
5.0803139685
 20
4.3304033292
 10
5.0867085594
 20
4.3314208653
 10
5.0994432209
 20
4.3324365022
 10
5.1183718092
 20
4.3334519757
 10
5.1433987036
 20
4.3344719612
 10
5.1741978663
 20
4.3354931284
 10
5.210224161
 20
4.3365101721
 10
5.25136591
 20
4.3375318406
 10
5.2971850941
 20
4.3385577839
 10
5.3468882568
 20
4.3395820158
 10
5.3995775644
 20
4.3405990926
 10
5.4549716902
 20
4.3416161855
  0
LWPOLYLINE
  5
5F5
100
AcDbEntity
  8
0
100
AcDbPolyline
 62
7
  6
CONTINUOUS
 90
13
 70
0
 10
5.0795314759
 20
4.2708473318
 10
5.0803748016
 20
4.2713673215
 10
5.0868929985
 20
4.2723851769
 10
5.0997595895
 20
4.2734015598
 10
5.1189003222
 20
4.274421219
 10
5.1440474191
 20
4.275440462
 10
5.17480325
 20
4.2764564061
 10
5.2108759478
 20
4.2774722264
 10
5.251926823
 20
4.2784898979
 10
5.2973568444
 20
4.2795063439
 10
5.3467373226
 20
4.280523895
 10
5.3993921243
 20
4.2815404909
 10
5.4547307113
 20
4.2825567315
  0
LINE
  5
5F6
100
AcDbEntity
  8
0
100
AcDbLine
 62
7
  6
CONTINUOUS
 10
5.0797717285
 20
4.3194213237
 11
5.044324163
 21
4.2989472766
  0
LINE
  5
5F7
100
AcDbEntity
  8
0
100
AcDbLine
 62
7
  6
CONTINUOUS
 10
5.0797717285
 20
4.2603662056
 11
5.044324163
 21
4.2398921585
  0
LINE
  5
5F8
100
AcDbEntity
  8
0
100
AcDbLine
 62
7
  6
CONTINUOUS
 10
5.044324163
 20
4.4170575128
 11
5.0451979227
 21
4.4173722993
  0
LWPOLYLINE
  5
5F9
100
AcDbEntity
  8
0
100
AcDbPolyline
 62
7
  6
CONTINUOUS
 90
13
 70
0
 10
5.044098405
 20
4.4684699746
 10
5.0474105283
 20
4.4694692247
 10
5.0576574315
 20
4.4704947215
 10
5.0747195381
 20
4.4715202183
 10
5.0983939325
 20
4.4725457151
 10
5.1283990611
 20
4.4735712119
 10
5.1643780803
 20
4.4745967087
 10
5.2059031004
 20
4.4756222055
 10
5.2524802748
 20
4.4766477024
 10
5.3035556725
 20
4.4776731992
 10
5.3585218665
 20
4.478698696
 10
5.4167251574
 20
4.4797241928
 10
5.4774733478
 20
4.4807496896
  0
LWPOLYLINE
  5
5FA
100
AcDbEntity
  8
0
100
AcDbPolyline
 62
7
  6
CONTINUOUS
 90
13
 70
0
 10
5.044098405
 20
4.0550841478
 10
5.0481834787
 20
4.0561940091
 10
5.059172796
 20
4.0572195059
 10
5.0769592948
 20
4.0582450027
 10
5.1013314446
 20
4.0592704995
 10
5.1319993934
 20
4.0602959963
 10
5.168598415
 20
4.0613214931
 10
5.2106932462
 20
4.0623469899
 10
5.2577832635
 20
4.0633724868
 10
5.3093084371
 20
4.0643979836
 10
5.3646559907
 20
4.0654234804
 10
5.4231676896
 20
4.0664489772
 10
5.4841476686
 20
4.067474474
  0
LWPOLYLINE
  5
5FB
100
AcDbEntity
  8
0
100
AcDbPolyline
 62
7
  6
CONTINUOUS
 90
13
 70
0
 10
5.4549208385
 20
4.212746392
 10
5.3995129314
 20
4.2117289999
 10
5.3468317543
 20
4.2107120132
 10
5.2973789784
 20
4.2096930574
 10
5.2519556363
 20
4.2086768138
 10
5.2109335113
 20
4.2076599808
 10
5.1748381296
 20
4.2066437039
 10
5.1440265815
 20
4.2056259446
 10
5.1189493682
 20
4.2046097113
 10
5.0998241084
 20
4.2035918948
 10
5.0869381378
 20
4.2025761348
 10
5.080396518
 20
4.2015602154
 10
5.0797717285
 20
4.2013110875
  0
LWPOLYLINE
  5
5FC
100
AcDbEntity
  8
0
100
AcDbPolyline
 62
7
  6
CONTINUOUS
 90
13
 70
0
 10
5.8065469732
 20
4.2296077104
 10
5.8619661426
 20
4.2306253479
 10
5.9146252901
 20
4.2316419561
 10
5.9639844094
 20
4.2326589551
 10
6.0094657199
 20
4.233676432
 10
6.0505474625
 20
4.2346948231
 10
6.0866458884
 20
4.235711417
 10
6.1174547175
 20
4.2367294303
 10
6.1425258004
 20
4.2377459208
 10
6.1616412625
 20
4.2387639921
 10
6.1745114561
 20
4.2397797528
 10
6.1810470156
 20
4.2407987452
 10
6.1816534279
 20
4.2410422475
  0
LWPOLYLINE
  5
5FD
100
AcDbEntity
  8
0
100
AcDbPolyline
 62
7
  6
CONTINUOUS
 90
13
 70
0
 10
5.4546877497
 20
4.2717973161
 10
5.3991927946
 20
4.2707781034
 10
5.3464349408
 20
4.2697592352
 10
5.2967042484
 20
4.26873372
 10
5.2509195042
 20
4.2677075819
 10
5.2098597186
 20
4.2666867937
 10
5.1739096603
 20
4.2656705916
 10
5.1432524222
 20
4.2646528593
 10
5.1183368357
 20
4.2636365975
 10
5.0993815924
 20
4.2626187932
 10
5.0866627221
 20
4.2616022377
 10
5.0802911591
 20
4.2605822128
 10
5.0797717285
 20
4.2603662056
  0
LWPOLYLINE
  5
5FE
100
AcDbEntity
  8
0
100
AcDbPolyline
 62
7
  6
CONTINUOUS
 90
12
 70
0
 10
5.8100548326
 20
4.2887260154
 10
5.8664300439
 20
4.2897644984
 10
5.9199289729
 20
4.2908029497
 10
5.9702292397
 20
4.2918485051
 10
6.0163897934
 20
4.2928954307
 10
6.0575838791
 20
4.2939373353
 10
6.0934603725
 20
4.294976812
 10
6.123790878
 20
4.2960204183
 10
6.1480040751
 20
4.2970618246
 10
6.1658077806
 20
4.2980985831
 10
6.1771156512
 20
4.2991364201
 10
6.1816534279
 20
4.3000973656
  0
LINE
  5
5FF
100
AcDbEntity
  8
0
100
AcDbLine
 62
7
  6
CONTINUOUS
 10
5.8070450085
 20
4.2188580304
 11
5.6901494868
 21
4.2168128579
  0
LINE
  5
600
100
AcDbEntity
  8
0
100
AcDbLine
 62
7
  6
CONTINUOUS
 10
5.4546877497
 20
4.2235008403
 11
5.5712691135
 21
4.2255403646
  0
LINE
  5
601
100
AcDbEntity
  8
0
100
AcDbLine
 62
7
  6
CONTINUOUS
 10
5.8065469732
 20
4.2779041862
 11
5.6902506131
 21
4.2758697106
  0
LINE
  5
602
100
AcDbEntity
  8
0
100
AcDbLine
 62
7
  6
CONTINUOUS
 10
5.4547307113
 20
4.2825567315
 11
5.5711317256
 21
4.2845931262
  0
LWPOLYLINE
  5
603
100
AcDbEntity
  8
0
100
AcDbPolyline
 62
7
  6
CONTINUOUS
 90
3
 70
0
 10
5.6901494868
 20
4.2168128579
 10
5.5711894176
 20
4.2147803553
 10
5.4549208385
 20
4.212746392
  0
LWPOLYLINE
  5
604
100
AcDbEntity
  8
0
100
AcDbPolyline
 62
7
  6
CONTINUOUS
 90
3
 70
0
 10
5.5712691135
 20
4.2255403646
 10
5.6902506131
 20
4.2275732348
 10
5.8065469732
 20
4.2296077104
  0
LWPOLYLINE
  5
605
100
AcDbEntity
  8
0
100
AcDbPolyline
 62
7
  6
CONTINUOUS
 90
12
 70
0
 10
5.8147661325
 20
4.2500129067
 10
5.8743235022
 20
4.2510384035
 10
5.9309836674
 20
4.2520639003
 10
5.9840727828
 20
4.2530893971
 10
6.0329594724
 20
4.254114894
 10
6.0770623392
 20
4.2551403908
 10
6.1158568785
 20
4.2561658876
 10
6.1488817164
 20
4.2571913844
 10
6.1757440968
 20
4.2582168812
 10
6.196124552
 20
4.259242378
 10
6.2097807022
 20
4.2602678748
 10
6.2165501383
 20
4.2612933716
  0
LWPOLYLINE
  5
606
100
AcDbEntity
  8
0
100
AcDbPolyline
 62
7
  6
CONTINUOUS
 90
13
 70
0
 10
5.8147661325
 20
4.2573947965
 10
5.8743235022
 20
4.2584202933
 10
5.9309836674
 20
4.2594457901
 10
5.9840727828
 20
4.2604712869
 10
6.0329594724
 20
4.2614967837
 10
6.0770623392
 20
4.2625222805
 10
6.1158568785
 20
4.2635477773
 10
6.1488817164
 20
4.2645732742
 10
6.1757440968
 20
4.265598771
 10
6.196124552
 20
4.2666242678
 10
6.2097807022
 20
4.2676497646
 10
6.2165501383
 20
4.2686752614
 10
6.2173267514
 20
4.269158951
  0
LWPOLYLINE
  5
607
100
AcDbEntity
  8
0
100
AcDbPolyline
 62
7
  6
CONTINUOUS
 90
3
 70
0
 10
5.6902506131
 20
4.2758697106
 10
5.5712691135
 20
4.2738368404
 10
5.4546877497
 20
4.2717973161
  0
LWPOLYLINE
  5
608
100
AcDbEntity
  8
0
100
AcDbPolyline
 62
7
  6
CONTINUOUS
 90
3
 70
0
 10
5.5711317256
 20
4.2845931262
 10
5.6914782116
 20
4.2866494121
 10
5.8100548326
 20
4.2887260154
  0
LWPOLYLINE
  5
609
100
AcDbEntity
  8
0
100
AcDbPolyline
 62
7
  6
CONTINUOUS
 90
13
 70
0
 10
5.7787498768
 20
4.308466225
 10
5.8396795081
 20
4.3094917219
 10
5.8981239472
 20
4.3105172187
 10
5.9533881291
 20
4.3115427155
 10
6.0048148102
 20
4.3125682123
 10
6.051792386
 20
4.3135937091
 10
6.0937621636
 20
4.3146192059
 10
6.1302250069
 20
4.3156447027
 10
6.1607472722
 20
4.3166701995
 10
6.1849659659
 20
4.3176956964
 10
6.2025930609
 20
4.3187211932
 10
6.2134189226
 20
4.31974669
 10
6.2171009934
 20
4.3205714127
  0
LWPOLYLINE
  5
60A
100
AcDbEntity
  8
0
100
AcDbPolyline
 62
7
  6
CONTINUOUS
 90
13
 70
0
 10
5.7787498768
 20
4.3158481148
 10
5.8396795081
 20
4.3168736116
 10
5.8981239472
 20
4.3178991084
 10
5.9533881291
 20
4.3189246052
 10
6.0048148102
 20
4.3199501021
 10
6.051792386
 20
4.3209755989
 10
6.0937621636
 20
4.3220010957
 10
6.1302250069
 20
4.3230265925
 10
6.1607472722
 20
4.3240520893
 10
6.1849659659
 20
4.3250775861
 10
6.2025930609
 20
4.3261030829
 10
6.2134189226
 20
4.3271285797
 10
6.2173267514
 20
4.3282140691
  0
LINE
  5
60B
100
AcDbEntity
  8
0
100
AcDbLine
 62
7
  6
CONTINUOUS
 10
5.6898190157
 20
4.2479619131
 11
5.8147661325
 21
4.2500129067
  0
LWPOLYLINE
  5
60C
100
AcDbEntity
  8
0
100
AcDbPolyline
 62
7
  6
CONTINUOUS
 90
3
 70
0
 10
5.4375737551
 20
4.2438599258
 10
5.5620685059
 20
4.2459109195
 10
5.6898190157
 20
4.2479619131
  0
LINE
  5
60D
100
AcDbEntity
  8
0
100
AcDbLine
 62
7
  6
CONTINUOUS
 10
5.6898190157
 20
4.2553438028
 11
5.8147661325
 21
4.2573947965
  0
LWPOLYLINE
  5
60E
100
AcDbEntity
  8
0
100
AcDbPolyline
 62
7
  6
CONTINUOUS
 90
3
 70
0
 10
5.4375737551
 20
4.2512418156
 10
5.5620685059
 20
4.2532928092
 10
5.6898190157
 20
4.2553438028
  0
LINE
  5
60F
100
AcDbEntity
  8
0
100
AcDbLine
 62
7
  6
CONTINUOUS
 10
5.462731308
 20
4.303338741
 11
5.7787498768
 21
4.308466225
  0
LINE
  5
610
100
AcDbEntity
  8
0
100
AcDbLine
 62
7
  6
CONTINUOUS
 10
5.462731308
 20
4.3107206307
 11
5.7787498768
 21
4.3158481148
  0
LINE
  5
611
100
AcDbEntity
  8
0
100
AcDbLine
 62
7
  6
CONTINUOUS
 10
5.044324163
 20
4.5272643261
 11
5.0794713819
 21
4.5069637583
  0
LINE
  5
612
100
AcDbEntity
  8
0
100
AcDbLine
 62
7
  6
CONTINUOUS
 10
6.2171009934
 20
3.8560338908
 11
6.1819537746
 21
3.8763344585
  0
LINE
  5
613
100
AcDbEntity
  8
0
100
AcDbLine
 62
7
  6
CONTINUOUS
 10
5.044324163
 20
4.5863194442
 11
5.0794713819
 21
4.5660188765
  0
LINE
  5
614
100
AcDbEntity
  8
0
100
AcDbLine
 62
7
  6
CONTINUOUS
 10
6.2171009934
 20
3.9150890089
 11
6.1819537746
 21
3.9353895766
  0
LINE
  5
615
100
AcDbEntity
  8
0
100
AcDbLine
 62
7
  6
CONTINUOUS
 10
5.044324163
 20
4.6453745623
 11
5.0794713819
 21
4.6250739946
  0
LINE
  5
616
100
AcDbEntity
  8
0
100
AcDbLine
 62
7
  6
CONTINUOUS
 10
6.2171009934
 20
3.974144127
 11
6.1819537746
 21
3.9944446947
  0
LWPOLYLINE
  5
617
100
AcDbEntity
  8
0
100
AcDbPolyline
 62
7
  6
CONTINUOUS
 90
3
 70
0
 10
5.044324163
 20
4.7044296804
 10
5.0441647416
 20
4.7045490966
 10
5.044098405
 20
4.704690447
  0
LINE
  5
618
100
AcDbEntity
  8
0
100
AcDbLine
 62
7
  6
CONTINUOUS
 10
5.044098405
 20
3.8853006832
 11
5.044324163
 21
3.8855614498
  0
LINE
  5
619
100
AcDbEntity
  8
0
100
AcDbLine
 62
7
  6
CONTINUOUS
 10
5.044098405
 20
3.8262455651
 11
5.044324163
 21
3.8265063317
  0
LINE
  5
61A
100
AcDbEntity
  8
0
100
AcDbLine
 62
7
  6
CONTINUOUS
 10
5.044098405
 20
3.767190447
 11
5.044324163
 21
3.7674512136
  0
LWPOLYLINE
  5
61B
100
AcDbEntity
  8
0
100
AcDbPolyline
 62
7
  6
CONTINUOUS
 90
4
 70
0
 10
5.0795314759
 20
4.0936819764
 10
5.0803817621
 20
4.0942041093
 10
5.0869293509
 20
4.0952236235
 10
5.0998355729
 20
4.096241028
  0
LWPOLYLINE
  5
61C
100
AcDbEntity
  8
0
100
AcDbPolyline
 62
7
  6
CONTINUOUS
 90
13
 70
0
 10
5.0795314761
 20
4.1527373873
 10
5.080396518
 20
4.1532637397
 10
5.0869381378
 20
4.154279659
 10
5.0998241084
 20
4.1552954191
 10
5.1189493682
 20
4.1563132355
 10
5.1440265815
 20
4.1573294688
 10
5.1748381296
 20
4.1583472282
 10
5.2109335113
 20
4.159363505
 10
5.2519556363
 20
4.160380338
 10
5.2973789784
 20
4.1613965816
 10
5.3468317543
 20
4.1624155375
 10
5.3995129314
 20
4.1634325242
 10
5.4549208385
 20
4.1644499162
  0
LWPOLYLINE
  5
61D
100
AcDbEntity
  8
0
100
AcDbPolyline
 62
7
  6
CONTINUOUS
 90
4
 70
0
 10
5.044098405
 20
4.1141392659
 10
5.0449552337
 20
4.1146473274
 10
5.0518896002
 20
4.1156728242
 10
5.0657077654
 20
4.116698321
  0
LINE
  5
61E
100
AcDbEntity
  8
0
100
AcDbLine
 62
7
  6
CONTINUOUS
 10
5.0797717285
 20
4.2013110875
 11
5.044324163
 21
4.1808370404
  0
LINE
  5
61F
100
AcDbEntity
  8
0
100
AcDbLine
 62
7
  6
CONTINUOUS
 10
5.0797717285
 20
4.1422559694
 11
5.044324163
 21
4.1217819223
  0
LWPOLYLINE
  5
620
100
AcDbEntity
  8
0
100
AcDbPolyline
 62
7
  6
CONTINUOUS
 90
13
 70
0
 10
5.044098405
 20
4.2913046202
 10
5.0459832714
 20
4.292058276
 10
5.0545768399
 20
4.2930837728
 10
5.0700222484
 20
4.2941092697
 10
5.0921358084
 20
4.2951347665
 10
5.120654529
 20
4.2961602633
 10
5.155239244
 20
4.2971857601
 10
5.1954786459
 20
4.2982112569
 10
5.2408941774
 20
4.2992367537
 10
5.2909457229
 20
4.3002622505
 10
5.3450380316
 20
4.3012877474
 10
5.4025277972
 20
4.3023132442
 10
5.462731308
 20
4.303338741
  0
LWPOLYLINE
  5
621
100
AcDbEntity
  8
0
100
AcDbPolyline
 62
7
  6
CONTINUOUS
 90
13
 70
0
 10
5.044324163
 20
4.2989472766
 10
5.0459832714
 20
4.2994401658
 10
5.0545768399
 20
4.3004656626
 10
5.0700222484
 20
4.3014911594
 10
5.0921358084
 20
4.3025166562
 10
5.120654529
 20
4.3035421531
 10
5.155239244
 20
4.3045676499
 10
5.1954786459
 20
4.3055931467
 10
5.2408941774
 20
4.3066186435
 10
5.2909457229
 20
4.3076441403
 10
5.3450380316
 20
4.3086696371
 10
5.4025277972
 20
4.3096951339
 10
5.462731308
 20
4.3107206307
  0
LWPOLYLINE
  5
622
100
AcDbEntity
  8
0
100
AcDbPolyline
 62
7
  6
CONTINUOUS
 90
13
 70
0
 10
5.044324163
 20
4.1808370404
 10
5.0469785759
 20
4.1815080323
 10
5.056771777
 20
4.1825335291
 10
5.0733907142
 20
4.1835590259
 10
5.0966377428
 20
4.1845845228
 10
5.1262363914
 20
4.1856100196
 10
5.1618346507
 20
4.1866355164
 10
5.2030091594
 20
4.1876610132
 10
5.2492702392
 20
4.18868651
 10
5.3000677185
 20
4.1897120068
 10
5.3547974754
 20
4.1907375036
 10
5.4128086226
 20
4.1917630004
 10
5.4734112476
 20
4.1927884973
  0
LWPOLYLINE
  5
623
100
AcDbEntity
  8
0
100
AcDbPolyline
 62
7
  6
CONTINUOUS
 90
12
 70
0
 10
5.044324163
 20
4.2398921585
 10
5.0501879516
 20
4.2409868475
 10
5.0628200894
 20
4.2420123443
 10
5.0822060323
 20
4.2430378411
 10
5.108115228
 20
4.2440633379
 10
5.140239545
 20
4.2450888347
 10
5.1781969366
 20
4.2461143315
 10
5.2215359849
 20
4.2471398283
 10
5.2697412694
 20
4.2481653252
 10
5.3222394965
 20
4.249190822
 10
5.3784063178
 20
4.2502163188
 10
5.4375737551
 20
4.2512418156
  0
LWPOLYLINE
  5
624
100
AcDbEntity
  8
0
100
AcDbPolyline
 62
7
  6
CONTINUOUS
 90
13
 70
0
 10
5.4547307113
 20
4.3308532072
 10
5.3993921243
 20
4.3298369667
 10
5.3467373226
 20
4.3288203707
 10
5.2973568444
 20
4.3278028197
 10
5.251926823
 20
4.3267863737
 10
5.2108759478
 20
4.3257687022
 10
5.17480325
 20
4.3247528819
 10
5.1440474191
 20
4.3237369378
 10
5.1189003222
 20
4.3227176948
 10
5.0997595895
 20
4.3216980356
 10
5.0868929985
 20
4.3206816527
 10
5.0803748016
 20
4.3196637973
 10
5.0797717285
 20
4.3194213237
  0
LWPOLYLINE
  5
625
100
AcDbEntity
  8
0
100
AcDbPolyline
 62
7
  6
CONTINUOUS
 90
13
 70
0
 10
5.8067650911
 20
4.3477218714
 10
5.8620905544
 20
4.3487379214
 10
5.9147439633
 20
4.3497545535
 10
5.96412212
 20
4.35077214
 10
6.0095490327
 20
4.3517886239
 10
6.0505958447
 20
4.3528063327
 10
6.0866665132
 20
4.3538222792
 10
6.1174180718
 20
4.3548383349
 10
6.1425429374
 20
4.3558569445
 10
6.161674254
 20
4.3568763238
 10
6.1745374969
 20
4.3578927137
 10
6.1810522868
 20
4.3589106062
 10
6.1816534279
 20
4.3591524837
  0
LWPOLYLINE
  5
626
100
AcDbEntity
  8
0
100
AcDbPolyline
 62
7
  6
CONTINUOUS
 90
13
 70
0
 10
5.4549716902
 20
4.3899126612
 10
5.3995775644
 20
4.3888955683
 10
5.3468882568
 20
4.3878784916
 10
5.2971850941
 20
4.3868542596
 10
5.25136591
 20
4.3858283164
 10
5.210224161
 20
4.3848066479
 10
5.1741978663
 20
4.3837896042
 10
5.1433987036
 20
4.382768437
 10
5.1183718092
 20
4.3817484515
 10
5.0994432209
 20
4.3807329779
 10
5.0867085594
 20
4.3797173411
 10
5.0803139685
 20
4.378699805
 10
5.0797717285
 20
4.3784764418
  0
LWPOLYLINE
  5
627
100
AcDbEntity
  8
0
100
AcDbPolyline
 62
7
  6
CONTINUOUS
 90
13
 70
0
 10
5.806664153
 20
4.4067751732
 10
5.8621483393
 20
4.4077941252
 10
5.9149134359
 20
4.4088130441
 10
5.9646684085
 20
4.4098389621
 10
6.0104907321
 20
4.4108658745
 10
6.05159438
 20
4.411887778
 10
6.087546144
 20
4.4129041499
 10
6.1181965751
 20
4.4139218192
 10
6.1431058445
 20
4.4149380207
 10
6.162055252
 20
4.4159557637
 10
6.174769447
 20
4.4169723157
 10
6.1811372476
 20
4.4179926518
 10
6.1816534279
 20
4.4182076018
  0
LINE
  5
628
100
AcDbEntity
  8
0
100
AcDbLine
 62
7
  6
CONTINUOUS
 10
5.8100548326
 20
4.3370224912
 11
5.6914782116
 21
4.3349458879
  0
LINE
  5
629
100
AcDbEntity
  8
0
100
AcDbLine
 62
7
  6
CONTINUOUS
 10
5.4549716902
 20
4.3416161855
 11
5.5712071914
 21
4.3436495387
  0
LINE
  5
62A
100
AcDbEntity
  8
0
100
AcDbLine
 62
7
  6
CONTINUOUS
 10
5.8067650911
 20
4.3960183472
 11
5.69030596
 21
4.3939808961
  0
LINE
  5
62B
100
AcDbEntity
  8
0
100
AcDbLine
 62
7
  6
CONTINUOUS
 10
5.4548802059
 20
4.4006696576
 11
5.5711752204
 21
4.4027041085
  0
LWPOLYLINE
  5
62C
100
AcDbEntity
  8
0
100
AcDbPolyline
 62
7
  6
CONTINUOUS
 90
12
 70
0
 10
5.8292558961
 20
4.4274238553
 10
5.8881827629
 20
4.4284493522
 10
5.9440476003
 20
4.429474849
 10
5.9961860218
 20
4.4305003458
 10
6.0439779578
 20
4.4315258426
 10
6.0868550308
 20
4.4325513394
 10
6.1243073143
 20
4.4335768362
 10
6.1558893975
 20
4.434602333
 10
6.1812256825
 20
4.4356278298
 10
6.2000148511
 20
4.4366533267
 10
6.2120334485
 20
4.4376788235
 10
6.2171009934
 20
4.4386816489
  0
LWPOLYLINE
  5
62D
100
AcDbEntity
  8
0
100
AcDbPolyline
 62
7
  6
CONTINUOUS
 90
13
 70
0
 10
5.8292558961
 20
4.4348057451
 10
5.8881827629
 20
4.4358312419
 10
5.9440476003
 20
4.4368567387
 10
5.9961860218
 20
4.4378822355
 10
6.0439779578
 20
4.4389077324
 10
6.0868550308
 20
4.4399332292
 10
6.1243073143
 20
4.440958726
 10
6.1558893975
 20
4.4419842228
 10
6.1812256825
 20
4.4430097196
 10
6.2000148511
 20
4.4440352164
 10
6.2120334485
 20
4.4450607132
 10
6.2171385403
 20
4.44608621
 10
6.2173267514
 20
4.4463243053
  0
LWPOLYLINE
  5
62E
100
AcDbEntity
  8
0
100
AcDbPolyline
 62
7
  6
CONTINUOUS
 90
3
 70
0
 10
5.6914782116
 20
4.3349458879
 10
5.5711317256
 20
4.3328896019
 10
5.4547307113
 20
4.3308532072
  0
LWPOLYLINE
  5
62F
100
AcDbEntity
  8
0
100
AcDbPolyline
 62
7
  6
CONTINUOUS
 90
3
 70
0
 10
5.5712071914
 20
4.3436495387
 10
5.69030596
 20
4.3456844204
 10
5.8067650911
 20
4.3477218714
  0
LWPOLYLINE
  5
630
100
AcDbEntity
  8
0
100
AcDbPolyline
 62
7
  6
CONTINUOUS
 90
12
 70
0
 10
5.8041791115
 20
4.3679450402
 10
5.8641683037
 20
4.368970537
 10
5.9213810646
 20
4.3699960338
 10
5.975136977
 20
4.3710215306
 10
6.0247967351
 20
4.3720470274
 10
6.0697697476
 20
4.3730725243
 10
6.1095211617
 20
4.3740980211
 10
6.1435782236
 20
4.3751235179
 10
6.171535901
 20
4.3761490147
 10
6.1930617003
 20
4.3771745115
 10
6.2078996203
 20
4.3782000083
 10
6.2158731975
 20
4.3792255051
  0
LWPOLYLINE
  5
631
100
AcDbEntity
  8
0
100
AcDbPolyline
 62
7
  6
CONTINUOUS
 90
13
 70
0
 10
5.8041791115
 20
4.37532693
 10
5.8641683037
 20
4.3763524268
 10
5.9213810646
 20
4.3773779236
 10
5.975136977
 20
4.3784034204
 10
6.0247967351
 20
4.3794289172
 10
6.0697697476
 20
4.380454414
 10
6.1095211617
 20
4.3814799108
 10
6.1435782236
 20
4.3825054076
 10
6.171535901
 20
4.3835309045
 10
6.1930617003
 20
4.3845564013
 10
6.2078996203
 20
4.3855818981
 10
6.2158731975
 20
4.3866073949
 10
6.2173267514
 20
4.3872691872
  0
LWPOLYLINE
  5
632
100
AcDbEntity
  8
0
100
AcDbPolyline
 62
7
  6
CONTINUOUS
 90
3
 70
0
 10
5.69030596
 20
4.3939808961
 10
5.5712071914
 20
4.3919460145
 10
5.4549716902
 20
4.3899126612
  0
LWPOLYLINE
  5
633
100
AcDbEntity
  8
0
100
AcDbPolyline
 62
7
  6
CONTINUOUS
 90
3
 70
0
 10
5.5711752204
 20
4.4027041085
 10
5.6901600916
 20
4.4047370365
 10
5.806664153
 20
4.4067751732
  0
LINE
  5
634
100
AcDbEntity
  8
0
100
AcDbLine
 62
7
  6
CONTINUOUS
 10
5.7050473668
 20
4.4253728617
 11
5.8292558961
 21
4.4274238553
  0
LWPOLYLINE
  5
635
100
AcDbEntity
  8
0
100
AcDbPolyline
 62
7
  6
CONTINUOUS
 90
3
 70
0
 10
5.4521116846
 20
4.4212708745
 10
5.5773131701
 20
4.4233218681
 10
5.7050473668
 20
4.4253728617
  0
LINE
  5
636
100
AcDbEntity
  8
0
100
AcDbLine
 62
7
  6
CONTINUOUS
 10
5.7050473668
 20
4.4327547515
 11
5.8292558961
 21
4.4348057451
  0
LWPOLYLINE
  5
637
100
AcDbEntity
  8
0
100
AcDbPolyline
 62
7
  6
CONTINUOUS
 90
3
 70
0
 10
5.4521116846
 20
4.4286527642
 10
5.5773131701
 20
4.4307037579
 10
5.7050473668
 20
4.4327547515
  0
LINE
  5
638
100
AcDbEntity
  8
0
100
AcDbLine
 62
7
  6
CONTINUOUS
 10
5.6787497146
 20
4.3658940466
 11
5.8041791115
 21
4.3679450402
  0
LINE
  5
639
100
AcDbEntity
  8
0
100
AcDbLine
 62
7
  6
CONTINUOUS
 10
5.4882301661
 20
4.3628175561
 11
5.6787497146
 21
4.3658940466
  0
LINE
  5
63A
100
AcDbEntity
  8
0
100
AcDbLine
 62
7
  6
CONTINUOUS
 10
5.6787497146
 20
4.3732759363
 11
5.8041791115
 21
4.37532693
  0
LINE
  5
63B
100
AcDbEntity
  8
0
100
AcDbLine
 62
7
  6
CONTINUOUS
 10
5.4882301661
 20
4.3701994459
 11
5.6787497146
 21
4.3732759363
  0
LINE
  5
63C
100
AcDbEntity
  8
0
100
AcDbLine
 62
7
  6
CONTINUOUS
 10
5.044324163
 20
4.7044296804
 11
5.0794713819
 21
4.6841291127
  0
LINE
  5
63D
100
AcDbEntity
  8
0
100
AcDbLine
 62
7
  6
CONTINUOUS
 10
6.2171009934
 20
4.0331992451
 11
6.1819537746
 21
4.0534998128
  0
LINE
  5
63E
100
AcDbEntity
  8
0
100
AcDbLine
 62
7
  6
CONTINUOUS
 10
6.2171009934
 20
4.0922543632
 11
6.1819537746
 21
4.1125549309
  0
LINE
  5
63F
100
AcDbEntity
  8
0
100
AcDbLine
 62
7
  6
CONTINUOUS
 10
6.2173267514
 20
3.737662888
 11
6.2171009934
 21
3.7379236545
  0
LINE
  5
640
100
AcDbEntity
  8
0
100
AcDbLine
 62
7
  6
CONTINUOUS
 10
5.8486088873
 20
3.0787042662
 11
5.8485819661
 21
3.0788477084
  0
LINE
  5
641
100
AcDbEntity
  8
0
100
AcDbLine
 62
7
  6
CONTINUOUS
 10
5.044098405
 20
3.7081353289
 11
5.044324163
 21
3.7083960955
  0
LWPOLYLINE
  5
642
100
AcDbEntity
  8
0
100
AcDbPolyline
 62
7
  6
CONTINUOUS
 90
13
 70
0
 10
5.0795314761
 20
3.9755714705
 10
5.0803139282
 20
3.9760726076
 10
5.0867546109
 20
3.9770950309
 10
5.0995490978
 20
3.978112563
 10
5.1186679298
 20
3.979134936
 10
5.1439046834
 20
3.9801596842
 10
5.1748015234
 20
3.9811807632
 10
5.2108675826
 20
3.9821964157
 10
5.2519271043
 20
3.983214314
 10
5.297368011
 20
3.9842309924
 10
5.3467610481
 20
3.9852487765
 10
5.3994297301
 20
3.9862656068
 10
5.4548788095
 20
3.9872838057
  0
LWPOLYLINE
  5
643
100
AcDbEntity
  8
0
100
AcDbPolyline
 62
7
  6
CONTINUOUS
 90
13
 70
0
 10
6.1818936806
 20
4.6439469496
 10
6.1810642341
 20
4.6434312561
 10
6.1745750068
 20
4.6424135951
 10
6.1617426438
 20
4.6413976211
 10
6.1426831025
 20
4.6403803395
 10
6.1176674986
 20
4.6393643539
 10
6.0869004931
 20
4.6383463326
 10
6.0508543758
 20
4.637330089
 10
6.0098490175
 20
4.6363126172
 10
5.9644611969
 20
4.6352963514
 10
5.9151212083
 20
4.6342790098
 10
5.862502312
 20
4.6332626072
 10
5.8072148979
 20
4.6322469151
  0
LWPOLYLINE
  5
644
100
AcDbEntity
  8
0
100
AcDbPolyline
 62
7
  6
CONTINUOUS
 90
13
 70
0
 10
5.0795314759
 20
4.034626858
 10
5.0803630581
 20
4.035143215
 10
5.0868573653
 20
4.0361609697
 10
5.0996963809
 20
4.0371770688
 10
5.1187702141
 20
4.038194764
 10
5.143797458
 20
4.039210902
 10
5.1745617752
 20
4.0402286023
 10
5.2106136587
 20
4.041244848
 10
5.2516282232
 20
4.0422624138
 10
5.2970253672
 20
4.0432787717
 10
5.3463748422
 20
4.0442962089
 10
5.3990032848
 20
4.0453127121
 10
5.4542817562
 20
4.0463281793
  0
LINE
  5
645
100
AcDbEntity
  8
0
100
AcDbLine
 62
7
  6
CONTINUOUS
 10
5.0797717285
 20
4.0832008513
 11
5.044324163
 21
4.0627268042
  0
LINE
  5
646
100
AcDbEntity
  8
0
100
AcDbLine
 62
7
  6
CONTINUOUS
 10
6.1816534279
 20
4.7134831924
 11
6.2171009934
 21
4.7339572395
  0
LINE
  5
647
100
AcDbEntity
  8
0
100
AcDbLine
 62
7
  6
CONTINUOUS
 10
5.0797717285
 20
4.0241457332
 11
5.044324163
 21
4.003671686
  0
LINE
  5
648
100
AcDbEntity
  8
0
100
AcDbLine
 62
7
  6
CONTINUOUS
 10
6.1816534279
 20
4.6544280742
 11
6.2171009934
 21
4.6749021214
  0
LINE
  5
649
100
AcDbEntity
  8
0
100
AcDbLine
 62
7
  6
CONTINUOUS
 10
5.0797717285
 20
3.9650906151
 11
5.044324163
 21
3.9446165679
  0
LWPOLYLINE
  5
64A
100
AcDbEntity
  8
0
100
AcDbPolyline
 62
7
  6
CONTINUOUS
 90
4
 70
0
 10
5.044324163
 20
4.1217819223
 10
5.0449552337
 20
4.1220292172
 10
5.0518896002
 20
4.123054714
 10
5.0657077654
 20
4.1240802108
  0
LWPOLYLINE
  5
64B
100
AcDbEntity
  8
0
100
AcDbPolyline
 62
7
  6
CONTINUOUS
 90
13
 70
0
 10
5.044098405
 20
4.173194384
 10
5.0469785759
 20
4.1741261426
 10
5.056771777
 20
4.1751516394
 10
5.0733907142
 20
4.1761771362
 10
5.0966377428
 20
4.177202633
 10
5.1262363914
 20
4.1782281298
 10
5.1618346507
 20
4.1792536266
 10
5.2030091594
 20
4.1802791234
 10
5.2492702392
 20
4.1813046202
 10
5.3000677185
 20
4.1823301171
 10
5.3547974754
 20
4.1833556139
 10
5.4128086226
 20
4.1843811107
 10
5.4734112476
 20
4.1854066075
  0
LWPOLYLINE
  5
64C
100
AcDbEntity
  8
0
100
AcDbPolyline
 62
7
  6
CONTINUOUS
 90
13
 70
0
 10
5.044324163
 20
4.3580023947
 10
5.0486947489
 20
4.3589189809
 10
5.0601363235
 20
4.3599444778
 10
5.0783636206
 20
4.3609699746
 10
5.1031598675
 20
4.3619954714
 10
5.1342301684
 20
4.3630209682
 10
5.1712050119
 20
4.364046465
 10
5.2136446655
 20
4.3650719618
 10
5.2610444047
 20
4.3660974586
 10
5.3128405162
 20
4.3671229555
 10
5.3684170016
 20
4.3681484523
 10
5.4271129035
 20
4.3691739491
 10
5.4882301661
 20
4.3701994459
  0
LWPOLYLINE
  5
64D
100
AcDbEntity
  8
0
100
AcDbPolyline
 62
7
  6
CONTINUOUS
 90
12
 70
0
 10
5.0451979227
 20
4.4173722993
 10
5.0525887729
 20
4.4183977961
 10
5.0668551067
 20
4.4194232929
 10
5.0878272581
 20
4.4204487897
 10
5.1152558105
 20
4.4214742865
 10
5.148814563
 20
4.4224997833
 10
5.1881044095
 20
4.4235252802
 10
5.2326580856
 20
4.424550777
 10
5.2819457255
 20
4.4255762738
 10
5.3353811635
 20
4.4266017706
 10
5.392328905
 20
4.4276272674
 10
5.4521116846
 20
4.4286527642
  0
LWPOLYLINE
  5
64E
100
AcDbEntity
  8
0
100
AcDbPolyline
 62
7
  6
CONTINUOUS
 90
11
 70
0
 10
5.9162392763
 20
4.5269496894
 10
5.9655093675
 20
4.5279672372
 10
6.0110163065
 20
4.5289884847
 10
6.0519508915
 20
4.5300074351
 10
6.0878607646
 20
4.5310239822
 10
6.1185972855
 20
4.5320467195
 10
6.1435788896
 20
4.5330702118
 10
6.162404449
 20
4.5340884938
 10
6.1749596626
 20
4.5351029275
 10
6.181187106
 20
4.5361193982
 10
6.1816534279
 20
4.536317838
  0
LWPOLYLINE
  5
64F
100
AcDbEntity
  8
0
100
AcDbPolyline
 62
7
  6
CONTINUOUS
 90
11
 70
0
 10
5.934594564
 20
4.5474069824
 10
5.9871735822
 20
4.5484273858
 10
6.0355552637
 20
4.5494477891
 10
6.0791699131
 20
4.5504681925
 10
6.1175039668
 20
4.5514885958
 10
6.1501060405
 20
4.5525089991
 10
6.176592244
 20
4.5535294025
 10
6.1966507017
 20
4.5545498058
 10
6.2100452247
 20
4.5555702092
 10
6.2166180922
 20
4.5565906125
 10
6.2171009934
 20
4.5567918852
  0
LWPOLYLINE
  5
650
100
AcDbEntity
  8
0
100
AcDbPolyline
 62
7
  6
CONTINUOUS
 90
11
 70
0
 10
5.934594564
 20
4.5547888722
 10
5.9873851822
 20
4.5558135452
 10
6.0359407874
 20
4.5568382181
 10
6.0796848464
 20
4.557862891
 10
6.1180979565
 20
4.558887564
 10
6.1507240133
 20
4.5599122369
 10
6.1771756255
 20
4.5609369098
 10
6.1971387156
 20
4.5619615828
 10
6.2103762483
 20
4.5629862557
 10
6.2167310455
 20
4.5640109287
 10
6.2173267514
 20
4.5644345415
  0
LWPOLYLINE
  5
651
100
AcDbEntity
  8
0
100
AcDbPolyline
 62
7
  6
CONTINUOUS
 90
13
 70
0
 10
5.4548802059
 20
4.4489661334
 10
5.3994617788
 20
4.4479485115
 10
5.3468097577
 20
4.4469320481
 10
5.2974690055
 20
4.4459154573
 10
5.2519592401
 20
4.4448973708
 10
5.2108679859
 20
4.4438787289
 10
5.1747708526
 20
4.442862135
 10
5.143963782
 20
4.4418441351
 10
5.1188943464
 20
4.4408276564
 10
5.0997804962
 20
4.4398095996
 10
5.0869120499
 20
4.4387938821
 10
5.0803741747
 20
4.4377738402
 10
5.0797717285
 20
4.4375315599
  0
LWPOLYLINE
  5
652
100
AcDbEntity
  8
0
100
AcDbPolyline
 62
7
  6
CONTINUOUS
 90
13
 70
0
 10
5.8064939383
 20
4.4658272287
 10
5.8618991149
 20
4.4668445612
 10
5.914584289
 20
4.4678616129
 10
5.964056676
 20
4.4688809748
 10
6.009488075
 20
4.4698974291
 10
6.0504954306
 20
4.4709139262
 10
6.0865877881
 20
4.4719301266
 10
6.1173975233
 20
4.4729478246
 10
6.1424735967
 20
4.4739639955
 10
6.1615985063
 20
4.4749817514
 10
6.1744854234
 20
4.4759975062
 10
6.1810275158
 20
4.4770132503
 10
6.1816534279
 20
4.4772627199
  0
LWPOLYLINE
  5
653
100
AcDbEntity
  8
0
100
AcDbPolyline
 62
7
  6
CONTINUOUS
 90
13
 70
0
 10
5.4542630975
 20
4.508010146
 10
5.3987594248
 20
4.5069904311
 10
5.3460973643
 20
4.5059729871
 10
5.2965523897
 20
4.5049509367
 10
5.2510129155
 20
4.503930252
 10
5.2101510916
 20
4.5029149567
 10
5.1741836941
 20
4.5018994091
 10
5.1434991576
 20
4.5008823379
 10
5.1185464726
 20
4.4998667562
 10
5.0995433648
 20
4.4988496175
 10
5.0867701206
 20
4.4978340897
 10
5.0803355641
 20
4.4968169076
 10
5.0797717285
 20
4.496586678
  0
LWPOLYLINE
  5
654
100
AcDbEntity
  8
0
100
AcDbPolyline
 62
7
  6
CONTINUOUS
 90
3
 70
0
 10
5.8076575785
 20
4.5249032906
 10
5.8633730807
 20
4.525927386
 10
5.9162392763
 20
4.5269496894
  0
LINE
  5
655
100
AcDbEntity
  8
0
100
AcDbLine
 62
7
  6
CONTINUOUS
 10
5.806664153
 20
4.455071649
 11
5.6901600916
 21
4.4530335122
  0
LINE
  5
656
100
AcDbEntity
  8
0
100
AcDbLine
 62
7
  6
CONTINUOUS
 10
5.4542630975
 20
4.4597136702
 11
5.5712404629
 21
4.4617603456
  0
LINE
  5
657
100
AcDbEntity
  8
0
100
AcDbLine
 62
7
  6
CONTINUOUS
 10
5.8064939383
 20
4.5141237045
 11
5.6902320783
 21
4.5120898651
  0
LINE
  5
658
100
AcDbEntity
  8
0
100
AcDbLine
 62
7
  6
CONTINUOUS
 10
5.4548858141
 20
4.5187799947
 11
5.5711816508
 21
4.520814455
  0
LWPOLYLINE
  5
659
100
AcDbEntity
  8
0
100
AcDbPolyline
 62
7
  6
CONTINUOUS
 90
3
 70
0
 10
5.8187609942
 20
4.5453559888
 10
5.87814913
 20
4.5463814856
 10
5.934594564
 20
4.5474069824
  0
LWPOLYLINE
  5
65A
100
AcDbEntity
  8
0
100
AcDbPolyline
 62
7
  6
CONTINUOUS
 90
3
 70
0
 10
5.8187609942
 20
4.5527378786
 10
5.87814913
 20
4.5537633754
 10
5.934594564
 20
4.5547888722
  0
LWPOLYLINE
  5
65B
100
AcDbEntity
  8
0
100
AcDbPolyline
 62
7
  6
CONTINUOUS
 90
3
 70
0
 10
5.6901600916
 20
4.4530335122
 10
5.5711752204
 20
4.4510005842
 10
5.4548802059
 20
4.4489661334
  0
LWPOLYLINE
  5
65C
100
AcDbEntity
  8
0
100
AcDbPolyline
 62
7
  6
CONTINUOUS
 90
3
 70
0
 10
5.5712404629
 20
4.4617603456
 10
5.6902320783
 20
4.4637933893
 10
5.8064939383
 20
4.4658272287
  0
LWPOLYLINE
  5
65D
100
AcDbEntity
  8
0
100
AcDbPolyline
 62
7
  6
CONTINUOUS
 90
3
 70
0
 10
5.6902320783
 20
4.5120898651
 10
5.5712404629
 20
4.5100568214
 10
5.4542630975
 20
4.508010146
  0
LWPOLYLINE
  5
65E
100
AcDbEntity
  8
0
100
AcDbPolyline
 62
7
  6
CONTINUOUS
 90
3
 70
0
 10
5.5711816508
 20
4.520814455
 10
5.6906388605
 20
4.5228554851
 10
5.8076575785
 20
4.5249032906
  0
LWPOLYLINE
  5
65F
100
AcDbEntity
  8
0
100
AcDbPolyline
 62
7
  6
CONTINUOUS
 90
13
 70
0
 10
5.7935298048
 20
4.4858771737
 10
5.8539292794
 20
4.4869026705
 10
5.9116740929
 20
4.4879281673
 10
5.9660775005
 20
4.4889536641
 10
6.0164924959
 20
4.4899791609
 10
6.0623195061
 20
4.4910046577
 10
6.1030135216
 20
4.4920301546
 10
6.1380905788
 20
4.4930556514
 10
6.1671335146
 20
4.4940811482
 10
6.1897969288
 20
4.495106645
 10
6.2058112909
 20
4.4961321418
 10
6.2149861461
 20
4.4971576386
 10
6.2171009934
 20
4.497736767
  0
LWPOLYLINE
  5
660
100
AcDbEntity
  8
0
100
AcDbPolyline
 62
7
  6
CONTINUOUS
 90
13
 70
0
 10
5.7935298048
 20
4.4932590634
 10
5.8539292794
 20
4.4942845603
 10
5.9116740929
 20
4.4953100571
 10
5.9660775005
 20
4.4963355539
 10
6.0164924959
 20
4.4973610507
 10
6.0623195061
 20
4.4983865475
 10
6.1030135216
 20
4.4994120443
 10
6.1380905788
 20
4.5004375411
 10
6.1671335146
 20
4.5014630379
 10
6.1897969288
 20
4.5024885348
 10
6.2058112909
 20
4.5035140316
 10
6.2149861461
 20
4.5045395284
 10
6.2173267514
 20
4.5053794234
  0
LINE
  5
661
100
AcDbEntity
  8
0
100
AcDbLine
 62
7
  6
CONTINUOUS
 10
5.4415561905
 20
4.5392030079
 11
5.5662536495
 21
4.5412540016
  0
LINE
  5
662
100
AcDbEntity
  8
0
100
AcDbLine
 62
7
  6
CONTINUOUS
 10
5.4415561905
 20
4.5465848977
 11
5.5662536495
 21
4.5486358913
  0
LWPOLYLINE
  5
663
100
AcDbEntity
  8
0
100
AcDbPolyline
 62
7
  6
CONTINUOUS
 90
4
 70
0
 10
5.4774733478
 20
4.4807496896
 10
5.6036929006
 20
4.4828006832
 10
5.667663165
 20
4.48382618
 10
5.7935298048
 20
4.4858771737
  0
LWPOLYLINE
  5
664
100
AcDbEntity
  8
0
100
AcDbPolyline
 62
7
  6
CONTINUOUS
 90
4
 70
0
 10
5.4774733478
 20
4.4881315794
 10
5.6036929006
 20
4.490182573
 10
5.667663165
 20
4.4912080698
 10
5.7935298048
 20
4.4932590634
  0
LWPOLYLINE
  5
665
100
AcDbEntity
  8
0
100
AcDbPolyline
 62
7
  6
CONTINUOUS
 90
3
 70
0
 10
5.5662536495
 20
4.5412540016
 10
5.694008368
 20
4.5433049952
 10
5.8187609942
 20
4.5453559888
  0
LWPOLYLINE
  5
666
100
AcDbEntity
  8
0
100
AcDbPolyline
 62
7
  6
CONTINUOUS
 90
3
 70
0
 10
5.5662536495
 20
4.5486358913
 10
5.694008368
 20
4.550686885
 10
5.8187609942
 20
4.5527378786
  0
LINE
  5
667
100
AcDbEntity
  8
0
100
AcDbLine
 62
7
  6
CONTINUOUS
 10
6.2171009934
 20
4.1513094813
 11
6.1819537746
 21
4.171610049
  0
LINE
  5
668
100
AcDbEntity
  8
0
100
AcDbLine
 62
7
  6
CONTINUOUS
 10
6.2171009934
 20
4.2103645994
 11
6.1819537746
 21
4.2306651672
  0
LINE
  5
669
100
AcDbEntity
  8
0
100
AcDbLine
 62
7
  6
CONTINUOUS
 10
6.2173267514
 20
3.7967180061
 11
6.2171009934
 21
3.7969787727
  0
LINE
  5
66A
100
AcDbEntity
  8
0
100
AcDbLine
 62
7
  6
CONTINUOUS
 10
6.2173267514
 20
3.8557731242
 11
6.2171009934
 21
3.8560338908
  0
LINE
  5
66B
100
AcDbEntity
  8
0
100
AcDbLine
 62
7
  6
CONTINUOUS
 10
6.2173267514
 20
3.9148282423
 11
6.2171009934
 21
3.9150890089
  0
LINE
  5
66C
100
AcDbEntity
  8
0
100
AcDbLine
 62
7
  6
CONTINUOUS
 10
5.8344527357
 20
3.0749811855
 11
5.8344527357
 21
3.0356111068
  0
LINE
  5
66D
100
AcDbEntity
  8
0
100
AcDbLine
 62
7
  6
CONTINUOUS
 10
5.8645708459
 20
3.5671071698
 11
5.8645708459
 21
3.4588394532
  0
LINE
  5
66E
100
AcDbEntity
  8
0
100
AcDbLine
 62
7
  6
CONTINUOUS
 10
5.8645708459
 20
3.4214378784
 11
5.8645708459
 21
3.4194693745
  0
LINE
  5
66F
100
AcDbEntity
  8
0
100
AcDbLine
 62
7
  6
CONTINUOUS
 10
5.8645708459
 20
3.3820677997
 11
5.8645708459
 21
3.3800992957
  0
LINE
  5
670
100
AcDbEntity
  8
0
100
AcDbLine
 62
7
  6
CONTINUOUS
 10
5.8645708459
 20
3.3426977209
 11
5.8645708459
 21
3.340729217
  0
LINE
  5
671
100
AcDbEntity
  8
0
100
AcDbLine
 62
7
  6
CONTINUOUS
 10
5.8645708459
 20
3.3033276422
 11
5.8645708459
 21
3.3013591383
  0
LINE
  5
672
100
AcDbEntity
  8
0
100
AcDbLine
 62
7
  6
CONTINUOUS
 10
5.8645708459
 20
3.2639575635
 11
5.8645708459
 21
3.2619890595
  0
LINE
  5
673
100
AcDbEntity
  8
0
100
AcDbLine
 62
7
  6
CONTINUOUS
 10
5.8645708459
 20
3.2245874847
 11
5.8645708459
 21
3.2226189808
  0
LINE
  5
674
100
AcDbEntity
  8
0
100
AcDbLine
 62
7
  6
CONTINUOUS
 10
5.8645708459
 20
3.185217406
 11
5.8645708459
 21
3.183248902
  0
LINE
  5
675
100
AcDbEntity
  8
0
100
AcDbLine
 62
7
  6
CONTINUOUS
 10
5.8645708459
 20
3.1458473272
 11
5.8645708459
 21
3.1438788233
  0
LINE
  5
676
100
AcDbEntity
  8
0
100
AcDbLine
 62
7
  6
CONTINUOUS
 10
5.8645708459
 20
3.1064772485
 11
5.8645708459
 21
3.1045087446
  0
LINE
  5
677
100
AcDbEntity
  8
0
100
AcDbLine
 62
7
  6
CONTINUOUS
 10
6.2171009934
 20
4.7339572395
 11
6.2173267514
 21
4.7342180061
  0
LWPOLYLINE
  5
678
100
AcDbEntity
  8
0
100
AcDbPolyline
 62
7
  6
CONTINUOUS
 90
13
 70
0
 10
5.044098405
 20
3.8188636754
 10
5.0447427484
 20
3.8193042453
 10
5.0512202736
 20
3.8203297421
 10
5.0645895577
 20
3.8213552389
 10
5.0846916031
 20
3.8223807357
 10
5.111287341
 20
3.8234062325
 10
5.144060475
 20
3.8244317294
 10
5.1826212422
 20
3.8254572262
 10
5.226511049
 20
3.826482723
 10
5.2752079247
 20
3.8275082198
 10
5.3281327295
 20
3.8285337166
 10
5.3846560417
 20
3.8295592134
 10
5.4441056434
 20
3.8305847102
  0
LWPOLYLINE
  5
679
100
AcDbEntity
  8
0
100
AcDbPolyline
 62
7
  6
CONTINUOUS
 90
11
 70
0
 10
6.1818936806
 20
4.5848918467
 10
6.181187106
 20
4.584415874
 10
6.1749596626
 20
4.5833994032
 10
6.162404449
 20
4.5823849696
 10
6.1435788896
 20
4.5813666875
 10
6.1185972855
 20
4.5803431952
 10
6.0878607646
 20
4.579320458
 10
6.0519508915
 20
4.5783039109
 10
6.0110163065
 20
4.5772849604
 10
5.9655093675
 20
4.5762637129
 10
5.9162392763
 20
4.5752461652
  0
LWPOLYLINE
  5
67A
100
AcDbEntity
  8
0
100
AcDbPolyline
 62
7
  6
CONTINUOUS
 90
13
 70
0
 10
5.0795314759
 20
3.7984063818
 10
5.0803309505
 20
3.7989126735
 10
5.0867576617
 20
3.799929999
 10
5.0995224112
 20
3.800945504
 10
5.1184801435
 20
3.8019609192
 10
5.1434698882
 20
3.8029784954
 10
5.174235481
 20
3.80399821
 10
5.2102423254
 20
3.8050145882
 10
5.2511931658
 20
3.8060317164
 10
5.2965292688
 20
3.8070476659
 10
5.3458183107
 20
3.8080646545
 10
5.398388652
 20
3.8090806852
 10
5.4538406854
 20
3.8100997667
  0
LWPOLYLINE
  5
67B
100
AcDbEntity
  8
0
100
AcDbPolyline
 62
7
  6
CONTINUOUS
 90
13
 70
0
 10
5.0795314759
 20
3.9165167138
 10
5.0803353467
 20
3.9170243002
 10
5.0867616108
 20
3.9180406524
 10
5.0995264799
 20
3.9190560002
 10
5.1185218065
 20
3.9200730791
 10
5.1434663721
 20
3.9210886034
 10
5.1741424278
 20
3.9221056144
 10
5.2101025657
 20
3.9231211376
 10
5.250937747
 20
3.9241359448
 10
5.2963872127
 20
3.9251548556
 10
5.3458661204
 20
3.926175843
 10
5.3984971416
 20
3.9271929613
 10
5.4540082933
 20
3.9282130205
  0
LWPOLYLINE
  5
67C
100
AcDbEntity
  8
0
100
AcDbPolyline
 62
7
  6
CONTINUOUS
 90
13
 70
0
 10
5.0795314759
 20
3.8574615646
 10
5.0803625988
 20
3.857977718
 10
5.0869059454
 20
3.8590007049
 10
5.0997800474
 20
3.8600170323
 10
5.1188902342
 20
3.8610349287
 10
5.1439540833
 20
3.8620512439
 10
5.1747538158
 20
3.8630690792
 10
5.2108434854
 20
3.8640855452
 10
5.2519576958
 20
3.8651047958
 10
5.2975437105
 20
3.8661245177
 10
5.3468696355
 20
3.8671407005
 10
5.3994969128
 20
3.8681566327
 10
5.4549075174
 20
3.869174086
  0
LWPOLYLINE
  5
67D
100
AcDbEntity
  8
0
100
AcDbPolyline
 62
7
  6
CONTINUOUS
 90
13
 70
0
 10
6.1818936803
 20
4.5258364342
 10
6.1810275158
 20
4.525309726
 10
6.1744854234
 20
4.524293982
 10
6.1615985063
 20
4.5232782271
 10
6.1424735967
 20
4.5222604713
 10
6.1173975233
 20
4.5212443004
 10
6.0865877881
 20
4.5202266024
 10
6.0504954306
 20
4.519210402
 10
6.009488075
 20
4.5181939049
 10
5.964056676
 20
4.5171774506
 10
5.914584289
 20
4.5161580886
 10
5.8618991149
 20
4.515141037
 10
5.8064939383
 20
4.5141237045
  0
LINE
  5
67E
100
AcDbEntity
  8
0
100
AcDbLine
 62
7
  6
CONTINUOUS
 10
6.1816534279
 20
4.5953729561
 11
6.2171009934
 21
4.6158470033
  0
LINE
  5
67F
100
AcDbEntity
  8
0
100
AcDbLine
 62
7
  6
CONTINUOUS
 10
5.0797717285
 20
3.9060354969
 11
5.044324163
 21
3.8855614498
  0
LINE
  5
680
100
AcDbEntity
  8
0
100
AcDbLine
 62
7
  6
CONTINUOUS
 10
6.1816534279
 20
4.536317838
 11
6.2171009934
 21
4.5567918852
  0
LINE
  5
681
100
AcDbEntity
  8
0
100
AcDbLine
 62
7
  6
CONTINUOUS
 10
5.0797717285
 20
3.8469803788
 11
5.044324163
 21
3.8265063317
  0
LINE
  5
682
100
AcDbEntity
  8
0
100
AcDbLine
 62
7
  6
CONTINUOUS
 10
6.1816534279
 20
4.4772627199
 11
6.2171009934
 21
4.497736767
  0
LWPOLYLINE
  5
683
100
AcDbEntity
  8
0
100
AcDbPolyline
 62
7
  6
CONTINUOUS
 90
13
 70
0
 10
5.044098405
 20
3.9960290297
 10
5.0456609425
 20
3.9967151939
 10
5.0537990838
 20
3.9977406907
 10
5.0687983148
 20
3.9987661875
 10
5.0904802533
 20
3.9997916844
 10
5.1185870414
 20
4.0008171812
 10
5.1527844121
 20
4.001842678
 10
5.1926656643
 20
4.0028681748
 10
5.2377565003
 20
4.0038936716
 10
5.2875206659
 20
4.0049191684
 10
5.3413663281
 20
4.0059446652
 10
5.3986531138
 20
4.0069701621
 10
5.4586997253
 20
4.0079956589
  0
LINE
  5
684
100
AcDbEntity
  8
0
100
AcDbLine
 62
7
  6
CONTINUOUS
 10
6.2158731975
 20
4.3792255051
 11
6.2171009934
 21
4.3796265308
  0
LINE
  5
685
100
AcDbEntity
  8
0
100
AcDbLine
 62
7
  6
CONTINUOUS
 10
5.044324163
 20
4.003671686
 11
5.0456609425
 21
4.0040970837
  0
LWPOLYLINE
  5
686
100
AcDbEntity
  8
0
100
AcDbPolyline
 62
7
  6
CONTINUOUS
 90
13
 70
0
 10
5.044324163
 20
4.4761126309
 10
5.0474105283
 20
4.4768511144
 10
5.0576574315
 20
4.4778766112
 10
5.0747195381
 20
4.4789021081
 10
5.0983939325
 20
4.4799276049
 10
5.1283990611
 20
4.4809531017
 10
5.1643780803
 20
4.4819785985
 10
5.2059031004
 20
4.4830040953
 10
5.2524802748
 20
4.4840295921
 10
5.3035556725
 20
4.4850550889
 10
5.3585218665
 20
4.4860805857
 10
5.4167251574
 20
4.4871060826
 10
5.4774733478
 20
4.4881315794
  0
LWPOLYLINE
  5
687
100
AcDbEntity
  8
0
100
AcDbPolyline
 62
7
  6
CONTINUOUS
 90
3
 70
0
 10
6.2113286563
 20
4.7402546743
 10
6.2169856269
 20
4.7412793472
 10
6.2173267514
 20
4.7415998958
  0
LWPOLYLINE
  5
688
100
AcDbEntity
  8
0
100
AcDbPolyline
 62
7
  6
CONTINUOUS
 90
3
 70
0
 10
5.9162392763
 20
4.5752461652
 10
5.8633730807
 20
4.5742238618
 10
5.8076575785
 20
4.5731997664
  0
LWPOLYLINE
  5
689
100
AcDbEntity
  8
0
100
AcDbPolyline
 62
7
  6
CONTINUOUS
 90
13
 70
0
 10
5.4548858141
 20
4.5670764705
 10
5.3994602725
 20
4.5660587194
 10
5.3467901214
 20
4.5650418936
 10
5.2973950875
 20
4.5640241109
 10
5.2519519523
 20
4.563007436
 10
5.2108898133
 20
4.5619895395
 10
5.1748232545
 20
4.5609739613
 10
5.1439815343
 20
4.5599550165
 10
5.1187588548
 20
4.5589316619
 10
5.0996248965
 20
4.5579099373
 10
5.0867999567
 20
4.5568923543
 10
5.0803265365
 20
4.5558691667
 10
5.0797717285
 20
4.5556417962
  0
LWPOLYLINE
  5
68A
100
AcDbEntity
  8
0
100
AcDbPolyline
 62
7
  6
CONTINUOUS
 90
13
 70
0
 10
5.8072148979
 20
4.5839504393
 10
5.862502312
 20
4.5849661314
 10
5.9151212083
 20
4.585982534
 10
5.9644611969
 20
4.5869998757
 10
6.0098490175
 20
4.5880161414
 10
6.0508543758
 20
4.5890336132
 10
6.0869004931
 20
4.5900498568
 10
6.1176674986
 20
4.5910678781
 10
6.1426831025
 20
4.5920838637
 10
6.1617426438
 20
4.5931011454
 10
6.1745750068
 20
4.5941171193
 10
6.1810642341
 20
4.5951347803
 10
6.1816534279
 20
4.5953729561
  0
LWPOLYLINE
  5
68B
100
AcDbEntity
  8
0
100
AcDbPolyline
 62
7
  6
CONTINUOUS
 90
13
 70
0
 10
5.454082741
 20
4.6261171357
 10
5.3987587768
 20
4.6251006551
 10
5.3461616459
 20
4.6240845033
 10
5.2968432668
 20
4.6230674084
 10
5.2514760879
 20
4.6220513782
 10
5.2104907861
 20
4.6210341495
 10
5.1744572804
 20
4.620017966
 10
5.1436862152
 20
4.6189993912
 10
5.1186836686
 20
4.617983318
 10
5.0996536618
 20
4.6169668882
 10
5.0868354943
 20
4.6159512117
 10
5.080356752
 20
4.6149337917
 10
5.0797717285
 20
4.6146969143
  0
LWPOLYLINE
  5
68C
100
AcDbEntity
  8
0
100
AcDbPolyline
 62
7
  6
CONTINUOUS
 90
13
 70
0
 10
5.8065398181
 20
4.6429934085
 10
5.8619786041
 20
4.6440114088
 10
5.9146487201
 20
4.645028249
 10
5.9640434358
 20
4.6460460457
 10
6.0094859665
 20
4.647062734
 10
6.05054731
 20
4.6480806458
 10
6.0866110708
 20
4.6490961873
 10
6.1174817559
 20
4.6501162399
 10
6.142712455
 20
4.6511403333
 10
6.1618392949
 20
4.6521624222
 10
6.1746486634
 20
4.65317999
 10
6.1811051428
 20
4.6542027796
 10
6.1816534279
 20
4.6544280742
  0
LINE
  5
68D
100
AcDbEntity
  8
0
100
AcDbLine
 62
7
  6
CONTINUOUS
 10
5.8076575785
 20
4.5731997664
 11
5.6906388605
 21
4.5711519609
  0
LINE
  5
68E
100
AcDbEntity
  8
0
100
AcDbLine
 62
7
  6
CONTINUOUS
 10
5.454082741
 20
4.5778206599
 11
5.5710616302
 21
4.5798675144
  0
LWPOLYLINE
  5
68F
100
AcDbEntity
  8
0
100
AcDbPolyline
 62
7
  6
CONTINUOUS
 90
12
 70
0
 10
5.8269260855
 20
4.6045495694
 10
5.8856711877
 20
4.6055699728
 10
5.9414141463
 20
4.6065903761
 10
5.9934985866
 20
4.6076107794
 10
6.0413112132
 20
4.6086311828
 10
6.0842890312
 20
4.6096515861
 10
6.1219259759
 20
4.6106719895
 10
6.1537788712
 20
4.6116923928
 10
6.1794726488
 20
4.6127127961
 10
6.1987047636
 20
4.6137331995
 10
6.2112487571
 20
4.6147536028
 10
6.2171009934
 20
4.6158470033
  0
LINE
  5
690
100
AcDbEntity
  8
0
100
AcDbLine
 62
7
  6
CONTINUOUS
 10
5.8072148979
 20
4.6322469151
 11
5.6903557156
 21
4.630202222
  0
LINE
  5
691
100
AcDbEntity
  8
0
100
AcDbLine
 62
7
  6
CONTINUOUS
 10
5.4549191874
 20
4.6368908314
 11
5.5711888561
 21
4.6389248148
  0
LWPOLYLINE
  5
692
100
AcDbEntity
  8
0
100
AcDbPolyline
 62
7
  6
CONTINUOUS
 90
3
 70
0
 10
5.6906388605
 20
4.5711519609
 10
5.5711816508
 20
4.5691109307
 10
5.4548858141
 20
4.5670764705
  0
LWPOLYLINE
  5
693
100
AcDbEntity
  8
0
100
AcDbPolyline
 62
7
  6
CONTINUOUS
 90
3
 70
0
 10
5.5710616302
 20
4.5798675144
 10
5.6903557156
 20
4.5819057463
 10
5.8072148979
 20
4.5839504393
  0
LWPOLYLINE
  5
694
100
AcDbEntity
  8
0
100
AcDbPolyline
 62
7
  6
CONTINUOUS
 90
3
 70
0
 10
5.6903557156
 20
4.630202222
 10
5.5710616302
 20
4.6281639902
 10
5.454082741
 20
4.6261171357
  0
LWPOLYLINE
  5
695
100
AcDbEntity
  8
0
100
AcDbPolyline
 62
7
  6
CONTINUOUS
 90
3
 70
0
 10
5.5711888561
 20
4.6389248148
 10
5.6902326484
 20
4.6409587534
 10
5.8065398181
 20
4.6429934085
  0
LWPOLYLINE
  5
696
100
AcDbEntity
  8
0
100
AcDbPolyline
 62
7
  6
CONTINUOUS
 90
13
 70
0
 10
5.8026517875
 20
4.6705769144
 10
5.8626540666
 20
4.6716015873
 10
5.9199023488
 20
4.6726262603
 10
5.973716887
 20
4.6736509332
 10
6.0234587051
 20
4.6746756061
 10
6.068537185
 20
4.6757002791
 10
6.1084170797
 20
4.676724952
 10
6.1426248686
 20
4.677749625
 10
6.1707543796
 20
4.6787742979
 10
6.1924716121
 20
4.6797989708
 10
6.207518703
 20
4.6808236438
 10
6.2157169879
 20
4.6818483167
 10
6.2173267514
 20
4.6825447777
  0
LWPOLYLINE
  5
697
100
AcDbEntity
  8
0
100
AcDbPolyline
 62
7
  6
CONTINUOUS
 90
13
 70
0
 10
5.7800888892
 20
4.6111458839
 10
5.8409243432
 20
4.6121705568
 10
5.8992638119
 20
4.6131952298
 10
5.9544145918
 20
4.6142199027
 10
6.0057218406
 20
4.6152445756
 10
6.0525763529
 20
4.6162692486
 10
6.0944217938
 20
4.6172939215
 10
6.1307613042
 20
4.6183185945
 10
6.1611634008
 20
4.6193432674
 10
6.1852670991
 20
4.6203679403
 10
6.2027861996
 20
4.6213926133
 10
6.2135126865
 20
4.6224172862
 10
6.2173267514
 20
4.6234896596
  0
LWPOLYLINE
  5
698
100
AcDbEntity
  8
0
100
AcDbPolyline
 62
7
  6
CONTINUOUS
 90
13
 70
0
 10
5.7736483916
 20
4.6627125597
 10
5.8344524959
 20
4.6637329631
 10
5.8928575578
 20
4.6647533664
 10
5.9481758565
 20
4.6657737697
 10
5.9997560176
 20
4.6667941731
 10
6.0469906835
 20
4.6678145764
 10
6.0893236651
 20
4.6688349798
 10
6.1262564903
 20
4.6698553831
 10
6.1573542743
 20
4.6708757864
 10
6.18225084
 20
4.6718961898
 10
6.2006530297
 20
4.6729165931
 10
6.2123441573
 20
4.6739369965
 10
6.2171009934
 20
4.6749021214
  0
LINE
  5
699
100
AcDbEntity
  8
0
100
AcDbLine
 62
7
  6
CONTINUOUS
 10
5.7032235554
 20
4.6025087627
 11
5.8269260855
 21
4.6045495694
  0
LWPOLYLINE
  5
69A
100
AcDbEntity
  8
0
100
AcDbPolyline
 62
7
  6
CONTINUOUS
 90
3
 70
0
 10
5.4515719981
 20
4.5984271494
 10
5.5761158051
 20
4.6004679561
 10
5.7032235554
 20
4.6025087627
  0
LINE
  5
69B
100
AcDbEntity
  8
0
100
AcDbLine
 62
7
  6
CONTINUOUS
 10
5.4643045593
 20
4.6060225192
 11
5.7800888892
 21
4.6111458839
  0
LINE
  5
69C
100
AcDbEntity
  8
0
100
AcDbLine
 62
7
  6
CONTINUOUS
 10
5.4592120566
 20
4.657610543
 11
5.7736483916
 21
4.6627125597
  0
LINE
  5
69D
100
AcDbEntity
  8
0
100
AcDbLine
 62
7
  6
CONTINUOUS
 10
5.6772592687
 20
4.6685275685
 11
5.8026517875
 21
4.6705769144
  0
LINE
  5
69E
100
AcDbEntity
  8
0
100
AcDbLine
 62
7
  6
CONTINUOUS
 10
5.4869296464
 20
4.6654535497
 11
5.6772592687
 21
4.6685275685
  0
LINE
  5
69F
100
AcDbEntity
  8
0
100
AcDbLine
 62
7
  6
CONTINUOUS
 10
6.2171009934
 20
4.2694197175
 11
6.1819537746
 21
4.2897202853
  0
LINE
  5
6A0
100
AcDbEntity
  8
0
100
AcDbLine
 62
7
  6
CONTINUOUS
 10
6.2171009934
 20
4.3284748357
 11
6.1819537746
 21
4.3487754034
  0
LINE
  5
6A1
100
AcDbEntity
  8
0
100
AcDbLine
 62
7
  6
CONTINUOUS
 10
6.2171009934
 20
4.3875299538
 11
6.1819537746
 21
4.4078305215
  0
LINE
  5
6A2
100
AcDbEntity
  8
0
100
AcDbLine
 62
7
  6
CONTINUOUS
 10
6.2173267514
 20
3.9738833604
 11
6.2171009934
 21
3.974144127
  0
LINE
  5
6A3
100
AcDbEntity
  8
0
100
AcDbLine
 62
7
  6
CONTINUOUS
 10
6.2173267514
 20
4.0329384785
 11
6.2171009934
 21
4.0331992451
  0
LINE
  5
6A4
100
AcDbEntity
  8
0
100
AcDbLine
 62
7
  6
CONTINUOUS
 10
6.2173267514
 20
4.0919935966
 11
6.2171009934
 21
4.0922543632
  0
LWPOLYLINE
  5
6A5
100
AcDbEntity
  8
0
100
AcDbPolyline
 62
7
  6
CONTINUOUS
 90
13
 70
0
 10
6.1818936806
 20
4.7030020708
 10
6.1817591253
 20
4.702794386
 10
6.1770464548
 20
4.7017546558
 10
6.165655011
 20
4.7007149305
 10
6.147723991
 20
4.6996752025
 10
6.123472572
 20
4.6986354728
 10
6.0931973775
 20
4.6975957471
 10
6.0572686326
 20
4.6965560268
 10
6.0161253619
 20
4.6955163054
 10
5.9702706639
 20
4.6944765862
 10
5.9202650057
 20
4.6934368669
 10
5.8667198079
 20
4.6923971498
 10
5.8102895205
 20
4.6913574324
  0
LINE
  5
6A6
100
AcDbEntity
  8
0
100
AcDbLine
 62
7
  6
CONTINUOUS
 10
6.2171009934
 20
4.6749021214
 11
6.2173267514
 21
4.675162888
  0
LINE
  5
6A7
100
AcDbEntity
  8
0
100
AcDbLine
 62
7
  6
CONTINUOUS
 10
6.2171009934
 20
4.6158470033
 11
6.2173267514
 21
4.6161077698
  0
LINE
  5
6A8
100
AcDbEntity
  8
0
100
AcDbLine
 62
7
  6
CONTINUOUS
 10
6.2171009934
 20
4.5567918852
 11
6.2173267514
 21
4.5570526517
  0
LWPOLYLINE
  5
6A9
100
AcDbEntity
  8
0
100
AcDbPolyline
 62
7
  6
CONTINUOUS
 90
13
 70
0
 10
6.1818936803
 20
4.4667818788
 10
6.1811372476
 20
4.4662891276
 10
6.174769447
 20
4.4652687914
 10
6.162055252
 20
4.4642522395
 10
6.1431058445
 20
4.4632344965
 10
6.1181965751
 20
4.462218295
 10
6.087546144
 20
4.4612006256
 10
6.05159438
 20
4.4601842538
 10
6.0104907321
 20
4.4591623502
 10
5.9646684085
 20
4.4581354378
 10
5.9149134359
 20
4.4571095198
 10
5.8621483393
 20
4.456090601
 10
5.806664153
 20
4.455071649
  0
LWPOLYLINE
  5
6AA
100
AcDbEntity
  8
0
100
AcDbPolyline
 62
7
  6
CONTINUOUS
 90
13
 70
0
 10
5.0795314759
 20
3.6802959721
 10
5.0802979439
 20
3.6807918735
 10
5.0866765155
 20
3.6818111652
 10
5.0994033121
 20
3.6828276467
 10
5.1183681756
 20
3.6838455084
 10
5.1432935476
 20
3.6848618228
 10
5.1739609199
 20
3.6858796146
 10
5.2099193484
 20
3.6868958294
 10
5.250890116
 20
3.6879143516
 10
5.2965936311
 20
3.6889388097
 10
5.3462682477
 20
3.6899633783
 10
5.399005002
 20
3.6909820357
 10
5.4545184108
 20
3.6920017299
  0
LWPOLYLINE
  5
6AB
100
AcDbEntity
  8
0
100
AcDbPolyline
 62
7
  6
CONTINUOUS
 90
13
 70
0
 10
5.0795314759
 20
3.7393512352
 10
5.0803488014
 20
3.7398631779
 10
5.0868772835
 20
3.7408874679
 10
5.0997499505
 20
3.7419048844
 10
5.1189012826
 20
3.7429252001
 10
5.144086634
 20
3.7439458232
 10
5.1748613397
 20
3.7449621055
 10
5.2109355872
 20
3.7459777329
 10
5.2519929536
 20
3.7469953871
 10
5.2974283971
 20
3.7480118129
 10
5.3468135848
 20
3.7490293492
 10
5.3994718107
 20
3.7500459249
 10
5.4548391318
 20
3.7510626193
  0
LWPOLYLINE
  5
6AC
100
AcDbEntity
  8
0
100
AcDbPolyline
 62
7
  6
CONTINUOUS
 90
13
 70
0
 10
6.1818936806
 20
4.4077264758
 10
6.1810522868
 20
4.407207082
 10
6.1745374969
 20
4.4061891895
 10
6.161674254
 20
4.4051727996
 10
6.1425429374
 20
4.4041534203
 10
6.1174180718
 20
4.4031348107
 10
6.0866665132
 20
4.402118755
 10
6.0505958447
 20
4.4011028085
 10
6.0095490327
 20
4.4000850997
 10
5.96412212
 20
4.3990686157
 10
5.9147439633
 20
4.3980510292
 10
5.8620905544
 20
4.3970343972
 10
5.8067650911
 20
4.3960183472
  0
LINE
  5
6AD
100
AcDbEntity
  8
0
100
AcDbLine
 62
7
  6
CONTINUOUS
 10
5.0797717285
 20
3.7879252607
 11
5.044324163
 21
3.7674512136
  0
LINE
  5
6AE
100
AcDbEntity
  8
0
100
AcDbLine
 62
7
  6
CONTINUOUS
 10
6.1816534279
 20
4.4182076018
 11
6.2171009934
 21
4.4386816489
  0
LINE
  5
6AF
100
AcDbEntity
  8
0
100
AcDbLine
 62
7
  6
CONTINUOUS
 10
5.0797717285
 20
3.7288701426
 11
5.044324163
 21
3.7083960955
  0
LINE
  5
6B0
100
AcDbEntity
  8
0
100
AcDbLine
 62
7
  6
CONTINUOUS
 10
6.1816534279
 20
4.3591524837
 11
6.2171009934
 21
4.3796265308
  0
LINE
  5
6B1
100
AcDbEntity
  8
0
100
AcDbLine
 62
7
  6
CONTINUOUS
 10
5.044324163
 20
3.8265063317
 11
5.0447427484
 21
3.8266861351
  0
LWPOLYLINE
  5
6B2
100
AcDbEntity
  8
0
100
AcDbPolyline
 62
7
  6
CONTINUOUS
 90
13
 70
0
 10
5.044098405
 20
3.8779187935
 10
5.0465767228
 20
3.8787830604
 10
5.0559157168
 20
3.8798085573
 10
5.0720906278
 20
3.8808340541
 10
5.0949090918
 20
3.8818595509
 10
5.1240997342
 20
3.8828850477
 10
5.1593153981
 20
3.8839105445
 10
5.2001372722
 20
3.8849360413
 10
5.246079872
 20
3.8859615381
 10
5.2965968136
 20
3.8869870349
 10
5.3510873115
 20
3.8880125318
 10
5.4089033236
 20
3.8890380286
 10
5.4693572584
 20
3.8900635254
  0
LWPOLYLINE
  5
6B3
100
AcDbEntity
  8
0
100
AcDbPolyline
 62
7
  6
CONTINUOUS
 90
13
 70
0
 10
5.044324163
 20
4.6532779853
 10
5.0485983774
 20
4.6541821474
 10
5.0599448689
 20
4.6552068203
 10
5.0780684682
 20
4.6562314932
 10
5.1027539816
 20
4.6572561662
 10
5.1337083014
 20
4.6582808391
 10
5.1705638863
 20
4.659305512
 10
5.2128831251
 20
4.660330185
 10
5.2601635332
 20
4.6613548579
 10
5.3118437186
 20
4.6623795309
 10
5.3673100479
 20
4.6634042038
 10
5.4259039319
 20
4.6644288767
 10
5.4869296464
 20
4.6654535497
  0
LWPOLYLINE
  5
6B4
100
AcDbEntity
  8
0
100
AcDbPolyline
 62
7
  6
CONTINUOUS
 90
12
 70
0
 10
5.0449827881
 20
4.7125885049
 10
5.0519636094
 20
4.7136131778
 10
5.0658163054
 20
4.7146378508
 10
5.0863763935
 20
4.7156625237
 10
5.1133997503
 20
4.7166871967
 10
5.1465655091
 20
4.7177118696
 10
5.1854798707
 20
4.7187365425
 10
5.2296807788
 20
4.7197612155
 10
5.2786434064
 20
4.7207858884
 10
5.3317863873
 20
4.7218105614
 10
5.3884787194
 20
4.7228352343
 10
5.4480472565
 20
4.7238599072
  0
LWPOLYLINE
  5
6B5
100
AcDbEntity
  8
0
100
AcDbPolyline
 62
7
  6
CONTINUOUS
 90
12
 70
0
 10
6.6543346255
 20
4.8013591383
 10
6.6685636141
 20
4.8024217776
 10
6.6821087429
 20
4.8058719503
 10
6.6943973194
 20
4.81192825
 10
6.7050863667
 20
4.820617661
 10
6.7137904212
 20
4.8314938935
 10
6.7205766951
 20
4.8441053346
 10
6.7256438881
 20
4.8580485858
 10
6.729212083
 20
4.8729437685
 10
6.7315373087
 20
4.8887672738
 10
6.7327825084
 20
4.9055159946
 10
6.7330747829
 20
4.9194693745
  0
LWPOLYLINE
  5
6B6
100
AcDbEntity
  8
0
100
AcDbPolyline
 62
7
  6
CONTINUOUS
 90
11
 70
0
 10
5.3516692561
 20
4.7423040202
 10
5.3009007886
 20
4.7412643004
 10
5.2541640997
 20
4.7402245798
 10
5.2120305385
 20
4.7391848584
 10
5.1750151845
 20
4.7381451362
 10
5.14357055
 20
4.7371054132
 10
5.1180810483
 20
4.7360656896
 10
5.0988582935
 20
4.7350259652
 10
5.086137291
 20
4.7339862402
 10
5.080073564
 20
4.7329465146
 10
5.0797717285
 20
4.7328071505
  0
LWPOLYLINE
  5
6B7
100
AcDbEntity
  8
0
100
AcDbPolyline
 62
7
  6
CONTINUOUS
 90
13
 70
0
 10
5.4549191874
 20
4.6851873072
 10
5.3995121513
 20
4.6841699302
 10
5.3469048596
 20
4.6831544124
 10
5.2975269178
 20
4.6821371695
 10
5.2518690597
 20
4.6811157263
 10
5.210737461
 20
4.6800957653
 10
5.1746124636
 20
4.6790777988
 10
5.1436438589
 20
4.6780529665
 10
5.1184264301
 20
4.6770265671
 10
5.0993817177
 20
4.676004628
 10
5.0866670354
 20
4.6749885232
 10
5.0802992909
 20
4.6739706745
 10
5.0797717285
 20
4.6737520324
  0
LWPOLYLINE
  5
6B8
100
AcDbEntity
  8
0
100
AcDbPolyline
 62
7
  6
CONTINUOUS
 90
12
 70
0
 10
5.8088612566
 20
4.7020903261
 10
5.8648985341
 20
4.703121455
 10
5.9181198933
 20
4.7041525808
 10
5.9678858751
 20
4.7051837124
 10
6.01359771
 20
4.7062148421
 10
6.0547056666
 20
4.7072459662
 10
6.0907157849
 20
4.7082770916
 10
6.1211951006
 20
4.7093082193
 10
6.1457770345
 20
4.7103393458
 10
6.1641660937
 20
4.7113704744
 10
6.1761411075
 20
4.7124016018
 10
6.1816534279
 20
4.7134831924
  0
LINE
  5
6B9
100
AcDbEntity
  8
0
100
AcDbLine
 62
7
  6
CONTINUOUS
 10
5.8102895205
 20
4.6913574324
 11
5.6915601998
 21
4.6892780032
  0
LINE
  5
6BA
100
AcDbEntity
  8
0
100
AcDbLine
 62
7
  6
CONTINUOUS
 10
5.4549199698
 20
4.6959459636
 11
5.5711891111
 21
4.6979799373
  0
LWPOLYLINE
  5
6BB
100
AcDbEntity
  8
0
100
AcDbPolyline
 62
7
  6
CONTINUOUS
 90
11
 70
0
 10
5.8249396844
 20
4.7300079449
 10
5.8840128203
 20
4.7310326178
 10
5.9400783525
 20
4.7320572908
 10
5.9924705775
 20
4.7330819637
 10
6.0405674071
 20
4.7341066366
 10
6.0837977556
 20
4.7351313096
 10
6.1216483199
 20
4.7361559825
 10
6.1536696749
 20
4.7371806555
 10
6.1794816096
 20
4.7382053284
 10
6.1987776417
 20
4.7392300013
 10
6.2113286563
 20
4.7402546743
  0
LWPOLYLINE
  5
6BC
100
AcDbEntity
  8
0
100
AcDbPolyline
 62
7
  6
CONTINUOUS
 90
3
 70
0
 10
5.6915601998
 20
4.6892780032
 10
5.5711888561
 20
4.6872212906
 10
5.4549191874
 20
4.6851873072
  0
LWPOLYLINE
  5
6BD
100
AcDbEntity
  8
0
100
AcDbPolyline
 62
7
  6
CONTINUOUS
 90
3
 70
0
 10
5.5711891111
 20
4.6979799373
 10
5.6910596061
 20
4.7000280572
 10
5.8088612566
 20
4.7020903261
  0
LWPOLYLINE
  5
6BE
100
AcDbEntity
  8
0
100
AcDbPolyline
 62
7
  6
CONTINUOUS
 90
13
 70
0
 10
5.781399595
 20
4.7218959534
 10
5.8419409571
 20
4.7229163567
 10
5.8999951001
 20
4.7239367601
 10
5.9548784351
 20
4.7249571634
 10
6.0059447096
 20
4.7259775667
 10
6.0525926169
 20
4.7269979701
 10
6.0942728768
 20
4.7280183734
 10
6.1304947034
 20
4.7290387767
 10
6.1608315837
 20
4.7300591801
 10
6.1849263003
 20
4.7310795834
 10
6.2024951373
 20
4.7320999868
 10
6.2133312213
 20
4.7331203901
 10
6.2171009934
 20
4.7339572395
  0
LINE
  5
6BF
100
AcDbEntity
  8
0
100
AcDbLine
 62
7
  6
CONTINUOUS
 10
5.7006036445
 20
4.727958599
 11
5.8249396844
 21
4.7300079449
  0
LWPOLYLINE
  5
6C0
100
AcDbEntity
  8
0
100
AcDbPolyline
 62
7
  6
CONTINUOUS
 90
3
 70
0
 10
5.4480472565
 20
4.7238599072
 10
5.5729580042
 20
4.7259092531
 10
5.7006036445
 20
4.727958599
  0
LINE
  5
6C1
100
AcDbEntity
  8
0
100
AcDbLine
 62
7
  6
CONTINUOUS
 10
5.4668840592
 20
4.7167939367
 11
5.781399595
 21
4.7218959534
  0
LINE
  5
6C2
100
AcDbEntity
  8
0
100
AcDbLine
 62
7
  6
CONTINUOUS
 10
6.2163270284
 20
4.7423040202
 11
5.079531477
 21
4.7423040202
  0
LINE
  5
6C3
100
AcDbEntity
  8
0
100
AcDbLine
 62
9
  6
CONTINUOUS
 10
6.1842666944
 20
4.7754508681
 11
5.077158462
 21
4.7754508681
  0
LINE
  5
6C4
100
AcDbEntity
  8
0
100
AcDbLine
 62
7
  6
CONTINUOUS
 10
4.607090531
 20
4.8013591383
 11
6.6543346255
 21
4.8013591383
  0
LINE
  5
6C5
100
AcDbEntity
  8
0
100
AcDbLine
 62
7
  6
CONTINUOUS
 10
6.2171009934
 20
4.4465850719
 11
6.1819537746
 21
4.4668856396
  0
LINE
  5
6C6
100
AcDbEntity
  8
0
100
AcDbLine
 62
7
  6
CONTINUOUS
 10
6.2171009934
 20
4.50564019
 11
6.1819537746
 21
4.5259407577
  0
LINE
  5
6C7
100
AcDbEntity
  8
0
100
AcDbLine
 62
7
  6
CONTINUOUS
 10
6.2173267514
 20
4.1510487147
 11
6.2171009934
 21
4.1513094813
  0
LINE
  5
6C8
100
AcDbEntity
  8
0
100
AcDbLine
 62
7
  6
CONTINUOUS
 10
6.2173267514
 20
4.269158951
 11
6.2171009934
 21
4.2694197175
  0
LINE
  5
6C9
100
AcDbEntity
  8
0
100
AcDbLine
 62
7
  6
CONTINUOUS
 10
6.1842666944
 20
4.7754508681
 11
6.1722058317
 21
4.7423040202
  0
LINE
  5
6CA
100
AcDbEntity
  8
0
100
AcDbLine
 62
7
  6
CONTINUOUS
 10
5.3970131741
 20
3.4019838124
 11
5.3968543105
 21
3.4017528391
  0
LINE
  5
6CB
100
AcDbEntity
  8
0
100
AcDbLine
 62
7
  6
CONTINUOUS
 10
5.3970131741
 20
3.3626137337
 11
5.3968543105
 21
3.3623827603
  0
LINE
  5
6CC
100
AcDbEntity
  8
0
100
AcDbLine
 62
7
  6
CONTINUOUS
 10
5.3970131741
 20
3.3232436549
 11
5.3968543105
 21
3.3230126816
  0
LINE
  5
6CD
100
AcDbEntity
  8
0
100
AcDbLine
 62
7
  6
CONTINUOUS
 10
5.3970131741
 20
3.2838735762
 11
5.3968543105
 21
3.2836426028
  0
LINE
  5
6CE
100
AcDbEntity
  8
0
100
AcDbLine
 62
7
  6
CONTINUOUS
 10
5.3970131741
 20
3.2445034974
 11
5.3968543105
 21
3.2442725241
  0
LINE
  5
6CF
100
AcDbEntity
  8
0
100
AcDbLine
 62
7
  6
CONTINUOUS
 10
6.2171009934
 20
4.497736767
 11
6.2173267514
 21
4.4979975336
  0
LINE
  5
6D0
100
AcDbEntity
  8
0
100
AcDbLine
 62
7
  6
CONTINUOUS
 10
6.2171009934
 20
4.4386816489
 11
6.2173267514
 21
4.4389424155
  0
LINE
  5
6D1
100
AcDbEntity
  8
0
100
AcDbLine
 62
7
  6
CONTINUOUS
 10
6.2171009934
 20
4.3796265308
 11
6.2173267514
 21
4.3798872974
  0
LWPOLYLINE
  5
6D2
100
AcDbEntity
  8
0
100
AcDbPolyline
 62
7
  6
CONTINUOUS
 90
13
 70
0
 10
6.1818936806
 20
4.2305611729
 10
6.1810891144
 20
4.2300532246
 10
6.1746502529
 20
4.2290356886
 10
6.1618732213
 20
4.2280201184
 10
6.1428671131
 20
4.2270029931
 10
6.117911776
 20
4.2259874266
 10
6.0872248542
 20
4.2249703686
 10
6.0512562499
 20
4.2239548565
 10
6.0103728983
 20
4.2229391057
 10
5.964791428
 20
4.2219176026
 10
5.9152172806
 20
4.2208950957
 10
5.8625431168
 20
4.2198775473
 10
5.8070450085
 20
4.2188580304
  0
LWPOLYLINE
  5
6D3
100
AcDbEntity
  8
0
100
AcDbPolyline
 62
7
  6
CONTINUOUS
 90
13
 70
0
 10
6.1818936804
 20
4.2896160116
 10
6.1810470156
 20
4.2890952209
 10
6.1745114561
 20
4.2880762286
 10
6.1616412625
 20
4.2870604679
 10
6.1425258004
 20
4.2860423966
 10
6.1174547175
 20
4.2850259061
 10
6.0866458884
 20
4.2840078928
 10
6.0505474625
 20
4.2829912988
 10
6.0094657199
 20
4.2819729077
 10
5.9639844094
 20
4.2809554309
 10
5.9146252901
 20
4.2799384319
 10
5.8619661426
 20
4.2789218237
 10
5.8065469732
 20
4.2779041862
  0
LINE
  5
6D4
100
AcDbEntity
  8
0
100
AcDbLine
 62
7
  6
CONTINUOUS
 10
6.1816534279
 20
4.3000973656
 11
6.2171009934
 21
4.3205714127
  0
LINE
  5
6D5
100
AcDbEntity
  8
0
100
AcDbLine
 62
7
  6
CONTINUOUS
 10
6.1816534279
 20
4.2410422475
 11
6.2171009934
 21
4.2615162946
  0
LWPOLYLINE
  5
6D6
100
AcDbEntity
  8
0
100
AcDbPolyline
 62
7
  6
CONTINUOUS
 90
13
 70
0
 10
5.044098405
 20
3.7007534391
 10
5.0453687809
 20
3.7013721118
 10
5.0530510754
 20
3.7023976086
 10
5.0676033555
 20
3.7034231054
 10
5.0888525544
 20
3.7044486022
 10
5.1165459608
 20
3.7054740991
 10
5.1503542238
 20
3.7064995959
 10
5.18987527
 20
3.7075250927
 10
5.2346390854
 20
3.7085505895
 10
5.284113305
 20
3.7095760863
 10
5.3377095442
 20
3.7106015831
 10
5.3947903961
 20
3.7116270799
 10
5.4546770122
 20
3.7126525767
  0
LINE
  5
6D7
100
AcDbEntity
  8
0
100
AcDbLine
 62
7
  6
CONTINUOUS
 10
6.2165501383
 20
4.2612933716
 11
6.2171009934
 21
4.2615162946
  0
LWPOLYLINE
  5
6D8
100
AcDbEntity
  8
0
100
AcDbPolyline
 62
7
  6
CONTINUOUS
 90
13
 70
0
 10
5.044098405
 20
3.7598085573
 10
5.0477022457
 20
3.760850927
 10
5.0582387391
 20
3.7618764238
 10
5.0755835224
 20
3.7629019206
 10
5.0995303184
 20
3.7639274174
 10
5.1297943339
 20
3.7649529142
 10
5.1660156463
 20
3.765978411
 10
5.2077634845
 20
3.7670039078
 10
5.2545413518
 20
3.7680294046
 10
5.3057929306
 20
3.7690549015
 10
5.3609086985
 20
3.7700803983
 10
5.4192331774
 20
3.7711058951
 10
5.4800727284
 20
3.7721313919
  0
LINE
  5
6D9
100
AcDbEntity
  8
0
100
AcDbLine
 62
9
  6
CONTINUOUS
 10
4.5283503735
 20
4.9194693745
 11
6.7330747829
 21
4.9194693745
  0
LINE
  5
6DA
100
AcDbEntity
  8
0
100
AcDbLine
 62
7
  6
CONTINUOUS
 10
6.2171009934
 20
4.5646953081
 11
6.1819537746
 21
4.5849958758
  0
LINE
  5
6DB
100
AcDbEntity
  8
0
100
AcDbLine
 62
7
  6
CONTINUOUS
 10
6.2171009934
 20
4.6237504262
 11
6.1819537746
 21
4.6440509939
  0
LINE
  5
6DC
100
AcDbEntity
  8
0
100
AcDbLine
 62
7
  6
CONTINUOUS
 10
6.2173267514
 20
4.3282140691
 11
6.2171009934
 21
4.3284748357
  0
LINE
  5
6DD
100
AcDbEntity
  8
0
100
AcDbLine
 62
7
  6
CONTINUOUS
 10
6.2173267514
 20
4.3872691872
 11
6.2171009934
 21
4.3875299538
  0
LINE
  5
6DE
100
AcDbEntity
  8
0
100
AcDbLine
 62
7
  6
CONTINUOUS
 10
6.2173267514
 20
4.4463243053
 11
6.2171009934
 21
4.4465850719
  0
LINE
  5
6DF
100
AcDbEntity
  8
0
100
AcDbLine
 62
7
  6
CONTINUOUS
 10
6.2173267514
 20
4.5053794234
 11
6.2171009934
 21
4.50564019
  0
LWPOLYLINE
  5
6E0
100
AcDbEntity
  8
0
100
AcDbPolyline
 62
7
  6
CONTINUOUS
 90
3
 70
0
 10
6.2173267514
 20
4.2101038328
 10
6.2172804349
 20
4.2102219431
 10
6.2171009934
 20
4.2103645994
  0
LINE
  5
6E1
100
AcDbEntity
  8
02___PRT_ALL_AXES
100
AcDbLine
 62
7
  6
CONTINUOUS
 10
6.1818936806
 20
4.7137607131
 11
6.1818936806
 21
4.7030020707
  0
LINE
  5
6E2
100
AcDbEntity
  8
02___PRT_ALL_AXES
100
AcDbLine
 62
7
  6
CONTINUOUS
 10
6.1818936806
 20
4.654705595
 11
6.1818936806
 21
4.6439469526
  0
LINE
  5
6E3
100
AcDbEntity
  8
02___PRT_ALL_AXES
100
AcDbLine
 62
7
  6
CONTINUOUS
 10
6.1818936806
 20
4.5956504768
 11
6.1818936806
 21
4.5848918345
  0
LINE
  5
6E4
100
AcDbEntity
  8
02___PRT_ALL_AXES
100
AcDbLine
 62
7
  6
CONTINUOUS
 10
6.1818936806
 20
4.5365953587
 11
6.1818936806
 21
4.5258367164
  0
LINE
  5
6E5
100
AcDbEntity
  8
02___PRT_ALL_AXES
100
AcDbLine
 62
7
  6
CONTINUOUS
 10
6.1818936806
 20
4.4775402406
 11
6.1818936806
 21
4.4667815983
  0
LINE
  5
6E6
100
AcDbEntity
  8
02___PRT_ALL_AXES
100
AcDbLine
 62
7
  6
CONTINUOUS
 10
6.1818936806
 20
4.4184851225
 11
6.1818936806
 21
4.4077264802
  0
LINE
  5
6E7
100
AcDbEntity
  8
02___PRT_ALL_AXES
100
AcDbLine
 62
7
  6
CONTINUOUS
 10
6.1818936806
 20
4.3594300044
 11
6.1818936806
 21
4.3486713621
  0
LINE
  5
6E8
100
AcDbEntity
  8
02___PRT_ALL_AXES
100
AcDbLine
 62
7
  6
CONTINUOUS
 10
6.1818936806
 20
4.3003748863
 11
6.1818936806
 21
4.289616244
  0
LINE
  5
6E9
100
AcDbEntity
  8
02___PRT_ALL_AXES
100
AcDbLine
 62
7
  6
CONTINUOUS
 10
6.1818936806
 20
4.2413197682
 11
6.1818936806
 21
4.2305611258
  0
LINE
  5
6EA
100
AcDbEntity
  8
02___PRT_ALL_AXES
100
AcDbLine
 62
7
  6
CONTINUOUS
 10
6.1818936806
 20
4.1822646501
 11
6.1818936806
 21
4.1715060077
  0
LINE
  5
6EB
100
AcDbEntity
  8
02___PRT_ALL_AXES
100
AcDbLine
 62
7
  6
CONTINUOUS
 10
6.1818936806
 20
4.123209532
 11
6.1818936806
 21
4.1124508896
  0
LINE
  5
6EC
100
AcDbEntity
  8
02___PRT_ALL_AXES
100
AcDbLine
 62
7
  6
CONTINUOUS
 10
6.1818936806
 20
4.0641544139
 11
6.1818936806
 21
4.0533957715
  0
LINE
  5
6ED
100
AcDbEntity
  8
02___PRT_ALL_AXES
100
AcDbLine
 62
7
  6
CONTINUOUS
 10
6.1818936806
 20
4.0050992957
 11
6.1818936806
 21
3.9943406534
  0
LINE
  5
6EE
100
AcDbEntity
  8
02___PRT_ALL_AXES
100
AcDbLine
 62
7
  6
CONTINUOUS
 10
6.1818936806
 20
3.9460441776
 11
6.1818936806
 21
3.9352855353
  0
LINE
  5
6EF
100
AcDbEntity
  8
02___PRT_ALL_AXES
100
AcDbLine
 62
7
  6
CONTINUOUS
 10
6.1818936806
 20
3.8869890595
 11
6.1818936806
 21
3.8762304172
  0
LINE
  5
6F0
100
AcDbEntity
  8
02___PRT_ALL_AXES
100
AcDbLine
 62
7
  6
CONTINUOUS
 10
6.1818936806
 20
3.8279339414
 11
6.1818936806
 21
3.8171752991
  0
LINE
  5
6F1
100
AcDbEntity
  8
02___PRT_ALL_AXES
100
AcDbLine
 62
7
  6
CONTINUOUS
 10
6.1818936806
 20
3.7688788233
 11
6.1818936806
 21
3.758120181
  0
LINE
  5
6F2
100
AcDbEntity
  8
02___PRT_ALL_AXES
100
AcDbLine
 62
7
  6
CONTINUOUS
 10
6.1818936806
 20
3.7098237052
 11
6.1818936806
 21
3.6655323666
  0
LINE
  5
6F3
100
AcDbEntity
  8
0
100
AcDbLine
 62
7
  6
CONTINUOUS
 10
6.2173267514
 20
3.7302809982
 11
6.2173267514
 21
3.737662888
  0
LINE
  5
6F4
100
AcDbEntity
  8
0
100
AcDbLine
 62
7
  6
CONTINUOUS
 10
6.2173267514
 20
3.7893361163
 11
6.2173267514
 21
3.7967180061
  0
LINE
  5
6F5
100
AcDbEntity
  8
0
100
AcDbLine
 62
7
  6
CONTINUOUS
 10
6.2173267514
 20
3.8483912344
 11
6.2173267514
 21
3.8557731242
  0
LINE
  5
6F6
100
AcDbEntity
  8
0
100
AcDbLine
 62
7
  6
CONTINUOUS
 10
6.2173267514
 20
3.9074463525
 11
6.2173267514
 21
3.9148282423
  0
LINE
  5
6F7
100
AcDbEntity
  8
0
100
AcDbLine
 62
7
  6
CONTINUOUS
 10
6.2173267514
 20
3.9665014706
 11
6.2173267514
 21
3.9738833604
  0
LINE
  5
6F8
100
AcDbEntity
  8
0
100
AcDbLine
 62
7
  6
CONTINUOUS
 10
6.2173267514
 20
4.0255565887
 11
6.2173267514
 21
4.0329384785
  0
LINE
  5
6F9
100
AcDbEntity
  8
0
100
AcDbLine
 62
7
  6
CONTINUOUS
 10
6.2173267514
 20
4.0846117069
 11
6.2173267514
 21
4.0919935966
  0
LINE
  5
6FA
100
AcDbEntity
  8
0
100
AcDbLine
 62
7
  6
CONTINUOUS
 10
6.2173267514
 20
4.143666825
 11
6.2173267514
 21
4.1510487147
  0
LINE
  5
6FB
100
AcDbEntity
  8
0
100
AcDbLine
 62
7
  6
CONTINUOUS
 10
6.2173267514
 20
4.2027219431
 11
6.2173267514
 21
4.2101038328
  0
LINE
  5
6FC
100
AcDbEntity
  8
0
100
AcDbLine
 62
7
  6
CONTINUOUS
 10
6.2173267514
 20
4.2617770612
 11
6.2173267514
 21
4.269158951
  0
LINE
  5
6FD
100
AcDbEntity
  8
0
100
AcDbLine
 62
7
  6
CONTINUOUS
 10
6.2173267514
 20
4.3208321793
 11
6.2173267514
 21
4.3282140691
  0
LINE
  5
6FE
100
AcDbEntity
  8
0
100
AcDbLine
 62
7
  6
CONTINUOUS
 10
6.2173267514
 20
4.3798872974
 11
6.2173267514
 21
4.3872691872
  0
LINE
  5
6FF
100
AcDbEntity
  8
0
100
AcDbLine
 62
7
  6
CONTINUOUS
 10
6.2173267514
 20
4.4389424155
 11
6.2173267514
 21
4.4463243053
  0
LINE
  5
700
100
AcDbEntity
  8
0
100
AcDbLine
 62
7
  6
CONTINUOUS
 10
6.2173267514
 20
4.4979975336
 11
6.2173267514
 21
4.5053794234
  0
LINE
  5
701
100
AcDbEntity
  8
0
100
AcDbLine
 62
7
  6
CONTINUOUS
 10
6.2173267514
 20
4.5570526517
 11
6.2173267514
 21
4.5644345415
  0
LINE
  5
702
100
AcDbEntity
  8
0
100
AcDbLine
 62
7
  6
CONTINUOUS
 10
6.2173267514
 20
4.6161077698
 11
6.2173267514
 21
4.6234896596
  0
LINE
  5
703
100
AcDbEntity
  8
0
100
AcDbLine
 62
7
  6
CONTINUOUS
 10
6.2173267514
 20
4.675162888
 11
6.2173267514
 21
4.6825447777
  0
LINE
  5
704
100
AcDbEntity
  8
0
100
AcDbLine
 62
7
  6
CONTINUOUS
 10
6.2173267514
 20
4.7342180061
 11
6.2173267514
 21
4.7415998958
  0
LWPOLYLINE
  5
705
100
AcDbEntity
  8
0
100
AcDbPolyline
 62
7
  6
CONTINUOUS
 90
13
 70
0
 10
6.1818936806
 20
4.3486714074
 10
6.181769298
 20
4.3484716826
 10
6.1771156512
 20
4.3474328959
 10
6.1658077806
 20
4.3463950589
 10
6.1480040751
 20
4.3453583004
 10
6.123790878
 20
4.3443168941
 10
6.0934603725
 20
4.3432732878
 10
6.0575838791
 20
4.342233811
 10
6.0163897934
 20
4.3411919064
 10
5.9702292397
 20
4.3401449808
 10
5.9199289729
 20
4.3390994255
 10
5.8664300439
 20
4.3380609741
 10
5.8100548326
 20
4.3370224912
  0
LINE
  5
706
100
AcDbEntity
  8
0
100
AcDbLine
 62
7
  6
CONTINUOUS
 10
5.3970131741
 20
3.2051334187
 11
5.3968543105
 21
3.2049024454
  0
LINE
  5
707
100
AcDbEntity
  8
0
100
AcDbLine
 62
7
  6
CONTINUOUS
 10
5.3970131741
 20
3.16576334
 11
5.3968543105
 21
3.1655323666
  0
LINE
  5
708
100
AcDbEntity
  8
0
100
AcDbLine
 62
7
  6
CONTINUOUS
 10
5.3970131741
 20
3.1263932612
 11
5.3968543105
 21
3.1261622879
  0
LINE
  5
709
100
AcDbEntity
  8
0
100
AcDbLine
 62
7
  6
CONTINUOUS
 10
6.2171009934
 20
4.3205714127
 11
6.2173267514
 21
4.3208321793
  0
LINE
  5
70A
100
AcDbEntity
  8
0
100
AcDbLine
 62
7
  6
CONTINUOUS
 10
6.2171009934
 20
4.2615162946
 11
6.2173267514
 21
4.2617770612
  0
LINE
  5
70B
100
AcDbEntity
  8
0
100
AcDbLine
 62
7
  6
CONTINUOUS
 10
6.2171009934
 20
4.2024611765
 11
6.2173267514
 21
4.2027219431
  0
LWPOLYLINE
  5
70C
100
AcDbEntity
  8
0
100
AcDbPolyline
 62
7
  6
CONTINUOUS
 90
13
 70
0
 10
6.1818936805
 20
4.1715061518
 10
6.1810925455
 20
4.1709991909
 10
6.1746039218
 20
4.1699756889
 10
6.1617653624
 20
4.1689581226
 10
6.1426253055
 20
4.1679367349
 10
6.1174111561
 20
4.166914087
 10
6.0865933899
 20
4.1658960636
 10
6.0505239666
 20
4.1648804443
 10
6.0094618108
 20
4.1638625798
 10
5.9640193213
 20
4.1628459421
 10
5.9146252156
 20
4.1618281942
 10
5.861956497
 20
4.1608114063
 10
5.8065444478
 20
4.1597939046
  0
LWPOLYLINE
  5
70D
100
AcDbEntity
  8
0
100
AcDbPolyline
 62
7
  6
CONTINUOUS
 90
13
 70
0
 10
6.1818936806
 20
4.1124508876
 10
6.1810725776
 20
4.1119377941
 10
6.1746031526
 20
4.1109204899
 10
6.1617960668
 20
4.1099049605
 10
6.1427848717
 20
4.1088889643
 10
6.117785793
 20
4.1078725986
 10
6.0870139965
 20
4.1068537191
 10
6.0509884696
 20
4.1058375594
 10
6.010014707
 20
4.1048204475
 10
5.9646591502
 20
4.1038045307
 10
5.9153526056
 20
4.1027875539
 10
5.8627673915
 20
4.101771527
 10
5.8074105637
 20
4.1007543743
  0
LINE
  5
70E
100
AcDbEntity
  8
0
100
AcDbLine
 62
7
  6
CONTINUOUS
 10
6.1816534279
 20
4.1819871294
 11
6.2171009934
 21
4.2024611765
  0
LINE
  5
70F
100
AcDbEntity
  8
0
100
AcDbLine
 62
7
  6
CONTINUOUS
 10
6.1816534279
 20
4.1229320113
 11
6.2171009934
 21
4.1434060584
  0
LINE
  5
710
100
AcDbEntity
  8
0
100
AcDbLine
 62
7
  6
CONTINUOUS
 10
6.1816534279
 20
4.0638768931
 11
6.2171009934
 21
4.0843509403
  0
LINE
  5
711
100
AcDbEntity
  8
0
100
AcDbLine
 62
7
  6
CONTINUOUS
 10
5.044324163
 20
3.7083960955
 11
5.0453687809
 21
3.7087540016
  0
LINE
  5
712
100
AcDbEntity
  8
0
100
AcDbLine
 62
7
  6
CONTINUOUS
 10
6.2171009934
 20
4.6828055443
 11
6.1819537746
 21
4.703106112
  0
LINE
  5
713
100
AcDbEntity
  8
0
100
AcDbLine
 62
7
  6
CONTINUOUS
 10
6.2171009934
 20
4.7418606624
 11
6.2163333712
 21
4.7423040202
  0
LINE
  5
714
100
AcDbEntity
  8
0
100
AcDbLine
 62
7
  6
CONTINUOUS
 10
6.2173267514
 20
4.5644345415
 11
6.2171009934
 21
4.5646953081
  0
LINE
  5
715
100
AcDbEntity
  8
0
100
AcDbLine
 62
7
  6
CONTINUOUS
 10
6.2173267514
 20
4.6234896596
 11
6.2171009934
 21
4.6237504262
  0
LINE
  5
716
100
AcDbEntity
  8
0
100
AcDbLine
 62
7
  6
CONTINUOUS
 10
6.2173267514
 20
4.6825447777
 11
6.2171009934
 21
4.6828055443
  0
LWPOLYLINE
  5
717
100
AcDbEntity
  8
0
100
AcDbPolyline
 62
7
  6
CONTINUOUS
 90
8
 70
0
 10
6.1818936805
 20
3.9352856674
 10
6.1818482786
 20
3.9351648968
 10
6.1780020795
 20
3.934167989
 10
6.1680484263
 20
3.9331744329
 10
6.1520692797
 20
3.9321794784
 10
6.1301141765
 20
3.9311789157
 10
6.1025016248
 20
3.9301782466
 10
6.0697448165
 20
3.9291831731
  0
LINE
  5
718
100
AcDbEntity
  8
0
100
AcDbLine
 62
7
  6
CONTINUOUS
 10
6.2171009934
 20
4.1434060584
 11
6.2173267514
 21
4.143666825
  0
LINE
  5
719
100
AcDbEntity
  8
0
100
AcDbLine
 62
7
  6
CONTINUOUS
 10
6.2171009934
 20
4.0843509403
 11
6.2173267514
 21
4.0846117069
  0
LWPOLYLINE
  5
71A
100
AcDbEntity
  8
0
100
AcDbPolyline
 62
7
  6
CONTINUOUS
 90
3
 70
0
 10
6.2171009934
 20
4.0252958222
 10
6.2172727914
 20
4.0254291047
 10
6.2173267514
 20
4.0255565887
  0
LINE
  5
71B
100
AcDbEntity
  8
0
100
AcDbLine
 62
7
  6
CONTINUOUS
 10
5.4227721998
 20
3.420713135
 11
5.3970131741
 21
3.4019838124
  0
LWPOLYLINE
  5
71C
100
AcDbEntity
  8
0
100
AcDbPolyline
 62
7
  6
CONTINUOUS
 90
13
 70
0
 10
6.1818936806
 20
4.0533957763
 10
6.1811278571
 20
4.0529002527
 10
6.1747647503
 20
4.051882465
 10
6.1620488008
 20
4.050865999
 10
6.1429829696
 20
4.049842988
 10
6.1177416541
 20
4.0488158727
 10
6.086753824
 20
4.0477906967
 10
6.0506197639
 20
4.0467727295
 10
6.0094932689
 20
4.0457530819
 10
5.9638610858
 20
4.0447323185
 10
5.9145112594
 20
4.043715691
 10
5.8619004213
 20
4.0427001167
 10
5.8064958613
 20
4.0416827942
  0
LWPOLYLINE
  5
71D
100
AcDbEntity
  8
0
100
AcDbPolyline
 62
7
  6
CONTINUOUS
 90
13
 70
0
 10
6.1818936804
 20
3.9943404341
 10
6.1810393708
 20
3.9938172828
 10
6.1745161628
 20
3.9928011301
 10
6.1616457262
 20
3.9917851607
 10
6.1425365972
 20
3.9907673021
 10
6.1174742288
 20
3.9897510247
 10
6.0866762964
 20
3.9887332251
 10
6.0505943469
 20
3.9877169423
 10
6.0096191573
 20
3.9867009193
 10
5.964144952
 20
3.9856832779
 10
5.9146245806
 20
3.9846628272
 10
5.8619214445
 20
3.9836453935
 10
5.8065113071
 20
3.982627954
  0
LINE
  5
71E
100
AcDbEntity
  8
0
100
AcDbLine
 62
7
  6
CONTINUOUS
 10
6.1816534279
 20
4.004821775
 11
6.2171009934
 21
4.0252958222
  0
LINE
  5
71F
100
AcDbEntity
  8
0
100
AcDbLine
 62
7
  6
CONTINUOUS
 10
6.1816534279
 20
3.9457666569
 11
6.2171009934
 21
3.966240704
  0
LINE
  5
720
100
AcDbEntity
  8
0
100
AcDbLine
 62
7
  6
CONTINUOUS
 10
6.2163183548
 20
3.9659502895
 11
6.2171009934
 21
3.966240704
  0
LINE
  5
721
100
AcDbEntity
  8
0
100
AcDbLine
 62
7
  6
CONTINUOUS
 10
6.2173267514
 20
4.7415998958
 11
6.2171009934
 21
4.7418606624
  0
LINE
  5
722
100
AcDbEntity
  8
0
100
AcDbLine
 62
7
  6
CONTINUOUS
 10
5.8644119823
 20
3.4586084799
 11
5.8645708459
 21
3.4588394532
  0
LINE
  5
723
100
AcDbEntity
  8
0
100
AcDbLine
 62
7
  6
CONTINUOUS
 10
5.8644119823
 20
3.4192384011
 11
5.8645708459
 21
3.4194693745
  0
LINE
  5
724
100
AcDbEntity
  8
0
100
AcDbLine
 62
7
  6
CONTINUOUS
 10
5.8644119823
 20
3.3798683224
 11
5.8645708459
 21
3.3800992957
  0
LINE
  5
725
100
AcDbEntity
  8
0
100
AcDbLine
 62
7
  6
CONTINUOUS
 10
5.8644119823
 20
3.3404982436
 11
5.8645708459
 21
3.340729217
  0
LINE
  5
726
100
AcDbEntity
  8
0
100
AcDbLine
 62
7
  6
CONTINUOUS
 10
5.8644119823
 20
3.3011281649
 11
5.8645708459
 21
3.3013591383
  0
LINE
  5
727
100
AcDbEntity
  8
0
100
AcDbLine
 62
7
  6
CONTINUOUS
 10
6.2171009934
 20
3.966240704
 11
6.2173267514
 21
3.9665014706
  0
LINE
  5
728
100
AcDbEntity
  8
0
100
AcDbLine
 62
7
  6
CONTINUOUS
 10
6.2171009934
 20
3.9071855859
 11
6.2173267514
 21
3.9074463525
  0
LINE
  5
729
100
AcDbEntity
  8
0
100
AcDbLine
 62
7
  6
CONTINUOUS
 10
6.2171009934
 20
3.8481304678
 11
6.2173267514
 21
3.8483912344
  0
LINE
  5
72A
100
AcDbEntity
  8
0
100
AcDbLine
 62
7
  6
CONTINUOUS
 10
5.4227721998
 20
3.3813430562
 11
5.3970131741
 21
3.3626137337
  0
LINE
  5
72B
100
AcDbEntity
  8
0
100
AcDbLine
 62
7
  6
CONTINUOUS
 10
5.4227721998
 20
3.3419729775
 11
5.3970131741
 21
3.3232436549
  0
LINE
  5
72C
100
AcDbEntity
  8
0
100
AcDbLine
 62
7
  6
CONTINUOUS
 10
5.4227721998
 20
3.3026028988
 11
5.3970131741
 21
3.2838735762
  0
LINE
  5
72D
100
AcDbEntity
  8
0
100
AcDbLine
 62
7
  6
CONTINUOUS
 10
5.4227721998
 20
3.26323282
 11
5.3970131741
 21
3.2445034974
  0
LWPOLYLINE
  5
72E
100
AcDbEntity
  8
0
100
AcDbPolyline
 62
7
  6
CONTINUOUS
 90
13
 70
0
 10
6.1818936806
 20
3.8171753025
 10
6.1811166941
 20
3.816676181
 10
6.1747305147
 20
3.8156583553
 10
6.1620019734
 20
3.8146425254
 10
6.1430454473
 20
3.8136254034
 10
6.1179429881
 20
3.8126027381
 10
6.0870746666
 20
3.8115799732
 10
6.0510047237
 20
3.8105623973
 10
6.0098595482
 20
3.8095412111
 10
5.9640950179
 20
3.8085168543
 10
5.9145170449
 20
3.8074953337
 10
5.8619079168
 20
3.806479785
 10
5.8065019013
 20
3.8054624304
  0
LWPOLYLINE
  5
72F
100
AcDbEntity
  8
0
100
AcDbPolyline
 62
7
  6
CONTINUOUS
 90
13
 70
0
 10
6.1818936806
 20
3.8762304135
 10
6.1810581082
 20
3.8757128194
 10
6.1745548761
 20
3.8746949476
 10
6.1617046973
 20
3.8736786717
 10
6.1426057796
 20
3.8726602463
 10
6.1175470257
 20
3.8716434352
 10
6.0867887933
 20
3.8706264042
 10
6.0507277252
 20
3.8696102176
 10
6.0096979092
 20
3.8685925324
 10
5.964286006
 20
3.8675760628
 10
5.9149217079
 20
3.8665585034
 10
5.8622795542
 20
3.8655418854
 10
5.806996404
 20
3.864526447
  0
LINE
  5
730
100
AcDbEntity
  8
0
100
AcDbLine
 62
7
  6
CONTINUOUS
 10
6.1816534279
 20
3.8867115388
 11
6.2171009934
 21
3.9071855859
  0
LINE
  5
731
100
AcDbEntity
  8
0
100
AcDbLine
 62
7
  6
CONTINUOUS
 10
6.1816534279
 20
3.8276564207
 11
6.2171009934
 21
3.8481304678
  0
LINE
  5
732
100
AcDbEntity
  8
0
100
AcDbLine
 62
7
  6
CONTINUOUS
 10
6.2168646787
 20
3.8480181561
 11
6.2171009934
 21
3.8481304678
  0
LWPOLYLINE
  5
733
100
AcDbEntity
  8
0
100
AcDbPolyline
 62
7
  6
CONTINUOUS
 90
10
 70
0
 10
5.4227721998
 20
3.420713135
 10
5.4234412127
 20
3.4210192885
 10
5.428300299
 20
3.4219243478
 10
5.437375019
 20
3.4228294071
 10
5.450476374
 20
3.4237344663
 10
5.4673315025
 20
3.4246395256
 10
5.4875893632
 20
3.4255445849
 10
5.5108280463
 20
3.4264496442
 10
5.5365635607
 20
3.4273547035
 10
5.5642599135
 20
3.4282597628
  0
LWPOLYLINE
  5
734
100
AcDbEntity
  8
0
100
AcDbPolyline
 62
7
  6
CONTINUOUS
 90
10
 70
0
 10
5.3968543105
 20
3.4391544139
 10
5.3990328251
 20
3.4400103532
 10
5.4056005377
 20
3.4408735028
 10
5.4164166657
 20
3.4417355479
 10
5.4311181298
 20
3.4425891547
 10
5.4494412246
 20
3.4434395048
 10
5.4711977342
 20
3.4442935211
 10
5.4959834624
 20
3.4451498522
 10
5.5231336533
 20
3.4460017187
 10
5.552334527
 20
3.4468554443
  0
LINE
  5
735
100
AcDbEntity
  8
0
100
AcDbLine
 62
7
  6
CONTINUOUS
 10
5.8644119823
 20
3.2617580862
 11
5.8645708459
 21
3.2619890595
  0
LINE
  5
736
100
AcDbEntity
  8
0
100
AcDbLine
 62
7
  6
CONTINUOUS
 10
5.8644119823
 20
3.2223880074
 11
5.8645708459
 21
3.2226189808
  0
LINE
  5
737
100
AcDbEntity
  8
0
100
AcDbLine
 62
7
  6
CONTINUOUS
 10
5.8644119823
 20
3.1830179287
 11
5.8645708459
 21
3.183248902
  0
LINE
  5
738
100
AcDbEntity
  8
0
100
AcDbLine
 62
7
  6
CONTINUOUS
 10
5.8644119823
 20
3.1436478499
 11
5.8645708459
 21
3.1438788233
  0
LINE
  5
739
100
AcDbEntity
  8
0
100
AcDbLine
 62
7
  6
CONTINUOUS
 10
5.8645708459
 20
3.1045087418
 11
5.8644119823
 21
3.1042777712
  0
LINE
  5
73A
100
AcDbEntity
  8
0
100
AcDbLine
 62
7
  6
CONTINUOUS
 10
6.2171009934
 20
3.7890753497
 11
6.2173267514
 21
3.7893361163
  0
LINE
  5
73B
100
AcDbEntity
  8
0
100
AcDbLine
 62
7
  6
CONTINUOUS
 10
6.2171009934
 20
3.7300202316
 11
6.2173267514
 21
3.7302809982
  0
LINE
  5
73C
100
AcDbEntity
  8
0
100
AcDbLine
 62
7
  6
CONTINUOUS
 10
5.4227721998
 20
3.2238627413
 11
5.3970131741
 21
3.2051334187
  0
LINE
  5
73D
100
AcDbEntity
  8
0
100
AcDbLine
 62
7
  6
CONTINUOUS
 10
5.4227721998
 20
3.1844926625
 11
5.3970131741
 21
3.16576334
  0
LINE
  5
73E
100
AcDbEntity
  8
0
100
AcDbLine
 62
7
  6
CONTINUOUS
 10
5.4227721998
 20
3.1451225838
 11
5.3970131741
 21
3.1263932612
  0
LINE
  5
73F
100
AcDbEntity
  8
0
100
AcDbLine
 62
7
  6
CONTINUOUS
 10
5.8386529566
 20
3.4398791573
 11
5.8644119823
 21
3.4586084799
  0
LINE
  5
740
100
AcDbEntity
  8
0
100
AcDbLine
 62
7
  6
CONTINUOUS
 10
5.4227721998
 20
3.1057525051
 11
5.4014404445
 21
3.0902420115
  0
LINE
  5
741
100
AcDbEntity
  8
0
100
AcDbLine
 62
7
  6
CONTINUOUS
 10
5.8386529566
 20
3.4005090786
 11
5.8644119823
 21
3.4192384011
  0
LWPOLYLINE
  5
742
100
AcDbEntity
  8
0
100
AcDbPolyline
 62
7
  6
CONTINUOUS
 90
13
 70
0
 10
6.1818936803
 20
3.7581198921
 10
6.1810389184
 20
3.7575966718
 10
6.1745043818
 20
3.7565794262
 10
6.1616285947
 20
3.7555636007
 10
6.1425093041
 20
3.7545455757
 10
6.1174351755
 20
3.753529133
 10
6.0866240075
 20
3.7525111658
 10
6.0505250597
 20
3.7514946463
 10
6.0094665735
 20
3.7504768648
 10
5.9640289719
 20
3.749460322
 10
5.9146274903
 20
3.7484424127
 10
5.8619563243
 20
3.7474255762
 10
5.8065391122
 20
3.7464079818
  0
LINE
  5
743
100
AcDbEntity
  8
0
100
AcDbLine
 62
7
  6
CONTINUOUS
 10
6.1816534279
 20
3.7686013026
 11
6.2171009934
 21
3.7890753497
  0
LINE
  5
744
100
AcDbEntity
  8
0
100
AcDbLine
 62
7
  6
CONTINUOUS
 10
6.1816534279
 20
3.7095461845
 11
6.2171009934
 21
3.7300202316
  0
LWPOLYLINE
  5
745
100
AcDbEntity
  8
0
100
AcDbPolyline
 62
7
  6
CONTINUOUS
 90
10
 70
0
 10
5.4227721998
 20
3.3419729775
 10
5.4234412127
 20
3.342279131
 10
5.428300299
 20
3.3431841903
 10
5.437375019
 20
3.3440892496
 10
5.450476374
 20
3.3449943089
 10
5.4673315025
 20
3.3458993681
 10
5.4875893632
 20
3.3468044274
 10
5.5108280463
 20
3.3477094867
 10
5.5365635607
 20
3.348614546
 10
5.5642599135
 20
3.3495196053
  0
LINE
  5
746
100
AcDbEntity
  8
0
100
AcDbLine
 62
7
  6
CONTINUOUS
 10
5.3968543105
 20
3.3997843351
 11
5.3990137357
 21
3.4006365103
  0
LINE
  5
747
100
AcDbEntity
  8
0
100
AcDbLine
 62
7
  6
CONTINUOUS
 10
5.3968543105
 20
3.3604142564
 11
5.3990256458
 21
3.361268782
  0
LINE
  5
748
100
AcDbEntity
  8
0
100
AcDbLine
 62
7
  6
CONTINUOUS
 10
5.3968543105
 20
3.3210441776
 11
5.3990739459
 21
3.3219081701
  0
LWPOLYLINE
  5
749
100
AcDbEntity
  8
0
100
AcDbPolyline
 62
7
  6
CONTINUOUS
 90
10
 70
0
 10
5.4227721998
 20
3.3813430562
 10
5.4253353851
 20
3.3821017394
 10
5.4323204968
 20
3.3830067987
 10
5.4434375138
 20
3.383911858
 10
5.4584549024
 20
3.3848169172
 10
5.4770598958
 20
3.3857219765
 10
5.4988650087
 20
3.3866270358
 10
5.5234161065
 20
3.3875320951
 10
5.5502018643
 20
3.3884371544
 10
5.5786644161
 20
3.3893422137
  0
LINE
  5
74A
100
AcDbEntity
  8
02___PRT_ALL_AXES
100
AcDbLine
 62
7
  6
CONTINUOUS
 10
6.7330747829
 20
5.3426977209
 11
4.5283503735
 21
5.3426977209
  0
LINE
  5
74B
100
AcDbEntity
  8
0
100
AcDbLine
 62
7
  6
CONTINUOUS
 10
6.7330747829
 20
5.3426977209
 11
4.5283503735
 21
5.3426977209
  0
LINE
  5
74C
100
AcDbEntity
  8
0
100
AcDbLine
 62
7
  6
CONTINUOUS
 10
5.8386529566
 20
3.3611389998
 11
5.8644119823
 21
3.3798683224
  0
LINE
  5
74D
100
AcDbEntity
  8
0
100
AcDbLine
 62
7
  6
CONTINUOUS
 10
5.8386529566
 20
3.3217689211
 11
5.8644119823
 21
3.3404982436
  0
LINE
  5
74E
100
AcDbEntity
  8
0
100
AcDbLine
 62
7
  6
CONTINUOUS
 10
5.8386529566
 20
3.2823988423
 11
5.8644119823
 21
3.3011281649
  0
LWPOLYLINE
  5
74F
100
AcDbEntity
  8
0
100
AcDbPolyline
 62
7
  6
CONTINUOUS
 90
10
 70
0
 10
5.4227721998
 20
3.26323282
 10
5.4234412127
 20
3.2635389735
 10
5.428300299
 20
3.2644440328
 10
5.437375019
 20
3.2653490921
 10
5.450476374
 20
3.2662541514
 10
5.4673315025
 20
3.2671592107
 10
5.4875893632
 20
3.2680642699
 10
5.5108280463
 20
3.2689693292
 10
5.5365635607
 20
3.2698743885
 10
5.5642599135
 20
3.2707794478
  0
LWPOLYLINE
  5
750
100
AcDbEntity
  8
0
100
AcDbPolyline
 62
7
  6
CONTINUOUS
 90
5
 70
0
 10
5.4227721998
 20
3.1844926625
 10
5.4234848496
 20
3.1848132065
 10
5.4283746428
 20
3.185713469
 10
5.4374340471
 20
3.1866137314
 10
5.450476374
 20
3.1875139939
  0
LINE
  5
751
100
AcDbEntity
  8
0
100
AcDbLine
 62
7
  6
CONTINUOUS
 10
5.3968543105
 20
3.2029339414
 11
5.3988407253
 21
3.2037512158
  0
LINE
  5
752
100
AcDbEntity
  8
0
100
AcDbLine
 62
7
  6
CONTINUOUS
 10
5.3968543105
 20
3.2816740989
 11
5.3990098958
 21
3.2825255149
  0
LINE
  5
753
100
AcDbEntity
  8
0
100
AcDbLine
 62
7
  6
CONTINUOUS
 10
5.8645708459
 20
3.3820677997
 11
5.8624072673
 21
3.3812148041
  0
LINE
  5
754
100
AcDbEntity
  8
0
100
AcDbLine
 62
7
  6
CONTINUOUS
 10
5.3968543105
 20
3.2423040202
 11
5.3990232109
 21
3.2431580658
  0
LINE
  5
755
100
AcDbEntity
  8
0
100
AcDbLine
 62
7
  6
CONTINUOUS
 10
5.8645708459
 20
3.4214378784
 11
5.8623960857
 21
3.4205826781
  0
LWPOLYLINE
  5
756
100
AcDbEntity
  8
0
100
AcDbPolyline
 62
7
  6
CONTINUOUS
 90
10
 70
0
 10
5.4227721998
 20
3.3026028988
 10
5.4253353851
 20
3.3033615819
 10
5.4323204968
 20
3.3042666412
 10
5.4434375138
 20
3.3051717005
 10
5.4584549024
 20
3.3060767598
 10
5.4770598958
 20
3.306981819
 10
5.4988650087
 20
3.3078868783
 10
5.5234161065
 20
3.3087919376
 10
5.5502018643
 20
3.3096969969
 10
5.5786644161
 20
3.3106020562
  0
LINE
  5
757
100
AcDbEntity
  8
0
100
AcDbLine
 62
7
  6
CONTINUOUS
 10
6.7328588499
 20
5.6613750155
 11
6.7330775442
 21
5.6360048076
  0
LWPOLYLINE
  5
758
100
AcDbEntity
  8
0
100
AcDbPolyline
 62
7
  6
CONTINUOUS
 90
14
 70
0
 10
6.7330768617
 20
5.6360048076
 10
6.7329316854
 20
5.6568074478
 10
6.7323745728
 20
5.6802268103
 10
6.7314328595
 20
5.7013867847
 10
6.7301224103
 20
5.7206512212
 10
6.7284432333
 20
5.7382762793
 10
6.7263785199
 20
5.7544598982
 10
6.7238916605
 20
5.7693514407
 10
6.7209205839
 20
5.7830514953
 10
6.717366286
 20
5.7956082006
 10
6.713068791
 20
5.8070053961
 10
6.7077748114
 20
5.8170933555
 10
6.7011655407
 20
5.8253895864
 10
6.6929664401
 20
5.8309952713
  0
LINE
  5
759
100
AcDbEntity
  8
02___PRT_ALL_AXES
100
AcDbLine
 62
7
  6
CONTINUOUS
 10
6.7330747829
 20
5.6360048076
 11
6.7330747829
 21
4.9194693745
  0
LINE
  5
75A
100
AcDbEntity
  8
0
100
AcDbLine
 62
7
  6
CONTINUOUS
 10
6.7330747829
 20
5.3426977209
 11
6.7330747829
 21
5.6360048076
  0
LINE
  5
75B
100
AcDbEntity
  8
0
100
AcDbLine
 62
7
  6
CONTINUOUS
 10
5.8448858066
 20
3.0749811855
 11
5.8486088556
 21
3.0787042346
  0
LINE
  5
75C
100
AcDbEntity
  8
0
100
AcDbLine
 62
7
  6
CONTINUOUS
 10
5.8640007621
 20
3.1060396431
 11
5.8645708459
 21
3.106477247
  0
LINE
  5
75D
100
AcDbEntity
  8
0
100
AcDbLine
 62
7
  6
CONTINUOUS
 10
5.8386529566
 20
3.2430287636
 11
5.8644119823
 21
3.2617580862
  0
LINE
  5
75E
100
AcDbEntity
  8
0
100
AcDbLine
 62
7
  6
CONTINUOUS
 10
5.8386529566
 20
3.2036586849
 11
5.8644119823
 21
3.2223880074
  0
LINE
  5
75F
100
AcDbEntity
  8
0
100
AcDbLine
 62
7
  6
CONTINUOUS
 10
5.8386529566
 20
3.1642886061
 11
5.8644119823
 21
3.1830179287
  0
LINE
  5
760
100
AcDbEntity
  8
0
100
AcDbLine
 62
7
  6
CONTINUOUS
 10
5.8386529566
 20
3.1249185274
 11
5.8644119823
 21
3.1436478499
  0
LINE
  5
761
100
AcDbEntity
  8
0
100
AcDbLine
 62
7
  6
CONTINUOUS
 10
5.8645708459
 20
3.3033276422
 11
5.862584201
 21
3.3025103204
  0
LINE
  5
762
100
AcDbEntity
  8
0
100
AcDbLine
 62
7
  6
CONTINUOUS
 10
5.3968543105
 20
3.1635638627
 11
5.3990124077
 21
3.1644157754
  0
LINE
  5
763
100
AcDbEntity
  8
0
100
AcDbLine
 62
7
  6
CONTINUOUS
 10
5.8645708459
 20
3.3426977209
 11
5.8624109834
 21
3.3418454593
  0
LINE
  5
764
100
AcDbEntity
  8
0
100
AcDbLine
 62
7
  6
CONTINUOUS
 10
5.3968543105
 20
3.1241937839
 11
5.3990185598
 21
3.1250469119
  0
LINE
  5
765
100
AcDbEntity
  8
0
100
AcDbLine
 62
7
  6
CONTINUOUS
 10
5.8645708459
 20
3.2639575635
 11
5.8624021731
 21
3.2631035627
  0
LWPOLYLINE
  5
766
100
AcDbEntity
  8
0
100
AcDbPolyline
 62
7
  6
CONTINUOUS
 90
10
 70
0
 10
5.4227721998
 20
3.2238627413
 10
5.4253353851
 20
3.2246214244
 10
5.4323204968
 20
3.2255264837
 10
5.4434375138
 20
3.226431543
 10
5.4584549024
 20
3.2273366023
 10
5.4770598958
 20
3.2282416616
 10
5.4988650087
 20
3.2291467209
 10
5.5234161065
 20
3.2300517801
 10
5.5502018643
 20
3.2309568394
 10
5.5786644161
 20
3.2318618987
  0
LINE
  5
767
100
AcDbEntity
  8
0
100
AcDbLine
 62
9
  6
CONTINUOUS
 10
4.5283504445
 20
5.6360048076
 11
6.7330747032
 21
5.6360048076
  0
LINE
  5
768
100
AcDbEntity
  8
0
100
AcDbLine
 62
7
  6
CONTINUOUS
 10
5.8386529566
 20
3.0855484486
 11
5.8644119823
 21
3.1042777712
  0
LINE
  5
769
100
AcDbEntity
  8
0
100
AcDbLine
 62
7
  6
CONTINUOUS
 10
5.8645708459
 20
3.2245874847
 11
5.86241551
 21
3.223736118
  0
LINE
  5
76A
100
AcDbEntity
  8
0
100
AcDbLine
 62
7
  6
CONTINUOUS
 10
5.8645708459
 20
3.1458473272
 11
5.8623999126
 21
3.1449928808
  0
LINE
  5
76B
100
AcDbEntity
  8
0
100
AcDbLine
 62
7
  6
CONTINUOUS
 10
5.8645708459
 20
3.185217406
 11
5.8623510653
 21
3.1843533852
  0
LWPOLYLINE
  5
76C
100
AcDbEntity
  8
0
100
AcDbPolyline
 62
7
  6
CONTINUOUS
 90
10
 70
0
 10
5.4227721998
 20
3.1057525051
 10
5.4252246624
 20
3.1064903719
 10
5.432065117
 20
3.1073906343
 10
5.4429991326
 20
3.1082908968
 10
5.4578013901
 20
3.1091911593
 10
5.476166857
 20
3.1100914217
 10
5.4977170731
 20
3.1109916842
 10
5.5220079495
 20
3.1118919467
 10
5.5485389201
 20
3.1127922091
 10
5.5767632568
 20
3.1136924716
  0
LINE
  5
76D
100
AcDbEntity
  8
0
100
AcDbLine
 62
7
  6
CONTINUOUS
 10
4.5775631007
 20
5.8328552013
 11
6.6838620493
 21
5.8328552013
  0
LWPOLYLINE
  5
76E
100
AcDbEntity
  8
0
100
AcDbPolyline
 62
7
  6
CONTINUOUS
 90
14
 70
0
 10
4.5775629719
 20
5.8328552011
 10
4.5697518246
 20
5.8315069704
 10
4.5626240311
 20
5.8274675116
 10
4.5561811561
 20
5.8207528009
 10
4.5506813111
 20
5.8118912425
 10
4.5460351225
 20
5.8012815402
 10
4.5421040309
 20
5.7891311249
 10
4.5387756154
 20
5.7755220973
 10
4.5359711219
 20
5.7604656576
 10
4.5336384793
 20
5.7439309215
 10
4.5317450575
 20
5.7258587079
 10
4.5302718653
 20
5.7061578274
 10
4.5292113917
 20
5.6847086709
 10
4.5285663065
 20
5.6613750155
  0
LWPOLYLINE
  5
76F
100
AcDbEntity
  8
0
100
AcDbPolyline
 62
7
  6
CONTINUOUS
 90
14
 70
0
 10
6.6838621845
 20
5.8328552011
 10
6.6916733319
 20
5.8315069704
 10
6.6988011254
 20
5.8274675116
 10
6.7052440003
 20
5.8207528009
 10
6.7107438454
 20
5.8118912425
 10
6.7153900339
 20
5.8012815401
 10
6.7193211255
 20
5.7891311249
 10
6.722649541
 20
5.7755220973
 10
6.7254540346
 20
5.7604656576
 10
6.7277866771
 20
5.7439309215
 10
6.7296800989
 20
5.7258587079
 10
6.7311532911
 20
5.7061578274
 10
6.7322137647
 20
5.6847086709
 10
6.7328588499
 20
5.6613750155
  0
LWPOLYLINE
  5
770
100
AcDbEntity
  8
0
100
AcDbPolyline
 62
7
  6
CONTINUOUS
 90
13
 70
0
 10
4.5775602653
 20
5.8328552013
 10
4.5684579939
 20
5.8309952732
 10
4.5602588896
 20
5.8253895925
 10
4.5536496139
 20
5.8170933647
 10
4.5483556297
 20
5.807005407
 10
4.5440581307
 20
5.7956082123
 10
4.5405038295
 20
5.7830515071
 10
4.5375327501
 20
5.7693514523
 10
4.5350458885
 20
5.7544599091
 10
4.5329811731
 20
5.7382762893
 10
4.5313019946
 20
5.72065123
 10
4.5299915442
 20
5.701386792
 10
4.52904983
 20
5.6802268157
  0
LINE
  5
771
100
AcDbEntity
  8
0
100
AcDbLine
 62
7
  6
CONTINUOUS
 10
6.6929671625
 20
5.8309952732
 11
6.6838648911
 21
5.8328552013
  0
LWPOLYLINE
  5
772
100
AcDbEntity
  8
0
100
AcDbPolyline
 62
9
  6
CONTINUOUS
 90
24
 70
0
 10
4.5775629719
 20
8.0703970132
 10
4.5873233712
 20
7.9273548334
 10
4.616557417
 20
7.7864712772
 10
4.6646600511
 20
7.6510327604
 10
4.7307812467
 20
7.5233616888
 10
4.8136648537
 20
7.4058994256
 10
4.9117782155
 20
7.300814379
 10
5.0232874567
 20
7.210072202
 10
5.1461161692
 20
7.1353620456
 10
5.2779752986
 20
7.0780762533
 10
5.4164078313
 20
7.0392822955
 10
5.5588338281
 20
7.0197031779
 10
5.7025993631
 20
7.0197037264
 10
5.8450251983
 20
7.0392839282
 10
5.9834574247
 20
7.0780789369
 10
6.1153161284
 20
7.1353657375
 10
6.2381443342
 20
7.2100768735
 10
6.3496528705
 20
7.3008199019
 10
6.4477651221
 20
7.4059053277
 10
6.5306483182
 20
7.5233689169
 10
6.5967681768
 20
7.6510397551
 10
6.6448701217
 20
7.7864799006
 10
6.6741033828
 20
7.927364921
 10
6.6838621845
 20
8.0703970132
  0
LINE
  5
773
100
AcDbEntity
  8
0
100
AcDbLine
 62
9
  6
CONTINUOUS
 10
4.5775629719
 20
8.0703970164
 11
4.5283476122
 21
8.070397016
  0
LINE
  5
774
100
AcDbEntity
  8
0
100
AcDbLine
 62
9
  6
CONTINUOUS
 10
6.6838621845
 20
8.07039701
 11
6.7330775442
 21
8.0703970088
  0
LWPOLYLINE
  5
775
100
AcDbEntity
  8
0
100
AcDbPolyline
 62
9
  6
CONTINUOUS
 90
24
 70
0
 10
6.6838621845
 20
8.0703970132
 10
6.6741017852
 20
8.2134391929
 10
6.6448677394
 20
8.3543227491
 10
6.5967651053
 20
8.4897612659
 10
6.5306439097
 20
8.6174323376
 10
6.4477603027
 20
8.7348946008
 10
6.3496469409
 20
8.8399796473
 10
6.2381376997
 20
8.9307218244
 10
6.1153089872
 20
9.0054319808
 10
5.9834498578
 20
9.062717773
 10
5.8450173251
 20
9.1015117309
 10
5.7025913283
 20
9.1210908484
 10
5.5588257934
 20
9.1210903
 10
5.4163999581
 20
9.1015100981
 10
5.2779677318
 20
9.0627150895
 10
5.146109028
 20
9.0054282888
 10
5.0232808223
 20
8.9307171528
 10
4.911772286
 20
8.8399741245
 10
4.8136600344
 20
8.7348886987
 10
4.7307768382
 20
8.6174251094
 10
4.6646569797
 20
8.4897542712
 10
4.6165550347
 20
8.3543141257
 10
4.5873217736
 20
8.2134291053
 10
4.5775629719
 20
8.0703970132
  0
LWPOLYLINE
  5
776
100
AcDbEntity
  8
0
100
AcDbPolyline
 62
9
  6
CONTINUOUS
 90
24
 70
0
 10
11.9120122493
 20
7.4815045909
 10
11.8177682484
 20
7.4191238645
 10
11.7388206233
 20
7.3496744474
 10
11.6770653687
 20
7.274745009
 10
11.6335436045
 20
7.1956306736
 10
11.609093392
 20
7.1138409251
 10
11.6041642647
 20
7.0308866964
 10
11.618849392
 20
6.9483191163
 10
11.6528749308
 20
6.8676754455
 10
11.7056068001
 20
6.7904585852
 10
11.7760624338
 20
6.7181073771
 10
11.8629287721
 20
6.6519702204
 10
11.9645871678
 20
6.5932794939
 10
12.0791430969
 20
6.5431289663
 10
12.2044619698
 20
6.5024531253
 10
12.3382082582
 20
6.47201003
 10
12.4778898079
 20
6.4523669352
 10
12.6209033219
 20
6.443889917
 10
12.764585757
 20
6.4467370081
 10
12.9062522258
 20
6.4608545332
 10
13.0432827604
 20
6.4859825856
 10
13.17306636
 20
6.5216380589
 10
13.2933578218
 20
6.5672193362
 10
13.4013969066
 20
6.6216274111
  0
LWPOLYLINE
  5
777
100
AcDbEntity
  8
0
100
AcDbPolyline
 62
7
  6
CONTINUOUS
 90
15
 70
0
 10
11.8994868245
 20
7.482311457
 10
11.8402478986
 20
7.4452437194
 10
11.7857557233
 20
7.4050746779
 10
11.7388250998
 20
7.3642318132
 10
11.6987134487
 20
7.3228974369
 10
11.6647007646
 20
7.281080953
 10
11.6361027017
 20
7.2385651305
 10
11.6127508147
 20
7.1957712082
 10
11.5947203202
 20
7.1541601688
 10
11.5807551617
 20
7.1124514428
 10
11.5700476794
 20
7.0691614761
 10
11.5626255169
 20
7.0259948705
 10
11.557943884
 20
6.9836931969
 10
11.5552149962
 20
6.9384990907
 10
11.554342827
 20
6.8908517258
  0
LINE
  5
778
100
AcDbEntity
  8
0
100
AcDbLine
 62
7
  6
CONTINUOUS
 10
11.8994868245
 20
7.482311457
 11
11.899478254
 21
7.4823065084
  0
LINE
  5
779
100
AcDbEntity
  8
0
100
AcDbLine
 62
7
  6
CONTINUOUS
 10
12.0067689949
 20
7.5365647868
 11
11.8994785151
 21
7.4823060536
  0
LWPOLYLINE
  5
77A
100
AcDbEntity
  8
0
100
AcDbPolyline
 62
9
  6
CONTINUOUS
 90
19
 70
0
 10
12.0720863012
 20
7.3890878847
 10
12.1461169168
 20
7.4269944504
 10
12.2382503321
 20
7.4632425557
 10
12.3451789667
 20
7.4937146812
 10
12.4615361514
 20
7.5154058351
 10
12.5811474178
 20
7.5268985479
 10
12.7013852013
 20
7.5281984629
 10
12.8210167092
 20
7.519374407
 10
12.9374417155
 20
7.5005354637
 10
13.0477600577
 20
7.4721258689
 10
13.1496640386
 20
7.4347673148
 10
13.2410913542
 20
7.3892214861
 10
13.3200520264
 20
7.3364721603
 10
13.3848393237
 20
7.2776683081
 10
13.4341324413
 20
7.214000603
 10
13.4668548067
 20
7.1467975846
 10
13.4822330566
 20
7.0777320879
 10
13.4800754145
 20
7.0083162436
 10
13.4602685709
 20
6.9392641356
  0
LWPOLYLINE
  5
77B
100
AcDbEntity
  8
0
100
AcDbPolyline
 62
7
  6
CONTINUOUS
 90
10
 70
0
 10
12.6932838615
 20
4.6889028066
 10
12.7250738209
 20
4.6938540706
 10
12.7555331075
 20
4.7013184335
 10
12.7840688945
 20
4.7111645357
 10
12.8101256315
 20
4.7232145901
 10
12.833196481
 20
4.7372481545
 10
12.8528323682
 20
4.7530061257
 10
12.8686507243
 20
4.7701955187
 10
12.8803435163
 20
4.7884954599
 10
12.8876832961
 20
4.807563794
  0
LWPOLYLINE
  5
77C
100
AcDbEntity
  8
0
100
AcDbPolyline
 62
7
  6
CONTINUOUS
 90
6
 70
0
 10
12.7026864024
 20
4.7206240112
 10
12.7124085686
 20
4.7220924585
 10
12.7427307426
 20
4.7283700734
 10
12.7715500402
 20
4.7370045715
 10
12.7981225492
 20
4.7477821246
 10
12.8220680333
 20
4.7605398131
  0
LWPOLYLINE
  5
77D
100
AcDbEntity
  8
0
100
AcDbPolyline
 62
7
  6
CONTINUOUS
 90
6
 70
0
 10
12.7026864024
 20
4.7527697756
 10
12.7123693956
 20
4.7542317959
 10
12.7426040217
 20
4.7604839393
 10
12.7713189964
 20
4.7690694353
 10
12.7980533987
 20
4.7798956887
 10
12.8220680333
 20
4.7926855776
  0
LWPOLYLINE
  5
77E
100
AcDbEntity
  8
0
100
AcDbPolyline
 62
7
  6
CONTINUOUS
 90
6
 70
0
 10
12.7026864024
 20
4.7849155401
 10
12.710550853
 20
4.7860837789
 10
12.7412075733
 20
4.7922814869
 10
12.7705605096
 20
4.8009510359
 10
12.797768556
 20
4.8119090658
 10
12.8220680333
 20
4.824831342
  0
LWPOLYLINE
  5
77F
100
AcDbEntity
  8
0
100
AcDbPolyline
 62
7
  6
CONTINUOUS
 90
4
 70
0
 10
12.7123693956
 20
4.7236933197
 10
12.6808310825
 20
4.7198323348
 10
12.6486222211
 20
4.7184869368
 10
12.616653661
 20
4.7196973722
  0
LWPOLYLINE
  5
780
100
AcDbEntity
  8
0
100
AcDbPolyline
 62
7
  6
CONTINUOUS
 90
4
 70
0
 10
12.7122298503
 20
4.7879619875
 10
12.6808611583
 20
4.7841263274
 10
12.6490832543
 20
4.7827796157
 10
12.6174293094
 20
4.7839290523
  0
LWPOLYLINE
  5
781
100
AcDbEntity
  8
0
100
AcDbPolyline
 62
7
  6
CONTINUOUS
 90
4
 70
0
 10
12.710550853
 20
4.7555453027
 10
12.6789341275
 20
4.7518273098
 10
12.6466384733
 20
4.7506337438
 10
12.6145497839
 20
4.7520132477
  0
LWPOLYLINE
  5
782
100
AcDbEntity
  8
0
100
AcDbPolyline
 62
7
  6
CONTINUOUS
 90
5
 70
0
 10
12.7026864024
 20
4.6884782467
 10
12.6674957571
 20
4.6852100633
 10
12.6351185635
 20
4.684933564
 10
12.6031556328
 20
4.6872353318
 10
12.5939586878
 20
4.6883909388
  0
LWPOLYLINE
  5
783
100
AcDbEntity
  8
0
100
AcDbPolyline
 62
7
  6
CONTINUOUS
 90
4
 70
0
 10
12.5961748894
 20
4.6896988843
 10
12.6282009582
 20
4.6868188702
 10
12.6607819562
 20
4.6865470963
 10
12.6932838615
 20
4.6889028066
  0
LWPOLYLINE
  5
784
100
AcDbEntity
  8
0
100
AcDbPolyline
 62
7
  6
CONTINUOUS
 90
9
 70
0
 10
12.6056990822
 20
4.6796616624
 10
12.6353025159
 20
4.6768434819
 10
12.6654527064
 20
4.6764507053
 10
12.6955554664
 20
4.6785065365
 10
12.725016489
 20
4.6829858724
 10
12.7532530683
 20
4.6898157694
 10
12.7797055839
 20
4.6988768527
 10
12.8038485267
 20
4.7100056371
 10
12.8107852292
 20
4.7138432913
  0
LWPOLYLINE
  5
785
100
AcDbEntity
  8
0
100
AcDbPolyline
 62
7
  6
CONTINUOUS
 90
5
 70
0
 10
12.5998033147
 20
4.751874125
 10
12.6262165656
 20
4.7492569125
 10
12.6560080328
 20
4.7486963714
 10
12.6858138538
 20
4.7506118859
 10
12.6968477518
 20
4.7519622595
  0
LWPOLYLINE
  5
786
100
AcDbEntity
  8
0
100
AcDbPolyline
 62
7
  6
CONTINUOUS
 90
5
 70
0
 10
12.5939586878
 20
4.7205367033
 10
12.6174849677
 20
4.7180259998
 10
12.6490930348
 20
4.7168808286
 10
12.6809872897
 20
4.7182378671
 10
12.7026864024
 20
4.7206240112
  0
LWPOLYLINE
  5
787
100
AcDbEntity
  8
0
100
AcDbPolyline
 62
7
  6
CONTINUOUS
 90
5
 70
0
 10
12.5939586878
 20
4.7526824677
 10
12.616653661
 20
4.7502358485
 10
12.6486222211
 20
4.7490254131
 10
12.6808310825
 20
4.750370811
 10
12.7026864024
 20
4.7527697756
  0
LWPOLYLINE
  5
788
100
AcDbEntity
  8
0
100
AcDbPolyline
 62
7
  6
CONTINUOUS
 90
5
 70
0
 10
12.5939586878
 20
4.7848282322
 10
12.6145497839
 20
4.7825517239
 10
12.6466384733
 20
4.7811722201
 10
12.6789341275
 20
4.782365786
 10
12.7026864024
 20
4.7849155401
  0
LWPOLYLINE
  5
789
100
AcDbEntity
  8
0
100
AcDbPolyline
 62
7
  6
CONTINUOUS
 90
5
 70
0
 10
12.5998033147
 20
4.7197283605
 10
12.6183074415
 20
4.7176803934
 10
12.6479903311
 20
4.7164581494
 10
12.6778527966
 20
4.7177098032
 10
12.6968477518
 20
4.7198164951
  0
LWPOLYLINE
  5
78A
100
AcDbEntity
  8
0
100
AcDbPolyline
 62
7
  6
CONTINUOUS
 90
10
 70
0
 10
12.6174293094
 20
4.7839290523
 10
12.5865286635
 20
4.7875376838
 10
12.5567432011
 20
4.793570964
 10
12.5287726049
 20
4.801907325
 10
12.5033707123
 20
4.8122888044
 10
12.4808433329
 20
4.8245387407
 10
12.4613762007
 20
4.8385902271
 10
12.4455389813
 20
4.8541082592
 10
12.4337713321
 20
4.8706391515
 10
12.4262535509
 20
4.8877653185
  0
LWPOLYLINE
  5
78B
100
AcDbEntity
  8
0
100
AcDbPolyline
 62
7
  6
CONTINUOUS
 90
11
 70
0
 10
12.616653661
 20
4.7196973722
 10
12.5857458561
 20
4.7233712363
 10
12.5559597471
 20
4.7294753506
 10
12.5279139372
 20
4.7379188507
 10
12.5024050963
 20
4.7484560321
 10
12.4800127993
 20
4.7607695871
 10
12.460896719
 20
4.7747017672
 10
12.4453113764
 20
4.7900820484
 10
12.4336642366
 20
4.8065354871
 10
12.4261929472
 20
4.8236696135
 10
12.4229736712
 20
4.8412763841
  0
LWPOLYLINE
  5
78C
100
AcDbEntity
  8
0
100
AcDbPolyline
 62
7
  6
CONTINUOUS
 90
5
 70
0
 10
12.5998033147
 20
4.6875825961
 10
12.6104553335
 20
4.6862792316
 10
12.6399855692
 20
4.6843981909
 10
12.6698603363
 20
4.684985217
 10
12.6968477518
 20
4.6876707306
  0
LWPOLYLINE
  5
78D
100
AcDbEntity
  8
0
100
AcDbPolyline
 62
7
  6
CONTINUOUS
 90
11
 70
0
 10
12.6145497839
 20
4.7520132477
 10
12.5835012164
 20
4.7558852662
 10
12.5538221447
 20
4.7621660046
 10
12.5260897287
 20
4.7707186485
 10
12.5007478627
 20
4.7814015074
 10
12.4783910732
 20
4.7939524228
 10
12.4592856013
 20
4.8082268658
 10
12.4439563557
 20
4.8238408461
 10
12.4326968713
 20
4.840425569
 10
12.4256089145
 20
4.8578040701
 10
12.4228727829
 20
4.8757541644
  0
LWPOLYLINE
  5
78E
100
AcDbEntity
  8
0
100
AcDbPolyline
 62
7
  6
CONTINUOUS
 90
5
 70
0
 10
12.5998033147
 20
4.7840198894
 10
12.6064784563
 20
4.7831631187
 10
12.6360725195
 20
4.7809424558
 10
12.6660962859
 20
4.7812119454
 10
12.6968477518
 20
4.784108024
  0
LWPOLYLINE
  5
78F
100
AcDbEntity
  8
0
100
AcDbPolyline
 62
7
  6
CONTINUOUS
 90
5
 70
0
 10
12.5939586878
 20
4.6883909388
 10
12.5722199033
 20
4.6920575608
 10
12.5429046418
 20
4.6992941036
 10
12.5157720989
 20
4.7087924699
 10
12.4913424995
 20
4.7203568126
  0
LINE
  5
790
100
AcDbEntity
  8
0
100
AcDbLine
 62
7
  6
CONTINUOUS
 10
12.5653266862
 20
4.6951172268
 11
12.5961748894
 21
4.6896988843
  0
LWPOLYLINE
  5
791
100
AcDbEntity
  8
0
100
AcDbPolyline
 62
7
  6
CONTINUOUS
 90
5
 70
0
 10
12.6056990822
 20
4.6796616624
 10
12.5821895549
 20
4.6844488592
 10
12.5598319917
 20
4.6907819266
 10
12.5390787474
 20
4.6985159228
 10
12.522369415
 20
4.7064829287
  0
LWPOLYLINE
  5
792
100
AcDbEntity
  8
0
100
AcDbPolyline
 62
7
  6
CONTINUOUS
 90
4
 70
0
 10
12.4856712086
 20
4.7251760855
 10
12.5095315676
 20
4.7130443576
 10
12.5362568352
 20
4.7029545768
 10
12.5653266862
 20
4.6951172268
  0
LINE
  5
793
100
AcDbEntity
  8
0
100
AcDbLine
 62
9
  6
CONTINUOUS
 10
11.8906230253
 20
7.2310723454
 11
11.9433795252
 21
7.2928911894
  0
LWPOLYLINE
  5
794
100
AcDbEntity
  8
0
100
AcDbPolyline
 62
9
  6
CONTINUOUS
 90
3
 70
0
 10
11.9433795252
 20
7.2928911894
 10
12.0062468351
 20
7.3462119377
 10
12.0720863012
 20
7.3890878847
  0
LWPOLYLINE
  5
795
100
AcDbEntity
  8
0
100
AcDbPolyline
 62
9
  6
CONTINUOUS
 90
16
 70
0
 10
12.0999252668
 20
7.3408696495
 10
12.1704391277
 20
7.3769749809
 10
12.2581881307
 20
7.4114970552
 10
12.3600261773
 20
7.4405171994
 10
12.4708415913
 20
7.4611741089
 10
12.5847549497
 20
7.4721184113
 10
12.6992648758
 20
7.4733556894
 10
12.8131973228
 20
7.4649514679
 10
12.9240758446
 20
7.4470096669
 10
13.0291385845
 20
7.419953377
 10
13.1261879775
 20
7.3843746413
 10
13.2132601273
 20
7.3409987858
 10
13.2884599061
 20
7.2907626585
 10
13.3501618993
 20
7.234760437
 10
13.3971082173
 20
7.1741260195
 10
13.4282735768
 20
7.1101245441
  0
LWPOLYLINE
  5
796
100
AcDbEntity
  8
0
100
AcDbPolyline
 62
7
  6
CONTINUOUS
 90
16
 70
0
 10
12.0999252668
 20
7.3247967673
 10
12.189126991
 20
7.3691163909
 10
12.2887736258
 20
7.4052653386
 10
12.3966392301
 20
7.4324361026
 10
12.5103142646
 20
7.4500217331
 10
12.6272594167
 20
7.4576293961
 10
12.7448623251
 20
7.4550891489
 10
12.8604959351
 20
7.4424577366
 10
12.9715771829
 20
7.4200173239
 10
13.075624697
 20
7.3882691926
 10
13.170314228
 20
7.3479225435
 10
13.253530568
 20
7.299878654
 10
13.3234148017
 20
7.2452107453
 10
13.3784058306
 20
7.1851400082
 10
13.4172752462
 20
7.1210083236
 10
13.4391547698
 20
7.0542482873
  0
LWPOLYLINE
  5
797
100
AcDbEntity
  8
0
100
AcDbPolyline
 62
7
  6
CONTINUOUS
 90
5
 70
0
 10
12.7172324919
 20
4.8836448048
 10
12.7460499198
 20
4.8899523195
 10
12.7736026589
 20
4.8984610873
 10
12.7991547449
 20
4.9089944482
 10
12.8220680333
 20
4.9212686354
  0
LWPOLYLINE
  5
798
100
AcDbEntity
  8
0
100
AcDbPolyline
 62
7
  6
CONTINUOUS
 90
5
 70
0
 10
12.7124504648
 20
4.8506823947
 10
12.7427279302
 20
4.8569524227
 10
12.7714048914
 20
4.8655367813
 10
12.7980666487
 20
4.8763391501
 10
12.8220680333
 20
4.8891228709
  0
LINE
  5
799
100
AcDbEntity
  8
0
100
AcDbLine
 62
7
  6
CONTINUOUS
 10
12.7423429907
 20
4.8906087353
 11
12.7119974042
 21
4.8843613179
  0
LINE
  5
79A
100
AcDbEntity
  8
0
100
AcDbLine
 62
7
  6
CONTINUOUS
 10
12.7026864024
 20
4.8813528335
 11
12.7172324919
 21
4.8836448048
  0
LINE
  5
79B
100
AcDbEntity
  8
0
100
AcDbLine
 62
7
  6
CONTINUOUS
 10
12.7026864024
 20
4.849207069
 11
12.7124504648
 21
4.8506823947
  0
LWPOLYLINE
  5
79C
100
AcDbEntity
  8
0
100
AcDbPolyline
 62
7
  6
CONTINUOUS
 90
6
 70
0
 10
12.7026864024
 20
4.8170613046
 10
12.7122298503
 20
4.8185004638
 10
12.742570837
 20
4.8247671231
 10
12.7714742859
 20
4.8334153169
 10
12.7981449519
 20
4.844229855
 10
12.8220680333
 20
4.8569771065
  0
LWPOLYLINE
  5
79D
100
AcDbEntity
  8
0
100
AcDbPolyline
 62
7
  6
CONTINUOUS
 90
6
 70
0
 10
12.7026864024
 20
4.9134985979
 10
12.7119974042
 20
4.9148997941
 10
12.7423429907
 20
4.9211472116
 10
12.7713188379
 20
4.9297982021
 10
12.7981183514
 20
4.9406547559
 10
12.8220680333
 20
4.9534143998
  0
LWPOLYLINE
  5
79E
100
AcDbEntity
  8
0
100
AcDbPolyline
 62
7
  6
CONTINUOUS
 90
4
 70
0
 10
12.7172324919
 20
4.8531063286
 10
12.6856215369
 20
4.8488365904
 10
12.6531866011
 20
4.8471045009
 10
12.6208672888
 20
4.8479738215
  0
LWPOLYLINE
  5
79F
100
AcDbEntity
  8
0
100
AcDbPolyline
 62
7
  6
CONTINUOUS
 90
4
 70
0
 10
12.7124876772
 20
4.9165873253
 10
12.6810189612
 20
4.9127223489
 10
12.6490074182
 20
4.9113624483
 10
12.6173334564
 20
4.9125194226
  0
LWPOLYLINE
  5
7A0
100
AcDbEntity
  8
0
100
AcDbPolyline
 62
7
  6
CONTINUOUS
 90
4
 70
0
 10
12.7124504648
 20
4.8201439185
 10
12.6809336821
 20
4.816278042
 10
12.6488044026
 20
4.8149246219
 10
12.6169659956
 20
4.8161103805
  0
LWPOLYLINE
  5
7A1
100
AcDbEntity
  8
0
100
AcDbPolyline
 62
7
  6
CONTINUOUS
 90
4
 70
0
 10
12.7119974042
 20
4.8843613179
 10
12.6806937406
 20
4.8805499357
 10
12.648950625
 20
4.8792165244
 10
12.6172384171
 20
4.8803809318
  0
LWPOLYLINE
  5
7A2
100
AcDbEntity
  8
0
100
AcDbPolyline
 62
7
  6
CONTINUOUS
 90
5
 70
0
 10
12.5939586878
 20
4.8812655255
 10
12.6208672888
 20
4.8785122977
 10
12.6531866011
 20
4.8776429771
 10
12.6856215369
 20
4.8793750666
 10
12.7026864024
 20
4.8813528335
  0
LWPOLYLINE
  5
7A3
100
AcDbEntity
  8
0
100
AcDbPolyline
 62
7
  6
CONTINUOUS
 90
5
 70
0
 10
12.5998033147
 20
4.8161656539
 10
12.6211828911
 20
4.8138899295
 10
12.6510697139
 20
4.8129098617
 10
12.6810738938
 20
4.8144313563
 10
12.6968477518
 20
4.8162537884
  0
LWPOLYLINE
  5
7A4
100
AcDbEntity
  8
0
100
AcDbPolyline
 62
7
  6
CONTINUOUS
 90
5
 70
0
 10
12.5998033147
 20
4.8804571828
 10
12.6211828911
 20
4.8781814584
 10
12.6510697139
 20
4.8772013906
 10
12.6810738938
 20
4.8787228852
 10
12.6968477518
 20
4.8805453174
  0
LWPOLYLINE
  5
7A5
100
AcDbEntity
  8
0
100
AcDbPolyline
 62
7
  6
CONTINUOUS
 90
5
 70
0
 10
12.5939586878
 20
4.8169739966
 10
12.6174293094
 20
4.8144675285
 10
12.6490832543
 20
4.8133180919
 10
12.6808611583
 20
4.8146648036
 10
12.7026864024
 20
4.8170613046
  0
LWPOLYLINE
  5
7A6
100
AcDbEntity
  8
0
100
AcDbPolyline
 62
7
  6
CONTINUOUS
 90
5
 70
0
 10
12.5939586878
 20
4.91341129
 10
12.6172384171
 20
4.9109194081
 10
12.648950625
 20
4.9097550007
 10
12.6806937406
 20
4.9110884119
 10
12.7026864024
 20
4.9134985979
  0
LWPOLYLINE
  5
7A7
100
AcDbEntity
  8
0
100
AcDbPolyline
 62
7
  6
CONTINUOUS
 90
5
 70
0
 10
12.5939586878
 20
4.8491197611
 10
12.6169659956
 20
4.8466488567
 10
12.6488044026
 20
4.8454630981
 10
12.6809336821
 20
4.8468165182
 10
12.7026864024
 20
4.849207069
  0
LWPOLYLINE
  5
7A8
100
AcDbEntity
  8
0
100
AcDbPolyline
 62
7
  6
CONTINUOUS
 90
11
 70
0
 10
12.6208672888
 20
4.8479738215
 10
12.5895448247
 20
4.8513633346
 10
12.5596050788
 20
4.8571639036
 10
12.5313293231
 20
4.8653143927
 10
12.5053777868
 20
4.8756433898
 10
12.4824238167
 20
4.887852073
 10
12.4627097148
 20
4.9017779683
 10
12.4466852792
 20
4.917086776
 10
12.4345910667
 20
4.9335245183
 10
12.4266724106
 20
4.9507495778
 10
12.4230621988
 20
4.9685656554
  0
LWPOLYLINE
  5
7A9
100
AcDbEntity
  8
0
100
AcDbPolyline
 62
7
  6
CONTINUOUS
 90
8
 70
0
 10
12.6173334564
 20
4.9125194226
 10
12.5864547887
 20
4.916132472
 10
12.5565810101
 20
4.9221944143
 10
12.5284465479
 20
4.9306051008
 10
12.5028504375
 20
4.9411183881
 10
12.4803742131
 20
4.953416141
 10
12.4610283436
 20
4.9674653732
 10
12.458985397
 20
4.9694794888
  0
LWPOLYLINE
  5
7AA
100
AcDbEntity
  8
0
100
AcDbPolyline
 62
7
  6
CONTINUOUS
 90
10
 70
0
 10
12.6172384171
 20
4.8803809318
 10
12.5863563328
 20
4.884002365
 10
12.5566549602
 20
4.8900302224
 10
12.5288193394
 20
4.8983282115
 10
12.5034883828
 20
4.9086705514
 10
12.4809570888
 20
4.920904938
 10
12.4614947656
 20
4.9349283625
 10
12.4456570293
 20
4.950408559
 10
12.4338771147
 20
4.9668918554
 10
12.4297010102
 20
4.9763476373
  0
LWPOLYLINE
  5
7AB
100
AcDbEntity
  8
0
100
AcDbPolyline
 62
7
  6
CONTINUOUS
 90
11
 70
0
 10
12.6169659956
 20
4.8161103805
 10
12.5860997196
 20
4.8197517736
 10
12.5562450485
 20
4.8258410654
 10
12.5281390742
 20
4.8342763898
 10
12.5025791613
 20
4.84481024
 10
12.4801525434
 20
4.8571185777
 10
12.4609504101
 20
4.8710937598
 10
12.4452870064
 20
4.886547843
 10
12.4336217135
 20
4.9030476513
 10
12.4261667363
 20
4.9201921618
 10
12.4229705085
 20
4.9377672184
  0
LWPOLYLINE
  5
7AC
100
AcDbEntity
  8
0
100
AcDbPolyline
 62
7
  6
CONTINUOUS
 90
5
 70
0
 10
12.5998033147
 20
4.8483114183
 10
12.6064784563
 20
4.8474546476
 10
12.6360725195
 20
4.8452339847
 10
12.6660962859
 20
4.8455034743
 10
12.6968477518
 20
4.8483995529
  0
LWPOLYLINE
  5
7AD
100
AcDbEntity
  8
0
100
AcDbPolyline
 62
7
  6
CONTINUOUS
 90
5
 70
0
 10
12.5998033147
 20
4.9126029472
 10
12.6064784563
 20
4.9117461765
 10
12.6360725195
 20
4.9095255136
 10
12.6660962859
 20
4.9097950032
 10
12.6968477518
 20
4.9126910818
  0
LINE
  5
7AE
100
AcDbEntity
  8
0
100
AcDbLine
 62
7
  6
CONTINUOUS
 10
12.4913386952
 20
4.720359009
 11
12.4913424995
 21
4.7203568126
  0
LWPOLYLINE
  5
7AF
100
AcDbEntity
  8
0
100
AcDbPolyline
 62
7
  6
CONTINUOUS
 90
4
 70
0
 10
12.4913382651
 20
4.7203592573
 10
12.4749631819
 20
4.7308591967
 10
12.460575062
 20
4.7422925169
 10
12.4483357777
 20
4.7545315086
  0
LWPOLYLINE
  5
7B0
100
AcDbEntity
  8
0
100
AcDbPolyline
 62
9
  6
CONTINUOUS
 90
4
 70
0
 10
11.9270953298
 20
7.1903676733
 10
11.9773378667
 20
7.2492445035
 10
12.0372122324
 20
7.3000289318
 10
12.0999252668
 20
7.3408696495
  0
LINE
  5
7B1
100
AcDbEntity
  8
0
100
AcDbLine
 62
7
  6
CONTINUOUS
 10
12.7145271806
 20
4.9491688839
 11
12.7121194893
 21
4.9486727674
  0
LWPOLYLINE
  5
7B2
100
AcDbEntity
  8
0
100
AcDbPolyline
 62
7
  6
CONTINUOUS
 90
3
 70
0
 10
12.7026864024
 20
4.9456443624
 10
12.7124876772
 20
4.9471258016
 10
12.7242502294
 20
4.9495633075
  0
LWPOLYLINE
  5
7B3
100
AcDbEntity
  8
0
100
AcDbPolyline
 62
7
  6
CONTINUOUS
 90
4
 70
0
 10
12.7121194893
 20
4.9486727674
 10
12.6805859742
 20
4.9448326929
 10
12.6483894208
 20
4.9435069068
 10
12.6164397235
 20
4.9447345022
  0
LWPOLYLINE
  5
7B4
100
AcDbEntity
  8
0
100
AcDbPolyline
 62
7
  6
CONTINUOUS
 90
3
 70
0
 10
12.7244989245
 20
4.949573396
 10
12.6637294653
 20
4.9471082325
 10
12.6028914373
 20
4.9486493132
  0
LWPOLYLINE
  5
7B5
100
AcDbEntity
  8
0
100
AcDbPolyline
 62
7
  6
CONTINUOUS
 90
7
 70
0
 10
12.6028914373
 20
4.9486493132
 10
12.5427073488
 20
4.9541787984
 10
12.4838274564
 20
4.9636532117
 10
12.4269901435
 20
4.9769834244
 10
12.3727862983
 20
4.9940801679
 10
12.3220139771
 20
5.0147506206
 10
12.2751163338
 20
5.0389021283
  0
LWPOLYLINE
  5
7B6
100
AcDbEntity
  8
0
100
AcDbPolyline
 62
7
  6
CONTINUOUS
 90
5
 70
0
 10
12.5998033147
 20
4.9447487117
 10
12.6211828911
 20
4.9424729873
 10
12.6510697139
 20
4.9414929195
 10
12.6810738939
 20
4.9430144141
 10
12.6968477518
 20
4.9448368463
  0
LWPOLYLINE
  5
7B7
100
AcDbEntity
  8
0
100
AcDbPolyline
 62
7
  6
CONTINUOUS
 90
5
 70
0
 10
12.5939586878
 20
4.9455570544
 10
12.6173334564
 20
4.9430578988
 10
12.6490074182
 20
4.9419009245
 10
12.6810189612
 20
4.9432608251
 10
12.7026864024
 20
4.9456443624
  0
LWPOLYLINE
  5
7B8
100
AcDbEntity
  8
0
100
AcDbPolyline
 62
7
  6
CONTINUOUS
 90
3
 70
0
 10
12.6164397235
 20
4.9447345022
 10
12.5855734769
 20
4.9484193633
 10
12.5694947846
 20
4.9517176707
  0
LWPOLYLINE
  5
7B9
100
AcDbEntity
  8
0
100
AcDbPolyline
 62
7
  6
CONTINUOUS
 90
4
 70
0
 10
12.5557540014
 20
4.9529801216
 10
12.5565810101
 20
4.9527328906
 10
12.5864547887
 20
4.9466709482
 10
12.5939586878
 20
4.9455570544
  0
LWPOLYLINE
  5
7BA
100
AcDbEntity
  8
0
100
AcDbPolyline
 62
7
  6
CONTINUOUS
 90
20
 70
0
 10
12.2708824282
 20
5.1163764136
 10
12.3212936598
 20
5.0944749846
 10
12.3756938506
 20
5.0758780085
 10
12.4334360326
 20
5.0608166126
 10
12.4938334922
 20
5.0494798763
 10
12.5561679374
 20
5.0420125828
 10
12.6196980401
 20
5.0385134968
 10
12.6836682524
 20
5.03903419
 10
12.7473177923
 20
5.043578428
 10
12.8098896917
 20
5.0521021255
 10
12.8706397984
 20
5.0645138702
 10
12.9288456263
 20
5.0806760103
 10
12.983814948
 20
5.1004062915
 10
13.0348940268
 20
5.1234800246
 10
13.0814753919
 20
5.1496327574
 10
13.1230050627
 20
5.1785634199
 10
13.158989137
 20
5.209937905
 10
13.1889996651
 20
5.2433930416
 10
13.2126797392
 20
5.2785409143
 10
13.229747738
 20
5.314973476
  0
LWPOLYLINE
  5
7BB
100
AcDbEntity
  8
0
100
AcDbPolyline
 62
9
  6
CONTINUOUS
 90
21
 70
0
 10
12.2669623054
 20
5.056925205
 10
12.3113858964
 20
5.0339159037
 10
12.3598580335
 20
5.0138144779
 10
12.4118104269
 20
4.9968565981
 10
12.4666339801
 20
4.9832410807
 10
12.5236859316
 20
4.9731275559
 10
12.5822974048
 20
4.966634594
 10
12.6417812352
 20
4.9638383189
 10
12.7014400288
 20
4.9647715147
 10
12.7605743392
 20
4.9694232403
 10
12.8184908722
 20
4.9777389586
 10
12.8745106084
 20
4.9896211754
 10
12.9279767688
 20
5.0049305826
 10
12.9782625103
 20
5.0234876913
 10
13.0247782796
 20
5.0450749366
 10
13.0669787211
 20
5.0694392274
 10
13.104369074
 20
5.0962949152
 10
13.1365109698
 20
5.125327141
 10
13.1630275749
 20
5.1561955293
 10
13.1836080057
 20
5.1885381756
 10
13.184383845
 20
5.1903393523
  0
LWPOLYLINE
  5
7BC
100
AcDbEntity
  8
0
100
AcDbPolyline
 62
7
  6
CONTINUOUS
 90
6
 70
0
 10
12.2751163338
 20
5.0389021283
 10
12.2364238227
 20
5.063694481
 10
12.2020965111
 20
5.0908813699
 10
12.1725960502
 20
5.120123528
 10
12.1483010324
 20
5.1509930847
 10
12.1460340856
 20
5.15484217
  0
LWPOLYLINE
  5
7BD
100
AcDbEntity
  8
0
100
AcDbPolyline
 62
7
  6
CONTINUOUS
 90
3
 70
0
 10
12.4483357777
 20
4.7545315086
 10
12.465139346
 20
4.7391001058
 10
12.4856712086
 20
4.7251760855
  0
LWPOLYLINE
  5
7BE
100
AcDbEntity
  8
0
100
AcDbPolyline
 62
9
  6
CONTINUOUS
 90
10
 70
0
 10
11.5543423735
 20
6.3057686166
 10
11.5555221275
 20
6.2763475144
 10
11.5649255392
 20
6.2178064333
 10
11.5836457065
 20
6.1600158806
 10
11.6115230841
 20
6.1034688648
 10
11.6483194981
 20
6.0486485754
 10
11.6937229599
 20
5.9960205906
 10
11.7473376093
 20
5.9460422071
 10
11.8087238423
 20
5.899124327
 10
11.877220033
 20
5.8557513401
  0
LWPOLYLINE
  5
7BF
100
AcDbEntity
  8
0
100
AcDbPolyline
 62
7
  6
CONTINUOUS
 90
13
 70
0
 10
11.5543425841
 20
6.3057688973
 10
11.5555748724
 20
6.2677818212
 10
11.5604150826
 20
6.2228762173
 10
11.5691671304
 20
6.1783980983
 10
11.5821768056
 20
6.1340830327
 10
11.5999242481
 20
6.0896316389
 10
11.623051475
 20
6.0447791314
 10
11.6521100743
 20
5.9997095657
 10
11.6875623695
 20
5.9547651676
 10
11.7297806121
 20
5.9103608534
 10
11.7790343274
 20
5.8669637463
 10
11.8354673108
 20
5.8250845092
 10
11.8972665375
 20
5.7863145079
  0
LWPOLYLINE
  5
7C0
100
AcDbEntity
  8
0
100
AcDbPolyline
 62
9
  6
CONTINUOUS
 90
15
 70
0
 10
11.5543423732
 20
6.8908370031
 10
11.5549799645
 20
6.8691941167
 10
11.5703543251
 20
6.7827561035
 10
11.6059774321
 20
6.6983346101
 10
11.6611838663
 20
6.617503113
 10
11.7349433423
 20
6.5417678432
 10
11.8258798632
 20
6.4725399498
 10
11.932297492
 20
6.4111091087
 10
12.052211989
 20
6.3586195404
 10
12.183389506
 20
6.3160482511
 10
12.3233886859
 20
6.2841875329
 10
12.4696028088
 20
6.2636313075
 10
12.6193072211
 20
6.2547635028
 10
12.7697130116
 20
6.2577502587
 10
12.9180126313
 20
6.2725363514
  0
LINE
  5
7C1
100
AcDbEntity
  8
0
100
AcDbLine
 62
7
  6
CONTINUOUS
 10
11.5543423735
 20
6.8908517608
 11
11.5543423732
 21
6.8908370031
  0
LINE
  5
7C2
100
AcDbEntity
  8
02___PRT_ALL_AXES
100
AcDbLine
 62
7
  6
CONTINUOUS
 10
11.5543423732
 20
6.8908371787
 11
11.5543423732
 21
6.3057842657
  0
LINE
  5
7C3
100
AcDbEntity
  8
0
100
AcDbLine
 62
7
  6
CONTINUOUS
 10
11.5543423732
 20
6.3057842999
 11
11.5543423735
 21
6.3057686166
  0
LWPOLYLINE
  5
7C4
100
AcDbEntity
  8
0
100
AcDbPolyline
 62
7
  6
CONTINUOUS
 90
14
 70
0
 10
12.773343693
 20
5.0948404774
 10
12.8352520698
 20
5.1049843241
 10
12.8950370253
 20
5.1189648699
 10
12.951987552
 20
5.1366258055
 10
13.0054263511
 20
5.1577670519
 10
13.0547178884
 20
5.1821471396
 10
13.0992759516
 20
5.2094860801
 10
13.1385706229
 20
5.2394686964
 10
13.1721345802
 20
5.2717483706
 10
13.1995686559
 20
5.3059511665
 10
13.2205465832
 20
5.3416802768
 10
13.2348188768
 20
5.3785207421
 10
13.2422157999
 20
5.4160443859
 10
13.2433187512
 20
5.4372736742
  0
LWPOLYLINE
  5
7C5
100
AcDbEntity
  8
0
100
AcDbPolyline
 62
7
  6
CONTINUOUS
 90
10
 70
0
 10
12.736319676
 20
5.1389391046
 10
12.7991326057
 20
5.1467769126
 10
12.8602516742
 20
5.1585219995
 10
12.9189500073
 20
5.1740446418
 10
12.9745295203
 20
5.1931701907
 10
13.0263292197
 20
5.2156811487
 10
13.0737330646
 20
5.2413197566
 10
13.1161772927
 20
5.2697910588
 10
13.1531571253
 20
5.3007664113
 10
13.1842327704
 20
5.3338873899
  0
LWPOLYLINE
  5
7C6
100
AcDbEntity
  8
0
100
AcDbPolyline
 62
7
  6
CONTINUOUS
 90
13
 70
0
 10
12.736319676
 20
5.1449664354
 10
12.7991326057
 20
5.1528042435
 10
12.8602516742
 20
5.1645493304
 10
12.9189500073
 20
5.1800719727
 10
12.9745295203
 20
5.1991975215
 10
13.0263292197
 20
5.2217084795
 10
13.0737330646
 20
5.2473470874
 10
13.1161772927
 20
5.2758183897
 10
13.1531571253
 20
5.3067937422
 10
13.1842327704
 20
5.3399147207
 10
13.209034653
 20
5.3747973838
 10
13.2272678105
 20
5.4110368385
 10
13.2387154003
 20
5.448212056
  0
LWPOLYLINE
  5
7C7
100
AcDbEntity
  8
0
100
AcDbPolyline
 62
7
  6
CONTINUOUS
 90
10
 70
0
 10
12.7603463344
 20
5.136857787
 10
12.7013258362
 20
5.1313962116
 10
12.6416963947
 20
5.1296387656
 10
12.5823133725
 20
5.1316025044
 10
12.5237375513
 20
5.1372584727
 10
12.4667705423
 20
5.1465203829
 10
12.4120854457
 20
5.159257054
 10
12.3600693338
 20
5.1753835506
 10
12.3114098651
 20
5.1947173711
 10
12.3084056917
 20
5.1962170827
  0
LWPOLYLINE
  5
7C8
100
AcDbEntity
  8
0
100
AcDbPolyline
 62
7
  6
CONTINUOUS
 90
9
 70
0
 10
12.2625788952
 20
5.216934814
 10
12.3122347989
 20
5.1944859904
 10
12.3659873966
 20
5.1752973889
 10
12.4231974219
 20
5.1596071729
 10
12.4831844901
 20
5.1476119003
 10
12.5452351899
 20
5.1394641859
 10
12.6086115675
 20
5.1352708866
 10
12.6725599035
 20
5.1350918304
 10
12.736319676
 20
5.1389391046
  0
LWPOLYLINE
  5
7C9
100
AcDbEntity
  8
0
100
AcDbPolyline
 62
7
  6
CONTINUOUS
 90
10
 70
0
 10
12.243399412
 20
5.1788791795
 10
12.2911872837
 20
5.155162095
 10
12.3433221622
 20
5.1345953353
 10
12.3991840205
 20
5.1174334539
 10
12.4581085071
 20
5.1038905106
 10
12.5193948478
 20
5.0941375266
 10
12.5823141791
 20
5.0883004497
 10
12.6461182171
 20
5.0864586568
 10
12.710048156
 20
5.08864401
 10
12.773343693
 20
5.0948404774
  0
LINE
  5
7CA
100
AcDbEntity
  8
0
100
AcDbLine
 62
7
  6
CONTINUOUS
 10
12.2250596841
 20
5.1413118691
 11
12.2708824282
 21
5.1163764136
  0
LWPOLYLINE
  5
7CB
100
AcDbEntity
  8
0
100
AcDbPolyline
 62
7
  6
CONTINUOUS
 90
8
 70
0
 10
12.4568855887
 20
4.9699719627
 10
12.4614947656
 20
4.9654668388
 10
12.4809570888
 20
4.9514434142
 10
12.5034883828
 20
4.9392090276
 10
12.5288193394
 20
4.9288666878
 10
12.5566549602
 20
4.9205686986
 10
12.5863563328
 20
4.9145408413
 10
12.5939586878
 20
4.91341129
  0
LWPOLYLINE
  5
7CC
100
AcDbEntity
  8
0
100
AcDbPolyline
 62
9
  6
CONTINUOUS
 90
4
 70
0
 10
12.1737661375
 20
5.1294737018
 10
12.1922905046
 20
5.1105574439
 10
12.2271080925
 20
5.0825726148
 10
12.2669623054
 20
5.056925205
  0
LWPOLYLINE
  5
7CD
100
AcDbEntity
  8
0
100
AcDbPolyline
 62
7
  6
CONTINUOUS
 90
3
 70
0
 10
11.5649141859
 20
6.5634203763
 10
11.5555188334
 20
6.6219555854
 10
11.5543442552
 20
6.6513512354
  0
LWPOLYLINE
  5
7CE
100
AcDbEntity
  8
0
100
AcDbPolyline
 62
7
  6
CONTINUOUS
 90
6
 70
0
 10
11.8698535067
 20
7.0203435003
 10
11.8830295801
 20
7.0878609135
 10
11.9134882745
 20
7.1534904334
 10
11.960549193
 20
7.2157660051
 10
12.0231610724
 20
7.2732964951
 10
12.0999252668
 20
7.3247967673
  0
LWPOLYLINE
  5
7CF
100
AcDbEntity
  8
0
100
AcDbPolyline
 62
7
  6
CONTINUOUS
 90
10
 70
0
 10
12.7315107103
 20
5.1819375821
 10
12.6753604696
 20
5.1783905442
 10
12.6189194562
 20
5.1781705262
 10
12.5629683761
 20
5.1812724417
 10
12.5079045269
 20
5.1876661383
 10
12.4544825245
 20
5.1972565977
 10
12.4030425421
 20
5.2099802671
 10
12.3542642213
 20
5.2256757212
 10
12.3087981074
 20
5.2441087476
 10
12.302144162
 20
5.2474513085
  0
LWPOLYLINE
  5
7D0
100
AcDbEntity
  8
0
100
AcDbPolyline
 62
7
  6
CONTINUOUS
 90
19
 70
0
 10
12.254416879
 20
5.3175832855
 10
12.303299625
 20
5.2945954285
 10
12.3563853289
 20
5.2748223922
 10
12.4130426554
 20
5.2585092905
 10
12.4725977929
 20
5.2458600893
 10
12.534342467
 20
5.2370351804
 10
12.5975423634
 20
5.2321494742
 10
12.6614458615
 20
5.2312710333
 10
12.7252929726
 20
5.2344202629
 10
12.7883243789
 20
5.241569668
 10
12.8497904634
 20
5.2526441805
 10
12.9089602251
 20
5.267522052
 10
12.9651299728
 20
5.2860363018
 10
13.0176316934
 20
5.3079767024
 10
13.065840997
 20
5.3330922802
 10
13.1091845422
 20
5.3610942998
 10
13.147146855
 20
5.3916596982
 10
13.1792764589
 20
5.4244349268
 10
13.2051912445
 20
5.4590401558
  0
LWPOLYLINE
  5
7D1
100
AcDbEntity
  8
0
100
AcDbPolyline
 62
7
  6
CONTINUOUS
 90
19
 70
0
 10
12.2355857394
 20
5.2797355795
 10
12.2825591649
 20
5.2555001248
 10
12.3339822095
 20
5.2343668749
 10
12.3892433115
 20
5.2165971203
 10
12.4476852642
 20
5.2024121506
 10
12.508613032
 20
5.1919906219
 10
12.571302016
 20
5.185466433
 10
12.6350066715
 20
5.1829271327
 10
12.6989693749
 20
5.184412878
 10
12.7624294335
 20
5.1899159576
 10
12.8246321326
 20
5.1993808827
 10
12.8848377106
 20
5.2127050473
 10
12.9423301577
 20
5.2297399485
 10
12.9964257304
 20
5.2502929525
 10
13.0464810832
 20
5.2741295854
 10
13.0919009204
 20
5.3009763222
 10
13.132145075
 20
5.3305238393
 10
13.1667349332
 20
5.3624306935
 10
13.1952591263
 20
5.3963273823
  0
LWPOLYLINE
  5
7D2
100
AcDbEntity
  8
0
100
AcDbPolyline
 62
7
  6
CONTINUOUS
 90
19
 70
0
 10
12.2279232757
 20
5.3806766383
 10
12.2740653887
 20
5.355931816
 10
12.324758135
 20
5.3342399647
 10
12.3793986383
 20
5.3158690183
 10
12.4373370727
 20
5.3010474159
 10
12.4978843907
 20
5.2899613852
 10
12.5603205179
 20
5.2827527277
 10
12.623902917
 20
5.2795171323
 10
12.687875418
 20
5.280303037
 10
12.751477212
 20
5.2851110535
 10
12.8139518985
 20
5.2938939591
 10
12.8745564814
 20
5.306557259
 10
12.9325702054
 20
5.3229603098
 10
12.9873031277
 20
5.3429179921
 10
13.0381043231
 20
5.3662029121
 10
13.0843696255
 20
5.392548106
 10
13.1255488132
 20
5.4216502151
 10
13.1611521521
 20
5.4531730932
 10
13.1907562207
 20
5.4867518046
  0
LWPOLYLINE
  5
7D3
100
AcDbEntity
  8
0
100
AcDbPolyline
 62
7
  6
CONTINUOUS
 90
5
 70
0
 10
12.1024328296
 20
5.401259554
 10
12.1266458644
 20
5.3679105346
 10
12.1571627565
 20
5.3362870186
 10
12.1936205761
 20
5.3067750548
 10
12.2355857394
 20
5.2797355795
  0
LWPOLYLINE
  5
7D4
100
AcDbEntity
  8
0
100
AcDbPolyline
 62
7
  6
CONTINUOUS
 90
6
 70
0
 10
12.094339501
 20
5.3672283307
 10
12.1158595428
 20
5.3332840813
 10
12.143811721
 20
5.3008995723
 10
12.1778636073
 20
5.2704699028
 10
12.217610231
 20
5.2423669234
 10
12.2625788952
 20
5.216934814
  0
LINE
  5
7D5
100
AcDbEntity
  8
0
100
AcDbLine
 62
7
  6
CONTINUOUS
 10
11.583624309
 20
6.5056353623
 11
11.5649141859
 21
6.5634203763
  0
LINE
  5
7D6
100
AcDbEntity
  8
0
100
AcDbLine
 62
7
  6
CONTINUOUS
 10
11.8697256735
 20
7.0163648405
 11
11.8698535067
 21
7.0203435003
  0
LWPOLYLINE
  5
7D7
100
AcDbEntity
  8
0
100
AcDbPolyline
 62
9
  6
CONTINUOUS
 90
4
 70
0
 10
11.8693030031
 20
7.0194202365
 10
11.8725402874
 20
7.0606005718
 10
11.8914008926
 20
7.1263634117
 10
11.9270953298
 20
7.1903676733
  0
LWPOLYLINE
  5
7D8
100
AcDbEntity
  8
0
100
AcDbPolyline
 62
7
  6
CONTINUOUS
 90
18
 70
0
 10
12.2657090046
 20
5.4564556822
 10
12.3156532507
 20
5.434213319
 10
12.369653536
 20
5.4152480777
 10
12.4270676484
 20
5.3997954652
 10
12.4872127761
 20
5.3880492138
 10
12.549373628
 20
5.3801589767
 10
12.6128109403
 20
5.3762285486
 10
12.6767702688
 20
5.3763146312
 10
12.740490961
 20
5.3804261588
 10
12.8032152024
 20
5.3885241919
 10
12.8641970292
 20
5.4005223809
 10
12.9227111995
 20
5.4162879922
 10
12.9780618187
 20
5.4356434873
 10
13.0295906157
 20
5.4583686342
 10
13.0766847711
 20
5.4842031263
 10
13.1187842059
 20
5.5128496785
 10
13.1553882417
 20
5.5439775625
 10
13.1860615559
 20
5.57722654
  0
LWPOLYLINE
  5
7D9
100
AcDbEntity
  8
0
100
AcDbPolyline
 62
7
  6
CONTINUOUS
 90
19
 70
0
 10
12.2463993101
 20
5.4183202638
 10
12.2944913464
 20
5.3948019281
 10
12.3468910953
 20
5.3744518575
 10
12.4029753793
 20
5.3575220283
 10
12.462077202
 20
5.344223741
 10
12.5234936801
 20
5.3347251068
 10
12.5864944024
 20
5.3291490486
 10
12.650330117
 20
5.3275718393
 10
12.7142416415
 20
5.3300221941
 10
12.777468892
 20
5.3364809297
 10
12.8392599222
 20
5.346881192
 10
12.8988798669
 20
5.3611092513
 10
12.9556196806
 20
5.3790058548
 10
13.0088045709
 20
5.4003681208
 10
13.0578020229
 20
5.424951951
 10
13.1020293221
 20
5.4524749341
 10
13.1409604841
 20
5.4826197041
 10
13.1741325103
 20
5.5150377148
 10
13.2011508938
 20
5.5493533849
  0
LWPOLYLINE
  5
7DA
100
AcDbEntity
  8
0
100
AcDbPolyline
 62
7
  6
CONTINUOUS
 90
19
 70
0
 10
12.2385290674
 20
5.5191441527
 10
12.2858131258
 20
5.4951040837
 10
12.3375081047
 20
5.4741845863
 10
12.3929992085
 20
5.4566444093
 10
12.451626495
 20
5.4427021115
 10
12.5126927245
 20
5.4325334633
 10
12.5754716514
 20
5.426269356
 10
12.6392166614
 20
5.4239942451
 10
12.703169651
 20
5.425745146
 10
12.7665700428
 20
5.4315111937
 10
12.8286638319
 20
5.4412337721
 10
12.888712552
 20
5.454807211
 10
12.9460020586
 20
5.4720800429
 10
12.9998510217
 20
5.4928568043
 10
13.0496190289
 20
5.5169003603
 10
13.0947142016
 20
5.5439347251
 10
13.134600234
 20
5.5736483434
 10
13.1688027715
 20
5.6056977968
 10
13.1969150516
 20
5.639711887
  0
LWPOLYLINE
  5
7DB
100
AcDbEntity
  8
0
100
AcDbPolyline
 62
7
  6
CONTINUOUS
 90
5
 70
0
 10
12.1076408269
 20
5.5377930954
 10
12.1333926684
 20
5.5048209823
 10
12.1653681292
 20
5.4736688726
 10
12.203186933
 20
5.4447172087
 10
12.2463993101
 20
5.4183202638
  0
LWPOLYLINE
  5
7DC
100
AcDbEntity
  8
0
100
AcDbPolyline
 62
7
  6
CONTINUOUS
 90
5
 70
0
 10
12.1038264729
 20
5.6401128914
 10
12.1284640778
 20
5.6068651342
 10
12.1593839165
 20
5.57536897
 10
12.196218267
 20
5.5460089329
 10
12.2385290674
 20
5.5191441527
  0
LWPOLYLINE
  5
7DD
100
AcDbEntity
  8
0
100
AcDbPolyline
 62
7
  6
CONTINUOUS
 90
5
 70
0
 10
12.0988925661
 20
5.5036348289
 10
12.1219792706
 20
5.470027067
 10
12.1514253311
 20
5.4380755373
 10
12.1868805529
 20
5.4081701894
 10
12.2279232757
 20
5.3806766383
  0
LWPOLYLINE
  5
7DE
100
AcDbEntity
  8
0
100
AcDbPolyline
 62
7
  6
CONTINUOUS
 90
6
 70
0
 10
12.0955525933
 20
5.6060477407
 10
12.1175046779
 20
5.5721936043
 10
12.1458693337
 20
5.5399258341
 10
12.1803092269
 20
5.5096381407
 10
12.2204147723
 20
5.4817006863
 10
12.2657090046
 20
5.4564556822
  0
LWPOLYLINE
  5
7DF
100
AcDbEntity
  8
0
100
AcDbPolyline
 62
7
  6
CONTINUOUS
 90
6
 70
0
 10
12.0912776705
 20
5.469689534
 10
12.1116523303
 20
5.435516109
 10
12.1385091618
 20
5.4028317797
 10
12.1715287634
 20
5.3720352109
 10
12.2103184412
 20
5.3435026164
 10
12.254416879
 20
5.3175832855
  0
LWPOLYLINE
  5
7E0
100
AcDbEntity
  8
0
100
AcDbPolyline
 62
7
  6
CONTINUOUS
 90
3
 70
0
 10
12.0739917759
 20
5.4714921383
 10
12.0848116119
 20
5.435927507
 10
12.1024328296
 20
5.401259554
  0
LINE
  5
7E1
100
AcDbEntity
  8
0
100
AcDbLine
 62
7
  6
CONTINUOUS
 10
12.0700904047
 20
5.5096016443
 11
12.0739917759
 21
5.4714921383
  0
LWPOLYLINE
  5
7E2
100
AcDbEntity
  8
0
100
AcDbPolyline
 62
7
  6
CONTINUOUS
 90
29
 70
0
 10
12.0700904047
 20
5.5156289751
 10
12.0739917759
 20
5.4775194692
 10
12.0848116119
 20
5.4419548379
 10
12.1024328296
 20
5.4072868848
 10
12.1266458644
 20
5.3739378654
 10
12.1571627565
 20
5.3423143495
 10
12.1936205761
 20
5.3128023856
 10
12.2355857394
 20
5.2857629104
 10
12.2825591649
 20
5.2615274556
 10
12.3339822095
 20
5.2403942057
 10
12.3892433115
 20
5.2226244512
 10
12.4476852642
 20
5.2084394814
 10
12.508613032
 20
5.1980179527
 10
12.571302016
 20
5.1914937639
 10
12.6350066715
 20
5.1889544635
 10
12.6989693749
 20
5.1904402089
 10
12.7624294335
 20
5.1959432885
 10
12.8246321326
 20
5.2054082136
 10
12.8848377106
 20
5.2187323782
 10
12.9423301577
 20
5.2357672794
 10
12.9964257304
 20
5.2563202833
 10
13.0464810832
 20
5.2801569163
 10
13.0919009204
 20
5.3070036531
 10
13.132145075
 20
5.3365511702
 10
13.1667349332
 20
5.3684580243
 10
13.1952591263
 20
5.4023547132
 10
13.2173784232
 20
5.4378480699
 10
13.2328297646
 20
5.4745259387
 10
13.2414293915
 20
5.5119620769
  0
LWPOLYLINE
  5
7E3
100
AcDbEntity
  8
0
100
AcDbPolyline
 62
7
  6
CONTINUOUS
 90
4
 70
0
 10
12.0700904047
 20
5.6060389376
 10
12.0728165875
 20
5.5741656364
 10
12.0824397821
 20
5.5384891761
 10
12.0988925661
 20
5.5036348289
  0
LWPOLYLINE
  5
7E4
100
AcDbEntity
  8
0
100
AcDbPolyline
 62
7
  6
CONTINUOUS
 90
29
 70
0
 10
12.0700904047
 20
5.6120662685
 10
12.0728165875
 20
5.5801929672
 10
12.0824397821
 20
5.544516507
 10
12.0988925661
 20
5.5096621598
 10
12.1219792706
 20
5.4760543979
 10
12.1514253311
 20
5.4441028681
 10
12.1868805529
 20
5.4141975202
 10
12.2279232757
 20
5.3867039691
 10
12.2740653887
 20
5.3619591468
 10
12.324758135
 20
5.3402672956
 10
12.3793986383
 20
5.3218963491
 10
12.4373370727
 20
5.3070747467
 10
12.4978843907
 20
5.295988716
 10
12.5603205179
 20
5.2887800586
 10
12.623902917
 20
5.2855444631
 10
12.687875418
 20
5.2863303679
 10
12.751477212
 20
5.2911383843
 10
12.8139518985
 20
5.2999212899
 10
12.8745564814
 20
5.3125845899
 10
12.9325702054
 20
5.3289876406
 10
12.9873031277
 20
5.3489453229
 10
13.0381043231
 20
5.3722302429
 10
13.0843696255
 20
5.3985754369
 10
13.1255488132
 20
5.427677546
 10
13.1611521521
 20
5.4592004241
 10
13.1907562207
 20
5.4927791354
 10
13.214008945
 20
5.5280242947
 10
13.2306337861
 20
5.564526698
 10
13.240433029
 20
5.6018621894
  0
LWPOLYLINE
  5
7E5
100
AcDbEntity
  8
0
100
AcDbPolyline
 62
7
  6
CONTINUOUS
 90
8
 70
0
 10
12.0700904047
 20
5.3649457042
 10
12.0724260096
 20
5.3354387801
 10
12.0815948141
 20
5.299723366
 10
12.0976032569
 20
5.2648017302
 10
12.1202609537
 20
5.231099145
 10
12.149298442
 20
5.1990263851
 10
12.1843703861
 20
5.168974842
 10
12.2250596841
 20
5.1413118691
  0
LWPOLYLINE
  5
7E6
100
AcDbEntity
  8
0
100
AcDbPolyline
 62
7
  6
CONTINUOUS
 90
26
 70
0
 10
12.0700904047
 20
5.3709730351
 10
12.0724260096
 20
5.3414661109
 10
12.0815948141
 20
5.3057506968
 10
12.0976032569
 20
5.270829061
 10
12.1202609537
 20
5.2371264758
 10
12.149298442
 20
5.205053716
 10
12.1843703861
 20
5.1750021728
 10
12.2250596841
 20
5.1473392
 10
12.2708824282
 20
5.1224037444
 10
12.3212936598
 20
5.1005023154
 10
12.3756938506
 20
5.0819053393
 10
12.4334360326
 20
5.0668439434
 10
12.4938334922
 20
5.0555072072
 10
12.5561679374
 20
5.0480399136
 10
12.6196980401
 20
5.0445408276
 10
12.6836682524
 20
5.0450615208
 10
12.7473177923
 20
5.0496057589
 10
12.8098896917
 20
5.0581294563
 10
12.8706397984
 20
5.070541201
 10
12.9288456263
 20
5.0867033411
 10
12.983814948
 20
5.1064336224
 10
13.0348940268
 20
5.1295073555
 10
13.0814753919
 20
5.1556600882
 10
13.1230050627
 20
5.1845907507
 10
13.158989137
 20
5.2159652358
 10
13.1889996651
 20
5.2494203725
  0
LWPOLYLINE
  5
7E7
100
AcDbEntity
  8
0
100
AcDbPolyline
 62
7
  6
CONTINUOUS
 90
4
 70
0
 10
12.0700904047
 20
5.702476231
 10
12.0718510527
 20
5.6768508448
 10
12.0802741506
 20
5.6410756664
 10
12.0955525933
 20
5.6060477407
  0
LWPOLYLINE
  5
7E8
100
AcDbEntity
  8
0
100
AcDbPolyline
 62
7
  6
CONTINUOUS
 90
30
 70
0
 10
12.070293697
 20
5.70554474
 10
12.0718510527
 20
5.6828781757
 10
12.0802741506
 20
5.6471029972
 10
12.0955525933
 20
5.6120750715
 10
12.1175046779
 20
5.5782209351
 10
12.1458693337
 20
5.5459531649
 10
12.1803092269
 20
5.5156654715
 10
12.2204147723
 20
5.4877280172
 10
12.2657090046
 20
5.4624830131
 10
12.3156532507
 20
5.4402406499
 10
12.369653536
 20
5.4212754085
 10
12.4270676484
 20
5.4058227961
 10
12.4872127761
 20
5.3940765446
 10
12.549373628
 20
5.3861863075
 10
12.6128109403
 20
5.3822558794
 10
12.6767702688
 20
5.382341962
 10
12.740490961
 20
5.3864534896
 10
12.8032152024
 20
5.3945515228
 10
12.8641970292
 20
5.4065497117
 10
12.9227111995
 20
5.422315323
 10
12.9780618187
 20
5.4416708181
 10
13.0295906157
 20
5.464395965
 10
13.0766847711
 20
5.4902304571
 10
13.1187842059
 20
5.5188770094
 10
13.1553882417
 20
5.5500048933
 10
13.1860615559
 20
5.5832538709
 10
13.2104393584
 20
5.6182384781
 10
13.2282317299
 20
5.6545526099
 10
13.2392270701
 20
5.6917743492
 10
13.240540324
 20
5.7048817654
  0
LWPOLYLINE
  5
7E9
100
AcDbEntity
  8
0
100
AcDbPolyline
 62
7
  6
CONTINUOUS
 90
4
 70
0
 10
12.0700904047
 20
5.4613829976
 10
12.0715400171
 20
5.4381278265
 10
12.0795075281
 20
5.4023186721
 10
12.094339501
 20
5.3672283307
  0
LWPOLYLINE
  5
7EA
100
AcDbEntity
  8
0
100
AcDbPolyline
 62
7
  6
CONTINUOUS
 90
17
 70
0
 10
12.0700904047
 20
5.4674103284
 10
12.0715400171
 20
5.4441551573
 10
12.0795075281
 20
5.4083460029
 10
12.094339501
 20
5.3732556616
 10
12.1158595428
 20
5.3393114121
 10
12.143811721
 20
5.3069269031
 10
12.1778636073
 20
5.2764972336
 10
12.217610231
 20
5.2483942543
 10
12.2625788952
 20
5.2229621449
 10
12.3122347989
 20
5.2005133212
 10
12.3659873966
 20
5.1813247197
 10
12.4231974219
 20
5.1656345037
 10
12.4831844901
 20
5.1536392311
 10
12.5452351899
 20
5.1454915168
 10
12.6086115675
 20
5.1412982175
 10
12.6725599035
 20
5.1411191612
 10
12.736319676
 20
5.1449664354
  0
LWPOLYLINE
  5
7EB
100
AcDbEntity
  8
0
100
AcDbPolyline
 62
7
  6
CONTINUOUS
 90
4
 70
0
 10
12.0700904047
 20
5.5578202909
 10
12.0708641367
 20
5.5408254168
 10
12.0776274932
 20
5.5049356805
 10
12.0912776705
 20
5.469689534
  0
LWPOLYLINE
  5
7EC
100
AcDbEntity
  8
0
100
AcDbPolyline
 62
7
  6
CONTINUOUS
 90
30
 70
0
 10
12.0700904047
 20
5.5638476218
 10
12.0708641367
 20
5.5468527477
 10
12.0776274932
 20
5.5109630114
 10
12.0912776705
 20
5.4757168648
 10
12.1116523303
 20
5.4415434399
 10
12.1385091618
 20
5.4088591106
 10
12.1715287634
 20
5.3780625417
 10
12.2103184412
 20
5.3495299472
 10
12.254416879
 20
5.3236106163
 10
12.303299625
 20
5.3006227593
 10
12.3563853289
 20
5.280849723
 10
12.4130426554
 20
5.2645366214
 10
12.4725977929
 20
5.2518874201
 10
12.534342467
 20
5.2430625112
 10
12.5975423634
 20
5.238176805
 10
12.6614458615
 20
5.2372983641
 10
12.7252929726
 20
5.2404475937
 10
12.7883243789
 20
5.2475969988
 10
12.8497904634
 20
5.2586715113
 10
12.9089602251
 20
5.2735493828
 10
12.9651299728
 20
5.2920636326
 10
13.0176316934
 20
5.3140040332
 10
13.065840997
 20
5.339119611
 10
13.1091845422
 20
5.3671216307
 10
13.147146855
 20
5.3976870291
 10
13.1792764589
 20
5.4304622576
 10
13.2051912445
 20
5.4650674866
 10
13.2245830137
 20
5.5011011226
 10
13.2372211449
 20
5.5381445846
 10
13.242955336
 20
5.5757672819
  0
LWPOLYLINE
  5
7ED
100
AcDbEntity
  8
0
100
AcDbPolyline
 62
7
  6
CONTINUOUS
 90
31
 70
0
 10
12.0700904047
 20
5.3167270575
 10
12.0706629632
 20
5.3021062623
 10
12.0769693506
 20
5.2661894338
 10
12.0901703859
 20
5.2308876276
 10
12.1101090725
 20
5.1966306374
 10
12.1365482843
 20
5.1638358311
 10
12.1691735865
 20
5.1329031874
 10
12.2075969743
 20
5.1042105385
 10
12.2513614879
 20
5.0781090772
 10
12.2999466468
 20
5.0549191796
 10
12.3527746396
 20
5.0349265955
 10
12.4092171961
 20
5.01837905
 10
12.4686030589
 20
5.0054832968
 10
12.5302259666
 20
4.9964026601
 10
12.5933530532
 20
4.9912550916
 10
12.6572335638
 20
4.9901117682
 10
12.7211077833
 20
4.9929962451
 10
12.7842160714
 20
4.9998841761
 10
12.8458078969
 20
5.0107036028
 10
12.9051507632
 20
5.0253358103
 10
12.9615389204
 20
5.0436167396
 10
13.0143017581
 20
5.0653389381
 10
13.0628117809
 20
5.0902540271
 10
13.106492071
 20
5.1180756556
 10
13.1448231496
 20
5.148482906
 10
13.1773491546
 20
5.1811241104
 10
13.2036832622
 20
5.215621033
 10
13.2235122874
 20
5.2515733686
 10
13.2366004086
 20
5.2885635028
 10
13.2427919718
 20
5.3261614793
 10
13.2433187512
 20
5.3408363809
  0
LWPOLYLINE
  5
7EE
100
AcDbEntity
  8
0
100
AcDbPolyline
 62
7
  6
CONTINUOUS
 90
30
 70
0
 10
12.0700904047
 20
5.3227543884
 10
12.0706629632
 20
5.3081335931
 10
12.0769693506
 20
5.2722167647
 10
12.0901703859
 20
5.2369149585
 10
12.1101090725
 20
5.2026579682
 10
12.1365482843
 20
5.169863162
 10
12.1691735865
 20
5.1389305182
 10
12.2075969743
 20
5.1102378694
 10
12.2513614879
 20
5.084136408
 10
12.2999466468
 20
5.0609465104
 10
12.3527746396
 20
5.0409539264
 10
12.4092171961
 20
5.0244063808
 10
12.4686030589
 20
5.0115106276
 10
12.5302259666
 20
5.0024299909
 10
12.5933530532
 20
4.9972824224
 10
12.6572335638
 20
4.996139099
 10
12.7211077833
 20
4.999023576
 10
12.7842160714
 20
5.005911507
 10
12.8458078969
 20
5.0167309336
 10
12.9051507632
 20
5.0313631412
 10
12.9615389204
 20
5.0496440704
 10
13.0143017581
 20
5.0713662689
 10
13.0628117809
 20
5.0962813579
 10
13.106492071
 20
5.1241029865
 10
13.1448231496
 20
5.1545102369
 10
13.1773491546
 20
5.1871514413
 10
13.2036832622
 20
5.2216483639
 10
13.2235122874
 20
5.2576006994
 10
13.2366004086
 20
5.2945908337
 10
13.2427919718
 20
5.3321888101
  0
LWPOLYLINE
  5
7EF
100
AcDbEntity
  8
0
100
AcDbPolyline
 62
7
  6
CONTINUOUS
 90
3
 70
0
 10
12.0545925988
 20
5.7111009043
 10
12.1420387812
 20
5.6801562307
 10
12.2336626448
 20
5.6542893836
  0
LWPOLYLINE
  5
7F0
100
AcDbEntity
  8
0
100
AcDbPolyline
 62
7
  6
CONTINUOUS
 90
13
 70
0
 10
12.2985951835
 20
5.6401842205
 10
12.3504760033
 20
5.6203505396
 10
12.4067798213
 20
5.6036536789
 10
12.4660559326
 20
5.5906007764
 10
12.5275993812
 20
5.5813570249
 10
12.590678246
 20
5.5760423162
 10
12.6545423457
 20
5.5747298149
 10
12.7184321602
 20
5.5774450882
 10
12.7815878639
 20
5.5841658022
 10
12.8432583615
 20
5.594821987
 10
12.902710221
 20
5.6092968693
 10
12.9592363962
 20
5.6274282611
 10
12.9694288582
 20
5.6315843795
  0
LWPOLYLINE
  5
7F1
100
AcDbEntity
  8
0
100
AcDbPolyline
 62
7
  6
CONTINUOUS
 90
19
 70
0
 10
12.2574930134
 20
5.5570702039
 10
12.306670826
 20
5.5342856158
 10
12.3600115036
 20
5.51473319
 10
12.4168806787
 20
5.4986554167
 10
12.4766020201
 20
5.4862534628
 10
12.5384652768
 20
5.4776847798
 10
12.6017347243
 20
5.4730612311
 10
12.6656579146
 20
5.4724477612
 10
12.7294746252
 20
5.4758616242
 10
12.7924258995
 20
5.4832721779
 10
12.8537630737
 20
5.4946012484
 10
12.9127566799
 20
5.5097240599
 10
12.9687051217
 20
5.5284707187
 10
13.0209430181
 20
5.5506282333
 10
13.0688491166
 20
5.575943048
 10
13.111853682
 20
5.604124058
 10
13.1494452716
 20
5.6348460716
 10
13.1811768177
 20
5.6677536775
 10
13.1965926215
 20
5.6887432253
  0
LWPOLYLINE
  5
7F2
100
AcDbEntity
  8
0
100
AcDbPolyline
 62
7
  6
CONTINUOUS
 90
14
 70
0
 10
12.2755238662
 20
5.6451959557
 10
12.2978140861
 20
5.6344554978
 10
12.3504760033
 20
5.6143232087
 10
12.4067798213
 20
5.5976263481
 10
12.4660559326
 20
5.5845734455
 10
12.5275993812
 20
5.5753296941
 10
12.590678246
 20
5.5700149854
 10
12.6545423457
 20
5.5687024841
 10
12.7184321602
 20
5.5714177574
 10
12.7815878639
 20
5.5781384713
 10
12.8432583615
 20
5.5887946561
 10
12.902710221
 20
5.6032695385
 10
12.9592363962
 20
5.6214009303
 10
12.9959774856
 20
5.6363826215
  0
LWPOLYLINE
  5
7F3
100
AcDbEntity
  8
0
100
AcDbPolyline
 62
7
  6
CONTINUOUS
 90
3
 70
0
 10
11.8972613987
 20
5.7863174962
 10
11.9721012937
 20
5.7469374547
 10
12.0545925988
 20
5.7111009043
  0
LWPOLYLINE
  5
7F4
100
AcDbEntity
  8
0
100
AcDbPolyline
 62
9
  6
CONTINUOUS
 90
8
 70
0
 10
11.877220033
 20
5.8557513401
 10
11.952345252
 20
5.8162062804
 10
12.0336107346
 20
5.7807659013
 10
12.1201768754
 20
5.7498124616
 10
12.211332241
 20
5.7235996332
 10
12.306284734
 20
5.7023559684
 10
12.4042279612
 20
5.6862615821
 10
12.5043250136
 20
5.6754539771
  0
LWPOLYLINE
  5
7F5
100
AcDbEntity
  8
0
100
AcDbPolyline
 62
7
  6
CONTINUOUS
 90
18
 70
0
 10
12.2308089768
 20
5.6200533251
 10
12.2772680793
 20
5.5955004552
 10
12.3282397265
 20
5.5740193433
 10
12.3831177249
 20
5.555875417
 10
12.4412494243
 20
5.5412944156
 10
12.5019434785
 20
5.5304597052
 10
12.5644780683
 20
5.5235100987
 10
12.6281094852
 20
5.5205382038
 10
12.6920809764
 20
5.5215893227
 10
12.7556317449
 20
5.5266609128
 10
12.818005997
 20
5.5357026169
 10
12.8784619312
 20
5.5486168623
 10
12.93628056
 20
5.5652600212
 10
12.9907742606
 20
5.5854441185
 10
13.0412949531
 20
5.6089390679
 10
13.0872418072
 20
5.6354754078
 10
13.1280683884
 20
5.6647475061
 10
13.132714827
 20
5.6689254748
  0
LWPOLYLINE
  5
7F6
100
AcDbEntity
  8
0
100
AcDbPolyline
 62
7
  6
CONTINUOUS
 90
3
 70
0
 10
12.1540072661
 20
5.6767773406
 10
12.1894149454
 20
5.6473759936
 10
12.2308089768
 20
5.6200533251
  0
LWPOLYLINE
  5
7F7
100
AcDbEntity
  8
0
100
AcDbPolyline
 62
7
  6
CONTINUOUS
 90
19
 70
0
 10
12.1650050259
 20
5.6736725013
 10
12.1894149454
 20
5.6534033245
 10
12.2308089768
 20
5.6260806559
 10
12.2772680793
 20
5.601527786
 10
12.3282397265
 20
5.5800466742
 10
12.3831177249
 20
5.5619027478
 10
12.4412494243
 20
5.5473217464
 10
12.5019434785
 20
5.5364870361
 10
12.5644780683
 20
5.5295374295
 10
12.6281094852
 20
5.5265655346
 10
12.6920809764
 20
5.5276166536
 10
12.7556317449
 20
5.5326882437
 10
12.818005997
 20
5.5417299478
 10
12.8784619312
 20
5.5546441932
 10
12.93628056
 20
5.571287352
 10
12.9907742606
 20
5.5914714493
 10
13.0412949531
 20
5.6149663987
 10
13.0872418072
 20
5.6415027386
 10
13.1199775121
 20
5.6649737897
  0
LINE
  5
7F8
100
AcDbEntity
  8
0
100
AcDbLine
 62
7
  6
CONTINUOUS
 10
11.6936585066
 20
6.341654356
 11
11.648272246
 21
6.3942773183
  0
LWPOLYLINE
  5
7F9
100
AcDbEntity
  8
0
100
AcDbPolyline
 62
7
  6
CONTINUOUS
 90
3
 70
0
 10
11.648272246
 20
6.3942773183
 10
11.6114895746
 20
6.4490935447
 10
11.583624309
 20
6.5056353623
  0
LWPOLYLINE
  5
7FA
100
AcDbEntity
  8
0
100
AcDbPolyline
 62
7
  6
CONTINUOUS
 90
6
 70
0
 10
12.10080761
 20
5.6947467492
 10
12.1132236929
 20
5.6744080369
 10
12.1404967593
 20
5.6418359131
 10
12.1739089577
 20
5.6111770502
 10
12.2130629253
 20
5.5828060246
 10
12.2574930134
 20
5.5570702039
  0
LWPOLYLINE
  5
7FB
100
AcDbEntity
  8
0
100
AcDbPolyline
 62
7
  6
CONTINUOUS
 90
24
 70
0
 10
12.1055009776
 20
5.6930859022
 10
12.1132236929
 20
5.6804353678
 10
12.1404967593
 20
5.647863244
 10
12.1739089577
 20
5.6172043811
 10
12.2130629253
 20
5.5888333554
 10
12.2574930134
 20
5.5630975347
 10
12.306670826
 20
5.5403129467
 10
12.3600115036
 20
5.5207605209
 10
12.4168806787
 20
5.5046827475
 10
12.4766020201
 20
5.4922807936
 10
12.5384652768
 20
5.4837121107
 10
12.6017347243
 20
5.4790885619
 10
12.6656579146
 20
5.478475092
 10
12.7294746252
 20
5.4818889551
 10
12.7924258995
 20
5.4892995087
 10
12.8537630737
 20
5.5006285792
 10
12.9127566799
 20
5.5157513907
 10
12.9687051217
 20
5.5344980495
 10
13.0209430181
 20
5.5566555641
 10
13.0688491166
 20
5.5819703789
 10
13.111853682
 20
5.6101513889
 10
13.1494452716
 20
5.6408734024
 10
13.1811768177
 20
5.6737810083
 10
13.19085949
 20
5.6869645514
  0
LWPOLYLINE
  5
7FC
100
AcDbEntity
  8
0
100
AcDbPolyline
 62
7
  6
CONTINUOUS
 90
10
 70
0
 10
12.4288520738
 20
4.9765467407
 10
12.4345910667
 20
4.9640629945
 10
12.4466852792
 20
4.9476252522
 10
12.4627097148
 20
4.9323164445
 10
12.4824238167
 20
4.9183905492
 10
12.5053777868
 20
4.9061818661
 10
12.5313293231
 20
4.8958528689
 10
12.5596050788
 20
4.8877023799
 10
12.5895448247
 20
4.8819018108
 10
12.5939586878
 20
4.8812655255
  0
LWPOLYLINE
  5
7FD
100
AcDbEntity
  8
0
100
AcDbPolyline
 62
7
  6
CONTINUOUS
 90
3
 70
0
 10
12.0766964207
 20
5.7032790013
 10
12.0857641107
 20
5.6747068762
 10
12.1038264729
 20
5.6401128914
  0
LWPOLYLINE
  5
7FE
100
AcDbEntity
  8
0
100
AcDbPolyline
 62
7
  6
CONTINUOUS
 90
27
 70
0
 10
12.0788512625
 20
5.7025164652
 10
12.0857641107
 20
5.6807342071
 10
12.1038264729
 20
5.6461402222
 10
12.1284640778
 20
5.612892465
 10
12.1593839165
 20
5.5813963008
 10
12.196218267
 20
5.5520362637
 10
12.2385290674
 20
5.5251714836
 10
12.2858131258
 20
5.5011314145
 10
12.3375081047
 20
5.4802119172
 10
12.3929992085
 20
5.4626717401
 10
12.451626495
 20
5.4487294423
 10
12.5126927245
 20
5.4385607941
 10
12.5754716514
 20
5.4322966868
 10
12.6392166614
 20
5.4300215759
 10
12.703169651
 20
5.4317724768
 10
12.7665700428
 20
5.4375385245
 10
12.8286638319
 20
5.4472611029
 10
12.888712552
 20
5.4608345418
 10
12.9460020586
 20
5.4781073737
 10
12.9998510217
 20
5.4988841351
 10
13.0496190289
 20
5.5229276912
 10
13.0947142016
 20
5.5499620559
 10
13.134600234
 20
5.5796756743
 10
13.1688027715
 20
5.6117251277
 10
13.1969150516
 20
5.6457392179
 10
13.218602742
 20
5.6813233818
 10
13.2259265226
 20
5.699256065
  0
LWPOLYLINE
  5
7FF
100
AcDbEntity
  8
0
100
AcDbPolyline
 62
7
  6
CONTINUOUS
 90
29
 70
0
 10
12.0702771985
 20
5.4108391919
 10
12.075376196
 20
5.3748599728
 10
12.0873887883
 20
5.3394202412
 10
12.1061721126
 20
5.3049514309
 10
12.1315027836
 20
5.2718734292
 10
12.1630795498
 20
5.2405895826
 10
12.2005268765
 20
5.2114819001
 10
12.243399412
 20
5.1849065103
 10
12.2911872837
 20
5.1611894259
 10
12.3433221622
 20
5.1406226662
 10
12.3991840205
 20
5.1234607847
 10
12.4581085071
 20
5.1099178415
 10
12.5193948478
 20
5.1001648575
 10
12.5823141791
 20
5.0943277805
 10
12.6461182171
 20
5.0924859877
 10
12.710048156
 20
5.0946713408
 10
12.773343693
 20
5.1008678083
 10
12.8352520698
 20
5.111011655
 10
12.8950370253
 20
5.1249922007
 10
12.951987552
 20
5.1426531363
 10
13.0054263511
 20
5.1637943827
 10
13.0547178884
 20
5.1881744704
 10
13.0992759516
 20
5.215513411
 10
13.1385706229
 20
5.2454960273
 10
13.1721345802
 20
5.2777757014
 10
13.1995686559
 20
5.3119784974
 10
13.2205465832
 20
5.3477076077
 10
13.2348188768
 20
5.384548073
 10
13.2422157999
 20
5.4220717167
  0
LWPOLYLINE
  5
800
100
AcDbEntity
  8
0
100
AcDbPolyline
 62
7
  6
CONTINUOUS
 90
5
 70
0
 10
12.0700904047
 20
5.6542575843
 10
12.070398611
 20
5.6435292509
 10
12.0759553846
 20
5.6075721201
 10
12.0884188649
 20
5.5721831248
 10
12.1076408269
 20
5.5377930954
  0
LWPOLYLINE
  5
801
100
AcDbEntity
  8
0
100
AcDbPolyline
 62
7
  6
CONTINUOUS
 90
30
 70
0
 10
12.0700904047
 20
5.6602849151
 10
12.070398611
 20
5.6495565818
 10
12.0759553846
 20
5.613599451
 10
12.0884188649
 20
5.5782104556
 10
12.1076408269
 20
5.5438204263
 10
12.1333926684
 20
5.5108483131
 10
12.1653681292
 20
5.4796962034
 10
12.203186933
 20
5.4507445396
 10
12.2463993101
 20
5.4243475946
 10
12.2944913464
 20
5.4008292589
 10
12.3468910953
 20
5.3804791883
 10
12.4029753793
 20
5.3635493592
 10
12.462077202
 20
5.3502510718
 10
12.5234936801
 20
5.3407524376
 10
12.5864944024
 20
5.3351763795
 10
12.650330117
 20
5.3335991701
 10
12.7142416415
 20
5.336049525
 10
12.777468892
 20
5.3425082606
 10
12.8392599222
 20
5.3529085229
 10
12.8988798669
 20
5.3671365822
 10
12.9556196806
 20
5.3850331857
 10
13.0088045709
 20
5.4063954516
 10
13.0578020229
 20
5.4309792818
 10
13.1020293221
 20
5.4585022649
 10
13.1409604841
 20
5.488647035
 10
13.1741325103
 20
5.5210650457
 10
13.2011508938
 20
5.5553807157
 10
13.2216943118
 20
5.5911958953
 10
13.2355184465
 20
5.6280946015
 10
13.2424588908
 20
5.665647965
  0
LWPOLYLINE
  5
802
100
AcDbEntity
  8
0
100
AcDbPolyline
 62
7
  6
CONTINUOUS
 90
9
 70
0
 10
12.0700904047
 20
5.4131643509
 10
12.0702771985
 20
5.4048118611
 10
12.075376196
 20
5.368832642
 10
12.0873887883
 20
5.3333929103
 10
12.1061721126
 20
5.2989241001
 10
12.1315027836
 20
5.2658460984
 10
12.1630795498
 20
5.2345622517
 10
12.2005268765
 20
5.2054545693
 10
12.243399412
 20
5.1788791795
  0
LINE
  5
803
100
AcDbEntity
  8
0
100
AcDbLine
 62
7
  6
CONTINUOUS
 10
12.0700904047
 20
5.4191916817
 11
12.0702771985
 21
5.4108391919
  0
LINE
  5
804
100
AcDbEntity
  8
0
100
AcDbLine
 62
7
  6
CONTINUOUS
 10
12.0715322414
 20
5.6814909893
 11
12.0700904047
 21
5.6602849151
  0
LINE
  5
805
100
AcDbEntity
  8
0
100
AcDbLine
 62
7
  6
CONTINUOUS
 10
12.0715211308
 20
5.4384308071
 11
12.0700904047
 21
5.4191916817
  0
LINE
  5
806
100
AcDbEntity
  8
0
100
AcDbLine
 62
7
  6
CONTINUOUS
 10
12.0718911833
 20
5.5353753961
 11
12.0700904047
 21
5.5156289751
  0
LWPOLYLINE
  5
807
100
AcDbEntity
  8
0
100
AcDbPolyline
 62
7
  6
CONTINUOUS
 90
3
 70
0
 10
12.0720874171
 20
5.6326012146
 10
12.0701374285
 20
5.6162572912
 10
12.0700904047
 20
5.6120662685
  0
LWPOLYLINE
  5
808
100
AcDbEntity
  8
0
100
AcDbPolyline
 62
9
  6
CONTINUOUS
 90
20
 70
0
 10
12.5043250136
 20
5.6754539771
 10
12.6057219796
 20
5.6700252613
 10
12.7075535137
 20
5.6700216932
 10
12.8089506771
 20
5.6754432273
 10
12.9090482336
 20
5.6862435255
 10
13.006992062
 20
5.7023303534
 10
13.101946438
 20
5.7235663683
 10
13.1931011655
 20
5.7497702931
 10
13.2796784894
 20
5.7807184641
 10
13.360939731
 20
5.8161467416
 10
13.4361918261
 20
5.8557529008
 10
13.5047930051
 20
5.8991991904
 10
13.5661579243
 20
5.9461149987
 10
13.6197628608
 20
5.996100046
 10
13.6651502956
 20
6.0487278535
 10
13.7019328197
 20
6.1035493817
 10
13.7297964426
 20
6.1600968609
 10
13.7485032739
 20
6.2178877825
 10
13.7578935556
 20
6.2764290169
 10
13.759066782
 20
6.3057616911
  0
LWPOLYLINE
  5
809
100
AcDbEntity
  8
0
100
AcDbPolyline
 62
7
  6
CONTINUOUS
 90
25
 70
0
 10
12.2336626448
 20
5.6542893836
 10
12.3287011143
 20
5.6336443704
 10
12.4264060188
 20
5.6183331153
 10
12.5259913524
 20
5.6084468758
 10
12.6266332863
 20
5.6040477971
 10
12.7275021635
 20
5.6051616765
 10
12.8277992185
 20
5.6117806898
 10
12.9267462092
 20
5.6238701699
 10
13.0235399406
 20
5.6413640967
 10
13.1172500907
 20
5.6641276215
 10
13.2070255939
 20
5.6919800003
 10
13.292565193
 20
5.7249091576
 10
13.3734256858
 20
5.7629444103
 10
13.4463675107
 20
5.8044720854
 10
13.5094913133
 20
5.8476134011
 10
13.5638588123
 20
5.8920262471
 10
13.6105364072
 20
5.9377158001
 10
13.6500909722
 20
5.9845355461
 10
13.6826638425
 20
6.0318811985
 10
13.7085666116
 20
6.0791478961
 10
13.7283107994
 20
6.1258445451
 10
13.7426757267
 20
6.1721497774
 10
13.7523216062
 20
6.2185498803
 10
13.757676749
 20
6.2654622146
 10
13.7590665714
 20
6.3057613965
  0
LWPOLYLINE
  5
80A
100
AcDbEntity
  8
0
100
AcDbPolyline
 62
7
  6
CONTINUOUS
 90
6
 70
0
 10
12.4567447254
 20
4.746122762
 10
12.4576207019
 20
4.7426053806
 10
12.4658105898
 20
4.7265022914
 10
12.4778865289
 20
4.7112360252
 10
12.4936026878
 20
4.6971173591
 10
12.5126391308
 20
4.6844337083
  0
LWPOLYLINE
  5
80B
100
AcDbEntity
  8
0
100
AcDbPolyline
 62
7
  6
CONTINUOUS
 90
3
 70
0
 10
12.0721048602
 20
5.3919156321
 10
12.0702058858
 20
5.3775405906
 10
12.0700904047
 20
5.3709730351
  0
LWPOLYLINE
  5
80C
100
AcDbEntity
  8
0
100
AcDbPolyline
 62
7
  6
CONTINUOUS
 90
3
 70
0
 10
12.0721172729
 20
5.4898027214
 10
12.0705317238
 20
5.4802472974
 10
12.0700904047
 20
5.4674103284
  0
LWPOLYLINE
  5
80D
100
AcDbEntity
  8
0
100
AcDbPolyline
 62
7
  6
CONTINUOUS
 90
3
 70
0
 10
12.0717664512
 20
5.5864433569
 10
12.0710680358
 20
5.5829492879
 10
12.0700904047
 20
5.5638476218
  0
LWPOLYLINE
  5
80E
100
AcDbEntity
  8
0
100
AcDbPolyline
 62
7
  6
CONTINUOUS
 90
3
 70
0
 10
12.0716207269
 20
5.3456123394
 10
12.0713262239
 20
5.3442283359
 10
12.0700904047
 20
5.3227543884
  0
LINE
  5
80F
100
AcDbEntity
  8
0
100
AcDbLine
 62
7
  6
CONTINUOUS
 10
11.877220033
 20
6.201318308
 11
11.8086228175
 21
6.2447615231
  0
LWPOLYLINE
  5
810
100
AcDbEntity
  8
0
100
AcDbPolyline
 62
7
  6
CONTINUOUS
 90
3
 70
0
 10
11.8086228175
 20
6.2447615231
 10
11.7472611367
 20
6.2916736183
 10
11.6936585066
 20
6.341654356
  0
LINE
  5
811
100
AcDbEntity
  8
0
100
AcDbLine
 62
7
  6
CONTINUOUS
 10
12.4262535509
 20
4.8877653185
 11
12.4229804016
 21
4.9054561439
  0
LWPOLYLINE
  5
812
100
AcDbEntity
  8
0
100
AcDbPolyline
 62
7
  6
CONTINUOUS
 90
11
 70
0
 10
12.4228727829
 20
4.9062926407
 10
12.4256089145
 20
4.8883425464
 10
12.4326968713
 20
4.8709640452
 10
12.4439563557
 20
4.8543793223
 10
12.4592856013
 20
4.838765342
 10
12.4783910732
 20
4.824490899
 10
12.5007478627
 20
4.8119399836
 10
12.5260897287
 20
4.8012571248
 10
12.5538221447
 20
4.7927044809
 10
12.5835012164
 20
4.7864237424
 10
12.5939586878
 20
4.7848282322
  0
LINE
  5
813
100
AcDbEntity
  8
0
100
AcDbLine
 62
7
  6
CONTINUOUS
 10
12.4230621988
 20
4.9685656554
 11
12.4228463104
 21
4.9741504537
  0
LINE
  5
814
100
AcDbEntity
  8
0
100
AcDbLine
 62
7
  6
CONTINUOUS
 10
12.4229804016
 20
4.9054561439
 11
12.4228463103
 21
4.9098512841
  0
LWPOLYLINE
  5
815
100
AcDbEntity
  8
0
100
AcDbPolyline
 62
7
  6
CONTINUOUS
 90
12
 70
0
 10
12.4228463103
 20
4.9403897603
 10
12.4229804016
 20
4.9359946201
 10
12.4262535509
 20
4.9183037947
 10
12.4337713321
 20
4.9011776278
 10
12.4455389813
 20
4.8846467355
 10
12.4613762007
 20
4.8691287033
 10
12.4808433329
 20
4.855077217
 10
12.5033707123
 20
4.8428272807
 10
12.5287726049
 20
4.8324458013
 10
12.5567432011
 20
4.8241094402
 10
12.5865286635
 20
4.81807616
 10
12.5939586878
 20
4.8169739966
  0
LWPOLYLINE
  5
816
100
AcDbEntity
  8
0
100
AcDbPolyline
 62
7
  6
CONTINUOUS
 90
12
 70
0
 10
12.4228463105
 20
4.8439493336
 10
12.4229737765
 20
4.8396673246
 10
12.4261908327
 20
4.8220691906
 10
12.4336581735
 20
4.8049388646
 10
12.4453793322
 20
4.7883953801
 10
12.4611755979
 20
4.7728596382
 10
12.4806095445
 20
4.7587863792
 10
12.5031160508
 20
4.7465104657
 10
12.5286511599
 20
4.7360511851
 10
12.5567370646
 20
4.7276736735
 10
12.5865866217
 20
4.7216296743
 10
12.5939586878
 20
4.7205367033
  0
LINE
  5
817
100
AcDbEntity
  8
0
100
AcDbLine
 62
7
  6
CONTINUOUS
 10
12.4229736712
 20
4.8412763841
 11
12.4228463103
 21
4.8455670088
  0
LWPOLYLINE
  5
818
100
AcDbEntity
  8
0
100
AcDbPolyline
 62
7
  6
CONTINUOUS
 90
12
 70
0
 10
12.4228463103
 20
4.876105485
 10
12.4229736712
 20
4.8718148603
 10
12.4261929472
 20
4.8542080898
 10
12.4336642366
 20
4.8370739633
 10
12.4453113764
 20
4.8206205246
 10
12.460896719
 20
4.8052402434
 10
12.4800127993
 20
4.7913080633
 10
12.5024050963
 20
4.7789945084
 10
12.5279139372
 20
4.7684573269
 10
12.5559597471
 20
4.7600138268
 10
12.5857458561
 20
4.7539097125
 10
12.5939586878
 20
4.7526824677
  0
LINE
  5
819
100
AcDbEntity
  8
0
100
AcDbLine
 62
7
  6
CONTINUOUS
 10
12.4229705085
 20
4.9377672184
 11
12.4228463102
 21
4.9419997681
  0
LWPOLYLINE
  5
81A
100
AcDbEntity
  8
0
100
AcDbPolyline
 62
7
  6
CONTINUOUS
 90
12
 70
0
 10
12.4228463102
 20
4.9725382444
 10
12.4229705085
 20
4.9683056946
 10
12.4261667363
 20
4.9507306381
 10
12.4336217135
 20
4.9335861276
 10
12.4452870064
 20
4.9170863192
 10
12.4609504101
 20
4.901632236
 10
12.4801525434
 20
4.8876570539
 10
12.5025791613
 20
4.8753487162
 10
12.5281390742
 20
4.864814866
 10
12.5562450485
 20
4.8563795416
 10
12.5860997196
 20
4.8502902498
 10
12.5939586878
 20
4.8491197611
  0
LINE
  5
81B
100
AcDbEntity
  8
0
100
AcDbLine
 62
7
  6
CONTINUOUS
 10
12.4228727829
 20
4.8757541644
 11
12.4228463102
 21
4.8777083779
  0
LWPOLYLINE
  5
81C
100
AcDbEntity
  8
0
100
AcDbPolyline
 62
7
  6
CONTINUOUS
 90
17
 70
0
 10
13.2216379034
 20
6.7159938921
 10
13.1350658956
 20
6.672796743
 10
13.0377910232
 20
6.6369897952
 10
12.9319045687
 20
6.6095155195
 10
12.8197410975
 20
6.5911056325
 10
12.7037838041
 20
6.5822567607
 10
12.5867257543
 20
6.583221866
 10
12.4712340478
 20
6.5939826589
 10
12.3599433903
 20
6.6142603688
 10
12.2554295722
 20
6.6435031484
 10
12.1599728949
 20
6.6809414191
 10
12.0756405628
 20
6.7255859838
 10
12.0042071857
 20
6.7762516683
 10
11.9468537485
 20
6.8318696611
 10
11.90449958
 20
6.8915968106
 10
11.8783048738
 20
6.9543475963
 10
11.8693030031
 20
7.0194202365
  0
LINE
  5
81D
100
AcDbEntity
  8
0
100
AcDbLine
 62
7
  6
CONTINUOUS
 10
12.4228463104
 20
4.9741504537
 11
12.4231922218
 21
4.9781813485
  0
LWPOLYLINE
  5
81E
100
AcDbEntity
  8
0
100
AcDbPolyline
 62
7
  6
CONTINUOUS
 90
3
 70
0
 10
12.4228463103
 20
4.8455670088
 10
12.4240832459
 20
4.8589047499
 10
12.4248708949
 20
4.8614386196
  0
LWPOLYLINE
  5
81F
100
AcDbEntity
  8
0
100
AcDbPolyline
 62
7
  6
CONTINUOUS
 90
3
 70
0
 10
12.4228463102
 20
4.9419997681
 10
12.4240984546
 20
4.9554235843
 10
12.4248662025
 20
4.9578818667
  0
LWPOLYLINE
  5
820
100
AcDbEntity
  8
0
100
AcDbPolyline
 62
7
  6
CONTINUOUS
 90
3
 70
0
 10
12.4228463103
 20
4.9098512841
 10
12.4241040266
 20
4.9233075689
 10
12.4248734273
 20
4.9257631322
  0
LWPOLYLINE
  5
821
100
AcDbEntity
  8
0
100
AcDbPolyline
 62
9
  6
CONTINUOUS
 90
20
 70
0
 10
13.2413228546
 20
6.7140441173
 10
13.1672922391
 20
6.6761375515
 10
13.0751588237
 20
6.6398894463
 10
12.9682301891
 20
6.6094173208
 10
12.8518730045
 20
6.5877261669
 10
12.7322617381
 20
6.576233454
 10
12.6120239545
 20
6.5749335391
 10
12.4923924466
 20
6.5837575949
 10
12.3759674404
 20
6.6025965383
 10
12.2656490982
 20
6.6310061331
 10
12.1637451173
 20
6.6683646872
 10
12.0723178016
 20
6.7139105159
 10
11.9933571294
 20
6.7666598416
 10
11.9285698321
 20
6.8254636938
 10
11.8792767146
 20
6.889131399
 10
11.8465543491
 20
6.9563344174
 10
11.8311760992
 20
7.0253999141
 10
11.8333337413
 20
7.0948157584
 10
11.8531405849
 20
7.1638678664
 10
11.8906230253
 20
7.2310723454
  0
LWPOLYLINE
  5
822
100
AcDbEntity
  8
0
100
AcDbPolyline
 62
7
  6
CONTINUOUS
 90
6
 70
0
 10
12.3063876797
 20
6.0479030128
 10
12.211441527
 20
6.069138738
 10
12.1202942017
 20
6.095341695
 10
12.0337233405
 20
6.1262883293
 10
11.9524675357
 20
6.1617146152
 10
11.877220033
 20
6.201318308
  0
LWPOLYLINE
  5
823
100
AcDbEntity
  8
02___PRT_ALL_AXES
100
AcDbPolyline
 62
7
  6
CONTINUOUS
 90
10
 70
0
 10
12.2714727746
 20
6.0550380086
 10
12.1284026365
 20
6.0927599326
 10
11.9960872024
 20
6.1418531646
 10
11.877220033
 20
6.201318308
 10
11.774220921
 20
6.269944824
 10
11.6891866315
 20
6.3463356746
 10
11.6238482173
 20
6.4289357624
 10
11.57953578
 20
6.5160635878
 10
11.5571513932
 20
6.6059454796
 10
11.5543530984
 20
6.6513512381
  0
LWPOLYLINE
  5
824
100
AcDbEntity
  8
0
100
AcDbPolyline
 62
7
  6
CONTINUOUS
 90
3
 70
0
 10
12.4228463102
 20
4.8777083779
 10
12.4246407223
 20
4.8937681003
 10
12.4247392267
 20
4.8940480385
  0
LWPOLYLINE
  5
825
100
AcDbEntity
  8
0
100
AcDbPolyline
 62
7
  6
CONTINUOUS
 90
3
 70
0
 10
12.8887975811
 20
4.8759052487
 10
12.8904305134
 20
4.8663493628
 10
12.8905628455
 20
4.8616402143
  0
LINE
  5
826
100
AcDbEntity
  8
0
100
AcDbLine
 62
7
  6
CONTINUOUS
 10
12.8905628456
 20
4.8294900134
 11
12.8890157572
 21
4.8446488577
  0
LWPOLYLINE
  5
827
100
AcDbEntity
  8
0
100
AcDbPolyline
 62
9
  6
CONTINUOUS
 90
4
 70
0
 10
13.4013969066
 20
6.6216274111
 10
13.4956409075
 20
6.6840081375
 10
13.5745885326
 20
6.7534575546
 10
13.6363437872
 20
6.8283869929
  0
LWPOLYLINE
  5
828
100
AcDbEntity
  8
0
100
AcDbPolyline
 62
9
  6
CONTINUOUS
 90
5
 70
0
 10
12.9180126313
 20
6.2725363514
 10
13.0614562967
 20
6.298849449
 10
13.1973210279
 20
6.3361871698
 10
13.3231681028
 20
6.3838832871
 10
13.4361956135
 20
6.4408080005
  0
LWPOLYLINE
  5
829
100
AcDbEntity
  8
0
100
AcDbPolyline
 62
7
  6
CONTINUOUS
 90
3
 70
0
 10
12.8887836192
 20
4.940265728
 10
12.8904097474
 20
4.9309971493
 10
12.8905628456
 20
4.9259250804
  0
LWPOLYLINE
  5
82A
100
AcDbEntity
  8
0
100
AcDbPolyline
 62
7
  6
CONTINUOUS
 90
3
 70
0
 10
12.8887924731
 20
4.9723405344
 10
12.8904246552
 20
4.9628898295
 10
12.8905628456
 20
4.9580737108
  0
LWPOLYLINE
  5
82B
100
AcDbEntity
  8
0
100
AcDbPolyline
 62
7
  6
CONTINUOUS
 90
3
 70
0
 10
12.8887976236
 20
4.9080778317
 10
12.8904376165
 20
4.8983669124
 10
12.8905628456
 20
4.8937781048
  0
LINE
  5
82C
100
AcDbEntity
  8
0
100
AcDbLine
 62
7
  6
CONTINUOUS
 10
12.8905272007
 20
4.827043427
 11
12.8905628456
 21
4.8294900134
  0
LWPOLYLINE
  5
82D
100
AcDbEntity
  8
0
100
AcDbPolyline
 62
7
  6
CONTINUOUS
 90
6
 70
0
 10
12.4256439827
 20
4.8250606023
 10
12.4255801029
 20
4.8248430483
 10
12.4247388163
 20
4.8067999232
 10
12.4283021167
 20
4.7888355584
 10
12.4362139394
 20
4.7712989887
 10
12.4483357777
 20
4.7545315086
  0
LWPOLYLINE
  5
82E
100
AcDbEntity
  8
0
100
AcDbPolyline
 62
9
  6
CONTINUOUS
 90
7
 70
0
 10
13.4361956135
 20
6.4408080005
 10
13.5348027702
 20
6.5060717589
 10
13.6174168397
 20
6.5787335498
 10
13.6820897491
 20
6.6571828768
 10
13.7276630141
 20
6.7400077973
 10
13.753266755
 20
6.8256363158
 10
13.7590667827
 20
6.8908373543
  0
LWPOLYLINE
  5
82F
100
AcDbEntity
  8
02___PRT_ALL_AXES
100
AcDbPolyline
 62
7
  6
CONTINUOUS
 90
8
 70
0
 10
13.3173293018
 20
6.1418563405
 10
13.1850145757
 20
6.0927624724
 10
13.0419449816
 20
6.0550398606
 10
12.8910330039
 20
6.0294564288
 10
12.7353507751
 20
6.0165329817
 10
12.5780675365
 20
6.0165326037
 10
12.4223851214
 20
6.0294553023
 10
12.2714727746
 20
6.0550380086
  0
LWPOLYLINE
  5
830
100
AcDbEntity
  8
0
100
AcDbPolyline
 62
7
  6
CONTINUOUS
 90
11
 70
0
 10
13.2796933881
 20
6.1262913242
 10
13.1931229733
 20
6.0953442737
 10
13.1019760259
 20
6.0691408786
 10
13.0070301795
 20
6.0479046969
 10
12.9090954786
 20
6.0318169083
 10
12.8090074675
 20
6.0210147681
 10
12.7076200619
 20
6.0155904364
 10
12.6057982633
 20
6.0155901917
 10
12.5044107794
 20
6.021014036
 10
12.4043226126
 20
6.031815695
 10
12.3063876797
 20
6.0479030128
  0
LWPOLYLINE
  5
831
100
AcDbEntity
  8
0
100
AcDbPolyline
 62
7
  6
CONTINUOUS
 90
7
 70
0
 10
12.8905628456
 20
4.9259250804
 10
12.8893673032
 20
4.9117748794
 10
12.8840048677
 20
4.8929628661
 10
12.8744360406
 20
4.8747465632
 10
12.8606811308
 20
4.8572750364
 10
12.8430459313
 20
4.8410277098
 10
12.8220680333
 20
4.8264386303
  0
LWPOLYLINE
  5
832
100
AcDbEntity
  8
0
100
AcDbPolyline
 62
7
  6
CONTINUOUS
 90
7
 70
0
 10
12.8905628456
 20
4.8937781048
 10
12.889319325
 20
4.8793486397
 10
12.8839039665
 20
4.8605679294
 10
12.8742747879
 20
4.8423542838
 10
12.8605063417
 20
4.8249418284
 10
12.8429435456
 20
4.8088003462
 10
12.8220680333
 20
4.7942928658
  0
LWPOLYLINE
  5
833
100
AcDbEntity
  8
0
100
AcDbPolyline
 62
7
  6
CONTINUOUS
 90
7
 70
0
 10
12.8905628456
 20
4.9580737108
 10
12.8893107997
 20
4.9435909044
 10
12.883832442
 20
4.9246840205
 10
12.8741998685
 20
4.9065317397
 10
12.8605388929
 20
4.8892682149
 10
12.8430079373
 20
4.8731431798
 10
12.8220680333
 20
4.8585843947
  0
LWPOLYLINE
  5
834
100
AcDbEntity
  8
0
100
AcDbPolyline
 62
7
  6
CONTINUOUS
 90
7
 70
0
 10
12.8895195264
 20
4.9781694747
 10
12.8893070479
 20
4.9757150423
 10
12.8838584452
 20
4.9568934535
 10
12.874202465
 20
4.9386814526
 10
12.8604423375
 20
4.9213106492
 10
12.8429500188
 20
4.905242795
 10
12.8220680333
 20
4.8907301592
  0
LWPOLYLINE
  5
835
100
AcDbEntity
  8
0
100
AcDbPolyline
 62
7
  6
CONTINUOUS
 90
7
 70
0
 10
12.8905628455
 20
4.8616402143
 10
12.8893027873
 20
4.8471074647
 10
12.883819836
 20
4.8282159074
 10
12.8741617174
 20
4.8100364682
 10
12.8604931366
 20
4.7927819297
 10
12.8429993214
 20
4.7766990189
 10
12.8220680333
 20
4.7621471013
  0
LWPOLYLINE
  5
836
100
AcDbEntity
  8
0
100
AcDbPolyline
 62
7
  6
CONTINUOUS
 90
11
 70
0
 10
12.8905628456
 20
4.8278827236
 10
12.8883190193
 20
4.8085150101
 10
12.8816328864
 20
4.7895101695
 10
12.8706325994
 20
4.7712139834
 10
12.8555289878
 20
4.7539637175
 10
12.8366118684
 20
4.7380768605
 10
12.8142445269
 20
4.7238447627
 10
12.7888565304
 20
4.7115268472
 10
12.7609338328
 20
4.7013451658
 10
12.7310122976
 20
4.6934815338
 10
12.7026864024
 20
4.6884782467
  0
LWPOLYLINE
  5
837
100
AcDbEntity
  8
0
100
AcDbPolyline
 62
9
  6
CONTINUOUS
 90
5
 70
0
 10
13.4602685709
 20
6.9392641356
 10
13.4227861306
 20
6.8720596566
 10
13.3700296306
 20
6.8102408126
 10
13.3071623208
 20
6.7569200643
 10
13.2413228546
 20
6.7140441173
  0
LWPOLYLINE
  5
838
100
AcDbEntity
  8
0
100
AcDbPolyline
 62
7
  6
CONTINUOUS
 90
3
 70
0
 10
13.4361956135
 20
6.2013220553
 10
13.360948682
 20
6.1617180007
 10
13.2796933881
 20
6.1262913242
  0
LINE
  5
839
100
AcDbEntity
  8
02___PRT_ALL_AXES
100
AcDbLine
 62
7
  6
CONTINUOUS
 10
13.4361956135
 20
6.2013220553
 11
13.3173293018
 21
6.1418563405
  0
LINE
  5
83A
100
AcDbEntity
  8
0
100
AcDbLine
 62
7
  6
CONTINUOUS
 10
13.2433187512
 20
5.3950823584
 11
13.2416189883
 21
5.4130168373
  0
LINE
  5
83B
100
AcDbEntity
  8
0
100
AcDbLine
 62
7
  6
CONTINUOUS
 10
12.8876832961
 20
4.807563794
 11
12.8905272007
 21
4.827043427
  0
LWPOLYLINE
  5
83C
100
AcDbEntity
  8
0
100
AcDbPolyline
 62
7
  6
CONTINUOUS
 90
3
 70
0
 10
13.5661532066
 20
6.2916779904
 10
13.5047922024
 20
6.2447656002
 10
13.4361956135
 20
6.2013220553
  0
LINE
  5
83D
100
AcDbEntity
  8
0
100
AcDbLine
 62
7
  6
CONTINUOUS
 10
13.2433187512
 20
5.6361755918
 11
13.2414851718
 21
5.6543520345
  0
LINE
  5
83E
100
AcDbEntity
  8
0
100
AcDbLine
 62
7
  6
CONTINUOUS
 10
13.2433187512
 20
5.4915196518
 11
13.2417794666
 21
5.5110813379
  0
LINE
  5
83F
100
AcDbEntity
  8
0
100
AcDbLine
 62
7
  6
CONTINUOUS
 10
13.2433187512
 20
5.5879569451
 11
13.2418044238
 21
5.6121417725
  0
LWPOLYLINE
  5
840
100
AcDbEntity
  8
0
100
AcDbPolyline
 62
7
  6
CONTINUOUS
 90
3
 70
0
 10
13.2433187512
 20
5.3468637117
 10
13.2420133425
 20
5.3699574435
 10
13.2417230848
 20
5.3713638132
  0
LWPOLYLINE
  5
841
100
AcDbEntity
  8
0
100
AcDbPolyline
 62
7
  6
CONTINUOUS
 90
3
 70
0
 10
13.2433187512
 20
5.6843942385
 10
13.2424331037
 20
5.7034193312
 10
13.2420524192
 20
5.7054638587
  0
LWPOLYLINE
  5
842
100
AcDbEntity
  8
0
100
AcDbPolyline
 62
7
  6
CONTINUOUS
 90
3
 70
0
 10
13.2433187512
 20
5.4433010051
 10
13.2426493826
 20
5.4598422375
 10
13.2415770521
 20
5.4660085327
  0
LWPOLYLINE
  5
843
100
AcDbEntity
  8
0
100
AcDbPolyline
 62
7
  6
CONTINUOUS
 90
3
 70
0
 10
13.2433187512
 20
5.5397382984
 10
13.2430750305
 20
5.5497212238
 10
13.2415482797
 20
5.5605080906
  0
LINE
  5
844
100
AcDbEntity
  8
0
100
AcDbLine
 62
7
  6
CONTINUOUS
 10
13.2432412792
 20
5.4858908787
 11
13.2433187512
 21
5.4915196518
  0
LINE
  5
845
100
AcDbEntity
  8
0
100
AcDbLine
 62
7
  6
CONTINUOUS
 10
13.242955336
 20
5.5757672819
 11
13.2433187512
 21
5.5879569451
  0
LINE
  5
846
100
AcDbEntity
  8
0
100
AcDbLine
 62
7
  6
CONTINUOUS
 10
13.2427919718
 20
5.3321888101
 11
13.2433187512
 21
5.3468637117
  0
LINE
  5
847
100
AcDbEntity
  8
0
100
AcDbLine
 62
7
  6
CONTINUOUS
 10
13.2424588908
 20
5.665647965
 11
13.2433187512
 21
5.6843942385
  0
LINE
  5
848
100
AcDbEntity
  8
0
100
AcDbLine
 62
7
  6
CONTINUOUS
 10
13.2422157999
 20
5.4220717167
 11
13.2433187512
 21
5.4433010051
  0
LINE
  5
849
100
AcDbEntity
  8
0
100
AcDbLine
 62
7
  6
CONTINUOUS
 10
13.2414293915
 20
5.5119620769
 11
13.2433187512
 21
5.5397382984
  0
LINE
  5
84A
100
AcDbEntity
  8
0
100
AcDbLine
 62
7
  6
CONTINUOUS
 10
13.240433029
 20
5.6018621894
 11
13.2433187512
 21
5.6361755918
  0
LINE
  5
84B
100
AcDbEntity
  8
0
100
AcDbLine
 62
7
  6
CONTINUOUS
 10
13.2392270701
 20
5.6857470183
 11
13.2411684384
 21
5.7051235632
  0
LWPOLYLINE
  5
84C
100
AcDbEntity
  8
0
100
AcDbPolyline
 62
7
  6
CONTINUOUS
 90
17
 70
0
 10
12.8589363499
 20
4.7552456454
 10
12.8557888146
 20
4.7426063377
 10
12.8475991589
 20
4.7265032091
 10
12.83552344
 20
4.7112368849
 10
12.8198074848
 20
4.6971181432
 10
12.8007712247
 20
4.6844344009
 10
12.7788021831
 20
4.6734438626
 10
12.7543475864
 20
4.6643702637
 10
12.7279052597
 20
4.6573983167
 10
12.7000134924
 20
4.6526699503
 10
12.6712400804
 20
4.6502814204
 10
12.6421707676
 20
4.6502813505
 10
12.6133973212
 20
4.6526697421
 10
12.5855054857
 20
4.6573979744
 10
12.5590630584
 20
4.6643697943
 10
12.5346083308
 20
4.6734432756
 10
12.5126391308
 20
4.6844337083
  0
LINE
  5
84D
100
AcDbEntity
  8
0
100
AcDbLine
 62
9
  6
CONTINUOUS
 10
13.6363437872
 20
6.8283869929
 11
13.6798655514
 21
6.9075013283
  0
LWPOLYLINE
  5
84E
100
AcDbEntity
  8
0
100
AcDbPolyline
 62
7
  6
CONTINUOUS
 90
3
 70
0
 10
13.6651406175
 20
6.3942821663
 10
13.6197551159
 20
6.3416589858
 10
13.5661532066
 20
6.2916779904
  0
LWPOLYLINE
  5
84F
100
AcDbEntity
  8
0
100
AcDbPolyline
 62
7
  6
CONTINUOUS
 90
15
 70
0
 10
12.9904500051
 20
5.6341287143
 10
12.9777858858
 20
5.6280383393
 10
12.9275579908
 20
5.6087122263
 10
12.8740047093
 20
5.5925815801
 10
12.817941007
 20
5.5798958415
 10
12.7601325128
 20
5.5707989671
 10
12.7011228834
 20
5.5653517014
 10
12.6414914726
 20
5.5636069761
 10
12.5821094228
 20
5.5655835199
 10
12.5235362606
 20
5.5712523166
 10
12.4665750569
 20
5.5805267567
 10
12.4118667105
 20
5.5932840534
 10
12.3599689242
 20
5.6093867374
 10
12.3113860683
 20
5.628695809
 10
12.3065015942
 20
5.6311343231
  0
LINE
  5
850
100
AcDbEntity
  8
0
100
AcDbLine
 62
7
  6
CONTINUOUS
 10
13.2400006761
 20
5.3582947321
 11
13.2433187512
 21
5.3950823584
  0
LINE
  5
851
100
AcDbEntity
  8
0
100
AcDbLine
 62
7
  6
CONTINUOUS
 10
13.2387154003
 20
5.448212056
 11
13.2432412792
 21
5.4858908787
  0
LWPOLYLINE
  5
852
100
AcDbEntity
  8
0
100
AcDbPolyline
 62
7
  6
CONTINUOUS
 90
3
 70
0
 10
13.2387154003
 20
5.4421847252
 10
13.2432412792
 20
5.4798635478
 10
13.2433187512
 20
5.4854923209
  0
LWPOLYLINE
  5
853
100
AcDbEntity
  8
0
100
AcDbPolyline
 62
7
  6
CONTINUOUS
 90
7
 70
0
 10
13.4441061527
 20
7.0194202365
 10
13.4372448917
 20
6.9625796054
 10
13.4172508844
 20
6.9075248658
 10
13.3850874168
 20
6.8549541351
 10
13.3414008446
 20
6.8051598879
 10
13.2867020933
 20
6.7586121793
 10
13.2216379034
 20
6.7159938921
  0
LWPOLYLINE
  5
854
100
AcDbEntity
  8
0
100
AcDbPolyline
 62
7
  6
CONTINUOUS
 90
3
 70
0
 10
13.2306337861
 20
5.5584993672
 10
13.240433029
 20
5.5958348586
 10
13.2433187512
 20
5.630148261
  0
LINE
  5
855
100
AcDbEntity
  8
0
100
AcDbLine
 62
7
  6
CONTINUOUS
 10
13.2282317299
 20
5.6485252791
 11
13.2392270701
 21
5.6857470183
  0
LWPOLYLINE
  5
856
100
AcDbEntity
  8
0
100
AcDbPolyline
 62
7
  6
CONTINUOUS
 90
5
 70
0
 10
12.8763585547
 20
4.9748420508
 10
12.8744443709
 20
4.9711966285
 10
12.8606885417
 20
4.9537202917
 10
12.8430504934
 20
4.9374686419
 10
12.8220680333
 20
4.9228759236
  0
LWPOLYLINE
  5
857
100
AcDbEntity
  8
0
100
AcDbPolyline
 62
7
  6
CONTINUOUS
 90
3
 70
0
 10
13.1969150516
 20
5.639711887
 10
13.218602742
 20
5.6752960509
 10
13.2288473107
 20
5.7003804458
  0
LINE
  5
858
100
AcDbEntity
  8
0
100
AcDbLine
 62
7
  6
CONTINUOUS
 10
13.7019224984
 20
6.4490985694
 11
13.6651406175
 21
6.3942821663
  0
LWPOLYLINE
  5
859
100
AcDbEntity
  8
0
100
AcDbPolyline
 62
7
  6
CONTINUOUS
 90
15
 70
0
 10
12.9880635682
 20
5.4883088038
 10
12.9783506317
 20
5.483626068
 10
12.9282050143
 20
5.4642777364
 10
12.8748089081
 20
5.448137444
 10
12.8189484437
 20
5.4354331109
 10
12.7611097235
 20
5.4262651921
 10
12.7021400163
 20
5.4207579958
 10
12.642626422
 20
5.4189494267
 10
12.5829427806
 20
5.4208739437
 10
12.5240724217
 20
5.4265271615
 10
12.4670432514
 20
5.4357785594
 10
12.4121314176
 20
5.448556505
 10
12.3598958224
 20
5.4647565564
 10
12.3112634073
 20
5.4840946182
 10
12.3037622269
 20
5.4878405896
  0
LWPOLYLINE
  5
85A
100
AcDbEntity
  8
0
100
AcDbPolyline
 62
7
  6
CONTINUOUS
 90
15
 70
0
 10
12.9904334756
 20
5.5376871373
 10
12.9776559991
 20
5.5315450936
 10
12.9274509602
 20
5.5122383654
 10
12.8739622704
 20
5.496133134
 10
12.8180156806
 20
5.4834728272
 10
12.7600964585
 20
5.4743571867
 10
12.701048448
 20
5.4689098967
 10
12.6413768283
 20
5.4671699204
 10
12.5819381003
 20
5.4691573455
 10
12.5234019024
 20
5.4748324193
 10
12.4664464093
 20
5.4841148615
 10
12.4116605266
 20
5.4969026066
 10
12.3597747733
 20
5.513017878
 10
12.3113426776
 20
5.5322778792
 10
12.3091183896
 20
5.5333884431
  0
LWPOLYLINE
  5
85B
100
AcDbEntity
  8
0
100
AcDbPolyline
 62
7
  6
CONTINUOUS
 90
14
 70
0
 10
12.9859061813
 20
5.5836410149
 10
12.9416047843
 20
5.5654549545
 10
12.8879319514
 20
5.5481571165
 10
12.8311899939
 20
5.5343168091
 10
12.7721819581
 20
5.5241611031
 10
12.7119926501
 20
5.5178549995
 10
12.6509854148
 20
5.5154164378
 10
12.5897561101
 20
5.5169006284
 10
12.5294347788
 20
5.5222901807
 10
12.4710789741
 20
5.5314319941
 10
12.4149851737
 20
5.5442281937
 10
12.3618527922
 20
5.5605074421
 10
12.3123060251
 20
5.5800675865
 10
12.3036142661
 20
5.5843973142
  0
LINE
  5
85C
100
AcDbEntity
  8
0
100
AcDbLine
 62
7
  6
CONTINUOUS
 10
13.4391547698
 20
7.0542482873
 11
13.4432369339
 21
7.0122193812
  0
LINE
  5
85D
100
AcDbEntity
  8
0
100
AcDbLine
 62
9
  6
CONTINUOUS
 10
13.4441061526
 20
7.0194296698
 11
13.4441061527
 21
7.0194202365
  0
LWPOLYLINE
  5
85E
100
AcDbEntity
  8
0
100
AcDbPolyline
 62
7
  6
CONTINUOUS
 90
3
 70
0
 10
13.229747738
 20
5.314973476
 10
13.2400006761
 20
5.3522674013
 10
13.2433187512
 20
5.3890550276
  0
LWPOLYLINE
  5
85F
100
AcDbEntity
  8
0
100
AcDbPolyline
 62
9
  6
CONTINUOUS
 90
20
 70
0
 10
13.6798655514
 20
6.9075013283
 10
13.7043157638
 20
6.9892910769
 10
13.7092448912
 20
7.0722453056
 10
13.6945597639
 20
7.1548128857
 10
13.660534225
 20
7.2354565565
 10
13.6078023558
 20
7.3126734168
 10
13.5373467221
 20
7.3850246249
 10
13.4504803838
 20
7.4511617816
 10
13.3488219881
 20
7.5098525081
 10
13.234266059
 20
7.5600030357
 10
13.108947186
 20
7.6006788767
 10
12.9752008977
 20
7.6311219719
 10
12.8355193479
 20
7.6507650668
 10
12.6925058339
 20
7.659242085
 10
12.5488233988
 20
7.6563949939
 10
12.4071569301
 20
7.6422774688
 10
12.2701263955
 20
7.6171494164
 10
12.1403427958
 20
7.5814939431
 10
12.0200513341
 20
7.5359126657
 10
11.9120122493
 20
7.4815045909
  0
LWPOLYLINE
  5
860
100
AcDbEntity
  8
0
100
AcDbPolyline
 62
7
  6
CONTINUOUS
 90
12
 70
0
 10
13.1897956409
 20
5.1974286492
 10
13.1785737929
 20
5.1727499394
 10
13.1556358506
 20
5.1379622409
 10
13.1260837169
 20
5.1046682633
 10
13.090509247
 20
5.0737128391
 10
13.0492967875
 20
5.0454387581
 10
13.003349248
 20
5.0203915943
 10
12.9531569479
 20
4.9987265222
 10
12.8995480175
 20
4.9807049289
 10
12.8430871875
 20
4.9664302143
 10
12.7845255493
 20
4.9560307937
 10
12.7244989245
 20
4.949573396
  0
LWPOLYLINE
  5
861
100
AcDbEntity
  8
0
100
AcDbPolyline
 62
7
  6
CONTINUOUS
 90
5
 70
0
 10
13.2051912445
 20
5.4590401558
 10
13.2245830137
 20
5.4950737918
 10
13.2372211449
 20
5.5321172538
 10
13.242955336
 20
5.5697399511
 10
13.2433187512
 20
5.5819296143
  0
LWPOLYLINE
  5
862
100
AcDbEntity
  8
0
100
AcDbPolyline
 62
7
  6
CONTINUOUS
 90
5
 70
0
 10
13.2011508938
 20
5.5493533849
 10
13.2216943118
 20
5.5851685645
 10
13.2355184465
 20
5.6220672707
 10
13.2424588908
 20
5.6596206342
 10
13.2433187512
 20
5.6783669076
  0
LWPOLYLINE
  5
863
100
AcDbEntity
  8
0
100
AcDbPolyline
 62
7
  6
CONTINUOUS
 90
5
 70
0
 10
13.1952591263
 20
5.3963273823
 10
13.2173784232
 20
5.431820739
 10
13.2328297646
 20
5.4684986079
 10
13.2414293915
 20
5.5059347461
 10
13.2433187512
 20
5.5337109676
  0
LWPOLYLINE
  5
864
100
AcDbEntity
  8
0
100
AcDbPolyline
 62
7
  6
CONTINUOUS
 90
3
 70
0
 10
13.1907562207
 20
5.4867518046
 10
13.214008945
 20
5.5219969639
 10
13.2306337861
 20
5.5584993672
  0
LWPOLYLINE
  5
865
100
AcDbEntity
  8
0
100
AcDbPolyline
 62
7
  6
CONTINUOUS
 90
3
 70
0
 10
13.1860615559
 20
5.57722654
 10
13.2104393584
 20
5.6122111473
 10
13.2282317299
 20
5.6485252791
  0
LWPOLYLINE
  5
866
100
AcDbEntity
  8
0
100
AcDbPolyline
 62
7
  6
CONTINUOUS
 90
15
 70
0
 10
12.9843536051
 20
5.3418424852
 10
12.9789280562
 20
5.3392199211
 10
12.928778196
 20
5.3198185358
 10
12.8750969653
 20
5.3035575851
 10
12.8186009548
 20
5.2907103898
 10
12.7602851753
 20
5.281506102
 10
12.7011596869
 20
5.276042054
 10
12.6414147352
 20
5.2742952536
 10
12.581784717
 20
5.2762927402
 10
12.5232728273
 20
5.2819745641
 10
12.4663784612
 20
5.2912536977
 10
12.4116122216
 20
5.3040411125
 10
12.3597445546
 20
5.3201539485
 10
12.3113286648
 20
5.3394095467
 10
12.3032471863
 20
5.3434446801
  0
LWPOLYLINE
  5
867
100
AcDbEntity
  8
0
100
AcDbPolyline
 62
7
  6
CONTINUOUS
 90
15
 70
0
 10
12.9869516677
 20
5.4395640741
 10
12.9781181164
 20
5.4353070224
 10
12.9278539383
 20
5.4159388471
 10
12.8742087927
 20
5.3997606599
 10
12.8179269166
 20
5.3870185612
 10
12.7600046994
 20
5.3779084803
 10
12.7010123037
 20
5.3724704148
 10
12.6413714497
 20
5.3707326385
 10
12.5819815288
 20
5.3727172306
 10
12.523401818
 20
5.3783951369
 10
12.4664364364
 20
5.3876795379
 10
12.4116581398
 20
5.4004659601
 10
12.3597839506
 20
5.4165773483
 10
12.3113439212
 20
5.4358400308
 10
12.3059231097
 20
5.4385465776
  0
LWPOLYLINE
  5
868
100
AcDbEntity
  8
0
100
AcDbPolyline
 62
7
  6
CONTINUOUS
 90
15
 70
0
 10
12.990053531
 20
5.39283657
 10
12.9781142618
 20
5.3870867122
 10
12.9279538005
 20
5.3677543828
 10
12.8746046362
 20
5.3516462675
 10
12.8186910775
 20
5.3389463424
 10
12.7607404134
 20
5.3297816051
 10
12.7017273416
 20
5.3242953202
 10
12.642132701
 20
5.3225126676
 10
12.5827779906
 20
5.3244471974
 10
12.5242257983
 20
5.3300701284
 10
12.4672754032
 20
5.3392956227
 10
12.4124772871
 20
5.3520257994
 10
12.3602196442
 20
5.368205227
 10
12.3114336469
 20
5.3875813479
 10
12.3056509338
 20
5.3904679686
  0
LWPOLYLINE
  5
869
100
AcDbEntity
  8
0
100
AcDbPolyline
 62
9
  6
CONTINUOUS
 90
15
 70
0
 10
13.4013969043
 20
6.6216274097
 10
13.4069202425
 20
6.6173377473
 10
13.4119603743
 20
6.6111296635
 10
13.4165161936
 20
6.6030168417
 10
13.4204051874
 20
6.5935360969
 10
13.4236905524
 20
6.5829764857
 10
13.4264702654
 20
6.5714508104
 10
13.4288238204
 20
6.5589802116
 10
13.430806905
 20
6.5455416836
 10
13.4324563392
 20
6.5310887518
 10
13.4337951962
 20
6.5155597738
 10
13.4348369047
 20
6.4988725401
 10
13.4355867759
 20
6.4809263234
 10
13.4360429219
 20
6.4616109874
 10
13.4361975629
 20
6.4408068714
  0
LWPOLYLINE
  5
86A
100
AcDbEntity
  8
0
100
AcDbPolyline
 62
7
  6
CONTINUOUS
 90
3
 70
0
 10
13.7484962382
 20
6.563425625
 10
13.7297869485
 20
6.505640521
 10
13.7019224984
 20
6.4490985694
  0
LWPOLYLINE
  5
86B
100
AcDbEntity
  8
0
100
AcDbPolyline
 62
7
  6
CONTINUOUS
 90
4
 70
0
 10
13.1889996651
 20
5.2494203725
 10
13.2126797392
 20
5.2845682451
 10
13.229747738
 20
5.3210008068
 10
13.2400006761
 20
5.3582947321
  0
LWPOLYLINE
  5
86C
100
AcDbEntity
  8
0
100
AcDbPolyline
 62
7
  6
CONTINUOUS
 90
4
 70
0
 10
13.1842327704
 20
5.3338873899
 10
13.209034653
 20
5.368770053
 10
13.2272678105
 20
5.4050095077
 10
13.2387154003
 20
5.4421847252
  0
LWPOLYLINE
  5
86D
100
AcDbEntity
  8
0
100
AcDbPolyline
 62
7
  6
CONTINUOUS
 90
6
 70
0
 10
12.988944821
 20
5.1994347488
 10
12.9778726823
 20
5.1941079279
 10
12.9276568184
 20
5.1747781874
 10
12.8741603979
 20
5.1586546953
 10
12.8182038531
 20
5.1459783127
 10
12.7603463344
 20
5.136857787
  0
LWPOLYLINE
  5
86E
100
AcDbEntity
  8
0
100
AcDbPolyline
 62
7
  6
CONTINUOUS
 90
15
 70
0
 10
12.9907378607
 20
5.2967378047
 10
12.9776794601
 20
5.2904619642
 10
12.9274654372
 20
5.2711500771
 10
12.8739890073
 20
5.2550469266
 10
12.818055446
 20
5.2423872005
 10
12.7601496159
 20
5.2332705693
 10
12.7011205788
 20
5.2278210349
 10
12.6415879869
 20
5.22607626
 10
12.5821378323
 20
5.2280511524
 10
12.5234010992
 20
5.23373929
 10
12.4664001959
 20
5.2430307568
 10
12.4116268188
 20
5.2558185091
 10
12.3597537073
 20
5.2719320738
 10
12.3113329095
 20
5.2911890054
 10
12.3080667809
 20
5.2928197876
  0
LWPOLYLINE
  5
86F
100
AcDbEntity
  8
0
100
AcDbPolyline
 62
7
  6
CONTINUOUS
 90
6
 70
0
 10
12.9865595364
 20
5.2465444031
 10
12.9498536787
 20
5.2309923265
 10
12.8988945116
 20
5.2138056169
 10
12.8449148109
 20
5.1997497314
 10
12.7887981408
 20
5.189079227
 10
12.7315107103
 20
5.1819375821
  0
LWPOLYLINE
  5
870
100
AcDbEntity
  8
0
100
AcDbPolyline
 62
9
  6
CONTINUOUS
 90
4
 70
0
 10
11.9120122515
 20
7.4815045921
 10
11.9064889133
 20
7.4835925871
 10
11.9014487811
 20
7.483204215
 10
11.8994868245
 20
7.482311457
  0
LWPOLYLINE
  5
871
100
AcDbEntity
  8
0
100
AcDbPolyline
 62
9
  6
CONTINUOUS
 90
3
 70
0
 10
13.4282735768
 20
7.1101245441
 10
13.442921371
 20
7.0443490757
 10
13.4441061526
 20
7.0194296698
  0
LWPOLYLINE
  5
872
100
AcDbEntity
  8
0
100
AcDbPolyline
 62
7
  6
CONTINUOUS
 90
25
 70
0
 10
13.7590663286
 20
6.8908809723
 10
13.758069394
 20
6.9416709686
 10
13.7549888585
 20
6.9891388124
 10
13.7496716648
 20
7.0336891482
 10
13.7405723147
 20
7.0819186966
 10
13.7261528126
 20
7.1333077005
 10
13.7066509586
 20
7.1830151862
 10
13.6816622388
 20
7.2312606996
 10
13.6506342141
 20
7.2784651778
 10
13.612795608
 20
7.3250246047
 10
13.5674088608
 20
7.3709367518
 10
13.51366378
 20
7.4160401952
 10
13.4501938091
 20
7.4603270887
 10
13.3754758284
 20
7.5034430632
 10
13.2891115894
 20
7.5441468635
 10
13.1916588001
 20
7.5809008572
 10
13.0837053368
 20
7.6123980146
 10
12.9654045112
 20
7.6375180587
 10
12.8371805979
 20
7.654984758
 10
12.6999670476
 20
7.6633549034
 10
12.5564130013
 20
7.6611338564
 10
12.41078928
 20
7.6472768609
 10
12.2677027369
 20
7.6214721403
 10
12.1316746176
 20
7.5841751054
 10
12.0067689949
 20
7.5365647868
  0
LINE
  5
873
100
AcDbEntity
  8
0
100
AcDbLine
 62
7
  6
CONTINUOUS
 10
13.759066782
 20
6.3057616911
 11
13.7590667827
 21
6.3057842314
  0
LINE
  5
874
100
AcDbEntity
  8
02___PRT_ALL_AXES
100
AcDbLine
 62
7
  6
CONTINUOUS
 10
13.7590667827
 20
6.8908371787
 11
13.7590667827
 21
6.3057842657
  0
LINE
  5
875
100
AcDbEntity
  8
0
100
AcDbLine
 62
7
  6
CONTINUOUS
 10
13.7590667827
 20
6.8908373543
 11
13.75906678
 21
6.8908809373
  0
LINE
  5
876
100
AcDbEntity
  8
0
100
AcDbLine
 62
7
  6
CONTINUOUS
 10
13.7590649007
 20
6.6513512317
 11
13.7578907464
 21
6.6219608793
  0
LWPOLYLINE
  5
877
100
AcDbEntity
  8
02___PRT_ALL_AXES
100
AcDbPolyline
 62
7
  6
CONTINUOUS
 90
7
 70
0
 10
13.7590560574
 20
6.651351229
 10
13.7562584175
 20
6.6059507656
 10
13.733875327
 20
6.5160687662
 10
13.6895641464
 20
6.4289407278
 10
13.6242269234
 20
6.3463403259
 10
13.5391937357
 20
6.2699490665
 10
13.4361956135
 20
6.2013220553
  0
LINE
  5
878
100
AcDbEntity
  8
0
100
AcDbLine
 62
7
  6
CONTINUOUS
 10
13.7578907464
 20
6.6219608793
 11
13.7484962382
 21
6.563425625
  0
LINE
  5
879
100
AcDbEntity
  8
0
100
AcDbLine
 62
7
  6
CONTINUOUS
 10
12.8220680333
 20
4.9534143998
 11
12.8399930574
 21
4.9658807563
  0
LINE
  5
87A
100
AcDbEntity
  8
0
100
AcDbLine
 62
7
  6
CONTINUOUS
 10
12.8368928414
 20
4.9653302176
 11
12.8220680333
 21
4.9550216881
  0
LWPOLYLINE
  5
87B
100
AcDbEntity
  8
0
100
AcDbPolyline
 62
7
  6
CONTINUOUS
 90
7
 70
0
 10
12.8220680333
 20
4.8891228709
 10
12.8430079373
 20
4.903681656
 10
12.8605388929
 20
4.9198066911
 10
12.8741998685
 20
4.9370702159
 10
12.883832442
 20
4.9552224967
 10
12.8893107997
 20
4.9741293807
 10
12.8896632083
 20
4.9782058011
  0
LWPOLYLINE
  5
87C
100
AcDbEntity
  8
0
100
AcDbPolyline
 62
7
  6
CONTINUOUS
 90
5
 70
0
 10
12.8220680333
 20
4.9212686354
 10
12.8429500188
 20
4.9357812712
 10
12.8604423375
 20
4.9518491254
 10
12.874202465
 20
4.9692199289
 10
12.8773109769
 20
4.975082847
  0
LWPOLYLINE
  5
87D
100
AcDbEntity
  8
0
100
AcDbPolyline
 62
7
  6
CONTINUOUS
 90
15
 70
0
 10
12.9895696388
 20
5.1514938821
 10
12.9787549782
 20
5.1462703915
 10
12.9286251225
 20
5.1268913562
 10
12.8752524473
 20
5.110724111
 10
12.8190122364
 20
5.0979148597
 10
12.7608466418
 20
5.088701672
 10
12.701752381
 20
5.0832036218
 10
12.6419189683
 20
5.0814197447
 10
12.582075702
 20
5.0833992391
 10
12.5232793755
 20
5.0890991281
 10
12.4663862103
 20
5.0983775799
 10
12.4116179297
 20
5.1111649785
 10
12.3597481224
 20
5.1272781035
 10
12.3113303192
 20
5.1465342215
 10
12.3048271192
 20
5.1497812976
  0
LWPOLYLINE
  5
87E
100
AcDbEntity
  8
0
100
AcDbPolyline
 62
7
  6
CONTINUOUS
 90
15
 70
0
 10
12.9827270134
 20
5.1000157964
 10
12.9776207481
 20
5.0975620939
 10
12.9274098828
 20
5.0782565159
 10
12.8739214252
 20
5.0621545822
 10
12.8179758576
 20
5.0494973913
 10
12.7600582116
 20
5.0403846083
 10
12.7010139852
 20
5.0349399898
 10
12.6413780028
 20
5.0332020978
 10
12.5819935342
 20
5.0351859243
 10
12.5234043931
 20
5.0408642765
 10
12.4664362578
 20
5.0501490464
 10
12.411653097
 20
5.0629368
 10
12.3597701309
 20
5.079051695
 10
12.3113405249
 20
5.0983110198
 10
12.3038115105
 20
5.1020701978
  0
LWPOLYLINE
  5
87F
100
AcDbEntity
  8
0
100
AcDbPolyline
 62
7
  6
CONTINUOUS
 90
7
 70
0
 10
12.8220680333
 20
4.8569771065
 10
12.8430459313
 20
4.871566186
 10
12.8606811308
 20
4.8878135126
 10
12.8744360406
 20
4.9052850394
 10
12.8840048677
 20
4.9235013423
 10
12.8893673032
 20
4.9423133556
 10
12.8905628456
 20
4.9564635567
  0
LWPOLYLINE
  5
880
100
AcDbEntity
  8
0
100
AcDbPolyline
 62
7
  6
CONTINUOUS
 90
7
 70
0
 10
12.8220680333
 20
4.7926855776
 10
12.8429993214
 20
4.8072374951
 10
12.8604931366
 20
4.8233204059
 10
12.8741617174
 20
4.8405749444
 10
12.883819836
 20
4.8587543836
 10
12.8893027873
 20
4.8776459409
 10
12.8905628455
 20
4.8921786906
  0
LWPOLYLINE
  5
881
100
AcDbEntity
  8
0
100
AcDbPolyline
 62
7
  6
CONTINUOUS
 90
7
 70
0
 10
12.8220680333
 20
4.7605398131
 10
12.8430405876
 20
4.7751246309
 10
12.8606608524
 20
4.7913544387
 10
12.8744008661
 20
4.8087938571
 10
12.8839729038
 20
4.8269849003
 10
12.8893690422
 20
4.8458863337
 10
12.8905628456
 20
4.8600290029
  0
LWPOLYLINE
  5
882
100
AcDbEntity
  8
0
100
AcDbPolyline
 62
7
  6
CONTINUOUS
 90
7
 70
0
 10
12.8220680333
 20
4.824831342
 10
12.8429435456
 20
4.8393388224
 10
12.8605063417
 20
4.8554803046
 10
12.8742747879
 20
4.87289276
 10
12.8839039665
 20
4.8911064057
 10
12.889319325
 20
4.9098871159
 10
12.8905628456
 20
4.9243165811
  0
LWPOLYLINE
  5
883
100
AcDbEntity
  8
0
100
AcDbPolyline
 62
7
  6
CONTINUOUS
 90
5
 70
0
 10
12.8220680333
 20
4.8907301592
 10
12.7991547449
 20
4.878455972
 10
12.7736026589
 20
4.867922611
 10
12.7460499198
 20
4.8594138433
 10
12.7172324919
 20
4.8531063286
  0
LWPOLYLINE
  5
884
100
AcDbEntity
  8
0
100
AcDbPolyline
 62
7
  6
CONTINUOUS
 90
5
 70
0
 10
12.8220680333
 20
4.8264386303
 10
12.7981449519
 20
4.8136913788
 10
12.7714742859
 20
4.8028768407
 10
12.742570837
 20
4.7942286469
 10
12.7122298503
 20
4.7879619875
  0
LWPOLYLINE
  5
885
100
AcDbEntity
  8
0
100
AcDbPolyline
 62
7
  6
CONTINUOUS
 90
5
 70
0
 10
12.8220680333
 20
4.9550216881
 10
12.7980965322
 20
4.9422518818
 10
12.7715185238
 20
4.931475399
 10
12.7427871188
 20
4.9228661555
 10
12.7124876772
 20
4.9165873253
  0
LWPOLYLINE
  5
886
100
AcDbEntity
  8
0
100
AcDbPolyline
 62
7
  6
CONTINUOUS
 90
4
 70
0
 10
12.8220680333
 20
4.9228759236
 10
12.7981183514
 20
4.9101162797
 10
12.7713188379
 20
4.8992597259
 10
12.7423429907
 20
4.8906087353
  0
LWPOLYLINE
  5
887
100
AcDbEntity
  8
0
100
AcDbPolyline
 62
7
  6
CONTINUOUS
 90
5
 70
0
 10
12.8220680333
 20
4.8585843947
 10
12.7980666487
 20
4.8458006739
 10
12.7714048914
 20
4.8349983051
 10
12.7427279302
 20
4.8264139465
 10
12.7124504648
 20
4.8201439185
  0
LWPOLYLINE
  5
888
100
AcDbEntity
  8
0
100
AcDbPolyline
 62
7
  6
CONTINUOUS
 90
5
 70
0
 10
12.8107852292
 20
4.7138432913
 10
12.8252008508
 20
4.7229977177
 10
12.843335432
 20
4.737611753
 10
12.8578874811
 20
4.7535741785
 10
12.8647169483
 20
4.7644575495
  0
LWPOLYLINE
  5
889
100
AcDbEntity
  8
0
100
AcDbPolyline
 62
7
  6
CONTINUOUS
 90
9
 70
0
 10
12.8081441432
 20
4.7123188609
 10
12.8048844928
 20
4.7104762359
 10
12.7812460669
 20
4.6991591089
 10
12.7550472628
 20
4.6899100781
 10
12.7268266872
 20
4.6829192895
 10
12.6971645114
 20
4.6783304632
 10
12.666670544
 20
4.6762379382
 10
12.635971694
 20
4.6766847333
 10
12.6056990822
 20
4.6796616624
  0
LWPOLYLINE
  5
88A
100
AcDbEntity
  8
0
100
AcDbPolyline
 62
7
  6
CONTINUOUS
 90
5
 70
0
 10
12.8220680333
 20
4.7621471013
 10
12.7980533987
 20
4.7493572124
 10
12.7713189964
 20
4.738530959
 10
12.7426040217
 20
4.7299454631
 10
12.7123693956
 20
4.7236933197
  0
LWPOLYLINE
  5
88B
100
AcDbEntity
  8
0
100
AcDbPolyline
 62
7
  6
CONTINUOUS
 90
5
 70
0
 10
12.8220680333
 20
4.7942928658
 10
12.797768556
 20
4.7813705896
 10
12.7705605096
 20
4.7704125597
 10
12.7412075733
 20
4.7617430107
 10
12.710550853
 20
4.7555453027
  0
CIRCLE
  5
88C
100
AcDbEntity
  8
0
100
AcDbCircle
 62
7
  6
CONTINUOUS
 10
10.5342808475
 20
1.243294839
 40
0.252091
  0
CIRCLE
  5
88D
100
AcDbEntity
  8
0
100
AcDbCircle
 62
7
  6
CONTINUOUS
 10
10.5342808475
 20
1.243294839
 40
0.182698
  0
ARC
  5
88E
100
AcDbEntity
  8
0
100
AcDbCircle
 62
7
  6
CONTINUOUS
 10
5.923625964
 20
3.5671071698
 40
0.0590551181
100
AcDbArc
 50
90.0
 51
180.0
  0
ARC
  5
88F
100
AcDbEntity
  8
0
100
AcDbCircle
 62
7
  6
CONTINUOUS
 10
5.3377991924
 20
3.5671071698
 40
0.0590551181
100
AcDbArc
 50
0.0
 51
90.0
  0
ARC
  5
890
100
AcDbEntity
  8
0
100
AcDbCircle
 62
7
  6
CONTINUOUS
 10
5.1189015546
 20
3.6655323666
 40
0.0393700787
100
AcDbArc
 50
180.0
 51
270.0
  0
ARC
  5
891
100
AcDbEntity
  8
0
100
AcDbCircle
 62
7
  6
CONTINUOUS
 10
6.1425236018
 20
3.6655323666
 40
0.0393700787
100
AcDbArc
 50
270.0
 51
360.0
  0
ARC
  5
892
100
AcDbEntity
  8
0
100
AcDbCircle
 62
7
  6
CONTINUOUS
 10
6.2212637593
 20
4.7619890595
 40
0.0393700787
100
AcDbArc
 50
90.0
 51
160.0055000418
  0
ARC
  5
893
100
AcDbEntity
  8
0
100
AcDbCircle
 62
7
  6
CONTINUOUS
 10
5.0401613971
 20
4.7619890595
 40
0.0393700787
100
AcDbArc
 50
19.9944999582
 51
90.0
  0
CIRCLE
  5
894
100
AcDbEntity
  8
0
100
AcDbCircle
 62
7
  6
CONTINUOUS
 10
5.6307125782
 20
8.0703970132
 40
1.1023622047
  0
CIRCLE
  5
895
100
AcDbEntity
  8
0
100
AcDbCircle
 62
9
  6
CONTINUOUS
 10
5.6307125782
 20
8.0703970132
 40
0.8267716355
  0
CIRCLE
  5
896
100
AcDbEntity
  8
0
100
AcDbCircle
 62
7
  6
CONTINUOUS
 10
5.6307125782
 20
8.0703970132
 40
0.7874015748
  0
ENDSEC
  0
SECTION
  2
OBJECTS
  0
DICTIONARY
  5
C
100
AcDbDictionary
280
0
281
1
  3
ACAD_GROUP
350
D
  3
ACAD_MLINESTYLE
350
17
  3
ACAD_LAYOUT
350
1A
  3
ACAD_PLOTSETTINGS
350
19
  3
ACAD_PLOTSTYLENAME
350
E
  0
DICTIONARY
  5
D
102
{ACAD_REACTORS
330
C
102
}
100
AcDbDictionary
280
0
281
1
  0
ACDBDICTIONARYWDFLT
  5
E
102
{ACAD_REACTORS
330
C
102
}
100
AcDbDictionary
281
1
  3
Normal
350
F
100
AcDbDictionaryWithDefault
340
F
  0
DICTIONARY
  5
17
102
{ACAD_REACTORS
330
C
102
}
100
AcDbDictionary
280
0
281
1
  3
Standard
350
18
  0
DICTIONARY
  5
19
102
{ACAD_REACTORS
330
C
102
}
100
AcDbDictionary
281
1
  0
DICTIONARY
  5
1A
102
{ACAD_REACTORS
330
C
102
}
100
AcDbDictionary
281
1
  3
Model
350
897
  3
Layout1
350
898
  0
ACDBPLACEHOLDER
  5
F
102
{ACAD_REACTORS
330
E
102
}
  0
MLINESTYLE
  5
18
102
{ACAD_REACTORS
330
17
102
}
100
AcDbMlineStyle
  2
STANDARD
 70
0
  3

 62
256
 51
90.0
 52
90.0
 71
2
 49
0.5
 62
256
  6
BYLAYER
 49
-0.5
 62
256
  6
BYLAYER
  0
LAYOUT
  5
897
102
{ACAD_REACTORS
330
1A
102
}
100
AcDbPlotSettings
  1

  2
none_device
  4
ANSI_B_(17.00_x_11.00_Inches)
  6

 40
0.0
 41
0.0
 42
0.0
 43
0.0
 44
431.8
 45
279.4
 46
0.0
 47
0.0
 48
0.0
 49
0.0
140
0.0
141
0.0
142
1.0
143
1.0
 70
1024
 72
0
 73
0
 74
0
  7

 75
0
147
1.0
148
0.0
149
0.0
100
AcDbLayout
  1
Model
 70
0
 71
0
 10
0.0
 20
0.0
 11
17.0
 21
11.0
 12
0.0
 22
0.0
 32
0.0
 14
0.0
 24
0.0
 34
0.0
 15
0.0
 25
0.0
 35
0.0
146
0.0
 13
0.0
 23
0.0
 33
0.0
 16
1.0
 26
0.0
 36
0.0
 17
0.0
 27
1.0
 37
0.0
 76
0
330
214
345
0
346
0
  0
LAYOUT
  5
898
102
{ACAD_REACTORS
330
1A
102
}
100
AcDbPlotSettings
  1

  2
none_device
  4
ANSI_B_(17.00_x_11.00_Inches)
  6

 40
0.0
 41
0.0
 42
0.0
 43
0.0
 44
431.8
 45
279.4
 46
0.0
 47
0.0
 48
0.0
 49
0.0
140
0.0
141
0.0
142
1.0
143
1.0
 70
0
 72
0
 73
0
 74
0
  7

 75
0
147
1.0
148
0.0
149
0.0
100
AcDbLayout
  1
Layout1
 70
0
 71
1
 10
0.0
 20
0.0
 11
17.0
 21
11.0
 12
0.0
 22
0.0
 32
0.0
 14
0.0
 24
0.0
 34
0.0
 15
0.0
 25
0.0
 35
0.0
146
0.0
 13
0.0
 23
0.0
 33
0.0
 16
1.0
 26
0.0
 36
0.0
 17
0.0
 27
1.0
 37
0.0
 76
0
330
215
345
0
346
0
  0
ENDSEC
  0
EOF
