999
DXF file: 164283_1.dxf
999
Pro/ENGINEER 2009141 by Parametric Technology Corporation
  0
SECTION
  2
HEADER
  9
$ACADVER
  1
AC1015
  9
$DWGCODEPAGE
  3
ANSI_1252
  9
$EXTMAX
 10
17.0
 20
11.0
 30
0.0
  9
$EXTMIN
 10
0.0
 20
0.0
 30
0.0
  9
$LIMMIN
 10
0.0
 20
0.0
  9
$LIMMAX
 10
17.0
 20
11.0
  9
$VIEWCTR
 10
8.5
 20
5.5
  9
$VIEWSIZE
 40
11.0
  9
$CLAYER
  8
0
  9
$LTSCALE
 40
0.935
  9
$CELTYPE
  6
BYLAYER
  9
$DIMSCALE
 40
1.0
  9
$DIMASZ
 40
0.1875
  9
$DIMEXO
 40
0.10625
  9
$DIMDLI
 40
0.646
  9
$DIMEXE
 40
0.306
  9
$DIMCEN
 40
0.153
  9
$DIMLFAC
 40
1.0
  9
$DIMBLK
  1
_FILLED
  9
$DIMTXT
 40
0.1
  9
$DIMTOL
 70
1
  9
$DIMLIM
 70
0
  9
$DIMTFAC
 40
1.0
  9
$DIMTP
 40
0.005
  9
$DIMTM
 40
0.005
  9
$PDMODE
 70
3
  9
$PDSIZE
 40
0.3125
  9
$HANDSEED
  5
77C
  9
$TILEMODE
 70
1
  9
$MEASUREMENT
 70
0
  9
$INSUNITS
 70
1
  0
ENDSEC
  0
SECTION
  2
CLASSES
  0
CLASS
  1
ACDBDICTIONARYWDFLT
  2
AcDbDictionaryWithDefault
  3
AutoCAD 2000
 90
0
280
0
281
0
  0
CLASS
  1
ACDBPLACEHOLDER
  2
AcDbPlaceHolder
  3
AutoCAD 2000
 90
0
280
0
281
0
  0
CLASS
  1
LAYOUT
  2
AcDbLayout
  3
AutoCAD 2000
 90
0
280
0
281
0
  0
ENDSEC
  0
SECTION
  2
TABLES
  0
TABLE
  2
VPORT
  5
8
100
AcDbSymbolTable
 70
2
  0
VPORT
  5
1F4
100
AcDbSymbolTableRecord
100
AcDbViewportTableRecord
  2
*ACTIVE
 70
0
 10
0.0
 20
0.0
 11
1.0
 21
1.0
 12
8.5
 22
5.5
 13
0.0
 23
0.0
 14
1.0
 24
1.0
 15
0.0
 25
0.0
 16
0.0
 26
0.0
 36
1.0
 17
0.0
 27
0.0
 37
0.0
 40
11.0
 41
1.5454545455
 42
50.0
 43
0.0
 44
0.0
 50
0.0
 51
0.0
 71
0
 72
100
 73
1
 74
1
 75
0
 76
0
 77
0
 78
0
  0
ENDTAB
  0
TABLE
  2
LTYPE
  5
5
100
AcDbSymbolTable
 70
6
  0
LTYPE
  5
14
100
AcDbSymbolTableRecord
100
AcDbLinetypeTableRecord
  2
BYBLOCK
 70
0
  3

 72
65
 73
0
 40
0.0
  0
LTYPE
  5
15
100
AcDbSymbolTableRecord
100
AcDbLinetypeTableRecord
  2
BYLAYER
 70
0
  3

 72
65
 73
0
 40
0.0
  0
LTYPE
  5
16
100
AcDbSymbolTableRecord
100
AcDbLinetypeTableRecord
  2
CONTINUOUS
 70
64
  3
Solid line
 72
65
 73
0
 40
0.0
  0
LTYPE
  5
1F5
100
AcDbSymbolTableRecord
100
AcDbLinetypeTableRecord
  2
CENTER
 70
64
  3
____ _ ____ _ ____ _ ____ _ ____ _ ____ _ ____
 72
65
 73
4
 40
0.6
 49
0.375
 74
0
 49
-0.075
 74
0
 49
0.075
 74
0
 49
-0.075
 74
0
  0
LTYPE
  5
1F6
100
AcDbSymbolTableRecord
100
AcDbLinetypeTableRecord
  2
HIDDEN
 70
64
  3
- - - - - - - - - - - - - - - - - - - -
 72
65
 73
2
 40
0.2
 49
0.1
 74
0
 49
-0.1
 74
0
  0
LTYPE
  5
1F7
100
AcDbSymbolTableRecord
100
AcDbLinetypeTableRecord
  2
PHANTOM
 70
64
  3
_____ _ _ _____ _ _ _____ _ _ _____
 72
65
 73
6
 40
0.8
 49
0.45
 74
0
 49
-0.05
 74
0
 49
0.1
 74
0
 49
-0.05
 74
0
 49
0.1
 74
0
 49
-0.05
 74
0
  0
LTYPE
  5
1F8
100
AcDbSymbolTableRecord
100
AcDbLinetypeTableRecord
  2
DOT
 70
64
  3
. . . . . . . . . . . . . . . . . . . .
 72
65
 73
2
 40
0.2
 49
0.1
 74
0
 49
-0.1
 74
0
  0
LTYPE
  5
1F9
100
AcDbSymbolTableRecord
100
AcDbLinetypeTableRecord
  2
DASHED
 70
64
  3
- - - - - - - - - - - - - - - - - - - -
 72
65
 73
2
 40
0.2
 49
0.1
 74
0
 49
-0.1
 74
0
  0
ENDTAB
  0
TABLE
  2
LAYER
  5
2
100
AcDbSymbolTable
 70
36
  0
LAYER
  5
10
100
AcDbSymbolTableRecord
100
AcDbLayerTableRecord
  2
0
 70
0
 62
7
  6
CONTINUOUS
370
-3
390
F
  0
LAYER
  5
1FA
100
AcDbSymbolTableRecord
100
AcDbLayerTableRecord
  2
DEFAULT_1
 70
0
 62
7
  6
CENTER
370
-3
390
F
  0
LAYER
  5
1FB
100
AcDbSymbolTableRecord
100
AcDbLayerTableRecord
  2
DEFAULT_2
 70
0
 62
8
  6
HIDDEN
370
-3
390
F
  0
LAYER
  5
1FC
100
AcDbSymbolTableRecord
100
AcDbLayerTableRecord
  2
DEFAULT_3
 70
0
 62
7
  6
PHANTOM
370
-3
390
F
  0
LAYER
  5
1FD
100
AcDbSymbolTableRecord
100
AcDbLayerTableRecord
  2
AXIS
 70
0
 62
7
  6
CONTINUOUS
370
-3
390
F
  0
LAYER
  5
1FE
100
AcDbSymbolTableRecord
100
AcDbLayerTableRecord
  2
DATUM_CURVES
 70
0
 62
7
  6
CONTINUOUS
370
-3
390
F
  0
LAYER
  5
1FF
100
AcDbSymbolTableRecord
100
AcDbLayerTableRecord
  2
DATUM_PLANES
 70
0
 62
7
  6
CONTINUOUS
370
-3
390
F
  0
LAYER
  5
200
100
AcDbSymbolTableRecord
100
AcDbLayerTableRecord
  2
NOTES
 70
0
 62
7
  6
CONTINUOUS
370
-3
390
F
  0
LAYER
  5
201
100
AcDbSymbolTableRecord
100
AcDbLayerTableRecord
  2
SCHEME_DIMS
 70
0
 62
7
  6
CONTINUOUS
370
-3
390
F
  0
LAYER
  5
202
100
AcDbSymbolTableRecord
100
AcDbLayerTableRecord
  2
SYMBOLS
 70
0
 62
7
  6
CONTINUOUS
370
-3
390
F
  0
ENDTAB
  0
TABLE
  2
STYLE
  5
3
100
AcDbSymbolTable
 70
1
  0
STYLE
  5
11
100
AcDbSymbolTableRecord
100
AcDbTextStyleTableRecord
  2
STANDARD
 70
0
 40
0.0
 41
1.0
 50
0.0
 71
0
 42
0.2
  3
txt
  4

  0
STYLE
  5
203
100
AcDbSymbolTableRecord
100
AcDbTextStyleTableRecord
  2
TEXTSTYLE_1
 70
0
 40
0.0
 41
0.8
 50
0.0
 71
0
 42
0.2
  3
gdt
  4

  0
STYLE
  5
204
100
AcDbSymbolTableRecord
100
AcDbTextStyleTableRecord
  2
TEXTSTYLE_2
 70
0
 40
0.0
 41
0.8
 50
0.0
 71
0
 42
0.2
  3
txt
  4

  0
STYLE
  5
205
100
AcDbSymbolTableRecord
100
AcDbTextStyleTableRecord
  2
TEXTSTYLE_3
 70
0
 40
0.0
 41
0.85
 50
0.0
 71
0
 42
0.2
  3
txt
  4

  0
STYLE
  5
206
100
AcDbSymbolTableRecord
100
AcDbTextStyleTableRecord
  2
TEXTSTYLE_4
 70
0
 40
0.0
 41
0.92
 50
0.0
 71
0
 42
0.2
  3
txt
  4

  0
STYLE
  5
207
100
AcDbSymbolTableRecord
100
AcDbTextStyleTableRecord
  2
TEXTSTYLE_5
 70
0
 40
0.0
 41
1.0
 50
0.0
 71
0
 42
0.2
  3
gdt
  4

  0
ENDTAB
  0
TABLE
  2
VIEW
  5
6
100
AcDbSymbolTable
 70
0
  0
ENDTAB
  0
TABLE
  2
UCS
  5
7
100
AcDbSymbolTable
 70
0
  0
ENDTAB
  0
TABLE
  2
APPID
  5
9
100
AcDbSymbolTable
 70
1
  0
APPID
  5
208
100
AcDbSymbolTableRecord
100
AcDbRegAppTableRecord
  2
ACAD
 70
0
  0
ENDTAB
  0
TABLE
  2
BLOCK_RECORD
  5
1
100
AcDbSymbolTable
 70
0
  0
BLOCK_RECORD
  5
209
100
AcDbSymbolTableRecord
100
AcDbBlockTableRecord
  2
*Model_Space
  0
BLOCK_RECORD
  5
20A
100
AcDbSymbolTableRecord
100
AcDbBlockTableRecord
  2
*Paper_Space
  0
BLOCK_RECORD
  5
20B
100
AcDbSymbolTableRecord
100
AcDbBlockTableRecord
  2
_FILLED
  0
BLOCK_RECORD
  5
20C
100
AcDbSymbolTableRecord
100
AcDbBlockTableRecord
  2
*D0
  0
BLOCK_RECORD
  5
20D
100
AcDbSymbolTableRecord
100
AcDbBlockTableRecord
  2
*D1
  0
BLOCK_RECORD
  5
20E
100
AcDbSymbolTableRecord
100
AcDbBlockTableRecord
  2
*D2
  0
BLOCK_RECORD
  5
20F
100
AcDbSymbolTableRecord
100
AcDbBlockTableRecord
  2
*D3
  0
BLOCK_RECORD
  5
210
100
AcDbSymbolTableRecord
100
AcDbBlockTableRecord
  2
*D4
  0
BLOCK_RECORD
  5
211
100
AcDbSymbolTableRecord
100
AcDbBlockTableRecord
  2
*D5
  0
BLOCK_RECORD
  5
212
100
AcDbSymbolTableRecord
100
AcDbBlockTableRecord
  2
CL_BL5
  0
BLOCK_RECORD
  5
213
100
AcDbSymbolTableRecord
100
AcDbBlockTableRecord
  2
CL_BL4
  0
BLOCK_RECORD
  5
214
100
AcDbSymbolTableRecord
100
AcDbBlockTableRecord
  2
CL_BL3
  0
BLOCK_RECORD
  5
215
100
AcDbSymbolTableRecord
100
AcDbBlockTableRecord
  2
CL_BL2
  0
BLOCK_RECORD
  5
216
100
AcDbSymbolTableRecord
100
AcDbBlockTableRecord
  2
CL_BL1
  0
BLOCK_RECORD
  5
217
100
AcDbSymbolTableRecord
100
AcDbBlockTableRecord
  2
BANNER_LOGO_TITLEBLOCK_BL0
  0
ENDTAB
  0
TABLE
  2
DIMSTYLE
  5
A
100
AcDbSymbolTable
 70
1
100
AcDbDimStyleTable
 71
0
  0
DIMSTYLE
105
218
100
AcDbSymbolTableRecord
100
AcDbDimStyleTableRecord
  2
STANDARD
 70
0
  3

  4

 40
1.0
 41
0.1875
 42
0.0625
 43
0.38
 44
0.18
 45
0.0
 46
0.0
 47
0.005
 48
0.005
140
0.1
141
0.09
142
0.0
143
25.4
144
1.0
145
0.0
146
1.0
147
0.09
 71
1.0
 72
0.0
 73
1
 74
1
 75
0
 76
0
 77
0
 78
4
170
0
171
2
172
0
173
0
174
0
175
0
176
0
177
0
178
0
270
2
271
3
272
3
273
2
274
2
275
0
280
0
281
0
282
0
283
1
284
4
285
0
286
0
287
3
288
0
340
11
341
20B
342
20B
343
20B
344
20B
  0
DIMSTYLE
105
219
100
AcDbSymbolTableRecord
100
AcDbDimStyleTableRecord
  2
DIMSTYLE_1
 70
0
  3

  4

 40
1.0
 41
0.1875
 42
0.0625
 43
0.38
 44
0.18
 45
0.0
 46
0.0
 47
0.1
 48
0.1
140
0.1
141
0.09
142
0.0
143
25.4
144
1.0
145
0.0
146
1.0
147
0.09
 71
0.0
 72
0.0
 73
1
 74
1
 75
0
 76
0
 77
0
 78
4
170
0
171
2
172
0
173
0
174
0
175
0
176
0
177
0
178
0
270
2
271
1
272
1
273
2
274
2
275
0
280
0
281
0
282
0
283
1
284
4
285
0
286
0
287
3
288
0
340
11
341
20B
342
20B
343
20B
344
20B
  0
DIMSTYLE
105
21A
100
AcDbSymbolTableRecord
100
AcDbDimStyleTableRecord
  2
DIMSTYLE_2
 70
0
  3

  4

 40
1.0
 41
0.1875
 42
0.0625
 43
0.38
 44
0.18
 45
0.0
 46
0.0
 47
0.1
 48
0.1
140
0.1
141
0.09
142
0.0
143
25.4
144
1.0
145
0.0
146
1.0
147
0.09
 71
0.0
 72
0.0
 73
1
 74
1
 75
0
 76
0
 77
0
 78
4
170
0
171
2
172
0
173
0
174
0
175
0
176
0
177
0
178
0
270
2
271
1
272
1
273
2
274
2
275
0
280
0
281
0
282
0
283
1
284
4
285
0
286
0
287
3
288
0
340
11
341
20B
342
20B
343
20B
344
20B
  0
DIMSTYLE
105
21B
100
AcDbSymbolTableRecord
100
AcDbDimStyleTableRecord
  2
DIMSTYLE_3
 70
0
  3

  4

 40
1.0
 41
0.1875
 42
0.0625
 43
0.38
 44
0.18
 45
0.0
 46
0.0
 47
0.1
 48
0.1
140
0.1
141
0.09
142
0.0
143
25.4
144
1.0
145
0.0
146
1.0
147
0.09
 71
0.0
 72
0.0
 73
1
 74
1
 75
0
 76
0
 77
0
 78
4
170
0
171
2
172
0
173
0
174
0
175
0
176
0
177
0
178
0
270
2
271
1
272
1
273
2
274
2
275
0
280
0
281
0
282
0
283
1
284
4
285
0
286
0
287
3
288
0
340
11
341
20B
342
20B
343
20B
344
20B
  0
ENDTAB
  0
ENDSEC
  0
SECTION
  2
BLOCKS
  0
BLOCK
  5
20
100
AcDbEntity
  8
0
100
AcDbBlockBegin
  2
*Model_Space
 70
0
 10
0.0
 20
0.0
 30
0.0
  3
*Model_Space
  1

  0
ENDBLK
  5
21
100
AcDbEntity
  8
0
100
AcDbBlockEnd
  0
BLOCK
  5
1C
100
AcDbEntity
  8
0
100
AcDbBlockBegin
  2
*Paper_Space
 70
0
 10
0.0
 20
0.0
 30
0.0
  3
*Paper_Space
  1

  0
ENDBLK
  5
1D
100
AcDbEntity
  8
0
100
AcDbBlockEnd
  0
BLOCK
  5
21C
100
AcDbEntity
  8
SYMBOLS
100
AcDbBlockBegin
 62
2
  6
CONTINUOUS
  2
CL_BL5
 70
64
 10
11.9426968867
 20
3.89694994
  3
CL_BL5
  1

  0
MTEXT
  5
21D
100
AcDbEntity
  8
SYMBOLS
100
AcDbMText
 62
2
  6
CONTINUOUS
  7
TEXTSTYLE_5
 71
1
 72
1
 10
11.8576968867
 20
3.95694994
 30
0.0
 11
1.0
 21
0.0
 31
0.0
 44
0.9
  1
{\Fgdt;q}
 40
0.12
 41
0.17
  0
ENDBLK
  5
21E
100
AcDbEntity
  8
0
  6
BYBLOCK
 62
0
100
AcDbBlockEnd
  0
BLOCK
  5
21F
100
AcDbEntity
  8
SYMBOLS
100
AcDbBlockBegin
 62
2
  6
CONTINUOUS
  2
CL_BL4
 70
64
 10
10.7041406515
 20
5.2200819689
  3
CL_BL4
  1

  0
MTEXT
  5
220
100
AcDbEntity
  8
SYMBOLS
100
AcDbMText
 62
2
  6
CONTINUOUS
  7
TEXTSTYLE_5
 71
1
 72
1
 10
10.6191406515
 20
5.2800819689
 30
0.0
 11
1.0
 21
0.0
 31
0.0
 44
0.9
  1
{\Fgdt;q}
 40
0.12
 41
0.17
  0
ENDBLK
  5
221
100
AcDbEntity
  8
0
  6
BYBLOCK
 62
0
100
AcDbBlockEnd
  0
BLOCK
  5
222
100
AcDbEntity
  8
SYMBOLS
100
AcDbBlockBegin
 62
2
  6
CONTINUOUS
  2
CL_BL3
 70
64
 10
6.8873645584
 20
5.2071548234
  3
CL_BL3
  1

  0
MTEXT
  5
223
100
AcDbEntity
  8
SYMBOLS
100
AcDbMText
 62
2
  6
CONTINUOUS
  7
TEXTSTYLE_5
 71
1
 72
1
 10
6.8023645584
 20
5.2671548234
 30
0.0
 11
1.0
 21
0.0
 31
0.0
 44
0.9
  1
{\Fgdt;q}
 40
0.12
 41
0.17
  0
ENDBLK
  5
224
100
AcDbEntity
  8
0
  6
BYBLOCK
 62
0
100
AcDbBlockEnd
  0
BLOCK
  5
225
100
AcDbEntity
  8
SYMBOLS
100
AcDbBlockBegin
 62
2
  6
CONTINUOUS
  2
CL_BL2
 70
64
 10
3.4467648754
 20
3.8946511071
  3
CL_BL2
  1

  0
MTEXT
  5
226
100
AcDbEntity
  8
SYMBOLS
100
AcDbMText
 62
2
  6
CONTINUOUS
  7
TEXTSTYLE_5
 71
1
 72
1
 10
3.3617648754
 20
3.9546511071
 30
0.0
 11
1.0
 21
0.0
 31
0.0
 44
0.9
  1
{\Fgdt;q}
 40
0.12
 41
0.17
  0
ENDBLK
  5
227
100
AcDbEntity
  8
0
  6
BYBLOCK
 62
0
100
AcDbBlockEnd
  0
BLOCK
  5
228
100
AcDbEntity
  8
SYMBOLS
100
AcDbBlockBegin
 62
2
  6
CONTINUOUS
  2
CL_BL1
 70
64
 10
4.6859027248
 20
5.2072353974
  3
CL_BL1
  1

  0
MTEXT
  5
229
100
AcDbEntity
  8
SYMBOLS
100
AcDbMText
 62
2
  6
CONTINUOUS
  7
TEXTSTYLE_5
 71
1
 72
1
 10
4.6009027248
 20
5.2672353974
 30
0.0
 11
1.0
 21
0.0
 31
0.0
 44
0.9
  1
{\Fgdt;q}
 40
0.12
 41
0.17
  0
ENDBLK
  5
22A
100
AcDbEntity
  8
0
  6
BYBLOCK
 62
0
100
AcDbBlockEnd
  0
BLOCK
  5
22B
100
AcDbEntity
  8
0
100
AcDbBlockBegin
 62
2
  6
CONTINUOUS
  2
BANNER_LOGO_TITLEBLOCK_BL0
 70
64
 10
12.9086867042
 20
2.5403783405
  3
BANNER_LOGO_TITLEBLOCK_BL0
  1

  0
ELLIPSE
  5
22C
100
AcDbEntity
  8
0
100
AcDbEllipse
 62
2
  6
CONTINUOUS
 10
12.9046654608
 20
2.5403783405
 30
0.0
 11
-0.8250004575
 21
0.0
 31
0.0
 40
0.218572
 41
0.0
 42
6.2831853072
  0
ARC
  5
22D
100
AcDbEntity
  8
0
100
AcDbCircle
 62
2
  6
CONTINUOUS
 10
12.400005721
 20
2.5168763464
 40
0.0153945295
100
AcDbArc
 50
354.0454548824
 51
5.1878013979
  0
ARC
  5
22E
100
AcDbEntity
  8
0
100
AcDbCircle
 62
2
  6
CONTINUOUS
 10
12.3931760319
 20
2.5166878286
 40
0.0222174455
100
AcDbArc
 50
4.0793399388
 51
69.834329283
  0
LINE
  5
22F
100
AcDbEntity
  8
0
100
AcDbLine
 62
2
  6
CONTINUOUS
 10
12.4008351814
 20
2.5375433389
 11
12.3907841758
 21
2.5410923409
  0
LINE
  5
230
100
AcDbEntity
  8
0
100
AcDbLine
 62
2
  6
CONTINUOUS
 10
12.3907841758
 20
2.5410923409
 11
12.3990241804
 21
2.5458683435
  0
ARC
  5
231
100
AcDbEntity
  8
0
100
AcDbCircle
 62
2
  6
CONTINUOUS
 10
12.3771587979
 20
2.5826952352
 40
0.0428289026
100
AcDbArc
 50
300.6990502959
 51
319.0591802498
  0
ARC
  5
232
100
AcDbEntity
  8
0
100
AcDbCircle
 62
2
  6
CONTINUOUS
 10
12.3971873948
 20
2.5665668817
 40
0.0171568255
100
AcDbArc
 50
315.9145124245
 51
16.0049121282
  0
ARC
  5
233
100
AcDbEntity
  8
0
100
AcDbCircle
 62
2
  6
CONTINUOUS
 10
12.3922357827
 20
2.5632132173
 40
0.0229166529
100
AcDbArc
 50
20.6563876465
 51
62.3316896973
  0
ARC
  5
234
100
AcDbEntity
  8
0
100
AcDbCircle
 62
2
  6
CONTINUOUS
 10
12.371573659
 20
2.5302846524
 40
0.061747717
100
AcDbArc
 50
59.5385584989
 51
90.0050977555
  0
LINE
  5
235
100
AcDbEntity
  8
0
100
AcDbLine
 62
2
  6
CONTINUOUS
 10
12.3715681652
 20
2.5920323691
 11
12.2055050731
 21
2.5920323691
  0
ARC
  5
236
100
AcDbEntity
  8
0
100
AcDbCircle
 62
2
  6
CONTINUOUS
 10
12.2055050712
 20
2.5895573696
 40
0.0024749995
100
AcDbArc
 50
89.9999571957
 51
180.0000428043
  0
LINE
  5
237
100
AcDbEntity
  8
0
100
AcDbLine
 62
2
  6
CONTINUOUS
 10
12.2030300717
 20
2.5895573678
 11
12.2030300717
 21
2.5697573568
  0
ARC
  5
238
100
AcDbEntity
  8
0
100
AcDbCircle
 62
2
  6
CONTINUOUS
 10
12.2055050712
 20
2.5697573549
 40
0.0024749995
100
AcDbArc
 50
179.9999571957
 51
270.0000428043
  0
LINE
  5
239
100
AcDbEntity
  8
0
100
AcDbLine
 62
2
  6
CONTINUOUS
 10
12.2055050731
 20
2.5672823554
 11
12.2294470864
 21
2.5672823554
  0
ARC
  5
23A
100
AcDbEntity
  8
0
100
AcDbCircle
 62
2
  6
CONTINUOUS
 10
12.2294470882
 20
2.5648073559
 40
0.0024749995
100
AcDbArc
 50
359.9999571957
 51
90.0000428043
  0
LINE
  5
23B
100
AcDbEntity
  8
0
100
AcDbLine
 62
2
  6
CONTINUOUS
 10
12.2319220877
 20
2.564807354
 11
12.2319220877
 21
2.5184523283
  0
ARC
  5
23C
100
AcDbEntity
  8
0
100
AcDbCircle
 62
2
  6
CONTINUOUS
 10
12.2294470882
 20
2.5184523265
 40
0.0024749995
100
AcDbArc
 50
269.9999571957
 51
0.0000428043
  0
LINE
  5
23D
100
AcDbEntity
  8
0
100
AcDbLine
 62
2
  6
CONTINUOUS
 10
12.2294470864
 20
2.515977327
 11
12.2055050731
 21
2.515977327
  0
ARC
  5
23E
100
AcDbEntity
  8
0
100
AcDbCircle
 62
2
  6
CONTINUOUS
 10
12.2055050712
 20
2.5135023274
 40
0.0024749995
100
AcDbArc
 50
89.9999571957
 51
180.0000428043
  0
LINE
  5
23F
100
AcDbEntity
  8
0
100
AcDbLine
 62
2
  6
CONTINUOUS
 10
12.2030300717
 20
2.5135023256
 11
12.2030300717
 21
2.4937023146
  0
ARC
  5
240
100
AcDbEntity
  8
0
100
AcDbCircle
 62
2
  6
CONTINUOUS
 10
12.2055050712
 20
2.4937023128
 40
0.0024749995
100
AcDbArc
 50
179.9999571957
 51
270.0000428043
  0
LINE
  5
241
100
AcDbEntity
  8
0
100
AcDbLine
 62
2
  6
CONTINUOUS
 10
12.2055050731
 20
2.4912273132
 11
12.3819511709
 21
2.4912273132
  0
ARC
  5
242
100
AcDbEntity
  8
0
100
AcDbCircle
 62
2
  6
CONTINUOUS
 10
12.3792298263
 20
2.539634765
 40
0.048483885
100
AcDbArc
 50
273.21763719
 51
303.0749121182
  0
ARC
  5
243
100
AcDbEntity
  8
0
100
AcDbCircle
 62
2
  6
CONTINUOUS
 10
12.3940692204
 20
2.5168671561
 40
0.0213072145
100
AcDbArc
 50
303.0488228549
 51
355.7263138674
  0
LINE
  5
244
100
AcDbEntity
  8
0
100
AcDbLine
 62
2
  6
CONTINUOUS
 10
12.2949101227
 20
2.5499573458
 11
12.3362731456
 21
2.5499573458
  0
ARC
  5
245
100
AcDbEntity
  8
0
100
AcDbCircle
 62
2
  6
CONTINUOUS
 10
12.3362731456
 20
2.5586198506
 40
0.0086625048
100
AcDbArc
 50
270.0
 51
90.0
  0
LINE
  5
246
100
AcDbEntity
  8
0
100
AcDbLine
 62
2
  6
CONTINUOUS
 10
12.3362731456
 20
2.5672823554
 11
12.2949101227
 21
2.5672823554
  0
ARC
  5
247
100
AcDbEntity
  8
0
100
AcDbCircle
 62
2
  6
CONTINUOUS
 10
12.2949101208
 20
2.5648073559
 40
0.0024749995
100
AcDbArc
 50
89.9999571957
 51
180.0000428043
  0
LINE
  5
248
100
AcDbEntity
  8
0
100
AcDbLine
 62
2
  6
CONTINUOUS
 10
12.2924351213
 20
2.564807354
 11
12.2924351213
 21
2.5524323472
  0
ARC
  5
249
100
AcDbEntity
  8
0
100
AcDbCircle
 62
2
  6
CONTINUOUS
 10
12.2949101208
 20
2.5524323453
 40
0.0024749995
100
AcDbArc
 50
179.9999571957
 51
270.0000428043
  0
LINE
  5
24A
100
AcDbEntity
  8
0
100
AcDbLine
 62
2
  6
CONTINUOUS
 10
12.2924351213
 20
2.5184523283
 11
12.2924351213
 21
2.5308273352
  0
ARC
  5
24B
100
AcDbEntity
  8
0
100
AcDbCircle
 62
2
  6
CONTINUOUS
 10
12.2949101208
 20
2.530827337
 40
0.0024749995
100
AcDbArc
 50
89.9999571957
 51
180.0000428043
  0
LINE
  5
24C
100
AcDbEntity
  8
0
100
AcDbLine
 62
2
  6
CONTINUOUS
 10
12.2949101227
 20
2.5333023366
 11
12.3362731456
 21
2.5333023366
  0
ARC
  5
24D
100
AcDbEntity
  8
0
100
AcDbCircle
 62
2
  6
CONTINUOUS
 10
12.3362731456
 20
2.5246398318
 40
0.0086625048
100
AcDbArc
 50
270.0
 51
90.0
  0
LINE
  5
24E
100
AcDbEntity
  8
0
100
AcDbLine
 62
2
  6
CONTINUOUS
 10
12.3362731456
 20
2.515977327
 11
12.2949101227
 21
2.515977327
  0
ARC
  5
24F
100
AcDbEntity
  8
0
100
AcDbCircle
 62
2
  6
CONTINUOUS
 10
12.2949101208
 20
2.5184523265
 40
0.0024749995
100
AcDbArc
 50
179.9999571957
 51
270.0000428043
  0
ARC
  5
250
100
AcDbEntity
  8
0
100
AcDbCircle
 62
2
  6
CONTINUOUS
 10
13.5806801742
 20
2.5212486481
 40
0.044722495
100
AcDbArc
 50
195.531588407
 51
204.7624440448
  0
LINE
  5
251
100
AcDbEntity
  8
0
100
AcDbLine
 62
2
  6
CONTINUOUS
 10
13.5375908118
 20
2.5092733232
 11
13.5357868108
 21
2.5153423266
  0
ARC
  5
252
100
AcDbEntity
  8
0
100
AcDbCircle
 62
2
  6
CONTINUOUS
 10
13.4974076135
 20
2.5055452462
 40
0.0396099176
100
AcDbArc
 50
14.3201081283
 51
22.4984722084
  0
ARC
  5
253
100
AcDbEntity
  8
0
100
AcDbCircle
 62
2
  6
CONTINUOUS
 10
13.5201739219
 20
2.5145168728
 40
0.0151491919
100
AcDbArc
 50
24.098260853
 51
63.0369451818
  0
ARC
  5
254
100
AcDbEntity
  8
0
100
AcDbCircle
 62
2
  6
CONTINUOUS
 10
13.5161192671
 20
2.5062372524
 40
0.0243676582
100
AcDbArc
 50
63.3666028271
 51
90.3937697637
  0
LINE
  5
255
100
AcDbEntity
  8
0
100
AcDbLine
 62
2
  6
CONTINUOUS
 10
13.5159517998
 20
2.5306043351
 11
13.4883447845
 21
2.5306043351
  0
ARC
  5
256
100
AcDbEntity
  8
0
100
AcDbCircle
 62
2
  6
CONTINUOUS
 10
13.4883447827
 20
2.5281293355
 40
0.0024749995
100
AcDbArc
 50
89.9999571957
 51
180.0000428043
  0
LINE
  5
257
100
AcDbEntity
  8
0
100
AcDbLine
 62
2
  6
CONTINUOUS
 10
13.4858697831
 20
2.5281293337
 11
13.4858697831
 21
2.5184303283
  0
ARC
  5
258
100
AcDbEntity
  8
0
100
AcDbCircle
 62
2
  6
CONTINUOUS
 10
13.4883447827
 20
2.5184303265
 40
0.0024749995
100
AcDbArc
 50
179.9999571957
 51
270.0000428043
  0
LINE
  5
259
100
AcDbEntity
  8
0
100
AcDbLine
 62
2
  6
CONTINUOUS
 10
13.4883447845
 20
2.5159553269
 11
13.5130037982
 21
2.5159553269
  0
ARC
  5
25A
100
AcDbEntity
  8
0
100
AcDbCircle
 62
2
  6
CONTINUOUS
 10
13.5130038
 20
2.5134803274
 40
0.0024749995
100
AcDbArc
 50
359.9999571957
 51
90.0000428043
  0
LINE
  5
25B
100
AcDbEntity
  8
0
100
AcDbLine
 62
2
  6
CONTINUOUS
 10
13.5154787995
 20
2.5134803256
 11
13.5154787995
 21
2.4937023146
  0
ARC
  5
25C
100
AcDbEntity
  8
0
100
AcDbCircle
 62
2
  6
CONTINUOUS
 10
13.5130038
 20
2.4937023128
 40
0.0024749995
100
AcDbArc
 50
269.9999571957
 51
0.0000428043
  0
LINE
  5
25D
100
AcDbEntity
  8
0
100
AcDbLine
 62
2
  6
CONTINUOUS
 10
13.5130037982
 20
2.4912273132
 11
13.3994327352
 21
2.4912273132
  0
ARC
  5
25E
100
AcDbEntity
  8
0
100
AcDbCircle
 62
2
  6
CONTINUOUS
 10
13.3994327333
 20
2.4937023128
 40
0.0024749995
100
AcDbArc
 50
179.9999571957
 51
270.0000428043
  0
LINE
  5
25F
100
AcDbEntity
  8
0
100
AcDbLine
 62
2
  6
CONTINUOUS
 10
13.3969577338
 20
2.4937023146
 11
13.3969577338
 21
2.5135023256
  0
ARC
  5
260
100
AcDbEntity
  8
0
100
AcDbCircle
 62
2
  6
CONTINUOUS
 10
13.3994327333
 20
2.5135023274
 40
0.0024749995
100
AcDbArc
 50
89.9999571957
 51
180.0000428043
  0
LINE
  5
261
100
AcDbEntity
  8
0
100
AcDbLine
 62
2
  6
CONTINUOUS
 10
13.3994327352
 20
2.515977327
 11
13.4221787478
 21
2.515977327
  0
ARC
  5
262
100
AcDbEntity
  8
0
100
AcDbCircle
 62
2
  6
CONTINUOUS
 10
13.4221787497
 20
2.5184523265
 40
0.0024749995
100
AcDbArc
 50
269.9999571957
 51
0.0000428042
  0
LINE
  5
263
100
AcDbEntity
  8
0
100
AcDbLine
 62
2
  6
CONTINUOUS
 10
13.4246537492
 20
2.5184523283
 11
13.4246537492
 21
2.564807354
  0
ARC
  5
264
100
AcDbEntity
  8
0
100
AcDbCircle
 62
2
  6
CONTINUOUS
 10
13.4221787497
 20
2.5648073559
 40
0.0024749995
100
AcDbArc
 50
359.9999571957
 51
90.0000428043
  0
LINE
  5
265
100
AcDbEntity
  8
0
100
AcDbLine
 62
2
  6
CONTINUOUS
 10
13.4221787478
 20
2.5672823554
 11
13.3994327352
 21
2.5672823554
  0
ARC
  5
266
100
AcDbEntity
  8
0
100
AcDbCircle
 62
2
  6
CONTINUOUS
 10
13.3994327333
 20
2.5697573549
 40
0.0024749995
100
AcDbArc
 50
179.9999571957
 51
270.0000428043
  0
LINE
  5
267
100
AcDbEntity
  8
0
100
AcDbLine
 62
2
  6
CONTINUOUS
 10
13.3969577338
 20
2.5697573568
 11
13.3969577338
 21
2.5895573678
  0
ARC
  5
268
100
AcDbEntity
  8
0
100
AcDbCircle
 62
2
  6
CONTINUOUS
 10
13.3994327333
 20
2.5895573696
 40
0.0024749995
100
AcDbArc
 50
89.9999571957
 51
180.0000428043
  0
LINE
  5
269
100
AcDbEntity
  8
0
100
AcDbLine
 62
2
  6
CONTINUOUS
 10
13.3994327352
 20
2.5920323691
 11
13.5490138181
 21
2.5920323691
  0
ARC
  5
26A
100
AcDbEntity
  8
0
100
AcDbCircle
 62
2
  6
CONTINUOUS
 10
13.5463505148
 20
2.4094934586
 40
0.1825583387
100
AcDbArc
 50
79.8618509324
 51
89.1640948679
  0
ARC
  5
26B
100
AcDbEntity
  8
0
100
AcDbCircle
 62
2
  6
CONTINUOUS
 10
13.5726548052
 20
2.5503169747
 40
0.039319019
100
AcDbArc
 50
59.1202086415
 51
81.4730239328
  0
ARC
  5
26C
100
AcDbEntity
  8
0
100
AcDbCircle
 62
2
  6
CONTINUOUS
 10
13.5783142014
 20
2.5566516438
 40
0.0310192946
100
AcDbArc
 50
34.7540871
 51
62.0879016178
  0
ARC
  5
26D
100
AcDbEntity
  8
0
100
AcDbCircle
 62
2
  6
CONTINUOUS
 10
13.5900029525
 20
2.565201245
 40
0.0165459396
100
AcDbArc
 50
1.548452892
 51
33.5033152417
  0
ARC
  5
26E
100
AcDbEntity
  8
0
100
AcDbCircle
 62
2
  6
CONTINUOUS
 10
13.5932995477
 20
2.5653696972
 40
0.0132462337
100
AcDbArc
 50
331.1510006998
 51
1.205404301
  0
ARC
  5
26F
100
AcDbEntity
  8
0
100
AcDbCircle
 62
2
  6
CONTINUOUS
 10
13.5822888914
 20
2.5720482849
 40
0.0261183659
100
AcDbArc
 50
305.6373831893
 51
329.9727629745
  0
ARC
  5
270
100
AcDbEntity
  8
0
100
AcDbCircle
 62
2
  6
CONTINUOUS
 10
13.5519569538
 20
2.6152551345
 40
0.0789082104
100
AcDbArc
 50
292.906155071
 51
305.2574666259
  0
ARC
  5
271
100
AcDbEntity
  8
0
100
AcDbCircle
 62
2
  6
CONTINUOUS
 10
13.5282557878
 20
2.4386010294
 40
0.117346916
100
AcDbArc
 50
58.614769177
 51
62.3737227606
  0
ARC
  5
272
100
AcDbEntity
  8
0
100
AcDbCircle
 62
2
  6
CONTINUOUS
 10
13.5761387404
 20
2.5167282896
 40
0.0257145923
100
AcDbArc
 50
39.3804255939
 51
59.0361096173
  0
ARC
  5
273
100
AcDbEntity
  8
0
100
AcDbCircle
 62
2
  6
CONTINUOUS
 10
13.5750183849
 20
2.5166552064
 40
0.0266349791
100
AcDbArc
 50
20.3630922153
 51
37.9727053099
  0
ARC
  5
274
100
AcDbEntity
  8
0
100
AcDbCircle
 62
2
  6
CONTINUOUS
 10
13.5571178432
 20
2.509473798
 40
0.0459185159
100
AcDbArc
 50
15.6740290068
 51
20.9917271228
  0
ARC
  5
275
100
AcDbEntity
  8
0
100
AcDbCircle
 62
2
  6
CONTINUOUS
 10
13.6156881783
 20
2.525116781
 40
0.0147197649
100
AcDbArc
 50
192.7054516565
 51
206.0594861022
  0
ARC
  5
276
100
AcDbEntity
  8
0
100
AcDbCircle
 62
2
  6
CONTINUOUS
 10
13.6071938412
 20
2.5209082945
 40
0.0052403997
100
AcDbArc
 50
205.5232099488
 51
227.5054868079
  0
ARC
  5
277
100
AcDbEntity
  8
0
100
AcDbCircle
 62
2
  6
CONTINUOUS
 10
13.6054655419
 20
2.5190929218
 40
0.0027347709
100
AcDbArc
 50
228.5117626737
 51
266.1485845754
  0
LINE
  5
278
100
AcDbEntity
  8
0
100
AcDbLine
 62
2
  6
CONTINUOUS
 10
13.6052818493
 20
2.5163643272
 11
13.60639085
 21
2.5163643272
  0
ARC
  5
279
100
AcDbEntity
  8
0
100
AcDbCircle
 62
2
  6
CONTINUOUS
 10
13.6063292954
 20
2.5296129864
 40
0.0132488022
100
AcDbArc
 50
270.266200055
 51
281.2404888597
  0
ARC
  5
27A
100
AcDbEntity
  8
0
100
AcDbCircle
 62
2
  6
CONTINUOUS
 10
13.6075235364
 20
2.5238762928
 40
0.0073895522
100
AcDbArc
 50
280.8288201977
 51
305.0837508495
  0
ARC
  5
27B
100
AcDbEntity
  8
0
100
AcDbCircle
 62
2
  6
CONTINUOUS
 10
13.607924718
 20
2.5230254464
 40
0.0064647042
100
AcDbArc
 50
306.5086174083
 51
340.2162360092
  0
ARC
  5
27C
100
AcDbEntity
  8
0
100
AcDbCircle
 62
2
  6
CONTINUOUS
 10
13.6027235414
 20
2.524769508
 40
0.0119498009
100
AcDbArc
 50
340.7883861657
 51
1.1691452593
  0
LINE
  5
27D
100
AcDbEntity
  8
0
100
AcDbLine
 62
2
  6
CONTINUOUS
 10
13.6146708546
 20
2.525013332
 11
13.6146708546
 21
2.5276393334
  0
ARC
  5
27E
100
AcDbEntity
  8
0
100
AcDbCircle
 62
2
  6
CONTINUOUS
 10
13.6171458541
 20
2.5276393353
 40
0.0024749995
100
AcDbArc
 50
89.9999571957
 51
180.0000428043
  0
LINE
  5
27F
100
AcDbEntity
  8
0
100
AcDbLine
 62
2
  6
CONTINUOUS
 10
13.6171458559
 20
2.5301143348
 11
13.6292558626
 21
2.5301143348
  0
ARC
  5
280
100
AcDbEntity
  8
0
100
AcDbCircle
 62
2
  6
CONTINUOUS
 10
13.6292558645
 20
2.5276393353
 40
0.0024749995
100
AcDbArc
 50
359.9999571957
 51
90.0000428043
  0
LINE
  5
281
100
AcDbEntity
  8
0
100
AcDbLine
 62
2
  6
CONTINUOUS
 10
13.631730864
 20
2.5276393334
 11
13.631730864
 21
2.516087327
  0
ARC
  5
282
100
AcDbEntity
  8
0
100
AcDbCircle
 62
2
  6
CONTINUOUS
 10
13.6141751675
 20
2.5161916447
 40
0.0175560065
100
AcDbArc
 50
332.2279060967
 51
359.6595469939
  0
ARC
  5
283
100
AcDbEntity
  8
0
100
AcDbCircle
 62
2
  6
CONTINUOUS
 10
13.6048681567
 20
2.5210861501
 40
0.0280715479
100
AcDbArc
 50
308.5071794988
 51
332.2400656899
  0
ARC
  5
284
100
AcDbEntity
  8
0
100
AcDbCircle
 62
2
  6
CONTINUOUS
 10
13.5978759713
 20
2.5286873679
 40
0.0383802683
100
AcDbArc
 50
288.7656836787
 51
309.6104317088
  0
ARC
  5
285
100
AcDbEntity
  8
0
100
AcDbCircle
 62
2
  6
CONTINUOUS
 10
13.6036139387
 20
2.5111006186
 40
0.0198837666
100
AcDbArc
 50
271.8586572978
 51
289.4131338543
  0
LINE
  5
286
100
AcDbEntity
  8
0
100
AcDbLine
 62
2
  6
CONTINUOUS
 10
13.6042588488
 20
2.4912273132
 11
13.5568948225
 21
2.4912273132
  0
ARC
  5
287
100
AcDbEntity
  8
0
100
AcDbCircle
 62
2
  6
CONTINUOUS
 10
13.5577001432
 20
2.5085494649
 40
0.0173408616
100
AcDbArc
 50
232.4713476722
 51
267.338189944
  0
ARC
  5
288
100
AcDbEntity
  8
0
100
AcDbCircle
 62
2
  6
CONTINUOUS
 10
13.5607987082
 20
2.5143997688
 40
0.0238935861
100
AcDbArc
 50
209.8247607259
 51
235.1255079367
  0
ARC
  5
289
100
AcDbEntity
  8
0
100
AcDbCircle
 62
2
  6
CONTINUOUS
 10
13.5295131508
 20
2.5629115009
 40
0.0110815393
100
AcDbArc
 50
306.758405961
 51
320.4502234234
  0
ARC
  5
28A
100
AcDbEntity
  8
0
100
AcDbCircle
 62
2
  6
CONTINUOUS
 10
13.5238839599
 20
2.5706523294
 40
0.0206523367
100
AcDbArc
 50
289.6883413472
 51
306.4184925496
  0
ARC
  5
28B
100
AcDbEntity
  8
0
100
AcDbCircle
 62
2
  6
CONTINUOUS
 10
13.5219564542
 20
2.5750459767
 40
0.0254407115
100
AcDbArc
 50
270.7327484175
 51
290.441894219
  0
LINE
  5
28C
100
AcDbEntity
  8
0
100
AcDbLine
 62
2
  6
CONTINUOUS
 10
13.5222818033
 20
2.5496073456
 11
13.4883447845
 21
2.5496073456
  0
ARC
  5
28D
100
AcDbEntity
  8
0
100
AcDbCircle
 62
2
  6
CONTINUOUS
 10
13.4883447827
 20
2.5520823451
 40
0.0024749995
100
AcDbArc
 50
179.9999571957
 51
270.0000428043
  0
LINE
  5
28E
100
AcDbEntity
  8
0
100
AcDbLine
 62
2
  6
CONTINUOUS
 10
13.4858697831
 20
2.552082347
 11
13.4858697831
 21
2.564807354
  0
ARC
  5
28F
100
AcDbEntity
  8
0
100
AcDbCircle
 62
2
  6
CONTINUOUS
 10
13.4883447827
 20
2.5648073559
 40
0.0024749995
100
AcDbArc
 50
89.9999571957
 51
180.0000428043
  0
LINE
  5
290
100
AcDbEntity
  8
0
100
AcDbLine
 62
2
  6
CONTINUOUS
 10
13.4883447845
 20
2.5672823554
 11
13.5251458049
 21
2.5672823554
  0
ARC
  5
291
100
AcDbEntity
  8
0
100
AcDbCircle
 62
2
  6
CONTINUOUS
 10
13.5236009174
 20
2.5388278764
 40
0.0284963867
100
AcDbArc
 50
70.3834917948
 51
86.8922743861
  0
ARC
  5
292
100
AcDbEntity
  8
0
100
AcDbCircle
 62
2
  6
CONTINUOUS
 10
13.5284605274
 20
2.5518696094
 40
0.0145814632
100
AcDbArc
 50
54.6746025112
 51
71.1660573124
  0
ARC
  5
293
100
AcDbEntity
  8
0
100
AcDbCircle
 62
2
  6
CONTINUOUS
 10
13.5335900184
 20
2.5587235346
 40
0.0060275915
100
AcDbArc
 50
20.9055592135
 51
56.7851676243
  0
ARC
  5
294
100
AcDbEntity
  8
0
100
AcDbCircle
 62
2
  6
CONTINUOUS
 10
13.5348905773
 20
2.5593838168
 40
0.0045795888
100
AcDbArc
 50
355.6235353944
 51
18.9942678268
  0
ARC
  5
295
100
AcDbEntity
  8
0
100
AcDbCircle
 62
2
  6
CONTINUOUS
 10
13.533683767
 20
2.559677593
 40
0.0058087709
100
AcDbArc
 50
318.8515287446
 51
353.6422345323
  0
LINE
  5
296
100
AcDbEntity
  8
0
100
AcDbLine
 62
2
  6
CONTINUOUS
 10
12.672340332
 20
2.5920323691
 11
12.7727983877
 21
2.5920323691
  0
ARC
  5
297
100
AcDbEntity
  8
0
100
AcDbCircle
 62
2
  6
CONTINUOUS
 10
12.7727985224
 20
2.5895582013
 40
0.0024741678
100
AcDbArc
 50
46.3477981899
 51
90.0031206038
  0
LINE
  5
298
100
AcDbEntity
  8
0
100
AcDbLine
 62
2
  6
CONTINUOUS
 10
12.7745063886
 20
2.5913483688
 11
12.8345394219
 21
2.534068337
  0
ARC
  5
299
100
AcDbEntity
  8
0
100
AcDbCircle
 62
2
  6
CONTINUOUS
 10
12.8362481229
 20
2.5358592748
 40
0.0024753014
100
AcDbArc
 50
226.3461263059
 51
0.0014637321
  0
LINE
  5
29A
100
AcDbEntity
  8
0
100
AcDbLine
 62
2
  6
CONTINUOUS
 10
12.8387234242
 20
2.535859338
 11
12.8387234242
 21
2.564807354
  0
ARC
  5
29B
100
AcDbEntity
  8
0
100
AcDbCircle
 62
2
  6
CONTINUOUS
 10
12.8362484247
 20
2.5648073559
 40
0.0024749995
100
AcDbArc
 50
359.9999571957
 51
90.0000428043
  0
LINE
  5
29C
100
AcDbEntity
  8
0
100
AcDbLine
 62
2
  6
CONTINUOUS
 10
12.8362484229
 20
2.5672823554
 11
12.8174724125
 21
2.5672823554
  0
ARC
  5
29D
100
AcDbEntity
  8
0
100
AcDbCircle
 62
2
  6
CONTINUOUS
 10
12.8174724106
 20
2.5697573549
 40
0.0024749995
100
AcDbArc
 50
179.9999571957
 51
270.0000428043
  0
LINE
  5
29E
100
AcDbEntity
  8
0
100
AcDbLine
 62
2
  6
CONTINUOUS
 10
12.8149974111
 20
2.5697573568
 11
12.8149974111
 21
2.5895573678
  0
ARC
  5
29F
100
AcDbEntity
  8
0
100
AcDbCircle
 62
2
  6
CONTINUOUS
 10
12.8174724106
 20
2.5895573696
 40
0.0024749995
100
AcDbArc
 50
89.9999571957
 51
180.0000428043
  0
LINE
  5
2A0
100
AcDbEntity
  8
0
100
AcDbLine
 62
2
  6
CONTINUOUS
 10
12.8174724125
 20
2.5920323691
 11
12.8914734535
 21
2.5920323691
  0
ARC
  5
2A1
100
AcDbEntity
  8
0
100
AcDbCircle
 62
2
  6
CONTINUOUS
 10
12.8914734553
 20
2.5895573696
 40
0.0024749995
100
AcDbArc
 50
359.9999571957
 51
90.0000428043
  0
LINE
  5
2A2
100
AcDbEntity
  8
0
100
AcDbLine
 62
2
  6
CONTINUOUS
 10
12.8939484549
 20
2.5895573678
 11
12.8939484549
 21
2.5697573568
  0
ARC
  5
2A3
100
AcDbEntity
  8
0
100
AcDbCircle
 62
2
  6
CONTINUOUS
 10
12.8914734553
 20
2.5697573549
 40
0.0024749995
100
AcDbArc
 50
269.9999571957
 51
0.0000428043
  0
LINE
  5
2A4
100
AcDbEntity
  8
0
100
AcDbLine
 62
2
  6
CONTINUOUS
 10
12.8914734535
 20
2.5672823554
 11
12.8735404436
 21
2.5672823554
  0
ARC
  5
2A5
100
AcDbEntity
  8
0
100
AcDbCircle
 62
2
  6
CONTINUOUS
 10
12.8735404417
 20
2.5648073559
 40
0.0024749995
100
AcDbArc
 50
89.9999571957
 51
180.0000428043
  0
LINE
  5
2A6
100
AcDbEntity
  8
0
100
AcDbLine
 62
2
  6
CONTINUOUS
 10
12.8710654422
 20
2.564807354
 11
12.8710654422
 21
2.4937023146
  0
ARC
  5
2A7
100
AcDbEntity
  8
0
100
AcDbCircle
 62
2
  6
CONTINUOUS
 10
12.8685904427
 20
2.4937023128
 40
0.0024749995
100
AcDbArc
 50
269.9999571957
 51
0.0000428043
  0
LINE
  5
2A8
100
AcDbEntity
  8
0
100
AcDbLine
 62
2
  6
CONTINUOUS
 10
12.8685904408
 20
2.4912273132
 11
12.7943853997
 21
2.4912273132
  0
ARC
  5
2A9
100
AcDbEntity
  8
0
100
AcDbCircle
 62
2
  6
CONTINUOUS
 10
12.7943847649
 20
2.4937027294
 40
0.0024754162
100
AcDbArc
 50
226.3593695813
 51
270.0146919953
  0
LINE
  5
2AA
100
AcDbEntity
  8
0
100
AcDbLine
 62
2
  6
CONTINUOUS
 10
12.7926763987
 20
2.4919113136
 11
12.7293963636
 21
2.5522893471
  0
ARC
  5
2AB
100
AcDbEntity
  8
0
100
AcDbCircle
 62
2
  6
CONTINUOUS
 10
12.7276876627
 20
2.5504984093
 40
0.0024753014
100
AcDbArc
 50
46.3461263059
 51
180.0014637321
  0
LINE
  5
2AC
100
AcDbEntity
  8
0
100
AcDbLine
 62
2
  6
CONTINUOUS
 10
12.7252123613
 20
2.5504983461
 11
12.7252123613
 21
2.5184523283
  0
ARC
  5
2AD
100
AcDbEntity
  8
0
100
AcDbCircle
 62
2
  6
CONTINUOUS
 10
12.7276873608
 20
2.5184523265
 40
0.0024749995
100
AcDbArc
 50
179.9999571957
 51
270.0000428043
  0
LINE
  5
2AE
100
AcDbEntity
  8
0
100
AcDbLine
 62
2
  6
CONTINUOUS
 10
12.7276873627
 20
2.515977327
 11
12.7480043739
 21
2.515977327
  0
ARC
  5
2AF
100
AcDbEntity
  8
0
100
AcDbCircle
 62
2
  6
CONTINUOUS
 10
12.7480043758
 20
2.5135023274
 40
0.0024749995
100
AcDbArc
 50
359.9999571957
 51
90.0000428043
  0
LINE
  5
2B0
100
AcDbEntity
  8
0
100
AcDbLine
 62
2
  6
CONTINUOUS
 10
12.7504793753
 20
2.5135023256
 11
12.7504793753
 21
2.4937023146
  0
ARC
  5
2B1
100
AcDbEntity
  8
0
100
AcDbCircle
 62
2
  6
CONTINUOUS
 10
12.7480043758
 20
2.4937023128
 40
0.0024749995
100
AcDbArc
 50
269.9999571957
 51
0.0000428043
  0
LINE
  5
2B2
100
AcDbEntity
  8
0
100
AcDbLine
 62
2
  6
CONTINUOUS
 10
12.7480043739
 20
2.4912273132
 11
12.672340332
 21
2.4912273132
  0
ARC
  5
2B3
100
AcDbEntity
  8
0
100
AcDbCircle
 62
2
  6
CONTINUOUS
 10
12.6723403301
 20
2.4937023128
 40
0.0024749995
100
AcDbArc
 50
179.9999571957
 51
270.0000428043
  0
LINE
  5
2B4
100
AcDbEntity
  8
0
100
AcDbLine
 62
2
  6
CONTINUOUS
 10
12.6698653306
 20
2.4937023146
 11
12.6698653306
 21
2.5135023256
  0
ARC
  5
2B5
100
AcDbEntity
  8
0
100
AcDbCircle
 62
2
  6
CONTINUOUS
 10
12.6723403301
 20
2.5135023274
 40
0.0024749995
100
AcDbArc
 50
89.9999571957
 51
180.0000428043
  0
LINE
  5
2B6
100
AcDbEntity
  8
0
100
AcDbLine
 62
2
  6
CONTINUOUS
 10
12.672340332
 20
2.515977327
 11
12.6909873423
 21
2.515977327
  0
ARC
  5
2B7
100
AcDbEntity
  8
0
100
AcDbCircle
 62
2
  6
CONTINUOUS
 10
12.6909873442
 20
2.5184523265
 40
0.0024749995
100
AcDbArc
 50
269.9999571957
 51
0.0000428043
  0
LINE
  5
2B8
100
AcDbEntity
  8
0
100
AcDbLine
 62
2
  6
CONTINUOUS
 10
12.6934623437
 20
2.5184523283
 11
12.6934623437
 21
2.564807354
  0
ARC
  5
2B9
100
AcDbEntity
  8
0
100
AcDbCircle
 62
2
  6
CONTINUOUS
 10
12.6909873442
 20
2.5648073559
 40
0.0024749995
100
AcDbArc
 50
359.9999571957
 51
90.0000428043
  0
LINE
  5
2BA
100
AcDbEntity
  8
0
100
AcDbLine
 62
2
  6
CONTINUOUS
 10
12.6909873423
 20
2.5672823554
 11
12.672340332
 21
2.5672823554
  0
ARC
  5
2BB
100
AcDbEntity
  8
0
100
AcDbCircle
 62
2
  6
CONTINUOUS
 10
12.6723403301
 20
2.5697573549
 40
0.0024749995
100
AcDbArc
 50
179.9999571957
 51
270.0000428043
  0
LINE
  5
2BC
100
AcDbEntity
  8
0
100
AcDbLine
 62
2
  6
CONTINUOUS
 10
12.6698653306
 20
2.5697573568
 11
12.6698653306
 21
2.5895573678
  0
ARC
  5
2BD
100
AcDbEntity
  8
0
100
AcDbCircle
 62
2
  6
CONTINUOUS
 10
12.6723403301
 20
2.5895573696
 40
0.0024749995
100
AcDbArc
 50
89.9999571957
 51
180.0000428043
  0
LINE
  5
2BE
100
AcDbEntity
  8
0
100
AcDbLine
 62
2
  6
CONTINUOUS
 10
12.5246402501
 20
2.5655893545
 11
12.5175232461
 21
2.5543723483
  0
ARC
  5
2BF
100
AcDbEntity
  8
0
100
AcDbCircle
 62
2
  6
CONTINUOUS
 10
12.519613138
 20
2.5530463862
 40
0.0024750401
100
AcDbArc
 50
147.6063258012
 51
270.0025305754
  0
LINE
  5
2C0
100
AcDbEntity
  8
0
100
AcDbLine
 62
2
  6
CONTINUOUS
 10
12.5196132473
 20
2.5505713461
 11
12.5401702587
 21
2.5505713461
  0
ARC
  5
2C1
100
AcDbEntity
  8
0
100
AcDbCircle
 62
2
  6
CONTINUOUS
 10
12.5401702375
 20
2.5530465533
 40
0.0024752071
100
AcDbArc
 50
270.0004896793
 51
32.9089806818
  0
LINE
  5
2C2
100
AcDbEntity
  8
0
100
AcDbLine
 62
2
  6
CONTINUOUS
 10
12.5422482598
 20
2.5543913483
 11
12.5349892558
 21
2.5656073545
  0
ARC
  5
2C3
100
AcDbEntity
  8
0
100
AcDbCircle
 62
2
  6
CONTINUOUS
 10
12.532910715
 20
2.564262895
 40
0.0024754602
100
AcDbArc
 50
32.8959418573
 51
89.9875097202
  0
LINE
  5
2C4
100
AcDbEntity
  8
0
100
AcDbLine
 62
2
  6
CONTINUOUS
 10
12.5329112547
 20
2.5667383551
 11
12.5267302512
 21
2.5667383551
  0
ARC
  5
2C5
100
AcDbEntity
  8
0
100
AcDbCircle
 62
2
  6
CONTINUOUS
 10
12.5267301809
 20
2.5642631548
 40
0.0024752003
100
AcDbArc
 50
89.998372645
 51
147.602165307
  0
LINE
  5
2C6
100
AcDbEntity
  8
0
100
AcDbLine
 62
2
  6
CONTINUOUS
 10
12.548053263
 20
2.5284903339
 11
12.5536792662
 21
2.5197973291
  0
ARC
  5
2C7
100
AcDbEntity
  8
0
100
AcDbCircle
 62
2
  6
CONTINUOUS
 10
12.5516012439
 20
2.5184525341
 40
0.0024752071
100
AcDbArc
 50
270.0004896794
 51
32.9089806818
  0
LINE
  5
2C8
100
AcDbEntity
  8
0
100
AcDbLine
 62
2
  6
CONTINUOUS
 10
12.551601265
 20
2.515977327
 11
12.537150257
 21
2.515977327
  0
ARC
  5
2C9
100
AcDbEntity
  8
0
100
AcDbCircle
 62
2
  6
CONTINUOUS
 10
12.5371502552
 20
2.5135023274
 40
0.0024749995
100
AcDbArc
 50
89.9999571957
 51
180.0000428043
  0
LINE
  5
2CA
100
AcDbEntity
  8
0
100
AcDbLine
 62
2
  6
CONTINUOUS
 10
12.5346752556
 20
2.5135023256
 11
12.5346752556
 21
2.4937023146
  0
ARC
  5
2CB
100
AcDbEntity
  8
0
100
AcDbCircle
 62
2
  6
CONTINUOUS
 10
12.5371502552
 20
2.4937023128
 40
0.0024749995
100
AcDbArc
 50
179.9999571957
 51
270.0000428043
  0
LINE
  5
2CC
100
AcDbEntity
  8
0
100
AcDbLine
 62
2
  6
CONTINUOUS
 10
12.537150257
 20
2.4912273132
 11
12.6424313154
 21
2.4912273132
  0
ARC
  5
2CD
100
AcDbEntity
  8
0
100
AcDbCircle
 62
2
  6
CONTINUOUS
 10
12.6424313172
 20
2.4937023128
 40
0.0024749995
100
AcDbArc
 50
269.9999571957
 51
0.0000428043
  0
LINE
  5
2CE
100
AcDbEntity
  8
0
100
AcDbLine
 62
2
  6
CONTINUOUS
 10
12.6449063168
 20
2.4937023146
 11
12.6449063168
 21
2.5135023256
  0
ARC
  5
2CF
100
AcDbEntity
  8
0
100
AcDbCircle
 62
2
  6
CONTINUOUS
 10
12.6424313172
 20
2.5135023274
 40
0.0024749995
100
AcDbArc
 50
359.9999571957
 51
90.0000428043
  0
LINE
  5
2D0
100
AcDbEntity
  8
0
100
AcDbLine
 62
2
  6
CONTINUOUS
 10
12.6424313154
 20
2.515977327
 11
12.6224153043
 21
2.515977327
  0
ARC
  5
2D1
100
AcDbEntity
  8
0
100
AcDbCircle
 62
2
  6
CONTINUOUS
 10
12.6224154248
 20
2.518451368
 40
0.002474041
100
AcDbArc
 50
212.9056413127
 51
269.9972091756
  0
LINE
  5
2D2
100
AcDbEntity
  8
0
100
AcDbLine
 62
2
  6
CONTINUOUS
 10
12.6203383031
 20
2.5171073276
 11
12.5725822767
 21
2.5909023685
  0
ARC
  5
2D3
100
AcDbEntity
  8
0
100
AcDbCircle
 62
2
  6
CONTINUOUS
 10
12.570504655
 20
2.589557409
 40
0.0024749602
100
AcDbArc
 50
32.9172174468
 51
90.0087853097
  0
LINE
  5
2D4
100
AcDbEntity
  8
0
100
AcDbLine
 62
2
  6
CONTINUOUS
 10
12.5705042755
 20
2.5920323691
 11
12.5133292438
 21
2.5920323691
  0
ARC
  5
2D5
100
AcDbEntity
  8
0
100
AcDbCircle
 62
2
  6
CONTINUOUS
 10
12.5133291735
 20
2.5895571688
 40
0.0024752003
100
AcDbArc
 50
89.9983726451
 51
147.602165307
  0
LINE
  5
2D6
100
AcDbEntity
  8
0
100
AcDbLine
 62
2
  6
CONTINUOUS
 10
12.5112392426
 20
2.5908833685
 11
12.4644392167
 21
2.5171263276
  0
ARC
  5
2D7
100
AcDbEntity
  8
0
100
AcDbCircle
 62
2
  6
CONTINUOUS
 10
12.4623492858
 20
2.5184525273
 40
0.0024752003
100
AcDbArc
 50
269.9983726451
 51
327.602165307
  0
LINE
  5
2D8
100
AcDbEntity
  8
0
100
AcDbLine
 62
2
  6
CONTINUOUS
 10
12.4623492155
 20
2.515977327
 11
12.4394882028
 21
2.515977327
  0
ARC
  5
2D9
100
AcDbEntity
  8
0
100
AcDbCircle
 62
2
  6
CONTINUOUS
 10
12.439488201
 20
2.5135023274
 40
0.0024749995
100
AcDbArc
 50
89.9999571957
 51
180.0000428043
  0
LINE
  5
2DA
100
AcDbEntity
  8
0
100
AcDbLine
 62
2
  6
CONTINUOUS
 10
12.4370132015
 20
2.5135023256
 11
12.4370132015
 21
2.4937023146
  0
ARC
  5
2DB
100
AcDbEntity
  8
0
100
AcDbCircle
 62
2
  6
CONTINUOUS
 10
12.439488201
 20
2.4937023128
 40
0.0024749995
100
AcDbArc
 50
179.9999571957
 51
270.0000428043
  0
LINE
  5
2DC
100
AcDbEntity
  8
0
100
AcDbLine
 62
2
  6
CONTINUOUS
 10
12.4394882028
 20
2.4912273132
 11
12.5168642458
 21
2.4912273132
  0
ARC
  5
2DD
100
AcDbEntity
  8
0
100
AcDbCircle
 62
2
  6
CONTINUOUS
 10
12.5168642476
 20
2.4937023128
 40
0.0024749995
100
AcDbArc
 50
269.9999571957
 51
0.0000428043
  0
LINE
  5
2DE
100
AcDbEntity
  8
0
100
AcDbLine
 62
2
  6
CONTINUOUS
 10
12.5193392471
 20
2.4937023146
 11
12.5193392471
 21
2.5135023256
  0
ARC
  5
2DF
100
AcDbEntity
  8
0
100
AcDbCircle
 62
2
  6
CONTINUOUS
 10
12.5168642476
 20
2.5135023274
 40
0.0024749995
100
AcDbArc
 50
359.9999571957
 51
90.0000428043
  0
LINE
  5
2E0
100
AcDbEntity
  8
0
100
AcDbLine
 62
2
  6
CONTINUOUS
 10
12.5168642458
 20
2.515977327
 11
12.5055812395
 21
2.515977327
  0
ARC
  5
2E1
100
AcDbEntity
  8
0
100
AcDbCircle
 62
2
  6
CONTINUOUS
 10
12.5055811302
 20
2.518452367
 40
0.0024750401
100
AcDbArc
 50
147.6063258011
 51
270.0025305754
  0
LINE
  5
2E2
100
AcDbEntity
  8
0
100
AcDbLine
 62
2
  6
CONTINUOUS
 10
12.5034912383
 20
2.5197783291
 11
12.5090072414
 21
2.5284723339
  0
ARC
  5
2E3
100
AcDbEntity
  8
0
100
AcDbCircle
 62
2
  6
CONTINUOUS
 10
12.5110971723
 20
2.5271461342
 40
0.0024752003
100
AcDbArc
 50
89.998372645
 51
147.602165307
  0
LINE
  5
2E4
100
AcDbEntity
  8
0
100
AcDbLine
 62
2
  6
CONTINUOUS
 10
12.5110972426
 20
2.5296213345
 11
12.5459752619
 21
2.5296213345
  0
ARC
  5
2E5
100
AcDbEntity
  8
0
100
AcDbCircle
 62
2
  6
CONTINUOUS
 10
12.5459747223
 20
2.5271458744
 40
0.0024754602
100
AcDbArc
 50
32.8959418573
 51
89.9875097202
  0
LINE
  5
2E6
100
AcDbEntity
  8
0
100
AcDbLine
 62
2
  6
CONTINUOUS
 10
12.9205934696
 20
2.5920323691
 11
13.0210515254
 21
2.5920323691
  0
ARC
  5
2E7
100
AcDbEntity
  8
0
100
AcDbCircle
 62
2
  6
CONTINUOUS
 10
13.0210516601
 20
2.5895582013
 40
0.0024741678
100
AcDbArc
 50
46.3477981899
 51
90.0031206038
  0
LINE
  5
2E8
100
AcDbEntity
  8
0
100
AcDbLine
 62
2
  6
CONTINUOUS
 10
13.0227595263
 20
2.5913483688
 11
13.0827925596
 21
2.534068337
  0
ARC
  5
2E9
100
AcDbEntity
  8
0
100
AcDbCircle
 62
2
  6
CONTINUOUS
 10
13.0845012605
 20
2.5358592748
 40
0.0024753014
100
AcDbArc
 50
226.3461263059
 51
0.0014637321
  0
LINE
  5
2EA
100
AcDbEntity
  8
0
100
AcDbLine
 62
2
  6
CONTINUOUS
 10
13.0869765619
 20
2.535859338
 11
13.0869765619
 21
2.564807354
  0
ARC
  5
2EB
100
AcDbEntity
  8
0
100
AcDbCircle
 62
2
  6
CONTINUOUS
 10
13.0845015624
 20
2.5648073559
 40
0.0024749995
100
AcDbArc
 50
359.9999571957
 51
90.0000428043
  0
LINE
  5
2EC
100
AcDbEntity
  8
0
100
AcDbLine
 62
2
  6
CONTINUOUS
 10
13.0845015605
 20
2.5672823554
 11
13.0657255501
 21
2.5672823554
  0
ARC
  5
2ED
100
AcDbEntity
  8
0
100
AcDbCircle
 62
2
  6
CONTINUOUS
 10
13.0657255483
 20
2.5697573549
 40
0.0024749995
100
AcDbArc
 50
179.9999571957
 51
270.0000428043
  0
LINE
  5
2EE
100
AcDbEntity
  8
0
100
AcDbLine
 62
2
  6
CONTINUOUS
 10
13.0632505488
 20
2.5697573568
 11
13.0632505488
 21
2.5895573678
  0
ARC
  5
2EF
100
AcDbEntity
  8
0
100
AcDbCircle
 62
2
  6
CONTINUOUS
 10
13.0657255483
 20
2.5895573696
 40
0.0024749995
100
AcDbArc
 50
89.9999571957
 51
180.0000428043
  0
LINE
  5
2F0
100
AcDbEntity
  8
0
100
AcDbLine
 62
2
  6
CONTINUOUS
 10
13.0657255501
 20
2.5920323691
 11
13.1397265912
 21
2.5920323691
  0
ARC
  5
2F1
100
AcDbEntity
  8
0
100
AcDbCircle
 62
2
  6
CONTINUOUS
 10
13.139726593
 20
2.5895573696
 40
0.0024749995
100
AcDbArc
 50
359.9999571957
 51
90.0000428043
  0
LINE
  5
2F2
100
AcDbEntity
  8
0
100
AcDbLine
 62
2
  6
CONTINUOUS
 10
13.1422015925
 20
2.5895573678
 11
13.1422015925
 21
2.5697573568
  0
ARC
  5
2F3
100
AcDbEntity
  8
0
100
AcDbCircle
 62
2
  6
CONTINUOUS
 10
13.139726593
 20
2.5697573549
 40
0.0024749995
100
AcDbArc
 50
269.9999571957
 51
0.0000428042
  0
LINE
  5
2F4
100
AcDbEntity
  8
0
100
AcDbLine
 62
2
  6
CONTINUOUS
 10
13.1397265912
 20
2.5672823554
 11
13.1217935812
 21
2.5672823554
  0
ARC
  5
2F5
100
AcDbEntity
  8
0
100
AcDbCircle
 62
2
  6
CONTINUOUS
 10
13.1217935794
 20
2.5648073559
 40
0.0024749995
100
AcDbArc
 50
89.9999571957
 51
180.0000428042
  0
LINE
  5
2F6
100
AcDbEntity
  8
0
100
AcDbLine
 62
2
  6
CONTINUOUS
 10
13.1193185799
 20
2.564807354
 11
13.1193185799
 21
2.4937023146
  0
ARC
  5
2F7
100
AcDbEntity
  8
0
100
AcDbCircle
 62
2
  6
CONTINUOUS
 10
13.1168435803
 20
2.4937023128
 40
0.0024749995
100
AcDbArc
 50
269.9999571957
 51
0.0000428043
  0
LINE
  5
2F8
100
AcDbEntity
  8
0
100
AcDbLine
 62
2
  6
CONTINUOUS
 10
13.1168435785
 20
2.4912273132
 11
13.0426375373
 21
2.4912273132
  0
ARC
  5
2F9
100
AcDbEntity
  8
0
100
AcDbCircle
 62
2
  6
CONTINUOUS
 10
13.0426374026
 20
2.493701481
 40
0.0024741678
100
AcDbArc
 50
226.3477981898
 51
270.0031206038
  0
LINE
  5
2FA
100
AcDbEntity
  8
0
100
AcDbLine
 62
2
  6
CONTINUOUS
 10
13.0409295364
 20
2.4919113136
 11
12.9776495013
 21
2.5522893471
  0
ARC
  5
2FB
100
AcDbEntity
  8
0
100
AcDbCircle
 62
2
  6
CONTINUOUS
 10
12.9759408003
 20
2.5504984093
 40
0.0024753014
100
AcDbArc
 50
46.3461263059
 51
180.0014637321
  0
LINE
  5
2FC
100
AcDbEntity
  8
0
100
AcDbLine
 62
2
  6
CONTINUOUS
 10
12.973465499
 20
2.5504983461
 11
12.973465499
 21
2.5184523283
  0
ARC
  5
2FD
100
AcDbEntity
  8
0
100
AcDbCircle
 62
2
  6
CONTINUOUS
 10
12.9759404985
 20
2.5184523265
 40
0.0024749995
100
AcDbArc
 50
179.9999571957
 51
270.0000428043
  0
LINE
  5
2FE
100
AcDbEntity
  8
0
100
AcDbLine
 62
2
  6
CONTINUOUS
 10
12.9759405003
 20
2.515977327
 11
12.9962575116
 21
2.515977327
  0
ARC
  5
2FF
100
AcDbEntity
  8
0
100
AcDbCircle
 62
2
  6
CONTINUOUS
 10
12.9962575135
 20
2.5135023274
 40
0.0024749995
100
AcDbArc
 50
359.9999571957
 51
90.0000428043
  0
LINE
  5
300
100
AcDbEntity
  8
0
100
AcDbLine
 62
2
  6
CONTINUOUS
 10
12.998732513
 20
2.5135023256
 11
12.998732513
 21
2.4937023146
  0
ARC
  5
301
100
AcDbEntity
  8
0
100
AcDbCircle
 62
2
  6
CONTINUOUS
 10
12.9962575135
 20
2.4937023128
 40
0.0024749995
100
AcDbArc
 50
269.9999571957
 51
0.0000428043
  0
LINE
  5
302
100
AcDbEntity
  8
0
100
AcDbLine
 62
2
  6
CONTINUOUS
 10
12.9962575116
 20
2.4912273132
 11
12.9205934696
 21
2.4912273132
  0
ARC
  5
303
100
AcDbEntity
  8
0
100
AcDbCircle
 62
2
  6
CONTINUOUS
 10
12.9205934678
 20
2.4937023128
 40
0.0024749995
100
AcDbArc
 50
179.9999571957
 51
270.0000428043
  0
LINE
  5
304
100
AcDbEntity
  8
0
100
AcDbLine
 62
2
  6
CONTINUOUS
 10
12.9181184683
 20
2.4937023146
 11
12.9181184683
 21
2.5135023256
  0
ARC
  5
305
100
AcDbEntity
  8
0
100
AcDbCircle
 62
2
  6
CONTINUOUS
 10
12.9205934678
 20
2.5135023274
 40
0.0024749995
100
AcDbArc
 50
89.9999571957
 51
180.0000428042
  0
LINE
  5
306
100
AcDbEntity
  8
0
100
AcDbLine
 62
2
  6
CONTINUOUS
 10
12.9205934696
 20
2.515977327
 11
12.93923948
 21
2.515977327
  0
ARC
  5
307
100
AcDbEntity
  8
0
100
AcDbCircle
 62
2
  6
CONTINUOUS
 10
12.9392394818
 20
2.5184523265
 40
0.0024749995
100
AcDbArc
 50
269.9999571957
 51
0.0000428043
  0
LINE
  5
308
100
AcDbEntity
  8
0
100
AcDbLine
 62
2
  6
CONTINUOUS
 10
12.9417144814
 20
2.5184523283
 11
12.9417144814
 21
2.564807354
  0
ARC
  5
309
100
AcDbEntity
  8
0
100
AcDbCircle
 62
2
  6
CONTINUOUS
 10
12.9392394818
 20
2.5648073559
 40
0.0024749995
100
AcDbArc
 50
359.9999571957
 51
90.0000428043
  0
LINE
  5
30A
100
AcDbEntity
  8
0
100
AcDbLine
 62
2
  6
CONTINUOUS
 10
12.93923948
 20
2.5672823554
 11
12.9205934696
 21
2.5672823554
  0
ARC
  5
30B
100
AcDbEntity
  8
0
100
AcDbCircle
 62
2
  6
CONTINUOUS
 10
12.9205934678
 20
2.5697573549
 40
0.0024749995
100
AcDbArc
 50
179.9999571957
 51
270.0000428043
  0
LINE
  5
30C
100
AcDbEntity
  8
0
100
AcDbLine
 62
2
  6
CONTINUOUS
 10
12.9181184683
 20
2.5697573568
 11
12.9181184683
 21
2.5895573678
  0
ARC
  5
30D
100
AcDbEntity
  8
0
100
AcDbCircle
 62
2
  6
CONTINUOUS
 10
12.9205934678
 20
2.5895573696
 40
0.0024749995
100
AcDbArc
 50
89.9999571957
 51
180.0000428042
  0
LINE
  5
30E
100
AcDbEntity
  8
0
100
AcDbLine
 62
2
  6
CONTINUOUS
 10
13.2934226764
 20
2.5324773361
 11
13.2582556569
 21
2.5324773361
  0
ARC
  5
30F
100
AcDbEntity
  8
0
100
AcDbCircle
 62
2
  6
CONTINUOUS
 10
13.2582556551
 20
2.5300023366
 40
0.0024749995
100
AcDbArc
 50
89.9999571957
 51
180.0000428043
  0
LINE
  5
310
100
AcDbEntity
  8
0
100
AcDbLine
 62
2
  6
CONTINUOUS
 10
13.2557806555
 20
2.5300023347
 11
13.2557806555
 21
2.5184523283
  0
ARC
  5
311
100
AcDbEntity
  8
0
100
AcDbCircle
 62
2
  6
CONTINUOUS
 10
13.2582556551
 20
2.5184523265
 40
0.0024749995
100
AcDbArc
 50
179.9999571957
 51
270.0000428043
  0
LINE
  5
312
100
AcDbEntity
  8
0
100
AcDbLine
 62
2
  6
CONTINUOUS
 10
13.2582556569
 20
2.515977327
 11
13.3232596929
 21
2.515977327
  0
ARC
  5
313
100
AcDbEntity
  8
0
100
AcDbCircle
 62
2
  6
CONTINUOUS
 10
13.3232596948
 20
2.5184523265
 40
0.0024749995
100
AcDbArc
 50
269.9999571957
 51
0.0000428043
  0
LINE
  5
314
100
AcDbEntity
  8
0
100
AcDbLine
 62
2
  6
CONTINUOUS
 10
13.3257346943
 20
2.5184523283
 11
13.3257346943
 21
2.5267023329
  0
ARC
  5
315
100
AcDbEntity
  8
0
100
AcDbCircle
 62
2
  6
CONTINUOUS
 10
13.3282096938
 20
2.5267023348
 40
0.0024749995
100
AcDbArc
 50
89.9999571957
 51
180.0000428043
  0
LINE
  5
316
100
AcDbEntity
  8
0
100
AcDbLine
 62
2
  6
CONTINUOUS
 10
13.3282096957
 20
2.5291773343
 11
13.3705287192
 21
2.5291773343
  0
ARC
  5
317
100
AcDbEntity
  8
0
100
AcDbCircle
 62
2
  6
CONTINUOUS
 10
13.370528721
 20
2.5267023348
 40
0.0024749995
100
AcDbArc
 50
359.9999571957
 51
90.0000428043
  0
LINE
  5
318
100
AcDbEntity
  8
0
100
AcDbLine
 62
2
  6
CONTINUOUS
 10
13.3730037205
 20
2.5267023329
 11
13.3730037205
 21
2.4937023146
  0
ARC
  5
319
100
AcDbEntity
  8
0
100
AcDbCircle
 62
2
  6
CONTINUOUS
 10
13.370528721
 20
2.4937023128
 40
0.0024749995
100
AcDbArc
 50
269.9999571957
 51
0.0000428043
  0
LINE
  5
31A
100
AcDbEntity
  8
0
100
AcDbLine
 62
2
  6
CONTINUOUS
 10
13.3705287192
 20
2.4912273132
 11
13.1673166065
 21
2.4912273132
  0
ARC
  5
31B
100
AcDbEntity
  8
0
100
AcDbCircle
 62
2
  6
CONTINUOUS
 10
13.1673166046
 20
2.4937023128
 40
0.0024749995
100
AcDbArc
 50
179.9999571957
 51
270.0000428043
  0
LINE
  5
31C
100
AcDbEntity
  8
0
100
AcDbLine
 62
2
  6
CONTINUOUS
 10
13.1648416051
 20
2.4937023146
 11
13.1648416051
 21
2.5135023256
  0
ARC
  5
31D
100
AcDbEntity
  8
0
100
AcDbCircle
 62
2
  6
CONTINUOUS
 10
13.1673166046
 20
2.5135023274
 40
0.0024749995
100
AcDbArc
 50
89.9999571957
 51
180.0000428043
  0
LINE
  5
31E
100
AcDbEntity
  8
0
100
AcDbLine
 62
2
  6
CONTINUOUS
 10
13.1673166065
 20
2.515977327
 11
13.1912396197
 21
2.515977327
  0
ARC
  5
31F
100
AcDbEntity
  8
0
100
AcDbCircle
 62
2
  6
CONTINUOUS
 10
13.1912396216
 20
2.5184523265
 40
0.0024749995
100
AcDbArc
 50
269.9999571957
 51
0.0000428042
  0
LINE
  5
320
100
AcDbEntity
  8
0
100
AcDbLine
 62
2
  6
CONTINUOUS
 10
13.1937146211
 20
2.5184523283
 11
13.1937146211
 21
2.564807354
  0
ARC
  5
321
100
AcDbEntity
  8
0
100
AcDbCircle
 62
2
  6
CONTINUOUS
 10
13.1912396216
 20
2.5648073559
 40
0.0024749995
100
AcDbArc
 50
359.9999571957
 51
90.0000428043
  0
LINE
  5
322
100
AcDbEntity
  8
0
100
AcDbLine
 62
2
  6
CONTINUOUS
 10
13.1912396197
 20
2.5672823554
 11
13.1673166065
 21
2.5672823554
  0
ARC
  5
323
100
AcDbEntity
  8
0
100
AcDbCircle
 62
2
  6
CONTINUOUS
 10
13.1673166046
 20
2.5697573549
 40
0.0024749995
100
AcDbArc
 50
179.9999571957
 51
270.0000428043
  0
LINE
  5
324
100
AcDbEntity
  8
0
100
AcDbLine
 62
2
  6
CONTINUOUS
 10
13.1648416051
 20
2.5697573568
 11
13.1648416051
 21
2.5895573678
  0
ARC
  5
325
100
AcDbEntity
  8
0
100
AcDbCircle
 62
2
  6
CONTINUOUS
 10
13.1673166046
 20
2.5895573696
 40
0.0024749995
100
AcDbArc
 50
89.9999571957
 51
180.0000428043
  0
LINE
  5
326
100
AcDbEntity
  8
0
100
AcDbLine
 62
2
  6
CONTINUOUS
 10
13.1673166065
 20
2.5920323691
 11
13.3691097184
 21
2.5920323691
  0
ARC
  5
327
100
AcDbEntity
  8
0
100
AcDbCircle
 62
2
  6
CONTINUOUS
 10
13.3691097202
 20
2.5895573696
 40
0.0024749995
100
AcDbArc
 50
359.9999571957
 51
90.0000428043
  0
LINE
  5
328
100
AcDbEntity
  8
0
100
AcDbLine
 62
2
  6
CONTINUOUS
 10
13.3715847197
 20
2.5895573678
 11
13.3715847197
 21
2.5565573495
  0
ARC
  5
329
100
AcDbEntity
  8
0
100
AcDbCircle
 62
2
  6
CONTINUOUS
 10
13.3691097202
 20
2.5565573476
 40
0.0024749995
100
AcDbArc
 50
269.9999571957
 51
0.0000428042
  0
LINE
  5
32A
100
AcDbEntity
  8
0
100
AcDbLine
 62
2
  6
CONTINUOUS
 10
13.3691097184
 20
2.5540823481
 11
13.3272456952
 21
2.5540823481
  0
ARC
  5
32B
100
AcDbEntity
  8
0
100
AcDbCircle
 62
2
  6
CONTINUOUS
 10
13.3272456933
 20
2.5565573476
 40
0.0024749995
100
AcDbArc
 50
179.9999571957
 51
270.0000428043
  0
LINE
  5
32C
100
AcDbEntity
  8
0
100
AcDbLine
 62
2
  6
CONTINUOUS
 10
13.3247706938
 20
2.5565573495
 11
13.3247706938
 21
2.564807354
  0
ARC
  5
32D
100
AcDbEntity
  8
0
100
AcDbCircle
 62
2
  6
CONTINUOUS
 10
13.3222956943
 20
2.5648073559
 40
0.0024749995
100
AcDbArc
 50
359.9999571957
 51
90.0000428043
  0
LINE
  5
32E
100
AcDbEntity
  8
0
100
AcDbLine
 62
2
  6
CONTINUOUS
 10
13.3222956924
 20
2.5672823554
 11
13.2582556569
 21
2.5672823554
  0
ARC
  5
32F
100
AcDbEntity
  8
0
100
AcDbCircle
 62
2
  6
CONTINUOUS
 10
13.2582556551
 20
2.5648073559
 40
0.0024749995
100
AcDbArc
 50
89.9999571957
 51
180.0000428043
  0
LINE
  5
330
100
AcDbEntity
  8
0
100
AcDbLine
 62
2
  6
CONTINUOUS
 10
13.2557806555
 20
2.564807354
 11
13.2557806555
 21
2.5532573476
  0
ARC
  5
331
100
AcDbEntity
  8
0
100
AcDbCircle
 62
2
  6
CONTINUOUS
 10
13.2582556551
 20
2.5532573458
 40
0.0024749995
100
AcDbArc
 50
179.9999571957
 51
270.0000428043
  0
LINE
  5
332
100
AcDbEntity
  8
0
100
AcDbLine
 62
2
  6
CONTINUOUS
 10
13.2582556569
 20
2.5507823463
 11
13.2934226764
 21
2.5507823463
  0
ARC
  5
333
100
AcDbEntity
  8
0
100
AcDbCircle
 62
2
  6
CONTINUOUS
 10
13.2934226783
 20
2.5483073467
 40
0.0024749995
100
AcDbArc
 50
359.9999571957
 51
90.0000428043
  0
LINE
  5
334
100
AcDbEntity
  8
0
100
AcDbLine
 62
2
  6
CONTINUOUS
 10
13.2958976778
 20
2.5483073449
 11
13.2958976778
 21
2.5349523375
  0
ARC
  5
335
100
AcDbEntity
  8
0
100
AcDbCircle
 62
2
  6
CONTINUOUS
 10
13.2934226783
 20
2.5349523356
 40
0.0024749995
100
AcDbArc
 50
269.9999571957
 51
0.0000428042
  0
LINE
  5
336
100
AcDbEntity
  8
0
100
AcDbLine
 62
2
  6
CONTINUOUS
 10
13.7286871589
 20
2.5350697372
 11
13.7286871589
 21
2.5456869438
  0
LINE
  5
337
100
AcDbEntity
  8
0
100
AcDbLine
 62
2
  6
CONTINUOUS
 10
13.7086871478
 20
2.5004302075
 11
13.7086871478
 21
2.5803264735
  0
LINE
  5
338
100
AcDbEntity
  8
0
100
AcDbLine
 62
2
  6
CONTINUOUS
 10
13.6886871368
 20
2.4843919416
 11
13.6886871368
 21
2.5963647394
  0
LINE
  5
339
100
AcDbEntity
  8
0
100
AcDbLine
 62
2
  6
CONTINUOUS
 10
13.6686871257
 20
2.4726017898
 11
13.6686871257
 21
2.6081548911
  0
LINE
  5
33A
100
AcDbEntity
  8
0
100
AcDbLine
 62
2
  6
CONTINUOUS
 10
13.6486871146
 20
2.4628062688
 11
13.6486871146
 21
2.6179504122
  0
LINE
  5
33B
100
AcDbEntity
  8
0
100
AcDbLine
 62
2
  6
CONTINUOUS
 10
13.6286871035
 20
2.4541253507
 11
13.6286871035
 21
2.5062483056
  0
LINE
  5
33C
100
AcDbEntity
  8
0
100
AcDbLine
 62
2
  6
CONTINUOUS
 10
13.6286871035
 20
2.5301143348
 11
13.6286871035
 21
2.6266313303
  0
LINE
  5
33D
100
AcDbEntity
  8
0
100
AcDbLine
 62
2
  6
CONTINUOUS
 10
13.6086870924
 20
2.4465537903
 11
13.6086870924
 21
2.4918774918
  0
LINE
  5
33E
100
AcDbEntity
  8
0
100
AcDbLine
 62
2
  6
CONTINUOUS
 10
13.6086870924
 20
2.5165781173
 11
13.6086870924
 21
2.6342028907
  0
LINE
  5
33F
100
AcDbEntity
  8
0
100
AcDbLine
 62
2
  6
CONTINUOUS
 10
13.5886870813
 20
2.4398033466
 11
13.5886870813
 21
2.4912273132
  0
LINE
  5
340
100
AcDbEntity
  8
0
100
AcDbLine
 62
2
  6
CONTINUOUS
 10
13.5886870813
 20
2.5391840845
 11
13.5886870813
 21
2.5454298327
  0
LINE
  5
341
100
AcDbEntity
  8
0
100
AcDbLine
 62
2
  6
CONTINUOUS
 10
13.5886870813
 20
2.5862063472
 11
13.5886870813
 21
2.6409533343
  0
LINE
  5
342
100
AcDbEntity
  8
0
100
AcDbLine
 62
2
  6
CONTINUOUS
 10
13.5686870702
 20
2.4334702189
 11
13.5686870702
 21
2.4912273132
  0
LINE
  5
343
100
AcDbEntity
  8
0
100
AcDbLine
 62
2
  6
CONTINUOUS
 10
13.5686870702
 20
2.5906587765
 11
13.5686870702
 21
2.647286462
  0
LINE
  5
344
100
AcDbEntity
  8
0
100
AcDbLine
 62
2
  6
CONTINUOUS
 10
13.5486870591
 20
2.4278968124
 11
13.5486870591
 21
2.4937461006
  0
LINE
  5
345
100
AcDbEntity
  8
0
100
AcDbLine
 62
2
  6
CONTINUOUS
 10
13.5486870591
 20
2.5920323691
 11
13.5486870591
 21
2.6528598686
  0
LINE
  5
346
100
AcDbEntity
  8
0
100
AcDbLine
 62
2
  6
CONTINUOUS
 10
13.528687048
 20
2.4225427674
 11
13.528687048
 21
2.5270426993
  0
LINE
  5
347
100
AcDbEntity
  8
0
100
AcDbLine
 62
2
  6
CONTINUOUS
 10
13.528687048
 20
2.5505166259
 11
13.528687048
 21
2.5668657091
  0
LINE
  5
348
100
AcDbEntity
  8
0
100
AcDbLine
 62
2
  6
CONTINUOUS
 10
13.528687048
 20
2.5920323691
 11
13.528687048
 21
2.6582139136
  0
LINE
  5
349
100
AcDbEntity
  8
0
100
AcDbLine
 62
2
  6
CONTINUOUS
 10
13.5086870369
 20
2.4177306791
 11
13.5086870369
 21
2.4912273132
  0
LINE
  5
34A
100
AcDbEntity
  8
0
100
AcDbLine
 62
2
  6
CONTINUOUS
 10
13.5086870369
 20
2.5159553269
 11
13.5086870369
 21
2.5306043351
  0
LINE
  5
34B
100
AcDbEntity
  8
0
100
AcDbLine
 62
2
  6
CONTINUOUS
 10
13.5086870369
 20
2.5496073456
 11
13.5086870369
 21
2.5672823554
  0
LINE
  5
34C
100
AcDbEntity
  8
0
100
AcDbLine
 62
2
  6
CONTINUOUS
 10
13.5086870369
 20
2.5920323691
 11
13.5086870369
 21
2.6630260019
  0
LINE
  5
34D
100
AcDbEntity
  8
0
100
AcDbLine
 62
2
  6
CONTINUOUS
 10
13.4886870258
 20
2.4131795254
 11
13.4886870258
 21
2.4912273132
  0
LINE
  5
34E
100
AcDbEntity
  8
0
100
AcDbLine
 62
2
  6
CONTINUOUS
 10
13.4886870258
 20
2.5159553269
 11
13.4886870258
 21
2.5306043351
  0
LINE
  5
34F
100
AcDbEntity
  8
0
100
AcDbLine
 62
2
  6
CONTINUOUS
 10
13.4886870258
 20
2.5496073456
 11
13.4886870258
 21
2.5672823554
  0
LINE
  5
350
100
AcDbEntity
  8
0
100
AcDbLine
 62
2
  6
CONTINUOUS
 10
13.4886870258
 20
2.5920323691
 11
13.4886870258
 21
2.6675771555
  0
LINE
  5
351
100
AcDbEntity
  8
0
100
AcDbLine
 62
2
  6
CONTINUOUS
 10
13.4686870147
 20
2.4088819672
 11
13.4686870147
 21
2.4912273132
  0
LINE
  5
352
100
AcDbEntity
  8
0
100
AcDbLine
 62
2
  6
CONTINUOUS
 10
13.4686870147
 20
2.5920323691
 11
13.4686870147
 21
2.6718747138
  0
LINE
  5
353
100
AcDbEntity
  8
0
100
AcDbLine
 62
2
  6
CONTINUOUS
 10
13.4486870037
 20
2.4050092072
 11
13.4486870037
 21
2.4912273132
  0
LINE
  5
354
100
AcDbEntity
  8
0
100
AcDbLine
 62
2
  6
CONTINUOUS
 10
13.4486870037
 20
2.5920323691
 11
13.4486870037
 21
2.6757474738
  0
LINE
  5
355
100
AcDbEntity
  8
0
100
AcDbLine
 62
2
  6
CONTINUOUS
 10
13.4286869926
 20
2.4011364471
 11
13.4286869926
 21
2.4912273132
  0
LINE
  5
356
100
AcDbEntity
  8
0
100
AcDbLine
 62
2
  6
CONTINUOUS
 10
13.4286869926
 20
2.5920323691
 11
13.4286869926
 21
2.6796202339
  0
LINE
  5
357
100
AcDbEntity
  8
0
100
AcDbLine
 62
2
  6
CONTINUOUS
 10
13.4086869815
 20
2.3980226662
 11
13.4086869815
 21
2.4912273132
  0
LINE
  5
358
100
AcDbEntity
  8
0
100
AcDbLine
 62
2
  6
CONTINUOUS
 10
13.4086869815
 20
2.515977327
 11
13.4086869815
 21
2.5672823554
  0
LINE
  5
359
100
AcDbEntity
  8
0
100
AcDbLine
 62
2
  6
CONTINUOUS
 10
13.4086869815
 20
2.5920323691
 11
13.4086869815
 21
2.6827340148
  0
LINE
  5
35A
100
AcDbEntity
  8
0
100
AcDbLine
 62
2
  6
CONTINUOUS
 10
13.3886869704
 20
2.3950052774
 11
13.3886869704
 21
2.6857514036
  0
LINE
  5
35B
100
AcDbEntity
  8
0
100
AcDbLine
 62
2
  6
CONTINUOUS
 10
13.3686869593
 20
2.3919878885
 11
13.3686869593
 21
2.4912273132
  0
LINE
  5
35C
100
AcDbEntity
  8
0
100
AcDbLine
 62
2
  6
CONTINUOUS
 10
13.3686869593
 20
2.5291773343
 11
13.3686869593
 21
2.5540823481
  0
LINE
  5
35D
100
AcDbEntity
  8
0
100
AcDbLine
 62
2
  6
CONTINUOUS
 10
13.3686869593
 20
2.5920323691
 11
13.3686869593
 21
2.6887687924
  0
LINE
  5
35E
100
AcDbEntity
  8
0
100
AcDbLine
 62
2
  6
CONTINUOUS
 10
13.3486869482
 20
2.3889704997
 11
13.3486869482
 21
2.4912273132
  0
LINE
  5
35F
100
AcDbEntity
  8
0
100
AcDbLine
 62
2
  6
CONTINUOUS
 10
13.3486869482
 20
2.5291773343
 11
13.3486869482
 21
2.5540823481
  0
LINE
  5
360
100
AcDbEntity
  8
0
100
AcDbLine
 62
2
  6
CONTINUOUS
 10
13.3486869482
 20
2.5920323691
 11
13.3486869482
 21
2.6917861813
  0
LINE
  5
361
100
AcDbEntity
  8
0
100
AcDbLine
 62
2
  6
CONTINUOUS
 10
13.3286869371
 20
2.3859531109
 11
13.3286869371
 21
2.4912273132
  0
LINE
  5
362
100
AcDbEntity
  8
0
100
AcDbLine
 62
2
  6
CONTINUOUS
 10
13.3286869371
 20
2.5291773343
 11
13.3286869371
 21
2.5540823481
  0
LINE
  5
363
100
AcDbEntity
  8
0
100
AcDbLine
 62
2
  6
CONTINUOUS
 10
13.3286869371
 20
2.5920323691
 11
13.3286869371
 21
2.6948035701
  0
LINE
  5
364
100
AcDbEntity
  8
0
100
AcDbLine
 62
2
  6
CONTINUOUS
 10
13.308686926
 20
2.3833355437
 11
13.308686926
 21
2.4912273132
  0
LINE
  5
365
100
AcDbEntity
  8
0
100
AcDbLine
 62
2
  6
CONTINUOUS
 10
13.308686926
 20
2.515977327
 11
13.308686926
 21
2.5672823554
  0
LINE
  5
366
100
AcDbEntity
  8
0
100
AcDbLine
 62
2
  6
CONTINUOUS
 10
13.308686926
 20
2.5920323691
 11
13.308686926
 21
2.6974211373
  0
LINE
  5
367
100
AcDbEntity
  8
0
100
AcDbLine
 62
2
  6
CONTINUOUS
 10
13.2886869149
 20
2.3812612684
 11
13.2886869149
 21
2.4912273132
  0
LINE
  5
368
100
AcDbEntity
  8
0
100
AcDbLine
 62
2
  6
CONTINUOUS
 10
13.2886869149
 20
2.515977327
 11
13.2886869149
 21
2.5324773361
  0
LINE
  5
369
100
AcDbEntity
  8
0
100
AcDbLine
 62
2
  6
CONTINUOUS
 10
13.2886869149
 20
2.5507823463
 11
13.2886869149
 21
2.5672823554
  0
LINE
  5
36A
100
AcDbEntity
  8
0
100
AcDbLine
 62
2
  6
CONTINUOUS
 10
13.2886869149
 20
2.5920323691
 11
13.2886869149
 21
2.6994954125
  0
LINE
  5
36B
100
AcDbEntity
  8
0
100
AcDbLine
 62
2
  6
CONTINUOUS
 10
13.2686869038
 20
2.3791869932
 11
13.2686869038
 21
2.4912273132
  0
LINE
  5
36C
100
AcDbEntity
  8
0
100
AcDbLine
 62
2
  6
CONTINUOUS
 10
13.2686869038
 20
2.515977327
 11
13.2686869038
 21
2.5324773361
  0
LINE
  5
36D
100
AcDbEntity
  8
0
100
AcDbLine
 62
2
  6
CONTINUOUS
 10
13.2686869038
 20
2.5507823463
 11
13.2686869038
 21
2.5672823554
  0
LINE
  5
36E
100
AcDbEntity
  8
0
100
AcDbLine
 62
2
  6
CONTINUOUS
 10
13.2686869038
 20
2.5920323691
 11
13.2686869038
 21
2.7015696878
  0
LINE
  5
36F
100
AcDbEntity
  8
0
100
AcDbLine
 62
2
  6
CONTINUOUS
 10
13.2486868927
 20
2.377112718
 11
13.2486868927
 21
2.4912273132
  0
LINE
  5
370
100
AcDbEntity
  8
0
100
AcDbLine
 62
2
  6
CONTINUOUS
 10
13.2486868927
 20
2.5920323691
 11
13.2486868927
 21
2.703643963
  0
LINE
  5
371
100
AcDbEntity
  8
0
100
AcDbLine
 62
2
  6
CONTINUOUS
 10
13.2286868817
 20
2.3750384428
 11
13.2286868817
 21
2.4912273132
  0
LINE
  5
372
100
AcDbEntity
  8
0
100
AcDbLine
 62
2
  6
CONTINUOUS
 10
13.2286868817
 20
2.5920323691
 11
13.2286868817
 21
2.7057182382
  0
LINE
  5
373
100
AcDbEntity
  8
0
100
AcDbLine
 62
2
  6
CONTINUOUS
 10
13.2086868706
 20
2.3729641676
 11
13.2086868706
 21
2.4912273132
  0
LINE
  5
374
100
AcDbEntity
  8
0
100
AcDbLine
 62
2
  6
CONTINUOUS
 10
13.2086868706
 20
2.5920323691
 11
13.2086868706
 21
2.7077925134
  0
LINE
  5
375
100
AcDbEntity
  8
0
100
AcDbLine
 62
2
  6
CONTINUOUS
 10
13.1886868595
 20
2.3712344456
 11
13.1886868595
 21
2.4912273132
  0
LINE
  5
376
100
AcDbEntity
  8
0
100
AcDbLine
 62
2
  6
CONTINUOUS
 10
13.1886868595
 20
2.515977327
 11
13.1886868595
 21
2.5672823554
  0
LINE
  5
377
100
AcDbEntity
  8
0
100
AcDbLine
 62
2
  6
CONTINUOUS
 10
13.1886868595
 20
2.5920323691
 11
13.1886868595
 21
2.7095222354
  0
LINE
  5
378
100
AcDbEntity
  8
0
100
AcDbLine
 62
2
  6
CONTINUOUS
 10
13.1686868484
 20
2.3699682418
 11
13.1686868484
 21
2.4912273132
  0
LINE
  5
379
100
AcDbEntity
  8
0
100
AcDbLine
 62
2
  6
CONTINUOUS
 10
13.1686868484
 20
2.515977327
 11
13.1686868484
 21
2.5672823554
  0
LINE
  5
37A
100
AcDbEntity
  8
0
100
AcDbLine
 62
2
  6
CONTINUOUS
 10
13.1686868484
 20
2.5920323691
 11
13.1686868484
 21
2.7107884392
  0
LINE
  5
37B
100
AcDbEntity
  8
0
100
AcDbLine
 62
2
  6
CONTINUOUS
 10
13.1486868373
 20
2.3687020381
 11
13.1486868373
 21
2.7120546429
  0
LINE
  5
37C
100
AcDbEntity
  8
0
100
AcDbLine
 62
2
  6
CONTINUOUS
 10
13.1286868262
 20
2.3674358343
 11
13.1286868262
 21
2.5672823554
  0
LINE
  5
37D
100
AcDbEntity
  8
0
100
AcDbLine
 62
2
  6
CONTINUOUS
 10
13.1286868262
 20
2.5920323691
 11
13.1286868262
 21
2.7133208466
  0
LINE
  5
37E
100
AcDbEntity
  8
0
100
AcDbLine
 62
2
  6
CONTINUOUS
 10
13.1086868151
 20
2.3661696306
 11
13.1086868151
 21
2.4912273132
  0
LINE
  5
37F
100
AcDbEntity
  8
0
100
AcDbLine
 62
2
  6
CONTINUOUS
 10
13.1086868151
 20
2.5920323691
 11
13.1086868151
 21
2.7145870504
  0
LINE
  5
380
100
AcDbEntity
  8
0
100
AcDbLine
 62
2
  6
CONTINUOUS
 10
13.088686804
 20
2.3649034269
 11
13.088686804
 21
2.4912273132
  0
LINE
  5
381
100
AcDbEntity
  8
0
100
AcDbLine
 62
2
  6
CONTINUOUS
 10
13.088686804
 20
2.5920323691
 11
13.088686804
 21
2.7158532541
  0
LINE
  5
382
100
AcDbEntity
  8
0
100
AcDbLine
 62
2
  6
CONTINUOUS
 10
13.0686867929
 20
2.3636739922
 11
13.0686867929
 21
2.4912273132
  0
LINE
  5
383
100
AcDbEntity
  8
0
100
AcDbLine
 62
2
  6
CONTINUOUS
 10
13.0686867929
 20
2.5475272398
 11
13.0686867929
 21
2.5672823554
  0
LINE
  5
384
100
AcDbEntity
  8
0
100
AcDbLine
 62
2
  6
CONTINUOUS
 10
13.0686867929
 20
2.5920323691
 11
13.0686867929
 21
2.7170826887
  0
LINE
  5
385
100
AcDbEntity
  8
0
100
AcDbLine
 62
2
  6
CONTINUOUS
 10
13.0486867818
 20
2.363143203
 11
13.0486867818
 21
2.4912273132
  0
LINE
  5
386
100
AcDbEntity
  8
0
100
AcDbLine
 62
2
  6
CONTINUOUS
 10
13.0486867818
 20
2.5666100882
 11
13.0486867818
 21
2.717613478
  0
LINE
  5
387
100
AcDbEntity
  8
0
100
AcDbLine
 62
2
  6
CONTINUOUS
 10
13.0286867707
 20
2.3626124138
 11
13.0286867707
 21
2.50359263
  0
LINE
  5
388
100
AcDbEntity
  8
0
100
AcDbLine
 62
2
  6
CONTINUOUS
 10
13.0286867707
 20
2.5856929366
 11
13.0286867707
 21
2.7181442672
  0
LINE
  5
389
100
AcDbEntity
  8
0
100
AcDbLine
 62
2
  6
CONTINUOUS
 10
13.0086867596
 20
2.3620816246
 11
13.0086867596
 21
2.5226754472
  0
LINE
  5
38A
100
AcDbEntity
  8
0
100
AcDbLine
 62
2
  6
CONTINUOUS
 10
13.0086867596
 20
2.5920323691
 11
13.0086867596
 21
2.7186750564
  0
LINE
  5
38B
100
AcDbEntity
  8
0
100
AcDbLine
 62
2
  6
CONTINUOUS
 10
12.9886867486
 20
2.3615508354
 11
12.9886867486
 21
2.4912273132
  0
LINE
  5
38C
100
AcDbEntity
  8
0
100
AcDbLine
 62
2
  6
CONTINUOUS
 10
12.9886867486
 20
2.515977327
 11
12.9886867486
 21
2.5417582644
  0
LINE
  5
38D
100
AcDbEntity
  8
0
100
AcDbLine
 62
2
  6
CONTINUOUS
 10
12.9886867486
 20
2.5920323691
 11
12.9886867486
 21
2.7192058456
  0
LINE
  5
38E
100
AcDbEntity
  8
0
100
AcDbLine
 62
2
  6
CONTINUOUS
 10
12.9686867375
 20
2.3610200462
 11
12.9686867375
 21
2.4912273132
  0
LINE
  5
38F
100
AcDbEntity
  8
0
100
AcDbLine
 62
2
  6
CONTINUOUS
 10
12.9686867375
 20
2.5920323691
 11
12.9686867375
 21
2.7197366348
  0
LINE
  5
390
100
AcDbEntity
  8
0
100
AcDbLine
 62
2
  6
CONTINUOUS
 10
12.9486867264
 20
2.360489257
 11
12.9486867264
 21
2.4912273132
  0
LINE
  5
391
100
AcDbEntity
  8
0
100
AcDbLine
 62
2
  6
CONTINUOUS
 10
12.9486867264
 20
2.5920323691
 11
12.9486867264
 21
2.720267424
  0
LINE
  5
392
100
AcDbEntity
  8
0
100
AcDbLine
 62
2
  6
CONTINUOUS
 10
12.9286867153
 20
2.3602836008
 11
12.9286867153
 21
2.4912273132
  0
LINE
  5
393
100
AcDbEntity
  8
0
100
AcDbLine
 62
2
  6
CONTINUOUS
 10
12.9286867153
 20
2.515977327
 11
12.9286867153
 21
2.5672823554
  0
LINE
  5
394
100
AcDbEntity
  8
0
100
AcDbLine
 62
2
  6
CONTINUOUS
 10
12.9286867153
 20
2.5920323691
 11
12.9286867153
 21
2.7204730802
  0
LINE
  5
395
100
AcDbEntity
  8
0
100
AcDbLine
 62
2
  6
CONTINUOUS
 10
12.9086867042
 20
2.3604597639
 11
12.9086867042
 21
2.7202969171
  0
LINE
  5
396
100
AcDbEntity
  8
0
100
AcDbLine
 62
2
  6
CONTINUOUS
 10
12.8886866931
 20
2.360635927
 11
12.8886866931
 21
2.5672823554
  0
LINE
  5
397
100
AcDbEntity
  8
0
100
AcDbLine
 62
2
  6
CONTINUOUS
 10
12.8886866931
 20
2.5920323691
 11
12.8886866931
 21
2.720120754
  0
LINE
  5
398
100
AcDbEntity
  8
0
100
AcDbLine
 62
2
  6
CONTINUOUS
 10
12.868686682
 20
2.3608120901
 11
12.868686682
 21
2.491232357
  0
LINE
  5
399
100
AcDbEntity
  8
0
100
AcDbLine
 62
2
  6
CONTINUOUS
 10
12.868686682
 20
2.5920323691
 11
12.868686682
 21
2.7199445909
  0
LINE
  5
39A
100
AcDbEntity
  8
0
100
AcDbLine
 62
2
  6
CONTINUOUS
 10
12.8486866709
 20
2.3609882532
 11
12.8486866709
 21
2.4912273132
  0
LINE
  5
39B
100
AcDbEntity
  8
0
100
AcDbLine
 62
2
  6
CONTINUOUS
 10
12.8486866709
 20
2.5920323691
 11
12.8486866709
 21
2.7197684278
  0
LINE
  5
39C
100
AcDbEntity
  8
0
100
AcDbLine
 62
2
  6
CONTINUOUS
 10
12.8286866598
 20
2.3611644163
 11
12.8286866598
 21
2.4912273132
  0
LINE
  5
39D
100
AcDbEntity
  8
0
100
AcDbLine
 62
2
  6
CONTINUOUS
 10
12.8286866598
 20
2.5396527025
 11
12.8286866598
 21
2.5672823554
  0
LINE
  5
39E
100
AcDbEntity
  8
0
100
AcDbLine
 62
2
  6
CONTINUOUS
 10
12.8286866598
 20
2.5920323691
 11
12.8286866598
 21
2.7195922647
  0
LINE
  5
39F
100
AcDbEntity
  8
0
100
AcDbLine
 62
2
  6
CONTINUOUS
 10
12.8086866487
 20
2.3613405794
 11
12.8086866487
 21
2.4912273132
  0
LINE
  5
3A0
100
AcDbEntity
  8
0
100
AcDbLine
 62
2
  6
CONTINUOUS
 10
12.8086866487
 20
2.5587355508
 11
12.8086866487
 21
2.7194161016
  0
LINE
  5
3A1
100
AcDbEntity
  8
0
100
AcDbLine
 62
2
  6
CONTINUOUS
 10
12.7886866376
 20
2.3621089572
 11
12.7886866376
 21
2.4957181055
  0
LINE
  5
3A2
100
AcDbEntity
  8
0
100
AcDbLine
 62
2
  6
CONTINUOUS
 10
12.7886866376
 20
2.5778183992
 11
12.7886866376
 21
2.7186477238
  0
LINE
  5
3A3
100
AcDbEntity
  8
0
100
AcDbLine
 62
2
  6
CONTINUOUS
 10
12.7686866266
 20
2.3630013935
 11
12.7686866266
 21
2.5148009227
  0
LINE
  5
3A4
100
AcDbEntity
  8
0
100
AcDbLine
 62
2
  6
CONTINUOUS
 10
12.7686866266
 20
2.5920323691
 11
12.7686866266
 21
2.7177552874
  0
LINE
  5
3A5
100
AcDbEntity
  8
0
100
AcDbLine
 62
2
  6
CONTINUOUS
 10
12.7486866155
 20
2.3638938299
 11
12.7486866155
 21
2.4913263218
  0
LINE
  5
3A6
100
AcDbEntity
  8
0
100
AcDbLine
 62
2
  6
CONTINUOUS
 10
12.7486866155
 20
2.5158783184
 11
12.7486866155
 21
2.5338837399
  0
LINE
  5
3A7
100
AcDbEntity
  8
0
100
AcDbLine
 62
2
  6
CONTINUOUS
 10
12.7486866155
 20
2.5920323691
 11
12.7486866155
 21
2.7168628511
  0
LINE
  5
3A8
100
AcDbEntity
  8
0
100
AcDbLine
 62
2
  6
CONTINUOUS
 10
12.7286866044
 20
2.3647862663
 11
12.7286866044
 21
2.4912273132
  0
LINE
  5
3A9
100
AcDbEntity
  8
0
100
AcDbLine
 62
2
  6
CONTINUOUS
 10
12.7286866044
 20
2.515977327
 11
12.7286866044
 21
2.5527601554
  0
LINE
  5
3AA
100
AcDbEntity
  8
0
100
AcDbLine
 62
2
  6
CONTINUOUS
 10
12.7286866044
 20
2.5920323691
 11
12.7286866044
 21
2.7159704147
  0
LINE
  5
3AB
100
AcDbEntity
  8
0
100
AcDbLine
 62
2
  6
CONTINUOUS
 10
12.7086865933
 20
2.3656787026
 11
12.7086865933
 21
2.4912273132
  0
LINE
  5
3AC
100
AcDbEntity
  8
0
100
AcDbLine
 62
2
  6
CONTINUOUS
 10
12.7086865933
 20
2.5920323691
 11
12.7086865933
 21
2.7150779784
  0
LINE
  5
3AD
100
AcDbEntity
  8
0
100
AcDbLine
 62
2
  6
CONTINUOUS
 10
12.6886865822
 20
2.366571139
 11
12.6886865822
 21
2.4912273132
  0
LINE
  5
3AE
100
AcDbEntity
  8
0
100
AcDbLine
 62
2
  6
CONTINUOUS
 10
12.6886865822
 20
2.515977327
 11
12.6886865822
 21
2.5672823554
  0
LINE
  5
3AF
100
AcDbEntity
  8
0
100
AcDbLine
 62
2
  6
CONTINUOUS
 10
12.6886865822
 20
2.5920323691
 11
12.6886865822
 21
2.714185542
  0
LINE
  5
3B0
100
AcDbEntity
  8
0
100
AcDbLine
 62
2
  6
CONTINUOUS
 10
12.6686865711
 20
2.3677104027
 11
12.6686865711
 21
2.7130462783
  0
LINE
  5
3B1
100
AcDbEntity
  8
0
100
AcDbLine
 62
2
  6
CONTINUOUS
 10
12.64868656
 20
2.3693682721
 11
12.64868656
 21
2.7113884089
  0
LINE
  5
3B2
100
AcDbEntity
  8
0
100
AcDbLine
 62
2
  6
CONTINUOUS
 10
12.6286865489
 20
2.3710261415
 11
12.6286865489
 21
2.4912273132
  0
LINE
  5
3B3
100
AcDbEntity
  8
0
100
AcDbLine
 62
2
  6
CONTINUOUS
 10
12.6286865489
 20
2.515977327
 11
12.6286865489
 21
2.7097305395
  0
LINE
  5
3B4
100
AcDbEntity
  8
0
100
AcDbLine
 62
2
  6
CONTINUOUS
 10
12.6086865378
 20
2.372684011
 11
12.6086865378
 21
2.4912273132
  0
LINE
  5
3B5
100
AcDbEntity
  8
0
100
AcDbLine
 62
2
  6
CONTINUOUS
 10
12.6086865378
 20
2.5351122279
 11
12.6086865378
 21
2.70807267
  0
LINE
  5
3B6
100
AcDbEntity
  8
0
100
AcDbLine
 62
2
  6
CONTINUOUS
 10
12.5886865267
 20
2.3743418804
 11
12.5886865267
 21
2.4912273132
  0
LINE
  5
3B7
100
AcDbEntity
  8
0
100
AcDbLine
 62
2
  6
CONTINUOUS
 10
12.5886865267
 20
2.5660172622
 11
12.5886865267
 21
2.7064148006
  0
LINE
  5
3B8
100
AcDbEntity
  8
0
100
AcDbLine
 62
2
  6
CONTINUOUS
 10
12.5686865156
 20
2.3759997498
 11
12.5686865156
 21
2.4912273132
  0
LINE
  5
3B9
100
AcDbEntity
  8
0
100
AcDbLine
 62
2
  6
CONTINUOUS
 10
12.5686865156
 20
2.5920323691
 11
12.5686865156
 21
2.7047569312
  0
LINE
  5
3BA
100
AcDbEntity
  8
0
100
AcDbLine
 62
2
  6
CONTINUOUS
 10
12.5486865045
 20
2.3777575277
 11
12.5486865045
 21
2.4912273132
  0
LINE
  5
3BB
100
AcDbEntity
  8
0
100
AcDbLine
 62
2
  6
CONTINUOUS
 10
12.5486865045
 20
2.515977327
 11
12.5486865045
 21
2.5275118824
  0
LINE
  5
3BC
100
AcDbEntity
  8
0
100
AcDbLine
 62
2
  6
CONTINUOUS
 10
12.5486865045
 20
2.5920323691
 11
12.5486865045
 21
2.7029991533
  0
LINE
  5
3BD
100
AcDbEntity
  8
0
100
AcDbLine
 62
2
  6
CONTINUOUS
 10
12.5286864935
 20
2.3802813811
 11
12.5286864935
 21
2.5296213345
  0
LINE
  5
3BE
100
AcDbEntity
  8
0
100
AcDbLine
 62
2
  6
CONTINUOUS
 10
12.5286864935
 20
2.5505713461
 11
12.5286864935
 21
2.5667383551
  0
LINE
  5
3BF
100
AcDbEntity
  8
0
100
AcDbLine
 62
2
  6
CONTINUOUS
 10
12.5286864935
 20
2.5920323691
 11
12.5286864935
 21
2.7004752999
  0
LINE
  5
3C0
100
AcDbEntity
  8
0
100
AcDbLine
 62
2
  6
CONTINUOUS
 10
12.5086864824
 20
2.3828052346
 11
12.5086864824
 21
2.4912273132
  0
LINE
  5
3C1
100
AcDbEntity
  8
0
100
AcDbLine
 62
2
  6
CONTINUOUS
 10
12.5086864824
 20
2.515977327
 11
12.5086864824
 21
2.5279667721
  0
LINE
  5
3C2
100
AcDbEntity
  8
0
100
AcDbLine
 62
2
  6
CONTINUOUS
 10
12.5086864824
 20
2.5868602074
 11
12.5086864824
 21
2.6979514464
  0
LINE
  5
3C3
100
AcDbEntity
  8
0
100
AcDbLine
 62
2
  6
CONTINUOUS
 10
12.4886864713
 20
2.385329088
 11
12.4886864713
 21
2.4912273132
  0
LINE
  5
3C4
100
AcDbEntity
  8
0
100
AcDbLine
 62
2
  6
CONTINUOUS
 10
12.4886864713
 20
2.5553401045
 11
12.4886864713
 21
2.695427593
  0
LINE
  5
3C5
100
AcDbEntity
  8
0
100
AcDbLine
 62
2
  6
CONTINUOUS
 10
12.4686864602
 20
2.3878529415
 11
12.4686864602
 21
2.4912273132
  0
LINE
  5
3C6
100
AcDbEntity
  8
0
100
AcDbLine
 62
2
  6
CONTINUOUS
 10
12.4686864602
 20
2.5238200015
 11
12.4686864602
 21
2.6929037395
  0
LINE
  5
3C7
100
AcDbEntity
  8
0
100
AcDbLine
 62
2
  6
CONTINUOUS
 10
12.4486864491
 20
2.390376795
 11
12.4486864491
 21
2.4912273132
  0
LINE
  5
3C8
100
AcDbEntity
  8
0
100
AcDbLine
 62
2
  6
CONTINUOUS
 10
12.4486864491
 20
2.515977327
 11
12.4486864491
 21
2.690379886
  0
LINE
  5
3C9
100
AcDbEntity
  8
0
100
AcDbLine
 62
2
  6
CONTINUOUS
 10
12.428686438
 20
2.3931794042
 11
12.428686438
 21
2.6875772768
  0
LINE
  5
3CA
100
AcDbEntity
  8
0
100
AcDbLine
 62
2
  6
CONTINUOUS
 10
12.4086864269
 20
2.3964643301
 11
12.4086864269
 21
2.5013773986
  0
LINE
  5
3CB
100
AcDbEntity
  8
0
100
AcDbLine
 62
2
  6
CONTINUOUS
 10
12.4086864269
 20
2.5325739971
 11
12.4086864269
 21
2.5537224311
  0
LINE
  5
3CC
100
AcDbEntity
  8
0
100
AcDbLine
 62
2
  6
CONTINUOUS
 10
12.4086864269
 20
2.5791473398
 11
12.4086864269
 21
2.6842923509
  0
LINE
  5
3CD
100
AcDbEntity
  8
0
100
AcDbLine
 62
2
  6
CONTINUOUS
 10
12.3886864158
 20
2.399749256
 11
12.3886864158
 21
2.4921022658
  0
LINE
  5
3CE
100
AcDbEntity
  8
0
100
AcDbLine
 62
2
  6
CONTINUOUS
 10
12.3886864158
 20
2.5895929958
 11
12.3886864158
 21
2.681007425
  0
LINE
  5
3CF
100
AcDbEntity
  8
0
100
AcDbLine
 62
2
  6
CONTINUOUS
 10
12.3686864047
 20
2.403451877
 11
12.3686864047
 21
2.4912273132
  0
LINE
  5
3D0
100
AcDbEntity
  8
0
100
AcDbLine
 62
2
  6
CONTINUOUS
 10
12.3686864047
 20
2.5920323691
 11
12.3686864047
 21
2.677304804
  0
LINE
  5
3D1
100
AcDbEntity
  8
0
100
AcDbLine
 62
2
  6
CONTINUOUS
 10
12.3486863936
 20
2.407324637
 11
12.3486863936
 21
2.4912273132
  0
LINE
  5
3D2
100
AcDbEntity
  8
0
100
AcDbLine
 62
2
  6
CONTINUOUS
 10
12.3486863936
 20
2.5920323691
 11
12.3486863936
 21
2.673432044
  0
LINE
  5
3D3
100
AcDbEntity
  8
0
100
AcDbLine
 62
2
  6
CONTINUOUS
 10
12.3286863825
 20
2.4113493968
 11
12.3286863825
 21
2.4912273132
  0
LINE
  5
3D4
100
AcDbEntity
  8
0
100
AcDbLine
 62
2
  6
CONTINUOUS
 10
12.3286863825
 20
2.515977327
 11
12.3286863825
 21
2.5333023366
  0
LINE
  5
3D5
100
AcDbEntity
  8
0
100
AcDbLine
 62
2
  6
CONTINUOUS
 10
12.3286863825
 20
2.5499573458
 11
12.3286863825
 21
2.5672823554
  0
LINE
  5
3D6
100
AcDbEntity
  8
0
100
AcDbLine
 62
2
  6
CONTINUOUS
 10
12.3286863825
 20
2.5920323691
 11
12.3286863825
 21
2.6694072842
  0
LINE
  5
3D7
100
AcDbEntity
  8
0
100
AcDbLine
 62
2
  6
CONTINUOUS
 10
12.3086863715
 20
2.4159005505
 11
12.3086863715
 21
2.4912273132
  0
LINE
  5
3D8
100
AcDbEntity
  8
0
100
AcDbLine
 62
2
  6
CONTINUOUS
 10
12.3086863715
 20
2.515977327
 11
12.3086863715
 21
2.5333023366
  0
LINE
  5
3D9
100
AcDbEntity
  8
0
100
AcDbLine
 62
2
  6
CONTINUOUS
 10
12.3086863715
 20
2.5499573458
 11
12.3086863715
 21
2.5672823554
  0
LINE
  5
3DA
100
AcDbEntity
  8
0
100
AcDbLine
 62
2
  6
CONTINUOUS
 10
12.3086863715
 20
2.5920323691
 11
12.3086863715
 21
2.6648561305
  0
LINE
  5
3DB
100
AcDbEntity
  8
0
100
AcDbLine
 62
2
  6
CONTINUOUS
 10
12.2886863604
 20
2.4204517041
 11
12.2886863604
 21
2.4912273132
  0
LINE
  5
3DC
100
AcDbEntity
  8
0
100
AcDbLine
 62
2
  6
CONTINUOUS
 10
12.2886863604
 20
2.5920323691
 11
12.2886863604
 21
2.6603049769
  0
LINE
  5
3DD
100
AcDbEntity
  8
0
100
AcDbLine
 62
2
  6
CONTINUOUS
 10
12.2686863493
 20
2.4257438218
 11
12.2686863493
 21
2.4912273132
  0
LINE
  5
3DE
100
AcDbEntity
  8
0
100
AcDbLine
 62
2
  6
CONTINUOUS
 10
12.2686863493
 20
2.5920323691
 11
12.2686863493
 21
2.6550128592
  0
LINE
  5
3DF
100
AcDbEntity
  8
0
100
AcDbLine
 62
2
  6
CONTINUOUS
 10
12.2486863382
 20
2.4310978667
 11
12.2486863382
 21
2.4912273132
  0
LINE
  5
3E0
100
AcDbEntity
  8
0
100
AcDbLine
 62
2
  6
CONTINUOUS
 10
12.2486863382
 20
2.5920323691
 11
12.2486863382
 21
2.6496588142
  0
LINE
  5
3E1
100
AcDbEntity
  8
0
100
AcDbLine
 62
2
  6
CONTINUOUS
 10
12.2286863271
 20
2.4372566433
 11
12.2286863271
 21
2.4912273132
  0
LINE
  5
3E2
100
AcDbEntity
  8
0
100
AcDbLine
 62
2
  6
CONTINUOUS
 10
12.2286863271
 20
2.515977327
 11
12.2286863271
 21
2.5672823554
  0
LINE
  5
3E3
100
AcDbEntity
  8
0
100
AcDbLine
 62
2
  6
CONTINUOUS
 10
12.2286863271
 20
2.5920323691
 11
12.2286863271
 21
2.6435000377
  0
LINE
  5
3E4
100
AcDbEntity
  8
0
100
AcDbLine
 62
2
  6
CONTINUOUS
 10
12.208686316
 20
2.443589771
 11
12.208686316
 21
2.4912273132
  0
LINE
  5
3E5
100
AcDbEntity
  8
0
100
AcDbLine
 62
2
  6
CONTINUOUS
 10
12.208686316
 20
2.515977327
 11
12.208686316
 21
2.5672823554
  0
LINE
  5
3E6
100
AcDbEntity
  8
0
100
AcDbLine
 62
2
  6
CONTINUOUS
 10
12.208686316
 20
2.5920323691
 11
12.208686316
 21
2.63716691
  0
LINE
  5
3E7
100
AcDbEntity
  8
0
100
AcDbLine
 62
2
  6
CONTINUOUS
 10
12.1886863049
 20
2.4510806436
 11
12.1886863049
 21
2.6296760373
  0
LINE
  5
3E8
100
AcDbEntity
  8
0
100
AcDbLine
 62
2
  6
CONTINUOUS
 10
12.1686862938
 20
2.4591016523
 11
12.1686862938
 21
2.6216550287
  0
LINE
  5
3E9
100
AcDbEntity
  8
0
100
AcDbLine
 62
2
  6
CONTINUOUS
 10
12.1486862827
 20
2.468314272
 11
12.1486862827
 21
2.612442409
  0
LINE
  5
3EA
100
AcDbEntity
  8
0
100
AcDbLine
 62
2
  6
CONTINUOUS
 10
12.1286862716
 20
2.4794932339
 11
12.1286862716
 21
2.601263447
  0
LINE
  5
3EB
100
AcDbEntity
  8
0
100
AcDbLine
 62
2
  6
CONTINUOUS
 10
12.1086862605
 20
2.4934150665
 11
12.1086862605
 21
2.5873416144
  0
LINE
  5
3EC
100
AcDbEntity
  8
0
100
AcDbLine
 62
2
  6
CONTINUOUS
 10
12.0886862494
 20
2.5144449553
 11
12.0886862494
 21
2.5663117257
  0
ENDBLK
  5
3ED
100
AcDbEntity
  8
0
  6
BYBLOCK
 62
0
100
AcDbBlockEnd
  0
BLOCK
  5
3EE
100
AcDbEntity
  8
0
100
AcDbBlockBegin
  2
_FILLED
 70
64
 10
0.0
 20
0.0
  3
_FILLED
  1

  0
SOLID
  5
3EF
100
AcDbEntity
  8
0
  6
BYBLOCK
 62
0
100
AcDbTrace
 10
0.0
 20
0.0
 11
-1.0
 21
0.1666666667
 12
-1.0
 22
-0.1666666667
 13
-1.0
 23
-0.1666666667
  0
ENDBLK
  5
3F0
100
AcDbEntity
  8
0
  6
BYBLOCK
 62
0
100
AcDbBlockEnd
  0
BLOCK
  5
3F1
100
AcDbEntity
  8
SCHEME_DIMS
100
AcDbBlockBegin
 62
2
  6
CONTINUOUS
  2
*D0
 70
65
 10
0.0
 20
0.0
  3
*D0
  1

  0
MTEXT
  5
3F2
100
AcDbEntity
  8
SCHEME_DIMS
100
AcDbMText
 62
2
  6
CONTINUOUS
  7
TEXTSTYLE_5
 71
1
 72
1
 10
4.6220089999
 20
6.1351312415
 30
0.0
 11
1.0
 21
0.0
 31
0.0
 44
0.9
  1
{\Fgdt;n}\Ftxt;52\P[2.05]
 40
0.1
 41
0.6
  0
LINE
  5
3F3
100
AcDbEntity
  8
SCHEME_DIMS
100
AcDbLine
 62
2
  6
CONTINUOUS
 10
4.175891537
 20
5.9046753883
 11
3.4226295092
 21
5.211567595
  0
LINE
  5
3F4
100
AcDbEntity
  8
SCHEME_DIMS
100
AcDbLine
 62
2
  6
CONTINUOUS
 10
3.4226295092
 20
5.211567595
 11
4.3720089999
 21
6.0851312415
  0
LINE
  5
3F5
100
AcDbEntity
  8
SCHEME_DIMS
100
AcDbLine
 62
2
  6
CONTINUOUS
 10
4.3720089999
 20
6.0851312415
 11
4.5220089999
 21
6.0851312415
  0
LINE
  5
3F6
100
AcDbEntity
  8
SCHEME_DIMS
100
AcDbLine
 62
2
  6
CONTINUOUS
 10
2.6693674813
 20
4.5184598018
 11
3.4226295092
 21
5.211567595
  0
INSERT
  5
3F7
100
AcDbEntity
  8
SCHEME_DIMS
100
AcDbBlockReference
 62
2
  6
CONTINUOUS
  2
_FILLED
 10
4.175891537
 20
5.9046753883
 41
0.1875
 42
0.1875
 43
0.1875
 50
42.6184523684
  0
INSERT
  5
3F8
100
AcDbEntity
  8
SCHEME_DIMS
100
AcDbBlockReference
 62
2
  6
CONTINUOUS
  2
_FILLED
 10
2.6693674813
 20
4.5184598018
 41
0.1875
 42
0.1875
 43
0.1875
 50
222.6184523684
  0
ENDBLK
  5
3F9
100
AcDbEntity
  8
0
  6
BYBLOCK
 62
0
100
AcDbBlockEnd
  0
BLOCK
  5
3FA
100
AcDbEntity
  8
SCHEME_DIMS
100
AcDbBlockBegin
 62
2
  6
CONTINUOUS
  2
*D1
 70
65
 10
0.0
 20
0.0
  3
*D1
  1

  0
MTEXT
  5
3FB
100
AcDbEntity
  8
SCHEME_DIMS
100
AcDbMText
 62
2
  6
CONTINUOUS
  7
STANDARD
 71
2
 72
1
 10
7.4866054838
 20
3.7379455478
 30
0.0
 11
1.0
 21
0.0
 31
0.0
 44
0.9
  1
30\P[1.18]
 40
0.1
 41
0.6
  0
LINE
  5
3FC
100
AcDbEntity
  8
SCHEME_DIMS
100
AcDbLine
 62
2
  6
CONTINUOUS
 10
7.0960543027
 20
4.2773514602
 11
7.0960543027
 21
3.5629455478
  0
LINE
  5
3FD
100
AcDbEntity
  8
SCHEME_DIMS
100
AcDbLine
 62
2
  6
CONTINUOUS
 10
8.2771566649
 20
4.1254455478
 11
8.2771566649
 21
3.5629455478
  0
LINE
  5
3FE
100
AcDbEntity
  8
SCHEME_DIMS
100
AcDbLine
 62
2
  6
CONTINUOUS
 10
7.0960543027
 20
3.6879455478
 11
6.6960543027
 21
3.6879455478
  0
LINE
  5
3FF
100
AcDbEntity
  8
SCHEME_DIMS
100
AcDbLine
 62
2
  6
CONTINUOUS
 10
8.2771566649
 20
3.6879455478
 11
8.6771566649
 21
3.6879455478
  0
INSERT
  5
400
100
AcDbEntity
  8
SCHEME_DIMS
100
AcDbBlockReference
 62
2
  6
CONTINUOUS
  2
_FILLED
 10
7.0960543027
 20
3.6879455478
 41
0.1875
 42
0.1875
 43
0.1875
  0
INSERT
  5
401
100
AcDbEntity
  8
SCHEME_DIMS
100
AcDbBlockReference
 62
2
  6
CONTINUOUS
  2
_FILLED
 10
8.2771566649
 20
3.6879455478
 41
0.1875
 42
0.1875
 43
0.1875
 50
180.0
  0
ENDBLK
  5
402
100
AcDbEntity
  8
0
  6
BYBLOCK
 62
0
100
AcDbBlockEnd
  0
BLOCK
  5
403
100
AcDbEntity
  8
SCHEME_DIMS
100
AcDbBlockBegin
 62
2
  6
CONTINUOUS
  2
*D2
 70
65
 10
0.0
 20
0.0
  3
*D2
  1

  0
MTEXT
  5
404
100
AcDbEntity
  8
SCHEME_DIMS
100
AcDbMText
 62
2
  6
CONTINUOUS
  7
STANDARD
 71
1
 72
1
 10
13.6975533097
 20
3.9970443365
 30
0.0
 11
1.0
 21
0.0
 31
0.0
 44
0.9
  1
1\P[.04]
 40
0.1
 41
0.5
  0
LINE
  5
405
100
AcDbEntity
  8
SCHEME_DIMS
100
AcDbLine
 62
2
  6
CONTINUOUS
 10
12.1750139396
 20
4.3651109021
 11
13.5725533097
 21
4.3651109021
  0
LINE
  5
406
100
AcDbEntity
  8
SCHEME_DIMS
100
AcDbLine
 62
2
  6
CONTINUOUS
 10
12.1750139396
 20
4.4044809809
 11
13.5725533097
 21
4.4044809809
  0
LINE
  5
407
100
AcDbEntity
  8
SCHEME_DIMS
100
AcDbLine
 62
2
  6
CONTINUOUS
 10
13.4475533097
 20
4.3651109021
 11
13.4475533097
 21
3.9470443365
  0
LINE
  5
408
100
AcDbEntity
  8
SCHEME_DIMS
100
AcDbLine
 62
2
  6
CONTINUOUS
 10
13.4475533097
 20
3.9470443365
 11
13.5975533097
 21
3.9470443365
  0
LINE
  5
409
100
AcDbEntity
  8
SCHEME_DIMS
100
AcDbLine
 62
2
  6
CONTINUOUS
 10
13.4475533097
 20
4.4044809809
 11
13.4475533097
 21
4.8044809809
  0
INSERT
  5
40A
100
AcDbEntity
  8
SCHEME_DIMS
100
AcDbBlockReference
 62
2
  6
CONTINUOUS
  2
_FILLED
 10
13.4475533097
 20
4.3651109021
 41
0.1875
 42
0.1875
 43
0.1875
 50
90.0
  0
INSERT
  5
40B
100
AcDbEntity
  8
SCHEME_DIMS
100
AcDbBlockReference
 62
2
  6
CONTINUOUS
  2
_FILLED
 10
13.4475533097
 20
4.4044809809
 41
0.1875
 42
0.1875
 43
0.1875
 50
270.0
  0
ENDBLK
  5
40C
100
AcDbEntity
  8
0
  6
BYBLOCK
 62
0
100
AcDbBlockEnd
  0
BLOCK
  5
40D
100
AcDbEntity
  8
SCHEME_DIMS
100
AcDbBlockBegin
 62
2
  6
CONTINUOUS
  2
*D3
 70
65
 10
0.0
 20
0.0
  3
*D3
  1

  0
MTEXT
  5
40E
100
AcDbEntity
  8
SCHEME_DIMS
100
AcDbMText
 62
2
  6
CONTINUOUS
  7
STANDARD
 71
2
 72
1
 10
13.6225533097
 20
5.336567595
 30
0.0
 11
1.0
 21
0.0
 31
0.0
 44
0.9
  1
41\P[1.61]
 40
0.1
 41
0.6
  0
LINE
  5
40F
100
AcDbEntity
  8
SCHEME_DIMS
100
AcDbLine
 62
2
  6
CONTINUOUS
 10
12.1750139396
 20
4.4044809809
 11
13.9475533097
 21
4.4044809809
  0
LINE
  5
410
100
AcDbEntity
  8
SCHEME_DIMS
100
AcDbLine
 62
2
  6
CONTINUOUS
 10
12.1750139396
 20
6.0186542092
 11
13.9475533097
 21
6.0186542092
  0
LINE
  5
411
100
AcDbEntity
  8
SCHEME_DIMS
100
AcDbLine
 62
2
  6
CONTINUOUS
 10
13.8225533097
 20
4.4044809809
 11
13.8225533097
 21
4.986567595
  0
LINE
  5
412
100
AcDbEntity
  8
SCHEME_DIMS
100
AcDbLine
 62
2
  6
CONTINUOUS
 10
13.8225533097
 20
6.0186542092
 11
13.8225533097
 21
5.436567595
  0
INSERT
  5
413
100
AcDbEntity
  8
SCHEME_DIMS
100
AcDbBlockReference
 62
2
  6
CONTINUOUS
  2
_FILLED
 10
13.8225533097
 20
4.4044809809
 41
0.1875
 42
0.1875
 43
0.1875
 50
270.0
  0
INSERT
  5
414
100
AcDbEntity
  8
SCHEME_DIMS
100
AcDbBlockReference
 62
2
  6
CONTINUOUS
  2
_FILLED
 10
13.8225533097
 20
6.0186542092
 41
0.1875
 42
0.1875
 43
0.1875
 50
90.0
  0
ENDBLK
  5
415
100
AcDbEntity
  8
0
  6
BYBLOCK
 62
0
100
AcDbBlockEnd
  0
BLOCK
  5
416
100
AcDbEntity
  8
SCHEME_DIMS
100
AcDbBlockBegin
 62
2
  6
CONTINUOUS
  2
*D4
 70
65
 10
0.0
 20
0.0
  3
*D4
  1

  0
MTEXT
  5
417
100
AcDbEntity
  8
SCHEME_DIMS
100
AcDbMText
 62
2
  6
CONTINUOUS
  7
STANDARD
 71
1
 72
1
 10
12.6297035593
 20
6.6340338633
 30
0.0
 11
1.0
 21
0.0
 31
0.0
 44
0.9
  1
2X FULL R2,3\P[.09]
 40
0.1
 41
1.2
  0
LINE
  5
418
100
AcDbEntity
  8
SCHEME_DIMS
100
AcDbLine
 62
2
  6
CONTINUOUS
 10
11.9819393004
 20
6.1249717168
 11
12.3797035593
 21
6.5840338633
  0
LINE
  5
419
100
AcDbEntity
  8
SCHEME_DIMS
100
AcDbLine
 62
2
  6
CONTINUOUS
 10
12.3797035593
 20
6.5840338633
 11
12.5297035593
 21
6.5840338633
  0
INSERT
  5
41A
100
AcDbEntity
  8
SCHEME_DIMS
100
AcDbBlockReference
 62
2
  6
CONTINUOUS
  2
_FILLED
 10
11.9819393004
 20
6.1249717168
 41
0.1875
 42
0.1875
 43
0.1875
 50
229.09200374
  0
ENDBLK
  5
41B
100
AcDbEntity
  8
0
  6
BYBLOCK
 62
0
100
AcDbBlockEnd
  0
BLOCK
  5
41C
100
AcDbEntity
  8
SCHEME_DIMS
100
AcDbBlockBegin
 62
2
  6
CONTINUOUS
  2
*D5
 70
65
 10
0.0
 20
0.0
  3
*D5
  1

  0
MTEXT
  5
41D
100
AcDbEntity
  8
SCHEME_DIMS
100
AcDbMText
 62
2
  6
CONTINUOUS
  7
TEXTSTYLE_5
 71
2
 72
1
 10
6.2118147375
 20
5.3216805134
 30
0.0
 11
1.0
 21
0.0
 31
0.0
 44
0.9
  1
{\Fgdt;n}\Ftxt;44,3\P[1.74]
 40
0.1
 41
0.6
  0
LINE
  5
41E
100
AcDbEntity
  8
SCHEME_DIMS
100
AcDbLine
 62
2
  6
CONTINUOUS
 10
7.0335543027
 20
6.0832837299
 11
6.1868147375
 21
6.0832837299
  0
LINE
  5
41F
100
AcDbEntity
  8
SCHEME_DIMS
100
AcDbLine
 62
2
  6
CONTINUOUS
 10
7.0335543027
 20
4.3398514602
 11
6.1868147375
 21
4.3398514602
  0
LINE
  5
420
100
AcDbEntity
  8
SCHEME_DIMS
100
AcDbLine
 62
2
  6
CONTINUOUS
 10
6.3118147375
 20
6.0832837299
 11
6.3118147375
 21
5.4216805134
  0
LINE
  5
421
100
AcDbEntity
  8
SCHEME_DIMS
100
AcDbLine
 62
2
  6
CONTINUOUS
 10
6.3118147375
 20
4.3398514602
 11
6.3118147375
 21
4.9716805134
  0
INSERT
  5
422
100
AcDbEntity
  8
SCHEME_DIMS
100
AcDbBlockReference
 62
2
  6
CONTINUOUS
  2
_FILLED
 10
6.3118147375
 20
6.0832837299
 41
0.1875
 42
0.1875
 43
0.1875
 50
90.0
  0
INSERT
  5
423
100
AcDbEntity
  8
SCHEME_DIMS
100
AcDbBlockReference
 62
2
  6
CONTINUOUS
  2
_FILLED
 10
6.3118147375
 20
4.3398514602
 41
0.1875
 42
0.1875
 43
0.1875
 50
270.0
  0
ENDBLK
  5
424
100
AcDbEntity
  8
0
  6
BYBLOCK
 62
0
100
AcDbBlockEnd
  0
ENDSEC
  0
SECTION
  2
ENTITIES
  0
MTEXT
  5
425
100
AcDbEntity
  8
0
100
AcDbMText
 62
2
  6
CONTINUOUS
  7
TEXTSTYLE_2
 71
2
 72
1
 10
11.0287658475
 20
1.794867839
 30
0.0
 11
1.0
 21
0.0
 31
0.0
 44
0.9
  1
THIRD ANGLE PROJECTION
 40
0.1
 41
1.76
  0
MTEXT
  5
426
100
AcDbEntity
  8
0
100
AcDbMText
 62
2
  6
CONTINUOUS
  7
STANDARD
 71
1
 72
1
 10
12.88
 20
1.457
 30
0.0
 11
1.0
 21
0.0
 31
0.0
 44
0.9
  1
DRAWING NO.
 40
0.08
 41
0.88
  0
MTEXT
  5
427
100
AcDbEntity
  8
0
100
AcDbMText
 62
2
  6
CONTINUOUS
  7
TEXTSTYLE_3
 71
2
 72
1
 10
11.03
 20
2.516432
 30
0.0
 11
1.0
 21
0.0
 31
0.0
 44
0.9
  1
and is proprietary in general
 40
0.08
 41
1.972
  0
MTEXT
  5
428
100
AcDbEntity
  8
0
100
AcDbMText
 62
2
  6
CONTINUOUS
  7
TEXTSTYLE_3
 71
2
 72
1
 10
11.03
 20
2.396432
 30
0.0
 11
1.0
 21
0.0
 31
0.0
 44
0.9
  1
and in detail.  Its contents
 40
0.08
 41
1.904
  0
MTEXT
  5
429
100
AcDbEntity
  8
0
100
AcDbMText
 62
2
  6
CONTINUOUS
  7
TEXTSTYLE_3
 71
2
 72
1
 10
11.03
 20
2.276432
 30
0.0
 11
1.0
 21
0.0
 31
0.0
 44
0.9
  1
shall not be revealed to
 40
0.08
 41
1.632
  0
MTEXT
  5
42A
100
AcDbEntity
  8
0
100
AcDbMText
 62
2
  6
CONTINUOUS
  7
TEXTSTYLE_3
 71
2
 72
1
 10
11.03
 20
2.156432
 30
0.0
 11
1.0
 21
0.0
 31
0.0
 44
0.9
  1
outside parties without
 40
0.08
 41
1.564
  0
MTEXT
  5
42B
100
AcDbEntity
  8
0
100
AcDbMText
 62
2
  6
CONTINUOUS
  7
TEXTSTYLE_3
 71
2
 72
1
 10
11.03
 20
2.036432
 30
0.0
 11
1.0
 21
0.0
 31
0.0
 44
0.9
  1
written consent of BANNER.
 40
0.08
 41
1.768
  0
MTEXT
  5
42C
100
AcDbEntity
  8
0
100
AcDbMText
 62
2
  6
CONTINUOUS
  7
TEXTSTYLE_2
 71
1
 72
1
 10
12.08
 20
2.217
 30
0.0
 11
1.0
 21
0.0
 31
0.0
 44
0.9
  1
TITLE
 40
0.1
 41
0.4
  0
MTEXT
  5
42D
100
AcDbEntity
  8
0
100
AcDbMText
 62
2
  6
CONTINUOUS
  7
STANDARD
 71
1
 72
1
 10
12.08
 20
1.457
 30
0.0
 11
1.0
 21
0.0
 31
0.0
 44
0.9
  1
SIZE
 40
0.08
 41
0.32
  0
MTEXT
  5
42E
100
AcDbEntity
  8
0
100
AcDbMText
 62
2
  6
CONTINUOUS
  7
STANDARD
 71
1
 72
1
 10
12.08
 20
1.087
 30
0.0
 11
1.0
 21
0.0
 31
0.0
 44
0.9
  1
SCALE
 40
0.08
 41
0.4
  0
MTEXT
  5
42F
100
AcDbEntity
  8
0
100
AcDbMText
 62
2
  6
CONTINUOUS
  7
TEXTSTYLE_2
 71
2
 72
1
 10
12.5
 20
1.337
 30
0.0
 11
1.0
 21
0.0
 31
0.0
 44
0.9
  1
B
 40
0.1
 41
0.08
  0
MTEXT
  5
430
100
AcDbEntity
  8
0
100
AcDbMText
 62
2
  6
CONTINUOUS
  7
TEXTSTYLE_3
 71
2
 72
1
 10
11.03
 20
2.636432
 30
0.0
 11
1.0
 21
0.0
 31
0.0
 44
0.9
  1
of BANNER ENGINEERING CORP.
 40
0.08
 41
1.836
  0
MTEXT
  5
431
100
AcDbEntity
  8
0
100
AcDbMText
 62
2
  6
CONTINUOUS
  7
TEXTSTYLE_3
 71
2
 72
1
 10
11.03
 20
2.756432
 30
0.0
 11
1.0
 21
0.0
 31
0.0
 44
0.9
  1
This drawing is the property
 40
0.08
 41
1.904
  0
MTEXT
  5
432
100
AcDbEntity
  8
0
100
AcDbMText
 62
2
  6
CONTINUOUS
  7
TEXTSTYLE_2
 71
2
 72
1
 10
15.03
 20
2.4134
 30
0.0
 11
1.0
 21
0.0
 31
0.0
 44
0.9
  1
MINNEAPOLIS, MN 55440
 40
0.1
 41
1.68
  0
MTEXT
  5
433
100
AcDbEntity
  8
0
100
AcDbMText
 62
2
  6
CONTINUOUS
  7
STANDARD
 71
1
 72
1
 10
14.255
 20
1.087
 30
0.0
 11
1.0
 21
0.0
 31
0.0
 44
0.9
  1
SHEET
 40
0.08
 41
0.4
  0
MTEXT
  5
434
100
AcDbEntity
  8
0
100
AcDbMText
 62
2
  6
CONTINUOUS
  7
STANDARD
 71
1
 72
1
 10
15.63
 20
1.457
 30
0.0
 11
1.0
 21
0.0
 31
0.0
 44
0.9
  1
REV.
 40
0.08
 41
0.32
  0
MTEXT
  5
435
100
AcDbEntity
  8
0
100
AcDbMText
 62
2
  6
CONTINUOUS
  7
STANDARD
 71
3
 72
1
 10
16.38
 20
0.835443
 30
0.0
 11
1.0
 21
0.0
 31
0.0
 44
0.9
  1
PRO/E
 40
0.07
 41
0.35
  0
MTEXT
  5
436
100
AcDbEntity
  8
0
100
AcDbMText
 62
2
  6
CONTINUOUS
  7
TEXTSTYLE_4
 71
2
 72
1
 10
15.03
 20
2.751049
 30
0.0
 11
1.0
 21
0.0
 31
0.0
 44
0.9
  1
BANNER ENGINEERING CORP.
 40
0.12
 41
2.6496
  0
MTEXT
  5
437
100
AcDbEntity
  8
0
100
AcDbMText
 62
2
  6
CONTINUOUS
  7
TEXTSTYLE_2
 71
2
 72
1
 10
15.03
 20
2.5724
 30
0.0
 11
1.0
 21
0.0
 31
0.0
 44
0.9
  1
P.O. BOX 9414
 40
0.1
 41
1.04
  0
MTEXT
  5
438
100
AcDbEntity
  8
0
100
AcDbMText
 62
2
  6
CONTINUOUS
  7
TEXTSTYLE_2
 71
2
 72
1
 10
9.485
 20
10.312
 30
0.0
 11
1.0
 21
0.0
 31
0.0
 44
0.9
  1
4
 40
0.1
 41
0.08
  0
MTEXT
  5
439
100
AcDbEntity
  8
0
100
AcDbMText
 62
2
  6
CONTINUOUS
  7
TEXTSTYLE_2
 71
2
 72
1
 10
11.455
 20
10.312
 30
0.0
 11
1.0
 21
0.0
 31
0.0
 44
0.9
  1
3
 40
0.1
 41
0.08
  0
MTEXT
  5
43A
100
AcDbEntity
  8
0
100
AcDbMText
 62
2
  6
CONTINUOUS
  7
TEXTSTYLE_2
 71
2
 72
1
 10
13.425
 20
10.312
 30
0.0
 11
1.0
 21
0.0
 31
0.0
 44
0.9
  1
2
 40
0.1
 41
0.08
  0
MTEXT
  5
43B
100
AcDbEntity
  8
0
100
AcDbMText
 62
2
  6
CONTINUOUS
  7
TEXTSTYLE_2
 71
2
 72
1
 10
15.395
 20
10.312
 30
0.0
 11
1.0
 21
0.0
 31
0.0
 44
0.9
  1
1
 40
0.1
 41
0.08
  0
MTEXT
  5
43C
100
AcDbEntity
  8
0
100
AcDbMText
 62
2
  6
CONTINUOUS
  7
TEXTSTYLE_2
 71
2
 72
1
 10
3.575
 20
10.312
 30
0.0
 11
1.0
 21
0.0
 31
0.0
 44
0.9
  1
7
 40
0.1
 41
0.08
  0
MTEXT
  5
43D
100
AcDbEntity
  8
0
100
AcDbMText
 62
2
  6
CONTINUOUS
  7
TEXTSTYLE_2
 71
2
 72
1
 10
5.545
 20
10.312
 30
0.0
 11
1.0
 21
0.0
 31
0.0
 44
0.9
  1
6
 40
0.1
 41
0.08
  0
MTEXT
  5
43E
100
AcDbEntity
  8
0
100
AcDbMText
 62
2
  6
CONTINUOUS
  7
TEXTSTYLE_2
 71
2
 72
1
 10
7.515
 20
10.312
 30
0.0
 11
1.0
 21
0.0
 31
0.0
 44
0.9
  1
5
 40
0.1
 41
0.08
  0
MTEXT
  5
43F
100
AcDbEntity
  8
0
100
AcDbMText
 62
2
  6
CONTINUOUS
  7
TEXTSTYLE_2
 71
2
 72
1
 10
1.605
 20
10.312
 30
0.0
 11
1.0
 21
0.0
 31
0.0
 44
0.9
  1
8
 40
0.1
 41
0.08
  0
MTEXT
  5
440
100
AcDbEntity
  8
0
100
AcDbMText
 62
2
  6
CONTINUOUS
  7
TEXTSTYLE_2
 71
2
 72
1
 10
1.605
 20
0.787
 30
0.0
 11
1.0
 21
0.0
 31
0.0
 44
0.9
  1
8
 40
0.1
 41
0.08
  0
MTEXT
  5
441
100
AcDbEntity
  8
0
100
AcDbMText
 62
2
  6
CONTINUOUS
  7
TEXTSTYLE_2
 71
2
 72
1
 10
3.575
 20
0.787
 30
0.0
 11
1.0
 21
0.0
 31
0.0
 44
0.9
  1
7
 40
0.1
 41
0.08
  0
MTEXT
  5
442
100
AcDbEntity
  8
0
100
AcDbMText
 62
2
  6
CONTINUOUS
  7
TEXTSTYLE_2
 71
2
 72
1
 10
5.545
 20
0.787
 30
0.0
 11
1.0
 21
0.0
 31
0.0
 44
0.9
  1
6
 40
0.1
 41
0.08
  0
MTEXT
  5
443
100
AcDbEntity
  8
0
100
AcDbMText
 62
2
  6
CONTINUOUS
  7
TEXTSTYLE_2
 71
2
 72
1
 10
7.515
 20
0.787
 30
0.0
 11
1.0
 21
0.0
 31
0.0
 44
0.9
  1
5
 40
0.1
 41
0.08
  0
MTEXT
  5
444
100
AcDbEntity
  8
0
100
AcDbMText
 62
2
  6
CONTINUOUS
  7
TEXTSTYLE_2
 71
2
 72
1
 10
9.485
 20
0.787
 30
0.0
 11
1.0
 21
0.0
 31
0.0
 44
0.9
  1
4
 40
0.1
 41
0.08
  0
MTEXT
  5
445
100
AcDbEntity
  8
0
100
AcDbMText
 62
2
  6
CONTINUOUS
  7
TEXTSTYLE_2
 71
2
 72
1
 10
11.455
 20
0.787
 30
0.0
 11
1.0
 21
0.0
 31
0.0
 44
0.9
  1
3
 40
0.1
 41
0.08
  0
MTEXT
  5
446
100
AcDbEntity
  8
0
100
AcDbMText
 62
2
  6
CONTINUOUS
  7
TEXTSTYLE_2
 71
2
 72
1
 10
13.425
 20
0.787
 30
0.0
 11
1.0
 21
0.0
 31
0.0
 44
0.9
  1
2
 40
0.1
 41
0.08
  0
MTEXT
  5
447
100
AcDbEntity
  8
0
100
AcDbMText
 62
2
  6
CONTINUOUS
  7
TEXTSTYLE_2
 71
2
 72
1
 10
15.395
 20
0.787
 30
0.0
 11
1.0
 21
0.0
 31
0.0
 44
0.9
  1
1
 40
0.1
 41
0.08
  0
MTEXT
  5
448
100
AcDbEntity
  8
0
100
AcDbMText
 62
2
  6
CONTINUOUS
  7
TEXTSTYLE_2
 71
3
 72
1
 10
0.52
 20
4.3995
 30
0.0
 11
1.0
 21
0.0
 31
0.0
 44
0.9
  1
B
 40
0.1
 41
0.08
  0
MTEXT
  5
449
100
AcDbEntity
  8
0
100
AcDbMText
 62
2
  6
CONTINUOUS
  7
TEXTSTYLE_2
 71
3
 72
1
 10
0.52
 20
2.0995
 30
0.0
 11
1.0
 21
0.0
 31
0.0
 44
0.9
  1
A
 40
0.1
 41
0.08
  0
MTEXT
  5
44A
100
AcDbEntity
  8
0
100
AcDbMText
 62
2
  6
CONTINUOUS
  7
TEXTSTYLE_2
 71
3
 72
1
 10
0.52
 20
8.9995
 30
0.0
 11
1.0
 21
0.0
 31
0.0
 44
0.9
  1
D
 40
0.1
 41
0.08
  0
MTEXT
  5
44B
100
AcDbEntity
  8
0
100
AcDbMText
 62
2
  6
CONTINUOUS
  7
TEXTSTYLE_2
 71
3
 72
1
 10
0.52
 20
6.6995
 30
0.0
 11
1.0
 21
0.0
 31
0.0
 44
0.9
  1
C
 40
0.1
 41
0.08
  0
MTEXT
  5
44C
100
AcDbEntity
  8
0
100
AcDbMText
 62
2
  6
CONTINUOUS
  7
TEXTSTYLE_2
 71
1
 72
1
 10
16.48
 20
8.9995
 30
0.0
 11
1.0
 21
0.0
 31
0.0
 44
0.9
  1
D
 40
0.1
 41
0.08
  0
MTEXT
  5
44D
100
AcDbEntity
  8
0
100
AcDbMText
 62
2
  6
CONTINUOUS
  7
TEXTSTYLE_2
 71
1
 72
1
 10
16.48
 20
6.6995
 30
0.0
 11
1.0
 21
0.0
 31
0.0
 44
0.9
  1
C
 40
0.1
 41
0.08
  0
MTEXT
  5
44E
100
AcDbEntity
  8
0
100
AcDbMText
 62
2
  6
CONTINUOUS
  7
TEXTSTYLE_2
 71
1
 72
1
 10
16.48
 20
4.3995
 30
0.0
 11
1.0
 21
0.0
 31
0.0
 44
0.9
  1
B
 40
0.1
 41
0.08
  0
MTEXT
  5
44F
100
AcDbEntity
  8
0
100
AcDbMText
 62
2
  6
CONTINUOUS
  7
TEXTSTYLE_2
 71
1
 72
1
 10
16.48
 20
2.0995
 30
0.0
 11
1.0
 21
0.0
 31
0.0
 44
0.9
  1
A
 40
0.1
 41
0.08
  0
MTEXT
  5
450
100
AcDbEntity
  8
0
100
AcDbMText
 62
2
  6
CONTINUOUS
  7
STANDARD
 71
1
 72
1
 10
14.819264911
 20
1.0627941725
 30
0.0
 11
1.0
 21
0.0
 31
0.0
 44
0.9
  1
1 OF 1
 40
0.1
 41
0.6
  0
MTEXT
  5
451
100
AcDbEntity
  8
0
100
AcDbMText
 62
7
  6
CONTINUOUS
  7
STANDARD
 71
1
 72
1
 10
13.8911999818
 20
1.3747321586
 30
0.0
 11
1.0
 21
0.0
 31
0.0
 44
0.9
  1
164283
 40
0.12
 41
0.72
  0
MTEXT
  5
452
100
AcDbEntity
  8
0
100
AcDbMText
 62
2
  6
CONTINUOUS
  7
STANDARD
 71
1
 72
1
 10
12.644264911
 20
1.0627941725
 30
0.0
 11
1.0
 21
0.0
 31
0.0
 44
0.9
  1
1:1
 40
0.1
 41
0.3
  0
MTEXT
  5
453
100
AcDbEntity
  8
0
100
AcDbMText
 62
2
  6
CONTINUOUS
  7
STANDARD
 71
1
 72
1
 10
1.0597007627
 20
1.6202922458
 30
0.0
 11
1.0
 21
0.0
 31
0.0
 44
0.9
  1
NOTES:\P1. ALL DIMENSIONS ARE MILLIMETERS [INCHES] UNLESS OTHERWISE NOTED.
 40
0.1
 41
6.6
  0
INSERT
  5
454
100
AcDbEntity
  8
0
100
AcDbBlockReference
 62
2
  6
CONTINUOUS
  2
BANNER_LOGO_TITLEBLOCK_BL0
 10
12.9086867042
 20
2.5403783405
  0
LINE
  5
455
100
AcDbEntity
  8
0
100
AcDbLine
 62
7
  6
CONTINUOUS
 10
7.3244007594
 20
5.7731030281
 11
7.3322747751
 21
5.7731030281
  0
LINE
  5
456
100
AcDbEntity
  8
0
100
AcDbLine
 62
7
  6
CONTINUOUS
 10
7.3244007594
 20
5.7731030281
 11
7.2988102082
 21
5.817427163
  0
LINE
  5
457
100
AcDbEntity
  8
0
100
AcDbLine
 62
7
  6
CONTINUOUS
 10
7.2988102082
 20
5.817427163
 11
7.2783547188
 21
5.781997216
  0
LINE
  5
458
100
AcDbEntity
  8
0
100
AcDbLine
 62
7
  6
CONTINUOUS
 10
7.2783547188
 20
5.781997216
 11
7.2528471903
 21
5.7947509802
  0
LINE
  5
459
100
AcDbEntity
  8
0
100
AcDbLine
 62
7
  6
CONTINUOUS
 10
7.2528471903
 20
5.7947509802
 11
7.2397550901
 21
5.817427163
  0
LINE
  5
45A
100
AcDbEntity
  8
0
100
AcDbLine
 62
7
  6
CONTINUOUS
 10
7.2397550901
 20
5.817427163
 11
7.2325284926
 21
5.804910329
  0
LINE
  5
45B
100
AcDbEntity
  8
0
100
AcDbLine
 62
7
  6
CONTINUOUS
 10
7.2325284926
 20
5.804910329
 11
7.1780328583
 21
5.8321581462
  0
LINE
  5
45C
100
AcDbEntity
  8
0
100
AcDbLine
 62
7
  6
CONTINUOUS
 10
7.1780328583
 20
5.8611738943
 11
7.1780328583
 21
5.8321581462
  0
LINE
  5
45D
100
AcDbEntity
  8
0
100
AcDbLine
 62
7
  6
CONTINUOUS
 10
8.0409361924
 20
5.8611738943
 11
7.1780328583
 21
5.8611738943
  0
LINE
  5
45E
100
AcDbEntity
  8
0
100
AcDbLine
 62
7
  6
CONTINUOUS
 10
8.0409361924
 20
5.930071532
 11
8.0409361924
 21
5.8611738943
  0
LINE
  5
45F
100
AcDbEntity
  8
0
100
AcDbLine
 62
7
  6
CONTINUOUS
 10
8.2771566649
 20
5.930071532
 11
8.0409361924
 21
5.930071532
  0
LINE
  5
460
100
AcDbEntity
  8
0
100
AcDbLine
 62
7
  6
CONTINUOUS
 10
8.2771566649
 20
5.930071532
 11
8.2771566649
 21
5.7731030281
  0
LINE
  5
461
100
AcDbEntity
  8
0
100
AcDbLine
 62
7
  6
CONTINUOUS
 10
8.2692826491
 20
5.7731030281
 11
8.2771566649
 21
5.7731030281
  0
LINE
  5
462
100
AcDbEntity
  8
0
100
AcDbLine
 62
7
  6
CONTINUOUS
 10
8.2692826491
 20
5.7731030281
 11
8.2436920979
 21
5.817427163
  0
LINE
  5
463
100
AcDbEntity
  8
0
100
AcDbLine
 62
7
  6
CONTINUOUS
 10
8.2436920979
 20
5.817427163
 11
8.2181015468
 21
5.7731030281
  0
LINE
  5
464
100
AcDbEntity
  8
0
100
AcDbLine
 62
7
  6
CONTINUOUS
 10
8.210227531
 20
5.7731030281
 11
8.2181015468
 21
5.7731030281
  0
LINE
  5
465
100
AcDbEntity
  8
0
100
AcDbLine
 62
7
  6
CONTINUOUS
 10
8.210227531
 20
5.7731030281
 11
8.1846369798
 21
5.817427163
  0
LINE
  5
466
100
AcDbEntity
  8
0
100
AcDbLine
 62
7
  6
CONTINUOUS
 10
8.1846369798
 20
5.817427163
 11
8.1590464286
 21
5.7731030281
  0
LINE
  5
467
100
AcDbEntity
  8
0
100
AcDbLine
 62
7
  6
CONTINUOUS
 10
8.1511724129
 20
5.7731030281
 11
8.1590464286
 21
5.7731030281
  0
LINE
  5
468
100
AcDbEntity
  8
0
100
AcDbLine
 62
7
  6
CONTINUOUS
 10
8.1511724129
 20
5.7731030281
 11
8.1255818617
 21
5.817427163
  0
LINE
  5
469
100
AcDbEntity
  8
0
100
AcDbLine
 62
7
  6
CONTINUOUS
 10
8.1255818617
 20
5.817427163
 11
8.0999913105
 21
5.7731030281
  0
LINE
  5
46A
100
AcDbEntity
  8
0
100
AcDbLine
 62
7
  6
CONTINUOUS
 10
8.0921172948
 20
5.7731030281
 11
8.0999913105
 21
5.7731030281
  0
LINE
  5
46B
100
AcDbEntity
  8
0
100
AcDbLine
 62
7
  6
CONTINUOUS
 10
8.0921172948
 20
5.7731030281
 11
8.0665267436
 21
5.817427163
  0
LINE
  5
46C
100
AcDbEntity
  8
0
100
AcDbLine
 62
7
  6
CONTINUOUS
 10
8.0665267436
 20
5.817427163
 11
8.0409361924
 21
5.7731030281
  0
LINE
  5
46D
100
AcDbEntity
  8
0
100
AcDbLine
 62
7
  6
CONTINUOUS
 10
8.0330621767
 20
5.7731030281
 11
8.0409361924
 21
5.7731030281
  0
LINE
  5
46E
100
AcDbEntity
  8
0
100
AcDbLine
 62
7
  6
CONTINUOUS
 10
8.0330621767
 20
5.7731030281
 11
8.0074716255
 21
5.817427163
  0
LINE
  5
46F
100
AcDbEntity
  8
0
100
AcDbLine
 62
7
  6
CONTINUOUS
 10
8.0074716255
 20
5.817427163
 11
7.9818810743
 21
5.7731030281
  0
LINE
  5
470
100
AcDbEntity
  8
0
100
AcDbLine
 62
7
  6
CONTINUOUS
 10
7.9740070586
 20
5.7731030281
 11
7.9818810743
 21
5.7731030281
  0
LINE
  5
471
100
AcDbEntity
  8
0
100
AcDbLine
 62
7
  6
CONTINUOUS
 10
7.9740070586
 20
5.7731030281
 11
7.9484165074
 21
5.817427163
  0
LINE
  5
472
100
AcDbEntity
  8
0
100
AcDbLine
 62
7
  6
CONTINUOUS
 10
7.9484165074
 20
5.817427163
 11
7.9228259562
 21
5.7731030281
  0
LINE
  5
473
100
AcDbEntity
  8
0
100
AcDbLine
 62
7
  6
CONTINUOUS
 10
7.9149519405
 20
5.7731030281
 11
7.9228259562
 21
5.7731030281
  0
LINE
  5
474
100
AcDbEntity
  8
0
100
AcDbLine
 62
7
  6
CONTINUOUS
 10
7.9149519405
 20
5.7731030281
 11
7.8893613893
 21
5.817427163
  0
LINE
  5
475
100
AcDbEntity
  8
0
100
AcDbLine
 62
7
  6
CONTINUOUS
 10
7.8893613893
 20
5.817427163
 11
7.8637708381
 21
5.7731030281
  0
LINE
  5
476
100
AcDbEntity
  8
0
100
AcDbLine
 62
7
  6
CONTINUOUS
 10
7.8558968223
 20
5.7731030281
 11
7.8637708381
 21
5.7731030281
  0
LINE
  5
477
100
AcDbEntity
  8
0
100
AcDbLine
 62
7
  6
CONTINUOUS
 10
7.8558968223
 20
5.7731030281
 11
7.8303062712
 21
5.817427163
  0
LINE
  5
478
100
AcDbEntity
  8
0
100
AcDbLine
 62
7
  6
CONTINUOUS
 10
7.8303062712
 20
5.817427163
 11
7.80471572
 21
5.7731030281
  0
LINE
  5
479
100
AcDbEntity
  8
0
100
AcDbLine
 62
7
  6
CONTINUOUS
 10
7.7968417042
 20
5.7731030281
 11
7.80471572
 21
5.7731030281
  0
LINE
  5
47A
100
AcDbEntity
  8
0
100
AcDbLine
 62
7
  6
CONTINUOUS
 10
7.7968417042
 20
5.7731030281
 11
7.7712511531
 21
5.817427163
  0
LINE
  5
47B
100
AcDbEntity
  8
0
100
AcDbLine
 62
7
  6
CONTINUOUS
 10
7.7712511531
 20
5.817427163
 11
7.7456606019
 21
5.7731030281
  0
LINE
  5
47C
100
AcDbEntity
  8
0
100
AcDbLine
 62
7
  6
CONTINUOUS
 10
7.7377865861
 20
5.7731030281
 11
7.7456606019
 21
5.7731030281
  0
LINE
  5
47D
100
AcDbEntity
  8
0
100
AcDbLine
 62
7
  6
CONTINUOUS
 10
7.7377865861
 20
5.7731030281
 11
7.7121960349
 21
5.817427163
  0
LINE
  5
47E
100
AcDbEntity
  8
0
100
AcDbLine
 62
7
  6
CONTINUOUS
 10
7.7121960349
 20
5.817427163
 11
7.6866054838
 21
5.7731030281
  0
LINE
  5
47F
100
AcDbEntity
  8
0
100
AcDbLine
 62
7
  6
CONTINUOUS
 10
7.678731468
 20
5.7731030281
 11
7.6866054838
 21
5.7731030281
  0
LINE
  5
480
100
AcDbEntity
  8
0
100
AcDbLine
 62
7
  6
CONTINUOUS
 10
7.678731468
 20
5.7731030281
 11
7.6531409168
 21
5.817427163
  0
LINE
  5
481
100
AcDbEntity
  8
0
100
AcDbLine
 62
7
  6
CONTINUOUS
 10
7.6531409168
 20
5.817427163
 11
7.6275503657
 21
5.7731030281
  0
LINE
  5
482
100
AcDbEntity
  8
0
100
AcDbLine
 62
7
  6
CONTINUOUS
 10
7.6196763499
 20
5.7731030281
 11
7.6275503657
 21
5.7731030281
  0
LINE
  5
483
100
AcDbEntity
  8
0
100
AcDbLine
 62
7
  6
CONTINUOUS
 10
7.6196763499
 20
5.7731030281
 11
7.5940857987
 21
5.817427163
  0
LINE
  5
484
100
AcDbEntity
  8
0
100
AcDbLine
 62
7
  6
CONTINUOUS
 10
7.5940857987
 20
5.817427163
 11
7.5684952475
 21
5.7731030281
  0
LINE
  5
485
100
AcDbEntity
  8
0
100
AcDbLine
 62
7
  6
CONTINUOUS
 10
7.5606212318
 20
5.7731030281
 11
7.5684952475
 21
5.7731030281
  0
LINE
  5
486
100
AcDbEntity
  8
0
100
AcDbLine
 62
7
  6
CONTINUOUS
 10
7.5606212318
 20
5.7731030281
 11
7.5350306806
 21
5.817427163
  0
LINE
  5
487
100
AcDbEntity
  8
0
100
AcDbLine
 62
7
  6
CONTINUOUS
 10
7.5350306806
 20
5.817427163
 11
7.5094401294
 21
5.7731030281
  0
LINE
  5
488
100
AcDbEntity
  8
0
100
AcDbLine
 62
7
  6
CONTINUOUS
 10
7.5015661137
 20
5.7731030281
 11
7.5094401294
 21
5.7731030281
  0
LINE
  5
489
100
AcDbEntity
  8
0
100
AcDbLine
 62
7
  6
CONTINUOUS
 10
7.5015661137
 20
5.7731030281
 11
7.4759755625
 21
5.817427163
  0
LINE
  5
48A
100
AcDbEntity
  8
0
100
AcDbLine
 62
7
  6
CONTINUOUS
 10
7.4759755625
 20
5.817427163
 11
7.4503850113
 21
5.7731030281
  0
LINE
  5
48B
100
AcDbEntity
  8
0
100
AcDbLine
 62
7
  6
CONTINUOUS
 10
7.4425109956
 20
5.7731030281
 11
7.4503850113
 21
5.7731030281
  0
LINE
  5
48C
100
AcDbEntity
  8
0
100
AcDbLine
 62
7
  6
CONTINUOUS
 10
7.4425109956
 20
5.7731030281
 11
7.4169204444
 21
5.817427163
  0
LINE
  5
48D
100
AcDbEntity
  8
0
100
AcDbLine
 62
7
  6
CONTINUOUS
 10
7.4169204444
 20
5.817427163
 11
7.3913298932
 21
5.7731030281
  0
LINE
  5
48E
100
AcDbEntity
  8
0
100
AcDbLine
 62
7
  6
CONTINUOUS
 10
7.3834558775
 20
5.7731030281
 11
7.3913298932
 21
5.7731030281
  0
LINE
  5
48F
100
AcDbEntity
  8
0
100
AcDbLine
 62
7
  6
CONTINUOUS
 10
7.3834558775
 20
5.7731030281
 11
7.3578653263
 21
5.817427163
  0
LINE
  5
490
100
AcDbEntity
  8
0
100
AcDbLine
 62
7
  6
CONTINUOUS
 10
7.3578653263
 20
5.817427163
 11
7.3322747751
 21
5.7731030281
  0
LINE
  5
491
100
AcDbEntity
  8
0
100
AcDbLine
 62
7
  6
CONTINUOUS
 10
7.3539283184
 20
4.650032162
 11
7.3618023342
 21
4.650032162
  0
LINE
  5
492
100
AcDbEntity
  8
0
100
AcDbLine
 62
7
  6
CONTINUOUS
 10
7.3618023342
 20
4.650032162
 11
7.3873928853
 21
4.6057080271
  0
LINE
  5
493
100
AcDbEntity
  8
0
100
AcDbLine
 62
7
  6
CONTINUOUS
 10
7.3873928853
 20
4.6057080271
 11
7.4129834365
 21
4.650032162
  0
LINE
  5
494
100
AcDbEntity
  8
0
100
AcDbLine
 62
7
  6
CONTINUOUS
 10
7.4129834365
 20
4.650032162
 11
7.4208574523
 21
4.650032162
  0
LINE
  5
495
100
AcDbEntity
  8
0
100
AcDbLine
 62
7
  6
CONTINUOUS
 10
7.4208574523
 20
4.650032162
 11
7.4464480035
 21
4.6057080271
  0
LINE
  5
496
100
AcDbEntity
  8
0
100
AcDbLine
 62
7
  6
CONTINUOUS
 10
7.4464480035
 20
4.6057080271
 11
7.4720385546
 21
4.650032162
  0
LINE
  5
497
100
AcDbEntity
  8
0
100
AcDbLine
 62
7
  6
CONTINUOUS
 10
7.4720385546
 20
4.650032162
 11
7.4799125704
 21
4.650032162
  0
LINE
  5
498
100
AcDbEntity
  8
0
100
AcDbLine
 62
7
  6
CONTINUOUS
 10
7.4799125704
 20
4.650032162
 11
7.5055031216
 21
4.6057080271
  0
LINE
  5
499
100
AcDbEntity
  8
0
100
AcDbLine
 62
7
  6
CONTINUOUS
 10
7.5055031216
 20
4.6057080271
 11
7.5310936727
 21
4.650032162
  0
LINE
  5
49A
100
AcDbEntity
  8
0
100
AcDbLine
 62
7
  6
CONTINUOUS
 10
7.5310936727
 20
4.650032162
 11
7.5389676885
 21
4.650032162
  0
LINE
  5
49B
100
AcDbEntity
  8
0
100
AcDbLine
 62
7
  6
CONTINUOUS
 10
7.5389676885
 20
4.650032162
 11
7.5645582397
 21
4.6057080271
  0
LINE
  5
49C
100
AcDbEntity
  8
0
100
AcDbLine
 62
7
  6
CONTINUOUS
 10
7.5645582397
 20
4.6057080271
 11
7.5901487909
 21
4.650032162
  0
LINE
  5
49D
100
AcDbEntity
  8
0
100
AcDbLine
 62
7
  6
CONTINUOUS
 10
7.5901487909
 20
4.650032162
 11
7.5980228066
 21
4.650032162
  0
LINE
  5
49E
100
AcDbEntity
  8
0
100
AcDbLine
 62
7
  6
CONTINUOUS
 10
7.5980228066
 20
4.650032162
 11
7.6236133578
 21
4.6057080271
  0
LINE
  5
49F
100
AcDbEntity
  8
0
100
AcDbLine
 62
7
  6
CONTINUOUS
 10
7.6236133578
 20
4.6057080271
 11
7.649203909
 21
4.650032162
  0
LINE
  5
4A0
100
AcDbEntity
  8
0
100
AcDbLine
 62
7
  6
CONTINUOUS
 10
7.649203909
 20
4.650032162
 11
7.6570779247
 21
4.650032162
  0
LINE
  5
4A1
100
AcDbEntity
  8
0
100
AcDbLine
 62
7
  6
CONTINUOUS
 10
7.6570779247
 20
4.650032162
 11
7.6826684759
 21
4.6057080271
  0
LINE
  5
4A2
100
AcDbEntity
  8
0
100
AcDbLine
 62
7
  6
CONTINUOUS
 10
7.6826684759
 20
4.6057080271
 11
7.7082590271
 21
4.650032162
  0
LINE
  5
4A3
100
AcDbEntity
  8
0
100
AcDbLine
 62
7
  6
CONTINUOUS
 10
7.7082590271
 20
4.650032162
 11
7.7161330428
 21
4.650032162
  0
LINE
  5
4A4
100
AcDbEntity
  8
0
100
AcDbLine
 62
7
  6
CONTINUOUS
 10
7.7161330428
 20
4.650032162
 11
7.741723594
 21
4.6057080271
  0
LINE
  5
4A5
100
AcDbEntity
  8
0
100
AcDbLine
 62
7
  6
CONTINUOUS
 10
7.741723594
 20
4.6057080271
 11
7.7673141452
 21
4.650032162
  0
LINE
  5
4A6
100
AcDbEntity
  8
0
100
AcDbLine
 62
7
  6
CONTINUOUS
 10
7.7673141452
 20
4.650032162
 11
7.7751881609
 21
4.650032162
  0
LINE
  5
4A7
100
AcDbEntity
  8
0
100
AcDbLine
 62
7
  6
CONTINUOUS
 10
7.7751881609
 20
4.650032162
 11
7.8007787121
 21
4.6057080271
  0
LINE
  5
4A8
100
AcDbEntity
  8
0
100
AcDbLine
 62
7
  6
CONTINUOUS
 10
7.8007787121
 20
4.6057080271
 11
7.8263692633
 21
4.650032162
  0
LINE
  5
4A9
100
AcDbEntity
  8
0
100
AcDbLine
 62
7
  6
CONTINUOUS
 10
7.8263692633
 20
4.650032162
 11
7.834243279
 21
4.650032162
  0
LINE
  5
4AA
100
AcDbEntity
  8
0
100
AcDbLine
 62
7
  6
CONTINUOUS
 10
7.834243279
 20
4.650032162
 11
7.8598338302
 21
4.6057080271
  0
LINE
  5
4AB
100
AcDbEntity
  8
0
100
AcDbLine
 62
7
  6
CONTINUOUS
 10
7.8598338302
 20
4.6057080271
 11
7.8854243814
 21
4.650032162
  0
LINE
  5
4AC
100
AcDbEntity
  8
0
100
AcDbLine
 62
7
  6
CONTINUOUS
 10
7.8854243814
 20
4.650032162
 11
7.8932983972
 21
4.650032162
  0
LINE
  5
4AD
100
AcDbEntity
  8
0
100
AcDbLine
 62
7
  6
CONTINUOUS
 10
7.8932983972
 20
4.650032162
 11
7.9188889483
 21
4.6057080271
  0
LINE
  5
4AE
100
AcDbEntity
  8
0
100
AcDbLine
 62
7
  6
CONTINUOUS
 10
7.9188889483
 20
4.6057080271
 11
7.9444794995
 21
4.650032162
  0
LINE
  5
4AF
100
AcDbEntity
  8
0
100
AcDbLine
 62
7
  6
CONTINUOUS
 10
7.9444794995
 20
4.650032162
 11
7.9523535153
 21
4.650032162
  0
LINE
  5
4B0
100
AcDbEntity
  8
0
100
AcDbLine
 62
7
  6
CONTINUOUS
 10
7.9523535153
 20
4.650032162
 11
7.9779440664
 21
4.6057080271
  0
LINE
  5
4B1
100
AcDbEntity
  8
0
100
AcDbLine
 62
7
  6
CONTINUOUS
 10
7.9779440664
 20
4.6057080271
 11
8.0035346176
 21
4.650032162
  0
LINE
  5
4B2
100
AcDbEntity
  8
0
100
AcDbLine
 62
7
  6
CONTINUOUS
 10
8.0035346176
 20
4.650032162
 11
8.0114086334
 21
4.650032162
  0
LINE
  5
4B3
100
AcDbEntity
  8
0
100
AcDbLine
 62
7
  6
CONTINUOUS
 10
8.0114086334
 20
4.650032162
 11
8.0369991846
 21
4.6057080271
  0
LINE
  5
4B4
100
AcDbEntity
  8
0
100
AcDbLine
 62
7
  6
CONTINUOUS
 10
8.0369991846
 20
4.6057080271
 11
8.0625897357
 21
4.650032162
  0
LINE
  5
4B5
100
AcDbEntity
  8
0
100
AcDbLine
 62
7
  6
CONTINUOUS
 10
8.0625897357
 20
4.650032162
 11
8.0704637515
 21
4.650032162
  0
LINE
  5
4B6
100
AcDbEntity
  8
0
100
AcDbLine
 62
7
  6
CONTINUOUS
 10
8.0704637515
 20
4.650032162
 11
8.0960543027
 21
4.6057080271
  0
LINE
  5
4B7
100
AcDbEntity
  8
0
100
AcDbLine
 62
7
  6
CONTINUOUS
 10
8.0960543027
 20
4.6057080271
 11
8.1216448538
 21
4.650032162
  0
LINE
  5
4B8
100
AcDbEntity
  8
0
100
AcDbLine
 62
7
  6
CONTINUOUS
 10
8.1216448538
 20
4.650032162
 11
8.1295188696
 21
4.650032162
  0
LINE
  5
4B9
100
AcDbEntity
  8
0
100
AcDbLine
 62
7
  6
CONTINUOUS
 10
8.1295188696
 20
4.650032162
 11
8.1551094208
 21
4.6057080271
  0
LINE
  5
4BA
100
AcDbEntity
  8
0
100
AcDbLine
 62
7
  6
CONTINUOUS
 10
8.1551094208
 20
4.6057080271
 11
8.180699972
 21
4.650032162
  0
LINE
  5
4BB
100
AcDbEntity
  8
0
100
AcDbLine
 62
7
  6
CONTINUOUS
 10
8.180699972
 20
4.650032162
 11
8.1885739877
 21
4.650032162
  0
LINE
  5
4BC
100
AcDbEntity
  8
0
100
AcDbLine
 62
7
  6
CONTINUOUS
 10
8.1885739877
 20
4.650032162
 11
8.2141645389
 21
4.6057080271
  0
LINE
  5
4BD
100
AcDbEntity
  8
0
100
AcDbLine
 62
7
  6
CONTINUOUS
 10
8.2141645389
 20
4.6057080271
 11
8.2397550901
 21
4.650032162
  0
LINE
  5
4BE
100
AcDbEntity
  8
0
100
AcDbLine
 62
7
  6
CONTINUOUS
 10
8.2397550901
 20
4.650032162
 11
8.2476291058
 21
4.650032162
  0
LINE
  5
4BF
100
AcDbEntity
  8
0
100
AcDbLine
 62
7
  6
CONTINUOUS
 10
8.2476291058
 20
4.650032162
 11
8.273219657
 21
4.6057080271
  0
LINE
  5
4C0
100
AcDbEntity
  8
0
100
AcDbLine
 62
7
  6
CONTINUOUS
 10
8.273219657
 20
4.6057080271
 11
8.2771566649
 21
4.6125271248
  0
LINE
  5
4C1
100
AcDbEntity
  8
0
100
AcDbLine
 62
7
  6
CONTINUOUS
 10
8.2771566649
 20
4.6125271248
 11
8.2771566649
 21
4.493063658
  0
LINE
  5
4C2
100
AcDbEntity
  8
0
100
AcDbLine
 62
7
  6
CONTINUOUS
 10
8.2771566649
 20
4.493063658
 11
8.0409361924
 21
4.493063658
  0
LINE
  5
4C3
100
AcDbEntity
  8
0
100
AcDbLine
 62
7
  6
CONTINUOUS
 10
8.0409361924
 20
4.5619612958
 11
8.0409361924
 21
4.493063658
  0
LINE
  5
4C4
100
AcDbEntity
  8
0
100
AcDbLine
 62
7
  6
CONTINUOUS
 10
8.0409361924
 20
4.5619612958
 11
7.1780328583
 21
4.5619612958
  0
LINE
  5
4C5
100
AcDbEntity
  8
0
100
AcDbLine
 62
7
  6
CONTINUOUS
 10
7.1780328583
 20
4.5909770439
 11
7.1780328583
 21
4.5619612958
  0
LINE
  5
4C6
100
AcDbEntity
  8
0
100
AcDbLine
 62
7
  6
CONTINUOUS
 10
7.2096153796
 20
4.6067683045
 11
7.1780328583
 21
4.5909770439
  0
LINE
  5
4C7
100
AcDbEntity
  8
0
100
AcDbLine
 62
7
  6
CONTINUOUS
 10
7.2096153796
 20
4.6067683045
 11
7.210227531
 21
4.6057080271
  0
LINE
  5
4C8
100
AcDbEntity
  8
0
100
AcDbLine
 62
7
  6
CONTINUOUS
 10
7.210227531
 20
4.6057080271
 11
7.2113365381
 21
4.6076288838
  0
LINE
  5
4C9
100
AcDbEntity
  8
0
100
AcDbLine
 62
7
  6
CONTINUOUS
 10
7.2554416057
 20
4.6296814176
 11
7.2113365381
 21
4.6076288838
  0
LINE
  5
4CA
100
AcDbEntity
  8
0
100
AcDbLine
 62
7
  6
CONTINUOUS
 10
7.2554416057
 20
4.6296814176
 11
7.2692826491
 21
4.6057080271
  0
LINE
  5
4CB
100
AcDbEntity
  8
0
100
AcDbLine
 62
7
  6
CONTINUOUS
 10
7.2692826491
 20
4.6057080271
 11
7.2943578424
 21
4.6491395359
  0
LINE
  5
4CC
100
AcDbEntity
  8
0
100
AcDbLine
 62
7
  6
CONTINUOUS
 10
7.2961430945
 20
4.650032162
 11
7.2943578424
 21
4.6491395359
  0
LINE
  5
4CD
100
AcDbEntity
  8
0
100
AcDbLine
 62
7
  6
CONTINUOUS
 10
7.2961430945
 20
4.650032162
 11
7.302747216
 21
4.650032162
  0
LINE
  5
4CE
100
AcDbEntity
  8
0
100
AcDbLine
 62
7
  6
CONTINUOUS
 10
7.302747216
 20
4.650032162
 11
7.3283377672
 21
4.6057080271
  0
LINE
  5
4CF
100
AcDbEntity
  8
0
100
AcDbLine
 62
7
  6
CONTINUOUS
 10
7.3283377672
 20
4.6057080271
 11
7.3539283184
 21
4.650032162
  0
LINE
  5
4D0
100
AcDbEntity
  8
0
100
AcDbLine
 62
7
  6
CONTINUOUS
 10
8.2771566649
 20
6.2351896423
 11
8.2771566649
 21
6.1466069651
  0
LINE
  5
4D1
100
AcDbEntity
  8
0
100
AcDbLine
 62
7
  6
CONTINUOUS
 10
8.2771566649
 20
6.1466069651
 11
8.0409361924
 21
6.1466069651
  0
LINE
  5
4D2
100
AcDbEntity
  8
0
100
AcDbLine
 62
7
  6
CONTINUOUS
 10
8.0409361924
 20
6.234141136
 11
8.0409361924
 21
6.1466069651
  0
LWPOLYLINE
  5
4D3
100
AcDbEntity
  8
0
100
AcDbPolyline
 62
7
  6
CONTINUOUS
 90
4
 70
0
 10
8.0409361924
 20
6.234141136
 10
8.0446046896
 20
6.2347228701
 10
8.0483025013
 20
6.2350728337
 10
8.0520149994
 20
6.2351896423
  0
LINE
  5
4D4
100
AcDbEntity
  8
0
100
AcDbLine
 62
7
  6
CONTINUOUS
 10
8.0520149994
 20
6.2351896423
 11
8.2771566649
 21
6.2351896423
  0
LINE
  5
4D5
100
AcDbEntity
  8
0
100
AcDbLine
 62
7
  6
CONTINUOUS
 10
8.2771566649
 20
4.276528225
 11
8.2771566649
 21
4.1879455478
  0
LINE
  5
4D6
100
AcDbEntity
  8
0
100
AcDbLine
 62
7
  6
CONTINUOUS
 10
8.0520149994
 20
4.1879455478
 11
8.2771566649
 21
4.1879455478
  0
LWPOLYLINE
  5
4D7
100
AcDbEntity
  8
0
100
AcDbPolyline
 62
7
  6
CONTINUOUS
 90
4
 70
0
 10
8.0409361924
 20
4.1889940541
 10
8.0446046896
 20
4.1884123199
 10
8.0483025013
 20
4.1880623564
 10
8.0520149994
 20
4.1879455478
  0
LINE
  5
4D8
100
AcDbEntity
  8
0
100
AcDbLine
 62
7
  6
CONTINUOUS
 10
8.0409361924
 20
4.276528225
 11
8.0409361924
 21
4.1889940541
  0
LINE
  5
4D9
100
AcDbEntity
  8
0
100
AcDbLine
 62
7
  6
CONTINUOUS
 10
8.2771566649
 20
4.276528225
 11
8.0409361924
 21
4.276528225
  0
HATCH
  5
4DA
100
AcDbEntity
  8
0
100
AcDbHatch
 62
2
  6
CONTINUOUS
 10
0.0
 20
0.0
 30
0.0
210
0.0
220
0.0
230
1.0
  2
A
 70
0
 71
1
 91
4
 92
1
 93
60
 72
1
 10
7.3244007594
 20
5.7731030281
 11
7.3322747751
 21
5.7731030281
 72
1
 10
7.3244007594
 20
5.7731030281
 11
7.2988102082
 21
5.817427163
 72
1
 10
7.2988102082
 20
5.817427163
 11
7.2783547188
 21
5.781997216
 72
1
 10
7.2783547188
 20
5.781997216
 11
7.2528471903
 21
5.7947509802
 72
1
 10
7.2528471903
 20
5.7947509802
 11
7.2397550901
 21
5.817427163
 72
1
 10
7.2397550901
 20
5.817427163
 11
7.2325284926
 21
5.804910329
 72
1
 10
7.2325284926
 20
5.804910329
 11
7.1780328583
 21
5.8321581462
 72
1
 10
7.1780328583
 20
5.8611738943
 11
7.1780328583
 21
5.8321581462
 72
1
 10
8.0409361924
 20
5.8611738943
 11
7.1780328583
 21
5.8611738943
 72
1
 10
8.0409361924
 20
5.930071532
 11
8.0409361924
 21
5.8611738943
 72
1
 10
8.2771566649
 20
5.930071532
 11
8.0409361924
 21
5.930071532
 72
1
 10
8.2771566649
 20
5.930071532
 11
8.2771566649
 21
5.7731030281
 72
1
 10
8.2692826491
 20
5.7731030281
 11
8.2771566649
 21
5.7731030281
 72
1
 10
8.2692826491
 20
5.7731030281
 11
8.2436920979
 21
5.817427163
 72
1
 10
8.2436920979
 20
5.817427163
 11
8.2181015468
 21
5.7731030281
 72
1
 10
8.210227531
 20
5.7731030281
 11
8.2181015468
 21
5.7731030281
 72
1
 10
8.210227531
 20
5.7731030281
 11
8.1846369798
 21
5.817427163
 72
1
 10
8.1846369798
 20
5.817427163
 11
8.1590464286
 21
5.7731030281
 72
1
 10
8.1511724129
 20
5.7731030281
 11
8.1590464286
 21
5.7731030281
 72
1
 10
8.1511724129
 20
5.7731030281
 11
8.1255818617
 21
5.817427163
 72
1
 10
8.1255818617
 20
5.817427163
 11
8.0999913105
 21
5.7731030281
 72
1
 10
8.0921172948
 20
5.7731030281
 11
8.0999913105
 21
5.7731030281
 72
1
 10
8.0921172948
 20
5.7731030281
 11
8.0665267436
 21
5.817427163
 72
1
 10
8.0665267436
 20
5.817427163
 11
8.0409361924
 21
5.7731030281
 72
1
 10
8.0330621767
 20
5.7731030281
 11
8.0409361924
 21
5.7731030281
 72
1
 10
8.0330621767
 20
5.7731030281
 11
8.0074716255
 21
5.817427163
 72
1
 10
8.0074716255
 20
5.817427163
 11
7.9818810743
 21
5.7731030281
 72
1
 10
7.9740070586
 20
5.7731030281
 11
7.9818810743
 21
5.7731030281
 72
1
 10
7.9740070586
 20
5.7731030281
 11
7.9484165074
 21
5.817427163
 72
1
 10
7.9484165074
 20
5.817427163
 11
7.9228259562
 21
5.7731030281
 72
1
 10
7.9149519405
 20
5.7731030281
 11
7.9228259562
 21
5.7731030281
 72
1
 10
7.9149519405
 20
5.7731030281
 11
7.8893613893
 21
5.817427163
 72
1
 10
7.8893613893
 20
5.817427163
 11
7.8637708381
 21
5.7731030281
 72
1
 10
7.8558968223
 20
5.7731030281
 11
7.8637708381
 21
5.7731030281
 72
1
 10
7.8558968223
 20
5.7731030281
 11
7.8303062712
 21
5.817427163
 72
1
 10
7.8303062712
 20
5.817427163
 11
7.80471572
 21
5.7731030281
 72
1
 10
7.7968417042
 20
5.7731030281
 11
7.80471572
 21
5.7731030281
 72
1
 10
7.7968417042
 20
5.7731030281
 11
7.7712511531
 21
5.817427163
 72
1
 10
7.7712511531
 20
5.817427163
 11
7.7456606019
 21
5.7731030281
 72
1
 10
7.7377865861
 20
5.7731030281
 11
7.7456606019
 21
5.7731030281
 72
1
 10
7.7377865861
 20
5.7731030281
 11
7.7121960349
 21
5.817427163
 72
1
 10
7.7121960349
 20
5.817427163
 11
7.6866054838
 21
5.7731030281
 72
1
 10
7.678731468
 20
5.7731030281
 11
7.6866054838
 21
5.7731030281
 72
1
 10
7.678731468
 20
5.7731030281
 11
7.6531409168
 21
5.817427163
 72
1
 10
7.6531409168
 20
5.817427163
 11
7.6275503657
 21
5.7731030281
 72
1
 10
7.6196763499
 20
5.7731030281
 11
7.6275503657
 21
5.7731030281
 72
1
 10
7.6196763499
 20
5.7731030281
 11
7.5940857987
 21
5.817427163
 72
1
 10
7.5940857987
 20
5.817427163
 11
7.5684952475
 21
5.7731030281
 72
1
 10
7.5606212318
 20
5.7731030281
 11
7.5684952475
 21
5.7731030281
 72
1
 10
7.5606212318
 20
5.7731030281
 11
7.5350306806
 21
5.817427163
 72
1
 10
7.5350306806
 20
5.817427163
 11
7.5094401294
 21
5.7731030281
 72
1
 10
7.5015661137
 20
5.7731030281
 11
7.5094401294
 21
5.7731030281
 72
1
 10
7.5015661137
 20
5.7731030281
 11
7.4759755625
 21
5.817427163
 72
1
 10
7.4759755625
 20
5.817427163
 11
7.4503850113
 21
5.7731030281
 72
1
 10
7.4425109956
 20
5.7731030281
 11
7.4503850113
 21
5.7731030281
 72
1
 10
7.4425109956
 20
5.7731030281
 11
7.4169204444
 21
5.817427163
 72
1
 10
7.4169204444
 20
5.817427163
 11
7.3913298932
 21
5.7731030281
 72
1
 10
7.3834558775
 20
5.7731030281
 11
7.3913298932
 21
5.7731030281
 72
1
 10
7.3834558775
 20
5.7731030281
 11
7.3578653263
 21
5.817427163
 72
1
 10
7.3578653263
 20
5.817427163
 11
7.3322747751
 21
5.7731030281
 97
133
330
455
330
456
330
457
330
458
330
459
330
45A
330
45B
330
45C
330
45D
330
45E
330
45F
330
460
330
461
330
462
330
463
330
464
330
465
330
466
330
467
330
468
330
469
330
46A
330
46B
330
46C
330
46D
330
46E
330
46F
330
470
330
471
330
472
330
473
330
474
330
475
330
476
330
477
330
478
330
479
330
47A
330
47B
330
47C
330
47D
330
47E
330
47F
330
480
330
481
330
482
330
483
330
484
330
485
330
486
330
487
330
488
330
489
330
48A
330
48B
330
48C
330
48D
330
48E
330
48F
330
490
330
491
330
492
330
493
330
494
330
495
330
496
330
497
330
498
330
499
330
49A
330
49B
330
49C
330
49D
330
49E
330
49F
330
4A0
330
4A1
330
4A2
330
4A3
330
4A4
330
4A5
330
4A6
330
4A7
330
4A8
330
4A9
330
4AA
330
4AB
330
4AC
330
4AD
330
4AE
330
4AF
330
4B0
330
4B1
330
4B2
330
4B3
330
4B4
330
4B5
330
4B6
330
4B7
330
4B8
330
4B9
330
4BA
330
4BB
330
4BC
330
4BD
330
4BE
330
4BF
330
4C0
330
4C1
330
4C2
330
4C3
330
4C4
330
4C5
330
4C6
330
4C7
330
4C8
330
4C9
330
4CA
330
4CB
330
4CC
330
4CD
330
4CE
330
4CF
330
4D0
330
4D1
330
4D2
330
4D3
330
4D4
330
4D5
330
4D6
330
4D7
330
4D8
330
4D9
 92
1
 93
63
 72
1
 10
7.3539283184
 20
4.650032162
 11
7.3618023342
 21
4.650032162
 72
1
 10
7.3618023342
 20
4.650032162
 11
7.3873928853
 21
4.6057080271
 72
1
 10
7.3873928853
 20
4.6057080271
 11
7.4129834365
 21
4.650032162
 72
1
 10
7.4129834365
 20
4.650032162
 11
7.4208574523
 21
4.650032162
 72
1
 10
7.4208574523
 20
4.650032162
 11
7.4464480035
 21
4.6057080271
 72
1
 10
7.4464480035
 20
4.6057080271
 11
7.4720385546
 21
4.650032162
 72
1
 10
7.4720385546
 20
4.650032162
 11
7.4799125704
 21
4.650032162
 72
1
 10
7.4799125704
 20
4.650032162
 11
7.5055031216
 21
4.6057080271
 72
1
 10
7.5055031216
 20
4.6057080271
 11
7.5310936727
 21
4.650032162
 72
1
 10
7.5310936727
 20
4.650032162
 11
7.5389676885
 21
4.650032162
 72
1
 10
7.5389676885
 20
4.650032162
 11
7.5645582397
 21
4.6057080271
 72
1
 10
7.5645582397
 20
4.6057080271
 11
7.5901487909
 21
4.650032162
 72
1
 10
7.5901487909
 20
4.650032162
 11
7.5980228066
 21
4.650032162
 72
1
 10
7.5980228066
 20
4.650032162
 11
7.6236133578
 21
4.6057080271
 72
1
 10
7.6236133578
 20
4.6057080271
 11
7.649203909
 21
4.650032162
 72
1
 10
7.649203909
 20
4.650032162
 11
7.6570779247
 21
4.650032162
 72
1
 10
7.6570779247
 20
4.650032162
 11
7.6826684759
 21
4.6057080271
 72
1
 10
7.6826684759
 20
4.6057080271
 11
7.7082590271
 21
4.650032162
 72
1
 10
7.7082590271
 20
4.650032162
 11
7.7161330428
 21
4.650032162
 72
1
 10
7.7161330428
 20
4.650032162
 11
7.741723594
 21
4.6057080271
 72
1
 10
7.741723594
 20
4.6057080271
 11
7.7673141452
 21
4.650032162
 72
1
 10
7.7673141452
 20
4.650032162
 11
7.7751881609
 21
4.650032162
 72
1
 10
7.7751881609
 20
4.650032162
 11
7.8007787121
 21
4.6057080271
 72
1
 10
7.8007787121
 20
4.6057080271
 11
7.8263692633
 21
4.650032162
 72
1
 10
7.8263692633
 20
4.650032162
 11
7.834243279
 21
4.650032162
 72
1
 10
7.834243279
 20
4.650032162
 11
7.8598338302
 21
4.6057080271
 72
1
 10
7.8598338302
 20
4.6057080271
 11
7.8854243814
 21
4.650032162
 72
1
 10
7.8854243814
 20
4.650032162
 11
7.8932983972
 21
4.650032162
 72
1
 10
7.8932983972
 20
4.650032162
 11
7.9188889483
 21
4.6057080271
 72
1
 10
7.9188889483
 20
4.6057080271
 11
7.9444794995
 21
4.650032162
 72
1
 10
7.9444794995
 20
4.650032162
 11
7.9523535153
 21
4.650032162
 72
1
 10
7.9523535153
 20
4.650032162
 11
7.9779440664
 21
4.6057080271
 72
1
 10
7.9779440664
 20
4.6057080271
 11
8.0035346176
 21
4.650032162
 72
1
 10
8.0035346176
 20
4.650032162
 11
8.0114086334
 21
4.650032162
 72
1
 10
8.0114086334
 20
4.650032162
 11
8.0369991846
 21
4.6057080271
 72
1
 10
8.0369991846
 20
4.6057080271
 11
8.0625897357
 21
4.650032162
 72
1
 10
8.0625897357
 20
4.650032162
 11
8.0704637515
 21
4.650032162
 72
1
 10
8.0704637515
 20
4.650032162
 11
8.0960543027
 21
4.6057080271
 72
1
 10
8.0960543027
 20
4.6057080271
 11
8.1216448538
 21
4.650032162
 72
1
 10
8.1216448538
 20
4.650032162
 11
8.1295188696
 21
4.650032162
 72
1
 10
8.1295188696
 20
4.650032162
 11
8.1551094208
 21
4.6057080271
 72
1
 10
8.1551094208
 20
4.6057080271
 11
8.180699972
 21
4.650032162
 72
1
 10
8.180699972
 20
4.650032162
 11
8.1885739877
 21
4.650032162
 72
1
 10
8.1885739877
 20
4.650032162
 11
8.2141645389
 21
4.6057080271
 72
1
 10
8.2141645389
 20
4.6057080271
 11
8.2397550901
 21
4.650032162
 72
1
 10
8.2397550901
 20
4.650032162
 11
8.2476291058
 21
4.650032162
 72
1
 10
8.2476291058
 20
4.650032162
 11
8.273219657
 21
4.6057080271
 72
1
 10
8.273219657
 20
4.6057080271
 11
8.2771566649
 21
4.6125271248
 72
1
 10
8.2771566649
 20
4.6125271248
 11
8.2771566649
 21
4.493063658
 72
1
 10
8.2771566649
 20
4.493063658
 11
8.0409361924
 21
4.493063658
 72
1
 10
8.0409361924
 20
4.5619612958
 11
8.0409361924
 21
4.493063658
 72
1
 10
8.0409361924
 20
4.5619612958
 11
7.1780328583
 21
4.5619612958
 72
1
 10
7.1780328583
 20
4.5909770439
 11
7.1780328583
 21
4.5619612958
 72
1
 10
7.2096153796
 20
4.6067683045
 11
7.1780328583
 21
4.5909770439
 72
1
 10
7.2096153796
 20
4.6067683045
 11
7.210227531
 21
4.6057080271
 72
1
 10
7.210227531
 20
4.6057080271
 11
7.2113365381
 21
4.6076288838
 72
1
 10
7.2554416057
 20
4.6296814176
 11
7.2113365381
 21
4.6076288838
 72
1
 10
7.2554416057
 20
4.6296814176
 11
7.2692826491
 21
4.6057080271
 72
1
 10
7.2692826491
 20
4.6057080271
 11
7.2943578424
 21
4.6491395359
 72
1
 10
7.2961430945
 20
4.650032162
 11
7.2943578424
 21
4.6491395359
 72
1
 10
7.2961430945
 20
4.650032162
 11
7.302747216
 21
4.650032162
 72
1
 10
7.302747216
 20
4.650032162
 11
7.3283377672
 21
4.6057080271
 72
1
 10
7.3283377672
 20
4.6057080271
 11
7.3539283184
 21
4.650032162
 97
133
330
455
330
456
330
457
330
458
330
459
330
45A
330
45B
330
45C
330
45D
330
45E
330
45F
330
460
330
461
330
462
330
463
330
464
330
465
330
466
330
467
330
468
330
469
330
46A
330
46B
330
46C
330
46D
330
46E
330
46F
330
470
330
471
330
472
330
473
330
474
330
475
330
476
330
477
330
478
330
479
330
47A
330
47B
330
47C
330
47D
330
47E
330
47F
330
480
330
481
330
482
330
483
330
484
330
485
330
486
330
487
330
488
330
489
330
48A
330
48B
330
48C
330
48D
330
48E
330
48F
330
490
330
491
330
492
330
493
330
494
330
495
330
496
330
497
330
498
330
499
330
49A
330
49B
330
49C
330
49D
330
49E
330
49F
330
4A0
330
4A1
330
4A2
330
4A3
330
4A4
330
4A5
330
4A6
330
4A7
330
4A8
330
4A9
330
4AA
330
4AB
330
4AC
330
4AD
330
4AE
330
4AF
330
4B0
330
4B1
330
4B2
330
4B3
330
4B4
330
4B5
330
4B6
330
4B7
330
4B8
330
4B9
330
4BA
330
4BB
330
4BC
330
4BD
330
4BE
330
4BF
330
4C0
330
4C1
330
4C2
330
4C3
330
4C4
330
4C5
330
4C6
330
4C7
330
4C8
330
4C9
330
4CA
330
4CB
330
4CC
330
4CD
330
4CE
330
4CF
330
4D0
330
4D1
330
4D2
330
4D3
330
4D4
330
4D5
330
4D6
330
4D7
330
4D8
330
4D9
 92
2
 72
0
 73
1
 93
12
 10
8.2771566649
 20
6.2351896423
 10
8.2771566649
 20
6.1466069651
 10
8.2771566649
 20
6.1466069651
 10
8.0409361924
 20
6.1466069651
 10
8.0409361924
 20
6.234141136
 10
8.0409361924
 20
6.1466069651
 10
8.0409361924
 20
6.234141136
 10
8.0446046896
 20
6.2347228701
 10
8.0483025013
 20
6.2350728337
 10
8.0520149994
 20
6.2351896423
 10
8.0520149994
 20
6.2351896423
 10
8.2771566649
 20
6.2351896423
 97
133
330
455
330
456
330
457
330
458
330
459
330
45A
330
45B
330
45C
330
45D
330
45E
330
45F
330
460
330
461
330
462
330
463
330
464
330
465
330
466
330
467
330
468
330
469
330
46A
330
46B
330
46C
330
46D
330
46E
330
46F
330
470
330
471
330
472
330
473
330
474
330
475
330
476
330
477
330
478
330
479
330
47A
330
47B
330
47C
330
47D
330
47E
330
47F
330
480
330
481
330
482
330
483
330
484
330
485
330
486
330
487
330
488
330
489
330
48A
330
48B
330
48C
330
48D
330
48E
330
48F
330
490
330
491
330
492
330
493
330
494
330
495
330
496
330
497
330
498
330
499
330
49A
330
49B
330
49C
330
49D
330
49E
330
49F
330
4A0
330
4A1
330
4A2
330
4A3
330
4A4
330
4A5
330
4A6
330
4A7
330
4A8
330
4A9
330
4AA
330
4AB
330
4AC
330
4AD
330
4AE
330
4AF
330
4B0
330
4B1
330
4B2
330
4B3
330
4B4
330
4B5
330
4B6
330
4B7
330
4B8
330
4B9
330
4BA
330
4BB
330
4BC
330
4BD
330
4BE
330
4BF
330
4C0
330
4C1
330
4C2
330
4C3
330
4C4
330
4C5
330
4C6
330
4C7
330
4C8
330
4C9
330
4CA
330
4CB
330
4CC
330
4CD
330
4CE
330
4CF
330
4D0
330
4D1
330
4D2
330
4D3
330
4D4
330
4D5
330
4D6
330
4D7
330
4D8
330
4D9
 92
2
 72
0
 73
0
 93
12
 10
8.2771566649
 20
4.276528225
 10
8.2771566649
 20
4.1879455478
 10
8.0520149994
 20
4.1879455478
 10
8.2771566649
 20
4.1879455478
 10
8.0409361924
 20
4.1889940541
 10
8.0446046896
 20
4.1884123199
 10
8.0483025013
 20
4.1880623564
 10
8.0520149994
 20
4.1879455478
 10
8.0409361924
 20
4.276528225
 10
8.0409361924
 20
4.1889940541
 10
8.2771566649
 20
4.276528225
 10
8.0409361924
 20
4.276528225
 97
133
330
455
330
456
330
457
330
458
330
459
330
45A
330
45B
330
45C
330
45D
330
45E
330
45F
330
460
330
461
330
462
330
463
330
464
330
465
330
466
330
467
330
468
330
469
330
46A
330
46B
330
46C
330
46D
330
46E
330
46F
330
470
330
471
330
472
330
473
330
474
330
475
330
476
330
477
330
478
330
479
330
47A
330
47B
330
47C
330
47D
330
47E
330
47F
330
480
330
481
330
482
330
483
330
484
330
485
330
486
330
487
330
488
330
489
330
48A
330
48B
330
48C
330
48D
330
48E
330
48F
330
490
330
491
330
492
330
493
330
494
330
495
330
496
330
497
330
498
330
499
330
49A
330
49B
330
49C
330
49D
330
49E
330
49F
330
4A0
330
4A1
330
4A2
330
4A3
330
4A4
330
4A5
330
4A6
330
4A7
330
4A8
330
4A9
330
4AA
330
4AB
330
4AC
330
4AD
330
4AE
330
4AF
330
4B0
330
4B1
330
4B2
330
4B3
330
4B4
330
4B5
330
4B6
330
4B7
330
4B8
330
4B9
330
4BA
330
4BB
330
4BC
330
4BD
330
4BE
330
4BF
330
4C0
330
4C1
330
4C2
330
4C3
330
4C4
330
4C5
330
4C6
330
4C7
330
4C8
330
4C9
330
4CA
330
4CB
330
4CC
330
4CD
330
4CE
330
4CF
330
4D0
330
4D1
330
4D2
330
4D3
330
4D4
330
4D5
330
4D6
330
4D7
330
4D8
330
4D9
 75
0
 76
0
 52
45.0
 41
0.0198009734
 77
0
 78
1
 53
45.0
 43
0.0
 44
0.0
 45
-0.0140014026
 46
0.0140014026
 79
0
 98
1
 10
0.0
 20
0.0
  0
SOLID
  5
4DB
100
AcDbEntity
  8
0
100
AcDbTrace
 62
7
  6
CONTINUOUS
 10
2.832180884
 20
4.0790570317
 11
3.152180884
 21
4.1390570317
 12
3.152180884
 22
4.0190570317
 13
3.152180884
 23
4.0190570317
  0
MTEXT
  5
4DC
100
AcDbEntity
  8
0
100
AcDbMText
 62
7
  6
CONTINUOUS
  7
STANDARD
 71
1
 72
1
 10
2.607180884
 20
4.1540570317
 30
0.0
 11
1.0
 21
0.0
 31
0.0
 44
0.9
  1
A
 40
0.15
 41
0.15
  0
SOLID
  5
4DD
100
AcDbEntity
  8
0
100
AcDbTrace
 62
7
  6
CONTINUOUS
 10
2.833404272
 20
6.3612115211
 11
3.153404272
 21
6.4212115211
 12
3.153404272
 22
6.3012115211
 13
3.153404272
 23
6.3012115211
  0
MTEXT
  5
4DE
100
AcDbEntity
  8
0
100
AcDbMText
 62
7
  6
CONTINUOUS
  7
STANDARD
 71
1
 72
1
 10
2.608404272
 20
6.4362115211
 30
0.0
 11
1.0
 21
0.0
 31
0.0
 44
0.9
  1
A
 40
0.15
 41
0.15
  0
DIMENSION
  5
4DF
100
AcDbEntity
  8
SCHEME_DIMS
100
AcDbDimension
 62
2
  6
CONTINUOUS
  2
*D0
 10
4.175891537
 20
5.9046753883
 11
4.9886756666
 21
6.0101312415
 70
163
 71
1
 42
52.0
  1
<>
  3
DIMSTYLE_1
100
AcDbDiametricDimension
 15
2.6693674813
 25
4.5184598018
  0
DIMENSION
  5
4E0
100
AcDbEntity
  8
SCHEME_DIMS
100
AcDbDimension
 62
2
  6
CONTINUOUS
  2
*D1
 10
8.2771566649
 20
3.6879455478
 11
7.6116054838
 21
3.6129455478
 70
160
 71
2
 42
30.0
  3
DIMSTYLE_2
100
AcDbAlignedDimension
 13
7.0960543027
 23
4.2773514602
 14
8.2771566649
 24
4.1254455478
100
AcDbRotatedDimension
  0
DIMENSION
  5
4E1
100
AcDbEntity
  8
SCHEME_DIMS
100
AcDbDimension
 62
2
  6
CONTINUOUS
  2
*D2
 10
13.4475533097
 20
4.4044809809
 11
13.9475533097
 21
3.8720443365
 70
160
 71
1
 42
1.0
  3
DIMSTYLE_2
100
AcDbAlignedDimension
 13
12.1750139396
 23
4.3651109021
 14
12.1750139396
 24
4.4044809809
 50
90.0
100
AcDbRotatedDimension
  0
DIMENSION
  5
4E2
100
AcDbEntity
  8
SCHEME_DIMS
100
AcDbDimension
 62
2
  6
CONTINUOUS
  2
*D3
 10
13.8225533097
 20
6.0186542092
 11
13.7475533097
 21
5.211567595
 70
160
 71
2
 42
41.0
  3
DIMSTYLE_2
100
AcDbAlignedDimension
 13
12.1750139396
 23
4.4044809809
 14
12.1750139396
 24
6.0186542092
 50
90.0
100
AcDbRotatedDimension
  0
DIMENSION
  5
4E3
100
AcDbEntity
  8
SCHEME_DIMS
100
AcDbDimension
 62
2
  6
CONTINUOUS
  2
*D4
 10
11.9239312625
 20
6.058024288
 11
13.3297035593
 21
6.5090338633
 70
164
 71
1
 42
2.25
  1
2X FULL <>
  3
DIMSTYLE_3
100
AcDbRadialDimension
 15
11.9819393004
 25
6.1249717168
  0
DIMENSION
  5
4E4
100
AcDbEntity
  8
SCHEME_DIMS
100
AcDbDimension
 62
2
  6
CONTINUOUS
  2
*D5
 10
6.3118147375
 20
4.3398514602
 11
6.2534814042
 21
5.1966805134
 70
160
 71
2
 42
44.283179651
  1
%%c<>
  3
DIMSTYLE_2
100
AcDbAlignedDimension
 13
7.0335543027
 23
6.0832837299
 14
7.0335543027
 24
4.3398514602
 50
270.0
100
AcDbRotatedDimension
  0
LINE
  5
4E5
100
AcDbEntity
  8
0
100
AcDbLine
 62
2
  6
CONTINUOUS
 10
16.38
 20
0.887
 11
12.03
 21
0.887
  0
LINE
  5
4E6
100
AcDbEntity
  8
0
100
AcDbLine
 62
2
  6
CONTINUOUS
 10
16.38
 20
0.887
 11
16.38
 21
2.807
  0
LINE
  5
4E7
100
AcDbEntity
  8
0
100
AcDbLine
 62
2
  6
CONTINUOUS
 10
16.38
 20
2.807
 11
12.03
 21
2.807
  0
LINE
  5
4E8
100
AcDbEntity
  8
0
100
AcDbLine
 62
2
  6
CONTINUOUS
 10
12.03
 20
0.887
 11
12.03
 21
2.807
  0
MTEXT
  5
4E9
100
AcDbEntity
  8
NOTES
100
AcDbMText
 62
7
  6
CONTINUOUS
  7
STANDARD
 71
2
 72
1
 10
16.155
 20
1.367
 30
0.0
 11
1.0
 21
0.0
 31
0.0
 44
0.9
  1
A
 40
0.1
 41
0.1
  0
MTEXT
  5
4EA
100
AcDbEntity
  8
NOTES
100
AcDbMText
 62
7
  6
CONTINUOUS
  7
STANDARD
 71
2
 72
1
 10
14.205
 20
1.817
 30
0.0
 11
1.0
 21
0.0
 31
0.0
 44
0.9
  1
LMBTL50-MBA-42
 40
0.1
 41
1.4
  0
LEADER
  5
4EB
100
AcDbEntity
  8
NOTES
100
AcDbLeader
 62
2
  6
CONTINUOUS
  3
STANDARD
 71
1
 72
0
 73
0
 75
0
 40
0.1
 41
1.2
 76
3
 10
8.2612748516
 20
5.5813305063
 30
0.0
 10
8.6606849604
 20
5.8091843438
 30
0.0
 10
8.9106849604
 20
5.8091843438
 30
0.0
340
4EC
1001
ACAD
1000
DSTYLE
1002
{
1070
77
1070
0
1002
}
  0
MTEXT
  5
4EC
102
{ACAD_REACTORS
330
4EB
102
}
100
AcDbEntity
  8
NOTES
100
AcDbMText
 62
2
  6
CONTINUOUS
  7
STANDARD
 71
1
 72
1
 10
8.9106849604
 20
5.8591843438
 30
0.0
 11
1.0
 21
0.0
 31
0.0
 44
0.9
  1
M30 X 1.5-6H
 40
0.1
 41
1.2
  0
MTEXT
  5
4ED
100
AcDbEntity
  8
NOTES
100
AcDbMText
 62
2
  6
CONTINUOUS
  7
STANDARD
 71
3
 72
1
 10
8.5929866569
 20
3.106660801
 30
0.0
 11
1.0
 21
0.0
 31
0.0
 44
0.9
  1
SECTION  \H0.15;A-A
 40
0.1
 41
1.35
  0
MTEXT
  5
4EE
100
AcDbEntity
  8
NOTES
100
AcDbMText
 62
2
  6
CONTINUOUS
  7
STANDARD
 71
2
 72
1
 10
14.9227380298
 20
7.4090225687
 30
0.0
 11
1.0
 21
0.0
 31
0.0
 44
0.9
  1
ISOMETRIC VIEW\P\H0.1;SCALE  1:1
 40
0.125
 41
1.75
  0
INSERT
  5
4EF
100
AcDbEntity
  8
SYMBOLS
100
AcDbBlockReference
 62
2
  6
CONTINUOUS
  2
CL_BL1
 10
4.6859027248
 20
5.2072353974
  0
INSERT
  5
4F0
100
AcDbEntity
  8
SYMBOLS
100
AcDbBlockReference
 62
2
  6
CONTINUOUS
  2
CL_BL2
 10
3.4467648754
 20
3.8946511071
  0
INSERT
  5
4F1
100
AcDbEntity
  8
SYMBOLS
100
AcDbBlockReference
 62
2
  6
CONTINUOUS
  2
CL_BL3
 10
6.8873645584
 20
5.2071548234
  0
INSERT
  5
4F2
100
AcDbEntity
  8
SYMBOLS
100
AcDbBlockReference
 62
2
  6
CONTINUOUS
  2
CL_BL4
 10
10.7041406515
 20
5.2200819689
  0
INSERT
  5
4F3
100
AcDbEntity
  8
SYMBOLS
100
AcDbBlockReference
 62
2
  6
CONTINUOUS
  2
CL_BL5
 10
11.9426968867
 20
3.89694994
  0
LINE
  5
4F4
100
AcDbEntity
  8
0
100
AcDbLine
 62
2
  6
CONTINUOUS
 10
0.47
 20
5.586103
 11
0.47
 21
5.412897
  0
LINE
  5
4F5
100
AcDbEntity
  8
0
100
AcDbLine
 62
2
  6
CONTINUOUS
 10
0.62
 20
10.112
 11
0.62
 21
0.887
  0
LINE
  5
4F6
100
AcDbEntity
  8
0
100
AcDbLine
 62
2
  6
CONTINUOUS
 10
2.59
 20
0.887
 11
2.59
 21
0.637
  0
LINE
  5
4F7
100
AcDbEntity
  8
0
100
AcDbLine
 62
2
  6
CONTINUOUS
 10
2.59
 20
10.112
 11
2.59
 21
10.362
  0
LINE
  5
4F8
100
AcDbEntity
  8
0
100
AcDbLine
 62
2
  6
CONTINUOUS
 10
8.413397
 20
0.737
 11
8.586603
 21
0.737
  0
LINE
  5
4F9
100
AcDbEntity
  8
0
100
AcDbLine
 62
7
  6
CONTINUOUS
 10
11.1389508475
 20
1.425992839
 11
11.7453418475
 21
1.495385839
  0
LINE
  5
4FA
100
AcDbEntity
  8
0
100
AcDbLine
 62
2
  6
CONTINUOUS
 10
0.62
 20
0.887
 11
16.38
 21
0.887
  0
LINE
  5
4FB
100
AcDbEntity
  8
0
100
AcDbLine
 62
2
  6
CONTINUOUS
 10
12.03
 20
1.137
 11
16.38
 21
1.137
  0
LINE
  5
4FC
100
AcDbEntity
  8
0
100
AcDbLine
 62
7
  6
CONTINUOUS
 10
10.2121898475
 20
1.243294839
 11
10.4342808475
 21
1.243294839
  0
LINE
  5
4FD
100
AcDbEntity
  8
0
100
AcDbLine
 62
7
  6
CONTINUOUS
 10
10.4842808475
 20
1.243294839
 11
10.5842808475
 21
1.243294839
  0
LINE
  5
4FE
100
AcDbEntity
  8
0
100
AcDbLine
 62
7
  6
CONTINUOUS
 10
10.6342808475
 20
1.243294839
 11
10.8563718475
 21
1.243294839
  0
LINE
  5
4FF
100
AcDbEntity
  8
0
100
AcDbLine
 62
7
  6
CONTINUOUS
 10
11.0389508475
 20
1.243294839
 11
11.3171028475
 21
1.243294839
  0
LINE
  5
500
100
AcDbEntity
  8
0
100
AcDbLine
 62
7
  6
CONTINUOUS
 10
11.3671028475
 20
1.243294839
 11
11.5171888475
 21
1.243294839
  0
LINE
  5
501
100
AcDbEntity
  8
0
100
AcDbLine
 62
7
  6
CONTINUOUS
 10
11.5671888475
 20
1.243294839
 11
11.8453418475
 21
1.243294839
  0
LINE
  5
502
100
AcDbEntity
  8
0
100
AcDbLine
 62
7
  6
CONTINUOUS
 10
11.7453418475
 20
0.991203839
 11
11.1389508475
 21
1.060596839
  0
LINE
  5
503
100
AcDbEntity
  8
0
100
AcDbLine
 62
2
  6
CONTINUOUS
 10
4.56
 20
0.887
 11
4.56
 21
0.637
  0
LINE
  5
504
100
AcDbEntity
  8
0
100
AcDbLine
 62
2
  6
CONTINUOUS
 10
4.56
 20
10.112
 11
4.56
 21
10.362
  0
LINE
  5
505
100
AcDbEntity
  8
0
100
AcDbLine
 62
2
  6
CONTINUOUS
 10
0.47
 20
5.412897
 11
0.62
 21
5.4995
  0
LINE
  5
506
100
AcDbEntity
  8
0
100
AcDbLine
 62
2
  6
CONTINUOUS
 10
12.03
 20
1.507
 11
16.38
 21
1.507
  0
LINE
  5
507
100
AcDbEntity
  8
0
100
AcDbLine
 62
2
  6
CONTINUOUS
 10
10.03
 20
1.907
 11
12.03
 21
1.907
  0
LINE
  5
508
100
AcDbEntity
  8
0
100
AcDbLine
 62
2
  6
CONTINUOUS
 10
0.62
 20
5.4995
 11
0.47
 21
5.586103
  0
LINE
  5
509
100
AcDbEntity
  8
0
100
AcDbLine
 62
2
  6
CONTINUOUS
 10
12.03
 20
2.267
 11
16.38
 21
2.267
  0
LINE
  5
50A
100
AcDbEntity
  8
0
100
AcDbLine
 62
2
  6
CONTINUOUS
 10
8.5
 20
10.112
 11
8.586603
 21
10.262
  0
LINE
  5
50B
100
AcDbEntity
  8
0
100
AcDbLine
 62
2
  6
CONTINUOUS
 10
16.38
 20
2.807
 11
10.03
 21
2.807
  0
LINE
  5
50C
100
AcDbEntity
  8
0
100
AcDbLine
 62
2
  6
CONTINUOUS
 10
0.62
 20
3.1995
 11
0.37
 21
3.1995
  0
LINE
  5
50D
100
AcDbEntity
  8
0
100
AcDbLine
 62
2
  6
CONTINUOUS
 10
16.38
 20
3.1995
 11
16.63
 21
3.1995
  0
LINE
  5
50E
100
AcDbEntity
  8
0
100
AcDbLine
 62
2
  6
CONTINUOUS
 10
8.586603
 20
0.737
 11
8.5
 21
0.887
  0
LINE
  5
50F
100
AcDbEntity
  8
0
100
AcDbLine
 62
2
  6
CONTINUOUS
 10
6.53
 20
0.887
 11
6.53
 21
0.637
  0
LINE
  5
510
100
AcDbEntity
  8
0
100
AcDbLine
 62
2
  6
CONTINUOUS
 10
6.53
 20
10.112
 11
6.53
 21
10.362
  0
LINE
  5
511
100
AcDbEntity
  8
0
100
AcDbLine
 62
2
  6
CONTINUOUS
 10
8.5
 20
0.887
 11
8.5
 21
0.637
  0
LINE
  5
512
100
AcDbEntity
  8
0
100
AcDbLine
 62
2
  6
CONTINUOUS
 10
8.5
 20
10.112
 11
8.5
 21
10.362
  0
LINE
  5
513
100
AcDbEntity
  8
0
100
AcDbLine
 62
2
  6
CONTINUOUS
 10
0.62
 20
5.4995
 11
0.37
 21
5.4995
  0
LINE
  5
514
100
AcDbEntity
  8
0
100
AcDbLine
 62
2
  6
CONTINUOUS
 10
16.38
 20
5.4995
 11
16.63
 21
5.4995
  0
LINE
  5
515
100
AcDbEntity
  8
0
100
AcDbLine
 62
2
  6
CONTINUOUS
 10
10.03
 20
2.807
 11
10.03
 21
0.887
  0
LINE
  5
516
100
AcDbEntity
  8
0
100
AcDbLine
 62
2
  6
CONTINUOUS
 10
10.47
 20
0.887
 11
10.47
 21
0.637
  0
LINE
  5
517
100
AcDbEntity
  8
0
100
AcDbLine
 62
2
  6
CONTINUOUS
 10
10.47
 20
10.112
 11
10.47
 21
10.362
  0
LINE
  5
518
100
AcDbEntity
  8
0
100
AcDbLine
 62
7
  6
CONTINUOUS
 10
10.5342808475
 20
1.143294839
 11
10.5342808475
 21
0.921203839
  0
LINE
  5
519
100
AcDbEntity
  8
0
100
AcDbLine
 62
7
  6
CONTINUOUS
 10
10.5342808475
 20
1.193294839
 11
10.5342808475
 21
1.293294839
  0
LINE
  5
51A
100
AcDbEntity
  8
0
100
AcDbLine
 62
7
  6
CONTINUOUS
 10
10.5342808475
 20
1.343294839
 11
10.5342808475
 21
1.565385839
  0
LINE
  5
51B
100
AcDbEntity
  8
0
100
AcDbLine
 62
2
  6
CONTINUOUS
 10
8.5
 20
0.887
 11
8.413397
 21
0.737
  0
LINE
  5
51C
100
AcDbEntity
  8
0
100
AcDbLine
 62
2
  6
CONTINUOUS
 10
0.62
 20
7.7995
 11
0.37
 21
7.7995
  0
LINE
  5
51D
100
AcDbEntity
  8
0
100
AcDbLine
 62
2
  6
CONTINUOUS
 10
16.38
 20
7.7995
 11
16.63
 21
7.7995
  0
LINE
  5
51E
100
AcDbEntity
  8
0
100
AcDbLine
 62
2
  6
CONTINUOUS
 10
8.413397
 20
10.262
 11
8.5
 21
10.112
  0
LINE
  5
51F
100
AcDbEntity
  8
0
100
AcDbLine
 62
7
  6
CONTINUOUS
 10
11.1389508475
 20
1.060596839
 11
11.1389508475
 21
1.425992839
  0
LINE
  5
520
100
AcDbEntity
  8
0
100
AcDbLine
 62
7
  6
CONTINUOUS
 10
11.7453418475
 20
1.495385839
 11
11.7453418475
 21
0.991203839
  0
LINE
  5
521
100
AcDbEntity
  8
0
100
AcDbLine
 62
1
  6
CONTINUOUS
 10
12.03
 20
2.807
 11
12.03
 21
0.887
  0
LINE
  5
522
100
AcDbEntity
  8
0
100
AcDbLine
 62
2
  6
CONTINUOUS
 10
12.44
 20
0.887
 11
12.44
 21
0.637
  0
LINE
  5
523
100
AcDbEntity
  8
0
100
AcDbLine
 62
2
  6
CONTINUOUS
 10
12.44
 20
10.112
 11
12.44
 21
10.362
  0
LINE
  5
524
100
AcDbEntity
  8
0
100
AcDbLine
 62
2
  6
CONTINUOUS
 10
16.53
 20
5.586103
 11
16.38
 21
5.4995
  0
LINE
  5
525
100
AcDbEntity
  8
0
100
AcDbLine
 62
2
  6
CONTINUOUS
 10
16.38
 20
5.4995
 11
16.53
 21
5.412897
  0
LINE
  5
526
100
AcDbEntity
  8
0
100
AcDbLine
 62
2
  6
CONTINUOUS
 10
12.83
 20
1.507
 11
12.83
 21
1.137
  0
LINE
  5
527
100
AcDbEntity
  8
0
100
AcDbLine
 62
2
  6
CONTINUOUS
 10
16.38
 20
10.112
 11
0.62
 21
10.112
  0
LINE
  5
528
100
AcDbEntity
  8
0
100
AcDbLine
 62
2
  6
CONTINUOUS
 10
8.586603
 20
10.262
 11
8.413397
 21
10.262
  0
LINE
  5
529
100
AcDbEntity
  8
0
100
AcDbLine
 62
2
  6
CONTINUOUS
 10
14.205
 20
1.137
 11
14.205
 21
0.887
  0
LINE
  5
52A
100
AcDbEntity
  8
0
100
AcDbLine
 62
2
  6
CONTINUOUS
 10
14.41
 20
0.887
 11
14.41
 21
0.637
  0
LINE
  5
52B
100
AcDbEntity
  8
0
100
AcDbLine
 62
2
  6
CONTINUOUS
 10
14.41
 20
10.112
 11
14.41
 21
10.362
  0
LINE
  5
52C
100
AcDbEntity
  8
0
100
AcDbLine
 62
2
  6
CONTINUOUS
 10
15.58
 20
1.507
 11
15.58
 21
1.137
  0
LINE
  5
52D
100
AcDbEntity
  8
0
100
AcDbLine
 62
2
  6
CONTINUOUS
 10
16.38
 20
0.887
 11
16.38
 21
10.112
  0
LINE
  5
52E
100
AcDbEntity
  8
0
100
AcDbLine
 62
2
  6
CONTINUOUS
 10
16.53
 20
5.412897
 11
16.53
 21
5.586103
  0
LINE
  5
52F
100
AcDbEntity
  8
0
100
AcDbLine
 62
7
  6
CONTINUOUS
 10
2.832180884
 20
4.0790570317
 11
3.4226295092
 21
4.0790570317
  0
LINE
  5
530
100
AcDbEntity
  8
AXIS
100
AcDbLine
 62
7
  6
CENTER
 10
3.4226295092
 20
4.3651109021
 11
3.234046832
 21
4.3651109021
  0
LINE
  5
531
100
AcDbEntity
  8
AXIS
100
AcDbLine
 62
7
  6
CENTER
 10
3.4226295092
 20
4.3651109021
 11
3.6112121863
 21
4.3651109021
  0
LINE
  5
532
100
AcDbEntity
  8
AXIS
100
AcDbLine
 62
7
  6
CENTER
 10
3.4226295092
 20
4.4044809809
 11
3.234046832
 21
4.4044809809
  0
LINE
  5
533
100
AcDbEntity
  8
AXIS
100
AcDbLine
 62
7
  6
CENTER
 10
3.4226295092
 20
4.4044809809
 11
3.6112121863
 21
4.4044809809
  0
LWPOLYLINE
  5
534
100
AcDbEntity
  8
0
100
AcDbPolyline
 62
7
  6
CONTINUOUS
 90
3
 70
0
 10
3.5963100421
 20
4.6311359552
 10
3.5097920225
 20
4.6125496193
 10
3.4226295094
 20
4.6067683045
  0
LWPOLYLINE
  5
535
100
AcDbEntity
  8
0
100
AcDbPolyline
 62
7
  6
CONTINUOUS
 90
3
 70
0
 10
3.4226295094
 20
4.6076288838
 10
3.5097426838
 20
4.6129797445
 10
3.5963100421
 20
4.6311359552
  0
LWPOLYLINE
  5
536
100
AcDbEntity
  8
0
100
AcDbPolyline
 62
7
  6
CONTINUOUS
 90
20
 70
0
 10
3.4226295094
 20
4.6067683045
 10
3.3233782985
 20
4.6155778004
 10
3.225829799
 20
4.6409639631
 10
3.1340835492
 20
4.682109701
 10
3.0516282192
 20
4.7369949016
 10
2.9796815091
 20
4.8042110381
 10
2.9192377993
 20
4.8829119769
 10
2.8724993836
 20
4.9706343858
 10
2.8410912088
 20
5.0639662638
 10
2.825365139
 20
5.1612841114
 10
2.825771871
 20
5.2594948498
 10
2.8422807649
 20
5.3565253133
 10
2.8743742009
 20
5.4493000833
 10
2.921653535
 20
5.5362230969
 10
2.9824545602
 20
5.6139401159
 10
3.0544895559
 20
5.6799873035
 10
3.1367170492
 20
5.7335652147
 10
3.2279192066
 20
5.7733405251
 10
3.3245891468
 20
5.7973676153
 10
3.4226295089
 20
5.804910329
  0
LWPOLYLINE
  5
537
100
AcDbEntity
  8
0
100
AcDbPolyline
 62
7
  6
CONTINUOUS
 90
20
 70
0
 10
3.4226295094
 20
4.6296814176
 10
3.3272168305
 20
4.6381667493
 10
3.2334269069
 20
4.6625805031
 10
3.1451948101
 20
4.7021479529
 10
3.0658790162
 20
4.75493667
 10
2.9966712879
 20
4.8195844025
 10
2.9385521563
 20
4.8952390307
 10
2.8935917549
 20
4.9795852709
 10
2.8633638745
 20
5.0693454377
 10
2.8482167412
 20
5.1629595194
 10
2.8485903665
 20
5.2574167935
 10
2.8644453748
 20
5.3507169913
 10
2.8952903038
 20
5.4399447303
 10
2.9407514669
 20
5.5235633443
 10
2.9992391856
 20
5.5983430324
 10
3.068509983
 20
5.6618649649
 10
3.1475780327
 20
5.7133902307
 10
3.2352963228
 20
5.7516479362
 10
3.3282950574
 20
5.7747565433
 10
3.422629509
 20
5.781997216
  0
LINE
  5
538
100
AcDbEntity
  8
0
100
AcDbLine
 62
7
  6
CONTINUOUS
 10
3.2651491942
 20
6.0832837299
 11
3.2651491942
 21
6.0186542092
  0
LINE
  5
539
100
AcDbEntity
  8
AXIS
100
AcDbLine
 62
7
  6
CONTINUOUS
 10
3.2651491942
 20
4.2011931115
 11
3.2651491942
 21
4.3398514602
  0
LINE
  5
53A
100
AcDbEntity
  8
0
100
AcDbLine
 62
7
  6
CONTINUOUS
 10
3.2651491942
 20
4.3398514602
 11
3.2651491942
 21
4.4044809809
  0
LINE
  5
53B
100
AcDbEntity
  8
AXIS
100
AcDbLine
 62
7
  6
CONTINUOUS
 10
3.2651491942
 20
6.0832837299
 11
3.2651491942
 21
6.2219420786
  0
LINE
  5
53C
100
AcDbEntity
  8
AXIS
100
AcDbLine
 62
7
  6
CONTINUOUS
 10
3.334046832
 20
6.058024288
 11
3.334046832
 21
6.0186542092
  0
LINE
  5
53D
100
AcDbEntity
  8
AXIS
100
AcDbLine
 62
7
  6
CONTINUOUS
 10
3.334046832
 20
4.4044809809
 11
3.334046832
 21
4.3651109021
  0
LINE
  5
53E
100
AcDbEntity
  8
AXIS
100
AcDbLine
 62
7
  6
CENTER
 10
3.4226295092
 20
6.058024288
 11
3.4226295092
 21
5.8694416108
  0
LINE
  5
53F
100
AcDbEntity
  8
AXIS
100
AcDbLine
 62
7
  6
CENTER
 10
3.4226295092
 20
5.8694416108
 11
3.4226295092
 21
5.830071532
  0
LINE
  5
540
100
AcDbEntity
  8
AXIS
100
AcDbLine
 62
7
  6
CENTER
 10
3.4226295092
 20
5.211567595
 11
3.4226295092
 21
4.0879455478
  0
LINE
  5
541
100
AcDbEntity
  8
AXIS
100
AcDbLine
 62
7
  6
CENTER
 10
3.4226295092
 20
6.058024288
 11
3.4226295092
 21
6.2072368864
  0
LINE
  5
542
100
AcDbEntity
  8
AXIS
100
AcDbLine
 62
7
  6
CENTER
 10
3.4226295092
 20
6.2072368864
 11
3.4226295092
 21
6.2466069651
  0
LINE
  5
543
100
AcDbEntity
  8
AXIS
100
AcDbLine
 62
7
  6
CENTER
 10
3.4226295092
 20
5.211567595
 11
3.4226295092
 21
5.830071532
  0
LINE
  5
544
100
AcDbEntity
  8
AXIS
100
AcDbLine
 62
7
  6
CENTER
 10
3.4226295092
 20
6.2466069651
 11
3.4226295092
 21
6.3351896423
  0
LINE
  5
545
100
AcDbEntity
  8
DEFAULT_3
100
AcDbLine
 62
7
  6
PHANTOM
 10
3.4226295092
 20
4.0790570317
 11
3.4226295092
 21
6.3612115211
  0
LINE
  5
546
100
AcDbEntity
  8
AXIS
100
AcDbLine
 62
7
  6
CENTER
 10
3.4226295092
 20
5.211567595
 11
2.2990074619
 21
5.211567595
  0
LINE
  5
547
100
AcDbEntity
  8
AXIS
100
AcDbLine
 62
7
  6
CENTER
 10
3.4226295092
 20
5.211567595
 11
4.5462515564
 21
5.211567595
  0
LINE
  5
548
100
AcDbEntity
  8
AXIS
100
AcDbLine
 62
7
  6
CONTINUOUS
 10
3.5112121863
 20
4.3651109021
 11
3.5112121863
 21
4.4044809809
  0
LINE
  5
549
100
AcDbEntity
  8
AXIS
100
AcDbLine
 62
7
  6
CONTINUOUS
 10
3.5112121863
 20
6.0186542092
 11
3.5112121863
 21
6.058024288
  0
LINE
  5
54A
100
AcDbEntity
  8
AXIS
100
AcDbLine
 62
7
  6
CONTINUOUS
 10
3.5801098241
 20
6.2219420786
 11
3.5801098241
 21
6.0832837299
  0
LINE
  5
54B
100
AcDbEntity
  8
AXIS
100
AcDbLine
 62
7
  6
CONTINUOUS
 10
3.5801098241
 20
4.3398514602
 11
3.5801098241
 21
4.2011931115
  0
LINE
  5
54C
100
AcDbEntity
  8
0
100
AcDbLine
 62
7
  6
CONTINUOUS
 10
3.5801098241
 20
4.3398514602
 11
3.5801098241
 21
4.4044809809
  0
LINE
  5
54D
100
AcDbEntity
  8
0
100
AcDbLine
 62
7
  6
CONTINUOUS
 10
3.5801098241
 20
6.0186542092
 11
3.5801098241
 21
6.0832837299
  0
LWPOLYLINE
  5
54E
100
AcDbEntity
  8
0
100
AcDbPolyline
 62
7
  6
CONTINUOUS
 90
7
 70
0
 10
3.8497970882
 20
4.8371219376
 10
3.7821614178
 20
4.7731758491
 10
3.7050898227
 20
4.7212235708
 10
3.6206757455
 20
4.6826336931
 10
3.5312125826
 20
4.6584155752
 10
3.4391273264
 20
4.649187717
 10
3.3469906649
 20
4.6551497594
  0
LWPOLYLINE
  5
54F
100
AcDbEntity
  8
0
100
AcDbPolyline
 62
7
  6
CONTINUOUS
 90
20
 70
0
 10
3.422629509
 20
5.7947509802
 10
3.3260042495
 20
5.7878035201
 10
3.230593315
 20
5.764564317
 10
3.1404531975
 20
5.7257252967
 10
3.0590694168
 20
5.6731811173
 10
2.9876553445
 20
5.6082253475
 10
2.9272654414
 20
5.531637058
 10
2.88019226
 20
5.4458457784
 10
2.8481042568
 20
5.3541514735
 10
2.8314180381
 20
5.2581254187
 10
2.830675213
 20
5.1608137643
 10
2.8459296485
 20
5.064272165
 10
2.8767633547
 20
4.9715652605
 10
2.9228483402
 20
4.8843139001
 10
2.9825940163
 20
4.8059215472
 10
3.0538442445
 20
4.7388395625
 10
3.1356337854
 20
4.683920995
 10
3.2267614032
 20
4.642588885
 10
3.3237814237
 20
4.6168762383
 10
3.4226295094
 20
4.6076288838
  0
LWPOLYLINE
  5
550
100
AcDbEntity
  8
0
100
AcDbPolyline
 62
7
  6
CONTINUOUS
 90
16
 70
0
 10
3.422629509
 20
5.781997216
 10
3.5147561792
 20
5.7739085888
 10
3.6053996347
 20
5.7506654967
 10
3.6908673251
 20
5.7129635214
 10
3.767971398
 20
5.662584114
 10
3.8354835675
 20
5.6008754938
 10
3.8925226291
 20
5.5286442028
 10
3.9372454603
 20
5.4478583843
 10
3.9680397655
 20
5.3616413181
 10
3.9845240946
 20
5.2715708387
 10
3.986262809
 20
5.1803108793
 10
3.9732491737
 20
5.0898699151
 10
3.9458865301
 20
5.0029316163
 10
3.9045098753
 20
4.9209685331
 10
3.8503290164
 20
4.8467951148
 10
3.7855162788
 20
4.7830407756
  0
LWPOLYLINE
  5
551
100
AcDbEntity
  8
0
100
AcDbPolyline
 62
7
  6
CONTINUOUS
 90
20
 70
0
 10
3.4226295089
 20
5.804910329
 10
3.5199605502
 20
5.796263068
 10
3.615629423
 20
5.7713633894
 10
3.7056185353
 20
5.731007079
 10
3.7865042698
 20
5.6771702943
 10
3.8570814298
 20
5.6112387739
 10
3.9163628808
 20
5.5340614821
 10
3.9622125519
 20
5.4480274415
 10
3.9930309527
 20
5.3564814535
 10
4.0084679292
 20
5.2610152588
 10
4.0080780841
 20
5.1646815271
 10
3.9918965098
 20
5.069516233
 10
3.9604276389
 20
4.9785147662
 10
3.9140575315
 20
4.893243518
 10
3.8544130166
 20
4.8169945631
 10
3.7837604309
 20
4.7522099785
 10
3.7031126898
 20
4.6996581267
 10
3.6136522265
 20
4.6606412946
 10
3.518817353
 20
4.6370731847
 10
3.4226295094
 20
4.6296814176
  0
LWPOLYLINE
  5
552
100
AcDbEntity
  8
0
100
AcDbPolyline
 62
7
  6
CONTINUOUS
 90
15
 70
0
 10
3.422629509
 20
5.7947509802
 10
3.5171573449
 20
5.7859469227
 10
3.6088755974
 20
5.7619360823
 10
3.695350791
 20
5.7233916723
 10
3.7742941335
 20
5.6713743843
 10
3.8436262507
 20
5.6072989551
 10
3.9015262713
 20
5.5328967847
 10
3.9464763168
 20
5.4501756638
 10
3.9773066092
 20
5.3613645131
 10
3.9932284922
 20
5.2688464076
 10
3.9938514298
 20
5.1751038557
 10
3.9791948997
 20
5.0826458187
 10
3.9496876017
 20
4.993945995
 10
3.9061543057
 20
4.9113702771
 10
3.8497970882
 20
4.8371219376
  0
LINE
  5
553
100
AcDbEntity
  8
AXIS
100
AcDbLine
 62
7
  6
CENTER
 10
3.4226295092
 20
6.0186542092
 11
3.234046832
 21
6.0186542092
  0
LINE
  5
554
100
AcDbEntity
  8
AXIS
100
AcDbLine
 62
7
  6
CENTER
 10
3.4226295092
 20
6.0186542092
 11
3.6112121863
 21
6.0186542092
  0
LINE
  5
555
100
AcDbEntity
  8
AXIS
100
AcDbLine
 62
7
  6
CENTER
 10
3.4226295092
 20
6.058024288
 11
3.234046832
 21
6.058024288
  0
LINE
  5
556
100
AcDbEntity
  8
AXIS
100
AcDbLine
 62
7
  6
CENTER
 10
3.4226295092
 20
6.058024288
 11
3.6112121863
 21
6.058024288
  0
LINE
  5
557
100
AcDbEntity
  8
0
100
AcDbLine
 62
7
  6
CONTINUOUS
 10
2.833404272
 20
6.3612115211
 11
3.4226295092
 21
6.3612115211
  0
LINE
  5
558
100
AcDbEntity
  8
0
100
AcDbLine
 62
7
  6
CONTINUOUS
 10
8.0520149994
 20
4.1879455478
 11
8.2771566649
 21
4.1879455478
  0
LINE
  5
559
100
AcDbEntity
  8
0
100
AcDbLine
 62
7
  6
CONTINUOUS
 10
8.2771566649
 20
4.276528225
 11
8.0409361924
 21
4.276528225
  0
LINE
  5
55A
100
AcDbEntity
  8
AXIS
100
AcDbLine
 62
7
  6
CONTINUOUS
 10
7.0960543027
 20
4.3398514602
 11
7.6755266768
 21
4.3398514602
  0
LWPOLYLINE
  5
55B
100
AcDbEntity
  8
AXIS
100
AcDbPolyline
 62
7
  6
CONTINUOUS
 90
3
 70
0
 10
8.0409361924
 20
4.2011931115
 10
8.0357080175
 20
4.2024557587
 10
8.0306106926
 20
4.204196006
  0
LWPOLYLINE
  5
55C
100
AcDbEntity
  8
AXIS
100
AcDbPolyline
 62
7
  6
CONTINUOUS
 90
3
 70
0
 10
7.6969309836
 20
6.0873639008
 10
7.9165781694
 20
6.1740296339
 10
8.0306106926
 20
6.2189391841
  0
LWPOLYLINE
  5
55D
100
AcDbEntity
  8
AXIS
100
AcDbPolyline
 62
7
  6
CONTINUOUS
 90
3
 70
0
 10
8.0306106926
 20
6.2189391841
 10
8.0357080175
 20
6.2206794313
 10
8.0409361924
 20
6.2219420786
  0
LINE
  5
55E
100
AcDbEntity
  8
AXIS
100
AcDbLine
 62
9
  6
CONTINUOUS
 10
8.0409361924
 20
4.3651109021
 11
8.2771566649
 21
4.3651109021
  0
LINE
  5
55F
100
AcDbEntity
  8
0
100
AcDbLine
 62
9
  6
CONTINUOUS
 10
7.156300854
 20
4.4044809809
 11
8.0409361924
 21
4.4044809809
  0
LINE
  5
560
100
AcDbEntity
  8
AXIS
100
AcDbLine
 62
9
  6
CONTINUOUS
 10
8.0409361924
 20
4.4044809809
 11
8.2771566649
 21
4.4044809809
  0
LWPOLYLINE
  5
561
100
AcDbEntity
  8
AXIS
100
AcDbPolyline
 62
7
  6
CONTINUOUS
 90
4
 70
0
 10
7.6969309836
 20
4.3357712892
 10
7.6899843295
 20
4.3380253537
 10
7.6827915362
 20
4.3393956442
 10
7.6755266768
 20
4.3398514602
  0
LWPOLYLINE
  5
562
100
AcDbEntity
  8
AXIS
100
AcDbPolyline
 62
7
  6
CONTINUOUS
 90
3
 70
0
 10
8.0306106926
 20
4.204196006
 10
7.8054160391
 20
4.2929373619
 10
7.6969309836
 20
4.3357712892
  0
LINE
  5
563
100
AcDbEntity
  8
0
100
AcDbLine
 62
7
  6
CONTINUOUS
 10
8.2771566649
 20
4.493063658
 11
8.0409361924
 21
4.493063658
  0
LINE
  5
564
100
AcDbEntity
  8
0
100
AcDbLine
 62
7
  6
CONTINUOUS
 10
7.2096153796
 20
4.6067683045
 11
7.210227531
 21
4.6057080271
  0
LINE
  5
565
100
AcDbEntity
  8
0
100
AcDbLine
 62
7
  6
CONTINUOUS
 10
7.2397550901
 20
5.817427163
 11
7.2325284926
 21
5.804910329
  0
LINE
  5
566
100
AcDbEntity
  8
0
100
AcDbLine
 62
7
  6
CONTINUOUS
 10
7.2988102082
 20
5.817427163
 11
7.2783547188
 21
5.781997216
  0
LINE
  5
567
100
AcDbEntity
  8
0
100
AcDbLine
 62
7
  6
CONTINUOUS
 10
8.0409361924
 20
4.5619612958
 11
7.1780328583
 21
4.5619612958
  0
LINE
  5
568
100
AcDbEntity
  8
0
100
AcDbLine
 62
7
  6
CONTINUOUS
 10
7.2554416057
 20
4.6296814176
 11
7.2692826491
 21
4.6057080271
  0
LINE
  5
569
100
AcDbEntity
  8
0
100
AcDbLine
 62
7
  6
CONTINUOUS
 10
7.0960543027
 20
4.3398514602
 11
7.0960543027
 21
6.0832837299
  0
LINE
  5
56A
100
AcDbEntity
  8
0
100
AcDbLine
 62
7
  6
CONTINUOUS
 10
7.2382787121
 20
5.8099680263
 11
7.2394503254
 21
5.8168992951
  0
LWPOLYLINE
  5
56B
100
AcDbEntity
  8
0
100
AcDbPolyline
 62
7
  6
CONTINUOUS
 90
10
 70
0
 10
7.2528471903
 20
5.7947509802
 10
7.2507623451
 20
5.7885360574
 10
7.248652861
 20
5.7676072985
 10
7.2465455749
 20
5.7324754939
 10
7.2444675756
 20
5.6847297427
 10
7.2424049764
 20
5.6255948396
 10
7.2403293163
 20
5.555694705
 10
7.2382450118
 20
5.4767131669
 10
7.2361745153
 20
5.3914419976
 10
7.2279205197
 20
5.0266334178
  0
LINE
  5
56C
100
AcDbEntity
  8
0
100
AcDbLine
 62
7
  6
CONTINUOUS
 10
7.3578653263
 20
5.817427163
 11
7.3322747751
 21
5.7731030281
  0
LINE
  5
56D
100
AcDbEntity
  8
0
100
AcDbLine
 62
7
  6
CONTINUOUS
 10
7.2961430945
 20
4.650032162
 11
7.302747216
 21
4.650032162
  0
LINE
  5
56E
100
AcDbEntity
  8
0
100
AcDbLine
 62
7
  6
CONTINUOUS
 10
7.3539283184
 20
4.650032162
 11
7.3618023342
 21
4.650032162
  0
LINE
  5
56F
100
AcDbEntity
  8
0
100
AcDbLine
 62
7
  6
CONTINUOUS
 10
7.4129834365
 20
4.650032162
 11
7.4208574523
 21
4.650032162
  0
LINE
  5
570
100
AcDbEntity
  8
0
100
AcDbLine
 62
7
  6
CONTINUOUS
 10
7.4720385546
 20
4.650032162
 11
7.4799125704
 21
4.650032162
  0
LINE
  5
571
100
AcDbEntity
  8
0
100
AcDbLine
 62
7
  6
CONTINUOUS
 10
7.5310936727
 20
4.650032162
 11
7.5389676885
 21
4.650032162
  0
LINE
  5
572
100
AcDbEntity
  8
0
100
AcDbLine
 62
7
  6
CONTINUOUS
 10
7.5901487909
 20
4.650032162
 11
7.5980228066
 21
4.650032162
  0
LINE
  5
573
100
AcDbEntity
  8
0
100
AcDbLine
 62
7
  6
CONTINUOUS
 10
7.649203909
 20
4.650032162
 11
7.6570779247
 21
4.650032162
  0
LINE
  5
574
100
AcDbEntity
  8
0
100
AcDbLine
 62
7
  6
CONTINUOUS
 10
7.7082590271
 20
4.650032162
 11
7.7161330428
 21
4.650032162
  0
LINE
  5
575
100
AcDbEntity
  8
0
100
AcDbLine
 62
7
  6
CONTINUOUS
 10
7.7673141452
 20
4.650032162
 11
7.7751881609
 21
4.650032162
  0
LINE
  5
576
100
AcDbEntity
  8
0
100
AcDbLine
 62
7
  6
CONTINUOUS
 10
7.8263692633
 20
4.650032162
 11
7.834243279
 21
4.650032162
  0
LINE
  5
577
100
AcDbEntity
  8
0
100
AcDbLine
 62
7
  6
CONTINUOUS
 10
7.8854243814
 20
4.650032162
 11
7.8932983972
 21
4.650032162
  0
LINE
  5
578
100
AcDbEntity
  8
0
100
AcDbLine
 62
7
  6
CONTINUOUS
 10
7.9444794995
 20
4.650032162
 11
7.9523535153
 21
4.650032162
  0
LINE
  5
579
100
AcDbEntity
  8
0
100
AcDbLine
 62
7
  6
CONTINUOUS
 10
8.0035346176
 20
4.650032162
 11
8.0114086334
 21
4.650032162
  0
LINE
  5
57A
100
AcDbEntity
  8
0
100
AcDbLine
 62
7
  6
CONTINUOUS
 10
8.0625897357
 20
4.650032162
 11
8.0704637515
 21
4.650032162
  0
LINE
  5
57B
100
AcDbEntity
  8
0
100
AcDbLine
 62
7
  6
CONTINUOUS
 10
8.1216448538
 20
4.650032162
 11
8.1295188696
 21
4.650032162
  0
LINE
  5
57C
100
AcDbEntity
  8
0
100
AcDbLine
 62
7
  6
CONTINUOUS
 10
8.180699972
 20
4.650032162
 11
8.1885739877
 21
4.650032162
  0
LINE
  5
57D
100
AcDbEntity
  8
0
100
AcDbLine
 62
7
  6
CONTINUOUS
 10
8.2397550901
 20
4.650032162
 11
8.2476291058
 21
4.650032162
  0
LINE
  5
57E
100
AcDbEntity
  8
0
100
AcDbLine
 62
7
  6
CONTINUOUS
 10
7.302747216
 20
4.650032162
 11
7.3283377672
 21
4.6057080271
  0
LINE
  5
57F
100
AcDbEntity
  8
0
100
AcDbLine
 62
7
  6
CONTINUOUS
 10
7.3618023342
 20
4.650032162
 11
7.3873928853
 21
4.6057080271
  0
LINE
  5
580
100
AcDbEntity
  8
0
100
AcDbLine
 62
7
  6
CONTINUOUS
 10
7.1780328583
 20
5.946395711
 11
7.1780328583
 21
4.476739479
  0
LWPOLYLINE
  5
581
100
AcDbEntity
  8
0
100
AcDbPolyline
 62
7
  6
CONTINUOUS
 90
8
 70
0
 10
7.2240560312
 20
5.4493000835
 10
7.2252656845
 20
5.536223097
 10
7.2264731988
 20
5.613940116
 10
7.2276703426
 20
5.6799873035
 10
7.2288737577
 20
5.7335652147
 10
7.230095082
 20
5.7733405251
 10
7.2313190555
 20
5.7973676153
 10
7.2323284674
 20
5.8047871784
  0
LINE
  5
582
100
AcDbEntity
  8
0
100
AcDbLine
 62
7
  6
CONTINUOUS
 10
7.2368023342
 20
5.7877742851
 11
7.2382787121
 21
5.8099680263
  0
LINE
  5
583
100
AcDbEntity
  8
0
100
AcDbLine
 62
7
  6
CONTINUOUS
 10
7.2973338302
 20
5.8099680263
 11
7.2985054435
 21
5.8168992951
  0
LWPOLYLINE
  5
584
100
AcDbEntity
  8
0
100
AcDbPolyline
 62
7
  6
CONTINUOUS
 90
9
 70
0
 10
7.3244007594
 20
5.7731030281
 10
7.3229135138
 20
5.7660876547
 10
7.3214262683
 20
5.7452168233
 10
7.3199390228
 20
5.7110120207
 10
7.3184517773
 20
5.6643279018
 10
7.3169645318
 20
5.6063309345
 10
7.3154772862
 20
5.5384702538
 10
7.3139900407
 20
5.4624414538
 10
7.3065538131
 20
5.0306505238
  0
LINE
  5
585
100
AcDbEntity
  8
0
100
AcDbLine
 62
7
  6
CONTINUOUS
 10
7.4169204444
 20
5.817427163
 11
7.3913298932
 21
5.7731030281
  0
LINE
  5
586
100
AcDbEntity
  8
0
100
AcDbLine
 62
7
  6
CONTINUOUS
 10
7.4759755625
 20
5.817427163
 11
7.4503850113
 21
5.7731030281
  0
LINE
  5
587
100
AcDbEntity
  8
0
100
AcDbLine
 62
7
  6
CONTINUOUS
 10
7.4208574523
 20
4.650032162
 11
7.4464480035
 21
4.6057080271
  0
LINE
  5
588
100
AcDbEntity
  8
0
100
AcDbLine
 62
7
  6
CONTINUOUS
 10
7.2961430945
 20
4.6551497594
 11
7.2961430945
 21
4.650032162
  0
LWPOLYLINE
  5
589
100
AcDbEntity
  8
0
100
AcDbPolyline
 62
7
  6
CONTINUOUS
 90
8
 70
0
 10
7.2698789296
 20
5.4399447304
 10
7.2710888888
 20
5.5235633444
 10
7.2722970412
 20
5.5983430325
 10
7.2734943438
 20
5.661864965
 10
7.2746978666
 20
5.7133902308
 10
7.275919602
 20
5.7516479362
 10
7.2771442951
 20
5.7747565433
 10
7.278146666
 20
5.781869129
  0
LWPOLYLINE
  5
58A
100
AcDbEntity
  8
0
100
AcDbPolyline
 62
7
  6
CONTINUOUS
 90
6
 70
0
 10
7.2279440664
 20
5.3987884977
 10
7.2308968223
 20
5.567682914
 10
7.2323732003
 20
5.639975004
 10
7.2338495783
 20
5.7017182817
 10
7.2353259562
 20
5.7513924228
 10
7.2368023342
 20
5.7877742851
  0
LWPOLYLINE
  5
58B
100
AcDbEntity
  8
0
100
AcDbPolyline
 62
7
  6
CONTINUOUS
 90
7
 70
0
 10
7.2869991846
 20
5.3987884977
 10
7.2899519405
 20
5.567682914
 10
7.2914283184
 20
5.639975004
 10
7.2929046964
 20
5.7017182817
 10
7.2943810743
 20
5.7513924228
 10
7.2958574523
 20
5.7877742851
 10
7.2973338302
 20
5.8099680263
  0
LWPOLYLINE
  5
58C
100
AcDbEntity
  8
0
100
AcDbPolyline
 62
7
  6
CONTINUOUS
 90
8
 70
0
 10
7.2279205197
 20
5.0266334178
 10
7.2258541543
 20
4.9402335794
 10
7.2237764254
 20
4.8597504516
 10
7.2217098738
 20
4.7880473282
 10
7.219657205
 20
4.7268317392
 10
7.2175902759
 20
4.6768017073
 10
7.2154967939
 20
4.639295569
 10
7.2134034309
 20
4.616023551
  0
LWPOLYLINE
  5
58D
100
AcDbEntity
  8
0
100
AcDbPolyline
 62
7
  6
CONTINUOUS
 90
8
 70
0
 10
7.210818929
 20
4.6155778004
 10
7.2120377006
 20
4.6409639632
 10
7.2132547033
 20
4.6821097011
 10
7.214454734
 20
4.7369949017
 10
7.2156487646
 20
4.8042110382
 10
7.2168534009
 20
4.8829119771
 10
7.218061237
 20
4.9706343859
 10
7.2240560312
 20
5.4493000835
  0
LWPOLYLINE
  5
58E
100
AcDbEntity
  8
0
100
AcDbPolyline
 62
7
  6
CONTINUOUS
 90
8
 70
0
 10
7.211703909
 20
4.6131671638
 10
7.2131802869
 20
4.635360905
 10
7.2146566649
 20
4.6717427673
 10
7.2161330428
 20
4.7214169084
 10
7.2176094208
 20
4.7831601861
 10
7.2190857987
 20
4.8554522761
 10
7.2205621767
 20
4.936513107
 10
7.2279440664
 20
5.3987884977
  0
LWPOLYLINE
  5
58F
100
AcDbEntity
  8
0
100
AcDbPolyline
 62
7
  6
CONTINUOUS
 90
5
 70
0
 10
7.1780328583
 20
4.476739479
 10
7.1767111562
 20
4.4588685597
 10
7.172436117
 20
4.4397750027
 10
7.1653219464
 20
4.4210938749
 10
7.156300854
 20
4.4044809809
  0
LINE
  5
590
100
AcDbEntity
  8
0
100
AcDbLine
 62
7
  6
CONTINUOUS
 10
7.2098221644
 20
4.608281886
 11
7.210818929
 21
4.6155778004
  0
LINE
  5
591
100
AcDbEntity
  8
0
100
AcDbLine
 62
7
  6
CONTINUOUS
 10
7.3563889483
 20
5.8099680263
 11
7.3575605617
 21
5.8168992951
  0
LWPOLYLINE
  5
592
100
AcDbEntity
  8
0
100
AcDbPolyline
 62
7
  6
CONTINUOUS
 90
9
 70
0
 10
7.3320023688
 20
5.7728672
 10
7.3307207639
 20
5.7654451137
 10
7.3291667208
 20
5.7426796196
 10
7.3276126504
 20
5.7054267216
 10
7.3260585573
 20
5.6547020033
 10
7.3245044461
 20
5.5918887695
 10
7.3229503216
 20
5.5187003085
 10
7.3213961883
 20
5.4371331322
 10
7.3151796605
 20
5.0737065202
  0
LINE
  5
593
100
AcDbEntity
  8
0
100
AcDbLine
 62
7
  6
CONTINUOUS
 10
7.3898535153
 20
5.7661895951
 11
7.3910574869
 21
5.7728672
  0
LWPOLYLINE
  5
594
100
AcDbEntity
  8
0
100
AcDbPolyline
 62
7
  6
CONTINUOUS
 90
9
 70
0
 10
7.3834558775
 20
5.7731030281
 10
7.3818993801
 20
5.7654206475
 10
7.3803241664
 20
5.7422190334
 10
7.3787523339
 20
5.7042441991
 10
7.3772035189
 20
5.6533725326
 10
7.3756623783
 20
5.5908691623
 10
7.3741062761
 20
5.5174414119
 10
7.3725476241
 20
5.4355088729
 10
7.3663659704
 20
5.0740081384
  0
LINE
  5
595
100
AcDbEntity
  8
0
100
AcDbLine
 62
7
  6
CONTINUOUS
 10
7.5350306806
 20
5.817427163
 11
7.5094401294
 21
5.7731030281
  0
LINE
  5
596
100
AcDbEntity
  8
0
100
AcDbLine
 62
7
  6
CONTINUOUS
 10
7.4799125704
 20
4.650032162
 11
7.5055031216
 21
4.6057080271
  0
LINE
  5
597
100
AcDbEntity
  8
0
100
AcDbLine
 62
7
  6
CONTINUOUS
 10
7.5389676885
 20
4.650032162
 11
7.5645582397
 21
4.6057080271
  0
LWPOLYLINE
  5
598
100
AcDbEntity
  8
0
100
AcDbPolyline
 62
7
  6
CONTINUOUS
 90
8
 70
0
 10
7.3065538131
 20
5.0306505238
 10
7.3050665676
 20
4.9491442639
 10
7.3035793221
 20
4.8741950173
 10
7.3020920766
 20
4.8076754957
 10
7.300604831
 20
4.7512477821
 10
7.2991175855
 20
4.7063218018
 10
7.29763034
 20
4.6740200931
 10
7.2961430945
 20
4.6551497594
  0
LWPOLYLINE
  5
599
100
AcDbEntity
  8
0
100
AcDbPolyline
 62
7
  6
CONTINUOUS
 90
7
 70
0
 10
7.3460543027
 20
5.3987884977
 10
7.3490070586
 20
5.567682914
 10
7.3504834365
 20
5.639975004
 10
7.3519598145
 20
5.7017182817
 10
7.3534361924
 20
5.7513924228
 10
7.3549125704
 20
5.7877742851
 10
7.3563889483
 20
5.8099680263
  0
LWPOLYLINE
  5
59A
100
AcDbEntity
  8
0
100
AcDbPolyline
 62
7
  6
CONTINUOUS
 90
8
 70
0
 10
7.3151796605
 20
5.0737065202
 10
7.3120714648
 20
4.9044246393
 10
7.3105174001
 20
4.8312400523
 10
7.3089633642
 20
4.7684306302
 10
7.3074093594
 20
4.7177089984
 10
7.3058553397
 20
4.6804569157
 10
7.3043012887
 20
4.657690681
 10
7.302747216
 20
4.650032162
  0
LWPOLYLINE
  5
59B
100
AcDbEntity
  8
0
100
AcDbPolyline
 62
7
  6
CONTINUOUS
 90
7
 70
0
 10
7.3663659704
 20
5.0740081384
 10
7.3632647346
 20
4.905033458
 10
7.3617121994
 20
4.8318424981
 10
7.3601714476
 20
4.7694225264
 10
7.3586229357
 20
4.7186353314
 10
7.3570528378
 20
4.6807757825
 10
7.3554807178
 20
4.6576742354
  0
LWPOLYLINE
  5
59C
100
AcDbEntity
  8
0
100
AcDbPolyline
 62
7
  6
CONTINUOUS
 90
7
 70
0
 10
7.3795188696
 20
5.3850915868
 10
7.3824716255
 20
5.5416298412
 10
7.3839480035
 20
5.6086331076
 10
7.3854243814
 20
5.6658593033
 10
7.3869007594
 20
5.7118993295
 10
7.3883771373
 20
5.7456195278
 10
7.3898535153
 20
5.7661895951
  0
LWPOLYLINE
  5
59D
100
AcDbEntity
  8
0
100
AcDbPolyline
 62
7
  6
CONTINUOUS
 90
8
 70
0
 10
7.2707590271
 20
4.6131671638
 10
7.272235405
 20
4.635360905
 10
7.273711783
 20
4.6717427673
 10
7.2751881609
 20
4.7214169084
 10
7.2766645389
 20
4.7831601861
 10
7.2781409168
 20
4.8554522761
 10
7.2796172948
 20
4.936513107
 10
7.2869991846
 20
5.3987884977
  0
LWPOLYLINE
  5
59E
100
AcDbEntity
  8
0
100
AcDbPolyline
 62
7
  6
CONTINUOUS
 90
8
 70
0
 10
7.3298141452
 20
4.6131671638
 10
7.3312905231
 20
4.635360905
 10
7.3327669011
 20
4.6717427673
 10
7.334243279
 20
4.7214169084
 10
7.335719657
 20
4.7831601861
 10
7.3371960349
 20
4.8554522761
 10
7.3386724129
 20
4.936513107
 10
7.3460543027
 20
5.3987884977
  0
LWPOLYLINE
  5
59F
100
AcDbEntity
  8
0
100
AcDbPolyline
 62
7
  6
CONTINUOUS
 90
9
 70
0
 10
7.2554416057
 20
4.6296814176
 10
7.2566442051
 20
4.6381667494
 10
7.2578622451
 20
4.6625805032
 10
7.2590788236
 20
4.702147953
 10
7.2602787323
 20
4.7549366702
 10
7.2614726605
 20
4.8195844026
 10
7.2626766388
 20
4.8952390308
 10
7.2638841478
 20
4.9795852711
 10
7.2698789296
 20
5.4399447304
  0
LINE
  5
5A0
100
AcDbEntity
  8
0
100
AcDbLine
 62
7
  6
CONTINUOUS
 10
7.2108587664
 20
4.6081672974
 11
7.211703909
 21
4.6131671638
  0
LINE
  5
5A1
100
AcDbEntity
  8
0
100
AcDbLine
 62
7
  6
CONTINUOUS
 10
7.4154440664
 20
5.8099680263
 11
7.4166156798
 21
5.8168992951
  0
LINE
  5
5A2
100
AcDbEntity
  8
0
100
AcDbLine
 62
7
  6
CONTINUOUS
 10
7.2695874137
 20
4.606235895
 11
7.2707590271
 21
4.6131671638
  0
LINE
  5
5A3
100
AcDbEntity
  8
0
100
AcDbLine
 62
7
  6
CONTINUOUS
 10
7.4744991846
 20
5.8099680263
 11
7.4756707979
 21
5.8168992951
  0
LINE
  5
5A4
100
AcDbEntity
  8
0
100
AcDbLine
 62
7
  6
CONTINUOUS
 10
7.4489086334
 20
5.7661895951
 11
7.4501126051
 21
5.7728672
  0
LWPOLYLINE
  5
5A5
100
AcDbEntity
  8
0
100
AcDbPolyline
 62
7
  6
CONTINUOUS
 90
9
 70
0
 10
7.4425109956
 20
5.7731030281
 10
7.4410346176
 20
5.7661895951
 10
7.4395582397
 20
5.7456195278
 10
7.4380818617
 20
5.7118993295
 10
7.4366054838
 20
5.6658593033
 10
7.4351291058
 20
5.6086331076
 10
7.4336527279
 20
5.5416298412
 10
7.4321763499
 20
5.4664993469
 10
7.4247944601
 20
5.0380436033
  0
LINE
  5
5A6
100
AcDbEntity
  8
0
100
AcDbLine
 62
7
  6
CONTINUOUS
 10
7.2134034309
 20
4.616023551
 11
7.211692725
 21
4.6080263309
  0
LINE
  5
5A7
100
AcDbEntity
  8
0
100
AcDbLine
 62
7
  6
CONTINUOUS
 10
7.5940857987
 20
5.817427163
 11
7.5684952475
 21
5.7731030281
  0
LINE
  5
5A8
100
AcDbEntity
  8
0
100
AcDbLine
 62
7
  6
CONTINUOUS
 10
7.6531409168
 20
5.817427163
 11
7.6275503657
 21
5.7731030281
  0
LINE
  5
5A9
100
AcDbEntity
  8
0
100
AcDbLine
 62
7
  6
CONTINUOUS
 10
7.5980228066
 20
4.650032162
 11
7.6236133578
 21
4.6057080271
  0
LINE
  5
5AA
100
AcDbEntity
  8
0
100
AcDbLine
 62
7
  6
CONTINUOUS
 10
7.6570779247
 20
4.650032162
 11
7.6826684759
 21
4.6057080271
  0
LWPOLYLINE
  5
5AB
100
AcDbEntity
  8
0
100
AcDbPolyline
 62
7
  6
CONTINUOUS
 90
7
 70
0
 10
7.4051094208
 20
5.3987884977
 10
7.4080621767
 20
5.567682914
 10
7.4095385546
 20
5.639975004
 10
7.4110149326
 20
5.7017182817
 10
7.4124913105
 20
5.7513924228
 10
7.4139676885
 20
5.7877742851
 10
7.4154440664
 20
5.8099680263
  0
LWPOLYLINE
  5
5AC
100
AcDbEntity
  8
0
100
AcDbPolyline
 62
7
  6
CONTINUOUS
 90
7
 70
0
 10
7.4247944601
 20
5.0380436033
 10
7.4218417042
 20
4.8815053488
 10
7.4203653263
 20
4.8145020824
 10
7.4188889483
 20
4.7572758867
 10
7.4174125704
 20
4.7112358606
 10
7.4159361924
 20
4.6775156623
 10
7.4144598145
 20
4.656945595
  0
LWPOLYLINE
  5
5AD
100
AcDbEntity
  8
0
100
AcDbPolyline
 62
7
  6
CONTINUOUS
 90
7
 70
0
 10
7.4385739877
 20
5.3850915868
 10
7.4415267436
 20
5.5416298412
 10
7.4430031216
 20
5.6086331076
 10
7.4444794995
 20
5.6658593033
 10
7.4459558775
 20
5.7118993295
 10
7.4474322554
 20
5.7456195278
 10
7.4489086334
 20
5.7661895951
  0
LWPOLYLINE
  5
5AE
100
AcDbEntity
  8
0
100
AcDbPolyline
 62
7
  6
CONTINUOUS
 90
8
 70
0
 10
7.3888692633
 20
4.6131671638
 10
7.3903456412
 20
4.635360905
 10
7.3918220192
 20
4.6717427673
 10
7.3932983972
 20
4.7214169084
 10
7.3947747751
 20
4.7831601861
 10
7.3962511531
 20
4.8554522761
 10
7.397727531
 20
4.936513107
 10
7.4051094208
 20
5.3987884977
  0
LINE
  5
5AF
100
AcDbEntity
  8
0
100
AcDbLine
 62
7
  6
CONTINUOUS
 10
7.3286425319
 20
4.606235895
 11
7.3298141452
 21
4.6131671638
  0
LINE
  5
5B0
100
AcDbEntity
  8
0
100
AcDbLine
 62
7
  6
CONTINUOUS
 10
7.5335543027
 20
5.8099680263
 11
7.534725916
 21
5.8168992951
  0
LINE
  5
5B1
100
AcDbEntity
  8
0
100
AcDbLine
 62
7
  6
CONTINUOUS
 10
7.3554807178
 20
4.6576742354
 11
7.3542007247
 21
4.6502679901
  0
LINE
  5
5B2
100
AcDbEntity
  8
0
100
AcDbLine
 62
7
  6
CONTINUOUS
 10
7.5079637515
 20
5.7661895951
 11
7.5091677232
 21
5.7728672
  0
LINE
  5
5B3
100
AcDbEntity
  8
0
100
AcDbLine
 62
7
  6
CONTINUOUS
 10
7.2952505452
 20
4.6508679859
 11
7.2961430945
 21
4.6551497594
  0
LWPOLYLINE
  5
5B4
100
AcDbEntity
  8
0
100
AcDbPolyline
 62
7
  6
CONTINUOUS
 90
9
 70
0
 10
7.5015661137
 20
5.7731030281
 10
7.5000897357
 20
5.7661895951
 10
7.4986133578
 20
5.7456195278
 10
7.4971369798
 20
5.7118993295
 10
7.4956606019
 20
5.6658593033
 10
7.4941842239
 20
5.6086331076
 10
7.492707846
 20
5.5416298412
 10
7.491231468
 20
5.4664993469
 10
7.4838495783
 20
5.0380436033
  0
LWPOLYLINE
  5
5B5
100
AcDbEntity
  8
0
100
AcDbPolyline
 62
7
  6
CONTINUOUS
 90
9
 70
0
 10
7.5606212318
 20
5.7731030281
 10
7.5591448538
 20
5.7661895951
 10
7.5576684759
 20
5.7456195278
 10
7.5561920979
 20
5.7118993295
 10
7.55471572
 20
5.6658593033
 10
7.553239342
 20
5.6086331076
 10
7.5517629641
 20
5.5416298412
 10
7.5502865861
 20
5.4664993469
 10
7.5429046964
 20
5.0380436033
  0
LINE
  5
5B6
100
AcDbEntity
  8
0
100
AcDbLine
 62
7
  6
CONTINUOUS
 10
7.7121960349
 20
5.817427163
 11
7.6866054838
 21
5.7731030281
  0
LINE
  5
5B7
100
AcDbEntity
  8
0
100
AcDbLine
 62
7
  6
CONTINUOUS
 10
7.7712511531
 20
5.817427163
 11
7.7456606019
 21
5.7731030281
  0
LINE
  5
5B8
100
AcDbEntity
  8
0
100
AcDbLine
 62
7
  6
CONTINUOUS
 10
7.7161330428
 20
4.650032162
 11
7.741723594
 21
4.6057080271
  0
LWPOLYLINE
  5
5B9
100
AcDbEntity
  8
0
100
AcDbPolyline
 62
7
  6
CONTINUOUS
 90
8
 70
0
 10
7.4641645389
 20
5.3987884977
 10
7.4656409168
 20
5.486622083
 10
7.4671172948
 20
5.567682914
 10
7.4685936727
 20
5.639975004
 10
7.4700700507
 20
5.7017182817
 10
7.4715464286
 20
5.7513924228
 10
7.4730228066
 20
5.7877742851
 10
7.4744991846
 20
5.8099680263
  0
LWPOLYLINE
  5
5BA
100
AcDbEntity
  8
0
100
AcDbPolyline
 62
7
  6
CONTINUOUS
 90
7
 70
0
 10
7.523219657
 20
5.3987884977
 10
7.5261724129
 20
5.567682914
 10
7.5276487909
 20
5.639975004
 10
7.5291251688
 20
5.7017182817
 10
7.5306015468
 20
5.7513924228
 10
7.5320779247
 20
5.7877742851
 10
7.5335543027
 20
5.8099680263
  0
LWPOLYLINE
  5
5BB
100
AcDbEntity
  8
0
100
AcDbPolyline
 62
7
  6
CONTINUOUS
 90
7
 70
0
 10
7.4838495783
 20
5.0380436033
 10
7.4808968223
 20
4.8815053488
 10
7.4794204444
 20
4.8145020824
 10
7.4779440664
 20
4.7572758867
 10
7.4764676885
 20
4.7112358606
 10
7.4749913105
 20
4.6775156623
 10
7.4735149326
 20
4.656945595
  0
LWPOLYLINE
  5
5BC
100
AcDbEntity
  8
0
100
AcDbPolyline
 62
7
  6
CONTINUOUS
 90
7
 70
0
 10
7.4976291058
 20
5.3850915868
 10
7.5005818617
 20
5.5416298412
 10
7.5020582397
 20
5.6086331076
 10
7.5035346176
 20
5.6658593033
 10
7.5050109956
 20
5.7118993295
 10
7.5064873735
 20
5.7456195278
 10
7.5079637515
 20
5.7661895951
  0
LWPOLYLINE
  5
5BD
100
AcDbEntity
  8
0
100
AcDbPolyline
 62
7
  6
CONTINUOUS
 90
8
 70
0
 10
7.4479243814
 20
4.6131671638
 10
7.4494007594
 20
4.635360905
 10
7.4508771373
 20
4.6717427673
 10
7.4523535153
 20
4.7214169084
 10
7.4538298932
 20
4.7831601861
 10
7.4553062712
 20
4.8554522761
 10
7.4567826491
 20
4.936513107
 10
7.4641645389
 20
5.3987884977
  0
LINE
  5
5BE
100
AcDbEntity
  8
0
100
AcDbLine
 62
7
  6
CONTINUOUS
 10
7.38769765
 20
4.606235895
 11
7.3888692633
 21
4.6131671638
  0
LINE
  5
5BF
100
AcDbEntity
  8
0
100
AcDbLine
 62
7
  6
CONTINUOUS
 10
7.5926094208
 20
5.8099680263
 11
7.5937810341
 21
5.8168992951
  0
LINE
  5
5C0
100
AcDbEntity
  8
0
100
AcDbLine
 62
7
  6
CONTINUOUS
 10
7.5670188696
 20
5.7661895951
 11
7.5682228413
 21
5.7728672
  0
LINE
  5
5C1
100
AcDbEntity
  8
0
100
AcDbLine
 62
7
  6
CONTINUOUS
 10
7.4144598145
 20
4.656945595
 11
7.4132558428
 21
4.6502679901
  0
LINE
  5
5C2
100
AcDbEntity
  8
0
100
AcDbLine
 62
7
  6
CONTINUOUS
 10
7.6260739877
 20
5.7661895951
 11
7.6272779594
 21
5.7728672
  0
LWPOLYLINE
  5
5C3
100
AcDbEntity
  8
0
100
AcDbPolyline
 62
7
  6
CONTINUOUS
 90
9
 70
0
 10
7.6196763499
 20
5.7731030281
 10
7.6181198526
 20
5.7654206475
 10
7.6165446388
 20
5.7422190334
 10
7.6149728063
 20
5.7042441991
 10
7.6134239914
 20
5.6533725326
 10
7.6118828507
 20
5.5908691623
 10
7.6103267486
 20
5.5174414119
 10
7.6087680965
 20
5.4355088729
 10
7.6025864428
 20
5.0740081384
  0
LWPOLYLINE
  5
5C4
100
AcDbEntity
  8
0
100
AcDbPolyline
 62
7
  6
CONTINUOUS
 90
9
 70
0
 10
7.3618023342
 20
4.650032162
 10
7.3632787121
 20
4.656945595
 10
7.3647550901
 20
4.6775156623
 10
7.366231468
 20
4.7112358606
 10
7.367707846
 20
4.7572758867
 10
7.3691842239
 20
4.8145020824
 10
7.3706606019
 20
4.8815053488
 10
7.3721369798
 20
4.9566358432
 10
7.3795188696
 20
5.3850915868
  0
LINE
  5
5C5
100
AcDbEntity
  8
0
100
AcDbLine
 62
7
  6
CONTINUOUS
 10
7.2947403212
 20
4.6495663096
 11
7.2952505452
 21
4.6508679859
  0
LINE
  5
5C6
100
AcDbEntity
  8
0
100
AcDbLine
 62
7
  6
CONTINUOUS
 10
7.8303062712
 20
5.817427163
 11
7.80471572
 21
5.7731030281
  0
LINE
  5
5C7
100
AcDbEntity
  8
0
100
AcDbLine
 62
7
  6
CONTINUOUS
 10
7.7751881609
 20
4.650032162
 11
7.8007787121
 21
4.6057080271
  0
LINE
  5
5C8
100
AcDbEntity
  8
0
100
AcDbLine
 62
7
  6
CONTINUOUS
 10
7.834243279
 20
4.650032162
 11
7.8598338302
 21
4.6057080271
  0
LWPOLYLINE
  5
5C9
100
AcDbEntity
  8
0
100
AcDbPolyline
 62
7
  6
CONTINUOUS
 90
7
 70
0
 10
7.5822747751
 20
5.3987884977
 10
7.585227531
 20
5.567682914
 10
7.586703909
 20
5.639975004
 10
7.5881802869
 20
5.7017182817
 10
7.5896566649
 20
5.7513924228
 10
7.5911330428
 20
5.7877742851
 10
7.5926094208
 20
5.8099680263
  0
LWPOLYLINE
  5
5CA
100
AcDbEntity
  8
0
100
AcDbPolyline
 62
7
  6
CONTINUOUS
 90
7
 70
0
 10
7.6025864428
 20
5.0740081384
 10
7.599485207
 20
4.905033458
 10
7.5979326718
 20
4.8318424981
 10
7.5963919201
 20
4.7694225264
 10
7.5948434081
 20
4.7186353314
 10
7.5932733103
 20
4.6807757825
 10
7.5917011902
 20
4.6576742354
  0
LWPOLYLINE
  5
5CB
100
AcDbEntity
  8
0
100
AcDbPolyline
 62
7
  6
CONTINUOUS
 90
7
 70
0
 10
7.5429046964
 20
5.0380436033
 10
7.5399519405
 20
4.8815053488
 10
7.5384755625
 20
4.8145020824
 10
7.5369991846
 20
4.7572758867
 10
7.5355228066
 20
4.7112358606
 10
7.5340464286
 20
4.6775156623
 10
7.5325700507
 20
4.656945595
  0
LWPOLYLINE
  5
5CC
100
AcDbEntity
  8
0
100
AcDbPolyline
 62
7
  6
CONTINUOUS
 90
7
 70
0
 10
7.5566842239
 20
5.3850915868
 10
7.5596369798
 20
5.5416298412
 10
7.5611133578
 20
5.6086331076
 10
7.5625897357
 20
5.6658593033
 10
7.5640661137
 20
5.7118993295
 10
7.5655424916
 20
5.7456195278
 10
7.5670188696
 20
5.7661895951
  0
LWPOLYLINE
  5
5CD
100
AcDbEntity
  8
0
100
AcDbPolyline
 62
7
  6
CONTINUOUS
 90
7
 70
0
 10
7.615739342
 20
5.3850915868
 10
7.6186920979
 20
5.5416298412
 10
7.6201684759
 20
5.6086331076
 10
7.6216448538
 20
5.6658593033
 10
7.6231212318
 20
5.7118993295
 10
7.6245976097
 20
5.7456195278
 10
7.6260739877
 20
5.7661895951
  0
LWPOLYLINE
  5
5CE
100
AcDbEntity
  8
0
100
AcDbPolyline
 62
7
  6
CONTINUOUS
 90
8
 70
0
 10
7.5069794995
 20
4.6131671638
 10
7.5084558775
 20
4.635360905
 10
7.5099322554
 20
4.6717427673
 10
7.5114086334
 20
4.7214169084
 10
7.5128850113
 20
4.7831601861
 10
7.5143613893
 20
4.8554522761
 10
7.5158377672
 20
4.936513107
 10
7.523219657
 20
5.3987884977
  0
LWPOLYLINE
  5
5CF
100
AcDbEntity
  8
0
100
AcDbPolyline
 62
7
  6
CONTINUOUS
 90
8
 70
0
 10
7.5660346176
 20
4.6131671638
 10
7.5675109956
 20
4.635360905
 10
7.5689873735
 20
4.6717427673
 10
7.5704637515
 20
4.7214169084
 10
7.5719401294
 20
4.7831601861
 10
7.5734165074
 20
4.8554522761
 10
7.5748928853
 20
4.936513107
 10
7.5822747751
 20
5.3987884977
  0
LINE
  5
5D0
100
AcDbEntity
  8
0
100
AcDbLine
 62
7
  6
CONTINUOUS
 10
7.4467527681
 20
4.606235895
 11
7.4479243814
 21
4.6131671638
  0
LINE
  5
5D1
100
AcDbEntity
  8
0
100
AcDbLine
 62
7
  6
CONTINUOUS
 10
7.6516645389
 20
5.8099680263
 11
7.6528361522
 21
5.8168992951
  0
LINE
  5
5D2
100
AcDbEntity
  8
0
100
AcDbLine
 62
7
  6
CONTINUOUS
 10
7.5058078862
 20
4.606235895
 11
7.5069794995
 21
4.6131671638
  0
LINE
  5
5D3
100
AcDbEntity
  8
0
100
AcDbLine
 62
7
  6
CONTINUOUS
 10
7.710719657
 20
5.8099680263
 11
7.7118912703
 21
5.8168992951
  0
LINE
  5
5D4
100
AcDbEntity
  8
0
100
AcDbLine
 62
7
  6
CONTINUOUS
 10
7.4735149326
 20
4.656945595
 11
7.4723109609
 21
4.6502679901
  0
LINE
  5
5D5
100
AcDbEntity
  8
0
100
AcDbLine
 62
7
  6
CONTINUOUS
 10
7.6851291058
 20
5.7661895951
 11
7.6863330775
 21
5.7728672
  0
LWPOLYLINE
  5
5D6
100
AcDbEntity
  8
0
100
AcDbPolyline
 62
7
  6
CONTINUOUS
 90
9
 70
0
 10
7.4208574523
 20
4.650032162
 10
7.4223338302
 20
4.656945595
 10
7.4238102082
 20
4.6775156623
 10
7.4252865861
 20
4.7112358606
 10
7.4267629641
 20
4.7572758867
 10
7.428239342
 20
4.8145020824
 10
7.42971572
 20
4.8815053488
 10
7.4311920979
 20
4.9566358432
 10
7.4385739877
 20
5.3850915868
  0
LWPOLYLINE
  5
5D7
100
AcDbEntity
  8
0
100
AcDbPolyline
 62
7
  6
CONTINUOUS
 90
9
 70
0
 10
7.678731468
 20
5.7731030281
 10
7.6772550901
 20
5.7661895951
 10
7.6757787121
 20
5.7456195278
 10
7.6743023342
 20
5.7118993295
 10
7.6728259562
 20
5.6658593033
 10
7.6713495783
 20
5.6086331076
 10
7.6698732003
 20
5.5416298412
 10
7.6683968223
 20
5.4664993469
 10
7.6610149326
 20
5.0380436033
  0
LWPOLYLINE
  5
5D8
100
AcDbEntity
  8
0
100
AcDbPolyline
 62
7
  6
CONTINUOUS
 90
9
 70
0
 10
7.4799125704
 20
4.650032162
 10
7.4813889483
 20
4.656945595
 10
7.4828653263
 20
4.6775156623
 10
7.4843417042
 20
4.7112358606
 10
7.4858180822
 20
4.7572758867
 10
7.4872944601
 20
4.8145020824
 10
7.4887708381
 20
4.8815053488
 10
7.490247216
 20
4.9566358432
 10
7.4976291058
 20
5.3850915868
  0
LINE
  5
5D9
100
AcDbEntity
  8
0
100
AcDbLine
 62
7
  6
CONTINUOUS
 10
7.8893613893
 20
5.817427163
 11
7.8637708381
 21
5.7731030281
  0
LINE
  5
5DA
100
AcDbEntity
  8
0
100
AcDbLine
 62
7
  6
CONTINUOUS
 10
7.210227531
 20
4.6057080271
 11
7.2113365381
 21
4.6076288838
  0
LINE
  5
5DB
100
AcDbEntity
  8
0
100
AcDbLine
 62
7
  6
CONTINUOUS
 10
7.9484165074
 20
5.817427163
 11
7.9228259562
 21
5.7731030281
  0
LINE
  5
5DC
100
AcDbEntity
  8
0
100
AcDbLine
 62
7
  6
CONTINUOUS
 10
7.8932983972
 20
4.650032162
 11
7.9188889483
 21
4.6057080271
  0
LINE
  5
5DD
100
AcDbEntity
  8
0
100
AcDbLine
 62
7
  6
CONTINUOUS
 10
7.2528471903
 20
5.7947509802
 11
7.2397550901
 21
5.817427163
  0
LWPOLYLINE
  5
5DE
100
AcDbEntity
  8
0
100
AcDbPolyline
 62
7
  6
CONTINUOUS
 90
5
 70
0
 10
7.156300854
 20
6.0186542092
 10
7.1653303243
 20
6.0020232113
 10
7.1724389937
 20
5.9833506477
 10
7.1767105314
 20
5.9642708862
 10
7.1780328583
 20
5.946395711
  0
LWPOLYLINE
  5
5DF
100
AcDbEntity
  8
0
100
AcDbPolyline
 62
7
  6
CONTINUOUS
 90
7
 70
0
 10
7.6413298932
 20
5.3987884977
 10
7.6442826491
 20
5.567682914
 10
7.6457590271
 20
5.639975004
 10
7.647235405
 20
5.7017182817
 10
7.648711783
 20
5.7513924228
 10
7.6501881609
 20
5.7877742851
 10
7.6516645389
 20
5.8099680263
  0
LWPOLYLINE
  5
5E0
100
AcDbEntity
  8
0
100
AcDbPolyline
 62
7
  6
CONTINUOUS
 90
7
 70
0
 10
7.6610149326
 20
5.0380436033
 10
7.6580621767
 20
4.8815053488
 10
7.6565857987
 20
4.8145020824
 10
7.6551094208
 20
4.7572758867
 10
7.6536330428
 20
4.7112358606
 10
7.6521566649
 20
4.6775156623
 10
7.6506802869
 20
4.656945595
  0
LWPOLYLINE
  5
5E1
100
AcDbEntity
  8
0
100
AcDbPolyline
 62
7
  6
CONTINUOUS
 90
7
 70
0
 10
7.6747944601
 20
5.3850915868
 10
7.677747216
 20
5.5416298412
 10
7.679223594
 20
5.6086331076
 10
7.680699972
 20
5.6658593033
 10
7.6821763499
 20
5.7118993295
 10
7.6836527279
 20
5.7456195278
 10
7.6851291058
 20
5.7661895951
  0
LWPOLYLINE
  5
5E2
100
AcDbEntity
  8
0
100
AcDbPolyline
 62
7
  6
CONTINUOUS
 90
8
 70
0
 10
7.6250897357
 20
4.6131671638
 10
7.6265661137
 20
4.635360905
 10
7.6280424916
 20
4.6717427673
 10
7.6295188696
 20
4.7214169084
 10
7.6309952475
 20
4.7831601861
 10
7.6324716255
 20
4.8554522761
 10
7.6339480035
 20
4.936513107
 10
7.6413298932
 20
5.3987884977
  0
LINE
  5
5E3
100
AcDbEntity
  8
0
100
AcDbLine
 62
7
  6
CONTINUOUS
 10
7.5648630043
 20
4.606235895
 11
7.5660346176
 21
4.6131671638
  0
LINE
  5
5E4
100
AcDbEntity
  8
0
100
AcDbLine
 62
7
  6
CONTINUOUS
 10
7.7697747751
 20
5.8099680263
 11
7.7709463884
 21
5.8168992951
  0
LINE
  5
5E5
100
AcDbEntity
  8
0
100
AcDbLine
 62
7
  6
CONTINUOUS
 10
7.5917011902
 20
4.6576742354
 11
7.5904211971
 21
4.6502679901
  0
LINE
  5
5E6
100
AcDbEntity
  8
0
100
AcDbLine
 62
7
  6
CONTINUOUS
 10
7.5325700507
 20
4.656945595
 11
7.531366079
 21
4.6502679901
  0
LINE
  5
5E7
100
AcDbEntity
  8
0
100
AcDbLine
 62
7
  6
CONTINUOUS
 10
7.7441842239
 20
5.7661895951
 11
7.7453881956
 21
5.7728672
  0
LWPOLYLINE
  5
5E8
100
AcDbEntity
  8
0
100
AcDbPolyline
 62
7
  6
CONTINUOUS
 90
9
 70
0
 10
7.7377865861
 20
5.7731030281
 10
7.7363102082
 20
5.7661895951
 10
7.7348338302
 20
5.7456195278
 10
7.7333574523
 20
5.7118993295
 10
7.7318810743
 20
5.6658593033
 10
7.7304046964
 20
5.6086331076
 10
7.7289283184
 20
5.5416298412
 10
7.7274519405
 20
5.4664993469
 10
7.7200700507
 20
5.0380436033
  0
LWPOLYLINE
  5
5E9
100
AcDbEntity
  8
0
100
AcDbPolyline
 62
7
  6
CONTINUOUS
 90
9
 70
0
 10
7.5389676885
 20
4.650032162
 10
7.5404440664
 20
4.656945595
 10
7.5419204444
 20
4.6775156623
 10
7.5433968223
 20
4.7112358606
 10
7.5448732003
 20
4.7572758867
 10
7.5463495783
 20
4.8145020824
 10
7.5478259562
 20
4.8815053488
 10
7.5493023342
 20
4.9566358432
 10
7.5566842239
 20
5.3850915868
  0
LWPOLYLINE
  5
5EA
100
AcDbEntity
  8
0
100
AcDbPolyline
 62
7
  6
CONTINUOUS
 90
9
 70
0
 10
7.7968417042
 20
5.7731030281
 10
7.7953653263
 20
5.7661895951
 10
7.7938889483
 20
5.7456195278
 10
7.7924125704
 20
5.7118993295
 10
7.7909361924
 20
5.6658593033
 10
7.7894598145
 20
5.6086331076
 10
7.7879834365
 20
5.5416298412
 10
7.7865070586
 20
5.4664993469
 10
7.7791251688
 20
5.0380436033
  0
LINE
  5
5EB
100
AcDbEntity
  8
0
100
AcDbLine
 62
7
  6
CONTINUOUS
 10
7.2692826491
 20
4.6057080271
 11
7.2943578424
 21
4.6491395359
  0
LINE
  5
5EC
100
AcDbEntity
  8
0
100
AcDbLine
 62
7
  6
CONTINUOUS
 10
8.0074716255
 20
5.817427163
 11
7.9818810743
 21
5.7731030281
  0
LINE
  5
5ED
100
AcDbEntity
  8
0
100
AcDbLine
 62
7
  6
CONTINUOUS
 10
7.3283377672
 20
4.6057080271
 11
7.3539283184
 21
4.650032162
  0
LINE
  5
5EE
100
AcDbEntity
  8
AXIS
100
AcDbLine
 62
7
  6
CENTER
 10
8.3771566649
 20
5.211567595
 11
6.9960543027
 21
5.211567595
  0
LINE
  5
5EF
100
AcDbEntity
  8
0
100
AcDbLine
 62
7
  6
CONTINUOUS
 10
7.9523535153
 20
4.650032162
 11
7.9779440664
 21
4.6057080271
  0
LINE
  5
5F0
100
AcDbEntity
  8
0
100
AcDbLine
 62
7
  6
CONTINUOUS
 10
7.3244007594
 20
5.7731030281
 11
7.2988102082
 21
5.817427163
  0
LINE
  5
5F1
100
AcDbEntity
  8
0
100
AcDbLine
 62
7
  6
CONTINUOUS
 10
8.0114086334
 20
4.650032162
 11
8.0369991846
 21
4.6057080271
  0
LWPOLYLINE
  5
5F2
100
AcDbEntity
  8
0
100
AcDbPolyline
 62
7
  6
CONTINUOUS
 90
8
 70
0
 10
7.7003850113
 20
5.3987884977
 10
7.7018613893
 20
5.486622083
 10
7.7033377672
 20
5.567682914
 10
7.7048141452
 20
5.639975004
 10
7.7062905231
 20
5.7017182817
 10
7.7077669011
 20
5.7513924228
 10
7.709243279
 20
5.7877742851
 10
7.710719657
 20
5.8099680263
  0
LWPOLYLINE
  5
5F3
100
AcDbEntity
  8
0
100
AcDbPolyline
 62
7
  6
CONTINUOUS
 90
7
 70
0
 10
7.7594401294
 20
5.3987884977
 10
7.7623928853
 20
5.567682914
 10
7.7638692633
 20
5.639975004
 10
7.7653456412
 20
5.7017182817
 10
7.7668220192
 20
5.7513924228
 10
7.7682983972
 20
5.7877742851
 10
7.7697747751
 20
5.8099680263
  0
LWPOLYLINE
  5
5F4
100
AcDbEntity
  8
0
100
AcDbPolyline
 62
7
  6
CONTINUOUS
 90
7
 70
0
 10
7.7200700507
 20
5.0380436033
 10
7.7171172948
 20
4.8815053488
 10
7.7156409168
 20
4.8145020824
 10
7.7141645389
 20
4.7572758867
 10
7.7126881609
 20
4.7112358606
 10
7.711211783
 20
4.6775156623
 10
7.709735405
 20
4.656945595
  0
LWPOLYLINE
  5
5F5
100
AcDbEntity
  8
0
100
AcDbPolyline
 62
7
  6
CONTINUOUS
 90
7
 70
0
 10
7.7338495783
 20
5.3850915868
 10
7.7368023342
 20
5.5416298412
 10
7.7382787121
 20
5.6086331076
 10
7.7397550901
 20
5.6658593033
 10
7.741231468
 20
5.7118993295
 10
7.742707846
 20
5.7456195278
 10
7.7441842239
 20
5.7661895951
  0
LWPOLYLINE
  5
5F6
100
AcDbEntity
  8
0
100
AcDbPolyline
 62
7
  6
CONTINUOUS
 90
8
 70
0
 10
7.6841448538
 20
4.6131671638
 10
7.6856212318
 20
4.635360905
 10
7.6870976097
 20
4.6717427673
 10
7.6885739877
 20
4.7214169084
 10
7.6900503657
 20
4.7831601861
 10
7.6915267436
 20
4.8554522761
 10
7.6930031216
 20
4.936513107
 10
7.7003850113
 20
5.3987884977
  0
LINE
  5
5F7
100
AcDbEntity
  8
0
100
AcDbLine
 62
7
  6
CONTINUOUS
 10
7.6239181224
 20
4.606235895
 11
7.6250897357
 21
4.6131671638
  0
LINE
  5
5F8
100
AcDbEntity
  8
0
100
AcDbLine
 62
7
  6
CONTINUOUS
 10
7.8288298932
 20
5.8099680263
 11
7.8300015065
 21
5.8168992951
  0
LINE
  5
5F9
100
AcDbEntity
  8
0
100
AcDbLine
 62
7
  6
CONTINUOUS
 10
7.803239342
 20
5.7661895951
 11
7.8044433137
 21
5.7728672
  0
LINE
  5
5FA
100
AcDbEntity
  8
0
100
AcDbLine
 62
7
  6
CONTINUOUS
 10
7.6506802869
 20
4.656945595
 11
7.6494763152
 21
4.6502679901
  0
LINE
  5
5FB
100
AcDbEntity
  8
0
100
AcDbLine
 62
7
  6
CONTINUOUS
 10
7.8622944601
 20
5.7661895951
 11
7.8634984318
 21
5.7728672
  0
LWPOLYLINE
  5
5FC
100
AcDbEntity
  8
0
100
AcDbPolyline
 62
7
  6
CONTINUOUS
 90
9
 70
0
 10
7.8558968223
 20
5.7731030281
 10
7.854340325
 20
5.7654206475
 10
7.8527651112
 20
5.7422190334
 10
7.8511932788
 20
5.7042441991
 10
7.8496444638
 20
5.6533725326
 10
7.8481033232
 20
5.5908691623
 10
7.846547221
 20
5.5174414119
 10
7.844988569
 20
5.4355088729
 10
7.8388069153
 20
5.0740081384
  0
LWPOLYLINE
  5
5FD
100
AcDbEntity
  8
0
100
AcDbPolyline
 62
7
  6
CONTINUOUS
 90
9
 70
0
 10
7.5980228066
 20
4.650032162
 10
7.5994991846
 20
4.656945595
 10
7.6009755625
 20
4.6775156623
 10
7.6024519405
 20
4.7112358606
 10
7.6039283184
 20
4.7572758867
 10
7.6054046964
 20
4.8145020824
 10
7.6068810743
 20
4.8815053488
 10
7.6083574523
 20
4.9566358432
 10
7.615739342
 20
5.3850915868
  0
LWPOLYLINE
  5
5FE
100
AcDbEntity
  8
0
100
AcDbPolyline
 62
7
  6
CONTINUOUS
 90
9
 70
0
 10
7.6570779247
 20
4.650032162
 10
7.6585543027
 20
4.656945595
 10
7.6600306806
 20
4.6775156623
 10
7.6615070586
 20
4.7112358606
 10
7.6629834365
 20
4.7572758867
 10
7.6644598145
 20
4.8145020824
 10
7.6659361924
 20
4.8815053488
 10
7.6674125704
 20
4.9566358432
 10
7.6747944601
 20
5.3850915868
  0
LINE
  5
5FF
100
AcDbEntity
  8
0
100
AcDbLine
 62
7
  6
CONTINUOUS
 10
8.0665267436
 20
5.817427163
 11
8.0409361924
 21
5.7731030281
  0
LINE
  5
600
100
AcDbEntity
  8
0
100
AcDbLine
 62
7
  6
CONTINUOUS
 10
7.3873928853
 20
4.6057080271
 11
7.4129834365
 21
4.650032162
  0
LINE
  5
601
100
AcDbEntity
  8
0
100
AcDbLine
 62
7
  6
CONTINUOUS
 10
8.1255818617
 20
5.817427163
 11
8.0999913105
 21
5.7731030281
  0
LWPOLYLINE
  5
602
100
AcDbEntity
  8
0
100
AcDbPolyline
 62
7
  6
CONTINUOUS
 90
5
 70
0
 10
7.156300854
 20
4.4044809809
 10
7.1447685636
 20
4.3886876243
 10
7.1302249776
 20
4.3738555992
 10
7.1135503848
 20
4.3613234151
 10
7.0960543027
 20
4.351856319
  0
LINE
  5
603
100
AcDbEntity
  8
0
100
AcDbLine
 62
7
  6
CONTINUOUS
 10
7.3834558775
 20
5.7731030281
 11
7.3578653263
 21
5.817427163
  0
LINE
  5
604
100
AcDbEntity
  8
0
100
AcDbLine
 62
7
  6
CONTINUOUS
 10
8.0704637515
 20
4.650032162
 11
8.0960543027
 21
4.6057080271
  0
LINE
  5
605
100
AcDbEntity
  8
0
100
AcDbLine
 62
7
  6
CONTINUOUS
 10
7.4425109956
 20
5.7731030281
 11
7.4169204444
 21
5.817427163
  0
LWPOLYLINE
  5
606
100
AcDbEntity
  8
0
100
AcDbPolyline
 62
7
  6
CONTINUOUS
 90
7
 70
0
 10
7.8184952475
 20
5.3987884977
 10
7.8214480035
 20
5.567682914
 10
7.8229243814
 20
5.639975004
 10
7.8244007594
 20
5.7017182817
 10
7.8258771373
 20
5.7513924228
 10
7.8273535153
 20
5.7877742851
 10
7.8288298932
 20
5.8099680263
  0
LWPOLYLINE
  5
607
100
AcDbEntity
  8
0
100
AcDbPolyline
 62
7
  6
CONTINUOUS
 90
7
 70
0
 10
7.8388069153
 20
5.0740081384
 10
7.8357056795
 20
4.905033458
 10
7.8341531443
 20
4.8318424981
 10
7.8326123925
 20
4.7694225264
 10
7.8310638805
 20
4.7186353314
 10
7.8294937827
 20
4.6807757825
 10
7.8279216627
 20
4.6576742354
  0
LWPOLYLINE
  5
608
100
AcDbEntity
  8
0
100
AcDbPolyline
 62
7
  6
CONTINUOUS
 90
7
 70
0
 10
7.7791251688
 20
5.0380436033
 10
7.7761724129
 20
4.8815053488
 10
7.7746960349
 20
4.8145020824
 10
7.773219657
 20
4.7572758867
 10
7.771743279
 20
4.7112358606
 10
7.7702669011
 20
4.6775156623
 10
7.7687905231
 20
4.656945595
  0
LWPOLYLINE
  5
609
100
AcDbEntity
  8
0
100
AcDbPolyline
 62
7
  6
CONTINUOUS
 90
7
 70
0
 10
7.7929046964
 20
5.3850915868
 10
7.7958574523
 20
5.5416298412
 10
7.7973338302
 20
5.6086331076
 10
7.7988102082
 20
5.6658593033
 10
7.8002865861
 20
5.7118993295
 10
7.8017629641
 20
5.7456195278
 10
7.803239342
 20
5.7661895951
  0
LWPOLYLINE
  5
60A
100
AcDbEntity
  8
0
100
AcDbPolyline
 62
7
  6
CONTINUOUS
 90
7
 70
0
 10
7.8519598145
 20
5.3850915868
 10
7.8549125704
 20
5.5416298412
 10
7.8563889483
 20
5.6086331076
 10
7.8578653263
 20
5.6658593033
 10
7.8593417042
 20
5.7118993295
 10
7.8608180822
 20
5.7456195278
 10
7.8622944601
 20
5.7661895951
  0
LWPOLYLINE
  5
60B
100
AcDbEntity
  8
0
100
AcDbPolyline
 62
7
  6
CONTINUOUS
 90
8
 70
0
 10
7.743199972
 20
4.6131671638
 10
7.7446763499
 20
4.635360905
 10
7.7461527279
 20
4.6717427673
 10
7.7476291058
 20
4.7214169084
 10
7.7491054838
 20
4.7831601861
 10
7.7505818617
 20
4.8554522761
 10
7.7520582397
 20
4.936513107
 10
7.7594401294
 20
5.3987884977
  0
LWPOLYLINE
  5
60C
100
AcDbEntity
  8
0
100
AcDbPolyline
 62
7
  6
CONTINUOUS
 90
8
 70
0
 10
7.8022550901
 20
4.6131671638
 10
7.803731468
 20
4.635360905
 10
7.805207846
 20
4.6717427673
 10
7.8066842239
 20
4.7214169084
 10
7.8081606019
 20
4.7831601861
 10
7.8096369798
 20
4.8554522761
 10
7.8111133578
 20
4.936513107
 10
7.8184952475
 20
5.3987884977
  0
LINE
  5
60D
100
AcDbEntity
  8
0
100
AcDbLine
 62
7
  6
CONTINUOUS
 10
7.6829732405
 20
4.606235895
 11
7.6841448538
 21
4.6131671638
  0
LINE
  5
60E
100
AcDbEntity
  8
0
100
AcDbLine
 62
7
  6
CONTINUOUS
 10
7.8878850113
 20
5.8099680263
 11
7.8890566247
 21
5.8168992951
  0
LINE
  5
60F
100
AcDbEntity
  8
0
100
AcDbLine
 62
7
  6
CONTINUOUS
 10
7.7420283586
 20
4.606235895
 11
7.743199972
 21
4.6131671638
  0
LINE
  5
610
100
AcDbEntity
  8
0
100
AcDbLine
 62
7
  6
CONTINUOUS
 10
7.9469401294
 20
5.8099680263
 11
7.9481117428
 21
5.8168992951
  0
LINE
  5
611
100
AcDbEntity
  8
0
100
AcDbLine
 62
7
  6
CONTINUOUS
 10
7.709735405
 20
4.656945595
 11
7.7085314333
 21
4.6502679901
  0
LINE
  5
612
100
AcDbEntity
  8
0
100
AcDbLine
 62
7
  6
CONTINUOUS
 10
7.9213495783
 20
5.7661895951
 11
7.9225535499
 21
5.7728672
  0
LWPOLYLINE
  5
613
100
AcDbEntity
  8
0
100
AcDbPolyline
 62
7
  6
CONTINUOUS
 90
9
 70
0
 10
7.9149519405
 20
5.7731030281
 10
7.9134755625
 20
5.7661895951
 10
7.9119991846
 20
5.7456195278
 10
7.9105228066
 20
5.7118993295
 10
7.9090464286
 20
5.6658593033
 10
7.9075700507
 20
5.6086331076
 10
7.9060936727
 20
5.5416298412
 10
7.9046172948
 20
5.4664993469
 10
7.897235405
 20
5.0380436033
  0
LWPOLYLINE
  5
614
100
AcDbEntity
  8
0
100
AcDbPolyline
 62
7
  6
CONTINUOUS
 90
9
 70
0
 10
7.7161330428
 20
4.650032162
 10
7.7176094208
 20
4.656945595
 10
7.7190857987
 20
4.6775156623
 10
7.7205621767
 20
4.7112358606
 10
7.7220385546
 20
4.7572758867
 10
7.7235149326
 20
4.8145020824
 10
7.7249913105
 20
4.8815053488
 10
7.7264676885
 20
4.9566358432
 10
7.7338495783
 20
5.3850915868
  0
LWPOLYLINE
  5
615
100
AcDbEntity
  8
0
100
AcDbPolyline
 62
7
  6
CONTINUOUS
 90
9
 70
0
 10
7.9740070586
 20
5.7731030281
 10
7.9725306806
 20
5.7661895951
 10
7.9710543027
 20
5.7456195278
 10
7.9695779247
 20
5.7118993295
 10
7.9681015468
 20
5.6658593033
 10
7.9666251688
 20
5.6086331076
 10
7.9651487909
 20
5.5416298412
 10
7.9636724129
 20
5.4664993469
 10
7.9562905231
 20
5.0380436033
  0
LINE
  5
616
100
AcDbEntity
  8
0
100
AcDbLine
 62
7
  6
CONTINUOUS
 10
7.4464480035
 20
4.6057080271
 11
7.4720385546
 21
4.650032162
  0
LINE
  5
617
100
AcDbEntity
  8
0
100
AcDbLine
 62
7
  6
CONTINUOUS
 10
8.1846369798
 20
5.817427163
 11
8.1590464286
 21
5.7731030281
  0
LINE
  5
618
100
AcDbEntity
  8
0
100
AcDbLine
 62
7
  6
CONTINUOUS
 10
7.5055031216
 20
4.6057080271
 11
7.5310936727
 21
4.650032162
  0
LINE
  5
619
100
AcDbEntity
  8
0
100
AcDbLine
 62
7
  6
CONTINUOUS
 10
8.1295188696
 20
4.650032162
 11
8.1551094208
 21
4.6057080271
  0
LINE
  5
61A
100
AcDbEntity
  8
0
100
AcDbLine
 62
7
  6
CONTINUOUS
 10
7.5015661137
 20
5.7731030281
 11
7.4759755625
 21
5.817427163
  0
LINE
  5
61B
100
AcDbEntity
  8
0
100
AcDbLine
 62
7
  6
CONTINUOUS
 10
8.1885739877
 20
4.650032162
 11
8.2141645389
 21
4.6057080271
  0
LWPOLYLINE
  5
61C
100
AcDbEntity
  8
0
100
AcDbPolyline
 62
7
  6
CONTINUOUS
 90
7
 70
0
 10
7.8775503657
 20
5.3987884977
 10
7.8805031216
 20
5.567682914
 10
7.8819794995
 20
5.639975004
 10
7.8834558775
 20
5.7017182817
 10
7.8849322554
 20
5.7513924228
 10
7.8864086334
 20
5.7877742851
 10
7.8878850113
 20
5.8099680263
  0
LWPOLYLINE
  5
61D
100
AcDbEntity
  8
0
100
AcDbPolyline
 62
7
  6
CONTINUOUS
 90
7
 70
0
 10
7.9366054838
 20
5.3987884977
 10
7.9395582397
 20
5.567682914
 10
7.9410346176
 20
5.639975004
 10
7.9425109956
 20
5.7017182817
 10
7.9439873735
 20
5.7513924228
 10
7.9454637515
 20
5.7877742851
 10
7.9469401294
 20
5.8099680263
  0
LWPOLYLINE
  5
61E
100
AcDbEntity
  8
0
100
AcDbPolyline
 62
7
  6
CONTINUOUS
 90
7
 70
0
 10
7.897235405
 20
5.0380436033
 10
7.8942826491
 20
4.8815053488
 10
7.8928062712
 20
4.8145020824
 10
7.8913298932
 20
4.7572758867
 10
7.8898535153
 20
4.7112358606
 10
7.8883771373
 20
4.6775156623
 10
7.8869007594
 20
4.656945595
  0
LWPOLYLINE
  5
61F
100
AcDbEntity
  8
0
100
AcDbPolyline
 62
7
  6
CONTINUOUS
 90
7
 70
0
 10
7.9110149326
 20
5.3850915868
 10
7.9139676885
 20
5.5416298412
 10
7.9154440664
 20
5.6086331076
 10
7.9169204444
 20
5.6658593033
 10
7.9183968223
 20
5.7118993295
 10
7.9198732003
 20
5.7456195278
 10
7.9213495783
 20
5.7661895951
  0
LWPOLYLINE
  5
620
100
AcDbEntity
  8
0
100
AcDbPolyline
 62
7
  6
CONTINUOUS
 90
8
 70
0
 10
7.8613102082
 20
4.6131671638
 10
7.8627865861
 20
4.635360905
 10
7.8642629641
 20
4.6717427673
 10
7.865739342
 20
4.7214169084
 10
7.86721572
 20
4.7831601861
 10
7.8686920979
 20
4.8554522761
 10
7.8701684759
 20
4.936513107
 10
7.8775503657
 20
5.3987884977
  0
LINE
  5
621
100
AcDbEntity
  8
0
100
AcDbLine
 62
7
  6
CONTINUOUS
 10
7.8010834767
 20
4.606235895
 11
7.8022550901
 21
4.6131671638
  0
LINE
  5
622
100
AcDbEntity
  8
0
100
AcDbLine
 62
7
  6
CONTINUOUS
 10
8.0059952475
 20
5.8099680263
 11
8.0071668609
 21
5.8168992951
  0
LINE
  5
623
100
AcDbEntity
  8
0
100
AcDbLine
 62
7
  6
CONTINUOUS
 10
7.8279216627
 20
4.6576742354
 11
7.8266416696
 21
4.6502679901
  0
LINE
  5
624
100
AcDbEntity
  8
0
100
AcDbLine
 62
7
  6
CONTINUOUS
 10
7.7687905231
 20
4.656945595
 11
7.7675865515
 21
4.6502679901
  0
LINE
  5
625
100
AcDbEntity
  8
0
100
AcDbLine
 62
7
  6
CONTINUOUS
 10
7.9804046964
 20
5.7661895951
 11
7.981608668
 21
5.7728672
  0
LWPOLYLINE
  5
626
100
AcDbEntity
  8
0
100
AcDbPolyline
 62
7
  6
CONTINUOUS
 90
9
 70
0
 10
7.7751881609
 20
4.650032162
 10
7.7766645389
 20
4.656945595
 10
7.7781409168
 20
4.6775156623
 10
7.7796172948
 20
4.7112358606
 10
7.7810936727
 20
4.7572758867
 10
7.7825700507
 20
4.8145020824
 10
7.7840464286
 20
4.8815053488
 10
7.7855228066
 20
4.9566358432
 10
7.7929046964
 20
5.3850915868
  0
LWPOLYLINE
  5
627
100
AcDbEntity
  8
0
100
AcDbPolyline
 62
7
  6
CONTINUOUS
 90
9
 70
0
 10
8.0330621767
 20
5.7731030281
 10
8.0315857987
 20
5.7661895951
 10
8.0301094208
 20
5.7456195278
 10
8.0286330428
 20
5.7118993295
 10
8.0271566649
 20
5.6658593033
 10
8.0256802869
 20
5.6086331076
 10
8.024203909
 20
5.5416298412
 10
8.022727531
 20
5.4664993469
 10
8.0153456412
 20
5.0380436033
  0
LINE
  5
628
100
AcDbEntity
  8
0
100
AcDbLine
 62
7
  6
CONTINUOUS
 10
8.2436920979
 20
5.817427163
 11
8.2181015468
 21
5.7731030281
  0
LINE
  5
629
100
AcDbEntity
  8
0
100
AcDbLine
 62
7
  6
CONTINUOUS
 10
7.5645582397
 20
4.6057080271
 11
7.5901487909
 21
4.650032162
  0
LINE
  5
62A
100
AcDbEntity
  8
0
100
AcDbLine
 62
7
  6
CONTINUOUS
 10
7.5606212318
 20
5.7731030281
 11
7.5350306806
 21
5.817427163
  0
LINE
  5
62B
100
AcDbEntity
  8
0
100
AcDbLine
 62
7
  6
CONTINUOUS
 10
8.2476291058
 20
4.650032162
 11
8.273219657
 21
4.6057080271
  0
LINE
  5
62C
100
AcDbEntity
  8
0
100
AcDbLine
 62
7
  6
CONTINUOUS
 10
7.6196763499
 20
5.7731030281
 11
7.5940857987
 21
5.817427163
  0
LWPOLYLINE
  5
62D
100
AcDbEntity
  8
0
100
AcDbPolyline
 62
7
  6
CONTINUOUS
 90
7
 70
0
 10
7.9956606019
 20
5.3987884977
 10
7.9986133578
 20
5.567682914
 10
8.0000897357
 20
5.639975004
 10
8.0015661137
 20
5.7017182817
 10
8.0030424916
 20
5.7513924228
 10
8.0045188696
 20
5.7877742851
 10
8.0059952475
 20
5.8099680263
  0
LWPOLYLINE
  5
62E
100
AcDbEntity
  8
0
100
AcDbPolyline
 62
7
  6
CONTINUOUS
 90
7
 70
0
 10
7.9562905231
 20
5.0380436033
 10
7.9533377672
 20
4.8815053488
 10
7.9518613893
 20
4.8145020824
 10
7.9503850113
 20
4.7572758867
 10
7.9489086334
 20
4.7112358606
 10
7.9474322554
 20
4.6775156623
 10
7.9459558775
 20
4.656945595
  0
LWPOLYLINE
  5
62F
100
AcDbEntity
  8
0
100
AcDbPolyline
 62
7
  6
CONTINUOUS
 90
7
 70
0
 10
7.9700700507
 20
5.3850915868
 10
7.9730228066
 20
5.5416298412
 10
7.9744991846
 20
5.6086331076
 10
7.9759755625
 20
5.6658593033
 10
7.9774519405
 20
5.7118993295
 10
7.9789283184
 20
5.7456195278
 10
7.9804046964
 20
5.7661895951
  0
LWPOLYLINE
  5
630
100
AcDbEntity
  8
0
100
AcDbPolyline
 62
7
  6
CONTINUOUS
 90
8
 70
0
 10
7.9203653263
 20
4.6131671638
 10
7.9218417042
 20
4.635360905
 10
7.9233180822
 20
4.6717427673
 10
7.9247944601
 20
4.7214169084
 10
7.9262708381
 20
4.7831601861
 10
7.927747216
 20
4.8554522761
 10
7.929223594
 20
4.936513107
 10
7.9366054838
 20
5.3987884977
  0
LINE
  5
631
100
AcDbEntity
  8
0
100
AcDbLine
 62
7
  6
CONTINUOUS
 10
7.8601385948
 20
4.606235895
 11
7.8613102082
 21
4.6131671638
  0
LINE
  5
632
100
AcDbEntity
  8
0
100
AcDbLine
 62
7
  6
CONTINUOUS
 10
8.0650503657
 20
5.8099680263
 11
8.066221979
 21
5.8168992951
  0
LINE
  5
633
100
AcDbEntity
  8
0
100
AcDbLine
 62
7
  6
CONTINUOUS
 10
8.0394598145
 20
5.7661895951
 11
8.0406637862
 21
5.7728672
  0
LINE
  5
634
100
AcDbEntity
  8
0
100
AcDbLine
 62
7
  6
CONTINUOUS
 10
7.8869007594
 20
4.656945595
 11
7.8856967877
 21
4.6502679901
  0
LINE
  5
635
100
AcDbEntity
  8
0
100
AcDbLine
 62
7
  6
CONTINUOUS
 10
8.0985149326
 20
5.7661895951
 11
8.0997189043
 21
5.7728672
  0
LWPOLYLINE
  5
636
100
AcDbEntity
  8
0
100
AcDbPolyline
 62
7
  6
CONTINUOUS
 90
9
 70
0
 10
8.0921172948
 20
5.7731030281
 10
8.0905607975
 20
5.7654206475
 10
8.0889855837
 20
5.7422190334
 10
8.0874137512
 20
5.7042441991
 10
8.0858649362
 20
5.6533725326
 10
8.0843237956
 20
5.5908691623
 10
8.0827676934
 20
5.5174414119
 10
8.0812090414
 20
5.4355088729
 10
8.0750273877
 20
5.0740081384
  0
LWPOLYLINE
  5
637
100
AcDbEntity
  8
0
100
AcDbPolyline
 62
7
  6
CONTINUOUS
 90
9
 70
0
 10
7.834243279
 20
4.650032162
 10
7.835719657
 20
4.656945595
 10
7.8371960349
 20
4.6775156623
 10
7.8386724129
 20
4.7112358606
 10
7.8401487909
 20
4.7572758867
 10
7.8416251688
 20
4.8145020824
 10
7.8431015468
 20
4.8815053488
 10
7.8445779247
 20
4.9566358432
 10
7.8519598145
 20
5.3850915868
  0
LWPOLYLINE
  5
638
100
AcDbEntity
  8
0
100
AcDbPolyline
 62
7
  6
CONTINUOUS
 90
9
 70
0
 10
7.8932983972
 20
4.650032162
 10
7.8947747751
 20
4.656945595
 10
7.8962511531
 20
4.6775156623
 10
7.897727531
 20
4.7112358606
 10
7.899203909
 20
4.7572758867
 10
7.9006802869
 20
4.8145020824
 10
7.9021566649
 20
4.8815053488
 10
7.9036330428
 20
4.9566358432
 10
7.9110149326
 20
5.3850915868
  0
LINE
  5
639
100
AcDbEntity
  8
0
100
AcDbLine
 62
7
  6
CONTINUOUS
 10
7.6236133578
 20
4.6057080271
 11
7.649203909
 21
4.650032162
  0
LINE
  5
63A
100
AcDbEntity
  8
0
100
AcDbLine
 62
7
  6
CONTINUOUS
 10
7.6826684759
 20
4.6057080271
 11
7.7082590271
 21
4.650032162
  0
LINE
  5
63B
100
AcDbEntity
  8
0
100
AcDbLine
 62
7
  6
CONTINUOUS
 10
7.678731468
 20
5.7731030281
 11
7.6531409168
 21
5.817427163
  0
LINE
  5
63C
100
AcDbEntity
  8
0
100
AcDbLine
 62
7
  6
CONTINUOUS
 10
7.7377865861
 20
5.7731030281
 11
7.7121960349
 21
5.817427163
  0
LINE
  5
63D
100
AcDbEntity
  8
0
100
AcDbLine
 62
7
  6
CONTINUOUS
 10
8.0409361924
 20
6.234141136
 11
8.0409361924
 21
6.058024288
  0
LINE
  5
63E
100
AcDbEntity
  8
AXIS
100
AcDbLine
 62
7
  6
CONTINUOUS
 10
8.0409361924
 20
6.058024288
 11
8.0409361924
 21
6.0186542092
  0
LINE
  5
63F
100
AcDbEntity
  8
0
100
AcDbLine
 62
7
  6
CONTINUOUS
 10
8.0409361924
 20
6.0186542092
 11
8.0409361924
 21
5.8611738943
  0
LINE
  5
640
100
AcDbEntity
  8
0
100
AcDbLine
 62
7
  6
CONTINUOUS
 10
8.0409361924
 20
4.5619612958
 11
8.0409361924
 21
4.4044809809
  0
LINE
  5
641
100
AcDbEntity
  8
AXIS
100
AcDbLine
 62
7
  6
CONTINUOUS
 10
8.0409361924
 20
4.4044809809
 11
8.0409361924
 21
4.3651109021
  0
LINE
  5
642
100
AcDbEntity
  8
0
100
AcDbLine
 62
7
  6
CONTINUOUS
 10
8.0409361924
 20
4.3651109021
 11
8.0409361924
 21
4.1889940541
  0
LWPOLYLINE
  5
643
100
AcDbEntity
  8
0
100
AcDbPolyline
 62
7
  6
CONTINUOUS
 90
7
 70
0
 10
8.05471572
 20
5.3987884977
 10
8.0576684759
 20
5.567682914
 10
8.0591448538
 20
5.639975004
 10
8.0606212318
 20
5.7017182817
 10
8.0620976097
 20
5.7513924228
 10
8.0635739877
 20
5.7877742851
 10
8.0650503657
 20
5.8099680263
  0
LWPOLYLINE
  5
644
100
AcDbEntity
  8
0
100
AcDbPolyline
 62
7
  6
CONTINUOUS
 90
7
 70
0
 10
8.0750273877
 20
5.0740081384
 10
8.0719261519
 20
4.905033458
 10
8.0703736167
 20
4.8318424981
 10
8.068832865
 20
4.7694225264
 10
8.067284353
 20
4.7186353314
 10
8.0657142552
 20
4.6807757825
 10
8.0641421351
 20
4.6576742354
  0
LWPOLYLINE
  5
645
100
AcDbEntity
  8
0
100
AcDbPolyline
 62
7
  6
CONTINUOUS
 90
7
 70
0
 10
8.0153456412
 20
5.0380436033
 10
8.0123928853
 20
4.8815053488
 10
8.0109165074
 20
4.8145020824
 10
8.0094401294
 20
4.7572758867
 10
8.0079637515
 20
4.7112358606
 10
8.0064873735
 20
4.6775156623
 10
8.0050109956
 20
4.656945595
  0
LWPOLYLINE
  5
646
100
AcDbEntity
  8
0
100
AcDbPolyline
 62
7
  6
CONTINUOUS
 90
7
 70
0
 10
8.0291251688
 20
5.3850915868
 10
8.0320779247
 20
5.5416298412
 10
8.0335543027
 20
5.6086331076
 10
8.0350306806
 20
5.6658593033
 10
8.0365070586
 20
5.7118993295
 10
8.0379834365
 20
5.7456195278
 10
8.0394598145
 20
5.7661895951
  0
LWPOLYLINE
  5
647
100
AcDbEntity
  8
0
100
AcDbPolyline
 62
7
  6
CONTINUOUS
 90
7
 70
0
 10
8.0881802869
 20
5.3850915868
 10
8.0911330428
 20
5.5416298412
 10
8.0926094208
 20
5.6086331076
 10
8.0940857987
 20
5.6658593033
 10
8.0955621767
 20
5.7118993295
 10
8.0970385546
 20
5.7456195278
 10
8.0985149326
 20
5.7661895951
  0
LWPOLYLINE
  5
648
100
AcDbEntity
  8
0
100
AcDbPolyline
 62
7
  6
CONTINUOUS
 90
8
 70
0
 10
7.9794204444
 20
4.6131671638
 10
7.9808968223
 20
4.635360905
 10
7.9823732003
 20
4.6717427673
 10
7.9838495783
 20
4.7214169084
 10
7.9853259562
 20
4.7831601861
 10
7.9868023342
 20
4.8554522761
 10
7.9882787121
 20
4.936513107
 10
7.9956606019
 20
5.3987884977
  0
LWPOLYLINE
  5
649
100
AcDbEntity
  8
0
100
AcDbPolyline
 62
7
  6
CONTINUOUS
 90
8
 70
0
 10
8.0384755625
 20
4.6131671638
 10
8.0399519405
 20
4.635360905
 10
8.0414283184
 20
4.6717427673
 10
8.0429046964
 20
4.7214169084
 10
8.0443810743
 20
4.7831601861
 10
8.0458574523
 20
4.8554522761
 10
8.0473338302
 20
4.936513107
 10
8.05471572
 20
5.3987884977
  0
LINE
  5
64A
100
AcDbEntity
  8
0
100
AcDbLine
 62
7
  6
CONTINUOUS
 10
7.919193713
 20
4.606235895
 11
7.9203653263
 21
4.6131671638
  0
LINE
  5
64B
100
AcDbEntity
  8
0
100
AcDbLine
 62
7
  6
CONTINUOUS
 10
8.1241054838
 20
5.8099680263
 11
8.1252770971
 21
5.8168992951
  0
LINE
  5
64C
100
AcDbEntity
  8
0
100
AcDbLine
 62
7
  6
CONTINUOUS
 10
7.9782488311
 20
4.606235895
 11
7.9794204444
 21
4.6131671638
  0
LINE
  5
64D
100
AcDbEntity
  8
0
100
AcDbLine
 62
7
  6
CONTINUOUS
 10
8.1831606019
 20
5.8099680263
 11
8.1843322152
 21
5.8168992951
  0
LINE
  5
64E
100
AcDbEntity
  8
0
100
AcDbLine
 62
7
  6
CONTINUOUS
 10
7.9459558775
 20
4.656945595
 11
7.9447519058
 21
4.6502679901
  0
LINE
  5
64F
100
AcDbEntity
  8
0
100
AcDbLine
 62
7
  6
CONTINUOUS
 10
8.1575700507
 20
5.7661895951
 11
8.1587740224
 21
5.7728672
  0
LWPOLYLINE
  5
650
100
AcDbEntity
  8
0
100
AcDbPolyline
 62
7
  6
CONTINUOUS
 90
9
 70
0
 10
8.1511724129
 20
5.7731030281
 10
8.1496960349
 20
5.7661895951
 10
8.148219657
 20
5.7456195278
 10
8.146743279
 20
5.7118993295
 10
8.1452669011
 20
5.6658593033
 10
8.1437905231
 20
5.6086331076
 10
8.1423141452
 20
5.5416298412
 10
8.1408377672
 20
5.4664993469
 10
8.1334558775
 20
5.0380436033
  0
LWPOLYLINE
  5
651
100
AcDbEntity
  8
0
100
AcDbPolyline
 62
7
  6
CONTINUOUS
 90
9
 70
0
 10
7.9523535153
 20
4.650032162
 10
7.9538298932
 20
4.656945595
 10
7.9553062712
 20
4.6775156623
 10
7.9567826491
 20
4.7112358606
 10
7.9582590271
 20
4.7572758867
 10
7.959735405
 20
4.8145020824
 10
7.961211783
 20
4.8815053488
 10
7.9626881609
 20
4.9566358432
 10
7.9700700507
 20
5.3850915868
  0
LWPOLYLINE
  5
652
100
AcDbEntity
  8
0
100
AcDbPolyline
 62
7
  6
CONTINUOUS
 90
9
 70
0
 10
8.210227531
 20
5.7731030281
 10
8.2087511531
 20
5.7661895951
 10
8.2072747751
 20
5.7456195278
 10
8.2057983972
 20
5.7118993295
 10
8.2043220192
 20
5.6658593033
 10
8.2028456412
 20
5.6086331076
 10
8.2013692633
 20
5.5416298412
 10
8.1998928853
 20
5.4664993469
 10
8.1925109956
 20
5.0380436033
  0
LINE
  5
653
100
AcDbEntity
  8
0
100
AcDbLine
 62
7
  6
CONTINUOUS
 10
7.741723594
 20
4.6057080271
 11
7.7673141452
 21
4.650032162
  0
LINE
  5
654
100
AcDbEntity
  8
0
100
AcDbLine
 62
7
  6
CONTINUOUS
 10
7.8007787121
 20
4.6057080271
 11
7.8263692633
 21
4.650032162
  0
LINE
  5
655
100
AcDbEntity
  8
0
100
AcDbLine
 62
7
  6
CONTINUOUS
 10
7.2961430945
 20
4.650032162
 11
7.2943578424
 21
4.6491395359
  0
LINE
  5
656
100
AcDbEntity
  8
0
100
AcDbLine
 62
7
  6
CONTINUOUS
 10
7.2554416057
 20
4.6296814176
 11
7.2113365381
 21
4.6076288838
  0
LINE
  5
657
100
AcDbEntity
  8
0
100
AcDbLine
 62
7
  6
CONTINUOUS
 10
7.2096153796
 20
4.6067683045
 11
7.1780328583
 21
4.5909770439
  0
LINE
  5
658
100
AcDbEntity
  8
0
100
AcDbLine
 62
7
  6
CONTINUOUS
 10
7.2783547188
 20
5.781997216
 11
7.2528471903
 21
5.7947509802
  0
LINE
  5
659
100
AcDbEntity
  8
0
100
AcDbLine
 62
7
  6
CONTINUOUS
 10
7.2325284926
 20
5.804910329
 11
7.1780328583
 21
5.8321581462
  0
LINE
  5
65A
100
AcDbEntity
  8
0
100
AcDbLine
 62
7
  6
CONTINUOUS
 10
7.7968417042
 20
5.7731030281
 11
7.7712511531
 21
5.817427163
  0
LINE
  5
65B
100
AcDbEntity
  8
0
100
AcDbLine
 62
7
  6
CONTINUOUS
 10
8.1669204444
 20
5.0243466924
 11
8.1728259562
 21
5.3987884977
  0
LWPOLYLINE
  5
65C
100
AcDbEntity
  8
0
100
AcDbPolyline
 62
7
  6
CONTINUOUS
 90
7
 70
0
 10
8.1137708381
 20
5.3987884977
 10
8.116723594
 20
5.567682914
 10
8.118199972
 20
5.639975004
 10
8.1196763499
 20
5.7017182817
 10
8.1211527279
 20
5.7513924228
 10
8.1226291058
 20
5.7877742851
 10
8.1241054838
 20
5.8099680263
  0
LWPOLYLINE
  5
65D
100
AcDbEntity
  8
0
100
AcDbPolyline
 62
7
  6
CONTINUOUS
 90
7
 70
0
 10
8.1728259562
 20
5.3987884977
 10
8.1757787121
 20
5.567682914
 10
8.1772550901
 20
5.639975004
 10
8.178731468
 20
5.7017182817
 10
8.180207846
 20
5.7513924228
 10
8.1816842239
 20
5.7877742851
 10
8.1831606019
 20
5.8099680263
  0
LWPOLYLINE
  5
65E
100
AcDbEntity
  8
0
100
AcDbPolyline
 62
7
  6
CONTINUOUS
 90
7
 70
0
 10
8.1334558775
 20
5.0380436033
 10
8.1305031216
 20
4.8815053488
 10
8.1290267436
 20
4.8145020824
 10
8.1275503657
 20
4.7572758867
 10
8.1260739877
 20
4.7112358606
 10
8.1245976097
 20
4.6775156623
 10
8.1231212318
 20
4.656945595
  0
LWPOLYLINE
  5
65F
100
AcDbEntity
  8
0
100
AcDbPolyline
 62
7
  6
CONTINUOUS
 90
7
 70
0
 10
8.147235405
 20
5.3850915868
 10
8.1501881609
 20
5.5416298412
 10
8.1516645389
 20
5.6086331076
 10
8.1531409168
 20
5.6658593033
 10
8.1546172948
 20
5.7118993295
 10
8.1560936727
 20
5.7456195278
 10
8.1575700507
 20
5.7661895951
  0
LWPOLYLINE
  5
660
100
AcDbEntity
  8
0
100
AcDbPolyline
 62
7
  6
CONTINUOUS
 90
8
 70
0
 10
8.0975306806
 20
4.6131671638
 10
8.0990070586
 20
4.635360905
 10
8.1004834365
 20
4.6717427673
 10
8.1019598145
 20
4.7214169084
 10
8.1034361924
 20
4.7831601861
 10
8.1049125704
 20
4.8554522761
 10
8.1063889483
 20
4.936513107
 10
8.1137708381
 20
5.3987884977
  0
LINE
  5
661
100
AcDbEntity
  8
0
100
AcDbLine
 62
7
  6
CONTINUOUS
 10
8.0373039492
 20
4.606235895
 11
8.0384755625
 21
4.6131671638
  0
LINE
  5
662
100
AcDbEntity
  8
0
100
AcDbLine
 62
7
  6
CONTINUOUS
 10
8.24221572
 20
5.8099680263
 11
8.2433873333
 21
5.8168992951
  0
LINE
  5
663
100
AcDbEntity
  8
0
100
AcDbLine
 62
7
  6
CONTINUOUS
 10
8.0641421351
 20
4.6576742354
 11
8.062862142
 21
4.6502679901
  0
LINE
  5
664
100
AcDbEntity
  8
0
100
AcDbLine
 62
7
  6
CONTINUOUS
 10
8.0050109956
 20
4.656945595
 11
8.0038070239
 21
4.6502679901
  0
LINE
  5
665
100
AcDbEntity
  8
0
100
AcDbLine
 62
7
  6
CONTINUOUS
 10
8.2166251688
 20
5.7661895951
 11
8.2178291405
 21
5.7728672
  0
LINE
  5
666
100
AcDbEntity
  8
0
100
AcDbLine
 62
7
  6
CONTINUOUS
 10
8.2756802869
 20
5.7661895951
 11
8.2768842586
 21
5.7728672
  0
LWPOLYLINE
  5
667
100
AcDbEntity
  8
0
100
AcDbPolyline
 62
7
  6
CONTINUOUS
 90
9
 70
0
 10
8.0114086334
 20
4.650032162
 10
8.0128850113
 20
4.656945595
 10
8.0143613893
 20
4.6775156623
 10
8.0158377672
 20
4.7112358606
 10
8.0173141452
 20
4.7572758867
 10
8.0187905231
 20
4.8145020824
 10
8.0202669011
 20
4.8815053488
 10
8.021743279
 20
4.9566358432
 10
8.0291251688
 20
5.3850915868
  0
LINE
  5
668
100
AcDbEntity
  8
0
100
AcDbLine
 62
7
  6
CONTINUOUS
 10
7.8598338302
 20
4.6057080271
 11
7.8854243814
 21
4.650032162
  0
LWPOLYLINE
  5
669
100
AcDbEntity
  8
0
100
AcDbPolyline
 62
7
  6
CONTINUOUS
 90
5
 70
0
 10
7.0960543027
 20
6.0712788711
 10
7.1135391354
 20
6.061818963
 10
7.1302267119
 20
6.0492780691
 10
7.1447794085
 20
6.0344347087
 10
7.156300854
 20
6.0186542092
  0
LINE
  5
66A
100
AcDbEntity
  8
0
100
AcDbLine
 62
7
  6
CONTINUOUS
 10
7.8558968223
 20
5.7731030281
 11
7.8303062712
 21
5.817427163
  0
LINE
  5
66B
100
AcDbEntity
  8
0
100
AcDbLine
 62
7
  6
CONTINUOUS
 10
7.9149519405
 20
5.7731030281
 11
7.8893613893
 21
5.817427163
  0
LWPOLYLINE
  5
66C
100
AcDbEntity
  8
0
100
AcDbPolyline
 62
7
  6
CONTINUOUS
 90
7
 70
0
 10
8.2318810743
 20
5.3987884977
 10
8.2348338302
 20
5.567682914
 10
8.2363102082
 20
5.639975004
 10
8.2377865861
 20
5.7017182817
 10
8.2392629641
 20
5.7513924228
 10
8.240739342
 20
5.7877742851
 10
8.24221572
 20
5.8099680263
  0
LWPOLYLINE
  5
66D
100
AcDbEntity
  8
0
100
AcDbPolyline
 62
7
  6
CONTINUOUS
 90
7
 70
0
 10
8.1925109956
 20
5.0380436033
 10
8.1895582397
 20
4.8815053488
 10
8.1880818617
 20
4.8145020824
 10
8.1866054838
 20
4.7572758867
 10
8.1851291058
 20
4.7112358606
 10
8.1836527279
 20
4.6775156623
 10
8.1821763499
 20
4.656945595
  0
LWPOLYLINE
  5
66E
100
AcDbEntity
  8
0
100
AcDbPolyline
 62
7
  6
CONTINUOUS
 90
7
 70
0
 10
8.2062905231
 20
5.3850915868
 10
8.209243279
 20
5.5416298412
 10
8.210719657
 20
5.6086331076
 10
8.2121960349
 20
5.6658593033
 10
8.2136724129
 20
5.7118993295
 10
8.2151487909
 20
5.7456195278
 10
8.2166251688
 20
5.7661895951
  0
LWPOLYLINE
  5
66F
100
AcDbEntity
  8
0
100
AcDbPolyline
 62
7
  6
CONTINUOUS
 90
7
 70
0
 10
8.1565857987
 20
4.6131671638
 10
8.1580621767
 20
4.635360905
 10
8.1595385546
 20
4.6717427673
 10
8.1610149326
 20
4.7214169084
 10
8.1624913105
 20
4.7831601861
 10
8.1639676885
 20
4.8554522761
 10
8.1669204444
 20
5.0243466924
  0
LINE
  5
670
100
AcDbEntity
  8
0
100
AcDbLine
 62
7
  6
CONTINUOUS
 10
8.0963590673
 20
4.606235895
 11
8.0975306806
 21
4.6131671638
  0
LINE
  5
671
100
AcDbEntity
  8
0
100
AcDbLine
 62
7
  6
CONTINUOUS
 10
8.1231212318
 20
4.656945595
 11
8.1219172601
 21
4.6502679901
  0
LWPOLYLINE
  5
672
100
AcDbEntity
  8
0
100
AcDbPolyline
 62
7
  6
CONTINUOUS
 90
9
 70
0
 10
8.0704637515
 20
4.650032162
 10
8.0719401294
 20
4.656945595
 10
8.0734165074
 20
4.6775156623
 10
8.0748928853
 20
4.7112358606
 10
8.0763692633
 20
4.7572758867
 10
8.0778456412
 20
4.8145020824
 10
8.0793220192
 20
4.8815053488
 10
8.0807983972
 20
4.9566358432
 10
8.0881802869
 20
5.3850915868
  0
LWPOLYLINE
  5
673
100
AcDbEntity
  8
0
100
AcDbPolyline
 62
7
  6
CONTINUOUS
 90
9
 70
0
 10
8.1295188696
 20
4.650032162
 10
8.1309952475
 20
4.656945595
 10
8.1324716255
 20
4.6775156623
 10
8.1339480034
 20
4.7112358606
 10
8.1354243814
 20
4.7572758867
 10
8.1369007594
 20
4.8145020824
 10
8.1383771373
 20
4.8815053488
 10
8.1398535153
 20
4.9566358432
 10
8.147235405
 20
5.3850915868
  0
LINE
  5
674
100
AcDbEntity
  8
0
100
AcDbLine
 62
7
  6
CONTINUOUS
 10
7.9188889483
 20
4.6057080271
 11
7.9444794995
 21
4.650032162
  0
LINE
  5
675
100
AcDbEntity
  8
0
100
AcDbLine
 62
7
  6
CONTINUOUS
 10
7.9779440664
 20
4.6057080271
 11
8.0035346176
 21
4.650032162
  0
LINE
  5
676
100
AcDbEntity
  8
0
100
AcDbLine
 62
7
  6
CONTINUOUS
 10
7.3244007594
 20
5.7731030281
 11
7.3322747751
 21
5.7731030281
  0
LINE
  5
677
100
AcDbEntity
  8
0
100
AcDbLine
 62
7
  6
CONTINUOUS
 10
7.3834558775
 20
5.7731030281
 11
7.3913298932
 21
5.7731030281
  0
LINE
  5
678
100
AcDbEntity
  8
0
100
AcDbLine
 62
7
  6
CONTINUOUS
 10
7.4425109956
 20
5.7731030281
 11
7.4503850113
 21
5.7731030281
  0
LINE
  5
679
100
AcDbEntity
  8
0
100
AcDbLine
 62
7
  6
CONTINUOUS
 10
7.5015661137
 20
5.7731030281
 11
7.5094401294
 21
5.7731030281
  0
LINE
  5
67A
100
AcDbEntity
  8
0
100
AcDbLine
 62
7
  6
CONTINUOUS
 10
7.5606212318
 20
5.7731030281
 11
7.5684952475
 21
5.7731030281
  0
LINE
  5
67B
100
AcDbEntity
  8
0
100
AcDbLine
 62
7
  6
CONTINUOUS
 10
7.6196763499
 20
5.7731030281
 11
7.6275503657
 21
5.7731030281
  0
LINE
  5
67C
100
AcDbEntity
  8
0
100
AcDbLine
 62
7
  6
CONTINUOUS
 10
7.678731468
 20
5.7731030281
 11
7.6866054838
 21
5.7731030281
  0
LINE
  5
67D
100
AcDbEntity
  8
0
100
AcDbLine
 62
7
  6
CONTINUOUS
 10
7.7377865861
 20
5.7731030281
 11
7.7456606019
 21
5.7731030281
  0
LINE
  5
67E
100
AcDbEntity
  8
0
100
AcDbLine
 62
7
  6
CONTINUOUS
 10
7.7968417042
 20
5.7731030281
 11
7.80471572
 21
5.7731030281
  0
LINE
  5
67F
100
AcDbEntity
  8
0
100
AcDbLine
 62
7
  6
CONTINUOUS
 10
7.8558968223
 20
5.7731030281
 11
7.8637708381
 21
5.7731030281
  0
LINE
  5
680
100
AcDbEntity
  8
0
100
AcDbLine
 62
7
  6
CONTINUOUS
 10
7.9149519405
 20
5.7731030281
 11
7.9228259562
 21
5.7731030281
  0
LINE
  5
681
100
AcDbEntity
  8
0
100
AcDbLine
 62
7
  6
CONTINUOUS
 10
7.9740070586
 20
5.7731030281
 11
7.9818810743
 21
5.7731030281
  0
LINE
  5
682
100
AcDbEntity
  8
0
100
AcDbLine
 62
7
  6
CONTINUOUS
 10
8.0330621767
 20
5.7731030281
 11
8.0409361924
 21
5.7731030281
  0
LINE
  5
683
100
AcDbEntity
  8
0
100
AcDbLine
 62
7
  6
CONTINUOUS
 10
8.0921172948
 20
5.7731030281
 11
8.0999913105
 21
5.7731030281
  0
LINE
  5
684
100
AcDbEntity
  8
0
100
AcDbLine
 62
7
  6
CONTINUOUS
 10
8.1511724129
 20
5.7731030281
 11
8.1590464286
 21
5.7731030281
  0
LINE
  5
685
100
AcDbEntity
  8
0
100
AcDbLine
 62
7
  6
CONTINUOUS
 10
8.210227531
 20
5.7731030281
 11
8.2181015468
 21
5.7731030281
  0
LINE
  5
686
100
AcDbEntity
  8
0
100
AcDbLine
 62
7
  6
CONTINUOUS
 10
8.2692826491
 20
5.7731030281
 11
8.2771566649
 21
5.7731030281
  0
LINE
  5
687
100
AcDbEntity
  8
0
100
AcDbLine
 62
7
  6
CONTINUOUS
 10
7.9740070586
 20
5.7731030281
 11
7.9484165074
 21
5.817427163
  0
LINE
  5
688
100
AcDbEntity
  8
AXIS
100
AcDbLine
 62
7
  6
CONTINUOUS
 10
8.2771566649
 20
6.058024288
 11
8.2771566649
 21
6.0186542092
  0
LINE
  5
689
100
AcDbEntity
  8
0
100
AcDbLine
 62
7
  6
CONTINUOUS
 10
8.2771566649
 20
6.0186542092
 11
8.2771566649
 21
5.7731030281
  0
LINE
  5
68A
100
AcDbEntity
  8
0
100
AcDbLine
 62
7
  6
CONTINUOUS
 10
8.2771566649
 20
5.7728672
 11
8.2771566649
 21
4.4044809809
  0
LINE
  5
68B
100
AcDbEntity
  8
AXIS
100
AcDbLine
 62
7
  6
CONTINUOUS
 10
8.2771566649
 20
4.4044809809
 11
8.2771566649
 21
4.3651109021
  0
LINE
  5
68C
100
AcDbEntity
  8
0
100
AcDbLine
 62
7
  6
CONTINUOUS
 10
8.2771566649
 20
4.1879455478
 11
8.2771566649
 21
4.3651109021
  0
LINE
  5
68D
100
AcDbEntity
  8
0
100
AcDbLine
 62
7
  6
CONTINUOUS
 10
8.2771566649
 20
6.058024288
 11
8.2771566649
 21
6.2351896423
  0
LWPOLYLINE
  5
68E
100
AcDbEntity
  8
0
100
AcDbPolyline
 62
7
  6
CONTINUOUS
 90
8
 70
0
 10
8.256850108
 20
5.3494230715
 10
8.2599583341
 20
5.5187072337
 10
8.2615124302
 20
5.5918936052
 10
8.2630665108
 20
5.6547049205
 10
8.2646205728
 20
5.7054280993
 10
8.2661746132
 20
5.7426799765
 10
8.2677286282
 20
5.765445018
 10
8.2692826491
 20
5.7731030281
  0
LWPOLYLINE
  5
68F
100
AcDbEntity
  8
0
100
AcDbPolyline
 62
7
  6
CONTINUOUS
 90
7
 70
0
 10
8.2653456412
 20
5.3850915868
 10
8.2682983972
 20
5.5416298412
 10
8.2697747751
 20
5.6086331076
 10
8.2712511531
 20
5.6658593033
 10
8.272727531
 20
5.7118993295
 10
8.274203909
 20
5.7456195278
 10
8.2756802869
 20
5.7661895951
  0
LWPOLYLINE
  5
690
100
AcDbEntity
  8
0
100
AcDbPolyline
 62
7
  6
CONTINUOUS
 90
8
 70
0
 10
8.2156409168
 20
4.6131671638
 10
8.2171172948
 20
4.635360905
 10
8.2185936727
 20
4.6717427673
 10
8.2200700507
 20
4.7214169084
 10
8.2215464286
 20
4.7831601861
 10
8.2230228066
 20
4.8554522761
 10
8.2244991846
 20
4.936513107
 10
8.2318810743
 20
5.3987884977
  0
LWPOLYLINE
  5
691
100
AcDbEntity
  8
0
100
AcDbPolyline
 62
7
  6
CONTINUOUS
 90
3
 70
0
 10
8.274531993
 20
4.6116042108
 10
8.2758443289
 20
4.6291779993
 10
8.2771566649
 20
4.6580873388
  0
LINE
  5
692
100
AcDbEntity
  8
0
100
AcDbLine
 62
7
  6
CONTINUOUS
 10
8.1554141854
 20
4.606235895
 11
8.1565857987
 21
4.6131671638
  0
LINE
  5
693
100
AcDbEntity
  8
0
100
AcDbLine
 62
7
  6
CONTINUOUS
 10
8.2144693035
 20
4.606235895
 11
8.2156409168
 21
4.6131671638
  0
LINE
  5
694
100
AcDbEntity
  8
0
100
AcDbLine
 62
7
  6
CONTINUOUS
 10
8.1821763499
 20
4.656945595
 11
8.1809723782
 21
4.6502679901
  0
LWPOLYLINE
  5
695
100
AcDbEntity
  8
0
100
AcDbPolyline
 62
7
  6
CONTINUOUS
 90
9
 70
0
 10
8.1885739877
 20
4.650032162
 10
8.1900503657
 20
4.656945595
 10
8.1915267436
 20
4.6775156623
 10
8.1930031216
 20
4.7112358606
 10
8.1944794995
 20
4.7572758867
 10
8.1959558775
 20
4.8145020824
 10
8.1974322554
 20
4.8815053488
 10
8.1989086334
 20
4.9566358432
 10
8.2062905231
 20
5.3850915868
  0
LINE
  5
696
100
AcDbEntity
  8
0
100
AcDbLine
 62
7
  6
CONTINUOUS
 10
8.0369991846
 20
4.6057080271
 11
8.0625897357
 21
4.650032162
  0
LINE
  5
697
100
AcDbEntity
  8
0
100
AcDbLine
 62
7
  6
CONTINUOUS
 10
8.0330621767
 20
5.7731030281
 11
8.0074716255
 21
5.817427163
  0
LINE
  5
698
100
AcDbEntity
  8
0
100
AcDbLine
 62
7
  6
CONTINUOUS
 10
8.0921172948
 20
5.7731030281
 11
8.0665267436
 21
5.817427163
  0
LWPOLYLINE
  5
699
100
AcDbEntity
  8
0
100
AcDbPolyline
 62
7
  6
CONTINUOUS
 90
9
 70
0
 10
8.2400274963
 20
4.6502679901
 10
8.2413091048
 20
4.6576901109
 10
8.2428631443
 20
4.6804555695
 10
8.2444172057
 20
4.7177082085
 10
8.2459712857
 20
4.7684323711
 10
8.2475253813
 20
4.8312447601
 10
8.2490794893
 20
4.9044321684
 10
8.2506336067
 20
4.9859982224
 10
8.256850108
 20
5.3494230715
  0
LINE
  5
69A
100
AcDbEntity
  8
0
100
AcDbLine
 62
7
  6
CONTINUOUS
 10
8.2735324836
 20
4.6062498588
 11
8.274531993
 21
4.6116042108
  0
LWPOLYLINE
  5
69B
100
AcDbEntity
  8
0
100
AcDbPolyline
 62
7
  6
CONTINUOUS
 90
9
 70
0
 10
8.2476291058
 20
4.650032162
 10
8.2491054838
 20
4.656945595
 10
8.2505818617
 20
4.6775156623
 10
8.2520582397
 20
4.7112358606
 10
8.2535346176
 20
4.7572758867
 10
8.2550109956
 20
4.8145020824
 10
8.2564873735
 20
4.8815053488
 10
8.2579637515
 20
4.9566358432
 10
8.2653456412
 20
5.3850915868
  0
LINE
  5
69C
100
AcDbEntity
  8
0
100
AcDbLine
 62
7
  6
CONTINUOUS
 10
8.0960543027
 20
4.6057080271
 11
8.1216448538
 21
4.650032162
  0
LINE
  5
69D
100
AcDbEntity
  8
0
100
AcDbLine
 62
7
  6
CONTINUOUS
 10
8.1551094208
 20
4.6057080271
 11
8.180699972
 21
4.650032162
  0
LINE
  5
69E
100
AcDbEntity
  8
0
100
AcDbLine
 62
7
  6
CONTINUOUS
 10
8.0409361924
 20
5.8611738943
 11
7.1780328583
 21
5.8611738943
  0
LINE
  5
69F
100
AcDbEntity
  8
0
100
AcDbLine
 62
7
  6
CONTINUOUS
 10
8.2771566649
 20
5.930071532
 11
8.0409361924
 21
5.930071532
  0
LINE
  5
6A0
100
AcDbEntity
  8
0
100
AcDbLine
 62
7
  6
CONTINUOUS
 10
8.1511724129
 20
5.7731030281
 11
8.1255818617
 21
5.817427163
  0
LINE
  5
6A1
100
AcDbEntity
  8
0
100
AcDbLine
 62
7
  6
CONTINUOUS
 10
8.2141645389
 20
4.6057080271
 11
8.2397550901
 21
4.650032162
  0
LINE
  5
6A2
100
AcDbEntity
  8
0
100
AcDbLine
 62
7
  6
CONTINUOUS
 10
8.210227531
 20
5.7731030281
 11
8.1846369798
 21
5.817427163
  0
LINE
  5
6A3
100
AcDbEntity
  8
0
100
AcDbLine
 62
7
  6
CONTINUOUS
 10
8.2692826491
 20
5.7731030281
 11
8.2436920979
 21
5.817427163
  0
LINE
  5
6A4
100
AcDbEntity
  8
0
100
AcDbLine
 62
7
  6
CONTINUOUS
 10
8.273219657
 20
4.6057080271
 11
8.2771566649
 21
4.6125271248
  0
LWPOLYLINE
  5
6A5
100
AcDbEntity
  8
AXIS
100
AcDbPolyline
 62
7
  6
CONTINUOUS
 90
4
 70
0
 10
7.6755266768
 20
6.0832837299
 10
7.6827915362
 20
6.0837395459
 10
7.6899843295
 20
6.0851098364
 10
7.6969309836
 20
6.0873639008
  0
LINE
  5
6A6
100
AcDbEntity
  8
0
100
AcDbLine
 62
9
  6
CONTINUOUS
 10
7.156300854
 20
6.0186542092
 11
8.0409361924
 21
6.0186542092
  0
LINE
  5
6A7
100
AcDbEntity
  8
AXIS
100
AcDbLine
 62
9
  6
CONTINUOUS
 10
8.0409361924
 20
6.0186542092
 11
8.2771566649
 21
6.0186542092
  0
LINE
  5
6A8
100
AcDbEntity
  8
AXIS
100
AcDbLine
 62
9
  6
CONTINUOUS
 10
8.0409361924
 20
6.058024288
 11
8.2771566649
 21
6.058024288
  0
LINE
  5
6A9
100
AcDbEntity
  8
AXIS
100
AcDbLine
 62
7
  6
CONTINUOUS
 10
7.0960543027
 20
6.0832837299
 11
7.6755266768
 21
6.0832837299
  0
LINE
  5
6AA
100
AcDbEntity
  8
0
100
AcDbLine
 62
7
  6
CONTINUOUS
 10
8.2771566649
 20
6.1466069651
 11
8.0409361924
 21
6.1466069651
  0
LINE
  5
6AB
100
AcDbEntity
  8
0
100
AcDbLine
 62
7
  6
CONTINUOUS
 10
8.0409361924
 20
6.234141136
 11
8.0520149994
 21
6.2351896423
  0
LINE
  5
6AC
100
AcDbEntity
  8
0
100
AcDbLine
 62
7
  6
CONTINUOUS
 10
8.0520149994
 20
6.2351896423
 11
8.2771566649
 21
6.2351896423
  0
LINE
  5
6AD
100
AcDbEntity
  8
AXIS
100
AcDbLine
 62
7
  6
CENTER
 10
11.9239312625
 20
4.3651109021
 11
11.7353485853
 21
4.3651109021
  0
LINE
  5
6AE
100
AcDbEntity
  8
AXIS
100
AcDbLine
 62
7
  6
CENTER
 10
11.9239312625
 20
4.3651109021
 11
12.1125139396
 21
4.3651109021
  0
LINE
  5
6AF
100
AcDbEntity
  8
AXIS
100
AcDbLine
 62
7
  6
CENTER
 10
11.9239312625
 20
4.4044809809
 11
11.7353485853
 21
4.4044809809
  0
LINE
  5
6B0
100
AcDbEntity
  8
AXIS
100
AcDbLine
 62
7
  6
CENTER
 10
11.9239312625
 20
4.4044809809
 11
12.1125139396
 21
4.4044809809
  0
LINE
  5
6B1
100
AcDbEntity
  8
AXIS
100
AcDbLine
 62
7
  6
CONTINUOUS
 10
11.8353485853
 20
4.3651109021
 11
11.8353485853
 21
4.4044809809
  0
LINE
  5
6B2
100
AcDbEntity
  8
AXIS
100
AcDbLine
 62
7
  6
CONTINUOUS
 10
11.8353485853
 20
6.0186542092
 11
11.8353485853
 21
6.058024288
  0
LINE
  5
6B3
100
AcDbEntity
  8
AXIS
100
AcDbLine
 62
7
  6
CENTER
 10
11.9239312625
 20
6.058024288
 11
11.9239312625
 21
5.8694416108
  0
LINE
  5
6B4
100
AcDbEntity
  8
AXIS
100
AcDbLine
 62
7
  6
CENTER
 10
11.9239312625
 20
5.8694416108
 11
11.9239312625
 21
5.830071532
  0
LINE
  5
6B5
100
AcDbEntity
  8
AXIS
100
AcDbLine
 62
7
  6
CENTER
 10
11.9239312625
 20
5.211567595
 11
11.9239312625
 21
4.0879455478
  0
LINE
  5
6B6
100
AcDbEntity
  8
AXIS
100
AcDbLine
 62
7
  6
CENTER
 10
11.9239312625
 20
6.058024288
 11
11.9239312625
 21
6.2072368864
  0
LINE
  5
6B7
100
AcDbEntity
  8
AXIS
100
AcDbLine
 62
7
  6
CENTER
 10
11.9239312625
 20
6.2072368864
 11
11.9239312625
 21
6.2466069651
  0
LINE
  5
6B8
100
AcDbEntity
  8
AXIS
100
AcDbLine
 62
7
  6
CENTER
 10
11.9239312625
 20
5.211567595
 11
11.9239312625
 21
5.830071532
  0
LINE
  5
6B9
100
AcDbEntity
  8
AXIS
100
AcDbLine
 62
7
  6
CENTER
 10
11.9239312625
 20
6.2466069651
 11
11.9239312625
 21
6.3351896423
  0
LINE
  5
6BA
100
AcDbEntity
  8
AXIS
100
AcDbLine
 62
7
  6
CENTER
 10
11.9239312625
 20
5.211567595
 11
10.8003092152
 21
5.211567595
  0
LINE
  5
6BB
100
AcDbEntity
  8
AXIS
100
AcDbLine
 62
7
  6
CENTER
 10
11.9239312625
 20
5.211567595
 11
13.0475533097
 21
5.211567595
  0
LINE
  5
6BC
100
AcDbEntity
  8
AXIS
100
AcDbLine
 62
7
  6
CONTINUOUS
 10
12.0125139396
 20
6.058024288
 11
12.0125139396
 21
6.0186542092
  0
LINE
  5
6BD
100
AcDbEntity
  8
AXIS
100
AcDbLine
 62
7
  6
CONTINUOUS
 10
12.0125139396
 20
4.4044809809
 11
12.0125139396
 21
4.3651109021
  0
LWPOLYLINE
  5
6BE
100
AcDbEntity
  8
0
100
AcDbPolyline
 62
7
  6
CONTINUOUS
 90
19
 70
0
 10
11.9239312625
 20
5.7731030281
 10
12.0098784174
 20
5.7690065667
 10
12.0948009966
 20
5.7517083288
 10
12.1759046356
 20
5.7217387663
 10
12.252165317
 20
5.679402127
 10
12.3210656385
 20
5.6259724868
 10
12.3813220956
 20
5.5624149962
 10
12.4314860292
 20
5.4900576859
 10
12.4700446057
 20
5.4110490018
 10
12.496374594
 20
5.3265638019
 10
12.5096441957
 20
5.2388676613
 10
12.5094996498
 20
5.1497892916
 10
12.4958205599
 20
5.0613514551
 10
12.4690729515
 20
4.9763079887
 10
12.429999811
 20
4.8964195316
 10
12.3793739957
 20
4.8231118451
 10
12.3184172416
 20
4.7581258932
 10
12.2481301887
 20
4.7026063736
 10
12.1703565493
 20
4.6580873388
  0
LWPOLYLINE
  5
6BF
100
AcDbEntity
  8
0
100
AcDbPolyline
 62
7
  6
CONTINUOUS
 90
18
 70
0
 10
12.1703565493
 20
4.6580873388
 10
12.0791380671
 20
4.6285982892
 10
11.9845394629
 20
4.6139472161
 10
11.8893481304
 20
4.6144696202
 10
11.7955892657
 20
4.6300578295
 10
11.7058801467
 20
4.6602097372
 10
11.622403352
 20
4.7040734393
 10
11.5470857247
 20
4.7605808478
 10
11.4820978875
 20
4.8279867692
 10
11.4287599738
 20
4.90479459
 10
11.3885555011
 20
4.9887582132
 10
11.3623860256
 20
5.0777126508
 10
11.3508079464
 20
5.1695780486
 10
11.3540740541
 20
5.261546796
 10
11.3720358037
 20
5.3517463303
 10
11.4040889227
 20
5.437447035
 10
11.4493311604
 20
5.5165955485
 10
11.5066291111
 20
5.5873081399
  0
LINE
  5
6C0
100
AcDbEntity
  8
AXIS
100
AcDbLine
 62
7
  6
CENTER
 10
11.9239312625
 20
6.0186542092
 11
11.7353485853
 21
6.0186542092
  0
LINE
  5
6C1
100
AcDbEntity
  8
AXIS
100
AcDbLine
 62
7
  6
CENTER
 10
11.9239312625
 20
6.0186542092
 11
12.1125139396
 21
6.0186542092
  0
LINE
  5
6C2
100
AcDbEntity
  8
AXIS
100
AcDbLine
 62
7
  6
CENTER
 10
11.9239312625
 20
6.058024288
 11
11.7353485853
 21
6.058024288
  0
LINE
  5
6C3
100
AcDbEntity
  8
AXIS
100
AcDbLine
 62
7
  6
CENTER
 10
11.9239312625
 20
6.058024288
 11
12.1125139396
 21
6.058024288
  0
LWPOLYLINE
  5
6C4
100
AcDbEntity
  8
0
100
AcDbPolyline
 62
7
  6
CONTINUOUS
 90
18
 70
0
 10
14.3508023276
 20
7.7700028361
 10
14.263388263
 20
7.8467071888
 10
14.1802184638
 20
7.9353932009
 10
14.103069514
 20
8.0341669832
 10
14.0335894614
 20
8.1409190395
 10
13.9732625885
 20
8.2533693331
 10
13.9233776821
 20
8.3691160032
 10
13.8850004812
 20
8.4856866902
 10
13.8589508919
 20
8.6005913685
 10
13.8457854563
 20
8.7113755705
 10
13.8457854563
 20
8.8156728327
 10
13.8589508919
 20
8.9112552429
 10
13.8850004812
 20
8.9960811269
 10
13.9233776821
 20
9.0683386419
 10
13.9732625885
 20
9.1264844869
 10
14.0335894614
 20
9.1692768836
 10
14.103069514
 20
9.1958021007
 10
14.1840617257
 20
9.2055303565
  0
LINE
  5
6C5
100
AcDbEntity
  8
AXIS
100
AcDbLine
 62
7
  6
CONTINUOUS
 10
14.6263129344
 20
9.6844186739
 11
14.78551147
 21
9.7763314426
  0
LWPOLYLINE
  5
6C6
100
AcDbEntity
  8
AXIS
100
AcDbPolyline
 62
9
  6
CONTINUOUS
 90
4
 70
0
 10
14.6616193402
 20
9.6952954811
 10
14.591333388
 20
9.6584555662
 10
14.5306977689
 20
9.6058370127
 10
14.4926470756
 20
9.5572204101
  0
LWPOLYLINE
  5
6C7
100
AcDbEntity
  8
0
100
AcDbPolyline
 62
9
  6
CONTINUOUS
 90
9
 70
0
 10
14.6190672463
 20
7.7840248937
 10
14.6970953526
 20
7.7633947887
 10
14.7713466042
 20
7.7586128256
 10
14.8396297346
 20
7.769922364
 10
14.9004043456
 20
7.7970614774
 10
14.9522069271
 20
7.8393843345
 10
14.993823051
 20
7.8958963847
 10
15.0242699915
 20
7.9652638951
 10
15.0428301583
 20
8.0458517166
  0
LINE
  5
6C8
100
AcDbEntity
  8
AXIS
100
AcDbLine
 62
7
  6
CONTINUOUS
 10
14.3747314943
 20
9.3800568872
 11
14.4926470756
 21
9.5572204101
  0
LWPOLYLINE
  5
6C9
100
AcDbEntity
  8
0
100
AcDbPolyline
 62
7
  6
CONTINUOUS
 90
4
 70
0
 10
14.4926470756
 20
9.5572204101
 10
14.5318827813
 20
9.60777685
 10
14.5765777478
 20
9.6501943774
 10
14.6263129344
 20
9.6844186739
  0
LINE
  5
6CA
100
AcDbEntity
  8
AXIS
100
AcDbLine
 62
9
  6
CONTINUOUS
 10
14.4030465837
 20
9.3964045141
 11
14.4043498158
 21
9.3977299956
  0
LWPOLYLINE
  5
6CB
100
AcDbEntity
  8
AXIS
100
AcDbPolyline
 62
7
  6
CONTINUOUS
 90
20
 70
0
 10
14.0192587447
 20
9.1748236539
 10
13.9814898465
 20
9.1489394587
 10
13.9382324237
 20
9.1065520973
 10
13.9020182509
 20
9.0547697334
 10
13.8733340929
 20
8.9942885113
 10
13.8525654985
 20
8.9259214907
 10
13.8399916204
 20
8.8505877186
 10
13.8357814648
 20
8.7692998781
 10
13.8399916204
 20
8.6831506786
 10
13.8525654985
 20
8.5932981711
 10
13.8733340929
 20
8.5009501859
 10
13.9020182509
 20
8.4073481004
 10
13.9382324237
 20
8.3137501577
 10
13.9814898465
 20
8.2214145568
 10
14.0312090788
 20
8.131582544
 10
14.0867218162
 20
8.0454617315
 10
14.1472818706
 20
7.9642098675
 10
14.2120751957
 20
7.8889192756
 10
14.2802314887
 20
7.8206015582
 10
14.3508023276
 20
7.7602008399
  0
LWPOLYLINE
  5
6CC
100
AcDbEntity
  8
AXIS
100
AcDbPolyline
 62
9
  6
CONTINUOUS
 90
6
 70
0
 10
14.4043498158
 20
9.3977299956
 10
14.4650649152
 20
9.4355465352
 10
14.5339540505
 20
9.4582048175
 10
14.6096826525
 20
9.4652656855
 10
14.6907829503
 20
9.4565924657
 10
14.7756845344
 20
9.4323533638
  0
LINE
  5
6CD
100
AcDbEntity
  8
AXIS
100
AcDbLine
 62
7
  6
CONTINUOUS
 10
14.0192467869
 20
9.1748189208
 11
14.4289939262
 21
9.4113851299
  0
LWPOLYLINE
  5
6CE
100
AcDbEntity
  8
AXIS
100
AcDbPolyline
 62
9
  6
CONTINUOUS
 90
6
 70
0
 10
14.4289939262
 20
9.4113851299
 10
14.4516068448
 20
9.4231708114
 10
14.5201165353
 20
9.4457720513
 10
14.5954325887
 20
9.4528655787
 10
14.6760969456
 20
9.4443142496
 10
14.760549467
 20
9.4202837113
  0
LWPOLYLINE
  5
6CF
100
AcDbEntity
  8
AXIS
100
AcDbPolyline
 62
9
  6
CONTINUOUS
 90
3
 70
0
 10
15.4729402723
 20
7.859292652
 10
15.5056921241
 20
7.862704628
 10
15.5843538584
 20
7.8830974611
  0
LINE
  5
6D0
100
AcDbEntity
  8
AXIS
100
AcDbLine
 62
7
  6
CONTINUOUS
 10
15.2605543002
 20
7.8457576224
 11
15.4729402723
 21
7.859292652
  0
LINE
  5
6D1
100
AcDbEntity
  8
0
100
AcDbLine
 62
7
  6
CONTINUOUS
 10
14.6637694046
 20
7.9083369214
 11
14.6033459289
 21
7.9289167829
  0
LWPOLYLINE
  5
6D2
100
AcDbEntity
  8
0
100
AcDbPolyline
 62
7
  6
CONTINUOUS
 90
9
 70
0
 10
14.5201255411
 20
7.9344228694
 10
14.5887687084
 20
7.9010303179
 10
14.6557254371
 20
7.8809345825
 10
14.719344972
 20
7.8746326654
 10
14.7780590185
 20
7.8822805127
 10
14.8304208335
 20
7.9036893815
 10
14.8751418332
 20
7.9383318803
 10
14.9111213597
 20
7.9853554107
 10
14.9200735691
 20
8.0017264928
  0
LINE
  5
6D3
100
AcDbEntity
  8
0
100
AcDbLine
 62
7
  6
CONTINUOUS
 10
14.6033459289
 20
7.9289167829
 11
14.5424576632
 21
7.9602098515
  0
LWPOLYLINE
  5
6D4
100
AcDbEntity
  8
0
100
AcDbPolyline
 62
7
  6
CONTINUOUS
 90
3
 70
0
 10
14.5436747011
 20
7.9616151695
 10
14.6039230351
 20
7.929641456
 10
14.6637694046
 20
7.9083369214
  0
LWPOLYLINE
  5
6D5
100
AcDbEntity
  8
0
100
AcDbPolyline
 62
7
  6
CONTINUOUS
 90
16
 70
0
 10
14.5424576632
 20
7.9602098515
 10
14.4731272012
 20
8.0084125574
 10
14.4050115066
 20
8.06946125
 10
14.3409973885
 20
8.1410082369
 10
14.283540969
 20
8.2199736676
 10
14.2335110543
 20
8.3047148407
 10
14.1916225222
 20
8.3941417189
 10
14.1594273995
 20
8.4853408959
 10
14.1380653508
 20
8.5748576964
 10
14.1277940287
 20
8.6612279912
 10
14.1289280339
 20
8.7417399189
 10
14.1414507283
 20
8.8147161458
 10
14.1649920429
 20
8.8778545578
 10
14.1992790703
 20
8.9300198913
 10
14.2431259046
 20
8.9691475295
 10
14.2949090556
 20
8.9941563237
  0
LWPOLYLINE
  5
6D6
100
AcDbEntity
  8
0
100
AcDbPolyline
 62
7
  6
CONTINUOUS
 90
6
 70
0
 10
14.6445018959
 20
8.0544498094
 10
14.7055729331
 20
8.0236306267
 10
14.765114493
 20
8.0048451432
 10
14.8216347594
 20
7.9985410785
 10
14.87371631
 20
8.0048588188
 10
14.9072051877
 20
8.0184241092
  0
LWPOLYLINE
  5
6D7
100
AcDbEntity
  8
0
100
AcDbPolyline
 62
7
  6
CONTINUOUS
 90
6
 70
0
 10
14.55015678
 20
8.065916719
 10
14.6164891494
 20
8.0236821043
 10
14.6825022125
 20
7.9944638643
 10
14.7463074088
 20
7.9791102107
 10
14.8061134953
 20
7.9780519473
 10
14.8602425063
 20
7.9913160154
  0
LWPOLYLINE
  5
6D8
100
AcDbEntity
  8
0
100
AcDbPolyline
 62
7
  6
CONTINUOUS
 90
6
 70
0
 10
14.5565570642
 20
8.0685022139
 10
14.6216554608
 20
8.0258570218
 10
14.6863664999
 20
7.9962051957
 10
14.7488665454
 20
7.9803479672
 10
14.8073797396
 20
7.9787098613
 10
14.8602425063
 20
7.9913160154
  0
LWPOLYLINE
  5
6D9
100
AcDbEntity
  8
0
100
AcDbPolyline
 62
7
  6
CONTINUOUS
 90
15
 70
0
 10
14.5748615636
 20
7.9976267526
 10
14.5082446932
 20
8.0439973447
 10
14.4427862068
 20
8.1027173605
 10
14.3812566804
 20
8.1715408778
 10
14.3260201712
 20
8.2475127881
 10
14.2779269447
 20
8.3290386474
 10
14.2376816792
 20
8.4150289494
 10
14.2067435764
 20
8.5027454851
 10
14.186216097
 20
8.5888641142
 10
14.1763543042
 20
8.6719740207
 10
14.1774649206
 20
8.7494347634
 10
14.189525073
 20
8.8196320623
 10
14.21218357
 20
8.8803840142
 10
14.2451851674
 20
8.9305936739
 10
14.2873966913
 20
8.9682676207
  0
LINE
  5
6DA
100
AcDbEntity
  8
0
100
AcDbLine
 62
7
  6
CONTINUOUS
 10
14.4929259234
 20
8.122966664
 11
14.5565570642
 21
8.0685022139
  0
LWPOLYLINE
  5
6DB
100
AcDbEntity
  8
0
100
AcDbPolyline
 62
7
  6
CONTINUOUS
 90
15
 70
0
 10
14.3796412468
 20
9.0004488835
 10
14.346041944
 20
8.9572973456
 10
14.3211541113
 20
8.9039909492
 10
14.3055648642
 20
8.8418274337
 10
14.299632356
 20
8.7723226301
 10
14.3034769591
 20
8.6971731362
 10
14.3169783013
 20
8.6182145411
 10
14.3397782289
 20
8.5373762263
 10
14.3712896266
 20
8.4566338585
 10
14.4107108736
 20
8.3779607415
 10
14.4570455824
 20
8.3032792277
 10
14.5091271331
 20
8.2344133827
 10
14.5656473994
 20
8.1730440712
 10
14.6251889594
 20
8.1206675682
 10
14.6862599965
 20
8.0785587161
  0
LINE
  5
6DC
100
AcDbEntity
  8
AXIS
100
AcDbLine
 62
7
  6
CONTINUOUS
 10
14.7756845344
 20
9.4323533638
 11
15.0116307371
 21
9.6760076911
  0
LWPOLYLINE
  5
6DD
100
AcDbEntity
  8
AXIS
100
AcDbPolyline
 62
7
  6
CONTINUOUS
 90
3
 70
0
 10
15.0116307371
 20
9.6760076911
 10
15.0152350751
 20
9.6795095603
 10
15.0189319376
 20
9.6826748866
  0
LWPOLYLINE
  5
6DE
100
AcDbEntity
  8
AXIS
100
AcDbPolyline
 62
7
  6
CONTINUOUS
 90
4
 70
0
 10
14.760549467
 20
9.4202837113
 10
14.7656864769
 20
9.4236217225
 10
14.7707725286
 20
9.4276769838
 10
14.7756845344
 20
9.4323533638
  0
LWPOLYLINE
  5
6DF
100
AcDbEntity
  8
AXIS
100
AcDbPolyline
 62
7
  6
CONTINUOUS
 90
5
 70
0
 10
15.0859888385
 20
9.5612516049
 10
15.0834028287
 20
9.5595764858
 10
15.0748248953
 20
9.5501790139
 10
15.0694702642
 20
9.5369671742
 10
15.0676501273
 20
9.5207087907
  0
LINE
  5
6E0
100
AcDbEntity
  8
AXIS
100
AcDbLine
 62
7
  6
CONTINUOUS
 10
14.3508023276
 20
9.1837175022
 11
14.760549467
 21
9.4202837113
  0
LINE
  5
6E1
100
AcDbEntity
  8
0
100
AcDbLine
 62
9
  6
CONTINUOUS
 10
14.3934028953
 20
9.1555426447
 11
15.0189319376
 21
9.5166898499
  0
LINE
  5
6E2
100
AcDbEntity
  8
AXIS
100
AcDbLine
 62
9
  6
CONTINUOUS
 10
15.0676501273
 20
9.5207087907
 11
15.1298321752
 21
9.5566093985
  0
LWPOLYLINE
  5
6E3
100
AcDbEntity
  8
0
100
AcDbPolyline
 62
7
  6
CONTINUOUS
 90
5
 70
0
 10
14.9210421574
 20
8.0321822464
 10
14.8689606067
 20
8.0258645061
 10
14.8124403404
 20
8.0321685708
 10
14.7528987804
 20
8.0509540544
 10
14.6918277433
 20
8.081773237
  0
LWPOLYLINE
  5
6E4
100
AcDbEntity
  8
0
100
AcDbPolyline
 62
7
  6
CONTINUOUS
 90
5
 70
0
 10
14.9398124977
 20
8.0535026283
 10
14.9107187074
 20
8.0499734129
 10
14.854198441
 20
8.0562774775
 10
14.794656881
 20
8.0750629611
 10
14.7335858439
 20
8.1058821437
  0
LWPOLYLINE
  5
6E5
100
AcDbEntity
  8
0
100
AcDbPolyline
 62
7
  6
CONTINUOUS
 90
4
 70
0
 10
14.9448753304
 20
8.0749301607
 10
14.8959565416
 20
8.0803863842
 10
14.8364149817
 20
8.0991718678
 10
14.7753439445
 20
8.1299910504
  0
LWPOLYLINE
  5
6E6
100
AcDbEntity
  8
0
100
AcDbPolyline
 62
7
  6
CONTINUOUS
 90
5
 70
0
 10
14.6862599965
 20
8.0785587161
 10
14.7473310337
 20
8.0477395335
 10
14.8068725936
 20
8.0289540499
 10
14.86339286
 20
8.0226499852
 10
14.9154744107
 20
8.0289677255
  0
LWPOLYLINE
  5
6E7
100
AcDbEntity
  8
0
100
AcDbPolyline
 62
7
  6
CONTINUOUS
 90
5
 70
0
 10
14.7280180972
 20
8.1026676228
 10
14.7890891343
 20
8.0718484402
 10
14.8486306942
 20
8.0530629566
 10
14.9051509606
 20
8.046758892
 10
14.9391948581
 20
8.0508885789
  0
LWPOLYLINE
  5
6E8
100
AcDbEntity
  8
0
100
AcDbPolyline
 62
7
  6
CONTINUOUS
 90
15
 70
0
 10
14.6500696427
 20
8.0576643303
 10
14.5889986055
 20
8.0997731824
 10
14.5294570456
 20
8.1521496854
 10
14.4729367792
 20
8.2135189969
 10
14.4208552285
 20
8.2823848419
 10
14.3745205198
 20
8.3570663557
 10
14.3350992728
 20
8.4357394726
 10
14.3035878751
 20
8.5164818405
 10
14.2807879474
 20
8.5973201553
 10
14.2672866053
 20
8.6762787504
 10
14.2634420021
 20
8.7514282442
 10
14.2693745103
 20
8.8209330479
 10
14.2849637575
 20
8.8830965634
 10
14.3098515902
 20
8.9364029598
 10
14.3434508929
 20
8.9795544976
  0
LWPOLYLINE
  5
6E9
100
AcDbEntity
  8
0
100
AcDbPolyline
 62
7
  6
CONTINUOUS
 90
14
 70
0
 10
14.6918277433
 20
8.081773237
 10
14.6307567061
 20
8.1238820891
 10
14.5712151462
 20
8.1762585921
 10
14.5146948798
 20
8.2376279036
 10
14.4626133292
 20
8.3064937486
 10
14.4162786204
 20
8.3811752624
 10
14.3768573734
 20
8.4598483794
 10
14.3453459757
 20
8.5405907472
 10
14.322546048
 20
8.621429062
 10
14.3090447059
 20
8.7003876571
 10
14.3052001027
 20
8.775537151
 10
14.3111326109
 20
8.8450419546
 10
14.3267218581
 20
8.9072054701
 10
14.3516096908
 20
8.9605118665
  0
LWPOLYLINE
  5
6EA
100
AcDbEntity
  8
0
100
AcDbPolyline
 62
7
  6
CONTINUOUS
 90
15
 70
0
 10
14.7335858439
 20
8.1058821437
 10
14.6725148068
 20
8.1479909958
 10
14.6129732468
 20
8.2003674988
 10
14.5564529805
 20
8.2617368103
 10
14.5043714298
 20
8.3306026553
 10
14.458036721
 20
8.4052841691
 10
14.418615474
 20
8.4839572861
 10
14.3871040763
 20
8.564699654
 10
14.3643041486
 20
8.6455379687
 10
14.3508028065
 20
8.7244965639
 10
14.3469582033
 20
8.7996460577
 10
14.3528907115
 20
8.8691508613
 10
14.3684799587
 20
8.9313143768
 10
14.3933677914
 20
8.9846207732
 10
14.40224415
 20
8.9960206683
  0
LWPOLYLINE
  5
6EB
100
AcDbEntity
  8
0
100
AcDbPolyline
 62
7
  6
CONTINUOUS
 90
10
 70
0
 10
14.6190672463
 20
7.7840248937
 10
14.6056161002
 20
7.815185052
 10
14.5880878088
 20
7.844769339
 10
14.5673183823
 20
7.8713669272
 10
14.5442983517
 20
7.893709445
 10
14.5201255411
 20
7.910731441
 10
14.4959527305
 20
7.9216211709
 10
14.4729326999
 20
7.9258592936
 10
14.4521632734
 20
7.9232436308
 10
14.4413837358
 20
7.9185202659
  0
LINE
  5
6EC
100
AcDbEntity
  8
0
100
AcDbLine
 62
7
  6
CONTINUOUS
 10
14.3508023276
 20
9.1837175022
 11
14.3508023276
 21
9.173915506
  0
LINE
  5
6ED
100
AcDbEntity
  8
0
100
AcDbLine
 62
7
  6
CONTINUOUS
 10
14.3508023276
 20
7.7602008399
 11
14.3508023276
 21
7.7700028361
  0
LWPOLYLINE
  5
6EE
100
AcDbEntity
  8
0
100
AcDbPolyline
 62
7
  6
CONTINUOUS
 90
13
 70
0
 10
14.4500785977
 20
8.9816641067
 10
14.438484257
 20
8.9503044098
 10
14.4267605292
 20
8.8814617619
 10
14.4257164883
 20
8.8056302198
 10
14.4353602406
 20
8.7243972389
 10
14.455363811
 20
8.6403884334
 10
14.4854495434
 20
8.5549784841
 10
14.5245213723
 20
8.4713926515
 10
14.5711726365
 20
8.3922350878
 10
14.6246691958
 20
8.3186173347
 10
14.6841628455
 20
8.2520750681
 10
14.7473470165
 20
8.1954504192
 10
14.8115342984
 20
8.1508854363
  0
LWPOLYLINE
  5
6EF
100
AcDbEntity
  8
0
100
AcDbPolyline
 62
7
  6
CONTINUOUS
 90
14
 70
0
 10
14.4223131515
 20
8.9899973551
 10
14.4046703126
 20
8.9522087627
 10
14.3890810654
 20
8.8900452471
 10
14.3831485572
 20
8.8205404435
 10
14.3869931604
 20
8.7453909497
 10
14.4004945025
 20
8.6664323546
 10
14.4232944302
 20
8.5855940398
 10
14.4548058279
 20
8.5048516719
 10
14.4942270749
 20
8.426178555
 10
14.5405617837
 20
8.3514970411
 10
14.5926433343
 20
8.2826311962
 10
14.6491636007
 20
8.2212618847
 10
14.7087051606
 20
8.1688853817
 10
14.7697761978
 20
8.1267765295
  0
LINE
  5
6F0
100
AcDbEntity
  8
0
100
AcDbLine
 62
7
  6
CONTINUOUS
 10
14.3516096908
 20
8.9605118665
 11
14.3835027275
 21
9.0014720492
  0
LWPOLYLINE
  5
6F1
100
AcDbEntity
  8
0
100
AcDbPolyline
 62
7
  6
CONTINUOUS
 90
15
 70
0
 10
14.3997598929
 20
8.9967662688
 10
14.3878000446
 20
8.9814062523
 10
14.362912212
 20
8.9280998559
 10
14.3473229648
 20
8.8659363404
 10
14.3413904566
 20
8.7964315368
 10
14.3452350598
 20
8.721282043
 10
14.3587364019
 20
8.6423234479
 10
14.3815363296
 20
8.5614851331
 10
14.4130477273
 20
8.4807427652
 10
14.4524689743
 20
8.4020696482
 10
14.498803683
 20
8.3273881344
 10
14.5508852337
 20
8.2585222894
 10
14.6074055001
 20
8.1971529779
 10
14.66694706
 20
8.144776475
 10
14.7280180972
 20
8.1026676228
  0
LWPOLYLINE
  5
6F2
100
AcDbEntity
  8
0
100
AcDbPolyline
 62
7
  6
CONTINUOUS
 90
15
 70
0
 10
14.3586825362
 20
8.9929582636
 10
14.3257794941
 20
8.9631767896
 10
14.293542319
 20
8.9136177835
 10
14.2714518545
 20
8.8538687829
 10
14.2597281267
 20
8.785026135
 10
14.2586840858
 20
8.7091945929
 10
14.2683278381
 20
8.627961612
 10
14.2883314085
 20
8.5439528065
 10
14.3184171409
 20
8.4585428572
 10
14.3574889698
 20
8.3749570246
 10
14.404140234
 20
8.2957994609
 10
14.4576367933
 20
8.2221817078
 10
14.517130443
 20
8.1556394412
 10
14.580314614
 20
8.0990147923
 10
14.6445018959
 20
8.0544498094
  0
LWPOLYLINE
  5
6F3
100
AcDbEntity
  8
0
100
AcDbPolyline
 62
7
  6
CONTINUOUS
 90
15
 70
0
 10
14.3376366809
 20
8.9841814901
 10
14.2944675264
 20
8.9505549677
 10
14.2610245281
 20
8.9065708475
 10
14.2364576188
 20
8.8523440397
 10
14.2213543603
 20
8.789214306
 10
14.216065852
 20
8.7187438603
 10
14.2206979581
 20
8.6426783343
 10
14.2351086624
 20
8.5629031607
 10
14.2589116165
 20
8.4813964629
 10
14.2914857939
 20
8.4001796288
 10
14.3319910067
 20
8.3212668037
 10
14.3793888989
 20
8.2466145639
 10
14.4324688913
 20
8.1780730293
 10
14.4898784297
 20
8.117339635
 10
14.55015678
 20
8.065916719
  0
LINE
  5
6F4
100
AcDbEntity
  8
0
100
AcDbLine
 62
7
  6
CONTINUOUS
 10
14.3434508929
 20
8.9795544976
 11
14.3634476075
 21
8.9949454459
  0
LINE
  5
6F5
100
AcDbEntity
  8
0
100
AcDbLine
 62
7
  6
CONTINUOUS
 10
14.3813377601
 20
9.0017546454
 11
14.3796412468
 21
9.0004488835
  0
LWPOLYLINE
  5
6F6
100
AcDbEntity
  8
0
100
AcDbPolyline
 62
7
  6
CONTINUOUS
 90
14
 70
0
 10
14.3377834223
 20
8.9839506067
 10
14.3290992412
 20
8.9784312446
 10
14.2877897853
 20
8.9401282908
 10
14.2558107531
 20
8.8895638547
 10
14.2340227969
 20
8.8281295419
 10
14.2230023806
 20
8.7575201032
 10
14.2230256941
 20
8.6796861493
 10
14.2340609512
 20
8.5967797221
 10
14.255769288
 20
8.5110942426
 10
14.2875142349
 20
8.4250005154
 10
14.3283794974
 20
8.3408805778
 10
14.3771945479
 20
8.2610612431
 10
14.4325675294
 20
8.1877489346
 10
14.4929259234
 20
8.122966664
  0
LINE
  5
6F7
100
AcDbEntity
  8
AXIS
100
AcDbLine
 62
9
  6
CONTINUOUS
 10
15.0676501273
 20
9.4885630263
 11
15.1535214288
 21
9.5381405494
  0
LINE
  5
6F8
100
AcDbEntity
  8
0
100
AcDbLine
 62
7
  6
CONTINUOUS
 10
14.2873966913
 20
8.9682676207
 11
14.337225363
 21
8.9923430613
  0
LWPOLYLINE
  5
6F9
100
AcDbEntity
  8
0
100
AcDbPolyline
 62
7
  6
CONTINUOUS
 90
4
 70
0
 10
14.9514976596
 20
8.1029579834
 10
14.9377146422
 20
8.104495291
 10
14.8781730823
 20
8.1232807745
 10
14.8171020452
 20
8.1540999572
  0
LWPOLYLINE
  5
6FA
100
AcDbEntity
  8
0
100
AcDbPolyline
 62
7
  6
CONTINUOUS
 90
3
 70
0
 10
14.9552934566
 20
8.1362328118
 10
14.9199311829
 20
8.1473896813
 10
14.8588601458
 20
8.1782088639
  0
LWPOLYLINE
  5
6FB
100
AcDbEntity
  8
0
100
AcDbPolyline
 62
7
  6
CONTINUOUS
 90
4
 70
0
 10
14.7697761978
 20
8.1267765295
 10
14.8308472349
 20
8.0959573469
 10
14.8903887949
 20
8.0771718633
 10
14.9439923531
 20
8.0711931177
  0
LWPOLYLINE
  5
6FC
100
AcDbEntity
  8
0
100
AcDbPolyline
 62
7
  6
CONTINUOUS
 90
4
 70
0
 10
14.8115342984
 20
8.1508854363
 10
14.8726053355
 20
8.1200662536
 10
14.9321468955
 20
8.1012807701
 10
14.9506146824
 20
8.0992209404
  0
LWPOLYLINE
  5
6FD
100
AcDbEntity
  8
0
100
AcDbPolyline
 62
7
  6
CONTINUOUS
 90
3
 70
0
 10
14.853292399
 20
8.174994343
 10
14.9143634362
 20
8.1441751604
 10
14.9549484766
 20
8.1313704974
  0
LWPOLYLINE
  5
6FE
100
AcDbEntity
  8
0
100
AcDbPolyline
 62
7
  6
CONTINUOUS
 90
14
 70
0
 10
14.7753439445
 20
8.1299910504
 10
14.7142729074
 20
8.1720999026
 10
14.6547313474
 20
8.2244764055
 10
14.5982110811
 20
8.2858457171
 10
14.5461295304
 20
8.354711562
 10
14.4997948216
 20
8.4293930759
 10
14.4603735746
 20
8.5080661928
 10
14.4288621769
 20
8.5888085607
 10
14.4060622493
 20
8.6696468755
 10
14.3925609071
 20
8.7486054706
 10
14.3887163039
 20
8.8237549644
 10
14.3946488122
 20
8.893259768
 10
14.4102380593
 20
8.9554232836
 10
14.4258802521
 20
8.9889267606
  0
LWPOLYLINE
  5
6FF
100
AcDbEntity
  8
0
100
AcDbPolyline
 62
7
  6
CONTINUOUS
 90
14
 70
0
 10
14.8171020452
 20
8.1540999572
 10
14.756031008
 20
8.1962088093
 10
14.6964894481
 20
8.2485853123
 10
14.6399691817
 20
8.3099546238
 10
14.587887631
 20
8.3788204688
 10
14.5415529223
 20
8.4535019826
 10
14.5021316753
 20
8.5321750995
 10
14.4706202775
 20
8.6129174674
 10
14.4478203499
 20
8.6937557822
 10
14.4343190078
 20
8.7727143773
 10
14.4304744046
 20
8.8478638711
 10
14.4364069128
 20
8.9173686748
 10
14.45199616
 20
8.9795321903
 10
14.4525518971
 20
8.9807225046
  0
LWPOLYLINE
  5
700
100
AcDbEntity
  8
0
100
AcDbPolyline
 62
7
  6
CONTINUOUS
 90
12
 70
0
 10
14.5133953309
 20
8.9511242565
 10
14.5084228591
 20
8.8928671637
 10
14.5122674623
 20
8.8177176699
 10
14.5257688044
 20
8.7387590747
 10
14.548568732
 20
8.65792076
 10
14.5800801298
 20
8.5771783921
 10
14.6195013767
 20
8.4985052751
 10
14.6658360855
 20
8.4238237613
 10
14.7179176362
 20
8.3549579163
 10
14.7744379026
 20
8.2935886048
 10
14.8339794625
 20
8.2412121019
 10
14.8950504996
 20
8.1991032497
  0
LINE
  5
701
100
AcDbEntity
  8
0
100
AcDbLine
 62
7
  6
CONTINUOUS
 10
14.5139906058
 20
8.8960816846
 11
14.5184776777
 21
8.9486518687
  0
LWPOLYLINE
  5
702
100
AcDbEntity
  8
0
100
AcDbPolyline
 62
7
  6
CONTINUOUS
 90
13
 70
0
 10
14.4799078735
 20
8.9674147584
 10
14.4725972667
 20
8.9382630606
 10
14.4666647584
 20
8.868758257
 10
14.4705093616
 20
8.7936087631
 10
14.4840107038
 20
8.714650168
 10
14.5068106314
 20
8.6338118532
 10
14.5383220291
 20
8.5530694854
 10
14.5777432761
 20
8.4743963684
 10
14.6240779849
 20
8.3997148546
 10
14.6761595356
 20
8.3308490096
 10
14.7326798019
 20
8.2694796981
 10
14.7922213619
 20
8.2171031951
 10
14.853292399
 20
8.174994343
  0
LWPOLYLINE
  5
703
100
AcDbEntity
  8
AXIS
100
AcDbPolyline
 62
7
  6
CONTINUOUS
 90
3
 70
0
 10
15.2416436621
 20
9.5540951214
 10
15.2379467995
 20
9.5509297951
 10
15.2343424615
 20
9.5474279259
  0
LINE
  5
704
100
AcDbEntity
  8
AXIS
100
AcDbLine
 62
7
  6
CONTINUOUS
 10
14.5735140521
 20
9.055137737
 11
14.9832611914
 21
9.2917039461
  0
LINE
  5
705
100
AcDbEntity
  8
0
100
AcDbLine
 62
7
  6
CONTINUOUS
 10
14.3725550936
 20
8.9987435497
 11
14.3376366809
 21
8.9841814901
  0
LWPOLYLINE
  5
706
100
AcDbEntity
  8
0
100
AcDbPolyline
 62
7
  6
CONTINUOUS
 90
3
 70
0
 10
14.8950504996
 20
8.1991032497
 10
14.9561215368
 20
8.1682840671
 10
14.9575358267
 20
8.1678378557
  0
LINE
  5
707
100
AcDbEntity
  8
0
100
AcDbLine
 62
7
  6
CONTINUOUS
 10
14.9579301485
 20
8.173395616
 11
14.9006182464
 21
8.2023177706
  0
LINE
  5
708
100
AcDbEntity
  8
0
100
AcDbLine
 62
7
  6
CONTINUOUS
 10
14.9368086003
 20
8.2232121564
 11
14.9573063515
 21
8.2128680725
  0
LINE
  5
709
100
AcDbEntity
  8
0
100
AcDbLine
 62
7
  6
CONTINUOUS
 10
14.9568977758
 20
8.2190985135
 11
14.942376347
 21
8.2264266773
  0
LWPOLYLINE
  5
70A
100
AcDbEntity
  8
0
100
AcDbPolyline
 62
7
  6
CONTINUOUS
 90
13
 70
0
 10
14.8588601458
 20
8.1782088639
 10
14.7977891086
 20
8.220317716
 10
14.7382475487
 20
8.272694219
 10
14.6817272823
 20
8.3340635305
 10
14.6296457316
 20
8.4029293755
 10
14.5833110229
 20
8.4776108893
 10
14.5438897759
 20
8.5562840063
 10
14.5123783782
 20
8.6370263741
 10
14.4895784505
 20
8.7178646889
 10
14.4760771084
 20
8.796823284
 10
14.4722325052
 20
8.8719727779
 10
14.4781650134
 20
8.9414775815
 10
14.4841517566
 20
8.9653502545
  0
LWPOLYLINE
  5
70B
100
AcDbEntity
  8
0
100
AcDbPolyline
 62
7
  6
CONTINUOUS
 90
11
 70
0
 10
14.9006182464
 20
8.2023177706
 10
14.8395472093
 20
8.2444266227
 10
14.7800056493
 20
8.2968031257
 10
14.7234853829
 20
8.3581724372
 10
14.6714038323
 20
8.4270382822
 10
14.6250691235
 20
8.501719796
 10
14.5856478765
 20
8.580392913
 10
14.5541364788
 20
8.6611352809
 10
14.5313365511
 20
8.7419735956
 10
14.517835209
 20
8.8209321908
 10
14.5139906058
 20
8.8960816846
  0
LINE
  5
70C
100
AcDbEntity
  8
0
100
AcDbLine
 62
7
  6
CONTINUOUS
 10
14.5735140521
 20
9.055137737
 11
14.5735140521
 21
9.0453357408
  0
LINE
  5
70D
100
AcDbEntity
  8
0
100
AcDbLine
 62
7
  6
CONTINUOUS
 10
14.5735140521
 20
7.6316210746
 11
14.5735140521
 21
7.6414230709
  0
LWPOLYLINE
  5
70E
100
AcDbEntity
  8
0
100
AcDbPolyline
 62
7
  6
CONTINUOUS
 90
12
 70
0
 10
14.5510523069
 20
8.9271847066
 10
14.5501809597
 20
8.9169760704
 10
14.5540255629
 20
8.8418265766
 10
14.567526905
 20
8.7628679815
 10
14.5903268327
 20
8.6820296667
 10
14.6218382304
 20
8.6012872988
 10
14.6612594774
 20
8.5226141819
 10
14.7075941861
 20
8.447932668
 10
14.7596757368
 20
8.3790668231
 10
14.8161960032
 20
8.3176975115
 10
14.8757375631
 20
8.2653210086
 10
14.9368086003
 20
8.2232121564
  0
LWPOLYLINE
  5
70F
100
AcDbEntity
  8
0
100
AcDbPolyline
 62
7
  6
CONTINUOUS
 90
3
 70
0
 10
14.6190672463
 20
8.9840027595
 10
14.6236950818
 20
8.9948434415
 10
14.6242140786
 20
9.0008473311
  0
LINE
  5
710
100
AcDbEntity
  8
AXIS
100
AcDbLine
 62
7
  6
CONTINUOUS
 10
15.2343424615
 20
9.5474279259
 11
14.9983962589
 21
9.3037735986
  0
LWPOLYLINE
  5
711
100
AcDbEntity
  8
AXIS
100
AcDbPolyline
 62
7
  6
CONTINUOUS
 90
4
 70
0
 10
14.9983962589
 20
9.3037735986
 10
14.9934842531
 20
9.2990972186
 10
14.9883982014
 20
9.2950419573
 10
14.9832611914
 20
9.2917039461
  0
LWPOLYLINE
  5
712
100
AcDbEntity
  8
0
100
AcDbPolyline
 62
7
  6
CONTINUOUS
 90
3
 70
0
 10
14.5988673464
 20
8.9637528431
 10
14.6056161002
 20
8.9683742956
 10
14.6190672463
 20
8.9840027595
  0
LWPOLYLINE
  5
713
100
AcDbEntity
  8
0
100
AcDbPolyline
 62
7
  6
CONTINUOUS
 90
12
 70
0
 10
14.942376347
 20
8.2264266773
 10
14.8813053099
 20
8.2685355295
 10
14.8217637499
 20
8.3209120324
 10
14.7652434836
 20
8.382281344
 10
14.7131619329
 20
8.4511471889
 10
14.6668272241
 20
8.5258287028
 10
14.6274059771
 20
8.6045018197
 10
14.5958945794
 20
8.6852441876
 10
14.5730946518
 20
8.7660825024
 10
14.5595933096
 20
8.8450410975
 10
14.5557487064
 20
8.9201905913
 10
14.5560600679
 20
8.9238384773
  0
LWPOLYLINE
  5
714
100
AcDbEntity
  8
0
100
AcDbPolyline
 62
7
  6
CONTINUOUS
 90
11
 70
0
 10
14.9532394225
 20
8.2718378921
 10
14.9230634105
 20
8.2926444362
 10
14.8635218506
 20
8.3450209392
 10
14.8070015842
 20
8.4063902507
 10
14.7549200335
 20
8.4752560957
 10
14.7085853247
 20
8.5499376095
 10
14.6691640777
 20
8.6286107264
 10
14.63765268
 20
8.7093530943
 10
14.6148527524
 20
8.7901914091
 10
14.6013514103
 20
8.8691500042
 10
14.6001701797
 20
8.8922392212
  0
LWPOLYLINE
  5
715
100
AcDbEntity
  8
0
100
AcDbPolyline
 62
7
  6
CONTINUOUS
 90
10
 70
0
 10
14.4211838359
 20
9.0982482152
 10
14.434634982
 20
9.067088057
 10
14.4521632734
 20
9.03750377
 10
14.4729326999
 20
9.0109061818
 10
14.4959527305
 20
8.9885636639
 10
14.5201255411
 20
8.971541668
 10
14.5442983517
 20
8.960651938
 10
14.5673183823
 20
8.9564138154
 10
14.5880878088
 20
8.9590294782
 10
14.5988673464
 20
8.9637528431
  0
LWPOLYLINE
  5
716
100
AcDbEntity
  8
0
100
AcDbPolyline
 62
7
  6
CONTINUOUS
 90
10
 70
0
 10
14.5932093058
 20
8.8981875964
 10
14.6023926431
 20
8.8208328658
 10
14.6223962135
 20
8.7368240603
 10
14.6524819459
 20
8.651414111
 10
14.6915537748
 20
8.5678282784
 10
14.738205039
 20
8.4886707147
 10
14.7917015983
 20
8.4150529616
 10
14.8511952479
 20
8.348510695
 10
14.914379419
 20
8.2918860461
 10
14.9539250815
 20
8.2644296447
  0
LWPOLYLINE
  5
717
100
AcDbEntity
  8
0
100
AcDbPolyline
 62
7
  6
CONTINUOUS
 90
9
 70
0
 10
14.9410140629
 20
8.3376958725
 10
14.9052799512
 20
8.3691298459
 10
14.8487596848
 20
8.4304991574
 10
14.7966781341
 20
8.4993650024
 10
14.7503434254
 20
8.5740465162
 10
14.7109221784
 20
8.6527196332
 10
14.6794107807
 20
8.733462001
 10
14.656610853
 20
8.8143003158
 10
14.6506617387
 20
8.8490919465
  0
LWPOLYLINE
  5
718
100
AcDbEntity
  8
0
100
AcDbPolyline
 62
7
  6
CONTINUOUS
 90
7
 70
0
 10
14.9169163063
 20
8.425944734
 10
14.8905177854
 20
8.4546080641
 10
14.8384362348
 20
8.5234739091
 10
14.792101526
 20
8.5981554229
 10
14.752680279
 20
8.6768285399
 10
14.7211688813
 20
8.7575709078
 10
14.713895353
 20
8.783359576
  0
LWPOLYLINE
  5
719
100
AcDbEntity
  8
0
100
AcDbPolyline
 62
7
  6
CONTINUOUS
 90
9
 70
0
 10
14.6434974858
 20
8.8552141181
 10
14.6510431063
 20
8.8110857949
 10
14.6738430339
 20
8.7302474801
 10
14.7053544316
 20
8.6495051123
 10
14.7447756786
 20
8.5708319953
 10
14.7911103874
 20
8.4961504815
 10
14.8431919381
 20
8.4272846365
 10
14.8997122044
 20
8.365915325
 10
14.9428138542
 20
8.3280004016
  0
LWPOLYLINE
  5
71A
100
AcDbEntity
  8
0
100
AcDbPolyline
 62
7
  6
CONTINUOUS
 90
5
 70
0
 10
14.3934028953
 20
7.8375663021
 10
14.3852483685
 20
7.8199629981
 10
14.374964543
 20
7.8019152798
 10
14.3631738744
 20
7.7848754162
 10
14.3508023276
 20
7.7700028361
  0
LWPOLYLINE
  5
71B
100
AcDbEntity
  8
0
100
AcDbPolyline
 62
7
  6
CONTINUOUS
 90
5
 70
0
 10
14.3934028953
 20
9.1555426447
 10
14.4004103745
 20
9.1452901117
 10
14.4076484313
 20
9.131669216
 10
14.41468529
 20
9.1155155359
 10
14.4211838359
 20
9.0982482152
  0
LWPOLYLINE
  5
71C
100
AcDbEntity
  8
0
100
AcDbPolyline
 62
7
  6
CONTINUOUS
 90
3
 70
0
 10
14.8177112367
 20
8.6401656345
 10
14.8282918799
 20
8.6190498088
 10
14.845144922
 20
8.5918863554
  0
LWPOLYLINE
  5
71D
100
AcDbEntity
  8
0
100
AcDbPolyline
 62
7
  6
CONTINUOUS
 90
7
 70
0
 10
14.7046761283
 20
8.7930915576
 10
14.7156011345
 20
8.7543563869
 10
14.7471125322
 20
8.673614019
 10
14.7865337792
 20
8.594940902
 10
14.832868488
 20
8.5202593882
 10
14.8849500387
 20
8.4513935432
 10
14.9209790633
 20
8.4122734792
  0
LWPOLYLINE
  5
71E
100
AcDbEntity
  8
0
100
AcDbPolyline
 62
7
  6
CONTINUOUS
 90
5
 70
0
 10
14.4211838359
 20
7.8982703495
 10
14.4146868392
 20
7.8863505132
 10
14.4076448457
 20
7.8713356922
 10
14.4004030917
 20
7.8544548515
 10
14.3934028953
 20
7.8375663021
  0
LWPOLYLINE
  5
71F
100
AcDbEntity
  8
AXIS
100
AcDbPolyline
 62
7
  6
CONTINUOUS
 90
11
 70
0
 10
14.6440848911
 20
8.9947370186
 10
14.712241184
 20
8.9264193012
 10
14.7770345092
 20
8.8511287093
 10
14.8375945635
 20
8.7698768453
 10
14.8931073009
 20
8.6837560328
 10
14.9428265332
 20
8.5939240201
 10
14.986083956
 20
8.5015884191
 10
15.0222981288
 20
8.4079904764
 10
15.0509822868
 20
8.314388391
 10
15.0717508812
 20
8.2220404057
 10
15.0843247593
 20
8.1321878983
  0
LINE
  5
720
100
AcDbEntity
  8
AXIS
100
AcDbLine
 62
7
  6
CONTINUOUS
 10
15.0189319376
 20
9.6826748866
 11
15.0189319376
 21
9.5166898499
  0
LWPOLYLINE
  5
721
100
AcDbEntity
  8
0
100
AcDbPolyline
 62
7
  6
CONTINUOUS
 90
5
 70
0
 10
14.6161146197
 20
7.7089865369
 10
14.6218766866
 20
7.7266115268
 10
14.6246917647
 20
7.7460365679
 10
14.6236957474
 20
7.7656779087
 10
14.6190672463
 20
7.7840248937
  0
LINE
  5
722
100
AcDbEntity
  8
0
100
AcDbLine
 62
7
  6
CONTINUOUS
 10
14.5201255411
 20
8.9478502396
 11
14.4514823738
 21
8.9812427911
  0
LINE
  5
723
100
AcDbEntity
  8
AXIS
100
AcDbLine
 62
7
  6
CONTINUOUS
 10
14.5735140521
 20
9.055137737
 11
14.6440848911
 21
8.9947370186
  0
LWPOLYLINE
  5
724
100
AcDbEntity
  8
0
100
AcDbPolyline
 62
7
  6
CONTINUOUS
 90
14
 70
0
 10
14.5735140521
 20
9.0453357408
 10
14.6609281167
 20
8.968631388
 10
14.744097916
 20
8.8799453759
 10
14.8212468657
 20
8.7811715936
 10
14.8907269183
 20
8.6744195373
 10
14.9510537912
 20
8.5619692438
 10
15.0009386976
 20
8.4462225737
 10
15.0393158985
 20
8.3296518866
 10
15.0653654878
 20
8.2147472084
 10
15.0785309235
 20
8.1039630064
 10
15.0785309235
 20
7.9996657442
 10
15.0653654878
 20
7.9040833339
 10
15.0393158985
 20
7.8192574499
 10
15.0140704761
 20
7.7679020827
  0
LWPOLYLINE
  5
725
100
AcDbEntity
  8
AXIS
100
AcDbPolyline
 62
7
  6
CONTINUOUS
 90
6
 70
0
 10
15.0676501273
 20
9.4885630263
 10
15.0694702642
 20
9.4702029773
 10
15.0748248953
 20
9.4508082821
 10
15.0834028287
 20
9.4315060899
 10
15.0947055463
 20
9.4134181739
 10
15.0992826796
 20
9.4080017197
  0
LWPOLYLINE
  5
726
100
AcDbEntity
  8
AXIS
100
AcDbPolyline
 62
7
  6
CONTINUOUS
 90
6
 70
0
 10
15.0189319376
 20
9.5166898499
 10
15.0217238752
 20
9.4864654694
 10
15.0299597402
 20
9.4545327384
 10
15.0432263616
 20
9.422493433
 10
15.0608587665
 20
9.3919534544
 10
15.0709776133
 20
9.3787697796
  0
LWPOLYLINE
  5
727
100
AcDbEntity
  8
AXIS
100
AcDbPolyline
 62
7
  6
CONTINUOUS
 90
9
 70
0
 10
15.0843247593
 20
8.1321878983
 10
15.0885349149
 20
8.0460386988
 10
15.0843247593
 20
7.9647508583
 10
15.0717508812
 20
7.8894170862
 10
15.0509822868
 20
7.8210500655
 10
15.0222981288
 20
7.7605688434
 10
14.986083956
 20
7.7087864795
 10
14.9428265332
 20
7.6663991181
 10
14.905057635
 20
7.640514923
  0
LINE
  5
728
100
AcDbEntity
  8
AXIS
100
AcDbLine
 62
7
  6
CONTINUOUS
 10
15.0676501273
 20
9.5207087907
 11
15.0676501273
 21
9.4885630263
  0
LWPOLYLINE
  5
729
100
AcDbEntity
  8
0
100
AcDbPolyline
 62
9
  6
CONTINUOUS
 90
11
 70
0
 10
15.0428301583
 20
8.0458517166
 10
15.0490658867
 20
8.1357596121
 10
15.0428301583
 20
8.2328677437
 10
15.0242699915
 20
8.3348865149
 10
14.993823051
 20
8.4394103286
 10
14.9522069271
 20
8.5439754523
 10
14.9004043456
 20
8.646113425
 10
14.8396297346
 20
8.7434274269
 10
14.7713466042
 20
8.8335817489
 10
14.6970953526
 20
8.9145358064
 10
14.6190672463
 20
8.9840027595
  0
LINE
  5
72A
100
AcDbEntity
  8
0
100
AcDbLine
 62
7
  6
CONTINUOUS
 10
14.3845256451
 20
9.0013385264
 11
14.3395622851
 21
9.0072076549
  0
LINE
  5
72B
100
AcDbEntity
  8
0
100
AcDbLine
 62
7
  6
CONTINUOUS
 10
14.4514823738
 20
8.9812427911
 11
14.3845256451
 21
9.0013385264
  0
LWPOLYLINE
  5
72C
100
AcDbEntity
  8
0
100
AcDbPolyline
 62
7
  6
CONTINUOUS
 90
14
 70
0
 10
14.9200735691
 20
8.0017264928
 10
14.9374732347
 20
8.0436021164
 10
14.9535484234
 20
8.1116374738
 10
14.9589511552
 20
8.1877861755
 10
14.9535484299
 20
8.27017327
 10
14.937473248
 20
8.3567702334
 10
14.9111213792
 20
8.4454447742
 10
14.8751418566
 20
8.5340129481
 10
14.8304208605
 20
8.6202936451
 10
14.7780590543
 20
8.7021633581
 10
14.7193450145
 20
8.777606814
 10
14.6557254762
 20
8.8447647584
 10
14.588768727
 20
8.9019822678
 10
14.5201255411
 20
8.9478502396
  0
LWPOLYLINE
  5
72D
100
AcDbEntity
  8
0
100
AcDbPolyline
 62
7
  6
CONTINUOUS
 90
19
 70
0
 10
14.3395622851
 20
9.0072076549
 10
14.3209061101
 20
9.0076404435
 10
14.2621920637
 20
8.9999925962
 10
14.2098302487
 20
8.9785837274
 10
14.165109249
 20
8.9439412286
 10
14.1291297224
 20
8.8969176983
 10
14.1027778475
 20
8.8386709926
 10
14.0867026588
 20
8.7706356352
 10
14.081299927
 20
8.6944869334
 10
14.0867026523
 20
8.6120998389
 10
14.1027778342
 20
8.5255028756
 10
14.1291297029
 20
8.4368283348
 10
14.1651092256
 20
8.3482601609
 10
14.2098302217
 20
8.2619794639
 10
14.2621920279
 20
8.1801097508
 10
14.3209060677
 20
8.104666295
 10
14.384525606
 20
8.0375083506
 10
14.4514823551
 20
7.9802908412
 10
14.5201255411
 20
7.9344228694
  0
LWPOLYLINE
  5
72E
100
AcDbEntity
  8
0
100
AcDbPolyline
 62
9
  6
CONTINUOUS
 90
19
 70
0
 10
14.4211838359
 20
9.0982482152
 10
14.3431557295
 20
9.1188783203
 10
14.268904478
 20
9.1236602833
 10
14.2006213476
 20
9.112350745
 10
14.1398467366
 20
9.0852116316
 10
14.088044155
 20
9.0428887745
 10
14.0464280311
 20
8.9863767243
 10
14.0159810907
 20
8.9170092138
 10
13.9974209239
 20
8.8364213924
 10
13.9911851955
 20
8.7465134968
 10
13.9974209239
 20
8.6494053653
 10
14.0159810907
 20
8.5473865941
 10
14.0464280311
 20
8.4428627804
 10
14.088044155
 20
8.3382976566
 10
14.1398467366
 20
8.236159684
 10
14.2006213476
 20
8.1388456821
 10
14.268904478
 20
8.04869136
 10
14.3431557295
 20
7.9677373025
 10
14.4211838359
 20
7.8982703495
  0
LWPOLYLINE
  5
72F
100
AcDbEntity
  8
AXIS
100
AcDbPolyline
 62
7
  6
CONTINUOUS
 90
7
 70
0
 10
14.3508023276
 20
9.1837175022
 10
14.2802314887
 20
9.2048031261
 10
14.2120751957
 20
9.2151837365
 10
14.1472818706
 20
9.2147083394
 10
14.0867218162
 20
9.2033836208
 10
14.0312090788
 20
9.1813619461
 10
14.0192587447
 20
9.1748236539
  0
LWPOLYLINE
  5
730
100
AcDbEntity
  8
0
100
AcDbPolyline
 62
7
  6
CONTINUOUS
 90
4
 70
0
 10
14.3721420689
 20
9.1710168399
 10
14.3749657693
 20
9.1699024842
 10
14.3852560369
 20
9.1637238979
 10
14.3934028953
 20
9.1555426447
  0
LINE
  5
731
100
AcDbEntity
  8
0
100
AcDbLine
 62
7
  6
CONTINUOUS
 10
14.9379475448
 20
8.0456095488
 11
14.9347994496
 21
8.0406430395
  0
LINE
  5
732
100
AcDbEntity
  8
0
100
AcDbLine
 62
7
  6
CONTINUOUS
 10
14.9336836145
 20
8.0344816706
 11
14.917218474
 21
8.009239285
  0
LWPOLYLINE
  5
733
100
AcDbEntity
  8
0
100
AcDbPolyline
 62
7
  6
CONTINUOUS
 90
5
 70
0
 10
14.5735140521
 20
7.6414230709
 10
14.5858776444
 20
7.6562851895
 10
14.5976774938
 20
7.6733374652
 10
14.6079677614
 20
7.6913981581
 10
14.6161146197
 20
7.7089865369
  0
LWPOLYLINE
  5
734
100
AcDbEntity
  8
0
100
AcDbPolyline
 62
7
  6
CONTINUOUS
 90
3
 70
0
 10
14.4413837358
 20
7.9185202659
 10
14.434634982
 20
7.9138988134
 10
14.4211838359
 20
7.8982703495
  0
LINE
  5
735
100
AcDbEntity
  8
0
100
AcDbLine
 62
7
  6
CONTINUOUS
 10
14.337225363
 20
8.9923430613
 11
14.3840466777
 21
9.0008254152
  0
LWPOLYLINE
  5
736
100
AcDbEntity
  8
0
100
AcDbPolyline
 62
7
  6
CONTINUOUS
 90
3
 70
0
 10
14.2949090556
 20
8.9941563237
 10
14.3539038552
 20
9.004825491
 10
14.3578825669
 20
9.0048162836
  0
LWPOLYLINE
  5
737
100
AcDbEntity
  8
0
100
AcDbPolyline
 62
7
  6
CONTINUOUS
 90
17
 70
0
 10
14.366906657
 20
9.0036383569
 10
14.3097171217
 20
8.9934090433
 10
14.2576843256
 20
8.9686402858
 10
14.2134338113
 20
8.9298655183
 10
14.1785974134
 20
8.8781387497
 10
14.1543713097
 20
8.8154827436
 10
14.1410337465
 20
8.7430009404
 10
14.1389751107
 20
8.6629637005
 10
14.1482244015
 20
8.5770222318
 10
14.1684933732
 20
8.4878536859
 10
14.1995341736
 20
8.3969061949
 10
14.2402391373
 20
8.3076178848
 10
14.289092901
 20
8.2228758692
 10
14.3453916183
 20
8.1437584078
 10
14.4082720714
 20
8.0719098354
 10
14.4753171818
 20
8.0104079664
 10
14.5436747011
 20
7.9616151695
  0
LWPOLYLINE
  5
738
100
AcDbEntity
  8
0
100
AcDbPolyline
 62
7
  6
CONTINUOUS
 90
3
 70
0
 10
14.1840617257
 20
9.2055303565
 10
14.263388263
 20
9.1981459373
 10
14.3508023276
 20
9.173915506
  0
LWPOLYLINE
  5
739
100
AcDbEntity
  8
0
100
AcDbPolyline
 62
7
  6
CONTINUOUS
 90
3
 70
0
 10
14.9391769271
 20
8.0508126895
 10
14.9052367989
 20
8.0164300569
 10
14.8602425063
 20
7.9913160154
  0
LINE
  5
73A
100
AcDbEntity
  8
0
100
AcDbLine
 62
7
  6
CONTINUOUS
 10
14.9347994496
 20
8.0406430395
 11
14.8964820353
 21
8.0039116626
  0
LWPOLYLINE
  5
73B
100
AcDbEntity
  8
0
100
AcDbPolyline
 62
7
  6
CONTINUOUS
 90
7
 70
0
 10
14.917218474
 20
8.009239285
 10
14.8758973216
 20
7.9718242421
 10
14.8267847493
 20
7.9482594947
 10
14.7706089251
 20
7.9387657847
 10
14.7082143102
 20
7.9439285365
 10
14.6420213798
 20
7.9639004051
 10
14.5748615636
 20
7.9976267526
  0
LINE
  5
73C
100
AcDbEntity
  8
0
100
AcDbLine
 62
9
  6
CONTINUOUS
 10
14.3934028953
 20
7.8375663021
 11
14.5201272749
 21
7.9107302201
  0
LWPOLYLINE
  5
73D
100
AcDbEntity
  8
0
100
AcDbPolyline
 62
7
  6
CONTINUOUS
 90
3
 70
0
 10
14.3508023276
 20
9.173915506
 10
14.36316592
 20
9.1733295489
 10
14.3721420689
 20
9.1710168399
  0
LINE
  5
73E
100
AcDbEntity
  8
AXIS
100
AcDbLine
 62
9
  6
CONTINUOUS
 10
14.9983962589
 20
9.3037735986
 11
15.0832978885
 21
9.2299789699
  0
LWPOLYLINE
  5
73F
100
AcDbEntity
  8
AXIS
100
AcDbPolyline
 62
9
  6
CONTINUOUS
 90
17
 70
0
 10
14.9832611914
 20
9.2917039461
 10
15.067713758
 20
9.2182192754
 10
15.1483780781
 20
9.1336295689
 10
15.2236940492
 20
9.0395706316
 10
15.2922037363
 20
8.9378630298
 10
15.352581419
 20
8.8304750514
 10
15.4036593062
 20
8.7194839087
 10
15.4444492095
 20
8.6070369419
 10
15.4741619648
 20
8.4953096863
 10
15.4922227232
 20
8.3864637179
 10
15.4982820542
 20
8.2826049278
 10
15.4922227273
 20
8.1857426839
 10
15.4741619745
 20
8.0977510133
 10
15.4444492205
 20
8.0203323048
 10
15.4036593214
 20
7.9549843928
 10
15.3525814649
 20
7.9029715972
 10
15.3148167602
 20
7.8770858813
  0
LWPOLYLINE
  5
740
100
AcDbEntity
  8
AXIS
100
AcDbPolyline
 62
9
  6
CONTINUOUS
 90
9
 70
0
 10
15.0832978885
 20
9.2299789699
 10
15.1643981489
 20
9.1450077849
 10
15.2401266672
 20
9.0505051496
 10
15.3090157996
 20
8.9483023698
 10
15.3697309311
 20
8.8403796218
 10
15.4210963718
 20
8.7288269007
 10
15.4621172062
 20
8.6158049387
 10
15.4919988745
 20
8.5035029523
 10
15.510162584
 20
8.3940961776
  0
LWPOLYLINE
  5
741
100
AcDbEntity
  8
AXIS
100
AcDbPolyline
 62
9
  6
CONTINUOUS
 90
7
 70
0
 10
15.510162584
 20
8.3940961776
 10
15.5162565011
 20
8.289703832
 10
15.5101625883
 20
8.1923479682
 10
15.4919988845
 20
8.103914366
 10
15.4621172176
 20
8.0261159663
 10
15.4210963874
 20
7.9604597091
 10
15.3697309775
 20
7.9082173656
  0
LWPOLYLINE
  5
742
100
AcDbEntity
  8
0
100
AcDbPolyline
 62
7
  6
CONTINUOUS
 90
8
 70
0
 10
15.0140704761
 20
7.7679020827
 10
15.0009386976
 20
7.7469999349
 10
14.9510537912
 20
7.68885409
 10
14.8907269183
 20
7.6460616932
 10
14.8212468657
 20
7.6195364761
 10
14.744097916
 20
7.6098446123
 10
14.6609281167
 20
7.6171926395
 10
14.5735140521
 20
7.6414230709
  0
LINE
  5
743
100
AcDbEntity
  8
AXIS
100
AcDbLine
 62
7
  6
CONTINUOUS
 10
14.3508023276
 20
7.7602008399
 11
14.5583781204
 21
7.8800440643
  0
LWPOLYLINE
  5
744
100
AcDbEntity
  8
0
100
AcDbPolyline
 62
7
  6
CONTINUOUS
 90
7
 70
0
 10
14.8964820353
 20
8.0039116626
 10
14.8501902133
 20
7.9801968244
 10
14.7972269119
 20
7.970127526
 10
14.7390724671
 20
7.9739666208
 10
14.677348511
 20
7.9916019655
 10
14.6137711417
 20
8.0225477398
 10
14.55015678
 20
8.065916719
  0
LINE
  5
745
100
AcDbEntity
  8
0
100
AcDbLine
 62
7
  6
CONTINUOUS
 10
14.9231130747
 20
8.0330211098
 11
14.9210421574
 21
8.0321822464
  0
LINE
  5
746
100
AcDbEntity
  8
0
100
AcDbLine
 62
7
  6
CONTINUOUS
 10
14.9154744107
 20
8.0289677255
 11
14.9190380463
 21
8.0304112422
  0
LWPOLYLINE
  5
747
100
AcDbEntity
  8
0
100
AcDbPolyline
 62
7
  6
CONTINUOUS
 90
6
 70
0
 10
14.9087829022
 20
8.0200223936
 10
14.8792840568
 20
8.0080733397
 10
14.8272025061
 20
8.0017555994
 10
14.7706822398
 20
8.0080596641
 10
14.7111406798
 20
8.0268451476
 10
14.6500696427
 20
8.0576643303
  0
LWPOLYLINE
  5
748
100
AcDbEntity
  8
AXIS
100
AcDbPolyline
 62
7
  6
CONTINUOUS
 90
9
 70
0
 10
15.1823572149
 20
9.493773497
 10
15.1771727709
 20
9.5054396092
 10
15.1658700534
 20
9.5235275252
 10
15.1524994246
 20
9.5393499611
 10
15.1378379369
 20
9.5519873744
 10
15.1227376627
 20
9.5607053245
 10
15.108076175
 20
9.564997156
 10
15.0947055463
 20
9.5646134431
 10
15.0859888385
 20
9.5612516049
  0
LWPOLYLINE
  5
749
100
AcDbEntity
  8
0
100
AcDbPolyline
 62
9
  6
CONTINUOUS
 90
4
 70
0
 10
15.4264889899
 20
9.3980456928
 10
15.3334041144
 20
9.4899873481
 10
15.2366808744
 20
9.5690380398
 10
15.1381216667
 20
9.63372453
  0
LWPOLYLINE
  5
74A
100
AcDbEntity
  8
AXIS
100
AcDbPolyline
 62
9
  6
CONTINUOUS
 90
3
 70
0
 10
15.4200839831
 20
9.376212533
 10
15.3290840171
 20
9.4679805066
 10
15.2343424615
 20
9.5474279259
  0
LINE
  5
74B
100
AcDbEntity
  8
AXIS
100
AcDbLine
 62
9
  6
CONTINUOUS
 10
15.3697309775
 20
7.9082173656
 11
15.3090158781
 21
7.870400826
  0
LINE
  5
74C
100
AcDbEntity
  8
AXIS
100
AcDbLine
 62
7
  6
CONTINUOUS
 10
14.9050695928
 20
7.640519656
 11
15.3148167321
 21
7.8770858651
  0
LWPOLYLINE
  5
74D
100
AcDbEntity
  8
AXIS
100
AcDbPolyline
 62
7
  6
CONTINUOUS
 90
7
 70
0
 10
14.905057635
 20
7.640514923
 10
14.8931073009
 20
7.6339766308
 10
14.8375945635
 20
7.611954956
 10
14.7770345092
 20
7.6006302374
 10
14.712241184
 20
7.6001548403
 10
14.6440848911
 20
7.6105354507
 10
14.5735140521
 20
7.6316210746
  0
LINE
  5
74E
100
AcDbEntity
  8
AXIS
100
AcDbLine
 62
9
  6
CONTINUOUS
 10
15.3090158781
 20
7.870400826
 11
15.2955882148
 21
7.8659843417
  0
LWPOLYLINE
  5
74F
100
AcDbEntity
  8
AXIS
100
AcDbPolyline
 62
9
  6
CONTINUOUS
 90
5
 70
0
 10
15.0116307371
 20
9.6760076911
 10
14.9168891732
 20
9.705955924
 10
14.8258891695
 20
9.7192632837
 10
14.7402810745
 20
9.7156883142
 10
14.6616193402
 20
9.6952954811
  0
LWPOLYLINE
  5
750
100
AcDbEntity
  8
AXIS
100
AcDbPolyline
 62
7
  6
CONTINUOUS
 90
3
 70
0
 10
15.0189319376
 20
9.6826748866
 10
15.0744422683
 20
9.6580933313
 10
15.1302877998
 20
9.6283455639
  0
LWPOLYLINE
  5
751
100
AcDbEntity
  8
0
100
AcDbPolyline
 62
9
  6
CONTINUOUS
 90
7
 70
0
 10
15.1381216667
 20
9.63372453
 10
15.0395624526
 20
9.682841838
 10
14.9428392118
 20
9.7154749962
 10
14.849754294
 20
9.7310160672
 10
14.7620402426
 20
9.7291757156
 10
14.6813312623
 20
9.7099877552
 10
14.6263129344
 20
9.6844186739
  0
LWPOLYLINE
  5
752
100
AcDbEntity
  8
AXIS
100
AcDbPolyline
 62
7
  6
CONTINUOUS
 90
4
 70
0
 10
15.1302877998
 20
9.6283455639
 10
15.1675546742
 20
9.6057203404
 10
15.2046857368
 20
9.5809615263
 10
15.2416436621
 20
9.5540951214
  0
LWPOLYLINE
  5
753
100
AcDbEntity
  8
AXIS
100
AcDbPolyline
 62
9
  6
CONTINUOUS
 90
16
 70
0
 10
15.5843538584
 20
7.8830974611
 10
15.6546398106
 20
7.919937376
 10
15.7152754296
 20
7.9725559294
 10
15.7651599819
 20
8.0399980004
 10
15.8033879124
 20
8.1210393071
 10
15.8292653679
 20
8.2142089122
 10
15.8423225934
 20
8.3178155028
 10
15.8423225936
 20
8.4299785679
 10
15.8292653685
 20
8.5486620017
 10
15.8033879127
 20
8.671711645
 10
15.7651599851
 20
8.796893757
 10
15.715275423
 20
8.9219362682
 10
15.6546398343
 20
9.0445691611
 10
15.5843538289
 20
9.1625665559
 10
15.5056920796
 20
9.2737880937
 10
15.4200839831
 20
9.376212533
  0
LWPOLYLINE
  5
754
100
AcDbEntity
  8
0
100
AcDbPolyline
 62
7
  6
CONTINUOUS
 90
4
 70
0
 10
15.649930399
 20
7.9114506345
 10
15.5954372655
 20
7.8854963807
 10
15.5363523361
 20
7.8679955856
 10
15.4729402723
 20
7.859292652
  0
LWPOLYLINE
  5
755
100
AcDbEntity
  8
AXIS
100
AcDbPolyline
 62
7
  6
CONTINUOUS
 90
22
 70
0
 10
15.2973202023
 20
9.7256372987
 10
15.3783615574
 20
9.6735938377
 10
15.4583837703
 20
9.6116943109
 10
15.5363805155
 20
9.5407171405
 10
15.6113709385
 20
9.4615549059
 10
15.6824119913
 20
9.3752031179
 10
15.7486102914
 20
9.2827477005
 10
15.8091333568
 20
9.1853513341
 10
15.8632200748
 20
9.0842388345
 10
15.9101902736
 20
8.9806817502
 10
15.9494532756
 20
8.8759823715
 10
15.9805153259
 20
8.7714573539
 10
16.0029858011
 20
8.66842116
 10
16.0165821219
 20
8.5681695299
 10
16.0211333068
 20
8.471963186
 10
16.0165821219
 20
8.3810119788
 10
16.0029858011
 20
8.2964596725
 10
15.9805153259
 20
8.2193695615
 10
15.9494532756
 20
8.1507110986
 10
15.9101902736
 20
8.0913477039
 10
15.8632200748
 20
8.0420259064
 10
15.8091289439
 20
8.0033634086
  0
LWPOLYLINE
  5
756
100
AcDbEntity
  8
0
100
AcDbPolyline
 62
9
  6
CONTINUOUS
 90
16
 70
0
 10
15.649930418
 20
7.9114506455
 10
15.6671107545
 20
7.9220591078
 10
15.7294554673
 20
7.9745525418
 10
15.7807848163
 20
8.0423840355
 10
15.8201425613
 20
8.1242899223
 10
15.8467955982
 20
8.2187445625
 10
15.8602473987
 20
8.3239883312
 10
15.8602473986
 20
8.4380608719
 10
15.8467955978
 20
8.5588370899
 10
15.8201425602
 20
8.6840673119
 10
15.7807848173
 20
8.8114185731
 10
15.7294554587
 20
8.9385187745
 10
15.667110775
 20
9.0629999972
 10
15.5949120341
 20
9.1825436179
 10
15.5142030428
 20
9.2949241782
 10
15.4264889899
 20
9.3980456928
  0
LINE
  5
757
100
AcDbEntity
  8
AXIS
100
AcDbLine
 62
7
  6
CONTINUOUS
 10
15.649930399
 20
7.9114506345
 11
15.8091289346
 21
8.0033634032
  0
LWPOLYLINE
  5
758
100
AcDbEntity
  8
AXIS
100
AcDbPolyline
 62
7
  6
CONTINUOUS
 90
8
 70
0
 10
15.2973202023
 20
9.7256372987
 10
15.2162788473
 20
9.7671702171
 10
15.1362566343
 20
9.7976702922
 10
15.0582598891
 20
9.8167539681
 10
14.9832694661
 20
9.8241812563
 10
14.9122284133
 20
9.8198587545
 10
14.8460301132
 20
9.8038408206
 10
14.7855114607
 20
9.7763314372
  0
CIRCLE
  5
759
100
AcDbEntity
  8
0
100
AcDbCircle
 62
7
  6
CONTINUOUS
 10
10.5342808475
 20
1.243294839
 40
0.252091
  0
CIRCLE
  5
75A
100
AcDbEntity
  8
0
100
AcDbCircle
 62
7
  6
CONTINUOUS
 10
10.5342808475
 20
1.243294839
 40
0.182698
  0
CIRCLE
  5
75B
100
AcDbEntity
  8
0
100
AcDbCircle
 62
7
  6
CONTINUOUS
 10
3.4226295092
 20
5.211567595
 40
1.0236220472
  0
ARC
  5
75C
100
AcDbEntity
  8
AXIS
100
AcDbCircle
 62
7
  6
CONTINUOUS
 10
3.4226295092
 20
5.211567595
 40
1.0225735409
100
AcDbArc
 50
81.1409696093
 51
98.8590303907
  0
ARC
  5
75D
100
AcDbEntity
  8
AXIS
100
AcDbCircle
 62
7
  6
CONTINUOUS
 10
3.4226295092
 20
5.211567595
 40
1.0225735409
100
AcDbArc
 50
261.1409696093
 51
278.8590303907
  0
ARC
  5
75E
100
AcDbEntity
  8
AXIS
100
AcDbCircle
 62
9
  6
CONTINUOUS
 10
3.4226295092
 20
5.211567595
 40
1.0196065751
100
AcDbArc
 50
278.8850177303
 51
81.1149822697
  0
ARC
  5
75F
100
AcDbEntity
  8
AXIS
100
AcDbCircle
 62
9
  6
CONTINUOUS
 10
3.4226295092
 20
5.211567595
 40
1.0196065751
100
AcDbArc
 50
98.8850177303
 51
261.1149822697
  0
ARC
  5
760
100
AcDbEntity
  8
AXIS
100
AcDbCircle
 62
9
  6
CONTINUOUS
 10
3.4226295092
 20
5.211567595
 40
0.8898422438
100
AcDbArc
 50
280.1936430935
 51
79.8063569065
  0
ARC
  5
761
100
AcDbEntity
  8
AXIS
100
AcDbCircle
 62
9
  6
CONTINUOUS
 10
3.4226295092
 20
5.211567595
 40
0.8898422438
100
AcDbArc
 50
100.1936430935
 51
259.8063569065
  0
ARC
  5
762
100
AcDbEntity
  8
AXIS
100
AcDbCircle
 62
7
  6
CONTINUOUS
 10
3.4226295092
 20
5.211567595
 40
0.8858267717
100
AcDbArc
 50
100.2403483212
 51
259.7596516788
  0
ARC
  5
763
100
AcDbEntity
  8
AXIS
100
AcDbCircle
 62
7
  6
CONTINUOUS
 10
3.4226295092
 20
5.211567595
 40
0.8858267717
100
AcDbArc
 50
280.2403483212
 51
79.7596516788
  0
ARC
  5
764
100
AcDbEntity
  8
0
100
AcDbCircle
 62
7
  6
CONTINUOUS
 10
3.4226295092
 20
5.211567595
 40
0.874015748
100
AcDbArc
 50
280.3802549639
 51
79.6197450361
  0
ARC
  5
765
100
AcDbEntity
  8
0
100
AcDbCircle
 62
7
  6
CONTINUOUS
 10
3.4226295092
 20
5.211567595
 40
0.874015748
100
AcDbArc
 50
100.3802549639
 51
259.6197450361
  0
ARC
  5
766
100
AcDbEntity
  8
0
100
AcDbCircle
 62
9
  6
CONTINUOUS
 10
3.4226295092
 20
5.211567595
 40
0.7480314961
100
AcDbArc
 50
280.7810518014
 51
79.2189481986
  0
ARC
  5
767
100
AcDbEntity
  8
0
100
AcDbCircle
 62
9
  6
CONTINUOUS
 10
3.4226295092
 20
5.211567595
 40
0.7480314961
100
AcDbArc
 50
100.7810518014
 51
259.2189481986
  0
CIRCLE
  5
768
100
AcDbEntity
  8
0
100
AcDbCircle
 62
7
  6
CONTINUOUS
 10
3.4226295092
 20
5.211567595
 40
0.6205905512
  0
ARC
  5
769
100
AcDbEntity
  8
0
100
AcDbCircle
 62
7
  6
CONTINUOUS
 10
3.4226295092
 20
5.211567595
 40
0.5615354331
100
AcDbArc
 50
316.8142649859
 51
322.6551425461
  0
ARC
  5
76A
100
AcDbEntity
  8
0
100
AcDbCircle
 62
7
  6
CONTINUOUS
 10
3.4226295092
 20
5.211567595
 40
0.5615354331
100
AcDbArc
 50
325.2601064238
 51
332.5054644151
  0
ARC
  5
76B
100
AcDbEntity
  8
0
100
AcDbCircle
 62
7
  6
CONTINUOUS
 10
3.4226295092
 20
5.211567595
 40
0.5615354331
100
AcDbArc
 50
333.5439136223
 51
310.2587250898
  0
ARC
  5
76C
100
AcDbEntity
  8
0
100
AcDbCircle
 62
7
  6
CONTINUOUS
 10
3.4226295092
 20
4.4044809809
 40
0.157480315
100
AcDbArc
 50
0.0
 51
180.0
  0
ARC
  5
76D
100
AcDbEntity
  8
0
100
AcDbCircle
 62
7
  6
CONTINUOUS
 10
3.4226295092
 20
6.0186542092
 40
0.157480315
100
AcDbArc
 50
180.0
 51
360.0
  0
ARC
  5
76E
100
AcDbEntity
  8
AXIS
100
AcDbCircle
 62
7
  6
CONTINUOUS
 10
3.4226295092
 20
4.4044809809
 40
0.0885826772
100
AcDbArc
 50
0.0
 51
180.0
  0
ARC
  5
76F
100
AcDbEntity
  8
AXIS
100
AcDbCircle
 62
7
  6
CONTINUOUS
 10
3.4226295092
 20
4.3651109021
 40
0.0885826772
100
AcDbArc
 50
180.0
 51
360.0
  0
ARC
  5
770
100
AcDbEntity
  8
AXIS
100
AcDbCircle
 62
7
  6
CONTINUOUS
 10
3.4226295092
 20
6.058024288
 40
0.0885826772
100
AcDbArc
 50
0.0
 51
180.0
  0
ARC
  5
771
100
AcDbEntity
  8
AXIS
100
AcDbCircle
 62
7
  6
CONTINUOUS
 10
3.4226295092
 20
6.0186542092
 40
0.0885826772
100
AcDbArc
 50
180.0
 51
360.0
  0
ARC
  5
772
100
AcDbEntity
  8
0
100
AcDbCircle
 62
7
  6
CONTINUOUS
 10
8.0520149994
 20
6.1761345242
 40
0.0590551181
100
AcDbArc
 50
90.0
 51
100.8128219237
  0
ARC
  5
773
100
AcDbEntity
  8
0
100
AcDbCircle
 62
7
  6
CONTINUOUS
 10
8.0520149994
 20
4.2470006659
 40
0.0590551181
100
AcDbArc
 50
259.1871780763
 51
270.0
  0
CIRCLE
  5
774
100
AcDbEntity
  8
AXIS
100
AcDbCircle
 62
7
  6
CONTINUOUS
 10
11.9239312625
 20
5.211567595
 40
1.0236220472
  0
CIRCLE
  5
775
100
AcDbEntity
  8
0
100
AcDbCircle
 62
7
  6
CONTINUOUS
 10
11.9239312625
 20
5.211567595
 40
0.5615354331
  0
ARC
  5
776
100
AcDbEntity
  8
AXIS
100
AcDbCircle
 62
7
  6
CONTINUOUS
 10
11.9239312625
 20
6.058024288
 40
0.0885826772
100
AcDbArc
 50
0.0
 51
180.0
  0
ARC
  5
777
100
AcDbEntity
  8
AXIS
100
AcDbCircle
 62
7
  6
CONTINUOUS
 10
11.9239312625
 20
6.0186542092
 40
0.0885826772
100
AcDbArc
 50
180.0
 51
360.0
  0
ARC
  5
778
100
AcDbEntity
  8
AXIS
100
AcDbCircle
 62
7
  6
CONTINUOUS
 10
11.9239312625
 20
4.3651109021
 40
0.0885826772
100
AcDbArc
 50
180.0
 51
360.0
  0
ARC
  5
779
100
AcDbEntity
  8
AXIS
100
AcDbCircle
 62
7
  6
CONTINUOUS
 10
11.9239312625
 20
4.4044809809
 40
0.0885826772
100
AcDbArc
 50
0.0
 51
180.0
  0
ENDSEC
  0
SECTION
  2
OBJECTS
  0
DICTIONARY
  5
C
100
AcDbDictionary
280
0
281
1
  3
ACAD_GROUP
350
D
  3
ACAD_MLINESTYLE
350
17
  3
ACAD_LAYOUT
350
1A
  3
ACAD_PLOTSETTINGS
350
19
  3
ACAD_PLOTSTYLENAME
350
E
  0
DICTIONARY
  5
D
102
{ACAD_REACTORS
330
C
102
}
100
AcDbDictionary
280
0
281
1
  0
ACDBDICTIONARYWDFLT
  5
E
102
{ACAD_REACTORS
330
C
102
}
100
AcDbDictionary
281
1
  3
Normal
350
F
100
AcDbDictionaryWithDefault
340
F
  0
DICTIONARY
  5
17
102
{ACAD_REACTORS
330
C
102
}
100
AcDbDictionary
280
0
281
1
  3
Standard
350
18
  0
DICTIONARY
  5
19
102
{ACAD_REACTORS
330
C
102
}
100
AcDbDictionary
281
1
  0
DICTIONARY
  5
1A
102
{ACAD_REACTORS
330
C
102
}
100
AcDbDictionary
281
1
  3
Model
350
77A
  3
Layout1
350
77B
  0
ACDBPLACEHOLDER
  5
F
102
{ACAD_REACTORS
330
E
102
}
  0
MLINESTYLE
  5
18
102
{ACAD_REACTORS
330
17
102
}
100
AcDbMlineStyle
  2
STANDARD
 70
0
  3

 62
256
 51
90.0
 52
90.0
 71
2
 49
0.5
 62
256
  6
BYLAYER
 49
-0.5
 62
256
  6
BYLAYER
  0
LAYOUT
  5
77A
102
{ACAD_REACTORS
330
1A
102
}
100
AcDbPlotSettings
  1

  2
none_device
  4
ANSI_B_(17.00_x_11.00_Inches)
  6

 40
0.0
 41
0.0
 42
0.0
 43
0.0
 44
431.8
 45
279.4
 46
0.0
 47
0.0
 48
0.0
 49
0.0
140
0.0
141
0.0
142
1.0
143
1.0
 70
1024
 72
0
 73
0
 74
0
  7

 75
0
147
1.0
148
0.0
149
0.0
100
AcDbLayout
  1
Model
 70
0
 71
0
 10
0.0
 20
0.0
 11
17.0
 21
11.0
 12
0.0
 22
0.0
 32
0.0
 14
0.0
 24
0.0
 34
0.0
 15
0.0
 25
0.0
 35
0.0
146
0.0
 13
0.0
 23
0.0
 33
0.0
 16
1.0
 26
0.0
 36
0.0
 17
0.0
 27
1.0
 37
0.0
 76
0
330
209
345
0
346
0
  0
LAYOUT
  5
77B
102
{ACAD_REACTORS
330
1A
102
}
100
AcDbPlotSettings
  1

  2
none_device
  4
ANSI_B_(17.00_x_11.00_Inches)
  6

 40
0.0
 41
0.0
 42
0.0
 43
0.0
 44
431.8
 45
279.4
 46
0.0
 47
0.0
 48
0.0
 49
0.0
140
0.0
141
0.0
142
1.0
143
1.0
 70
0
 72
0
 73
0
 74
0
  7

 75
0
147
1.0
148
0.0
149
0.0
100
AcDbLayout
  1
Layout1
 70
0
 71
1
 10
0.0
 20
0.0
 11
17.0
 21
11.0
 12
0.0
 22
0.0
 32
0.0
 14
0.0
 24
0.0
 34
0.0
 15
0.0
 25
0.0
 35
0.0
146
0.0
 13
0.0
 23
0.0
 33
0.0
 16
1.0
 26
0.0
 36
0.0
 17
0.0
 27
1.0
 37
0.0
 76
0
330
20A
345
0
346
0
  0
ENDSEC
  0
EOF
