999
DXF file: 161954_1.dxf
999
Pro/ENGINEER 2009141 by Parametric Technology Corporation
  0
SECTION
  2
HEADER
  9
$ACADVER
  1
AC1015
  9
$DWGCODEPAGE
  3
ANSI_1252
  9
$EXTMAX
 10
22.0
 20
17.0
 30
0.0
  9
$EXTMIN
 10
0.0
 20
0.0
 30
0.0
  9
$LIMMIN
 10
0.0
 20
0.0
  9
$LIMMAX
 10
22.0
 20
17.0
  9
$VIEWCTR
 10
11.0
 20
8.5
  9
$VIEWSIZE
 40
17.0
  9
$CLAYER
  8
0
  9
$LTSCALE
 40
1.21
  9
$CELTYPE
  6
BYLAYER
  9
$DIMSCALE
 40
1.0
  9
$DIMASZ
 40
0.1875
  9
$DIMEXO
 40
0.1375
  9
$DIMDLI
 40
0.836
  9
$DIMEXE
 40
0.396
  9
$DIMCEN
 40
0.198
  9
$DIMLFAC
 40
1.0
  9
$DIMBLK
  1
_FILLED
  9
$DIMTXT
 40
0.1
  9
$DIMTOL
 70
1
  9
$DIMLIM
 70
0
  9
$DIMTFAC
 40
1.0
  9
$DIMTP
 40
0.005
  9
$DIMTM
 40
0.005
  9
$PDMODE
 70
3
  9
$PDSIZE
 40
0.3125
  9
$HANDSEED
  5
728
  9
$TILEMODE
 70
1
  9
$MEASUREMENT
 70
0
  9
$INSUNITS
 70
1
  0
ENDSEC
  0
SECTION
  2
CLASSES
  0
CLASS
  1
ACDBDICTIONARYWDFLT
  2
AcDbDictionaryWithDefault
  3
AutoCAD 2000
 90
0
280
0
281
0
  0
CLASS
  1
ACDBPLACEHOLDER
  2
AcDbPlaceHolder
  3
AutoCAD 2000
 90
0
280
0
281
0
  0
CLASS
  1
LAYOUT
  2
AcDbLayout
  3
AutoCAD 2000
 90
0
280
0
281
0
  0
ENDSEC
  0
SECTION
  2
TABLES
  0
TABLE
  2
VPORT
  5
8
100
AcDbSymbolTable
 70
2
  0
VPORT
  5
1F4
100
AcDbSymbolTableRecord
100
AcDbViewportTableRecord
  2
*ACTIVE
 70
0
 10
0.0
 20
0.0
 11
1.0
 21
1.0
 12
11.0
 22
8.5
 13
0.0
 23
0.0
 14
1.0
 24
1.0
 15
0.0
 25
0.0
 16
0.0
 26
0.0
 36
1.0
 17
0.0
 27
0.0
 37
0.0
 40
17.0
 41
1.2941176471
 42
50.0
 43
0.0
 44
0.0
 50
0.0
 51
0.0
 71
0
 72
100
 73
1
 74
1
 75
0
 76
0
 77
0
 78
0
  0
ENDTAB
  0
TABLE
  2
LTYPE
  5
5
100
AcDbSymbolTable
 70
6
  0
LTYPE
  5
14
100
AcDbSymbolTableRecord
100
AcDbLinetypeTableRecord
  2
BYBLOCK
 70
0
  3

 72
65
 73
0
 40
0.0
  0
LTYPE
  5
15
100
AcDbSymbolTableRecord
100
AcDbLinetypeTableRecord
  2
BYLAYER
 70
0
  3

 72
65
 73
0
 40
0.0
  0
LTYPE
  5
16
100
AcDbSymbolTableRecord
100
AcDbLinetypeTableRecord
  2
CONTINUOUS
 70
64
  3
Solid line
 72
65
 73
0
 40
0.0
  0
LTYPE
  5
1F5
100
AcDbSymbolTableRecord
100
AcDbLinetypeTableRecord
  2
CENTER
 70
64
  3
____ _ ____ _ ____ _ ____ _ ____ _ ____ _ ____
 72
65
 73
4
 40
0.6
 49
0.375
 74
0
 49
-0.075
 74
0
 49
0.075
 74
0
 49
-0.075
 74
0
  0
LTYPE
  5
1F6
100
AcDbSymbolTableRecord
100
AcDbLinetypeTableRecord
  2
HIDDEN
 70
64
  3
- - - - - - - - - - - - - - - - - - - -
 72
65
 73
2
 40
0.2
 49
0.1
 74
0
 49
-0.1
 74
0
  0
LTYPE
  5
1F7
100
AcDbSymbolTableRecord
100
AcDbLinetypeTableRecord
  2
PHANTOM
 70
64
  3
_____ _ _ _____ _ _ _____ _ _ _____
 72
65
 73
6
 40
0.8
 49
0.45
 74
0
 49
-0.05
 74
0
 49
0.1
 74
0
 49
-0.05
 74
0
 49
0.1
 74
0
 49
-0.05
 74
0
  0
LTYPE
  5
1F8
100
AcDbSymbolTableRecord
100
AcDbLinetypeTableRecord
  2
DOT
 70
64
  3
. . . . . . . . . . . . . . . . . . . .
 72
65
 73
2
 40
0.2
 49
0.1
 74
0
 49
-0.1
 74
0
  0
LTYPE
  5
1F9
100
AcDbSymbolTableRecord
100
AcDbLinetypeTableRecord
  2
DASHED
 70
64
  3
- - - - - - - - - - - - - - - - - - - -
 72
65
 73
2
 40
0.2
 49
0.1
 74
0
 49
-0.1
 74
0
  0
ENDTAB
  0
TABLE
  2
LAYER
  5
2
100
AcDbSymbolTable
 70
36
  0
LAYER
  5
10
100
AcDbSymbolTableRecord
100
AcDbLayerTableRecord
  2
0
 70
0
 62
7
  6
CONTINUOUS
370
-3
390
F
  0
LAYER
  5
1FA
100
AcDbSymbolTableRecord
100
AcDbLayerTableRecord
  2
DEFAULT_1
 70
0
 62
7
  6
CENTER
370
-3
390
F
  0
LAYER
  5
1FB
100
AcDbSymbolTableRecord
100
AcDbLayerTableRecord
  2
DEFAULT_2
 70
0
 62
8
  6
HIDDEN
370
-3
390
F
  0
LAYER
  5
1FC
100
AcDbSymbolTableRecord
100
AcDbLayerTableRecord
  2
DEFAULT_3
 70
0
 62
7
  6
PHANTOM
370
-3
390
F
  0
LAYER
  5
1FD
100
AcDbSymbolTableRecord
100
AcDbLayerTableRecord
  2
01___PRT_ALL_DTM_PLN
 70
0
 62
7
  6
CONTINUOUS
370
-3
390
F
  0
LAYER
  5
1FE
100
AcDbSymbolTableRecord
100
AcDbLayerTableRecord
  2
01___PRT_DEF_DTM_PLN
 70
0
 62
7
  6
CONTINUOUS
370
-3
390
F
  0
LAYER
  5
1FF
100
AcDbSymbolTableRecord
100
AcDbLayerTableRecord
  2
02___PRT_ALL_AXES
 70
0
 62
7
  6
CONTINUOUS
370
-3
390
F
  0
LAYER
  5
200
100
AcDbSymbolTableRecord
100
AcDbLayerTableRecord
  2
03___PRT_ALL_CURVES
 70
0
 62
7
  6
CONTINUOUS
370
-3
390
F
  0
LAYER
  5
201
100
AcDbSymbolTableRecord
100
AcDbLayerTableRecord
  2
04___PRT_ALL_DTM_PNT
 70
0
 62
7
  6
CONTINUOUS
370
-3
390
F
  0
LAYER
  5
202
100
AcDbSymbolTableRecord
100
AcDbLayerTableRecord
  2
05___PRT_ALL_DTM_CSYS
 70
0
 62
7
  6
CONTINUOUS
370
-3
390
F
  0
LAYER
  5
203
100
AcDbSymbolTableRecord
100
AcDbLayerTableRecord
  2
05___PRT_DEF_DTM_CSYS
 70
0
 62
7
  6
CONTINUOUS
370
-3
390
F
  0
LAYER
  5
204
100
AcDbSymbolTableRecord
100
AcDbLayerTableRecord
  2
06___PRT_ALL_SURFS
 70
0
 62
7
  6
CONTINUOUS
370
-3
390
F
  0
LAYER
  5
205
100
AcDbSymbolTableRecord
100
AcDbLayerTableRecord
  2
AXIS
 70
0
 62
7
  6
CONTINUOUS
370
-3
390
F
  0
LAYER
  5
206
100
AcDbSymbolTableRecord
100
AcDbLayerTableRecord
  2
AXIS_COSMETIC_THREADS
 70
0
 62
7
  6
CONTINUOUS
370
-3
390
F
  0
LAYER
  5
207
100
AcDbSymbolTableRecord
100
AcDbLayerTableRecord
  2
DATUM_CURVES
 70
0
 62
7
  6
CONTINUOUS
370
-3
390
F
  0
LAYER
  5
208
100
AcDbSymbolTableRecord
100
AcDbLayerTableRecord
  2
DATUM_PLANES
 70
0
 62
7
  6
CONTINUOUS
370
-3
390
F
  0
LAYER
  5
209
100
AcDbSymbolTableRecord
100
AcDbLayerTableRecord
  2
NOTES
 70
0
 62
7
  6
CONTINUOUS
370
-3
390
F
  0
LAYER
  5
20A
100
AcDbSymbolTableRecord
100
AcDbLayerTableRecord
  2
QUILTS
 70
0
 62
7
  6
CONTINUOUS
370
-3
390
F
  0
LAYER
  5
20B
100
AcDbSymbolTableRecord
100
AcDbLayerTableRecord
  2
SCHEME_DIMS
 70
0
 62
7
  6
CONTINUOUS
370
-3
390
F
  0
LAYER
  5
20C
100
AcDbSymbolTableRecord
100
AcDbLayerTableRecord
  2
SKETCHED_ENT
 70
0
 62
7
  6
CONTINUOUS
370
-3
390
F
  0
LAYER
  5
20D
100
AcDbSymbolTableRecord
100
AcDbLayerTableRecord
  2
SYMBOLS
 70
0
 62
7
  6
CONTINUOUS
370
-3
390
F
  0
LAYER
  5
20E
100
AcDbSymbolTableRecord
100
AcDbLayerTableRecord
  2
WHITE
 70
0
 62
7
  6
CONTINUOUS
370
-3
390
F
  0
ENDTAB
  0
TABLE
  2
STYLE
  5
3
100
AcDbSymbolTable
 70
1
  0
STYLE
  5
11
100
AcDbSymbolTableRecord
100
AcDbTextStyleTableRecord
  2
STANDARD
 70
0
 40
0.0
 41
1.0
 50
0.0
 71
0
 42
0.2
  3
txt
  4

  0
STYLE
  5
20F
100
AcDbSymbolTableRecord
100
AcDbTextStyleTableRecord
  2
TEXTSTYLE_1
 70
0
 40
0.0
 41
0.8
 50
0.0
 71
0
 42
0.2
  3
gdt
  4

  0
STYLE
  5
210
100
AcDbSymbolTableRecord
100
AcDbTextStyleTableRecord
  2
TEXTSTYLE_2
 70
0
 40
0.0
 41
0.8
 50
0.0
 71
0
 42
0.2
  3
txt
  4

  0
STYLE
  5
211
100
AcDbSymbolTableRecord
100
AcDbTextStyleTableRecord
  2
TEXTSTYLE_3
 70
0
 40
0.0
 41
0.85
 50
0.0
 71
0
 42
0.2
  3
txt
  4

  0
STYLE
  5
212
100
AcDbSymbolTableRecord
100
AcDbTextStyleTableRecord
  2
TEXTSTYLE_4
 70
0
 40
0.0
 41
0.92
 50
0.0
 71
0
 42
0.2
  3
txt
  4

  0
STYLE
  5
213
100
AcDbSymbolTableRecord
100
AcDbTextStyleTableRecord
  2
TEXTSTYLE_5
 70
0
 40
0.0
 41
1.0
 50
0.0
 71
0
 42
0.2
  3
gdt
  4

  0
ENDTAB
  0
TABLE
  2
VIEW
  5
6
100
AcDbSymbolTable
 70
0
  0
ENDTAB
  0
TABLE
  2
UCS
  5
7
100
AcDbSymbolTable
 70
0
  0
ENDTAB
  0
TABLE
  2
APPID
  5
9
100
AcDbSymbolTable
 70
1
  0
APPID
  5
214
100
AcDbSymbolTableRecord
100
AcDbRegAppTableRecord
  2
ACAD
 70
0
  0
ENDTAB
  0
TABLE
  2
BLOCK_RECORD
  5
1
100
AcDbSymbolTable
 70
0
  0
BLOCK_RECORD
  5
215
100
AcDbSymbolTableRecord
100
AcDbBlockTableRecord
  2
*Model_Space
  0
BLOCK_RECORD
  5
216
100
AcDbSymbolTableRecord
100
AcDbBlockTableRecord
  2
*Paper_Space
  0
BLOCK_RECORD
  5
217
100
AcDbSymbolTableRecord
100
AcDbBlockTableRecord
  2
_FILLED
  0
BLOCK_RECORD
  5
218
100
AcDbSymbolTableRecord
100
AcDbBlockTableRecord
  2
*D0
  0
BLOCK_RECORD
  5
219
100
AcDbSymbolTableRecord
100
AcDbBlockTableRecord
  2
*D1
  0
BLOCK_RECORD
  5
21A
100
AcDbSymbolTableRecord
100
AcDbBlockTableRecord
  2
*D2
  0
BLOCK_RECORD
  5
21B
100
AcDbSymbolTableRecord
100
AcDbBlockTableRecord
  2
*D3
  0
BLOCK_RECORD
  5
21C
100
AcDbSymbolTableRecord
100
AcDbBlockTableRecord
  2
*D4
  0
BLOCK_RECORD
  5
21D
100
AcDbSymbolTableRecord
100
AcDbBlockTableRecord
  2
*D5
  0
BLOCK_RECORD
  5
21E
100
AcDbSymbolTableRecord
100
AcDbBlockTableRecord
  2
*D6
  0
BLOCK_RECORD
  5
21F
100
AcDbSymbolTableRecord
100
AcDbBlockTableRecord
  2
*D7
  0
BLOCK_RECORD
  5
220
100
AcDbSymbolTableRecord
100
AcDbBlockTableRecord
  2
*D8
  0
BLOCK_RECORD
  5
221
100
AcDbSymbolTableRecord
100
AcDbBlockTableRecord
  2
*D9
  0
BLOCK_RECORD
  5
222
100
AcDbSymbolTableRecord
100
AcDbBlockTableRecord
  2
*D10
  0
BLOCK_RECORD
  5
223
100
AcDbSymbolTableRecord
100
AcDbBlockTableRecord
  2
*D11
  0
BLOCK_RECORD
  5
224
100
AcDbSymbolTableRecord
100
AcDbBlockTableRecord
  2
BANNER_LOGO_TITLEBLOCK_BL0
  0
ENDTAB
  0
TABLE
  2
DIMSTYLE
  5
A
100
AcDbSymbolTable
 70
1
100
AcDbDimStyleTable
 71
0
  0
DIMSTYLE
105
225
100
AcDbSymbolTableRecord
100
AcDbDimStyleTableRecord
  2
STANDARD
 70
0
  3

  4

 40
1.0
 41
0.1875
 42
0.0625
 43
0.38
 44
0.18
 45
0.0
 46
0.0
 47
0.005
 48
0.005
140
0.1
141
0.09
142
0.0
143
25.4
144
1.0
145
0.0
146
1.0
147
0.09
 71
1.0
 72
0.0
 73
1
 74
1
 75
0
 76
0
 77
0
 78
4
170
0
171
2
172
0
173
0
174
0
175
0
176
0
177
0
178
0
270
2
271
3
272
3
273
2
274
2
275
0
280
0
281
0
282
0
283
1
284
4
285
0
286
0
287
3
288
0
340
11
341
217
342
217
343
217
344
217
  0
DIMSTYLE
105
226
100
AcDbSymbolTableRecord
100
AcDbDimStyleTableRecord
  2
DIMSTYLE_1
 70
0
  3

  4

 40
1.0
 41
0.1875
 42
0.0625
 43
0.38
 44
0.18
 45
0.0
 46
0.0
 47
0.0
 48
0.0
140
0.1
141
0.09
142
0.0
143
25.4
144
1.0
145
0.0
146
1.0
147
0.09
 71
0.0
 72
0.0
 73
1
 74
1
 75
0
 76
0
 77
0
 78
4
170
0
171
2
172
0
173
0
174
0
175
0
176
0
177
0
178
0
270
2
271
1
272
1
273
2
274
2
275
0
280
0
281
0
282
0
283
1
284
4
285
0
286
0
287
3
288
0
340
11
341
217
342
217
343
217
344
217
  0
DIMSTYLE
105
227
100
AcDbSymbolTableRecord
100
AcDbDimStyleTableRecord
  2
DIMSTYLE_2
 70
0
  3

  4

 40
1.0
 41
0.1875
 42
0.0625
 43
0.38
 44
0.18
 45
0.0
 46
0.0
 47
0.1
 48
0.1
140
0.1
141
0.09
142
0.0
143
25.4
144
1.0
145
0.0
146
1.0
147
0.09
 71
0.0
 72
0.0
 73
1
 74
1
 75
0
 76
0
 77
0
 78
4
170
0
171
2
172
0
173
0
174
0
175
0
176
0
177
0
178
0
270
2
271
1
272
1
273
2
274
2
275
0
280
0
281
0
282
0
283
1
284
4
285
0
286
0
287
3
288
0
340
11
341
217
342
217
343
217
344
217
  0
DIMSTYLE
105
228
100
AcDbSymbolTableRecord
100
AcDbDimStyleTableRecord
  2
DIMSTYLE_3
 70
0
  3

  4

 40
1.0
 41
0.1875
 42
0.0625
 43
0.38
 44
0.18
 45
0.0
 46
0.0
 47
0.1
 48
0.1
140
0.1
141
0.09
142
0.0
143
25.4
144
1.0
145
0.0
146
1.0
147
0.09
 71
0.0
 72
0.0
 73
1
 74
1
 75
0
 76
0
 77
0
 78
4
170
0
171
2
172
0
173
0
174
0
175
0
176
0
177
0
178
0
270
2
271
1
272
1
273
2
274
2
275
0
280
0
281
0
282
0
283
1
284
4
285
0
286
0
287
3
288
0
340
11
341
217
342
217
343
217
344
217
  0
ENDTAB
  0
ENDSEC
  0
SECTION
  2
BLOCKS
  0
BLOCK
  5
20
100
AcDbEntity
  8
0
100
AcDbBlockBegin
  2
*Model_Space
 70
0
 10
0.0
 20
0.0
 30
0.0
  3
*Model_Space
  1

  0
ENDBLK
  5
21
100
AcDbEntity
  8
0
100
AcDbBlockEnd
  0
BLOCK
  5
1C
100
AcDbEntity
  8
0
100
AcDbBlockBegin
  2
*Paper_Space
 70
0
 10
0.0
 20
0.0
 30
0.0
  3
*Paper_Space
  1

  0
ENDBLK
  5
1D
100
AcDbEntity
  8
0
100
AcDbBlockEnd
  0
BLOCK
  5
229
100
AcDbEntity
  8
0
100
AcDbBlockBegin
 62
2
  6
CONTINUOUS
  2
BANNER_LOGO_TITLEBLOCK_BL0
 70
64
 10
17.5778140653
 20
2.4016160549
  3
BANNER_LOGO_TITLEBLOCK_BL0
  1

  0
ELLIPSE
  5
22A
100
AcDbEntity
  8
0
100
AcDbEllipse
 62
2
  6
CONTINUOUS
 10
17.5737928219
 20
2.4016160549
 30
0.0
 11
-0.8250004575
 21
0.0
 31
0.0
 40
0.218572
 41
0.0
 42
6.2831853072
  0
ARC
  5
22B
100
AcDbEntity
  8
0
100
AcDbCircle
 62
2
  6
CONTINUOUS
 10
17.0691330821
 20
2.3781140608
 40
0.0153945295
100
AcDbArc
 50
354.0454548824
 51
5.1878013979
  0
ARC
  5
22C
100
AcDbEntity
  8
0
100
AcDbCircle
 62
2
  6
CONTINUOUS
 10
17.062303393
 20
2.377925543
 40
0.0222174455
100
AcDbArc
 50
4.0793399388
 51
69.834329283
  0
LINE
  5
22D
100
AcDbEntity
  8
0
100
AcDbLine
 62
2
  6
CONTINUOUS
 10
17.0699625425
 20
2.3987810533
 11
17.0599115369
 21
2.4023300553
  0
LINE
  5
22E
100
AcDbEntity
  8
0
100
AcDbLine
 62
2
  6
CONTINUOUS
 10
17.0599115369
 20
2.4023300553
 11
17.0681515415
 21
2.4071060579
  0
ARC
  5
22F
100
AcDbEntity
  8
0
100
AcDbCircle
 62
2
  6
CONTINUOUS
 10
17.046286159
 20
2.4439329496
 40
0.0428289026
100
AcDbArc
 50
300.6990502959
 51
319.0591802498
  0
ARC
  5
230
100
AcDbEntity
  8
0
100
AcDbCircle
 62
2
  6
CONTINUOUS
 10
17.0663147559
 20
2.4278045961
 40
0.0171568255
100
AcDbArc
 50
315.9145124245
 51
16.0049121282
  0
ARC
  5
231
100
AcDbEntity
  8
0
100
AcDbCircle
 62
2
  6
CONTINUOUS
 10
17.0613631438
 20
2.4244509317
 40
0.0229166529
100
AcDbArc
 50
20.6563876465
 51
62.3316896973
  0
ARC
  5
232
100
AcDbEntity
  8
0
100
AcDbCircle
 62
2
  6
CONTINUOUS
 10
17.0407010201
 20
2.3915223668
 40
0.061747717
100
AcDbArc
 50
59.5385584989
 51
90.0050977555
  0
LINE
  5
233
100
AcDbEntity
  8
0
100
AcDbLine
 62
2
  6
CONTINUOUS
 10
17.0406955262
 20
2.4532700835
 11
16.8746324342
 21
2.4532700835
  0
ARC
  5
234
100
AcDbEntity
  8
0
100
AcDbCircle
 62
2
  6
CONTINUOUS
 10
16.8746324323
 20
2.450795084
 40
0.0024749995
100
AcDbArc
 50
89.9999571957
 51
180.0000428043
  0
LINE
  5
235
100
AcDbEntity
  8
0
100
AcDbLine
 62
2
  6
CONTINUOUS
 10
16.8721574328
 20
2.4507950822
 11
16.8721574328
 21
2.4309950712
  0
ARC
  5
236
100
AcDbEntity
  8
0
100
AcDbCircle
 62
2
  6
CONTINUOUS
 10
16.8746324323
 20
2.4309950693
 40
0.0024749995
100
AcDbArc
 50
179.9999571957
 51
270.0000428043
  0
LINE
  5
237
100
AcDbEntity
  8
0
100
AcDbLine
 62
2
  6
CONTINUOUS
 10
16.8746324342
 20
2.4285200698
 11
16.8985744474
 21
2.4285200698
  0
ARC
  5
238
100
AcDbEntity
  8
0
100
AcDbCircle
 62
2
  6
CONTINUOUS
 10
16.8985744493
 20
2.4260450703
 40
0.0024749995
100
AcDbArc
 50
359.9999571957
 51
90.0000428043
  0
LINE
  5
239
100
AcDbEntity
  8
0
100
AcDbLine
 62
2
  6
CONTINUOUS
 10
16.9010494488
 20
2.4260450684
 11
16.9010494488
 21
2.3796900427
  0
ARC
  5
23A
100
AcDbEntity
  8
0
100
AcDbCircle
 62
2
  6
CONTINUOUS
 10
16.8985744493
 20
2.3796900409
 40
0.0024749995
100
AcDbArc
 50
269.9999571957
 51
0.0000428043
  0
LINE
  5
23B
100
AcDbEntity
  8
0
100
AcDbLine
 62
2
  6
CONTINUOUS
 10
16.8985744474
 20
2.3772150414
 11
16.8746324342
 21
2.3772150414
  0
ARC
  5
23C
100
AcDbEntity
  8
0
100
AcDbCircle
 62
2
  6
CONTINUOUS
 10
16.8746324323
 20
2.3747400418
 40
0.0024749995
100
AcDbArc
 50
89.9999571957
 51
180.0000428043
  0
LINE
  5
23D
100
AcDbEntity
  8
0
100
AcDbLine
 62
2
  6
CONTINUOUS
 10
16.8721574328
 20
2.37474004
 11
16.8721574328
 21
2.354940029
  0
ARC
  5
23E
100
AcDbEntity
  8
0
100
AcDbCircle
 62
2
  6
CONTINUOUS
 10
16.8746324323
 20
2.3549400272
 40
0.0024749995
100
AcDbArc
 50
179.9999571957
 51
270.0000428043
  0
LINE
  5
23F
100
AcDbEntity
  8
0
100
AcDbLine
 62
2
  6
CONTINUOUS
 10
16.8746324342
 20
2.3524650276
 11
17.051078532
 21
2.3524650276
  0
ARC
  5
240
100
AcDbEntity
  8
0
100
AcDbCircle
 62
2
  6
CONTINUOUS
 10
17.0483571873
 20
2.4008724794
 40
0.048483885
100
AcDbArc
 50
273.21763719
 51
303.0749121182
  0
ARC
  5
241
100
AcDbEntity
  8
0
100
AcDbCircle
 62
2
  6
CONTINUOUS
 10
17.0631965815
 20
2.3781048705
 40
0.0213072145
100
AcDbArc
 50
303.0488228549
 51
355.7263138674
  0
LINE
  5
242
100
AcDbEntity
  8
0
100
AcDbLine
 62
2
  6
CONTINUOUS
 10
16.9640374837
 20
2.4111950602
 11
17.0054005067
 21
2.4111950602
  0
ARC
  5
243
100
AcDbEntity
  8
0
100
AcDbCircle
 62
2
  6
CONTINUOUS
 10
17.0054005067
 20
2.419857565
 40
0.0086625048
100
AcDbArc
 50
270.0
 51
90.0
  0
LINE
  5
244
100
AcDbEntity
  8
0
100
AcDbLine
 62
2
  6
CONTINUOUS
 10
17.0054005067
 20
2.4285200698
 11
16.9640374837
 21
2.4285200698
  0
ARC
  5
245
100
AcDbEntity
  8
0
100
AcDbCircle
 62
2
  6
CONTINUOUS
 10
16.9640374819
 20
2.4260450703
 40
0.0024749995
100
AcDbArc
 50
89.9999571957
 51
180.0000428043
  0
LINE
  5
246
100
AcDbEntity
  8
0
100
AcDbLine
 62
2
  6
CONTINUOUS
 10
16.9615624824
 20
2.4260450684
 11
16.9615624824
 21
2.4136700616
  0
ARC
  5
247
100
AcDbEntity
  8
0
100
AcDbCircle
 62
2
  6
CONTINUOUS
 10
16.9640374819
 20
2.4136700597
 40
0.0024749995
100
AcDbArc
 50
179.9999571957
 51
270.0000428043
  0
LINE
  5
248
100
AcDbEntity
  8
0
100
AcDbLine
 62
2
  6
CONTINUOUS
 10
16.9615624824
 20
2.3796900427
 11
16.9615624824
 21
2.3920650496
  0
ARC
  5
249
100
AcDbEntity
  8
0
100
AcDbCircle
 62
2
  6
CONTINUOUS
 10
16.9640374819
 20
2.3920650514
 40
0.0024749995
100
AcDbArc
 50
89.9999571957
 51
180.0000428043
  0
LINE
  5
24A
100
AcDbEntity
  8
0
100
AcDbLine
 62
2
  6
CONTINUOUS
 10
16.9640374837
 20
2.394540051
 11
17.0054005067
 21
2.394540051
  0
ARC
  5
24B
100
AcDbEntity
  8
0
100
AcDbCircle
 62
2
  6
CONTINUOUS
 10
17.0054005067
 20
2.3858775462
 40
0.0086625048
100
AcDbArc
 50
270.0
 51
90.0
  0
LINE
  5
24C
100
AcDbEntity
  8
0
100
AcDbLine
 62
2
  6
CONTINUOUS
 10
17.0054005067
 20
2.3772150414
 11
16.9640374837
 21
2.3772150414
  0
ARC
  5
24D
100
AcDbEntity
  8
0
100
AcDbCircle
 62
2
  6
CONTINUOUS
 10
16.9640374819
 20
2.3796900409
 40
0.0024749995
100
AcDbArc
 50
179.9999571957
 51
270.0000428043
  0
ARC
  5
24E
100
AcDbEntity
  8
0
100
AcDbCircle
 62
2
  6
CONTINUOUS
 10
18.2498075353
 20
2.3824863625
 40
0.044722495
100
AcDbArc
 50
195.531588407
 51
204.7624440448
  0
LINE
  5
24F
100
AcDbEntity
  8
0
100
AcDbLine
 62
2
  6
CONTINUOUS
 10
18.2067181729
 20
2.3705110376
 11
18.2049141719
 21
2.376580041
  0
ARC
  5
250
100
AcDbEntity
  8
0
100
AcDbCircle
 62
2
  6
CONTINUOUS
 10
18.1665349746
 20
2.3667829606
 40
0.0396099176
100
AcDbArc
 50
14.3201081283
 51
22.4984722084
  0
ARC
  5
251
100
AcDbEntity
  8
0
100
AcDbCircle
 62
2
  6
CONTINUOUS
 10
18.189301283
 20
2.3757545872
 40
0.0151491919
100
AcDbArc
 50
24.098260853
 51
63.0369451818
  0
ARC
  5
252
100
AcDbEntity
  8
0
100
AcDbCircle
 62
2
  6
CONTINUOUS
 10
18.1852466282
 20
2.3674749668
 40
0.0243676582
100
AcDbArc
 50
63.3666028271
 51
90.3937697637
  0
LINE
  5
253
100
AcDbEntity
  8
0
100
AcDbLine
 62
2
  6
CONTINUOUS
 10
18.1850791609
 20
2.3918420495
 11
18.1574721456
 21
2.3918420495
  0
ARC
  5
254
100
AcDbEntity
  8
0
100
AcDbCircle
 62
2
  6
CONTINUOUS
 10
18.1574721437
 20
2.3893670499
 40
0.0024749995
100
AcDbArc
 50
89.9999571957
 51
180.0000428043
  0
LINE
  5
255
100
AcDbEntity
  8
0
100
AcDbLine
 62
2
  6
CONTINUOUS
 10
18.1549971442
 20
2.3893670481
 11
18.1549971442
 21
2.3796680427
  0
ARC
  5
256
100
AcDbEntity
  8
0
100
AcDbCircle
 62
2
  6
CONTINUOUS
 10
18.1574721437
 20
2.3796680409
 40
0.0024749995
100
AcDbArc
 50
179.9999571957
 51
270.0000428043
  0
LINE
  5
257
100
AcDbEntity
  8
0
100
AcDbLine
 62
2
  6
CONTINUOUS
 10
18.1574721456
 20
2.3771930413
 11
18.1821311592
 21
2.3771930413
  0
ARC
  5
258
100
AcDbEntity
  8
0
100
AcDbCircle
 62
2
  6
CONTINUOUS
 10
18.1821311611
 20
2.3747180418
 40
0.0024749995
100
AcDbArc
 50
359.9999571957
 51
90.0000428043
  0
LINE
  5
259
100
AcDbEntity
  8
0
100
AcDbLine
 62
2
  6
CONTINUOUS
 10
18.1846061606
 20
2.37471804
 11
18.1846061606
 21
2.354940029
  0
ARC
  5
25A
100
AcDbEntity
  8
0
100
AcDbCircle
 62
2
  6
CONTINUOUS
 10
18.1821311611
 20
2.3549400272
 40
0.0024749995
100
AcDbArc
 50
269.9999571957
 51
0.0000428043
  0
LINE
  5
25B
100
AcDbEntity
  8
0
100
AcDbLine
 62
2
  6
CONTINUOUS
 10
18.1821311592
 20
2.3524650276
 11
18.0685600963
 21
2.3524650276
  0
ARC
  5
25C
100
AcDbEntity
  8
0
100
AcDbCircle
 62
2
  6
CONTINUOUS
 10
18.0685600944
 20
2.3549400272
 40
0.0024749995
100
AcDbArc
 50
179.9999571957
 51
270.0000428043
  0
LINE
  5
25D
100
AcDbEntity
  8
0
100
AcDbLine
 62
2
  6
CONTINUOUS
 10
18.0660850949
 20
2.354940029
 11
18.0660850949
 21
2.37474004
  0
ARC
  5
25E
100
AcDbEntity
  8
0
100
AcDbCircle
 62
2
  6
CONTINUOUS
 10
18.0685600944
 20
2.3747400418
 40
0.0024749995
100
AcDbArc
 50
89.9999571957
 51
180.0000428043
  0
LINE
  5
25F
100
AcDbEntity
  8
0
100
AcDbLine
 62
2
  6
CONTINUOUS
 10
18.0685600963
 20
2.3772150414
 11
18.0913061089
 21
2.3772150414
  0
ARC
  5
260
100
AcDbEntity
  8
0
100
AcDbCircle
 62
2
  6
CONTINUOUS
 10
18.0913061107
 20
2.3796900409
 40
0.0024749995
100
AcDbArc
 50
269.9999571957
 51
0.0000428043
  0
LINE
  5
261
100
AcDbEntity
  8
0
100
AcDbLine
 62
2
  6
CONTINUOUS
 10
18.0937811102
 20
2.3796900427
 11
18.0937811102
 21
2.4260450684
  0
ARC
  5
262
100
AcDbEntity
  8
0
100
AcDbCircle
 62
2
  6
CONTINUOUS
 10
18.0913061107
 20
2.4260450703
 40
0.0024749995
100
AcDbArc
 50
359.9999571957
 51
90.0000428043
  0
LINE
  5
263
100
AcDbEntity
  8
0
100
AcDbLine
 62
2
  6
CONTINUOUS
 10
18.0913061089
 20
2.4285200698
 11
18.0685600963
 21
2.4285200698
  0
ARC
  5
264
100
AcDbEntity
  8
0
100
AcDbCircle
 62
2
  6
CONTINUOUS
 10
18.0685600944
 20
2.4309950693
 40
0.0024749995
100
AcDbArc
 50
179.9999571957
 51
270.0000428043
  0
LINE
  5
265
100
AcDbEntity
  8
0
100
AcDbLine
 62
2
  6
CONTINUOUS
 10
18.0660850949
 20
2.4309950712
 11
18.0660850949
 21
2.4507950822
  0
ARC
  5
266
100
AcDbEntity
  8
0
100
AcDbCircle
 62
2
  6
CONTINUOUS
 10
18.0685600944
 20
2.450795084
 40
0.0024749995
100
AcDbArc
 50
89.9999571957
 51
180.0000428043
  0
LINE
  5
267
100
AcDbEntity
  8
0
100
AcDbLine
 62
2
  6
CONTINUOUS
 10
18.0685600963
 20
2.4532700835
 11
18.2181411792
 21
2.4532700835
  0
ARC
  5
268
100
AcDbEntity
  8
0
100
AcDbCircle
 62
2
  6
CONTINUOUS
 10
18.2154778759
 20
2.270731173
 40
0.1825583387
100
AcDbArc
 50
79.8618509324
 51
89.1640948679
  0
ARC
  5
269
100
AcDbEntity
  8
0
100
AcDbCircle
 62
2
  6
CONTINUOUS
 10
18.2417821663
 20
2.4115546891
 40
0.039319019
100
AcDbArc
 50
59.1202086415
 51
81.4730239328
  0
ARC
  5
26A
100
AcDbEntity
  8
0
100
AcDbCircle
 62
2
  6
CONTINUOUS
 10
18.2474415625
 20
2.4178893582
 40
0.0310192946
100
AcDbArc
 50
34.7540871
 51
62.0879016178
  0
ARC
  5
26B
100
AcDbEntity
  8
0
100
AcDbCircle
 62
2
  6
CONTINUOUS
 10
18.2591303136
 20
2.4264389594
 40
0.0165459396
100
AcDbArc
 50
1.548452892
 51
33.5033152417
  0
ARC
  5
26C
100
AcDbEntity
  8
0
100
AcDbCircle
 62
2
  6
CONTINUOUS
 10
18.2624269088
 20
2.4266074116
 40
0.0132462337
100
AcDbArc
 50
331.1510006998
 51
1.205404301
  0
ARC
  5
26D
100
AcDbEntity
  8
0
100
AcDbCircle
 62
2
  6
CONTINUOUS
 10
18.2514162524
 20
2.4332859993
 40
0.0261183659
100
AcDbArc
 50
305.6373831893
 51
329.9727629745
  0
ARC
  5
26E
100
AcDbEntity
  8
0
100
AcDbCircle
 62
2
  6
CONTINUOUS
 10
18.2210843148
 20
2.4764928489
 40
0.0789082104
100
AcDbArc
 50
292.906155071
 51
305.2574666259
  0
ARC
  5
26F
100
AcDbEntity
  8
0
100
AcDbCircle
 62
2
  6
CONTINUOUS
 10
18.1973831488
 20
2.2998387438
 40
0.117346916
100
AcDbArc
 50
58.614769177
 51
62.3737227606
  0
ARC
  5
270
100
AcDbEntity
  8
0
100
AcDbCircle
 62
2
  6
CONTINUOUS
 10
18.2452661015
 20
2.377966004
 40
0.0257145923
100
AcDbArc
 50
39.3804255939
 51
59.0361096173
  0
ARC
  5
271
100
AcDbEntity
  8
0
100
AcDbCircle
 62
2
  6
CONTINUOUS
 10
18.244145746
 20
2.3778929208
 40
0.0266349791
100
AcDbArc
 50
20.3630922153
 51
37.9727053099
  0
ARC
  5
272
100
AcDbEntity
  8
0
100
AcDbCircle
 62
2
  6
CONTINUOUS
 10
18.2262452042
 20
2.3707115124
 40
0.0459185159
100
AcDbArc
 50
15.6740290068
 51
20.9917271228
  0
ARC
  5
273
100
AcDbEntity
  8
0
100
AcDbCircle
 62
2
  6
CONTINUOUS
 10
18.2848155393
 20
2.3863544954
 40
0.0147197649
100
AcDbArc
 50
192.7054516566
 51
206.0594861022
  0
ARC
  5
274
100
AcDbEntity
  8
0
100
AcDbCircle
 62
2
  6
CONTINUOUS
 10
18.2763212023
 20
2.3821460089
 40
0.0052403997
100
AcDbArc
 50
205.5232099488
 51
227.5054868079
  0
ARC
  5
275
100
AcDbEntity
  8
0
100
AcDbCircle
 62
2
  6
CONTINUOUS
 10
18.274592903
 20
2.3803306362
 40
0.0027347709
100
AcDbArc
 50
228.5117626737
 51
266.1485845754
  0
LINE
  5
276
100
AcDbEntity
  8
0
100
AcDbLine
 62
2
  6
CONTINUOUS
 10
18.2744092104
 20
2.3776020416
 11
18.275518211
 21
2.3776020416
  0
ARC
  5
277
100
AcDbEntity
  8
0
100
AcDbCircle
 62
2
  6
CONTINUOUS
 10
18.2754566564
 20
2.3908507008
 40
0.0132488022
100
AcDbArc
 50
270.266200055
 51
281.2404888597
  0
ARC
  5
278
100
AcDbEntity
  8
0
100
AcDbCircle
 62
2
  6
CONTINUOUS
 10
18.2766508974
 20
2.3851140072
 40
0.0073895522
100
AcDbArc
 50
280.8288201977
 51
305.0837508495
  0
ARC
  5
279
100
AcDbEntity
  8
0
100
AcDbCircle
 62
2
  6
CONTINUOUS
 10
18.2770520791
 20
2.3842631608
 40
0.0064647042
100
AcDbArc
 50
306.5086174083
 51
340.2162360092
  0
ARC
  5
27A
100
AcDbEntity
  8
0
100
AcDbCircle
 62
2
  6
CONTINUOUS
 10
18.2718509025
 20
2.3860072224
 40
0.0119498009
100
AcDbArc
 50
340.7883861657
 51
1.1691452593
  0
LINE
  5
27B
100
AcDbEntity
  8
0
100
AcDbLine
 62
2
  6
CONTINUOUS
 10
18.2837982156
 20
2.3862510464
 11
18.2837982156
 21
2.3888770478
  0
ARC
  5
27C
100
AcDbEntity
  8
0
100
AcDbCircle
 62
2
  6
CONTINUOUS
 10
18.2862732151
 20
2.3888770497
 40
0.0024749995
100
AcDbArc
 50
89.9999571957
 51
180.0000428043
  0
LINE
  5
27D
100
AcDbEntity
  8
0
100
AcDbLine
 62
2
  6
CONTINUOUS
 10
18.286273217
 20
2.3913520492
 11
18.2983832237
 21
2.3913520492
  0
ARC
  5
27E
100
AcDbEntity
  8
0
100
AcDbCircle
 62
2
  6
CONTINUOUS
 10
18.2983832256
 20
2.3888770497
 40
0.0024749995
100
AcDbArc
 50
359.9999571957
 51
90.0000428043
  0
LINE
  5
27F
100
AcDbEntity
  8
0
100
AcDbLine
 62
2
  6
CONTINUOUS
 10
18.3008582251
 20
2.3888770478
 11
18.3008582251
 21
2.3773250414
  0
ARC
  5
280
100
AcDbEntity
  8
0
100
AcDbCircle
 62
2
  6
CONTINUOUS
 10
18.2833025285
 20
2.3774293591
 40
0.0175560065
100
AcDbArc
 50
332.2279060967
 51
359.6595469939
  0
ARC
  5
281
100
AcDbEntity
  8
0
100
AcDbCircle
 62
2
  6
CONTINUOUS
 10
18.2739955177
 20
2.3823238645
 40
0.0280715479
100
AcDbArc
 50
308.5071794988
 51
332.2400656899
  0
ARC
  5
282
100
AcDbEntity
  8
0
100
AcDbCircle
 62
2
  6
CONTINUOUS
 10
18.2670033323
 20
2.3899250823
 40
0.0383802683
100
AcDbArc
 50
288.7656836787
 51
309.6104317088
  0
ARC
  5
283
100
AcDbEntity
  8
0
100
AcDbCircle
 62
2
  6
CONTINUOUS
 10
18.2727412998
 20
2.372338333
 40
0.0198837666
100
AcDbArc
 50
271.8586572978
 51
289.4131338543
  0
LINE
  5
284
100
AcDbEntity
  8
0
100
AcDbLine
 62
2
  6
CONTINUOUS
 10
18.2733862098
 20
2.3524650276
 11
18.2260221836
 21
2.3524650276
  0
ARC
  5
285
100
AcDbEntity
  8
0
100
AcDbCircle
 62
2
  6
CONTINUOUS
 10
18.2268275043
 20
2.3697871793
 40
0.0173408616
100
AcDbArc
 50
232.4713476722
 51
267.338189944
  0
ARC
  5
286
100
AcDbEntity
  8
0
100
AcDbCircle
 62
2
  6
CONTINUOUS
 10
18.2299260692
 20
2.3756374832
 40
0.0238935861
100
AcDbArc
 50
209.8247607259
 51
235.1255079367
  0
ARC
  5
287
100
AcDbEntity
  8
0
100
AcDbCircle
 62
2
  6
CONTINUOUS
 10
18.1986405119
 20
2.4241492153
 40
0.0110815393
100
AcDbArc
 50
306.758405961
 51
320.4502234234
  0
ARC
  5
288
100
AcDbEntity
  8
0
100
AcDbCircle
 62
2
  6
CONTINUOUS
 10
18.1930113209
 20
2.4318900438
 40
0.0206523367
100
AcDbArc
 50
289.6883413472
 51
306.4184925496
  0
ARC
  5
289
100
AcDbEntity
  8
0
100
AcDbCircle
 62
2
  6
CONTINUOUS
 10
18.1910838152
 20
2.4362836911
 40
0.0254407115
100
AcDbArc
 50
270.7327484175
 51
290.441894219
  0
LINE
  5
28A
100
AcDbEntity
  8
0
100
AcDbLine
 62
2
  6
CONTINUOUS
 10
18.1914091644
 20
2.41084506
 11
18.1574721456
 21
2.41084506
  0
ARC
  5
28B
100
AcDbEntity
  8
0
100
AcDbCircle
 62
2
  6
CONTINUOUS
 10
18.1574721437
 20
2.4133200595
 40
0.0024749995
100
AcDbArc
 50
179.9999571957
 51
270.0000428043
  0
LINE
  5
28C
100
AcDbEntity
  8
0
100
AcDbLine
 62
2
  6
CONTINUOUS
 10
18.1549971442
 20
2.4133200614
 11
18.1549971442
 21
2.4260450684
  0
ARC
  5
28D
100
AcDbEntity
  8
0
100
AcDbCircle
 62
2
  6
CONTINUOUS
 10
18.1574721437
 20
2.4260450703
 40
0.0024749995
100
AcDbArc
 50
89.9999571957
 51
180.0000428043
  0
LINE
  5
28E
100
AcDbEntity
  8
0
100
AcDbLine
 62
2
  6
CONTINUOUS
 10
18.1574721456
 20
2.4285200698
 11
18.194273166
 21
2.4285200698
  0
ARC
  5
28F
100
AcDbEntity
  8
0
100
AcDbCircle
 62
2
  6
CONTINUOUS
 10
18.1927282785
 20
2.4000655908
 40
0.0284963867
100
AcDbArc
 50
70.3834917948
 51
86.8922743861
  0
ARC
  5
290
100
AcDbEntity
  8
0
100
AcDbCircle
 62
2
  6
CONTINUOUS
 10
18.1975878885
 20
2.4131073238
 40
0.0145814632
100
AcDbArc
 50
54.6746025112
 51
71.1660573124
  0
ARC
  5
291
100
AcDbEntity
  8
0
100
AcDbCircle
 62
2
  6
CONTINUOUS
 10
18.2027173795
 20
2.419961249
 40
0.0060275915
100
AcDbArc
 50
20.9055592135
 51
56.7851676243
  0
ARC
  5
292
100
AcDbEntity
  8
0
100
AcDbCircle
 62
2
  6
CONTINUOUS
 10
18.2040179384
 20
2.4206215312
 40
0.0045795888
100
AcDbArc
 50
355.6235353944
 51
18.9942678268
  0
ARC
  5
293
100
AcDbEntity
  8
0
100
AcDbCircle
 62
2
  6
CONTINUOUS
 10
18.202811128
 20
2.4209153074
 40
0.0058087709
100
AcDbArc
 50
318.8515287446
 51
353.6422345323
  0
LINE
  5
294
100
AcDbEntity
  8
0
100
AcDbLine
 62
2
  6
CONTINUOUS
 10
17.341467693
 20
2.4532700835
 11
17.4419257488
 21
2.4532700835
  0
ARC
  5
295
100
AcDbEntity
  8
0
100
AcDbCircle
 62
2
  6
CONTINUOUS
 10
17.4419258835
 20
2.4507959157
 40
0.0024741678
100
AcDbArc
 50
46.3477981898
 51
90.0031206038
  0
LINE
  5
296
100
AcDbEntity
  8
0
100
AcDbLine
 62
2
  6
CONTINUOUS
 10
17.4436337497
 20
2.4525860832
 11
17.503666783
 21
2.3953060514
  0
ARC
  5
297
100
AcDbEntity
  8
0
100
AcDbCircle
 62
2
  6
CONTINUOUS
 10
17.5053754839
 20
2.3970969891
 40
0.0024753014
100
AcDbArc
 50
226.3461263059
 51
0.0014637322
  0
LINE
  5
298
100
AcDbEntity
  8
0
100
AcDbLine
 62
2
  6
CONTINUOUS
 10
17.5078507853
 20
2.3970970524
 11
17.5078507853
 21
2.4260450684
  0
ARC
  5
299
100
AcDbEntity
  8
0
100
AcDbCircle
 62
2
  6
CONTINUOUS
 10
17.5053757858
 20
2.4260450703
 40
0.0024749995
100
AcDbArc
 50
359.9999571957
 51
90.0000428043
  0
LINE
  5
29A
100
AcDbEntity
  8
0
100
AcDbLine
 62
2
  6
CONTINUOUS
 10
17.5053757839
 20
2.4285200698
 11
17.4865997735
 21
2.4285200698
  0
ARC
  5
29B
100
AcDbEntity
  8
0
100
AcDbCircle
 62
2
  6
CONTINUOUS
 10
17.4865997717
 20
2.4309950693
 40
0.0024749995
100
AcDbArc
 50
179.9999571957
 51
270.0000428043
  0
LINE
  5
29C
100
AcDbEntity
  8
0
100
AcDbLine
 62
2
  6
CONTINUOUS
 10
17.4841247722
 20
2.4309950712
 11
17.4841247722
 21
2.4507950822
  0
ARC
  5
29D
100
AcDbEntity
  8
0
100
AcDbCircle
 62
2
  6
CONTINUOUS
 10
17.4865997717
 20
2.450795084
 40
0.0024749995
100
AcDbArc
 50
89.9999571957
 51
180.0000428043
  0
LINE
  5
29E
100
AcDbEntity
  8
0
100
AcDbLine
 62
2
  6
CONTINUOUS
 10
17.4865997735
 20
2.4532700835
 11
17.5606008146
 21
2.4532700835
  0
ARC
  5
29F
100
AcDbEntity
  8
0
100
AcDbCircle
 62
2
  6
CONTINUOUS
 10
17.5606008164
 20
2.450795084
 40
0.0024749995
100
AcDbArc
 50
359.9999571957
 51
90.0000428043
  0
LINE
  5
2A0
100
AcDbEntity
  8
0
100
AcDbLine
 62
2
  6
CONTINUOUS
 10
17.5630758159
 20
2.4507950822
 11
17.5630758159
 21
2.4309950712
  0
ARC
  5
2A1
100
AcDbEntity
  8
0
100
AcDbCircle
 62
2
  6
CONTINUOUS
 10
17.5606008164
 20
2.4309950693
 40
0.0024749995
100
AcDbArc
 50
269.9999571957
 51
0.0000428043
  0
LINE
  5
2A2
100
AcDbEntity
  8
0
100
AcDbLine
 62
2
  6
CONTINUOUS
 10
17.5606008146
 20
2.4285200698
 11
17.5426678046
 21
2.4285200698
  0
ARC
  5
2A3
100
AcDbEntity
  8
0
100
AcDbCircle
 62
2
  6
CONTINUOUS
 10
17.5426678028
 20
2.4260450703
 40
0.0024749995
100
AcDbArc
 50
89.9999571957
 51
180.0000428043
  0
LINE
  5
2A4
100
AcDbEntity
  8
0
100
AcDbLine
 62
2
  6
CONTINUOUS
 10
17.5401928032
 20
2.4260450684
 11
17.5401928032
 21
2.354940029
  0
ARC
  5
2A5
100
AcDbEntity
  8
0
100
AcDbCircle
 62
2
  6
CONTINUOUS
 10
17.5377178037
 20
2.3549400272
 40
0.0024749995
100
AcDbArc
 50
269.9999571957
 51
0.0000428043
  0
LINE
  5
2A6
100
AcDbEntity
  8
0
100
AcDbLine
 62
2
  6
CONTINUOUS
 10
17.5377178019
 20
2.3524650276
 11
17.4635127607
 21
2.3524650276
  0
ARC
  5
2A7
100
AcDbEntity
  8
0
100
AcDbCircle
 62
2
  6
CONTINUOUS
 10
17.463512126
 20
2.3549404438
 40
0.0024754162
100
AcDbArc
 50
226.3593695813
 51
270.0146919953
  0
LINE
  5
2A8
100
AcDbEntity
  8
0
100
AcDbLine
 62
2
  6
CONTINUOUS
 10
17.4618037598
 20
2.353149028
 11
17.3985237247
 21
2.4135270615
  0
ARC
  5
2A9
100
AcDbEntity
  8
0
100
AcDbCircle
 62
2
  6
CONTINUOUS
 10
17.3968150237
 20
2.4117361237
 40
0.0024753014
100
AcDbArc
 50
46.3461263059
 51
180.0014637321
  0
LINE
  5
2AA
100
AcDbEntity
  8
0
100
AcDbLine
 62
2
  6
CONTINUOUS
 10
17.3943397224
 20
2.4117360605
 11
17.3943397224
 21
2.3796900427
  0
ARC
  5
2AB
100
AcDbEntity
  8
0
100
AcDbCircle
 62
2
  6
CONTINUOUS
 10
17.3968147219
 20
2.3796900409
 40
0.0024749995
100
AcDbArc
 50
179.9999571957
 51
270.0000428043
  0
LINE
  5
2AC
100
AcDbEntity
  8
0
100
AcDbLine
 62
2
  6
CONTINUOUS
 10
17.3968147237
 20
2.3772150414
 11
17.417131735
 21
2.3772150414
  0
ARC
  5
2AD
100
AcDbEntity
  8
0
100
AcDbCircle
 62
2
  6
CONTINUOUS
 10
17.4171317369
 20
2.3747400418
 40
0.0024749995
100
AcDbArc
 50
359.9999571957
 51
90.0000428043
  0
LINE
  5
2AE
100
AcDbEntity
  8
0
100
AcDbLine
 62
2
  6
CONTINUOUS
 10
17.4196067364
 20
2.37474004
 11
17.4196067364
 21
2.354940029
  0
ARC
  5
2AF
100
AcDbEntity
  8
0
100
AcDbCircle
 62
2
  6
CONTINUOUS
 10
17.4171317369
 20
2.3549400272
 40
0.0024749995
100
AcDbArc
 50
269.9999571957
 51
0.0000428043
  0
LINE
  5
2B0
100
AcDbEntity
  8
0
100
AcDbLine
 62
2
  6
CONTINUOUS
 10
17.417131735
 20
2.3524650276
 11
17.341467693
 21
2.3524650276
  0
ARC
  5
2B1
100
AcDbEntity
  8
0
100
AcDbCircle
 62
2
  6
CONTINUOUS
 10
17.3414676912
 20
2.3549400272
 40
0.0024749995
100
AcDbArc
 50
179.9999571957
 51
270.0000428043
  0
LINE
  5
2B2
100
AcDbEntity
  8
0
100
AcDbLine
 62
2
  6
CONTINUOUS
 10
17.3389926917
 20
2.354940029
 11
17.3389926917
 21
2.37474004
  0
ARC
  5
2B3
100
AcDbEntity
  8
0
100
AcDbCircle
 62
2
  6
CONTINUOUS
 10
17.3414676912
 20
2.3747400418
 40
0.0024749995
100
AcDbArc
 50
89.9999571957
 51
180.0000428043
  0
LINE
  5
2B4
100
AcDbEntity
  8
0
100
AcDbLine
 62
2
  6
CONTINUOUS
 10
17.341467693
 20
2.3772150414
 11
17.3601147034
 21
2.3772150414
  0
ARC
  5
2B5
100
AcDbEntity
  8
0
100
AcDbCircle
 62
2
  6
CONTINUOUS
 10
17.3601147052
 20
2.3796900409
 40
0.0024749995
100
AcDbArc
 50
269.9999571957
 51
0.0000428043
  0
LINE
  5
2B6
100
AcDbEntity
  8
0
100
AcDbLine
 62
2
  6
CONTINUOUS
 10
17.3625897048
 20
2.3796900427
 11
17.3625897048
 21
2.4260450684
  0
ARC
  5
2B7
100
AcDbEntity
  8
0
100
AcDbCircle
 62
2
  6
CONTINUOUS
 10
17.3601147052
 20
2.4260450703
 40
0.0024749995
100
AcDbArc
 50
359.9999571957
 51
90.0000428043
  0
LINE
  5
2B8
100
AcDbEntity
  8
0
100
AcDbLine
 62
2
  6
CONTINUOUS
 10
17.3601147034
 20
2.4285200698
 11
17.341467693
 21
2.4285200698
  0
ARC
  5
2B9
100
AcDbEntity
  8
0
100
AcDbCircle
 62
2
  6
CONTINUOUS
 10
17.3414676912
 20
2.4309950693
 40
0.0024749995
100
AcDbArc
 50
179.9999571957
 51
270.0000428043
  0
LINE
  5
2BA
100
AcDbEntity
  8
0
100
AcDbLine
 62
2
  6
CONTINUOUS
 10
17.3389926917
 20
2.4309950712
 11
17.3389926917
 21
2.4507950822
  0
ARC
  5
2BB
100
AcDbEntity
  8
0
100
AcDbCircle
 62
2
  6
CONTINUOUS
 10
17.3414676912
 20
2.450795084
 40
0.0024749995
100
AcDbArc
 50
89.9999571957
 51
180.0000428043
  0
LINE
  5
2BC
100
AcDbEntity
  8
0
100
AcDbLine
 62
2
  6
CONTINUOUS
 10
17.1937676111
 20
2.4268270689
 11
17.1866506072
 21
2.4156100627
  0
ARC
  5
2BD
100
AcDbEntity
  8
0
100
AcDbCircle
 62
2
  6
CONTINUOUS
 10
17.188740499
 20
2.4142841006
 40
0.0024750401
100
AcDbArc
 50
147.6063258012
 51
270.0025305754
  0
LINE
  5
2BE
100
AcDbEntity
  8
0
100
AcDbLine
 62
2
  6
CONTINUOUS
 10
17.1887406083
 20
2.4118090605
 11
17.2092976197
 21
2.4118090605
  0
ARC
  5
2BF
100
AcDbEntity
  8
0
100
AcDbCircle
 62
2
  6
CONTINUOUS
 10
17.2092975986
 20
2.4142842677
 40
0.0024752071
100
AcDbArc
 50
270.0004896793
 51
32.9089806818
  0
LINE
  5
2C0
100
AcDbEntity
  8
0
100
AcDbLine
 62
2
  6
CONTINUOUS
 10
17.2113756209
 20
2.4156290627
 11
17.2041166169
 21
2.4268450689
  0
ARC
  5
2C1
100
AcDbEntity
  8
0
100
AcDbCircle
 62
2
  6
CONTINUOUS
 10
17.2020380761
 20
2.4255006094
 40
0.0024754602
100
AcDbArc
 50
32.8959418573
 51
89.9875097202
  0
LINE
  5
2C2
100
AcDbEntity
  8
0
100
AcDbLine
 62
2
  6
CONTINUOUS
 10
17.2020386157
 20
2.4279760695
 11
17.1958576123
 21
2.4279760695
  0
ARC
  5
2C3
100
AcDbEntity
  8
0
100
AcDbCircle
 62
2
  6
CONTINUOUS
 10
17.195857542
 20
2.4255008692
 40
0.0024752003
100
AcDbArc
 50
89.998372645
 51
147.602165307
  0
LINE
  5
2C4
100
AcDbEntity
  8
0
100
AcDbLine
 62
2
  6
CONTINUOUS
 10
17.2171806241
 20
2.3897280483
 11
17.2228066272
 21
2.3810350435
  0
ARC
  5
2C5
100
AcDbEntity
  8
0
100
AcDbCircle
 62
2
  6
CONTINUOUS
 10
17.2207286049
 20
2.3796902485
 40
0.0024752071
100
AcDbArc
 50
270.0004896793
 51
32.9089806818
  0
LINE
  5
2C6
100
AcDbEntity
  8
0
100
AcDbLine
 62
2
  6
CONTINUOUS
 10
17.2207286261
 20
2.3772150414
 11
17.2062776181
 21
2.3772150414
  0
ARC
  5
2C7
100
AcDbEntity
  8
0
100
AcDbCircle
 62
2
  6
CONTINUOUS
 10
17.2062776162
 20
2.3747400418
 40
0.0024749995
100
AcDbArc
 50
89.9999571957
 51
180.0000428043
  0
LINE
  5
2C8
100
AcDbEntity
  8
0
100
AcDbLine
 62
2
  6
CONTINUOUS
 10
17.2038026167
 20
2.37474004
 11
17.2038026167
 21
2.354940029
  0
ARC
  5
2C9
100
AcDbEntity
  8
0
100
AcDbCircle
 62
2
  6
CONTINUOUS
 10
17.2062776162
 20
2.3549400272
 40
0.0024749995
100
AcDbArc
 50
179.9999571957
 51
270.0000428043
  0
LINE
  5
2CA
100
AcDbEntity
  8
0
100
AcDbLine
 62
2
  6
CONTINUOUS
 10
17.2062776181
 20
2.3524650276
 11
17.3115586765
 21
2.3524650276
  0
ARC
  5
2CB
100
AcDbEntity
  8
0
100
AcDbCircle
 62
2
  6
CONTINUOUS
 10
17.3115586783
 20
2.3549400272
 40
0.0024749995
100
AcDbArc
 50
269.9999571957
 51
0.0000428043
  0
LINE
  5
2CC
100
AcDbEntity
  8
0
100
AcDbLine
 62
2
  6
CONTINUOUS
 10
17.3140336778
 20
2.354940029
 11
17.3140336778
 21
2.37474004
  0
ARC
  5
2CD
100
AcDbEntity
  8
0
100
AcDbCircle
 62
2
  6
CONTINUOUS
 10
17.3115586783
 20
2.3747400418
 40
0.0024749995
100
AcDbArc
 50
359.9999571957
 51
90.0000428043
  0
LINE
  5
2CE
100
AcDbEntity
  8
0
100
AcDbLine
 62
2
  6
CONTINUOUS
 10
17.3115586765
 20
2.3772150414
 11
17.2915426654
 21
2.3772150414
  0
ARC
  5
2CF
100
AcDbEntity
  8
0
100
AcDbCircle
 62
2
  6
CONTINUOUS
 10
17.2915427859
 20
2.3796890824
 40
0.002474041
100
AcDbArc
 50
212.9056413127
 51
269.9972091756
  0
LINE
  5
2D0
100
AcDbEntity
  8
0
100
AcDbLine
 62
2
  6
CONTINUOUS
 10
17.2894656642
 20
2.378345042
 11
17.2417096377
 21
2.4521400829
  0
ARC
  5
2D1
100
AcDbEntity
  8
0
100
AcDbCircle
 62
2
  6
CONTINUOUS
 10
17.2396320161
 20
2.4507951234
 40
0.0024749602
100
AcDbArc
 50
32.9172174468
 51
90.0087853097
  0
LINE
  5
2D2
100
AcDbEntity
  8
0
100
AcDbLine
 62
2
  6
CONTINUOUS
 10
17.2396316366
 20
2.4532700835
 11
17.1824566049
 21
2.4532700835
  0
ARC
  5
2D3
100
AcDbEntity
  8
0
100
AcDbCircle
 62
2
  6
CONTINUOUS
 10
17.1824565346
 20
2.4507948832
 40
0.0024752003
100
AcDbArc
 50
89.998372645
 51
147.602165307
  0
LINE
  5
2D4
100
AcDbEntity
  8
0
100
AcDbLine
 62
2
  6
CONTINUOUS
 10
17.1803666037
 20
2.4521210829
 11
17.1335665777
 21
2.378364042
  0
ARC
  5
2D5
100
AcDbEntity
  8
0
100
AcDbCircle
 62
2
  6
CONTINUOUS
 10
17.1314766469
 20
2.3796902417
 40
0.0024752003
100
AcDbArc
 50
269.998372645
 51
327.602165307
  0
LINE
  5
2D6
100
AcDbEntity
  8
0
100
AcDbLine
 62
2
  6
CONTINUOUS
 10
17.1314765766
 20
2.3772150414
 11
17.1086155639
 21
2.3772150414
  0
ARC
  5
2D7
100
AcDbEntity
  8
0
100
AcDbCircle
 62
2
  6
CONTINUOUS
 10
17.1086155621
 20
2.3747400418
 40
0.0024749995
100
AcDbArc
 50
89.9999571957
 51
180.0000428043
  0
LINE
  5
2D8
100
AcDbEntity
  8
0
100
AcDbLine
 62
2
  6
CONTINUOUS
 10
17.1061405625
 20
2.37474004
 11
17.1061405625
 21
2.354940029
  0
ARC
  5
2D9
100
AcDbEntity
  8
0
100
AcDbCircle
 62
2
  6
CONTINUOUS
 10
17.1086155621
 20
2.3549400272
 40
0.0024749995
100
AcDbArc
 50
179.9999571957
 51
270.0000428043
  0
LINE
  5
2DA
100
AcDbEntity
  8
0
100
AcDbLine
 62
2
  6
CONTINUOUS
 10
17.1086155639
 20
2.3524650276
 11
17.1859916068
 21
2.3524650276
  0
ARC
  5
2DB
100
AcDbEntity
  8
0
100
AcDbCircle
 62
2
  6
CONTINUOUS
 10
17.1859916087
 20
2.3549400272
 40
0.0024749995
100
AcDbArc
 50
269.9999571957
 51
0.0000428043
  0
LINE
  5
2DC
100
AcDbEntity
  8
0
100
AcDbLine
 62
2
  6
CONTINUOUS
 10
17.1884666082
 20
2.354940029
 11
17.1884666082
 21
2.37474004
  0
ARC
  5
2DD
100
AcDbEntity
  8
0
100
AcDbCircle
 62
2
  6
CONTINUOUS
 10
17.1859916087
 20
2.3747400418
 40
0.0024749995
100
AcDbArc
 50
359.9999571957
 51
90.0000428043
  0
LINE
  5
2DE
100
AcDbEntity
  8
0
100
AcDbLine
 62
2
  6
CONTINUOUS
 10
17.1859916068
 20
2.3772150414
 11
17.1747086006
 21
2.3772150414
  0
ARC
  5
2DF
100
AcDbEntity
  8
0
100
AcDbCircle
 62
2
  6
CONTINUOUS
 10
17.1747084912
 20
2.3796900814
 40
0.0024750401
100
AcDbArc
 50
147.6063258011
 51
270.0025305754
  0
LINE
  5
2E0
100
AcDbEntity
  8
0
100
AcDbLine
 62
2
  6
CONTINUOUS
 10
17.1726185994
 20
2.3810160435
 11
17.1781346025
 21
2.3897100483
  0
ARC
  5
2E1
100
AcDbEntity
  8
0
100
AcDbCircle
 62
2
  6
CONTINUOUS
 10
17.1802245333
 20
2.3883838486
 40
0.0024752003
100
AcDbArc
 50
89.998372645
 51
147.602165307
  0
LINE
  5
2E2
100
AcDbEntity
  8
0
100
AcDbLine
 62
2
  6
CONTINUOUS
 10
17.1802246036
 20
2.3908590489
 11
17.215102623
 21
2.3908590489
  0
ARC
  5
2E3
100
AcDbEntity
  8
0
100
AcDbCircle
 62
2
  6
CONTINUOUS
 10
17.2151020833
 20
2.3883835888
 40
0.0024754602
100
AcDbArc
 50
32.8959418573
 51
89.9875097202
  0
LINE
  5
2E4
100
AcDbEntity
  8
0
100
AcDbLine
 62
2
  6
CONTINUOUS
 10
17.5897208307
 20
2.4532700835
 11
17.6901788864
 21
2.4532700835
  0
ARC
  5
2E5
100
AcDbEntity
  8
0
100
AcDbCircle
 62
2
  6
CONTINUOUS
 10
17.6901790212
 20
2.4507959157
 40
0.0024741678
100
AcDbArc
 50
46.3477981899
 51
90.0031206038
  0
LINE
  5
2E6
100
AcDbEntity
  8
0
100
AcDbLine
 62
2
  6
CONTINUOUS
 10
17.6918868874
 20
2.4525860832
 11
17.7519199207
 21
2.3953060514
  0
ARC
  5
2E7
100
AcDbEntity
  8
0
100
AcDbCircle
 62
2
  6
CONTINUOUS
 10
17.7536286216
 20
2.3970969891
 40
0.0024753014
100
AcDbArc
 50
226.3461263059
 51
0.0014637321
  0
LINE
  5
2E8
100
AcDbEntity
  8
0
100
AcDbLine
 62
2
  6
CONTINUOUS
 10
17.756103923
 20
2.3970970524
 11
17.756103923
 21
2.4260450684
  0
ARC
  5
2E9
100
AcDbEntity
  8
0
100
AcDbCircle
 62
2
  6
CONTINUOUS
 10
17.7536289235
 20
2.4260450703
 40
0.0024749995
100
AcDbArc
 50
359.9999571957
 51
90.0000428043
  0
LINE
  5
2EA
100
AcDbEntity
  8
0
100
AcDbLine
 62
2
  6
CONTINUOUS
 10
17.7536289216
 20
2.4285200698
 11
17.7348529112
 21
2.4285200698
  0
ARC
  5
2EB
100
AcDbEntity
  8
0
100
AcDbCircle
 62
2
  6
CONTINUOUS
 10
17.7348529093
 20
2.4309950693
 40
0.0024749995
100
AcDbArc
 50
179.9999571957
 51
270.0000428043
  0
LINE
  5
2EC
100
AcDbEntity
  8
0
100
AcDbLine
 62
2
  6
CONTINUOUS
 10
17.7323779098
 20
2.4309950712
 11
17.7323779098
 21
2.4507950822
  0
ARC
  5
2ED
100
AcDbEntity
  8
0
100
AcDbCircle
 62
2
  6
CONTINUOUS
 10
17.7348529093
 20
2.450795084
 40
0.0024749995
100
AcDbArc
 50
89.9999571957
 51
180.0000428043
  0
LINE
  5
2EE
100
AcDbEntity
  8
0
100
AcDbLine
 62
2
  6
CONTINUOUS
 10
17.7348529112
 20
2.4532700835
 11
17.8088539522
 21
2.4532700835
  0
ARC
  5
2EF
100
AcDbEntity
  8
0
100
AcDbCircle
 62
2
  6
CONTINUOUS
 10
17.8088539541
 20
2.450795084
 40
0.0024749995
100
AcDbArc
 50
359.9999571957
 51
90.0000428043
  0
LINE
  5
2F0
100
AcDbEntity
  8
0
100
AcDbLine
 62
2
  6
CONTINUOUS
 10
17.8113289536
 20
2.4507950822
 11
17.8113289536
 21
2.4309950712
  0
ARC
  5
2F1
100
AcDbEntity
  8
0
100
AcDbCircle
 62
2
  6
CONTINUOUS
 10
17.8088539541
 20
2.4309950693
 40
0.0024749995
100
AcDbArc
 50
269.9999571957
 51
0.0000428043
  0
LINE
  5
2F2
100
AcDbEntity
  8
0
100
AcDbLine
 62
2
  6
CONTINUOUS
 10
17.8088539522
 20
2.4285200698
 11
17.7909209423
 21
2.4285200698
  0
ARC
  5
2F3
100
AcDbEntity
  8
0
100
AcDbCircle
 62
2
  6
CONTINUOUS
 10
17.7909209404
 20
2.4260450703
 40
0.0024749995
100
AcDbArc
 50
89.9999571957
 51
180.0000428043
  0
LINE
  5
2F4
100
AcDbEntity
  8
0
100
AcDbLine
 62
2
  6
CONTINUOUS
 10
17.7884459409
 20
2.4260450684
 11
17.7884459409
 21
2.354940029
  0
ARC
  5
2F5
100
AcDbEntity
  8
0
100
AcDbCircle
 62
2
  6
CONTINUOUS
 10
17.7859709414
 20
2.3549400272
 40
0.0024749995
100
AcDbArc
 50
269.9999571957
 51
0.0000428043
  0
LINE
  5
2F6
100
AcDbEntity
  8
0
100
AcDbLine
 62
2
  6
CONTINUOUS
 10
17.7859709395
 20
2.3524650276
 11
17.7117648984
 21
2.3524650276
  0
ARC
  5
2F7
100
AcDbEntity
  8
0
100
AcDbCircle
 62
2
  6
CONTINUOUS
 10
17.7117647636
 20
2.3549391954
 40
0.0024741678
100
AcDbArc
 50
226.3477981898
 51
270.0031206038
  0
LINE
  5
2F8
100
AcDbEntity
  8
0
100
AcDbLine
 62
2
  6
CONTINUOUS
 10
17.7100568974
 20
2.353149028
 11
17.6467768624
 21
2.4135270615
  0
ARC
  5
2F9
100
AcDbEntity
  8
0
100
AcDbCircle
 62
2
  6
CONTINUOUS
 10
17.6450681614
 20
2.4117361237
 40
0.0024753014
100
AcDbArc
 50
46.3461263059
 51
180.0014637321
  0
LINE
  5
2FA
100
AcDbEntity
  8
0
100
AcDbLine
 62
2
  6
CONTINUOUS
 10
17.64259286
 20
2.4117360605
 11
17.64259286
 21
2.3796900427
  0
ARC
  5
2FB
100
AcDbEntity
  8
0
100
AcDbCircle
 62
2
  6
CONTINUOUS
 10
17.6450678596
 20
2.3796900409
 40
0.0024749995
100
AcDbArc
 50
179.9999571957
 51
270.0000428043
  0
LINE
  5
2FC
100
AcDbEntity
  8
0
100
AcDbLine
 62
2
  6
CONTINUOUS
 10
17.6450678614
 20
2.3772150414
 11
17.6653848727
 21
2.3772150414
  0
ARC
  5
2FD
100
AcDbEntity
  8
0
100
AcDbCircle
 62
2
  6
CONTINUOUS
 10
17.6653848745
 20
2.3747400418
 40
0.0024749995
100
AcDbArc
 50
359.9999571957
 51
90.0000428043
  0
LINE
  5
2FE
100
AcDbEntity
  8
0
100
AcDbLine
 62
2
  6
CONTINUOUS
 10
17.667859874
 20
2.37474004
 11
17.667859874
 21
2.354940029
  0
ARC
  5
2FF
100
AcDbEntity
  8
0
100
AcDbCircle
 62
2
  6
CONTINUOUS
 10
17.6653848745
 20
2.3549400272
 40
0.0024749995
100
AcDbArc
 50
269.9999571957
 51
0.0000428043
  0
LINE
  5
300
100
AcDbEntity
  8
0
100
AcDbLine
 62
2
  6
CONTINUOUS
 10
17.6653848727
 20
2.3524650276
 11
17.5897208307
 21
2.3524650276
  0
ARC
  5
301
100
AcDbEntity
  8
0
100
AcDbCircle
 62
2
  6
CONTINUOUS
 10
17.5897208289
 20
2.3549400272
 40
0.0024749995
100
AcDbArc
 50
179.9999571957
 51
270.0000428043
  0
LINE
  5
302
100
AcDbEntity
  8
0
100
AcDbLine
 62
2
  6
CONTINUOUS
 10
17.5872458293
 20
2.354940029
 11
17.5872458293
 21
2.37474004
  0
ARC
  5
303
100
AcDbEntity
  8
0
100
AcDbCircle
 62
2
  6
CONTINUOUS
 10
17.5897208289
 20
2.3747400418
 40
0.0024749995
100
AcDbArc
 50
89.9999571957
 51
180.0000428043
  0
LINE
  5
304
100
AcDbEntity
  8
0
100
AcDbLine
 62
2
  6
CONTINUOUS
 10
17.5897208307
 20
2.3772150414
 11
17.6083668411
 21
2.3772150414
  0
ARC
  5
305
100
AcDbEntity
  8
0
100
AcDbCircle
 62
2
  6
CONTINUOUS
 10
17.6083668429
 20
2.3796900409
 40
0.0024749995
100
AcDbArc
 50
269.9999571957
 51
0.0000428043
  0
LINE
  5
306
100
AcDbEntity
  8
0
100
AcDbLine
 62
2
  6
CONTINUOUS
 10
17.6108418424
 20
2.3796900427
 11
17.6108418424
 21
2.4260450684
  0
ARC
  5
307
100
AcDbEntity
  8
0
100
AcDbCircle
 62
2
  6
CONTINUOUS
 10
17.6083668429
 20
2.4260450703
 40
0.0024749995
100
AcDbArc
 50
359.9999571957
 51
90.0000428043
  0
LINE
  5
308
100
AcDbEntity
  8
0
100
AcDbLine
 62
2
  6
CONTINUOUS
 10
17.6083668411
 20
2.4285200698
 11
17.5897208307
 21
2.4285200698
  0
ARC
  5
309
100
AcDbEntity
  8
0
100
AcDbCircle
 62
2
  6
CONTINUOUS
 10
17.5897208289
 20
2.4309950693
 40
0.0024749995
100
AcDbArc
 50
179.9999571957
 51
270.0000428043
  0
LINE
  5
30A
100
AcDbEntity
  8
0
100
AcDbLine
 62
2
  6
CONTINUOUS
 10
17.5872458293
 20
2.4309950712
 11
17.5872458293
 21
2.4507950822
  0
ARC
  5
30B
100
AcDbEntity
  8
0
100
AcDbCircle
 62
2
  6
CONTINUOUS
 10
17.5897208289
 20
2.450795084
 40
0.0024749995
100
AcDbArc
 50
89.9999571957
 51
180.0000428043
  0
LINE
  5
30C
100
AcDbEntity
  8
0
100
AcDbLine
 62
2
  6
CONTINUOUS
 10
17.9625500375
 20
2.3937150505
 11
17.927383018
 21
2.3937150505
  0
ARC
  5
30D
100
AcDbEntity
  8
0
100
AcDbCircle
 62
2
  6
CONTINUOUS
 10
17.9273830161
 20
2.391240051
 40
0.0024749995
100
AcDbArc
 50
89.9999571957
 51
180.0000428043
  0
LINE
  5
30E
100
AcDbEntity
  8
0
100
AcDbLine
 62
2
  6
CONTINUOUS
 10
17.9249080166
 20
2.3912400491
 11
17.9249080166
 21
2.3796900427
  0
ARC
  5
30F
100
AcDbEntity
  8
0
100
AcDbCircle
 62
2
  6
CONTINUOUS
 10
17.9273830161
 20
2.3796900409
 40
0.0024749995
100
AcDbArc
 50
179.9999571957
 51
270.0000428043
  0
LINE
  5
310
100
AcDbEntity
  8
0
100
AcDbLine
 62
2
  6
CONTINUOUS
 10
17.927383018
 20
2.3772150414
 11
17.992387054
 21
2.3772150414
  0
ARC
  5
311
100
AcDbEntity
  8
0
100
AcDbCircle
 62
2
  6
CONTINUOUS
 10
17.9923870559
 20
2.3796900409
 40
0.0024749995
100
AcDbArc
 50
269.9999571957
 51
0.0000428043
  0
LINE
  5
312
100
AcDbEntity
  8
0
100
AcDbLine
 62
2
  6
CONTINUOUS
 10
17.9948620554
 20
2.3796900427
 11
17.9948620554
 21
2.3879400473
  0
ARC
  5
313
100
AcDbEntity
  8
0
100
AcDbCircle
 62
2
  6
CONTINUOUS
 10
17.9973370549
 20
2.3879400492
 40
0.0024749995
100
AcDbArc
 50
89.9999571957
 51
180.0000428043
  0
LINE
  5
314
100
AcDbEntity
  8
0
100
AcDbLine
 62
2
  6
CONTINUOUS
 10
17.9973370568
 20
2.3904150487
 11
18.0396560802
 21
2.3904150487
  0
ARC
  5
315
100
AcDbEntity
  8
0
100
AcDbCircle
 62
2
  6
CONTINUOUS
 10
18.0396560821
 20
2.3879400492
 40
0.0024749995
100
AcDbArc
 50
359.9999571957
 51
90.0000428043
  0
LINE
  5
316
100
AcDbEntity
  8
0
100
AcDbLine
 62
2
  6
CONTINUOUS
 10
18.0421310816
 20
2.3879400473
 11
18.0421310816
 21
2.354940029
  0
ARC
  5
317
100
AcDbEntity
  8
0
100
AcDbCircle
 62
2
  6
CONTINUOUS
 10
18.0396560821
 20
2.3549400272
 40
0.0024749995
100
AcDbArc
 50
269.9999571957
 51
0.0000428043
  0
LINE
  5
318
100
AcDbEntity
  8
0
100
AcDbLine
 62
2
  6
CONTINUOUS
 10
18.0396560802
 20
2.3524650276
 11
17.8364439675
 21
2.3524650276
  0
ARC
  5
319
100
AcDbEntity
  8
0
100
AcDbCircle
 62
2
  6
CONTINUOUS
 10
17.8364439657
 20
2.3549400272
 40
0.0024749995
100
AcDbArc
 50
179.9999571957
 51
270.0000428043
  0
LINE
  5
31A
100
AcDbEntity
  8
0
100
AcDbLine
 62
2
  6
CONTINUOUS
 10
17.8339689662
 20
2.354940029
 11
17.8339689662
 21
2.37474004
  0
ARC
  5
31B
100
AcDbEntity
  8
0
100
AcDbCircle
 62
2
  6
CONTINUOUS
 10
17.8364439657
 20
2.3747400418
 40
0.0024749995
100
AcDbArc
 50
89.9999571957
 51
180.0000428043
  0
LINE
  5
31C
100
AcDbEntity
  8
0
100
AcDbLine
 62
2
  6
CONTINUOUS
 10
17.8364439675
 20
2.3772150414
 11
17.8603669808
 21
2.3772150414
  0
ARC
  5
31D
100
AcDbEntity
  8
0
100
AcDbCircle
 62
2
  6
CONTINUOUS
 10
17.8603669827
 20
2.3796900409
 40
0.0024749995
100
AcDbArc
 50
269.9999571956
 51
0.0000428042
  0
LINE
  5
31E
100
AcDbEntity
  8
0
100
AcDbLine
 62
2
  6
CONTINUOUS
 10
17.8628419822
 20
2.3796900427
 11
17.8628419822
 21
2.4260450684
  0
ARC
  5
31F
100
AcDbEntity
  8
0
100
AcDbCircle
 62
2
  6
CONTINUOUS
 10
17.8603669827
 20
2.4260450703
 40
0.0024749995
100
AcDbArc
 50
359.9999571957
 51
90.0000428043
  0
LINE
  5
320
100
AcDbEntity
  8
0
100
AcDbLine
 62
2
  6
CONTINUOUS
 10
17.8603669808
 20
2.4285200698
 11
17.8364439675
 21
2.4285200698
  0
ARC
  5
321
100
AcDbEntity
  8
0
100
AcDbCircle
 62
2
  6
CONTINUOUS
 10
17.8364439657
 20
2.4309950693
 40
0.0024749995
100
AcDbArc
 50
179.9999571957
 51
270.0000428043
  0
LINE
  5
322
100
AcDbEntity
  8
0
100
AcDbLine
 62
2
  6
CONTINUOUS
 10
17.8339689662
 20
2.4309950712
 11
17.8339689662
 21
2.4507950822
  0
ARC
  5
323
100
AcDbEntity
  8
0
100
AcDbCircle
 62
2
  6
CONTINUOUS
 10
17.8364439657
 20
2.450795084
 40
0.0024749995
100
AcDbArc
 50
89.9999571957
 51
180.0000428043
  0
LINE
  5
324
100
AcDbEntity
  8
0
100
AcDbLine
 62
2
  6
CONTINUOUS
 10
17.8364439675
 20
2.4532700835
 11
18.0382370794
 21
2.4532700835
  0
ARC
  5
325
100
AcDbEntity
  8
0
100
AcDbCircle
 62
2
  6
CONTINUOUS
 10
18.0382370813
 20
2.450795084
 40
0.0024749995
100
AcDbArc
 50
359.9999571957
 51
90.0000428043
  0
LINE
  5
326
100
AcDbEntity
  8
0
100
AcDbLine
 62
2
  6
CONTINUOUS
 10
18.0407120808
 20
2.4507950822
 11
18.0407120808
 21
2.4177950639
  0
ARC
  5
327
100
AcDbEntity
  8
0
100
AcDbCircle
 62
2
  6
CONTINUOUS
 10
18.0382370813
 20
2.417795062
 40
0.0024749995
100
AcDbArc
 50
269.9999571957
 51
0.0000428043
  0
LINE
  5
328
100
AcDbEntity
  8
0
100
AcDbLine
 62
2
  6
CONTINUOUS
 10
18.0382370794
 20
2.4153200625
 11
17.9963730562
 21
2.4153200625
  0
ARC
  5
329
100
AcDbEntity
  8
0
100
AcDbCircle
 62
2
  6
CONTINUOUS
 10
17.9963730544
 20
2.417795062
 40
0.0024749995
100
AcDbArc
 50
179.9999571957
 51
270.0000428043
  0
LINE
  5
32A
100
AcDbEntity
  8
0
100
AcDbLine
 62
2
  6
CONTINUOUS
 10
17.9938980549
 20
2.4177950639
 11
17.9938980549
 21
2.4260450684
  0
ARC
  5
32B
100
AcDbEntity
  8
0
100
AcDbCircle
 62
2
  6
CONTINUOUS
 10
17.9914230553
 20
2.4260450703
 40
0.0024749995
100
AcDbArc
 50
359.9999571957
 51
90.0000428043
  0
LINE
  5
32C
100
AcDbEntity
  8
0
100
AcDbLine
 62
2
  6
CONTINUOUS
 10
17.9914230535
 20
2.4285200698
 11
17.927383018
 21
2.4285200698
  0
ARC
  5
32D
100
AcDbEntity
  8
0
100
AcDbCircle
 62
2
  6
CONTINUOUS
 10
17.9273830161
 20
2.4260450703
 40
0.0024749995
100
AcDbArc
 50
89.9999571957
 51
180.0000428043
  0
LINE
  5
32E
100
AcDbEntity
  8
0
100
AcDbLine
 62
2
  6
CONTINUOUS
 10
17.9249080166
 20
2.4260450684
 11
17.9249080166
 21
2.414495062
  0
ARC
  5
32F
100
AcDbEntity
  8
0
100
AcDbCircle
 62
2
  6
CONTINUOUS
 10
17.9273830161
 20
2.4144950602
 40
0.0024749995
100
AcDbArc
 50
179.9999571957
 51
270.0000428043
  0
LINE
  5
330
100
AcDbEntity
  8
0
100
AcDbLine
 62
2
  6
CONTINUOUS
 10
17.927383018
 20
2.4120200607
 11
17.9625500375
 21
2.4120200607
  0
ARC
  5
331
100
AcDbEntity
  8
0
100
AcDbCircle
 62
2
  6
CONTINUOUS
 10
17.9625500393
 20
2.4095450611
 40
0.0024749995
100
AcDbArc
 50
359.9999571957
 51
90.0000428043
  0
LINE
  5
332
100
AcDbEntity
  8
0
100
AcDbLine
 62
2
  6
CONTINUOUS
 10
17.9650250388
 20
2.4095450593
 11
17.9650250388
 21
2.3961900519
  0
ARC
  5
333
100
AcDbEntity
  8
0
100
AcDbCircle
 62
2
  6
CONTINUOUS
 10
17.9625500393
 20
2.39619005
 40
0.0024749995
100
AcDbArc
 50
269.9999571956
 51
0.0000428042
  0
LINE
  5
334
100
AcDbEntity
  8
0
100
AcDbLine
 62
2
  6
CONTINUOUS
 10
18.39781452
 20
2.3963074516
 11
18.39781452
 21
2.4069246582
  0
LINE
  5
335
100
AcDbEntity
  8
0
100
AcDbLine
 62
2
  6
CONTINUOUS
 10
18.3778145089
 20
2.3616679219
 11
18.3778145089
 21
2.4415641879
  0
LINE
  5
336
100
AcDbEntity
  8
0
100
AcDbLine
 62
2
  6
CONTINUOUS
 10
18.3578144978
 20
2.345629656
 11
18.3578144978
 21
2.4576024538
  0
LINE
  5
337
100
AcDbEntity
  8
0
100
AcDbLine
 62
2
  6
CONTINUOUS
 10
18.3378144867
 20
2.3338395042
 11
18.3378144867
 21
2.4693926055
  0
LINE
  5
338
100
AcDbEntity
  8
0
100
AcDbLine
 62
2
  6
CONTINUOUS
 10
18.3178144756
 20
2.3240439832
 11
18.3178144756
 21
2.4791881266
  0
LINE
  5
339
100
AcDbEntity
  8
0
100
AcDbLine
 62
2
  6
CONTINUOUS
 10
18.2978144645
 20
2.3153630651
 11
18.2978144645
 21
2.36748602
  0
LINE
  5
33A
100
AcDbEntity
  8
0
100
AcDbLine
 62
2
  6
CONTINUOUS
 10
18.2978144645
 20
2.3913520492
 11
18.2978144645
 21
2.4878690447
  0
LINE
  5
33B
100
AcDbEntity
  8
0
100
AcDbLine
 62
2
  6
CONTINUOUS
 10
18.2778144535
 20
2.3077915047
 11
18.2778144535
 21
2.3531152062
  0
LINE
  5
33C
100
AcDbEntity
  8
0
100
AcDbLine
 62
2
  6
CONTINUOUS
 10
18.2778144535
 20
2.3778158317
 11
18.2778144535
 21
2.4954406051
  0
LINE
  5
33D
100
AcDbEntity
  8
0
100
AcDbLine
 62
2
  6
CONTINUOUS
 10
18.2578144424
 20
2.301041061
 11
18.2578144424
 21
2.3524650276
  0
LINE
  5
33E
100
AcDbEntity
  8
0
100
AcDbLine
 62
2
  6
CONTINUOUS
 10
18.2578144424
 20
2.4004217989
 11
18.2578144424
 21
2.4066675471
  0
LINE
  5
33F
100
AcDbEntity
  8
0
100
AcDbLine
 62
2
  6
CONTINUOUS
 10
18.2578144424
 20
2.4474440616
 11
18.2578144424
 21
2.5021910487
  0
LINE
  5
340
100
AcDbEntity
  8
0
100
AcDbLine
 62
2
  6
CONTINUOUS
 10
18.2378144313
 20
2.2947079333
 11
18.2378144313
 21
2.3524650276
  0
LINE
  5
341
100
AcDbEntity
  8
0
100
AcDbLine
 62
2
  6
CONTINUOUS
 10
18.2378144313
 20
2.4518964909
 11
18.2378144313
 21
2.5085241764
  0
LINE
  5
342
100
AcDbEntity
  8
0
100
AcDbLine
 62
2
  6
CONTINUOUS
 10
18.2178144202
 20
2.2891345268
 11
18.2178144202
 21
2.354983815
  0
LINE
  5
343
100
AcDbEntity
  8
0
100
AcDbLine
 62
2
  6
CONTINUOUS
 10
18.2178144202
 20
2.4532700835
 11
18.2178144202
 21
2.514097583
  0
LINE
  5
344
100
AcDbEntity
  8
0
100
AcDbLine
 62
2
  6
CONTINUOUS
 10
18.1978144091
 20
2.2837804818
 11
18.1978144091
 21
2.3882804137
  0
LINE
  5
345
100
AcDbEntity
  8
0
100
AcDbLine
 62
2
  6
CONTINUOUS
 10
18.1978144091
 20
2.4117543403
 11
18.1978144091
 21
2.4281034235
  0
LINE
  5
346
100
AcDbEntity
  8
0
100
AcDbLine
 62
2
  6
CONTINUOUS
 10
18.1978144091
 20
2.4532700835
 11
18.1978144091
 21
2.519451628
  0
LINE
  5
347
100
AcDbEntity
  8
0
100
AcDbLine
 62
2
  6
CONTINUOUS
 10
18.177814398
 20
2.2789683935
 11
18.177814398
 21
2.3524650276
  0
LINE
  5
348
100
AcDbEntity
  8
0
100
AcDbLine
 62
2
  6
CONTINUOUS
 10
18.177814398
 20
2.3771930413
 11
18.177814398
 21
2.3918420495
  0
LINE
  5
349
100
AcDbEntity
  8
0
100
AcDbLine
 62
2
  6
CONTINUOUS
 10
18.177814398
 20
2.41084506
 11
18.177814398
 21
2.4285200698
  0
LINE
  5
34A
100
AcDbEntity
  8
0
100
AcDbLine
 62
2
  6
CONTINUOUS
 10
18.177814398
 20
2.4532700835
 11
18.177814398
 21
2.5242637163
  0
LINE
  5
34B
100
AcDbEntity
  8
0
100
AcDbLine
 62
2
  6
CONTINUOUS
 10
18.1578143869
 20
2.2744172398
 11
18.1578143869
 21
2.3524650276
  0
LINE
  5
34C
100
AcDbEntity
  8
0
100
AcDbLine
 62
2
  6
CONTINUOUS
 10
18.1578143869
 20
2.3771930413
 11
18.1578143869
 21
2.3918420495
  0
LINE
  5
34D
100
AcDbEntity
  8
0
100
AcDbLine
 62
2
  6
CONTINUOUS
 10
18.1578143869
 20
2.41084506
 11
18.1578143869
 21
2.4285200698
  0
LINE
  5
34E
100
AcDbEntity
  8
0
100
AcDbLine
 62
2
  6
CONTINUOUS
 10
18.1578143869
 20
2.4532700835
 11
18.1578143869
 21
2.5288148699
  0
LINE
  5
34F
100
AcDbEntity
  8
0
100
AcDbLine
 62
2
  6
CONTINUOUS
 10
18.1378143758
 20
2.2701196816
 11
18.1378143758
 21
2.3524650276
  0
LINE
  5
350
100
AcDbEntity
  8
0
100
AcDbLine
 62
2
  6
CONTINUOUS
 10
18.1378143758
 20
2.4532700835
 11
18.1378143758
 21
2.5331124282
  0
LINE
  5
351
100
AcDbEntity
  8
0
100
AcDbLine
 62
2
  6
CONTINUOUS
 10
18.1178143647
 20
2.2662469216
 11
18.1178143647
 21
2.3524650276
  0
LINE
  5
352
100
AcDbEntity
  8
0
100
AcDbLine
 62
2
  6
CONTINUOUS
 10
18.1178143647
 20
2.4532700835
 11
18.1178143647
 21
2.5369851882
  0
LINE
  5
353
100
AcDbEntity
  8
0
100
AcDbLine
 62
2
  6
CONTINUOUS
 10
18.0978143536
 20
2.2623741615
 11
18.0978143536
 21
2.3524650276
  0
LINE
  5
354
100
AcDbEntity
  8
0
100
AcDbLine
 62
2
  6
CONTINUOUS
 10
18.0978143536
 20
2.4532700835
 11
18.0978143536
 21
2.5408579483
  0
LINE
  5
355
100
AcDbEntity
  8
0
100
AcDbLine
 62
2
  6
CONTINUOUS
 10
18.0778143425
 20
2.2592603806
 11
18.0778143425
 21
2.3524650276
  0
LINE
  5
356
100
AcDbEntity
  8
0
100
AcDbLine
 62
2
  6
CONTINUOUS
 10
18.0778143425
 20
2.3772150414
 11
18.0778143425
 21
2.4285200698
  0
LINE
  5
357
100
AcDbEntity
  8
0
100
AcDbLine
 62
2
  6
CONTINUOUS
 10
18.0778143425
 20
2.4532700835
 11
18.0778143425
 21
2.5439717292
  0
LINE
  5
358
100
AcDbEntity
  8
0
100
AcDbLine
 62
2
  6
CONTINUOUS
 10
18.0578143315
 20
2.2562429918
 11
18.0578143315
 21
2.546989118
  0
LINE
  5
359
100
AcDbEntity
  8
0
100
AcDbLine
 62
2
  6
CONTINUOUS
 10
18.0378143204
 20
2.2532256029
 11
18.0378143204
 21
2.3524650276
  0
LINE
  5
35A
100
AcDbEntity
  8
0
100
AcDbLine
 62
2
  6
CONTINUOUS
 10
18.0378143204
 20
2.3904150487
 11
18.0378143204
 21
2.4153200625
  0
LINE
  5
35B
100
AcDbEntity
  8
0
100
AcDbLine
 62
2
  6
CONTINUOUS
 10
18.0378143204
 20
2.4532700835
 11
18.0378143204
 21
2.5500065068
  0
LINE
  5
35C
100
AcDbEntity
  8
0
100
AcDbLine
 62
2
  6
CONTINUOUS
 10
18.0178143093
 20
2.2502082141
 11
18.0178143093
 21
2.3524650276
  0
LINE
  5
35D
100
AcDbEntity
  8
0
100
AcDbLine
 62
2
  6
CONTINUOUS
 10
18.0178143093
 20
2.3904150487
 11
18.0178143093
 21
2.4153200625
  0
LINE
  5
35E
100
AcDbEntity
  8
0
100
AcDbLine
 62
2
  6
CONTINUOUS
 10
18.0178143093
 20
2.4532700835
 11
18.0178143093
 21
2.5530238957
  0
LINE
  5
35F
100
AcDbEntity
  8
0
100
AcDbLine
 62
2
  6
CONTINUOUS
 10
17.9978142982
 20
2.2471908253
 11
17.9978142982
 21
2.3524650276
  0
LINE
  5
360
100
AcDbEntity
  8
0
100
AcDbLine
 62
2
  6
CONTINUOUS
 10
17.9978142982
 20
2.3904150487
 11
17.9978142982
 21
2.4153200625
  0
LINE
  5
361
100
AcDbEntity
  8
0
100
AcDbLine
 62
2
  6
CONTINUOUS
 10
17.9978142982
 20
2.4532700835
 11
17.9978142982
 21
2.5560412845
  0
LINE
  5
362
100
AcDbEntity
  8
0
100
AcDbLine
 62
2
  6
CONTINUOUS
 10
17.9778142871
 20
2.2445732581
 11
17.9778142871
 21
2.3524650276
  0
LINE
  5
363
100
AcDbEntity
  8
0
100
AcDbLine
 62
2
  6
CONTINUOUS
 10
17.9778142871
 20
2.3772150414
 11
17.9778142871
 21
2.4285200698
  0
LINE
  5
364
100
AcDbEntity
  8
0
100
AcDbLine
 62
2
  6
CONTINUOUS
 10
17.9778142871
 20
2.4532700835
 11
17.9778142871
 21
2.5586588517
  0
LINE
  5
365
100
AcDbEntity
  8
0
100
AcDbLine
 62
2
  6
CONTINUOUS
 10
17.957814276
 20
2.2424989828
 11
17.957814276
 21
2.3524650276
  0
LINE
  5
366
100
AcDbEntity
  8
0
100
AcDbLine
 62
2
  6
CONTINUOUS
 10
17.957814276
 20
2.3772150414
 11
17.957814276
 21
2.3937150505
  0
LINE
  5
367
100
AcDbEntity
  8
0
100
AcDbLine
 62
2
  6
CONTINUOUS
 10
17.957814276
 20
2.4120200607
 11
17.957814276
 21
2.4285200698
  0
LINE
  5
368
100
AcDbEntity
  8
0
100
AcDbLine
 62
2
  6
CONTINUOUS
 10
17.957814276
 20
2.4532700835
 11
17.957814276
 21
2.5607331269
  0
LINE
  5
369
100
AcDbEntity
  8
0
100
AcDbLine
 62
2
  6
CONTINUOUS
 10
17.9378142649
 20
2.2404247076
 11
17.9378142649
 21
2.3524650276
  0
LINE
  5
36A
100
AcDbEntity
  8
0
100
AcDbLine
 62
2
  6
CONTINUOUS
 10
17.9378142649
 20
2.3772150414
 11
17.9378142649
 21
2.3937150505
  0
LINE
  5
36B
100
AcDbEntity
  8
0
100
AcDbLine
 62
2
  6
CONTINUOUS
 10
17.9378142649
 20
2.4120200607
 11
17.9378142649
 21
2.4285200698
  0
LINE
  5
36C
100
AcDbEntity
  8
0
100
AcDbLine
 62
2
  6
CONTINUOUS
 10
17.9378142649
 20
2.4532700835
 11
17.9378142649
 21
2.5628074022
  0
LINE
  5
36D
100
AcDbEntity
  8
0
100
AcDbLine
 62
2
  6
CONTINUOUS
 10
17.9178142538
 20
2.2383504324
 11
17.9178142538
 21
2.3524650276
  0
LINE
  5
36E
100
AcDbEntity
  8
0
100
AcDbLine
 62
2
  6
CONTINUOUS
 10
17.9178142538
 20
2.4532700835
 11
17.9178142538
 21
2.5648816774
  0
LINE
  5
36F
100
AcDbEntity
  8
0
100
AcDbLine
 62
2
  6
CONTINUOUS
 10
17.8978142427
 20
2.2362761572
 11
17.8978142427
 21
2.3524650276
  0
LINE
  5
370
100
AcDbEntity
  8
0
100
AcDbLine
 62
2
  6
CONTINUOUS
 10
17.8978142427
 20
2.4532700835
 11
17.8978142427
 21
2.5669559526
  0
LINE
  5
371
100
AcDbEntity
  8
0
100
AcDbLine
 62
2
  6
CONTINUOUS
 10
17.8778142316
 20
2.234201882
 11
17.8778142316
 21
2.3524650276
  0
LINE
  5
372
100
AcDbEntity
  8
0
100
AcDbLine
 62
2
  6
CONTINUOUS
 10
17.8778142316
 20
2.4532700835
 11
17.8778142316
 21
2.5690302278
  0
LINE
  5
373
100
AcDbEntity
  8
0
100
AcDbLine
 62
2
  6
CONTINUOUS
 10
17.8578142205
 20
2.23247216
 11
17.8578142205
 21
2.3524650276
  0
LINE
  5
374
100
AcDbEntity
  8
0
100
AcDbLine
 62
2
  6
CONTINUOUS
 10
17.8578142205
 20
2.3772150414
 11
17.8578142205
 21
2.4285200698
  0
LINE
  5
375
100
AcDbEntity
  8
0
100
AcDbLine
 62
2
  6
CONTINUOUS
 10
17.8578142205
 20
2.4532700835
 11
17.8578142205
 21
2.5707599498
  0
LINE
  5
376
100
AcDbEntity
  8
0
100
AcDbLine
 62
2
  6
CONTINUOUS
 10
17.8378142094
 20
2.2312059562
 11
17.8378142094
 21
2.3524650276
  0
LINE
  5
377
100
AcDbEntity
  8
0
100
AcDbLine
 62
2
  6
CONTINUOUS
 10
17.8378142094
 20
2.3772150414
 11
17.8378142094
 21
2.4285200698
  0
LINE
  5
378
100
AcDbEntity
  8
0
100
AcDbLine
 62
2
  6
CONTINUOUS
 10
17.8378142094
 20
2.4532700835
 11
17.8378142094
 21
2.5720261536
  0
LINE
  5
379
100
AcDbEntity
  8
0
100
AcDbLine
 62
2
  6
CONTINUOUS
 10
17.8178141984
 20
2.2299397525
 11
17.8178141984
 21
2.5732923573
  0
LINE
  5
37A
100
AcDbEntity
  8
0
100
AcDbLine
 62
2
  6
CONTINUOUS
 10
17.7978141873
 20
2.2286735487
 11
17.7978141873
 21
2.4285200698
  0
LINE
  5
37B
100
AcDbEntity
  8
0
100
AcDbLine
 62
2
  6
CONTINUOUS
 10
17.7978141873
 20
2.4532700835
 11
17.7978141873
 21
2.574558561
  0
LINE
  5
37C
100
AcDbEntity
  8
0
100
AcDbLine
 62
2
  6
CONTINUOUS
 10
17.7778141762
 20
2.227407345
 11
17.7778141762
 21
2.3524650276
  0
LINE
  5
37D
100
AcDbEntity
  8
0
100
AcDbLine
 62
2
  6
CONTINUOUS
 10
17.7778141762
 20
2.4532700835
 11
17.7778141762
 21
2.5758247648
  0
LINE
  5
37E
100
AcDbEntity
  8
0
100
AcDbLine
 62
2
  6
CONTINUOUS
 10
17.7578141651
 20
2.2261411413
 11
17.7578141651
 21
2.3524650276
  0
LINE
  5
37F
100
AcDbEntity
  8
0
100
AcDbLine
 62
2
  6
CONTINUOUS
 10
17.7578141651
 20
2.4532700835
 11
17.7578141651
 21
2.5770909685
  0
LINE
  5
380
100
AcDbEntity
  8
0
100
AcDbLine
 62
2
  6
CONTINUOUS
 10
17.737814154
 20
2.2249117066
 11
17.737814154
 21
2.3524650276
  0
LINE
  5
381
100
AcDbEntity
  8
0
100
AcDbLine
 62
2
  6
CONTINUOUS
 10
17.737814154
 20
2.4087649542
 11
17.737814154
 21
2.4285200698
  0
LINE
  5
382
100
AcDbEntity
  8
0
100
AcDbLine
 62
2
  6
CONTINUOUS
 10
17.737814154
 20
2.4532700835
 11
17.737814154
 21
2.5783204031
  0
LINE
  5
383
100
AcDbEntity
  8
0
100
AcDbLine
 62
2
  6
CONTINUOUS
 10
17.7178141429
 20
2.2243809174
 11
17.7178141429
 21
2.3524650276
  0
LINE
  5
384
100
AcDbEntity
  8
0
100
AcDbLine
 62
2
  6
CONTINUOUS
 10
17.7178141429
 20
2.4278478026
 11
17.7178141429
 21
2.5788511924
  0
LINE
  5
385
100
AcDbEntity
  8
0
100
AcDbLine
 62
2
  6
CONTINUOUS
 10
17.6978141318
 20
2.2238501282
 11
17.6978141318
 21
2.3648303444
  0
LINE
  5
386
100
AcDbEntity
  8
0
100
AcDbLine
 62
2
  6
CONTINUOUS
 10
17.6978141318
 20
2.446930651
 11
17.6978141318
 21
2.5793819816
  0
LINE
  5
387
100
AcDbEntity
  8
0
100
AcDbLine
 62
2
  6
CONTINUOUS
 10
17.6778141207
 20
2.223319339
 11
17.6778141207
 21
2.3839131616
  0
LINE
  5
388
100
AcDbEntity
  8
0
100
AcDbLine
 62
2
  6
CONTINUOUS
 10
17.6778141207
 20
2.4532700835
 11
17.6778141207
 21
2.5799127708
  0
LINE
  5
389
100
AcDbEntity
  8
0
100
AcDbLine
 62
2
  6
CONTINUOUS
 10
17.6578141096
 20
2.2227885498
 11
17.6578141096
 21
2.3524650276
  0
LINE
  5
38A
100
AcDbEntity
  8
0
100
AcDbLine
 62
2
  6
CONTINUOUS
 10
17.6578141096
 20
2.3772150414
 11
17.6578141096
 21
2.4029959788
  0
LINE
  5
38B
100
AcDbEntity
  8
0
100
AcDbLine
 62
2
  6
CONTINUOUS
 10
17.6578141096
 20
2.4532700835
 11
17.6578141096
 21
2.58044356
  0
LINE
  5
38C
100
AcDbEntity
  8
0
100
AcDbLine
 62
2
  6
CONTINUOUS
 10
17.6378140985
 20
2.2222577606
 11
17.6378140985
 21
2.3524650276
  0
LINE
  5
38D
100
AcDbEntity
  8
0
100
AcDbLine
 62
2
  6
CONTINUOUS
 10
17.6378140985
 20
2.4532700835
 11
17.6378140985
 21
2.5809743492
  0
LINE
  5
38E
100
AcDbEntity
  8
0
100
AcDbLine
 62
2
  6
CONTINUOUS
 10
17.6178140874
 20
2.2217269714
 11
17.6178140874
 21
2.3524650276
  0
LINE
  5
38F
100
AcDbEntity
  8
0
100
AcDbLine
 62
2
  6
CONTINUOUS
 10
17.6178140874
 20
2.4532700835
 11
17.6178140874
 21
2.5815051384
  0
LINE
  5
390
100
AcDbEntity
  8
0
100
AcDbLine
 62
2
  6
CONTINUOUS
 10
17.5978140764
 20
2.2215213152
 11
17.5978140764
 21
2.3524650276
  0
LINE
  5
391
100
AcDbEntity
  8
0
100
AcDbLine
 62
2
  6
CONTINUOUS
 10
17.5978140764
 20
2.3772150414
 11
17.5978140764
 21
2.4285200698
  0
LINE
  5
392
100
AcDbEntity
  8
0
100
AcDbLine
 62
2
  6
CONTINUOUS
 10
17.5978140764
 20
2.4532700835
 11
17.5978140764
 21
2.5817107946
  0
LINE
  5
393
100
AcDbEntity
  8
0
100
AcDbLine
 62
2
  6
CONTINUOUS
 10
17.5778140653
 20
2.2216974783
 11
17.5778140653
 21
2.5815346315
  0
LINE
  5
394
100
AcDbEntity
  8
0
100
AcDbLine
 62
2
  6
CONTINUOUS
 10
17.5578140542
 20
2.2218736414
 11
17.5578140542
 21
2.4285200698
  0
LINE
  5
395
100
AcDbEntity
  8
0
100
AcDbLine
 62
2
  6
CONTINUOUS
 10
17.5578140542
 20
2.4532700835
 11
17.5578140542
 21
2.5813584684
  0
LINE
  5
396
100
AcDbEntity
  8
0
100
AcDbLine
 62
2
  6
CONTINUOUS
 10
17.5378140431
 20
2.2220498045
 11
17.5378140431
 21
2.3524700714
  0
LINE
  5
397
100
AcDbEntity
  8
0
100
AcDbLine
 62
2
  6
CONTINUOUS
 10
17.5378140431
 20
2.4532700835
 11
17.5378140431
 21
2.5811823053
  0
LINE
  5
398
100
AcDbEntity
  8
0
100
AcDbLine
 62
2
  6
CONTINUOUS
 10
17.517814032
 20
2.2222259676
 11
17.517814032
 21
2.3524650276
  0
LINE
  5
399
100
AcDbEntity
  8
0
100
AcDbLine
 62
2
  6
CONTINUOUS
 10
17.517814032
 20
2.4532700835
 11
17.517814032
 21
2.5810061422
  0
LINE
  5
39A
100
AcDbEntity
  8
0
100
AcDbLine
 62
2
  6
CONTINUOUS
 10
17.4978140209
 20
2.2224021307
 11
17.4978140209
 21
2.3524650276
  0
LINE
  5
39B
100
AcDbEntity
  8
0
100
AcDbLine
 62
2
  6
CONTINUOUS
 10
17.4978140209
 20
2.4008904169
 11
17.4978140209
 21
2.4285200698
  0
LINE
  5
39C
100
AcDbEntity
  8
0
100
AcDbLine
 62
2
  6
CONTINUOUS
 10
17.4978140209
 20
2.4532700835
 11
17.4978140209
 21
2.5808299791
  0
LINE
  5
39D
100
AcDbEntity
  8
0
100
AcDbLine
 62
2
  6
CONTINUOUS
 10
17.4778140098
 20
2.2225782938
 11
17.4778140098
 21
2.3524650276
  0
LINE
  5
39E
100
AcDbEntity
  8
0
100
AcDbLine
 62
2
  6
CONTINUOUS
 10
17.4778140098
 20
2.4199732652
 11
17.4778140098
 21
2.580653816
  0
LINE
  5
39F
100
AcDbEntity
  8
0
100
AcDbLine
 62
2
  6
CONTINUOUS
 10
17.4578139987
 20
2.2233466716
 11
17.4578139987
 21
2.3569558199
  0
LINE
  5
3A0
100
AcDbEntity
  8
0
100
AcDbLine
 62
2
  6
CONTINUOUS
 10
17.4578139987
 20
2.4390561136
 11
17.4578139987
 21
2.5798854382
  0
LINE
  5
3A1
100
AcDbEntity
  8
0
100
AcDbLine
 62
2
  6
CONTINUOUS
 10
17.4378139876
 20
2.2242391079
 11
17.4378139876
 21
2.3760386371
  0
LINE
  5
3A2
100
AcDbEntity
  8
0
100
AcDbLine
 62
2
  6
CONTINUOUS
 10
17.4378139876
 20
2.4532700835
 11
17.4378139876
 21
2.5789930018
  0
LINE
  5
3A3
100
AcDbEntity
  8
0
100
AcDbLine
 62
2
  6
CONTINUOUS
 10
17.4178139765
 20
2.2251315443
 11
17.4178139765
 21
2.3525640362
  0
LINE
  5
3A4
100
AcDbEntity
  8
0
100
AcDbLine
 62
2
  6
CONTINUOUS
 10
17.4178139765
 20
2.3771160328
 11
17.4178139765
 21
2.3951214543
  0
LINE
  5
3A5
100
AcDbEntity
  8
0
100
AcDbLine
 62
2
  6
CONTINUOUS
 10
17.4178139765
 20
2.4532700835
 11
17.4178139765
 21
2.5781005655
  0
LINE
  5
3A6
100
AcDbEntity
  8
0
100
AcDbLine
 62
2
  6
CONTINUOUS
 10
17.3978139654
 20
2.2260239807
 11
17.3978139654
 21
2.3524650276
  0
LINE
  5
3A7
100
AcDbEntity
  8
0
100
AcDbLine
 62
2
  6
CONTINUOUS
 10
17.3978139654
 20
2.3772150414
 11
17.3978139654
 21
2.4139978698
  0
LINE
  5
3A8
100
AcDbEntity
  8
0
100
AcDbLine
 62
2
  6
CONTINUOUS
 10
17.3978139654
 20
2.4532700835
 11
17.3978139654
 21
2.5772081291
  0
LINE
  5
3A9
100
AcDbEntity
  8
0
100
AcDbLine
 62
2
  6
CONTINUOUS
 10
17.3778139543
 20
2.226916417
 11
17.3778139543
 21
2.3524650276
  0
LINE
  5
3AA
100
AcDbEntity
  8
0
100
AcDbLine
 62
2
  6
CONTINUOUS
 10
17.3778139543
 20
2.4532700835
 11
17.3778139543
 21
2.5763156928
  0
LINE
  5
3AB
100
AcDbEntity
  8
0
100
AcDbLine
 62
2
  6
CONTINUOUS
 10
17.3578139433
 20
2.2278088534
 11
17.3578139433
 21
2.3524650276
  0
LINE
  5
3AC
100
AcDbEntity
  8
0
100
AcDbLine
 62
2
  6
CONTINUOUS
 10
17.3578139433
 20
2.3772150414
 11
17.3578139433
 21
2.4285200698
  0
LINE
  5
3AD
100
AcDbEntity
  8
0
100
AcDbLine
 62
2
  6
CONTINUOUS
 10
17.3578139433
 20
2.4532700835
 11
17.3578139433
 21
2.5754232564
  0
LINE
  5
3AE
100
AcDbEntity
  8
0
100
AcDbLine
 62
2
  6
CONTINUOUS
 10
17.3378139322
 20
2.2289481171
 11
17.3378139322
 21
2.5742839927
  0
LINE
  5
3AF
100
AcDbEntity
  8
0
100
AcDbLine
 62
2
  6
CONTINUOUS
 10
17.3178139211
 20
2.2306059865
 11
17.3178139211
 21
2.5726261233
  0
LINE
  5
3B0
100
AcDbEntity
  8
0
100
AcDbLine
 62
2
  6
CONTINUOUS
 10
17.29781391
 20
2.2322638559
 11
17.29781391
 21
2.3524650276
  0
LINE
  5
3B1
100
AcDbEntity
  8
0
100
AcDbLine
 62
2
  6
CONTINUOUS
 10
17.29781391
 20
2.3772150414
 11
17.29781391
 21
2.5709682538
  0
LINE
  5
3B2
100
AcDbEntity
  8
0
100
AcDbLine
 62
2
  6
CONTINUOUS
 10
17.2778138989
 20
2.2339217254
 11
17.2778138989
 21
2.3524650276
  0
LINE
  5
3B3
100
AcDbEntity
  8
0
100
AcDbLine
 62
2
  6
CONTINUOUS
 10
17.2778138989
 20
2.3963499423
 11
17.2778138989
 21
2.5693103844
  0
LINE
  5
3B4
100
AcDbEntity
  8
0
100
AcDbLine
 62
2
  6
CONTINUOUS
 10
17.2578138878
 20
2.2355795948
 11
17.2578138878
 21
2.3524650276
  0
LINE
  5
3B5
100
AcDbEntity
  8
0
100
AcDbLine
 62
2
  6
CONTINUOUS
 10
17.2578138878
 20
2.4272549766
 11
17.2578138878
 21
2.567652515
  0
LINE
  5
3B6
100
AcDbEntity
  8
0
100
AcDbLine
 62
2
  6
CONTINUOUS
 10
17.2378138767
 20
2.2372374642
 11
17.2378138767
 21
2.3524650276
  0
LINE
  5
3B7
100
AcDbEntity
  8
0
100
AcDbLine
 62
2
  6
CONTINUOUS
 10
17.2378138767
 20
2.4532700835
 11
17.2378138767
 21
2.5659946456
  0
LINE
  5
3B8
100
AcDbEntity
  8
0
100
AcDbLine
 62
2
  6
CONTINUOUS
 10
17.2178138656
 20
2.2389952421
 11
17.2178138656
 21
2.3524650276
  0
LINE
  5
3B9
100
AcDbEntity
  8
0
100
AcDbLine
 62
2
  6
CONTINUOUS
 10
17.2178138656
 20
2.3772150414
 11
17.2178138656
 21
2.3887495968
  0
LINE
  5
3BA
100
AcDbEntity
  8
0
100
AcDbLine
 62
2
  6
CONTINUOUS
 10
17.2178138656
 20
2.4532700835
 11
17.2178138656
 21
2.5642368677
  0
LINE
  5
3BB
100
AcDbEntity
  8
0
100
AcDbLine
 62
2
  6
CONTINUOUS
 10
17.1978138545
 20
2.2415190955
 11
17.1978138545
 21
2.3908590489
  0
LINE
  5
3BC
100
AcDbEntity
  8
0
100
AcDbLine
 62
2
  6
CONTINUOUS
 10
17.1978138545
 20
2.4118090605
 11
17.1978138545
 21
2.4279760695
  0
LINE
  5
3BD
100
AcDbEntity
  8
0
100
AcDbLine
 62
2
  6
CONTINUOUS
 10
17.1978138545
 20
2.4532700835
 11
17.1978138545
 21
2.5617130143
  0
LINE
  5
3BE
100
AcDbEntity
  8
0
100
AcDbLine
 62
2
  6
CONTINUOUS
 10
17.1778138434
 20
2.244042949
 11
17.1778138434
 21
2.3524650276
  0
LINE
  5
3BF
100
AcDbEntity
  8
0
100
AcDbLine
 62
2
  6
CONTINUOUS
 10
17.1778138434
 20
2.3772150414
 11
17.1778138434
 21
2.3892044865
  0
LINE
  5
3C0
100
AcDbEntity
  8
0
100
AcDbLine
 62
2
  6
CONTINUOUS
 10
17.1778138434
 20
2.4480979218
 11
17.1778138434
 21
2.5591891608
  0
LINE
  5
3C1
100
AcDbEntity
  8
0
100
AcDbLine
 62
2
  6
CONTINUOUS
 10
17.1578138323
 20
2.2465668024
 11
17.1578138323
 21
2.3524650276
  0
LINE
  5
3C2
100
AcDbEntity
  8
0
100
AcDbLine
 62
2
  6
CONTINUOUS
 10
17.1578138323
 20
2.4165778189
 11
17.1578138323
 21
2.5566653073
  0
LINE
  5
3C3
100
AcDbEntity
  8
0
100
AcDbLine
 62
2
  6
CONTINUOUS
 10
17.1378138213
 20
2.2490906559
 11
17.1378138213
 21
2.3524650276
  0
LINE
  5
3C4
100
AcDbEntity
  8
0
100
AcDbLine
 62
2
  6
CONTINUOUS
 10
17.1378138213
 20
2.3850577159
 11
17.1378138213
 21
2.5541414539
  0
LINE
  5
3C5
100
AcDbEntity
  8
0
100
AcDbLine
 62
2
  6
CONTINUOUS
 10
17.1178138102
 20
2.2516145094
 11
17.1178138102
 21
2.3524650276
  0
LINE
  5
3C6
100
AcDbEntity
  8
0
100
AcDbLine
 62
2
  6
CONTINUOUS
 10
17.1178138102
 20
2.3772150414
 11
17.1178138102
 21
2.5516176004
  0
LINE
  5
3C7
100
AcDbEntity
  8
0
100
AcDbLine
 62
2
  6
CONTINUOUS
 10
17.0978137991
 20
2.2544171186
 11
17.0978137991
 21
2.5488149912
  0
LINE
  5
3C8
100
AcDbEntity
  8
0
100
AcDbLine
 62
2
  6
CONTINUOUS
 10
17.077813788
 20
2.2577020445
 11
17.077813788
 21
2.362615113
  0
LINE
  5
3C9
100
AcDbEntity
  8
0
100
AcDbLine
 62
2
  6
CONTINUOUS
 10
17.077813788
 20
2.3938117115
 11
17.077813788
 21
2.4149601455
  0
LINE
  5
3CA
100
AcDbEntity
  8
0
100
AcDbLine
 62
2
  6
CONTINUOUS
 10
17.077813788
 20
2.4403850542
 11
17.077813788
 21
2.5455300653
  0
LINE
  5
3CB
100
AcDbEntity
  8
0
100
AcDbLine
 62
2
  6
CONTINUOUS
 10
17.0578137769
 20
2.2609869704
 11
17.0578137769
 21
2.3533399802
  0
LINE
  5
3CC
100
AcDbEntity
  8
0
100
AcDbLine
 62
2
  6
CONTINUOUS
 10
17.0578137769
 20
2.4508307102
 11
17.0578137769
 21
2.5422451394
  0
LINE
  5
3CD
100
AcDbEntity
  8
0
100
AcDbLine
 62
2
  6
CONTINUOUS
 10
17.0378137658
 20
2.2646895914
 11
17.0378137658
 21
2.3524650276
  0
LINE
  5
3CE
100
AcDbEntity
  8
0
100
AcDbLine
 62
2
  6
CONTINUOUS
 10
17.0378137658
 20
2.4532700835
 11
17.0378137658
 21
2.5385425184
  0
LINE
  5
3CF
100
AcDbEntity
  8
0
100
AcDbLine
 62
2
  6
CONTINUOUS
 10
17.0178137547
 20
2.2685623514
 11
17.0178137547
 21
2.3524650276
  0
LINE
  5
3D0
100
AcDbEntity
  8
0
100
AcDbLine
 62
2
  6
CONTINUOUS
 10
17.0178137547
 20
2.4532700835
 11
17.0178137547
 21
2.5346697584
  0
LINE
  5
3D1
100
AcDbEntity
  8
0
100
AcDbLine
 62
2
  6
CONTINUOUS
 10
16.9978137436
 20
2.2725871112
 11
16.9978137436
 21
2.3524650276
  0
LINE
  5
3D2
100
AcDbEntity
  8
0
100
AcDbLine
 62
2
  6
CONTINUOUS
 10
16.9978137436
 20
2.3772150414
 11
16.9978137436
 21
2.394540051
  0
LINE
  5
3D3
100
AcDbEntity
  8
0
100
AcDbLine
 62
2
  6
CONTINUOUS
 10
16.9978137436
 20
2.4111950602
 11
16.9978137436
 21
2.4285200698
  0
LINE
  5
3D4
100
AcDbEntity
  8
0
100
AcDbLine
 62
2
  6
CONTINUOUS
 10
16.9978137436
 20
2.4532700835
 11
16.9978137436
 21
2.5306449986
  0
LINE
  5
3D5
100
AcDbEntity
  8
0
100
AcDbLine
 62
2
  6
CONTINUOUS
 10
16.9778137325
 20
2.2771382649
 11
16.9778137325
 21
2.3524650276
  0
LINE
  5
3D6
100
AcDbEntity
  8
0
100
AcDbLine
 62
2
  6
CONTINUOUS
 10
16.9778137325
 20
2.3772150414
 11
16.9778137325
 21
2.394540051
  0
LINE
  5
3D7
100
AcDbEntity
  8
0
100
AcDbLine
 62
2
  6
CONTINUOUS
 10
16.9778137325
 20
2.4111950602
 11
16.9778137325
 21
2.4285200698
  0
LINE
  5
3D8
100
AcDbEntity
  8
0
100
AcDbLine
 62
2
  6
CONTINUOUS
 10
16.9778137325
 20
2.4532700835
 11
16.9778137325
 21
2.5260938449
  0
LINE
  5
3D9
100
AcDbEntity
  8
0
100
AcDbLine
 62
2
  6
CONTINUOUS
 10
16.9578137214
 20
2.2816894185
 11
16.9578137214
 21
2.3524650276
  0
LINE
  5
3DA
100
AcDbEntity
  8
0
100
AcDbLine
 62
2
  6
CONTINUOUS
 10
16.9578137214
 20
2.4532700835
 11
16.9578137214
 21
2.5215426913
  0
LINE
  5
3DB
100
AcDbEntity
  8
0
100
AcDbLine
 62
2
  6
CONTINUOUS
 10
16.9378137103
 20
2.2869815362
 11
16.9378137103
 21
2.3524650276
  0
LINE
  5
3DC
100
AcDbEntity
  8
0
100
AcDbLine
 62
2
  6
CONTINUOUS
 10
16.9378137103
 20
2.4532700835
 11
16.9378137103
 21
2.5162505736
  0
LINE
  5
3DD
100
AcDbEntity
  8
0
100
AcDbLine
 62
2
  6
CONTINUOUS
 10
16.9178136992
 20
2.2923355811
 11
16.9178136992
 21
2.3524650276
  0
LINE
  5
3DE
100
AcDbEntity
  8
0
100
AcDbLine
 62
2
  6
CONTINUOUS
 10
16.9178136992
 20
2.4532700835
 11
16.9178136992
 21
2.5108965286
  0
LINE
  5
3DF
100
AcDbEntity
  8
0
100
AcDbLine
 62
2
  6
CONTINUOUS
 10
16.8978136882
 20
2.2984943577
 11
16.8978136882
 21
2.3524650276
  0
LINE
  5
3E0
100
AcDbEntity
  8
0
100
AcDbLine
 62
2
  6
CONTINUOUS
 10
16.8978136882
 20
2.3772150414
 11
16.8978136882
 21
2.4285200698
  0
LINE
  5
3E1
100
AcDbEntity
  8
0
100
AcDbLine
 62
2
  6
CONTINUOUS
 10
16.8978136882
 20
2.4532700835
 11
16.8978136882
 21
2.5047377521
  0
LINE
  5
3E2
100
AcDbEntity
  8
0
100
AcDbLine
 62
2
  6
CONTINUOUS
 10
16.8778136771
 20
2.3048274854
 11
16.8778136771
 21
2.3524650276
  0
LINE
  5
3E3
100
AcDbEntity
  8
0
100
AcDbLine
 62
2
  6
CONTINUOUS
 10
16.8778136771
 20
2.3772150414
 11
16.8778136771
 21
2.4285200698
  0
LINE
  5
3E4
100
AcDbEntity
  8
0
100
AcDbLine
 62
2
  6
CONTINUOUS
 10
16.8778136771
 20
2.4532700835
 11
16.8778136771
 21
2.4984046244
  0
LINE
  5
3E5
100
AcDbEntity
  8
0
100
AcDbLine
 62
2
  6
CONTINUOUS
 10
16.857813666
 20
2.312318358
 11
16.857813666
 21
2.4909137517
  0
LINE
  5
3E6
100
AcDbEntity
  8
0
100
AcDbLine
 62
2
  6
CONTINUOUS
 10
16.8378136549
 20
2.3203393667
 11
16.8378136549
 21
2.4828927431
  0
LINE
  5
3E7
100
AcDbEntity
  8
0
100
AcDbLine
 62
2
  6
CONTINUOUS
 10
16.8178136438
 20
2.3295519864
 11
16.8178136438
 21
2.4736801234
  0
LINE
  5
3E8
100
AcDbEntity
  8
0
100
AcDbLine
 62
2
  6
CONTINUOUS
 10
16.7978136327
 20
2.3407309483
 11
16.7978136327
 21
2.4625011614
  0
LINE
  5
3E9
100
AcDbEntity
  8
0
100
AcDbLine
 62
2
  6
CONTINUOUS
 10
16.7778136216
 20
2.3546527809
 11
16.7778136216
 21
2.4485793288
  0
LINE
  5
3EA
100
AcDbEntity
  8
0
100
AcDbLine
 62
2
  6
CONTINUOUS
 10
16.7578136105
 20
2.3756826696
 11
16.7578136105
 21
2.4275494401
  0
ENDBLK
  5
3EB
100
AcDbEntity
  8
0
  6
BYBLOCK
 62
0
100
AcDbBlockEnd
  0
BLOCK
  5
3EC
100
AcDbEntity
  8
0
100
AcDbBlockBegin
  2
_FILLED
 70
64
 10
0.0
 20
0.0
  3
_FILLED
  1

  0
SOLID
  5
3ED
100
AcDbEntity
  8
0
  6
BYBLOCK
 62
0
100
AcDbTrace
 10
0.0
 20
0.0
 11
-1.0
 21
0.1666666667
 12
-1.0
 22
-0.1666666667
 13
-1.0
 23
-0.1666666667
  0
ENDBLK
  5
3EE
100
AcDbEntity
  8
0
  6
BYBLOCK
 62
0
100
AcDbBlockEnd
  0
BLOCK
  5
3EF
100
AcDbEntity
  8
0
100
AcDbBlockBegin
 62
2
  6
CONTINUOUS
  2
*D0
 70
65
 10
0.0
 20
0.0
  3
*D0
  1

  0
MTEXT
  5
3F0
100
AcDbEntity
  8
0
100
AcDbMText
 62
2
  6
CONTINUOUS
  7
STANDARD
 71
2
 72
1
 10
19.556431303
 20
9.0755056298
 30
0.0
 11
1.0
 21
0.0
 31
0.0
 44
0.9
  1
27.5\P[1.08]
 40
0.1
 41
0.6
  0
LINE
  5
3F1
100
AcDbEntity
  8
0
100
AcDbLine
 62
2
  6
CONTINUOUS
 10
18.362454609
 20
9.4368572607
 11
19.781431303
 21
9.4368572607
  0
LINE
  5
3F2
100
AcDbEntity
  8
0
100
AcDbLine
 62
2
  6
CONTINUOUS
 10
19.1705241742
 20
8.3541800954
 11
19.781431303
 21
8.3541800954
  0
LINE
  5
3F3
100
AcDbEntity
  8
0
100
AcDbLine
 62
2
  6
CONTINUOUS
 10
19.656431303
 20
9.4368572607
 11
19.656431303
 21
9.1755056298
  0
LINE
  5
3F4
100
AcDbEntity
  8
0
100
AcDbLine
 62
2
  6
CONTINUOUS
 10
19.656431303
 20
8.3541800954
 11
19.656431303
 21
8.7255056298
  0
INSERT
  5
3F5
100
AcDbEntity
  8
0
100
AcDbBlockReference
 62
2
  6
CONTINUOUS
  2
_FILLED
 10
19.656431303
 20
9.4368572607
 41
0.1875
 42
0.1875
 43
0.1875
 50
90.0
  0
INSERT
  5
3F6
100
AcDbEntity
  8
0
100
AcDbBlockReference
 62
2
  6
CONTINUOUS
  2
_FILLED
 10
19.656431303
 20
8.3541800954
 41
0.1875
 42
0.1875
 43
0.1875
 50
270.0
  0
ENDBLK
  5
3F7
100
AcDbEntity
  8
0
  6
BYBLOCK
 62
0
100
AcDbBlockEnd
  0
BLOCK
  5
3F8
100
AcDbEntity
  8
SCHEME_DIMS
100
AcDbBlockBegin
 62
2
  6
CONTINUOUS
  2
*D1
 70
65
 10
0.0
 20
0.0
  3
*D1
  1

  0
MTEXT
  5
3F9
100
AcDbEntity
  8
SCHEME_DIMS
100
AcDbMText
 62
2
  6
CONTINUOUS
  7
STANDARD
 71
2
 72
1
 10
9.4688661589
 20
10.5581165829
 30
0.0
 11
1.0
 21
0.0
 31
0.0
 44
0.9
  1
93.0\P[3.66]
 40
0.1
 41
0.6
  0
LINE
  5
3FA
100
AcDbEntity
  8
SCHEME_DIMS
100
AcDbLine
 62
2
  6
CONTINUOUS
 10
8.9864290075
 20
12.0155974182
 11
9.6938661589
 21
12.0155974182
  0
LINE
  5
3FB
100
AcDbEntity
  8
SCHEME_DIMS
100
AcDbLine
 62
2
  6
CONTINUOUS
 10
8.9864290075
 20
8.3541800954
 11
9.6938661589
 21
8.3541800954
  0
LINE
  5
3FC
100
AcDbEntity
  8
SCHEME_DIMS
100
AcDbLine
 62
2
  6
CONTINUOUS
 10
9.5688661589
 20
12.0155974182
 11
9.5688661589
 21
10.6581165829
  0
LINE
  5
3FD
100
AcDbEntity
  8
SCHEME_DIMS
100
AcDbLine
 62
2
  6
CONTINUOUS
 10
9.5688661589
 20
8.3541800954
 11
9.5688661589
 21
10.2081165829
  0
INSERT
  5
3FE
100
AcDbEntity
  8
SCHEME_DIMS
100
AcDbBlockReference
 62
2
  6
CONTINUOUS
  2
_FILLED
 10
9.5688661589
 20
12.0155974182
 41
0.1875
 42
0.1875
 43
0.1875
 50
90.0
  0
INSERT
  5
3FF
100
AcDbEntity
  8
SCHEME_DIMS
100
AcDbBlockReference
 62
2
  6
CONTINUOUS
  2
_FILLED
 10
9.5688661589
 20
8.3541800954
 41
0.1875
 42
0.1875
 43
0.1875
 50
270.0
  0
ENDBLK
  5
400
100
AcDbEntity
  8
0
  6
BYBLOCK
 62
0
100
AcDbBlockEnd
  0
BLOCK
  5
401
100
AcDbEntity
  8
SCHEME_DIMS
100
AcDbBlockBegin
 62
2
  6
CONTINUOUS
  2
*D2
 70
65
 10
0.0
 20
0.0
  3
*D2
  1

  0
MTEXT
  5
402
100
AcDbEntity
  8
SCHEME_DIMS
100
AcDbMText
 62
2
  6
CONTINUOUS
  7
STANDARD
 71
2
 72
1
 10
6.6740939849
 20
8.7929596229
 30
0.0
 11
1.0
 21
0.0
 31
0.0
 44
0.9
  1
19.8\P[.78]
 40
0.1
 41
0.5
  0
LINE
  5
403
100
AcDbEntity
  8
SCHEME_DIMS
100
AcDbLine
 62
2
  6
CONTINUOUS
 10
7.2078857004
 20
8.3541800954
 11
6.5990939849
 21
8.3541800954
  0
LINE
  5
404
100
AcDbEntity
  8
SCHEME_DIMS
100
AcDbLine
 62
2
  6
CONTINUOUS
 10
7.5015864878
 20
9.1317391505
 11
6.5990939849
 21
9.1317391505
  0
LINE
  5
405
100
AcDbEntity
  8
SCHEME_DIMS
100
AcDbLine
 62
2
  6
CONTINUOUS
 10
6.7240939849
 20
8.3541800954
 11
6.7240939849
 21
7.9541800954
  0
LINE
  5
406
100
AcDbEntity
  8
SCHEME_DIMS
100
AcDbLine
 62
2
  6
CONTINUOUS
 10
6.7240939849
 20
9.1317391505
 11
6.7240939849
 21
9.5317391505
  0
INSERT
  5
407
100
AcDbEntity
  8
SCHEME_DIMS
100
AcDbBlockReference
 62
2
  6
CONTINUOUS
  2
_FILLED
 10
6.7240939849
 20
8.3541800954
 41
0.1875
 42
0.1875
 43
0.1875
 50
90.0
  0
INSERT
  5
408
100
AcDbEntity
  8
SCHEME_DIMS
100
AcDbBlockReference
 62
2
  6
CONTINUOUS
  2
_FILLED
 10
6.7240939849
 20
9.1317391505
 41
0.1875
 42
0.1875
 43
0.1875
 50
270.0
  0
ENDBLK
  5
409
100
AcDbEntity
  8
0
  6
BYBLOCK
 62
0
100
AcDbBlockEnd
  0
BLOCK
  5
40A
100
AcDbEntity
  8
SCHEME_DIMS
100
AcDbBlockBegin
 62
2
  6
CONTINUOUS
  2
*D3
 70
65
 10
0.0
 20
0.0
  3
*D3
  1

  0
MTEXT
  5
40B
100
AcDbEntity
  8
SCHEME_DIMS
100
AcDbMText
 62
2
  6
CONTINUOUS
  7
STANDARD
 71
2
 72
1
 10
12.8751542407
 20
4.2319698504
 30
0.0
 11
1.0
 21
0.0
 31
0.0
 44
0.9
  1
52.0\P[2.05]
 40
0.1
 41
0.6
  0
LINE
  5
40C
100
AcDbEntity
  8
SCHEME_DIMS
100
AcDbLine
 62
2
  6
CONTINUOUS
 10
11.9515321935
 20
4.6507886386
 11
11.9515321935
 21
4.0569698504
  0
LINE
  5
40D
100
AcDbEntity
  8
SCHEME_DIMS
100
AcDbLine
 62
2
  6
CONTINUOUS
 10
13.998776288
 20
5.2948831268
 11
13.998776288
 21
4.0569698504
  0
LINE
  5
40E
100
AcDbEntity
  8
SCHEME_DIMS
100
AcDbLine
 62
2
  6
CONTINUOUS
 10
11.9515321935
 20
4.1819698504
 11
12.5751542407
 21
4.1819698504
  0
LINE
  5
40F
100
AcDbEntity
  8
SCHEME_DIMS
100
AcDbLine
 62
2
  6
CONTINUOUS
 10
13.998776288
 20
4.1819698504
 11
13.3751542407
 21
4.1819698504
  0
INSERT
  5
410
100
AcDbEntity
  8
SCHEME_DIMS
100
AcDbBlockReference
 62
2
  6
CONTINUOUS
  2
_FILLED
 10
11.9515321935
 20
4.1819698504
 41
0.1875
 42
0.1875
 43
0.1875
 50
180.0
  0
INSERT
  5
411
100
AcDbEntity
  8
SCHEME_DIMS
100
AcDbBlockReference
 62
2
  6
CONTINUOUS
  2
_FILLED
 10
13.998776288
 20
4.1819698504
 41
0.1875
 42
0.1875
 43
0.1875
  0
ENDBLK
  5
412
100
AcDbEntity
  8
0
  6
BYBLOCK
 62
0
100
AcDbBlockEnd
  0
BLOCK
  5
413
100
AcDbEntity
  8
SCHEME_DIMS
100
AcDbBlockBegin
 62
2
  6
CONTINUOUS
  2
*D4
 70
65
 10
0.0
 20
0.0
  3
*D4
  1

  0
MTEXT
  5
414
100
AcDbEntity
  8
SCHEME_DIMS
100
AcDbMText
 62
2
  6
CONTINUOUS
  7
STANDARD
 71
2
 72
1
 10
14.4212172328
 20
4.2319698504
 30
0.0
 11
1.0
 21
0.0
 31
0.0
 44
0.9
  1
24.0\P[.94]
 40
0.1
 41
0.5
  0
LINE
  5
415
100
AcDbEntity
  8
SCHEME_DIMS
100
AcDbLine
 62
2
  6
CONTINUOUS
 10
13.998776288
 20
5.2948831268
 11
13.998776288
 21
4.0569698504
  0
LINE
  5
416
100
AcDbEntity
  8
SCHEME_DIMS
100
AcDbLine
 62
2
  6
CONTINUOUS
 10
14.9436581777
 20
5.2948831268
 11
14.9436581777
 21
4.0569698504
  0
LINE
  5
417
100
AcDbEntity
  8
SCHEME_DIMS
100
AcDbLine
 62
2
  6
CONTINUOUS
 10
13.998776288
 20
4.1819698504
 11
13.598776288
 21
4.1819698504
  0
LINE
  5
418
100
AcDbEntity
  8
SCHEME_DIMS
100
AcDbLine
 62
2
  6
CONTINUOUS
 10
14.9436581777
 20
4.1819698504
 11
15.3436581777
 21
4.1819698504
  0
INSERT
  5
419
100
AcDbEntity
  8
SCHEME_DIMS
100
AcDbBlockReference
 62
2
  6
CONTINUOUS
  2
_FILLED
 10
13.998776288
 20
4.1819698504
 41
0.1875
 42
0.1875
 43
0.1875
  0
INSERT
  5
41A
100
AcDbEntity
  8
SCHEME_DIMS
100
AcDbBlockReference
 62
2
  6
CONTINUOUS
  2
_FILLED
 10
14.9436581777
 20
4.1819698504
 41
0.1875
 42
0.1875
 43
0.1875
 50
180.0
  0
ENDBLK
  5
41B
100
AcDbEntity
  8
0
  6
BYBLOCK
 62
0
100
AcDbBlockEnd
  0
BLOCK
  5
41C
100
AcDbEntity
  8
SCHEME_DIMS
100
AcDbBlockBegin
 62
2
  6
CONTINUOUS
  2
*D5
 70
65
 10
0.0
 20
0.0
  3
*D5
  1

  0
MTEXT
  5
41D
100
AcDbEntity
  8
SCHEME_DIMS
100
AcDbMText
 62
2
  6
CONTINUOUS
  7
STANDARD
 71
2
 72
1
 10
14.3633432171
 20
7.8434264994
 30
0.0
 11
1.0
 21
0.0
 31
0.0
 44
0.9
  1
42.0\P[1.65]
 40
0.1
 41
0.6
  0
LINE
  5
41E
100
AcDbEntity
  8
SCHEME_DIMS
100
AcDbLine
 62
2
  6
CONTINUOUS
 10
15.2901148706
 20
8.3038848198
 11
15.2901148706
 21
7.6684264994
  0
LINE
  5
41F
100
AcDbEntity
  8
SCHEME_DIMS
100
AcDbLine
 62
2
  6
CONTINUOUS
 10
13.6365715635
 20
8.3038848198
 11
13.6365715635
 21
7.6684264994
  0
LINE
  5
420
100
AcDbEntity
  8
SCHEME_DIMS
100
AcDbLine
 62
2
  6
CONTINUOUS
 10
15.2901148706
 20
7.7934264994
 11
14.8633432171
 21
7.7934264994
  0
LINE
  5
421
100
AcDbEntity
  8
SCHEME_DIMS
100
AcDbLine
 62
2
  6
CONTINUOUS
 10
13.6365715635
 20
7.7934264994
 11
14.0633432171
 21
7.7934264994
  0
INSERT
  5
422
100
AcDbEntity
  8
SCHEME_DIMS
100
AcDbBlockReference
 62
2
  6
CONTINUOUS
  2
_FILLED
 10
15.2901148706
 20
7.7934264994
 41
0.1875
 42
0.1875
 43
0.1875
  0
INSERT
  5
423
100
AcDbEntity
  8
SCHEME_DIMS
100
AcDbBlockReference
 62
2
  6
CONTINUOUS
  2
_FILLED
 10
13.6365715635
 20
7.7934264994
 41
0.1875
 42
0.1875
 43
0.1875
 50
180.0
  0
ENDBLK
  5
424
100
AcDbEntity
  8
0
  6
BYBLOCK
 62
0
100
AcDbBlockEnd
  0
BLOCK
  5
425
100
AcDbEntity
  8
SCHEME_DIMS
100
AcDbBlockBegin
 62
2
  6
CONTINUOUS
  2
*D6
 70
65
 10
0.0
 20
0.0
  3
*D6
  1

  0
MTEXT
  5
426
100
AcDbEntity
  8
SCHEME_DIMS
100
AcDbMText
 62
2
  6
CONTINUOUS
  7
STANDARD
 71
2
 72
1
 10
12.6940518785
 20
7.8434264994
 30
0.0
 11
1.0
 21
0.0
 31
0.0
 44
0.9
  1
42.8\P[1.69]
 40
0.1
 41
0.6
  0
LINE
  5
427
100
AcDbEntity
  8
SCHEME_DIMS
100
AcDbLine
 62
2
  6
CONTINUOUS
 10
13.6365715635
 20
8.3038848198
 11
13.6365715635
 21
7.6684264994
  0
LINE
  5
428
100
AcDbEntity
  8
SCHEME_DIMS
100
AcDbLine
 62
2
  6
CONTINUOUS
 10
11.9515321935
 20
8.2916800954
 11
11.9515321935
 21
7.6684264994
  0
LINE
  5
429
100
AcDbEntity
  8
SCHEME_DIMS
100
AcDbLine
 62
2
  6
CONTINUOUS
 10
13.6365715635
 20
7.7934264994
 11
13.1940518785
 21
7.7934264994
  0
LINE
  5
42A
100
AcDbEntity
  8
SCHEME_DIMS
100
AcDbLine
 62
2
  6
CONTINUOUS
 10
11.9515321935
 20
7.7934264994
 11
12.3940518785
 21
7.7934264994
  0
INSERT
  5
42B
100
AcDbEntity
  8
SCHEME_DIMS
100
AcDbBlockReference
 62
2
  6
CONTINUOUS
  2
_FILLED
 10
13.6365715635
 20
7.7934264994
 41
0.1875
 42
0.1875
 43
0.1875
  0
INSERT
  5
42C
100
AcDbEntity
  8
SCHEME_DIMS
100
AcDbBlockReference
 62
2
  6
CONTINUOUS
  2
_FILLED
 10
11.9515321935
 20
7.7934264994
 41
0.1875
 42
0.1875
 43
0.1875
 50
180.0
  0
ENDBLK
  5
42D
100
AcDbEntity
  8
0
  6
BYBLOCK
 62
0
100
AcDbBlockEnd
  0
BLOCK
  5
42E
100
AcDbEntity
  8
SCHEME_DIMS
100
AcDbBlockBegin
 62
2
  6
CONTINUOUS
  2
*D7
 70
65
 10
0.0
 20
0.0
  3
*D7
  1

  0
MTEXT
  5
42F
100
AcDbEntity
  8
SCHEME_DIMS
100
AcDbMText
 62
2
  6
CONTINUOUS
  7
STANDARD
 71
3
 72
1
 10
10.7128064258
 20
8.0364432467
 30
0.0
 11
1.0
 21
0.0
 31
0.0
 44
0.9
  1
5.8\P[.23]
 40
0.1
 41
0.5
  0
LINE
  5
430
100
AcDbEntity
  8
SCHEME_DIMS
100
AcDbLine
 62
2
  6
CONTINUOUS
 10
13.3598983352
 20
8.5805580481
 11
11.0149612084
 21
8.5805580481
  0
LINE
  5
431
100
AcDbEntity
  8
SCHEME_DIMS
100
AcDbLine
 62
2
  6
CONTINUOUS
 10
11.8890321935
 20
8.3541800954
 11
11.0149612084
 21
8.3541800954
  0
LINE
  5
432
100
AcDbEntity
  8
SCHEME_DIMS
100
AcDbLine
 62
2
  6
CONTINUOUS
 10
11.1399612084
 20
8.5805580481
 11
11.1399612084
 21
8.9805580481
  0
LINE
  5
433
100
AcDbEntity
  8
SCHEME_DIMS
100
AcDbLine
 62
2
  6
CONTINUOUS
 10
11.1399612084
 20
8.3541800954
 11
11.1399612084
 21
7.9864432467
  0
LINE
  5
434
100
AcDbEntity
  8
SCHEME_DIMS
100
AcDbLine
 62
2
  6
CONTINUOUS
 10
11.1399612084
 20
7.9864432467
 11
11.0128064258
 21
7.9864432467
  0
INSERT
  5
435
100
AcDbEntity
  8
SCHEME_DIMS
100
AcDbBlockReference
 62
2
  6
CONTINUOUS
  2
_FILLED
 10
11.1399612084
 20
8.5805580481
 41
0.1875
 42
0.1875
 43
0.1875
 50
270.0
  0
INSERT
  5
436
100
AcDbEntity
  8
SCHEME_DIMS
100
AcDbBlockReference
 62
2
  6
CONTINUOUS
  2
_FILLED
 10
11.1399612084
 20
8.3541800954
 41
0.1875
 42
0.1875
 43
0.1875
 50
90.0
  0
ENDBLK
  5
437
100
AcDbEntity
  8
0
  6
BYBLOCK
 62
0
100
AcDbBlockEnd
  0
BLOCK
  5
438
100
AcDbEntity
  8
SCHEME_DIMS
100
AcDbBlockBegin
 62
2
  6
CONTINUOUS
  2
*D8
 70
65
 10
0.0
 20
0.0
  3
*D8
  1

  0
MTEXT
  5
439
100
AcDbEntity
  8
SCHEME_DIMS
100
AcDbMText
 62
2
  6
CONTINUOUS
  7
STANDARD
 71
2
 72
1
 10
11.0399612084
 20
10.2348887568
 30
0.0
 11
1.0
 21
0.0
 31
0.0
 44
0.9
  1
81.5\P[3.21]
 40
0.1
 41
0.6
  0
LINE
  5
43A
100
AcDbEntity
  8
SCHEME_DIMS
100
AcDbLine
 62
2
  6
CONTINUOUS
 10
13.3598983352
 20
8.5805580481
 11
11.0149612084
 21
8.5805580481
  0
LINE
  5
43B
100
AcDbEntity
  8
SCHEME_DIMS
100
AcDbLine
 62
2
  6
CONTINUOUS
 10
13.3677723509
 20
11.7892194655
 11
11.0149612084
 21
11.7892194655
  0
LINE
  5
43C
100
AcDbEntity
  8
SCHEME_DIMS
100
AcDbLine
 62
2
  6
CONTINUOUS
 10
11.1399612084
 20
8.5805580481
 11
11.1399612084
 21
9.8848887568
  0
LINE
  5
43D
100
AcDbEntity
  8
SCHEME_DIMS
100
AcDbLine
 62
2
  6
CONTINUOUS
 10
11.1399612084
 20
11.7892194655
 11
11.1399612084
 21
10.3348887568
  0
INSERT
  5
43E
100
AcDbEntity
  8
SCHEME_DIMS
100
AcDbBlockReference
 62
2
  6
CONTINUOUS
  2
_FILLED
 10
11.1399612084
 20
8.5805580481
 41
0.1875
 42
0.1875
 43
0.1875
 50
270.0
  0
INSERT
  5
43F
100
AcDbEntity
  8
SCHEME_DIMS
100
AcDbBlockReference
 62
2
  6
CONTINUOUS
  2
_FILLED
 10
11.1399612084
 20
11.7892194655
 41
0.1875
 42
0.1875
 43
0.1875
 50
90.0
  0
ENDBLK
  5
440
100
AcDbEntity
  8
0
  6
BYBLOCK
 62
0
100
AcDbBlockEnd
  0
BLOCK
  5
441
100
AcDbEntity
  8
SCHEME_DIMS
100
AcDbBlockBegin
 62
2
  6
CONTINUOUS
  2
*D9
 70
65
 10
0.0
 20
0.0
  3
*D9
  1

  0
MTEXT
  5
442
100
AcDbEntity
  8
SCHEME_DIMS
100
AcDbMText
 62
2
  6
CONTINUOUS
  7
TEXTSTYLE_5
 71
1
 72
1
 10
16.012151005
 20
8.3239066639
 30
0.0
 11
1.0
 21
0.0
 31
0.0
 44
0.9
  1
{\Fgdt;n}\Ftxt;5.8\P[.23]
 40
0.1
 41
0.5
  0
LINE
  5
443
100
AcDbEntity
  8
SCHEME_DIMS
100
AcDbLine
 62
2
  6
CONTINUOUS
 10
15.3858586328
 20
8.5183595106
 11
15.762151005
 21
8.2739066639
  0
LINE
  5
444
100
AcDbEntity
  8
SCHEME_DIMS
100
AcDbLine
 62
2
  6
CONTINUOUS
 10
15.762151005
 20
8.2739066639
 11
15.912151005
 21
8.2739066639
  0
INSERT
  5
445
100
AcDbEntity
  8
SCHEME_DIMS
100
AcDbBlockReference
 62
2
  6
CONTINUOUS
  2
_FILLED
 10
15.3858586328
 20
8.5183595106
 41
0.1875
 42
0.1875
 43
0.1875
 50
146.9908202201
  0
ENDBLK
  5
446
100
AcDbEntity
  8
0
  6
BYBLOCK
 62
0
100
AcDbBlockEnd
  0
BLOCK
  5
447
100
AcDbEntity
  8
SCHEME_DIMS
100
AcDbBlockBegin
 62
2
  6
CONTINUOUS
  2
*D10
 70
65
 10
0.0
 20
0.0
  3
*D10
  1

  0
MTEXT
  5
448
100
AcDbEntity
  8
SCHEME_DIMS
100
AcDbMText
 62
2
  6
CONTINUOUS
  7
STANDARD
 71
2
 72
1
 10
13.7216109336
 20
12.9682771504
 30
0.0
 11
1.0
 21
0.0
 31
0.0
 44
0.9
  1
95.0\P[3.74]
 40
0.1
 41
0.6
  0
LINE
  5
449
100
AcDbEntity
  8
SCHEME_DIMS
100
AcDbLine
 62
2
  6
CONTINUOUS
 10
15.6916896738
 20
13.5866417143
 11
15.6916896738
 21
12.7932771504
  0
LINE
  5
44A
100
AcDbEntity
  8
SCHEME_DIMS
100
AcDbLine
 62
2
  6
CONTINUOUS
 10
11.9515321935
 20
13.3295420353
 11
11.9515321935
 21
12.7932771504
  0
LINE
  5
44B
100
AcDbEntity
  8
SCHEME_DIMS
100
AcDbLine
 62
2
  6
CONTINUOUS
 10
15.6916896738
 20
12.9182771504
 11
14.2216109336
 21
12.9182771504
  0
LINE
  5
44C
100
AcDbEntity
  8
SCHEME_DIMS
100
AcDbLine
 62
2
  6
CONTINUOUS
 10
11.9515321935
 20
12.9182771504
 11
13.4216109336
 21
12.9182771504
  0
INSERT
  5
44D
100
AcDbEntity
  8
SCHEME_DIMS
100
AcDbBlockReference
 62
2
  6
CONTINUOUS
  2
_FILLED
 10
15.6916896738
 20
12.9182771504
 41
0.1875
 42
0.1875
 43
0.1875
  0
INSERT
  5
44E
100
AcDbEntity
  8
SCHEME_DIMS
100
AcDbBlockReference
 62
2
  6
CONTINUOUS
  2
_FILLED
 10
11.9515321935
 20
12.9182771504
 41
0.1875
 42
0.1875
 43
0.1875
 50
180.0
  0
ENDBLK
  5
44F
100
AcDbEntity
  8
0
  6
BYBLOCK
 62
0
100
AcDbBlockEnd
  0
BLOCK
  5
450
100
AcDbEntity
  8
SCHEME_DIMS
100
AcDbBlockBegin
 62
2
  6
CONTINUOUS
  2
*D11
 70
65
 10
0.0
 20
0.0
  3
*D11
  1

  0
MTEXT
  5
451
100
AcDbEntity
  8
SCHEME_DIMS
100
AcDbMText
 62
2
  6
CONTINUOUS
  7
STANDARD
 71
2
 72
1
 10
16.3317174942
 20
14.2688136889
 30
0.0
 11
1.0
 21
0.0
 31
0.0
 44
0.9
  1
42.0\P[1.65]
 40
0.1
 41
0.6
  0
LINE
  5
452
100
AcDbEntity
  8
SCHEME_DIMS
100
AcDbLine
 62
2
  6
CONTINUOUS
 10
15.7316452453
 20
13.3920420353
 11
16.5567174942
 21
13.3920420353
  0
LINE
  5
453
100
AcDbEntity
  8
SCHEME_DIMS
100
AcDbLine
 62
2
  6
CONTINUOUS
 10
15.7316452453
 20
15.0455853424
 11
16.5567174942
 21
15.0455853424
  0
LINE
  5
454
100
AcDbEntity
  8
SCHEME_DIMS
100
AcDbLine
 62
2
  6
CONTINUOUS
 10
16.4317174942
 20
13.3920420353
 11
16.4317174942
 21
13.9188136889
  0
LINE
  5
455
100
AcDbEntity
  8
SCHEME_DIMS
100
AcDbLine
 62
2
  6
CONTINUOUS
 10
16.4317174942
 20
15.0455853424
 11
16.4317174942
 21
14.3688136889
  0
INSERT
  5
456
100
AcDbEntity
  8
SCHEME_DIMS
100
AcDbBlockReference
 62
2
  6
CONTINUOUS
  2
_FILLED
 10
16.4317174942
 20
13.3920420353
 41
0.1875
 42
0.1875
 43
0.1875
 50
270.0
  0
INSERT
  5
457
100
AcDbEntity
  8
SCHEME_DIMS
100
AcDbBlockReference
 62
2
  6
CONTINUOUS
  2
_FILLED
 10
16.4317174942
 20
15.0455853424
 41
0.1875
 42
0.1875
 43
0.1875
 50
90.0
  0
ENDBLK
  5
458
100
AcDbEntity
  8
0
  6
BYBLOCK
 62
0
100
AcDbBlockEnd
  0
ENDSEC
  0
SECTION
  2
ENTITIES
  0
MTEXT
  5
459
100
AcDbEntity
  8
0
100
AcDbMText
 62
2
  6
CONTINUOUS
  7
TEXTSTYLE_2
 71
2
 72
1
 10
15.7174677477
 20
1.6655662523
 30
0.0
 11
1.0
 21
0.0
 31
0.0
 44
0.9
  1
THIRD ANGLE PROJECTION
 40
0.1
 41
1.76
  0
MTEXT
  5
45A
100
AcDbEntity
  8
0
100
AcDbMText
 62
2
  6
CONTINUOUS
  7
STANDARD
 71
1
 72
1
 10
17.55
 20
1.32
 30
0.0
 11
1.0
 21
0.0
 31
0.0
 44
0.9
  1
DRAWING NO.
 40
0.08
 41
0.88
  0
MTEXT
  5
45B
100
AcDbEntity
  8
0
100
AcDbMText
 62
2
  6
CONTINUOUS
  7
TEXTSTYLE_3
 71
2
 72
1
 10
15.7
 20
2.379432
 30
0.0
 11
1.0
 21
0.0
 31
0.0
 44
0.9
  1
and is proprietary in general
 40
0.08
 41
1.972
  0
MTEXT
  5
45C
100
AcDbEntity
  8
0
100
AcDbMText
 62
2
  6
CONTINUOUS
  7
TEXTSTYLE_3
 71
2
 72
1
 10
15.7
 20
2.259432
 30
0.0
 11
1.0
 21
0.0
 31
0.0
 44
0.9
  1
and in detail.  Its contents
 40
0.08
 41
1.904
  0
MTEXT
  5
45D
100
AcDbEntity
  8
0
100
AcDbMText
 62
2
  6
CONTINUOUS
  7
TEXTSTYLE_3
 71
2
 72
1
 10
15.7
 20
2.139432
 30
0.0
 11
1.0
 21
0.0
 31
0.0
 44
0.9
  1
shall not be revealed to
 40
0.08
 41
1.632
  0
MTEXT
  5
45E
100
AcDbEntity
  8
0
100
AcDbMText
 62
2
  6
CONTINUOUS
  7
TEXTSTYLE_3
 71
2
 72
1
 10
15.7
 20
2.019432
 30
0.0
 11
1.0
 21
0.0
 31
0.0
 44
0.9
  1
outside parties without
 40
0.08
 41
1.564
  0
MTEXT
  5
45F
100
AcDbEntity
  8
0
100
AcDbMText
 62
2
  6
CONTINUOUS
  7
TEXTSTYLE_3
 71
2
 72
1
 10
15.7
 20
1.899432
 30
0.0
 11
1.0
 21
0.0
 31
0.0
 44
0.9
  1
written consent of BANNER.
 40
0.08
 41
1.768
  0
MTEXT
  5
460
100
AcDbEntity
  8
0
100
AcDbMText
 62
2
  6
CONTINUOUS
  7
TEXTSTYLE_2
 71
1
 72
1
 10
16.75
 20
2.08
 30
0.0
 11
1.0
 21
0.0
 31
0.0
 44
0.9
  1
TITLE
 40
0.1
 41
0.4
  0
MTEXT
  5
461
100
AcDbEntity
  8
0
100
AcDbMText
 62
2
  6
CONTINUOUS
  7
STANDARD
 71
1
 72
1
 10
16.75
 20
1.32
 30
0.0
 11
1.0
 21
0.0
 31
0.0
 44
0.9
  1
SIZE
 40
0.08
 41
0.32
  0
MTEXT
  5
462
100
AcDbEntity
  8
0
100
AcDbMText
 62
2
  6
CONTINUOUS
  7
STANDARD
 71
1
 72
1
 10
16.75
 20
0.95
 30
0.0
 11
1.0
 21
0.0
 31
0.0
 44
0.9
  1
SCALE
 40
0.08
 41
0.4
  0
MTEXT
  5
463
100
AcDbEntity
  8
0
100
AcDbMText
 62
2
  6
CONTINUOUS
  7
TEXTSTYLE_2
 71
2
 72
1
 10
17.17
 20
1.2
 30
0.0
 11
1.0
 21
0.0
 31
0.0
 44
0.9
  1
C
 40
0.1
 41
0.08
  0
MTEXT
  5
464
100
AcDbEntity
  8
0
100
AcDbMText
 62
2
  6
CONTINUOUS
  7
TEXTSTYLE_3
 71
2
 72
1
 10
15.7
 20
2.499432
 30
0.0
 11
1.0
 21
0.0
 31
0.0
 44
0.9
  1
of BANNER ENGINEERING CORP.
 40
0.08
 41
1.836
  0
MTEXT
  5
465
100
AcDbEntity
  8
0
100
AcDbMText
 62
2
  6
CONTINUOUS
  7
TEXTSTYLE_3
 71
2
 72
1
 10
15.7
 20
2.619432
 30
0.0
 11
1.0
 21
0.0
 31
0.0
 44
0.9
  1
This drawing is the property
 40
0.08
 41
1.904
  0
MTEXT
  5
466
100
AcDbEntity
  8
0
100
AcDbMText
 62
2
  6
CONTINUOUS
  7
TEXTSTYLE_2
 71
2
 72
1
 10
19.7
 20
2.2764
 30
0.0
 11
1.0
 21
0.0
 31
0.0
 44
0.9
  1
MINNEAPOLIS, MN 55440
 40
0.1
 41
1.68
  0
MTEXT
  5
467
100
AcDbEntity
  8
0
100
AcDbMText
 62
2
  6
CONTINUOUS
  7
STANDARD
 71
1
 72
1
 10
18.925
 20
0.95
 30
0.0
 11
1.0
 21
0.0
 31
0.0
 44
0.9
  1
SHEET
 40
0.08
 41
0.4
  0
MTEXT
  5
468
100
AcDbEntity
  8
0
100
AcDbMText
 62
2
  6
CONTINUOUS
  7
STANDARD
 71
1
 72
1
 10
20.3
 20
1.32
 30
0.0
 11
1.0
 21
0.0
 31
0.0
 44
0.9
  1
REV.
 40
0.08
 41
0.32
  0
MTEXT
  5
469
100
AcDbEntity
  8
0
100
AcDbMText
 62
2
  6
CONTINUOUS
  7
STANDARD
 71
3
 72
1
 10
21.05
 20
0.698443
 30
0.0
 11
1.0
 21
0.0
 31
0.0
 44
0.9
  1
PRO/E
 40
0.07
 41
0.35
  0
MTEXT
  5
46A
100
AcDbEntity
  8
0
100
AcDbMText
 62
2
  6
CONTINUOUS
  7
TEXTSTYLE_4
 71
2
 72
1
 10
19.7
 20
2.614049
 30
0.0
 11
1.0
 21
0.0
 31
0.0
 44
0.9
  1
BANNER ENGINEERING CORP.
 40
0.12
 41
2.6496
  0
MTEXT
  5
46B
100
AcDbEntity
  8
0
100
AcDbMText
 62
2
  6
CONTINUOUS
  7
TEXTSTYLE_2
 71
2
 72
1
 10
19.7
 20
2.4354
 30
0.0
 11
1.0
 21
0.0
 31
0.0
 44
0.9
  1
P.O. BOX 9414
 40
0.1
 41
1.04
  0
MTEXT
  5
46C
100
AcDbEntity
  8
0
100
AcDbMText
 62
2
  6
CONTINUOUS
  7
TEXTSTYLE_2
 71
2
 72
1
 10
12.257
 20
15.95
 30
0.0
 11
1.0
 21
0.0
 31
0.0
 44
0.9
  1
4
 40
0.1
 41
0.08
  0
MTEXT
  5
46D
100
AcDbEntity
  8
0
100
AcDbMText
 62
2
  6
CONTINUOUS
  7
TEXTSTYLE_2
 71
2
 72
1
 10
12.257
 20
0.65
 30
0.0
 11
1.0
 21
0.0
 31
0.0
 44
0.9
  1
4
 40
0.1
 41
0.08
  0
MTEXT
  5
46E
100
AcDbEntity
  8
0
100
AcDbMText
 62
2
  6
CONTINUOUS
  7
TEXTSTYLE_2
 71
3
 72
1
 10
0.864
 20
6.375
 30
0.0
 11
1.0
 21
0.0
 31
0.0
 44
0.9
  1
B
 40
0.1
 41
0.08
  0
MTEXT
  5
46F
100
AcDbEntity
  8
0
100
AcDbMText
 62
2
  6
CONTINUOUS
  7
TEXTSTYLE_2
 71
1
 72
1
 10
21.15
 20
6.375
 30
0.0
 11
1.0
 21
0.0
 31
0.0
 44
0.9
  1
B
 40
0.1
 41
0.08
  0
MTEXT
  5
470
100
AcDbEntity
  8
0
100
AcDbMText
 62
2
  6
CONTINUOUS
  7
TEXTSTYLE_2
 71
3
 72
1
 10
0.864
 20
2.525
 30
0.0
 11
1.0
 21
0.0
 31
0.0
 44
0.9
  1
A
 40
0.1
 41
0.08
  0
MTEXT
  5
471
100
AcDbEntity
  8
0
100
AcDbMText
 62
2
  6
CONTINUOUS
  7
TEXTSTYLE_2
 71
1
 72
1
 10
21.15
 20
2.525
 30
0.0
 11
1.0
 21
0.0
 31
0.0
 44
0.9
  1
A
 40
0.1
 41
0.08
  0
MTEXT
  5
472
100
AcDbEntity
  8
0
100
AcDbMText
 62
2
  6
CONTINUOUS
  7
TEXTSTYLE_2
 71
3
 72
1
 10
0.864
 20
14.075
 30
0.0
 11
1.0
 21
0.0
 31
0.0
 44
0.9
  1
D
 40
0.1
 41
0.08
  0
MTEXT
  5
473
100
AcDbEntity
  8
0
100
AcDbMText
 62
2
  6
CONTINUOUS
  7
TEXTSTYLE_2
 71
1
 72
1
 10
21.15
 20
14.075
 30
0.0
 11
1.0
 21
0.0
 31
0.0
 44
0.9
  1
D
 40
0.1
 41
0.08
  0
MTEXT
  5
474
100
AcDbEntity
  8
0
100
AcDbMText
 62
2
  6
CONTINUOUS
  7
TEXTSTYLE_2
 71
3
 72
1
 10
0.864
 20
10.225
 30
0.0
 11
1.0
 21
0.0
 31
0.0
 44
0.9
  1
C
 40
0.1
 41
0.08
  0
MTEXT
  5
475
100
AcDbEntity
  8
0
100
AcDbMText
 62
2
  6
CONTINUOUS
  7
TEXTSTYLE_2
 71
1
 72
1
 10
21.15
 20
10.225
 30
0.0
 11
1.0
 21
0.0
 31
0.0
 44
0.9
  1
C
 40
0.1
 41
0.08
  0
MTEXT
  5
476
100
AcDbEntity
  8
0
100
AcDbMText
 62
2
  6
CONTINUOUS
  7
TEXTSTYLE_2
 71
2
 72
1
 10
14.757
 20
0.65
 30
0.0
 11
1.0
 21
0.0
 31
0.0
 44
0.9
  1
3
 40
0.1
 41
0.08
  0
MTEXT
  5
477
100
AcDbEntity
  8
0
100
AcDbMText
 62
2
  6
CONTINUOUS
  7
TEXTSTYLE_2
 71
2
 72
1
 10
14.757
 20
15.95
 30
0.0
 11
1.0
 21
0.0
 31
0.0
 44
0.9
  1
3
 40
0.1
 41
0.08
  0
MTEXT
  5
478
100
AcDbEntity
  8
0
100
AcDbMText
 62
2
  6
CONTINUOUS
  7
TEXTSTYLE_2
 71
2
 72
1
 10
17.257
 20
15.95
 30
0.0
 11
1.0
 21
0.0
 31
0.0
 44
0.9
  1
2
 40
0.1
 41
0.08
  0
MTEXT
  5
479
100
AcDbEntity
  8
0
100
AcDbMText
 62
2
  6
CONTINUOUS
  7
TEXTSTYLE_2
 71
2
 72
1
 10
17.257
 20
0.65
 30
0.0
 11
1.0
 21
0.0
 31
0.0
 44
0.9
  1
2
 40
0.1
 41
0.08
  0
MTEXT
  5
47A
100
AcDbEntity
  8
0
100
AcDbMText
 62
2
  6
CONTINUOUS
  7
TEXTSTYLE_2
 71
2
 72
1
 10
19.757
 20
0.65
 30
0.0
 11
1.0
 21
0.0
 31
0.0
 44
0.9
  1
1
 40
0.1
 41
0.08
  0
MTEXT
  5
47B
100
AcDbEntity
  8
0
100
AcDbMText
 62
2
  6
CONTINUOUS
  7
TEXTSTYLE_2
 71
2
 72
1
 10
19.757
 20
15.95
 30
0.0
 11
1.0
 21
0.0
 31
0.0
 44
0.9
  1
1
 40
0.1
 41
0.08
  0
MTEXT
  5
47C
100
AcDbEntity
  8
0
100
AcDbMText
 62
2
  6
CONTINUOUS
  7
TEXTSTYLE_2
 71
2
 72
1
 10
2.257
 20
0.65
 30
0.0
 11
1.0
 21
0.0
 31
0.0
 44
0.9
  1
8
 40
0.1
 41
0.08
  0
MTEXT
  5
47D
100
AcDbEntity
  8
0
100
AcDbMText
 62
2
  6
CONTINUOUS
  7
TEXTSTYLE_2
 71
2
 72
1
 10
4.757
 20
0.65
 30
0.0
 11
1.0
 21
0.0
 31
0.0
 44
0.9
  1
7
 40
0.1
 41
0.08
  0
MTEXT
  5
47E
100
AcDbEntity
  8
0
100
AcDbMText
 62
2
  6
CONTINUOUS
  7
TEXTSTYLE_2
 71
2
 72
1
 10
7.257
 20
0.65
 30
0.0
 11
1.0
 21
0.0
 31
0.0
 44
0.9
  1
6
 40
0.1
 41
0.08
  0
MTEXT
  5
47F
100
AcDbEntity
  8
0
100
AcDbMText
 62
2
  6
CONTINUOUS
  7
TEXTSTYLE_2
 71
2
 72
1
 10
9.757
 20
0.65
 30
0.0
 11
1.0
 21
0.0
 31
0.0
 44
0.9
  1
5
 40
0.1
 41
0.08
  0
MTEXT
  5
480
100
AcDbEntity
  8
0
100
AcDbMText
 62
2
  6
CONTINUOUS
  7
TEXTSTYLE_2
 71
2
 72
1
 10
9.757
 20
15.95
 30
0.0
 11
1.0
 21
0.0
 31
0.0
 44
0.9
  1
5
 40
0.1
 41
0.08
  0
MTEXT
  5
481
100
AcDbEntity
  8
0
100
AcDbMText
 62
2
  6
CONTINUOUS
  7
TEXTSTYLE_2
 71
2
 72
1
 10
7.257
 20
15.95
 30
0.0
 11
1.0
 21
0.0
 31
0.0
 44
0.9
  1
6
 40
0.1
 41
0.08
  0
MTEXT
  5
482
100
AcDbEntity
  8
0
100
AcDbMText
 62
2
  6
CONTINUOUS
  7
TEXTSTYLE_2
 71
2
 72
1
 10
4.757
 20
15.95
 30
0.0
 11
1.0
 21
0.0
 31
0.0
 44
0.9
  1
7
 40
0.1
 41
0.08
  0
MTEXT
  5
483
100
AcDbEntity
  8
0
100
AcDbMText
 62
2
  6
CONTINUOUS
  7
TEXTSTYLE_2
 71
2
 72
1
 10
2.257
 20
15.95
 30
0.0
 11
1.0
 21
0.0
 31
0.0
 44
0.9
  1
8
 40
0.1
 41
0.08
  0
MTEXT
  5
484
100
AcDbEntity
  8
0
100
AcDbMText
 62
2
  6
CONTINUOUS
  7
STANDARD
 71
1
 72
1
 10
17.2749123633
 20
0.9184107931
 30
0.0
 11
1.0
 21
0.0
 31
0.0
 44
0.9
  1
1:1
 40
0.1
 41
0.3
  0
MTEXT
  5
485
100
AcDbEntity
  8
0
100
AcDbMText
 62
2
  6
CONTINUOUS
  7
STANDARD
 71
1
 72
1
 10
19.4499123633
 20
0.9184107931
 30
0.0
 11
1.0
 21
0.0
 31
0.0
 44
0.9
  1
1 OF 1
 40
0.1
 41
0.6
  0
MTEXT
  5
486
100
AcDbEntity
  8
0
100
AcDbMText
 62
7
  6
CONTINUOUS
  7
STANDARD
 71
1
 72
1
 10
18.5204017884
 20
1.2400373234
 30
0.0
 11
1.0
 21
0.0
 31
0.0
 44
0.9
  1
161954
 40
0.12
 41
0.72
  0
MTEXT
  5
487
100
AcDbEntity
  8
0
100
AcDbMText
 62
2
  6
CONTINUOUS
  7
STANDARD
 71
1
 72
1
 10
1.7464424763
 20
1.7731130192
 30
0.0
 11
1.0
 21
0.0
 31
0.0
 44
0.9
  1
NOTES:\P1. ALL DIMENSIONS ARE MILLIMETERS [INCHES] UNLESS OTHERWISE NOTED.
 40
0.1
 41
6.6
  0
INSERT
  5
488
100
AcDbEntity
  8
0
100
AcDbBlockReference
 62
2
  6
CONTINUOUS
  2
BANNER_LOGO_TITLEBLOCK_BL0
 10
17.5778140653
 20
2.4016160549
  0
DIMENSION
  5
489
100
AcDbEntity
  8
0
100
AcDbDimension
 62
2
  6
CONTINUOUS
  2
*D0
 10
19.656431303
 20
8.3541800954
 11
19.531431303
 21
8.9505056298
 70
160
 71
2
 42
27.5
  3
DIMSTYLE_1
100
AcDbAlignedDimension
 13
18.362454609
 23
9.4368572607
 14
19.1705241742
 24
8.3541800954
 50
270.0
100
AcDbRotatedDimension
  0
DIMENSION
  5
48A
100
AcDbEntity
  8
SCHEME_DIMS
100
AcDbDimension
 62
2
  6
CONTINUOUS
  2
*D1
 10
9.5688661589
 20
8.3541800954
 11
9.4438661589
 21
10.4331165829
 70
160
 71
2
 42
93.0
  3
DIMSTYLE_2
100
AcDbAlignedDimension
 13
8.9864290075
 23
12.0155974182
 14
8.9864290075
 24
8.3541800954
 50
270.0
100
AcDbRotatedDimension
  0
DIMENSION
  5
48B
100
AcDbEntity
  8
SCHEME_DIMS
100
AcDbDimension
 62
2
  6
CONTINUOUS
  2
*D2
 10
6.7240939849
 20
9.1317391505
 11
6.5990939849
 21
8.6679596229
 70
160
 71
2
 42
19.75
  3
DIMSTYLE_2
100
AcDbAlignedDimension
 13
7.2078857004
 23
8.3541800954
 14
7.5015864878
 24
9.1317391505
 50
90.0
100
AcDbRotatedDimension
  0
DIMENSION
  5
48C
100
AcDbEntity
  8
SCHEME_DIMS
100
AcDbDimension
 62
2
  6
CONTINUOUS
  2
*D3
 10
13.998776288
 20
4.1819698504
 11
12.8501542407
 21
4.1069698504
 70
160
 71
2
 42
52.0
  3
DIMSTYLE_2
100
AcDbAlignedDimension
 13
11.9515321935
 23
4.6507886386
 14
13.998776288
 24
5.2948831268
100
AcDbRotatedDimension
  0
DIMENSION
  5
48D
100
AcDbEntity
  8
SCHEME_DIMS
100
AcDbDimension
 62
2
  6
CONTINUOUS
  2
*D4
 10
14.9436581777
 20
4.1819698504
 11
14.3462172328
 21
4.1069698504
 70
160
 71
2
 42
24.0
  3
DIMSTYLE_2
100
AcDbAlignedDimension
 13
13.998776288
 23
5.2948831268
 14
14.9436581777
 24
5.2948831268
100
AcDbRotatedDimension
  0
DIMENSION
  5
48E
100
AcDbEntity
  8
SCHEME_DIMS
100
AcDbDimension
 62
2
  6
CONTINUOUS
  2
*D5
 10
13.6365715635
 20
7.7934264994
 11
14.3383432171
 21
7.7184264994
 70
160
 71
2
 42
42.0
  3
DIMSTYLE_2
100
AcDbAlignedDimension
 13
15.2901148706
 23
8.3038848198
 14
13.6365715635
 24
8.3038848198
 50
180.0
100
AcDbRotatedDimension
  0
DIMENSION
  5
48F
100
AcDbEntity
  8
SCHEME_DIMS
100
AcDbDimension
 62
2
  6
CONTINUOUS
  2
*D6
 10
11.9515321935
 20
7.7934264994
 11
12.6690518785
 21
7.7184264994
 70
160
 71
2
 42
42.8
  3
DIMSTYLE_2
100
AcDbAlignedDimension
 13
13.6365715635
 23
8.3038848198
 14
11.9515321935
 24
8.2916800954
 50
180.0
100
AcDbRotatedDimension
  0
DIMENSION
  5
490
100
AcDbEntity
  8
SCHEME_DIMS
100
AcDbDimension
 62
2
  6
CONTINUOUS
  2
*D7
 10
11.1399612084
 20
8.3541800954
 11
10.4628064258
 21
7.9114432467
 70
160
 71
3
 42
5.75
  3
DIMSTYLE_2
100
AcDbAlignedDimension
 13
13.3598983352
 23
8.5805580481
 14
11.8890321935
 24
8.3541800954
 50
270.0
100
AcDbRotatedDimension
  0
DIMENSION
  5
491
100
AcDbEntity
  8
SCHEME_DIMS
100
AcDbDimension
 62
2
  6
CONTINUOUS
  2
*D8
 10
11.1399612084
 20
11.7892194655
 11
11.0149612084
 21
10.1098887568
 70
160
 71
2
 42
81.5
  3
DIMSTYLE_2
100
AcDbAlignedDimension
 13
13.3598983352
 23
8.5805580481
 14
13.3677723509
 24
11.7892194655
 50
90.0
100
AcDbRotatedDimension
  0
DIMENSION
  5
492
100
AcDbEntity
  8
SCHEME_DIMS
100
AcDbDimension
 62
2
  6
CONTINUOUS
  2
*D9
 10
15.3858586328
 20
8.5183595106
 11
16.3288176716
 21
8.1989066639
 70
163
 71
1
 42
5.8
  1
<>
  3
DIMSTYLE_3
100
AcDbDiametricDimension
 15
15.1943711084
 25
8.6427565857
  0
DIMENSION
  5
493
100
AcDbEntity
  8
SCHEME_DIMS
100
AcDbDimension
 62
2
  6
CONTINUOUS
  2
*D10
 10
11.9515321935
 20
12.9182771504
 11
13.6966109336
 21
12.8432771504
 70
160
 71
2
 42
95.0
  3
DIMSTYLE_2
100
AcDbAlignedDimension
 13
15.6916896738
 23
13.5866417143
 14
11.9515321935
 24
13.3295420353
 50
180.0
100
AcDbRotatedDimension
  0
DIMENSION
  5
494
100
AcDbEntity
  8
SCHEME_DIMS
100
AcDbDimension
 62
2
  6
CONTINUOUS
  2
*D11
 10
16.4317174942
 20
15.0455853424
 11
16.3067174942
 21
14.1438136889
 70
160
 71
2
 42
42.0
  3
DIMSTYLE_2
100
AcDbAlignedDimension
 13
15.7316452453
 23
13.3920420353
 14
15.7316452453
 24
15.0455853424
 50
90.0
100
AcDbRotatedDimension
  0
LINE
  5
495
100
AcDbEntity
  8
0
100
AcDbLine
 62
2
  6
CONTINUOUS
 10
21.05
 20
0.75
 11
16.7
 21
0.75
  0
LINE
  5
496
100
AcDbEntity
  8
0
100
AcDbLine
 62
2
  6
CONTINUOUS
 10
21.05
 20
0.75
 11
21.05
 21
2.67
  0
LINE
  5
497
100
AcDbEntity
  8
0
100
AcDbLine
 62
2
  6
CONTINUOUS
 10
21.05
 20
2.67
 11
16.7
 21
2.67
  0
LINE
  5
498
100
AcDbEntity
  8
0
100
AcDbLine
 62
2
  6
CONTINUOUS
 10
16.7
 20
0.75
 11
16.7
 21
2.67
  0
MTEXT
  5
499
100
AcDbEntity
  8
NOTES
100
AcDbMText
 62
7
  6
CONTINUOUS
  7
STANDARD
 71
2
 72
1
 10
20.825
 20
1.23
 30
0.0
 11
1.0
 21
0.0
 31
0.0
 44
0.9
  1
A
 40
0.1
 41
0.1
  0
MTEXT
  5
49A
100
AcDbEntity
  8
NOTES
100
AcDbMText
 62
7
  6
CONTINUOUS
  7
STANDARD
 71
2
 72
1
 10
18.875
 20
1.83
 30
0.0
 11
1.0
 21
0.0
 31
0.0
 44
0.9
  1
LT7\PWEB CAD DRAWINGS 2D/3D
 40
0.1
 41
2.2
  0
LEADER
  5
49B
100
AcDbEntity
  8
NOTES
100
AcDbLeader
 62
2
  6
CONTINUOUS
  3
STANDARD
 71
1
 72
0
 73
0
 75
0
 40
0.1
 41
0.7
 76
3
 10
18.2978683637
 20
9.451831443
 30
0.0
 10
19.1674778706
 20
9.9783588776
 30
0.0
 10
19.4174778706
 20
9.9783588776
 30
0.0
340
49C
1001
ACAD
1000
DSTYLE
1002
{
1070
77
1070
0
1002
}
  0
MTEXT
  5
49C
102
{ACAD_REACTORS
330
49B
102
}
100
AcDbEntity
  8
NOTES
100
AcDbMText
 62
2
  6
CONTINUOUS
  7
STANDARD
 71
1
 72
1
 10
19.4174778706
 20
10.0283588776
 30
0.0
 11
1.0
 21
0.0
 31
0.0
 44
0.9
  1
EMITTER\P10mm x 5mm
 40
0.1
 41
1.0
  0
LEADER
  5
49D
100
AcDbEntity
  8
NOTES
100
AcDbLeader
 62
2
  6
CONTINUOUS
  3
STANDARD
 71
1
 72
0
 73
0
 75
0
 40
0.1
 41
0.9
 76
3
 10
13.9536372622
 20
5.6093125368
 30
0.0
 10
13.4669725894
 20
6.6889552384
 30
0.0
 10
13.2169725894
 20
6.6889552384
 30
0.0
340
49E
1001
ACAD
1000
DSTYLE
1002
{
1070
77
1070
0
1002
}
  0
MTEXT
  5
49E
102
{ACAD_REACTORS
330
49D
102
}
100
AcDbEntity
  8
NOTES
100
AcDbMText
 62
2
  6
CONTINUOUS
  7
STANDARD
 71
3
 72
1
 10
13.2169725894
 20
6.7389552384
 30
0.0
 11
1.0
 21
0.0
 31
0.0
 44
0.9
  1
M5 Thread
 40
0.1
 41
0.9
  0
LINE
  5
49F
100
AcDbEntity
  8
0
100
AcDbLine
 62
2
  6
CONTINUOUS
 10
0.814
 20
8.336603
 11
0.814
 21
8.163397
  0
LINE
  5
4A0
100
AcDbEntity
  8
0
100
AcDbLine
 62
2
  6
CONTINUOUS
 10
0.964
 20
15.75
 11
0.964
 21
0.75
  0
LINE
  5
4A1
100
AcDbEntity
  8
0
100
AcDbLine
 62
7
  6
CONTINUOUS
 10
15.8276527477
 20
1.2966912523
 11
16.4340437477
 21
1.3660842523
  0
LINE
  5
4A2
100
AcDbEntity
  8
0
100
AcDbLine
 62
2
  6
CONTINUOUS
 10
10.920397
 20
0.6
 11
11.093603
 21
0.6
  0
LINE
  5
4A3
100
AcDbEntity
  8
0
100
AcDbLine
 62
2
  6
CONTINUOUS
 10
0.964
 20
0.75
 11
21.05
 21
0.75
  0
LINE
  5
4A4
100
AcDbEntity
  8
0
100
AcDbLine
 62
2
  6
CONTINUOUS
 10
3.507
 20
0.75
 11
3.507
 21
0.5
  0
LINE
  5
4A5
100
AcDbEntity
  8
0
100
AcDbLine
 62
2
  6
CONTINUOUS
 10
3.507
 20
15.75
 11
3.507
 21
16.0
  0
LINE
  5
4A6
100
AcDbEntity
  8
0
100
AcDbLine
 62
2
  6
CONTINUOUS
 10
16.7
 20
1.0
 11
21.05
 21
1.0
  0
LINE
  5
4A7
100
AcDbEntity
  8
0
100
AcDbLine
 62
7
  6
CONTINUOUS
 10
14.9008917477
 20
1.1139932523
 11
15.1229827477
 21
1.1139932523
  0
LINE
  5
4A8
100
AcDbEntity
  8
0
100
AcDbLine
 62
7
  6
CONTINUOUS
 10
15.1729827477
 20
1.1139932523
 11
15.2729827477
 21
1.1139932523
  0
LINE
  5
4A9
100
AcDbEntity
  8
0
100
AcDbLine
 62
7
  6
CONTINUOUS
 10
15.3229827477
 20
1.1139932523
 11
15.5450737477
 21
1.1139932523
  0
LINE
  5
4AA
100
AcDbEntity
  8
0
100
AcDbLine
 62
7
  6
CONTINUOUS
 10
15.7276527477
 20
1.1139932523
 11
16.0058047477
 21
1.1139932523
  0
LINE
  5
4AB
100
AcDbEntity
  8
0
100
AcDbLine
 62
7
  6
CONTINUOUS
 10
16.0558047477
 20
1.1139932523
 11
16.2058907477
 21
1.1139932523
  0
LINE
  5
4AC
100
AcDbEntity
  8
0
100
AcDbLine
 62
7
  6
CONTINUOUS
 10
16.2558907477
 20
1.1139932523
 11
16.5340437477
 21
1.1139932523
  0
LINE
  5
4AD
100
AcDbEntity
  8
0
100
AcDbLine
 62
2
  6
CONTINUOUS
 10
16.7
 20
1.37
 11
21.05
 21
1.37
  0
LINE
  5
4AE
100
AcDbEntity
  8
0
100
AcDbLine
 62
7
  6
CONTINUOUS
 10
16.4340437477
 20
0.8619022523
 11
15.8276527477
 21
0.9312952523
  0
LINE
  5
4AF
100
AcDbEntity
  8
0
100
AcDbLine
 62
2
  6
CONTINUOUS
 10
14.7
 20
1.77
 11
16.7
 21
1.77
  0
LINE
  5
4B0
100
AcDbEntity
  8
0
100
AcDbLine
 62
2
  6
CONTINUOUS
 10
16.7
 20
2.13
 11
21.05
 21
2.13
  0
LINE
  5
4B1
100
AcDbEntity
  8
0
100
AcDbLine
 62
2
  6
CONTINUOUS
 10
21.05
 20
2.67
 11
14.7
 21
2.67
  0
LINE
  5
4B2
100
AcDbEntity
  8
0
100
AcDbLine
 62
2
  6
CONTINUOUS
 10
6.007
 20
0.75
 11
6.007
 21
0.5
  0
LINE
  5
4B3
100
AcDbEntity
  8
0
100
AcDbLine
 62
2
  6
CONTINUOUS
 10
6.007
 20
15.75
 11
6.007
 21
16.0
  0
LINE
  5
4B4
100
AcDbEntity
  8
0
100
AcDbLine
 62
2
  6
CONTINUOUS
 10
0.814
 20
8.163397
 11
0.964
 21
8.25
  0
LINE
  5
4B5
100
AcDbEntity
  8
0
100
AcDbLine
 62
2
  6
CONTINUOUS
 10
0.964
 20
8.25
 11
0.814
 21
8.336603
  0
LINE
  5
4B6
100
AcDbEntity
  8
0
100
AcDbLine
 62
2
  6
CONTINUOUS
 10
0.964
 20
4.4
 11
0.714
 21
4.4
  0
LINE
  5
4B7
100
AcDbEntity
  8
0
100
AcDbLine
 62
2
  6
CONTINUOUS
 10
21.05
 20
4.4
 11
21.3
 21
4.4
  0
LINE
  5
4B8
100
AcDbEntity
  8
0
100
AcDbLine
 62
2
  6
CONTINUOUS
 10
11.093603
 20
0.6
 11
11.007
 21
0.75
  0
LINE
  5
4B9
100
AcDbEntity
  8
0
100
AcDbLine
 62
2
  6
CONTINUOUS
 10
11.007
 20
15.75
 11
11.093603
 21
15.9
  0
LINE
  5
4BA
100
AcDbEntity
  8
0
100
AcDbLine
 62
2
  6
CONTINUOUS
 10
8.507
 20
0.75
 11
8.507
 21
0.5
  0
LINE
  5
4BB
100
AcDbEntity
  8
0
100
AcDbLine
 62
2
  6
CONTINUOUS
 10
8.507
 20
15.75
 11
8.507
 21
16.0
  0
LINE
  5
4BC
100
AcDbEntity
  8
0
100
AcDbLine
 62
2
  6
CONTINUOUS
 10
11.007
 20
0.75
 11
11.007
 21
0.5
  0
LINE
  5
4BD
100
AcDbEntity
  8
0
100
AcDbLine
 62
2
  6
CONTINUOUS
 10
11.007
 20
15.75
 11
11.007
 21
16.0
  0
LINE
  5
4BE
100
AcDbEntity
  8
0
100
AcDbLine
 62
2
  6
CONTINUOUS
 10
0.964
 20
8.25
 11
0.714
 21
8.25
  0
LINE
  5
4BF
100
AcDbEntity
  8
0
100
AcDbLine
 62
2
  6
CONTINUOUS
 10
21.05
 20
8.25
 11
21.3
 21
8.25
  0
LINE
  5
4C0
100
AcDbEntity
  8
0
100
AcDbLine
 62
2
  6
CONTINUOUS
 10
13.507
 20
0.75
 11
13.507
 21
0.5
  0
LINE
  5
4C1
100
AcDbEntity
  8
0
100
AcDbLine
 62
2
  6
CONTINUOUS
 10
13.507
 20
15.75
 11
13.507
 21
16.0
  0
LINE
  5
4C2
100
AcDbEntity
  8
0
100
AcDbLine
 62
2
  6
CONTINUOUS
 10
14.7
 20
2.67
 11
14.7
 21
0.75
  0
LINE
  5
4C3
100
AcDbEntity
  8
0
100
AcDbLine
 62
2
  6
CONTINUOUS
 10
11.007
 20
0.75
 11
10.920397
 21
0.6
  0
LINE
  5
4C4
100
AcDbEntity
  8
0
100
AcDbLine
 62
2
  6
CONTINUOUS
 10
0.964
 20
12.1
 11
0.714
 21
12.1
  0
LINE
  5
4C5
100
AcDbEntity
  8
0
100
AcDbLine
 62
2
  6
CONTINUOUS
 10
21.05
 20
12.1
 11
21.3
 21
12.1
  0
LINE
  5
4C6
100
AcDbEntity
  8
0
100
AcDbLine
 62
2
  6
CONTINUOUS
 10
10.920397
 20
15.9
 11
11.007
 21
15.75
  0
LINE
  5
4C7
100
AcDbEntity
  8
0
100
AcDbLine
 62
7
  6
CONTINUOUS
 10
15.2229827477
 20
1.0139932523
 11
15.2229827477
 21
0.7919022523
  0
LINE
  5
4C8
100
AcDbEntity
  8
0
100
AcDbLine
 62
7
  6
CONTINUOUS
 10
15.2229827477
 20
1.0639932523
 11
15.2229827477
 21
1.1639932523
  0
LINE
  5
4C9
100
AcDbEntity
  8
0
100
AcDbLine
 62
7
  6
CONTINUOUS
 10
15.2229827477
 20
1.2139932523
 11
15.2229827477
 21
1.4360842523
  0
LINE
  5
4CA
100
AcDbEntity
  8
0
100
AcDbLine
 62
7
  6
CONTINUOUS
 10
15.8276527477
 20
0.9312952523
 11
15.8276527477
 21
1.2966912523
  0
LINE
  5
4CB
100
AcDbEntity
  8
0
100
AcDbLine
 62
2
  6
CONTINUOUS
 10
16.007
 20
0.75
 11
16.007
 21
0.5
  0
LINE
  5
4CC
100
AcDbEntity
  8
0
100
AcDbLine
 62
2
  6
CONTINUOUS
 10
16.007
 20
15.75
 11
16.007
 21
16.0
  0
LINE
  5
4CD
100
AcDbEntity
  8
0
100
AcDbLine
 62
7
  6
CONTINUOUS
 10
16.4340437477
 20
1.3660842523
 11
16.4340437477
 21
0.8619022523
  0
LINE
  5
4CE
100
AcDbEntity
  8
0
100
AcDbLine
 62
2
  6
CONTINUOUS
 10
21.2
 20
8.336603
 11
21.05
 21
8.25
  0
LINE
  5
4CF
100
AcDbEntity
  8
0
100
AcDbLine
 62
2
  6
CONTINUOUS
 10
21.05
 20
8.25
 11
21.2
 21
8.163397
  0
LINE
  5
4D0
100
AcDbEntity
  8
0
100
AcDbLine
 62
7
  6
CONTINUOUS
 10
16.7
 20
2.67
 11
16.7
 21
0.75
  0
LINE
  5
4D1
100
AcDbEntity
  8
0
100
AcDbLine
 62
2
  6
CONTINUOUS
 10
17.5
 20
1.37
 11
17.5
 21
1.0
  0
LINE
  5
4D2
100
AcDbEntity
  8
0
100
AcDbLine
 62
2
  6
CONTINUOUS
 10
18.507
 20
0.75
 11
18.507
 21
0.5
  0
LINE
  5
4D3
100
AcDbEntity
  8
0
100
AcDbLine
 62
2
  6
CONTINUOUS
 10
18.507
 20
15.75
 11
18.507
 21
16.0
  0
LINE
  5
4D4
100
AcDbEntity
  8
0
100
AcDbLine
 62
2
  6
CONTINUOUS
 10
21.05
 20
15.75
 11
0.964
 21
15.75
  0
LINE
  5
4D5
100
AcDbEntity
  8
0
100
AcDbLine
 62
2
  6
CONTINUOUS
 10
11.093603
 20
15.9
 11
10.920397
 21
15.9
  0
LINE
  5
4D6
100
AcDbEntity
  8
0
100
AcDbLine
 62
2
  6
CONTINUOUS
 10
18.875
 20
1.0
 11
18.875
 21
0.75
  0
LINE
  5
4D7
100
AcDbEntity
  8
0
100
AcDbLine
 62
2
  6
CONTINUOUS
 10
20.25
 20
1.37
 11
20.25
 21
1.0
  0
LINE
  5
4D8
100
AcDbEntity
  8
0
100
AcDbLine
 62
2
  6
CONTINUOUS
 10
21.05
 20
0.75
 11
21.05
 21
15.75
  0
LINE
  5
4D9
100
AcDbEntity
  8
0
100
AcDbLine
 62
2
  6
CONTINUOUS
 10
21.2
 20
8.163397
 11
21.2
 21
8.336603
  0
LINE
  5
4DA
100
AcDbEntity
  8
0
100
AcDbLine
 62
7
  6
CONTINUOUS
 10
1.9972144065
 20
12.0155974182
 11
1.6231986584
 21
11.6415816702
  0
LINE
  5
4DB
100
AcDbEntity
  8
0
100
AcDbLine
 62
7
  6
CONTINUOUS
 10
1.9267582258
 20
8.4112667095
 11
1.8279230679
 21
8.5805580481
  0
LINE
  5
4DC
100
AcDbEntity
  8
0
100
AcDbLine
 62
7
  6
CONTINUOUS
 10
1.7300361363
 20
8.5821565922
 11
1.6231986584
 21
11.6415816702
  0
LINE
  5
4DD
100
AcDbEntity
  8
0
100
AcDbLine
 62
9
  6
CONTINUOUS
 10
2.6653467981
 20
12.0155974182
 11
1.6457430869
 21
10.995993707
  0
LINE
  5
4DE
100
AcDbEntity
  8
0
100
AcDbLine
 62
7
  6
CONTINUOUS
 10
2.1227886973
 20
8.7498493867
 11
2.2216238553
 21
8.5805580481
  0
LINE
  5
4DF
100
AcDbEntity
  8
02___PRT_ALL_AXES
100
AcDbLine
 62
7
  6
CONTINUOUS
 10
5.3633561387
 20
8.3541800954
 11
5.2728049576
 21
8.3541800954
  0
LINE
  5
4E0
100
AcDbEntity
  8
0
100
AcDbLine
 62
7
  6
CONTINUOUS
 10
5.2728049576
 20
8.3541800954
 11
4.260993934
 21
8.3541800954
  0
LINE
  5
4E1
100
AcDbEntity
  8
0
100
AcDbLine
 62
7
  6
CONTINUOUS
 10
4.2413088946
 20
8.3541800954
 11
1.9661127097
 21
8.3541800954
  0
LINE
  5
4E2
100
AcDbEntity
  8
0
100
AcDbLine
 62
7
  6
CONTINUOUS
 10
4.2413088946
 20
8.3738651347
 11
4.260993934
 21
8.3738651347
  0
LINE
  5
4E3
100
AcDbEntity
  8
02___PRT_ALL_AXES
100
AcDbLine
 62
7
  6
CENTER
 10
2.0247734616
 20
8.5805580481
 11
2.0247734616
 21
8.3663848198
  0
LINE
  5
4E4
100
AcDbEntity
  8
02___PRT_ALL_AXES
100
AcDbLine
 62
7
  6
CENTER
 10
2.0247734616
 20
8.5805580481
 11
2.0247734616
 21
8.7947312765
  0
LINE
  5
4E5
100
AcDbEntity
  8
0
100
AcDbLine
 62
7
  6
CONTINUOUS
 10
3.7763320044
 20
8.4112667095
 11
3.5803015329
 21
8.4112667095
  0
LINE
  5
4E6
100
AcDbEntity
  8
0
100
AcDbLine
 62
7
  6
CONTINUOUS
 10
2.1227886973
 20
8.4112667095
 11
1.9267582258
 21
8.4112667095
  0
LINE
  5
4E7
100
AcDbEntity
  8
02___PRT_ALL_AXES
100
AcDbLine
 62
9
  6
CONTINUOUS
 10
5.3633561387
 20
8.5116604103
 11
5.2728049576
 21
8.5116604103
  0
LINE
  5
4E8
100
AcDbEntity
  8
02___PRT_ALL_AXES
100
AcDbLine
 62
7
  6
CENTER
 10
3.6783167687
 20
8.5805580481
 11
2.8665209551
 21
8.5805580481
  0
LINE
  5
4E9
100
AcDbEntity
  8
02___PRT_ALL_AXES
100
AcDbLine
 62
7
  6
CENTER
 10
2.0247734616
 20
8.5805580481
 11
1.8106002332
 21
8.5805580481
  0
LINE
  5
4EA
100
AcDbEntity
  8
02___PRT_ALL_AXES
100
AcDbLine
 62
7
  6
CENTER
 10
2.0247734616
 20
8.5805580481
 11
2.8665209551
 21
8.5805580481
  0
LINE
  5
4EB
100
AcDbEntity
  8
02___PRT_ALL_AXES
100
AcDbLine
 62
7
  6
CENTER
 10
3.6783167687
 20
8.5805580481
 11
3.892489997
 21
8.5805580481
  0
LINE
  5
4EC
100
AcDbEntity
  8
02___PRT_ALL_AXES
100
AcDbLine
 62
7
  6
CONTINUOUS
 10
5.3633561387
 20
8.6691407253
 11
5.2728049576
 21
8.6691407253
  0
LINE
  5
4ED
100
AcDbEntity
  8
02___PRT_ALL_AXES
100
AcDbLine
 62
7
  6
CONTINUOUS
 10
5.3633561387
 20
8.7380383631
 11
5.4224112568
 21
8.7380383631
  0
LINE
  5
4EE
100
AcDbEntity
  8
0
100
AcDbLine
 62
7
  6
CONTINUOUS
 10
2.3121750364
 20
8.9053611977
 11
2.3121750364
 21
10.7754399379
  0
LINE
  5
4EF
100
AcDbEntity
  8
0
100
AcDbLine
 62
7
  6
CONTINUOUS
 10
2.3121750364
 20
10.7754399379
 11
3.0011514143
 21
11.4644163158
  0
LINE
  5
4F0
100
AcDbEntity
  8
0
100
AcDbLine
 62
7
  6
CONTINUOUS
 10
1.9267582258
 20
8.7498493867
 11
2.1227886973
 21
8.7498493867
  0
LINE
  5
4F1
100
AcDbEntity
  8
0
100
AcDbLine
 62
7
  6
CONTINUOUS
 10
3.5803015329
 20
8.7498493867
 11
3.7763320044
 21
8.7498493867
  0
LINE
  5
4F2
100
AcDbEntity
  8
02___PRT_ALL_AXES
100
AcDbLine
 62
7
  6
CONTINUOUS
 10
5.4224112568
 20
8.8226840324
 11
5.5287104694
 21
8.8226840324
  0
LINE
  5
4F3
100
AcDbEntity
  8
02___PRT_ALL_AXES
100
AcDbLine
 62
7
  6
CONTINUOUS
 10
5.5287104694
 20
8.865991119
 11
5.7039073198
 21
8.865991119
  0
LINE
  5
4F4
100
AcDbEntity
  8
0
100
AcDbLine
 62
7
  6
CONTINUOUS
 10
4.1822537765
 20
8.9053611977
 11
2.3121750364
 21
8.9053611977
  0
LINE
  5
4F5
100
AcDbEntity
  8
0
100
AcDbLine
 62
7
  6
CONTINUOUS
 10
3.4735923592
 20
11.7892194655
 11
3.5724275172
 21
11.958510804
  0
LINE
  5
4F6
100
AcDbEntity
  8
02___PRT_ALL_AXES
100
AcDbLine
 62
7
  6
CENTER
 10
5.8039073198
 20
9.1317391505
 11
5.2215329373
 21
9.1317391505
  0
LINE
  5
4F7
100
AcDbEntity
  8
0
100
AcDbLine
 62
7
  6
CONTINUOUS
 10
3.5803015329
 20
8.4112667095
 11
3.481466375
 21
8.5805580481
  0
LINE
  5
4F8
100
AcDbEntity
  8
0
100
AcDbLine
 62
7
  6
CONTINUOUS
 10
1.8279230679
 20
8.5805580481
 11
1.9267582258
 21
8.7498493867
  0
LINE
  5
4F9
100
AcDbEntity
  8
02___PRT_ALL_AXES
100
AcDbLine
 62
7
  6
CONTINUOUS
 10
5.5287104694
 20
9.397487182
 11
5.7039073198
 21
9.397487182
  0
LINE
  5
4FA
100
AcDbEntity
  8
02___PRT_ALL_AXES
100
AcDbLine
 62
7
  6
CONTINUOUS
 10
5.4224112568
 20
9.4407942686
 11
5.5287104694
 21
9.4407942686
  0
LINE
  5
4FB
100
AcDbEntity
  8
0
100
AcDbLine
 62
7
  6
CONTINUOUS
 10
3.8672931466
 20
11.7892194655
 11
3.7684579887
 21
11.6199281269
  0
LINE
  5
4FC
100
AcDbEntity
  8
02___PRT_ALL_AXES
100
AcDbLine
 62
7
  6
CONTINUOUS
 10
5.3633561387
 20
9.5254399379
 11
5.4224112568
 21
9.5254399379
  0
LINE
  5
4FD
100
AcDbEntity
  8
0
100
AcDbLine
 62
7
  6
CONTINUOUS
 10
3.7763320044
 20
8.7498493867
 11
3.8751671624
 21
8.5805580481
  0
LINE
  5
4FE
100
AcDbEntity
  8
0
100
AcDbLine
 62
7
  6
CONTINUOUS
 10
2.2216238553
 20
8.5805580481
 11
2.1227886973
 21
8.4112667095
  0
LINE
  5
4FF
100
AcDbEntity
  8
02___PRT_ALL_AXES
100
AcDbLine
 62
7
  6
CENTER
 10
3.6704427529
 20
11.7892194655
 11
3.6704427529
 21
10.1546611748
  0
LINE
  5
500
100
AcDbEntity
  8
02___PRT_ALL_AXES
100
AcDbLine
 62
7
  6
CENTER
 10
3.6704427529
 20
11.7892194655
 11
3.6704427529
 21
12.0033926938
  0
LINE
  5
501
100
AcDbEntity
  8
02___PRT_ALL_AXES
100
AcDbLine
 62
7
  6
CENTER
 10
3.6783167687
 20
8.5805580481
 11
3.6783167687
 21
8.3663848198
  0
LINE
  5
502
100
AcDbEntity
  8
02___PRT_ALL_AXES
100
AcDbLine
 62
7
  6
CENTER
 10
3.6783167687
 20
8.5805580481
 11
3.6783167687
 21
10.22353074
  0
LINE
  5
503
100
AcDbEntity
  8
0
100
AcDbLine
 62
7
  6
CONTINUOUS
 10
4.1822537765
 20
11.4644163158
 11
4.1822537765
 21
8.9053611977
  0
LINE
  5
504
100
AcDbEntity
  8
0
100
AcDbLine
 62
7
  6
CONTINUOUS
 10
4.2413088946
 20
8.3541800954
 11
4.2413088946
 21
12.0155974182
  0
LINE
  5
505
100
AcDbEntity
  8
0
100
AcDbLine
 62
7
  6
CONTINUOUS
 10
4.260993934
 20
8.3541800954
 11
4.260993934
 21
12.0155974182
  0
LINE
  5
506
100
AcDbEntity
  8
0
100
AcDbLine
 62
7
  6
CONTINUOUS
 10
4.3200490521
 20
8.9053611977
 11
4.3200490521
 21
11.4644163158
  0
LINE
  5
507
100
AcDbEntity
  8
0
100
AcDbLine
 62
7
  6
CONTINUOUS
 10
3.481466375
 20
8.5805580481
 11
3.5803015329
 21
8.7498493867
  0
LINE
  5
508
100
AcDbEntity
  8
0
100
AcDbLine
 62
7
  6
CONTINUOUS
 10
3.5724275172
 20
11.6199281269
 11
3.4735923592
 21
11.7892194655
  0
LINE
  5
509
100
AcDbEntity
  8
0
100
AcDbLine
 62
7
  6
CONTINUOUS
 10
3.8751671624
 20
8.5805580481
 11
3.7763320044
 21
8.4112667095
  0
LINE
  5
50A
100
AcDbEntity
  8
0
100
AcDbLine
 62
7
  6
CONTINUOUS
 10
3.7684579887
 20
11.958510804
 11
3.8672931466
 21
11.7892194655
  0
LINE
  5
50B
100
AcDbEntity
  8
0
100
AcDbLine
 62
7
  6
CONTINUOUS
 10
3.0011514143
 20
11.4644163158
 11
4.1822537765
 21
11.4644163158
  0
LINE
  5
50C
100
AcDbEntity
  8
0
100
AcDbLine
 62
7
  6
CONTINUOUS
 10
4.3200490521
 20
11.4644163158
 11
5.3043010206
 21
11.4644163158
  0
LINE
  5
50D
100
AcDbEntity
  8
0
100
AcDbLine
 62
7
  6
CONTINUOUS
 10
5.3043010206
 20
9.8896131662
 11
4.3200490521
 21
8.9053611977
  0
LINE
  5
50E
100
AcDbEntity
  8
0
100
AcDbLine
 62
7
  6
CONTINUOUS
 10
3.7684579887
 20
11.6199281269
 11
3.5724275172
 21
11.6199281269
  0
LINE
  5
50F
100
AcDbEntity
  8
02___PRT_ALL_AXES
100
AcDbLine
 62
7
  6
CONTINUOUS
 10
5.2728049576
 20
8.3541800954
 11
5.2728049576
 21
8.6691407253
  0
LINE
  5
510
100
AcDbEntity
  8
02___PRT_ALL_AXES
100
AcDbLine
 62
7
  6
CONTINUOUS
 10
5.2728049576
 20
11.7006367883
 11
5.2728049576
 21
12.0155974182
  0
LINE
  5
511
100
AcDbEntity
  8
0
100
AcDbLine
 62
7
  6
CONTINUOUS
 10
5.3043010206
 20
11.4644163158
 11
5.3043010206
 21
9.8896131662
  0
LINE
  5
512
100
AcDbEntity
  8
02___PRT_ALL_AXES
100
AcDbLine
 62
7
  6
CONTINUOUS
 10
5.3633561387
 20
11.7006367883
 11
5.2728049576
 21
11.7006367883
  0
LINE
  5
513
100
AcDbEntity
  8
02___PRT_ALL_AXES
100
AcDbLine
 62
7
  6
CENTER
 10
3.6704427529
 20
11.7892194655
 11
3.4562695246
 21
11.7892194655
  0
LINE
  5
514
100
AcDbEntity
  8
02___PRT_ALL_AXES
100
AcDbLine
 62
7
  6
CENTER
 10
3.6704427529
 20
11.7892194655
 11
3.8846159813
 21
11.7892194655
  0
LINE
  5
515
100
AcDbEntity
  8
02___PRT_ALL_AXES
100
AcDbLine
 62
7
  6
CONTINUOUS
 10
5.3633561387
 20
8.3541800954
 11
5.3633561387
 21
12.0155974182
  0
LINE
  5
516
100
AcDbEntity
  8
02___PRT_ALL_AXES
100
AcDbLine
 62
7
  6
CONTINUOUS
 10
5.4224112568
 20
9.5254399379
 11
5.4224112568
 21
8.7380383631
  0
LINE
  5
517
100
AcDbEntity
  8
02___PRT_ALL_AXES
100
AcDbLine
 62
9
  6
CONTINUOUS
 10
5.3633561387
 20
11.8581171033
 11
5.2728049576
 21
11.8581171033
  0
LINE
  5
518
100
AcDbEntity
  8
0
100
AcDbLine
 62
7
  6
CONTINUOUS
 10
3.5724275172
 20
11.958510804
 11
3.7684579887
 21
11.958510804
  0
LINE
  5
519
100
AcDbEntity
  8
0
100
AcDbLine
 62
7
  6
CONTINUOUS
 10
4.2413088946
 20
11.9959123788
 11
4.260993934
 21
11.9959123788
  0
LINE
  5
51A
100
AcDbEntity
  8
02___PRT_ALL_AXES
100
AcDbLine
 62
7
  6
CONTINUOUS
 10
5.3633561387
 20
12.0155974182
 11
5.2728049576
 21
12.0155974182
  0
LINE
  5
51B
100
AcDbEntity
  8
0
100
AcDbLine
 62
7
  6
CONTINUOUS
 10
1.9972144065
 20
12.0155974182
 11
4.2413088946
 21
12.0155974182
  0
LINE
  5
51C
100
AcDbEntity
  8
0
100
AcDbLine
 62
7
  6
CONTINUOUS
 10
4.260993934
 20
12.0155974182
 11
5.2728049576
 21
12.0155974182
  0
LINE
  5
51D
100
AcDbEntity
  8
02___PRT_ALL_AXES
100
AcDbLine
 62
7
  6
CONTINUOUS
 10
5.5287104694
 20
9.4407942686
 11
5.5287104694
 21
8.8226840324
  0
LINE
  5
51E
100
AcDbEntity
  8
02___PRT_ALL_AXES
100
AcDbLine
 62
7
  6
CONTINUOUS
 10
5.7039073198
 20
9.3974660425
 11
5.7039073198
 21
8.8660122585
  0
LINE
  5
51F
100
AcDbEntity
  8
02___PRT_ALL_AXES
100
AcDbLine
 62
7
  6
CONTINUOUS
 10
7.2703857004
 20
8.3541800954
 11
8.9239290075
 21
8.3541800954
  0
LINE
  5
520
100
AcDbEntity
  8
02___PRT_ALL_AXES
100
AcDbLine
 62
7
  6
CONTINUOUS
 10
8.9239290075
 20
8.6691407253
 11
8.7664486925
 21
8.6691407253
  0
LINE
  5
521
100
AcDbEntity
  8
02___PRT_ALL_AXES
100
AcDbLine
 62
7
  6
CONTINUOUS
 10
7.2703857004
 20
8.6691407253
 11
7.4278660154
 21
8.6691407253
  0
LINE
  5
522
100
AcDbEntity
  8
02___PRT_ALL_AXES
100
AcDbLine
 62
7
  6
CENTER
 10
8.0971573539
 20
9.1317391505
 11
7.5640864878
 21
9.1317391505
  0
LINE
  5
523
100
AcDbEntity
  8
02___PRT_ALL_AXES
100
AcDbLine
 62
7
  6
CENTER
 10
8.0971573539
 20
9.1317391505
 11
8.6302282201
 21
9.1317391505
  0
LINE
  5
524
100
AcDbEntity
  8
02___PRT_ALL_AXES
100
AcDbLine
 62
7
  6
CONTINUOUS
 10
7.2703857004
 20
8.3541800954
 11
7.2703857004
 21
12.0155974182
  0
LINE
  5
525
100
AcDbEntity
  8
02___PRT_ALL_AXES
100
AcDbLine
 62
7
  6
CONTINUOUS
 10
7.3294408185
 20
11.554967497
 11
7.3294408185
 21
9.7636289143
  0
LINE
  5
526
100
AcDbEntity
  8
02___PRT_ALL_AXES
100
AcDbLine
 62
7
  6
CONTINUOUS
 10
7.5853463303
 20
12.0155974182
 11
7.5853463303
 21
11.8581171033
  0
LINE
  5
527
100
AcDbEntity
  8
02___PRT_ALL_AXES
100
AcDbLine
 62
7
  6
CONTINUOUS
 10
7.5853463303
 20
8.3541800954
 11
7.5853463303
 21
8.5116604103
  0
LINE
  5
528
100
AcDbEntity
  8
02___PRT_ALL_AXES
100
AcDbLine
 62
7
  6
CONTINUOUS
 10
7.408180976
 20
9.6848887568
 11
8.7861337319
 21
9.6848887568
  0
LINE
  5
529
100
AcDbEntity
  8
02___PRT_ALL_AXES
100
AcDbLine
 62
7
  6
CENTER
 10
8.0971573539
 20
9.1317391505
 11
8.0971573539
 21
8.1762987847
  0
LINE
  5
52A
100
AcDbEntity
  8
02___PRT_ALL_AXES
100
AcDbLine
 62
7
  6
CENTER
 10
8.0971573539
 20
9.1317391505
 11
8.0971573539
 21
12.2116248716
  0
LINE
  5
52B
100
AcDbEntity
  8
02___PRT_ALL_AXES
100
AcDbLine
 62
7
  6
CONTINUOUS
 10
8.6089683776
 20
12.0155974182
 11
8.6089683776
 21
11.8581171033
  0
LINE
  5
52C
100
AcDbEntity
  8
02___PRT_ALL_AXES
100
AcDbLine
 62
7
  6
CONTINUOUS
 10
8.6089683776
 20
8.3541800954
 11
8.6089683776
 21
8.5116604103
  0
LINE
  5
52D
100
AcDbEntity
  8
02___PRT_ALL_AXES
100
AcDbLine
 62
7
  6
CONTINUOUS
 10
8.8648738894
 20
9.7636289143
 11
8.8648738894
 21
11.554967497
  0
LINE
  5
52E
100
AcDbEntity
  8
02___PRT_ALL_AXES
100
AcDbLine
 62
7
  6
CONTINUOUS
 10
8.9239290075
 20
8.3541800954
 11
8.9239290075
 21
12.0155974182
  0
LINE
  5
52F
100
AcDbEntity
  8
02___PRT_ALL_AXES
100
AcDbLine
 62
7
  6
CONTINUOUS
 10
8.7861337319
 20
11.6337076544
 11
7.408180976
 21
11.6337076544
  0
LINE
  5
530
100
AcDbEntity
  8
02___PRT_ALL_AXES
100
AcDbLine
 62
7
  6
CONTINUOUS
 10
8.9239290075
 20
11.7006367883
 11
8.7664486925
 21
11.7006367883
  0
LINE
  5
531
100
AcDbEntity
  8
02___PRT_ALL_AXES
100
AcDbLine
 62
7
  6
CONTINUOUS
 10
7.2703857004
 20
11.7006367883
 11
7.4278660154
 21
11.7006367883
  0
LINE
  5
532
100
AcDbEntity
  8
02___PRT_ALL_AXES
100
AcDbLine
 62
7
  6
CONTINUOUS
 10
7.2703857004
 20
12.0155974182
 11
8.9239290075
 21
12.0155974182
  0
LINE
  5
533
100
AcDbEntity
  8
02___PRT_ALL_AXES
100
AcDbLine
 62
7
  6
CONTINUOUS
 10
11.6109810124
 20
8.8660122585
 11
11.6109810124
 21
9.3974660425
  0
LINE
  5
534
100
AcDbEntity
  8
02___PRT_ALL_AXES
100
AcDbLine
 62
7
  6
CONTINUOUS
 10
11.7861778628
 20
8.8226840324
 11
11.7861778628
 21
9.4407942686
  0
LINE
  5
535
100
AcDbEntity
  8
02___PRT_ALL_AXES
100
AcDbLine
 62
7
  6
CONTINUOUS
 10
11.9515321935
 20
8.3541800954
 11
12.0420833746
 21
8.3541800954
  0
LINE
  5
536
100
AcDbEntity
  8
0
100
AcDbLine
 62
7
  6
CONTINUOUS
 10
12.0420833746
 20
8.3541800954
 11
13.0538943982
 21
8.3541800954
  0
LINE
  5
537
100
AcDbEntity
  8
0
100
AcDbLine
 62
7
  6
CONTINUOUS
 10
13.0735794376
 20
8.3541800954
 11
15.3487756225
 21
8.3541800954
  0
LINE
  5
538
100
AcDbEntity
  8
0
100
AcDbLine
 62
7
  6
CONTINUOUS
 10
13.0538943982
 20
8.3738651347
 11
13.0735794376
 21
8.3738651347
  0
LINE
  5
539
100
AcDbEntity
  8
02___PRT_ALL_AXES
100
AcDbLine
 62
7
  6
CONTINUOUS
 10
11.8924770754
 20
8.7380383631
 11
11.8924770754
 21
9.5254399379
  0
LINE
  5
53A
100
AcDbEntity
  8
02___PRT_ALL_AXES
100
AcDbLine
 62
7
  6
CONTINUOUS
 10
11.9515321935
 20
8.3541800954
 11
11.9515321935
 21
12.0155974182
  0
LINE
  5
53B
100
AcDbEntity
  8
0
100
AcDbLine
 62
7
  6
CONTINUOUS
 10
12.0105873116
 20
11.4644163158
 11
12.0105873116
 21
9.8896131662
  0
LINE
  5
53C
100
AcDbEntity
  8
0
100
AcDbLine
 62
7
  6
CONTINUOUS
 10
13.5385563278
 20
8.4112667095
 11
13.7345867993
 21
8.4112667095
  0
LINE
  5
53D
100
AcDbEntity
  8
0
100
AcDbLine
 62
7
  6
CONTINUOUS
 10
15.1920996349
 20
8.4112667095
 11
15.3881301064
 21
8.4112667095
  0
LINE
  5
53E
100
AcDbEntity
  8
02___PRT_ALL_AXES
100
AcDbLine
 62
9
  6
CONTINUOUS
 10
11.9515321935
 20
8.5116604103
 11
12.0420833746
 21
8.5116604103
  0
LINE
  5
53F
100
AcDbEntity
  8
02___PRT_ALL_AXES
100
AcDbLine
 62
7
  6
CONTINUOUS
 10
12.0420833746
 20
8.3541800954
 11
12.0420833746
 21
8.6691407253
  0
LINE
  5
540
100
AcDbEntity
  8
02___PRT_ALL_AXES
100
AcDbLine
 62
7
  6
CONTINUOUS
 10
12.0420833746
 20
11.7006367883
 11
12.0420833746
 21
12.0155974182
  0
LINE
  5
541
100
AcDbEntity
  8
02___PRT_ALL_AXES
100
AcDbLine
 62
7
  6
CENTER
 10
15.2901148706
 20
8.5805580481
 11
14.4515662493
 21
8.5805580481
  0
LINE
  5
542
100
AcDbEntity
  8
02___PRT_ALL_AXES
100
AcDbLine
 62
7
  6
CENTER
 10
13.6365715635
 20
8.5805580481
 11
13.4223983352
 21
8.5805580481
  0
LINE
  5
543
100
AcDbEntity
  8
02___PRT_ALL_AXES
100
AcDbLine
 62
7
  6
CENTER
 10
13.6365715635
 20
8.5805580481
 11
14.4515662493
 21
8.5805580481
  0
LINE
  5
544
100
AcDbEntity
  8
02___PRT_ALL_AXES
100
AcDbLine
 62
7
  6
CENTER
 10
15.2901148706
 20
8.5805580481
 11
15.504288099
 21
8.5805580481
  0
LINE
  5
545
100
AcDbEntity
  8
02___PRT_ALL_AXES
100
AcDbLine
 62
7
  6
CONTINUOUS
 10
11.9515321935
 20
8.6691407253
 11
12.0420833746
 21
8.6691407253
  0
LINE
  5
546
100
AcDbEntity
  8
02___PRT_ALL_AXES
100
AcDbLine
 62
7
  6
CONTINUOUS
 10
11.9515321935
 20
8.7380383631
 11
11.8924770754
 21
8.7380383631
  0
LINE
  5
547
100
AcDbEntity
  8
0
100
AcDbLine
 62
7
  6
CONTINUOUS
 10
15.3881301064
 20
8.7498493867
 11
15.1920996349
 21
8.7498493867
  0
LINE
  5
548
100
AcDbEntity
  8
0
100
AcDbLine
 62
7
  6
CONTINUOUS
 10
13.7345867993
 20
8.7498493867
 11
13.5385563278
 21
8.7498493867
  0
LINE
  5
549
100
AcDbEntity
  8
02___PRT_ALL_AXES
100
AcDbLine
 62
7
  6
CONTINUOUS
 10
11.8924770754
 20
8.8226840324
 11
11.7861778628
 21
8.8226840324
  0
LINE
  5
54A
100
AcDbEntity
  8
02___PRT_ALL_AXES
100
AcDbLine
 62
7
  6
CONTINUOUS
 10
11.7861778628
 20
8.865991119
 11
11.6109810124
 21
8.865991119
  0
LINE
  5
54B
100
AcDbEntity
  8
0
100
AcDbLine
 62
7
  6
CONTINUOUS
 10
13.1326345557
 20
8.9053611977
 11
15.0027132958
 21
8.9053611977
  0
LINE
  5
54C
100
AcDbEntity
  8
0
100
AcDbLine
 62
7
  6
CONTINUOUS
 10
12.0105873116
 20
9.8896131662
 11
12.9948392801
 21
8.9053611977
  0
LINE
  5
54D
100
AcDbEntity
  8
0
100
AcDbLine
 62
7
  6
CONTINUOUS
 10
13.5464303435
 20
11.958510804
 11
13.4475951856
 21
11.7892194655
  0
LINE
  5
54E
100
AcDbEntity
  8
02___PRT_ALL_AXES
100
AcDbLine
 62
7
  6
CENTER
 10
11.5064614671
 20
9.1317391505
 11
12.1302723509
 21
9.1317391505
  0
LINE
  5
54F
100
AcDbEntity
  8
0
100
AcDbLine
 62
7
  6
CONTINUOUS
 10
13.4397211698
 20
8.5805580481
 11
13.5385563278
 21
8.4112667095
  0
LINE
  5
550
100
AcDbEntity
  8
02___PRT_ALL_AXES
100
AcDbLine
 62
7
  6
CONTINUOUS
 10
11.7861778628
 20
9.397487182
 11
11.6109810124
 21
9.397487182
  0
LINE
  5
551
100
AcDbEntity
  8
02___PRT_ALL_AXES
100
AcDbLine
 62
7
  6
CONTINUOUS
 10
11.8924770754
 20
9.4407942686
 11
11.7861778628
 21
9.4407942686
  0
LINE
  5
552
100
AcDbEntity
  8
0
100
AcDbLine
 62
7
  6
CONTINUOUS
 10
12.9948392801
 20
8.9053611977
 11
12.9948392801
 21
11.4644163158
  0
LINE
  5
553
100
AcDbEntity
  8
0
100
AcDbLine
 62
7
  6
CONTINUOUS
 10
13.0538943982
 20
8.3541800954
 11
13.0538943982
 21
12.0155974182
  0
LINE
  5
554
100
AcDbEntity
  8
0
100
AcDbLine
 62
7
  6
CONTINUOUS
 10
13.0735794376
 20
8.3541800954
 11
13.0735794376
 21
12.0155974182
  0
LINE
  5
555
100
AcDbEntity
  8
0
100
AcDbLine
 62
7
  6
CONTINUOUS
 10
13.7424608151
 20
11.6199281269
 11
13.841295973
 21
11.7892194655
  0
LINE
  5
556
100
AcDbEntity
  8
02___PRT_ALL_AXES
100
AcDbLine
 62
7
  6
CONTINUOUS
 10
11.9515321935
 20
9.5254399379
 11
11.8924770754
 21
9.5254399379
  0
LINE
  5
557
100
AcDbEntity
  8
0
100
AcDbLine
 62
7
  6
CONTINUOUS
 10
13.8334219572
 20
8.5805580481
 11
13.7345867993
 21
8.7498493867
  0
LINE
  5
558
100
AcDbEntity
  8
0
100
AcDbLine
 62
7
  6
CONTINUOUS
 10
13.1326345557
 20
11.4644163158
 11
13.1326345557
 21
8.9053611977
  0
LINE
  5
559
100
AcDbEntity
  8
02___PRT_ALL_AXES
100
AcDbLine
 62
7
  6
CENTER
 10
13.6365715635
 20
8.5805580481
 11
13.6365715635
 21
8.3663848198
  0
LINE
  5
55A
100
AcDbEntity
  8
02___PRT_ALL_AXES
100
AcDbLine
 62
7
  6
CENTER
 10
13.6365715635
 20
8.5805580481
 11
13.6365715635
 21
10.2579655226
  0
LINE
  5
55B
100
AcDbEntity
  8
02___PRT_ALL_AXES
100
AcDbLine
 62
7
  6
CENTER
 10
13.6444455793
 20
11.7892194655
 11
13.6444455793
 21
10.1890959574
  0
LINE
  5
55C
100
AcDbEntity
  8
02___PRT_ALL_AXES
100
AcDbLine
 62
7
  6
CENTER
 10
13.6444455793
 20
11.7892194655
 11
13.6444455793
 21
12.0033926938
  0
LINE
  5
55D
100
AcDbEntity
  8
0
100
AcDbLine
 62
7
  6
CONTINUOUS
 10
15.0932644769
 20
8.5805580481
 11
15.1920996349
 21
8.4112667095
  0
LINE
  5
55E
100
AcDbEntity
  8
0
100
AcDbLine
 62
7
  6
CONTINUOUS
 10
13.5385563278
 20
8.7498493867
 11
13.4397211698
 21
8.5805580481
  0
LINE
  5
55F
100
AcDbEntity
  8
0
100
AcDbLine
 62
7
  6
CONTINUOUS
 10
13.4475951856
 20
11.7892194655
 11
13.5464303435
 21
11.6199281269
  0
LINE
  5
560
100
AcDbEntity
  8
0
100
AcDbLine
 62
7
  6
CONTINUOUS
 10
15.4869652643
 20
8.5805580481
 11
15.3881301064
 21
8.7498493867
  0
LINE
  5
561
100
AcDbEntity
  8
0
100
AcDbLine
 62
7
  6
CONTINUOUS
 10
13.7345867993
 20
8.4112667095
 11
13.8334219572
 21
8.5805580481
  0
LINE
  5
562
100
AcDbEntity
  8
0
100
AcDbLine
 62
7
  6
CONTINUOUS
 10
13.841295973
 20
11.7892194655
 11
13.7424608151
 21
11.958510804
  0
LINE
  5
563
100
AcDbEntity
  8
0
100
AcDbLine
 62
7
  6
CONTINUOUS
 10
14.3137369179
 20
11.4644163158
 11
13.1326345557
 21
11.4644163158
  0
LINE
  5
564
100
AcDbEntity
  8
0
100
AcDbLine
 62
7
  6
CONTINUOUS
 10
12.9948392801
 20
11.4644163158
 11
12.0105873116
 21
11.4644163158
  0
LINE
  5
565
100
AcDbEntity
  8
0
100
AcDbLine
 62
7
  6
CONTINUOUS
 10
15.0027132958
 20
8.9053611977
 11
15.0027132958
 21
10.7754399379
  0
LINE
  5
566
100
AcDbEntity
  8
0
100
AcDbLine
 62
7
  6
CONTINUOUS
 10
13.5464303435
 20
11.6199281269
 11
13.7424608151
 21
11.6199281269
  0
LINE
  5
567
100
AcDbEntity
  8
0
100
AcDbLine
 62
7
  6
CONTINUOUS
 10
15.0027132958
 20
10.7754399379
 11
14.3137369179
 21
11.4644163158
  0
LINE
  5
568
100
AcDbEntity
  8
02___PRT_ALL_AXES
100
AcDbLine
 62
7
  6
CENTER
 10
15.2901148706
 20
8.5805580481
 11
15.2901148706
 21
8.3663848198
  0
LINE
  5
569
100
AcDbEntity
  8
02___PRT_ALL_AXES
100
AcDbLine
 62
7
  6
CENTER
 10
15.2901148706
 20
8.5805580481
 11
15.2901148706
 21
8.7947312765
  0
LINE
  5
56A
100
AcDbEntity
  8
02___PRT_ALL_AXES
100
AcDbLine
 62
7
  6
CONTINUOUS
 10
11.9515321935
 20
11.7006367883
 11
12.0420833746
 21
11.7006367883
  0
LINE
  5
56B
100
AcDbEntity
  8
02___PRT_ALL_AXES
100
AcDbLine
 62
7
  6
CENTER
 10
13.6444455793
 20
11.7892194655
 11
13.4302723509
 21
11.7892194655
  0
LINE
  5
56C
100
AcDbEntity
  8
02___PRT_ALL_AXES
100
AcDbLine
 62
7
  6
CENTER
 10
13.6444455793
 20
11.7892194655
 11
13.8586188076
 21
11.7892194655
  0
LINE
  5
56D
100
AcDbEntity
  8
02___PRT_ALL_AXES
100
AcDbLine
 62
9
  6
CONTINUOUS
 10
11.9515321935
 20
11.8581171033
 11
12.0420833746
 21
11.8581171033
  0
LINE
  5
56E
100
AcDbEntity
  8
0
100
AcDbLine
 62
7
  6
CONTINUOUS
 10
13.7424608151
 20
11.958510804
 11
13.5464303435
 21
11.958510804
  0
LINE
  5
56F
100
AcDbEntity
  8
0
100
AcDbLine
 62
7
  6
CONTINUOUS
 10
13.0538943982
 20
11.9959123788
 11
13.0735794376
 21
11.9959123788
  0
LINE
  5
570
100
AcDbEntity
  8
0
100
AcDbLine
 62
7
  6
CONTINUOUS
 10
13.0538943982
 20
12.0155974182
 11
12.0420833746
 21
12.0155974182
  0
LINE
  5
571
100
AcDbEntity
  8
02___PRT_ALL_AXES
100
AcDbLine
 62
7
  6
CONTINUOUS
 10
11.9515321935
 20
12.0155974182
 11
12.0420833746
 21
12.0155974182
  0
LINE
  5
572
100
AcDbEntity
  8
0
100
AcDbLine
 62
7
  6
CONTINUOUS
 10
13.0735794376
 20
12.0155974182
 11
15.3176739257
 21
12.0155974182
  0
LINE
  5
573
100
AcDbEntity
  8
0
100
AcDbLine
 62
7
  6
CONTINUOUS
 10
15.5848521959
 20
8.5821565922
 11
15.6916896738
 21
11.6415816702
  0
LINE
  5
574
100
AcDbEntity
  8
0
100
AcDbLine
 62
9
  6
CONTINUOUS
 10
15.6691452453
 20
10.995993707
 11
14.6495415341
 21
12.0155974182
  0
LINE
  5
575
100
AcDbEntity
  8
0
100
AcDbLine
 62
7
  6
CONTINUOUS
 10
15.1920996349
 20
8.7498493867
 11
15.0932644769
 21
8.5805580481
  0
LINE
  5
576
100
AcDbEntity
  8
0
100
AcDbLine
 62
7
  6
CONTINUOUS
 10
15.3881301064
 20
8.4112667095
 11
15.4869652643
 21
8.5805580481
  0
LINE
  5
577
100
AcDbEntity
  8
0
100
AcDbLine
 62
7
  6
CONTINUOUS
 10
15.6916896738
 20
11.6415816702
 11
15.3176739257
 21
12.0155974182
  0
LINE
  5
578
100
AcDbEntity
  8
0
100
AcDbLine
 62
7
  6
CONTINUOUS
 10
17.44525586
 20
8.3541800954
 11
19.0987991671
 21
8.3541800954
  0
LINE
  5
579
100
AcDbEntity
  8
02___PRT_ALL_AXES
100
AcDbLine
 62
7
  6
CONTINUOUS
 10
17.7208464112
 20
8.5380383631
 11
18.8232086159
 21
8.5380383631
  0
LINE
  5
57A
100
AcDbEntity
  8
02___PRT_ALL_AXES
100
AcDbLine
 62
9
  6
CONTINUOUS
 10
17.44525586
 20
8.5821565922
 11
17.6501262976
 21
8.5821565922
  0
LINE
  5
57B
100
AcDbEntity
  8
02___PRT_ALL_AXES
100
AcDbLine
 62
9
  6
CONTINUOUS
 10
18.8939287296
 20
8.5821565922
 11
19.0987991671
 21
8.5821565922
  0
LWPOLYLINE
  5
57C
100
AcDbEntity
  8
02___PRT_ALL_AXES
100
AcDbPolyline
 62
7
  6
CONTINUOUS
 90
8
 70
0
 10
18.5554920805
 20
8.7940256741
 10
18.6650004142
 20
8.8063567836
 10
18.7690175427
 20
8.8427317789
 10
18.8623276129
 20
8.9013266658
 10
18.9402516683
 20
8.979203252
 10
18.9988822714
 20
9.0724564802
 10
19.0352794389
 20
9.1764102443
 10
19.0472897935
 20
9.2829401551
  0
LWPOLYLINE
  5
57D
100
AcDbEntity
  8
02___PRT_ALL_AXES
100
AcDbPolyline
 62
7
  6
CONTINUOUS
 90
8
 70
0
 10
18.5554920805
 20
8.7919646802
 10
18.6515010973
 20
8.8014149826
 10
18.7438205413
 20
8.82940272
 10
18.8289026283
 20
8.8748523394
 10
18.9034777012
 20
8.9360172373
 10
18.9646798818
 20
9.0105468811
 10
19.0101572048
 20
9.0955771383
 10
19.038162002
 20
9.1878403439
  0
LWPOLYLINE
  5
57E
100
AcDbEntity
  8
0
100
AcDbPolyline
 62
7
  6
CONTINUOUS
 90
9
 70
0
 10
18.5554920805
 20
8.7998338993
 10
18.6499651524
 20
8.8091330365
 10
18.7408080331
 20
8.8366732397
 10
18.8245282287
 20
8.8813954689
 10
18.8979099312
 20
8.9415816155
 10
18.958132764
 20
9.0149186159
 10
19.0028822533
 20
9.0985878115
 10
19.0304392436
 20
9.1893753531
 10
19.039744049
 20
9.2837908745
  0
LINE
  5
57F
100
AcDbEntity
  8
02___PRT_ALL_AXES
100
AcDbLine
 62
7
  6
CONTINUOUS
 10
18.8232086159
 20
8.7545737962
 11
17.7208464112
 21
8.7545737962
  0
LINE
  5
580
100
AcDbEntity
  8
02___PRT_ALL_AXES
100
AcDbLine
 62
7
  6
CONTINUOUS
 10
17.9885629467
 20
8.7919646802
 11
18.5554920805
 21
8.7919646802
  0
LINE
  5
581
100
AcDbEntity
  8
02___PRT_ALL_AXES
100
AcDbLine
 62
7
  6
CONTINUOUS
 10
17.9885629467
 20
8.7940256741
 11
18.5554920805
 21
8.7940256741
  0
LINE
  5
582
100
AcDbEntity
  8
0
100
AcDbLine
 62
7
  6
CONTINUOUS
 10
17.9885629467
 20
8.7998338993
 11
18.5554920805
 21
8.7998338993
  0
LINE
  5
583
100
AcDbEntity
  8
02___PRT_ALL_AXES
100
AcDbLine
 62
7
  6
CONTINUOUS
 10
17.8925539299
 20
8.8014149826
 11
17.9885629467
 21
8.7919646802
  0
LWPOLYLINE
  5
584
100
AcDbEntity
  8
02___PRT_ALL_AXES
100
AcDbPolyline
 62
7
  6
CONTINUOUS
 90
8
 70
0
 10
17.4964369624
 20
9.2837908745
 10
17.5058930252
 20
9.1878403439
 10
17.5338978224
 20
9.0955771383
 10
17.5793751453
 20
9.0105468811
 10
17.640577326
 20
8.9360172373
 10
17.7151523989
 20
8.8748523394
 10
17.8002344858
 20
8.82940272
 10
17.8925539299
 20
8.8014149826
  0
LWPOLYLINE
  5
585
100
AcDbEntity
  8
0
100
AcDbPolyline
 62
7
  6
CONTINUOUS
 90
9
 70
0
 10
17.5043109782
 20
9.2837908745
 10
17.5136157836
 20
9.1893753531
 10
17.5411727738
 20
9.0985878115
 10
17.5859222632
 20
9.0149186159
 10
17.6461450959
 20
8.9415816155
 10
17.7195267985
 20
8.8813954689
 10
17.8032469941
 20
8.8366732397
 10
17.8940898748
 20
8.8091330365
 10
17.9885629467
 20
8.7998338993
  0
LINE
  5
586
100
AcDbEntity
  8
0
100
AcDbLine
 62
7
  6
CONTINUOUS
 10
17.44525586
 20
8.3541800954
 11
17.44525586
 21
12.0155974182
  0
LINE
  5
587
100
AcDbEntity
  8
02___PRT_ALL_AXES
100
AcDbLine
 62
7
  6
CONTINUOUS
 10
17.5058930252
 20
11.2250732866
 11
17.4964369624
 21
11.1291227559
  0
LINE
  5
588
100
AcDbEntity
  8
0
100
AcDbLine
 62
7
  6
CONTINUOUS
 10
17.5136157439
 20
11.225599072
 11
17.5043109782
 21
11.1291227559
  0
LWPOLYLINE
  5
589
100
AcDbEntity
  8
02___PRT_ALL_AXES
100
AcDbPolyline
 62
7
  6
CONTINUOUS
 90
8
 70
0
 10
17.4967652337
 20
9.2829401551
 10
17.5087755883
 20
9.1764102443
 10
17.5451727558
 20
9.0724564802
 10
17.6038033588
 20
8.979203252
 10
17.6817274142
 20
8.9013266658
 10
17.7750374845
 20
8.8427317789
 10
17.879054613
 20
8.8063567836
 10
17.9885629467
 20
8.7940256741
  0
LINE
  5
58A
100
AcDbEntity
  8
02___PRT_ALL_AXES
100
AcDbLine
 62
7
  6
CONTINUOUS
 10
17.4964369624
 20
11.1291227559
 11
17.4964369624
 21
9.2837908745
  0
LINE
  5
58B
100
AcDbEntity
  8
0
100
AcDbLine
 62
7
  6
CONTINUOUS
 10
17.5043109782
 20
11.1291227559
 11
17.5043109782
 21
9.2837908745
  0
LINE
  5
58C
100
AcDbEntity
  8
02___PRT_ALL_AXES
100
AcDbLine
 62
7
  6
CONTINUOUS
 10
17.6421062537
 20
8.6758336387
 11
17.6421062537
 21
8.6167785206
  0
LINE
  5
58D
100
AcDbEntity
  8
0
100
AcDbLine
 62
9
  6
CONTINUOUS
 10
17.9176968049
 20
11.6415816702
 11
17.9176968049
 21
12.0155974182
  0
LINE
  5
58E
100
AcDbEntity
  8
0
100
AcDbLine
 62
9
  6
CONTINUOUS
 10
17.9885629467
 20
11.6151407251
 11
17.9885629467
 21
11.6130797312
  0
LINE
  5
58F
100
AcDbEntity
  8
02___PRT_ALL_AXES
100
AcDbLine
 62
9
  6
CONTINUOUS
 10
17.9885629467
 20
8.7919646802
 11
17.9885629467
 21
8.7940256741
  0
LWPOLYLINE
  5
590
100
AcDbEntity
  8
03___PRT_ALL_CURVES
100
AcDbPolyline
 62
4
  6
CONTINUOUS
 90
17
 70
0
 10
18.2421569745
 20
9.4368572607
 10
18.2427258543
 20
9.4310589103
 10
18.2444108251
 20
9.4254814172
 10
18.2471477071
 20
9.4203372265
 10
18.2509058528
 20
9.4157484667
 10
18.2554106636
 20
9.4120504275
 10
18.2605484051
 20
9.4092972729
 10
18.2661233823
 20
9.4075938696
 10
18.2720275136
 20
9.4070049179
 10
18.2778293984
 20
9.4075734512
 10
18.2834102912
 20
9.4092573956
 10
18.2885576175
 20
9.4119926103
 10
18.2931491744
 20
9.4157484667
 10
18.2968494677
 20
9.4202505333
 10
18.2996043005
 20
9.425385145
 10
18.301308742
 20
9.4309567261
 10
18.3018980527
 20
9.4368572633
  0
LWPOLYLINE
  5
591
100
AcDbEntity
  8
03___PRT_ALL_CURVES
100
AcDbPolyline
 62
4
  6
CONTINUOUS
 90
17
 70
0
 10
18.3018980527
 20
9.4368572607
 10
18.3013291729
 20
9.4426556112
 10
18.299644202
 20
9.4482331042
 10
18.2969073201
 20
9.453377295
 10
18.2931491744
 20
9.4579660547
 10
18.2886443635
 20
9.461664094
 10
18.2835066221
 20
9.4644172486
 10
18.2779316449
 20
9.4661206519
 10
18.2720275136
 20
9.4667096035
 10
18.2662256288
 20
9.4661410703
 10
18.260644736
 20
9.4644571258
 10
18.2554974097
 20
9.4617219111
 10
18.2509058528
 20
9.4579660547
 10
18.2472055595
 20
9.4534639881
 10
18.2444507267
 20
9.4483293764
 10
18.2427462851
 20
9.4427577954
 10
18.2421569745
 20
9.4368572581
  0
LINE
  5
592
100
AcDbEntity
  8
02___PRT_ALL_AXES
100
AcDbLine
 62
7
  6
CENTER
 10
18.2720275136
 20
8.2541800954
 11
18.2720275136
 21
12.0930184783
  0
LINE
  5
593
100
AcDbEntity
  8
0
100
AcDbLine
 62
9
  6
CONTINUOUS
 10
18.5554920805
 20
11.6151407251
 11
18.5554920805
 21
11.6130797312
  0
LINE
  5
594
100
AcDbEntity
  8
02___PRT_ALL_AXES
100
AcDbLine
 62
9
  6
CONTINUOUS
 10
18.5554920805
 20
8.7919646802
 11
18.5554920805
 21
8.7940256741
  0
LINE
  5
595
100
AcDbEntity
  8
0
100
AcDbLine
 62
9
  6
CONTINUOUS
 10
18.6263582222
 20
12.0155974182
 11
18.6263582222
 21
11.6415816702
  0
LINE
  5
596
100
AcDbEntity
  8
02___PRT_ALL_AXES
100
AcDbLine
 62
7
  6
CONTINUOUS
 10
18.9019487734
 20
8.6167785206
 11
18.9019487734
 21
8.6758336387
  0
LINE
  5
597
100
AcDbEntity
  8
0
100
AcDbLine
 62
7
  6
CONTINUOUS
 10
19.039744049
 20
9.2837908745
 11
19.039744049
 21
11.1291227559
  0
LINE
  5
598
100
AcDbEntity
  8
02___PRT_ALL_AXES
100
AcDbLine
 62
7
  6
CONTINUOUS
 10
19.0476180648
 20
9.2837908745
 11
19.0476180648
 21
11.1291227559
  0
LWPOLYLINE
  5
599
100
AcDbEntity
  8
0
100
AcDbPolyline
 62
7
  6
CONTINUOUS
 90
9
 70
0
 10
19.039744049
 20
11.1291227559
 10
19.0304392832
 20
11.225599072
 10
19.0028825628
 20
11.3163860663
 10
18.958132877
 20
11.4000558394
 10
18.8979099312
 20
11.4733930089
 10
18.8245280595
 20
11.5335792684
 10
18.740807286
 20
11.5783016939
 10
18.649964953
 20
11.6058416275
 10
18.5554920805
 20
11.6151407251
  0
LWPOLYLINE
  5
59A
100
AcDbEntity
  8
02___PRT_ALL_AXES
100
AcDbPolyline
 62
7
  6
CONTINUOUS
 90
8
 70
0
 10
19.0476180648
 20
11.1291227559
 10
19.038162002
 20
11.2250732866
 10
19.0101572048
 20
11.3173364921
 10
18.9646798818
 20
11.4023667494
 10
18.9034777012
 20
11.4768963932
 10
18.8289026283
 20
11.5380612911
 10
18.7438205413
 20
11.5835109105
 10
18.6515010973
 20
11.6114986479
  0
LINE
  5
59B
100
AcDbEntity
  8
0
100
AcDbLine
 62
7
  6
CONTINUOUS
 10
19.0987991671
 20
8.3541800954
 11
19.0987991671
 21
12.0155974182
  0
LINE
  5
59C
100
AcDbEntity
  8
02___PRT_ALL_AXES
100
AcDbLine
 62
7
  6
CONTINUOUS
 10
19.038162002
 20
9.1878403439
 11
19.0476180648
 21
9.2837908745
  0
LWPOLYLINE
  5
59D
100
AcDbEntity
  8
0
100
AcDbPolyline
 62
7
  6
CONTINUOUS
 90
8
 70
0
 10
19.0304392436
 20
11.2235382774
 10
19.0028822533
 20
11.314325819
 10
18.958132764
 20
11.3979950146
 10
18.8979099312
 20
11.471332015
 10
18.8245282287
 20
11.5315181616
 10
18.7408080331
 20
11.5762403907
 10
18.6499651524
 20
11.603780594
 10
18.5554920805
 20
11.6130797312
  0
LWPOLYLINE
  5
59E
100
AcDbEntity
  8
0
100
AcDbPolyline
 62
7
  6
CONTINUOUS
 90
8
 70
0
 10
17.9885629467
 20
11.6130797312
 10
17.8940898748
 20
11.603780594
 10
17.8032469941
 20
11.5762403907
 10
17.7195267985
 20
11.5315181616
 10
17.6461450959
 20
11.471332015
 10
17.5859222632
 20
11.3979950146
 10
17.5411727738
 20
11.314325819
 10
17.5136157836
 20
11.2235382774
  0
LWPOLYLINE
  5
59F
100
AcDbEntity
  8
0
100
AcDbPolyline
 62
7
  6
CONTINUOUS
 90
8
 70
0
 10
17.9885629467
 20
11.6151407251
 10
17.8940900742
 20
11.6058416275
 10
17.8032477412
 20
11.5783016939
 10
17.7195269677
 20
11.5335792684
 10
17.6461450959
 20
11.4733930089
 10
17.5859221501
 20
11.4000558394
 10
17.5411724644
 20
11.3163860663
 10
17.5136157439
 20
11.225599072
  0
LWPOLYLINE
  5
5A0
100
AcDbEntity
  8
02___PRT_ALL_AXES
100
AcDbPolyline
 62
7
  6
CONTINUOUS
 90
8
 70
0
 10
17.9885629467
 20
11.6209489503
 10
17.8925539299
 20
11.6114986479
 10
17.8002344858
 20
11.5835109105
 10
17.7151523989
 20
11.5380612911
 10
17.640577326
 20
11.4768963932
 10
17.5793751453
 20
11.4023667494
 10
17.5338978224
 20
11.3173364921
 10
17.5058930252
 20
11.2250732866
  0
LINE
  5
5A1
100
AcDbEntity
  8
0
100
AcDbLine
 62
7
  6
CONTINUOUS
 10
18.5554920805
 20
11.6130797312
 11
17.9885629467
 21
11.6130797312
  0
LINE
  5
5A2
100
AcDbEntity
  8
0
100
AcDbLine
 62
7
  6
CONTINUOUS
 10
18.5554920805
 20
11.6151407251
 11
17.9885629467
 21
11.6151407251
  0
LINE
  5
5A3
100
AcDbEntity
  8
02___PRT_ALL_AXES
100
AcDbLine
 62
7
  6
CONTINUOUS
 10
18.5554920805
 20
11.6209489503
 11
17.9885629467
 21
11.6209489503
  0
LINE
  5
5A4
100
AcDbEntity
  8
0
100
AcDbLine
 62
7
  6
CONTINUOUS
 10
18.6263582222
 20
11.6415816702
 11
17.9176968049
 21
11.6415816702
  0
LINE
  5
5A5
100
AcDbEntity
  8
02___PRT_ALL_AXES
100
AcDbLine
 62
7
  6
CONTINUOUS
 10
18.6515010973
 20
11.6114986479
 11
18.5554920805
 21
11.6209489503
  0
LINE
  5
5A6
100
AcDbEntity
  8
0
100
AcDbLine
 62
7
  6
CONTINUOUS
 10
17.44525586
 20
12.0155974182
 11
19.0987991671
 21
12.0155974182
  0
LINE
  5
5A7
100
AcDbEntity
  8
02___PRT_ALL_AXES
100
AcDbLine
 62
7
  6
CONTINUOUS
 10
11.6109810124
 20
5.2743122606
 11
11.6109810124
 21
5.8058083236
  0
LINE
  5
5A8
100
AcDbEntity
  8
02___PRT_ALL_AXES
100
AcDbLine
 62
7
  6
CONTINUOUS
 10
11.7861778628
 20
5.231005174
 11
11.7861778628
 21
5.8491154102
  0
LINE
  5
5A9
100
AcDbEntity
  8
02___PRT_ALL_AXES
100
AcDbLine
 62
7
  6
CONTINUOUS
 10
11.8924770754
 20
5.1463595047
 11
11.8924770754
 21
5.9337610795
  0
LINE
  5
5AA
100
AcDbEntity
  8
02___PRT_ALL_AXES
100
AcDbLine
 62
7
  6
CONTINUOUS
 10
11.9515321935
 20
4.7132886386
 11
11.9515321935
 21
6.3668319457
  0
LINE
  5
5AB
100
AcDbEntity
  8
02___PRT_ALL_AXES
100
AcDbLine
 62
7
  6
CONTINUOUS
 10
12.0420833746
 20
4.7132886386
 11
12.0420833746
 21
5.0282492685
  0
LINE
  5
5AC
100
AcDbEntity
  8
02___PRT_ALL_AXES
100
AcDbLine
 62
7
  6
CONTINUOUS
 10
12.0420833746
 20
6.0518713157
 11
12.0420833746
 21
6.3668319457
  0
LINE
  5
5AD
100
AcDbEntity
  8
02___PRT_ALL_AXES
100
AcDbLine
 62
7
  6
CONTINUOUS
 10
11.9515321935
 20
4.7132886386
 11
12.0420833746
 21
4.7132886386
  0
LINE
  5
5AE
100
AcDbEntity
  8
0
100
AcDbLine
 62
7
  6
CONTINUOUS
 10
12.0420833746
 20
4.7132886386
 11
13.0538943982
 21
4.7132886386
  0
LINE
  5
5AF
100
AcDbEntity
  8
0
100
AcDbLine
 62
7
  6
CONTINUOUS
 10
13.0735794376
 20
4.7132886386
 11
15.6691452453
 21
4.7132886386
  0
LINE
  5
5B0
100
AcDbEntity
  8
0
100
AcDbLine
 62
7
  6
CONTINUOUS
 10
13.0735794376
 20
4.7329736779
 11
13.0538943982
 21
4.7329736779
  0
LINE
  5
5B1
100
AcDbEntity
  8
02___PRT_ALL_AXES
100
AcDbLine
 62
7
  6
CONTINUOUS
 10
15.6093538049
 20
4.7644697409
 11
15.6737942142
 21
4.7644697409
  0
LINE
  5
5B2
100
AcDbEntity
  8
0
100
AcDbLine
 62
7
  6
CONTINUOUS
 10
15.6065637219
 20
4.7723437567
 11
15.6737942142
 21
4.7723437567
  0
LINE
  5
5B3
100
AcDbEntity
  8
0
100
AcDbLine
 62
7
  6
CONTINUOUS
 10
15.1405085714
 20
4.8117138354
 11
14.6680676265
 21
4.8117138354
  0
LINE
  5
5B4
100
AcDbEntity
  8
0
100
AcDbLine
 62
7
  6
CONTINUOUS
 10
14.2743668391
 20
4.8117138354
 11
13.8019258943
 21
4.8117138354
  0
LINE
  5
5B5
100
AcDbEntity
  8
0
100
AcDbLine
 62
7
  6
CONTINUOUS
 10
14.3924770754
 20
4.8117138354
 11
14.5893274691
 21
4.8117138354
  0
LINE
  5
5B6
100
AcDbEntity
  8
0
100
AcDbLine
 62
7
  6
CONTINUOUS
 10
13.0538943982
 20
4.7132886386
 11
13.0538943982
 21
6.3668319457
  0
LINE
  5
5B7
100
AcDbEntity
  8
0
100
AcDbLine
 62
7
  6
CONTINUOUS
 10
13.0735794376
 20
6.3668319457
 11
13.0735794376
 21
4.7132886386
  0
LINE
  5
5B8
100
AcDbEntity
  8
02___PRT_ALL_AXES
100
AcDbLine
 62
9
  6
CONTINUOUS
 10
11.9515321935
 20
4.8707689535
 11
12.0420833746
 21
4.8707689535
  0
LINE
  5
5B9
100
AcDbEntity
  8
02___PRT_ALL_AXES
100
AcDbLine
 62
7
  6
CONTINUOUS
 10
15.5860612202
 20
4.9101390323
 11
15.5881234704
 21
4.9101390323
  0
LINE
  5
5BA
100
AcDbEntity
  8
0
100
AcDbLine
 62
7
  6
CONTINUOUS
 10
13.9200361305
 20
4.9298240716
 11
14.2192911315
 21
4.9298240716
  0
LINE
  5
5BB
100
AcDbEntity
  8
0
100
AcDbLine
 62
7
  6
CONTINUOUS
 10
14.3374013677
 20
4.9298240716
 11
14.6444031767
 21
4.9298240716
  0
LINE
  5
5BC
100
AcDbEntity
  8
0
100
AcDbLine
 62
7
  6
CONTINUOUS
 10
14.7231433342
 20
4.9298240716
 11
15.0223983352
 21
4.9298240716
  0
LINE
  5
5BD
100
AcDbEntity
  8
0
100
AcDbLine
 62
7
  6
CONTINUOUS
 10
13.7271227446
 20
4.9888791898
 11
14.1917532776
 21
4.9888791898
  0
LINE
  5
5BE
100
AcDbEntity
  8
0
100
AcDbLine
 62
7
  6
CONTINUOUS
 10
14.3098635139
 20
4.9888791898
 11
14.6719410305
 21
4.9888791898
  0
LINE
  5
5BF
100
AcDbEntity
  8
0
100
AcDbLine
 62
7
  6
CONTINUOUS
 10
14.750681188
 20
4.9888791898
 11
15.215311721
 21
4.9888791898
  0
LINE
  5
5C0
100
AcDbEntity
  8
02___PRT_ALL_AXES
100
AcDbLine
 62
9
  6
CONTINUOUS
 10
15.57911952
 20
4.9888791898
 11
15.5908731373
 21
4.9888791898
  0
LINE
  5
5C1
100
AcDbEntity
  8
02___PRT_ALL_AXES
100
AcDbLine
 62
7
  6
CONTINUOUS
 10
11.9515321935
 20
5.0282492685
 11
12.0420833746
 21
5.0282492685
  0
LINE
  5
5C2
100
AcDbEntity
  8
02___PRT_ALL_AXES
100
AcDbLine
 62
7
  6
CONTINUOUS
 10
11.9515321935
 20
5.1463595047
 11
11.8924770754
 21
5.1463595047
  0
LINE
  5
5C3
100
AcDbEntity
  8
02___PRT_ALL_AXES
100
AcDbLine
 62
7
  6
CONTINUOUS
 10
11.8924770754
 20
5.231005174
 11
11.7861778628
 21
5.231005174
  0
LINE
  5
5C4
100
AcDbEntity
  8
02___PRT_ALL_AXES
100
AcDbLine
 62
7
  6
CONTINUOUS
 10
11.7861778628
 20
5.2743122606
 11
11.6109810124
 21
5.2743122606
  0
LINE
  5
5C5
100
AcDbEntity
  8
0
100
AcDbLine
 62
7
  6
CONTINUOUS
 10
14.6779101462
 20
5.481005174
 11
14.3038943982
 21
5.481005174
  0
LINE
  5
5C6
100
AcDbEntity
  8
02___PRT_ALL_AXES
100
AcDbLine
 62
7
  6
CENTER
 10
14.9436581777
 20
5.5400602921
 11
14.4441824799
 21
5.5400602921
  0
LINE
  5
5C7
100
AcDbEntity
  8
02___PRT_ALL_AXES
100
AcDbLine
 62
7
  6
CENTER
 10
13.998776288
 20
5.5400602921
 11
11.4781184317
 21
5.5400602921
  0
LINE
  5
5C8
100
AcDbEntity
  8
02___PRT_ALL_AXES
100
AcDbLine
 62
7
  6
CENTER
 10
13.998776288
 20
5.5400602921
 11
14.4441824799
 21
5.5400602921
  0
LINE
  5
5C9
100
AcDbEntity
  8
02___PRT_ALL_AXES
100
AcDbLine
 62
7
  6
CENTER
 10
14.9436581777
 20
5.5400602921
 11
15.7681184317
 21
5.5400602921
  0
LINE
  5
5CA
100
AcDbEntity
  8
0
100
AcDbLine
 62
9
  6
CONTINUOUS
 10
13.7271227446
 20
4.9888791898
 11
13.7271227446
 21
5.4462305654
  0
LINE
  5
5CB
100
AcDbEntity
  8
0
100
AcDbLine
 62
9
  6
CONTINUOUS
 10
13.7271227446
 20
5.6338900188
 11
13.7271227446
 21
6.0912413945
  0
LINE
  5
5CC
100
AcDbEntity
  8
0
100
AcDbLine
 62
9
  6
CONTINUOUS
 10
13.8019258943
 20
4.8117138354
 11
13.8019258943
 21
4.9888791898
  0
LINE
  5
5CD
100
AcDbEntity
  8
0
100
AcDbLine
 62
9
  6
CONTINUOUS
 10
13.8019258943
 20
6.0912413945
 11
13.8019258943
 21
6.2684067488
  0
LINE
  5
5CE
100
AcDbEntity
  8
0
100
AcDbLine
 62
7
  6
CONTINUOUS
 10
14.6779101462
 20
5.5991154102
 11
14.3038943982
 21
5.5991154102
  0
LINE
  5
5CF
100
AcDbEntity
  8
0
100
AcDbLine
 62
7
  6
CONTINUOUS
 10
13.8255479415
 20
4.9888791898
 11
13.8255479415
 21
5.3107316956
  0
LINE
  5
5D0
100
AcDbEntity
  8
0
100
AcDbLine
 62
7
  6
CONTINUOUS
 10
13.8255479415
 20
5.7693888886
 11
13.8255479415
 21
6.0912413945
  0
LINE
  5
5D1
100
AcDbEntity
  8
0
100
AcDbLine
 62
7
  6
CONTINUOUS
 10
13.9200361305
 20
4.8117138354
 11
13.9200361305
 21
4.9888791898
  0
LINE
  5
5D2
100
AcDbEntity
  8
0
100
AcDbLine
 62
7
  6
CONTINUOUS
 10
13.9200361305
 20
6.0912413945
 11
13.9200361305
 21
6.2684067488
  0
LINE
  5
5D3
100
AcDbEntity
  8
0
100
AcDbLine
 62
7
  6
CONTINUOUS
 10
14.0651301637
 20
5.8196972503
 11
14.2743668391
 21
6.2684067488
  0
LINE
  5
5D4
100
AcDbEntity
  8
02___PRT_ALL_AXES
100
AcDbLine
 62
7
  6
CONTINUOUS
 10
11.7861778628
 20
5.8058083236
 11
11.6109810124
 21
5.8058083236
  0
LINE
  5
5D5
100
AcDbEntity
  8
02___PRT_ALL_AXES
100
AcDbLine
 62
7
  6
CONTINUOUS
 10
11.8924770754
 20
5.8491154102
 11
11.7861778628
 21
5.8491154102
  0
LINE
  5
5D6
100
AcDbEntity
  8
0
100
AcDbLine
 62
7
  6
CONTINUOUS
 10
14.0651301637
 20
5.2604233339
 11
14.2743668391
 21
4.8117138354
  0
LINE
  5
5D7
100
AcDbEntity
  8
02___PRT_ALL_AXES
100
AcDbLine
 62
7
  6
CENTER
 10
13.998776288
 20
5.5400602921
 11
13.998776288
 21
5.3573831268
  0
LINE
  5
5D8
100
AcDbEntity
  8
02___PRT_ALL_AXES
100
AcDbLine
 62
7
  6
CENTER
 10
13.998776288
 20
5.5400602921
 11
13.998776288
 21
5.7227374575
  0
LINE
  5
5D9
100
AcDbEntity
  8
0
100
AcDbLine
 62
7
  6
CONTINUOUS
 10
14.172885453
 20
5.797490995
 11
14.3924770754
 21
6.2684067488
  0
LINE
  5
5DA
100
AcDbEntity
  8
02___PRT_ALL_AXES
100
AcDbLine
 62
7
  6
CONTINUOUS
 10
11.9515321935
 20
5.9337610795
 11
11.8924770754
 21
5.9337610795
  0
LINE
  5
5DB
100
AcDbEntity
  8
0
100
AcDbLine
 62
7
  6
CONTINUOUS
 10
14.172885453
 20
5.2826295892
 11
14.3924770754
 21
4.8117138354
  0
LINE
  5
5DC
100
AcDbEntity
  8
02___PRT_ALL_AXES
100
AcDbLine
 62
7
  6
CONTINUOUS
 10
11.9515321935
 20
6.0518713157
 11
12.0420833746
 21
6.0518713157
  0
LINE
  5
5DD
100
AcDbEntity
  8
0
100
AcDbLine
 62
7
  6
CONTINUOUS
 10
14.6719410305
 20
6.0912413945
 11
14.3098635139
 21
6.0912413945
  0
LINE
  5
5DE
100
AcDbEntity
  8
0
100
AcDbLine
 62
7
  6
CONTINUOUS
 10
13.7271227446
 20
6.0912413945
 11
14.1917532776
 21
6.0912413945
  0
LINE
  5
5DF
100
AcDbEntity
  8
0
100
AcDbLine
 62
7
  6
CONTINUOUS
 10
14.750681188
 20
6.0912413945
 11
15.215311721
 21
6.0912413945
  0
LINE
  5
5E0
100
AcDbEntity
  8
02___PRT_ALL_AXES
100
AcDbLine
 62
9
  6
CONTINUOUS
 10
15.57911952
 20
6.0912413945
 11
15.5908731373
 21
6.0912413945
  0
LINE
  5
5E1
100
AcDbEntity
  8
0
100
AcDbLine
 62
7
  6
CONTINUOUS
 10
15.0223983352
 20
6.1502965126
 11
14.7231433342
 21
6.1502965126
  0
LINE
  5
5E2
100
AcDbEntity
  8
0
100
AcDbLine
 62
7
  6
CONTINUOUS
 10
14.6444031767
 20
6.1502965126
 11
14.3374013677
 21
6.1502965126
  0
LINE
  5
5E3
100
AcDbEntity
  8
0
100
AcDbLine
 62
7
  6
CONTINUOUS
 10
14.2192911315
 20
6.1502965126
 11
13.9200361305
 21
6.1502965126
  0
LINE
  5
5E4
100
AcDbEntity
  8
02___PRT_ALL_AXES
100
AcDbLine
 62
7
  6
CONTINUOUS
 10
15.5881234704
 20
6.169981552
 11
15.5860612202
 21
6.169981552
  0
LINE
  5
5E5
100
AcDbEntity
  8
02___PRT_ALL_AXES
100
AcDbLine
 62
9
  6
CONTINUOUS
 10
11.9515321935
 20
6.2093516307
 11
12.0420833746
 21
6.2093516307
  0
LINE
  5
5E6
100
AcDbEntity
  8
0
100
AcDbLine
 62
7
  6
CONTINUOUS
 10
13.8019258943
 20
6.2684067488
 11
14.2743668391
 21
6.2684067488
  0
LINE
  5
5E7
100
AcDbEntity
  8
0
100
AcDbLine
 62
7
  6
CONTINUOUS
 10
14.3924770754
 20
6.2684067488
 11
14.5893274691
 21
6.2684067488
  0
LINE
  5
5E8
100
AcDbEntity
  8
0
100
AcDbLine
 62
7
  6
CONTINUOUS
 10
14.6680676265
 20
6.2684067488
 11
15.1405085714
 21
6.2684067488
  0
LINE
  5
5E9
100
AcDbEntity
  8
0
100
AcDbLine
 62
7
  6
CONTINUOUS
 10
15.6065637219
 20
6.3077768276
 11
15.6737942142
 21
6.3077768276
  0
LINE
  5
5EA
100
AcDbEntity
  8
02___PRT_ALL_AXES
100
AcDbLine
 62
7
  6
CONTINUOUS
 10
15.6737942142
 20
6.3156508433
 11
15.6093538049
 21
6.3156508433
  0
LINE
  5
5EB
100
AcDbEntity
  8
0
100
AcDbLine
 62
7
  6
CONTINUOUS
 10
13.0538943982
 20
6.3471469063
 11
13.0735794376
 21
6.3471469063
  0
LINE
  5
5EC
100
AcDbEntity
  8
02___PRT_ALL_AXES
100
AcDbLine
 62
7
  6
CONTINUOUS
 10
11.9515321935
 20
6.3668319457
 11
12.0420833746
 21
6.3668319457
  0
LINE
  5
5ED
100
AcDbEntity
  8
0
100
AcDbLine
 62
7
  6
CONTINUOUS
 10
12.0420833746
 20
6.3668319457
 11
13.0538943982
 21
6.3668319457
  0
LINE
  5
5EE
100
AcDbEntity
  8
0
100
AcDbLine
 62
7
  6
CONTINUOUS
 10
13.0735794376
 20
6.3668319457
 11
15.6691452453
 21
6.3668319457
  0
LINE
  5
5EF
100
AcDbEntity
  8
0
100
AcDbLine
 62
7
  6
CONTINUOUS
 10
14.5893274691
 20
4.8117138354
 11
14.816674169
 21
5.2992604068
  0
LINE
  5
5F0
100
AcDbEntity
  8
0
100
AcDbLine
 62
7
  6
CONTINUOUS
 10
14.5893274691
 20
6.2684067488
 11
14.816674169
 21
5.7808601774
  0
LINE
  5
5F1
100
AcDbEntity
  8
02___PRT_ALL_AXES
100
AcDbLine
 62
7
  6
CENTER
 10
14.9436581777
 20
5.5400602921
 11
14.9436581777
 21
5.3573831268
  0
LINE
  5
5F2
100
AcDbEntity
  8
02___PRT_ALL_AXES
100
AcDbLine
 62
7
  6
CENTER
 10
14.9436581777
 20
5.5400602921
 11
14.9436581777
 21
5.7227374575
  0
LINE
  5
5F3
100
AcDbEntity
  8
0
100
AcDbLine
 62
7
  6
CONTINUOUS
 10
14.877304302
 20
5.2604233339
 11
14.6680676265
 21
4.8117138354
  0
LINE
  5
5F4
100
AcDbEntity
  8
0
100
AcDbLine
 62
7
  6
CONTINUOUS
 10
14.877304302
 20
5.8196972503
 11
14.6680676265
 21
6.2684067488
  0
LINE
  5
5F5
100
AcDbEntity
  8
0
100
AcDbLine
 62
7
  6
CONTINUOUS
 10
15.0223983352
 20
6.2684067488
 11
15.0223983352
 21
6.0912413945
  0
LINE
  5
5F6
100
AcDbEntity
  8
0
100
AcDbLine
 62
7
  6
CONTINUOUS
 10
15.0223983352
 20
4.9888791898
 11
15.0223983352
 21
4.8117138354
  0
LINE
  5
5F7
100
AcDbEntity
  8
0
100
AcDbLine
 62
7
  6
CONTINUOUS
 10
15.1168865242
 20
6.0912413945
 11
15.1168865242
 21
5.7693888886
  0
LINE
  5
5F8
100
AcDbEntity
  8
0
100
AcDbLine
 62
7
  6
CONTINUOUS
 10
15.1168865242
 20
5.3107316956
 11
15.1168865242
 21
4.9888791898
  0
LINE
  5
5F9
100
AcDbEntity
  8
0
100
AcDbLine
 62
9
  6
CONTINUOUS
 10
15.1405085714
 20
6.2684067488
 11
15.1405085714
 21
6.0912413945
  0
LINE
  5
5FA
100
AcDbEntity
  8
0
100
AcDbLine
 62
9
  6
CONTINUOUS
 10
15.1405085714
 20
4.9888791898
 11
15.1405085714
 21
4.8117138354
  0
LINE
  5
5FB
100
AcDbEntity
  8
0
100
AcDbLine
 62
9
  6
CONTINUOUS
 10
15.215311721
 20
6.0912413945
 11
15.215311721
 21
5.6338900188
  0
LINE
  5
5FC
100
AcDbEntity
  8
0
100
AcDbLine
 62
9
  6
CONTINUOUS
 10
15.215311721
 20
5.4462305654
 11
15.215311721
 21
4.9888791898
  0
LINE
  5
5FD
100
AcDbEntity
  8
02___PRT_ALL_AXES
100
AcDbLine
 62
7
  6
CONTINUOUS
 10
15.6093538049
 20
6.3156508433
 11
15.6060031385
 21
6.3061947805
  0
LINE
  5
5FE
100
AcDbEntity
  8
02___PRT_ALL_AXES
100
AcDbLine
 62
7
  6
CONTINUOUS
 10
15.6060031385
 20
4.7739258037
 11
15.6093538049
 21
4.7644697409
  0
LINE
  5
5FF
100
AcDbEntity
  8
0
100
AcDbLine
 62
9
  6
CONTINUOUS
 10
15.3487756225
 20
6.3668319457
 11
15.3487756225
 21
4.7132886386
  0
LWPOLYLINE
  5
600
100
AcDbEntity
  8
02___PRT_ALL_AXES
100
AcDbPolyline
 62
7
  6
CONTINUOUS
 90
3
 70
0
 10
15.5848521959
 20
4.9181590761
 10
15.5844752601
 20
4.9223109646
 10
15.5839116003
 20
4.9272329836
  0
LWPOLYLINE
  5
601
100
AcDbEntity
  8
02___PRT_ALL_AXES
100
AcDbPolyline
 62
7
  6
CONTINUOUS
 90
6
 70
0
 10
15.57911952
 20
6.0912413945
 10
15.5793513902
 20
6.103939708
 10
15.57991777
 20
6.1149193938
 10
15.5806664249
 20
6.124443761
 10
15.5814954292
 20
6.1327759277
 10
15.5823350852
 20
6.1401173365
  0
LWPOLYLINE
  5
602
100
AcDbEntity
  8
02___PRT_ALL_AXES
100
AcDbPolyline
 62
7
  6
CONTINUOUS
 90
8
 70
0
 10
15.6060031385
 20
6.3061947805
 10
15.6027812364
 20
6.2781899833
 10
15.5998119144
 20
6.2327126604
 10
15.5972092819
 20
6.1715104797
 10
15.5950733566
 20
6.0969354068
 10
15.5934862209
 20
6.0118533199
 10
15.5925088676
 20
5.9195338758
 10
15.5921788557
 20
5.823524859
  0
LWPOLYLINE
  5
603
100
AcDbEntity
  8
02___PRT_ALL_AXES
100
AcDbPolyline
 62
7
  6
CONTINUOUS
 90
4
 70
0
 10
15.5823350852
 20
6.1401173365
 10
15.58386674
 20
6.1525178039
 10
15.5844585511
 20
6.1576515201
 10
15.5848521959
 20
6.1619615081
  0
LWPOLYLINE
  5
604
100
AcDbEntity
  8
03___PRT_ALL_CURVES
100
AcDbPolyline
 62
4
  6
CONTINUOUS
 90
17
 70
0
 10
15.6146990009
 20
5.5699308312
 10
15.614496518
 20
5.5693619515
 10
15.6143017477
 20
5.5676769806
 10
15.6141221086
 20
5.5649400986
 10
15.6139618656
 20
5.5611819529
 10
15.6138327272
 20
5.5566771421
 10
15.6137365849
 20
5.5515394006
 10
15.6136771007
 20
5.5459644234
 10
15.6136565341
 20
5.5400602921
 10
15.6136763877
 20
5.5342584073
 10
15.6137351924
 20
5.5286775145
 10
15.6138307082
 20
5.5235301882
 10
15.6139618656
 20
5.5189386314
 10
15.6141190812
 20
5.515238338
 10
15.6142983858
 20
5.5124835052
 10
15.6144929497
 20
5.5107790637
 10
15.614699001
 20
5.510189753
  0
LWPOLYLINE
  5
605
100
AcDbEntity
  8
03___PRT_ALL_CURVES
100
AcDbPolyline
 62
4
  6
CONTINUOUS
 90
17
 70
0
 10
15.6146990009
 20
5.510189753
 10
15.6149014837
 20
5.5107586328
 10
15.6150962541
 20
5.5124436037
 10
15.6152758932
 20
5.5151804856
 10
15.6154361362
 20
5.5189386314
 10
15.6155652746
 20
5.5234434422
 10
15.6156614169
 20
5.5285811837
 10
15.615720901
 20
5.5341561608
 10
15.6157414677
 20
5.5400602921
 10
15.615721614
 20
5.5458621769
 10
15.6156628094
 20
5.5514430697
 10
15.6155672936
 20
5.556590396
 10
15.6154361362
 20
5.5611819529
 10
15.6152789206
 20
5.5648822462
 10
15.615099616
 20
5.567637079
 10
15.6149050521
 20
5.5693415206
 10
15.6146990008
 20
5.5699308312
  0
LWPOLYLINE
  5
606
100
AcDbEntity
  8
02___PRT_ALL_AXES
100
AcDbPolyline
 62
7
  6
CONTINUOUS
 90
7
 70
0
 10
15.5839116003
 20
4.9272329836
 10
15.5824429128
 20
4.9391076083
 10
15.5816124479
 20
4.9462721084
 10
15.5807699307
 20
4.9545467941
 10
15.5799858213
 20
4.9641971305
 10
15.5793752848
 20
4.9755399479
 10
15.57911952
 20
4.9888791898
  0
LWPOLYLINE
  5
607
100
AcDbEntity
  8
02___PRT_ALL_AXES
100
AcDbPolyline
 62
7
  6
CONTINUOUS
 90
8
 70
0
 10
15.5921788557
 20
5.2565957252
 10
15.5925088676
 20
5.1605867085
 10
15.5934862209
 20
5.0682672644
 10
15.5950733566
 20
4.9831851774
 10
15.5972092819
 20
4.9086101045
 10
15.5998119144
 20
4.8474079239
 10
15.6027812364
 20
4.8019306009
 10
15.6060031385
 20
4.7739258037
  0
LWPOLYLINE
  5
608
100
AcDbEntity
  8
0
100
AcDbPolyline
 62
7
  6
CONTINUOUS
 90
9
 70
0
 10
15.6906943641
 20
5.823524859
 10
15.6903696311
 20
5.9179979309
 10
15.689407906
 20
6.0088408116
 10
15.6878461714
 20
6.0925610072
 10
15.6857444248
 20
6.1659427098
 10
15.6831834403
 20
6.2261655425
 10
15.6802616476
 20
6.2709150319
 10
15.6770912768
 20
6.2984720221
 10
15.6737942142
 20
6.3077768276
  0
LINE
  5
609
100
AcDbEntity
  8
02___PRT_ALL_AXES
100
AcDbLine
 62
7
  6
CONTINUOUS
 10
15.57911952
 20
6.0912413945
 11
15.57911952
 21
4.9888791898
  0
LINE
  5
60A
100
AcDbEntity
  8
02___PRT_ALL_AXES
100
AcDbLine
 62
9
  6
CONTINUOUS
 10
15.5848521959
 20
6.3668319457
 11
15.5848521959
 21
6.1619615081
  0
LINE
  5
60B
100
AcDbEntity
  8
02___PRT_ALL_AXES
100
AcDbLine
 62
9
  6
CONTINUOUS
 10
15.5848521959
 20
4.9181590761
 11
15.5848521959
 21
4.7132886386
  0
LINE
  5
60C
100
AcDbEntity
  8
02___PRT_ALL_AXES
100
AcDbLine
 62
7
  6
CONTINUOUS
 10
15.5908731373
 20
4.9888791898
 11
15.5908731373
 21
6.0912413945
  0
LINE
  5
60D
100
AcDbEntity
  8
02___PRT_ALL_AXES
100
AcDbLine
 62
7
  6
CONTINUOUS
 10
15.5921788557
 20
5.823524859
 11
15.5921788557
 21
5.2565957252
  0
LINE
  5
60E
100
AcDbEntity
  8
0
100
AcDbLine
 62
7
  6
CONTINUOUS
 10
15.5924536549
 20
5.823524859
 11
15.5924536549
 21
5.2565957252
  0
LINE
  5
60F
100
AcDbEntity
  8
0
100
AcDbLine
 62
7
  6
CONTINUOUS
 10
15.6906943641
 20
5.2565957252
 11
15.6906943641
 21
5.823524859
  0
LINE
  5
610
100
AcDbEntity
  8
02___PRT_ALL_AXES
100
AcDbLine
 62
7
  6
CONTINUOUS
 10
15.6909691633
 20
5.2565957252
 11
15.6909691633
 21
5.823524859
  0
LINE
  5
611
100
AcDbEntity
  8
0
100
AcDbLine
 62
7
  6
CONTINUOUS
 10
15.6916896738
 20
5.1857295835
 11
15.6916896738
 21
5.8943910008
  0
LINE
  5
612
100
AcDbEntity
  8
0
100
AcDbLine
 62
7
  6
CONTINUOUS
 10
15.6903696311
 20
5.1621226533
 11
15.6906943641
 21
5.2565957252
  0
LINE
  5
613
100
AcDbEntity
  8
02___PRT_ALL_AXES
100
AcDbLine
 62
7
  6
CONTINUOUS
 10
15.6147750708
 20
4.7644697409
 11
15.6172139811
 21
4.7723437567
  0
LWPOLYLINE
  5
614
100
AcDbEntity
  8
0
100
AcDbPolyline
 62
7
  6
CONTINUOUS
 90
8
 70
0
 10
15.6737942142
 20
4.7723437567
 10
15.6770912768
 20
4.7816485621
 10
15.6802616476
 20
4.8092055524
 10
15.6831834403
 20
4.8539550417
 10
15.6857444248
 20
4.9141778745
 10
15.6878461714
 20
4.987559577
 10
15.689407906
 20
5.0712797726
 10
15.6903696311
 20
5.1621226533
  0
LINE
  5
615
100
AcDbEntity
  8
02___PRT_ALL_AXES
100
AcDbLine
 62
7
  6
CONTINUOUS
 10
15.6737942142
 20
4.7644697409
 11
15.6771448805
 21
4.7739258037
  0
LINE
  5
616
100
AcDbEntity
  8
02___PRT_ALL_AXES
100
AcDbLine
 62
7
  6
CONTINUOUS
 10
15.6771448805
 20
6.3061947805
 11
15.6737942142
 21
6.3156508433
  0
LINE
  5
617
100
AcDbEntity
  8
02___PRT_ALL_AXES
100
AcDbLine
 62
7
  6
CONTINUOUS
 10
15.6172139811
 20
6.3077768276
 11
15.616525892
 21
6.3099983213
  0
LINE
  5
618
100
AcDbEntity
  8
02___PRT_ALL_AXES
100
AcDbLine
 62
7
  6
CONTINUOUS
 10
11.6109810124
 20
13.9530656574
 11
11.6109810124
 21
14.4845617204
  0
LINE
  5
619
100
AcDbEntity
  8
02___PRT_ALL_AXES
100
AcDbLine
 62
7
  6
CONTINUOUS
 10
11.7861778628
 20
13.9097585707
 11
11.7861778628
 21
14.527868807
  0
LINE
  5
61A
100
AcDbEntity
  8
02___PRT_ALL_AXES
100
AcDbLine
 62
7
  6
CONTINUOUS
 10
11.8924770754
 20
13.8251129015
 11
11.8924770754
 21
14.6125144763
  0
LINE
  5
61B
100
AcDbEntity
  8
02___PRT_ALL_AXES
100
AcDbLine
 62
7
  6
CONTINUOUS
 10
11.9515321935
 20
13.3920420353
 11
11.9515321935
 21
15.0455853424
  0
LINE
  5
61C
100
AcDbEntity
  8
02___PRT_ALL_AXES
100
AcDbLine
 62
7
  6
CONTINUOUS
 10
12.0420833746
 20
15.0455853424
 11
12.0420833746
 21
14.7306247125
  0
LINE
  5
61D
100
AcDbEntity
  8
02___PRT_ALL_AXES
100
AcDbLine
 62
7
  6
CONTINUOUS
 10
12.0420833746
 20
13.7070026652
 11
12.0420833746
 21
13.3920420353
  0
LINE
  5
61E
100
AcDbEntity
  8
0
100
AcDbLine
 62
7
  6
CONTINUOUS
 10
15.6691452453
 20
13.3920420353
 11
13.0735794376
 21
13.3920420353
  0
LINE
  5
61F
100
AcDbEntity
  8
0
100
AcDbLine
 62
7
  6
CONTINUOUS
 10
13.0538943982
 20
13.3920420353
 11
12.0420833746
 21
13.3920420353
  0
LINE
  5
620
100
AcDbEntity
  8
02___PRT_ALL_AXES
100
AcDbLine
 62
7
  6
CONTINUOUS
 10
11.9515321935
 20
13.3920420353
 11
12.0420833746
 21
13.3920420353
  0
LINE
  5
621
100
AcDbEntity
  8
0
100
AcDbLine
 62
7
  6
CONTINUOUS
 10
13.0538943982
 20
13.4117270747
 11
13.0735794376
 21
13.4117270747
  0
LINE
  5
622
100
AcDbEntity
  8
02___PRT_ALL_AXES
100
AcDbLine
 62
7
  6
CONTINUOUS
 10
13.9515321935
 20
13.4904672322
 11
14.7664928234
 21
13.4904672322
  0
LINE
  5
623
100
AcDbEntity
  8
0
100
AcDbLine
 62
7
  6
CONTINUOUS
 10
13.0538943982
 20
13.3920420353
 11
13.0538943982
 21
15.0455853424
  0
LINE
  5
624
100
AcDbEntity
  8
0
100
AcDbLine
 62
7
  6
CONTINUOUS
 10
13.0735794376
 20
15.0455853424
 11
13.0735794376
 21
13.3920420353
  0
LINE
  5
625
100
AcDbEntity
  8
02___PRT_ALL_AXES
100
AcDbLine
 62
9
  6
CONTINUOUS
 10
11.9515321935
 20
13.5495223503
 11
12.0420833746
 21
13.5495223503
  0
LINE
  5
626
100
AcDbEntity
  8
02___PRT_ALL_AXES
100
AcDbLine
 62
7
  6
CONTINUOUS
 10
11.9515321935
 20
13.7070026652
 11
12.0420833746
 21
13.7070026652
  0
LINE
  5
627
100
AcDbEntity
  8
02___PRT_ALL_AXES
100
AcDbLine
 62
7
  6
CONTINUOUS
 10
11.9515321935
 20
13.8251129015
 11
11.8924770754
 21
13.8251129015
  0
LINE
  5
628
100
AcDbEntity
  8
0
100
AcDbLine
 62
9
  6
CONTINUOUS
 10
15.6916896738
 20
13.8644829802
 11
15.3176739257
 21
13.8644829802
  0
LINE
  5
629
100
AcDbEntity
  8
02___PRT_ALL_AXES
100
AcDbLine
 62
7
  6
CONTINUOUS
 10
11.8924770754
 20
13.9097585707
 11
11.7861778628
 21
13.9097585707
  0
LINE
  5
62A
100
AcDbEntity
  8
02___PRT_ALL_AXES
100
AcDbLine
 62
7
  6
CONTINUOUS
 10
11.7861778628
 20
13.9530656574
 11
11.6109810124
 21
13.9530656574
  0
LINE
  5
62B
100
AcDbEntity
  8
02___PRT_ALL_AXES
100
AcDbLine
 62
7
  6
CENTER
 10
11.6861778628
 20
14.2188136889
 11
11.9924770754
 21
14.2188136889
  0
LINE
  5
62C
100
AcDbEntity
  8
02___PRT_ALL_AXES
100
AcDbLine
 62
7
  6
CONTINUOUS
 10
13.872792036
 20
14.8684199881
 11
13.872792036
 21
13.5692073896
  0
LINE
  5
62D
100
AcDbEntity
  8
02___PRT_ALL_AXES
100
AcDbLine
 62
7
  6
CONTINUOUS
 10
11.7861778628
 20
14.4845617204
 11
11.6109810124
 21
14.4845617204
  0
LINE
  5
62E
100
AcDbEntity
  8
02___PRT_ALL_AXES
100
AcDbLine
 62
7
  6
CONTINUOUS
 10
11.8924770754
 20
14.527868807
 11
11.7861778628
 21
14.527868807
  0
LINE
  5
62F
100
AcDbEntity
  8
0
100
AcDbLine
 62
9
  6
CONTINUOUS
 10
15.3176739257
 20
14.5731443975
 11
15.6916896738
 21
14.5731443975
  0
LINE
  5
630
100
AcDbEntity
  8
02___PRT_ALL_AXES
100
AcDbLine
 62
7
  6
CONTINUOUS
 10
11.9515321935
 20
14.6125144763
 11
11.8924770754
 21
14.6125144763
  0
LINE
  5
631
100
AcDbEntity
  8
02___PRT_ALL_AXES
100
AcDbLine
 62
7
  6
CONTINUOUS
 10
11.9515321935
 20
14.7306247125
 11
12.0420833746
 21
14.7306247125
  0
LINE
  5
632
100
AcDbEntity
  8
02___PRT_ALL_AXES
100
AcDbLine
 62
9
  6
CONTINUOUS
 10
11.9515321935
 20
14.8881050274
 11
12.0420833746
 21
14.8881050274
  0
LINE
  5
633
100
AcDbEntity
  8
02___PRT_ALL_AXES
100
AcDbLine
 62
7
  6
CONTINUOUS
 10
14.7664928234
 20
14.9471601456
 11
13.9515321935
 21
14.9471601456
  0
LINE
  5
634
100
AcDbEntity
  8
0
100
AcDbLine
 62
7
  6
CONTINUOUS
 10
13.0735794376
 20
15.025900303
 11
13.0538943982
 21
15.025900303
  0
LINE
  5
635
100
AcDbEntity
  8
0
100
AcDbLine
 62
7
  6
CONTINUOUS
 10
13.0538943982
 20
15.0455853424
 11
12.0420833746
 21
15.0455853424
  0
LINE
  5
636
100
AcDbEntity
  8
02___PRT_ALL_AXES
100
AcDbLine
 62
7
  6
CONTINUOUS
 10
11.9515321935
 20
15.0455853424
 11
12.0420833746
 21
15.0455853424
  0
LINE
  5
637
100
AcDbEntity
  8
0
100
AcDbLine
 62
7
  6
CONTINUOUS
 10
13.0735794376
 20
15.0455853424
 11
15.6691452453
 21
15.0455853424
  0
LINE
  5
638
100
AcDbEntity
  8
02___PRT_ALL_AXES
100
AcDbLine
 62
7
  6
CONTINUOUS
 10
15.2389337683
 20
13.962908177
 11
15.2389337683
 21
14.4747192007
  0
LINE
  5
639
100
AcDbEntity
  8
0
100
AcDbLine
 62
7
  6
CONTINUOUS
 10
15.3176739257
 20
14.5731443975
 11
15.3176739257
 21
13.8644829802
  0
LINE
  5
63A
100
AcDbEntity
  8
0
100
AcDbLine
 62
7
  6
CONTINUOUS
 10
15.6916896738
 20
14.5731443975
 11
15.6916896738
 21
13.8644829802
  0
LINE
  5
63B
100
AcDbEntity
  8
02___PRT_ALL_AXES
100
AcDbLine
 62
7
  6
CONTINUOUS
 10
4.1245795671
 20
7.3512373965
 11
3.4007724897
 21
6.9333496799
  0
LINE
  5
63C
100
AcDbEntity
  8
02___PRT_ALL_AXES
100
AcDbLine
 62
7
  6
CONTINUOUS
 10
4.4113190579
 20
7.4428515498
 11
4.1886091879
 21
7.314270714
  0
LINE
  5
63D
100
AcDbEntity
  8
02___PRT_ALL_AXES
100
AcDbLine
 62
7
  6
CONTINUOUS
 10
3.4648021104
 20
6.8963829974
 11
3.2420922404
 21
6.7678021616
  0
LINE
  5
63E
100
AcDbEntity
  8
02___PRT_ALL_AXES
100
AcDbLine
 62
7
  6
CONTINUOUS
 10
3.1780626197
 20
6.5476027284
 11
3.2420922404
 21
6.5845700265
  0
LWPOLYLINE
  5
63F
100
AcDbEntity
  8
02___PRT_ALL_AXES
100
AcDbPolyline
 62
7
  6
CONTINUOUS
 90
3
 70
0
 10
5.8952406206
 20
2.5969484913
 10
5.9081936968
 20
2.5944330335
 10
5.9295005412
 20
2.6018405712
  0
LINE
  5
640
100
AcDbEntity
  8
02___PRT_ALL_AXES
100
AcDbLine
 62
7
  6
CONTINUOUS
 10
3.1780626197
 20
6.5476027284
 11
3.1780626197
 21
4.0723788655
  0
LINE
  5
641
100
AcDbEntity
  8
02___PRT_ALL_AXES
100
AcDbLine
 62
7
  6
CONTINUOUS
 10
5.8805257771
 20
2.8948013642
 11
5.8914012394
 21
2.893299087
  0
LWPOLYLINE
  5
642
100
AcDbEntity
  8
0
100
AcDbPolyline
 62
7
  6
CONTINUOUS
 90
5
 70
0
 10
5.5802864871
 20
2.4283195291
 10
5.6162486045
 20
2.4120804982
 10
5.6512966842
 20
2.4056197913
 10
5.6826861576
 20
2.4096951892
 10
5.698409226
 20
2.4165945935
  0
LINE
  5
643
100
AcDbEntity
  8
0
100
AcDbLine
 62
7
  6
CONTINUOUS
 10
3.2420922404
 20
3.7782460673
 11
3.9575536553
 21
3.3651835716
  0
LINE
  5
644
100
AcDbEntity
  8
0
100
AcDbLine
 62
7
  6
CONTINUOUS
 10
3.971473138
 20
3.3571473363
 11
5.5802864871
 21
2.4283195291
  0
LINE
  5
645
100
AcDbEntity
  8
0
100
AcDbLine
 62
7
  6
CONTINUOUS
 10
4.3002628191
 20
3.2139361783
 11
4.4388778719
 21
3.1339085507
  0
LINE
  5
646
100
AcDbEntity
  8
0
100
AcDbLine
 62
7
  6
CONTINUOUS
 10
5.4694993725
 20
2.5388924109
 11
5.6081144253
 21
2.4588647833
  0
LINE
  5
647
100
AcDbEntity
  8
0
100
AcDbLine
 62
7
  6
CONTINUOUS
 10
3.219821068
 20
6.3306194357
 11
3.219821068
 21
5.0447888576
  0
LINE
  5
648
100
AcDbEntity
  8
0
100
AcDbLine
 62
7
  6
CONTINUOUS
 10
3.2281726881
 20
6.3257977347
 11
3.2281726881
 21
5.0496106389
  0
LINE
  5
649
100
AcDbEntity
  8
02___PRT_ALL_AXES
100
AcDbLine
 62
7
  6
CONTINUOUS
 10
3.2420922404
 20
3.7782460673
 11
3.2420922404
 21
4.035412183
  0
LINE
  5
64A
100
AcDbEntity
  8
02___PRT_ALL_AXES
100
AcDbLine
 62
7
  6
CONTINUOUS
 10
3.2420922404
 20
6.5106360459
 11
3.2420922404
 21
6.7678021616
  0
LINE
  5
64B
100
AcDbEntity
  8
02___PRT_ALL_AXES
100
AcDbLine
 62
7
  6
CONTINUOUS
 10
3.4007724897
 20
6.9333496799
 11
3.4007724897
 21
6.8594156993
  0
LINE
  5
64C
100
AcDbEntity
  8
0
100
AcDbLine
 62
7
  6
CONTINUOUS
 10
3.9575536553
 20
6.3547396658
 11
5.1267804727
 21
7.0297890541
  0
LINE
  5
64D
100
AcDbEntity
  8
0
100
AcDbLine
 62
7
  6
CONTINUOUS
 10
5.1406999555
 20
7.0217528188
 11
3.971473138
 21
6.3467034305
  0
LINE
  5
64E
100
AcDbEntity
  8
0
100
AcDbLine
 62
7
  6
CONTINUOUS
 10
4.4227532476
 20
3.284655638
 11
4.5071417184
 21
3.2359350338
  0
LINE
  5
64F
100
AcDbEntity
  8
0
100
AcDbLine
 62
7
  6
CONTINUOUS
 10
5.591989801
 20
2.6096118707
 11
5.6763782718
 21
2.5608912665
  0
LINE
  5
650
100
AcDbEntity
  8
02___PRT_ALL_AXES
100
AcDbLine
 62
7
  6
CONTINUOUS
 10
3.1780626197
 20
4.0723788655
 11
3.2420922404
 21
4.035412183
  0
LWPOLYLINE
  5
651
100
AcDbEntity
  8
0
100
AcDbPolyline
 62
7
  6
CONTINUOUS
 90
7
 70
0
 10
4.4837488509
 20
3.2957082526
 10
4.471165536
 20
3.3048859798
 10
4.4516942739
 20
3.3254404527
 10
4.4349739222
 20
3.3499085597
 10
4.422143945
 20
3.3766228397
 10
4.4140786842
 20
3.4037627588
 10
4.4116938679
 20
3.426056462
  0
LWPOLYLINE
  5
652
100
AcDbEntity
  8
02___PRT_ALL_AXES
100
AcDbPolyline
 62
7
  6
CONTINUOUS
 90
5
 70
0
 10
5.8901256376
 20
2.8840646
 10
5.9452908884
 20
2.8630845862
 10
6.0043304794
 20
2.8613570602
 10
6.0689188165
 20
2.8765928737
 10
6.1365738061
 20
2.908206523
  0
LWPOLYLINE
  5
653
100
AcDbEntity
  8
0
100
AcDbPolyline
 62
7
  6
CONTINUOUS
 90
4
 70
0
 10
5.894263121
 20
2.8907639238
 10
5.9485456114
 20
2.8701196109
 10
6.0066401652
 20
2.8684196469
 10
6.0701954695
 20
2.8834116947
  0
LINE
  5
654
100
AcDbEntity
  8
02___PRT_ALL_AXES
100
AcDbLine
 62
7
  6
CONTINUOUS
 10
5.8744005357
 20
2.8976747786
 11
5.8805257771
 21
2.8948013642
  0
LINE
  5
655
100
AcDbEntity
  8
0
100
AcDbLine
 62
7
  6
CONTINUOUS
 10
5.6081144253
 20
2.7353183576
 11
5.4694993725
 21
2.8153459852
  0
LINE
  5
656
100
AcDbEntity
  8
0
100
AcDbLine
 62
7
  6
CONTINUOUS
 10
4.4388778719
 20
3.410362125
 11
4.3002628191
 21
3.4903897526
  0
LINE
  5
657
100
AcDbEntity
  8
02___PRT_ALL_AXES
100
AcDbLine
 62
9
  6
CONTINUOUS
 10
5.9295005412
 20
2.6018405712
 11
5.9380360334
 21
2.5969127139
  0
LINE
  5
658
100
AcDbEntity
  8
0
100
AcDbLine
 62
7
  6
CONTINUOUS
 10
4.0132315864
 20
3.7830793327
 11
5.3355824503
 21
3.0196369768
  0
LINE
  5
659
100
AcDbEntity
  8
0
100
AcDbLine
 62
7
  6
CONTINUOUS
 10
4.0215832065
 20
3.787901114
 11
5.3355824503
 21
3.0292804592
  0
LWPOLYLINE
  5
65A
100
AcDbEntity
  8
0
100
AcDbPolyline
 62
7
  6
CONTINUOUS
 90
7
 70
0
 10
5.6529854043
 20
2.6206644853
 10
5.6404020894
 20
2.6298422125
 10
5.6209308273
 20
2.6503966854
 10
5.6042104755
 20
2.6748647924
 10
5.5913804984
 20
2.7015790724
 10
5.5833152375
 20
2.7287189915
 10
5.5809304213
 20
2.7510126946
  0
LINE
  5
65B
100
AcDbEntity
  8
0
100
AcDbLine
 62
7
  6
CONTINUOUS
 10
3.219821068
 20
5.0447888576
 11
3.9157952069
 21
3.83933298
  0
LINE
  5
65C
100
AcDbEntity
  8
0
100
AcDbLine
 62
7
  6
CONTINUOUS
 10
3.2281726881
 20
5.0496106389
 11
3.9157952069
 21
3.8586201114
  0
LINE
  5
65D
100
AcDbEntity
  8
0
100
AcDbLine
 62
7
  6
CONTINUOUS
 10
4.3058306122
 20
6.1070550614
 11
4.2359433108
 21
6.0091768137
  0
LINE
  5
65E
100
AcDbEntity
  8
0
100
AcDbLine
 62
7
  6
CONTINUOUS
 10
4.2359433108
 20
6.0091768137
 11
4.3556529313
 21
6.0782907828
  0
LINE
  5
65F
100
AcDbEntity
  8
0
100
AcDbLine
 62
7
  6
CONTINUOUS
 10
5.8525104409
 20
2.9165509565
 11
5.8942434511
 21
2.8907741304
  0
LWPOLYLINE
  5
660
100
AcDbEntity
  8
02___PRT_ALL_AXES
100
AcDbPolyline
 62
7
  6
CONTINUOUS
 90
3
 70
0
 10
5.9015324892
 20
2.591358323
 10
5.8980640545
 20
2.593875184
 10
5.8948524595
 20
2.5973710047
  0
LINE
  5
661
100
AcDbEntity
  8
0
100
AcDbLine
 62
7
  6
CONTINUOUS
 10
4.2303755177
 20
3.3925115049
 11
4.3002628191
 21
3.2139361783
  0
LINE
  5
662
100
AcDbEntity
  8
0
100
AcDbLine
 62
7
  6
CONTINUOUS
 10
3.9157952069
 20
3.83933298
 11
3.9157952069
 21
5.9288076695
  0
LINE
  5
663
100
AcDbEntity
  8
0
100
AcDbLine
 62
7
  6
CONTINUOUS
 10
3.9575536553
 20
3.3651835716
 11
3.9575536553
 21
6.3547396658
  0
LINE
  5
664
100
AcDbEntity
  8
0
100
AcDbLine
 62
7
  6
CONTINUOUS
 10
3.971473138
 20
3.3571473363
 11
3.971473138
 21
6.3467034305
  0
LINE
  5
665
100
AcDbEntity
  8
0
100
AcDbLine
 62
7
  6
CONTINUOUS
 10
4.0132315864
 20
5.8725540222
 11
4.0132315864
 21
3.7830793327
  0
LINE
  5
666
100
AcDbEntity
  8
0
100
AcDbLine
 62
7
  6
CONTINUOUS
 10
4.0215832065
 20
5.8677323211
 11
4.0215832065
 21
3.787901114
  0
LWPOLYLINE
  5
667
100
AcDbEntity
  8
02___PRT_ALL_AXES
100
AcDbPolyline
 62
7
  6
CONTINUOUS
 90
3
 70
0
 10
4.6618784407
 20
6.0831152671
 10
4.6448098265
 20
6.0683669403
 10
4.6417881015
 20
6.0595963029
  0
LWPOLYLINE
  5
668
100
AcDbEntity
  8
02___PRT_ALL_AXES
100
AcDbPolyline
 62
7
  6
CONTINUOUS
 90
4
 70
0
 10
4.6618784407
 20
6.0927589965
 10
4.647398229
 20
6.0812522952
 10
4.6397855851
 20
6.0677253792
 10
4.6388340437
 20
6.0606140568
  0
LINE
  5
669
100
AcDbEntity
  8
02___PRT_ALL_AXES
100
AcDbLine
 62
7
  6
CONTINUOUS
 10
5.5805566544
 20
6.6231549444
 11
4.6618784407
 21
6.0927589965
  0
LINE
  5
66A
100
AcDbEntity
  8
02___PRT_ALL_AXES
100
AcDbLine
 62
7
  6
CONTINUOUS
 10
5.5805566544
 20
6.6135112151
 11
4.6618784407
 21
6.0831152671
  0
LINE
  5
66B
100
AcDbEntity
  8
0
100
AcDbLine
 62
7
  6
CONTINUOUS
 10
4.3058306122
 20
5.8306014871
 11
4.4283210407
 21
5.9013209468
  0
LINE
  5
66C
100
AcDbEntity
  8
0
100
AcDbLine
 62
7
  6
CONTINUOUS
 10
3.219821068
 20
5.0447888576
 11
3.2281726881
 21
5.0496106389
  0
LINE
  5
66D
100
AcDbEntity
  8
0
100
AcDbLine
 62
9
  6
CONTINUOUS
 10
5.800935179
 20
3.1083940947
 11
5.8063019546
 21
3.1050792502
  0
LINE
  5
66E
100
AcDbEntity
  8
02___PRT_ALL_AXES
100
AcDbLine
 62
9
  6
CONTINUOUS
 10
6.1365738061
 20
2.908206523
 11
6.1308386796
 21
2.9117488833
  0
LINE
  5
66F
100
AcDbEntity
  8
0
100
AcDbLine
 62
7
  6
CONTINUOUS
 10
4.3544894011
 20
3.4590827291
 11
4.4227532476
 21
3.284655638
  0
LINE
  5
670
100
AcDbEntity
  8
0
100
AcDbLine
 62
7
  6
CONTINUOUS
 10
4.5087651733
 20
3.2317867984
 11
4.4388778719
 21
3.410362125
  0
LINE
  5
671
100
AcDbEntity
  8
0
100
AcDbLine
 62
7
  6
CONTINUOUS
 10
4.444445665
 20
5.7505738595
 11
4.5143329664
 21
5.8484521072
  0
LINE
  5
672
100
AcDbEntity
  8
02___PRT_ALL_AXES
100
AcDbLine
 62
7
  6
CONTINUOUS
 10
5.8526329517
 20
2.9165147651
 11
5.8901256376
 21
2.8840646
  0
LINE
  5
673
100
AcDbEntity
  8
02___PRT_ALL_AXES
100
AcDbLine
 62
9
  6
CONTINUOUS
 10
6.7089850861
 20
3.0518734967
 11
6.7175205783
 21
3.0469456395
  0
LINE
  5
674
100
AcDbEntity
  8
02___PRT_ALL_AXES
100
AcDbLine
 62
9
  6
CONTINUOUS
 10
6.7646625536
 20
3.1483102346
 11
6.7781065895
 21
3.1405484924
  0
LINE
  5
675
100
AcDbEntity
  8
02___PRT_ALL_AXES
100
AcDbLine
 62
9
  6
CONTINUOUS
 10
6.7646625536
 20
3.1965288812
 11
6.7795648267
 21
3.1879252445
  0
LINE
  5
676
100
AcDbEntity
  8
02___PRT_ALL_AXES
100
AcDbLine
 62
9
  6
CONTINUOUS
 10
6.5374515721
 20
3.1396520276
 11
6.532262594
 21
3.1428570536
  0
LINE
  5
677
100
AcDbEntity
  8
02___PRT_ALL_AXES
100
AcDbLine
 62
9
  6
CONTINUOUS
 10
4.6618784407
 20
6.0927589965
 11
4.6618784407
 21
6.0831152671
  0
LINE
  5
678
100
AcDbEntity
  8
02___PRT_ALL_AXES
100
AcDbLine
 62
7
  6
CONTINUOUS
 10
5.8948524595
 20
2.5973710047
 11
5.8920832004
 21
2.6017239698
  0
LINE
  5
679
100
AcDbEntity
  8
0
100
AcDbLine
 62
7
  6
CONTINUOUS
 10
5.3996120711
 20
2.7174677375
 11
5.4694993725
 21
2.5388924109
  0
LINE
  5
67A
100
AcDbEntity
  8
02___PRT_ALL_AXES
100
AcDbLine
 62
7
  6
CONTINUOUS
 10
5.906277883
 20
5.6957703097
 11
6.2681814218
 21
5.904714168
  0
LINE
  5
67B
100
AcDbEntity
  8
0
100
AcDbLine
 62
7
  6
CONTINUOUS
 10
6.3934561872
 20
5.9127507379
 11
5.8923589798
 21
5.6234438572
  0
LINE
  5
67C
100
AcDbEntity
  8
0
100
AcDbLine
 62
7
  6
CONTINUOUS
 10
4.2359433108
 20
6.0091768137
 11
4.3058306122
 21
5.8306014871
  0
LINE
  5
67D
100
AcDbEntity
  8
0
100
AcDbLine
 62
7
  6
CONTINUOUS
 10
5.5237259545
 20
2.7840389618
 11
5.591989801
 21
2.6096118707
  0
LINE
  5
67E
100
AcDbEntity
  8
0
100
AcDbLine
 62
7
  6
CONTINUOUS
 10
5.6780017267
 20
2.556743031
 11
5.6081144253
 21
2.7353183576
  0
LINE
  5
67F
100
AcDbEntity
  8
0
100
AcDbLine
 62
7
  6
CONTINUOUS
 10
4.3600571942
 20
6.075748038
 11
4.4283210407
 21
5.9013209468
  0
LINE
  5
680
100
AcDbEntity
  8
0
100
AcDbLine
 62
7
  6
CONTINUOUS
 10
4.5143329664
 20
5.8484521072
 11
4.444445665
 21
6.0270274338
  0
LINE
  5
681
100
AcDbEntity
  8
02___PRT_ALL_AXES
100
AcDbLine
 62
7
  6
CONTINUOUS
 10
4.6388340437
 20
6.0606140568
 11
4.6397856876
 21
6.0535023573
  0
LWPOLYLINE
  5
682
100
AcDbEntity
  8
02___PRT_ALL_AXES
100
AcDbPolyline
 62
7
  6
CONTINUOUS
 90
4
 70
0
 10
6.2681814218
 20
5.904714168
 10
6.3269352171
 20
5.9460474192
 10
6.3705931071
 20
5.9932041292
 10
6.3974773434
 20
6.044372092
  0
LINE
  5
683
100
AcDbEntity
  8
02___PRT_ALL_AXES
100
AcDbLine
 62
9
  6
CONTINUOUS
 10
6.8975803175
 20
3.7351253459
 11
6.892213542
 21
3.7384401904
  0
LINE
  5
684
100
AcDbEntity
  8
0
100
AcDbLine
 62
7
  6
CONTINUOUS
 10
5.1267804727
 20
7.0137164496
 11
5.1267804727
 21
7.0297890541
  0
LINE
  5
685
100
AcDbEntity
  8
0
100
AcDbLine
 62
7
  6
CONTINUOUS
 10
4.3002628191
 20
3.4903897526
 11
4.2303755177
 21
3.3925115049
  0
LINE
  5
686
100
AcDbEntity
  8
0
100
AcDbLine
 62
7
  6
CONTINUOUS
 10
6.6736854959
 20
5.4339891208
 11
6.6071128462
 21
5.4028812403
  0
LINE
  5
687
100
AcDbEntity
  8
0
100
AcDbLine
 62
9
  6
CONTINUOUS
 10
5.8469977709
 20
4.5884983817
 11
5.8518683947
 21
4.5854899905
  0
LINE
  5
688
100
AcDbEntity
  8
02___PRT_ALL_AXES
100
AcDbLine
 62
7
  6
CONTINUOUS
 10
6.7604243588
 20
3.2186852759
 11
6.7542563054
 21
3.2257833536
  0
LINE
  5
689
100
AcDbEntity
  8
0
100
AcDbLine
 62
7
  6
CONTINUOUS
 10
5.3355824503
 20
4.5465607883
 11
4.8484005531
 21
5.3903799027
  0
LWPOLYLINE
  5
68A
100
AcDbEntity
  8
02___PRT_ALL_AXES
100
AcDbPolyline
 62
7
  6
CONTINUOUS
 90
3
 70
0
 10
4.6397856876
 20
6.0535023573
 10
4.6473985266
 20
6.0399754779
 10
4.6618789043
 20
6.0284688462
  0
LINE
  5
68B
100
AcDbEntity
  8
0
100
AcDbLine
 62
7
  6
CONTINUOUS
 10
5.3355824503
 20
3.0196369768
 11
5.3355824503
 21
4.5465607883
  0
LWPOLYLINE
  5
68C
100
AcDbEntity
  8
02___PRT_ALL_AXES
100
AcDbPolyline
 62
7
  6
CONTINUOUS
 90
8
 70
0
 10
6.2064293934
 20
5.1777487879
 10
6.1383076946
 20
5.1309721976
 10
6.0723371654
 20
5.0708302645
 10
6.0110530162
 20
4.9996342093
 10
5.9568103624
 20
4.9201200565
 10
5.9116937189
 20
4.8353434904
 10
5.8774368929
 20
4.7485624269
 10
5.855356355
 20
4.6631118135
  0
LWPOLYLINE
  5
68D
100
AcDbEntity
  8
0
100
AcDbPolyline
 62
7
  6
CONTINUOUS
 90
9
 70
0
 10
6.2062350802
 20
5.1714357357
 10
6.1392031867
 20
5.1254074577
 10
6.074287792
 20
5.0662273556
 10
6.0139846026
 20
4.9961708306
 10
5.9606099538
 20
4.917929064
 10
5.9162152606
 20
4.8345091048
 10
5.882506697
 20
4.7491170818
 10
5.8607792434
 20
4.665033129
 10
5.8518683947
 20
4.5854899905
  0
LINE
  5
68E
100
AcDbEntity
  8
0
100
AcDbLine
 62
7
  6
CONTINUOUS
 10
6.65792636
 20
5.4546775044
 11
6.1568291526
 21
5.1653706237
  0
LINE
  5
68F
100
AcDbEntity
  8
02___PRT_ALL_AXES
100
AcDbLine
 62
7
  6
CONTINUOUS
 10
6.6073071593
 20
5.4091942925
 11
6.2064293934
 21
5.1777487879
  0
LINE
  5
690
100
AcDbEntity
  8
0
100
AcDbLine
 62
7
  6
CONTINUOUS
 10
6.6071128462
 20
5.4028812403
 11
6.2062350802
 21
5.1714357357
  0
LINE
  5
691
100
AcDbEntity
  8
0
100
AcDbLine
 62
7
  6
CONTINUOUS
 10
4.8484005531
 20
5.3903799027
 11
4.0132315864
 21
5.8725540222
  0
LINE
  5
692
100
AcDbEntity
  8
0
100
AcDbLine
 62
7
  6
CONTINUOUS
 10
3.9157952069
 20
5.9288076695
 11
3.219821068
 21
6.3306194357
  0
LINE
  5
693
100
AcDbEntity
  8
0
100
AcDbLine
 62
7
  6
CONTINUOUS
 10
4.3058306122
 20
5.8306014871
 11
4.444445665
 21
5.7505738595
  0
LINE
  5
694
100
AcDbEntity
  8
0
100
AcDbLine
 62
9
  6
CONTINUOUS
 10
5.806822963
 20
4.454578792
 11
5.085851263
 21
5.7033314751
  0
LWPOLYLINE
  5
695
100
AcDbEntity
  8
02___PRT_ALL_AXES
100
AcDbPolyline
 62
7
  6
CONTINUOUS
 90
4
 70
0
 10
5.8007342078
 20
3.1018647293
 10
5.8050513374
 20
3.02874915
 10
5.8225753986
 20
2.9661641262
 10
5.8525840598
 20
2.9165955251
  0
LWPOLYLINE
  5
696
100
AcDbEntity
  8
0
100
AcDbPolyline
 62
7
  6
CONTINUOUS
 90
5
 70
0
 10
5.8063019546
 20
3.1050792502
 10
5.8105500332
 20
3.0331333765
 10
5.8277938867
 20
2.971549384
 10
5.8573703943
 20
2.9226947959
 10
5.894263121
 20
2.8907639238
  0
LINE
  5
697
100
AcDbEntity
  8
02___PRT_ALL_AXES
100
AcDbLine
 62
9
  6
CONTINUOUS
 10
5.5805566544
 20
6.6231549444
 11
5.5805566544
 21
6.6135112151
  0
LINE
  5
698
100
AcDbEntity
  8
02___PRT_ALL_AXES
100
AcDbLine
 62
9
  6
CONTINUOUS
 10
5.691912053
 20
6.6231552121
 11
5.691912053
 21
6.6135114828
  0
LINE
  5
699
100
AcDbEntity
  8
0
100
AcDbLine
 62
7
  6
CONTINUOUS
 10
4.4388778719
 20
3.1339085507
 11
4.5087651733
 21
3.2317867984
  0
LINE
  5
69A
100
AcDbEntity
  8
0
100
AcDbLine
 62
7
  6
CONTINUOUS
 10
4.0132315864
 20
3.7830793327
 11
4.0215832065
 21
3.787901114
  0
LWPOLYLINE
  5
69B
100
AcDbEntity
  8
02___PRT_ALL_AXES
100
AcDbPolyline
 62
7
  6
CONTINUOUS
 90
4
 70
0
 10
6.7985900771
 20
5.4543162293
 10
6.739550486
 20
5.4560437553
 10
6.6749621489
 20
5.4408079418
 10
6.6073071593
 20
5.4091942925
  0
LINE
  5
69C
100
AcDbEntity
  8
02___PRT_ALL_AXES
100
AcDbLine
 62
7
  6
CONTINUOUS
 10
3.1780626197
 20
6.5476027284
 11
3.2420922404
 21
6.5106360459
  0
LINE
  5
69D
100
AcDbEntity
  8
0
100
AcDbLine
 62
7
  6
CONTINUOUS
 10
4.4283210407
 20
5.9013209468
 11
4.5127095115
 21
5.8526003427
  0
LINE
  5
69E
100
AcDbEntity
  8
0
100
AcDbLine
 62
7
  6
CONTINUOUS
 10
4.444445665
 20
6.0270274338
 11
4.3058306122
 21
6.1070550614
  0
LWPOLYLINE
  5
69F
100
AcDbEntity
  8
0
100
AcDbPolyline
 62
7
  6
CONTINUOUS
 90
7
 70
0
 10
4.489316644
 20
5.9123735615
 10
4.4767333291
 20
5.9215512887
 10
4.4572620671
 20
5.9421057616
 10
4.4405417153
 20
5.9665738686
 10
4.4277117381
 20
5.9932881486
 10
4.4196464773
 20
6.0204280677
 10
4.417261661
 20
6.0427217708
  0
LINE
  5
6A0
100
AcDbEntity
  8
0
100
AcDbLine
 62
7
  6
CONTINUOUS
 10
5.7472185279
 20
2.5180868114
 11
5.806822963
 21
4.454578792
  0
LINE
  5
6A1
100
AcDbEntity
  8
02___PRT_ALL_AXES
100
AcDbLine
 62
7
  6
CONTINUOUS
 10
5.8463006479
 20
4.5822754696
 11
5.8007342078
 21
3.1018647293
  0
LINE
  5
6A2
100
AcDbEntity
  8
0
100
AcDbLine
 62
7
  6
CONTINUOUS
 10
5.8518683947
 20
4.5854899905
 11
5.8063019546
 21
3.1050792502
  0
LINE
  5
6A3
100
AcDbEntity
  8
02___PRT_ALL_AXES
100
AcDbLine
 62
7
  6
CONTINUOUS
 10
5.855356355
 20
4.6631118135
 11
5.8463006479
 21
4.5822754696
  0
LINE
  5
6A4
100
AcDbEntity
  8
0
100
AcDbLine
 62
7
  6
CONTINUOUS
 10
3.971473138
 20
3.3732199408
 11
3.9575536553
 21
3.3651835716
  0
LWPOLYLINE
  5
6A5
100
AcDbEntity
  8
02___PRT_ALL_AXES
100
AcDbPolyline
 62
7
  6
CONTINUOUS
 90
9
 70
0
 10
5.2381454914
 20
5.6957687038
 10
5.309737806
 20
5.6618476691
 10
5.3914167912
 20
5.6366421349
 10
5.4800435694
 20
5.6211207358
 10
5.5722122633
 20
5.6158799502
 10
5.6643808816
 20
5.6211211789
 10
5.753007436
 20
5.6366430041
 10
5.8346860576
 20
5.6618489309
 10
5.906277883
 20
5.6957703097
  0
LINE
  5
6A6
100
AcDbEntity
  8
0
100
AcDbLine
 62
7
  6
CONTINUOUS
 10
5.085851263
 20
5.7033314751
 11
3.971473138
 21
6.3467034305
  0
LINE
  5
6A7
100
AcDbEntity
  8
0
100
AcDbLine
 62
7
  6
CONTINUOUS
 10
3.9575536553
 20
6.3547396658
 11
3.2420922404
 21
6.7678021616
  0
LINE
  5
6A8
100
AcDbEntity
  8
02___PRT_ALL_AXES
100
AcDbLine
 62
7
  6
CONTINUOUS
 10
4.6618789043
 20
6.0284688462
 11
5.2381454914
 21
5.6957687038
  0
LINE
  5
6A9
100
AcDbEntity
  8
0
100
AcDbLine
 62
9
  6
CONTINUOUS
 10
6.2014972759
 20
5.1743620896
 11
6.2062350802
 21
5.1714357357
  0
LINE
  5
6AA
100
AcDbEntity
  8
02___PRT_ALL_AXES
100
AcDbLine
 62
7
  6
CONTINUOUS
 10
5.8887253467
 20
2.6736019011
 11
5.8872671096
 21
2.6262251489
  0
LINE
  5
6AB
100
AcDbEntity
  8
0
100
AcDbLine
 62
7
  6
CONTINUOUS
 10
4.2303755177
 20
3.3925115049
 11
4.3500851382
 21
3.4616254739
  0
LINE
  5
6AC
100
AcDbEntity
  8
02___PRT_ALL_AXES
100
AcDbLine
 62
7
  6
CONTINUOUS
 10
3.4007724897
 20
6.9333496799
 11
3.4648021104
 21
6.8963829974
  0
LINE
  5
6AD
100
AcDbEntity
  8
0
100
AcDbLine
 62
9
  6
CONTINUOUS
 10
6.1568291526
 20
5.1653706237
 11
5.8923589798
 21
5.6234438572
  0
LWPOLYLINE
  5
6AE
100
AcDbEntity
  8
03___PRT_ALL_CURVES
100
AcDbPolyline
 62
4
  6
CONTINUOUS
 90
17
 70
0
 10
6.3318153299
 20
3.5290975121
 10
6.3320744094
 20
3.5246780486
 10
6.3331281348
 20
3.5208914047
 10
6.3349363699
 20
3.5178818126
 10
6.3374804598
 20
3.5157347379
 10
6.3405745138
 20
3.5146070622
 10
6.3441394474
 20
3.5144958069
 10
6.3480394733
 20
3.5154052097
 10
6.3521997644
 20
3.5173430525
 10
6.356316338
 20
3.5201677417
 10
6.3603041901
 20
3.5237970468
 10
6.3640114244
 20
3.5280927287
 10
6.3673508746
 20
3.5329803269
 10
6.3700785349
 20
3.5381027165
 10
6.3721532757
 20
3.5433465843
 10
6.3734960709
 20
3.5485121931
 10
6.3740584756
 20
3.5534864601
  0
LWPOLYLINE
  5
6AF
100
AcDbEntity
  8
03___PRT_ALL_CURVES
100
AcDbPolyline
 62
4
  6
CONTINUOUS
 90
17
 70
0
 10
6.3740584756
 20
3.553486458
 10
6.3737993961
 20
3.5579059216
 10
6.3727456707
 20
3.5616925654
 10
6.3709374356
 20
3.5647021575
 10
6.3683933457
 20
3.5668492323
 10
6.3652992917
 20
3.567976908
 10
6.3617343581
 20
3.5680881633
 10
6.3578343322
 20
3.5671787605
 10
6.3536740411
 20
3.5652409177
 10
6.3495574675
 20
3.5624162284
 10
6.3455696154
 20
3.5587869233
 10
6.3418623811
 20
3.5544912415
 10
6.3385229309
 20
3.5496036432
 10
6.3357952706
 20
3.5444812536
 10
6.3337205298
 20
3.5392373858
 10
6.3323777346
 20
3.5340717771
 10
6.3318153299
 20
3.52909751
  0
LINE
  5
6B0
100
AcDbEntity
  8
02___PRT_ALL_AXES
100
AcDbLine
 62
9
  6
CONTINUOUS
 10
6.2681786401
 20
6.2904550696
 11
6.2681786401
 21
6.2808113403
  0
LINE
  5
6B1
100
AcDbEntity
  8
02___PRT_ALL_AXES
100
AcDbLine
 62
7
  6
CONTINUOUS
 10
6.3974773434
 20
6.044372092
 11
6.40655478
 21
6.0975838231
  0
LINE
  5
6B2
100
AcDbEntity
  8
0
100
AcDbLine
 62
7
  6
CONTINUOUS
 10
4.3002628191
 20
3.2139361783
 11
4.4227532476
 21
3.284655638
  0
LWPOLYLINE
  5
6B3
100
AcDbEntity
  8
0
100
AcDbPolyline
 62
7
  6
CONTINUOUS
 90
4
 70
0
 10
6.8496178444
 20
5.4266368916
 10
6.7953353541
 20
5.4472812045
 10
6.7372408003
 20
5.4489811686
 10
6.6736854959
 20
5.4339891208
  0
LINE
  5
6B4
100
AcDbEntity
  8
02___PRT_ALL_AXES
100
AcDbLine
 62
7
  6
CONTINUOUS
 10
6.8537553279
 20
5.4333362154
 11
6.7985900771
 21
5.4543162293
  0
LINE
  5
6B5
100
AcDbEntity
  8
0
100
AcDbLine
 62
9
  6
CONTINUOUS
 10
6.6019238681
 20
5.4060862664
 11
6.6071128462
 21
5.4028812403
  0
LINE
  5
6B6
100
AcDbEntity
  8
02___PRT_ALL_AXES
100
AcDbLine
 62
9
  6
CONTINUOUS
 10
6.9431467576
 20
5.2155360862
 11
6.937171282
 21
5.2192269006
  0
LWPOLYLINE
  5
6B7
100
AcDbEntity
  8
02___PRT_ALL_AXES
100
AcDbPolyline
 62
7
  6
CONTINUOUS
 90
5
 70
0
 10
6.4056063618
 20
6.0974924341
 10
6.4035839502
 20
6.1184806463
 10
6.3800423179
 20
6.1780280777
 10
6.3341399693
 20
6.2330581211
 10
6.2681786401
 20
6.2808113403
  0
LINE
  5
6B8
100
AcDbEntity
  8
0
100
AcDbLine
 62
7
  6
CONTINUOUS
 10
6.8147706665
 20
5.4481625549
 11
6.8496375144
 21
5.4266266851
  0
LINE
  5
6B9
100
AcDbEntity
  8
02___PRT_ALL_AXES
100
AcDbLine
 62
7
  6
CONTINUOUS
 10
6.7646625536
 20
3.1965288812
 11
6.7604243588
 21
3.2186852759
  0
LINE
  5
6BA
100
AcDbEntity
  8
02___PRT_ALL_AXES
100
AcDbLine
 62
7
  6
CONTINUOUS
 10
6.7646625536
 20
3.1483102346
 11
6.7646625536
 21
3.1965288812
  0
LINE
  5
6BB
100
AcDbEntity
  8
0
100
AcDbLine
 62
7
  6
CONTINUOUS
 10
5.4694993725
 20
2.8153459852
 11
5.3996120711
 21
2.7174677375
  0
LINE
  5
6BC
100
AcDbEntity
  8
02___PRT_ALL_AXES
100
AcDbLine
 62
7
  6
CONTINUOUS
 10
4.1245795671
 20
7.3512373965
 11
4.1886091879
 21
7.314270714
  0
LINE
  5
6BD
100
AcDbEntity
  8
02___PRT_ALL_AXES
100
AcDbLine
 62
7
  6
CONTINUOUS
 10
6.8912480138
 20
5.4008860504
 11
6.8537553279
 21
5.4333362154
  0
LINE
  5
6BE
100
AcDbEntity
  8
02___PRT_ALL_AXES
100
AcDbLine
 62
7
  6
CONTINUOUS
 10
6.847380716
 20
5.4248898213
 11
6.8355523608
 21
5.4402590246
  0
LINE
  5
6BF
100
AcDbEntity
  8
0
100
AcDbLine
 62
9
  6
CONTINUOUS
 10
6.3934561872
 20
5.9127507379
 11
6.65792636
 21
5.4546775044
  0
LWPOLYLINE
  5
6C0
100
AcDbEntity
  8
02___PRT_ALL_AXES
100
AcDbPolyline
 62
7
  6
CONTINUOUS
 90
5
 70
0
 10
6.40655478
 20
6.0975838231
 10
6.3974765759
 20
6.1507977673
 10
6.3705916016
 20
6.2019656008
 10
6.3269330316
 20
6.2491221009
 10
6.2681786401
 20
6.2904550696
  0
LWPOLYLINE
  5
6C1
100
AcDbEntity
  8
0
100
AcDbPolyline
 62
7
  6
CONTINUOUS
 90
5
 70
0
 10
6.9375790109
 20
5.2123215653
 10
6.9333309323
 20
5.284267439
 10
6.9160870788
 20
5.3458514314
 10
6.8865105712
 20
5.3947060196
 10
6.8496178444
 20
5.4266368916
  0
LWPOLYLINE
  5
6C2
100
AcDbEntity
  8
02___PRT_ALL_AXES
100
AcDbPolyline
 62
7
  6
CONTINUOUS
 90
4
 70
0
 10
6.9431467576
 20
5.2155360862
 10
6.9388296281
 20
5.2886516655
 10
6.9213055669
 20
5.3512366893
 10
6.8912480138
 20
5.4008860504
  0
LINE
  5
6C3
100
AcDbEntity
  8
02___PRT_ALL_AXES
100
AcDbLine
 62
7
  6
CONTINUOUS
 10
6.7781065895
 20
3.1405484924
 11
6.7795648267
 21
3.1879252445
  0
LINE
  5
6C4
100
AcDbEntity
  8
0
100
AcDbLine
 62
7
  6
CONTINUOUS
 10
6.8920125708
 20
3.731910825
 11
6.9375790109
 21
5.2123215653
  0
LINE
  5
6C5
100
AcDbEntity
  8
02___PRT_ALL_AXES
100
AcDbLine
 62
7
  6
CONTINUOUS
 10
6.8975803175
 20
3.7351253459
 11
6.9431467576
 21
5.2155360862
  0
LINE
  5
6C6
100
AcDbEntity
  8
0
100
AcDbLine
 62
7
  6
CONTINUOUS
 10
6.9164453454
 20
3.1931361997
 11
6.9760497804
 21
5.1296281803
  0
LINE
  5
6C7
100
AcDbEntity
  8
0
100
AcDbLine
 62
7
  6
CONTINUOUS
 10
5.6081144253
 20
2.4588647833
 11
5.6780017267
 21
2.556743031
  0
LWPOLYLINE
  5
6C8
100
AcDbEntity
  8
02___PRT_ALL_AXES
100
AcDbPolyline
 62
7
  6
CONTINUOUS
 90
5
 70
0
 10
5.691912053
 20
6.6135114828
 10
5.6663668364
 20
6.6233659109
 10
5.6362342577
 20
6.626826275
 10
5.6061017289
 20
6.623365766
 10
5.5805566544
 20
6.6135112151
  0
LWPOLYLINE
  5
6C9
100
AcDbEntity
  8
02___PRT_ALL_AXES
100
AcDbPolyline
 62
7
  6
CONTINUOUS
 90
6
 70
0
 10
5.691912053
 20
6.6231552121
 10
5.6719815769
 20
6.6315152467
 10
5.6485519362
 20
6.6359103459
 10
5.6239165873
 20
6.6359102867
 10
5.60048701
 20
6.6315150749
 10
5.5805566544
 20
6.6231549444
  0
LINE
  5
6CA
100
AcDbEntity
  8
02___PRT_ALL_AXES
100
AcDbLine
 62
7
  6
CONTINUOUS
 10
6.2681786401
 20
6.2808113403
 11
5.691912053
 21
6.6135114828
  0
LINE
  5
6CB
100
AcDbEntity
  8
02___PRT_ALL_AXES
100
AcDbLine
 62
7
  6
CONTINUOUS
 10
6.2681786401
 20
6.2904550696
 11
5.691912053
 21
6.6231552121
  0
LINE
  5
6CC
100
AcDbEntity
  8
0
100
AcDbLine
 62
7
  6
CONTINUOUS
 10
6.2550780804
 20
6.3783808634
 11
5.1406999555
 21
7.0217528188
  0
LINE
  5
6CD
100
AcDbEntity
  8
0
100
AcDbLine
 62
7
  6
CONTINUOUS
 10
5.1267804727
 20
7.0297890541
 11
4.4113190579
 21
7.4428515498
  0
LINE
  5
6CE
100
AcDbEntity
  8
0
100
AcDbLine
 62
7
  6
CONTINUOUS
 10
6.4662967012
 20
6.1859342103
 11
6.9241819953
 21
5.3928580194
  0
LINE
  5
6CF
100
AcDbEntity
  8
02___PRT_ALL_AXES
100
AcDbLine
 62
7
  6
CONTINUOUS
 10
6.8885246105
 20
3.6542890019
 11
6.8975803175
 21
3.7351253459
  0
LWPOLYLINE
  5
6D0
100
AcDbEntity
  8
0
100
AcDbPolyline
 62
7
  6
CONTINUOUS
 90
5
 70
0
 10
6.9164453454
 20
3.1931361997
 10
6.9112779976
 20
3.1547885109
 10
6.8981422807
 20
3.1224212076
 10
6.8778496682
 20
3.0986990271
 10
6.8676360434
 20
3.0916439818
  0
LINE
  5
6D1
100
AcDbEntity
  8
0
100
AcDbLine
 62
7
  6
CONTINUOUS
 10
5.3996120711
 20
2.7174677375
 11
5.5193216916
 21
2.7865817066
  0
LWPOLYLINE
  5
6D2
100
AcDbEntity
  8
02___PRT_ALL_AXES
100
AcDbPolyline
 62
7
  6
CONTINUOUS
 90
10
 70
0
 10
6.7715806729
 20
3.1094990412
 10
6.7683783216
 20
3.1018882266
 10
6.7644993738
 20
3.0944492828
 10
6.7600551244
 20
3.0872953372
 10
6.7550642579
 20
3.0803806745
 10
6.7494109825
 20
3.0735474643
 10
6.7429641685
 20
3.0667211236
 10
6.7355859272
 20
3.0599085348
 10
6.7271336611
 20
3.0532161669
 10
6.7175205783
 20
3.0469456395
  0
LWPOLYLINE
  5
6D3
100
AcDbEntity
  8
0
100
AcDbPolyline
 62
7
  6
CONTINUOUS
 90
9
 70
0
 10
6.5376458853
 20
3.1459650798
 10
6.6046777788
 20
3.1919933578
 10
6.6695931735
 20
3.2511734599
 10
6.7298963628
 20
3.3212299849
 10
6.7832710117
 20
3.3994717515
 10
6.8276657048
 20
3.4828917107
 10
6.8613742685
 20
3.5682837337
 10
6.8831017221
 20
3.6523676865
 10
6.8920125708
 20
3.731910825
  0
LWPOLYLINE
  5
6D4
100
AcDbEntity
  8
02___PRT_ALL_AXES
100
AcDbPolyline
 62
7
  6
CONTINUOUS
 90
8
 70
0
 10
6.5374515721
 20
3.1396520276
 10
6.6055732708
 20
3.1864286179
 10
6.6715438
 20
3.246570551
 10
6.7328279492
 20
3.3177666062
 10
6.787070603
 20
3.397280759
 10
6.8321872466
 20
3.4820573251
 10
6.8664440726
 20
3.5688383886
 10
6.8885246105
 20
3.6542890019
  0
LINE
  5
6D5
100
AcDbEntity
  8
0
100
AcDbLine
 62
7
  6
CONTINUOUS
 10
5.4694993725
 20
2.5388924109
 11
5.591989801
 21
2.6096118707
  0
LINE
  5
6D6
100
AcDbEntity
  8
0
100
AcDbLine
 62
7
  6
CONTINUOUS
 10
6.1367681193
 20
2.9145195752
 11
6.5376458853
 21
3.1459650798
  0
LINE
  5
6D7
100
AcDbEntity
  8
02___PRT_ALL_AXES
100
AcDbLine
 62
7
  6
CONTINUOUS
 10
6.1365738061
 20
2.908206523
 11
6.5374515721
 21
3.1396520276
  0
LINE
  5
6D8
100
AcDbEntity
  8
02___PRT_ALL_AXES
100
AcDbLine
 62
7
  6
CONTINUOUS
 10
6.7258316754
 20
3.2189490384
 11
5.9463471304
 21
2.7689161128
  0
LINE
  5
6D9
100
AcDbEntity
  8
0
100
AcDbLine
 62
7
  6
CONTINUOUS
 10
6.0701954695
 20
2.8834116947
 11
6.1367681193
 21
2.9145195752
  0
LWPOLYLINE
  5
6DA
100
AcDbEntity
  8
02___PRT_ALL_AXES
100
AcDbPolyline
 62
7
  6
CONTINUOUS
 90
5
 70
0
 10
6.7089850861
 20
3.0518734967
 10
6.7302919305
 20
3.0690688368
 10
6.7483550009
 20
3.0934341448
 10
6.7604243588
 20
3.1212600233
 10
6.7646625536
 20
3.1483102346
  0
LWPOLYLINE
  5
6DB
100
AcDbEntity
  8
0
100
AcDbPolyline
 62
7
  6
CONTINUOUS
 90
5
 70
0
 10
5.698409226
 20
2.4165945935
 10
5.7086228507
 20
2.4236496388
 10
5.7289154632
 20
2.4473718193
 10
5.7420511802
 20
2.4797391226
 10
5.7472185279
 20
2.5180868114
  0
LINE
  5
6DC
100
AcDbEntity
  8
02___PRT_ALL_AXES
100
AcDbLine
 62
9
  6
CONTINUOUS
 10
5.7472185279
 20
2.5180868114
 11
5.8920832004
 21
2.6017239698
  0
LINE
  5
6DD
100
AcDbEntity
  8
02___PRT_ALL_AXES
100
AcDbLine
 62
9
  6
CONTINUOUS
 10
6.7715806729
 20
3.1094990412
 11
6.9164453454
 21
3.1931361997
  0
LINE
  5
6DE
100
AcDbEntity
  8
02___PRT_ALL_AXES
100
AcDbLine
 62
7
  6
CONTINUOUS
 10
5.9295005412
 20
2.6018405712
 11
6.7089850861
 21
3.0518734967
  0
LINE
  5
6DF
100
AcDbEntity
  8
02___PRT_ALL_AXES
100
AcDbLine
 62
7
  6
CONTINUOUS
 10
5.9380360334
 20
2.5969127139
 11
6.7175205783
 21
3.0469456395
  0
LINE
  5
6E0
100
AcDbEntity
  8
0
100
AcDbLine
 62
7
  6
CONTINUOUS
 10
5.6983961945
 20
2.4166208805
 11
6.867623012
 21
3.0916702688
  0
LWPOLYLINE
  5
6E1
100
AcDbEntity
  8
02___PRT_ALL_AXES
100
AcDbPolyline
 62
7
  6
CONTINUOUS
 90
7
 70
0
 10
5.9380360334
 20
2.5969127139
 10
5.9292209647
 20
2.5924755832
 10
5.9218576795
 20
2.5898961361
 10
5.9156523441
 20
2.5887217598
 10
5.910346834
 20
2.5886584215
 10
5.9057494246
 20
2.589531791
 10
5.9015324892
 20
2.591358323
  0
CIRCLE
  5
6E2
100
AcDbEntity
  8
0
100
AcDbCircle
 62
7
  6
CONTINUOUS
 10
15.2229827477
 20
1.1139932523
 40
0.252091
  0
CIRCLE
  5
6E3
100
AcDbEntity
  8
0
100
AcDbCircle
 62
7
  6
CONTINUOUS
 10
15.2229827477
 20
1.1139932523
 40
0.182698
  0
ARC
  5
6E4
100
AcDbEntity
  8
0
100
AcDbCircle
 62
7
  6
CONTINUOUS
 10
1.9661127097
 20
8.5904005678
 40
0.2362204724
100
AcDbArc
 50
182.0
 51
270.0
  0
CIRCLE
  5
6E5
100
AcDbEntity
  8
0
100
AcDbCircle
 62
7
  6
CONTINUOUS
 10
3.6783167687
 20
8.5805580481
 40
0.1141732283
  0
CIRCLE
  5
6E6
100
AcDbEntity
  8
0
100
AcDbCircle
 62
7
  6
CONTINUOUS
 10
2.0247734616
 20
8.5805580481
 40
0.1141732283
  0
CIRCLE
  5
6E7
100
AcDbEntity
  8
0
100
AcDbCircle
 62
7
  6
CONTINUOUS
 10
3.6704427529
 20
11.7892194655
 40
0.1141732283
  0
CIRCLE
  5
6E8
100
AcDbEntity
  8
02___PRT_ALL_AXES
100
AcDbCircle
 62
7
  6
CONTINUOUS
 10
8.0971573539
 20
9.1317391505
 40
0.4330708661
  0
CIRCLE
  5
6E9
100
AcDbEntity
  8
02___PRT_ALL_AXES
100
AcDbCircle
 62
7
  6
CONTINUOUS
 10
8.0971573539
 20
9.1317391505
 40
0.3937007874
  0
CIRCLE
  5
6EA
100
AcDbEntity
  8
02___PRT_ALL_AXES
100
AcDbCircle
 62
7
  6
CONTINUOUS
 10
8.0971573539
 20
9.1317391505
 40
0.3090551181
  0
CIRCLE
  5
6EB
100
AcDbEntity
  8
02___PRT_ALL_AXES
100
AcDbCircle
 62
7
  6
CONTINUOUS
 10
8.0971573539
 20
9.1317391505
 40
0.2657480315
  0
CIRCLE
  5
6EC
100
AcDbEntity
  8
02___PRT_ALL_AXES
100
AcDbCircle
 62
7
  6
CONTINUOUS
 10
8.0971573539
 20
9.1317391505
 40
0.2362204724
  0
ARC
  5
6ED
100
AcDbEntity
  8
02___PRT_ALL_AXES
100
AcDbCircle
 62
7
  6
CONTINUOUS
 10
7.4278660154
 20
8.5116604103
 40
0.157480315
100
AcDbArc
 50
0.0
 51
90.0
  0
ARC
  5
6EE
100
AcDbEntity
  8
02___PRT_ALL_AXES
100
AcDbCircle
 62
7
  6
CONTINUOUS
 10
7.4278660154
 20
11.8581171033
 40
0.157480315
100
AcDbArc
 50
270.0
 51
360.0
  0
ARC
  5
6EF
100
AcDbEntity
  8
02___PRT_ALL_AXES
100
AcDbCircle
 62
7
  6
CONTINUOUS
 10
8.7664486925
 20
11.8581171033
 40
0.157480315
100
AcDbArc
 50
180.0
 51
270.0
  0
ARC
  5
6F0
100
AcDbEntity
  8
02___PRT_ALL_AXES
100
AcDbCircle
 62
7
  6
CONTINUOUS
 10
8.7664486925
 20
8.5116604103
 40
0.157480315
100
AcDbArc
 50
90.0
 51
180.0
  0
CIRCLE
  5
6F1
100
AcDbEntity
  8
02___PRT_ALL_AXES
100
AcDbCircle
 62
7
  6
CONTINUOUS
 10
7.4278660154
 20
8.5116604103
 40
0.1141732283
  0
CIRCLE
  5
6F2
100
AcDbEntity
  8
02___PRT_ALL_AXES
100
AcDbCircle
 62
7
  6
CONTINUOUS
 10
8.7664486925
 20
8.5116604103
 40
0.1141732283
  0
CIRCLE
  5
6F3
100
AcDbEntity
  8
02___PRT_ALL_AXES
100
AcDbCircle
 62
7
  6
CONTINUOUS
 10
8.7664486925
 20
11.8581171033
 40
0.1141732283
  0
CIRCLE
  5
6F4
100
AcDbEntity
  8
02___PRT_ALL_AXES
100
AcDbCircle
 62
7
  6
CONTINUOUS
 10
7.4278660154
 20
11.8581171033
 40
0.1141732283
  0
ARC
  5
6F5
100
AcDbEntity
  8
02___PRT_ALL_AXES
100
AcDbCircle
 62
7
  6
CONTINUOUS
 10
7.408180976
 20
11.554967497
 40
0.0787401575
100
AcDbArc
 50
90.0
 51
180.0
  0
ARC
  5
6F6
100
AcDbEntity
  8
02___PRT_ALL_AXES
100
AcDbCircle
 62
7
  6
CONTINUOUS
 10
7.408180976
 20
9.7636289143
 40
0.0787401575
100
AcDbArc
 50
180.0
 51
270.0
  0
ARC
  5
6F7
100
AcDbEntity
  8
02___PRT_ALL_AXES
100
AcDbCircle
 62
7
  6
CONTINUOUS
 10
8.7861337319
 20
9.7636289143
 40
0.0787401575
100
AcDbArc
 50
270.0
 51
360.0
  0
ARC
  5
6F8
100
AcDbEntity
  8
02___PRT_ALL_AXES
100
AcDbCircle
 62
7
  6
CONTINUOUS
 10
8.7861337319
 20
11.554967497
 40
0.0787401575
100
AcDbArc
 50
0.0
 51
90.0
  0
ARC
  5
6F9
100
AcDbEntity
  8
02___PRT_ALL_AXES
100
AcDbCircle
 62
7
  6
CONTINUOUS
 10
8.0971573539
 20
8.9053611977
 40
0.0393700787
100
AcDbArc
 50
350.3006462935
 51
187.9343938464
  0
ARC
  5
6FA
100
AcDbEntity
  8
0
100
AcDbCircle
 62
7
  6
CONTINUOUS
 10
15.3487756225
 20
8.5904005678
 40
0.2362204724
100
AcDbArc
 50
270.0
 51
358.0
  0
CIRCLE
  5
6FB
100
AcDbEntity
  8
0
100
AcDbCircle
 62
7
  6
CONTINUOUS
 10
13.6365715635
 20
8.5805580481
 40
0.1141732283
  0
CIRCLE
  5
6FC
100
AcDbEntity
  8
0
100
AcDbCircle
 62
7
  6
CONTINUOUS
 10
15.2901148706
 20
8.5805580481
 40
0.1141732283
  0
CIRCLE
  5
6FD
100
AcDbEntity
  8
0
100
AcDbCircle
 62
7
  6
CONTINUOUS
 10
13.6444455793
 20
11.7892194655
 40
0.1141732283
  0
ARC
  5
6FE
100
AcDbEntity
  8
02___PRT_ALL_AXES
100
AcDbCircle
 62
7
  6
CONTINUOUS
 10
18.8232086159
 20
8.6758336387
 40
0.0787401575
100
AcDbArc
 50
0.0
 51
90.0
  0
ARC
  5
6FF
100
AcDbEntity
  8
02___PRT_ALL_AXES
100
AcDbCircle
 62
7
  6
CONTINUOUS
 10
17.7208464112
 20
8.6758336387
 40
0.0787401575
100
AcDbArc
 50
90.0
 51
180.0
  0
ARC
  5
700
100
AcDbEntity
  8
02___PRT_ALL_AXES
100
AcDbCircle
 62
7
  6
CONTINUOUS
 10
18.8232086159
 20
8.6167785206
 40
0.0787401575
100
AcDbArc
 50
270.0
 51
360.0
  0
ARC
  5
701
100
AcDbEntity
  8
02___PRT_ALL_AXES
100
AcDbCircle
 62
7
  6
CONTINUOUS
 10
17.7208464112
 20
8.6167785206
 40
0.0787401575
100
AcDbArc
 50
180.0
 51
270.0
  0
ARC
  5
702
100
AcDbEntity
  8
0
100
AcDbCircle
 62
7
  6
CONTINUOUS
 10
13.998776288
 20
5.5400602921
 40
0.3107805788
100
AcDbArc
 50
304.0718302166
 51
349.0459373566
  0
ARC
  5
703
100
AcDbEntity
  8
0
100
AcDbCircle
 62
7
  6
CONTINUOUS
 10
13.998776288
 20
5.5400602921
 40
0.3107805788
100
AcDbArc
 50
10.9540626434
 51
55.9281697834
  0
ARC
  5
704
100
AcDbEntity
  8
0
100
AcDbCircle
 62
7
  6
CONTINUOUS
 10
13.998776288
 20
5.5400602921
 40
0.2874015748
100
AcDbArc
 50
76.6514002708
 51
160.9449758568
  0
ARC
  5
705
100
AcDbEntity
  8
0
100
AcDbCircle
 62
7
  6
CONTINUOUS
 10
13.998776288
 20
5.5400602921
 40
0.2874015748
100
AcDbArc
 50
199.0550241432
 51
283.3485997292
  0
ARC
  5
706
100
AcDbEntity
  8
0
100
AcDbCircle
 62
7
  6
CONTINUOUS
 10
14.9436581777
 20
5.5400602921
 40
0.2874015748
100
AcDbArc
 50
19.0550241432
 51
103.3485997292
  0
ARC
  5
707
100
AcDbEntity
  8
0
100
AcDbCircle
 62
7
  6
CONTINUOUS
 10
14.9436581777
 20
5.5400602921
 40
0.2874015748
100
AcDbArc
 50
256.6514002708
 51
340.9449758568
  0
ARC
  5
708
100
AcDbEntity
  8
0
100
AcDbCircle
 62
7
  6
CONTINUOUS
 10
14.9436581777
 20
5.5400602921
 40
0.2722306434
100
AcDbArc
 50
192.5288077092
 51
242.1954141667
  0
ARC
  5
709
100
AcDbEntity
  8
0
100
AcDbCircle
 62
7
  6
CONTINUOUS
 10
14.9436581777
 20
5.5400602921
 40
0.2722306434
100
AcDbArc
 50
117.8045858333
 51
167.4711922908
  0
CIRCLE
  5
70A
100
AcDbEntity
  8
DEFAULT_2
100
AcDbCircle
 62
8
  6
HIDDEN
 10
14.9436581777
 20
5.5400602921
 40
0.0984251969
  0
CIRCLE
  5
70B
100
AcDbEntity
  8
DEFAULT_2
100
AcDbCircle
 62
8
  6
HIDDEN
 10
13.998776288
 20
5.5400602921
 40
0.0984251969
  0
CIRCLE
  5
70C
100
AcDbEntity
  8
02___PRT_ALL_AXES
100
AcDbCircle
 62
7
  6
CONTINUOUS
 10
13.998776288
 20
5.5400602921
 40
0.0826771654
  0
CIRCLE
  5
70D
100
AcDbEntity
  8
02___PRT_ALL_AXES
100
AcDbCircle
 62
7
  6
CONTINUOUS
 10
14.9436581777
 20
5.5400602921
 40
0.0826771654
  0
ARC
  5
70E
100
AcDbEntity
  8
02___PRT_ALL_AXES
100
AcDbCircle
 62
7
  6
CONTINUOUS
 10
14.7664928234
 20
13.962908177
 40
0.4724409449
100
AcDbArc
 50
270.0
 51
360.0
  0
ARC
  5
70F
100
AcDbEntity
  8
02___PRT_ALL_AXES
100
AcDbCircle
 62
7
  6
CONTINUOUS
 10
14.7664928234
 20
14.4747192007
 40
0.4724409449
100
AcDbArc
 50
0.0
 51
90.0
  0
ARC
  5
710
100
AcDbEntity
  8
02___PRT_ALL_AXES
100
AcDbCircle
 62
7
  6
CONTINUOUS
 10
13.9515321935
 20
14.8684199881
 40
0.0787401575
100
AcDbArc
 50
90.0
 51
180.0
  0
ARC
  5
711
100
AcDbEntity
  8
02___PRT_ALL_AXES
100
AcDbCircle
 62
7
  6
CONTINUOUS
 10
13.9515321935
 20
13.5692073896
 40
0.0787401575
100
AcDbArc
 50
180.0
 51
270.0
  0
ELLIPSE
  5
712
100
AcDbEntity
  8
0
100
AcDbEllipse
 62
7
  6
CONTINUOUS
 10
17.9176968049
 20
10.995993707
 30
0.0
 11
0.0
 21
0.6455879632
 31
0.0
 40
0.7317994941
 41
0.0
 42
1.5707963268
  0
ELLIPSE
  5
713
100
AcDbEntity
  8
0
100
AcDbEllipse
 62
7
  6
CONTINUOUS
 10
18.6263582222
 20
10.995993707
 30
0.0
 11
-0.0
 21
0.6455879632
 31
0.0
 40
0.7317994941
 41
-1.5707963268
 42
0.0
  0
ELLIPSE
  5
714
100
AcDbEntity
  8
02___PRT_ALL_AXES
100
AcDbEllipse
 62
7
  6
CONTINUOUS
 10
15.5860612202
 20
6.0912413945
 30
0.0
 11
0.0
 21
0.0787401575
 31
0.0
 40
0.0349207695
 41
0.0
 42
0.4552629431
  0
ELLIPSE
  5
715
100
AcDbEntity
  8
0
100
AcDbEllipse
 62
7
  6
CONTINUOUS
 10
15.6691452453
 20
5.8943910008
 30
0.0
 11
-0.0
 21
0.4724409449
 31
0.0
 40
0.0477190402
 41
4.7123889804
 42
6.2831853072
  0
ELLIPSE
  5
716
100
AcDbEntity
  8
02___PRT_ALL_AXES
100
AcDbEllipse
 62
7
  6
CONTINUOUS
 10
15.5860612202
 20
4.9888791898
 30
0.0
 11
-0.0
 21
0.0787401575
 31
0.0
 40
0.0349207695
 41
-3.5968555966
 42
-3.1415926536
  0
ELLIPSE
  5
717
100
AcDbEntity
  8
0
100
AcDbEllipse
 62
7
  6
CONTINUOUS
 10
15.6691452453
 20
5.1857295835
 30
0.0
 11
-0.0
 21
0.4724409449
 31
0.0
 40
0.0477190402
 41
3.1415926536
 42
4.7123889804
  0
ELLIPSE
  5
718
100
AcDbEntity
  8
02___PRT_ALL_AXES
100
AcDbEllipse
 62
7
  6
CONTINUOUS
 10
15.5881234704
 20
4.9888791898
 30
0.0
 11
0.0
 21
0.0787401575
 31
0.0
 40
0.0349207695
 41
3.1415926536
 42
4.7123889804
  0
ELLIPSE
  5
719
100
AcDbEntity
  8
02___PRT_ALL_AXES
100
AcDbEllipse
 62
7
  6
CONTINUOUS
 10
15.5881234704
 20
6.0912413945
 30
0.0
 11
0.0
 21
0.0787401575
 31
0.0
 40
0.0349207695
 41
4.7123889804
 42
6.2831853072
  0
ELLIPSE
  5
71A
100
AcDbEntity
  8
0
100
AcDbEllipse
 62
7
  6
CONTINUOUS
 10
15.6691452453
 20
14.5731443975
 30
0.0
 11
0.0
 21
0.4724409449
 31
0.0
 40
0.0477190402
 41
-1.5707963268
 42
-0.0
  0
ELLIPSE
  5
71B
100
AcDbEntity
  8
0
100
AcDbEllipse
 62
7
  6
CONTINUOUS
 10
15.6691452453
 20
13.8644829802
 30
0.0
 11
-0.0
 21
0.4724409449
 31
0.0
 40
0.0477190402
 41
-3.1415926536
 42
-1.5707963268
  0
ELLIPSE
  5
71C
100
AcDbEntity
  8
0
100
AcDbEllipse
 62
7
  6
CONTINUOUS
 10
14.6495415341
 20
13.8644829802
 30
0.0
 11
-0.6681323917
 21
-0.0
 31
0.0
 40
0.7071067812
 41
1.5707963268
 42
3.1415926536
  0
ELLIPSE
  5
71D
100
AcDbEntity
  8
0
100
AcDbEllipse
 62
7
  6
CONTINUOUS
 10
14.6495415341
 20
14.5731443975
 30
0.0
 11
0.6681323917
 21
0.0
 31
0.0
 40
0.7071067812
 41
-0.0
 42
1.5707963268
  0
ELLIPSE
  5
71E
100
AcDbEntity
  8
02___PRT_ALL_AXES
100
AcDbEllipse
 62
7
  6
CONTINUOUS
 10
5.9444028142
 20
2.70574711
 30
0.0
 11
0.0413572829
 21
0.0670316463
 31
0.0
 40
0.5568625709
 41
0.8016619757
 42
2.3724583025
  0
ELLIPSE
  5
71F
100
AcDbEntity
  8
02___PRT_ALL_AXES
100
AcDbEllipse
 62
7
  6
CONTINUOUS
 10
5.9429445771
 20
2.6583703579
 30
0.0
 11
0.0413572829
 21
0.0670316463
 31
0.0
 40
0.5568625709
 41
-3.9107270047
 42
-3.4554640617
  0
ELLIPSE
  5
720
100
AcDbEntity
  8
02___PRT_ALL_AXES
100
AcDbEllipse
 62
7
  6
CONTINUOUS
 10
6.722429122
 20
3.1084032834
 30
0.0
 11
0.0413572829
 21
0.0670316463
 31
0.0
 40
0.5568625709
 41
-1.2243972942
 42
-0.7691343511
  0
ELLIPSE
  5
721
100
AcDbEntity
  8
02___PRT_ALL_AXES
100
AcDbEllipse
 62
7
  6
CONTINUOUS
 10
6.7238873592
 20
3.1557800356
 30
0.0
 11
0.0413572829
 21
0.0670316463
 31
0.0
 40
0.5568625709
 41
-0.7691343511
 42
0.8016619757
  0
ELLIPSE
  5
722
100
AcDbEntity
  8
0
100
AcDbEllipse
 62
7
  6
CONTINUOUS
 10
5.9210132754
 20
6.1855096096
 30
0.0
 11
0.5731342284
 21
-0.1535663128
 31
0.0
 40
0.5176304373
 41
-0.4776604193
 42
1.0931359075
  0
ELLIPSE
  5
723
100
AcDbEntity
  8
0
100
AcDbEllipse
 62
7
  6
CONTINUOUS
 10
5.4199160679
 20
5.8962027289
 30
0.0
 11
0.5731342284
 21
-0.1535663128
 31
0.0
 40
0.5176304373
 41
-2.0484567461
 42
-0.4776604193
  0
ELLIPSE
  5
724
100
AcDbEntity
  8
0
100
AcDbEllipse
 62
7
  6
CONTINUOUS
 10
6.6419849754
 20
4.9367569265
 30
0.0
 11
0.1817415733
 21
0.5446696501
 31
0.0
 40
0.5154594034
 41
5.2392026191
 42
6.8099989459
  0
ELLIPSE
  5
725
100
AcDbEntity
  8
0
100
AcDbEllipse
 62
7
  6
CONTINUOUS
 10
6.140887768
 20
4.6474500458
 30
0.0
 11
0.1817415733
 21
0.5446696501
 31
0.0
 40
0.5154594034
 41
0.5268136387
 42
2.0976099655
  0
ENDSEC
  0
SECTION
  2
OBJECTS
  0
DICTIONARY
  5
C
100
AcDbDictionary
280
0
281
1
  3
ACAD_GROUP
350
D
  3
ACAD_MLINESTYLE
350
17
  3
ACAD_LAYOUT
350
1A
  3
ACAD_PLOTSETTINGS
350
19
  3
ACAD_PLOTSTYLENAME
350
E
  0
DICTIONARY
  5
D
102
{ACAD_REACTORS
330
C
102
}
100
AcDbDictionary
280
0
281
1
  0
ACDBDICTIONARYWDFLT
  5
E
102
{ACAD_REACTORS
330
C
102
}
100
AcDbDictionary
281
1
  3
Normal
350
F
100
AcDbDictionaryWithDefault
340
F
  0
DICTIONARY
  5
17
102
{ACAD_REACTORS
330
C
102
}
100
AcDbDictionary
280
0
281
1
  3
Standard
350
18
  0
DICTIONARY
  5
19
102
{ACAD_REACTORS
330
C
102
}
100
AcDbDictionary
281
1
  0
DICTIONARY
  5
1A
102
{ACAD_REACTORS
330
C
102
}
100
AcDbDictionary
281
1
  3
Model
350
726
  3
Layout1
350
727
  0
ACDBPLACEHOLDER
  5
F
102
{ACAD_REACTORS
330
E
102
}
  0
MLINESTYLE
  5
18
102
{ACAD_REACTORS
330
17
102
}
100
AcDbMlineStyle
  2
STANDARD
 70
0
  3

 62
256
 51
90.0
 52
90.0
 71
2
 49
0.5
 62
256
  6
BYLAYER
 49
-0.5
 62
256
  6
BYLAYER
  0
LAYOUT
  5
726
102
{ACAD_REACTORS
330
1A
102
}
100
AcDbPlotSettings
  1

  2
none_device
  4
ANSI_C_(22.00_x_17.00_Inches)
  6

 40
0.0
 41
0.0
 42
0.0
 43
0.0
 44
558.8
 45
431.8
 46
0.0
 47
0.0
 48
0.0
 49
0.0
140
0.0
141
0.0
142
1.0
143
1.0
 70
1024
 72
0
 73
0
 74
0
  7

 75
0
147
1.0
148
0.0
149
0.0
100
AcDbLayout
  1
Model
 70
0
 71
0
 10
0.0
 20
0.0
 11
22.0
 21
17.0
 12
0.0
 22
0.0
 32
0.0
 14
0.0
 24
0.0
 34
0.0
 15
0.0
 25
0.0
 35
0.0
146
0.0
 13
0.0
 23
0.0
 33
0.0
 16
1.0
 26
0.0
 36
0.0
 17
0.0
 27
1.0
 37
0.0
 76
0
330
215
345
0
346
0
  0
LAYOUT
  5
727
102
{ACAD_REACTORS
330
1A
102
}
100
AcDbPlotSettings
  1

  2
none_device
  4
ANSI_C_(22.00_x_17.00_Inches)
  6

 40
0.0
 41
0.0
 42
0.0
 43
0.0
 44
558.8
 45
431.8
 46
0.0
 47
0.0
 48
0.0
 49
0.0
140
0.0
141
0.0
142
1.0
143
1.0
 70
0
 72
0
 73
0
 74
0
  7

 75
0
147
1.0
148
0.0
149
0.0
100
AcDbLayout
  1
Layout1
 70
0
 71
1
 10
0.0
 20
0.0
 11
22.0
 21
17.0
 12
0.0
 22
0.0
 32
0.0
 14
0.0
 24
0.0
 34
0.0
 15
0.0
 25
0.0
 35
0.0
146
0.0
 13
0.0
 23
0.0
 33
0.0
 16
1.0
 26
0.0
 36
0.0
 17
0.0
 27
1.0
 37
0.0
 76
0
330
216
345
0
346
0
  0
ENDSEC
  0
EOF
