999
DXF file: 158613_1.dxf
999
Pro/ENGINEER 2009141 by Parametric Technology Corporation
  0
SECTION
  2
HEADER
  9
$ACADVER
  1
AC1015
  9
$DWGCODEPAGE
  3
ANSI_1252
  9
$EXTMAX
 10
17.0
 20
11.0
 30
0.0
  9
$EXTMIN
 10
0.0
 20
0.0
 30
0.0
  9
$LIMMIN
 10
0.0
 20
0.0
  9
$LIMMAX
 10
17.0
 20
11.0
  9
$VIEWCTR
 10
8.5
 20
5.5
  9
$VIEWSIZE
 40
11.0
  9
$CLAYER
  8
0
  9
$LTSCALE
 40
0.935
  9
$CELTYPE
  6
BYLAYER
  9
$DIMSCALE
 40
1.0
  9
$DIMASZ
 40
0.1875
  9
$DIMEXO
 40
0.10625
  9
$DIMDLI
 40
0.646
  9
$DIMEXE
 40
0.306
  9
$DIMCEN
 40
0.153
  9
$DIMLFAC
 40
1.0
  9
$DIMBLK
  1
_FILLED
  9
$DIMTXT
 40
0.1
  9
$DIMTOL
 70
1
  9
$DIMLIM
 70
0
  9
$DIMTFAC
 40
1.0
  9
$DIMTP
 40
0.005
  9
$DIMTM
 40
0.005
  9
$PDMODE
 70
3
  9
$PDSIZE
 40
0.3125
  9
$HANDSEED
  5
62D
  9
$TILEMODE
 70
1
  9
$MEASUREMENT
 70
0
  9
$INSUNITS
 70
1
  0
ENDSEC
  0
SECTION
  2
CLASSES
  0
CLASS
  1
ACDBDICTIONARYWDFLT
  2
AcDbDictionaryWithDefault
  3
AutoCAD 2000
 90
0
280
0
281
0
  0
CLASS
  1
ACDBPLACEHOLDER
  2
AcDbPlaceHolder
  3
AutoCAD 2000
 90
0
280
0
281
0
  0
CLASS
  1
LAYOUT
  2
AcDbLayout
  3
AutoCAD 2000
 90
0
280
0
281
0
  0
ENDSEC
  0
SECTION
  2
TABLES
  0
TABLE
  2
VPORT
  5
8
100
AcDbSymbolTable
 70
2
  0
VPORT
  5
1F4
100
AcDbSymbolTableRecord
100
AcDbViewportTableRecord
  2
*ACTIVE
 70
0
 10
0.0
 20
0.0
 11
1.0
 21
1.0
 12
8.5
 22
5.5
 13
0.0
 23
0.0
 14
1.0
 24
1.0
 15
0.0
 25
0.0
 16
0.0
 26
0.0
 36
1.0
 17
0.0
 27
0.0
 37
0.0
 40
11.0
 41
1.5454545455
 42
50.0
 43
0.0
 44
0.0
 50
0.0
 51
0.0
 71
0
 72
100
 73
1
 74
1
 75
0
 76
0
 77
0
 78
0
  0
ENDTAB
  0
TABLE
  2
LTYPE
  5
5
100
AcDbSymbolTable
 70
6
  0
LTYPE
  5
14
100
AcDbSymbolTableRecord
100
AcDbLinetypeTableRecord
  2
BYBLOCK
 70
0
  3

 72
65
 73
0
 40
0.0
  0
LTYPE
  5
15
100
AcDbSymbolTableRecord
100
AcDbLinetypeTableRecord
  2
BYLAYER
 70
0
  3

 72
65
 73
0
 40
0.0
  0
LTYPE
  5
16
100
AcDbSymbolTableRecord
100
AcDbLinetypeTableRecord
  2
CONTINUOUS
 70
64
  3
Solid line
 72
65
 73
0
 40
0.0
  0
LTYPE
  5
1F5
100
AcDbSymbolTableRecord
100
AcDbLinetypeTableRecord
  2
CENTER
 70
64
  3
____ _ ____ _ ____ _ ____ _ ____ _ ____ _ ____
 72
65
 73
4
 40
0.6
 49
0.375
 74
0
 49
-0.075
 74
0
 49
0.075
 74
0
 49
-0.075
 74
0
  0
LTYPE
  5
1F6
100
AcDbSymbolTableRecord
100
AcDbLinetypeTableRecord
  2
HIDDEN
 70
64
  3
- - - - - - - - - - - - - - - - - - - -
 72
65
 73
2
 40
0.2
 49
0.1
 74
0
 49
-0.1
 74
0
  0
LTYPE
  5
1F7
100
AcDbSymbolTableRecord
100
AcDbLinetypeTableRecord
  2
PHANTOM
 70
64
  3
_____ _ _ _____ _ _ _____ _ _ _____
 72
65
 73
6
 40
0.8
 49
0.45
 74
0
 49
-0.05
 74
0
 49
0.1
 74
0
 49
-0.05
 74
0
 49
0.1
 74
0
 49
-0.05
 74
0
  0
LTYPE
  5
1F8
100
AcDbSymbolTableRecord
100
AcDbLinetypeTableRecord
  2
DOT
 70
64
  3
. . . . . . . . . . . . . . . . . . . .
 72
65
 73
2
 40
0.2
 49
0.1
 74
0
 49
-0.1
 74
0
  0
LTYPE
  5
1F9
100
AcDbSymbolTableRecord
100
AcDbLinetypeTableRecord
  2
DASHED
 70
64
  3
- - - - - - - - - - - - - - - - - - - -
 72
65
 73
2
 40
0.2
 49
0.1
 74
0
 49
-0.1
 74
0
  0
ENDTAB
  0
TABLE
  2
LAYER
  5
2
100
AcDbSymbolTable
 70
36
  0
LAYER
  5
10
100
AcDbSymbolTableRecord
100
AcDbLayerTableRecord
  2
0
 70
0
 62
7
  6
CONTINUOUS
370
-3
390
F
  0
LAYER
  5
1FA
100
AcDbSymbolTableRecord
100
AcDbLayerTableRecord
  2
DEFAULT_1
 70
0
 62
7
  6
CENTER
370
-3
390
F
  0
LAYER
  5
1FB
100
AcDbSymbolTableRecord
100
AcDbLayerTableRecord
  2
DEFAULT_2
 70
0
 62
8
  6
HIDDEN
370
-3
390
F
  0
LAYER
  5
1FC
100
AcDbSymbolTableRecord
100
AcDbLayerTableRecord
  2
DEFAULT_3
 70
0
 62
7
  6
PHANTOM
370
-3
390
F
  0
LAYER
  5
1FD
100
AcDbSymbolTableRecord
100
AcDbLayerTableRecord
  2
01___PRT_ALL_DTM_PLN
 70
0
 62
7
  6
CONTINUOUS
370
-3
390
F
  0
LAYER
  5
1FE
100
AcDbSymbolTableRecord
100
AcDbLayerTableRecord
  2
01___PRT_DEF_DTM_PLN
 70
0
 62
7
  6
CONTINUOUS
370
-3
390
F
  0
LAYER
  5
1FF
100
AcDbSymbolTableRecord
100
AcDbLayerTableRecord
  2
02___PRT_ALL_AXES
 70
0
 62
7
  6
CONTINUOUS
370
-3
390
F
  0
LAYER
  5
200
100
AcDbSymbolTableRecord
100
AcDbLayerTableRecord
  2
03___PRT_ALL_CURVES
 70
0
 62
7
  6
CONTINUOUS
370
-3
390
F
  0
LAYER
  5
201
100
AcDbSymbolTableRecord
100
AcDbLayerTableRecord
  2
04___PRT_ALL_DTM_PNT
 70
0
 62
7
  6
CONTINUOUS
370
-3
390
F
  0
LAYER
  5
202
100
AcDbSymbolTableRecord
100
AcDbLayerTableRecord
  2
05___PRT_ALL_DTM_CSYS
 70
0
 62
7
  6
CONTINUOUS
370
-3
390
F
  0
LAYER
  5
203
100
AcDbSymbolTableRecord
100
AcDbLayerTableRecord
  2
05___PRT_DEF_DTM_CSYS
 70
0
 62
7
  6
CONTINUOUS
370
-3
390
F
  0
LAYER
  5
204
100
AcDbSymbolTableRecord
100
AcDbLayerTableRecord
  2
06___PRT_ALL_SURFS
 70
0
 62
7
  6
CONTINUOUS
370
-3
390
F
  0
LAYER
  5
205
100
AcDbSymbolTableRecord
100
AcDbLayerTableRecord
  2
AXIS
 70
0
 62
7
  6
CONTINUOUS
370
-3
390
F
  0
LAYER
  5
206
100
AcDbSymbolTableRecord
100
AcDbLayerTableRecord
  2
AXIS_COSMETIC_THREADS
 70
0
 62
7
  6
CONTINUOUS
370
-3
390
F
  0
LAYER
  5
207
100
AcDbSymbolTableRecord
100
AcDbLayerTableRecord
  2
COSMETIC_THREADS
 70
0
 62
7
  6
CONTINUOUS
370
-3
390
F
  0
LAYER
  5
208
100
AcDbSymbolTableRecord
100
AcDbLayerTableRecord
  2
DATUM_CURVES
 70
0
 62
7
  6
CONTINUOUS
370
-3
390
F
  0
LAYER
  5
209
100
AcDbSymbolTableRecord
100
AcDbLayerTableRecord
  2
DATUM_PLANES
 70
0
 62
7
  6
CONTINUOUS
370
-3
390
F
  0
LAYER
  5
20A
100
AcDbSymbolTableRecord
100
AcDbLayerTableRecord
  2
NOTES
 70
0
 62
7
  6
CONTINUOUS
370
-3
390
F
  0
LAYER
  5
20B
100
AcDbSymbolTableRecord
100
AcDbLayerTableRecord
  2
QUILTS
 70
0
 62
7
  6
CONTINUOUS
370
-3
390
F
  0
LAYER
  5
20C
100
AcDbSymbolTableRecord
100
AcDbLayerTableRecord
  2
SCHEME_DIMS
 70
0
 62
7
  6
CONTINUOUS
370
-3
390
F
  0
LAYER
  5
20D
100
AcDbSymbolTableRecord
100
AcDbLayerTableRecord
  2
SYMBOLS
 70
0
 62
7
  6
CONTINUOUS
370
-3
390
F
  0
ENDTAB
  0
TABLE
  2
STYLE
  5
3
100
AcDbSymbolTable
 70
1
  0
STYLE
  5
11
100
AcDbSymbolTableRecord
100
AcDbTextStyleTableRecord
  2
STANDARD
 70
0
 40
0.0
 41
1.0
 50
0.0
 71
0
 42
0.2
  3
txt
  4

  0
STYLE
  5
20E
100
AcDbSymbolTableRecord
100
AcDbTextStyleTableRecord
  2
TEXTSTYLE_1
 70
0
 40
0.0
 41
0.8
 50
0.0
 71
0
 42
0.2
  3
gdt
  4

  0
STYLE
  5
20F
100
AcDbSymbolTableRecord
100
AcDbTextStyleTableRecord
  2
TEXTSTYLE_2
 70
0
 40
0.0
 41
0.8
 50
0.0
 71
0
 42
0.2
  3
txt
  4

  0
STYLE
  5
210
100
AcDbSymbolTableRecord
100
AcDbTextStyleTableRecord
  2
TEXTSTYLE_3
 70
0
 40
0.0
 41
0.85
 50
0.0
 71
0
 42
0.2
  3
txt
  4

  0
STYLE
  5
211
100
AcDbSymbolTableRecord
100
AcDbTextStyleTableRecord
  2
TEXTSTYLE_4
 70
0
 40
0.0
 41
0.92
 50
0.0
 71
0
 42
0.2
  3
txt
  4

  0
STYLE
  5
212
100
AcDbSymbolTableRecord
100
AcDbTextStyleTableRecord
  2
TEXTSTYLE_5
 70
0
 40
0.0
 41
1.0
 50
0.0
 71
0
 42
0.2
  3
gdt
  4

  0
ENDTAB
  0
TABLE
  2
VIEW
  5
6
100
AcDbSymbolTable
 70
0
  0
ENDTAB
  0
TABLE
  2
UCS
  5
7
100
AcDbSymbolTable
 70
0
  0
ENDTAB
  0
TABLE
  2
APPID
  5
9
100
AcDbSymbolTable
 70
1
  0
APPID
  5
213
100
AcDbSymbolTableRecord
100
AcDbRegAppTableRecord
  2
ACAD
 70
0
  0
ENDTAB
  0
TABLE
  2
BLOCK_RECORD
  5
1
100
AcDbSymbolTable
 70
0
  0
BLOCK_RECORD
  5
214
100
AcDbSymbolTableRecord
100
AcDbBlockTableRecord
  2
*Model_Space
  0
BLOCK_RECORD
  5
215
100
AcDbSymbolTableRecord
100
AcDbBlockTableRecord
  2
*Paper_Space
  0
BLOCK_RECORD
  5
216
100
AcDbSymbolTableRecord
100
AcDbBlockTableRecord
  2
_FILLED
  0
BLOCK_RECORD
  5
217
100
AcDbSymbolTableRecord
100
AcDbBlockTableRecord
  2
*D0
  0
BLOCK_RECORD
  5
218
100
AcDbSymbolTableRecord
100
AcDbBlockTableRecord
  2
*D1
  0
BLOCK_RECORD
  5
219
100
AcDbSymbolTableRecord
100
AcDbBlockTableRecord
  2
*D2
  0
BLOCK_RECORD
  5
21A
100
AcDbSymbolTableRecord
100
AcDbBlockTableRecord
  2
CL_BL3
  0
BLOCK_RECORD
  5
21B
100
AcDbSymbolTableRecord
100
AcDbBlockTableRecord
  2
CL_BL2
  0
BLOCK_RECORD
  5
21C
100
AcDbSymbolTableRecord
100
AcDbBlockTableRecord
  2
CL_BL1
  0
BLOCK_RECORD
  5
21D
100
AcDbSymbolTableRecord
100
AcDbBlockTableRecord
  2
BANNER_LOGO_TITLEBLOCK_BL0
  0
ENDTAB
  0
TABLE
  2
DIMSTYLE
  5
A
100
AcDbSymbolTable
 70
1
100
AcDbDimStyleTable
 71
0
  0
DIMSTYLE
105
21E
100
AcDbSymbolTableRecord
100
AcDbDimStyleTableRecord
  2
STANDARD
 70
0
  3

  4

 40
1.0
 41
0.1875
 42
0.0625
 43
0.38
 44
0.18
 45
0.0
 46
0.0
 47
0.005
 48
0.005
140
0.1
141
0.09
142
0.0
143
25.4
144
1.0
145
0.0
146
1.0
147
0.09
 71
1.0
 72
0.0
 73
1
 74
1
 75
0
 76
0
 77
0
 78
4
170
0
171
2
172
0
173
0
174
0
175
0
176
0
177
0
178
0
270
2
271
3
272
3
273
2
274
2
275
0
280
0
281
0
282
0
283
1
284
4
285
0
286
0
287
3
288
0
340
11
341
216
342
216
343
216
344
216
  0
DIMSTYLE
105
21F
100
AcDbSymbolTableRecord
100
AcDbDimStyleTableRecord
  2
DIMSTYLE_1
 70
0
  3

  4

 40
1.0
 41
0.1875
 42
0.0625
 43
0.38
 44
0.18
 45
0.0
 46
0.0
 47
0.1
 48
0.1
140
0.1
141
0.09
142
0.0
143
25.4
144
1.0
145
0.0
146
1.0
147
0.09
 71
0.0
 72
0.0
 73
1
 74
1
 75
0
 76
0
 77
0
 78
4
170
0
171
2
172
0
173
0
174
0
175
0
176
0
177
0
178
0
270
2
271
1
272
1
273
2
274
2
275
0
280
0
281
0
282
0
283
1
284
4
285
0
286
0
287
3
288
0
340
11
341
216
342
216
343
216
344
216
  0
DIMSTYLE
105
220
100
AcDbSymbolTableRecord
100
AcDbDimStyleTableRecord
  2
DIMSTYLE_2
 70
0
  3

  4

 40
1.0
 41
0.1875
 42
0.0625
 43
0.38
 44
0.18
 45
0.0
 46
0.0
 47
0.1
 48
0.1
140
0.1
141
0.09
142
0.0
143
25.4
144
1.0
145
0.0
146
1.0
147
0.09
 71
0.0
 72
0.0
 73
1
 74
1
 75
0
 76
0
 77
0
 78
4
170
0
171
2
172
0
173
0
174
0
175
0
176
0
177
0
178
0
270
2
271
1
272
1
273
2
274
2
275
0
280
0
281
0
282
0
283
1
284
4
285
0
286
0
287
3
288
0
340
11
341
216
342
216
343
216
344
216
  0
ENDTAB
  0
ENDSEC
  0
SECTION
  2
BLOCKS
  0
BLOCK
  5
20
100
AcDbEntity
  8
0
100
AcDbBlockBegin
  2
*Model_Space
 70
0
 10
0.0
 20
0.0
 30
0.0
  3
*Model_Space
  1

  0
ENDBLK
  5
21
100
AcDbEntity
  8
0
100
AcDbBlockEnd
  0
BLOCK
  5
1C
100
AcDbEntity
  8
0
100
AcDbBlockBegin
  2
*Paper_Space
 70
0
 10
0.0
 20
0.0
 30
0.0
  3
*Paper_Space
  1

  0
ENDBLK
  5
1D
100
AcDbEntity
  8
0
100
AcDbBlockEnd
  0
BLOCK
  5
221
100
AcDbEntity
  8
SYMBOLS
100
AcDbBlockBegin
 62
2
  6
CONTINUOUS
  2
CL_BL3
 70
64
 10
5.622009613
 20
7.218828485
  3
CL_BL3
  1

  0
MTEXT
  5
222
100
AcDbEntity
  8
SYMBOLS
100
AcDbMText
 62
2
  6
CONTINUOUS
  7
TEXTSTYLE_5
 71
1
 72
1
 10
5.537009613
 20
7.278828485
 30
0.0
 11
1.0
 21
0.0
 31
0.0
 44
0.9
  1
{\Fgdt;q}
 40
0.12
 41
0.17
  0
ENDBLK
  5
223
100
AcDbEntity
  8
0
  6
BYBLOCK
 62
0
100
AcDbBlockEnd
  0
BLOCK
  5
224
100
AcDbEntity
  8
SYMBOLS
100
AcDbBlockBegin
 62
2
  6
CONTINUOUS
  2
CL_BL2
 70
64
 10
6.8341491493
 20
8.4449170705
  3
CL_BL2
  1

  0
MTEXT
  5
225
100
AcDbEntity
  8
SYMBOLS
100
AcDbMText
 62
2
  6
CONTINUOUS
  7
TEXTSTYLE_5
 71
1
 72
1
 10
6.7491491493
 20
8.5049170705
 30
0.0
 11
1.0
 21
0.0
 31
0.0
 44
0.9
  1
{\Fgdt;q}
 40
0.12
 41
0.17
  0
ENDBLK
  5
226
100
AcDbEntity
  8
0
  6
BYBLOCK
 62
0
100
AcDbBlockEnd
  0
BLOCK
  5
227
100
AcDbEntity
  8
SYMBOLS
100
AcDbBlockBegin
 62
2
  6
CONTINUOUS
  2
CL_BL1
 70
64
 10
5.6139020082
 20
2.0288053622
  3
CL_BL1
  1

  0
MTEXT
  5
228
100
AcDbEntity
  8
SYMBOLS
100
AcDbMText
 62
2
  6
CONTINUOUS
  7
TEXTSTYLE_5
 71
1
 72
1
 10
5.5289020082
 20
2.0888053622
 30
0.0
 11
1.0
 21
0.0
 31
0.0
 44
0.9
  1
{\Fgdt;q}
 40
0.12
 41
0.17
  0
ENDBLK
  5
229
100
AcDbEntity
  8
0
  6
BYBLOCK
 62
0
100
AcDbBlockEnd
  0
BLOCK
  5
22A
100
AcDbEntity
  8
0
100
AcDbBlockBegin
 62
2
  6
CONTINUOUS
  2
BANNER_LOGO_TITLEBLOCK_BL0
 70
64
 10
12.9086867042
 20
2.5403783405
  3
BANNER_LOGO_TITLEBLOCK_BL0
  1

  0
ELLIPSE
  5
22B
100
AcDbEntity
  8
0
100
AcDbEllipse
 62
2
  6
CONTINUOUS
 10
12.9046654608
 20
2.5403783405
 30
0.0
 11
-0.8250004575
 21
0.0
 31
0.0
 40
0.218572
 41
0.0
 42
6.2831853072
  0
ARC
  5
22C
100
AcDbEntity
  8
0
100
AcDbCircle
 62
2
  6
CONTINUOUS
 10
12.400005721
 20
2.5168763464
 40
0.0153945295
100
AcDbArc
 50
354.0454548824
 51
5.1878013979
  0
ARC
  5
22D
100
AcDbEntity
  8
0
100
AcDbCircle
 62
2
  6
CONTINUOUS
 10
12.3931760319
 20
2.5166878286
 40
0.0222174455
100
AcDbArc
 50
4.0793399388
 51
69.834329283
  0
LINE
  5
22E
100
AcDbEntity
  8
0
100
AcDbLine
 62
2
  6
CONTINUOUS
 10
12.4008351814
 20
2.5375433389
 11
12.3907841758
 21
2.5410923409
  0
LINE
  5
22F
100
AcDbEntity
  8
0
100
AcDbLine
 62
2
  6
CONTINUOUS
 10
12.3907841758
 20
2.5410923409
 11
12.3990241804
 21
2.5458683435
  0
ARC
  5
230
100
AcDbEntity
  8
0
100
AcDbCircle
 62
2
  6
CONTINUOUS
 10
12.3771587979
 20
2.5826952352
 40
0.0428289026
100
AcDbArc
 50
300.6990502959
 51
319.0591802498
  0
ARC
  5
231
100
AcDbEntity
  8
0
100
AcDbCircle
 62
2
  6
CONTINUOUS
 10
12.3971873948
 20
2.5665668817
 40
0.0171568255
100
AcDbArc
 50
315.9145124245
 51
16.0049121282
  0
ARC
  5
232
100
AcDbEntity
  8
0
100
AcDbCircle
 62
2
  6
CONTINUOUS
 10
12.3922357827
 20
2.5632132173
 40
0.0229166529
100
AcDbArc
 50
20.6563876465
 51
62.3316896973
  0
ARC
  5
233
100
AcDbEntity
  8
0
100
AcDbCircle
 62
2
  6
CONTINUOUS
 10
12.371573659
 20
2.5302846524
 40
0.061747717
100
AcDbArc
 50
59.5385584989
 51
90.0050977555
  0
LINE
  5
234
100
AcDbEntity
  8
0
100
AcDbLine
 62
2
  6
CONTINUOUS
 10
12.3715681652
 20
2.5920323691
 11
12.2055050731
 21
2.5920323691
  0
ARC
  5
235
100
AcDbEntity
  8
0
100
AcDbCircle
 62
2
  6
CONTINUOUS
 10
12.2055050712
 20
2.5895573696
 40
0.0024749995
100
AcDbArc
 50
89.9999571957
 51
180.0000428043
  0
LINE
  5
236
100
AcDbEntity
  8
0
100
AcDbLine
 62
2
  6
CONTINUOUS
 10
12.2030300717
 20
2.5895573678
 11
12.2030300717
 21
2.5697573568
  0
ARC
  5
237
100
AcDbEntity
  8
0
100
AcDbCircle
 62
2
  6
CONTINUOUS
 10
12.2055050712
 20
2.5697573549
 40
0.0024749995
100
AcDbArc
 50
179.9999571957
 51
270.0000428043
  0
LINE
  5
238
100
AcDbEntity
  8
0
100
AcDbLine
 62
2
  6
CONTINUOUS
 10
12.2055050731
 20
2.5672823554
 11
12.2294470864
 21
2.5672823554
  0
ARC
  5
239
100
AcDbEntity
  8
0
100
AcDbCircle
 62
2
  6
CONTINUOUS
 10
12.2294470882
 20
2.5648073559
 40
0.0024749995
100
AcDbArc
 50
359.9999571957
 51
90.0000428043
  0
LINE
  5
23A
100
AcDbEntity
  8
0
100
AcDbLine
 62
2
  6
CONTINUOUS
 10
12.2319220877
 20
2.564807354
 11
12.2319220877
 21
2.5184523283
  0
ARC
  5
23B
100
AcDbEntity
  8
0
100
AcDbCircle
 62
2
  6
CONTINUOUS
 10
12.2294470882
 20
2.5184523265
 40
0.0024749995
100
AcDbArc
 50
269.9999571957
 51
0.0000428043
  0
LINE
  5
23C
100
AcDbEntity
  8
0
100
AcDbLine
 62
2
  6
CONTINUOUS
 10
12.2294470864
 20
2.515977327
 11
12.2055050731
 21
2.515977327
  0
ARC
  5
23D
100
AcDbEntity
  8
0
100
AcDbCircle
 62
2
  6
CONTINUOUS
 10
12.2055050712
 20
2.5135023274
 40
0.0024749995
100
AcDbArc
 50
89.9999571957
 51
180.0000428043
  0
LINE
  5
23E
100
AcDbEntity
  8
0
100
AcDbLine
 62
2
  6
CONTINUOUS
 10
12.2030300717
 20
2.5135023256
 11
12.2030300717
 21
2.4937023146
  0
ARC
  5
23F
100
AcDbEntity
  8
0
100
AcDbCircle
 62
2
  6
CONTINUOUS
 10
12.2055050712
 20
2.4937023128
 40
0.0024749995
100
AcDbArc
 50
179.9999571957
 51
270.0000428043
  0
LINE
  5
240
100
AcDbEntity
  8
0
100
AcDbLine
 62
2
  6
CONTINUOUS
 10
12.2055050731
 20
2.4912273132
 11
12.3819511709
 21
2.4912273132
  0
ARC
  5
241
100
AcDbEntity
  8
0
100
AcDbCircle
 62
2
  6
CONTINUOUS
 10
12.3792298263
 20
2.539634765
 40
0.048483885
100
AcDbArc
 50
273.21763719
 51
303.0749121182
  0
ARC
  5
242
100
AcDbEntity
  8
0
100
AcDbCircle
 62
2
  6
CONTINUOUS
 10
12.3940692204
 20
2.5168671561
 40
0.0213072145
100
AcDbArc
 50
303.0488228549
 51
355.7263138674
  0
LINE
  5
243
100
AcDbEntity
  8
0
100
AcDbLine
 62
2
  6
CONTINUOUS
 10
12.2949101227
 20
2.5499573458
 11
12.3362731456
 21
2.5499573458
  0
ARC
  5
244
100
AcDbEntity
  8
0
100
AcDbCircle
 62
2
  6
CONTINUOUS
 10
12.3362731456
 20
2.5586198506
 40
0.0086625048
100
AcDbArc
 50
270.0
 51
90.0
  0
LINE
  5
245
100
AcDbEntity
  8
0
100
AcDbLine
 62
2
  6
CONTINUOUS
 10
12.3362731456
 20
2.5672823554
 11
12.2949101227
 21
2.5672823554
  0
ARC
  5
246
100
AcDbEntity
  8
0
100
AcDbCircle
 62
2
  6
CONTINUOUS
 10
12.2949101208
 20
2.5648073559
 40
0.0024749995
100
AcDbArc
 50
89.9999571957
 51
180.0000428043
  0
LINE
  5
247
100
AcDbEntity
  8
0
100
AcDbLine
 62
2
  6
CONTINUOUS
 10
12.2924351213
 20
2.564807354
 11
12.2924351213
 21
2.5524323472
  0
ARC
  5
248
100
AcDbEntity
  8
0
100
AcDbCircle
 62
2
  6
CONTINUOUS
 10
12.2949101208
 20
2.5524323453
 40
0.0024749995
100
AcDbArc
 50
179.9999571957
 51
270.0000428043
  0
LINE
  5
249
100
AcDbEntity
  8
0
100
AcDbLine
 62
2
  6
CONTINUOUS
 10
12.2924351213
 20
2.5184523283
 11
12.2924351213
 21
2.5308273352
  0
ARC
  5
24A
100
AcDbEntity
  8
0
100
AcDbCircle
 62
2
  6
CONTINUOUS
 10
12.2949101208
 20
2.530827337
 40
0.0024749995
100
AcDbArc
 50
89.9999571957
 51
180.0000428043
  0
LINE
  5
24B
100
AcDbEntity
  8
0
100
AcDbLine
 62
2
  6
CONTINUOUS
 10
12.2949101227
 20
2.5333023366
 11
12.3362731456
 21
2.5333023366
  0
ARC
  5
24C
100
AcDbEntity
  8
0
100
AcDbCircle
 62
2
  6
CONTINUOUS
 10
12.3362731456
 20
2.5246398318
 40
0.0086625048
100
AcDbArc
 50
270.0
 51
90.0
  0
LINE
  5
24D
100
AcDbEntity
  8
0
100
AcDbLine
 62
2
  6
CONTINUOUS
 10
12.3362731456
 20
2.515977327
 11
12.2949101227
 21
2.515977327
  0
ARC
  5
24E
100
AcDbEntity
  8
0
100
AcDbCircle
 62
2
  6
CONTINUOUS
 10
12.2949101208
 20
2.5184523265
 40
0.0024749995
100
AcDbArc
 50
179.9999571957
 51
270.0000428043
  0
ARC
  5
24F
100
AcDbEntity
  8
0
100
AcDbCircle
 62
2
  6
CONTINUOUS
 10
13.5806801742
 20
2.5212486481
 40
0.044722495
100
AcDbArc
 50
195.531588407
 51
204.7624440448
  0
LINE
  5
250
100
AcDbEntity
  8
0
100
AcDbLine
 62
2
  6
CONTINUOUS
 10
13.5375908118
 20
2.5092733232
 11
13.5357868108
 21
2.5153423266
  0
ARC
  5
251
100
AcDbEntity
  8
0
100
AcDbCircle
 62
2
  6
CONTINUOUS
 10
13.4974076135
 20
2.5055452462
 40
0.0396099176
100
AcDbArc
 50
14.3201081283
 51
22.4984722084
  0
ARC
  5
252
100
AcDbEntity
  8
0
100
AcDbCircle
 62
2
  6
CONTINUOUS
 10
13.5201739219
 20
2.5145168728
 40
0.0151491919
100
AcDbArc
 50
24.098260853
 51
63.0369451818
  0
ARC
  5
253
100
AcDbEntity
  8
0
100
AcDbCircle
 62
2
  6
CONTINUOUS
 10
13.5161192671
 20
2.5062372524
 40
0.0243676582
100
AcDbArc
 50
63.3666028271
 51
90.3937697637
  0
LINE
  5
254
100
AcDbEntity
  8
0
100
AcDbLine
 62
2
  6
CONTINUOUS
 10
13.5159517998
 20
2.5306043351
 11
13.4883447845
 21
2.5306043351
  0
ARC
  5
255
100
AcDbEntity
  8
0
100
AcDbCircle
 62
2
  6
CONTINUOUS
 10
13.4883447827
 20
2.5281293355
 40
0.0024749995
100
AcDbArc
 50
89.9999571957
 51
180.0000428043
  0
LINE
  5
256
100
AcDbEntity
  8
0
100
AcDbLine
 62
2
  6
CONTINUOUS
 10
13.4858697831
 20
2.5281293337
 11
13.4858697831
 21
2.5184303283
  0
ARC
  5
257
100
AcDbEntity
  8
0
100
AcDbCircle
 62
2
  6
CONTINUOUS
 10
13.4883447827
 20
2.5184303265
 40
0.0024749995
100
AcDbArc
 50
179.9999571957
 51
270.0000428043
  0
LINE
  5
258
100
AcDbEntity
  8
0
100
AcDbLine
 62
2
  6
CONTINUOUS
 10
13.4883447845
 20
2.5159553269
 11
13.5130037982
 21
2.5159553269
  0
ARC
  5
259
100
AcDbEntity
  8
0
100
AcDbCircle
 62
2
  6
CONTINUOUS
 10
13.5130038
 20
2.5134803274
 40
0.0024749995
100
AcDbArc
 50
359.9999571957
 51
90.0000428043
  0
LINE
  5
25A
100
AcDbEntity
  8
0
100
AcDbLine
 62
2
  6
CONTINUOUS
 10
13.5154787995
 20
2.5134803256
 11
13.5154787995
 21
2.4937023146
  0
ARC
  5
25B
100
AcDbEntity
  8
0
100
AcDbCircle
 62
2
  6
CONTINUOUS
 10
13.5130038
 20
2.4937023128
 40
0.0024749995
100
AcDbArc
 50
269.9999571957
 51
0.0000428043
  0
LINE
  5
25C
100
AcDbEntity
  8
0
100
AcDbLine
 62
2
  6
CONTINUOUS
 10
13.5130037982
 20
2.4912273132
 11
13.3994327352
 21
2.4912273132
  0
ARC
  5
25D
100
AcDbEntity
  8
0
100
AcDbCircle
 62
2
  6
CONTINUOUS
 10
13.3994327333
 20
2.4937023128
 40
0.0024749995
100
AcDbArc
 50
179.9999571957
 51
270.0000428043
  0
LINE
  5
25E
100
AcDbEntity
  8
0
100
AcDbLine
 62
2
  6
CONTINUOUS
 10
13.3969577338
 20
2.4937023146
 11
13.3969577338
 21
2.5135023256
  0
ARC
  5
25F
100
AcDbEntity
  8
0
100
AcDbCircle
 62
2
  6
CONTINUOUS
 10
13.3994327333
 20
2.5135023274
 40
0.0024749995
100
AcDbArc
 50
89.9999571957
 51
180.0000428043
  0
LINE
  5
260
100
AcDbEntity
  8
0
100
AcDbLine
 62
2
  6
CONTINUOUS
 10
13.3994327352
 20
2.515977327
 11
13.4221787478
 21
2.515977327
  0
ARC
  5
261
100
AcDbEntity
  8
0
100
AcDbCircle
 62
2
  6
CONTINUOUS
 10
13.4221787497
 20
2.5184523265
 40
0.0024749995
100
AcDbArc
 50
269.9999571957
 51
0.0000428042
  0
LINE
  5
262
100
AcDbEntity
  8
0
100
AcDbLine
 62
2
  6
CONTINUOUS
 10
13.4246537492
 20
2.5184523283
 11
13.4246537492
 21
2.564807354
  0
ARC
  5
263
100
AcDbEntity
  8
0
100
AcDbCircle
 62
2
  6
CONTINUOUS
 10
13.4221787497
 20
2.5648073559
 40
0.0024749995
100
AcDbArc
 50
359.9999571957
 51
90.0000428043
  0
LINE
  5
264
100
AcDbEntity
  8
0
100
AcDbLine
 62
2
  6
CONTINUOUS
 10
13.4221787478
 20
2.5672823554
 11
13.3994327352
 21
2.5672823554
  0
ARC
  5
265
100
AcDbEntity
  8
0
100
AcDbCircle
 62
2
  6
CONTINUOUS
 10
13.3994327333
 20
2.5697573549
 40
0.0024749995
100
AcDbArc
 50
179.9999571957
 51
270.0000428043
  0
LINE
  5
266
100
AcDbEntity
  8
0
100
AcDbLine
 62
2
  6
CONTINUOUS
 10
13.3969577338
 20
2.5697573568
 11
13.3969577338
 21
2.5895573678
  0
ARC
  5
267
100
AcDbEntity
  8
0
100
AcDbCircle
 62
2
  6
CONTINUOUS
 10
13.3994327333
 20
2.5895573696
 40
0.0024749995
100
AcDbArc
 50
89.9999571957
 51
180.0000428043
  0
LINE
  5
268
100
AcDbEntity
  8
0
100
AcDbLine
 62
2
  6
CONTINUOUS
 10
13.3994327352
 20
2.5920323691
 11
13.5490138181
 21
2.5920323691
  0
ARC
  5
269
100
AcDbEntity
  8
0
100
AcDbCircle
 62
2
  6
CONTINUOUS
 10
13.5463505148
 20
2.4094934586
 40
0.1825583387
100
AcDbArc
 50
79.8618509324
 51
89.1640948679
  0
ARC
  5
26A
100
AcDbEntity
  8
0
100
AcDbCircle
 62
2
  6
CONTINUOUS
 10
13.5726548052
 20
2.5503169747
 40
0.039319019
100
AcDbArc
 50
59.1202086415
 51
81.4730239328
  0
ARC
  5
26B
100
AcDbEntity
  8
0
100
AcDbCircle
 62
2
  6
CONTINUOUS
 10
13.5783142014
 20
2.5566516438
 40
0.0310192946
100
AcDbArc
 50
34.7540871
 51
62.0879016178
  0
ARC
  5
26C
100
AcDbEntity
  8
0
100
AcDbCircle
 62
2
  6
CONTINUOUS
 10
13.5900029525
 20
2.565201245
 40
0.0165459396
100
AcDbArc
 50
1.548452892
 51
33.5033152417
  0
ARC
  5
26D
100
AcDbEntity
  8
0
100
AcDbCircle
 62
2
  6
CONTINUOUS
 10
13.5932995477
 20
2.5653696972
 40
0.0132462337
100
AcDbArc
 50
331.1510006998
 51
1.205404301
  0
ARC
  5
26E
100
AcDbEntity
  8
0
100
AcDbCircle
 62
2
  6
CONTINUOUS
 10
13.5822888914
 20
2.5720482849
 40
0.0261183659
100
AcDbArc
 50
305.6373831893
 51
329.9727629745
  0
ARC
  5
26F
100
AcDbEntity
  8
0
100
AcDbCircle
 62
2
  6
CONTINUOUS
 10
13.5519569538
 20
2.6152551345
 40
0.0789082104
100
AcDbArc
 50
292.906155071
 51
305.2574666259
  0
ARC
  5
270
100
AcDbEntity
  8
0
100
AcDbCircle
 62
2
  6
CONTINUOUS
 10
13.5282557878
 20
2.4386010294
 40
0.117346916
100
AcDbArc
 50
58.614769177
 51
62.3737227606
  0
ARC
  5
271
100
AcDbEntity
  8
0
100
AcDbCircle
 62
2
  6
CONTINUOUS
 10
13.5761387404
 20
2.5167282896
 40
0.0257145923
100
AcDbArc
 50
39.3804255939
 51
59.0361096173
  0
ARC
  5
272
100
AcDbEntity
  8
0
100
AcDbCircle
 62
2
  6
CONTINUOUS
 10
13.5750183849
 20
2.5166552064
 40
0.0266349791
100
AcDbArc
 50
20.3630922153
 51
37.9727053099
  0
ARC
  5
273
100
AcDbEntity
  8
0
100
AcDbCircle
 62
2
  6
CONTINUOUS
 10
13.5571178432
 20
2.509473798
 40
0.0459185159
100
AcDbArc
 50
15.6740290068
 51
20.9917271228
  0
ARC
  5
274
100
AcDbEntity
  8
0
100
AcDbCircle
 62
2
  6
CONTINUOUS
 10
13.6156881783
 20
2.525116781
 40
0.0147197649
100
AcDbArc
 50
192.7054516565
 51
206.0594861022
  0
ARC
  5
275
100
AcDbEntity
  8
0
100
AcDbCircle
 62
2
  6
CONTINUOUS
 10
13.6071938412
 20
2.5209082945
 40
0.0052403997
100
AcDbArc
 50
205.5232099488
 51
227.5054868079
  0
ARC
  5
276
100
AcDbEntity
  8
0
100
AcDbCircle
 62
2
  6
CONTINUOUS
 10
13.6054655419
 20
2.5190929218
 40
0.0027347709
100
AcDbArc
 50
228.5117626737
 51
266.1485845754
  0
LINE
  5
277
100
AcDbEntity
  8
0
100
AcDbLine
 62
2
  6
CONTINUOUS
 10
13.6052818493
 20
2.5163643272
 11
13.60639085
 21
2.5163643272
  0
ARC
  5
278
100
AcDbEntity
  8
0
100
AcDbCircle
 62
2
  6
CONTINUOUS
 10
13.6063292954
 20
2.5296129864
 40
0.0132488022
100
AcDbArc
 50
270.266200055
 51
281.2404888597
  0
ARC
  5
279
100
AcDbEntity
  8
0
100
AcDbCircle
 62
2
  6
CONTINUOUS
 10
13.6075235364
 20
2.5238762928
 40
0.0073895522
100
AcDbArc
 50
280.8288201977
 51
305.0837508495
  0
ARC
  5
27A
100
AcDbEntity
  8
0
100
AcDbCircle
 62
2
  6
CONTINUOUS
 10
13.607924718
 20
2.5230254464
 40
0.0064647042
100
AcDbArc
 50
306.5086174083
 51
340.2162360092
  0
ARC
  5
27B
100
AcDbEntity
  8
0
100
AcDbCircle
 62
2
  6
CONTINUOUS
 10
13.6027235414
 20
2.524769508
 40
0.0119498009
100
AcDbArc
 50
340.7883861657
 51
1.1691452593
  0
LINE
  5
27C
100
AcDbEntity
  8
0
100
AcDbLine
 62
2
  6
CONTINUOUS
 10
13.6146708546
 20
2.525013332
 11
13.6146708546
 21
2.5276393334
  0
ARC
  5
27D
100
AcDbEntity
  8
0
100
AcDbCircle
 62
2
  6
CONTINUOUS
 10
13.6171458541
 20
2.5276393353
 40
0.0024749995
100
AcDbArc
 50
89.9999571957
 51
180.0000428043
  0
LINE
  5
27E
100
AcDbEntity
  8
0
100
AcDbLine
 62
2
  6
CONTINUOUS
 10
13.6171458559
 20
2.5301143348
 11
13.6292558626
 21
2.5301143348
  0
ARC
  5
27F
100
AcDbEntity
  8
0
100
AcDbCircle
 62
2
  6
CONTINUOUS
 10
13.6292558645
 20
2.5276393353
 40
0.0024749995
100
AcDbArc
 50
359.9999571957
 51
90.0000428043
  0
LINE
  5
280
100
AcDbEntity
  8
0
100
AcDbLine
 62
2
  6
CONTINUOUS
 10
13.631730864
 20
2.5276393334
 11
13.631730864
 21
2.516087327
  0
ARC
  5
281
100
AcDbEntity
  8
0
100
AcDbCircle
 62
2
  6
CONTINUOUS
 10
13.6141751675
 20
2.5161916447
 40
0.0175560065
100
AcDbArc
 50
332.2279060967
 51
359.6595469939
  0
ARC
  5
282
100
AcDbEntity
  8
0
100
AcDbCircle
 62
2
  6
CONTINUOUS
 10
13.6048681567
 20
2.5210861501
 40
0.0280715479
100
AcDbArc
 50
308.5071794988
 51
332.2400656899
  0
ARC
  5
283
100
AcDbEntity
  8
0
100
AcDbCircle
 62
2
  6
CONTINUOUS
 10
13.5978759713
 20
2.5286873679
 40
0.0383802683
100
AcDbArc
 50
288.7656836787
 51
309.6104317088
  0
ARC
  5
284
100
AcDbEntity
  8
0
100
AcDbCircle
 62
2
  6
CONTINUOUS
 10
13.6036139387
 20
2.5111006186
 40
0.0198837666
100
AcDbArc
 50
271.8586572978
 51
289.4131338543
  0
LINE
  5
285
100
AcDbEntity
  8
0
100
AcDbLine
 62
2
  6
CONTINUOUS
 10
13.6042588488
 20
2.4912273132
 11
13.5568948225
 21
2.4912273132
  0
ARC
  5
286
100
AcDbEntity
  8
0
100
AcDbCircle
 62
2
  6
CONTINUOUS
 10
13.5577001432
 20
2.5085494649
 40
0.0173408616
100
AcDbArc
 50
232.4713476722
 51
267.338189944
  0
ARC
  5
287
100
AcDbEntity
  8
0
100
AcDbCircle
 62
2
  6
CONTINUOUS
 10
13.5607987082
 20
2.5143997688
 40
0.0238935861
100
AcDbArc
 50
209.8247607259
 51
235.1255079367
  0
ARC
  5
288
100
AcDbEntity
  8
0
100
AcDbCircle
 62
2
  6
CONTINUOUS
 10
13.5295131508
 20
2.5629115009
 40
0.0110815393
100
AcDbArc
 50
306.758405961
 51
320.4502234234
  0
ARC
  5
289
100
AcDbEntity
  8
0
100
AcDbCircle
 62
2
  6
CONTINUOUS
 10
13.5238839599
 20
2.5706523294
 40
0.0206523367
100
AcDbArc
 50
289.6883413472
 51
306.4184925496
  0
ARC
  5
28A
100
AcDbEntity
  8
0
100
AcDbCircle
 62
2
  6
CONTINUOUS
 10
13.5219564542
 20
2.5750459767
 40
0.0254407115
100
AcDbArc
 50
270.7327484175
 51
290.441894219
  0
LINE
  5
28B
100
AcDbEntity
  8
0
100
AcDbLine
 62
2
  6
CONTINUOUS
 10
13.5222818033
 20
2.5496073456
 11
13.4883447845
 21
2.5496073456
  0
ARC
  5
28C
100
AcDbEntity
  8
0
100
AcDbCircle
 62
2
  6
CONTINUOUS
 10
13.4883447827
 20
2.5520823451
 40
0.0024749995
100
AcDbArc
 50
179.9999571957
 51
270.0000428043
  0
LINE
  5
28D
100
AcDbEntity
  8
0
100
AcDbLine
 62
2
  6
CONTINUOUS
 10
13.4858697831
 20
2.552082347
 11
13.4858697831
 21
2.564807354
  0
ARC
  5
28E
100
AcDbEntity
  8
0
100
AcDbCircle
 62
2
  6
CONTINUOUS
 10
13.4883447827
 20
2.5648073559
 40
0.0024749995
100
AcDbArc
 50
89.9999571957
 51
180.0000428043
  0
LINE
  5
28F
100
AcDbEntity
  8
0
100
AcDbLine
 62
2
  6
CONTINUOUS
 10
13.4883447845
 20
2.5672823554
 11
13.5251458049
 21
2.5672823554
  0
ARC
  5
290
100
AcDbEntity
  8
0
100
AcDbCircle
 62
2
  6
CONTINUOUS
 10
13.5236009174
 20
2.5388278764
 40
0.0284963867
100
AcDbArc
 50
70.3834917948
 51
86.8922743861
  0
ARC
  5
291
100
AcDbEntity
  8
0
100
AcDbCircle
 62
2
  6
CONTINUOUS
 10
13.5284605274
 20
2.5518696094
 40
0.0145814632
100
AcDbArc
 50
54.6746025112
 51
71.1660573124
  0
ARC
  5
292
100
AcDbEntity
  8
0
100
AcDbCircle
 62
2
  6
CONTINUOUS
 10
13.5335900184
 20
2.5587235346
 40
0.0060275915
100
AcDbArc
 50
20.9055592135
 51
56.7851676243
  0
ARC
  5
293
100
AcDbEntity
  8
0
100
AcDbCircle
 62
2
  6
CONTINUOUS
 10
13.5348905773
 20
2.5593838168
 40
0.0045795888
100
AcDbArc
 50
355.6235353944
 51
18.9942678268
  0
ARC
  5
294
100
AcDbEntity
  8
0
100
AcDbCircle
 62
2
  6
CONTINUOUS
 10
13.533683767
 20
2.559677593
 40
0.0058087709
100
AcDbArc
 50
318.8515287446
 51
353.6422345323
  0
LINE
  5
295
100
AcDbEntity
  8
0
100
AcDbLine
 62
2
  6
CONTINUOUS
 10
12.672340332
 20
2.5920323691
 11
12.7727983877
 21
2.5920323691
  0
ARC
  5
296
100
AcDbEntity
  8
0
100
AcDbCircle
 62
2
  6
CONTINUOUS
 10
12.7727985224
 20
2.5895582013
 40
0.0024741678
100
AcDbArc
 50
46.3477981899
 51
90.0031206038
  0
LINE
  5
297
100
AcDbEntity
  8
0
100
AcDbLine
 62
2
  6
CONTINUOUS
 10
12.7745063886
 20
2.5913483688
 11
12.8345394219
 21
2.534068337
  0
ARC
  5
298
100
AcDbEntity
  8
0
100
AcDbCircle
 62
2
  6
CONTINUOUS
 10
12.8362481229
 20
2.5358592748
 40
0.0024753014
100
AcDbArc
 50
226.3461263059
 51
0.0014637321
  0
LINE
  5
299
100
AcDbEntity
  8
0
100
AcDbLine
 62
2
  6
CONTINUOUS
 10
12.8387234242
 20
2.535859338
 11
12.8387234242
 21
2.564807354
  0
ARC
  5
29A
100
AcDbEntity
  8
0
100
AcDbCircle
 62
2
  6
CONTINUOUS
 10
12.8362484247
 20
2.5648073559
 40
0.0024749995
100
AcDbArc
 50
359.9999571957
 51
90.0000428043
  0
LINE
  5
29B
100
AcDbEntity
  8
0
100
AcDbLine
 62
2
  6
CONTINUOUS
 10
12.8362484229
 20
2.5672823554
 11
12.8174724125
 21
2.5672823554
  0
ARC
  5
29C
100
AcDbEntity
  8
0
100
AcDbCircle
 62
2
  6
CONTINUOUS
 10
12.8174724106
 20
2.5697573549
 40
0.0024749995
100
AcDbArc
 50
179.9999571957
 51
270.0000428043
  0
LINE
  5
29D
100
AcDbEntity
  8
0
100
AcDbLine
 62
2
  6
CONTINUOUS
 10
12.8149974111
 20
2.5697573568
 11
12.8149974111
 21
2.5895573678
  0
ARC
  5
29E
100
AcDbEntity
  8
0
100
AcDbCircle
 62
2
  6
CONTINUOUS
 10
12.8174724106
 20
2.5895573696
 40
0.0024749995
100
AcDbArc
 50
89.9999571957
 51
180.0000428043
  0
LINE
  5
29F
100
AcDbEntity
  8
0
100
AcDbLine
 62
2
  6
CONTINUOUS
 10
12.8174724125
 20
2.5920323691
 11
12.8914734535
 21
2.5920323691
  0
ARC
  5
2A0
100
AcDbEntity
  8
0
100
AcDbCircle
 62
2
  6
CONTINUOUS
 10
12.8914734553
 20
2.5895573696
 40
0.0024749995
100
AcDbArc
 50
359.9999571957
 51
90.0000428043
  0
LINE
  5
2A1
100
AcDbEntity
  8
0
100
AcDbLine
 62
2
  6
CONTINUOUS
 10
12.8939484549
 20
2.5895573678
 11
12.8939484549
 21
2.5697573568
  0
ARC
  5
2A2
100
AcDbEntity
  8
0
100
AcDbCircle
 62
2
  6
CONTINUOUS
 10
12.8914734553
 20
2.5697573549
 40
0.0024749995
100
AcDbArc
 50
269.9999571957
 51
0.0000428043
  0
LINE
  5
2A3
100
AcDbEntity
  8
0
100
AcDbLine
 62
2
  6
CONTINUOUS
 10
12.8914734535
 20
2.5672823554
 11
12.8735404436
 21
2.5672823554
  0
ARC
  5
2A4
100
AcDbEntity
  8
0
100
AcDbCircle
 62
2
  6
CONTINUOUS
 10
12.8735404417
 20
2.5648073559
 40
0.0024749995
100
AcDbArc
 50
89.9999571957
 51
180.0000428043
  0
LINE
  5
2A5
100
AcDbEntity
  8
0
100
AcDbLine
 62
2
  6
CONTINUOUS
 10
12.8710654422
 20
2.564807354
 11
12.8710654422
 21
2.4937023146
  0
ARC
  5
2A6
100
AcDbEntity
  8
0
100
AcDbCircle
 62
2
  6
CONTINUOUS
 10
12.8685904427
 20
2.4937023128
 40
0.0024749995
100
AcDbArc
 50
269.9999571957
 51
0.0000428043
  0
LINE
  5
2A7
100
AcDbEntity
  8
0
100
AcDbLine
 62
2
  6
CONTINUOUS
 10
12.8685904408
 20
2.4912273132
 11
12.7943853997
 21
2.4912273132
  0
ARC
  5
2A8
100
AcDbEntity
  8
0
100
AcDbCircle
 62
2
  6
CONTINUOUS
 10
12.7943847649
 20
2.4937027294
 40
0.0024754162
100
AcDbArc
 50
226.3593695813
 51
270.0146919953
  0
LINE
  5
2A9
100
AcDbEntity
  8
0
100
AcDbLine
 62
2
  6
CONTINUOUS
 10
12.7926763987
 20
2.4919113136
 11
12.7293963636
 21
2.5522893471
  0
ARC
  5
2AA
100
AcDbEntity
  8
0
100
AcDbCircle
 62
2
  6
CONTINUOUS
 10
12.7276876627
 20
2.5504984093
 40
0.0024753014
100
AcDbArc
 50
46.3461263059
 51
180.0014637321
  0
LINE
  5
2AB
100
AcDbEntity
  8
0
100
AcDbLine
 62
2
  6
CONTINUOUS
 10
12.7252123613
 20
2.5504983461
 11
12.7252123613
 21
2.5184523283
  0
ARC
  5
2AC
100
AcDbEntity
  8
0
100
AcDbCircle
 62
2
  6
CONTINUOUS
 10
12.7276873608
 20
2.5184523265
 40
0.0024749995
100
AcDbArc
 50
179.9999571957
 51
270.0000428043
  0
LINE
  5
2AD
100
AcDbEntity
  8
0
100
AcDbLine
 62
2
  6
CONTINUOUS
 10
12.7276873627
 20
2.515977327
 11
12.7480043739
 21
2.515977327
  0
ARC
  5
2AE
100
AcDbEntity
  8
0
100
AcDbCircle
 62
2
  6
CONTINUOUS
 10
12.7480043758
 20
2.5135023274
 40
0.0024749995
100
AcDbArc
 50
359.9999571957
 51
90.0000428043
  0
LINE
  5
2AF
100
AcDbEntity
  8
0
100
AcDbLine
 62
2
  6
CONTINUOUS
 10
12.7504793753
 20
2.5135023256
 11
12.7504793753
 21
2.4937023146
  0
ARC
  5
2B0
100
AcDbEntity
  8
0
100
AcDbCircle
 62
2
  6
CONTINUOUS
 10
12.7480043758
 20
2.4937023128
 40
0.0024749995
100
AcDbArc
 50
269.9999571957
 51
0.0000428043
  0
LINE
  5
2B1
100
AcDbEntity
  8
0
100
AcDbLine
 62
2
  6
CONTINUOUS
 10
12.7480043739
 20
2.4912273132
 11
12.672340332
 21
2.4912273132
  0
ARC
  5
2B2
100
AcDbEntity
  8
0
100
AcDbCircle
 62
2
  6
CONTINUOUS
 10
12.6723403301
 20
2.4937023128
 40
0.0024749995
100
AcDbArc
 50
179.9999571957
 51
270.0000428043
  0
LINE
  5
2B3
100
AcDbEntity
  8
0
100
AcDbLine
 62
2
  6
CONTINUOUS
 10
12.6698653306
 20
2.4937023146
 11
12.6698653306
 21
2.5135023256
  0
ARC
  5
2B4
100
AcDbEntity
  8
0
100
AcDbCircle
 62
2
  6
CONTINUOUS
 10
12.6723403301
 20
2.5135023274
 40
0.0024749995
100
AcDbArc
 50
89.9999571957
 51
180.0000428043
  0
LINE
  5
2B5
100
AcDbEntity
  8
0
100
AcDbLine
 62
2
  6
CONTINUOUS
 10
12.672340332
 20
2.515977327
 11
12.6909873423
 21
2.515977327
  0
ARC
  5
2B6
100
AcDbEntity
  8
0
100
AcDbCircle
 62
2
  6
CONTINUOUS
 10
12.6909873442
 20
2.5184523265
 40
0.0024749995
100
AcDbArc
 50
269.9999571957
 51
0.0000428043
  0
LINE
  5
2B7
100
AcDbEntity
  8
0
100
AcDbLine
 62
2
  6
CONTINUOUS
 10
12.6934623437
 20
2.5184523283
 11
12.6934623437
 21
2.564807354
  0
ARC
  5
2B8
100
AcDbEntity
  8
0
100
AcDbCircle
 62
2
  6
CONTINUOUS
 10
12.6909873442
 20
2.5648073559
 40
0.0024749995
100
AcDbArc
 50
359.9999571957
 51
90.0000428043
  0
LINE
  5
2B9
100
AcDbEntity
  8
0
100
AcDbLine
 62
2
  6
CONTINUOUS
 10
12.6909873423
 20
2.5672823554
 11
12.672340332
 21
2.5672823554
  0
ARC
  5
2BA
100
AcDbEntity
  8
0
100
AcDbCircle
 62
2
  6
CONTINUOUS
 10
12.6723403301
 20
2.5697573549
 40
0.0024749995
100
AcDbArc
 50
179.9999571957
 51
270.0000428043
  0
LINE
  5
2BB
100
AcDbEntity
  8
0
100
AcDbLine
 62
2
  6
CONTINUOUS
 10
12.6698653306
 20
2.5697573568
 11
12.6698653306
 21
2.5895573678
  0
ARC
  5
2BC
100
AcDbEntity
  8
0
100
AcDbCircle
 62
2
  6
CONTINUOUS
 10
12.6723403301
 20
2.5895573696
 40
0.0024749995
100
AcDbArc
 50
89.9999571957
 51
180.0000428043
  0
LINE
  5
2BD
100
AcDbEntity
  8
0
100
AcDbLine
 62
2
  6
CONTINUOUS
 10
12.5246402501
 20
2.5655893545
 11
12.5175232461
 21
2.5543723483
  0
ARC
  5
2BE
100
AcDbEntity
  8
0
100
AcDbCircle
 62
2
  6
CONTINUOUS
 10
12.519613138
 20
2.5530463862
 40
0.0024750401
100
AcDbArc
 50
147.6063258012
 51
270.0025305754
  0
LINE
  5
2BF
100
AcDbEntity
  8
0
100
AcDbLine
 62
2
  6
CONTINUOUS
 10
12.5196132473
 20
2.5505713461
 11
12.5401702587
 21
2.5505713461
  0
ARC
  5
2C0
100
AcDbEntity
  8
0
100
AcDbCircle
 62
2
  6
CONTINUOUS
 10
12.5401702375
 20
2.5530465533
 40
0.0024752071
100
AcDbArc
 50
270.0004896793
 51
32.9089806818
  0
LINE
  5
2C1
100
AcDbEntity
  8
0
100
AcDbLine
 62
2
  6
CONTINUOUS
 10
12.5422482598
 20
2.5543913483
 11
12.5349892558
 21
2.5656073545
  0
ARC
  5
2C2
100
AcDbEntity
  8
0
100
AcDbCircle
 62
2
  6
CONTINUOUS
 10
12.532910715
 20
2.564262895
 40
0.0024754602
100
AcDbArc
 50
32.8959418573
 51
89.9875097202
  0
LINE
  5
2C3
100
AcDbEntity
  8
0
100
AcDbLine
 62
2
  6
CONTINUOUS
 10
12.5329112547
 20
2.5667383551
 11
12.5267302512
 21
2.5667383551
  0
ARC
  5
2C4
100
AcDbEntity
  8
0
100
AcDbCircle
 62
2
  6
CONTINUOUS
 10
12.5267301809
 20
2.5642631548
 40
0.0024752003
100
AcDbArc
 50
89.998372645
 51
147.602165307
  0
LINE
  5
2C5
100
AcDbEntity
  8
0
100
AcDbLine
 62
2
  6
CONTINUOUS
 10
12.548053263
 20
2.5284903339
 11
12.5536792662
 21
2.5197973291
  0
ARC
  5
2C6
100
AcDbEntity
  8
0
100
AcDbCircle
 62
2
  6
CONTINUOUS
 10
12.5516012439
 20
2.5184525341
 40
0.0024752071
100
AcDbArc
 50
270.0004896794
 51
32.9089806818
  0
LINE
  5
2C7
100
AcDbEntity
  8
0
100
AcDbLine
 62
2
  6
CONTINUOUS
 10
12.551601265
 20
2.515977327
 11
12.537150257
 21
2.515977327
  0
ARC
  5
2C8
100
AcDbEntity
  8
0
100
AcDbCircle
 62
2
  6
CONTINUOUS
 10
12.5371502552
 20
2.5135023274
 40
0.0024749995
100
AcDbArc
 50
89.9999571957
 51
180.0000428043
  0
LINE
  5
2C9
100
AcDbEntity
  8
0
100
AcDbLine
 62
2
  6
CONTINUOUS
 10
12.5346752556
 20
2.5135023256
 11
12.5346752556
 21
2.4937023146
  0
ARC
  5
2CA
100
AcDbEntity
  8
0
100
AcDbCircle
 62
2
  6
CONTINUOUS
 10
12.5371502552
 20
2.4937023128
 40
0.0024749995
100
AcDbArc
 50
179.9999571957
 51
270.0000428043
  0
LINE
  5
2CB
100
AcDbEntity
  8
0
100
AcDbLine
 62
2
  6
CONTINUOUS
 10
12.537150257
 20
2.4912273132
 11
12.6424313154
 21
2.4912273132
  0
ARC
  5
2CC
100
AcDbEntity
  8
0
100
AcDbCircle
 62
2
  6
CONTINUOUS
 10
12.6424313172
 20
2.4937023128
 40
0.0024749995
100
AcDbArc
 50
269.9999571957
 51
0.0000428043
  0
LINE
  5
2CD
100
AcDbEntity
  8
0
100
AcDbLine
 62
2
  6
CONTINUOUS
 10
12.6449063168
 20
2.4937023146
 11
12.6449063168
 21
2.5135023256
  0
ARC
  5
2CE
100
AcDbEntity
  8
0
100
AcDbCircle
 62
2
  6
CONTINUOUS
 10
12.6424313172
 20
2.5135023274
 40
0.0024749995
100
AcDbArc
 50
359.9999571957
 51
90.0000428043
  0
LINE
  5
2CF
100
AcDbEntity
  8
0
100
AcDbLine
 62
2
  6
CONTINUOUS
 10
12.6424313154
 20
2.515977327
 11
12.6224153043
 21
2.515977327
  0
ARC
  5
2D0
100
AcDbEntity
  8
0
100
AcDbCircle
 62
2
  6
CONTINUOUS
 10
12.6224154248
 20
2.518451368
 40
0.002474041
100
AcDbArc
 50
212.9056413127
 51
269.9972091756
  0
LINE
  5
2D1
100
AcDbEntity
  8
0
100
AcDbLine
 62
2
  6
CONTINUOUS
 10
12.6203383031
 20
2.5171073276
 11
12.5725822767
 21
2.5909023685
  0
ARC
  5
2D2
100
AcDbEntity
  8
0
100
AcDbCircle
 62
2
  6
CONTINUOUS
 10
12.570504655
 20
2.589557409
 40
0.0024749602
100
AcDbArc
 50
32.9172174468
 51
90.0087853097
  0
LINE
  5
2D3
100
AcDbEntity
  8
0
100
AcDbLine
 62
2
  6
CONTINUOUS
 10
12.5705042755
 20
2.5920323691
 11
12.5133292438
 21
2.5920323691
  0
ARC
  5
2D4
100
AcDbEntity
  8
0
100
AcDbCircle
 62
2
  6
CONTINUOUS
 10
12.5133291735
 20
2.5895571688
 40
0.0024752003
100
AcDbArc
 50
89.9983726451
 51
147.602165307
  0
LINE
  5
2D5
100
AcDbEntity
  8
0
100
AcDbLine
 62
2
  6
CONTINUOUS
 10
12.5112392426
 20
2.5908833685
 11
12.4644392167
 21
2.5171263276
  0
ARC
  5
2D6
100
AcDbEntity
  8
0
100
AcDbCircle
 62
2
  6
CONTINUOUS
 10
12.4623492858
 20
2.5184525273
 40
0.0024752003
100
AcDbArc
 50
269.9983726451
 51
327.602165307
  0
LINE
  5
2D7
100
AcDbEntity
  8
0
100
AcDbLine
 62
2
  6
CONTINUOUS
 10
12.4623492155
 20
2.515977327
 11
12.4394882028
 21
2.515977327
  0
ARC
  5
2D8
100
AcDbEntity
  8
0
100
AcDbCircle
 62
2
  6
CONTINUOUS
 10
12.439488201
 20
2.5135023274
 40
0.0024749995
100
AcDbArc
 50
89.9999571957
 51
180.0000428043
  0
LINE
  5
2D9
100
AcDbEntity
  8
0
100
AcDbLine
 62
2
  6
CONTINUOUS
 10
12.4370132015
 20
2.5135023256
 11
12.4370132015
 21
2.4937023146
  0
ARC
  5
2DA
100
AcDbEntity
  8
0
100
AcDbCircle
 62
2
  6
CONTINUOUS
 10
12.439488201
 20
2.4937023128
 40
0.0024749995
100
AcDbArc
 50
179.9999571957
 51
270.0000428043
  0
LINE
  5
2DB
100
AcDbEntity
  8
0
100
AcDbLine
 62
2
  6
CONTINUOUS
 10
12.4394882028
 20
2.4912273132
 11
12.5168642458
 21
2.4912273132
  0
ARC
  5
2DC
100
AcDbEntity
  8
0
100
AcDbCircle
 62
2
  6
CONTINUOUS
 10
12.5168642476
 20
2.4937023128
 40
0.0024749995
100
AcDbArc
 50
269.9999571957
 51
0.0000428043
  0
LINE
  5
2DD
100
AcDbEntity
  8
0
100
AcDbLine
 62
2
  6
CONTINUOUS
 10
12.5193392471
 20
2.4937023146
 11
12.5193392471
 21
2.5135023256
  0
ARC
  5
2DE
100
AcDbEntity
  8
0
100
AcDbCircle
 62
2
  6
CONTINUOUS
 10
12.5168642476
 20
2.5135023274
 40
0.0024749995
100
AcDbArc
 50
359.9999571957
 51
90.0000428043
  0
LINE
  5
2DF
100
AcDbEntity
  8
0
100
AcDbLine
 62
2
  6
CONTINUOUS
 10
12.5168642458
 20
2.515977327
 11
12.5055812395
 21
2.515977327
  0
ARC
  5
2E0
100
AcDbEntity
  8
0
100
AcDbCircle
 62
2
  6
CONTINUOUS
 10
12.5055811302
 20
2.518452367
 40
0.0024750401
100
AcDbArc
 50
147.6063258011
 51
270.0025305754
  0
LINE
  5
2E1
100
AcDbEntity
  8
0
100
AcDbLine
 62
2
  6
CONTINUOUS
 10
12.5034912383
 20
2.5197783291
 11
12.5090072414
 21
2.5284723339
  0
ARC
  5
2E2
100
AcDbEntity
  8
0
100
AcDbCircle
 62
2
  6
CONTINUOUS
 10
12.5110971723
 20
2.5271461342
 40
0.0024752003
100
AcDbArc
 50
89.998372645
 51
147.602165307
  0
LINE
  5
2E3
100
AcDbEntity
  8
0
100
AcDbLine
 62
2
  6
CONTINUOUS
 10
12.5110972426
 20
2.5296213345
 11
12.5459752619
 21
2.5296213345
  0
ARC
  5
2E4
100
AcDbEntity
  8
0
100
AcDbCircle
 62
2
  6
CONTINUOUS
 10
12.5459747223
 20
2.5271458744
 40
0.0024754602
100
AcDbArc
 50
32.8959418573
 51
89.9875097202
  0
LINE
  5
2E5
100
AcDbEntity
  8
0
100
AcDbLine
 62
2
  6
CONTINUOUS
 10
12.9205934696
 20
2.5920323691
 11
13.0210515254
 21
2.5920323691
  0
ARC
  5
2E6
100
AcDbEntity
  8
0
100
AcDbCircle
 62
2
  6
CONTINUOUS
 10
13.0210516601
 20
2.5895582013
 40
0.0024741678
100
AcDbArc
 50
46.3477981899
 51
90.0031206038
  0
LINE
  5
2E7
100
AcDbEntity
  8
0
100
AcDbLine
 62
2
  6
CONTINUOUS
 10
13.0227595263
 20
2.5913483688
 11
13.0827925596
 21
2.534068337
  0
ARC
  5
2E8
100
AcDbEntity
  8
0
100
AcDbCircle
 62
2
  6
CONTINUOUS
 10
13.0845012605
 20
2.5358592748
 40
0.0024753014
100
AcDbArc
 50
226.3461263059
 51
0.0014637321
  0
LINE
  5
2E9
100
AcDbEntity
  8
0
100
AcDbLine
 62
2
  6
CONTINUOUS
 10
13.0869765619
 20
2.535859338
 11
13.0869765619
 21
2.564807354
  0
ARC
  5
2EA
100
AcDbEntity
  8
0
100
AcDbCircle
 62
2
  6
CONTINUOUS
 10
13.0845015624
 20
2.5648073559
 40
0.0024749995
100
AcDbArc
 50
359.9999571957
 51
90.0000428043
  0
LINE
  5
2EB
100
AcDbEntity
  8
0
100
AcDbLine
 62
2
  6
CONTINUOUS
 10
13.0845015605
 20
2.5672823554
 11
13.0657255501
 21
2.5672823554
  0
ARC
  5
2EC
100
AcDbEntity
  8
0
100
AcDbCircle
 62
2
  6
CONTINUOUS
 10
13.0657255483
 20
2.5697573549
 40
0.0024749995
100
AcDbArc
 50
179.9999571957
 51
270.0000428043
  0
LINE
  5
2ED
100
AcDbEntity
  8
0
100
AcDbLine
 62
2
  6
CONTINUOUS
 10
13.0632505488
 20
2.5697573568
 11
13.0632505488
 21
2.5895573678
  0
ARC
  5
2EE
100
AcDbEntity
  8
0
100
AcDbCircle
 62
2
  6
CONTINUOUS
 10
13.0657255483
 20
2.5895573696
 40
0.0024749995
100
AcDbArc
 50
89.9999571957
 51
180.0000428043
  0
LINE
  5
2EF
100
AcDbEntity
  8
0
100
AcDbLine
 62
2
  6
CONTINUOUS
 10
13.0657255501
 20
2.5920323691
 11
13.1397265912
 21
2.5920323691
  0
ARC
  5
2F0
100
AcDbEntity
  8
0
100
AcDbCircle
 62
2
  6
CONTINUOUS
 10
13.139726593
 20
2.5895573696
 40
0.0024749995
100
AcDbArc
 50
359.9999571957
 51
90.0000428043
  0
LINE
  5
2F1
100
AcDbEntity
  8
0
100
AcDbLine
 62
2
  6
CONTINUOUS
 10
13.1422015925
 20
2.5895573678
 11
13.1422015925
 21
2.5697573568
  0
ARC
  5
2F2
100
AcDbEntity
  8
0
100
AcDbCircle
 62
2
  6
CONTINUOUS
 10
13.139726593
 20
2.5697573549
 40
0.0024749995
100
AcDbArc
 50
269.9999571957
 51
0.0000428042
  0
LINE
  5
2F3
100
AcDbEntity
  8
0
100
AcDbLine
 62
2
  6
CONTINUOUS
 10
13.1397265912
 20
2.5672823554
 11
13.1217935812
 21
2.5672823554
  0
ARC
  5
2F4
100
AcDbEntity
  8
0
100
AcDbCircle
 62
2
  6
CONTINUOUS
 10
13.1217935794
 20
2.5648073559
 40
0.0024749995
100
AcDbArc
 50
89.9999571957
 51
180.0000428042
  0
LINE
  5
2F5
100
AcDbEntity
  8
0
100
AcDbLine
 62
2
  6
CONTINUOUS
 10
13.1193185799
 20
2.564807354
 11
13.1193185799
 21
2.4937023146
  0
ARC
  5
2F6
100
AcDbEntity
  8
0
100
AcDbCircle
 62
2
  6
CONTINUOUS
 10
13.1168435803
 20
2.4937023128
 40
0.0024749995
100
AcDbArc
 50
269.9999571957
 51
0.0000428043
  0
LINE
  5
2F7
100
AcDbEntity
  8
0
100
AcDbLine
 62
2
  6
CONTINUOUS
 10
13.1168435785
 20
2.4912273132
 11
13.0426375373
 21
2.4912273132
  0
ARC
  5
2F8
100
AcDbEntity
  8
0
100
AcDbCircle
 62
2
  6
CONTINUOUS
 10
13.0426374026
 20
2.493701481
 40
0.0024741678
100
AcDbArc
 50
226.3477981898
 51
270.0031206038
  0
LINE
  5
2F9
100
AcDbEntity
  8
0
100
AcDbLine
 62
2
  6
CONTINUOUS
 10
13.0409295364
 20
2.4919113136
 11
12.9776495013
 21
2.5522893471
  0
ARC
  5
2FA
100
AcDbEntity
  8
0
100
AcDbCircle
 62
2
  6
CONTINUOUS
 10
12.9759408003
 20
2.5504984093
 40
0.0024753014
100
AcDbArc
 50
46.3461263059
 51
180.0014637321
  0
LINE
  5
2FB
100
AcDbEntity
  8
0
100
AcDbLine
 62
2
  6
CONTINUOUS
 10
12.973465499
 20
2.5504983461
 11
12.973465499
 21
2.5184523283
  0
ARC
  5
2FC
100
AcDbEntity
  8
0
100
AcDbCircle
 62
2
  6
CONTINUOUS
 10
12.9759404985
 20
2.5184523265
 40
0.0024749995
100
AcDbArc
 50
179.9999571957
 51
270.0000428043
  0
LINE
  5
2FD
100
AcDbEntity
  8
0
100
AcDbLine
 62
2
  6
CONTINUOUS
 10
12.9759405003
 20
2.515977327
 11
12.9962575116
 21
2.515977327
  0
ARC
  5
2FE
100
AcDbEntity
  8
0
100
AcDbCircle
 62
2
  6
CONTINUOUS
 10
12.9962575135
 20
2.5135023274
 40
0.0024749995
100
AcDbArc
 50
359.9999571957
 51
90.0000428043
  0
LINE
  5
2FF
100
AcDbEntity
  8
0
100
AcDbLine
 62
2
  6
CONTINUOUS
 10
12.998732513
 20
2.5135023256
 11
12.998732513
 21
2.4937023146
  0
ARC
  5
300
100
AcDbEntity
  8
0
100
AcDbCircle
 62
2
  6
CONTINUOUS
 10
12.9962575135
 20
2.4937023128
 40
0.0024749995
100
AcDbArc
 50
269.9999571957
 51
0.0000428043
  0
LINE
  5
301
100
AcDbEntity
  8
0
100
AcDbLine
 62
2
  6
CONTINUOUS
 10
12.9962575116
 20
2.4912273132
 11
12.9205934696
 21
2.4912273132
  0
ARC
  5
302
100
AcDbEntity
  8
0
100
AcDbCircle
 62
2
  6
CONTINUOUS
 10
12.9205934678
 20
2.4937023128
 40
0.0024749995
100
AcDbArc
 50
179.9999571957
 51
270.0000428043
  0
LINE
  5
303
100
AcDbEntity
  8
0
100
AcDbLine
 62
2
  6
CONTINUOUS
 10
12.9181184683
 20
2.4937023146
 11
12.9181184683
 21
2.5135023256
  0
ARC
  5
304
100
AcDbEntity
  8
0
100
AcDbCircle
 62
2
  6
CONTINUOUS
 10
12.9205934678
 20
2.5135023274
 40
0.0024749995
100
AcDbArc
 50
89.9999571957
 51
180.0000428042
  0
LINE
  5
305
100
AcDbEntity
  8
0
100
AcDbLine
 62
2
  6
CONTINUOUS
 10
12.9205934696
 20
2.515977327
 11
12.93923948
 21
2.515977327
  0
ARC
  5
306
100
AcDbEntity
  8
0
100
AcDbCircle
 62
2
  6
CONTINUOUS
 10
12.9392394818
 20
2.5184523265
 40
0.0024749995
100
AcDbArc
 50
269.9999571957
 51
0.0000428043
  0
LINE
  5
307
100
AcDbEntity
  8
0
100
AcDbLine
 62
2
  6
CONTINUOUS
 10
12.9417144814
 20
2.5184523283
 11
12.9417144814
 21
2.564807354
  0
ARC
  5
308
100
AcDbEntity
  8
0
100
AcDbCircle
 62
2
  6
CONTINUOUS
 10
12.9392394818
 20
2.5648073559
 40
0.0024749995
100
AcDbArc
 50
359.9999571957
 51
90.0000428043
  0
LINE
  5
309
100
AcDbEntity
  8
0
100
AcDbLine
 62
2
  6
CONTINUOUS
 10
12.93923948
 20
2.5672823554
 11
12.9205934696
 21
2.5672823554
  0
ARC
  5
30A
100
AcDbEntity
  8
0
100
AcDbCircle
 62
2
  6
CONTINUOUS
 10
12.9205934678
 20
2.5697573549
 40
0.0024749995
100
AcDbArc
 50
179.9999571957
 51
270.0000428043
  0
LINE
  5
30B
100
AcDbEntity
  8
0
100
AcDbLine
 62
2
  6
CONTINUOUS
 10
12.9181184683
 20
2.5697573568
 11
12.9181184683
 21
2.5895573678
  0
ARC
  5
30C
100
AcDbEntity
  8
0
100
AcDbCircle
 62
2
  6
CONTINUOUS
 10
12.9205934678
 20
2.5895573696
 40
0.0024749995
100
AcDbArc
 50
89.9999571957
 51
180.0000428042
  0
LINE
  5
30D
100
AcDbEntity
  8
0
100
AcDbLine
 62
2
  6
CONTINUOUS
 10
13.2934226764
 20
2.5324773361
 11
13.2582556569
 21
2.5324773361
  0
ARC
  5
30E
100
AcDbEntity
  8
0
100
AcDbCircle
 62
2
  6
CONTINUOUS
 10
13.2582556551
 20
2.5300023366
 40
0.0024749995
100
AcDbArc
 50
89.9999571957
 51
180.0000428043
  0
LINE
  5
30F
100
AcDbEntity
  8
0
100
AcDbLine
 62
2
  6
CONTINUOUS
 10
13.2557806555
 20
2.5300023347
 11
13.2557806555
 21
2.5184523283
  0
ARC
  5
310
100
AcDbEntity
  8
0
100
AcDbCircle
 62
2
  6
CONTINUOUS
 10
13.2582556551
 20
2.5184523265
 40
0.0024749995
100
AcDbArc
 50
179.9999571957
 51
270.0000428043
  0
LINE
  5
311
100
AcDbEntity
  8
0
100
AcDbLine
 62
2
  6
CONTINUOUS
 10
13.2582556569
 20
2.515977327
 11
13.3232596929
 21
2.515977327
  0
ARC
  5
312
100
AcDbEntity
  8
0
100
AcDbCircle
 62
2
  6
CONTINUOUS
 10
13.3232596948
 20
2.5184523265
 40
0.0024749995
100
AcDbArc
 50
269.9999571957
 51
0.0000428043
  0
LINE
  5
313
100
AcDbEntity
  8
0
100
AcDbLine
 62
2
  6
CONTINUOUS
 10
13.3257346943
 20
2.5184523283
 11
13.3257346943
 21
2.5267023329
  0
ARC
  5
314
100
AcDbEntity
  8
0
100
AcDbCircle
 62
2
  6
CONTINUOUS
 10
13.3282096938
 20
2.5267023348
 40
0.0024749995
100
AcDbArc
 50
89.9999571957
 51
180.0000428043
  0
LINE
  5
315
100
AcDbEntity
  8
0
100
AcDbLine
 62
2
  6
CONTINUOUS
 10
13.3282096957
 20
2.5291773343
 11
13.3705287192
 21
2.5291773343
  0
ARC
  5
316
100
AcDbEntity
  8
0
100
AcDbCircle
 62
2
  6
CONTINUOUS
 10
13.370528721
 20
2.5267023348
 40
0.0024749995
100
AcDbArc
 50
359.9999571957
 51
90.0000428043
  0
LINE
  5
317
100
AcDbEntity
  8
0
100
AcDbLine
 62
2
  6
CONTINUOUS
 10
13.3730037205
 20
2.5267023329
 11
13.3730037205
 21
2.4937023146
  0
ARC
  5
318
100
AcDbEntity
  8
0
100
AcDbCircle
 62
2
  6
CONTINUOUS
 10
13.370528721
 20
2.4937023128
 40
0.0024749995
100
AcDbArc
 50
269.9999571957
 51
0.0000428043
  0
LINE
  5
319
100
AcDbEntity
  8
0
100
AcDbLine
 62
2
  6
CONTINUOUS
 10
13.3705287192
 20
2.4912273132
 11
13.1673166065
 21
2.4912273132
  0
ARC
  5
31A
100
AcDbEntity
  8
0
100
AcDbCircle
 62
2
  6
CONTINUOUS
 10
13.1673166046
 20
2.4937023128
 40
0.0024749995
100
AcDbArc
 50
179.9999571957
 51
270.0000428043
  0
LINE
  5
31B
100
AcDbEntity
  8
0
100
AcDbLine
 62
2
  6
CONTINUOUS
 10
13.1648416051
 20
2.4937023146
 11
13.1648416051
 21
2.5135023256
  0
ARC
  5
31C
100
AcDbEntity
  8
0
100
AcDbCircle
 62
2
  6
CONTINUOUS
 10
13.1673166046
 20
2.5135023274
 40
0.0024749995
100
AcDbArc
 50
89.9999571957
 51
180.0000428043
  0
LINE
  5
31D
100
AcDbEntity
  8
0
100
AcDbLine
 62
2
  6
CONTINUOUS
 10
13.1673166065
 20
2.515977327
 11
13.1912396197
 21
2.515977327
  0
ARC
  5
31E
100
AcDbEntity
  8
0
100
AcDbCircle
 62
2
  6
CONTINUOUS
 10
13.1912396216
 20
2.5184523265
 40
0.0024749995
100
AcDbArc
 50
269.9999571957
 51
0.0000428042
  0
LINE
  5
31F
100
AcDbEntity
  8
0
100
AcDbLine
 62
2
  6
CONTINUOUS
 10
13.1937146211
 20
2.5184523283
 11
13.1937146211
 21
2.564807354
  0
ARC
  5
320
100
AcDbEntity
  8
0
100
AcDbCircle
 62
2
  6
CONTINUOUS
 10
13.1912396216
 20
2.5648073559
 40
0.0024749995
100
AcDbArc
 50
359.9999571957
 51
90.0000428043
  0
LINE
  5
321
100
AcDbEntity
  8
0
100
AcDbLine
 62
2
  6
CONTINUOUS
 10
13.1912396197
 20
2.5672823554
 11
13.1673166065
 21
2.5672823554
  0
ARC
  5
322
100
AcDbEntity
  8
0
100
AcDbCircle
 62
2
  6
CONTINUOUS
 10
13.1673166046
 20
2.5697573549
 40
0.0024749995
100
AcDbArc
 50
179.9999571957
 51
270.0000428043
  0
LINE
  5
323
100
AcDbEntity
  8
0
100
AcDbLine
 62
2
  6
CONTINUOUS
 10
13.1648416051
 20
2.5697573568
 11
13.1648416051
 21
2.5895573678
  0
ARC
  5
324
100
AcDbEntity
  8
0
100
AcDbCircle
 62
2
  6
CONTINUOUS
 10
13.1673166046
 20
2.5895573696
 40
0.0024749995
100
AcDbArc
 50
89.9999571957
 51
180.0000428043
  0
LINE
  5
325
100
AcDbEntity
  8
0
100
AcDbLine
 62
2
  6
CONTINUOUS
 10
13.1673166065
 20
2.5920323691
 11
13.3691097184
 21
2.5920323691
  0
ARC
  5
326
100
AcDbEntity
  8
0
100
AcDbCircle
 62
2
  6
CONTINUOUS
 10
13.3691097202
 20
2.5895573696
 40
0.0024749995
100
AcDbArc
 50
359.9999571957
 51
90.0000428043
  0
LINE
  5
327
100
AcDbEntity
  8
0
100
AcDbLine
 62
2
  6
CONTINUOUS
 10
13.3715847197
 20
2.5895573678
 11
13.3715847197
 21
2.5565573495
  0
ARC
  5
328
100
AcDbEntity
  8
0
100
AcDbCircle
 62
2
  6
CONTINUOUS
 10
13.3691097202
 20
2.5565573476
 40
0.0024749995
100
AcDbArc
 50
269.9999571957
 51
0.0000428042
  0
LINE
  5
329
100
AcDbEntity
  8
0
100
AcDbLine
 62
2
  6
CONTINUOUS
 10
13.3691097184
 20
2.5540823481
 11
13.3272456952
 21
2.5540823481
  0
ARC
  5
32A
100
AcDbEntity
  8
0
100
AcDbCircle
 62
2
  6
CONTINUOUS
 10
13.3272456933
 20
2.5565573476
 40
0.0024749995
100
AcDbArc
 50
179.9999571957
 51
270.0000428043
  0
LINE
  5
32B
100
AcDbEntity
  8
0
100
AcDbLine
 62
2
  6
CONTINUOUS
 10
13.3247706938
 20
2.5565573495
 11
13.3247706938
 21
2.564807354
  0
ARC
  5
32C
100
AcDbEntity
  8
0
100
AcDbCircle
 62
2
  6
CONTINUOUS
 10
13.3222956943
 20
2.5648073559
 40
0.0024749995
100
AcDbArc
 50
359.9999571957
 51
90.0000428043
  0
LINE
  5
32D
100
AcDbEntity
  8
0
100
AcDbLine
 62
2
  6
CONTINUOUS
 10
13.3222956924
 20
2.5672823554
 11
13.2582556569
 21
2.5672823554
  0
ARC
  5
32E
100
AcDbEntity
  8
0
100
AcDbCircle
 62
2
  6
CONTINUOUS
 10
13.2582556551
 20
2.5648073559
 40
0.0024749995
100
AcDbArc
 50
89.9999571957
 51
180.0000428043
  0
LINE
  5
32F
100
AcDbEntity
  8
0
100
AcDbLine
 62
2
  6
CONTINUOUS
 10
13.2557806555
 20
2.564807354
 11
13.2557806555
 21
2.5532573476
  0
ARC
  5
330
100
AcDbEntity
  8
0
100
AcDbCircle
 62
2
  6
CONTINUOUS
 10
13.2582556551
 20
2.5532573458
 40
0.0024749995
100
AcDbArc
 50
179.9999571957
 51
270.0000428043
  0
LINE
  5
331
100
AcDbEntity
  8
0
100
AcDbLine
 62
2
  6
CONTINUOUS
 10
13.2582556569
 20
2.5507823463
 11
13.2934226764
 21
2.5507823463
  0
ARC
  5
332
100
AcDbEntity
  8
0
100
AcDbCircle
 62
2
  6
CONTINUOUS
 10
13.2934226783
 20
2.5483073467
 40
0.0024749995
100
AcDbArc
 50
359.9999571957
 51
90.0000428043
  0
LINE
  5
333
100
AcDbEntity
  8
0
100
AcDbLine
 62
2
  6
CONTINUOUS
 10
13.2958976778
 20
2.5483073449
 11
13.2958976778
 21
2.5349523375
  0
ARC
  5
334
100
AcDbEntity
  8
0
100
AcDbCircle
 62
2
  6
CONTINUOUS
 10
13.2934226783
 20
2.5349523356
 40
0.0024749995
100
AcDbArc
 50
269.9999571957
 51
0.0000428042
  0
LINE
  5
335
100
AcDbEntity
  8
0
100
AcDbLine
 62
2
  6
CONTINUOUS
 10
13.7286871589
 20
2.5350697372
 11
13.7286871589
 21
2.5456869438
  0
LINE
  5
336
100
AcDbEntity
  8
0
100
AcDbLine
 62
2
  6
CONTINUOUS
 10
13.7086871478
 20
2.5004302075
 11
13.7086871478
 21
2.5803264735
  0
LINE
  5
337
100
AcDbEntity
  8
0
100
AcDbLine
 62
2
  6
CONTINUOUS
 10
13.6886871368
 20
2.4843919416
 11
13.6886871368
 21
2.5963647394
  0
LINE
  5
338
100
AcDbEntity
  8
0
100
AcDbLine
 62
2
  6
CONTINUOUS
 10
13.6686871257
 20
2.4726017898
 11
13.6686871257
 21
2.6081548911
  0
LINE
  5
339
100
AcDbEntity
  8
0
100
AcDbLine
 62
2
  6
CONTINUOUS
 10
13.6486871146
 20
2.4628062688
 11
13.6486871146
 21
2.6179504122
  0
LINE
  5
33A
100
AcDbEntity
  8
0
100
AcDbLine
 62
2
  6
CONTINUOUS
 10
13.6286871035
 20
2.4541253507
 11
13.6286871035
 21
2.5062483056
  0
LINE
  5
33B
100
AcDbEntity
  8
0
100
AcDbLine
 62
2
  6
CONTINUOUS
 10
13.6286871035
 20
2.5301143348
 11
13.6286871035
 21
2.6266313303
  0
LINE
  5
33C
100
AcDbEntity
  8
0
100
AcDbLine
 62
2
  6
CONTINUOUS
 10
13.6086870924
 20
2.4465537903
 11
13.6086870924
 21
2.4918774918
  0
LINE
  5
33D
100
AcDbEntity
  8
0
100
AcDbLine
 62
2
  6
CONTINUOUS
 10
13.6086870924
 20
2.5165781173
 11
13.6086870924
 21
2.6342028907
  0
LINE
  5
33E
100
AcDbEntity
  8
0
100
AcDbLine
 62
2
  6
CONTINUOUS
 10
13.5886870813
 20
2.4398033466
 11
13.5886870813
 21
2.4912273132
  0
LINE
  5
33F
100
AcDbEntity
  8
0
100
AcDbLine
 62
2
  6
CONTINUOUS
 10
13.5886870813
 20
2.5391840845
 11
13.5886870813
 21
2.5454298327
  0
LINE
  5
340
100
AcDbEntity
  8
0
100
AcDbLine
 62
2
  6
CONTINUOUS
 10
13.5886870813
 20
2.5862063472
 11
13.5886870813
 21
2.6409533343
  0
LINE
  5
341
100
AcDbEntity
  8
0
100
AcDbLine
 62
2
  6
CONTINUOUS
 10
13.5686870702
 20
2.4334702189
 11
13.5686870702
 21
2.4912273132
  0
LINE
  5
342
100
AcDbEntity
  8
0
100
AcDbLine
 62
2
  6
CONTINUOUS
 10
13.5686870702
 20
2.5906587765
 11
13.5686870702
 21
2.647286462
  0
LINE
  5
343
100
AcDbEntity
  8
0
100
AcDbLine
 62
2
  6
CONTINUOUS
 10
13.5486870591
 20
2.4278968124
 11
13.5486870591
 21
2.4937461006
  0
LINE
  5
344
100
AcDbEntity
  8
0
100
AcDbLine
 62
2
  6
CONTINUOUS
 10
13.5486870591
 20
2.5920323691
 11
13.5486870591
 21
2.6528598686
  0
LINE
  5
345
100
AcDbEntity
  8
0
100
AcDbLine
 62
2
  6
CONTINUOUS
 10
13.528687048
 20
2.4225427674
 11
13.528687048
 21
2.5270426993
  0
LINE
  5
346
100
AcDbEntity
  8
0
100
AcDbLine
 62
2
  6
CONTINUOUS
 10
13.528687048
 20
2.5505166259
 11
13.528687048
 21
2.5668657091
  0
LINE
  5
347
100
AcDbEntity
  8
0
100
AcDbLine
 62
2
  6
CONTINUOUS
 10
13.528687048
 20
2.5920323691
 11
13.528687048
 21
2.6582139136
  0
LINE
  5
348
100
AcDbEntity
  8
0
100
AcDbLine
 62
2
  6
CONTINUOUS
 10
13.5086870369
 20
2.4177306791
 11
13.5086870369
 21
2.4912273132
  0
LINE
  5
349
100
AcDbEntity
  8
0
100
AcDbLine
 62
2
  6
CONTINUOUS
 10
13.5086870369
 20
2.5159553269
 11
13.5086870369
 21
2.5306043351
  0
LINE
  5
34A
100
AcDbEntity
  8
0
100
AcDbLine
 62
2
  6
CONTINUOUS
 10
13.5086870369
 20
2.5496073456
 11
13.5086870369
 21
2.5672823554
  0
LINE
  5
34B
100
AcDbEntity
  8
0
100
AcDbLine
 62
2
  6
CONTINUOUS
 10
13.5086870369
 20
2.5920323691
 11
13.5086870369
 21
2.6630260019
  0
LINE
  5
34C
100
AcDbEntity
  8
0
100
AcDbLine
 62
2
  6
CONTINUOUS
 10
13.4886870258
 20
2.4131795254
 11
13.4886870258
 21
2.4912273132
  0
LINE
  5
34D
100
AcDbEntity
  8
0
100
AcDbLine
 62
2
  6
CONTINUOUS
 10
13.4886870258
 20
2.5159553269
 11
13.4886870258
 21
2.5306043351
  0
LINE
  5
34E
100
AcDbEntity
  8
0
100
AcDbLine
 62
2
  6
CONTINUOUS
 10
13.4886870258
 20
2.5496073456
 11
13.4886870258
 21
2.5672823554
  0
LINE
  5
34F
100
AcDbEntity
  8
0
100
AcDbLine
 62
2
  6
CONTINUOUS
 10
13.4886870258
 20
2.5920323691
 11
13.4886870258
 21
2.6675771555
  0
LINE
  5
350
100
AcDbEntity
  8
0
100
AcDbLine
 62
2
  6
CONTINUOUS
 10
13.4686870147
 20
2.4088819672
 11
13.4686870147
 21
2.4912273132
  0
LINE
  5
351
100
AcDbEntity
  8
0
100
AcDbLine
 62
2
  6
CONTINUOUS
 10
13.4686870147
 20
2.5920323691
 11
13.4686870147
 21
2.6718747138
  0
LINE
  5
352
100
AcDbEntity
  8
0
100
AcDbLine
 62
2
  6
CONTINUOUS
 10
13.4486870037
 20
2.4050092072
 11
13.4486870037
 21
2.4912273132
  0
LINE
  5
353
100
AcDbEntity
  8
0
100
AcDbLine
 62
2
  6
CONTINUOUS
 10
13.4486870037
 20
2.5920323691
 11
13.4486870037
 21
2.6757474738
  0
LINE
  5
354
100
AcDbEntity
  8
0
100
AcDbLine
 62
2
  6
CONTINUOUS
 10
13.4286869926
 20
2.4011364471
 11
13.4286869926
 21
2.4912273132
  0
LINE
  5
355
100
AcDbEntity
  8
0
100
AcDbLine
 62
2
  6
CONTINUOUS
 10
13.4286869926
 20
2.5920323691
 11
13.4286869926
 21
2.6796202339
  0
LINE
  5
356
100
AcDbEntity
  8
0
100
AcDbLine
 62
2
  6
CONTINUOUS
 10
13.4086869815
 20
2.3980226662
 11
13.4086869815
 21
2.4912273132
  0
LINE
  5
357
100
AcDbEntity
  8
0
100
AcDbLine
 62
2
  6
CONTINUOUS
 10
13.4086869815
 20
2.515977327
 11
13.4086869815
 21
2.5672823554
  0
LINE
  5
358
100
AcDbEntity
  8
0
100
AcDbLine
 62
2
  6
CONTINUOUS
 10
13.4086869815
 20
2.5920323691
 11
13.4086869815
 21
2.6827340148
  0
LINE
  5
359
100
AcDbEntity
  8
0
100
AcDbLine
 62
2
  6
CONTINUOUS
 10
13.3886869704
 20
2.3950052774
 11
13.3886869704
 21
2.6857514036
  0
LINE
  5
35A
100
AcDbEntity
  8
0
100
AcDbLine
 62
2
  6
CONTINUOUS
 10
13.3686869593
 20
2.3919878885
 11
13.3686869593
 21
2.4912273132
  0
LINE
  5
35B
100
AcDbEntity
  8
0
100
AcDbLine
 62
2
  6
CONTINUOUS
 10
13.3686869593
 20
2.5291773343
 11
13.3686869593
 21
2.5540823481
  0
LINE
  5
35C
100
AcDbEntity
  8
0
100
AcDbLine
 62
2
  6
CONTINUOUS
 10
13.3686869593
 20
2.5920323691
 11
13.3686869593
 21
2.6887687924
  0
LINE
  5
35D
100
AcDbEntity
  8
0
100
AcDbLine
 62
2
  6
CONTINUOUS
 10
13.3486869482
 20
2.3889704997
 11
13.3486869482
 21
2.4912273132
  0
LINE
  5
35E
100
AcDbEntity
  8
0
100
AcDbLine
 62
2
  6
CONTINUOUS
 10
13.3486869482
 20
2.5291773343
 11
13.3486869482
 21
2.5540823481
  0
LINE
  5
35F
100
AcDbEntity
  8
0
100
AcDbLine
 62
2
  6
CONTINUOUS
 10
13.3486869482
 20
2.5920323691
 11
13.3486869482
 21
2.6917861813
  0
LINE
  5
360
100
AcDbEntity
  8
0
100
AcDbLine
 62
2
  6
CONTINUOUS
 10
13.3286869371
 20
2.3859531109
 11
13.3286869371
 21
2.4912273132
  0
LINE
  5
361
100
AcDbEntity
  8
0
100
AcDbLine
 62
2
  6
CONTINUOUS
 10
13.3286869371
 20
2.5291773343
 11
13.3286869371
 21
2.5540823481
  0
LINE
  5
362
100
AcDbEntity
  8
0
100
AcDbLine
 62
2
  6
CONTINUOUS
 10
13.3286869371
 20
2.5920323691
 11
13.3286869371
 21
2.6948035701
  0
LINE
  5
363
100
AcDbEntity
  8
0
100
AcDbLine
 62
2
  6
CONTINUOUS
 10
13.308686926
 20
2.3833355437
 11
13.308686926
 21
2.4912273132
  0
LINE
  5
364
100
AcDbEntity
  8
0
100
AcDbLine
 62
2
  6
CONTINUOUS
 10
13.308686926
 20
2.515977327
 11
13.308686926
 21
2.5672823554
  0
LINE
  5
365
100
AcDbEntity
  8
0
100
AcDbLine
 62
2
  6
CONTINUOUS
 10
13.308686926
 20
2.5920323691
 11
13.308686926
 21
2.6974211373
  0
LINE
  5
366
100
AcDbEntity
  8
0
100
AcDbLine
 62
2
  6
CONTINUOUS
 10
13.2886869149
 20
2.3812612684
 11
13.2886869149
 21
2.4912273132
  0
LINE
  5
367
100
AcDbEntity
  8
0
100
AcDbLine
 62
2
  6
CONTINUOUS
 10
13.2886869149
 20
2.515977327
 11
13.2886869149
 21
2.5324773361
  0
LINE
  5
368
100
AcDbEntity
  8
0
100
AcDbLine
 62
2
  6
CONTINUOUS
 10
13.2886869149
 20
2.5507823463
 11
13.2886869149
 21
2.5672823554
  0
LINE
  5
369
100
AcDbEntity
  8
0
100
AcDbLine
 62
2
  6
CONTINUOUS
 10
13.2886869149
 20
2.5920323691
 11
13.2886869149
 21
2.6994954125
  0
LINE
  5
36A
100
AcDbEntity
  8
0
100
AcDbLine
 62
2
  6
CONTINUOUS
 10
13.2686869038
 20
2.3791869932
 11
13.2686869038
 21
2.4912273132
  0
LINE
  5
36B
100
AcDbEntity
  8
0
100
AcDbLine
 62
2
  6
CONTINUOUS
 10
13.2686869038
 20
2.515977327
 11
13.2686869038
 21
2.5324773361
  0
LINE
  5
36C
100
AcDbEntity
  8
0
100
AcDbLine
 62
2
  6
CONTINUOUS
 10
13.2686869038
 20
2.5507823463
 11
13.2686869038
 21
2.5672823554
  0
LINE
  5
36D
100
AcDbEntity
  8
0
100
AcDbLine
 62
2
  6
CONTINUOUS
 10
13.2686869038
 20
2.5920323691
 11
13.2686869038
 21
2.7015696878
  0
LINE
  5
36E
100
AcDbEntity
  8
0
100
AcDbLine
 62
2
  6
CONTINUOUS
 10
13.2486868927
 20
2.377112718
 11
13.2486868927
 21
2.4912273132
  0
LINE
  5
36F
100
AcDbEntity
  8
0
100
AcDbLine
 62
2
  6
CONTINUOUS
 10
13.2486868927
 20
2.5920323691
 11
13.2486868927
 21
2.703643963
  0
LINE
  5
370
100
AcDbEntity
  8
0
100
AcDbLine
 62
2
  6
CONTINUOUS
 10
13.2286868817
 20
2.3750384428
 11
13.2286868817
 21
2.4912273132
  0
LINE
  5
371
100
AcDbEntity
  8
0
100
AcDbLine
 62
2
  6
CONTINUOUS
 10
13.2286868817
 20
2.5920323691
 11
13.2286868817
 21
2.7057182382
  0
LINE
  5
372
100
AcDbEntity
  8
0
100
AcDbLine
 62
2
  6
CONTINUOUS
 10
13.2086868706
 20
2.3729641676
 11
13.2086868706
 21
2.4912273132
  0
LINE
  5
373
100
AcDbEntity
  8
0
100
AcDbLine
 62
2
  6
CONTINUOUS
 10
13.2086868706
 20
2.5920323691
 11
13.2086868706
 21
2.7077925134
  0
LINE
  5
374
100
AcDbEntity
  8
0
100
AcDbLine
 62
2
  6
CONTINUOUS
 10
13.1886868595
 20
2.3712344456
 11
13.1886868595
 21
2.4912273132
  0
LINE
  5
375
100
AcDbEntity
  8
0
100
AcDbLine
 62
2
  6
CONTINUOUS
 10
13.1886868595
 20
2.515977327
 11
13.1886868595
 21
2.5672823554
  0
LINE
  5
376
100
AcDbEntity
  8
0
100
AcDbLine
 62
2
  6
CONTINUOUS
 10
13.1886868595
 20
2.5920323691
 11
13.1886868595
 21
2.7095222354
  0
LINE
  5
377
100
AcDbEntity
  8
0
100
AcDbLine
 62
2
  6
CONTINUOUS
 10
13.1686868484
 20
2.3699682418
 11
13.1686868484
 21
2.4912273132
  0
LINE
  5
378
100
AcDbEntity
  8
0
100
AcDbLine
 62
2
  6
CONTINUOUS
 10
13.1686868484
 20
2.515977327
 11
13.1686868484
 21
2.5672823554
  0
LINE
  5
379
100
AcDbEntity
  8
0
100
AcDbLine
 62
2
  6
CONTINUOUS
 10
13.1686868484
 20
2.5920323691
 11
13.1686868484
 21
2.7107884392
  0
LINE
  5
37A
100
AcDbEntity
  8
0
100
AcDbLine
 62
2
  6
CONTINUOUS
 10
13.1486868373
 20
2.3687020381
 11
13.1486868373
 21
2.7120546429
  0
LINE
  5
37B
100
AcDbEntity
  8
0
100
AcDbLine
 62
2
  6
CONTINUOUS
 10
13.1286868262
 20
2.3674358343
 11
13.1286868262
 21
2.5672823554
  0
LINE
  5
37C
100
AcDbEntity
  8
0
100
AcDbLine
 62
2
  6
CONTINUOUS
 10
13.1286868262
 20
2.5920323691
 11
13.1286868262
 21
2.7133208466
  0
LINE
  5
37D
100
AcDbEntity
  8
0
100
AcDbLine
 62
2
  6
CONTINUOUS
 10
13.1086868151
 20
2.3661696306
 11
13.1086868151
 21
2.4912273132
  0
LINE
  5
37E
100
AcDbEntity
  8
0
100
AcDbLine
 62
2
  6
CONTINUOUS
 10
13.1086868151
 20
2.5920323691
 11
13.1086868151
 21
2.7145870504
  0
LINE
  5
37F
100
AcDbEntity
  8
0
100
AcDbLine
 62
2
  6
CONTINUOUS
 10
13.088686804
 20
2.3649034269
 11
13.088686804
 21
2.4912273132
  0
LINE
  5
380
100
AcDbEntity
  8
0
100
AcDbLine
 62
2
  6
CONTINUOUS
 10
13.088686804
 20
2.5920323691
 11
13.088686804
 21
2.7158532541
  0
LINE
  5
381
100
AcDbEntity
  8
0
100
AcDbLine
 62
2
  6
CONTINUOUS
 10
13.0686867929
 20
2.3636739922
 11
13.0686867929
 21
2.4912273132
  0
LINE
  5
382
100
AcDbEntity
  8
0
100
AcDbLine
 62
2
  6
CONTINUOUS
 10
13.0686867929
 20
2.5475272398
 11
13.0686867929
 21
2.5672823554
  0
LINE
  5
383
100
AcDbEntity
  8
0
100
AcDbLine
 62
2
  6
CONTINUOUS
 10
13.0686867929
 20
2.5920323691
 11
13.0686867929
 21
2.7170826887
  0
LINE
  5
384
100
AcDbEntity
  8
0
100
AcDbLine
 62
2
  6
CONTINUOUS
 10
13.0486867818
 20
2.363143203
 11
13.0486867818
 21
2.4912273132
  0
LINE
  5
385
100
AcDbEntity
  8
0
100
AcDbLine
 62
2
  6
CONTINUOUS
 10
13.0486867818
 20
2.5666100882
 11
13.0486867818
 21
2.717613478
  0
LINE
  5
386
100
AcDbEntity
  8
0
100
AcDbLine
 62
2
  6
CONTINUOUS
 10
13.0286867707
 20
2.3626124138
 11
13.0286867707
 21
2.50359263
  0
LINE
  5
387
100
AcDbEntity
  8
0
100
AcDbLine
 62
2
  6
CONTINUOUS
 10
13.0286867707
 20
2.5856929366
 11
13.0286867707
 21
2.7181442672
  0
LINE
  5
388
100
AcDbEntity
  8
0
100
AcDbLine
 62
2
  6
CONTINUOUS
 10
13.0086867596
 20
2.3620816246
 11
13.0086867596
 21
2.5226754472
  0
LINE
  5
389
100
AcDbEntity
  8
0
100
AcDbLine
 62
2
  6
CONTINUOUS
 10
13.0086867596
 20
2.5920323691
 11
13.0086867596
 21
2.7186750564
  0
LINE
  5
38A
100
AcDbEntity
  8
0
100
AcDbLine
 62
2
  6
CONTINUOUS
 10
12.9886867486
 20
2.3615508354
 11
12.9886867486
 21
2.4912273132
  0
LINE
  5
38B
100
AcDbEntity
  8
0
100
AcDbLine
 62
2
  6
CONTINUOUS
 10
12.9886867486
 20
2.515977327
 11
12.9886867486
 21
2.5417582644
  0
LINE
  5
38C
100
AcDbEntity
  8
0
100
AcDbLine
 62
2
  6
CONTINUOUS
 10
12.9886867486
 20
2.5920323691
 11
12.9886867486
 21
2.7192058456
  0
LINE
  5
38D
100
AcDbEntity
  8
0
100
AcDbLine
 62
2
  6
CONTINUOUS
 10
12.9686867375
 20
2.3610200462
 11
12.9686867375
 21
2.4912273132
  0
LINE
  5
38E
100
AcDbEntity
  8
0
100
AcDbLine
 62
2
  6
CONTINUOUS
 10
12.9686867375
 20
2.5920323691
 11
12.9686867375
 21
2.7197366348
  0
LINE
  5
38F
100
AcDbEntity
  8
0
100
AcDbLine
 62
2
  6
CONTINUOUS
 10
12.9486867264
 20
2.360489257
 11
12.9486867264
 21
2.4912273132
  0
LINE
  5
390
100
AcDbEntity
  8
0
100
AcDbLine
 62
2
  6
CONTINUOUS
 10
12.9486867264
 20
2.5920323691
 11
12.9486867264
 21
2.720267424
  0
LINE
  5
391
100
AcDbEntity
  8
0
100
AcDbLine
 62
2
  6
CONTINUOUS
 10
12.9286867153
 20
2.3602836008
 11
12.9286867153
 21
2.4912273132
  0
LINE
  5
392
100
AcDbEntity
  8
0
100
AcDbLine
 62
2
  6
CONTINUOUS
 10
12.9286867153
 20
2.515977327
 11
12.9286867153
 21
2.5672823554
  0
LINE
  5
393
100
AcDbEntity
  8
0
100
AcDbLine
 62
2
  6
CONTINUOUS
 10
12.9286867153
 20
2.5920323691
 11
12.9286867153
 21
2.7204730802
  0
LINE
  5
394
100
AcDbEntity
  8
0
100
AcDbLine
 62
2
  6
CONTINUOUS
 10
12.9086867042
 20
2.3604597639
 11
12.9086867042
 21
2.7202969171
  0
LINE
  5
395
100
AcDbEntity
  8
0
100
AcDbLine
 62
2
  6
CONTINUOUS
 10
12.8886866931
 20
2.360635927
 11
12.8886866931
 21
2.5672823554
  0
LINE
  5
396
100
AcDbEntity
  8
0
100
AcDbLine
 62
2
  6
CONTINUOUS
 10
12.8886866931
 20
2.5920323691
 11
12.8886866931
 21
2.720120754
  0
LINE
  5
397
100
AcDbEntity
  8
0
100
AcDbLine
 62
2
  6
CONTINUOUS
 10
12.868686682
 20
2.3608120901
 11
12.868686682
 21
2.491232357
  0
LINE
  5
398
100
AcDbEntity
  8
0
100
AcDbLine
 62
2
  6
CONTINUOUS
 10
12.868686682
 20
2.5920323691
 11
12.868686682
 21
2.7199445909
  0
LINE
  5
399
100
AcDbEntity
  8
0
100
AcDbLine
 62
2
  6
CONTINUOUS
 10
12.8486866709
 20
2.3609882532
 11
12.8486866709
 21
2.4912273132
  0
LINE
  5
39A
100
AcDbEntity
  8
0
100
AcDbLine
 62
2
  6
CONTINUOUS
 10
12.8486866709
 20
2.5920323691
 11
12.8486866709
 21
2.7197684278
  0
LINE
  5
39B
100
AcDbEntity
  8
0
100
AcDbLine
 62
2
  6
CONTINUOUS
 10
12.8286866598
 20
2.3611644163
 11
12.8286866598
 21
2.4912273132
  0
LINE
  5
39C
100
AcDbEntity
  8
0
100
AcDbLine
 62
2
  6
CONTINUOUS
 10
12.8286866598
 20
2.5396527025
 11
12.8286866598
 21
2.5672823554
  0
LINE
  5
39D
100
AcDbEntity
  8
0
100
AcDbLine
 62
2
  6
CONTINUOUS
 10
12.8286866598
 20
2.5920323691
 11
12.8286866598
 21
2.7195922647
  0
LINE
  5
39E
100
AcDbEntity
  8
0
100
AcDbLine
 62
2
  6
CONTINUOUS
 10
12.8086866487
 20
2.3613405794
 11
12.8086866487
 21
2.4912273132
  0
LINE
  5
39F
100
AcDbEntity
  8
0
100
AcDbLine
 62
2
  6
CONTINUOUS
 10
12.8086866487
 20
2.5587355508
 11
12.8086866487
 21
2.7194161016
  0
LINE
  5
3A0
100
AcDbEntity
  8
0
100
AcDbLine
 62
2
  6
CONTINUOUS
 10
12.7886866376
 20
2.3621089572
 11
12.7886866376
 21
2.4957181055
  0
LINE
  5
3A1
100
AcDbEntity
  8
0
100
AcDbLine
 62
2
  6
CONTINUOUS
 10
12.7886866376
 20
2.5778183992
 11
12.7886866376
 21
2.7186477238
  0
LINE
  5
3A2
100
AcDbEntity
  8
0
100
AcDbLine
 62
2
  6
CONTINUOUS
 10
12.7686866266
 20
2.3630013935
 11
12.7686866266
 21
2.5148009227
  0
LINE
  5
3A3
100
AcDbEntity
  8
0
100
AcDbLine
 62
2
  6
CONTINUOUS
 10
12.7686866266
 20
2.5920323691
 11
12.7686866266
 21
2.7177552874
  0
LINE
  5
3A4
100
AcDbEntity
  8
0
100
AcDbLine
 62
2
  6
CONTINUOUS
 10
12.7486866155
 20
2.3638938299
 11
12.7486866155
 21
2.4913263218
  0
LINE
  5
3A5
100
AcDbEntity
  8
0
100
AcDbLine
 62
2
  6
CONTINUOUS
 10
12.7486866155
 20
2.5158783184
 11
12.7486866155
 21
2.5338837399
  0
LINE
  5
3A6
100
AcDbEntity
  8
0
100
AcDbLine
 62
2
  6
CONTINUOUS
 10
12.7486866155
 20
2.5920323691
 11
12.7486866155
 21
2.7168628511
  0
LINE
  5
3A7
100
AcDbEntity
  8
0
100
AcDbLine
 62
2
  6
CONTINUOUS
 10
12.7286866044
 20
2.3647862663
 11
12.7286866044
 21
2.4912273132
  0
LINE
  5
3A8
100
AcDbEntity
  8
0
100
AcDbLine
 62
2
  6
CONTINUOUS
 10
12.7286866044
 20
2.515977327
 11
12.7286866044
 21
2.5527601554
  0
LINE
  5
3A9
100
AcDbEntity
  8
0
100
AcDbLine
 62
2
  6
CONTINUOUS
 10
12.7286866044
 20
2.5920323691
 11
12.7286866044
 21
2.7159704147
  0
LINE
  5
3AA
100
AcDbEntity
  8
0
100
AcDbLine
 62
2
  6
CONTINUOUS
 10
12.7086865933
 20
2.3656787026
 11
12.7086865933
 21
2.4912273132
  0
LINE
  5
3AB
100
AcDbEntity
  8
0
100
AcDbLine
 62
2
  6
CONTINUOUS
 10
12.7086865933
 20
2.5920323691
 11
12.7086865933
 21
2.7150779784
  0
LINE
  5
3AC
100
AcDbEntity
  8
0
100
AcDbLine
 62
2
  6
CONTINUOUS
 10
12.6886865822
 20
2.366571139
 11
12.6886865822
 21
2.4912273132
  0
LINE
  5
3AD
100
AcDbEntity
  8
0
100
AcDbLine
 62
2
  6
CONTINUOUS
 10
12.6886865822
 20
2.515977327
 11
12.6886865822
 21
2.5672823554
  0
LINE
  5
3AE
100
AcDbEntity
  8
0
100
AcDbLine
 62
2
  6
CONTINUOUS
 10
12.6886865822
 20
2.5920323691
 11
12.6886865822
 21
2.714185542
  0
LINE
  5
3AF
100
AcDbEntity
  8
0
100
AcDbLine
 62
2
  6
CONTINUOUS
 10
12.6686865711
 20
2.3677104027
 11
12.6686865711
 21
2.7130462783
  0
LINE
  5
3B0
100
AcDbEntity
  8
0
100
AcDbLine
 62
2
  6
CONTINUOUS
 10
12.64868656
 20
2.3693682721
 11
12.64868656
 21
2.7113884089
  0
LINE
  5
3B1
100
AcDbEntity
  8
0
100
AcDbLine
 62
2
  6
CONTINUOUS
 10
12.6286865489
 20
2.3710261415
 11
12.6286865489
 21
2.4912273132
  0
LINE
  5
3B2
100
AcDbEntity
  8
0
100
AcDbLine
 62
2
  6
CONTINUOUS
 10
12.6286865489
 20
2.515977327
 11
12.6286865489
 21
2.7097305395
  0
LINE
  5
3B3
100
AcDbEntity
  8
0
100
AcDbLine
 62
2
  6
CONTINUOUS
 10
12.6086865378
 20
2.372684011
 11
12.6086865378
 21
2.4912273132
  0
LINE
  5
3B4
100
AcDbEntity
  8
0
100
AcDbLine
 62
2
  6
CONTINUOUS
 10
12.6086865378
 20
2.5351122279
 11
12.6086865378
 21
2.70807267
  0
LINE
  5
3B5
100
AcDbEntity
  8
0
100
AcDbLine
 62
2
  6
CONTINUOUS
 10
12.5886865267
 20
2.3743418804
 11
12.5886865267
 21
2.4912273132
  0
LINE
  5
3B6
100
AcDbEntity
  8
0
100
AcDbLine
 62
2
  6
CONTINUOUS
 10
12.5886865267
 20
2.5660172622
 11
12.5886865267
 21
2.7064148006
  0
LINE
  5
3B7
100
AcDbEntity
  8
0
100
AcDbLine
 62
2
  6
CONTINUOUS
 10
12.5686865156
 20
2.3759997498
 11
12.5686865156
 21
2.4912273132
  0
LINE
  5
3B8
100
AcDbEntity
  8
0
100
AcDbLine
 62
2
  6
CONTINUOUS
 10
12.5686865156
 20
2.5920323691
 11
12.5686865156
 21
2.7047569312
  0
LINE
  5
3B9
100
AcDbEntity
  8
0
100
AcDbLine
 62
2
  6
CONTINUOUS
 10
12.5486865045
 20
2.3777575277
 11
12.5486865045
 21
2.4912273132
  0
LINE
  5
3BA
100
AcDbEntity
  8
0
100
AcDbLine
 62
2
  6
CONTINUOUS
 10
12.5486865045
 20
2.515977327
 11
12.5486865045
 21
2.5275118824
  0
LINE
  5
3BB
100
AcDbEntity
  8
0
100
AcDbLine
 62
2
  6
CONTINUOUS
 10
12.5486865045
 20
2.5920323691
 11
12.5486865045
 21
2.7029991533
  0
LINE
  5
3BC
100
AcDbEntity
  8
0
100
AcDbLine
 62
2
  6
CONTINUOUS
 10
12.5286864935
 20
2.3802813811
 11
12.5286864935
 21
2.5296213345
  0
LINE
  5
3BD
100
AcDbEntity
  8
0
100
AcDbLine
 62
2
  6
CONTINUOUS
 10
12.5286864935
 20
2.5505713461
 11
12.5286864935
 21
2.5667383551
  0
LINE
  5
3BE
100
AcDbEntity
  8
0
100
AcDbLine
 62
2
  6
CONTINUOUS
 10
12.5286864935
 20
2.5920323691
 11
12.5286864935
 21
2.7004752999
  0
LINE
  5
3BF
100
AcDbEntity
  8
0
100
AcDbLine
 62
2
  6
CONTINUOUS
 10
12.5086864824
 20
2.3828052346
 11
12.5086864824
 21
2.4912273132
  0
LINE
  5
3C0
100
AcDbEntity
  8
0
100
AcDbLine
 62
2
  6
CONTINUOUS
 10
12.5086864824
 20
2.515977327
 11
12.5086864824
 21
2.5279667721
  0
LINE
  5
3C1
100
AcDbEntity
  8
0
100
AcDbLine
 62
2
  6
CONTINUOUS
 10
12.5086864824
 20
2.5868602074
 11
12.5086864824
 21
2.6979514464
  0
LINE
  5
3C2
100
AcDbEntity
  8
0
100
AcDbLine
 62
2
  6
CONTINUOUS
 10
12.4886864713
 20
2.385329088
 11
12.4886864713
 21
2.4912273132
  0
LINE
  5
3C3
100
AcDbEntity
  8
0
100
AcDbLine
 62
2
  6
CONTINUOUS
 10
12.4886864713
 20
2.5553401045
 11
12.4886864713
 21
2.695427593
  0
LINE
  5
3C4
100
AcDbEntity
  8
0
100
AcDbLine
 62
2
  6
CONTINUOUS
 10
12.4686864602
 20
2.3878529415
 11
12.4686864602
 21
2.4912273132
  0
LINE
  5
3C5
100
AcDbEntity
  8
0
100
AcDbLine
 62
2
  6
CONTINUOUS
 10
12.4686864602
 20
2.5238200015
 11
12.4686864602
 21
2.6929037395
  0
LINE
  5
3C6
100
AcDbEntity
  8
0
100
AcDbLine
 62
2
  6
CONTINUOUS
 10
12.4486864491
 20
2.390376795
 11
12.4486864491
 21
2.4912273132
  0
LINE
  5
3C7
100
AcDbEntity
  8
0
100
AcDbLine
 62
2
  6
CONTINUOUS
 10
12.4486864491
 20
2.515977327
 11
12.4486864491
 21
2.690379886
  0
LINE
  5
3C8
100
AcDbEntity
  8
0
100
AcDbLine
 62
2
  6
CONTINUOUS
 10
12.428686438
 20
2.3931794042
 11
12.428686438
 21
2.6875772768
  0
LINE
  5
3C9
100
AcDbEntity
  8
0
100
AcDbLine
 62
2
  6
CONTINUOUS
 10
12.4086864269
 20
2.3964643301
 11
12.4086864269
 21
2.5013773986
  0
LINE
  5
3CA
100
AcDbEntity
  8
0
100
AcDbLine
 62
2
  6
CONTINUOUS
 10
12.4086864269
 20
2.5325739971
 11
12.4086864269
 21
2.5537224311
  0
LINE
  5
3CB
100
AcDbEntity
  8
0
100
AcDbLine
 62
2
  6
CONTINUOUS
 10
12.4086864269
 20
2.5791473398
 11
12.4086864269
 21
2.6842923509
  0
LINE
  5
3CC
100
AcDbEntity
  8
0
100
AcDbLine
 62
2
  6
CONTINUOUS
 10
12.3886864158
 20
2.399749256
 11
12.3886864158
 21
2.4921022658
  0
LINE
  5
3CD
100
AcDbEntity
  8
0
100
AcDbLine
 62
2
  6
CONTINUOUS
 10
12.3886864158
 20
2.5895929958
 11
12.3886864158
 21
2.681007425
  0
LINE
  5
3CE
100
AcDbEntity
  8
0
100
AcDbLine
 62
2
  6
CONTINUOUS
 10
12.3686864047
 20
2.403451877
 11
12.3686864047
 21
2.4912273132
  0
LINE
  5
3CF
100
AcDbEntity
  8
0
100
AcDbLine
 62
2
  6
CONTINUOUS
 10
12.3686864047
 20
2.5920323691
 11
12.3686864047
 21
2.677304804
  0
LINE
  5
3D0
100
AcDbEntity
  8
0
100
AcDbLine
 62
2
  6
CONTINUOUS
 10
12.3486863936
 20
2.407324637
 11
12.3486863936
 21
2.4912273132
  0
LINE
  5
3D1
100
AcDbEntity
  8
0
100
AcDbLine
 62
2
  6
CONTINUOUS
 10
12.3486863936
 20
2.5920323691
 11
12.3486863936
 21
2.673432044
  0
LINE
  5
3D2
100
AcDbEntity
  8
0
100
AcDbLine
 62
2
  6
CONTINUOUS
 10
12.3286863825
 20
2.4113493968
 11
12.3286863825
 21
2.4912273132
  0
LINE
  5
3D3
100
AcDbEntity
  8
0
100
AcDbLine
 62
2
  6
CONTINUOUS
 10
12.3286863825
 20
2.515977327
 11
12.3286863825
 21
2.5333023366
  0
LINE
  5
3D4
100
AcDbEntity
  8
0
100
AcDbLine
 62
2
  6
CONTINUOUS
 10
12.3286863825
 20
2.5499573458
 11
12.3286863825
 21
2.5672823554
  0
LINE
  5
3D5
100
AcDbEntity
  8
0
100
AcDbLine
 62
2
  6
CONTINUOUS
 10
12.3286863825
 20
2.5920323691
 11
12.3286863825
 21
2.6694072842
  0
LINE
  5
3D6
100
AcDbEntity
  8
0
100
AcDbLine
 62
2
  6
CONTINUOUS
 10
12.3086863715
 20
2.4159005505
 11
12.3086863715
 21
2.4912273132
  0
LINE
  5
3D7
100
AcDbEntity
  8
0
100
AcDbLine
 62
2
  6
CONTINUOUS
 10
12.3086863715
 20
2.515977327
 11
12.3086863715
 21
2.5333023366
  0
LINE
  5
3D8
100
AcDbEntity
  8
0
100
AcDbLine
 62
2
  6
CONTINUOUS
 10
12.3086863715
 20
2.5499573458
 11
12.3086863715
 21
2.5672823554
  0
LINE
  5
3D9
100
AcDbEntity
  8
0
100
AcDbLine
 62
2
  6
CONTINUOUS
 10
12.3086863715
 20
2.5920323691
 11
12.3086863715
 21
2.6648561305
  0
LINE
  5
3DA
100
AcDbEntity
  8
0
100
AcDbLine
 62
2
  6
CONTINUOUS
 10
12.2886863604
 20
2.4204517041
 11
12.2886863604
 21
2.4912273132
  0
LINE
  5
3DB
100
AcDbEntity
  8
0
100
AcDbLine
 62
2
  6
CONTINUOUS
 10
12.2886863604
 20
2.5920323691
 11
12.2886863604
 21
2.6603049769
  0
LINE
  5
3DC
100
AcDbEntity
  8
0
100
AcDbLine
 62
2
  6
CONTINUOUS
 10
12.2686863493
 20
2.4257438218
 11
12.2686863493
 21
2.4912273132
  0
LINE
  5
3DD
100
AcDbEntity
  8
0
100
AcDbLine
 62
2
  6
CONTINUOUS
 10
12.2686863493
 20
2.5920323691
 11
12.2686863493
 21
2.6550128592
  0
LINE
  5
3DE
100
AcDbEntity
  8
0
100
AcDbLine
 62
2
  6
CONTINUOUS
 10
12.2486863382
 20
2.4310978667
 11
12.2486863382
 21
2.4912273132
  0
LINE
  5
3DF
100
AcDbEntity
  8
0
100
AcDbLine
 62
2
  6
CONTINUOUS
 10
12.2486863382
 20
2.5920323691
 11
12.2486863382
 21
2.6496588142
  0
LINE
  5
3E0
100
AcDbEntity
  8
0
100
AcDbLine
 62
2
  6
CONTINUOUS
 10
12.2286863271
 20
2.4372566433
 11
12.2286863271
 21
2.4912273132
  0
LINE
  5
3E1
100
AcDbEntity
  8
0
100
AcDbLine
 62
2
  6
CONTINUOUS
 10
12.2286863271
 20
2.515977327
 11
12.2286863271
 21
2.5672823554
  0
LINE
  5
3E2
100
AcDbEntity
  8
0
100
AcDbLine
 62
2
  6
CONTINUOUS
 10
12.2286863271
 20
2.5920323691
 11
12.2286863271
 21
2.6435000377
  0
LINE
  5
3E3
100
AcDbEntity
  8
0
100
AcDbLine
 62
2
  6
CONTINUOUS
 10
12.208686316
 20
2.443589771
 11
12.208686316
 21
2.4912273132
  0
LINE
  5
3E4
100
AcDbEntity
  8
0
100
AcDbLine
 62
2
  6
CONTINUOUS
 10
12.208686316
 20
2.515977327
 11
12.208686316
 21
2.5672823554
  0
LINE
  5
3E5
100
AcDbEntity
  8
0
100
AcDbLine
 62
2
  6
CONTINUOUS
 10
12.208686316
 20
2.5920323691
 11
12.208686316
 21
2.63716691
  0
LINE
  5
3E6
100
AcDbEntity
  8
0
100
AcDbLine
 62
2
  6
CONTINUOUS
 10
12.1886863049
 20
2.4510806436
 11
12.1886863049
 21
2.6296760373
  0
LINE
  5
3E7
100
AcDbEntity
  8
0
100
AcDbLine
 62
2
  6
CONTINUOUS
 10
12.1686862938
 20
2.4591016523
 11
12.1686862938
 21
2.6216550287
  0
LINE
  5
3E8
100
AcDbEntity
  8
0
100
AcDbLine
 62
2
  6
CONTINUOUS
 10
12.1486862827
 20
2.468314272
 11
12.1486862827
 21
2.612442409
  0
LINE
  5
3E9
100
AcDbEntity
  8
0
100
AcDbLine
 62
2
  6
CONTINUOUS
 10
12.1286862716
 20
2.4794932339
 11
12.1286862716
 21
2.601263447
  0
LINE
  5
3EA
100
AcDbEntity
  8
0
100
AcDbLine
 62
2
  6
CONTINUOUS
 10
12.1086862605
 20
2.4934150665
 11
12.1086862605
 21
2.5873416144
  0
LINE
  5
3EB
100
AcDbEntity
  8
0
100
AcDbLine
 62
2
  6
CONTINUOUS
 10
12.0886862494
 20
2.5144449553
 11
12.0886862494
 21
2.5663117257
  0
ENDBLK
  5
3EC
100
AcDbEntity
  8
0
  6
BYBLOCK
 62
0
100
AcDbBlockEnd
  0
BLOCK
  5
3ED
100
AcDbEntity
  8
0
100
AcDbBlockBegin
  2
_FILLED
 70
64
 10
0.0
 20
0.0
  3
_FILLED
  1

  0
SOLID
  5
3EE
100
AcDbEntity
  8
0
  6
BYBLOCK
 62
0
100
AcDbTrace
 10
0.0
 20
0.0
 11
-1.0
 21
0.1666666667
 12
-1.0
 22
-0.1666666667
 13
-1.0
 23
-0.1666666667
  0
ENDBLK
  5
3EF
100
AcDbEntity
  8
0
  6
BYBLOCK
 62
0
100
AcDbBlockEnd
  0
BLOCK
  5
3F0
100
AcDbEntity
  8
SCHEME_DIMS
100
AcDbBlockBegin
 62
2
  6
CONTINUOUS
  2
*D0
 70
65
 10
0.0
 20
0.0
  3
*D0
  1

  0
MTEXT
  5
3F1
100
AcDbEntity
  8
SCHEME_DIMS
100
AcDbMText
 62
2
  6
CONTINUOUS
  7
TEXTSTYLE_5
 71
1
 72
1
 10
6.7786092067
 20
9.3132306058
 30
0.0
 11
1.0
 21
0.0
 31
0.0
 44
0.9
  1
{\Fgdt;n}\Ftxt;50\P[1.97]
 40
0.1
 41
0.6
  0
LINE
  5
3F2
100
AcDbEntity
  8
SCHEME_DIMS
100
AcDbLine
 62
2
  6
CONTINUOUS
 10
6.3406891138
 20
9.0998860334
 11
5.5978414873
 21
8.4541853742
  0
LINE
  5
3F3
100
AcDbEntity
  8
SCHEME_DIMS
100
AcDbLine
 62
2
  6
CONTINUOUS
 10
5.5978414873
 20
8.4541853742
 11
6.5286092067
 21
9.2632306058
  0
LINE
  5
3F4
100
AcDbEntity
  8
SCHEME_DIMS
100
AcDbLine
 62
2
  6
CONTINUOUS
 10
6.5286092067
 20
9.2632306058
 11
6.6786092067
 21
9.2632306058
  0
LINE
  5
3F5
100
AcDbEntity
  8
SCHEME_DIMS
100
AcDbLine
 62
2
  6
CONTINUOUS
 10
4.8549938609
 20
7.8084847149
 11
5.5978414873
 21
8.4541853742
  0
INSERT
  5
3F6
100
AcDbEntity
  8
SCHEME_DIMS
100
AcDbBlockReference
 62
2
  6
CONTINUOUS
  2
_FILLED
 10
6.3406891138
 20
9.0998860334
 41
0.1875
 42
0.1875
 43
0.1875
 50
40.9979381704
  0
INSERT
  5
3F7
100
AcDbEntity
  8
SCHEME_DIMS
100
AcDbBlockReference
 62
2
  6
CONTINUOUS
  2
_FILLED
 10
4.8549938609
 20
7.8084847149
 41
0.1875
 42
0.1875
 43
0.1875
 50
220.9979381704
  0
ENDBLK
  5
3F8
100
AcDbEntity
  8
0
  6
BYBLOCK
 62
0
100
AcDbBlockEnd
  0
BLOCK
  5
3F9
100
AcDbEntity
  8
SCHEME_DIMS
100
AcDbBlockBegin
 62
2
  6
CONTINUOUS
  2
*D1
 70
65
 10
0.0
 20
0.0
  3
*D1
  1

  0
MTEXT
  5
3FA
100
AcDbEntity
  8
SCHEME_DIMS
100
AcDbMText
 62
2
  6
CONTINUOUS
  7
STANDARD
 71
2
 72
1
 10
3.9135895188
 20
5.8092900665
 30
0.0
 11
1.0
 21
0.0
 31
0.0
 44
0.9
  1
28\P[1.10]
 40
0.1
 41
0.6
  0
LINE
  5
3FB
100
AcDbEntity
  8
SCHEME_DIMS
100
AcDbLine
 62
2
  6
CONTINUOUS
 10
4.5904595976
 20
5.1331089641
 11
3.9885895188
 21
5.1331089641
  0
LINE
  5
3FC
100
AcDbEntity
  8
SCHEME_DIMS
100
AcDbLine
 62
2
  6
CONTINUOUS
 10
5.2218307749
 20
6.2354711689
 11
3.9885895188
 21
6.2354711689
  0
LINE
  5
3FD
100
AcDbEntity
  8
SCHEME_DIMS
100
AcDbLine
 62
2
  6
CONTINUOUS
 10
4.1135895188
 20
5.1331089641
 11
4.1135895188
 21
5.4592900665
  0
LINE
  5
3FE
100
AcDbEntity
  8
SCHEME_DIMS
100
AcDbLine
 62
2
  6
CONTINUOUS
 10
4.1135895188
 20
6.2354711689
 11
4.1135895188
 21
5.9092900665
  0
INSERT
  5
3FF
100
AcDbEntity
  8
SCHEME_DIMS
100
AcDbBlockReference
 62
2
  6
CONTINUOUS
  2
_FILLED
 10
4.1135895188
 20
5.1331089641
 41
0.1875
 42
0.1875
 43
0.1875
 50
270.0
  0
INSERT
  5
400
100
AcDbEntity
  8
SCHEME_DIMS
100
AcDbBlockReference
 62
2
  6
CONTINUOUS
  2
_FILLED
 10
4.1135895188
 20
6.2354711689
 41
0.1875
 42
0.1875
 43
0.1875
 50
90.0
  0
ENDBLK
  5
401
100
AcDbEntity
  8
0
  6
BYBLOCK
 62
0
100
AcDbBlockEnd
  0
BLOCK
  5
402
100
AcDbEntity
  8
SCHEME_DIMS
100
AcDbBlockBegin
 62
2
  6
CONTINUOUS
  2
*D2
 70
65
 10
0.0
 20
0.0
  3
*D2
  1

  0
MTEXT
  5
403
100
AcDbEntity
  8
SCHEME_DIMS
100
AcDbMText
 62
2
  6
CONTINUOUS
  7
STANDARD
 71
2
 72
1
 10
6.8820934558
 20
5.356534161
 30
0.0
 11
1.0
 21
0.0
 31
0.0
 44
0.9
  1
51\P[2.01]
 40
0.1
 41
0.6
  0
LINE
  5
404
100
AcDbEntity
  8
SCHEME_DIMS
100
AcDbLine
 62
2
  6
CONTINUOUS
 10
6.1721525109
 20
4.2275971531
 11
6.3488032685
 21
4.2275971531
  0
LINE
  5
405
100
AcDbEntity
  8
SCHEME_DIMS
100
AcDbLine
 62
2
  6
CONTINUOUS
 10
6.44357996
 20
4.2275971531
 11
7.2070934558
 21
4.2275971531
  0
LINE
  5
406
100
AcDbEntity
  8
SCHEME_DIMS
100
AcDbLine
 62
2
  6
CONTINUOUS
 10
6.0087655369
 20
6.2354711689
 11
7.2070934558
 21
6.2354711689
  0
LINE
  5
407
100
AcDbEntity
  8
SCHEME_DIMS
100
AcDbLine
 62
2
  6
CONTINUOUS
 10
7.0820934558
 20
4.2275971531
 11
7.0820934558
 21
5.006534161
  0
LINE
  5
408
100
AcDbEntity
  8
SCHEME_DIMS
100
AcDbLine
 62
2
  6
CONTINUOUS
 10
7.0820934558
 20
6.2354711689
 11
7.0820934558
 21
5.456534161
  0
INSERT
  5
409
100
AcDbEntity
  8
SCHEME_DIMS
100
AcDbBlockReference
 62
2
  6
CONTINUOUS
  2
_FILLED
 10
7.0820934558
 20
4.2275971531
 41
0.1875
 42
0.1875
 43
0.1875
 50
270.0
  0
INSERT
  5
40A
100
AcDbEntity
  8
SCHEME_DIMS
100
AcDbBlockReference
 62
2
  6
CONTINUOUS
  2
_FILLED
 10
7.0820934558
 20
6.2354711689
 41
0.1875
 42
0.1875
 43
0.1875
 50
90.0
  0
ENDBLK
  5
40B
100
AcDbEntity
  8
0
  6
BYBLOCK
 62
0
100
AcDbBlockEnd
  0
ENDSEC
  0
SECTION
  2
ENTITIES
  0
MTEXT
  5
40C
100
AcDbEntity
  8
0
100
AcDbMText
 62
2
  6
CONTINUOUS
  7
TEXTSTYLE_2
 71
2
 72
1
 10
11.0287658475
 20
1.794867839
 30
0.0
 11
1.0
 21
0.0
 31
0.0
 44
0.9
  1
THIRD ANGLE PROJECTION
 40
0.1
 41
1.76
  0
MTEXT
  5
40D
100
AcDbEntity
  8
0
100
AcDbMText
 62
2
  6
CONTINUOUS
  7
STANDARD
 71
1
 72
1
 10
12.88
 20
1.457
 30
0.0
 11
1.0
 21
0.0
 31
0.0
 44
0.9
  1
DRAWING NO.
 40
0.08
 41
0.88
  0
MTEXT
  5
40E
100
AcDbEntity
  8
0
100
AcDbMText
 62
2
  6
CONTINUOUS
  7
TEXTSTYLE_3
 71
2
 72
1
 10
11.03
 20
2.516432
 30
0.0
 11
1.0
 21
0.0
 31
0.0
 44
0.9
  1
and is proprietary in general
 40
0.08
 41
1.972
  0
MTEXT
  5
40F
100
AcDbEntity
  8
0
100
AcDbMText
 62
2
  6
CONTINUOUS
  7
TEXTSTYLE_3
 71
2
 72
1
 10
11.03
 20
2.396432
 30
0.0
 11
1.0
 21
0.0
 31
0.0
 44
0.9
  1
and in detail.  Its contents
 40
0.08
 41
1.904
  0
MTEXT
  5
410
100
AcDbEntity
  8
0
100
AcDbMText
 62
2
  6
CONTINUOUS
  7
TEXTSTYLE_3
 71
2
 72
1
 10
11.03
 20
2.276432
 30
0.0
 11
1.0
 21
0.0
 31
0.0
 44
0.9
  1
shall not be revealed to
 40
0.08
 41
1.632
  0
MTEXT
  5
411
100
AcDbEntity
  8
0
100
AcDbMText
 62
2
  6
CONTINUOUS
  7
TEXTSTYLE_3
 71
2
 72
1
 10
11.03
 20
2.156432
 30
0.0
 11
1.0
 21
0.0
 31
0.0
 44
0.9
  1
outside parties without
 40
0.08
 41
1.564
  0
MTEXT
  5
412
100
AcDbEntity
  8
0
100
AcDbMText
 62
2
  6
CONTINUOUS
  7
TEXTSTYLE_3
 71
2
 72
1
 10
11.03
 20
2.036432
 30
0.0
 11
1.0
 21
0.0
 31
0.0
 44
0.9
  1
written consent of BANNER.
 40
0.08
 41
1.768
  0
MTEXT
  5
413
100
AcDbEntity
  8
0
100
AcDbMText
 62
2
  6
CONTINUOUS
  7
TEXTSTYLE_2
 71
1
 72
1
 10
12.08
 20
2.217
 30
0.0
 11
1.0
 21
0.0
 31
0.0
 44
0.9
  1
TITLE
 40
0.1
 41
0.4
  0
MTEXT
  5
414
100
AcDbEntity
  8
0
100
AcDbMText
 62
2
  6
CONTINUOUS
  7
STANDARD
 71
1
 72
1
 10
12.08
 20
1.457
 30
0.0
 11
1.0
 21
0.0
 31
0.0
 44
0.9
  1
SIZE
 40
0.08
 41
0.32
  0
MTEXT
  5
415
100
AcDbEntity
  8
0
100
AcDbMText
 62
2
  6
CONTINUOUS
  7
STANDARD
 71
1
 72
1
 10
12.08
 20
1.087
 30
0.0
 11
1.0
 21
0.0
 31
0.0
 44
0.9
  1
SCALE
 40
0.08
 41
0.4
  0
MTEXT
  5
416
100
AcDbEntity
  8
0
100
AcDbMText
 62
2
  6
CONTINUOUS
  7
TEXTSTYLE_2
 71
2
 72
1
 10
12.5
 20
1.337
 30
0.0
 11
1.0
 21
0.0
 31
0.0
 44
0.9
  1
B
 40
0.1
 41
0.08
  0
MTEXT
  5
417
100
AcDbEntity
  8
0
100
AcDbMText
 62
2
  6
CONTINUOUS
  7
TEXTSTYLE_3
 71
2
 72
1
 10
11.03
 20
2.636432
 30
0.0
 11
1.0
 21
0.0
 31
0.0
 44
0.9
  1
of BANNER ENGINEERING CORP.
 40
0.08
 41
1.836
  0
MTEXT
  5
418
100
AcDbEntity
  8
0
100
AcDbMText
 62
2
  6
CONTINUOUS
  7
TEXTSTYLE_3
 71
2
 72
1
 10
11.03
 20
2.756432
 30
0.0
 11
1.0
 21
0.0
 31
0.0
 44
0.9
  1
This drawing is the property
 40
0.08
 41
1.904
  0
MTEXT
  5
419
100
AcDbEntity
  8
0
100
AcDbMText
 62
2
  6
CONTINUOUS
  7
TEXTSTYLE_2
 71
2
 72
1
 10
15.03
 20
2.4134
 30
0.0
 11
1.0
 21
0.0
 31
0.0
 44
0.9
  1
MINNEAPOLIS, MN 55440
 40
0.1
 41
1.68
  0
MTEXT
  5
41A
100
AcDbEntity
  8
0
100
AcDbMText
 62
2
  6
CONTINUOUS
  7
STANDARD
 71
1
 72
1
 10
14.255
 20
1.087
 30
0.0
 11
1.0
 21
0.0
 31
0.0
 44
0.9
  1
SHEET
 40
0.08
 41
0.4
  0
MTEXT
  5
41B
100
AcDbEntity
  8
0
100
AcDbMText
 62
2
  6
CONTINUOUS
  7
STANDARD
 71
1
 72
1
 10
15.63
 20
1.457
 30
0.0
 11
1.0
 21
0.0
 31
0.0
 44
0.9
  1
REV.
 40
0.08
 41
0.32
  0
MTEXT
  5
41C
100
AcDbEntity
  8
0
100
AcDbMText
 62
2
  6
CONTINUOUS
  7
STANDARD
 71
3
 72
1
 10
16.38
 20
0.835443
 30
0.0
 11
1.0
 21
0.0
 31
0.0
 44
0.9
  1
PRO/E
 40
0.07
 41
0.35
  0
MTEXT
  5
41D
100
AcDbEntity
  8
0
100
AcDbMText
 62
2
  6
CONTINUOUS
  7
TEXTSTYLE_4
 71
2
 72
1
 10
15.03
 20
2.751049
 30
0.0
 11
1.0
 21
0.0
 31
0.0
 44
0.9
  1
BANNER ENGINEERING CORP.
 40
0.12
 41
2.6496
  0
MTEXT
  5
41E
100
AcDbEntity
  8
0
100
AcDbMText
 62
2
  6
CONTINUOUS
  7
TEXTSTYLE_2
 71
2
 72
1
 10
15.03
 20
2.5724
 30
0.0
 11
1.0
 21
0.0
 31
0.0
 44
0.9
  1
P.O. BOX 9414
 40
0.1
 41
1.04
  0
MTEXT
  5
41F
100
AcDbEntity
  8
0
100
AcDbMText
 62
2
  6
CONTINUOUS
  7
TEXTSTYLE_2
 71
2
 72
1
 10
9.485
 20
10.312
 30
0.0
 11
1.0
 21
0.0
 31
0.0
 44
0.9
  1
4
 40
0.1
 41
0.08
  0
MTEXT
  5
420
100
AcDbEntity
  8
0
100
AcDbMText
 62
2
  6
CONTINUOUS
  7
TEXTSTYLE_2
 71
2
 72
1
 10
11.455
 20
10.312
 30
0.0
 11
1.0
 21
0.0
 31
0.0
 44
0.9
  1
3
 40
0.1
 41
0.08
  0
MTEXT
  5
421
100
AcDbEntity
  8
0
100
AcDbMText
 62
2
  6
CONTINUOUS
  7
TEXTSTYLE_2
 71
2
 72
1
 10
13.425
 20
10.312
 30
0.0
 11
1.0
 21
0.0
 31
0.0
 44
0.9
  1
2
 40
0.1
 41
0.08
  0
MTEXT
  5
422
100
AcDbEntity
  8
0
100
AcDbMText
 62
2
  6
CONTINUOUS
  7
TEXTSTYLE_2
 71
2
 72
1
 10
15.395
 20
10.312
 30
0.0
 11
1.0
 21
0.0
 31
0.0
 44
0.9
  1
1
 40
0.1
 41
0.08
  0
MTEXT
  5
423
100
AcDbEntity
  8
0
100
AcDbMText
 62
2
  6
CONTINUOUS
  7
TEXTSTYLE_2
 71
2
 72
1
 10
3.575
 20
10.312
 30
0.0
 11
1.0
 21
0.0
 31
0.0
 44
0.9
  1
7
 40
0.1
 41
0.08
  0
MTEXT
  5
424
100
AcDbEntity
  8
0
100
AcDbMText
 62
2
  6
CONTINUOUS
  7
TEXTSTYLE_2
 71
2
 72
1
 10
5.545
 20
10.312
 30
0.0
 11
1.0
 21
0.0
 31
0.0
 44
0.9
  1
6
 40
0.1
 41
0.08
  0
MTEXT
  5
425
100
AcDbEntity
  8
0
100
AcDbMText
 62
2
  6
CONTINUOUS
  7
TEXTSTYLE_2
 71
2
 72
1
 10
7.515
 20
10.312
 30
0.0
 11
1.0
 21
0.0
 31
0.0
 44
0.9
  1
5
 40
0.1
 41
0.08
  0
MTEXT
  5
426
100
AcDbEntity
  8
0
100
AcDbMText
 62
2
  6
CONTINUOUS
  7
TEXTSTYLE_2
 71
2
 72
1
 10
1.605
 20
10.312
 30
0.0
 11
1.0
 21
0.0
 31
0.0
 44
0.9
  1
8
 40
0.1
 41
0.08
  0
MTEXT
  5
427
100
AcDbEntity
  8
0
100
AcDbMText
 62
2
  6
CONTINUOUS
  7
TEXTSTYLE_2
 71
2
 72
1
 10
1.605
 20
0.787
 30
0.0
 11
1.0
 21
0.0
 31
0.0
 44
0.9
  1
8
 40
0.1
 41
0.08
  0
MTEXT
  5
428
100
AcDbEntity
  8
0
100
AcDbMText
 62
2
  6
CONTINUOUS
  7
TEXTSTYLE_2
 71
2
 72
1
 10
3.575
 20
0.787
 30
0.0
 11
1.0
 21
0.0
 31
0.0
 44
0.9
  1
7
 40
0.1
 41
0.08
  0
MTEXT
  5
429
100
AcDbEntity
  8
0
100
AcDbMText
 62
2
  6
CONTINUOUS
  7
TEXTSTYLE_2
 71
2
 72
1
 10
5.545
 20
0.787
 30
0.0
 11
1.0
 21
0.0
 31
0.0
 44
0.9
  1
6
 40
0.1
 41
0.08
  0
MTEXT
  5
42A
100
AcDbEntity
  8
0
100
AcDbMText
 62
2
  6
CONTINUOUS
  7
TEXTSTYLE_2
 71
2
 72
1
 10
7.515
 20
0.787
 30
0.0
 11
1.0
 21
0.0
 31
0.0
 44
0.9
  1
5
 40
0.1
 41
0.08
  0
MTEXT
  5
42B
100
AcDbEntity
  8
0
100
AcDbMText
 62
2
  6
CONTINUOUS
  7
TEXTSTYLE_2
 71
2
 72
1
 10
9.485
 20
0.787
 30
0.0
 11
1.0
 21
0.0
 31
0.0
 44
0.9
  1
4
 40
0.1
 41
0.08
  0
MTEXT
  5
42C
100
AcDbEntity
  8
0
100
AcDbMText
 62
2
  6
CONTINUOUS
  7
TEXTSTYLE_2
 71
2
 72
1
 10
11.455
 20
0.787
 30
0.0
 11
1.0
 21
0.0
 31
0.0
 44
0.9
  1
3
 40
0.1
 41
0.08
  0
MTEXT
  5
42D
100
AcDbEntity
  8
0
100
AcDbMText
 62
2
  6
CONTINUOUS
  7
TEXTSTYLE_2
 71
2
 72
1
 10
13.425
 20
0.787
 30
0.0
 11
1.0
 21
0.0
 31
0.0
 44
0.9
  1
2
 40
0.1
 41
0.08
  0
MTEXT
  5
42E
100
AcDbEntity
  8
0
100
AcDbMText
 62
2
  6
CONTINUOUS
  7
TEXTSTYLE_2
 71
2
 72
1
 10
15.395
 20
0.787
 30
0.0
 11
1.0
 21
0.0
 31
0.0
 44
0.9
  1
1
 40
0.1
 41
0.08
  0
MTEXT
  5
42F
100
AcDbEntity
  8
0
100
AcDbMText
 62
2
  6
CONTINUOUS
  7
TEXTSTYLE_2
 71
3
 72
1
 10
0.52
 20
4.3995
 30
0.0
 11
1.0
 21
0.0
 31
0.0
 44
0.9
  1
B
 40
0.1
 41
0.08
  0
MTEXT
  5
430
100
AcDbEntity
  8
0
100
AcDbMText
 62
2
  6
CONTINUOUS
  7
TEXTSTYLE_2
 71
3
 72
1
 10
0.52
 20
2.0995
 30
0.0
 11
1.0
 21
0.0
 31
0.0
 44
0.9
  1
A
 40
0.1
 41
0.08
  0
MTEXT
  5
431
100
AcDbEntity
  8
0
100
AcDbMText
 62
2
  6
CONTINUOUS
  7
TEXTSTYLE_2
 71
3
 72
1
 10
0.52
 20
8.9995
 30
0.0
 11
1.0
 21
0.0
 31
0.0
 44
0.9
  1
D
 40
0.1
 41
0.08
  0
MTEXT
  5
432
100
AcDbEntity
  8
0
100
AcDbMText
 62
2
  6
CONTINUOUS
  7
TEXTSTYLE_2
 71
3
 72
1
 10
0.52
 20
6.6995
 30
0.0
 11
1.0
 21
0.0
 31
0.0
 44
0.9
  1
C
 40
0.1
 41
0.08
  0
MTEXT
  5
433
100
AcDbEntity
  8
0
100
AcDbMText
 62
2
  6
CONTINUOUS
  7
TEXTSTYLE_2
 71
1
 72
1
 10
16.48
 20
8.9995
 30
0.0
 11
1.0
 21
0.0
 31
0.0
 44
0.9
  1
D
 40
0.1
 41
0.08
  0
MTEXT
  5
434
100
AcDbEntity
  8
0
100
AcDbMText
 62
2
  6
CONTINUOUS
  7
TEXTSTYLE_2
 71
1
 72
1
 10
16.48
 20
6.6995
 30
0.0
 11
1.0
 21
0.0
 31
0.0
 44
0.9
  1
C
 40
0.1
 41
0.08
  0
MTEXT
  5
435
100
AcDbEntity
  8
0
100
AcDbMText
 62
2
  6
CONTINUOUS
  7
TEXTSTYLE_2
 71
1
 72
1
 10
16.48
 20
4.3995
 30
0.0
 11
1.0
 21
0.0
 31
0.0
 44
0.9
  1
B
 40
0.1
 41
0.08
  0
MTEXT
  5
436
100
AcDbEntity
  8
0
100
AcDbMText
 62
2
  6
CONTINUOUS
  7
TEXTSTYLE_2
 71
1
 72
1
 10
16.48
 20
2.0995
 30
0.0
 11
1.0
 21
0.0
 31
0.0
 44
0.9
  1
A
 40
0.1
 41
0.08
  0
MTEXT
  5
437
100
AcDbEntity
  8
0
100
AcDbMText
 62
2
  6
CONTINUOUS
  7
STANDARD
 71
1
 72
1
 10
14.819264911
 20
1.0627941725
 30
0.0
 11
1.0
 21
0.0
 31
0.0
 44
0.9
  1
1 OF 1
 40
0.1
 41
0.6
  0
MTEXT
  5
438
100
AcDbEntity
  8
0
100
AcDbMText
 62
7
  6
CONTINUOUS
  7
STANDARD
 71
1
 72
1
 10
13.8911999818
 20
1.3747321586
 30
0.0
 11
1.0
 21
0.0
 31
0.0
 44
0.9
  1
158613
 40
0.12
 41
0.72
  0
MTEXT
  5
439
100
AcDbEntity
  8
0
100
AcDbMText
 62
2
  6
CONTINUOUS
  7
STANDARD
 71
1
 72
1
 10
12.644264911
 20
1.0627941725
 30
0.0
 11
1.0
 21
0.0
 31
0.0
 44
0.9
  1
1:1
 40
0.1
 41
0.3
  0
MTEXT
  5
43A
100
AcDbEntity
  8
0
100
AcDbMText
 62
2
  6
CONTINUOUS
  7
STANDARD
 71
1
 72
1
 10
1.0597007627
 20
1.6202922458
 30
0.0
 11
1.0
 21
0.0
 31
0.0
 44
0.9
  1
NOTES:\P1. ALL DIMENSIONS ARE MILLIMETERS [INCHES] UNLESS OTHERWISE NOTED.
 40
0.1
 41
6.6
  0
INSERT
  5
43B
100
AcDbEntity
  8
0
100
AcDbBlockReference
 62
2
  6
CONTINUOUS
  2
BANNER_LOGO_TITLEBLOCK_BL0
 10
12.9086867042
 20
2.5403783405
  0
DIMENSION
  5
43C
100
AcDbEntity
  8
SCHEME_DIMS
100
AcDbDimension
 62
2
  6
CONTINUOUS
  2
*D0
 10
6.3406891138
 20
9.0998860334
 11
7.1452758734
 21
9.1882306058
 70
163
 71
1
 42
50.0
  1
<>
  3
DIMSTYLE_1
100
AcDbDiametricDimension
 15
4.8549938609
 25
7.8084847149
  0
DIMENSION
  5
43D
100
AcDbEntity
  8
SCHEME_DIMS
100
AcDbDimension
 62
2
  6
CONTINUOUS
  2
*D1
 10
4.1135895188
 20
6.2354711689
 11
4.0385895188
 21
5.6842900665
 70
160
 71
2
 42
28.0
  3
DIMSTYLE_2
100
AcDbAlignedDimension
 13
4.5904595976
 23
5.1331089641
 14
5.2218307749
 24
6.2354711689
 50
90.0
100
AcDbRotatedDimension
  0
DIMENSION
  5
43E
100
AcDbEntity
  8
SCHEME_DIMS
100
AcDbDimension
 62
2
  6
CONTINUOUS
  2
*D2
 10
7.0820934558
 20
6.2354711689
 11
7.0070934558
 21
5.231534161
 70
160
 71
2
 42
51.0
  3
DIMSTYLE_2
100
AcDbAlignedDimension
 13
6.1721525109
 23
4.2275971531
 14
6.0087655369
 24
6.2354711689
 50
90.0
100
AcDbRotatedDimension
  0
LINE
  5
43F
100
AcDbEntity
  8
0
100
AcDbLine
 62
2
  6
CONTINUOUS
 10
16.38
 20
0.887
 11
12.03
 21
0.887
  0
LINE
  5
440
100
AcDbEntity
  8
0
100
AcDbLine
 62
2
  6
CONTINUOUS
 10
16.38
 20
0.887
 11
16.38
 21
2.807
  0
LINE
  5
441
100
AcDbEntity
  8
0
100
AcDbLine
 62
2
  6
CONTINUOUS
 10
16.38
 20
2.807
 11
12.03
 21
2.807
  0
LINE
  5
442
100
AcDbEntity
  8
0
100
AcDbLine
 62
2
  6
CONTINUOUS
 10
12.03
 20
0.887
 11
12.03
 21
2.807
  0
MTEXT
  5
443
100
AcDbEntity
  8
NOTES
100
AcDbMText
 62
7
  6
CONTINUOUS
  7
STANDARD
 71
2
 72
1
 10
16.155
 20
1.367
 30
0.0
 11
1.0
 21
0.0
 31
0.0
 44
0.9
  1
A
 40
0.1
 41
0.1
  0
MTEXT
  5
444
100
AcDbEntity
  8
NOTES
100
AcDbMText
 62
7
  6
CONTINUOUS
  7
STANDARD
 71
2
 72
1
 10
14.205
 20
1.967
 30
0.0
 11
1.0
 21
0.0
 31
0.0
 44
0.9
  1
WL50S L CABLE\PWEB CAD DRAWINGS 2D/3D
 40
0.1
 41
2.2
  0
LEADER
  5
445
100
AcDbEntity
  8
NOTES
100
AcDbLeader
 62
2
  6
CONTINUOUS
  3
STANDARD
 71
1
 72
0
 73
0
 75
0
 40
0.1
 41
0.3
 76
3
 10
6.1597999857
 20
4.4945101661
 30
0.0
 10
6.7079733397
 20
3.8921462766
 30
0.0
 10
6.9579733397
 20
3.8921462766
 30
0.0
340
446
1001
ACAD
1000
DSTYLE
1002
{
1070
77
1070
0
1002
}
  0
MTEXT
  5
446
102
{ACAD_REACTORS
330
445
102
}
100
AcDbEntity
  8
NOTES
100
AcDbMText
 62
2
  6
CONTINUOUS
  7
STANDARD
 71
1
 72
1
 10
6.9579733397
 20
3.9421462766
 30
0.0
 11
1.0
 21
0.0
 31
0.0
 44
0.9
  1
M30
 40
0.1
 41
0.3
  0
MTEXT
  5
447
100
AcDbEntity
  8
NOTES
100
AcDbMText
 62
2
  6
CONTINUOUS
  7
STANDARD
 71
2
 72
1
 10
13.4115462411
 20
4.6207578879
 30
0.0
 11
1.0
 21
0.0
 31
0.0
 44
0.9
  1
ISOMETRIC VIEW\P\H0.1;SCALE  1:1
 40
0.125
 41
1.75
  0
INSERT
  5
448
100
AcDbEntity
  8
SYMBOLS
100
AcDbBlockReference
 62
2
  6
CONTINUOUS
  2
CL_BL1
 10
5.6139020082
 20
2.0288053622
  0
INSERT
  5
449
100
AcDbEntity
  8
SYMBOLS
100
AcDbBlockReference
 62
2
  6
CONTINUOUS
  2
CL_BL2
 10
6.8341491493
 20
8.4449170705
  0
INSERT
  5
44A
100
AcDbEntity
  8
SYMBOLS
100
AcDbBlockReference
 62
2
  6
CONTINUOUS
  2
CL_BL3
 10
5.622009613
 20
7.218828485
  0
LINE
  5
44B
100
AcDbEntity
  8
0
100
AcDbLine
 62
2
  6
CONTINUOUS
 10
0.47
 20
5.586103
 11
0.47
 21
5.412897
  0
LINE
  5
44C
100
AcDbEntity
  8
0
100
AcDbLine
 62
2
  6
CONTINUOUS
 10
0.62
 20
10.112
 11
0.62
 21
0.887
  0
LINE
  5
44D
100
AcDbEntity
  8
0
100
AcDbLine
 62
2
  6
CONTINUOUS
 10
2.59
 20
0.887
 11
2.59
 21
0.637
  0
LINE
  5
44E
100
AcDbEntity
  8
0
100
AcDbLine
 62
2
  6
CONTINUOUS
 10
2.59
 20
10.112
 11
2.59
 21
10.362
  0
LINE
  5
44F
100
AcDbEntity
  8
0
100
AcDbLine
 62
2
  6
CONTINUOUS
 10
8.413397
 20
0.737
 11
8.586603
 21
0.737
  0
LINE
  5
450
100
AcDbEntity
  8
0
100
AcDbLine
 62
7
  6
CONTINUOUS
 10
11.1389508475
 20
1.425992839
 11
11.7453418475
 21
1.495385839
  0
LINE
  5
451
100
AcDbEntity
  8
0
100
AcDbLine
 62
2
  6
CONTINUOUS
 10
0.62
 20
0.887
 11
16.38
 21
0.887
  0
LINE
  5
452
100
AcDbEntity
  8
0
100
AcDbLine
 62
2
  6
CONTINUOUS
 10
12.03
 20
1.137
 11
16.38
 21
1.137
  0
LINE
  5
453
100
AcDbEntity
  8
0
100
AcDbLine
 62
7
  6
CONTINUOUS
 10
10.2121898475
 20
1.243294839
 11
10.4342808475
 21
1.243294839
  0
LINE
  5
454
100
AcDbEntity
  8
0
100
AcDbLine
 62
7
  6
CONTINUOUS
 10
10.4842808475
 20
1.243294839
 11
10.5842808475
 21
1.243294839
  0
LINE
  5
455
100
AcDbEntity
  8
0
100
AcDbLine
 62
7
  6
CONTINUOUS
 10
10.6342808475
 20
1.243294839
 11
10.8563718475
 21
1.243294839
  0
LINE
  5
456
100
AcDbEntity
  8
0
100
AcDbLine
 62
7
  6
CONTINUOUS
 10
11.0389508475
 20
1.243294839
 11
11.3171028475
 21
1.243294839
  0
LINE
  5
457
100
AcDbEntity
  8
0
100
AcDbLine
 62
7
  6
CONTINUOUS
 10
11.3671028475
 20
1.243294839
 11
11.5171888475
 21
1.243294839
  0
LINE
  5
458
100
AcDbEntity
  8
0
100
AcDbLine
 62
7
  6
CONTINUOUS
 10
11.5671888475
 20
1.243294839
 11
11.8453418475
 21
1.243294839
  0
LINE
  5
459
100
AcDbEntity
  8
0
100
AcDbLine
 62
7
  6
CONTINUOUS
 10
11.7453418475
 20
0.991203839
 11
11.1389508475
 21
1.060596839
  0
LINE
  5
45A
100
AcDbEntity
  8
0
100
AcDbLine
 62
2
  6
CONTINUOUS
 10
4.56
 20
0.887
 11
4.56
 21
0.637
  0
LINE
  5
45B
100
AcDbEntity
  8
0
100
AcDbLine
 62
2
  6
CONTINUOUS
 10
4.56
 20
10.112
 11
4.56
 21
10.362
  0
LINE
  5
45C
100
AcDbEntity
  8
0
100
AcDbLine
 62
2
  6
CONTINUOUS
 10
0.47
 20
5.412897
 11
0.62
 21
5.4995
  0
LINE
  5
45D
100
AcDbEntity
  8
0
100
AcDbLine
 62
2
  6
CONTINUOUS
 10
12.03
 20
1.507
 11
16.38
 21
1.507
  0
LINE
  5
45E
100
AcDbEntity
  8
0
100
AcDbLine
 62
2
  6
CONTINUOUS
 10
10.03
 20
1.907
 11
12.03
 21
1.907
  0
LINE
  5
45F
100
AcDbEntity
  8
0
100
AcDbLine
 62
2
  6
CONTINUOUS
 10
0.62
 20
5.4995
 11
0.47
 21
5.586103
  0
LINE
  5
460
100
AcDbEntity
  8
0
100
AcDbLine
 62
2
  6
CONTINUOUS
 10
12.03
 20
2.267
 11
16.38
 21
2.267
  0
LINE
  5
461
100
AcDbEntity
  8
0
100
AcDbLine
 62
2
  6
CONTINUOUS
 10
8.5
 20
10.112
 11
8.586603
 21
10.262
  0
LINE
  5
462
100
AcDbEntity
  8
0
100
AcDbLine
 62
2
  6
CONTINUOUS
 10
16.38
 20
2.807
 11
10.03
 21
2.807
  0
LINE
  5
463
100
AcDbEntity
  8
0
100
AcDbLine
 62
2
  6
CONTINUOUS
 10
0.62
 20
3.1995
 11
0.37
 21
3.1995
  0
LINE
  5
464
100
AcDbEntity
  8
0
100
AcDbLine
 62
2
  6
CONTINUOUS
 10
16.38
 20
3.1995
 11
16.63
 21
3.1995
  0
LINE
  5
465
100
AcDbEntity
  8
0
100
AcDbLine
 62
2
  6
CONTINUOUS
 10
8.586603
 20
0.737
 11
8.5
 21
0.887
  0
LINE
  5
466
100
AcDbEntity
  8
0
100
AcDbLine
 62
2
  6
CONTINUOUS
 10
6.53
 20
0.887
 11
6.53
 21
0.637
  0
LINE
  5
467
100
AcDbEntity
  8
0
100
AcDbLine
 62
2
  6
CONTINUOUS
 10
6.53
 20
10.112
 11
6.53
 21
10.362
  0
LINE
  5
468
100
AcDbEntity
  8
0
100
AcDbLine
 62
2
  6
CONTINUOUS
 10
8.5
 20
0.887
 11
8.5
 21
0.637
  0
LINE
  5
469
100
AcDbEntity
  8
0
100
AcDbLine
 62
2
  6
CONTINUOUS
 10
8.5
 20
10.112
 11
8.5
 21
10.362
  0
LINE
  5
46A
100
AcDbEntity
  8
0
100
AcDbLine
 62
2
  6
CONTINUOUS
 10
0.62
 20
5.4995
 11
0.37
 21
5.4995
  0
LINE
  5
46B
100
AcDbEntity
  8
0
100
AcDbLine
 62
2
  6
CONTINUOUS
 10
16.38
 20
5.4995
 11
16.63
 21
5.4995
  0
LINE
  5
46C
100
AcDbEntity
  8
0
100
AcDbLine
 62
2
  6
CONTINUOUS
 10
10.03
 20
2.807
 11
10.03
 21
0.887
  0
LINE
  5
46D
100
AcDbEntity
  8
0
100
AcDbLine
 62
2
  6
CONTINUOUS
 10
10.47
 20
0.887
 11
10.47
 21
0.637
  0
LINE
  5
46E
100
AcDbEntity
  8
0
100
AcDbLine
 62
2
  6
CONTINUOUS
 10
10.47
 20
10.112
 11
10.47
 21
10.362
  0
LINE
  5
46F
100
AcDbEntity
  8
0
100
AcDbLine
 62
7
  6
CONTINUOUS
 10
10.5342808475
 20
1.143294839
 11
10.5342808475
 21
0.921203839
  0
LINE
  5
470
100
AcDbEntity
  8
0
100
AcDbLine
 62
7
  6
CONTINUOUS
 10
10.5342808475
 20
1.193294839
 11
10.5342808475
 21
1.293294839
  0
LINE
  5
471
100
AcDbEntity
  8
0
100
AcDbLine
 62
7
  6
CONTINUOUS
 10
10.5342808475
 20
1.343294839
 11
10.5342808475
 21
1.565385839
  0
LINE
  5
472
100
AcDbEntity
  8
0
100
AcDbLine
 62
2
  6
CONTINUOUS
 10
8.5
 20
0.887
 11
8.413397
 21
0.737
  0
LINE
  5
473
100
AcDbEntity
  8
0
100
AcDbLine
 62
2
  6
CONTINUOUS
 10
0.62
 20
7.7995
 11
0.37
 21
7.7995
  0
LINE
  5
474
100
AcDbEntity
  8
0
100
AcDbLine
 62
2
  6
CONTINUOUS
 10
16.38
 20
7.7995
 11
16.63
 21
7.7995
  0
LINE
  5
475
100
AcDbEntity
  8
0
100
AcDbLine
 62
2
  6
CONTINUOUS
 10
8.413397
 20
10.262
 11
8.5
 21
10.112
  0
LINE
  5
476
100
AcDbEntity
  8
0
100
AcDbLine
 62
7
  6
CONTINUOUS
 10
11.1389508475
 20
1.060596839
 11
11.1389508475
 21
1.425992839
  0
LINE
  5
477
100
AcDbEntity
  8
0
100
AcDbLine
 62
7
  6
CONTINUOUS
 10
11.7453418475
 20
1.495385839
 11
11.7453418475
 21
0.991203839
  0
LINE
  5
478
100
AcDbEntity
  8
0
100
AcDbLine
 62
1
  6
CONTINUOUS
 10
12.03
 20
2.807
 11
12.03
 21
0.887
  0
LINE
  5
479
100
AcDbEntity
  8
0
100
AcDbLine
 62
2
  6
CONTINUOUS
 10
12.44
 20
0.887
 11
12.44
 21
0.637
  0
LINE
  5
47A
100
AcDbEntity
  8
0
100
AcDbLine
 62
2
  6
CONTINUOUS
 10
12.44
 20
10.112
 11
12.44
 21
10.362
  0
LINE
  5
47B
100
AcDbEntity
  8
0
100
AcDbLine
 62
2
  6
CONTINUOUS
 10
16.53
 20
5.586103
 11
16.38
 21
5.4995
  0
LINE
  5
47C
100
AcDbEntity
  8
0
100
AcDbLine
 62
2
  6
CONTINUOUS
 10
16.38
 20
5.4995
 11
16.53
 21
5.412897
  0
LINE
  5
47D
100
AcDbEntity
  8
0
100
AcDbLine
 62
2
  6
CONTINUOUS
 10
12.83
 20
1.507
 11
12.83
 21
1.137
  0
LINE
  5
47E
100
AcDbEntity
  8
0
100
AcDbLine
 62
2
  6
CONTINUOUS
 10
16.38
 20
10.112
 11
0.62
 21
10.112
  0
LINE
  5
47F
100
AcDbEntity
  8
0
100
AcDbLine
 62
2
  6
CONTINUOUS
 10
8.586603
 20
10.262
 11
8.413397
 21
10.262
  0
LINE
  5
480
100
AcDbEntity
  8
0
100
AcDbLine
 62
2
  6
CONTINUOUS
 10
14.205
 20
1.137
 11
14.205
 21
0.887
  0
LINE
  5
481
100
AcDbEntity
  8
0
100
AcDbLine
 62
2
  6
CONTINUOUS
 10
14.41
 20
0.887
 11
14.41
 21
0.637
  0
LINE
  5
482
100
AcDbEntity
  8
0
100
AcDbLine
 62
2
  6
CONTINUOUS
 10
14.41
 20
10.112
 11
14.41
 21
10.362
  0
LINE
  5
483
100
AcDbEntity
  8
0
100
AcDbLine
 62
2
  6
CONTINUOUS
 10
15.58
 20
1.507
 11
15.58
 21
1.137
  0
LINE
  5
484
100
AcDbEntity
  8
0
100
AcDbLine
 62
2
  6
CONTINUOUS
 10
16.38
 20
0.887
 11
16.38
 21
10.112
  0
LINE
  5
485
100
AcDbEntity
  8
0
100
AcDbLine
 62
2
  6
CONTINUOUS
 10
16.53
 20
5.412897
 11
16.53
 21
5.586103
  0
LINE
  5
486
100
AcDbEntity
  8
02___PRT_ALL_AXES
100
AcDbLine
 62
7
  6
CONTINUOUS
 10
5.4907149322
 20
2.32602235
 11
5.7057149322
 21
2.32602235
  0
LWPOLYLINE
  5
487
100
AcDbEntity
  8
0
100
AcDbPolyline
 62
7
  6
CONTINUOUS
 90
10
 70
0
 10
4.6135895188
 20
5.1724790429
 10
4.6140755692
 20
5.1642161868
 10
4.6155337202
 20
5.1569254315
 10
4.617963972
 20
5.1506067769
 10
4.6213663245
 20
5.145260223
 10
4.6257407777
 20
5.1408857698
 10
4.6310873316
 20
5.1374834173
 10
4.6374059862
 20
5.1350531656
 10
4.6446967415
 20
5.1335950145
 10
4.6529595976
 20
5.1331089641
  0
LINE
  5
488
100
AcDbEntity
  8
02___PRT_ALL_AXES
100
AcDbLine
 62
7
  6
CONTINUOUS
 10
4.6135895188
 20
5.605549909
 11
4.6135895188
 21
5.1724790429
  0
LINE
  5
489
100
AcDbEntity
  8
AXIS
100
AcDbLine
 62
7
  6
CONTINUOUS
 10
4.6135895188
 20
5.605549909
 11
4.6176362984
 21
6.0692649185
  0
LWPOLYLINE
  5
48A
100
AcDbEntity
  8
0
100
AcDbPolyline
 62
7
  6
CONTINUOUS
 90
16
 70
0
 10
5.0112273141
 20
5.0108497217
 10
5.0113353839
 20
5.0110301378
 10
5.0156129218
 20
5.0119997333
 10
5.02608108
 20
5.0129693288
 10
5.0426285545
 20
5.0139389243
 10
5.0650794022
 20
5.0149085199
 10
5.0931949114
 20
5.0158781154
 10
5.1266761405
 20
5.0168477109
 10
5.1651670959
 20
5.0178173064
 10
5.2082585175
 20
5.0187869019
 10
5.2554922304
 20
5.0197564974
 10
5.3063660159
 20
5.0207260929
 10
5.360338952
 20
5.0216956884
 10
5.4168371644
 20
5.0226652839
 10
5.4752599286
 20
5.0236348795
 10
5.534986057
 20
5.024604475
  0
LINE
  5
48B
100
AcDbEntity
  8
0
100
AcDbLine
 62
7
  6
CONTINUOUS
 10
5.0112273141
 20
5.0182316115
 11
5.0114530722
 21
5.0184923781
  0
LINE
  5
48C
100
AcDbEntity
  8
0
100
AcDbLine
 62
7
  6
CONTINUOUS
 10
5.0112273141
 20
4.9591764934
 11
5.0114530722
 21
4.9594372599
  0
LWPOLYLINE
  5
48D
100
AcDbEntity
  8
0
100
AcDbPolyline
 62
7
  6
CONTINUOUS
 90
5
 70
0
 10
5.0112273141
 20
5.0699048398
 10
5.0114704619
 20
5.070175464
 10
5.0163268916
 20
5.0711450595
 10
5.0273663503
 20
5.072114655
 10
5.0444714595
 20
5.0730842505
  0
LINE
  5
48E
100
AcDbEntity
  8
0
100
AcDbLine
 62
7
  6
CONTINUOUS
 10
5.0469006376
 20
5.0389664252
 11
5.0114530722
 21
5.0184923781
  0
LINE
  5
48F
100
AcDbEntity
  8
0
100
AcDbLine
 62
7
  6
CONTINUOUS
 10
5.0469006376
 20
4.9799113071
 11
5.0114530722
 21
4.9594372599
  0
LINE
  5
490
100
AcDbEntity
  8
0
100
AcDbLine
 62
7
  6
CONTINUOUS
 10
5.0114530722
 20
5.0184923781
 11
5.0118581219
 21
5.0186675285
  0
LWPOLYLINE
  5
491
100
AcDbEntity
  8
0
100
AcDbPolyline
 62
7
  6
CONTINUOUS
 90
15
 70
0
 10
5.046660385
 20
5.0494475469
 10
5.0496374535
 20
5.0504248641
 10
5.058618807
 20
5.0514089677
 10
5.0734959965
 20
5.0523925059
 10
5.0941510062
 20
5.0533777788
 10
5.120268319
 20
5.0543607407
 10
5.1516371293
 20
5.0553446553
 10
5.1878502542
 20
5.0563275228
 10
5.2286173877
 20
5.0573121055
 10
5.2733549868
 20
5.0582950524
 10
5.3217180987
 20
5.0592795714
 10
5.3730237181
 20
5.0602625141
 10
5.4268149608
 20
5.0612459774
 10
5.4828023855
 20
5.0622351144
 10
5.540130075
 20
5.063225406
  0
LWPOLYLINE
  5
492
100
AcDbEntity
  8
0
100
AcDbPolyline
 62
7
  6
CONTINUOUS
 90
17
 70
0
 10
5.0112273141
 20
4.7746292493
 10
5.0113192667
 20
4.7747956687
 10
5.0155457652
 20
4.775770411
 10
5.0260294429
 20
4.7767451533
 10
5.042657645
 20
4.7777198955
 10
5.0652516899
 20
4.7786946378
 10
5.0935687886
 20
4.7796693801
 10
5.1273046538
 20
4.7806441224
 10
5.1660967698
 20
4.7816188647
 10
5.2095282879
 20
4.782593607
 10
5.2571325058
 20
4.7835683493
 10
5.3083978825
 20
4.7845430916
 10
5.3627735352
 20
4.7855178338
 10
5.4196751593
 20
4.7864925761
 10
5.4784913064
 20
4.7874673184
 10
5.5385899556
 20
4.7884420607
 10
5.6600447085
 20
4.7903915453
  0
LINE
  5
493
100
AcDbEntity
  8
0
100
AcDbLine
 62
7
  6
CONTINUOUS
 10
5.0112273141
 20
4.9001213752
 11
5.0114530722
 21
4.9003821418
  0
LINE
  5
494
100
AcDbEntity
  8
0
100
AcDbLine
 62
7
  6
CONTINUOUS
 10
5.0112273141
 20
4.8410662571
 11
5.0114530722
 21
4.8413270237
  0
LINE
  5
495
100
AcDbEntity
  8
0
100
AcDbLine
 62
7
  6
CONTINUOUS
 10
5.0112273141
 20
4.782011139
 11
5.0114530722
 21
4.7822719056
  0
LINE
  5
496
100
AcDbEntity
  8
0
100
AcDbLine
 62
7
  6
CONTINUOUS
 10
5.0112273141
 20
4.7229560209
 11
5.0114530722
 21
4.7232167875
  0
LINE
  5
497
100
AcDbEntity
  8
0
100
AcDbLine
 62
7
  6
CONTINUOUS
 10
5.0469006376
 20
4.920856189
 11
5.0114530722
 21
4.9003821418
  0
LINE
  5
498
100
AcDbEntity
  8
0
100
AcDbLine
 62
7
  6
CONTINUOUS
 10
5.0469006376
 20
4.8618010709
 11
5.0114530722
 21
4.8413270237
  0
LINE
  5
499
100
AcDbEntity
  8
0
100
AcDbLine
 62
7
  6
CONTINUOUS
 10
5.0469006376
 20
4.8027459527
 11
5.0114530722
 21
4.7822719056
  0
LWPOLYLINE
  5
49A
100
AcDbEntity
  8
0
100
AcDbPolyline
 62
7
  6
CONTINUOUS
 90
32
 70
0
 10
5.0112273141
 20
4.8336843674
 10
5.0123079222
 20
4.8342549482
 10
5.0191382392
 20
4.8352296905
 10
5.0321871315
 20
4.8362044328
 10
5.0513143797
 20
4.8371791751
 10
5.0763144479
 20
4.8381539174
 10
5.1069186927
 20
4.8391286597
 10
5.1427982499
 20
4.8401034019
 10
5.1835675682
 20
4.8410781442
 10
5.2287885526
 20
4.8420528865
 10
5.2779752716
 20
4.8430276288
 10
5.3305991791
 20
4.8440023711
 10
5.3860947941
 20
4.8449771134
 10
5.443865777
 20
4.8459518557
 10
5.5032913377
 20
4.846926598
 10
5.5637329066
 20
4.8479013403
 10
5.6245409963
 20
4.8488760825
 10
5.6850621808
 20
4.8498508248
 10
5.7446461174
 20
4.8508255671
 10
5.8026525345
 20
4.8518003094
 10
5.8584581122
 20
4.8527750517
 10
5.91146318
 20
4.853749794
 10
5.9610981611
 20
4.8547245363
 10
6.0068296925
 20
4.8556992786
 10
6.0481663566
 20
4.8566740208
 10
6.0846639618
 20
4.8576487631
 10
6.1159303154
 20
4.8586235054
 10
6.1416294384
 20
4.8595982477
 10
6.1614851755
 20
4.86057299
 10
6.1752841629
 20
4.8615477323
 10
6.1828781206
 20
4.8625224746
 10
6.1842299025
 20
4.8629511598
  0
LINE
  5
49B
100
AcDbEntity
  8
0
100
AcDbLine
 62
7
  6
CONTINUOUS
 10
5.0114530722
 20
4.8413270237
 11
5.0123079222
 21
4.841636838
  0
LWPOLYLINE
  5
49C
100
AcDbEntity
  8
0
100
AcDbPolyline
 62
7
  6
CONTINUOUS
 90
15
 70
0
 10
5.046660385
 20
4.9903924289
 10
5.0496207777
 20
4.9913670025
 10
5.0585835543
 20
4.9923509459
 10
5.0734136377
 20
4.993332828
 10
5.0940380877
 20
4.9943179163
 10
5.1203084031
 20
4.9953069915
 10
5.1518126104
 20
4.9962946325
 10
5.1880804803
 20
4.9972782766
 10
5.2290230595
 20
4.9982663003
 10
5.2740751277
 20
4.999255117
 10
5.3224769795
 20
5.0002393986
 10
5.3737753277
 20
5.0012214288
 10
5.4276372575
 20
5.0022056056
 10
5.483304889
 20
5.0031887572
 10
5.5402688084
 20
5.0041726667
  0
LWPOLYLINE
  5
49D
100
AcDbEntity
  8
0
100
AcDbPolyline
 62
7
  6
CONTINUOUS
 90
15
 70
0
 10
5.046660385
 20
4.8722821925
 10
5.0496707358
 20
4.8732649626
 10
5.0586743573
 20
4.8742481804
 10
5.0735557923
 20
4.8752304579
 10
5.0941856075
 20
4.8762138772
 10
5.1202841091
 20
4.8771959256
 10
5.1516436261
 20
4.8781794897
 10
5.1878010472
 20
4.8791609129
 10
5.228646585
 20
4.8801474217
 10
5.2737561308
 20
4.8811381576
 10
5.3224016025
 20
4.8821276786
 10
5.3737731651
 20
4.8831111522
 10
5.4276776319
 20
4.8840960932
 10
5.4835040196
 20
4.8850819922
 10
5.5403755066
 20
4.8860642599
  0
LWPOLYLINE
  5
49E
100
AcDbEntity
  8
0
100
AcDbPolyline
 62
7
  6
CONTINUOUS
 90
15
 70
0
 10
5.046660385
 20
4.931337317
 10
5.0497495734
 20
4.9323328782
 10
5.0588229147
 20
4.9333154611
 10
5.0737899012
 20
4.9342984864
 10
5.0945093655
 20
4.9352825641
 10
5.1207040348
 20
4.9362653661
 10
5.152160957
 20
4.9372496177
 10
5.1884343074
 20
4.9382321749
 10
5.2292208185
 20
4.9392157191
 10
5.2740091244
 20
4.9401986081
 10
5.322448584
 20
4.9411837216
 10
5.3737964733
 20
4.9421667054
 10
5.427654436
 20
4.9431507955
 10
5.4833166242
 20
4.9441338437
 10
5.5402747873
 20
4.9451176511
  0
LWPOLYLINE
  5
49F
100
AcDbEntity
  8
0
100
AcDbPolyline
 62
7
  6
CONTINUOUS
 90
16
 70
0
 10
5.0112273141
 20
4.8927394855
 10
5.0143459395
 20
4.893709081
 10
5.0236686567
 20
4.8946786765
 10
5.0390963405
 20
4.895648272
 10
5.0604649542
 20
4.8966178675
 10
5.0875472931
 20
4.897587463
 10
5.120055401
 20
4.8985570585
 10
5.157643631
 20
4.8995266541
 10
5.1999123216
 20
4.9004962496
 10
5.2464120453
 20
4.9014658451
 10
5.2966483879
 20
4.9024354406
 10
5.350087205
 20
4.9034050361
 10
5.4061603014
 20
4.9043746316
 10
5.4642714728
 20
4.9053442271
 10
5.5238028447
 20
4.9063138226
 10
5.6445859193
 20
4.9082530137
  0
LINE
  5
4A0
100
AcDbEntity
  8
0
100
AcDbLine
 62
7
  6
CONTINUOUS
 10
5.0112273141
 20
5.074053846
 11
5.0112273141
 21
5.0699048398
  0
LINE
  5
4A1
100
AcDbEntity
  8
0
100
AcDbLine
 62
7
  6
CONTINUOUS
 10
5.0112273141
 20
5.0182316115
 11
5.0112273141
 21
5.0108497217
  0
LINE
  5
4A2
100
AcDbEntity
  8
0
100
AcDbLine
 62
7
  6
CONTINUOUS
 10
5.0112273141
 20
4.9591764934
 11
5.0112273141
 21
4.9517946036
  0
LINE
  5
4A3
100
AcDbEntity
  8
0
100
AcDbLine
 62
7
  6
CONTINUOUS
 10
5.0112273141
 20
4.9001213752
 11
5.0112273141
 21
4.8927394855
  0
LINE
  5
4A4
100
AcDbEntity
  8
0
100
AcDbLine
 62
7
  6
CONTINUOUS
 10
5.0112273141
 20
4.8410662571
 11
5.0112273141
 21
4.8336843674
  0
LINE
  5
4A5
100
AcDbEntity
  8
0
100
AcDbLine
 62
7
  6
CONTINUOUS
 10
5.0112273141
 20
4.782011139
 11
5.0112273141
 21
4.7746292493
  0
LINE
  5
4A6
100
AcDbEntity
  8
0
100
AcDbLine
 62
7
  6
CONTINUOUS
 10
5.0112273141
 20
4.7229560209
 11
5.0112273141
 21
4.7155741312
  0
LINE
  5
4A7
100
AcDbEntity
  8
0
100
AcDbLine
 62
7
  6
CONTINUOUS
 10
5.0112273141
 20
4.6639009028
 11
5.0112273141
 21
4.656519013
  0
LINE
  5
4A8
100
AcDbEntity
  8
0
100
AcDbLine
 62
7
  6
CONTINUOUS
 10
5.0112273141
 20
4.6048457847
 11
5.0112273141
 21
4.5974638949
  0
LINE
  5
4A9
100
AcDbEntity
  8
0
100
AcDbLine
 62
7
  6
CONTINUOUS
 10
5.0112273141
 20
4.5457906666
 11
5.0112273141
 21
4.5384087768
  0
LINE
  5
4AA
100
AcDbEntity
  8
0
100
AcDbLine
 62
7
  6
CONTINUOUS
 10
5.0112273141
 20
4.4867355485
 11
5.0112273141
 21
4.4793536587
  0
LINE
  5
4AB
100
AcDbEntity
  8
0
100
AcDbLine
 62
7
  6
CONTINUOUS
 10
5.0112273141
 20
4.4276804304
 11
5.0112273141
 21
4.4202985406
  0
LINE
  5
4AC
100
AcDbEntity
  8
0
100
AcDbLine
 62
7
  6
CONTINUOUS
 10
5.0112273141
 20
4.3686253123
 11
5.0112273141
 21
4.3612434225
  0
LINE
  5
4AD
100
AcDbEntity
  8
0
100
AcDbLine
 62
7
  6
CONTINUOUS
 10
5.0112273141
 20
4.3095701941
 11
5.0112273141
 21
4.3021883044
  0
LINE
  5
4AE
100
AcDbEntity
  8
0
100
AcDbLine
 62
7
  6
CONTINUOUS
 10
5.0112273141
 20
4.6639009028
 11
5.0114530722
 21
4.6641616694
  0
LINE
  5
4AF
100
AcDbEntity
  8
0
100
AcDbLine
 62
7
  6
CONTINUOUS
 10
5.0112273141
 20
4.6048457847
 11
5.0114530722
 21
4.6051065513
  0
LINE
  5
4B0
100
AcDbEntity
  8
0
100
AcDbLine
 62
7
  6
CONTINUOUS
 10
5.0112273141
 20
4.5457906666
 11
5.0114530722
 21
4.5460514332
  0
LINE
  5
4B1
100
AcDbEntity
  8
0
100
AcDbLine
 62
7
  6
CONTINUOUS
 10
5.0112273141
 20
4.4867355485
 11
5.0114530722
 21
4.4869963151
  0
LWPOLYLINE
  5
4B2
100
AcDbEntity
  8
0
100
AcDbPolyline
 62
7
  6
CONTINUOUS
 90
17
 70
0
 10
5.0112273141
 20
4.656519013
 10
5.0115950955
 20
4.6568518519
 10
5.0168949757
 20
4.6578265942
 10
5.0284375367
 20
4.6588013364
 10
5.0460987456
 20
4.6597760787
 10
5.0696888202
 20
4.660750821
 10
5.0989542684
 20
4.6617255633
 10
5.1335806124
 20
4.6627003056
 10
5.1731957676
 20
4.6636750479
 10
5.2173740411
 20
4.6646497902
 10
5.2656407063
 20
4.6656245325
 10
5.3174771036
 20
4.6665992747
 10
5.3723262144
 20
4.667574017
 10
5.4295986461
 20
4.6685487593
 10
5.4886789661
 20
4.6695235016
 10
5.5489323145
 20
4.6704982439
 10
5.6703625898
 20
4.6724477285
  0
LINE
  5
4B3
100
AcDbEntity
  8
0
100
AcDbLine
 62
7
  6
CONTINUOUS
 10
5.0469006376
 20
4.7436908346
 11
5.0114530722
 21
4.7232167875
  0
LINE
  5
4B4
100
AcDbEntity
  8
0
100
AcDbLine
 62
7
  6
CONTINUOUS
 10
5.0469006376
 20
4.6846357165
 11
5.0114530722
 21
4.6641616694
  0
LINE
  5
4B5
100
AcDbEntity
  8
0
100
AcDbLine
 62
7
  6
CONTINUOUS
 10
5.0469006376
 20
4.6255805984
 11
5.0114530722
 21
4.6051065513
  0
LWPOLYLINE
  5
4B6
100
AcDbEntity
  8
0
100
AcDbPolyline
 62
7
  6
CONTINUOUS
 90
31
 70
0
 10
5.0112273141
 20
4.7155741312
 10
5.0130298335
 20
4.7163111314
 10
5.0209289143
 20
4.7172858737
 10
5.0350273284
 20
4.718260616
 10
5.0551735784
 20
4.7192353583
 10
5.0811511786
 20
4.7202101006
 10
5.1126809813
 20
4.7211848429
 10
5.1494241765
 20
4.7221595851
 10
5.1909859326
 20
4.7231343274
 10
5.2369196392
 20
4.7241090697
 10
5.2867317061
 20
4.725083812
 10
5.3398868675
 20
4.7260585543
 10
5.3958139336
 20
4.7270332966
 10
5.4539119285
 20
4.7280080389
 10
5.5135565483
 20
4.7289827812
 10
5.5741068693
 20
4.7299575234
 10
5.6349122355
 20
4.7309322657
 10
5.6953192504
 20
4.731907008
 10
5.7546787978
 20
4.7328817503
 10
5.8123530174
 20
4.7338564926
 10
5.8677221591
 20
4.7348312349
 10
5.9201912422
 20
4.7358059772
 10
5.9691964494
 20
4.7367807195
 10
6.014211185
 20
4.7377554617
 10
6.054751734
 20
4.738730204
 10
6.0903824596
 20
4.7397049463
 10
6.1207204842
 20
4.7406796886
 10
6.1454398045
 20
4.7416544309
 10
6.1642747939
 20
4.7426291732
 10
6.1770230571
 20
4.7436039155
 10
6.1835476051
 20
4.7445786578
  0
LWPOLYLINE
  5
4B7
100
AcDbEntity
  8
0
100
AcDbPolyline
 62
7
  6
CONTINUOUS
 90
13
 70
0
 10
5.046660385
 20
4.8132270676
 10
5.0496699701
 20
4.8142097194
 10
5.0587118012
 20
4.8151961349
 10
5.0736453701
 20
4.8161802861
 10
5.0944128945
 20
4.8171682894
 10
5.1206983358
 20
4.8181549358
 10
5.1520873116
 20
4.8191372468
 10
5.1883442288
 20
4.8201196442
 10
5.2291543312
 20
4.8211039577
 10
5.273926521
 20
4.8220866311
 10
5.3223168122
 20
4.8230708911
 10
5.3736446667
 20
4.8240536357
 10
5.4274143
 20
4.8250362537
  0
LWPOLYLINE
  5
4B8
100
AcDbEntity
  8
0
100
AcDbPolyline
 62
7
  6
CONTINUOUS
 90
15
 70
0
 10
5.046660385
 20
4.695116838
 10
5.0497163704
 20
4.6961070361
 10
5.0587753486
 20
4.6970911024
 10
5.0737151087
 20
4.6980738953
 10
5.0944154489
 20
4.6990581601
 10
5.1205918567
 20
4.7000410713
 10
5.1520310589
 20
4.7010253795
 10
5.1883095911
 20
4.7020085255
 10
5.2291972396
 20
4.7029947058
 10
5.2740842535
 20
4.7039797188
 10
5.3224121522
 20
4.7049625319
 10
5.3737402494
 20
4.7059451835
 10
5.427610153
 20
4.7069295291
 10
5.4832863394
 20
4.7079128433
 10
5.5402593577
 20
4.7088969141
  0
LWPOLYLINE
  5
4B9
100
AcDbEntity
  8
0
100
AcDbPolyline
 62
7
  6
CONTINUOUS
 90
15
 70
0
 10
5.046660385
 20
4.754171956
 10
5.0497304374
 20
4.7551644327
 10
5.0588011695
 20
4.756148331
 10
5.0737518288
 20
4.7571310362
 10
5.0944255338
 20
4.7581137006
 10
5.1206601067
 20
4.7590985153
 10
5.1521528028
 20
4.7600840271
 10
5.1884375995
 20
4.7610669044
 10
5.2292581548
 20
4.7620512211
 10
5.2740424504
 20
4.763033956
 10
5.3224426627
 20
4.7640182507
 10
5.3737749392
 20
4.7650009491
 10
5.4276373733
 20
4.7659851352
 10
5.4833049577
 20
4.7669682859
 10
5.5402688434
 20
4.7679521949
  0
LWPOLYLINE
  5
4BA
100
AcDbEntity
  8
0
100
AcDbPolyline
 62
7
  6
CONTINUOUS
 90
15
 70
0
 10
6.1490225897
 20
5.0682164636
 10
6.1457183491
 20
5.0671867924
 10
6.1364583
 20
5.0662057836
 10
6.1213358754
 20
5.0652247766
 10
6.1005156263
 20
5.0642437683
 10
6.074224231
 20
5.0632627616
 10
6.0427477505
 20
5.062281753
 10
6.006428915
 20
5.0613007466
 10
5.9656628595
 20
5.060319738
 10
5.9208934697
 20
5.0593387316
 10
5.8726078314
 20
5.058357723
 10
5.8213316851
 20
5.0573767163
 10
5.7676228764
 20
5.0563957067
 10
5.7120661287
 20
5.0554146971
 10
5.6552663284
 20
5.0544336907
  0
LWPOLYLINE
  5
4BB
100
AcDbEntity
  8
0
100
AcDbPolyline
 62
7
  6
CONTINUOUS
 90
32
 70
0
 10
5.0114530722
 20
4.7232167875
 10
5.0130298335
 20
4.7236930212
 10
5.0209289143
 20
4.7246677635
 10
5.0350273284
 20
4.7256425058
 10
5.0551735784
 20
4.726617248
 10
5.0811511786
 20
4.7275919903
 10
5.1126809813
 20
4.7285667326
 10
5.1494241765
 20
4.7295414749
 10
5.1909859326
 20
4.7305162172
 10
5.2369196392
 20
4.7314909595
 10
5.2867317061
 20
4.7324657018
 10
5.3398868675
 20
4.7334404441
 10
5.3958139336
 20
4.7344151863
 10
5.4539119285
 20
4.7353899286
 10
5.5135565483
 20
4.7363646709
 10
5.5741068693
 20
4.7373394132
 10
5.6349122355
 20
4.7383141555
 10
5.6953192504
 20
4.7392888978
 10
5.7546787978
 20
4.7402636401
 10
5.8123530174
 20
4.7412383824
 10
5.8677221591
 20
4.7422131246
 10
5.9201912422
 20
4.7431878669
 10
5.9691964494
 20
4.7441626092
 10
6.014211185
 20
4.7451373515
 10
6.054751734
 20
4.7461120938
 10
6.0903824596
 20
4.7470868361
 10
6.1207204842
 20
4.7480615784
 10
6.1454398045
 20
4.7490363207
 10
6.1642747939
 20
4.7500110629
 10
6.1770230571
 20
4.7509858052
 10
6.1835476051
 20
4.7519605475
 10
6.1844556606
 20
4.75248358
  0
LINE
  5
4BC
100
AcDbEntity
  8
0
100
AcDbLine
 62
7
  6
CONTINUOUS
 10
5.046660385
 20
5.0937388854
 11
5.0464674526
 21
5.0976317385
  0
LINE
  5
4BD
100
AcDbEntity
  8
02___PRT_ALL_AXES
100
AcDbLine
 62
7
  6
CONTINUOUS
 10
5.046660385
 20
5.0937388854
 11
5.046660385
 21
5.074053846
  0
LINE
  5
4BE
100
AcDbEntity
  8
02___PRT_ALL_AXES
100
AcDbLine
 62
7
  6
CONTINUOUS
 10
5.046660385
 20
5.0494475468
 11
5.046660385
 21
5.0389664252
  0
LINE
  5
4BF
100
AcDbEntity
  8
02___PRT_ALL_AXES
100
AcDbLine
 62
7
  6
CONTINUOUS
 10
5.046660385
 20
4.9903924287
 11
5.046660385
 21
4.9799113071
  0
LINE
  5
4C0
100
AcDbEntity
  8
02___PRT_ALL_AXES
100
AcDbLine
 62
7
  6
CONTINUOUS
 10
5.046660385
 20
4.9313373106
 11
5.046660385
 21
4.920856189
  0
LINE
  5
4C1
100
AcDbEntity
  8
02___PRT_ALL_AXES
100
AcDbLine
 62
7
  6
CONTINUOUS
 10
5.046660385
 20
4.8722821925
 11
5.046660385
 21
4.8618010709
  0
LINE
  5
4C2
100
AcDbEntity
  8
02___PRT_ALL_AXES
100
AcDbLine
 62
7
  6
CONTINUOUS
 10
5.046660385
 20
4.8132270744
 11
5.046660385
 21
4.8027459527
  0
LINE
  5
4C3
100
AcDbEntity
  8
02___PRT_ALL_AXES
100
AcDbLine
 62
7
  6
CONTINUOUS
 10
5.046660385
 20
4.7541719563
 11
5.046660385
 21
4.7436908346
  0
LINE
  5
4C4
100
AcDbEntity
  8
02___PRT_ALL_AXES
100
AcDbLine
 62
7
  6
CONTINUOUS
 10
5.046660385
 20
4.6951168381
 11
5.046660385
 21
4.6846357165
  0
LINE
  5
4C5
100
AcDbEntity
  8
02___PRT_ALL_AXES
100
AcDbLine
 62
7
  6
CONTINUOUS
 10
5.046660385
 20
4.63606172
 11
5.046660385
 21
4.6255805984
  0
LINE
  5
4C6
100
AcDbEntity
  8
02___PRT_ALL_AXES
100
AcDbLine
 62
7
  6
CONTINUOUS
 10
5.046660385
 20
4.5770066019
 11
5.046660385
 21
4.5665254803
  0
LINE
  5
4C7
100
AcDbEntity
  8
02___PRT_ALL_AXES
100
AcDbLine
 62
7
  6
CONTINUOUS
 10
5.046660385
 20
4.5179514838
 11
5.046660385
 21
4.5074703622
  0
LINE
  5
4C8
100
AcDbEntity
  8
02___PRT_ALL_AXES
100
AcDbLine
 62
7
  6
CONTINUOUS
 10
5.046660385
 20
4.4588963657
 11
5.046660385
 21
4.4484152441
  0
LINE
  5
4C9
100
AcDbEntity
  8
02___PRT_ALL_AXES
100
AcDbLine
 62
7
  6
CONTINUOUS
 10
5.046660385
 20
4.3998412476
 11
5.046660385
 21
4.3890826053
  0
LINE
  5
4CA
100
AcDbEntity
  8
02___PRT_ALL_AXES
100
AcDbLine
 62
7
  6
CONTINUOUS
 10
5.046660385
 20
4.3407861295
 11
5.046660385
 21
4.3303050079
  0
LINE
  5
4CB
100
AcDbEntity
  8
02___PRT_ALL_AXES
100
AcDbLine
 62
7
  6
CONTINUOUS
 10
5.046660385
 20
4.2817310114
 11
5.046660385
 21
4.2669672318
  0
LINE
  5
4CC
100
AcDbEntity
  8
0
100
AcDbLine
 62
7
  6
CONTINUOUS
 10
5.0112273141
 20
4.4276804304
 11
5.0114530722
 21
4.427941197
  0
LINE
  5
4CD
100
AcDbEntity
  8
0
100
AcDbLine
 62
7
  6
CONTINUOUS
 10
5.0112273141
 20
4.3686253123
 11
5.0114530722
 21
4.3688860788
  0
LINE
  5
4CE
100
AcDbEntity
  8
0
100
AcDbLine
 62
7
  6
CONTINUOUS
 10
5.0112273141
 20
4.3095701941
 11
5.0114530722
 21
4.3098309607
  0
LWPOLYLINE
  5
4CF
100
AcDbEntity
  8
0
100
AcDbPolyline
 62
7
  6
CONTINUOUS
 90
17
 70
0
 10
5.0112273141
 20
4.3612434225
 10
5.0114543719
 20
4.3615049387
 10
5.0162944153
 20
4.362479681
 10
5.0273835929
 20
4.3634544233
 10
5.0446027437
 20
4.3644291656
 10
5.0677668359
 20
4.3654039079
 10
5.0966269547
 20
4.3663786502
 10
5.130872978
 20
4.3673533924
 10
5.1701369079
 20
4.3683281347
 10
5.2139968258
 20
4.369302877
 10
5.2619814258
 20
4.3702776193
 10
5.3135750796
 20
4.3712523616
 10
5.3682233768
 20
4.3722271039
 10
5.4253390829
 20
4.3732018462
 10
5.4843084492
 20
4.3741765885
 10
5.5444978083
 20
4.3751513307
 10
5.6659432362
 20
4.3771008153
  0
LWPOLYLINE
  5
4D0
100
AcDbEntity
  8
0
100
AcDbPolyline
 62
7
  6
CONTINUOUS
 90
32
 70
0
 10
5.0112273141
 20
4.5384087768
 10
5.0120547142
 20
4.5389080351
 10
5.0184263145
 20
4.5398827774
 10
5.0310241403
 20
4.5408575196
 10
5.0497128191
 20
4.5418322619
 10
5.0742915278
 20
4.5428070042
 10
5.1044961508
 20
4.5437817465
 10
5.1400021181
 20
4.5447564888
 10
5.180427893
 20
4.5457312311
 10
5.2253390719
 20
4.5467059734
 10
5.2742530526
 20
4.5476807157
 10
5.3266442197
 20
4.5486554579
 10
5.3819495931
 20
4.5496302002
 10
5.4395748775
 20
4.5506049425
 10
5.4989008484
 20
4.5515796848
 10
5.5592900065
 20
4.5525544271
 10
5.6200934274
 20
4.5535291694
 10
5.6806577355
 20
4.5545039117
 10
5.7403321245
 20
4.555478654
 10
5.7984753509
 20
4.5564533962
 10
5.8544626247
 20
4.5574281385
 10
5.907692323
 20
4.5584028808
 10
5.957592455
 20
4.5593776231
 10
6.0036268087
 20
4.5603523654
 10
6.0453007123
 20
4.5613271077
 10
6.0821663503
 20
4.56230185
 10
6.1138275754
 20
4.5632765923
 10
6.1399441653
 20
4.5642513345
 10
6.1602354788
 20
4.5652260768
 10
6.1744834714
 20
4.5662008191
 10
6.1825350384
 20
4.5671755614
 10
6.1842299025
 20
4.5676755693
  0
LINE
  5
4D1
100
AcDbEntity
  8
0
100
AcDbLine
 62
7
  6
CONTINUOUS
 10
5.0469006376
 20
4.5665254803
 11
5.0114530722
 21
4.5460514332
  0
LINE
  5
4D2
100
AcDbEntity
  8
0
100
AcDbLine
 62
7
  6
CONTINUOUS
 10
5.0469006376
 20
4.5074703622
 11
5.0114530722
 21
4.4869963151
  0
LINE
  5
4D3
100
AcDbEntity
  8
0
100
AcDbLine
 62
7
  6
CONTINUOUS
 10
5.0469006376
 20
4.4484152441
 11
5.0114530722
 21
4.427941197
  0
LINE
  5
4D4
100
AcDbEntity
  8
0
100
AcDbLine
 62
7
  6
CONTINUOUS
 10
5.0114530722
 20
4.5460514332
 11
5.0120547142
 21
4.5462899248
  0
LWPOLYLINE
  5
4D5
100
AcDbEntity
  8
0
100
AcDbPolyline
 62
7
  6
CONTINUOUS
 90
16
 70
0
 10
5.0112273141
 20
4.5974638949
 10
5.0139350849
 20
4.5983673146
 10
5.0229004531
 20
4.5993420569
 10
5.0380439691
 20
4.6003167992
 10
5.0592029049
 20
4.6012915415
 10
5.0861498931
 20
4.6022662838
 10
5.118595369
 20
4.6032410261
 10
5.1561906831
 20
4.6042157683
 10
5.1985318473
 20
4.6051905106
 10
5.2451638758
 20
4.6061652529
 10
5.2955856744
 20
4.6071399952
 10
5.3492554254
 20
4.6081147375
 10
5.4055964092
 20
4.6090894798
 10
5.4640032024
 20
4.6100642221
 10
5.5238481824
 20
4.6110389644
 10
5.645271853
 20
4.6129884489
  0
LWPOLYLINE
  5
4D6
100
AcDbEntity
  8
0
100
AcDbPolyline
 62
7
  6
CONTINUOUS
 90
15
 70
0
 10
5.046660385
 20
4.5770065959
 10
5.049666441
 20
4.5779886701
 10
5.0586790743
 20
4.5789729772
 10
5.0735986573
 20
4.5799572353
 10
5.0944072849
 20
4.580947582
 10
5.1208257916
 20
4.5819388031
 10
5.1523854875
 20
4.5829254134
 10
5.1886574511
 20
4.5839071476
 10
5.2294731049
 20
4.5848907954
 10
5.2742417929
 20
4.5858728015
 10
5.322620709
 20
4.5868564009
 10
5.373932913
 20
4.587838543
 10
5.4277749462
 20
4.5888222473
 10
5.4834322802
 20
4.5898051512
 10
5.5403242201
 20
4.59078779
  0
LWPOLYLINE
  5
4D7
100
AcDbEntity
  8
0
100
AcDbPolyline
 62
7
  6
CONTINUOUS
 90
15
 70
0
 10
6.1490225897
 20
4.9501062273
 10
6.1460088324
 20
4.9491229008
 10
6.1370020339
 20
4.9481396988
 10
6.1221331508
 20
4.9471582918
 10
6.1014185066
 20
4.9461712334
 10
6.0750657082
 20
4.9451811281
 10
6.0435047402
 20
4.9441934194
 10
6.0072165499
 20
4.943210545
 10
5.9663025485
 20
4.9422241586
 10
5.9213421113
 20
4.941237941
 10
5.8730342904
 20
4.9402558777
 10
5.8217538464
 20
4.9392743568
 10
5.7679251855
 20
4.9382908896
 10
5.7122956662
 20
4.937308462
 10
5.6553721104
 20
4.9363252682
  0
LWPOLYLINE
  5
4D8
100
AcDbEntity
  8
0
100
AcDbPolyline
 62
7
  6
CONTINUOUS
 90
15
 70
0
 10
5.046660385
 20
4.6360617218
 10
5.0496806227
 20
4.6370461041
 10
5.058675384
 20
4.6380277923
 10
5.0735593447
 20
4.6390101817
 10
5.094191726
 20
4.6399936616
 10
5.1202950619
 20
4.6409758272
 10
5.1516593321
 20
4.6419594734
 10
5.1878290987
 20
4.6429411563
 10
5.2284659525
 20
4.6439228001
 10
5.2733046715
 20
4.6449081642
 10
5.3217695818
 20
4.6458947589
 10
5.3730806012
 20
4.6468777497
 10
5.4270625603
 20
4.6478645916
 10
5.4831229253
 20
4.6488548763
 10
5.5403421273
 20
4.6498432152
  0
LWPOLYLINE
  5
4D9
100
AcDbEntity
  8
0
100
AcDbPolyline
 62
7
  6
CONTINUOUS
 90
15
 70
0
 10
6.1490225897
 20
5.0091613336
 10
6.1459382953
 20
5.0081665675
 10
6.1368768692
 20
5.0071845674
 10
6.121916675
 20
5.0062014687
 10
6.1012029874
 20
5.0052173214
 10
6.0750130864
 20
5.0042344531
 10
6.0435597488
 20
5.0032501319
 10
6.0072945608
 20
5.0022676501
 10
5.9665523179
 20
5.0012850051
 10
5.9217019025
 20
5.0003006391
 10
5.8732052705
 20
4.9993143612
 10
5.8218400262
 20
4.9983310833
 10
5.7679878195
 20
4.9973471305
 10
5.7123365748
 20
4.9963642933
 10
5.6553733583
 20
4.9953804077
  0
LINE
  5
4DA
100
AcDbEntity
  8
0
100
AcDbLine
 62
7
  6
CONTINUOUS
 10
5.0469006376
 20
4.389360126
 11
5.0114530722
 21
4.3688860788
  0
LINE
  5
4DB
100
AcDbEntity
  8
0
100
AcDbLine
 62
7
  6
CONTINUOUS
 10
6.148782337
 20
5.019642467
 11
6.1842299025
 21
5.0401165142
  0
LINE
  5
4DC
100
AcDbEntity
  8
0
100
AcDbLine
 62
7
  6
CONTINUOUS
 10
5.0469006376
 20
4.3303050079
 11
5.0114530722
 21
4.3098309607
  0
LINE
  5
4DD
100
AcDbEntity
  8
0
100
AcDbLine
 62
7
  6
CONTINUOUS
 10
6.148782337
 20
4.9605873489
 11
6.1842299025
 21
4.9810613961
  0
LWPOLYLINE
  5
4DE
100
AcDbEntity
  8
0
100
AcDbPolyline
 62
7
  6
CONTINUOUS
 90
31
 70
0
 10
5.0112273141
 20
4.4202985406
 10
5.0126979786
 20
4.4209642183
 10
5.0201393015
 20
4.4219389605
 10
5.0337884426
 20
4.4229137028
 10
5.0534987323
 20
4.4238884451
 10
5.0790583697
 20
4.4248631874
 10
5.1101926982
 20
4.4258379297
 10
5.1465671576
 20
4.426812672
 10
5.1877908786
 20
4.4277874143
 10
5.2334208833
 20
4.4287621566
 10
5.2829668448
 20
4.4297368988
 10
5.3358963569
 20
4.4307116411
 10
5.3916406545
 20
4.4316863834
 10
5.4496007259
 20
4.4326611257
 10
5.5091537489
 20
4.433635868
 10
5.5696597844
 20
4.4346106103
 10
5.6304686523
 20
4.4355853526
 10
5.6909269181
 20
4.4365600949
 10
5.7503849152
 20
4.4375348372
 10
5.8082037254
 20
4.4385095794
 10
5.8637620447
 20
4.4394843217
 10
5.9164628597
 20
4.440459064
 10
5.9657398628
 20
4.4414338063
 10
6.0110635379
 20
4.4424085486
 10
6.05194685
 20
4.4433832909
 10
6.0879504791
 20
4.4443580332
 10
6.1186875406
 20
4.4453327755
 10
6.1438277433
 20
4.4463075177
 10
6.1631009377
 20
4.44728226
 10
6.1763000199
 20
4.4482570023
 10
6.1832831564
 20
4.4492317446
  0
LINE
  5
4DF
100
AcDbEntity
  8
0
100
AcDbLine
 62
7
  6
CONTINUOUS
 10
6.1838138771
 20
4.9218273508
 11
6.1842299025
 21
4.9220062779
  0
LWPOLYLINE
  5
4E0
100
AcDbEntity
  8
0
100
AcDbPolyline
 62
7
  6
CONTINUOUS
 90
15
 70
0
 10
6.1490225897
 20
4.7729408643
 10
6.1460574631
 20
4.7719655195
 10
6.1370977938
 20
4.7709822217
 10
6.1222453299
 20
4.7699991439
 10
6.101634966
 20
4.7690149683
 10
6.0755447441
 20
4.7680321242
 10
6.0441842969
 20
4.7670477872
 10
6.0080190533
 20
4.7660656524
 10
5.9672880079
 20
4.7650814239
 10
5.9222720057
 20
4.7640921865
 10
5.8736748339
 20
4.7631031347
 10
5.8222958616
 20
4.7621191198
 10
5.7683210721
 20
4.7611326332
 10
5.7123562451
 20
4.7601441637
 10
5.6553280413
 20
4.7591591583
  0
LWPOLYLINE
  5
4E1
100
AcDbEntity
  8
0
100
AcDbPolyline
 62
7
  6
CONTINUOUS
 90
15
 70
0
 10
5.046660385
 20
4.5179514839
 10
5.0496426137
 20
4.5189296485
 10
5.0586296852
 20
4.5199137999
 10
5.0735151744
 20
4.5208975037
 10
5.0941875835
 20
4.5218832515
 10
5.1203205035
 20
4.5228664598
 10
5.1516901189
 20
4.5238501313
 10
5.1879113145
 20
4.5248330176
 10
5.2286873961
 20
4.5258176503
 10
5.2734335433
 20
4.5268006465
 10
5.3218048181
 20
4.5277852169
 10
5.3731186564
 20
4.5287682242
 10
5.4268874085
 20
4.5297512139
 10
5.4828344506
 20
4.5307396105
 10
5.5401371459
 20
4.5317294643
  0
LWPOLYLINE
  5
4E2
100
AcDbEntity
  8
0
100
AcDbPolyline
 62
7
  6
CONTINUOUS
 90
11
 70
0
 10
5.046660385
 20
4.4588963656
 10
5.0496498915
 20
4.4598757243
 10
5.0586281031
 20
4.4608585516
 10
5.073463855
 20
4.4618395461
 10
5.0940490112
 20
4.4628223125
 10
5.120259847
 20
4.4638092702
 10
5.1517000321
 20
4.4647953011
 10
5.1879117919
 20
4.4657779116
 10
5.2288125124
 20
4.4667654049
 10
5.2738464517
 20
4.4677542348
 10
5.3222509361
 20
4.4687388854
  0
LWPOLYLINE
  5
4E3
100
AcDbEntity
  8
0
100
AcDbPolyline
 62
7
  6
CONTINUOUS
 90
15
 70
0
 10
6.1490225897
 20
4.8319960025
 10
6.1460289357
 20
4.8310159527
 10
6.1370084323
 20
4.8300299879
 10
6.1220869495
 20
4.8290455031
 10
6.1013078209
 20
4.8280563571
 10
6.0749740903
 20
4.8270677704
 10
6.043548748
 20
4.8260844587
 10
6.007285305
 20
4.82510206
 10
5.9664666195
 20
4.824117685
 10
5.9216861021
 20
4.8231349517
 10
5.8732876698
 20
4.822150629
 10
5.8219511684
 20
4.8211678033
 10
5.7681390474
 20
4.8201844875
 10
5.7124979629
 20
4.8192017524
 10
5.6554454211
 20
4.818216289
  0
LWPOLYLINE
  5
4E4
100
AcDbEntity
  8
0
100
AcDbPolyline
 62
7
  6
CONTINUOUS
 90
15
 70
0
 10
6.1490225897
 20
4.8910511092
 10
6.146016996
 20
4.8900691166
 10
6.1370183738
 20
4.8890859226
 10
6.1221422022
 20
4.888103674
 10
6.1015302024
 20
4.887120803
 10
6.075422797
 20
4.8861381934
 10
6.0440505942
 20
4.8851541386
 10
6.0078689568
 20
4.8841720578
 10
5.9671449974
 20
4.8831883745
 10
5.9224570948
 20
4.8822063274
 10
5.8741489043
 20
4.881222711
 10
5.8229046288
 20
4.8802407251
 10
5.7690017256
 20
4.8792550772
 10
5.7129084252
 20
4.878264027
 10
5.6555343798
 20
4.8772729324
  0
LWPOLYLINE
  5
4E5
100
AcDbEntity
  8
0
100
AcDbPolyline
 62
7
  6
CONTINUOUS
 90
32
 70
0
 10
5.0114530722
 20
4.427941197
 10
5.0126979786
 20
4.428346108
 10
5.0201393015
 20
4.4293208503
 10
5.0337884426
 20
4.4302955926
 10
5.0534987323
 20
4.4312703349
 10
5.0790583697
 20
4.4322450772
 10
5.1101926982
 20
4.4332198195
 10
5.1465671576
 20
4.4341945617
 10
5.1877908786
 20
4.435169304
 10
5.2334208833
 20
4.4361440463
 10
5.2829668448
 20
4.4371187886
 10
5.3358963569
 20
4.4380935309
 10
5.3916406545
 20
4.4390682732
 10
5.4496007259
 20
4.4400430155
 10
5.5091537489
 20
4.4410177578
 10
5.5696597844
 20
4.4419925001
 10
5.6304686523
 20
4.4429672423
 10
5.6909269181
 20
4.4439419846
 10
5.7503849152
 20
4.4449167269
 10
5.8082037254
 20
4.4458914692
 10
5.8637620447
 20
4.4468662115
 10
5.9164628597
 20
4.4478409538
 10
5.9657398628
 20
4.4488156961
 10
6.0110635379
 20
4.4497904384
 10
6.05194685
 20
4.4507651806
 10
6.0879504791
 20
4.4517399229
 10
6.1186875406
 20
4.4527146652
 10
6.1438277433
 20
4.4536894075
 10
6.1631009377
 20
4.4546641498
 10
6.1763000199
 20
4.4556388921
 10
6.1832831564
 20
4.4566136344
 10
6.1844556606
 20
4.4572079894
  0
LWPOLYLINE
  5
4E6
100
AcDbEntity
  8
0
100
AcDbPolyline
 62
7
  6
CONTINUOUS
 90
15
 70
0
 10
5.046660385
 20
4.3998412518
 10
5.0497542334
 20
4.4008375665
 10
5.0588428962
 20
4.4018210284
 10
5.0738178278
 20
4.4028039598
 10
5.0945437166
 20
4.4037879382
 10
5.1207434423
 20
4.4047706452
 10
5.1522038665
 20
4.4057547982
 10
5.1884826302
 20
4.4067373425
 10
5.2292951973
 20
4.4077213619
 10
5.2740740417
 20
4.408703913
 10
5.3224805556
 20
4.4096882879
 10
5.3738173167
 20
4.4106710314
 10
5.4276706592
 20
4.4116550233
 10
5.4833277246
 20
4.4126379742
 10
5.5402804427
 20
4.4136216851
  0
LINE
  5
4E7
100
AcDbEntity
  8
0
100
AcDbLine
 62
7
  6
CONTINUOUS
 10
5.0114530722
 20
4.3019275378
 11
5.046600291
 21
4.28162697
  0
LWPOLYLINE
  5
4E8
100
AcDbEntity
  8
0
100
AcDbPolyline
 62
7
  6
CONTINUOUS
 90
3
 70
0
 10
5.0114530722
 20
4.3019275378
 10
5.0112948716
 20
4.3020456592
 10
5.0112273141
 20
4.3021883044
  0
LINE
  5
4E9
100
AcDbEntity
  8
0
100
AcDbLine
 62
7
  6
CONTINUOUS
 10
5.0114530722
 20
4.3609826559
 11
5.0112273141
 21
4.3612434225
  0
LINE
  5
4EA
100
AcDbEntity
  8
0
100
AcDbLine
 62
7
  6
CONTINUOUS
 10
5.0114530722
 20
4.420037774
 11
5.0112273141
 21
4.4202985406
  0
LINE
  5
4EB
100
AcDbEntity
  8
0
100
AcDbLine
 62
7
  6
CONTINUOUS
 10
5.0114530722
 20
4.4790928921
 11
5.0112273141
 21
4.4793536587
  0
LINE
  5
4EC
100
AcDbEntity
  8
0
100
AcDbLine
 62
7
  6
CONTINUOUS
 10
5.0114530722
 20
4.5381480102
 11
5.0112273141
 21
4.5384087768
  0
LINE
  5
4ED
100
AcDbEntity
  8
0
100
AcDbLine
 62
7
  6
CONTINUOUS
 10
6.148782337
 20
4.9015322308
 11
6.1842299025
 21
4.9220062779
  0
LINE
  5
4EE
100
AcDbEntity
  8
0
100
AcDbLine
 62
7
  6
CONTINUOUS
 10
6.148782337
 20
4.8424771127
 11
6.1842299025
 21
4.8629511598
  0
LINE
  5
4EF
100
AcDbEntity
  8
0
100
AcDbLine
 62
7
  6
CONTINUOUS
 10
6.148782337
 20
4.7834219946
 11
6.1842299025
 21
4.8038960417
  0
LINE
  5
4F0
100
AcDbEntity
  8
0
100
AcDbLine
 62
7
  6
CONTINUOUS
 10
6.1835476051
 20
4.7445786578
 11
6.1842299025
 21
4.7448409236
  0
LWPOLYLINE
  5
4F1
100
AcDbEntity
  8
0
100
AcDbPolyline
 62
7
  6
CONTINUOUS
 90
16
 70
0
 10
5.0112273141
 20
4.3021883044
 10
5.0135246871
 20
4.3030204015
 10
5.0220333997
 20
4.3039951437
 10
5.0367295771
 20
4.304969886
 10
5.0574552985
 20
4.3059446283
 10
5.0839878515
 20
4.3069193706
 10
5.1160421249
 20
4.3078941129
 10
5.1532736729
 20
4.3088688552
 10
5.1952824163
 20
4.3098435975
 10
5.2416169414
 20
4.3108183398
 10
5.291779351
 20
4.311793082
 10
5.3452306146
 20
4.3127678243
 10
5.4013963605
 20
4.3137425666
 10
5.4596730481
 20
4.3147173089
 10
5.5194344533
 20
4.3156920512
 10
5.6408336484
 20
4.3176415358
  0
LWPOLYLINE
  5
4F2
100
AcDbEntity
  8
0
100
AcDbPolyline
 62
7
  6
CONTINUOUS
 90
15
 70
0
 10
6.1490225897
 20
4.5957755176
 10
6.1460377664
 20
4.5947969281
 10
6.1370484266
 20
4.5938128025
 10
6.1221555154
 20
4.5928288194
 10
6.1014612723
 20
4.591842319
 10
6.0753001014
 20
4.5908584136
 10
6.0439312414
 20
4.589875082
 10
6.0076992127
 20
4.588892137
 10
5.9669105312
 20
4.5879073994
 10
5.9221519665
 20
4.5869243003
 10
5.8737683912
 20
4.5859396232
 10
5.8224420564
 20
4.5849564952
 10
5.7686901061
 20
4.583973897
 10
5.7128021942
 20
4.5829865842
 10
5.6555360541
 20
4.5819973706
  0
LWPOLYLINE
  5
4F3
100
AcDbEntity
  8
0
100
AcDbPolyline
 62
7
  6
CONTINUOUS
 90
15
 70
0
 10
5.046660385
 20
4.2817310031
 10
5.0496648694
 20
4.2827128225
 10
5.0586994359
 20
4.2836990577
 10
5.073629535
 20
4.2846833493
 10
5.0944028526
 20
4.2856718058
 10
5.1207086923
 20
4.2866592255
 10
5.1521092236
 20
4.287641819
 10
5.1883692727
 20
4.2886242192
 10
5.2291832896
 20
4.289608559
 10
5.2739592971
 20
4.2905912588
 10
5.3223533052
 20
4.2915755466
 10
5.373685024
 20
4.292558326
 10
5.427471937
 20
4.2935412242
 10
5.4831325101
 20
4.2945243347
 10
5.5402241915
 20
4.2955104844
  0
LWPOLYLINE
  5
4F4
100
AcDbEntity
  8
0
100
AcDbPolyline
 62
7
  6
CONTINUOUS
 90
15
 70
0
 10
6.1490225897
 20
4.6548306368
 10
6.1460060898
 20
4.6538468625
 10
6.1369966482
 20
4.6528636661
 10
6.1221243947
 20
4.6518822173
 10
6.1015123334
 20
4.6508995803
 10
6.0752777343
 20
4.6499127683
 10
6.0438081391
 20
4.6489266271
 10
6.0075582831
 20
4.6479436617
 10
5.9666050344
 20
4.6469555059
 10
5.9215050336
 20
4.6459657823
 10
5.8730176223
 20
4.6449799591
 10
5.821752581
 20
4.6439987427
 10
5.7679244304
 20
4.6430152855
 10
5.7122951452
 20
4.6420328624
 10
5.655371845
 20
4.6410496731
  0
LWPOLYLINE
  5
4F5
100
AcDbEntity
  8
0
100
AcDbPolyline
 62
7
  6
CONTINUOUS
 90
15
 70
0
 10
5.046660385
 20
4.3407861313
 10
5.0496839318
 20
4.3417710532
 10
5.0586957683
 20
4.3427538749
 10
5.0735885756
 20
4.3437362061
 10
5.0942280962
 20
4.3447195975
 10
5.1203372956
 20
4.3457016787
 10
5.151706063
 20
4.34668524
 10
5.187865962
 20
4.3476665062
 10
5.2286464617
 20
4.3486513559
 10
5.2736995987
 20
4.3496409028
 10
5.3223077579
 20
4.350629768
 10
5.3736672612
 20
4.3516131125
 10
5.4275907364
 20
4.3525984723
 10
5.4834688592
 20
4.3535853164
 10
5.5403882928
 20
4.3545684162
  0
LWPOLYLINE
  5
4F6
100
AcDbEntity
  8
0
100
AcDbPolyline
 62
7
  6
CONTINUOUS
 90
15
 70
0
 10
6.1490225897
 20
4.7138857498
 10
6.1459044453
 20
4.7128855279
 10
6.1367875492
 20
4.7119016945
 10
6.1217942482
 20
4.7109191455
 10
6.1010532183
 20
4.709935467
 10
6.0748439615
 20
4.7089531037
 10
6.0433776225
 20
4.7079692641
 10
6.0070961847
 20
4.7069870079
 10
5.9662736941
 20
4.7060030246
 10
5.9214978807
 20
4.7050207497
 10
5.873116522
 20
4.7040370237
 10
5.8217959282
 20
4.7030546697
 10
5.767958152
 20
4.7020710081
 10
5.7123178168
 20
4.7010883757
 10
5.6553836003
 20
4.7001049928
  0
LINE
  5
4F7
100
AcDbEntity
  8
0
100
AcDbLine
 62
7
  6
CONTINUOUS
 10
5.0114530722
 20
4.3609826559
 11
5.046600291
 21
4.3406820881
  0
LINE
  5
4F8
100
AcDbEntity
  8
0
100
AcDbLine
 62
7
  6
CONTINUOUS
 10
5.0114530722
 20
4.420037774
 11
5.046600291
 21
4.3997372062
  0
LINE
  5
4F9
100
AcDbEntity
  8
0
100
AcDbLine
 62
7
  6
CONTINUOUS
 10
5.0114530722
 20
4.5972031283
 11
5.0112273141
 21
4.5974638949
  0
LINE
  5
4FA
100
AcDbEntity
  8
0
100
AcDbLine
 62
7
  6
CONTINUOUS
 10
5.0114530722
 20
4.6562582464
 11
5.0112273141
 21
4.656519013
  0
LINE
  5
4FB
100
AcDbEntity
  8
0
100
AcDbLine
 62
7
  6
CONTINUOUS
 10
5.0114530722
 20
4.7153133646
 11
5.0112273141
 21
4.7155741312
  0
LINE
  5
4FC
100
AcDbEntity
  8
02___PRT_ALL_AXES
100
AcDbLine
 62
7
  6
CONTINUOUS
 10
5.4907149322
 20
2.32602235
 11
5.4907149322
 21
4.2275971531
  0
LINE
  5
4FD
100
AcDbEntity
  8
02___PRT_ALL_AXES
100
AcDbLine
 62
7
  6
CENTER
 10
5.5978414873
 20
2.221435269
 11
5.5978414873
 21
6.3854911545
  0
LINE
  5
4FE
100
AcDbEntity
  8
0
100
AcDbLine
 62
7
  6
CONTINUOUS
 10
6.1842299025
 20
5.0401165142
 11
6.1844556606
 21
5.0403772808
  0
LINE
  5
4FF
100
AcDbEntity
  8
0
100
AcDbLine
 62
7
  6
CONTINUOUS
 10
6.1842299025
 20
4.9810613961
 11
6.1844556606
 21
4.9813221626
  0
LWPOLYLINE
  5
500
100
AcDbEntity
  8
0
100
AcDbPolyline
 62
7
  6
CONTINUOUS
 90
3
 70
0
 10
6.1842299025
 20
4.8038960417
 10
6.1844087454
 20
4.8040379373
 10
6.1844556606
 20
4.8041568083
  0
LINE
  5
501
100
AcDbEntity
  8
0
100
AcDbLine
 62
7
  6
CONTINUOUS
 10
6.148782337
 20
4.7243668765
 11
6.1842299025
 21
4.7448409236
  0
LINE
  5
502
100
AcDbEntity
  8
0
100
AcDbLine
 62
7
  6
CONTINUOUS
 10
6.148782337
 20
4.6653117584
 11
6.1842299025
 21
4.6857858055
  0
LINE
  5
503
100
AcDbEntity
  8
0
100
AcDbLine
 62
7
  6
CONTINUOUS
 10
6.148782337
 20
4.6062566403
 11
6.1842299025
 21
4.6267306874
  0
LWPOLYLINE
  5
504
100
AcDbEntity
  8
0
100
AcDbPolyline
 62
7
  6
CONTINUOUS
 90
15
 70
0
 10
6.1490225897
 20
4.4776652821
 10
6.1460062823
 20
4.4766815396
 10
6.137017624
 20
4.4757000343
 10
6.1221387757
 20
4.4747176578
 10
6.1015114098
 20
4.4737341872
 10
6.0754130323
 20
4.4727520331
 10
6.044053536
 20
4.4717683973
 10
6.0078867641
 20
4.4707866854
 10
5.9672538022
 20
4.4698050474
 10
5.9224466876
 20
4.4688202811
 10
5.874004081
 20
4.4678340303
 10
5.8227020228
 20
4.4668511138
 10
5.7687134419
 20
4.4658640793
 10
5.7126293481
 20
4.4648733344
 10
5.6553690359
 20
4.4638842706
  0
LWPOLYLINE
  5
505
100
AcDbEntity
  8
0
100
AcDbPolyline
 62
7
  6
CONTINUOUS
 90
15
 70
0
 10
6.1490225897
 20
4.5367204109
 10
6.1459509778
 20
4.5357276718
 10
6.1368689617
 20
4.5347429768
 10
6.121904663
 20
4.5337598626
 10
6.1011906634
 20
4.5327758607
 10
6.0749967754
 20
4.5317929526
 10
6.0435465311
 20
4.5308088039
 10
6.0072754006
 20
4.5298262171
 10
5.966455009
 20
4.5288418281
 10
5.9216728645
 20
4.5278590822
 10
5.8732728807
 20
4.5268747473
 10
5.8219315811
 20
4.5258918471
 10
5.7680354617
 20
4.5249070398
 10
5.7122893428
 20
4.523922525
 10
5.6553871646
 20
4.5229396996
  0
LWPOLYLINE
  5
506
100
AcDbEntity
  8
0
100
AcDbPolyline
 62
7
  6
CONTINUOUS
 90
16
 70
0
 10
5.5402241915
 20
4.2955104844
 10
5.655410446
 20
4.2974782686
 10
5.7123627124
 20
4.2984619739
 10
5.7680354411
 20
4.2994452093
 10
5.8218829531
 20
4.3004291094
 10
5.8732206484
 20
4.3014118889
 10
5.9216261131
 20
4.302396267
 10
5.9664138028
 20
4.303379053
 10
6.0072399518
 20
4.3043634842
 10
6.0435248747
 20
4.3053463461
 10
6.0750056363
 20
4.3063314243
 10
6.1012220703
 20
4.3073153452
 10
6.1219132434
 20
4.3082985048
 10
6.136872142
 20
4.3092814064
 10
6.1459477512
 20
4.31026532
 10
6.148782337
 20
4.3109810497
  0
LINE
  5
507
100
AcDbEntity
  8
0
100
AcDbLine
 62
7
  6
CONTINUOUS
 10
6.1096525109
 20
4.2275971531
 11
5.0860304637
 21
4.2275971531
  0
LINE
  5
508
100
AcDbEntity
  8
0
100
AcDbLine
 62
9
  6
CONTINUOUS
 10
5.046660385
 20
4.2669672318
 11
6.1490225897
 21
4.2669672318
  0
LINE
  5
509
100
AcDbEntity
  8
0
100
AcDbLine
 62
7
  6
CONTINUOUS
 10
5.0114530722
 20
4.4790928921
 11
5.046600291
 21
4.4587923244
  0
LINE
  5
50A
100
AcDbEntity
  8
0
100
AcDbLine
 62
7
  6
CONTINUOUS
 10
5.0114530722
 20
4.5381480102
 11
5.046600291
 21
4.5178474425
  0
LINE
  5
50B
100
AcDbEntity
  8
0
100
AcDbLine
 62
7
  6
CONTINUOUS
 10
5.0114530722
 20
4.5972031283
 11
5.046600291
 21
4.5769025606
  0
LINE
  5
50C
100
AcDbEntity
  8
0
100
AcDbLine
 62
7
  6
CONTINUOUS
 10
5.0114530722
 20
4.7743684827
 11
5.0112273141
 21
4.7746292493
  0
LINE
  5
50D
100
AcDbEntity
  8
0
100
AcDbLine
 62
7
  6
CONTINUOUS
 10
5.0114530722
 20
4.8334236008
 11
5.0112273141
 21
4.8336843674
  0
LINE
  5
50E
100
AcDbEntity
  8
0
100
AcDbLine
 62
7
  6
CONTINUOUS
 10
5.0114530722
 20
4.8924787189
 11
5.0112273141
 21
4.8927394855
  0
LINE
  5
50F
100
AcDbEntity
  8
0
100
AcDbLine
 62
7
  6
CONTINUOUS
 10
5.0114530722
 20
4.951533837
 11
5.0112273141
 21
4.9517946036
  0
LINE
  5
510
100
AcDbEntity
  8
02___PRT_ALL_AXES
100
AcDbLine
 62
7
  6
CONTINUOUS
 10
5.7057149322
 20
2.32602235
 11
5.7057149322
 21
4.2275971531
  0
LINE
  5
511
100
AcDbEntity
  8
0
100
AcDbLine
 62
7
  6
CONTINUOUS
 10
6.1842299025
 20
4.9220062779
 11
6.1844556606
 21
4.9222670445
  0
LINE
  5
512
100
AcDbEntity
  8
0
100
AcDbLine
 62
7
  6
CONTINUOUS
 10
6.1842299025
 20
4.8629511598
 11
6.1844556606
 21
4.8632119264
  0
LINE
  5
513
100
AcDbEntity
  8
0
100
AcDbLine
 62
7
  6
CONTINUOUS
 10
6.1842299025
 20
4.7448409236
 11
6.1844556606
 21
4.7451016902
  0
LINE
  5
514
100
AcDbEntity
  8
0
100
AcDbLine
 62
7
  6
CONTINUOUS
 10
6.148782337
 20
4.5472015222
 11
6.1842299025
 21
4.5676755693
  0
LINE
  5
515
100
AcDbEntity
  8
0
100
AcDbLine
 62
7
  6
CONTINUOUS
 10
6.148782337
 20
4.488146404
 11
6.1842299025
 21
4.5086204512
  0
LINE
  5
516
100
AcDbEntity
  8
0
100
AcDbLine
 62
7
  6
CONTINUOUS
 10
6.148782337
 20
4.4290912859
 11
6.1842299025
 21
4.4495653331
  0
LINE
  5
517
100
AcDbEntity
  8
0
100
AcDbLine
 62
7
  6
CONTINUOUS
 10
6.1832831564
 20
4.4492317446
 11
6.1842299025
 21
4.4495653331
  0
LWPOLYLINE
  5
518
100
AcDbEntity
  8
0
100
AcDbPolyline
 62
7
  6
CONTINUOUS
 90
15
 70
0
 10
6.1490225897
 20
4.4186101643
 10
6.1460272617
 20
4.4176298517
 10
6.1370377475
 20
4.41664657
 10
6.1221715672
 20
4.4156643528
 10
6.1014304094
 20
4.4146756697
 10
6.075047936
 20
4.4136844595
 10
6.0434641711
 20
4.4126961808
 10
6.0071688335
 20
4.411713267
 10
5.9662708526
 20
4.4107273689
 10
5.9213565901
 20
4.4097421829
 10
5.8730597195
 20
4.4087603152
 10
5.8217697761
 20
4.4077785911
 10
5.7679375651
 20
4.4067950485
 10
5.7123041364
 20
4.4058125467
 10
5.6553764258
 20
4.4048292792
  0
LWPOLYLINE
  5
519
100
AcDbEntity
  8
0
100
AcDbPolyline
 62
7
  6
CONTINUOUS
 90
15
 70
0
 10
6.1490225897
 20
4.3595550465
 10
6.1459477512
 20
4.3585617957
 10
6.136872142
 20
4.3575778821
 10
6.1219132434
 20
4.3565949806
 10
6.1012220703
 20
4.3556118209
 10
6.0750056363
 20
4.3546279001
 10
6.0435248747
 20
4.3536428219
 10
6.0072399518
 20
4.3526599599
 10
5.9664138028
 20
4.3516755287
 10
5.9216261131
 20
4.3506927428
 10
5.8732206484
 20
4.3497083647
 10
5.8218829531
 20
4.3487255852
 10
5.7680354411
 20
4.3477416851
 10
5.7123627124
 20
4.3467584497
 10
5.655410446
 20
4.3457747444
  0
LWPOLYLINE
  5
51A
100
AcDbEntity
  8
0
100
AcDbPolyline
 62
7
  6
CONTINUOUS
 90
16
 70
0
 10
5.655410446
 20
4.3457747444
 10
5.5402241915
 20
4.3438069601
 10
5.4831325101
 20
4.3428208105
 10
5.427471937
 20
4.3418376999
 10
5.373685024
 20
4.3408548018
 10
5.3223533052
 20
4.3398720224
 10
5.2739592971
 20
4.3388877346
 10
5.2291832896
 20
4.3379050348
 10
5.1883692727
 20
4.3369206949
 10
5.1521092236
 20
4.3359382948
 10
5.1207086923
 20
4.3349557013
 10
5.0944028526
 20
4.3339682815
 10
5.073629535
 20
4.3329798251
 10
5.0586994359
 20
4.3319955335
 10
5.0496648694
 20
4.3310092983
 10
5.0469006376
 20
4.3303050079
  0
LWPOLYLINE
  5
51B
100
AcDbEntity
  8
0
100
AcDbPolyline
 62
7
  6
CONTINUOUS
 90
16
 70
0
 10
5.5403882928
 20
4.3545684162
 10
5.6553764258
 20
4.3565328034
 10
5.7123041364
 20
4.3575160709
 10
5.7679375651
 20
4.3584985727
 10
5.8217697761
 20
4.3594821154
 10
5.8730597195
 20
4.3604638394
 10
5.9213565901
 20
4.3614457072
 10
5.9662708526
 20
4.3624308932
 10
6.0071688335
 20
4.3634167912
 10
6.0434641711
 20
4.3643997051
 10
6.075047936
 20
4.3653879837
 10
6.1014304094
 20
4.366379194
 10
6.1221715672
 20
4.367367877
 10
6.1370377475
 20
4.3683500942
 10
6.1460272617
 20
4.369333376
 10
6.148782337
 20
4.3700361678
  0
LWPOLYLINE
  5
51C
100
AcDbEntity
  8
0
100
AcDbPolyline
 62
7
  6
CONTINUOUS
 90
13
 70
0
 10
5.7844693221
 20
4.3790502999
 10
5.8410389082
 20
4.3800250422
 10
5.8949951661
 20
4.3809997845
 10
5.9457582977
 20
4.3819745268
 10
5.9927828174
 20
4.382949269
 10
6.0355634133
 20
4.3839240113
 10
6.0736403778
 20
4.3848987536
 10
6.1066045469
 20
4.3858734959
 10
6.1341016974
 20
4.3868482382
 10
6.155836353
 20
4.3878229805
 10
6.1715749594
 20
4.3887977228
 10
6.1811483941
 20
4.3897724651
 10
6.1842299025
 20
4.390510215
  0
LWPOLYLINE
  5
51D
100
AcDbEntity
  8
0
100
AcDbPolyline
 62
7
  6
CONTINUOUS
 90
13
 70
0
 10
5.7844693221
 20
4.3864321897
 10
5.8410389082
 20
4.3874069319
 10
5.8949951661
 20
4.3883816742
 10
5.9457582977
 20
4.3893564165
 10
5.9927828174
 20
4.3903311588
 10
6.0355634133
 20
4.3913059011
 10
6.0736403778
 20
4.3922806434
 10
6.1066045469
 20
4.3932553857
 10
6.1341016974
 20
4.394230128
 10
6.155836353
 20
4.3952048702
 10
6.1715749594
 20
4.3961796125
 10
6.1811483941
 20
4.3971543548
 10
6.1844556606
 20
4.3981528713
  0
LWPOLYLINE
  5
51E
100
AcDbEntity
  8
0
100
AcDbPolyline
 62
7
  6
CONTINUOUS
 90
5
 70
0
 10
5.3682233768
 20
4.3796089936
 10
5.4253390829
 20
4.3805837359
 10
5.4843084492
 20
4.3815584782
 10
5.5444978083
 20
4.3825332205
 10
5.6659432362
 20
4.3844827051
  0
LWPOLYLINE
  5
51F
100
AcDbEntity
  8
0
100
AcDbPolyline
 62
7
  6
CONTINUOUS
 90
16
 70
0
 10
5.6553764258
 20
4.4048292792
 10
5.5403882928
 20
4.4028648919
 10
5.4834688592
 20
4.4018817921
 10
5.4275907364
 20
4.4008949481
 10
5.3736672612
 20
4.3999095883
 10
5.3223077579
 20
4.3989262437
 10
5.2736995987
 20
4.3979373785
 10
5.2286464617
 20
4.3969478317
 10
5.187865962
 20
4.395962982
 10
5.151706063
 20
4.3949817158
 10
5.1203372956
 20
4.3939981545
 10
5.0942280962
 20
4.3930160732
 10
5.0735885756
 20
4.3920326818
 10
5.0586957683
 20
4.3910503507
 10
5.0496839318
 20
4.390067529
 10
5.0469006376
 20
4.389360126
  0
LWPOLYLINE
  5
520
100
AcDbEntity
  8
0
100
AcDbPolyline
 62
7
  6
CONTINUOUS
 90
16
 70
0
 10
5.5402804427
 20
4.4136216851
 10
5.6553690359
 20
4.4155877948
 10
5.7126293481
 20
4.4165768586
 10
5.7687134419
 20
4.4175676036
 10
5.8227020228
 20
4.4185546381
 10
5.874004081
 20
4.4195375546
 10
5.9224466876
 20
4.4205238053
 10
5.9672538022
 20
4.4215085716
 10
6.0078867641
 20
4.4224902096
 10
6.044053536
 20
4.4234719215
 10
6.0754130323
 20
4.4244555574
 10
6.1015114098
 20
4.4254377114
 10
6.1221387757
 20
4.426421182
 10
6.137017624
 20
4.4274035585
 10
6.1460062823
 20
4.4283850639
 10
6.148782337
 20
4.4290912859
  0
LWPOLYLINE
  5
521
100
AcDbEntity
  8
0
100
AcDbPolyline
 62
7
  6
CONTINUOUS
 90
3
 70
0
 10
5.6659432362
 20
4.3771008153
 10
5.7258942881
 20
4.3780755576
 10
5.7844693221
 20
4.3790502999
  0
LWPOLYLINE
  5
522
100
AcDbEntity
  8
0
100
AcDbPolyline
 62
7
  6
CONTINUOUS
 90
3
 70
0
 10
5.6659432362
 20
4.3844827051
 10
5.7258942881
 20
4.3854574474
 10
5.7844693221
 20
4.3864321897
  0
LWPOLYLINE
  5
523
100
AcDbEntity
  8
0
100
AcDbPolyline
 62
7
  6
CONTINUOUS
 90
15
 70
0
 10
5.6408336484
 20
4.3176415358
 10
5.7011669182
 20
4.3186162781
 10
5.7603898832
 20
4.3195910203
 10
5.8178661508
 20
4.3205657626
 10
5.8729780979
 20
4.3215405049
 10
5.9251335077
 20
4.3225152472
 10
5.9737719334
 20
4.3234899895
 10
6.0183707208
 20
4.3244647318
 10
6.0584506244
 20
4.3254394741
 10
6.0935809573
 20
4.3264142164
 10
6.1233842193
 20
4.3273889586
 10
6.1475401531
 20
4.3283637009
 10
6.1657891863
 20
4.3293384432
 10
6.1779352201
 20
4.3303131855
 10
6.1838477368
 20
4.3312879278
  0
LWPOLYLINE
  5
524
100
AcDbEntity
  8
0
100
AcDbPolyline
 62
7
  6
CONTINUOUS
 90
16
 70
0
 10
5.6408336484
 20
4.3250234255
 10
5.7011669182
 20
4.3259981678
 10
5.7603898832
 20
4.3269729101
 10
5.8178661508
 20
4.3279476524
 10
5.8729780979
 20
4.3289223947
 10
5.9251335077
 20
4.329897137
 10
5.9737719334
 20
4.3308718793
 10
6.0183707208
 20
4.3318466215
 10
6.0584506244
 20
4.3328213638
 10
6.0935809573
 20
4.3337961061
 10
6.1233842193
 20
4.3347708484
 10
6.1475401531
 20
4.3357455907
 10
6.1657891863
 20
4.336720333
 10
6.1779352201
 20
4.3376950753
 10
6.1838477368
 20
4.3386698176
 10
6.1844556606
 20
4.3390977532
  0
LINE
  5
525
100
AcDbEntity
  8
0
100
AcDbLine
 62
7
  6
CONTINUOUS
 10
5.0114530722
 20
4.6562582464
 11
5.046600291
 21
4.6359576787
  0
LINE
  5
526
100
AcDbEntity
  8
0
100
AcDbLine
 62
7
  6
CONTINUOUS
 10
5.0114530722
 20
4.7153133646
 11
5.046600291
 21
4.6950127968
  0
LINE
  5
527
100
AcDbEntity
  8
0
100
AcDbLine
 62
7
  6
CONTINUOUS
 10
5.0114530722
 20
4.7743684827
 11
5.046600291
 21
4.7540679149
  0
LINE
  5
528
100
AcDbEntity
  8
0
100
AcDbLine
 62
7
  6
CONTINUOUS
 10
5.0114530722
 20
5.0105889551
 11
5.0112273141
 21
5.0108497217
  0
LINE
  5
529
100
AcDbEntity
  8
0
100
AcDbLine
 62
7
  6
CONTINUOUS
 10
5.0114530722
 20
5.0696440732
 11
5.0112273141
 21
5.0699048398
  0
LINE
  5
52A
100
AcDbEntity
  8
0
100
AcDbLine
 62
7
  6
CONTINUOUS
 10
6.1842299025
 20
4.6857858055
 11
6.1844556606
 21
4.6860465721
  0
LINE
  5
52B
100
AcDbEntity
  8
0
100
AcDbLine
 62
7
  6
CONTINUOUS
 10
6.1842299025
 20
4.6267306874
 11
6.1844556606
 21
4.626991454
  0
LINE
  5
52C
100
AcDbEntity
  8
0
100
AcDbLine
 62
7
  6
CONTINUOUS
 10
6.1842299025
 20
4.5676755693
 11
6.1844556606
 21
4.5679363359
  0
LINE
  5
52D
100
AcDbEntity
  8
0
100
AcDbLine
 62
7
  6
CONTINUOUS
 10
6.1842299025
 20
4.5086204512
 11
6.1844556606
 21
4.5088812178
  0
LINE
  5
52E
100
AcDbEntity
  8
0
100
AcDbLine
 62
7
  6
CONTINUOUS
 10
6.148782337
 20
4.3700361678
 11
6.1842299025
 21
4.390510215
  0
LINE
  5
52F
100
AcDbEntity
  8
0
100
AcDbLine
 62
7
  6
CONTINUOUS
 10
6.148782337
 20
4.3109810497
 11
6.1842299025
 21
4.3314550968
  0
LINE
  5
530
100
AcDbEntity
  8
0
100
AcDbLine
 62
7
  6
CONTINUOUS
 10
6.1838477368
 20
4.3312879278
 11
6.1842299025
 21
4.3314550968
  0
LWPOLYLINE
  5
531
100
AcDbEntity
  8
0
100
AcDbPolyline
 62
7
  6
CONTINUOUS
 90
16
 70
0
 10
5.0114530722
 20
4.3098309607
 10
5.0135246871
 20
4.3104022912
 10
5.0220333997
 20
4.3113770335
 10
5.0367295771
 20
4.3123517758
 10
5.0574552985
 20
4.3133265181
 10
5.0839878515
 20
4.3143012604
 10
5.1160421249
 20
4.3152760027
 10
5.1532736729
 20
4.3162507449
 10
5.1952824163
 20
4.3172254872
 10
5.2416169414
 20
4.3182002295
 10
5.291779351
 20
4.3191749718
 10
5.3452306146
 20
4.3201497141
 10
5.4013963605
 20
4.3211244564
 10
5.4596730481
 20
4.3220991987
 10
5.5194344533
 20
4.323073941
 10
5.6408336484
 20
4.3250234255
  0
LWPOLYLINE
  5
532
100
AcDbEntity
  8
0
100
AcDbPolyline
 62
7
  6
CONTINUOUS
 90
12
 70
0
 10
5.0114530722
 20
4.3688860788
 10
5.0162944153
 20
4.3698615708
 10
5.0273835929
 20
4.3708363131
 10
5.0446027437
 20
4.3718110553
 10
5.0677668359
 20
4.3727857976
 10
5.0966269547
 20
4.3737605399
 10
5.130872978
 20
4.3747352822
 10
5.1701369079
 20
4.3757100245
 10
5.2139968258
 20
4.3766847668
 10
5.2619814258
 20
4.3776595091
 10
5.3135750796
 20
4.3786342514
 10
5.3682233768
 20
4.3796089936
  0
LWPOLYLINE
  5
533
100
AcDbEntity
  8
0
100
AcDbPolyline
 62
7
  6
CONTINUOUS
 90
11
 70
0
 10
5.3222509361
 20
4.5170353612
 10
5.2738464517
 20
4.5160507106
 10
5.2288125124
 20
4.5150618806
 10
5.1879117919
 20
4.5140743874
 10
5.1517000321
 20
4.5130917769
 10
5.120259847
 20
4.512105746
 10
5.0940490112
 20
4.5111187883
 10
5.073463855
 20
4.5101360218
 10
5.0586281031
 20
4.5091550274
 10
5.0496498915
 20
4.5081722001
 10
5.0469006376
 20
4.5074703622
  0
LWPOLYLINE
  5
534
100
AcDbEntity
  8
0
100
AcDbPolyline
 62
7
  6
CONTINUOUS
 90
7
 70
0
 10
5.3222509361
 20
4.4687388854
 10
5.3648356497
 20
4.4695578415
 10
5.4092690353
 20
4.4703782635
 10
5.4551711183
 20
4.4711992646
 10
5.5020788984
 20
4.4720188423
 10
5.5498015292
 20
4.472839912
 10
5.6553871646
 20
4.4746432238
  0
LWPOLYLINE
  5
535
100
AcDbEntity
  8
0
100
AcDbPolyline
 62
7
  6
CONTINUOUS
 90
5
 70
0
 10
5.3045344007
 20
4.4891961784
 10
5.3587019156
 20
4.4901709207
 10
5.4154391542
 20
4.491145663
 10
5.4741364348
 20
4.4921204053
 10
5.5341630137
 20
4.4930951475
  0
LWPOLYLINE
  5
536
100
AcDbEntity
  8
0
100
AcDbPolyline
 62
7
  6
CONTINUOUS
 90
5
 70
0
 10
5.3045344007
 20
4.4965780682
 10
5.3587019156
 20
4.4975528104
 10
5.4154391542
 20
4.4985275527
 10
5.4741364348
 20
4.499502295
 10
5.5341630137
 20
4.5004770373
  0
LWPOLYLINE
  5
537
100
AcDbEntity
  8
0
100
AcDbPolyline
 62
7
  6
CONTINUOUS
 90
15
 70
0
 10
5.6553871646
 20
4.4746432238
 10
5.7122893428
 20
4.4756260493
 10
5.7680354617
 20
4.476610564
 10
5.8219315811
 20
4.4775953714
 10
5.8732728807
 20
4.4785782715
 10
5.9216728645
 20
4.4795626065
 10
5.966455009
 20
4.4805453524
 10
6.0072754006
 20
4.4815297414
 10
6.0435465311
 20
4.4825123281
 10
6.0749967754
 20
4.4834964768
 10
6.1011906634
 20
4.4844793849
 10
6.121904663
 20
4.4854633868
 10
6.1368689617
 20
4.486446501
 10
6.1459509778
 20
4.4874311961
 10
6.148782337
 20
4.488146404
  0
LWPOLYLINE
  5
538
100
AcDbEntity
  8
0
100
AcDbPolyline
 62
7
  6
CONTINUOUS
 90
16
 70
0
 10
5.6553690359
 20
4.4638842706
 10
5.5402804427
 20
4.4619181609
 10
5.4833277246
 20
4.4609344499
 10
5.4276706592
 20
4.4599514991
 10
5.3738173167
 20
4.4589675072
 10
5.3224805556
 20
4.4579847637
 10
5.2740740417
 20
4.4570003888
 10
5.2292951973
 20
4.4560178377
 10
5.1884826302
 20
4.4550338183
 10
5.1522038665
 20
4.454051274
 10
5.1207434423
 20
4.453067121
 10
5.0945437166
 20
4.4520844139
 10
5.0738178278
 20
4.4511004356
 10
5.0588428962
 20
4.4501175041
 10
5.0497542334
 20
4.4491340423
 10
5.0469006376
 20
4.4484152441
  0
LWPOLYLINE
  5
539
100
AcDbEntity
  8
0
100
AcDbPolyline
 62
7
  6
CONTINUOUS
 90
7
 70
0
 10
5.6553871646
 20
4.5229396996
 10
5.5498015292
 20
4.5211363878
 10
5.5020788984
 20
4.5203153181
 10
5.4551711183
 20
4.5194957404
 10
5.4092690353
 20
4.5186747392
 10
5.3648356497
 20
4.5178543173
 10
5.3222509361
 20
4.5170353612
  0
LWPOLYLINE
  5
53A
100
AcDbEntity
  8
0
100
AcDbPolyline
 62
7
  6
CONTINUOUS
 90
16
 70
0
 10
5.5401371459
 20
4.5317294643
 10
5.6555360541
 20
4.5337008948
 10
5.7128021942
 20
4.5346901084
 10
5.7686901061
 20
4.5356774213
 10
5.8224420564
 20
4.5366600194
 10
5.8737683912
 20
4.5376431474
 10
5.9221519665
 20
4.5386278246
 10
5.9669105312
 20
4.5396109236
 10
6.0076992127
 20
4.5405956613
 10
6.0439312414
 20
4.5415786063
 10
6.0753001014
 20
4.5425619378
 10
6.1014612723
 20
4.5435458432
 10
6.1221555154
 20
4.5445323437
 10
6.1370484266
 20
4.5455163268
 10
6.1460377664
 20
4.5465004523
 10
6.148782337
 20
4.5472015222
  0
LWPOLYLINE
  5
53B
100
AcDbEntity
  8
0
100
AcDbPolyline
 62
7
  6
CONTINUOUS
 90
16
 70
0
 10
5.6555360541
 20
4.5819973706
 10
5.5401371459
 20
4.5800259401
 10
5.4828344506
 20
4.5790360862
 10
5.4268874085
 20
4.5780476896
 10
5.3731186564
 20
4.5770646999
 10
5.3218048181
 20
4.5760816927
 10
5.2734335433
 20
4.5750971223
 10
5.2286873961
 20
4.574114126
 10
5.1879113145
 20
4.5731294933
 10
5.1516901189
 20
4.5721466071
 10
5.1203205035
 20
4.5711629355
 10
5.0941875835
 20
4.5701797273
 10
5.0735151744
 20
4.5691939795
 10
5.0586296852
 20
4.5682102757
 10
5.0496426137
 20
4.5672261243
 10
5.0469006376
 20
4.5665254803
  0
LWPOLYLINE
  5
53C
100
AcDbEntity
  8
0
100
AcDbPolyline
 62
7
  6
CONTINUOUS
 90
16
 70
0
 10
5.5403242201
 20
4.59078779
 10
5.655371845
 20
4.5927531973
 10
5.7122951452
 20
4.5937363866
 10
5.7679244304
 20
4.5947188097
 10
5.821752581
 20
4.5957022669
 10
5.8730176223
 20
4.5966834834
 10
5.9215050336
 20
4.5976693065
 10
5.9666050344
 20
4.5986590302
 10
6.0075582831
 20
4.5996471859
 10
6.0438081391
 20
4.6006301513
 10
6.0752777343
 20
4.6016162926
 10
6.1015123334
 20
4.6026031045
 10
6.1221243947
 20
4.6035857415
 10
6.1369966482
 20
4.6045671904
 10
6.1460060898
 20
4.6055503868
 10
6.148782337
 20
4.6062566403
  0
LWPOLYLINE
  5
53D
100
AcDbEntity
  8
0
100
AcDbPolyline
 62
7
  6
CONTINUOUS
 90
16
 70
0
 10
5.5341630137
 20
4.4930951475
 10
5.6556166009
 20
4.4950446321
 10
5.7157385047
 20
4.4960193744
 10
5.7745935217
 20
4.4969941167
 10
5.8315492133
 20
4.497968859
 10
5.8859935501
 20
4.4989436013
 10
5.9373414894
 20
4.4999183436
 10
5.9850412612
 20
4.5008930858
 10
6.0285802978
 20
4.5018678281
 10
6.0674907415
 20
4.5028425704
 10
6.101354472
 20
4.5038173127
 10
6.1298075997
 20
4.504792055
 10
6.1525443755
 20
4.5057667973
 10
6.1693204768
 20
4.5067415396
 10
6.1799556324
 20
4.5077162819
 10
6.1842299025
 20
4.5086204512
  0
LWPOLYLINE
  5
53E
100
AcDbEntity
  8
0
100
AcDbPolyline
 62
7
  6
CONTINUOUS
 90
17
 70
0
 10
5.5341630137
 20
4.5004770373
 10
5.6556166009
 20
4.5024265219
 10
5.7157385047
 20
4.5034012642
 10
5.7745935217
 20
4.5043760065
 10
5.8315492133
 20
4.5053507487
 10
5.8859935501
 20
4.506325491
 10
5.9373414894
 20
4.5073002333
 10
5.9850412612
 20
4.5082749756
 10
6.0285802978
 20
4.5092497179
 10
6.0674907415
 20
4.5102244602
 10
6.101354472
 20
4.5111992025
 10
6.1298075997
 20
4.5121739448
 10
6.1525443755
 20
4.513148687
 10
6.1693204768
 20
4.5141234293
 10
6.1799556324
 20
4.5150981716
 10
6.1843355602
 20
4.5160729139
 10
6.1844556606
 20
4.5162631075
  0
LINE
  5
53F
100
AcDbEntity
  8
0
100
AcDbLine
 62
7
  6
CONTINUOUS
 10
5.0114530722
 20
4.8334236008
 11
5.046600291
 21
4.813123033
  0
LINE
  5
540
100
AcDbEntity
  8
0
100
AcDbLine
 62
7
  6
CONTINUOUS
 10
5.0114530722
 20
4.8924787189
 11
5.046600291
 21
4.8721781511
  0
LINE
  5
541
100
AcDbEntity
  8
0
100
AcDbLine
 62
7
  6
CONTINUOUS
 10
5.0114530722
 20
4.951533837
 11
5.046600291
 21
4.9312332692
  0
LINE
  5
542
100
AcDbEntity
  8
0
100
AcDbLine
 62
7
  6
CONTINUOUS
 10
6.1842299025
 20
4.4495653331
 11
6.1844556606
 21
4.4498260997
  0
LINE
  5
543
100
AcDbEntity
  8
0
100
AcDbLine
 62
7
  6
CONTINUOUS
 10
6.1842299025
 20
4.390510215
 11
6.1844556606
 21
4.3907709815
  0
LINE
  5
544
100
AcDbEntity
  8
0
100
AcDbLine
 62
7
  6
CONTINUOUS
 10
6.1842299025
 20
4.3314550968
 11
6.1844556606
 21
4.3317158634
  0
LWPOLYLINE
  5
545
100
AcDbEntity
  8
0
100
AcDbPolyline
 62
7
  6
CONTINUOUS
 90
11
 70
0
 10
5.0112273141
 20
4.4793536587
 10
5.0150233926
 20
4.4804234978
 10
5.0250522375
 20
4.4813982401
 10
5.0412361077
 20
4.4823729824
 10
5.0634010961
 20
4.4833477247
 10
5.0913090243
 20
4.484322467
 10
5.1246600017
 20
4.4852972092
 10
5.1630956485
 20
4.4862719515
 10
5.2062029467
 20
4.4872466938
 10
5.2535186777
 20
4.4882214361
 10
5.3045344007
 20
4.4891961784
  0
LWPOLYLINE
  5
546
100
AcDbEntity
  8
0
100
AcDbPolyline
 62
7
  6
CONTINUOUS
 90
11
 70
0
 10
5.0114530722
 20
4.4869963151
 10
5.0150233926
 20
4.4878053876
 10
5.0250522375
 20
4.4887801299
 10
5.0412361077
 20
4.4897548721
 10
5.0634010961
 20
4.4907296144
 10
5.0913090243
 20
4.4917043567
 10
5.1246600017
 20
4.492679099
 10
5.1630956485
 20
4.4936538413
 10
5.2062029467
 20
4.4946285836
 10
5.2535186777
 20
4.4956033259
 10
5.3045344007
 20
4.4965780682
  0
LWPOLYLINE
  5
547
100
AcDbEntity
  8
0
100
AcDbPolyline
 62
7
  6
CONTINUOUS
 90
31
 70
0
 10
5.0120547142
 20
4.5462899248
 10
5.0184263145
 20
4.5472646671
 10
5.0310241403
 20
4.5482394094
 10
5.0497128191
 20
4.5492141517
 10
5.0742915278
 20
4.550188894
 10
5.1044961508
 20
4.5511636363
 10
5.1400021181
 20
4.5521383786
 10
5.180427893
 20
4.5531131208
 10
5.2253390719
 20
4.5540878631
 10
5.2742530526
 20
4.5550626054
 10
5.3266442197
 20
4.5560373477
 10
5.3819495931
 20
4.55701209
 10
5.4395748775
 20
4.5579868323
 10
5.4989008484
 20
4.5589615746
 10
5.5592900065
 20
4.5599363169
 10
5.6200934274
 20
4.5609110591
 10
5.6806577355
 20
4.5618858014
 10
5.7403321245
 20
4.5628605437
 10
5.7984753509
 20
4.563835286
 10
5.8544626247
 20
4.5648100283
 10
5.907692323
 20
4.5657847706
 10
5.957592455
 20
4.5667595129
 10
6.0036268087
 20
4.5677342552
 10
6.0453007123
 20
4.5687089974
 10
6.0821663503
 20
4.5696837397
 10
6.1138275754
 20
4.570658482
 10
6.1399441653
 20
4.5716332243
 10
6.1602354788
 20
4.5726079666
 10
6.1744834714
 20
4.5735827089
 10
6.1825350384
 20
4.5745574512
 10
6.1844556606
 20
4.5753182256
  0
LWPOLYLINE
  5
548
100
AcDbEntity
  8
0
100
AcDbPolyline
 62
7
  6
CONTINUOUS
 90
16
 70
0
 10
5.655371845
 20
4.6410496731
 10
5.5403242201
 20
4.6390842658
 10
5.4834322802
 20
4.6381016269
 10
5.4277749462
 20
4.637118723
 10
5.373932913
 20
4.6361350188
 10
5.322620709
 20
4.6351528767
 10
5.2742417929
 20
4.6341692773
 10
5.2294731049
 20
4.6331872711
 10
5.1886574511
 20
4.6322036233
 10
5.1523854875
 20
4.6312218892
 10
5.1208257916
 20
4.6302352789
 10
5.0944072849
 20
4.6292440577
 10
5.0735986573
 20
4.628253711
 10
5.0586790743
 20
4.627269453
 10
5.049666441
 20
4.6262851458
 10
5.0469006376
 20
4.6255805984
  0
LWPOLYLINE
  5
549
100
AcDbEntity
  8
0
100
AcDbPolyline
 62
7
  6
CONTINUOUS
 90
16
 70
0
 10
5.5403421273
 20
4.6498432152
 10
5.6553836003
 20
4.651808517
 10
5.7123178168
 20
4.6527919
 10
5.767958152
 20
4.6537745323
 10
5.8217959282
 20
4.654758194
 10
5.873116522
 20
4.655740548
 10
5.9214978807
 20
4.6567242739
 10
5.9662736941
 20
4.6577065489
 10
6.0070961847
 20
4.6586905321
 10
6.0433776225
 20
4.6596727883
 10
6.0748439615
 20
4.6606566279
 10
6.1010532183
 20
4.6616389912
 10
6.1217942482
 20
4.6626226697
 10
6.1367875492
 20
4.6636052188
 10
6.1459044453
 20
4.6645890521
 10
6.148782337
 20
4.6653117584
  0
LWPOLYLINE
  5
54A
100
AcDbEntity
  8
0
100
AcDbPolyline
 62
7
  6
CONTINUOUS
 90
16
 70
0
 10
5.6553836003
 20
4.7001049928
 10
5.5403421273
 20
4.6981396909
 10
5.4831229253
 20
4.697151352
 10
5.4270625603
 20
4.6961610674
 10
5.3730806012
 20
4.6951742255
 10
5.3217695818
 20
4.6941912347
 10
5.2733046715
 20
4.6932046399
 10
5.2284659525
 20
4.6922192759
 10
5.1878290987
 20
4.691237632
 10
5.1516593321
 20
4.6902559492
 10
5.1202950619
 20
4.689272303
 10
5.094191726
 20
4.6882901374
 10
5.0735593447
 20
4.6873066575
 10
5.058675384
 20
4.6863242681
 10
5.0496806227
 20
4.6853425799
 10
5.0469006376
 20
4.6846357165
  0
LWPOLYLINE
  5
54B
100
AcDbEntity
  8
0
100
AcDbPolyline
 62
7
  6
CONTINUOUS
 90
16
 70
0
 10
5.5402593577
 20
4.7088969141
 10
5.6553280413
 20
4.7108626825
 10
5.7123562451
 20
4.711847688
 10
5.7683210721
 20
4.7128361575
 10
5.8222958616
 20
4.713822644
 10
5.8736748339
 20
4.7148066589
 10
5.9222720057
 20
4.7157957107
 10
5.9672880079
 20
4.7167849481
 10
6.0080190533
 20
4.7177691766
 10
6.0441842969
 20
4.7187513115
 10
6.0755447441
 20
4.7197356484
 10
6.101634966
 20
4.7207184926
 10
6.1222453299
 20
4.7217026681
 10
6.1370977938
 20
4.722685746
 10
6.1460574631
 20
4.7236690438
 10
6.148782337
 20
4.7243668765
  0
LWPOLYLINE
  5
54C
100
AcDbEntity
  8
0
100
AcDbPolyline
 62
7
  6
CONTINUOUS
 90
15
 70
0
 10
5.7055457603
 20
4.621345081
 10
5.7646623091
 20
4.6223198233
 10
5.8219862503
 20
4.6232945656
 10
5.8769015976
 20
4.6242693078
 10
5.9288182468
 20
4.6252440501
 10
5.9771783168
 20
4.6262187924
 10
6.0214621445
 20
4.6271935347
 10
6.0611938689
 20
4.628168277
 10
6.0959465444
 20
4.6291430193
 10
6.1253467291
 20
4.6301177616
 10
6.1490784972
 20
4.6310925039
 10
6.166886834
 20
4.6320672461
 10
6.1785803764
 20
4.6330419884
 10
6.184033469
 20
4.6340167307
 10
6.1844556606
 20
4.6343733437
  0
LWPOLYLINE
  5
54D
100
AcDbEntity
  8
0
100
AcDbPolyline
 62
7
  6
CONTINUOUS
 90
15
 70
0
 10
5.6703625898
 20
4.6724477285
 10
5.7302346626
 20
4.6734224708
 10
5.7886840772
 20
4.674397213
 10
5.8450827532
 20
4.6753719553
 10
5.8988246472
 20
4.6763466976
 10
5.9493322643
 20
4.6773214399
 10
5.9960628647
 20
4.6782961822
 10
6.0385142949
 20
4.6792709245
 10
6.0762303844
 20
4.6802456668
 10
6.1088058471
 20
4.6812204091
 10
6.1358906366
 20
4.6821951514
 10
6.1571937078
 20
4.6831698936
 10
6.1724861441
 20
4.6841446359
 10
6.1816036174
 20
4.6851193782
 10
6.1842299025
 20
4.6857858055
  0
LWPOLYLINE
  5
54E
100
AcDbEntity
  8
0
100
AcDbPolyline
 62
7
  6
CONTINUOUS
 90
15
 70
0
 10
5.6703625898
 20
4.6798296182
 10
5.7302346626
 20
4.6808043605
 10
5.7886840772
 20
4.6817791028
 10
5.8450827532
 20
4.6827538451
 10
5.8988246472
 20
4.6837285874
 10
5.9493322643
 20
4.6847033297
 10
5.9960628647
 20
4.685678072
 10
6.0385142949
 20
4.6866528143
 10
6.0762303844
 20
4.6876275565
 10
6.1088058471
 20
4.6886022988
 10
6.1358906366
 20
4.6895770411
 10
6.1571937078
 20
4.6905517834
 10
6.1724861441
 20
4.6915265257
 10
6.1816036174
 20
4.692501268
 10
6.1844556606
 20
4.6934284619
  0
LWPOLYLINE
  5
54F
100
AcDbEntity
  8
0
100
AcDbPolyline
 62
7
  6
CONTINUOUS
 90
15
 70
0
 10
5.645271853
 20
4.6129884489
 10
5.7055457603
 20
4.6139631912
 10
5.7646623091
 20
4.6149379335
 10
5.8219862503
 20
4.6159126758
 10
5.8769015976
 20
4.6168874181
 10
5.9288182468
 20
4.6178621604
 10
5.9771783168
 20
4.6188369027
 10
6.0214621445
 20
4.6198116449
 10
6.0611938689
 20
4.6207863872
 10
6.0959465444
 20
4.6217611295
 10
6.1253467291
 20
4.6227358718
 10
6.1490784972
 20
4.6237106141
 10
6.166886834
 20
4.6246853564
 10
6.1785803764
 20
4.6256600987
 10
6.1842299025
 20
4.6267306874
  0
LINE
  5
550
100
AcDbEntity
  8
0
100
AcDbLine
 62
7
  6
CONTINUOUS
 10
5.645271853
 20
4.6203703387
 11
5.7055457603
 21
4.621345081
  0
LINE
  5
551
100
AcDbEntity
  8
0
100
AcDbLine
 62
7
  6
CONTINUOUS
 10
5.0114530722
 20
5.0105889551
 11
5.046600291
 21
4.9902883873
  0
LINE
  5
552
100
AcDbEntity
  8
0
100
AcDbLine
 62
7
  6
CONTINUOUS
 10
6.1842299025
 20
4.3393585198
 11
6.1490826837
 21
4.3596590875
  0
LINE
  5
553
100
AcDbEntity
  8
0
100
AcDbLine
 62
7
  6
CONTINUOUS
 10
5.0114530722
 20
5.0696440732
 11
5.046600291
 21
5.0493435055
  0
LINE
  5
554
100
AcDbEntity
  8
0
100
AcDbLine
 62
7
  6
CONTINUOUS
 10
6.1842299025
 20
4.3984136379
 11
6.1490826837
 21
4.4187142056
  0
LINE
  5
555
100
AcDbEntity
  8
0
100
AcDbLine
 62
7
  6
CONTINUOUS
 10
6.1842299025
 20
4.457468756
 11
6.1490826837
 21
4.4777693238
  0
LINE
  5
556
100
AcDbEntity
  8
02___PRT_ALL_AXES
100
AcDbLine
 62
7
  6
CONTINUOUS
 10
6.1490225897
 20
5.0937388854
 11
6.1490225897
 21
5.0682164635
  0
LINE
  5
557
100
AcDbEntity
  8
02___PRT_ALL_AXES
100
AcDbLine
 62
7
  6
CONTINUOUS
 10
6.1490225897
 20
5.0199199878
 11
6.1490225897
 21
5.0091613454
  0
LINE
  5
558
100
AcDbEntity
  8
02___PRT_ALL_AXES
100
AcDbLine
 62
7
  6
CONTINUOUS
 10
6.1490225897
 20
4.9608648696
 11
6.1490225897
 21
4.9501062273
  0
LINE
  5
559
100
AcDbEntity
  8
02___PRT_ALL_AXES
100
AcDbLine
 62
7
  6
CONTINUOUS
 10
6.1490225897
 20
4.9018097515
 11
6.1490225897
 21
4.8910511092
  0
LINE
  5
55A
100
AcDbEntity
  8
02___PRT_ALL_AXES
100
AcDbLine
 62
7
  6
CONTINUOUS
 10
6.1490225897
 20
4.8427546334
 11
6.1490225897
 21
4.8319959911
  0
LINE
  5
55B
100
AcDbEntity
  8
02___PRT_ALL_AXES
100
AcDbLine
 62
7
  6
CONTINUOUS
 10
6.1490225897
 20
4.7836995153
 11
6.1490225897
 21
4.772940873
  0
LINE
  5
55C
100
AcDbEntity
  8
02___PRT_ALL_AXES
100
AcDbLine
 62
7
  6
CONTINUOUS
 10
6.1490225897
 20
4.7246443972
 11
6.1490225897
 21
4.7138857549
  0
LINE
  5
55D
100
AcDbEntity
  8
02___PRT_ALL_AXES
100
AcDbLine
 62
7
  6
CONTINUOUS
 10
6.1490225897
 20
4.6655892791
 11
6.1490225897
 21
4.6548306368
  0
LINE
  5
55E
100
AcDbEntity
  8
02___PRT_ALL_AXES
100
AcDbLine
 62
7
  6
CONTINUOUS
 10
6.1490225897
 20
4.606534161
 11
6.1490225897
 21
4.5957755186
  0
LINE
  5
55F
100
AcDbEntity
  8
02___PRT_ALL_AXES
100
AcDbLine
 62
7
  6
CONTINUOUS
 10
6.1490225897
 20
4.5474790429
 11
6.1490225897
 21
4.5367204005
  0
LINE
  5
560
100
AcDbEntity
  8
02___PRT_ALL_AXES
100
AcDbLine
 62
7
  6
CONTINUOUS
 10
6.1490225897
 20
4.4884239248
 11
6.1490225897
 21
4.4776652824
  0
LINE
  5
561
100
AcDbEntity
  8
02___PRT_ALL_AXES
100
AcDbLine
 62
7
  6
CONTINUOUS
 10
6.1490225897
 20
4.4293688067
 11
6.1490225897
 21
4.4186101643
  0
LINE
  5
562
100
AcDbEntity
  8
02___PRT_ALL_AXES
100
AcDbLine
 62
7
  6
CONTINUOUS
 10
6.1490225897
 20
4.3703136885
 11
6.1490225897
 21
4.3595550462
  0
LINE
  5
563
100
AcDbEntity
  8
02___PRT_ALL_AXES
100
AcDbLine
 62
7
  6
CONTINUOUS
 10
6.1490225897
 20
4.3112585704
 11
6.1490225897
 21
4.2669672318
  0
LINE
  5
564
100
AcDbEntity
  8
0
100
AcDbLine
 62
7
  6
CONTINUOUS
 10
6.1844556606
 20
4.3317158634
 11
6.1844556606
 21
4.3390977532
  0
LINE
  5
565
100
AcDbEntity
  8
0
100
AcDbLine
 62
7
  6
CONTINUOUS
 10
6.1844556606
 20
4.3907709815
 11
6.1844556606
 21
4.3981528713
  0
LINE
  5
566
100
AcDbEntity
  8
0
100
AcDbLine
 62
7
  6
CONTINUOUS
 10
6.1844556606
 20
4.4498260997
 11
6.1844556606
 21
4.4572079894
  0
LINE
  5
567
100
AcDbEntity
  8
0
100
AcDbLine
 62
7
  6
CONTINUOUS
 10
6.1844556606
 20
4.5088812178
 11
6.1844556606
 21
4.5162631075
  0
LINE
  5
568
100
AcDbEntity
  8
0
100
AcDbLine
 62
7
  6
CONTINUOUS
 10
6.1844556606
 20
4.5679363359
 11
6.1844556606
 21
4.5753182256
  0
LINE
  5
569
100
AcDbEntity
  8
0
100
AcDbLine
 62
7
  6
CONTINUOUS
 10
6.1844556606
 20
4.626991454
 11
6.1844556606
 21
4.6343733437
  0
LINE
  5
56A
100
AcDbEntity
  8
0
100
AcDbLine
 62
7
  6
CONTINUOUS
 10
6.1844556606
 20
4.6860465721
 11
6.1844556606
 21
4.6934284619
  0
LINE
  5
56B
100
AcDbEntity
  8
0
100
AcDbLine
 62
7
  6
CONTINUOUS
 10
6.1844556606
 20
4.7451016902
 11
6.1844556606
 21
4.75248358
  0
LINE
  5
56C
100
AcDbEntity
  8
0
100
AcDbLine
 62
7
  6
CONTINUOUS
 10
6.1844556606
 20
4.8041568083
 11
6.1844556606
 21
4.8115386981
  0
LINE
  5
56D
100
AcDbEntity
  8
0
100
AcDbLine
 62
7
  6
CONTINUOUS
 10
6.1844556606
 20
4.8632119264
 11
6.1844556606
 21
4.8705938162
  0
LINE
  5
56E
100
AcDbEntity
  8
0
100
AcDbLine
 62
7
  6
CONTINUOUS
 10
6.1844556606
 20
4.9222670445
 11
6.1844556606
 21
4.9296489343
  0
LINE
  5
56F
100
AcDbEntity
  8
0
100
AcDbLine
 62
7
  6
CONTINUOUS
 10
6.1844556606
 20
4.9813221626
 11
6.1844556606
 21
4.9887040524
  0
LINE
  5
570
100
AcDbEntity
  8
0
100
AcDbLine
 62
7
  6
CONTINUOUS
 10
6.1844556606
 20
5.0403772808
 11
6.1844556606
 21
5.0477591705
  0
LWPOLYLINE
  5
571
100
AcDbEntity
  8
0
100
AcDbPolyline
 62
7
  6
CONTINUOUS
 90
16
 70
0
 10
5.0114530722
 20
4.6051065513
 10
5.0139350849
 20
4.6057492044
 10
5.0229004531
 20
4.6067239467
 10
5.0380439691
 20
4.607698689
 10
5.0592029049
 20
4.6086734312
 10
5.0861498931
 20
4.6096481735
 10
5.118595369
 20
4.6106229158
 10
5.1561906831
 20
4.6115976581
 10
5.1985318473
 20
4.6125724004
 10
5.2451638758
 20
4.6135471427
 10
5.2955856744
 20
4.614521885
 10
5.3492554254
 20
4.6154966273
 10
5.4055964092
 20
4.6164713695
 10
5.4640032024
 20
4.6174461118
 10
5.5238481824
 20
4.6184208541
 10
5.645271853
 20
4.6203703387
  0
LWPOLYLINE
  5
572
100
AcDbEntity
  8
0
100
AcDbPolyline
 62
7
  6
CONTINUOUS
 90
16
 70
0
 10
5.0114530722
 20
4.6641616694
 10
5.0168949757
 20
4.6652084839
 10
5.0284375367
 20
4.6661832262
 10
5.0460987456
 20
4.6671579685
 10
5.0696888202
 20
4.6681327108
 10
5.0989542684
 20
4.6691074531
 10
5.1335806124
 20
4.6700821954
 10
5.1731957676
 20
4.6710569376
 10
5.2173740411
 20
4.6720316799
 10
5.2656407063
 20
4.6730064222
 10
5.3174771036
 20
4.6739811645
 10
5.3723262144
 20
4.6749559068
 10
5.4295986461
 20
4.6759306491
 10
5.4886789661
 20
4.6769053914
 10
5.5489323145
 20
4.6778801337
 10
5.6703625898
 20
4.6798296182
  0
LINE
  5
573
100
AcDbEntity
  8
0
100
AcDbLine
 62
7
  6
CONTINUOUS
 10
5.4274143
 20
4.8250362537
 11
5.4907127044
 21
4.8261513264
  0
LINE
  5
574
100
AcDbEntity
  8
0
100
AcDbLine
 62
7
  6
CONTINUOUS
 10
5.4907127044
 20
4.8261513264
 11
5.5402158549
 21
4.8270064044
  0
LWPOLYLINE
  5
575
100
AcDbEntity
  8
0
100
AcDbPolyline
 62
7
  6
CONTINUOUS
 90
16
 70
0
 10
5.6553280413
 20
4.7591591583
 10
5.5402593577
 20
4.7571933899
 10
5.4832863394
 20
4.756209319
 10
5.427610153
 20
4.7552260048
 10
5.3737402494
 20
4.7542416593
 10
5.3224121522
 20
4.7532590077
 10
5.2740842535
 20
4.7522761945
 10
5.2291972396
 20
4.7512911816
 10
5.1883095911
 20
4.7503050012
 10
5.1520310589
 20
4.7493218553
 10
5.1205918567
 20
4.7483375471
 10
5.0944154489
 20
4.7473546359
 10
5.0737151087
 20
4.746370371
 10
5.0587753486
 20
4.7453875781
 10
5.0497163704
 20
4.7444035119
 10
5.0469006376
 20
4.7436908346
  0
LWPOLYLINE
  5
576
100
AcDbEntity
  8
0
100
AcDbPolyline
 62
7
  6
CONTINUOUS
 90
16
 70
0
 10
5.5402688434
 20
4.7679521949
 10
5.6554454211
 20
4.7699198132
 10
5.7124979629
 20
4.7709052767
 10
5.7681390474
 20
4.7718880118
 10
5.8219511684
 20
4.7728713275
 10
5.8732876698
 20
4.7738541532
 10
5.9216861021
 20
4.774838476
 10
5.9664666195
 20
4.7758212092
 10
6.007285305
 20
4.7768055842
 10
6.043548748
 20
4.7777879829
 10
6.0749740903
 20
4.7787712946
 10
6.1013078209
 20
4.7797598813
 10
6.1220869495
 20
4.7807490273
 10
6.1370084323
 20
4.7817335122
 10
6.1460289357
 20
4.782719477
 10
6.148782337
 20
4.7834219946
  0
LWPOLYLINE
  5
577
100
AcDbEntity
  8
0
100
AcDbPolyline
 62
7
  6
CONTINUOUS
 90
16
 70
0
 10
5.6554454211
 20
4.818216289
 10
5.5402688434
 20
4.8162486706
 10
5.4833049577
 20
4.8152647617
 10
5.4276373733
 20
4.814281611
 10
5.3737749392
 20
4.8132974249
 10
5.3224426627
 20
4.8123147264
 10
5.2740424504
 20
4.8113304318
 10
5.2292581548
 20
4.8103476968
 10
5.1884375995
 20
4.8093633802
 10
5.1521528028
 20
4.8083805028
 10
5.1206601067
 20
4.8073949911
 10
5.0944255338
 20
4.8064101763
 10
5.0737518288
 20
4.8054275119
 10
5.0588011695
 20
4.8044448068
 10
5.0497304374
 20
4.8034609084
 10
5.0469006376
 20
4.8027459527
  0
LWPOLYLINE
  5
578
100
AcDbEntity
  8
0
100
AcDbPolyline
 62
7
  6
CONTINUOUS
 90
16
 70
0
 10
5.5402158549
 20
4.8270064044
 10
5.6555343798
 20
4.8289764566
 10
5.7129084252
 20
4.8299675512
 10
5.7690017256
 20
4.8309586015
 10
5.8229046288
 20
4.8319442493
 10
5.8741489043
 20
4.8329262352
 10
5.9224570948
 20
4.8339098517
 10
5.9671449974
 20
4.8348918987
 10
6.0078689568
 20
4.835875582
 10
6.0440505942
 20
4.8368576628
 10
6.075422797
 20
4.8378417177
 10
6.1015302024
 20
4.8388243272
 10
6.1221422022
 20
4.8398071982
 10
6.1370183738
 20
4.8407894469
 10
6.146016996
 20
4.8417726409
 10
6.148782337
 20
4.8424771127
  0
LWPOLYLINE
  5
579
100
AcDbEntity
  8
0
100
AcDbPolyline
 62
7
  6
CONTINUOUS
 90
16
 70
0
 10
5.6555343798
 20
4.8772729324
 10
5.5402158549
 20
4.8753028802
 10
5.4830983945
 20
4.8743162787
 10
5.4274143
 20
4.8733327294
 10
5.3736446667
 20
4.8723501114
 10
5.3223168122
 20
4.8713673669
 10
5.273926521
 20
4.8703831068
 10
5.2291543312
 20
4.8694004335
 10
5.1883442288
 20
4.8684161199
 10
5.1520873116
 20
4.8674337225
 10
5.1206983358
 20
4.8664514115
 10
5.0944128945
 20
4.8654647651
 10
5.0736453701
 20
4.8644767619
 10
5.0587118012
 20
4.8634926106
 10
5.0496699701
 20
4.8625061951
 10
5.0469006376
 20
4.8618010709
  0
LWPOLYLINE
  5
57A
100
AcDbEntity
  8
0
100
AcDbPolyline
 62
7
  6
CONTINUOUS
 90
15
 70
0
 10
5.6600447085
 20
4.7903915453
 10
5.720095695
 20
4.7913662876
 10
5.7788329737
 20
4.7923410299
 10
5.835625371
 20
4.7933157721
 10
5.8898626123
 20
4.7942905144
 10
5.9409618803
 20
4.7952652567
 10
5.9883740772
 20
4.796239999
 10
6.0315897254
 20
4.7972147413
 10
6.0701444423
 20
4.7981894836
 10
6.1036239301
 20
4.7991642259
 10
6.1316684281
 20
4.8001389682
 10
6.1539765784
 20
4.8011137104
 10
6.1703086641
 20
4.8020884527
 10
6.1804891854
 20
4.803063195
 10
6.1842299025
 20
4.8038960417
  0
LWPOLYLINE
  5
57B
100
AcDbEntity
  8
0
100
AcDbPolyline
 62
7
  6
CONTINUOUS
 90
16
 70
0
 10
5.6600447085
 20
4.797773435
 10
5.720095695
 20
4.7987481773
 10
5.7788329737
 20
4.7997229196
 10
5.835625371
 20
4.8006976619
 10
5.8898626123
 20
4.8016724042
 10
5.9409618803
 20
4.8026471465
 10
5.9883740772
 20
4.8036218888
 10
6.0315897254
 20
4.8045966311
 10
6.0701444423
 20
4.8055713733
 10
6.1036239301
 20
4.8065461156
 10
6.1316684281
 20
4.8075208579
 10
6.1539765784
 20
4.8084956002
 10
6.1703086641
 20
4.8094703425
 10
6.1804891854
 20
4.8104450848
 10
6.1844087454
 20
4.8114198271
 10
6.1844556606
 20
4.8115386981
  0
LINE
  5
57C
100
AcDbEntity
  8
0
100
AcDbLine
 62
7
  6
CONTINUOUS
 10
6.1842299025
 20
4.5165238741
 11
6.1490826837
 21
4.5368244419
  0
LINE
  5
57D
100
AcDbEntity
  8
0
100
AcDbLine
 62
7
  6
CONTINUOUS
 10
6.1842299025
 20
4.5755789922
 11
6.1490826837
 21
4.59587956
  0
LINE
  5
57E
100
AcDbEntity
  8
0
100
AcDbLine
 62
7
  6
CONTINUOUS
 10
6.1842299025
 20
4.6346341103
 11
6.1490826837
 21
4.6549346781
  0
LINE
  5
57F
100
AcDbEntity
  8
0
100
AcDbLine
 62
7
  6
CONTINUOUS
 10
6.1844556606
 20
4.3390977532
 11
6.1842299025
 21
4.3393585198
  0
LINE
  5
580
100
AcDbEntity
  8
0
100
AcDbLine
 62
7
  6
CONTINUOUS
 10
6.1844556606
 20
4.3981528713
 11
6.1842299025
 21
4.3984136379
  0
LINE
  5
581
100
AcDbEntity
  8
0
100
AcDbLine
 62
7
  6
CONTINUOUS
 10
6.1844556606
 20
4.4572079894
 11
6.1842299025
 21
4.457468756
  0
LINE
  5
582
100
AcDbEntity
  8
0
100
AcDbLine
 62
7
  6
CONTINUOUS
 10
6.1844556606
 20
4.5162631075
 11
6.1842299025
 21
4.5165238741
  0
LWPOLYLINE
  5
583
100
AcDbEntity
  8
0
100
AcDbPolyline
 62
7
  6
CONTINUOUS
 90
15
 70
0
 10
5.0114530722
 20
4.9003821418
 10
5.0143594142
 20
4.901093065
 10
5.023722268
 20
4.9020647548
 10
5.0392158938
 20
4.9030364446
 10
5.0606748417
 20
4.9040081344
 10
5.087869961
 20
4.9049798242
 10
5.1205108465
 20
4.9059515139
 10
5.1582489404
 20
4.9069232037
 10
5.2006812538
 20
4.9078948935
 10
5.2473546703
 20
4.9088665833
 10
5.2977707847
 20
4.9098382731
 10
5.3513912248
 20
4.9108099628
 10
5.4076434011
 20
4.9117816526
 10
5.4659266209
 20
4.9127533424
 10
5.5256185028
 20
4.9137250322
  0
LWPOLYLINE
  5
584
100
AcDbEntity
  8
0
100
AcDbPolyline
 62
7
  6
CONTINUOUS
 90
16
 70
0
 10
5.0114530722
 20
4.7822719056
 10
5.0155457652
 20
4.7831523007
 10
5.0260294429
 20
4.784127043
 10
5.042657645
 20
4.7851017853
 10
5.0652516899
 20
4.7860765276
 10
5.0935687886
 20
4.7870512699
 10
5.1273046538
 20
4.7880260122
 10
5.1660967698
 20
4.7890007545
 10
5.2095282879
 20
4.7899754967
 10
5.2571325058
 20
4.790950239
 10
5.3083978825
 20
4.7919249813
 10
5.3627735352
 20
4.7928997236
 10
5.4196751593
 20
4.7938744659
 10
5.4784913064
 20
4.7948492082
 10
5.5385899556
 20
4.7958239505
 10
5.6600447085
 20
4.797773435
  0
LWPOLYLINE
  5
585
100
AcDbEntity
  8
0
100
AcDbPolyline
 62
7
  6
CONTINUOUS
 90
31
 70
0
 10
5.0123079222
 20
4.841636838
 10
5.0191382392
 20
4.8426115803
 10
5.0321871315
 20
4.8435863226
 10
5.0513143797
 20
4.8445610648
 10
5.0763144479
 20
4.8455358071
 10
5.1069186927
 20
4.8465105494
 10
5.1427982499
 20
4.8474852917
 10
5.1835675682
 20
4.848460034
 10
5.2287885526
 20
4.8494347763
 10
5.2779752716
 20
4.8504095186
 10
5.3305991791
 20
4.8513842609
 10
5.3860947941
 20
4.8523590032
 10
5.443865777
 20
4.8533337454
 10
5.5032913377
 20
4.8543084877
 10
5.5637329066
 20
4.85528323
 10
5.6245409963
 20
4.8562579723
 10
5.6850621808
 20
4.8572327146
 10
5.7446461174
 20
4.8582074569
 10
5.8026525345
 20
4.8591821992
 10
5.8584581122
 20
4.8601569415
 10
5.91146318
 20
4.8611316837
 10
5.9610981611
 20
4.862106426
 10
6.0068296925
 20
4.8630811683
 10
6.0481663566
 20
4.8640559106
 10
6.0846639618
 20
4.8650306529
 10
6.1159303154
 20
4.8660053952
 10
6.1416294384
 20
4.8669801375
 10
6.1614851755
 20
4.8679548798
 10
6.1752841629
 20
4.868929622
 10
6.1828781206
 20
4.8699043643
 10
6.1844556606
 20
4.8705938162
  0
LWPOLYLINE
  5
586
100
AcDbEntity
  8
0
100
AcDbPolyline
 62
7
  6
CONTINUOUS
 90
16
 70
0
 10
5.5403755066
 20
4.8860642599
 10
5.6553721104
 20
4.8880287924
 10
5.7122956662
 20
4.8890119863
 10
5.7679251855
 20
4.8899944138
 10
5.8217538464
 20
4.8909778811
 10
5.8730342904
 20
4.8919594019
 10
5.9213421113
 20
4.8929414652
 10
5.9663025485
 20
4.8939276829
 10
6.0072165499
 20
4.8949140693
 10
6.0435047402
 20
4.8958969437
 10
6.0750657082
 20
4.8968846523
 10
6.1014185066
 20
4.8978747577
 10
6.1221331508
 20
4.898861816
 10
6.1370020339
 20
4.899843223
 10
6.1460088324
 20
4.9008264251
 10
6.148782337
 20
4.9015322308
  0
LWPOLYLINE
  5
587
100
AcDbEntity
  8
0
100
AcDbPolyline
 62
7
  6
CONTINUOUS
 90
16
 70
0
 10
5.6553721104
 20
4.9363252682
 10
5.5403755066
 20
4.9343607357
 10
5.4835040196
 20
4.933378468
 10
5.4276776319
 20
4.932392569
 10
5.3737731651
 20
4.931407628
 10
5.3224016025
 20
4.9304241543
 10
5.2737561308
 20
4.9294346334
 10
5.228646585
 20
4.9284438975
 10
5.1878010472
 20
4.9274573887
 10
5.1516436261
 20
4.9264759655
 10
5.1202841091
 20
4.9254924014
 10
5.0941856075
 20
4.924510353
 10
5.0735557923
 20
4.9235269336
 10
5.0586743573
 20
4.9225446562
 10
5.0496707358
 20
4.9215614383
 10
5.0469006376
 20
4.920856189
  0
LWPOLYLINE
  5
588
100
AcDbEntity
  8
0
100
AcDbPolyline
 62
7
  6
CONTINUOUS
 90
16
 70
0
 10
5.5402747873
 20
4.9451176511
 10
5.6553733583
 20
4.9470839319
 10
5.7123365748
 20
4.9480678175
 10
5.7679878195
 20
4.9490506548
 10
5.8218400262
 20
4.9500346075
 10
5.8732052705
 20
4.9510178854
 10
5.9217019025
 20
4.9520041633
 10
5.9665523179
 20
4.9529885294
 10
6.0072945608
 20
4.9539711743
 10
6.0435597488
 20
4.9549536561
 10
6.0750130864
 20
4.9559379774
 10
6.1012029874
 20
4.9569208456
 10
6.121916675
 20
4.9579049929
 10
6.1368768692
 20
4.9588880917
 10
6.1459382953
 20
4.9598700917
 10
6.148782337
 20
4.9605873489
  0
LWPOLYLINE
  5
589
100
AcDbEntity
  8
0
100
AcDbPolyline
 62
7
  6
CONTINUOUS
 90
16
 70
0
 10
5.6553733583
 20
4.9953804077
 10
5.5402747873
 20
4.9934141269
 10
5.4833166242
 20
4.9924303194
 10
5.427654436
 20
4.9914472712
 10
5.3737964733
 20
4.9904631811
 10
5.322448584
 20
4.9894801973
 10
5.2740091244
 20
4.9884950839
 10
5.2292208185
 20
4.9875121948
 10
5.1884343074
 20
4.9865286507
 10
5.152160957
 20
4.9855460935
 10
5.1207040348
 20
4.9845618419
 10
5.0945093655
 20
4.9835790399
 10
5.0737899012
 20
4.9825949621
 10
5.0588229147
 20
4.9816119368
 10
5.0497495734
 20
4.980629354
 10
5.0469006376
 20
4.9799113071
  0
LWPOLYLINE
  5
58A
100
AcDbEntity
  8
0
100
AcDbPolyline
 62
7
  6
CONTINUOUS
 90
16
 70
0
 10
5.5402688084
 20
5.0041726667
 10
5.6553771332
 20
5.0061391148
 10
5.7122693425
 20
5.0071217636
 10
5.7680469766
 20
5.0081068335
 10
5.8219548095
 20
5.0090918679
 10
5.8732941664
 20
5.0100747536
 10
5.9216896179
 20
5.0110590225
 10
5.9664696517
 20
5.0120417512
 10
6.0072862355
 20
5.0130260803
 10
6.0435583135
 20
5.0140087326
 10
6.0750117847
 20
5.0149930511
 10
6.1012018884
 20
5.0159759177
 10
6.1219158112
 20
5.0169600635
 10
6.1368767749
 20
5.0179432021
 10
6.1459536058
 20
5.0189276842
 10
6.148782337
 20
5.019642467
  0
LWPOLYLINE
  5
58B
100
AcDbEntity
  8
0
100
AcDbPolyline
 62
7
  6
CONTINUOUS
 90
16
 70
0
 10
5.6602122088
 20
4.9749414884
 10
5.720074116
 20
4.9759131782
 10
5.7786307536
 20
4.9768848679
 10
5.8352568204
 20
4.9778565577
 10
5.8893476312
 20
4.9788282475
 10
5.9403255733
 20
4.9797999373
 10
5.9876462754
 20
4.9807716271
 10
6.03080442
 20
4.9817433168
 10
6.0693391399
 20
4.9827150066
 10
6.1028389395
 20
4.9836866964
 10
6.1309460886
 20
4.9846583862
 10
6.1533604434
 20
4.985630076
 10
6.1698426504
 20
4.9866017657
 10
6.1802167033
 20
4.9875734555
 10
6.1843718221
 20
4.9885451453
 10
6.1844556606
 20
4.9887040524
  0
LWPOLYLINE
  5
58C
100
AcDbEntity
  8
0
100
AcDbPolyline
 62
7
  6
CONTINUOUS
 90
15
 70
0
 10
5.6445859193
 20
4.9082530137
 10
5.7045533804
 20
4.9092226092
 10
5.7633862137
 20
4.9101922047
 10
5.8204588712
 20
4.9111618002
 10
5.8751645207
 20
4.9121313957
 10
5.9269214973
 20
4.9131009912
 10
5.9751794882
 20
4.9140705867
 10
6.0194253841
 20
4.9150401822
 10
6.0591887349
 20
4.9160097777
 10
6.0940467515
 20
4.9169793733
 10
6.1236288017
 20
4.9179489688
 10
6.1476203504
 20
4.9189185643
 10
6.1657663044
 20
4.9198881598
 10
6.1778737245
 20
4.9208577553
 10
6.1838138771
 20
4.9218273508
  0
LWPOLYLINE
  5
58D
100
AcDbEntity
  8
0
100
AcDbPolyline
 62
7
  6
CONTINUOUS
 90
17
 70
0
 10
5.5256185028
 20
4.9137250322
 10
5.6466703213
 20
4.9156684117
 10
5.7067375978
 20
4.9166401015
 10
5.7656420195
 20
4.9176117913
 10
5.8227545717
 20
4.9185834811
 10
5.8774653739
 20
4.9195551709
 10
5.929190193
 20
4.9205268606
 10
5.977376682
 20
4.9214985504
 10
6.021510278
 20
4.9224702402
 10
6.0611196975
 20
4.92344193
 10
6.0957819685
 20
4.9244136198
 10
6.1251269475
 20
4.9253853095
 10
6.1488412722
 20
4.9263569993
 10
6.1666717074
 20
4.9273286891
 10
6.1784278496
 20
4.9283003789
 10
6.1839841601
 20
4.9292720687
 10
6.1844556606
 20
4.9296489343
  0
LWPOLYLINE
  5
58E
100
AcDbEntity
  8
0
100
AcDbPolyline
 62
7
  6
CONTINUOUS
 90
16
 70
0
 10
5.5293912982
 20
4.9654591488
 10
5.6501959298
 20
4.9673983398
 10
5.7100845939
 20
4.9683679353
 10
5.7687798187
 20
4.9693375308
 10
5.8256575196
 20
4.9703071264
 10
5.8801129372
 20
4.9712767219
 10
5.9315670672
 20
4.9722463174
 10
5.979472817
 20
4.9732159129
 10
6.0233208223
 20
4.9741855084
 10
6.0626448638
 20
4.9751551039
 10
6.0970268233
 20
4.9761246994
 10
6.1261011304
 20
4.9770942949
 10
6.1495586487
 20
4.9780638904
 10
6.1671499631
 20
4.979033486
 10
6.1786880317
 20
4.9800030815
 10
6.1842299025
 20
4.9810613961
  0
LWPOLYLINE
  5
58F
100
AcDbEntity
  8
0
100
AcDbPolyline
 62
7
  6
CONTINUOUS
 90
16
 70
0
 10
5.534986057
 20
5.024604475
 10
5.6558011176
 20
5.026543666
 10
5.715605468
 20
5.0275132615
 10
5.7741576777
 20
5.028482857
 10
5.8308351828
 20
5.0294524525
 10
5.8850353523
 20
5.030422048
 10
5.936181896
 20
5.0313916435
 10
5.9837309916
 20
5.0323612391
 10
6.0271770674
 20
5.0333308346
 10
6.0660581771
 20
5.0343004301
 10
6.0999609126
 20
5.0352700256
 10
6.1285247984
 20
5.0362396211
 10
6.1514461255
 20
5.0372092166
 10
6.1684811799
 20
5.0381788121
 10
6.1794488341
 20
5.0391484076
 10
6.1842299025
 20
5.0401165142
  0
LINE
  5
590
100
AcDbEntity
  8
0
100
AcDbLine
 62
7
  6
CONTINUOUS
 10
6.1842299025
 20
4.6936892285
 11
6.1490826837
 21
4.7139897962
  0
LINE
  5
591
100
AcDbEntity
  8
0
100
AcDbLine
 62
7
  6
CONTINUOUS
 10
6.1842299025
 20
4.7527443466
 11
6.1490826837
 21
4.7730449143
  0
LINE
  5
592
100
AcDbEntity
  8
0
100
AcDbLine
 62
7
  6
CONTINUOUS
 10
6.1844556606
 20
4.5753182256
 11
6.1842299025
 21
4.5755789922
  0
LINE
  5
593
100
AcDbEntity
  8
0
100
AcDbLine
 62
7
  6
CONTINUOUS
 10
6.1844556606
 20
4.6343733437
 11
6.1842299025
 21
4.6346341103
  0
LINE
  5
594
100
AcDbEntity
  8
0
100
AcDbLine
 62
7
  6
CONTINUOUS
 10
6.1844556606
 20
4.6934284619
 11
6.1842299025
 21
4.6936892285
  0
LWPOLYLINE
  5
595
100
AcDbEntity
  8
0
100
AcDbPolyline
 62
7
  6
CONTINUOUS
 90
15
 70
0
 10
5.0112273141
 20
4.9517946036
 10
5.0149525842
 20
4.9528544072
 10
5.0248484776
 20
4.9538240027
 10
5.0408367932
 20
4.9547935982
 10
5.062747533
 20
4.9557631937
 10
5.0903477283
 20
4.9567327892
 10
5.1233439165
 20
4.9577023847
 10
5.1613852613
 20
4.9586719802
 10
5.2040672832
 20
4.9596415757
 10
5.2509361602
 20
4.9606111712
 10
5.3014935528
 20
4.9615807668
 10
5.3552019031
 20
4.9625503623
 10
5.41149015
 20
4.9635199578
 10
5.4697598016
 20
4.9644895533
 10
5.5293912982
 20
4.9654591488
  0
LWPOLYLINE
  5
596
100
AcDbEntity
  8
0
100
AcDbPolyline
 62
7
  6
CONTINUOUS
 90
16
 70
0
 10
5.0114530722
 20
4.9594372599
 10
5.0159200326
 20
4.9603661417
 10
5.0266691165
 20
4.9613378314
 10
5.0435175043
 20
4.9623095212
 10
5.0662852791
 20
4.963281211
 10
5.0947293138
 20
4.9642529008
 10
5.1285458667
 20
4.9652245906
 10
5.1673738255
 20
4.9661962803
 10
5.210798563
 20
4.9671679701
 10
5.2583563653
 20
4.9681396599
 10
5.309539383
 20
4.9691113497
 10
5.3638010547
 20
4.9700830395
 10
5.4205619435
 20
4.9710547292
 10
5.4792159241
 20
4.972026419
 10
5.539136656
 20
4.9729981088
 10
5.6602122088
 20
4.9749414884
  0
LWPOLYLINE
  5
597
100
AcDbEntity
  8
0
100
AcDbPolyline
 62
7
  6
CONTINUOUS
 90
16
 70
0
 10
5.0118581219
 20
5.0186675285
 10
5.0177935738
 20
5.0196392183
 10
5.0299231076
 20
5.0206109081
 10
5.0481171973
 20
5.0215825979
 10
5.0721815558
 20
5.0225542876
 10
5.1018592105
 20
5.0235259774
 10
5.1368332463
 20
5.0244976672
 10
5.1767301905
 20
5.025469357
 10
5.221124001
 20
5.0264410468
 10
5.2695406153
 20
5.0274127365
 10
5.3214630132
 20
5.0283844263
 10
5.3763367378
 20
5.0293561161
 10
5.4335758163
 20
5.0303278059
 10
5.4925690171
 20
5.0312994957
 10
5.5526863773
 20
5.0322711854
 10
5.6737205571
 20
5.034214565
  0
LINE
  5
598
100
AcDbEntity
  8
0
100
AcDbLine
 62
7
  6
CONTINUOUS
 10
5.0444714595
 20
5.0730842505
 11
5.0674603469
 21
5.074053846
  0
LWPOLYLINE
  5
599
100
AcDbEntity
  8
0
100
AcDbPolyline
 62
7
  6
CONTINUOUS
 90
16
 70
0
 10
5.6552663284
 20
5.0544336907
 10
5.5402688084
 20
5.0524691425
 10
5.483304889
 20
5.051485233
 10
5.4276372575
 20
5.0505020813
 10
5.3737753277
 20
5.0495179046
 10
5.3224769795
 20
5.0485358744
 10
5.2740751277
 20
5.0475515928
 10
5.2290230595
 20
5.0465627761
 10
5.1880804803
 20
5.0455747524
 10
5.1518126104
 20
5.0445911083
 10
5.1203084031
 20
5.0436034672
 10
5.0940380877
 20
5.042614392
 10
5.0734136377
 20
5.0416293037
 10
5.0585835543
 20
5.0406474216
 10
5.0496207777
 20
5.0396634783
 10
5.0469006376
 20
5.0389664252
  0
LWPOLYLINE
  5
59A
100
AcDbEntity
  8
0
100
AcDbPolyline
 62
7
  6
CONTINUOUS
 90
11
 70
0
 10
5.540130075
 20
5.063225406
 10
5.6555134272
 20
5.0651965698
 10
5.7127396861
 20
5.0661850816
 10
5.7685722017
 20
5.0671713696
 10
5.8223100531
 20
5.0681536176
 10
5.8736340472
 20
5.0691365643
 10
5.922014889
 20
5.070120997
 10
5.9667759304
 20
5.0711038968
 10
6.0075692948
 20
5.0720884115
 10
6.0438084056
 20
5.0730711039
 10
6.0751783241
 20
5.074053846
  0
LWPOLYLINE
  5
59B
100
AcDbEntity
  8
0
100
AcDbPolyline
 62
7
  6
CONTINUOUS
 90
15
 70
0
 10
5.6737205571
 20
5.034214565
 10
5.7333449048
 20
5.0351862548
 10
5.7915222699
 20
5.0361579446
 10
5.8476314013
 20
5.0371296343
 10
5.9010731337
 20
5.0381013241
 10
5.951276786
 20
5.0390730139
 10
5.997706255
 20
5.0400447037
 10
6.0398657403
 20
5.0410163935
 10
6.0773050389
 20
5.0419880833
 10
6.1096243527
 20
5.042959773
 10
6.1364785577
 20
5.0439314628
 10
6.1575808894
 20
5.0449031526
 10
6.1727060051
 20
5.0458748424
 10
6.1816923901
 20
5.0468465322
 10
6.1844556606
 20
5.0477591705
  0
LINE
  5
59C
100
AcDbEntity
  8
0
100
AcDbLine
 62
7
  6
CONTINUOUS
 10
6.0751783241
 20
5.074053846
 11
5.0112307125
 21
5.074053846
  0
LINE
  5
59D
100
AcDbEntity
  8
0
100
AcDbLine
 62
9
  6
CONTINUOUS
 10
5.046660385
 20
5.0937388854
 11
6.1490225897
 21
5.0937388854
  0
LINE
  5
59E
100
AcDbEntity
  8
0
100
AcDbLine
 62
7
  6
CONTINUOUS
 10
6.5427233771
 20
5.1331089641
 11
4.6529595976
 21
5.1331089641
  0
LINE
  5
59F
100
AcDbEntity
  8
0
100
AcDbLine
 62
9
  6
CONTINUOUS
 10
4.6135895188
 20
5.1724790429
 11
6.5820934558
 21
5.1724790429
  0
LINE
  5
5A0
100
AcDbEntity
  8
0
100
AcDbLine
 62
7
  6
CONTINUOUS
 10
6.1842299025
 20
4.8117994647
 11
6.1490826837
 21
4.8321000324
  0
LINE
  5
5A1
100
AcDbEntity
  8
0
100
AcDbLine
 62
7
  6
CONTINUOUS
 10
6.1842299025
 20
4.8708545828
 11
6.1490826837
 21
4.8911551505
  0
LINE
  5
5A2
100
AcDbEntity
  8
0
100
AcDbLine
 62
7
  6
CONTINUOUS
 10
6.1842299025
 20
4.9299097009
 11
6.1490826837
 21
4.9502102686
  0
LINE
  5
5A3
100
AcDbEntity
  8
0
100
AcDbLine
 62
7
  6
CONTINUOUS
 10
6.1844556606
 20
4.75248358
 11
6.1842299025
 21
4.7527443466
  0
LINE
  5
5A4
100
AcDbEntity
  8
0
100
AcDbLine
 62
7
  6
CONTINUOUS
 10
6.1844556606
 20
4.8115386981
 11
6.1842299025
 21
4.8117994647
  0
LINE
  5
5A5
100
AcDbEntity
  8
0
100
AcDbLine
 62
7
  6
CONTINUOUS
 10
6.1844556606
 20
4.8705938162
 11
6.1842299025
 21
4.8708545828
  0
LINE
  5
5A6
100
AcDbEntity
  8
0
100
AcDbLine
 62
7
  6
CONTINUOUS
 10
6.1844556606
 20
4.9296489343
 11
6.1842299025
 21
4.9299097009
  0
LINE
  5
5A7
100
AcDbEntity
  8
AXIS
100
AcDbLine
 62
7
  6
CONTINUOUS
 10
6.5820934558
 20
5.605549909
 11
6.5780466763
 21
6.0692649185
  0
LINE
  5
5A8
100
AcDbEntity
  8
02___PRT_ALL_AXES
100
AcDbLine
 62
7
  6
CONTINUOUS
 10
6.5820934558
 20
5.605549909
 11
6.5820934558
 21
5.1724790429
  0
LWPOLYLINE
  5
5A9
100
AcDbEntity
  8
0
100
AcDbPolyline
 62
7
  6
CONTINUOUS
 90
10
 70
0
 10
6.5820934558
 20
5.1724790429
 10
6.5816074055
 20
5.1642161868
 10
6.5801492544
 20
5.1569254315
 10
6.5777190026
 20
5.1506067769
 10
6.5743166502
 20
5.145260223
 10
6.569942197
 20
5.1408857698
 10
6.5645956431
 20
5.1374834173
 10
6.5582769884
 20
5.1350531656
 10
6.5509862331
 20
5.1335950145
 10
6.5427233771
 20
5.1331089641
  0
LINE
  5
5AA
100
AcDbEntity
  8
0
100
AcDbLine
 62
7
  6
CONTINUOUS
 10
6.1842299025
 20
4.988964819
 11
6.1490826837
 21
5.0092653867
  0
LINE
  5
5AB
100
AcDbEntity
  8
0
100
AcDbLine
 62
7
  6
CONTINUOUS
 10
6.1842299025
 20
5.0480199371
 11
6.1490826837
 21
5.0683205049
  0
LINE
  5
5AC
100
AcDbEntity
  8
0
100
AcDbLine
 62
7
  6
CONTINUOUS
 10
6.1844556606
 20
4.9887040524
 11
6.1842299025
 21
4.988964819
  0
LINE
  5
5AD
100
AcDbEntity
  8
0
100
AcDbLine
 62
7
  6
CONTINUOUS
 10
6.1844556606
 20
5.0477591705
 11
6.1842299025
 21
5.0480199371
  0
LINE
  5
5AE
100
AcDbEntity
  8
02___PRT_ALL_AXES
100
AcDbLine
 62
7
  6
CONTINUOUS
 10
4.6135903136
 20
5.605549909
 11
6.582092661
 21
5.605549909
  0
LINE
  5
5AF
100
AcDbEntity
  8
AXIS
100
AcDbLine
 62
7
  6
CONTINUOUS
 10
4.6135895188
 20
5.605549909
 11
6.5820934558
 21
5.605549909
  0
LINE
  5
5B0
100
AcDbEntity
  8
0
100
AcDbLine
 62
9
  6
CONTINUOUS
 10
4.6176362984
 20
6.0692649185
 11
6.5780466763
 21
6.0692649185
  0
LINE
  5
5B1
100
AcDbEntity
  8
0
100
AcDbLine
 62
7
  6
CONTINUOUS
 10
4.7455841823
 20
6.1961010901
 11
6.4500987924
 21
6.1961010901
  0
LWPOLYLINE
  5
5B2
100
AcDbEntity
  8
02___PRT_ALL_AXES
100
AcDbPolyline
 62
7
  6
CONTINUOUS
 90
18
 70
0
 10
13.3029935859
 20
4.9498953845
 10
13.3145852576
 20
4.9440964712
 10
13.3274883752
 20
4.9393090044
 10
13.3414402685
 20
4.9356304432
 10
13.3561569171
 20
4.9331356725
 10
13.3713387327
 20
4.9318754786
 10
13.386676657
 20
4.9318755155
 10
13.4018584544
 20
4.9331357823
 10
13.4165750671
 20
4.9356306238
 10
13.4305269073
 20
4.939309252
 10
13.4434299559
 20
4.9440967809
 10
13.4550215439
 20
4.94989575
 10
13.4650657
 20
4.956588109
 10
13.4733579543
 20
4.9640376209
 10
13.4797295003
 20
4.9720926351
 10
13.4840506316
 20
4.9805891747
 10
13.4862333827
 20
4.9893542747
 10
13.4865062025
 20
4.9937816306
  0
LINE
  5
5B3
100
AcDbEntity
  8
02___PRT_ALL_AXES
100
AcDbLine
 62
7
  6
CONTINUOUS
 10
12.3944916606
 20
7.6716722699
 11
12.3946718741
 21
7.6607891385
  0
LINE
  5
5B4
100
AcDbEntity
  8
0
100
AcDbLine
 62
7
  6
CONTINUOUS
 10
12.3944912134
 20
7.3180776622
 11
12.3944912134
 21
7.3180728565
  0
LINE
  5
5B5
100
AcDbEntity
  8
02___PRT_ALL_AXES
100
AcDbLine
 62
7
  6
CONTINUOUS
 10
12.3944912134
 20
7.6716762655
 11
12.3944912134
 21
7.3180728565
  0
LINE
  5
5B6
100
AcDbEntity
  8
AXIS
100
AcDbLine
 62
7
  6
CONTINUOUS
 10
12.3945099525
 20
7.6751827631
 11
12.398556655
 21
8.0537927721
  0
LINE
  5
5B7
100
AcDbEntity
  8
02___PRT_ALL_AXES
100
AcDbLine
 62
7
  6
CONTINUOUS
 10
12.3946659561
 20
7.6751750004
 11
12.3944916606
 21
7.6716722699
  0
LWPOLYLINE
  5
5B8
100
AcDbEntity
  8
02___PRT_ALL_AXES
100
AcDbPolyline
 62
7
  6
CONTINUOUS
 90
9
 70
0
 10
12.3946718741
 20
7.6607891385
 10
12.3990028493
 20
7.6173299538
 10
12.4090833302
 20
7.5741896948
 10
12.4248541608
 20
7.5316215257
 10
12.4462227914
 20
7.4898752536
 10
12.4730638225
 20
7.4491958621
 10
12.5052197402
 20
7.409822074
 10
12.5425018408
 20
7.3719849505
 10
12.5846913381
 20
7.3359065348
  0
LWPOLYLINE
  5
5B9
100
AcDbEntity
  8
0
100
AcDbPolyline
 62
9
  6
CONTINUOUS
 90
7
 70
0
 10
12.398556655
 20
8.0537927721
 10
12.4036773681
 20
7.9924255851
 10
12.4264090858
 20
7.9163100926
 10
12.466880998
 20
7.842690582
 10
12.5243391371
 20
7.7729385085
 10
12.5977131917
 20
7.708353163
 10
12.6856363315
 20
7.6501376536
  0
LWPOLYLINE
  5
5BA
100
AcDbEntity
  8
0
100
AcDbPolyline
 62
9
  6
CONTINUOUS
 90
10
 70
0
 10
12.3944912134
 20
7.3180728565
 10
12.3967209427
 20
7.2798448826
 10
12.4066096294
 20
7.2291766327
 10
12.4243253639
 20
7.1792241229
 10
12.4497255094
 20
7.1303895414
 10
12.482605559
 20
7.0830660757
 10
12.5227007818
 20
7.0376347464
 10
12.5696883547
 20
6.9944613399
 10
12.6231899613
 20
6.953893463
 10
12.6827748382
 20
6.9162577444
  0
LWPOLYLINE
  5
5BB
100
AcDbEntity
  8
AXIS
100
AcDbPolyline
 62
7
  6
CONTINUOUS
 90
6
 70
0
 10
12.3945126813
 20
7.6751859188
 10
12.395840311
 20
7.641933995
 10
12.4066096294
 20
7.5827800416
 10
12.4280298465
 20
7.524600054
 10
12.4598662779
 20
7.468031464
 10
12.5017701169
 20
7.4136940491
  0
LWPOLYLINE
  5
5BC
100
AcDbEntity
  8
0
100
AcDbPolyline
 62
7
  6
CONTINUOUS
 90
11
 70
0
 10
12.3944912134
 20
7.3180776622
 10
12.3955019911
 20
7.2904510621
 10
12.4019757255
 20
7.2434734561
 10
12.4151226787
 20
7.1952713899
 10
12.4353255804
 20
7.1469780373
 10
12.4624852239
 20
7.0996915425
 10
12.4962262515
 20
7.0541855464
 10
12.5362868895
 20
7.0107395851
 10
12.5823801389
 20
6.9696049206
 10
12.634161463
 20
6.9310417424
 10
12.689734844
 20
6.8961663861
  0
LWPOLYLINE
  5
5BD
100
AcDbEntity
  8
0
100
AcDbPolyline
 62
7
  6
CONTINUOUS
 90
9
 70
0
 10
12.7921290087
 20
6.8063802505
 10
12.7949086862
 20
6.7741965083
 10
12.8039503645
 20
6.7402748787
 10
12.8191685979
 20
6.7070801814
 10
12.8403998557
 20
6.6749776694
 10
12.8674159929
 20
6.6443208589
 10
12.8999267022
 20
6.6154477314
 10
12.9375826329
 20
6.5886771013
 10
12.9799791455
 20
6.5643051904
  0
LWPOLYLINE
  5
5BE
100
AcDbEntity
  8
0
100
AcDbPolyline
 62
7
  6
CONTINUOUS
 90
31
 70
0
 10
12.7921290087
 20
6.8124075814
 10
12.7949086862
 20
6.7802238391
 10
12.8039503645
 20
6.7463022095
 10
12.8191685979
 20
6.7131075123
 10
12.8403998557
 20
6.6810050002
 10
12.8674159929
 20
6.6503481897
 10
12.8999267022
 20
6.6214750622
 10
12.9375826329
 20
6.5947044322
 10
12.9799791455
 20
6.5703325212
 10
13.0266606595
 20
6.548629775
 10
13.077125549
 20
6.5298379571
 10
13.1308315332
 20
6.5141675513
 10
13.1872015032
 20
6.5017954995
 10
13.2456297239
 20
6.4928633002
 10
13.3054883428
 20
6.4874754887
 10
13.3661341367
 20
6.4856985131
 10
13.4269154237
 20
6.4875600204
 10
13.487179066
 20
6.4930485598
 10
13.546277488
 20
6.5021137054
 10
13.6035756355
 20
6.5146665979
 10
13.6584577994
 20
6.5305809001
 10
13.710334232
 20
6.5496941537
 10
13.7586474845
 20
6.5718095257
 10
13.8028783968
 20
6.596697923
 10
13.8425516764
 20
6.6241004545
 10
13.877241006
 20
6.6537312128
 10
13.9065736241
 20
6.685280347
 10
13.9302343311
 20
6.7184173914
 10
13.947968876
 20
6.7527948175
 10
13.9595866885
 20
6.7880517677
 10
13.964962927
 20
6.8238179336
  0
LWPOLYLINE
  5
5BF
100
AcDbEntity
  8
0
100
AcDbPolyline
 62
7
  6
CONTINUOUS
 90
9
 70
0
 10
12.7921290087
 20
6.6617243105
 10
12.7936528189
 20
6.6378821917
 10
12.8011707164
 20
6.6038396405
 10
12.8148950383
 20
6.5704335985
 10
12.8346783069
 20
6.5380315895
 10
12.8603079372
 20
6.5069903483
 10
12.8915085205
 20
6.4776519873
 10
12.9279447846
 20
6.4503403201
 10
12.9692251961
 20
6.4253573823
  0
LWPOLYLINE
  5
5C0
100
AcDbEntity
  8
0
100
AcDbPolyline
 62
7
  6
CONTINUOUS
 90
28
 70
0
 10
12.7921290087
 20
6.6677516413
 10
12.7936528189
 20
6.6439095225
 10
12.8011707164
 20
6.6098669713
 10
12.8148950383
 20
6.5764609293
 10
12.8346783069
 20
6.5440589204
 10
12.8603079372
 20
6.5130176792
 10
12.8915085205
 20
6.4836793182
 10
12.9279447846
 20
6.456367651
 10
12.9692251961
 20
6.4313847131
 10
13.0149061678
 20
6.4090075162
 10
13.0644968253
 20
6.3894850713
 10
13.1174642819
 20
6.3730357131
 10
13.1732393651
 20
6.359844754
 10
13.2312227319
 20
6.3500624923
 10
13.2907913103
 20
6.3438025978
 10
13.3513049937
 20
6.3411408896
 10
13.4121135198
 20
6.342114522
 10
13.472563458
 20
6.3467215849
 10
13.5320052311
 20
6.3549211245
 10
13.5898000951
 20
6.3666335832
 10
13.6453270034
 20
6.3817416546
 10
13.6979892802
 20
6.4000915441
 10
13.747221032
 20
6.4214946215
 10
13.792493229
 20
6.4457294479
 10
13.8333193892
 20
6.4725441551
 10
13.8692608069
 20
6.5016591526
 10
13.899931266
 20
6.5327701314
 10
13.9250011908
 20
6.5655513343
  0
LWPOLYLINE
  5
5C1
100
AcDbEntity
  8
0
100
AcDbPolyline
 62
7
  6
CONTINUOUS
 90
3
 70
0
 10
12.7921290087
 20
6.7581616039
 10
12.7929964008
 20
6.7401682334
 10
12.7994447318
 20
6.7060542951
  0
LWPOLYLINE
  5
5C2
100
AcDbEntity
  8
0
100
AcDbPolyline
 62
7
  6
CONTINUOUS
 90
4
 70
0
 10
12.7921290087
 20
6.7641889347
 10
12.7929964008
 20
6.7461955643
 10
12.7994447318
 20
6.7120816259
 10
12.812118034
 20
6.6785406548
  0
LWPOLYLINE
  5
5C3
100
AcDbEntity
  8
0
100
AcDbPolyline
 62
7
  6
CONTINUOUS
 90
9
 70
0
 10
12.7924319153
 20
6.8452809257
 10
12.7925236159
 20
6.842460047
 10
12.7979003588
 20
6.8082856659
 10
12.8095186683
 20
6.7746205303
 10
12.8272536975
 20
6.7418349484
 10
12.8509148709
 20
6.7102897766
 10
12.8802479326
 20
6.6803325423
 10
12.9149376781
 20
6.6522937096
 10
12.9546113414
 20
6.6264831277
  0
LWPOLYLINE
  5
5C4
100
AcDbEntity
  8
0
100
AcDbPolyline
 62
7
  6
CONTINUOUS
 90
32
 70
0
 10
12.7921290087
 20
6.6135056638
 10
12.7923772468
 20
6.6038771952
 10
12.797294202
 20
6.5696802651
 10
12.8084592374
 20
6.5359652214
 10
12.8257523769
 20
6.5031029082
 10
12.8489877934
 20
6.4714550067
 10
12.8779158059
 20
6.4413701481
 10
12.9122255625
 20
6.413180168
 10
12.9515483806
 20
6.3871965397
 10
12.9954617088
 20
6.3637070281
 10
13.0434936672
 20
6.3429725968
 10
13.0951281187
 20
6.3252246042
 10
13.1498102144
 20
6.3106623174
 10
13.2069523567
 20
6.2994507707
 10
13.2659405128
 20
6.2917189924
 10
13.3261408132
 20
6.2875586181
 10
13.3869063633
 20
6.2870229064
 10
13.4475841943
 20
6.2901261661
 10
13.5075222799
 20
6.2968436028
 10
13.5660765431
 20
6.3071115851
 10
13.622617777
 20
6.3208283287
 10
13.676538406
 20
6.3378549897
 10
13.7272590148
 20
6.3580171569
 10
13.7742345747
 20
6.3811067259
 10
13.8169603001
 20
6.4068841352
 10
13.8549770728
 20
6.4350809405
 10
13.8878763758
 20
6.4654026997
 10
13.9153046829
 20
6.4975321362
 10
13.9369672574
 20
6.5311325488
 10
13.9526313197
 20
6.5658514297
 10
13.9621285484
 20
6.6013242522
 10
13.9653573551
 20
6.6376149872
  0
LWPOLYLINE
  5
5C5
100
AcDbEntity
  8
0
100
AcDbPolyline
 62
7
  6
CONTINUOUS
 90
31
 70
0
 10
12.7921290087
 20
6.6195329947
 10
12.7923772468
 20
6.6099045261
 10
12.797294202
 20
6.575707596
 10
12.8084592374
 20
6.5419925522
 10
12.8257523769
 20
6.509130239
 10
12.8489877934
 20
6.4774823375
 10
12.8779158059
 20
6.447397479
 10
12.9122255625
 20
6.4192074988
 10
12.9515483806
 20
6.3932238705
 10
12.9954617088
 20
6.3697343589
 10
13.0434936672
 20
6.3489999276
 10
13.0951281187
 20
6.3312519351
 10
13.1498102144
 20
6.3166896483
 10
13.2069523567
 20
6.3054781015
 10
13.2659405128
 20
6.2977463232
 10
13.3261408132
 20
6.2935859489
 10
13.3869063633
 20
6.2930502372
 10
13.4475841943
 20
6.2961534969
 10
13.5075222799
 20
6.3028709336
 10
13.5660765431
 20
6.313138916
 10
13.622617777
 20
6.3268556596
 10
13.676538406
 20
6.3438823206
 10
13.7272590148
 20
6.3640444878
 10
13.7742345747
 20
6.3871340567
 10
13.8169603001
 20
6.412911466
 10
13.8549770728
 20
6.4411082713
 10
13.8878763758
 20
6.4714300305
 10
13.9153046829
 20
6.503559467
 10
13.9369672574
 20
6.5371598796
 10
13.9526313197
 20
6.5718787605
 10
13.9621285484
 20
6.607351583
  0
LWPOLYLINE
  5
5C6
100
AcDbEntity
  8
0
100
AcDbPolyline
 62
7
  6
CONTINUOUS
 90
10
 70
0
 10
12.7921290087
 20
6.7099429572
 10
12.7921670379
 20
6.7061739962
 10
12.7960100999
 20
6.67193229
 10
12.8061150408
 20
6.6381085267
 10
12.8223732757
 20
6.6050747186
 10
12.8446100984
 20
6.5731943898
 10
12.8725865587
 20
6.5428186691
 10
12.9060020295
 20
6.5142825174
 10
12.9444974381
 20
6.4879011282
 10
12.9876591242
 20
6.4639665403
  0
LINE
  5
5C7
100
AcDbEntity
  8
0
100
AcDbLine
 62
7
  6
CONTINUOUS
 10
12.7921290087
 20
6.715970288
 11
12.7921670379
 21
6.712201327
  0
LINE
  5
5C8
100
AcDbEntity
  8
0
100
AcDbLine
 62
7
  6
CONTINUOUS
 10
12.793500477
 20
6.6402657914
 11
12.7921290087
 21
6.6195329947
  0
LINE
  5
5C9
100
AcDbEntity
  8
0
100
AcDbLine
 62
7
  6
CONTINUOUS
 10
12.7937734867
 20
6.7360571758
 11
12.7921290087
 21
6.715970288
  0
LINE
  5
5CA
100
AcDbEntity
  8
0
100
AcDbLine
 62
7
  6
CONTINUOUS
 10
12.7940902715
 20
6.8325024413
 11
12.7921290087
 21
6.8124075814
  0
LWPOLYLINE
  5
5CB
100
AcDbEntity
  8
0
100
AcDbPolyline
 62
7
  6
CONTINUOUS
 90
3
 70
0
 10
12.7940630606
 20
6.689280422
 10
12.7924221308
 20
6.6782142193
 10
12.7921290087
 20
6.6677516413
  0
LWPOLYLINE
  5
5CC
100
AcDbEntity
  8
0
100
AcDbPolyline
 62
7
  6
CONTINUOUS
 90
3
 70
0
 10
12.7938702463
 20
6.7862198035
 10
12.7928423329
 20
6.7805073392
 10
12.7921290087
 20
6.7641889347
  0
LWPOLYLINE
  5
5CD
100
AcDbEntity
  8
0
100
AcDbPolyline
 62
9
  6
CONTINUOUS
 90
21
 70
0
 10
12.9890009094
 20
6.3537038113
 10
13.03187546
 20
6.3314160451
 10
13.0785503662
 20
6.3118377959
 10
13.1285142493
 20
6.2951835669
 10
13.1812196925
 20
6.2816358259
 10
13.2360892408
 20
6.2713430051
 10
13.2925217356
 20
6.2644178739
 10
13.3498988913
 20
6.2609363054
 10
13.4075920714
 20
6.2609364446
 10
13.4649691766
 20
6.2644182898
 10
13.5214015719
 20
6.2713436934
 10
13.5762709719
 20
6.281636779
 10
13.6289762164
 20
6.2951847735
 10
13.6789398551
 20
6.3118392422
 10
13.7256144766
 20
6.3314177155
 10
13.7684887034
 20
6.3537056871
 10
13.807092797
 20
6.3784589658
 10
13.8410038023
 20
6.405406349
 10
13.8698501839
 20
6.4342525961
 10
13.8933158943
 20
6.4646816611
 10
13.9050298902
 20
6.4854962749
  0
LWPOLYLINE
  5
5CE
100
AcDbEntity
  8
0
100
AcDbPolyline
 62
7
  6
CONTINUOUS
 90
6
 70
0
 10
12.9971549378
 20
6.3356807346
 10
12.9584624267
 20
6.3604730872
 10
12.9241351151
 20
6.3876599762
 10
12.8946346541
 20
6.4169021343
 10
12.8703396364
 20
6.447771691
 10
12.8680937871
 20
6.4515849545
  0
LWPOLYLINE
  5
5CF
100
AcDbEntity
  8
0
100
AcDbPolyline
 62
9
  6
CONTINUOUS
 90
4
 70
0
 10
12.8925072977
 20
6.4293813174
 10
12.916485062
 20
6.4054041259
 10
12.9503964574
 20
6.3784569049
 10
12.9890009094
 20
6.3537038113
  0
LWPOLYLINE
  5
5D0
100
AcDbEntity
  8
0
100
AcDbPolyline
 62
7
  6
CONTINUOUS
 90
6
 70
0
 10
12.812118034
 20
6.672513324
 10
12.8308801239
 20
6.6399142938
 10
12.8555293896
 20
6.6086160565
 10
12.8858009572
 20
6.5789634861
 10
12.9213695374
 20
6.5512837725
 10
12.9618529207
 20
6.5258829063
  0
LWPOLYLINE
  5
5D1
100
AcDbEntity
  8
0
100
AcDbPolyline
 62
7
  6
CONTINUOUS
 90
28
 70
0
 10
12.812118034
 20
6.6785406548
 10
12.8308801239
 20
6.6459416247
 10
12.8555293896
 20
6.6146433874
 10
12.8858009572
 20
6.5849908169
 10
12.9213695374
 20
6.5573111034
 10
12.9618529207
 20
6.5319102371
 10
13.0068160844
 20
6.5090697207
 10
13.0557758676
 20
6.489043544
 10
13.1082061629
 20
6.4720554545
 10
13.1635435697
 20
6.4582965538
 10
13.2211934483
 20
6.447923243
 10
13.2805363102
 20
6.4410555432
 10
13.3409344743
 20
6.4377758048
 10
13.4017389198
 20
6.4381278233
 10
13.4622962597
 20
6.4421163683
 10
13.5219557628
 20
6.4497071322
 10
13.5800763455
 20
6.4608270994
 10
13.6360334611
 20
6.4753653301
 10
13.6892258108
 20
6.4931741531
 10
13.7390818052
 20
6.5140707522
 10
13.7850657064
 20
6.5378391311
 10
13.826683385
 20
6.564232434
 10
13.8634876295
 20
6.5929755985
 10
13.8950829524
 20
6.6237683113
 10
13.9211298395
 20
6.6562882352
 10
13.9413483986
 20
6.6901944728
 10
13.9555213671
 20
6.7251312301
 10
13.9634964464
 20
6.7607316391
  0
LINE
  5
5D2
100
AcDbEntity
  8
0
100
AcDbLine
 62
7
  6
CONTINUOUS
 10
12.7994447318
 20
6.7060542951
 11
12.812118034
 21
6.672513324
  0
LWPOLYLINE
  5
5D3
100
AcDbEntity
  8
0
100
AcDbPolyline
 62
7
  6
CONTINUOUS
 90
30
 70
0
 10
12.7930725788
 20
6.8449981893
 10
12.7979003588
 20
6.8143129967
 10
12.8095186683
 20
6.7806478612
 10
12.8272536975
 20
6.7478622792
 10
12.8509148709
 20
6.7163171074
 10
12.8802479326
 20
6.6863598732
 10
12.9149376781
 20
6.6583210404
 10
12.9546113414
 20
6.6325104585
 10
12.9988426012
 20
6.6092140327
 10
13.0471561611
 20
6.5886906519
 10
13.0990328579
 20
6.5711694065
 10
13.1539152399
 20
6.5568471271
 10
13.211213557
 20
6.5458862689
 10
13.2703120982
 20
6.5384131663
 10
13.3305758082
 20
6.5345166755
 10
13.3913571105
 20
6.5342472192
 10
13.4520028673
 20
6.5376162452
 10
13.5118613971
 20
6.5445961034
 10
13.5702894775
 20
6.5551203424
 10
13.6266592576
 20
6.5690844241
 10
13.6803650042
 20
6.586346847
 10
13.7308296112
 20
6.6067306663
 10
13.7775108007
 20
6.6300253958
 10
13.8199069503
 20
6.6559892694
 10
13.8575624835
 20
6.6843518394
 10
13.8900727648
 20
6.714816882
 10
13.9170884485
 20
6.7470655812
 10
13.9383192317
 20
6.7807599543
 10
13.9535369749
 20
6.8155464835
 10
13.9604808799
 20
6.8428219013
  0
LWPOLYLINE
  5
5D4
100
AcDbEntity
  8
0
100
AcDbPolyline
 62
7
  6
CONTINUOUS
 90
31
 70
0
 10
12.7921670379
 20
6.712201327
 10
12.7960100999
 20
6.6779596209
 10
12.8061150408
 20
6.6441358575
 10
12.8223732757
 20
6.6111020495
 10
12.8446100984
 20
6.5792217206
 10
12.8725865587
 20
6.5488459999
 10
12.9060020295
 20
6.5203098483
 10
12.9444974381
 20
6.493928459
 10
12.9876591242
 20
6.4699938712
 10
13.0350232848
 20
6.4487718311
 10
13.0860809587
 20
6.4304989368
 10
13.1402834949
 20
6.4153800959
 10
13.197048449
 20
6.4035863231
 10
13.2557658415
 20
6.3952529033
 10
13.3158047123
 20
6.3904779372
 10
13.3765199015
 20
6.3893212875
 10
13.4372589814
 20
6.3918039354
 10
13.4973692677
 20
6.3979077555
 10
13.5562048329
 20
6.4075757101
 10
13.6131334472
 20
6.4207124626
 10
13.6675433725
 20
6.4371854016
 10
13.7188499356
 20
6.456826066
 10
13.7665018113
 20
6.4794319552
 10
13.8099869465
 20
6.5047687053
 10
13.8488380626
 20
6.5325726072
 10
13.882637677
 20
6.5625534408
 10
13.911022589
 20
6.594397593
 10
13.9336877826
 20
6.6277714281
 10
13.9503897042
 20
6.6623248732
 10
13.96094888
 20
6.6976951791
 10
13.9652518441
 20
6.7335108194
  0
LWPOLYLINE
  5
5D5
100
AcDbEntity
  8
0
100
AcDbPolyline
 62
7
  6
CONTINUOUS
 90
24
 70
0
 10
12.9876591242
 20
6.4639665403
 10
13.0350232848
 20
6.4427445002
 10
13.0860809587
 20
6.424471606
 10
13.1402834949
 20
6.409352765
 10
13.197048449
 20
6.3975589923
 10
13.2557658415
 20
6.3892255725
 10
13.3158047123
 20
6.3844506064
 10
13.3765199015
 20
6.3832939566
 10
13.4372589814
 20
6.3857766045
 10
13.4973692677
 20
6.3918804246
 10
13.5562048329
 20
6.4015483793
 10
13.6131334472
 20
6.4146851318
 10
13.6675433725
 20
6.4311580708
 10
13.7188499356
 20
6.4507987352
 10
13.7665018113
 20
6.4734046244
 10
13.8099869465
 20
6.4987413745
 10
13.8488380626
 20
6.5265452764
 10
13.882637677
 20
6.55652611
 10
13.911022589
 20
6.5883702621
 10
13.9336877826
 20
6.6217440973
 10
13.9503897042
 20
6.6562975423
 10
13.96094888
 20
6.6916678483
 10
13.9652518441
 20
6.7274834885
 10
13.9653573551
 20
6.7340522805
  0
LWPOLYLINE
  5
5D6
100
AcDbEntity
  8
0
100
AcDbPolyline
 62
7
  6
CONTINUOUS
 90
24
 70
0
 10
12.9692251961
 20
6.4253573823
 10
13.0149061678
 20
6.4029801854
 10
13.0644968253
 20
6.3834577404
 10
13.1174642819
 20
6.3670083823
 10
13.1732393651
 20
6.3538174231
 10
13.2312227319
 20
6.3440351615
 10
13.2907913103
 20
6.3377752669
 10
13.3513049937
 20
6.3351135588
 10
13.4121135198
 20
6.3360871912
 10
13.472563458
 20
6.3406942541
 10
13.5320052311
 20
6.3488937937
 10
13.5898000951
 20
6.3606062524
 10
13.6453270034
 20
6.3757143238
 10
13.6979892802
 20
6.3940642133
 10
13.747221032
 20
6.4154672907
 10
13.792493229
 20
6.439702117
 10
13.8333193892
 20
6.4665168243
 10
13.8692608069
 20
6.4956318218
 10
13.899931266
 20
6.5267428006
 10
13.9250011908
 20
6.5595240035
 10
13.9442011872
 20
6.5936317256
 10
13.9573249378
 20
6.6287080076
 10
13.9642314185
 20
6.6643844825
 10
13.9653573551
 20
6.6858336338
  0
LWPOLYLINE
  5
5D7
100
AcDbEntity
  8
0
100
AcDbPolyline
 62
7
  6
CONTINUOUS
 90
20
 70
0
 10
12.9618529207
 20
6.5258829063
 10
13.0068160844
 20
6.5030423899
 10
13.0557758676
 20
6.4830162131
 10
13.1082061629
 20
6.4660281237
 10
13.1635435697
 20
6.4522692229
 10
13.2211934483
 20
6.4418959122
 10
13.2805363102
 20
6.4350282124
 10
13.3409344743
 20
6.431748474
 10
13.4017389198
 20
6.4321004925
 10
13.4622962597
 20
6.4360890374
 10
13.5219557628
 20
6.4436798014
 10
13.5800763455
 20
6.4547997686
 10
13.6360334611
 20
6.4693379993
 10
13.6892258108
 20
6.4871468222
 10
13.7390818052
 20
6.5080434214
 10
13.7850657064
 20
6.5318118003
 10
13.826683385
 20
6.5582051032
 10
13.8634876295
 20
6.5869482677
 10
13.8950829524
 20
6.6177409805
 10
13.9211298395
 20
6.6502609043
  0
LWPOLYLINE
  5
5D8
100
AcDbEntity
  8
0
100
AcDbPolyline
 62
7
  6
CONTINUOUS
 90
5
 70
0
 10
12.8356598561
 20
6.8271620408
 10
12.8464658279
 20
6.8120098242
 10
12.8748511876
 20
6.7817575673
 10
12.908651223
 20
6.7533686552
 10
12.9475027287
 20
6.7271566988
  0
LWPOLYLINE
  5
5D9
100
AcDbEntity
  8
0
100
AcDbPolyline
 62
7
  6
CONTINUOUS
 90
24
 70
0
 10
12.8414667998
 20
6.8250468306
 10
12.8464658279
 20
6.818037155
 10
12.8748511876
 20
6.7877848982
 10
12.908651223
 20
6.759395986
 10
12.9475027287
 20
6.7331840297
 10
12.9909882178
 20
6.7094392475
 10
13.038640408
 20
6.6884253463
 10
13.0899472429
 20
6.6703766874
 10
13.1443573943
 20
6.6554957689
 10
13.2012861866
 20
6.6439510489
 10
13.2601218797
 20
6.6358751359
 10
13.3202322426
 20
6.6313633637
 10
13.3809713468
 20
6.6304727666
 10
13.4416865079
 20
6.6332214671
 10
13.5017252984
 20
6.6395884808
 10
13.5604425591
 20
6.6495139417
 10
13.6172073317
 20
6.6628997462
 10
13.6714096384
 20
6.6796106066
 10
13.7224670372
 20
6.6994755052
 10
13.7698308803
 20
6.7222895318
 10
13.8129922096
 20
6.747816086
 10
13.8514872263
 20
6.7757894192
 10
13.8849022741
 20
6.8059174904
 10
13.8940812902
 20
6.8164061639
  0
LWPOLYLINE
  5
5DA
100
AcDbEntity
  8
0
100
AcDbPolyline
 62
7
  6
CONTINUOUS
 90
7
 70
0
 10
12.8026926271
 20
6.8407526881
 10
12.8161393483
 20
6.8091175084
 10
12.836358385
 20
6.7768031268
 10
12.8624057296
 20
6.7458750871
 10
12.8940014851
 20
6.7166742851
 10
12.9308061327
 20
6.6895230564
 10
12.9724241805
 20
6.6647217124
  0
LWPOLYLINE
  5
5DB
100
AcDbEntity
  8
0
100
AcDbPolyline
 62
7
  6
CONTINUOUS
 90
27
 70
0
 10
12.8058461292
 20
6.8393609906
 10
12.8161393483
 20
6.8151448393
 10
12.836358385
 20
6.7828304577
 10
12.8624057296
 20
6.7519024179
 10
12.8940014851
 20
6.7227016159
 10
12.9308061327
 20
6.6955503872
 10
12.9724241805
 20
6.6707490433
 10
13.018408413
 20
6.6485726443
 10
13.0682646973
 20
6.6292680437
 10
13.1214572924
 20
6.6130512353
 10
13.1774146062
 20
6.6001050324
 10
13.2355353378
 20
6.5905771036
 10
13.2951949389
 20
6.5845783853
 10
13.3557523249
 20
6.5821818903
 10
13.4165567639
 20
6.583421923
 10
13.4769548692
 20
6.5882937106
 10
13.5362976206
 20
6.5967534546
 10
13.5939473382
 20
6.6087188013
 10
13.649284535
 20
6.624069727
 10
13.7017145738
 20
6.6426498274
 10
13.7506740567
 20
6.6642679984
 10
13.7956368795
 20
6.6887004898
 10
13.836119885
 20
6.7156933095
 10
13.8716880545
 20
6.7449649529
 10
13.9019591829
 20
6.7762094278
 10
13.9266079857
 20
6.8090995424
 10
13.9408137128
 20
6.8349878507
  0
LWPOLYLINE
  5
5DC
100
AcDbEntity
  8
0
100
AcDbPolyline
 62
7
  6
CONTINUOUS
 90
19
 70
0
 10
12.9799791455
 20
6.5643051904
 10
13.0266606595
 20
6.5426024441
 10
13.077125549
 20
6.5238106263
 10
13.1308315332
 20
6.5081402205
 10
13.1872015032
 20
6.4957681686
 10
13.2456297239
 20
6.4868359694
 10
13.3054883428
 20
6.4814481579
 10
13.3661341367
 20
6.4796711822
 10
13.4269154237
 20
6.4815326896
 10
13.487179066
 20
6.487021229
 10
13.546277488
 20
6.4960863745
 10
13.6035756355
 20
6.5086392671
 10
13.6584577994
 20
6.5245535693
 10
13.710334232
 20
6.5436668229
 10
13.7586474845
 20
6.5657821949
 10
13.8028783968
 20
6.5906705921
 10
13.8425516764
 20
6.6180731236
 10
13.877241006
 20
6.647703882
 10
13.9065736241
 20
6.6792530161
  0
LWPOLYLINE
  5
5DD
100
AcDbEntity
  8
0
100
AcDbPolyline
 62
7
  6
CONTINUOUS
 90
20
 70
0
 10
12.9724241805
 20
6.6647217124
 10
13.018408413
 20
6.6425453135
 10
13.0682646973
 20
6.6232407128
 10
13.1214572924
 20
6.6070239044
 10
13.1774146062
 20
6.5940777016
 10
13.2355353378
 20
6.5845497727
 10
13.2951949389
 20
6.5785510545
 10
13.3557523249
 20
6.5761545595
 10
13.4165567639
 20
6.5773945922
 10
13.4769548692
 20
6.5822663798
 10
13.5362976206
 20
6.5907261238
 10
13.5939473382
 20
6.6026914705
 10
13.649284535
 20
6.6180423962
 10
13.7017145738
 20
6.6366224965
 10
13.7506740567
 20
6.6582406675
 10
13.7956368795
 20
6.6826731589
 10
13.836119885
 20
6.7096659787
 10
13.8716880545
 20
6.7389376221
 10
13.9019591829
 20
6.7701820969
 10
13.9266079857
 20
6.8030722116
  0
LWPOLYLINE
  5
5DE
100
AcDbEntity
  8
0
100
AcDbPolyline
 62
7
  6
CONTINUOUS
 90
20
 70
0
 10
12.9546113414
 20
6.6264831277
 10
12.9988426012
 20
6.6031867019
 10
13.0471561611
 20
6.5826633211
 10
13.0990328579
 20
6.5651420757
 10
13.1539152399
 20
6.5508197963
 10
13.211213557
 20
6.539858938
 10
13.2703120982
 20
6.5323858355
 10
13.3305758082
 20
6.5284893446
 10
13.3913571105
 20
6.5282198883
 10
13.4520028673
 20
6.5315889144
 10
13.5118613971
 20
6.5385687726
 10
13.5702894775
 20
6.5490930115
 10
13.6266592576
 20
6.5630570933
 10
13.6803650042
 20
6.5803195161
 10
13.7308296112
 20
6.6007033354
 10
13.7775108007
 20
6.6239980649
 10
13.8199069503
 20
6.6499619386
 10
13.8575624835
 20
6.6783245085
 10
13.8900727648
 20
6.7087895512
 10
13.9170884485
 20
6.7410382504
  0
LWPOLYLINE
  5
5DF
100
AcDbEntity
  8
0
100
AcDbPolyline
 62
7
  6
CONTINUOUS
 90
20
 70
0
 10
12.9475027287
 20
6.7271566988
 10
12.9909882178
 20
6.7034119167
 10
13.038640408
 20
6.6823980154
 10
13.0899472429
 20
6.6643493566
 10
13.1443573943
 20
6.649468438
 10
13.2012861866
 20
6.637923718
 10
13.2601218797
 20
6.6298478051
 10
13.3202322426
 20
6.6253360329
 10
13.3809713468
 20
6.6244454358
 10
13.4416865079
 20
6.6271941363
 10
13.5017252984
 20
6.6335611499
 10
13.5604425591
 20
6.6434866109
 10
13.6172073317
 20
6.6568724154
 10
13.6714096384
 20
6.6735832758
 10
13.7224670372
 20
6.6934481744
 10
13.7698308803
 20
6.716262201
 10
13.8129922096
 20
6.7417887552
 10
13.8514872263
 20
6.7697620884
 10
13.8849022741
 20
6.7998901595
 10
13.9021340083
 20
6.819580509
  0
LWPOLYLINE
  5
5E0
100
AcDbEntity
  8
0
100
AcDbPolyline
 62
7
  6
CONTINUOUS
 90
3
 70
0
 10
12.9107179831
 20
6.8007387272
 10
12.924170062
 20
6.7904375686
 10
12.9649965975
 20
6.7652148165
  0
LWPOLYLINE
  5
5E1
100
AcDbEntity
  8
0
100
AcDbPolyline
 62
7
  6
CONTINUOUS
 90
19
 70
0
 10
12.9235345524
 20
6.7969515518
 10
12.924170062
 20
6.7964648994
 10
12.9649965975
 20
6.7712421473
 10
13.0102691325
 20
6.7485992975
 10
13.0595011815
 20
6.7287882156
 10
13.1121637114
 20
6.7120303381
 10
13.1676908262
 20
6.6985142925
 10
13.2254858477
 20
6.6883938706
 10
13.2849277275
 20
6.6817863756
 10
13.3453777207
 20
6.6787713622
 10
13.4061862494
 20
6.6793897809
 10
13.4666998829
 20
6.6836435389
 10
13.5262683595
 20
6.6914954787
 10
13.5842515738
 20
6.702869778
 10
13.6400264552
 20
6.7176527641
 10
13.6929936631
 20
6.7356941358
 10
13.7425840276
 20
6.7568085779
 10
13.788264665
 20
6.7807777534
 10
13.7963116358
 20
6.7859581603
  0
LWPOLYLINE
  5
5E2
100
AcDbEntity
  8
02___PRT_ALL_AXES
100
AcDbPolyline
 62
7
  6
CONTINUOUS
 90
7
 70
0
 10
13.2715082943
 20
4.9937816315
 10
13.271781178
 20
4.9893537592
 10
13.2739640555
 20
4.9805886698
 10
13.2782853094
 20
4.9720921509
 10
13.2846569715
 20
4.9640371674
 10
13.2929493332
 20
4.9565876953
 10
13.3029935859
 20
4.9498953845
  0
LWPOLYLINE
  5
5E3
100
AcDbEntity
  8
02___PRT_ALL_AXES
100
AcDbPolyline
 62
7
  6
CONTINUOUS
 90
12
 70
0
 10
13.9903093123
 20
7.2264340838
 10
13.9294805997
 20
7.2007122866
 10
13.8654199409
 20
7.1777542934
 10
13.7985032694
 20
7.1576948307
 10
13.7291232788
 20
7.1406516154
 10
13.6576871184
 20
7.1267246639
 10
13.5846140041
 20
7.1159957051
 10
13.510332758
 20
7.1085277008
 10
13.4352792919
 20
7.1043644761
 10
13.3598940494
 20
7.1035304627
 10
13.2846194212
 20
7.1060305547
 10
13.2098971486
 20
7.1118500807
  0
LWPOLYLINE
  5
5E4
100
AcDbEntity
  8
AXIS
100
AcDbPolyline
 62
7
  6
CONTINUOUS
 90
9
 70
0
 10
13.9981562002
 20
7.23006455
 10
13.914808661
 20
7.195102991
 10
13.8255878761
 20
7.1653628687
 10
13.7314713673
 20
7.1411700218
 10
13.6334902947
 20
7.1227895124
 10
13.5327181594
 20
7.110422721
 10
13.4302590421
 20
7.104205141
 10
13.3272355061
 20
7.1042048934
 10
13.2247762991
 20
7.1104219808
  0
LWPOLYLINE
  5
5E5
100
AcDbEntity
  8
0
100
AcDbPolyline
 62
7
  6
CONTINUOUS
 90
17
 70
0
 10
12.9649965975
 20
6.7652148165
 10
13.0102691325
 20
6.7425719666
 10
13.0595011815
 20
6.7227608848
 10
13.1121637114
 20
6.7060030073
 10
13.1676908262
 20
6.6924869617
 10
13.2254858477
 20
6.6823665397
 10
13.2849277275
 20
6.6757590448
 10
13.3453777207
 20
6.6727440313
 10
13.4061862494
 20
6.6733624501
 10
13.4666998829
 20
6.6776162081
 10
13.5262683595
 20
6.6854681479
 10
13.5842515738
 20
6.6968424471
 10
13.6400264552
 20
6.7116254333
 10
13.6929936631
 20
6.7296668049
 10
13.7425840276
 20
6.7507812471
 10
13.788264665
 20
6.7747504225
 10
13.8120521986
 20
6.7900641484
  0
LWPOLYLINE
  5
5E6
100
AcDbEntity
  8
0
100
AcDbPolyline
 62
9
  6
CONTINUOUS
 90
26
 70
0
 10
12.6827748382
 20
6.9162577444
 10
12.7479632429
 20
6.8818572049
 10
12.8182303169
 20
6.8509688173
 10
12.8930103108
 20
6.8238412768
 10
12.9717011403
 20
6.8006929984
 10
13.0536692329
 20
6.7817103583
 10
13.1382546298
 20
6.7670461937
 10
13.2247762991
 20
6.7568185718
 10
13.3125376192
 20
6.7511098394
 10
13.4008319876
 20
6.7499659599
 10
13.48894851
 20
6.753396143
 10
13.5761777238
 20
6.761372771
 10
13.6618173108
 20
6.7738316208
 10
13.7451777513
 20
6.790672381
 10
13.8255878761
 20
6.8117594597
 10
13.9024002702
 20
6.8369230761
 10
13.9749964854
 20
6.8659606277
 10
14.0427920195
 20
6.8986383211
 10
14.1052410228
 20
6.9346930548
 10
14.1618406927
 20
6.9738345372
 10
14.2121353219
 20
7.0157476242
 10
14.2557199676
 20
7.0600948561
 10
14.2922437119
 20
7.1065191752
 10
14.3214124871
 20
7.1546468002
 10
14.3429914433
 20
7.2040902357
 10
14.3568068394
 20
7.2544513922
  0
LWPOLYLINE
  5
5E7
100
AcDbEntity
  8
0
100
AcDbPolyline
 62
7
  6
CONTINUOUS
 90
16
 70
0
 10
12.6897345957
 20
6.8961665294
 10
12.753369582
 20
6.8625198393
 10
12.823223408
 20
6.8316920834
 10
12.8973825227
 20
6.8046792302
 10
12.975268261
 20
6.7816647282
 10
13.0562743146
 20
6.7628068875
 10
13.1397706497
 20
6.7482365562
 10
13.2251095446
 20
6.7380550556
 10
13.3116323835
 20
6.7323330261
 10
13.3986721785
 20
6.731110239
 10
13.4855583606
 20
6.7343951882
 10
13.5716216579
 20
6.7421650375
 10
13.6561988212
 20
6.7543659128
 10
13.738635558
 20
6.7709131274
 10
13.8182902341
 20
6.7916913646
 10
13.8945423291
 20
6.8165565047
  0
LWPOLYLINE
  5
5E8
100
AcDbEntity
  8
AXIS
100
AcDbPolyline
 62
7
  6
CONTINUOUS
 90
4
 70
0
 10
12.5017701169
 20
7.4136940491
 10
12.5532822563
 20
7.3621831414
 10
12.6138383184
 20
7.3140631051
 10
12.6827748382
 20
7.2698611534
  0
LINE
  5
5E9
100
AcDbEntity
  8
02___PRT_ALL_AXES
100
AcDbLine
 62
7
  6
CONTINUOUS
 10
13.2715072484
 20
4.9937816311
 11
13.2715072484
 21
6.2505591254
  0
LWPOLYLINE
  5
5EA
100
AcDbEntity
  8
0
100
AcDbPolyline
 62
7
  6
CONTINUOUS
 90
11
 70
0
 10
13.6001797789
 20
6.7462847556
 10
13.5761271829
 20
6.7397355522
 10
13.52100723
 20
6.7286062222
 10
13.4646204332
 20
6.7209070325
 10
13.4073480096
 20
6.7166475269
 10
13.349647632
 20
6.7158586321
 10
13.2923611962
 20
6.7185448552
 10
13.2359282299
 20
6.7246765136
 10
13.1811421534
 20
6.7341591199
 10
13.1284891655
 20
6.7468941726
 10
13.1052889686
 20
6.7542537008
  0
LWPOLYLINE
  5
5EB
100
AcDbEntity
  8
0
100
AcDbPolyline
 62
7
  6
CONTINUOUS
 90
7
 70
0
 10
13.1928670264
 20
6.7419018036
 10
13.2499688493
 20
6.7334410883
 10
13.3099070203
 20
6.7283156986
 10
13.3705848846
 20
6.7268044895
 10
13.4313504155
 20
6.7289322522
 10
13.4915506445
 20
6.7346846747
 10
13.4952610629
 20
6.7352711543
  0
LWPOLYLINE
  5
5EC
100
AcDbEntity
  8
0
100
AcDbPolyline
 62
7
  6
CONTINUOUS
 90
10
 70
0
 10
13.127026568
 20
6.7504604322
 10
13.1348730293
 20
6.7482144124
 10
13.1914144495
 20
6.7360896995
 10
13.2499688493
 20
6.7274137575
 10
13.3099070203
 20
6.7222883678
 10
13.3705848846
 20
6.7207771587
 10
13.4313504155
 20
6.7229049214
 10
13.4915506445
 20
6.7286573439
 10
13.5505386776
 20
6.7379811647
 10
13.5675845302
 20
6.741800563
  0
LWPOLYLINE
  5
5ED
100
AcDbEntity
  8
02___PRT_ALL_AXES
100
AcDbPolyline
 62
7
  6
CONTINUOUS
 90
3
 70
0
 10
12.5846913381
 20
7.3359065348
 10
12.6315406473
 20
7.3017985493
 10
12.6827748382
 20
7.2698611534
  0
LINE
  5
5EE
100
AcDbEntity
  8
02___PRT_ALL_AXES
100
AcDbLine
 62
7
  6
CONTINUOUS
 10
13.4865072484
 20
4.9937816311
 11
13.4865072484
 21
6.2503284639
  0
LWPOLYLINE
  5
5EF
100
AcDbEntity
  8
0
100
AcDbPolyline
 62
7
  6
CONTINUOUS
 90
15
 70
0
 10
13.7081279195
 20
6.7361106249
 10
13.6794242618
 20
6.7235505286
 10
13.6295522022
 20
6.7060812311
 10
13.5768787074
 20
6.6916948957
 10
13.522110124
 20
6.6805742946
 10
13.4656888244
 20
6.6728013614
 10
13.4084437162
 20
6.6684776633
 10
13.3507519798
 20
6.6676223199
 10
13.2930767264
 20
6.6702710203
 10
13.2363600935
 20
6.6763973119
 10
13.1814944625
 20
6.6858676938
 10
13.1286597149
 20
6.698628036
 10
13.0784798565
 20
6.7145443933
 10
13.0317757902
 20
6.7333385513
 10
13.0259151593
 20
6.736275972
  0
LWPOLYLINE
  5
5F0
100
AcDbEntity
  8
0
100
AcDbPolyline
 62
7
  6
CONTINUOUS
 90
15
 70
0
 10
13.6987410898
 20
6.6355687565
 10
13.6790152583
 20
6.6269528899
 10
13.6292027697
 20
6.6095354735
 10
13.5765967533
 20
6.5951907386
 10
13.5215936615
 20
6.5840493874
 10
13.4650561748
 20
6.5762970189
 10
13.4077553782
 20
6.5720095761
 10
13.3498335815
 20
6.5711996279
 10
13.2921402359
 20
6.5739060697
 10
13.2356271796
 20
6.5800629136
 10
13.1809392689
 20
6.5895451633
 10
13.128288142
 20
6.6022942629
 10
13.0784274783
 20
6.6181258772
 10
13.0318100136
 20
6.6368858647
 10
13.0276835086
 20
6.6389539504
  0
LWPOLYLINE
  5
5F1
100
AcDbEntity
  8
0
100
AcDbPolyline
 62
7
  6
CONTINUOUS
 90
15
 70
0
 10
13.7079339542
 20
6.6877937887
 10
13.6781743433
 20
6.67484281
 10
13.6282520769
 20
6.6574599494
 10
13.5755437149
 20
6.6431605766
 10
13.5207561994
 20
6.6321266283
 10
13.4643331981
 20
6.6244395782
 10
13.4070659701
 20
6.6201978812
 10
13.3493885519
 20
6.6194256686
 10
13.2921315088
 20
6.622125395
 10
13.2357374169
 20
6.6282660443
 10
13.1809835484
 20
6.6377546427
 10
13.1283197231
 20
6.6505041032
 10
13.0784469131
 20
6.6663375561
 10
13.0318191984
 20
6.6851003807
 10
13.0267392688
 20
6.6876462394
  0
LWPOLYLINE
  5
5F2
100
AcDbEntity
  8
0
100
AcDbPolyline
 62
7
  6
CONTINUOUS
 90
13
 70
0
 10
13.8945423291
 20
6.8165565047
 10
13.9667989186
 20
6.8453385747
 10
14.0344987586
 20
6.8778452519
 10
14.0971123925
 20
6.913864318
 10
14.1541143043
 20
6.9531446623
 10
14.205001889
 20
6.9953928852
 10
14.2493436894
 20
7.0403038344
 10
14.286783278
 20
7.0875792758
 10
14.3170213112
 20
7.1369274671
 10
14.3396451771
 20
7.1876209628
 10
14.3544470911
 20
7.238417163
 10
14.3617965165
 20
7.2880049125
 10
14.3629951504
 20
7.3180753265
  0
LWPOLYLINE
  5
5F3
100
AcDbEntity
  8
AXIS
100
AcDbPolyline
 62
7
  6
CONTINUOUS
 90
7
 70
0
 10
13.2247762991
 20
7.1104219808
 10
13.1240039855
 20
7.1227882877
 10
13.0260226478
 20
7.1411683261
 10
12.93190579
 20
7.1653607205
 10
12.8426845763
 20
7.195100414
 10
12.7593365328
 20
7.2300615722
 10
12.6827748382
 20
7.2698611534
  0
LWPOLYLINE
  5
5F4
100
AcDbEntity
  8
02___PRT_ALL_AXES
100
AcDbPolyline
 62
7
  6
CONTINUOUS
 90
9
 70
0
 10
13.2098971486
 20
7.1118500807
 10
13.1361657316
 20
7.1209548894
 10
13.0638578556
 20
7.13329155
 10
12.9933978519
 20
7.1487876663
 10
12.9251992078
 20
7.1673523007
 10
12.8596621401
 20
7.1888765088
 10
12.7971712464
 20
7.2132339778
 10
12.738093248
 20
7.2402817684
 10
12.6827748382
 20
7.2698611534
  0
LWPOLYLINE
  5
5F5
100
AcDbEntity
  8
0
100
AcDbPolyline
 62
7
  6
CONTINUOUS
 90
15
 70
0
 10
13.7105270251
 20
6.5925026524
 10
13.6792244511
 20
6.5788162173
 10
13.6292926292
 20
6.5613447019
 10
13.5764794398
 20
6.5469443022
 10
13.5216368966
 20
6.5358380633
 10
13.4652631184
 20
6.5281002564
 10
13.4079658142
 20
6.5238002906
 10
13.3502442042
 20
6.5229743433
 10
13.2929300617
 20
6.5256263472
 10
13.2364644967
 20
6.531726765
 10
13.181643948
 20
6.5411809211
 10
13.1290056358
 20
6.553875904
 10
13.0788623035
 20
6.5697514937
 10
13.0319383311
 20
6.5886095258
 10
13.0251389502
 20
6.5920161323
  0
LWPOLYLINE
  5
5F6
100
AcDbEntity
  8
0
100
AcDbPolyline
 62
7
  6
CONTINUOUS
 90
15
 70
0
 10
13.711401402
 20
6.4964414807
 10
13.6790999576
 20
6.4823301305
 10
13.6292442889
 20
6.4648924115
 10
13.576594631
 20
6.4505342957
 10
13.5218552692
 20
6.4394377881
 10
13.4654687994
 20
6.4316847599
 10
13.408245998
 20
6.4273755335
 10
13.3507059484
 20
6.4265297973
 10
13.2932902165
 20
6.4291614279
 10
13.2367275865
 20
6.435252719
 10
13.1819098546
 20
6.4446888527
 10
13.1290275169
 20
6.4574325319
 10
13.0787140379
 20
6.4733672659
 10
13.0318078188
 20
6.4922309118
 10
13.0254151059
 20
6.4954347726
  0
LWPOLYLINE
  5
5F7
100
AcDbEntity
  8
0
100
AcDbPolyline
 62
7
  6
CONTINUOUS
 90
15
 70
0
 10
13.7025864356
 20
6.5408122396
 10
13.6785010195
 20
6.5303144218
 10
13.6285695041
 20
6.5129020798
 10
13.5758585427
 20
6.4985788723
 10
13.5210510093
 20
6.4875203735
 10
13.464616711
 20
6.4798134076
 10
13.4073332352
 20
6.4755536444
 10
13.349632037
 20
6.4747656574
 10
13.2923450395
 20
6.4774528744
 10
13.2359117392
 20
6.4835855968
 10
13.1811221393
 20
6.4930700258
 10
13.1283921322
 20
6.5058279774
 10
13.0784225045
 20
6.5216903672
 10
13.0318219833
 20
6.5404431882
 10
13.0299792476
 20
6.5413666879
  0
LINE
  5
5F8
100
AcDbEntity
  8
0
100
AcDbLine
 62
7
  6
CONTINUOUS
 10
13.9653573551
 20
6.643642318
 11
13.9637653567
 21
6.6619769694
  0
LINE
  5
5F9
100
AcDbEntity
  8
0
100
AcDbLine
 62
7
  6
CONTINUOUS
 10
13.9653573551
 20
6.7400796114
 11
13.963889337
 21
6.760524404
  0
LINE
  5
5FA
100
AcDbEntity
  8
0
100
AcDbLine
 62
7
  6
CONTINUOUS
 10
13.9266079857
 20
6.8030722116
 11
13.945369594
 21
6.8372630908
  0
LWPOLYLINE
  5
5FB
100
AcDbEntity
  8
0
100
AcDbPolyline
 62
7
  6
CONTINUOUS
 90
5
 70
0
 10
13.9211298395
 20
6.6502609043
 10
13.9413483986
 20
6.684167142
 10
13.9555213671
 20
6.7191038993
 10
13.9634964464
 20
6.7547043083
 10
13.9653573551
 20
6.7822709272
  0
LWPOLYLINE
  5
5FC
100
AcDbEntity
  8
0
100
AcDbPolyline
 62
7
  6
CONTINUOUS
 90
4
 70
0
 10
13.9170884485
 20
6.7410382504
 10
13.9383192317
 20
6.7747326234
 10
13.9535369749
 20
6.8095191527
 10
13.9621885161
 20
6.8435021065
  0
LWPOLYLINE
  5
5FD
100
AcDbEntity
  8
0
100
AcDbPolyline
 62
7
  6
CONTINUOUS
 90
6
 70
0
 10
13.9065736241
 20
6.6792530161
 10
13.9302343311
 20
6.7123900606
 10
13.947968876
 20
6.7467674867
 10
13.9595866885
 20
6.7820244369
 10
13.964962927
 20
6.8177906028
 10
13.9653573551
 20
6.8304895739
  0
LWPOLYLINE
  5
5FE
100
AcDbEntity
  8
0
100
AcDbPolyline
 62
7
  6
CONTINUOUS
 90
15
 70
0
 10
13.7062516053
 20
6.4459759686
 10
13.6791812744
 20
6.4341433516
 10
13.6293389944
 20
6.4167031493
 10
13.5764085561
 20
6.4022715796
 10
13.5211497622
 20
6.391099746
 10
13.4644784473
 20
6.3833615853
 10
13.4071742948
 20
6.3791093822
 10
13.3493847368
 20
6.3783324995
 10
13.2919591476
 20
6.3810455814
 10
13.2356741003
 20
6.387181721
 10
13.1809568335
 20
6.3966669398
 10
13.1283004427
 20
6.4094162459
 10
13.0784351857
 20
6.4252485271
 10
13.0318135927
 20
6.4440096683
 10
13.028556506
 20
6.4456420126
  0
LWPOLYLINE
  5
5FF
100
AcDbEntity
  8
0
100
AcDbPolyline
 62
7
  6
CONTINUOUS
 90
15
 70
0
 10
13.6969874487
 20
6.3937151304
 10
13.6785137994
 20
6.3856634756
 10
13.6285941934
 20
6.368253774
 10
13.5759305325
 20
6.3539399254
 10
13.5210681111
 20
6.3428673188
 10
13.4645803507
 20
6.3351536448
 10
13.4072803594
 20
6.330895383
 10
13.3495766927
 20
6.3301106372
 10
13.292287982
 20
6.33280136
 10
13.2358535007
 20
6.3389378404
 10
13.1810724546
 20
6.3484243635
 10
13.1283921129
 20
6.3611720428
 10
13.0784854009
 20
6.3770118792
 10
13.0318401744
 20
6.3957790676
 10
13.0268647376
 20
6.3982724333
  0
LWPOLYLINE
  5
600
100
AcDbEntity
  8
0
100
AcDbPolyline
 62
9
  6
CONTINUOUS
 90
19
 70
0
 10
12.6856363315
 20
7.6501376536
 10
12.7864707261
 20
7.5993764152
 10
12.8983380363
 20
7.5570150285
 10
13.0191543768
 20
7.5238426117
 10
13.1466692691
 20
7.5004770894
 10
13.2785072432
 20
7.4873537475
 10
13.4122124279
 20
7.4847170452
 10
13.5452941432
 20
7.4926160997
 10
13.675273328
 20
7.5109037666
 10
13.799728715
 20
7.5392393809
 10
13.9163419356
 20
7.5770951038
 10
14.0229407053
 20
7.6237657545
 10
14.1175392899
 20
7.6783819468
 10
14.1983754961
 20
7.739926284
 10
14.263943498
 20
7.8072523111
 10
14.313021887
 20
7.8791058712
 10
14.3446964255
 20
7.9541484677
 10
14.3583770767
 20
8.0309821993
 10
14.3589297088
 20
8.0537927722
  0
LINE
  5
601
100
AcDbEntity
  8
0
100
AcDbLine
 62
7
  6
CONTINUOUS
 10
13.9653573551
 20
6.8365169047
 11
13.964899353
 21
6.844581918
  0
LWPOLYLINE
  5
602
100
AcDbEntity
  8
0
100
AcDbPolyline
 62
7
  6
CONTINUOUS
 90
3
 70
0
 10
13.9653573551
 20
6.6918609647
 10
13.9648464143
 20
6.7063136642
 10
13.9636287353
 20
6.7139735733
  0
LWPOLYLINE
  5
603
100
AcDbEntity
  8
0
100
AcDbPolyline
 62
7
  6
CONTINUOUS
 90
3
 70
0
 10
13.9653573551
 20
6.788298258
 10
13.9651879385
 20
6.7966217006
 10
13.9636159396
 20
6.8088295839
  0
LINE
  5
604
100
AcDbEntity
  8
0
100
AcDbLine
 62
7
  6
CONTINUOUS
 10
13.9652518441
 20
6.7335108194
 11
13.9653573551
 21
6.7400796114
  0
LINE
  5
605
100
AcDbEntity
  8
0
100
AcDbLine
 62
7
  6
CONTINUOUS
 10
13.964962927
 20
6.8238179336
 11
13.9653573551
 21
6.8365169047
  0
LINE
  5
606
100
AcDbEntity
  8
0
100
AcDbLine
 62
7
  6
CONTINUOUS
 10
13.9642314185
 20
6.6704118133
 11
13.9653573551
 21
6.6918609647
  0
LINE
  5
607
100
AcDbEntity
  8
0
100
AcDbLine
 62
7
  6
CONTINUOUS
 10
13.9634964464
 20
6.7607316391
 11
13.9653573551
 21
6.788298258
  0
LINE
  5
608
100
AcDbEntity
  8
0
100
AcDbLine
 62
7
  6
CONTINUOUS
 10
13.9621285484
 20
6.607351583
 11
13.9653573551
 21
6.643642318
  0
LWPOLYLINE
  5
609
100
AcDbEntity
  8
0
100
AcDbPolyline
 62
7
  6
CONTINUOUS
 90
21
 70
0
 10
13.9111408072
 20
6.4926545847
 10
13.9032364843
 20
6.4743821498
 10
13.8823253979
 20
6.4409504938
 10
13.8553925253
 20
6.4088340134
 10
13.8228073022
 20
6.3786662665
 10
13.7849916872
 20
6.350874829
 10
13.7426159572
 20
6.3258968905
 10
13.6961736501
 20
6.3039335217
 10
13.6463558908
 20
6.2852215684
 10
13.5936546766
 20
6.2698656453
 10
13.5387418187
 20
6.2579992893
 10
13.4821388887
 20
6.2496869553
 10
13.4244936874
 20
6.2449925584
 10
13.3663842842
 20
6.2439426844
 10
13.3084170443
 20
6.2465423988
 10
13.251227742
 20
6.2527660526
 10
13.1953498998
 20
6.2625739006
 10
13.14146935
 20
6.2758736318
 10
13.0900490583
 20
6.2925961894
 10
13.0418328174
 20
6.3125523537
 10
12.9971549378
 20
6.3356807346
  0
LWPOLYLINE
  5
60A
100
AcDbEntity
  8
0
100
AcDbPolyline
 62
7
  6
CONTINUOUS
 90
4
 70
0
 10
13.9250011908
 20
6.5655513343
 10
13.9442011872
 20
6.5996590564
 10
13.9573249378
 20
6.6347353385
 10
13.9642314185
 20
6.6704118133
  0
LWPOLYLINE
  5
60B
100
AcDbEntity
  8
0
100
AcDbPolyline
 62
9
  6
CONTINUOUS
 90
23
 70
0
 10
12.7761087712
 20
7.8059336699
 10
12.8679193603
 20
7.7599980217
 10
12.9702114626
 20
7.7220339264
 10
13.0808275481
 20
7.6928599993
 10
13.1975083493
 20
7.6730728886
 10
13.317879089
 20
7.6630751289
 10
13.4394890924
 20
7.6630702485
 10
13.5598622689
 20
7.6730583504
 10
13.6765477173
 20
7.6928360732
 10
13.7871696057
 20
7.7220007279
 10
13.8894755543
 20
7.7599584933
 10
13.9813825166
 20
7.8059365127
 10
14.0610191841
 20
7.858998632
 10
14.1267640786
 20
7.918064455
 10
14.1772785764
 20
7.9819313485
 10
14.2115341556
 20
8.0492989236
 10
14.2288333398
 20
8.1187955015
 10
14.2288239106
 20
8.189006071
 10
14.2115060669
 20
8.2585010811
 10
14.1772323562
 20
8.3258656537
 10
14.1267000105
 20
8.3897287426
 10
14.0609424012
 20
8.4487860435
 10
13.9813775926
 20
8.5017917947
  0
LINE
  5
60C
100
AcDbEntity
  8
02___PRT_ALL_AXES
100
AcDbLine
 62
7
  6
CONTINUOUS
 10
14.3629366633
 20
7.6751853017
 11
14.3629947032
 21
7.6716802611
  0
LINE
  5
60D
100
AcDbEntity
  8
AXIS
100
AcDbLine
 62
7
  6
CONTINUOUS
 10
14.3629764113
 20
7.6751827631
 11
14.3589297088
 21
8.0537927721
  0
LINE
  5
60E
100
AcDbEntity
  8
02___PRT_ALL_AXES
100
AcDbLine
 62
7
  6
CONTINUOUS
 10
14.3629951504
 20
7.6716762655
 11
14.3629951504
 21
7.3180728565
  0
LINE
  5
60F
100
AcDbEntity
  8
0
100
AcDbLine
 62
7
  6
CONTINUOUS
 10
14.3629951504
 20
7.3180728565
 11
14.3629951504
 21
7.3180753265
  0
LWPOLYLINE
  5
610
100
AcDbEntity
  8
AXIS
100
AcDbPolyline
 62
7
  6
CONTINUOUS
 90
10
 70
0
 10
14.3629736823
 20
7.6751859147
 10
14.3616464817
 20
7.6419387202
 10
14.3508780164
 20
7.5827847151
 10
14.3294586384
 20
7.5246046244
 10
14.2976230229
 20
7.4680358814
 10
14.2557199676
 20
7.4136982651
 10
14.2042085711
 20
7.3621871097
 10
14.1436532031
 20
7.3140667823
 10
14.0747173208
 20
7.2698644993
 10
13.9981562002
 20
7.23006455
  0
LWPOLYLINE
  5
611
100
AcDbEntity
  8
02___PRT_ALL_AXES
100
AcDbPolyline
 62
7
  6
CONTINUOUS
 90
13
 70
0
 10
14.3629947032
 20
7.6716802611
 10
14.361370543
 20
7.6390403177
 10
14.3541601484
 20
7.5957087637
 10
14.3412256191
 20
7.5528230171
 10
14.3226428601
 20
7.5106347487
 10
14.2985209225
 20
7.4693915359
 10
14.2690013634
 20
7.4293354104
 10
14.2342574153
 20
7.3907014374
 10
14.1944929695
 20
7.3537163364
 10
14.1499413795
 20
7.3185971506
 10
14.1008640919
 20
7.2855499736
 10
14.0475491117
 20
7.2547687391
 10
13.9903093123
 20
7.2264340838
  0
LWPOLYLINE
  5
612
100
AcDbEntity
  8
0
100
AcDbPolyline
 62
9
  6
CONTINUOUS
 90
3
 70
0
 10
14.3568068394
 20
7.2544513922
 10
14.3627474421
 20
7.3053247914
 10
14.3629951504
 20
7.3180728565
  0
LWPOLYLINE
  5
613
100
AcDbEntity
  8
0
100
AcDbPolyline
 62
7
  6
CONTINUOUS
 90
7
 70
0
 10
14.3589297088
 20
8.0537927721
 10
14.3498240537
 20
8.1358652757
 10
14.3238550854
 20
8.2175168447
 10
14.280198521
 20
8.2976847269
 10
14.2184140804
 20
8.3744906389
 10
14.1393800454
 20
8.4454042023
 10
14.045352885
 20
8.508129024
  0
LWPOLYLINE
  5
614
100
AcDbEntity
  8
AXIS
100
AcDbPolyline
 62
7
  6
CONTINUOUS
 90
27
 70
0
 10
13.9076791231
 20
8.4592422175
 10
13.9675792979
 20
8.4202065344
 10
14.0188929161
 20
8.3772869588
 10
14.0608717098
 20
8.331109355
 10
14.0929035334
 20
8.2823470963
 10
14.1145212911
 20
8.2317112462
 10
14.125409747
 20
8.1799401895
 10
14.1254101231
 20
8.1277888647
 10
14.1145224138
 20
8.0760177556
 10
14.0929053865
 20
8.0253818016
 10
14.0608742661
 20
7.9766193889
 10
14.0188961385
 20
7.9304415833
 10
13.9675831392
 20
7.8875217611
 10
13.9076835275
 20
7.84848579
 10
13.8400707744
 20
7.8139029023
 10
13.7657308262
 20
7.7842773946
 10
13.6857477267
 20
7.7600412732
 10
13.6012878097
 20
7.7415479556
 10
13.5135826908
 20
7.7290671158
 10
13.4239113083
 20
7.7227807527
 10
13.3335812728
 20
7.7227805356
 10
13.2439097996
 20
7.7290664676
 10
13.1562045008
 20
7.7415468857
 10
13.071744317
 20
7.7600397973
 10
12.991760868
 20
7.7842755342
 10
12.9174204925
 20
7.8139006846
 10
12.8498072407
 20
7.8484832471
  0
LWPOLYLINE
  5
615
100
AcDbEntity
  8
0
100
AcDbPolyline
 62
7
  6
CONTINUOUS
 90
18
 70
0
 10
14.045352885
 20
8.508129024
 10
13.9394110475
 20
8.5611027013
 10
13.8234933677
 20
8.6039581471
 10
13.6999628296
 20
8.6362545295
 10
13.5711801484
 20
8.6577226346
 10
13.4395364052
 20
8.6682325554
 10
13.3069830893
 20
8.6677783344
 10
13.1757269728
 20
8.6563895546
 10
13.0478850963
 20
8.6341697952
 10
12.9254239997
 20
8.6012402903
 10
12.8108393703
 20
8.5579517036
 10
12.7062121669
 20
8.5046812232
 10
12.6138675832
 20
8.4421087888
 10
12.5368123102
 20
8.3721029596
 10
12.4765074215
 20
8.2965140368
 10
12.4334885624
 20
8.2171824819
 10
12.4076578629
 20
8.1358443362
 10
12.398556655
 20
8.0537927721
  0
LWPOLYLINE
  5
616
100
AcDbEntity
  8
0
100
AcDbPolyline
 62
9
  6
CONTINUOUS
 90
23
 70
0
 10
13.9813775926
 20
8.5017917947
 10
13.8895670035
 20
8.5477274429
 10
13.7872749012
 20
8.5856915383
 10
13.6766588157
 20
8.6148654653
 10
13.5599780145
 20
8.634652576
 10
13.4396072748
 20
8.6446503357
 10
13.3179972714
 20
8.6446552162
 10
13.1976240949
 20
8.6346671142
 10
13.0809386465
 20
8.6148893914
 10
12.9703167581
 20
8.5857247367
 10
12.8680108095
 20
8.5477669713
 10
12.7761038472
 20
8.5017889519
 10
12.6964671796
 20
8.4487268326
 10
12.6307222851
 20
8.3896610097
 10
12.5802077874
 20
8.3257941161
 10
12.5459522082
 20
8.2584265411
 10
12.528653024
 20
8.1889299632
 10
12.5286624532
 20
8.1187193936
 10
12.5459802968
 20
8.0492243835
 10
12.5802540076
 20
7.981859811
 10
12.6307863532
 20
7.917996722
 10
12.6965439626
 20
7.8589394212
 10
12.7761087712
 20
7.8059336699
  0
LWPOLYLINE
  5
617
100
AcDbEntity
  8
AXIS
100
AcDbPolyline
 62
7
  6
CONTINUOUS
 90
27
 70
0
 10
13.9076791231
 20
8.4592422175
 10
13.8400658713
 20
8.4938247801
 10
13.7657254958
 20
8.5234499305
 10
13.6857420468
 20
8.5476856673
 10
13.601281863
 20
8.5661785789
 10
13.5135765642
 20
8.578658997
 10
13.423905091
 20
8.584944929
 10
13.3335750555
 20
8.5849447119
 10
13.2439036729
 20
8.5786583488
 10
13.1561985541
 20
8.5661775091
 10
13.071738637
 20
8.5476841914
 10
12.9917555376
 20
8.5234480701
 10
12.9174155894
 20
8.4938225623
 10
12.8498028363
 20
8.4592396747
 10
12.7899032245
 20
8.4202037036
 10
12.7385902253
 20
8.3772838814
 10
12.6966120977
 20
8.3311060757
 10
12.6645809773
 20
8.282343663
 10
12.64296395
 20
8.231707709
 10
12.6320762407
 20
8.1799365999
 10
12.6320766168
 20
8.1277852752
 10
12.6429650727
 20
8.0760142185
 10
12.6645828303
 20
8.0253783684
 10
12.696614654
 20
7.9766161096
 10
12.7385934476
 20
7.9304385058
 10
12.7899070659
 20
7.8875189303
 10
12.8498072407
 20
7.8484832471
  0
LINE
  5
618
100
AcDbEntity
  8
02___PRT_ALL_AXES
100
AcDbLine
 62
7
  6
CENTER
 10
5.5978414873
 20
8.4541853742
 11
5.5978414873
 21
7.3699334056
  0
LINE
  5
619
100
AcDbEntity
  8
02___PRT_ALL_AXES
100
AcDbLine
 62
7
  6
CENTER
 10
5.5978414873
 20
8.4541853742
 11
5.5978414873
 21
9.5384373427
  0
LINE
  5
61A
100
AcDbEntity
  8
02___PRT_ALL_AXES
100
AcDbLine
 62
7
  6
CENTER
 10
5.5978414873
 20
8.4541853742
 11
4.5135895188
 21
8.4541853742
  0
LINE
  5
61B
100
AcDbEntity
  8
02___PRT_ALL_AXES
100
AcDbLine
 62
7
  6
CENTER
 10
5.5978414873
 20
8.4541853742
 11
6.6820934558
 21
8.4541853742
  0
CIRCLE
  5
61C
100
AcDbEntity
  8
0
100
AcDbCircle
 62
7
  6
CONTINUOUS
 10
10.5342808475
 20
1.243294839
 40
0.252091
  0
CIRCLE
  5
61D
100
AcDbEntity
  8
0
100
AcDbCircle
 62
7
  6
CONTINUOUS
 10
10.5342808475
 20
1.243294839
 40
0.182698
  0
ARC
  5
61E
100
AcDbEntity
  8
AXIS
100
AcDbCircle
 62
7
  6
CONTINUOUS
 10
5.5584765875
 20
-1.6384461793
 40
7.874015748
100
AcDbArc
 50
84.2608673975
 51
89.7135575941
  0
ARC
  5
61F
100
AcDbEntity
  8
AXIS
100
AcDbCircle
 62
7
  6
CONTINUOUS
 10
5.6372063871
 20
-1.6384461793
 40
7.874015748
100
AcDbArc
 50
90.2864424059
 51
95.7391326025
  0
ARC
  5
620
100
AcDbEntity
  8
0
100
AcDbCircle
 62
7
  6
CONTINUOUS
 10
6.4500987924
 20
6.0681483342
 40
0.1279527559
100
AcDbArc
 50
0.5
 51
90.0
  0
ARC
  5
621
100
AcDbEntity
  8
0
100
AcDbCircle
 62
7
  6
CONTINUOUS
 10
4.7455841823
 20
6.0681483342
 40
0.1279527559
100
AcDbArc
 50
90.0
 51
179.5
  0
ARC
  5
622
100
AcDbEntity
  8
0
100
AcDbCircle
 62
7
  6
CONTINUOUS
 10
5.0860304637
 20
4.2669672318
 40
0.0393700787
100
AcDbArc
 50
180.0
 51
270.0
  0
ARC
  5
623
100
AcDbEntity
  8
0
100
AcDbCircle
 62
7
  6
CONTINUOUS
 10
6.1096525109
 20
4.2669672318
 40
0.0393700787
100
AcDbArc
 50
270.0
 51
360.0
  0
ARC
  5
624
100
AcDbEntity
  8
0
100
AcDbCircle
 62
7
  6
CONTINUOUS
 10
5.0072903062
 20
5.0937388854
 40
0.0393700787
100
AcDbArc
 50
5.6745913274
 51
90.0
  0
ARC
  5
625
100
AcDbEntity
  8
0
100
AcDbCircle
 62
7
  6
CONTINUOUS
 10
6.1883926684
 20
5.0937388854
 40
0.0393700787
100
AcDbArc
 50
90.0
 51
180.0
  0
CIRCLE
  5
626
100
AcDbEntity
  8
02___PRT_ALL_AXES
100
AcDbCircle
 62
7
  6
CONTINUOUS
 10
5.5978414873
 20
8.4541853742
 40
0.9842519685
  0
CIRCLE
  5
627
100
AcDbEntity
  8
AXIS
100
AcDbCircle
 62
7
  6
CONTINUOUS
 10
5.5978414873
 20
8.4541853742
 40
0.9842519685
  0
CIRCLE
  5
628
100
AcDbEntity
  8
0
100
AcDbCircle
 62
9
  6
CONTINUOUS
 10
5.5978414873
 20
8.4541853742
 40
0.9802051889
  0
CIRCLE
  5
629
100
AcDbEntity
  8
0
100
AcDbCircle
 62
9
  6
CONTINUOUS
 10
5.5978414873
 20
8.4541853742
 40
0.8522573051
  0
CIRCLE
  5
62A
100
AcDbEntity
  8
AXIS
100
AcDbCircle
 62
7
  6
CONTINUOUS
 10
5.5978414873
 20
8.4541853742
 40
0.7480314961
  0
ENDSEC
  0
SECTION
  2
OBJECTS
  0
DICTIONARY
  5
C
100
AcDbDictionary
280
0
281
1
  3
ACAD_GROUP
350
D
  3
ACAD_MLINESTYLE
350
17
  3
ACAD_LAYOUT
350
1A
  3
ACAD_PLOTSETTINGS
350
19
  3
ACAD_PLOTSTYLENAME
350
E
  0
DICTIONARY
  5
D
102
{ACAD_REACTORS
330
C
102
}
100
AcDbDictionary
280
0
281
1
  0
ACDBDICTIONARYWDFLT
  5
E
102
{ACAD_REACTORS
330
C
102
}
100
AcDbDictionary
281
1
  3
Normal
350
F
100
AcDbDictionaryWithDefault
340
F
  0
DICTIONARY
  5
17
102
{ACAD_REACTORS
330
C
102
}
100
AcDbDictionary
280
0
281
1
  3
Standard
350
18
  0
DICTIONARY
  5
19
102
{ACAD_REACTORS
330
C
102
}
100
AcDbDictionary
281
1
  0
DICTIONARY
  5
1A
102
{ACAD_REACTORS
330
C
102
}
100
AcDbDictionary
281
1
  3
Model
350
62B
  3
Layout1
350
62C
  0
ACDBPLACEHOLDER
  5
F
102
{ACAD_REACTORS
330
E
102
}
  0
MLINESTYLE
  5
18
102
{ACAD_REACTORS
330
17
102
}
100
AcDbMlineStyle
  2
STANDARD
 70
0
  3

 62
256
 51
90.0
 52
90.0
 71
2
 49
0.5
 62
256
  6
BYLAYER
 49
-0.5
 62
256
  6
BYLAYER
  0
LAYOUT
  5
62B
102
{ACAD_REACTORS
330
1A
102
}
100
AcDbPlotSettings
  1

  2
none_device
  4
ANSI_B_(17.00_x_11.00_Inches)
  6

 40
0.0
 41
0.0
 42
0.0
 43
0.0
 44
431.8
 45
279.4
 46
0.0
 47
0.0
 48
0.0
 49
0.0
140
0.0
141
0.0
142
1.0
143
1.0
 70
1024
 72
0
 73
0
 74
0
  7

 75
0
147
1.0
148
0.0
149
0.0
100
AcDbLayout
  1
Model
 70
0
 71
0
 10
0.0
 20
0.0
 11
17.0
 21
11.0
 12
0.0
 22
0.0
 32
0.0
 14
0.0
 24
0.0
 34
0.0
 15
0.0
 25
0.0
 35
0.0
146
0.0
 13
0.0
 23
0.0
 33
0.0
 16
1.0
 26
0.0
 36
0.0
 17
0.0
 27
1.0
 37
0.0
 76
0
330
214
345
0
346
0
  0
LAYOUT
  5
62C
102
{ACAD_REACTORS
330
1A
102
}
100
AcDbPlotSettings
  1

  2
none_device
  4
ANSI_B_(17.00_x_11.00_Inches)
  6

 40
0.0
 41
0.0
 42
0.0
 43
0.0
 44
431.8
 45
279.4
 46
0.0
 47
0.0
 48
0.0
 49
0.0
140
0.0
141
0.0
142
1.0
143
1.0
 70
0
 72
0
 73
0
 74
0
  7

 75
0
147
1.0
148
0.0
149
0.0
100
AcDbLayout
  1
Layout1
 70
0
 71
1
 10
0.0
 20
0.0
 11
17.0
 21
11.0
 12
0.0
 22
0.0
 32
0.0
 14
0.0
 24
0.0
 34
0.0
 15
0.0
 25
0.0
 35
0.0
146
0.0
 13
0.0
 23
0.0
 33
0.0
 16
1.0
 26
0.0
 36
0.0
 17
0.0
 27
1.0
 37
0.0
 76
0
330
215
345
0
346
0
  0
ENDSEC
  0
EOF
